  0
SECTION
  2
HEADER
  9
$ACADVER
  1
AC1015
  9
$ACADMAINTVER
 70
     6
  9
$DWGCODEPAGE
  3
ANSI_1252
  9
$INSBASE
 10
0.0
 20
0.0
 30
0.0
  9
$EXTMIN
 10
-209.760318
 20
-147.978432
 30
0.0
  9
$EXTMAX
 10
630.239682
 20
446.021568
 30
0.0
  9
$LIMMIN
 10
-209.760318
 20
-147.978432
  9
$LIMMAX
 10
630.239682
 20
446.021568
  9
$ORTHOMODE
 70
     0
  9
$REGENMODE
 70
     1
  9
$FILLMODE
 70
     1
  9
$QTEXTMODE
 70
     0
  9
$MIRRTEXT
 70
     1
  9
$LTSCALE
 40
2.0
  9
$ATTMODE
 70
     1
  9
$TEXTSIZE
 40
2.5
  9
$TRACEWID
 40
1.0
  9
$TEXTSTYLE
  7
Standard
  9
$CLAYER
  8
0
  9
$CELTYPE
  6
ByLayer
  9
$CECOLOR
 62
     7
  9
$CELTSCALE
 40
1.0
  9
$DISPSILH
 70
     0
  9
$DIMSCALE
 40
2.0
  9
$DIMASZ
 40
3.5
  9
$DIMEXO
 40
0.625
  9
$DIMDLI
 40
3.75
  9
$DIMRND
 40
0.0
  9
$DIMDLE
 40
0.0
  9
$DIMEXE
 40
1.25
  9
$DIMTP
 40
0.0
  9
$DIMTM
 40
0.0
  9
$DIMTXT
 40
3.5
  9
$DIMCEN
 40
2.5
  9
$DIMTSZ
 40
0.0
  9
$DIMTOL
 70
     0
  9
$DIMLIM
 70
     0
  9
$DIMTIH
 70
     0
  9
$DIMTOH
 70
     0
  9
$DIMSE1
 70
     0
  9
$DIMSE2
 70
     0
  9
$DIMTAD
 70
     1
  9
$DIMZIN
 70
     8
  9
$DIMBLK
  1

  9
$DIMASO
 70
     1
  9
$DIMSHO
 70
     1
  9
$DIMPOST
  1

  9
$DIMAPOST
  1

  9
$DIMALT
 70
     0
  9
$DIMALTD
 70
     3
  9
$DIMALTF
 40
0.03937
  9
$DIMLFAC
 40
1.0
  9
$DIMTOFL
 70
     1
  9
$DIMTVP
 40
0.0
  9
$DIMTIX
 70
     0
  9
$DIMSOXD
 70
     0
  9
$DIMSAH
 70
     0
  9
$DIMBLK1
  1

  9
$DIMBLK2
  1

  9
$DIMSTYLE
  2
ISO-25
  9
$DIMCLRD
 70
     0
  9
$DIMCLRE
 70
     0
  9
$DIMCLRT
 70
     0
  9
$DIMTFAC
 40
1.0
  9
$DIMGAP
 40
0.625
  9
$DIMJUST
 70
     0
  9
$DIMSD1
 70
     0
  9
$DIMSD2
 70
     0
  9
$DIMTOLJ
 70
     0
  9
$DIMTZIN
 70
     8
  9
$DIMALTZ
 70
     0
  9
$DIMALTTZ
 70
     0
  9
$DIMUPT
 70
     0
  9
$DIMDEC
 70
     2
  9
$DIMTDEC
 70
     2
  9
$DIMALTU
 70
     2
  9
$DIMALTTD
 70
     3
  9
$DIMTXSTY
  7
Standard
  9
$DIMAUNIT
 70
     0
  9
$DIMADEC
 70
     0
  9
$DIMALTRND
 40
0.0
  9
$DIMAZIN
 70
     0
  9
$DIMDSEP
 70
    44
  9
$DIMATFIT
 70
     3
  9
$DIMFRAC
 70
     0
  9
$DIMLDRBLK
  1

  9
$DIMLUNIT
 70
     2
  9
$DIMLWD
 70
    -2
  9
$DIMLWE
 70
    -2
  9
$DIMTMOVE
 70
     0
  9
$LUNITS
 70
     2
  9
$LUPREC
 70
     4
  9
$SKETCHINC
 40
1.0
  9
$FILLETRAD
 40
10.0
  9
$AUNITS
 70
     0
  9
$AUPREC
 70
     0
  9
$MENU
  1
.
  9
$ELEVATION
 40
0.0
  9
$PELEVATION
 40
0.0
  9
$THICKNESS
 40
0.0
  9
$LIMCHECK
 70
     0
  9
$CHAMFERA
 40
10.0
  9
$CHAMFERB
 40
10.0
  9
$CHAMFERC
 40
20.0
  9
$CHAMFERD
 40
0.0
  9
$SKPOLY
 70
     0
  9
$TDCREATE
 40
2456002.258081123
  9
$TDUCREATE
 40
2456002.216414456
  9
$TDUPDATE
 40
2456002.258081134
  9
$TDUUPDATE
 40
2456002.216414467
  9
$TDINDWG
 40
0.0000000116
  9
$TDUSRTIMER
 40
0.0000000116
  9
$USRTIMER
 70
     1
  9
$ANGBASE
 50
0.0
  9
$ANGDIR
 70
     0
  9
$PDMODE
 70
     0
  9
$PDSIZE
 40
0.0
  9
$PLINEWID
 40
0.0
  9
$SPLFRAME
 70
     0
  9
$SPLINETYPE
 70
     6
  9
$SPLINESEGS
 70
     8
  9
$HANDSEED
  5
616
  9
$SURFTAB1
 70
     6
  9
$SURFTAB2
 70
     6
  9
$SURFTYPE
 70
     6
  9
$SURFU
 70
     6
  9
$SURFV
 70
     6
  9
$UCSBASE
  2

  9
$UCSNAME
  2

  9
$UCSORG
 10
0.0
 20
0.0
 30
0.0
  9
$UCSXDIR
 10
1.0
 20
0.0
 30
0.0
  9
$UCSYDIR
 10
0.0
 20
1.0
 30
0.0
  9
$UCSORTHOREF
  2

  9
$UCSORTHOVIEW
 70
     0
  9
$UCSORGTOP
 10
0.0
 20
0.0
 30
0.0
  9
$UCSORGBOTTOM
 10
0.0
 20
0.0
 30
0.0
  9
$UCSORGLEFT
 10
0.0
 20
0.0
 30
0.0
  9
$UCSORGRIGHT
 10
0.0
 20
0.0
 30
0.0
  9
$UCSORGFRONT
 10
0.0
 20
0.0
 30
0.0
  9
$UCSORGBACK
 10
0.0
 20
0.0
 30
0.0
  9
$PUCSBASE
  2

  9
$PUCSNAME
  2

  9
$PUCSORG
 10
0.0
 20
0.0
 30
0.0
  9
$PUCSXDIR
 10
1.0
 20
0.0
 30
0.0
  9
$PUCSYDIR
 10
0.0
 20
1.0
 30
0.0
  9
$PUCSORTHOREF
  2

  9
$PUCSORTHOVIEW
 70
     0
  9
$PUCSORGTOP
 10
0.0
 20
0.0
 30
0.0
  9
$PUCSORGBOTTOM
 10
0.0
 20
0.0
 30
0.0
  9
$PUCSORGLEFT
 10
0.0
 20
0.0
 30
0.0
  9
$PUCSORGRIGHT
 10
0.0
 20
0.0
 30
0.0
  9
$PUCSORGFRONT
 10
0.0
 20
0.0
 30
0.0
  9
$PUCSORGBACK
 10
0.0
 20
0.0
 30
0.0
  9
$USERI1
 70
     0
  9
$USERI2
 70
     0
  9
$USERI3
 70
     0
  9
$USERI4
 70
     0
  9
$USERI5
 70
     0
  9
$USERR1
 40
0.0
  9
$USERR2
 40
0.0
  9
$USERR3
 40
0.0
  9
$USERR4
 40
0.0
  9
$USERR5
 40
0.0
  9
$WORLDVIEW
 70
     1
  9
$SHADEDGE
 70
     3
  9
$SHADEDIF
 70
    70
  9
$TILEMODE
 70
     1
  9
$MAXACTVP
 70
    64
  9
$PINSBASE
 10
0.0
 20
0.0
 30
0.0
  9
$PLIMCHECK
 70
     0
  9
$PEXTMIN
 10
-209.760318
 20
-147.978432
 30
0.0
  9
$PEXTMAX
 10
630.239682
 20
446.021568
 30
0.0
  9
$PLIMMIN
 10
-209.760318
 20
-147.978432
  9
$PLIMMAX
 10
630.239682
 20
446.021568
  9
$UNITMODE
 70
     0
  9
$VISRETAIN
 70
     1
  9
$PLINEGEN
 70
     0
  9
$PSLTSCALE
 70
     1
  9
$TREEDEPTH
 70
  3020
  9
$CMLSTYLE
  2
Standard
  9
$CMLJUST
 70
     0
  9
$CMLSCALE
 40
20.0
  9
$PROXYGRAPHICS
 70
     1
  9
$MEASUREMENT
 70
     1
  9
$CELWEIGHT
370
    -1
  9
$ENDCAPS
280
     0
  9
$JOINSTYLE
280
     0
  9
$LWDISPLAY
290
     0
  9
$INSUNITS
 70
     4
  9
$HYPERLINKBASE
  1

  9
$STYLESHEET
  1

  9
$XEDIT
290
     1
  9
$CEPSNTYPE
380
     0
  9
$PSTYLEMODE
290
     1
  9
$FINGERPRINTGUID
  2
{FAEB1C30-E019-11D5-929B-00C0DF256EC4}
  9
$VERSIONGUID
  2
{FAEB1C32-E019-11D5-929B-00C0DF256EC4}
  9
$EXTNAMES
290
     1
  9
$PSVPSCALE
 40
0.0
  9
$OLESTARTUP
290
     0
  0
ENDSEC
  0
SECTION
  2
CLASSES
  0
CLASS
  1
ACDBDICTIONARYWDFLT
  2
AcDbDictionaryWithDefault
  3
ObjectDBX Classes
 90
        0
280
     0
281
     0
  0
CLASS
  1
ACDBPLACEHOLDER
  2
AcDbPlaceHolder
  3
ObjectDBX Classes
 90
        0
280
     0
281
     0
  0
CLASS
  1
LAYOUT
  2
AcDbLayout
  3
ObjectDBX Classes
 90
        0
280
     0
281
     0
  0
ENDSEC
  0
SECTION
  2
TABLES
  0
TABLE
  2
VPORT
  5
8
330
0
100
AcDbSymbolTable
 70
     2
  0
VPORT
  5
29
330
8
100
AcDbSymbolTableRecord
100
AcDbViewportTableRecord
  2
*ACTIVE
 70
     0
 10
0.0
 20
0.0
 11
1.0
 21
1.0
 12
210.239682
 22
149.021568
 13
0.0
 23
0.0
 14
1.0
 24
1.0
 15
0.0
 25
0.0
 16
0.0
 26
0.0
 36
1.0
 17
0.0
 27
0.0
 37
0.0
 40
594.0
 41
1.414141
 42
50.0
 43
0.0
 44
0.0
 50
0.0
 51
0.0
 71
    16
 72
   100
 73
     1
 74
     0
 75
     0
 76
     0
 77
     0
 78
     0
281
     0
 65
     0
110
0.0
120
0.0
130
0.0
111
1.0
121
0.0
131
0.0
112
0.0
122
1.0
132
0.0
 79
     0
146
0.0
  0
ENDTAB
  0
TABLE
  2
LTYPE
  5
5
330
0
100
AcDbSymbolTable
 70
     3
  0
LTYPE
  5
14
330
5
100
AcDbSymbolTableRecord
100
AcDbLinetypeTableRecord
  2
ByBlock
 70
     0
  3

 72
    65
 73
     0
 40
0.0
  0
LTYPE
  5
15
330
5
100
AcDbSymbolTableRecord
100
AcDbLinetypeTableRecord
  2
ByLayer
 70
     0
  3

 72
    65
 73
     0
 40
0.0
  0
LTYPE
  5
16
330
5
100
AcDbSymbolTableRecord
100
AcDbLinetypeTableRecord
  2
Continuous
 70
     0
  3
Solid line
 72
    65
 73
     0
 40
0.0
  0
LTYPE
  5
2A
330
5
100
AcDbSymbolTableRecord
100
AcDbLinetypeTableRecord
  2
DASHED
 70
     0
  3
__ __ __ __ __
 72
    65
 73
     2
 40
6.25
 49
5.0
 74
     4
 75
     0
340
0
 46
1.0
 50
0.0
 44
0.0
 45
0.0
 49
-1.25
 74
     4
 75
     0
340
0
 46
1.0
 50
0.0
 44
0.0
 45
0.0
  0
LTYPE
  5
5C7
330
5
100
AcDbSymbolTableRecord
100
AcDbLinetypeTableRecord
  2
DASHDOT
 70
     0
  3
__ . __ . __ . __ . __
 72
    65
 73
     4
 40
7.5
 49
5.0
 74
     4
 75
     0
340
0
 46
1.0
 50
0.0
 44
0.0
 45
0.0
 49
-1.25
 74
     4
 75
     0
340
0
 46
1.0
 50
0.0
 44
0.0
 45
0.0
 49
0.0
 74
     4
 75
     0
340
0
 46
1.0
 50
0.0
 44
0.0
 45
0.0
 49
-1.25
 74
     4
 75
     0
340
0
 46
1.0
 50
0.0
 44
0.0
 45
0.0
  0
ENDTAB
  0
TABLE
  2
LAYER
  5
2
330
0
100
AcDbSymbolTable
 70
     9
  0
LAYER
  5
10
330
2
100
AcDbSymbolTableRecord
100
AcDbLayerTableRecord
  2
0
 70
     0
 62
     7
  6
Continuous
370
    -3
390
F
  0
LAYER
  5
2B
330
2
100
AcDbSymbolTableRecord
100
AcDbLayerTableRecord
  2
LC-INFO-1-2-mm-A3-0
 70
     1
 62
     7
  6
ByBlock
370
    -3
390
F
  0
LAYER
  5
2C
330
2
100
AcDbSymbolTableRecord
100
AcDbLayerTableRecord
  2
LC-CUT-HIDDEN
 70
     0
 62
     7
  6
DASHED
370
    -3
390
F
  0
LAYER
  5
2D
330
2
100
AcDbSymbolTableRecord
100
AcDbLayerTableRecord
  2
LC-VIEWPORT
 70
     0
 62
     7
  6
ByBlock
370
    -3
390
F
  0
LAYER
  5
2E
330
2
100
AcDbSymbolTableRecord
100
AcDbLayerTableRecord
  2
LC-3D-HIDDEN
 70
     0
 62
     9
  6
DASHED
370
    -3
390
F
  0
LAYER
  5
31
330
2
100
AcDbSymbolTableRecord
100
AcDbLayerTableRecord
  2
LC-001-100-D00-0
 70
     0
 62
     1
  6
ByBlock
370
    -3
390
F
  0
LAYER
  5
59F
330
2
100
AcDbSymbolTableRecord
100
AcDbLayerTableRecord
  2
Defpoints
 70
     0
 62
     7
  6
Continuous
290
     0
370
    -3
390
F
  0
LAYER
  5
5C8
330
2
100
AcDbSymbolTableRecord
100
AcDbLayerTableRecord
  2
LC-002-105-D00-0
 70
     0
 62
     2
  6
DASHDOT
370
    -3
390
F
  0
LAYER
  5
5CA
330
2
100
AcDbSymbolTableRecord
100
AcDbLayerTableRecord
  2
LC-003-003-----0
 70
     0
 62
     2
  6
ByBlock
370
    -3
390
F
  0
ENDTAB
  0
TABLE
  2
STYLE
  5
3
330
0
100
AcDbSymbolTable
 70
     4
  0
STYLE
  5
11
330
3
100
AcDbSymbolTableRecord
100
AcDbTextStyleTableRecord
  2
Standard
 70
     0
 40
0.0
 41
1.0
 50
0.0
 71
     0
 42
2.5
  3
txt
  4

  0
STYLE
  5
2F
330
3
100
AcDbSymbolTableRecord
100
AcDbTextStyleTableRecord
  2
LCTX0-400-0-0pDIN-Schrift
 70
     0
 40
0.0
 41
0.75
 50
0.0
 71
     0
 42
3.5
  3
TXT
  4

  0
STYLE
  5
30
330
3
100
AcDbSymbolTableRecord
100
AcDbTextStyleTableRecord
  2
LCTX15-400-0-0-Arial
 70
     0
 40
0.0
 41
0.8
 50
0.0
 71
     0
 42
3.5
  3

  4

1001
ACAD
1000
Arial
1071
 16777218
  0
STYLE
  5
59C
330
3
100
AcDbSymbolTableRecord
100
AcDbTextStyleTableRecord
  2
LCTX15-400-0-0pDIN-Schrift
 70
     0
 40
2.5
 41
0.8
 50
15.0
 71
     0
 42
3.5
  3
STANDARD
  4

  0
ENDTAB
  0
TABLE
  2
VIEW
  5
6
330
0
100
AcDbSymbolTable
 70
     0
  0
ENDTAB
  0
TABLE
  2
UCS
  5
7
330
0
100
AcDbSymbolTable
 70
     0
  0
ENDTAB
  0
TABLE
  2
APPID
  5
9
330
0
100
AcDbSymbolTable
 70
     1
  0
APPID
  5
12
330
9
100
AcDbSymbolTableRecord
100
AcDbRegAppTableRecord
  2
ACAD
 70
     0
  0
ENDTAB
  0
TABLE
  2
DIMSTYLE
  5
A
330
0
100
AcDbSymbolTable
 70
     2
100
AcDbDimStyleTable
  0
DIMSTYLE
105
27
330
A
100
AcDbSymbolTableRecord
100
AcDbDimStyleTableRecord
  2
ISO-25
 70
     0
 41
2.5
 42
0.625
 43
3.75
 44
1.25
 73
     0
 74
     0
 77
     1
 78
     8
140
2.5
141
2.5
143
0.03937
147
0.625
171
     3
172
     1
271
     2
272
     2
274
     3
278
    44
283
     0
284
     8
340
11
  0
DIMSTYLE
105
59D
102
{ACAD_REACTORS
330
59E
330
5AD
330
5BA
330
5CB
330
5D8
330
5E5
330
5FA
330
609
102
}
330
A
100
AcDbSymbolTableRecord
100
AcDbDimStyleTableRecord
  2
LC-DIM-L-0140-02-02
 70
     0
 40
2.0
 41
14.0
 42
0.0
 43
7.5
 44
1.8
 73
     0
 74
     0
 77
     1
 78
     8
 79
     2
140
14.0
141
0.0
146
0.71
147
1.5
176
     2
177
     2
178
     2
179
     2
271
     2
278
    44
289
     1
340
59C
  0
ENDTAB
  0
TABLE
  2
BLOCK_RECORD
  5
1
330
0
100
AcDbSymbolTable
 70
    63
  0
BLOCK_RECORD
  5
1F
330
1
100
AcDbSymbolTableRecord
100
AcDbBlockTableRecord
  2
*Model_Space
340
22
  0
BLOCK_RECORD
  5
1B
330
1
100
AcDbSymbolTableRecord
100
AcDbBlockTableRecord
  2
*Paper_Space
340
1E
  0
BLOCK_RECORD
  5
23
330
1
100
AcDbSymbolTableRecord
100
AcDbBlockTableRecord
  2
*Paper_Space0
340
26
  0
BLOCK_RECORD
  5
73
330
1
100
AcDbSymbolTableRecord
100
AcDbBlockTableRecord
  2
POLY1
340
0
102
{BLKREFS
331
82
102
}
  0
BLOCK_RECORD
  5
83
330
1
100
AcDbSymbolTableRecord
100
AcDbBlockTableRecord
  2
POLY2
340
0
102
{BLKREFS
331
90
102
}
  0
BLOCK_RECORD
  5
91
330
1
100
AcDbSymbolTableRecord
100
AcDbBlockTableRecord
  2
POLY3
340
0
102
{BLKREFS
331
9E
102
}
  0
BLOCK_RECORD
  5
9F
330
1
100
AcDbSymbolTableRecord
100
AcDbBlockTableRecord
  2
POLY4
340
0
102
{BLKREFS
331
AA
102
}
  0
BLOCK_RECORD
  5
AC
330
1
100
AcDbSymbolTableRecord
100
AcDbBlockTableRecord
  2
POLY5
340
0
102
{BLKREFS
331
B7
102
}
  0
BLOCK_RECORD
  5
B8
330
1
100
AcDbSymbolTableRecord
100
AcDbBlockTableRecord
  2
POLY6
340
0
102
{BLKREFS
331
CD
102
}
  0
BLOCK_RECORD
  5
CE
330
1
100
AcDbSymbolTableRecord
100
AcDbBlockTableRecord
  2
POLY7
340
0
102
{BLKREFS
331
E5
102
}
  0
BLOCK_RECORD
  5
19F
330
1
100
AcDbSymbolTableRecord
100
AcDbBlockTableRecord
  2
POLY8
340
0
102
{BLKREFS
331
1B2
102
}
  0
BLOCK_RECORD
  5
1B3
330
1
100
AcDbSymbolTableRecord
100
AcDbBlockTableRecord
  2
POLY9
340
0
102
{BLKREFS
331
1C6
102
}
  0
BLOCK_RECORD
  5
1C7
330
1
100
AcDbSymbolTableRecord
100
AcDbBlockTableRecord
  2
POLY10
340
0
102
{BLKREFS
331
1D6
102
}
  0
BLOCK_RECORD
  5
1D7
330
1
100
AcDbSymbolTableRecord
100
AcDbBlockTableRecord
  2
POLY11
340
0
102
{BLKREFS
331
1E6
102
}
  0
BLOCK_RECORD
  5
22B
330
1
100
AcDbSymbolTableRecord
100
AcDbBlockTableRecord
  2
POLY12
340
0
102
{BLKREFS
331
23E
102
}
  0
BLOCK_RECORD
  5
23F
330
1
100
AcDbSymbolTableRecord
100
AcDbBlockTableRecord
  2
POLY13
340
0
102
{BLKREFS
331
252
102
}
  0
BLOCK_RECORD
  5
253
330
1
100
AcDbSymbolTableRecord
100
AcDbBlockTableRecord
  2
POLY14
340
0
102
{BLKREFS
331
262
102
}
  0
BLOCK_RECORD
  5
263
330
1
100
AcDbSymbolTableRecord
100
AcDbBlockTableRecord
  2
POLY15
340
0
102
{BLKREFS
331
272
102
}
  0
BLOCK_RECORD
  5
273
330
1
100
AcDbSymbolTableRecord
100
AcDbBlockTableRecord
  2
POLY16
340
0
102
{BLKREFS
331
286
102
}
  0
BLOCK_RECORD
  5
287
330
1
100
AcDbSymbolTableRecord
100
AcDbBlockTableRecord
  2
POLY17
340
0
102
{BLKREFS
331
29A
102
}
  0
BLOCK_RECORD
  5
29B
330
1
100
AcDbSymbolTableRecord
100
AcDbBlockTableRecord
  2
POLY18
340
0
102
{BLKREFS
331
2AA
102
}
  0
BLOCK_RECORD
  5
2AB
330
1
100
AcDbSymbolTableRecord
100
AcDbBlockTableRecord
  2
POLY19
340
0
102
{BLKREFS
331
2BA
102
}
  0
BLOCK_RECORD
  5
2BB
330
1
100
AcDbSymbolTableRecord
100
AcDbBlockTableRecord
  2
POLY20
340
0
102
{BLKREFS
331
2CE
102
}
  0
BLOCK_RECORD
  5
2CF
330
1
100
AcDbSymbolTableRecord
100
AcDbBlockTableRecord
  2
POLY21
340
0
102
{BLKREFS
331
2E2
102
}
  0
BLOCK_RECORD
  5
2E3
330
1
100
AcDbSymbolTableRecord
100
AcDbBlockTableRecord
  2
POLY22
340
0
102
{BLKREFS
331
2F4
102
}
  0
BLOCK_RECORD
  5
2F5
330
1
100
AcDbSymbolTableRecord
100
AcDbBlockTableRecord
  2
POLY23
340
0
102
{BLKREFS
331
308
102
}
  0
BLOCK_RECORD
  5
309
330
1
100
AcDbSymbolTableRecord
100
AcDbBlockTableRecord
  2
POLY24
340
0
102
{BLKREFS
331
31C
102
}
  0
BLOCK_RECORD
  5
31D
330
1
100
AcDbSymbolTableRecord
100
AcDbBlockTableRecord
  2
POLY25
340
0
102
{BLKREFS
331
330
102
}
  0
BLOCK_RECORD
  5
331
330
1
100
AcDbSymbolTableRecord
100
AcDbBlockTableRecord
  2
POLY26
340
0
102
{BLKREFS
331
342
102
}
  0
BLOCK_RECORD
  5
343
330
1
100
AcDbSymbolTableRecord
100
AcDbBlockTableRecord
  2
POLY27
340
0
102
{BLKREFS
331
356
102
}
  0
BLOCK_RECORD
  5
35A
330
1
100
AcDbSymbolTableRecord
100
AcDbBlockTableRecord
  2
POLY28
340
0
102
{BLKREFS
331
36D
102
}
  0
BLOCK_RECORD
  5
36E
330
1
100
AcDbSymbolTableRecord
100
AcDbBlockTableRecord
  2
POLY29
340
0
102
{BLKREFS
331
37F
102
}
  0
BLOCK_RECORD
  5
381
330
1
100
AcDbSymbolTableRecord
100
AcDbBlockTableRecord
  2
POLY30
340
0
102
{BLKREFS
331
392
102
}
  0
BLOCK_RECORD
  5
393
330
1
100
AcDbSymbolTableRecord
100
AcDbBlockTableRecord
  2
POLY31
340
0
102
{BLKREFS
331
3A4
102
}
  0
BLOCK_RECORD
  5
3A5
330
1
100
AcDbSymbolTableRecord
100
AcDbBlockTableRecord
  2
POLY32
340
0
102
{BLKREFS
331
3B4
102
}
  0
BLOCK_RECORD
  5
3B5
330
1
100
AcDbSymbolTableRecord
100
AcDbBlockTableRecord
  2
POLY33
340
0
102
{BLKREFS
331
3C4
102
}
  0
BLOCK_RECORD
  5
3C5
330
1
100
AcDbSymbolTableRecord
100
AcDbBlockTableRecord
  2
POLY34
340
0
102
{BLKREFS
331
3D8
102
}
  0
BLOCK_RECORD
  5
3D9
330
1
100
AcDbSymbolTableRecord
100
AcDbBlockTableRecord
  2
POLY35
340
0
102
{BLKREFS
331
3EA
102
}
  0
BLOCK_RECORD
  5
3EC
330
1
100
AcDbSymbolTableRecord
100
AcDbBlockTableRecord
  2
POLY36
340
0
102
{BLKREFS
331
3FF
102
}
  0
BLOCK_RECORD
  5
400
330
1
100
AcDbSymbolTableRecord
100
AcDbBlockTableRecord
  2
POLY37
340
0
102
{BLKREFS
331
411
102
}
  0
BLOCK_RECORD
  5
412
330
1
100
AcDbSymbolTableRecord
100
AcDbBlockTableRecord
  2
POLY38
340
0
102
{BLKREFS
331
425
102
}
  0
BLOCK_RECORD
  5
427
330
1
100
AcDbSymbolTableRecord
100
AcDbBlockTableRecord
  2
KLON1
340
0
102
{BLKREFS
331
42C
102
}
  0
BLOCK_RECORD
  5
42E
330
1
100
AcDbSymbolTableRecord
100
AcDbBlockTableRecord
  2
POLY39
340
0
102
{BLKREFS
331
441
102
}
  0
BLOCK_RECORD
  5
4BC
330
1
100
AcDbSymbolTableRecord
100
AcDbBlockTableRecord
  2
KLON2
340
0
102
{BLKREFS
331
4D1
102
}
  0
BLOCK_RECORD
  5
4D2
330
1
100
AcDbSymbolTableRecord
100
AcDbBlockTableRecord
  2
KLON3
340
0
102
{BLKREFS
331
4E5
102
}
  0
BLOCK_RECORD
  5
4E6
330
1
100
AcDbSymbolTableRecord
100
AcDbBlockTableRecord
  2
KLON4
340
0
102
{BLKREFS
331
4EE
102
}
  0
BLOCK_RECORD
  5
4EF
330
1
100
AcDbSymbolTableRecord
100
AcDbBlockTableRecord
  2
KLON5
340
0
102
{BLKREFS
331
510
102
}
  0
BLOCK_RECORD
  5
513
330
1
100
AcDbSymbolTableRecord
100
AcDbBlockTableRecord
  2
KLON6
340
0
102
{BLKREFS
331
531
102
}
  0
BLOCK_RECORD
  5
532
330
1
100
AcDbSymbolTableRecord
100
AcDbBlockTableRecord
  2
KLON7
340
0
102
{BLKREFS
331
54D
102
}
  0
BLOCK_RECORD
  5
54E
330
1
100
AcDbSymbolTableRecord
100
AcDbBlockTableRecord
  2
KLON8
340
0
102
{BLKREFS
331
556
102
}
  0
BLOCK_RECORD
  5
557
330
1
100
AcDbSymbolTableRecord
100
AcDbBlockTableRecord
  2
KLON9
340
0
102
{BLKREFS
331
55D
102
}
  0
BLOCK_RECORD
  5
55E
330
1
100
AcDbSymbolTableRecord
100
AcDbBlockTableRecord
  2
KLON10
340
0
102
{BLKREFS
331
56D
102
}
  0
BLOCK_RECORD
  5
56E
330
1
100
AcDbSymbolTableRecord
100
AcDbBlockTableRecord
  2
KLON11
340
0
102
{BLKREFS
331
57D
102
}
  0
BLOCK_RECORD
  5
57E
330
1
100
AcDbSymbolTableRecord
100
AcDbBlockTableRecord
  2
KLON12
340
0
102
{BLKREFS
331
585
102
}
  0
BLOCK_RECORD
  5
587
330
1
100
AcDbSymbolTableRecord
100
AcDbBlockTableRecord
  2
KLON13
340
0
102
{BLKREFS
331
593
102
}
  0
BLOCK_RECORD
  5
595
330
1
100
AcDbSymbolTableRecord
100
AcDbBlockTableRecord
  2
KLON14
340
0
102
{BLKREFS
331
59B
102
}
  0
BLOCK_RECORD
  5
5A0
330
1
100
AcDbSymbolTableRecord
100
AcDbBlockTableRecord
  2
*D54
340
0
  0
BLOCK_RECORD
  5
5AE
330
1
100
AcDbSymbolTableRecord
100
AcDbBlockTableRecord
  2
*D55
340
0
  0
BLOCK_RECORD
  5
5BB
330
1
100
AcDbSymbolTableRecord
100
AcDbBlockTableRecord
  2
*D56
340
0
  0
BLOCK_RECORD
  5
5CC
330
1
100
AcDbSymbolTableRecord
100
AcDbBlockTableRecord
  2
*D57
340
0
  0
BLOCK_RECORD
  5
5D9
330
1
100
AcDbSymbolTableRecord
100
AcDbBlockTableRecord
  2
*D58
340
0
  0
BLOCK_RECORD
  5
5E6
330
1
100
AcDbSymbolTableRecord
100
AcDbBlockTableRecord
  2
*D59
340
0
  0
BLOCK_RECORD
  5
5F2
330
1
100
AcDbSymbolTableRecord
100
AcDbBlockTableRecord
  2
KLON15
340
0
102
{BLKREFS
331
5F9
102
}
  0
BLOCK_RECORD
  5
5FB
330
1
100
AcDbSymbolTableRecord
100
AcDbBlockTableRecord
  2
*D61
340
0
  0
BLOCK_RECORD
  5
60A
330
1
100
AcDbSymbolTableRecord
100
AcDbBlockTableRecord
  2
*D62
340
0
  0
ENDTAB
  0
ENDSEC
  0
SECTION
  2
BLOCKS
  0
BLOCK
  5
20
330
1F
100
AcDbEntity
  8
0
100
AcDbBlockBegin
  2
*Model_Space
 70
     0
 71
     0
 10
0.0
 20
0.0
 30
0.0
  3
*Model_Space
  1

  0
ENDBLK
  5
21
330
1F
100
AcDbEntity
  8
0
100
AcDbBlockEnd
  0
BLOCK
  5
1C
330
1B
100
AcDbEntity
 67
     1
  8
0
100
AcDbBlockBegin
  2
*Paper_Space
 70
     0
 71
     0
 10
0.0
 20
0.0
 30
0.0
  3
*Paper_Space
  1

  0
ENDBLK
  5
1D
330
1B
100
AcDbEntity
 67
     1
  8
0
100
AcDbBlockEnd
  0
BLOCK
  5
24
330
23
100
AcDbEntity
  8
0
100
AcDbBlockBegin
  2
*Paper_Space0
 70
     0
 71
     0
 10
0.0
 20
0.0
 30
0.0
  3
*Paper_Space0
  1

  0
ENDBLK
  5
25
330
23
100
AcDbEntity
  8
0
100
AcDbBlockEnd
  0
BLOCK
  5
74
330
73
100
AcDbEntity
  8
0
100
AcDbBlockBegin
  2
POLY1
 70
     0
 71
     0
 10
0.0
 20
0.0
 30
0.0
  3
POLY1
  1

  4
POLY1
  0
LINE
  5
76
330
73
100
AcDbEntity
  8
LC-001-100-D00-0
 62
     7
370
    50
100
AcDbLine
 10
202.474993
 20
319.918991
 30
0.0
 11
202.474993
 21
319.918991
 31
0.0
  0
LINE
  5
77
330
73
100
AcDbEntity
  8
LC-001-100-D00-0
 62
     7
370
    50
100
AcDbLine
 10
202.474993
 20
319.918991
 30
0.0
 11
202.750835
 21
319.918991
 31
0.0
  0
LINE
  5
78
330
73
100
AcDbEntity
  8
LC-001-100-D00-0
 62
     7
370
    50
100
AcDbLine
 10
202.750835
 20
319.918991
 30
0.0
 11
202.750835
 21
319.918991
 31
0.0
  0
LINE
  5
79
330
73
100
AcDbEntity
  8
LC-001-100-D00-0
 62
     7
370
    50
100
AcDbLine
 10
202.750835
 20
319.918991
 30
0.0
 11
203.701758
 21
319.918991
 31
0.0
  0
LINE
  5
7A
330
73
100
AcDbEntity
  8
LC-001-100-D00-0
 62
     7
370
    50
100
AcDbLine
 10
203.701758
 20
319.918991
 30
0.0
 11
203.701758
 21
319.918991
 31
0.0
  0
LINE
  5
7B
330
73
100
AcDbEntity
  8
LC-001-100-D00-0
 62
     7
370
    50
100
AcDbLine
 10
203.701758
 20
319.918991
 30
0.0
 11
205.211492
 21
319.918991
 31
0.0
  0
LINE
  5
7C
330
73
100
AcDbEntity
  8
LC-001-100-D00-0
 62
     7
370
    50
100
AcDbLine
 10
205.211492
 20
319.918991
 30
0.0
 11
205.211492
 21
319.918991
 31
0.0
  0
LINE
  5
7D
330
73
100
AcDbEntity
  8
LC-001-100-D00-0
 62
     7
370
    50
100
AcDbLine
 10
205.211492
 20
319.918991
 30
0.0
 11
206.404767
 21
319.918991
 31
0.0
  0
LINE
  5
7E
330
73
100
AcDbEntity
  8
LC-001-100-D00-0
 62
     7
370
    50
100
AcDbLine
 10
206.404767
 20
319.918991
 30
0.0
 11
206.404767
 21
319.918991
 31
0.0
  0
LINE
  5
7F
330
73
100
AcDbEntity
  8
LC-001-100-D00-0
 62
     7
370
    50
100
AcDbLine
 10
206.404767
 20
319.918991
 30
0.0
 11
206.900415
 21
319.918991
 31
0.0
  0
LINE
  5
80
330
73
100
AcDbEntity
  8
LC-001-100-D00-0
 62
     7
370
    50
100
AcDbLine
 10
206.900415
 20
319.918991
 30
0.0
 11
206.900415
 21
319.918991
 31
0.0
  0
LINE
  5
81
330
73
100
AcDbEntity
  8
LC-001-100-D00-0
 62
     7
370
    50
100
AcDbLine
 10
206.900415
 20
319.918991
 30
0.0
 11
207.018677
 21
319.918991
 31
0.0
  0
ENDBLK
  5
75
330
73
100
AcDbEntity
  8
0
100
AcDbBlockEnd
  0
BLOCK
  5
84
330
83
100
AcDbEntity
  8
0
100
AcDbBlockBegin
  2
POLY2
 70
     0
 71
     0
 10
0.0
 20
0.0
 30
0.0
  3
POLY2
  1

  4
POLY2
  0
LINE
  5
86
330
83
100
AcDbEntity
  8
LC-001-100-D00-0
 62
     7
370
    50
100
AcDbLine
 10
127.581272
 20
319.918991
 30
0.0
 11
127.581272
 21
319.918991
 31
0.0
  0
LINE
  5
87
330
83
100
AcDbEntity
  8
LC-001-100-D00-0
 62
     7
370
    50
100
AcDbLine
 10
127.581272
 20
319.918991
 30
0.0
 11
127.998532
 21
319.918991
 31
0.0
  0
LINE
  5
88
330
83
100
AcDbEntity
  8
LC-001-100-D00-0
 62
     7
370
    50
100
AcDbLine
 10
127.998532
 20
319.918991
 30
0.0
 11
127.998532
 21
319.918991
 31
0.0
  0
LINE
  5
89
330
83
100
AcDbEntity
  8
LC-001-100-D00-0
 62
     7
370
    50
100
AcDbLine
 10
127.998532
 20
319.918991
 30
0.0
 11
128.833052
 21
319.918991
 31
0.0
  0
LINE
  5
8A
330
83
100
AcDbEntity
  8
LC-001-100-D00-0
 62
     7
370
    50
100
AcDbLine
 10
128.833052
 20
319.918991
 30
0.0
 11
128.833052
 21
319.918991
 31
0.0
  0
LINE
  5
8B
330
83
100
AcDbEntity
  8
LC-001-100-D00-0
 62
     7
370
    50
100
AcDbLine
 10
128.833052
 20
319.918991
 30
0.0
 11
130.488725
 21
319.918991
 31
0.0
  0
LINE
  5
8C
330
83
100
AcDbEntity
  8
LC-001-100-D00-0
 62
     7
370
    50
100
AcDbLine
 10
130.488725
 20
319.918991
 30
0.0
 11
130.488725
 21
319.918991
 31
0.0
  0
LINE
  5
8D
330
83
100
AcDbEntity
  8
LC-001-100-D00-0
 62
     7
370
    50
100
AcDbLine
 10
130.488725
 20
319.918991
 30
0.0
 11
131.642491
 21
319.918991
 31
0.0
  0
LINE
  5
8E
330
83
100
AcDbEntity
  8
LC-001-100-D00-0
 62
     7
370
    50
100
AcDbLine
 10
131.642491
 20
319.918991
 30
0.0
 11
131.642491
 21
319.918991
 31
0.0
  0
LINE
  5
8F
330
83
100
AcDbEntity
  8
LC-001-100-D00-0
 62
     7
370
    50
100
AcDbLine
 10
131.642491
 20
319.918991
 30
0.0
 11
132.124964
 21
319.918991
 31
0.0
  0
ENDBLK
  5
85
330
83
100
AcDbEntity
  8
0
100
AcDbBlockEnd
  0
BLOCK
  5
92
330
91
100
AcDbEntity
  8
0
100
AcDbBlockBegin
  2
POLY3
 70
     0
 71
     0
 10
0.0
 20
0.0
 30
0.0
  3
POLY3
  1

  4
POLY3
  0
LINE
  5
94
330
91
100
AcDbEntity
  8
LC-001-100-D00-0
 62
     7
370
    50
100
AcDbLine
 10
196.519416
 20
316.91897
 30
0.0
 11
196.519416
 21
316.91897
 31
0.0
  0
LINE
  5
95
330
91
100
AcDbEntity
  8
LC-001-100-D00-0
 62
     7
370
    50
100
AcDbLine
 10
196.519416
 20
316.91897
 30
0.0
 11
196.500779
 21
316.91897
 31
0.0
  0
LINE
  5
96
330
91
100
AcDbEntity
  8
LC-001-100-D00-0
 62
     7
370
    50
100
AcDbLine
 10
196.500779
 20
316.91897
 30
0.0
 11
196.500779
 21
316.91897
 31
0.0
  0
LINE
  5
97
330
91
100
AcDbEntity
  8
LC-001-100-D00-0
 62
     7
370
    50
100
AcDbLine
 10
196.500779
 20
316.91897
 30
0.0
 11
196.429203
 21
316.91897
 31
0.0
  0
LINE
  5
98
330
91
100
AcDbEntity
  8
LC-001-100-D00-0
 62
     7
370
    50
100
AcDbLine
 10
196.429203
 20
316.91897
 30
0.0
 11
196.429203
 21
316.91897
 31
0.0
  0
LINE
  5
99
330
91
100
AcDbEntity
  8
LC-001-100-D00-0
 62
     7
370
    50
100
AcDbLine
 10
196.429203
 20
316.91897
 30
0.0
 11
196.799008
 21
316.91897
 31
0.0
  0
LINE
  5
9A
330
91
100
AcDbEntity
  8
LC-001-100-D00-0
 62
     7
370
    50
100
AcDbLine
 10
196.799008
 20
316.91897
 30
0.0
 11
196.799008
 21
316.91897
 31
0.0
  0
LINE
  5
9B
330
91
100
AcDbEntity
  8
LC-001-100-D00-0
 62
     7
370
    50
100
AcDbLine
 10
196.799008
 20
316.91897
 30
0.0
 11
197.203705
 21
316.91897
 31
0.0
  0
LINE
  5
9C
330
91
100
AcDbEntity
  8
LC-001-100-D00-0
 62
     7
370
    50
100
AcDbLine
 10
197.203705
 20
316.91897
 30
0.0
 11
197.203705
 21
316.91897
 31
0.0
  0
LINE
  5
9D
330
91
100
AcDbEntity
  8
LC-001-100-D00-0
 62
     7
370
    50
100
AcDbLine
 10
197.203705
 20
316.91897
 30
0.0
 11
197.300266
 21
316.91897
 31
0.0
  0
ENDBLK
  5
93
330
91
100
AcDbEntity
  8
0
100
AcDbBlockEnd
  0
BLOCK
  5
A0
330
9F
100
AcDbEntity
  8
0
100
AcDbBlockBegin
  2
POLY4
 70
     0
 71
     0
 10
0.0
 20
0.0
 30
0.0
  3
POLY4
  1

  4
POLY4
  0
LINE
  5
A2
330
9F
100
AcDbEntity
  8
LC-001-100-D00-0
 62
     7
370
    50
100
AcDbLine
 10
137.299675
 20
316.91897
 30
0.0
 11
137.299675
 21
316.91897
 31
0.0
  0
LINE
  5
A3
330
9F
100
AcDbEntity
  8
LC-001-100-D00-0
 62
     7
370
    50
100
AcDbLine
 10
137.299675
 20
316.91897
 30
0.0
 11
137.597249
 21
316.91897
 31
0.0
  0
LINE
  5
A4
330
9F
100
AcDbEntity
  8
LC-001-100-D00-0
 62
     7
370
    50
100
AcDbLine
 10
137.597249
 20
316.91897
 30
0.0
 11
137.597249
 21
316.91897
 31
0.0
  0
LINE
  5
A5
330
9F
100
AcDbEntity
  8
LC-001-100-D00-0
 62
     7
370
    50
100
AcDbLine
 10
137.597249
 20
316.91897
 30
0.0
 11
138.092833
 21
316.91897
 31
0.0
  0
LINE
  5
A6
330
9F
100
AcDbEntity
  8
LC-001-100-D00-0
 62
     7
370
    50
100
AcDbLine
 10
138.092833
 20
316.91897
 30
0.0
 11
138.092833
 21
316.91897
 31
0.0
  0
LINE
  5
A7
330
9F
100
AcDbEntity
  8
LC-001-100-D00-0
 62
     7
370
    50
100
AcDbLine
 10
138.092833
 20
316.91897
 30
0.0
 11
138.085285
 21
316.91897
 31
0.0
  0
LINE
  5
A8
330
9F
100
AcDbEntity
  8
LC-001-100-D00-0
 62
     7
370
    50
100
AcDbLine
 10
138.085285
 20
316.91897
 30
0.0
 11
138.085285
 21
316.91897
 31
0.0
  0
LINE
  5
A9
330
9F
100
AcDbEntity
  8
LC-001-100-D00-0
 62
     7
370
    50
100
AcDbLine
 10
138.085285
 20
316.91897
 30
0.0
 11
138.082269
 21
316.91897
 31
0.0
  0
ENDBLK
  5
A1
330
9F
100
AcDbEntity
  8
0
100
AcDbBlockEnd
  0
BLOCK
  5
AD
330
AC
100
AcDbEntity
  8
0
100
AcDbBlockBegin
  2
POLY5
 70
     0
 71
     0
 10
0.0
 20
0.0
 30
0.0
  3
POLY5
  1

  4
POLY5
  0
LINE
  5
AF
330
AC
100
AcDbEntity
  8
LC-001-100-D00-0
 62
     7
370
    50
100
AcDbLine
 10
130.124945
 20
316.91897
 30
0.0
 11
130.124945
 21
316.91897
 31
0.0
  0
LINE
  5
B0
330
AC
100
AcDbEntity
  8
LC-001-100-D00-0
 62
     7
370
    50
100
AcDbLine
 10
130.124945
 20
316.91897
 30
0.0
 11
129.906661
 21
316.91897
 31
0.0
  0
LINE
  5
B1
330
AC
100
AcDbEntity
  8
LC-001-100-D00-0
 62
     7
370
    50
100
AcDbLine
 10
129.906661
 20
316.91897
 30
0.0
 11
129.906661
 21
316.91897
 31
0.0
  0
LINE
  5
B2
330
AC
100
AcDbEntity
  8
LC-001-100-D00-0
 62
     7
370
    50
100
AcDbLine
 10
129.906661
 20
316.91897
 30
0.0
 11
129.576441
 21
316.91897
 31
0.0
  0
LINE
  5
B3
330
AC
100
AcDbEntity
  8
LC-001-100-D00-0
 62
     7
370
    50
100
AcDbLine
 10
129.576441
 20
316.91897
 30
0.0
 11
129.576441
 21
316.91897
 31
0.0
  0
LINE
  5
B4
330
AC
100
AcDbEntity
  8
LC-001-100-D00-0
 62
     7
370
    50
100
AcDbLine
 10
129.576441
 20
316.91897
 30
0.0
 11
129.34864
 21
316.91897
 31
0.0
  0
LINE
  5
B5
330
AC
100
AcDbEntity
  8
LC-001-100-D00-0
 62
     7
370
    50
100
AcDbLine
 10
129.34864
 20
316.91897
 30
0.0
 11
129.34864
 21
316.91897
 31
0.0
  0
LINE
  5
B6
330
AC
100
AcDbEntity
  8
LC-001-100-D00-0
 62
     7
370
    50
100
AcDbLine
 10
129.34864
 20
316.91897
 30
0.0
 11
129.271421
 21
316.91897
 31
0.0
  0
ENDBLK
  5
AE
330
AC
100
AcDbEntity
  8
0
100
AcDbBlockEnd
  0
BLOCK
  5
B9
330
B8
100
AcDbEntity
  8
0
100
AcDbBlockBegin
  2
POLY6
 70
     0
 71
     0
 10
0.0
 20
0.0
 30
0.0
  3
POLY6
  1

  4
POLY6
  0
LINE
  5
BB
330
B8
100
AcDbEntity
  8
LC-001-100-D00-0
 62
     7
370
    50
100
AcDbLine
 10
186.279755
 20
316.91897
 30
0.0
 11
186.279755
 21
316.91897
 31
0.0
  0
LINE
  5
BC
330
B8
100
AcDbEntity
  8
LC-001-100-D00-0
 62
     7
370
    50
100
AcDbLine
 10
186.279755
 20
316.91897
 30
0.0
 11
186.834875
 21
316.91897
 31
0.0
  0
LINE
  5
BD
330
B8
100
AcDbEntity
  8
LC-001-100-D00-0
 62
     7
370
    50
100
AcDbLine
 10
186.834875
 20
316.91897
 30
0.0
 11
186.834875
 21
316.91897
 31
0.0
  0
LINE
  5
BE
330
B8
100
AcDbEntity
  8
LC-001-100-D00-0
 62
     7
370
    50
100
AcDbLine
 10
186.834875
 20
316.91897
 30
0.0
 11
187.945115
 21
316.91897
 31
0.0
  0
LINE
  5
BF
330
B8
100
AcDbEntity
  8
LC-001-100-D00-0
 62
     7
370
    50
100
AcDbLine
 10
187.945115
 20
316.91897
 30
0.0
 11
187.945115
 21
316.91897
 31
0.0
  0
LINE
  5
C0
330
B8
100
AcDbEntity
  8
LC-001-100-D00-0
 62
     7
370
    50
100
AcDbLine
 10
187.945115
 20
316.91897
 30
0.0
 11
189.843832
 21
316.91897
 31
0.0
  0
LINE
  5
C1
330
B8
100
AcDbEntity
  8
LC-001-100-D00-0
 62
     7
370
    50
100
AcDbLine
 10
189.843832
 20
316.91897
 30
0.0
 11
189.843832
 21
316.91897
 31
0.0
  0
LINE
  5
C2
330
B8
100
AcDbEntity
  8
LC-001-100-D00-0
 62
     7
370
    50
100
AcDbLine
 10
189.843832
 20
316.91897
 30
0.0
 11
191.645403
 21
316.91897
 31
0.0
  0
LINE
  5
C3
330
B8
100
AcDbEntity
  8
LC-001-100-D00-0
 62
     7
370
    50
100
AcDbLine
 10
191.645403
 20
316.91897
 30
0.0
 11
191.645403
 21
316.91897
 31
0.0
  0
LINE
  5
C4
330
B8
100
AcDbEntity
  8
LC-001-100-D00-0
 62
     7
370
    50
100
AcDbLine
 10
191.645403
 20
316.91897
 30
0.0
 11
193.191348
 21
316.91897
 31
0.0
  0
LINE
  5
C5
330
B8
100
AcDbEntity
  8
LC-001-100-D00-0
 62
     7
370
    50
100
AcDbLine
 10
193.191348
 20
316.91897
 30
0.0
 11
193.191348
 21
316.91897
 31
0.0
  0
LINE
  5
C6
330
B8
100
AcDbEntity
  8
LC-001-100-D00-0
 62
     7
370
    50
100
AcDbLine
 10
193.191348
 20
316.91897
 30
0.0
 11
194.245276
 21
316.91897
 31
0.0
  0
LINE
  5
C7
330
B8
100
AcDbEntity
  8
LC-001-100-D00-0
 62
     7
370
    50
100
AcDbLine
 10
194.245276
 20
316.91897
 30
0.0
 11
194.245276
 21
316.91897
 31
0.0
  0
LINE
  5
C8
330
B8
100
AcDbEntity
  8
LC-001-100-D00-0
 62
     7
370
    50
100
AcDbLine
 10
194.245276
 20
316.91897
 30
0.0
 11
194.748637
 21
316.91897
 31
0.0
  0
LINE
  5
C9
330
B8
100
AcDbEntity
  8
LC-001-100-D00-0
 62
     7
370
    50
100
AcDbLine
 10
194.748637
 20
316.91897
 30
0.0
 11
194.748637
 21
316.91897
 31
0.0
  0
LINE
  5
CA
330
B8
100
AcDbEntity
  8
LC-001-100-D00-0
 62
     7
370
    50
100
AcDbLine
 10
194.748637
 20
316.91897
 30
0.0
 11
194.670423
 21
316.91897
 31
0.0
  0
LINE
  5
CB
330
B8
100
AcDbEntity
  8
LC-001-100-D00-0
 62
     7
370
    50
100
AcDbLine
 10
194.670423
 20
316.91897
 30
0.0
 11
194.670423
 21
316.91897
 31
0.0
  0
LINE
  5
CC
330
B8
100
AcDbEntity
  8
LC-001-100-D00-0
 62
     7
370
    50
100
AcDbLine
 10
194.670423
 20
316.91897
 30
0.0
 11
194.650818
 21
316.91897
 31
0.0
  0
ENDBLK
  5
BA
330
B8
100
AcDbEntity
  8
0
100
AcDbBlockEnd
  0
BLOCK
  5
CF
330
CE
100
AcDbEntity
  8
0
100
AcDbBlockBegin
  2
POLY7
 70
     0
 71
     0
 10
0.0
 20
0.0
 30
0.0
  3
POLY7
  1

  4
POLY7
  0
LINE
  5
D1
330
CE
100
AcDbEntity
  8
LC-001-100-D00-0
 62
     7
370
    50
100
AcDbLine
 10
139.886636
 20
316.91897
 30
0.0
 11
139.886636
 21
316.91897
 31
0.0
  0
LINE
  5
D2
330
CE
100
AcDbEntity
  8
LC-001-100-D00-0
 62
     7
370
    50
100
AcDbLine
 10
139.886636
 20
316.91897
 30
0.0
 11
139.884288
 21
316.91897
 31
0.0
  0
LINE
  5
D3
330
CE
100
AcDbEntity
  8
LC-001-100-D00-0
 62
     7
370
    50
100
AcDbLine
 10
139.884288
 20
316.91897
 30
0.0
 11
139.884288
 21
316.91897
 31
0.0
  0
LINE
  5
D4
330
CE
100
AcDbEntity
  8
LC-001-100-D00-0
 62
     7
370
    50
100
AcDbLine
 10
139.884288
 20
316.91897
 30
0.0
 11
139.779738
 21
316.91897
 31
0.0
  0
LINE
  5
D5
330
CE
100
AcDbEntity
  8
LC-001-100-D00-0
 62
     7
370
    50
100
AcDbLine
 10
139.779738
 20
316.91897
 30
0.0
 11
139.779738
 21
316.91897
 31
0.0
  0
LINE
  5
D6
330
CE
100
AcDbEntity
  8
LC-001-100-D00-0
 62
     7
370
    50
100
AcDbLine
 10
139.779738
 20
316.91897
 30
0.0
 11
140.146426
 21
316.91897
 31
0.0
  0
LINE
  5
D7
330
CE
100
AcDbEntity
  8
LC-001-100-D00-0
 62
     7
370
    50
100
AcDbLine
 10
140.146426
 20
316.91897
 30
0.0
 11
140.146426
 21
316.91897
 31
0.0
  0
LINE
  5
D8
330
CE
100
AcDbEntity
  8
LC-001-100-D00-0
 62
     7
370
    50
100
AcDbLine
 10
140.146426
 20
316.91897
 30
0.0
 11
141.009293
 21
316.91897
 31
0.0
  0
LINE
  5
D9
330
CE
100
AcDbEntity
  8
LC-001-100-D00-0
 62
     7
370
    50
100
AcDbLine
 10
141.009293
 20
316.91897
 30
0.0
 11
141.009293
 21
316.91897
 31
0.0
  0
LINE
  5
DA
330
CE
100
AcDbEntity
  8
LC-001-100-D00-0
 62
     7
370
    50
100
AcDbLine
 10
141.009293
 20
316.91897
 30
0.0
 11
142.437212
 21
316.91897
 31
0.0
  0
LINE
  5
DB
330
CE
100
AcDbEntity
  8
LC-001-100-D00-0
 62
     7
370
    50
100
AcDbLine
 10
142.437212
 20
316.91897
 30
0.0
 11
142.437212
 21
316.91897
 31
0.0
  0
LINE
  5
DC
330
CE
100
AcDbEntity
  8
LC-001-100-D00-0
 62
     7
370
    50
100
AcDbLine
 10
142.437212
 20
316.91897
 30
0.0
 11
144.178552
 21
316.91897
 31
0.0
  0
LINE
  5
DD
330
CE
100
AcDbEntity
  8
LC-001-100-D00-0
 62
     7
370
    50
100
AcDbLine
 10
144.178552
 20
316.91897
 30
0.0
 11
144.178552
 21
316.91897
 31
0.0
  0
LINE
  5
DE
330
CE
100
AcDbEntity
  8
LC-001-100-D00-0
 62
     7
370
    50
100
AcDbLine
 10
144.178552
 20
316.91897
 30
0.0
 11
146.056253
 21
316.91897
 31
0.0
  0
LINE
  5
DF
330
CE
100
AcDbEntity
  8
LC-001-100-D00-0
 62
     7
370
    50
100
AcDbLine
 10
146.056253
 20
316.91897
 30
0.0
 11
146.056253
 21
316.91897
 31
0.0
  0
LINE
  5
E0
330
CE
100
AcDbEntity
  8
LC-001-100-D00-0
 62
     7
370
    50
100
AcDbLine
 10
146.056253
 20
316.91897
 30
0.0
 11
147.456561
 21
316.91897
 31
0.0
  0
LINE
  5
E1
330
CE
100
AcDbEntity
  8
LC-001-100-D00-0
 62
     7
370
    50
100
AcDbLine
 10
147.456561
 20
316.91897
 30
0.0
 11
147.456561
 21
316.91897
 31
0.0
  0
LINE
  5
E2
330
CE
100
AcDbEntity
  8
LC-001-100-D00-0
 62
     7
370
    50
100
AcDbLine
 10
147.456561
 20
316.91897
 30
0.0
 11
148.153817
 21
316.91897
 31
0.0
  0
LINE
  5
E3
330
CE
100
AcDbEntity
  8
LC-001-100-D00-0
 62
     7
370
    50
100
AcDbLine
 10
148.153817
 20
316.91897
 30
0.0
 11
148.153817
 21
316.91897
 31
0.0
  0
LINE
  5
E4
330
CE
100
AcDbEntity
  8
LC-001-100-D00-0
 62
     7
370
    50
100
AcDbLine
 10
148.153817
 20
316.91897
 30
0.0
 11
148.320187
 21
316.91897
 31
0.0
  0
ENDBLK
  5
D0
330
CE
100
AcDbEntity
  8
0
100
AcDbBlockEnd
  0
BLOCK
  5
1A0
330
19F
100
AcDbEntity
  8
0
100
AcDbBlockBegin
  2
POLY8
 70
     0
 71
     0
 10
0.0
 20
0.0
 30
0.0
  3
POLY8
  1

  4
POLY8
  0
LINE
  5
1A2
330
19F
100
AcDbEntity
  8
LC-001-100-D00-0
 62
     7
370
    50
100
AcDbLine
 10
265.859115
 20
229.888291
 30
0.0
 11
265.859115
 21
229.888291
 31
0.0
  0
LINE
  5
1A3
330
19F
100
AcDbEntity
  8
LC-001-100-D00-0
 62
     7
370
    50
100
AcDbLine
 10
265.859115
 20
229.888291
 30
0.0
 11
265.852063
 21
229.88559
 31
0.0
  0
LINE
  5
1A4
330
19F
100
AcDbEntity
  8
LC-001-100-D00-0
 62
     7
370
    50
100
AcDbLine
 10
265.852063
 20
229.88559
 30
0.0
 11
265.852063
 21
229.88559
 31
0.0
  0
LINE
  5
1A5
330
19F
100
AcDbEntity
  8
LC-001-100-D00-0
 62
     7
370
    50
100
AcDbLine
 10
265.852063
 20
229.88559
 30
0.0
 11
265.841483
 21
229.881537
 31
0.0
  0
LINE
  5
1A6
330
19F
100
AcDbEntity
  8
LC-001-100-D00-0
 62
     7
370
    50
100
AcDbLine
 10
265.841483
 20
229.881537
 30
0.0
 11
265.841483
 21
229.881537
 31
0.0
  0
LINE
  5
1A7
330
19F
100
AcDbEntity
  8
LC-001-100-D00-0
 62
     7
370
    50
100
AcDbLine
 10
265.841483
 20
229.881537
 30
0.0
 11
265.735476
 21
229.848387
 31
0.0
  0
LINE
  5
1A8
330
19F
100
AcDbEntity
  8
LC-001-100-D00-0
 62
     7
370
    50
100
AcDbLine
 10
265.735476
 20
229.848387
 30
0.0
 11
265.735476
 21
229.848387
 31
0.0
  0
LINE
  5
1A9
330
19F
100
AcDbEntity
  8
LC-001-100-D00-0
 62
     7
370
    50
100
AcDbLine
 10
265.735476
 20
229.848387
 30
0.0
 11
265.621955
 21
229.81332
 31
0.0
  0
LINE
  5
1AA
330
19F
100
AcDbEntity
  8
LC-001-100-D00-0
 62
     7
370
    50
100
AcDbLine
 10
265.621955
 20
229.81332
 30
0.0
 11
265.621955
 21
229.81332
 31
0.0
  0
LINE
  5
1AB
330
19F
100
AcDbEntity
  8
LC-001-100-D00-0
 62
     7
370
    50
100
AcDbLine
 10
265.621955
 20
229.81332
 30
0.0
 11
265.480344
 21
229.769736
 31
0.0
  0
LINE
  5
1AC
330
19F
100
AcDbEntity
  8
LC-001-100-D00-0
 62
     7
370
    50
100
AcDbLine
 10
265.480344
 20
229.769736
 30
0.0
 11
265.480344
 21
229.769736
 31
0.0
  0
LINE
  5
1AD
330
19F
100
AcDbEntity
  8
LC-001-100-D00-0
 62
     7
370
    50
100
AcDbLine
 10
265.480344
 20
229.769736
 30
0.0
 11
265.261323
 21
229.702584
 31
0.0
  0
LINE
  5
1AE
330
19F
100
AcDbEntity
  8
LC-001-100-D00-0
 62
     7
370
    50
100
AcDbLine
 10
265.261323
 20
229.702584
 30
0.0
 11
265.261323
 21
229.702584
 31
0.0
  0
LINE
  5
1AF
330
19F
100
AcDbEntity
  8
LC-001-100-D00-0
 62
     7
370
    50
100
AcDbLine
 10
265.261323
 20
229.702584
 30
0.0
 11
265.070597
 21
229.644243
 31
0.0
  0
LINE
  5
1B0
330
19F
100
AcDbEntity
  8
LC-001-100-D00-0
 62
     7
370
    50
100
AcDbLine
 10
265.070597
 20
229.644243
 30
0.0
 11
265.070597
 21
229.644243
 31
0.0
  0
LINE
  5
1B1
330
19F
100
AcDbEntity
  8
LC-001-100-D00-0
 62
     7
370
    50
100
AcDbLine
 10
265.070597
 20
229.644243
 30
0.0
 11
264.943493
 21
229.605363
 31
0.0
  0
ENDBLK
  5
1A1
330
19F
100
AcDbEntity
  8
0
100
AcDbBlockEnd
  0
BLOCK
  5
1B4
330
1B3
100
AcDbEntity
  8
0
100
AcDbBlockBegin
  2
POLY9
 70
     0
 71
     0
 10
0.0
 20
0.0
 30
0.0
  3
POLY9
  1

  4
POLY9
  0
LINE
  5
1B6
330
1B3
100
AcDbEntity
  8
LC-001-100-D00-0
 62
     7
370
    50
100
AcDbLine
 10
263.317042
 20
229.107932
 30
0.0
 11
263.317042
 21
229.107932
 31
0.0
  0
LINE
  5
1B7
330
1B3
100
AcDbEntity
  8
LC-001-100-D00-0
 62
     7
370
    50
100
AcDbLine
 10
263.317042
 20
229.107932
 30
0.0
 11
263.169915
 21
229.062955
 31
0.0
  0
LINE
  5
1B8
330
1B3
100
AcDbEntity
  8
LC-001-100-D00-0
 62
     7
370
    50
100
AcDbLine
 10
263.169915
 20
229.062955
 30
0.0
 11
263.169915
 21
229.062955
 31
0.0
  0
LINE
  5
1B9
330
1B3
100
AcDbEntity
  8
LC-001-100-D00-0
 62
     7
370
    50
100
AcDbLine
 10
263.169915
 20
229.062955
 30
0.0
 11
262.949316
 21
228.995518
 31
0.0
  0
LINE
  5
1BA
330
1B3
100
AcDbEntity
  8
LC-001-100-D00-0
 62
     7
370
    50
100
AcDbLine
 10
262.949316
 20
228.995518
 30
0.0
 11
262.949316
 21
228.995518
 31
0.0
  0
LINE
  5
1BB
330
1B3
100
AcDbEntity
  8
LC-001-100-D00-0
 62
     7
370
    50
100
AcDbLine
 10
262.949316
 20
228.995518
 30
0.0
 11
262.69118
 21
228.916768
 31
0.0
  0
LINE
  5
1BC
330
1B3
100
AcDbEntity
  8
LC-001-100-D00-0
 62
     7
370
    50
100
AcDbLine
 10
262.69118
 20
228.916768
 30
0.0
 11
262.69118
 21
228.916768
 31
0.0
  0
LINE
  5
1BD
330
1B3
100
AcDbEntity
  8
LC-001-100-D00-0
 62
     7
370
    50
100
AcDbLine
 10
262.69118
 20
228.916768
 30
0.0
 11
262.522192
 21
228.865321
 31
0.0
  0
LINE
  5
1BE
330
1B3
100
AcDbEntity
  8
LC-001-100-D00-0
 62
     7
370
    50
100
AcDbLine
 10
262.522192
 20
228.865321
 30
0.0
 11
262.522192
 21
228.865321
 31
0.0
  0
LINE
  5
1BF
330
1B3
100
AcDbEntity
  8
LC-001-100-D00-0
 62
     7
370
    50
100
AcDbLine
 10
262.522192
 20
228.865321
 30
0.0
 11
262.384206
 21
228.823498
 31
0.0
  0
LINE
  5
1C0
330
1B3
100
AcDbEntity
  8
LC-001-100-D00-0
 62
     7
370
    50
100
AcDbLine
 10
262.384206
 20
228.823498
 30
0.0
 11
262.384206
 21
228.823498
 31
0.0
  0
LINE
  5
1C1
330
1B3
100
AcDbEntity
  8
LC-001-100-D00-0
 62
     7
370
    50
100
AcDbLine
 10
262.384206
 20
228.823498
 30
0.0
 11
262.253831
 21
228.784343
 31
0.0
  0
LINE
  5
1C2
330
1B3
100
AcDbEntity
  8
LC-001-100-D00-0
 62
     7
370
    50
100
AcDbLine
 10
262.253831
 20
228.784343
 30
0.0
 11
262.253831
 21
228.784343
 31
0.0
  0
LINE
  5
1C3
330
1B3
100
AcDbEntity
  8
LC-001-100-D00-0
 62
     7
370
    50
100
AcDbLine
 10
262.253831
 20
228.784343
 30
0.0
 11
262.233415
 21
228.779029
 31
0.0
  0
LINE
  5
1C4
330
1B3
100
AcDbEntity
  8
LC-001-100-D00-0
 62
     7
370
    50
100
AcDbLine
 10
262.233415
 20
228.779029
 30
0.0
 11
262.233415
 21
228.779029
 31
0.0
  0
LINE
  5
1C5
330
1B3
100
AcDbEntity
  8
LC-001-100-D00-0
 62
     7
370
    50
100
AcDbLine
 10
262.233415
 20
228.779029
 30
0.0
 11
262.219812
 21
228.775487
 31
0.0
  0
ENDBLK
  5
1B5
330
1B3
100
AcDbEntity
  8
0
100
AcDbBlockEnd
  0
BLOCK
  5
1C8
330
1C7
100
AcDbEntity
  8
0
100
AcDbBlockBegin
  2
POLY10
 70
     0
 71
     0
 10
0.0
 20
0.0
 30
0.0
  3
POLY10
  1

  4
POLY10
  0
LINE
  5
1CA
330
1C7
100
AcDbEntity
  8
LC-001-100-D00-0
 62
     7
370
    50
100
AcDbLine
 10
264.22093
 20
229.385511
 30
0.0
 11
264.22093
 21
229.385511
 31
0.0
  0
LINE
  5
1CB
330
1C7
100
AcDbEntity
  8
LC-001-100-D00-0
 62
     7
370
    50
100
AcDbLine
 10
264.22093
 20
229.385511
 30
0.0
 11
264.182793
 21
229.373599
 31
0.0
  0
LINE
  5
1CC
330
1C7
100
AcDbEntity
  8
LC-001-100-D00-0
 62
     7
370
    50
100
AcDbLine
 10
264.182793
 20
229.373599
 30
0.0
 11
264.182793
 21
229.373599
 31
0.0
  0
LINE
  5
1CD
330
1C7
100
AcDbEntity
  8
LC-001-100-D00-0
 62
     7
370
    50
100
AcDbLine
 10
264.182793
 20
229.373599
 30
0.0
 11
264.10679
 21
229.34986
 31
0.0
  0
LINE
  5
1CE
330
1C7
100
AcDbEntity
  8
LC-001-100-D00-0
 62
     7
370
    50
100
AcDbLine
 10
264.10679
 20
229.34986
 30
0.0
 11
264.10679
 21
229.34986
 31
0.0
  0
LINE
  5
1CF
330
1C7
100
AcDbEntity
  8
LC-001-100-D00-0
 62
     7
370
    50
100
AcDbLine
 10
264.10679
 20
229.34986
 30
0.0
 11
263.892004
 21
229.283862
 31
0.0
  0
LINE
  5
1D0
330
1C7
100
AcDbEntity
  8
LC-001-100-D00-0
 62
     7
370
    50
100
AcDbLine
 10
263.892004
 20
229.283862
 30
0.0
 11
263.892004
 21
229.283862
 31
0.0
  0
LINE
  5
1D1
330
1C7
100
AcDbEntity
  8
LC-001-100-D00-0
 62
     7
370
    50
100
AcDbLine
 10
263.892004
 20
229.283862
 30
0.0
 11
263.616316
 21
229.199457
 31
0.0
  0
LINE
  5
1D2
330
1C7
100
AcDbEntity
  8
LC-001-100-D00-0
 62
     7
370
    50
100
AcDbLine
 10
263.616316
 20
229.199457
 30
0.0
 11
263.616316
 21
229.199457
 31
0.0
  0
LINE
  5
1D3
330
1C7
100
AcDbEntity
  8
LC-001-100-D00-0
 62
     7
370
    50
100
AcDbLine
 10
263.616316
 20
229.199457
 30
0.0
 11
263.416699
 21
229.13841
 31
0.0
  0
LINE
  5
1D4
330
1C7
100
AcDbEntity
  8
LC-001-100-D00-0
 62
     7
370
    50
100
AcDbLine
 10
263.416699
 20
229.13841
 30
0.0
 11
263.416699
 21
229.13841
 31
0.0
  0
LINE
  5
1D5
330
1C7
100
AcDbEntity
  8
LC-001-100-D00-0
 62
     7
370
    50
100
AcDbLine
 10
263.416699
 20
229.13841
 30
0.0
 11
263.317042
 21
229.107932
 31
0.0
  0
ENDBLK
  5
1C9
330
1C7
100
AcDbEntity
  8
0
100
AcDbBlockEnd
  0
BLOCK
  5
1D8
330
1D7
100
AcDbEntity
  8
0
100
AcDbBlockBegin
  2
POLY11
 70
     0
 71
     0
 10
0.0
 20
0.0
 30
0.0
  3
POLY11
  1

  4
POLY11
  0
LINE
  5
1DA
330
1D7
100
AcDbEntity
  8
LC-001-100-D00-0
 62
     7
370
    50
100
AcDbLine
 10
264.943493
 20
229.605363
 30
0.0
 11
264.943493
 21
229.605363
 31
0.0
  0
LINE
  5
1DB
330
1D7
100
AcDbEntity
  8
LC-001-100-D00-0
 62
     7
370
    50
100
AcDbLine
 10
264.943493
 20
229.605363
 30
0.0
 11
264.864997
 21
229.581364
 31
0.0
  0
LINE
  5
1DC
330
1D7
100
AcDbEntity
  8
LC-001-100-D00-0
 62
     7
370
    50
100
AcDbLine
 10
264.864997
 20
229.581364
 30
0.0
 11
264.864997
 21
229.581364
 31
0.0
  0
LINE
  5
1DD
330
1D7
100
AcDbEntity
  8
LC-001-100-D00-0
 62
     7
370
    50
100
AcDbLine
 10
264.864997
 20
229.581364
 30
0.0
 11
264.708541
 21
229.53353
 31
0.0
  0
LINE
  5
1DE
330
1D7
100
AcDbEntity
  8
LC-001-100-D00-0
 62
     7
370
    50
100
AcDbLine
 10
264.708541
 20
229.53353
 30
0.0
 11
264.708541
 21
229.53353
 31
0.0
  0
LINE
  5
1DF
330
1D7
100
AcDbEntity
  8
LC-001-100-D00-0
 62
     7
370
    50
100
AcDbLine
 10
264.708541
 20
229.53353
 30
0.0
 11
264.491444
 21
229.467326
 31
0.0
  0
LINE
  5
1E0
330
1D7
100
AcDbEntity
  8
LC-001-100-D00-0
 62
     7
370
    50
100
AcDbLine
 10
264.491444
 20
229.467326
 30
0.0
 11
264.491444
 21
229.467326
 31
0.0
  0
LINE
  5
1E1
330
1D7
100
AcDbEntity
  8
LC-001-100-D00-0
 62
     7
370
    50
100
AcDbLine
 10
264.491444
 20
229.467326
 30
0.0
 11
264.321576
 21
229.415686
 31
0.0
  0
LINE
  5
1E2
330
1D7
100
AcDbEntity
  8
LC-001-100-D00-0
 62
     7
370
    50
100
AcDbLine
 10
264.321576
 20
229.415686
 30
0.0
 11
264.321576
 21
229.415686
 31
0.0
  0
LINE
  5
1E3
330
1D7
100
AcDbEntity
  8
LC-001-100-D00-0
 62
     7
370
    50
100
AcDbLine
 10
264.321576
 20
229.415686
 30
0.0
 11
264.254436
 21
229.395557
 31
0.0
  0
LINE
  5
1E4
330
1D7
100
AcDbEntity
  8
LC-001-100-D00-0
 62
     7
370
    50
100
AcDbLine
 10
264.254436
 20
229.395557
 30
0.0
 11
264.254436
 21
229.395557
 31
0.0
  0
LINE
  5
1E5
330
1D7
100
AcDbEntity
  8
LC-001-100-D00-0
 62
     7
370
    50
100
AcDbLine
 10
264.254436
 20
229.395557
 30
0.0
 11
264.22093
 21
229.385511
 31
0.0
  0
ENDBLK
  5
1D9
330
1D7
100
AcDbEntity
  8
0
100
AcDbBlockEnd
  0
BLOCK
  5
22C
330
22B
100
AcDbEntity
  8
0
100
AcDbBlockBegin
  2
POLY12
 70
     0
 71
     0
 10
0.0
 20
0.0
 30
0.0
  3
POLY12
  1

  4
POLY12
  0
LINE
  5
22E
330
22B
100
AcDbEntity
  8
LC-001-100-D00-0
 62
     7
370
    50
100
AcDbLine
 10
263.317042
 20
229.207934
 30
0.0
 11
263.317042
 21
229.207934
 31
0.0
  0
LINE
  5
22F
330
22B
100
AcDbEntity
  8
LC-001-100-D00-0
 62
     7
370
    50
100
AcDbLine
 10
263.317042
 20
229.207934
 30
0.0
 11
263.170852
 21
229.163248
 31
0.0
  0
LINE
  5
230
330
22B
100
AcDbEntity
  8
LC-001-100-D00-0
 62
     7
370
    50
100
AcDbLine
 10
263.170852
 20
229.163248
 30
0.0
 11
263.170852
 21
229.163248
 31
0.0
  0
LINE
  5
231
330
22B
100
AcDbEntity
  8
LC-001-100-D00-0
 62
     7
370
    50
100
AcDbLine
 10
263.170852
 20
229.163248
 30
0.0
 11
262.951226
 21
229.096114
 31
0.0
  0
LINE
  5
232
330
22B
100
AcDbEntity
  8
LC-001-100-D00-0
 62
     7
370
    50
100
AcDbLine
 10
262.951226
 20
229.096114
 30
0.0
 11
262.951226
 21
229.096114
 31
0.0
  0
LINE
  5
233
330
22B
100
AcDbEntity
  8
LC-001-100-D00-0
 62
     7
370
    50
100
AcDbLine
 10
262.951226
 20
229.096114
 30
0.0
 11
262.693695
 21
229.017531
 31
0.0
  0
LINE
  5
234
330
22B
100
AcDbEntity
  8
LC-001-100-D00-0
 62
     7
370
    50
100
AcDbLine
 10
262.693695
 20
229.017531
 30
0.0
 11
262.693695
 21
229.017531
 31
0.0
  0
LINE
  5
235
330
22B
100
AcDbEntity
  8
LC-001-100-D00-0
 62
     7
370
    50
100
AcDbLine
 10
262.693695
 20
229.017531
 30
0.0
 11
262.524573
 21
228.96603
 31
0.0
  0
LINE
  5
236
330
22B
100
AcDbEntity
  8
LC-001-100-D00-0
 62
     7
370
    50
100
AcDbLine
 10
262.524573
 20
228.96603
 30
0.0
 11
262.524573
 21
228.96603
 31
0.0
  0
LINE
  5
237
330
22B
100
AcDbEntity
  8
LC-001-100-D00-0
 62
     7
370
    50
100
AcDbLine
 10
262.524573
 20
228.96603
 30
0.0
 11
262.385992
 21
228.924035
 31
0.0
  0
LINE
  5
238
330
22B
100
AcDbEntity
  8
LC-001-100-D00-0
 62
     7
370
    50
100
AcDbLine
 10
262.385992
 20
228.924035
 30
0.0
 11
262.385992
 21
228.924035
 31
0.0
  0
LINE
  5
239
330
22B
100
AcDbEntity
  8
LC-001-100-D00-0
 62
     7
370
    50
100
AcDbLine
 10
262.385992
 20
228.924035
 30
0.0
 11
262.254223
 21
228.884467
 31
0.0
  0
LINE
  5
23A
330
22B
100
AcDbEntity
  8
LC-001-100-D00-0
 62
     7
370
    50
100
AcDbLine
 10
262.254223
 20
228.884467
 30
0.0
 11
262.254223
 21
228.884467
 31
0.0
  0
LINE
  5
23B
330
22B
100
AcDbEntity
  8
LC-001-100-D00-0
 62
     7
370
    50
100
AcDbLine
 10
262.254223
 20
228.884467
 30
0.0
 11
262.233578
 21
228.879081
 31
0.0
  0
LINE
  5
23C
330
22B
100
AcDbEntity
  8
LC-001-100-D00-0
 62
     7
370
    50
100
AcDbLine
 10
262.233578
 20
228.879081
 30
0.0
 11
262.233578
 21
228.879081
 31
0.0
  0
LINE
  5
23D
330
22B
100
AcDbEntity
  8
LC-001-100-D00-0
 62
     7
370
    50
100
AcDbLine
 10
262.233578
 20
228.879081
 30
0.0
 11
262.219812
 21
228.875489
 31
0.0
  0
ENDBLK
  5
22D
330
22B
100
AcDbEntity
  8
0
100
AcDbBlockEnd
  0
BLOCK
  5
240
330
23F
100
AcDbEntity
  8
0
100
AcDbBlockBegin
  2
POLY13
 70
     0
 71
     0
 10
0.0
 20
0.0
 30
0.0
  3
POLY13
  1

  4
POLY13
  0
LINE
  5
242
330
23F
100
AcDbEntity
  8
LC-001-100-D00-0
 62
     7
370
    50
100
AcDbLine
 10
262.219812
 20
228.875489
 30
0.0
 11
262.219812
 21
228.875489
 31
0.0
  0
LINE
  5
243
330
23F
100
AcDbEntity
  8
LC-001-100-D00-0
 62
     7
370
    50
100
AcDbLine
 10
262.219812
 20
228.875489
 30
0.0
 11
262.228581
 21
228.878921
 31
0.0
  0
LINE
  5
244
330
23F
100
AcDbEntity
  8
LC-001-100-D00-0
 62
     7
370
    50
100
AcDbLine
 10
262.228581
 20
228.878921
 30
0.0
 11
262.228581
 21
228.878921
 31
0.0
  0
LINE
  5
245
330
23F
100
AcDbEntity
  8
LC-001-100-D00-0
 62
     7
370
    50
100
AcDbLine
 10
262.228581
 20
228.878921
 30
0.0
 11
262.241763
 21
228.88408
 31
0.0
  0
LINE
  5
246
330
23F
100
AcDbEntity
  8
LC-001-100-D00-0
 62
     7
370
    50
100
AcDbLine
 10
262.241763
 20
228.88408
 30
0.0
 11
262.241763
 21
228.88408
 31
0.0
  0
LINE
  5
247
330
23F
100
AcDbEntity
  8
LC-001-100-D00-0
 62
     7
370
    50
100
AcDbLine
 10
262.241763
 20
228.88408
 30
0.0
 11
262.367595
 21
228.924303
 31
0.0
  0
LINE
  5
248
330
23F
100
AcDbEntity
  8
LC-001-100-D00-0
 62
     7
370
    50
100
AcDbLine
 10
262.367595
 20
228.924303
 30
0.0
 11
262.367595
 21
228.924303
 31
0.0
  0
LINE
  5
249
330
23F
100
AcDbEntity
  8
LC-001-100-D00-0
 62
     7
370
    50
100
AcDbLine
 10
262.367595
 20
228.924303
 30
0.0
 11
262.501096
 21
228.966388
 31
0.0
  0
LINE
  5
24A
330
23F
100
AcDbEntity
  8
LC-001-100-D00-0
 62
     7
370
    50
100
AcDbLine
 10
262.501096
 20
228.966388
 30
0.0
 11
262.501096
 21
228.966388
 31
0.0
  0
LINE
  5
24B
330
23F
100
AcDbEntity
  8
LC-001-100-D00-0
 62
     7
370
    50
100
AcDbLine
 10
262.501096
 20
228.966388
 30
0.0
 11
262.668123
 21
229.018565
 31
0.0
  0
LINE
  5
24C
330
23F
100
AcDbEntity
  8
LC-001-100-D00-0
 62
     7
370
    50
100
AcDbLine
 10
262.668123
 20
229.018565
 30
0.0
 11
262.668123
 21
229.018565
 31
0.0
  0
LINE
  5
24D
330
23F
100
AcDbEntity
  8
LC-001-100-D00-0
 62
     7
370
    50
100
AcDbLine
 10
262.668123
 20
229.018565
 30
0.0
 11
262.92543
 21
229.098381
 31
0.0
  0
LINE
  5
24E
330
23F
100
AcDbEntity
  8
LC-001-100-D00-0
 62
     7
370
    50
100
AcDbLine
 10
262.92543
 20
229.098381
 30
0.0
 11
262.92543
 21
229.098381
 31
0.0
  0
LINE
  5
24F
330
23F
100
AcDbEntity
  8
LC-001-100-D00-0
 62
     7
370
    50
100
AcDbLine
 10
262.92543
 20
229.098381
 30
0.0
 11
263.146263
 21
229.166082
 31
0.0
  0
LINE
  5
250
330
23F
100
AcDbEntity
  8
LC-001-100-D00-0
 62
     7
370
    50
100
AcDbLine
 10
263.146263
 20
229.166082
 30
0.0
 11
263.146263
 21
229.166082
 31
0.0
  0
LINE
  5
251
330
23F
100
AcDbEntity
  8
LC-001-100-D00-0
 62
     7
370
    50
100
AcDbLine
 10
263.146263
 20
229.166082
 30
0.0
 11
263.293473
 21
229.211212
 31
0.0
  0
ENDBLK
  5
241
330
23F
100
AcDbEntity
  8
0
100
AcDbBlockEnd
  0
BLOCK
  5
254
330
253
100
AcDbEntity
  8
0
100
AcDbBlockBegin
  2
POLY14
 70
     0
 71
     0
 10
0.0
 20
0.0
 30
0.0
  3
POLY14
  1

  4
POLY14
  0
LINE
  5
256
330
253
100
AcDbEntity
  8
LC-001-100-D00-0
 62
     7
370
    50
100
AcDbLine
 10
263.293473
 20
229.211212
 30
0.0
 11
263.293473
 21
229.211212
 31
0.0
  0
LINE
  5
257
330
253
100
AcDbEntity
  8
LC-001-100-D00-0
 62
     7
370
    50
100
AcDbLine
 10
263.293473
 20
229.211212
 30
0.0
 11
263.393927
 21
229.24187
 31
0.0
  0
LINE
  5
258
330
253
100
AcDbEntity
  8
LC-001-100-D00-0
 62
     7
370
    50
100
AcDbLine
 10
263.393927
 20
229.24187
 30
0.0
 11
263.393927
 21
229.24187
 31
0.0
  0
LINE
  5
259
330
253
100
AcDbEntity
  8
LC-001-100-D00-0
 62
     7
370
    50
100
AcDbLine
 10
263.393927
 20
229.24187
 30
0.0
 11
263.594526
 21
229.303091
 31
0.0
  0
LINE
  5
25A
330
253
100
AcDbEntity
  8
LC-001-100-D00-0
 62
     7
370
    50
100
AcDbLine
 10
263.594526
 20
229.303091
 30
0.0
 11
263.594526
 21
229.303091
 31
0.0
  0
LINE
  5
25B
330
253
100
AcDbEntity
  8
LC-001-100-D00-0
 62
     7
370
    50
100
AcDbLine
 10
263.594526
 20
229.303091
 30
0.0
 11
263.875808
 21
229.388041
 31
0.0
  0
LINE
  5
25C
330
253
100
AcDbEntity
  8
LC-001-100-D00-0
 62
     7
370
    50
100
AcDbLine
 10
263.875808
 20
229.388041
 30
0.0
 11
263.875808
 21
229.388041
 31
0.0
  0
LINE
  5
25D
330
253
100
AcDbEntity
  8
LC-001-100-D00-0
 62
     7
370
    50
100
AcDbLine
 10
263.875808
 20
229.388041
 30
0.0
 11
264.098932
 21
229.454551
 31
0.0
  0
LINE
  5
25E
330
253
100
AcDbEntity
  8
LC-001-100-D00-0
 62
     7
370
    50
100
AcDbLine
 10
264.098932
 20
229.454551
 30
0.0
 11
264.098932
 21
229.454551
 31
0.0
  0
LINE
  5
25F
330
253
100
AcDbEntity
  8
LC-001-100-D00-0
 62
     7
370
    50
100
AcDbLine
 10
264.098932
 20
229.454551
 30
0.0
 11
264.169967
 21
229.475013
 31
0.0
  0
LINE
  5
260
330
253
100
AcDbEntity
  8
LC-001-100-D00-0
 62
     7
370
    50
100
AcDbLine
 10
264.169967
 20
229.475013
 30
0.0
 11
264.169967
 21
229.475013
 31
0.0
  0
LINE
  5
261
330
253
100
AcDbEntity
  8
LC-001-100-D00-0
 62
     7
370
    50
100
AcDbLine
 10
264.169967
 20
229.475013
 30
0.0
 11
264.20559
 21
229.485274
 31
0.0
  0
ENDBLK
  5
255
330
253
100
AcDbEntity
  8
0
100
AcDbBlockEnd
  0
BLOCK
  5
264
330
263
100
AcDbEntity
  8
0
100
AcDbBlockBegin
  2
POLY15
 70
     0
 71
     0
 10
0.0
 20
0.0
 30
0.0
  3
POLY15
  1

  4
POLY15
  0
LINE
  5
266
330
263
100
AcDbEntity
  8
LC-001-100-D00-0
 62
     7
370
    50
100
AcDbLine
 10
264.20559
 20
229.485274
 30
0.0
 11
264.20559
 21
229.485274
 31
0.0
  0
LINE
  5
267
330
263
100
AcDbEntity
  8
LC-001-100-D00-0
 62
     7
370
    50
100
AcDbLine
 10
264.20559
 20
229.485274
 30
0.0
 11
264.237323
 21
229.495447
 31
0.0
  0
LINE
  5
268
330
263
100
AcDbEntity
  8
LC-001-100-D00-0
 62
     7
370
    50
100
AcDbLine
 10
264.237323
 20
229.495447
 30
0.0
 11
264.237323
 21
229.495447
 31
0.0
  0
LINE
  5
269
330
263
100
AcDbEntity
  8
LC-001-100-D00-0
 62
     7
370
    50
100
AcDbLine
 10
264.237323
 20
229.495447
 30
0.0
 11
264.300671
 21
229.515754
 31
0.0
  0
LINE
  5
26A
330
263
100
AcDbEntity
  8
LC-001-100-D00-0
 62
     7
370
    50
100
AcDbLine
 10
264.300671
 20
229.515754
 30
0.0
 11
264.300671
 21
229.515754
 31
0.0
  0
LINE
  5
26B
330
263
100
AcDbEntity
  8
LC-001-100-D00-0
 62
     7
370
    50
100
AcDbLine
 10
264.300671
 20
229.515754
 30
0.0
 11
264.465778
 21
229.567543
 31
0.0
  0
LINE
  5
26C
330
263
100
AcDbEntity
  8
LC-001-100-D00-0
 62
     7
370
    50
100
AcDbLine
 10
264.465778
 20
229.567543
 30
0.0
 11
264.465778
 21
229.567543
 31
0.0
  0
LINE
  5
26D
330
263
100
AcDbEntity
  8
LC-001-100-D00-0
 62
     7
370
    50
100
AcDbLine
 10
264.465778
 20
229.567543
 30
0.0
 11
264.684183
 21
229.635156
 31
0.0
  0
LINE
  5
26E
330
263
100
AcDbEntity
  8
LC-001-100-D00-0
 62
     7
370
    50
100
AcDbLine
 10
264.684183
 20
229.635156
 30
0.0
 11
264.684183
 21
229.635156
 31
0.0
  0
LINE
  5
26F
330
263
100
AcDbEntity
  8
LC-001-100-D00-0
 62
     7
370
    50
100
AcDbLine
 10
264.684183
 20
229.635156
 30
0.0
 11
264.843892
 21
229.684077
 31
0.0
  0
LINE
  5
270
330
263
100
AcDbEntity
  8
LC-001-100-D00-0
 62
     7
370
    50
100
AcDbLine
 10
264.843892
 20
229.684077
 30
0.0
 11
264.843892
 21
229.684077
 31
0.0
  0
LINE
  5
271
330
263
100
AcDbEntity
  8
LC-001-100-D00-0
 62
     7
370
    50
100
AcDbLine
 10
264.843892
 20
229.684077
 30
0.0
 11
264.923995
 21
229.708613
 31
0.0
  0
ENDBLK
  5
265
330
263
100
AcDbEntity
  8
0
100
AcDbBlockEnd
  0
BLOCK
  5
274
330
273
100
AcDbEntity
  8
0
100
AcDbBlockBegin
  2
POLY16
 70
     0
 71
     0
 10
0.0
 20
0.0
 30
0.0
  3
POLY16
  1

  4
POLY16
  0
LINE
  5
276
330
273
100
AcDbEntity
  8
LC-001-100-D00-0
 62
     7
370
    50
100
AcDbLine
 10
264.923995
 20
229.708613
 30
0.0
 11
264.923995
 21
229.708613
 31
0.0
  0
LINE
  5
277
330
273
100
AcDbEntity
  8
LC-001-100-D00-0
 62
     7
370
    50
100
AcDbLine
 10
264.923995
 20
229.708613
 30
0.0
 11
265.050173
 21
229.747092
 31
0.0
  0
LINE
  5
278
330
273
100
AcDbEntity
  8
LC-001-100-D00-0
 62
     7
370
    50
100
AcDbLine
 10
265.050173
 20
229.747092
 30
0.0
 11
265.050173
 21
229.747092
 31
0.0
  0
LINE
  5
279
330
273
100
AcDbEntity
  8
LC-001-100-D00-0
 62
     7
370
    50
100
AcDbLine
 10
265.050173
 20
229.747092
 30
0.0
 11
265.239753
 21
229.804907
 31
0.0
  0
LINE
  5
27A
330
273
100
AcDbEntity
  8
LC-001-100-D00-0
 62
     7
370
    50
100
AcDbLine
 10
265.239753
 20
229.804907
 30
0.0
 11
265.239753
 21
229.804907
 31
0.0
  0
LINE
  5
27B
330
273
100
AcDbEntity
  8
LC-001-100-D00-0
 62
     7
370
    50
100
AcDbLine
 10
265.239753
 20
229.804907
 30
0.0
 11
265.460633
 21
229.871444
 31
0.0
  0
LINE
  5
27C
330
273
100
AcDbEntity
  8
LC-001-100-D00-0
 62
     7
370
    50
100
AcDbLine
 10
265.460633
 20
229.871444
 30
0.0
 11
265.460633
 21
229.871444
 31
0.0
  0
LINE
  5
27D
330
273
100
AcDbEntity
  8
LC-001-100-D00-0
 62
     7
370
    50
100
AcDbLine
 10
265.460633
 20
229.871444
 30
0.0
 11
265.605329
 21
229.914799
 31
0.0
  0
LINE
  5
27E
330
273
100
AcDbEntity
  8
LC-001-100-D00-0
 62
     7
370
    50
100
AcDbLine
 10
265.605329
 20
229.914799
 30
0.0
 11
265.605329
 21
229.914799
 31
0.0
  0
LINE
  5
27F
330
273
100
AcDbEntity
  8
LC-001-100-D00-0
 62
     7
370
    50
100
AcDbLine
 10
265.605329
 20
229.914799
 30
0.0
 11
265.721286
 21
229.949216
 31
0.0
  0
LINE
  5
280
330
273
100
AcDbEntity
  8
LC-001-100-D00-0
 62
     7
370
    50
100
AcDbLine
 10
265.721286
 20
229.949216
 30
0.0
 11
265.721286
 21
229.949216
 31
0.0
  0
LINE
  5
281
330
273
100
AcDbEntity
  8
LC-001-100-D00-0
 62
     7
370
    50
100
AcDbLine
 10
265.721286
 20
229.949216
 30
0.0
 11
265.831567
 21
229.98147
 31
0.0
  0
LINE
  5
282
330
273
100
AcDbEntity
  8
LC-001-100-D00-0
 62
     7
370
    50
100
AcDbLine
 10
265.831567
 20
229.98147
 30
0.0
 11
265.831567
 21
229.98147
 31
0.0
  0
LINE
  5
283
330
273
100
AcDbEntity
  8
LC-001-100-D00-0
 62
     7
370
    50
100
AcDbLine
 10
265.831567
 20
229.98147
 30
0.0
 11
265.848091
 21
229.985563
 31
0.0
  0
LINE
  5
284
330
273
100
AcDbEntity
  8
LC-001-100-D00-0
 62
     7
370
    50
100
AcDbLine
 10
265.848091
 20
229.985563
 30
0.0
 11
265.848091
 21
229.985563
 31
0.0
  0
LINE
  5
285
330
273
100
AcDbEntity
  8
LC-001-100-D00-0
 62
     7
370
    50
100
AcDbLine
 10
265.848091
 20
229.985563
 30
0.0
 11
265.859115
 21
229.988293
 31
0.0
  0
ENDBLK
  5
275
330
273
100
AcDbEntity
  8
0
100
AcDbBlockEnd
  0
BLOCK
  5
288
330
287
100
AcDbEntity
  8
0
100
AcDbBlockBegin
  2
POLY17
 70
     0
 71
     0
 10
0.0
 20
0.0
 30
0.0
  3
POLY17
  1

  4
POLY17
  0
LINE
  5
28A
330
287
100
AcDbEntity
  8
LC-001-100-D00-0
 62
     7
370
    50
100
AcDbLine
 10
265.859115
 20
229.988293
 30
0.0
 11
265.859115
 21
229.988293
 31
0.0
  0
LINE
  5
28B
330
287
100
AcDbEntity
  8
LC-001-100-D00-0
 62
     7
370
    50
100
AcDbLine
 10
265.859115
 20
229.988293
 30
0.0
 11
265.852168
 21
229.985617
 31
0.0
  0
LINE
  5
28C
330
287
100
AcDbEntity
  8
LC-001-100-D00-0
 62
     7
370
    50
100
AcDbLine
 10
265.852168
 20
229.985617
 30
0.0
 11
265.852168
 21
229.985617
 31
0.0
  0
LINE
  5
28D
330
287
100
AcDbEntity
  8
LC-001-100-D00-0
 62
     7
370
    50
100
AcDbLine
 10
265.852168
 20
229.985617
 30
0.0
 11
265.841729
 21
229.981596
 31
0.0
  0
LINE
  5
28E
330
287
100
AcDbEntity
  8
LC-001-100-D00-0
 62
     7
370
    50
100
AcDbLine
 10
265.841729
 20
229.981596
 30
0.0
 11
265.841729
 21
229.981596
 31
0.0
  0
LINE
  5
28F
330
287
100
AcDbEntity
  8
LC-001-100-D00-0
 62
     7
370
    50
100
AcDbLine
 10
265.841729
 20
229.981596
 30
0.0
 11
265.736618
 21
229.948748
 31
0.0
  0
LINE
  5
290
330
287
100
AcDbEntity
  8
LC-001-100-D00-0
 62
     7
370
    50
100
AcDbLine
 10
265.736618
 20
229.948748
 30
0.0
 11
265.736618
 21
229.948748
 31
0.0
  0
LINE
  5
291
330
287
100
AcDbEntity
  8
LC-001-100-D00-0
 62
     7
370
    50
100
AcDbLine
 10
265.736618
 20
229.948748
 30
0.0
 11
265.623417
 21
229.913767
 31
0.0
  0
LINE
  5
292
330
287
100
AcDbEntity
  8
LC-001-100-D00-0
 62
     7
370
    50
100
AcDbLine
 10
265.623417
 20
229.913767
 30
0.0
 11
265.623417
 21
229.913767
 31
0.0
  0
LINE
  5
293
330
287
100
AcDbEntity
  8
LC-001-100-D00-0
 62
     7
370
    50
100
AcDbLine
 10
265.623417
 20
229.913767
 30
0.0
 11
265.481693
 21
229.870152
 31
0.0
  0
LINE
  5
294
330
287
100
AcDbEntity
  8
LC-001-100-D00-0
 62
     7
370
    50
100
AcDbLine
 10
265.481693
 20
229.870152
 30
0.0
 11
265.481693
 21
229.870152
 31
0.0
  0
LINE
  5
295
330
287
100
AcDbEntity
  8
LC-001-100-D00-0
 62
     7
370
    50
100
AcDbLine
 10
265.481693
 20
229.870152
 30
0.0
 11
265.2623
 21
229.80288
 31
0.0
  0
LINE
  5
296
330
287
100
AcDbEntity
  8
LC-001-100-D00-0
 62
     7
370
    50
100
AcDbLine
 10
265.2623
 20
229.80288
 30
0.0
 11
265.2623
 21
229.80288
 31
0.0
  0
LINE
  5
297
330
287
100
AcDbEntity
  8
LC-001-100-D00-0
 62
     7
370
    50
100
AcDbLine
 10
265.2623
 20
229.80288
 30
0.0
 11
265.070997
 21
229.744356
 31
0.0
  0
LINE
  5
298
330
287
100
AcDbEntity
  8
LC-001-100-D00-0
 62
     7
370
    50
100
AcDbLine
 10
265.070997
 20
229.744356
 30
0.0
 11
265.070997
 21
229.744356
 31
0.0
  0
LINE
  5
299
330
287
100
AcDbEntity
  8
LC-001-100-D00-0
 62
     7
370
    50
100
AcDbLine
 10
265.070997
 20
229.744356
 30
0.0
 11
264.943493
 21
229.70535
 31
0.0
  0
ENDBLK
  5
289
330
287
100
AcDbEntity
  8
0
100
AcDbBlockEnd
  0
BLOCK
  5
29C
330
29B
100
AcDbEntity
  8
0
100
AcDbBlockBegin
  2
POLY18
 70
     0
 71
     0
 10
0.0
 20
0.0
 30
0.0
  3
POLY18
  1

  4
POLY18
  0
LINE
  5
29E
330
29B
100
AcDbEntity
  8
LC-001-100-D00-0
 62
     7
370
    50
100
AcDbLine
 10
264.943493
 20
229.70535
 30
0.0
 11
264.943493
 21
229.70535
 31
0.0
  0
LINE
  5
29F
330
29B
100
AcDbEntity
  8
LC-001-100-D00-0
 62
     7
370
    50
100
AcDbLine
 10
264.943493
 20
229.70535
 30
0.0
 11
264.865738
 21
229.681588
 31
0.0
  0
LINE
  5
2A0
330
29B
100
AcDbEntity
  8
LC-001-100-D00-0
 62
     7
370
    50
100
AcDbLine
 10
264.865738
 20
229.681588
 30
0.0
 11
264.865738
 21
229.681588
 31
0.0
  0
LINE
  5
2A1
330
29B
100
AcDbEntity
  8
LC-001-100-D00-0
 62
     7
370
    50
100
AcDbLine
 10
264.865738
 20
229.681588
 30
0.0
 11
264.710339
 21
229.6341
 31
0.0
  0
LINE
  5
2A2
330
29B
100
AcDbEntity
  8
LC-001-100-D00-0
 62
     7
370
    50
100
AcDbLine
 10
264.710339
 20
229.6341
 30
0.0
 11
264.710339
 21
229.6341
 31
0.0
  0
LINE
  5
2A3
330
29B
100
AcDbEntity
  8
LC-001-100-D00-0
 62
     7
370
    50
100
AcDbLine
 10
264.710339
 20
229.6341
 30
0.0
 11
264.493729
 21
229.568003
 31
0.0
  0
LINE
  5
2A4
330
29B
100
AcDbEntity
  8
LC-001-100-D00-0
 62
     7
370
    50
100
AcDbLine
 10
264.493729
 20
229.568003
 30
0.0
 11
264.493729
 21
229.568003
 31
0.0
  0
LINE
  5
2A5
330
29B
100
AcDbEntity
  8
LC-001-100-D00-0
 62
     7
370
    50
100
AcDbLine
 10
264.493729
 20
229.568003
 30
0.0
 11
264.322555
 21
229.515981
 31
0.0
  0
LINE
  5
2A6
330
29B
100
AcDbEntity
  8
LC-001-100-D00-0
 62
     7
370
    50
100
AcDbLine
 10
264.322555
 20
229.515981
 30
0.0
 11
264.322555
 21
229.515981
 31
0.0
  0
LINE
  5
2A7
330
29B
100
AcDbEntity
  8
LC-001-100-D00-0
 62
     7
370
    50
100
AcDbLine
 10
264.322555
 20
229.515981
 30
0.0
 11
264.254869
 21
229.495688
 31
0.0
  0
LINE
  5
2A8
330
29B
100
AcDbEntity
  8
LC-001-100-D00-0
 62
     7
370
    50
100
AcDbLine
 10
264.254869
 20
229.495688
 30
0.0
 11
264.254869
 21
229.495688
 31
0.0
  0
LINE
  5
2A9
330
29B
100
AcDbEntity
  8
LC-001-100-D00-0
 62
     7
370
    50
100
AcDbLine
 10
264.254869
 20
229.495688
 30
0.0
 11
264.22093
 21
229.485513
 31
0.0
  0
ENDBLK
  5
29D
330
29B
100
AcDbEntity
  8
0
100
AcDbBlockEnd
  0
BLOCK
  5
2AC
330
2AB
100
AcDbEntity
  8
0
100
AcDbBlockBegin
  2
POLY19
 70
     0
 71
     0
 10
0.0
 20
0.0
 30
0.0
  3
POLY19
  1

  4
POLY19
  0
LINE
  5
2AE
330
2AB
100
AcDbEntity
  8
LC-001-100-D00-0
 62
     7
370
    50
100
AcDbLine
 10
264.22093
 20
229.485513
 30
0.0
 11
264.22093
 21
229.485513
 31
0.0
  0
LINE
  5
2AF
330
2AB
100
AcDbEntity
  8
LC-001-100-D00-0
 62
     7
370
    50
100
AcDbLine
 10
264.22093
 20
229.485513
 30
0.0
 11
264.183158
 21
229.473711
 31
0.0
  0
LINE
  5
2B0
330
2AB
100
AcDbEntity
  8
LC-001-100-D00-0
 62
     7
370
    50
100
AcDbLine
 10
264.183158
 20
229.473711
 30
0.0
 11
264.183158
 21
229.473711
 31
0.0
  0
LINE
  5
2B1
330
2AB
100
AcDbEntity
  8
LC-001-100-D00-0
 62
     7
370
    50
100
AcDbLine
 10
264.183158
 20
229.473711
 30
0.0
 11
264.107686
 21
229.450131
 31
0.0
  0
LINE
  5
2B2
330
2AB
100
AcDbEntity
  8
LC-001-100-D00-0
 62
     7
370
    50
100
AcDbLine
 10
264.107686
 20
229.450131
 30
0.0
 11
264.107686
 21
229.450131
 31
0.0
  0
LINE
  5
2B3
330
2AB
100
AcDbEntity
  8
LC-001-100-D00-0
 62
     7
370
    50
100
AcDbLine
 10
264.107686
 20
229.450131
 30
0.0
 11
263.894533
 21
229.384648
 31
0.0
  0
LINE
  5
2B4
330
2AB
100
AcDbEntity
  8
LC-001-100-D00-0
 62
     7
370
    50
100
AcDbLine
 10
263.894533
 20
229.384648
 30
0.0
 11
263.894533
 21
229.384648
 31
0.0
  0
LINE
  5
2B5
330
2AB
100
AcDbEntity
  8
LC-001-100-D00-0
 62
     7
370
    50
100
AcDbLine
 10
263.894533
 20
229.384648
 30
0.0
 11
263.618483
 21
229.300099
 31
0.0
  0
LINE
  5
2B6
330
2AB
100
AcDbEntity
  8
LC-001-100-D00-0
 62
     7
370
    50
100
AcDbLine
 10
263.618483
 20
229.300099
 30
0.0
 11
263.618483
 21
229.300099
 31
0.0
  0
LINE
  5
2B7
330
2AB
100
AcDbEntity
  8
LC-001-100-D00-0
 62
     7
370
    50
100
AcDbLine
 10
263.618483
 20
229.300099
 30
0.0
 11
263.417681
 21
229.238704
 31
0.0
  0
LINE
  5
2B8
330
2AB
100
AcDbEntity
  8
LC-001-100-D00-0
 62
     7
370
    50
100
AcDbLine
 10
263.417681
 20
229.238704
 30
0.0
 11
263.417681
 21
229.238704
 31
0.0
  0
LINE
  5
2B9
330
2AB
100
AcDbEntity
  8
LC-001-100-D00-0
 62
     7
370
    50
100
AcDbLine
 10
263.417681
 20
229.238704
 30
0.0
 11
263.317042
 21
229.207934
 31
0.0
  0
ENDBLK
  5
2AD
330
2AB
100
AcDbEntity
  8
0
100
AcDbBlockEnd
  0
BLOCK
  5
2BC
330
2BB
100
AcDbEntity
  8
0
100
AcDbBlockBegin
  2
POLY20
 70
     0
 71
     0
 10
0.0
 20
0.0
 30
0.0
  3
POLY20
  1

  4
POLY20
  0
LINE
  5
2BE
330
2BB
100
AcDbEntity
  8
LC-001-100-D00-0
 62
     7
370
    50
100
AcDbLine
 10
264.380687
 20
229.536192
 30
0.0
 11
264.380687
 21
229.536192
 31
0.0
  0
LINE
  5
2BF
330
2BB
100
AcDbEntity
  8
LC-001-100-D00-0
 62
     7
370
    50
100
AcDbLine
 10
264.380687
 20
229.536192
 30
0.0
 11
264.388154
 21
229.538148
 31
0.0
  0
LINE
  5
2C0
330
2BB
100
AcDbEntity
  8
LC-001-100-D00-0
 62
     7
370
    50
100
AcDbLine
 10
264.388154
 20
229.538148
 30
0.0
 11
264.388154
 21
229.538148
 31
0.0
  0
LINE
  5
2C1
330
2BB
100
AcDbEntity
  8
LC-001-100-D00-0
 62
     7
370
    50
100
AcDbLine
 10
264.388154
 20
229.538148
 30
0.0
 11
264.399334
 21
229.541077
 31
0.0
  0
LINE
  5
2C2
330
2BB
100
AcDbEntity
  8
LC-001-100-D00-0
 62
     7
370
    50
100
AcDbLine
 10
264.399334
 20
229.541077
 30
0.0
 11
264.399334
 21
229.541077
 31
0.0
  0
LINE
  5
2C3
330
2BB
100
AcDbEntity
  8
LC-001-100-D00-0
 62
     7
370
    50
100
AcDbLine
 10
264.399334
 20
229.541077
 30
0.0
 11
264.47006
 21
229.562238
 31
0.0
  0
LINE
  5
2C4
330
2BB
100
AcDbEntity
  8
LC-001-100-D00-0
 62
     7
370
    50
100
AcDbLine
 10
264.47006
 20
229.562238
 30
0.0
 11
264.47006
 21
229.562238
 31
0.0
  0
LINE
  5
2C5
330
2BB
100
AcDbEntity
  8
LC-001-100-D00-0
 62
     7
370
    50
100
AcDbLine
 10
264.47006
 20
229.562238
 30
0.0
 11
264.541
 21
229.583622
 31
0.0
  0
LINE
  5
2C6
330
2BB
100
AcDbEntity
  8
LC-001-100-D00-0
 62
     7
370
    50
100
AcDbLine
 10
264.541
 20
229.583622
 30
0.0
 11
264.541
 21
229.583622
 31
0.0
  0
LINE
  5
2C7
330
2BB
100
AcDbEntity
  8
LC-001-100-D00-0
 62
     7
370
    50
100
AcDbLine
 10
264.541
 20
229.583622
 30
0.0
 11
264.627094
 21
229.609742
 31
0.0
  0
LINE
  5
2C8
330
2BB
100
AcDbEntity
  8
LC-001-100-D00-0
 62
     7
370
    50
100
AcDbLine
 10
264.627094
 20
229.609742
 30
0.0
 11
264.627094
 21
229.609742
 31
0.0
  0
LINE
  5
2C9
330
2BB
100
AcDbEntity
  8
LC-001-100-D00-0
 62
     7
370
    50
100
AcDbLine
 10
264.627094
 20
229.609742
 30
0.0
 11
264.756946
 21
229.64923
 31
0.0
  0
LINE
  5
2CA
330
2BB
100
AcDbEntity
  8
LC-001-100-D00-0
 62
     7
370
    50
100
AcDbLine
 10
264.756946
 20
229.64923
 30
0.0
 11
264.756946
 21
229.64923
 31
0.0
  0
LINE
  5
2CB
330
2BB
100
AcDbEntity
  8
LC-001-100-D00-0
 62
     7
370
    50
100
AcDbLine
 10
264.756946
 20
229.64923
 30
0.0
 11
264.866334
 21
229.682658
 31
0.0
  0
LINE
  5
2CC
330
2BB
100
AcDbEntity
  8
LC-001-100-D00-0
 62
     7
370
    50
100
AcDbLine
 10
264.866334
 20
229.682658
 30
0.0
 11
264.866334
 21
229.682658
 31
0.0
  0
LINE
  5
2CD
330
2BB
100
AcDbEntity
  8
LC-001-100-D00-0
 62
     7
370
    50
100
AcDbLine
 10
264.866334
 20
229.682658
 30
0.0
 11
264.939078
 21
229.704888
 31
0.0
  0
ENDBLK
  5
2BD
330
2BB
100
AcDbEntity
  8
0
100
AcDbBlockEnd
  0
BLOCK
  5
2D0
330
2CF
100
AcDbEntity
  8
0
100
AcDbBlockBegin
  2
POLY21
 70
     0
 71
     0
 10
0.0
 20
0.0
 30
0.0
  3
POLY21
  1

  4
POLY21
  0
LINE
  5
2D2
330
2CF
100
AcDbEntity
  8
LC-001-100-D00-0
 62
     7
370
    50
100
AcDbLine
 10
264.939078
 20
229.704888
 30
0.0
 11
264.939078
 21
229.704888
 31
0.0
  0
LINE
  5
2D3
330
2CF
100
AcDbEntity
  8
LC-001-100-D00-0
 62
     7
370
    50
100
AcDbLine
 10
264.939078
 20
229.704888
 30
0.0
 11
265.013552
 21
229.727669
 31
0.0
  0
LINE
  5
2D4
330
2CF
100
AcDbEntity
  8
LC-001-100-D00-0
 62
     7
370
    50
100
AcDbLine
 10
265.013552
 20
229.727669
 30
0.0
 11
265.013552
 21
229.727669
 31
0.0
  0
LINE
  5
2D5
330
2CF
100
AcDbEntity
  8
LC-001-100-D00-0
 62
     7
370
    50
100
AcDbLine
 10
265.013552
 20
229.727669
 30
0.0
 11
265.125366
 21
229.761874
 31
0.0
  0
LINE
  5
2D6
330
2CF
100
AcDbEntity
  8
LC-001-100-D00-0
 62
     7
370
    50
100
AcDbLine
 10
265.125366
 20
229.761874
 30
0.0
 11
265.125366
 21
229.761874
 31
0.0
  0
LINE
  5
2D7
330
2CF
100
AcDbEntity
  8
LC-001-100-D00-0
 62
     7
370
    50
100
AcDbLine
 10
265.125366
 20
229.761874
 30
0.0
 11
265.256971
 21
229.802347
 31
0.0
  0
LINE
  5
2D8
330
2CF
100
AcDbEntity
  8
LC-001-100-D00-0
 62
     7
370
    50
100
AcDbLine
 10
265.256971
 20
229.802347
 30
0.0
 11
265.256971
 21
229.802347
 31
0.0
  0
LINE
  5
2D9
330
2CF
100
AcDbEntity
  8
LC-001-100-D00-0
 62
     7
370
    50
100
AcDbLine
 10
265.256971
 20
229.802347
 30
0.0
 11
265.342345
 21
229.828645
 31
0.0
  0
LINE
  5
2DA
330
2CF
100
AcDbEntity
  8
LC-001-100-D00-0
 62
     7
370
    50
100
AcDbLine
 10
265.342345
 20
229.828645
 30
0.0
 11
265.342345
 21
229.828645
 31
0.0
  0
LINE
  5
2DB
330
2CF
100
AcDbEntity
  8
LC-001-100-D00-0
 62
     7
370
    50
100
AcDbLine
 10
265.342345
 20
229.828645
 30
0.0
 11
265.414063
 21
229.850879
 31
0.0
  0
LINE
  5
2DC
330
2CF
100
AcDbEntity
  8
LC-001-100-D00-0
 62
     7
370
    50
100
AcDbLine
 10
265.414063
 20
229.850879
 30
0.0
 11
265.414063
 21
229.850879
 31
0.0
  0
LINE
  5
2DD
330
2CF
100
AcDbEntity
  8
LC-001-100-D00-0
 62
     7
370
    50
100
AcDbLine
 10
265.414063
 20
229.850879
 30
0.0
 11
265.484495
 21
229.872886
 31
0.0
  0
LINE
  5
2DE
330
2CF
100
AcDbEntity
  8
LC-001-100-D00-0
 62
     7
370
    50
100
AcDbLine
 10
265.484495
 20
229.872886
 30
0.0
 11
265.484495
 21
229.872886
 31
0.0
  0
LINE
  5
2DF
330
2CF
100
AcDbEntity
  8
LC-001-100-D00-0
 62
     7
370
    50
100
AcDbLine
 10
265.484495
 20
229.872886
 30
0.0
 11
265.493704
 21
229.87621
 31
0.0
  0
LINE
  5
2E0
330
2CF
100
AcDbEntity
  8
LC-001-100-D00-0
 62
     7
370
    50
100
AcDbLine
 10
265.493704
 20
229.87621
 30
0.0
 11
265.493704
 21
229.87621
 31
0.0
  0
LINE
  5
2E1
330
2CF
100
AcDbEntity
  8
LC-001-100-D00-0
 62
     7
370
    50
100
AcDbLine
 10
265.493704
 20
229.87621
 30
0.0
 11
265.499846
 21
229.878427
 31
0.0
  0
ENDBLK
  5
2D1
330
2CF
100
AcDbEntity
  8
0
100
AcDbBlockEnd
  0
BLOCK
  5
2E4
330
2E3
100
AcDbEntity
  8
0
100
AcDbBlockBegin
  2
POLY22
 70
     0
 71
     0
 10
0.0
 20
0.0
 30
0.0
  3
POLY22
  1

  4
POLY22
  0
LINE
  5
2E6
330
2E3
100
AcDbEntity
  8
LC-001-100-D00-0
 62
     7
370
    50
100
AcDbLine
 10
265.499846
 20
229.878427
 30
0.0
 11
265.499846
 21
229.878427
 31
0.0
  0
LINE
  5
2E7
330
2E3
100
AcDbEntity
  8
LC-001-100-D00-0
 62
     7
370
    50
100
AcDbLine
 10
265.499846
 20
229.878427
 30
0.0
 11
265.492172
 21
229.876432
 31
0.0
  0
LINE
  5
2E8
330
2E3
100
AcDbEntity
  8
LC-001-100-D00-0
 62
     7
370
    50
100
AcDbLine
 10
265.492172
 20
229.876432
 30
0.0
 11
265.492172
 21
229.876432
 31
0.0
  0
LINE
  5
2E9
330
2E3
100
AcDbEntity
  8
LC-001-100-D00-0
 62
     7
370
    50
100
AcDbLine
 10
265.492172
 20
229.876432
 30
0.0
 11
265.480642
 21
229.873434
 31
0.0
  0
LINE
  5
2EA
330
2E3
100
AcDbEntity
  8
LC-001-100-D00-0
 62
     7
370
    50
100
AcDbLine
 10
265.480642
 20
229.873434
 30
0.0
 11
265.480642
 21
229.873434
 31
0.0
  0
LINE
  5
2EB
330
2E3
100
AcDbEntity
  8
LC-001-100-D00-0
 62
     7
370
    50
100
AcDbLine
 10
265.480642
 20
229.873434
 30
0.0
 11
265.409973
 21
229.852555
 31
0.0
  0
LINE
  5
2EC
330
2E3
100
AcDbEntity
  8
LC-001-100-D00-0
 62
     7
370
    50
100
AcDbLine
 10
265.409973
 20
229.852555
 30
0.0
 11
265.409973
 21
229.852555
 31
0.0
  0
LINE
  5
2ED
330
2E3
100
AcDbEntity
  8
LC-001-100-D00-0
 62
     7
370
    50
100
AcDbLine
 10
265.409973
 20
229.852555
 30
0.0
 11
265.31691
 21
229.824755
 31
0.0
  0
LINE
  5
2EE
330
2E3
100
AcDbEntity
  8
LC-001-100-D00-0
 62
     7
370
    50
100
AcDbLine
 10
265.31691
 20
229.824755
 30
0.0
 11
265.31691
 21
229.824755
 31
0.0
  0
LINE
  5
2EF
330
2E3
100
AcDbEntity
  8
LC-001-100-D00-0
 62
     7
370
    50
100
AcDbLine
 10
265.31691
 20
229.824755
 30
0.0
 11
265.163605
 21
229.778583
 31
0.0
  0
LINE
  5
2F0
330
2E3
100
AcDbEntity
  8
LC-001-100-D00-0
 62
     7
370
    50
100
AcDbLine
 10
265.163605
 20
229.778583
 30
0.0
 11
265.163605
 21
229.778583
 31
0.0
  0
LINE
  5
2F1
330
2E3
100
AcDbEntity
  8
LC-001-100-D00-0
 62
     7
370
    50
100
AcDbLine
 10
265.163605
 20
229.778583
 30
0.0
 11
265.018645
 21
229.734359
 31
0.0
  0
LINE
  5
2F2
330
2E3
100
AcDbEntity
  8
LC-001-100-D00-0
 62
     7
370
    50
100
AcDbLine
 10
265.018645
 20
229.734359
 30
0.0
 11
265.018645
 21
229.734359
 31
0.0
  0
LINE
  5
2F3
330
2E3
100
AcDbEntity
  8
LC-001-100-D00-0
 62
     7
370
    50
100
AcDbLine
 10
265.018645
 20
229.734359
 30
0.0
 11
264.946368
 21
229.712309
 31
0.0
  0
ENDBLK
  5
2E5
330
2E3
100
AcDbEntity
  8
0
100
AcDbBlockEnd
  0
BLOCK
  5
2F6
330
2F5
100
AcDbEntity
  8
0
100
AcDbBlockBegin
  2
POLY23
 70
     0
 71
     0
 10
0.0
 20
0.0
 30
0.0
  3
POLY23
  1

  4
POLY23
  0
LINE
  5
2F8
330
2F5
100
AcDbEntity
  8
LC-001-100-D00-0
 62
     7
370
    50
100
AcDbLine
 10
264.946368
 20
229.712309
 30
0.0
 11
264.946368
 21
229.712309
 31
0.0
  0
LINE
  5
2F9
330
2F5
100
AcDbEntity
  8
LC-001-100-D00-0
 62
     7
370
    50
100
AcDbLine
 10
264.946368
 20
229.712309
 30
0.0
 11
264.870624
 21
229.689121
 31
0.0
  0
LINE
  5
2FA
330
2F5
100
AcDbEntity
  8
LC-001-100-D00-0
 62
     7
370
    50
100
AcDbLine
 10
264.870624
 20
229.689121
 30
0.0
 11
264.870624
 21
229.689121
 31
0.0
  0
LINE
  5
2FB
330
2F5
100
AcDbEntity
  8
LC-001-100-D00-0
 62
     7
370
    50
100
AcDbLine
 10
264.870624
 20
229.689121
 30
0.0
 11
264.757068
 21
229.654357
 31
0.0
  0
LINE
  5
2FC
330
2F5
100
AcDbEntity
  8
LC-001-100-D00-0
 62
     7
370
    50
100
AcDbLine
 10
264.757068
 20
229.654357
 30
0.0
 11
264.757068
 21
229.654357
 31
0.0
  0
LINE
  5
2FD
330
2F5
100
AcDbEntity
  8
LC-001-100-D00-0
 62
     7
370
    50
100
AcDbLine
 10
264.757068
 20
229.654357
 30
0.0
 11
264.622574
 21
229.612764
 31
0.0
  0
LINE
  5
2FE
330
2F5
100
AcDbEntity
  8
LC-001-100-D00-0
 62
     7
370
    50
100
AcDbLine
 10
264.622574
 20
229.612764
 30
0.0
 11
264.622574
 21
229.612764
 31
0.0
  0
LINE
  5
2FF
330
2F5
100
AcDbEntity
  8
LC-001-100-D00-0
 62
     7
370
    50
100
AcDbLine
 10
264.622574
 20
229.612764
 30
0.0
 11
264.533608
 21
229.585164
 31
0.0
  0
LINE
  5
300
330
2F5
100
AcDbEntity
  8
LC-001-100-D00-0
 62
     7
370
    50
100
AcDbLine
 10
264.533608
 20
229.585164
 30
0.0
 11
264.533608
 21
229.585164
 31
0.0
  0
LINE
  5
301
330
2F5
100
AcDbEntity
  8
LC-001-100-D00-0
 62
     7
370
    50
100
AcDbLine
 10
264.533608
 20
229.585164
 30
0.0
 11
264.462523
 21
229.562903
 31
0.0
  0
LINE
  5
302
330
2F5
100
AcDbEntity
  8
LC-001-100-D00-0
 62
     7
370
    50
100
AcDbLine
 10
264.462523
 20
229.562903
 30
0.0
 11
264.462523
 21
229.562903
 31
0.0
  0
LINE
  5
303
330
2F5
100
AcDbEntity
  8
LC-001-100-D00-0
 62
     7
370
    50
100
AcDbLine
 10
264.462523
 20
229.562903
 30
0.0
 11
264.393575
 21
229.541065
 31
0.0
  0
LINE
  5
304
330
2F5
100
AcDbEntity
  8
LC-001-100-D00-0
 62
     7
370
    50
100
AcDbLine
 10
264.393575
 20
229.541065
 30
0.0
 11
264.393575
 21
229.541065
 31
0.0
  0
LINE
  5
305
330
2F5
100
AcDbEntity
  8
LC-001-100-D00-0
 62
     7
370
    50
100
AcDbLine
 10
264.393575
 20
229.541065
 30
0.0
 11
264.385837
 21
229.538139
 31
0.0
  0
LINE
  5
306
330
2F5
100
AcDbEntity
  8
LC-001-100-D00-0
 62
     7
370
    50
100
AcDbLine
 10
264.385837
 20
229.538139
 30
0.0
 11
264.385837
 21
229.538139
 31
0.0
  0
LINE
  5
307
330
2F5
100
AcDbEntity
  8
LC-001-100-D00-0
 62
     7
370
    50
100
AcDbLine
 10
264.385837
 20
229.538139
 30
0.0
 11
264.380687
 21
229.536192
 31
0.0
  0
ENDBLK
  5
2F7
330
2F5
100
AcDbEntity
  8
0
100
AcDbBlockEnd
  0
BLOCK
  5
30A
330
309
100
AcDbEntity
  8
0
100
AcDbBlockBegin
  2
POLY24
 70
     0
 71
     0
 10
0.0
 20
0.0
 30
0.0
  3
POLY24
  1

  4
POLY24
  0
LINE
  5
30C
330
309
100
AcDbEntity
  8
LC-001-100-D00-0
 62
     7
370
    50
100
AcDbLine
 10
262.579373
 20
228.9854
 30
0.0
 11
262.579373
 21
228.9854
 31
0.0
  0
LINE
  5
30D
330
309
100
AcDbEntity
  8
LC-001-100-D00-0
 62
     7
370
    50
100
AcDbLine
 10
262.579373
 20
228.9854
 30
0.0
 11
262.589549
 21
228.98811
 31
0.0
  0
LINE
  5
30E
330
309
100
AcDbEntity
  8
LC-001-100-D00-0
 62
     7
370
    50
100
AcDbLine
 10
262.589549
 20
228.98811
 30
0.0
 11
262.589549
 21
228.98811
 31
0.0
  0
LINE
  5
30F
330
309
100
AcDbEntity
  8
LC-001-100-D00-0
 62
     7
370
    50
100
AcDbLine
 10
262.589549
 20
228.98811
 30
0.0
 11
262.604828
 21
228.992179
 31
0.0
  0
LINE
  5
310
330
309
100
AcDbEntity
  8
LC-001-100-D00-0
 62
     7
370
    50
100
AcDbLine
 10
262.604828
 20
228.992179
 30
0.0
 11
262.604828
 21
228.992179
 31
0.0
  0
LINE
  5
311
330
309
100
AcDbEntity
  8
LC-001-100-D00-0
 62
     7
370
    50
100
AcDbLine
 10
262.604828
 20
228.992179
 30
0.0
 11
262.698484
 21
229.020246
 31
0.0
  0
LINE
  5
312
330
309
100
AcDbEntity
  8
LC-001-100-D00-0
 62
     7
370
    50
100
AcDbLine
 10
262.698484
 20
229.020246
 30
0.0
 11
262.698484
 21
229.020246
 31
0.0
  0
LINE
  5
313
330
309
100
AcDbEntity
  8
LC-001-100-D00-0
 62
     7
370
    50
100
AcDbLine
 10
262.698484
 20
229.020246
 30
0.0
 11
262.791734
 21
229.04844
 31
0.0
  0
LINE
  5
314
330
309
100
AcDbEntity
  8
LC-001-100-D00-0
 62
     7
370
    50
100
AcDbLine
 10
262.791734
 20
229.04844
 30
0.0
 11
262.791734
 21
229.04844
 31
0.0
  0
LINE
  5
315
330
309
100
AcDbEntity
  8
LC-001-100-D00-0
 62
     7
370
    50
100
AcDbLine
 10
262.791734
 20
229.04844
 30
0.0
 11
262.903511
 21
229.082385
 31
0.0
  0
LINE
  5
316
330
309
100
AcDbEntity
  8
LC-001-100-D00-0
 62
     7
370
    50
100
AcDbLine
 10
262.903511
 20
229.082385
 30
0.0
 11
262.903511
 21
229.082385
 31
0.0
  0
LINE
  5
317
330
309
100
AcDbEntity
  8
LC-001-100-D00-0
 62
     7
370
    50
100
AcDbLine
 10
262.903511
 20
229.082385
 30
0.0
 11
263.072202
 21
229.133749
 31
0.0
  0
LINE
  5
318
330
309
100
AcDbEntity
  8
LC-001-100-D00-0
 62
     7
370
    50
100
AcDbLine
 10
263.072202
 20
229.133749
 30
0.0
 11
263.072202
 21
229.133749
 31
0.0
  0
LINE
  5
319
330
309
100
AcDbEntity
  8
LC-001-100-D00-0
 62
     7
370
    50
100
AcDbLine
 10
263.072202
 20
229.133749
 30
0.0
 11
263.211842
 21
229.176422
 31
0.0
  0
LINE
  5
31A
330
309
100
AcDbEntity
  8
LC-001-100-D00-0
 62
     7
370
    50
100
AcDbLine
 10
263.211842
 20
229.176422
 30
0.0
 11
263.211842
 21
229.176422
 31
0.0
  0
LINE
  5
31B
330
309
100
AcDbEntity
  8
LC-001-100-D00-0
 62
     7
370
    50
100
AcDbLine
 10
263.211842
 20
229.176422
 30
0.0
 11
263.304769
 21
229.20482
 31
0.0
  0
ENDBLK
  5
30B
330
309
100
AcDbEntity
  8
0
100
AcDbBlockEnd
  0
BLOCK
  5
31E
330
31D
100
AcDbEntity
  8
0
100
AcDbBlockBegin
  2
POLY25
 70
     0
 71
     0
 10
0.0
 20
0.0
 30
0.0
  3
POLY25
  1

  4
POLY25
  0
LINE
  5
320
330
31D
100
AcDbEntity
  8
LC-001-100-D00-0
 62
     7
370
    50
100
AcDbLine
 10
263.304769
 20
229.20482
 30
0.0
 11
263.304769
 21
229.20482
 31
0.0
  0
LINE
  5
321
330
31D
100
AcDbEntity
  8
LC-001-100-D00-0
 62
     7
370
    50
100
AcDbLine
 10
263.304769
 20
229.20482
 30
0.0
 11
263.399876
 21
229.233914
 31
0.0
  0
LINE
  5
322
330
31D
100
AcDbEntity
  8
LC-001-100-D00-0
 62
     7
370
    50
100
AcDbLine
 10
263.399876
 20
229.233914
 30
0.0
 11
263.399876
 21
229.233914
 31
0.0
  0
LINE
  5
323
330
31D
100
AcDbEntity
  8
LC-001-100-D00-0
 62
     7
370
    50
100
AcDbLine
 10
263.399876
 20
229.233914
 30
0.0
 11
263.542575
 21
229.277568
 31
0.0
  0
LINE
  5
324
330
31D
100
AcDbEntity
  8
LC-001-100-D00-0
 62
     7
370
    50
100
AcDbLine
 10
263.542575
 20
229.277568
 30
0.0
 11
263.542575
 21
229.277568
 31
0.0
  0
LINE
  5
325
330
31D
100
AcDbEntity
  8
LC-001-100-D00-0
 62
     7
370
    50
100
AcDbLine
 10
263.542575
 20
229.277568
 30
0.0
 11
263.711571
 21
229.329454
 31
0.0
  0
LINE
  5
326
330
31D
100
AcDbEntity
  8
LC-001-100-D00-0
 62
     7
370
    50
100
AcDbLine
 10
263.711571
 20
229.329454
 30
0.0
 11
263.711571
 21
229.329454
 31
0.0
  0
LINE
  5
327
330
31D
100
AcDbEntity
  8
LC-001-100-D00-0
 62
     7
370
    50
100
AcDbLine
 10
263.711571
 20
229.329454
 30
0.0
 11
263.822439
 21
229.363593
 31
0.0
  0
LINE
  5
328
330
31D
100
AcDbEntity
  8
LC-001-100-D00-0
 62
     7
370
    50
100
AcDbLine
 10
263.822439
 20
229.363593
 30
0.0
 11
263.822439
 21
229.363593
 31
0.0
  0
LINE
  5
329
330
31D
100
AcDbEntity
  8
LC-001-100-D00-0
 62
     7
370
    50
100
AcDbLine
 10
263.822439
 20
229.363593
 30
0.0
 11
263.913613
 21
229.391824
 31
0.0
  0
LINE
  5
32A
330
31D
100
AcDbEntity
  8
LC-001-100-D00-0
 62
     7
370
    50
100
AcDbLine
 10
263.913613
 20
229.391824
 30
0.0
 11
263.913613
 21
229.391824
 31
0.0
  0
LINE
  5
32B
330
31D
100
AcDbEntity
  8
LC-001-100-D00-0
 62
     7
370
    50
100
AcDbLine
 10
263.913613
 20
229.391824
 30
0.0
 11
264.005911
 21
229.420602
 31
0.0
  0
LINE
  5
32C
330
31D
100
AcDbEntity
  8
LC-001-100-D00-0
 62
     7
370
    50
100
AcDbLine
 10
264.005911
 20
229.420602
 30
0.0
 11
264.005911
 21
229.420602
 31
0.0
  0
LINE
  5
32D
330
31D
100
AcDbEntity
  8
LC-001-100-D00-0
 62
     7
370
    50
100
AcDbLine
 10
264.005911
 20
229.420602
 30
0.0
 11
264.01665
 21
229.424517
 31
0.0
  0
LINE
  5
32E
330
31D
100
AcDbEntity
  8
LC-001-100-D00-0
 62
     7
370
    50
100
AcDbLine
 10
264.01665
 20
229.424517
 30
0.0
 11
264.01665
 21
229.424517
 31
0.0
  0
LINE
  5
32F
330
31D
100
AcDbEntity
  8
LC-001-100-D00-0
 62
     7
370
    50
100
AcDbLine
 10
264.01665
 20
229.424517
 30
0.0
 11
264.023816
 21
229.42713
 31
0.0
  0
ENDBLK
  5
31F
330
31D
100
AcDbEntity
  8
0
100
AcDbBlockEnd
  0
BLOCK
  5
332
330
331
100
AcDbEntity
  8
0
100
AcDbBlockBegin
  2
POLY26
 70
     0
 71
     0
 10
0.0
 20
0.0
 30
0.0
  3
POLY26
  1

  4
POLY26
  0
LINE
  5
334
330
331
100
AcDbEntity
  8
LC-001-100-D00-0
 62
     7
370
    50
100
AcDbLine
 10
264.023816
 20
229.42713
 30
0.0
 11
264.023816
 21
229.42713
 31
0.0
  0
LINE
  5
335
330
331
100
AcDbEntity
  8
LC-001-100-D00-0
 62
     7
370
    50
100
AcDbLine
 10
264.023816
 20
229.42713
 30
0.0
 11
264.01381
 21
229.424532
 31
0.0
  0
LINE
  5
336
330
331
100
AcDbEntity
  8
LC-001-100-D00-0
 62
     7
370
    50
100
AcDbLine
 10
264.01381
 20
229.424532
 30
0.0
 11
264.01381
 21
229.424532
 31
0.0
  0
LINE
  5
337
330
331
100
AcDbEntity
  8
LC-001-100-D00-0
 62
     7
370
    50
100
AcDbLine
 10
264.01381
 20
229.424532
 30
0.0
 11
263.998777
 21
229.420628
 31
0.0
  0
LINE
  5
338
330
331
100
AcDbEntity
  8
LC-001-100-D00-0
 62
     7
370
    50
100
AcDbLine
 10
263.998777
 20
229.420628
 30
0.0
 11
263.998777
 21
229.420628
 31
0.0
  0
LINE
  5
339
330
331
100
AcDbEntity
  8
LC-001-100-D00-0
 62
     7
370
    50
100
AcDbLine
 10
263.998777
 20
229.420628
 30
0.0
 11
263.902528
 21
229.39217
 31
0.0
  0
LINE
  5
33A
330
331
100
AcDbEntity
  8
LC-001-100-D00-0
 62
     7
370
    50
100
AcDbLine
 10
263.902528
 20
229.39217
 30
0.0
 11
263.902528
 21
229.39217
 31
0.0
  0
LINE
  5
33B
330
331
100
AcDbEntity
  8
LC-001-100-D00-0
 62
     7
370
    50
100
AcDbLine
 10
263.902528
 20
229.39217
 30
0.0
 11
263.779017
 21
229.355262
 31
0.0
  0
LINE
  5
33C
330
331
100
AcDbEntity
  8
LC-001-100-D00-0
 62
     7
370
    50
100
AcDbLine
 10
263.779017
 20
229.355262
 30
0.0
 11
263.779017
 21
229.355262
 31
0.0
  0
LINE
  5
33D
330
331
100
AcDbEntity
  8
LC-001-100-D00-0
 62
     7
370
    50
100
AcDbLine
 10
263.779017
 20
229.355262
 30
0.0
 11
263.57489
 21
229.293713
 31
0.0
  0
LINE
  5
33E
330
331
100
AcDbEntity
  8
LC-001-100-D00-0
 62
     7
370
    50
100
AcDbLine
 10
263.57489
 20
229.293713
 30
0.0
 11
263.57489
 21
229.293713
 31
0.0
  0
LINE
  5
33F
330
331
100
AcDbEntity
  8
LC-001-100-D00-0
 62
     7
370
    50
100
AcDbLine
 10
263.57489
 20
229.293713
 30
0.0
 11
263.390157
 21
229.237347
 31
0.0
  0
LINE
  5
340
330
331
100
AcDbEntity
  8
LC-001-100-D00-0
 62
     7
370
    50
100
AcDbLine
 10
263.390157
 20
229.237347
 30
0.0
 11
263.390157
 21
229.237347
 31
0.0
  0
LINE
  5
341
330
331
100
AcDbEntity
  8
LC-001-100-D00-0
 62
     7
370
    50
100
AcDbLine
 10
263.390157
 20
229.237347
 30
0.0
 11
263.29791
 21
229.209201
 31
0.0
  0
ENDBLK
  5
333
330
331
100
AcDbEntity
  8
0
100
AcDbBlockEnd
  0
BLOCK
  5
344
330
343
100
AcDbEntity
  8
0
100
AcDbBlockBegin
  2
POLY27
 70
     0
 71
     0
 10
0.0
 20
0.0
 30
0.0
  3
POLY27
  1

  4
POLY27
  0
LINE
  5
346
330
343
100
AcDbEntity
  8
LC-001-100-D00-0
 62
     7
370
    50
100
AcDbLine
 10
263.29791
 20
229.209201
 30
0.0
 11
263.29791
 21
229.209201
 31
0.0
  0
LINE
  5
347
330
343
100
AcDbEntity
  8
LC-001-100-D00-0
 62
     7
370
    50
100
AcDbLine
 10
263.29791
 20
229.209201
 30
0.0
 11
263.203699
 21
229.180327
 31
0.0
  0
LINE
  5
348
330
343
100
AcDbEntity
  8
LC-001-100-D00-0
 62
     7
370
    50
100
AcDbLine
 10
263.203699
 20
229.180327
 30
0.0
 11
263.203699
 21
229.180327
 31
0.0
  0
LINE
  5
349
330
343
100
AcDbEntity
  8
LC-001-100-D00-0
 62
     7
370
    50
100
AcDbLine
 10
263.203699
 20
229.180327
 30
0.0
 11
263.062257
 21
229.136978
 31
0.0
  0
LINE
  5
34A
330
343
100
AcDbEntity
  8
LC-001-100-D00-0
 62
     7
370
    50
100
AcDbLine
 10
263.062257
 20
229.136978
 30
0.0
 11
263.062257
 21
229.136978
 31
0.0
  0
LINE
  5
34B
330
343
100
AcDbEntity
  8
LC-001-100-D00-0
 62
     7
370
    50
100
AcDbLine
 10
263.062257
 20
229.136978
 30
0.0
 11
262.891845
 21
229.084317
 31
0.0
  0
LINE
  5
34C
330
343
100
AcDbEntity
  8
LC-001-100-D00-0
 62
     7
370
    50
100
AcDbLine
 10
262.891845
 20
229.084317
 30
0.0
 11
262.891845
 21
229.084317
 31
0.0
  0
LINE
  5
34D
330
343
100
AcDbEntity
  8
LC-001-100-D00-0
 62
     7
370
    50
100
AcDbLine
 10
262.891845
 20
229.084317
 30
0.0
 11
262.77784
 21
229.048914
 31
0.0
  0
LINE
  5
34E
330
343
100
AcDbEntity
  8
LC-001-100-D00-0
 62
     7
370
    50
100
AcDbLine
 10
262.77784
 20
229.048914
 30
0.0
 11
262.77784
 21
229.048914
 31
0.0
  0
LINE
  5
34F
330
343
100
AcDbEntity
  8
LC-001-100-D00-0
 62
     7
370
    50
100
AcDbLine
 10
262.77784
 20
229.048914
 30
0.0
 11
262.68901
 21
229.021074
 31
0.0
  0
LINE
  5
350
330
343
100
AcDbEntity
  8
LC-001-100-D00-0
 62
     7
370
    50
100
AcDbLine
 10
262.68901
 20
229.021074
 30
0.0
 11
262.68901
 21
229.021074
 31
0.0
  0
LINE
  5
351
330
343
100
AcDbEntity
  8
LC-001-100-D00-0
 62
     7
370
    50
100
AcDbLine
 10
262.68901
 20
229.021074
 30
0.0
 11
262.601001
 21
228.99317
 31
0.0
  0
LINE
  5
352
330
343
100
AcDbEntity
  8
LC-001-100-D00-0
 62
     7
370
    50
100
AcDbLine
 10
262.601001
 20
228.99317
 30
0.0
 11
262.601001
 21
228.99317
 31
0.0
  0
LINE
  5
353
330
343
100
AcDbEntity
  8
LC-001-100-D00-0
 62
     7
370
    50
100
AcDbLine
 10
262.601001
 20
228.99317
 30
0.0
 11
262.588001
 21
228.988499
 31
0.0
  0
LINE
  5
354
330
343
100
AcDbEntity
  8
LC-001-100-D00-0
 62
     7
370
    50
100
AcDbLine
 10
262.588001
 20
228.988499
 30
0.0
 11
262.588001
 21
228.988499
 31
0.0
  0
LINE
  5
355
330
343
100
AcDbEntity
  8
LC-001-100-D00-0
 62
     7
370
    50
100
AcDbLine
 10
262.588001
 20
228.988499
 30
0.0
 11
262.579373
 21
228.9854
 31
0.0
  0
ENDBLK
  5
345
330
343
100
AcDbEntity
  8
0
100
AcDbBlockEnd
  0
BLOCK
  5
35B
330
35A
100
AcDbEntity
  8
0
100
AcDbBlockBegin
  2
POLY28
 70
     0
 71
     0
 10
0.0
 20
0.0
 30
0.0
  3
POLY28
  1

  4
POLY28
  0
LINE
  5
35D
330
35A
100
AcDbEntity
  8
LC-001-100-D00-0
 62
     7
370
    50
100
AcDbLine
 10
264.885223
 20
229.70903
 30
0.0
 11
264.885223
 21
229.70903
 31
0.0
  0
LINE
  5
35E
330
35A
100
AcDbEntity
  8
LC-001-100-D00-0
 62
     7
370
    50
100
AcDbLine
 10
264.885223
 20
229.70903
 30
0.0
 11
264.958816
 21
229.731622
 31
0.0
  0
LINE
  5
35F
330
35A
100
AcDbEntity
  8
LC-001-100-D00-0
 62
     7
370
    50
100
AcDbLine
 10
264.958816
 20
229.731622
 30
0.0
 11
264.958816
 21
229.731622
 31
0.0
  0
LINE
  5
360
330
35A
100
AcDbEntity
  8
LC-001-100-D00-0
 62
     7
370
    50
100
AcDbLine
 10
264.958816
 20
229.731622
 30
0.0
 11
265.069348
 21
229.765553
 31
0.0
  0
LINE
  5
361
330
35A
100
AcDbEntity
  8
LC-001-100-D00-0
 62
     7
370
    50
100
AcDbLine
 10
265.069348
 20
229.765553
 30
0.0
 11
265.069348
 21
229.765553
 31
0.0
  0
LINE
  5
362
330
35A
100
AcDbEntity
  8
LC-001-100-D00-0
 62
     7
370
    50
100
AcDbLine
 10
265.069348
 20
229.765553
 30
0.0
 11
265.197059
 21
229.805513
 31
0.0
  0
LINE
  5
363
330
35A
100
AcDbEntity
  8
LC-001-100-D00-0
 62
     7
370
    50
100
AcDbLine
 10
265.197059
 20
229.805513
 30
0.0
 11
265.197059
 21
229.805513
 31
0.0
  0
LINE
  5
364
330
35A
100
AcDbEntity
  8
LC-001-100-D00-0
 62
     7
370
    50
100
AcDbLine
 10
265.197059
 20
229.805513
 30
0.0
 11
265.280359
 21
229.831862
 31
0.0
  0
LINE
  5
365
330
35A
100
AcDbEntity
  8
LC-001-100-D00-0
 62
     7
370
    50
100
AcDbLine
 10
265.280359
 20
229.831862
 30
0.0
 11
265.280359
 21
229.831862
 31
0.0
  0
LINE
  5
366
330
35A
100
AcDbEntity
  8
LC-001-100-D00-0
 62
     7
370
    50
100
AcDbLine
 10
265.280359
 20
229.831862
 30
0.0
 11
265.346889
 21
229.853332
 31
0.0
  0
LINE
  5
367
330
35A
100
AcDbEntity
  8
LC-001-100-D00-0
 62
     7
370
    50
100
AcDbLine
 10
265.346889
 20
229.853332
 30
0.0
 11
265.346889
 21
229.853332
 31
0.0
  0
LINE
  5
368
330
35A
100
AcDbEntity
  8
LC-001-100-D00-0
 62
     7
370
    50
100
AcDbLine
 10
265.346889
 20
229.853332
 30
0.0
 11
265.409894
 21
229.874348
 31
0.0
  0
LINE
  5
369
330
35A
100
AcDbEntity
  8
LC-001-100-D00-0
 62
     7
370
    50
100
AcDbLine
 10
265.409894
 20
229.874348
 30
0.0
 11
265.409894
 21
229.874348
 31
0.0
  0
LINE
  5
36A
330
35A
100
AcDbEntity
  8
LC-001-100-D00-0
 62
     7
370
    50
100
AcDbLine
 10
265.409894
 20
229.874348
 30
0.0
 11
265.413711
 21
229.877072
 31
0.0
  0
LINE
  5
36B
330
35A
100
AcDbEntity
  8
LC-001-100-D00-0
 62
     7
370
    50
100
AcDbLine
 10
265.413711
 20
229.877072
 30
0.0
 11
265.413711
 21
229.877072
 31
0.0
  0
LINE
  5
36C
330
35A
100
AcDbEntity
  8
LC-001-100-D00-0
 62
     7
370
    50
100
AcDbLine
 10
265.413711
 20
229.877072
 30
0.0
 11
265.416257
 21
229.878889
 31
0.0
  0
ENDBLK
  5
35C
330
35A
100
AcDbEntity
  8
0
100
AcDbBlockEnd
  0
BLOCK
  5
36F
330
36E
100
AcDbEntity
  8
0
100
AcDbBlockBegin
  2
POLY29
 70
     0
 71
     0
 10
0.0
 20
0.0
 30
0.0
  3
POLY29
  1

  4
POLY29
  0
LINE
  5
371
330
36E
100
AcDbEntity
  8
LC-001-100-D00-0
 62
     7
370
    50
100
AcDbLine
 10
265.416257
 20
229.878889
 30
0.0
 11
265.416257
 21
229.878889
 31
0.0
  0
LINE
  5
372
330
36E
100
AcDbEntity
  8
LC-001-100-D00-0
 62
     7
370
    50
100
AcDbLine
 10
265.416257
 20
229.878889
 30
0.0
 11
265.404435
 21
229.876446
 31
0.0
  0
LINE
  5
373
330
36E
100
AcDbEntity
  8
LC-001-100-D00-0
 62
     7
370
    50
100
AcDbLine
 10
265.404435
 20
229.876446
 30
0.0
 11
265.404435
 21
229.876446
 31
0.0
  0
LINE
  5
374
330
36E
100
AcDbEntity
  8
LC-001-100-D00-0
 62
     7
370
    50
100
AcDbLine
 10
265.404435
 20
229.876446
 30
0.0
 11
265.386648
 21
229.872771
 31
0.0
  0
LINE
  5
375
330
36E
100
AcDbEntity
  8
LC-001-100-D00-0
 62
     7
370
    50
100
AcDbLine
 10
265.386648
 20
229.872771
 30
0.0
 11
265.386648
 21
229.872771
 31
0.0
  0
LINE
  5
376
330
36E
100
AcDbEntity
  8
LC-001-100-D00-0
 62
     7
370
    50
100
AcDbLine
 10
265.386648
 20
229.872771
 30
0.0
 11
265.296523
 21
229.847352
 31
0.0
  0
LINE
  5
377
330
36E
100
AcDbEntity
  8
LC-001-100-D00-0
 62
     7
370
    50
100
AcDbLine
 10
265.296523
 20
229.847352
 30
0.0
 11
265.296523
 21
229.847352
 31
0.0
  0
LINE
  5
378
330
36E
100
AcDbEntity
  8
LC-001-100-D00-0
 62
     7
370
    50
100
AcDbLine
 10
265.296523
 20
229.847352
 30
0.0
 11
265.178876
 21
229.813234
 31
0.0
  0
LINE
  5
379
330
36E
100
AcDbEntity
  8
LC-001-100-D00-0
 62
     7
370
    50
100
AcDbLine
 10
265.178876
 20
229.813234
 30
0.0
 11
265.178876
 21
229.813234
 31
0.0
  0
LINE
  5
37A
330
36E
100
AcDbEntity
  8
LC-001-100-D00-0
 62
     7
370
    50
100
AcDbLine
 10
265.178876
 20
229.813234
 30
0.0
 11
264.99062
 21
229.757256
 31
0.0
  0
LINE
  5
37B
330
36E
100
AcDbEntity
  8
LC-001-100-D00-0
 62
     7
370
    50
100
AcDbLine
 10
264.99062
 20
229.757256
 30
0.0
 11
264.99062
 21
229.757256
 31
0.0
  0
LINE
  5
37C
330
36E
100
AcDbEntity
  8
LC-001-100-D00-0
 62
     7
370
    50
100
AcDbLine
 10
264.99062
 20
229.757256
 30
0.0
 11
264.827886
 21
229.70794
 31
0.0
  0
LINE
  5
37D
330
36E
100
AcDbEntity
  8
LC-001-100-D00-0
 62
     7
370
    50
100
AcDbLine
 10
264.827886
 20
229.70794
 30
0.0
 11
264.827886
 21
229.70794
 31
0.0
  0
LINE
  5
37E
330
36E
100
AcDbEntity
  8
LC-001-100-D00-0
 62
     7
370
    50
100
AcDbLine
 10
264.827886
 20
229.70794
 30
0.0
 11
264.746317
 21
229.683221
 31
0.0
  0
ENDBLK
  5
370
330
36E
100
AcDbEntity
  8
0
100
AcDbBlockEnd
  0
BLOCK
  5
382
330
381
100
AcDbEntity
  8
0
100
AcDbBlockBegin
  2
POLY30
 70
     0
 71
     0
 10
0.0
 20
0.0
 30
0.0
  3
POLY30
  1

  4
POLY30
  0
LINE
  5
384
330
381
100
AcDbEntity
  8
LC-001-100-D00-0
 62
     7
370
    50
100
AcDbLine
 10
264.80525
 20
229.708375
 30
0.0
 11
264.80525
 21
229.708375
 31
0.0
  0
LINE
  5
385
330
381
100
AcDbEntity
  8
LC-001-100-D00-0
 62
     7
370
    50
100
AcDbLine
 10
264.80525
 20
229.708375
 30
0.0
 11
264.92947
 21
229.745862
 31
0.0
  0
LINE
  5
386
330
381
100
AcDbEntity
  8
LC-001-100-D00-0
 62
     7
370
    50
100
AcDbLine
 10
264.92947
 20
229.745862
 30
0.0
 11
264.92947
 21
229.745862
 31
0.0
  0
LINE
  5
387
330
381
100
AcDbEntity
  8
LC-001-100-D00-0
 62
     7
370
    50
100
AcDbLine
 10
264.92947
 20
229.745862
 30
0.0
 11
265.177612
 21
229.820748
 31
0.0
  0
LINE
  5
388
330
381
100
AcDbEntity
  8
LC-001-100-D00-0
 62
     7
370
    50
100
AcDbLine
 10
265.177612
 20
229.820748
 30
0.0
 11
265.177612
 21
229.820748
 31
0.0
  0
LINE
  5
389
330
381
100
AcDbEntity
  8
LC-001-100-D00-0
 62
     7
370
    50
100
AcDbLine
 10
265.177612
 20
229.820748
 30
0.0
 11
265.449932
 21
229.900874
 31
0.0
  0
LINE
  5
38A
330
381
100
AcDbEntity
  8
LC-001-100-D00-0
 62
     7
370
    50
100
AcDbLine
 10
265.449932
 20
229.900874
 30
0.0
 11
265.449932
 21
229.900874
 31
0.0
  0
LINE
  5
38B
330
381
100
AcDbEntity
  8
LC-001-100-D00-0
 62
     7
370
    50
100
AcDbLine
 10
265.449932
 20
229.900874
 30
0.0
 11
265.611695
 21
229.947069
 31
0.0
  0
LINE
  5
38C
330
381
100
AcDbEntity
  8
LC-001-100-D00-0
 62
     7
370
    50
100
AcDbLine
 10
265.611695
 20
229.947069
 30
0.0
 11
265.611695
 21
229.947069
 31
0.0
  0
LINE
  5
38D
330
381
100
AcDbEntity
  8
LC-001-100-D00-0
 62
     7
370
    50
100
AcDbLine
 10
265.611695
 20
229.947069
 30
0.0
 11
265.735434
 21
229.981351
 31
0.0
  0
LINE
  5
38E
330
381
100
AcDbEntity
  8
LC-001-100-D00-0
 62
     7
370
    50
100
AcDbLine
 10
265.735434
 20
229.981351
 30
0.0
 11
265.735434
 21
229.981351
 31
0.0
  0
LINE
  5
38F
330
381
100
AcDbEntity
  8
LC-001-100-D00-0
 62
     7
370
    50
100
AcDbLine
 10
265.735434
 20
229.981351
 30
0.0
 11
265.759447
 21
229.985909
 31
0.0
  0
LINE
  5
390
330
381
100
AcDbEntity
  8
LC-001-100-D00-0
 62
     7
370
    50
100
AcDbLine
 10
265.759447
 20
229.985909
 30
0.0
 11
265.759447
 21
229.985909
 31
0.0
  0
LINE
  5
391
330
381
100
AcDbEntity
  8
LC-001-100-D00-0
 62
     7
370
    50
100
AcDbLine
 10
265.759447
 20
229.985909
 30
0.0
 11
265.775465
 21
229.988949
 31
0.0
  0
ENDBLK
  5
383
330
381
100
AcDbEntity
  8
0
100
AcDbBlockEnd
  0
BLOCK
  5
394
330
393
100
AcDbEntity
  8
0
100
AcDbBlockBegin
  2
POLY31
 70
     0
 71
     0
 10
0.0
 20
0.0
 30
0.0
  3
POLY31
  1

  4
POLY31
  0
LINE
  5
396
330
393
100
AcDbEntity
  8
LC-001-100-D00-0
 62
     7
370
    50
100
AcDbLine
 10
265.775465
 20
229.988949
 30
0.0
 11
265.775465
 21
229.988949
 31
0.0
  0
LINE
  5
397
330
393
100
AcDbEntity
  8
LC-001-100-D00-0
 62
     7
370
    50
100
AcDbLine
 10
265.775465
 20
229.988949
 30
0.0
 11
265.769446
 21
229.985374
 31
0.0
  0
LINE
  5
398
330
393
100
AcDbEntity
  8
LC-001-100-D00-0
 62
     7
370
    50
100
AcDbLine
 10
265.769446
 20
229.985374
 30
0.0
 11
265.769446
 21
229.985374
 31
0.0
  0
LINE
  5
399
330
393
100
AcDbEntity
  8
LC-001-100-D00-0
 62
     7
370
    50
100
AcDbLine
 10
265.769446
 20
229.985374
 30
0.0
 11
265.757402
 21
229.978222
 31
0.0
  0
LINE
  5
39A
330
393
100
AcDbEntity
  8
LC-001-100-D00-0
 62
     7
370
    50
100
AcDbLine
 10
265.757402
 20
229.978222
 30
0.0
 11
265.757402
 21
229.978222
 31
0.0
  0
LINE
  5
39B
330
393
100
AcDbEntity
  8
LC-001-100-D00-0
 62
     7
370
    50
100
AcDbLine
 10
265.757402
 20
229.978222
 30
0.0
 11
265.604636
 21
229.928039
 31
0.0
  0
LINE
  5
39C
330
393
100
AcDbEntity
  8
LC-001-100-D00-0
 62
     7
370
    50
100
AcDbLine
 10
265.604636
 20
229.928039
 30
0.0
 11
265.604636
 21
229.928039
 31
0.0
  0
LINE
  5
39D
330
393
100
AcDbEntity
  8
LC-001-100-D00-0
 62
     7
370
    50
100
AcDbLine
 10
265.604636
 20
229.928039
 30
0.0
 11
265.424536
 21
229.870986
 31
0.0
  0
LINE
  5
39E
330
393
100
AcDbEntity
  8
LC-001-100-D00-0
 62
     7
370
    50
100
AcDbLine
 10
265.424536
 20
229.870986
 30
0.0
 11
265.424536
 21
229.870986
 31
0.0
  0
LINE
  5
39F
330
393
100
AcDbEntity
  8
LC-001-100-D00-0
 62
     7
370
    50
100
AcDbLine
 10
265.424536
 20
229.870986
 30
0.0
 11
265.21051
 21
229.804043
 31
0.0
  0
LINE
  5
3A0
330
393
100
AcDbEntity
  8
LC-001-100-D00-0
 62
     7
370
    50
100
AcDbLine
 10
265.21051
 20
229.804043
 30
0.0
 11
265.21051
 21
229.804043
 31
0.0
  0
LINE
  5
3A1
330
393
100
AcDbEntity
  8
LC-001-100-D00-0
 62
     7
370
    50
100
AcDbLine
 10
265.21051
 20
229.804043
 30
0.0
 11
265.020743
 21
229.745724
 31
0.0
  0
LINE
  5
3A2
330
393
100
AcDbEntity
  8
LC-001-100-D00-0
 62
     7
370
    50
100
AcDbLine
 10
265.020743
 20
229.745724
 30
0.0
 11
265.020743
 21
229.745724
 31
0.0
  0
LINE
  5
3A3
330
393
100
AcDbEntity
  8
LC-001-100-D00-0
 62
     7
370
    50
100
AcDbLine
 10
265.020743
 20
229.745724
 30
0.0
 11
264.894214
 21
229.70684
 31
0.0
  0
ENDBLK
  5
395
330
393
100
AcDbEntity
  8
0
100
AcDbBlockEnd
  0
BLOCK
  5
3A6
330
3A5
100
AcDbEntity
  8
0
100
AcDbBlockBegin
  2
POLY32
 70
     0
 71
     0
 10
0.0
 20
0.0
 30
0.0
  3
POLY32
  1

  4
POLY32
  0
LINE
  5
3A8
330
3A5
100
AcDbEntity
  8
LC-001-100-D00-0
 62
     7
370
    50
100
AcDbLine
 10
264.894214
 20
229.70684
 30
0.0
 11
264.894214
 21
229.70684
 31
0.0
  0
LINE
  5
3A9
330
3A5
100
AcDbEntity
  8
LC-001-100-D00-0
 62
     7
370
    50
100
AcDbLine
 10
264.894214
 20
229.70684
 30
0.0
 11
264.818138
 21
229.68363
 31
0.0
  0
LINE
  5
3AA
330
3A5
100
AcDbEntity
  8
LC-001-100-D00-0
 62
     7
370
    50
100
AcDbLine
 10
264.818138
 20
229.68363
 30
0.0
 11
264.818138
 21
229.68363
 31
0.0
  0
LINE
  5
3AB
330
3A5
100
AcDbEntity
  8
LC-001-100-D00-0
 62
     7
370
    50
100
AcDbLine
 10
264.818138
 20
229.68363
 30
0.0
 11
264.666202
 21
229.637277
 31
0.0
  0
LINE
  5
3AC
330
3A5
100
AcDbEntity
  8
LC-001-100-D00-0
 62
     7
370
    50
100
AcDbLine
 10
264.666202
 20
229.637277
 30
0.0
 11
264.666202
 21
229.637277
 31
0.0
  0
LINE
  5
3AD
330
3A5
100
AcDbEntity
  8
LC-001-100-D00-0
 62
     7
370
    50
100
AcDbLine
 10
264.666202
 20
229.637277
 30
0.0
 11
264.452675
 21
229.573005
 31
0.0
  0
LINE
  5
3AE
330
3A5
100
AcDbEntity
  8
LC-001-100-D00-0
 62
     7
370
    50
100
AcDbLine
 10
264.452675
 20
229.573005
 30
0.0
 11
264.452675
 21
229.573005
 31
0.0
  0
LINE
  5
3AF
330
3A5
100
AcDbEntity
  8
LC-001-100-D00-0
 62
     7
370
    50
100
AcDbLine
 10
264.452675
 20
229.573005
 30
0.0
 11
264.271636
 21
229.51931
 31
0.0
  0
LINE
  5
3B0
330
3A5
100
AcDbEntity
  8
LC-001-100-D00-0
 62
     7
370
    50
100
AcDbLine
 10
264.271636
 20
229.51931
 30
0.0
 11
264.271636
 21
229.51931
 31
0.0
  0
LINE
  5
3B1
330
3A5
100
AcDbEntity
  8
LC-001-100-D00-0
 62
     7
370
    50
100
AcDbLine
 10
264.271636
 20
229.51931
 30
0.0
 11
264.19144
 21
229.496392
 31
0.0
  0
LINE
  5
3B2
330
3A5
100
AcDbEntity
  8
LC-001-100-D00-0
 62
     7
370
    50
100
AcDbLine
 10
264.19144
 20
229.496392
 30
0.0
 11
264.19144
 21
229.496392
 31
0.0
  0
LINE
  5
3B3
330
3A5
100
AcDbEntity
  8
LC-001-100-D00-0
 62
     7
370
    50
100
AcDbLine
 10
264.19144
 20
229.496392
 30
0.0
 11
264.151233
 21
229.484902
 31
0.0
  0
ENDBLK
  5
3A7
330
3A5
100
AcDbEntity
  8
0
100
AcDbBlockEnd
  0
BLOCK
  5
3B6
330
3B5
100
AcDbEntity
  8
0
100
AcDbBlockBegin
  2
POLY33
 70
     0
 71
     0
 10
0.0
 20
0.0
 30
0.0
  3
POLY33
  1

  4
POLY33
  0
LINE
  5
3B8
330
3B5
100
AcDbEntity
  8
LC-001-100-D00-0
 62
     7
370
    50
100
AcDbLine
 10
264.151233
 20
229.484902
 30
0.0
 11
264.151233
 21
229.484902
 31
0.0
  0
LINE
  5
3B9
330
3B5
100
AcDbEntity
  8
LC-001-100-D00-0
 62
     7
370
    50
100
AcDbLine
 10
264.151233
 20
229.484902
 30
0.0
 11
264.124793
 21
229.47568
 31
0.0
  0
LINE
  5
3BA
330
3B5
100
AcDbEntity
  8
LC-001-100-D00-0
 62
     7
370
    50
100
AcDbLine
 10
264.124793
 20
229.47568
 30
0.0
 11
264.124793
 21
229.47568
 31
0.0
  0
LINE
  5
3BB
330
3B5
100
AcDbEntity
  8
LC-001-100-D00-0
 62
     7
370
    50
100
AcDbLine
 10
264.124793
 20
229.47568
 30
0.0
 11
264.071972
 21
229.457257
 31
0.0
  0
LINE
  5
3BC
330
3B5
100
AcDbEntity
  8
LC-001-100-D00-0
 62
     7
370
    50
100
AcDbLine
 10
264.071972
 20
229.457257
 30
0.0
 11
264.071972
 21
229.457257
 31
0.0
  0
LINE
  5
3BD
330
3B5
100
AcDbEntity
  8
LC-001-100-D00-0
 62
     7
370
    50
100
AcDbLine
 10
264.071972
 20
229.457257
 30
0.0
 11
263.865441
 21
229.391743
 31
0.0
  0
LINE
  5
3BE
330
3B5
100
AcDbEntity
  8
LC-001-100-D00-0
 62
     7
370
    50
100
AcDbLine
 10
263.865441
 20
229.391743
 30
0.0
 11
263.865441
 21
229.391743
 31
0.0
  0
LINE
  5
3BF
330
3B5
100
AcDbEntity
  8
LC-001-100-D00-0
 62
     7
370
    50
100
AcDbLine
 10
263.865441
 20
229.391743
 30
0.0
 11
263.598076
 21
229.308651
 31
0.0
  0
LINE
  5
3C0
330
3B5
100
AcDbEntity
  8
LC-001-100-D00-0
 62
     7
370
    50
100
AcDbLine
 10
263.598076
 20
229.308651
 30
0.0
 11
263.598076
 21
229.308651
 31
0.0
  0
LINE
  5
3C1
330
3B5
100
AcDbEntity
  8
LC-001-100-D00-0
 62
     7
370
    50
100
AcDbLine
 10
263.598076
 20
229.308651
 30
0.0
 11
263.401135
 21
229.248274
 31
0.0
  0
LINE
  5
3C2
330
3B5
100
AcDbEntity
  8
LC-001-100-D00-0
 62
     7
370
    50
100
AcDbLine
 10
263.401135
 20
229.248274
 30
0.0
 11
263.401135
 21
229.248274
 31
0.0
  0
LINE
  5
3C3
330
3B5
100
AcDbEntity
  8
LC-001-100-D00-0
 62
     7
370
    50
100
AcDbLine
 10
263.401135
 20
229.248274
 30
0.0
 11
263.302556
 21
229.218052
 31
0.0
  0
ENDBLK
  5
3B7
330
3B5
100
AcDbEntity
  8
0
100
AcDbBlockEnd
  0
BLOCK
  5
3C6
330
3C5
100
AcDbEntity
  8
0
100
AcDbBlockBegin
  2
POLY34
 70
     0
 71
     0
 10
0.0
 20
0.0
 30
0.0
  3
POLY34
  1

  4
POLY34
  0
LINE
  5
3C8
330
3C5
100
AcDbEntity
  8
LC-001-100-D00-0
 62
     7
370
    50
100
AcDbLine
 10
263.302556
 20
229.218052
 30
0.0
 11
263.302556
 21
229.218052
 31
0.0
  0
LINE
  5
3C9
330
3C5
100
AcDbEntity
  8
LC-001-100-D00-0
 62
     7
370
    50
100
AcDbLine
 10
263.302556
 20
229.218052
 30
0.0
 11
263.152327
 21
229.172221
 31
0.0
  0
LINE
  5
3CA
330
3C5
100
AcDbEntity
  8
LC-001-100-D00-0
 62
     7
370
    50
100
AcDbLine
 10
263.152327
 20
229.172221
 30
0.0
 11
263.152327
 21
229.172221
 31
0.0
  0
LINE
  5
3CB
330
3C5
100
AcDbEntity
  8
LC-001-100-D00-0
 62
     7
370
    50
100
AcDbLine
 10
263.152327
 20
229.172221
 30
0.0
 11
262.926494
 21
229.103325
 31
0.0
  0
LINE
  5
3CC
330
3C5
100
AcDbEntity
  8
LC-001-100-D00-0
 62
     7
370
    50
100
AcDbLine
 10
262.926494
 20
229.103325
 30
0.0
 11
262.926494
 21
229.103325
 31
0.0
  0
LINE
  5
3CD
330
3C5
100
AcDbEntity
  8
LC-001-100-D00-0
 62
     7
370
    50
100
AcDbLine
 10
262.926494
 20
229.103325
 30
0.0
 11
262.658791
 21
229.022989
 31
0.0
  0
LINE
  5
3CE
330
3C5
100
AcDbEntity
  8
LC-001-100-D00-0
 62
     7
370
    50
100
AcDbLine
 10
262.658791
 20
229.022989
 30
0.0
 11
262.658791
 21
229.022989
 31
0.0
  0
LINE
  5
3CF
330
3C5
100
AcDbEntity
  8
LC-001-100-D00-0
 62
     7
370
    50
100
AcDbLine
 10
262.658791
 20
229.022989
 30
0.0
 11
262.481153
 21
228.970208
 31
0.0
  0
LINE
  5
3D0
330
3C5
100
AcDbEntity
  8
LC-001-100-D00-0
 62
     7
370
    50
100
AcDbLine
 10
262.481153
 20
228.970208
 30
0.0
 11
262.481153
 21
228.970208
 31
0.0
  0
LINE
  5
3D1
330
3C5
100
AcDbEntity
  8
LC-001-100-D00-0
 62
     7
370
    50
100
AcDbLine
 10
262.481153
 20
228.970208
 30
0.0
 11
262.332756
 21
228.926805
 31
0.0
  0
LINE
  5
3D2
330
3C5
100
AcDbEntity
  8
LC-001-100-D00-0
 62
     7
370
    50
100
AcDbLine
 10
262.332756
 20
228.926805
 30
0.0
 11
262.332756
 21
228.926805
 31
0.0
  0
LINE
  5
3D3
330
3C5
100
AcDbEntity
  8
LC-001-100-D00-0
 62
     7
370
    50
100
AcDbLine
 10
262.332756
 20
228.926805
 30
0.0
 11
262.183033
 21
228.884244
 31
0.0
  0
LINE
  5
3D4
330
3C5
100
AcDbEntity
  8
LC-001-100-D00-0
 62
     7
370
    50
100
AcDbLine
 10
262.183033
 20
228.884244
 30
0.0
 11
262.183033
 21
228.884244
 31
0.0
  0
LINE
  5
3D5
330
3C5
100
AcDbEntity
  8
LC-001-100-D00-0
 62
     7
370
    50
100
AcDbLine
 10
262.183033
 20
228.884244
 30
0.0
 11
262.153484
 21
228.878267
 31
0.0
  0
LINE
  5
3D6
330
3C5
100
AcDbEntity
  8
LC-001-100-D00-0
 62
     7
370
    50
100
AcDbLine
 10
262.153484
 20
228.878267
 30
0.0
 11
262.153484
 21
228.878267
 31
0.0
  0
LINE
  5
3D7
330
3C5
100
AcDbEntity
  8
LC-001-100-D00-0
 62
     7
370
    50
100
AcDbLine
 10
262.153484
 20
228.878267
 30
0.0
 11
262.133784
 21
228.874282
 31
0.0
  0
ENDBLK
  5
3C7
330
3C5
100
AcDbEntity
  8
0
100
AcDbBlockEnd
  0
BLOCK
  5
3DA
330
3D9
100
AcDbEntity
  8
0
100
AcDbBlockBegin
  2
POLY35
 70
     0
 71
     0
 10
0.0
 20
0.0
 30
0.0
  3
POLY35
  1

  4
POLY35
  0
LINE
  5
3DC
330
3D9
100
AcDbEntity
  8
LC-001-100-D00-0
 62
     7
370
    50
100
AcDbLine
 10
262.133784
 20
228.874282
 30
0.0
 11
262.133784
 21
228.874282
 31
0.0
  0
LINE
  5
3DD
330
3D9
100
AcDbEntity
  8
LC-001-100-D00-0
 62
     7
370
    50
100
AcDbLine
 10
262.133784
 20
228.874282
 30
0.0
 11
262.138731
 21
228.87778
 31
0.0
  0
LINE
  5
3DE
330
3D9
100
AcDbEntity
  8
LC-001-100-D00-0
 62
     7
370
    50
100
AcDbLine
 10
262.138731
 20
228.87778
 30
0.0
 11
262.138731
 21
228.87778
 31
0.0
  0
LINE
  5
3DF
330
3D9
100
AcDbEntity
  8
LC-001-100-D00-0
 62
     7
370
    50
100
AcDbLine
 10
262.138731
 20
228.87778
 30
0.0
 11
262.146168
 21
228.883038
 31
0.0
  0
LINE
  5
3E0
330
3D9
100
AcDbEntity
  8
LC-001-100-D00-0
 62
     7
370
    50
100
AcDbLine
 10
262.146168
 20
228.883038
 30
0.0
 11
262.146168
 21
228.883038
 31
0.0
  0
LINE
  5
3E1
330
3D9
100
AcDbEntity
  8
LC-001-100-D00-0
 62
     7
370
    50
100
AcDbLine
 10
262.146168
 20
228.883038
 30
0.0
 11
262.256556
 21
228.920732
 31
0.0
  0
LINE
  5
3E2
330
3D9
100
AcDbEntity
  8
LC-001-100-D00-0
 62
     7
370
    50
100
AcDbLine
 10
262.256556
 20
228.920732
 30
0.0
 11
262.256556
 21
228.920732
 31
0.0
  0
LINE
  5
3E3
330
3D9
100
AcDbEntity
  8
LC-001-100-D00-0
 62
     7
370
    50
100
AcDbLine
 10
262.256556
 20
228.920732
 30
0.0
 11
262.412162
 21
228.971892
 31
0.0
  0
LINE
  5
3E4
330
3D9
100
AcDbEntity
  8
LC-001-100-D00-0
 62
     7
370
    50
100
AcDbLine
 10
262.412162
 20
228.971892
 30
0.0
 11
262.412162
 21
228.971892
 31
0.0
  0
LINE
  5
3E5
330
3D9
100
AcDbEntity
  8
LC-001-100-D00-0
 62
     7
370
    50
100
AcDbLine
 10
262.412162
 20
228.971892
 30
0.0
 11
262.686886
 21
229.059591
 31
0.0
  0
LINE
  5
3E6
330
3D9
100
AcDbEntity
  8
LC-001-100-D00-0
 62
     7
370
    50
100
AcDbLine
 10
262.686886
 20
229.059591
 30
0.0
 11
262.686886
 21
229.059591
 31
0.0
  0
LINE
  5
3E7
330
3D9
100
AcDbEntity
  8
LC-001-100-D00-0
 62
     7
370
    50
100
AcDbLine
 10
262.686886
 20
229.059591
 30
0.0
 11
262.954459
 21
229.142334
 31
0.0
  0
LINE
  5
3E8
330
3D9
100
AcDbEntity
  8
LC-001-100-D00-0
 62
     7
370
    50
100
AcDbLine
 10
262.954459
 20
229.142334
 30
0.0
 11
262.954459
 21
229.142334
 31
0.0
  0
LINE
  5
3E9
330
3D9
100
AcDbEntity
  8
LC-001-100-D00-0
 62
     7
370
    50
100
AcDbLine
 10
262.954459
 20
229.142334
 30
0.0
 11
263.088581
 21
229.183809
 31
0.0
  0
ENDBLK
  5
3DB
330
3D9
100
AcDbEntity
  8
0
100
AcDbBlockEnd
  0
BLOCK
  5
3ED
330
3EC
100
AcDbEntity
  8
0
100
AcDbBlockBegin
  2
POLY36
 70
     0
 71
     0
 10
0.0
 20
0.0
 30
0.0
  3
POLY36
  1

  4
POLY36
  0
LINE
  5
3EF
330
3EC
100
AcDbEntity
  8
LC-001-100-D00-0
 62
     7
370
    50
100
AcDbLine
 10
263.166482
 20
229.200469
 30
0.0
 11
263.166482
 21
229.200469
 31
0.0
  0
LINE
  5
3F0
330
3EC
100
AcDbEntity
  8
LC-001-100-D00-0
 62
     7
370
    50
100
AcDbLine
 10
263.166482
 20
229.200469
 30
0.0
 11
263.08141
 21
229.174108
 31
0.0
  0
LINE
  5
3F1
330
3EC
100
AcDbEntity
  8
LC-001-100-D00-0
 62
     7
370
    50
100
AcDbLine
 10
263.08141
 20
229.174108
 30
0.0
 11
263.08141
 21
229.174108
 31
0.0
  0
LINE
  5
3F2
330
3EC
100
AcDbEntity
  8
LC-001-100-D00-0
 62
     7
370
    50
100
AcDbLine
 10
263.08141
 20
229.174108
 30
0.0
 11
262.911552
 21
229.121477
 31
0.0
  0
LINE
  5
3F3
330
3EC
100
AcDbEntity
  8
LC-001-100-D00-0
 62
     7
370
    50
100
AcDbLine
 10
262.911552
 20
229.121477
 30
0.0
 11
262.911552
 21
229.121477
 31
0.0
  0
LINE
  5
3F4
330
3EC
100
AcDbEntity
  8
LC-001-100-D00-0
 62
     7
370
    50
100
AcDbLine
 10
262.911552
 20
229.121477
 30
0.0
 11
262.716068
 21
229.060006
 31
0.0
  0
LINE
  5
3F5
330
3EC
100
AcDbEntity
  8
LC-001-100-D00-0
 62
     7
370
    50
100
AcDbLine
 10
262.716068
 20
229.060006
 30
0.0
 11
262.716068
 21
229.060006
 31
0.0
  0
LINE
  5
3F6
330
3EC
100
AcDbEntity
  8
LC-001-100-D00-0
 62
     7
370
    50
100
AcDbLine
 10
262.716068
 20
229.060006
 30
0.0
 11
262.597741
 21
229.021798
 31
0.0
  0
LINE
  5
3F7
330
3EC
100
AcDbEntity
  8
LC-001-100-D00-0
 62
     7
370
    50
100
AcDbLine
 10
262.597741
 20
229.021798
 30
0.0
 11
262.597741
 21
229.021798
 31
0.0
  0
LINE
  5
3F8
330
3EC
100
AcDbEntity
  8
LC-001-100-D00-0
 62
     7
370
    50
100
AcDbLine
 10
262.597741
 20
229.021798
 30
0.0
 11
262.533992
 21
229.000533
 31
0.0
  0
LINE
  5
3F9
330
3EC
100
AcDbEntity
  8
LC-001-100-D00-0
 62
     7
370
    50
100
AcDbLine
 10
262.533992
 20
229.000533
 30
0.0
 11
262.533992
 21
229.000533
 31
0.0
  0
LINE
  5
3FA
330
3EC
100
AcDbEntity
  8
LC-001-100-D00-0
 62
     7
370
    50
100
AcDbLine
 10
262.533992
 20
229.000533
 30
0.0
 11
262.496745
 21
228.987241
 31
0.0
  0
LINE
  5
3FB
330
3EC
100
AcDbEntity
  8
LC-001-100-D00-0
 62
     7
370
    50
100
AcDbLine
 10
262.496745
 20
228.987241
 30
0.0
 11
262.496745
 21
228.987241
 31
0.0
  0
LINE
  5
3FC
330
3EC
100
AcDbEntity
  8
LC-001-100-D00-0
 62
     7
370
    50
100
AcDbLine
 10
262.496745
 20
228.987241
 30
0.0
 11
262.496432
 21
228.985876
 31
0.0
  0
LINE
  5
3FD
330
3EC
100
AcDbEntity
  8
LC-001-100-D00-0
 62
     7
370
    50
100
AcDbLine
 10
262.496432
 20
228.985876
 30
0.0
 11
262.496432
 21
228.985876
 31
0.0
  0
LINE
  5
3FE
330
3EC
100
AcDbEntity
  8
LC-001-100-D00-0
 62
     7
370
    50
100
AcDbLine
 10
262.496432
 20
228.985876
 30
0.0
 11
262.496276
 21
228.985191
 31
0.0
  0
ENDBLK
  5
3EE
330
3EC
100
AcDbEntity
  8
0
100
AcDbBlockEnd
  0
BLOCK
  5
401
330
400
100
AcDbEntity
  8
0
100
AcDbBlockBegin
  2
POLY37
 70
     0
 71
     0
 10
0.0
 20
0.0
 30
0.0
  3
POLY37
  1

  4
POLY37
  0
LINE
  5
403
330
400
100
AcDbEntity
  8
LC-001-100-D00-0
 62
     7
370
    50
100
AcDbLine
 10
262.496276
 20
228.985191
 30
0.0
 11
262.496276
 21
228.985191
 31
0.0
  0
LINE
  5
404
330
400
100
AcDbEntity
  8
LC-001-100-D00-0
 62
     7
370
    50
100
AcDbLine
 10
262.496276
 20
228.985191
 30
0.0
 11
262.510661
 21
228.988283
 31
0.0
  0
LINE
  5
405
330
400
100
AcDbEntity
  8
LC-001-100-D00-0
 62
     7
370
    50
100
AcDbLine
 10
262.510661
 20
228.988283
 30
0.0
 11
262.510661
 21
228.988283
 31
0.0
  0
LINE
  5
406
330
400
100
AcDbEntity
  8
LC-001-100-D00-0
 62
     7
370
    50
100
AcDbLine
 10
262.510661
 20
228.988283
 30
0.0
 11
262.532301
 21
228.992933
 31
0.0
  0
LINE
  5
407
330
400
100
AcDbEntity
  8
LC-001-100-D00-0
 62
     7
370
    50
100
AcDbLine
 10
262.532301
 20
228.992933
 30
0.0
 11
262.532301
 21
228.992933
 31
0.0
  0
LINE
  5
408
330
400
100
AcDbEntity
  8
LC-001-100-D00-0
 62
     7
370
    50
100
AcDbLine
 10
262.532301
 20
228.992933
 30
0.0
 11
262.638968
 21
229.023433
 31
0.0
  0
LINE
  5
409
330
400
100
AcDbEntity
  8
LC-001-100-D00-0
 62
     7
370
    50
100
AcDbLine
 10
262.638968
 20
229.023433
 30
0.0
 11
262.638968
 21
229.023433
 31
0.0
  0
LINE
  5
40A
330
400
100
AcDbEntity
  8
LC-001-100-D00-0
 62
     7
370
    50
100
AcDbLine
 10
262.638968
 20
229.023433
 30
0.0
 11
262.771748
 21
229.062335
 31
0.0
  0
LINE
  5
40B
330
400
100
AcDbEntity
  8
LC-001-100-D00-0
 62
     7
370
    50
100
AcDbLine
 10
262.771748
 20
229.062335
 30
0.0
 11
262.771748
 21
229.062335
 31
0.0
  0
LINE
  5
40C
330
400
100
AcDbEntity
  8
LC-001-100-D00-0
 62
     7
370
    50
100
AcDbLine
 10
262.771748
 20
229.062335
 30
0.0
 11
262.985221
 21
229.126049
 31
0.0
  0
LINE
  5
40D
330
400
100
AcDbEntity
  8
LC-001-100-D00-0
 62
     7
370
    50
100
AcDbLine
 10
262.985221
 20
229.126049
 30
0.0
 11
262.985221
 21
229.126049
 31
0.0
  0
LINE
  5
40E
330
400
100
AcDbEntity
  8
LC-001-100-D00-0
 62
     7
370
    50
100
AcDbLine
 10
262.985221
 20
229.126049
 30
0.0
 11
263.176848
 21
229.184503
 31
0.0
  0
LINE
  5
40F
330
400
100
AcDbEntity
  8
LC-001-100-D00-0
 62
     7
370
    50
100
AcDbLine
 10
263.176848
 20
229.184503
 30
0.0
 11
263.176848
 21
229.184503
 31
0.0
  0
LINE
  5
410
330
400
100
AcDbEntity
  8
LC-001-100-D00-0
 62
     7
370
    50
100
AcDbLine
 10
263.176848
 20
229.184503
 30
0.0
 11
263.27281
 21
229.213775
 31
0.0
  0
ENDBLK
  5
402
330
400
100
AcDbEntity
  8
0
100
AcDbBlockEnd
  0
BLOCK
  5
413
330
412
100
AcDbEntity
  8
0
100
AcDbBlockBegin
  2
POLY38
 70
     0
 71
     0
 10
0.0
 20
0.0
 30
0.0
  3
POLY38
  1

  4
POLY38
  0
LINE
  5
415
330
412
100
AcDbEntity
  8
LC-001-100-D00-0
 62
     7
370
    50
100
AcDbLine
 10
263.27281
 20
229.213775
 30
0.0
 11
263.27281
 21
229.213775
 31
0.0
  0
LINE
  5
416
330
412
100
AcDbEntity
  8
LC-001-100-D00-0
 62
     7
370
    50
100
AcDbLine
 10
263.27281
 20
229.213775
 30
0.0
 11
263.36238
 21
229.241267
 31
0.0
  0
LINE
  5
417
330
412
100
AcDbEntity
  8
LC-001-100-D00-0
 62
     7
370
    50
100
AcDbLine
 10
263.36238
 20
229.241267
 30
0.0
 11
263.36238
 21
229.241267
 31
0.0
  0
LINE
  5
418
330
412
100
AcDbEntity
  8
LC-001-100-D00-0
 62
     7
370
    50
100
AcDbLine
 10
263.36238
 20
229.241267
 30
0.0
 11
263.496989
 21
229.282583
 31
0.0
  0
LINE
  5
419
330
412
100
AcDbEntity
  8
LC-001-100-D00-0
 62
     7
370
    50
100
AcDbLine
 10
263.496989
 20
229.282583
 30
0.0
 11
263.496989
 21
229.282583
 31
0.0
  0
LINE
  5
41A
330
412
100
AcDbEntity
  8
LC-001-100-D00-0
 62
     7
370
    50
100
AcDbLine
 10
263.496989
 20
229.282583
 30
0.0
 11
263.655351
 21
229.331988
 31
0.0
  0
LINE
  5
41B
330
412
100
AcDbEntity
  8
LC-001-100-D00-0
 62
     7
370
    50
100
AcDbLine
 10
263.655351
 20
229.331988
 30
0.0
 11
263.655351
 21
229.331988
 31
0.0
  0
LINE
  5
41C
330
412
100
AcDbEntity
  8
LC-001-100-D00-0
 62
     7
370
    50
100
AcDbLine
 10
263.655351
 20
229.331988
 30
0.0
 11
263.75924
 21
229.36478
 31
0.0
  0
LINE
  5
41D
330
412
100
AcDbEntity
  8
LC-001-100-D00-0
 62
     7
370
    50
100
AcDbLine
 10
263.75924
 20
229.36478
 30
0.0
 11
263.75924
 21
229.36478
 31
0.0
  0
LINE
  5
41E
330
412
100
AcDbEntity
  8
LC-001-100-D00-0
 62
     7
370
    50
100
AcDbLine
 10
263.75924
 20
229.36478
 30
0.0
 11
263.843308
 21
229.391775
 31
0.0
  0
LINE
  5
41F
330
412
100
AcDbEntity
  8
LC-001-100-D00-0
 62
     7
370
    50
100
AcDbLine
 10
263.843308
 20
229.391775
 30
0.0
 11
263.843308
 21
229.391775
 31
0.0
  0
LINE
  5
420
330
412
100
AcDbEntity
  8
LC-001-100-D00-0
 62
     7
370
    50
100
AcDbLine
 10
263.843308
 20
229.391775
 30
0.0
 11
263.925655
 21
229.419019
 31
0.0
  0
LINE
  5
421
330
412
100
AcDbEntity
  8
LC-001-100-D00-0
 62
     7
370
    50
100
AcDbLine
 10
263.925655
 20
229.419019
 30
0.0
 11
263.925655
 21
229.419019
 31
0.0
  0
LINE
  5
422
330
412
100
AcDbEntity
  8
LC-001-100-D00-0
 62
     7
370
    50
100
AcDbLine
 10
263.925655
 20
229.419019
 30
0.0
 11
263.93126
 21
229.422589
 31
0.0
  0
LINE
  5
423
330
412
100
AcDbEntity
  8
LC-001-100-D00-0
 62
     7
370
    50
100
AcDbLine
 10
263.93126
 20
229.422589
 30
0.0
 11
263.93126
 21
229.422589
 31
0.0
  0
LINE
  5
424
330
412
100
AcDbEntity
  8
LC-001-100-D00-0
 62
     7
370
    50
100
AcDbLine
 10
263.93126
 20
229.422589
 30
0.0
 11
263.934997
 21
229.424969
 31
0.0
  0
ENDBLK
  5
414
330
412
100
AcDbEntity
  8
0
100
AcDbBlockEnd
  0
BLOCK
  5
428
330
427
100
AcDbEntity
  8
0
100
AcDbBlockBegin
  2
KLON1
 70
     0
 71
     0
 10
0.0
 20
0.0
 30
0.0
  3
KLON1
  1

  4
KLON1
  0
LINE
  5
42A
330
427
100
AcDbEntity
  8
LC-001-100-D00-0
 62
     7
370
    15
100
AcDbLine
 10
263.872705
 20
229.410202
 30
0.0
 11
264.089309
 21
229.47608
 31
0.0
  0
LINE
  5
42B
330
427
100
AcDbEntity
  8
LC-001-100-D00-0
 62
     7
370
    15
100
AcDbLine
 10
264.089309
 20
229.47608
 30
0.0
 11
264.259497
 21
229.527862
 31
0.0
  0
ENDBLK
  5
429
330
427
100
AcDbEntity
  8
0
100
AcDbBlockEnd
  0
BLOCK
  5
42F
330
42E
100
AcDbEntity
  8
0
100
AcDbBlockBegin
  2
POLY39
 70
     0
 71
     0
 10
0.0
 20
0.0
 30
0.0
  3
POLY39
  1

  4
POLY39
  0
LINE
  5
431
330
42E
100
AcDbEntity
  8
LC-001-100-D00-0
 62
     7
370
    50
100
AcDbLine
 10
264.257759
 20
229.526327
 30
0.0
 11
264.257759
 21
229.526327
 31
0.0
  0
LINE
  5
432
330
42E
100
AcDbEntity
  8
LC-001-100-D00-0
 62
     7
370
    50
100
AcDbLine
 10
264.257759
 20
229.526327
 30
0.0
 11
264.268898
 21
229.528507
 31
0.0
  0
LINE
  5
433
330
42E
100
AcDbEntity
  8
LC-001-100-D00-0
 62
     7
370
    50
100
AcDbLine
 10
264.268898
 20
229.528507
 30
0.0
 11
264.268898
 21
229.528507
 31
0.0
  0
LINE
  5
434
330
42E
100
AcDbEntity
  8
LC-001-100-D00-0
 62
     7
370
    50
100
AcDbLine
 10
264.268898
 20
229.528507
 30
0.0
 11
264.291193
 21
229.53287
 31
0.0
  0
LINE
  5
435
330
42E
100
AcDbEntity
  8
LC-001-100-D00-0
 62
     7
370
    50
100
AcDbLine
 10
264.291193
 20
229.53287
 30
0.0
 11
264.291193
 21
229.53287
 31
0.0
  0
LINE
  5
436
330
42E
100
AcDbEntity
  8
LC-001-100-D00-0
 62
     7
370
    50
100
AcDbLine
 10
264.291193
 20
229.53287
 30
0.0
 11
264.395129
 21
229.562084
 31
0.0
  0
LINE
  5
437
330
42E
100
AcDbEntity
  8
LC-001-100-D00-0
 62
     7
370
    50
100
AcDbLine
 10
264.395129
 20
229.562084
 30
0.0
 11
264.395129
 21
229.562084
 31
0.0
  0
LINE
  5
438
330
42E
100
AcDbEntity
  8
LC-001-100-D00-0
 62
     7
370
    50
100
AcDbLine
 10
264.395129
 20
229.562084
 30
0.0
 11
264.514565
 21
229.596982
 31
0.0
  0
LINE
  5
439
330
42E
100
AcDbEntity
  8
LC-001-100-D00-0
 62
     7
370
    50
100
AcDbLine
 10
264.514565
 20
229.596982
 30
0.0
 11
264.514565
 21
229.596982
 31
0.0
  0
LINE
  5
43A
330
42E
100
AcDbEntity
  8
LC-001-100-D00-0
 62
     7
370
    50
100
AcDbLine
 10
264.514565
 20
229.596982
 30
0.0
 11
264.628932
 21
229.631112
 31
0.0
  0
LINE
  5
43B
330
42E
100
AcDbEntity
  8
LC-001-100-D00-0
 62
     7
370
    50
100
AcDbLine
 10
264.628932
 20
229.631112
 30
0.0
 11
264.628932
 21
229.631112
 31
0.0
  0
LINE
  5
43C
330
42E
100
AcDbEntity
  8
LC-001-100-D00-0
 62
     7
370
    50
100
AcDbLine
 10
264.628932
 20
229.631112
 30
0.0
 11
264.755588
 21
229.669438
 31
0.0
  0
LINE
  5
43D
330
42E
100
AcDbEntity
  8
LC-001-100-D00-0
 62
     7
370
    50
100
AcDbLine
 10
264.755588
 20
229.669438
 30
0.0
 11
264.755588
 21
229.669438
 31
0.0
  0
LINE
  5
43E
330
42E
100
AcDbEntity
  8
LC-001-100-D00-0
 62
     7
370
    50
100
AcDbLine
 10
264.755588
 20
229.669438
 30
0.0
 11
264.841943
 21
229.695812
 31
0.0
  0
LINE
  5
43F
330
42E
100
AcDbEntity
  8
LC-001-100-D00-0
 62
     7
370
    50
100
AcDbLine
 10
264.841943
 20
229.695812
 30
0.0
 11
264.841943
 21
229.695812
 31
0.0
  0
LINE
  5
440
330
42E
100
AcDbEntity
  8
LC-001-100-D00-0
 62
     7
370
    50
100
AcDbLine
 10
264.841943
 20
229.695812
 30
0.0
 11
264.885223
 21
229.70903
 31
0.0
  0
ENDBLK
  5
430
330
42E
100
AcDbEntity
  8
0
100
AcDbBlockEnd
  0
BLOCK
  5
4BD
330
4BC
100
AcDbEntity
  8
0
100
AcDbBlockBegin
  2
KLON2
 70
     0
 71
     0
 10
0.0
 20
0.0
 30
0.0
  3
KLON2
  1

  4
KLON2
  0
LINE
  5
4BF
330
4BC
100
AcDbEntity
  8
LC-001-100-D00-0
 62
     7
370
    25
100
AcDbLine
 10
148.936296
 20
243.677753
 30
0.0
 11
153.549971
 21
248.291428
 31
0.0
  0
LINE
  5
4C0
330
4BC
100
AcDbEntity
  8
LC-001-100-D00-0
 62
     7
370
    25
100
AcDbLine
 10
139.95604
 20
243.677753
 30
0.0
 11
141.45604
 21
245.177753
 31
0.0
  0
LINE
  5
4C1
330
4BC
100
AcDbEntity
  8
LC-001-100-D00-0
 62
     7
370
    25
100
AcDbLine
 10
149.549971
 20
253.271684
 30
0.0
 11
153.549971
 21
257.271684
 31
0.0
  0
LINE
  5
4C2
330
4BC
100
AcDbEntity
  8
LC-001-100-D00-0
 62
     7
370
    25
100
AcDbLine
 10
131.041912
 20
243.743881
 30
0.0
 11
132.475784
 21
245.177753
 31
0.0
  0
LINE
  5
4C3
330
4BC
100
AcDbEntity
  8
LC-001-100-D00-0
 62
     7
370
    25
100
AcDbLine
 10
149.549971
 20
262.25194
 30
0.0
 11
153.549971
 21
266.25194
 31
0.0
  0
LINE
  5
4C4
330
4BC
100
AcDbEntity
  8
LC-001-100-D00-0
 62
     7
370
    25
100
AcDbLine
 10
124.704926
 20
246.387151
 30
0.0
 11
126.549971
 21
248.232196
 31
0.0
  0
LINE
  5
4C5
330
4BC
100
AcDbEntity
  8
LC-001-100-D00-0
 62
     7
370
    25
100
AcDbLine
 10
149.549971
 20
271.232196
 30
0.0
 11
153.549971
 21
275.232196
 31
0.0
  0
LINE
  5
4C6
330
4BC
100
AcDbEntity
  8
LC-001-100-D00-0
 62
     7
370
    25
100
AcDbLine
 10
120.993857
 20
251.656338
 30
0.0
 11
126.549971
 21
257.212453
 31
0.0
  0
LINE
  5
4C7
330
4BC
100
AcDbEntity
  8
LC-001-100-D00-0
 62
     7
370
    25
100
AcDbLine
 10
149.549971
 20
280.212453
 30
0.0
 11
153.549971
 21
284.212453
 31
0.0
  0
LINE
  5
4C8
330
4BC
100
AcDbEntity
  8
LC-001-100-D00-0
 62
     7
370
    25
100
AcDbLine
 10
120.299971
 20
259.942709
 30
0.0
 11
126.549971
 21
266.192709
 31
0.0
  0
LINE
  5
4C9
330
4BC
100
AcDbEntity
  8
LC-001-100-D00-0
 62
     7
370
    25
100
AcDbLine
 10
149.549971
 20
289.192709
 30
0.0
 11
153.549971
 21
293.192709
 31
0.0
  0
LINE
  5
4CA
330
4BC
100
AcDbEntity
  8
LC-001-100-D00-0
 62
     7
370
    25
100
AcDbLine
 10
120.299971
 20
268.922965
 30
0.0
 11
126.549971
 21
275.172965
 31
0.0
  0
LINE
  5
4CB
330
4BC
100
AcDbEntity
  8
LC-001-100-D00-0
 62
     7
370
    25
100
AcDbLine
 10
149.549971
 20
298.172965
 30
0.0
 11
151.0516
 21
299.674594
 31
0.0
  0
LINE
  5
4CC
330
4BC
100
AcDbEntity
  8
LC-001-100-D00-0
 62
     7
370
    25
100
AcDbLine
 10
120.299971
 20
277.903221
 30
0.0
 11
126.549971
 21
284.153221
 31
0.0
  0
LINE
  5
4CD
330
4BC
100
AcDbEntity
  8
LC-001-100-D00-0
 62
     7
370
    25
100
AcDbLine
 10
120.299971
 20
286.883477
 30
0.0
 11
126.549971
 21
293.133477
 31
0.0
  0
LINE
  5
4CE
330
4BC
100
AcDbEntity
  8
LC-001-100-D00-0
 62
     7
370
    25
100
AcDbLine
 10
119.299971
 20
294.863733
 30
0.0
 11
126.302945
 21
301.866707
 31
0.0
  0
LINE
  5
4CF
330
4BC
100
AcDbEntity
  8
LC-001-100-D00-0
 62
     7
370
    25
100
AcDbLine
 10
120.649971
 20
305.193989
 30
0.0
 11
121.799971
 21
306.343989
 31
0.0
  0
LINE
  5
4D0
330
4BC
100
AcDbEntity
  8
LC-001-100-D00-0
 62
     7
370
    25
100
AcDbLine
 10
117.599971
 20
311.124245
 30
0.0
 11
120.15032
 21
313.674594
 31
0.0
  0
ENDBLK
  5
4BE
330
4BC
100
AcDbEntity
  8
0
100
AcDbBlockEnd
  0
BLOCK
  5
4D3
330
4D2
100
AcDbEntity
  8
0
100
AcDbBlockBegin
  2
KLON3
 70
     0
 71
     0
 10
0.0
 20
0.0
 30
0.0
  3
KLON3
  1

  4
KLON3
  0
LINE
  5
4D5
330
4D2
100
AcDbEntity
  8
LC-001-100-D00-0
 62
     7
370
    25
100
AcDbLine
 10
202.829523
 20
243.689443
 30
0.0
 11
204.565058
 21
245.424979
 31
0.0
  0
LINE
  5
4D6
330
4D2
100
AcDbEntity
  8
LC-001-100-D00-0
 62
     7
370
    25
100
AcDbLine
 10
208.049971
 20
248.909891
 30
0.0
 11
214.288281
 21
255.148201
 31
0.0
  0
LINE
  5
4D7
330
4D2
100
AcDbEntity
  8
LC-001-100-D00-0
 62
     7
370
    25
100
AcDbLine
 10
193.837577
 20
243.677753
 30
0.0
 11
195.337577
 21
245.177753
 31
0.0
  0
LINE
  5
4D8
330
4D2
100
AcDbEntity
  8
LC-001-100-D00-0
 62
     7
370
    25
100
AcDbLine
 10
208.049971
 20
257.890147
 30
0.0
 11
214.299971
 21
264.140147
 31
0.0
  0
LINE
  5
4D9
330
4D2
100
AcDbEntity
  8
LC-001-100-D00-0
 62
     7
370
    25
100
AcDbLine
 10
184.85732
 20
243.677753
 30
0.0
 11
186.35732
 21
245.177753
 31
0.0
  0
LINE
  5
4DA
330
4D2
100
AcDbEntity
  8
LC-001-100-D00-0
 62
     7
370
    25
100
AcDbLine
 10
208.049971
 20
266.870404
 30
0.0
 11
214.299971
 21
273.120404
 31
0.0
  0
LINE
  5
4DB
330
4D2
100
AcDbEntity
  8
LC-001-100-D00-0
 62
     7
370
    25
100
AcDbLine
 10
181.049971
 20
248.85066
 30
0.0
 11
185.049971
 21
252.85066
 31
0.0
  0
LINE
  5
4DC
330
4D2
100
AcDbEntity
  8
LC-001-100-D00-0
 62
     7
370
    25
100
AcDbLine
 10
208.049971
 20
275.85066
 30
0.0
 11
214.299971
 21
282.10066
 31
0.0
  0
LINE
  5
4DD
330
4D2
100
AcDbEntity
  8
LC-001-100-D00-0
 62
     7
370
    25
100
AcDbLine
 10
181.049971
 20
257.830916
 30
0.0
 11
185.049971
 21
261.830916
 31
0.0
  0
LINE
  5
4DE
330
4D2
100
AcDbEntity
  8
LC-001-100-D00-0
 62
     7
370
    25
100
AcDbLine
 10
208.049971
 20
284.830916
 30
0.0
 11
214.299971
 21
291.080916
 31
0.0
  0
LINE
  5
4DF
330
4D2
100
AcDbEntity
  8
LC-001-100-D00-0
 62
     7
370
    25
100
AcDbLine
 10
181.049971
 20
266.811172
 30
0.0
 11
185.049971
 21
270.811172
 31
0.0
  0
LINE
  5
4E0
330
4D2
100
AcDbEntity
  8
LC-001-100-D00-0
 62
     7
370
    25
100
AcDbLine
 10
208.049971
 20
293.811172
 30
0.0
 11
215.935967
 21
301.697168
 31
0.0
  0
LINE
  5
4E1
330
4D2
100
AcDbEntity
  8
LC-001-100-D00-0
 62
     7
370
    25
100
AcDbLine
 10
181.049971
 20
275.791428
 30
0.0
 11
185.049971
 21
279.791428
 31
0.0
  0
LINE
  5
4E2
330
4D2
100
AcDbEntity
  8
LC-001-100-D00-0
 62
     7
370
    25
100
AcDbLine
 10
212.799971
 20
307.541428
 30
0.0
 11
218.933137
 21
313.674594
 31
0.0
  0
LINE
  5
4E3
330
4D2
100
AcDbEntity
  8
LC-001-100-D00-0
 62
     7
370
    25
100
AcDbLine
 10
181.049971
 20
284.771684
 30
0.0
 11
185.049971
 21
288.771684
 31
0.0
  0
LINE
  5
4E4
330
4D2
100
AcDbEntity
  8
LC-001-100-D00-0
 62
     7
370
    25
100
AcDbLine
 10
181.049971
 20
293.75194
 30
0.0
 11
185.049971
 21
297.75194
 31
0.0
  0
ENDBLK
  5
4D4
330
4D2
100
AcDbEntity
  8
0
100
AcDbBlockEnd
  0
BLOCK
  5
4E7
330
4E6
100
AcDbEntity
  8
0
100
AcDbBlockBegin
  2
KLON4
 70
     0
 71
     0
 10
0.0
 20
0.0
 30
0.0
  3
KLON4
  1

  4
KLON4
  0
LINE
  5
4E9
330
4E6
100
AcDbEntity
  8
LC-001-100-D00-0
 62
     7
370
    25
100
AcDbLine
 10
183.334418
 20
233.174594
 30
0.0
 11
184.934418
 21
234.774594
 31
0.0
  0
LINE
  5
4EA
330
4E6
100
AcDbEntity
  8
LC-001-100-D00-0
 62
     7
370
    25
100
AcDbLine
 10
174.354161
 20
233.174594
 30
0.0
 11
175.954161
 21
234.774594
 31
0.0
  0
LINE
  5
4EB
330
4E6
100
AcDbEntity
  8
LC-001-100-D00-0
 62
     7
370
    25
100
AcDbLine
 10
165.373905
 20
233.174594
 30
0.0
 11
166.973905
 21
234.774594
 31
0.0
  0
LINE
  5
4EC
330
4E6
100
AcDbEntity
  8
LC-001-100-D00-0
 62
     7
370
    25
100
AcDbLine
 10
156.393649
 20
233.174594
 30
0.0
 11
157.993649
 21
234.774594
 31
0.0
  0
LINE
  5
4ED
330
4E6
100
AcDbEntity
  8
LC-001-100-D00-0
 62
     7
370
    25
100
AcDbLine
 10
147.413393
 20
233.174594
 30
0.0
 11
149.013393
 21
234.774594
 31
0.0
  0
ENDBLK
  5
4E8
330
4E6
100
AcDbEntity
  8
0
100
AcDbBlockEnd
  0
BLOCK
  5
4F0
330
4EF
100
AcDbEntity
  8
0
100
AcDbBlockBegin
  2
KLON5
 70
     0
 71
     0
 10
0.0
 20
0.0
 30
0.0
  3
KLON5
  1

  4
KLON5
  0
LINE
  5
4F2
330
4EF
100
AcDbEntity
  8
LC-001-100-D00-0
 62
     7
370
    25
100
AcDbLine
 10
201.834418
 20
251.674594
 30
0.0
 11
207.299971
 21
257.140147
 31
0.0
  0
LINE
  5
4F3
330
4EF
100
AcDbEntity
  8
LC-001-100-D00-0
 62
     7
370
    25
100
AcDbLine
 10
192.926514
 20
251.746946
 30
0.0
 11
207.299971
 21
266.120404
 31
0.0
  0
LINE
  5
4F4
330
4EF
100
AcDbEntity
  8
LC-001-100-D00-0
 62
     7
370
    25
100
AcDbLine
 10
192.299971
 20
260.10066
 30
0.0
 11
207.299971
 21
275.10066
 31
0.0
  0
LINE
  5
4F5
330
4EF
100
AcDbEntity
  8
LC-001-100-D00-0
 62
     7
370
    25
100
AcDbLine
 10
192.299971
 20
269.080916
 30
0.0
 11
207.299971
 21
284.080916
 31
0.0
  0
LINE
  5
4F6
330
4EF
100
AcDbEntity
  8
LC-001-100-D00-0
 62
     7
370
    25
100
AcDbLine
 10
192.299971
 20
278.061172
 30
0.0
 11
207.214912
 21
292.976113
 31
0.0
  0
LINE
  5
4F7
330
4EF
100
AcDbEntity
  8
LC-001-100-D00-0
 62
     7
370
    25
100
AcDbLine
 10
192.299971
 20
287.041428
 30
0.0
 11
204.185243
 21
298.9267
 31
0.0
  0
LINE
  5
4F8
330
4EF
100
AcDbEntity
  8
LC-001-100-D00-0
 62
     7
370
    25
100
AcDbLine
 10
192.299971
 20
296.021684
 30
0.0
 11
197.932835
 21
301.654548
 31
0.0
  0
LINE
  5
4F9
330
4EF
100
AcDbEntity
  8
LC-001-100-D00-0
 62
     7
370
    25
100
AcDbLine
 10
138.972625
 20
251.674594
 30
0.0
 11
142.299971
 21
255.00194
 31
0.0
  0
LINE
  5
4FA
330
4EF
100
AcDbEntity
  8
LC-001-100-D00-0
 62
     7
370
    25
100
AcDbLine
 10
186.972625
 20
299.674594
 30
0.0
 11
188.972625
 21
301.674594
 31
0.0
  0
LINE
  5
4FB
330
4EF
100
AcDbEntity
  8
LC-001-100-D00-0
 62
     7
370
    25
100
AcDbLine
 10
130.376958
 20
252.059183
 30
0.0
 11
142.299971
 21
263.982196
 31
0.0
  0
LINE
  5
4FC
330
4EF
100
AcDbEntity
  8
LC-001-100-D00-0
 62
     7
370
    25
100
AcDbLine
 10
177.992369
 20
299.674594
 30
0.0
 11
179.992369
 21
301.674594
 31
0.0
  0
LINE
  5
4FD
330
4EF
100
AcDbEntity
  8
LC-001-100-D00-0
 62
     7
370
    25
100
AcDbLine
 10
127.299971
 20
257.962453
 30
0.0
 11
142.299971
 21
272.962453
 31
0.0
  0
LINE
  5
4FE
330
4EF
100
AcDbEntity
  8
LC-001-100-D00-0
 62
     7
370
    25
100
AcDbLine
 10
169.012112
 20
299.674594
 30
0.0
 11
175.431754
 21
306.094235
 31
0.0
  0
LINE
  5
4FF
330
4EF
100
AcDbEntity
  8
LC-001-100-D00-0
 62
     7
370
    25
100
AcDbLine
 10
127.299971
 20
266.942709
 30
0.0
 11
142.299971
 21
281.942709
 31
0.0
  0
LINE
  5
500
330
4EF
100
AcDbEntity
  8
LC-001-100-D00-0
 62
     7
370
    25
100
AcDbLine
 10
160.031856
 20
299.674594
 30
0.0
 11
165.031856
 21
304.674594
 31
0.0
  0
LINE
  5
501
330
4EF
100
AcDbEntity
  8
LC-001-100-D00-0
 62
     7
370
    25
100
AcDbLine
 10
127.299971
 20
275.922965
 30
0.0
 11
142.299971
 21
290.922965
 31
0.0
  0
LINE
  5
502
330
4EF
100
AcDbEntity
  8
LC-001-100-D00-0
 62
     7
370
    25
100
AcDbLine
 10
151.0516
 20
299.674594
 30
0.0
 11
153.0516
 21
301.674594
 31
0.0
  0
LINE
  5
503
330
4EF
100
AcDbEntity
  8
LC-001-100-D00-0
 62
     7
370
    25
100
AcDbLine
 10
127.299971
 20
284.903221
 30
0.0
 11
144.071344
 21
301.674594
 31
0.0
  0
LINE
  5
504
330
4EF
100
AcDbEntity
  8
LC-001-100-D00-0
 62
     7
370
    25
100
AcDbLine
 10
127.626805
 20
294.210311
 30
0.0
 11
134.764254
 21
301.34776
 31
0.0
  0
LINE
  5
505
330
4EF
100
AcDbEntity
  8
LC-001-100-D00-0
 62
     7
370
    25
100
AcDbLine
 10
132.006734
 20
253.68896
 30
0.0
 11
140.299971
 21
261.982196
 31
0.0
  0
LINE
  5
506
330
4EF
100
AcDbEntity
  8
LC-001-100-D00-0
 62
     7
370
    25
100
AcDbLine
 10
129.299971
 20
259.962453
 30
0.0
 11
140.299971
 21
270.962453
 31
0.0
  0
LINE
  5
507
330
4EF
100
AcDbEntity
  8
LC-001-100-D00-0
 62
     7
370
    25
100
AcDbLine
 10
129.299971
 20
268.942709
 30
0.0
 11
140.299971
 21
279.942709
 31
0.0
  0
LINE
  5
508
330
4EF
100
AcDbEntity
  8
LC-001-100-D00-0
 62
     7
370
    25
100
AcDbLine
 10
129.299971
 20
277.922965
 30
0.0
 11
140.299971
 21
288.922965
 31
0.0
  0
LINE
  5
509
330
4EF
100
AcDbEntity
  8
LC-001-100-D00-0
 62
     7
370
    25
100
AcDbLine
 10
129.299971
 20
286.903221
 30
0.0
 11
140.299971
 21
297.903221
 31
0.0
  0
LINE
  5
50A
330
4EF
100
AcDbEntity
  8
LC-001-100-D00-0
 62
     7
370
    25
100
AcDbLine
 10
194.854161
 20
253.674594
 30
0.0
 11
205.299971
 21
264.120404
 31
0.0
  0
LINE
  5
50B
330
4EF
100
AcDbEntity
  8
LC-001-100-D00-0
 62
     7
370
    25
100
AcDbLine
 10
194.299971
 20
262.10066
 30
0.0
 11
205.299971
 21
273.10066
 31
0.0
  0
LINE
  5
50C
330
4EF
100
AcDbEntity
  8
LC-001-100-D00-0
 62
     7
370
    25
100
AcDbLine
 10
194.299971
 20
271.080916
 30
0.0
 11
205.299971
 21
282.080916
 31
0.0
  0
LINE
  5
50D
330
4EF
100
AcDbEntity
  8
LC-001-100-D00-0
 62
     7
370
    25
100
AcDbLine
 10
194.299971
 20
280.061172
 30
0.0
 11
205.299971
 21
291.061172
 31
0.0
  0
LINE
  5
50E
330
4EF
100
AcDbEntity
  8
LC-001-100-D00-0
 62
     7
370
    25
100
AcDbLine
 10
194.299971
 20
289.041428
 30
0.0
 11
202.770434
 21
297.511891
 31
0.0
  0
LINE
  5
50F
330
4EF
100
AcDbEntity
  8
LC-001-100-D00-0
 62
     7
370
    25
100
AcDbLine
 10
194.299971
 20
298.021684
 30
0.0
 11
195.952881
 21
299.674594
 31
0.0
  0
ENDBLK
  5
4F1
330
4EF
100
AcDbEntity
  8
0
100
AcDbBlockEnd
  0
BLOCK
  5
514
330
513
100
AcDbEntity
  8
0
100
AcDbBlockBegin
  2
KLON6
 70
     0
 71
     0
 10
0.0
 20
0.0
 30
0.0
  3
KLON6
  1

  4
KLON6
  0
LINE
  5
516
330
513
100
AcDbEntity
  8
LC-001-100-D00-0
 62
     7
370
    25
100
AcDbLine
 10
142.890199
 20
82.77183
 30
0.0
 11
145.299971
 21
85.181603
 31
0.0
  0
LINE
  5
517
330
513
100
AcDbEntity
  8
LC-001-100-D00-0
 62
     7
370
    25
100
AcDbLine
 10
142.299971
 20
91.161859
 30
0.0
 11
145.299971
 21
94.161859
 31
0.0
  0
LINE
  5
518
330
513
100
AcDbEntity
  8
LC-001-100-D00-0
 62
     7
370
    25
100
AcDbLine
 10
142.299971
 20
100.142115
 30
0.0
 11
145.299971
 21
103.142115
 31
0.0
  0
LINE
  5
519
330
513
100
AcDbEntity
  8
LC-001-100-D00-0
 62
     7
370
    25
100
AcDbLine
 10
142.299971
 20
109.122371
 30
0.0
 11
145.299971
 21
112.122371
 31
0.0
  0
LINE
  5
51A
330
513
100
AcDbEntity
  8
LC-001-100-D00-0
 62
     7
370
    25
100
AcDbLine
 10
142.299971
 20
118.102627
 30
0.0
 11
145.299971
 21
121.102627
 31
0.0
  0
LINE
  5
51B
330
513
100
AcDbEntity
  8
LC-001-100-D00-0
 62
     7
370
    25
100
AcDbLine
 10
142.299971
 20
127.082883
 30
0.0
 11
145.299971
 21
130.082883
 31
0.0
  0
LINE
  5
51C
330
513
100
AcDbEntity
  8
LC-001-100-D00-0
 62
     7
370
    25
100
AcDbLine
 10
142.299971
 20
136.06314
 30
0.0
 11
145.299971
 21
139.06314
 31
0.0
  0
LINE
  5
51D
330
513
100
AcDbEntity
  8
LC-001-100-D00-0
 62
     7
370
    25
100
AcDbLine
 10
136.731165
 20
139.474589
 30
0.0
 11
139.231165
 21
141.974589
 31
0.0
  0
LINE
  5
51E
330
513
100
AcDbEntity
  8
LC-001-100-D00-0
 62
     7
370
    25
100
AcDbLine
 10
127.750909
 20
139.474589
 30
0.0
 11
130.250909
 21
141.974589
 31
0.0
  0
LINE
  5
51F
330
513
100
AcDbEntity
  8
LC-001-100-D00-0
 62
     7
370
    25
100
AcDbLine
 10
118.770653
 20
139.474589
 30
0.0
 11
121.270653
 21
141.974589
 31
0.0
  0
LINE
  5
520
330
513
100
AcDbEntity
  8
LC-001-100-D00-0
 62
     7
370
    25
100
AcDbLine
 10
114.875338
 20
144.559531
 30
0.0
 11
117.241381
 21
146.925574
 31
0.0
  0
LINE
  5
521
330
513
100
AcDbEntity
  8
LC-001-100-D00-0
 62
     7
370
    25
100
AcDbLine
 10
112.977575
 20
151.642024
 30
0.0
 11
115.343827
 21
154.008276
 31
0.0
  0
LINE
  5
522
330
513
100
AcDbEntity
  8
LC-001-100-D00-0
 62
     7
370
    25
100
AcDbLine
 10
112.299971
 20
159.944676
 30
0.0
 11
115.299971
 21
162.944676
 31
0.0
  0
LINE
  5
523
330
513
100
AcDbEntity
  8
LC-001-100-D00-0
 62
     7
370
    25
100
AcDbLine
 10
112.299971
 20
168.924932
 30
0.0
 11
115.299971
 21
171.924932
 31
0.0
  0
LINE
  5
524
330
513
100
AcDbEntity
  8
LC-001-100-D00-0
 62
     7
370
    25
100
AcDbLine
 10
112.299971
 20
177.905189
 30
0.0
 11
115.299971
 21
180.905189
 31
0.0
  0
LINE
  5
525
330
513
100
AcDbEntity
  8
LC-001-100-D00-0
 62
     7
370
    25
100
AcDbLine
 10
112.299971
 20
186.885445
 30
0.0
 11
115.299971
 21
189.885445
 31
0.0
  0
LINE
  5
526
330
513
100
AcDbEntity
  8
LC-001-100-D00-0
 62
     7
370
    25
100
AcDbLine
 10
112.299971
 20
195.865701
 30
0.0
 11
115.299971
 21
198.865701
 31
0.0
  0
LINE
  5
527
330
513
100
AcDbEntity
  8
LC-001-100-D00-0
 62
     7
370
    25
100
AcDbLine
 10
105.001109
 20
197.547095
 30
0.0
 11
107.299971
 21
199.845957
 31
0.0
  0
LINE
  5
528
330
513
100
AcDbEntity
  8
LC-001-100-D00-0
 62
     7
370
    25
100
AcDbLine
 10
104.299971
 20
205.826213
 30
0.0
 11
107.299971
 21
208.826213
 31
0.0
  0
LINE
  5
529
330
513
100
AcDbEntity
  8
LC-001-100-D00-0
 62
     7
370
    25
100
AcDbLine
 10
104.299971
 20
214.806469
 30
0.0
 11
107.299971
 21
217.806469
 31
0.0
  0
LINE
  5
52A
330
513
100
AcDbEntity
  8
LC-001-100-D00-0
 62
     7
370
    25
100
AcDbLine
 10
100.413293
 20
219.900047
 30
0.0
 11
107.026401
 21
226.513155
 31
0.0
  0
LINE
  5
52B
330
513
100
AcDbEntity
  8
LC-001-100-D00-0
 62
     7
370
    25
100
AcDbLine
 10
91.433036
 20
219.900047
 30
0.0
 11
97.272584
 21
225.739594
 31
0.0
  0
LINE
  5
52C
330
513
100
AcDbEntity
  8
LC-001-100-D00-0
 62
     7
370
    25
100
AcDbLine
 10
83.33441
 20
220.781676
 30
0.0
 11
84.792328
 21
222.239594
 31
0.0
  0
LINE
  5
52D
330
513
100
AcDbEntity
  8
LC-001-100-D00-0
 62
     7
370
    25
100
AcDbLine
 10
77.208706
 20
223.636229
 30
0.0
 11
80.011674
 21
226.439197
 31
0.0
  0
LINE
  5
52E
330
513
100
AcDbEntity
  8
LC-001-100-D00-0
 62
     7
370
    25
100
AcDbLine
 10
70.331135
 20
225.738913
 30
0.0
 11
73.134103
 21
228.541881
 31
0.0
  0
LINE
  5
52F
330
513
100
AcDbEntity
  8
LC-001-100-D00-0
 62
     7
370
    25
100
AcDbLine
 10
63.453563
 20
227.841598
 30
0.0
 11
66.256531
 21
230.644566
 31
0.0
  0
LINE
  5
530
330
513
100
AcDbEntity
  8
LC-001-100-D00-0
 62
     7
370
    25
100
AcDbLine
 10
55.210771
 20
228.579062
 30
0.0
 11
58.650293
 21
232.018584
 31
0.0
  0
ENDBLK
  5
515
330
513
100
AcDbEntity
  8
0
100
AcDbBlockEnd
  0
BLOCK
  5
533
330
532
100
AcDbEntity
  8
0
100
AcDbBlockBegin
  2
KLON7
 70
     0
 71
     0
 10
0.0
 20
0.0
 30
0.0
  3
KLON7
  1

  4
KLON7
  0
LINE
  5
535
330
532
100
AcDbEntity
  8
LC-001-100-D00-0
 62
     7
370
    25
100
AcDbLine
 10
189.299971
 20
84.280322
 30
0.0
 11
192.299971
 21
87.280322
 31
0.0
  0
LINE
  5
536
330
532
100
AcDbEntity
  8
LC-001-100-D00-0
 62
     7
370
    25
100
AcDbLine
 10
189.299971
 20
93.260578
 30
0.0
 11
192.299971
 21
96.260578
 31
0.0
  0
LINE
  5
537
330
532
100
AcDbEntity
  8
LC-001-100-D00-0
 62
     7
370
    25
100
AcDbLine
 10
189.299971
 20
102.240835
 30
0.0
 11
192.299971
 21
105.240835
 31
0.0
  0
LINE
  5
538
330
532
100
AcDbEntity
  8
LC-001-100-D00-0
 62
     7
370
    25
100
AcDbLine
 10
189.299971
 20
111.221091
 30
0.0
 11
192.299971
 21
114.221091
 31
0.0
  0
LINE
  5
539
330
532
100
AcDbEntity
  8
LC-001-100-D00-0
 62
     7
370
    25
100
AcDbLine
 10
189.299971
 20
120.201347
 30
0.0
 11
192.299971
 21
123.201347
 31
0.0
  0
LINE
  5
53A
330
532
100
AcDbEntity
  8
LC-001-100-D00-0
 62
     7
370
    25
100
AcDbLine
 10
208.573214
 20
139.474589
 30
0.0
 11
211.073214
 21
141.974589
 31
0.0
  0
LINE
  5
53B
330
532
100
AcDbEntity
  8
LC-001-100-D00-0
 62
     7
370
    25
100
AcDbLine
 10
217.846987
 20
148.748363
 30
0.0
 11
221.945102
 21
152.846478
 31
0.0
  0
LINE
  5
53C
330
532
100
AcDbEntity
  8
LC-001-100-D00-0
 62
     7
370
    25
100
AcDbLine
 10
189.299971
 20
129.181603
 30
0.0
 11
192.299971
 21
132.181603
 31
0.0
  0
LINE
  5
53D
330
532
100
AcDbEntity
  8
LC-001-100-D00-0
 62
     7
370
    25
100
AcDbLine
 10
199.592958
 20
139.474589
 30
0.0
 11
202.092958
 21
141.974589
 31
0.0
  0
LINE
  5
53E
330
532
100
AcDbEntity
  8
LC-001-100-D00-0
 62
     7
370
    25
100
AcDbLine
 10
219.299971
 20
159.181603
 30
0.0
 11
222.299971
 21
162.181603
 31
0.0
  0
LINE
  5
53F
330
532
100
AcDbEntity
  8
LC-001-100-D00-0
 62
     7
370
    25
100
AcDbLine
 10
189.299971
 20
138.161859
 30
0.0
 11
193.112702
 21
141.974589
 31
0.0
  0
LINE
  5
540
330
532
100
AcDbEntity
  8
LC-001-100-D00-0
 62
     7
370
    25
100
AcDbLine
 10
219.299971
 20
168.161859
 30
0.0
 11
222.299971
 21
171.161859
 31
0.0
  0
LINE
  5
541
330
532
100
AcDbEntity
  8
LC-001-100-D00-0
 62
     7
370
    25
100
AcDbLine
 10
279.728879
 20
228.590767
 30
0.0
 11
281.745751
 21
230.607639
 31
0.0
  0
LINE
  5
542
330
532
100
AcDbEntity
  8
LC-001-100-D00-0
 62
     7
370
    25
100
AcDbLine
 10
219.299971
 20
177.142115
 30
0.0
 11
222.299971
 21
180.142115
 31
0.0
  0
LINE
  5
543
330
532
100
AcDbEntity
  8
LC-001-100-D00-0
 62
     7
370
    25
100
AcDbLine
 10
269.494391
 20
227.336535
 30
0.0
 11
274.115652
 21
231.957796
 31
0.0
  0
LINE
  5
544
330
532
100
AcDbEntity
  8
LC-001-100-D00-0
 62
     7
370
    25
100
AcDbLine
 10
219.299971
 20
186.122371
 30
0.0
 11
222.299971
 21
189.122371
 31
0.0
  0
LINE
  5
545
330
532
100
AcDbEntity
  8
LC-001-100-D00-0
 62
     7
370
    25
100
AcDbLine
 10
256.55956
 20
223.38196
 30
0.0
 11
261.831176
 21
228.653576
 31
0.0
  0
LINE
  5
546
330
532
100
AcDbEntity
  8
LC-001-100-D00-0
 62
     7
370
    25
100
AcDbLine
 10
219.299971
 20
195.102627
 30
0.0
 11
223.671933
 21
199.474589
 31
0.0
  0
LINE
  5
547
330
532
100
AcDbEntity
  8
LC-001-100-D00-0
 62
     7
370
    25
100
AcDbLine
 10
227.299971
 20
203.102627
 30
0.0
 11
230.299971
 21
206.102627
 31
0.0
  0
LINE
  5
548
330
532
100
AcDbEntity
  8
LC-001-100-D00-0
 62
     7
370
    25
100
AcDbLine
 10
244.09739
 20
219.900047
 30
0.0
 11
246.436938
 21
222.239594
 31
0.0
  0
LINE
  5
549
330
532
100
AcDbEntity
  8
LC-001-100-D00-0
 62
     7
370
    25
100
AcDbLine
 10
227.299971
 20
212.082883
 30
0.0
 11
230.299971
 21
215.082883
 31
0.0
  0
LINE
  5
54A
330
532
100
AcDbEntity
  8
LC-001-100-D00-0
 62
     7
370
    25
100
AcDbLine
 10
235.117134
 20
219.900047
 30
0.0
 11
240.956682
 21
225.739594
 31
0.0
  0
LINE
  5
54B
330
532
100
AcDbEntity
  8
LC-001-100-D00-0
 62
     7
370
    25
100
AcDbLine
 10
227.299971
 20
221.06314
 30
0.0
 11
231.976426
 21
225.739594
 31
0.0
  0
LINE
  5
54C
330
532
100
AcDbEntity
  8
LC-001-100-D00-0
 62
     7
370
    25
100
AcDbLine
 10
232.058674
 20
225.821843
 30
0.0
 11
232.364489
 21
226.127658
 31
0.0
  0
ENDBLK
  5
534
330
532
100
AcDbEntity
  8
0
100
AcDbBlockEnd
  0
BLOCK
  5
54F
330
54E
100
AcDbEntity
  8
0
100
AcDbBlockBegin
  2
KLON8
 70
     0
 71
     0
 10
0.0
 20
0.0
 30
0.0
  3
KLON8
  1

  4
KLON8
  0
LINE
  5
551
330
54E
100
AcDbEntity
  8
LC-001-100-D00-0
 62
     7
370
    25
100
AcDbLine
 10
113.713394
 20
199.474594
 30
0.0
 11
115.213394
 21
200.974594
 31
0.0
  0
LINE
  5
552
330
54E
100
AcDbEntity
  8
LC-001-100-D00-0
 62
     7
370
    25
100
AcDbLine
 10
115.299971
 20
201.061172
 30
0.0
 11
117.299971
 21
203.061172
 31
0.0
  0
LINE
  5
553
330
54E
100
AcDbEntity
  8
LC-001-100-D00-0
 62
     7
370
    25
100
AcDbLine
 10
107.299971
 20
202.041428
 30
0.0
 11
112.299971
 21
207.041428
 31
0.0
  0
LINE
  5
554
330
54E
100
AcDbEntity
  8
LC-001-100-D00-0
 62
     7
370
    25
100
AcDbLine
 10
115.299971
 20
210.041428
 30
0.0
 11
116.733137
 21
211.474594
 31
0.0
  0
LINE
  5
555
330
54E
100
AcDbEntity
  8
LC-001-100-D00-0
 62
     7
370
    25
100
AcDbLine
 10
107.299971
 20
211.021684
 30
0.0
 11
107.752881
 21
211.474594
 31
0.0
  0
ENDBLK
  5
550
330
54E
100
AcDbEntity
  8
0
100
AcDbBlockEnd
  0
BLOCK
  5
558
330
557
100
AcDbEntity
  8
0
100
AcDbBlockBegin
  2
KLON9
 70
     0
 71
     0
 10
0.0
 20
0.0
 30
0.0
  3
KLON9
  1

  4
KLON9
  0
LINE
  5
55A
330
557
100
AcDbEntity
  8
LC-001-100-D00-0
 62
     7
370
    25
100
AcDbLine
 10
221.476467
 20
199.474594
 30
0.0
 11
227.299971
 21
205.298098
 31
0.0
  0
LINE
  5
55B
330
557
100
AcDbEntity
  8
LC-001-100-D00-0
 62
     7
370
    25
100
AcDbLine
 10
217.299971
 20
204.278355
 30
0.0
 11
219.299971
 21
206.278355
 31
0.0
  0
LINE
  5
55C
330
557
100
AcDbEntity
  8
LC-001-100-D00-0
 62
     7
370
    25
100
AcDbLine
 10
222.299971
 20
209.278355
 30
0.0
 11
224.496211
 21
211.474594
 31
0.0
  0
ENDBLK
  5
559
330
557
100
AcDbEntity
  8
0
100
AcDbBlockEnd
  0
BLOCK
  5
55F
330
55E
100
AcDbEntity
  8
0
100
AcDbBlockBegin
  2
KLON10
 70
     0
 71
     0
 10
0.0
 20
0.0
 30
0.0
  3
KLON10
  1

  4
KLON10
  0
LINE
  5
561
330
55E
100
AcDbEntity
  8
LC-001-100-D00-0
 62
     7
370
    25
100
AcDbLine
 10
219.799971
 20
206.778355
 30
0.0
 11
222.299971
 21
209.278355
 31
0.0
  0
LINE
  5
562
330
55E
100
AcDbEntity
  8
LC-001-100-D00-0
 62
     7
370
    25
100
AcDbLine
 10
219.799971
 20
215.758611
 30
0.0
 11
222.299971
 21
218.258611
 31
0.0
  0
LINE
  5
563
330
55E
100
AcDbEntity
  8
LC-001-100-D00-0
 62
     7
370
    25
100
AcDbLine
 10
219.799971
 20
224.738867
 30
0.0
 11
222.299971
 21
227.238867
 31
0.0
  0
LINE
  5
564
330
55E
100
AcDbEntity
  8
LC-001-100-D00-0
 62
     7
370
    25
100
AcDbLine
 10
219.799971
 20
233.719123
 30
0.0
 11
222.299971
 21
236.219123
 31
0.0
  0
LINE
  5
565
330
55E
100
AcDbEntity
  8
LC-001-100-D00-0
 62
     7
370
    25
100
AcDbLine
 10
219.799971
 20
242.699379
 30
0.0
 11
222.299971
 21
245.199379
 31
0.0
  0
LINE
  5
566
330
55E
100
AcDbEntity
  8
LC-001-100-D00-0
 62
     7
370
    25
100
AcDbLine
 10
219.799971
 20
251.679635
 30
0.0
 11
222.299971
 21
254.179635
 31
0.0
  0
LINE
  5
567
330
55E
100
AcDbEntity
  8
LC-001-100-D00-0
 62
     7
370
    25
100
AcDbLine
 10
219.799971
 20
260.659891
 30
0.0
 11
222.299971
 21
263.159891
 31
0.0
  0
LINE
  5
568
330
55E
100
AcDbEntity
  8
LC-001-100-D00-0
 62
     7
370
    25
100
AcDbLine
 10
219.799971
 20
269.640147
 30
0.0
 11
222.299971
 21
272.140147
 31
0.0
  0
LINE
  5
569
330
55E
100
AcDbEntity
  8
LC-001-100-D00-0
 62
     7
370
    25
100
AcDbLine
 10
219.799971
 20
278.620404
 30
0.0
 11
222.299971
 21
281.120404
 31
0.0
  0
LINE
  5
56A
330
55E
100
AcDbEntity
  8
LC-001-100-D00-0
 62
     7
370
    25
100
AcDbLine
 10
219.799971
 20
287.60066
 30
0.0
 11
222.299971
 21
290.10066
 31
0.0
  0
LINE
  5
56B
330
55E
100
AcDbEntity
  8
LC-001-100-D00-0
 62
     7
370
    25
100
AcDbLine
 10
219.799971
 20
296.580916
 30
0.0
 11
222.299971
 21
299.080916
 31
0.0
  0
LINE
  5
56C
330
55E
100
AcDbEntity
  8
LC-001-100-D00-0
 62
     7
370
    25
100
AcDbLine
 10
219.799971
 20
305.561172
 30
0.0
 11
222.299971
 21
308.061172
 31
0.0
  0
ENDBLK
  5
560
330
55E
100
AcDbEntity
  8
0
100
AcDbBlockEnd
  0
BLOCK
  5
56F
330
56E
100
AcDbEntity
  8
0
100
AcDbBlockBegin
  2
KLON11
 70
     0
 71
     0
 10
0.0
 20
0.0
 30
0.0
  3
KLON11
  1

  4
KLON11
  0
LINE
  5
571
330
56E
100
AcDbEntity
  8
LC-001-100-D00-0
 62
     7
370
    25
100
AcDbLine
 10
112.299971
 20
207.041428
 30
0.0
 11
114.799971
 21
209.541428
 31
0.0
  0
LINE
  5
572
330
56E
100
AcDbEntity
  8
LC-001-100-D00-0
 62
     7
370
    25
100
AcDbLine
 10
112.299971
 20
216.021684
 30
0.0
 11
114.799971
 21
218.521684
 31
0.0
  0
LINE
  5
573
330
56E
100
AcDbEntity
  8
LC-001-100-D00-0
 62
     7
370
    25
100
AcDbLine
 10
112.299971
 20
225.00194
 30
0.0
 11
114.799971
 21
227.50194
 31
0.0
  0
LINE
  5
574
330
56E
100
AcDbEntity
  8
LC-001-100-D00-0
 62
     7
370
    25
100
AcDbLine
 10
112.299971
 20
233.982196
 30
0.0
 11
114.799971
 21
236.482196
 31
0.0
  0
LINE
  5
575
330
56E
100
AcDbEntity
  8
LC-001-100-D00-0
 62
     7
370
    25
100
AcDbLine
 10
112.299971
 20
242.962453
 30
0.0
 11
114.799971
 21
245.462453
 31
0.0
  0
LINE
  5
576
330
56E
100
AcDbEntity
  8
LC-001-100-D00-0
 62
     7
370
    25
100
AcDbLine
 10
112.299971
 20
251.942709
 30
0.0
 11
114.799971
 21
254.442709
 31
0.0
  0
LINE
  5
577
330
56E
100
AcDbEntity
  8
LC-001-100-D00-0
 62
     7
370
    25
100
AcDbLine
 10
112.299971
 20
260.922965
 30
0.0
 11
114.799971
 21
263.422965
 31
0.0
  0
LINE
  5
578
330
56E
100
AcDbEntity
  8
LC-001-100-D00-0
 62
     7
370
    25
100
AcDbLine
 10
112.299971
 20
269.903221
 30
0.0
 11
114.799971
 21
272.403221
 31
0.0
  0
LINE
  5
579
330
56E
100
AcDbEntity
  8
LC-001-100-D00-0
 62
     7
370
    25
100
AcDbLine
 10
112.299971
 20
278.883477
 30
0.0
 11
114.799971
 21
281.383477
 31
0.0
  0
LINE
  5
57A
330
56E
100
AcDbEntity
  8
LC-001-100-D00-0
 62
     7
370
    25
100
AcDbLine
 10
112.299971
 20
287.863733
 30
0.0
 11
114.799971
 21
290.363733
 31
0.0
  0
LINE
  5
57B
330
56E
100
AcDbEntity
  8
LC-001-100-D00-0
 62
     7
370
    25
100
AcDbLine
 10
112.299971
 20
296.843989
 30
0.0
 11
114.799971
 21
299.343989
 31
0.0
  0
LINE
  5
57C
330
56E
100
AcDbEntity
  8
LC-001-100-D00-0
 62
     7
370
    25
100
AcDbLine
 10
112.299971
 20
305.824245
 30
0.0
 11
114.799971
 21
308.324245
 31
0.0
  0
ENDBLK
  5
570
330
56E
100
AcDbEntity
  8
0
100
AcDbBlockEnd
  0
BLOCK
  5
57F
330
57E
100
AcDbEntity
  8
0
100
AcDbBlockBegin
  2
KLON12
 70
     0
 71
     0
 10
0.0
 20
0.0
 30
0.0
  3
KLON12
  1

  4
KLON12
  0
LINE
  5
581
330
57E
100
AcDbEntity
  8
LC-001-100-D00-0
 62
     7
370
    25
100
AcDbLine
 10
115.59997
 20
309.124245
 30
0.0
 11
116.29997
 21
309.824244
 31
0.0
  0
LINE
  5
582
330
57E
100
AcDbEntity
  8
LC-001-100-D00-0
 62
     7
370
    25
100
AcDbLine
 10
111.412142
 20
313.916672
 30
0.0
 11
111.949863
 21
314.454393
 31
0.0
  0
LINE
  5
583
330
57E
100
AcDbEntity
  8
LC-001-100-D00-0
 62
     7
370
    25
100
AcDbLine
 10
106.934193
 20
318.41898
 30
0.0
 11
107.499971
 21
318.984758
 31
0.0
  0
LINE
  5
584
330
57E
100
AcDbEntity
  8
LC-001-100-D00-0
 62
     7
370
    25
100
AcDbLine
 10
108.234193
 20
319.71898
 30
0.0
 11
108.800128
 21
320.284915
 31
0.0
  0
ENDBLK
  5
580
330
57E
100
AcDbEntity
  8
0
100
AcDbBlockEnd
  0
BLOCK
  5
588
330
587
100
AcDbEntity
  8
0
100
AcDbBlockBegin
  2
KLON13
 70
     0
 71
     0
 10
0.0
 20
0.0
 30
0.0
  3
KLON13
  1

  4
KLON13
  0
LINE
  5
58A
330
587
100
AcDbEntity
  8
LC-001-100-D00-0
 62
     7
370
    25
100
AcDbLine
 10
204.217011
 20
316.91898
 30
0.0
 11
204.299971
 21
317.00194
 31
0.0
  0
LINE
  5
58B
330
587
100
AcDbEntity
  8
LC-001-100-D00-0
 62
     7
370
    25
100
AcDbLine
 10
196.736755
 20
318.41898
 30
0.0
 11
198.236755
 21
319.91898
 31
0.0
  0
LINE
  5
58C
330
587
100
AcDbEntity
  8
LC-001-100-D00-0
 62
     7
370
    25
100
AcDbLine
 10
187.756499
 20
318.41898
 30
0.0
 11
189.256499
 21
319.91898
 31
0.0
  0
LINE
  5
58D
330
587
100
AcDbEntity
  8
LC-001-100-D00-0
 62
     7
370
    25
100
AcDbLine
 10
178.776242
 20
318.41898
 30
0.0
 11
180.276242
 21
319.91898
 31
0.0
  0
LINE
  5
58E
330
587
100
AcDbEntity
  8
LC-001-100-D00-0
 62
     7
370
    25
100
AcDbLine
 10
169.795986
 20
318.41898
 30
0.0
 11
171.295986
 21
319.91898
 31
0.0
  0
LINE
  5
58F
330
587
100
AcDbEntity
  8
LC-001-100-D00-0
 62
     7
370
    25
100
AcDbLine
 10
160.81573
 20
318.41898
 30
0.0
 11
162.31573
 21
319.91898
 31
0.0
  0
LINE
  5
590
330
587
100
AcDbEntity
  8
LC-001-100-D00-0
 62
     7
370
    25
100
AcDbLine
 10
151.835474
 20
318.41898
 30
0.0
 11
153.335474
 21
319.91898
 31
0.0
  0
LINE
  5
591
330
587
100
AcDbEntity
  8
LC-001-100-D00-0
 62
     7
370
    25
100
AcDbLine
 10
142.855218
 20
318.41898
 30
0.0
 11
144.355218
 21
319.91898
 31
0.0
  0
LINE
  5
592
330
587
100
AcDbEntity
  8
LC-001-100-D00-0
 62
     7
370
    25
100
AcDbLine
 10
133.874962
 20
318.41898
 30
0.0
 11
135.374962
 21
319.91898
 31
0.0
  0
ENDBLK
  5
589
330
587
100
AcDbEntity
  8
0
100
AcDbBlockEnd
  0
BLOCK
  5
596
330
595
100
AcDbEntity
  8
0
100
AcDbBlockBegin
  2
KLON14
 70
     0
 71
     0
 10
0.0
 20
0.0
 30
0.0
  3
KLON14
  1

  4
KLON14
  0
LINE
  5
598
330
595
100
AcDbEntity
  8
LC-001-100-D00-0
 62
     7
370
    25
100
AcDbLine
 10
223.287685
 20
318.029142
 30
0.0
 11
224.390305
 21
319.131762
 31
0.0
  0
LINE
  5
599
330
595
100
AcDbEntity
  8
LC-001-100-D00-0
 62
     7
370
    25
100
AcDbLine
 10
213.197267
 20
316.91898
 30
0.0
 11
213.799971
 21
317.521684
 31
0.0
  0
LINE
  5
59A
330
595
100
AcDbEntity
  8
LC-001-100-D00-0
 62
     7
370
    25
100
AcDbLine
 10
214.697267
 20
318.41898
 30
0.0
 11
216.197267
 21
319.91898
 31
0.0
  0
ENDBLK
  5
597
330
595
100
AcDbEntity
  8
0
100
AcDbBlockEnd
  0
BLOCK
  5
5AB
330
5A0
100
AcDbEntity
  8
0
100
AcDbBlockBegin
  2
*D54
 70
     1
 71
     0
 10
0.0
 20
0.0
 30
0.0
  3
*D54
  1

  0
LINE
  5
5A1
330
5A0
100
AcDbEntity
  8
LC-001-100-D00-0
 62
     2
370
    -2
100
AcDbLine
 10
142.299971
 20
84.974589
 30
0.0
 11
142.299971
 21
58.697568
 31
0.0
  0
LINE
  5
5A2
330
5A0
100
AcDbEntity
  8
LC-001-100-D00-0
 62
     2
370
    -2
100
AcDbLine
 10
192.299971
 20
84.974589
 30
0.0
 11
192.299971
 21
58.697568
 31
0.0
  0
LINE
  5
5A3
330
5A0
100
AcDbEntity
  8
LC-001-100-D00-0
 62
     2
370
    -2
100
AcDbLine
 10
114.299971
 20
62.297568
 30
0.0
 11
86.299971
 21
62.297568
 31
0.0
  0
LINE
  5
5A4
330
5A0
100
AcDbEntity
  8
LC-001-100-D00-0
 62
     2
370
    -2
100
AcDbLine
 10
220.299971
 20
62.297568
 30
0.0
 11
240.303254
 21
62.297568
 31
0.0
  0
SOLID
  5
5A5
330
5A0
100
AcDbEntity
  8
LC-001-100-D00-0
 62
     2
100
AcDbTrace
 10
114.299971
 20
57.630902
 30
0.0
 11
114.299971
 21
66.964235
 31
0.0
 12
142.299971
 22
62.297568
 32
0.0
 13
142.299971
 23
62.297568
 33
0.0
  0
SOLID
  5
5A6
330
5A0
100
AcDbEntity
  8
LC-001-100-D00-0
 62
     2
100
AcDbTrace
 10
220.299971
 20
66.964235
 30
0.0
 11
220.299971
 21
57.630902
 31
0.0
 12
192.299971
 22
62.297568
 32
0.0
 13
192.299971
 23
62.297568
 33
0.0
  0
MTEXT
  5
5A7
330
5A0
100
AcDbEntity
  8
LC-001-100-D00-0
 62
     2
100
AcDbMText
 10
194.266496
 20
93.097568
 30
0.0
 40
28.0
 41
0.0
 71
     5
 72
     1
  1
\A1;DN50
  7
LCTX15-400-0-0pDIN-Schrift
 73
     1
 44
1.0
  0
POINT
  5
5A8
330
5A0
100
AcDbEntity
  8
Defpoints
 62
     0
100
AcDbPoint
 10
142.299971
 20
84.974589
 30
0.0
  0
POINT
  5
5A9
330
5A0
100
AcDbEntity
  8
Defpoints
 62
     0
100
AcDbPoint
 10
192.299971
 20
84.974589
 30
0.0
  0
POINT
  5
5AA
330
5A0
100
AcDbEntity
  8
Defpoints
 62
     0
100
AcDbPoint
 10
192.299971
 20
62.297568
 30
0.0
  0
ENDBLK
  5
5AC
330
5A0
100
AcDbEntity
  8
0
100
AcDbBlockEnd
  0
BLOCK
  5
5B8
330
5AE
100
AcDbEntity
  8
0
100
AcDbBlockBegin
  2
*D55
 70
     1
 71
     0
 10
0.0
 20
0.0
 30
0.0
  3
*D55
  1

  0
LINE
  5
5AF
330
5AE
100
AcDbEntity
  8
LC-001-100-D00-0
 62
     2
370
    -2
100
AcDbLine
 10
104.299971
 20
199.474589
 30
0.0
 11
104.299971
 21
-54.162432
 31
0.0
  0
LINE
  5
5B0
330
5AE
100
AcDbEntity
  8
LC-001-100-D00-0
 62
     2
370
    -2
100
AcDbLine
 10
230.299971
 20
199.474589
 30
0.0
 11
230.299971
 21
-54.162432
 31
0.0
  0
LINE
  5
5B1
330
5AE
100
AcDbEntity
  8
LC-001-100-D00-0
 62
     2
370
    -2
100
AcDbLine
 10
132.299971
 20
-50.562432
 30
0.0
 11
202.299971
 21
-50.562432
 31
0.0
  0
SOLID
  5
5B2
330
5AE
100
AcDbEntity
  8
LC-001-100-D00-0
 62
     2
100
AcDbTrace
 10
132.299971
 20
-45.895765
 30
0.0
 11
132.299971
 21
-55.229098
 31
0.0
 12
104.299971
 22
-50.562432
 32
0.0
 13
104.299971
 23
-50.562432
 33
0.0
  0
SOLID
  5
5B3
330
5AE
100
AcDbEntity
  8
LC-001-100-D00-0
 62
     2
100
AcDbTrace
 10
202.299971
 20
-55.229098
 30
0.0
 11
202.299971
 21
-45.895765
 31
0.0
 12
230.299971
 22
-50.562432
 32
0.0
 13
230.299971
 23
-50.562432
 33
0.0
  0
MTEXT
  5
5B4
330
5AE
100
AcDbEntity
  8
LC-001-100-D00-0
 62
     2
100
AcDbMText
 10
159.125488
 20
-19.762432
 30
0.0
 40
28.0
 41
0.0
 71
     5
 72
     1
  1
\A1;%%c126
  7
LCTX15-400-0-0pDIN-Schrift
 73
     1
 44
1.0
  0
POINT
  5
5B5
330
5AE
100
AcDbEntity
  8
Defpoints
 62
     0
100
AcDbPoint
 10
104.299971
 20
199.474589
 30
0.0
  0
POINT
  5
5B6
330
5AE
100
AcDbEntity
  8
Defpoints
 62
     0
100
AcDbPoint
 10
230.299971
 20
199.474589
 30
0.0
  0
POINT
  5
5B7
330
5AE
100
AcDbEntity
  8
Defpoints
 62
     0
100
AcDbPoint
 10
230.299971
 20
-50.562432
 30
0.0
  0
ENDBLK
  5
5B9
330
5AE
100
AcDbEntity
  8
0
100
AcDbBlockEnd
  0
BLOCK
  5
5C5
330
5BB
100
AcDbEntity
  8
0
100
AcDbBlockBegin
  2
*D56
 70
     1
 71
     0
 10
0.0
 20
0.0
 30
0.0
  3
*D56
  1

  0
LINE
  5
5BC
330
5BB
100
AcDbEntity
  8
LC-001-100-D00-0
 62
     2
370
    -2
100
AcDbLine
 10
112.299971
 20
154.170856
 30
0.0
 11
112.299971
 21
-2.484432
 31
0.0
  0
LINE
  5
5BD
330
5BB
100
AcDbEntity
  8
LC-001-100-D00-0
 62
     2
370
    -2
100
AcDbLine
 10
222.299971
 20
154.170856
 30
0.0
 11
222.299971
 21
-2.484432
 31
0.0
  0
LINE
  5
5BE
330
5BB
100
AcDbEntity
  8
LC-001-100-D00-0
 62
     2
370
    -2
100
AcDbLine
 10
140.299971
 20
1.115568
 30
0.0
 11
194.299971
 21
1.115568
 31
0.0
  0
SOLID
  5
5BF
330
5BB
100
AcDbEntity
  8
LC-001-100-D00-0
 62
     2
100
AcDbTrace
 10
140.299971
 20
5.782235
 30
0.0
 11
140.299971
 21
-3.551098
 31
0.0
 12
112.299971
 22
1.115568
 32
0.0
 13
112.299971
 23
1.115568
 33
0.0
  0
SOLID
  5
5C0
330
5BB
100
AcDbEntity
  8
LC-001-100-D00-0
 62
     2
100
AcDbTrace
 10
194.299971
 20
-3.551098
 30
0.0
 11
194.299971
 21
5.782235
 31
0.0
 12
222.299971
 22
1.115568
 32
0.0
 13
222.299971
 23
1.115568
 33
0.0
  0
MTEXT
  5
5C1
330
5BB
100
AcDbEntity
  8
LC-001-100-D00-0
 62
     2
100
AcDbMText
 10
162.320125
 20
31.915568
 30
0.0
 40
28.0
 41
0.0
 71
     5
 72
     1
  1
\A1;%%c110
  7
LCTX15-400-0-0pDIN-Schrift
 73
     1
 44
1.0
  0
POINT
  5
5C2
330
5BB
100
AcDbEntity
  8
Defpoints
 62
     0
100
AcDbPoint
 10
112.299971
 20
154.170856
 30
0.0
  0
POINT
  5
5C3
330
5BB
100
AcDbEntity
  8
Defpoints
 62
     0
100
AcDbPoint
 10
222.299971
 20
154.170856
 30
0.0
  0
POINT
  5
5C4
330
5BB
100
AcDbEntity
  8
Defpoints
 62
     0
100
AcDbPoint
 10
222.299971
 20
1.115568
 30
0.0
  0
ENDBLK
  5
5C6
330
5BB
100
AcDbEntity
  8
0
100
AcDbBlockEnd
  0
BLOCK
  5
5D6
330
5CC
100
AcDbEntity
  8
0
100
AcDbBlockBegin
  2
*D57
 70
     1
 71
     0
 10
0.0
 20
0.0
 30
0.0
  3
*D57
  1

  0
LINE
  5
5CD
330
5CC
100
AcDbEntity
  8
LC-003-003-----0
 62
     2
370
    -2
100
AcDbLine
 10
52.799973
 20
228.662134
 30
0.0
 11
52.799973
 21
397.349568
 31
0.0
  0
LINE
  5
5CE
330
5CC
100
AcDbEntity
  8
LC-003-003-----0
 62
     2
370
    -2
100
AcDbLine
 10
281.799971
 20
228.662134
 30
0.0
 11
281.799971
 21
397.349568
 31
0.0
  0
LINE
  5
5CF
330
5CC
100
AcDbEntity
  8
LC-003-003-----0
 62
     2
370
    -2
100
AcDbLine
 10
80.799973
 20
393.749568
 30
0.0
 11
253.799971
 21
393.749568
 31
0.0
  0
SOLID
  5
5D0
330
5CC
100
AcDbEntity
  8
LC-003-003-----0
 62
     2
100
AcDbTrace
 10
80.799973
 20
398.416235
 30
0.0
 11
80.799973
 21
389.082902
 31
0.0
 12
52.799973
 22
393.749568
 32
0.0
 13
52.799973
 23
393.749568
 33
0.0
  0
SOLID
  5
5D1
330
5CC
100
AcDbEntity
  8
LC-003-003-----0
 62
     2
100
AcDbTrace
 10
253.799971
 20
389.082902
 30
0.0
 11
253.799971
 21
398.416235
 31
0.0
 12
281.799971
 22
393.749568
 32
0.0
 13
281.799971
 23
393.749568
 33
0.0
  0
MTEXT
  5
5D2
330
5CC
100
AcDbEntity
  8
LC-003-003-----0
 62
     2
100
AcDbMText
 10
171.904036
 20
424.549568
 30
0.0
 40
28.0
 41
0.0
 71
     5
 72
     1
  1
\A1;%%c230
  7
LCTX15-400-0-0pDIN-Schrift
 73
     1
 44
1.0
  0
POINT
  5
5D3
330
5CC
100
AcDbEntity
  8
Defpoints
 62
     0
100
AcDbPoint
 10
52.799973
 20
228.662134
 30
0.0
  0
POINT
  5
5D4
330
5CC
100
AcDbEntity
  8
Defpoints
 62
     0
100
AcDbPoint
 10
281.799971
 20
228.662134
 30
0.0
  0
POINT
  5
5D5
330
5CC
100
AcDbEntity
  8
Defpoints
 62
     0
100
AcDbPoint
 10
281.799971
 20
393.749568
 30
0.0
  0
ENDBLK
  5
5D7
330
5CC
100
AcDbEntity
  8
0
100
AcDbBlockEnd
  0
BLOCK
  5
5E3
330
5D9
100
AcDbEntity
  8
0
100
AcDbBlockBegin
  2
*D58
 70
     1
 71
     0
 10
0.0
 20
0.0
 30
0.0
  3
*D58
  1

  0
LINE
  5
5DA
330
5D9
100
AcDbEntity
  8
LC-003-003-----0
 62
     2
370
    -2
100
AcDbLine
 10
52.799973
 20
228.662134
 30
0.0
 11
26.675122
 21
228.662134
 31
0.0
  0
LINE
  5
5DB
330
5D9
100
AcDbEntity
  8
LC-003-003-----0
 62
     2
370
    -2
100
AcDbLine
 10
118.770653
 20
139.474589
 30
0.0
 11
26.675122
 21
139.474589
 31
0.0
  0
LINE
  5
5DC
330
5D9
100
AcDbEntity
  8
LC-003-003-----0
 62
     2
370
    -2
100
AcDbLine
 10
30.275122
 20
200.662134
 30
0.0
 11
30.275122
 21
167.474589
 31
0.0
  0
SOLID
  5
5DD
330
5D9
100
AcDbEntity
  8
LC-003-003-----0
 62
     2
100
AcDbTrace
 10
34.941789
 20
200.662134
 30
0.0
 11
25.608456
 21
200.662134
 31
0.0
 12
30.275122
 22
228.662134
 32
0.0
 13
30.275122
 23
228.662134
 33
0.0
  0
SOLID
  5
5DE
330
5D9
100
AcDbEntity
  8
LC-003-003-----0
 62
     2
100
AcDbTrace
 10
25.608456
 20
167.474589
 30
0.0
 11
34.941789
 21
167.474589
 31
0.0
 12
30.275122
 22
139.474589
 32
0.0
 13
30.275122
 23
139.474589
 33
0.0
  0
MTEXT
  5
5DF
330
5D9
100
AcDbEntity
  8
LC-003-003-----0
 62
     2
100
AcDbMText
 10
-0.524878
 20
181.097568
 30
0.0
 40
28.0
 41
0.0
 71
     5
 72
     1
  1
\A1;90
  7
LCTX15-400-0-0pDIN-Schrift
 11
6.123031769111886E-17
 21
1.0
 31
0.0
 73
     1
 44
1.0
  0
POINT
  5
5E0
330
5D9
100
AcDbEntity
  8
Defpoints
 62
     0
100
AcDbPoint
 10
52.799973
 20
228.662134
 30
0.0
  0
POINT
  5
5E1
330
5D9
100
AcDbEntity
  8
Defpoints
 62
     0
100
AcDbPoint
 10
118.770653
 20
139.474589
 30
0.0
  0
POINT
  5
5E2
330
5D9
100
AcDbEntity
  8
Defpoints
 62
     0
100
AcDbPoint
 10
30.275122
 20
139.474589
 30
0.0
  0
ENDBLK
  5
5E4
330
5D9
100
AcDbEntity
  8
0
100
AcDbBlockEnd
  0
BLOCK
  5
5F0
330
5E6
100
AcDbEntity
  8
0
100
AcDbBlockBegin
  2
*D59
 70
     1
 71
     0
 10
0.0
 20
0.0
 30
0.0
  3
*D59
  1

  0
LINE
  5
5E7
330
5E6
100
AcDbEntity
  8
LC-003-003-----0
 62
     2
370
    -2
100
AcDbLine
 10
279.733718
 20
232.144006
 30
0.0
 11
336.300773
 21
232.144006
 31
0.0
  0
LINE
  5
5E8
330
5E6
100
AcDbEntity
  8
LC-003-003-----0
 62
     2
370
    -2
100
AcDbLine
 10
226.299971
 20
320.418985
 30
0.0
 11
336.300773
 21
320.418985
 31
0.0
  0
LINE
  5
5E9
330
5E6
100
AcDbEntity
  8
LC-003-003-----0
 62
     2
370
    -2
100
AcDbLine
 10
332.700773
 20
260.144006
 30
0.0
 11
332.700773
 21
292.418985
 31
0.0
  0
SOLID
  5
5EA
330
5E6
100
AcDbEntity
  8
LC-003-003-----0
 62
     2
100
AcDbTrace
 10
328.034107
 20
260.144006
 30
0.0
 11
337.36744
 21
260.144006
 31
0.0
 12
332.700773
 22
232.144006
 32
0.0
 13
332.700773
 23
232.144006
 33
0.0
  0
SOLID
  5
5EB
330
5E6
100
AcDbEntity
  8
LC-003-003-----0
 62
     2
100
AcDbTrace
 10
337.36744
 20
292.418985
 30
0.0
 11
328.034107
 21
292.418985
 31
0.0
 12
332.700773
 22
320.418985
 32
0.0
 13
332.700773
 23
320.418985
 33
0.0
  0
MTEXT
  5
5EC
330
5E6
100
AcDbEntity
  8
LC-003-003-----0
 62
     2
100
AcDbMText
 10
301.900773
 20
271.385568
 30
0.0
 40
28.0
 41
0.0
 71
     5
 72
     1
  1
\A1;14-88
  7
LCTX15-400-0-0pDIN-Schrift
 11
6.123031769111886E-17
 21
1.0
 31
0.0
 73
     1
 44
1.0
  0
POINT
  5
5ED
330
5E6
100
AcDbEntity
  8
Defpoints
 62
     0
100
AcDbPoint
 10
279.733718
 20
232.144006
 30
0.0
  0
POINT
  5
5EE
330
5E6
100
AcDbEntity
  8
Defpoints
 62
     0
100
AcDbPoint
 10
226.299971
 20
320.418985
 30
0.0
  0
POINT
  5
5EF
330
5E6
100
AcDbEntity
  8
Defpoints
 62
     0
100
AcDbPoint
 10
332.700773
 20
320.418985
 30
0.0
  0
ENDBLK
  5
5F1
330
5E6
100
AcDbEntity
  8
0
100
AcDbBlockEnd
  0
BLOCK
  5
5F3
330
5F2
100
AcDbEntity
  8
0
100
AcDbBlockBegin
  2
KLON15
 70
     0
 71
     0
 10
0.0
 20
0.0
 30
0.0
  3
KLON15
  1

  4
KLON15
  0
LINE
  5
5F5
330
5F2
100
AcDbEntity
  8
LC-001-100-D00-0
 62
     7
370
    25
100
AcDbLine
 10
218.999972
 20
309.124245
 30
0.0
 11
218.299972
 21
309.824244
 31
0.0
  0
LINE
  5
5F6
330
5F2
100
AcDbEntity
  8
LC-001-100-D00-0
 62
     7
370
    25
100
AcDbLine
 10
223.1878
 20
313.916672
 30
0.0
 11
222.65008
 21
314.454393
 31
0.0
  0
LINE
  5
5F7
330
5F2
100
AcDbEntity
  8
LC-001-100-D00-0
 62
     7
370
    25
100
AcDbLine
 10
227.665749
 20
318.41898
 30
0.0
 11
227.099971
 21
318.984758
 31
0.0
  0
LINE
  5
5F8
330
5F2
100
AcDbEntity
  8
LC-001-100-D00-0
 62
     7
370
    25
100
AcDbLine
 10
226.365749
 20
319.71898
 30
0.0
 11
225.799814
 21
320.284915
 31
0.0
  0
ENDBLK
  5
5F4
330
5F2
100
AcDbEntity
  8
0
100
AcDbBlockEnd
  0
BLOCK
  5
607
330
5FB
100
AcDbEntity
  8
0
100
AcDbBlockBegin
  2
*D61
 70
     1
 71
     0
 10
0.0
 20
0.0
 30
0.0
  3
*D61
  1

  0
LINE
  5
5FC
330
5FB
100
AcDbEntity
  8
LC-003-003-----0
 62
     2
370
    -2
100
AcDbLine
 10
118.770653
 20
139.474589
 30
0.0
 11
80.983954
 21
139.474589
 31
0.0
  0
LINE
  5
5FD
330
5FB
100
AcDbEntity
  8
LC-003-003-----0
 62
     2
370
    -2
100
AcDbLine
 10
145.299975
 20
81.474588
 30
0.0
 11
80.983954
 21
81.474588
 31
0.0
  0
LINE
  5
5FE
330
5FB
100
AcDbEntity
  8
LC-003-003-----0
 62
     2
370
    -2
100
AcDbLine
 10
84.583954
 20
167.474589
 30
0.0
 11
84.583954
 21
195.474589
 31
0.0
  0
LINE
  5
5FF
330
5FB
100
AcDbEntity
  8
LC-003-003-----0
 62
     2
370
    -2
100
AcDbLine
 10
84.583954
 20
53.474588
 30
0.0
 11
84.583954
 21
25.474588
 31
0.0
  0
LINE
  5
600
330
5FB
100
AcDbEntity
  8
LC-003-003-----0
 62
     2
370
    -2
100
AcDbLine
 10
84.583954
 20
139.474589
 30
0.0
 11
84.583954
 21
81.474588
 31
0.0
  0
SOLID
  5
601
330
5FB
100
AcDbEntity
  8
LC-003-003-----0
 62
     2
100
AcDbTrace
 10
79.917287
 20
167.474589
 30
0.0
 11
89.250621
 21
167.474589
 31
0.0
 12
84.583954
 22
139.474589
 32
0.0
 13
84.583954
 23
139.474589
 33
0.0
  0
SOLID
  5
602
330
5FB
100
AcDbEntity
  8
LC-003-003-----0
 62
     2
100
AcDbTrace
 10
89.250621
 20
53.474588
 30
0.0
 11
79.917287
 21
53.474588
 31
0.0
 12
84.583954
 22
81.474588
 32
0.0
 13
84.583954
 23
81.474588
 33
0.0
  0
MTEXT
  5
603
330
5FB
100
AcDbEntity
  8
LC-003-003-----0
 62
     2
100
AcDbMText
 10
53.783954
 20
105.659568
 30
0.0
 40
28.0
 41
0.0
 71
     5
 72
     1
  1
\A1;58
  7
LCTX15-400-0-0pDIN-Schrift
 11
6.123031769111886E-17
 21
1.0
 31
0.0
 73
     1
 44
1.0
  0
POINT
  5
604
330
5FB
100
AcDbEntity
  8
Defpoints
 62
     0
100
AcDbPoint
 10
118.770653
 20
139.474589
 30
0.0
  0
POINT
  5
605
330
5FB
100
AcDbEntity
  8
Defpoints
 62
     0
100
AcDbPoint
 10
145.299975
 20
81.474588
 30
0.0
  0
POINT
  5
606
330
5FB
100
AcDbEntity
  8
Defpoints
 62
     0
100
AcDbPoint
 10
84.583954
 20
81.474588
 30
0.0
  0
ENDBLK
  5
608
330
5FB
100
AcDbEntity
  8
0
100
AcDbBlockEnd
  0
BLOCK
  5
614
330
60A
100
AcDbEntity
  8
0
100
AcDbBlockBegin
  2
*D62
 70
     1
 71
     0
 10
0.0
 20
0.0
 30
0.0
  3
*D62
  1

  0
LINE
  5
60B
330
60A
100
AcDbEntity
  8
LC-003-003-----0
 62
     2
370
    -2
100
AcDbLine
 10
106.799964
 20
318.418981
 30
0.0
 11
106.799964
 21
338.019757
 31
0.0
  0
LINE
  5
60C
330
60A
100
AcDbEntity
  8
LC-003-003-----0
 62
     2
370
    -2
100
AcDbLine
 10
227.799971
 20
318.418981
 30
0.0
 11
227.799971
 21
338.019757
 31
0.0
  0
LINE
  5
60D
330
60A
100
AcDbEntity
  8
LC-003-003-----0
 62
     2
370
    -2
100
AcDbLine
 10
134.799964
 20
334.419757
 30
0.0
 11
199.799971
 21
334.419757
 31
0.0
  0
SOLID
  5
60E
330
60A
100
AcDbEntity
  8
LC-003-003-----0
 62
     2
100
AcDbTrace
 10
134.799964
 20
339.086424
 30
0.0
 11
134.799964
 21
329.75309
 31
0.0
 12
106.799964
 22
334.419757
 32
0.0
 13
106.799964
 23
334.419757
 33
0.0
  0
SOLID
  5
60F
330
60A
100
AcDbEntity
  8
LC-003-003-----0
 62
     2
100
AcDbTrace
 10
199.799971
 20
329.75309
 30
0.0
 11
199.799971
 21
339.086424
 31
0.0
 12
227.799971
 22
334.419757
 32
0.0
 13
227.799971
 23
334.419757
 33
0.0
  0
MTEXT
  5
610
330
60A
100
AcDbEntity
  8
LC-003-003-----0
 62
     2
100
AcDbMText
 10
166.424169
 20
365.219757
 30
0.0
 40
28.0
 41
0.0
 71
     5
 72
     1
  1
\A1;120
  7
LCTX15-400-0-0pDIN-Schrift
 73
     1
 44
1.0
  0
POINT
  5
611
330
60A
100
AcDbEntity
  8
Defpoints
 62
     0
100
AcDbPoint
 10
106.799964
 20
318.418981
 30
0.0
  0
POINT
  5
612
330
60A
100
AcDbEntity
  8
Defpoints
 62
     0
100
AcDbPoint
 10
227.799971
 20
318.418981
 30
0.0
  0
POINT
  5
613
330
60A
100
AcDbEntity
  8
Defpoints
 62
     0
100
AcDbPoint
 10
227.799971
 20
334.419757
 30
0.0
  0
ENDBLK
  5
615
330
60A
100
AcDbEntity
  8
0
100
AcDbBlockEnd
  0
ENDSEC
  0
SECTION
  2
ENTITIES
  0
ARC
  5
32
330
1F
100
AcDbEntity
  8
LC-001-100-D00-0
 62
     7
370
    50
100
AcDbCircle
 10
195.948219
 20
317.918995
 30
0.0
 40
0.4999859372176462
100
AcDbArc
 50
1.334563
 51
89.948112
  0
ARC
  5
33
330
1F
100
AcDbEntity
  8
LC-001-100-D00-0
 62
     7
370
    50
100
AcDbCircle
 10
138.651744
 20
317.918976
 30
0.0
 40
0.5000050389964401
100
AcDbArc
 50
90.05945
 51
181.395613
  0
LINE
  5
34
330
1F
100
AcDbEntity
  8
LC-001-100-D00-0
 62
     7
370
    50
100
AcDbLine
 10
196.448218
 20
317.918987
 30
0.0
 11
196.448218
 21
316.91897
 31
0.0
  0
LINE
  5
35
330
1F
100
AcDbEntity
  8
LC-001-100-D00-0
 62
     7
370
    50
100
AcDbLine
 10
138.151724
 20
316.91897
 30
0.0
 11
138.151724
 21
317.918987
 31
0.0
  0
ARC
  5
36
330
1F
100
AcDbEntity
  8
LC-001-100-D00-0
 62
     7
370
    50
100
AcDbCircle
 10
139.379678
 20
317.918995
 30
0.0
 40
0.4999859372175893
100
AcDbArc
 50
1.334563
 51
89.948112
  0
ARC
  5
37
330
1F
100
AcDbEntity
  8
LC-001-100-D00-0
 62
     7
370
    50
100
AcDbCircle
 10
195.220276
 20
317.918983
 30
0.0
 40
0.4999975020360034
100
AcDbArc
 50
89.999494
 51
180.108832
  0
LINE
  5
38
330
1F
100
AcDbEntity
  8
LC-001-100-D00-0
 62
     7
370
    50
100
AcDbLine
 10
194.720264
 20
316.91897
 30
0.0
 11
194.720264
 21
317.918987
 31
0.0
  0
LINE
  5
39
330
1F
100
AcDbEntity
  8
LC-001-100-D00-0
 62
     7
370
    50
100
AcDbLine
 10
139.879677
 20
317.918987
 30
0.0
 11
139.879677
 21
316.91897
 31
0.0
  0
LINE
  5
3A
330
1F
100
AcDbEntity
  8
LC-001-100-D00-0
 62
     7
370
    50
100
AcDbLine
 10
100.678194
 20
219.900043
 30
0.0
 11
100.678194
 21
210.400046
 31
0.0
  0
LINE
  5
3B
330
1F
100
AcDbEntity
  8
LC-001-100-D00-0
 62
     7
370
    50
100
AcDbLine
 10
233.921751
 20
210.400046
 30
0.0
 11
233.921751
 21
219.900043
 31
0.0
  0
LINE
  5
3C
330
1F
100
AcDbEntity
  8
LC-001-100-D00-0
 62
     7
370
    50
100
AcDbLine
 10
103.780243
 20
210.400046
 30
0.0
 11
104.299966
 21
210.076408
 31
0.0
  0
LINE
  5
3D
330
1F
100
AcDbEntity
  8
LC-001-100-D00-0
 62
     7
370
    50
100
AcDbLine
 10
230.299972
 20
210.076408
 30
0.0
 11
230.819698
 21
210.400046
 31
0.0
  0
LINE
  5
3E
330
1F
100
AcDbEntity
  8
LC-001-100-D00-0
 62
     7
370
    50
100
AcDbLine
 10
117.799971
 20
301.674605
 30
0.0
 11
118.405957
 21
301.674605
 31
0.0
  0
LINE
  5
3F
330
1F
100
AcDbEntity
  8
LC-001-100-D00-0
 62
     7
370
    50
100
AcDbLine
 10
216.193989
 20
301.674605
 30
0.0
 11
216.799971
 21
301.674605
 31
0.0
  0
LINE
  5
40
330
1F
100
AcDbEntity
  8
LC-001-100-D00-0
 62
     7
370
    50
100
AcDbLine
 10
219.799973
 20
314.918966
 30
0.0
 11
219.799973
 21
315.448971
 31
0.0
  0
LINE
  5
41
330
1F
100
AcDbEntity
  8
LC-001-100-D00-0
 62
     7
370
    50
100
AcDbLine
 10
209.799971
 20
315.448971
 30
0.0
 11
209.799971
 21
314.918966
 31
0.0
  0
LINE
  5
42
330
1F
100
AcDbEntity
  8
LC-001-100-D00-0
 62
     7
370
    50
100
AcDbLine
 10
124.79997
 20
314.918966
 30
0.0
 11
124.79997
 21
315.448971
 31
0.0
  0
LINE
  5
43
330
1F
100
AcDbEntity
  8
LC-001-100-D00-0
 62
     7
370
    50
100
AcDbLine
 10
114.799965
 20
315.448971
 30
0.0
 11
114.799965
 21
314.918966
 31
0.0
  0
LINE
  5
44
330
1F
100
AcDbEntity
  8
LC-001-100-D00-0
 62
     7
370
    50
100
AcDbLine
 10
120.799977
 20
317.918987
 30
0.0
 11
120.799977
 21
316.91897
 31
0.0
  0
LINE
  5
45
330
1F
100
AcDbEntity
  8
LC-001-100-D00-0
 62
     7
370
    50
100
AcDbLine
 10
122.299973
 20
317.918987
 30
0.0
 11
122.299973
 21
316.91897
 31
0.0
  0
LINE
  5
46
330
1F
100
AcDbEntity
  8
LC-001-100-D00-0
 62
     7
370
    50
100
AcDbLine
 10
129.271421
 20
316.91897
 30
0.0
 11
122.299973
 21
316.91897
 31
0.0
  0
LINE
  5
47
330
1F
100
AcDbEntity
  8
LC-001-100-D00-0
 62
     7
370
    50
100
AcDbLine
 10
130.299974
 20
316.91897
 30
0.0
 11
130.299974
 21
317.918987
 31
0.0
  0
LINE
  5
48
330
1F
100
AcDbEntity
  8
LC-001-100-D00-0
 62
     7
370
    50
100
AcDbLine
 10
131.79997
 20
316.91897
 30
0.0
 11
131.79997
 21
317.918987
 31
0.0
  0
LINE
  5
49
330
1F
100
AcDbEntity
  8
LC-001-100-D00-0
 62
     7
370
    50
100
AcDbLine
 10
131.79997
 20
316.91897
 30
0.0
 11
137.299675
 21
316.91897
 31
0.0
  0
LINE
  5
4A
330
1F
100
AcDbEntity
  8
LC-001-100-D00-0
 62
     7
370
    50
100
AcDbLine
 10
197.300266
 20
316.91897
 30
0.0
 11
202.799972
 21
316.91897
 31
0.0
  0
LINE
  5
4B
330
1F
100
AcDbEntity
  8
LC-001-100-D00-0
 62
     7
370
    50
100
AcDbLine
 10
202.799972
 20
317.918987
 30
0.0
 11
202.799972
 21
316.91897
 31
0.0
  0
LINE
  5
4C
330
1F
100
AcDbEntity
  8
LC-001-100-D00-0
 62
     7
370
    50
100
AcDbLine
 10
204.299968
 20
317.918987
 30
0.0
 11
204.299968
 21
316.91897
 31
0.0
  0
LINE
  5
4D
330
1F
100
AcDbEntity
  8
LC-001-100-D00-0
 62
     7
370
    50
100
AcDbLine
 10
213.799972
 20
316.91897
 30
0.0
 11
213.799972
 21
317.918987
 31
0.0
  0
LINE
  5
4E
330
1F
100
AcDbEntity
  8
LC-001-100-D00-0
 62
     7
370
    50
100
AcDbLine
 10
212.299973
 20
316.91897
 30
0.0
 11
212.299973
 21
317.918987
 31
0.0
  0
LINE
  5
4F
330
1F
100
AcDbEntity
  8
LC-001-100-D00-0
 62
     7
370
    50
100
AcDbLine
 10
212.299973
 20
316.91897
 30
0.0
 11
205.32852
 21
316.91897
 31
0.0
  0
ARC
  5
50
330
1F
100
AcDbEntity
  8
LC-001-100-D00-0
 62
     7
370
    50
100
AcDbCircle
 10
120.299971
 20
317.91898
 30
0.0
 40
0.5000000000001137
100
AcDbArc
 50
0.0
 51
90.0
  0
ARC
  5
51
330
1F
100
AcDbEntity
  8
LC-001-100-D00-0
 62
     7
370
    50
100
AcDbCircle
 10
120.299971
 20
317.91898
 30
0.0
 40
2.0
100
AcDbArc
 50
0.0
 51
90.0
  0
LINE
  5
52
330
1F
100
AcDbEntity
  8
LC-001-100-D00-0
 62
     7
370
    50
100
AcDbLine
 10
120.299969
 20
319.918991
 30
0.0
 11
127.581272
 21
319.918991
 31
0.0
  0
ARC
  5
53
330
1F
100
AcDbEntity
  8
LC-001-100-D00-0
 62
     7
370
    50
100
AcDbCircle
 10
132.299971
 20
317.91898
 30
0.0
 40
0.5000000000001137
100
AcDbArc
 50
90.0
 51
180.0
  0
ARC
  5
54
330
1F
100
AcDbEntity
  8
LC-001-100-D00-0
 62
     7
370
    50
100
AcDbCircle
 10
132.299971
 20
317.91898
 30
0.0
 40
2.0
100
AcDbArc
 50
90.0
 51
180.0
  0
ARC
  5
55
330
1F
100
AcDbEntity
  8
LC-001-100-D00-0
 62
     7
370
    50
100
AcDbCircle
 10
202.299971
 20
317.91898
 30
0.0
 40
0.5000000000001137
100
AcDbArc
 50
0.0
 51
90.0
  0
ARC
  5
56
330
1F
100
AcDbEntity
  8
LC-001-100-D00-0
 62
     7
370
    50
100
AcDbCircle
 10
202.299971
 20
317.91898
 30
0.0
 40
2.0
100
AcDbArc
 50
0.0
 51
90.0
  0
ARC
  5
57
330
1F
100
AcDbEntity
  8
LC-001-100-D00-0
 62
     7
370
    50
100
AcDbCircle
 10
214.299971
 20
317.91898
 30
0.0
 40
2.0
100
AcDbArc
 50
90.0
 51
180.0
  0
LINE
  5
58
330
1F
100
AcDbEntity
  8
LC-001-100-D00-0
 62
     7
370
    50
100
AcDbLine
 10
207.018677
 20
319.918991
 30
0.0
 11
214.299973
 21
319.918991
 31
0.0
  0
ARC
  5
59
330
1F
100
AcDbEntity
  8
LC-001-100-D00-0
 62
     7
370
    50
100
AcDbCircle
 10
214.299971
 20
317.91898
 30
0.0
 40
0.5000000000001137
100
AcDbArc
 50
90.0
 51
180.0
  0
ARC
  5
5A
330
1F
100
AcDbEntity
  8
LC-001-100-D00-0
 62
     7
370
    50
100
AcDbCircle
 10
111.799971
 20
317.91898
 30
0.0
 40
0.5000000000001137
100
AcDbArc
 50
90.0
 51
180.0
  0
LINE
  5
5B
330
1F
100
AcDbEntity
  8
LC-001-100-D00-0
 62
     7
370
    50
100
AcDbLine
 10
111.299965
 20
314.918966
 30
0.0
 11
109.79997
 21
314.918966
 31
0.0
  0
LINE
  5
5C
330
1F
100
AcDbEntity
  8
LC-001-100-D00-0
 62
     7
370
    50
100
AcDbLine
 10
109.79997
 20
314.918966
 30
0.0
 11
109.79997
 21
317.918987
 31
0.0
  0
ARC
  5
5D
330
1F
100
AcDbEntity
  8
LC-001-100-D00-0
 62
     7
370
    50
100
AcDbCircle
 10
111.799971
 20
317.91898
 30
0.0
 40
2.0
100
AcDbArc
 50
90.0
 51
180.0
  0
LINE
  5
5E
330
1F
100
AcDbEntity
  8
LC-001-100-D00-0
 62
     7
370
    50
100
AcDbLine
 10
111.299965
 20
314.918966
 30
0.0
 11
111.299965
 21
317.918987
 31
0.0
  0
LINE
  5
5F
330
1F
100
AcDbEntity
  8
LC-001-100-D00-0
 62
     7
370
    50
100
AcDbLine
 10
120.299969
 20
318.418981
 30
0.0
 11
111.799974
 21
318.418981
 31
0.0
  0
LINE
  5
60
330
1F
100
AcDbEntity
  8
LC-001-100-D00-0
 62
     7
370
    50
100
AcDbLine
 10
120.299969
 20
319.918991
 30
0.0
 11
111.799974
 21
319.918991
 31
0.0
  0
LINE
  5
61
330
1F
100
AcDbEntity
  8
LC-001-100-D00-0
 62
     7
370
    50
100
AcDbLine
 10
120.799977
 20
316.91897
 30
0.0
 11
122.299973
 21
316.91897
 31
0.0
  0
LINE
  5
62
330
1F
100
AcDbEntity
  8
LC-001-100-D00-0
 62
     7
370
    50
100
AcDbLine
 10
168.256473
 20
319.818975
 30
0.0
 11
168.256473
 21
319.918991
 31
0.0
  0
LINE
  5
63
330
1F
100
AcDbEntity
  8
LC-001-100-D00-0
 62
     7
370
    50
100
AcDbLine
 10
169.299919
 20
319.818975
 30
0.0
 11
168.256473
 21
319.818975
 31
0.0
  0
LINE
  5
64
330
1F
100
AcDbEntity
  8
LC-001-100-D00-0
 62
     7
370
    50
100
AcDbLine
 10
169.299919
 20
319.818975
 30
0.0
 11
169.299919
 21
319.918991
 31
0.0
  0
LINE
  5
65
330
1F
100
AcDbEntity
  8
LC-001-100-D00-0
 62
     7
370
    50
100
AcDbLine
 10
202.299971
 20
318.418981
 30
0.0
 11
132.299978
 21
318.418981
 31
0.0
  0
LINE
  5
66
330
1F
100
AcDbEntity
  8
LC-001-100-D00-0
 62
     7
370
    50
100
AcDbLine
 10
202.299971
 20
319.918991
 30
0.0
 11
169.299919
 21
319.918991
 31
0.0
  0
LINE
  5
67
330
1F
100
AcDbEntity
  8
LC-001-100-D00-0
 62
     7
370
    50
100
AcDbLine
 10
168.256473
 20
319.918991
 30
0.0
 11
132.299978
 21
319.918991
 31
0.0
  0
LINE
  5
68
330
1F
100
AcDbEntity
  8
LC-001-100-D00-0
 62
     7
370
    50
100
AcDbLine
 10
202.799972
 20
316.91897
 30
0.0
 11
204.299968
 21
316.91897
 31
0.0
  0
LINE
  5
69
330
1F
100
AcDbEntity
  8
LC-001-100-D00-0
 62
     7
370
    50
100
AcDbLine
 10
130.299974
 20
316.91897
 30
0.0
 11
131.79997
 21
316.91897
 31
0.0
  0
LINE
  5
6A
330
1F
100
AcDbEntity
  8
LC-001-100-D00-0
 62
     7
370
    50
100
AcDbLine
 10
223.299973
 20
317.918987
 30
0.0
 11
223.299973
 21
314.918966
 31
0.0
  0
ARC
  5
6B
330
1F
100
AcDbEntity
  8
LC-001-100-D00-0
 62
     7
370
    50
100
AcDbCircle
 10
222.799971
 20
317.91898
 30
0.0
 40
0.5000000000001137
100
AcDbArc
 50
0.0
 51
90.0
  0
ARC
  5
6C
330
1F
100
AcDbEntity
  8
LC-001-100-D00-0
 62
     7
370
    50
100
AcDbCircle
 10
222.799971
 20
317.91898
 30
0.0
 40
2.0
100
AcDbArc
 50
0.0
 51
90.0
  0
LINE
  5
6D
330
1F
100
AcDbEntity
  8
LC-001-100-D00-0
 62
     7
370
    50
100
AcDbLine
 10
224.799972
 20
317.918987
 30
0.0
 11
224.799972
 21
314.918966
 31
0.0
  0
LINE
  5
6E
330
1F
100
AcDbEntity
  8
LC-001-100-D00-0
 62
     7
370
    50
100
AcDbLine
 10
224.799972
 20
314.918966
 30
0.0
 11
223.299973
 21
314.918966
 31
0.0
  0
LINE
  5
6F
330
1F
100
AcDbEntity
  8
LC-001-100-D00-0
 62
     7
370
    50
100
AcDbLine
 10
222.799972
 20
318.418981
 30
0.0
 11
214.299973
 21
318.418981
 31
0.0
  0
LINE
  5
70
330
1F
100
AcDbEntity
  8
LC-001-100-D00-0
 62
     7
370
    50
100
AcDbLine
 10
222.799972
 20
319.918991
 30
0.0
 11
214.299973
 21
319.918991
 31
0.0
  0
LINE
  5
71
330
1F
100
AcDbEntity
  8
LC-001-100-D00-0
 62
     7
370
    50
100
AcDbLine
 10
212.299973
 20
316.91897
 30
0.0
 11
213.799972
 21
316.91897
 31
0.0
  0
LINE
  5
72
330
1F
100
AcDbEntity
  8
LC-001-100-D00-0
 62
     7
370
    50
100
AcDbLine
 10
168.256473
 20
319.918991
 30
0.0
 11
169.299919
 21
319.918991
 31
0.0
  0
INSERT
  5
82
330
1F
100
AcDbEntity
  8
LC-001-100-D00-0
 62
     7
370
    50
100
AcDbBlockReference
  2
POLY1
 10
0.0
 20
0.0
 30
0.0
  0
INSERT
  5
90
330
1F
100
AcDbEntity
  8
LC-001-100-D00-0
 62
     7
370
    50
100
AcDbBlockReference
  2
POLY2
 10
0.0
 20
0.0
 30
0.0
  0
INSERT
  5
9E
330
1F
100
AcDbEntity
  8
LC-001-100-D00-0
 62
     7
370
    50
100
AcDbBlockReference
  2
POLY3
 10
0.0
 20
0.0
 30
0.0
  0
INSERT
  5
AA
330
1F
100
AcDbEntity
  8
LC-001-100-D00-0
 62
     7
370
    50
100
AcDbBlockReference
  2
POLY4
 10
0.0
 20
0.0
 30
0.0
  0
LINE
  5
AB
330
1F
100
AcDbEntity
  8
LC-001-100-D00-0
 62
     7
370
    50
100
AcDbLine
 10
205.32852
 20
316.91897
 30
0.0
 11
204.474982
 21
316.91897
 31
0.0
  0
INSERT
  5
B7
330
1F
100
AcDbEntity
  8
LC-001-100-D00-0
 62
     7
370
    50
100
AcDbBlockReference
  2
POLY5
 10
0.0
 20
0.0
 30
0.0
  0
INSERT
  5
CD
330
1F
100
AcDbEntity
  8
LC-001-100-D00-0
 62
     7
370
    50
100
AcDbBlockReference
  2
POLY6
 10
0.0
 20
0.0
 30
0.0
  0
INSERT
  5
E5
330
1F
100
AcDbEntity
  8
LC-001-100-D00-0
 62
     7
370
    50
100
AcDbBlockReference
  2
POLY7
 10
0.0
 20
0.0
 30
0.0
  0
LINE
  5
E6
330
1F
100
AcDbEntity
  8
LC-001-100-D00-0
 62
     7
370
    50
100
AcDbLine
 10
148.320187
 20
316.91897
 30
0.0
 11
186.279755
 21
316.91897
 31
0.0
  0
LINE
  5
E7
330
1F
100
AcDbEntity
  8
LC-001-100-D00-0
 62
     7
370
    50
100
AcDbLine
 10
174.799975
 20
314.918966
 30
0.0
 11
159.799974
 21
314.918966
 31
0.0
  0
LINE
  5
E8
330
1F
100
AcDbEntity
  8
LC-001-100-D00-0
 62
     7
370
    50
100
AcDbLine
 10
222.612668
 20
313.684316
 30
0.0
 11
223.93604
 21
314.218969
 31
0.0
  0
LINE
  5
E9
330
1F
100
AcDbEntity
  8
LC-001-100-D00-0
 62
     7
370
    50
100
AcDbLine
 10
110.663909
 20
314.218969
 30
0.0
 11
111.987281
 21
313.684316
 31
0.0
  0
LINE
  5
EA
330
1F
100
AcDbEntity
  8
LC-001-100-D00-0
 62
     7
370
    50
100
AcDbLine
 10
108.599964
 20
319.418968
 30
0.0
 11
108.599964
 21
315.41899
 31
0.0
  0
LINE
  5
EB
330
1F
100
AcDbEntity
  8
LC-001-100-D00-0
 62
     7
370
    50
100
AcDbLine
 10
110.799972
 20
314.918966
 30
0.0
 11
109.79997
 21
314.918966
 31
0.0
  0
LINE
  5
EC
330
1F
100
AcDbEntity
  8
LC-001-100-D00-0
 62
     7
370
    50
100
AcDbLine
 10
112.249497
 20
314.333321
 30
0.0
 11
110.799972
 21
314.918966
 31
0.0
  0
ARC
  5
ED
330
1F
100
AcDbEntity
  8
LC-001-100-D00-0
 62
     7
370
    50
100
AcDbCircle
 10
111.799971
 20
313.220712
 30
0.0
 40
1.199999496720068
100
AcDbArc
 50
0.0
 51
67.999977
  0
LINE
  5
EE
330
1F
100
AcDbEntity
  8
LC-001-100-D00-0
 62
     7
370
    50
100
AcDbLine
 10
112.999964
 20
312.174589
 30
0.0
 11
112.999964
 21
313.220711
 31
0.0
  0
ARC
  5
EF
330
1F
100
AcDbEntity
  8
LC-001-100-D00-0
 62
     7
370
    50
100
AcDbCircle
 10
113.499971
 20
312.174594
 30
0.0
 40
0.5
100
AcDbArc
 50
180.0
 51
270.0
  0
LINE
  5
F0
330
1F
100
AcDbEntity
  8
LC-001-100-D00-0
 62
     7
370
    50
100
AcDbLine
 10
115.09997
 20
311.674596
 30
0.0
 11
113.499973
 21
311.674596
 31
0.0
  0
ARC
  5
F1
330
1F
100
AcDbEntity
  8
LC-001-100-D00-0
 62
     7
370
    50
100
AcDbCircle
 10
115.09997
 20
310.474594
 30
0.0
 40
1.199999496720125
100
AcDbArc
 50
0.0
 51
90.0
  0
LINE
  5
F2
330
1F
100
AcDbEntity
  8
LC-001-100-D00-0
 62
     7
370
    50
100
AcDbLine
 10
116.299976
 20
305.646421
 30
0.0
 11
116.299976
 21
310.474605
 31
0.0
  0
LINE
  5
F3
330
1F
100
AcDbEntity
  8
LC-001-100-D00-0
 62
     7
370
    50
100
AcDbLine
 10
116.236243
 20
305.646421
 30
0.0
 11
116.299976
 21
305.646421
 31
0.0
  0
ARC
  5
F4
330
1F
100
AcDbEntity
  8
LC-001-100-D00-0
 62
     7
370
    50
100
AcDbCircle
 10
116.23625
 20
305.346408
 30
0.0
 40
0.3000000000000682
100
AcDbArc
 50
90.0
 51
199.999991
  0
LINE
  5
F5
330
1F
100
AcDbEntity
  8
LC-001-100-D00-0
 62
     7
370
    50
100
AcDbLine
 10
117.02149
 20
302.311869
 30
0.0
 11
115.954343
 21
305.243791
 31
0.0
  0
LINE
  5
F6
330
1F
100
AcDbEntity
  8
LC-001-100-D00-0
 62
     7
370
    50
100
AcDbLine
 10
116.359491
 20
302.070917
 30
0.0
 11
117.02149
 21
302.311869
 31
0.0
  0
LINE
  5
F7
330
1F
100
AcDbEntity
  8
LC-001-100-D00-0
 62
     7
370
    50
100
AcDbLine
 10
115.306977
 20
304.962666
 30
0.0
 11
116.359491
 21
302.070917
 31
0.0
  0
ARC
  5
F8
330
1F
100
AcDbEntity
  8
LC-001-100-D00-0
 62
     7
370
    50
100
AcDbCircle
 10
116.340637
 20
305.338887
 30
0.0
 40
1.100000000000067
100
AcDbArc
 50
132.324871
 51
200.000004
  0
LINE
  5
F9
330
1F
100
AcDbEntity
  8
LC-001-100-D00-0
 62
     7
370
    50
100
AcDbLine
 10
115.599964
 20
310.474605
 30
0.0
 11
115.599964
 21
306.152166
 31
0.0
  0
ARC
  5
FA
330
1F
100
AcDbEntity
  8
LC-001-100-D00-0
 62
     7
370
    50
100
AcDbCircle
 10
115.09997
 20
310.474594
 30
0.0
 40
0.5
100
AcDbArc
 50
0.0
 51
90.0
  0
LINE
  5
FB
330
1F
100
AcDbEntity
  8
LC-001-100-D00-0
 62
     7
370
    50
100
AcDbLine
 10
113.499973
 20
310.974599
 30
0.0
 11
115.09997
 21
310.974599
 31
0.0
  0
ARC
  5
FC
330
1F
100
AcDbEntity
  8
LC-001-100-D00-0
 62
     7
370
    50
100
AcDbCircle
 10
113.499971
 20
312.174594
 30
0.0
 40
1.199999496720238
100
AcDbArc
 50
180.0
 51
270.0
  0
LINE
  5
FD
330
1F
100
AcDbEntity
  8
LC-001-100-D00-0
 62
     7
370
    50
100
AcDbLine
 10
112.299967
 20
313.220711
 30
0.0
 11
112.299967
 21
312.174589
 31
0.0
  0
ARC
  5
FE
330
1F
100
AcDbEntity
  8
LC-001-100-D00-0
 62
     7
370
    50
100
AcDbCircle
 10
111.799971
 20
313.220712
 30
0.0
 40
0.5
100
AcDbArc
 50
0.0
 51
68.000007
  0
ARC
  5
FF
330
1F
100
AcDbEntity
  8
LC-001-100-D00-0
 62
     7
370
    50
100
AcDbCircle
 10
108.299971
 20
319.41898
 30
0.0
 40
1.0
100
AcDbArc
 50
0.0
 51
90.0
  0
ARC
  5
100
330
1F
100
AcDbEntity
  8
LC-001-100-D00-0
 62
     7
370
    50
100
AcDbCircle
 10
108.299971
 20
319.41898
 30
0.0
 40
0.3000000000000114
100
AcDbArc
 50
0.0
 51
90.0
  0
ARC
  5
101
330
1F
100
AcDbEntity
  8
LC-001-100-D00-0
 62
     7
370
    50
100
AcDbCircle
 10
109.799971
 20
315.41898
 30
0.0
 40
1.200000000000046
100
AcDbArc
 50
180.0
 51
270.0
  0
ARC
  5
102
330
1F
100
AcDbEntity
  8
LC-001-100-D00-0
 62
     7
370
    50
100
AcDbCircle
 10
107.799971
 20
319.41898
 30
0.0
 40
1.0
100
AcDbArc
 50
90.0
 51
180.0
  0
ARC
  5
103
330
1F
100
AcDbEntity
  8
LC-001-100-D00-0
 62
     7
370
    50
100
AcDbCircle
 10
109.799971
 20
315.41898
 30
0.0
 40
0.5000000000001137
100
AcDbArc
 50
180.0
 51
270.0
  0
LINE
  5
104
330
1F
100
AcDbEntity
  8
LC-001-100-D00-0
 62
     7
370
    50
100
AcDbLine
 10
106.799964
 20
318.418981
 30
0.0
 11
107.499976
 21
318.418981
 31
0.0
  0
ARC
  5
105
330
1F
100
AcDbEntity
  8
LC-001-100-D00-0
 62
     7
370
    50
100
AcDbCircle
 10
107.799971
 20
319.41898
 30
0.0
 40
0.3000000000000682
100
AcDbArc
 50
90.0
 51
180.0
  0
LINE
  5
106
330
1F
100
AcDbEntity
  8
LC-001-100-D00-0
 62
     7
370
    50
100
AcDbLine
 10
107.499976
 20
318.418981
 30
0.0
 11
107.499976
 21
319.418968
 31
0.0
  0
LINE
  5
107
330
1F
100
AcDbEntity
  8
LC-001-100-D00-0
 62
     7
370
    50
100
AcDbLine
 10
106.799964
 20
319.418968
 30
0.0
 11
106.799964
 21
318.418981
 31
0.0
  0
LINE
  5
108
330
1F
100
AcDbEntity
  8
LC-001-100-D00-0
 62
     7
370
    50
100
AcDbLine
 10
107.799966
 20
320.418985
 30
0.0
 11
108.299974
 21
320.418985
 31
0.0
  0
LINE
  5
109
330
1F
100
AcDbEntity
  8
LC-001-100-D00-0
 62
     7
370
    50
100
AcDbLine
 10
109.299976
 20
319.418968
 30
0.0
 11
109.299976
 21
315.41899
 31
0.0
  0
LINE
  5
10A
330
1F
100
AcDbEntity
  8
LC-001-100-D00-0
 62
     7
370
    50
100
AcDbLine
 10
108.299974
 20
319.718988
 30
0.0
 11
107.799966
 21
319.718988
 31
0.0
  0
LINE
  5
10B
330
1F
100
AcDbEntity
  8
LC-001-100-D00-0
 62
     7
370
    50
100
AcDbLine
 10
110.663909
 20
314.218969
 30
0.0
 11
109.79997
 21
314.218969
 31
0.0
  0
LINE
  5
10C
330
1F
100
AcDbEntity
  8
LC-001-100-D00-0
 62
     7
370
    50
100
AcDbLine
 10
223.299973
 20
314.918966
 30
0.0
 11
174.799975
 21
314.918966
 31
0.0
  0
LINE
  5
10D
330
1F
100
AcDbEntity
  8
LC-001-100-D00-0
 62
     7
370
    50
100
AcDbLine
 10
159.799974
 20
314.918966
 30
0.0
 11
111.299965
 21
314.918966
 31
0.0
  0
LINE
  5
10E
330
1F
100
AcDbEntity
  8
LC-001-100-D00-0
 62
     7
370
    50
100
AcDbLine
 10
223.79997
 20
314.918966
 30
0.0
 11
222.350441
 21
314.333321
 31
0.0
  0
LINE
  5
10F
330
1F
100
AcDbEntity
  8
LC-001-100-D00-0
 62
     7
370
    50
100
AcDbLine
 10
218.645599
 20
305.243791
 30
0.0
 11
217.578459
 21
302.311869
 31
0.0
  0
LINE
  5
110
330
1F
100
AcDbEntity
  8
LC-001-100-D00-0
 62
     7
370
    50
100
AcDbLine
 10
218.240455
 20
302.070917
 30
0.0
 11
218.150716
 21
302.070917
 31
0.0
  0
LINE
  5
111
330
1F
100
AcDbEntity
  8
LC-001-100-D00-0
 62
     7
370
    50
100
AcDbLine
 10
116.449226
 20
302.070917
 30
0.0
 11
116.359491
 21
302.070917
 31
0.0
  0
LINE
  5
112
330
1F
100
AcDbEntity
  8
LC-001-100-D00-0
 62
     7
370
    50
100
AcDbLine
 10
218.240455
 20
302.070917
 30
0.0
 11
219.292968
 21
304.962666
 31
0.0
  0
ARC
  5
113
330
1F
100
AcDbEntity
  8
LC-001-100-D00-0
 62
     7
370
    50
100
AcDbCircle
 10
221.099971
 20
312.174594
 30
0.0
 40
0.5
100
AcDbArc
 50
270.0
 51
0.0
  0
LINE
  5
114
330
1F
100
AcDbEntity
  8
LC-001-100-D00-0
 62
     7
370
    50
100
AcDbLine
 10
217.578459
 20
302.311869
 30
0.0
 11
218.240455
 21
302.070917
 31
0.0
  0
ARC
  5
115
330
1F
100
AcDbEntity
  8
LC-001-100-D00-0
 62
     7
370
    50
100
AcDbCircle
 10
222.799971
 20
313.220712
 30
0.0
 40
1.199999496720021
100
AcDbArc
 50
112.000023
 51
180.0
  0
LINE
  5
116
330
1F
100
AcDbEntity
  8
LC-001-100-D00-0
 62
     7
370
    50
100
AcDbLine
 10
222.299971
 20
312.174589
 30
0.0
 11
222.299971
 21
313.220711
 31
0.0
  0
ARC
  5
117
330
1F
100
AcDbEntity
  8
LC-001-100-D00-0
 62
     7
370
    50
100
AcDbCircle
 10
218.259305
 20
305.338887
 30
0.0
 40
1.100000000000014
100
AcDbArc
 50
339.999996
 51
47.675129
  0
ARC
  5
118
330
1F
100
AcDbEntity
  8
LC-001-100-D00-0
 62
     7
370
    50
100
AcDbCircle
 10
219.499972
 20
310.474594
 30
0.0
 40
1.199999496720125
100
AcDbArc
 50
90.0
 51
180.0
  0
LINE
  5
119
330
1F
100
AcDbEntity
  8
LC-001-100-D00-0
 62
     7
370
    50
100
AcDbLine
 10
218.299974
 20
310.474605
 30
0.0
 11
218.299974
 21
305.646421
 31
0.0
  0
LINE
  5
11A
330
1F
100
AcDbEntity
  8
LC-001-100-D00-0
 62
     7
370
    50
100
AcDbLine
 10
221.59997
 20
313.220711
 30
0.0
 11
221.59997
 21
312.174589
 31
0.0
  0
ARC
  5
11B
330
1F
100
AcDbEntity
  8
LC-001-100-D00-0
 62
     7
370
    50
100
AcDbCircle
 10
218.363693
 20
305.346408
 30
0.0
 40
0.3000000000000402
100
AcDbArc
 50
340.000009
 51
90.0
  0
LINE
  5
11C
330
1F
100
AcDbEntity
  8
LC-001-100-D00-0
 62
     7
370
    50
100
AcDbLine
 10
218.999971
 20
306.152166
 30
0.0
 11
218.999971
 21
310.474605
 31
0.0
  0
ARC
  5
11D
330
1F
100
AcDbEntity
  8
LC-001-100-D00-0
 62
     7
370
    50
100
AcDbCircle
 10
219.499972
 20
310.474594
 30
0.0
 40
0.4999999999998863
100
AcDbArc
 50
90.0
 51
180.0
  0
ARC
  5
11E
330
1F
100
AcDbEntity
  8
LC-001-100-D00-0
 62
     7
370
    50
100
AcDbCircle
 10
221.099971
 20
312.174594
 30
0.0
 40
1.199999496720238
100
AcDbArc
 50
270.0
 51
0.0
  0
ARC
  5
11F
330
1F
100
AcDbEntity
  8
LC-001-100-D00-0
 62
     7
370
    50
100
AcDbCircle
 10
222.799971
 20
313.220712
 30
0.0
 40
0.4999999999999086
100
AcDbArc
 50
111.999993
 51
180.0
  0
ARC
  5
120
330
1F
100
AcDbEntity
  8
LC-001-100-D00-0
 62
     7
370
    50
100
AcDbCircle
 10
224.799971
 20
315.41898
 30
0.0
 40
0.5000000000001137
100
AcDbArc
 50
270.0
 51
0.0
  0
LINE
  5
121
330
1F
100
AcDbEntity
  8
LC-001-100-D00-0
 62
     7
370
    50
100
AcDbLine
 10
225.299973
 20
315.41899
 30
0.0
 11
225.299973
 21
319.418968
 31
0.0
  0
ARC
  5
122
330
1F
100
AcDbEntity
  8
LC-001-100-D00-0
 62
     7
370
    50
100
AcDbCircle
 10
226.299971
 20
319.41898
 30
0.0
 40
1.0
100
AcDbArc
 50
90.0
 51
180.0
  0
ARC
  5
123
330
1F
100
AcDbEntity
  8
LC-001-100-D00-0
 62
     7
370
    50
100
AcDbCircle
 10
226.799971
 20
319.41898
 30
0.0
 40
1.0
100
AcDbArc
 50
0.0
 51
90.0
  0
LINE
  5
124
330
1F
100
AcDbEntity
  8
LC-001-100-D00-0
 62
     7
370
    50
100
AcDbLine
 10
227.799971
 20
318.418981
 30
0.0
 11
227.799971
 21
319.418968
 31
0.0
  0
LINE
  5
125
330
1F
100
AcDbEntity
  8
LC-001-100-D00-0
 62
     7
370
    50
100
AcDbLine
 10
227.09997
 20
319.418968
 30
0.0
 11
227.09997
 21
318.418981
 31
0.0
  0
ARC
  5
126
330
1F
100
AcDbEntity
  8
LC-001-100-D00-0
 62
     7
370
    50
100
AcDbCircle
 10
226.799971
 20
319.41898
 30
0.0
 40
0.3000000000000682
100
AcDbArc
 50
0.0
 51
90.0
  0
ARC
  5
127
330
1F
100
AcDbEntity
  8
LC-001-100-D00-0
 62
     7
370
    50
100
AcDbCircle
 10
226.299971
 20
319.41898
 30
0.0
 40
0.2999999999999545
100
AcDbArc
 50
90.0
 51
180.0
  0
LINE
  5
128
330
1F
100
AcDbEntity
  8
LC-001-100-D00-0
 62
     7
370
    50
100
AcDbLine
 10
225.99997
 20
315.41899
 30
0.0
 11
225.99997
 21
319.418968
 31
0.0
  0
ARC
  5
129
330
1F
100
AcDbEntity
  8
LC-001-100-D00-0
 62
     7
370
    50
100
AcDbCircle
 10
224.799971
 20
315.41898
 30
0.0
 40
1.200000000000046
100
AcDbArc
 50
270.0
 51
0.0
  0
LINE
  5
12A
330
1F
100
AcDbEntity
  8
LC-001-100-D00-0
 62
     7
370
    50
100
AcDbLine
 10
219.499972
 20
310.974599
 30
0.0
 11
221.099973
 21
310.974599
 31
0.0
  0
LINE
  5
12B
330
1F
100
AcDbEntity
  8
LC-001-100-D00-0
 62
     7
370
    50
100
AcDbLine
 10
218.299974
 20
305.646421
 30
0.0
 11
218.363691
 21
305.646421
 31
0.0
  0
LINE
  5
12C
330
1F
100
AcDbEntity
  8
LC-001-100-D00-0
 62
     7
370
    50
100
AcDbLine
 10
221.099973
 20
311.674596
 30
0.0
 11
219.499972
 21
311.674596
 31
0.0
  0
LINE
  5
12D
330
1F
100
AcDbEntity
  8
LC-001-100-D00-0
 62
     7
370
    50
100
AcDbLine
 10
224.799972
 20
314.918966
 30
0.0
 11
223.79997
 21
314.918966
 31
0.0
  0
LINE
  5
12E
330
1F
100
AcDbEntity
  8
LC-001-100-D00-0
 62
     7
370
    50
100
AcDbLine
 10
227.09997
 20
318.418981
 30
0.0
 11
227.799971
 21
318.418981
 31
0.0
  0
LINE
  5
12F
330
1F
100
AcDbEntity
  8
LC-001-100-D00-0
 62
     7
370
    50
100
AcDbLine
 10
226.299971
 20
320.418985
 30
0.0
 11
226.799972
 21
320.418985
 31
0.0
  0
LINE
  5
130
330
1F
100
AcDbEntity
  8
LC-001-100-D00-0
 62
     7
370
    50
100
AcDbLine
 10
226.799972
 20
319.718988
 30
0.0
 11
226.299971
 21
319.718988
 31
0.0
  0
LINE
  5
131
330
1F
100
AcDbEntity
  8
LC-001-100-D00-0
 62
     7
370
    50
100
AcDbLine
 10
224.799972
 20
314.218969
 30
0.0
 11
223.93604
 21
314.218969
 31
0.0
  0
LINE
  5
132
330
1F
100
AcDbEntity
  8
LC-001-100-D00-0
 62
     7
370
    50
100
AcDbLine
 10
107.499976
 20
318.418981
 30
0.0
 11
108.599964
 21
318.418981
 31
0.0
  0
LINE
  5
133
330
1F
100
AcDbEntity
  8
LC-001-100-D00-0
 62
     7
370
    50
100
AcDbLine
 10
108.299974
 20
320.418985
 30
0.0
 11
111.299965
 21
320.418985
 31
0.0
  0
LINE
  5
134
330
1F
100
AcDbEntity
  8
LC-001-100-D00-0
 62
     7
370
    50
100
AcDbLine
 10
223.299973
 20
320.418985
 30
0.0
 11
226.299971
 21
320.418985
 31
0.0
  0
LINE
  5
135
330
1F
100
AcDbEntity
  8
LC-001-100-D00-0
 62
     7
370
    50
100
AcDbLine
 10
225.99997
 20
318.418981
 30
0.0
 11
227.09997
 21
318.418981
 31
0.0
  0
LINE
  5
136
330
1F
100
AcDbEntity
  8
LC-001-100-D00-0
 62
     7
370
    50
100
AcDbLine
 10
111.299965
 20
320.418985
 30
0.0
 11
223.299973
 21
320.418985
 31
0.0
  0
LINE
  5
137
330
1F
100
AcDbEntity
  8
LC-001-100-D00-0
 62
     7
370
    50
100
AcDbLine
 10
114.799965
 20
205.974595
 30
0.0
 11
114.799965
 21
310.974599
 31
0.0
  0
LINE
  5
138
330
1F
100
AcDbEntity
  8
LC-001-100-D00-0
 62
     7
370
    50
100
AcDbLine
 10
219.799973
 20
310.974599
 30
0.0
 11
219.799973
 21
205.974595
 31
0.0
  0
LINE
  5
139
330
1F
100
AcDbEntity
  8
LC-001-100-D00-0
 62
     7
370
    50
100
AcDbLine
 10
112.299967
 20
200.9746
 30
0.0
 11
112.299967
 21
308.974595
 31
0.0
  0
LINE
  5
13A
330
1F
100
AcDbEntity
  8
LC-001-100-D00-0
 62
     7
370
    50
100
AcDbLine
 10
222.299971
 20
308.974595
 30
0.0
 11
222.299971
 21
200.9746
 31
0.0
  0
LINE
  5
13B
330
1F
100
AcDbEntity
  8
LC-001-100-D00-0
 62
     7
370
    50
100
AcDbLine
 10
114.799965
 20
205.974595
 30
0.0
 11
115.299973
 21
205.974595
 31
0.0
  0
LINE
  5
13C
330
1F
100
AcDbEntity
  8
LC-001-100-D00-0
 62
     7
370
    50
100
AcDbLine
 10
115.299973
 20
205.974595
 30
0.0
 11
115.299973
 21
203.974591
 31
0.0
  0
LINE
  5
13D
330
1F
100
AcDbEntity
  8
LC-001-100-D00-0
 62
     7
370
    50
100
AcDbLine
 10
114.299971
 20
202.974589
 30
0.0
 11
115.299973
 21
203.974591
 31
0.0
  0
LINE
  5
13E
330
1F
100
AcDbEntity
  8
LC-001-100-D00-0
 62
     7
370
    50
100
AcDbLine
 10
113.849971
 20
202.974589
 30
0.0
 11
114.299971
 21
202.974589
 31
0.0
  0
ARC
  5
13F
330
1F
100
AcDbEntity
  8
LC-001-100-D00-0
 62
     7
370
    50
100
AcDbCircle
 10
113.849971
 20
202.674594
 30
0.0
 40
0.3000000000000682
100
AcDbArc
 50
90.0
 51
180.0
  0
LINE
  5
140
330
1F
100
AcDbEntity
  8
LC-001-100-D00-0
 62
     7
370
    50
100
AcDbLine
 10
113.549966
 20
202.674599
 30
0.0
 11
113.549966
 21
200.9746
 31
0.0
  0
LINE
  5
141
330
1F
100
AcDbEntity
  8
LC-001-100-D00-0
 62
     7
370
    50
100
AcDbLine
 10
113.549966
 20
200.9746
 30
0.0
 11
112.299967
 21
200.9746
 31
0.0
  0
LINE
  5
142
330
1F
100
AcDbEntity
  8
LC-001-100-D00-0
 62
     7
370
    50
100
AcDbLine
 10
112.835873
 20
310.974599
 30
0.0
 11
112.299967
 21
308.974595
 31
0.0
  0
LINE
  5
143
330
1F
100
AcDbEntity
  8
LC-001-100-D00-0
 62
     7
370
    50
100
AcDbLine
 10
114.799965
 20
310.974599
 30
0.0
 11
112.835873
 21
310.974599
 31
0.0
  0
LINE
  5
144
330
1F
100
AcDbEntity
  8
LC-001-100-D00-0
 62
     7
370
    50
100
AcDbLine
 10
221.049972
 20
200.9746
 30
0.0
 11
221.049972
 21
202.674599
 31
0.0
  0
LINE
  5
145
330
1F
100
AcDbEntity
  8
LC-001-100-D00-0
 62
     7
370
    50
100
AcDbLine
 10
222.299971
 20
308.974595
 30
0.0
 11
221.764073
 21
310.974599
 31
0.0
  0
LINE
  5
146
330
1F
100
AcDbEntity
  8
LC-001-100-D00-0
 62
     7
370
    50
100
AcDbLine
 10
220.29997
 20
202.974589
 30
0.0
 11
219.299972
 21
202.974589
 31
0.0
  0
LINE
  5
147
330
1F
100
AcDbEntity
  8
LC-001-100-D00-0
 62
     7
370
    50
100
AcDbLine
 10
115.299973
 20
202.974589
 30
0.0
 11
114.299971
 21
202.974589
 31
0.0
  0
LINE
  5
148
330
1F
100
AcDbEntity
  8
LC-001-100-D00-0
 62
     7
370
    50
100
AcDbLine
 10
219.299972
 20
203.974591
 30
0.0
 11
220.29997
 21
202.974589
 31
0.0
  0
LINE
  5
149
330
1F
100
AcDbEntity
  8
LC-001-100-D00-0
 62
     7
370
    50
100
AcDbLine
 10
219.299972
 20
203.974591
 30
0.0
 11
219.299972
 21
205.974595
 31
0.0
  0
ARC
  5
14A
330
1F
100
AcDbEntity
  8
LC-001-100-D00-0
 62
     7
370
    50
100
AcDbCircle
 10
220.749971
 20
202.674594
 30
0.0
 40
0.3000000000000682
100
AcDbArc
 50
0.0
 51
90.0
  0
LINE
  5
14B
330
1F
100
AcDbEntity
  8
LC-001-100-D00-0
 62
     7
370
    50
100
AcDbLine
 10
222.299971
 20
200.9746
 30
0.0
 11
221.049972
 21
200.9746
 31
0.0
  0
LINE
  5
14C
330
1F
100
AcDbEntity
  8
LC-001-100-D00-0
 62
     7
370
    50
100
AcDbLine
 10
219.299972
 20
205.974595
 30
0.0
 11
219.799973
 21
205.974595
 31
0.0
  0
LINE
  5
14D
330
1F
100
AcDbEntity
  8
LC-001-100-D00-0
 62
     7
370
    50
100
AcDbLine
 10
220.29997
 20
202.974589
 30
0.0
 11
220.74997
 21
202.974589
 31
0.0
  0
LINE
  5
14E
330
1F
100
AcDbEntity
  8
LC-001-100-D00-0
 62
     7
370
    50
100
AcDbLine
 10
221.764073
 20
310.974599
 30
0.0
 11
219.799973
 21
310.974599
 31
0.0
  0
ARC
  5
14F
330
1F
100
AcDbEntity
  8
LC-001-100-D00-0
 62
     7
370
    50
100
AcDbCircle
 10
115.299971
 20
201.474594
 30
0.0
 40
2.0
100
AcDbArc
 50
270.0
 51
0.0
  0
LINE
  5
150
330
1F
100
AcDbEntity
  8
LC-001-100-D00-0
 62
     7
370
    50
100
AcDbLine
 10
109.299976
 20
199.474589
 30
0.0
 11
115.299973
 21
199.474589
 31
0.0
  0
ARC
  5
151
330
1F
100
AcDbEntity
  8
LC-001-100-D00-0
 62
     7
370
    50
100
AcDbCircle
 10
109.299971
 20
201.474594
 30
0.0
 40
2.0
100
AcDbArc
 50
180.0
 51
270.0
  0
LINE
  5
152
330
1F
100
AcDbEntity
  8
LC-001-100-D00-0
 62
     7
370
    50
100
AcDbLine
 10
107.299972
 20
227.23964
 30
0.0
 11
107.299972
 21
217.239634
 31
0.0
  0
LINE
  5
153
330
1F
100
AcDbEntity
  8
LC-001-100-D00-0
 62
     7
370
    50
100
AcDbLine
 10
112.299967
 20
211.474599
 30
0.0
 11
107.299972
 21
211.474599
 31
0.0
  0
LINE
  5
154
330
1F
100
AcDbEntity
  8
LC-001-100-D00-0
 62
     7
370
    50
100
AcDbLine
 10
112.299967
 20
200.9746
 30
0.0
 11
112.299967
 21
211.474599
 31
0.0
  0
LINE
  5
155
330
1F
100
AcDbEntity
  8
LC-001-100-D00-0
 62
     7
370
    50
100
AcDbLine
 10
115.299973
 20
200.9746
 30
0.0
 11
112.299967
 21
200.9746
 31
0.0
  0
LINE
  5
156
330
1F
100
AcDbEntity
  8
LC-001-100-D00-0
 62
     7
370
    50
100
AcDbLine
 10
115.299973
 20
211.474599
 30
0.0
 11
115.299973
 21
200.9746
 31
0.0
  0
LINE
  5
157
330
1F
100
AcDbEntity
  8
LC-001-100-D00-0
 62
     7
370
    50
100
AcDbLine
 10
117.299978
 20
211.474599
 30
0.0
 11
115.299973
 21
211.474599
 31
0.0
  0
LINE
  5
158
330
1F
100
AcDbEntity
  8
LC-001-100-D00-0
 62
     7
370
    50
100
AcDbLine
 10
117.299978
 20
201.474593
 30
0.0
 11
117.299978
 21
211.474599
 31
0.0
  0
LINE
  5
159
330
1F
100
AcDbEntity
  8
LC-001-100-D00-0
 62
     7
370
    50
100
AcDbLine
 10
227.299969
 20
217.239634
 30
0.0
 11
227.299969
 21
227.23964
 31
0.0
  0
ARC
  5
15A
330
1F
100
AcDbEntity
  8
LC-001-100-D00-0
 62
     7
370
    50
100
AcDbCircle
 10
225.299971
 20
201.474594
 30
0.0
 40
2.0
100
AcDbArc
 50
270.0
 51
0.0
  0
ARC
  5
15B
330
1F
100
AcDbEntity
  8
LC-001-100-D00-0
 62
     7
370
    50
100
AcDbCircle
 10
219.299971
 20
201.474594
 30
0.0
 40
2.0
100
AcDbArc
 50
180.0
 51
270.0
  0
LINE
  5
15C
330
1F
100
AcDbEntity
  8
LC-001-100-D00-0
 62
     7
370
    50
100
AcDbLine
 10
115.299973
 20
199.474589
 30
0.0
 11
219.299972
 21
199.474589
 31
0.0
  0
LINE
  5
15D
330
1F
100
AcDbEntity
  8
LC-001-100-D00-0
 62
     7
370
    50
100
AcDbLine
 10
117.299978
 20
211.474599
 30
0.0
 11
217.299972
 21
211.474599
 31
0.0
  0
LINE
  5
15E
330
1F
100
AcDbEntity
  8
LC-001-100-D00-0
 62
     7
370
    50
100
AcDbLine
 10
217.299972
 20
211.474599
 30
0.0
 11
217.299972
 21
201.474593
 31
0.0
  0
LINE
  5
15F
330
1F
100
AcDbEntity
  8
LC-001-100-D00-0
 62
     7
370
    50
100
AcDbLine
 10
222.299971
 20
211.474599
 30
0.0
 11
222.299971
 21
200.9746
 31
0.0
  0
LINE
  5
160
330
1F
100
AcDbEntity
  8
LC-001-100-D00-0
 62
     7
370
    50
100
AcDbLine
 10
219.299972
 20
200.9746
 30
0.0
 11
219.299972
 21
211.474599
 31
0.0
  0
LINE
  5
161
330
1F
100
AcDbEntity
  8
LC-001-100-D00-0
 62
     7
370
    50
100
AcDbLine
 10
219.299972
 20
211.474599
 30
0.0
 11
217.299972
 21
211.474599
 31
0.0
  0
LINE
  5
162
330
1F
100
AcDbEntity
  8
LC-001-100-D00-0
 62
     7
370
    50
100
AcDbLine
 10
222.299971
 20
200.9746
 30
0.0
 11
219.299972
 21
200.9746
 31
0.0
  0
LINE
  5
163
330
1F
100
AcDbEntity
  8
LC-001-100-D00-0
 62
     7
370
    50
100
AcDbLine
 10
227.299969
 20
211.474599
 30
0.0
 11
222.299971
 21
211.474599
 31
0.0
  0
LINE
  5
164
330
1F
100
AcDbEntity
  8
LC-001-100-D00-0
 62
     7
370
    50
100
AcDbLine
 10
219.299972
 20
199.474589
 30
0.0
 11
225.299973
 21
199.474589
 31
0.0
  0
LINE
  5
165
330
1F
100
AcDbEntity
  8
LC-001-100-D00-0
 62
     7
370
    50
100
AcDbLine
 10
52.799973
 20
228.662134
 30
0.0
 11
52.799973
 21
230.145098
 31
0.0
  0
LINE
  5
166
330
1F
100
AcDbEntity
  8
LC-001-100-D00-0
 62
     7
370
    50
100
AcDbLine
 10
281.799971
 20
230.145098
 30
0.0
 11
281.799971
 21
228.662134
 31
0.0
  0
LINE
  5
167
330
1F
100
AcDbEntity
  8
LC-001-100-D00-0
 62
     7
370
    50
100
AcDbLine
 10
117.972214
 20
144.198121
 30
0.0
 11
115.351084
 21
153.980107
 31
0.0
  0
ARC
  5
168
330
1F
100
AcDbEntity
  8
LC-001-100-D00-0
 62
     7
370
    50
100
AcDbCircle
 10
120.86999
 20
144.974589
 30
0.0
 40
3.000000000000065
100
AcDbArc
 50
195.000309
 51
270.0
  0
LINE
  5
169
330
1F
100
AcDbEntity
  8
LC-001-100-D00-0
 62
     7
370
    50
100
AcDbLine
 10
145.299975
 20
141.974584
 30
0.0
 11
120.869983
 21
141.974584
 31
0.0
  0
LINE
  5
16A
330
1F
100
AcDbEntity
  8
LC-001-100-D00-0
 62
     7
370
    50
100
AcDbLine
 10
145.299975
 20
141.974584
 30
0.0
 11
145.299975
 21
81.474588
 31
0.0
  0
LINE
  5
16B
330
1F
100
AcDbEntity
  8
LC-001-100-D00-0
 62
     7
370
    50
100
AcDbLine
 10
143.237788
 20
81.474588
 30
0.0
 11
145.299975
 21
81.474588
 31
0.0
  0
LINE
  5
16C
330
1F
100
AcDbEntity
  8
LC-001-100-D00-0
 62
     7
370
    50
100
AcDbLine
 10
142.299969
 20
84.974588
 30
0.0
 11
143.237788
 21
81.474588
 31
0.0
  0
LINE
  5
16D
330
1F
100
AcDbEntity
  8
LC-001-100-D00-0
 62
     7
370
    50
100
AcDbLine
 10
142.299969
 20
84.974588
 30
0.0
 11
142.299969
 21
139.474587
 31
0.0
  0
LINE
  5
16E
330
1F
100
AcDbEntity
  8
LC-001-100-D00-0
 62
     7
370
    50
100
AcDbLine
 10
142.299969
 20
139.474587
 30
0.0
 11
118.539829
 21
139.474587
 31
0.0
  0
ARC
  5
16F
330
1F
100
AcDbEntity
  8
LC-001-100-D00-0
 62
     7
370
    50
100
AcDbCircle
 10
118.53983
 20
142.474589
 30
0.0
 40
3.000000000000022
100
AcDbArc
 50
195.000108
 51
270.0
  0
LINE
  5
170
330
1F
100
AcDbEntity
  8
LC-001-100-D00-0
 62
     7
370
    50
100
AcDbLine
 10
115.642059
 20
141.698123
 30
0.0
 11
112.299967
 21
154.170857
 31
0.0
  0
LINE
  5
171
330
1F
100
AcDbEntity
  8
LC-001-100-D00-0
 62
     7
370
    50
100
AcDbLine
 10
112.299967
 20
154.170857
 30
0.0
 11
112.299967
 21
196.474583
 31
0.0
  0
LINE
  5
172
330
1F
100
AcDbEntity
  8
LC-001-100-D00-0
 62
     7
370
    50
100
AcDbLine
 10
112.299967
 20
196.474583
 30
0.0
 11
107.299972
 21
196.474583
 31
0.0
  0
ARC
  5
173
330
1F
100
AcDbEntity
  8
LC-001-100-D00-0
 62
     7
370
    50
100
AcDbCircle
 10
107.299971
 20
199.474589
 30
0.0
 40
3.0
100
AcDbArc
 50
180.0
 51
270.0
  0
LINE
  5
174
330
1F
100
AcDbEntity
  8
LC-001-100-D00-0
 62
     7
370
    50
100
AcDbLine
 10
104.299966
 20
219.900043
 30
0.0
 11
104.299966
 21
199.474589
 31
0.0
  0
LINE
  5
175
330
1F
100
AcDbEntity
  8
LC-001-100-D00-0
 62
     7
370
    50
100
AcDbLine
 10
84.327105
 20
219.900043
 30
0.0
 11
104.299966
 21
219.900043
 31
0.0
  0
LINE
  5
176
330
1F
100
AcDbEntity
  8
LC-001-100-D00-0
 62
     7
370
    50
100
AcDbLine
 10
81.648696
 20
222.27879
 30
0.0
 11
84.327105
 21
219.900043
 31
0.0
  0
LINE
  5
177
330
1F
100
AcDbEntity
  8
LC-001-100-D00-0
 62
     7
370
    50
100
AcDbLine
 10
61.782006
 20
228.352652
 30
0.0
 11
81.648696
 21
222.27879
 31
0.0
  0
LINE
  5
178
330
1F
100
AcDbEntity
  8
LC-001-100-D00-0
 62
     7
370
    50
100
AcDbLine
 10
52.799973
 20
228.662134
 30
0.0
 11
61.782006
 21
228.352652
 31
0.0
  0
ARC
  5
179
330
1F
100
AcDbEntity
  8
LC-001-100-D00-0
 62
     7
370
    50
100
AcDbCircle
 10
54.799971
 20
230.145104
 30
0.0
 40
1.999999999999988
100
AcDbArc
 50
88.101637
 51
180.0
  0
LINE
  5
17A
330
1F
100
AcDbEntity
  8
LC-001-100-D00-0
 62
     7
370
    50
100
AcDbLine
 10
54.866228
 20
232.143999
 30
0.0
 11
62.140722
 21
231.902898
 31
0.0
  0
LINE
  5
17B
330
1F
100
AcDbEntity
  8
LC-001-100-D00-0
 62
     7
370
    50
100
AcDbLine
 10
62.140722
 20
231.902898
 30
0.0
 11
82.299966
 21
225.739599
 31
0.0
  0
LINE
  5
17C
330
1F
100
AcDbEntity
  8
LC-001-100-D00-0
 62
     7
370
    50
100
AcDbLine
 10
82.299966
 20
225.739599
 30
0.0
 11
84.29997
 21
225.739599
 31
0.0
  0
LINE
  5
17D
330
1F
100
AcDbEntity
  8
LC-001-100-D00-0
 62
     7
370
    50
100
AcDbLine
 10
84.29997
 20
225.739599
 30
0.0
 11
84.29997
 21
222.2396
 31
0.0
  0
LINE
  5
17E
330
1F
100
AcDbEntity
  8
LC-001-100-D00-0
 62
     7
370
    50
100
AcDbLine
 10
84.29997
 20
222.2396
 30
0.0
 11
91.29997
 21
222.2396
 31
0.0
  0
LINE
  5
17F
330
1F
100
AcDbEntity
  8
LC-001-100-D00-0
 62
     7
370
    50
100
AcDbLine
 10
91.29997
 20
222.2396
 30
0.0
 11
91.29997
 21
225.739599
 31
0.0
  0
LINE
  5
180
330
1F
100
AcDbEntity
  8
LC-001-100-D00-0
 62
     7
370
    50
100
AcDbLine
 10
91.29997
 20
225.739599
 30
0.0
 11
92.011291
 21
225.739599
 31
0.0
  0
LINE
  5
181
330
1F
100
AcDbEntity
  8
LC-001-100-D00-0
 62
     7
370
    50
100
AcDbLine
 10
92.011291
 20
225.739599
 30
0.0
 11
92.299972
 21
226.239593
 31
0.0
  0
LINE
  5
182
330
1F
100
AcDbEntity
  8
LC-001-100-D00-0
 62
     7
370
    50
100
AcDbLine
 10
92.299972
 20
226.239593
 30
0.0
 11
92.588652
 21
225.739599
 31
0.0
  0
LINE
  5
183
330
1F
100
AcDbEntity
  8
LC-001-100-D00-0
 62
     7
370
    50
100
AcDbLine
 10
92.588652
 20
225.739599
 30
0.0
 11
94.011295
 21
225.739599
 31
0.0
  0
LINE
  5
184
330
1F
100
AcDbEntity
  8
LC-001-100-D00-0
 62
     7
370
    50
100
AcDbLine
 10
94.011295
 20
225.739599
 30
0.0
 11
94.299976
 21
226.239593
 31
0.0
  0
LINE
  5
185
330
1F
100
AcDbEntity
  8
LC-001-100-D00-0
 62
     7
370
    50
100
AcDbLine
 10
94.299976
 20
226.239593
 30
0.0
 11
94.588641
 21
225.739599
 31
0.0
  0
LINE
  5
186
330
1F
100
AcDbEntity
  8
LC-001-100-D00-0
 62
     7
370
    50
100
AcDbLine
 10
94.588641
 20
225.739599
 30
0.0
 11
96.011299
 21
225.739599
 31
0.0
  0
LINE
  5
187
330
1F
100
AcDbEntity
  8
LC-001-100-D00-0
 62
     7
370
    50
100
AcDbLine
 10
96.011299
 20
225.739599
 30
0.0
 11
96.299965
 21
226.239593
 31
0.0
  0
LINE
  5
188
330
1F
100
AcDbEntity
  8
LC-001-100-D00-0
 62
     7
370
    50
100
AcDbLine
 10
96.299965
 20
226.239593
 30
0.0
 11
96.588645
 21
225.739599
 31
0.0
  0
LINE
  5
189
330
1F
100
AcDbEntity
  8
LC-001-100-D00-0
 62
     7
370
    50
100
AcDbLine
 10
96.588645
 20
225.739599
 30
0.0
 11
98.011304
 21
225.739599
 31
0.0
  0
LINE
  5
18A
330
1F
100
AcDbEntity
  8
LC-001-100-D00-0
 62
     7
370
    50
100
AcDbLine
 10
98.011304
 20
225.739599
 30
0.0
 11
98.299969
 21
226.239593
 31
0.0
  0
LINE
  5
18B
330
1F
100
AcDbEntity
  8
LC-001-100-D00-0
 62
     7
370
    50
100
AcDbLine
 10
98.299969
 20
226.239593
 30
0.0
 11
98.588649
 21
225.739599
 31
0.0
  0
LINE
  5
18C
330
1F
100
AcDbEntity
  8
LC-001-100-D00-0
 62
     7
370
    50
100
AcDbLine
 10
98.588649
 20
225.739599
 30
0.0
 11
100.011397
 21
225.739599
 31
0.0
  0
LINE
  5
18D
330
1F
100
AcDbEntity
  8
LC-001-100-D00-0
 62
     7
370
    50
100
AcDbLine
 10
100.011397
 20
225.739599
 30
0.0
 11
100.300077
 21
226.239593
 31
0.0
  0
LINE
  5
18E
330
1F
100
AcDbEntity
  8
LC-001-100-D00-0
 62
     7
370
    50
100
AcDbLine
 10
100.300077
 20
226.239593
 30
0.0
 11
100.588757
 21
225.739599
 31
0.0
  0
LINE
  5
18F
330
1F
100
AcDbEntity
  8
LC-001-100-D00-0
 62
     7
370
    50
100
AcDbLine
 10
100.588757
 20
225.739599
 30
0.0
 11
102.011401
 21
225.739599
 31
0.0
  0
LINE
  5
190
330
1F
100
AcDbEntity
  8
LC-001-100-D00-0
 62
     7
370
    50
100
AcDbLine
 10
102.011401
 20
225.739599
 30
0.0
 11
102.300081
 21
226.239593
 31
0.0
  0
LINE
  5
191
330
1F
100
AcDbEntity
  8
LC-001-100-D00-0
 62
     7
370
    50
100
AcDbLine
 10
102.300081
 20
226.239593
 30
0.0
 11
102.588761
 21
225.739599
 31
0.0
  0
LINE
  5
192
330
1F
100
AcDbEntity
  8
LC-001-100-D00-0
 62
     7
370
    50
100
AcDbLine
 10
102.588761
 20
225.739599
 30
0.0
 11
103.299964
 21
225.739599
 31
0.0
  0
LINE
  5
193
330
1F
100
AcDbEntity
  8
LC-001-100-D00-0
 62
     7
370
    50
100
AcDbLine
 10
103.299964
 20
225.739599
 30
0.0
 11
103.299964
 21
227.239669
 31
0.0
  0
LINE
  5
194
330
1F
100
AcDbEntity
  8
LC-001-100-D00-0
 62
     7
370
    50
100
AcDbLine
 10
106.299866
 20
227.239669
 30
0.0
 11
103.299964
 21
227.239669
 31
0.0
  0
LINE
  5
195
330
1F
100
AcDbEntity
  8
LC-001-100-D00-0
 62
     7
370
    50
100
AcDbLine
 10
106.299866
 20
227.239669
 30
0.0
 11
107.299972
 21
226.239593
 31
0.0
  0
LINE
  5
196
330
1F
100
AcDbEntity
  8
LC-001-100-D00-0
 62
     7
370
    50
100
AcDbLine
 10
107.299972
 20
226.239593
 30
0.0
 11
107.299972
 21
199.474589
 31
0.0
  0
LINE
  5
197
330
1F
100
AcDbEntity
  8
LC-001-100-D00-0
 62
     7
370
    50
100
AcDbLine
 10
107.299972
 20
199.474589
 30
0.0
 11
115.299973
 21
199.474589
 31
0.0
  0
LINE
  5
198
330
1F
100
AcDbEntity
  8
LC-001-100-D00-0
 62
     7
370
    50
100
AcDbLine
 10
115.299973
 20
154.368342
 30
0.0
 11
115.299973
 21
199.474589
 31
0.0
  0
ARC
  5
199
330
1F
100
AcDbEntity
  8
LC-001-100-D00-0
 62
     7
370
    50
100
AcDbCircle
 10
116.799971
 20
154.368339
 30
0.0
 40
1.5
100
AcDbArc
 50
180.0
 51
195.000309
  0
LINE
  5
19A
330
1F
100
AcDbEntity
  8
LC-001-100-D00-0
 62
     7
370
    50
100
AcDbLine
 10
272.459217
 20
231.902898
 30
0.0
 11
279.733718
 21
232.143999
 31
0.0
  0
LINE
  5
19B
330
1F
100
AcDbEntity
  8
LC-001-100-D00-0
 62
     7
370
    50
100
AcDbLine
 10
54.866228
 20
232.143999
 30
0.0
 11
112.299967
 21
232.143999
 31
0.0
  0
LINE
  5
19C
330
1F
100
AcDbEntity
  8
LC-001-100-D00-0
 62
     7
370
    50
100
AcDbLine
 10
222.299971
 20
232.143999
 30
0.0
 11
279.733718
 21
232.143999
 31
0.0
  0
ARC
  5
19D
330
1F
100
AcDbEntity
  8
LC-001-100-D00-0
 62
     7
370
    50
100
AcDbCircle
 10
279.799971
 20
230.145104
 30
0.0
 40
2.0
100
AcDbArc
 50
0.0
 51
91.898363
  0
LINE
  5
19E
330
1F
100
AcDbEntity
  8
LC-001-100-D00-0
 62
     7
370
    50
100
AcDbLine
 10
272.817938
 20
228.352652
 30
0.0
 11
281.799971
 21
228.662134
 31
0.0
  0
INSERT
  5
1B2
330
1F
100
AcDbEntity
  8
LC-001-100-D00-0
 62
     7
370
    50
100
AcDbBlockReference
  2
POLY8
 10
0.0
 20
0.0
 30
0.0
  0
INSERT
  5
1C6
330
1F
100
AcDbEntity
  8
LC-001-100-D00-0
 62
     7
370
    50
100
AcDbBlockReference
  2
POLY9
 10
0.0
 20
0.0
 30
0.0
  0
INSERT
  5
1D6
330
1F
100
AcDbEntity
  8
LC-001-100-D00-0
 62
     7
370
    50
100
AcDbBlockReference
  2
POLY10
 10
0.0
 20
0.0
 30
0.0
  0
INSERT
  5
1E6
330
1F
100
AcDbEntity
  8
LC-001-100-D00-0
 62
     7
370
    50
100
AcDbBlockReference
  2
POLY11
 10
0.0
 20
0.0
 30
0.0
  0
LINE
  5
1E7
330
1F
100
AcDbEntity
  8
LC-001-100-D00-0
 62
     7
370
    50
100
AcDbLine
 10
252.299972
 20
225.739599
 30
0.0
 11
272.459217
 21
231.902898
 31
0.0
  0
LINE
  5
1E8
330
1F
100
AcDbEntity
  8
LC-001-100-D00-0
 62
     7
370
    50
100
AcDbLine
 10
262.219812
 20
228.795336
 30
0.0
 11
262.133784
 21
228.77428
 31
0.0
  0
LINE
  5
1E9
330
1F
100
AcDbEntity
  8
LC-001-100-D00-0
 62
     7
370
    50
100
AcDbLine
 10
252.951244
 20
222.27879
 30
0.0
 11
272.817938
 21
228.352652
 31
0.0
  0
LINE
  5
1EA
330
1F
100
AcDbEntity
  8
LC-001-100-D00-0
 62
     7
370
    50
100
AcDbLine
 10
250.272838
 20
219.900043
 30
0.0
 11
252.951244
 21
222.27879
 31
0.0
  0
LINE
  5
1EB
330
1F
100
AcDbEntity
  8
LC-001-100-D00-0
 62
     7
370
    50
100
AcDbLine
 10
84.29997
 20
225.739599
 30
0.0
 11
91.29997
 21
225.739599
 31
0.0
  0
LINE
  5
1EC
330
1F
100
AcDbEntity
  8
LC-001-100-D00-0
 62
     7
370
    50
100
AcDbLine
 10
243.29997
 20
225.739599
 30
0.0
 11
250.299971
 21
225.739599
 31
0.0
  0
LINE
  5
1ED
330
1F
100
AcDbEntity
  8
LC-001-100-D00-0
 62
     7
370
    50
100
AcDbLine
 10
250.299971
 20
222.2396
 30
0.0
 11
250.299971
 21
225.739599
 31
0.0
  0
LINE
  5
1EE
330
1F
100
AcDbEntity
  8
LC-001-100-D00-0
 62
     7
370
    50
100
AcDbLine
 10
243.29997
 20
225.739599
 30
0.0
 11
243.29997
 21
222.2396
 31
0.0
  0
LINE
  5
1EF
330
1F
100
AcDbEntity
  8
LC-001-100-D00-0
 62
     7
370
    50
100
AcDbLine
 10
232.011188
 20
225.739599
 30
0.0
 11
232.299864
 21
226.239593
 31
0.0
  0
LINE
  5
1F0
330
1F
100
AcDbEntity
  8
LC-001-100-D00-0
 62
     7
370
    50
100
AcDbLine
 10
102.300081
 20
226.239593
 30
0.0
 11
103.299964
 21
226.239593
 31
0.0
  0
LINE
  5
1F1
330
1F
100
AcDbEntity
  8
LC-001-100-D00-0
 62
     7
370
    50
100
AcDbLine
 10
231.29997
 20
226.239593
 30
0.0
 11
232.299864
 21
226.239593
 31
0.0
  0
LINE
  5
1F2
330
1F
100
AcDbEntity
  8
LC-001-100-D00-0
 62
     7
370
    50
100
AcDbLine
 10
92.299972
 20
226.239593
 30
0.0
 11
94.299976
 21
226.239593
 31
0.0
  0
LINE
  5
1F3
330
1F
100
AcDbEntity
  8
LC-001-100-D00-0
 62
     7
370
    50
100
AcDbLine
 10
242.29997
 20
226.239593
 30
0.0
 11
242.588647
 21
225.739599
 31
0.0
  0
LINE
  5
1F4
330
1F
100
AcDbEntity
  8
LC-001-100-D00-0
 62
     7
370
    50
100
AcDbLine
 10
240.29997
 20
226.239593
 30
0.0
 11
242.29997
 21
226.239593
 31
0.0
  0
LINE
  5
1F5
330
1F
100
AcDbEntity
  8
LC-001-100-D00-0
 62
     7
370
    50
100
AcDbLine
 10
94.299976
 20
226.239593
 30
0.0
 11
96.299965
 21
226.239593
 31
0.0
  0
LINE
  5
1F6
330
1F
100
AcDbEntity
  8
LC-001-100-D00-0
 62
     7
370
    50
100
AcDbLine
 10
231.29997
 20
227.239669
 30
0.0
 11
231.29997
 21
225.739599
 31
0.0
  0
LINE
  5
1F7
330
1F
100
AcDbEntity
  8
LC-001-100-D00-0
 62
     7
370
    50
100
AcDbLine
 10
227.299969
 20
199.474589
 30
0.0
 11
227.299969
 21
226.239593
 31
0.0
  0
LINE
  5
1F8
330
1F
100
AcDbEntity
  8
LC-001-100-D00-0
 62
     7
370
    50
100
AcDbLine
 10
227.299969
 20
226.239593
 30
0.0
 11
228.300076
 21
227.239669
 31
0.0
  0
LINE
  5
1F9
330
1F
100
AcDbEntity
  8
LC-001-100-D00-0
 62
     7
370
    50
100
AcDbLine
 10
100.300077
 20
226.239593
 30
0.0
 11
102.300081
 21
226.239593
 31
0.0
  0
LINE
  5
1FA
330
1F
100
AcDbEntity
  8
LC-001-100-D00-0
 62
     7
370
    50
100
AcDbLine
 10
96.299965
 20
226.239593
 30
0.0
 11
98.299969
 21
226.239593
 31
0.0
  0
LINE
  5
1FB
330
1F
100
AcDbEntity
  8
LC-001-100-D00-0
 62
     7
370
    50
100
AcDbLine
 10
98.299969
 20
226.239593
 30
0.0
 11
100.300077
 21
226.239593
 31
0.0
  0
ARC
  5
1FC
330
1F
100
AcDbEntity
  8
LC-001-100-D00-0
 62
     7
370
    50
100
AcDbCircle
 10
227.299971
 20
199.474589
 30
0.0
 40
3.0
100
AcDbArc
 50
270.0
 51
0.0
  0
LINE
  5
1FD
330
1F
100
AcDbEntity
  8
LC-001-100-D00-0
 62
     7
370
    50
100
AcDbLine
 10
230.299972
 20
199.474589
 30
0.0
 11
230.299972
 21
219.900043
 31
0.0
  0
LINE
  5
1FE
330
1F
100
AcDbEntity
  8
LC-001-100-D00-0
 62
     7
370
    50
100
AcDbLine
 10
232.299864
 20
226.239593
 30
0.0
 11
232.588537
 21
225.739599
 31
0.0
  0
ARC
  5
1FF
330
1F
100
AcDbEntity
  8
LC-001-100-D00-0
 62
     7
370
    50
100
AcDbCircle
 10
217.799971
 20
154.368339
 30
0.0
 40
1.500000000000149
100
AcDbArc
 50
344.999691
 51
0.0
  0
ARC
  5
200
330
1F
100
AcDbEntity
  8
LC-001-100-D00-0
 62
     7
370
    50
100
AcDbCircle
 10
213.729953
 20
144.974589
 30
0.0
 40
3.0
100
AcDbArc
 50
270.0
 51
344.999691
  0
LINE
  5
201
330
1F
100
AcDbEntity
  8
LC-001-100-D00-0
 62
     7
370
    50
100
AcDbLine
 10
222.299971
 20
196.474583
 30
0.0
 11
222.299971
 21
154.170857
 31
0.0
  0
LINE
  5
202
330
1F
100
AcDbEntity
  8
LC-001-100-D00-0
 62
     7
370
    50
100
AcDbLine
 10
219.248857
 20
153.980107
 30
0.0
 11
216.627724
 21
144.198121
 31
0.0
  0
ARC
  5
203
330
1F
100
AcDbEntity
  8
LC-001-100-D00-0
 62
     7
370
    50
100
AcDbCircle
 10
216.060112
 20
142.474589
 30
0.0
 40
3.0
100
AcDbArc
 50
270.0
 51
344.999892
  0
LINE
  5
204
330
1F
100
AcDbEntity
  8
LC-001-100-D00-0
 62
     7
370
    50
100
AcDbLine
 10
222.299971
 20
154.170857
 30
0.0
 11
218.95789
 21
141.698123
 31
0.0
  0
LINE
  5
205
330
1F
100
AcDbEntity
  8
LC-001-100-D00-0
 62
     7
370
    50
100
AcDbLine
 10
219.299972
 20
199.474589
 30
0.0
 11
219.299972
 21
154.368342
 31
0.0
  0
LINE
  5
206
330
1F
100
AcDbEntity
  8
LC-001-100-D00-0
 62
     7
370
    50
100
AcDbLine
 10
115.299973
 20
199.474589
 30
0.0
 11
219.299972
 21
199.474589
 31
0.0
  0
LINE
  5
207
330
1F
100
AcDbEntity
  8
LC-001-100-D00-0
 62
     7
370
    50
100
AcDbLine
 10
192.299973
 20
139.474587
 30
0.0
 11
192.299973
 21
84.974588
 31
0.0
  0
LINE
  5
208
330
1F
100
AcDbEntity
  8
LC-001-100-D00-0
 62
     7
370
    50
100
AcDbLine
 10
191.362146
 20
81.474588
 30
0.0
 11
192.299973
 21
84.974588
 31
0.0
  0
LINE
  5
209
330
1F
100
AcDbEntity
  8
LC-001-100-D00-0
 62
     7
370
    50
100
AcDbLine
 10
189.299974
 20
81.474588
 30
0.0
 11
189.299974
 21
141.974584
 31
0.0
  0
LINE
  5
20A
330
1F
100
AcDbEntity
  8
LC-001-100-D00-0
 62
     7
370
    50
100
AcDbLine
 10
145.299975
 20
81.474588
 30
0.0
 11
189.299974
 21
81.474588
 31
0.0
  0
LINE
  5
20B
330
1F
100
AcDbEntity
  8
LC-001-100-D00-0
 62
     7
370
    50
100
AcDbLine
 10
145.299975
 20
141.974584
 30
0.0
 11
189.299974
 21
141.974584
 31
0.0
  0
LINE
  5
20C
330
1F
100
AcDbEntity
  8
LC-001-100-D00-0
 62
     7
370
    50
100
AcDbLine
 10
234.011188
 20
225.739599
 30
0.0
 11
234.299864
 21
226.239593
 31
0.0
  0
LINE
  5
20D
330
1F
100
AcDbEntity
  8
LC-001-100-D00-0
 62
     7
370
    50
100
AcDbLine
 10
234.299864
 20
226.239593
 30
0.0
 11
234.588537
 21
225.739599
 31
0.0
  0
LINE
  5
20E
330
1F
100
AcDbEntity
  8
LC-001-100-D00-0
 62
     7
370
    50
100
AcDbLine
 10
236.011296
 20
225.739599
 30
0.0
 11
236.299977
 21
226.239593
 31
0.0
  0
LINE
  5
20F
330
1F
100
AcDbEntity
  8
LC-001-100-D00-0
 62
     7
370
    50
100
AcDbLine
 10
236.299977
 20
226.239593
 30
0.0
 11
236.588646
 21
225.739599
 31
0.0
  0
LINE
  5
210
330
1F
100
AcDbEntity
  8
LC-001-100-D00-0
 62
     7
370
    50
100
AcDbLine
 10
238.011297
 20
225.739599
 30
0.0
 11
238.299969
 21
226.239593
 31
0.0
  0
LINE
  5
211
330
1F
100
AcDbEntity
  8
LC-001-100-D00-0
 62
     7
370
    50
100
AcDbLine
 10
238.299969
 20
226.239593
 30
0.0
 11
238.588646
 21
225.739599
 31
0.0
  0
LINE
  5
212
330
1F
100
AcDbEntity
  8
LC-001-100-D00-0
 62
     7
370
    50
100
AcDbLine
 10
240.011297
 20
225.739599
 30
0.0
 11
240.29997
 21
226.239593
 31
0.0
  0
LINE
  5
213
330
1F
100
AcDbEntity
  8
LC-001-100-D00-0
 62
     7
370
    50
100
AcDbLine
 10
240.29997
 20
226.239593
 30
0.0
 11
240.588646
 21
225.739599
 31
0.0
  0
LINE
  5
214
330
1F
100
AcDbEntity
  8
LC-001-100-D00-0
 62
     7
370
    50
100
AcDbLine
 10
242.011297
 20
225.739599
 30
0.0
 11
242.29997
 21
226.239593
 31
0.0
  0
LINE
  5
215
330
1F
100
AcDbEntity
  8
LC-001-100-D00-0
 62
     7
370
    50
100
AcDbLine
 10
189.299974
 20
81.474588
 30
0.0
 11
191.362146
 21
81.474588
 31
0.0
  0
LINE
  5
216
330
1F
100
AcDbEntity
  8
LC-001-100-D00-0
 62
     7
370
    50
100
AcDbLine
 10
213.729951
 20
141.974584
 30
0.0
 11
189.299974
 21
141.974584
 31
0.0
  0
LINE
  5
217
330
1F
100
AcDbEntity
  8
LC-001-100-D00-0
 62
     7
370
    50
100
AcDbLine
 10
216.060113
 20
139.474587
 30
0.0
 11
192.299973
 21
139.474587
 31
0.0
  0
LINE
  5
218
330
1F
100
AcDbEntity
  8
LC-001-100-D00-0
 62
     7
370
    50
100
AcDbLine
 10
227.299969
 20
196.474583
 30
0.0
 11
222.299971
 21
196.474583
 31
0.0
  0
LINE
  5
219
330
1F
100
AcDbEntity
  8
LC-001-100-D00-0
 62
     7
370
    50
100
AcDbLine
 10
219.299972
 20
199.474589
 30
0.0
 11
227.299969
 21
199.474589
 31
0.0
  0
LINE
  5
21A
330
1F
100
AcDbEntity
  8
LC-001-100-D00-0
 62
     7
370
    50
100
AcDbLine
 10
231.29997
 20
227.239669
 30
0.0
 11
228.300076
 21
227.239669
 31
0.0
  0
LINE
  5
21B
330
1F
100
AcDbEntity
  8
LC-001-100-D00-0
 62
     7
370
    50
100
AcDbLine
 10
240.588646
 20
225.739599
 30
0.0
 11
242.011297
 21
225.739599
 31
0.0
  0
LINE
  5
21C
330
1F
100
AcDbEntity
  8
LC-001-100-D00-0
 62
     7
370
    50
100
AcDbLine
 10
238.588646
 20
225.739599
 30
0.0
 11
240.011297
 21
225.739599
 31
0.0
  0
LINE
  5
21D
330
1F
100
AcDbEntity
  8
LC-001-100-D00-0
 62
     7
370
    50
100
AcDbLine
 10
236.588646
 20
225.739599
 30
0.0
 11
238.011297
 21
225.739599
 31
0.0
  0
LINE
  5
21E
330
1F
100
AcDbEntity
  8
LC-001-100-D00-0
 62
     7
370
    50
100
AcDbLine
 10
234.588537
 20
225.739599
 30
0.0
 11
236.011296
 21
225.739599
 31
0.0
  0
LINE
  5
21F
330
1F
100
AcDbEntity
  8
LC-001-100-D00-0
 62
     7
370
    50
100
AcDbLine
 10
232.588537
 20
225.739599
 30
0.0
 11
234.011188
 21
225.739599
 31
0.0
  0
LINE
  5
220
330
1F
100
AcDbEntity
  8
LC-001-100-D00-0
 62
     7
370
    50
100
AcDbLine
 10
231.29997
 20
225.739599
 30
0.0
 11
232.011188
 21
225.739599
 31
0.0
  0
LINE
  5
221
330
1F
100
AcDbEntity
  8
LC-001-100-D00-0
 62
     7
370
    50
100
AcDbLine
 10
242.588647
 20
225.739599
 30
0.0
 11
243.29997
 21
225.739599
 31
0.0
  0
LINE
  5
222
330
1F
100
AcDbEntity
  8
LC-001-100-D00-0
 62
     7
370
    50
100
AcDbLine
 10
250.299971
 20
225.739599
 30
0.0
 11
252.299972
 21
225.739599
 31
0.0
  0
LINE
  5
223
330
1F
100
AcDbEntity
  8
LC-001-100-D00-0
 62
     7
370
    50
100
AcDbLine
 10
230.299972
 20
219.900043
 30
0.0
 11
250.272838
 21
219.900043
 31
0.0
  0
LINE
  5
224
330
1F
100
AcDbEntity
  8
LC-001-100-D00-0
 62
     7
370
    50
100
AcDbLine
 10
243.29997
 20
222.2396
 30
0.0
 11
250.299971
 21
222.2396
 31
0.0
  0
LINE
  5
225
330
1F
100
AcDbEntity
  8
LC-001-100-D00-0
 62
     7
370
    50
100
AcDbLine
 10
234.299864
 20
226.239593
 30
0.0
 11
236.299977
 21
226.239593
 31
0.0
  0
LINE
  5
226
330
1F
100
AcDbEntity
  8
LC-001-100-D00-0
 62
     7
370
    50
100
AcDbLine
 10
232.299864
 20
226.239593
 30
0.0
 11
234.299864
 21
226.239593
 31
0.0
  0
LINE
  5
227
330
1F
100
AcDbEntity
  8
LC-001-100-D00-0
 62
     7
370
    50
100
AcDbLine
 10
236.299977
 20
226.239593
 30
0.0
 11
238.299969
 21
226.239593
 31
0.0
  0
LINE
  5
228
330
1F
100
AcDbEntity
  8
LC-001-100-D00-0
 62
     7
370
    50
100
AcDbLine
 10
238.299969
 20
226.239593
 30
0.0
 11
240.29997
 21
226.239593
 31
0.0
  0
LINE
  5
229
330
1F
100
AcDbEntity
  8
LC-001-100-D00-0
 62
     7
370
    50
100
AcDbLine
 10
263.317042
 20
229.107932
 30
0.0
 11
263.317042
 21
229.207934
 31
0.0
  0
LINE
  5
22A
330
1F
100
AcDbEntity
  8
LC-001-100-D00-0
 62
     7
370
    50
100
AcDbLine
 10
262.219812
 20
228.775487
 30
0.0
 11
262.219812
 21
228.875489
 31
0.0
  0
INSERT
  5
23E
330
1F
100
AcDbEntity
  8
LC-001-100-D00-0
 62
     7
370
    50
100
AcDbBlockReference
  2
POLY12
 10
0.0
 20
0.0
 30
0.0
  0
INSERT
  5
252
330
1F
100
AcDbEntity
  8
LC-001-100-D00-0
 62
     7
370
    50
100
AcDbBlockReference
  2
POLY13
 10
0.0
 20
0.0
 30
0.0
  0
INSERT
  5
262
330
1F
100
AcDbEntity
  8
LC-001-100-D00-0
 62
     7
370
    50
100
AcDbBlockReference
  2
POLY14
 10
0.0
 20
0.0
 30
0.0
  0
INSERT
  5
272
330
1F
100
AcDbEntity
  8
LC-001-100-D00-0
 62
     7
370
    50
100
AcDbBlockReference
  2
POLY15
 10
0.0
 20
0.0
 30
0.0
  0
INSERT
  5
286
330
1F
100
AcDbEntity
  8
LC-001-100-D00-0
 62
     7
370
    50
100
AcDbBlockReference
  2
POLY16
 10
0.0
 20
0.0
 30
0.0
  0
INSERT
  5
29A
330
1F
100
AcDbEntity
  8
LC-001-100-D00-0
 62
     7
370
    50
100
AcDbBlockReference
  2
POLY17
 10
0.0
 20
0.0
 30
0.0
  0
INSERT
  5
2AA
330
1F
100
AcDbEntity
  8
LC-001-100-D00-0
 62
     7
370
    50
100
AcDbBlockReference
  2
POLY18
 10
0.0
 20
0.0
 30
0.0
  0
INSERT
  5
2BA
330
1F
100
AcDbEntity
  8
LC-001-100-D00-0
 62
     7
370
    50
100
AcDbBlockReference
  2
POLY19
 10
0.0
 20
0.0
 30
0.0
  0
INSERT
  5
2CE
330
1F
100
AcDbEntity
  8
LC-001-100-D00-0
 62
     7
370
    50
100
AcDbBlockReference
  2
POLY20
 10
0.0
 20
0.0
 30
0.0
  0
INSERT
  5
2E2
330
1F
100
AcDbEntity
  8
LC-001-100-D00-0
 62
     7
370
    50
100
AcDbBlockReference
  2
POLY21
 10
0.0
 20
0.0
 30
0.0
  0
INSERT
  5
2F4
330
1F
100
AcDbEntity
  8
LC-001-100-D00-0
 62
     7
370
    50
100
AcDbBlockReference
  2
POLY22
 10
0.0
 20
0.0
 30
0.0
  0
INSERT
  5
308
330
1F
100
AcDbEntity
  8
LC-001-100-D00-0
 62
     7
370
    50
100
AcDbBlockReference
  2
POLY23
 10
0.0
 20
0.0
 30
0.0
  0
INSERT
  5
31C
330
1F
100
AcDbEntity
  8
LC-001-100-D00-0
 62
     7
370
    50
100
AcDbBlockReference
  2
POLY24
 10
0.0
 20
0.0
 30
0.0
  0
INSERT
  5
330
330
1F
100
AcDbEntity
  8
LC-001-100-D00-0
 62
     7
370
    50
100
AcDbBlockReference
  2
POLY25
 10
0.0
 20
0.0
 30
0.0
  0
INSERT
  5
342
330
1F
100
AcDbEntity
  8
LC-001-100-D00-0
 62
     7
370
    50
100
AcDbBlockReference
  2
POLY26
 10
0.0
 20
0.0
 30
0.0
  0
INSERT
  5
356
330
1F
100
AcDbEntity
  8
LC-001-100-D00-0
 62
     7
370
    50
100
AcDbBlockReference
  2
POLY27
 10
0.0
 20
0.0
 30
0.0
  0
LINE
  5
357
330
1F
100
AcDbEntity
  8
LC-001-100-D00-0
 62
     7
370
    50
100
AcDbLine
 10
264.22093
 20
229.385511
 30
0.0
 11
264.22093
 21
229.485513
 31
0.0
  0
LINE
  5
358
330
1F
100
AcDbEntity
  8
LC-001-100-D00-0
 62
     7
370
    50
100
AcDbLine
 10
264.943493
 20
229.605363
 30
0.0
 11
264.943493
 21
229.70535
 31
0.0
  0
LINE
  5
359
330
1F
100
AcDbEntity
  8
LC-001-100-D00-0
 62
     7
370
    50
100
AcDbLine
 10
265.859115
 20
229.888291
 30
0.0
 11
265.859115
 21
229.988293
 31
0.0
  0
INSERT
  5
36D
330
1F
100
AcDbEntity
  8
LC-001-100-D00-0
 62
     7
370
    50
100
AcDbBlockReference
  2
POLY28
 10
0.0
 20
0.0
 30
0.0
  0
INSERT
  5
37F
330
1F
100
AcDbEntity
  8
LC-001-100-D00-0
 62
     7
370
    50
100
AcDbBlockReference
  2
POLY29
 10
0.0
 20
0.0
 30
0.0
  0
LINE
  5
380
330
1F
100
AcDbEntity
  8
LC-001-100-D00-0
 62
     7
370
    50
100
AcDbLine
 10
264.746317
 20
229.683221
 30
0.0
 11
264.80525
 21
229.708375
 31
0.0
  0
INSERT
  5
392
330
1F
100
AcDbEntity
  8
LC-001-100-D00-0
 62
     7
370
    50
100
AcDbBlockReference
  2
POLY30
 10
0.0
 20
0.0
 30
0.0
  0
INSERT
  5
3A4
330
1F
100
AcDbEntity
  8
LC-001-100-D00-0
 62
     7
370
    50
100
AcDbBlockReference
  2
POLY31
 10
0.0
 20
0.0
 30
0.0
  0
INSERT
  5
3B4
330
1F
100
AcDbEntity
  8
LC-001-100-D00-0
 62
     7
370
    50
100
AcDbBlockReference
  2
POLY32
 10
0.0
 20
0.0
 30
0.0
  0
INSERT
  5
3C4
330
1F
100
AcDbEntity
  8
LC-001-100-D00-0
 62
     7
370
    50
100
AcDbBlockReference
  2
POLY33
 10
0.0
 20
0.0
 30
0.0
  0
INSERT
  5
3D8
330
1F
100
AcDbEntity
  8
LC-001-100-D00-0
 62
     7
370
    50
100
AcDbBlockReference
  2
POLY34
 10
0.0
 20
0.0
 30
0.0
  0
INSERT
  5
3EA
330
1F
100
AcDbEntity
  8
LC-001-100-D00-0
 62
     7
370
    50
100
AcDbBlockReference
  2
POLY35
 10
0.0
 20
0.0
 30
0.0
  0
LINE
  5
3EB
330
1F
100
AcDbEntity
  8
LC-001-100-D00-0
 62
     7
370
    50
100
AcDbLine
 10
263.088581
 20
229.183809
 30
0.0
 11
263.166482
 21
229.200469
 31
0.0
  0
INSERT
  5
3FF
330
1F
100
AcDbEntity
  8
LC-001-100-D00-0
 62
     7
370
    50
100
AcDbBlockReference
  2
POLY36
 10
0.0
 20
0.0
 30
0.0
  0
INSERT
  5
411
330
1F
100
AcDbEntity
  8
LC-001-100-D00-0
 62
     7
370
    50
100
AcDbBlockReference
  2
POLY37
 10
0.0
 20
0.0
 30
0.0
  0
INSERT
  5
425
330
1F
100
AcDbEntity
  8
LC-001-100-D00-0
 62
     7
370
    50
100
AcDbBlockReference
  2
POLY38
 10
0.0
 20
0.0
 30
0.0
  0
LINE
  5
426
330
1F
100
AcDbEntity
  8
LC-001-100-D00-0
 62
     7
370
    50
100
AcDbLine
 10
263.934997
 20
229.424969
 30
0.0
 11
263.872705
 21
229.410202
 31
0.0
  0
INSERT
  5
42C
330
1F
100
AcDbEntity
  8
LC-001-100-D00-0
 62
     7
370
    50
100
AcDbBlockReference
  2
KLON1
 10
0.0
 20
0.0
 30
0.0
  0
LINE
  5
42D
330
1F
100
AcDbEntity
  8
LC-001-100-D00-0
 62
     7
370
    50
100
AcDbLine
 10
264.259497
 20
229.527862
 30
0.0
 11
264.257759
 21
229.526327
 31
0.0
  0
INSERT
  5
441
330
1F
100
AcDbEntity
  8
LC-001-100-D00-0
 62
     7
370
    50
100
AcDbBlockReference
  2
POLY39
 10
0.0
 20
0.0
 30
0.0
  0
LINE
  5
442
330
1F
100
AcDbEntity
  8
LC-001-100-D00-0
 62
     7
370
    50
100
AcDbLine
 10
262.133784
 20
228.77428
 30
0.0
 11
262.133784
 21
228.874282
 31
0.0
  0
LINE
  5
443
330
1F
100
AcDbEntity
  8
LC-001-100-D00-0
 62
     7
370
    50
100
AcDbLine
 10
104.299966
 20
210.400046
 30
0.0
 11
103.6782
 21
210.400046
 31
0.0
  0
LINE
  5
444
330
1F
100
AcDbEntity
  8
LC-001-100-D00-0
 62
     7
370
    50
100
AcDbLine
 10
230.921749
 20
210.400046
 30
0.0
 11
230.299972
 21
210.400046
 31
0.0
  0
LINE
  5
445
330
1F
100
AcDbEntity
  8
LC-001-100-D00-0
 62
     7
370
    50
100
AcDbLine
 10
103.6782
 20
210.400046
 30
0.0
 11
100.678194
 21
210.400046
 31
0.0
  0
LINE
  5
446
330
1F
100
AcDbEntity
  8
LC-001-100-D00-0
 62
     7
370
    50
100
AcDbLine
 10
233.921751
 20
210.400046
 30
0.0
 11
230.921749
 21
210.400046
 31
0.0
  0
CIRCLE
  5
447
330
1F
100
AcDbEntity
  8
LC-001-100-D00-0
 62
     7
370
    50
100
AcDbCircle
 10
117.799971
 20
304.174594
 30
0.0
 40
2.5
  0
CIRCLE
  5
448
330
1F
100
AcDbEntity
  8
LC-001-100-D00-0
 62
     7
370
    50
100
AcDbCircle
 10
216.799971
 20
304.174594
 30
0.0
 40
2.499999999999886
  0
ARC
  5
449
330
1F
100
AcDbEntity
  8
LC-001-100-D00-0
 62
     7
370
    50
100
AcDbCircle
 10
141.299971
 20
252.674594
 30
0.0
 40
1.0
100
AcDbArc
 50
270.0
 51
0.0
  0
LINE
  5
44A
330
1F
100
AcDbEntity
  8
LC-001-100-D00-0
 62
     7
370
    50
100
AcDbLine
 10
141.299967
 20
251.674594
 30
0.0
 11
132.299978
 21
251.674594
 31
0.0
  0
ARC
  5
44B
330
1F
100
AcDbEntity
  8
LC-001-100-D00-0
 62
     7
370
    50
100
AcDbCircle
 10
132.299971
 20
256.674594
 30
0.0
 40
5.0
100
AcDbArc
 50
180.0
 51
270.0
  0
LINE
  5
44C
330
1F
100
AcDbEntity
  8
LC-001-100-D00-0
 62
     7
370
    50
100
AcDbLine
 10
127.299968
 20
256.674589
 30
0.0
 11
127.299968
 21
291.674585
 31
0.0
  0
ARC
  5
44D
330
1F
100
AcDbEntity
  8
LC-001-100-D00-0
 62
     7
370
    50
100
AcDbCircle
 10
137.299971
 20
291.674594
 30
0.0
 40
10.0
100
AcDbArc
 50
90.0
 51
180.0
  0
LINE
  5
44E
330
1F
100
AcDbEntity
  8
LC-001-100-D00-0
 62
     7
370
    50
100
AcDbLine
 10
137.299973
 20
301.674605
 30
0.0
 11
157.299969
 21
301.674605
 31
0.0
  0
LINE
  5
44F
330
1F
100
AcDbEntity
  8
LC-001-100-D00-0
 62
     7
370
    50
100
AcDbLine
 10
157.299969
 20
301.674605
 30
0.0
 11
158.043917
 21
304.451049
 31
0.0
  0
ARC
  5
450
330
1F
100
AcDbEntity
  8
LC-001-100-D00-0
 62
     7
370
    50
100
AcDbCircle
 10
160.941698
 20
303.674594
 30
0.0
 40
3.000000000000114
100
AcDbArc
 50
90.0
 51
165.0
  0
LINE
  5
451
330
1F
100
AcDbEntity
  8
LC-001-100-D00-0
 62
     7
370
    50
100
AcDbLine
 10
160.941701
 20
306.674601
 30
0.0
 11
164.769973
 21
306.674601
 31
0.0
  0
LINE
  5
452
330
1F
100
AcDbEntity
  8
LC-001-100-D00-0
 62
     7
370
    50
100
AcDbLine
 10
164.769973
 20
306.674601
 30
0.0
 11
164.769973
 21
304.674597
 31
0.0
  0
LINE
  5
453
330
1F
100
AcDbEntity
  8
LC-001-100-D00-0
 62
     7
370
    50
100
AcDbLine
 10
164.769973
 20
304.674597
 30
0.0
 11
169.829968
 21
304.674597
 31
0.0
  0
LINE
  5
454
330
1F
100
AcDbEntity
  8
LC-001-100-D00-0
 62
     7
370
    50
100
AcDbLine
 10
169.829968
 20
304.674597
 30
0.0
 11
169.829968
 21
306.674601
 31
0.0
  0
LINE
  5
455
330
1F
100
AcDbEntity
  8
LC-001-100-D00-0
 62
     7
370
    50
100
AcDbLine
 10
169.829968
 20
306.674601
 30
0.0
 11
173.658248
 21
306.674601
 31
0.0
  0
ARC
  5
456
330
1F
100
AcDbEntity
  8
LC-001-100-D00-0
 62
     7
370
    50
100
AcDbCircle
 10
173.658244
 20
303.674594
 30
0.0
 40
3.000000000000147
100
AcDbArc
 50
15.0
 51
90.0
  0
LINE
  5
457
330
1F
100
AcDbEntity
  8
LC-001-100-D00-0
 62
     7
370
    50
100
AcDbLine
 10
176.556025
 20
304.451049
 30
0.0
 11
177.299972
 21
301.674605
 31
0.0
  0
LINE
  5
458
330
1F
100
AcDbEntity
  8
LC-001-100-D00-0
 62
     7
370
    50
100
AcDbLine
 10
177.299972
 20
301.674605
 30
0.0
 11
197.299968
 21
301.674605
 31
0.0
  0
ARC
  5
459
330
1F
100
AcDbEntity
  8
LC-001-100-D00-0
 62
     7
370
    50
100
AcDbCircle
 10
197.299971
 20
291.674594
 30
0.0
 40
10.00000000000011
100
AcDbArc
 50
0.0
 51
90.0
  0
LINE
  5
45A
330
1F
100
AcDbEntity
  8
LC-001-100-D00-0
 62
     7
370
    50
100
AcDbLine
 10
207.299974
 20
291.674585
 30
0.0
 11
207.299974
 21
256.674589
 31
0.0
  0
ARC
  5
45B
330
1F
100
AcDbEntity
  8
LC-001-100-D00-0
 62
     7
370
    50
100
AcDbCircle
 10
202.299971
 20
256.674594
 30
0.0
 40
5.0
100
AcDbArc
 50
270.0
 51
0.0
  0
LINE
  5
45C
330
1F
100
AcDbEntity
  8
LC-001-100-D00-0
 62
     7
370
    50
100
AcDbLine
 10
202.299971
 20
251.674594
 30
0.0
 11
193.299968
 21
251.674594
 31
0.0
  0
ARC
  5
45D
330
1F
100
AcDbEntity
  8
LC-001-100-D00-0
 62
     7
370
    50
100
AcDbCircle
 10
193.299971
 20
252.674594
 30
0.0
 40
1.0
100
AcDbArc
 50
180.0
 51
270.0
  0
LINE
  5
45E
330
1F
100
AcDbEntity
  8
LC-001-100-D00-0
 62
     7
370
    50
100
AcDbLine
 10
192.299973
 20
252.674581
 30
0.0
 11
192.299973
 21
298.674584
 31
0.0
  0
ARC
  5
45F
330
1F
100
AcDbEntity
  8
LC-001-100-D00-0
 62
     7
370
    50
100
AcDbCircle
 10
191.299971
 20
298.674594
 30
0.0
 40
0.9999999999998863
100
AcDbArc
 50
0.0
 51
90.0
  0
LINE
  5
460
330
1F
100
AcDbEntity
  8
LC-001-100-D00-0
 62
     7
370
    50
100
AcDbLine
 10
191.299971
 20
299.674601
 30
0.0
 11
143.299971
 21
299.674601
 31
0.0
  0
ARC
  5
461
330
1F
100
AcDbEntity
  8
LC-001-100-D00-0
 62
     7
370
    50
100
AcDbCircle
 10
143.299971
 20
298.674594
 30
0.0
 40
1.0
100
AcDbArc
 50
90.0
 51
180.0
  0
LINE
  5
462
330
1F
100
AcDbEntity
  8
LC-001-100-D00-0
 62
     7
370
    50
100
AcDbLine
 10
142.299969
 20
298.674584
 30
0.0
 11
142.299969
 21
252.674581
 31
0.0
  0
ARC
  5
463
330
1F
100
AcDbEntity
  8
LC-001-100-D00-0
 62
     7
370
    50
100
AcDbCircle
 10
202.299971
 20
256.674594
 30
0.0
 40
3.0
100
AcDbArc
 50
270.0
 51
0.0
  0
LINE
  5
464
330
1F
100
AcDbEntity
  8
LC-001-100-D00-0
 62
     7
370
    50
100
AcDbLine
 10
205.29997
 20
291.674585
 30
0.0
 11
205.29997
 21
256.674589
 31
0.0
  0
ARC
  5
465
330
1F
100
AcDbEntity
  8
LC-001-100-D00-0
 62
     7
370
    50
100
AcDbCircle
 10
197.299971
 20
291.674594
 30
0.0
 40
8.000000000000114
100
AcDbArc
 50
0.0
 51
90.0
  0
LINE
  5
466
330
1F
100
AcDbEntity
  8
LC-001-100-D00-0
 62
     7
370
    50
100
AcDbLine
 10
194.29997
 20
299.674601
 30
0.0
 11
197.299968
 21
299.674601
 31
0.0
  0
LINE
  5
467
330
1F
100
AcDbEntity
  8
LC-001-100-D00-0
 62
     7
370
    50
100
AcDbLine
 10
194.29997
 20
253.674598
 30
0.0
 11
194.29997
 21
299.674601
 31
0.0
  0
LINE
  5
468
330
1F
100
AcDbEntity
  8
LC-001-100-D00-0
 62
     7
370
    50
100
AcDbLine
 10
202.299971
 20
253.674598
 30
0.0
 11
194.29997
 21
253.674598
 31
0.0
  0
ARC
  5
469
330
1F
100
AcDbEntity
  8
LC-001-100-D00-0
 62
     7
370
    50
100
AcDbCircle
 10
137.299971
 20
291.674594
 30
0.0
 40
8.0
100
AcDbArc
 50
90.0
 51
180.0
  0
LINE
  5
46A
330
1F
100
AcDbEntity
  8
LC-001-100-D00-0
 62
     7
370
    50
100
AcDbLine
 10
129.299972
 20
256.674589
 30
0.0
 11
129.299972
 21
291.674585
 31
0.0
  0
ARC
  5
46B
330
1F
100
AcDbEntity
  8
LC-001-100-D00-0
 62
     7
370
    50
100
AcDbCircle
 10
132.299971
 20
256.674594
 30
0.0
 40
3.0
100
AcDbArc
 50
180.0
 51
270.0
  0
LINE
  5
46C
330
1F
100
AcDbEntity
  8
LC-001-100-D00-0
 62
     7
370
    50
100
AcDbLine
 10
140.299965
 20
253.674598
 30
0.0
 11
132.299978
 21
253.674598
 31
0.0
  0
LINE
  5
46D
330
1F
100
AcDbEntity
  8
LC-001-100-D00-0
 62
     7
370
    50
100
AcDbLine
 10
140.299965
 20
299.674601
 30
0.0
 11
140.299965
 21
253.674598
 31
0.0
  0
LINE
  5
46E
330
1F
100
AcDbEntity
  8
LC-001-100-D00-0
 62
     7
370
    50
100
AcDbLine
 10
137.299973
 20
299.674601
 30
0.0
 11
140.299965
 21
299.674601
 31
0.0
  0
LINE
  5
46F
330
1F
100
AcDbEntity
  8
LC-001-100-D00-0
 62
     7
370
    50
100
AcDbLine
 10
193.299968
 20
251.674594
 30
0.0
 11
185.04997
 21
251.674594
 31
0.0
  0
LINE
  5
470
330
1F
100
AcDbEntity
  8
LC-001-100-D00-0
 62
     7
370
    50
100
AcDbLine
 10
149.549972
 20
251.674594
 30
0.0
 11
141.299967
 21
251.674594
 31
0.0
  0
ARC
  5
471
330
1F
100
AcDbEntity
  8
LC-001-100-D00-0
 62
     7
370
    50
100
AcDbCircle
 10
167.724971
 20
306.174594
 30
0.0
 40
0.5000000000001137
100
AcDbArc
 50
0.0
 51
90.0
  0
LINE
  5
472
330
1F
100
AcDbEntity
  8
LC-001-100-D00-0
 62
     7
370
    50
100
AcDbLine
 10
166.874971
 20
306.674601
 30
0.0
 11
167.724971
 21
306.674601
 31
0.0
  0
ARC
  5
473
330
1F
100
AcDbEntity
  8
LC-001-100-D00-0
 62
     7
370
    50
100
AcDbCircle
 10
166.874971
 20
306.174594
 30
0.0
 40
0.5000000000001137
100
AcDbArc
 50
90.0
 51
180.0
  0
LINE
  5
474
330
1F
100
AcDbEntity
  8
LC-001-100-D00-0
 62
     7
370
    50
100
AcDbLine
 10
168.224972
 20
304.674597
 30
0.0
 11
168.224972
 21
306.174607
 31
0.0
  0
LINE
  5
475
330
1F
100
AcDbEntity
  8
LC-001-100-D00-0
 62
     7
370
    50
100
AcDbLine
 10
166.37497
 20
304.674597
 30
0.0
 11
166.37497
 21
306.174607
 31
0.0
  0
LINE
  5
476
330
1F
100
AcDbEntity
  8
LC-001-100-D00-0
 62
     7
370
    50
100
AcDbLine
 10
144.424978
 20
233.174593
 30
0.0
 11
144.424978
 21
234.774591
 31
0.0
  0
LINE
  5
477
330
1F
100
AcDbEntity
  8
LC-001-100-D00-0
 62
     7
370
    50
100
AcDbLine
 10
190.174971
 20
234.774591
 30
0.0
 11
190.174971
 21
233.174593
 31
0.0
  0
LINE
  5
478
330
1F
100
AcDbEntity
  8
LC-001-100-D00-0
 62
     7
370
    50
100
AcDbLine
 10
190.174971
 20
234.774591
 30
0.0
 11
144.424978
 21
234.774591
 31
0.0
  0
LINE
  5
479
330
1F
100
AcDbEntity
  8
LC-001-100-D00-0
 62
     7
370
    50
100
AcDbLine
 10
190.174971
 20
233.174593
 30
0.0
 11
144.424978
 21
233.174593
 31
0.0
  0
LINE
  5
47A
330
1F
100
AcDbEntity
  8
LC-001-100-D00-0
 62
     7
370
    50
100
AcDbLine
 10
171.599973
 20
235.177756
 30
0.0
 11
171.599973
 21
234.774591
 31
0.0
  0
LINE
  5
47B
330
1F
100
AcDbEntity
  8
LC-001-100-D00-0
 62
     7
370
    50
100
AcDbLine
 10
162.999969
 20
235.177756
 30
0.0
 11
162.999969
 21
234.774591
 31
0.0
  0
ARC
  5
47C
330
1F
100
AcDbEntity
  8
LC-001-100-D00-0
 62
     7
370
    50
100
AcDbCircle
 10
202.299971
 20
255.677753
 30
0.0
 40
10.5
100
AcDbArc
 50
270.0
 51
303.203823
  0
ARC
  5
47D
330
1F
100
AcDbEntity
  8
LC-001-100-D00-0
 62
     7
370
    50
100
AcDbCircle
 10
132.299971
 20
255.677753
 30
0.0
 40
10.5
100
AcDbArc
 50
236.796177
 51
270.0
  0
LINE
  5
47E
330
1F
100
AcDbEntity
  8
LC-001-100-D00-0
 62
     7
370
    50
100
AcDbLine
 10
121.799964
 20
303.67458
 30
0.0
 11
121.799964
 21
313.6746
 31
0.0
  0
LINE
  5
47F
330
1F
100
AcDbEntity
  8
LC-001-100-D00-0
 62
     7
370
    50
100
AcDbLine
 10
121.799964
 20
303.67458
 30
0.0
 11
123.549972
 21
303.67458
 31
0.0
  0
ARC
  5
480
330
1F
100
AcDbEntity
  8
LC-001-100-D00-0
 62
     7
370
    50
100
AcDbCircle
 10
123.549971
 20
300.674594
 30
0.0
 40
3.0
100
AcDbArc
 50
0.0
 51
90.0
  0
LINE
  5
481
330
1F
100
AcDbEntity
  8
LC-001-100-D00-0
 62
     7
370
    50
100
AcDbLine
 10
149.549972
 20
245.177747
 30
0.0
 11
132.299978
 21
245.177747
 31
0.0
  0
LINE
  5
482
330
1F
100
AcDbEntity
  8
LC-001-100-D00-0
 62
     7
370
    50
100
AcDbLine
 10
149.549972
 20
299.674601
 30
0.0
 11
149.549972
 21
245.177747
 31
0.0
  0
LINE
  5
483
330
1F
100
AcDbEntity
  8
LC-001-100-D00-0
 62
     7
370
    50
100
AcDbLine
 10
152.210224
 20
299.674601
 30
0.0
 11
149.549972
 21
299.674601
 31
0.0
  0
LINE
  5
484
330
1F
100
AcDbEntity
  8
LC-001-100-D00-0
 62
     7
370
    50
100
AcDbLine
 10
153.549973
 20
294.674606
 30
0.0
 11
152.210224
 21
299.674601
 31
0.0
  0
LINE
  5
485
330
1F
100
AcDbEntity
  8
LC-001-100-D00-0
 62
     7
370
    50
100
AcDbLine
 10
153.549973
 20
243.677766
 30
0.0
 11
153.549973
 21
294.674606
 31
0.0
  0
LINE
  5
486
330
1F
100
AcDbEntity
  8
LC-001-100-D00-0
 62
     7
370
    50
100
AcDbLine
 10
132.299978
 20
243.677766
 30
0.0
 11
153.549973
 21
243.677766
 31
0.0
  0
ARC
  5
487
330
1F
100
AcDbEntity
  8
LC-001-100-D00-0
 62
     7
370
    50
100
AcDbCircle
 10
132.299971
 20
255.677753
 30
0.0
 40
12.00000000000006
100
AcDbArc
 50
180.0
 51
270.0
  0
LINE
  5
488
330
1F
100
AcDbEntity
  8
LC-001-100-D00-0
 62
     7
370
    50
100
AcDbLine
 10
120.299969
 20
292.12007
 30
0.0
 11
120.299969
 21
255.677761
 31
0.0
  0
LINE
  5
489
330
1F
100
AcDbEntity
  8
LC-001-100-D00-0
 62
     7
370
    50
100
AcDbLine
 10
119.299967
 20
293.120087
 30
0.0
 11
120.299969
 21
292.12007
 31
0.0
  0
LINE
  5
48A
330
1F
100
AcDbEntity
  8
LC-001-100-D00-0
 62
     7
370
    50
100
AcDbLine
 10
119.299967
 20
295.722158
 30
0.0
 11
119.299967
 21
293.120087
 31
0.0
  0
LINE
  5
48B
330
1F
100
AcDbEntity
  8
LC-001-100-D00-0
 62
     7
370
    50
100
AcDbLine
 10
119.799975
 20
295.722158
 30
0.0
 11
119.299967
 21
295.722158
 31
0.0
  0
ARC
  5
48C
330
1F
100
AcDbEntity
  8
LC-001-100-D00-0
 62
     7
370
    50
100
AcDbCircle
 10
119.799971
 20
296.222147
 30
0.0
 40
0.5
100
AcDbArc
 50
270.0
 51
0.0
  0
LINE
  5
48D
330
1F
100
AcDbEntity
  8
LC-001-100-D00-0
 62
     7
370
    50
100
AcDbLine
 10
120.299969
 20
299.674601
 30
0.0
 11
120.299969
 21
296.222151
 31
0.0
  0
LINE
  5
48E
330
1F
100
AcDbEntity
  8
LC-001-100-D00-0
 62
     7
370
    50
100
AcDbLine
 10
117.599968
 20
301.604093
 30
0.0
 11
117.599968
 21
299.674601
 31
0.0
  0
LINE
  5
48F
330
1F
100
AcDbEntity
  8
LC-001-100-D00-0
 62
     7
370
    50
100
AcDbLine
 10
120.649967
 20
301.870913
 30
0.0
 11
117.599968
 21
301.604093
 31
0.0
  0
LINE
  5
490
330
1F
100
AcDbEntity
  8
LC-001-100-D00-0
 62
     7
370
    50
100
AcDbLine
 10
120.649967
 20
306.370915
 30
0.0
 11
120.649967
 21
301.870913
 31
0.0
  0
LINE
  5
491
330
1F
100
AcDbEntity
  8
LC-001-100-D00-0
 62
     7
370
    50
100
AcDbLine
 10
117.599968
 20
306.637765
 30
0.0
 11
120.649967
 21
306.370915
 31
0.0
  0
LINE
  5
492
330
1F
100
AcDbEntity
  8
LC-001-100-D00-0
 62
     7
370
    50
100
AcDbLine
 10
117.599968
 20
311.674596
 30
0.0
 11
117.599968
 21
306.637765
 31
0.0
  0
LINE
  5
493
330
1F
100
AcDbEntity
  8
LC-001-100-D00-0
 62
     7
370
    50
100
AcDbLine
 10
114.299971
 20
311.674596
 30
0.0
 11
117.599968
 21
311.674596
 31
0.0
  0
LINE
  5
494
330
1F
100
AcDbEntity
  8
LC-001-100-D00-0
 62
     7
370
    50
100
AcDbLine
 10
114.299971
 20
313.6746
 30
0.0
 11
114.299971
 21
311.674596
 31
0.0
  0
LINE
  5
495
330
1F
100
AcDbEntity
  8
LC-001-100-D00-0
 62
     7
370
    50
100
AcDbLine
 10
121.799964
 20
313.6746
 30
0.0
 11
114.299971
 21
313.6746
 31
0.0
  0
LINE
  5
496
330
1F
100
AcDbEntity
  8
LC-001-100-D00-0
 62
     7
370
    50
100
AcDbLine
 10
117.599968
 20
299.674601
 30
0.0
 11
120.299969
 21
299.674601
 31
0.0
  0
LINE
  5
497
330
1F
100
AcDbEntity
  8
LC-001-100-D00-0
 62
     7
370
    50
100
AcDbLine
 10
126.549978
 20
300.674589
 30
0.0
 11
126.549978
 21
246.892125
 31
0.0
  0
LINE
  5
498
330
1F
100
AcDbEntity
  8
LC-001-100-D00-0
 62
     7
370
    50
100
AcDbLine
 10
216.99997
 20
299.674601
 30
0.0
 11
216.99997
 21
301.604093
 31
0.0
  0
LINE
  5
499
330
1F
100
AcDbEntity
  8
LC-001-100-D00-0
 62
     7
370
    50
100
AcDbLine
 10
216.99997
 20
301.604093
 30
0.0
 11
213.949971
 21
301.870913
 31
0.0
  0
LINE
  5
49A
330
1F
100
AcDbEntity
  8
LC-001-100-D00-0
 62
     7
370
    50
100
AcDbLine
 10
220.29997
 20
311.674596
 30
0.0
 11
220.29997
 21
313.6746
 31
0.0
  0
LINE
  5
49B
330
1F
100
AcDbEntity
  8
LC-001-100-D00-0
 62
     7
370
    50
100
AcDbLine
 10
213.949971
 20
306.370915
 30
0.0
 11
216.99997
 21
306.637765
 31
0.0
  0
LINE
  5
49C
330
1F
100
AcDbEntity
  8
LC-001-100-D00-0
 62
     7
370
    50
100
AcDbLine
 10
214.299973
 20
292.12007
 30
0.0
 11
215.299971
 21
293.120087
 31
0.0
  0
LINE
  5
49D
330
1F
100
AcDbEntity
  8
LC-001-100-D00-0
 62
     7
370
    50
100
AcDbLine
 10
216.99997
 20
306.637765
 30
0.0
 11
216.99997
 21
311.674596
 31
0.0
  0
LINE
  5
49E
330
1F
100
AcDbEntity
  8
LC-001-100-D00-0
 62
     7
370
    50
100
AcDbLine
 10
215.299971
 20
293.120087
 30
0.0
 11
215.299971
 21
295.722158
 31
0.0
  0
ARC
  5
49F
330
1F
100
AcDbEntity
  8
LC-001-100-D00-0
 62
     7
370
    50
100
AcDbCircle
 10
214.799971
 20
296.222147
 30
0.0
 40
0.5
100
AcDbArc
 50
180.0
 51
270.0
  0
LINE
  5
4A0
330
1F
100
AcDbEntity
  8
LC-001-100-D00-0
 62
     7
370
    50
100
AcDbLine
 10
214.299973
 20
296.222151
 30
0.0
 11
214.299973
 21
299.674601
 31
0.0
  0
LINE
  5
4A1
330
1F
100
AcDbEntity
  8
LC-001-100-D00-0
 62
     7
370
    50
100
AcDbLine
 10
214.299973
 20
255.677761
 30
0.0
 11
214.299973
 21
292.12007
 31
0.0
  0
LINE
  5
4A2
330
1F
100
AcDbEntity
  8
LC-001-100-D00-0
 62
     7
370
    50
100
AcDbLine
 10
212.79997
 20
313.6746
 30
0.0
 11
212.79997
 21
303.67458
 31
0.0
  0
LINE
  5
4A3
330
1F
100
AcDbEntity
  8
LC-001-100-D00-0
 62
     7
370
    50
100
AcDbLine
 10
212.79997
 20
313.6746
 30
0.0
 11
121.799964
 21
313.6746
 31
0.0
  0
LINE
  5
4A4
330
1F
100
AcDbEntity
  8
LC-001-100-D00-0
 62
     7
370
    50
100
AcDbLine
 10
213.949971
 20
301.870913
 30
0.0
 11
213.949971
 21
306.370915
 31
0.0
  0
ARC
  5
4A5
330
1F
100
AcDbEntity
  8
LC-001-100-D00-0
 62
     7
370
    50
100
AcDbCircle
 10
202.299971
 20
255.677753
 30
0.0
 40
12.0
100
AcDbArc
 50
270.0
 51
0.0
  0
LINE
  5
4A6
330
1F
100
AcDbEntity
  8
LC-001-100-D00-0
 62
     7
370
    50
100
AcDbLine
 10
185.04997
 20
245.177747
 30
0.0
 11
185.04997
 21
299.674601
 31
0.0
  0
LINE
  5
4A7
330
1F
100
AcDbEntity
  8
LC-001-100-D00-0
 62
     7
370
    50
100
AcDbLine
 10
182.389717
 20
299.674601
 30
0.0
 11
181.049969
 21
294.674606
 31
0.0
  0
LINE
  5
4A8
330
1F
100
AcDbEntity
  8
LC-001-100-D00-0
 62
     7
370
    50
100
AcDbLine
 10
181.049969
 20
294.674606
 30
0.0
 11
153.549973
 21
294.674606
 31
0.0
  0
LINE
  5
4A9
330
1F
100
AcDbEntity
  8
LC-001-100-D00-0
 62
     7
370
    50
100
AcDbLine
 10
181.049969
 20
294.674606
 30
0.0
 11
181.049969
 21
243.677766
 31
0.0
  0
LINE
  5
4AA
330
1F
100
AcDbEntity
  8
LC-001-100-D00-0
 62
     7
370
    50
100
AcDbLine
 10
181.049969
 20
243.677766
 30
0.0
 11
153.549973
 21
243.677766
 31
0.0
  0
LINE
  5
4AB
330
1F
100
AcDbEntity
  8
LC-001-100-D00-0
 62
     7
370
    50
100
AcDbLine
 10
208.049971
 20
246.892125
 30
0.0
 11
208.049971
 21
300.674589
 31
0.0
  0
ARC
  5
4AC
330
1F
100
AcDbEntity
  8
LC-001-100-D00-0
 62
     7
370
    50
100
AcDbCircle
 10
211.049971
 20
300.674594
 30
0.0
 40
3.0
100
AcDbArc
 50
90.0
 51
180.0
  0
LINE
  5
4AD
330
1F
100
AcDbEntity
  8
LC-001-100-D00-0
 62
     7
370
    50
100
AcDbLine
 10
211.04997
 20
303.67458
 30
0.0
 11
212.79997
 21
303.67458
 31
0.0
  0
LINE
  5
4AE
330
1F
100
AcDbEntity
  8
LC-001-100-D00-0
 62
     7
370
    50
100
AcDbLine
 10
185.04997
 20
299.674601
 30
0.0
 11
182.389717
 21
299.674601
 31
0.0
  0
LINE
  5
4AF
330
1F
100
AcDbEntity
  8
LC-001-100-D00-0
 62
     7
370
    50
100
AcDbLine
 10
181.049969
 20
243.677766
 30
0.0
 11
202.299971
 21
243.677766
 31
0.0
  0
LINE
  5
4B0
330
1F
100
AcDbEntity
  8
LC-001-100-D00-0
 62
     7
370
    50
100
AcDbLine
 10
202.299971
 20
245.177747
 30
0.0
 11
185.04997
 21
245.177747
 31
0.0
  0
LINE
  5
4B1
330
1F
100
AcDbEntity
  8
LC-001-100-D00-0
 62
     7
370
    50
100
AcDbLine
 10
215.299971
 20
295.722158
 30
0.0
 11
214.79997
 21
295.722158
 31
0.0
  0
LINE
  5
4B2
330
1F
100
AcDbEntity
  8
LC-001-100-D00-0
 62
     7
370
    50
100
AcDbLine
 10
216.99997
 20
311.674596
 30
0.0
 11
220.29997
 21
311.674596
 31
0.0
  0
LINE
  5
4B3
330
1F
100
AcDbEntity
  8
LC-001-100-D00-0
 62
     7
370
    50
100
AcDbLine
 10
220.29997
 20
313.6746
 30
0.0
 11
212.79997
 21
313.6746
 31
0.0
  0
LINE
  5
4B4
330
1F
100
AcDbEntity
  8
LC-001-100-D00-0
 62
     7
370
    50
100
AcDbLine
 10
214.299973
 20
299.674601
 30
0.0
 11
216.99997
 21
299.674601
 31
0.0
  0
LINE
  5
4B5
330
1F
100
AcDbEntity
  8
LC-001-100-D00-0
 62
     7
370
    50
100
AcDbLine
 10
161.549974
 20
235.177756
 30
0.0
 11
161.549974
 21
243.677766
 31
0.0
  0
LINE
  5
4B6
330
1F
100
AcDbEntity
  8
LC-001-100-D00-0
 62
     7
370
    50
100
AcDbLine
 10
162.549969
 20
235.177756
 30
0.0
 11
161.549974
 21
235.177756
 31
0.0
  0
LINE
  5
4B7
330
1F
100
AcDbEntity
  8
LC-001-100-D00-0
 62
     7
370
    50
100
AcDbLine
 10
162.549969
 20
235.177756
 30
0.0
 11
172.049973
 21
235.177756
 31
0.0
  0
LINE
  5
4B8
330
1F
100
AcDbEntity
  8
LC-001-100-D00-0
 62
     7
370
    50
100
AcDbLine
 10
173.049968
 20
243.677766
 30
0.0
 11
173.049968
 21
235.177756
 31
0.0
  0
LINE
  5
4B9
330
1F
100
AcDbEntity
  8
LC-001-100-D00-0
 62
     7
370
    50
100
AcDbLine
 10
173.049968
 20
235.177756
 30
0.0
 11
172.049973
 21
235.177756
 31
0.0
  0
LINE
  5
4BA
330
1F
100
AcDbEntity
  8
LC-001-100-D00-0
 62
     7
370
    50
100
AcDbLine
 10
209.799971
 20
315.448971
 30
0.0
 11
219.799973
 21
315.448971
 31
0.0
  0
LINE
  5
4BB
330
1F
100
AcDbEntity
  8
LC-001-100-D00-0
 62
     7
370
    50
100
AcDbLine
 10
114.799965
 20
315.448971
 30
0.0
 11
124.79997
 21
315.448971
 31
0.0
  0
INSERT
  5
4D1
330
1F
100
AcDbEntity
  8
LC-001-100-D00-0
 62
     7
370
    25
100
AcDbBlockReference
  2
KLON2
 10
0.0
 20
0.0
 30
0.0
  0
INSERT
  5
4E5
330
1F
100
AcDbEntity
  8
LC-001-100-D00-0
 62
     7
370
    25
100
AcDbBlockReference
  2
KLON3
 10
0.0
 20
0.0
 30
0.0
  0
INSERT
  5
4EE
330
1F
100
AcDbEntity
  8
LC-001-100-D00-0
 62
     7
370
    25
100
AcDbBlockReference
  2
KLON4
 10
0.0
 20
0.0
 30
0.0
  0
INSERT
  5
510
330
1F
100
AcDbEntity
  8
LC-001-100-D00-0
 62
     7
370
    25
100
AcDbBlockReference
  2
KLON5
 10
0.0
 20
0.0
 30
0.0
  0
LINE
  5
511
330
1F
100
AcDbEntity
  8
LC-001-100-D00-0
 62
     7
370
    25
100
AcDbLine
 10
117.202917
 20
301.746935
 30
0.0
 11
120.22763
 21
304.771648
 31
0.0
  0
LINE
  5
512
330
1F
100
AcDbEntity
  8
LC-001-100-D00-0
 62
     7
370
    25
100
AcDbLine
 10
216.033718
 20
301.794918
 30
0.0
 11
219.179647
 21
304.940847
 31
0.0
  0
INSERT
  5
531
330
1F
100
AcDbEntity
  8
LC-001-100-D00-0
 62
     7
370
    25
100
AcDbBlockReference
  2
KLON6
 10
0.0
 20
0.0
 30
0.0
  0
INSERT
  5
54D
330
1F
100
AcDbEntity
  8
LC-001-100-D00-0
 62
     7
370
    25
100
AcDbBlockReference
  2
KLON7
 10
0.0
 20
0.0
 30
0.0
  0
INSERT
  5
556
330
1F
100
AcDbEntity
  8
LC-001-100-D00-0
 62
     7
370
    25
100
AcDbBlockReference
  2
KLON8
 10
0.0
 20
0.0
 30
0.0
  0
INSERT
  5
55D
330
1F
100
AcDbEntity
  8
LC-001-100-D00-0
 62
     7
370
    25
100
AcDbBlockReference
  2
KLON9
 10
0.0
 20
0.0
 30
0.0
  0
INSERT
  5
56D
330
1F
100
AcDbEntity
  8
LC-001-100-D00-0
 62
     7
370
    25
100
AcDbBlockReference
  2
KLON10
 10
0.0
 20
0.0
 30
0.0
  0
INSERT
  5
57D
330
1F
100
AcDbEntity
  8
LC-001-100-D00-0
 62
     7
370
    25
100
AcDbBlockReference
  2
KLON11
 10
0.0
 20
0.0
 30
0.0
  0
INSERT
  5
585
330
1F
100
AcDbEntity
  8
LC-001-100-D00-0
 62
     7
370
    25
100
AcDbBlockReference
  2
KLON12
 10
0.0
 20
0.0
 30
0.0
  0
LINE
  5
586
330
1F
100
AcDbEntity
  8
LC-001-100-D00-0
 62
     7
370
    50
100
AcDbLine
 10
218.166623
 20
303.927824
 30
0.0
 11
219.331373
 21
305.092574
 31
0.0
  0
INSERT
  5
593
330
1F
100
AcDbEntity
  8
LC-001-100-D00-0
 62
     7
370
    25
100
AcDbBlockReference
  2
KLON13
 10
0.0
 20
0.0
 30
0.0
  0
LINE
  5
594
330
1F
100
AcDbEntity
  8
LC-001-100-D00-0
 62
     7
370
    25
100
AcDbLine
 10
115.91445
 20
318.41898
 30
0.0
 11
117.41445
 21
319.91898
 31
0.0
  0
INSERT
  5
59B
330
1F
100
AcDbEntity
  8
LC-001-100-D00-0
 62
     7
370
    25
100
AcDbBlockReference
  2
KLON14
 10
0.0
 20
0.0
 30
0.0
  0
DIMENSION
  5
59E
330
1F
100
AcDbEntity
  8
LC-001-100-D00-0
 62
     7
370
    25
100
AcDbDimension
  2
*D54
 10
192.299971
 20
62.297568
 30
0.0
 11
194.266496
 21
93.097568
 31
0.0
 70
   160
  1
DN50
 71
     5
 42
50.0
  3
LC-DIM-L-0140-02-02
100
AcDbAlignedDimension
 13
142.299971
 23
84.974589
 33
0.0
 14
192.299971
 24
84.974589
 34
0.0
100
AcDbRotatedDimension
  0
DIMENSION
  5
5AD
330
1F
100
AcDbEntity
  8
LC-001-100-D00-0
 62
     7
370
    25
100
AcDbDimension
  2
*D55
 10
230.299971
 20
-50.562432
 30
0.0
 11
159.125488
 21
-19.762432
 31
0.0
 70
   160
  1
%%c126
 71
     5
 42
126.0
  3
LC-DIM-L-0140-02-02
100
AcDbAlignedDimension
 13
104.299971
 23
199.474589
 33
0.0
 14
230.299971
 24
199.474589
 34
0.0
100
AcDbRotatedDimension
  0
DIMENSION
  5
5BA
330
1F
100
AcDbEntity
  8
LC-001-100-D00-0
 62
     7
370
    25
100
AcDbDimension
  2
*D56
 10
222.299971
 20
1.115568
 30
0.0
 11
162.320125
 21
31.915568
 31
0.0
 70
   160
  1
%%c110
 71
     5
 42
110.0
  3
LC-DIM-L-0140-02-02
100
AcDbAlignedDimension
 13
112.299971
 23
154.170856
 33
0.0
 14
222.299971
 24
154.170856
 34
0.0
100
AcDbRotatedDimension
  0
LINE
  5
5C9
330
1F
100
AcDbEntity
  8
LC-002-105-D00-0
 62
     7
370
    25
100
AcDbLine
 10
167.299971
 20
320.418985
 30
0.0
 11
167.299971
 21
65.325541
 31
0.0
  0
DIMENSION
  5
5CB
330
1F
100
AcDbEntity
  8
LC-003-003-----0
 62
     7
370
    25
100
AcDbDimension
  2
*D57
 10
281.799971
 20
393.749568
 30
0.0
 11
171.904036
 21
424.549568
 31
0.0
 70
   160
  1
%%c230
 71
     5
 42
228.999997
  3
LC-DIM-L-0140-02-02
100
AcDbAlignedDimension
 13
52.799973
 23
228.662134
 33
0.0
 14
281.799971
 24
228.662134
 34
0.0
100
AcDbRotatedDimension
  0
DIMENSION
  5
5D8
330
1F
100
AcDbEntity
  8
LC-003-003-----0
 62
     7
370
    25
100
AcDbDimension
  2
*D58
 10
30.275122
 20
139.474589
 30
0.0
 11
-0.524878
 21
181.097568
 31
0.0
 70
   160
  1
90
 71
     5
 42
89.187545
 53
90.0
  3
LC-DIM-L-0140-02-02
100
AcDbAlignedDimension
 13
52.799973
 23
228.662134
 33
0.0
 14
118.770653
 24
139.474589
 34
0.0
 50
90.0
100
AcDbRotatedDimension
  0
DIMENSION
  5
5E5
330
1F
100
AcDbEntity
  8
LC-003-003-----0
 62
     7
370
    25
100
AcDbDimension
  2
*D59
 10
332.700773
 20
320.418985
 30
0.0
 11
301.900773
 21
271.385568
 31
0.0
 70
   160
  1
14-88
 71
     5
 42
88.274979
 53
90.0
  3
LC-DIM-L-0140-02-02
100
AcDbAlignedDimension
 13
279.733718
 23
232.144006
 33
0.0
 14
226.299971
 24
320.418985
 34
0.0
 50
90.0
100
AcDbRotatedDimension
  0
INSERT
  5
5F9
330
1F
100
AcDbEntity
  8
LC-001-100-D00-0
 62
     7
370
    25
100
AcDbBlockReference
  2
KLON15
 10
0.0
 20
0.0
 30
0.0
  0
DIMENSION
  5
5FA
330
1F
100
AcDbEntity
  8
LC-003-003-----0
 62
     7
370
    25
100
AcDbDimension
  2
*D61
 10
84.583954
 20
81.474588
 30
0.0
 11
53.783954
 21
105.659568
 31
0.0
 70
   160
 71
     5
 42
58.000001
 53
90.0
  3
LC-DIM-L-0140-02-02
100
AcDbAlignedDimension
 13
118.770653
 23
139.474589
 33
0.0
 14
145.299975
 24
81.474588
 34
0.0
 50
90.0
100
AcDbRotatedDimension
  0
DIMENSION
  5
609
330
1F
100
AcDbEntity
  8
LC-003-003-----0
 62
     7
370
    25
100
AcDbDimension
  2
*D62
 10
227.799971
 20
334.419757
 30
0.0
 11
166.424169
 21
365.219757
 31
0.0
 70
   160
  1
120
 71
     5
 42
121.000007
  3
LC-DIM-L-0140-02-02
100
AcDbAlignedDimension
 13
106.799964
 23
318.418981
 33
0.0
 14
227.799971
 24
318.418981
 34
0.0
100
AcDbRotatedDimension
  0
ENDSEC
  0
SECTION
  2
OBJECTS
  0
DICTIONARY
  5
C
330
0
100
AcDbDictionary
281
     1
  3
ACAD_GROUP
350
D
  3
ACAD_LAYOUT
350
1A
  3
ACAD_MLINESTYLE
350
17
  3
ACAD_PLOTSETTINGS
350
19
  3
ACAD_PLOTSTYLENAME
350
E
  0
DICTIONARY
  5
D
102
{ACAD_REACTORS
330
C
102
}
330
C
100
AcDbDictionary
281
     1
  0
DICTIONARY
  5
1A
102
{ACAD_REACTORS
330
C
102
}
330
C
100
AcDbDictionary
281
     1
  3
Layout1
350
1E
  3
Layout2
350
26
  3
Model
350
22
  0
DICTIONARY
  5
17
102
{ACAD_REACTORS
330
C
102
}
330
C
100
AcDbDictionary
281
     1
  3
Standard
350
18
  0
DICTIONARY
  5
19
102
{ACAD_REACTORS
330
C
102
}
330
C
100
AcDbDictionary
281
     1
  0
ACDBDICTIONARYWDFLT
  5
E
102
{ACAD_REACTORS
330
C
102
}
330
C
100
AcDbDictionary
281
     1
  3
Normal
350
F
100
AcDbDictionaryWithDefault
340
F
  0
LAYOUT
  5
1E
102
{ACAD_REACTORS
330
1A
102
}
330
1A
100
AcDbPlotSettings
  1

  2

  4

  6

 40
0.0
 41
0.0
 42
0.0
 43
0.0
 44
0.0
 45
0.0
 46
0.0
 47
0.0
 48
0.0
 49
0.0
140
0.0
141
0.0
142
1.0
143
1.0
 70
   688
 72
     0
 73
     0
 74
     5
  7

 75
    16
147
1.0
148
0.0
149
0.0
100
AcDbLayout
  1
Layout1
 70
     1
 71
     1
 10
-209.760318
 20
-147.978432
 11
630.239682
 21
446.021568
 12
0.0
 22
0.0
 32
0.0
 14
-209.760318
 24
-147.978432
 34
0.0
 15
630.239682
 25
446.021568
 35
0.0
146
0.0
 13
0.0
 23
0.0
 33
0.0
 16
1.0
 26
0.0
 36
0.0
 17
0.0
 27
1.0
 37
0.0
 76
     0
330
1B
  0
LAYOUT
  5
26
102
{ACAD_REACTORS
330
1A
102
}
330
1A
100
AcDbPlotSettings
  1

  2

  4

  6

 40
0.0
 41
0.0
 42
0.0
 43
0.0
 44
0.0
 45
0.0
 46
0.0
 47
0.0
 48
0.0
 49
0.0
140
0.0
141
0.0
142
1.0
143
1.0
 70
   688
 72
     0
 73
     0
 74
     5
  7

 75
    16
147
1.0
148
0.0
149
0.0
100
AcDbLayout
  1
Layout2
 70
     1
 71
     2
 10
0.0
 20
0.0
 11
0.0
 21
0.0
 12
0.0
 22
0.0
 32
0.0
 14
0.0
 24
0.0
 34
0.0
 15
0.0
 25
0.0
 35
0.0
146
0.0
 13
0.0
 23
0.0
 33
0.0
 16
1.0
 26
0.0
 36
0.0
 17
0.0
 27
1.0
 37
0.0
 76
     0
330
23
  0
LAYOUT
  5
22
102
{ACAD_REACTORS
330
1A
102
}
330
1A
100
AcDbPlotSettings
  1

  2

  4

  6

 40
0.0
 41
0.0
 42
0.0
 43
0.0
 44
0.0
 45
0.0
 46
0.0
 47
0.0
 48
0.0
 49
0.0
140
0.0
141
0.0
142
1.0
143
1.0
 70
  1776
 72
     0
 73
     0
 74
     0
  7

 75
     0
147
1.0
148
0.0
149
0.0
100
AcDbLayout
  1
Model
 70
     1
 71
     0
 10
-209.760318
 20
-147.978432
 11
630.239682
 21
446.021568
 12
0.0
 22
0.0
 32
0.0
 14
-209.760318
 24
-147.978432
 34
0.0
 15
630.239682
 25
446.021568
 35
0.0
146
0.0
 13
0.0
 23
0.0
 33
0.0
 16
1.0
 26
0.0
 36
0.0
 17
0.0
 27
1.0
 37
0.0
 76
     0
330
1F
  0
MLINESTYLE
  5
18
102
{ACAD_REACTORS
330
17
102
}
330
17
100
AcDbMlineStyle
  2
Standard
 70
     0
  3

 62
   256
 51
90.0
 52
90.0
 71
     2
 49
0.5
 62
   256
  6
BYLAYER
 49
-0.5
 62
   256
  6
BYLAYER
  0
ACDBPLACEHOLDER
  5
F
102
{ACAD_REACTORS
330
E
102
}
330
E
  0
ENDSEC
  0
EOF
