  0
SECTION
  2
HEADER
  9
$ACADVER
  1
AC1009
  9
$INSBASE
 10
565.273216
 20
7181.045
 30
0.0
  9
$EXTMIN
 10
565.273216
 20
7181.045
 30
0.0
  9
$EXTMAX
 10
1405.273216
 20
7775.045
 30
0.0
  9
$LIMMIN
 10
565.273216
 20
7181.045
  9
$LIMMAX
 10
1405.273216
 20
7775.045
  9
$ORTHOMODE
 70
     0
  9
$REGENMODE
 70
     1
  9
$FILLMODE
 70
     1
  9
$QTEXTMODE
 70
     0
  9
$MIRRTEXT
 70
     1
  9
$DRAGMODE
 70
     2
  9
$LTSCALE
 40
2.0
  9
$OSMODE
 70
     0
  9
$ATTMODE
 70
     1
  9
$TEXTSIZE
 40
0.2
  9
$TRACEWID
 40
0.05
  9
$TEXTSTYLE
  7
STANDARD
  9
$CLAYER
  8
0
  9
$CELTYPE
  6
BYLAYER
  9
$CECOLOR
 62
     7
  9
$DIMSCALE
 40
2.0
  9
$DIMASZ
 40
3.5
  9
$DIMEXO
 40
0.0625
  9
$DIMDLI
 40
0.38
  9
$DIMRND
 40
0.0
  9
$DIMDLE
 40
0.0
  9
$DIMEXE
 40
0.18
  9
$DIMTP
 40
0.0
  9
$DIMTM
 40
0.0
  9
$DIMTXT
 40
3.5
  9
$DIMCEN
 40
0.09
  9
$DIMTSZ
 40
0.0
  9
$DIMTOL
 70
     0
  9
$DIMLIM
 70
     0
  9
$DIMTIH
 70
     1
  9
$DIMTOH
 70
     1
  9
$DIMSE1
 70
     0
  9
$DIMSE2
 70
     0
  9
$DIMTAD
 70
     1
  9
$DIMZIN
 70
     0
  9
$DIMBLK
  1

  9
$DIMASO
 70
     1
  9
$DIMSHO
 70
     1
  9
$DIMPOST
  1

  9
$DIMAPOST
  1

  9
$DIMALT
 70
     0
  9
$DIMALTD
 70
     2
  9
$DIMALTF
 40
25.4
  9
$DIMLFAC
 40
1.0
  9
$DIMTOFL
 70
     0
  9
$DIMTVP
 40
0.0
  9
$DIMTIX
 70
     0
  9
$DIMSOXD
 70
     0
  9
$DIMSAH
 70
     0
  9
$DIMBLK1
  1

  9
$DIMBLK2
  1

  9
$DIMSTYLE
  2
STANDARD
  9
$DIMCLRD
 70
     0
  9
$DIMCLRE
 70
     0
  9
$DIMCLRT
 70
     0
  9
$DIMTFAC
 40
1.0
  9
$DIMGAP
 40
0.09
  9
$LUNITS
 70
     2
  9
$LUPREC
 70
     2
  9
$AXISMODE
 70
     0
  9
$AXISUNIT
 10
0.0
 20
0.0
  9
$SKETCHINC
 40
0.1
  9
$FILLETRAD
 40
0.0
  9
$AUNITS
 70
     0
  9
$AUPREC
 70
     0
  9
$MENU
  1
acad
  9
$ELEVATION
 40
0.0
  9
$PELEVATION
 40
0.0
  9
$THICKNESS
 40
0.0
  9
$LIMCHECK
 70
     0
  9
$BLIPMODE
 70
     1
  9
$CHAMFERA
 40
0.0
  9
$CHAMFERB
 40
0.0
  9
$SKPOLY
 70
     0
  9
$TDCREATE
 40
0.000000000
  9
$TDUPDATE
 40
0.000000000
  9
$TDINDWG
 40
0.0000000000
  9
$TDUSRTIMER
 40
0.0000000000
  9
$USRTIMER
 70
     1
  9
$ANGBASE
 50
0.0
  9
$ANGDIR
 70
     0
  9
$PDMODE
 70
     0
  9
$PDSIZE
 40
0.0
  9
$PLINEWID
 40
0.0
  9
$COORDS
 70
     0
  9
$SPLFRAME
 70
     0
  9
$SPLINETYPE
 70
     6
  9
$SPLINESEGS
 70
     8
  9
$ATTDIA
 70
     0
  9
$ATTREQ
 70
     1
  9
$HANDLING
 70
     1
  9
$HANDSEED
  5
3B6
  9
$SURFTAB1
 70
     6
  9
$SURFTAB2
 70
     6
  9
$SURFTYPE
 70
     6
  9
$SURFU
 70
     6
  9
$SURFV
 70
     6
  9
$UCSNAME
  2

  9
$UCSORG
 10
0.0
 20
0.0
 30
0.0
  9
$UCSXDIR
 10
1.0
 20
0.0
 30
0.0
  9
$UCSYDIR
 10
0.0
 20
1.0
 30
0.0
  9
$PUCSNAME
  2

  9
$PUCSORG
 10
0.0
 20
0.0
 30
0.0
  9
$PUCSXDIR
 10
1.0
 20
0.0
 30
0.0
  9
$PUCSYDIR
 10
0.0
 20
1.0
 30
0.0
  9
$USERI1
 70
     0
  9
$USERI2
 70
     0
  9
$USERI3
 70
     0
  9
$USERI4
 70
     0
  9
$USERI5
 70
     0
  9
$USERR1
 40
0.0
  9
$USERR2
 40
0.0
  9
$USERR3
 40
0.0
  9
$USERR4
 40
0.0
  9
$USERR5
 40
0.0
  9
$WORLDVIEW
 70
     1
  9
$SHADEDGE
 70
     3
  9
$SHADEDIF
 70
    70
  9
$TILEMODE
 70
     1
  9
$MAXACTVP
 70
    16
  9
$PINSBASE
 10
0.0
 20
0.0
 30
0.0
  9
$PLIMCHECK
 70
     0
  9
$PEXTMIN
 10
1.000000E+20
 20
1.000000E+20
 30
1.000000E+20
  9
$PEXTMAX
 10
-1.000000E+20
 20
-1.000000E+20
 30
-1.000000E+20
  9
$PLIMMIN
 10
565.273216
 20
7181.045
  9
$PLIMMAX
 10
1405.273216
 20
7775.045
  9
$UNITMODE
 70
     0
  9
$VISRETAIN
 70
     0
  9
$PLINEGEN
 70
     1
  9
$PSLTSCALE
 70
     0
  9
$TREEDEPTH
 70
  3020
  9
$DWGCODEPAGE
  3
dos850
  0
ENDSEC
  0
SECTION
  2
TABLES
  0
TABLE
  2
VPORT
 70
     1
  0
VPORT
  2
*ACTIVE
 70
     0
 10
0.0
 20
0.0
 11
1.0
 21
1.0
 12
420.0
 22
297.0
 13
0.0
 23
0.0
 14
1.0
 24
1.0
 15
0.0
 25
0.0
 16
0.0
 26
0.0
 36
1.0
 17
565.273216
 27
7181.045
 37
0.0
 40
594.0
 41
1.604229
 42
50.0
 43
0.0
 44
0.0
 50
0.0
 51
0.0
 71
     0
 72
   100
 73
     1
 74
     1
 75
     0
 76
     0
 77
     0
 78
     0
  0
ENDTAB
  0
TABLE
  2
LTYPE
 70
     2
  0
LTYPE
  2
CONTINUOUS
 70
    64
  3
Solid line
 72
    65
 73
     0
 40
0.0
  0
LTYPE
  2
DASHDOT
 70
    64
  3
__ . __ . __ . __ . __
 72
    65
 73
     4
 40
7.5
 49
5.0
 49
-1.25
 49
0.0
 49
-1.25
  0
ENDTAB
  0
TABLE
  2
LAYER
 70
    12
  0
LAYER
  2
0
 70
     0
 62
     7
  6
CONTINUOUS
  0
LAYER
  2
LC-INFO-1-2-MM-A3-0
 70
     1
 62
    -1
  6
CONTINUOUS
  0
LAYER
  2
LC-003-003-MTH-0
 70
     0
 62
     2
  6
CONTINUOUS
  0
LAYER
  2
LC-004-003-MTG-0
 70
     0
 62
     2
  6
CONTINUOUS
  0
LAYER
  2
LC-002-003-----0
 70
     0
 62
     2
  6
CONTINUOUS
  0
LAYER
  2
LC-006-005-----0
 70
     0
 62
     2
  6
CONTINUOUS
  0
LAYER
  2
LC-001-002-----0
 70
     0
 62
     2
  6
DASHDOT
  0
LAYER
  2
LC-005-000-----0
 70
     0
 62
     7
  6
CONTINUOUS
  0
LAYER
  2
LC-009-000-----0
 70
     0
 62
     7
  6
CONTINUOUS
  0
LAYER
  2
LC-007-002-RND-0
 70
     0
 62
     1
  6
CONTINUOUS
  0
LAYER
  2
LC-008-007-KH--0
 70
     0
 62
     7
  6
DASHDOT
  0
LAYER
  2
LC-000
 70
     0
 62
     7
  6
CONTINUOUS
  0
ENDTAB
  0
TABLE
  2
STYLE
 70
     4
  0
STYLE
  2
STANDARD
 70
     0
 40
0.0
 41
1.0
 50
0.0
 71
     0
 42
0.0
  3
txt
  4

  0
STYLE
  2
LC-STANDARD
 70
    64
 40
0.0
 41
1.0
 50
0.0
 71
     0
 42
3.5
  3
MONOTXT
  4

  0
STYLE
  2
LC-TXTSTYLE-150-400-0-0-D2
 70
    64
 40
0.0
 41
1.0
 50
15.0
 71
     0
 42
3.5
  3
MONOTXT
  4

  0
STYLE
  2
LC-TXTSTYLE-150-400-0-0-D3
 70
    64
 40
0.0
 41
1.0
 50
15.0
 71
     0
 42
3.5
  3
LC-STANDARD
  4

  0
ENDTAB
  0
TABLE
  2
VIEW
 70
     0
  0
ENDTAB
  0
TABLE
  2
UCS
 70
     0
  0
ENDTAB
  0
TABLE
  2
APPID
 70
     1
  0
APPID
  2
ACAD
 70
     0
  0
ENDTAB
  0
TABLE
  2
DIMSTYLE
 70
     3
  0
DIMSTYLE
  2
STANDARD
 70
     0
  3

  4

  5

  6

  7

 40
1.0
 41
0.18
 42
0.0625
 43
0.38
 44
0.18
 45
0.0
 46
0.0
 47
0.0
 48
0.0
 71
     0
 72
     0
 73
     1
 74
     1
 75
     0
 76
     0
 77
     0
 78
     0
140
0.18
141
0.09
142
0.0
143
25.4
144
1.0
145
0.0
146
1.0
147
0.09
170
     0
171
     2
172
     0
173
     0
174
     0
175
     0
176
     0
177
     0
178
     0
  0
DIMSTYLE
  2
LC-STANDARD
 70
     0
  3

  4

  5

  6

  7

 40
1.0
 41
3.5
 42
0.0
 43
7.5
 44
1.8
 45
0.0
 46
0.0
 47
0.0
 48
0.0
 71
     0
 72
     0
 73
     0
 74
     0
 75
     0
 76
     0
 77
     1
 78
     8
140
3.5
141
0.0
142
0.0
143
25.4
144
1.0
145
0.0
146
0.71
147
1.5
170
     0
171
     2
172
     1
173
     0
174
     0
175
     0
176
     0
177
     0
178
     3
  0
DIMSTYLE
  2
LC-DIM-L-0090-02-02
 70
     0
  3

  4

  5

  6

  7

 40
2.0
 41
3.5
 42
0.0
 43
7.5
 44
1.8
 45
0.0
 46
0.0
 47
0.0
 48
0.0
 71
     0
 72
     0
 73
     0
 74
     0
 75
     0
 76
     0
 77
     1
 78
     8
140
9.0
141
0.0
142
0.0
143
25.4
144
1.0
145
0.0
146
0.71
147
1.5
170
     0
171
     2
172
     0
173
     0
174
     0
175
     0
176
     2
177
     2
178
     6
  0
ENDTAB
  0
ENDSEC
  0
SECTION
  2
BLOCKS
  0
BLOCK
  8
0
  5
23
  2
*D0
 70
    65
 10
0.0
 20
0.0
 30
0.0
  3
*D0
  0
LINE
  8
LC-003-003-MTH-0
  6
CONTINUOUS
  5
25
 10
782.819462
 20
7359.61517
 30
0.0
 11
782.819462
 21
7297.2
 31
0.0
  0
LINE
  8
LC-003-003-MTH-0
  6
CONTINUOUS
  5
26
 10
892.818977
 20
7365.615111
 30
0.0
 11
892.818977
 21
7297.2
 31
0.0
  0
LINE
  8
LC-004-003-MTG-0
  6
CONTINUOUS
  5
28
 10
782.819462
 20
7308.0
 30
0.0
 11
892.818977
 21
7308.0
 31
0.0
  0
LINE
  8
LC-002-003-----0
  6
CONTINUOUS
  5
2A
 10
800.665469
 20
7310.349471
 30
0.0
 11
782.819462
 21
7308.0
 31
0.0
  0
LINE
  8
LC-002-003-----0
  6
CONTINUOUS
  5
2B
 10
782.819462
 20
7308.0
 30
0.0
 11
800.665469
 21
7305.650529
 31
0.0
  0
LINE
  8
LC-002-003-----0
  6
CONTINUOUS
  5
2C
 10
800.665469
 20
7305.650529
 30
0.0
 11
800.665469
 21
7310.349471
 31
0.0
  0
LINE
  8
LC-002-003-----0
  6
CONTINUOUS
  5
2D
 10
800.705507
 20
7309.738609
 30
0.0
 11
787.499462
 21
7308.0
 31
0.0
  0
LINE
  8
LC-002-003-----0
  6
CONTINUOUS
  5
2E
 10
787.499462
 20
7308.0
 30
0.0
 11
800.705507
 21
7306.261391
 31
0.0
  0
LINE
  8
LC-002-003-----0
  6
CONTINUOUS
  5
2F
 10
800.745545
 20
7309.127746
 30
0.0
 11
792.179462
 21
7308.0
 31
0.0
  0
LINE
  8
LC-002-003-----0
  6
CONTINUOUS
  5
30
 10
792.179462
 20
7308.0
 30
0.0
 11
800.745545
 21
7306.872254
 31
0.0
  0
LINE
  8
LC-002-003-----0
  6
CONTINUOUS
  5
31
 10
800.785583
 20
7308.516884
 30
0.0
 11
796.859462
 21
7308.0
 31
0.0
  0
LINE
  8
LC-002-003-----0
  6
CONTINUOUS
  5
32
 10
796.859462
 20
7308.0
 30
0.0
 11
800.785583
 21
7307.483116
 31
0.0
  0
LINE
  8
LC-002-003-----0
  6
CONTINUOUS
  5
33
 10
874.97297
 20
7305.650529
 30
0.0
 11
892.818977
 21
7308.0
 31
0.0
  0
LINE
  8
LC-002-003-----0
  6
CONTINUOUS
  5
34
 10
892.818977
 20
7308.0
 30
0.0
 11
874.97297
 21
7310.349471
 31
0.0
  0
LINE
  8
LC-002-003-----0
  6
CONTINUOUS
  5
35
 10
874.97297
 20
7310.349471
 30
0.0
 11
874.97297
 21
7305.650529
 31
0.0
  0
LINE
  8
LC-002-003-----0
  6
CONTINUOUS
  5
36
 10
874.932932
 20
7306.261391
 30
0.0
 11
888.138977
 21
7308.0
 31
0.0
  0
LINE
  8
LC-002-003-----0
  6
CONTINUOUS
  5
37
 10
888.138977
 20
7308.0
 30
0.0
 11
874.932932
 21
7309.738609
 31
0.0
  0
LINE
  8
LC-002-003-----0
  6
CONTINUOUS
  5
38
 10
874.892894
 20
7306.872254
 30
0.0
 11
883.458977
 21
7308.0
 31
0.0
  0
LINE
  8
LC-002-003-----0
  6
CONTINUOUS
  5
39
 10
883.458977
 20
7308.0
 30
0.0
 11
874.892894
 21
7309.127746
 31
0.0
  0
LINE
  8
LC-002-003-----0
  6
CONTINUOUS
  5
3A
 10
874.852856
 20
7307.483116
 30
0.0
 11
878.778977
 21
7308.0
 31
0.0
  0
LINE
  8
LC-002-003-----0
  6
CONTINUOUS
  5
3B
 10
878.778977
 20
7308.0
 30
0.0
 11
874.852856
 21
7308.516884
 31
0.0
  0
TEXT
  8
LC-002-003-----0
  6
CONTINUOUS
 62
     6
  5
3D
 10
816.123127
 20
7313.031999
 30
0.0
 40
18.0
  1
Ø110
 41
0.9
 51
15.0
  7
LC-TXTSTYLE-150-400-0-0-D0
 72
     1
 11
840.614465
 21
7313.031999
 31
0.0
  0
ENDBLK
  8
0
  5
3E
  0
BLOCK
  8
0
  5
40
  2
BLK1
 70
    64
 10
0.0
 20
0.0
 30
0.0
  3
BLK1
  0
ENDBLK
  8
0
  5
41
  0
BLOCK
  8
0
  5
43
  2
BLK2
 70
    64
 10
0.0
 20
0.0
 30
0.0
  3
BLK2
  0
ENDBLK
  8
0
  5
44
  0
BLOCK
  8
0
  5
46
  2
BLK3
 70
    64
 10
0.0
 20
0.0
 30
0.0
  3
BLK3
  0
ENDBLK
  8
0
  5
47
  0
BLOCK
  8
0
  5
49
  2
*X4
 70
    65
 10
777.819855
 20
7355.615195
 30
0.0
  3
*X4
  0
LINE
  8
LC-006-005-----0
  6
CONTINUOUS
  5
4B
 10
785.178984
 20
7355.615195
 30
0.0
 11
785.8199
 21
7356.25611
 31
0.0
  0
LINE
  8
LC-006-005-----0
  6
CONTINUOUS
  5
4C
 10
782.350557
 20
7355.615195
 30
0.0
 11
785.350532
 21
7358.61517
 31
0.0
  0
LINE
  8
LC-006-005-----0
  6
CONTINUOUS
  5
4D
 10
779.52213
 20
7355.615195
 30
0.0
 11
782.819926
 21
7358.912991
 31
0.0
  0
LINE
  8
LC-006-005-----0
  6
CONTINUOUS
  5
4E
 10
777.819855
 20
7356.741347
 30
0.0
 11
782.819934
 21
7361.741427
 31
0.0
  0
LINE
  8
LC-006-005-----0
  6
CONTINUOUS
  5
4F
 10
777.819855
 20
7359.569774
 30
0.0
 11
782.819943
 21
7364.569862
 31
0.0
  0
LINE
  8
LC-006-005-----0
  6
CONTINUOUS
  5
50
 10
777.819855
 20
7362.398201
 30
0.0
 11
782.819952
 21
7367.398298
 31
0.0
  0
LINE
  8
LC-006-005-----0
  6
CONTINUOUS
  5
51
 10
777.819855
 20
7365.226628
 30
0.0
 11
778.208337
 21
7365.615111
 31
0.0
  0
LINE
  8
LC-006-005-----0
  6
CONTINUOUS
  5
52
 10
780.819949
 20
7368.226722
 30
0.0
 11
782.81996
 21
7370.226734
 31
0.0
  0
LINE
  8
LC-006-005-----0
  6
CONTINUOUS
  5
53
 10
780.819949
 20
7371.055149
 30
0.0
 11
782.819969
 21
7373.05517
 31
0.0
  0
LINE
  8
LC-006-005-----0
  6
CONTINUOUS
  5
54
 10
780.819949
 20
7373.883576
 30
0.0
 11
781.685674
 21
7374.749302
 31
0.0
  0
ENDBLK
  8
0
  5
55
  0
BLOCK
  8
0
  5
57
  2
*X5
 70
    65
 10
889.819024
 20
7355.615195
 30
0.0
  3
*X5
  0
LINE
  8
LC-006-005-----0
  6
CONTINUOUS
  5
58
 10
895.487642
 20
7355.615195
 30
0.0
 11
897.819069
 21
7357.946622
 31
0.0
  0
LINE
  8
LC-006-005-----0
  6
CONTINUOUS
  5
59
 10
892.659215
 20
7355.615195
 30
0.0
 11
897.819069
 21
7360.775049
 31
0.0
  0
LINE
  8
LC-006-005-----0
  6
CONTINUOUS
  5
5A
 10
889.830788
 20
7355.615195
 30
0.0
 11
897.819069
 21
7363.603476
 31
0.0
  0
LINE
  8
LC-006-005-----0
  6
CONTINUOUS
  5
5B
 10
889.819024
 20
7358.431858
 30
0.0
 11
890.002336
 21
7358.61517
 31
0.0
  0
LINE
  8
LC-006-005-----0
  6
CONTINUOUS
  5
5C
 10
892.81899
 20
7361.431824
 30
0.0
 11
897.002277
 21
7365.615111
 31
0.0
  0
LINE
  8
LC-006-005-----0
  6
CONTINUOUS
  5
5D
 10
892.818981
 20
7364.260243
 30
0.0
 11
894.818975
 21
7366.260236
 31
0.0
  0
LINE
  8
LC-006-005-----0
  6
CONTINUOUS
  5
5E
 10
892.818973
 20
7367.088661
 30
0.0
 11
894.818975
 21
7369.088664
 31
0.0
  0
LINE
  8
LC-006-005-----0
  6
CONTINUOUS
  5
5F
 10
892.818964
 20
7369.91708
 30
0.0
 11
894.818975
 21
7371.917091
 31
0.0
  0
LINE
  8
LC-006-005-----0
  6
CONTINUOUS
  5
60
 10
892.818955
 20
7372.745498
 30
0.0
 11
894.818975
 21
7374.745518
 31
0.0
  0
ENDBLK
  8
0
  5
61
  0
BLOCK
  8
0
  5
63
  2
BLK4
 70
    64
 10
0.0
 20
0.0
 30
0.0
  3
BLK4
  0
ENDBLK
  8
0
  5
64
  0
BLOCK
  8
0
  5
66
  2
*X7
 70
    65
 10
785.344462
 20
7358.61517
 30
0.0
  3
*X7
  0
LINE
  8
LC-006-005-----0
  6
CONTINUOUS
  5
67
 10
836.26222
 20
7358.61517
 30
0.0
 11
837.844462
 21
7360.197411
 31
0.0
  0
LINE
  8
LC-006-005-----0
  6
CONTINUOUS
  5
68
 10
830.605366
 20
7358.61517
 30
0.0
 11
837.844462
 21
7365.854266
 31
0.0
  0
LINE
  8
LC-006-005-----0
  6
CONTINUOUS
  5
69
 10
824.948512
 20
7358.61517
 30
0.0
 11
837.844462
 21
7371.51112
 31
0.0
  0
LINE
  8
LC-006-005-----0
  6
CONTINUOUS
  5
6A
 10
819.291657
 20
7358.61517
 30
0.0
 11
833.291657
 21
7372.61517
 31
0.0
  0
LINE
  8
LC-006-005-----0
  6
CONTINUOUS
  5
6B
 10
813.634803
 20
7358.61517
 30
0.0
 11
827.634803
 21
7372.61517
 31
0.0
  0
LINE
  8
LC-006-005-----0
  6
CONTINUOUS
  5
6C
 10
807.977949
 20
7358.61517
 30
0.0
 11
821.977949
 21
7372.61517
 31
0.0
  0
LINE
  8
LC-006-005-----0
  6
CONTINUOUS
  5
6D
 10
802.321095
 20
7358.61517
 30
0.0
 11
816.321095
 21
7372.61517
 31
0.0
  0
LINE
  8
LC-006-005-----0
  6
CONTINUOUS
  5
6E
 10
796.66424
 20
7358.61517
 30
0.0
 11
810.66424
 21
7372.61517
 31
0.0
  0
LINE
  8
LC-006-005-----0
  6
CONTINUOUS
  5
6F
 10
791.007386
 20
7358.61517
 30
0.0
 11
805.007386
 21
7372.61517
 31
0.0
  0
LINE
  8
LC-006-005-----0
  6
CONTINUOUS
  5
70
 10
785.350532
 20
7358.61517
 30
0.0
 11
799.350532
 21
7372.61517
 31
0.0
  0
LINE
  8
LC-006-005-----0
  6
CONTINUOUS
  5
71
 10
785.344462
 20
7364.265954
 30
0.0
 11
793.693678
 21
7372.61517
 31
0.0
  0
LINE
  8
LC-006-005-----0
  6
CONTINUOUS
  5
72
 10
785.344462
 20
7369.922808
 30
0.0
 11
788.036823
 21
7372.61517
 31
0.0
  0
LINE
  8
LC-006-005-----0
  6
CONTINUOUS
  5
73
 10
837.844462
 20
7370.251054
 30
0.0
 11
835.480346
 21
7372.61517
 31
0.0
  0
LINE
  8
LC-006-005-----0
  6
CONTINUOUS
  5
74
 10
837.844462
 20
7364.5942
 30
0.0
 11
829.823492
 21
7372.61517
 31
0.0
  0
LINE
  8
LC-006-005-----0
  6
CONTINUOUS
  5
75
 10
837.844462
 20
7358.937346
 30
0.0
 11
824.166638
 21
7372.61517
 31
0.0
  0
LINE
  8
LC-006-005-----0
  6
CONTINUOUS
  5
76
 10
832.509783
 20
7358.61517
 30
0.0
 11
818.509783
 21
7372.61517
 31
0.0
  0
LINE
  8
LC-006-005-----0
  6
CONTINUOUS
  5
77
 10
826.852929
 20
7358.61517
 30
0.0
 11
812.852929
 21
7372.61517
 31
0.0
  0
LINE
  8
LC-006-005-----0
  6
CONTINUOUS
  5
78
 10
821.196075
 20
7358.61517
 30
0.0
 11
807.196075
 21
7372.61517
 31
0.0
  0
LINE
  8
LC-006-005-----0
  6
CONTINUOUS
  5
79
 10
815.539221
 20
7358.61517
 30
0.0
 11
801.539221
 21
7372.61517
 31
0.0
  0
LINE
  8
LC-006-005-----0
  6
CONTINUOUS
  5
7A
 10
809.882366
 20
7358.61517
 30
0.0
 11
795.882366
 21
7372.61517
 31
0.0
  0
LINE
  8
LC-006-005-----0
  6
CONTINUOUS
  5
7B
 10
804.225512
 20
7358.61517
 30
0.0
 11
790.225512
 21
7372.61517
 31
0.0
  0
LINE
  8
LC-006-005-----0
  6
CONTINUOUS
  5
7C
 10
798.568658
 20
7358.61517
 30
0.0
 11
785.344462
 21
7371.839366
 31
0.0
  0
LINE
  8
LC-006-005-----0
  6
CONTINUOUS
  5
7D
 10
792.911804
 20
7358.61517
 30
0.0
 11
785.344462
 21
7366.182512
 31
0.0
  0
LINE
  8
LC-006-005-----0
  6
CONTINUOUS
  5
7E
 10
787.254949
 20
7358.61517
 30
0.0
 11
785.344462
 21
7360.525657
 31
0.0
  0
ENDBLK
  8
0
  5
7F
  0
BLOCK
  8
0
  5
81
  2
*X8
 70
    65
 10
837.844462
 20
7358.61517
 30
0.0
  3
*X8
  0
LINE
  8
LC-006-005-----0
  6
CONTINUOUS
  5
82
 10
887.173908
 20
7358.61517
 30
0.0
 11
890.344462
 21
7361.785723
 31
0.0
  0
LINE
  8
LC-006-005-----0
  6
CONTINUOUS
  5
83
 10
881.517054
 20
7358.61517
 30
0.0
 11
890.344462
 21
7367.442577
 31
0.0
  0
LINE
  8
LC-006-005-----0
  6
CONTINUOUS
  5
84
 10
875.8602
 20
7358.61517
 30
0.0
 11
889.8602
 21
7372.61517
 31
0.0
  0
LINE
  8
LC-006-005-----0
  6
CONTINUOUS
  5
85
 10
870.203346
 20
7358.61517
 30
0.0
 11
884.203346
 21
7372.61517
 31
0.0
  0
LINE
  8
LC-006-005-----0
  6
CONTINUOUS
  5
86
 10
864.546491
 20
7358.61517
 30
0.0
 11
878.546491
 21
7372.61517
 31
0.0
  0
LINE
  8
LC-006-005-----0
  6
CONTINUOUS
  5
87
 10
858.889637
 20
7358.61517
 30
0.0
 11
872.889637
 21
7372.61517
 31
0.0
  0
LINE
  8
LC-006-005-----0
  6
CONTINUOUS
  5
88
 10
853.232783
 20
7358.61517
 30
0.0
 11
867.232783
 21
7372.61517
 31
0.0
  0
LINE
  8
LC-006-005-----0
  6
CONTINUOUS
  5
89
 10
847.575929
 20
7358.61517
 30
0.0
 11
861.575929
 21
7372.61517
 31
0.0
  0
LINE
  8
LC-006-005-----0
  6
CONTINUOUS
  5
8A
 10
841.919074
 20
7358.61517
 30
0.0
 11
855.919074
 21
7372.61517
 31
0.0
  0
LINE
  8
LC-006-005-----0
  6
CONTINUOUS
  5
8B
 10
837.844462
 20
7360.197411
 30
0.0
 11
850.26222
 21
7372.61517
 31
0.0
  0
LINE
  8
LC-006-005-----0
  6
CONTINUOUS
  5
8C
 10
837.844462
 20
7365.854266
 30
0.0
 11
844.605366
 21
7372.61517
 31
0.0
  0
LINE
  8
LC-006-005-----0
  6
CONTINUOUS
  5
8D
 10
837.844462
 20
7371.51112
 30
0.0
 11
838.948512
 21
7372.61517
 31
0.0
  0
LINE
  8
LC-006-005-----0
  6
CONTINUOUS
  5
8E
 10
890.344462
 20
7368.662742
 30
0.0
 11
886.392034
 21
7372.61517
 31
0.0
  0
LINE
  8
LC-006-005-----0
  6
CONTINUOUS
  5
8F
 10
890.344462
 20
7363.005888
 30
0.0
 11
880.73518
 21
7372.61517
 31
0.0
  0
LINE
  8
LC-006-005-----0
  6
CONTINUOUS
  5
90
 10
889.078326
 20
7358.61517
 30
0.0
 11
875.078326
 21
7372.61517
 31
0.0
  0
LINE
  8
LC-006-005-----0
  6
CONTINUOUS
  5
91
 10
883.421472
 20
7358.61517
 30
0.0
 11
869.421472
 21
7372.61517
 31
0.0
  0
LINE
  8
LC-006-005-----0
  6
CONTINUOUS
  5
92
 10
877.764617
 20
7358.61517
 30
0.0
 11
863.764617
 21
7372.61517
 31
0.0
  0
LINE
  8
LC-006-005-----0
  6
CONTINUOUS
  5
93
 10
872.107763
 20
7358.61517
 30
0.0
 11
858.107763
 21
7372.61517
 31
0.0
  0
LINE
  8
LC-006-005-----0
  6
CONTINUOUS
  5
94
 10
866.450909
 20
7358.61517
 30
0.0
 11
852.450909
 21
7372.61517
 31
0.0
  0
LINE
  8
LC-006-005-----0
  6
CONTINUOUS
  5
95
 10
860.794055
 20
7358.61517
 30
0.0
 11
846.794055
 21
7372.61517
 31
0.0
  0
LINE
  8
LC-006-005-----0
  6
CONTINUOUS
  5
96
 10
855.1372
 20
7358.61517
 30
0.0
 11
841.1372
 21
7372.61517
 31
0.0
  0
LINE
  8
LC-006-005-----0
  6
CONTINUOUS
  5
97
 10
849.480346
 20
7358.61517
 30
0.0
 11
837.844462
 21
7370.251054
 31
0.0
  0
LINE
  8
LC-006-005-----0
  6
CONTINUOUS
  5
98
 10
843.823492
 20
7358.61517
 30
0.0
 11
837.844462
 21
7364.5942
 31
0.0
  0
LINE
  8
LC-006-005-----0
  6
CONTINUOUS
  5
99
 10
838.166638
 20
7358.61517
 30
0.0
 11
837.844462
 21
7358.937346
 31
0.0
  0
ENDBLK
  8
0
  5
9A
  0
BLOCK
  8
0
  5
9C
  2
BLK5
 70
    64
 10
0.0
 20
0.0
 30
0.0
  3
BLK5
  0
ENDBLK
  8
0
  5
9D
  0
BLOCK
  8
0
  5
9F
  2
*X10
 70
    65
 10
889.819462
 20
7358.61517
 30
0.0
  3
*X10
  0
LINE
  8
LC-006-005-----0
  6
CONTINUOUS
  5
A0
 10
890.319462
 20
7358.932296
 30
0.0
 11
892.819462
 21
7361.432296
 31
0.0
  0
LINE
  8
LC-006-005-----0
  6
CONTINUOUS
  5
A1
 10
890.319462
 20
7361.760723
 30
0.0
 11
892.819462
 21
7364.260723
 31
0.0
  0
LINE
  8
LC-006-005-----0
  6
CONTINUOUS
  5
A2
 10
890.319462
 20
7364.58915
 30
0.0
 11
892.819462
 21
7367.08915
 31
0.0
  0
LINE
  8
LC-006-005-----0
  6
CONTINUOUS
  5
A3
 10
890.319462
 20
7367.417577
 30
0.0
 11
892.819462
 21
7369.917577
 31
0.0
  0
LINE
  8
LC-006-005-----0
  6
CONTINUOUS
  5
A4
 10
890.319462
 20
7370.246005
 30
0.0
 11
892.819462
 21
7372.746005
 31
0.0
  0
LINE
  8
LC-006-005-----0
  6
CONTINUOUS
  5
A5
 10
890.319462
 20
7373.074432
 30
0.0
 11
892.819462
 21
7375.574432
 31
0.0
  0
LINE
  8
LC-006-005-----0
  6
CONTINUOUS
  5
A6
 10
890.319462
 20
7375.902859
 30
0.0
 11
892.819462
 21
7378.402859
 31
0.0
  0
LINE
  8
LC-006-005-----0
  6
CONTINUOUS
  5
A7
 10
890.319462
 20
7378.731286
 30
0.0
 11
892.819462
 21
7381.231286
 31
0.0
  0
LINE
  8
LC-006-005-----0
  6
CONTINUOUS
  5
A8
 10
890.319462
 20
7381.559713
 30
0.0
 11
892.819462
 21
7384.059713
 31
0.0
  0
LINE
  8
LC-006-005-----0
  6
CONTINUOUS
  5
A9
 10
890.319462
 20
7384.38814
 30
0.0
 11
892.819462
 21
7386.88814
 31
0.0
  0
LINE
  8
LC-006-005-----0
  6
CONTINUOUS
  5
AA
 10
890.319462
 20
7387.216567
 30
0.0
 11
892.819462
 21
7389.716567
 31
0.0
  0
LINE
  8
LC-006-005-----0
  6
CONTINUOUS
  5
AB
 10
890.319462
 20
7390.044994
 30
0.0
 11
892.819462
 21
7392.544994
 31
0.0
  0
LINE
  8
LC-006-005-----0
  6
CONTINUOUS
  5
AC
 10
890.319462
 20
7392.873422
 30
0.0
 11
892.819462
 21
7395.373422
 31
0.0
  0
LINE
  8
LC-006-005-----0
  6
CONTINUOUS
  5
AD
 10
890.319462
 20
7395.701849
 30
0.0
 11
892.819462
 21
7398.201849
 31
0.0
  0
LINE
  8
LC-006-005-----0
  6
CONTINUOUS
  5
AE
 10
890.319462
 20
7398.530276
 30
0.0
 11
892.819462
 21
7401.030276
 31
0.0
  0
LINE
  8
LC-006-005-----0
  6
CONTINUOUS
  5
AF
 10
890.319462
 20
7401.358703
 30
0.0
 11
892.819462
 21
7403.858703
 31
0.0
  0
LINE
  8
LC-006-005-----0
  6
CONTINUOUS
  5
B0
 10
890.319462
 20
7404.18713
 30
0.0
 11
892.819462
 21
7406.68713
 31
0.0
  0
LINE
  8
LC-006-005-----0
  6
CONTINUOUS
  5
B1
 10
890.319462
 20
7407.015557
 30
0.0
 11
892.819462
 21
7409.515557
 31
0.0
  0
LINE
  8
LC-006-005-----0
  6
CONTINUOUS
  5
B2
 10
890.319462
 20
7409.843984
 30
0.0
 11
892.819462
 21
7412.343984
 31
0.0
  0
LINE
  8
LC-006-005-----0
  6
CONTINUOUS
  5
B3
 10
890.319462
 20
7412.672411
 30
0.0
 11
892.819462
 21
7415.172411
 31
0.0
  0
LINE
  8
LC-006-005-----0
  6
CONTINUOUS
  5
B4
 10
890.319462
 20
7415.500839
 30
0.0
 11
892.819462
 21
7418.000839
 31
0.0
  0
LINE
  8
LC-006-005-----0
  6
CONTINUOUS
  5
B5
 10
890.319462
 20
7418.329266
 30
0.0
 11
892.819462
 21
7420.829266
 31
0.0
  0
LINE
  8
LC-006-005-----0
  6
CONTINUOUS
  5
B6
 10
890.319462
 20
7421.157693
 30
0.0
 11
892.819462
 21
7423.657693
 31
0.0
  0
LINE
  8
LC-006-005-----0
  6
CONTINUOUS
  5
B7
 10
890.319462
 20
7423.98612
 30
0.0
 11
892.819462
 21
7426.48612
 31
0.0
  0
LINE
  8
LC-006-005-----0
  6
CONTINUOUS
  5
B8
 10
890.319462
 20
7426.814547
 30
0.0
 11
892.819462
 21
7429.314547
 31
0.0
  0
LINE
  8
LC-006-005-----0
  6
CONTINUOUS
  5
B9
 10
890.319462
 20
7429.642974
 30
0.0
 11
892.819462
 21
7432.142974
 31
0.0
  0
LINE
  8
LC-006-005-----0
  6
CONTINUOUS
  5
BA
 10
890.319462
 20
7432.471401
 30
0.0
 11
892.819462
 21
7434.971401
 31
0.0
  0
LINE
  8
LC-006-005-----0
  6
CONTINUOUS
  5
BB
 10
890.319462
 20
7435.299828
 30
0.0
 11
892.819462
 21
7437.799828
 31
0.0
  0
LINE
  8
LC-006-005-----0
  6
CONTINUOUS
  5
BC
 10
890.319462
 20
7438.128256
 30
0.0
 11
892.819462
 21
7440.628256
 31
0.0
  0
LINE
  8
LC-006-005-----0
  6
CONTINUOUS
  5
BD
 10
890.319462
 20
7440.956683
 30
0.0
 11
892.819462
 21
7443.456683
 31
0.0
  0
LINE
  8
LC-006-005-----0
  6
CONTINUOUS
  5
BE
 10
890.319462
 20
7443.78511
 30
0.0
 11
892.819462
 21
7446.28511
 31
0.0
  0
LINE
  8
LC-006-005-----0
  6
CONTINUOUS
  5
BF
 10
890.319462
 20
7446.613537
 30
0.0
 11
892.819462
 21
7449.113537
 31
0.0
  0
LINE
  8
LC-006-005-----0
  6
CONTINUOUS
  5
C0
 10
890.319462
 20
7449.441964
 30
0.0
 11
892.819462
 21
7451.941964
 31
0.0
  0
LINE
  8
LC-006-005-----0
  6
CONTINUOUS
  5
C1
 10
890.319462
 20
7452.270391
 30
0.0
 11
892.819462
 21
7454.770391
 31
0.0
  0
LINE
  8
LC-006-005-----0
  6
CONTINUOUS
  5
C2
 10
890.319462
 20
7455.098818
 30
0.0
 11
892.819462
 21
7457.598818
 31
0.0
  0
LINE
  8
LC-006-005-----0
  6
CONTINUOUS
  5
C3
 10
890.319462
 20
7457.927245
 30
0.0
 11
892.819462
 21
7460.427245
 31
0.0
  0
LINE
  8
LC-006-005-----0
  6
CONTINUOUS
  5
C4
 10
890.319462
 20
7460.755673
 30
0.0
 11
892.819462
 21
7463.255673
 31
0.0
  0
LINE
  8
LC-006-005-----0
  6
CONTINUOUS
  5
C5
 10
890.319462
 20
7463.5841
 30
0.0
 11
892.819462
 21
7466.0841
 31
0.0
  0
LINE
  8
LC-006-005-----0
  6
CONTINUOUS
  5
C6
 10
889.819462
 20
7465.912527
 30
0.0
 11
890.522105
 21
7466.61517
 31
0.0
  0
LINE
  8
LC-006-005-----0
  6
CONTINUOUS
  5
C7
 10
891.569462
 20
7467.662527
 30
0.0
 11
892.522105
 21
7468.61517
 31
0.0
  0
ENDBLK
  8
0
  5
C8
  0
BLOCK
  8
0
  5
CA
  2
*X11
 70
    65
 10
782.819462
 20
7358.61517
 30
0.0
  3
*X11
  0
LINE
  8
LC-006-005-----0
  6
CONTINUOUS
  5
CB
 10
783.179273
 20
7359.272338
 30
0.0
 11
785.319462
 21
7361.412527
 31
0.0
  0
LINE
  8
LC-006-005-----0
  6
CONTINUOUS
  5
CC
 10
782.819462
 20
7361.740954
 30
0.0
 11
785.319462
 21
7364.240954
 31
0.0
  0
LINE
  8
LC-006-005-----0
  6
CONTINUOUS
  5
CD
 10
782.819462
 20
7364.569381
 30
0.0
 11
785.319462
 21
7367.069381
 31
0.0
  0
LINE
  8
LC-006-005-----0
  6
CONTINUOUS
  5
CE
 10
782.819462
 20
7367.397808
 30
0.0
 11
785.319462
 21
7369.897808
 31
0.0
  0
LINE
  8
LC-006-005-----0
  6
CONTINUOUS
  5
CF
 10
782.819462
 20
7370.226235
 30
0.0
 11
785.319462
 21
7372.726235
 31
0.0
  0
LINE
  8
LC-006-005-----0
  6
CONTINUOUS
  5
D0
 10
782.819462
 20
7373.054662
 30
0.0
 11
785.319462
 21
7375.554662
 31
0.0
  0
LINE
  8
LC-006-005-----0
  6
CONTINUOUS
  5
D1
 10
782.819462
 20
7375.88309
 30
0.0
 11
785.319462
 21
7378.38309
 31
0.0
  0
LINE
  8
LC-006-005-----0
  6
CONTINUOUS
  5
D2
 10
782.819462
 20
7378.711517
 30
0.0
 11
785.319462
 21
7381.211517
 31
0.0
  0
LINE
  8
LC-006-005-----0
  6
CONTINUOUS
  5
D3
 10
782.819462
 20
7381.539944
 30
0.0
 11
785.319462
 21
7384.039944
 31
0.0
  0
LINE
  8
LC-006-005-----0
  6
CONTINUOUS
  5
D4
 10
782.819462
 20
7384.368371
 30
0.0
 11
785.319462
 21
7386.868371
 31
0.0
  0
LINE
  8
LC-006-005-----0
  6
CONTINUOUS
  5
D5
 10
782.819462
 20
7387.196798
 30
0.0
 11
785.319462
 21
7389.696798
 31
0.0
  0
LINE
  8
LC-006-005-----0
  6
CONTINUOUS
  5
D6
 10
782.819462
 20
7390.025225
 30
0.0
 11
785.319462
 21
7392.525225
 31
0.0
  0
LINE
  8
LC-006-005-----0
  6
CONTINUOUS
  5
D7
 10
782.819462
 20
7392.853652
 30
0.0
 11
785.319462
 21
7395.353652
 31
0.0
  0
LINE
  8
LC-006-005-----0
  6
CONTINUOUS
  5
D8
 10
782.819462
 20
7395.682079
 30
0.0
 11
785.319462
 21
7398.182079
 31
0.0
  0
LINE
  8
LC-006-005-----0
  6
CONTINUOUS
  5
D9
 10
782.819462
 20
7398.510507
 30
0.0
 11
785.319462
 21
7401.010507
 31
0.0
  0
LINE
  8
LC-006-005-----0
  6
CONTINUOUS
  5
DA
 10
782.819462
 20
7401.338934
 30
0.0
 11
785.319462
 21
7403.838934
 31
0.0
  0
LINE
  8
LC-006-005-----0
  6
CONTINUOUS
  5
DB
 10
782.819462
 20
7404.167361
 30
0.0
 11
785.319462
 21
7406.667361
 31
0.0
  0
LINE
  8
LC-006-005-----0
  6
CONTINUOUS
  5
DC
 10
782.819462
 20
7406.995788
 30
0.0
 11
785.319462
 21
7409.495788
 31
0.0
  0
LINE
  8
LC-006-005-----0
  6
CONTINUOUS
  5
DD
 10
782.819462
 20
7409.824215
 30
0.0
 11
785.319462
 21
7412.324215
 31
0.0
  0
LINE
  8
LC-006-005-----0
  6
CONTINUOUS
  5
DE
 10
782.819462
 20
7412.652642
 30
0.0
 11
785.319462
 21
7415.152642
 31
0.0
  0
LINE
  8
LC-006-005-----0
  6
CONTINUOUS
  5
DF
 10
782.819462
 20
7415.481069
 30
0.0
 11
785.319462
 21
7417.981069
 31
0.0
  0
LINE
  8
LC-006-005-----0
  6
CONTINUOUS
  5
E0
 10
782.819462
 20
7418.309496
 30
0.0
 11
785.319462
 21
7420.809496
 31
0.0
  0
LINE
  8
LC-006-005-----0
  6
CONTINUOUS
  5
E1
 10
782.819462
 20
7421.137924
 30
0.0
 11
785.319462
 21
7423.637924
 31
0.0
  0
LINE
  8
LC-006-005-----0
  6
CONTINUOUS
  5
E2
 10
782.819462
 20
7423.966351
 30
0.0
 11
785.319462
 21
7426.466351
 31
0.0
  0
LINE
  8
LC-006-005-----0
  6
CONTINUOUS
  5
E3
 10
782.819462
 20
7426.794778
 30
0.0
 11
785.319462
 21
7429.294778
 31
0.0
  0
LINE
  8
LC-006-005-----0
  6
CONTINUOUS
  5
E4
 10
782.819462
 20
7429.623205
 30
0.0
 11
785.319462
 21
7432.123205
 31
0.0
  0
LINE
  8
LC-006-005-----0
  6
CONTINUOUS
  5
E5
 10
782.819462
 20
7432.451632
 30
0.0
 11
785.319462
 21
7434.951632
 31
0.0
  0
LINE
  8
LC-006-005-----0
  6
CONTINUOUS
  5
E6
 10
782.819462
 20
7435.280059
 30
0.0
 11
785.319462
 21
7437.780059
 31
0.0
  0
LINE
  8
LC-006-005-----0
  6
CONTINUOUS
  5
E7
 10
782.819462
 20
7438.108486
 30
0.0
 11
785.319462
 21
7440.608486
 31
0.0
  0
LINE
  8
LC-006-005-----0
  6
CONTINUOUS
  5
E8
 10
782.819462
 20
7440.936913
 30
0.0
 11
785.319462
 21
7443.436913
 31
0.0
  0
LINE
  8
LC-006-005-----0
  6
CONTINUOUS
  5
E9
 10
782.819462
 20
7443.765341
 30
0.0
 11
785.319462
 21
7446.265341
 31
0.0
  0
LINE
  8
LC-006-005-----0
  6
CONTINUOUS
  5
EA
 10
782.819462
 20
7446.593768
 30
0.0
 11
785.319462
 21
7449.093768
 31
0.0
  0
LINE
  8
LC-006-005-----0
  6
CONTINUOUS
  5
EB
 10
782.819462
 20
7449.422195
 30
0.0
 11
785.319462
 21
7451.922195
 31
0.0
  0
LINE
  8
LC-006-005-----0
  6
CONTINUOUS
  5
EC
 10
782.819462
 20
7452.250622
 30
0.0
 11
785.319462
 21
7454.750622
 31
0.0
  0
LINE
  8
LC-006-005-----0
  6
CONTINUOUS
  5
ED
 10
782.819462
 20
7455.079049
 30
0.0
 11
785.319462
 21
7457.579049
 31
0.0
  0
LINE
  8
LC-006-005-----0
  6
CONTINUOUS
  5
EE
 10
782.819462
 20
7457.907476
 30
0.0
 11
785.319462
 21
7460.407476
 31
0.0
  0
LINE
  8
LC-006-005-----0
  6
CONTINUOUS
  5
EF
 10
782.819462
 20
7460.735903
 30
0.0
 11
785.319462
 21
7463.235903
 31
0.0
  0
LINE
  8
LC-006-005-----0
  6
CONTINUOUS
  5
F0
 10
785.698728
 20
7463.61517
 30
0.0
 11
785.819462
 21
7463.735903
 31
0.0
  0
LINE
  8
LC-006-005-----0
  6
CONTINUOUS
  5
F1
 10
782.819462
 20
7463.56433
 30
0.0
 11
785.594882
 21
7466.33975
 31
0.0
  0
LINE
  8
LC-006-005-----0
  6
CONTINUOUS
  5
F2
 10
782.819462
 20
7466.392758
 30
0.0
 11
784.069462
 21
7467.642758
 31
0.0
  0
ENDBLK
  8
0
  5
F3
  0
BLOCK
  8
0
  5
F5
  2
BLK6
 70
    64
 10
0.0
 20
0.0
 30
0.0
  3
BLK6
  0
ARC
  8
LC-001-002-----0
  6
CONTINUOUS
 62
     1
  5
F8
 10
809.922276
 20
7477.320844
 30
0.0
 40
0.524698
 50
0.657795
 51
29.659133
  0
ARC
  8
LC-001-002-----0
  6
CONTINUOUS
 62
     1
  5
F9
 10
809.583316
 20
7477.124037
 30
0.0
 40
0.916643
 50
29.864867
 51
49.818475
  0
ARC
  8
LC-001-002-----0
  6
CONTINUOUS
 62
     1
  5
FA
 10
808.630132
 20
7475.908677
 30
0.0
 40
2.460824
 50
51.120758
 51
71.778811
  0
ARC
  8
LC-001-002-----0
  6
CONTINUOUS
 62
     1
  5
FB
 10
807.386674
 20
7472.488355
 30
0.0
 40
6.099473
 50
70.730251
 51
81.962508
  0
ARC
  8
LC-001-002-----0
  6
CONTINUOUS
 62
     1
  5
FC
 10
806.888317
 20
7469.354033
 30
0.0
 40
9.272851
 50
81.621325
 51
90.106441
  0
ENDBLK
  8
0
  5
FD
  0
BLOCK
  8
0
  5
FF
  2
BLK7
 70
    64
 10
0.0
 20
0.0
 30
0.0
  3
BLK7
  0
ARC
  8
LC-001-002-----0
  6
CONTINUOUS
 62
     1
  5
100
 10
868.639118
 20
7470.895757
 30
0.0
 40
7.732182
 50
89.04617
 51
108.081173
  0
ARC
  8
LC-001-002-----0
  6
CONTINUOUS
 62
     1
  5
101
 10
867.008792
 20
7475.908677
 30
0.0
 40
2.460824
 50
108.221187
 51
128.879231
  0
ARC
  8
LC-001-002-----0
  6
CONTINUOUS
 62
     1
  5
102
 10
866.055608
 20
7477.124037
 30
0.0
 40
0.916644
 50
130.181513
 51
150.135108
  0
ARC
  8
LC-001-002-----0
  6
CONTINUOUS
 62
     1
  5
103
 10
865.716648
 20
7477.320844
 30
0.0
 40
0.524699
 50
150.340842
 51
179.342167
  0
ENDBLK
  8
0
  5
104
  0
BLOCK
  8
0
  5
106
  2
*X14
 70
    65
 10
777.319462
 20
7459.11517
 30
0.0
  3
*X14
  0
LINE
  8
LC-006-005-----0
  6
CONTINUOUS
  5
107
 10
787.044181
 20
7459.303768
 30
0.0
 11
787.163596
 21
7459.423183
 31
0.0
  0
LINE
  8
LC-006-005-----0
  6
CONTINUOUS
  5
108
 10
785.859201
 20
7460.947216
 30
0.0
 11
786.408841
 21
7461.496856
 31
0.0
  0
LINE
  8
LC-006-005-----0
  6
CONTINUOUS
  5
109
 10
786.169462
 20
7464.085903
 30
0.0
 11
786.869462
 21
7464.785903
 31
0.0
  0
LINE
  8
LC-006-005-----0
  6
CONTINUOUS
  5
10A
 10
786.169462
 20
7466.91433
 30
0.0
 11
786.869462
 21
7467.61433
 31
0.0
  0
LINE
  8
LC-006-005-----0
  6
CONTINUOUS
  5
10B
 10
785.041874
 20
7468.61517
 30
0.0
 11
785.64556
 21
7469.218856
 31
0.0
  0
LINE
  8
LC-006-005-----0
  6
CONTINUOUS
  5
10C
 10
782.923872
 20
7469.325595
 30
0.0
 11
783.519462
 21
7469.921185
 31
0.0
  0
LINE
  8
LC-006-005-----0
  6
CONTINUOUS
  5
10D
 10
781.78502
 20
7471.01517
 30
0.0
 11
782.474909
 21
7471.705059
 31
0.0
  0
LINE
  8
LC-006-005-----0
  6
CONTINUOUS
  5
10E
 10
779.393416
 20
7471.451993
 30
0.0
 11
779.89398
 21
7471.952557
 31
0.0
  0
LINE
  8
LC-006-005-----0
  6
CONTINUOUS
  5
10F
 10
779.119462
 20
7474.006466
 30
0.0
 11
779.819462
 21
7474.706466
 31
0.0
  0
LINE
  8
LC-006-005-----0
  6
CONTINUOUS
  5
110
 10
779.119462
 20
7476.834893
 30
0.0
 11
779.819462
 21
7477.534893
 31
0.0
  0
LINE
  8
LC-006-005-----0
  6
CONTINUOUS
  5
111
 10
779.119462
 20
7479.66332
 30
0.0
 11
779.819462
 21
7480.36332
 31
0.0
  0
LINE
  8
LC-006-005-----0
  6
CONTINUOUS
  5
112
 10
777.874066
 20
7481.246351
 30
0.0
 11
778.754582
 21
7482.126868
 31
0.0
  0
ENDBLK
  8
0
  5
113
  0
BLOCK
  8
0
  5
115
  2
*X15
 70
    65
 10
887.928795
 20
7459.11517
 30
0.0
  3
*X15
  0
LINE
  8
LC-006-005-----0
  6
CONTINUOUS
  5
116
 10
888.794758
 20
7459.230969
 30
0.0
 11
889.361243
 21
7459.797454
 31
0.0
  0
LINE
  8
LC-006-005-----0
  6
CONTINUOUS
  5
117
 10
889.142967
 20
7462.407605
 30
0.0
 11
889.703997
 21
7462.968634
 31
0.0
  0
LINE
  8
LC-006-005-----0
  6
CONTINUOUS
  5
118
 10
888.769462
 20
7464.862527
 30
0.0
 11
889.469462
 21
7465.562527
 31
0.0
  0
LINE
  8
LC-006-005-----0
  6
CONTINUOUS
  5
119
 10
894.922105
 20
7471.01517
 30
0.0
 11
896.519462
 21
7472.612527
 31
0.0
  0
LINE
  8
LC-006-005-----0
  6
CONTINUOUS
  5
11A
 10
888.769462
 20
7467.690954
 30
0.0
 11
890.297364
 21
7469.218856
 31
0.0
  0
LINE
  8
LC-006-005-----0
  6
CONTINUOUS
  5
11B
 10
895.819462
 20
7474.740954
 30
0.0
 11
896.519462
 21
7475.440954
 31
0.0
  0
LINE
  8
LC-006-005-----0
  6
CONTINUOUS
  5
11C
 10
895.819462
 20
7477.569381
 30
0.0
 11
896.519462
 21
7478.269381
 31
0.0
  0
LINE
  8
LC-006-005-----0
  6
CONTINUOUS
  5
11D
 10
898.176948
 20
7479.926868
 30
0.0
 11
898.277287
 21
7480.027207
 31
0.0
  0
LINE
  8
LC-006-005-----0
  6
CONTINUOUS
  5
11E
 10
895.819462
 20
7480.397808
 30
0.0
 11
896.519462
 21
7481.097808
 31
0.0
  0
LINE
  8
LC-006-005-----0
  6
CONTINUOUS
  5
11F
 10
896.833701
 20
7481.412047
 30
0.0
 11
897.382401
 21
7481.960748
 31
0.0
  0
ENDBLK
  8
0
  5
120
  0
BLOCK
  8
0
  5
122
  2
BLK8
 70
    64
 10
0.0
 20
0.0
 30
0.0
  3
BLK8
  0
ENDBLK
  8
0
  5
123
  0
BLOCK
  8
0
  5
125
  2
*X17
 70
    65
 10
783.819462
 20
7479.126868
 30
0.0
  3
*X17
  0
LINE
  8
LC-006-005-----0
  6
CONTINUOUS
  5
126
 10
895.319462
 20
7479.653255
 30
0.0
 11
892.845849
 21
7482.126868
 31
0.0
  0
LINE
  8
LC-006-005-----0
  6
CONTINUOUS
  5
127
 10
893.017422
 20
7479.126868
 30
0.0
 11
890.017422
 21
7482.126868
 31
0.0
  0
LINE
  8
LC-006-005-----0
  6
CONTINUOUS
  5
128
 10
890.188994
 20
7479.126868
 30
0.0
 11
887.188994
 21
7482.126868
 31
0.0
  0
LINE
  8
LC-006-005-----0
  6
CONTINUOUS
  5
129
 10
887.360567
 20
7479.126868
 30
0.0
 11
884.360567
 21
7482.126868
 31
0.0
  0
LINE
  8
LC-006-005-----0
  6
CONTINUOUS
  5
12A
 10
884.53214
 20
7479.126868
 30
0.0
 11
881.53214
 21
7482.126868
 31
0.0
  0
LINE
  8
LC-006-005-----0
  6
CONTINUOUS
  5
12B
 10
881.703713
 20
7479.126868
 30
0.0
 11
878.703713
 21
7482.126868
 31
0.0
  0
LINE
  8
LC-006-005-----0
  6
CONTINUOUS
  5
12C
 10
878.875286
 20
7479.126868
 30
0.0
 11
875.875286
 21
7482.126868
 31
0.0
  0
LINE
  8
LC-006-005-----0
  6
CONTINUOUS
  5
12D
 10
876.046859
 20
7479.126868
 30
0.0
 11
873.046859
 21
7482.126868
 31
0.0
  0
LINE
  8
LC-006-005-----0
  6
CONTINUOUS
  5
12E
 10
873.218432
 20
7479.126868
 30
0.0
 11
870.218432
 21
7482.126868
 31
0.0
  0
LINE
  8
LC-006-005-----0
  6
CONTINUOUS
  5
12F
 10
870.390005
 20
7479.126868
 30
0.0
 11
867.390005
 21
7482.126868
 31
0.0
  0
LINE
  8
LC-006-005-----0
  6
CONTINUOUS
  5
130
 10
867.561577
 20
7479.126868
 30
0.0
 11
864.561577
 21
7482.126868
 31
0.0
  0
LINE
  8
LC-006-005-----0
  6
CONTINUOUS
  5
131
 10
864.73315
 20
7479.126868
 30
0.0
 11
861.73315
 21
7482.126868
 31
0.0
  0
LINE
  8
LC-006-005-----0
  6
CONTINUOUS
  5
132
 10
861.904723
 20
7479.126868
 30
0.0
 11
858.904723
 21
7482.126868
 31
0.0
  0
LINE
  8
LC-006-005-----0
  6
CONTINUOUS
  5
133
 10
859.076296
 20
7479.126868
 30
0.0
 11
856.076296
 21
7482.126868
 31
0.0
  0
LINE
  8
LC-006-005-----0
  6
CONTINUOUS
  5
134
 10
856.247869
 20
7479.126868
 30
0.0
 11
853.247869
 21
7482.126868
 31
0.0
  0
LINE
  8
LC-006-005-----0
  6
CONTINUOUS
  5
135
 10
853.419442
 20
7479.126868
 30
0.0
 11
850.419442
 21
7482.126868
 31
0.0
  0
LINE
  8
LC-006-005-----0
  6
CONTINUOUS
  5
136
 10
850.591015
 20
7479.126868
 30
0.0
 11
847.591015
 21
7482.126868
 31
0.0
  0
LINE
  8
LC-006-005-----0
  6
CONTINUOUS
  5
137
 10
847.762588
 20
7479.126868
 30
0.0
 11
844.762588
 21
7482.126868
 31
0.0
  0
LINE
  8
LC-006-005-----0
  6
CONTINUOUS
  5
138
 10
844.93416
 20
7479.126868
 30
0.0
 11
841.93416
 21
7482.126868
 31
0.0
  0
LINE
  8
LC-006-005-----0
  6
CONTINUOUS
  5
139
 10
842.105733
 20
7479.126868
 30
0.0
 11
839.105733
 21
7482.126868
 31
0.0
  0
LINE
  8
LC-006-005-----0
  6
CONTINUOUS
  5
13A
 10
839.277306
 20
7479.126868
 30
0.0
 11
836.277306
 21
7482.126868
 31
0.0
  0
LINE
  8
LC-006-005-----0
  6
CONTINUOUS
  5
13B
 10
836.448879
 20
7479.126868
 30
0.0
 11
833.448879
 21
7482.126868
 31
0.0
  0
LINE
  8
LC-006-005-----0
  6
CONTINUOUS
  5
13C
 10
833.620452
 20
7479.126868
 30
0.0
 11
830.620452
 21
7482.126868
 31
0.0
  0
LINE
  8
LC-006-005-----0
  6
CONTINUOUS
  5
13D
 10
830.792025
 20
7479.126868
 30
0.0
 11
827.792025
 21
7482.126868
 31
0.0
  0
LINE
  8
LC-006-005-----0
  6
CONTINUOUS
  5
13E
 10
827.963598
 20
7479.126868
 30
0.0
 11
824.963598
 21
7482.126868
 31
0.0
  0
LINE
  8
LC-006-005-----0
  6
CONTINUOUS
  5
13F
 10
825.135171
 20
7479.126868
 30
0.0
 11
822.135171
 21
7482.126868
 31
0.0
  0
LINE
  8
LC-006-005-----0
  6
CONTINUOUS
  5
140
 10
822.306743
 20
7479.126868
 30
0.0
 11
819.306743
 21
7482.126868
 31
0.0
  0
LINE
  8
LC-006-005-----0
  6
CONTINUOUS
  5
141
 10
819.478316
 20
7479.126868
 30
0.0
 11
816.478316
 21
7482.126868
 31
0.0
  0
LINE
  8
LC-006-005-----0
  6
CONTINUOUS
  5
142
 10
816.649889
 20
7479.126868
 30
0.0
 11
813.649889
 21
7482.126868
 31
0.0
  0
LINE
  8
LC-006-005-----0
  6
CONTINUOUS
  5
143
 10
813.821462
 20
7479.126868
 30
0.0
 11
810.821462
 21
7482.126868
 31
0.0
  0
LINE
  8
LC-006-005-----0
  6
CONTINUOUS
  5
144
 10
810.993035
 20
7479.126868
 30
0.0
 11
807.993035
 21
7482.126868
 31
0.0
  0
LINE
  8
LC-006-005-----0
  6
CONTINUOUS
  5
145
 10
808.164608
 20
7479.126868
 30
0.0
 11
805.164608
 21
7482.126868
 31
0.0
  0
LINE
  8
LC-006-005-----0
  6
CONTINUOUS
  5
146
 10
805.336181
 20
7479.126868
 30
0.0
 11
802.336181
 21
7482.126868
 31
0.0
  0
LINE
  8
LC-006-005-----0
  6
CONTINUOUS
  5
147
 10
802.507754
 20
7479.126868
 30
0.0
 11
799.507754
 21
7482.126868
 31
0.0
  0
LINE
  8
LC-006-005-----0
  6
CONTINUOUS
  5
148
 10
799.679326
 20
7479.126868
 30
0.0
 11
796.679326
 21
7482.126868
 31
0.0
  0
LINE
  8
LC-006-005-----0
  6
CONTINUOUS
  5
149
 10
796.850899
 20
7479.126868
 30
0.0
 11
793.850899
 21
7482.126868
 31
0.0
  0
LINE
  8
LC-006-005-----0
  6
CONTINUOUS
  5
14A
 10
794.022472
 20
7479.126868
 30
0.0
 11
791.022472
 21
7482.126868
 31
0.0
  0
LINE
  8
LC-006-005-----0
  6
CONTINUOUS
  5
14B
 10
791.194045
 20
7479.126868
 30
0.0
 11
788.194045
 21
7482.126868
 31
0.0
  0
LINE
  8
LC-006-005-----0
  6
CONTINUOUS
  5
14C
 10
788.365618
 20
7479.126868
 30
0.0
 11
785.365618
 21
7482.126868
 31
0.0
  0
LINE
  8
LC-006-005-----0
  6
CONTINUOUS
  5
14D
 10
785.537191
 20
7479.126868
 30
0.0
 11
783.819462
 21
7480.844597
 31
0.0
  0
ENDBLK
  8
0
  5
14E
  0
BLOCK
  8
0
  5
150
  2
BLK9
 70
    64
 10
0.0
 20
0.0
 30
0.0
  3
BLK9
  0
ENDBLK
  8
0
  5
151
  0
BLOCK
  8
0
  5
153
  2
BLK10
 70
    64
 10
0.0
 20
0.0
 30
0.0
  3
BLK10
  0
ENDBLK
  8
0
  5
154
  0
BLOCK
  8
0
  5
156
  2
*X20
 70
    65
 10
862.319462
 20
7472.21517
 30
0.0
  3
*X20
  0
LINE
  8
LC-006-005-----0
  6
CONTINUOUS
  5
157
 10
868.137834
 20
7472.51517
 30
0.0
 11
869.319462
 21
7473.696798
 31
0.0
  0
LINE
  8
LC-006-005-----0
  6
CONTINUOUS
  5
158
 10
867.686191
 20
7474.891954
 30
0.0
 11
868.752587
 21
7475.958351
 31
0.0
  0
LINE
  8
LC-006-005-----0
  6
CONTINUOUS
  5
159
 10
862.480979
 20
7472.51517
 30
0.0
 11
863.819462
 21
7473.853652
 31
0.0
  0
LINE
  8
LC-006-005-----0
  6
CONTINUOUS
  5
15A
 10
865.180979
 20
7475.21517
 30
0.0
 11
866.680979
 21
7476.71517
 31
0.0
  0
LINE
  8
LC-006-005-----0
  6
CONTINUOUS
  5
15B
 10
862.511018
 20
7475.373636
 30
0.0
 11
863.660996
 21
7476.523613
 31
0.0
  0
ENDBLK
  8
0
  5
15C
  0
BLOCK
  8
0
  5
15E
  2
*X21
 70
    65
 10
875.319462
 20
7472.21517
 30
0.0
  3
*X21
  0
LINE
  8
LC-006-005-----0
  6
CONTINUOUS
  5
15F
 10
882.279969
 20
7472.51517
 30
0.0
 11
882.319462
 21
7472.554662
 31
0.0
  0
LINE
  8
LC-006-005-----0
  6
CONTINUOUS
  5
160
 10
880.819462
 20
7473.88309
 30
0.0
 11
882.180369
 21
7475.243997
 31
0.0
  0
LINE
  8
LC-006-005-----0
  6
CONTINUOUS
  5
161
 10
876.623115
 20
7472.51517
 30
0.0
 11
876.819462
 21
7472.711517
 31
0.0
  0
LINE
  8
LC-006-005-----0
  6
CONTINUOUS
  5
162
 10
879.323115
 20
7475.21517
 30
0.0
 11
880.725385
 21
7476.61744
 31
0.0
  0
LINE
  8
LC-006-005-----0
  6
CONTINUOUS
  5
163
 10
875.319462
 20
7474.039944
 30
0.0
 11
877.994688
 21
7476.71517
 31
0.0
  0
ENDBLK
  8
0
  5
164
  0
BLOCK
  8
0
  5
166
  2
*X22
 70
    65
 10
888.319462
 20
7471.71517
 30
0.0
  3
*X22
  0
LINE
  8
LC-006-005-----0
  6
CONTINUOUS
  5
167
 10
893.819462
 20
7472.740954
 30
0.0
 11
895.319462
 21
7474.240954
 31
0.0
  0
LINE
  8
LC-006-005-----0
  6
CONTINUOUS
  5
168
 10
893.39224
 20
7475.142159
 30
0.0
 11
894.473458
 21
7476.223378
 31
0.0
  0
LINE
  8
LC-006-005-----0
  6
CONTINUOUS
  5
169
 10
888.319462
 20
7472.897808
 30
0.0
 11
889.819462
 21
7474.397808
 31
0.0
  0
LINE
  8
LC-006-005-----0
  6
CONTINUOUS
  5
16A
 10
890.636823
 20
7475.21517
 30
0.0
 11
892.136823
 21
7476.71517
 31
0.0
  0
ENDBLK
  8
0
  5
16B
  0
BLOCK
  8
0
  5
16D
  2
BLK11
 70
    64
 10
0.0
 20
0.0
 30
0.0
  3
BLK11
  0
ENDBLK
  8
0
  5
16E
  0
BLOCK
  8
0
  5
170
  2
BLK12
 70
    64
 10
0.0
 20
0.0
 30
0.0
  3
BLK12
  0
ENDBLK
  8
0
  5
171
  0
BLOCK
  8
0
  5
173
  2
*X25
 70
    65
 10
784.119462
 20
7466.61517
 30
0.0
  3
*X25
  0
LINE
  8
LC-006-005-----0
  6
CONTINUOUS
  5
174
 10
786.063892
 20
7467.286458
 30
0.0
 11
784.79075
 21
7468.5596
 31
0.0
  0
LINE
  8
LC-006-005-----0
  6
CONTINUOUS
  5
175
 10
785.303825
 20
7466.632312
 30
0.0
 11
784.136604
 21
7467.799533
 31
0.0
  0
ENDBLK
  8
0
  5
176
  0
BLOCK
  8
0
  5
178
  2
*X26
 70
    65
 10
889.519462
 20
7466.61517
 30
0.0
  3
*X26
  0
LINE
  8
LC-006-005-----0
  6
CONTINUOUS
  5
179
 10
891.459141
 20
7467.957226
 30
0.0
 11
890.861518
 21
7468.55485
 31
0.0
  0
LINE
  8
LC-006-005-----0
  6
CONTINUOUS
  5
17A
 10
891.15722
 20
7466.844933
 30
0.0
 11
889.749225
 21
7468.252928
 31
0.0
  0
ENDBLK
  8
0
  5
17B
  0
BLOCK
  8
0
  5
17D
  2
*X27
 70
    65
 10
837.819462
 20
7472.21517
 30
0.0
  3
*X27
  0
LINE
  8
LC-006-005-----0
  6
CONTINUOUS
  5
17E
 10
854.819462
 20
7473.338934
 30
0.0
 11
856.292564
 21
7474.812036
 31
0.0
  0
LINE
  8
LC-006-005-----0
  6
CONTINUOUS
  5
17F
 10
853.867271
 20
7475.21517
 30
0.0
 11
855.111452
 21
7476.459351
 31
0.0
  0
LINE
  8
LC-006-005-----0
  6
CONTINUOUS
  5
180
 10
851.038844
 20
7475.21517
 30
0.0
 11
852.538844
 21
7476.71517
 31
0.0
  0
LINE
  8
LC-006-005-----0
  6
CONTINUOUS
  5
181
 10
848.210417
 20
7475.21517
 30
0.0
 11
849.710417
 21
7476.71517
 31
0.0
  0
LINE
  8
LC-006-005-----0
  6
CONTINUOUS
  5
182
 10
845.381989
 20
7475.21517
 30
0.0
 11
846.881989
 21
7476.71517
 31
0.0
  0
LINE
  8
LC-006-005-----0
  6
CONTINUOUS
  5
183
 10
842.553562
 20
7475.21517
 30
0.0
 11
844.053562
 21
7476.71517
 31
0.0
  0
LINE
  8
LC-006-005-----0
  6
CONTINUOUS
  5
184
 10
839.725135
 20
7475.21517
 30
0.0
 11
841.225135
 21
7476.71517
 31
0.0
  0
LINE
  8
LC-006-005-----0
  6
CONTINUOUS
  5
185
 10
837.819462
 20
7476.137924
 30
0.0
 11
838.396708
 21
7476.71517
 31
0.0
  0
ENDBLK
  8
0
  5
186
  0
BLOCK
  8
0
  5
188
  2
*X28
 70
    65
 10
806.319462
 20
7472.21517
 30
0.0
  3
*X28
  0
LINE
  8
LC-006-005-----0
  6
CONTINUOUS
  5
189
 10
811.819462
 20
7472.765341
 30
0.0
 11
813.319462
 21
7474.265341
 31
0.0
  0
LINE
  8
LC-006-005-----0
  6
CONTINUOUS
  5
18A
 10
811.375558
 20
7475.149864
 30
0.0
 11
812.459851
 21
7476.234157
 31
0.0
  0
LINE
  8
LC-006-005-----0
  6
CONTINUOUS
  5
18B
 10
806.319462
 20
7472.922195
 30
0.0
 11
807.819462
 21
7474.422195
 31
0.0
  0
LINE
  8
LC-006-005-----0
  6
CONTINUOUS
  5
18C
 10
808.612437
 20
7475.21517
 30
0.0
 11
810.112437
 21
7476.71517
 31
0.0
  0
ENDBLK
  8
0
  5
18D
  0
BLOCK
  8
0
  5
18F
  2
*X29
 70
    65
 10
793.319462
 20
7472.21517
 30
0.0
  3
*X29
  0
LINE
  8
LC-006-005-----0
  6
CONTINUOUS
  5
190
 10
800.255583
 20
7472.51517
 30
0.0
 11
800.319462
 21
7472.579049
 31
0.0
  0
LINE
  8
LC-006-005-----0
  6
CONTINUOUS
  5
191
 10
798.819462
 20
7473.907476
 30
0.0
 11
800.173734
 21
7475.261749
 31
0.0
  0
LINE
  8
LC-006-005-----0
  6
CONTINUOUS
  5
192
 10
794.598728
 20
7472.51517
 30
0.0
 11
794.819462
 21
7472.735903
 31
0.0
  0
LINE
  8
LC-006-005-----0
  6
CONTINUOUS
  5
193
 10
797.298728
 20
7475.21517
 30
0.0
 11
798.706626
 21
7476.623067
 31
0.0
  0
LINE
  8
LC-006-005-----0
  6
CONTINUOUS
  5
194
 10
793.319462
 20
7474.06433
 30
0.0
 11
795.970301
 21
7476.71517
 31
0.0
  0
ENDBLK
  8
0
  5
195
  0
BLOCK
  8
0
  5
197
  2
*X30
 70
    65
 10
780.319462
 20
7471.71517
 30
0.0
  3
*X30
  0
LINE
  8
LC-006-005-----0
  6
CONTINUOUS
  5
198
 10
786.113447
 20
7472.51517
 30
0.0
 11
787.319462
 21
7473.721185
 31
0.0
  0
LINE
  8
LC-006-005-----0
  6
CONTINUOUS
  5
199
 10
785.676071
 20
7474.906221
 30
0.0
 11
786.741076
 21
7475.971226
 31
0.0
  0
LINE
  8
LC-006-005-----0
  6
CONTINUOUS
  5
19A
 10
780.319462
 20
7472.378039
 30
0.0
 11
781.819462
 21
7473.878039
 31
0.0
  0
LINE
  8
LC-006-005-----0
  6
CONTINUOUS
  5
19B
 10
783.156593
 20
7475.21517
 30
0.0
 11
784.656593
 21
7476.71517
 31
0.0
  0
LINE
  8
LC-006-005-----0
  6
CONTINUOUS
  5
19C
 10
780.531332
 20
7475.418336
 30
0.0
 11
781.616296
 21
7476.5033
 31
0.0
  0
ENDBLK
  8
0
  5
19D
  0
BLOCK
  8
0
  5
19F
  2
BLK13
 70
    64
 10
0.0
 20
0.0
 30
0.0
  3
BLK13
  0
ENDBLK
  8
0
  5
1A0
  0
BLOCK
  8
0
  5
1A2
  2
*X32
 70
    65
 10
819.319462
 20
7472.21517
 30
0.0
  3
*X32
  0
LINE
  8
LC-006-005-----0
  6
CONTINUOUS
  5
1A3
 10
836.896708
 20
7475.21517
 30
0.0
 11
837.819462
 21
7476.137924
 31
0.0
  0
LINE
  8
LC-006-005-----0
  6
CONTINUOUS
  5
1A4
 10
834.068281
 20
7475.21517
 30
0.0
 11
835.568281
 21
7476.71517
 31
0.0
  0
LINE
  8
LC-006-005-----0
  6
CONTINUOUS
  5
1A5
 10
831.239854
 20
7475.21517
 30
0.0
 11
832.739854
 21
7476.71517
 31
0.0
  0
LINE
  8
LC-006-005-----0
  6
CONTINUOUS
  5
1A6
 10
828.411427
 20
7475.21517
 30
0.0
 11
829.911427
 21
7476.71517
 31
0.0
  0
LINE
  8
LC-006-005-----0
  6
CONTINUOUS
  5
1A7
 10
825.583
 20
7475.21517
 30
0.0
 11
827.083
 21
7476.71517
 31
0.0
  0
LINE
  8
LC-006-005-----0
  6
CONTINUOUS
  5
1A8
 10
820.054573
 20
7472.51517
 30
0.0
 11
820.819462
 21
7473.280059
 31
0.0
  0
LINE
  8
LC-006-005-----0
  6
CONTINUOUS
  5
1A9
 10
822.754573
 20
7475.21517
 30
0.0
 11
824.254573
 21
7476.71517
 31
0.0
  0
LINE
  8
LC-006-005-----0
  6
CONTINUOUS
  5
1AA
 10
819.324348
 20
7474.613373
 30
0.0
 11
821.421259
 21
7476.710284
 31
0.0
  0
ENDBLK
  8
0
  5
1AB
  0
BLOCK
  8
0
  5
1AD
  2
BLK14
 70
    64
 10
0.0
 20
0.0
 30
0.0
  3
BLK14
  0
ENDBLK
  8
0
  5
1AE
  0
BLOCK
  8
0
  5
1B0
  2
BLK15
 70
    64
 10
0.0
 20
0.0
 30
0.0
  3
BLK15
  0
ENDBLK
  8
0
  5
1B1
  0
BLOCK
  8
0
  5
1B3
  2
BLK16
 70
    64
 10
0.0
 20
0.0
 30
0.0
  3
BLK16
  0
ENDBLK
  8
0
  5
1B4
  0
BLOCK
  8
0
  5
1B6
  2
*D36
 70
    65
 10
0.0
 20
0.0
 30
0.0
  3
*D36
  0
LINE
  8
LC-003-003-MTH-0
  6
CONTINUOUS
  5
1B7
 10
777.319462
 20
7479.926868
 30
0.0
 11
777.319462
 21
7514.8
 31
0.0
  0
LINE
  8
LC-003-003-MTH-0
  6
CONTINUOUS
  5
1B8
 10
898.319462
 20
7479.926868
 30
0.0
 11
898.319462
 21
7514.8
 31
0.0
  0
LINE
  8
LC-004-003-MTG-0
  6
CONTINUOUS
  5
1B9
 10
777.319462
 20
7504.0
 30
0.0
 11
898.319462
 21
7504.0
 31
0.0
  0
LINE
  8
LC-002-003-----0
  6
CONTINUOUS
  5
1BA
 10
795.165469
 20
7506.349471
 30
0.0
 11
777.319462
 21
7504.0
 31
0.0
  0
LINE
  8
LC-002-003-----0
  6
CONTINUOUS
  5
1BB
 10
777.319462
 20
7504.0
 30
0.0
 11
795.165469
 21
7501.650529
 31
0.0
  0
LINE
  8
LC-002-003-----0
  6
CONTINUOUS
  5
1BC
 10
795.165469
 20
7501.650529
 30
0.0
 11
795.165469
 21
7506.349471
 31
0.0
  0
LINE
  8
LC-002-003-----0
  6
CONTINUOUS
  5
1BD
 10
795.205507
 20
7505.738609
 30
0.0
 11
781.999462
 21
7504.0
 31
0.0
  0
LINE
  8
LC-002-003-----0
  6
CONTINUOUS
  5
1BE
 10
781.999462
 20
7504.0
 30
0.0
 11
795.205507
 21
7502.261391
 31
0.0
  0
LINE
  8
LC-002-003-----0
  6
CONTINUOUS
  5
1BF
 10
795.245545
 20
7505.127746
 30
0.0
 11
786.679462
 21
7504.0
 31
0.0
  0
LINE
  8
LC-002-003-----0
  6
CONTINUOUS
  5
1C0
 10
786.679462
 20
7504.0
 30
0.0
 11
795.245545
 21
7502.872254
 31
0.0
  0
LINE
  8
LC-002-003-----0
  6
CONTINUOUS
  5
1C1
 10
795.285583
 20
7504.516884
 30
0.0
 11
791.359462
 21
7504.0
 31
0.0
  0
LINE
  8
LC-002-003-----0
  6
CONTINUOUS
  5
1C2
 10
791.359462
 20
7504.0
 30
0.0
 11
795.285583
 21
7503.483116
 31
0.0
  0
LINE
  8
LC-002-003-----0
  6
CONTINUOUS
  5
1C3
 10
880.473454
 20
7501.650529
 30
0.0
 11
898.319462
 21
7504.0
 31
0.0
  0
LINE
  8
LC-002-003-----0
  6
CONTINUOUS
  5
1C4
 10
898.319462
 20
7504.0
 30
0.0
 11
880.473454
 21
7506.349471
 31
0.0
  0
LINE
  8
LC-002-003-----0
  6
CONTINUOUS
  5
1C5
 10
880.473454
 20
7506.349471
 30
0.0
 11
880.473454
 21
7501.650529
 31
0.0
  0
LINE
  8
LC-002-003-----0
  6
CONTINUOUS
  5
1C6
 10
880.433416
 20
7502.261391
 30
0.0
 11
893.639462
 21
7504.0
 31
0.0
  0
LINE
  8
LC-002-003-----0
  6
CONTINUOUS
  5
1C7
 10
893.639462
 20
7504.0
 30
0.0
 11
880.433416
 21
7505.738609
 31
0.0
  0
LINE
  8
LC-002-003-----0
  6
CONTINUOUS
  5
1C8
 10
880.393378
 20
7502.872254
 30
0.0
 11
888.959462
 21
7504.0
 31
0.0
  0
LINE
  8
LC-002-003-----0
  6
CONTINUOUS
  5
1C9
 10
888.959462
 20
7504.0
 30
0.0
 11
880.393378
 21
7505.127746
 31
0.0
  0
LINE
  8
LC-002-003-----0
  6
CONTINUOUS
  5
1CA
 10
880.35334
 20
7503.483116
 30
0.0
 11
884.279462
 21
7504.0
 31
0.0
  0
LINE
  8
LC-002-003-----0
  6
CONTINUOUS
  5
1CB
 10
884.279462
 20
7504.0
 30
0.0
 11
880.35334
 21
7504.516884
 31
0.0
  0
TEXT
  8
LC-002-003-----0
  6
CONTINUOUS
 62
     6
  5
1CC
 10
821.480849
 20
7514.431999
 30
0.0
 40
18.0
  1
120
 51
15.0
  7
LC-TXTSTYLE-150-400-0-0-D0
 72
     1
 11
840.614707
 21
7514.431999
 31
0.0
  0
ENDBLK
  8
0
  5
1CD
  0
BLOCK
  8
0
  5
1CF
  2
*D37
 70
    65
 10
0.0
 20
0.0
 30
0.0
  3
*D37
  0
LINE
  8
LC-003-003-MTH-0
  6
CONTINUOUS
  5
1D0
 10
780.319462
 20
7471.01517
 30
0.0
 11
745.2
 21
7471.01517
 31
0.0
  0
LINE
  8
LC-003-003-MTH-0
  6
CONTINUOUS
  5
1D1
 10
779.119462
 20
7482.126868
 30
0.0
 11
745.2
 21
7482.126868
 31
0.0
  0
LINE
  8
LC-002-003-----0
  6
CONTINUOUS
  5
1D2
 10
758.349471
 20
7453.169162
 30
0.0
 11
756.0
 21
7471.01517
 31
0.0
  0
LINE
  8
LC-002-003-----0
  6
CONTINUOUS
  5
1D3
 10
756.0
 20
7471.01517
 30
0.0
 11
753.650529
 21
7453.169162
 31
0.0
  0
LINE
  8
LC-002-003-----0
  6
CONTINUOUS
  5
1D4
 10
753.650529
 20
7453.169162
 30
0.0
 11
758.349471
 21
7453.169162
 31
0.0
  0
LINE
  8
LC-002-003-----0
  6
CONTINUOUS
  5
1D5
 10
757.738609
 20
7453.129124
 30
0.0
 11
756.0
 21
7466.33517
 31
0.0
  0
LINE
  8
LC-002-003-----0
  6
CONTINUOUS
  5
1D6
 10
756.0
 20
7466.33517
 30
0.0
 11
754.261391
 21
7453.129124
 31
0.0
  0
LINE
  8
LC-002-003-----0
  6
CONTINUOUS
  5
1D7
 10
757.127746
 20
7453.089086
 30
0.0
 11
756.0
 21
7461.65517
 31
0.0
  0
LINE
  8
LC-002-003-----0
  6
CONTINUOUS
  5
1D8
 10
756.0
 20
7461.65517
 30
0.0
 11
754.872254
 21
7453.089086
 31
0.0
  0
LINE
  8
LC-002-003-----0
  6
CONTINUOUS
  5
1D9
 10
756.516884
 20
7453.049048
 30
0.0
 11
756.0
 21
7456.97517
 31
0.0
  0
LINE
  8
LC-002-003-----0
  6
CONTINUOUS
  5
1DA
 10
756.0
 20
7456.97517
 30
0.0
 11
755.483116
 21
7453.049048
 31
0.0
  0
LINE
  8
LC-002-003-----0
  6
CONTINUOUS
  5
1DB
 10
753.650529
 20
7499.972875
 30
0.0
 11
756.0
 21
7482.126868
 31
0.0
  0
LINE
  8
LC-002-003-----0
  6
CONTINUOUS
  5
1DC
 10
756.0
 20
7482.126868
 30
0.0
 11
758.349471
 21
7499.972875
 31
0.0
  0
LINE
  8
LC-002-003-----0
  6
CONTINUOUS
  5
1DD
 10
758.349471
 20
7499.972875
 30
0.0
 11
753.650529
 21
7499.972875
 31
0.0
  0
LINE
  8
LC-002-003-----0
  6
CONTINUOUS
  5
1DE
 10
754.261391
 20
7500.012913
 30
0.0
 11
756.0
 21
7486.806868
 31
0.0
  0
LINE
  8
LC-002-003-----0
  6
CONTINUOUS
  5
1DF
 10
756.0
 20
7486.806868
 30
0.0
 11
757.738609
 21
7500.012913
 31
0.0
  0
LINE
  8
LC-002-003-----0
  6
CONTINUOUS
  5
1E0
 10
754.872254
 20
7500.052951
 30
0.0
 11
756.0
 21
7491.486868
 31
0.0
  0
LINE
  8
LC-002-003-----0
  6
CONTINUOUS
  5
1E1
 10
756.0
 20
7491.486868
 30
0.0
 11
757.127746
 21
7500.052951
 31
0.0
  0
LINE
  8
LC-002-003-----0
  6
CONTINUOUS
  5
1E2
 10
755.483116
 20
7500.092989
 30
0.0
 11
756.0
 21
7496.166868
 31
0.0
  0
LINE
  8
LC-002-003-----0
  6
CONTINUOUS
  5
1E3
 10
756.0
 20
7496.166868
 30
0.0
 11
756.516884
 21
7500.092989
 31
0.0
  0
LINE
  8
LC-004-003-MTG-0
  6
CONTINUOUS
  5
1E4
 10
756.0
 20
7413.01265
 30
0.0
 11
756.0
 21
7507.326868
 31
0.0
  0
TEXT
  8
LC-002-003-----0
  6
CONTINUOUS
 62
     6
  5
1E5
 10
745.568001
 20
7425.604431
 30
0.0
 40
18.0
  1
11
 50
90.0
 51
15.0
  7
LC-TXTSTYLE-150-400-0-0-D0
 72
     2
 11
745.568001
 21
7449.330416
 31
0.0
  0
ENDBLK
  8
0
  5
1E6
  0
BLOCK
  8
0
  5
1E8
  2
*D38
 70
    65
 10
0.0
 20
0.0
 30
0.0
  3
*D38
  0
LINE
  8
LC-003-003-MTH-0
  6
CONTINUOUS
  5
1E9
 10
889.819024
 20
7358.61517
 30
0.0
 11
934.8
 21
7358.61517
 31
0.0
  0
LINE
  8
LC-003-003-MTH-0
  6
CONTINUOUS
  5
1EA
 10
890.319462
 20
7372.61517
 30
0.0
 11
934.8
 21
7372.61517
 31
0.0
  0
LINE
  8
LC-002-003-----0
  6
CONTINUOUS
  5
1EB
 10
926.349471
 20
7340.769162
 30
0.0
 11
924.0
 21
7358.61517
 31
0.0
  0
LINE
  8
LC-002-003-----0
  6
CONTINUOUS
  5
1EC
 10
924.0
 20
7358.61517
 30
0.0
 11
921.650529
 21
7340.769162
 31
0.0
  0
LINE
  8
LC-002-003-----0
  6
CONTINUOUS
  5
1ED
 10
921.650529
 20
7340.769162
 30
0.0
 11
926.349471
 21
7340.769162
 31
0.0
  0
LINE
  8
LC-002-003-----0
  6
CONTINUOUS
  5
1EE
 10
925.738609
 20
7340.729124
 30
0.0
 11
924.0
 21
7353.93517
 31
0.0
  0
LINE
  8
LC-002-003-----0
  6
CONTINUOUS
  5
1EF
 10
924.0
 20
7353.93517
 30
0.0
 11
922.261391
 21
7340.729124
 31
0.0
  0
LINE
  8
LC-002-003-----0
  6
CONTINUOUS
  5
1F0
 10
925.127746
 20
7340.689086
 30
0.0
 11
924.0
 21
7349.25517
 31
0.0
  0
LINE
  8
LC-002-003-----0
  6
CONTINUOUS
  5
1F1
 10
924.0
 20
7349.25517
 30
0.0
 11
922.872254
 21
7340.689086
 31
0.0
  0
LINE
  8
LC-002-003-----0
  6
CONTINUOUS
  5
1F2
 10
924.516884
 20
7340.649048
 30
0.0
 11
924.0
 21
7344.57517
 31
0.0
  0
LINE
  8
LC-002-003-----0
  6
CONTINUOUS
  5
1F3
 10
924.0
 20
7344.57517
 30
0.0
 11
923.483116
 21
7340.649048
 31
0.0
  0
LINE
  8
LC-002-003-----0
  6
CONTINUOUS
  5
1F4
 10
921.650529
 20
7390.461177
 30
0.0
 11
924.0
 21
7372.61517
 31
0.0
  0
LINE
  8
LC-002-003-----0
  6
CONTINUOUS
  5
1F5
 10
924.0
 20
7372.61517
 30
0.0
 11
926.349471
 21
7390.461177
 31
0.0
  0
LINE
  8
LC-002-003-----0
  6
CONTINUOUS
  5
1F6
 10
926.349471
 20
7390.461177
 30
0.0
 11
921.650529
 21
7390.461177
 31
0.0
  0
LINE
  8
LC-002-003-----0
  6
CONTINUOUS
  5
1F7
 10
922.261391
 20
7390.501215
 30
0.0
 11
924.0
 21
7377.29517
 31
0.0
  0
LINE
  8
LC-002-003-----0
  6
CONTINUOUS
  5
1F8
 10
924.0
 20
7377.29517
 30
0.0
 11
925.738609
 21
7390.501215
 31
0.0
  0
LINE
  8
LC-002-003-----0
  6
CONTINUOUS
  5
1F9
 10
922.872254
 20
7390.541254
 30
0.0
 11
924.0
 21
7381.97517
 31
0.0
  0
LINE
  8
LC-002-003-----0
  6
CONTINUOUS
  5
1FA
 10
924.0
 20
7381.97517
 30
0.0
 11
925.127746
 21
7390.541254
 31
0.0
  0
LINE
  8
LC-002-003-----0
  6
CONTINUOUS
  5
1FB
 10
923.483116
 20
7390.581292
 30
0.0
 11
924.0
 21
7386.65517
 31
0.0
  0
LINE
  8
LC-002-003-----0
  6
CONTINUOUS
  5
1FC
 10
924.0
 20
7386.65517
 30
0.0
 11
924.516884
 21
7390.581292
 31
0.0
  0
LINE
  8
LC-004-003-MTG-0
  6
CONTINUOUS
  5
1FD
 10
924.0
 20
7333.41517
 30
0.0
 11
924.0
 21
7430.61769
 31
0.0
  0
TEXT
  8
LC-002-003-----0
  6
CONTINUOUS
 62
     6
  5
1FE
 10
913.568001
 20
7399.890416
 30
0.0
 40
18.0
  1
14
 50
90.0
 51
15.0
  7
LC-TXTSTYLE-150-400-0-0-D0
  0
ENDBLK
  8
0
  5
1FF
  0
BLOCK
  8
0
  5
201
  2
*D39
 70
    65
 10
0.0
 20
0.0
 30
0.0
  3
*D39
  0
LINE
  8
LC-003-003-MTH-0
  6
CONTINUOUS
  5
202
 10
880.233924
 20
7358.61517
 30
0.0
 11
962.8
 21
7358.61517
 31
0.0
  0
LINE
  8
LC-003-003-MTH-0
  6
CONTINUOUS
  5
203
 10
896.519462
 20
7482.126868
 30
0.0
 11
962.8
 21
7482.126868
 31
0.0
  0
LINE
  8
LC-004-003-MTG-0
  6
CONTINUOUS
  5
204
 10
952.0
 20
7358.61517
 30
0.0
 11
952.0
 21
7482.126868
 31
0.0
  0
LINE
  8
LC-002-003-----0
  6
CONTINUOUS
  5
205
 10
949.650529
 20
7376.461177
 30
0.0
 11
952.0
 21
7358.61517
 31
0.0
  0
LINE
  8
LC-002-003-----0
  6
CONTINUOUS
  5
206
 10
952.0
 20
7358.61517
 30
0.0
 11
954.349471
 21
7376.461177
 31
0.0
  0
LINE
  8
LC-002-003-----0
  6
CONTINUOUS
  5
207
 10
954.349471
 20
7376.461177
 30
0.0
 11
949.650529
 21
7376.461177
 31
0.0
  0
LINE
  8
LC-002-003-----0
  6
CONTINUOUS
  5
208
 10
950.261391
 20
7376.501215
 30
0.0
 11
952.0
 21
7363.29517
 31
0.0
  0
LINE
  8
LC-002-003-----0
  6
CONTINUOUS
  5
209
 10
952.0
 20
7363.29517
 30
0.0
 11
953.738609
 21
7376.501215
 31
0.0
  0
LINE
  8
LC-002-003-----0
  6
CONTINUOUS
  5
20A
 10
950.872254
 20
7376.541254
 30
0.0
 11
952.0
 21
7367.97517
 31
0.0
  0
LINE
  8
LC-002-003-----0
  6
CONTINUOUS
  5
20B
 10
952.0
 20
7367.97517
 30
0.0
 11
953.127746
 21
7376.541254
 31
0.0
  0
LINE
  8
LC-002-003-----0
  6
CONTINUOUS
  5
20C
 10
951.483116
 20
7376.581292
 30
0.0
 11
952.0
 21
7372.65517
 31
0.0
  0
LINE
  8
LC-002-003-----0
  6
CONTINUOUS
  5
20D
 10
952.0
 20
7372.65517
 30
0.0
 11
952.516884
 21
7376.581292
 31
0.0
  0
LINE
  8
LC-002-003-----0
  6
CONTINUOUS
  5
20E
 10
954.349471
 20
7464.28086
 30
0.0
 11
952.0
 21
7482.126868
 31
0.0
  0
LINE
  8
LC-002-003-----0
  6
CONTINUOUS
  5
20F
 10
952.0
 20
7482.126868
 30
0.0
 11
949.650529
 21
7464.28086
 31
0.0
  0
LINE
  8
LC-002-003-----0
  6
CONTINUOUS
  5
210
 10
949.650529
 20
7464.28086
 30
0.0
 11
954.349471
 21
7464.28086
 31
0.0
  0
LINE
  8
LC-002-003-----0
  6
CONTINUOUS
  5
211
 10
953.738609
 20
7464.240822
 30
0.0
 11
952.0
 21
7477.446868
 31
0.0
  0
LINE
  8
LC-002-003-----0
  6
CONTINUOUS
  5
212
 10
952.0
 20
7477.446868
 30
0.0
 11
950.261391
 21
7464.240822
 31
0.0
  0
LINE
  8
LC-002-003-----0
  6
CONTINUOUS
  5
213
 10
953.127746
 20
7464.200784
 30
0.0
 11
952.0
 21
7472.766868
 31
0.0
  0
LINE
  8
LC-002-003-----0
  6
CONTINUOUS
  5
214
 10
952.0
 20
7472.766868
 30
0.0
 11
950.872254
 21
7464.200784
 31
0.0
  0
LINE
  8
LC-002-003-----0
  6
CONTINUOUS
  5
215
 10
952.516884
 20
7464.160746
 30
0.0
 11
952.0
 21
7468.086868
 31
0.0
  0
LINE
  8
LC-002-003-----0
  6
CONTINUOUS
  5
216
 10
952.0
 20
7468.086868
 30
0.0
 11
951.483116
 21
7464.160746
 31
0.0
  0
TEXT
  8
LC-002-003-----0
  6
CONTINUOUS
 62
     6
  5
217
 10
946.968001
 20
7381.390674
 30
0.0
 40
18.0
  1
14-109
 50
90.0
 51
15.0
  7
LC-TXTSTYLE-150-400-0-0-D0
 72
     1
 11
946.968001
 21
7423.166264
 31
0.0
  0
ENDBLK
  8
0
  5
218
  0
ENDSEC
  0
SECTION
  2
ENTITIES
  0
VIEWPORT
  8
LC-000
  5
3A7
 67
     1
 68
     1
 10
420.0
 20
297.0
 30
0.0
 40
840.0
 41
594.0
 69
     1
1001
ACAD
1000
MVIEW
1002
{
1070
    16
1010
0.0
1020
0.0
1030
0.0
1010
0.0
1020
0.0
1030
1.0
1040
0.0
1040
594.0
1040
420.0
1040
297.0
1040
50.0
1040
0.0
1040
0.0
1070
     0
1070
   100
1070
     1
1070
     1
1070
     0
1070
     0
1070
     0
1070
     0
1040
0.0
1040
0.0
1040
0.0
1040
1.0
1040
1.0
1040
0.0
1040
0.0
1070
     0
1002
{
1002
}
1002
}
  0
VIEWPORT
  8
0
  5
3A8
 67
     1
 68
     1
 10
0.0
 20
0.0
 30
0.0
 40
0.0
 41
0.0
 69
     1
1001
ACAD
1000
MVIEW
1002
{
1070
    16
1010
0.0
1020
0.0
1030
0.0
1010
0.0
1020
0.0
1030
1.0
1040
0.0
1040
594.0
1040
0.0
1040
0.0
1040
50.0
1040
0.0
1040
0.0
1070
     0
1070
   100
1070
     0
1070
     1
1070
     0
1070
     0
1070
     0
1070
     0
1040
0.0
1040
0.0
1040
0.0
1040
0.5
1040
0.5
1040
0.5
1040
0.5
1070
     0
1002
{
1002
}
1002
}
  0
DIMENSION
  8
0
  5
219
  2
*D0
 10
837.81922
 20
7308.0
 30
0.0
 11
837.81922
 21
7308.0
 31
0.0
  1
%%c110
 13
782.819462
 23
7359.61517
 33
0.0
 14
892.818977
 24
7365.615111
 34
0.0
  3
LC-DIM-L-0090-02-02
  0
INSERT
  8
0
  5
21B
  2
BLK1
 10
0.0
 20
0.0
 30
0.0
  0
INSERT
  8
0
  5
21C
  2
BLK2
 10
0.0
 20
0.0
 30
0.0
  0
INSERT
  8
0
  5
21D
  2
BLK3
 10
0.0
 20
0.0
 30
0.0
  0
INSERT
  8
0
  5
21E
  2
*X4
 10
777.819855
 20
7355.615195
 30
0.0
  0
INSERT
  8
0
  5
21F
  2
*X5
 10
889.819024
 20
7355.615195
 30
0.0
  0
INSERT
  8
0
  5
220
  2
BLK4
 10
0.0
 20
0.0
 30
0.0
  0
INSERT
  8
0
  5
221
  2
*X7
 10
785.344462
 20
7358.61517
 30
0.0
  0
INSERT
  8
0
  5
222
  2
*X8
 10
837.844462
 20
7358.61517
 30
0.0
  0
INSERT
  8
0
  5
223
  2
BLK5
 10
0.0
 20
0.0
 30
0.0
  0
INSERT
  8
0
  5
224
  2
*X10
 10
889.819462
 20
7358.61517
 30
0.0
  0
INSERT
  8
0
  5
225
  2
*X11
 10
782.819462
 20
7358.61517
 30
0.0
  0
INSERT
  8
0
  5
226
  2
BLK6
 10
0.0
 20
0.0
 30
0.0
  0
INSERT
  8
0
  5
227
  2
BLK7
 10
0.0
 20
0.0
 30
0.0
  0
INSERT
  8
0
  5
228
  2
*X14
 10
777.319462
 20
7459.11517
 30
0.0
  0
INSERT
  8
0
  5
229
  2
*X15
 10
887.928795
 20
7459.11517
 30
0.0
  0
INSERT
  8
0
  5
22A
  2
BLK8
 10
0.0
 20
0.0
 30
0.0
  0
INSERT
  8
0
  5
22B
  2
*X17
 10
783.819462
 20
7479.126868
 30
0.0
  0
INSERT
  8
0
  5
22C
  2
BLK9
 10
0.0
 20
0.0
 30
0.0
  0
INSERT
  8
0
  5
22D
  2
BLK10
 10
0.0
 20
0.0
 30
0.0
  0
INSERT
  8
0
  5
22E
  2
*X20
 10
862.319462
 20
7472.21517
 30
0.0
  0
INSERT
  8
0
  5
22F
  2
*X21
 10
875.319462
 20
7472.21517
 30
0.0
  0
INSERT
  8
0
  5
230
  2
*X22
 10
888.319462
 20
7471.71517
 30
0.0
  0
INSERT
  8
0
  5
231
  2
BLK11
 10
0.0
 20
0.0
 30
0.0
  0
INSERT
  8
0
  5
232
  2
BLK12
 10
0.0
 20
0.0
 30
0.0
  0
INSERT
  8
0
  5
233
  2
*X25
 10
784.119462
 20
7466.61517
 30
0.0
  0
INSERT
  8
0
  5
234
  2
*X26
 10
889.519462
 20
7466.61517
 30
0.0
  0
INSERT
  8
0
  5
235
  2
*X27
 10
837.819462
 20
7472.21517
 30
0.0
  0
INSERT
  8
0
  5
236
  2
*X28
 10
806.319462
 20
7472.21517
 30
0.0
  0
INSERT
  8
0
  5
237
  2
*X29
 10
793.319462
 20
7472.21517
 30
0.0
  0
INSERT
  8
0
  5
238
  2
*X30
 10
780.319462
 20
7471.71517
 30
0.0
  0
INSERT
  8
0
  5
239
  2
BLK13
 10
0.0
 20
0.0
 30
0.0
  0
INSERT
  8
0
  5
23A
  2
*X32
 10
819.319462
 20
7472.21517
 30
0.0
  0
INSERT
  8
0
  5
23B
  2
BLK14
 10
0.0
 20
0.0
 30
0.0
  0
INSERT
  8
0
  5
23D
  2
BLK15
 10
0.0
 20
0.0
 30
0.0
  0
INSERT
  8
0
  5
23E
  2
BLK16
 10
0.0
 20
0.0
 30
0.0
  0
DIMENSION
  8
0
  5
23F
  2
*D36
 10
837.819462
 20
7504.0
 30
0.0
 11
837.819462
 21
7504.0
 31
0.0
  1
120
 13
777.319462
 23
7479.926868
 33
0.0
 14
898.319462
 24
7479.926868
 34
0.0
  3
LC-DIM-L-0090-02-02
  0
DIMENSION
  8
0
  5
240
  2
*D37
 10
756.0
 20
7435.871
 30
0.0
 11
756.0
 21
7435.871
 31
0.0
  1
11
 13
779.119462
 23
7482.126868
 33
0.0
 14
780.319462
 24
7471.01517
 34
0.0
 50
90.0
  3
LC-DIM-L-0090-02-02
  0
DIMENSION
  8
0
  5
241
  2
*D38
 10
924.0
 20
7365.61517
 30
0.0
 11
924.0
 21
7365.61517
 31
0.0
 13
890.319462
 23
7372.61517
 33
0.0
 14
889.819024
 24
7358.61517
 34
0.0
 50
90.0
  3
LC-DIM-L-0090-02-02
  0
DIMENSION
  8
0
  5
242
  2
*D39
 10
952.0
 20
7420.371019
 30
0.0
 11
952.0
 21
7420.371019
 31
0.0
  1
14-109
 13
880.233924
 23
7358.61517
 33
0.0
 14
896.519462
 24
7482.126868
 34
0.0
 50
90.0
  3
LC-DIM-L-0090-02-02
  0
LINE
  8
LC-001-002-----0
  5
243
 10
837.819462
 20
7355.615195
 30
0.0
 11
837.819462
 21
7482.126868
 31
0.0
  0
LINE
  8
LC-001-002-----0
  6
CONTINUOUS
 62
     1
  5
244
 10
892.818953
 20
7373.615005
 30
0.0
 11
892.818977
 21
7365.615111
 31
0.0
  0
LINE
  8
LC-001-002-----0
  6
CONTINUOUS
 62
     1
  5
245
 10
889.819024
 20
7355.615195
 30
0.0
 11
897.819069
 21
7355.615195
 31
0.0
  0
LINE
  8
LC-001-002-----0
  6
CONTINUOUS
 62
     1
  5
246
 10
802.126171
 20
7355.615195
 30
0.0
 11
802.126171
 21
7358.61517
 31
0.0
  0
LINE
  8
LC-001-002-----0
  6
CONTINUOUS
 62
     1
  5
247
 10
800.004869
 20
7355.615195
 30
0.0
 11
800.004869
 21
7358.61517
 31
0.0
  0
LINE
  8
LC-001-002-----0
  6
CONTINUOUS
 62
     1
  5
248
 10
897.819069
 20
7355.615195
 30
0.0
 11
897.819069
 21
7365.614421
 31
0.0
  0
LINE
  8
LC-001-002-----0
  6
CONTINUOUS
 62
     1
  5
249
 10
894.818975
 20
7375.615027
 30
0.0
 11
894.818975
 21
7365.615111
 31
0.0
  0
LINE
  8
LC-001-002-----0
  6
CONTINUOUS
 62
     1
  5
24A
 10
896.319081
 20
7365.615111
 30
0.0
 11
897.819069
 21
7365.615111
 31
0.0
  0
LINE
  8
LC-001-002-----0
  6
CONTINUOUS
 62
     1
  5
24B
 10
894.818975
 20
7375.615027
 30
0.0
 11
892.818953
 21
7373.615005
 31
0.0
  0
LINE
  8
LC-001-002-----0
  6
CONTINUOUS
 62
     1
  5
24C
 10
896.319081
 20
7365.615111
 30
0.0
 11
894.818975
 21
7365.615111
 31
0.0
  0
LINE
  8
LC-001-002-----0
  6
CONTINUOUS
 62
     1
  5
24D
 10
836.319474
 20
7358.61517
 30
0.0
 11
839.319449
 21
7358.61517
 31
0.0
  0
LINE
  8
LC-001-002-----0
  6
CONTINUOUS
 62
     1
  5
24E
 10
839.319449
 20
7355.615195
 30
0.0
 11
839.319449
 21
7358.61517
 31
0.0
  0
LINE
  8
LC-001-002-----0
  6
CONTINUOUS
 62
     1
  5
24F
 10
795.404999
 20
7355.615195
 30
0.0
 11
795.404999
 21
7358.61517
 31
0.0
  0
LINE
  8
LC-001-002-----0
  6
CONTINUOUS
 62
     1
  5
250
 10
795.404999
 20
7358.61517
 30
0.0
 11
802.126171
 21
7358.61517
 31
0.0
  0
LINE
  8
LC-001-002-----0
  6
CONTINUOUS
 62
     1
  5
251
 10
785.8199
 20
7355.615195
 30
0.0
 11
839.319449
 21
7355.615195
 31
0.0
  0
LINE
  8
LC-001-002-----0
  6
CONTINUOUS
 62
     1
  5
252
 10
839.319449
 20
7355.615195
 30
0.0
 11
873.512753
 21
7355.615195
 31
0.0
  0
LINE
  8
LC-001-002-----0
  6
CONTINUOUS
 62
     1
  5
253
 10
873.512753
 20
7355.615195
 30
0.0
 11
889.797385
 21
7355.615195
 31
0.0
  0
LINE
  8
LC-001-002-----0
  6
CONTINUOUS
 62
     1
  5
254
 10
836.319474
 20
7355.615195
 30
0.0
 11
836.319474
 21
7358.61517
 31
0.0
  0
LINE
  8
LC-001-002-----0
  6
CONTINUOUS
 62
     1
  5
255
 10
782.819971
 20
7373.615005
 30
0.0
 11
782.819925
 21
7358.61517
 31
0.0
  0
LINE
  8
LC-001-002-----0
  6
CONTINUOUS
 62
     1
  5
256
 10
785.8199
 20
7355.615195
 30
0.0
 11
777.819855
 21
7355.615195
 31
0.0
  0
LINE
  8
LC-001-002-----0
  6
CONTINUOUS
 62
     1
  5
257
 10
777.819855
 20
7355.615195
 30
0.0
 11
777.819855
 21
7365.614421
 31
0.0
  0
LINE
  8
LC-001-002-----0
  6
CONTINUOUS
 62
     1
  5
258
 10
780.819949
 20
7375.615027
 30
0.0
 11
780.819949
 21
7365.615111
 31
0.0
  0
LINE
  8
LC-001-002-----0
  6
CONTINUOUS
 62
     1
  5
259
 10
779.319842
 20
7365.615111
 30
0.0
 11
777.819855
 21
7365.615111
 31
0.0
  0
LINE
  8
LC-001-002-----0
  6
CONTINUOUS
 62
     1
  5
25A
 10
780.819949
 20
7375.615027
 30
0.0
 11
782.819971
 21
7373.615005
 31
0.0
  0
LINE
  8
LC-001-002-----0
  6
CONTINUOUS
 62
     1
  5
25B
 10
782.819925
 20
7358.61517
 30
0.0
 11
785.8199
 21
7358.61517
 31
0.0
  0
LINE
  8
LC-001-002-----0
  6
CONTINUOUS
 62
     1
  5
25C
 10
785.8199
 20
7358.61517
 30
0.0
 11
785.8199
 21
7355.615195
 31
0.0
  0
LINE
  8
LC-001-002-----0
  6
CONTINUOUS
 62
     1
  5
25D
 10
779.319842
 20
7365.615111
 30
0.0
 11
780.819949
 21
7365.615111
 31
0.0
  0
LINE
  8
LC-001-002-----0
  6
CONTINUOUS
 62
     1
  5
25E
 10
892.818999
 20
7358.61517
 30
0.0
 11
889.819024
 21
7358.61517
 31
0.0
  0
LINE
  8
LC-001-002-----0
  6
CONTINUOUS
 62
     1
  5
25F
 10
889.819024
 20
7358.61517
 30
0.0
 11
889.819024
 21
7355.615195
 31
0.0
  0
LINE
  8
LC-001-002-----0
  6
CONTINUOUS
 62
     1
  5
260
 10
892.818953
 20
7373.615005
 30
0.0
 11
892.818999
 21
7358.61517
 31
0.0
  0
LINE
  8
LC-001-002-----0
  6
CONTINUOUS
 62
     1
  5
261
 10
894.818975
 20
7375.615027
 30
0.0
 11
892.818953
 21
7373.615005
 31
0.0
  0
LINE
  8
LC-001-002-----0
  6
CONTINUOUS
 62
     1
  5
262
 10
894.818975
 20
7375.615027
 30
0.0
 11
894.818975
 21
7365.615111
 31
0.0
  0
LINE
  8
LC-001-002-----0
  6
CONTINUOUS
 62
     1
  5
263
 10
897.819069
 20
7355.615195
 30
0.0
 11
897.819069
 21
7365.614421
 31
0.0
  0
LINE
  8
LC-001-002-----0
  6
CONTINUOUS
 62
     1
  5
264
 10
889.819024
 20
7355.615195
 30
0.0
 11
897.819069
 21
7355.615195
 31
0.0
  0
LINE
  8
LC-001-002-----0
  6
CONTINUOUS
 62
     1
  5
265
 10
880.233924
 20
7355.615195
 30
0.0
 11
880.233924
 21
7358.61517
 31
0.0
  0
LINE
  8
LC-001-002-----0
  6
CONTINUOUS
 62
     1
  5
266
 10
880.233924
 20
7358.61517
 30
0.0
 11
873.512753
 21
7358.61517
 31
0.0
  0
LINE
  8
LC-001-002-----0
  6
CONTINUOUS
 62
     1
  5
267
 10
875.634055
 20
7355.615195
 30
0.0
 11
875.634055
 21
7358.61517
 31
0.0
  0
LINE
  8
LC-001-002-----0
  6
CONTINUOUS
 62
     1
  5
268
 10
873.512753
 20
7355.615195
 30
0.0
 11
873.512753
 21
7358.61517
 31
0.0
  0
LINE
  8
LC-001-002-----0
  6
CONTINUOUS
  5
269
 10
890.344462
 20
7372.61517
 30
0.0
 11
785.344462
 21
7372.61517
 31
0.0
  0
LINE
  8
LC-001-002-----0
  6
CONTINUOUS
 62
     1
  5
26A
 10
890.319462
 20
7463.61517
 30
0.0
 11
890.319462
 21
7358.61517
 31
0.0
  0
LINE
  8
LC-001-002-----0
  6
CONTINUOUS
 62
     1
  5
26B
 10
837.819462
 20
7358.61517
 30
0.0
 11
785.319462
 21
7358.61517
 31
0.0
  0
LINE
  8
LC-001-002-----0
  6
CONTINUOUS
 62
     1
  5
26C
 10
892.819462
 20
7360.61517
 30
0.0
 11
892.283563
 21
7358.61517
 31
0.0
  0
LINE
  8
LC-001-002-----0
  6
CONTINUOUS
 62
     1
  5
26D
 10
837.819462
 20
7358.61517
 30
0.0
 11
890.319462
 21
7358.61517
 31
0.0
  0
LINE
  8
LC-001-002-----0
  6
CONTINUOUS
 62
     1
  5
26E
 10
891.569462
 20
7466.91517
 30
0.0
 11
891.569462
 21
7468.61517
 31
0.0
  0
LINE
  8
LC-001-002-----0
  6
CONTINUOUS
 62
     1
  5
26F
 10
782.819462
 20
7360.61517
 30
0.0
 11
783.35536
 21
7358.61517
 31
0.0
  0
LINE
  8
LC-001-002-----0
  6
CONTINUOUS
 62
     1
  5
270
 10
785.319462
 20
7463.61517
 30
0.0
 11
785.319462
 21
7358.61517
 31
0.0
  0
LINE
  8
LC-001-002-----0
  6
CONTINUOUS
 62
     1
  5
271
 10
784.069462
 20
7466.91517
 30
0.0
 11
784.069462
 21
7468.61517
 31
0.0
  0
LINE
  8
LC-001-002-----0
  6
CONTINUOUS
 62
     1
  5
272
 10
890.319462
 20
7463.61517
 30
0.0
 11
889.569462
 21
7463.61517
 31
0.0
  0
LINE
  8
LC-001-002-----0
  6
CONTINUOUS
 62
     1
  5
273
 10
785.319462
 20
7463.61517
 30
0.0
 11
785.819462
 21
7463.61517
 31
0.0
  0
LINE
  8
LC-001-002-----0
  6
CONTINUOUS
 62
     1
  5
274
 10
783.35536
 20
7358.61517
 30
0.0
 11
785.319462
 21
7358.61517
 31
0.0
  0
LINE
  8
LC-001-002-----0
  6
CONTINUOUS
 62
     1
  5
275
 10
782.819462
 20
7468.61517
 30
0.0
 11
782.819462
 21
7360.61517
 31
0.0
  0
LINE
  8
LC-001-002-----0
  6
CONTINUOUS
 62
     1
  5
276
 10
890.319462
 20
7466.61517
 30
0.0
 11
889.819462
 21
7466.11517
 31
0.0
  0
LINE
  8
LC-001-002-----0
  6
CONTINUOUS
 62
     1
  5
277
 10
892.283563
 20
7358.61517
 30
0.0
 11
890.319462
 21
7358.61517
 31
0.0
  0
LINE
  8
LC-001-002-----0
  6
CONTINUOUS
 62
     1
  5
278
 10
892.819462
 20
7468.61517
 30
0.0
 11
892.819462
 21
7360.61517
 31
0.0
  0
LINE
  8
LC-001-002-----0
  6
CONTINUOUS
 62
     1
  5
279
 10
785.319462
 20
7466.61517
 30
0.0
 11
785.819462
 21
7466.11517
 31
0.0
  0
LINE
  8
LC-001-002-----0
  6
CONTINUOUS
 62
     1
  5
27A
 10
890.319462
 20
7466.61517
 30
0.0
 11
891.269462
 21
7466.61517
 31
0.0
  0
LINE
  8
LC-001-002-----0
  6
CONTINUOUS
 62
     1
  5
27B
 10
782.819462
 20
7468.61517
 30
0.0
 11
784.069462
 21
7468.61517
 31
0.0
  0
ARC
  8
LC-007-002-RND-0
  6
CONTINUOUS
  5
27D
 10
891.269462
 20
7466.91517
 30
0.0
 40
0.3
 50
270.0
 51
0.0
  0
ARC
  8
LC-007-002-RND-0
  6
CONTINUOUS
  5
27E
 10
784.369462
 20
7466.91517
 30
0.0
 40
0.3
 50
180.0
 51
270.0
  0
LINE
  8
LC-001-002-----0
  6
CONTINUOUS
 62
     1
  5
27F
 10
785.819462
 20
7466.11517
 30
0.0
 11
785.819462
 21
7463.61517
 31
0.0
  0
LINE
  8
LC-001-002-----0
  6
CONTINUOUS
 62
     1
  5
280
 10
889.819462
 20
7466.11517
 30
0.0
 11
889.819462
 21
7463.61517
 31
0.0
  0
LINE
  8
LC-001-002-----0
  6
CONTINUOUS
 62
     1
  5
281
 10
890.319462
 20
7466.61517
 30
0.0
 11
889.819462
 21
7466.11517
 31
0.0
  0
LINE
  8
LC-001-002-----0
  6
CONTINUOUS
 62
     1
  5
282
 10
785.319462
 20
7466.61517
 30
0.0
 11
784.369462
 21
7466.61517
 31
0.0
  0
LINE
  8
LC-001-002-----0
  6
CONTINUOUS
 62
     1
  5
283
 10
891.569462
 20
7468.61517
 30
0.0
 11
892.819462
 21
7468.61517
 31
0.0
  0
LINE
  8
LC-001-002-----0
  6
CONTINUOUS
 62
     1
  5
284
 10
779.819462
 20
7472.426868
 30
0.0
 11
779.819462
 21
7481.426868
 31
0.0
  0
ARC
  8
LC-007-002-RND-0
  6
CONTINUOUS
  5
285
 10
782.319462
 20
7470.51517
 30
0.0
 40
0.5
 50
0.0
 51
90.0
  0
LINE
  8
LC-001-002-----0
  6
CONTINUOUS
 62
     1
  5
286
 10
779.119462
 20
7482.126868
 30
0.0
 11
779.119462
 21
7482.126868
 31
0.0
  0
ARC
  8
LC-007-002-RND-0
  6
CONTINUOUS
  5
287
 10
780.319462
 20
7472.21517
 30
0.0
 40
0.5
 50
180.0
 51
270.0
  0
LINE
  8
LC-001-002-----0
  6
CONTINUOUS
 62
     1
  5
288
 10
782.819462
 20
7476.626868
 30
0.0
 11
782.819462
 21
7477.326868
 31
0.0
  0
LINE
  8
LC-001-002-----0
  6
CONTINUOUS
 62
     1
  5
289
 10
810.44694
 20
7476.626868
 30
0.0
 11
810.44694
 21
7477.326868
 31
0.0
  0
LINE
  8
LC-001-002-----0
  6
CONTINUOUS
 62
     1
  5
28A
 10
784.119462
 20
7478.626868
 30
0.0
 11
806.871091
 21
7478.626868
 31
0.0
  0
ARC
  8
LC-007-002-RND-0
  6
CONTINUOUS
  5
28B
 10
784.119462
 20
7477.326868
 30
0.0
 40
1.3
 50
90.0
 51
180.0
  0
ARC
  8
LC-007-002-RND-0
  6
CONTINUOUS
  5
28C
 10
784.019462
 20
7469.81517
 30
0.0
 40
1.2
 50
180.0
 51
270.0
  0
LINE
  8
LC-001-002-----0
  6
CONTINUOUS
 62
     1
  5
28D
 10
779.819462
 20
7472.21517
 30
0.0
 11
779.819462
 21
7476.126868
 31
0.0
  0
ARC
  8
LC-007-002-RND-0
  6
CONTINUOUS
  5
28E
 10
780.319462
 20
7472.21517
 30
0.0
 40
1.2
 50
180.0
 51
270.0
  0
LINE
  8
LC-001-002-----0
  6
CONTINUOUS
 62
     1
  5
28F
 10
780.319462
 20
7471.01517
 30
0.0
 11
782.319462
 21
7471.01517
 31
0.0
  0
LINE
  8
LC-001-002-----0
  6
CONTINUOUS
 62
     1
  5
290
 10
782.819462
 20
7469.81517
 30
0.0
 11
782.819462
 21
7470.51517
 31
0.0
  0
LINE
  8
LC-001-002-----0
  6
CONTINUOUS
 62
     1
  5
291
 10
784.019462
 20
7468.61517
 30
0.0
 11
785.669462
 21
7468.61517
 31
0.0
  0
LINE
  8
LC-001-002-----0
  6
CONTINUOUS
 62
     1
  5
292
 10
778.709261
 20
7482.126868
 30
0.0
 11
779.119462
 21
7482.126868
 31
0.0
  0
LINE
  8
LC-001-002-----0
  6
CONTINUOUS
 62
     1
  5
293
 10
896.929663
 20
7482.126868
 30
0.0
 11
896.519462
 21
7482.126868
 31
0.0
  0
ARC
  8
LC-007-002-RND-0
  6
CONTINUOUS
  5
294
 10
784.019462
 20
7469.718856
 30
0.0
 40
0.5
 50
180.0
 51
270.0
  0
ARC
  8
LC-007-002-RND-0
  6
CONTINUOUS
  5
295
 10
891.619462
 20
7469.718856
 30
0.0
 40
0.5
 50
270.0
 51
0.0
  0
LINE
  8
LC-001-002-----0
  6
CONTINUOUS
 62
     1
  5
296
 10
895.819462
 20
7473.01517
 30
0.0
 11
895.819462
 21
7481.426868
 31
0.0
  0
ARC
  8
LC-007-002-RND-0
  6
CONTINUOUS
  5
297
 10
893.319462
 20
7470.51517
 30
0.0
 40
0.5
 50
90.0
 51
180.0
  0
LINE
  8
LC-001-002-----0
  6
CONTINUOUS
 62
     1
  5
298
 10
896.519462
 20
7482.126868
 30
0.0
 11
896.519462
 21
7482.126868
 31
0.0
  0
ARC
  8
LC-007-002-RND-0
  6
CONTINUOUS
  5
299
 10
895.319462
 20
7472.21517
 30
0.0
 40
0.5
 50
270.0
 51
0.0
  0
LINE
  8
LC-001-002-----0
  6
CONTINUOUS
 62
     1
  5
29A
 10
892.819462
 20
7476.626868
 30
0.0
 11
892.819462
 21
7477.326868
 31
0.0
  0
LINE
  8
LC-001-002-----0
  6
CONTINUOUS
 62
     1
  5
29B
 10
891.519462
 20
7478.626868
 30
0.0
 11
868.767832
 21
7478.626868
 31
0.0
  0
ARC
  8
LC-007-002-RND-0
  6
CONTINUOUS
  5
29C
 10
782.319462
 20
7470.51517
 30
0.0
 40
1.2
 50
0.0
 51
90.0
  0
ARC
  8
LC-007-002-RND-0
  6
CONTINUOUS
  5
29D
 10
891.519462
 20
7477.326868
 30
0.0
 40
1.3
 50
0.0
 51
90.0
  0
LINE
  8
LC-001-002-----0
  6
CONTINUOUS
 62
     1
  5
29E
 10
779.119462
 20
7472.21517
 30
0.0
 11
779.119462
 21
7481.173172
 31
0.0
  0
ARC
  8
LC-007-002-RND-0
  6
CONTINUOUS
  5
29F
 10
893.319462
 20
7470.51517
 30
0.0
 40
1.2
 50
90.0
 51
180.0
  0
LINE
  8
LC-001-002-----0
  6
CONTINUOUS
 62
     1
  5
2A0
 10
895.819462
 20
7472.21517
 30
0.0
 11
895.819462
 21
7476.126868
 31
0.0
  0
ARC
  8
LC-007-002-RND-0
  6
CONTINUOUS
  5
2A1
 10
895.319462
 20
7472.21517
 30
0.0
 40
1.2
 50
270.0
 51
0.0
  0
LINE
  8
LC-001-002-----0
  6
CONTINUOUS
 62
     1
  5
2A2
 10
896.519462
 20
7472.21517
 30
0.0
 11
896.519462
 21
7481.173172
 31
0.0
  0
LINE
  8
LC-001-002-----0
  6
CONTINUOUS
 62
     1
  5
2A3
 10
895.319462
 20
7471.01517
 30
0.0
 11
893.319462
 21
7471.01517
 31
0.0
  0
LINE
  8
LC-001-002-----0
  6
CONTINUOUS
 62
     1
  5
2A4
 10
892.819462
 20
7469.81517
 30
0.0
 11
892.819462
 21
7470.51517
 31
0.0
  0
LINE
  8
LC-001-002-----0
  6
CONTINUOUS
 62
     1
  5
2A5
 10
891.619462
 20
7468.61517
 30
0.0
 11
889.959257
 21
7468.61517
 31
0.0
  0
LINE
  8
LC-001-002-----0
  6
CONTINUOUS
 62
     1
  5
2A6
 10
786.223834
 20
7462.005158
 30
0.0
 11
787.188006
 21
7459.356116
 31
0.0
  0
ARC
  8
LC-007-002-RND-0
  6
CONTINUOUS
  5
2A7
 10
896.519462
 20
7481.426868
 30
0.0
 40
0.7
 50
90.0
 51
180.0
  0
LINE
  8
LC-001-002-----0
  6
CONTINUOUS
 62
     1
  5
2A8
 10
786.869462
 20
7462.407764
 30
0.0
 11
786.869462
 21
7468.018856
 31
0.0
  0
LINE
  8
LC-001-002-----0
  6
CONTINUOUS
 62
     1
  5
2A9
 10
786.169462
 20
7463.108119
 30
0.0
 11
786.169462
 21
7468.11517
 31
0.0
  0
LINE
  8
LC-001-002-----0
  6
CONTINUOUS
 62
     1
  5
2AA
 10
787.188006
 20
7459.356116
 30
0.0
 11
786.526011
 21
7459.11517
 31
0.0
  0
LINE
  8
LC-001-002-----0
  6
CONTINUOUS
 62
     1
  5
2AB
 10
837.819462
 20
7459.11517
 30
0.0
 11
889.112912
 21
7459.11517
 31
0.0
  0
ARC
  8
LC-001-002-----0
  6
CONTINUOUS
 62
     1
  5
2AC
 10
786.610129
 20
7462.100244
 30
0.0
 40
1.1
 50
113.616097
 51
200.0
  0
LINE
  8
LC-001-002-----0
  6
CONTINUOUS
 62
     1
  5
2AD
 10
837.819462
 20
7459.11517
 30
0.0
 11
786.526011
 21
7459.11517
 31
0.0
  0
ARC
  8
LC-007-002-RND-0
  6
CONTINUOUS
  5
2AE
 10
786.505742
 20
7462.107764
 30
0.0
 40
0.3
 50
90.0
 51
200.0
  0
LINE
  8
LC-001-002-----0
  6
CONTINUOUS
 62
     1
  5
2AF
 10
888.769462
 20
7462.407764
 30
0.0
 11
888.769462
 21
7468.018856
 31
0.0
  0
LINE
  8
LC-001-002-----0
  6
CONTINUOUS
 62
     1
  5
2B0
 10
889.469462
 20
7463.108119
 30
0.0
 11
889.469462
 21
7468.115274
 31
0.0
  0
LINE
  8
LC-001-002-----0
  6
CONTINUOUS
 62
     1
  5
2B1
 10
837.819462
 20
7459.356116
 30
0.0
 11
888.450917
 21
7459.356116
 31
0.0
  0
LINE
  8
LC-001-002-----0
  6
CONTINUOUS
 62
     1
  5
2B2
 10
786.505742
 20
7462.407764
 30
0.0
 11
837.819462
 21
7462.407764
 31
0.0
  0
ARC
  8
LC-007-002-RND-0
  6
CONTINUOUS
  5
2B3
 10
785.669462
 20
7468.018856
 30
0.0
 40
1.2
 50
0.0
 51
90.0
  0
LINE
  8
LC-001-002-----0
  6
CONTINUOUS
 62
     1
  5
2B4
 10
784.019462
 20
7469.218856
 30
0.0
 11
837.819462
 21
7469.218856
 31
0.0
  0
LINE
  8
LC-001-002-----0
  6
CONTINUOUS
 62
     1
  5
2B5
 10
890.062457
 20
7461.724021
 30
0.0
 11
889.112912
 21
7459.11517
 31
0.0
  0
ARC
  8
LC-001-002-----0
  6
CONTINUOUS
 62
     1
  5
2B6
 10
889.028795
 20
7462.100244
 30
0.0
 40
1.1
 50
340.0
 51
66.383903
  0
LINE
  8
LC-001-002-----0
  6
CONTINUOUS
 62
     1
  5
2B7
 10
783.519462
 20
7469.718856
 30
0.0
 11
783.519462
 21
7470.51517
 31
0.0
  0
LINE
  8
LC-001-002-----0
  6
CONTINUOUS
 62
     1
  5
2B8
 10
780.319462
 20
7471.71517
 30
0.0
 11
837.819462
 21
7471.71517
 31
0.0
  0
LINE
  8
LC-001-002-----0
  6
CONTINUOUS
 62
     1
  5
2B9
 10
837.819462
 20
7459.356116
 30
0.0
 11
787.188006
 21
7459.356116
 31
0.0
  0
ARC
  8
LC-007-002-RND-0
  6
CONTINUOUS
  5
2BA
 10
889.133182
 20
7462.107764
 30
0.0
 40
0.3
 50
340.0
 51
90.0
  0
LINE
  8
LC-001-002-----0
  6
CONTINUOUS
 62
     1
  5
2BB
 10
889.41509
 20
7462.005158
 30
0.0
 11
888.450917
 21
7459.356116
 31
0.0
  0
LINE
  8
LC-001-002-----0
  6
CONTINUOUS
 62
     1
  5
2BC
 10
889.133182
 20
7462.407764
 30
0.0
 11
837.819462
 21
7462.407764
 31
0.0
  0
ARC
  8
LC-007-002-RND-0
  6
CONTINUOUS
  5
2BD
 10
889.969462
 20
7468.018856
 30
0.0
 40
1.2
 50
90.0
 51
180.0
  0
LINE
  8
LC-001-002-----0
  6
CONTINUOUS
 62
     1
  5
2BE
 10
891.619462
 20
7469.218856
 30
0.0
 11
837.819462
 21
7469.218856
 31
0.0
  0
LINE
  8
LC-001-002-----0
  6
CONTINUOUS
 62
     1
  5
2BF
 10
892.119462
 20
7469.718856
 30
0.0
 11
892.119462
 21
7470.51517
 31
0.0
  0
LINE
  8
LC-001-002-----0
  6
CONTINUOUS
 62
     1
  5
2C0
 10
895.319462
 20
7471.71517
 30
0.0
 11
837.819462
 21
7471.71517
 31
0.0
  0
ARC
  8
LC-007-002-RND-0
  6
CONTINUOUS
  5
2C1
 10
889.969462
 20
7468.115274
 30
0.0
 40
0.5
 50
90.0
 51
180.0
  0
LINE
  8
LC-001-002-----0
  6
CONTINUOUS
 62
     1
  5
2C2
 10
888.450917
 20
7459.356116
 30
0.0
 11
889.112912
 21
7459.11517
 31
0.0
  0
LINE
  8
LC-001-002-----0
  6
CONTINUOUS
 62
     1
  5
2C3
 10
785.576467
 20
7461.724021
 30
0.0
 11
786.526011
 21
7459.11517
 31
0.0
  0
LINE
  8
LC-001-002-----0
  6
CONTINUOUS
 62
     1
  5
2C4
 10
865.191984
 20
7476.626868
 30
0.0
 11
865.191984
 21
7477.326868
 31
0.0
  0
LINE
  8
LC-001-002-----0
  6
CONTINUOUS
 62
     1
  5
2C5
 10
898.319462
 20
7479.926868
 30
0.0
 11
896.519462
 21
7479.926868
 31
0.0
  0
ARC
  8
LC-007-002-RND-0
  6
CONTINUOUS
  5
2C6
 10
896.929663
 20
7481.426868
 30
0.0
 40
0.7
 50
22.797938
 51
90.0
  0
LINE
  8
LC-001-002-----0
  6
CONTINUOUS
 62
     1
  5
2C7
 10
897.574977
 20
7481.698105
 30
0.0
 11
898.319462
 21
7479.926868
 31
0.0
  0
LINE
  8
LC-001-002-----0
  6
CONTINUOUS
 62
     1
  5
2C8
 10
896.99592
 20
7481.269233
 30
0.0
 11
897.560142
 21
7479.926868
 31
0.0
  0
ARC
  8
LC-001-002-----0
  6
CONTINUOUS
 62
     1
  5
2C9
 10
896.767375
 20
7481.173172
 30
0.0
 40
0.247913
 50
22.797938
 51
180.0
  0
LINE
  8
LC-001-002-----0
  6
CONTINUOUS
 62
     1
  5
2CA
 10
779.119462
 20
7482.126868
 30
0.0
 11
779.119462
 21
7482.126868
 31
0.0
  0
ARC
  8
LC-007-002-RND-0
  6
CONTINUOUS
  5
2CB
 10
779.119462
 20
7481.426868
 30
0.0
 40
0.7
 50
0.0
 51
90.0
  0
LINE
  8
LC-001-002-----0
  6
CONTINUOUS
 62
     1
  5
2CC
 10
777.319462
 20
7479.926868
 30
0.0
 11
779.119462
 21
7479.926868
 31
0.0
  0
ARC
  8
LC-007-002-RND-0
  6
CONTINUOUS
  5
2CD
 10
778.709261
 20
7481.426868
 30
0.0
 40
0.7
 50
90.0
 51
157.202062
  0
LINE
  8
LC-001-002-----0
  6
CONTINUOUS
 62
     1
  5
2CE
 10
778.063947
 20
7481.698105
 30
0.0
 11
777.319462
 21
7479.926868
 31
0.0
  0
LINE
  8
LC-001-002-----0
  6
CONTINUOUS
 62
     1
  5
2CF
 10
778.643004
 20
7481.269233
 30
0.0
 11
778.078782
 21
7479.926868
 31
0.0
  0
ARC
  8
LC-001-002-----0
  6
CONTINUOUS
 62
     1
  5
2D0
 10
778.871549
 20
7481.173172
 30
0.0
 40
0.247913
 50
0.0
 51
157.202062
  0
ARC
  8
LC-007-002-RND-0
  6
CONTINUOUS
  5
2D1
 10
785.669462
 20
7468.11517
 30
0.0
 40
0.5
 50
0.0
 51
90.0
  0
ARC
  8
LC-007-002-RND-0
  6
CONTINUOUS
  5
2D2
 10
891.619462
 20
7469.81517
 30
0.0
 40
1.2
 50
270.0
 51
0.0
  0
LINE
  8
LC-001-002-----0
  6
CONTINUOUS
 62
     1
  5
2D3
 10
781.319462
 20
7479.126868
 30
0.0
 11
895.319462
 21
7479.126868
 31
0.0
  0
LINE
  8
LC-001-002-----0
  6
CONTINUOUS
 62
     1
  5
2D4
 10
783.819462
 20
7482.126868
 30
0.0
 11
783.819462
 21
7480.126868
 31
0.0
  0
LINE
  8
LC-001-002-----0
  6
CONTINUOUS
 62
     1
  5
2D5
 10
780.319462
 20
7482.126868
 30
0.0
 11
895.319462
 21
7482.126868
 31
0.0
  0
LINE
  8
LC-001-002-----0
  6
CONTINUOUS
 62
     1
  5
2D6
 10
895.319462
 20
7478.526868
 30
0.0
 11
895.319462
 21
7482.126868
 31
0.0
  0
LINE
  8
LC-001-002-----0
  6
CONTINUOUS
 62
     1
  5
2D7
 10
892.819462
 20
7478.526868
 30
0.0
 11
892.819462
 21
7479.126868
 31
0.0
  0
LINE
  8
LC-001-002-----0
  6
CONTINUOUS
 62
     1
  5
2D8
 10
893.319462
 20
7478.026868
 30
0.0
 11
894.819462
 21
7478.026868
 31
0.0
  0
LINE
  8
LC-001-002-----0
  6
CONTINUOUS
 62
     1
  5
2D9
 10
780.319462
 20
7482.126868
 30
0.0
 11
780.319462
 21
7480.126868
 31
0.0
  0
LINE
  8
LC-001-002-----0
  6
CONTINUOUS
 62
     1
  5
2DA
 10
780.319462
 20
7480.126868
 30
0.0
 11
781.319462
 21
7479.126868
 31
0.0
  0
LINE
  8
LC-001-002-----0
  6
CONTINUOUS
 62
     1
  5
2DB
 10
783.819462
 20
7480.126868
 30
0.0
 11
784.819462
 21
7479.126868
 31
0.0
  0
LINE
  8
LC-001-002-----0
  6
CONTINUOUS
 62
     1
  5
2DC
 10
780.319462
 20
7480.126868
 30
0.0
 11
783.819462
 21
7480.126868
 31
0.0
  0
ARC
  8
LC-007-002-RND-0
  6
CONTINUOUS
  5
2DD
 10
893.319462
 20
7478.526868
 30
0.0
 40
0.5
 50
180.0
 51
270.0
  0
ARC
  8
LC-007-002-RND-0
  6
CONTINUOUS
  5
2DE
 10
894.819462
 20
7478.526868
 30
0.0
 40
0.5
 50
270.0
 51
0.0
  0
ARC
  8
LC-007-002-RND-0
  6
CONTINUOUS
  5
2DF
 10
1006.819462
 20
7368.121031
 30
0.0
 40
0.5
 50
270.0
 51
0.0
  0
ARC
  8
LC-007-002-RND-0
  6
CONTINUOUS
  5
2E0
 10
1006.819462
 20
7381.871031
 30
0.0
 40
0.5
 50
0.0
 51
90.0
  0
LINE
  8
LC-001-002-----0
  6
CONTINUOUS
 62
     1
  5
2E1
 10
1113.819462
 20
7361.371031
 30
0.0
 11
1002.819462
 21
7361.371031
 31
0.0
  0
ARC
  8
LC-007-002-RND-0
  6
CONTINUOUS
  5
2E2
 10
1002.819462
 20
7363.371031
 30
0.0
 40
2.0
 50
180.0
 51
270.0
  0
LINE
  8
LC-001-002-----0
  6
CONTINUOUS
 62
     1
  5
2E3
 10
1000.819462
 20
7367.621031
 30
0.0
 11
1006.819462
 21
7367.621031
 31
0.0
  0
LINE
  8
LC-001-002-----0
  6
CONTINUOUS
 62
     1
  5
2E4
 10
1000.819462
 20
7418.871031
 30
0.0
 11
1000.819462
 21
7363.371031
 31
0.0
  0
LINE
  8
LC-001-002-----0
  6
CONTINUOUS
 62
     1
  5
2E5
 10
1000.819462
 20
7382.371031
 30
0.0
 11
1006.819462
 21
7382.371031
 31
0.0
  0
LINE
  8
LC-001-002-----0
  6
CONTINUOUS
 62
     1
  5
2E6
 10
1003.319462
 20
7367.621031
 30
0.0
 11
1003.319462
 21
7382.371031
 31
0.0
  0
LINE
  8
LC-001-002-----0
  6
CONTINUOUS
 62
     1
  5
2E7
 10
1007.319462
 20
7368.121031
 30
0.0
 11
1007.319462
 21
7381.871031
 31
0.0
  0
ARC
  8
LC-007-002-RND-0
  6
CONTINUOUS
  5
2E8
 10
1113.819462
 20
7363.371031
 30
0.0
 40
2.0
 50
270.0
 51
0.0
  0
ARC
  8
LC-001-002-----0
  6
CONTINUOUS
 62
     1
  5
2E9
 10
1142.319462
 20
7418.871031
 30
0.0
 40
30.0
 50
180.0
 51
207.048111
  0
LINE
  8
LC-001-002-----0
  6
CONTINUOUS
 62
     1
  5
2EA
 10
1115.819462
 20
7404.319399
 30
0.0
 11
1115.819462
 21
7363.371031
 31
0.0
  0
ARC
  8
LC-007-002-RND-0
  6
CONTINUOUS
  5
2EB
 10
1113.819462
 20
7404.319399
 30
0.0
 40
2.0
 50
0.0
 51
27.048111
  0
LINE
  8
LC-001-002-----0
  6
CONTINUOUS
 62
     1
  5
2EC
 10
837.819462
 20
7476.71517
 30
0.0
 11
877.569462
 21
7476.71517
 31
0.0
  0
LINE
  8
LC-001-002-----0
  6
CONTINUOUS
 62
     1
  5
2ED
 10
895.319462
 20
7474.46517
 30
0.0
 11
895.319462
 21
7471.71517
 31
0.0
  0
LINE
  8
LC-001-002-----0
  6
CONTINUOUS
 62
     1
  5
2EE
 10
837.819462
 20
7475.21517
 30
0.0
 11
854.069462
 21
7475.21517
 31
0.0
  0
LINE
  8
LC-001-002-----0
  6
CONTINUOUS
 62
     1
  5
2EF
 10
895.319462
 20
7474.46517
 30
0.0
 11
895.319462
 21
7471.71517
 31
0.0
  0
ARC
  8
LC-007-002-RND-0
  6
CONTINUOUS
  5
2F0
 10
893.069462
 20
7474.46517
 30
0.0
 40
2.25
 50
0.0
 51
90.0
  0
ARC
  8
LC-007-002-RND-0
  6
CONTINUOUS
  5
2F1
 10
864.569462
 20
7474.46517
 30
0.0
 40
0.75
 50
90.0
 51
180.0
  0
ARC
  8
LC-007-002-RND-0
  6
CONTINUOUS
  5
2F2
 10
867.069462
 20
7474.46517
 30
0.0
 40
0.75
 50
0.0
 51
90.0
  0
LINE
  8
LC-008-007-KH--0
  5
2F4
 10
1053.319462
 20
7465.692501
 30
0.0
 11
1053.319462
 21
7465.692501
 31
0.0
  0
LINE
  8
LC-008-007-KH--0
  5
2F5
 10
1063.319462
 20
7465.692501
 30
0.0
 11
1063.319462
 21
7465.692501
 31
0.0
  0
ARC
  8
LC-001-002-----0
  6
CONTINUOUS
 62
     1
  5
2F6
 10
1058.319462
 20
7418.871031
 30
0.0
 40
18.5
 50
111.844757
 51
158.155243
  0
ARC
  8
LC-001-002-----0
  6
CONTINUOUS
 62
     1
  5
2F7
 10
1058.319462
 20
7418.871031
 30
0.0
 40
24.5
 50
111.844757
 51
158.155243
  0
ARC
  8
LC-001-002-----0
  6
CONTINUOUS
 62
     1
  5
2F8
 10
1058.319462
 20
7418.871031
 30
0.0
 40
31.5
 50
103.40802
 51
166.59198
  0
ARC
  8
LC-001-002-----0
  6
CONTINUOUS
 62
     1
  5
2F9
 10
1058.319462
 20
7418.871031
 30
0.0
 40
37.5
 50
103.40802
 51
166.59198
  0
ARC
  8
LC-001-002-----0
  6
CONTINUOUS
 62
     1
  5
2FA
 10
1058.319462
 20
7418.871031
 30
0.0
 40
44.5
 50
99.696028
 51
170.303972
  0
ARC
  8
LC-001-002-----0
  6
CONTINUOUS
 62
     1
  5
2FB
 10
1058.319462
 20
7418.871031
 30
0.0
 40
50.5
 50
99.696028
 51
170.303972
  0
ARC
  8
LC-001-002-----0
  6
CONTINUOUS
 62
     1
  5
2FC
 10
1058.319462
 20
7418.871031
 30
0.0
 40
18.5
 50
21.844757
 51
68.155243
  0
ARC
  8
LC-001-002-----0
  6
CONTINUOUS
 62
     1
  5
2FD
 10
1058.319462
 20
7418.871031
 30
0.0
 40
24.5
 50
21.844757
 51
68.155243
  0
ARC
  8
LC-001-002-----0
  6
CONTINUOUS
 62
     1
  5
2FE
 10
1058.319462
 20
7418.871031
 30
0.0
 40
31.5
 50
13.40802
 51
76.59198
  0
ARC
  8
LC-001-002-----0
  6
CONTINUOUS
 62
     1
  5
2FF
 10
1058.319462
 20
7418.871031
 30
0.0
 40
37.5
 50
13.40802
 51
76.59198
  0
ARC
  8
LC-001-002-----0
  6
CONTINUOUS
 62
     1
  5
300
 10
1058.319462
 20
7418.871031
 30
0.0
 40
44.5
 50
9.696028
 51
80.303972
  0
ARC
  8
LC-001-002-----0
  6
CONTINUOUS
 62
     1
  5
301
 10
1058.319462
 20
7418.871031
 30
0.0
 40
50.5
 50
9.696028
 51
80.303972
  0
ARC
  8
LC-007-002-RND-0
  6
CONTINUOUS
  5
302
 10
877.569462
 20
7474.46517
 30
0.0
 40
0.75
 50
90.0
 51
180.0
  0
ARC
  8
LC-007-002-RND-0
  6
CONTINUOUS
  5
303
 10
880.069462
 20
7474.46517
 30
0.0
 40
0.75
 50
0.0
 51
90.0
  0
ARC
  8
LC-007-002-RND-0
  6
CONTINUOUS
  5
304
 10
890.569462
 20
7474.46517
 30
0.0
 40
0.75
 50
90.0
 51
180.0
  0
ARC
  8
LC-007-002-RND-0
  6
CONTINUOUS
  5
305
 10
893.069462
 20
7474.46517
 30
0.0
 40
0.75
 50
0.0
 51
90.0
  0
LINE
  8
LC-001-002-----0
  6
CONTINUOUS
 62
     1
  5
306
 10
856.319462
 20
7472.51517
 30
0.0
 11
856.319462
 21
7474.46517
 31
0.0
  0
LINE
  8
LC-008-007-KH--0
  5
307
 10
1091.87911
 20
7423.871031
 30
0.0
 11
1091.87911
 21
7423.871031
 31
0.0
  0
LINE
  8
LC-008-007-KH--0
  5
308
 10
1011.497992
 20
7423.871031
 30
0.0
 11
1011.497992
 21
7423.871031
 31
0.0
  0
LINE
  8
LC-001-002-----0
  6
CONTINUOUS
 62
     1
  5
309
 10
854.819462
 20
7472.51517
 30
0.0
 11
875.319462
 21
7472.51517
 31
0.0
  0
LINE
  8
LC-008-007-KH--0
  5
30A
 10
1078.275664
 20
7423.871031
 30
0.0
 11
1078.275664
 21
7423.871031
 31
0.0
  0
LINE
  8
LC-008-007-KH--0
  5
30B
 10
1105.140931
 20
7423.871031
 30
0.0
 11
1105.140931
 21
7423.871031
 31
0.0
  0
LINE
  8
LC-008-007-KH--0
  5
30C
 10
1053.319462
 20
7438.827233
 30
0.0
 11
1053.319462
 21
7438.827233
 31
0.0
  0
LINE
  8
LC-008-007-KH--0
  5
30D
 10
1053.319462
 20
7452.43068
 30
0.0
 11
1053.319462
 21
7452.43068
 31
0.0
  0
ARC
  8
LC-007-002-RND-0
  6
CONTINUOUS
  5
30E
 10
1011.497992
 20
7426.871031
 30
0.0
 40
3.0
 50
170.303972
 51
270.0
  0
ARC
  8
LC-001-002-----0
  6
CONTINUOUS
 62
     1
  5
30F
 10
1011.497992
 20
7426.871031
 30
0.0
 40
3.0
 50
270.0
 51
350.303972
  0
ARC
  8
LC-001-002-----0
  6
CONTINUOUS
 62
     1
  5
310
 10
1024.759813
 20
7426.871031
 30
0.0
 40
3.0
 50
166.59198
 51
270.0
  0
ARC
  8
LC-007-002-RND-0
  6
CONTINUOUS
  5
311
 10
1024.759813
 20
7426.871031
 30
0.0
 40
3.0
 50
270.0
 51
346.59198
  0
ARC
  8
LC-007-002-RND-0
  6
CONTINUOUS
  5
312
 10
1038.36326
 20
7426.871031
 30
0.0
 40
3.0
 50
158.155243
 51
270.0
  0
ARC
  8
LC-001-002-----0
  6
CONTINUOUS
 62
     1
  5
313
 10
1038.36326
 20
7426.871031
 30
0.0
 40
3.0
 50
270.0
 51
338.155243
  0
ARC
  8
LC-001-002-----0
  6
CONTINUOUS
 62
     1
  5
314
 10
1050.319462
 20
7438.827233
 30
0.0
 40
3.0
 50
291.844757
 51
0.0
  0
ARC
  8
LC-007-002-RND-0
  6
CONTINUOUS
  5
315
 10
1050.319462
 20
7438.827233
 30
0.0
 40
3.0
 50
0.0
 51
111.844757
  0
ARC
  8
LC-001-002-----0
  6
CONTINUOUS
 62
     1
  5
316
 10
1050.319462
 20
7452.43068
 30
0.0
 40
3.0
 50
283.40802
 51
0.0
  0
ARC
  8
LC-001-002-----0
  6
CONTINUOUS
 62
     1
  5
317
 10
1050.319462
 20
7452.43068
 30
0.0
 40
3.0
 50
0.0
 51
103.40802
  0
ARC
  8
LC-001-002-----0
  6
CONTINUOUS
 62
     1
  5
318
 10
1050.319462
 20
7465.692501
 30
0.0
 40
3.0
 50
279.696028
 51
0.0
  0
ARC
  8
LC-007-002-RND-0
  6
CONTINUOUS
  5
319
 10
1050.319462
 20
7465.692501
 30
0.0
 40
3.0
 50
0.0
 51
99.696028
  0
ARC
  8
LC-001-002-----0
  6
CONTINUOUS
 62
     1
  5
31A
 10
1066.319462
 20
7465.692501
 30
0.0
 40
3.0
 50
180.0
 51
260.303972
  0
ARC
  8
LC-001-002-----0
  6
CONTINUOUS
 62
     1
  5
31B
 10
1066.319462
 20
7465.692501
 30
0.0
 40
3.0
 50
80.303972
 51
180.0
  0
ARC
  8
LC-001-002-----0
  6
CONTINUOUS
 62
     1
  5
31C
 10
1066.319462
 20
7452.43068
 30
0.0
 40
3.0
 50
76.59198
 51
180.0
  0
ARC
  8
LC-001-002-----0
  6
CONTINUOUS
 62
     1
  5
31D
 10
1066.319462
 20
7452.43068
 30
0.0
 40
3.0
 50
180.0
 51
256.59198
  0
ARC
  8
LC-007-002-RND-0
  6
CONTINUOUS
  5
31E
 10
1066.319462
 20
7438.827233
 30
0.0
 40
3.0
 50
68.155243
 51
180.0
  0
ARC
  8
LC-007-002-RND-0
  6
CONTINUOUS
  5
31F
 10
1066.319462
 20
7438.827233
 30
0.0
 40
3.0
 50
180.0
 51
248.155243
  0
ARC
  8
LC-007-002-RND-0
  6
CONTINUOUS
  5
320
 10
1105.140931
 20
7426.871031
 30
0.0
 40
3.0
 50
270.0
 51
9.696028
  0
ARC
  8
LC-007-002-RND-0
  6
CONTINUOUS
  5
321
 10
1105.140931
 20
7426.871031
 30
0.0
 40
3.0
 50
189.696028
 51
270.0
  0
ARC
  8
LC-007-002-RND-0
  6
CONTINUOUS
  5
322
 10
1091.87911
 20
7426.871031
 30
0.0
 40
3.0
 50
270.0
 51
13.40802
  0
ARC
  8
LC-001-002-----0
  6
CONTINUOUS
 62
     1
  5
323
 10
1091.87911
 20
7426.871031
 30
0.0
 40
3.0
 50
193.40802
 51
270.0
  0
ARC
  8
LC-007-002-RND-0
  6
CONTINUOUS
  5
324
 10
1078.275664
 20
7426.871031
 30
0.0
 40
3.0
 50
270.0
 51
21.844757
  0
ARC
  8
LC-007-002-RND-0
  6
CONTINUOUS
  5
325
 10
1078.275664
 20
7426.871031
 30
0.0
 40
3.0
 50
201.844757
 51
270.0
  0
LINE
  8
LC-001-002-----0
  6
CONTINUOUS
 62
     1
  5
326
 10
886.469462
 20
7476.71517
 30
0.0
 11
890.569462
 21
7476.71517
 31
0.0
  0
LINE
  8
LC-001-002-----0
  6
CONTINUOUS
 62
     1
  5
327
 10
854.819462
 20
7472.51517
 30
0.0
 11
854.819462
 21
7474.46517
 31
0.0
  0
ARC
  8
LC-007-002-RND-0
  6
CONTINUOUS
  5
328
 10
864.569462
 20
7474.46517
 30
0.0
 40
2.25
 50
90.0
 51
180.0
  0
ARC
  8
LC-007-002-RND-0
  6
CONTINUOUS
  5
329
 10
867.069462
 20
7474.46517
 30
0.0
 40
2.25
 50
0.0
 51
90.0
  0
ARC
  8
LC-007-002-RND-0
  6
CONTINUOUS
  5
32A
 10
877.569462
 20
7474.46517
 30
0.0
 40
2.25
 50
90.0
 51
180.0
  0
ARC
  8
LC-007-002-RND-0
  6
CONTINUOUS
  5
32B
 10
880.069462
 20
7474.46517
 30
0.0
 40
2.25
 50
0.0
 51
90.0
  0
ARC
  8
LC-007-002-RND-0
  6
CONTINUOUS
  5
32C
 10
890.569462
 20
7474.46517
 30
0.0
 40
2.25
 50
90.0
 51
180.0
  0
ARC
  8
LC-007-002-RND-0
  6
CONTINUOUS
  5
32D
 10
854.069462
 20
7474.46517
 30
0.0
 40
2.25
 50
0.0
 51
90.0
  0
ARC
  8
LC-007-002-RND-0
  6
CONTINUOUS
  5
32E
 10
854.069462
 20
7474.46517
 30
0.0
 40
0.75
 50
0.0
 51
90.0
  0
LINE
  8
LC-001-002-----0
  6
CONTINUOUS
 62
     1
  5
32F
 10
864.569462
 20
7475.21517
 30
0.0
 11
867.069462
 21
7475.21517
 31
0.0
  0
LINE
  8
LC-001-002-----0
  6
CONTINUOUS
 62
     1
  5
330
 10
877.569462
 20
7475.21517
 30
0.0
 11
880.069462
 21
7475.21517
 31
0.0
  0
LINE
  8
LC-001-002-----0
  6
CONTINUOUS
 62
     1
  5
331
 10
862.319462
 20
7472.51517
 30
0.0
 11
862.319462
 21
7474.46517
 31
0.0
  0
LINE
  8
LC-001-002-----0
  6
CONTINUOUS
 62
     1
  5
332
 10
863.819462
 20
7472.51517
 30
0.0
 11
863.819462
 21
7474.46517
 31
0.0
  0
LINE
  8
LC-001-002-----0
  6
CONTINUOUS
 62
     1
  5
333
 10
893.819462
 20
7472.51517
 30
0.0
 11
894.619462
 21
7471.71517
 31
0.0
  0
LINE
  8
LC-001-002-----0
  6
CONTINUOUS
 62
     1
  5
334
 10
890.569462
 20
7475.21517
 30
0.0
 11
893.069462
 21
7475.21517
 31
0.0
  0
LINE
  8
LC-001-002-----0
  6
CONTINUOUS
 62
     1
  5
335
 10
867.819462
 20
7472.51517
 30
0.0
 11
867.819462
 21
7474.46517
 31
0.0
  0
LINE
  8
LC-001-002-----0
  6
CONTINUOUS
 62
     1
  5
336
 10
869.319462
 20
7472.51517
 30
0.0
 11
869.319462
 21
7474.46517
 31
0.0
  0
LINE
  8
LC-001-002-----0
  6
CONTINUOUS
 62
     1
  5
337
 10
875.319462
 20
7472.51517
 30
0.0
 11
875.319462
 21
7474.46517
 31
0.0
  0
LINE
  8
LC-001-002-----0
  6
CONTINUOUS
 62
     1
  5
338
 10
876.819462
 20
7472.51517
 30
0.0
 11
876.819462
 21
7474.46517
 31
0.0
  0
LINE
  8
LC-001-002-----0
  6
CONTINUOUS
 62
     1
  5
339
 10
880.819462
 20
7472.51517
 30
0.0
 11
880.819462
 21
7474.46517
 31
0.0
  0
LINE
  8
LC-001-002-----0
  6
CONTINUOUS
 62
     1
  5
33A
 10
882.319462
 20
7472.51517
 30
0.0
 11
882.319462
 21
7474.46517
 31
0.0
  0
LINE
  8
LC-001-002-----0
  6
CONTINUOUS
 62
     1
  5
33B
 10
888.319462
 20
7472.51517
 30
0.0
 11
888.319462
 21
7474.46517
 31
0.0
  0
LINE
  8
LC-001-002-----0
  6
CONTINUOUS
 62
     1
  5
33C
 10
889.819462
 20
7472.51517
 30
0.0
 11
889.819462
 21
7474.46517
 31
0.0
  0
LINE
  8
LC-001-002-----0
  6
CONTINUOUS
 62
     1
  5
33D
 10
893.819462
 20
7472.51517
 30
0.0
 11
893.819462
 21
7474.46517
 31
0.0
  0
LINE
  8
LC-001-002-----0
  6
CONTINUOUS
 62
     1
  5
33E
 10
875.319462
 20
7472.51517
 30
0.0
 11
880.819462
 21
7472.51517
 31
0.0
  0
LINE
  8
LC-001-002-----0
  6
CONTINUOUS
 62
     1
  5
33F
 10
880.819462
 20
7472.51517
 30
0.0
 11
882.319462
 21
7472.51517
 31
0.0
  0
LINE
  8
LC-001-002-----0
  6
CONTINUOUS
 62
     1
  5
340
 10
882.319462
 20
7472.51517
 30
0.0
 11
889.819462
 21
7472.51517
 31
0.0
  0
LINE
  8
LC-001-002-----0
  6
CONTINUOUS
 62
     1
  5
341
 10
877.569462
 20
7476.71517
 30
0.0
 11
880.069462
 21
7476.71517
 31
0.0
  0
LINE
  8
LC-001-002-----0
  6
CONTINUOUS
 62
     1
  5
342
 10
880.069462
 20
7476.71517
 30
0.0
 11
886.469462
 21
7476.71517
 31
0.0
  0
LINE
  8
LC-001-002-----0
  6
CONTINUOUS
 62
     1
  5
343
 10
890.569462
 20
7476.71517
 30
0.0
 11
893.069462
 21
7476.71517
 31
0.0
  0
LINE
  8
LC-001-002-----0
  6
CONTINUOUS
 62
     1
  5
344
 10
894.619462
 20
7471.71517
 30
0.0
 11
895.319462
 21
7471.71517
 31
0.0
  0
CIRCLE
  8
LC-001-002-----0
  6
CONTINUOUS
 62
     1
  5
345
 10
785.119462
 20
7467.61517
 30
0.0
 40
1.0
  0
CIRCLE
  8
LC-001-002-----0
  6
CONTINUOUS
 62
     1
  5
346
 10
890.519462
 20
7467.61517
 30
0.0
 40
1.0
  0
LINE
  8
LC-001-002-----0
  6
CONTINUOUS
 62
     1
  5
347
 10
837.819462
 20
7471.71517
 30
0.0
 11
894.619462
 21
7471.71517
 31
0.0
  0
LINE
  8
LC-001-002-----0
  6
CONTINUOUS
 62
     1
  5
348
 10
837.819462
 20
7476.71517
 30
0.0
 11
798.069462
 21
7476.71517
 31
0.0
  0
LINE
  8
LC-001-002-----0
  6
CONTINUOUS
 62
     1
  5
349
 10
780.319462
 20
7474.46517
 30
0.0
 11
780.319462
 21
7471.71517
 31
0.0
  0
LINE
  8
LC-001-002-----0
  6
CONTINUOUS
 62
     1
  5
34A
 10
837.819462
 20
7475.21517
 30
0.0
 11
821.569462
 21
7475.21517
 31
0.0
  0
LINE
  8
LC-001-002-----0
  6
CONTINUOUS
 62
     1
  5
34B
 10
780.319462
 20
7474.46517
 30
0.0
 11
780.319462
 21
7471.71517
 31
0.0
  0
ARC
  8
LC-007-002-RND-0
  6
CONTINUOUS
  5
34C
 10
782.569462
 20
7474.46517
 30
0.0
 40
2.25
 50
90.0
 51
180.0
  0
ARC
  8
LC-007-002-RND-0
  6
CONTINUOUS
  5
34D
 10
811.069462
 20
7474.46517
 30
0.0
 40
0.75
 50
0.0
 51
90.0
  0
ARC
  8
LC-007-002-RND-0
  6
CONTINUOUS
  5
34E
 10
808.569462
 20
7474.46517
 30
0.0
 40
0.75
 50
90.0
 51
180.0
  0
ARC
  8
LC-007-002-RND-0
  6
CONTINUOUS
  5
34F
 10
798.069462
 20
7474.46517
 30
0.0
 40
0.75
 50
0.0
 51
90.0
  0
ARC
  8
LC-007-002-RND-0
  6
CONTINUOUS
  5
350
 10
795.569462
 20
7474.46517
 30
0.0
 40
0.75
 50
90.0
 51
180.0
  0
ARC
  8
LC-007-002-RND-0
  6
CONTINUOUS
  5
351
 10
785.069462
 20
7474.46517
 30
0.0
 40
0.75
 50
0.0
 51
90.0
  0
ARC
  8
LC-007-002-RND-0
  6
CONTINUOUS
  5
352
 10
782.569462
 20
7474.46517
 30
0.0
 40
0.75
 50
90.0
 51
180.0
  0
LINE
  8
LC-001-002-----0
  6
CONTINUOUS
 62
     1
  5
353
 10
819.319462
 20
7472.51517
 30
0.0
 11
819.319462
 21
7474.46517
 31
0.0
  0
LINE
  8
LC-001-002-----0
  6
CONTINUOUS
 62
     1
  5
354
 10
820.819462
 20
7472.51517
 30
0.0
 11
800.319462
 21
7472.51517
 31
0.0
  0
LINE
  8
LC-001-002-----0
  6
CONTINUOUS
 62
     1
  5
355
 10
789.169462
 20
7476.71517
 30
0.0
 11
785.069462
 21
7476.71517
 31
0.0
  0
LINE
  8
LC-001-002-----0
  6
CONTINUOUS
 62
     1
  5
356
 10
820.819462
 20
7472.51517
 30
0.0
 11
820.819462
 21
7474.46517
 31
0.0
  0
ARC
  8
LC-007-002-RND-0
  6
CONTINUOUS
  5
357
 10
811.069462
 20
7474.46517
 30
0.0
 40
2.25
 50
0.0
 51
90.0
  0
ARC
  8
LC-007-002-RND-0
  6
CONTINUOUS
  5
358
 10
808.569462
 20
7474.46517
 30
0.0
 40
2.25
 50
90.0
 51
180.0
  0
ARC
  8
LC-007-002-RND-0
  6
CONTINUOUS
  5
359
 10
798.069462
 20
7474.46517
 30
0.0
 40
2.25
 50
0.0
 51
90.0
  0
ARC
  8
LC-007-002-RND-0
  6
CONTINUOUS
  5
35A
 10
795.569462
 20
7474.46517
 30
0.0
 40
2.25
 50
90.0
 51
180.0
  0
ARC
  8
LC-007-002-RND-0
  6
CONTINUOUS
  5
35B
 10
785.069462
 20
7474.46517
 30
0.0
 40
2.25
 50
0.0
 51
90.0
  0
ARC
  8
LC-007-002-RND-0
  6
CONTINUOUS
  5
35C
 10
821.569462
 20
7474.46517
 30
0.0
 40
2.25
 50
90.0
 51
180.0
  0
ARC
  8
LC-007-002-RND-0
  6
CONTINUOUS
  5
35D
 10
821.569462
 20
7474.46517
 30
0.0
 40
0.75
 50
90.0
 51
180.0
  0
LINE
  8
LC-001-002-----0
  6
CONTINUOUS
 62
     1
  5
35E
 10
811.069462
 20
7475.21517
 30
0.0
 11
808.569462
 21
7475.21517
 31
0.0
  0
LINE
  8
LC-001-002-----0
  6
CONTINUOUS
 62
     1
  5
35F
 10
798.069462
 20
7475.21517
 30
0.0
 11
795.569462
 21
7475.21517
 31
0.0
  0
LINE
  8
LC-001-002-----0
  6
CONTINUOUS
 62
     1
  5
360
 10
813.319462
 20
7472.51517
 30
0.0
 11
813.319462
 21
7474.46517
 31
0.0
  0
LINE
  8
LC-001-002-----0
  6
CONTINUOUS
 62
     1
  5
361
 10
811.819462
 20
7472.51517
 30
0.0
 11
811.819462
 21
7474.46517
 31
0.0
  0
LINE
  8
LC-001-002-----0
  6
CONTINUOUS
 62
     1
  5
362
 10
781.819462
 20
7472.51517
 30
0.0
 11
781.019462
 21
7471.71517
 31
0.0
  0
LINE
  8
LC-001-002-----0
  6
CONTINUOUS
 62
     1
  5
363
 10
785.069462
 20
7475.21517
 30
0.0
 11
782.569462
 21
7475.21517
 31
0.0
  0
LINE
  8
LC-001-002-----0
  6
CONTINUOUS
 62
     1
  5
364
 10
807.819462
 20
7472.51517
 30
0.0
 11
807.819462
 21
7474.46517
 31
0.0
  0
LINE
  8
LC-001-002-----0
  6
CONTINUOUS
 62
     1
  5
365
 10
806.319462
 20
7472.51517
 30
0.0
 11
806.319462
 21
7474.46517
 31
0.0
  0
LINE
  8
LC-001-002-----0
  6
CONTINUOUS
 62
     1
  5
366
 10
800.319462
 20
7472.51517
 30
0.0
 11
800.319462
 21
7474.46517
 31
0.0
  0
LINE
  8
LC-001-002-----0
  6
CONTINUOUS
 62
     1
  5
367
 10
798.819462
 20
7472.51517
 30
0.0
 11
798.819462
 21
7474.46517
 31
0.0
  0
LINE
  8
LC-001-002-----0
  6
CONTINUOUS
 62
     1
  5
368
 10
794.819462
 20
7472.51517
 30
0.0
 11
794.819462
 21
7474.46517
 31
0.0
  0
LINE
  8
LC-001-002-----0
  6
CONTINUOUS
 62
     1
  5
369
 10
793.319462
 20
7472.51517
 30
0.0
 11
793.319462
 21
7474.46517
 31
0.0
  0
LINE
  8
LC-001-002-----0
  6
CONTINUOUS
 62
     1
  5
36A
 10
787.319462
 20
7472.51517
 30
0.0
 11
787.319462
 21
7474.46517
 31
0.0
  0
LINE
  8
LC-001-002-----0
  6
CONTINUOUS
 62
     1
  5
36B
 10
785.819462
 20
7472.51517
 30
0.0
 11
785.819462
 21
7474.46517
 31
0.0
  0
LINE
  8
LC-001-002-----0
  6
CONTINUOUS
 62
     1
  5
36C
 10
781.819462
 20
7472.51517
 30
0.0
 11
781.819462
 21
7474.46517
 31
0.0
  0
LINE
  8
LC-001-002-----0
  6
CONTINUOUS
 62
     1
  5
36D
 10
800.319462
 20
7472.51517
 30
0.0
 11
794.819462
 21
7472.51517
 31
0.0
  0
LINE
  8
LC-001-002-----0
  6
CONTINUOUS
 62
     1
  5
36E
 10
794.819462
 20
7472.51517
 30
0.0
 11
793.319462
 21
7472.51517
 31
0.0
  0
LINE
  8
LC-001-002-----0
  6
CONTINUOUS
 62
     1
  5
36F
 10
793.319462
 20
7472.51517
 30
0.0
 11
785.819462
 21
7472.51517
 31
0.0
  0
LINE
  8
LC-001-002-----0
  6
CONTINUOUS
 62
     1
  5
370
 10
798.069462
 20
7476.71517
 30
0.0
 11
795.569462
 21
7476.71517
 31
0.0
  0
LINE
  8
LC-001-002-----0
  6
CONTINUOUS
 62
     1
  5
371
 10
795.569462
 20
7476.71517
 30
0.0
 11
789.169462
 21
7476.71517
 31
0.0
  0
LINE
  8
LC-001-002-----0
  6
CONTINUOUS
 62
     1
  5
372
 10
785.069462
 20
7476.71517
 30
0.0
 11
782.569462
 21
7476.71517
 31
0.0
  0
LINE
  8
LC-001-002-----0
  6
CONTINUOUS
 62
     1
  5
373
 10
781.019462
 20
7471.71517
 30
0.0
 11
780.319462
 21
7471.71517
 31
0.0
  0
LINE
  8
LC-001-002-----0
  6
CONTINUOUS
 62
     1
  5
374
 10
837.819462
 20
7471.71517
 30
0.0
 11
781.019462
 21
7471.71517
 31
0.0
  0
LINE
  8
LC-001-002-----0
  6
CONTINUOUS
 62
     1
  5
375
 10
1001.319462
 20
7360.871031
 30
0.0
 11
1115.319462
 21
7360.871031
 31
0.0
  0
LINE
  8
LC-001-002-----0
  6
CONTINUOUS
 62
     1
  5
376
 10
1000.319462
 20
7361.871031
 30
0.0
 11
1000.319462
 21
7475.871031
 31
0.0
  0
ARC
  8
LC-007-002-RND-0
  6
CONTINUOUS
  5
377
 10
1115.319462
 20
7475.871031
 30
0.0
 40
1.0
 50
0.0
 51
90.0
  0
ARC
  8
LC-007-002-RND-0
  6
CONTINUOUS
  5
378
 10
1001.319462
 20
7475.871031
 30
0.0
 40
1.0
 50
90.0
 51
180.0
  0
ARC
  8
LC-007-002-RND-0
  6
CONTINUOUS
  5
379
 10
1001.319462
 20
7361.871031
 30
0.0
 40
1.0
 50
180.0
 51
270.0
  0
ARC
  8
LC-007-002-RND-0
  6
CONTINUOUS
  5
37A
 10
1115.319462
 20
7361.871031
 30
0.0
 40
1.0
 50
270.0
 51
0.0
  0
LINE
  8
LC-001-002-----0
  6
CONTINUOUS
 62
     1
  5
37B
 10
1001.319462
 20
7476.871031
 30
0.0
 11
1115.319462
 21
7476.871031
 31
0.0
  0
LINE
  8
LC-001-002-----0
  6
CONTINUOUS
 62
     1
  5
37C
 10
1116.319462
 20
7361.871031
 30
0.0
 11
1116.319462
 21
7475.871031
 31
0.0
  0
LINE
  8
LC-002-003-----0
  6
CONTINUOUS
  5
37D
 10
1117.719462
 20
7476.271031
 30
0.0
 11
1117.719462
 21
7361.471031
 31
0.0
  0
ARC
  8
LC-002-003-----0
  6
CONTINUOUS
  5
37E
 10
1115.719462
 20
7476.271031
 30
0.0
 40
2.0
 50
0.0
 51
90.0
  0
LINE
  8
LC-002-003-----0
  6
CONTINUOUS
  5
37F
 10
1115.719462
 20
7359.471031
 30
0.0
 11
1000.919462
 21
7359.471031
 31
0.0
  0
ARC
  8
LC-002-003-----0
  6
CONTINUOUS
  5
380
 10
1115.719462
 20
7361.471031
 30
0.0
 40
2.0
 50
270.0
 51
0.0
  0
LINE
  8
LC-002-003-----0
  6
CONTINUOUS
  5
381
 10
998.919462
 20
7361.471031
 30
0.0
 11
998.919462
 21
7476.271031
 31
0.0
  0
ARC
  8
LC-002-003-----0
  6
CONTINUOUS
  5
382
 10
1000.919462
 20
7361.471031
 30
0.0
 40
2.0
 50
180.0
 51
270.0
  0
LINE
  8
LC-002-003-----0
  6
CONTINUOUS
  5
383
 10
1000.919462
 20
7478.271031
 30
0.0
 11
1115.719462
 21
7478.271031
 31
0.0
  0
ARC
  8
LC-002-003-----0
  6
CONTINUOUS
  5
384
 10
1000.919462
 20
7476.271031
 30
0.0
 40
2.0
 50
90.0
 51
180.0
  0
LINE
  8
LC-001-002-----0
  6
CONTINUOUS
 62
     1
  5
385
 10
997.819462
 20
7361.871031
 30
0.0
 11
997.819462
 21
7475.871031
 31
0.0
  0
LINE
  8
LC-001-002-----0
  6
CONTINUOUS
 62
     1
  5
386
 10
1115.319462
 20
7358.371031
 30
0.0
 11
1001.319462
 21
7358.371031
 31
0.0
  0
LINE
  8
LC-001-002-----0
  6
CONTINUOUS
 62
     1
  5
387
 10
1118.819462
 20
7475.871031
 30
0.0
 11
1118.819462
 21
7361.871031
 31
0.0
  0
LINE
  8
LC-001-002-----0
  6
CONTINUOUS
 62
     1
  5
388
 10
1001.319462
 20
7479.371031
 30
0.0
 11
1115.319462
 21
7479.371031
 31
0.0
  0
ARC
  8
LC-001-002-----0
  6
CONTINUOUS
 62
     1
  5
389
 10
1115.319462
 20
7361.871031
 30
0.0
 40
3.5
 50
270.0
 51
0.0
  0
ARC
  8
LC-007-002-RND-0
  6
CONTINUOUS
  5
38A
 10
1115.319462
 20
7475.871031
 30
0.0
 40
3.5
 50
0.0
 51
90.0
  0
ARC
  8
LC-007-002-RND-0
  6
CONTINUOUS
  5
38B
 10
1001.319462
 20
7475.871031
 30
0.0
 40
3.5
 50
90.0
 51
180.0
  0
ARC
  8
LC-007-002-RND-0
  6
CONTINUOUS
  5
38C
 10
1001.319462
 20
7361.871031
 30
0.0
 40
3.5
 50
180.0
 51
270.0
  0
LINE
  8
LC-001-002-----0
  5
38D
 10
997.819462
 20
7418.871031
 30
0.0
 11
1118.819462
 21
7418.871031
 31
0.0
  0
ARC
  8
LC-001-002-----0
  6
CONTINUOUS
 62
     1
  5
38E
 10
1058.319462
 20
7418.871031
 30
0.0
 40
57.5
 50
0.0
 51
180.0
  0
CIRCLE
  8
LC-001-002-----0
  6
CONTINUOUS
 62
     1
  5
38F
 10
1010.319462
 20
7462.771031
 30
0.0
 40
4.5
  0
LINE
  8
LC-001-002-----0
  6
CONTINUOUS
 62
     1
  5
390
 10
1007.819461
 20
7462.271033
 30
0.0
 11
1007.819462
 21
7463.271033
 31
0.0
  0
LINE
  8
LC-001-002-----0
  6
CONTINUOUS
 62
     1
  5
391
 10
1007.819462
 20
7463.271033
 30
0.0
 11
1009.819462
 21
7463.271032
 31
0.0
  0
LINE
  8
LC-001-002-----0
  6
CONTINUOUS
 62
     1
  5
392
 10
1012.819462
 20
7463.27103
 30
0.0
 11
1012.819461
 21
7462.27103
 31
0.0
  0
LINE
  8
LC-001-002-----0
  6
CONTINUOUS
 62
     1
  5
393
 10
1012.819461
 20
7462.27103
 30
0.0
 11
1010.819461
 21
7462.271031
 31
0.0
  0
LINE
  8
LC-001-002-----0
  6
CONTINUOUS
 62
     1
  5
394
 10
1009.81946
 20
7460.271032
 30
0.0
 11
1010.81946
 21
7460.271031
 31
0.0
  0
LINE
  8
LC-001-002-----0
  6
CONTINUOUS
 62
     1
  5
395
 10
1010.81946
 20
7460.271031
 30
0.0
 11
1010.819461
 21
7462.271031
 31
0.0
  0
LINE
  8
LC-001-002-----0
  6
CONTINUOUS
 62
     1
  5
396
 10
1010.819463
 20
7465.271031
 30
0.0
 11
1009.819463
 21
7465.271032
 31
0.0
  0
LINE
  8
LC-001-002-----0
  6
CONTINUOUS
 62
     1
  5
397
 10
1009.819463
 20
7465.271032
 30
0.0
 11
1009.819462
 21
7463.271032
 31
0.0
  0
LINE
  8
LC-001-002-----0
  6
CONTINUOUS
 62
     1
  5
398
 10
1009.819461
 20
7462.271032
 30
0.0
 11
1009.81946
 21
7460.271032
 31
0.0
  0
LINE
  8
LC-001-002-----0
  6
CONTINUOUS
 62
     1
  5
399
 10
1009.819461
 20
7462.271032
 30
0.0
 11
1007.819461
 21
7462.271033
 31
0.0
  0
LINE
  8
LC-001-002-----0
  6
CONTINUOUS
 62
     1
  5
39A
 10
1010.819462
 20
7463.271031
 30
0.0
 11
1012.819462
 21
7463.27103
 31
0.0
  0
LINE
  8
LC-001-002-----0
  6
CONTINUOUS
 62
     1
  5
39B
 10
1010.819462
 20
7463.271031
 30
0.0
 11
1010.819463
 21
7465.271031
 31
0.0
  0
ARC
  8
LC-007-002-RND-0
  6
CONTINUOUS
  5
39C
 10
1011.027132
 20
7460.921031
 30
0.0
 40
5.0
 50
270.0
 51
342.041182
  0
ARC
  8
LC-007-002-RND-0
  6
CONTINUOUS
  5
39D
 10
1011.027132
 20
7464.621031
 30
0.0
 40
5.0
 50
17.958818
 51
90.0
  0
LINE
  8
LC-001-002-----0
  6
CONTINUOUS
 62
     1
  5
39E
 10
1000.319462
 20
7455.921031
 30
0.0
 11
1011.027132
 21
7455.921031
 31
0.0
  0
LINE
  8
LC-001-002-----0
  6
CONTINUOUS
 62
     1
  5
39F
 10
1005.319462
 20
7455.921031
 30
0.0
 11
1005.319462
 21
7469.621031
 31
0.0
  0
LINE
  8
LC-001-002-----0
  6
CONTINUOUS
 62
     1
  5
3A0
 10
1000.319462
 20
7469.621031
 30
0.0
 11
1011.027132
 21
7469.621031
 31
0.0
  0
ARC
  8
LC-001-002-----0
  6
CONTINUOUS
 62
     1
  5
3A1
 10
1005.319462
 20
7462.771031
 30
0.0
 40
11.0
 50
342.041182
 51
17.958818
  0
LINE
  8
LC-001-002-----0
  6
CONTINUOUS
  5
3A2
 10
804.796316
 20
7513.091
 30
0.0
 11
819.796316
 21
7513.091
 31
0.0
  0
LINE
  8
LC-001-002-----0
  6
CONTINUOUS
  5
3A3
 10
819.796316
 20
7513.091
 30
0.0
 11
819.796316
 21
7528.091
 31
0.0
  0
LINE
  8
LC-001-002-----0
  6
CONTINUOUS
  5
3A4
 10
804.796316
 20
7528.091
 30
0.0
 11
819.796316
 21
7528.091
 31
0.0
  0
LINE
  8
LC-001-002-----0
  6
CONTINUOUS
  5
3A5
 10
804.796316
 20
7513.091
 30
0.0
 11
804.796316
 21
7528.091
 31
0.0
  0
ENDSEC
  0
EOF
