  0
SECTION
  2
HEADER
  9
$ACADVER
  1
AC1009
  9
$INSBASE
 10
0.0
 20
0.0
 30
0.0
  9
$EXTMIN
 10
0.0
 20
0.0
 30
0.0
  9
$EXTMAX
 10
840.0
 20
594.0
 30
0.0
  9
$LIMMIN
 10
0.0
 20
0.0
  9
$LIMMAX
 10
840.0
 20
594.0
  9
$ORTHOMODE
 70
     0
  9
$REGENMODE
 70
     1
  9
$FILLMODE
 70
     1
  9
$QTEXTMODE
 70
     0
  9
$MIRRTEXT
 70
     1
  9
$DRAGMODE
 70
     2
  9
$LTSCALE
 40
2.0
  9
$OSMODE
 70
     0
  9
$ATTMODE
 70
     1
  9
$TEXTSIZE
 40
0.2
  9
$TRACEWID
 40
0.05
  9
$TEXTSTYLE
  7
STANDARD
  9
$CLAYER
  8
0
  9
$CELTYPE
  6
BYLAYER
  9
$CECOLOR
 62
     7
  9
$DIMSCALE
 40
2.0
  9
$DIMASZ
 40
3.5
  9
$DIMEXO
 40
0.0625
  9
$DIMDLI
 40
0.38
  9
$DIMRND
 40
0.0
  9
$DIMDLE
 40
0.0
  9
$DIMEXE
 40
0.18
  9
$DIMTP
 40
0.0
  9
$DIMTM
 40
0.0
  9
$DIMTXT
 40
3.5
  9
$DIMCEN
 40
0.09
  9
$DIMTSZ
 40
0.0
  9
$DIMTOL
 70
     0
  9
$DIMLIM
 70
     0
  9
$DIMTIH
 70
     1
  9
$DIMTOH
 70
     1
  9
$DIMSE1
 70
     0
  9
$DIMSE2
 70
     0
  9
$DIMTAD
 70
     1
  9
$DIMZIN
 70
     0
  9
$DIMBLK
  1

  9
$DIMASO
 70
     1
  9
$DIMSHO
 70
     1
  9
$DIMPOST
  1

  9
$DIMAPOST
  1

  9
$DIMALT
 70
     0
  9
$DIMALTD
 70
     2
  9
$DIMALTF
 40
25.4
  9
$DIMLFAC
 40
1.0
  9
$DIMTOFL
 70
     0
  9
$DIMTVP
 40
0.0
  9
$DIMTIX
 70
     0
  9
$DIMSOXD
 70
     0
  9
$DIMSAH
 70
     0
  9
$DIMBLK1
  1

  9
$DIMBLK2
  1

  9
$DIMSTYLE
  2
STANDARD
  9
$DIMCLRD
 70
     0
  9
$DIMCLRE
 70
     0
  9
$DIMCLRT
 70
     0
  9
$DIMTFAC
 40
1.0
  9
$DIMGAP
 40
0.09
  9
$LUNITS
 70
     2
  9
$LUPREC
 70
     2
  9
$AXISMODE
 70
     0
  9
$AXISUNIT
 10
0.0
 20
0.0
  9
$SKETCHINC
 40
0.1
  9
$FILLETRAD
 40
0.0
  9
$AUNITS
 70
     0
  9
$AUPREC
 70
     0
  9
$MENU
  1
acad
  9
$ELEVATION
 40
0.0
  9
$PELEVATION
 40
0.0
  9
$THICKNESS
 40
0.0
  9
$LIMCHECK
 70
     0
  9
$BLIPMODE
 70
     1
  9
$CHAMFERA
 40
0.0
  9
$CHAMFERB
 40
0.0
  9
$SKPOLY
 70
     0
  9
$TDCREATE
 40
0.000000000
  9
$TDUPDATE
 40
0.000000000
  9
$TDINDWG
 40
0.0000000000
  9
$TDUSRTIMER
 40
0.0000000000
  9
$USRTIMER
 70
     1
  9
$ANGBASE
 50
0.0
  9
$ANGDIR
 70
     0
  9
$PDMODE
 70
     0
  9
$PDSIZE
 40
0.0
  9
$PLINEWID
 40
0.0
  9
$COORDS
 70
     0
  9
$SPLFRAME
 70
     0
  9
$SPLINETYPE
 70
     6
  9
$SPLINESEGS
 70
     8
  9
$ATTDIA
 70
     0
  9
$ATTREQ
 70
     1
  9
$HANDLING
 70
     1
  9
$HANDSEED
  5
110
  9
$SURFTAB1
 70
     6
  9
$SURFTAB2
 70
     6
  9
$SURFTYPE
 70
     6
  9
$SURFU
 70
     6
  9
$SURFV
 70
     6
  9
$UCSNAME
  2

  9
$UCSORG
 10
0.0
 20
0.0
 30
0.0
  9
$UCSXDIR
 10
1.0
 20
0.0
 30
0.0
  9
$UCSYDIR
 10
0.0
 20
1.0
 30
0.0
  9
$PUCSNAME
  2

  9
$PUCSORG
 10
0.0
 20
0.0
 30
0.0
  9
$PUCSXDIR
 10
1.0
 20
0.0
 30
0.0
  9
$PUCSYDIR
 10
0.0
 20
1.0
 30
0.0
  9
$USERI1
 70
     0
  9
$USERI2
 70
     0
  9
$USERI3
 70
     0
  9
$USERI4
 70
     0
  9
$USERI5
 70
     0
  9
$USERR1
 40
0.0
  9
$USERR2
 40
0.0
  9
$USERR3
 40
0.0
  9
$USERR4
 40
0.0
  9
$USERR5
 40
0.0
  9
$WORLDVIEW
 70
     1
  9
$SHADEDGE
 70
     3
  9
$SHADEDIF
 70
    70
  9
$TILEMODE
 70
     1
  9
$MAXACTVP
 70
    16
  9
$PINSBASE
 10
0.0
 20
0.0
 30
0.0
  9
$PLIMCHECK
 70
     0
  9
$PEXTMIN
 10
1.000000E+20
 20
1.000000E+20
 30
1.000000E+20
  9
$PEXTMAX
 10
-1.000000E+20
 20
-1.000000E+20
 30
-1.000000E+20
  9
$PLIMMIN
 10
0.0
 20
0.0
  9
$PLIMMAX
 10
840.0
 20
594.0
  9
$UNITMODE
 70
     0
  9
$VISRETAIN
 70
     0
  9
$PLINEGEN
 70
     1
  9
$PSLTSCALE
 70
     0
  9
$TREEDEPTH
 70
  3020
  9
$DWGCODEPAGE
  3
dos850
  0
ENDSEC
  0
SECTION
  2
TABLES
  0
TABLE
  2
VPORT
 70
     1
  0
VPORT
  2
*ACTIVE
 70
     0
 10
0.0
 20
0.0
 11
1.0
 21
1.0
 12
420.0
 22
297.0
 13
0.0
 23
0.0
 14
1.0
 24
1.0
 15
0.0
 25
0.0
 16
0.0
 26
0.0
 36
1.0
 17
0.0
 27
0.0
 37
0.0
 40
594.0
 41
1.604229
 42
50.0
 43
0.0
 44
0.0
 50
0.0
 51
0.0
 71
     0
 72
   100
 73
     1
 74
     1
 75
     0
 76
     0
 77
     0
 78
     0
  0
ENDTAB
  0
TABLE
  2
LTYPE
 70
     2
  0
LTYPE
  2
CONTINUOUS
 70
    64
  3
Solid line
 72
    65
 73
     0
 40
0.0
  0
LTYPE
  2
DASHDOT
 70
    64
  3
__ . __ . __ . __ . __
 72
    65
 73
     4
 40
7.5
 49
5.0
 49
-1.25
 49
0.0
 49
-1.25
  0
ENDTAB
  0
TABLE
  2
LAYER
 70
     9
  0
LAYER
  2
0
 70
     0
 62
     7
  6
CONTINUOUS
  0
LAYER
  2
LC-INFO-1-2-MM-A3-0
 70
     1
 62
    -1
  6
CONTINUOUS
  0
LAYER
  2
LC-003-005-----0
 70
     0
 62
     2
  6
CONTINUOUS
  0
LAYER
  2
LC-005-003-MTH-0
 70
     0
 62
     2
  6
CONTINUOUS
  0
LAYER
  2
LC-004-003-----0
 70
     0
 62
     2
  6
CONTINUOUS
  0
LAYER
  2
LC-006-003-MTG-0
 70
     0
 62
     2
  6
CONTINUOUS
  0
LAYER
  2
LC-001-002-----0
 70
     0
 62
     2
  6
DASHDOT
  0
LAYER
  2
LC-002-002-RND-0
 70
     0
 62
     1
  6
CONTINUOUS
  0
LAYER
  2
LC-000
 70
     0
 62
     7
  6
CONTINUOUS
  0
ENDTAB
  0
TABLE
  2
STYLE
 70
     4
  0
STYLE
  2
STANDARD
 70
     0
 40
0.0
 41
1.0
 50
0.0
 71
     0
 42
0.0
  3
txt
  4

  0
STYLE
  2
LC-STANDARD
 70
    64
 40
0.0
 41
1.0
 50
0.0
 71
     0
 42
3.5
  3
MONOTXT
  4

  0
STYLE
  2
LC-TXTSTYLE-150-400-0-0-D2
 70
    64
 40
0.0
 41
1.0
 50
15.0
 71
     0
 42
3.5
  3
MONOTXT
  4

  0
STYLE
  2
LC-TXTSTYLE-150-400-0-0-D3
 70
    64
 40
0.0
 41
1.0
 50
15.0
 71
     0
 42
3.5
  3
LC-STANDARD
  4

  0
ENDTAB
  0
TABLE
  2
VIEW
 70
     0
  0
ENDTAB
  0
TABLE
  2
UCS
 70
     0
  0
ENDTAB
  0
TABLE
  2
APPID
 70
     1
  0
APPID
  2
ACAD
 70
     0
  0
ENDTAB
  0
TABLE
  2
DIMSTYLE
 70
     3
  0
DIMSTYLE
  2
STANDARD
 70
     0
  3

  4

  5

  6

  7

 40
1.0
 41
0.18
 42
0.0625
 43
0.38
 44
0.18
 45
0.0
 46
0.0
 47
0.0
 48
0.0
 71
     0
 72
     0
 73
     1
 74
     1
 75
     0
 76
     0
 77
     0
 78
     0
140
0.18
141
0.09
142
0.0
143
25.4
144
1.0
145
0.0
146
1.0
147
0.09
170
     0
171
     2
172
     0
173
     0
174
     0
175
     0
176
     0
177
     0
178
     0
  0
DIMSTYLE
  2
LC-STANDARD
 70
     0
  3

  4

  5

  6

  7

 40
1.0
 41
3.5
 42
0.0
 43
7.5
 44
1.8
 45
0.0
 46
0.0
 47
0.0
 48
0.0
 71
     0
 72
     0
 73
     0
 74
     0
 75
     0
 76
     0
 77
     1
 78
     8
140
3.5
141
0.0
142
0.0
143
25.4
144
1.0
145
0.0
146
0.71
147
1.5
170
     0
171
     2
172
     1
173
     0
174
     0
175
     0
176
     0
177
     0
178
     3
  0
DIMSTYLE
  2
LC-DIM-L-0090-02-02
 70
     0
  3

  4

  5

  6

  7

 40
2.0
 41
3.5
 42
0.0
 43
7.5
 44
1.8
 45
0.0
 46
0.0
 47
0.0
 48
0.0
 71
     0
 72
     0
 73
     0
 74
     0
 75
     0
 76
     0
 77
     1
 78
     8
140
9.0
141
0.0
142
0.0
143
25.4
144
1.0
145
0.0
146
0.71
147
1.5
170
     0
171
     2
172
     0
173
     0
174
     0
175
     0
176
     2
177
     2
178
     6
  0
ENDTAB
  0
ENDSEC
  0
SECTION
  2
BLOCKS
  0
BLOCK
  8
0
  5
23
  2
*X0
 70
    65
 10
360.437821
 20
365.832247
 30
0.0
  3
*X0
  0
LINE
  8
LC-003-005-----0
  6
CONTINUOUS
  5
25
 10
364.872514
 20
381.832247
 30
0.0
 11
363.372514
 21
383.332247
 31
0.0
  0
LINE
  8
LC-003-005-----0
  6
CONTINUOUS
  5
26
 10
364.437821
 20
379.438513
 30
0.0
 11
362.687821
 21
381.188513
 31
0.0
  0
LINE
  8
LC-003-005-----0
  6
CONTINUOUS
  5
27
 10
364.437821
 20
376.610085
 30
0.0
 11
362.687821
 21
378.360085
 31
0.0
  0
LINE
  8
LC-003-005-----0
  6
CONTINUOUS
  5
28
 10
364.437821
 20
373.781658
 30
0.0
 11
362.687821
 21
375.531658
 31
0.0
  0
LINE
  8
LC-003-005-----0
  6
CONTINUOUS
  5
29
 10
364.437821
 20
370.953231
 30
0.0
 11
362.687821
 21
372.703231
 31
0.0
  0
LINE
  8
LC-003-005-----0
  6
CONTINUOUS
  5
2A
 10
364.437821
 20
368.124804
 30
0.0
 11
362.687821
 21
369.874804
 31
0.0
  0
LINE
  8
LC-003-005-----0
  6
CONTINUOUS
  5
2B
 10
363.558487
 20
366.175712
 30
0.0
 11
362.151951
 21
367.582247
 31
0.0
  0
ENDBLK
  8
0
  5
2C
  0
BLOCK
  8
0
  5
2E
  2
*X1
 70
    65
 10
356.937821
 20
371.544
 30
0.0
  3
*X1
  0
LINE
  8
LC-003-005-----0
  6
CONTINUOUS
  5
2F
 10
360.937821
 20
373.039018
 30
0.0
 11
360.432839
 21
373.544
 31
0.0
  0
LINE
  8
LC-003-005-----0
  6
CONTINUOUS
  5
30
 10
360.937821
 20
371.624804
 30
0.0
 11
359.018625
 21
373.544
 31
0.0
  0
LINE
  8
LC-003-005-----0
  6
CONTINUOUS
  5
31
 10
359.604412
 20
371.544
 30
0.0
 11
357.604412
 21
373.544
 31
0.0
  0
LINE
  8
LC-003-005-----0
  6
CONTINUOUS
  5
32
 10
358.190198
 20
371.544
 30
0.0
 11
356.937821
 21
372.796377
 31
0.0
  0
ENDBLK
  8
0
  5
33
  0
BLOCK
  8
0
  5
35
  2
*X2
 70
    65
 10
318.437821
 20
266.044
 30
0.0
  3
*X2
  0
LINE
  8
LC-003-005-----0
  6
CONTINUOUS
  5
36
 10
320.860968
 20
267.120853
 30
0.0
 11
321.937821
 21
268.197706
 31
0.0
  0
LINE
  8
LC-003-005-----0
  6
CONTINUOUS
  5
37
 10
319.937821
 20
269.026133
 30
0.0
 11
321.937821
 21
271.026133
 31
0.0
  0
LINE
  8
LC-003-005-----0
  6
CONTINUOUS
  5
38
 10
319.937821
 20
271.85456
 30
0.0
 11
321.937821
 21
273.85456
 31
0.0
  0
LINE
  8
LC-003-005-----0
  6
CONTINUOUS
  5
39
 10
319.937821
 20
274.682987
 30
0.0
 11
321.937821
 21
276.682987
 31
0.0
  0
LINE
  8
LC-003-005-----0
  6
CONTINUOUS
  5
3A
 10
319.937821
 20
277.511414
 30
0.0
 11
321.937821
 21
279.511414
 31
0.0
  0
LINE
  8
LC-003-005-----0
  6
CONTINUOUS
  5
3B
 10
319.937821
 20
280.339842
 30
0.0
 11
321.937821
 21
282.339842
 31
0.0
  0
LINE
  8
LC-003-005-----0
  6
CONTINUOUS
  5
3C
 10
319.937821
 20
283.168269
 30
0.0
 11
321.937821
 21
285.168269
 31
0.0
  0
LINE
  8
LC-003-005-----0
  6
CONTINUOUS
  5
3D
 10
319.937821
 20
285.996696
 30
0.0
 11
321.937821
 21
287.996696
 31
0.0
  0
LINE
  8
LC-003-005-----0
  6
CONTINUOUS
  5
3E
 10
319.937821
 20
288.825123
 30
0.0
 11
321.937821
 21
290.825123
 31
0.0
  0
LINE
  8
LC-003-005-----0
  6
CONTINUOUS
  5
3F
 10
319.937821
 20
291.65355
 30
0.0
 11
321.937821
 21
293.65355
 31
0.0
  0
LINE
  8
LC-003-005-----0
  6
CONTINUOUS
  5
40
 10
319.937821
 20
294.481977
 30
0.0
 11
321.937821
 21
296.481977
 31
0.0
  0
LINE
  8
LC-003-005-----0
  6
CONTINUOUS
  5
41
 10
319.937821
 20
297.310404
 30
0.0
 11
321.937821
 21
299.310404
 31
0.0
  0
LINE
  8
LC-003-005-----0
  6
CONTINUOUS
  5
42
 10
319.937821
 20
300.138831
 30
0.0
 11
321.937821
 21
302.138831
 31
0.0
  0
LINE
  8
LC-003-005-----0
  6
CONTINUOUS
  5
43
 10
319.937821
 20
302.967258
 30
0.0
 11
321.937821
 21
304.967258
 31
0.0
  0
LINE
  8
LC-003-005-----0
  6
CONTINUOUS
  5
44
 10
319.937821
 20
305.795686
 30
0.0
 11
321.937821
 21
307.795686
 31
0.0
  0
LINE
  8
LC-003-005-----0
  6
CONTINUOUS
  5
45
 10
319.937821
 20
308.624113
 30
0.0
 11
321.937821
 21
310.624113
 31
0.0
  0
LINE
  8
LC-003-005-----0
  6
CONTINUOUS
  5
46
 10
319.937821
 20
311.45254
 30
0.0
 11
321.937821
 21
313.45254
 31
0.0
  0
LINE
  8
LC-003-005-----0
  6
CONTINUOUS
  5
47
 10
319.937821
 20
314.280967
 30
0.0
 11
321.937821
 21
316.280967
 31
0.0
  0
LINE
  8
LC-003-005-----0
  6
CONTINUOUS
  5
48
 10
319.937821
 20
317.109394
 30
0.0
 11
321.937821
 21
319.109394
 31
0.0
  0
LINE
  8
LC-003-005-----0
  6
CONTINUOUS
  5
49
 10
319.937821
 20
319.937821
 30
0.0
 11
321.937821
 21
321.937821
 31
0.0
  0
LINE
  8
LC-003-005-----0
  6
CONTINUOUS
  5
4A
 10
319.937821
 20
322.766248
 30
0.0
 11
321.937821
 21
324.766248
 31
0.0
  0
LINE
  8
LC-003-005-----0
  6
CONTINUOUS
  5
4B
 10
319.937821
 20
325.594675
 30
0.0
 11
321.937821
 21
327.594675
 31
0.0
  0
LINE
  8
LC-003-005-----0
  6
CONTINUOUS
  5
4C
 10
319.937821
 20
328.423103
 30
0.0
 11
321.937821
 21
330.423103
 31
0.0
  0
LINE
  8
LC-003-005-----0
  6
CONTINUOUS
  5
4D
 10
319.937821
 20
331.25153
 30
0.0
 11
321.937821
 21
333.25153
 31
0.0
  0
LINE
  8
LC-003-005-----0
  6
CONTINUOUS
  5
4E
 10
319.937821
 20
334.079957
 30
0.0
 11
321.937821
 21
336.079957
 31
0.0
  0
LINE
  8
LC-003-005-----0
  6
CONTINUOUS
  5
4F
 10
319.937821
 20
336.908384
 30
0.0
 11
321.937821
 21
338.908384
 31
0.0
  0
LINE
  8
LC-003-005-----0
  6
CONTINUOUS
  5
50
 10
319.937821
 20
339.736811
 30
0.0
 11
321.937821
 21
341.736811
 31
0.0
  0
LINE
  8
LC-003-005-----0
  6
CONTINUOUS
  5
51
 10
319.937821
 20
342.565238
 30
0.0
 11
321.937821
 21
344.565238
 31
0.0
  0
LINE
  8
LC-003-005-----0
  6
CONTINUOUS
  5
52
 10
319.937821
 20
345.393665
 30
0.0
 11
321.937821
 21
347.393665
 31
0.0
  0
LINE
  8
LC-003-005-----0
  6
CONTINUOUS
  5
53
 10
319.937821
 20
348.222092
 30
0.0
 11
321.937821
 21
350.222092
 31
0.0
  0
LINE
  8
LC-003-005-----0
  6
CONTINUOUS
  5
54
 10
319.937821
 20
351.05052
 30
0.0
 11
321.937821
 21
353.05052
 31
0.0
  0
LINE
  8
LC-003-005-----0
  6
CONTINUOUS
  5
55
 10
319.937821
 20
353.878947
 30
0.0
 11
321.937821
 21
355.878947
 31
0.0
  0
LINE
  8
LC-003-005-----0
  6
CONTINUOUS
  5
56
 10
319.937821
 20
356.707374
 30
0.0
 11
321.937821
 21
358.707374
 31
0.0
  0
LINE
  8
LC-003-005-----0
  6
CONTINUOUS
  5
57
 10
319.937821
 20
359.535801
 30
0.0
 11
321.937821
 21
361.535801
 31
0.0
  0
LINE
  8
LC-003-005-----0
  6
CONTINUOUS
  5
58
 10
319.937821
 20
362.364228
 30
0.0
 11
321.937821
 21
364.364228
 31
0.0
  0
LINE
  8
LC-003-005-----0
  6
CONTINUOUS
  5
59
 10
319.937821
 20
365.192655
 30
0.0
 11
321.937821
 21
367.192655
 31
0.0
  0
LINE
  8
LC-003-005-----0
  6
CONTINUOUS
  5
5A
 10
319.937821
 20
368.021082
 30
0.0
 11
321.937821
 21
370.021082
 31
0.0
  0
LINE
  8
LC-003-005-----0
  6
CONTINUOUS
  5
5B
 10
318.437821
 20
369.349509
 30
0.0
 11
320.132312
 21
371.044
 31
0.0
  0
ENDBLK
  8
0
  5
5C
  0
BLOCK
  8
0
  5
5E
  2
*X3
 70
    65
 10
357.937821
 20
266.044
 30
0.0
  3
*X3
  0
LINE
  8
LC-003-005-----0
  6
CONTINUOUS
  5
5F
 10
357.937821
 20
267.428153
 30
0.0
 11
359.937821
 21
269.428153
 31
0.0
  0
LINE
  8
LC-003-005-----0
  6
CONTINUOUS
  5
60
 10
357.937821
 20
270.25658
 30
0.0
 11
359.937821
 21
272.25658
 31
0.0
  0
LINE
  8
LC-003-005-----0
  6
CONTINUOUS
  5
61
 10
357.937821
 20
273.085008
 30
0.0
 11
359.937821
 21
275.085008
 31
0.0
  0
LINE
  8
LC-003-005-----0
  6
CONTINUOUS
  5
62
 10
357.937821
 20
275.913435
 30
0.0
 11
359.937821
 21
277.913435
 31
0.0
  0
LINE
  8
LC-003-005-----0
  6
CONTINUOUS
  5
63
 10
357.937821
 20
278.741862
 30
0.0
 11
359.937821
 21
280.741862
 31
0.0
  0
LINE
  8
LC-003-005-----0
  6
CONTINUOUS
  5
64
 10
357.937821
 20
281.570289
 30
0.0
 11
359.937821
 21
283.570289
 31
0.0
  0
LINE
  8
LC-003-005-----0
  6
CONTINUOUS
  5
65
 10
357.937821
 20
284.398716
 30
0.0
 11
359.937821
 21
286.398716
 31
0.0
  0
LINE
  8
LC-003-005-----0
  6
CONTINUOUS
  5
66
 10
357.937821
 20
287.227143
 30
0.0
 11
359.937821
 21
289.227143
 31
0.0
  0
LINE
  8
LC-003-005-----0
  6
CONTINUOUS
  5
67
 10
357.937821
 20
290.05557
 30
0.0
 11
359.937821
 21
292.05557
 31
0.0
  0
LINE
  8
LC-003-005-----0
  6
CONTINUOUS
  5
68
 10
357.937821
 20
292.883997
 30
0.0
 11
359.937821
 21
294.883997
 31
0.0
  0
LINE
  8
LC-003-005-----0
  6
CONTINUOUS
  5
69
 10
357.937821
 20
295.712425
 30
0.0
 11
359.937821
 21
297.712425
 31
0.0
  0
LINE
  8
LC-003-005-----0
  6
CONTINUOUS
  5
6A
 10
357.937821
 20
298.540852
 30
0.0
 11
359.937821
 21
300.540852
 31
0.0
  0
LINE
  8
LC-003-005-----0
  6
CONTINUOUS
  5
6B
 10
357.937821
 20
301.369279
 30
0.0
 11
359.937821
 21
303.369279
 31
0.0
  0
LINE
  8
LC-003-005-----0
  6
CONTINUOUS
  5
6C
 10
357.937821
 20
304.197706
 30
0.0
 11
359.937821
 21
306.197706
 31
0.0
  0
LINE
  8
LC-003-005-----0
  6
CONTINUOUS
  5
6D
 10
357.937821
 20
307.026133
 30
0.0
 11
359.937821
 21
309.026133
 31
0.0
  0
LINE
  8
LC-003-005-----0
  6
CONTINUOUS
  5
6E
 10
357.937821
 20
309.85456
 30
0.0
 11
359.937821
 21
311.85456
 31
0.0
  0
LINE
  8
LC-003-005-----0
  6
CONTINUOUS
  5
6F
 10
357.937821
 20
312.682987
 30
0.0
 11
359.937821
 21
314.682987
 31
0.0
  0
LINE
  8
LC-003-005-----0
  6
CONTINUOUS
  5
70
 10
357.937821
 20
315.511414
 30
0.0
 11
359.937821
 21
317.511414
 31
0.0
  0
LINE
  8
LC-003-005-----0
  6
CONTINUOUS
  5
71
 10
357.937821
 20
318.339842
 30
0.0
 11
359.937821
 21
320.339842
 31
0.0
  0
LINE
  8
LC-003-005-----0
  6
CONTINUOUS
  5
72
 10
357.937821
 20
321.168269
 30
0.0
 11
359.937821
 21
323.168269
 31
0.0
  0
LINE
  8
LC-003-005-----0
  6
CONTINUOUS
  5
73
 10
357.937821
 20
323.996696
 30
0.0
 11
359.937821
 21
325.996696
 31
0.0
  0
LINE
  8
LC-003-005-----0
  6
CONTINUOUS
  5
74
 10
357.937821
 20
326.825123
 30
0.0
 11
359.937821
 21
328.825123
 31
0.0
  0
LINE
  8
LC-003-005-----0
  6
CONTINUOUS
  5
75
 10
357.937821
 20
329.65355
 30
0.0
 11
359.937821
 21
331.65355
 31
0.0
  0
LINE
  8
LC-003-005-----0
  6
CONTINUOUS
  5
76
 10
357.937821
 20
332.481977
 30
0.0
 11
359.937821
 21
334.481977
 31
0.0
  0
LINE
  8
LC-003-005-----0
  6
CONTINUOUS
  5
77
 10
357.937821
 20
335.310404
 30
0.0
 11
359.937821
 21
337.310404
 31
0.0
  0
LINE
  8
LC-003-005-----0
  6
CONTINUOUS
  5
78
 10
357.937821
 20
338.138831
 30
0.0
 11
359.937821
 21
340.138831
 31
0.0
  0
LINE
  8
LC-003-005-----0
  6
CONTINUOUS
  5
79
 10
357.937821
 20
340.967258
 30
0.0
 11
359.937821
 21
342.967258
 31
0.0
  0
LINE
  8
LC-003-005-----0
  6
CONTINUOUS
  5
7A
 10
357.937821
 20
343.795686
 30
0.0
 11
359.937821
 21
345.795686
 31
0.0
  0
LINE
  8
LC-003-005-----0
  6
CONTINUOUS
  5
7B
 10
357.937821
 20
346.624113
 30
0.0
 11
359.937821
 21
348.624113
 31
0.0
  0
LINE
  8
LC-003-005-----0
  6
CONTINUOUS
  5
7C
 10
357.937821
 20
349.45254
 30
0.0
 11
359.937821
 21
351.45254
 31
0.0
  0
LINE
  8
LC-003-005-----0
  6
CONTINUOUS
  5
7D
 10
357.937821
 20
352.280967
 30
0.0
 11
359.937821
 21
354.280967
 31
0.0
  0
LINE
  8
LC-003-005-----0
  6
CONTINUOUS
  5
7E
 10
357.937821
 20
355.109394
 30
0.0
 11
359.937821
 21
357.109394
 31
0.0
  0
LINE
  8
LC-003-005-----0
  6
CONTINUOUS
  5
7F
 10
357.937821
 20
357.937821
 30
0.0
 11
359.937821
 21
359.937821
 31
0.0
  0
LINE
  8
LC-003-005-----0
  6
CONTINUOUS
  5
80
 10
357.937821
 20
360.766248
 30
0.0
 11
359.937821
 21
362.766248
 31
0.0
  0
LINE
  8
LC-003-005-----0
  6
CONTINUOUS
  5
81
 10
357.937821
 20
363.594675
 30
0.0
 11
359.937821
 21
365.594675
 31
0.0
  0
LINE
  8
LC-003-005-----0
  6
CONTINUOUS
  5
82
 10
357.937821
 20
366.423103
 30
0.0
 11
359.937821
 21
368.423103
 31
0.0
  0
LINE
  8
LC-003-005-----0
  6
CONTINUOUS
  5
83
 10
360.058719
 20
368.544
 30
0.0
 11
361.398768
 21
369.88405
 31
0.0
  0
LINE
  8
LC-003-005-----0
  6
CONTINUOUS
  5
84
 10
357.937821
 20
369.25153
 30
0.0
 11
359.730292
 21
371.044
 31
0.0
  0
ENDBLK
  8
0
  5
85
  0
BLOCK
  8
0
  5
87
  2
*D4
 70
    65
 10
0.0
 20
0.0
 30
0.0
  3
*D4
  0
LINE
  8
LC-005-003-MTH-0
  6
CONTINUOUS
  5
89
 10
319.937821
 20
268.044
 30
0.0
 11
319.937821
 21
213.2
 31
0.0
  0
LINE
  8
LC-005-003-MTH-0
  6
CONTINUOUS
  5
8A
 10
359.937821
 20
268.044
 30
0.0
 11
359.937821
 21
213.2
 31
0.0
  0
LINE
  8
LC-004-003-----0
  6
CONTINUOUS
  5
8C
 10
302.091814
 20
221.650529
 30
0.0
 11
319.937821
 21
224.0
 31
0.0
  0
LINE
  8
LC-004-003-----0
  6
CONTINUOUS
  5
8D
 10
319.937821
 20
224.0
 30
0.0
 11
302.091814
 21
226.349471
 31
0.0
  0
LINE
  8
LC-004-003-----0
  6
CONTINUOUS
  5
8E
 10
302.091814
 20
226.349471
 30
0.0
 11
302.091814
 21
221.650529
 31
0.0
  0
LINE
  8
LC-004-003-----0
  6
CONTINUOUS
  5
8F
 10
302.051776
 20
222.261391
 30
0.0
 11
315.257821
 21
224.0
 31
0.0
  0
LINE
  8
LC-004-003-----0
  6
CONTINUOUS
  5
90
 10
315.257821
 20
224.0
 30
0.0
 11
302.051776
 21
225.738609
 31
0.0
  0
LINE
  8
LC-004-003-----0
  6
CONTINUOUS
  5
91
 10
302.011738
 20
222.872254
 30
0.0
 11
310.577821
 21
224.0
 31
0.0
  0
LINE
  8
LC-004-003-----0
  6
CONTINUOUS
  5
92
 10
310.577821
 20
224.0
 30
0.0
 11
302.011738
 21
225.127746
 31
0.0
  0
LINE
  8
LC-004-003-----0
  6
CONTINUOUS
  5
93
 10
301.9717
 20
223.483116
 30
0.0
 11
305.897821
 21
224.0
 31
0.0
  0
LINE
  8
LC-004-003-----0
  6
CONTINUOUS
  5
94
 10
305.897821
 20
224.0
 30
0.0
 11
301.9717
 21
224.516884
 31
0.0
  0
LINE
  8
LC-004-003-----0
  6
CONTINUOUS
  5
95
 10
377.783829
 20
226.349471
 30
0.0
 11
359.937821
 21
224.0
 31
0.0
  0
LINE
  8
LC-004-003-----0
  6
CONTINUOUS
  5
96
 10
359.937821
 20
224.0
 30
0.0
 11
377.783829
 21
221.650529
 31
0.0
  0
LINE
  8
LC-004-003-----0
  6
CONTINUOUS
  5
97
 10
377.783829
 20
221.650529
 30
0.0
 11
377.783829
 21
226.349471
 31
0.0
  0
LINE
  8
LC-004-003-----0
  6
CONTINUOUS
  5
98
 10
377.823867
 20
225.738609
 30
0.0
 11
364.617821
 21
224.0
 31
0.0
  0
LINE
  8
LC-004-003-----0
  6
CONTINUOUS
  5
99
 10
364.617821
 20
224.0
 30
0.0
 11
377.823867
 21
222.261391
 31
0.0
  0
LINE
  8
LC-004-003-----0
  6
CONTINUOUS
  5
9A
 10
377.863905
 20
225.127746
 30
0.0
 11
369.297821
 21
224.0
 31
0.0
  0
LINE
  8
LC-004-003-----0
  6
CONTINUOUS
  5
9B
 10
369.297821
 20
224.0
 30
0.0
 11
377.863905
 21
222.872254
 31
0.0
  0
LINE
  8
LC-004-003-----0
  6
CONTINUOUS
  5
9C
 10
377.903943
 20
224.516884
 30
0.0
 11
373.977821
 21
224.0
 31
0.0
  0
LINE
  8
LC-004-003-----0
  6
CONTINUOUS
  5
9D
 10
373.977821
 20
224.0
 30
0.0
 11
377.903943
 21
223.483116
 31
0.0
  0
LINE
  8
LC-006-003-MTG-0
  6
CONTINUOUS
  5
9F
 10
294.737821
 20
224.0
 30
0.0
 11
450.340341
 21
224.0
 31
0.0
  0
TEXT
  8
LC-004-003-----0
  6
CONTINUOUS
 62
     6
  5
A1
 10
387.213067
 20
234.431999
 30
0.0
 40
18.0
  1
DN40
 41
0.9
 51
15.0
  7
LC-TXTSTYLE-150-400-0-0-D0
  0
ENDBLK
  8
0
  5
A2
  0
BLOCK
  8
0
  5
A4
  2
*D5
 70
    65
 10
0.0
 20
0.0
 30
0.0
  3
*D5
  0
LINE
  8
LC-005-003-MTH-0
  6
CONTINUOUS
  5
A5
 10
357.937821
 20
266.044
 30
0.0
 11
416.8
 21
266.044
 31
0.0
  0
LINE
  8
LC-005-003-MTH-0
  6
CONTINUOUS
  5
A6
 10
365.937821
 20
383.332247
 30
0.0
 11
416.8
 21
383.332247
 31
0.0
  0
LINE
  8
LC-006-003-MTG-0
  6
CONTINUOUS
  5
A7
 10
406.0
 20
266.044
 30
0.0
 11
406.0
 21
383.332247
 31
0.0
  0
LINE
  8
LC-004-003-----0
  6
CONTINUOUS
  5
A8
 10
403.650529
 20
283.890008
 30
0.0
 11
406.0
 21
266.044
 31
0.0
  0
LINE
  8
LC-004-003-----0
  6
CONTINUOUS
  5
A9
 10
406.0
 20
266.044
 30
0.0
 11
408.349471
 21
283.890008
 31
0.0
  0
LINE
  8
LC-004-003-----0
  6
CONTINUOUS
  5
AA
 10
408.349471
 20
283.890008
 30
0.0
 11
403.650529
 21
283.890008
 31
0.0
  0
LINE
  8
LC-004-003-----0
  6
CONTINUOUS
  5
AB
 10
404.261391
 20
283.930046
 30
0.0
 11
406.0
 21
270.724
 31
0.0
  0
LINE
  8
LC-004-003-----0
  6
CONTINUOUS
  5
AC
 10
406.0
 20
270.724
 30
0.0
 11
407.738609
 21
283.930046
 31
0.0
  0
LINE
  8
LC-004-003-----0
  6
CONTINUOUS
  5
AD
 10
404.872254
 20
283.970084
 30
0.0
 11
406.0
 21
275.404
 31
0.0
  0
LINE
  8
LC-004-003-----0
  6
CONTINUOUS
  5
AE
 10
406.0
 20
275.404
 30
0.0
 11
407.127746
 21
283.970084
 31
0.0
  0
LINE
  8
LC-004-003-----0
  6
CONTINUOUS
  5
AF
 10
405.483116
 20
284.010122
 30
0.0
 11
406.0
 21
280.084
 31
0.0
  0
LINE
  8
LC-004-003-----0
  6
CONTINUOUS
  5
B0
 10
406.0
 20
280.084
 30
0.0
 11
406.516884
 21
284.010122
 31
0.0
  0
LINE
  8
LC-004-003-----0
  6
CONTINUOUS
  5
B1
 10
408.349471
 20
365.486239
 30
0.0
 11
406.0
 21
383.332247
 31
0.0
  0
LINE
  8
LC-004-003-----0
  6
CONTINUOUS
  5
B2
 10
406.0
 20
383.332247
 30
0.0
 11
403.650529
 21
365.486239
 31
0.0
  0
LINE
  8
LC-004-003-----0
  6
CONTINUOUS
  5
B3
 10
403.650529
 20
365.486239
 30
0.0
 11
408.349471
 21
365.486239
 31
0.0
  0
LINE
  8
LC-004-003-----0
  6
CONTINUOUS
  5
B4
 10
407.738609
 20
365.446201
 30
0.0
 11
406.0
 21
378.652247
 31
0.0
  0
LINE
  8
LC-004-003-----0
  6
CONTINUOUS
  5
B5
 10
406.0
 20
378.652247
 30
0.0
 11
404.261391
 21
365.446201
 31
0.0
  0
LINE
  8
LC-004-003-----0
  6
CONTINUOUS
  5
B6
 10
407.127746
 20
365.406163
 30
0.0
 11
406.0
 21
373.972247
 31
0.0
  0
LINE
  8
LC-004-003-----0
  6
CONTINUOUS
  5
B7
 10
406.0
 20
373.972247
 30
0.0
 11
404.872254
 21
365.406163
 31
0.0
  0
LINE
  8
LC-004-003-----0
  6
CONTINUOUS
  5
B8
 10
406.516884
 20
365.366125
 30
0.0
 11
406.0
 21
369.292247
 31
0.0
  0
LINE
  8
LC-004-003-----0
  6
CONTINUOUS
  5
B9
 10
406.0
 20
369.292247
 30
0.0
 11
405.483116
 21
365.366125
 31
0.0
  0
TEXT
  8
LC-004-003-----0
  6
CONTINUOUS
 62
     6
  5
BA
 10
395.568001
 20
308.349511
 30
0.0
 40
18.0
  1
120
 50
90.0
 51
15.0
  7
LC-TXTSTYLE-150-400-0-0-D0
 72
     1
 11
395.568001
 21
327.483369
 31
0.0
  0
ENDBLK
  8
0
  5
BB
  0
BLOCK
  8
0
  5
BD
  2
*X6
 70
    65
 10
313.937821
 20
365.832247
 30
0.0
  3
*X6
  0
LINE
  8
LC-003-005-----0
  6
CONTINUOUS
  5
BE
 10
317.187821
 20
381.433679
 30
0.0
 11
315.289253
 21
383.332247
 31
0.0
  0
LINE
  8
LC-003-005-----0
  6
CONTINUOUS
  5
BF
 10
317.187821
 20
378.605251
 30
0.0
 11
315.437821
 21
380.355251
 31
0.0
  0
LINE
  8
LC-003-005-----0
  6
CONTINUOUS
  5
C0
 10
313.960826
 20
381.832247
 30
0.0
 11
313.937821
 21
381.855251
 31
0.0
  0
LINE
  8
LC-003-005-----0
  6
CONTINUOUS
  5
C1
 10
317.187821
 20
375.776824
 30
0.0
 11
315.437821
 21
377.526824
 31
0.0
  0
LINE
  8
LC-003-005-----0
  6
CONTINUOUS
  5
C2
 10
317.187821
 20
372.948397
 30
0.0
 11
315.437821
 21
374.698397
 31
0.0
  0
LINE
  8
LC-003-005-----0
  6
CONTINUOUS
  5
C3
 10
317.187821
 20
370.11997
 30
0.0
 11
315.437821
 21
371.86997
 31
0.0
  0
LINE
  8
LC-003-005-----0
  6
CONTINUOUS
  5
C4
 10
318.430307
 20
366.049057
 30
0.0
 11
315.437821
 21
369.041543
 31
0.0
  0
ENDBLK
  8
0
  5
C5
  0
BLOCK
  8
0
  5
C7
  2
*X7
 70
    65
 10
318.937821
 20
371.544
 30
0.0
  3
*X7
  0
LINE
  8
LC-003-005-----0
  6
CONTINUOUS
  5
C8
 10
322.937821
 20
372.855251
 30
0.0
 11
322.249073
 21
373.544
 31
0.0
  0
LINE
  8
LC-003-005-----0
  6
CONTINUOUS
  5
C9
 10
322.834859
 20
371.544
 30
0.0
 11
320.834859
 21
373.544
 31
0.0
  0
LINE
  8
LC-003-005-----0
  6
CONTINUOUS
  5
CA
 10
321.420646
 20
371.544
 30
0.0
 11
319.420646
 21
373.544
 31
0.0
  0
LINE
  8
LC-003-005-----0
  6
CONTINUOUS
  5
CB
 10
320.006432
 20
371.544
 30
0.0
 11
318.937821
 21
372.612611
 31
0.0
  0
ENDBLK
  8
0
  5
CC
  0
ENDSEC
  0
SECTION
  2
ENTITIES
  0
VIEWPORT
  8
LC-000
  5
10C
 67
     1
 68
     1
 10
420.0
 20
297.0
 30
0.0
 40
840.0
 41
594.0
 69
     1
1001
ACAD
1000
MVIEW
1002
{
1070
    16
1010
0.0
1020
0.0
1030
0.0
1010
0.0
1020
0.0
1030
1.0
1040
0.0
1040
594.0
1040
420.0
1040
297.0
1040
50.0
1040
0.0
1040
0.0
1070
     0
1070
   100
1070
     1
1070
     1
1070
     0
1070
     0
1070
     0
1070
     0
1040
0.0
1040
0.0
1040
0.0
1040
1.0
1040
1.0
1040
0.0
1040
0.0
1070
     0
1002
{
1002
}
1002
}
  0
VIEWPORT
  8
0
  5
10D
 67
     1
 68
     1
 10
0.0
 20
0.0
 30
0.0
 40
0.0
 41
0.0
 69
     1
1001
ACAD
1000
MVIEW
1002
{
1070
    16
1010
0.0
1020
0.0
1030
0.0
1010
0.0
1020
0.0
1030
1.0
1040
0.0
1040
594.0
1040
0.0
1040
0.0
1040
50.0
1040
0.0
1040
0.0
1070
     0
1070
   100
1070
     0
1070
     1
1070
     0
1070
     0
1070
     0
1070
     0
1040
0.0
1040
0.0
1040
0.0
1040
0.5
1040
0.5
1040
0.5
1040
0.5
1070
     0
1002
{
1002
}
1002
}
  0
INSERT
  8
0
  5
CD
  2
*X0
 10
360.437821
 20
365.832247
 30
0.0
  0
INSERT
  8
0
  5
CE
  2
*X1
 10
356.937821
 20
371.544
 30
0.0
  0
INSERT
  8
0
  5
CF
  2
*X2
 10
318.437821
 20
266.044
 30
0.0
  0
INSERT
  8
0
  5
D0
  2
*X3
 10
357.937821
 20
266.044
 30
0.0
  0
DIMENSION
  8
0
  5
D1
  2
*D4
 10
339.937821
 20
224.0
 30
0.0
 11
339.937821
 21
224.0
 31
0.0
  1
DN40
 13
319.937821
 23
268.044
 33
0.0
 14
359.937821
 24
268.044
 34
0.0
  3
LC-DIM-L-0090-02-02
  0
DIMENSION
  8
0
  5
D2
  2
*D5
 10
406.0
 20
324.688123
 30
0.0
 11
406.0
 21
324.688123
 31
0.0
  1
120
 13
365.937821
 23
383.332247
 33
0.0
 14
357.937821
 24
266.044
 34
0.0
 50
90.0
  3
LC-DIM-L-0090-02-02
  0
INSERT
  8
0
  5
D3
  2
*X6
 10
313.937821
 20
365.832247
 30
0.0
  0
INSERT
  8
0
  5
D4
  2
*X7
 10
318.937821
 20
371.544
 30
0.0
  0
LINE
  8
LC-001-002-----0
  5
D7
 10
339.937821
 20
383.332247
 30
0.0
 11
339.937821
 21
266.044
 31
0.0
  0
LINE
  8
LC-001-002-----0
  6
CONTINUOUS
 62
     1
  5
D8
 10
359.937821
 20
368.544
 30
0.0
 11
359.937821
 21
268.044
 31
0.0
  0
LINE
  8
LC-001-002-----0
  6
CONTINUOUS
 62
     1
  5
D9
 10
319.937821
 20
368.544
 30
0.0
 11
319.937821
 21
268.044
 31
0.0
  0
LINE
  8
LC-001-002-----0
  6
CONTINUOUS
 62
     1
  5
DA
 10
321.937821
 20
266.044
 30
0.0
 11
357.937821
 21
266.044
 31
0.0
  0
LINE
  8
LC-001-002-----0
  6
CONTINUOUS
 62
     1
  5
DB
 10
321.937821
 20
371.044
 30
0.0
 11
321.937821
 21
266.044
 31
0.0
  0
LINE
  8
LC-001-002-----0
  6
CONTINUOUS
 62
     1
  5
DC
 10
357.937821
 20
371.044
 30
0.0
 11
357.937821
 21
266.044
 31
0.0
  0
LINE
  8
LC-001-002-----0
  6
CONTINUOUS
 62
     1
  5
DD
 10
313.937821
 20
383.332247
 30
0.0
 11
339.937821
 21
383.332247
 31
0.0
  0
LINE
  8
LC-001-002-----0
  6
CONTINUOUS
 62
     1
  5
DE
 10
321.937821
 20
266.044
 30
0.0
 11
319.937821
 21
268.044
 31
0.0
  0
LINE
  8
LC-001-002-----0
  6
CONTINUOUS
 62
     1
  5
DF
 10
357.937821
 20
266.044
 30
0.0
 11
359.937821
 21
268.044
 31
0.0
  0
LINE
  8
LC-001-002-----0
  6
CONTINUOUS
 62
     1
  5
E0
 10
318.437821
 20
368.544
 30
0.0
 11
319.937821
 21
368.544
 31
0.0
  0
LINE
  8
LC-001-002-----0
  6
CONTINUOUS
 62
     1
  5
E1
 10
321.937821
 20
368.544
 30
0.0
 11
321.937821
 21
368.544
 31
0.0
  0
LINE
  8
LC-001-002-----0
  6
CONTINUOUS
 62
     1
  5
E2
 10
319.937821
 20
371.044
 30
0.0
 11
359.937821
 21
371.044
 31
0.0
  0
LINE
  8
LC-001-002-----0
  6
CONTINUOUS
 62
     1
  5
E3
 10
365.937821
 20
383.332247
 30
0.0
 11
339.937821
 21
383.332247
 31
0.0
  0
LINE
  8
LC-001-002-----0
  6
CONTINUOUS
 62
     1
  5
E4
 10
361.437821
 20
368.544
 30
0.0
 11
359.937821
 21
368.544
 31
0.0
  0
LINE
  8
LC-001-002-----0
  6
CONTINUOUS
 62
     1
  5
E5
 10
361.437821
 20
369.544
 30
0.0
 11
361.437821
 21
368.544
 31
0.0
  0
ARC
  8
LC-002-002-RND-0
  6
CONTINUOUS
  5
E7
 10
359.937821
 20
369.544
 30
0.0
 40
1.5
 50
0.0
 51
90.0
  0
LINE
  8
LC-001-002-----0
  6
CONTINUOUS
 62
     1
  5
E8
 10
364.437821
 20
381.832247
 30
0.0
 11
364.437821
 21
367.832247
 31
0.0
  0
LINE
  8
LC-001-002-----0
  6
CONTINUOUS
 62
     1
  5
E9
 10
362.437821
 20
365.832247
 30
0.0
 11
362.222138
 21
365.832247
 31
0.0
  0
LINE
  8
LC-001-002-----0
  6
CONTINUOUS
 62
     1
  5
EA
 10
365.937821
 20
381.832247
 30
0.0
 11
364.437821
 21
381.832247
 31
0.0
  0
LINE
  8
LC-001-002-----0
  6
CONTINUOUS
 62
     1
  5
EB
 10
365.937821
 20
383.332247
 30
0.0
 11
365.937821
 21
381.832247
 31
0.0
  0
LINE
  8
LC-001-002-----0
  6
CONTINUOUS
 62
     1
  5
EC
 10
361.437821
 20
382.082247
 30
0.0
 11
361.437821
 21
368.832247
 31
0.0
  0
LINE
  8
LC-001-002-----0
  6
CONTINUOUS
 62
     1
  5
ED
 10
362.687821
 20
383.332247
 30
0.0
 11
362.687821
 21
367.582247
 31
0.0
  0
LINE
  8
LC-001-002-----0
  6
CONTINUOUS
 62
     1
  5
EE
 10
362.687821
 20
367.582247
 30
0.0
 11
360.722138
 21
367.582247
 31
0.0
  0
LINE
  8
LC-001-002-----0
  6
CONTINUOUS
 62
     1
  5
EF
 10
360.722138
 20
367.332247
 30
0.0
 11
360.722138
 21
367.582247
 31
0.0
  0
ARC
  8
LC-002-002-RND-0
  6
CONTINUOUS
  5
F0
 10
362.437821
 20
367.832247
 30
0.0
 40
2.0
 50
270.0
 51
0.0
  0
ARC
  8
LC-002-002-RND-0
  6
CONTINUOUS
  5
F1
 10
362.222138
 20
367.332247
 30
0.0
 40
1.5
 50
180.0
 51
270.0
  0
LINE
  8
LC-001-002-----0
  6
CONTINUOUS
 62
     1
  5
F2
 10
362.687821
 20
383.332247
 30
0.0
 11
361.437821
 21
382.082247
 31
0.0
  0
LINE
  8
LC-001-002-----0
  6
CONTINUOUS
 62
     1
  5
F3
 10
362.687821
 20
367.582247
 30
0.0
 11
361.437821
 21
368.832247
 31
0.0
  0
LINE
  8
LC-001-002-----0
  6
CONTINUOUS
 62
     1
  5
F4
 10
361.437821
 20
382.082247
 30
0.0
 11
339.937821
 21
382.082247
 31
0.0
  0
LINE
  8
LC-001-002-----0
  6
CONTINUOUS
 62
     1
  5
F5
 10
360.937821
 20
371.544
 30
0.0
 11
339.937821
 21
371.544
 31
0.0
  0
LINE
  8
LC-001-002-----0
  6
CONTINUOUS
 62
     1
  5
F6
 10
360.937821
 20
373.544
 30
0.0
 11
339.937821
 21
373.544
 31
0.0
  0
LINE
  8
LC-001-002-----0
  6
CONTINUOUS
 62
     1
  5
F7
 10
360.937821
 20
373.544
 30
0.0
 11
360.937821
 21
371.544
 31
0.0
  0
LINE
  8
LC-001-002-----0
  6
CONTINUOUS
 62
     1
  5
F8
 10
318.437821
 20
369.544
 30
0.0
 11
318.437821
 21
368.544
 31
0.0
  0
ARC
  8
LC-002-002-RND-0
  6
CONTINUOUS
  5
F9
 10
319.937821
 20
369.544
 30
0.0
 40
1.5
 50
90.0
 51
180.0
  0
LINE
  8
LC-001-002-----0
  6
CONTINUOUS
 62
     1
  5
FA
 10
315.437821
 20
381.832247
 30
0.0
 11
315.437821
 21
367.832247
 31
0.0
  0
LINE
  8
LC-001-002-----0
  6
CONTINUOUS
 62
     1
  5
FB
 10
317.437821
 20
365.832247
 30
0.0
 11
317.653505
 21
365.832247
 31
0.0
  0
LINE
  8
LC-001-002-----0
  6
CONTINUOUS
 62
     1
  5
FC
 10
313.937821
 20
381.832247
 30
0.0
 11
315.437821
 21
381.832247
 31
0.0
  0
LINE
  8
LC-001-002-----0
  6
CONTINUOUS
 62
     1
  5
FD
 10
313.937821
 20
383.332247
 30
0.0
 11
313.937821
 21
381.832247
 31
0.0
  0
LINE
  8
LC-001-002-----0
  6
CONTINUOUS
 62
     1
  5
FE
 10
318.437821
 20
382.082247
 30
0.0
 11
318.437821
 21
368.832247
 31
0.0
  0
LINE
  8
LC-001-002-----0
  6
CONTINUOUS
 62
     1
  5
FF
 10
317.187821
 20
383.332247
 30
0.0
 11
317.187821
 21
367.582247
 31
0.0
  0
LINE
  8
LC-001-002-----0
  6
CONTINUOUS
 62
     1
  5
100
 10
317.187821
 20
367.582247
 30
0.0
 11
319.153505
 21
367.582247
 31
0.0
  0
LINE
  8
LC-001-002-----0
  6
CONTINUOUS
 62
     1
  5
101
 10
319.153505
 20
367.332247
 30
0.0
 11
319.153505
 21
367.582247
 31
0.0
  0
ARC
  8
LC-002-002-RND-0
  6
CONTINUOUS
  5
102
 10
317.437821
 20
367.832247
 30
0.0
 40
2.0
 50
180.0
 51
270.0
  0
ARC
  8
LC-002-002-RND-0
  6
CONTINUOUS
  5
103
 10
317.653505
 20
367.332247
 30
0.0
 40
1.5
 50
270.0
 51
0.0
  0
LINE
  8
LC-001-002-----0
  6
CONTINUOUS
 62
     1
  5
104
 10
317.187821
 20
383.332247
 30
0.0
 11
318.437821
 21
382.082247
 31
0.0
  0
LINE
  8
LC-001-002-----0
  6
CONTINUOUS
 62
     1
  5
105
 10
317.187821
 20
367.582247
 30
0.0
 11
318.437821
 21
368.832247
 31
0.0
  0
LINE
  8
LC-001-002-----0
  6
CONTINUOUS
 62
     1
  5
106
 10
318.437821
 20
382.082247
 30
0.0
 11
339.937821
 21
382.082247
 31
0.0
  0
LINE
  8
LC-001-002-----0
  6
CONTINUOUS
 62
     1
  5
107
 10
318.937821
 20
371.544
 30
0.0
 11
339.937821
 21
371.544
 31
0.0
  0
LINE
  8
LC-001-002-----0
  6
CONTINUOUS
 62
     1
  5
108
 10
318.937821
 20
373.544
 30
0.0
 11
339.937821
 21
373.544
 31
0.0
  0
LINE
  8
LC-001-002-----0
  6
CONTINUOUS
 62
     1
  5
109
 10
318.937821
 20
373.544
 30
0.0
 11
318.937821
 21
371.544
 31
0.0
  0
LINE
  8
LC-001-002-----0
  6
CONTINUOUS
 62
     1
  5
10A
 10
322.937821
 20
373.544
 30
0.0
 11
322.937821
 21
371.544
 31
0.0
  0
ENDSEC
  0
EOF
