  0
SECTION
  2
HEADER
  9
$ACADVER
  1
AC1015
  9
$ACADMAINTVER
 70
     6
  9
$DWGCODEPAGE
  3
DOS850
  9
$INSBASE
 10
0.0
 20
0.0
 30
0.0
  9
$EXTMIN
 10
-34.406553
 20
-15.48
 30
0.0
  9
$EXTMAX
 10
805.593447
 20
578.52
 30
0.0
  9
$LIMMIN
 10
-34.406553
 20
-15.48
  9
$LIMMAX
 10
805.593447
 20
578.52
  9
$ORTHOMODE
 70
     0
  9
$REGENMODE
 70
     1
  9
$FILLMODE
 70
     1
  9
$QTEXTMODE
 70
     0
  9
$MIRRTEXT
 70
     1
  9
$LTSCALE
 40
2.0
  9
$ATTMODE
 70
     1
  9
$TEXTSIZE
 40
0.2
  9
$TRACEWID
 40
0.05
  9
$TEXTSTYLE
  7
Standard
  9
$CLAYER
  8
0
  9
$CELTYPE
  6
ByBlock
  9
$CECOLOR
 62
     7
  9
$CELTSCALE
 40
1.0
  9
$DISPSILH
 70
     0
  9
$DIMSCALE
 40
2.0
  9
$DIMASZ
 40
3.5
  9
$DIMEXO
 40
0.0625
  9
$DIMDLI
 40
0.38
  9
$DIMRND
 40
0.0
  9
$DIMDLE
 40
0.0
  9
$DIMEXE
 40
0.18
  9
$DIMTP
 40
0.0
  9
$DIMTM
 40
0.0
  9
$DIMTXT
 40
3.5
  9
$DIMCEN
 40
0.09
  9
$DIMTSZ
 40
0.0
  9
$DIMTOL
 70
     0
  9
$DIMLIM
 70
     0
  9
$DIMTIH
 70
     1
  9
$DIMTOH
 70
     1
  9
$DIMSE1
 70
     0
  9
$DIMSE2
 70
     0
  9
$DIMTAD
 70
     1
  9
$DIMZIN
 70
     0
  9
$DIMBLK
  1

  9
$DIMASO
 70
     1
  9
$DIMSHO
 70
     1
  9
$DIMPOST
  1

  9
$DIMAPOST
  1

  9
$DIMALT
 70
     0
  9
$DIMALTD
 70
     2
  9
$DIMALTF
 40
25.4
  9
$DIMLFAC
 40
1.0
  9
$DIMTOFL
 70
     0
  9
$DIMTVP
 40
0.0
  9
$DIMTIX
 70
     0
  9
$DIMSOXD
 70
     0
  9
$DIMSAH
 70
     0
  9
$DIMBLK1
  1

  9
$DIMBLK2
  1

  9
$DIMSTYLE
  2
Standard
  9
$DIMCLRD
 70
     0
  9
$DIMCLRE
 70
     0
  9
$DIMCLRT
 70
     0
  9
$DIMTFAC
 40
1.0
  9
$DIMGAP
 40
0.09
  9
$DIMJUST
 70
     0
  9
$DIMSD1
 70
     0
  9
$DIMSD2
 70
     0
  9
$DIMTOLJ
 70
     1
  9
$DIMTZIN
 70
     0
  9
$DIMALTZ
 70
     0
  9
$DIMALTTZ
 70
     0
  9
$DIMUPT
 70
     0
  9
$DIMDEC
 70
     4
  9
$DIMTDEC
 70
     4
  9
$DIMALTU
 70
     2
  9
$DIMALTTD
 70
     2
  9
$DIMTXSTY
  7
Standard
  9
$DIMAUNIT
 70
     0
  9
$DIMADEC
 70
     0
  9
$DIMALTRND
 40
0.0
  9
$DIMAZIN
 70
     0
  9
$DIMDSEP
 70
     0
  9
$DIMATFIT
 70
     3
  9
$DIMFRAC
 70
     0
  9
$DIMLDRBLK
  1

  9
$DIMLUNIT
 70
     2
  9
$DIMLWD
 70
     0
  9
$DIMLWE
 70
     0
  9
$DIMTMOVE
 70
     0
  9
$LUNITS
 70
     2
  9
$LUPREC
 70
     6
  9
$SKETCHINC
 40
0.1
  9
$FILLETRAD
 40
0.0
  9
$AUNITS
 70
     0
  9
$AUPREC
 70
     0
  9
$MENU
  1
acad
  9
$ELEVATION
 40
0.0
  9
$PELEVATION
 40
0.0
  9
$THICKNESS
 40
0.0
  9
$LIMCHECK
 70
     0
  9
$CHAMFERA
 40
0.0
  9
$CHAMFERB
 40
0.0
  9
$CHAMFERC
 40
0.0
  9
$CHAMFERD
 40
0.0
  9
$SKPOLY
 70
     0
  9
$TDCREATE
 40
0.000000000
  9
$TDUCREATE
 40
0.000000000
  9
$TDUPDATE
 40
0.000000000
  9
$TDUUPDATE
 40
0.000000000
  9
$TDINDWG
 40
0.0000000000
  9
$TDUSRTIMER
 40
0.0000000000
  9
$USRTIMER
 70
     1
  9
$ANGBASE
 50
0.0
  9
$ANGDIR
 70
     0
  9
$PDMODE
 70
     0
  9
$PDSIZE
 40
0.0
  9
$PLINEWID
 40
0.0
  9
$SPLFRAME
 70
     0
  9
$SPLINETYPE
 70
     6
  9
$SPLINESEGS
 70
     8
  9
$HANDSEED
  5
50F
  9
$SURFTAB1
 70
     6
  9
$SURFTAB2
 70
     6
  9
$SURFTYPE
 70
     6
  9
$SURFU
 70
     6
  9
$SURFV
 70
     6
  9
$UCSBASE
  2

  9
$UCSNAME
  2

  9
$UCSORG
 10
0.0
 20
0.0
 30
0.0
  9
$UCSXDIR
 10
1.0
 20
0.0
 30
0.0
  9
$UCSYDIR
 10
0.0
 20
1.0
 30
0.0
  9
$UCSORTHOREF
  2

  9
$UCSORTHOVIEW
 70
     0
  9
$UCSORGTOP
 10
0.0
 20
0.0
 30
0.0
  9
$UCSORGBOTTOM
 10
0.0
 20
0.0
 30
0.0
  9
$UCSORGLEFT
 10
0.0
 20
0.0
 30
0.0
  9
$UCSORGRIGHT
 10
0.0
 20
0.0
 30
0.0
  9
$UCSORGFRONT
 10
0.0
 20
0.0
 30
0.0
  9
$UCSORGBACK
 10
0.0
 20
0.0
 30
0.0
  9
$PUCSBASE
  2

  9
$PUCSNAME
  2

  9
$PUCSORG
 10
0.0
 20
0.0
 30
0.0
  9
$PUCSXDIR
 10
1.0
 20
0.0
 30
0.0
  9
$PUCSYDIR
 10
0.0
 20
1.0
 30
0.0
  9
$PUCSORTHOREF
  2

  9
$PUCSORTHOVIEW
 70
     0
  9
$PUCSORGTOP
 10
0.0
 20
0.0
 30
0.0
  9
$PUCSORGBOTTOM
 10
0.0
 20
0.0
 30
0.0
  9
$PUCSORGLEFT
 10
0.0
 20
0.0
 30
0.0
  9
$PUCSORGRIGHT
 10
0.0
 20
0.0
 30
0.0
  9
$PUCSORGFRONT
 10
0.0
 20
0.0
 30
0.0
  9
$PUCSORGBACK
 10
0.0
 20
0.0
 30
0.0
  9
$USERI1
 70
     0
  9
$USERI2
 70
     0
  9
$USERI3
 70
     0
  9
$USERI4
 70
     0
  9
$USERI5
 70
     0
  9
$USERR1
 40
0.0
  9
$USERR2
 40
0.0
  9
$USERR3
 40
0.0
  9
$USERR4
 40
0.0
  9
$USERR5
 40
0.0
  9
$WORLDVIEW
 70
     1
  9
$SHADEDGE
 70
     3
  9
$SHADEDIF
 70
    70
  9
$TILEMODE
 70
     1
  9
$MAXACTVP
 70
    16
  9
$PINSBASE
 10
0.0
 20
0.0
 30
0.0
  9
$PLIMCHECK
 70
     0
  9
$PEXTMIN
 10
-34.406553
 20
-15.48
 30
0.0
  9
$PEXTMAX
 10
805.593447
 20
578.52
 30
0.0
  9
$PLIMMIN
 10
-34.406553
 20
-15.48
  9
$PLIMMAX
 10
805.593447
 20
578.52
  9
$UNITMODE
 70
     0
  9
$VISRETAIN
 70
     0
  9
$PLINEGEN
 70
     1
  9
$PSLTSCALE
 70
     0
  9
$TREEDEPTH
 70
  3020
  9
$CMLSTYLE
  2
Standard
  9
$CMLJUST
 70
     0
  9
$CMLSCALE
 40
1.0
  9
$PROXYGRAPHICS
 70
     0
  9
$MEASUREMENT
 70
     0
  9
$CELWEIGHT
370
     0
  9
$ENDCAPS
280
     0
  9
$JOINSTYLE
280
     0
  9
$LWDISPLAY
290
     0
  9
$INSUNITS
 70
     0
  9
$HYPERLINKBASE
  1

  9
$STYLESHEET
  1

  9
$XEDIT
290
     1
  9
$CEPSNTYPE
380
     0
  9
$PSTYLEMODE
290
     1
  9
$FINGERPRINTGUID
  2

  9
$VERSIONGUID
  2

  9
$EXTNAMES
290
     1
  9
$PSVPSCALE
 40
0.0
  0
ENDSEC
  0
SECTION
  2
CLASSES
  0
CLASS
  1
LWPOLYLINE
  2
AcDbPolyline
  3
AutoCAD 2000
 90
        0
280
     0
281
     1
  0
CLASS
  1
IMAGE
  2
AcDbRasterImage
  3
ISM
 90
      127
280
     0
281
     1
  0
CLASS
  1
OLE2FRAME
  2
AcDbOle2Frame
  3
AutoCAD 2000
 90
        0
280
     0
281
     1
  0
CLASS
  1
HATCH
  2
AcDbHatch
  3
AutoCAD 2000
 90
        0
280
     0
281
     1
  0
CLASS
  1
DICTIONARYVAR
  2
AcDbDictionaryVar
  3
AutoCAD 2000
 90
        0
280
     0
281
     0
  0
CLASS
  1
RASTERVARIABLES
  2
AcDbRasterVariables
  3
ISM
 90
        0
280
     0
281
     0
  0
CLASS
  1
IMAGEDEF
  2
AcDbRasterImageDef
  3
ISM
 90
        0
280
     0
281
     0
  0
CLASS
  1
IMAGEDEF_REACTOR
  2
AcDbRasterImageDefReactor
  3
ISM
 90
        1
280
     0
281
     0
  0
CLASS
  1
IDBUFFER
  2
AcDbIdBuffer
  3
AutoCAD 2000
 90
        0
280
     0
281
     0
  0
CLASS
  1
SPATIAL_FILTER
  2
AcDbSpatialFilter
  3
AutoCAD 2000
 90
        0
280
     0
281
     0
  0
CLASS
  1
XRECORD
  2
AcDbXrecord
  3
AutoCAD 2000
 90
        0
280
     0
281
     0
  0
CLASS
  1
SORTENTSTABLE
  2
AcDbSortentsTable
  3
AutoCAD 2000
 90
        0
280
     0
281
     0
  0
CLASS
  1
LAYER_INDEX
  2
AcDbLayerIndex
  3
AutoCAD 2000
 90
        0
280
     0
281
     0
  0
CLASS
  1
SPATIAL_INDEX
  2
AcDbSpatialIndex
  3
AutoCAD 2000
 90
        0
280
     0
281
     0
  0
CLASS
  1
OBJECT_PTR
  2
CAseDLPNTableRecord
  3
"ASE-LPNTableRecord"
 90
        1
280
     0
281
     0
  0
CLASS
  1
LAYOUT
  2
AcDbLayout
  3
AutoCAD 2000
 90
        0
280
     0
281
     0
  0
CLASS
  1
PLOTSETTINGS
  2
AcDbPlotSettings
  3
AutoCAD 2000
 90
        0
280
     0
281
     0
  0
CLASS
  1
ACDBDICTIONARYWDFLT
  2
AcDbDictionaryWithDefault
  3
AutoCAD 2000
 90
        0
280
     0
281
     0
  0
CLASS
  1
ACDBPLACEHOLDER
  2
AcDbPlaceHolder
  3
AutoCAD 2000
 90
        0
280
     0
281
     0
  0
ENDSEC
  0
SECTION
  2
TABLES
  0
TABLE
  2
VPORT
  5
7
100
AcDbSymbolTable
 70
     1
  0
VPORT
  5
15
100
AcDbSymbolTableRecord
100
AcDbViewportTableRecord
  2
*ACTIVE
 70
     0
 10
0.0
 20
0.0
 11
1.0
 21
1.0
 12
420.0
 22
297.0
 13
0.0
 23
0.0
 14
1.0
 24
1.0
 15
0.0
 25
0.0
 16
0.0
 26
0.0
 36
1.0
 17
-34.406553
 27
-15.48
 37
0.0
 40
594.0
 41
1.604229
 42
50.0
 43
0.0
 44
0.0
 50
0.0
 51
0.0
 71
     0
 72
   100
 73
     1
 74
     1
 75
     0
 76
     0
 77
     0
 78
     0
281
     0
 65
     0
110
0.0
120
0.0
130
0.0
111
1.0
121
0.0
131
0.0
112
0.0
122
1.0
132
0.0
345
0
346
0
 79
     0
146
0.0
  0
ENDTAB
  0
TABLE
  2
LTYPE
  5
4
100
AcDbSymbolTable
 70
     6
  0
LTYPE
  5
11
100
AcDbSymbolTableRecord
100
AcDbLinetypeTableRecord
  2
ByBlock
 70
    64
  3

 72
    65
 73
     0
 40
0.0
  0
LTYPE
  5
12
100
AcDbSymbolTableRecord
100
AcDbLinetypeTableRecord
  2
ByLayer
 70
    64
  3

 72
    65
 73
     0
 40
0.0
  0
LTYPE
  5
13
100
AcDbSymbolTableRecord
100
AcDbLinetypeTableRecord
  2
Continuous
 70
    64
  3
Solid line
 72
    65
 73
     0
 40
0.0
  0
LTYPE
  5
23
100
AcDbSymbolTableRecord
100
AcDbLinetypeTableRecord
  2
DASHED
 70
    64
  3
__ __ __ __ __
 72
    65
 73
     2
 40
6.25
 49
5.0
 74
     0
 49
-1.25
 74
     0
  0
LTYPE
  5
31
100
AcDbSymbolTableRecord
100
AcDbLinetypeTableRecord
  2
DASHDOT
 70
    64
  3
__ . __ . __ . __ . __
 72
    65
 73
     4
 40
7.5
 49
5.0
 74
     0
 49
-1.25
 74
     0
 49
0.0
 74
     0
 49
-1.25
 74
     0
  0
LTYPE
  5
175
100
AcDbSymbolTableRecord
100
AcDbLinetypeTableRecord
  2
CENTER
 70
    64
  3
__ . __ . __ . __ . __
 72
    65
 73
     4
 40
7.5
 49
5.0
 74
     0
 49
-1.25
 74
     0
 49
0.0
 74
     0
 49
-1.25
 74
     0
  0
ENDTAB
  0
TABLE
  2
LAYER
  5
2
100
AcDbSymbolTable
 70
    14
  0
LAYER
  5
14
100
AcDbSymbolTableRecord
100
AcDbLayerTableRecord
  2
0
 70
     0
 62
     7
  6
Continuous
290
     1
370
    -3
390
1D
  0
LAYER
  5
24
100
AcDbSymbolTableRecord
100
AcDbLayerTableRecord
  2
LC-INFO-1-2-mm-A3-0
 70
     1
 62
   255
  6
ByBlock
290
     1
370
    -3
390
1D
  0
LAYER
  5
25
100
AcDbSymbolTableRecord
100
AcDbLayerTableRecord
  2
LC-3D-HIDDEN
 70
     0
 62
     9
  6
DASHED
290
     1
370
    -3
390
1D
  0
LAYER
  5
26
100
AcDbSymbolTableRecord
100
AcDbLayerTableRecord
  2
LC-CUT-HIDDEN
 70
     0
 62
     9
  6
DASHED
290
     1
370
    -3
390
1D
  0
LAYER
  5
27
100
AcDbSymbolTableRecord
100
AcDbLayerTableRecord
  2
LC-VIEWPORT
 70
     0
 62
     7
  6
ByBlock
290
     1
370
    -3
390
1D
  0
LAYER
  5
2A
100
AcDbSymbolTableRecord
100
AcDbLayerTableRecord
  2
LC-001-002-RND-0
 70
     0
 62
     1
  6
ByBlock
290
     1
370
    -3
390
1D
  0
LAYER
  5
2C
100
AcDbSymbolTableRecord
100
AcDbLayerTableRecord
  2
LC-002-002-----0
 70
     0
 62
     1
  6
ByBlock
290
     1
370
    -3
390
1D
  0
LAYER
  5
3C
100
AcDbSymbolTableRecord
100
AcDbLayerTableRecord
  2
LC-003-003-MTH-0
 70
     0
 62
     2
  6
ByBlock
290
     1
370
    -3
390
1D
  0
LAYER
  5
3F
100
AcDbSymbolTableRecord
100
AcDbLayerTableRecord
  2
LC-004-003-----0
 70
     0
 62
     2
  6
ByBlock
290
     1
370
    -3
390
1D
  0
LAYER
  5
52
100
AcDbSymbolTableRecord
100
AcDbLayerTableRecord
  2
LC-005-003-MTG-0
 70
     0
 62
     2
  6
ByBlock
290
     1
370
    -3
390
1D
  0
LAYER
  5
AF
100
AcDbSymbolTableRecord
100
AcDbLayerTableRecord
  2
LC-006-001-----0
 70
     0
 62
     1
  6
ByBlock
290
     1
370
    -3
390
1D
  0
LAYER
  5
176
100
AcDbSymbolTableRecord
100
AcDbLayerTableRecord
  2
LC-007-006-MLN-0
 70
     0
 62
     2
  6
CENTER
290
     1
370
    -3
390
1D
  0
LAYER
  5
1D7
100
AcDbSymbolTableRecord
100
AcDbLayerTableRecord
  2
LC-008-005-----0
 70
     0
 62
     2
  6
ByBlock
290
     1
370
    -3
390
1D
  0
LAYER
  5
2E3
100
AcDbSymbolTableRecord
100
AcDbLayerTableRecord
  2
LC-009-002-___-0
 70
     0
 62
     2
  6
DASHED
290
     1
370
    -3
390
1D
  0
ENDTAB
  0
TABLE
  2
STYLE
  5
3
100
AcDbSymbolTable
 70
     3
  0
STYLE
  5
17
100
AcDbSymbolTableRecord
100
AcDbTextStyleTableRecord
  2
Standard
 70
     0
 40
0.0
 41
1.0
 50
0.0
 71
     0
 42
0.0
  3
txt
  4

  0
STYLE
  5
29
100
AcDbSymbolTableRecord
100
AcDbTextStyleTableRecord
  2
LCTX15-400-0-0-ARIAL
 70
    64
 40
3.5
 41
1.0
 50
0.0
 71
     0
 42
0.0
  3
Arial
  4

1001
ACAD
1000
Arial
1071
 16777216
  0
STYLE
  5
39
100
AcDbSymbolTableRecord
100
AcDbTextStyleTableRecord
  2
LCTX15-400-0-0-DIN-SCHRIFTP
 70
    64
 40
0.0
 41
1.0
 50
1.5
 71
     0
 42
3.5
  3
STANDARD
  4

  0
ENDTAB
  0
TABLE
  2
VIEW
  5
5
100
AcDbSymbolTable
 70
     0
  0
ENDTAB
  0
TABLE
  2
UCS
  5
6
100
AcDbSymbolTable
 70
     0
  0
ENDTAB
  0
TABLE
  2
APPID
  5
8
100
AcDbSymbolTable
 70
     1
  0
APPID
  5
16
100
AcDbSymbolTableRecord
100
AcDbRegAppTableRecord
  2
ACAD
 70
     0
  0
ENDTAB
  0
TABLE
  2
DIMSTYLE
  5
9
100
AcDbSymbolTable
 70
     2
100
AcDbDimStyleTable
 71
     0
  0
DIMSTYLE
105
18
100
AcDbSymbolTableRecord
100
AcDbDimStyleTableRecord
  2
Standard
 70
     0
  3

  4

 40
1.0
 41
0.18
 42
0.0625
 43
0.38
 44
0.18
 45
0.0
 46
0.0
 47
0.0
 48
0.0
 71
     0
 72
     0
 73
     1
 74
     1
 75
     0
 76
     0
 77
     0
 78
     0
 79
     0
140
0.18
141
0.09
142
0.0
143
25.4
144
1.0
145
0.0
146
1.0
147
0.09
148
0.0
170
     0
171
     2
172
     0
173
     0
174
     0
175
     0
176
     0
177
     0
178
     0
179
     0
271
     4
272
     4
273
     2
274
     2
275
     0
276
     0
277
     2
278
    46
279
     0
280
     0
281
     0
282
     0
283
     1
284
     0
285
     0
286
     0
288
     0
289
     0
340
17
341
0
342
0
343
0
344
0
371
    -2
372
    -2
  0
DIMSTYLE
105
38
100
AcDbSymbolTableRecord
100
AcDbDimStyleTableRecord
  2
LC-DIM-L-0140-02-02
 70
     0
  3

  4

 40
2.0
 41
3.5
 42
0.0
 43
7.5
 44
1.8
 45
0.0
 46
0.0
 47
0.0
 48
0.0
 71
     0
 72
     0
 73
     0
 74
     0
 75
     0
 76
     0
 77
     1
 78
     8
 79
     0
140
14.0
141
0.0
142
0.0
143
25.4
144
1.0
145
0.0
146
0.71
147
1.5
148
0.0
170
     0
171
     2
172
     0
173
     0
174
     0
175
     0
176
     2
177
     2
178
     2
179
     2
271
     2
272
     4
273
     2
274
     2
275
     0
276
     0
277
     2
278
    44
279
     0
280
     0
281
     0
282
     0
283
     1
284
     0
285
     0
286
     0
288
     0
289
     0
340
39
341
0
342
0
343
0
344
0
371
    -3
372
     0
  0
ENDTAB
  0
TABLE
  2
BLOCK_RECORD
  5
1
100
AcDbSymbolTable
 70
    14
  0
BLOCK_RECORD
  5
A
100
AcDbSymbolTableRecord
100
AcDbBlockTableRecord
  2
*MODEL_SPACE
340
20
  0
BLOCK_RECORD
  5
B
100
AcDbSymbolTableRecord
100
AcDbBlockTableRecord
  2
*PAPER_SPACE
340
21
  0
BLOCK_RECORD
  5
3A
100
AcDbSymbolTableRecord
100
AcDbBlockTableRecord
  2
*D0
340
0
  0
BLOCK_RECORD
  5
80
100
AcDbSymbolTableRecord
100
AcDbBlockTableRecord
  2
*D1
340
0
  0
BLOCK_RECORD
  5
10A
100
AcDbSymbolTableRecord
100
AcDbBlockTableRecord
  2
*D2
340
0
  0
BLOCK_RECORD
  5
125
100
AcDbSymbolTableRecord
100
AcDbBlockTableRecord
  2
*D3
340
0
  0
BLOCK_RECORD
  5
140
100
AcDbSymbolTableRecord
100
AcDbBlockTableRecord
  2
*D4
340
0
  0
BLOCK_RECORD
  5
1D5
100
AcDbSymbolTableRecord
100
AcDbBlockTableRecord
  2
*X5
340
0
102
{BLKREFS
331
1DD
102
}
  0
BLOCK_RECORD
  5
251
100
AcDbSymbolTableRecord
100
AcDbBlockTableRecord
  2
*D6
340
0
  0
BLOCK_RECORD
  5
2BA
100
AcDbSymbolTableRecord
100
AcDbBlockTableRecord
  2
*X7
340
0
102
{BLKREFS
331
2C1
102
}
  0
BLOCK_RECORD
  5
2C3
100
AcDbSymbolTableRecord
100
AcDbBlockTableRecord
  2
*X8
340
0
102
{BLKREFS
331
2CA
102
}
  0
BLOCK_RECORD
  5
333
100
AcDbSymbolTableRecord
100
AcDbBlockTableRecord
  2
*X9
340
0
102
{BLKREFS
331
339
102
}
  0
BLOCK_RECORD
  5
47A
100
AcDbSymbolTableRecord
100
AcDbBlockTableRecord
  2
*X10
340
0
102
{BLKREFS
331
481
102
}
  0
BLOCK_RECORD
  5
485
100
AcDbSymbolTableRecord
100
AcDbBlockTableRecord
  2
*D11
340
0
  0
BLOCK_RECORD
  5
4A8
100
AcDbSymbolTableRecord
100
AcDbBlockTableRecord
  2
*D12
340
0
  0
BLOCK_RECORD
  5
4CD
100
AcDbSymbolTableRecord
100
AcDbBlockTableRecord
  2
*D13
340
0
  0
ENDTAB
  0
ENDSEC
  0
SECTION
  2
BLOCKS
  0
BLOCK
  5
D
100
AcDbEntity
  8
0
390
0
100
AcDbBlockBegin
  2
*MODEL_SPACE
 70
     0
 10
0.0
 20
0.0
 30
0.0
  3
*MODEL_SPACE
  1

  0
ENDBLK
  5
E
100
AcDbEntity
  8
0
390
0
100
AcDbBlockEnd
  0
BLOCK
  5
F
100
AcDbEntity
 67
     1
  8
0
390
0
100
AcDbBlockBegin
  2
*PAPER_SPACE
 70
     0
 10
0.0
 20
0.0
 30
0.0
  3
*PAPER_SPACE
  1

  0
ENDBLK
  5
10
100
AcDbEntity
 67
     1
  8
0
390
0
100
AcDbBlockEnd
  0
BLOCK
  5
3B
100
AcDbEntity
  8
0
390
0
100
AcDbBlockBegin
  2
*D0
 70
    65
 10
0.0
 20
0.0
 30
0.0
  3
*D0
  1

  0
LINE
  5
3D
100
AcDbEntity
  8
LC-003-003-MTH-0
370
    25
390
0
 62
     2
100
AcDbLine
 10
157.911234
 20
178.022548
 30
0.0
 11
157.911234
 21
55.2
 31
0.0
  0
LINE
  5
3E
100
AcDbEntity
  8
LC-003-003-MTH-0
370
    25
390
0
 62
     2
100
AcDbLine
 10
197.911234
 20
178.197992
 30
0.0
 11
197.911234
 21
55.2
 31
0.0
  0
LINE
  5
40
100
AcDbEntity
  8
LC-004-003-----0
370
    25
390
0
 62
     2
100
AcDbLine
 10
130.150778
 20
68.345267
 30
0.0
 11
157.911234
 21
72.0
 31
0.0
  0
LINE
  5
41
100
AcDbEntity
  8
LC-004-003-----0
370
    25
390
0
 62
     2
100
AcDbLine
 10
157.911234
 20
72.0
 30
0.0
 11
130.150778
 21
75.654733
 31
0.0
  0
LINE
  5
42
100
AcDbEntity
  8
LC-004-003-----0
370
    25
390
0
 62
     2
100
AcDbLine
 10
130.150778
 20
75.654733
 30
0.0
 11
130.150778
 21
68.345267
 31
0.0
  0
LINE
  5
43
100
AcDbEntity
  8
LC-004-003-----0
370
    25
390
0
 62
     2
100
AcDbLine
 10
130.088497
 20
69.295497
 30
0.0
 11
150.631234
 21
72.0
 31
0.0
  0
LINE
  5
44
100
AcDbEntity
  8
LC-004-003-----0
370
    25
390
0
 62
     2
100
AcDbLine
 10
150.631234
 20
72.0
 30
0.0
 11
130.088497
 21
74.704503
 31
0.0
  0
LINE
  5
45
100
AcDbEntity
  8
LC-004-003-----0
370
    25
390
0
 62
     2
100
AcDbLine
 10
130.026216
 20
70.245728
 30
0.0
 11
143.351234
 21
72.0
 31
0.0
  0
LINE
  5
46
100
AcDbEntity
  8
LC-004-003-----0
370
    25
390
0
 62
     2
100
AcDbLine
 10
143.351234
 20
72.0
 30
0.0
 11
130.026216
 21
73.754272
 31
0.0
  0
LINE
  5
47
100
AcDbEntity
  8
LC-004-003-----0
370
    25
390
0
 62
     2
100
AcDbLine
 10
129.963934
 20
71.195959
 30
0.0
 11
136.071234
 21
72.0
 31
0.0
  0
LINE
  5
48
100
AcDbEntity
  8
LC-004-003-----0
370
    25
390
0
 62
     2
100
AcDbLine
 10
136.071234
 20
72.0
 30
0.0
 11
129.963934
 21
72.804041
 31
0.0
  0
LINE
  5
49
100
AcDbEntity
  8
LC-004-003-----0
370
    25
390
0
 62
     2
100
AcDbLine
 10
225.671691
 20
75.654733
 30
0.0
 11
197.911234
 21
72.0
 31
0.0
  0
LINE
  5
4A
100
AcDbEntity
  8
LC-004-003-----0
370
    25
390
0
 62
     2
100
AcDbLine
 10
197.911234
 20
72.0
 30
0.0
 11
225.671691
 21
68.345267
 31
0.0
  0
LINE
  5
4B
100
AcDbEntity
  8
LC-004-003-----0
370
    25
390
0
 62
     2
100
AcDbLine
 10
225.671691
 20
68.345267
 30
0.0
 11
225.671691
 21
75.654733
 31
0.0
  0
LINE
  5
4C
100
AcDbEntity
  8
LC-004-003-----0
370
    25
390
0
 62
     2
100
AcDbLine
 10
225.733972
 20
74.704503
 30
0.0
 11
205.191234
 21
72.0
 31
0.0
  0
LINE
  5
4D
100
AcDbEntity
  8
LC-004-003-----0
370
    25
390
0
 62
     2
100
AcDbLine
 10
205.191234
 20
72.0
 30
0.0
 11
225.733972
 21
69.295497
 31
0.0
  0
LINE
  5
4E
100
AcDbEntity
  8
LC-004-003-----0
370
    25
390
0
 62
     2
100
AcDbLine
 10
225.796253
 20
73.754272
 30
0.0
 11
212.471234
 21
72.0
 31
0.0
  0
LINE
  5
4F
100
AcDbEntity
  8
LC-004-003-----0
370
    25
390
0
 62
     2
100
AcDbLine
 10
212.471234
 20
72.0
 30
0.0
 11
225.796253
 21
70.245728
 31
0.0
  0
LINE
  5
50
100
AcDbEntity
  8
LC-004-003-----0
370
    25
390
0
 62
     2
100
AcDbLine
 10
225.858535
 20
72.804041
 30
0.0
 11
219.751234
 21
72.0
 31
0.0
  0
LINE
  5
51
100
AcDbEntity
  8
LC-004-003-----0
370
    25
390
0
 62
     2
100
AcDbLine
 10
219.751234
 20
72.0
 30
0.0
 11
225.858535
 21
71.195959
 31
0.0
  0
LINE
  5
53
100
AcDbEntity
  8
LC-005-003-MTG-0
370
    25
390
0
 62
     2
100
AcDbLine
 10
118.711234
 20
72.0
 30
0.0
 11
329.959234
 21
72.0
 31
0.0
  0
TEXT
  5
54
100
AcDbEntity
  8
LC-004-003-----0
370
    -2
390
0
 62
     7
100
AcDbText
 10
241.459394
 20
79.827554
 30
0.0
 40
28.0
  1
DN40
 41
0.9
 51
15.0
  7
LCTX15-400-0-0-ARIAL
100
AcDbText
  0
ENDBLK
  5
55
100
AcDbEntity
  8
0
390
0
100
AcDbBlockEnd
  0
BLOCK
  5
81
100
AcDbEntity
  8
0
390
0
100
AcDbBlockBegin
  2
*D1
 70
    65
 10
0.0
 20
0.0
 30
0.0
  3
*D1
  1

  0
LINE
  5
82
100
AcDbEntity
  8
LC-003-003-MTH-0
370
    25
390
0
 62
     2
100
AcDbLine
 10
152.911234
 20
125.197992
 30
0.0
 11
152.911234
 21
19.2
 31
0.0
  0
LINE
  5
83
100
AcDbEntity
  8
LC-003-003-MTH-0
370
    25
390
0
 62
     2
100
AcDbLine
 10
202.911234
 20
125.197992
 30
0.0
 11
202.911234
 21
19.2
 31
0.0
  0
LINE
  5
84
100
AcDbEntity
  8
LC-004-003-----0
370
    25
390
0
 62
     2
100
AcDbLine
 10
125.150778
 20
32.345267
 30
0.0
 11
152.911234
 21
36.0
 31
0.0
  0
LINE
  5
85
100
AcDbEntity
  8
LC-004-003-----0
370
    25
390
0
 62
     2
100
AcDbLine
 10
152.911234
 20
36.0
 30
0.0
 11
125.150778
 21
39.654733
 31
0.0
  0
LINE
  5
86
100
AcDbEntity
  8
LC-004-003-----0
370
    25
390
0
 62
     2
100
AcDbLine
 10
125.150778
 20
39.654733
 30
0.0
 11
125.150778
 21
32.345267
 31
0.0
  0
LINE
  5
87
100
AcDbEntity
  8
LC-004-003-----0
370
    25
390
0
 62
     2
100
AcDbLine
 10
125.088497
 20
33.295497
 30
0.0
 11
145.631234
 21
36.0
 31
0.0
  0
LINE
  5
88
100
AcDbEntity
  8
LC-004-003-----0
370
    25
390
0
 62
     2
100
AcDbLine
 10
145.631234
 20
36.0
 30
0.0
 11
125.088497
 21
38.704503
 31
0.0
  0
LINE
  5
89
100
AcDbEntity
  8
LC-004-003-----0
370
    25
390
0
 62
     2
100
AcDbLine
 10
125.026216
 20
34.245728
 30
0.0
 11
138.351234
 21
36.0
 31
0.0
  0
LINE
  5
8A
100
AcDbEntity
  8
LC-004-003-----0
370
    25
390
0
 62
     2
100
AcDbLine
 10
138.351234
 20
36.0
 30
0.0
 11
125.026216
 21
37.754272
 31
0.0
  0
LINE
  5
8B
100
AcDbEntity
  8
LC-004-003-----0
370
    25
390
0
 62
     2
100
AcDbLine
 10
124.963934
 20
35.195959
 30
0.0
 11
131.071234
 21
36.0
 31
0.0
  0
LINE
  5
8C
100
AcDbEntity
  8
LC-004-003-----0
370
    25
390
0
 62
     2
100
AcDbLine
 10
131.071234
 20
36.0
 30
0.0
 11
124.963934
 21
36.804041
 31
0.0
  0
LINE
  5
8D
100
AcDbEntity
  8
LC-004-003-----0
370
    25
390
0
 62
     2
100
AcDbLine
 10
230.671691
 20
39.654733
 30
0.0
 11
202.911234
 21
36.0
 31
0.0
  0
LINE
  5
8E
100
AcDbEntity
  8
LC-004-003-----0
370
    25
390
0
 62
     2
100
AcDbLine
 10
202.911234
 20
36.0
 30
0.0
 11
230.671691
 21
32.345267
 31
0.0
  0
LINE
  5
8F
100
AcDbEntity
  8
LC-004-003-----0
370
    25
390
0
 62
     2
100
AcDbLine
 10
230.671691
 20
32.345267
 30
0.0
 11
230.671691
 21
39.654733
 31
0.0
  0
LINE
  5
90
100
AcDbEntity
  8
LC-004-003-----0
370
    25
390
0
 62
     2
100
AcDbLine
 10
230.733972
 20
38.704503
 30
0.0
 11
210.191234
 21
36.0
 31
0.0
  0
LINE
  5
91
100
AcDbEntity
  8
LC-004-003-----0
370
    25
390
0
 62
     2
100
AcDbLine
 10
210.191234
 20
36.0
 30
0.0
 11
230.733972
 21
33.295497
 31
0.0
  0
LINE
  5
92
100
AcDbEntity
  8
LC-004-003-----0
370
    25
390
0
 62
     2
100
AcDbLine
 10
230.796253
 20
37.754272
 30
0.0
 11
217.471234
 21
36.0
 31
0.0
  0
LINE
  5
93
100
AcDbEntity
  8
LC-004-003-----0
370
    25
390
0
 62
     2
100
AcDbLine
 10
217.471234
 20
36.0
 30
0.0
 11
230.796253
 21
34.245728
 31
0.0
  0
LINE
  5
94
100
AcDbEntity
  8
LC-004-003-----0
370
    25
390
0
 62
     2
100
AcDbLine
 10
230.858535
 20
36.804041
 30
0.0
 11
224.751234
 21
36.0
 31
0.0
  0
LINE
  5
95
100
AcDbEntity
  8
LC-004-003-----0
370
    25
390
0
 62
     2
100
AcDbLine
 10
224.751234
 20
36.0
 30
0.0
 11
230.858535
 21
35.195959
 31
0.0
  0
LINE
  5
96
100
AcDbEntity
  8
LC-005-003-MTG-0
370
    25
390
0
 62
     2
100
AcDbLine
 10
113.711234
 20
36.0
 30
0.0
 11
334.959234
 21
36.0
 31
0.0
  0
TEXT
  5
97
100
AcDbEntity
  8
LC-004-003-----0
370
    -2
390
0
 62
     7
100
AcDbText
 10
246.459394
 20
43.827554
 30
0.0
 40
28.0
  1
DN50
 41
0.9
 51
15.0
  7
LCTX15-400-0-0-ARIAL
100
AcDbText
  0
ENDBLK
  5
98
100
AcDbEntity
  8
0
390
0
100
AcDbBlockEnd
  0
BLOCK
  5
10B
100
AcDbEntity
  8
0
390
0
100
AcDbBlockBegin
  2
*D2
 70
    65
 10
0.0
 20
0.0
 30
0.0
  3
*D2
  1

  0
LINE
  5
10C
100
AcDbEntity
  8
LC-003-003-MTH-0
370
    25
390
0
 62
     2
100
AcDbLine
 10
115.071425
 20
269.698719
 30
0.0
 11
115.071425
 21
199.2
 31
0.0
  0
LINE
  5
10D
100
AcDbEntity
  8
LC-003-003-MTH-0
370
    25
390
0
 62
     2
100
AcDbLine
 10
215.411234
 20
263.412029
 30
0.0
 11
215.411234
 21
199.2
 31
0.0
  0
LINE
  5
10E
100
AcDbEntity
  8
LC-004-003-----0
370
    25
390
0
 62
     2
100
AcDbLine
 10
87.310969
 20
212.345267
 30
0.0
 11
115.071425
 21
216.0
 31
0.0
  0
LINE
  5
10F
100
AcDbEntity
  8
LC-004-003-----0
370
    25
390
0
 62
     2
100
AcDbLine
 10
115.071425
 20
216.0
 30
0.0
 11
87.310969
 21
219.654733
 31
0.0
  0
LINE
  5
110
100
AcDbEntity
  8
LC-004-003-----0
370
    25
390
0
 62
     2
100
AcDbLine
 10
87.310969
 20
219.654733
 30
0.0
 11
87.310969
 21
212.345267
 31
0.0
  0
LINE
  5
111
100
AcDbEntity
  8
LC-004-003-----0
370
    25
390
0
 62
     2
100
AcDbLine
 10
87.248688
 20
213.295497
 30
0.0
 11
107.791425
 21
216.0
 31
0.0
  0
LINE
  5
112
100
AcDbEntity
  8
LC-004-003-----0
370
    25
390
0
 62
     2
100
AcDbLine
 10
107.791425
 20
216.0
 30
0.0
 11
87.248688
 21
218.704503
 31
0.0
  0
LINE
  5
113
100
AcDbEntity
  8
LC-004-003-----0
370
    25
390
0
 62
     2
100
AcDbLine
 10
87.186406
 20
214.245728
 30
0.0
 11
100.511425
 21
216.0
 31
0.0
  0
LINE
  5
114
100
AcDbEntity
  8
LC-004-003-----0
370
    25
390
0
 62
     2
100
AcDbLine
 10
100.511425
 20
216.0
 30
0.0
 11
87.186406
 21
217.754272
 31
0.0
  0
LINE
  5
115
100
AcDbEntity
  8
LC-004-003-----0
370
    25
390
0
 62
     2
100
AcDbLine
 10
87.124125
 20
215.195959
 30
0.0
 11
93.231425
 21
216.0
 31
0.0
  0
LINE
  5
116
100
AcDbEntity
  8
LC-004-003-----0
370
    25
390
0
 62
     2
100
AcDbLine
 10
93.231425
 20
216.0
 30
0.0
 11
87.124125
 21
216.804041
 31
0.0
  0
LINE
  5
117
100
AcDbEntity
  8
LC-004-003-----0
370
    25
390
0
 62
     2
100
AcDbLine
 10
243.171691
 20
219.654733
 30
0.0
 11
215.411234
 21
216.0
 31
0.0
  0
LINE
  5
118
100
AcDbEntity
  8
LC-004-003-----0
370
    25
390
0
 62
     2
100
AcDbLine
 10
215.411234
 20
216.0
 30
0.0
 11
243.171691
 21
212.345267
 31
0.0
  0
LINE
  5
119
100
AcDbEntity
  8
LC-004-003-----0
370
    25
390
0
 62
     2
100
AcDbLine
 10
243.171691
 20
212.345267
 30
0.0
 11
243.171691
 21
219.654733
 31
0.0
  0
LINE
  5
11A
100
AcDbEntity
  8
LC-004-003-----0
370
    25
390
0
 62
     2
100
AcDbLine
 10
243.233972
 20
218.704503
 30
0.0
 11
222.691234
 21
216.0
 31
0.0
  0
LINE
  5
11B
100
AcDbEntity
  8
LC-004-003-----0
370
    25
390
0
 62
     2
100
AcDbLine
 10
222.691234
 20
216.0
 30
0.0
 11
243.233972
 21
213.295497
 31
0.0
  0
LINE
  5
11C
100
AcDbEntity
  8
LC-004-003-----0
370
    25
390
0
 62
     2
100
AcDbLine
 10
243.296253
 20
217.754272
 30
0.0
 11
229.971234
 21
216.0
 31
0.0
  0
LINE
  5
11D
100
AcDbEntity
  8
LC-004-003-----0
370
    25
390
0
 62
     2
100
AcDbLine
 10
229.971234
 20
216.0
 30
0.0
 11
243.296253
 21
214.245728
 31
0.0
  0
LINE
  5
11E
100
AcDbEntity
  8
LC-004-003-----0
370
    25
390
0
 62
     2
100
AcDbLine
 10
243.358535
 20
216.804041
 30
0.0
 11
237.251234
 21
216.0
 31
0.0
  0
LINE
  5
11F
100
AcDbEntity
  8
LC-004-003-----0
370
    25
390
0
 62
     2
100
AcDbLine
 10
237.251234
 20
216.0
 30
0.0
 11
243.358535
 21
215.195959
 31
0.0
  0
LINE
  5
120
100
AcDbEntity
  8
LC-005-003-MTG-0
370
    25
390
0
 62
     2
100
AcDbLine
 10
-34.728575
 20
216.0
 30
0.0
 11
254.611234
 21
216.0
 31
0.0
  0
TEXT
  5
121
100
AcDbEntity
  8
LC-004-003-----0
370
    -2
390
0
 62
     7
100
AcDbText
 10
-19.180415
 20
223.827554
 30
0.0
 40
28.0
  1
73-120
 41
0.9
 51
15.0
  7
LCTX15-400-0-0-ARIAL
 72
     2
 11
80.219585
 21
223.827554
 31
0.0
100
AcDbText
  0
ENDBLK
  5
122
100
AcDbEntity
  8
0
390
0
100
AcDbBlockEnd
  0
BLOCK
  5
126
100
AcDbEntity
  8
0
390
0
100
AcDbBlockBegin
  2
*D3
 70
    65
 10
0.0
 20
0.0
 30
0.0
  3
*D3
  1

  0
LINE
  5
127
100
AcDbEntity
  8
LC-003-003-MTH-0
370
    25
390
0
 62
     2
100
AcDbLine
 10
364.64376
 20
424.450042
 30
0.0
 11
364.64376
 21
448.0
 31
0.0
  0
LINE
  5
128
100
AcDbEntity
  8
LC-003-003-MTH-0
370
    25
390
0
 62
     2
100
AcDbLine
 10
444.64376
 20
372.197992
 30
0.0
 11
444.64376
 21
448.0
 31
0.0
  0
LINE
  5
129
100
AcDbEntity
  8
LC-005-003-MTG-0
370
    25
390
0
 62
     2
100
AcDbLine
 10
364.64376
 20
431.2
 30
0.0
 11
444.64376
 21
431.2
 31
0.0
  0
LINE
  5
12A
100
AcDbEntity
  8
LC-004-003-----0
370
    25
390
0
 62
     2
100
AcDbLine
 10
392.404217
 20
434.854733
 30
0.0
 11
364.64376
 21
431.2
 31
0.0
  0
LINE
  5
12B
100
AcDbEntity
  8
LC-004-003-----0
370
    25
390
0
 62
     2
100
AcDbLine
 10
364.64376
 20
431.2
 30
0.0
 11
392.404217
 21
427.545267
 31
0.0
  0
LINE
  5
12C
100
AcDbEntity
  8
LC-004-003-----0
370
    25
390
0
 62
     2
100
AcDbLine
 10
392.404217
 20
427.545267
 30
0.0
 11
392.404217
 21
434.854733
 31
0.0
  0
LINE
  5
12D
100
AcDbEntity
  8
LC-004-003-----0
370
    25
390
0
 62
     2
100
AcDbLine
 10
392.466498
 20
433.904503
 30
0.0
 11
371.92376
 21
431.2
 31
0.0
  0
LINE
  5
12E
100
AcDbEntity
  8
LC-004-003-----0
370
    25
390
0
 62
     2
100
AcDbLine
 10
371.92376
 20
431.2
 30
0.0
 11
392.466498
 21
428.495497
 31
0.0
  0
LINE
  5
12F
100
AcDbEntity
  8
LC-004-003-----0
370
    25
390
0
 62
     2
100
AcDbLine
 10
392.528779
 20
432.954272
 30
0.0
 11
379.20376
 21
431.2
 31
0.0
  0
LINE
  5
130
100
AcDbEntity
  8
LC-004-003-----0
370
    25
390
0
 62
     2
100
AcDbLine
 10
379.20376
 20
431.2
 30
0.0
 11
392.528779
 21
429.445728
 31
0.0
  0
LINE
  5
131
100
AcDbEntity
  8
LC-004-003-----0
370
    25
390
0
 62
     2
100
AcDbLine
 10
392.591061
 20
432.004041
 30
0.0
 11
386.48376
 21
431.2
 31
0.0
  0
LINE
  5
132
100
AcDbEntity
  8
LC-004-003-----0
370
    25
390
0
 62
     2
100
AcDbLine
 10
386.48376
 20
431.2
 30
0.0
 11
392.591061
 21
430.395959
 31
0.0
  0
LINE
  5
133
100
AcDbEntity
  8
LC-004-003-----0
370
    25
390
0
 62
     2
100
AcDbLine
 10
416.883304
 20
427.545267
 30
0.0
 11
444.64376
 21
431.2
 31
0.0
  0
LINE
  5
134
100
AcDbEntity
  8
LC-004-003-----0
370
    25
390
0
 62
     2
100
AcDbLine
 10
444.64376
 20
431.2
 30
0.0
 11
416.883304
 21
434.854733
 31
0.0
  0
LINE
  5
135
100
AcDbEntity
  8
LC-004-003-----0
370
    25
390
0
 62
     2
100
AcDbLine
 10
416.883304
 20
434.854733
 30
0.0
 11
416.883304
 21
427.545267
 31
0.0
  0
LINE
  5
136
100
AcDbEntity
  8
LC-004-003-----0
370
    25
390
0
 62
     2
100
AcDbLine
 10
416.821023
 20
428.495497
 30
0.0
 11
437.36376
 21
431.2
 31
0.0
  0
LINE
  5
137
100
AcDbEntity
  8
LC-004-003-----0
370
    25
390
0
 62
     2
100
AcDbLine
 10
437.36376
 20
431.2
 30
0.0
 11
416.821023
 21
433.904503
 31
0.0
  0
LINE
  5
138
100
AcDbEntity
  8
LC-004-003-----0
370
    25
390
0
 62
     2
100
AcDbLine
 10
416.758741
 20
429.445728
 30
0.0
 11
430.08376
 21
431.2
 31
0.0
  0
LINE
  5
139
100
AcDbEntity
  8
LC-004-003-----0
370
    25
390
0
 62
     2
100
AcDbLine
 10
430.08376
 20
431.2
 30
0.0
 11
416.758741
 21
432.954272
 31
0.0
  0
LINE
  5
13A
100
AcDbEntity
  8
LC-004-003-----0
370
    25
390
0
 62
     2
100
AcDbLine
 10
416.69646
 20
430.395959
 30
0.0
 11
422.80376
 21
431.2
 31
0.0
  0
LINE
  5
13B
100
AcDbEntity
  8
LC-004-003-----0
370
    25
390
0
 62
     2
100
AcDbLine
 10
422.80376
 20
431.2
 30
0.0
 11
416.69646
 21
432.004041
 31
0.0
  0
TEXT
  5
13C
100
AcDbEntity
  8
LC-004-003-----0
370
    -2
390
0
 62
     7
100
AcDbText
 10
397.082646
 20
439.027554
 30
0.0
 40
28.0
  1
80
 41
0.9
 51
15.0
  7
LCTX15-400-0-0-ARIAL
 72
     1
 11
414.834646
 21
439.027554
 31
0.0
100
AcDbText
  0
ENDBLK
  5
13D
100
AcDbEntity
  8
0
390
0
100
AcDbBlockEnd
  0
BLOCK
  5
141
100
AcDbEntity
  8
0
390
0
100
AcDbBlockBegin
  2
*D4
 70
    65
 10
0.0
 20
0.0
 30
0.0
  3
*D4
  1

  0
LINE
  5
142
100
AcDbEntity
  8
LC-003-003-MTH-0
370
    25
390
0
 62
     2
100
AcDbLine
 10
420.581583
 20
121.697992
 30
0.0
 11
235.2
 21
121.697992
 31
0.0
  0
LINE
  5
143
100
AcDbEntity
  8
LC-003-003-MTH-0
370
    25
390
0
 62
     2
100
AcDbLine
 10
261.945906
 20
314.697992
 30
0.0
 11
235.2
 21
314.697992
 31
0.0
  0
LINE
  5
144
100
AcDbEntity
  8
LC-005-003-MTG-0
370
    25
390
0
 62
     2
100
AcDbLine
 10
252.0
 20
121.697992
 30
0.0
 11
252.0
 21
314.697992
 31
0.0
  0
LINE
  5
145
100
AcDbEntity
  8
LC-004-003-----0
370
    25
390
0
 62
     2
100
AcDbLine
 10
248.345267
 20
149.458448
 30
0.0
 11
252.0
 21
121.697992
 31
0.0
  0
LINE
  5
146
100
AcDbEntity
  8
LC-004-003-----0
370
    25
390
0
 62
     2
100
AcDbLine
 10
252.0
 20
121.697992
 30
0.0
 11
255.654733
 21
149.458448
 31
0.0
  0
LINE
  5
147
100
AcDbEntity
  8
LC-004-003-----0
370
    25
390
0
 62
     2
100
AcDbLine
 10
255.654733
 20
149.458448
 30
0.0
 11
248.345267
 21
149.458448
 31
0.0
  0
LINE
  5
148
100
AcDbEntity
  8
LC-004-003-----0
370
    25
390
0
 62
     2
100
AcDbLine
 10
249.295497
 20
149.52073
 30
0.0
 11
252.0
 21
128.977992
 31
0.0
  0
LINE
  5
149
100
AcDbEntity
  8
LC-004-003-----0
370
    25
390
0
 62
     2
100
AcDbLine
 10
252.0
 20
128.977992
 30
0.0
 11
254.704503
 21
149.52073
 31
0.0
  0
LINE
  5
14A
100
AcDbEntity
  8
LC-004-003-----0
370
    25
390
0
 62
     2
100
AcDbLine
 10
250.245728
 20
149.583011
 30
0.0
 11
252.0
 21
136.257992
 31
0.0
  0
LINE
  5
14B
100
AcDbEntity
  8
LC-004-003-----0
370
    25
390
0
 62
     2
100
AcDbLine
 10
252.0
 20
136.257992
 30
0.0
 11
253.754272
 21
149.583011
 31
0.0
  0
LINE
  5
14C
100
AcDbEntity
  8
LC-004-003-----0
370
    25
390
0
 62
     2
100
AcDbLine
 10
251.195959
 20
149.645293
 30
0.0
 11
252.0
 21
143.537992
 31
0.0
  0
LINE
  5
14D
100
AcDbEntity
  8
LC-004-003-----0
370
    25
390
0
 62
     2
100
AcDbLine
 10
252.0
 20
143.537992
 30
0.0
 11
252.804041
 21
149.645293
 31
0.0
  0
LINE
  5
14E
100
AcDbEntity
  8
LC-004-003-----0
370
    25
390
0
 62
     2
100
AcDbLine
 10
255.654733
 20
286.937536
 30
0.0
 11
252.0
 21
314.697992
 31
0.0
  0
LINE
  5
14F
100
AcDbEntity
  8
LC-004-003-----0
370
    25
390
0
 62
     2
100
AcDbLine
 10
252.0
 20
314.697992
 30
0.0
 11
248.345267
 21
286.937536
 31
0.0
  0
LINE
  5
150
100
AcDbEntity
  8
LC-004-003-----0
370
    25
390
0
 62
     2
100
AcDbLine
 10
248.345267
 20
286.937536
 30
0.0
 11
255.654733
 21
286.937536
 31
0.0
  0
LINE
  5
151
100
AcDbEntity
  8
LC-004-003-----0
370
    25
390
0
 62
     2
100
AcDbLine
 10
254.704503
 20
286.875255
 30
0.0
 11
252.0
 21
307.417992
 31
0.0
  0
LINE
  5
152
100
AcDbEntity
  8
LC-004-003-----0
370
    25
390
0
 62
     2
100
AcDbLine
 10
252.0
 20
307.417992
 30
0.0
 11
249.295497
 21
286.875255
 31
0.0
  0
LINE
  5
153
100
AcDbEntity
  8
LC-004-003-----0
370
    25
390
0
 62
     2
100
AcDbLine
 10
253.754272
 20
286.812973
 30
0.0
 11
252.0
 21
300.137992
 31
0.0
  0
LINE
  5
154
100
AcDbEntity
  8
LC-004-003-----0
370
    25
390
0
 62
     2
100
AcDbLine
 10
252.0
 20
300.137992
 30
0.0
 11
250.245728
 21
286.812973
 31
0.0
  0
LINE
  5
155
100
AcDbEntity
  8
LC-004-003-----0
370
    25
390
0
 62
     2
100
AcDbLine
 10
252.804041
 20
286.750692
 30
0.0
 11
252.0
 21
292.857992
 31
0.0
  0
LINE
  5
156
100
AcDbEntity
  8
LC-004-003-----0
370
    25
390
0
 62
     2
100
AcDbLine
 10
252.0
 20
292.857992
 30
0.0
 11
251.195959
 21
286.750692
 31
0.0
  0
TEXT
  5
157
100
AcDbEntity
  8
LC-004-003-----0
370
    -2
390
0
 62
     7
100
AcDbText
 10
244.172446
 20
224.78816
 30
0.0
 40
28.0
  1
193
 50
90.0
 41
0.9
 51
15.0
  7
LCTX15-400-0-0-ARIAL
 72
     1
 11
244.172446
 21
251.41616
 31
0.0
100
AcDbText
  0
ENDBLK
  5
158
100
AcDbEntity
  8
0
390
0
100
AcDbBlockEnd
  0
BLOCK
  5
1D6
100
AcDbEntity
  8
0
390
0
100
AcDbBlockBegin
  2
*X5
 70
    65
 10
0.0
 20
0.0
 30
0.0
  3
*X5
  1

  0
LINE
  5
1D8
100
AcDbEntity
  8
LC-008-005-----0
370
    25
390
0
 62
     2
100
AcDbLine
 10
364.820055
 20
387.541545
 30
0.0
 11
365.200334
 21
387.161267
 31
0.0
  0
LINE
  5
1D9
100
AcDbEntity
  8
LC-008-005-----0
370
    25
390
0
 62
     2
100
AcDbLine
 10
366.680611
 20
388.509417
 30
0.0
 11
370.708034
 21
384.481999
 31
0.0
  0
LINE
  5
1DA
100
AcDbEntity
  8
LC-008-005-----0
370
    25
390
0
 62
     2
100
AcDbLine
 10
368.541167
 20
389.477288
 30
0.0
 11
372.958242
 21
385.06022
 31
0.0
  0
LINE
  5
1DB
100
AcDbEntity
  8
LC-008-005-----0
370
    25
390
0
 62
     2
100
AcDbLine
 10
370.473014
 20
390.37387
 30
0.0
 11
374.06858
 21
386.778308
 31
0.0
  0
ENDBLK
  5
1DC
100
AcDbEntity
  8
0
390
0
100
AcDbBlockEnd
  0
BLOCK
  5
252
100
AcDbEntity
  8
0
390
0
100
AcDbBlockBegin
  2
*D6
 70
    65
 10
0.0
 20
0.0
 30
0.0
  3
*D6
  1

  0
LINE
  5
253
100
AcDbEntity
  8
LC-003-003-MTH-0
370
    25
390
0
 62
     2
100
AcDbLine
 10
57.069273
 20
313.70022
 30
0.0
 11
57.069273
 21
369.6
 31
0.0
  0
LINE
  5
254
100
AcDbEntity
  8
LC-003-003-MTH-0
370
    25
390
0
 62
     2
100
AcDbLine
 10
110.071425
 20
358.456078
 30
0.0
 11
110.071425
 21
336.0
 31
0.0
  0
LINE
  5
255
100
AcDbEntity
  8
LC-004-003-----0
370
    25
390
0
 62
     2
100
AcDbLine
 10
29.308816
 20
349.145267
 30
0.0
 11
57.069273
 21
352.8
 31
0.0
  0
LINE
  5
256
100
AcDbEntity
  8
LC-004-003-----0
370
    25
390
0
 62
     2
100
AcDbLine
 10
57.069273
 20
352.8
 30
0.0
 11
29.308816
 21
356.454733
 31
0.0
  0
LINE
  5
257
100
AcDbEntity
  8
LC-004-003-----0
370
    25
390
0
 62
     2
100
AcDbLine
 10
29.308816
 20
356.454733
 30
0.0
 11
29.308816
 21
349.145267
 31
0.0
  0
LINE
  5
258
100
AcDbEntity
  8
LC-004-003-----0
370
    25
390
0
 62
     2
100
AcDbLine
 10
29.246535
 20
350.095497
 30
0.0
 11
49.789273
 21
352.8
 31
0.0
  0
LINE
  5
259
100
AcDbEntity
  8
LC-004-003-----0
370
    25
390
0
 62
     2
100
AcDbLine
 10
49.789273
 20
352.8
 30
0.0
 11
29.246535
 21
355.504503
 31
0.0
  0
LINE
  5
25A
100
AcDbEntity
  8
LC-004-003-----0
370
    25
390
0
 62
     2
100
AcDbLine
 10
29.184254
 20
351.045728
 30
0.0
 11
42.509273
 21
352.8
 31
0.0
  0
LINE
  5
25B
100
AcDbEntity
  8
LC-004-003-----0
370
    25
390
0
 62
     2
100
AcDbLine
 10
42.509273
 20
352.8
 30
0.0
 11
29.184254
 21
354.554272
 31
0.0
  0
LINE
  5
25C
100
AcDbEntity
  8
LC-004-003-----0
370
    25
390
0
 62
     2
100
AcDbLine
 10
29.121972
 20
351.995959
 30
0.0
 11
35.229273
 21
352.8
 31
0.0
  0
LINE
  5
25D
100
AcDbEntity
  8
LC-004-003-----0
370
    25
390
0
 62
     2
100
AcDbLine
 10
35.229273
 20
352.8
 30
0.0
 11
29.121972
 21
353.604041
 31
0.0
  0
LINE
  5
25E
100
AcDbEntity
  8
LC-004-003-----0
370
    25
390
0
 62
     2
100
AcDbLine
 10
137.831881
 20
356.454733
 30
0.0
 11
110.071425
 21
352.8
 31
0.0
  0
LINE
  5
25F
100
AcDbEntity
  8
LC-004-003-----0
370
    25
390
0
 62
     2
100
AcDbLine
 10
110.071425
 20
352.8
 30
0.0
 11
137.831881
 21
349.145267
 31
0.0
  0
LINE
  5
260
100
AcDbEntity
  8
LC-004-003-----0
370
    25
390
0
 62
     2
100
AcDbLine
 10
137.831881
 20
349.145267
 30
0.0
 11
137.831881
 21
356.454733
 31
0.0
  0
LINE
  5
261
100
AcDbEntity
  8
LC-004-003-----0
370
    25
390
0
 62
     2
100
AcDbLine
 10
137.894163
 20
355.504503
 30
0.0
 11
117.351425
 21
352.8
 31
0.0
  0
LINE
  5
262
100
AcDbEntity
  8
LC-004-003-----0
370
    25
390
0
 62
     2
100
AcDbLine
 10
117.351425
 20
352.8
 30
0.0
 11
137.894163
 21
350.095497
 31
0.0
  0
LINE
  5
263
100
AcDbEntity
  8
LC-004-003-----0
370
    25
390
0
 62
     2
100
AcDbLine
 10
137.956444
 20
354.554272
 30
0.0
 11
124.631425
 21
352.8
 31
0.0
  0
LINE
  5
264
100
AcDbEntity
  8
LC-004-003-----0
370
    25
390
0
 62
     2
100
AcDbLine
 10
124.631425
 20
352.8
 30
0.0
 11
137.956444
 21
351.045728
 31
0.0
  0
LINE
  5
265
100
AcDbEntity
  8
LC-004-003-----0
370
    25
390
0
 62
     2
100
AcDbLine
 10
138.018725
 20
353.604041
 30
0.0
 11
131.911425
 21
352.8
 31
0.0
  0
LINE
  5
266
100
AcDbEntity
  8
LC-004-003-----0
370
    25
390
0
 62
     2
100
AcDbLine
 10
131.911425
 20
352.8
 30
0.0
 11
138.018725
 21
351.995959
 31
0.0
  0
LINE
  5
267
100
AcDbEntity
  8
LC-005-003-MTG-0
370
    25
390
0
 62
     2
100
AcDbLine
 10
-24.914727
 20
352.8
 30
0.0
 11
149.271425
 21
352.8
 31
0.0
  0
TEXT
  5
268
100
AcDbEntity
  8
LC-004-003-----0
370
    -2
390
0
 62
     7
100
AcDbText
 10
-9.366568
 20
360.627554
 30
0.0
 40
28.0
  1
55
 41
0.8
 51
15.0
  7
LCTX15-400-0-0-ARIAL
 72
     2
 11
22.217432
 21
360.627554
 31
0.0
100
AcDbText
  0
ENDBLK
  5
269
100
AcDbEntity
  8
0
390
0
100
AcDbBlockEnd
  0
BLOCK
  5
2BB
100
AcDbEntity
  8
0
390
0
100
AcDbBlockBegin
  2
*X7
 70
    65
 10
0.0
 20
0.0
 30
0.0
  3
*X7
  1

  0
LINE
  5
2BC
100
AcDbEntity
  8
LC-008-005-----0
370
    25
390
0
 62
     2
100
AcDbLine
 10
661.169658
 20
371.206435
 30
0.0
 11
662.41783
 21
369.958264
 31
0.0
  0
LINE
  5
2BD
100
AcDbEntity
  8
LC-008-005-----0
370
    25
390
0
 62
     2
100
AcDbLine
 10
663.030222
 20
372.174298
 30
0.0
 11
667.291274
 21
367.913253
 31
0.0
  0
LINE
  5
2BE
100
AcDbEntity
  8
LC-008-005-----0
370
    25
390
0
 62
     2
100
AcDbLine
 10
664.890787
 20
373.142162
 30
0.0
 11
669.231486
 21
368.801468
 31
0.0
  0
LINE
  5
2BF
100
AcDbEntity
  8
LC-008-005-----0
370
    25
390
0
 62
     2
100
AcDbLine
 10
666.957709
 20
373.903667
 30
0.0
 11
670.091165
 21
370.770216
 31
0.0
  0
ENDBLK
  5
2C0
100
AcDbEntity
  8
0
390
0
100
AcDbBlockEnd
  0
BLOCK
  5
2C4
100
AcDbEntity
  8
0
390
0
100
AcDbBlockBegin
  2
*X8
 70
    65
 10
0.0
 20
0.0
 30
0.0
  3
*X8
  1

  0
LINE
  5
2C5
100
AcDbEntity
  8
LC-008-005-----0
370
    25
390
0
 62
     2
100
AcDbLine
 10
660.93974
 20
476.088086
 30
0.0
 11
661.69211
 21
475.335717
 31
0.0
  0
LINE
  5
2C6
100
AcDbEntity
  8
LC-008-005-----0
370
    25
390
0
 62
     2
100
AcDbLine
 10
662.800149
 20
477.056106
 30
0.0
 11
666.944719
 21
472.911541
 31
0.0
  0
LINE
  5
2C7
100
AcDbEntity
  8
LC-008-005-----0
370
    25
390
0
 62
     2
100
AcDbLine
 10
664.660557
 20
478.024125
 30
0.0
 11
669.05024
 21
473.634448
 31
0.0
  0
LINE
  5
2C8
100
AcDbEntity
  8
LC-008-005-----0
370
    25
390
0
 62
     2
100
AcDbLine
 10
666.639651
 20
478.873459
 30
0.0
 11
670.058396
 21
475.454719
 31
0.0
  0
ENDBLK
  5
2C9
100
AcDbEntity
  8
0
390
0
100
AcDbBlockEnd
  0
BLOCK
  5
334
100
AcDbEntity
  8
0
390
0
100
AcDbBlockBegin
  2
*X9
 70
    65
 10
0.0
 20
0.0
 30
0.0
  3
*X9
  1

  0
LINE
  5
335
100
AcDbEntity
  8
LC-008-005-----0
370
    25
390
0
 62
     2
100
AcDbLine
 10
366.451782
 20
493.389979
 30
0.0
 11
370.257529
 21
489.584237
 31
0.0
  0
LINE
  5
336
100
AcDbEntity
  8
LC-008-005-----0
370
    25
390
0
 62
     2
100
AcDbLine
 10
368.312191
 20
494.357999
 30
0.0
 11
372.752785
 21
489.91741
 31
0.0
  0
LINE
  5
337
100
AcDbEntity
  8
LC-008-005-----0
370
    25
390
0
 62
     2
100
AcDbLine
 10
370.200914
 20
495.297703
 30
0.0
 11
373.992413
 21
491.506209
 31
0.0
  0
ENDBLK
  5
338
100
AcDbEntity
  8
0
390
0
100
AcDbBlockEnd
  0
BLOCK
  5
47B
100
AcDbEntity
  8
0
390
0
100
AcDbBlockBegin
  2
*X10
 70
    65
 10
0.0
 20
0.0
 30
0.0
  3
*X10
  1

  0
LINE
  5
47C
100
AcDbEntity
  8
LC-008-005-----0
370
    25
390
0
 62
     2
100
AcDbLine
 10
181.00087
 20
475.194028
 30
0.0
 11
183.200849
 21
472.994051
 31
0.0
  0
LINE
  5
47D
100
AcDbEntity
  8
LC-008-005-----0
370
    25
390
0
 62
     2
100
AcDbLine
 10
181.431733
 20
477.591591
 30
0.0
 11
185.613412
 21
473.409917
 31
0.0
  0
LINE
  5
47E
100
AcDbEntity
  8
LC-008-005-----0
370
    25
390
0
 62
     2
100
AcDbLine
 10
183.066324
 20
478.785427
 30
0.0
 11
187.473968
 21
474.377789
 31
0.0
  0
LINE
  5
47F
100
AcDbEntity
  8
LC-008-005-----0
370
    25
390
0
 62
     2
100
AcDbLine
 10
186.991344
 20
477.688837
 30
0.0
 11
189.334524
 21
475.34566
 31
0.0
  0
ENDBLK
  5
480
100
AcDbEntity
  8
0
390
0
100
AcDbBlockEnd
  0
BLOCK
  5
486
100
AcDbEntity
  8
0
390
0
100
AcDbBlockBegin
  2
*D11
 70
    65
 10
0.0
 20
0.0
 30
0.0
  3
*D11
  1

  0
LINE
  5
487
100
AcDbEntity
  8
LC-003-003-MTH-0
370
    25
390
0
 62
     2
100
AcDbLine
 10
113.376637
 20
438.407883
 30
0.0
 11
113.376637
 21
526.4
 31
0.0
  0
LINE
  5
488
100
AcDbEntity
  8
LC-003-003-MTH-0
370
    25
390
0
 62
     2
100
AcDbLine
 10
190.436791
 20
475.920869
 30
0.0
 11
190.436791
 21
526.4
 31
0.0
  0
LINE
  5
489
100
AcDbEntity
  8
LC-005-003-MTG-0
370
    25
390
0
 62
     2
100
AcDbLine
 10
113.376637
 20
509.6
 30
0.0
 11
190.436791
 21
509.6
 31
0.0
  0
LINE
  5
48A
100
AcDbEntity
  8
LC-004-003-----0
370
    25
390
0
 62
     2
100
AcDbLine
 10
141.137093
 20
513.254733
 30
0.0
 11
113.376637
 21
509.6
 31
0.0
  0
LINE
  5
48B
100
AcDbEntity
  8
LC-004-003-----0
370
    25
390
0
 62
     2
100
AcDbLine
 10
113.376637
 20
509.6
 30
0.0
 11
141.137093
 21
505.945267
 31
0.0
  0
LINE
  5
48C
100
AcDbEntity
  8
LC-004-003-----0
370
    25
390
0
 62
     2
100
AcDbLine
 10
141.137093
 20
505.945267
 30
0.0
 11
141.137093
 21
513.254733
 31
0.0
  0
LINE
  5
48D
100
AcDbEntity
  8
LC-004-003-----0
370
    25
390
0
 62
     2
100
AcDbLine
 10
141.199374
 20
512.304503
 30
0.0
 11
120.656637
 21
509.6
 31
0.0
  0
LINE
  5
48E
100
AcDbEntity
  8
LC-004-003-----0
370
    25
390
0
 62
     2
100
AcDbLine
 10
120.656637
 20
509.6
 30
0.0
 11
141.199374
 21
506.895497
 31
0.0
  0
LINE
  5
48F
100
AcDbEntity
  8
LC-004-003-----0
370
    25
390
0
 62
     2
100
AcDbLine
 10
141.261656
 20
511.354272
 30
0.0
 11
127.936637
 21
509.6
 31
0.0
  0
LINE
  5
490
100
AcDbEntity
  8
LC-004-003-----0
370
    25
390
0
 62
     2
100
AcDbLine
 10
127.936637
 20
509.6
 30
0.0
 11
141.261656
 21
507.845728
 31
0.0
  0
LINE
  5
491
100
AcDbEntity
  8
LC-004-003-----0
370
    25
390
0
 62
     2
100
AcDbLine
 10
141.323937
 20
510.404041
 30
0.0
 11
135.216637
 21
509.6
 31
0.0
  0
LINE
  5
492
100
AcDbEntity
  8
LC-004-003-----0
370
    25
390
0
 62
     2
100
AcDbLine
 10
135.216637
 20
509.6
 30
0.0
 11
141.323937
 21
508.795959
 31
0.0
  0
LINE
  5
493
100
AcDbEntity
  8
LC-004-003-----0
370
    25
390
0
 62
     2
100
AcDbLine
 10
162.676335
 20
505.945267
 30
0.0
 11
190.436791
 21
509.6
 31
0.0
  0
LINE
  5
494
100
AcDbEntity
  8
LC-004-003-----0
370
    25
390
0
 62
     2
100
AcDbLine
 10
190.436791
 20
509.6
 30
0.0
 11
162.676335
 21
513.254733
 31
0.0
  0
LINE
  5
495
100
AcDbEntity
  8
LC-004-003-----0
370
    25
390
0
 62
     2
100
AcDbLine
 10
162.676335
 20
513.254733
 30
0.0
 11
162.676335
 21
505.945267
 31
0.0
  0
LINE
  5
496
100
AcDbEntity
  8
LC-004-003-----0
370
    25
390
0
 62
     2
100
AcDbLine
 10
162.614054
 20
506.895497
 30
0.0
 11
183.156791
 21
509.6
 31
0.0
  0
LINE
  5
497
100
AcDbEntity
  8
LC-004-003-----0
370
    25
390
0
 62
     2
100
AcDbLine
 10
183.156791
 20
509.6
 30
0.0
 11
162.614054
 21
512.304503
 31
0.0
  0
LINE
  5
498
100
AcDbEntity
  8
LC-004-003-----0
370
    25
390
0
 62
     2
100
AcDbLine
 10
162.551772
 20
507.845728
 30
0.0
 11
175.876791
 21
509.6
 31
0.0
  0
LINE
  5
499
100
AcDbEntity
  8
LC-004-003-----0
370
    25
390
0
 62
     2
100
AcDbLine
 10
175.876791
 20
509.6
 30
0.0
 11
162.551772
 21
511.354272
 31
0.0
  0
LINE
  5
49A
100
AcDbEntity
  8
LC-004-003-----0
370
    25
390
0
 62
     2
100
AcDbLine
 10
162.489491
 20
508.795959
 30
0.0
 11
168.596791
 21
509.6
 31
0.0
  0
LINE
  5
49B
100
AcDbEntity
  8
LC-004-003-----0
370
    25
390
0
 62
     2
100
AcDbLine
 10
168.596791
 20
509.6
 30
0.0
 11
162.489491
 21
510.404041
 31
0.0
  0
TEXT
  5
49C
100
AcDbEntity
  8
LC-004-003-----0
370
    -2
390
0
 62
     7
100
AcDbText
 10
138.502874
 20
517.427554
 30
0.0
 40
28.0
  1
77
 41
0.9
 51
15.0
  7
LCTX15-400-0-0-ARIAL
 72
     1
 11
156.254874
 21
517.427554
 31
0.0
100
AcDbText
  0
ENDBLK
  5
49D
100
AcDbEntity
  8
0
390
0
100
AcDbBlockEnd
  0
BLOCK
  5
4A9
100
AcDbEntity
  8
0
390
0
100
AcDbBlockBegin
  2
*D12
 70
    65
 10
0.0
 20
0.0
 30
0.0
  3
*D12
  1

  0
LINE
  5
4AA
100
AcDbEntity
  8
LC-003-003-MTH-0
370
    25
390
0
 62
     2
100
AcDbLine
 10
309.64376
 20
367.197992
 30
0.0
 11
309.64376
 21
519.480696
 31
0.0
  0
LINE
  5
4AB
100
AcDbEntity
  8
LC-003-003-MTH-0
370
    25
390
0
 62
     2
100
AcDbLine
 10
499.64376
 20
367.197992
 30
0.0
 11
499.64376
 21
519.480696
 31
0.0
  0
LINE
  5
4AC
100
AcDbEntity
  8
LC-005-003-MTG-0
370
    25
390
0
 62
     2
100
AcDbLine
 10
309.64376
 20
502.680696
 30
0.0
 11
370.439227
 21
502.680696
 31
0.0
  0
LINE
  5
4AD
100
AcDbEntity
  8
LC-005-003-MTG-0
370
    25
390
0
 62
     2
100
AcDbLine
 10
453.34216
 20
502.680696
 30
0.0
 11
499.64376
 21
502.680696
 31
0.0
  0
LINE
  5
4AE
100
AcDbEntity
  8
LC-004-003-----0
370
    25
390
0
 62
     2
100
AcDbLine
 10
337.404217
 20
506.33543
 30
0.0
 11
309.64376
 21
502.680696
 31
0.0
  0
LINE
  5
4AF
100
AcDbEntity
  8
LC-004-003-----0
370
    25
390
0
 62
     2
100
AcDbLine
 10
309.64376
 20
502.680696
 30
0.0
 11
337.404217
 21
499.025963
 31
0.0
  0
LINE
  5
4B0
100
AcDbEntity
  8
LC-004-003-----0
370
    25
390
0
 62
     2
100
AcDbLine
 10
337.404217
 20
499.025963
 30
0.0
 11
337.404217
 21
506.33543
 31
0.0
  0
LINE
  5
4B1
100
AcDbEntity
  8
LC-004-003-----0
370
    25
390
0
 62
     2
100
AcDbLine
 10
337.466498
 20
505.385199
 30
0.0
 11
316.92376
 21
502.680696
 31
0.0
  0
LINE
  5
4B2
100
AcDbEntity
  8
LC-004-003-----0
370
    25
390
0
 62
     2
100
AcDbLine
 10
316.92376
 20
502.680696
 30
0.0
 11
337.466498
 21
499.976194
 31
0.0
  0
LINE
  5
4B3
100
AcDbEntity
  8
LC-004-003-----0
370
    25
390
0
 62
     2
100
AcDbLine
 10
337.528779
 20
504.434968
 30
0.0
 11
324.20376
 21
502.680696
 31
0.0
  0
LINE
  5
4B4
100
AcDbEntity
  8
LC-004-003-----0
370
    25
390
0
 62
     2
100
AcDbLine
 10
324.20376
 20
502.680696
 30
0.0
 11
337.528779
 21
500.926424
 31
0.0
  0
LINE
  5
4B5
100
AcDbEntity
  8
LC-004-003-----0
370
    25
390
0
 62
     2
100
AcDbLine
 10
337.591061
 20
503.484738
 30
0.0
 11
331.48376
 21
502.680696
 31
0.0
  0
LINE
  5
4B6
100
AcDbEntity
  8
LC-004-003-----0
370
    25
390
0
 62
     2
100
AcDbLine
 10
331.48376
 20
502.680696
 30
0.0
 11
337.591061
 21
501.876655
 31
0.0
  0
LINE
  5
4B7
100
AcDbEntity
  8
LC-004-003-----0
370
    25
390
0
 62
     2
100
AcDbLine
 10
471.883304
 20
499.025963
 30
0.0
 11
499.64376
 21
502.680696
 31
0.0
  0
LINE
  5
4B8
100
AcDbEntity
  8
LC-004-003-----0
370
    25
390
0
 62
     2
100
AcDbLine
 10
499.64376
 20
502.680696
 30
0.0
 11
471.883304
 21
506.33543
 31
0.0
  0
LINE
  5
4B9
100
AcDbEntity
  8
LC-004-003-----0
370
    25
390
0
 62
     2
100
AcDbLine
 10
471.883304
 20
506.33543
 30
0.0
 11
471.883304
 21
499.025963
 31
0.0
  0
LINE
  5
4BA
100
AcDbEntity
  8
LC-004-003-----0
370
    25
390
0
 62
     2
100
AcDbLine
 10
471.821023
 20
499.976194
 30
0.0
 11
492.36376
 21
502.680696
 31
0.0
  0
LINE
  5
4BB
100
AcDbEntity
  8
LC-004-003-----0
370
    25
390
0
 62
     2
100
AcDbLine
 10
492.36376
 20
502.680696
 30
0.0
 11
471.821023
 21
505.385199
 31
0.0
  0
LINE
  5
4BC
100
AcDbEntity
  8
LC-004-003-----0
370
    25
390
0
 62
     2
100
AcDbLine
 10
471.758741
 20
500.926424
 30
0.0
 11
485.08376
 21
502.680696
 31
0.0
  0
LINE
  5
4BD
100
AcDbEntity
  8
LC-004-003-----0
370
    25
390
0
 62
     2
100
AcDbLine
 10
485.08376
 20
502.680696
 30
0.0
 11
471.758741
 21
504.434968
 31
0.0
  0
LINE
  5
4BE
100
AcDbEntity
  8
LC-004-003-----0
370
    25
390
0
 62
     2
100
AcDbLine
 10
471.69646
 20
501.876655
 30
0.0
 11
477.80376
 21
502.680696
 31
0.0
  0
LINE
  5
4BF
100
AcDbEntity
  8
LC-004-003-----0
370
    25
390
0
 62
     2
100
AcDbLine
 10
477.80376
 20
502.680696
 30
0.0
 11
471.69646
 21
503.484738
 31
0.0
  0
TEXT
  5
4C0
100
AcDbEntity
  8
LC-004-003-----0
370
    -2
390
0
 62
     7
100
AcDbText
 10
382.36392
 20
510.50825
 30
0.0
 40
28.0
  1
190
 41
0.9
 51
15.0
  7
LCTX15-400-0-0-ARIAL
 72
     1
 11
408.99192
 21
510.50825
 31
0.0
100
AcDbText
  0
ENDBLK
  5
4C1
100
AcDbEntity
  8
0
390
0
100
AcDbBlockEnd
  0
BLOCK
  5
4CE
100
AcDbEntity
  8
0
390
0
100
AcDbBlockBegin
  2
*D13
 70
    65
 10
0.0
 20
0.0
 30
0.0
  3
*D13
  1

  0
LINE
  5
4CF
100
AcDbEntity
  8
LC-003-003-MTH-0
370
    25
390
0
 62
     2
100
AcDbLine
 10
497.14376
 20
259.697992
 30
0.0
 11
569.459748
 21
259.697992
 31
0.0
  0
LINE
  5
4D0
100
AcDbEntity
  8
LC-003-003-MTH-0
370
    25
390
0
 62
     2
100
AcDbLine
 10
497.14376
 20
369.697992
 30
0.0
 11
569.459748
 21
369.697992
 31
0.0
  0
LINE
  5
4D1
100
AcDbEntity
  8
LC-004-003-----0
370
    25
390
0
 62
     2
100
AcDbLine
 10
556.314482
 20
231.937536
 30
0.0
 11
552.659748
 21
259.697992
 31
0.0
  0
LINE
  5
4D2
100
AcDbEntity
  8
LC-004-003-----0
370
    25
390
0
 62
     2
100
AcDbLine
 10
552.659748
 20
259.697992
 30
0.0
 11
549.005015
 21
231.937536
 31
0.0
  0
LINE
  5
4D3
100
AcDbEntity
  8
LC-004-003-----0
370
    25
390
0
 62
     2
100
AcDbLine
 10
549.005015
 20
231.937536
 30
0.0
 11
556.314482
 21
231.937536
 31
0.0
  0
LINE
  5
4D4
100
AcDbEntity
  8
LC-004-003-----0
370
    25
390
0
 62
     2
100
AcDbLine
 10
555.364251
 20
231.875255
 30
0.0
 11
552.659748
 21
252.417992
 31
0.0
  0
LINE
  5
4D5
100
AcDbEntity
  8
LC-004-003-----0
370
    25
390
0
 62
     2
100
AcDbLine
 10
552.659748
 20
252.417992
 30
0.0
 11
549.955245
 21
231.875255
 31
0.0
  0
LINE
  5
4D6
100
AcDbEntity
  8
LC-004-003-----0
370
    25
390
0
 62
     2
100
AcDbLine
 10
554.41402
 20
231.812973
 30
0.0
 11
552.659748
 21
245.137992
 31
0.0
  0
LINE
  5
4D7
100
AcDbEntity
  8
LC-004-003-----0
370
    25
390
0
 62
     2
100
AcDbLine
 10
552.659748
 20
245.137992
 30
0.0
 11
550.905476
 21
231.812973
 31
0.0
  0
LINE
  5
4D8
100
AcDbEntity
  8
LC-004-003-----0
370
    25
390
0
 62
     2
100
AcDbLine
 10
553.46379
 20
231.750692
 30
0.0
 11
552.659748
 21
237.857992
 31
0.0
  0
LINE
  5
4D9
100
AcDbEntity
  8
LC-004-003-----0
370
    25
390
0
 62
     2
100
AcDbLine
 10
552.659748
 20
237.857992
 30
0.0
 11
551.855707
 21
231.750692
 31
0.0
  0
LINE
  5
4DA
100
AcDbEntity
  8
LC-004-003-----0
370
    25
390
0
 62
     2
100
AcDbLine
 10
549.005015
 20
397.458448
 30
0.0
 11
552.659748
 21
369.697992
 31
0.0
  0
LINE
  5
4DB
100
AcDbEntity
  8
LC-004-003-----0
370
    25
390
0
 62
     2
100
AcDbLine
 10
552.659748
 20
369.697992
 30
0.0
 11
556.314482
 21
397.458448
 31
0.0
  0
LINE
  5
4DC
100
AcDbEntity
  8
LC-004-003-----0
370
    25
390
0
 62
     2
100
AcDbLine
 10
556.314482
 20
397.458448
 30
0.0
 11
549.005015
 21
397.458448
 31
0.0
  0
LINE
  5
4DD
100
AcDbEntity
  8
LC-004-003-----0
370
    25
390
0
 62
     2
100
AcDbLine
 10
549.955245
 20
397.52073
 30
0.0
 11
552.659748
 21
376.977992
 31
0.0
  0
LINE
  5
4DE
100
AcDbEntity
  8
LC-004-003-----0
370
    25
390
0
 62
     2
100
AcDbLine
 10
552.659748
 20
376.977992
 30
0.0
 11
555.364251
 21
397.52073
 31
0.0
  0
LINE
  5
4DF
100
AcDbEntity
  8
LC-004-003-----0
370
    25
390
0
 62
     2
100
AcDbLine
 10
550.905476
 20
397.583011
 30
0.0
 11
552.659748
 21
384.257992
 31
0.0
  0
LINE
  5
4E0
100
AcDbEntity
  8
LC-004-003-----0
370
    25
390
0
 62
     2
100
AcDbLine
 10
552.659748
 20
384.257992
 30
0.0
 11
554.41402
 21
397.583011
 31
0.0
  0
LINE
  5
4E1
100
AcDbEntity
  8
LC-004-003-----0
370
    25
390
0
 62
     2
100
AcDbLine
 10
551.855707
 20
397.645293
 30
0.0
 11
552.659748
 21
391.537992
 31
0.0
  0
LINE
  5
4E2
100
AcDbEntity
  8
LC-004-003-----0
370
    25
390
0
 62
     2
100
AcDbLine
 10
552.659748
 20
391.537992
 30
0.0
 11
553.46379
 21
397.645293
 31
0.0
  0
LINE
  5
4E3
100
AcDbEntity
  8
LC-005-003-MTG-0
370
    25
390
0
 62
     2
100
AcDbLine
 10
552.659748
 20
220.497992
 30
0.0
 11
552.659748
 21
401.321459
 31
0.0
  0
TEXT
  5
4E4
100
AcDbEntity
  8
LC-004-003-----0
370
    -2
390
0
 62
     7
100
AcDbText
 10
544.832194
 20
413.246152
 30
0.0
 40
28.0
  1
110
 50
90.0
 41
0.9
 51
15.0
  7
LCTX15-400-0-0-ARIAL
100
AcDbText
  0
ENDBLK
  5
4E5
100
AcDbEntity
  8
0
390
0
100
AcDbBlockEnd
  0
ENDSEC
  0
SECTION
  2
ENTITIES
  0
VIEWPORT
  5
4F3
100
AcDbEntity
 67
     1
  8
LC-VIEWPORT
390
0
100
AcDbViewport
 10
420.0
 20
297.0
 30
0.0
 40
840.0
 41
594.0
 68
     1
 69
     1
 12
420.0
 22
297.0
 13
0.0
 23
0.0
 14
1.0
 24
1.0
 15
0.0
 25
0.0
 16
0.0
 26
0.0
 36
1.0
 17
0.0
 27
0.0
 37
0.0
 42
50.0
 43
0.0
 44
0.0
 45
594.0
 50
0.0
 51
0.0
 72
   100
 90
    32928
340
0
  1

281
     0
 71
     0
 74
     1
110
0.0
120
0.0
130
0.0
111
1.0
121
0.0
131
0.0
112
0.0
122
1.0
132
0.0
345
0
346
0
 79
     0
146
0.0
  0
ARC
  5
2B
102
{ACAD_REACTORS
330
505
102
}
100
AcDbEntity
  8
LC-001-002-RND-0
370
    50
390
0
 62
     1
100
AcDbCircle
 10
423.64376
 20
171.697992
 30
0.0
 40
4.0
100
AcDbArc
 50
90.0
 51
180.0
  0
ARC
  5
2D
100
AcDbEntity
  8
LC-002-002-----0
370
    50
390
0
 62
     1
100
AcDbCircle
 10
364.64376
 20
314.697992
 30
0.0
 40
10.5
100
AcDbArc
 50
324.049432
 51
215.950568
  0
LINE
  5
2E
100
AcDbEntity
  8
LC-002-002-----0
370
    50
390
0
 62
     1
100
AcDbLine
 10
415.662239
 20
226.697992
 30
0.0
 11
471.307328
 21
226.697992
 31
0.0
  0
LINE
  5
2F
100
AcDbEntity
  8
LC-002-002-----0
370
    50
390
0
 62
     1
100
AcDbLine
 10
364.64221
 20
470.446861
 30
0.0
 11
364.64221
 21
459.450042
 31
0.0
  0
ARC
  5
30
100
AcDbEntity
  8
LC-001-002-RND-0
370
    50
390
0
 62
     1
100
AcDbCircle
 10
465.64376
 20
171.697992
 30
0.0
 40
4.0
100
AcDbArc
 50
360.0
 51
90.0
  0
LINE
  5
32
102
{ACAD_REACTORS
330
4FC
102
}
100
AcDbEntity
  8
LC-002-002-----0
370
    25
390
0
  6
DASHDOT
 62
     7
100
AcDbLine
 10
144.060296
 20
314.697992
 30
0.0
 11
213.411234
 21
314.697992
 31
0.0
  0
LINE
  5
33
100
AcDbEntity
  8
LC-002-002-----0
370
    50
390
0
 62
     1
100
AcDbLine
 10
464.64376
 20
226.697992
 30
0.0
 11
464.64376
 21
175.697992
 31
0.0
  0
LINE
  5
34
100
AcDbEntity
  8
LC-002-002-----0
370
    25
390
0
  6
DASHDOT
 62
     7
100
AcDbLine
 10
660.596286
 20
390.907883
 30
0.0
 11
660.596286
 21
314.697992
 31
0.0
  0
ARC
  5
35
100
AcDbEntity
  8
LC-001-002-RND-0
370
    50
390
0
 62
     1
100
AcDbCircle
 10
217.411234
 20
307.197992
 30
0.0
 40
0.5
100
AcDbArc
 50
360.0
 51
90.0
  0
ARC
  5
36
100
AcDbEntity
  8
LC-001-002-RND-0
370
    50
390
0
 62
     1
100
AcDbCircle
 10
216.911234
 20
307.197992
 30
0.0
 40
0.5
100
AcDbArc
 50
90.0
 51
180.0
  0
LINE
  5
37
100
AcDbEntity
  8
LC-002-002-----0
370
    50
390
0
 62
     1
100
AcDbLine
 10
217.411234
 20
307.697992
 30
0.0
 11
216.911234
 21
307.697992
 31
0.0
  0
DIMENSION
  5
56
100
AcDbEntity
  8
LC-004-003-----0
370
    25
390
0
 62
     2
100
AcDbDimension
  2
*D0
 10
258.249197
 20
72.0
 30
0.0
 11
258.249197
 21
72.0
 31
0.0
 71
     5
 72
     1
 41
1.0
 42
0.0
  1
DN40
  3
LC-DIM-L-0140-02-02
100
AcDbAlignedDimension
 13
157.911234
 23
178.022548
 33
0.0
 14
197.911234
 24
178.197992
 34
0.0
100
AcDbRotatedDimension
  0
ARC
  5
57
100
AcDbEntity
  8
LC-002-002-----0
370
    50
390
0
 62
     1
100
AcDbCircle
 10
208.286234
 20
302.197992
 30
0.0
 40
10.625
100
AcDbArc
 50
334.942385
 51
25.057615
  0
LINE
  5
58
100
AcDbEntity
  8
LC-002-002-----0
370
    50
390
0
 62
     1
100
AcDbLine
 10
217.911234
 20
297.197992
 30
0.0
 11
217.911234
 21
307.197992
 31
0.0
  0
ARC
  5
59
100
AcDbEntity
  8
LC-001-002-RND-0
370
    50
390
0
 62
     1
100
AcDbCircle
 10
217.411234
 20
297.197992
 30
0.0
 40
0.5
100
AcDbArc
 50
270.0
 51
360.0
  0
LINE
  5
5A
100
AcDbEntity
  8
LC-002-002-----0
370
    50
390
0
 62
     1
100
AcDbLine
 10
217.411234
 20
296.697992
 30
0.0
 11
216.911234
 21
296.697992
 31
0.0
  0
LINE
  5
5B
102
{ACAD_REACTORS
330
505
102
}
100
AcDbEntity
  8
LC-002-002-----0
370
    25
390
0
  6
DASHDOT
 62
     2
100
AcDbLine
 10
444.64376
 20
175.697992
 30
0.0
 11
444.64376
 21
119.14099
 31
0.0
  0
ARC
  5
5C
100
AcDbEntity
  8
LC-001-002-RND-0
370
    50
390
0
 62
     1
100
AcDbCircle
 10
216.911234
 20
297.197992
 30
0.0
 40
0.5
100
AcDbArc
 50
180.0
 51
270.0
  0
ARC
  5
5D
102
{ACAD_REACTORS
330
50C
102
}
100
AcDbEntity
  8
LC-002-002-----0
370
    25
390
0
  6
DASHED
 62
     2
100
AcDbCircle
 10
364.64376
 20
327.197992
 30
0.0
 40
6.0
100
AcDbArc
 50
89.033562
 51
90.966438
  0
LINE
  5
5E
102
{ACAD_REACTORS
330
4FC
102
}
100
AcDbEntity
  8
LC-002-002-----0
370
    50
390
0
 62
     1
100
AcDbLine
 10
199.411234
 20
316.797992
 30
0.0
 11
199.411234
 21
334.697992
 31
0.0
  0
LINE
  5
5F
102
{ACAD_REACTORS
330
4FC
102
}
100
AcDbEntity
  8
LC-002-002-----0
370
    50
390
0
 62
     1
100
AcDbLine
 10
200.911234
 20
316.797992
 30
0.0
 11
200.911234
 21
334.697992
 31
0.0
  0
LINE
  5
60
102
{ACAD_REACTORS
330
4FC
102
}
100
AcDbEntity
  8
LC-002-002-----0
370
    50
390
0
 62
     1
100
AcDbLine
 10
202.411234
 20
316.797992
 30
0.0
 11
202.411234
 21
334.697992
 31
0.0
  0
LINE
  5
61
102
{ACAD_REACTORS
330
50D
102
}
100
AcDbEntity
  8
LC-002-002-----0
370
    25
390
0
  6
DASHDOT
 62
     2
100
AcDbLine
 10
756.398185
 20
314.697992
 30
0.0
 11
661.296286
 21
314.697992
 31
0.0
  0
ARC
  5
62
100
AcDbEntity
  8
LC-001-002-RND-0
370
    50
390
0
 62
     1
100
AcDbCircle
 10
633.596286
 20
307.197992
 30
0.0
 40
0.5
100
AcDbArc
 50
90.0
 51
180.0
  0
ARC
  5
63
100
AcDbEntity
  8
LC-001-002-RND-0
370
    50
390
0
 62
     1
100
AcDbCircle
 10
634.096286
 20
307.197992
 30
0.0
 40
0.5
100
AcDbArc
 50
0.0
 51
90.0
  0
LINE
  5
64
100
AcDbEntity
  8
LC-002-002-----0
370
    50
390
0
 62
     1
100
AcDbLine
 10
633.596286
 20
307.697992
 30
0.0
 11
634.096286
 21
307.697992
 31
0.0
  0
ARC
  5
65
100
AcDbEntity
  8
LC-002-002-----0
370
    50
390
0
 62
     1
100
AcDbCircle
 10
642.721286
 20
302.197992
 30
0.0
 40
10.625
100
AcDbArc
 50
154.942385
 51
205.057615
  0
LINE
  5
66
100
AcDbEntity
  8
LC-002-002-----0
370
    50
390
0
 62
     1
100
AcDbLine
 10
633.096286
 20
297.197992
 30
0.0
 11
633.096286
 21
307.197992
 31
0.0
  0
ARC
  5
67
100
AcDbEntity
  8
LC-001-002-RND-0
370
    50
390
0
 62
     1
100
AcDbCircle
 10
633.596286
 20
297.197992
 30
0.0
 40
0.5
100
AcDbArc
 50
180.0
 51
270.0
  0
LINE
  5
68
100
AcDbEntity
  8
LC-002-002-----0
370
    50
390
0
 62
     1
100
AcDbLine
 10
633.596286
 20
296.697992
 30
0.0
 11
634.096286
 21
296.697992
 31
0.0
  0
ARC
  5
69
100
AcDbEntity
  8
LC-001-002-RND-0
370
    50
390
0
 62
     1
100
AcDbCircle
 10
634.096286
 20
297.197992
 30
0.0
 40
0.5
100
AcDbArc
 50
270.0
 51
0.0
  0
CIRCLE
  5
6A
100
AcDbEntity
  8
LC-002-002-----0
370
    50
390
0
 62
     1
100
AcDbCircle
 10
364.64376
 20
439.950042
 30
0.0
 40
15.0
  0
LINE
  5
6B
102
{ACAD_REACTORS
330
502
102
}
100
AcDbEntity
  8
LC-002-002-----0
370
    50
390
0
 62
     1
100
AcDbLine
 10
731.096286
 20
259.697992
 30
0.0
 11
731.096286
 21
369.697992
 31
0.0
  0
LINE
  5
6C
102
{ACAD_REACTORS
330
501
102
}
100
AcDbEntity
  8
LC-002-002-----0
370
    50
390
0
 62
     1
100
AcDbLine
 10
731.096286
 20
369.697992
 30
0.0
 11
735.217607
 21
365.576672
 31
0.0
  0
LINE
  5
6D
100
AcDbEntity
  8
LC-002-002-----0
370
    50
390
0
 62
     1
100
AcDbLine
 10
637.596286
 20
372.197992
 30
0.0
 11
637.596286
 21
363.102006
 31
0.0
  0
LINE
  5
6E
100
AcDbEntity
  8
LC-002-002-----0
370
    50
390
0
 62
     1
100
AcDbLine
 10
635.596286
 20
365.983955
 30
0.0
 11
635.596286
 21
340.697992
 31
0.0
  0
LINE
  5
6F
102
{ACAD_REACTORS
330
50D
102
}
100
AcDbEntity
  8
LC-002-002-----0
370
    50
390
0
 62
     1
100
AcDbLine
 10
645.596286
 20
173.197992
 30
0.0
 11
648.388187
 21
173.197992
 31
0.0
  0
LINE
  5
70
102
{ACAD_REACTORS
330
50D
102
}
100
AcDbEntity
  8
LC-002-002-----0
370
    50
390
0
 62
     1
100
AcDbLine
 10
645.596286
 20
175.697992
 30
0.0
 11
645.596286
 21
173.197992
 31
0.0
  0
LINE
  5
71
102
{ACAD_REACTORS
330
50D
102
}
100
AcDbEntity
  8
LC-002-002-----0
370
    50
390
0
 62
     1
100
AcDbLine
 10
697.804386
 20
173.197992
 30
0.0
 11
700.596286
 21
173.197992
 31
0.0
  0
LINE
  5
72
102
{ACAD_REACTORS
330
50D
102
}
100
AcDbEntity
  8
LC-002-002-----0
370
    50
390
0
 62
     1
100
AcDbLine
 10
700.596286
 20
175.697992
 30
0.0
 11
700.596286
 21
173.197992
 31
0.0
  0
LINE
  5
73
102
{ACAD_REACTORS
330
50D
102
}
100
AcDbEntity
  8
LC-002-002-----0
370
    50
390
0
 62
     1
100
AcDbLine
 10
693.096286
 20
178.022548
 30
0.0
 11
693.096286
 21
228.697992
 31
0.0
  0
ARC
  5
74
102
{ACAD_REACTORS
330
50D
102
}
100
AcDbEntity
  8
LC-001-002-RND-0
370
    50
390
0
 62
     1
100
AcDbCircle
 10
692.096286
 20
231.197992
 30
0.0
 40
2.5
100
AcDbArc
 50
270.0
 51
0.0
  0
LINE
  5
75
102
{ACAD_REACTORS
330
50D
102
}
100
AcDbEntity
  8
LC-002-002-----0
370
    50
390
0
 62
     1
100
AcDbLine
 10
696.07556
 20
121.697992
 30
0.0
 11
650.117012
 21
121.697992
 31
0.0
  0
ARC
  5
76
102
{ACAD_REACTORS
330
50D
102
}
100
AcDbEntity
  8
LC-001-002-RND-0
370
    50
390
0
 62
     1
100
AcDbCircle
 10
650.596286
 20
178.197992
 30
0.0
 40
2.5
100
AcDbArc
 50
270.0
 51
0.0
  0
ARC
  5
77
102
{ACAD_REACTORS
330
50D
102
}
100
AcDbEntity
  8
LC-001-002-RND-0
370
    50
390
0
 62
     1
100
AcDbCircle
 10
695.596286
 20
178.022548
 30
0.0
 40
2.5
100
AcDbArc
 50
180.0
 51
256.657636
  0
LINE
  5
78
102
{ACAD_REACTORS
330
50D
102
}
100
AcDbEntity
  8
LC-002-002-----0
370
    50
390
0
 62
     1
100
AcDbLine
 10
648.096286
 20
125.197992
 30
0.0
 11
648.096286
 21
171.697992
 31
0.0
  0
LINE
  5
79
102
{ACAD_REACTORS
330
50D
102
}
100
AcDbEntity
  8
LC-002-002-----0
370
    50
390
0
 62
     1
100
AcDbLine
 10
652.096286
 20
175.697992
 30
0.0
 11
700.596286
 21
175.697992
 31
0.0
  0
ARC
  5
7A
102
{ACAD_REACTORS
330
500
102
}
100
AcDbEntity
  8
LC-002-002-----0
370
    50
390
0
 62
     1
100
AcDbCircle
 10
733.096286
 20
363.455352
 30
0.0
 40
3.0
100
AcDbArc
 50
0.0
 51
45.0
  0
LINE
  5
7B
100
AcDbEntity
  8
LC-002-002-----0
370
    50
390
0
 62
     1
100
AcDbLine
 10
736.096286
 20
363.455352
 30
0.0
 11
736.096286
 21
328.198719
 31
0.0
  0
ARC
  5
7C
102
{ACAD_REACTORS
330
50D
102
}
100
AcDbEntity
  8
LC-001-002-RND-0
370
    50
390
0
 62
     1
100
AcDbCircle
 10
692.096286
 20
253.697992
 30
0.0
 40
2.5
100
AcDbArc
 50
0.0
 51
10.917885
  0
LINE
  5
7D
102
{ACAD_REACTORS
330
50D
102
}
100
AcDbEntity
  8
LC-002-002-----0
370
    50
390
0
 62
     1
100
AcDbLine
 10
694.551035
 20
254.171497
 30
0.0
 11
685.479935
 21
301.197992
 31
0.0
  0
ARC
  5
7E
102
{ACAD_REACTORS
330
50D
102
}
100
AcDbEntity
  8
LC-001-002-RND-0
370
    50
390
0
 62
     1
100
AcDbCircle
 10
673.096286
 20
352.197992
 30
0.0
 40
2.5
100
AcDbArc
 50
10.917885
 51
90.0
  0
LINE
  5
7F
102
{ACAD_REACTORS
330
50D
102
}
100
AcDbEntity
  8
LC-002-002-----0
370
    50
390
0
 62
     1
100
AcDbLine
 10
677.667752
 20
341.697992
 30
0.0
 11
675.551035
 21
352.671497
 31
0.0
  0
DIMENSION
  5
99
100
AcDbEntity
  8
LC-004-003-----0
370
    25
390
0
 62
     2
100
AcDbDimension
  2
*D1
 10
246.575974
 20
36.0
 30
0.0
 11
246.575974
 21
36.0
 31
0.0
 71
     5
 72
     1
 41
1.0
 42
0.0
  1
DN50
  3
LC-DIM-L-0140-02-02
100
AcDbAlignedDimension
 13
152.911234
 23
125.197992
 33
0.0
 14
202.911234
 24
125.197992
 34
0.0
100
AcDbRotatedDimension
  0
LINE
  5
9A
100
AcDbEntity
  8
LC-002-002-----0
370
    25
390
0
  6
DASHED
 62
     2
100
AcDbLine
 10
731.096286
 20
328.197992
 30
0.0
 11
743.236096
 21
328.197992
 31
0.0
  0
LINE
  5
9B
102
{ACAD_REACTORS
330
503
102
}
100
AcDbEntity
  8
LC-002-002-----0
370
    50
390
0
 62
     1
100
AcDbLine
 10
731.096286
 20
259.697992
 30
0.0
 11
735.217607
 21
263.819313
 31
0.0
  0
ARC
  5
9C
102
{ACAD_REACTORS
330
504
102
}
100
AcDbEntity
  8
LC-002-002-----0
370
    50
390
0
 62
     1
100
AcDbCircle
 10
733.096286
 20
265.940633
 30
0.0
 40
3.0
100
AcDbArc
 50
315.0
 51
0.0
  0
LINE
  5
9D
102
{ACAD_REACTORS
330
506
102
}
100
AcDbEntity
  8
LC-002-002-----0
370
    50
390
0
 62
     1
100
AcDbLine
 10
736.096286
 20
328.198719
 30
0.0
 11
736.096286
 21
265.940633
 31
0.0
  0
ARC
  5
9E
102
{ACAD_REACTORS
330
50D
102
}
100
AcDbEntity
  8
LC-001-002-RND-0
370
    50
390
0
 62
     1
100
AcDbCircle
 10
652.096286
 20
171.697992
 30
0.0
 40
4.0
100
AcDbArc
 50
90.0
 51
180.0
  0
ARC
  5
9F
102
{ACAD_REACTORS
330
50D
102
}
100
AcDbEntity
  8
LC-001-002-RND-0
370
    50
390
0
 62
     1
100
AcDbCircle
 10
694.096286
 20
171.697992
 30
0.0
 40
4.0
100
AcDbArc
 50
0.0
 51
76.657636
  0
LINE
  5
A0
102
{ACAD_REACTORS
330
50D
102
}
100
AcDbEntity
  8
LC-002-002-----0
370
    50
390
0
 62
     1
100
AcDbLine
 10
648.596286
 20
227.697992
 30
0.0
 11
648.596286
 21
305.397992
 31
0.0
  0
LINE
  5
A1
102
{ACAD_REACTORS
330
50D
102
}
100
AcDbEntity
  8
LC-002-002-----0
370
    50
390
0
 62
     1
100
AcDbLine
 10
648.596286
 20
341.697992
 30
0.0
 11
648.596286
 21
355.697992
 31
0.0
  0
LINE
  5
A2
102
{ACAD_REACTORS
330
50D
102
}
100
AcDbEntity
  8
LC-002-002-----0
370
    50
390
0
 62
     1
100
AcDbLine
 10
650.096286
 20
226.697992
 30
0.0
 11
650.096286
 21
305.397992
 31
0.0
  0
LINE
  5
A3
102
{ACAD_REACTORS
330
50D
102
}
100
AcDbEntity
  8
LC-002-002-----0
370
    50
390
0
 62
     1
100
AcDbLine
 10
650.096286
 20
341.697992
 30
0.0
 11
650.096286
 21
356.697992
 31
0.0
  0
LINE
  5
A4
102
{ACAD_REACTORS
330
50D
102
}
100
AcDbEntity
  8
LC-002-002-----0
370
    50
390
0
 62
     1
100
AcDbLine
 10
646.596286
 20
230.697992
 30
0.0
 11
646.596286
 21
371.197992
 31
0.0
  0
LINE
  5
A5
102
{ACAD_REACTORS
330
50D
102
}
100
AcDbEntity
  8
LC-002-002-----0
370
    50
390
0
 62
     1
100
AcDbLine
 10
646.596286
 20
334.697992
 30
0.0
 11
646.596286
 21
352.697992
 31
0.0
  0
LINE
  5
A6
102
{ACAD_REACTORS
330
50D
102
}
100
AcDbEntity
  8
LC-002-002-----0
370
    50
390
0
 62
     1
100
AcDbLine
 10
677.667752
 20
341.697992
 30
0.0
 11
680.271813
 21
328.197992
 31
0.0
  0
LINE
  5
A7
102
{ACAD_REACTORS
330
50D
102
}
100
AcDbEntity
  8
LC-002-002-----0
370
    50
390
0
 62
     1
100
AcDbLine
 10
651.596286
 20
227.697992
 30
0.0
 11
651.596286
 21
302.627278
 31
0.0
  0
LINE
  5
A8
102
{ACAD_REACTORS
330
50D
102
}
100
AcDbEntity
  8
LC-002-002-----0
370
    50
390
0
 62
     1
100
AcDbLine
 10
651.596286
 20
341.697992
 30
0.0
 11
651.596286
 21
355.697992
 31
0.0
  0
LINE
  5
A9
100
AcDbEntity
  8
LC-002-002-----0
370
    50
390
0
 62
     1
100
AcDbLine
 10
213.411234
 20
372.197992
 30
0.0
 11
213.411234
 21
363.102006
 31
0.0
  0
LINE
  5
AA
102
{ACAD_REACTORS
330
50D
102
}
100
AcDbEntity
  8
LC-002-002-----0
370
    50
390
0
 62
     1
100
AcDbLine
 10
645.596286
 20
175.697992
 30
0.0
 11
650.596286
 21
175.697992
 31
0.0
  0
LINE
  5
AB
102
{ACAD_REACTORS
330
50D
102
}
100
AcDbEntity
  8
LC-002-002-----0
370
    50
390
0
 62
     1
100
AcDbLine
 10
698.096286
 20
171.697992
 30
0.0
 11
698.096286
 21
125.197992
 31
0.0
  0
LINE
  5
AC
102
{ACAD_REACTORS
330
50D
102
}
100
AcDbEntity
  8
LC-002-002-----0
370
    50
390
0
 62
     1
100
AcDbLine
 10
653.096286
 20
228.697992
 30
0.0
 11
653.096286
 21
178.197992
 31
0.0
  0
LINE
  5
AD
100
AcDbEntity
  8
LC-002-002-----0
370
    50
390
0
 62
     1
100
AcDbLine
 10
215.411234
 20
365.983955
 30
0.0
 11
215.411234
 21
340.697992
 31
0.0
  0
LINE
  5
AE
102
{ACAD_REACTORS
330
50D
102
}
100
AcDbEntity
  8
LC-002-002-----0
370
    50
390
0
 62
     1
100
AcDbLine
 10
694.596286
 20
231.197992
 30
0.0
 11
694.596286
 21
253.697992
 31
0.0
  0
LINE
  5
B0
102
{ACAD_REACTORS
330
50D
102
}
100
AcDbEntity
  8
LC-006-001-----0
370
    50
390
0
 62
     1
100
AcDbLine
 10
698.096286
 20
125.197992
 30
0.0
 11
648.096286
 21
125.197992
 31
0.0
  0
LINE
  5
B1
102
{ACAD_REACTORS
330
50D
102
}
100
AcDbEntity
  8
LC-002-002-----0
370
    50
390
0
 62
     1
100
AcDbLine
 10
648.096286
 20
125.197992
 30
0.0
 11
650.117012
 21
121.697992
 31
0.0
  0
LINE
  5
B2
102
{ACAD_REACTORS
330
50D
102
}
100
AcDbEntity
  8
LC-002-002-----0
370
    50
390
0
 62
     1
100
AcDbLine
 10
698.096286
 20
125.197992
 30
0.0
 11
696.07556
 21
121.697992
 31
0.0
  0
LINE
  5
B3
102
{ACAD_REACTORS
330
50D
102
}
100
AcDbEntity
  8
LC-002-002-----0
370
    25
390
0
  6
DASHDOT
 62
     2
100
AcDbLine
 10
673.096286
 20
228.697992
 30
0.0
 11
673.096286
 21
121.697992
 31
0.0
  0
LINE
  5
B4
102
{ACAD_REACTORS
330
50D
102
}
100
AcDbEntity
  8
LC-002-002-----0
370
    50
390
0
 62
     1
100
AcDbLine
 10
654.096286
 20
228.697992
 30
0.0
 11
651.596286
 21
228.697992
 31
0.0
  0
ARC
  5
B5
102
{ACAD_REACTORS
330
50D
102
}
100
AcDbEntity
  8
LC-001-002-RND-0
370
    50
390
0
 62
     1
100
AcDbCircle
 10
650.596286
 20
227.697992
 30
0.0
 40
1.0
100
AcDbArc
 50
270.0
 51
0.0
  0
LINE
  5
B6
102
{ACAD_REACTORS
330
50D
102
}
100
AcDbEntity
  8
LC-002-002-----0
370
    50
390
0
 62
     1
100
AcDbLine
 10
649.596286
 20
226.697992
 30
0.0
 11
650.596286
 21
226.697992
 31
0.0
  0
ARC
  5
B7
102
{ACAD_REACTORS
330
50D
102
}
100
AcDbEntity
  8
LC-001-002-RND-0
370
    50
390
0
 62
     1
100
AcDbCircle
 10
649.596286
 20
227.697992
 30
0.0
 40
1.0
100
AcDbArc
 50
180.0
 51
270.0
  0
ARC
  5
B8
102
{ACAD_REACTORS
330
50D
102
}
100
AcDbEntity
  8
LC-001-002-RND-0
370
    50
390
0
 62
     1
100
AcDbCircle
 10
649.596286
 20
355.697992
 30
0.0
 40
1.0
100
AcDbArc
 50
90.0
 51
180.0
  0
ARC
  5
B9
102
{ACAD_REACTORS
330
50D
102
}
100
AcDbEntity
  8
LC-001-002-RND-0
370
    50
390
0
 62
     1
100
AcDbCircle
 10
650.596286
 20
355.697992
 30
0.0
 40
1.0
100
AcDbArc
 50
0.0
 51
90.0
  0
LINE
  5
BA
102
{ACAD_REACTORS
330
50D
102
}
100
AcDbEntity
  8
LC-002-002-----0
370
    50
390
0
 62
     1
100
AcDbLine
 10
650.596286
 20
356.697992
 30
0.0
 11
649.596286
 21
356.697992
 31
0.0
  0
LINE
  5
BB
102
{ACAD_REACTORS
330
50D
102
}
100
AcDbEntity
  8
LC-002-002-----0
370
    50
390
0
 62
     1
100
AcDbLine
 10
654.096286
 20
228.697992
 30
0.0
 11
692.096286
 21
228.697992
 31
0.0
  0
LINE
  5
BC
102
{ACAD_REACTORS
330
50D
102
}
100
AcDbEntity
  8
LC-002-002-----0
370
    50
390
0
 62
     1
100
AcDbLine
 10
651.596286
 20
354.697992
 30
0.0
 11
673.096286
 21
354.697992
 31
0.0
  0
LINE
  5
BD
100
AcDbEntity
  8
LC-002-002-----0
370
    25
390
0
  6
DASHDOT
 62
     2
100
AcDbLine
 10
632.096286
 20
302.197992
 30
0.0
 11
646.596286
 21
302.197992
 31
0.0
  0
LINE
  5
BE
102
{ACAD_REACTORS
330
4FC
102
}
100
AcDbEntity
  8
LC-002-002-----0
370
    50
390
0
 62
     1
100
AcDbLine
 10
205.411234
 20
173.197992
 30
0.0
 11
202.619334
 21
173.197992
 31
0.0
  0
LINE
  5
BF
102
{ACAD_REACTORS
330
4FC
102
}
100
AcDbEntity
  8
LC-002-002-----0
370
    50
390
0
 62
     1
100
AcDbLine
 10
205.411234
 20
175.697992
 30
0.0
 11
205.411234
 21
173.197992
 31
0.0
  0
LINE
  5
C0
102
{ACAD_REACTORS
330
4FC
102
}
100
AcDbEntity
  8
LC-002-002-----0
370
    50
390
0
 62
     1
100
AcDbLine
 10
153.203135
 20
173.197992
 30
0.0
 11
150.411234
 21
173.197992
 31
0.0
  0
LINE
  5
C1
102
{ACAD_REACTORS
330
4FC
102
}
100
AcDbEntity
  8
LC-002-002-----0
370
    50
390
0
 62
     1
100
AcDbLine
 10
150.411234
 20
175.697992
 30
0.0
 11
150.411234
 21
173.197992
 31
0.0
  0
LINE
  5
C2
100
AcDbEntity
  8
LC-002-002-----0
370
    25
390
0
  6
DASHDOT
 62
     2
100
AcDbLine
 10
632.096286
 20
327.197992
 30
0.0
 11
646.596286
 21
327.197992
 31
0.0
  0
LINE
  5
C3
102
{ACAD_REACTORS
330
4FC
102
}
100
AcDbEntity
  8
LC-002-002-----0
370
    50
390
0
 62
     1
100
AcDbLine
 10
157.911234
 20
178.022548
 30
0.0
 11
157.911234
 21
228.697992
 31
0.0
  0
ARC
  5
C4
102
{ACAD_REACTORS
330
4FC
102
}
100
AcDbEntity
  8
LC-001-002-RND-0
370
    50
390
0
 62
     1
100
AcDbCircle
 10
158.911234
 20
231.197992
 30
0.0
 40
2.5
100
AcDbArc
 50
180.0
 51
270.0
  0
LINE
  5
C5
100
AcDbEntity
  8
LC-002-002-----0
370
    50
390
0
 62
     1
100
AcDbLine
 10
637.596286
 20
372.197992
 30
0.0
 11
645.596286
 21
372.197992
 31
0.0
  0
LINE
  5
C6
102
{ACAD_REACTORS
330
4FC
102
}
100
AcDbEntity
  8
LC-002-002-----0
370
    50
390
0
 62
     1
100
AcDbLine
 10
154.93196
 20
121.697992
 30
0.0
 11
200.890509
 21
121.697992
 31
0.0
  0
ARC
  5
C7
102
{ACAD_REACTORS
330
4FC
102
}
100
AcDbEntity
  8
LC-001-002-RND-0
370
    50
390
0
 62
     1
100
AcDbCircle
 10
200.411234
 20
178.197992
 30
0.0
 40
2.5
100
AcDbArc
 50
180.0
 51
270.0
  0
ARC
  5
C8
102
{ACAD_REACTORS
330
4FC
102
}
100
AcDbEntity
  8
LC-001-002-RND-0
370
    50
390
0
 62
     1
100
AcDbCircle
 10
155.411234
 20
178.022548
 30
0.0
 40
2.5
100
AcDbArc
 50
283.342364
 51
0.0
  0
LINE
  5
C9
102
{ACAD_REACTORS
330
4FC
102
}
100
AcDbEntity
  8
LC-002-002-----0
370
    50
390
0
 62
     1
100
AcDbLine
 10
202.911234
 20
125.197992
 30
0.0
 11
202.911234
 21
171.697992
 31
0.0
  0
LINE
  5
CA
102
{ACAD_REACTORS
330
4FC
102
}
100
AcDbEntity
  8
LC-002-002-----0
370
    50
390
0
 62
     1
100
AcDbLine
 10
198.911234
 20
175.697992
 30
0.0
 11
150.411234
 21
175.697992
 31
0.0
  0
LINE
  5
CB
102
{ACAD_REACTORS
330
4FC
102
}
100
AcDbEntity
  8
LC-002-002-----0
370
    50
390
0
 62
     1
100
AcDbLine
 10
196.411234
 20
309.697992
 30
0.0
 11
196.411234
 21
319.697992
 31
0.0
  0
LINE
  5
CC
100
AcDbEntity
  8
LC-002-002-----0
370
    50
390
0
 62
     1
100
AcDbLine
 10
635.596286
 20
365.983955
 30
0.0
 11
637.596286
 21
365.983955
 31
0.0
  0
LINE
  5
CD
102
{ACAD_REACTORS
330
4FC
102
}
100
AcDbEntity
  8
LC-002-002-----0
370
    50
390
0
 62
     1
100
AcDbLine
 10
171.314388
 20
331.197992
 30
0.0
 11
164.370226
 21
331.197992
 31
0.0
  0
ARC
  5
CE
102
{ACAD_REACTORS
330
50D
102
}
100
AcDbEntity
  8
LC-001-002-RND-0
370
    50
390
0
 62
     1
100
AcDbCircle
 10
648.596286
 20
230.697992
 30
0.0
 40
2.0
100
AcDbArc
 50
180.0
 51
270.0
  0
LINE
  5
CF
102
{ACAD_REACTORS
330
4FC
102
}
100
AcDbEntity
  8
LC-002-002-----0
370
    50
390
0
 62
     1
100
AcDbLine
 10
183.411234
 20
309.697992
 30
0.0
 11
183.411234
 21
319.697992
 31
0.0
  0
ARC
  5
D0
102
{ACAD_REACTORS
330
50D
102
}
100
AcDbEntity
  8
LC-001-002-RND-0
370
    50
390
0
 62
     1
100
AcDbCircle
 10
648.596286
 20
352.697992
 30
0.0
 40
2.0
100
AcDbArc
 50
90.0
 51
180.0
  0
LINE
  5
D1
102
{ACAD_REACTORS
330
50D
102
}
100
AcDbEntity
  8
LC-002-002-----0
370
    50
390
0
 62
     1
100
AcDbLine
 10
654.496286
 20
291.697992
 30
0.0
 11
667.596286
 21
291.697992
 31
0.0
  0
ARC
  5
D2
102
{ACAD_REACTORS
330
4FC
102
}
100
AcDbEntity
  8
LC-001-002-RND-0
370
    50
390
0
 62
     1
100
AcDbCircle
 10
158.911234
 20
253.697992
 30
0.0
 40
2.5
100
AcDbArc
 50
169.082115
 51
180.0
  0
LINE
  5
D3
102
{ACAD_REACTORS
330
4FC
102
}
100
AcDbEntity
  8
LC-002-002-----0
370
    50
390
0
 62
     1
100
AcDbLine
 10
156.456485
 20
254.171497
 30
0.0
 11
165.527586
 21
301.197992
 31
0.0
  0
ARC
  5
D4
102
{ACAD_REACTORS
330
4FC
102
}
100
AcDbEntity
  8
LC-001-002-RND-0
370
    50
390
0
 62
     1
100
AcDbCircle
 10
177.911234
 20
352.197992
 30
0.0
 40
2.5
100
AcDbArc
 50
90.0
 51
169.082115
  0
LINE
  5
D5
102
{ACAD_REACTORS
330
4FC
102
}
100
AcDbEntity
  8
LC-002-002-----0
370
    50
390
0
 62
     1
100
AcDbLine
 10
173.339769
 20
341.697992
 30
0.0
 11
175.456485
 21
352.671497
 31
0.0
  0
LINE
  5
D6
102
{ACAD_REACTORS
330
4FC
102
}
100
AcDbEntity
  8
LC-002-002-----0
370
    50
390
0
 62
     1
100
AcDbLine
 10
183.411234
 20
309.697992
 30
0.0
 11
196.411234
 21
309.697992
 31
0.0
  0
LINE
  5
D7
102
{ACAD_REACTORS
330
50D
102
}
100
AcDbEntity
  8
LC-002-002-----0
370
    50
390
0
 62
     1
100
AcDbLine
 10
654.496286
 20
294.197992
 30
0.0
 11
667.596286
 21
294.197992
 31
0.0
  0
LINE
  5
D8
102
{ACAD_REACTORS
330
4FC
102
}
100
AcDbEntity
  8
LC-002-002-----0
370
    50
390
0
 62
     1
100
AcDbLine
 10
183.411234
 20
319.697992
 30
0.0
 11
196.411234
 21
319.697992
 31
0.0
  0
LINE
  5
D9
102
{ACAD_REACTORS
330
50D
102
}
100
AcDbEntity
  8
LC-002-002-----0
370
    50
390
0
 62
     1
100
AcDbLine
 10
667.596286
 20
291.697992
 30
0.0
 11
667.596286
 21
294.197992
 31
0.0
  0
LINE
  5
DA
100
AcDbEntity
  8
LC-002-002-----0
370
    50
390
0
 62
     1
100
AcDbLine
 10
742.096286
 20
341.697992
 30
0.0
 11
736.096286
 21
341.697992
 31
0.0
  0
LINE
  5
DB
100
AcDbEntity
  8
LC-002-002-----0
370
    50
390
0
 62
     1
100
AcDbLine
 10
742.096286
 20
287.697992
 30
0.0
 11
736.096286
 21
287.697992
 31
0.0
  0
LINE
  5
DC
102
{ACAD_REACTORS
330
4FC
102
}
100
AcDbEntity
  8
LC-002-002-----0
370
    50
390
0
 62
     1
100
AcDbLine
 10
183.411234
 20
334.697992
 30
0.0
 11
183.411234
 21
337.197992
 31
0.0
  0
LINE
  5
DD
102
{ACAD_REACTORS
330
50D
102
}
100
AcDbEntity
  8
LC-002-002-----0
370
    50
390
0
 62
     1
100
AcDbLine
 10
654.496286
 20
291.697992
 30
0.0
 11
654.496286
 21
294.197992
 31
0.0
  0
LINE
  5
DE
102
{ACAD_REACTORS
330
50D
102
}
100
AcDbEntity
  8
LC-002-002-----0
370
    50
390
0
 62
     1
100
AcDbLine
 10
654.496286
 20
270.195193
 30
0.0
 11
654.496286
 21
280.195193
 31
0.0
  0
LINE
  5
DF
102
{ACAD_REACTORS
330
50D
102
}
100
AcDbEntity
  8
LC-002-002-----0
370
    50
390
0
 62
     1
100
AcDbLine
 10
667.596286
 20
270.195193
 30
0.0
 11
654.496286
 21
270.195193
 31
0.0
  0
LINE
  5
E0
102
{ACAD_REACTORS
330
50D
102
}
100
AcDbEntity
  8
LC-002-002-----0
370
    50
390
0
 62
     1
100
AcDbLine
 10
667.596286
 20
270.195193
 30
0.0
 11
667.596286
 21
280.195193
 31
0.0
  0
ARC
  5
E1
100
AcDbEntity
  8
LC-002-002-----0
370
    25
390
0
  6
DASHED
 62
     2
100
AcDbCircle
 10
100.403301
 20
286.413831
 30
0.0
 40
8.451553
100
AcDbArc
 50
8.690273
 51
78.599914
  0
ARC
  5
E2
100
AcDbEntity
  8
LC-002-002-----0
370
    50
390
0
 62
     1
100
AcDbCircle
 10
108.75462
 20
335.01525
 30
0.0
 40
6.690726
100
AcDbArc
 50
87.284886
 51
182.717845
  0
ARC
  5
E3
100
AcDbEntity
  8
LC-002-002-----0
370
    50
390
0
 62
     1
100
AcDbCircle
 10
108.757032
 20
294.381528
 30
0.0
 40
6.690726
100
AcDbArc
 50
177.288957
 51
272.721915
  0
ARC
  5
E4
100
AcDbEntity
  8
LC-002-002-----0
370
    25
390
0
  6
DASHED
 62
     2
100
AcDbCircle
 10
100.399943
 20
342.981955
 30
0.0
 40
8.451553
100
AcDbArc
 50
281.406888
 51
351.316528
  0
LINE
  5
E5
100
AcDbEntity
  8
LC-002-002-----0
370
    50
390
0
 62
     1
100
AcDbLine
 10
110.071429
 20
339.620577
 30
0.0
 11
109.071565
 21
338.238774
 31
0.0
  0
LINE
  5
E6
100
AcDbEntity
  8
LC-002-002-----0
370
    50
390
0
 62
     1
100
AcDbLine
 10
109.071559
 20
341.698465
 30
0.0
 11
110.071421
 21
341.402319
 31
0.0
  0
LINE
  5
E7
100
AcDbEntity
  8
LC-002-002-----0
370
    50
390
0
 62
     1
100
AcDbLine
 10
110.072113
 20
308.906683
 30
0.0
 11
110.071425
 21
314.698719
 31
0.0
  0
LINE
  5
E8
100
AcDbEntity
  8
LC-002-002-----0
370
    50
390
0
 62
     1
100
AcDbLine
 10
109.072283
 20
308.610418
 30
0.0
 11
110.072113
 21
308.906683
 31
0.0
  0
LINE
  5
E9
102
{ACAD_REACTORS
330
50D
102
}
100
AcDbEntity
  8
LC-002-002-----0
370
    50
390
0
 62
     1
100
AcDbLine
 10
667.596286
 20
280.195193
 30
0.0
 11
654.496286
 21
280.195193
 31
0.0
  0
LINE
  5
EA
102
{ACAD_REACTORS
330
50D
102
}
100
AcDbEntity
  8
LC-002-002-----0
370
    25
390
0
  6
DASHDOT
 62
     2
100
AcDbLine
 10
670.10358
 20
275.195193
 30
0.0
 11
653.361107
 21
275.195193
 31
0.0
  0
LINE
  5
EB
100
AcDbEntity
  8
LC-002-002-----0
370
    50
390
0
 62
     1
100
AcDbLine
 10
637.596286
 20
340.697992
 30
0.0
 11
637.596286
 21
288.697992
 31
0.0
  0
LINE
  5
EC
100
AcDbEntity
  8
LC-002-002-----0
370
    50
390
0
 62
     1
100
AcDbLine
 10
635.596286
 20
340.697992
 30
0.0
 11
637.596286
 21
340.697992
 31
0.0
  0
LINE
  5
ED
100
AcDbEntity
  8
LC-002-002-----0
370
    50
390
0
 62
     1
100
AcDbLine
 10
635.596286
 20
288.697992
 30
0.0
 11
637.596286
 21
288.697992
 31
0.0
  0
ELLIPSE
  5
EE
100
AcDbEntity
  8
LC-002-002-----0
370
    50
390
0
 62
     1
100
AcDbEllipse
 10
105.571539
 20
314.6982
 30
0.0
 11
-0.0000264654725536
 21
5.9999999999438671
 31
0.0
210
0.0
220
0.0
230
1.0
 40
0.583333
 41
4.7123889803846897
 42
10.995574287564276
  0
ELLIPSE
  5
EF
100
AcDbEntity
  8
LC-002-002-----0
370
    50
390
0
 62
     1
100
AcDbEllipse
 10
105.566565
 20
301.706689
 30
0.0
 11
-0.0032504403924868
 21
4.4999988260773582
 31
0.0
210
0.0
220
0.0
230
1.0
 40
0.777778
 41
4.7123889803846897
 42
10.995574287564276
  0
ELLIPSE
  5
F0
100
AcDbEntity
  8
LC-002-002-----0
370
    50
390
0
 62
     1
100
AcDbEllipse
 10
105.565022
 20
327.689711
 30
0.0
 11
0.0027162420059191
 21
4.4999991802287633
 31
0.0
210
0.0
220
0.0
230
1.0
 40
0.777778
 41
4.7123889803846897
 42
10.995574287564276
  0
LINE
  5
F1
102
{ACAD_REACTORS
330
4FC
102
}
100
AcDbEntity
  8
LC-002-002-----0
370
    50
390
0
 62
     1
100
AcDbLine
 10
196.411234
 20
319.697992
 30
0.0
 11
196.411234
 21
309.697992
 31
0.0
  0
LINE
  5
F2
102
{ACAD_REACTORS
330
4FC
102
}
100
AcDbEntity
  8
LC-002-002-----0
370
    50
390
0
 62
     1
100
AcDbLine
 10
196.511234
 20
334.697992
 30
0.0
 11
183.411234
 21
334.697992
 31
0.0
  0
LINE
  5
F3
100
AcDbEntity
  8
LC-002-002-----0
370
    50
390
0
 62
     1
100
AcDbLine
 10
635.596286
 20
266.231509
 30
0.0
 11
637.596286
 21
266.231509
 31
0.0
  0
LINE
  5
F4
100
AcDbEntity
  8
LC-002-002-----0
370
    50
390
0
 62
     1
100
AcDbLine
 10
635.596286
 20
263.412029
 30
0.0
 11
637.596286
 21
263.412029
 31
0.0
  0
LINE
  5
F5
100
AcDbEntity
  8
LC-002-002-----0
370
    50
390
0
 62
     1
100
AcDbLine
 10
635.596286
 20
288.697992
 30
0.0
 11
635.596286
 21
263.412029
 31
0.0
  0
LINE
  5
F6
100
AcDbEntity
  8
LC-002-002-----0
370
    50
390
0
 62
     1
100
AcDbLine
 10
637.596286
 20
266.231509
 30
0.0
 11
637.596286
 21
257.197992
 31
0.0
  0
LINE
  5
F7
100
AcDbEntity
  8
LC-002-002-----0
370
    50
390
0
 62
     1
100
AcDbLine
 10
637.596286
 20
257.197992
 30
0.0
 11
645.596286
 21
257.197992
 31
0.0
  0
ARC
  5
F8
100
AcDbEntity
  8
LC-001-002-RND-0
370
    50
390
0
 62
     1
100
AcDbCircle
 10
645.596286
 20
371.197992
 30
0.0
 40
1.0
100
AcDbArc
 50
0.0
 51
90.0
  0
LINE
  5
F9
100
AcDbEntity
  8
LC-002-002-----0
370
    50
390
0
 62
     1
100
AcDbLine
 10
637.596286
 20
340.697992
 30
0.0
 11
637.596286
 21
363.102006
 31
0.0
  0
LINE
  5
FA
100
AcDbEntity
  8
LC-002-002-----0
370
    50
390
0
 62
     1
100
AcDbLine
 10
637.596286
 20
272.197992
 30
0.0
 11
637.596286
 21
266.197992
 31
0.0
  0
LINE
  5
FB
100
AcDbEntity
  8
LC-002-002-----0
370
    50
390
0
 62
     1
100
AcDbLine
 10
637.596286
 20
272.197992
 30
0.0
 11
637.596286
 21
288.697992
 31
0.0
  0
ARC
  5
FC
100
AcDbEntity
  8
LC-001-002-RND-0
370
    50
390
0
 62
     1
100
AcDbCircle
 10
645.596286
 20
258.197992
 30
0.0
 40
1.0
100
AcDbArc
 50
270.0
 51
0.0
  0
LINE
  5
FD
100
AcDbEntity
  8
LC-002-002-----0
370
    50
390
0
 62
     1
100
AcDbLine
 10
637.596286
 20
339.697992
 30
0.0
 11
634.596286
 21
339.697992
 31
0.0
  0
LINE
  5
FE
100
AcDbEntity
  8
LC-002-002-----0
370
    50
390
0
 62
     1
100
AcDbLine
 10
634.596286
 20
339.697992
 30
0.0
 11
634.596286
 21
289.697992
 31
0.0
  0
LINE
  5
FF
100
AcDbEntity
  8
LC-002-002-----0
370
    50
390
0
 62
     1
100
AcDbLine
 10
634.596286
 20
289.697992
 30
0.0
 11
637.596286
 21
289.697992
 31
0.0
  0
ARC
  5
100
100
AcDbEntity
  8
LC-001-002-RND-0
370
    50
390
0
 62
     1
100
AcDbCircle
 10
774.130884
 20
410.907883
 30
0.0
 40
2.5
100
AcDbArc
 50
270.0
 51
360.0
  0
LINE
  5
101
100
AcDbEntity
  8
LC-002-002-----0
370
    50
390
0
 62
     1
100
AcDbLine
 10
759.096286
 20
300.71876
 30
0.0
 11
776.096286
 21
300.71876
 31
0.0
  0
LINE
  5
102
102
{ACAD_REACTORS
330
509
102
}
100
AcDbEntity
  8
LC-002-002-----0
370
    50
390
0
 62
     1
100
AcDbLine
 10
731.096286
 20
328.197992
 30
0.0
 11
674.096286
 21
328.197992
 31
0.0
  0
LINE
  5
103
100
AcDbEntity
  8
LC-002-002-----0
370
    50
390
0
 62
     1
100
AcDbLine
 10
751.096286
 20
306.197992
 30
0.0
 11
751.096286
 21
323.180192
 31
0.0
  0
LINE
  5
104
100
AcDbEntity
  8
LC-002-002-----0
370
    50
390
0
 62
     1
100
AcDbLine
 10
758.217607
 20
305.319313
 30
0.0
 11
766.13182
 21
313.233526
 31
0.0
  0
LINE
  5
105
102
{ACAD_REACTORS
330
509
102
}
100
AcDbEntity
  8
LC-002-002-----0
370
    50
390
0
 62
     1
100
AcDbLine
 10
731.096286
 20
301.197992
 30
0.0
 11
655.096286
 21
301.197992
 31
0.0
  0
LINE
  5
106
100
AcDbEntity
  8
LC-002-002-----0
370
    50
390
0
 62
     1
100
AcDbLine
 10
637.596286
 20
343.197992
 30
0.0
 11
646.596286
 21
343.197992
 31
0.0
  0
LINE
  5
107
100
AcDbEntity
  8
LC-002-002-----0
370
    50
390
0
 62
     1
100
AcDbLine
 10
637.596286
 20
286.197992
 30
0.0
 11
646.596286
 21
286.197992
 31
0.0
  0
LINE
  5
108
100
AcDbEntity
  8
LC-002-002-----0
370
    50
390
0
 62
     1
100
AcDbLine
 10
742.096286
 20
341.697992
 30
0.0
 11
742.096286
 21
287.697992
 31
0.0
  0
LINE
  5
109
100
AcDbEntity
  8
LC-002-002-----0
370
    50
390
0
 62
     1
100
AcDbLine
 10
780.596286
 20
298.21876
 30
0.0
 11
754.596286
 21
298.21876
 31
0.0
  0
DIMENSION
  5
123
100
AcDbEntity
  8
LC-004-003-----0
370
    25
390
0
 62
     2
100
AcDbDimension
  2
*D2
 10
81.028449
 20
216.0
 30
0.0
 11
81.028449
 21
216.0
 31
0.0
 71
     5
 72
     1
 41
1.0
 42
0.0
  1
73-120
  3
LC-DIM-L-0140-02-02
100
AcDbAlignedDimension
 13
215.411234
 23
263.412029
 33
0.0
 14
115.071425
 24
269.698719
 34
0.0
100
AcDbRotatedDimension
  0
LINE
  5
124
100
AcDbEntity
  8
LC-002-002-----0
370
    50
390
0
 62
     1
100
AcDbLine
 10
749.096286
 20
326.697992
 30
0.0
 11
742.096286
 21
341.697992
 31
0.0
  0
DIMENSION
  5
13E
100
AcDbEntity
  8
LC-004-003-----0
370
    25
390
0
 62
     2
100
AcDbDimension
  2
*D3
 10
410.486486
 20
431.2
 30
0.0
 11
410.486486
 21
431.2
 31
0.0
 71
     5
 72
     1
 41
1.0
 42
0.0
  3
LC-DIM-L-0140-02-02
100
AcDbAlignedDimension
 13
364.64376
 23
424.450042
 33
0.0
 14
444.64376
 24
372.197992
 34
0.0
100
AcDbRotatedDimension
  0
LINE
  5
13F
100
AcDbEntity
  8
LC-002-002-----0
370
    50
390
0
 62
     1
100
AcDbLine
 10
749.096286
 20
302.697992
 30
0.0
 11
742.096286
 21
287.697992
 31
0.0
  0
DIMENSION
  5
159
100
AcDbEntity
  8
LC-004-003-----0
370
    25
390
0
 62
     2
100
AcDbDimension
  2
*D4
 10
252.0
 20
247.068
 30
0.0
 11
252.0
 21
247.068
 31
0.0
 71
     5
 72
     1
 41
1.0
 42
0.0
  3
LC-DIM-L-0140-02-02
100
AcDbAlignedDimension
 13
261.945906
 23
314.697992
 33
0.0
 14
420.581583
 24
121.697992
 34
0.0
 50
90.0
100
AcDbRotatedDimension
  0
LINE
  5
15A
100
AcDbEntity
  8
LC-002-002-----0
370
    25
390
0
 62
     2
100
AcDbLine
 10
87.070226
 20
328.574665
 30
0.0
 11
87.070226
 21
322.574665
 31
0.0
  0
LINE
  5
15B
100
AcDbEntity
  8
LC-002-002-----0
370
    50
390
0
 62
     1
100
AcDbLine
 10
109.071561
 20
340.786397
 30
0.0
 11
110.071425
 21
340.490251
 31
0.0
  0
ARC
  5
15C
102
{ACAD_REACTORS
330
50C
102
}
100
AcDbEntity
  8
LC-002-002-----0
370
    50
390
0
 62
     1
100
AcDbCircle
 10
444.64376
 20
314.697992
 30
0.0
 40
57.5
100
AcDbArc
 50
343.042574
 51
16.957426
  0
ARC
  5
15D
102
{ACAD_REACTORS
330
50C
102
}
100
AcDbEntity
  8
LC-002-002-----0
370
    25
390
0
  6
DASHED
 62
     2
100
AcDbCircle
 10
444.64376
 20
314.697992
 30
0.0
 40
57.5
100
AcDbArc
 50
16.957426
 51
73.042574
  0
LINE
  5
15E
100
AcDbEntity
  8
LC-002-002-----0
370
    25
390
0
  6
DASHDOT
 62
     2
100
AcDbLine
 10
344.496646
 20
317.72306
 30
0.0
 11
344.496646
 21
311.697992
 31
0.0
  0
LINE
  5
15F
100
AcDbEntity
  8
LC-002-002-----0
370
    50
390
0
 62
     1
100
AcDbLine
 10
109.071559
 20
341.698465
 30
0.0
 11
109.071643
 21
287.698466
 31
0.0
  0
LINE
  5
160
100
AcDbEntity
  8
LC-002-002-----0
370
    25
390
0
  6
DASHDOT
 62
     2
100
AcDbLine
 10
384.648032
 20
317.697992
 30
0.0
 11
384.648032
 21
311.607236
 31
0.0
  0
LINE
  5
161
100
AcDbEntity
  8
LC-002-002-----0
370
    25
390
0
  6
DASHDOT
 62
     2
100
AcDbLine
 10
397.64376
 20
319.697992
 30
0.0
 11
397.64376
 21
309.697992
 31
0.0
  0
LINE
  5
162
100
AcDbEntity
  8
LC-002-002-----0
370
    25
390
0
  6
DASHDOT
 62
     2
100
AcDbLine
 10
491.64376
 20
319.697992
 30
0.0
 11
491.64376
 21
309.697992
 31
0.0
  0
LINE
  5
163
100
AcDbEntity
  8
LC-002-002-----0
370
    25
390
0
  6
DASHDOT
 62
     2
100
AcDbLine
 10
485.869838
 20
280.695193
 30
0.0
 11
485.869838
 21
270.695193
 31
0.0
  0
ARC
  5
164
102
{ACAD_REACTORS
330
50E
102
}
100
AcDbEntity
  8
LC-002-002-----0
370
    25
390
0
  6
DASHED
 62
     2
100
AcDbCircle
 10
98.059509
 20
256.255831
 30
0.0
 40
4.5
100
AcDbArc
 50
278.327207
 51
278.714603
  0
LINE
  5
165
100
AcDbEntity
  8
LC-002-002-----0
370
    25
390
0
  6
DASHDOT
 62
     2
100
AcDbLine
 10
490.869838
 20
275.695193
 30
0.0
 11
483.269838
 21
275.695193
 31
0.0
  0
LINE
  5
166
100
AcDbEntity
  8
LC-002-002-----0
370
    25
390
0
  6
DASHDOT
 62
     2
100
AcDbLine
 10
399.869838
 20
280.195193
 30
0.0
 11
399.869838
 21
270.195193
 31
0.0
  0
LINE
  5
167
100
AcDbEntity
  8
LC-002-002-----0
370
    25
390
0
  6
DASHDOT
 62
     2
100
AcDbLine
 10
394.869838
 20
275.195193
 30
0.0
 11
405.040006
 21
275.195193
 31
0.0
  0
LINE
  5
168
100
AcDbEntity
  8
LC-002-002-----0
370
    25
390
0
  6
DASHED
 62
     2
100
AcDbLine
 10
731.096286
 20
301.197992
 30
0.0
 11
743.236096
 21
301.197992
 31
0.0
  0
ARC
  5
169
100
AcDbEntity
  8
LC-002-002-----0
370
    50
390
0
 62
     1
100
AcDbCircle
 10
364.64376
 20
314.697992
 30
0.0
 40
27.0
100
AcDbArc
 50
305.034815
 51
234.962576
  0
ARC
  5
16A
100
AcDbEntity
  8
LC-002-002-----0
370
    25
390
0
  6
DASHED
 62
     2
100
AcDbCircle
 10
364.64376
 20
314.697992
 30
0.0
 40
27.0
100
AcDbArc
 50
234.965185
 51
305.034815
  0
LINE
  5
16B
100
AcDbEntity
  8
LC-002-002-----0
370
    25
390
0
 62
     2
100
AcDbLine
 10
779.096286
 20
295.21876
 30
0.0
 11
779.096286
 21
299.052094
 31
0.0
  0
ARC
  5
16C
100
AcDbEntity
  8
LC-002-002-----0
370
    50
390
0
 62
     1
100
AcDbCircle
 10
364.64376
 20
439.950042
 30
0.0
 40
18.0
100
AcDbArc
 50
49.471221
 51
131.001814
  0
LINE
  5
16D
100
AcDbEntity
  8
LC-002-002-----0
370
    25
390
0
  6
DASHED
 62
     2
100
AcDbLine
 10
351.14376
 20
428.044161
 30
0.0
 11
351.14376
 21
407.450042
 31
0.0
  0
ARC
  5
16E
100
AcDbEntity
  8
LC-002-002-----0
370
    50
390
0
 62
     1
100
AcDbCircle
 10
386.398083
 20
452.509906
 30
0.0
 40
10.119728
100
AcDbArc
 50
173.636834
 51
246.363166
  0
LINE
  5
16F
100
AcDbEntity
  8
LC-002-002-----0
370
    50
390
0
 62
     1
100
AcDbLine
 10
754.596286
 20
295.21876
 30
0.0
 11
780.596286
 21
295.21876
 31
0.0
  0
LINE
  5
170
100
AcDbEntity
  8
LC-002-002-----0
370
    50
390
0
 62
     1
100
AcDbLine
 10
783.096286
 20
270.21876
 30
0.0
 11
752.096286
 21
270.21876
 31
0.0
  0
LINE
  5
171
100
AcDbEntity
  8
LC-002-002-----0
370
    50
390
0
 62
     1
100
AcDbLine
 10
752.096286
 20
270.21876
 30
0.0
 11
752.096286
 21
292.71876
 31
0.0
  0
LINE
  5
172
100
AcDbEntity
  8
LC-002-002-----0
370
    50
390
0
 62
     1
100
AcDbLine
 10
783.096286
 20
292.71876
 30
0.0
 11
783.096286
 21
270.21876
 31
0.0
  0
LINE
  5
173
100
AcDbEntity
  8
LC-002-002-----0
370
    50
390
0
 62
     1
100
AcDbLine
 10
754.596286
 20
295.21876
 30
0.0
 11
752.096286
 21
292.71876
 31
0.0
  0
LINE
  5
174
100
AcDbEntity
  8
LC-002-002-----0
370
    50
390
0
 62
     1
100
AcDbLine
 10
780.596286
 20
295.21876
 30
0.0
 11
783.096286
 21
292.71876
 31
0.0
  0
LINE
  5
177
100
AcDbEntity
  8
LC-007-006-MLN-0
370
    25
390
0
 62
     2
100
AcDbLine
 10
364.64376
 20
313.657992
 30
0.0
 11
364.64376
 21
250.467729
 31
0.0
  0
LINE
  5
178
100
AcDbEntity
  8
LC-002-002-----0
370
    50
390
0
 62
     1
100
AcDbLine
 10
109.071561
 20
336.286397
 30
0.0
 11
110.071425
 21
335.990251
 31
0.0
  0
LINE
  5
179
100
AcDbEntity
  8
LC-002-002-----0
370
    50
390
0
 62
     1
100
AcDbLine
 10
752.096286
 20
292.71876
 30
0.0
 11
783.096286
 21
292.71876
 31
0.0
  0
LINE
  5
17A
100
AcDbEntity
  8
LC-002-002-----0
370
    50
390
0
 62
     1
100
AcDbLine
 10
779.846286
 20
270.21876
 30
0.0
 11
779.846286
 21
267.71876
 31
0.0
  0
LINE
  5
17B
100
AcDbEntity
  8
LC-002-002-----0
370
    25
390
0
  6
DASHDOT
 62
     2
100
AcDbLine
 10
67.069273
 20
314.697102
 30
0.0
 11
67.069241
 21
264.700213
 31
0.0
  0
LINE
  5
17C
100
AcDbEntity
  8
LC-002-002-----0
370
    50
390
0
 62
     1
100
AcDbLine
 10
779.846286
 20
267.71876
 30
0.0
 11
755.346286
 21
267.71876
 31
0.0
  0
LINE
  5
17D
100
AcDbEntity
  8
LC-002-002-----0
370
    50
390
0
 62
     1
100
AcDbLine
 10
755.346286
 20
267.71876
 30
0.0
 11
755.346286
 21
270.21876
 31
0.0
  0
LINE
  5
17E
100
AcDbEntity
  8
LC-002-002-----0
370
    50
390
0
 62
     1
100
AcDbLine
 10
781.096286
 20
267.71876
 30
0.0
 11
781.096286
 21
262.71876
 31
0.0
  0
LINE
  5
17F
100
AcDbEntity
  8
LC-002-002-----0
370
    50
390
0
 62
     1
100
AcDbLine
 10
102.069286
 20
334.45019
 30
0.0
 11
102.069286
 21
331.30019
 31
0.0
  0
LINE
  5
180
100
AcDbEntity
  8
LC-002-002-----0
370
    50
390
0
 62
     1
100
AcDbLine
 10
77.069265
 20
302.700207
 30
0.0
 11
67.069273
 21
314.697102
 31
0.0
  0
LINE
  5
181
100
AcDbEntity
  8
LC-002-002-----0
370
    50
390
0
 62
     1
100
AcDbLine
 10
781.096286
 20
262.71876
 30
0.0
 11
754.096286
 21
262.71876
 31
0.0
  0
LINE
  5
182
100
AcDbEntity
  8
LC-002-002-----0
370
    50
390
0
 62
     1
100
AcDbLine
 10
754.096286
 20
262.71876
 30
0.0
 11
754.096286
 21
267.71876
 31
0.0
  0
LINE
  5
183
100
AcDbEntity
  8
LC-007-006-MLN-0
370
    25
390
0
 62
     2
100
AcDbLine
 10
364.64376
 20
341.937992
 30
0.0
 11
364.64376
 21
315.737992
 31
0.0
  0
LINE
  5
184
100
AcDbEntity
  8
LC-002-002-----0
370
    50
390
0
 62
     1
100
AcDbLine
 10
754.096286
 20
267.71876
 30
0.0
 11
755.346286
 21
267.71876
 31
0.0
  0
LINE
  5
185
100
AcDbEntity
  8
LC-002-002-----0
370
    50
390
0
 62
     1
100
AcDbLine
 10
779.846286
 20
267.71876
 30
0.0
 11
781.096286
 21
267.71876
 31
0.0
  0
ARC
  5
186
100
AcDbEntity
  8
LC-002-002-----0
370
    50
390
0
 62
     1
100
AcDbCircle
 10
756.268893
 20
265.21876
 30
0.0
 40
0.5
100
AcDbArc
 50
136.08159
 51
223.918258
  0
LINE
  5
187
100
AcDbEntity
  8
LC-002-002-----0
370
    50
390
0
 62
     1
100
AcDbLine
 10
633.096286
 20
332.197992
 30
0.0
 11
633.096286
 21
322.197992
 31
0.0
  0
LINE
  5
188
100
AcDbEntity
  8
LC-002-002-----0
370
    50
390
0
 62
     1
100
AcDbLine
 10
633.596286
 20
332.697992
 30
0.0
 11
634.096286
 21
332.697992
 31
0.0
  0
ARC
  5
189
102
{ACAD_REACTORS
330
505
102
}
100
AcDbEntity
  8
LC-002-002-----0
370
    25
390
0
  6
DASHED
 62
     2
100
AcDbCircle
 10
444.64376
 20
314.697992
 30
0.0
 40
42.0
100
AcDbArc
 50
359.831098
 51
26.765501
  0
LINE
  5
18A
100
AcDbEntity
  8
LC-002-002-----0
370
    50
390
0
 62
     1
100
AcDbLine
 10
633.596286
 20
321.697992
 30
0.0
 11
634.096286
 21
321.697992
 31
0.0
  0
ARC
  5
18B
100
AcDbEntity
  8
LC-001-002-RND-0
370
    50
390
0
 62
     1
100
AcDbCircle
 10
633.596286
 20
322.197992
 30
0.0
 40
0.5
100
AcDbArc
 50
180.0
 51
270.0
  0
ARC
  5
18C
100
AcDbEntity
  8
LC-001-002-RND-0
370
    50
390
0
 62
     1
100
AcDbCircle
 10
634.096286
 20
322.197992
 30
0.0
 40
0.5
100
AcDbArc
 50
270.0
 51
0.0
  0
ARC
  5
18D
100
AcDbEntity
  8
LC-002-002-----0
370
    50
390
0
 62
     1
100
AcDbCircle
 10
642.721286
 20
327.197992
 30
0.0
 40
10.625
100
AcDbArc
 50
154.942385
 51
205.057615
  0
ARC
  5
18E
100
AcDbEntity
  8
LC-001-002-RND-0
370
    50
390
0
 62
     1
100
AcDbCircle
 10
634.096286
 20
332.197992
 30
0.0
 40
0.5
100
AcDbArc
 50
0.0
 51
90.0
  0
ARC
  5
18F
100
AcDbEntity
  8
LC-001-002-RND-0
370
    50
390
0
 62
     1
100
AcDbCircle
 10
633.596286
 20
332.197992
 30
0.0
 40
0.5
100
AcDbArc
 50
90.0
 51
180.0
  0
ARC
  5
190
100
AcDbEntity
  8
LC-002-002-----0
370
    50
390
0
 62
     1
100
AcDbCircle
 10
760.971286
 20
260.690635
 30
0.0
 40
7.028125
100
AcDbArc
 50
43.91841
 51
136.081571
  0
ARC
  5
191
100
AcDbEntity
  8
LC-002-002-----0
370
    50
390
0
 62
     1
100
AcDbCircle
 10
765.673679
 20
265.21876
 30
0.0
 40
0.5
100
AcDbArc
 50
316.081648
 51
43.91841
  0
ARC
  5
192
100
AcDbEntity
  8
LC-002-002-----0
370
    50
390
0
 62
     1
100
AcDbCircle
 10
760.971286
 20
269.746885
 30
0.0
 40
7.028125
100
AcDbArc
 50
223.918258
 51
316.08159
  0
ARC
  5
193
100
AcDbEntity
  8
LC-002-002-----0
370
    50
390
0
 62
     1
100
AcDbCircle
 10
769.518893
 20
265.21876
 30
0.0
 40
0.5
100
AcDbArc
 50
136.08159
 51
223.918258
  0
ARC
  5
194
100
AcDbEntity
  8
LC-002-002-----0
370
    50
390
0
 62
     1
100
AcDbCircle
 10
774.221286
 20
260.690635
 30
0.0
 40
7.028125
100
AcDbArc
 50
43.91841
 51
136.081571
  0
ARC
  5
195
100
AcDbEntity
  8
LC-002-002-----0
370
    50
390
0
 62
     1
100
AcDbCircle
 10
778.923679
 20
265.21876
 30
0.0
 40
0.5
100
AcDbArc
 50
316.081648
 51
43.91841
  0
ARC
  5
196
100
AcDbEntity
  8
LC-002-002-----0
370
    50
390
0
 62
     1
100
AcDbCircle
 10
774.221286
 20
269.746885
 30
0.0
 40
7.028125
100
AcDbArc
 50
223.918258
 51
316.08159
  0
LINE
  5
197
100
AcDbEntity
  8
LC-006-001-----0
370
    25
390
0
  6
DASHDOT
 62
     2
100
AcDbLine
 10
781.096286
 20
265.21876
 30
0.0
 11
754.096286
 21
265.21876
 31
0.0
  0
ARC
  5
198
100
AcDbEntity
  8
LC-002-002-----0
370
    50
390
0
 62
     1
100
AcDbCircle
 10
752.762953
 20
265.21876
 30
0.0
 40
2.833333
100
AcDbArc
 50
298.072604
 51
61.927571
  0
ARC
  5
199
100
AcDbEntity
  8
LC-002-002-----0
370
    50
390
0
 62
     1
100
AcDbCircle
 10
782.42962
 20
265.21876
 30
0.0
 40
2.833333
100
AcDbArc
 50
118.072449
 51
241.92719
  0
LINE
  5
19A
100
AcDbEntity
  8
LC-002-002-----0
370
    50
390
0
 62
     1
100
AcDbLine
 10
780.096286
 20
262.71876
 30
0.0
 11
780.096286
 21
255.512445
 31
0.0
  0
LINE
  5
19B
100
AcDbEntity
  8
LC-002-002-----0
370
    50
390
0
 62
     1
100
AcDbLine
 10
755.096286
 20
260.21876
 30
0.0
 11
755.096286
 21
262.71876
 31
0.0
  0
LINE
  5
19C
100
AcDbEntity
  8
LC-002-002-----0
370
    50
390
0
 62
     1
100
AcDbLine
 10
779.302602
 20
254.71876
 30
0.0
 11
755.889971
 21
254.71876
 31
0.0
  0
LINE
  5
19D
100
AcDbEntity
  8
LC-002-002-----0
370
    25
390
0
 62
     2
100
AcDbLine
 10
780.096286
 20
262.71876
 30
0.0
 11
755.096286
 21
260.531544
 31
0.0
  0
LINE
  5
19E
102
{ACAD_REACTORS
330
505
102
}
100
AcDbEntity
  8
LC-002-002-----0
370
    50
390
0
 62
     1
100
AcDbLine
 10
476.270059
 20
231.088646
 30
0.0
 11
479.824921
 21
259.697992
 31
0.0
  0
LINE
  5
19F
100
AcDbEntity
  8
LC-002-002-----0
370
    25
390
0
 62
     2
100
AcDbLine
 10
87.07022
 20
317.698289
 30
0.0
 11
101.069275
 21
317.69912
 31
0.0
  0
ARC
  5
1A0
102
{ACAD_REACTORS
330
505
102
}
100
AcDbEntity
  8
LC-002-002-----0
370
    50
390
0
 62
     1
100
AcDbCircle
 10
471.307328
 20
231.697992
 30
0.0
 40
5.0
100
AcDbArc
 50
270.0
 51
353.0
  0
ARC
  5
1A1
102
{ACAD_REACTORS
330
505
102
}
100
AcDbEntity
  8
LC-002-002-----0
370
    50
390
0
 62
     1
100
AcDbCircle
 10
415.662239
 20
236.697992
 30
0.0
 40
10.0
100
AcDbArc
 50
182.183915
 51
270.0
  0
LINE
  5
1A2
100
AcDbEntity
  8
LC-002-002-----0
370
    25
390
0
 62
     2
100
AcDbLine
 10
87.070577
 20
311.698289
 30
0.0
 11
101.069271
 21
311.69912
 31
0.0
  0
LINE
  5
1A3
102
{ACAD_REACTORS
330
505
102
}
100
AcDbEntity
  8
LC-002-002-----0
370
    50
390
0
 62
     1
100
AcDbLine
 10
469.64376
 20
125.197992
 30
0.0
 11
468.705938
 21
121.697992
 31
0.0
  0
LINE
  5
1A4
102
{ACAD_REACTORS
330
505
102
}
100
AcDbEntity
  8
LC-002-002-----0
370
    50
390
0
 62
     1
100
AcDbLine
 10
419.64376
 20
125.197992
 30
0.0
 11
420.581583
 21
121.697992
 31
0.0
  0
LINE
  5
1A5
100
AcDbEntity
  8
LC-002-002-----0
370
    25
390
0
 62
     2
100
AcDbLine
 10
780.096286
 20
261.714941
 30
0.0
 11
755.096286
 21
259.527724
 31
0.0
  0
LINE
  5
1A6
100
AcDbEntity
  8
LC-002-002-----0
370
    25
390
0
 62
     2
100
AcDbLine
 10
780.096286
 20
260.711121
 30
0.0
 11
755.096286
 21
258.523904
 31
0.0
  0
LINE
  5
1A7
100
AcDbEntity
  8
LC-002-002-----0
370
    25
390
0
 62
     2
100
AcDbLine
 10
780.096286
 20
259.707301
 30
0.0
 11
755.096286
 21
257.520084
 31
0.0
  0
LINE
  5
1A8
100
AcDbEntity
  8
LC-002-002-----0
370
    25
390
0
 62
     2
100
AcDbLine
 10
780.096286
 20
258.703481
 30
0.0
 11
755.096286
 21
256.516264
 31
0.0
  0
ARC
  5
1A9
102
{ACAD_REACTORS
330
4FC
102
}
100
AcDbEntity
  8
LC-001-002-RND-0
370
    50
390
0
 62
     1
100
AcDbCircle
 10
198.911234
 20
171.697992
 30
0.0
 40
4.0
100
AcDbArc
 50
0.0
 51
90.0
  0
ARC
  5
1AA
102
{ACAD_REACTORS
330
4FC
102
}
100
AcDbEntity
  8
LC-001-002-RND-0
370
    50
390
0
 62
     1
100
AcDbCircle
 10
156.911234
 20
171.697992
 30
0.0
 40
4.0
100
AcDbArc
 50
103.342364
 51
180.0
  0
LINE
  5
1AB
102
{ACAD_REACTORS
330
4FC
102
}
100
AcDbEntity
  8
LC-002-002-----0
370
    50
390
0
 62
     1
100
AcDbLine
 10
202.411234
 20
227.697992
 30
0.0
 11
202.411234
 21
312.404716
 31
0.0
  0
LINE
  5
1AC
102
{ACAD_REACTORS
330
4FC
102
}
100
AcDbEntity
  8
LC-002-002-----0
370
    50
390
0
 62
     1
100
AcDbLine
 10
202.411234
 20
334.697992
 30
0.0
 11
202.411234
 21
355.697992
 31
0.0
  0
LINE
  5
1AD
102
{ACAD_REACTORS
330
4FC
102
}
100
AcDbEntity
  8
LC-002-002-----0
370
    50
390
0
 62
     1
100
AcDbLine
 10
200.911234
 20
226.697992
 30
0.0
 11
200.911234
 21
312.147027
 31
0.0
  0
LINE
  5
1AE
102
{ACAD_REACTORS
330
4FC
102
}
100
AcDbEntity
  8
LC-002-002-----0
370
    50
390
0
 62
     1
100
AcDbLine
 10
200.911234
 20
334.697992
 30
0.0
 11
200.911234
 21
356.697992
 31
0.0
  0
LINE
  5
1AF
102
{ACAD_REACTORS
330
4FC
102
}
100
AcDbEntity
  8
LC-002-002-----0
370
    50
390
0
 62
     1
100
AcDbLine
 10
204.411234
 20
230.697992
 30
0.0
 11
204.411234
 21
371.197992
 31
0.0
  0
LINE
  5
1B0
102
{ACAD_REACTORS
330
4FC
102
}
100
AcDbEntity
  8
LC-002-002-----0
370
    50
390
0
 62
     1
100
AcDbLine
 10
204.411234
 20
334.697992
 30
0.0
 11
204.411234
 21
352.697992
 31
0.0
  0
LINE
  5
1B1
102
{ACAD_REACTORS
330
4FC
102
}
100
AcDbEntity
  8
LC-002-002-----0
370
    50
390
0
 62
     1
100
AcDbLine
 10
173.339769
 20
341.697992
 30
0.0
 11
165.527586
 21
301.197992
 31
0.0
  0
LINE
  5
1B2
102
{ACAD_REACTORS
330
4FC
102
}
100
AcDbEntity
  8
LC-002-002-----0
370
    50
390
0
 62
     1
100
AcDbLine
 10
196.511234
 20
337.197992
 30
0.0
 11
183.411234
 21
337.197992
 31
0.0
  0
LINE
  5
1B3
102
{ACAD_REACTORS
330
4FC
102
}
100
AcDbEntity
  8
LC-002-002-----0
370
    50
390
0
 62
     1
100
AcDbLine
 10
199.411234
 20
227.697992
 30
0.0
 11
199.411234
 21
312.490613
 31
0.0
  0
LINE
  5
1B4
100
AcDbEntity
  8
LC-002-002-----0
370
    50
390
0
 62
     1
100
AcDbLine
 10
110.071421
 20
341.402319
 30
0.0
 11
110.071421
 21
339.620577
 31
0.0
  0
LINE
  5
1B5
102
{ACAD_REACTORS
330
4FC
102
}
100
AcDbEntity
  8
LC-002-002-----0
370
    50
390
0
 62
     1
100
AcDbLine
 10
199.411234
 20
334.697992
 30
0.0
 11
199.411234
 21
355.697992
 31
0.0
  0
LINE
  5
1B6
102
{ACAD_REACTORS
330
505
102
}
100
AcDbEntity
  8
LC-002-002-----0
370
    50
390
0
 62
     1
100
AcDbLine
 10
469.64376
 20
171.697992
 30
0.0
 11
469.64376
 21
125.197992
 31
0.0
  0
LINE
  5
1B7
100
AcDbEntity
  8
LC-002-002-----0
370
    25
390
0
 62
     2
100
AcDbLine
 10
87.070226
 20
328.574665
 30
0.0
 11
101.06928
 21
328.574656
 31
0.0
  0
LINE
  5
1B8
100
AcDbEntity
  8
LC-002-002-----0
370
    25
390
0
 62
     2
100
AcDbLine
 10
780.096286
 20
257.699661
 30
0.0
 11
755.096286
 21
255.512445
 31
0.0
  0
LINE
  5
1B9
102
{ACAD_REACTORS
330
505
102
}
100
AcDbEntity
  8
LC-002-002-----0
370
    50
390
0
 62
     1
100
AcDbLine
 10
419.64376
 20
171.697992
 30
0.0
 11
419.64376
 21
125.197992
 31
0.0
  0
LINE
  5
1BA
102
{ACAD_REACTORS
330
505
102
}
100
AcDbEntity
  8
LC-002-002-----0
370
    50
390
0
 62
     1
100
AcDbLine
 10
424.64376
 20
226.697992
 30
0.0
 11
424.64376
 21
175.697992
 31
0.0
  0
LINE
  5
1BB
100
AcDbEntity
  8
LC-002-002-----0
370
    50
390
0
 62
     1
100
AcDbLine
 10
101.069261
 20
295.948164
 30
0.0
 11
101.069286
 21
334.450191
 31
0.0
  0
LINE
  5
1BC
100
AcDbEntity
  8
LC-002-002-----0
370
    50
390
0
 62
     1
100
AcDbLine
 10
101.069286
 20
334.450191
 30
0.0
 11
102.069286
 21
334.45019
 31
0.0
  0
ARC
  5
1BD
100
AcDbEntity
  8
LC-002-002-----0
370
    50
390
0
 62
     1
100
AcDbCircle
 10
87.069283
 20
330.4502
 30
0.0
 40
3.0
100
AcDbArc
 50
89.999963
 51
179.999963
  0
LINE
  5
1BE
100
AcDbEntity
  8
LC-002-002-----0
370
    50
390
0
 62
     1
100
AcDbLine
 10
87.069285
 20
333.4502
 30
0.0
 11
101.069285
 21
333.450191
 31
0.0
  0
LINE
  5
1BF
100
AcDbEntity
  8
LC-002-002-----0
370
    50
390
0
 62
     1
100
AcDbLine
 10
87.071626
 20
295.948099
 30
0.0
 11
101.071626
 21
295.948164
 31
0.0
  0
LINE
  5
1C0
100
AcDbEntity
  8
LC-002-002-----0
370
    50
390
0
 62
     1
100
AcDbLine
 10
101.071626
 20
295.948164
 30
0.0
 11
101.071631
 21
294.948164
 31
0.0
  0
LINE
  5
1C1
100
AcDbEntity
  8
LC-002-002-----0
370
    50
390
0
 62
     1
100
AcDbLine
 10
101.071631
 20
294.948164
 30
0.0
 11
102.071631
 21
294.948168
 31
0.0
  0
LINE
  5
1C2
100
AcDbEntity
  8
LC-002-002-----0
370
    25
390
0
 62
     2
100
AcDbLine
 10
780.096286
 20
256.695841
 30
0.0
 11
757.498147
 21
254.71876
 31
0.0
  0
LINE
  5
1C3
100
AcDbEntity
  8
LC-002-002-----0
370
    25
390
0
 62
     2
100
AcDbLine
 10
767.596286
 20
262.628972
 30
0.0
 11
755.096286
 21
261.535364
 31
0.0
  0
LINE
  5
1C4
100
AcDbEntity
  8
LC-002-002-----0
370
    50
390
0
 62
     1
100
AcDbLine
 10
755.096286
 20
255.512445
 30
0.0
 11
755.889971
 21
254.71876
 31
0.0
  0
LINE
  5
1C5
100
AcDbEntity
  8
LC-002-002-----0
370
    50
390
0
 62
     1
100
AcDbLine
 10
780.096286
 20
255.512445
 30
0.0
 11
779.302602
 21
254.71876
 31
0.0
  0
LINE
  5
1C6
102
{ACAD_REACTORS
330
4FF
102
}
100
AcDbEntity
  8
LC-002-002-----0
370
    50
390
0
 62
     1
100
AcDbLine
 10
755.096286
 20
255.512445
 30
0.0
 11
755.096286
 21
260.21876
 31
0.0
  0
LINE
  5
1C7
100
AcDbEntity
  8
LC-002-002-----0
370
    50
390
0
 62
     1
100
AcDbLine
 10
780.096286
 20
255.512445
 30
0.0
 11
755.096286
 21
255.512445
 31
0.0
  0
LINE
  5
1C8
100
AcDbEntity
  8
LC-002-002-----0
370
    25
390
0
 62
     2
100
AcDbLine
 10
780.096286
 20
255.695841
 30
0.0
 11
768.9282
 21
254.71876
 31
0.0
  0
ARC
  5
1C9
100
AcDbEntity
  8
LC-002-002-----0
370
    50
390
0
 62
     1
100
AcDbCircle
 10
364.64376
 20
439.950042
 30
0.0
 40
18.0
100
AcDbArc
 50
289.471221
 51
10.528779
  0
LINE
  5
1CA
100
AcDbEntity
  8
LC-002-002-----0
370
    25
390
0
  6
DASHED
 62
     2
100
AcDbLine
 10
378.14376
 20
446.655416
 30
0.0
 11
378.14376
 21
472.450042
 31
0.0
  0
ARC
  5
1CB
100
AcDbEntity
  8
LC-002-002-----0
370
    50
390
0
 62
     1
100
AcDbCircle
 10
364.64376
 20
414.830314
 30
0.0
 40
10.119728
100
AcDbArc
 50
53.636834
 51
126.363166
  0
ARC
  5
1CC
100
AcDbEntity
  8
LC-002-002-----0
370
    50
390
0
 62
     1
100
AcDbCircle
 10
364.64376
 20
439.950042
 30
0.0
 40
18.0
100
AcDbArc
 50
169.471221
 51
250.528779
  0
ARC
  5
1CD
100
AcDbEntity
  8
LC-002-002-----0
370
    50
390
0
 62
     1
100
AcDbCircle
 10
342.889438
 20
452.509906
 30
0.0
 40
10.119728
100
AcDbArc
 50
293.636834
 51
6.363166
  0
LINE
  5
1CE
100
AcDbEntity
  8
LC-002-002-----0
370
    25
390
0
  6
DASHED
 62
     2
100
AcDbLine
 10
351.14376
 20
447.450042
 30
0.0
 11
351.14376
 21
428.044161
 31
0.0
  0
LINE
  5
1CF
100
AcDbEntity
  8
LC-002-002-----0
370
    50
390
0
 62
     1
100
AcDbLine
 10
754.596286
 20
295.21876
 30
0.0
 11
754.596286
 21
298.21876
 31
0.0
  0
LINE
  5
1D0
100
AcDbEntity
  8
LC-002-002-----0
370
    50
390
0
 62
     1
100
AcDbLine
 10
780.596286
 20
295.21876
 30
0.0
 11
780.596286
 21
298.21876
 31
0.0
  0
LINE
  5
1D1
100
AcDbEntity
  8
LC-002-002-----0
370
    50
390
0
 62
     1
100
AcDbLine
 10
780.596286
 20
298.21876
 30
0.0
 11
776.096286
 21
300.71876
 31
0.0
  0
LINE
  5
1D2
100
AcDbEntity
  8
LC-002-002-----0
370
    50
390
0
 62
     1
100
AcDbLine
 10
759.096286
 20
300.71876
 30
0.0
 11
754.596286
 21
298.21876
 31
0.0
  0
LINE
  5
1D3
100
AcDbEntity
  8
LC-002-002-----0
370
    25
390
0
  6
DASHED
 62
     2
100
AcDbLine
 10
378.14376
 20
446.488391
 30
0.0
 11
378.14376
 21
428.044161
 31
0.0
  0
LINE
  5
1D4
100
AcDbEntity
  8
LC-002-002-----0
370
    25
390
0
  6
DASHDOT
 62
     2
100
AcDbLine
 10
364.64376
 20
407.450042
 30
0.0
 11
364.64376
 21
387.44928
 31
0.0
  0
INSERT
  5
1DD
100
AcDbEntity
  8
LC-008-005-----0
370
    25
390
0
 62
     2
100
AcDbBlockReference
  2
*X5
 10
0.0
 20
0.0
 30
0.0
  0
LINE
  5
1DE
100
AcDbEntity
  8
LC-002-002-----0
370
    50
390
0
 62
     1
100
AcDbLine
 10
700.854414
 20
458.407883
 30
0.0
 11
700.854414
 21
388.407883
 31
0.0
  0
LINE
  5
1DF
100
AcDbEntity
  8
LC-002-002-----0
370
    25
390
0
  6
DASHDOT
 62
     2
100
AcDbLine
 10
767.596286
 20
252.012371
 30
0.0
 11
767.596286
 21
309.697992
 31
0.0
  0
ARC
  5
1E0
100
AcDbEntity
  8
LC-001-002-RND-0
370
    50
390
0
 62
     1
100
AcDbCircle
 10
708.257957
 20
456.407883
 30
0.0
 40
2.0
100
AcDbArc
 50
12.804266
 51
90.0
  0
LINE
  5
1E1
100
AcDbEntity
  8
LC-002-002-----0
370
    50
390
0
 62
     1
100
AcDbLine
 10
714.854414
 20
436.407883
 30
0.0
 11
714.854414
 21
410.407883
 31
0.0
  0
LINE
  5
1E2
100
AcDbEntity
  8
LC-002-002-----0
370
    25
390
0
  6
DASHED
 62
     2
100
AcDbLine
 10
759.596286
 20
295.21876
 30
0.0
 11
775.596286
 21
295.21876
 31
0.0
  0
LINE
  5
1E3
100
AcDbEntity
  8
LC-002-002-----0
370
    50
390
0
 62
     1
100
AcDbLine
 10
708.257957
 20
458.407883
 30
0.0
 11
700.854414
 21
458.407883
 31
0.0
  0
CIRCLE
  5
1E4
100
AcDbEntity
  8
LC-002-002-----0
370
    50
390
0
 62
     1
100
AcDbCircle
 10
364.64376
 20
439.950042
 30
0.0
 40
35.0
  0
LINE
  5
1E5
100
AcDbEntity
  8
LC-002-002-----0
370
    25
390
0
 62
     2
100
AcDbLine
 10
756.096286
 20
295.21876
 30
0.0
 11
756.096286
 21
299.052094
 31
0.0
  0
LINE
  5
1E6
100
AcDbEntity
  8
LC-002-002-----0
370
    50
390
0
 62
     1
100
AcDbLine
 10
708.257957
 20
388.407883
 30
0.0
 11
700.854414
 21
388.407883
 31
0.0
  0
LINE
  5
1E7
100
AcDbEntity
  8
LC-002-002-----0
370
    50
390
0
 62
     1
100
AcDbLine
 10
710.208223
 20
456.851125
 30
0.0
 11
714.854414
 21
436.407883
 31
0.0
  0
LINE
  5
1E8
100
AcDbEntity
  8
LC-002-002-----0
370
    50
390
0
 62
     1
100
AcDbLine
 10
714.854414
 20
410.407883
 30
0.0
 11
710.208223
 21
389.964641
 31
0.0
  0
ARC
  5
1E9
100
AcDbEntity
  8
LC-001-002-RND-0
370
    50
390
0
 62
     1
100
AcDbCircle
 10
708.257957
 20
390.407883
 30
0.0
 40
2.0
100
AcDbArc
 50
270.0
 51
347.195734
  0
LINE
  5
1EA
100
AcDbEntity
  8
LC-002-002-----0
370
    50
390
0
 62
     1
100
AcDbLine
 10
708.257957
 20
458.407883
 30
0.0
 11
708.257957
 21
388.407883
 31
0.0
  0
LINE
  5
1EB
100
AcDbEntity
  8
LC-002-002-----0
370
    50
390
0
 62
     1
100
AcDbLine
 10
714.854414
 20
436.407883
 30
0.0
 11
737.630884
 21
436.407883
 31
0.0
  0
LINE
  5
1EC
100
AcDbEntity
  8
LC-002-002-----0
370
    50
390
0
 62
     1
100
AcDbLine
 10
700.854414
 20
410.407883
 30
0.0
 11
686.630884
 21
410.407883
 31
0.0
  0
ARC
  5
1ED
100
AcDbEntity
  8
LC-002-002-----0
370
    50
390
0
 62
     1
100
AcDbCircle
 10
364.64376
 20
314.697992
 30
0.0
 40
8.5
100
AcDbArc
 50
1.182587
 51
175.108091
  0
LINE
  5
1EE
100
AcDbEntity
  8
LC-002-002-----0
370
    50
390
0
 62
     1
100
AcDbLine
 10
356.14376
 20
300.71876
 30
0.0
 11
373.14376
 21
300.71876
 31
0.0
  0
LINE
  5
1EF
100
AcDbEntity
  8
LC-002-002-----0
370
    25
390
0
  6
DASHED
 62
     2
100
AcDbLine
 10
700.854414
 20
436.407883
 30
0.0
 11
714.854414
 21
436.407883
 31
0.0
  0
LINE
  5
1F0
100
AcDbEntity
  8
LC-002-002-----0
370
    50
390
0
 62
     1
100
AcDbLine
 10
351.64376
 20
298.21876
 30
0.0
 11
377.64376
 21
298.21876
 31
0.0
  0
LINE
  5
1F1
100
AcDbEntity
  8
LC-002-002-----0
370
    25
390
0
 62
     2
100
AcDbLine
 10
353.14376
 20
295.21876
 30
0.0
 11
353.14376
 21
299.052094
 31
0.0
  0
LINE
  5
1F2
100
AcDbEntity
  8
LC-002-002-----0
370
    50
390
0
 62
     1
100
AcDbLine
 10
377.64376
 20
295.21876
 30
0.0
 11
351.64376
 21
295.21876
 31
0.0
  0
LINE
  5
1F3
100
AcDbEntity
  8
LC-002-002-----0
370
    50
390
0
 62
     1
100
AcDbLine
 10
349.14376
 20
270.21876
 30
0.0
 11
380.14376
 21
270.21876
 31
0.0
  0
LINE
  5
1F4
100
AcDbEntity
  8
LC-002-002-----0
370
    50
390
0
 62
     1
100
AcDbLine
 10
380.14376
 20
270.21876
 30
0.0
 11
380.14376
 21
292.71876
 31
0.0
  0
LINE
  5
1F5
100
AcDbEntity
  8
LC-002-002-----0
370
    50
390
0
 62
     1
100
AcDbLine
 10
102.071631
 20
294.948168
 30
0.0
 11
102.071462
 21
331.30019
 31
0.0
  0
ARC
  5
1F6
100
AcDbEntity
  8
LC-002-002-----0
370
    50
390
0
 62
     1
100
AcDbCircle
 10
87.071612
 20
298.948099
 30
0.0
 40
3.0
100
AcDbArc
 50
180.000267
 51
270.000229
  0
LINE
  5
1F7
100
AcDbEntity
  8
LC-002-002-----0
370
    25
390
0
 62
     2
100
AcDbLine
 10
87.070226
 20
322.574665
 30
0.0
 11
101.06928
 21
322.574656
 31
0.0
  0
LINE
  5
1F8
100
AcDbEntity
  8
LC-002-002-----0
370
    50
390
0
 62
     1
100
AcDbLine
 10
84.069264
 20
299.948085
 30
0.0
 11
84.069283
 21
330.450202
 31
0.0
  0
LINE
  5
1F9
100
AcDbEntity
  8
LC-002-002-----0
370
    25
390
0
 62
     2
100
AcDbLine
 10
87.071161
 20
306.821913
 30
0.0
 11
101.070215
 21
306.823584
 31
0.0
  0
LINE
  5
1FA
100
AcDbEntity
  8
LC-002-002-----0
370
    50
390
0
 62
     1
100
AcDbLine
 10
84.071607
 20
299.948085
 30
0.0
 11
84.071612
 21
298.948085
 31
0.0
  0
LINE
  5
1FB
102
{ACAD_REACTORS
330
505
102
}
100
AcDbEntity
  8
LC-002-002-----0
370
    25
390
0
  6
DASHDOT
 62
     2
100
AcDbLine
 10
444.64376
 20
226.697992
 30
0.0
 11
444.64376
 21
175.697992
 31
0.0
  0
LINE
  5
1FC
102
{ACAD_REACTORS
330
505
102
}
100
AcDbEntity
  8
LC-002-002-----0
370
    50
390
0
 62
     1
100
AcDbLine
 10
420.581583
 20
121.697992
 30
0.0
 11
468.705938
 21
121.697992
 31
0.0
  0
LINE
  5
1FD
102
{ACAD_REACTORS
330
505
102
}
100
AcDbEntity
  8
LC-002-002-----0
370
    50
390
0
 62
     1
100
AcDbLine
 10
419.64376
 20
125.197992
 30
0.0
 11
469.64376
 21
125.197992
 31
0.0
  0
LINE
  5
1FE
100
AcDbEntity
  8
LC-002-002-----0
370
    50
390
0
 62
     1
100
AcDbLine
 10
57.069273
 20
313.70022
 30
0.0
 11
57.069263
 21
299.70022
 31
0.0
  0
LINE
  5
1FF
102
{ACAD_REACTORS
330
505
102
}
100
AcDbEntity
  8
LC-002-002-----0
370
    50
390
0
 62
     1
100
AcDbLine
 10
423.64376
 20
175.697992
 30
0.0
 11
465.64376
 21
175.697992
 31
0.0
  0
LINE
  5
200
100
AcDbEntity
  8
LC-002-002-----0
370
    50
390
0
 62
     1
100
AcDbLine
 10
77.069265
 20
302.700207
 30
0.0
 11
77.069263
 21
299.700207
 31
0.0
  0
ARC
  5
201
100
AcDbEntity
  8
LC-001-002-RND-0
370
    50
390
0
 62
     1
100
AcDbCircle
 10
70.069273
 20
313.700211
 30
0.0
 40
13.0
100
AcDbArc
 50
89.999963
 51
179.999963
  0
LINE
  5
202
100
AcDbEntity
  8
LC-002-002-----0
370
    50
390
0
 62
     1
100
AcDbLine
 10
84.069281
 20
326.700202
 30
0.0
 11
70.069281
 21
326.700211
 31
0.0
  0
LINE
  5
203
102
{ACAD_REACTORS
330
505
102
}
100
AcDbEntity
  8
LC-002-002-----0
370
    25
390
0
  6
DASHED
 62
     2
100
AcDbLine
 10
402.643778
 20
314.659406
 30
0.0
 11
404.766484
 21
259.697992
 31
0.0
  0
LINE
  5
204
100
AcDbEntity
  8
LC-002-002-----0
370
    25
390
0
 62
     2
100
AcDbLine
 10
87.071873
 20
300.821914
 30
0.0
 11
101.070927
 21
300.823585
 31
0.0
  0
LINE
  5
205
100
AcDbEntity
  8
LC-002-002-----0
370
    50
390
0
 62
     1
100
AcDbLine
 10
110.073953
 20
293.406683
 30
0.0
 11
110.072766
 21
303.406683
 31
0.0
  0
LINE
  5
206
100
AcDbEntity
  8
LC-002-002-----0
370
    50
390
0
 62
     1
100
AcDbLine
 10
110.071425
 20
335.990251
 30
0.0
 11
110.071425
 21
325.990251
 31
0.0
  0
LINE
  5
207
100
AcDbEntity
  8
LC-002-002-----0
370
    50
390
0
 62
     1
100
AcDbLine
 10
109.071561
 20
320.786397
 30
0.0
 11
110.071425
 21
320.490251
 31
0.0
  0
LINE
  5
208
100
AcDbEntity
  8
LC-002-002-----0
370
    50
390
0
 62
     1
100
AcDbLine
 10
110.071425
 20
320.490251
 30
0.0
 11
110.071425
 21
314.698215
 31
0.0
  0
LINE
  5
209
100
AcDbEntity
  8
LC-002-002-----0
370
    50
390
0
 62
     1
100
AcDbLine
 10
349.14376
 20
292.71876
 30
0.0
 11
349.14376
 21
270.21876
 31
0.0
  0
LINE
  5
20A
100
AcDbEntity
  8
LC-002-002-----0
370
    50
390
0
 62
     1
100
AcDbLine
 10
109.072866
 20
303.702711
 30
0.0
 11
110.072766
 21
303.406683
 31
0.0
  0
LINE
  5
20B
100
AcDbEntity
  8
LC-002-002-----0
370
    50
390
0
 62
     1
100
AcDbLine
 10
109.071561
 20
325.694104
 30
0.0
 11
110.071425
 21
325.990251
 31
0.0
  0
LINE
  5
20C
100
AcDbEntity
  8
LC-002-002-----0
370
    50
390
0
 62
     1
100
AcDbLine
 10
109.074123
 20
293.110418
 30
0.0
 11
110.073953
 21
293.406683
 31
0.0
  0
LINE
  5
20D
100
AcDbEntity
  8
LC-002-002-----0
370
    50
390
0
 62
     1
100
AcDbLine
 10
110.074387
 20
289.776357
 30
0.0
 11
109.074359
 21
291.158042
 31
0.0
  0
LINE
  5
20E
100
AcDbEntity
  8
LC-002-002-----0
370
    50
390
0
 62
     1
100
AcDbLine
 10
110.074591
 20
287.994615
 30
0.0
 11
110.07438
 21
289.776357
 31
0.0
  0
LINE
  5
20F
100
AcDbEntity
  8
LC-002-002-----0
370
    50
390
0
 62
     1
100
AcDbLine
 10
109.074658
 20
288.610418
 30
0.0
 11
110.074487
 21
288.906683
 31
0.0
  0
LINE
  5
210
100
AcDbEntity
  8
LC-002-002-----0
370
    50
390
0
 62
     1
100
AcDbLine
 10
109.074764
 20
287.69835
 30
0.0
 11
110.074591
 21
287.994615
 31
0.0
  0
LINE
  5
211
100
AcDbEntity
  8
LC-002-002-----0
370
    50
390
0
 62
     1
100
AcDbLine
 10
377.64376
 20
295.21876
 30
0.0
 11
380.14376
 21
292.71876
 31
0.0
  0
LINE
  5
212
102
{ACAD_REACTORS
330
4FB
102
}
100
AcDbEntity
  8
LC-002-002-----0
370
    50
390
0
 62
     1
100
AcDbLine
 10
115.071425
 20
328.198719
 30
0.0
 11
115.071425
 21
369.697992
 31
0.0
  0
LINE
  5
213
102
{ACAD_REACTORS
330
4FC
102
}
100
AcDbEntity
  8
LC-002-002-----0
370
    50
390
0
 62
     1
100
AcDbLine
 10
205.411234
 20
175.697992
 30
0.0
 11
200.411234
 21
175.697992
 31
0.0
  0
LINE
  5
214
102
{ACAD_REACTORS
330
4FC
102
}
100
AcDbEntity
  8
LC-002-002-----0
370
    50
390
0
 62
     1
100
AcDbLine
 10
152.911234
 20
171.697992
 30
0.0
 11
152.911234
 21
125.197992
 31
0.0
  0
LINE
  5
215
102
{ACAD_REACTORS
330
4FC
102
}
100
AcDbEntity
  8
LC-002-002-----0
370
    50
390
0
 62
     1
100
AcDbLine
 10
197.911234
 20
228.697992
 30
0.0
 11
197.911234
 21
178.197992
 31
0.0
  0
LINE
  5
216
102
{ACAD_REACTORS
330
4FC
102
}
100
AcDbEntity
  8
LC-002-002-----0
370
    50
390
0
 62
     1
100
AcDbLine
 10
156.411234
 20
231.197992
 30
0.0
 11
156.411234
 21
253.697992
 31
0.0
  0
LINE
  5
217
102
{ACAD_REACTORS
330
4FC
102
}
100
AcDbEntity
  8
LC-006-001-----0
370
    50
390
0
 62
     1
100
AcDbLine
 10
152.911234
 20
125.197992
 30
0.0
 11
202.911234
 21
125.197992
 31
0.0
  0
LINE
  5
218
102
{ACAD_REACTORS
330
4FC
102
}
100
AcDbEntity
  8
LC-002-002-----0
370
    50
390
0
 62
     1
100
AcDbLine
 10
202.911234
 20
125.197992
 30
0.0
 11
200.890509
 21
121.697992
 31
0.0
  0
LINE
  5
219
102
{ACAD_REACTORS
330
4FC
102
}
100
AcDbEntity
  8
LC-002-002-----0
370
    50
390
0
 62
     1
100
AcDbLine
 10
152.911234
 20
125.197992
 30
0.0
 11
154.93196
 21
121.697992
 31
0.0
  0
LINE
  5
21A
102
{ACAD_REACTORS
330
4FC
102
}
100
AcDbEntity
  8
LC-002-002-----0
370
    25
390
0
  6
DASHDOT
 62
     2
100
AcDbLine
 10
177.911234
 20
228.697992
 30
0.0
 11
177.911234
 21
121.697992
 31
0.0
  0
LINE
  5
21B
102
{ACAD_REACTORS
330
4FC
102
}
100
AcDbEntity
  8
LC-002-002-----0
370
    50
390
0
 62
     1
100
AcDbLine
 10
196.911234
 20
228.697992
 30
0.0
 11
199.411234
 21
228.697992
 31
0.0
  0
ARC
  5
21C
102
{ACAD_REACTORS
330
4FC
102
}
100
AcDbEntity
  8
LC-001-002-RND-0
370
    50
390
0
 62
     1
100
AcDbCircle
 10
200.411234
 20
227.697992
 30
0.0
 40
1.0
100
AcDbArc
 50
180.0
 51
270.0
  0
LINE
  5
21D
102
{ACAD_REACTORS
330
4FC
102
}
100
AcDbEntity
  8
LC-002-002-----0
370
    50
390
0
 62
     1
100
AcDbLine
 10
201.411234
 20
226.697992
 30
0.0
 11
200.411234
 21
226.697992
 31
0.0
  0
ARC
  5
21E
102
{ACAD_REACTORS
330
4FC
102
}
100
AcDbEntity
  8
LC-001-002-RND-0
370
    50
390
0
 62
     1
100
AcDbCircle
 10
201.411234
 20
227.697992
 30
0.0
 40
1.0
100
AcDbArc
 50
270.0
 51
0.0
  0
ARC
  5
21F
102
{ACAD_REACTORS
330
4FC
102
}
100
AcDbEntity
  8
LC-001-002-RND-0
370
    50
390
0
 62
     1
100
AcDbCircle
 10
201.411234
 20
355.697992
 30
0.0
 40
1.0
100
AcDbArc
 50
0.0
 51
90.0
  0
ARC
  5
220
102
{ACAD_REACTORS
330
4FC
102
}
100
AcDbEntity
  8
LC-001-002-RND-0
370
    50
390
0
 62
     1
100
AcDbCircle
 10
200.411234
 20
355.697992
 30
0.0
 40
1.0
100
AcDbArc
 50
90.0
 51
180.0
  0
LINE
  5
221
102
{ACAD_REACTORS
330
4FC
102
}
100
AcDbEntity
  8
LC-002-002-----0
370
    50
390
0
 62
     1
100
AcDbLine
 10
200.411234
 20
356.697992
 30
0.0
 11
201.411234
 21
356.697992
 31
0.0
  0
LINE
  5
222
102
{ACAD_REACTORS
330
4FC
102
}
100
AcDbEntity
  8
LC-002-002-----0
370
    50
390
0
 62
     1
100
AcDbLine
 10
196.911234
 20
228.697992
 30
0.0
 11
158.911234
 21
228.697992
 31
0.0
  0
LINE
  5
223
102
{ACAD_REACTORS
330
4FC
102
}
100
AcDbEntity
  8
LC-002-002-----0
370
    50
390
0
 62
     1
100
AcDbLine
 10
199.411234
 20
354.697992
 30
0.0
 11
177.911234
 21
354.697992
 31
0.0
  0
LINE
  5
224
100
AcDbEntity
  8
LC-002-002-----0
370
    50
390
0
 62
     1
100
AcDbLine
 10
351.64376
 20
295.21876
 30
0.0
 11
349.14376
 21
292.71876
 31
0.0
  0
LINE
  5
225
100
AcDbEntity
  8
LC-002-002-----0
370
    50
390
0
 62
     1
100
AcDbLine
 10
380.14376
 20
292.71876
 30
0.0
 11
349.14376
 21
292.71876
 31
0.0
  0
LINE
  5
226
100
AcDbEntity
  8
LC-002-002-----0
370
    50
390
0
 62
     1
100
AcDbLine
 10
352.39376
 20
270.21876
 30
0.0
 11
352.39376
 21
267.71876
 31
0.0
  0
LINE
  5
227
100
AcDbEntity
  8
LC-002-002-----0
370
    50
390
0
 62
     1
100
AcDbLine
 10
352.39376
 20
267.71876
 30
0.0
 11
376.89376
 21
267.71876
 31
0.0
  0
LINE
  5
228
100
AcDbEntity
  8
LC-002-002-----0
370
    50
390
0
 62
     1
100
AcDbLine
 10
376.89376
 20
267.71876
 30
0.0
 11
376.89376
 21
270.21876
 31
0.0
  0
LINE
  5
229
100
AcDbEntity
  8
LC-002-002-----0
370
    50
390
0
 62
     1
100
AcDbLine
 10
351.14376
 20
267.71876
 30
0.0
 11
351.14376
 21
262.71876
 31
0.0
  0
LINE
  5
22A
100
AcDbEntity
  8
LC-002-002-----0
370
    50
390
0
 62
     1
100
AcDbLine
 10
351.14376
 20
262.71876
 30
0.0
 11
378.14376
 21
262.71876
 31
0.0
  0
LINE
  5
22B
100
AcDbEntity
  8
LC-002-002-----0
370
    50
390
0
 62
     1
100
AcDbLine
 10
378.14376
 20
262.71876
 30
0.0
 11
378.14376
 21
267.71876
 31
0.0
  0
LINE
  5
22C
100
AcDbEntity
  8
LC-002-002-----0
370
    50
390
0
 62
     1
100
AcDbLine
 10
378.14376
 20
267.71876
 30
0.0
 11
376.89376
 21
267.71876
 31
0.0
  0
LINE
  5
22D
100
AcDbEntity
  8
LC-002-002-----0
370
    50
390
0
 62
     1
100
AcDbLine
 10
352.39376
 20
267.71876
 30
0.0
 11
351.14376
 21
267.71876
 31
0.0
  0
ARC
  5
22E
100
AcDbEntity
  8
LC-002-002-----0
370
    50
390
0
 62
     1
100
AcDbCircle
 10
375.971153
 20
265.21876
 30
0.0
 40
0.5
100
AcDbArc
 50
316.081742
 51
43.91841
  0
ARC
  5
22F
100
AcDbEntity
  8
LC-002-002-----0
370
    50
390
0
 62
     1
100
AcDbCircle
 10
371.26876
 20
260.690635
 30
0.0
 40
7.028125
100
AcDbArc
 50
43.918429
 51
136.08159
  0
ARC
  5
230
100
AcDbEntity
  8
LC-002-002-----0
370
    50
390
0
 62
     1
100
AcDbCircle
 10
366.566367
 20
265.21876
 30
0.0
 40
0.5
100
AcDbArc
 50
136.08159
 51
223.918352
  0
ARC
  5
231
100
AcDbEntity
  8
LC-002-002-----0
370
    50
390
0
 62
     1
100
AcDbCircle
 10
371.26876
 20
269.746885
 30
0.0
 40
7.028125
100
AcDbArc
 50
223.91841
 51
316.081742
  0
ARC
  5
232
100
AcDbEntity
  8
LC-002-002-----0
370
    50
390
0
 62
     1
100
AcDbCircle
 10
362.721153
 20
265.21876
 30
0.0
 40
0.5
100
AcDbArc
 50
316.081742
 51
43.91841
  0
ARC
  5
233
100
AcDbEntity
  8
LC-002-002-----0
370
    50
390
0
 62
     1
100
AcDbCircle
 10
358.01876
 20
260.690635
 30
0.0
 40
7.028125
100
AcDbArc
 50
43.918429
 51
136.08159
  0
ARC
  5
234
100
AcDbEntity
  8
LC-002-002-----0
370
    50
390
0
 62
     1
100
AcDbCircle
 10
353.316367
 20
265.21876
 30
0.0
 40
0.5
100
AcDbArc
 50
136.08159
 51
223.918352
  0
ARC
  5
235
100
AcDbEntity
  8
LC-002-002-----0
370
    50
390
0
 62
     1
100
AcDbCircle
 10
358.01876
 20
269.746885
 30
0.0
 40
7.028125
100
AcDbArc
 50
223.91841
 51
316.081742
  0
ARC
  5
236
100
AcDbEntity
  8
LC-002-002-----0
370
    50
390
0
 62
     1
100
AcDbCircle
 10
379.477094
 20
265.21876
 30
0.0
 40
2.833333
100
AcDbArc
 50
118.072429
 51
241.927396
  0
ARC
  5
237
100
AcDbEntity
  8
LC-002-002-----0
370
    50
390
0
 62
     1
100
AcDbCircle
 10
349.810427
 20
265.21876
 30
0.0
 40
2.833333
100
AcDbArc
 50
298.07281
 51
61.927551
  0
LINE
  5
238
100
AcDbEntity
  8
LC-002-002-----0
370
    50
390
0
 62
     1
100
AcDbLine
 10
352.14376
 20
262.71876
 30
0.0
 11
352.14376
 21
255.512445
 31
0.0
  0
LINE
  5
239
100
AcDbEntity
  8
LC-002-002-----0
370
    50
390
0
 62
     1
100
AcDbLine
 10
377.14376
 20
260.21876
 30
0.0
 11
377.14376
 21
262.71876
 31
0.0
  0
LINE
  5
23A
100
AcDbEntity
  8
LC-002-002-----0
370
    50
390
0
 62
     1
100
AcDbLine
 10
352.937445
 20
254.71876
 30
0.0
 11
376.350076
 21
254.71876
 31
0.0
  0
LINE
  5
23B
100
AcDbEntity
  8
LC-002-002-----0
370
    25
390
0
 62
     2
100
AcDbLine
 10
352.14376
 20
262.71876
 30
0.0
 11
377.14376
 21
260.531544
 31
0.0
  0
LINE
  5
23C
100
AcDbEntity
  8
LC-002-002-----0
370
    25
390
0
 62
     2
100
AcDbLine
 10
352.14376
 20
261.714941
 30
0.0
 11
377.14376
 21
259.527724
 31
0.0
  0
LINE
  5
23D
100
AcDbEntity
  8
LC-002-002-----0
370
    25
390
0
 62
     2
100
AcDbLine
 10
352.14376
 20
260.711121
 30
0.0
 11
377.14376
 21
258.523904
 31
0.0
  0
LINE
  5
23E
100
AcDbEntity
  8
LC-002-002-----0
370
    25
390
0
 62
     2
100
AcDbLine
 10
352.14376
 20
259.707301
 30
0.0
 11
377.14376
 21
257.520084
 31
0.0
  0
LINE
  5
23F
100
AcDbEntity
  8
LC-002-002-----0
370
    25
390
0
 62
     2
100
AcDbLine
 10
352.14376
 20
258.703481
 30
0.0
 11
377.14376
 21
256.516264
 31
0.0
  0
LINE
  5
240
100
AcDbEntity
  8
LC-002-002-----0
370
    25
390
0
 62
     2
100
AcDbLine
 10
352.14376
 20
257.699661
 30
0.0
 11
377.14376
 21
255.512445
 31
0.0
  0
LINE
  5
241
100
AcDbEntity
  8
LC-002-002-----0
370
    25
390
0
 62
     2
100
AcDbLine
 10
352.14376
 20
256.695841
 30
0.0
 11
374.741899
 21
254.71876
 31
0.0
  0
LINE
  5
242
100
AcDbEntity
  8
LC-002-002-----0
370
    25
390
0
 62
     2
100
AcDbLine
 10
364.64376
 20
262.628972
 30
0.0
 11
377.14376
 21
261.535364
 31
0.0
  0
LINE
  5
243
100
AcDbEntity
  8
LC-002-002-----0
370
    50
390
0
 62
     1
100
AcDbLine
 10
377.14376
 20
255.512445
 30
0.0
 11
376.350076
 21
254.71876
 31
0.0
  0
LINE
  5
244
100
AcDbEntity
  8
LC-002-002-----0
370
    50
390
0
 62
     1
100
AcDbLine
 10
352.14376
 20
255.512445
 30
0.0
 11
352.937445
 21
254.71876
 31
0.0
  0
LINE
  5
245
102
{ACAD_REACTORS
330
508
102
}
100
AcDbEntity
  8
LC-002-002-----0
370
    50
390
0
 62
     1
100
AcDbLine
 10
377.14376
 20
255.512445
 30
0.0
 11
377.14376
 21
260.21876
 31
0.0
  0
LINE
  5
246
100
AcDbEntity
  8
LC-002-002-----0
370
    50
390
0
 62
     1
100
AcDbLine
 10
352.14376
 20
255.512445
 30
0.0
 11
377.14376
 21
255.512445
 31
0.0
  0
LINE
  5
247
100
AcDbEntity
  8
LC-002-002-----0
370
    25
390
0
 62
     2
100
AcDbLine
 10
352.14376
 20
255.695841
 30
0.0
 11
363.311847
 21
254.71876
 31
0.0
  0
LINE
  5
248
100
AcDbEntity
  8
LC-002-002-----0
370
    50
390
0
 62
     1
100
AcDbLine
 10
377.64376
 20
295.21876
 30
0.0
 11
377.64376
 21
298.21876
 31
0.0
  0
LINE
  5
249
100
AcDbEntity
  8
LC-002-002-----0
370
    50
390
0
 62
     1
100
AcDbLine
 10
351.64376
 20
295.21876
 30
0.0
 11
351.64376
 21
298.21876
 31
0.0
  0
LINE
  5
24A
100
AcDbEntity
  8
LC-002-002-----0
370
    50
390
0
 62
     1
100
AcDbLine
 10
351.64376
 20
298.21876
 30
0.0
 11
356.14376
 21
300.71876
 31
0.0
  0
LINE
  5
24B
100
AcDbEntity
  8
LC-002-002-----0
370
    50
390
0
 62
     1
100
AcDbLine
 10
373.14376
 20
300.71876
 30
0.0
 11
377.64376
 21
298.21876
 31
0.0
  0
LINE
  5
24C
100
AcDbEntity
  8
LC-002-002-----0
370
    25
390
0
  6
DASHED
 62
     2
100
AcDbLine
 10
700.854414
 20
410.407883
 30
0.0
 11
714.854414
 21
410.407883
 31
0.0
  0
LINE
  5
24D
100
AcDbEntity
  8
LC-002-002-----0
370
    50
390
0
 62
     1
100
AcDbLine
 10
373.14376
 20
300.71876
 30
0.0
 11
373.14376
 21
314.87342
 31
0.0
  0
LINE
  5
24E
100
AcDbEntity
  8
LC-002-002-----0
370
    25
390
0
  6
DASHED
 62
     2
100
AcDbLine
 10
372.64376
 20
295.21876
 30
0.0
 11
356.64376
 21
295.21876
 31
0.0
  0
LINE
  5
24F
100
AcDbEntity
  8
LC-002-002-----0
370
    25
390
0
 62
     2
100
AcDbLine
 10
376.14376
 20
295.21876
 30
0.0
 11
376.14376
 21
299.052094
 31
0.0
  0
LINE
  5
250
100
AcDbEntity
  8
LC-002-002-----0
370
    50
390
0
 62
     1
100
AcDbLine
 10
356.14376
 20
300.71876
 30
0.0
 11
356.14376
 21
315.197992
 31
0.0
  0
DIMENSION
  5
26A
100
AcDbEntity
  8
LC-004-003-----0
370
    25
390
0
 62
     2
100
AcDbDimension
  2
*D6
 10
75.924051
 20
352.8
 30
0.0
 11
75.924051
 21
352.8
 31
0.0
 71
     5
 72
     1
 41
1.0
 42
0.0
  1
55
  3
LC-DIM-L-0140-02-02
100
AcDbAlignedDimension
 13
57.069273
 23
313.70022
 33
0.0
 14
110.071425
 24
358.456078
 34
0.0
100
AcDbRotatedDimension
  0
ARC
  5
26B
102
{ACAD_REACTORS
330
50B
102
}
100
AcDbEntity
  8
LC-002-002-----0
370
    50
390
0
 62
     1
100
AcDbCircle
 10
444.648032
 20
314.697992
 30
0.0
 40
27.0
100
AcDbArc
 50
293.556464
 51
246.443536
  0
ELLIPSE
  5
26C
102
{ACAD_REACTORS
330
50B
102
}
100
AcDbEntity
  8
LC-002-002-----0
370
    50
390
0
 62
     1
100
AcDbEllipse
 10
444.648032
 20
337.697992
 30
0.0
 11
5.5
 21
0.0
 31
0.0
210
0.0
220
0.0
230
1.0
 40
0.727273
 41
0.0
 42
6.2831853071795862
  0
ELLIPSE
  5
26D
102
{ACAD_REACTORS
330
50B
102
}
100
AcDbEntity
  8
LC-002-002-----0
370
    50
390
0
 62
     1
100
AcDbEllipse
 10
428.384576
 20
330.961448
 30
0.0
 11
3.8890872965260108
 21
3.8890872965260117
 31
0.0
210
0.0
220
0.0
230
1.0
 40
0.727273
 41
4.7123889803846897
 42
10.995574287564276
  0
LINE
  5
26E
100
AcDbEntity
  8
LC-002-002-----0
370
    25
390
0
  6
DASHDOT
 62
     2
100
AcDbLine
 10
218.911234
 20
302.197992
 30
0.0
 11
202.89509
 21
302.197992
 31
0.0
  0
LINE
  5
26F
100
AcDbEntity
  8
LC-002-002-----0
370
    25
390
0
  6
DASHDOT
 62
     2
100
AcDbLine
 10
218.911234
 20
327.197992
 30
0.0
 11
203.45943
 21
327.197992
 31
0.0
  0
ELLIPSE
  5
270
102
{ACAD_REACTORS
330
50B
102
}
100
AcDbEntity
  8
LC-002-002-----0
370
    50
390
0
 62
     1
100
AcDbEllipse
 10
421.648032
 20
314.697992
 30
0.0
 11
0.0
 21
5.5
 31
0.0
210
0.0
220
0.0
230
1.0
 40
0.727273
 41
4.7123889803846897
 42
10.995574287564276
  0
ELLIPSE
  5
271
102
{ACAD_REACTORS
330
50B
102
}
100
AcDbEntity
  8
LC-002-002-----0
370
    50
390
0
 62
     1
100
AcDbEllipse
 10
428.384576
 20
298.434536
 30
0.0
 11
3.8890872965665779
 21
-3.889087296566577
 31
0.0
210
0.0
220
0.0
230
1.0
 40
0.727273
 41
1.1041641115525265
 42
0.5045479009885637
  0
LINE
  5
272
100
AcDbEntity
  8
LC-002-002-----0
370
    25
390
0
  6
DASHDOT
 62
     2
100
AcDbLine
 10
776.630884
 20
423.407883
 30
0.0
 11
660.596286
 21
423.407883
 31
0.0
  0
LINE
  5
273
100
AcDbEntity
  8
LC-002-002-----0
370
    50
390
0
 62
     1
100
AcDbLine
 10
213.411234
 20
372.197992
 30
0.0
 11
205.411234
 21
372.197992
 31
0.0
  0
ELLIPSE
  5
274
102
{ACAD_REACTORS
330
50B
102
}
100
AcDbEntity
  8
LC-002-002-----0
370
    50
390
0
 62
     1
100
AcDbEllipse
 10
460.911488
 20
298.434536
 30
0.0
 11
3.8890872965810654
 21
3.8890872965810659
 31
0.0
210
0.0
220
0.0
230
1.0
 40
0.727273
 41
2.6370447526063456
 42
2.0374285420321048
  0
ELLIPSE
  5
275
102
{ACAD_REACTORS
330
50B
102
}
100
AcDbEntity
  8
LC-002-002-----0
370
    50
390
0
 62
     1
100
AcDbEllipse
 10
467.648032
 20
314.697992
 30
0.0
 11
0.0
 21
5.5000000000819567
 31
0.0
210
0.0
220
0.0
230
1.0
 40
0.727273
 41
4.7123889803846897
 42
10.995574287564276
  0
ELLIPSE
  5
276
102
{ACAD_REACTORS
330
50B
102
}
100
AcDbEntity
  8
LC-002-002-----0
370
    50
390
0
 62
     1
100
AcDbEllipse
 10
460.911488
 20
330.961448
 30
0.0
 11
3.8890872965318066
 21
-3.8890872965318057
 31
0.0
210
0.0
220
0.0
230
1.0
 40
0.727273
 41
0.0
 42
6.2831853071795862
  0
LINE
  5
277
100
AcDbEntity
  8
LC-002-002-----0
370
    50
390
0
 62
     1
100
AcDbLine
 10
215.411234
 20
365.983955
 30
0.0
 11
213.411234
 21
365.983955
 31
0.0
  0
LINE
  5
278
100
AcDbEntity
  8
LC-002-002-----0
370
    50
390
0
 62
     1
100
AcDbLine
 10
757.630884
 20
438.407883
 30
0.0
 11
757.630884
 21
408.407883
 31
0.0
  0
LINE
  5
279
100
AcDbEntity
  8
LC-002-002-----0
370
    50
390
0
 62
     1
100
AcDbLine
 10
757.630884
 20
408.407883
 30
0.0
 11
737.630884
 21
408.407883
 31
0.0
  0
LINE
  5
27A
100
AcDbEntity
  8
LC-002-002-----0
370
    50
390
0
 62
     1
100
AcDbLine
 10
757.630884
 20
438.407883
 30
0.0
 11
737.630884
 21
438.407883
 31
0.0
  0
LINE
  5
27B
100
AcDbEntity
  8
LC-002-002-----0
370
    50
390
0
 62
     1
100
AcDbLine
 10
770.630884
 20
438.407883
 30
0.0
 11
770.630884
 21
408.407883
 31
0.0
  0
LINE
  5
27C
100
AcDbEntity
  8
LC-002-002-----0
370
    50
390
0
 62
     1
100
AcDbLine
 10
767.630884
 20
405.407883
 30
0.0
 11
760.630884
 21
405.407883
 31
0.0
  0
LINE
  5
27D
100
AcDbEntity
  8
LC-002-002-----0
370
    50
390
0
 62
     1
100
AcDbLine
 10
767.630884
 20
441.407883
 30
0.0
 11
760.630884
 21
441.407883
 31
0.0
  0
ARC
  5
27E
100
AcDbEntity
  8
LC-001-002-RND-0
370
    50
390
0
 62
     1
100
AcDbCircle
 10
767.630884
 20
438.407883
 30
0.0
 40
3.0
100
AcDbArc
 50
0.0
 51
90.0
  0
ARC
  5
27F
100
AcDbEntity
  8
LC-001-002-RND-0
370
    50
390
0
 62
     1
100
AcDbCircle
 10
760.630884
 20
438.407883
 30
0.0
 40
3.0
100
AcDbArc
 50
90.0
 51
180.0
  0
ARC
  5
280
100
AcDbEntity
  8
LC-001-002-RND-0
370
    50
390
0
 62
     1
100
AcDbCircle
 10
760.630884
 20
408.407883
 30
0.0
 40
3.0
100
AcDbArc
 50
180.0
 51
270.0
  0
ARC
  5
281
100
AcDbEntity
  8
LC-001-002-RND-0
370
    50
390
0
 62
     1
100
AcDbCircle
 10
767.630884
 20
408.407883
 30
0.0
 40
3.0
100
AcDbArc
 50
270.0
 51
0.0
  0
LINE
  5
282
100
AcDbEntity
  8
LC-002-002-----0
370
    50
390
0
 62
     1
100
AcDbLine
 10
767.630884
 20
416.907883
 30
0.0
 11
760.630884
 21
416.907883
 31
0.0
  0
LINE
  5
283
100
AcDbEntity
  8
LC-002-002-----0
370
    50
390
0
 62
     1
100
AcDbLine
 10
767.630884
 20
429.907883
 30
0.0
 11
760.630884
 21
429.907883
 31
0.0
  0
LINE
  5
284
100
AcDbEntity
  8
LC-002-002-----0
370
    50
390
0
 62
     1
100
AcDbLine
 10
760.630884
 20
441.407883
 30
0.0
 11
760.630884
 21
429.907883
 31
0.0
  0
ARC
  5
285
100
AcDbEntity
  8
LC-002-002-----0
370
    50
390
0
 62
     1
100
AcDbCircle
 10
766.172551
 20
423.407883
 30
0.0
 40
8.541667
100
AcDbArc
 50
130.449719
 51
229.550281
  0
LINE
  5
286
100
AcDbEntity
  8
LC-002-002-----0
370
    50
390
0
 62
     1
100
AcDbLine
 10
760.630884
 20
416.907883
 30
0.0
 11
760.630884
 21
405.407883
 31
0.0
  0
ARC
  5
287
100
AcDbEntity
  8
LC-002-002-----0
370
    50
390
0
 62
     1
100
AcDbCircle
 10
762.089217
 20
423.407883
 30
0.0
 40
8.541667
100
AcDbArc
 50
310.449719
 51
49.550281
  0
LINE
  5
288
100
AcDbEntity
  8
LC-002-002-----0
370
    50
390
0
 62
     1
100
AcDbLine
 10
767.630884
 20
441.407883
 30
0.0
 11
767.630884
 21
429.907883
 31
0.0
  0
LINE
  5
289
100
AcDbEntity
  8
LC-002-002-----0
370
    50
390
0
 62
     1
100
AcDbLine
 10
767.630884
 20
416.907883
 30
0.0
 11
767.630884
 21
405.407883
 31
0.0
  0
LINE
  5
28A
100
AcDbEntity
  8
LC-002-002-----0
370
    50
390
0
 62
     1
100
AcDbLine
 10
776.630884
 20
435.907883
 30
0.0
 11
776.630884
 21
410.907883
 31
0.0
  0
LINE
  5
28B
100
AcDbEntity
  8
LC-002-002-----0
370
    50
390
0
 62
     1
100
AcDbLine
 10
774.130884
 20
408.407883
 30
0.0
 11
770.630884
 21
408.407883
 31
0.0
  0
LINE
  5
28C
100
AcDbEntity
  8
LC-002-002-----0
370
    50
390
0
 62
     1
100
AcDbLine
 10
774.130884
 20
438.407883
 30
0.0
 11
770.630884
 21
438.407883
 31
0.0
  0
ARC
  5
28D
100
AcDbEntity
  8
LC-001-002-RND-0
370
    50
390
0
 62
     1
100
AcDbCircle
 10
774.130884
 20
435.907883
 30
0.0
 40
2.5
100
AcDbArc
 50
0.0
 51
90.0
  0
ARC
  5
28E
102
{ACAD_REACTORS
330
4FC
102
}
100
AcDbEntity
  8
LC-001-002-RND-0
370
    50
390
0
 62
     1
100
AcDbCircle
 10
202.411234
 20
230.697992
 30
0.0
 40
2.0
100
AcDbArc
 50
270.0
 51
0.0
  0
ARC
  5
28F
102
{ACAD_REACTORS
330
4FC
102
}
100
AcDbEntity
  8
LC-001-002-RND-0
370
    50
390
0
 62
     1
100
AcDbCircle
 10
202.411234
 20
352.697992
 30
0.0
 40
2.0
100
AcDbArc
 50
0.0
 51
90.0
  0
LINE
  5
290
100
AcDbEntity
  8
LC-002-002-----0
370
    25
390
0
  6
DASHDOT
 62
     2
100
AcDbLine
 10
660.596286
 20
475.907574
 30
0.0
 11
660.596286
 21
390.907883
 31
0.0
  0
LINE
  5
291
100
AcDbEntity
  8
LC-002-002-----0
370
    50
390
0
 62
     1
100
AcDbLine
 10
672.096286
 20
390.907883
 30
0.0
 11
649.096286
 21
390.907883
 31
0.0
  0
LINE
  5
292
100
AcDbEntity
  8
LC-002-002-----0
370
    50
390
0
 62
     1
100
AcDbLine
 10
645.096286
 20
392.907883
 30
0.0
 11
645.096286
 21
403.907883
 31
0.0
  0
LINE
  5
293
100
AcDbEntity
  8
LC-002-002-----0
370
    50
390
0
 62
     1
100
AcDbLine
 10
645.096286
 20
403.907883
 30
0.0
 11
676.096286
 21
403.907883
 31
0.0
  0
LINE
  5
294
100
AcDbEntity
  8
LC-002-002-----0
370
    50
390
0
 62
     1
100
AcDbLine
 10
676.096286
 20
403.907883
 30
0.0
 11
676.096286
 21
392.907891
 31
0.0
  0
LINE
  5
295
100
AcDbEntity
  8
LC-002-002-----0
370
    50
390
0
 62
     1
100
AcDbLine
 10
668.096286
 20
403.907883
 30
0.0
 11
668.096286
 21
392.907883
 31
0.0
  0
LINE
  5
296
100
AcDbEntity
  8
LC-002-002-----0
370
    50
390
0
 62
     1
100
AcDbLine
 10
653.096286
 20
392.907891
 30
0.0
 11
653.096286
 21
403.907883
 31
0.0
  0
LINE
  5
297
100
AcDbEntity
  8
LC-002-002-----0
370
    50
390
0
 62
     1
100
AcDbLine
 10
649.094699
 20
455.907883
 30
0.0
 11
672.094699
 21
455.907883
 31
0.0
  0
LINE
  5
298
100
AcDbEntity
  8
LC-002-002-----0
370
    50
390
0
 62
     1
100
AcDbLine
 10
645.096286
 20
442.907883
 30
0.0
 11
645.096286
 21
453.906903
 31
0.0
  0
LINE
  5
299
100
AcDbEntity
  8
LC-002-002-----0
370
    50
390
0
 62
     1
100
AcDbLine
 10
676.096286
 20
442.907883
 30
0.0
 11
645.096286
 21
442.907883
 31
0.0
  0
LINE
  5
29A
100
AcDbEntity
  8
LC-002-002-----0
370
    50
390
0
 62
     1
100
AcDbLine
 10
676.096286
 20
453.904642
 30
0.0
 11
676.096286
 21
442.907883
 31
0.0
  0
LINE
  5
29B
100
AcDbEntity
  8
LC-002-002-----0
370
    50
390
0
 62
     1
100
AcDbLine
 10
668.096286
 20
453.906781
 30
0.0
 11
668.096286
 21
442.907883
 31
0.0
  0
LINE
  5
29C
100
AcDbEntity
  8
LC-002-002-----0
370
    50
390
0
 62
     1
100
AcDbLine
 10
653.096286
 20
442.907883
 30
0.0
 11
653.096286
 21
453.907763
 31
0.0
  0
LINE
  5
29D
100
AcDbEntity
  8
LC-002-002-----0
370
    50
390
0
 62
     1
100
AcDbLine
 10
681.130884
 20
436.907883
 30
0.0
 11
681.130884
 21
409.907883
 31
0.0
  0
LINE
  5
29E
100
AcDbEntity
  8
LC-002-002-----0
370
    50
390
0
 62
     1
100
AcDbLine
 10
681.130884
 20
436.907883
 30
0.0
 11
684.630884
 21
436.907883
 31
0.0
  0
LINE
  5
29F
100
AcDbEntity
  8
LC-002-002-----0
370
    50
390
0
 62
     1
100
AcDbLine
 10
686.630884
 20
436.407883
 30
0.0
 11
686.630884
 21
410.407883
 31
0.0
  0
LINE
  5
2A0
100
AcDbEntity
  8
LC-002-002-----0
370
    50
390
0
 62
     1
100
AcDbLine
 10
684.630884
 20
409.907883
 30
0.0
 11
681.130884
 21
409.907883
 31
0.0
  0
LINE
  5
2A1
100
AcDbEntity
  8
LC-002-002-----0
370
    50
390
0
 62
     1
100
AcDbLine
 10
684.630884
 20
436.907883
 30
0.0
 11
684.630884
 21
409.907883
 31
0.0
  0
LINE
  5
2A2
100
AcDbEntity
  8
LC-002-002-----0
370
    50
390
0
 62
     1
100
AcDbLine
 10
684.630884
 20
436.907883
 30
0.0
 11
686.630884
 21
436.407883
 31
0.0
  0
LINE
  5
2A3
100
AcDbEntity
  8
LC-002-002-----0
370
    50
390
0
 62
     1
100
AcDbLine
 10
684.630884
 20
409.907883
 30
0.0
 11
686.630884
 21
410.407883
 31
0.0
  0
LINE
  5
2A4
100
AcDbEntity
  8
LC-002-002-----0
370
    50
390
0
 62
     1
100
AcDbLine
 10
676.096286
 20
403.907883
 30
0.0
 11
681.130884
 21
409.907883
 31
0.0
  0
LINE
  5
2A5
100
AcDbEntity
  8
LC-002-002-----0
370
    50
390
0
 62
     1
100
AcDbLine
 10
676.096286
 20
442.907883
 30
0.0
 11
681.130884
 21
436.907883
 31
0.0
  0
ARC
  5
2A6
100
AcDbEntity
  8
LC-002-002-----0
370
    50
390
0
 62
     1
100
AcDbCircle
 10
687.096286
 20
423.407883
 30
0.0
 40
44.5
100
AcDbArc
 50
154.010881
 51
205.98893
  0
ARC
  5
2A7
100
AcDbEntity
  8
LC-002-002-----0
370
    50
390
0
 62
     1
100
AcDbCircle
 10
660.596286
 20
405.970383
 30
0.0
 40
15.0625
100
AcDbArc
 50
240.137224
 51
299.862951
  0
ARC
  5
2A8
100
AcDbEntity
  8
LC-002-002-----0
370
    50
390
0
 62
     1
100
AcDbCircle
 10
649.096286
 20
395.907883
 30
0.0
 40
5.0
100
AcDbArc
 50
216.869956
 51
323.130219
  0
ARC
  5
2A9
100
AcDbEntity
  8
LC-002-002-----0
370
    50
390
0
 62
     1
100
AcDbCircle
 10
672.096286
 20
395.907883
 30
0.0
 40
5.0
100
AcDbArc
 50
216.869956
 51
323.130219
  0
ARC
  5
2AA
100
AcDbEntity
  8
LC-002-002-----0
370
    50
390
0
 62
     1
100
AcDbCircle
 10
649.094699
 20
450.906882
 30
0.0
 40
5.0
100
AcDbArc
 50
36.869477
 51
143.129798
  0
ARC
  5
2AB
100
AcDbEntity
  8
LC-002-002-----0
370
    50
390
0
 62
     1
100
AcDbCircle
 10
660.594646
 20
440.844321
 30
0.0
 40
15.0625
100
AcDbArc
 50
60.136745
 51
119.86253
  0
ARC
  5
2AC
100
AcDbEntity
  8
LC-002-002-----0
370
    50
390
0
 62
     1
100
AcDbCircle
 10
672.094699
 20
450.90676
 30
0.0
 40
5.0
100
AcDbArc
 50
36.869477
 51
143.129798
  0
LINE
  5
2AD
100
AcDbEntity
  8
LC-002-002-----0
370
    50
390
0
 62
     1
100
AcDbLine
 10
670.096286
 20
455.907883
 30
0.0
 11
670.096286
 21
475.907883
 31
0.0
  0
LINE
  5
2AE
100
AcDbEntity
  8
LC-002-002-----0
370
    50
390
0
 62
     1
100
AcDbLine
 10
651.096286
 20
455.907883
 30
0.0
 11
651.096286
 21
475.907883
 31
0.0
  0
ARC
  5
2AF
100
AcDbEntity
  8
LC-002-002-----0
370
    50
390
0
 62
     1
100
AcDbCircle
 10
654.096286
 20
475.907883
 30
0.0
 40
3.0
100
AcDbArc
 50
63.611304
 51
179.999829
  0
ARC
  5
2B0
100
AcDbEntity
  8
LC-002-002-----0
370
    50
390
0
 62
     1
100
AcDbCircle
 10
667.096286
 20
475.907883
 30
0.0
 40
3.0
100
AcDbArc
 50
242.515991
 51
117.488959
  0
LINE
  5
2B1
100
AcDbEntity
  8
LC-002-002-----0
370
    50
390
0
 62
     1
100
AcDbLine
 10
655.429662
 20
478.595282
 30
0.0
 11
665.711797
 21
473.246457
 31
0.0
  0
LINE
  5
2B2
100
AcDbEntity
  8
LC-002-002-----0
370
    50
390
0
 62
     1
100
AcDbLine
 10
660.596286
 20
475.907574
 30
0.0
 11
665.711545
 21
478.569178
 31
0.0
  0
LINE
  5
2B3
100
AcDbEntity
  8
LC-002-002-----0
370
    50
390
0
 62
     1
100
AcDbLine
 10
651.094381
 20
390.906862
 30
0.0
 11
651.094274
 21
370.906862
 31
0.0
  0
ARC
  5
2B4
100
AcDbEntity
  8
LC-002-002-----0
370
    50
390
0
 62
     1
100
AcDbCircle
 10
654.094274
 20
370.906846
 30
0.0
 40
3.0
100
AcDbArc
 50
179.999925
 51
296.388392
  0
LINE
  5
2B5
100
AcDbEntity
  8
LC-002-002-----0
370
    50
390
0
 62
     1
100
AcDbLine
 10
655.427636
 20
368.219441
 30
0.0
 11
665.7098
 21
373.568211
 31
0.0
  0
LINE
  5
2B6
100
AcDbEntity
  8
LC-002-002-----0
370
    50
390
0
 62
     1
100
AcDbLine
 10
660.594274
 20
370.907121
 30
0.0
 11
665.709519
 21
368.24549
 31
0.0
  0
ARC
  5
2B7
100
AcDbEntity
  8
LC-002-002-----0
370
    50
390
0
 62
     1
100
AcDbCircle
 10
667.094274
 20
370.906777
 30
0.0
 40
3.0
100
AcDbArc
 50
242.510567
 51
117.483704
  0
LINE
  5
2B8
100
AcDbEntity
  8
LC-002-002-----0
370
    50
390
0
 62
     1
100
AcDbLine
 10
749.096286
 20
325.197992
 30
0.0
 11
751.096286
 21
323.197992
 31
0.0
  0
LINE
  5
2B9
100
AcDbEntity
  8
LC-002-002-----0
370
    50
390
0
 62
     1
100
AcDbLine
 10
749.096286
 20
304.197992
 30
0.0
 11
751.096286
 21
306.197992
 31
0.0
  0
INSERT
  5
2C1
100
AcDbEntity
  8
LC-008-005-----0
370
    25
390
0
 62
     2
100
AcDbBlockReference
  2
*X7
 10
0.0
 20
0.0
 30
0.0
  0
LINE
  5
2C2
100
AcDbEntity
  8
LC-002-002-----0
370
    50
390
0
 62
     1
100
AcDbLine
 10
670.094274
 20
370.906777
 30
0.0
 11
670.094274
 21
390.907883
 31
0.0
  0
INSERT
  5
2CA
100
AcDbEntity
  8
LC-008-005-----0
370
    25
390
0
 62
     2
100
AcDbBlockReference
  2
*X8
 10
0.0
 20
0.0
 30
0.0
  0
LINE
  5
2CB
100
AcDbEntity
  8
LC-002-002-----0
370
    50
390
0
 62
     1
100
AcDbLine
 10
686.630884
 20
436.407883
 30
0.0
 11
700.854414
 21
436.407883
 31
0.0
  0
LINE
  5
2CC
100
AcDbEntity
  8
LC-002-002-----0
370
    50
390
0
 62
     1
100
AcDbLine
 10
737.630884
 20
410.407883
 30
0.0
 11
714.854414
 21
410.407883
 31
0.0
  0
LINE
  5
2CD
100
AcDbEntity
  8
LC-002-002-----0
370
    50
390
0
 62
     1
100
AcDbLine
 10
737.630884
 20
408.407883
 30
0.0
 11
737.630884
 21
438.407883
 31
0.0
  0
LINE
  5
2CE
102
{ACAD_REACTORS
330
4FC
102
}
100
AcDbEntity
  8
LC-002-002-----0
370
    50
390
0
 62
     1
100
AcDbLine
 10
196.511234
 20
334.697992
 30
0.0
 11
196.511234
 21
337.197992
 31
0.0
  0
CIRCLE
  5
2CF
102
{ACAD_REACTORS
330
505
102
}
100
AcDbEntity
  8
LC-002-002-----0
370
    25
390
0
  6
DASHED
 62
     2
100
AcDbCircle
 10
397.64376
 20
314.697992
 30
0.0
 40
2.6
  0
CIRCLE
  5
2D0
102
{ACAD_REACTORS
330
505
102
}
100
AcDbEntity
  8
LC-002-002-----0
370
    25
390
0
  6
DASHED
 62
     2
100
AcDbCircle
 10
397.64376
 20
314.697992
 30
0.0
 40
5.0
  0
CIRCLE
  5
2D1
102
{ACAD_REACTORS
330
505
102
}
100
AcDbEntity
  8
LC-002-002-----0
370
    25
390
0
  6
DASHED
 62
     2
100
AcDbCircle
 10
491.64376
 20
314.697992
 30
0.0
 40
2.6
  0
LINE
  5
2D2
102
{ACAD_REACTORS
330
4FC
102
}
100
AcDbEntity
  8
LC-002-002-----0
370
    50
390
0
 62
     1
100
AcDbLine
 10
196.511234
 20
291.697992
 30
0.0
 11
183.411234
 21
291.697992
 31
0.0
  0
CIRCLE
  5
2D3
102
{ACAD_REACTORS
330
505
102
}
100
AcDbEntity
  8
LC-002-002-----0
370
    25
390
0
  6
DASHED
 62
     2
100
AcDbCircle
 10
491.64376
 20
314.697992
 30
0.0
 40
5.0
  0
CIRCLE
  5
2D4
102
{ACAD_REACTORS
330
505
102
}
100
AcDbEntity
  8
LC-002-002-----0
370
    25
390
0
  6
DASHED
 62
     2
100
AcDbCircle
 10
399.869838
 20
275.195193
 30
0.0
 40
2.6
  0
ARC
  5
2D5
100
AcDbEntity
  8
LC-001-002-RND-0
370
    50
390
0
 62
     1
100
AcDbCircle
 10
768.096286
 20
315.197992
 30
0.0
 40
8.0
100
AcDbArc
 50
0.0
 51
90.0
  0
LINE
  5
2D6
100
AcDbEntity
  8
LC-002-002-----0
370
    50
390
0
 62
     1
100
AcDbLine
 10
751.096286
 20
306.197992
 30
0.0
 11
756.096286
 21
306.197992
 31
0.0
  0
ARC
  5
2D7
100
AcDbEntity
  8
LC-001-002-RND-0
370
    50
390
0
 62
     1
100
AcDbCircle
 10
756.096286
 20
303.197992
 30
0.0
 40
3.0
100
AcDbArc
 50
0.0
 51
90.0
  0
LINE
  5
2D8
100
AcDbEntity
  8
LC-002-002-----0
370
    50
390
0
 62
     1
100
AcDbLine
 10
759.096286
 20
300.71876
 30
0.0
 11
759.096286
 21
303.197992
 31
0.0
  0
ARC
  5
2D9
100
AcDbEntity
  8
LC-001-002-RND-0
370
    25
390
0
  6
DASHDOT
 62
     2
100
AcDbCircle
 10
762.596286
 20
309.697992
 30
0.0
 40
5.0
100
AcDbArc
 50
0.0
 51
90.0
  0
LINE
  5
2DA
100
AcDbEntity
  8
LC-002-002-----0
370
    25
390
0
  6
DASHDOT
 62
     2
100
AcDbLine
 10
762.596286
 20
314.697992
 30
0.0
 11
754.596286
 21
314.697992
 31
0.0
  0
ARC
  5
2DB
102
{ACAD_REACTORS
330
505
102
}
100
AcDbEntity
  8
LC-002-002-----0
370
    25
390
0
  6
DASHED
 62
     2
100
AcDbCircle
 10
399.869838
 20
275.195193
 30
0.0
 40
5.0
100
AcDbArc
 50
33.009186
 51
331.414343
  0
CIRCLE
  5
2DC
102
{ACAD_REACTORS
330
505
102
}
100
AcDbEntity
  8
LC-002-002-----0
370
    25
390
0
  6
DASHED
 62
     2
100
AcDbCircle
 10
485.869838
 20
275.695193
 30
0.0
 40
2.6
  0
ARC
  5
2DD
102
{ACAD_REACTORS
330
505
102
}
100
AcDbEntity
  8
LC-002-002-----0
370
    25
390
0
  6
DASHED
 62
     2
100
AcDbCircle
 10
485.869838
 20
275.695193
 30
0.0
 40
5.0
100
AcDbArc
 50
209.283206
 51
221.822378
  0
LINE
  5
2DE
102
{ACAD_REACTORS
330
507
102
}
100
AcDbEntity
  8
LC-002-002-----0
370
    25
390
0
  6
DASHED
 62
     2
100
AcDbLine
 10
378.148032
 20
341.697992
 30
0.0
 11
351.148032
 21
341.697992
 31
0.0
  0
LINE
  5
2DF
102
{ACAD_REACTORS
330
4FC
102
}
100
AcDbEntity
  8
LC-002-002-----0
370
    50
390
0
 62
     1
100
AcDbLine
 10
196.511234
 20
294.197992
 30
0.0
 11
183.411234
 21
294.197992
 31
0.0
  0
LINE
  5
2E0
102
{ACAD_REACTORS
330
507
102
}
100
AcDbEntity
  8
LC-002-002-----0
370
    25
390
0
  6
DASHED
 62
     2
100
AcDbLine
 10
351.148032
 20
318.406091
 30
0.0
 11
351.148032
 21
341.697992
 31
0.0
  0
CIRCLE
  5
2E1
102
{ACAD_REACTORS
330
507
102
}
100
AcDbEntity
  8
LC-002-002-----0
370
    25
390
0
  6
DASHED
 62
     2
100
AcDbCircle
 10
384.648032
 20
314.697992
 30
0.0
 40
3.0
  0
LINE
  5
2E2
102
{ACAD_REACTORS
330
507
102
}
100
AcDbEntity
  8
LC-002-002-----0
370
    25
390
0
  6
DASHED
 62
     2
100
AcDbLine
 10
378.148032
 20
318.406091
 30
0.0
 11
378.148032
 21
341.697992
 31
0.0
  0
LINE
  5
2E4
102
{ACAD_REACTORS
330
507
102
}
100
AcDbEntity
  8
LC-009-002-___-0
370
    25
390
0
 62
     2
100
AcDbLine
 10
363.113532
 20
305.525462
 30
0.0
 11
353.461955
 21
307.140103
 31
0.0
  0
LINE
  5
2E5
102
{ACAD_REACTORS
330
507
102
}
100
AcDbEntity
  8
LC-009-002-___-0
370
    25
390
0
 62
     2
100
AcDbLine
 10
366.182532
 20
323.870522
 30
0.0
 11
378.148032
 21
321.868778
 31
0.0
  0
LINE
  5
2E6
102
{ACAD_REACTORS
330
507
102
}
100
AcDbEntity
  8
LC-002-002-----0
370
    25
390
0
  6
DASHED
 62
     2
100
AcDbLine
 10
385.689959
 20
320.607067
 30
0.0
 11
378.148032
 21
321.868778
 31
0.0
  0
ARC
  5
2E7
102
{ACAD_REACTORS
330
507
102
}
100
AcDbEntity
  8
LC-002-002-----0
370
    25
390
0
  6
DASHED
 62
     2
100
AcDbCircle
 10
384.648032
 20
314.697992
 30
0.0
 40
6.0
100
AcDbArc
 50
279.497234
 51
80.0
  0
LINE
  5
2E8
102
{ACAD_REACTORS
330
507
102
}
100
AcDbEntity
  8
LC-002-002-----0
370
    25
390
0
  6
DASHED
 62
     2
100
AcDbLine
 10
385.638032
 20
308.780231
 30
0.0
 11
375.834108
 21
307.140103
 31
0.0
  0
LINE
  5
2E9
102
{ACAD_REACTORS
330
507
102
}
100
AcDbEntity
  8
LC-002-002-----0
370
    25
390
0
  6
DASHED
 62
     2
100
AcDbLine
 10
343.606104
 20
320.607067
 30
0.0
 11
351.148032
 21
321.868778
 31
0.0
  0
ARC
  5
2EA
102
{ACAD_REACTORS
330
507
102
}
100
AcDbEntity
  8
LC-002-002-----0
370
    25
390
0
  6
DASHED
 62
     2
100
AcDbCircle
 10
344.648032
 20
314.697992
 30
0.0
 40
6.0
100
AcDbArc
 50
100.0
 51
260.502766
  0
LINE
  5
2EB
100
AcDbEntity
  8
LC-002-002-----0
370
    25
390
0
  6
DASHED
 62
     2
100
AcDbLine
 10
309.64376
 20
289.697992
 30
0.0
 11
499.64376
 21
289.697992
 31
0.0
  0
LINE
  5
2EC
102
{ACAD_REACTORS
330
507
102
}
100
AcDbEntity
  8
LC-002-002-----0
370
    25
390
0
  6
DASHED
 62
     2
100
AcDbLine
 10
343.658032
 20
308.780231
 30
0.0
 11
353.461955
 21
307.140103
 31
0.0
  0
LINE
  5
2ED
102
{ACAD_REACTORS
330
507
102
}
100
AcDbEntity
  8
LC-009-002-___-0
370
    25
390
0
 62
     2
100
AcDbLine
 10
366.182532
 20
305.525462
 30
0.0
 11
375.834108
 21
307.140103
 31
0.0
  0
CIRCLE
  5
2EE
102
{ACAD_REACTORS
330
507
102
}
100
AcDbEntity
  8
LC-002-002-----0
370
    25
390
0
  6
DASHED
 62
     2
100
AcDbCircle
 10
344.648032
 20
314.697992
 30
0.0
 40
3.0
  0
LINE
  5
2EF
102
{ACAD_REACTORS
330
507
102
}
100
AcDbEntity
  8
LC-009-002-___-0
370
    25
390
0
 62
     2
100
AcDbLine
 10
363.113532
 20
323.870522
 30
0.0
 11
351.148032
 21
321.868778
 31
0.0
  0
LINE
  5
2F0
100
AcDbEntity
  8
LC-002-002-----0
370
    50
390
0
 62
     1
100
AcDbLine
 10
499.64376
 20
289.697992
 30
0.0
 11
585.50376
 21
289.697992
 31
0.0
  0
LINE
  5
2F1
100
AcDbEntity
  8
LC-002-002-----0
370
    25
390
0
  6
DASHED
 62
     2
100
AcDbLine
 10
309.64376
 20
339.697992
 30
0.0
 11
499.64376
 21
339.697992
 31
0.0
  0
LINE
  5
2F2
100
AcDbEntity
  8
LC-002-002-----0
370
    50
390
0
 62
     1
100
AcDbLine
 10
499.64376
 20
339.697992
 30
0.0
 11
585.50376
 21
339.697992
 31
0.0
  0
LINE
  5
2F3
100
AcDbEntity
  8
LC-002-002-----0
370
    50
390
0
 62
     1
100
AcDbLine
 10
265.50376
 20
289.697992
 30
0.0
 11
309.64376
 21
289.697992
 31
0.0
  0
LINE
  5
2F4
100
AcDbEntity
  8
LC-002-002-----0
370
    50
390
0
 62
     1
100
AcDbLine
 10
265.50376
 20
339.697992
 30
0.0
 11
309.64376
 21
339.697992
 31
0.0
  0
ARC
  5
2F5
102
{ACAD_REACTORS
330
50C
102
}
100
AcDbEntity
  8
LC-002-002-----0
370
    25
390
0
  6
DASHED
 62
     2
100
AcDbCircle
 10
444.64376
 20
314.697992
 30
0.0
 40
57.5
100
AcDbArc
 50
106.957426
 51
150.287235
  0
ARC
  5
2F6
102
{ACAD_REACTORS
330
50C
102
}
100
AcDbEntity
  8
LC-002-002-----0
370
    25
390
0
  6
DASHED
 62
     2
100
AcDbCircle
 10
444.64376
 20
314.697992
 30
0.0
 40
57.5
100
AcDbArc
 50
311.627259
 51
343.042574
  0
LINE
  5
2F7
102
{ACAD_REACTORS
330
505
102
}
100
AcDbEntity
  8
LC-002-002-----0
370
    50
390
0
 62
     1
100
AcDbLine
 10
404.766484
 20
259.697992
 30
0.0
 11
405.669502
 21
236.316919
 31
0.0
  0
ARC
  5
2F8
102
{ACAD_REACTORS
330
50C
102
}
100
AcDbEntity
  8
LC-002-002-----0
370
    25
390
0
  6
DASHED
 62
     2
100
AcDbCircle
 10
444.64376
 20
314.697992
 30
0.0
 40
57.5
100
AcDbArc
 50
209.712765
 51
311.627259
  0
LINE
  5
2F9
102
{ACAD_REACTORS
330
505
102
}
100
AcDbEntity
  8
LC-002-002-----0
370
    25
390
0
  6
DASHED
 62
     2
100
AcDbLine
 10
479.824921
 20
259.697992
 30
0.0
 11
486.658731
 21
314.696132
 31
0.0
  0
ARC
  5
2FA
102
{ACAD_REACTORS
330
505
102
}
100
AcDbEntity
  8
LC-002-002-----0
370
    25
390
0
  6
DASHED
 62
     2
100
AcDbCircle
 10
485.869838
 20
275.695193
 30
0.0
 40
5.0
100
AcDbArc
 50
221.822378
 51
136.550794
  0
ARC
  5
2FB
102
{ACAD_REACTORS
330
50C
102
}
100
AcDbEntity
  8
LC-002-002-----0
370
    50
390
0
 62
     1
100
AcDbCircle
 10
444.64376
 20
314.697992
 30
0.0
 40
57.5
100
AcDbArc
 50
73.042574
 51
106.957426
  0
ARC
  5
2FC
102
{ACAD_REACTORS
330
505
102
}
100
AcDbEntity
  8
LC-002-002-----0
370
    25
390
0
  6
DASHED
 62
     2
100
AcDbCircle
 10
444.64376
 20
314.697992
 30
0.0
 40
42.0
100
AcDbArc
 50
26.765501
 51
180.052638
  0
ARC
  5
2FD
102
{ACAD_REACTORS
330
50A
102
}
100
AcDbEntity
  8
LC-002-002-----0
370
    50
390
0
 62
     1
100
AcDbCircle
 10
444.648032
 20
314.697992
 30
0.0
 40
19.0
100
AcDbArc
 50
309.720187
 51
230.279778
  0
ARC
  5
2FE
102
{ACAD_REACTORS
330
50A
102
}
100
AcDbEntity
  8
LC-002-002-----0
370
    50
390
0
 62
     1
100
AcDbCircle
 10
444.648032
 20
314.697992
 30
0.0
 40
14.0
100
AcDbArc
 50
315.584808
 51
224.415063
  0
ARC
  5
2FF
102
{ACAD_REACTORS
330
50A
102
}
100
AcDbEntity
  8
LC-002-002-----0
370
    50
390
0
 62
     1
100
AcDbCircle
 10
444.648032
 20
314.697992
 30
0.0
 40
13.0
100
AcDbArc
 50
320.28498
 51
219.714892
  0
LINE
  5
300
102
{ACAD_REACTORS
330
50A
102
}
100
AcDbEntity
  8
LC-002-002-----0
370
    50
390
0
 62
     1
100
AcDbLine
 10
453.898032
 20
272.697992
 30
0.0
 11
435.398032
 21
272.697992
 31
0.0
  0
LINE
  5
301
102
{ACAD_REACTORS
330
50A
102
}
100
AcDbEntity
  8
LC-002-002-----0
370
    50
390
0
 62
     1
100
AcDbLine
 10
452.663743
 20
265.697992
 30
0.0
 11
436.610179
 21
265.697992
 31
0.0
  0
LINE
  5
302
102
{ACAD_REACTORS
330
50A
102
}
100
AcDbEntity
  8
LC-002-002-----0
370
    50
390
0
 62
     1
100
AcDbLine
 10
454.648032
 20
279.697992
 30
0.0
 11
434.648032
 21
279.697992
 31
0.0
  0
LINE
  5
303
102
{ACAD_REACTORS
330
50A
102
}
100
AcDbEntity
  8
LC-002-002-----0
370
    50
390
0
 62
     1
100
AcDbLine
 10
455.398032
 20
286.697992
 30
0.0
 11
433.898032
 21
286.697992
 31
0.0
  0
LINE
  5
304
102
{ACAD_REACTORS
330
50A
102
}
100
AcDbEntity
  8
LC-002-002-----0
370
    50
390
0
 62
     1
100
AcDbLine
 10
456.148032
 20
293.697992
 30
0.0
 11
433.148032
 21
293.697992
 31
0.0
  0
LINE
  5
305
102
{ACAD_REACTORS
330
50A
102
}
100
AcDbEntity
  8
LC-002-002-----0
370
    50
390
0
 62
     1
100
AcDbLine
 10
454.648032
 20
300.697992
 30
0.0
 11
454.648032
 21
306.391368
 31
0.0
  0
LINE
  5
306
102
{ACAD_REACTORS
330
50A
102
}
100
AcDbEntity
  8
LC-002-002-----0
370
    50
390
0
 62
     1
100
AcDbLine
 10
434.648032
 20
300.697992
 30
0.0
 11
434.648032
 21
306.391368
 31
0.0
  0
LINE
  5
307
102
{ACAD_REACTORS
330
50A
102
}
100
AcDbEntity
  8
LC-002-002-----0
370
    50
390
0
 62
     1
100
AcDbLine
 10
433.148032
 20
293.697992
 30
0.0
 11
434.382321
 21
286.697992
 31
0.0
  0
LINE
  5
308
102
{ACAD_REACTORS
330
50A
102
}
100
AcDbEntity
  8
LC-002-002-----0
370
    50
390
0
 62
     1
100
AcDbLine
 10
433.898032
 20
286.697992
 30
0.0
 11
435.132321
 21
279.697992
 31
0.0
  0
LINE
  5
309
102
{ACAD_REACTORS
330
50A
102
}
100
AcDbEntity
  8
LC-002-002-----0
370
    50
390
0
 62
     1
100
AcDbLine
 10
434.648032
 20
279.697992
 30
0.0
 11
435.882321
 21
272.697992
 31
0.0
  0
LINE
  5
30A
102
{ACAD_REACTORS
330
50A
102
}
100
AcDbEntity
  8
LC-002-002-----0
370
    50
390
0
 62
     1
100
AcDbLine
 10
435.398032
 20
272.697992
 30
0.0
 11
436.610179
 21
265.823563
 31
0.0
  0
LINE
  5
30B
102
{ACAD_REACTORS
330
50A
102
}
100
AcDbEntity
  8
LC-002-002-----0
370
    50
390
0
 62
     1
100
AcDbLine
 10
456.148032
 20
293.697992
 30
0.0
 11
454.913743
 21
286.697992
 31
0.0
  0
LINE
  5
30C
102
{ACAD_REACTORS
330
50A
102
}
100
AcDbEntity
  8
LC-002-002-----0
370
    50
390
0
 62
     1
100
AcDbLine
 10
455.398032
 20
286.697992
 30
0.0
 11
454.163743
 21
279.697992
 31
0.0
  0
LINE
  5
30D
102
{ACAD_REACTORS
330
50A
102
}
100
AcDbEntity
  8
LC-002-002-----0
370
    50
390
0
 62
     1
100
AcDbLine
 10
454.648032
 20
279.697992
 30
0.0
 11
453.413743
 21
272.697992
 31
0.0
  0
LINE
  5
30E
102
{ACAD_REACTORS
330
50A
102
}
100
AcDbEntity
  8
LC-002-002-----0
370
    50
390
0
 62
     1
100
AcDbLine
 10
453.898032
 20
272.697992
 30
0.0
 11
452.663743
 21
265.697992
 31
0.0
  0
LINE
  5
30F
102
{ACAD_REACTORS
330
50A
102
}
100
AcDbEntity
  8
LC-006-001-----0
370
    50
390
0
 62
     1
100
AcDbLine
 10
456.148032
 20
300.697992
 30
0.0
 11
433.148032
 21
300.697992
 31
0.0
  0
LINE
  5
310
102
{ACAD_REACTORS
330
50A
102
}
100
AcDbEntity
  8
LC-002-002-----0
370
    50
390
0
 62
     1
100
AcDbLine
 10
433.148032
 20
300.697992
 30
0.0
 11
432.398032
 21
300.697992
 31
0.0
  0
LINE
  5
311
102
{ACAD_REACTORS
330
50A
102
}
100
AcDbEntity
  8
LC-002-002-----0
370
    50
390
0
 62
     1
100
AcDbLine
 10
456.148032
 20
300.697992
 30
0.0
 11
456.898032
 21
300.697992
 31
0.0
  0
LINE
  5
312
102
{ACAD_REACTORS
330
50A
102
}
100
AcDbEntity
  8
LC-002-002-----0
370
    50
390
0
 62
     1
100
AcDbLine
 10
456.898032
 20
300.697992
 30
0.0
 11
455.663743
 21
293.697992
 31
0.0
  0
LINE
  5
313
102
{ACAD_REACTORS
330
50A
102
}
100
AcDbEntity
  8
LC-002-002-----0
370
    50
390
0
 62
     1
100
AcDbLine
 10
432.398032
 20
300.697992
 30
0.0
 11
433.632321
 21
293.697992
 31
0.0
  0
ARC
  5
314
100
AcDbEntity
  8
LC-002-002-----0
370
    50
390
0
 62
     1
100
AcDbCircle
 10
364.64376
 20
314.697992
 30
0.0
 40
14.004119
100
AcDbArc
 50
307.370324
 51
232.629676
  0
LINE
  5
315
100
AcDbEntity
  8
LC-002-002-----0
370
    25
390
0
  6
DASHED
 62
     2
100
AcDbLine
 10
378.14376
 20
472.450042
 30
0.0
 11
351.14376
 21
472.450042
 31
0.0
  0
LINE
  5
316
100
AcDbEntity
  8
LC-002-002-----0
370
    25
390
0
  6
DASHED
 62
     2
100
AcDbLine
 10
351.14376
 20
472.450042
 30
0.0
 11
351.14376
 21
447.450042
 31
0.0
  0
LINE
  5
317
100
AcDbEntity
  8
LC-002-002-----0
370
    25
390
0
  6
DASHED
 62
     2
100
AcDbLine
 10
351.14376
 20
407.450042
 30
0.0
 11
378.14376
 21
407.450042
 31
0.0
  0
LINE
  5
318
100
AcDbEntity
  8
LC-002-002-----0
370
    25
390
0
  6
DASHED
 62
     2
100
AcDbLine
 10
378.14376
 20
407.450042
 30
0.0
 11
378.14376
 21
428.044161
 31
0.0
  0
LINE
  5
319
100
AcDbEntity
  8
LC-002-002-----0
370
    25
390
0
  6
DASHED
 62
     2
100
AcDbLine
 10
378.14376
 20
459.450042
 30
0.0
 11
351.14376
 21
459.450042
 31
0.0
  0
LINE
  5
31A
100
AcDbEntity
  8
LC-002-002-----0
370
    25
390
0
  6
DASHED
 62
     2
100
AcDbLine
 10
351.14376
 20
420.450042
 30
0.0
 11
378.14376
 21
420.450042
 31
0.0
  0
LINE
  5
31B
100
AcDbEntity
  8
LC-002-002-----0
370
    25
390
0
  6
DASHDOT
 62
     2
100
AcDbLine
 10
364.64376
 20
459.450042
 30
0.0
 11
364.64376
 21
420.450042
 31
0.0
  0
LINE
  5
31C
100
AcDbEntity
  8
LC-002-002-----0
370
    50
390
0
 62
     1
100
AcDbLine
 10
364.64376
 20
407.450042
 30
0.0
 11
364.64376
 21
420.450042
 31
0.0
  0
ARC
  5
31D
100
AcDbEntity
  8
LC-002-002-----0
370
    25
390
0
  6
DASHED
 62
     2
100
AcDbCircle
 10
357.89376
 20
419.840667
 30
0.0
 40
12.390625
100
AcDbArc
 50
236.991336
 51
303.00884
  0
ARC
  5
31E
100
AcDbEntity
  8
LC-002-002-----0
370
    25
390
0
  6
DASHED
 62
     2
100
AcDbCircle
 10
371.39376
 20
419.840667
 30
0.0
 40
12.390625
100
AcDbArc
 50
236.991336
 51
303.00884
  0
ARC
  5
31F
100
AcDbEntity
  8
LC-002-002-----0
370
    25
390
0
  6
DASHED
 62
     2
100
AcDbCircle
 10
357.892134
 20
460.056285
 30
0.0
 40
12.390625
100
AcDbArc
 50
56.990856
 51
122.999754
  0
LINE
  5
320
102
{ACAD_REACTORS
330
4FC
102
}
100
AcDbEntity
  8
LC-002-002-----0
370
    50
390
0
 62
     1
100
AcDbLine
 10
183.411234
 20
291.697992
 30
0.0
 11
183.411234
 21
294.197992
 31
0.0
  0
LINE
  5
321
102
{ACAD_REACTORS
330
4FC
102
}
100
AcDbEntity
  8
LC-002-002-----0
370
    50
390
0
 62
     1
100
AcDbLine
 10
196.511234
 20
291.697992
 30
0.0
 11
196.511234
 21
294.197992
 31
0.0
  0
ARC
  5
322
100
AcDbEntity
  8
LC-002-002-----0
370
    25
390
0
  6
DASHED
 62
     2
100
AcDbCircle
 10
371.392134
 20
460.056214
 30
0.0
 40
12.390625
100
AcDbArc
 50
56.990856
 51
123.008419
  0
ARC
  5
323
102
{ACAD_REACTORS
330
4FE
102
}
100
AcDbEntity
  8
LC-002-002-----0
370
    50
390
0
 62
     1
100
AcDbCircle
 10
358.146206
 20
387.449005
 30
0.0
 40
3.0
100
AcDbArc
 50
179.999925
 51
296.388392
  0
LINE
  5
324
102
{ACAD_REACTORS
330
4FC
102
}
100
AcDbEntity
  8
LC-002-002-----0
370
    50
390
0
 62
     1
100
AcDbLine
 10
196.511234
 20
270.195193
 30
0.0
 11
196.511234
 21
280.195193
 31
0.0
  0
LINE
  5
325
102
{ACAD_REACTORS
330
4FC
102
}
100
AcDbEntity
  8
LC-002-002-----0
370
    50
390
0
 62
     1
100
AcDbLine
 10
183.411234
 20
270.195193
 30
0.0
 11
196.511234
 21
270.195193
 31
0.0
  0
LINE
  5
326
102
{ACAD_REACTORS
330
4FE
102
}
100
AcDbEntity
  8
LC-002-002-----0
370
    50
390
0
 62
     1
100
AcDbLine
 10
359.479567
 20
384.7616
 30
0.0
 11
369.761731
 21
390.11037
 31
0.0
  0
LINE
  5
327
102
{ACAD_REACTORS
330
4FC
102
}
100
AcDbEntity
  8
LC-002-002-----0
370
    50
390
0
 62
     1
100
AcDbLine
 10
183.411234
 20
270.195193
 30
0.0
 11
183.411234
 21
280.195193
 31
0.0
  0
LINE
  5
328
102
{ACAD_REACTORS
330
4FE
102
}
100
AcDbEntity
  8
LC-002-002-----0
370
    50
390
0
 62
     1
100
AcDbLine
 10
364.646206
 20
387.44928
 30
0.0
 11
369.76145
 21
384.787649
 31
0.0
  0
ARC
  5
329
102
{ACAD_REACTORS
330
4FE
102
}
100
AcDbEntity
  8
LC-002-002-----0
370
    50
390
0
 62
     1
100
AcDbCircle
 10
371.146206
 20
387.448936
 30
0.0
 40
3.0
100
AcDbArc
 50
242.510567
 51
117.483704
  0
LINE
  5
32A
102
{ACAD_REACTORS
330
4FC
102
}
100
AcDbEntity
  8
LC-002-002-----0
370
    50
390
0
 62
     1
100
AcDbLine
 10
183.411234
 20
280.195193
 30
0.0
 11
196.511234
 21
280.195193
 31
0.0
  0
LINE
  5
32B
102
{ACAD_REACTORS
330
4FC
102
}
100
AcDbEntity
  8
LC-002-002-----0
370
    25
390
0
  6
DASHDOT
 62
     2
100
AcDbLine
 10
180.903941
 20
275.195193
 30
0.0
 11
197.646414
 21
275.195193
 31
0.0
  0
LINE
  5
32C
102
{ACAD_REACTORS
330
4FA
102
}
100
AcDbEntity
  8
LC-002-002-----0
370
    50
390
0
 62
     1
100
AcDbLine
 10
115.071425
 20
259.697992
 30
0.0
 11
115.071425
 21
328.198719
 31
0.0
  0
ARC
  5
32D
102
{ACAD_REACTORS
330
4FD
102
}
100
AcDbEntity
  8
LC-002-002-----0
370
    50
390
0
 62
     1
100
AcDbCircle
 10
358.148218
 20
492.450042
 30
0.0
 40
3.0
100
AcDbArc
 50
63.611304
 51
179.999829
  0
ARC
  5
32E
102
{ACAD_REACTORS
330
4FD
102
}
100
AcDbEntity
  8
LC-002-002-----0
370
    50
390
0
 62
     1
100
AcDbCircle
 10
371.148218
 20
492.450042
 30
0.0
 40
3.0
100
AcDbArc
 50
242.515991
 51
117.488959
  0
LINE
  5
32F
102
{ACAD_REACTORS
330
4FD
102
}
100
AcDbEntity
  8
LC-002-002-----0
370
    50
390
0
 62
     1
100
AcDbLine
 10
359.481593
 20
495.137441
 30
0.0
 11
369.763729
 21
489.788616
 31
0.0
  0
LINE
  5
330
102
{ACAD_REACTORS
330
4F9
102
}
100
AcDbEntity
  8
LC-002-002-----0
370
    50
390
0
 62
     1
100
AcDbLine
 10
115.071425
 20
259.697992
 30
0.0
 11
110.950105
 21
263.819313
 31
0.0
  0
ARC
  5
331
102
{ACAD_REACTORS
330
4F8
102
}
100
AcDbEntity
  8
LC-002-002-----0
370
    50
390
0
 62
     1
100
AcDbCircle
 10
113.071425
 20
265.940633
 30
0.0
 40
3.0
100
AcDbArc
 50
180.0
 51
225.0
  0
LINE
  5
332
102
{ACAD_REACTORS
330
4FD
102
}
100
AcDbEntity
  8
LC-002-002-----0
370
    50
390
0
 62
     1
100
AcDbLine
 10
364.648218
 20
492.449733
 30
0.0
 11
369.763476
 21
495.111337
 31
0.0
  0
INSERT
  5
339
100
AcDbEntity
  8
LC-008-005-----0
370
    25
390
0
 62
     2
100
AcDbBlockReference
  2
*X9
 10
0.0
 20
0.0
 30
0.0
  0
LINE
  5
33A
100
AcDbEntity
  8
LC-002-002-----0
370
    25
390
0
  6
DASHDOT
 62
     2
100
AcDbLine
 10
364.64376
 20
470.446888
 30
0.0
 11
364.64376
 21
494.934778
 31
0.0
  0
LINE
  5
33B
100
AcDbEntity
  8
LC-002-002-----0
370
    50
390
0
 62
     1
100
AcDbLine
 10
355.146206
 20
387.449009
 30
0.0
 11
355.146206
 21
390.450042
 31
0.0
  0
LINE
  5
33C
100
AcDbEntity
  8
LC-002-002-----0
370
    50
390
0
 62
     1
100
AcDbLine
 10
374.146206
 20
390.450042
 30
0.0
 11
374.146206
 21
387.448936
 31
0.0
  0
LINE
  5
33D
102
{ACAD_REACTORS
330
4FD
102
}
100
AcDbEntity
  8
LC-002-002-----0
370
    50
390
0
 62
     1
100
AcDbLine
 10
355.148218
 20
473.637349
 30
0.0
 11
355.148218
 21
492.450042
 31
0.0
  0
LINE
  5
33E
102
{ACAD_REACTORS
330
4FD
102
}
100
AcDbEntity
  8
LC-002-002-----0
370
    50
390
0
 62
     1
100
AcDbLine
 10
374.148218
 20
473.634835
 30
0.0
 11
374.148218
 21
492.450042
 31
0.0
  0
LINE
  5
33F
102
{ACAD_REACTORS
330
4FE
102
}
100
AcDbEntity
  8
LC-002-002-----0
370
    50
390
0
 62
     1
100
AcDbLine
 10
355.146306
 20
406.263275
 30
0.0
 11
355.146222
 21
390.450042
 31
0.0
  0
LINE
  5
340
102
{ACAD_REACTORS
330
4FE
102
}
100
AcDbEntity
  8
LC-002-002-----0
370
    50
390
0
 62
     1
100
AcDbLine
 10
374.146206
 20
390.450042
 30
0.0
 11
374.146206
 21
406.264681
 31
0.0
  0
LINE
  5
341
100
AcDbEntity
  8
LC-002-002-----0
370
    25
390
0
  6
DASHED
 62
     2
100
AcDbLine
 10
355.146303
 20
406.263275
 30
0.0
 11
355.146303
 21
407.758487
 31
0.0
  0
LINE
  5
342
100
AcDbEntity
  8
LC-002-002-----0
370
    25
390
0
  6
DASHED
 62
     2
100
AcDbLine
 10
374.146206
 20
406.264681
 30
0.0
 11
374.146206
 21
407.759623
 31
0.0
  0
LINE
  5
343
102
{ACAD_REACTORS
330
50C
102
}
100
AcDbEntity
  8
LC-002-002-----0
370
    25
390
0
  6
DASHED
 62
     2
100
AcDbLine
 10
341.14376
 20
343.197992
 30
0.0
 11
394.703796
 21
343.197992
 31
0.0
  0
LINE
  5
344
102
{ACAD_REACTORS
330
50C
102
}
100
AcDbEntity
  8
LC-002-002-----0
370
    25
390
0
  6
DASHED
 62
     2
100
AcDbLine
 10
341.14376
 20
286.197992
 30
0.0
 11
394.703796
 21
286.197992
 31
0.0
  0
ARC
  5
345
102
{ACAD_REACTORS
330
50C
102
}
100
AcDbEntity
  8
LC-001-002-RND-0
370
    25
390
0
  6
DASHED
 62
     2
100
AcDbCircle
 10
341.14376
 20
338.197992
 30
0.0
 40
5.0
100
AcDbArc
 50
90.0
 51
180.0
  0
ARC
  5
346
102
{ACAD_REACTORS
330
50C
102
}
100
AcDbEntity
  8
LC-001-002-RND-0
370
    25
390
0
  6
DASHED
 62
     2
100
AcDbCircle
 10
341.14376
 20
291.197992
 30
0.0
 40
5.0
100
AcDbArc
 50
180.0
 51
270.0
  0
LINE
  5
347
100
AcDbEntity
  8
LC-002-002-----0
370
    50
390
0
 62
     1
100
AcDbLine
 10
751.096286
 20
323.197992
 30
0.0
 11
768.096286
 21
323.197992
 31
0.0
  0
LINE
  5
348
100
AcDbEntity
  8
LC-002-002-----0
370
    50
390
0
 62
     1
100
AcDbLine
 10
776.096286
 20
300.71876
 30
0.0
 11
776.096286
 21
315.197992
 31
0.0
  0
LINE
  5
349
100
AcDbEntity
  8
LC-002-002-----0
370
    25
390
0
  6
DASHED
 62
     2
100
AcDbLine
 10
374.148218
 20
473.634835
 30
0.0
 11
374.148218
 21
472.450042
 31
0.0
  0
LINE
  5
34A
100
AcDbEntity
  8
LC-002-002-----0
370
    25
390
0
  6
DASHED
 62
     2
100
AcDbLine
 10
355.148218
 20
473.637349
 30
0.0
 11
355.148218
 21
472.450042
 31
0.0
  0
LINE
  5
34B
102
{ACAD_REACTORS
330
50C
102
}
100
AcDbEntity
  8
LC-007-006-MLN-0
370
    25
390
0
 62
     2
100
AcDbLine
 10
444.64376
 20
379.697992
 30
0.0
 11
444.64376
 21
216.697992
 31
0.0
  0
LINE
  5
34C
100
AcDbEntity
  8
LC-002-002-----0
370
    25
390
0
  6
DASHDOT
 62
     2
100
AcDbLine
 10
346.64376
 20
439.950042
 30
0.0
 11
382.64376
 21
439.950042
 31
0.0
  0
CIRCLE
  5
34D
102
{ACAD_REACTORS
330
50C
102
}
100
AcDbEntity
  8
LC-002-002-----0
370
    25
390
0
  6
DASHED
 62
     2
100
AcDbCircle
 10
384.64376
 20
314.697992
 30
0.0
 40
1.5
  0
CIRCLE
  5
34E
102
{ACAD_REACTORS
330
50C
102
}
100
AcDbEntity
  8
LC-002-002-----0
370
    25
390
0
  6
DASHED
 62
     2
100
AcDbCircle
 10
344.639489
 20
314.697992
 30
0.0
 40
1.5
  0
CIRCLE
  5
34F
102
{ACAD_REACTORS
330
50C
102
}
100
AcDbEntity
  8
LC-002-002-----0
370
    25
390
0
  6
DASHED
 62
     2
100
AcDbCircle
 10
397.64376
 20
314.697992
 30
0.0
 40
1.5
  0
LINE
  5
350
102
{ACAD_REACTORS
330
50C
102
}
100
AcDbEntity
  8
LC-002-002-----0
370
    25
390
0
  6
DASHED
 62
     2
100
AcDbLine
 10
336.14376
 20
338.197992
 30
0.0
 11
336.14376
 21
291.197992
 31
0.0
  0
LINE
  5
351
102
{ACAD_REACTORS
330
50C
102
}
100
AcDbEntity
  8
LC-002-002-----0
370
    25
390
0
  6
DASHDOT
 62
     2
100
AcDbLine
 10
444.64376
 20
269.197992
 30
0.0
 11
444.64376
 21
266.197992
 31
0.0
  0
CIRCLE
  5
352
102
{ACAD_REACTORS
330
50C
102
}
100
AcDbEntity
  8
LC-002-002-----0
370
    25
390
0
  6
DASHED
 62
     2
100
AcDbCircle
 10
491.64376
 20
314.697992
 30
0.0
 40
1.5
  0
LINE
  5
353
102
{ACAD_REACTORS
330
4F7
102
}
100
AcDbEntity
  8
LC-002-002-----0
370
    50
390
0
 62
     1
100
AcDbLine
 10
110.071425
 20
328.198719
 30
0.0
 11
110.071425
 21
265.940633
 31
0.0
  0
LINE
  5
354
102
{ACAD_REACTORS
330
4F6
102
}
100
AcDbEntity
  8
LC-002-002-----0
370
    50
390
0
 62
     1
100
AcDbLine
 10
115.071425
 20
369.697992
 30
0.0
 11
110.950105
 21
365.576672
 31
0.0
  0
ARC
  5
355
102
{ACAD_REACTORS
330
4F5
102
}
100
AcDbEntity
  8
LC-002-002-----0
370
    50
390
0
 62
     1
100
AcDbCircle
 10
113.071425
 20
363.455352
 30
0.0
 40
3.0
100
AcDbArc
 50
135.0
 51
180.0
  0
LINE
  5
356
100
AcDbEntity
  8
LC-002-002-----0
370
    50
390
0
 62
     1
100
AcDbLine
 10
110.071425
 20
363.455352
 30
0.0
 11
110.071425
 21
328.198719
 31
0.0
  0
LINE
  5
357
100
AcDbEntity
  8
LC-002-002-----0
370
    25
390
0
  6
DASHED
 62
     2
100
AcDbLine
 10
709.596286
 20
325.185513
 30
0.0
 11
709.596286
 21
304.225513
 31
0.0
  0
LINE
  5
358
102
{ACAD_REACTORS
330
509
102
}
100
AcDbEntity
  8
LC-002-002-----0
370
    25
390
0
  6
DASHED
 62
     2
100
AcDbLine
 10
749.096286
 20
327.197992
 30
0.0
 11
748.096286
 21
328.197992
 31
0.0
  0
LINE
  5
359
102
{ACAD_REACTORS
330
509
102
}
100
AcDbEntity
  8
LC-002-002-----0
370
    25
390
0
  6
DASHED
 62
     2
100
AcDbLine
 10
749.096286
 20
302.197992
 30
0.0
 11
748.096286
 21
301.197992
 31
0.0
  0
LINE
  5
35A
102
{ACAD_REACTORS
330
509
102
}
100
AcDbEntity
  8
LC-002-002-----0
370
    25
390
0
  6
DASHED
 62
     2
100
AcDbLine
 10
748.096286
 20
328.197992
 30
0.0
 11
748.096286
 21
301.197992
 31
0.0
  0
LINE
  5
35B
100
AcDbEntity
  8
LC-002-002-----0
370
    50
390
0
 62
     1
100
AcDbLine
 10
77.069264
 20
299.700207
 30
0.0
 11
78.569264
 21
299.700206
 31
0.0
  0
LINE
  5
35C
102
{ACAD_REACTORS
330
509
102
}
100
AcDbEntity
  8
LC-002-002-----0
370
    50
390
0
 62
     1
100
AcDbLine
 10
646.596286
 20
323.997992
 30
0.0
 11
646.596286
 21
305.397992
 31
0.0
  0
LINE
  5
35D
102
{ACAD_REACTORS
330
509
102
}
100
AcDbEntity
  8
LC-002-002-----0
370
    50
390
0
 62
     1
100
AcDbLine
 10
650.096286
 20
320.691741
 30
0.0
 11
650.096286
 21
306.197992
 31
0.0
  0
LINE
  5
35E
102
{ACAD_REACTORS
330
509
102
}
100
AcDbEntity
  8
LC-002-002-----0
370
    50
390
0
 62
     1
100
AcDbLine
 10
646.596286
 20
305.397992
 30
0.0
 11
650.160701
 21
305.397992
 31
0.0
  0
LINE
  5
35F
102
{ACAD_REACTORS
330
509
102
}
100
AcDbEntity
  8
LC-002-002-----0
370
    50
390
0
 62
     1
100
AcDbLine
 10
646.596286
 20
323.997992
 30
0.0
 11
647.096286
 21
323.997992
 31
0.0
  0
LINE
  5
360
102
{ACAD_REACTORS
330
509
102
}
100
AcDbEntity
  8
LC-002-002-----0
370
    25
390
0
  6
DASHED
 62
     2
100
AcDbLine
 10
748.096286
 20
301.197992
 30
0.0
 11
743.236096
 21
301.197992
 31
0.0
  0
LINE
  5
361
102
{ACAD_REACTORS
330
509
102
}
100
AcDbEntity
  8
LC-002-002-----0
370
    50
390
0
 62
     1
100
AcDbLine
 10
647.096286
 20
341.697992
 30
0.0
 11
647.096286
 21
323.997992
 31
0.0
  0
LINE
  5
362
102
{ACAD_REACTORS
330
509
102
}
100
AcDbEntity
  8
LC-002-002-----0
370
    50
390
0
 62
     1
100
AcDbLine
 10
674.096286
 20
341.697992
 30
0.0
 11
674.096286
 21
328.197992
 31
0.0
  0
ARC
  5
363
102
{ACAD_REACTORS
330
509
102
}
100
AcDbEntity
  8
LC-002-002-----0
370
    50
390
0
 62
     1
100
AcDbCircle
 10
646.774404
 20
320.691741
 30
0.0
 40
3.321883
100
AcDbArc
 50
0.0
 51
84.439446
  0
ARC
  5
364
102
{ACAD_REACTORS
330
509
102
}
100
AcDbEntity
  8
LC-001-002-RND-0
370
    50
390
0
 62
     1
100
AcDbCircle
 10
655.096286
 20
306.197992
 30
0.0
 40
5.0
100
AcDbArc
 50
180.0
 51
270.0
  0
LINE
  5
365
102
{ACAD_REACTORS
330
509
102
}
100
AcDbEntity
  8
LC-002-002-----0
370
    25
390
0
  6
DASHED
 62
     2
100
AcDbLine
 10
748.096286
 20
328.197992
 30
0.0
 11
743.236096
 21
328.197992
 31
0.0
  0
ARC
  5
366
102
{ACAD_REACTORS
330
509
102
}
100
AcDbEntity
  8
LC-001-002-RND-0
370
    25
390
0
  6
DASHED
 62
     2
100
AcDbCircle
 10
661.296286
 20
315.405513
 30
0.0
 40
10.0
100
AcDbArc
 50
180.0
 51
270.0
  0
LINE
  5
367
102
{ACAD_REACTORS
330
509
102
}
100
AcDbEntity
  8
LC-002-002-----0
370
    50
390
0
 62
     1
100
AcDbLine
 10
674.096286
 20
328.197992
 30
0.0
 11
660.596286
 21
314.697992
 31
0.0
  0
LINE
  5
368
102
{ACAD_REACTORS
330
509
102
}
100
AcDbEntity
  8
LC-002-002-----0
370
    50
390
0
 62
     1
100
AcDbLine
 10
749.096286
 20
327.197992
 30
0.0
 11
749.096286
 21
302.197992
 31
0.0
  0
LINE
  5
369
102
{ACAD_REACTORS
330
509
102
}
100
AcDbEntity
  8
LC-002-002-----0
370
    25
390
0
  6
DASHED
 62
     2
100
AcDbLine
 10
709.596286
 20
325.185513
 30
0.0
 11
749.096286
 21
325.185513
 31
0.0
  0
LINE
  5
36A
102
{ACAD_REACTORS
330
509
102
}
100
AcDbEntity
  8
LC-002-002-----0
370
    25
390
0
  6
DASHED
 62
     2
100
AcDbLine
 10
669.903807
 20
324.005513
 30
0.0
 11
747.916286
 21
324.005513
 31
0.0
  0
LINE
  5
36B
102
{ACAD_REACTORS
330
509
102
}
100
AcDbEntity
  8
LC-002-002-----0
370
    25
390
0
  6
DASHED
 62
     2
100
AcDbLine
 10
661.296286
 20
305.405513
 30
0.0
 11
747.916286
 21
305.405513
 31
0.0
  0
LINE
  5
36C
102
{ACAD_REACTORS
330
509
102
}
100
AcDbEntity
  8
LC-002-002-----0
370
    25
390
0
  6
DASHED
 62
     2
100
AcDbLine
 10
709.596286
 20
304.225513
 30
0.0
 11
749.096286
 21
304.225513
 31
0.0
  0
LINE
  5
36D
102
{ACAD_REACTORS
330
509
102
}
100
AcDbEntity
  8
LC-002-002-----0
370
    25
390
0
  6
DASHED
 62
     2
100
AcDbLine
 10
749.096286
 20
325.185513
 30
0.0
 11
747.916286
 21
324.005513
 31
0.0
  0
LINE
  5
36E
102
{ACAD_REACTORS
330
509
102
}
100
AcDbEntity
  8
LC-002-002-----0
370
    25
390
0
  6
DASHED
 62
     2
100
AcDbLine
 10
749.096286
 20
304.225513
 30
0.0
 11
747.916286
 21
305.405513
 31
0.0
  0
LINE
  5
36F
102
{ACAD_REACTORS
330
509
102
}
100
AcDbEntity
  8
LC-002-002-----0
370
    50
390
0
 62
     1
100
AcDbLine
 10
647.096286
 20
341.697992
 30
0.0
 11
674.096286
 21
341.697992
 31
0.0
  0
LINE
  5
370
102
{ACAD_REACTORS
330
509
102
}
100
AcDbEntity
  8
LC-002-002-----0
370
    25
390
0
  6
DASHED
 62
     2
100
AcDbLine
 10
651.296286
 20
341.697992
 30
0.0
 11
651.296286
 21
315.405513
 31
0.0
  0
LINE
  5
371
102
{ACAD_REACTORS
330
509
102
}
100
AcDbEntity
  8
LC-002-002-----0
370
    25
390
0
  6
DASHED
 62
     2
100
AcDbLine
 10
669.896286
 20
341.697992
 30
0.0
 11
669.896286
 21
324.005513
 31
0.0
  0
LINE
  5
372
100
AcDbEntity
  8
LC-002-002-----0
370
    50
390
0
 62
     1
100
AcDbLine
 10
213.411234
 20
340.697992
 30
0.0
 11
213.411234
 21
288.697992
 31
0.0
  0
LINE
  5
373
100
AcDbEntity
  8
LC-002-002-----0
370
    50
390
0
 62
     1
100
AcDbLine
 10
215.411234
 20
340.697992
 30
0.0
 11
213.411234
 21
340.697992
 31
0.0
  0
LINE
  5
374
100
AcDbEntity
  8
LC-002-002-----0
370
    50
390
0
 62
     1
100
AcDbLine
 10
215.411234
 20
288.697992
 30
0.0
 11
213.411234
 21
288.697992
 31
0.0
  0
LINE
  5
375
100
AcDbEntity
  8
LC-002-002-----0
370
    50
390
0
 62
     1
100
AcDbLine
 10
215.411234
 20
266.231509
 30
0.0
 11
213.411234
 21
266.231509
 31
0.0
  0
LINE
  5
376
100
AcDbEntity
  8
LC-002-002-----0
370
    50
390
0
 62
     1
100
AcDbLine
 10
215.411234
 20
263.412029
 30
0.0
 11
213.411234
 21
263.412029
 31
0.0
  0
LINE
  5
377
100
AcDbEntity
  8
LC-002-002-----0
370
    50
390
0
 62
     1
100
AcDbLine
 10
215.411234
 20
288.697992
 30
0.0
 11
215.411234
 21
263.412029
 31
0.0
  0
LINE
  5
378
100
AcDbEntity
  8
LC-002-002-----0
370
    50
390
0
 62
     1
100
AcDbLine
 10
213.411234
 20
266.231509
 30
0.0
 11
213.411234
 21
257.197992
 31
0.0
  0
LINE
  5
379
100
AcDbEntity
  8
LC-002-002-----0
370
    50
390
0
 62
     1
100
AcDbLine
 10
213.411234
 20
257.197992
 30
0.0
 11
205.411234
 21
257.197992
 31
0.0
  0
ARC
  5
37A
100
AcDbEntity
  8
LC-001-002-RND-0
370
    50
390
0
 62
     1
100
AcDbCircle
 10
205.411234
 20
371.197992
 30
0.0
 40
1.0
100
AcDbArc
 50
90.0
 51
180.0
  0
LINE
  5
37B
100
AcDbEntity
  8
LC-002-002-----0
370
    50
390
0
 62
     1
100
AcDbLine
 10
213.411234
 20
340.697992
 30
0.0
 11
213.411234
 21
363.102006
 31
0.0
  0
LINE
  5
37C
100
AcDbEntity
  8
LC-002-002-----0
370
    50
390
0
 62
     1
100
AcDbLine
 10
213.411234
 20
272.197992
 30
0.0
 11
213.411234
 21
266.197992
 31
0.0
  0
LINE
  5
37D
100
AcDbEntity
  8
LC-002-002-----0
370
    50
390
0
 62
     1
100
AcDbLine
 10
213.411234
 20
272.197992
 30
0.0
 11
213.411234
 21
288.697992
 31
0.0
  0
ARC
  5
37E
100
AcDbEntity
  8
LC-001-002-RND-0
370
    50
390
0
 62
     1
100
AcDbCircle
 10
205.411234
 20
258.197992
 30
0.0
 40
1.0
100
AcDbArc
 50
180.0
 51
270.0
  0
LINE
  5
37F
100
AcDbEntity
  8
LC-002-002-----0
370
    50
390
0
 62
     1
100
AcDbLine
 10
213.411234
 20
339.697992
 30
0.0
 11
216.411234
 21
339.697992
 31
0.0
  0
LINE
  5
380
100
AcDbEntity
  8
LC-002-002-----0
370
    50
390
0
 62
     1
100
AcDbLine
 10
216.411234
 20
339.697992
 30
0.0
 11
216.411234
 21
289.697992
 31
0.0
  0
LINE
  5
381
100
AcDbEntity
  8
LC-002-002-----0
370
    50
390
0
 62
     1
100
AcDbLine
 10
216.411234
 20
289.697992
 30
0.0
 11
213.411234
 21
289.697992
 31
0.0
  0
LINE
  5
382
100
AcDbEntity
  8
LC-002-002-----0
370
    50
390
0
 62
     1
100
AcDbLine
 10
77.069263
 20
299.700207
 30
0.0
 11
55.569264
 21
299.700221
 31
0.0
  0
LINE
  5
383
100
AcDbEntity
  8
LC-002-002-----0
370
    50
390
0
 62
     1
100
AcDbLine
 10
56.069259
 20
292.700221
 30
0.0
 11
77.069259
 21
292.700207
 31
0.0
  0
LINE
  5
384
100
AcDbEntity
  8
LC-002-002-----0
370
    50
390
0
 62
     1
100
AcDbLine
 10
56.569255
 20
285.70022
 30
0.0
 11
76.929507
 21
285.700207
 31
0.0
  0
LINE
  5
385
100
AcDbEntity
  8
LC-002-002-----0
370
    50
390
0
 62
     1
100
AcDbLine
 10
57.06925
 20
278.70022
 30
0.0
 11
76.198956
 21
278.700207
 31
0.0
  0
LINE
  5
386
100
AcDbEntity
  8
LC-002-002-----0
370
    50
390
0
 62
     1
100
AcDbLine
 10
57.569246
 20
271.70022
 30
0.0
 11
76.165703
 21
271.700207
 31
0.0
  0
LINE
  5
387
100
AcDbEntity
  8
LC-002-002-----0
370
    50
390
0
 62
     1
100
AcDbLine
 10
58.569241
 20
264.700219
 30
0.0
 11
75.569241
 21
264.700208
 31
0.0
  0
LINE
  5
388
100
AcDbEntity
  8
LC-002-002-----0
370
    50
390
0
 62
     1
100
AcDbLine
 10
78.569264
 20
299.700206
 30
0.0
 11
77.069259
 21
292.700207
 31
0.0
  0
LINE
  5
389
100
AcDbEntity
  8
LC-002-002-----0
370
    50
390
0
 62
     1
100
AcDbLine
 10
78.069259
 20
292.700206
 30
0.0
 11
76.929507
 21
285.700207
 31
0.0
  0
LINE
  5
38A
100
AcDbEntity
  8
LC-002-002-----0
370
    50
390
0
 62
     1
100
AcDbLine
 10
77.569255
 20
285.700206
 30
0.0
 11
76.198956
 21
278.700207
 31
0.0
  0
LINE
  5
38B
100
AcDbEntity
  8
LC-002-002-----0
370
    50
390
0
 62
     1
100
AcDbLine
 10
77.06925
 20
278.700207
 30
0.0
 11
76.165703
 21
271.700207
 31
0.0
  0
LINE
  5
38C
100
AcDbEntity
  8
LC-002-002-----0
370
    50
390
0
 62
     1
100
AcDbLine
 10
76.569246
 20
271.700207
 30
0.0
 11
75.569241
 21
264.700208
 31
0.0
  0
LINE
  5
38D
100
AcDbEntity
  8
LC-002-002-----0
370
    50
390
0
 62
     1
100
AcDbLine
 10
55.568994
 20
299.700485
 30
0.0
 11
57.068994
 21
292.700485
 31
0.0
  0
LINE
  5
38E
100
AcDbEntity
  8
LC-002-002-----0
370
    50
390
0
 62
     1
100
AcDbLine
 10
56.068994
 20
292.700485
 30
0.0
 11
57.208741
 21
285.700485
 31
0.0
  0
LINE
  5
38F
100
AcDbEntity
  8
LC-002-002-----0
370
    50
390
0
 62
     1
100
AcDbLine
 10
56.568994
 20
285.700485
 30
0.0
 11
57.939289
 21
278.700485
 31
0.0
  0
LINE
  5
390
100
AcDbEntity
  8
LC-002-002-----0
370
    50
390
0
 62
     1
100
AcDbLine
 10
57.068994
 20
278.700485
 30
0.0
 11
57.972537
 21
271.700485
 31
0.0
  0
LINE
  5
391
100
AcDbEntity
  8
LC-002-002-----0
370
    50
390
0
 62
     1
100
AcDbLine
 10
57.568994
 20
271.700485
 30
0.0
 11
58.568994
 21
264.700485
 31
0.0
  0
LINE
  5
392
100
AcDbEntity
  8
LC-002-002-----0
370
    50
390
0
 62
     1
100
AcDbLine
 10
77.069259
 20
292.700207
 30
0.0
 11
78.069259
 21
292.700206
 31
0.0
  0
LINE
  5
393
100
AcDbEntity
  8
LC-002-002-----0
370
    50
390
0
 62
     1
100
AcDbLine
 10
76.929507
 20
285.700207
 30
0.0
 11
77.569255
 21
285.700206
 31
0.0
  0
LINE
  5
394
100
AcDbEntity
  8
LC-002-002-----0
370
    50
390
0
 62
     1
100
AcDbLine
 10
76.198956
 20
278.700207
 30
0.0
 11
77.06925
 21
278.700207
 31
0.0
  0
LINE
  5
395
100
AcDbEntity
  8
LC-002-002-----0
370
    50
390
0
 62
     1
100
AcDbLine
 10
76.165703
 20
271.700207
 30
0.0
 11
76.569246
 21
271.700207
 31
0.0
  0
LINE
  5
396
100
AcDbEntity
  8
LC-002-002-----0
370
    50
390
0
 62
     1
100
AcDbLine
 10
84.069265
 20
302.700202
 30
0.0
 11
77.069265
 21
302.700207
 31
0.0
  0
LINE
  5
397
102
{ACAD_REACTORS
330
4F4
102
}
100
AcDbEntity
  8
LC-002-002-----0
370
    25
390
0
 62
     2
100
AcDbLine
 10
140.070226
 20
329.697992
 30
0.0
 11
115.071425
 21
329.697992
 31
0.0
  0
LINE
  5
398
102
{ACAD_REACTORS
330
4F4
102
}
100
AcDbEntity
  8
LC-002-002-----0
370
    25
390
0
 62
     2
100
AcDbLine
 10
140.070226
 20
299.697992
 30
0.0
 11
115.071425
 21
299.697992
 31
0.0
  0
LINE
  5
399
102
{ACAD_REACTORS
330
4F4
102
}
100
AcDbEntity
  8
LC-002-002-----0
370
    50
390
0
 62
     1
100
AcDbLine
 10
143.570226
 20
326.197992
 30
0.0
 11
146.570226
 21
326.197992
 31
0.0
  0
LINE
  5
39A
102
{ACAD_REACTORS
330
4F4
102
}
100
AcDbEntity
  8
LC-002-002-----0
370
    50
390
0
 62
     1
100
AcDbLine
 10
138.570226
 20
331.197992
 30
0.0
 11
115.071425
 21
331.197992
 31
0.0
  0
LINE
  5
39B
102
{ACAD_REACTORS
330
4F4
102
}
100
AcDbEntity
  8
LC-002-002-----0
370
    50
390
0
 62
     1
100
AcDbLine
 10
138.570226
 20
298.197992
 30
0.0
 11
115.071425
 21
298.197992
 31
0.0
  0
LINE
  5
39C
102
{ACAD_REACTORS
330
4F4
102
}
100
AcDbEntity
  8
LC-002-002-----0
370
    50
390
0
 62
     1
100
AcDbLine
 10
138.570226
 20
331.197992
 30
0.0
 11
138.570226
 21
328.197992
 31
0.0
  0
LINE
  5
39D
102
{ACAD_REACTORS
330
4F4
102
}
100
AcDbEntity
  8
LC-002-002-----0
370
    50
390
0
 62
     1
100
AcDbLine
 10
141.570226
 20
328.197992
 30
0.0
 11
138.570226
 21
331.197992
 31
0.0
  0
LINE
  5
39E
102
{ACAD_REACTORS
330
4F4
102
}
100
AcDbEntity
  8
LC-002-002-----0
370
    50
390
0
 62
     1
100
AcDbLine
 10
141.570226
 20
301.197992
 30
0.0
 11
138.570226
 21
298.197992
 31
0.0
  0
LINE
  5
39F
102
{ACAD_REACTORS
330
4F4
102
}
100
AcDbEntity
  8
LC-002-002-----0
370
    50
390
0
 62
     1
100
AcDbLine
 10
143.570226
 20
326.197992
 30
0.0
 11
143.570226
 21
303.197992
 31
0.0
  0
LINE
  5
3A0
102
{ACAD_REACTORS
330
4F4
102
}
100
AcDbEntity
  8
LC-002-002-----0
370
    50
390
0
 62
     1
100
AcDbLine
 10
143.661658
 20
303.362757
 30
0.0
 11
146.570226
 21
303.362757
 31
0.0
  0
LINE
  5
3A1
102
{ACAD_REACTORS
330
4F4
102
}
100
AcDbEntity
  8
LC-002-002-----0
370
    50
390
0
 62
     1
100
AcDbLine
 10
164.370226
 20
334.197992
 30
0.0
 11
164.370226
 21
328.197992
 31
0.0
  0
LINE
  5
3A2
102
{ACAD_REACTORS
330
4F4
102
}
100
AcDbEntity
  8
LC-002-002-----0
370
    50
390
0
 62
     1
100
AcDbLine
 10
164.370226
 20
301.197992
 30
0.0
 11
164.370226
 21
295.197992
 31
0.0
  0
LINE
  5
3A3
102
{ACAD_REACTORS
330
4F4
102
}
100
AcDbEntity
  8
LC-002-002-----0
370
    50
390
0
 62
     1
100
AcDbLine
 10
162.870226
 20
334.197992
 30
0.0
 11
162.870226
 21
328.197992
 31
0.0
  0
LINE
  5
3A4
102
{ACAD_REACTORS
330
4F4
102
}
100
AcDbEntity
  8
LC-002-002-----0
370
    50
390
0
 62
     1
100
AcDbLine
 10
162.870226
 20
301.197992
 30
0.0
 11
162.870226
 21
295.197992
 31
0.0
  0
LINE
  5
3A5
102
{ACAD_REACTORS
330
4F4
102
}
100
AcDbEntity
  8
LC-002-002-----0
370
    50
390
0
 62
     1
100
AcDbLine
 10
162.870226
 20
325.62583
 30
0.0
 11
162.870226
 21
303.770154
 31
0.0
  0
LINE
  5
3A6
102
{ACAD_REACTORS
330
4F4
102
}
100
AcDbEntity
  8
LC-002-002-----0
370
    50
390
0
 62
     1
100
AcDbLine
 10
164.370226
 20
324.005513
 30
0.0
 11
164.370226
 21
305.405513
 31
0.0
  0
LINE
  5
3A7
102
{ACAD_REACTORS
330
4F4
102
}
100
AcDbEntity
  8
LC-002-002-----0
370
    50
390
0
 62
     1
100
AcDbLine
 10
146.570226
 20
332.197992
 30
0.0
 11
146.570226
 21
328.197992
 31
0.0
  0
LINE
  5
3A8
102
{ACAD_REACTORS
330
4F4
102
}
100
AcDbEntity
  8
LC-002-002-----0
370
    25
390
0
  6
DASHDOT
 62
     2
100
AcDbLine
 10
67.069273
 20
314.697992
 30
0.0
 11
144.060296
 21
314.697992
 31
0.0
  0
LINE
  5
3A9
102
{ACAD_REACTORS
330
4F4
102
}
100
AcDbEntity
  8
LC-002-002-----0
370
    50
390
0
 62
     1
100
AcDbLine
 10
146.570226
 20
326.197992
 30
0.0
 11
146.570226
 21
303.362757
 31
0.0
  0
LINE
  5
3AA
102
{ACAD_REACTORS
330
4F4
102
}
100
AcDbEntity
  8
LC-002-002-----0
370
    50
390
0
 62
     1
100
AcDbLine
 10
146.570226
 20
301.197992
 30
0.0
 11
146.570226
 21
297.197992
 31
0.0
  0
LINE
  5
3AB
102
{ACAD_REACTORS
330
4F4
102
}
100
AcDbEntity
  8
LC-002-002-----0
370
    50
390
0
 62
     1
100
AcDbLine
 10
138.570226
 20
324.005513
 30
0.0
 11
138.570226
 21
305.405513
 31
0.0
  0
LINE
  5
3AC
102
{ACAD_REACTORS
330
4F4
102
}
100
AcDbEntity
  8
LC-002-002-----0
370
    50
390
0
 62
     1
100
AcDbLine
 10
138.570226
 20
305.731391
 30
0.0
 11
138.570226
 21
298.197992
 31
0.0
  0
LINE
  5
3AD
102
{ACAD_REACTORS
330
4F4
102
}
100
AcDbEntity
  8
LC-002-002-----0
370
    50
390
0
 62
     1
100
AcDbLine
 10
164.370226
 20
298.197992
 30
0.0
 11
164.370226
 21
298.197992
 31
0.0
  0
LINE
  5
3AE
102
{ACAD_REACTORS
330
4F4
102
}
100
AcDbEntity
  8
LC-002-002-----0
370
    50
390
0
 62
     1
100
AcDbLine
 10
147.070226
 20
329.189926
 30
0.0
 11
147.070226
 21
331.625563
 31
0.0
  0
LINE
  5
3AF
102
{ACAD_REACTORS
330
4F4
102
}
100
AcDbEntity
  8
LC-002-002-----0
370
    50
390
0
 62
     1
100
AcDbLine
 10
125.547758
 20
331.197992
 30
0.0
 11
125.547758
 21
331.197992
 31
0.0
  0
LINE
  5
3B0
102
{ACAD_REACTORS
330
4F4
102
}
100
AcDbEntity
  8
LC-002-002-----0
370
    50
390
0
 62
     1
100
AcDbLine
 10
162.870226
 20
307.234256
 30
0.0
 11
147.070226
 21
307.234256
 31
0.0
  0
LINE
  5
3B1
102
{ACAD_REACTORS
330
4F4
102
}
100
AcDbEntity
  8
LC-002-002-----0
370
    50
390
0
 62
     1
100
AcDbLine
 10
147.070226
 20
316.697992
 30
0.0
 11
147.070226
 21
312.697992
 31
0.0
  0
LINE
  5
3B2
102
{ACAD_REACTORS
330
4F4
102
}
100
AcDbEntity
  8
LC-002-002-----0
370
    50
390
0
 62
     1
100
AcDbLine
 10
162.870226
 20
303.770154
 30
0.0
 11
147.070226
 21
303.770154
 31
0.0
  0
LINE
  5
3B3
102
{ACAD_REACTORS
330
4F4
102
}
100
AcDbEntity
  8
LC-002-002-----0
370
    50
390
0
 62
     1
100
AcDbLine
 10
147.070226
 20
307.234256
 30
0.0
 11
147.070226
 21
303.770154
 31
0.0
  0
LINE
  5
3B4
102
{ACAD_REACTORS
330
4F4
102
}
100
AcDbEntity
  8
LC-002-002-----0
370
    50
390
0
 62
     1
100
AcDbLine
 10
162.870226
 20
300.206059
 30
0.0
 11
147.070226
 21
300.206059
 31
0.0
  0
LINE
  5
3B5
102
{ACAD_REACTORS
330
4F4
102
}
100
AcDbEntity
  8
LC-002-002-----0
370
    50
390
0
 62
     1
100
AcDbLine
 10
147.070226
 20
300.206059
 30
0.0
 11
147.070226
 21
297.770422
 31
0.0
  0
LINE
  5
3B6
102
{ACAD_REACTORS
330
4F4
102
}
100
AcDbEntity
  8
LC-002-002-----0
370
    50
390
0
 62
     1
100
AcDbLine
 10
147.070226
 20
322.161728
 30
0.0
 11
147.070226
 21
325.62583
 31
0.0
  0
LINE
  5
3B7
102
{ACAD_REACTORS
330
4F4
102
}
100
AcDbEntity
  8
LC-002-002-----0
370
    50
390
0
 62
     1
100
AcDbLine
 10
162.870226
 20
297.770422
 30
0.0
 11
147.070226
 21
297.770422
 31
0.0
  0
LINE
  5
3B8
102
{ACAD_REACTORS
330
4F4
102
}
100
AcDbEntity
  8
LC-002-002-----0
370
    50
390
0
 62
     1
100
AcDbLine
 10
162.870226
 20
322.161728
 30
0.0
 11
147.070226
 21
322.161728
 31
0.0
  0
LINE
  5
3B9
102
{ACAD_REACTORS
330
4F4
102
}
100
AcDbEntity
  8
LC-002-002-----0
370
    50
390
0
 62
     1
100
AcDbLine
 10
162.870226
 20
325.62583
 30
0.0
 11
147.070226
 21
325.62583
 31
0.0
  0
LINE
  5
3BA
102
{ACAD_REACTORS
330
4F4
102
}
100
AcDbEntity
  8
LC-002-002-----0
370
    50
390
0
 62
     1
100
AcDbLine
 10
162.870226
 20
316.697992
 30
0.0
 11
147.070226
 21
316.697992
 31
0.0
  0
LINE
  5
3BB
102
{ACAD_REACTORS
330
4F4
102
}
100
AcDbEntity
  8
LC-002-002-----0
370
    50
390
0
 62
     1
100
AcDbLine
 10
162.870226
 20
312.697992
 30
0.0
 11
147.070226
 21
312.697992
 31
0.0
  0
LINE
  5
3BC
102
{ACAD_REACTORS
330
4F4
102
}
100
AcDbEntity
  8
LC-002-002-----0
370
    50
390
0
 62
     1
100
AcDbLine
 10
162.870226
 20
329.189926
 30
0.0
 11
147.070226
 21
329.189926
 31
0.0
  0
LINE
  5
3BD
102
{ACAD_REACTORS
330
4F4
102
}
100
AcDbEntity
  8
LC-002-002-----0
370
    50
390
0
 62
     1
100
AcDbLine
 10
162.870226
 20
331.625563
 30
0.0
 11
147.070226
 21
331.625563
 31
0.0
  0
ARC
  5
3BE
102
{ACAD_REACTORS
330
4F4
102
}
100
AcDbEntity
  8
LC-001-002-RND-0
370
    50
390
0
 62
     1
100
AcDbCircle
 10
147.570226
 20
332.197992
 30
0.0
 40
1.0
100
AcDbArc
 50
90.0
 51
180.0
  0
LINE
  5
3BF
102
{ACAD_REACTORS
330
4F4
102
}
100
AcDbEntity
  8
LC-002-002-----0
370
    50
390
0
 62
     1
100
AcDbLine
 10
147.570226
 20
333.197992
 30
0.0
 11
162.870226
 21
333.197992
 31
0.0
  0
LINE
  5
3C0
102
{ACAD_REACTORS
330
4F4
102
}
100
AcDbEntity
  8
LC-002-002-----0
370
    50
390
0
 62
     1
100
AcDbLine
 10
162.870226
 20
334.197992
 30
0.0
 11
164.370226
 21
334.197992
 31
0.0
  0
LINE
  5
3C1
102
{ACAD_REACTORS
330
4F4
102
}
100
AcDbEntity
  8
LC-002-002-----0
370
    50
390
0
 62
     1
100
AcDbLine
 10
162.870226
 20
295.197992
 30
0.0
 11
164.370226
 21
295.197992
 31
0.0
  0
LINE
  5
3C2
102
{ACAD_REACTORS
330
4F4
102
}
100
AcDbEntity
  8
LC-002-002-----0
370
    50
390
0
 62
     1
100
AcDbLine
 10
147.570226
 20
296.197992
 30
0.0
 11
162.870226
 21
296.197992
 31
0.0
  0
ARC
  5
3C3
102
{ACAD_REACTORS
330
4F4
102
}
100
AcDbEntity
  8
LC-001-002-RND-0
370
    50
390
0
 62
     1
100
AcDbCircle
 10
147.570226
 20
297.197992
 30
0.0
 40
1.0
100
AcDbArc
 50
180.0
 51
270.0
  0
LINE
  5
3C4
102
{ACAD_REACTORS
330
4F4
102
}
100
AcDbEntity
  8
LC-002-002-----0
370
    50
390
0
 62
     1
100
AcDbLine
 10
164.370226
 20
305.405513
 30
0.0
 11
164.370226
 21
301.197992
 31
0.0
  0
LINE
  5
3C5
102
{ACAD_REACTORS
330
4F4
102
}
100
AcDbEntity
  8
LC-002-002-----0
370
    50
390
0
 62
     1
100
AcDbLine
 10
162.844481
 20
301.215382
 30
0.0
 11
162.844481
 21
303.770154
 31
0.0
  0
LINE
  5
3C6
102
{ACAD_REACTORS
330
4F4
102
}
100
AcDbEntity
  8
LC-002-002-----0
370
    50
390
0
 62
     1
100
AcDbLine
 10
146.570226
 20
301.197992
 30
0.0
 11
146.570226
 21
303.362757
 31
0.0
  0
LINE
  5
3C7
102
{ACAD_REACTORS
330
4F4
102
}
100
AcDbEntity
  8
LC-002-002-----0
370
    50
390
0
 62
     1
100
AcDbLine
 10
143.570226
 20
303.197992
 30
0.0
 11
141.570226
 21
301.197992
 31
0.0
  0
LINE
  5
3C8
102
{ACAD_REACTORS
330
4F4
102
}
100
AcDbEntity
  8
LC-002-002-----0
370
    50
390
0
 62
     1
100
AcDbLine
 10
164.370226
 20
324.005513
 30
0.0
 11
164.370226
 21
328.197992
 31
0.0
  0
LINE
  5
3C9
102
{ACAD_REACTORS
330
4F4
102
}
100
AcDbEntity
  8
LC-002-002-----0
370
    50
390
0
 62
     1
100
AcDbLine
 10
162.870226
 20
328.197992
 30
0.0
 11
162.870226
 21
325.62583
 31
0.0
  0
LINE
  5
3CA
102
{ACAD_REACTORS
330
4F4
102
}
100
AcDbEntity
  8
LC-002-002-----0
370
    50
390
0
 62
     1
100
AcDbLine
 10
146.570226
 20
326.197992
 30
0.0
 11
146.570226
 21
328.197992
 31
0.0
  0
LINE
  5
3CB
102
{ACAD_REACTORS
330
4F4
102
}
100
AcDbEntity
  8
LC-002-002-----0
370
    50
390
0
 62
     1
100
AcDbLine
 10
143.570226
 20
326.197992
 30
0.0
 11
141.570226
 21
328.197992
 31
0.0
  0
LINE
  5
3CC
102
{ACAD_REACTORS
330
4F4
102
}
100
AcDbEntity
  8
LC-002-002-----0
370
    50
390
0
 62
     1
100
AcDbLine
 10
138.570226
 20
324.005513
 30
0.0
 11
138.570226
 21
328.197992
 31
0.0
  0
LINE
  5
3CD
100
AcDbEntity
  8
LC-002-002-----0
370
    50
390
0
 62
     1
100
AcDbLine
 10
181.911234
 20
319.697992
 30
0.0
 11
181.911234
 21
309.697992
 31
0.0
  0
LINE
  5
3CE
100
AcDbEntity
  8
LC-002-002-----0
370
    50
390
0
 62
     1
100
AcDbLine
 10
182.411234
 20
320.197992
 30
0.0
 11
182.911234
 21
320.197992
 31
0.0
  0
LINE
  5
3CF
100
AcDbEntity
  8
LC-002-002-----0
370
    50
390
0
 62
     1
100
AcDbLine
 10
182.411234
 20
309.197992
 30
0.0
 11
182.911234
 21
309.197992
 31
0.0
  0
ARC
  5
3D0
100
AcDbEntity
  8
LC-001-002-RND-0
370
    50
390
0
 62
     1
100
AcDbCircle
 10
182.411234
 20
309.697992
 30
0.0
 40
0.5
100
AcDbArc
 50
180.0
 51
270.0
  0
LINE
  5
3D1
100
AcDbEntity
  8
LC-002-002-----0
370
    50
390
0
 62
     1
100
AcDbLine
 10
196.411234
 20
316.797992
 30
0.0
 11
204.411234
 21
316.797992
 31
0.0
  0
LINE
  5
3D2
100
AcDbEntity
  8
LC-002-002-----0
370
    50
390
0
 62
     1
100
AcDbLine
 10
196.411234
 20
312.597992
 30
0.0
 11
204.411234
 21
312.597992
 31
0.0
  0
ARC
  5
3D3
100
AcDbEntity
  8
LC-001-002-RND-0
370
    50
390
0
 62
     1
100
AcDbCircle
 10
182.911234
 20
309.697992
 30
0.0
 40
0.5
100
AcDbArc
 50
270.0
 51
0.0
  0
ARC
  5
3D4
100
AcDbEntity
  8
LC-002-002-----0
370
    50
390
0
 62
     1
100
AcDbCircle
 10
191.536234
 20
314.697992
 30
0.0
 40
10.625
100
AcDbArc
 50
154.942385
 51
205.057615
  0
ARC
  5
3D5
100
AcDbEntity
  8
LC-001-002-RND-0
370
    50
390
0
 62
     1
100
AcDbCircle
 10
182.911234
 20
319.697992
 30
0.0
 40
0.5
100
AcDbArc
 50
0.0
 51
90.0
  0
ARC
  5
3D6
100
AcDbEntity
  8
LC-001-002-RND-0
370
    50
390
0
 62
     1
100
AcDbCircle
 10
182.411234
 20
319.697992
 30
0.0
 40
0.5
100
AcDbArc
 50
90.0
 51
180.0
  0
LINE
  5
3D7
100
AcDbEntity
  8
LC-002-002-----0
370
    25
390
0
 62
     2
100
AcDbLine
 10
87.070226
 20
317.698289
 30
0.0
 11
87.070226
 21
311.698289
 31
0.0
  0
LINE
  5
3D8
100
AcDbEntity
  8
LC-002-002-----0
370
    50
390
0
 62
     1
100
AcDbLine
 10
102.071627
 20
294.697993
 30
0.0
 11
102.071451
 21
334.697342
 31
0.0
  0
LINE
  5
3D9
100
AcDbEntity
  8
LC-002-002-----0
370
    25
390
0
 62
     2
100
AcDbLine
 10
87.070226
 20
306.821913
 30
0.0
 11
87.070226
 21
300.821914
 31
0.0
  0
LINE
  5
3DA
100
AcDbEntity
  8
LC-002-002-----0
370
    50
390
0
 62
     1
100
AcDbLine
 10
217.911234
 20
332.197992
 30
0.0
 11
217.911234
 21
322.197992
 31
0.0
  0
LINE
  5
3DB
100
AcDbEntity
  8
LC-002-002-----0
370
    50
390
0
 62
     1
100
AcDbLine
 10
217.411234
 20
332.697992
 30
0.0
 11
216.911234
 21
332.697992
 31
0.0
  0
LINE
  5
3DC
100
AcDbEntity
  8
LC-002-002-----0
370
    50
390
0
 62
     1
100
AcDbLine
 10
217.411234
 20
321.697992
 30
0.0
 11
216.911234
 21
321.697992
 31
0.0
  0
ARC
  5
3DD
100
AcDbEntity
  8
LC-001-002-RND-0
370
    50
390
0
 62
     1
100
AcDbCircle
 10
217.411234
 20
322.197992
 30
0.0
 40
0.5
100
AcDbArc
 50
270.0
 51
0.0
  0
ARC
  5
3DE
100
AcDbEntity
  8
LC-001-002-RND-0
370
    50
390
0
 62
     1
100
AcDbCircle
 10
216.911234
 20
322.197992
 30
0.0
 40
0.5
100
AcDbArc
 50
180.0
 51
270.0
  0
ARC
  5
3DF
100
AcDbEntity
  8
LC-002-002-----0
370
    50
390
0
 62
     1
100
AcDbCircle
 10
208.286234
 20
327.197992
 30
0.0
 40
10.625
100
AcDbArc
 50
334.942385
 51
25.057615
  0
ARC
  5
3E0
100
AcDbEntity
  8
LC-002-002-----0
370
    50
390
0
 62
     1
100
AcDbCircle
 10
310.50376
 20
327.197992
 30
0.0
 40
4.25
100
AcDbArc
 50
101.674586
 51
258.325414
  0
CIRCLE
  5
3E1
100
AcDbEntity
  8
LC-002-002-----0
370
    50
390
0
 62
     1
100
AcDbCircle
 10
300.50376
 20
314.697992
 30
0.0
 40
4.25
  0
CIRCLE
  5
3E2
100
AcDbEntity
  8
LC-002-002-----0
370
    50
390
0
 62
     1
100
AcDbCircle
 10
510.50376
 20
327.197992
 30
0.0
 40
4.25
  0
ARC
  5
3E3
100
AcDbEntity
  8
LC-002-002-----0
370
    50
390
0
 62
     1
100
AcDbCircle
 10
310.50376
 20
302.197992
 30
0.0
 40
4.25
100
AcDbArc
 50
101.674586
 51
258.325414
  0
CIRCLE
  5
3E4
100
AcDbEntity
  8
LC-002-002-----0
370
    50
390
0
 62
     1
100
AcDbCircle
 10
540.50376
 20
314.697992
 30
0.0
 40
4.25
  0
CIRCLE
  5
3E5
100
AcDbEntity
  8
LC-002-002-----0
370
    50
390
0
 62
     1
100
AcDbCircle
 10
270.50376
 20
327.197992
 30
0.0
 40
4.25
  0
ARC
  5
3E6
100
AcDbEntity
  8
LC-002-002-----0
370
    50
390
0
 62
     1
100
AcDbCircle
 10
534.732696
 20
324.237992
 30
0.0
 40
1.5
100
AcDbArc
 50
90.0
 51
156.828899
  0
CIRCLE
  5
3E7
100
AcDbEntity
  8
LC-002-002-----0
370
    50
390
0
 62
     1
100
AcDbCircle
 10
510.50376
 20
302.197992
 30
0.0
 40
4.25
  0
ARC
  5
3E8
100
AcDbEntity
  8
LC-001-002-RND-0
370
    50
390
0
 62
     1
100
AcDbCircle
 10
216.911234
 20
332.197992
 30
0.0
 40
0.5
100
AcDbArc
 50
90.0
 51
180.0
  0
ARC
  5
3E9
100
AcDbEntity
  8
LC-001-002-RND-0
370
    50
390
0
 62
     1
100
AcDbCircle
 10
217.411234
 20
332.197992
 30
0.0
 40
0.5
100
AcDbArc
 50
0.0
 51
90.0
  0
LINE
  5
3EA
100
AcDbEntity
  8
LC-002-002-----0
370
    50
390
0
 62
     1
100
AcDbLine
 10
516.25376
 20
318.947992
 30
0.0
 11
524.75376
 21
318.947992
 31
0.0
  0
CIRCLE
  5
3EB
100
AcDbEntity
  8
LC-002-002-----0
370
    50
390
0
 62
     1
100
AcDbCircle
 10
270.50376
 20
302.197992
 30
0.0
 40
4.25
  0
ARC
  5
3EC
100
AcDbEntity
  8
LC-002-002-----0
370
    50
390
0
 62
     1
100
AcDbCircle
 10
534.732696
 20
305.157992
 30
0.0
 40
1.5
100
AcDbArc
 50
203.171101
 51
270.0
  0
LINE
  5
3ED
100
AcDbEntity
  8
LC-002-002-----0
370
    25
390
0
  6
DASHDOT
 62
     2
100
AcDbLine
 10
261.945906
 20
314.697992
 30
0.0
 11
585.50376
 21
314.697992
 31
0.0
  0
ARC
  5
3EE
100
AcDbEntity
  8
LC-002-002-----0
370
    50
390
0
 62
     1
100
AcDbCircle
 10
536.36376
 20
328.837992
 30
0.0
 40
3.1
100
AcDbArc
 50
270.0
 51
90.0
  0
ARC
  5
3EF
100
AcDbEntity
  8
LC-002-002-----0
370
    50
390
0
 62
     1
100
AcDbCircle
 10
524.64376
 20
328.837992
 30
0.0
 40
3.1
100
AcDbArc
 50
90.0
 51
270.0
  0
LINE
  5
3F0
100
AcDbEntity
  8
LC-002-002-----0
370
    50
390
0
 62
     1
100
AcDbLine
 10
536.36376
 20
331.937992
 30
0.0
 11
524.64376
 21
331.937992
 31
0.0
  0
LINE
  5
3F1
100
AcDbEntity
  8
LC-002-002-----0
370
    50
390
0
 62
     1
100
AcDbLine
 10
536.36376
 20
325.737992
 30
0.0
 11
534.732696
 21
325.737992
 31
0.0
  0
LINE
  5
3F2
100
AcDbEntity
  8
LC-002-002-----0
370
    50
390
0
 62
     1
100
AcDbLine
 10
524.64376
 20
325.737992
 30
0.0
 11
526.274824
 21
325.737992
 31
0.0
  0
ARC
  5
3F3
100
AcDbEntity
  8
LC-002-002-----0
370
    50
390
0
 62
     1
100
AcDbCircle
 10
530.50376
 20
326.047992
 30
0.0
 40
3.1
100
AcDbArc
 50
203.171101
 51
336.828899
  0
ARC
  5
3F4
100
AcDbEntity
  8
LC-002-002-----0
370
    50
390
0
 62
     1
100
AcDbCircle
 10
526.274824
 20
324.237992
 30
0.0
 40
1.5
100
AcDbArc
 50
23.171101
 51
90.0
  0
ARC
  5
3F5
100
AcDbEntity
  8
LC-002-002-----0
370
    50
390
0
 62
     1
100
AcDbCircle
 10
524.75376
 20
314.697992
 30
0.0
 40
4.25
100
AcDbArc
 50
270.0
 51
90.0
  0
LINE
  5
3F6
100
AcDbEntity
  8
LC-002-002-----0
370
    50
390
0
 62
     1
100
AcDbLine
 10
516.25376
 20
310.447992
 30
0.0
 11
524.75376
 21
310.447992
 31
0.0
  0
ARC
  5
3F7
100
AcDbEntity
  8
LC-002-002-----0
370
    50
390
0
 62
     1
100
AcDbCircle
 10
516.25376
 20
314.697992
 30
0.0
 40
4.25
100
AcDbArc
 50
90.0
 51
270.0
  0
ARC
  5
3F8
100
AcDbEntity
  8
LC-002-002-----0
370
    50
390
0
 62
     1
100
AcDbCircle
 10
536.36376
 20
300.557992
 30
0.0
 40
3.1
100
AcDbArc
 50
270.0
 51
90.0
  0
ARC
  5
3F9
100
AcDbEntity
  8
LC-002-002-----0
370
    50
390
0
 62
     1
100
AcDbCircle
 10
524.64376
 20
300.557992
 30
0.0
 40
3.1
100
AcDbArc
 50
90.0
 51
270.0
  0
LINE
  5
3FA
100
AcDbEntity
  8
LC-002-002-----0
370
    50
390
0
 62
     1
100
AcDbLine
 10
536.36376
 20
297.457992
 30
0.0
 11
524.64376
 21
297.457992
 31
0.0
  0
LINE
  5
3FB
100
AcDbEntity
  8
LC-002-002-----0
370
    50
390
0
 62
     1
100
AcDbLine
 10
536.36376
 20
303.657992
 30
0.0
 11
534.732696
 21
303.657992
 31
0.0
  0
LINE
  5
3FC
100
AcDbEntity
  8
LC-002-002-----0
370
    50
390
0
 62
     1
100
AcDbLine
 10
524.64376
 20
303.657992
 30
0.0
 11
526.274824
 21
303.657992
 31
0.0
  0
ARC
  5
3FD
100
AcDbEntity
  8
LC-002-002-----0
370
    50
390
0
 62
     1
100
AcDbCircle
 10
530.50376
 20
303.347992
 30
0.0
 40
3.1
100
AcDbArc
 50
23.171101
 51
156.828899
  0
ARC
  5
3FE
100
AcDbEntity
  8
LC-002-002-----0
370
    50
390
0
 62
     1
100
AcDbCircle
 10
526.274824
 20
305.157992
 30
0.0
 40
1.5
100
AcDbArc
 50
270.0
 51
336.828899
  0
CIRCLE
  5
3FF
100
AcDbEntity
  8
LC-002-002-----0
370
    50
390
0
 62
     1
100
AcDbCircle
 10
550.50376
 20
327.197992
 30
0.0
 40
4.25
  0
LINE
  5
400
100
AcDbEntity
  8
LC-002-002-----0
370
    50
390
0
 62
     1
100
AcDbLine
 10
276.25376
 20
310.447992
 30
0.0
 11
284.75376
 21
310.447992
 31
0.0
  0
LINE
  5
401
100
AcDbEntity
  8
LC-002-002-----0
370
    50
390
0
 62
     1
100
AcDbLine
 10
276.25376
 20
318.947992
 30
0.0
 11
284.75376
 21
318.947992
 31
0.0
  0
ARC
  5
402
100
AcDbEntity
  8
LC-002-002-----0
370
    50
390
0
 62
     1
100
AcDbCircle
 10
276.25376
 20
314.697992
 30
0.0
 40
4.25
100
AcDbArc
 50
90.0
 51
270.0
  0
ARC
  5
403
100
AcDbEntity
  8
LC-002-002-----0
370
    50
390
0
 62
     1
100
AcDbCircle
 10
284.75376
 20
314.697992
 30
0.0
 40
4.25
100
AcDbArc
 50
270.0
 51
90.0
  0
CIRCLE
  5
404
100
AcDbEntity
  8
LC-002-002-----0
370
    50
390
0
 62
     1
100
AcDbCircle
 10
550.50376
 20
302.197992
 30
0.0
 40
4.25
  0
ARC
  5
405
100
AcDbEntity
  8
LC-002-002-----0
370
    50
390
0
 62
     1
100
AcDbCircle
 10
296.36376
 20
300.557992
 30
0.0
 40
3.1
100
AcDbArc
 50
270.0
 51
90.0
  0
ARC
  5
406
100
AcDbEntity
  8
LC-002-002-----0
370
    50
390
0
 62
     1
100
AcDbCircle
 10
284.64376
 20
300.557992
 30
0.0
 40
3.1
100
AcDbArc
 50
90.0
 51
270.0
  0
LINE
  5
407
100
AcDbEntity
  8
LC-002-002-----0
370
    50
390
0
 62
     1
100
AcDbLine
 10
296.36376
 20
297.457992
 30
0.0
 11
284.64376
 21
297.457992
 31
0.0
  0
LINE
  5
408
100
AcDbEntity
  8
LC-002-002-----0
370
    50
390
0
 62
     1
100
AcDbLine
 10
296.36376
 20
303.657992
 30
0.0
 11
294.732696
 21
303.657992
 31
0.0
  0
LINE
  5
409
100
AcDbEntity
  8
LC-002-002-----0
370
    50
390
0
 62
     1
100
AcDbLine
 10
284.64376
 20
303.657992
 30
0.0
 11
286.274824
 21
303.657992
 31
0.0
  0
ARC
  5
40A
100
AcDbEntity
  8
LC-002-002-----0
370
    50
390
0
 62
     1
100
AcDbCircle
 10
290.50376
 20
303.347992
 30
0.0
 40
3.1
100
AcDbArc
 50
23.171101
 51
156.828899
  0
ARC
  5
40B
100
AcDbEntity
  8
LC-002-002-----0
370
    50
390
0
 62
     1
100
AcDbCircle
 10
286.274824
 20
305.157992
 30
0.0
 40
1.5
100
AcDbArc
 50
270.0
 51
336.828899
  0
ARC
  5
40C
100
AcDbEntity
  8
LC-002-002-----0
370
    50
390
0
 62
     1
100
AcDbCircle
 10
294.732696
 20
305.157992
 30
0.0
 40
1.5
100
AcDbArc
 50
203.171101
 51
270.0
  0
ARC
  5
40D
100
AcDbEntity
  8
LC-002-002-----0
370
    50
390
0
 62
     1
100
AcDbCircle
 10
296.36376
 20
328.837992
 30
0.0
 40
3.1
100
AcDbArc
 50
270.0
 51
90.0
  0
ARC
  5
40E
100
AcDbEntity
  8
LC-002-002-----0
370
    50
390
0
 62
     1
100
AcDbCircle
 10
284.64376
 20
328.837992
 30
0.0
 40
3.1
100
AcDbArc
 50
90.0
 51
270.0
  0
LINE
  5
40F
100
AcDbEntity
  8
LC-002-002-----0
370
    50
390
0
 62
     1
100
AcDbLine
 10
296.36376
 20
331.937992
 30
0.0
 11
284.64376
 21
331.937992
 31
0.0
  0
LINE
  5
410
100
AcDbEntity
  8
LC-002-002-----0
370
    50
390
0
 62
     1
100
AcDbLine
 10
296.36376
 20
325.737992
 30
0.0
 11
294.732696
 21
325.737992
 31
0.0
  0
LINE
  5
411
100
AcDbEntity
  8
LC-002-002-----0
370
    50
390
0
 62
     1
100
AcDbLine
 10
284.64376
 20
325.737992
 30
0.0
 11
286.274824
 21
325.737992
 31
0.0
  0
ARC
  5
412
100
AcDbEntity
  8
LC-002-002-----0
370
    50
390
0
 62
     1
100
AcDbCircle
 10
290.50376
 20
326.047992
 30
0.0
 40
3.1
100
AcDbArc
 50
203.171101
 51
336.828899
  0
ARC
  5
413
100
AcDbEntity
  8
LC-002-002-----0
370
    50
390
0
 62
     1
100
AcDbCircle
 10
286.274824
 20
324.237992
 30
0.0
 40
1.5
100
AcDbArc
 50
23.171101
 51
90.0
  0
ARC
  5
414
100
AcDbEntity
  8
LC-002-002-----0
370
    50
390
0
 62
     1
100
AcDbCircle
 10
294.732696
 20
324.237992
 30
0.0
 40
1.5
100
AcDbArc
 50
90.0
 51
156.828899
  0
ARC
  5
415
100
AcDbEntity
  8
LC-002-002-----0
370
    50
390
0
 62
     1
100
AcDbCircle
 10
556.25376
 20
314.697992
 30
0.0
 40
4.25
100
AcDbArc
 50
90.0
 51
270.0
  0
LINE
  5
416
100
AcDbEntity
  8
LC-002-002-----0
370
    50
390
0
 62
     1
100
AcDbLine
 10
556.25376
 20
318.947992
 30
0.0
 11
557.50376
 21
318.947992
 31
0.0
  0
LINE
  5
417
100
AcDbEntity
  8
LC-002-002-----0
370
    50
390
0
 62
     1
100
AcDbLine
 10
556.25376
 20
310.447992
 30
0.0
 11
557.50376
 21
310.447992
 31
0.0
  0
CIRCLE
  5
418
100
AcDbEntity
  8
LC-002-002-----0
370
    50
390
0
 62
     1
100
AcDbCircle
 10
580.50376
 20
314.697992
 30
0.0
 40
4.25
  0
ARC
  5
419
100
AcDbEntity
  8
LC-002-002-----0
370
    50
390
0
 62
     1
100
AcDbCircle
 10
576.36376
 20
328.837992
 30
0.0
 40
3.1
100
AcDbArc
 50
270.0
 51
90.0
  0
ARC
  5
41A
100
AcDbEntity
  8
LC-002-002-----0
370
    50
390
0
 62
     1
100
AcDbCircle
 10
564.64376
 20
328.837992
 30
0.0
 40
3.1
100
AcDbArc
 50
90.0
 51
270.0
  0
LINE
  5
41B
100
AcDbEntity
  8
LC-002-002-----0
370
    50
390
0
 62
     1
100
AcDbLine
 10
576.36376
 20
331.937992
 30
0.0
 11
564.64376
 21
331.937992
 31
0.0
  0
LINE
  5
41C
100
AcDbEntity
  8
LC-002-002-----0
370
    50
390
0
 62
     1
100
AcDbLine
 10
576.36376
 20
325.737992
 30
0.0
 11
574.732696
 21
325.737992
 31
0.0
  0
LINE
  5
41D
100
AcDbEntity
  8
LC-002-002-----0
370
    50
390
0
 62
     1
100
AcDbLine
 10
564.64376
 20
325.737992
 30
0.0
 11
566.274824
 21
325.737992
 31
0.0
  0
ARC
  5
41E
100
AcDbEntity
  8
LC-002-002-----0
370
    50
390
0
 62
     1
100
AcDbCircle
 10
570.50376
 20
326.047992
 30
0.0
 40
3.1
100
AcDbArc
 50
203.171101
 51
336.828899
  0
ARC
  5
41F
100
AcDbEntity
  8
LC-002-002-----0
370
    50
390
0
 62
     1
100
AcDbCircle
 10
566.274824
 20
324.237992
 30
0.0
 40
1.5
100
AcDbArc
 50
23.171101
 51
90.0
  0
ARC
  5
420
100
AcDbEntity
  8
LC-002-002-----0
370
    50
390
0
 62
     1
100
AcDbCircle
 10
574.732696
 20
324.237992
 30
0.0
 40
1.5
100
AcDbArc
 50
90.0
 51
156.828899
  0
ARC
  5
421
100
AcDbEntity
  8
LC-002-002-----0
370
    50
390
0
 62
     1
100
AcDbCircle
 10
576.36376
 20
300.557992
 30
0.0
 40
3.1
100
AcDbArc
 50
270.0
 51
90.0
  0
ARC
  5
422
100
AcDbEntity
  8
LC-002-002-----0
370
    50
390
0
 62
     1
100
AcDbCircle
 10
564.64376
 20
300.557992
 30
0.0
 40
3.1
100
AcDbArc
 50
90.0
 51
270.0
  0
LINE
  5
423
100
AcDbEntity
  8
LC-002-002-----0
370
    50
390
0
 62
     1
100
AcDbLine
 10
576.36376
 20
297.457992
 30
0.0
 11
564.64376
 21
297.457992
 31
0.0
  0
LINE
  5
424
100
AcDbEntity
  8
LC-002-002-----0
370
    50
390
0
 62
     1
100
AcDbLine
 10
576.36376
 20
303.657992
 30
0.0
 11
574.732696
 21
303.657992
 31
0.0
  0
LINE
  5
425
100
AcDbEntity
  8
LC-002-002-----0
370
    50
390
0
 62
     1
100
AcDbLine
 10
564.64376
 20
303.657992
 30
0.0
 11
566.274824
 21
303.657992
 31
0.0
  0
ARC
  5
426
100
AcDbEntity
  8
LC-002-002-----0
370
    50
390
0
 62
     1
100
AcDbCircle
 10
570.50376
 20
303.347992
 30
0.0
 40
3.1
100
AcDbArc
 50
23.171101
 51
156.828899
  0
ARC
  5
427
100
AcDbEntity
  8
LC-002-002-----0
370
    50
390
0
 62
     1
100
AcDbCircle
 10
566.274824
 20
305.157992
 30
0.0
 40
1.5
100
AcDbArc
 50
270.0
 51
336.828899
  0
ARC
  5
428
100
AcDbEntity
  8
LC-002-002-----0
370
    50
390
0
 62
     1
100
AcDbCircle
 10
574.732696
 20
305.157992
 30
0.0
 40
1.5
100
AcDbArc
 50
203.171101
 51
270.0
  0
ARC
  5
429
100
AcDbEntity
  8
LC-002-002-----0
370
    50
390
0
 62
     1
100
AcDbCircle
 10
564.75376
 20
314.697992
 30
0.0
 40
4.25
100
AcDbArc
 50
270.0
 51
90.0
  0
LINE
  5
42A
100
AcDbEntity
  8
LC-002-002-----0
370
    50
390
0
 62
     1
100
AcDbLine
 10
556.25376
 20
310.447992
 30
0.0
 11
564.75376
 21
310.447992
 31
0.0
  0
LINE
  5
42B
100
AcDbEntity
  8
LC-002-002-----0
370
    50
390
0
 62
     1
100
AcDbLine
 10
556.25376
 20
318.947992
 30
0.0
 11
564.75376
 21
318.947992
 31
0.0
  0
LINE
  5
42C
100
AcDbEntity
  8
LC-002-002-----0
370
    50
390
0
 62
     1
100
AcDbLine
 10
265.50376
 20
339.697992
 30
0.0
 11
265.50376
 21
289.697992
 31
0.0
  0
LINE
  5
42D
100
AcDbEntity
  8
LC-002-002-----0
370
    50
390
0
 62
     1
100
AcDbLine
 10
585.50376
 20
339.697992
 30
0.0
 11
585.50376
 21
289.697992
 31
0.0
  0
LINE
  5
42E
102
{ACAD_REACTORS
330
50C
102
}
100
AcDbEntity
  8
LC-002-002-----0
370
    25
390
0
  6
DASHDOT
 62
     2
100
AcDbLine
 10
444.64376
 20
353.175895
 30
0.0
 11
444.64376
 21
335.803349
 31
0.0
  0
ARC
  5
42F
100
AcDbEntity
  8
LC-001-002-RND-0
370
    50
390
0
 62
     1
100
AcDbCircle
 10
205.411234
 20
371.197992
 30
0.0
 40
1.0
100
AcDbArc
 50
90.0
 51
180.0
  0
ARC
  5
430
100
AcDbEntity
  8
LC-001-002-RND-0
370
    50
390
0
 62
     1
100
AcDbCircle
 10
76.876637
 20
410.907883
 30
0.0
 40
2.5
100
AcDbArc
 50
180.0
 51
270.0
  0
LINE
  5
431
100
AcDbEntity
  8
LC-002-002-----0
370
    50
390
0
 62
     1
100
AcDbLine
 10
150.153107
 20
458.407883
 30
0.0
 11
150.153107
 21
388.407883
 31
0.0
  0
ARC
  5
432
100
AcDbEntity
  8
LC-001-002-RND-0
370
    50
390
0
 62
     1
100
AcDbCircle
 10
142.749564
 20
456.407883
 30
0.0
 40
2.0
100
AcDbArc
 50
90.0
 51
167.195734
  0
LINE
  5
433
100
AcDbEntity
  8
LC-002-002-----0
370
    50
390
0
 62
     1
100
AcDbLine
 10
136.153107
 20
436.407883
 30
0.0
 11
136.153107
 21
410.407883
 31
0.0
  0
LINE
  5
434
100
AcDbEntity
  8
LC-002-002-----0
370
    50
390
0
 62
     1
100
AcDbLine
 10
142.749564
 20
458.407883
 30
0.0
 11
150.153107
 21
458.407883
 31
0.0
  0
LINE
  5
435
100
AcDbEntity
  8
LC-002-002-----0
370
    50
390
0
 62
     1
100
AcDbLine
 10
142.749564
 20
388.407883
 30
0.0
 11
150.153107
 21
388.407883
 31
0.0
  0
LINE
  5
436
100
AcDbEntity
  8
LC-002-002-----0
370
    50
390
0
 62
     1
100
AcDbLine
 10
140.799298
 20
456.851125
 30
0.0
 11
136.153107
 21
436.407883
 31
0.0
  0
LINE
  5
437
100
AcDbEntity
  8
LC-002-002-----0
370
    50
390
0
 62
     1
100
AcDbLine
 10
136.153107
 20
410.407883
 30
0.0
 11
140.799298
 21
389.964641
 31
0.0
  0
ARC
  5
438
100
AcDbEntity
  8
LC-001-002-RND-0
370
    50
390
0
 62
     1
100
AcDbCircle
 10
142.749564
 20
390.407883
 30
0.0
 40
2.0
100
AcDbArc
 50
192.804266
 51
270.0
  0
LINE
  5
439
100
AcDbEntity
  8
LC-002-002-----0
370
    50
390
0
 62
     1
100
AcDbLine
 10
142.749564
 20
458.407883
 30
0.0
 11
142.749564
 21
388.407883
 31
0.0
  0
LINE
  5
43A
100
AcDbEntity
  8
LC-002-002-----0
370
    50
390
0
 62
     1
100
AcDbLine
 10
136.153107
 20
436.407883
 30
0.0
 11
113.376637
 21
436.407883
 31
0.0
  0
LINE
  5
43B
100
AcDbEntity
  8
LC-002-002-----0
370
    50
390
0
 62
     1
100
AcDbLine
 10
150.153107
 20
410.407883
 30
0.0
 11
164.376637
 21
410.407883
 31
0.0
  0
LINE
  5
43C
100
AcDbEntity
  8
LC-002-002-----0
370
    25
390
0
  6
DASHED
 62
     2
100
AcDbLine
 10
150.153107
 20
436.407883
 30
0.0
 11
136.153107
 21
436.407883
 31
0.0
  0
LINE
  5
43D
100
AcDbEntity
  8
LC-002-002-----0
370
    25
390
0
  6
DASHED
 62
     2
100
AcDbLine
 10
150.153107
 20
410.407883
 30
0.0
 11
136.153107
 21
410.407883
 31
0.0
  0
LINE
  5
43E
100
AcDbEntity
  8
LC-002-002-----0
370
    25
390
0
  6
DASHDOT
 62
     2
100
AcDbLine
 10
74.376637
 20
423.407883
 30
0.0
 11
190.411234
 21
423.407883
 31
0.0
  0
LINE
  5
43F
100
AcDbEntity
  8
LC-002-002-----0
370
    50
390
0
 62
     1
100
AcDbLine
 10
93.376637
 20
438.407883
 30
0.0
 11
93.376637
 21
408.407883
 31
0.0
  0
LINE
  5
440
100
AcDbEntity
  8
LC-002-002-----0
370
    50
390
0
 62
     1
100
AcDbLine
 10
93.376637
 20
408.407883
 30
0.0
 11
113.376637
 21
408.407883
 31
0.0
  0
LINE
  5
441
100
AcDbEntity
  8
LC-002-002-----0
370
    50
390
0
 62
     1
100
AcDbLine
 10
93.376637
 20
438.407883
 30
0.0
 11
113.376637
 21
438.407883
 31
0.0
  0
LINE
  5
442
100
AcDbEntity
  8
LC-002-002-----0
370
    50
390
0
 62
     1
100
AcDbLine
 10
80.376637
 20
438.407883
 30
0.0
 11
80.376637
 21
408.407883
 31
0.0
  0
LINE
  5
443
100
AcDbEntity
  8
LC-002-002-----0
370
    50
390
0
 62
     1
100
AcDbLine
 10
83.376637
 20
405.407883
 30
0.0
 11
90.376637
 21
405.407883
 31
0.0
  0
LINE
  5
444
100
AcDbEntity
  8
LC-002-002-----0
370
    50
390
0
 62
     1
100
AcDbLine
 10
83.376637
 20
441.407883
 30
0.0
 11
90.376637
 21
441.407883
 31
0.0
  0
ARC
  5
445
100
AcDbEntity
  8
LC-001-002-RND-0
370
    50
390
0
 62
     1
100
AcDbCircle
 10
83.376637
 20
438.407883
 30
0.0
 40
3.0
100
AcDbArc
 50
90.0
 51
180.0
  0
ARC
  5
446
100
AcDbEntity
  8
LC-001-002-RND-0
370
    50
390
0
 62
     1
100
AcDbCircle
 10
90.376637
 20
438.407883
 30
0.0
 40
3.0
100
AcDbArc
 50
360.0
 51
90.0
  0
ARC
  5
447
100
AcDbEntity
  8
LC-001-002-RND-0
370
    50
390
0
 62
     1
100
AcDbCircle
 10
90.376637
 20
408.407883
 30
0.0
 40
3.0
100
AcDbArc
 50
270.0
 51
360.0
  0
ARC
  5
448
100
AcDbEntity
  8
LC-001-002-RND-0
370
    50
390
0
 62
     1
100
AcDbCircle
 10
83.376637
 20
408.407883
 30
0.0
 40
3.0
100
AcDbArc
 50
180.0
 51
270.0
  0
LINE
  5
449
100
AcDbEntity
  8
LC-002-002-----0
370
    50
390
0
 62
     1
100
AcDbLine
 10
83.376637
 20
416.907883
 30
0.0
 11
90.376637
 21
416.907883
 31
0.0
  0
LINE
  5
44A
100
AcDbEntity
  8
LC-002-002-----0
370
    50
390
0
 62
     1
100
AcDbLine
 10
83.376637
 20
429.907883
 30
0.0
 11
90.376637
 21
429.907883
 31
0.0
  0
LINE
  5
44B
100
AcDbEntity
  8
LC-002-002-----0
370
    50
390
0
 62
     1
100
AcDbLine
 10
90.376637
 20
441.407883
 30
0.0
 11
90.376637
 21
429.907883
 31
0.0
  0
ARC
  5
44C
100
AcDbEntity
  8
LC-002-002-----0
370
    50
390
0
 62
     1
100
AcDbCircle
 10
84.83497
 20
423.407883
 30
0.0
 40
8.541667
100
AcDbArc
 50
310.449719
 51
49.550281
  0
LINE
  5
44D
100
AcDbEntity
  8
LC-002-002-----0
370
    50
390
0
 62
     1
100
AcDbLine
 10
90.376637
 20
416.907883
 30
0.0
 11
90.376637
 21
405.407883
 31
0.0
  0
ARC
  5
44E
100
AcDbEntity
  8
LC-002-002-----0
370
    50
390
0
 62
     1
100
AcDbCircle
 10
88.918303
 20
423.407883
 30
0.0
 40
8.541667
100
AcDbArc
 50
130.449719
 51
229.550281
  0
LINE
  5
44F
100
AcDbEntity
  8
LC-002-002-----0
370
    50
390
0
 62
     1
100
AcDbLine
 10
83.376637
 20
441.407883
 30
0.0
 11
83.376637
 21
429.907883
 31
0.0
  0
LINE
  5
450
100
AcDbEntity
  8
LC-002-002-----0
370
    50
390
0
 62
     1
100
AcDbLine
 10
83.376637
 20
416.907883
 30
0.0
 11
83.376637
 21
405.407883
 31
0.0
  0
LINE
  5
451
100
AcDbEntity
  8
LC-002-002-----0
370
    50
390
0
 62
     1
100
AcDbLine
 10
74.376637
 20
435.907883
 30
0.0
 11
74.376637
 21
410.907883
 31
0.0
  0
LINE
  5
452
100
AcDbEntity
  8
LC-002-002-----0
370
    50
390
0
 62
     1
100
AcDbLine
 10
76.876637
 20
408.407883
 30
0.0
 11
80.376637
 21
408.407883
 31
0.0
  0
LINE
  5
453
100
AcDbEntity
  8
LC-002-002-----0
370
    50
390
0
 62
     1
100
AcDbLine
 10
76.876637
 20
438.407883
 30
0.0
 11
80.376637
 21
438.407883
 31
0.0
  0
ARC
  5
454
100
AcDbEntity
  8
LC-001-002-RND-0
370
    50
390
0
 62
     1
100
AcDbCircle
 10
76.876637
 20
435.907883
 30
0.0
 40
2.5
100
AcDbArc
 50
90.0
 51
180.0
  0
LINE
  5
455
100
AcDbEntity
  8
LC-002-002-----0
370
    25
390
0
  6
DASHDOT
 62
     2
100
AcDbLine
 10
190.411234
 20
475.907574
 30
0.0
 11
190.411234
 21
354.697992
 31
0.0
  0
LINE
  5
456
100
AcDbEntity
  8
LC-002-002-----0
370
    50
390
0
 62
     1
100
AcDbLine
 10
178.911234
 20
390.907883
 30
0.0
 11
201.911234
 21
390.907883
 31
0.0
  0
LINE
  5
457
100
AcDbEntity
  8
LC-002-002-----0
370
    50
390
0
 62
     1
100
AcDbLine
 10
205.911234
 20
392.907883
 30
0.0
 11
205.911234
 21
403.907883
 31
0.0
  0
LINE
  5
458
100
AcDbEntity
  8
LC-002-002-----0
370
    50
390
0
 62
     1
100
AcDbLine
 10
205.911234
 20
403.907883
 30
0.0
 11
174.911234
 21
403.907883
 31
0.0
  0
LINE
  5
459
100
AcDbEntity
  8
LC-002-002-----0
370
    50
390
0
 62
     1
100
AcDbLine
 10
174.911234
 20
403.907883
 30
0.0
 11
174.911234
 21
392.907891
 31
0.0
  0
LINE
  5
45A
100
AcDbEntity
  8
LC-002-002-----0
370
    50
390
0
 62
     1
100
AcDbLine
 10
182.911234
 20
403.907883
 30
0.0
 11
182.911234
 21
392.907883
 31
0.0
  0
LINE
  5
45B
100
AcDbEntity
  8
LC-002-002-----0
370
    50
390
0
 62
     1
100
AcDbLine
 10
197.911234
 20
392.907891
 30
0.0
 11
197.911234
 21
403.907883
 31
0.0
  0
LINE
  5
45C
100
AcDbEntity
  8
LC-002-002-----0
370
    50
390
0
 62
     1
100
AcDbLine
 10
201.912822
 20
455.907883
 30
0.0
 11
178.912822
 21
455.907883
 31
0.0
  0
LINE
  5
45D
100
AcDbEntity
  8
LC-002-002-----0
370
    50
390
0
 62
     1
100
AcDbLine
 10
205.911234
 20
442.907883
 30
0.0
 11
205.911234
 21
453.906903
 31
0.0
  0
LINE
  5
45E
100
AcDbEntity
  8
LC-002-002-----0
370
    50
390
0
 62
     1
100
AcDbLine
 10
174.911234
 20
442.907883
 30
0.0
 11
205.911234
 21
442.907883
 31
0.0
  0
LINE
  5
45F
100
AcDbEntity
  8
LC-002-002-----0
370
    50
390
0
 62
     1
100
AcDbLine
 10
174.911234
 20
453.904642
 30
0.0
 11
174.911234
 21
442.907883
 31
0.0
  0
LINE
  5
460
100
AcDbEntity
  8
LC-002-002-----0
370
    50
390
0
 62
     1
100
AcDbLine
 10
182.911234
 20
453.906781
 30
0.0
 11
182.911234
 21
442.907883
 31
0.0
  0
LINE
  5
461
100
AcDbEntity
  8
LC-002-002-----0
370
    50
390
0
 62
     1
100
AcDbLine
 10
197.911234
 20
442.907883
 30
0.0
 11
197.911234
 21
453.907763
 31
0.0
  0
LINE
  5
462
100
AcDbEntity
  8
LC-002-002-----0
370
    50
390
0
 62
     1
100
AcDbLine
 10
169.876637
 20
436.907883
 30
0.0
 11
169.876637
 21
409.907883
 31
0.0
  0
LINE
  5
463
100
AcDbEntity
  8
LC-002-002-----0
370
    50
390
0
 62
     1
100
AcDbLine
 10
169.876637
 20
436.907883
 30
0.0
 11
166.376637
 21
436.907883
 31
0.0
  0
LINE
  5
464
100
AcDbEntity
  8
LC-002-002-----0
370
    50
390
0
 62
     1
100
AcDbLine
 10
164.376637
 20
436.407883
 30
0.0
 11
164.376637
 21
410.407883
 31
0.0
  0
LINE
  5
465
100
AcDbEntity
  8
LC-002-002-----0
370
    50
390
0
 62
     1
100
AcDbLine
 10
166.376637
 20
409.907883
 30
0.0
 11
169.876637
 21
409.907883
 31
0.0
  0
LINE
  5
466
100
AcDbEntity
  8
LC-002-002-----0
370
    50
390
0
 62
     1
100
AcDbLine
 10
166.376637
 20
436.907883
 30
0.0
 11
166.376637
 21
409.907883
 31
0.0
  0
LINE
  5
467
100
AcDbEntity
  8
LC-002-002-----0
370
    50
390
0
 62
     1
100
AcDbLine
 10
166.376637
 20
436.907883
 30
0.0
 11
164.376637
 21
436.407883
 31
0.0
  0
LINE
  5
468
100
AcDbEntity
  8
LC-002-002-----0
370
    50
390
0
 62
     1
100
AcDbLine
 10
166.376637
 20
409.907883
 30
0.0
 11
164.376637
 21
410.407883
 31
0.0
  0
LINE
  5
469
100
AcDbEntity
  8
LC-002-002-----0
370
    50
390
0
 62
     1
100
AcDbLine
 10
174.911234
 20
403.907883
 30
0.0
 11
169.876637
 21
409.907883
 31
0.0
  0
LINE
  5
46A
100
AcDbEntity
  8
LC-002-002-----0
370
    50
390
0
 62
     1
100
AcDbLine
 10
174.911234
 20
442.907883
 30
0.0
 11
169.876637
 21
436.907883
 31
0.0
  0
ARC
  5
46B
100
AcDbEntity
  8
LC-002-002-----0
370
    50
390
0
 62
     1
100
AcDbCircle
 10
163.911234
 20
423.407883
 30
0.0
 40
44.5
100
AcDbArc
 50
334.01107
 51
25.989119
  0
ARC
  5
46C
100
AcDbEntity
  8
LC-002-002-----0
370
    50
390
0
 62
     1
100
AcDbCircle
 10
190.411234
 20
405.970383
 30
0.0
 40
15.0625
100
AcDbArc
 50
240.137049
 51
299.862776
  0
ARC
  5
46D
100
AcDbEntity
  8
LC-002-002-----0
370
    50
390
0
 62
     1
100
AcDbCircle
 10
201.911234
 20
395.907883
 30
0.0
 40
5.0
100
AcDbArc
 50
216.869781
 51
323.130044
  0
ARC
  5
46E
100
AcDbEntity
  8
LC-002-002-----0
370
    50
390
0
 62
     1
100
AcDbCircle
 10
178.911234
 20
395.907883
 30
0.0
 40
5.0
100
AcDbArc
 50
216.869781
 51
323.130044
  0
ARC
  5
46F
100
AcDbEntity
  8
LC-002-002-----0
370
    50
390
0
 62
     1
100
AcDbCircle
 10
201.912822
 20
450.906882
 30
0.0
 40
5.0
100
AcDbArc
 50
36.870202
 51
143.130523
  0
ARC
  5
470
100
AcDbEntity
  8
LC-002-002-----0
370
    50
390
0
 62
     1
100
AcDbCircle
 10
190.412875
 20
440.844321
 30
0.0
 40
15.0625
100
AcDbArc
 50
60.13747
 51
119.863255
  0
ARC
  5
471
100
AcDbEntity
  8
LC-002-002-----0
370
    50
390
0
 62
     1
100
AcDbCircle
 10
178.912822
 20
450.90676
 30
0.0
 40
5.0
100
AcDbArc
 50
36.870202
 51
143.130523
  0
LINE
  5
472
100
AcDbEntity
  8
LC-002-002-----0
370
    50
390
0
 62
     1
100
AcDbLine
 10
180.911234
 20
455.907883
 30
0.0
 11
180.911234
 21
475.907883
 31
0.0
  0
LINE
  5
473
100
AcDbEntity
  8
LC-002-002-----0
370
    50
390
0
 62
     1
100
AcDbLine
 10
199.911234
 20
455.907883
 30
0.0
 11
199.911234
 21
475.907883
 31
0.0
  0
ARC
  5
474
100
AcDbEntity
  8
LC-002-002-----0
370
    50
390
0
 62
     1
100
AcDbCircle
 10
196.911234
 20
475.907883
 30
0.0
 40
3.0
100
AcDbArc
 50
0.000171
 51
116.388696
  0
ARC
  5
475
100
AcDbEntity
  8
LC-002-002-----0
370
    50
390
0
 62
     1
100
AcDbCircle
 10
183.911234
 20
475.907883
 30
0.0
 40
3.0
100
AcDbArc
 50
62.511041
 51
297.484009
  0
LINE
  5
476
100
AcDbEntity
  8
LC-002-002-----0
370
    50
390
0
 62
     1
100
AcDbLine
 10
195.577859
 20
478.595282
 30
0.0
 11
185.295723
 21
473.246457
 31
0.0
  0
LINE
  5
477
100
AcDbEntity
  8
LC-002-002-----0
370
    50
390
0
 62
     1
100
AcDbLine
 10
190.411234
 20
475.907574
 30
0.0
 11
185.295976
 21
478.569178
 31
0.0
  0
LINE
  5
478
100
AcDbEntity
  8
LC-002-002-----0
370
    50
390
0
 62
     1
100
AcDbLine
 10
199.91314
 20
390.906862
 30
0.0
 11
199.913322
 21
356.56522
 31
0.0
  0
LINE
  5
479
100
AcDbEntity
  8
LC-002-002-----0
370
    50
390
0
 62
     1
100
AcDbLine
 10
180.913246
 20
354.697992
 30
0.0
 11
180.913246
 21
390.907883
 31
0.0
  0
INSERT
  5
481
100
AcDbEntity
  8
LC-008-005-----0
370
    25
390
0
 62
     2
100
AcDbBlockReference
  2
*X10
 10
0.0
 20
0.0
 30
0.0
  0
LINE
  5
482
100
AcDbEntity
  8
LC-002-002-----0
370
    50
390
0
 62
     1
100
AcDbLine
 10
164.376637
 20
436.407883
 30
0.0
 11
150.153107
 21
436.407883
 31
0.0
  0
LINE
  5
483
100
AcDbEntity
  8
LC-002-002-----0
370
    50
390
0
 62
     1
100
AcDbLine
 10
113.376637
 20
410.407883
 30
0.0
 11
136.153107
 21
410.407883
 31
0.0
  0
LINE
  5
484
100
AcDbEntity
  8
LC-002-002-----0
370
    50
390
0
 62
     1
100
AcDbLine
 10
113.376637
 20
408.407883
 30
0.0
 11
113.376637
 21
438.407883
 31
0.0
  0
DIMENSION
  5
49E
100
AcDbEntity
  8
LC-004-003-----0
370
    25
390
0
 62
     2
100
AcDbDimension
  2
*D11
 10
151.906714
 20
509.6
 30
0.0
 11
151.906714
 21
509.6
 31
0.0
 71
     5
 72
     1
 41
1.0
 42
0.0
  1
77
  3
LC-DIM-L-0140-02-02
100
AcDbAlignedDimension
 13
190.436791
 23
475.920869
 33
0.0
 14
113.376637
 24
438.407883
 34
0.0
100
AcDbRotatedDimension
  0
LINE
  5
49F
100
AcDbEntity
  8
LC-002-002-----0
370
    50
390
0
 62
     1
100
AcDbLine
 10
309.64376
 20
262.197992
 30
0.0
 11
309.64376
 21
367.197992
 31
0.0
  0
LINE
  5
4A0
100
AcDbEntity
  8
LC-002-002-----0
370
    50
390
0
 62
     1
100
AcDbLine
 10
310.64376
 20
262.197992
 30
0.0
 11
310.64376
 21
367.197992
 31
0.0
  0
ARC
  5
4A1
100
AcDbEntity
  8
LC-001-002-RND-0
370
    50
390
0
 62
     1
100
AcDbCircle
 10
312.14376
 20
367.197992
 30
0.0
 40
1.5
100
AcDbArc
 50
90.0
 51
180.0
  0
ARC
  5
4A2
100
AcDbEntity
  8
LC-001-002-RND-0
370
    50
390
0
 62
     1
100
AcDbCircle
 10
312.14376
 20
367.197992
 30
0.0
 40
2.5
100
AcDbArc
 50
90.0
 51
180.0
  0
LINE
  5
4A3
100
AcDbEntity
  8
LC-002-002-----0
370
    25
390
0
 62
     2
100
AcDbLine
 10
494.34376
 20
364.397992
 30
0.0
 11
314.94376
 21
364.397992
 31
0.0
  0
LINE
  5
4A4
100
AcDbEntity
  8
LC-002-002-----0
370
    25
390
0
 62
     2
100
AcDbLine
 10
314.94376
 20
264.997992
 30
0.0
 11
314.94376
 21
364.397992
 31
0.0
  0
LINE
  5
4A5
100
AcDbEntity
  8
LC-002-002-----0
370
    25
390
0
 62
     2
100
AcDbLine
 10
314.94376
 20
364.397992
 30
0.0
 11
311.083096
 21
368.258657
 31
0.0
  0
LINE
  5
4A6
100
AcDbEntity
  8
LC-002-002-----0
370
    50
390
0
 62
     1
100
AcDbLine
 10
373.537427
 20
369.697992
 30
0.0
 11
312.14376
 21
369.697992
 31
0.0
  0
LINE
  5
4A7
100
AcDbEntity
  8
LC-002-002-----0
370
    50
390
0
 62
     1
100
AcDbLine
 10
375.143624
 20
368.697992
 30
0.0
 11
312.14376
 21
368.697992
 31
0.0
  0
DIMENSION
  5
4C2
100
AcDbEntity
  8
LC-004-003-----0
370
    25
390
0
 62
     2
100
AcDbDimension
  2
*D12
 10
404.64376
 20
502.680696
 30
0.0
 11
404.64376
 21
502.680696
 31
0.0
 71
     5
 72
     1
 41
1.0
 42
0.0
  3
LC-DIM-L-0140-02-02
100
AcDbAlignedDimension
 13
309.64376
 23
367.197992
 33
0.0
 14
499.64376
 24
367.197992
 34
0.0
100
AcDbRotatedDimension
  0
LINE
  5
4C3
100
AcDbEntity
  8
LC-002-002-----0
370
    50
390
0
 62
     1
100
AcDbLine
 10
464.398507
 20
368.697992
 30
0.0
 11
375.143624
 21
368.697992
 31
0.0
  0
LINE
  5
4C4
100
AcDbEntity
  8
LC-002-002-----0
370
    50
390
0
 62
     1
100
AcDbLine
 10
427.873251
 20
369.697992
 30
0.0
 11
373.537427
 21
369.697992
 31
0.0
  0
LINE
  5
4C5
100
AcDbEntity
  8
LC-002-002-----0
370
    50
390
0
 62
     1
100
AcDbLine
 10
497.14376
 20
369.697992
 30
0.0
 11
427.873251
 21
369.697992
 31
0.0
  0
LINE
  5
4C6
100
AcDbEntity
  8
LC-002-002-----0
370
    50
390
0
 62
     1
100
AcDbLine
 10
499.64376
 20
262.197992
 30
0.0
 11
499.64376
 21
367.197992
 31
0.0
  0
LINE
  5
4C7
100
AcDbEntity
  8
LC-002-002-----0
370
    50
390
0
 62
     1
100
AcDbLine
 10
498.64376
 20
262.197992
 30
0.0
 11
498.64376
 21
367.197992
 31
0.0
  0
LINE
  5
4C8
100
AcDbEntity
  8
LC-002-002-----0
370
    50
390
0
 62
     1
100
AcDbLine
 10
497.14376
 20
368.697992
 30
0.0
 11
464.398507
 21
368.697992
 31
0.0
  0
ARC
  5
4C9
100
AcDbEntity
  8
LC-001-002-RND-0
370
    50
390
0
 62
     1
100
AcDbCircle
 10
497.14376
 20
367.197992
 30
0.0
 40
1.5
100
AcDbArc
 50
0.0
 51
90.0
  0
ARC
  5
4CA
100
AcDbEntity
  8
LC-001-002-RND-0
370
    50
390
0
 62
     1
100
AcDbCircle
 10
497.14376
 20
367.197992
 30
0.0
 40
2.5
100
AcDbArc
 50
0.0
 51
90.0
  0
LINE
  5
4CB
100
AcDbEntity
  8
LC-002-002-----0
370
    25
390
0
 62
     2
100
AcDbLine
 10
494.34376
 20
264.997992
 30
0.0
 11
494.34376
 21
364.397992
 31
0.0
  0
LINE
  5
4CC
100
AcDbEntity
  8
LC-002-002-----0
370
    25
390
0
 62
     2
100
AcDbLine
 10
494.34376
 20
364.397992
 30
0.0
 11
498.204423
 21
368.258654
 31
0.0
  0
DIMENSION
  5
4E6
100
AcDbEntity
  8
LC-004-003-----0
370
    25
390
0
 62
     2
100
AcDbDimension
  2
*D13
 10
552.659748
 20
384.406
 30
0.0
 11
552.659748
 21
384.406
 31
0.0
 71
     5
 72
     1
 41
1.0
 42
0.0
  3
LC-DIM-L-0140-02-02
100
AcDbAlignedDimension
 13
497.14376
 23
369.697992
 33
0.0
 14
497.14376
 24
259.697992
 34
0.0
 50
90.0
100
AcDbRotatedDimension
  0
ARC
  5
4E7
100
AcDbEntity
  8
LC-001-002-RND-0
370
    50
390
0
 62
     1
100
AcDbCircle
 10
312.14376
 20
262.197992
 30
0.0
 40
1.5
100
AcDbArc
 50
180.0
 51
270.0
  0
ARC
  5
4E8
100
AcDbEntity
  8
LC-001-002-RND-0
370
    50
390
0
 62
     1
100
AcDbCircle
 10
312.14376
 20
262.197992
 30
0.0
 40
2.5
100
AcDbArc
 50
180.0
 51
270.0
  0
LINE
  5
4E9
100
AcDbEntity
  8
LC-002-002-----0
370
    25
390
0
 62
     2
100
AcDbLine
 10
311.083098
 20
261.13733
 30
0.0
 11
314.94376
 21
264.997992
 31
0.0
  0
LINE
  5
4EA
100
AcDbEntity
  8
LC-002-002-----0
370
    25
390
0
 62
     2
100
AcDbLine
 10
494.34376
 20
264.997992
 30
0.0
 11
378.14376
 21
264.997992
 31
0.0
  0
LINE
  5
4EB
100
AcDbEntity
  8
LC-002-002-----0
370
    50
390
0
 62
     1
100
AcDbLine
 10
497.14376
 20
259.697992
 30
0.0
 11
377.14376
 21
259.697992
 31
0.0
  0
LINE
  5
4EC
100
AcDbEntity
  8
LC-002-002-----0
370
    50
390
0
 62
     1
100
AcDbLine
 10
497.14376
 20
260.697992
 30
0.0
 11
377.14376
 21
260.697992
 31
0.0
  0
ARC
  5
4ED
100
AcDbEntity
  8
LC-001-002-RND-0
370
    50
390
0
 62
     1
100
AcDbCircle
 10
497.14376
 20
262.197992
 30
0.0
 40
1.5
100
AcDbArc
 50
270.0
 51
0.0
  0
ARC
  5
4EE
100
AcDbEntity
  8
LC-001-002-RND-0
370
    50
390
0
 62
     1
100
AcDbCircle
 10
497.14376
 20
262.197992
 30
0.0
 40
2.5
100
AcDbArc
 50
270.0
 51
0.0
  0
LINE
  5
4EF
100
AcDbEntity
  8
LC-002-002-----0
370
    25
390
0
 62
     2
100
AcDbLine
 10
498.204419
 20
261.137334
 30
0.0
 11
494.34376
 21
264.997992
 31
0.0
  0
LINE
  5
4F0
100
AcDbEntity
  8
LC-002-002-----0
370
    50
390
0
 62
     1
100
AcDbLine
 10
352.14376
 20
259.697992
 30
0.0
 11
312.14376
 21
259.697992
 31
0.0
  0
LINE
  5
4F1
100
AcDbEntity
  8
LC-002-002-----0
370
    50
390
0
 62
     1
100
AcDbLine
 10
352.14376
 20
260.697992
 30
0.0
 11
312.14376
 21
260.697992
 31
0.0
  0
LINE
  5
4F2
100
AcDbEntity
  8
LC-002-002-----0
370
    25
390
0
 62
     2
100
AcDbLine
 10
351.14376
 20
264.997992
 30
0.0
 11
314.94376
 21
264.997992
 31
0.0
  0
ENDSEC
  0
SECTION
  2
OBJECTS
  0
DICTIONARY
  5
19
100
AcDbDictionary
280
     0
281
     1
  3
ACAD_GROUP
350
1A
  3
ACAD_MLINESTYLE
350
1B
  3
ACAD_LAYOUT
350
1E
  3
ACAD_PLOTSETTINGS
350
22
  3
ACAD_PLOTSTYLENAME
350
1F
  0
DICTIONARY
  5
1A
102
{ACAD_REACTORS
330
19
102
}
100
AcDbDictionary
280
     0
281
     1
  3
GRP1403
350
4F4
  3
GRP1131
350
4F5
  3
GRP1130
350
4F6
  3
GRP1129
350
4F7
  3
GRP1128
350
4F8
  3
GRP1127
350
4F9
  3
GRP1126
350
4FA
  3
GRP1125
350
4FB
  3
GRP1144
350
4FC
  3
GRP885
350
4FD
  3
GRP882
350
4FE
  3
GRP338
350
4FF
  3
GRP72
350
500
  3
GRP71
350
501
  3
GRP66
350
502
  3
GRP87
350
503
  3
GRP96
350
504
  3
GRP661
350
505
  3
GRP130
350
506
  3
GRP690
350
507
  3
GRP439
350
508
  3
GRP1276
350
509
  3
GRP737
350
50A
  3
GRP484
350
50B
  3
GRP219
350
50C
  3
GRP248
350
50D
  3
Flansch1
350
50E
  0
DICTIONARY
  5
1B
102
{ACAD_REACTORS
330
19
102
}
100
AcDbDictionary
280
     0
281
     1
  3
Standard
350
1C
  0
MLINESTYLE
  5
1C
102
{ACAD_REACTORS
330
1B
102
}
100
AcDbMlineStyle
  2
Standard
 70
     0
  3

 62
     0
 51
90.0
 52
90.0
 71
     2
 49
0.5
 62
   256
  6
ByLayer
 49
-0.5
 62
   256
  6
ByLayer
  0
ACDBDICTIONARYWDFLT
  5
1F
102
{ACAD_REACTORS
330
19
102
}
100
AcDbDictionary
281
     1
  3
Normal
350
1D
100
AcDbDictionaryWithDefault
340
1D
  0
ACDBPLACEHOLDER
  5
1D
102
{ACAD_REACTORS
330
1F
102
}
  0
LAYOUT
  5
20
102
{ACAD_REACTORS
330
1E
102
}
100
AcDbPlotSettings
  1

  2

  4

  6

 40
0.0
 41
0.0
 42
0.0
 43
0.0
 44
0.0
 45
0.0
 46
0.0
 47
0.0
 48
0.0
 49
0.0
140
0.0
141
0.0
142
1.0
143
1.0
 70
  1152
 72
     0
 73
     0
 74
     0
  7

 75
     0
147
1.0
148
0.0
149
0.0
100
AcDbLayout
  1
Model
 70
     0
 71
     0
 10
0.0
 20
0.0
 11
0.0
 21
0.0
 12
0.0
 22
0.0
 32
0.0
 14
0.0
 24
0.0
 34
0.0
 15
0.0
 25
0.0
 35
0.0
146
0.0
 13
0.0
 23
0.0
 33
0.0
 16
0.0
 26
0.0
 36
0.0
 17
0.0
 27
0.0
 37
0.0
 76
     0
330
A
331
0
345
0
346
0
  0
LAYOUT
  5
21
102
{ACAD_REACTORS
330
1E
102
}
100
AcDbPlotSettings
  1

  2

  4

  6

 40
0.0
 41
0.0
 42
0.0
 43
0.0
 44
0.0
 45
0.0
 46
0.0
 47
0.0
 48
0.0
 49
0.0
140
0.0
141
0.0
142
1.0
143
1.0
 70
   128
 72
     0
 73
     0
 74
     0
  7

 75
     0
147
1.0
148
0.0
149
0.0
100
AcDbLayout
  1
Layout1
 70
     0
 71
     0
 10
0.0
 20
0.0
 11
0.0
 21
0.0
 12
0.0
 22
0.0
 32
0.0
 14
0.0
 24
0.0
 34
0.0
 15
0.0
 25
0.0
 35
0.0
146
0.0
 13
0.0
 23
0.0
 33
0.0
 16
0.0
 26
0.0
 36
0.0
 17
0.0
 27
0.0
 37
0.0
 76
     0
330
B
331
0
345
0
346
0
  0
DICTIONARY
  5
1E
102
{ACAD_REACTORS
330
19
102
}
100
AcDbDictionary
280
     0
281
     1
  3
Layout1
350
21
  3
Model
350
20
  0
DICTIONARY
  5
22
102
{ACAD_REACTORS
330
19
102
}
100
AcDbDictionary
280
     0
281
     1
  0
GROUP
  5
4F4
102
{ACAD_REACTORS
330
1A
102
}
100
AcDbGroup
300
GRP1403
 70
     0
 71
     1
340
397
340
398
340
399
340
39A
340
39B
340
39C
340
39D
340
39E
340
39F
340
3A0
340
3A1
340
3A2
340
3A3
340
3A4
340
3A5
340
3A6
340
3A7
340
3A8
340
3A9
340
3AA
340
3AB
340
3AC
340
3AD
340
3AE
340
3AF
340
3B0
340
3B1
340
3B2
340
3B3
340
3B4
340
3B5
340
3B6
340
3B7
340
3B8
340
3B9
340
3BA
340
3BB
340
3BC
340
3BD
340
3BE
340
3BF
340
3C0
340
3C1
340
3C2
340
3C3
340
3C4
340
3C5
340
3C6
340
3C7
340
3C8
340
3C9
340
3CA
340
3CB
340
3CC
  0
GROUP
  5
4F5
102
{ACAD_REACTORS
330
1A
102
}
100
AcDbGroup
300
GRP1131
 70
     0
 71
     1
340
355
  0
GROUP
  5
4F6
102
{ACAD_REACTORS
330
1A
102
}
100
AcDbGroup
300
GRP1130
 70
     0
 71
     1
340
354
  0
GROUP
  5
4F7
102
{ACAD_REACTORS
330
1A
102
}
100
AcDbGroup
300
GRP1129
 70
     0
 71
     1
340
353
  0
GROUP
  5
4F8
102
{ACAD_REACTORS
330
1A
102
}
100
AcDbGroup
300
GRP1128
 70
     0
 71
     1
340
331
  0
GROUP
  5
4F9
102
{ACAD_REACTORS
330
1A
102
}
100
AcDbGroup
300
GRP1127
 70
     0
 71
     1
340
330
  0
GROUP
  5
4FA
102
{ACAD_REACTORS
330
1A
102
}
100
AcDbGroup
300
GRP1126
 70
     0
 71
     1
340
32C
  0
GROUP
  5
4FB
102
{ACAD_REACTORS
330
1A
102
}
100
AcDbGroup
300
GRP1125
 70
     0
 71
     1
340
212
  0
GROUP
  5
4FC
102
{ACAD_REACTORS
330
1A
102
}
100
AcDbGroup
300
GRP1144
 70
     0
 71
     1
340
32
340
5E
340
5F
340
60
340
BE
340
BF
340
C0
340
C1
340
C3
340
C4
340
C6
340
C7
340
C8
340
C9
340
CA
340
CB
340
CD
340
CF
340
D2
340
D3
340
D4
340
D5
340
D6
340
D8
340
DC
340
F1
340
F2
340
1A9
340
1AA
340
1AB
340
1AC
340
1AD
340
1AE
340
1AF
340
1B0
340
1B1
340
1B2
340
1B3
340
1B5
340
213
340
214
340
215
340
216
340
217
340
218
340
219
340
21A
340
21B
340
21C
340
21D
340
21E
340
21F
340
220
340
221
340
222
340
223
340
28E
340
28F
340
2CE
340
2D2
340
2DF
340
320
340
321
340
324
340
325
340
327
340
32A
340
32B
  0
GROUP
  5
4FD
102
{ACAD_REACTORS
330
1A
102
}
100
AcDbGroup
300
GRP885
 70
     0
 71
     1
340
32D
340
32E
340
32F
340
332
340
33D
340
33E
  0
GROUP
  5
4FE
102
{ACAD_REACTORS
330
1A
102
}
100
AcDbGroup
300
GRP882
 70
     0
 71
     1
340
323
340
326
340
328
340
329
340
33F
340
340
  0
GROUP
  5
4FF
102
{ACAD_REACTORS
330
1A
102
}
100
AcDbGroup
300
GRP338
 70
     0
 71
     1
340
1C6
  0
GROUP
  5
500
102
{ACAD_REACTORS
330
1A
102
}
100
AcDbGroup
300
GRP72
 70
     0
 71
     1
340
7A
  0
GROUP
  5
501
102
{ACAD_REACTORS
330
1A
102
}
100
AcDbGroup
300
GRP71
 70
     0
 71
     1
340
6C
  0
GROUP
  5
502
102
{ACAD_REACTORS
330
1A
102
}
100
AcDbGroup
300
GRP66
 70
     0
 71
     1
340
6B
  0
GROUP
  5
503
102
{ACAD_REACTORS
330
1A
102
}
100
AcDbGroup
300
GRP87
 70
     0
 71
     1
340
9B
  0
GROUP
  5
504
102
{ACAD_REACTORS
330
1A
102
}
100
AcDbGroup
300
GRP96
 70
     0
 71
     1
340
9C
  0
GROUP
  5
505
102
{ACAD_REACTORS
330
1A
102
}
100
AcDbGroup
300
GRP661
 70
     0
 71
     1
340
2B
340
5B
340
189
340
19E
340
1A0
340
1A1
340
1A3
340
1A4
340
1B6
340
1B9
340
1BA
340
1FB
340
1FC
340
1FD
340
1FF
340
203
340
2CF
340
2D0
340
2D1
340
2D3
340
2D4
340
2DB
340
2DC
340
2DD
340
2F7
340
2F9
340
2FA
340
2FC
  0
GROUP
  5
506
102
{ACAD_REACTORS
330
1A
102
}
100
AcDbGroup
300
GRP130
 70
     0
 71
     1
340
9D
  0
GROUP
  5
507
102
{ACAD_REACTORS
330
1A
102
}
100
AcDbGroup
300
GRP690
 70
     0
 71
     1
340
2DE
340
2E0
340
2E1
340
2E2
340
2E4
340
2E5
340
2E6
340
2E7
340
2E8
340
2E9
340
2EA
340
2EC
340
2ED
340
2EE
340
2EF
  0
GROUP
  5
508
102
{ACAD_REACTORS
330
1A
102
}
100
AcDbGroup
300
GRP439
 70
     0
 71
     1
340
245
  0
GROUP
  5
509
102
{ACAD_REACTORS
330
1A
102
}
100
AcDbGroup
300
GRP1276
 70
     0
 71
     1
340
102
340
105
340
358
340
359
340
35A
340
35C
340
35D
340
35E
340
35F
340
360
340
361
340
362
340
363
340
364
340
365
340
366
340
367
340
368
340
369
340
36A
340
36B
340
36C
340
36D
340
36E
340
36F
340
370
340
371
  0
GROUP
  5
50A
102
{ACAD_REACTORS
330
1A
102
}
100
AcDbGroup
300
GRP737
 70
     0
 71
     1
340
2FD
340
2FE
340
2FF
340
300
340
301
340
302
340
303
340
304
340
305
340
306
340
307
340
308
340
309
340
30A
340
30B
340
30C
340
30D
340
30E
340
30F
340
310
340
311
340
312
340
313
  0
GROUP
  5
50B
102
{ACAD_REACTORS
330
1A
102
}
100
AcDbGroup
300
GRP484
 70
     0
 71
     1
340
26B
340
26C
340
26D
340
270
340
271
340
274
340
275
340
276
  0
GROUP
  5
50C
102
{ACAD_REACTORS
330
1A
102
}
100
AcDbGroup
300
GRP219
 70
     0
 71
     1
340
5D
340
15C
340
15D
340
2F5
340
2F6
340
2F8
340
2FB
340
343
340
344
340
345
340
346
340
34B
340
34D
340
34E
340
34F
340
350
340
351
340
352
340
42E
  0
GROUP
  5
50D
102
{ACAD_REACTORS
330
1A
102
}
100
AcDbGroup
300
GRP248
 70
     0
 71
     1
340
61
340
6F
340
70
340
71
340
72
340
73
340
74
340
75
340
76
340
77
340
78
340
79
340
7C
340
7D
340
7E
340
7F
340
9E
340
9F
340
A0
340
A1
340
A2
340
A3
340
A4
340
A5
340
A6
340
A7
340
A8
340
AA
340
AB
340
AC
340
AE
340
B0
340
B1
340
B2
340
B3
340
B4
340
B5
340
B6
340
B7
340
B8
340
B9
340
BA
340
BB
340
BC
340
CE
340
D0
340
D1
340
D7
340
D9
340
DD
340
DE
340
DF
340
E0
340
E9
340
EA
  0
GROUP
  5
50E
102
{ACAD_REACTORS
330
1A
102
}
100
AcDbGroup
300
Flansch1
 70
     0
 71
     1
340
164
  0
ENDSEC
  0
EOF
