  0
SECTION
  2
HEADER
  9
$ACADVER
  1
AC1015
  9
$ACADMAINTVER
 70
     6
  9
$DWGCODEPAGE
  3
DOS850
  9
$INSBASE
 10
0.0
 20
0.0
 30
0.0
  9
$EXTMIN
 10
0.0
 20
0.0
 30
0.0
  9
$EXTMAX
 10
840.0
 20
594.0
 30
0.0
  9
$LIMMIN
 10
0.0
 20
0.0
  9
$LIMMAX
 10
840.0
 20
594.0
  9
$ORTHOMODE
 70
     0
  9
$REGENMODE
 70
     1
  9
$FILLMODE
 70
     1
  9
$QTEXTMODE
 70
     0
  9
$MIRRTEXT
 70
     1
  9
$LTSCALE
 40
2.0
  9
$ATTMODE
 70
     1
  9
$TEXTSIZE
 40
2.5
  9
$TRACEWID
 40
1.0
  9
$TEXTSTYLE
  7
Standard
  9
$CLAYER
  8
0
  9
$CELTYPE
  6
ByLayer
  9
$CECOLOR
 62
     7
  9
$CELTSCALE
 40
1.0
  9
$DISPSILH
 70
     0
  9
$DIMSCALE
 40
2.0
  9
$DIMASZ
 40
3.5
  9
$DIMEXO
 40
0.625
  9
$DIMDLI
 40
3.75
  9
$DIMRND
 40
0.0
  9
$DIMDLE
 40
0.0
  9
$DIMEXE
 40
1.25
  9
$DIMTP
 40
0.0
  9
$DIMTM
 40
0.0
  9
$DIMTXT
 40
3.5
  9
$DIMCEN
 40
2.5
  9
$DIMTSZ
 40
0.0
  9
$DIMTOL
 70
     0
  9
$DIMLIM
 70
     0
  9
$DIMTIH
 70
     0
  9
$DIMTOH
 70
     0
  9
$DIMSE1
 70
     0
  9
$DIMSE2
 70
     0
  9
$DIMTAD
 70
     1
  9
$DIMZIN
 70
     8
  9
$DIMBLK
  1

  9
$DIMASO
 70
     1
  9
$DIMSHO
 70
     1
  9
$DIMPOST
  1

  9
$DIMAPOST
  1

  9
$DIMALT
 70
     0
  9
$DIMALTD
 70
     3
  9
$DIMALTF
 40
0.03937
  9
$DIMLFAC
 40
1.0
  9
$DIMTOFL
 70
     1
  9
$DIMTVP
 40
0.0
  9
$DIMTIX
 70
     0
  9
$DIMSOXD
 70
     0
  9
$DIMSAH
 70
     0
  9
$DIMBLK1
  1

  9
$DIMBLK2
  1

  9
$DIMSTYLE
  2
ISO-25
  9
$DIMCLRD
 70
     0
  9
$DIMCLRE
 70
     0
  9
$DIMCLRT
 70
     0
  9
$DIMTFAC
 40
1.0
  9
$DIMGAP
 40
0.625
  9
$DIMJUST
 70
     0
  9
$DIMSD1
 70
     0
  9
$DIMSD2
 70
     0
  9
$DIMTOLJ
 70
     0
  9
$DIMTZIN
 70
     8
  9
$DIMALTZ
 70
     0
  9
$DIMALTTZ
 70
     0
  9
$DIMUPT
 70
     0
  9
$DIMDEC
 70
     2
  9
$DIMTDEC
 70
     2
  9
$DIMALTU
 70
     2
  9
$DIMALTTD
 70
     3
  9
$DIMTXSTY
  7
Standard
  9
$DIMAUNIT
 70
     0
  9
$DIMADEC
 70
     0
  9
$DIMALTRND
 40
0.0
  9
$DIMAZIN
 70
     0
  9
$DIMDSEP
 70
    44
  9
$DIMATFIT
 70
     3
  9
$DIMFRAC
 70
     0
  9
$DIMLDRBLK
  1

  9
$DIMLUNIT
 70
     2
  9
$DIMLWD
 70
    -2
  9
$DIMLWE
 70
    -2
  9
$DIMTMOVE
 70
     0
  9
$LUNITS
 70
     2
  9
$LUPREC
 70
     4
  9
$SKETCHINC
 40
1.0
  9
$FILLETRAD
 40
10.0
  9
$AUNITS
 70
     0
  9
$AUPREC
 70
     0
  9
$MENU
  1
.
  9
$ELEVATION
 40
0.0
  9
$PELEVATION
 40
0.0
  9
$THICKNESS
 40
0.0
  9
$LIMCHECK
 70
     0
  9
$CHAMFERA
 40
10.0
  9
$CHAMFERB
 40
10.0
  9
$CHAMFERC
 40
20.0
  9
$CHAMFERD
 40
0.0
  9
$SKPOLY
 70
     0
  9
$TDCREATE
 40
2454398.487653125
  9
$TDUCREATE
 40
2454398.404319792
  9
$TDUPDATE
 40
2454398.487653137
  9
$TDUUPDATE
 40
2454398.404319803
  9
$TDINDWG
 40
0.0000000116
  9
$TDUSRTIMER
 40
0.0000000116
  9
$USRTIMER
 70
     1
  9
$ANGBASE
 50
0.0
  9
$ANGDIR
 70
     0
  9
$PDMODE
 70
     0
  9
$PDSIZE
 40
0.0
  9
$PLINEWID
 40
0.0
  9
$SPLFRAME
 70
     0
  9
$SPLINETYPE
 70
     6
  9
$SPLINESEGS
 70
     8
  9
$HANDSEED
  5
301
  9
$SURFTAB1
 70
     6
  9
$SURFTAB2
 70
     6
  9
$SURFTYPE
 70
     6
  9
$SURFU
 70
     6
  9
$SURFV
 70
     6
  9
$UCSBASE
  2

  9
$UCSNAME
  2

  9
$UCSORG
 10
0.0
 20
0.0
 30
0.0
  9
$UCSXDIR
 10
1.0
 20
0.0
 30
0.0
  9
$UCSYDIR
 10
0.0
 20
1.0
 30
0.0
  9
$UCSORTHOREF
  2

  9
$UCSORTHOVIEW
 70
     0
  9
$UCSORGTOP
 10
0.0
 20
0.0
 30
0.0
  9
$UCSORGBOTTOM
 10
0.0
 20
0.0
 30
0.0
  9
$UCSORGLEFT
 10
0.0
 20
0.0
 30
0.0
  9
$UCSORGRIGHT
 10
0.0
 20
0.0
 30
0.0
  9
$UCSORGFRONT
 10
0.0
 20
0.0
 30
0.0
  9
$UCSORGBACK
 10
0.0
 20
0.0
 30
0.0
  9
$PUCSBASE
  2

  9
$PUCSNAME
  2

  9
$PUCSORG
 10
0.0
 20
0.0
 30
0.0
  9
$PUCSXDIR
 10
1.0
 20
0.0
 30
0.0
  9
$PUCSYDIR
 10
0.0
 20
1.0
 30
0.0
  9
$PUCSORTHOREF
  2

  9
$PUCSORTHOVIEW
 70
     0
  9
$PUCSORGTOP
 10
0.0
 20
0.0
 30
0.0
  9
$PUCSORGBOTTOM
 10
0.0
 20
0.0
 30
0.0
  9
$PUCSORGLEFT
 10
0.0
 20
0.0
 30
0.0
  9
$PUCSORGRIGHT
 10
0.0
 20
0.0
 30
0.0
  9
$PUCSORGFRONT
 10
0.0
 20
0.0
 30
0.0
  9
$PUCSORGBACK
 10
0.0
 20
0.0
 30
0.0
  9
$USERI1
 70
     0
  9
$USERI2
 70
     0
  9
$USERI3
 70
     0
  9
$USERI4
 70
     0
  9
$USERI5
 70
     0
  9
$USERR1
 40
0.0
  9
$USERR2
 40
0.0
  9
$USERR3
 40
0.0
  9
$USERR4
 40
0.0
  9
$USERR5
 40
0.0
  9
$WORLDVIEW
 70
     1
  9
$SHADEDGE
 70
     3
  9
$SHADEDIF
 70
    70
  9
$TILEMODE
 70
     1
  9
$MAXACTVP
 70
    64
  9
$PINSBASE
 10
0.0
 20
0.0
 30
0.0
  9
$PLIMCHECK
 70
     0
  9
$PEXTMIN
 10
0.0
 20
0.0
 30
0.0
  9
$PEXTMAX
 10
840.0
 20
594.0
 30
0.0
  9
$PLIMMIN
 10
0.0
 20
0.0
  9
$PLIMMAX
 10
840.0
 20
594.0
  9
$UNITMODE
 70
     0
  9
$VISRETAIN
 70
     1
  9
$PLINEGEN
 70
     0
  9
$PSLTSCALE
 70
     1
  9
$TREEDEPTH
 70
  3020
  9
$CMLSTYLE
  2
Standard
  9
$CMLJUST
 70
     0
  9
$CMLSCALE
 40
20.0
  9
$PROXYGRAPHICS
 70
     1
  9
$MEASUREMENT
 70
     1
  9
$CELWEIGHT
370
    -1
  9
$ENDCAPS
280
     0
  9
$JOINSTYLE
280
     0
  9
$LWDISPLAY
290
     0
  9
$INSUNITS
 70
     4
  9
$HYPERLINKBASE
  1

  9
$STYLESHEET
  1

  9
$XEDIT
290
     1
  9
$CEPSNTYPE
380
     0
  9
$PSTYLEMODE
290
     1
  9
$FINGERPRINTGUID
  2
{FAEB1C30-E019-11D5-929B-00C0DF256EC4}
  9
$VERSIONGUID
  2
{FAEB1C32-E019-11D5-929B-00C0DF256EC4}
  9
$EXTNAMES
290
     1
  9
$PSVPSCALE
 40
0.0
  9
$OLESTARTUP
290
     0
  0
ENDSEC
  0
SECTION
  2
CLASSES
  0
CLASS
  1
ACDBDICTIONARYWDFLT
  2
AcDbDictionaryWithDefault
  3
ObjectDBX Classes
 90
        0
280
     0
281
     0
  0
CLASS
  1
ACDBPLACEHOLDER
  2
AcDbPlaceHolder
  3
ObjectDBX Classes
 90
        0
280
     0
281
     0
  0
CLASS
  1
LAYOUT
  2
AcDbLayout
  3
ObjectDBX Classes
 90
        0
280
     0
281
     0
  0
ENDSEC
  0
SECTION
  2
TABLES
  0
TABLE
  2
VPORT
  5
8
330
0
100
AcDbSymbolTable
 70
     2
  0
VPORT
  5
29
330
8
100
AcDbSymbolTableRecord
100
AcDbViewportTableRecord
  2
*ACTIVE
 70
     0
 10
0.0
 20
0.0
 11
1.0
 21
1.0
 12
420.0
 22
297.0
 13
0.0
 23
0.0
 14
1.0
 24
1.0
 15
0.0
 25
0.0
 16
0.0
 26
0.0
 36
1.0
 17
0.0
 27
0.0
 37
0.0
 40
594.0
 41
1.414141
 42
50.0
 43
0.0
 44
0.0
 50
0.0
 51
0.0
 71
    16
 72
   100
 73
     1
 74
     0
 75
     0
 76
     0
 77
     0
 78
     0
281
     0
 65
     0
110
0.0
120
0.0
130
0.0
111
1.0
121
0.0
131
0.0
112
0.0
122
1.0
132
0.0
 79
     0
146
0.0
  0
ENDTAB
  0
TABLE
  2
LTYPE
  5
5
330
0
100
AcDbSymbolTable
 70
     3
  0
LTYPE
  5
14
330
5
100
AcDbSymbolTableRecord
100
AcDbLinetypeTableRecord
  2
ByBlock
 70
     0
  3

 72
    65
 73
     0
 40
0.0
  0
LTYPE
  5
15
330
5
100
AcDbSymbolTableRecord
100
AcDbLinetypeTableRecord
  2
ByLayer
 70
     0
  3

 72
    65
 73
     0
 40
0.0
  0
LTYPE
  5
16
330
5
100
AcDbSymbolTableRecord
100
AcDbLinetypeTableRecord
  2
Continuous
 70
     0
  3
Solid line
 72
    65
 73
     0
 40
0.0
  0
LTYPE
  5
2A
330
5
100
AcDbSymbolTableRecord
100
AcDbLinetypeTableRecord
  2
DASHED
 70
     0
  3
__ __ __ __ __
 72
    65
 73
     2
 40
6.25
 49
5.0
 74
     4
 75
     0
340
0
 46
1.0
 50
0.0
 44
0.0
 45
0.0
 49
-1.25
 74
     4
 75
     0
340
0
 46
1.0
 50
0.0
 44
0.0
 45
0.0
  0
LTYPE
  5
17B
330
5
100
AcDbSymbolTableRecord
100
AcDbLinetypeTableRecord
  2
CENTER
 70
     0
  3
__ . __ . __ . __ . __
 72
    65
 73
     4
 40
7.5
 49
5.0
 74
     4
 75
     0
340
0
 46
1.0
 50
0.0
 44
0.0
 45
0.0
 49
-1.25
 74
     4
 75
     0
340
0
 46
1.0
 50
0.0
 44
0.0
 45
0.0
 49
0.0
 74
     4
 75
     0
340
0
 46
1.0
 50
0.0
 44
0.0
 45
0.0
 49
-1.25
 74
     4
 75
     0
340
0
 46
1.0
 50
0.0
 44
0.0
 45
0.0
  0
ENDTAB
  0
TABLE
  2
LAYER
  5
2
330
0
100
AcDbSymbolTable
 70
    15
  0
LAYER
  5
10
330
2
100
AcDbSymbolTableRecord
100
AcDbLayerTableRecord
  2
0
 70
     0
 62
     7
  6
Continuous
370
    -3
390
F
  0
LAYER
  5
2B
330
2
100
AcDbSymbolTableRecord
100
AcDbLayerTableRecord
  2
LC-INFO-1-2-mm-A3-0
 70
     1
 62
     7
  6
ByBlock
370
    -3
390
F
  0
LAYER
  5
2C
330
2
100
AcDbSymbolTableRecord
100
AcDbLayerTableRecord
  2
LC-CUT-HIDDEN
 70
     0
 62
     7
  6
DASHED
370
    -3
390
F
  0
LAYER
  5
2D
330
2
100
AcDbSymbolTableRecord
100
AcDbLayerTableRecord
  2
LC-VIEWPORT
 70
     0
 62
     7
  6
ByBlock
370
    -3
390
F
  0
LAYER
  5
2E
330
2
100
AcDbSymbolTableRecord
100
AcDbLayerTableRecord
  2
LC-3D-HIDDEN
 70
     0
 62
     9
  6
DASHED
370
    -3
390
F
  0
LAYER
  5
31
330
2
100
AcDbSymbolTableRecord
100
AcDbLayerTableRecord
  2
LC-001-002-RND-0
 70
     0
 62
     1
  6
ByBlock
370
    -3
390
F
  0
LAYER
  5
33
330
2
100
AcDbSymbolTableRecord
100
AcDbLayerTableRecord
  2
LC-002-002-----0
 70
     0
 62
     1
  6
ByBlock
370
    -3
390
F
  0
LAYER
  5
3B
330
2
100
AcDbSymbolTableRecord
100
AcDbLayerTableRecord
  2
LC-003-005-----0
 70
     0
 62
     2
  6
ByBlock
370
    -3
390
F
  0
LAYER
  5
6B
330
2
100
AcDbSymbolTableRecord
100
AcDbLayerTableRecord
  2
LC-004-001-----0
 70
     0
 62
     1
  6
ByBlock
370
    -3
390
F
  0
LAYER
  5
B2
330
2
100
AcDbSymbolTableRecord
100
AcDbLayerTableRecord
  2
LC-005-201-----0
 70
     0
 62
     1
  6
ByBlock
370
    -3
390
F
  0
LAYER
  5
102
330
2
100
AcDbSymbolTableRecord
100
AcDbLayerTableRecord
  2
LC-006-020-----0
 70
     0
 62
     2
  6
DASHED
370
    -3
390
F
  0
LAYER
  5
108
330
2
100
AcDbSymbolTableRecord
100
AcDbLayerTableRecord
  2
LC-007-003-----0
 70
     0
 62
     2
  6
ByBlock
370
    -3
390
F
  0
LAYER
  5
10A
330
2
100
AcDbSymbolTableRecord
100
AcDbLayerTableRecord
  2
Defpoints
 70
     0
 62
     7
  6
Continuous
290
     0
370
    -3
390
F
  0
LAYER
  5
17C
330
2
100
AcDbSymbolTableRecord
100
AcDbLayerTableRecord
  2
LC-008-006-----0
 70
     0
 62
     2
  6
CENTER
370
    -3
390
F
  0
LAYER
  5
198
330
2
100
AcDbSymbolTableRecord
100
AcDbLayerTableRecord
  2
LC-009-202-----0
 70
     0
 62
     1
  6
ByBlock
370
    -3
390
F
  0
ENDTAB
  0
TABLE
  2
STYLE
  5
3
330
0
100
AcDbSymbolTable
 70
     4
  0
STYLE
  5
11
330
3
100
AcDbSymbolTableRecord
100
AcDbTextStyleTableRecord
  2
Standard
 70
     0
 40
0.0
 41
1.0
 50
0.0
 71
     0
 42
2.5
  3
txt
  4

  0
STYLE
  5
2F
330
3
100
AcDbSymbolTableRecord
100
AcDbTextStyleTableRecord
  2
LCTX15-400-0-0-Arial
 70
     0
 40
0.0
 41
0.9
 50
0.0
 71
     0
 42
3.5
  3

  4

1001
ACAD
1000
Arial
1071
 16777218
  0
STYLE
  5
30
330
3
100
AcDbSymbolTableRecord
100
AcDbTextStyleTableRecord
  2
LCTX0-400-0-0-DIN-Schrift
 70
     0
 40
0.0
 41
1.0
 50
0.0
 71
     0
 42
3.5
  3
MONOTXT
  4

  0
STYLE
  5
106
330
3
100
AcDbSymbolTableRecord
100
AcDbTextStyleTableRecord
  2
LCTX15-400-0-0pDIN-Schrift
 70
     0
 40
2.5
 41
0.8
 50
15.0
 71
     0
 42
3.5
  3
STANDARD
  4

  0
ENDTAB
  0
TABLE
  2
VIEW
  5
6
330
0
100
AcDbSymbolTable
 70
     0
  0
ENDTAB
  0
TABLE
  2
UCS
  5
7
330
0
100
AcDbSymbolTable
 70
     0
  0
ENDTAB
  0
TABLE
  2
APPID
  5
9
330
0
100
AcDbSymbolTable
 70
     1
  0
APPID
  5
12
330
9
100
AcDbSymbolTableRecord
100
AcDbRegAppTableRecord
  2
ACAD
 70
     0
  0
ENDTAB
  0
TABLE
  2
DIMSTYLE
  5
A
330
0
100
AcDbSymbolTable
 70
     2
100
AcDbDimStyleTable
  0
DIMSTYLE
105
27
330
A
100
AcDbSymbolTableRecord
100
AcDbDimStyleTableRecord
  2
ISO-25
 70
     0
 41
2.5
 42
0.625
 43
3.75
 44
1.25
 73
     0
 74
     0
 77
     1
 78
     8
140
2.5
141
2.5
143
0.03937
147
0.625
171
     3
172
     1
271
     2
272
     2
274
     3
278
    44
283
     0
284
     8
340
11
  0
DIMSTYLE
105
107
102
{ACAD_REACTORS
330
109
330
117
330
126
330
133
102
}
330
A
100
AcDbSymbolTableRecord
100
AcDbDimStyleTableRecord
  2
LC-DIM-L-0140-02-02
 70
     0
 40
2.0
 41
14.0
 42
0.0
 43
7.5
 44
1.8
 73
     0
 74
     0
 77
     1
 78
     8
 79
     2
140
14.0
141
0.0
146
0.71
147
1.5
176
     2
177
     2
178
     2
179
     2
271
     2
278
    44
289
     1
340
106
  0
ENDTAB
  0
TABLE
  2
BLOCK_RECORD
  5
1
330
0
100
AcDbSymbolTable
 70
    13
  0
BLOCK_RECORD
  5
1F
330
1
100
AcDbSymbolTableRecord
100
AcDbBlockTableRecord
  2
*Model_Space
340
22
  0
BLOCK_RECORD
  5
1B
330
1
100
AcDbSymbolTableRecord
100
AcDbBlockTableRecord
  2
*Paper_Space
340
1E
  0
BLOCK_RECORD
  5
23
330
1
100
AcDbSymbolTableRecord
100
AcDbBlockTableRecord
  2
*Paper_Space0
340
26
  0
BLOCK_RECORD
  5
38
330
1
100
AcDbSymbolTableRecord
100
AcDbBlockTableRecord
  2
*X11
340
0
102
{BLKREFS
331
67
102
}
  0
BLOCK_RECORD
  5
72
330
1
100
AcDbSymbolTableRecord
100
AcDbBlockTableRecord
  2
*X22
340
0
102
{BLKREFS
331
A0
102
}
  0
BLOCK_RECORD
  5
C2
330
1
100
AcDbSymbolTableRecord
100
AcDbBlockTableRecord
  2
*X33
340
0
102
{BLKREFS
331
DF
102
}
  0
BLOCK_RECORD
  5
E0
330
1
100
AcDbSymbolTableRecord
100
AcDbBlockTableRecord
  2
*X44
340
0
102
{BLKREFS
331
FD
102
}
  0
BLOCK_RECORD
  5
10B
330
1
100
AcDbSymbolTableRecord
100
AcDbBlockTableRecord
  2
*D5
340
0
  0
BLOCK_RECORD
  5
118
330
1
100
AcDbSymbolTableRecord
100
AcDbBlockTableRecord
  2
*D6
340
0
  0
BLOCK_RECORD
  5
127
330
1
100
AcDbSymbolTableRecord
100
AcDbBlockTableRecord
  2
*D7
340
0
  0
BLOCK_RECORD
  5
134
330
1
100
AcDbSymbolTableRecord
100
AcDbBlockTableRecord
  2
*D8
340
0
  0
BLOCK_RECORD
  5
1EF
330
1
100
AcDbSymbolTableRecord
100
AcDbBlockTableRecord
  2
*X59
340
0
102
{BLKREFS
331
214
102
}
  0
BLOCK_RECORD
  5
231
330
1
100
AcDbSymbolTableRecord
100
AcDbBlockTableRecord
  2
*X610
340
0
102
{BLKREFS
331
256
102
}
  0
BLOCK_RECORD
  5
25B
330
1
100
AcDbSymbolTableRecord
100
AcDbBlockTableRecord
  2
*X711
340
0
102
{BLKREFS
331
268
102
}
  0
BLOCK_RECORD
  5
282
330
1
100
AcDbSymbolTableRecord
100
AcDbBlockTableRecord
  2
*X812
340
0
102
{BLKREFS
331
2C5
102
}
  0
ENDTAB
  0
ENDSEC
  0
SECTION
  2
BLOCKS
  0
BLOCK
  5
20
330
1F
100
AcDbEntity
  8
0
100
AcDbBlockBegin
  2
*Model_Space
 70
     0
 71
     0
 10
0.0
 20
0.0
 30
0.0
  3
*Model_Space
  1

  0
ENDBLK
  5
21
330
1F
100
AcDbEntity
  8
0
100
AcDbBlockEnd
  0
BLOCK
  5
1C
330
1B
100
AcDbEntity
 67
     1
  8
0
100
AcDbBlockBegin
  2
*Paper_Space
 70
     0
 71
     0
 10
0.0
 20
0.0
 30
0.0
  3
*Paper_Space
  1

  0
ENDBLK
  5
1D
330
1B
100
AcDbEntity
 67
     1
  8
0
100
AcDbBlockEnd
  0
BLOCK
  5
24
330
23
100
AcDbEntity
  8
0
100
AcDbBlockBegin
  2
*Paper_Space0
 70
     0
 71
     0
 10
0.0
 20
0.0
 30
0.0
  3
*Paper_Space0
  1

  0
ENDBLK
  5
25
330
23
100
AcDbEntity
  8
0
100
AcDbBlockEnd
  0
BLOCK
  5
39
330
38
100
AcDbEntity
  8
0
100
AcDbBlockBegin
  2
*X11
 70
     1
 71
     0
 10
0.0
 20
0.0
 30
0.0
  3
*X11
  1

  4
*X1
  0
LINE
  5
3C
330
38
100
AcDbEntity
  8
LC-003-005-----0
 62
     7
370
    25
100
AcDbLine
 10
206.468294
 20
234.752566
 30
0.0
 11
206.8024
 21
235.086672
 31
0.0
  0
LINE
  5
3D
330
38
100
AcDbEntity
  8
LC-003-005-----0
 62
     7
370
    25
100
AcDbLine
 10
205.221977
 20
236.334675
 30
0.0
 11
206.802505
 21
237.915203
 31
0.0
  0
LINE
  5
3E
330
38
100
AcDbEntity
  8
LC-003-005-----0
 62
     7
370
    25
100
AcDbLine
 10
204.62426
 20
238.565385
 30
0.0
 11
206.802609
 21
240.743735
 31
0.0
  0
LINE
  5
3F
330
38
100
AcDbEntity
  8
LC-003-005-----0
 62
     7
370
    25
100
AcDbLine
 10
204.306156
 20
241.075708
 30
0.0
 11
206.802713
 21
243.572266
 31
0.0
  0
LINE
  5
40
330
38
100
AcDbEntity
  8
LC-003-005-----0
 62
     7
370
    25
100
AcDbLine
 10
204.306156
 20
243.904136
 30
0.0
 11
206.802818
 21
246.400797
 31
0.0
  0
LINE
  5
41
330
38
100
AcDbEntity
  8
LC-003-005-----0
 62
     7
370
    25
100
AcDbLine
 10
204.306156
 20
246.732563
 30
0.0
 11
206.802922
 21
249.229329
 31
0.0
  0
LINE
  5
42
330
38
100
AcDbEntity
  8
LC-003-005-----0
 62
     7
370
    25
100
AcDbLine
 10
204.306156
 20
249.56099
 30
0.0
 11
206.803026
 21
252.05786
 31
0.0
  0
LINE
  5
43
330
38
100
AcDbEntity
  8
LC-003-005-----0
 62
     7
370
    25
100
AcDbLine
 10
204.306156
 20
252.389417
 30
0.0
 11
206.803131
 21
254.886392
 31
0.0
  0
LINE
  5
44
330
38
100
AcDbEntity
  8
LC-003-005-----0
 62
     7
370
    25
100
AcDbLine
 10
204.306156
 20
255.217844
 30
0.0
 11
206.803235
 21
257.714923
 31
0.0
  0
LINE
  5
45
330
38
100
AcDbEntity
  8
LC-003-005-----0
 62
     7
370
    25
100
AcDbLine
 10
204.306156
 20
258.046271
 30
0.0
 11
206.803339
 21
260.543455
 31
0.0
  0
LINE
  5
46
330
38
100
AcDbEntity
  8
LC-003-005-----0
 62
     7
370
    25
100
AcDbLine
 10
204.306156
 20
260.874698
 30
0.0
 11
206.803444
 21
263.371986
 31
0.0
  0
LINE
  5
47
330
38
100
AcDbEntity
  8
LC-003-005-----0
 62
     7
370
    25
100
AcDbLine
 10
204.306156
 20
263.703125
 30
0.0
 11
206.803548
 21
266.200518
 31
0.0
  0
LINE
  5
48
330
38
100
AcDbEntity
  8
LC-003-005-----0
 62
     7
370
    25
100
AcDbLine
 10
204.306156
 20
266.531553
 30
0.0
 11
206.803652
 21
269.029049
 31
0.0
  0
LINE
  5
49
330
38
100
AcDbEntity
  8
LC-003-005-----0
 62
     7
370
    25
100
AcDbLine
 10
204.306156
 20
269.35998
 30
0.0
 11
206.803757
 21
271.85758
 31
0.0
  0
LINE
  5
4A
330
38
100
AcDbEntity
  8
LC-003-005-----0
 62
     7
370
    25
100
AcDbLine
 10
204.306156
 20
272.188407
 30
0.0
 11
206.803861
 21
274.686112
 31
0.0
  0
LINE
  5
4B
330
38
100
AcDbEntity
  8
LC-003-005-----0
 62
     7
370
    25
100
AcDbLine
 10
204.306156
 20
275.016834
 30
0.0
 11
206.803965
 21
277.514643
 31
0.0
  0
LINE
  5
4C
330
38
100
AcDbEntity
  8
LC-003-005-----0
 62
     7
370
    25
100
AcDbLine
 10
204.306156
 20
277.845261
 30
0.0
 11
206.80407
 21
280.343175
 31
0.0
  0
LINE
  5
4D
330
38
100
AcDbEntity
  8
LC-003-005-----0
 62
     7
370
    25
100
AcDbLine
 10
204.306156
 20
280.673688
 30
0.0
 11
206.804174
 21
283.171706
 31
0.0
  0
LINE
  5
4E
330
38
100
AcDbEntity
  8
LC-003-005-----0
 62
     7
370
    25
100
AcDbLine
 10
204.306156
 20
283.502115
 30
0.0
 11
206.804278
 21
286.000238
 31
0.0
  0
LINE
  5
4F
330
38
100
AcDbEntity
  8
LC-003-005-----0
 62
     7
370
    25
100
AcDbLine
 10
204.306156
 20
286.330542
 30
0.0
 11
206.804383
 21
288.828769
 31
0.0
  0
LINE
  5
50
330
38
100
AcDbEntity
  8
LC-003-005-----0
 62
     7
370
    25
100
AcDbLine
 10
204.306156
 20
289.15897
 30
0.0
 11
206.804487
 21
291.657301
 31
0.0
  0
LINE
  5
51
330
38
100
AcDbEntity
  8
LC-003-005-----0
 62
     7
370
    25
100
AcDbLine
 10
204.306156
 20
291.987397
 30
0.0
 11
206.804591
 21
294.485832
 31
0.0
  0
LINE
  5
52
330
38
100
AcDbEntity
  8
LC-003-005-----0
 62
     7
370
    25
100
AcDbLine
 10
204.306156
 20
294.815824
 30
0.0
 11
206.804696
 21
297.314364
 31
0.0
  0
LINE
  5
53
330
38
100
AcDbEntity
  8
LC-003-005-----0
 62
     7
370
    25
100
AcDbLine
 10
204.306156
 20
297.644251
 30
0.0
 11
206.8048
 21
300.142895
 31
0.0
  0
LINE
  5
54
330
38
100
AcDbEntity
  8
LC-003-005-----0
 62
     7
370
    25
100
AcDbLine
 10
204.306156
 20
300.472678
 30
0.0
 11
206.804904
 21
302.971426
 31
0.0
  0
LINE
  5
55
330
38
100
AcDbEntity
  8
LC-003-005-----0
 62
     7
370
    25
100
AcDbLine
 10
202.755093
 20
301.750043
 30
0.0
 11
204.755187
 21
303.750136
 31
0.0
  0
LINE
  5
56
330
38
100
AcDbEntity
  8
LC-003-005-----0
 62
     7
370
    25
100
AcDbLine
 10
199.926534
 20
301.74991
 30
0.0
 11
201.926627
 21
303.750004
 31
0.0
  0
LINE
  5
57
330
38
100
AcDbEntity
  8
LC-003-005-----0
 62
     7
370
    25
100
AcDbLine
 10
198.083
 20
302.734804
 30
0.0
 11
201.056756
 21
305.70856
 31
0.0
  0
LINE
  5
58
330
38
100
AcDbEntity
  8
LC-003-005-----0
 62
     7
370
    25
100
AcDbLine
 10
197.806279
 20
305.286509
 30
0.0
 11
201.056624
 21
308.536855
 31
0.0
  0
LINE
  5
59
330
38
100
AcDbEntity
  8
LC-003-005-----0
 62
     7
370
    25
100
AcDbLine
 10
197.806343
 20
308.115001
 30
0.0
 11
201.056492
 21
311.36515
 31
0.0
  0
LINE
  5
5A
330
38
100
AcDbEntity
  8
LC-003-005-----0
 62
     7
370
    25
100
AcDbLine
 10
197.806407
 20
310.943492
 30
0.0
 11
201.05636
 21
314.193444
 31
0.0
  0
LINE
  5
5B
330
38
100
AcDbEntity
  8
LC-003-005-----0
 62
     7
370
    25
100
AcDbLine
 10
196.326232
 20
312.291744
 30
0.0
 11
201.056227
 21
317.021739
 31
0.0
  0
LINE
  5
5C
330
38
100
AcDbEntity
  8
LC-003-005-----0
 62
     7
370
    25
100
AcDbLine
 10
194.519846
 20
313.313785
 30
0.0
 11
201.056095
 21
319.850034
 31
0.0
  0
LINE
  5
5D
330
38
100
AcDbEntity
  8
LC-003-005-----0
 62
     7
370
    25
100
AcDbLine
 10
193.809151
 20
315.431517
 30
0.0
 11
198.430322
 21
320.052689
 31
0.0
  0
LINE
  5
5E
330
38
100
AcDbEntity
  8
LC-003-005-----0
 62
     7
370
    25
100
AcDbLine
 10
187.301895
 20
311.752689
 30
0.0
 11
189.306767
 21
313.75756
 31
0.0
  0
LINE
  5
5F
330
38
100
AcDbEntity
  8
LC-003-005-----0
 62
     7
370
    25
100
AcDbLine
 10
192.738989
 20
317.189783
 30
0.0
 11
197.073791
 21
321.524585
 31
0.0
  0
LINE
  5
60
330
38
100
AcDbEntity
  8
LC-003-005-----0
 62
     7
370
    25
100
AcDbLine
 10
184.473468
 20
311.752689
 30
0.0
 11
194.473468
 21
321.752689
 31
0.0
  0
LINE
  5
61
330
38
100
AcDbEntity
  8
LC-003-005-----0
 62
     7
370
    25
100
AcDbLine
 10
183.806767
 20
313.914415
 30
0.0
 11
185.306767
 21
315.414415
 31
0.0
  0
LINE
  5
62
330
38
100
AcDbEntity
  8
LC-003-005-----0
 62
     7
370
    25
100
AcDbLine
 10
186.106767
 20
316.214415
 30
0.0
 11
191.645041
 21
321.752689
 31
0.0
  0
LINE
  5
63
330
38
100
AcDbEntity
  8
LC-003-005-----0
 62
     7
370
    25
100
AcDbLine
 10
183.806767
 20
316.742842
 30
0.0
 11
183.816614
 21
316.752689
 31
0.0
  0
LINE
  5
64
330
38
100
AcDbEntity
  8
LC-003-005-----0
 62
     7
370
    25
100
AcDbLine
 10
186.106767
 20
319.042842
 30
0.0
 11
190.006767
 21
322.942842
 31
0.0
  0
LINE
  5
65
330
38
100
AcDbEntity
  8
LC-003-005-----0
 62
     7
370
    25
100
AcDbLine
 10
186.106767
 20
321.871269
 30
0.0
 11
189.884069
 21
325.648571
 31
0.0
  0
LINE
  5
66
330
38
100
AcDbEntity
  8
LC-003-005-----0
 62
     7
370
    25
100
AcDbLine
 10
186.106767
 20
324.699696
 30
0.0
 11
187.35976
 21
325.952689
 31
0.0
  0
ENDBLK
  5
3A
330
38
100
AcDbEntity
  8
0
100
AcDbBlockEnd
  0
BLOCK
  5
73
330
72
100
AcDbEntity
  8
0
100
AcDbBlockBegin
  2
*X22
 70
     1
 71
     0
 10
0.0
 20
0.0
 30
0.0
  3
*X22
  1

  4
*X2
  0
LINE
  5
75
330
72
100
AcDbEntity
  8
LC-003-005-----0
 62
     7
370
    25
100
AcDbLine
 10
313.946085
 20
234.750126
 30
0.0
 11
315.335937
 21
236.139977
 31
0.0
  0
LINE
  5
76
330
72
100
AcDbEntity
  8
LC-003-005-----0
 62
     7
370
    25
100
AcDbLine
 10
313.806984
 20
237.439452
 30
0.0
 11
316.303429
 21
239.935897
 31
0.0
  0
LINE
  5
77
330
72
100
AcDbEntity
  8
LC-003-005-----0
 62
     7
370
    25
100
AcDbLine
 10
313.807008
 20
240.267903
 30
0.0
 11
316.303558
 21
242.764452
 31
0.0
  0
LINE
  5
78
330
72
100
AcDbEntity
  8
LC-003-005-----0
 62
     7
370
    25
100
AcDbLine
 10
313.807033
 20
243.096355
 30
0.0
 11
316.303686
 21
245.593008
 31
0.0
  0
LINE
  5
79
330
72
100
AcDbEntity
  8
LC-003-005-----0
 62
     7
370
    25
100
AcDbLine
 10
313.807057
 20
245.924806
 30
0.0
 11
316.303815
 21
248.421564
 31
0.0
  0
LINE
  5
7A
330
72
100
AcDbEntity
  8
LC-003-005-----0
 62
     7
370
    25
100
AcDbLine
 10
313.807081
 20
248.753258
 30
0.0
 11
316.303944
 21
251.25012
 31
0.0
  0
LINE
  5
7B
330
72
100
AcDbEntity
  8
LC-003-005-----0
 62
     7
370
    25
100
AcDbLine
 10
313.807106
 20
251.581709
 30
0.0
 11
316.304072
 21
254.078676
 31
0.0
  0
LINE
  5
7C
330
72
100
AcDbEntity
  8
LC-003-005-----0
 62
     7
370
    25
100
AcDbLine
 10
313.80713
 20
254.41016
 30
0.0
 11
316.304201
 21
256.907231
 31
0.0
  0
LINE
  5
7D
330
72
100
AcDbEntity
  8
LC-003-005-----0
 62
     7
370
    25
100
AcDbLine
 10
313.807154
 20
257.238612
 30
0.0
 11
316.30433
 21
259.735787
 31
0.0
  0
LINE
  5
7E
330
72
100
AcDbEntity
  8
LC-003-005-----0
 62
     7
370
    25
100
AcDbLine
 10
313.807179
 20
260.067063
 30
0.0
 11
316.304458
 21
262.564343
 31
0.0
  0
LINE
  5
7F
330
72
100
AcDbEntity
  8
LC-003-005-----0
 62
     7
370
    25
100
AcDbLine
 10
313.807203
 20
262.895515
 30
0.0
 11
316.304587
 21
265.392899
 31
0.0
  0
LINE
  5
80
330
72
100
AcDbEntity
  8
LC-003-005-----0
 62
     7
370
    25
100
AcDbLine
 10
313.807227
 20
265.723966
 30
0.0
 11
316.304716
 21
268.221455
 31
0.0
  0
LINE
  5
81
330
72
100
AcDbEntity
  8
LC-003-005-----0
 62
     7
370
    25
100
AcDbLine
 10
313.807252
 20
268.552418
 30
0.0
 11
316.304844
 21
271.05001
 31
0.0
  0
LINE
  5
82
330
72
100
AcDbEntity
  8
LC-003-005-----0
 62
     7
370
    25
100
AcDbLine
 10
313.807276
 20
271.380869
 30
0.0
 11
316.304973
 21
273.878566
 31
0.0
  0
LINE
  5
83
330
72
100
AcDbEntity
  8
LC-003-005-----0
 62
     7
370
    25
100
AcDbLine
 10
313.8073
 20
274.209321
 30
0.0
 11
316.305102
 21
276.707122
 31
0.0
  0
LINE
  5
84
330
72
100
AcDbEntity
  8
LC-003-005-----0
 62
     7
370
    25
100
AcDbLine
 10
313.807325
 20
277.037772
 30
0.0
 11
316.30523
 21
279.535678
 31
0.0
  0
LINE
  5
85
330
72
100
AcDbEntity
  8
LC-003-005-----0
 62
     7
370
    25
100
AcDbLine
 10
313.807349
 20
279.866224
 30
0.0
 11
316.305359
 21
282.364233
 31
0.0
  0
LINE
  5
86
330
72
100
AcDbEntity
  8
LC-003-005-----0
 62
     7
370
    25
100
AcDbLine
 10
313.807373
 20
282.694675
 30
0.0
 11
316.305488
 21
285.192789
 31
0.0
  0
LINE
  5
87
330
72
100
AcDbEntity
  8
LC-003-005-----0
 62
     7
370
    25
100
AcDbLine
 10
313.807398
 20
285.523127
 30
0.0
 11
316.305616
 21
288.021345
 31
0.0
  0
LINE
  5
88
330
72
100
AcDbEntity
  8
LC-003-005-----0
 62
     7
370
    25
100
AcDbLine
 10
313.807422
 20
288.351578
 30
0.0
 11
316.305745
 21
290.849901
 31
0.0
  0
LINE
  5
89
330
72
100
AcDbEntity
  8
LC-003-005-----0
 62
     7
370
    25
100
AcDbLine
 10
313.807447
 20
291.18003
 30
0.0
 11
316.305874
 21
293.678457
 31
0.0
  0
LINE
  5
8A
330
72
100
AcDbEntity
  8
LC-003-005-----0
 62
     7
370
    25
100
AcDbLine
 10
334.376736
 20
311.749319
 30
0.0
 11
336.806195
 21
314.178778
 31
0.0
  0
LINE
  5
8B
330
72
100
AcDbEntity
  8
LC-003-005-----0
 62
     7
370
    25
100
AcDbLine
 10
313.807471
 20
294.008481
 30
0.0
 11
316.306002
 21
296.507012
 31
0.0
  0
LINE
  5
8C
330
72
100
AcDbEntity
  8
LC-003-005-----0
 62
     7
370
    25
100
AcDbLine
 10
321.82514
 20
302.02615
 30
0.0
 11
322.527247
 21
302.728257
 31
0.0
  0
LINE
  5
8D
330
72
100
AcDbEntity
  8
LC-003-005-----0
 62
     7
370
    25
100
AcDbLine
 10
331.548438
 20
311.749448
 30
0.0
 11
334.506219
 21
314.707229
 31
0.0
  0
LINE
  5
8E
330
72
100
AcDbEntity
  8
LC-003-005-----0
 62
     7
370
    25
100
AcDbLine
 10
335.306256
 20
315.507266
 30
0.0
 11
336.54821
 21
316.749221
 31
0.0
  0
LINE
  5
8F
330
72
100
AcDbEntity
  8
LC-003-005-----0
 62
     7
370
    25
100
AcDbLine
 10
313.807495
 20
296.836932
 30
0.0
 11
316.306131
 21
299.335568
 31
0.0
  0
LINE
  5
90
330
72
100
AcDbEntity
  8
LC-003-005-----0
 62
     7
370
    25
100
AcDbLine
 10
318.717908
 20
301.747345
 30
0.0
 11
322.806291
 21
305.835728
 31
0.0
  0
LINE
  5
91
330
72
100
AcDbEntity
  8
LC-003-005-----0
 62
     7
370
    25
100
AcDbLine
 10
331.306202
 20
314.335639
 30
0.0
 11
334.506348
 21
317.535785
 31
0.0
  0
LINE
  5
92
330
72
100
AcDbEntity
  8
LC-003-005-----0
 62
     7
370
    25
100
AcDbLine
 10
313.80752
 20
299.665384
 30
0.0
 11
317.889557
 21
303.747422
 31
0.0
  0
LINE
  5
93
330
72
100
AcDbEntity
  8
LC-003-005-----0
 62
     7
370
    25
100
AcDbLine
 10
319.555793
 20
305.413658
 30
0.0
 11
322.806356
 21
308.66422
 31
0.0
  0
LINE
  5
94
330
72
100
AcDbEntity
  8
LC-003-005-----0
 62
     7
370
    25
100
AcDbLine
 10
330.908765
 20
316.766629
 30
0.0
 11
334.506476
 21
320.364341
 31
0.0
  0
LINE
  5
95
330
72
100
AcDbEntity
  8
LC-003-005-----0
 62
     7
370
    25
100
AcDbLine
 10
313.807544
 20
302.493835
 30
0.0
 11
315.061391
 21
303.747683
 31
0.0
  0
LINE
  5
96
330
72
100
AcDbEntity
  8
LC-003-005-----0
 62
     7
370
    25
100
AcDbLine
 10
319.556054
 20
308.242346
 30
0.0
 11
322.80642
 21
311.492711
 31
0.0
  0
LINE
  5
97
330
72
100
AcDbEntity
  8
LC-003-005-----0
 62
     7
370
    25
100
AcDbLine
 10
323.563446
 20
312.249737
 30
0.0
 11
326.803871
 21
315.490163
 31
0.0
  0
LINE
  5
98
330
72
100
AcDbEntity
  8
LC-003-005-----0
 62
     7
370
    25
100
AcDbLine
 10
328.563292
 20
317.249584
 30
0.0
 11
334.506605
 21
323.192897
 31
0.0
  0
LINE
  5
99
330
72
100
AcDbEntity
  8
LC-003-005-----0
 62
     7
370
    25
100
AcDbLine
 10
319.556315
 20
311.071034
 30
0.0
 11
330.234789
 21
321.749508
 31
0.0
  0
LINE
  5
9A
330
72
100
AcDbEntity
  8
LC-003-005-----0
 62
     7
370
    25
100
AcDbLine
 10
330.606556
 20
322.121275
 30
0.0
 11
334.264324
 21
325.779043
 31
0.0
  0
LINE
  5
9B
330
72
100
AcDbEntity
  8
LC-003-005-----0
 62
     7
370
    25
100
AcDbLine
 10
319.556576
 20
313.899722
 30
0.0
 11
327.406491
 21
321.749636
 31
0.0
  0
LINE
  5
9C
330
72
100
AcDbEntity
  8
LC-003-005-----0
 62
     7
370
    25
100
AcDbLine
 10
330.606685
 20
324.949831
 30
0.0
 11
331.6063
 21
325.949445
 31
0.0
  0
LINE
  5
9D
330
72
100
AcDbEntity
  8
LC-003-005-----0
 62
     7
370
    25
100
AcDbLine
 10
319.556837
 20
316.72841
 30
0.0
 11
322.878269
 21
320.049842
 31
0.0
  0
LINE
  5
9E
330
72
100
AcDbEntity
  8
LC-003-005-----0
 62
     7
370
    25
100
AcDbLine
 10
323.356484
 20
320.528057
 30
0.0
 11
324.578192
 21
321.749765
 31
0.0
  0
LINE
  5
9F
330
72
100
AcDbEntity
  8
LC-003-005-----0
 62
     7
370
    25
100
AcDbLine
 10
319.557098
 20
319.557098
 30
0.0
 11
320.049971
 21
320.049971
 31
0.0
  0
ENDBLK
  5
74
330
72
100
AcDbEntity
  8
0
100
AcDbBlockEnd
  0
BLOCK
  5
C3
330
C2
100
AcDbEntity
  8
0
100
AcDbBlockBegin
  2
*X33
 70
     1
 71
     0
 10
0.0
 20
0.0
 30
0.0
  3
*X33
  1

  4
*X3
  0
LINE
  5
C5
330
C2
100
AcDbEntity
  8
LC-003-005-----0
 62
     7
370
    25
100
AcDbLine
 10
260.306731
 20
325.177684
 30
0.0
 11
258.731726
 21
326.752689
 31
0.0
  0
LINE
  5
C6
330
C2
100
AcDbEntity
  8
LC-003-005-----0
 62
     7
370
    25
100
AcDbLine
 10
258.903299
 20
323.752689
 30
0.0
 11
255.903299
 21
326.752689
 31
0.0
  0
LINE
  5
C7
330
C2
100
AcDbEntity
  8
LC-003-005-----0
 62
     7
370
    25
100
AcDbLine
 10
256.074872
 20
323.752689
 30
0.0
 11
253.074872
 21
326.752689
 31
0.0
  0
LINE
  5
C8
330
C2
100
AcDbEntity
  8
LC-003-005-----0
 62
     7
370
    25
100
AcDbLine
 10
253.246445
 20
323.752689
 30
0.0
 11
250.246445
 21
326.752689
 31
0.0
  0
LINE
  5
C9
330
C2
100
AcDbEntity
  8
LC-003-005-----0
 62
     7
370
    25
100
AcDbLine
 10
250.418018
 20
323.752689
 30
0.0
 11
247.418018
 21
326.752689
 31
0.0
  0
LINE
  5
CA
330
C2
100
AcDbEntity
  8
LC-003-005-----0
 62
     7
370
    25
100
AcDbLine
 10
247.589591
 20
323.752689
 30
0.0
 11
244.589591
 21
326.752689
 31
0.0
  0
LINE
  5
CB
330
C2
100
AcDbEntity
  8
LC-003-005-----0
 62
     7
370
    25
100
AcDbLine
 10
244.761163
 20
323.752689
 30
0.0
 11
241.761163
 21
326.752689
 31
0.0
  0
LINE
  5
CC
330
C2
100
AcDbEntity
  8
LC-003-005-----0
 62
     7
370
    25
100
AcDbLine
 10
241.932736
 20
323.752689
 30
0.0
 11
238.932736
 21
326.752689
 31
0.0
  0
LINE
  5
CD
330
C2
100
AcDbEntity
  8
LC-003-005-----0
 62
     7
370
    25
100
AcDbLine
 10
239.104309
 20
323.752689
 30
0.0
 11
236.104309
 21
326.752689
 31
0.0
  0
LINE
  5
CE
330
C2
100
AcDbEntity
  8
LC-003-005-----0
 62
     7
370
    25
100
AcDbLine
 10
236.275882
 20
323.752689
 30
0.0
 11
233.275882
 21
326.752689
 31
0.0
  0
LINE
  5
CF
330
C2
100
AcDbEntity
  8
LC-003-005-----0
 62
     7
370
    25
100
AcDbLine
 10
233.447455
 20
323.752689
 30
0.0
 11
230.447455
 21
326.752689
 31
0.0
  0
LINE
  5
D0
330
C2
100
AcDbEntity
  8
LC-003-005-----0
 62
     7
370
    25
100
AcDbLine
 10
230.619028
 20
323.752689
 30
0.0
 11
227.619028
 21
326.752689
 31
0.0
  0
LINE
  5
D1
330
C2
100
AcDbEntity
  8
LC-003-005-----0
 62
     7
370
    25
100
AcDbLine
 10
227.790601
 20
323.752689
 30
0.0
 11
224.790601
 21
326.752689
 31
0.0
  0
LINE
  5
D2
330
C2
100
AcDbEntity
  8
LC-003-005-----0
 62
     7
370
    25
100
AcDbLine
 10
224.962174
 20
323.752689
 30
0.0
 11
221.962174
 21
326.752689
 31
0.0
  0
LINE
  5
D3
330
C2
100
AcDbEntity
  8
LC-003-005-----0
 62
     7
370
    25
100
AcDbLine
 10
222.133746
 20
323.752689
 30
0.0
 11
219.133746
 21
326.752689
 31
0.0
  0
LINE
  5
D4
330
C2
100
AcDbEntity
  8
LC-003-005-----0
 62
     7
370
    25
100
AcDbLine
 10
219.305319
 20
323.752689
 30
0.0
 11
216.305319
 21
326.752689
 31
0.0
  0
LINE
  5
D5
330
C2
100
AcDbEntity
  8
LC-003-005-----0
 62
     7
370
    25
100
AcDbLine
 10
216.476892
 20
323.752689
 30
0.0
 11
213.476892
 21
326.752689
 31
0.0
  0
LINE
  5
D6
330
C2
100
AcDbEntity
  8
LC-003-005-----0
 62
     7
370
    25
100
AcDbLine
 10
213.648465
 20
323.752689
 30
0.0
 11
210.648465
 21
326.752689
 31
0.0
  0
LINE
  5
D7
330
C2
100
AcDbEntity
  8
LC-003-005-----0
 62
     7
370
    25
100
AcDbLine
 10
210.820038
 20
323.752689
 30
0.0
 11
207.820038
 21
326.752689
 31
0.0
  0
LINE
  5
D8
330
C2
100
AcDbEntity
  8
LC-003-005-----0
 62
     7
370
    25
100
AcDbLine
 10
207.991611
 20
323.752689
 30
0.0
 11
204.991611
 21
326.752689
 31
0.0
  0
LINE
  5
D9
330
C2
100
AcDbEntity
  8
LC-003-005-----0
 62
     7
370
    25
100
AcDbLine
 10
205.163184
 20
323.752689
 30
0.0
 11
202.163184
 21
326.752689
 31
0.0
  0
LINE
  5
DA
330
C2
100
AcDbEntity
  8
LC-003-005-----0
 62
     7
370
    25
100
AcDbLine
 10
202.334757
 20
323.752689
 30
0.0
 11
199.334757
 21
326.752689
 31
0.0
  0
LINE
  5
DB
330
C2
100
AcDbEntity
  8
LC-003-005-----0
 62
     7
370
    25
100
AcDbLine
 10
199.506329
 20
323.752689
 30
0.0
 11
196.506329
 21
326.752689
 31
0.0
  0
LINE
  5
DC
330
C2
100
AcDbEntity
  8
LC-003-005-----0
 62
     7
370
    25
100
AcDbLine
 10
196.677902
 20
323.752689
 30
0.0
 11
193.677902
 21
326.752689
 31
0.0
  0
LINE
  5
DD
330
C2
100
AcDbEntity
  8
LC-003-005-----0
 62
     7
370
    25
100
AcDbLine
 10
193.849475
 20
323.752689
 30
0.0
 11
190.987246
 21
326.614918
 31
0.0
  0
LINE
  5
DE
330
C2
100
AcDbEntity
  8
LC-003-005-----0
 62
     7
370
    25
100
AcDbLine
 10
191.021048
 20
323.752689
 30
0.0
 11
190.987246
 21
323.786491
 31
0.0
  0
ENDBLK
  5
C4
330
C2
100
AcDbEntity
  8
0
100
AcDbBlockEnd
  0
BLOCK
  5
E1
330
E0
100
AcDbEntity
  8
0
100
AcDbBlockBegin
  2
*X44
 70
     1
 71
     0
 10
0.0
 20
0.0
 30
0.0
  3
*X44
  1

  4
*X4
  0
LINE
  5
E3
330
E0
100
AcDbEntity
  8
LC-003-005-----0
 62
     7
370
    25
100
AcDbLine
 10
329.62628
 20
326.568813
 30
0.0
 11
329.445549
 21
326.749544
 31
0.0
  0
LINE
  5
E4
330
E0
100
AcDbEntity
  8
LC-003-005-----0
 62
     7
370
    25
100
AcDbLine
 10
329.61713
 20
323.749536
 30
0.0
 11
326.616994
 21
326.749672
 31
0.0
  0
LINE
  5
E5
330
E0
100
AcDbEntity
  8
LC-003-005-----0
 62
     7
370
    25
100
AcDbLine
 10
326.788574
 20
323.749664
 30
0.0
 11
323.788438
 21
326.749801
 31
0.0
  0
LINE
  5
E6
330
E0
100
AcDbEntity
  8
LC-003-005-----0
 62
     7
370
    25
100
AcDbLine
 10
323.960018
 20
323.749793
 30
0.0
 11
320.959882
 21
326.74993
 31
0.0
  0
LINE
  5
E7
330
E0
100
AcDbEntity
  8
LC-003-005-----0
 62
     7
370
    25
100
AcDbLine
 10
321.131463
 20
323.749922
 30
0.0
 11
318.131326
 21
326.750058
 31
0.0
  0
LINE
  5
E8
330
E0
100
AcDbEntity
  8
LC-003-005-----0
 62
     7
370
    25
100
AcDbLine
 10
318.302907
 20
323.75005
 30
0.0
 11
315.30277
 21
326.750187
 31
0.0
  0
LINE
  5
E9
330
E0
100
AcDbEntity
  8
LC-003-005-----0
 62
     7
370
    25
100
AcDbLine
 10
315.474351
 20
323.750179
 30
0.0
 11
312.474215
 21
326.750316
 31
0.0
  0
LINE
  5
EA
330
E0
100
AcDbEntity
  8
LC-003-005-----0
 62
     7
370
    25
100
AcDbLine
 10
312.645795
 20
323.750308
 30
0.0
 11
309.645659
 21
326.750444
 31
0.0
  0
LINE
  5
EB
330
E0
100
AcDbEntity
  8
LC-003-005-----0
 62
     7
370
    25
100
AcDbLine
 10
309.817239
 20
323.750436
 30
0.0
 11
306.817103
 21
326.750573
 31
0.0
  0
LINE
  5
EC
330
E0
100
AcDbEntity
  8
LC-003-005-----0
 62
     7
370
    25
100
AcDbLine
 10
306.988684
 20
323.750565
 30
0.0
 11
303.988547
 21
326.750702
 31
0.0
  0
LINE
  5
ED
330
E0
100
AcDbEntity
  8
LC-003-005-----0
 62
     7
370
    25
100
AcDbLine
 10
304.160128
 20
323.750694
 30
0.0
 11
301.159991
 21
326.75083
 31
0.0
  0
LINE
  5
EE
330
E0
100
AcDbEntity
  8
LC-003-005-----0
 62
     7
370
    25
100
AcDbLine
 10
301.331572
 20
323.750823
 30
0.0
 11
298.331436
 21
326.750959
 31
0.0
  0
LINE
  5
EF
330
E0
100
AcDbEntity
  8
LC-003-005-----0
 62
     7
370
    25
100
AcDbLine
 10
298.503016
 20
323.750951
 30
0.0
 11
295.50288
 21
326.751088
 31
0.0
  0
LINE
  5
F0
330
E0
100
AcDbEntity
  8
LC-003-005-----0
 62
     7
370
    25
100
AcDbLine
 10
295.67446
 20
323.75108
 30
0.0
 11
292.674324
 21
326.751216
 31
0.0
  0
LINE
  5
F1
330
E0
100
AcDbEntity
  8
LC-003-005-----0
 62
     7
370
    25
100
AcDbLine
 10
292.845905
 20
323.751209
 30
0.0
 11
289.845768
 21
326.751345
 31
0.0
  0
LINE
  5
F2
330
E0
100
AcDbEntity
  8
LC-003-005-----0
 62
     7
370
    25
100
AcDbLine
 10
290.017349
 20
323.751337
 30
0.0
 11
287.017212
 21
326.751474
 31
0.0
  0
LINE
  5
F3
330
E0
100
AcDbEntity
  8
LC-003-005-----0
 62
     7
370
    25
100
AcDbLine
 10
287.188793
 20
323.751466
 30
0.0
 11
284.188657
 21
326.751602
 31
0.0
  0
LINE
  5
F4
330
E0
100
AcDbEntity
  8
LC-003-005-----0
 62
     7
370
    25
100
AcDbLine
 10
284.360237
 20
323.751595
 30
0.0
 11
281.360101
 21
326.751731
 31
0.0
  0
LINE
  5
F5
330
E0
100
AcDbEntity
  8
LC-003-005-----0
 62
     7
370
    25
100
AcDbLine
 10
281.531682
 20
323.751723
 30
0.0
 11
278.531545
 21
326.75186
 31
0.0
  0
LINE
  5
F6
330
E0
100
AcDbEntity
  8
LC-003-005-----0
 62
     7
370
    25
100
AcDbLine
 10
278.703126
 20
323.751852
 30
0.0
 11
275.702989
 21
326.751988
 31
0.0
  0
LINE
  5
F7
330
E0
100
AcDbEntity
  8
LC-003-005-----0
 62
     7
370
    25
100
AcDbLine
 10
275.87457
 20
323.751981
 30
0.0
 11
272.874433
 21
326.752117
 31
0.0
  0
LINE
  5
F8
330
E0
100
AcDbEntity
  8
LC-003-005-----0
 62
     7
370
    25
100
AcDbLine
 10
273.046014
 20
323.752109
 30
0.0
 11
270.045878
 21
326.752246
 31
0.0
  0
LINE
  5
F9
330
E0
100
AcDbEntity
  8
LC-003-005-----0
 62
     7
370
    25
100
AcDbLine
 10
270.217458
 20
323.752238
 30
0.0
 11
267.217322
 21
326.752374
 31
0.0
  0
LINE
  5
FA
330
E0
100
AcDbEntity
  8
LC-003-005-----0
 62
     7
370
    25
100
AcDbLine
 10
267.388903
 20
323.752367
 30
0.0
 11
264.388766
 21
326.752503
 31
0.0
  0
LINE
  5
FB
330
E0
100
AcDbEntity
  8
LC-003-005-----0
 62
     7
370
    25
100
AcDbLine
 10
264.560347
 20
323.752495
 30
0.0
 11
261.56021
 21
326.752632
 31
0.0
  0
LINE
  5
FC
330
E0
100
AcDbEntity
  8
LC-003-005-----0
 62
     7
370
    25
100
AcDbLine
 10
261.731791
 20
323.752624
 30
0.0
 11
260.306731
 21
325.177684
 31
0.0
  0
ENDBLK
  5
E2
330
E0
100
AcDbEntity
  8
0
100
AcDbBlockEnd
  0
BLOCK
  5
115
330
10B
100
AcDbEntity
  8
0
100
AcDbBlockBegin
  2
*D5
 70
     1
 71
     0
 10
0.0
 20
0.0
 30
0.0
  3
*D5
  1

  0
LINE
  5
10C
330
10B
100
AcDbEntity
  8
LC-007-003-----0
 62
     2
370
    -2
100
AcDbLine
 10
185.306767
 20
325.252689
 30
0.0
 11
185.306767
 21
422.37
 31
0.0
  0
LINE
  5
10D
330
10B
100
AcDbEntity
  8
LC-007-003-----0
 62
     2
370
    -2
100
AcDbLine
 10
335.306699
 20
325.249277
 30
0.0
 11
335.306699
 21
422.37
 31
0.0
  0
LINE
  5
10E
330
10B
100
AcDbEntity
  8
LC-007-003-----0
 62
     2
370
    -2
100
AcDbLine
 10
213.306767
 20
418.77
 30
0.0
 11
307.306699
 21
418.77
 31
0.0
  0
SOLID
  5
10F
330
10B
100
AcDbEntity
  8
LC-007-003-----0
 62
     2
100
AcDbTrace
 10
213.306767
 20
423.436667
 30
0.0
 11
213.306767
 21
414.103333
 31
0.0
 12
185.306767
 22
418.77
 32
0.0
 13
185.306767
 23
418.77
 33
0.0
  0
SOLID
  5
110
330
10B
100
AcDbEntity
  8
LC-007-003-----0
 62
     2
100
AcDbTrace
 10
307.306699
 20
414.103333
 30
0.0
 11
307.306699
 21
423.436667
 31
0.0
 12
335.306699
 22
418.77
 32
0.0
 13
335.306699
 23
418.77
 33
0.0
  0
MTEXT
  5
111
330
10B
100
AcDbEntity
  8
LC-007-003-----0
 62
     2
100
AcDbMText
 10
303.981797
 20
449.57
 30
0.0
 40
28.0
 41
0.0
 71
     5
 72
     1
  1
\A1;150
  7
LCTX15-400-0-0pDIN-Schrift
 73
     1
 44
1.0
  0
POINT
  5
112
330
10B
100
AcDbEntity
  8
Defpoints
 62
     0
100
AcDbPoint
 10
185.306767
 20
325.252689
 30
0.0
  0
POINT
  5
113
330
10B
100
AcDbEntity
  8
Defpoints
 62
     0
100
AcDbPoint
 10
335.306699
 20
325.249277
 30
0.0
  0
POINT
  5
114
330
10B
100
AcDbEntity
  8
Defpoints
 62
     0
100
AcDbPoint
 10
335.306699
 20
418.77
 30
0.0
  0
ENDBLK
  5
116
330
10B
100
AcDbEntity
  8
0
100
AcDbBlockEnd
  0
BLOCK
  5
122
330
118
100
AcDbEntity
  8
0
100
AcDbBlockBegin
  2
*D6
 70
     1
 71
     0
 10
0.0
 20
0.0
 30
0.0
  3
*D6
  1

  0
LINE
  5
119
330
118
100
AcDbEntity
  8
LC-007-003-----0
 62
     2
370
    -2
100
AcDbLine
 10
204.306156
 20
239.752566
 30
0.0
 11
204.306156
 21
172.224
 31
0.0
  0
LINE
  5
11A
330
118
100
AcDbEntity
  8
LC-007-003-----0
 62
     2
370
    -2
100
AcDbLine
 10
316.303421
 20
239.750018
 30
0.0
 11
316.303421
 21
172.224
 31
0.0
  0
LINE
  5
11B
330
118
100
AcDbEntity
  8
LC-007-003-----0
 62
     2
370
    -2
100
AcDbLine
 10
232.306156
 20
175.824
 30
0.0
 11
288.303421
 21
175.824
 31
0.0
  0
SOLID
  5
11C
330
118
100
AcDbEntity
  8
LC-007-003-----0
 62
     2
100
AcDbTrace
 10
232.306156
 20
180.490667
 30
0.0
 11
232.306156
 21
171.157333
 31
0.0
 12
204.306156
 22
175.824
 32
0.0
 13
204.306156
 23
175.824
 33
0.0
  0
SOLID
  5
11D
330
118
100
AcDbEntity
  8
LC-007-003-----0
 62
     2
100
AcDbTrace
 10
288.303421
 20
171.157333
 30
0.0
 11
288.303421
 21
180.490667
 31
0.0
 12
316.303421
 22
175.824
 32
0.0
 13
316.303421
 23
175.824
 33
0.0
  0
MTEXT
  5
11E
330
118
100
AcDbEntity
  8
LC-007-003-----0
 62
     2
100
AcDbMText
 10
260.738648
 20
206.624
 30
0.0
 40
28.0
 41
0.0
 71
     5
 72
     1
  1
\A1;DN100
  7
LCTX15-400-0-0pDIN-Schrift
 73
     1
 44
1.0
  0
POINT
  5
11F
330
118
100
AcDbEntity
  8
Defpoints
 62
     0
100
AcDbPoint
 10
204.306156
 20
239.752566
 30
0.0
  0
POINT
  5
120
330
118
100
AcDbEntity
  8
Defpoints
 62
     0
100
AcDbPoint
 10
316.303421
 20
239.750018
 30
0.0
  0
POINT
  5
121
330
118
100
AcDbEntity
  8
Defpoints
 62
     0
100
AcDbPoint
 10
316.303421
 20
175.824
 30
0.0
  0
ENDBLK
  5
123
330
118
100
AcDbEntity
  8
0
100
AcDbBlockEnd
  0
BLOCK
  5
131
330
127
100
AcDbEntity
  8
0
100
AcDbBlockBegin
  2
*D7
 70
     1
 71
     0
 10
0.0
 20
0.0
 30
0.0
  3
*D7
  1

  0
LINE
  5
128
330
127
100
AcDbEntity
  8
LC-007-003-----0
 62
     2
370
    -2
100
AcDbLine
 10
204.30494
 20
301.750115
 30
0.0
 11
153.2
 21
301.750115
 31
0.0
  0
LINE
  5
129
330
127
100
AcDbEntity
  8
LC-007-003-----0
 62
     2
370
    -2
100
AcDbLine
 10
206.802388
 20
234.752566
 30
0.0
 11
153.2
 21
234.752566
 31
0.0
  0
LINE
  5
12A
330
127
100
AcDbEntity
  8
LC-007-003-----0
 62
     2
370
    -2
100
AcDbLine
 10
156.8
 20
273.750115
 30
0.0
 11
156.8
 21
262.752566
 31
0.0
  0
SOLID
  5
12B
330
127
100
AcDbEntity
  8
LC-007-003-----0
 62
     2
100
AcDbTrace
 10
161.466667
 20
273.750115
 30
0.0
 11
152.133333
 21
273.750115
 31
0.0
 12
156.8
 22
301.750115
 32
0.0
 13
156.8
 23
301.750115
 33
0.0
  0
SOLID
  5
12C
330
127
100
AcDbEntity
  8
LC-007-003-----0
 62
     2
100
AcDbTrace
 10
152.133333
 20
262.752566
 30
0.0
 11
161.466667
 21
262.752566
 31
0.0
 12
156.8
 22
234.752566
 32
0.0
 13
156.8
 23
234.752566
 33
0.0
  0
MTEXT
  5
12D
330
127
100
AcDbEntity
  8
LC-007-003-----0
 62
     2
100
AcDbMText
 10
126.0
 20
268.25134
 30
0.0
 40
28.0
 41
0.0
 71
     5
 72
     1
  1
\A1;65
  7
LCTX15-400-0-0pDIN-Schrift
 11
6.123031769111886E-17
 21
1.0
 31
0.0
 73
     1
 44
1.0
  0
POINT
  5
12E
330
127
100
AcDbEntity
  8
Defpoints
 62
     0
100
AcDbPoint
 10
204.30494
 20
301.750115
 30
0.0
  0
POINT
  5
12F
330
127
100
AcDbEntity
  8
Defpoints
 62
     0
100
AcDbPoint
 10
206.802388
 20
234.752566
 30
0.0
  0
POINT
  5
130
330
127
100
AcDbEntity
  8
Defpoints
 62
     0
100
AcDbPoint
 10
156.8
 20
234.752566
 30
0.0
  0
ENDBLK
  5
132
330
127
100
AcDbEntity
  8
0
100
AcDbBlockEnd
  0
BLOCK
  5
13E
330
134
100
AcDbEntity
  8
0
100
AcDbBlockBegin
  2
*D8
 70
     1
 71
     0
 10
0.0
 20
0.0
 30
0.0
  3
*D8
  1

  0
LINE
  5
135
330
134
100
AcDbEntity
  8
LC-007-003-----0
 62
     2
370
    -2
100
AcDbLine
 10
186.806767
 20
326.752689
 30
0.0
 11
102.096141
 21
326.752689
 31
0.0
  0
LINE
  5
136
330
134
100
AcDbEntity
  8
LC-007-003-----0
 62
     2
370
    -2
100
AcDbLine
 10
206.802388
 20
234.752566
 30
0.0
 11
102.096141
 21
234.752566
 31
0.0
  0
LINE
  5
137
330
134
100
AcDbEntity
  8
LC-007-003-----0
 62
     2
370
    -2
100
AcDbLine
 10
105.696141
 20
298.752689
 30
0.0
 11
105.696141
 21
262.752566
 31
0.0
  0
SOLID
  5
138
330
134
100
AcDbEntity
  8
LC-007-003-----0
 62
     2
100
AcDbTrace
 10
110.362807
 20
298.752689
 30
0.0
 11
101.029474
 21
298.752689
 31
0.0
 12
105.696141
 22
326.752689
 32
0.0
 13
105.696141
 23
326.752689
 33
0.0
  0
SOLID
  5
139
330
134
100
AcDbEntity
  8
LC-007-003-----0
 62
     2
100
AcDbTrace
 10
101.029474
 20
262.752566
 30
0.0
 11
110.362807
 21
262.752566
 31
0.0
 12
105.696141
 22
234.752566
 32
0.0
 13
105.696141
 23
234.752566
 33
0.0
  0
MTEXT
  5
13A
330
134
100
AcDbEntity
  8
LC-007-003-----0
 62
     2
100
AcDbMText
 10
74.896141
 20
276.21
 30
0.0
 40
28.0
 41
0.0
 71
     5
 72
     1
  1
\A1;92
  7
LCTX15-400-0-0pDIN-Schrift
 11
6.123031769111886E-17
 21
1.0
 31
0.0
 73
     1
 44
1.0
  0
POINT
  5
13B
330
134
100
AcDbEntity
  8
Defpoints
 62
     0
100
AcDbPoint
 10
186.806767
 20
326.752689
 30
0.0
  0
POINT
  5
13C
330
134
100
AcDbEntity
  8
Defpoints
 62
     0
100
AcDbPoint
 10
206.802388
 20
234.752566
 30
0.0
  0
POINT
  5
13D
330
134
100
AcDbEntity
  8
Defpoints
 62
     0
100
AcDbPoint
 10
105.696141
 20
234.752566
 30
0.0
  0
ENDBLK
  5
13F
330
134
100
AcDbEntity
  8
0
100
AcDbBlockEnd
  0
BLOCK
  5
1F0
330
1EF
100
AcDbEntity
  8
0
100
AcDbBlockBegin
  2
*X59
 70
     1
 71
     0
 10
0.0
 20
0.0
 30
0.0
  3
*X59
  1

  4
*X5
  0
LINE
  5
1F2
330
1EF
100
AcDbEntity
  8
LC-003-005-----0
 62
     7
370
    25
100
AcDbLine
 10
312.782288
 20
293.831827
 30
0.0
 11
313.414195
 21
294.463733
 31
0.0
  0
LINE
  5
1F3
330
1EF
100
AcDbEntity
  8
LC-003-005-----0
 62
     7
370
    25
100
AcDbLine
 10
312.158322
 20
293.490703
 30
0.0
 11
313.688008
 21
295.020389
 31
0.0
  0
LINE
  5
1F4
330
1EF
100
AcDbEntity
  8
LC-003-005-----0
 62
     7
370
    25
100
AcDbLine
 10
311.734749
 20
293.349973
 30
0.0
 11
313.778746
 21
295.393969
 31
0.0
  0
LINE
  5
1F5
330
1EF
100
AcDbEntity
  8
LC-003-005-----0
 62
     7
370
    25
100
AcDbLine
 10
311.381903
 20
293.27997
 30
0.0
 11
313.805768
 21
295.703834
 31
0.0
  0
LINE
  5
1F6
330
1EF
100
AcDbEntity
  8
LC-003-005-----0
 62
     7
370
    25
100
AcDbLine
 10
311.070433
 20
293.251342
 30
0.0
 11
313.806198
 21
295.987107
 31
0.0
  0
LINE
  5
1F7
330
1EF
100
AcDbEntity
  8
LC-003-005-----0
 62
     7
370
    25
100
AcDbLine
 10
310.78776
 20
293.251512
 30
0.0
 11
313.806198
 21
296.26995
 31
0.0
  0
LINE
  5
1F8
330
1EF
100
AcDbEntity
  8
LC-003-005-----0
 62
     7
370
    25
100
AcDbLine
 10
310.527104
 20
293.273699
 30
0.0
 11
313.806198
 21
296.552792
 31
0.0
  0
LINE
  5
1F9
330
1EF
100
AcDbEntity
  8
LC-003-005-----0
 62
     7
370
    25
100
AcDbLine
 10
310.284327
 20
293.313765
 30
0.0
 11
313.806198
 21
296.835635
 31
0.0
  0
LINE
  5
1FA
330
1EF
100
AcDbEntity
  8
LC-003-005-----0
 62
     7
370
    25
100
AcDbLine
 10
310.056697
 20
293.368977
 30
0.0
 11
313.806198
 21
297.118478
 31
0.0
  0
LINE
  5
1FB
330
1EF
100
AcDbEntity
  8
LC-003-005-----0
 62
     7
370
    25
100
AcDbLine
 10
309.842314
 20
293.437437
 30
0.0
 11
313.806198
 21
297.40132
 31
0.0
  0
LINE
  5
1FC
330
1EF
100
AcDbEntity
  8
LC-003-005-----0
 62
     7
370
    25
100
AcDbLine
 10
309.639815
 20
293.51778
 30
0.0
 11
313.806198
 21
297.684163
 31
0.0
  0
LINE
  5
1FD
330
1EF
100
AcDbEntity
  8
LC-003-005-----0
 62
     7
370
    25
100
AcDbLine
 10
309.448197
 20
293.609005
 30
0.0
 11
313.796672
 21
297.95748
 31
0.0
  0
LINE
  5
1FE
330
1EF
100
AcDbEntity
  8
LC-003-005-----0
 62
     7
370
    25
100
AcDbLine
 10
309.266721
 20
293.710372
 30
0.0
 11
313.760579
 21
298.20423
 31
0.0
  0
LINE
  5
1FF
330
1EF
100
AcDbEntity
  8
LC-003-005-----0
 62
     7
370
    25
100
AcDbLine
 10
309.094844
 20
293.821338
 30
0.0
 11
313.703043
 21
298.429537
 31
0.0
  0
LINE
  5
200
330
1EF
100
AcDbEntity
  8
LC-003-005-----0
 62
     7
370
    25
100
AcDbLine
 10
308.93218
 20
293.941516
 30
0.0
 11
313.627655
 21
298.636991
 31
0.0
  0
LINE
  5
201
330
1EF
100
AcDbEntity
  8
LC-003-005-----0
 62
     7
370
    25
100
AcDbLine
 10
308.78025
 20
294.072429
 30
0.0
 11
313.536687
 21
298.828866
 31
0.0
  0
LINE
  5
202
330
1EF
100
AcDbEntity
  8
LC-003-005-----0
 62
     7
370
    25
100
AcDbLine
 10
308.640653
 20
294.215675
 30
0.0
 11
313.431623
 21
299.006645
 31
0.0
  0
LINE
  5
203
330
1EF
100
AcDbEntity
  8
LC-003-005-----0
 62
     7
370
    25
100
AcDbLine
 10
308.513433
 20
294.371297
 30
0.0
 11
313.313414
 21
299.171279
 31
0.0
  0
LINE
  5
204
330
1EF
100
AcDbEntity
  8
LC-003-005-----0
 62
     7
370
    25
100
AcDbLine
 10
308.398921
 20
294.539628
 30
0.0
 11
313.182623
 21
299.32333
 31
0.0
  0
LINE
  5
205
330
1EF
100
AcDbEntity
  8
LC-003-005-----0
 62
     7
370
    25
100
AcDbLine
 10
308.297783
 20
294.721333
 30
0.0
 11
313.039498
 21
299.463047
 31
0.0
  0
LINE
  5
206
330
1EF
100
AcDbEntity
  8
LC-003-005-----0
 62
     7
370
    25
100
AcDbLine
 10
308.211104
 20
294.917496
 30
0.0
 11
312.884147
 21
299.590539
 31
0.0
  0
LINE
  5
207
330
1EF
100
AcDbEntity
  8
LC-003-005-----0
 62
     7
370
    25
100
AcDbLine
 10
308.140558
 20
295.129793
 30
0.0
 11
312.718872
 21
299.708107
 31
0.0
  0
LINE
  5
208
330
1EF
100
AcDbEntity
  8
LC-003-005-----0
 62
     7
370
    25
100
AcDbLine
 10
308.088727
 20
295.360805
 30
0.0
 11
312.544288
 21
299.816366
 31
0.0
  0
LINE
  5
209
330
1EF
100
AcDbEntity
  8
LC-003-005-----0
 62
     7
370
    25
100
AcDbLine
 10
308.059743
 20
295.614664
 30
0.0
 11
312.359966
 21
299.914887
 31
0.0
  0
LINE
  5
20A
330
1EF
100
AcDbEntity
  8
LC-003-005-----0
 62
     7
370
    25
100
AcDbLine
 10
308.055857
 20
295.893621
 30
0.0
 11
312.165313
 21
300.003077
 31
0.0
  0
LINE
  5
20B
330
1EF
100
AcDbEntity
  8
LC-003-005-----0
 62
     7
370
    25
100
AcDbLine
 10
308.055857
 20
296.176463
 30
0.0
 11
311.959522
 21
300.080128
 31
0.0
  0
LINE
  5
20C
330
1EF
100
AcDbEntity
  8
LC-003-005-----0
 62
     7
370
    25
100
AcDbLine
 10
308.055857
 20
296.459306
 30
0.0
 11
311.741498
 21
300.144947
 31
0.0
  0
LINE
  5
20D
330
1EF
100
AcDbEntity
  8
LC-003-005-----0
 62
     7
370
    25
100
AcDbLine
 10
308.055857
 20
296.742149
 30
0.0
 11
311.509748
 21
300.196039
 31
0.0
  0
LINE
  5
20E
330
1EF
100
AcDbEntity
  8
LC-003-005-----0
 62
     7
370
    25
100
AcDbLine
 10
308.055857
 20
297.024991
 30
0.0
 11
311.26217
 21
300.231304
 31
0.0
  0
LINE
  5
20F
330
1EF
100
AcDbEntity
  8
LC-003-005-----0
 62
     7
370
    25
100
AcDbLine
 10
308.055857
 20
297.307834
 30
0.0
 11
310.995706
 21
300.247683
 31
0.0
  0
LINE
  5
210
330
1EF
100
AcDbEntity
  8
LC-003-005-----0
 62
     7
370
    25
100
AcDbLine
 10
308.055857
 20
297.590677
 30
0.0
 11
310.705634
 21
300.240454
 31
0.0
  0
LINE
  5
211
330
1EF
100
AcDbEntity
  8
LC-003-005-----0
 62
     7
370
    25
100
AcDbLine
 10
308.059465
 20
297.877127
 30
0.0
 11
310.383986
 21
300.201648
 31
0.0
  0
LINE
  5
212
330
1EF
100
AcDbEntity
  8
LC-003-005-----0
 62
     7
370
    25
100
AcDbLine
 10
308.100909
 20
298.201415
 30
0.0
 11
310.015209
 21
300.115714
 31
0.0
  0
LINE
  5
213
330
1EF
100
AcDbEntity
  8
LC-003-005-----0
 62
     7
370
    25
100
AcDbLine
 10
308.221042
 20
298.60439
 30
0.0
 11
309.558887
 21
299.942235
 31
0.0
  0
ENDBLK
  5
1F1
330
1EF
100
AcDbEntity
  8
0
100
AcDbBlockEnd
  0
BLOCK
  5
232
330
231
100
AcDbEntity
  8
0
100
AcDbBlockBegin
  2
*X610
 70
     1
 71
     0
 10
0.0
 20
0.0
 30
0.0
  3
*X610
  1

  4
*X6
  0
LINE
  5
234
330
231
100
AcDbEntity
  8
LC-003-005-----0
 62
     7
370
    25
100
AcDbLine
 10
211.50517
 20
293.812399
 30
0.0
 11
212.182177
 21
294.489407
 31
0.0
  0
LINE
  5
235
330
231
100
AcDbEntity
  8
LC-003-005-----0
 62
     7
370
    25
100
AcDbLine
 10
210.89467
 20
293.484742
 30
0.0
 11
212.443224
 21
295.033296
 31
0.0
  0
LINE
  5
236
330
231
100
AcDbEntity
  8
LC-003-005-----0
 62
     7
370
    25
100
AcDbLine
 10
210.474098
 20
293.347013
 30
0.0
 11
212.531268
 21
295.404182
 31
0.0
  0
LINE
  5
237
330
231
100
AcDbEntity
  8
LC-003-005-----0
 62
     7
370
    25
100
AcDbLine
 10
210.122812
 20
293.278569
 30
0.0
 11
212.556875
 21
295.712632
 31
0.0
  0
LINE
  5
238
330
231
100
AcDbEntity
  8
LC-003-005-----0
 62
     7
370
    25
100
AcDbLine
 10
209.812365
 20
293.250965
 30
0.0
 11
212.557152
 21
295.995752
 31
0.0
  0
LINE
  5
239
330
231
100
AcDbEntity
  8
LC-003-005-----0
 62
     7
370
    25
100
AcDbLine
 10
209.530447
 20
293.251889
 30
0.0
 11
212.557152
 21
296.278594
 31
0.0
  0
LINE
  5
23A
330
231
100
AcDbEntity
  8
LC-003-005-----0
 62
     7
370
    25
100
AcDbLine
 10
209.270389
 20
293.274675
 30
0.0
 11
212.557152
 21
296.561437
 31
0.0
  0
LINE
  5
23B
330
231
100
AcDbEntity
  8
LC-003-005-----0
 62
     7
370
    25
100
AcDbLine
 10
209.028111
 20
293.315239
 30
0.0
 11
212.557152
 21
296.84428
 31
0.0
  0
LINE
  5
23C
330
231
100
AcDbEntity
  8
LC-003-005-----0
 62
     7
370
    25
100
AcDbLine
 10
208.80091
 20
293.370881
 30
0.0
 11
212.557152
 21
297.127123
 31
0.0
  0
LINE
  5
23D
330
231
100
AcDbEntity
  8
LC-003-005-----0
 62
     7
370
    25
100
AcDbLine
 10
208.586909
 20
293.439722
 30
0.0
 11
212.557152
 21
297.409965
 31
0.0
  0
LINE
  5
23E
330
231
100
AcDbEntity
  8
LC-003-005-----0
 62
     7
370
    25
100
AcDbLine
 10
208.384755
 20
293.520411
 30
0.0
 11
212.557152
 21
297.692808
 31
0.0
  0
LINE
  5
23F
330
231
100
AcDbEntity
  8
LC-003-005-----0
 62
     7
370
    25
100
AcDbLine
 10
208.193457
 20
293.611956
 30
0.0
 11
212.54689
 21
297.965389
 31
0.0
  0
LINE
  5
240
330
231
100
AcDbEntity
  8
LC-003-005-----0
 62
     7
370
    25
100
AcDbLine
 10
208.012281
 20
293.713623
 30
0.0
 11
212.510069
 21
298.21141
 31
0.0
  0
LINE
  5
241
330
231
100
AcDbEntity
  8
LC-003-005-----0
 62
     7
370
    25
100
AcDbLine
 10
207.840691
 20
293.824876
 30
0.0
 11
212.451943
 21
298.436127
 31
0.0
  0
LINE
  5
242
330
231
100
AcDbEntity
  8
LC-003-005-----0
 62
     7
370
    25
100
AcDbLine
 10
207.678305
 20
293.945333
 30
0.0
 11
212.376049
 21
298.643077
 31
0.0
  0
LINE
  5
243
330
231
100
AcDbEntity
  8
LC-003-005-----0
 62
     7
370
    25
100
AcDbLine
 10
207.526754
 20
294.076624
 30
0.0
 11
212.284633
 21
298.834503
 31
0.0
  0
LINE
  5
244
330
231
100
AcDbEntity
  8
LC-003-005-----0
 62
     7
370
    25
100
AcDbLine
 10
207.387534
 20
294.220247
 30
0.0
 11
212.179155
 21
299.011868
 31
0.0
  0
LINE
  5
245
330
231
100
AcDbEntity
  8
LC-003-005-----0
 62
     7
370
    25
100
AcDbLine
 10
207.260696
 20
294.376251
 30
0.0
 11
212.060555
 21
299.17611
 31
0.0
  0
LINE
  5
246
330
231
100
AcDbEntity
  8
LC-003-005-----0
 62
     7
370
    25
100
AcDbLine
 10
207.146581
 20
294.544979
 30
0.0
 11
211.929385
 21
299.327783
 31
0.0
  0
LINE
  5
247
330
231
100
AcDbEntity
  8
LC-003-005-----0
 62
     7
370
    25
100
AcDbLine
 10
207.045866
 20
294.727107
 30
0.0
 11
211.785883
 21
299.467124
 31
0.0
  0
LINE
  5
248
330
231
100
AcDbEntity
  8
LC-003-005-----0
 62
     7
370
    25
100
AcDbLine
 10
206.959652
 20
294.923735
 30
0.0
 11
211.630184
 21
299.594267
 31
0.0
  0
LINE
  5
249
330
231
100
AcDbEntity
  8
LC-003-005-----0
 62
     7
370
    25
100
AcDbLine
 10
206.889634
 20
295.13656
 30
0.0
 11
211.464629
 21
299.711556
 31
0.0
  0
LINE
  5
24A
330
231
100
AcDbEntity
  8
LC-003-005-----0
 62
     7
370
    25
100
AcDbLine
 10
206.83843
 20
295.368199
 30
0.0
 11
211.289755
 21
299.819524
 31
0.0
  0
LINE
  5
24B
330
231
100
AcDbEntity
  8
LC-003-005-----0
 62
     7
370
    25
100
AcDbLine
 10
206.810235
 20
295.622847
 30
0.0
 11
211.105127
 21
299.917739
 31
0.0
  0
LINE
  5
24C
330
231
100
AcDbEntity
  8
LC-003-005-----0
 62
     7
370
    25
100
AcDbLine
 10
206.806811
 20
295.902265
 30
0.0
 11
210.910147
 21
300.005601
 31
0.0
  0
LINE
  5
24D
330
231
100
AcDbEntity
  8
LC-003-005-----0
 62
     7
370
    25
100
AcDbLine
 10
206.806811
 20
296.185108
 30
0.0
 11
210.703999
 21
300.082296
 31
0.0
  0
LINE
  5
24E
330
231
100
AcDbEntity
  8
LC-003-005-----0
 62
     7
370
    25
100
AcDbLine
 10
206.806811
 20
296.467951
 30
0.0
 11
210.485581
 21
300.146721
 31
0.0
  0
LINE
  5
24F
330
231
100
AcDbEntity
  8
LC-003-005-----0
 62
     7
370
    25
100
AcDbLine
 10
206.806811
 20
296.750793
 30
0.0
 11
210.253381
 21
300.197364
 31
0.0
  0
LINE
  5
250
330
231
100
AcDbEntity
  8
LC-003-005-----0
 62
     7
370
    25
100
AcDbLine
 10
206.806811
 20
297.033636
 30
0.0
 11
210.005278
 21
300.232103
 31
0.0
  0
LINE
  5
251
330
231
100
AcDbEntity
  8
LC-003-005-----0
 62
     7
370
    25
100
AcDbLine
 10
206.806811
 20
297.316479
 30
0.0
 11
209.738174
 21
300.247842
 31
0.0
  0
LINE
  5
252
330
231
100
AcDbEntity
  8
LC-003-005-----0
 62
     7
370
    25
100
AcDbLine
 10
206.806811
 20
297.599322
 30
0.0
 11
209.447278
 21
300.239789
 31
0.0
  0
LINE
  5
253
330
231
100
AcDbEntity
  8
LC-003-005-----0
 62
     7
370
    25
100
AcDbLine
 10
206.810951
 20
297.886305
 30
0.0
 11
209.124478
 21
300.199832
 31
0.0
  0
LINE
  5
254
330
231
100
AcDbEntity
  8
LC-003-005-----0
 62
     7
370
    25
100
AcDbLine
 10
206.854069
 20
298.212266
 30
0.0
 11
208.753848
 21
300.112044
 31
0.0
  0
LINE
  5
255
330
231
100
AcDbEntity
  8
LC-003-005-----0
 62
     7
370
    25
100
AcDbLine
 10
206.977875
 20
298.618914
 30
0.0
 11
208.293439
 21
299.934478
 31
0.0
  0
ENDBLK
  5
233
330
231
100
AcDbEntity
  8
0
100
AcDbBlockEnd
  0
BLOCK
  5
25C
330
25B
100
AcDbEntity
  8
0
100
AcDbBlockBegin
  2
*X711
 70
     1
 71
     0
 10
0.0
 20
0.0
 30
0.0
  3
*X711
  1

  4
*X7
  0
LINE
  5
25E
330
25B
100
AcDbEntity
  8
LC-003-005-----0
 62
     7
370
    25
100
AcDbLine
 10
277.257992
 20
316.855972
 30
0.0
 11
277.699026
 21
317.297006
 31
0.0
  0
LINE
  5
25F
330
25B
100
AcDbEntity
  8
LC-003-005-----0
 62
     7
370
    25
100
AcDbLine
 10
276.869484
 20
316.750306
 30
0.0
 11
277.804692
 21
317.685514
 31
0.0
  0
LINE
  5
260
330
25B
100
AcDbEntity
  8
LC-003-005-----0
 62
     7
370
    25
100
AcDbLine
 10
276.605176
 20
316.768841
 30
0.0
 11
277.786157
 21
317.949822
 31
0.0
  0
LINE
  5
261
330
25B
100
AcDbEntity
  8
LC-003-005-----0
 62
     7
370
    25
100
AcDbLine
 10
276.391897
 20
316.838405
 30
0.0
 11
277.716593
 21
318.163101
 31
0.0
  0
LINE
  5
262
330
25B
100
AcDbEntity
  8
LC-003-005-----0
 62
     7
370
    25
100
AcDbLine
 10
276.213731
 20
316.943081
 30
0.0
 11
277.611916
 21
318.341267
 31
0.0
  0
LINE
  5
263
330
25B
100
AcDbEntity
  8
LC-003-005-----0
 62
     7
370
    25
100
AcDbLine
 10
276.065175
 20
317.077369
 30
0.0
 11
277.477629
 21
318.489823
 31
0.0
  0
LINE
  5
264
330
25B
100
AcDbEntity
  8
LC-003-005-----0
 62
     7
370
    25
100
AcDbLine
 10
275.945304
 20
317.24034
 30
0.0
 11
277.314658
 21
318.609694
 31
0.0
  0
LINE
  5
265
330
25B
100
AcDbEntity
  8
LC-003-005-----0
 62
     7
370
    25
100
AcDbLine
 10
275.857047
 20
317.434926
 30
0.0
 11
277.120072
 21
318.697951
 31
0.0
  0
LINE
  5
266
330
25B
100
AcDbEntity
  8
LC-003-005-----0
 62
     7
370
    25
100
AcDbLine
 10
275.809706
 20
317.670427
 30
0.0
 11
276.884571
 21
318.745292
 31
0.0
  0
LINE
  5
267
330
25B
100
AcDbEntity
  8
LC-003-005-----0
 62
     7
370
    25
100
AcDbLine
 10
275.833079
 20
317.976643
 30
0.0
 11
276.578355
 21
318.721919
 31
0.0
  0
ENDBLK
  5
25D
330
25B
100
AcDbEntity
  8
0
100
AcDbBlockEnd
  0
BLOCK
  5
283
330
282
100
AcDbEntity
  8
0
100
AcDbBlockBegin
  2
*X812
 70
     1
 71
     0
 10
0.0
 20
0.0
 30
0.0
  3
*X812
  1

  4
*X8
  0
LINE
  5
285
330
282
100
AcDbEntity
  8
LC-003-005-----0
 62
     7
370
    25
100
AcDbLine
 10
308.718894
 20
291.748331
 30
0.0
 11
310.218894
 21
293.248331
 31
0.0
  0
LINE
  5
286
330
282
100
AcDbEntity
  8
LC-003-005-----0
 62
     7
370
    25
100
AcDbLine
 10
306.306504
 20
292.164369
 30
0.0
 11
308.056028
 21
293.913892
 31
0.0
  0
LINE
  5
287
330
282
100
AcDbEntity
  8
LC-003-005-----0
 62
     7
370
    25
100
AcDbLine
 10
318.390467
 20
304.248331
 30
0.0
 11
318.967419
 21
304.825284
 31
0.0
  0
LINE
  5
288
330
282
100
AcDbEntity
  8
LC-003-005-----0
 62
     7
370
    25
100
AcDbLine
 10
306.306504
 20
294.992796
 30
0.0
 11
308.056028
 21
296.742319
 31
0.0
  0
LINE
  5
289
330
282
100
AcDbEntity
  8
LC-003-005-----0
 62
     7
370
    25
100
AcDbLine
 10
315.56204
 20
304.248331
 30
0.0
 11
318.06204
 21
306.748331
 31
0.0
  0
LINE
  5
28A
330
282
100
AcDbEntity
  8
LC-003-005-----0
 62
     7
370
    25
100
AcDbLine
 10
306.306504
 20
297.821223
 30
0.0
 11
308.056028
 21
299.570746
 31
0.0
  0
LINE
  5
28B
330
282
100
AcDbEntity
  8
LC-003-005-----0
 62
     7
370
    25
100
AcDbLine
 10
308.733613
 20
300.248331
 30
0.0
 11
310.556504
 21
302.071223
 31
0.0
  0
LINE
  5
28C
330
282
100
AcDbEntity
  8
LC-003-005-----0
 62
     7
370
    25
100
AcDbLine
 10
312.733613
 20
304.248331
 30
0.0
 11
315.233613
 21
306.748331
 31
0.0
  0
LINE
  5
28D
330
282
100
AcDbEntity
  8
LC-003-005-----0
 62
     7
370
    25
100
AcDbLine
 10
306.306504
 20
300.64965
 30
0.0
 11
312.405185
 21
306.748331
 31
0.0
  0
LINE
  5
28E
330
282
100
AcDbEntity
  8
LC-003-005-----0
 62
     7
370
    25
100
AcDbLine
 10
306.306504
 20
303.478077
 30
0.0
 11
309.576758
 21
306.748331
 31
0.0
  0
LINE
  5
28F
330
282
100
AcDbEntity
  8
LC-003-005-----0
 62
     7
370
    25
100
AcDbLine
 10
306.306504
 20
306.306504
 30
0.0
 11
308.306504
 21
308.306504
 31
0.0
  0
LINE
  5
290
330
282
100
AcDbEntity
  8
LC-003-005-----0
 62
     7
370
    25
100
AcDbLine
 10
306.306504
 20
309.134932
 30
0.0
 11
308.306504
 21
311.134932
 31
0.0
  0
LINE
  5
291
330
282
100
AcDbEntity
  8
LC-003-005-----0
 62
     7
370
    25
100
AcDbLine
 10
306.299297
 20
311.956152
 30
0.0
 11
307.948757
 21
313.605611
 31
0.0
  0
LINE
  5
292
330
282
100
AcDbEntity
  8
LC-003-005-----0
 62
     7
370
    25
100
AcDbLine
 10
305.405986
 20
313.891268
 30
0.0
 11
306.820244
 21
315.305526
 31
0.0
  0
LINE
  5
293
330
282
100
AcDbEntity
  8
LC-003-005-----0
 62
     7
370
    25
100
AcDbLine
 10
303.431997
 20
314.745705
 30
0.0
 11
305.101364
 21
316.415073
 31
0.0
  0
LINE
  5
294
330
282
100
AcDbEntity
  8
LC-003-005-----0
 62
     7
370
    25
100
AcDbLine
 10
300.606196
 20
314.748331
 30
0.0
 11
302.606196
 21
316.748331
 31
0.0
  0
LINE
  5
295
330
282
100
AcDbEntity
  8
LC-003-005-----0
 62
     7
370
    25
100
AcDbLine
 10
297.777768
 20
314.748331
 30
0.0
 11
299.777768
 21
316.748331
 31
0.0
  0
LINE
  5
296
330
282
100
AcDbEntity
  8
LC-003-005-----0
 62
     7
370
    25
100
AcDbLine
 10
294.949341
 20
314.748331
 30
0.0
 11
296.949341
 21
316.748331
 31
0.0
  0
LINE
  5
297
330
282
100
AcDbEntity
  8
LC-003-005-----0
 62
     7
370
    25
100
AcDbLine
 10
292.120914
 20
314.748331
 30
0.0
 11
294.120914
 21
316.748331
 31
0.0
  0
LINE
  5
298
330
282
100
AcDbEntity
  8
LC-003-005-----0
 62
     7
370
    25
100
AcDbLine
 10
289.292487
 20
314.748331
 30
0.0
 11
291.292487
 21
316.748331
 31
0.0
  0
LINE
  5
299
330
282
100
AcDbEntity
  8
LC-003-005-----0
 62
     7
370
    25
100
AcDbLine
 10
286.46406
 20
314.748331
 30
0.0
 11
288.46406
 21
316.748331
 31
0.0
  0
LINE
  5
29A
330
282
100
AcDbEntity
  8
LC-003-005-----0
 62
     7
370
    25
100
AcDbLine
 10
283.635633
 20
314.748331
 30
0.0
 11
285.635633
 21
316.748331
 31
0.0
  0
LINE
  5
29B
330
282
100
AcDbEntity
  8
LC-003-005-----0
 62
     7
370
    25
100
AcDbLine
 10
280.807206
 20
314.748331
 30
0.0
 11
282.807206
 21
316.748331
 31
0.0
  0
LINE
  5
29C
330
282
100
AcDbEntity
  8
LC-003-005-----0
 62
     7
370
    25
100
AcDbLine
 10
277.978779
 20
314.748331
 30
0.0
 11
279.978779
 21
316.748331
 31
0.0
  0
LINE
  5
29D
330
282
100
AcDbEntity
  8
LC-003-005-----0
 62
     7
370
    25
100
AcDbLine
 10
275.150351
 20
314.748331
 30
0.0
 11
277.150351
 21
316.748331
 31
0.0
  0
LINE
  5
29E
330
282
100
AcDbEntity
  8
LC-003-005-----0
 62
     7
370
    25
100
AcDbLine
 10
272.321924
 20
314.748331
 30
0.0
 11
274.321924
 21
316.748331
 31
0.0
  0
LINE
  5
29F
330
282
100
AcDbEntity
  8
LC-003-005-----0
 62
     7
370
    25
100
AcDbLine
 10
269.493497
 20
314.748331
 30
0.0
 11
271.493497
 21
316.748331
 31
0.0
  0
LINE
  5
2A0
330
282
100
AcDbEntity
  8
LC-003-005-----0
 62
     7
370
    25
100
AcDbLine
 10
266.66507
 20
314.748331
 30
0.0
 11
268.66507
 21
316.748331
 31
0.0
  0
LINE
  5
2A1
330
282
100
AcDbEntity
  8
LC-003-005-----0
 62
     7
370
    25
100
AcDbLine
 10
268.806667
 20
316.889928
 30
0.0
 11
271.306667
 21
319.389928
 31
0.0
  0
LINE
  5
2A2
330
282
100
AcDbEntity
  8
LC-003-005-----0
 62
     7
370
    25
100
AcDbLine
 10
263.836643
 20
314.748331
 30
0.0
 11
265.836643
 21
316.748331
 31
0.0
  0
LINE
  5
2A3
330
282
100
AcDbEntity
  8
LC-003-005-----0
 62
     7
370
    25
100
AcDbLine
 10
268.806667
 20
319.718355
 30
0.0
 11
271.306667
 21
322.218355
 31
0.0
  0
LINE
  5
2A4
330
282
100
AcDbEntity
  8
LC-003-005-----0
 62
     7
370
    25
100
AcDbLine
 10
261.008216
 20
314.748331
 30
0.0
 11
263.008216
 21
316.748331
 31
0.0
  0
LINE
  5
2A5
330
282
100
AcDbEntity
  8
LC-003-005-----0
 62
     7
370
    25
100
AcDbLine
 10
268.806667
 20
322.546782
 30
0.0
 11
269.508216
 21
323.248331
 31
0.0
  0
LINE
  5
2A6
330
282
100
AcDbEntity
  8
LC-003-005-----0
 62
     7
370
    25
100
AcDbLine
 10
258.179789
 20
314.748331
 30
0.0
 11
260.179789
 21
316.748331
 31
0.0
  0
LINE
  5
2A7
330
282
100
AcDbEntity
  8
LC-003-005-----0
 62
     7
370
    25
100
AcDbLine
 10
255.351362
 20
314.748331
 30
0.0
 11
257.351362
 21
316.748331
 31
0.0
  0
LINE
  5
2A8
330
282
100
AcDbEntity
  8
LC-003-005-----0
 62
     7
370
    25
100
AcDbLine
 10
252.522935
 20
314.748331
 30
0.0
 11
254.522935
 21
316.748331
 31
0.0
  0
LINE
  5
2A9
330
282
100
AcDbEntity
  8
LC-003-005-----0
 62
     7
370
    25
100
AcDbLine
 10
249.694507
 20
314.748331
 30
0.0
 11
251.694507
 21
316.748331
 31
0.0
  0
LINE
  5
2AA
330
282
100
AcDbEntity
  8
LC-003-005-----0
 62
     7
370
    25
100
AcDbLine
 10
246.86608
 20
314.748331
 30
0.0
 11
248.86608
 21
316.748331
 31
0.0
  0
LINE
  5
2AB
330
282
100
AcDbEntity
  8
LC-003-005-----0
 62
     7
370
    25
100
AcDbLine
 10
244.037653
 20
314.748331
 30
0.0
 11
246.037653
 21
316.748331
 31
0.0
  0
LINE
  5
2AC
330
282
100
AcDbEntity
  8
LC-003-005-----0
 62
     7
370
    25
100
AcDbLine
 10
241.209226
 20
314.748331
 30
0.0
 11
243.209226
 21
316.748331
 31
0.0
  0
LINE
  5
2AD
330
282
100
AcDbEntity
  8
LC-003-005-----0
 62
     7
370
    25
100
AcDbLine
 10
238.380799
 20
314.748331
 30
0.0
 11
240.380799
 21
316.748331
 31
0.0
  0
LINE
  5
2AE
330
282
100
AcDbEntity
  8
LC-003-005-----0
 62
     7
370
    25
100
AcDbLine
 10
212.552372
 20
291.748331
 30
0.0
 11
214.306504
 21
293.502464
 31
0.0
  0
LINE
  5
2AF
330
282
100
AcDbEntity
  8
LC-003-005-----0
 62
     7
370
    25
100
AcDbLine
 10
235.552372
 20
314.748331
 30
0.0
 11
237.552372
 21
316.748331
 31
0.0
  0
LINE
  5
2B0
330
282
100
AcDbEntity
  8
LC-003-005-----0
 62
     7
370
    25
100
AcDbLine
 10
210.056504
 20
292.080891
 30
0.0
 11
211.223945
 21
293.248331
 31
0.0
  0
LINE
  5
2B1
330
282
100
AcDbEntity
  8
LC-003-005-----0
 62
     7
370
    25
100
AcDbLine
 10
212.556981
 20
294.581368
 30
0.0
 11
214.306504
 21
296.330891
 31
0.0
  0
LINE
  5
2B2
330
282
100
AcDbEntity
  8
LC-003-005-----0
 62
     7
370
    25
100
AcDbLine
 10
232.723945
 20
314.748331
 30
0.0
 11
234.723945
 21
316.748331
 31
0.0
  0
LINE
  5
2B3
330
282
100
AcDbEntity
  8
LC-003-005-----0
 62
     7
370
    25
100
AcDbLine
 10
212.556981
 20
297.409795
 30
0.0
 11
214.306504
 21
299.159318
 31
0.0
  0
LINE
  5
2B4
330
282
100
AcDbEntity
  8
LC-003-005-----0
 62
     7
370
    25
100
AcDbLine
 10
229.895518
 20
314.748331
 30
0.0
 11
231.895518
 21
316.748331
 31
0.0
  0
LINE
  5
2B5
330
282
100
AcDbEntity
  8
LC-003-005-----0
 62
     7
370
    25
100
AcDbLine
 10
212.556981
 20
300.238222
 30
0.0
 11
214.306504
 21
301.987745
 31
0.0
  0
LINE
  5
2B6
330
282
100
AcDbEntity
  8
LC-003-005-----0
 62
     7
370
    25
100
AcDbLine
 10
227.06709
 20
314.748331
 30
0.0
 11
229.06709
 21
316.748331
 31
0.0
  0
LINE
  5
2B7
330
282
100
AcDbEntity
  8
LC-003-005-----0
 62
     7
370
    25
100
AcDbLine
 10
210.056504
 20
300.566172
 30
0.0
 11
214.306504
 21
304.816172
 31
0.0
  0
LINE
  5
2B8
330
282
100
AcDbEntity
  8
LC-003-005-----0
 62
     7
370
    25
100
AcDbLine
 10
224.238663
 20
314.748331
 30
0.0
 11
226.238663
 21
316.748331
 31
0.0
  0
LINE
  5
2B9
330
282
100
AcDbEntity
  8
LC-003-005-----0
 62
     7
370
    25
100
AcDbLine
 10
226.306667
 20
316.816335
 30
0.0
 11
228.806667
 21
319.316335
 31
0.0
  0
LINE
  5
2BA
330
282
100
AcDbEntity
  8
LC-003-005-----0
 62
     7
370
    25
100
AcDbLine
 10
210.056504
 20
303.394599
 30
0.0
 11
214.306504
 21
307.644599
 31
0.0
  0
LINE
  5
2BB
330
282
100
AcDbEntity
  8
LC-003-005-----0
 62
     7
370
    25
100
AcDbLine
 10
221.410236
 20
314.748331
 30
0.0
 11
223.410236
 21
316.748331
 31
0.0
  0
LINE
  5
2BC
330
282
100
AcDbEntity
  8
LC-003-005-----0
 62
     7
370
    25
100
AcDbLine
 10
226.306667
 20
319.644762
 30
0.0
 11
228.806667
 21
322.144762
 31
0.0
  0
LINE
  5
2BD
330
282
100
AcDbEntity
  8
LC-003-005-----0
 62
     7
370
    25
100
AcDbLine
 10
208.081809
 20
304.248331
 30
0.0
 11
210.581809
 21
306.748331
 31
0.0
  0
LINE
  5
2BE
330
282
100
AcDbEntity
  8
LC-003-005-----0
 62
     7
370
    25
100
AcDbLine
 10
212.306504
 20
308.473027
 30
0.0
 11
214.306504
 21
310.473027
 31
0.0
  0
LINE
  5
2BF
330
282
100
AcDbEntity
  8
LC-003-005-----0
 62
     7
370
    25
100
AcDbLine
 10
218.581809
 20
314.748331
 30
0.0
 11
220.581809
 21
316.748331
 31
0.0
  0
LINE
  5
2C0
330
282
100
AcDbEntity
  8
LC-003-005-----0
 62
     7
370
    25
100
AcDbLine
 10
226.306667
 20
322.473189
 30
0.0
 11
227.081809
 21
323.248331
 31
0.0
  0
LINE
  5
2C1
330
282
100
AcDbEntity
  8
LC-003-005-----0
 62
     7
370
    25
100
AcDbLine
 10
205.253382
 20
304.248331
 30
0.0
 11
207.753382
 21
306.748331
 31
0.0
  0
LINE
  5
2C2
330
282
100
AcDbEntity
  8
LC-003-005-----0
 62
     7
370
    25
100
AcDbLine
 10
212.306504
 20
311.301454
 30
0.0
 11
217.753382
 21
316.748331
 31
0.0
  0
LINE
  5
2C3
330
282
100
AcDbEntity
  8
LC-003-005-----0
 62
     7
370
    25
100
AcDbLine
 10
202.424955
 20
304.248331
 30
0.0
 11
204.924955
 21
306.748331
 31
0.0
  0
LINE
  5
2C4
330
282
100
AcDbEntity
  8
LC-003-005-----0
 62
     7
370
    25
100
AcDbLine
 10
201.424926
 20
306.07673
 30
0.0
 11
202.096528
 21
306.748331
 31
0.0
  0
ENDBLK
  5
284
330
282
100
AcDbEntity
  8
0
100
AcDbBlockEnd
  0
ENDSEC
  0
SECTION
  2
ENTITIES
  0
ARC
  5
32
330
1F
100
AcDbEntity
  8
LC-001-002-RND-0
 62
     7
370
    50
100
AcDbCircle
 10
196.809151
 20
315.25262
 30
0.0
 40
3.0
100
AcDbArc
 50
180.0
 51
269.998697
  0
LINE
  5
34
330
1F
100
AcDbEntity
  8
LC-002-002-----0
 62
     7
370
    50
100
AcDbLine
 10
193.809151
 20
315.752655
 30
0.0
 11
193.809151
 21
315.25262
 31
0.0
  0
LINE
  5
35
330
1F
100
AcDbEntity
  8
LC-002-002-----0
 62
     7
370
    50
100
AcDbLine
 10
197.806244
 20
303.74995
 30
0.0
 11
197.806437
 21
312.252598
 31
0.0
  0
LINE
  5
36
330
1F
100
AcDbEntity
  8
LC-002-002-----0
 62
     7
370
    50
100
AcDbLine
 10
196.809082
 20
312.25262
 30
0.0
 11
197.806437
 21
312.252598
 31
0.0
  0
ARC
  5
37
330
1F
100
AcDbEntity
  8
LC-001-002-RND-0
 62
     7
370
    50
100
AcDbCircle
 10
199.806244
 20
303.749905
 30
0.0
 40
2.000000000000029
100
AcDbArc
 50
179.998697
 51
270.002681
  0
INSERT
  5
67
330
1F
100
AcDbEntity
  8
LC-003-005-----0
 62
     7
370
    25
100
AcDbBlockReference
  2
*X11
 10
0.0
 20
0.0
 30
0.0
  0
LINE
  5
68
330
1F
100
AcDbEntity
  8
LC-002-002-----0
 62
     7
370
    50
100
AcDbLine
 10
190.987246
 20
326.752689
 30
0.0
 11
330.107776
 21
326.752689
 31
0.0
  0
LINE
  5
69
102
{ACAD_REACTORS
330
2E2
102
}
330
1F
100
AcDbEntity
  8
LC-002-002-----0
 62
     7
370
    50
100
AcDbLine
 10
314.555553
 20
323.752534
 30
0.0
 11
260.306156
 21
323.752425
 31
0.0
  0
LINE
  5
6A
102
{ACAD_REACTORS
330
2E1
102
}
330
1F
100
AcDbEntity
  8
LC-003-005-----0
 62
     7
370
    25
100
AcDbLine
 10
272.216149
 20
323.75245
 30
0.0
 11
272.304132
 21
323.840432
 31
0.0
  0
LINE
  5
6C
330
1F
100
AcDbEntity
  8
LC-004-001-----0
 62
     7
370
    50
100
AcDbLine
 10
313.807555
 20
303.822478
 30
0.0
 11
313.806961
 21
234.75224
 31
0.0
  0
LINE
  5
6D
330
1F
100
AcDbEntity
  8
LC-002-002-----0
 62
     7
370
    50
100
AcDbLine
 10
316.306241
 20
301.747568
 30
0.0
 11
316.303421
 21
239.750018
 31
0.0
  0
LINE
  5
6E
330
1F
100
AcDbEntity
  8
LC-002-002-----0
 62
     7
370
    50
100
AcDbLine
 10
316.303421
 20
239.750018
 30
0.0
 11
314.963447
 21
234.750079
 31
0.0
  0
LINE
  5
6F
330
1F
100
AcDbEntity
  8
LC-002-002-----0
 62
     7
370
    50
100
AcDbLine
 10
316.307456
 20
301.747568
 30
0.0
 11
320.806059
 21
301.747153
 31
0.0
  0
ARC
  5
70
330
1F
100
AcDbEntity
  8
LC-001-002-RND-0
 62
     7
370
    50
100
AcDbCircle
 10
320.806244
 20
303.747153
 30
0.0
 40
2.000000000000022
100
AcDbArc
 50
269.994713
 51
359.998697
  0
LINE
  5
71
330
1F
100
AcDbEntity
  8
LC-002-002-----0
 62
     7
370
    50
100
AcDbLine
 10
322.806244
 20
303.747107
 30
0.0
 11
322.806437
 21
312.249755
 31
0.0
  0
INSERT
  5
A0
330
1F
100
AcDbEntity
  8
LC-003-005-----0
 62
     7
370
    25
100
AcDbBlockReference
  2
*X22
 10
0.0
 20
0.0
 30
0.0
  0
ARC
  5
A1
330
1F
100
AcDbEntity
  8
LC-001-002-RND-0
 62
     7
370
    50
100
AcDbCircle
 10
323.80386
 20
315.249732
 30
0.0
 40
2.999999999999987
100
AcDbArc
 50
269.998697
 51
359.997394
  0
ARC
  5
A2
330
1F
100
AcDbEntity
  8
LC-001-002-RND-0
 62
     7
370
    50
100
AcDbCircle
 10
328.303883
 20
315.749596
 30
0.0
 40
1.500000000000031
100
AcDbArc
 50
89.997394
 51
179.998697
  0
LINE
  5
A3
330
1F
100
AcDbEntity
  8
LC-002-002-----0
 62
     7
370
    50
100
AcDbLine
 10
329.806335
 20
317.249527
 30
0.0
 11
328.303951
 21
317.249596
 31
0.0
  0
LINE
  5
A4
330
1F
100
AcDbEntity
  8
LC-002-002-----0
 62
     7
370
    50
100
AcDbLine
 10
331.306267
 20
315.749459
 30
0.0
 11
331.306085
 21
311.749459
 31
0.0
  0
LINE
  5
A5
330
1F
100
AcDbEntity
  8
LC-002-002-----0
 62
     7
370
    50
100
AcDbLine
 10
336.806085
 20
311.749209
 30
0.0
 11
331.306085
 21
311.749459
 31
0.0
  0
LINE
  5
A6
330
1F
100
AcDbEntity
  8
LC-002-002-----0
 62
     7
370
    50
100
AcDbLine
 10
336.806312
 20
316.749209
 30
0.0
 11
336.806085
 21
311.749209
 31
0.0
  0
LINE
  5
A7
330
1F
100
AcDbEntity
  8
LC-002-002-----0
 62
     7
370
    50
100
AcDbLine
 10
335.306312
 20
316.749277
 30
0.0
 11
336.806312
 21
316.749209
 31
0.0
  0
LINE
  5
A8
330
1F
100
AcDbEntity
  8
LC-002-002-----0
 62
     7
370
    50
100
AcDbLine
 10
335.306699
 20
325.249277
 30
0.0
 11
335.306196
 21
314.189093
 31
0.0
  0
LINE
  5
A9
330
1F
100
AcDbEntity
  8
LC-004-001-----0
 62
     7
370
    50
100
AcDbLine
 10
334.506699
 20
325.249313
 30
0.0
 11
334.506196
 21
314.18913
 31
0.0
  0
LINE
  5
AA
330
1F
100
AcDbEntity
  8
LC-002-002-----0
 62
     7
370
    50
100
AcDbLine
 10
335.306196
 20
314.189093
 30
0.0
 11
334.506196
 21
314.18913
 31
0.0
  0
ARC
  5
AB
330
1F
100
AcDbEntity
  8
LC-002-002-----0
 62
     7
370
    50
100
AcDbCircle
 10
333.806699
 20
325.249345
 30
0.0
 40
1.500000000000088
100
AcDbArc
 50
359.997394
 51
89.997412
  0
LINE
  5
AC
330
1F
100
AcDbEntity
  8
LC-004-001-----0
 62
     7
370
    50
100
AcDbLine
 10
333.806767
 20
326.749345
 30
0.0
 11
331.306767
 21
326.749459
 31
0.0
  0
LINE
  5
AD
330
1F
100
AcDbEntity
  8
LC-002-002-----0
 62
     7
370
    50
100
AcDbLine
 10
329.626288
 20
326.749535
 30
0.0
 11
329.626152
 21
323.749535
 31
0.0
  0
LINE
  5
AE
330
1F
100
AcDbEntity
  8
LC-002-002-----0
 62
     7
370
    50
100
AcDbLine
 10
323.803792
 20
312.249732
 30
0.0
 11
322.806437
 21
312.249755
 31
0.0
  0
ARC
  5
AF
330
1F
100
AcDbEntity
  8
LC-001-002-RND-0
 62
     7
370
    50
100
AcDbCircle
 10
323.80386
 20
315.249732
 30
0.0
 40
2.999999999999987
100
AcDbArc
 50
269.998697
 51
359.997394
  0
ARC
  5
B0
330
1F
100
AcDbEntity
  8
LC-001-002-RND-0
 62
     7
370
    50
100
AcDbCircle
 10
324.056508
 20
321.049789
 30
0.0
 40
1.499999999999975
100
AcDbArc
 50
89.997394
 51
179.997394
  0
LINE
  5
B1
330
1F
100
AcDbEntity
  8
LC-002-002-----0
 62
     7
370
    50
100
AcDbLine
 10
322.556508
 20
321.049857
 30
0.0
 11
322.556462
 21
320.049857
 31
0.0
  0
LINE
  5
B3
102
{ACAD_REACTORS
330
2E3
102
}
330
1F
100
AcDbEntity
  8
LC-005-201-----0
 62
     7
370
    50
100
AcDbLine
 10
330.107776
 20
323.752566
 30
0.0
 11
330.107776
 21
326.752566
 31
0.0
  0
LINE
  5
B4
102
{ACAD_REACTORS
330
2E5
102
}
330
1F
100
AcDbEntity
  8
LC-002-002-----0
 62
     7
370
    50
100
AcDbLine
 10
194.056667
 20
323.752566
 30
0.0
 11
203.306667
 21
323.752566
 31
0.0
  0
LINE
  5
B5
330
1F
100
AcDbEntity
  8
LC-002-002-----0
 62
     7
370
    50
100
AcDbLine
 10
323.356508
 20
321.049821
 30
0.0
 11
323.356462
 21
320.049821
 31
0.0
  0
ARC
  5
B6
330
1F
100
AcDbEntity
  8
LC-001-002-RND-0
 62
     7
370
    50
100
AcDbCircle
 10
324.056508
 20
321.049789
 30
0.0
 40
0.7000000000000297
100
AcDbArc
 50
89.997394
 51
179.997394
  0
LINE
  5
B7
330
1F
100
AcDbEntity
  8
LC-002-002-----0
 62
     7
370
    50
100
AcDbLine
 10
330.606539
 20
321.749491
 30
0.0
 11
324.056539
 21
321.749789
 31
0.0
  0
ARC
  5
B8
330
1F
100
AcDbEntity
  8
LC-002-002-----0
 62
     7
370
    50
100
AcDbCircle
 10
331.306699
 20
325.249459
 30
0.0
 40
1.500000000000039
100
AcDbArc
 50
89.997412
 51
179.997394
  0
ARC
  5
B9
330
1F
100
AcDbEntity
  8
LC-004-001-----0
 62
     7
370
    50
100
AcDbCircle
 10
331.306699
 20
325.249459
 30
0.0
 40
0.7000000000001434
100
AcDbArc
 50
89.997394
 51
179.997394
  0
LINE
  5
BA
330
1F
100
AcDbEntity
  8
LC-002-002-----0
 62
     7
370
    50
100
AcDbLine
 10
329.806699
 20
325.249527
 30
0.0
 11
329.806576
 21
322.549527
 31
0.0
  0
LINE
  5
BB
330
1F
100
AcDbEntity
  8
LC-004-001-----0
 62
     7
370
    50
100
AcDbLine
 10
330.606699
 20
325.249491
 30
0.0
 11
330.606539
 21
321.749491
 31
0.0
  0
LINE
  5
BC
330
1F
100
AcDbEntity
  8
LC-002-002-----0
 62
     7
370
    50
100
AcDbLine
 10
329.806576
 20
322.549527
 30
0.0
 11
324.056576
 21
322.549789
 31
0.0
  0
LINE
  5
BD
330
1F
100
AcDbEntity
  8
LC-002-002-----0
 62
     7
370
    50
100
AcDbLine
 10
323.356462
 20
320.049821
 30
0.0
 11
271.306667
 21
320.052188
 31
0.0
  0
ARC
  5
BE
330
1F
100
AcDbEntity
  8
LC-001-002-RND-0
 62
     7
370
    50
100
AcDbCircle
 10
329.806267
 20
315.749527
 30
0.0
 40
1.500000000000031
100
AcDbArc
 50
359.997394
 51
89.997394
  0
LINE
  5
BF
102
{ACAD_REACTORS
330
2E4
102
}
330
1F
100
AcDbEntity
  8
LC-002-002-----0
 62
     7
370
    50
100
AcDbLine
 10
190.987246
 20
323.752689
 30
0.0
 11
260.306667
 21
323.752689
 31
0.0
  0
LINE
  5
C0
330
1F
100
AcDbEntity
  8
LC-002-002-----0
 62
     7
370
    50
100
AcDbLine
 10
326.803883
 20
315.74963
 30
0.0
 11
326.80386
 21
315.249596
 31
0.0
  0
LINE
  5
C1
330
1F
100
AcDbEntity
  8
LC-002-002-----0
 62
     7
370
    50
100
AcDbLine
 10
205.645902
 20
234.752566
 30
0.0
 11
314.963447
 21
234.752566
 31
0.0
  0
INSERT
  5
DF
330
1F
100
AcDbEntity
  8
LC-003-005-----0
 62
     7
370
    25
100
AcDbBlockReference
  2
*X33
 10
0.0
 20
0.0
 30
0.0
  0
INSERT
  5
FD
330
1F
100
AcDbEntity
  8
LC-003-005-----0
 62
     7
370
    25
100
AcDbBlockReference
  2
*X44
 10
0.0
 20
0.0
 30
0.0
  0
LINE
  5
FE
330
1F
100
AcDbEntity
  8
LC-004-001-----0
 62
     7
370
    50
100
AcDbLine
 10
333.806731
 20
325.949345
 30
0.0
 11
331.306731
 21
325.949459
 31
0.0
  0
ARC
  5
FF
330
1F
100
AcDbEntity
  8
LC-002-002-----0
 62
     7
370
    50
100
AcDbCircle
 10
333.806699
 20
325.249345
 30
0.0
 40
1.500000000000088
100
AcDbArc
 50
359.997394
 51
89.997412
  0
ARC
  5
100
330
1F
100
AcDbEntity
  8
LC-004-001-----0
 62
     7
370
    50
100
AcDbCircle
 10
333.806699
 20
325.249345
 30
0.0
 40
0.6999999999999667
100
AcDbArc
 50
359.997546
 51
89.997394
  0
LINE
  5
101
330
1F
100
AcDbEntity
  8
LC-002-002-----0
  6
DASHED
 62
     7
370
    25
100
AcDbLine
 10
190.786284
 20
327.100765
 30
0.0
 11
309.969159
 21
395.91103
 31
0.0
  0
LINE
  5
103
330
1F
100
AcDbEntity
  8
LC-006-020-----0
 62
     7
370
    25
100
AcDbLine
 10
190.987246
 20
323.752689
 30
0.0
 11
311.052061
 21
393.072142
 31
0.0
  0
LINE
  5
104
330
1F
100
AcDbEntity
  8
LC-002-002-----0
  6
DASHED
 62
     7
370
    25
100
AcDbLine
 10
309.553755
 20
395.667556
 30
0.0
 11
311.053637
 21
393.069411
 31
0.0
  0
LINE
  5
105
330
1F
100
AcDbEntity
  8
LC-002-002-----0
 62
     7
370
    25
100
AcDbLine
 10
214.889606
 20
432.934751
 30
0.0
 11
229.889606
 21
432.934751
 31
0.0
  0
DIMENSION
  5
109
330
1F
100
AcDbEntity
  8
LC-007-003-----0
 62
     7
370
    25
100
AcDbDimension
  2
*D5
 10
335.306699
 20
418.77
 30
0.0
 11
303.981797
 21
449.57
 31
0.0
 70
   160
 71
     5
 42
149.999932
  3
LC-DIM-L-0140-02-02
100
AcDbAlignedDimension
 13
185.306767
 23
325.252689
 33
0.0
 14
335.306699
 24
325.249277
 34
0.0
100
AcDbRotatedDimension
  0
DIMENSION
  5
117
330
1F
100
AcDbEntity
  8
LC-007-003-----0
 62
     7
370
    25
100
AcDbDimension
  2
*D6
 10
316.303421
 20
175.824
 30
0.0
 11
260.738648
 21
206.624
 31
0.0
 70
   160
  1
DN100
 71
     5
 42
111.997265
  3
LC-DIM-L-0140-02-02
100
AcDbAlignedDimension
 13
204.306156
 23
239.752566
 33
0.0
 14
316.303421
 24
239.750018
 34
0.0
100
AcDbRotatedDimension
  0
LINE
  5
124
102
{ACAD_REACTORS
330
2E7
102
}
330
1F
100
AcDbEntity
  8
LC-006-020-----0
  6
ByBlock
 62
     7
370
    50
100
AcDbLine
 10
204.306667
 20
323.752689
 30
0.0
 11
260.306667
 21
323.752689
 31
0.0
  0
LINE
  5
125
330
1F
100
AcDbEntity
  8
LC-002-002-----0
 62
     7
370
    25
100
AcDbLine
 10
214.889606
 20
447.934751
 30
0.0
 11
214.889606
 21
432.934751
 31
0.0
  0
DIMENSION
  5
126
330
1F
100
AcDbEntity
  8
LC-007-003-----0
 62
     7
370
    25
100
AcDbDimension
  2
*D7
 10
156.8
 20
234.752566
 30
0.0
 11
126.0
 21
268.25134
 31
0.0
 70
   160
  1
65
 71
     5
 42
66.99755
 53
90.0
  3
LC-DIM-L-0140-02-02
100
AcDbAlignedDimension
 13
204.30494
 23
301.750115
 33
0.0
 14
206.802388
 24
234.752566
 34
0.0
 50
90.0
100
AcDbRotatedDimension
  0
DIMENSION
  5
133
330
1F
100
AcDbEntity
  8
LC-007-003-----0
 62
     7
370
    25
100
AcDbDimension
  2
*D8
 10
105.696141
 20
234.752566
 30
0.0
 11
74.896141
 21
276.21
 31
0.0
 70
   160
 71
     5
 42
92.000123
 53
90.0
  3
LC-DIM-L-0140-02-02
100
AcDbAlignedDimension
 13
186.806767
 23
326.752689
 33
0.0
 14
206.802388
 24
234.752566
 34
0.0
 50
90.0
100
AcDbRotatedDimension
  0
LINE
  5
140
330
1F
100
AcDbEntity
  8
LC-002-002-----0
 62
     7
370
    25
100
AcDbLine
 10
214.889606
 20
447.934751
 30
0.0
 11
229.889606
 21
447.934751
 31
0.0
  0
LINE
  5
141
330
1F
100
AcDbEntity
  8
LC-002-002-----0
 62
     7
370
    25
100
AcDbLine
 10
229.889606
 20
447.934751
 30
0.0
 11
229.889606
 21
432.934751
 31
0.0
  0
LINE
  5
142
102
{ACAD_REACTORS
330
2EF
102
}
330
1F
100
AcDbEntity
  8
LC-002-002-----0
 62
     7
370
    50
100
AcDbLine
 10
441.917832
 20
472.496829
 30
0.0
 11
441.917832
 21
341.496829
 31
0.0
  0
ARC
  5
143
102
{ACAD_REACTORS
330
2EE
102
}
330
1F
100
AcDbEntity
  8
LC-002-002-----0
 62
     7
370
    50
100
AcDbCircle
 10
445.417832
 20
341.496829
 30
0.0
 40
3.5
100
AcDbArc
 50
180.0
 51
270.000058
  0
LINE
  5
144
102
{ACAD_REACTORS
330
2ED
102
}
330
1F
100
AcDbEntity
  8
LC-002-002-----0
 62
     7
370
    50
100
AcDbLine
 10
445.417832
 20
337.996829
 30
0.0
 11
510.917832
 21
337.996829
 31
0.0
  0
LINE
  5
145
102
{ACAD_REACTORS
330
2EC
102
}
330
1F
100
AcDbEntity
  8
LC-002-002-----0
 62
     7
370
    50
100
AcDbLine
 10
441.917832
 20
371.246829
 30
0.0
 11
451.417832
 21
371.246829
 31
0.0
  0
LINE
  5
146
102
{ACAD_REACTORS
330
2EB
102
}
330
1F
100
AcDbEntity
  8
LC-002-002-----0
 62
     7
370
    50
100
AcDbLine
 10
451.417832
 20
371.246829
 30
0.0
 11
451.417832
 21
355.746829
 31
0.0
  0
LINE
  5
147
102
{ACAD_REACTORS
330
2EA
102
}
330
1F
100
AcDbEntity
  8
LC-002-002-----0
 62
     7
370
    50
100
AcDbLine
 10
451.417832
 20
355.746829
 30
0.0
 11
441.917832
 21
355.746829
 31
0.0
  0
LINE
  5
148
102
{ACAD_REACTORS
330
2E9
102
}
330
1F
100
AcDbEntity
  8
LC-002-002-----0
  6
DASHED
 62
     7
370
    25
100
AcDbLine
 10
449.417832
 20
355.746829
 30
0.0
 11
449.417832
 21
371.246829
 31
0.0
  0
LINE
  5
149
102
{ACAD_REACTORS
330
2E8
102
}
330
1F
100
AcDbEntity
  8
LC-002-002-----0
 62
     7
370
    50
100
AcDbLine
 10
576.417861
 20
337.996899
 30
0.0
 11
510.917862
 21
337.996942
 31
0.0
  0
ARC
  5
14A
102
{ACAD_REACTORS
330
2F7
102
}
330
1F
100
AcDbEntity
  8
LC-002-002-----0
 62
     7
370
    50
100
AcDbCircle
 10
576.417864
 20
341.496899
 30
0.0
 40
3.500000000000008
100
AcDbArc
 50
269.999963
 51
0.000021
  0
LINE
  5
14B
102
{ACAD_REACTORS
330
2F6
102
}
330
1F
100
AcDbEntity
  8
LC-002-002-----0
 62
     7
370
    50
100
AcDbLine
 10
579.917949
 20
472.496895
 30
0.0
 11
579.917864
 21
341.496897
 31
0.0
  0
LINE
  5
14C
102
{ACAD_REACTORS
330
2F5
102
}
330
1F
100
AcDbEntity
  8
LC-002-002-----0
 62
     7
370
    50
100
AcDbLine
 10
576.416646
 20
475.992463
 30
0.0
 11
510.916647
 21
475.992704
 31
0.0
  0
LINE
  5
14D
102
{ACAD_REACTORS
330
2F4
102
}
330
1F
100
AcDbEntity
  8
LC-002-002-----0
 62
     7
370
    50
100
AcDbLine
 10
445.416616
 20
475.993101
 30
0.0
 11
510.916616
 21
475.992817
 31
0.0
  0
ARC
  5
14E
102
{ACAD_REACTORS
330
2F3
102
}
330
1F
100
AcDbEntity
  8
LC-002-002-----0
 62
     7
370
    50
100
AcDbCircle
 10
576.416633
 20
472.492463
 30
0.0
 40
3.500000000033086
100
AcDbArc
 50
359.999579
 51
89.999789
  0
LINE
  5
14F
102
{ACAD_REACTORS
330
2F2
102
}
330
1F
100
AcDbEntity
  8
LC-002-002-----0
 62
     7
370
    50
100
AcDbLine
 10
451.416509
 20
442.743075
 30
0.0
 11
451.416576
 21
458.243075
 31
0.0
  0
LINE
  5
150
102
{ACAD_REACTORS
330
2F1
102
}
330
1F
100
AcDbEntity
  8
LC-002-002-----0
  6
DASHED
 62
     7
370
    25
100
AcDbLine
 10
449.416576
 20
458.243084
 30
0.0
 11
449.416509
 21
442.743084
 31
0.0
  0
CIRCLE
  5
151
102
{ACAD_REACTORS
330
2F0
102
}
330
1F
100
AcDbEntity
  8
LC-002-002-----0
 62
     7
370
    50
100
AcDbCircle
 10
570.416481
 20
466.492455
 30
0.0
 40
3.5
  0
CIRCLE
  5
152
102
{ACAD_REACTORS
330
2F0
102
}
330
1F
100
AcDbEntity
  8
LC-002-002-----0
 62
     7
370
    50
100
AcDbCircle
 10
570.416481
 20
466.492455
 30
0.0
 40
5.0
  0
LINE
  5
153
102
{ACAD_REACTORS
330
2F8
102
}
330
1F
100
AcDbEntity
  8
LC-002-002-----0
 62
     7
370
    50
100
AcDbLine
 10
225.503303
 20
-31.834007
 30
0.0
 11
225.503303
 21
-26.834007
 31
0.0
  0
ARC
  5
154
330
1F
100
AcDbEntity
  8
LC-002-002-----0
 62
     7
370
    50
100
AcDbCircle
 10
438.917832
 20
478.996829
 30
0.0
 40
3.0
100
AcDbArc
 50
90.0
 51
179.999848
  0
LINE
  5
155
330
1F
100
AcDbEntity
  8
LC-002-002-----0
 62
     7
370
    50
100
AcDbLine
 10
582.917832
 20
481.996829
 30
0.0
 11
438.917832
 21
481.996829
 31
0.0
  0
ARC
  5
156
330
1F
100
AcDbEntity
  8
LC-002-002-----0
 62
     7
370
    50
100
AcDbCircle
 10
582.917832
 20
478.996829
 30
0.0
 40
3.000000000000227
100
AcDbArc
 50
0.0
 51
90.0
  0
ARC
  5
157
330
1F
100
AcDbEntity
  8
LC-002-002-----0
 62
     7
370
    50
100
AcDbCircle
 10
582.917832
 20
334.996829
 30
0.0
 40
3.0
100
AcDbArc
 50
270.0
 51
0.0
  0
LINE
  5
158
330
1F
100
AcDbEntity
  8
LC-002-002-----0
 62
     7
370
    50
100
AcDbLine
 10
585.917832
 20
334.996829
 30
0.0
 11
585.917832
 21
478.996829
 31
0.0
  0
LINE
  5
159
330
1F
100
AcDbEntity
  8
LC-002-002-----0
 62
     7
370
    50
100
AcDbLine
 10
435.917832
 20
478.996829
 30
0.0
 11
435.917832
 21
334.996829
 31
0.0
  0
ARC
  5
15A
330
1F
100
AcDbEntity
  8
LC-002-002-----0
 62
     7
370
    50
100
AcDbCircle
 10
438.917832
 20
334.996829
 30
0.0
 40
3.0
100
AcDbArc
 50
180.0
 51
270.000058
  0
LINE
  5
15B
330
1F
100
AcDbEntity
  8
LC-002-002-----0
 62
     7
370
    50
100
AcDbLine
 10
438.917832
 20
331.996829
 30
0.0
 11
582.917832
 21
331.996829
 31
0.0
  0
ARC
  5
15C
330
1F
100
AcDbEntity
  8
LC-002-002-----0
 62
     7
370
    50
100
AcDbCircle
 10
438.917832
 20
334.996829
 30
0.0
 40
4.500000000000155
100
AcDbArc
 50
179.999848
 51
270.0
  0
ARC
  5
15D
330
1F
100
AcDbEntity
  8
LC-002-002-----0
 62
     7
370
    50
100
AcDbCircle
 10
438.917832
 20
478.996829
 30
0.0
 40
4.5
100
AcDbArc
 50
90.0
 51
179.999848
  0
LINE
  5
15E
330
1F
100
AcDbEntity
  8
LC-002-002-----0
 62
     7
370
    50
100
AcDbLine
 10
434.417832
 20
478.996829
 30
0.0
 11
434.417832
 21
334.996829
 31
0.0
  0
ARC
  5
15F
330
1F
100
AcDbEntity
  8
LC-002-002-----0
 62
     7
370
    50
100
AcDbCircle
 10
582.917832
 20
478.996829
 30
0.0
 40
4.500000000000227
100
AcDbArc
 50
0.0
 51
90.0
  0
LINE
  5
160
330
1F
100
AcDbEntity
  8
LC-002-002-----0
 62
     7
370
    50
100
AcDbLine
 10
438.917832
 20
330.496829
 30
0.0
 11
582.917832
 21
330.496829
 31
0.0
  0
ARC
  5
161
330
1F
100
AcDbEntity
  8
LC-002-002-----0
 62
     7
370
    50
100
AcDbCircle
 10
582.917832
 20
334.996829
 30
0.0
 40
4.5
100
AcDbArc
 50
270.0
 51
0.0
  0
LINE
  5
162
330
1F
100
AcDbEntity
  8
LC-002-002-----0
 62
     7
370
    50
100
AcDbLine
 10
587.417832
 20
334.996829
 30
0.0
 11
587.417832
 21
478.996829
 31
0.0
  0
LINE
  5
163
330
1F
100
AcDbEntity
  8
LC-002-002-----0
 62
     7
370
    50
100
AcDbLine
 10
204.306156
 20
239.752566
 30
0.0
 11
205.645902
 21
234.752566
 31
0.0
  0
ARC
  5
164
102
{ACAD_REACTORS
330
2F9
102
}
330
1F
100
AcDbEntity
  8
LC-002-002-----0
 62
     7
370
    50
100
AcDbCircle
 10
445.416601
 20
472.493101
 30
0.0
 40
3.500000000033066
100
AcDbArc
 50
89.999522
 51
179.999752
  0
ARC
  5
165
330
1F
100
AcDbEntity
  8
LC-004-001-----0
 62
     7
370
    50
100
AcDbCircle
 10
445.417832
 20
472.493101
 30
0.0
 40
4.000000000000155
100
AcDbArc
 50
89.999752
 51
180.0
  0
LINE
  5
166
330
1F
100
AcDbEntity
  8
LC-004-001-----0
 62
     7
370
    50
100
AcDbLine
 10
445.417849
 20
476.493101
 30
0.0
 11
510.916618
 21
476.492817
 31
0.0
  0
LINE
  5
167
330
1F
100
AcDbEntity
  8
LC-004-001-----0
 62
     7
370
    50
100
AcDbLine
 10
576.417964
 20
476.492463
 30
0.0
 11
510.916649
 21
476.492704
 31
0.0
  0
ARC
  5
168
330
1F
100
AcDbEntity
  8
LC-004-001-----0
 62
     7
370
    50
100
AcDbCircle
 10
576.417949
 20
472.492463
 30
0.0
 40
4.000000000000267
100
AcDbArc
 50
0.000021
 51
89.999789
  0
LINE
  5
169
330
1F
100
AcDbEntity
  8
LC-004-001-----0
 62
     7
370
    50
100
AcDbLine
 10
576.417861
 20
337.496899
 30
0.0
 11
510.917862
 21
337.496942
 31
0.0
  0
ARC
  5
16A
330
1F
100
AcDbEntity
  8
LC-004-001-----0
 62
     7
370
    50
100
AcDbCircle
 10
576.417864
 20
341.496899
 30
0.0
 40
4.000000000000002
100
AcDbArc
 50
269.999963
 51
0.000021
  0
LINE
  5
16B
330
1F
100
AcDbEntity
  8
LC-004-001-----0
 62
     7
370
    50
100
AcDbLine
 10
580.417949
 20
472.492461
 30
0.0
 11
580.417864
 21
341.496896
 31
0.0
  0
LINE
  5
16C
330
1F
100
AcDbEntity
  8
LC-004-001-----0
 62
     7
370
    50
100
AcDbLine
 10
441.417832
 20
472.493101
 30
0.0
 11
441.417832
 21
341.496829
 31
0.0
  0
ARC
  5
16D
330
1F
100
AcDbEntity
  8
LC-004-001-----0
 62
     7
370
    50
100
AcDbCircle
 10
445.417832
 20
341.496829
 30
0.0
 40
4.0
100
AcDbArc
 50
180.0
 51
270.000058
  0
LINE
  5
16E
330
1F
100
AcDbEntity
  8
LC-004-001-----0
 62
     7
370
    50
100
AcDbLine
 10
445.417832
 20
337.496829
 30
0.0
 11
510.917832
 21
337.496829
 31
0.0
  0
CIRCLE
  5
16F
330
1F
100
AcDbEntity
  8
LC-002-002-----0
 62
     7
370
    50
100
AcDbCircle
 10
457.417832
 20
363.496829
 30
0.0
 40
6.0
  0
ARC
  5
170
102
{ACAD_REACTORS
330
2FD
102
}
330
1F
100
AcDbEntity
  8
LC-002-002-----0
 62
     7
370
    50
100
AcDbCircle
 10
462.91783
 20
370.746779
 30
0.0
 40
0.5000000000000224
100
AcDbArc
 50
359.99981
 51
89.999752
  0
LINE
  5
171
102
{ACAD_REACTORS
330
2FC
102
}
330
1F
100
AcDbEntity
  8
LC-002-002-----0
 62
     7
370
    50
100
AcDbLine
 10
451.417832
 20
355.746829
 30
0.0
 11
462.917765
 21
355.746779
 31
0.0
  0
ARC
  5
172
102
{ACAD_REACTORS
330
2FC
102
}
330
1F
100
AcDbEntity
  8
LC-002-002-----0
 62
     7
370
    50
100
AcDbCircle
 10
462.917767
 20
356.246779
 30
0.0
 40
0.5000000000000408
100
AcDbArc
 50
269.999752
 51
359.99981
  0
LINE
  5
173
330
1F
100
AcDbEntity
  8
LC-004-001-----0
 62
     7
370
    50
100
AcDbLine
 10
463.417767
 20
356.246777
 30
0.0
 11
463.41783
 21
370.746777
 31
0.0
  0
CIRCLE
  5
174
102
{ACAD_REACTORS
330
2FB
102
}
330
1F
100
AcDbEntity
  8
LC-002-002-----0
 62
     7
370
    50
100
AcDbCircle
 10
457.417832
 20
363.496829
 30
0.0
 40
3.25
  0
ARC
  5
175
102
{ACAD_REACTORS
330
2FA
102
}
330
1F
100
AcDbEntity
  8
LC-002-002-----0
 62
     7
370
    50
100
AcDbCircle
 10
462.916511
 20
443.243025
 30
0.0
 40
0.5000000000000408
100
AcDbArc
 50
269.999752
 51
359.99981
  0
LINE
  5
176
102
{ACAD_REACTORS
330
2FD
102
}
330
1F
100
AcDbEntity
  8
LC-002-002-----0
 62
     7
370
    50
100
AcDbLine
 10
462.917832
 20
371.246779
 30
0.0
 11
451.417832
 21
371.246829
 31
0.0
  0
LINE
  5
177
102
{ACAD_REACTORS
330
2FA
102
}
330
1F
100
AcDbEntity
  8
LC-002-002-----0
 62
     7
370
    50
100
AcDbLine
 10
441.916509
 20
442.743116
 30
0.0
 11
462.916509
 21
442.743025
 31
0.0
  0
LINE
  5
178
330
1F
100
AcDbEntity
  8
LC-002-002-----0
 62
     7
370
    50
100
AcDbLine
 10
462.916576
 20
458.243025
 30
0.0
 11
441.916576
 21
458.243116
 31
0.0
  0
ARC
  5
179
330
1F
100
AcDbEntity
  8
LC-002-002-----0
 62
     7
370
    50
100
AcDbCircle
 10
462.916574
 20
457.743025
 30
0.0
 40
0.5000000000001361
100
AcDbArc
 50
359.99981
 51
89.999752
  0
LINE
  5
17A
102
{ACAD_REACTORS
330
2FF
102
}
330
1F
100
AcDbEntity
  8
LC-004-001-----0
 62
     7
370
    50
100
AcDbLine
 10
463.416511
 20
443.243023
 30
0.0
 11
463.416574
 21
457.743023
 31
0.0
  0
LINE
  5
17D
102
{ACAD_REACTORS
330
2FE
102
}
330
1F
100
AcDbEntity
  8
LC-008-006-----0
 62
     7
370
    25
100
AcDbLine
 10
260.304653
 20
233.808853
 30
0.0
 11
260.306872
 21
331.353988
 31
0.0
  0
LINE
  5
17E
330
1F
100
AcDbEntity
  8
LC-004-001-----0
 62
     7
370
    50
100
AcDbLine
 10
313.807448
 20
303.748331
 30
0.0
 11
319.555652
 21
303.747854
 31
0.0
  0
LINE
  5
17F
330
1F
100
AcDbEntity
  8
LC-002-002-----0
 62
     7
370
    50
100
AcDbLine
 10
319.555652
 20
303.747854
 30
0.0
 11
319.557005
 21
320.049993
 31
0.0
  0
LINE
  5
180
330
1F
100
AcDbEntity
  8
LC-002-002-----0
 62
     7
370
    50
100
AcDbLine
 10
201.056848
 20
303.749963
 30
0.0
 11
201.056085
 21
320.052689
 31
0.0
  0
LINE
  5
181
330
1F
100
AcDbEntity
  8
LC-002-002-----0
 62
     7
370
    50
100
AcDbLine
 10
204.30494
 20
301.750115
 30
0.0
 11
199.806337
 21
301.749905
 31
0.0
  0
LINE
  5
182
330
1F
100
AcDbEntity
  8
LC-004-001-----0
 62
     7
370
    50
100
AcDbLine
 10
206.805142
 20
303.750232
 30
0.0
 11
201.056848
 21
303.749963
 31
0.0
  0
LINE
  5
183
330
1F
100
AcDbEntity
  8
LC-002-002-----0
 62
     7
370
    50
100
AcDbLine
 10
204.306156
 20
301.750115
 30
0.0
 11
204.306156
 21
239.752566
 31
0.0
  0
CIRCLE
  5
184
102
{ACAD_REACTORS
330
2E0
102
}
330
1F
100
AcDbEntity
  8
LC-002-002-----0
 62
     7
370
    50
100
AcDbCircle
 10
570.416481
 20
348.492455
 30
0.0
 40
3.5
  0
CIRCLE
  5
185
102
{ACAD_REACTORS
330
2E0
102
}
330
1F
100
AcDbEntity
  8
LC-002-002-----0
 62
     7
370
    50
100
AcDbCircle
 10
570.416481
 20
348.492455
 30
0.0
 40
5.0
  0
CIRCLE
  5
186
330
1F
100
AcDbEntity
  8
LC-002-002-----0
 62
     7
370
    50
100
AcDbCircle
 10
457.417832
 20
450.493116
 30
0.0
 40
6.0
  0
CIRCLE
  5
187
330
1F
100
AcDbEntity
  8
LC-002-002-----0
 62
     7
370
    50
100
AcDbCircle
 10
457.417832
 20
450.493116
 30
0.0
 40
3.25
  0
LINE
  5
188
330
1F
100
AcDbEntity
  8
LC-004-001-----0
 62
     7
370
    50
100
AcDbLine
 10
444.417832
 20
488.496829
 30
0.0
 11
444.417832
 21
483.496829
 31
0.0
  0
LINE
  5
189
330
1F
100
AcDbEntity
  8
LC-004-001-----0
 62
     7
370
    50
100
AcDbLine
 10
574.417832
 20
488.496829
 30
0.0
 11
574.417832
 21
483.496829
 31
0.0
  0
LINE
  5
18A
330
1F
100
AcDbEntity
  8
LC-004-001-----0
 62
     7
370
    50
100
AcDbLine
 10
454.417832
 20
488.496829
 30
0.0
 11
454.417832
 21
483.496829
 31
0.0
  0
LINE
  5
18B
330
1F
100
AcDbEntity
  8
LC-004-001-----0
 62
     7
370
    50
100
AcDbLine
 10
564.417832
 20
488.496829
 30
0.0
 11
564.417832
 21
483.496829
 31
0.0
  0
ARC
  5
18C
330
1F
100
AcDbEntity
  8
LC-002-002-----0
 62
     7
370
    50
100
AcDbCircle
 10
449.417832
 20
488.496829
 30
0.0
 40
5.0
100
AcDbArc
 50
0.0
 51
179.999848
  0
ARC
  5
18D
330
1F
100
AcDbEntity
  8
LC-002-002-----0
 62
     7
370
    50
100
AcDbCircle
 10
569.417832
 20
488.496829
 30
0.0
 40
5.0
100
AcDbArc
 50
0.0
 51
179.999848
  0
CIRCLE
  5
18E
330
1F
100
AcDbEntity
  8
LC-002-002-----0
 62
     7
370
    50
100
AcDbCircle
 10
569.417832
 20
488.496829
 30
0.0
 40
1.400000000000091
  0
CIRCLE
  5
18F
330
1F
100
AcDbEntity
  8
LC-002-002-----0
 62
     7
370
    50
100
AcDbCircle
 10
449.417832
 20
488.496829
 30
0.0
 40
1.399999999999977
  0
CIRCLE
  5
190
330
1F
100
AcDbEntity
  8
LC-002-002-----0
 62
     7
370
    50
100
AcDbCircle
 10
449.416311
 20
325.495155
 30
0.0
 40
1.400000000000026
  0
ARC
  5
191
330
1F
100
AcDbEntity
  8
LC-002-002-----0
 62
     7
370
    50
100
AcDbCircle
 10
449.416311
 20
325.495155
 30
0.0
 40
5.000000000000422
100
AcDbArc
 50
179.999906
 51
359.999696
  0
LINE
  5
192
330
1F
100
AcDbEntity
  8
LC-004-001-----0
 62
     7
370
    50
100
AcDbLine
 10
454.416311
 20
325.495128
 30
0.0
 11
454.416338
 21
330.495128
 31
0.0
  0
LINE
  5
193
330
1F
100
AcDbEntity
  8
LC-004-001-----0
 62
     7
370
    50
100
AcDbLine
 10
444.416311
 20
325.495182
 30
0.0
 11
444.416338
 21
330.495182
 31
0.0
  0
CIRCLE
  5
194
330
1F
100
AcDbEntity
  8
LC-002-002-----0
 62
     7
370
    50
100
AcDbCircle
 10
569.416311
 20
325.494518
 30
0.0
 40
1.400000000000026
  0
ARC
  5
195
330
1F
100
AcDbEntity
  8
LC-002-002-----0
 62
     7
370
    50
100
AcDbCircle
 10
569.416311
 20
325.494518
 30
0.0
 40
5.000000000000308
100
AcDbArc
 50
179.999906
 51
359.999696
  0
LINE
  5
196
330
1F
100
AcDbEntity
  8
LC-004-001-----0
 62
     7
370
    50
100
AcDbLine
 10
564.416311
 20
325.494545
 30
0.0
 11
564.416338
 21
330.494545
 31
0.0
  0
LINE
  5
197
330
1F
100
AcDbEntity
  8
LC-004-001-----0
 62
     7
370
    50
100
AcDbLine
 10
574.416311
 20
325.494492
 30
0.0
 11
574.416338
 21
330.494492
 31
0.0
  0
LINE
  5
199
102
{ACAD_REACTORS
330
2E6
102
}
330
1F
100
AcDbEntity
  8
LC-009-202-----0
 62
     7
370
    50
100
AcDbLine
 10
326.556556
 20
323.745799
 30
0.0
 11
317.306556
 21
323.746758
 31
0.0
  0
LINE
  5
19A
330
1F
100
AcDbEntity
  8
LC-002-002-----0
 62
     7
370
    50
100
AcDbLine
 10
438.917832
 20
483.496829
 30
0.0
 11
582.917832
 21
483.496829
 31
0.0
  0
LINE
  5
19B
330
1F
100
AcDbEntity
  8
LC-002-002-----0
 62
     7
370
    50
100
AcDbLine
 10
183.806767
 20
316.752689
 30
0.0
 11
183.806767
 21
311.752689
 31
0.0
  0
LINE
  5
19C
330
1F
100
AcDbEntity
  8
LC-002-002-----0
 62
     7
370
    50
100
AcDbLine
 10
183.806767
 20
311.752689
 30
0.0
 11
189.306767
 21
311.752689
 31
0.0
  0
LINE
  5
19D
330
1F
100
AcDbEntity
  8
LC-004-001-----0
 62
     7
370
    50
100
AcDbLine
 10
444.417832
 20
298.496829
 30
0.0
 11
444.417832
 21
293.496829
 31
0.0
  0
LINE
  5
19E
330
1F
100
AcDbEntity
  8
LC-004-001-----0
 62
     7
370
    50
100
AcDbLine
 10
574.417832
 20
298.496829
 30
0.0
 11
574.417832
 21
293.496829
 31
0.0
  0
LINE
  5
19F
330
1F
100
AcDbEntity
  8
LC-004-001-----0
 62
     7
370
    50
100
AcDbLine
 10
454.417832
 20
298.496829
 30
0.0
 11
454.417832
 21
293.496829
 31
0.0
  0
LINE
  5
1A0
330
1F
100
AcDbEntity
  8
LC-004-001-----0
 62
     7
370
    50
100
AcDbLine
 10
564.417832
 20
298.496829
 30
0.0
 11
564.417832
 21
293.496829
 31
0.0
  0
ARC
  5
1A1
330
1F
100
AcDbEntity
  8
LC-002-002-----0
 62
     7
370
    50
100
AcDbCircle
 10
449.417832
 20
298.496829
 30
0.0
 40
5.0
100
AcDbArc
 50
0.0
 51
179.999848
  0
ARC
  5
1A2
330
1F
100
AcDbEntity
  8
LC-002-002-----0
 62
     7
370
    50
100
AcDbCircle
 10
569.417832
 20
298.496829
 30
0.0
 40
5.0
100
AcDbArc
 50
0.0
 51
179.999848
  0
CIRCLE
  5
1A3
330
1F
100
AcDbEntity
  8
LC-002-002-----0
 62
     7
370
    50
100
AcDbCircle
 10
569.417832
 20
298.496829
 30
0.0
 40
1.400000000000091
  0
CIRCLE
  5
1A4
330
1F
100
AcDbEntity
  8
LC-002-002-----0
 62
     7
370
    50
100
AcDbCircle
 10
449.417832
 20
298.496829
 30
0.0
 40
1.399999999999977
  0
CIRCLE
  5
1A5
330
1F
100
AcDbEntity
  8
LC-002-002-----0
 62
     7
370
    50
100
AcDbCircle
 10
449.416311
 20
135.495155
 30
0.0
 40
1.400000000000026
  0
ARC
  5
1A6
330
1F
100
AcDbEntity
  8
LC-002-002-----0
 62
     7
370
    50
100
AcDbCircle
 10
449.416311
 20
135.495155
 30
0.0
 40
5.000000000000422
100
AcDbArc
 50
179.999906
 51
359.999696
  0
LINE
  5
1A7
330
1F
100
AcDbEntity
  8
LC-004-001-----0
 62
     7
370
    50
100
AcDbLine
 10
454.416311
 20
135.495128
 30
0.0
 11
454.416338
 21
140.495128
 31
0.0
  0
LINE
  5
1A8
330
1F
100
AcDbEntity
  8
LC-004-001-----0
 62
     7
370
    50
100
AcDbLine
 10
444.416311
 20
135.495182
 30
0.0
 11
444.416338
 21
140.495182
 31
0.0
  0
CIRCLE
  5
1A9
330
1F
100
AcDbEntity
  8
LC-002-002-----0
 62
     7
370
    50
100
AcDbCircle
 10
569.416311
 20
135.494518
 30
0.0
 40
1.400000000000026
  0
ARC
  5
1AA
330
1F
100
AcDbEntity
  8
LC-002-002-----0
 62
     7
370
    50
100
AcDbCircle
 10
569.416311
 20
135.494518
 30
0.0
 40
5.000000000000308
100
AcDbArc
 50
179.999906
 51
359.999696
  0
LINE
  5
1AB
330
1F
100
AcDbEntity
  8
LC-004-001-----0
 62
     7
370
    50
100
AcDbLine
 10
564.416311
 20
135.494545
 30
0.0
 11
564.416338
 21
140.494545
 31
0.0
  0
LINE
  5
1AC
330
1F
100
AcDbEntity
  8
LC-004-001-----0
 62
     7
370
    50
100
AcDbLine
 10
574.416311
 20
135.494492
 30
0.0
 11
574.416338
 21
140.494492
 31
0.0
  0
LINE
  5
1AD
330
1F
100
AcDbEntity
  8
LC-004-001-----0
 62
     7
370
    50
100
AcDbLine
 10
445.417849
 20
286.493101
 30
0.0
 11
510.916618
 21
286.492817
 31
0.0
  0
LINE
  5
1AE
330
1F
100
AcDbEntity
  8
LC-004-001-----0
 62
     7
370
    50
100
AcDbLine
 10
576.417964
 20
286.492463
 30
0.0
 11
510.916649
 21
286.492704
 31
0.0
  0
LINE
  5
1AF
330
1F
100
AcDbEntity
  8
LC-002-002-----0
 62
     7
370
    50
100
AcDbLine
 10
582.917832
 20
291.996829
 30
0.0
 11
438.917832
 21
291.996829
 31
0.0
  0
LINE
  5
1B0
330
1F
100
AcDbEntity
  8
LC-002-002-----0
 62
     7
370
    50
100
AcDbLine
 10
438.917832
 20
293.496829
 30
0.0
 11
582.917832
 21
293.496829
 31
0.0
  0
LINE
  5
1B1
330
1F
100
AcDbEntity
  8
LC-002-002-----0
 62
     7
370
    50
100
AcDbLine
 10
434.417832
 20
288.996829
 30
0.0
 11
434.417832
 21
144.996829
 31
0.0
  0
LINE
  5
1B2
330
1F
100
AcDbEntity
  8
LC-002-002-----0
 62
     7
370
    50
100
AcDbLine
 10
435.917832
 20
288.996829
 30
0.0
 11
435.917832
 21
144.996829
 31
0.0
  0
LINE
  5
1B3
330
1F
100
AcDbEntity
  8
LC-002-002-----0
 62
     7
370
    50
100
AcDbLine
 10
438.917832
 20
140.496829
 30
0.0
 11
582.917832
 21
140.496829
 31
0.0
  0
LINE
  5
1B4
330
1F
100
AcDbEntity
  8
LC-002-002-----0
 62
     7
370
    50
100
AcDbLine
 10
438.917832
 20
141.996829
 30
0.0
 11
582.917832
 21
141.996829
 31
0.0
  0
LINE
  5
1B5
330
1F
100
AcDbEntity
  8
LC-004-001-----0
 62
     7
370
    50
100
AcDbLine
 10
445.417832
 20
147.496829
 30
0.0
 11
510.917832
 21
147.496829
 31
0.0
  0
LINE
  5
1B6
330
1F
100
AcDbEntity
  8
LC-002-002-----0
 62
     7
370
    50
100
AcDbLine
 10
585.917832
 20
144.996829
 30
0.0
 11
585.917832
 21
288.996829
 31
0.0
  0
LINE
  5
1B7
330
1F
100
AcDbEntity
  8
LC-002-002-----0
 62
     7
370
    50
100
AcDbLine
 10
587.417832
 20
144.996829
 30
0.0
 11
587.417832
 21
288.996829
 31
0.0
  0
ARC
  5
1B8
330
1F
100
AcDbEntity
  8
LC-002-002-----0
 62
     7
370
    50
100
AcDbCircle
 10
438.917832
 20
288.996829
 30
0.0
 40
4.5
100
AcDbArc
 50
90.0
 51
179.999848
  0
ARC
  5
1B9
330
1F
100
AcDbEntity
  8
LC-002-002-----0
 62
     7
370
    50
100
AcDbCircle
 10
438.917832
 20
288.996829
 30
0.0
 40
3.0
100
AcDbArc
 50
90.0
 51
179.999848
  0
ARC
  5
1BA
330
1F
100
AcDbEntity
  8
LC-002-002-----0
 62
     7
370
    50
100
AcDbCircle
 10
582.917832
 20
288.996829
 30
0.0
 40
3.000000000000227
100
AcDbArc
 50
0.0
 51
90.0
  0
ARC
  5
1BB
330
1F
100
AcDbEntity
  8
LC-002-002-----0
 62
     7
370
    50
100
AcDbCircle
 10
582.917832
 20
288.996829
 30
0.0
 40
4.500000000000227
100
AcDbArc
 50
0.0
 51
90.0
  0
ARC
  5
1BC
330
1F
100
AcDbEntity
  8
LC-004-001-----0
 62
     7
370
    50
100
AcDbCircle
 10
445.417832
 20
282.493101
 30
0.0
 40
4.000000000000155
100
AcDbArc
 50
89.999752
 51
180.0
  0
ARC
  5
1BD
330
1F
100
AcDbEntity
  8
LC-004-001-----0
 62
     7
370
    50
100
AcDbCircle
 10
576.417949
 20
282.492463
 30
0.0
 40
4.000000000000267
100
AcDbArc
 50
0.000021
 51
89.999789
  0
ARC
  5
1BE
330
1F
100
AcDbEntity
  8
LC-002-002-----0
 62
     7
370
    50
100
AcDbCircle
 10
438.917832
 20
144.996829
 30
0.0
 40
3.0
100
AcDbArc
 50
180.0
 51
270.000058
  0
ARC
  5
1BF
330
1F
100
AcDbEntity
  8
LC-002-002-----0
 62
     7
370
    50
100
AcDbCircle
 10
438.917832
 20
144.996829
 30
0.0
 40
4.500000000000155
100
AcDbArc
 50
179.999848
 51
270.0
  0
ARC
  5
1C0
330
1F
100
AcDbEntity
  8
LC-004-001-----0
 62
     7
370
    50
100
AcDbCircle
 10
445.417832
 20
151.496829
 30
0.0
 40
4.0
100
AcDbArc
 50
180.0
 51
270.000058
  0
ARC
  5
1C1
330
1F
100
AcDbEntity
  8
LC-004-001-----0
 62
     7
370
    50
100
AcDbCircle
 10
576.417864
 20
151.496899
 30
0.0
 40
4.000000000000002
100
AcDbArc
 50
269.999963
 51
0.000021
  0
ARC
  5
1C2
330
1F
100
AcDbEntity
  8
LC-002-002-----0
 62
     7
370
    50
100
AcDbCircle
 10
582.917832
 20
144.996829
 30
0.0
 40
4.5
100
AcDbArc
 50
270.0
 51
0.0
  0
ARC
  5
1C3
330
1F
100
AcDbEntity
  8
LC-002-002-----0
 62
     7
370
    50
100
AcDbCircle
 10
582.917832
 20
144.996829
 30
0.0
 40
3.0
100
AcDbArc
 50
270.0
 51
0.0
  0
LINE
  5
1C4
330
1F
100
AcDbEntity
  8
LC-004-001-----0
 62
     7
370
    50
100
AcDbLine
 10
441.417832
 20
282.493101
 30
0.0
 11
441.417832
 21
151.496829
 31
0.0
  0
LINE
  5
1C5
330
1F
100
AcDbEntity
  8
LC-004-001-----0
 62
     7
370
    50
100
AcDbLine
 10
445.417832
 20
147.496829
 30
0.0
 11
510.917832
 21
147.496829
 31
0.0
  0
LINE
  5
1C6
330
1F
100
AcDbEntity
  8
LC-004-001-----0
 62
     7
370
    50
100
AcDbLine
 10
576.417861
 20
147.496899
 30
0.0
 11
510.917862
 21
147.496942
 31
0.0
  0
LINE
  5
1C7
330
1F
100
AcDbEntity
  8
LC-004-001-----0
 62
     7
370
    50
100
AcDbLine
 10
580.417949
 20
282.492461
 30
0.0
 11
580.417913
 21
226.536307
 31
0.0
  0
ARC
  5
1C8
330
1F
100
AcDbEntity
  8
LC-002-002-----0
 62
     7
370
    50
100
AcDbCircle
 10
583.417861
 20
216.996899
 30
0.0
 40
9.999999999999995
100
AcDbArc
 50
107.457293
 51
252.542632
  0
LINE
  5
1C9
330
1F
100
AcDbEntity
  8
LC-004-001-----0
 62
     7
370
    50
100
AcDbLine
 10
580.4179
 20
207.457495
 30
0.0
 11
580.417864
 21
151.496896
 31
0.0
  0
LINE
  5
1CA
102
{ACAD_REACTORS
330
300
102
}
330
1F
100
AcDbEntity
  8
LC-009-202-----0
 62
     7
370
    50
100
AcDbLine
 10
330.107775
 20
323.745553
 30
0.0
 11
260.306556
 21
323.752689
 31
0.0
  0
LINE
  5
1CB
330
1F
100
AcDbEntity
  8
LC-002-002-----0
 62
     7
370
    50
100
AcDbLine
 10
451.417832
 20
268.243075
 30
0.0
 11
441.417832
 21
268.243118
 31
0.0
  0
LINE
  5
1CC
330
1F
100
AcDbEntity
  8
LC-002-002-----0
 62
     7
370
    50
100
AcDbLine
 10
441.417832
 20
252.743118
 30
0.0
 11
451.417832
 21
252.743075
 31
0.0
  0
LINE
  5
1CD
330
1F
100
AcDbEntity
  8
LC-002-002-----0
 62
     7
370
    50
100
AcDbLine
 10
441.417832
 20
181.246829
 30
0.0
 11
451.417832
 21
181.246829
 31
0.0
  0
LINE
  5
1CE
330
1F
100
AcDbEntity
  8
LC-002-002-----0
 62
     7
370
    50
100
AcDbLine
 10
451.417832
 20
165.746829
 30
0.0
 11
441.417832
 21
165.746829
 31
0.0
  0
LINE
  5
1CF
330
1F
100
AcDbEntity
  8
LC-002-002-----0
 62
     7
370
    50
100
AcDbLine
 10
451.417832
 20
268.243075
 30
0.0
 11
451.417832
 21
252.743118
 31
0.0
  0
LINE
  5
1D0
330
1F
100
AcDbEntity
  8
LC-002-002-----0
 62
     7
370
    50
100
AcDbLine
 10
451.417832
 20
181.246829
 30
0.0
 11
451.417832
 21
165.746829
 31
0.0
  0
CIRCLE
  5
1D1
330
1F
100
AcDbEntity
  8
LC-002-002-----0
 62
     7
370
    50
100
AcDbCircle
 10
570.416481
 20
276.492455
 30
0.0
 40
5.0
  0
CIRCLE
  5
1D2
330
1F
100
AcDbEntity
  8
LC-002-002-----0
 62
     7
370
    50
100
AcDbCircle
 10
570.416481
 20
158.492455
 30
0.0
 40
5.0
  0
LINE
  5
1D3
330
1F
100
AcDbEntity
  8
LC-002-002-----0
 62
     7
370
    50
100
AcDbLine
 10
566.390618
 20
155.527252
 30
0.0
 11
573.381683
 21
162.518318
 31
0.0
  0
LINE
  5
1D4
330
1F
100
AcDbEntity
  8
LC-002-002-----0
 62
     7
370
    50
100
AcDbLine
 10
567.411277
 20
154.426591
 30
0.0
 11
574.482345
 21
161.497659
 31
0.0
  0
LINE
  5
1D5
330
1F
100
AcDbEntity
  8
LC-002-002-----0
 62
     7
370
    50
100
AcDbLine
 10
566.390618
 20
273.527252
 30
0.0
 11
573.381683
 21
280.518318
 31
0.0
  0
LINE
  5
1D6
330
1F
100
AcDbEntity
  8
LC-002-002-----0
 62
     7
370
    50
100
AcDbLine
 10
567.451278
 20
272.466592
 30
0.0
 11
574.442344
 21
279.457658
 31
0.0
  0
LINE
  5
1D7
330
1F
100
AcDbEntity
  8
LC-004-001-----0
 62
     7
370
    50
100
AcDbLine
 10
206.804936
 20
303.824912
 30
0.0
 11
206.802388
 21
234.754674
 31
0.0
  0
LINE
  5
1D8
330
1F
100
AcDbEntity
  8
LC-002-002-----0
 62
     7
370
    50
100
AcDbLine
 10
310.556504
 20
304.248331
 30
0.0
 11
318.865687
 21
304.248331
 31
0.0
  0
LINE
  5
1D9
330
1F
100
AcDbEntity
  8
LC-002-002-----0
 62
     7
370
    50
100
AcDbLine
 10
319.306504
 20
306.748331
 30
0.0
 11
308.306504
 21
306.748331
 31
0.0
  0
LINE
  5
1DA
330
1F
100
AcDbEntity
  8
LC-002-002-----0
 62
     7
370
    50
100
AcDbLine
 10
310.556504
 20
304.248331
 30
0.0
 11
310.556504
 21
300.248331
 31
0.0
  0
LINE
  5
1DB
330
1F
100
AcDbEntity
  8
LC-002-002-----0
 62
     7
370
    50
100
AcDbLine
 10
310.556504
 20
291.748331
 30
0.0
 11
260.306504
 21
291.748331
 31
0.0
  0
LINE
  5
1DC
330
1F
100
AcDbEntity
  8
LC-002-002-----0
 62
     7
370
    50
100
AcDbLine
 10
308.306504
 20
311.748331
 30
0.0
 11
308.306504
 21
306.748331
 31
0.0
  0
LINE
  5
1DD
330
1F
100
AcDbEntity
  8
LC-002-002-----0
 62
     7
370
    50
100
AcDbLine
 10
303.306504
 20
316.748331
 30
0.0
 11
271.306667
 21
316.748331
 31
0.0
  0
ARC
  5
1DE
330
1F
100
AcDbEntity
  8
LC-001-002-RND-0
 62
     7
370
    50
100
AcDbCircle
 10
303.306504
 20
311.748331
 30
0.0
 40
5.000000000000227
100
AcDbArc
 50
0.0
 51
90.0
  0
LINE
  5
1DF
330
1F
100
AcDbEntity
  8
LC-002-002-----0
 62
     7
370
    50
100
AcDbLine
 10
303.306504
 20
314.748331
 30
0.0
 11
260.306504
 21
314.748331
 31
0.0
  0
ARC
  5
1E0
330
1F
100
AcDbEntity
  8
LC-001-002-RND-0
 62
     7
370
    50
100
AcDbCircle
 10
303.306504
 20
311.748331
 30
0.0
 40
3.000000000000114
100
AcDbArc
 50
0.0
 51
90.0
  0
LINE
  5
1E1
330
1F
100
AcDbEntity
  8
LC-002-002-----0
 62
     7
370
    50
100
AcDbLine
 10
306.306504
 20
291.748331
 30
0.0
 11
306.306504
 21
311.748331
 31
0.0
  0
LINE
  5
1E2
330
1F
100
AcDbEntity
  8
LC-002-002-----0
 62
     7
370
    50
100
AcDbLine
 10
308.056028
 20
293.248331
 30
0.0
 11
308.056028
 21
295.748331
 31
0.0
  0
LINE
  5
1E3
330
1F
100
AcDbEntity
  8
LC-002-002-----0
 62
     7
370
    50
100
AcDbLine
 10
308.056028
 20
300.248331
 30
0.0
 11
310.556504
 21
300.248331
 31
0.0
  0
LINE
  5
1E4
330
1F
100
AcDbEntity
  8
LC-002-002-----0
 62
     7
370
    50
100
AcDbLine
 10
308.056028
 20
293.248331
 30
0.0
 11
310.556504
 21
293.248331
 31
0.0
  0
LINE
  5
1E5
330
1F
100
AcDbEntity
  8
LC-002-002-----0
 62
     7
370
    50
100
AcDbLine
 10
310.556504
 20
293.248331
 30
0.0
 11
310.556504
 21
291.748331
 31
0.0
  0
LINE
  5
1E6
330
1F
100
AcDbEntity
  8
LC-002-002-----0
 62
     7
370
    50
100
AcDbLine
 10
319.306504
 20
306.748331
 30
0.0
 11
318.865687
 21
304.248331
 31
0.0
  0
ARC
  5
1E7
330
1F
100
AcDbEntity
  8
LC-002-002-----0
 62
     7
370
    50
100
AcDbCircle
 10
310.931028
 20
297.019828
 30
0.0
 40
3.228502747732356
100
AcDbArc
 50
51.747848
 51
128.252152
  0
ARC
  5
1E8
330
1F
100
AcDbEntity
  8
LC-002-002-----0
 62
     7
370
    50
100
AcDbCircle
 10
310.356678
 20
297.748331
 30
0.0
 40
2.300820823199085
100
AcDbArc
 50
128.252152
 51
180.0
  0
ARC
  5
1E9
330
1F
100
AcDbEntity
  8
LC-002-002-----0
 62
     7
370
    50
100
AcDbCircle
 10
311.505377
 20
297.748331
 30
0.0
 40
2.300820823199103
100
AcDbArc
 50
0.0
 51
51.747848
  0
ARC
  5
1EA
330
1F
100
AcDbEntity
  8
LC-002-002-----0
 62
     7
370
    50
100
AcDbCircle
 10
310.356678
 20
295.748331
 30
0.0
 40
2.300820823199103
100
AcDbArc
 50
180.0
 51
231.747848
  0
ARC
  5
1EB
330
1F
100
AcDbEntity
  8
LC-002-002-----0
 62
     7
370
    50
100
AcDbCircle
 10
310.931028
 20
296.476834
 30
0.0
 40
3.228502747732356
100
AcDbArc
 50
231.747848
 51
308.252152
  0
ARC
  5
1EC
330
1F
100
AcDbEntity
  8
LC-002-002-----0
 62
     7
370
    50
100
AcDbCircle
 10
311.505377
 20
295.748331
 30
0.0
 40
2.300820823199085
100
AcDbArc
 50
308.252152
 51
0.0
  0
LINE
  5
1ED
330
1F
100
AcDbEntity
  8
LC-002-002-----0
 62
     7
370
    50
100
AcDbLine
 10
308.056028
 20
297.748331
 30
0.0
 11
308.056028
 21
300.248331
 31
0.0
  0
LINE
  5
1EE
330
1F
100
AcDbEntity
  8
LC-002-002-----0
 62
     7
370
    50
100
AcDbLine
 10
308.056028
 20
297.748331
 30
0.0
 11
308.056028
 21
295.748331
 31
0.0
  0
INSERT
  5
214
330
1F
100
AcDbEntity
  8
LC-003-005-----0
 62
     7
370
    25
100
AcDbBlockReference
  2
*X59
 10
0.0
 20
0.0
 30
0.0
  0
LINE
  5
215
330
1F
100
AcDbEntity
  8
LC-002-002-----0
 62
     7
370
    50
100
AcDbLine
 10
271.306667
 20
316.748331
 30
0.0
 11
271.306667
 21
323.248331
 31
0.0
  0
LINE
  5
216
330
1F
100
AcDbEntity
  8
LC-002-002-----0
 62
     7
370
    50
100
AcDbLine
 10
271.306667
 20
323.248331
 30
0.0
 11
226.306667
 21
323.248331
 31
0.0
  0
LINE
  5
217
330
1F
100
AcDbEntity
  8
LC-002-002-----0
 62
     7
370
    50
100
AcDbLine
 10
268.806667
 20
316.748331
 30
0.0
 11
268.806667
 21
323.248331
 31
0.0
  0
LINE
  5
218
330
1F
100
AcDbEntity
  8
LC-002-002-----0
 62
     7
370
    50
100
AcDbLine
 10
268.806667
 20
316.748331
 30
0.0
 11
260.306504
 21
316.748331
 31
0.0
  0
LINE
  5
219
330
1F
100
AcDbEntity
  8
LC-002-002-----0
 62
     7
370
    50
100
AcDbLine
 10
228.806667
 20
316.748331
 30
0.0
 11
228.806667
 21
323.248331
 31
0.0
  0
LINE
  5
21A
330
1F
100
AcDbEntity
  8
LC-002-002-----0
 62
     7
370
    50
100
AcDbLine
 10
226.306667
 20
316.748331
 30
0.0
 11
226.306667
 21
323.248331
 31
0.0
  0
LINE
  5
21B
330
1F
100
AcDbEntity
  8
LC-002-002-----0
 62
     7
370
    50
100
AcDbLine
 10
217.306504
 20
314.748331
 30
0.0
 11
260.306504
 21
314.748331
 31
0.0
  0
LINE
  5
21C
330
1F
100
AcDbEntity
  8
LC-002-002-----0
 62
     7
370
    50
100
AcDbLine
 10
217.306504
 20
316.748331
 30
0.0
 11
226.306667
 21
316.748331
 31
0.0
  0
ARC
  5
21D
330
1F
100
AcDbEntity
  8
LC-001-002-RND-0
 62
     7
370
    50
100
AcDbCircle
 10
217.306504
 20
311.748331
 30
0.0
 40
3.000000000000227
100
AcDbArc
 50
90.0
 51
180.0
  0
ARC
  5
21E
330
1F
100
AcDbEntity
  8
LC-001-002-RND-0
 62
     7
370
    50
100
AcDbCircle
 10
217.306504
 20
311.748331
 30
0.0
 40
5.000000000000455
100
AcDbArc
 50
90.0
 51
180.0
  0
LINE
  5
21F
330
1F
100
AcDbEntity
  8
LC-002-002-----0
 62
     7
370
    50
100
AcDbLine
 10
212.306504
 20
311.748331
 30
0.0
 11
212.306504
 21
306.748331
 31
0.0
  0
LINE
  5
220
330
1F
100
AcDbEntity
  8
LC-002-002-----0
 62
     7
370
    50
100
AcDbLine
 10
214.306504
 20
291.748331
 30
0.0
 11
214.306504
 21
311.748331
 31
0.0
  0
LINE
  5
221
330
1F
100
AcDbEntity
  8
LC-002-002-----0
 62
     7
370
    50
100
AcDbLine
 10
210.056504
 20
291.748331
 30
0.0
 11
260.306504
 21
291.748331
 31
0.0
  0
LINE
  5
222
330
1F
100
AcDbEntity
  8
LC-002-002-----0
 62
     7
370
    50
100
AcDbLine
 10
201.306504
 20
306.748331
 30
0.0
 11
212.306504
 21
306.748331
 31
0.0
  0
LINE
  5
223
330
1F
100
AcDbEntity
  8
LC-002-002-----0
 62
     7
370
    50
100
AcDbLine
 10
201.306504
 20
306.748331
 30
0.0
 11
201.747322
 21
304.248331
 31
0.0
  0
LINE
  5
224
330
1F
100
AcDbEntity
  8
LC-002-002-----0
 62
     7
370
    50
100
AcDbLine
 10
210.056504
 20
304.248331
 30
0.0
 11
201.747322
 21
304.248331
 31
0.0
  0
LINE
  5
225
330
1F
100
AcDbEntity
  8
LC-002-002-----0
 62
     7
370
    50
100
AcDbLine
 10
210.056504
 20
304.248331
 30
0.0
 11
210.056504
 21
300.248331
 31
0.0
  0
LINE
  5
226
330
1F
100
AcDbEntity
  8
LC-002-002-----0
 62
     7
370
    50
100
AcDbLine
 10
212.556981
 20
300.248331
 30
0.0
 11
210.056504
 21
300.248331
 31
0.0
  0
LINE
  5
227
330
1F
100
AcDbEntity
  8
LC-002-002-----0
 62
     7
370
    50
100
AcDbLine
 10
212.556981
 20
293.248331
 30
0.0
 11
212.556981
 21
298.248331
 31
0.0
  0
LINE
  5
228
330
1F
100
AcDbEntity
  8
LC-002-002-----0
 62
     7
370
    50
100
AcDbLine
 10
212.556981
 20
293.248331
 30
0.0
 11
210.056504
 21
293.248331
 31
0.0
  0
LINE
  5
229
330
1F
100
AcDbEntity
  8
LC-002-002-----0
 62
     7
370
    50
100
AcDbLine
 10
210.056504
 20
293.248331
 30
0.0
 11
210.056504
 21
291.748331
 31
0.0
  0
ARC
  5
22A
330
1F
100
AcDbEntity
  8
LC-002-002-----0
 62
     7
370
    50
100
AcDbCircle
 10
209.681981
 20
297.019828
 30
0.0
 40
3.22850274773248
100
AcDbArc
 50
51.747848
 51
128.252152
  0
ARC
  5
22B
330
1F
100
AcDbEntity
  8
LC-002-002-----0
 62
     7
370
    50
100
AcDbCircle
 10
210.256331
 20
297.748331
 30
0.0
 40
2.300820823199217
100
AcDbArc
 50
0.0
 51
51.747848
  0
ARC
  5
22C
330
1F
100
AcDbEntity
  8
LC-002-002-----0
 62
     7
370
    50
100
AcDbCircle
 10
209.107631
 20
297.748331
 30
0.0
 40
2.300820823199165
100
AcDbArc
 50
128.252152
 51
180.0
  0
ARC
  5
22D
330
1F
100
AcDbEntity
  8
LC-002-002-----0
 62
     7
370
    50
100
AcDbCircle
 10
210.256331
 20
295.748331
 30
0.0
 40
2.30082082319921
100
AcDbArc
 50
308.252152
 51
0.0
  0
ARC
  5
22E
330
1F
100
AcDbEntity
  8
LC-002-002-----0
 62
     7
370
    50
100
AcDbCircle
 10
209.681981
 20
296.476834
 30
0.0
 40
3.228502747732515
100
AcDbArc
 50
231.747848
 51
308.252152
  0
ARC
  5
22F
330
1F
100
AcDbEntity
  8
LC-002-002-----0
 62
     7
370
    50
100
AcDbCircle
 10
209.107631
 20
295.748331
 30
0.0
 40
2.30082082319916
100
AcDbArc
 50
180.0
 51
231.747848
  0
LINE
  5
230
330
1F
100
AcDbEntity
  8
LC-002-002-----0
 62
     7
370
    50
100
AcDbLine
 10
212.556981
 20
300.248331
 30
0.0
 11
212.556981
 21
298.248331
 31
0.0
  0
INSERT
  5
256
330
1F
100
AcDbEntity
  8
LC-003-005-----0
 62
     7
370
    25
100
AcDbBlockReference
  2
*X610
 10
0.0
 20
0.0
 30
0.0
  0
LINE
  5
257
330
1F
100
AcDbEntity
  8
LC-002-002-----0
 62
     7
370
    50
100
AcDbLine
 10
228.806667
 20
316.748331
 30
0.0
 11
260.306504
 21
316.748331
 31
0.0
  0
CIRCLE
  5
258
330
1F
100
AcDbEntity
  8
LC-002-002-----0
 62
     7
370
    50
100
AcDbCircle
 10
276.806667
 20
317.748331
 30
0.0
 40
1.0
  0
LINE
  5
259
330
1F
100
AcDbEntity
  8
LC-002-002-----0
 62
     7
370
    50
100
AcDbLine
 10
271.306667
 20
318.94476
 30
0.0
 11
276.806667
 21
318.748331
 31
0.0
  0
LINE
  5
25A
330
1F
100
AcDbEntity
  8
LC-002-002-----0
 62
     7
370
    50
100
AcDbLine
 10
271.306667
 20
316.94476
 30
0.0
 11
276.806667
 21
316.748331
 31
0.0
  0
INSERT
  5
268
330
1F
100
AcDbEntity
  8
LC-003-005-----0
 62
     7
370
    25
100
AcDbBlockReference
  2
*X711
 10
0.0
 20
0.0
 30
0.0
  0
CIRCLE
  5
269
330
1F
100
AcDbEntity
  8
LC-002-002-----0
 62
     7
370
    50
100
AcDbCircle
 10
510.917832
 20
406.996829
 30
0.0
 40
59.0
  0
CIRCLE
  5
26A
330
1F
100
AcDbEntity
  8
LC-002-002-----0
 62
     7
370
    50
100
AcDbCircle
 10
510.917832
 20
406.996829
 30
0.0
 40
48.0
  0
CIRCLE
  5
26B
330
1F
100
AcDbEntity
  8
LC-002-002-----0
 62
     7
370
    50
100
AcDbCircle
 10
499.417832
 20
406.996829
 30
0.0
 40
20.0
  0
CIRCLE
  5
26C
330
1F
100
AcDbEntity
  8
LC-002-002-----0
 62
     7
370
    50
100
AcDbCircle
 10
499.417832
 20
406.996829
 30
0.0
 40
22.5
  0
LINE
  5
26D
330
1F
100
AcDbEntity
  8
LC-002-002-----0
 62
     7
370
    50
100
AcDbLine
 10
500.417832
 20
424.496829
 30
0.0
 11
500.417832
 21
426.971813
 31
0.0
  0
LINE
  5
26E
330
1F
100
AcDbEntity
  8
LC-002-002-----0
 62
     7
370
    50
100
AcDbLine
 10
498.417832
 20
424.496829
 30
0.0
 11
498.417832
 21
426.971813
 31
0.0
  0
LINE
  5
26F
330
1F
100
AcDbEntity
  8
LC-002-002-----0
 62
     7
370
    50
100
AcDbLine
 10
498.417832
 20
424.496829
 30
0.0
 11
500.417832
 21
424.496829
 31
0.0
  0
LINE
  5
270
330
1F
100
AcDbEntity
  8
LC-002-002-----0
  6
DASHED
 62
     7
370
    25
100
AcDbLine
 10
498.417832
 20
429.474596
 30
0.0
 11
498.417832
 21
426.971813
 31
0.0
  0
LINE
  5
271
330
1F
100
AcDbEntity
  8
LC-002-002-----0
  6
DASHED
 62
     7
370
    25
100
AcDbLine
 10
500.417832
 20
429.474596
 30
0.0
 11
500.417832
 21
426.971813
 31
0.0
  0
LINE
  5
272
330
1F
100
AcDbEntity
  8
LC-002-002-----0
 62
     7
370
    50
100
AcDbLine
 10
498.417832
 20
389.496829
 30
0.0
 11
500.417832
 21
389.496829
 31
0.0
  0
LINE
  5
273
330
1F
100
AcDbEntity
  8
LC-002-002-----0
 62
     7
370
    50
100
AcDbLine
 10
498.417832
 20
389.496829
 30
0.0
 11
498.417832
 21
387.021845
 31
0.0
  0
LINE
  5
274
330
1F
100
AcDbEntity
  8
LC-002-002-----0
 62
     7
370
    50
100
AcDbLine
 10
500.417832
 20
389.496829
 30
0.0
 11
500.417832
 21
387.021845
 31
0.0
  0
LINE
  5
275
330
1F
100
AcDbEntity
  8
LC-002-002-----0
  6
DASHED
 62
     7
370
    25
100
AcDbLine
 10
500.417832
 20
384.519062
 30
0.0
 11
500.417832
 21
387.021845
 31
0.0
  0
LINE
  5
276
330
1F
100
AcDbEntity
  8
LC-002-002-----0
  6
DASHED
 62
     7
370
    25
100
AcDbLine
 10
498.417832
 20
384.519062
 30
0.0
 11
498.417832
 21
387.021845
 31
0.0
  0
ARC
  5
277
330
1F
100
AcDbEntity
  8
LC-001-002-RND-0
 62
     7
370
    50
100
AcDbCircle
 10
501.417832
 20
431.916701
 30
0.0
 40
3.000000000000029
100
AcDbArc
 50
85.411434
 51
180.0
  0
LINE
  5
278
330
1F
100
AcDbEntity
  8
LC-002-002-----0
 62
     7
370
    50
100
AcDbLine
 10
498.417832
 20
429.474596
 30
0.0
 11
498.417832
 21
431.916701
 31
0.0
  0
LINE
  5
279
330
1F
100
AcDbEntity
  8
LC-002-002-----0
 62
     7
370
    50
100
AcDbLine
 10
498.417832
 20
384.519062
 30
0.0
 11
498.417832
 21
382.076958
 31
0.0
  0
ARC
  5
27A
330
1F
100
AcDbEntity
  8
LC-002-002-----0
 62
     7
370
    50
100
AcDbCircle
 10
499.417832
 20
406.996829
 30
0.0
 40
28.00000000000285
100
AcDbArc
 50
274.588566
 51
85.411434
  0
ARC
  5
27B
330
1F
100
AcDbEntity
  8
LC-001-002-RND-0
 62
     7
370
    50
100
AcDbCircle
 10
501.417832
 20
382.076958
 30
0.0
 40
3.000000000000114
100
AcDbArc
 50
180.0
 51
274.588566
  0
LINE
  5
27C
330
1F
100
AcDbEntity
  8
LC-002-002-----0
 62
     7
370
    50
100
AcDbLine
 10
500.417832
 20
384.519062
 30
0.0
 11
500.417832
 21
382.076958
 31
0.0
  0
ARC
  5
27D
330
1F
100
AcDbEntity
  8
LC-001-002-RND-0
 62
     7
370
    50
100
AcDbCircle
 10
501.417832
 20
382.076958
 30
0.0
 40
1.000000000000057
100
AcDbArc
 50
180.0
 51
274.588566
  0
ARC
  5
27E
330
1F
100
AcDbEntity
  8
LC-002-002-----0
 62
     7
370
    50
100
AcDbCircle
 10
499.417832
 20
406.996829
 30
0.0
 40
26.00000000000191
100
AcDbArc
 50
274.588566
 51
85.411434
  0
ARC
  5
27F
330
1F
100
AcDbEntity
  8
LC-001-002-RND-0
 62
     7
370
    50
100
AcDbCircle
 10
501.417832
 20
431.916701
 30
0.0
 40
1.000000000000008
100
AcDbArc
 50
85.411434
 51
180.0
  0
LINE
  5
280
330
1F
100
AcDbEntity
  8
LC-002-002-----0
 62
     7
370
    50
100
AcDbLine
 10
500.417832
 20
429.474596
 30
0.0
 11
500.417832
 21
431.916701
 31
0.0
  0
CIRCLE
  5
281
330
1F
100
AcDbEntity
  8
LC-002-002-----0
 62
     7
370
    50
100
AcDbCircle
 10
248.806667
 20
318.748331
 30
0.0
 40
1.0
  0
INSERT
  5
2C5
330
1F
100
AcDbEntity
  8
LC-003-005-----0
 62
     7
370
    25
100
AcDbBlockReference
  2
*X812
 10
0.0
 20
0.0
 30
0.0
  0
LINE
  5
2C6
330
1F
100
AcDbEntity
  8
LC-002-002-----0
 62
     7
370
    50
100
AcDbLine
 10
189.306767
 20
315.752689
 30
0.0
 11
189.306767
 21
311.752689
 31
0.0
  0
LINE
  5
2C7
330
1F
100
AcDbEntity
  8
LC-002-002-----0
 62
     7
370
    50
100
AcDbLine
 10
190.806767
 20
317.252689
 30
0.0
 11
192.309151
 21
317.252689
 31
0.0
  0
LINE
  5
2C8
330
1F
100
AcDbEntity
  8
LC-002-002-----0
 62
     7
370
    50
100
AcDbLine
 10
190.006767
 20
321.752689
 30
0.0
 11
196.556767
 21
321.752689
 31
0.0
  0
LINE
  5
2C9
330
1F
100
AcDbEntity
  8
LC-002-002-----0
 62
     7
370
    50
100
AcDbLine
 10
190.806767
 20
322.552689
 30
0.0
 11
196.556767
 21
322.552689
 31
0.0
  0
ARC
  5
2CA
330
1F
100
AcDbEntity
  8
LC-001-002-RND-0
 62
     7
370
    50
100
AcDbCircle
 10
192.309151
 20
315.752689
 30
0.0
 40
1.500000000000079
100
AcDbArc
 50
359.998697
 51
90.0
  0
ARC
  5
2CB
330
1F
100
AcDbEntity
  8
LC-001-002-RND-0
 62
     7
370
    50
100
AcDbCircle
 10
190.806767
 20
315.752689
 30
0.0
 40
1.5
100
AcDbArc
 50
90.0
 51
180.0
  0
LINE
  5
2CC
330
1F
100
AcDbEntity
  8
LC-002-002-----0
 62
     7
370
    50
100
AcDbLine
 10
198.056767
 20
321.052689
 30
0.0
 11
198.056767
 21
320.052689
 31
0.0
  0
ARC
  5
2CD
330
1F
100
AcDbEntity
  8
LC-001-002-RND-0
 62
     7
370
    50
100
AcDbCircle
 10
196.556767
 20
321.052689
 30
0.0
 40
1.5
100
AcDbArc
 50
0.0
 51
90.0
  0
LINE
  5
2CE
330
1F
100
AcDbEntity
  8
LC-002-002-----0
 62
     7
370
    50
100
AcDbLine
 10
197.256767
 20
320.052689
 30
0.0
 11
226.308759
 21
320.052689
 31
0.0
  0
LINE
  5
2CF
330
1F
100
AcDbEntity
  8
LC-002-002-----0
 62
     7
370
    50
100
AcDbLine
 10
197.256767
 20
321.052689
 30
0.0
 11
197.256767
 21
320.052689
 31
0.0
  0
LINE
  5
2D0
330
1F
100
AcDbEntity
  8
LC-002-002-----0
 62
     7
370
    50
100
AcDbLine
 10
201.058941
 20
303.750086
 30
0.0
 11
201.058941
 21
320.052689
 31
0.0
  0
ARC
  5
2D1
330
1F
100
AcDbEntity
  8
LC-001-002-RND-0
 62
     7
370
    50
100
AcDbCircle
 10
196.556767
 20
321.052689
 30
0.0
 40
0.7000000000000455
100
AcDbArc
 50
0.0
 51
90.0
  0
LINE
  5
2D2
330
1F
100
AcDbEntity
  8
LC-002-002-----0
 62
     7
370
    50
100
AcDbLine
 10
190.806767
 20
325.252689
 30
0.0
 11
190.806767
 21
322.552689
 31
0.0
  0
LINE
  5
2D3
330
1F
100
AcDbEntity
  8
LC-002-002-----0
 62
     7
370
    50
100
AcDbLine
 10
185.306767
 20
325.252689
 30
0.0
 11
185.306767
 21
314.192505
 31
0.0
  0
LINE
  5
2D4
330
1F
100
AcDbEntity
  8
LC-004-001-----0
 62
     7
370
    50
100
AcDbLine
 10
186.806767
 20
326.752689
 30
0.0
 11
189.306767
 21
326.752689
 31
0.0
  0
ARC
  5
2D5
330
1F
100
AcDbEntity
  8
LC-002-002-----0
 62
     7
370
    50
100
AcDbCircle
 10
186.806767
 20
325.252689
 30
0.0
 40
1.500000000000194
100
AcDbArc
 50
89.999981
 51
180.0
  0
ARC
  5
2D6
330
1F
100
AcDbEntity
  8
LC-004-001-----0
 62
     7
370
    50
100
AcDbCircle
 10
186.806767
 20
325.252689
 30
0.0
 40
0.7000000000001592
100
AcDbArc
 50
90.0
 51
179.999848
  0
LINE
  5
2D7
330
1F
100
AcDbEntity
  8
LC-004-001-----0
 62
     7
370
    50
100
AcDbLine
 10
186.106767
 20
325.252689
 30
0.0
 11
186.106767
 21
314.192505
 31
0.0
  0
ARC
  5
2D8
330
1F
100
AcDbEntity
  8
LC-002-002-----0
 62
     7
370
    50
100
AcDbCircle
 10
189.306767
 20
325.252689
 30
0.0
 40
1.5
100
AcDbArc
 50
0.0
 51
89.999981
  0
LINE
  5
2D9
330
1F
100
AcDbEntity
  8
LC-004-001-----0
 62
     7
370
    50
100
AcDbLine
 10
186.806767
 20
325.952689
 30
0.0
 11
189.306767
 21
325.952689
 31
0.0
  0
ARC
  5
2DA
330
1F
100
AcDbEntity
  8
LC-004-001-----0
 62
     7
370
    50
100
AcDbCircle
 10
189.306767
 20
325.252689
 30
0.0
 40
0.7000000000001592
100
AcDbArc
 50
0.0
 51
90.0
  0
LINE
  5
2DB
330
1F
100
AcDbEntity
  8
LC-002-002-----0
 62
     7
370
    50
100
AcDbLine
 10
185.306767
 20
314.192505
 30
0.0
 11
186.106767
 21
314.192505
 31
0.0
  0
LINE
  5
2DC
330
1F
100
AcDbEntity
  8
LC-002-002-----0
 62
     7
370
    50
100
AcDbLine
 10
190.987246
 20
326.752689
 30
0.0
 11
190.987246
 21
323.752689
 31
0.0
  0
LINE
  5
2DD
330
1F
100
AcDbEntity
  8
LC-004-001-----0
 62
     7
370
    50
100
AcDbLine
 10
206.807235
 20
303.750355
 30
0.0
 11
201.058941
 21
303.750086
 31
0.0
  0
LINE
  5
2DE
330
1F
100
AcDbEntity
  8
LC-002-002-----0
 62
     7
370
    50
100
AcDbLine
 10
185.306767
 20
316.752689
 30
0.0
 11
183.806767
 21
316.752689
 31
0.0
  0
LINE
  5
2DF
330
1F
100
AcDbEntity
  8
LC-004-001-----0
 62
     7
370
    50
100
AcDbLine
 10
190.006767
 20
325.252689
 30
0.0
 11
190.006767
 21
321.752689
 31
0.0
  0
ENDSEC
  0
SECTION
  2
OBJECTS
  0
DICTIONARY
  5
C
330
0
100
AcDbDictionary
281
     1
  3
ACAD_GROUP
350
D
  3
ACAD_LAYOUT
350
1A
  3
ACAD_MLINESTYLE
350
17
  3
ACAD_PLOTSETTINGS
350
19
  3
ACAD_PLOTSTYLENAME
350
E
  0
DICTIONARY
  5
D
102
{ACAD_REACTORS
330
C
102
}
330
C
100
AcDbDictionary
281
     1
  3
LCGROUP100
350
2ED
  3
LCGROUP102
350
2EC
  3
LCGROUP104
350
2EB
  3
LCGROUP106
350
2EA
  3
LCGROUP108
350
2E9
  3
LCGROUP110
350
2E8
  3
LCGROUP112
350
2F7
  3
LCGROUP114
350
2F6
  3
LCGROUP116
350
2F5
  3
LCGROUP118
350
2F4
  3
LCGROUP120
350
2F3
  3
LCGROUP122
350
2F2
  3
LCGROUP124
350
2F1
  3
LCGROUP126
350
2F0
  3
LCGROUP129
350
2F8
  3
LCGROUP168
350
2F9
  3
LCGROUP18
350
2E2
  3
LCGROUP181
350
2FD
  3
LCGROUP183
350
2FC
  3
LCGROUP187
350
2FB
  3
LCGROUP189
350
2FA
  3
LCGROUP195
350
2FF
  3
LCGROUP20
350
2E1
  3
LCGROUP207
350
2FE
  3
LCGROUP296
350
2E0
  3
LCGROUP349
350
2E6
  3
LCGROUP46
350
2E3
  3
LCGROUP48
350
2E5
  3
LCGROUP504
350
300
  3
LCGROUP60
350
2E4
  3
LCGROUP76
350
2E7
  3
LCGROUP96
350
2EF
  3
LCGROUP98
350
2EE
  0
DICTIONARY
  5
1A
102
{ACAD_REACTORS
330
C
102
}
330
C
100
AcDbDictionary
281
     1
  3
Layout1
350
1E
  3
Layout2
350
26
  3
Model
350
22
  0
DICTIONARY
  5
17
102
{ACAD_REACTORS
330
C
102
}
330
C
100
AcDbDictionary
281
     1
  3
Standard
350
18
  0
DICTIONARY
  5
19
102
{ACAD_REACTORS
330
C
102
}
330
C
100
AcDbDictionary
281
     1
  0
ACDBDICTIONARYWDFLT
  5
E
102
{ACAD_REACTORS
330
C
102
}
330
C
100
AcDbDictionary
281
     1
  3
Normal
350
F
100
AcDbDictionaryWithDefault
340
F
  0
GROUP
  5
2ED
102
{ACAD_REACTORS
330
D
102
}
330
D
100
AcDbGroup
300
GRP100
 70
     1
 71
     1
340
144
  0
GROUP
  5
2EC
102
{ACAD_REACTORS
330
D
102
}
330
D
100
AcDbGroup
300
GRP102
 70
     1
 71
     1
340
145
  0
GROUP
  5
2EB
102
{ACAD_REACTORS
330
D
102
}
330
D
100
AcDbGroup
300
GRP104
 70
     1
 71
     1
340
146
  0
GROUP
  5
2EA
102
{ACAD_REACTORS
330
D
102
}
330
D
100
AcDbGroup
300
GRP106
 70
     1
 71
     1
340
147
  0
GROUP
  5
2E9
102
{ACAD_REACTORS
330
D
102
}
330
D
100
AcDbGroup
300
GRP108
 70
     1
 71
     1
340
148
  0
GROUP
  5
2E8
102
{ACAD_REACTORS
330
D
102
}
330
D
100
AcDbGroup
300
GRP110
 70
     1
 71
     1
340
149
  0
GROUP
  5
2F7
102
{ACAD_REACTORS
330
D
102
}
330
D
100
AcDbGroup
300
GRP112
 70
     1
 71
     1
340
14A
  0
GROUP
  5
2F6
102
{ACAD_REACTORS
330
D
102
}
330
D
100
AcDbGroup
300
GRP114
 70
     1
 71
     1
340
14B
  0
GROUP
  5
2F5
102
{ACAD_REACTORS
330
D
102
}
330
D
100
AcDbGroup
300
GRP116
 70
     1
 71
     1
340
14C
  0
GROUP
  5
2F4
102
{ACAD_REACTORS
330
D
102
}
330
D
100
AcDbGroup
300
GRP118
 70
     1
 71
     1
340
14D
  0
GROUP
  5
2F3
102
{ACAD_REACTORS
330
D
102
}
330
D
100
AcDbGroup
300
GRP120
 70
     1
 71
     1
340
14E
  0
GROUP
  5
2F2
102
{ACAD_REACTORS
330
D
102
}
330
D
100
AcDbGroup
300
GRP122
 70
     1
 71
     1
340
14F
  0
GROUP
  5
2F1
102
{ACAD_REACTORS
330
D
102
}
330
D
100
AcDbGroup
300
GRP124
 70
     1
 71
     1
340
150
  0
GROUP
  5
2F0
102
{ACAD_REACTORS
330
D
102
}
330
D
100
AcDbGroup
300
GRP126
 70
     1
 71
     1
340
151
340
152
  0
GROUP
  5
2F8
102
{ACAD_REACTORS
330
D
102
}
330
D
100
AcDbGroup
300
GRP129
 70
     1
 71
     1
340
153
  0
GROUP
  5
2F9
102
{ACAD_REACTORS
330
D
102
}
330
D
100
AcDbGroup
300
GRP168
 70
     1
 71
     1
340
164
  0
GROUP
  5
2E2
102
{ACAD_REACTORS
330
D
102
}
330
D
100
AcDbGroup
300
GRP18
 70
     1
 71
     1
340
69
  0
GROUP
  5
2FD
102
{ACAD_REACTORS
330
D
102
}
330
D
100
AcDbGroup
300
GRP181
 70
     1
 71
     1
340
170
340
176
  0
GROUP
  5
2FC
102
{ACAD_REACTORS
330
D
102
}
330
D
100
AcDbGroup
300
GRP183
 70
     1
 71
     1
340
171
340
172
  0
GROUP
  5
2FB
102
{ACAD_REACTORS
330
D
102
}
330
D
100
AcDbGroup
300
GRP187
 70
     1
 71
     1
340
174
  0
GROUP
  5
2FA
102
{ACAD_REACTORS
330
D
102
}
330
D
100
AcDbGroup
300
GRP189
 70
     1
 71
     1
340
175
340
177
  0
GROUP
  5
2FF
102
{ACAD_REACTORS
330
D
102
}
330
D
100
AcDbGroup
300
GRP195
 70
     1
 71
     1
340
17A
  0
GROUP
  5
2E1
102
{ACAD_REACTORS
330
D
102
}
330
D
100
AcDbGroup
300
GRP20
 70
     1
 71
     1
340
6A
  0
GROUP
  5
2FE
102
{ACAD_REACTORS
330
D
102
}
330
D
100
AcDbGroup
300
GRP207
 70
     1
 71
     1
340
17D
  0
GROUP
  5
2E0
102
{ACAD_REACTORS
330
D
102
}
330
D
100
AcDbGroup
300
GRP296
 70
     1
 71
     1
340
184
340
185
  0
GROUP
  5
2E6
102
{ACAD_REACTORS
330
D
102
}
330
D
100
AcDbGroup
300
GRP349
 70
     1
 71
     1
340
199
  0
GROUP
  5
2E3
102
{ACAD_REACTORS
330
D
102
}
330
D
100
AcDbGroup
300
GRP46
 70
     1
 71
     1
340
B3
  0
GROUP
  5
2E5
102
{ACAD_REACTORS
330
D
102
}
330
D
100
AcDbGroup
300
GRP48
 70
     1
 71
     1
340
B4
  0
GROUP
  5
300
102
{ACAD_REACTORS
330
D
102
}
330
D
100
AcDbGroup
300
GRP504
 70
     1
 71
     1
340
1CA
  0
GROUP
  5
2E4
102
{ACAD_REACTORS
330
D
102
}
330
D
100
AcDbGroup
300
GRP60
 70
     1
 71
     1
340
BF
  0
GROUP
  5
2E7
102
{ACAD_REACTORS
330
D
102
}
330
D
100
AcDbGroup
300
GRP76
 70
     1
 71
     1
340
124
  0
GROUP
  5
2EF
102
{ACAD_REACTORS
330
D
102
}
330
D
100
AcDbGroup
300
GRP96
 70
     1
 71
     1
340
142
  0
GROUP
  5
2EE
102
{ACAD_REACTORS
330
D
102
}
330
D
100
AcDbGroup
300
GRP98
 70
     1
 71
     1
340
143
  0
LAYOUT
  5
1E
102
{ACAD_REACTORS
330
1A
102
}
330
1A
100
AcDbPlotSettings
  1

  2

  4

  6

 40
0.0
 41
0.0
 42
0.0
 43
0.0
 44
0.0
 45
0.0
 46
0.0
 47
0.0
 48
0.0
 49
0.0
140
0.0
141
0.0
142
1.0
143
1.0
 70
   688
 72
     0
 73
     0
 74
     5
  7

 75
    16
147
1.0
148
0.0
149
0.0
100
AcDbLayout
  1
Layout1
 70
     1
 71
     1
 10
0.0
 20
0.0
 11
840.0
 21
594.0
 12
0.0
 22
0.0
 32
0.0
 14
0.0
 24
0.0
 34
0.0
 15
840.0
 25
594.0
 35
0.0
146
0.0
 13
0.0
 23
0.0
 33
0.0
 16
1.0
 26
0.0
 36
0.0
 17
0.0
 27
1.0
 37
0.0
 76
     0
330
1B
  0
LAYOUT
  5
26
102
{ACAD_REACTORS
330
1A
102
}
330
1A
100
AcDbPlotSettings
  1

  2

  4

  6

 40
0.0
 41
0.0
 42
0.0
 43
0.0
 44
0.0
 45
0.0
 46
0.0
 47
0.0
 48
0.0
 49
0.0
140
0.0
141
0.0
142
1.0
143
1.0
 70
   688
 72
     0
 73
     0
 74
     5
  7

 75
    16
147
1.0
148
0.0
149
0.0
100
AcDbLayout
  1
Layout2
 70
     1
 71
     2
 10
0.0
 20
0.0
 11
0.0
 21
0.0
 12
0.0
 22
0.0
 32
0.0
 14
0.0
 24
0.0
 34
0.0
 15
0.0
 25
0.0
 35
0.0
146
0.0
 13
0.0
 23
0.0
 33
0.0
 16
1.0
 26
0.0
 36
0.0
 17
0.0
 27
1.0
 37
0.0
 76
     0
330
23
  0
LAYOUT
  5
22
102
{ACAD_REACTORS
330
1A
102
}
330
1A
100
AcDbPlotSettings
  1

  2

  4

  6

 40
0.0
 41
0.0
 42
0.0
 43
0.0
 44
0.0
 45
0.0
 46
0.0
 47
0.0
 48
0.0
 49
0.0
140
0.0
141
0.0
142
1.0
143
1.0
 70
  1776
 72
     0
 73
     0
 74
     0
  7

 75
     0
147
1.0
148
0.0
149
0.0
100
AcDbLayout
  1
Model
 70
     1
 71
     0
 10
0.0
 20
0.0
 11
840.0
 21
594.0
 12
0.0
 22
0.0
 32
0.0
 14
0.0
 24
0.0
 34
0.0
 15
840.0
 25
594.0
 35
0.0
146
0.0
 13
0.0
 23
0.0
 33
0.0
 16
1.0
 26
0.0
 36
0.0
 17
0.0
 27
1.0
 37
0.0
 76
     0
330
1F
  0
MLINESTYLE
  5
18
102
{ACAD_REACTORS
330
17
102
}
330
17
100
AcDbMlineStyle
  2
Standard
 70
     0
  3

 62
   256
 51
90.0
 52
90.0
 71
     2
 49
0.5
 62
   256
  6
BYLAYER
 49
-0.5
 62
   256
  6
BYLAYER
  0
ACDBPLACEHOLDER
  5
F
102
{ACAD_REACTORS
330
E
102
}
330
E
  0
ENDSEC
  0
EOF
