  0
SECTION
  2
HEADER
  9
$ACADVER
  1
AC1015
  9
$ACADMAINTVER
 70
     6
  9
$DWGCODEPAGE
  3
ANSI_1252
  9
$INSBASE
 10
0.0
 20
0.0
 30
0.0
  9
$EXTMIN
 10
-840.514556
 20
-579.560549
 30
0.0
  9
$EXTMAX
 10
1259.485444
 20
905.439451
 30
0.0
  9
$LIMMIN
 10
-840.514556
 20
-579.560549
  9
$LIMMAX
 10
1259.485444
 20
905.439451
  9
$ORTHOMODE
 70
     0
  9
$REGENMODE
 70
     1
  9
$FILLMODE
 70
     1
  9
$QTEXTMODE
 70
     0
  9
$MIRRTEXT
 70
     1
  9
$LTSCALE
 40
5.0
  9
$ATTMODE
 70
     1
  9
$TEXTSIZE
 40
2.5
  9
$TRACEWID
 40
1.0
  9
$TEXTSTYLE
  7
Standard
  9
$CLAYER
  8
0
  9
$CELTYPE
  6
ByLayer
  9
$CECOLOR
 62
     7
  9
$CELTSCALE
 40
1.0
  9
$DISPSILH
 70
     0
  9
$DIMSCALE
 40
5.0
  9
$DIMASZ
 40
3.5
  9
$DIMEXO
 40
0.625
  9
$DIMDLI
 40
3.75
  9
$DIMRND
 40
0.0
  9
$DIMDLE
 40
0.0
  9
$DIMEXE
 40
1.25
  9
$DIMTP
 40
0.0
  9
$DIMTM
 40
0.0
  9
$DIMTXT
 40
3.5
  9
$DIMCEN
 40
2.5
  9
$DIMTSZ
 40
0.0
  9
$DIMTOL
 70
     0
  9
$DIMLIM
 70
     0
  9
$DIMTIH
 70
     0
  9
$DIMTOH
 70
     0
  9
$DIMSE1
 70
     0
  9
$DIMSE2
 70
     0
  9
$DIMTAD
 70
     1
  9
$DIMZIN
 70
     8
  9
$DIMBLK
  1

  9
$DIMASO
 70
     1
  9
$DIMSHO
 70
     1
  9
$DIMPOST
  1

  9
$DIMAPOST
  1

  9
$DIMALT
 70
     0
  9
$DIMALTD
 70
     3
  9
$DIMALTF
 40
0.03937
  9
$DIMLFAC
 40
1.0
  9
$DIMTOFL
 70
     1
  9
$DIMTVP
 40
0.0
  9
$DIMTIX
 70
     0
  9
$DIMSOXD
 70
     0
  9
$DIMSAH
 70
     0
  9
$DIMBLK1
  1

  9
$DIMBLK2
  1

  9
$DIMSTYLE
  2
ISO-25
  9
$DIMCLRD
 70
     0
  9
$DIMCLRE
 70
     0
  9
$DIMCLRT
 70
     0
  9
$DIMTFAC
 40
1.0
  9
$DIMGAP
 40
0.625
  9
$DIMJUST
 70
     0
  9
$DIMSD1
 70
     0
  9
$DIMSD2
 70
     0
  9
$DIMTOLJ
 70
     0
  9
$DIMTZIN
 70
     8
  9
$DIMALTZ
 70
     0
  9
$DIMALTTZ
 70
     0
  9
$DIMUPT
 70
     0
  9
$DIMDEC
 70
     2
  9
$DIMTDEC
 70
     2
  9
$DIMALTU
 70
     2
  9
$DIMALTTD
 70
     3
  9
$DIMTXSTY
  7
Standard
  9
$DIMAUNIT
 70
     0
  9
$DIMADEC
 70
     0
  9
$DIMALTRND
 40
0.0
  9
$DIMAZIN
 70
     0
  9
$DIMDSEP
 70
    44
  9
$DIMATFIT
 70
     3
  9
$DIMFRAC
 70
     0
  9
$DIMLDRBLK
  1

  9
$DIMLUNIT
 70
     2
  9
$DIMLWD
 70
    -2
  9
$DIMLWE
 70
    -2
  9
$DIMTMOVE
 70
     0
  9
$LUNITS
 70
     2
  9
$LUPREC
 70
     4
  9
$SKETCHINC
 40
1.0
  9
$FILLETRAD
 40
10.0
  9
$AUNITS
 70
     0
  9
$AUPREC
 70
     0
  9
$MENU
  1
.
  9
$ELEVATION
 40
0.0
  9
$PELEVATION
 40
0.0
  9
$THICKNESS
 40
0.0
  9
$LIMCHECK
 70
     0
  9
$CHAMFERA
 40
10.0
  9
$CHAMFERB
 40
10.0
  9
$CHAMFERC
 40
20.0
  9
$CHAMFERD
 40
0.0
  9
$SKPOLY
 70
     0
  9
$TDCREATE
 40
2456014.380780637
  9
$TDUCREATE
 40
2456014.297447303
  9
$TDUPDATE
 40
2456014.380780648
  9
$TDUUPDATE
 40
2456014.297447315
  9
$TDINDWG
 40
0.0000000116
  9
$TDUSRTIMER
 40
0.0000000116
  9
$USRTIMER
 70
     1
  9
$ANGBASE
 50
0.0
  9
$ANGDIR
 70
     0
  9
$PDMODE
 70
     0
  9
$PDSIZE
 40
0.0
  9
$PLINEWID
 40
0.0
  9
$SPLFRAME
 70
     0
  9
$SPLINETYPE
 70
     6
  9
$SPLINESEGS
 70
     8
  9
$HANDSEED
  5
579
  9
$SURFTAB1
 70
     6
  9
$SURFTAB2
 70
     6
  9
$SURFTYPE
 70
     6
  9
$SURFU
 70
     6
  9
$SURFV
 70
     6
  9
$UCSBASE
  2

  9
$UCSNAME
  2

  9
$UCSORG
 10
0.0
 20
0.0
 30
0.0
  9
$UCSXDIR
 10
1.0
 20
0.0
 30
0.0
  9
$UCSYDIR
 10
0.0
 20
1.0
 30
0.0
  9
$UCSORTHOREF
  2

  9
$UCSORTHOVIEW
 70
     0
  9
$UCSORGTOP
 10
0.0
 20
0.0
 30
0.0
  9
$UCSORGBOTTOM
 10
0.0
 20
0.0
 30
0.0
  9
$UCSORGLEFT
 10
0.0
 20
0.0
 30
0.0
  9
$UCSORGRIGHT
 10
0.0
 20
0.0
 30
0.0
  9
$UCSORGFRONT
 10
0.0
 20
0.0
 30
0.0
  9
$UCSORGBACK
 10
0.0
 20
0.0
 30
0.0
  9
$PUCSBASE
  2

  9
$PUCSNAME
  2

  9
$PUCSORG
 10
0.0
 20
0.0
 30
0.0
  9
$PUCSXDIR
 10
1.0
 20
0.0
 30
0.0
  9
$PUCSYDIR
 10
0.0
 20
1.0
 30
0.0
  9
$PUCSORTHOREF
  2

  9
$PUCSORTHOVIEW
 70
     0
  9
$PUCSORGTOP
 10
0.0
 20
0.0
 30
0.0
  9
$PUCSORGBOTTOM
 10
0.0
 20
0.0
 30
0.0
  9
$PUCSORGLEFT
 10
0.0
 20
0.0
 30
0.0
  9
$PUCSORGRIGHT
 10
0.0
 20
0.0
 30
0.0
  9
$PUCSORGFRONT
 10
0.0
 20
0.0
 30
0.0
  9
$PUCSORGBACK
 10
0.0
 20
0.0
 30
0.0
  9
$USERI1
 70
     0
  9
$USERI2
 70
     0
  9
$USERI3
 70
     0
  9
$USERI4
 70
     0
  9
$USERI5
 70
     0
  9
$USERR1
 40
0.0
  9
$USERR2
 40
0.0
  9
$USERR3
 40
0.0
  9
$USERR4
 40
0.0
  9
$USERR5
 40
0.0
  9
$WORLDVIEW
 70
     1
  9
$SHADEDGE
 70
     3
  9
$SHADEDIF
 70
    70
  9
$TILEMODE
 70
     1
  9
$MAXACTVP
 70
    64
  9
$PINSBASE
 10
0.0
 20
0.0
 30
0.0
  9
$PLIMCHECK
 70
     0
  9
$PEXTMIN
 10
-840.514556
 20
-579.560549
 30
0.0
  9
$PEXTMAX
 10
1259.485444
 20
905.439451
 30
0.0
  9
$PLIMMIN
 10
-840.514556
 20
-579.560549
  9
$PLIMMAX
 10
1259.485444
 20
905.439451
  9
$UNITMODE
 70
     0
  9
$VISRETAIN
 70
     1
  9
$PLINEGEN
 70
     0
  9
$PSLTSCALE
 70
     1
  9
$TREEDEPTH
 70
  3020
  9
$CMLSTYLE
  2
Standard
  9
$CMLJUST
 70
     0
  9
$CMLSCALE
 40
20.0
  9
$PROXYGRAPHICS
 70
     1
  9
$MEASUREMENT
 70
     1
  9
$CELWEIGHT
370
    -1
  9
$ENDCAPS
280
     0
  9
$JOINSTYLE
280
     0
  9
$LWDISPLAY
290
     0
  9
$INSUNITS
 70
     4
  9
$HYPERLINKBASE
  1

  9
$STYLESHEET
  1

  9
$XEDIT
290
     1
  9
$CEPSNTYPE
380
     0
  9
$PSTYLEMODE
290
     1
  9
$FINGERPRINTGUID
  2
{FAEB1C30-E019-11D5-929B-00C0DF256EC4}
  9
$VERSIONGUID
  2
{FAEB1C32-E019-11D5-929B-00C0DF256EC4}
  9
$EXTNAMES
290
     1
  9
$PSVPSCALE
 40
0.0
  9
$OLESTARTUP
290
     0
  0
ENDSEC
  0
SECTION
  2
CLASSES
  0
CLASS
  1
ACDBDICTIONARYWDFLT
  2
AcDbDictionaryWithDefault
  3
ObjectDBX Classes
 90
        0
280
     0
281
     0
  0
CLASS
  1
ACDBPLACEHOLDER
  2
AcDbPlaceHolder
  3
ObjectDBX Classes
 90
        0
280
     0
281
     0
  0
CLASS
  1
LAYOUT
  2
AcDbLayout
  3
ObjectDBX Classes
 90
        0
280
     0
281
     0
  0
ENDSEC
  0
SECTION
  2
TABLES
  0
TABLE
  2
VPORT
  5
8
330
0
100
AcDbSymbolTable
 70
     2
  0
VPORT
  5
29
330
8
100
AcDbSymbolTableRecord
100
AcDbViewportTableRecord
  2
*ACTIVE
 70
     0
 10
0.0
 20
0.0
 11
1.0
 21
1.0
 12
209.485444
 22
162.939451
 13
0.0
 23
0.0
 14
1.0
 24
1.0
 15
0.0
 25
0.0
 16
0.0
 26
0.0
 36
1.0
 17
0.0
 27
0.0
 37
0.0
 40
1485.0
 41
1.414141
 42
50.0
 43
0.0
 44
0.0
 50
0.0
 51
0.0
 71
    16
 72
   100
 73
     1
 74
     0
 75
     0
 76
     0
 77
     0
 78
     0
281
     0
 65
     0
110
0.0
120
0.0
130
0.0
111
1.0
121
0.0
131
0.0
112
0.0
122
1.0
132
0.0
 79
     0
146
0.0
  0
ENDTAB
  0
TABLE
  2
LTYPE
  5
5
330
0
100
AcDbSymbolTable
 70
     3
  0
LTYPE
  5
14
330
5
100
AcDbSymbolTableRecord
100
AcDbLinetypeTableRecord
  2
ByBlock
 70
     0
  3

 72
    65
 73
     0
 40
0.0
  0
LTYPE
  5
15
330
5
100
AcDbSymbolTableRecord
100
AcDbLinetypeTableRecord
  2
ByLayer
 70
     0
  3

 72
    65
 73
     0
 40
0.0
  0
LTYPE
  5
16
330
5
100
AcDbSymbolTableRecord
100
AcDbLinetypeTableRecord
  2
Continuous
 70
     0
  3
Solid line
 72
    65
 73
     0
 40
0.0
  0
LTYPE
  5
2A
330
5
100
AcDbSymbolTableRecord
100
AcDbLinetypeTableRecord
  2
DASHED
 70
     0
  3
__ __ __ __ __
 72
    65
 73
     2
 40
6.25
 49
5.0
 74
     4
 75
     0
340
0
 46
1.0
 50
0.0
 44
0.0
 45
0.0
 49
-1.25
 74
     4
 75
     0
340
0
 46
1.0
 50
0.0
 44
0.0
 45
0.0
  0
LTYPE
  5
F7
330
5
100
AcDbSymbolTableRecord
100
AcDbLinetypeTableRecord
  2
DASHDOT
 70
     0
  3
__ . __ . __ . __ . __
 72
    65
 73
     4
 40
7.5
 49
5.0
 74
     4
 75
     0
340
0
 46
1.0
 50
0.0
 44
0.0
 45
0.0
 49
-1.25
 74
     4
 75
     0
340
0
 46
1.0
 50
0.0
 44
0.0
 45
0.0
 49
0.0
 74
     4
 75
     0
340
0
 46
1.0
 50
0.0
 44
0.0
 45
0.0
 49
-1.25
 74
     4
 75
     0
340
0
 46
1.0
 50
0.0
 44
0.0
 45
0.0
  0
ENDTAB
  0
TABLE
  2
LAYER
  5
2
330
0
100
AcDbSymbolTable
 70
     8
  0
LAYER
  5
10
330
2
100
AcDbSymbolTableRecord
100
AcDbLayerTableRecord
  2
0
 70
     0
 62
     7
  6
Continuous
370
    -3
390
F
  0
LAYER
  5
2B
330
2
100
AcDbSymbolTableRecord
100
AcDbLayerTableRecord
  2
LC-INFO-1-5-mm-A3-0
 70
     1
 62
     7
  6
ByBlock
370
    -3
390
F
  0
LAYER
  5
2C
330
2
100
AcDbSymbolTableRecord
100
AcDbLayerTableRecord
  2
LC-CUT-HIDDEN
 70
     0
 62
     7
  6
DASHED
370
    -3
390
F
  0
LAYER
  5
2D
330
2
100
AcDbSymbolTableRecord
100
AcDbLayerTableRecord
  2
LC-VIEWPORT
 70
     0
 62
     7
  6
ByBlock
370
    -3
390
F
  0
LAYER
  5
2E
330
2
100
AcDbSymbolTableRecord
100
AcDbLayerTableRecord
  2
LC-3D-HIDDEN
 70
     0
 62
     9
  6
DASHED
370
    -3
390
F
  0
LAYER
  5
30
330
2
100
AcDbSymbolTableRecord
100
AcDbLayerTableRecord
  2
LC-001-100-D00-0
 70
     0
 62
     1
  6
ByBlock
370
    -3
390
F
  0
LAYER
  5
EA
330
2
100
AcDbSymbolTableRecord
100
AcDbLayerTableRecord
  2
Defpoints
 70
     0
 62
     7
  6
Continuous
290
     0
370
    -3
390
F
  0
LAYER
  5
569
330
2
100
AcDbSymbolTableRecord
100
AcDbLayerTableRecord
  2
LC-002-003-----0
 70
     0
 62
     2
  6
ByBlock
370
    -3
390
F
  0
ENDTAB
  0
TABLE
  2
STYLE
  5
3
330
0
100
AcDbSymbolTable
 70
     3
  0
STYLE
  5
11
330
3
100
AcDbSymbolTableRecord
100
AcDbTextStyleTableRecord
  2
Standard
 70
     0
 40
0.0
 41
1.0
 50
0.0
 71
     0
 42
2.5
  3
txt
  4

  0
STYLE
  5
2F
330
3
100
AcDbSymbolTableRecord
100
AcDbTextStyleTableRecord
  2
LCTX15-400-0-0-Arial
 70
     0
 40
0.0
 41
0.8
 50
0.0
 71
     0
 42
3.5
  3

  4

1001
ACAD
1000
Arial
1071
 16777218
  0
STYLE
  5
E7
330
3
100
AcDbSymbolTableRecord
100
AcDbTextStyleTableRecord
  2
LCTX15-400-0-0pDIN-Schrift
 70
     0
 40
2.5
 41
0.8
 50
15.0
 71
     0
 42
3.5
  3
STANDARD
  4

  0
ENDTAB
  0
TABLE
  2
VIEW
  5
6
330
0
100
AcDbSymbolTable
 70
     0
  0
ENDTAB
  0
TABLE
  2
UCS
  5
7
330
0
100
AcDbSymbolTable
 70
     0
  0
ENDTAB
  0
TABLE
  2
APPID
  5
9
330
0
100
AcDbSymbolTable
 70
     1
  0
APPID
  5
12
330
9
100
AcDbSymbolTableRecord
100
AcDbRegAppTableRecord
  2
ACAD
 70
     0
  0
ENDTAB
  0
TABLE
  2
DIMSTYLE
  5
A
330
0
100
AcDbSymbolTable
 70
     2
100
AcDbDimStyleTable
  0
DIMSTYLE
105
27
330
A
100
AcDbSymbolTableRecord
100
AcDbDimStyleTableRecord
  2
ISO-25
 70
     0
 41
2.5
 42
0.625
 43
3.75
 44
1.25
 73
     0
 74
     0
 77
     1
 78
     8
140
2.5
141
2.5
143
0.03937
147
0.625
171
     3
172
     1
271
     2
272
     2
274
     3
278
    44
283
     0
284
     8
340
11
  0
DIMSTYLE
105
E8
102
{ACAD_REACTORS
330
E9
330
462
330
470
330
47E
330
48C
330
499
330
4A6
330
4B4
330
4C1
330
56A
102
}
330
A
100
AcDbSymbolTableRecord
100
AcDbDimStyleTableRecord
  2
LC-DIM-L-0100-02-02
 70
     0
 40
5.0
 41
10.0
 42
0.0
 43
7.5
 44
1.8
 73
     0
 74
     0
 77
     1
 78
     8
 79
     2
140
10.0
141
0.0
146
0.71
147
1.5
176
     2
177
     2
178
     2
179
     2
271
     2
278
    44
289
     1
340
E7
  0
ENDTAB
  0
TABLE
  2
BLOCK_RECORD
  5
1
330
0
100
AcDbSymbolTable
 70
    46
  0
BLOCK_RECORD
  5
1F
330
1
100
AcDbSymbolTableRecord
100
AcDbBlockTableRecord
  2
*Model_Space
340
22
  0
BLOCK_RECORD
  5
1B
330
1
100
AcDbSymbolTableRecord
100
AcDbBlockTableRecord
  2
*Paper_Space
340
1E
  0
BLOCK_RECORD
  5
23
330
1
100
AcDbSymbolTableRecord
100
AcDbBlockTableRecord
  2
*Paper_Space0
340
26
  0
BLOCK_RECORD
  5
71
330
1
100
AcDbSymbolTableRecord
100
AcDbBlockTableRecord
  2
KLON1
340
0
102
{BLKREFS
331
76
102
}
  0
BLOCK_RECORD
  5
78
330
1
100
AcDbSymbolTableRecord
100
AcDbBlockTableRecord
  2
KLON2
340
0
102
{BLKREFS
331
7E
102
}
  0
BLOCK_RECORD
  5
7F
330
1
100
AcDbSymbolTableRecord
100
AcDbBlockTableRecord
  2
KLON3
340
0
102
{BLKREFS
331
86
102
}
  0
BLOCK_RECORD
  5
88
330
1
100
AcDbSymbolTableRecord
100
AcDbBlockTableRecord
  2
KLON4
340
0
102
{BLKREFS
331
8D
102
}
  0
BLOCK_RECORD
  5
8E
330
1
100
AcDbSymbolTableRecord
100
AcDbBlockTableRecord
  2
KLON5
340
0
102
{BLKREFS
331
93
102
}
  0
BLOCK_RECORD
  5
94
330
1
100
AcDbSymbolTableRecord
100
AcDbBlockTableRecord
  2
KLON6
340
0
102
{BLKREFS
331
99
102
}
  0
BLOCK_RECORD
  5
9B
330
1
100
AcDbSymbolTableRecord
100
AcDbBlockTableRecord
  2
KLON7
340
0
102
{BLKREFS
331
A2
102
}
  0
BLOCK_RECORD
  5
A3
330
1
100
AcDbSymbolTableRecord
100
AcDbBlockTableRecord
  2
KLON8
340
0
102
{BLKREFS
331
A9
102
}
  0
BLOCK_RECORD
  5
B8
330
1
100
AcDbSymbolTableRecord
100
AcDbBlockTableRecord
  2
KLON9
340
0
102
{BLKREFS
331
BD
102
}
  0
BLOCK_RECORD
  5
BE
330
1
100
AcDbSymbolTableRecord
100
AcDbBlockTableRecord
  2
KLON10
340
0
102
{BLKREFS
331
C3
102
}
  0
BLOCK_RECORD
  5
C5
330
1
100
AcDbSymbolTableRecord
100
AcDbBlockTableRecord
  2
KLON11
340
0
102
{BLKREFS
331
CA
102
}
  0
BLOCK_RECORD
  5
CB
330
1
100
AcDbSymbolTableRecord
100
AcDbBlockTableRecord
  2
KLON12
340
0
102
{BLKREFS
331
D0
102
}
  0
BLOCK_RECORD
  5
EB
330
1
100
AcDbSymbolTableRecord
100
AcDbBlockTableRecord
  2
*D13
340
0
  0
BLOCK_RECORD
  5
27B
330
1
100
AcDbSymbolTableRecord
100
AcDbBlockTableRecord
  2
KLON13
340
0
102
{BLKREFS
331
28B
102
}
  0
BLOCK_RECORD
  5
28C
330
1
100
AcDbSymbolTableRecord
100
AcDbBlockTableRecord
  2
KLON14
340
0
102
{BLKREFS
331
29F
102
}
  0
BLOCK_RECORD
  5
2A3
330
1
100
AcDbSymbolTableRecord
100
AcDbBlockTableRecord
  2
KLON15
340
0
102
{BLKREFS
331
2A8
102
}
  0
BLOCK_RECORD
  5
3BC
330
1
100
AcDbSymbolTableRecord
100
AcDbBlockTableRecord
  2
KLON16
340
0
102
{BLKREFS
331
3C5
102
}
  0
BLOCK_RECORD
  5
3C6
330
1
100
AcDbSymbolTableRecord
100
AcDbBlockTableRecord
  2
KLON17
340
0
102
{BLKREFS
331
3CF
102
}
  0
BLOCK_RECORD
  5
3E9
330
1
100
AcDbSymbolTableRecord
100
AcDbBlockTableRecord
  2
KLON18
340
0
102
{BLKREFS
331
3F1
102
}
  0
BLOCK_RECORD
  5
3F2
330
1
100
AcDbSymbolTableRecord
100
AcDbBlockTableRecord
  2
KLON19
340
0
102
{BLKREFS
331
3FE
102
}
  0
BLOCK_RECORD
  5
3FF
330
1
100
AcDbSymbolTableRecord
100
AcDbBlockTableRecord
  2
KLON20
340
0
102
{BLKREFS
331
40B
102
}
  0
BLOCK_RECORD
  5
463
330
1
100
AcDbSymbolTableRecord
100
AcDbBlockTableRecord
  2
*D22
340
0
  0
BLOCK_RECORD
  5
471
330
1
100
AcDbSymbolTableRecord
100
AcDbBlockTableRecord
  2
*D23
340
0
  0
BLOCK_RECORD
  5
47F
330
1
100
AcDbSymbolTableRecord
100
AcDbBlockTableRecord
  2
*D24
340
0
  0
BLOCK_RECORD
  5
48D
330
1
100
AcDbSymbolTableRecord
100
AcDbBlockTableRecord
  2
*D25
340
0
  0
BLOCK_RECORD
  5
49A
330
1
100
AcDbSymbolTableRecord
100
AcDbBlockTableRecord
  2
*D26
340
0
  0
BLOCK_RECORD
  5
4A7
330
1
100
AcDbSymbolTableRecord
100
AcDbBlockTableRecord
  2
*D27
340
0
  0
BLOCK_RECORD
  5
4B5
330
1
100
AcDbSymbolTableRecord
100
AcDbBlockTableRecord
  2
*D28
340
0
  0
BLOCK_RECORD
  5
4C2
330
1
100
AcDbSymbolTableRecord
100
AcDbBlockTableRecord
  2
*D29
340
0
  0
BLOCK_RECORD
  5
4CF
330
1
100
AcDbSymbolTableRecord
100
AcDbBlockTableRecord
  2
KLON21
340
0
102
{BLKREFS
331
4D4
102
}
  0
BLOCK_RECORD
  5
4D8
330
1
100
AcDbSymbolTableRecord
100
AcDbBlockTableRecord
  2
KLON22
340
0
102
{BLKREFS
331
4DD
102
}
  0
BLOCK_RECORD
  5
4E0
330
1
100
AcDbSymbolTableRecord
100
AcDbBlockTableRecord
  2
KLON23
340
0
102
{BLKREFS
331
4E5
102
}
  0
BLOCK_RECORD
  5
4E6
330
1
100
AcDbSymbolTableRecord
100
AcDbBlockTableRecord
  2
KLON24
340
0
102
{BLKREFS
331
4ED
102
}
  0
BLOCK_RECORD
  5
4EF
330
1
100
AcDbSymbolTableRecord
100
AcDbBlockTableRecord
  2
KLON25
340
0
102
{BLKREFS
331
4FE
102
}
  0
BLOCK_RECORD
  5
4FF
330
1
100
AcDbSymbolTableRecord
100
AcDbBlockTableRecord
  2
KLON26
340
0
102
{BLKREFS
331
510
102
}
  0
BLOCK_RECORD
  5
511
330
1
100
AcDbSymbolTableRecord
100
AcDbBlockTableRecord
  2
KLON27
340
0
102
{BLKREFS
331
517
102
}
  0
BLOCK_RECORD
  5
518
330
1
100
AcDbSymbolTableRecord
100
AcDbBlockTableRecord
  2
KLON28
340
0
102
{BLKREFS
331
520
102
}
  0
BLOCK_RECORD
  5
521
330
1
100
AcDbSymbolTableRecord
100
AcDbBlockTableRecord
  2
KLON29
340
0
102
{BLKREFS
331
52F
102
}
  0
BLOCK_RECORD
  5
530
330
1
100
AcDbSymbolTableRecord
100
AcDbBlockTableRecord
  2
KLON30
340
0
102
{BLKREFS
331
536
102
}
  0
BLOCK_RECORD
  5
537
330
1
100
AcDbSymbolTableRecord
100
AcDbBlockTableRecord
  2
KLON31
340
0
102
{BLKREFS
331
53E
102
}
  0
BLOCK_RECORD
  5
540
330
1
100
AcDbSymbolTableRecord
100
AcDbBlockTableRecord
  2
KLON32
340
0
102
{BLKREFS
331
545
102
}
  0
BLOCK_RECORD
  5
547
330
1
100
AcDbSymbolTableRecord
100
AcDbBlockTableRecord
  2
KLON33
340
0
102
{BLKREFS
331
54C
102
}
  0
BLOCK_RECORD
  5
54D
330
1
100
AcDbSymbolTableRecord
100
AcDbBlockTableRecord
  2
KLON34
340
0
102
{BLKREFS
331
55A
102
}
  0
BLOCK_RECORD
  5
55B
330
1
100
AcDbSymbolTableRecord
100
AcDbBlockTableRecord
  2
KLON35
340
0
102
{BLKREFS
331
560
102
}
  0
BLOCK_RECORD
  5
56B
330
1
100
AcDbSymbolTableRecord
100
AcDbBlockTableRecord
  2
*D45
340
0
  0
ENDTAB
  0
ENDSEC
  0
SECTION
  2
BLOCKS
  0
BLOCK
  5
20
330
1F
100
AcDbEntity
  8
0
100
AcDbBlockBegin
  2
*Model_Space
 70
     0
 71
     0
 10
0.0
 20
0.0
 30
0.0
  3
*Model_Space
  1

  0
ENDBLK
  5
21
330
1F
100
AcDbEntity
  8
0
100
AcDbBlockEnd
  0
BLOCK
  5
1C
330
1B
100
AcDbEntity
 67
     1
  8
0
100
AcDbBlockBegin
  2
*Paper_Space
 70
     0
 71
     0
 10
0.0
 20
0.0
 30
0.0
  3
*Paper_Space
  1

  0
ENDBLK
  5
1D
330
1B
100
AcDbEntity
 67
     1
  8
0
100
AcDbBlockEnd
  0
BLOCK
  5
24
330
23
100
AcDbEntity
  8
0
100
AcDbBlockBegin
  2
*Paper_Space0
 70
     0
 71
     0
 10
0.0
 20
0.0
 30
0.0
  3
*Paper_Space0
  1

  0
ENDBLK
  5
25
330
23
100
AcDbEntity
  8
0
100
AcDbBlockEnd
  0
BLOCK
  5
72
330
71
100
AcDbEntity
  8
0
100
AcDbBlockBegin
  2
KLON1
 70
     0
 71
     0
 10
0.0
 20
0.0
 30
0.0
  3
KLON1
  1

  4
KLON1
  0
LINE
  5
74
330
71
100
AcDbEntity
  8
LC-001-100-D00-0
 62
     7
370
    15
100
AcDbLine
 10
112.576371
 20
58.519452
 30
0.0
 11
112.583776
 21
58.481279
 31
0.0
  0
LINE
  5
75
330
71
100
AcDbEntity
  8
LC-001-100-D00-0
 62
     7
370
    15
100
AcDbLine
 10
112.583776
 20
58.481279
 30
0.0
 11
112.602552
 21
58.448794
 31
0.0
  0
ENDBLK
  5
73
330
71
100
AcDbEntity
  8
0
100
AcDbBlockEnd
  0
BLOCK
  5
79
330
78
100
AcDbEntity
  8
0
100
AcDbBlockBegin
  2
KLON2
 70
     0
 71
     0
 10
0.0
 20
0.0
 30
0.0
  3
KLON2
  1

  4
KLON2
  0
LINE
  5
7B
330
78
100
AcDbEntity
  8
LC-001-100-D00-0
 62
     7
370
    15
100
AcDbLine
 10
112.602552
 20
69.864256
 30
0.0
 11
112.600317
 21
69.849971
 31
0.0
  0
LINE
  5
7C
330
78
100
AcDbEntity
  8
LC-001-100-D00-0
 62
     7
370
    15
100
AcDbLine
 10
112.600317
 20
69.849971
 30
0.0
 11
112.589022
 21
69.777663
 31
0.0
  0
LINE
  5
7D
330
78
100
AcDbEntity
  8
LC-001-100-D00-0
 62
     7
370
    15
100
AcDbLine
 10
112.589022
 20
69.777663
 30
0.0
 11
112.576371
 21
69.696782
 31
0.0
  0
ENDBLK
  5
7A
330
78
100
AcDbEntity
  8
0
100
AcDbBlockEnd
  0
BLOCK
  5
80
330
7F
100
AcDbEntity
  8
0
100
AcDbBlockBegin
  2
KLON3
 70
     0
 71
     0
 10
0.0
 20
0.0
 30
0.0
  3
KLON3
  1

  4
KLON3
  0
LINE
  5
82
330
7F
100
AcDbEntity
  8
LC-001-100-D00-0
 62
     7
370
    15
100
AcDbLine
 10
112.576371
 20
94.34212
 30
0.0
 11
112.589022
 21
94.261239
 31
0.0
  0
LINE
  5
83
330
7F
100
AcDbEntity
  8
LC-001-100-D00-0
 62
     7
370
    15
100
AcDbLine
 10
112.589022
 20
94.261239
 30
0.0
 11
112.597798
 21
94.20503
 31
0.0
  0
LINE
  5
84
330
7F
100
AcDbEntity
  8
LC-001-100-D00-0
 62
     7
370
    15
100
AcDbLine
 10
112.597798
 20
94.20503
 30
0.0
 11
112.600317
 21
94.188931
 31
0.0
  0
LINE
  5
85
330
7F
100
AcDbEntity
  8
LC-001-100-D00-0
 62
     7
370
    15
100
AcDbLine
 10
112.600317
 20
94.188931
 30
0.0
 11
112.602552
 21
94.174646
 31
0.0
  0
ENDBLK
  5
81
330
7F
100
AcDbEntity
  8
0
100
AcDbBlockEnd
  0
BLOCK
  5
89
330
88
100
AcDbEntity
  8
0
100
AcDbBlockBegin
  2
KLON4
 70
     0
 71
     0
 10
0.0
 20
0.0
 30
0.0
  3
KLON4
  1

  4
KLON4
  0
LINE
  5
8B
330
88
100
AcDbEntity
  8
LC-001-100-D00-0
 62
     7
370
    15
100
AcDbLine
 10
112.576371
 20
105.504812
 30
0.0
 11
112.586935
 21
105.510722
 31
0.0
  0
LINE
  5
8C
330
88
100
AcDbEntity
  8
LC-001-100-D00-0
 62
     7
370
    15
100
AcDbLine
 10
112.586935
 20
105.510722
 30
0.0
 11
112.602552
 21
105.51945
 31
0.0
  0
ENDBLK
  5
8A
330
88
100
AcDbEntity
  8
0
100
AcDbBlockEnd
  0
BLOCK
  5
8F
330
8E
100
AcDbEntity
  8
0
100
AcDbBlockBegin
  2
KLON5
 70
     0
 71
     0
 10
0.0
 20
0.0
 30
0.0
  3
KLON5
  1

  4
KLON5
  0
LINE
  5
91
330
8E
100
AcDbEntity
  8
LC-001-100-D00-0
 62
     7
370
    15
100
AcDbLine
 10
-371.371264
 20
58.519452
 30
0.0
 11
-371.37867
 21
58.481279
 31
0.0
  0
LINE
  5
92
330
8E
100
AcDbEntity
  8
LC-001-100-D00-0
 62
     7
370
    15
100
AcDbLine
 10
-371.37867
 20
58.481279
 30
0.0
 11
-371.397446
 21
58.448794
 31
0.0
  0
ENDBLK
  5
90
330
8E
100
AcDbEntity
  8
0
100
AcDbBlockEnd
  0
BLOCK
  5
95
330
94
100
AcDbEntity
  8
0
100
AcDbBlockBegin
  2
KLON6
 70
     0
 71
     0
 10
0.0
 20
0.0
 30
0.0
  3
KLON6
  1

  4
KLON6
  0
LINE
  5
97
330
94
100
AcDbEntity
  8
LC-001-100-D00-0
 62
     7
370
    15
100
AcDbLine
 10
-371.371264
 20
105.504812
 30
0.0
 11
-371.381829
 21
105.510722
 31
0.0
  0
LINE
  5
98
330
94
100
AcDbEntity
  8
LC-001-100-D00-0
 62
     7
370
    15
100
AcDbLine
 10
-371.381829
 20
105.510722
 30
0.0
 11
-371.397446
 21
105.51945
 31
0.0
  0
ENDBLK
  5
96
330
94
100
AcDbEntity
  8
0
100
AcDbBlockEnd
  0
BLOCK
  5
9C
330
9B
100
AcDbEntity
  8
0
100
AcDbBlockBegin
  2
KLON7
 70
     0
 71
     0
 10
0.0
 20
0.0
 30
0.0
  3
KLON7
  1

  4
KLON7
  0
LINE
  5
9E
330
9B
100
AcDbEntity
  8
LC-001-100-D00-0
 62
     7
370
    15
100
AcDbLine
 10
-371.371264
 20
94.34212
 30
0.0
 11
-371.383915
 21
94.261239
 31
0.0
  0
LINE
  5
9F
330
9B
100
AcDbEntity
  8
LC-001-100-D00-0
 62
     7
370
    15
100
AcDbLine
 10
-371.383915
 20
94.261239
 30
0.0
 11
-371.392692
 21
94.20503
 31
0.0
  0
LINE
  5
A0
330
9B
100
AcDbEntity
  8
LC-001-100-D00-0
 62
     7
370
    15
100
AcDbLine
 10
-371.392692
 20
94.20503
 30
0.0
 11
-371.39521
 21
94.188931
 31
0.0
  0
LINE
  5
A1
330
9B
100
AcDbEntity
  8
LC-001-100-D00-0
 62
     7
370
    15
100
AcDbLine
 10
-371.39521
 20
94.188931
 30
0.0
 11
-371.397446
 21
94.174646
 31
0.0
  0
ENDBLK
  5
9D
330
9B
100
AcDbEntity
  8
0
100
AcDbBlockEnd
  0
BLOCK
  5
A4
330
A3
100
AcDbEntity
  8
0
100
AcDbBlockBegin
  2
KLON8
 70
     0
 71
     0
 10
0.0
 20
0.0
 30
0.0
  3
KLON8
  1

  4
KLON8
  0
LINE
  5
A6
330
A3
100
AcDbEntity
  8
LC-001-100-D00-0
 62
     7
370
    15
100
AcDbLine
 10
-371.397446
 20
69.864256
 30
0.0
 11
-371.39521
 21
69.849971
 31
0.0
  0
LINE
  5
A7
330
A3
100
AcDbEntity
  8
LC-001-100-D00-0
 62
     7
370
    15
100
AcDbLine
 10
-371.39521
 20
69.849971
 30
0.0
 11
-371.383915
 21
69.777663
 31
0.0
  0
LINE
  5
A8
330
A3
100
AcDbEntity
  8
LC-001-100-D00-0
 62
     7
370
    15
100
AcDbLine
 10
-371.383915
 20
69.777663
 30
0.0
 11
-371.371264
 21
69.696782
 31
0.0
  0
ENDBLK
  5
A5
330
A3
100
AcDbEntity
  8
0
100
AcDbBlockEnd
  0
BLOCK
  5
B9
330
B8
100
AcDbEntity
  8
0
100
AcDbBlockBegin
  2
KLON9
 70
     0
 71
     0
 10
0.0
 20
0.0
 30
0.0
  3
KLON9
  1

  4
KLON9
  0
LINE
  5
BB
330
B8
100
AcDbEntity
  8
LC-001-100-D00-0
 62
     7
370
    15
100
AcDbLine
 10
112.54785
 20
69.686042
 30
0.0
 11
112.564003
 21
69.692126
 31
0.0
  0
LINE
  5
BC
330
B8
100
AcDbEntity
  8
LC-001-100-D00-0
 62
     7
370
    15
100
AcDbLine
 10
112.564003
 20
69.692126
 30
0.0
 11
112.576371
 21
69.696782
 31
0.0
  0
ENDBLK
  5
BA
330
B8
100
AcDbEntity
  8
0
100
AcDbBlockEnd
  0
BLOCK
  5
BF
330
BE
100
AcDbEntity
  8
0
100
AcDbBlockBegin
  2
KLON10
 70
     0
 71
     0
 10
0.0
 20
0.0
 30
0.0
  3
KLON10
  1

  4
KLON10
  0
LINE
  5
C1
330
BE
100
AcDbEntity
  8
LC-001-100-D00-0
 62
     7
370
    15
100
AcDbLine
 10
-371.342743
 20
69.686042
 30
0.0
 11
-371.358896
 21
69.692126
 31
0.0
  0
LINE
  5
C2
330
BE
100
AcDbEntity
  8
LC-001-100-D00-0
 62
     7
370
    15
100
AcDbLine
 10
-371.358896
 20
69.692126
 30
0.0
 11
-371.371264
 21
69.696782
 31
0.0
  0
ENDBLK
  5
C0
330
BE
100
AcDbEntity
  8
0
100
AcDbBlockEnd
  0
BLOCK
  5
C6
330
C5
100
AcDbEntity
  8
0
100
AcDbBlockBegin
  2
KLON11
 70
     0
 71
     0
 10
0.0
 20
0.0
 30
0.0
  3
KLON11
  1

  4
KLON11
  0
LINE
  5
C8
330
C5
100
AcDbEntity
  8
LC-001-100-D00-0
 62
     7
370
    15
100
AcDbLine
 10
112.54785
 20
94.35286
 30
0.0
 11
112.564003
 21
94.346776
 31
0.0
  0
LINE
  5
C9
330
C5
100
AcDbEntity
  8
LC-001-100-D00-0
 62
     7
370
    15
100
AcDbLine
 10
112.564003
 20
94.346776
 30
0.0
 11
112.576371
 21
94.34212
 31
0.0
  0
ENDBLK
  5
C7
330
C5
100
AcDbEntity
  8
0
100
AcDbBlockEnd
  0
BLOCK
  5
CC
330
CB
100
AcDbEntity
  8
0
100
AcDbBlockBegin
  2
KLON12
 70
     0
 71
     0
 10
0.0
 20
0.0
 30
0.0
  3
KLON12
  1

  4
KLON12
  0
LINE
  5
CE
330
CB
100
AcDbEntity
  8
LC-001-100-D00-0
 62
     7
370
    15
100
AcDbLine
 10
-371.342743
 20
94.35286
 30
0.0
 11
-371.358896
 21
94.346776
 31
0.0
  0
LINE
  5
CF
330
CB
100
AcDbEntity
  8
LC-001-100-D00-0
 62
     7
370
    15
100
AcDbLine
 10
-371.358896
 20
94.346776
 30
0.0
 11
-371.371264
 21
94.34212
 31
0.0
  0
ENDBLK
  5
CD
330
CB
100
AcDbEntity
  8
0
100
AcDbBlockEnd
  0
BLOCK
  5
F5
330
EB
100
AcDbEntity
  8
0
100
AcDbBlockBegin
  2
*D13
 70
     1
 71
     0
 10
0.0
 20
0.0
 30
0.0
  3
*D13
  1

  0
LINE
  5
EC
330
EB
100
AcDbEntity
  8
LC-001-100-D00-0
 62
     2
370
    -2
100
AcDbLine
 10
165.602553
 20
159.519451
 30
0.0
 11
271.770948
 21
159.519451
 31
0.0
  0
LINE
  5
ED
330
EB
100
AcDbEntity
  8
LC-001-100-D00-0
 62
     2
370
    -2
100
AcDbLine
 10
165.602553
 20
4.519451
 30
0.0
 11
271.770948
 21
4.519451
 31
0.0
  0
LINE
  5
EE
330
EB
100
AcDbEntity
  8
LC-001-100-D00-0
 62
     2
370
    -2
100
AcDbLine
 10
262.770948
 20
109.519451
 30
0.0
 11
262.770948
 21
54.519451
 31
0.0
  0
SOLID
  5
EF
330
EB
100
AcDbEntity
  8
LC-001-100-D00-0
 62
     2
100
AcDbTrace
 10
271.104281
 20
109.519451
 30
0.0
 11
254.437615
 21
109.519451
 31
0.0
 12
262.770948
 22
159.519451
 32
0.0
 13
262.770948
 23
159.519451
 33
0.0
  0
SOLID
  5
F0
330
EB
100
AcDbEntity
  8
LC-001-100-D00-0
 62
     2
100
AcDbTrace
 10
254.437615
 20
54.519451
 30
0.0
 11
271.104281
 21
54.519451
 31
0.0
 12
262.770948
 22
4.519451
 32
0.0
 13
262.770948
 23
4.519451
 33
0.0
  0
MTEXT
  5
F1
330
EB
100
AcDbEntity
  8
LC-001-100-D00-0
 62
     2
100
AcDbMText
 10
207.770948
 20
75.799451
 30
0.0
 40
50.0
 41
0.0
 71
     5
 72
     1
  1
\A1;155
  7
LCTX15-400-0-0pDIN-Schrift
 11
6.123031769111886E-17
 21
1.0
 31
0.0
 73
     1
 44
1.0
  0
POINT
  5
F2
330
EB
100
AcDbEntity
  8
Defpoints
 62
     0
100
AcDbPoint
 10
165.602553
 20
159.519451
 30
0.0
  0
POINT
  5
F3
330
EB
100
AcDbEntity
  8
Defpoints
 62
     0
100
AcDbPoint
 10
165.602553
 20
4.519451
 30
0.0
  0
POINT
  5
F4
330
EB
100
AcDbEntity
  8
Defpoints
 62
     0
100
AcDbPoint
 10
262.770948
 20
4.519451
 30
0.0
  0
ENDBLK
  5
F6
330
EB
100
AcDbEntity
  8
0
100
AcDbBlockEnd
  0
BLOCK
  5
27C
330
27B
100
AcDbEntity
  8
0
100
AcDbBlockBegin
  2
KLON13
 70
     0
 71
     0
 10
0.0
 20
0.0
 30
0.0
  3
KLON13
  1

  4
KLON13
  0
LINE
  5
27E
330
27B
100
AcDbEntity
  8
LC-001-100-D00-0
 62
     7
370
    15
100
AcDbLine
 10
-55.397434
 20
462.197481
 30
0.0
 11
-55.400161
 21
462.197519
 31
0.0
  0
LINE
  5
27F
330
27B
100
AcDbEntity
  8
LC-001-100-D00-0
 62
     7
370
    15
100
AcDbLine
 10
-55.400161
 20
462.197519
 30
0.0
 11
-55.404743
 21
462.197712
 31
0.0
  0
LINE
  5
280
330
27B
100
AcDbEntity
  8
LC-001-100-D00-0
 62
     7
370
    15
100
AcDbLine
 10
-55.404743
 20
462.197712
 30
0.0
 11
-55.413617
 21
462.198547
 31
0.0
  0
LINE
  5
281
330
27B
100
AcDbEntity
  8
LC-001-100-D00-0
 62
     7
370
    15
100
AcDbLine
 10
-55.413617
 20
462.198547
 30
0.0
 11
-55.415897
 21
462.198852
 31
0.0
  0
LINE
  5
282
330
27B
100
AcDbEntity
  8
LC-001-100-D00-0
 62
     7
370
    15
100
AcDbLine
 10
-55.415897
 20
462.198852
 30
0.0
 11
-55.41647
 21
462.198934
 31
0.0
  0
LINE
  5
283
330
27B
100
AcDbEntity
  8
LC-001-100-D00-0
 62
     7
370
    15
100
AcDbLine
 10
-55.41647
 20
462.198934
 30
0.0
 11
-55.416612
 21
462.198957
 31
0.0
  0
LINE
  5
284
330
27B
100
AcDbEntity
  8
LC-001-100-D00-0
 62
     7
370
    15
100
AcDbLine
 10
-55.416612
 20
462.198957
 30
0.0
 11
-55.535791
 21
462.248227
 31
0.0
  0
LINE
  5
285
330
27B
100
AcDbEntity
  8
LC-001-100-D00-0
 62
     7
370
    15
100
AcDbLine
 10
-55.535791
 20
462.248227
 30
0.0
 11
-56.376396
 21
463.061123
 31
0.0
  0
LINE
  5
286
330
27B
100
AcDbEntity
  8
LC-001-100-D00-0
 62
     7
370
    15
100
AcDbLine
 10
-56.376396
 20
463.061123
 30
0.0
 11
-57.465074
 21
464.386447
 31
0.0
  0
LINE
  5
287
330
27B
100
AcDbEntity
  8
LC-001-100-D00-0
 62
     7
370
    15
100
AcDbLine
 10
-57.465074
 20
464.386447
 30
0.0
 11
-58.890937
 21
466.289608
 31
0.0
  0
LINE
  5
288
330
27B
100
AcDbEntity
  8
LC-001-100-D00-0
 62
     7
370
    15
100
AcDbLine
 10
-58.890937
 20
466.289608
 30
0.0
 11
-60.943281
 21
469.255267
 31
0.0
  0
LINE
  5
289
330
27B
100
AcDbEntity
  8
LC-001-100-D00-0
 62
     7
370
    15
100
AcDbLine
 10
-60.943281
 20
469.255267
 30
0.0
 11
-63.313952
 21
472.896597
 31
0.0
  0
LINE
  5
28A
330
27B
100
AcDbEntity
  8
LC-001-100-D00-0
 62
     7
370
    15
100
AcDbLine
 10
-63.313952
 20
472.896597
 30
0.0
 11
-63.422141
 21
473.062976
 31
0.0
  0
ENDBLK
  5
27D
330
27B
100
AcDbEntity
  8
0
100
AcDbBlockEnd
  0
BLOCK
  5
28D
330
28C
100
AcDbEntity
  8
0
100
AcDbBlockBegin
  2
KLON14
 70
     0
 71
     0
 10
0.0
 20
0.0
 30
0.0
  3
KLON14
  1

  4
KLON14
  0
LINE
  5
28F
330
28C
100
AcDbEntity
  8
LC-001-100-D00-0
 62
     7
370
    15
100
AcDbLine
 10
-63.422141
 20
473.062976
 30
0.0
 11
-64.16375
 21
475.441529
 31
0.0
  0
LINE
  5
290
330
28C
100
AcDbEntity
  8
LC-001-100-D00-0
 62
     7
370
    15
100
AcDbLine
 10
-64.16375
 20
475.441529
 30
0.0
 11
-64.798487
 21
478.021956
 31
0.0
  0
LINE
  5
291
330
28C
100
AcDbEntity
  8
LC-001-100-D00-0
 62
     7
370
    15
100
AcDbLine
 10
-64.798487
 20
478.021956
 30
0.0
 11
-65.317696
 21
481.154135
 31
0.0
  0
LINE
  5
292
330
28C
100
AcDbEntity
  8
LC-001-100-D00-0
 62
     7
370
    15
100
AcDbLine
 10
-65.317696
 20
481.154135
 30
0.0
 11
-65.554535
 21
484.491012
 31
0.0
  0
LINE
  5
293
330
28C
100
AcDbEntity
  8
LC-001-100-D00-0
 62
     7
370
    15
100
AcDbLine
 10
-65.554535
 20
484.491012
 30
0.0
 11
-65.463615
 21
487.760781
 31
0.0
  0
LINE
  5
294
330
28C
100
AcDbEntity
  8
LC-001-100-D00-0
 62
     7
370
    15
100
AcDbLine
 10
-65.463615
 20
487.760781
 30
0.0
 11
-65.051799
 21
491.052157
 31
0.0
  0
LINE
  5
295
330
28C
100
AcDbEntity
  8
LC-001-100-D00-0
 62
     7
370
    15
100
AcDbLine
 10
-65.051799
 20
491.052157
 30
0.0
 11
-64.407905
 21
494.044943
 31
0.0
  0
LINE
  5
296
330
28C
100
AcDbEntity
  8
LC-001-100-D00-0
 62
     7
370
    15
100
AcDbLine
 10
-64.407905
 20
494.044943
 30
0.0
 11
-63.569275
 21
496.894872
 31
0.0
  0
LINE
  5
297
330
28C
100
AcDbEntity
  8
LC-001-100-D00-0
 62
     7
370
    15
100
AcDbLine
 10
-63.569275
 20
496.894872
 30
0.0
 11
-62.501615
 21
499.805896
 31
0.0
  0
LINE
  5
298
330
28C
100
AcDbEntity
  8
LC-001-100-D00-0
 62
     7
370
    15
100
AcDbLine
 10
-62.501615
 20
499.805896
 30
0.0
 11
-61.377739
 21
502.416002
 31
0.0
  0
LINE
  5
299
330
28C
100
AcDbEntity
  8
LC-001-100-D00-0
 62
     7
370
    15
100
AcDbLine
 10
-61.377739
 20
502.416002
 30
0.0
 11
-60.229322
 21
504.792711
 31
0.0
  0
LINE
  5
29A
330
28C
100
AcDbEntity
  8
LC-001-100-D00-0
 62
     7
370
    15
100
AcDbLine
 10
-60.229322
 20
504.792711
 30
0.0
 11
-59.257505
 21
506.646826
 31
0.0
  0
LINE
  5
29B
330
28C
100
AcDbEntity
  8
LC-001-100-D00-0
 62
     7
370
    15
100
AcDbLine
 10
-59.257505
 20
506.646826
 30
0.0
 11
-58.715267
 21
507.633096
 31
0.0
  0
LINE
  5
29C
330
28C
100
AcDbEntity
  8
LC-001-100-D00-0
 62
     7
370
    15
100
AcDbLine
 10
-58.715267
 20
507.633096
 30
0.0
 11
-58.428569
 21
508.142623
 31
0.0
  0
LINE
  5
29D
330
28C
100
AcDbEntity
  8
LC-001-100-D00-0
 62
     7
370
    15
100
AcDbLine
 10
-58.428569
 20
508.142623
 30
0.0
 11
-58.397708
 21
508.197001
 31
0.0
  0
LINE
  5
29E
330
28C
100
AcDbEntity
  8
LC-001-100-D00-0
 62
     7
370
    15
100
AcDbLine
 10
-58.397708
 20
508.197001
 30
0.0
 11
-58.397433
 21
508.197485
 31
0.0
  0
ENDBLK
  5
28E
330
28C
100
AcDbEntity
  8
0
100
AcDbBlockEnd
  0
BLOCK
  5
2A4
330
2A3
100
AcDbEntity
  8
0
100
AcDbBlockBegin
  2
KLON15
 70
     0
 71
     0
 10
0.0
 20
0.0
 30
0.0
  3
KLON15
  1

  4
KLON15
  0
LINE
  5
2A6
330
2A3
100
AcDbEntity
  8
LC-001-100-D00-0
 62
     7
370
    15
100
AcDbLine
 10
-64.079983
 20
471.697486
 30
0.0
 11
-64.073203
 21
471.711761
 31
0.0
  0
LINE
  5
2A7
330
2A3
100
AcDbEntity
  8
LC-001-100-D00-0
 62
     7
370
    15
100
AcDbLine
 10
-64.073203
 20
471.711761
 30
0.0
 11
-63.422141
 21
473.062976
 31
0.0
  0
ENDBLK
  5
2A5
330
2A3
100
AcDbEntity
  8
0
100
AcDbBlockEnd
  0
BLOCK
  5
3BD
330
3BC
100
AcDbEntity
  8
0
100
AcDbBlockBegin
  2
KLON16
 70
     0
 71
     0
 10
0.0
 20
0.0
 30
0.0
  3
KLON16
  1

  4
KLON16
  0
LINE
  5
3BF
330
3BC
100
AcDbEntity
  8
LC-001-100-D00-0
 62
     7
370
    15
100
AcDbLine
 10
103.510248
 20
540.365648
 30
0.0
 11
106.066557
 21
540.458944
 31
0.0
  0
LINE
  5
3C0
330
3BC
100
AcDbEntity
  8
LC-001-100-D00-0
 62
     7
370
    15
100
AcDbLine
 10
106.066557
 20
540.458944
 30
0.0
 11
108.212354
 21
540.537257
 31
0.0
  0
LINE
  5
3C1
330
3BC
100
AcDbEntity
  8
LC-001-100-D00-0
 62
     7
370
    15
100
AcDbLine
 10
108.212354
 20
540.537257
 30
0.0
 11
109.942498
 21
540.600401
 31
0.0
  0
LINE
  5
3C2
330
3BC
100
AcDbEntity
  8
LC-001-100-D00-0
 62
     7
370
    15
100
AcDbLine
 10
109.942498
 20
540.600401
 30
0.0
 11
111.252831
 21
540.648223
 31
0.0
  0
LINE
  5
3C3
330
3BC
100
AcDbEntity
  8
LC-001-100-D00-0
 62
     7
370
    15
100
AcDbLine
 10
111.252831
 20
540.648223
 30
0.0
 11
112.140225
 21
540.68061
 31
0.0
  0
LINE
  5
3C4
330
3BC
100
AcDbEntity
  8
LC-001-100-D00-0
 62
     7
370
    15
100
AcDbLine
 10
112.140225
 20
540.68061
 30
0.0
 11
112.602564
 21
540.697484
 31
0.0
  0
ENDBLK
  5
3BE
330
3BC
100
AcDbEntity
  8
0
100
AcDbBlockEnd
  0
BLOCK
  5
3C7
330
3C6
100
AcDbEntity
  8
0
100
AcDbBlockBegin
  2
KLON17
 70
     0
 71
     0
 10
0.0
 20
0.0
 30
0.0
  3
KLON17
  1

  4
KLON17
  0
LINE
  5
3C9
330
3C6
100
AcDbEntity
  8
LC-001-100-D00-0
 62
     7
370
    15
100
AcDbLine
 10
-362.305118
 20
540.365648
 30
0.0
 11
-364.861427
 21
540.458944
 31
0.0
  0
LINE
  5
3CA
330
3C6
100
AcDbEntity
  8
LC-001-100-D00-0
 62
     7
370
    15
100
AcDbLine
 10
-364.861427
 20
540.458944
 30
0.0
 11
-367.007224
 21
540.537257
 31
0.0
  0
LINE
  5
3CB
330
3C6
100
AcDbEntity
  8
LC-001-100-D00-0
 62
     7
370
    15
100
AcDbLine
 10
-367.007224
 20
540.537257
 30
0.0
 11
-368.737368
 21
540.600401
 31
0.0
  0
LINE
  5
3CC
330
3C6
100
AcDbEntity
  8
LC-001-100-D00-0
 62
     7
370
    15
100
AcDbLine
 10
-368.737368
 20
540.600401
 30
0.0
 11
-370.047701
 21
540.648223
 31
0.0
  0
LINE
  5
3CD
330
3C6
100
AcDbEntity
  8
LC-001-100-D00-0
 62
     7
370
    15
100
AcDbLine
 10
-370.047701
 20
540.648223
 30
0.0
 11
-370.935095
 21
540.68061
 31
0.0
  0
LINE
  5
3CE
330
3C6
100
AcDbEntity
  8
LC-001-100-D00-0
 62
     7
370
    15
100
AcDbLine
 10
-370.935095
 20
540.68061
 30
0.0
 11
-371.397434
 21
540.697484
 31
0.0
  0
ENDBLK
  5
3C8
330
3C6
100
AcDbEntity
  8
0
100
AcDbBlockEnd
  0
BLOCK
  5
3EA
330
3E9
100
AcDbEntity
  8
0
100
AcDbBlockBegin
  2
KLON18
 70
     0
 71
     0
 10
0.0
 20
0.0
 30
0.0
  3
KLON18
  1

  4
KLON18
  0
LINE
  5
3EC
330
3E9
100
AcDbEntity
  8
LC-001-100-D00-0
 62
     7
370
    15
100
AcDbLine
 10
-175.51705
 20
528.697482
 30
0.0
 11
-175.50352
 21
528.538777
 31
0.0
  0
LINE
  5
3ED
330
3E9
100
AcDbEntity
  8
LC-001-100-D00-0
 62
     7
370
    15
100
AcDbLine
 10
-175.50352
 20
528.538777
 30
0.0
 11
-175.341597
 21
527.954357
 31
0.0
  0
LINE
  5
3EE
330
3E9
100
AcDbEntity
  8
LC-001-100-D00-0
 62
     7
370
    15
100
AcDbLine
 10
-175.341597
 20
527.954357
 30
0.0
 11
-175.09173
 21
527.508053
 31
0.0
  0
LINE
  5
3EF
330
3E9
100
AcDbEntity
  8
LC-001-100-D00-0
 62
     7
370
    15
100
AcDbLine
 10
-175.09173
 20
527.508053
 30
0.0
 11
-174.78043
 21
527.249301
 31
0.0
  0
LINE
  5
3F0
330
3E9
100
AcDbEntity
  8
LC-001-100-D00-0
 62
     7
370
    15
100
AcDbLine
 10
-174.78043
 20
527.249301
 30
0.0
 11
-174.642937
 21
527.205544
 31
0.0
  0
ENDBLK
  5
3EB
330
3E9
100
AcDbEntity
  8
0
100
AcDbBlockEnd
  0
BLOCK
  5
3F3
330
3F2
100
AcDbEntity
  8
0
100
AcDbBlockBegin
  2
KLON19
 70
     0
 71
     0
 10
0.0
 20
0.0
 30
0.0
  3
KLON19
  1

  4
KLON19
  0
LINE
  5
3F5
330
3F2
100
AcDbEntity
  8
LC-001-100-D00-0
 62
     7
370
    15
100
AcDbLine
 10
112.575205
 20
542.197483
 30
0.0
 11
112.574505
 21
542.235464
 31
0.0
  0
LINE
  5
3F6
330
3F2
100
AcDbEntity
  8
LC-001-100-D00-0
 62
     7
370
    15
100
AcDbLine
 10
112.574505
 20
542.235464
 30
0.0
 11
112.572449
 21
542.348251
 31
0.0
  0
LINE
  5
3F7
330
3F2
100
AcDbEntity
  8
LC-001-100-D00-0
 62
     7
370
    15
100
AcDbLine
 10
112.572449
 20
542.348251
 30
0.0
 11
112.569096
 21
542.53242
 31
0.0
  0
LINE
  5
3F8
330
3F2
100
AcDbEntity
  8
LC-001-100-D00-0
 62
     7
370
    15
100
AcDbLine
 10
112.569096
 20
542.53242
 30
0.0
 11
112.564536
 21
542.782372
 31
0.0
  0
LINE
  5
3F9
330
3F2
100
AcDbEntity
  8
LC-001-100-D00-0
 62
     7
370
    15
100
AcDbLine
 10
112.564536
 20
542.782372
 30
0.0
 11
112.558918
 21
543.090515
 31
0.0
  0
LINE
  5
3FA
330
3F2
100
AcDbEntity
  8
LC-001-100-D00-0
 62
     7
370
    15
100
AcDbLine
 10
112.558918
 20
543.090515
 30
0.0
 11
112.552406
 21
543.447484
 31
0.0
  0
LINE
  5
3FB
330
3F2
100
AcDbEntity
  8
LC-001-100-D00-0
 62
     7
370
    15
100
AcDbLine
 10
112.552406
 20
543.447484
 30
0.0
 11
112.545194
 21
543.842434
 31
0.0
  0
LINE
  5
3FC
330
3F2
100
AcDbEntity
  8
LC-001-100-D00-0
 62
     7
370
    15
100
AcDbLine
 10
112.545194
 20
543.842434
 30
0.0
 11
112.53752
 21
544.263363
 31
0.0
  0
LINE
  5
3FD
330
3F2
100
AcDbEntity
  8
LC-001-100-D00-0
 62
     7
370
    15
100
AcDbLine
 10
112.53752
 20
544.263363
 30
0.0
 11
112.529593
 21
544.697485
 31
0.0
  0
ENDBLK
  5
3F4
330
3F2
100
AcDbEntity
  8
0
100
AcDbBlockEnd
  0
BLOCK
  5
400
330
3FF
100
AcDbEntity
  8
0
100
AcDbBlockBegin
  2
KLON20
 70
     0
 71
     0
 10
0.0
 20
0.0
 30
0.0
  3
KLON20
  1

  4
KLON20
  0
LINE
  5
402
330
3FF
100
AcDbEntity
  8
LC-001-100-D00-0
 62
     7
370
    15
100
AcDbLine
 10
-371.370075
 20
542.197483
 30
0.0
 11
-371.369375
 21
542.235464
 31
0.0
  0
LINE
  5
403
330
3FF
100
AcDbEntity
  8
LC-001-100-D00-0
 62
     7
370
    15
100
AcDbLine
 10
-371.369375
 20
542.235464
 30
0.0
 11
-371.367318
 21
542.348251
 31
0.0
  0
LINE
  5
404
330
3FF
100
AcDbEntity
  8
LC-001-100-D00-0
 62
     7
370
    15
100
AcDbLine
 10
-371.367318
 20
542.348251
 30
0.0
 11
-371.363966
 21
542.53242
 31
0.0
  0
LINE
  5
405
330
3FF
100
AcDbEntity
  8
LC-001-100-D00-0
 62
     7
370
    15
100
AcDbLine
 10
-371.363966
 20
542.53242
 30
0.0
 11
-371.359406
 21
542.782372
 31
0.0
  0
LINE
  5
406
330
3FF
100
AcDbEntity
  8
LC-001-100-D00-0
 62
     7
370
    15
100
AcDbLine
 10
-371.359406
 20
542.782372
 30
0.0
 11
-371.353788
 21
543.090515
 31
0.0
  0
LINE
  5
407
330
3FF
100
AcDbEntity
  8
LC-001-100-D00-0
 62
     7
370
    15
100
AcDbLine
 10
-371.353788
 20
543.090515
 30
0.0
 11
-371.347276
 21
543.447484
 31
0.0
  0
LINE
  5
408
330
3FF
100
AcDbEntity
  8
LC-001-100-D00-0
 62
     7
370
    15
100
AcDbLine
 10
-371.347276
 20
543.447484
 30
0.0
 11
-371.340064
 21
543.842434
 31
0.0
  0
LINE
  5
409
330
3FF
100
AcDbEntity
  8
LC-001-100-D00-0
 62
     7
370
    15
100
AcDbLine
 10
-371.340064
 20
543.842434
 30
0.0
 11
-371.33239
 21
544.263363
 31
0.0
  0
LINE
  5
40A
330
3FF
100
AcDbEntity
  8
LC-001-100-D00-0
 62
     7
370
    15
100
AcDbLine
 10
-371.33239
 20
544.263363
 30
0.0
 11
-371.324463
 21
544.697485
 31
0.0
  0
ENDBLK
  5
401
330
3FF
100
AcDbEntity
  8
0
100
AcDbBlockEnd
  0
BLOCK
  5
46E
330
463
100
AcDbEntity
  8
0
100
AcDbBlockBegin
  2
*D22
 70
     1
 71
     0
 10
0.0
 20
0.0
 30
0.0
  3
*D22
  1

  0
LINE
  5
464
330
463
100
AcDbEntity
  8
LC-001-100-D00-0
 62
     2
370
    -2
100
AcDbLine
 10
170.602565
 20
562.697484
 30
0.0
 11
253.820581
 21
562.697484
 31
0.0
  0
LINE
  5
465
330
463
100
AcDbEntity
  8
LC-001-100-D00-0
 62
     2
370
    -2
100
AcDbLine
 10
86.602362
 20
485.197484
 30
0.0
 11
253.820581
 21
485.197484
 31
0.0
  0
LINE
  5
466
330
463
100
AcDbEntity
  8
LC-001-100-D00-0
 62
     2
370
    -2
100
AcDbLine
 10
244.820581
 20
612.697484
 30
0.0
 11
244.820581
 21
662.697484
 31
0.0
  0
LINE
  5
467
330
463
100
AcDbEntity
  8
LC-001-100-D00-0
 62
     2
370
    -2
100
AcDbLine
 10
244.820581
 20
435.197484
 30
0.0
 11
244.820581
 21
413.897626
 31
0.0
  0
SOLID
  5
468
330
463
100
AcDbEntity
  8
LC-001-100-D00-0
 62
     2
100
AcDbTrace
 10
236.487247
 20
612.697484
 30
0.0
 11
253.153914
 21
612.697484
 31
0.0
 12
244.820581
 22
562.697484
 32
0.0
 13
244.820581
 23
562.697484
 33
0.0
  0
SOLID
  5
469
330
463
100
AcDbEntity
  8
LC-001-100-D00-0
 62
     2
100
AcDbTrace
 10
253.153914
 20
435.197484
 30
0.0
 11
236.487247
 21
435.197484
 31
0.0
 12
244.820581
 22
485.197484
 32
0.0
 13
244.820581
 23
485.197484
 33
0.0
  0
MTEXT
  5
46A
330
463
100
AcDbEntity
  8
LC-001-100-D00-0
 62
     2
100
AcDbMText
 10
189.820581
 20
483.334451
 30
0.0
 40
50.0
 41
0.0
 71
     5
 72
     1
  1
\A1;77,5
  7
LCTX15-400-0-0pDIN-Schrift
 11
6.123031769111886E-17
 21
1.0
 31
0.0
 73
     1
 44
1.0
  0
POINT
  5
46B
330
463
100
AcDbEntity
  8
Defpoints
 62
     0
100
AcDbPoint
 10
170.602565
 20
562.697484
 30
0.0
  0
POINT
  5
46C
330
463
100
AcDbEntity
  8
Defpoints
 62
     0
100
AcDbPoint
 10
86.602362
 20
485.197484
 30
0.0
  0
POINT
  5
46D
330
463
100
AcDbEntity
  8
Defpoints
 62
     0
100
AcDbPoint
 10
244.820581
 20
485.197484
 30
0.0
  0
ENDBLK
  5
46F
330
463
100
AcDbEntity
  8
0
100
AcDbBlockEnd
  0
BLOCK
  5
47C
330
471
100
AcDbEntity
  8
0
100
AcDbBlockBegin
  2
*D23
 70
     1
 71
     0
 10
0.0
 20
0.0
 30
0.0
  3
*D23
  1

  0
LINE
  5
472
330
471
100
AcDbEntity
  8
LC-001-100-D00-0
 62
     2
370
    -2
100
AcDbLine
 10
76.602362
 20
510.197484
 30
0.0
 11
163.621463
 21
510.197484
 31
0.0
  0
LINE
  5
473
330
471
100
AcDbEntity
  8
LC-001-100-D00-0
 62
     2
370
    -2
100
AcDbLine
 10
76.602362
 20
460.197484
 30
0.0
 11
163.621463
 21
460.197484
 31
0.0
  0
LINE
  5
474
330
471
100
AcDbEntity
  8
LC-001-100-D00-0
 62
     2
370
    -2
100
AcDbLine
 10
154.621463
 20
560.197484
 30
0.0
 11
154.621463
 21
610.197484
 31
0.0
  0
LINE
  5
475
330
471
100
AcDbEntity
  8
LC-001-100-D00-0
 62
     2
370
    -2
100
AcDbLine
 10
154.621463
 20
410.197484
 30
0.0
 11
154.621463
 21
273.315241
 31
0.0
  0
SOLID
  5
476
330
471
100
AcDbEntity
  8
LC-001-100-D00-0
 62
     2
100
AcDbTrace
 10
146.288129
 20
560.197484
 30
0.0
 11
162.954796
 21
560.197484
 31
0.0
 12
154.621463
 22
510.197484
 32
0.0
 13
154.621463
 23
510.197484
 33
0.0
  0
SOLID
  5
477
330
471
100
AcDbEntity
  8
LC-001-100-D00-0
 62
     2
100
AcDbTrace
 10
162.954796
 20
410.197484
 30
0.0
 11
146.288129
 21
410.197484
 31
0.0
 12
154.621463
 22
460.197484
 32
0.0
 13
154.621463
 23
460.197484
 33
0.0
  0
MTEXT
  5
478
330
471
100
AcDbEntity
  8
LC-001-100-D00-0
 62
     2
100
AcDbMText
 10
99.621463
 20
357.666593
 30
0.0
 40
50.0
 41
0.0
 71
     5
 72
     1
  1
\A1;DN50
  7
LCTX15-400-0-0pDIN-Schrift
 11
6.123031769111886E-17
 21
1.0
 31
0.0
 73
     1
 44
1.0
  0
POINT
  5
479
330
471
100
AcDbEntity
  8
Defpoints
 62
     0
100
AcDbPoint
 10
76.602362
 20
510.197484
 30
0.0
  0
POINT
  5
47A
330
471
100
AcDbEntity
  8
Defpoints
 62
     0
100
AcDbPoint
 10
76.602362
 20
460.197484
 30
0.0
  0
POINT
  5
47B
330
471
100
AcDbEntity
  8
Defpoints
 62
     0
100
AcDbPoint
 10
154.621463
 20
460.197484
 30
0.0
  0
ENDBLK
  5
47D
330
471
100
AcDbEntity
  8
0
100
AcDbBlockEnd
  0
BLOCK
  5
48A
330
47F
100
AcDbEntity
  8
0
100
AcDbBlockBegin
  2
*D24
 70
     1
 71
     0
 10
0.0
 20
0.0
 30
0.0
  3
*D24
  1

  0
LINE
  5
480
330
47F
100
AcDbEntity
  8
LC-001-100-D00-0
 62
     2
370
    -2
100
AcDbLine
 10
170.602565
 20
562.697484
 30
0.0
 11
375.46486
 21
562.697484
 31
0.0
  0
LINE
  5
481
330
47F
100
AcDbEntity
  8
LC-001-100-D00-0
 62
     2
370
    -2
100
AcDbLine
 10
80.102565
 20
428.197484
 30
0.0
 11
375.46486
 21
428.197484
 31
0.0
  0
LINE
  5
482
330
47F
100
AcDbEntity
  8
LC-001-100-D00-0
 62
     2
370
    -2
100
AcDbLine
 10
366.46486
 20
512.697484
 30
0.0
 11
366.46486
 21
478.197484
 31
0.0
  0
LINE
  5
483
330
47F
100
AcDbEntity
  8
LC-001-100-D00-0
 62
     2
370
    -2
100
AcDbLine
 10
366.46486
 20
428.197484
 30
0.0
 11
366.46486
 21
253.264769
 31
0.0
  0
SOLID
  5
484
330
47F
100
AcDbEntity
  8
LC-001-100-D00-0
 62
     2
100
AcDbTrace
 10
374.798193
 20
512.697484
 30
0.0
 11
358.131527
 21
512.697484
 31
0.0
 12
366.46486
 22
562.697484
 32
0.0
 13
366.46486
 23
562.697484
 33
0.0
  0
SOLID
  5
485
330
47F
100
AcDbEntity
  8
LC-001-100-D00-0
 62
     2
100
AcDbTrace
 10
358.131527
 20
478.197484
 30
0.0
 11
374.798193
 21
478.197484
 31
0.0
 12
366.46486
 22
428.197484
 32
0.0
 13
366.46486
 23
428.197484
 33
0.0
  0
MTEXT
  5
486
330
47F
100
AcDbEntity
  8
LC-001-100-D00-0
 62
     2
100
AcDbMText
 10
311.46486
 20
419.844451
 30
0.0
 40
50.0
 41
0.0
 71
     5
 72
     1
  1
\A1;110-129,5
  7
LCTX15-400-0-0pDIN-Schrift
 11
6.123031769111886E-17
 21
1.0
 31
0.0
 73
     1
 44
1.0
  0
POINT
  5
487
330
47F
100
AcDbEntity
  8
Defpoints
 62
     0
100
AcDbPoint
 10
170.602565
 20
562.697484
 30
0.0
  0
POINT
  5
488
330
47F
100
AcDbEntity
  8
Defpoints
 62
     0
100
AcDbPoint
 10
80.102565
 20
428.197484
 30
0.0
  0
POINT
  5
489
330
47F
100
AcDbEntity
  8
Defpoints
 62
     0
100
AcDbPoint
 10
366.46486
 20
428.197484
 30
0.0
  0
ENDBLK
  5
48B
330
47F
100
AcDbEntity
  8
0
100
AcDbBlockEnd
  0
BLOCK
  5
497
330
48D
100
AcDbEntity
  8
0
100
AcDbBlockBegin
  2
*D25
 70
     1
 71
     0
 10
0.0
 20
0.0
 30
0.0
  3
*D25
  1

  0
LINE
  5
48E
330
48D
100
AcDbEntity
  8
LC-001-100-D00-0
 62
     2
370
    -2
100
AcDbLine
 10
-203.397435
 20
471.697484
 30
0.0
 11
-203.397435
 21
371.906191
 31
0.0
  0
LINE
  5
48F
330
48D
100
AcDbEntity
  8
LC-001-100-D00-0
 62
     2
370
    -2
100
AcDbLine
 10
-55.397435
 20
511.947484
 30
0.0
 11
-55.397435
 21
371.906191
 31
0.0
  0
LINE
  5
490
330
48D
100
AcDbEntity
  8
LC-001-100-D00-0
 62
     2
370
    -2
100
AcDbLine
 10
-153.397435
 20
380.906191
 30
0.0
 11
-105.397435
 21
380.906191
 31
0.0
  0
SOLID
  5
491
330
48D
100
AcDbEntity
  8
LC-001-100-D00-0
 62
     2
100
AcDbTrace
 10
-153.397435
 20
389.239524
 30
0.0
 11
-153.397435
 21
372.572858
 31
0.0
 12
-203.397435
 22
380.906191
 32
0.0
 13
-203.397435
 23
380.906191
 33
0.0
  0
SOLID
  5
492
330
48D
100
AcDbEntity
  8
LC-001-100-D00-0
 62
     2
100
AcDbTrace
 10
-105.397435
 20
372.572858
 30
0.0
 11
-105.397435
 21
389.239524
 31
0.0
 12
-55.397435
 22
380.906191
 32
0.0
 13
-55.397435
 23
380.906191
 33
0.0
  0
MTEXT
  5
493
330
48D
100
AcDbEntity
  8
LC-001-100-D00-0
 62
     2
100
AcDbMText
 10
-141.454313
 20
435.906191
 30
0.0
 40
50.0
 41
0.0
 71
     5
 72
     1
  1
\A1;148
  7
LCTX15-400-0-0pDIN-Schrift
 73
     1
 44
1.0
  0
POINT
  5
494
330
48D
100
AcDbEntity
  8
Defpoints
 62
     0
100
AcDbPoint
 10
-203.397435
 20
471.697484
 30
0.0
  0
POINT
  5
495
330
48D
100
AcDbEntity
  8
Defpoints
 62
     0
100
AcDbPoint
 10
-55.397435
 20
511.947484
 30
0.0
  0
POINT
  5
496
330
48D
100
AcDbEntity
  8
Defpoints
 62
     0
100
AcDbPoint
 10
-55.397435
 20
380.906191
 30
0.0
  0
ENDBLK
  5
498
330
48D
100
AcDbEntity
  8
0
100
AcDbBlockEnd
  0
BLOCK
  5
4A4
330
49A
100
AcDbEntity
  8
0
100
AcDbBlockBegin
  2
*D26
 70
     1
 71
     0
 10
0.0
 20
0.0
 30
0.0
  3
*D26
  1

  0
LINE
  5
49B
330
49A
100
AcDbEntity
  8
LC-001-100-D00-0
 62
     2
370
    -2
100
AcDbLine
 10
80.102362
 20
461.135306
 30
0.0
 11
80.102362
 21
293.797169
 31
0.0
  0
LINE
  5
49C
330
49A
100
AcDbEntity
  8
LC-001-100-D00-0
 62
     2
370
    -2
100
AcDbLine
 10
-203.397435
 20
471.697484
 30
0.0
 11
-203.397435
 21
293.797169
 31
0.0
  0
LINE
  5
49D
330
49A
100
AcDbEntity
  8
LC-001-100-D00-0
 62
     2
370
    -2
100
AcDbLine
 10
30.102362
 20
302.797169
 30
0.0
 11
-153.397435
 21
302.797169
 31
0.0
  0
SOLID
  5
49E
330
49A
100
AcDbEntity
  8
LC-001-100-D00-0
 62
     2
100
AcDbTrace
 10
30.102362
 20
294.463836
 30
0.0
 11
30.102362
 21
311.130502
 31
0.0
 12
80.102362
 22
302.797169
 32
0.0
 13
80.102362
 23
302.797169
 33
0.0
  0
SOLID
  5
49F
330
49A
100
AcDbEntity
  8
LC-001-100-D00-0
 62
     2
100
AcDbTrace
 10
-153.397435
 20
311.130502
 30
0.0
 11
-153.397435
 21
294.463836
 31
0.0
 12
-203.397435
 22
302.797169
 32
0.0
 13
-203.397435
 23
302.797169
 33
0.0
  0
MTEXT
  5
4A0
330
49A
100
AcDbEntity
  8
LC-001-100-D00-0
 62
     2
100
AcDbMText
 10
-57.06233
 20
357.797169
 30
0.0
 40
50.0
 41
0.0
 71
     5
 72
     1
  1
\A1;284
  7
LCTX15-400-0-0pDIN-Schrift
 73
     1
 44
1.0
  0
POINT
  5
4A1
330
49A
100
AcDbEntity
  8
Defpoints
 62
     0
100
AcDbPoint
 10
80.102362
 20
461.135306
 30
0.0
  0
POINT
  5
4A2
330
49A
100
AcDbEntity
  8
Defpoints
 62
     0
100
AcDbPoint
 10
-203.397435
 20
471.697484
 30
0.0
  0
POINT
  5
4A3
330
49A
100
AcDbEntity
  8
Defpoints
 62
     0
100
AcDbPoint
 10
-203.397435
 20
302.797169
 30
0.0
  0
ENDBLK
  5
4A5
330
49A
100
AcDbEntity
  8
0
100
AcDbBlockEnd
  0
BLOCK
  5
4B2
330
4A7
100
AcDbEntity
  8
0
100
AcDbBlockBegin
  2
*D27
 70
     1
 71
     0
 10
0.0
 20
0.0
 30
0.0
  3
*D27
  1

  0
LINE
  5
4A8
330
4A7
100
AcDbEntity
  8
LC-001-100-D00-0
 62
     2
370
    -2
100
AcDbLine
 10
-158.397435
 20
470.797484
 30
0.0
 11
-273.778315
 21
470.797484
 31
0.0
  0
LINE
  5
4A9
330
4A7
100
AcDbEntity
  8
LC-001-100-D00-0
 62
     2
370
    -2
100
AcDbLine
 10
-168.890314
 20
521.197484
 30
0.0
 11
-273.778315
 21
521.197484
 31
0.0
  0
LINE
  5
4AA
330
4A7
100
AcDbEntity
  8
LC-001-100-D00-0
 62
     2
370
    -2
100
AcDbLine
 10
-264.778315
 20
571.197484
 30
0.0
 11
-264.778315
 21
621.197484
 31
0.0
  0
LINE
  5
4AB
330
4A7
100
AcDbEntity
  8
LC-001-100-D00-0
 62
     2
370
    -2
100
AcDbLine
 10
-264.778315
 20
420.797484
 30
0.0
 11
-264.778315
 21
299.549047
 31
0.0
  0
SOLID
  5
4AC
330
4A7
100
AcDbEntity
  8
LC-001-100-D00-0
 62
     2
100
AcDbTrace
 10
-256.444982
 20
420.797484
 30
0.0
 11
-273.111648
 21
420.797484
 31
0.0
 12
-264.778315
 22
470.797484
 32
0.0
 13
-264.778315
 23
470.797484
 33
0.0
  0
SOLID
  5
4AD
330
4A7
100
AcDbEntity
  8
LC-001-100-D00-0
 62
     2
100
AcDbTrace
 10
-273.111648
 20
571.197484
 30
0.0
 11
-256.444982
 21
571.197484
 31
0.0
 12
-264.778315
 22
521.197484
 32
0.0
 13
-264.778315
 23
521.197484
 33
0.0
  0
MTEXT
  5
4AE
330
4A7
100
AcDbEntity
  8
LC-001-100-D00-0
 62
     2
100
AcDbMText
 10
-319.778315
 20
342.624451
 30
0.0
 40
50.0
 41
0.0
 71
     5
 72
     1
  1
\A1;50
  7
LCTX15-400-0-0pDIN-Schrift
 11
6.123031769111886E-17
 21
1.0
 31
0.0
 73
     1
 44
1.0
  0
POINT
  5
4AF
330
4A7
100
AcDbEntity
  8
Defpoints
 62
     0
100
AcDbPoint
 10
-158.397435
 20
470.797484
 30
0.0
  0
POINT
  5
4B0
330
4A7
100
AcDbEntity
  8
Defpoints
 62
     0
100
AcDbPoint
 10
-168.890314
 20
521.197484
 30
0.0
  0
POINT
  5
4B1
330
4A7
100
AcDbEntity
  8
Defpoints
 62
     0
100
AcDbPoint
 10
-264.778315
 20
521.197484
 30
0.0
  0
ENDBLK
  5
4B3
330
4A7
100
AcDbEntity
  8
0
100
AcDbBlockEnd
  0
BLOCK
  5
4BF
330
4B5
100
AcDbEntity
  8
0
100
AcDbBlockBegin
  2
*D28
 70
     1
 71
     0
 10
0.0
 20
0.0
 30
0.0
  3
*D28
  1

  0
LINE
  5
4B6
330
4B5
100
AcDbEntity
  8
LC-001-100-D00-0
 62
     2
370
    -2
100
AcDbLine
 10
170.602565
 20
562.697484
 30
0.0
 11
170.602565
 21
714.151182
 31
0.0
  0
LINE
  5
4B7
330
4B5
100
AcDbEntity
  8
LC-001-100-D00-0
 62
     2
370
    -2
100
AcDbLine
 10
-429.397435
 20
562.697484
 30
0.0
 11
-429.397435
 21
714.151182
 31
0.0
  0
LINE
  5
4B8
330
4B5
100
AcDbEntity
  8
LC-001-100-D00-0
 62
     2
370
    -2
100
AcDbLine
 10
120.602565
 20
705.151182
 30
0.0
 11
-379.397435
 21
705.151182
 31
0.0
  0
SOLID
  5
4B9
330
4B5
100
AcDbEntity
  8
LC-001-100-D00-0
 62
     2
100
AcDbTrace
 10
120.602565
 20
696.817848
 30
0.0
 11
120.602565
 21
713.484515
 31
0.0
 12
170.602565
 22
705.151182
 32
0.0
 13
170.602565
 23
705.151182
 33
0.0
  0
SOLID
  5
4BA
330
4B5
100
AcDbEntity
  8
LC-001-100-D00-0
 62
     2
100
AcDbTrace
 10
-379.397435
 20
713.484515
 30
0.0
 11
-379.397435
 21
696.817848
 31
0.0
 12
-429.397435
 22
705.151182
 32
0.0
 13
-429.397435
 23
705.151182
 33
0.0
  0
MTEXT
  5
4BB
330
4B5
100
AcDbEntity
  8
LC-001-100-D00-0
 62
     2
100
AcDbMText
 10
-137.160508
 20
760.151182
 30
0.0
 40
50.0
 41
0.0
 71
     5
 72
     1
  1
\A1;600
  7
LCTX15-400-0-0pDIN-Schrift
 73
     1
 44
1.0
  0
POINT
  5
4BC
330
4B5
100
AcDbEntity
  8
Defpoints
 62
     0
100
AcDbPoint
 10
170.602565
 20
562.697484
 30
0.0
  0
POINT
  5
4BD
330
4B5
100
AcDbEntity
  8
Defpoints
 62
     0
100
AcDbPoint
 10
-429.397435
 20
562.697484
 30
0.0
  0
POINT
  5
4BE
330
4B5
100
AcDbEntity
  8
Defpoints
 62
     0
100
AcDbPoint
 10
-429.397435
 20
705.151182
 30
0.0
  0
ENDBLK
  5
4C0
330
4B5
100
AcDbEntity
  8
0
100
AcDbBlockEnd
  0
BLOCK
  5
4CC
330
4C2
100
AcDbEntity
  8
0
100
AcDbBlockBegin
  2
*D29
 70
     1
 71
     0
 10
0.0
 20
0.0
 30
0.0
  3
*D29
  1

  0
LINE
  5
4C3
330
4C2
100
AcDbEntity
  8
LC-001-100-D00-0
 62
     2
370
    -2
100
AcDbLine
 10
-379.397435
 20
559.697484
 30
0.0
 11
-379.397435
 21
635.529759
 31
0.0
  0
LINE
  5
4C4
330
4C2
100
AcDbEntity
  8
LC-001-100-D00-0
 62
     2
370
    -2
100
AcDbLine
 10
120.602565
 20
559.697484
 30
0.0
 11
120.602565
 21
635.529759
 31
0.0
  0
LINE
  5
4C5
330
4C2
100
AcDbEntity
  8
LC-001-100-D00-0
 62
     2
370
    -2
100
AcDbLine
 10
-329.397435
 20
626.529759
 30
0.0
 11
70.602565
 21
626.529759
 31
0.0
  0
SOLID
  5
4C6
330
4C2
100
AcDbEntity
  8
LC-001-100-D00-0
 62
     2
100
AcDbTrace
 10
-329.397435
 20
634.863092
 30
0.0
 11
-329.397435
 21
618.196426
 31
0.0
 12
-379.397435
 22
626.529759
 32
0.0
 13
-379.397435
 23
626.529759
 33
0.0
  0
SOLID
  5
4C7
330
4C2
100
AcDbEntity
  8
LC-001-100-D00-0
 62
     2
100
AcDbTrace
 10
70.602565
 20
618.196426
 30
0.0
 11
70.602565
 21
634.863092
 31
0.0
 12
120.602565
 22
626.529759
 32
0.0
 13
120.602565
 23
626.529759
 33
0.0
  0
MTEXT
  5
4C8
330
4C2
100
AcDbEntity
  8
LC-001-100-D00-0
 62
     2
100
AcDbMText
 10
-137.160508
 20
681.529759
 30
0.0
 40
50.0
 41
0.0
 71
     5
 72
     1
  1
\A1;500
  7
LCTX15-400-0-0pDIN-Schrift
 73
     1
 44
1.0
  0
POINT
  5
4C9
330
4C2
100
AcDbEntity
  8
Defpoints
 62
     0
100
AcDbPoint
 10
-379.397435
 20
559.697484
 30
0.0
  0
POINT
  5
4CA
330
4C2
100
AcDbEntity
  8
Defpoints
 62
     0
100
AcDbPoint
 10
120.602565
 20
559.697484
 30
0.0
  0
POINT
  5
4CB
330
4C2
100
AcDbEntity
  8
Defpoints
 62
     0
100
AcDbPoint
 10
120.602565
 20
626.529759
 30
0.0
  0
ENDBLK
  5
4CD
330
4C2
100
AcDbEntity
  8
0
100
AcDbBlockEnd
  0
BLOCK
  5
4D0
330
4CF
100
AcDbEntity
  8
0
100
AcDbBlockBegin
  2
KLON21
 70
     0
 71
     0
 10
0.0
 20
0.0
 30
0.0
  3
KLON21
  1

  4
KLON21
  0
LINE
  5
4D2
330
4CF
100
AcDbEntity
  8
LC-001-100-D00-0
 62
     7
370
    25
100
AcDbLine
 10
-238.869104
 20
544.005245
 30
0.0
 11
-234.597435
 21
548.276915
 31
0.0
  0
LINE
  5
4D3
330
4CF
100
AcDbEntity
  8
LC-001-100-D00-0
 62
     7
370
    25
100
AcDbLine
 10
-247.647435
 20
557.677555
 30
0.0
 11
-242.627506
 21
562.697484
 31
0.0
  0
ENDBLK
  5
4D1
330
4CF
100
AcDbEntity
  8
0
100
AcDbBlockEnd
  0
BLOCK
  5
4D9
330
4D8
100
AcDbEntity
  8
0
100
AcDbBlockBegin
  2
KLON22
 70
     0
 71
     0
 10
0.0
 20
0.0
 30
0.0
  3
KLON22
  1

  4
KLON22
  0
LINE
  5
4DB
330
4D8
100
AcDbEntity
  8
LC-001-100-D00-0
 62
     7
370
    25
100
AcDbLine
 10
-343.430063
 20
551.697484
 30
0.0
 11
-339.647435
 21
555.480112
 31
0.0
  0
LINE
  5
4DC
330
4D8
100
AcDbEntity
  8
LC-001-100-D00-0
 62
     7
370
    25
100
AcDbLine
 10
-335.430064
 20
559.697484
 30
0.0
 11
-332.430064
 21
562.697484
 31
0.0
  0
ENDBLK
  5
4DA
330
4D8
100
AcDbEntity
  8
0
100
AcDbBlockEnd
  0
BLOCK
  5
4E1
330
4E0
100
AcDbEntity
  8
0
100
AcDbBlockBegin
  2
KLON23
 70
     0
 71
     0
 10
0.0
 20
0.0
 30
0.0
  3
KLON23
  1

  4
KLON23
  0
LINE
  5
4E3
330
4E0
100
AcDbEntity
  8
LC-001-100-D00-0
 62
     7
370
    50
100
AcDbLine
 10
-35.748288
 20
545.070306
 30
0.0
 11
-34.813037
 21
546.005557
 31
0.0
  0
LINE
  5
4E4
330
4E0
100
AcDbEntity
  8
LC-001-100-D00-0
 62
     7
370
    50
100
AcDbLine
 10
-34.736742
 20
546.081852
 30
0.0
 11
-32.797435
 21
548.021159
 31
0.0
  0
ENDBLK
  5
4E2
330
4E0
100
AcDbEntity
  8
0
100
AcDbBlockEnd
  0
BLOCK
  5
4E7
330
4E6
100
AcDbEntity
  8
0
100
AcDbBlockBegin
  2
KLON24
 70
     0
 71
     0
 10
0.0
 20
0.0
 30
0.0
  3
KLON24
  1

  4
KLON24
  0
LINE
  5
4E9
330
4E6
100
AcDbEntity
  8
LC-001-100-D00-0
 62
     7
370
    25
100
AcDbLine
 10
-37.12111
 20
543.697484
 30
0.0
 11
-35.748288
 21
545.070306
 31
0.0
  0
LINE
  5
4EA
330
4E6
100
AcDbEntity
  8
LC-001-100-D00-0
 62
     7
370
    25
100
AcDbLine
 10
-35.12111
 20
545.697484
 30
0.0
 11
-34.597435
 21
546.221159
 31
0.0
  0
LINE
  5
4EB
330
4E6
100
AcDbEntity
  8
LC-001-100-D00-0
 62
     7
370
    25
100
AcDbLine
 10
-47.57175
 20
555.697484
 30
0.0
 11
-44.647435
 21
558.621799
 31
0.0
  0
LINE
  5
4EC
330
4E6
100
AcDbEntity
  8
LC-001-100-D00-0
 62
     7
370
    25
100
AcDbLine
 10
-43.571751
 20
559.697484
 30
0.0
 11
-40.571751
 21
562.697484
 31
0.0
  0
ENDBLK
  5
4E8
330
4E6
100
AcDbEntity
  8
0
100
AcDbBlockEnd
  0
BLOCK
  5
4F0
330
4EF
100
AcDbEntity
  8
0
100
AcDbBlockBegin
  2
KLON25
 70
     0
 71
     0
 10
0.0
 20
0.0
 30
0.0
  3
KLON25
  1

  4
KLON25
  0
LINE
  5
4F2
330
4EF
100
AcDbEntity
  8
LC-001-100-D00-0
 62
     7
370
    25
100
AcDbLine
 10
159.984005
 20
561.197484
 30
0.0
 11
161.484005
 21
562.697484
 31
0.0
  0
LINE
  5
4F3
330
4EF
100
AcDbEntity
  8
LC-001-100-D00-0
 62
     7
370
    25
100
AcDbLine
 10
137.533365
 20
561.197484
 30
0.0
 11
139.033365
 21
562.697484
 31
0.0
  0
LINE
  5
4F4
330
4EF
100
AcDbEntity
  8
LC-001-100-D00-0
 62
     7
370
    25
100
AcDbLine
 10
94.582727
 20
540.697484
 30
0.0
 11
96.082727
 21
542.197484
 31
0.0
  0
LINE
  5
4F5
330
4EF
100
AcDbEntity
  8
LC-001-100-D00-0
 62
     7
370
    25
100
AcDbLine
 10
72.132088
 20
540.697484
 30
0.0
 11
73.632088
 21
542.197484
 31
0.0
  0
LINE
  5
4F6
330
4EF
100
AcDbEntity
  8
LC-001-100-D00-0
 62
     7
370
    25
100
AcDbLine
 10
86.602565
 20
555.167962
 30
0.0
 11
93.617326
 21
562.182723
 31
0.0
  0
LINE
  5
4F7
330
4EF
100
AcDbEntity
  8
LC-001-100-D00-0
 62
     7
370
    25
100
AcDbLine
 10
49.681448
 20
540.697484
 30
0.0
 11
51.181448
 21
542.197484
 31
0.0
  0
LINE
  5
4F8
330
4EF
100
AcDbEntity
  8
LC-001-100-D00-0
 62
     7
370
    25
100
AcDbLine
 10
27.230809
 20
540.697484
 30
0.0
 11
28.730809
 21
542.197484
 31
0.0
  0
LINE
  5
4F9
330
4EF
100
AcDbEntity
  8
LC-001-100-D00-0
 62
     7
370
    25
100
AcDbLine
 10
4.780169
 20
540.697484
 30
0.0
 11
6.280169
 21
542.197484
 31
0.0
  0
LINE
  5
4FA
330
4EF
100
AcDbEntity
  8
LC-001-100-D00-0
 62
     7
370
    25
100
AcDbLine
 10
-17.67047
 20
540.697484
 30
0.0
 11
-16.17047
 21
542.197484
 31
0.0
  0
LINE
  5
4FB
330
4EF
100
AcDbEntity
  8
LC-001-100-D00-0
 62
     7
370
    25
100
AcDbLine
 10
-41.725739
 20
539.092855
 30
0.0
 11
-39.604419
 21
541.214175
 31
0.0
  0
LINE
  5
4FC
330
4EF
100
AcDbEntity
  8
LC-001-100-D00-0
 62
     7
370
    25
100
AcDbLine
 10
-33.397435
 20
547.421159
 30
0.0
 11
-25.397435
 21
555.42116
 31
0.0
  0
LINE
  5
4FD
330
4EF
100
AcDbEntity
  8
LC-001-100-D00-0
 62
     7
370
    25
100
AcDbLine
 10
-67.571749
 20
535.697484
 30
0.0
 11
-66.071749
 21
537.197484
 31
0.0
  0
ENDBLK
  5
4F1
330
4EF
100
AcDbEntity
  8
0
100
AcDbBlockEnd
  0
BLOCK
  5
500
330
4FF
100
AcDbEntity
  8
0
100
AcDbBlockBegin
  2
KLON26
 70
     0
 71
     0
 10
0.0
 20
0.0
 30
0.0
  3
KLON26
  1

  4
KLON26
  0
LINE
  5
502
330
4FF
100
AcDbEntity
  8
LC-001-100-D00-0
 62
     7
370
    25
100
AcDbLine
 10
-184.824946
 20
530.697484
 30
0.0
 11
-184.697435
 21
530.824995
 31
0.0
  0
LINE
  5
503
330
4FF
100
AcDbEntity
  8
LC-001-100-D00-0
 62
     7
370
    25
100
AcDbLine
 10
-202.275586
 20
535.697484
 30
0.0
 11
-200.775586
 21
537.197484
 31
0.0
  0
LINE
  5
504
330
4FF
100
AcDbEntity
  8
LC-001-100-D00-0
 62
     7
370
    25
100
AcDbLine
 10
-220.430247
 20
539.993463
 30
0.0
 11
-219.205502
 21
541.218208
 31
0.0
  0
LINE
  5
505
330
4FF
100
AcDbEntity
  8
LC-001-100-D00-0
 62
     7
370
    25
100
AcDbLine
 10
-242.176865
 20
540.697484
 30
0.0
 11
-240.676865
 21
542.197484
 31
0.0
  0
LINE
  5
506
330
4FF
100
AcDbEntity
  8
LC-001-100-D00-0
 62
     7
370
    25
100
AcDbLine
 10
-233.397435
 20
549.476915
 30
0.0
 11
-225.397435
 21
557.476915
 31
0.0
  0
LINE
  5
507
330
4FF
100
AcDbEntity
  8
LC-001-100-D00-0
 62
     7
370
    25
100
AcDbLine
 10
-264.627505
 20
540.697484
 30
0.0
 11
-263.127505
 21
542.197484
 31
0.0
  0
LINE
  5
508
330
4FF
100
AcDbEntity
  8
LC-001-100-D00-0
 62
     7
370
    25
100
AcDbLine
 10
-287.078144
 20
540.697484
 30
0.0
 11
-285.578144
 21
542.197484
 31
0.0
  0
LINE
  5
509
330
4FF
100
AcDbEntity
  8
LC-001-100-D00-0
 62
     7
370
    25
100
AcDbLine
 10
-309.528784
 20
540.697484
 30
0.0
 11
-308.028784
 21
542.197484
 31
0.0
  0
LINE
  5
50A
330
4FF
100
AcDbEntity
  8
LC-001-100-D00-0
 62
     7
370
    25
100
AcDbLine
 10
-331.979423
 20
540.697484
 30
0.0
 11
-330.479423
 21
542.197484
 31
0.0
  0
LINE
  5
50B
330
4FF
100
AcDbEntity
  8
LC-001-100-D00-0
 62
     7
370
    25
100
AcDbLine
 10
-354.430062
 20
540.697484
 30
0.0
 11
-345.397435
 21
549.730112
 31
0.0
  0
LINE
  5
50C
330
4FF
100
AcDbEntity
  8
LC-001-100-D00-0
 62
     7
370
    25
100
AcDbLine
 10
-375.799331
 20
541.778855
 30
0.0
 11
-374.677401
 21
542.900785
 31
0.0
  0
LINE
  5
50D
330
4FF
100
AcDbEntity
  8
LC-001-100-D00-0
 62
     7
370
    25
100
AcDbLine
 10
-380.897435
 20
559.131392
 30
0.0
 11
-379.511603
 21
560.517224
 31
0.0
  0
LINE
  5
50E
330
4FF
100
AcDbEntity
  8
LC-001-100-D00-0
 62
     7
370
    25
100
AcDbLine
 10
-401.281982
 20
561.197484
 30
0.0
 11
-399.781983
 21
562.697484
 31
0.0
  0
LINE
  5
50F
330
4FF
100
AcDbEntity
  8
LC-001-100-D00-0
 62
     7
370
    25
100
AcDbLine
 10
-423.208435
 20
561.721671
 30
0.0
 11
-422.232622
 21
562.697484
 31
0.0
  0
ENDBLK
  5
501
330
4FF
100
AcDbEntity
  8
0
100
AcDbBlockEnd
  0
BLOCK
  5
512
330
511
100
AcDbEntity
  8
0
100
AcDbBlockBegin
  2
KLON27
 70
     0
 71
     0
 10
0.0
 20
0.0
 30
0.0
  3
KLON27
  1

  4
KLON27
  0
LINE
  5
514
330
511
100
AcDbEntity
  8
LC-001-100-D00-0
 62
     7
370
    25
100
AcDbLine
 10
-101.897435
 20
478.921154
 30
0.0
 11
-100.397435
 21
480.421154
 31
0.0
  0
LINE
  5
515
330
511
100
AcDbEntity
  8
LC-001-100-D00-0
 62
     7
370
    25
100
AcDbLine
 10
-101.897435
 20
501.371795
 30
0.0
 11
-100.397435
 21
502.871795
 31
0.0
  0
LINE
  5
516
330
511
100
AcDbEntity
  8
LC-001-100-D00-0
 62
     7
370
    25
100
AcDbLine
 10
-101.897435
 20
523.822436
 30
0.0
 11
-89.022388
 21
536.697484
 31
0.0
  0
ENDBLK
  5
513
330
511
100
AcDbEntity
  8
0
100
AcDbBlockEnd
  0
BLOCK
  5
519
330
518
100
AcDbEntity
  8
0
100
AcDbBlockBegin
  2
KLON28
 70
     0
 71
     0
 10
0.0
 20
0.0
 30
0.0
  3
KLON28
  1

  4
KLON28
  0
LINE
  5
51B
330
518
100
AcDbEntity
  8
LC-001-100-D00-0
 62
     7
370
    25
100
AcDbLine
 10
-158.397435
 20
489.773073
 30
0.0
 11
-156.897435
 21
491.273073
 31
0.0
  0
LINE
  5
51C
330
518
100
AcDbEntity
  8
LC-001-100-D00-0
 62
     7
370
    25
100
AcDbLine
 10
-158.397435
 20
512.223714
 30
0.0
 11
-156.897435
 21
513.723715
 31
0.0
  0
LINE
  5
51D
330
518
100
AcDbEntity
  8
LC-001-100-D00-0
 62
     7
370
    25
100
AcDbLine
 10
-163.600141
 20
529.471649
 30
0.0
 11
-157.246056
 21
535.825734
 31
0.0
  0
LINE
  5
51E
330
518
100
AcDbEntity
  8
LC-001-100-D00-0
 62
     7
370
    25
100
AcDbLine
 10
-183.897435
 20
531.624995
 30
0.0
 11
-183.824946
 21
531.697484
 31
0.0
  0
LINE
  5
51F
330
518
100
AcDbEntity
  8
LC-001-100-D00-0
 62
     7
370
    25
100
AcDbLine
 10
-181.897435
 20
533.624995
 30
0.0
 11
-178.824946
 21
536.697484
 31
0.0
  0
ENDBLK
  5
51A
330
518
100
AcDbEntity
  8
0
100
AcDbBlockEnd
  0
BLOCK
  5
522
330
521
100
AcDbEntity
  8
0
100
AcDbBlockBegin
  2
KLON29
 70
     0
 71
     0
 10
0.0
 20
0.0
 30
0.0
  3
KLON29
  1

  4
KLON29
  0
LINE
  5
524
330
521
100
AcDbEntity
  8
LC-001-100-D00-0
 62
     7
370
    25
100
AcDbLine
 10
-103.170464
 20
455.197484
 30
0.0
 11
-101.670464
 21
456.697484
 31
0.0
  0
LINE
  5
525
330
521
100
AcDbEntity
  8
LC-001-100-D00-0
 62
     7
370
    25
100
AcDbLine
 10
-89.897435
 20
468.470514
 30
0.0
 11
-88.397435
 21
469.970514
 31
0.0
  0
LINE
  5
526
330
521
100
AcDbEntity
  8
LC-001-100-D00-0
 62
     7
370
    25
100
AcDbLine
 10
-125.621103
 20
455.197484
 30
0.0
 11
-124.121104
 21
456.697484
 31
0.0
  0
LINE
  5
527
330
521
100
AcDbEntity
  8
LC-001-100-D00-0
 62
     7
370
    25
100
AcDbLine
 10
-89.897435
 20
490.921155
 30
0.0
 11
-88.397435
 21
492.421155
 31
0.0
  0
LINE
  5
528
330
521
100
AcDbEntity
  8
LC-001-100-D00-0
 62
     7
370
    25
100
AcDbLine
 10
-148.071743
 20
455.197484
 30
0.0
 11
-146.571743
 21
456.697484
 31
0.0
  0
LINE
  5
529
330
521
100
AcDbEntity
  8
LC-001-100-D00-0
 62
     7
370
    25
100
AcDbLine
 10
-89.897435
 20
513.371796
 30
0.0
 11
-88.397435
 21
514.871796
 31
0.0
  0
LINE
  5
52A
330
521
100
AcDbEntity
  8
LC-001-100-D00-0
 62
     7
370
    25
100
AcDbLine
 10
-74.571748
 20
528.697484
 30
0.0
 11
-74.147435
 21
529.121797
 31
0.0
  0
LINE
  5
52B
330
521
100
AcDbEntity
  8
LC-001-100-D00-0
 62
     7
370
    25
100
AcDbLine
 10
-168.994891
 20
456.724976
 30
0.0
 11
-167.933994
 21
457.785873
 31
0.0
  0
LINE
  5
52C
330
521
100
AcDbEntity
  8
LC-001-100-D00-0
 62
     7
370
    25
100
AcDbLine
 10
-170.397435
 20
477.773072
 30
0.0
 11
-168.897435
 21
479.273073
 31
0.0
  0
LINE
  5
52D
330
521
100
AcDbEntity
  8
LC-001-100-D00-0
 62
     7
370
    25
100
AcDbLine
 10
-170.397435
 20
500.223714
 30
0.0
 11
-168.897435
 21
501.723714
 31
0.0
  0
LINE
  5
52E
330
521
100
AcDbEntity
  8
LC-001-100-D00-0
 62
     7
370
    25
100
AcDbLine
 10
-171.248513
 20
521.823277
 30
0.0
 11
-169.81794
 21
523.253849
 31
0.0
  0
ENDBLK
  5
523
330
521
100
AcDbEntity
  8
0
100
AcDbBlockEnd
  0
BLOCK
  5
531
330
530
100
AcDbEntity
  8
0
100
AcDbBlockBegin
  2
KLON30
 70
     0
 71
     0
 10
0.0
 20
0.0
 30
0.0
  3
KLON30
  1

  4
KLON30
  0
LINE
  5
533
330
530
100
AcDbEntity
  8
LC-001-100-D00-0
 62
     7
370
    25
100
AcDbLine
 10
39.38209
 20
507.947484
 30
0.0
 11
41.63209
 21
510.197484
 31
0.0
  0
LINE
  5
534
330
530
100
AcDbEntity
  8
LC-001-100-D00-0
 62
     7
370
    25
100
AcDbLine
 10
61.83273
 20
507.947484
 30
0.0
 11
64.08273
 21
510.197484
 31
0.0
  0
LINE
  5
535
330
530
100
AcDbEntity
  8
LC-001-100-D00-0
 62
     7
370
    25
100
AcDbLine
 10
-21.610807
 20
514.306524
 30
0.0
 11
-19.477141
 21
516.44019
 31
0.0
  0
ENDBLK
  5
532
330
530
100
AcDbEntity
  8
0
100
AcDbBlockEnd
  0
BLOCK
  5
538
330
537
100
AcDbEntity
  8
0
100
AcDbBlockBegin
  2
KLON31
 70
     0
 71
     0
 10
0.0
 20
0.0
 30
0.0
  3
KLON31
  1

  4
KLON31
  0
LINE
  5
53A
330
537
100
AcDbEntity
  8
LC-001-100-D00-0
 62
     7
370
    25
100
AcDbLine
 10
-11.890664
 20
456.674726
 30
0.0
 11
-6.117907
 21
462.447484
 31
0.0
  0
LINE
  5
53B
330
537
100
AcDbEntity
  8
LC-001-100-D00-0
 62
     7
370
    25
100
AcDbLine
 10
14.082734
 20
460.197484
 30
0.0
 11
16.332733
 21
462.447484
 31
0.0
  0
LINE
  5
53C
330
537
100
AcDbEntity
  8
LC-001-100-D00-0
 62
     7
370
    25
100
AcDbLine
 10
36.533374
 20
460.197484
 30
0.0
 11
38.783373
 21
462.447484
 31
0.0
  0
LINE
  5
53D
330
537
100
AcDbEntity
  8
LC-001-100-D00-0
 62
     7
370
    25
100
AcDbLine
 10
58.983994
 20
460.197484
 30
0.0
 11
61.233993
 21
462.447484
 31
0.0
  0
ENDBLK
  5
539
330
537
100
AcDbEntity
  8
0
100
AcDbBlockEnd
  0
BLOCK
  5
541
330
540
100
AcDbEntity
  8
0
100
AcDbBlockBegin
  2
KLON32
 70
     0
 71
     0
 10
0.0
 20
0.0
 30
0.0
  3
KLON32
  1

  4
KLON32
  0
LINE
  5
543
330
540
100
AcDbEntity
  8
LC-001-100-D00-0
 62
     7
370
    25
100
AcDbLine
 10
-72.589266
 20
530.679966
 30
0.0
 11
-71.497859
 21
531.771373
 31
0.0
  0
LINE
  5
544
330
540
100
AcDbEntity
  8
LC-001-100-D00-0
 62
     7
370
    25
100
AcDbLine
 10
-70.537895
 20
532.731338
 30
0.0
 11
-67.571749
 21
535.697484
 31
0.0
  0
ENDBLK
  5
542
330
540
100
AcDbEntity
  8
0
100
AcDbBlockEnd
  0
BLOCK
  5
548
330
547
100
AcDbEntity
  8
0
100
AcDbBlockBegin
  2
KLON33
 70
     0
 71
     0
 10
0.0
 20
0.0
 30
0.0
  3
KLON33
  1

  4
KLON33
  0
LINE
  5
54A
330
547
100
AcDbEntity
  8
LC-001-100-D00-0
 62
     7
370
    25
100
AcDbLine
 10
-203.397435
 20
512.124993
 30
0.0
 11
-200.397435
 21
515.124994
 31
0.0
  0
LINE
  5
54B
330
547
100
AcDbEntity
  8
LC-001-100-D00-0
 62
     7
370
    25
100
AcDbLine
 10
-203.397435
 20
534.575635
 30
0.0
 11
-202.275586
 21
535.697484
 31
0.0
  0
ENDBLK
  5
549
330
547
100
AcDbEntity
  8
0
100
AcDbBlockEnd
  0
BLOCK
  5
54E
330
54D
100
AcDbEntity
  8
0
100
AcDbBlockBegin
  2
KLON34
 70
     0
 71
     0
 10
0.0
 20
0.0
 30
0.0
  3
KLON34
  1

  4
KLON34
  0
LINE
  5
550
330
54D
100
AcDbEntity
  8
LC-001-100-D00-0
 62
     7
370
    25
100
AcDbLine
 10
-34.396892
 20
456.619137
 30
0.0
 11
-28.818546
 21
462.197484
 31
0.0
  0
LINE
  5
551
330
54D
100
AcDbEntity
  8
LC-001-100-D00-0
 62
     7
370
    25
100
AcDbLine
 10
-54.269185
 20
459.197484
 30
0.0
 11
-51.269186
 21
462.197484
 31
0.0
  0
LINE
  5
552
330
54D
100
AcDbEntity
  8
LC-001-100-D00-0
 62
     7
370
    25
100
AcDbLine
 10
-83.219824
 20
452.697484
 30
0.0
 11
-80.219825
 21
455.697484
 31
0.0
  0
LINE
  5
553
330
54D
100
AcDbEntity
  8
LC-001-100-D00-0
 62
     7
370
    25
100
AcDbLine
 10
-105.670464
 20
452.697484
 30
0.0
 11
-102.670464
 21
455.697484
 31
0.0
  0
LINE
  5
554
330
54D
100
AcDbEntity
  8
LC-001-100-D00-0
 62
     7
370
    25
100
AcDbLine
 10
-128.121103
 20
452.697484
 30
0.0
 11
-125.121104
 21
455.697484
 31
0.0
  0
LINE
  5
555
330
54D
100
AcDbEntity
  8
LC-001-100-D00-0
 62
     7
370
    25
100
AcDbLine
 10
-150.571743
 20
452.697484
 30
0.0
 11
-147.571743
 21
455.697484
 31
0.0
  0
LINE
  5
556
330
54D
100
AcDbEntity
  8
LC-001-100-D00-0
 62
     7
370
    25
100
AcDbLine
 10
-173.022382
 20
452.697484
 30
0.0
 11
-170.022382
 21
455.697484
 31
0.0
  0
LINE
  5
557
330
54D
100
AcDbEntity
  8
LC-001-100-D00-0
 62
     7
370
    25
100
AcDbLine
 10
-190.199154
 20
457.971352
 30
0.0
 11
-187.397435
 21
460.773071
 31
0.0
  0
LINE
  5
558
330
54D
100
AcDbEntity
  8
LC-001-100-D00-0
 62
     7
370
    25
100
AcDbLine
 10
-202.785821
 20
467.835325
 30
0.0
 11
-200.297563
 21
470.323584
 31
0.0
  0
LINE
  5
559
330
54D
100
AcDbEntity
  8
LC-001-100-D00-0
 62
     7
370
    25
100
AcDbLine
 10
-203.397435
 20
489.674352
 30
0.0
 11
-200.397435
 21
492.674353
 31
0.0
  0
ENDBLK
  5
54F
330
54D
100
AcDbEntity
  8
0
100
AcDbBlockEnd
  0
BLOCK
  5
55C
330
55B
100
AcDbEntity
  8
0
100
AcDbBlockBegin
  2
KLON35
 70
     0
 71
     0
 10
0.0
 20
0.0
 30
0.0
  3
KLON35
  1

  4
KLON35
  0
LINE
  5
55E
330
55B
100
AcDbEntity
  8
LC-001-100-D00-0
 62
     7
370
    25
100
AcDbLine
 10
-27.719828
 20
508.197484
 30
0.0
 11
-21.495401
 21
514.421912
 31
0.0
  0
LINE
  5
55F
330
55B
100
AcDbEntity
  8
LC-001-100-D00-0
 62
     7
370
    25
100
AcDbLine
 10
-50.170468
 20
508.197484
 30
0.0
 11
-47.170468
 21
511.197484
 31
0.0
  0
ENDBLK
  5
55D
330
55B
100
AcDbEntity
  8
0
100
AcDbBlockEnd
  0
BLOCK
  5
577
330
56B
100
AcDbEntity
  8
0
100
AcDbBlockBegin
  2
*D45
 70
     1
 71
     0
 10
0.0
 20
0.0
 30
0.0
  3
*D45
  1

  0
LINE
  5
56C
330
56B
100
AcDbEntity
  8
LC-002-003-----0
 62
     2
370
    -2
100
AcDbLine
 10
-242.627506
 20
562.697484
 30
0.0
 11
-442.208435
 21
562.697484
 31
0.0
  0
LINE
  5
56D
330
56B
100
AcDbEntity
  8
LC-002-003-----0
 62
     2
370
    -2
100
AcDbLine
 10
-183.415315
 20
452.697484
 30
0.0
 11
-442.208435
 21
452.697484
 31
0.0
  0
LINE
  5
56E
330
56B
100
AcDbEntity
  8
LC-002-003-----0
 62
     2
370
    -2
100
AcDbLine
 10
-433.208435
 20
612.697484
 30
0.0
 11
-433.208435
 21
662.697484
 31
0.0
  0
LINE
  5
56F
330
56B
100
AcDbEntity
  8
LC-002-003-----0
 62
     2
370
    -2
100
AcDbLine
 10
-433.208435
 20
402.697484
 30
0.0
 11
-433.208435
 21
352.697484
 31
0.0
  0
LINE
  5
570
330
56B
100
AcDbEntity
  8
LC-002-003-----0
 62
     2
370
    -2
100
AcDbLine
 10
-433.208435
 20
562.697484
 30
0.0
 11
-433.208435
 21
452.697484
 31
0.0
  0
SOLID
  5
571
330
56B
100
AcDbEntity
  8
LC-002-003-----0
 62
     2
100
AcDbTrace
 10
-441.541768
 20
612.697484
 30
0.0
 11
-424.875102
 21
612.697484
 31
0.0
 12
-433.208435
 22
562.697484
 32
0.0
 13
-433.208435
 23
562.697484
 33
0.0
  0
SOLID
  5
572
330
56B
100
AcDbEntity
  8
LC-002-003-----0
 62
     2
100
AcDbTrace
 10
-424.875102
 20
402.697484
 30
0.0
 11
-441.541768
 21
402.697484
 31
0.0
 12
-433.208435
 22
452.697484
 32
0.0
 13
-433.208435
 23
452.697484
 33
0.0
  0
MTEXT
  5
573
330
56B
100
AcDbEntity
  8
LC-002-003-----0
 62
     2
100
AcDbMText
 10
-488.208435
 20
479.244451
 30
0.0
 40
50.0
 41
0.0
 71
     5
 72
     1
  1
\A1;110
  7
LCTX15-400-0-0pDIN-Schrift
 11
6.123031769111886E-17
 21
1.0
 31
0.0
 73
     1
 44
1.0
  0
POINT
  5
574
330
56B
100
AcDbEntity
  8
Defpoints
 62
     0
100
AcDbPoint
 10
-242.627506
 20
562.697484
 30
0.0
  0
POINT
  5
575
330
56B
100
AcDbEntity
  8
Defpoints
 62
     0
100
AcDbPoint
 10
-183.415315
 20
452.697484
 30
0.0
  0
POINT
  5
576
330
56B
100
AcDbEntity
  8
Defpoints
 62
     0
100
AcDbPoint
 10
-433.208435
 20
452.697484
 30
0.0
  0
ENDBLK
  5
578
330
56B
100
AcDbEntity
  8
0
100
AcDbBlockEnd
  0
ENDSEC
  0
SECTION
  2
ENTITIES
  0
ARC
  5
31
330
1F
100
AcDbEntity
  8
LC-001-100-D00-0
 62
     7
370
    50
100
AcDbCircle
 10
-336.147447
 20
68.769451
 30
0.0
 40
5.0
100
AcDbArc
 50
270.0
 51
0.0
  0
LINE
  5
32
330
1F
100
AcDbEntity
  8
LC-001-100-D00-0
 62
     7
370
    50
100
AcDbLine
 10
-331.147447
 20
95.269451
 30
0.0
 11
-331.147447
 21
68.769451
 31
0.0
  0
ARC
  5
33
330
1F
100
AcDbEntity
  8
LC-001-100-D00-0
 62
     7
370
    50
100
AcDbCircle
 10
-336.147447
 20
95.269451
 30
0.0
 40
5.0
100
AcDbArc
 50
0.0
 51
90.0
  0
CIRCLE
  5
34
330
1F
100
AcDbEntity
  8
LC-001-100-D00-0
 62
     7
370
    50
100
AcDbCircle
 10
-349.397447
 20
82.019451
 30
0.0
 40
3.900000000000091
  0
LINE
  5
35
330
1F
100
AcDbEntity
  8
LC-001-100-D00-0
 62
     7
370
    50
100
AcDbLine
 10
-336.147447
 20
63.769451
 30
0.0
 11
-362.647447
 21
63.769451
 31
0.0
  0
LINE
  5
36
330
1F
100
AcDbEntity
  8
LC-001-100-D00-0
 62
     7
370
    50
100
AcDbLine
 10
-362.647447
 20
100.269451
 30
0.0
 11
-336.147447
 21
100.269451
 31
0.0
  0
ARC
  5
37
330
1F
100
AcDbEntity
  8
LC-001-100-D00-0
 62
     7
370
    50
100
AcDbCircle
 10
-362.647447
 20
68.769451
 30
0.0
 40
5.0
100
AcDbArc
 50
180.0
 51
270.0
  0
ARC
  5
38
330
1F
100
AcDbEntity
  8
LC-001-100-D00-0
 62
     7
370
    50
100
AcDbCircle
 10
-362.647447
 20
95.269451
 30
0.0
 40
5.0
100
AcDbArc
 50
90.0
 51
180.0
  0
LINE
  5
39
330
1F
100
AcDbEntity
  8
LC-001-100-D00-0
 62
     7
370
    50
100
AcDbLine
 10
-367.647447
 20
68.769451
 30
0.0
 11
-367.647447
 21
95.269451
 31
0.0
  0
ARC
  5
3A
330
1F
100
AcDbEntity
  8
LC-001-100-D00-0
 62
     7
370
    50
100
AcDbCircle
 10
-216.147447
 20
95.269451
 30
0.0
 40
5.0
100
AcDbArc
 50
0.0
 51
90.0
  0
LINE
  5
3B
330
1F
100
AcDbEntity
  8
LC-001-100-D00-0
 62
     7
370
    50
100
AcDbLine
 10
-211.147447
 20
95.269451
 30
0.0
 11
-211.147447
 21
68.769451
 31
0.0
  0
ARC
  5
3C
330
1F
100
AcDbEntity
  8
LC-001-100-D00-0
 62
     7
370
    50
100
AcDbCircle
 10
-216.147447
 20
68.769451
 30
0.0
 40
5.0
100
AcDbArc
 50
270.0
 51
0.0
  0
CIRCLE
  5
3D
330
1F
100
AcDbEntity
  8
LC-001-100-D00-0
 62
     7
370
    50
100
AcDbCircle
 10
-229.397447
 20
82.019451
 30
0.0
 40
3.900000000000091
  0
LINE
  5
3E
330
1F
100
AcDbEntity
  8
LC-001-100-D00-0
 62
     7
370
    50
100
AcDbLine
 10
-242.647447
 20
100.269451
 30
0.0
 11
-216.147447
 21
100.269451
 31
0.0
  0
LINE
  5
3F
330
1F
100
AcDbEntity
  8
LC-001-100-D00-0
 62
     7
370
    50
100
AcDbLine
 10
-216.147447
 20
63.769451
 30
0.0
 11
-242.647447
 21
63.769451
 31
0.0
  0
ARC
  5
40
330
1F
100
AcDbEntity
  8
LC-001-100-D00-0
 62
     7
370
    50
100
AcDbCircle
 10
-242.647447
 20
95.269451
 30
0.0
 40
5.0
100
AcDbArc
 50
90.0
 51
180.0
  0
ARC
  5
41
330
1F
100
AcDbEntity
  8
LC-001-100-D00-0
 62
     7
370
    50
100
AcDbCircle
 10
-242.647447
 20
68.769451
 30
0.0
 40
5.0
100
AcDbArc
 50
180.0
 51
270.0
  0
LINE
  5
42
330
1F
100
AcDbEntity
  8
LC-001-100-D00-0
 62
     7
370
    50
100
AcDbLine
 10
-247.647447
 20
68.769451
 30
0.0
 11
-247.647447
 21
95.269451
 31
0.0
  0
ARC
  5
43
330
1F
100
AcDbEntity
  8
LC-001-100-D00-0
 62
     7
370
    50
100
AcDbCircle
 10
-16.147447
 20
95.269451
 30
0.0
 40
5.0
100
AcDbArc
 50
0.0
 51
90.0
  0
LINE
  5
44
330
1F
100
AcDbEntity
  8
LC-001-100-D00-0
 62
     7
370
    50
100
AcDbLine
 10
-11.147447
 20
95.269451
 30
0.0
 11
-11.147447
 21
68.769451
 31
0.0
  0
ARC
  5
45
330
1F
100
AcDbEntity
  8
LC-001-100-D00-0
 62
     7
370
    50
100
AcDbCircle
 10
-16.147447
 20
68.769451
 30
0.0
 40
5.0
100
AcDbArc
 50
270.0
 51
0.0
  0
CIRCLE
  5
46
330
1F
100
AcDbEntity
  8
LC-001-100-D00-0
 62
     7
370
    50
100
AcDbCircle
 10
-29.397447
 20
82.019451
 30
0.0
 40
3.900000000000091
  0
LINE
  5
47
330
1F
100
AcDbEntity
  8
LC-001-100-D00-0
 62
     7
370
    50
100
AcDbLine
 10
-42.647447
 20
100.269451
 30
0.0
 11
-16.147447
 21
100.269451
 31
0.0
  0
LINE
  5
48
330
1F
100
AcDbEntity
  8
LC-001-100-D00-0
 62
     7
370
    50
100
AcDbLine
 10
-16.147447
 20
63.769451
 30
0.0
 11
-42.647447
 21
63.769451
 31
0.0
  0
ARC
  5
49
330
1F
100
AcDbEntity
  8
LC-001-100-D00-0
 62
     7
370
    50
100
AcDbCircle
 10
-42.647447
 20
68.769451
 30
0.0
 40
5.000000000000114
100
AcDbArc
 50
180.0
 51
270.0
  0
ARC
  5
4A
330
1F
100
AcDbEntity
  8
LC-001-100-D00-0
 62
     7
370
    50
100
AcDbCircle
 10
-42.647447
 20
95.269451
 30
0.0
 40
5.0
100
AcDbArc
 50
90.0
 51
180.0
  0
LINE
  5
4B
330
1F
100
AcDbEntity
  8
LC-001-100-D00-0
 62
     7
370
    50
100
AcDbLine
 10
-47.647447
 20
68.769451
 30
0.0
 11
-47.647447
 21
95.269451
 31
0.0
  0
ARC
  5
4C
330
1F
100
AcDbEntity
  8
LC-001-100-D00-0
 62
     7
370
    50
100
AcDbCircle
 10
103.852553
 20
95.269451
 30
0.0
 40
5.0
100
AcDbArc
 50
0.0
 51
90.0
  0
ARC
  5
4D
330
1F
100
AcDbEntity
  8
LC-001-100-D00-0
 62
     7
370
    50
100
AcDbCircle
 10
103.852553
 20
68.769451
 30
0.0
 40
5.0
100
AcDbArc
 50
270.0
 51
0.0
  0
LINE
  5
4E
330
1F
100
AcDbEntity
  8
LC-001-100-D00-0
 62
     7
370
    50
100
AcDbLine
 10
108.852553
 20
95.269451
 30
0.0
 11
108.852553
 21
68.769451
 31
0.0
  0
CIRCLE
  5
4F
330
1F
100
AcDbEntity
  8
LC-001-100-D00-0
 62
     7
370
    50
100
AcDbCircle
 10
90.602553
 20
82.019451
 30
0.0
 40
3.900000000000091
  0
LINE
  5
50
330
1F
100
AcDbEntity
  8
LC-001-100-D00-0
 62
     7
370
    50
100
AcDbLine
 10
103.852553
 20
63.769451
 30
0.0
 11
77.352553
 21
63.769451
 31
0.0
  0
LINE
  5
51
330
1F
100
AcDbEntity
  8
LC-001-100-D00-0
 62
     7
370
    50
100
AcDbLine
 10
77.352553
 20
100.269451
 30
0.0
 11
103.852553
 21
100.269451
 31
0.0
  0
ARC
  5
52
330
1F
100
AcDbEntity
  8
LC-001-100-D00-0
 62
     7
370
    50
100
AcDbCircle
 10
77.352553
 20
95.269451
 30
0.0
 40
5.0
100
AcDbArc
 50
90.0
 51
180.0
  0
ARC
  5
53
330
1F
100
AcDbEntity
  8
LC-001-100-D00-0
 62
     7
370
    50
100
AcDbCircle
 10
77.352553
 20
68.769451
 30
0.0
 40
5.000000000000114
100
AcDbArc
 50
180.0
 51
270.0
  0
LINE
  5
54
330
1F
100
AcDbEntity
  8
LC-001-100-D00-0
 62
     7
370
    50
100
AcDbLine
 10
72.352553
 20
68.769451
 30
0.0
 11
72.352553
 21
95.269451
 31
0.0
  0
LINE
  5
55
330
1F
100
AcDbEntity
  8
LC-001-100-D00-0
 62
     7
370
    50
100
AcDbLine
 10
-159.897447
 20
58.019451
 30
0.0
 11
-98.897447
 21
58.019451
 31
0.0
  0
ARC
  5
56
330
1F
100
AcDbEntity
  8
LC-001-100-D00-0
 62
     7
370
    50
100
AcDbCircle
 10
-159.897447
 20
82.019451
 30
0.0
 40
24.0
100
AcDbArc
 50
90.0
 51
270.0
  0
LINE
  5
57
330
1F
100
AcDbEntity
  8
LC-001-100-D00-0
 62
     7
370
    50
100
AcDbLine
 10
-98.897447
 20
106.019451
 30
0.0
 11
-159.897447
 21
106.019451
 31
0.0
  0
ARC
  5
58
330
1F
100
AcDbEntity
  8
LC-001-100-D00-0
 62
     7
370
    50
100
AcDbCircle
 10
-98.897447
 20
82.019451
 30
0.0
 40
24.0
100
AcDbArc
 50
270.0
 51
90.0
  0
ARC
  5
59
330
1F
100
AcDbEntity
  8
LC-001-100-D00-0
 62
     7
370
    50
100
AcDbCircle
 10
-117.897447
 20
82.019451
 30
0.0
 40
16.00000000000023
100
AcDbArc
 50
270.0
 51
90.0
  0
LINE
  5
5A
330
1F
100
AcDbEntity
  8
LC-001-100-D00-0
 62
     7
370
    50
100
AcDbLine
 10
-117.897447
 20
98.019451
 30
0.0
 11
-140.897447
 21
98.019451
 31
0.0
  0
LINE
  5
5B
330
1F
100
AcDbEntity
  8
LC-001-100-D00-0
 62
     7
370
    50
100
AcDbLine
 10
-140.897447
 20
66.019451
 30
0.0
 11
-117.897447
 21
66.019451
 31
0.0
  0
ARC
  5
5C
330
1F
100
AcDbEntity
  8
LC-001-100-D00-0
 62
     7
370
    50
100
AcDbCircle
 10
-140.897447
 20
82.019451
 30
0.0
 40
16.00000000000023
100
AcDbArc
 50
90.0
 51
270.0
  0
ARC
  5
5D
330
1F
100
AcDbEntity
  8
LC-001-100-D00-0
 62
     7
370
    50
100
AcDbCircle
 10
118.102553
 20
105.519451
 30
0.0
 40
2.5
100
AcDbArc
 50
0.0
 51
90.0
  0
ARC
  5
5E
330
1F
100
AcDbEntity
  8
LC-001-100-D00-0
 62
     7
370
    50
100
AcDbCircle
 10
118.102553
 20
58.519451
 30
0.0
 40
2.5
100
AcDbArc
 50
270.0
 51
0.0
  0
LINE
  5
5F
330
1F
100
AcDbEntity
  8
LC-001-100-D00-0
 62
     7
370
    50
100
AcDbLine
 10
120.602553
 20
58.519451
 30
0.0
 11
120.602553
 21
105.519451
 31
0.0
  0
LINE
  5
60
330
1F
100
AcDbEntity
  8
LC-001-100-D00-0
 62
     7
370
    50
100
AcDbLine
 10
118.102553
 20
56.019451
 30
0.0
 11
-376.897447
 21
56.019451
 31
0.0
  0
LINE
  5
61
330
1F
100
AcDbEntity
  8
LC-001-100-D00-0
 62
     7
370
    50
100
AcDbLine
 10
-376.897447
 20
108.019451
 30
0.0
 11
118.102553
 21
108.019451
 31
0.0
  0
ARC
  5
62
330
1F
100
AcDbEntity
  8
LC-001-100-D00-0
 62
     7
370
    50
100
AcDbCircle
 10
-376.897447
 20
105.519451
 30
0.0
 40
2.5
100
AcDbArc
 50
90.0
 51
180.0
  0
ARC
  5
63
330
1F
100
AcDbEntity
  8
LC-001-100-D00-0
 62
     7
370
    50
100
AcDbCircle
 10
-376.897447
 20
58.519451
 30
0.0
 40
2.5
100
AcDbArc
 50
180.0
 51
270.0
  0
LINE
  5
64
330
1F
100
AcDbEntity
  8
LC-001-100-D00-0
 62
     7
370
    50
100
AcDbLine
 10
-379.397447
 20
58.519451
 30
0.0
 11
-379.397447
 21
105.519451
 31
0.0
  0
ARC
  5
65
330
1F
100
AcDbEntity
  8
LC-001-100-D00-0
 62
     7
370
    50
100
AcDbCircle
 10
-424.397447
 20
154.519451
 30
0.0
 40
5.0
100
AcDbArc
 50
90.0
 51
180.0
  0
LINE
  5
66
330
1F
100
AcDbEntity
  8
LC-001-100-D00-0
 62
     7
370
    50
100
AcDbLine
 10
165.602553
 20
159.519451
 30
0.0
 11
-424.397447
 21
159.519451
 31
0.0
  0
LINE
  5
67
330
1F
100
AcDbEntity
  8
LC-001-100-D00-0
 62
     7
370
    50
100
AcDbLine
 10
-424.397447
 20
4.519451
 30
0.0
 11
165.602553
 21
4.519451
 31
0.0
  0
ARC
  5
68
330
1F
100
AcDbEntity
  8
LC-001-100-D00-0
 62
     7
370
    50
100
AcDbCircle
 10
-424.397447
 20
9.519451
 30
0.0
 40
5.0
100
AcDbArc
 50
180.0
 51
270.0
  0
LINE
  5
69
330
1F
100
AcDbEntity
  8
LC-001-100-D00-0
 62
     7
370
    50
100
AcDbLine
 10
-429.397447
 20
154.519451
 30
0.0
 11
-429.397447
 21
9.519451
 31
0.0
  0
ARC
  5
6A
330
1F
100
AcDbEntity
  8
LC-001-100-D00-0
 62
     7
370
    50
100
AcDbCircle
 10
165.602553
 20
9.519451
 30
0.0
 40
5.0
100
AcDbArc
 50
270.0
 51
0.0
  0
ARC
  5
6B
330
1F
100
AcDbEntity
  8
LC-001-100-D00-0
 62
     7
370
    50
100
AcDbCircle
 10
165.602553
 20
154.519451
 30
0.0
 40
5.0
100
AcDbArc
 50
0.0
 51
90.0
  0
LINE
  5
6C
330
1F
100
AcDbEntity
  8
LC-001-100-D00-0
 62
     7
370
    50
100
AcDbLine
 10
170.602553
 20
154.519451
 30
0.0
 11
170.602553
 21
9.519451
 31
0.0
  0
CIRCLE
  5
6D
330
1F
100
AcDbEntity
  8
LC-001-100-D00-0
 62
     7
370
    50
100
AcDbCircle
 10
90.602553
 20
82.019451
 30
0.0
 40
3.000000000000227
  0
CIRCLE
  5
6E
330
1F
100
AcDbEntity
  8
LC-001-100-D00-0
 62
     7
370
    50
100
AcDbCircle
 10
-29.397447
 20
82.019451
 30
0.0
 40
3.0
  0
CIRCLE
  5
6F
330
1F
100
AcDbEntity
  8
LC-001-100-D00-0
 62
     7
370
    50
100
AcDbCircle
 10
-229.397447
 20
82.019451
 30
0.0
 40
3.000000000000227
  0
CIRCLE
  5
70
330
1F
100
AcDbEntity
  8
LC-001-100-D00-0
 62
     7
370
    50
100
AcDbCircle
 10
-349.397447
 20
82.019451
 30
0.0
 40
3.000000000000227
  0
INSERT
  5
76
330
1F
100
AcDbEntity
  8
LC-001-100-D00-0
 62
     7
370
    50
100
AcDbBlockReference
  2
KLON1
 10
0.0
 20
0.0
 30
0.0
  0
LINE
  5
77
330
1F
100
AcDbEntity
  8
LC-001-100-D00-0
 62
     7
370
    50
100
AcDbLine
 10
112.576371
 20
69.696782
 30
0.0
 11
112.576371
 21
58.519452
 31
0.0
  0
INSERT
  5
7E
330
1F
100
AcDbEntity
  8
LC-001-100-D00-0
 62
     7
370
    50
100
AcDbBlockReference
  2
KLON2
 10
0.0
 20
0.0
 30
0.0
  0
INSERT
  5
86
330
1F
100
AcDbEntity
  8
LC-001-100-D00-0
 62
     7
370
    50
100
AcDbBlockReference
  2
KLON3
 10
0.0
 20
0.0
 30
0.0
  0
LINE
  5
87
330
1F
100
AcDbEntity
  8
LC-001-100-D00-0
 62
     7
370
    50
100
AcDbLine
 10
112.576371
 20
105.504812
 30
0.0
 11
112.576371
 21
94.34212
 31
0.0
  0
INSERT
  5
8D
330
1F
100
AcDbEntity
  8
LC-001-100-D00-0
 62
     7
370
    50
100
AcDbBlockReference
  2
KLON4
 10
0.0
 20
0.0
 30
0.0
  0
INSERT
  5
93
330
1F
100
AcDbEntity
  8
LC-001-100-D00-0
 62
     7
370
    50
100
AcDbBlockReference
  2
KLON5
 10
0.0
 20
0.0
 30
0.0
  0
INSERT
  5
99
330
1F
100
AcDbEntity
  8
LC-001-100-D00-0
 62
     7
370
    50
100
AcDbBlockReference
  2
KLON6
 10
0.0
 20
0.0
 30
0.0
  0
LINE
  5
9A
330
1F
100
AcDbEntity
  8
LC-001-100-D00-0
 62
     7
370
    50
100
AcDbLine
 10
-371.371264
 20
105.504812
 30
0.0
 11
-371.371264
 21
94.34212
 31
0.0
  0
INSERT
  5
A2
330
1F
100
AcDbEntity
  8
LC-001-100-D00-0
 62
     7
370
    50
100
AcDbBlockReference
  2
KLON7
 10
0.0
 20
0.0
 30
0.0
  0
INSERT
  5
A9
330
1F
100
AcDbEntity
  8
LC-001-100-D00-0
 62
     7
370
    50
100
AcDbBlockReference
  2
KLON8
 10
0.0
 20
0.0
 30
0.0
  0
LINE
  5
AA
330
1F
100
AcDbEntity
  8
LC-001-100-D00-0
 62
     7
370
    50
100
AcDbLine
 10
-371.371264
 20
69.696782
 30
0.0
 11
-371.371264
 21
58.519452
 31
0.0
  0
ELLIPSE
  5
AB
330
1F
100
AcDbEntity
  8
LC-001-100-D00-0
 62
     7
370
    50
100
AcDbEllipse
 10
112.529585
 20
58.519451
 30
0.0
 11
0.0
 21
-2.499999817848199
 31
0.0
210
0.0
220
0.0
230
1.0
 40
0.018242
 41
3.141592653594467
 42
4.712388980377459
  0
ELLIPSE
  5
AC
330
1F
100
AcDbEntity
  8
LC-001-100-D00-0
 62
     7
370
    50
100
AcDbEllipse
 10
181.07519
 20
58.519451
 30
0.0
 11
68.49999999425516
 21
0.0
 31
0.0
210
0.0
220
0.0
230
1.0
 40
0.036496
 41
3.141592653597873
 42
3.169858841661057
  0
ELLIPSE
  5
AD
330
1F
100
AcDbEntity
  8
LC-001-100-D00-0
 62
     7
370
    50
100
AcDbEllipse
 10
-24.470415
 20
58.519451
 30
0.0
 11
0.0
 21
-2.499999878048894
 31
0.0
210
0.0
220
0.0
230
0.9999999999999999
 40
0.018242
 41
3.141592653589793
 42
4.712388980380952
  0
ELLIPSE
  5
AE
330
1F
100
AcDbEntity
  8
LC-001-100-D00-0
 62
     7
370
    50
100
AcDbEllipse
 10
-371.324478
 20
58.519451
 30
0.0
 11
0.0
 21
-2.500000106811521
 31
0.0
210
0.0
220
0.0
230
1.0
 40
0.018242
 41
1.570796326802127
 42
3.141592653596026
  0
ELLIPSE
  5
AF
330
1F
100
AcDbEntity
  8
LC-001-100-D00-0
 62
     7
370
    50
100
AcDbEllipse
 10
-234.324478
 20
58.519451
 30
0.0
 11
0.0
 21
-2.500000003814697
 31
0.0
210
0.0
220
0.0
230
1.0
 40
0.018242
 41
1.570796326798813
 42
3.141592653589793
  0
ELLIPSE
  5
B0
330
1F
100
AcDbEntity
  8
LC-001-100-D00-0
 62
     7
370
    50
100
AcDbEllipse
 10
-439.870084
 20
58.519451
 30
0.0
 11
68.4999999946603
 21
0.0
 31
0.0
210
0.0
220
0.0
230
1.0
 40
0.036496
 41
6.254919119109251
 42
6.283185307179444
  0
ELLIPSE
  5
B1
330
1F
100
AcDbEntity
  8
LC-001-100-D00-0
 62
     7
370
    50
100
AcDbEllipse
 10
181.07519
 20
105.519451
 30
0.0
 11
68.49999999419455
 21
0.0
 31
0.0
210
0.0
220
0.0
230
1.0
 40
0.036496
 41
3.141592653590077
 42
3.147448628039732
  0
ELLIPSE
  5
B2
330
1F
100
AcDbEntity
  8
LC-001-100-D00-0
 62
     7
370
    50
100
AcDbEllipse
 10
112.529585
 20
105.519451
 30
0.0
 11
0.0
 21
-2.500000000953675
 31
0.0
210
0.0
220
0.0
230
1.0
 40
0.018242
 41
4.712388980384576
 42
6.283185356488684
  0
ELLIPSE
  5
B3
330
1F
100
AcDbEntity
  8
LC-001-100-D00-0
 62
     7
370
    50
100
AcDbEllipse
 10
-439.870084
 20
105.519451
 30
0.0
 11
68.49999999464116
 21
0.0
 31
0.0
210
0.0
220
0.0
230
1.0
 40
0.036496
 41
6.277329332730617
 42
6.283185307179461
  0
ELLIPSE
  5
B4
330
1F
100
AcDbEntity
  8
LC-001-100-D00-0
 62
     7
370
    50
100
AcDbEllipse
 10
-371.324478
 20
105.519451
 30
0.0
 11
0.0
 21
-2.500000244140613
 31
0.0
210
0.0
220
0.0
230
1.0
 40
0.018242
 41
6.283185257854913
 42
7.85398163397433
  0
ELLIPSE
  5
B5
330
1F
100
AcDbEntity
  8
LC-001-100-D00-0
 62
     7
370
    50
100
AcDbEllipse
 10
-24.470415
 20
105.519451
 30
0.0
 11
0.0
 21
-2.499999938905238
 31
0.0
210
0.0
220
0.0
230
1.0
 40
0.018242
 41
4.712388980388237
 42
6.283185316163722
  0
ELLIPSE
  5
B6
330
1F
100
AcDbEntity
  8
LC-001-100-D00-0
 62
     7
370
    50
100
AcDbEllipse
 10
-234.324478
 20
105.519451
 30
0.0
 11
0.0
 21
-2.500000003814697
 31
0.0
210
0.0
220
0.0
230
1.0
 40
0.018242
 41
6.283185298194127
 42
7.853981633970925
  0
LINE
  5
B7
330
1F
100
AcDbEntity
  8
LC-001-100-D00-0
 62
     7
370
    50
100
AcDbLine
 10
-24.424809
 20
58.519452
 30
0.0
 11
-24.424809
 21
61.369968
 31
0.0
  0
INSERT
  5
BD
330
1F
100
AcDbEntity
  8
LC-001-100-D00-0
 62
     7
370
    50
100
AcDbBlockReference
  2
KLON9
 10
0.0
 20
0.0
 30
0.0
  0
INSERT
  5
C3
330
1F
100
AcDbEntity
  8
LC-001-100-D00-0
 62
     7
370
    50
100
AcDbBlockReference
  2
KLON10
 10
0.0
 20
0.0
 30
0.0
  0
LINE
  5
C4
330
1F
100
AcDbEntity
  8
LC-001-100-D00-0
 62
     7
370
    50
100
AcDbLine
 10
-234.370085
 20
58.519452
 30
0.0
 11
-234.370085
 21
61.369968
 31
0.0
  0
INSERT
  5
CA
330
1F
100
AcDbEntity
  8
LC-001-100-D00-0
 62
     7
370
    50
100
AcDbBlockReference
  2
KLON11
 10
0.0
 20
0.0
 30
0.0
  0
INSERT
  5
D0
330
1F
100
AcDbEntity
  8
LC-001-100-D00-0
 62
     7
370
    50
100
AcDbBlockReference
  2
KLON12
 10
0.0
 20
0.0
 30
0.0
  0
LINE
  5
D1
330
1F
100
AcDbEntity
  8
LC-001-100-D00-0
 62
     7
370
    50
100
AcDbLine
 10
-24.424809
 20
102.668935
 30
0.0
 11
-24.424809
 21
105.51945
 31
0.0
  0
LINE
  5
D2
330
1F
100
AcDbEntity
  8
LC-001-100-D00-0
 62
     7
370
    50
100
AcDbLine
 10
-234.370085
 20
102.668935
 30
0.0
 11
-234.370085
 21
105.51945
 31
0.0
  0
LINE
  5
D3
330
1F
100
AcDbEntity
  8
LC-001-100-D00-0
 62
     7
370
    50
100
AcDbLine
 10
-24.410541
 20
62.163773
 30
0.0
 11
-24.410541
 21
63.769451
 31
0.0
  0
ELLIPSE
  5
D4
330
1F
100
AcDbEntity
  8
LC-001-100-D00-0
 62
     7
370
    50
100
AcDbEllipse
 10
-167.657258
 20
53.598643
 30
0.0
 11
143.2466512258908
 21
8.567474722549081
 31
0.0
210
0.0
220
0.0
230
1.0
 40
0.016531
 41
6.280994665931795
 42
6.282196627509013
  0
ELLIPSE
  5
D5
330
1F
100
AcDbEntity
  8
LC-001-100-D00-0
 62
     7
370
    50
100
AcDbEllipse
 10
-167.657258
 20
110.440259
 30
0.0
 11
143.24665052955
 21
-8.567474680901752
 31
0.0
210
0.0
220
0.0
230
1.0
 40
0.016531
 41
0.0009886796551211
 42
0.0021906412323107
  0
LINE
  5
D6
330
1F
100
AcDbEntity
  8
LC-001-100-D00-0
 62
     7
370
    50
100
AcDbLine
 10
-24.410541
 20
100.269451
 30
0.0
 11
-24.410541
 21
101.875129
 31
0.0
  0
ELLIPSE
  5
D7
330
1F
100
AcDbEntity
  8
LC-001-100-D00-0
 62
     7
370
    50
100
AcDbEllipse
 10
-91.137635
 20
53.598643
 30
0.0
 11
143.2466510978783
 21
-8.567474714892462
 31
0.0
210
0.0
220
0.0
230
1.0
 40
0.016531
 41
3.142581333260578
 42
3.143783294837874
  0
LINE
  5
D8
330
1F
100
AcDbEntity
  8
LC-001-100-D00-0
 62
     7
370
    50
100
AcDbLine
 10
-234.384353
 20
62.163773
 30
0.0
 11
-234.384353
 21
63.769451
 31
0.0
  0
ELLIPSE
  5
D9
330
1F
100
AcDbEntity
  8
LC-001-100-D00-0
 62
     7
370
    50
100
AcDbEllipse
 10
-91.137635
 20
110.440259
 30
0.0
 11
143.2466510850108
 21
8.567474714123152
 31
0.0
210
0.0
220
0.0
230
1.0
 40
0.016531
 41
3.13940201234945
 42
3.140603973926766
  0
LINE
  5
DA
330
1F
100
AcDbEntity
  8
LC-001-100-D00-0
 62
     7
370
    50
100
AcDbLine
 10
-234.384353
 20
100.269451
 30
0.0
 11
-234.384353
 21
101.875129
 31
0.0
  0
LINE
  5
DB
330
1F
100
AcDbEntity
  8
LC-001-100-D00-0
 62
     7
370
    50
100
AcDbLine
 10
-24.424809
 20
61.37034
 30
0.0
 11
-24.410638
 21
62.16091
 31
0.0
  0
LINE
  5
DC
330
1F
100
AcDbEntity
  8
LC-001-100-D00-0
 62
     7
370
    50
100
AcDbLine
 10
-24.424809
 20
102.668562
 30
0.0
 11
-24.410638
 21
101.877992
 31
0.0
  0
LINE
  5
DD
330
1F
100
AcDbEntity
  8
LC-001-100-D00-0
 62
     7
370
    50
100
AcDbLine
 10
-234.370085
 20
61.37034
 30
0.0
 11
-234.384256
 21
62.16091
 31
0.0
  0
LINE
  5
DE
330
1F
100
AcDbEntity
  8
LC-001-100-D00-0
 62
     7
370
    50
100
AcDbLine
 10
-234.370085
 20
102.668562
 30
0.0
 11
-234.384256
 21
101.877992
 31
0.0
  0
ARC
  5
DF
330
1F
100
AcDbEntity
  8
LC-001-100-D00-0
 62
     7
370
    50
100
AcDbCircle
 10
-98.897455
 20
82.019471
 30
0.0
 40
24.80002105913127
100
AcDbArc
 50
270.0
 51
300.592807
  0
ARC
  5
E0
330
1F
100
AcDbEntity
  8
LC-001-100-D00-0
 62
     7
370
    50
100
AcDbCircle
 10
-159.897439
 20
82.019471
 30
0.0
 40
24.80002105913133
100
AcDbArc
 50
239.407193
 51
270.0
  0
ARC
  5
E1
330
1F
100
AcDbEntity
  8
LC-001-100-D00-0
 62
     7
370
    50
100
AcDbCircle
 10
-98.897453
 20
82.019438
 30
0.0
 40
24.80001358063432
100
AcDbArc
 50
59.407188
 51
90.0
  0
ARC
  5
E2
330
1F
100
AcDbEntity
  8
LC-001-100-D00-0
 62
     7
370
    50
100
AcDbCircle
 10
-159.897441
 20
82.019438
 30
0.0
 40
24.80001358063464
100
AcDbArc
 50
90.0
 51
120.592812
  0
LINE
  5
E3
330
1F
100
AcDbEntity
  8
LC-001-100-D00-0
 62
     7
370
    50
100
AcDbLine
 10
-159.897447
 20
106.819452
 30
0.0
 11
-98.897446
 21
106.819452
 31
0.0
  0
LINE
  5
E4
330
1F
100
AcDbEntity
  8
LC-001-100-D00-0
 62
     7
370
    50
100
AcDbLine
 10
-98.897446
 20
57.21945
 30
0.0
 11
-159.897447
 21
57.21945
 31
0.0
  0
ARC
  5
E5
330
1F
100
AcDbEntity
  8
LC-001-100-D00-0
 62
     7
370
    50
100
AcDbCircle
 10
-98.897447
 20
82.019451
 30
0.0
 40
24.79999999999434
100
AcDbArc
 50
300.592814
 51
59.407186
  0
ARC
  5
E6
330
1F
100
AcDbEntity
  8
LC-001-100-D00-0
 62
     7
370
    50
100
AcDbCircle
 10
-159.897447
 20
82.019451
 30
0.0
 40
24.79999999999414
100
AcDbArc
 50
120.592814
 51
239.407186
  0
DIMENSION
  5
E9
330
1F
100
AcDbEntity
  8
LC-001-100-D00-0
 62
     7
370
    25
100
AcDbDimension
  2
*D13
 10
262.770948
 20
4.519451
 30
0.0
 11
207.770948
 21
75.799451
 31
0.0
 70
   160
  1
155
 71
     5
 42
155.0
 53
90.0
  3
LC-DIM-L-0100-02-02
100
AcDbAlignedDimension
 13
165.602553
 23
159.519451
 33
0.0
 14
165.602553
 24
4.519451
 34
0.0
 50
90.0
100
AcDbRotatedDimension
  0
LINE
  5
F8
330
1F
100
AcDbEntity
  8
LC-001-100-D00-0
  6
DASHDOT
 62
     7
370
    25
100
AcDbLine
 10
-434.397447
 20
82.019451
 30
0.0
 11
175.602553
 21
82.019451
 31
0.0
  0
LINE
  5
F9
330
1F
100
AcDbEntity
  8
LC-001-100-D00-0
  6
DASHDOT
 62
     7
370
    25
100
AcDbLine
 10
-129.397447
 20
164.519451
 30
0.0
 11
-129.397447
 21
-0.480549
 31
0.0
  0
LINE
  5
FA
330
1F
100
AcDbEntity
  8
LC-001-100-D00-0
 62
     7
370
    50
100
AcDbLine
 10
-74.147435
 20
530.557498
 30
0.0
 11
-72.347435
 21
530.557498
 31
0.0
  0
LINE
  5
FB
330
1F
100
AcDbEntity
  8
LC-001-100-D00-0
 62
     7
370
    50
100
AcDbLine
 10
-186.447435
 20
530.557498
 30
0.0
 11
-184.647435
 21
530.557498
 31
0.0
  0
LINE
  5
FC
330
1F
100
AcDbEntity
  8
LC-001-100-D00-0
 62
     7
370
    50
100
AcDbLine
 10
-16.149639
 20
458.197484
 30
0.0
 11
-16.149639
 21
459.980405
 31
0.0
  0
LINE
  5
FD
330
1F
100
AcDbEntity
  8
LC-001-100-D00-0
 62
     7
370
    50
100
AcDbLine
 10
-16.149639
 20
510.414563
 30
0.0
 11
-16.149639
 21
512.197484
 31
0.0
  0
LINE
  5
FE
330
1F
100
AcDbEntity
  8
LC-001-100-D00-0
 62
     7
370
    50
100
AcDbLine
 10
-20.149639
 20
512.197484
 30
0.0
 11
-20.149639
 21
510.414563
 31
0.0
  0
LINE
  5
FF
330
1F
100
AcDbEntity
  8
LC-001-100-D00-0
 62
     7
370
    50
100
AcDbLine
 10
-20.149639
 20
459.980405
 30
0.0
 11
-20.149639
 21
458.197484
 31
0.0
  0
LINE
  5
100
330
1F
100
AcDbEntity
  8
LC-001-100-D00-0
 62
     7
370
    50
100
AcDbLine
 10
-89.68302
 20
528.697484
 30
0.0
 11
-89.68302
 21
527.197484
 31
0.0
  0
LINE
  5
101
330
1F
100
AcDbEntity
  8
LC-001-100-D00-0
 62
     7
370
    50
100
AcDbLine
 10
-169.11185
 20
527.197484
 30
0.0
 11
-169.11185
 21
528.697484
 31
0.0
  0
ARC
  5
102
330
1F
100
AcDbEntity
  8
LC-001-100-D00-0
 62
     7
370
    50
100
AcDbCircle
 10
-338.397435
 20
435.697484
 30
0.0
 40
0.5000000000002274
100
AcDbArc
 50
90.0
 51
180.0
  0
ARC
  5
103
330
1F
100
AcDbEntity
  8
LC-001-100-D00-0
 62
     7
370
    50
100
AcDbCircle
 10
-320.397435
 20
435.697484
 30
0.0
 40
0.5000000000003411
100
AcDbArc
 50
0.0
 51
90.0
  0
LINE
  5
104
330
1F
100
AcDbEntity
  8
LC-001-100-D00-0
 62
     7
370
    50
100
AcDbLine
 10
-338.897435
 20
435.697484
 30
0.0
 11
-338.897435
 21
428.197484
 31
0.0
  0
LINE
  5
105
330
1F
100
AcDbEntity
  8
LC-001-100-D00-0
 62
     7
370
    50
100
AcDbLine
 10
-319.897435
 20
428.197484
 30
0.0
 11
-319.897435
 21
435.697484
 31
0.0
  0
ARC
  5
106
330
1F
100
AcDbEntity
  8
LC-001-100-D00-0
 62
     7
370
    50
100
AcDbCircle
 10
61.602565
 20
435.697484
 30
0.0
 40
0.5000000000002274
100
AcDbArc
 50
90.0
 51
180.0
  0
ARC
  5
107
330
1F
100
AcDbEntity
  8
LC-001-100-D00-0
 62
     7
370
    50
100
AcDbCircle
 10
79.602565
 20
435.697484
 30
0.0
 40
0.5000000000003411
100
AcDbArc
 50
0.0
 51
90.0
  0
LINE
  5
108
330
1F
100
AcDbEntity
  8
LC-001-100-D00-0
 62
     7
370
    50
100
AcDbLine
 10
61.102565
 20
435.697484
 30
0.0
 11
61.102565
 21
428.197484
 31
0.0
  0
LINE
  5
109
330
1F
100
AcDbEntity
  8
LC-001-100-D00-0
 62
     7
370
    50
100
AcDbLine
 10
80.102565
 20
428.197484
 30
0.0
 11
80.102565
 21
435.697484
 31
0.0
  0
LINE
  5
10A
330
1F
100
AcDbEntity
  8
LC-001-100-D00-0
 62
     7
370
    50
100
AcDbLine
 10
57.829069
 20
530.197485
 30
0.0
 11
57.829069
 21
510.197485
 31
0.0
  0
LINE
  5
10B
330
1F
100
AcDbEntity
  8
LC-001-100-D00-0
 62
     7
370
    50
100
AcDbLine
 10
83.376068
 20
505.197484
 30
0.0
 11
83.376067
 21
530.197485
 31
0.0
  0
LINE
  5
10C
330
1F
100
AcDbEntity
  8
LC-001-100-D00-0
 62
     7
370
    50
100
AcDbLine
 10
-342.170937
 20
530.197485
 30
0.0
 11
-342.170938
 21
505.197484
 31
0.0
  0
LINE
  5
10D
330
1F
100
AcDbEntity
  8
LC-001-100-D00-0
 62
     7
370
    50
100
AcDbLine
 10
-316.623932
 20
505.197484
 30
0.0
 11
-316.623939
 21
530.197485
 31
0.0
  0
LINE
  5
10E
330
1F
100
AcDbEntity
  8
LC-001-100-D00-0
 62
     7
370
    50
100
AcDbLine
 10
57.829069
 20
538.69845
 30
0.0
 11
57.829062
 21
534.197484
 31
0.0
  0
LINE
  5
10F
330
1F
100
AcDbEntity
  8
LC-001-100-D00-0
 62
     7
370
    50
100
AcDbLine
 10
83.376068
 20
534.197484
 30
0.0
 11
83.376067
 21
539.630823
 31
0.0
  0
LINE
  5
110
330
1F
100
AcDbEntity
  8
LC-001-100-D00-0
 62
     7
370
    50
100
AcDbLine
 10
-342.170937
 20
539.630823
 30
0.0
 11
-342.170938
 21
534.197484
 31
0.0
  0
LINE
  5
111
330
1F
100
AcDbEntity
  8
LC-001-100-D00-0
 62
     7
370
    50
100
AcDbLine
 10
-316.623932
 20
534.197484
 30
0.0
 11
-316.623939
 21
538.69845
 31
0.0
  0
LINE
  5
112
330
1F
100
AcDbEntity
  8
LC-001-100-D00-0
 62
     7
370
    50
100
AcDbLine
 10
60.602565
 20
447.697484
 30
0.0
 11
60.602565
 21
437.197484
 31
0.0
  0
LINE
  5
113
330
1F
100
AcDbEntity
  8
LC-001-100-D00-0
 62
     7
370
    50
100
AcDbLine
 10
80.602565
 20
437.197484
 30
0.0
 11
80.602565
 21
447.697484
 31
0.0
  0
LINE
  5
114
330
1F
100
AcDbEntity
  8
LC-001-100-D00-0
 62
     7
370
    50
100
AcDbLine
 10
60.602563
 20
534.197484
 30
0.0
 11
60.602563
 21
534.097484
 31
0.0
  0
LINE
  5
115
330
1F
100
AcDbEntity
  8
LC-001-100-D00-0
 62
     7
370
    50
100
AcDbLine
 10
60.602563
 20
460.197485
 30
0.0
 11
60.602565
 21
451.197484
 31
0.0
  0
LINE
  5
116
330
1F
100
AcDbEntity
  8
LC-001-100-D00-0
 62
     7
370
    50
100
AcDbLine
 10
80.602565
 20
451.197484
 30
0.0
 11
80.602559
 21
505.197483
 31
0.0
  0
LINE
  5
117
330
1F
100
AcDbEntity
  8
LC-001-100-D00-0
 62
     7
370
    50
100
AcDbLine
 10
80.602559
 20
534.097484
 30
0.0
 11
80.602559
 21
534.197484
 31
0.0
  0
LINE
  5
118
330
1F
100
AcDbEntity
  8
LC-001-100-D00-0
 62
     7
370
    50
100
AcDbLine
 10
60.602565
 20
437.197484
 30
0.0
 11
61.602565
 21
436.197484
 31
0.0
  0
LINE
  5
119
330
1F
100
AcDbEntity
  8
LC-001-100-D00-0
 62
     7
370
    50
100
AcDbLine
 10
79.602565
 20
436.197484
 30
0.0
 11
80.602565
 21
437.197484
 31
0.0
  0
LINE
  5
11A
330
1F
100
AcDbEntity
  8
LC-001-100-D00-0
 62
     7
370
    50
100
AcDbLine
 10
62.702568
 20
451.197481
 30
0.0
 11
62.702568
 21
447.697482
 31
0.0
  0
LINE
  5
11B
330
1F
100
AcDbEntity
  8
LC-001-100-D00-0
 62
     7
370
    50
100
AcDbLine
 10
78.502568
 20
447.697482
 30
0.0
 11
78.502568
 21
451.197481
 31
0.0
  0
LINE
  5
11C
330
1F
100
AcDbEntity
  8
LC-001-100-D00-0
 62
     7
370
    50
100
AcDbLine
 10
-339.397435
 20
447.697484
 30
0.0
 11
-339.397435
 21
437.197484
 31
0.0
  0
LINE
  5
11D
330
1F
100
AcDbEntity
  8
LC-001-100-D00-0
 62
     7
370
    50
100
AcDbLine
 10
-319.397435
 20
437.197484
 30
0.0
 11
-319.397435
 21
447.697484
 31
0.0
  0
LINE
  5
11E
330
1F
100
AcDbEntity
  8
LC-001-100-D00-0
 62
     7
370
    50
100
AcDbLine
 10
-339.397428
 20
505.197483
 30
0.0
 11
-339.397435
 21
451.197484
 31
0.0
  0
LINE
  5
11F
330
1F
100
AcDbEntity
  8
LC-001-100-D00-0
 62
     7
370
    50
100
AcDbLine
 10
-319.397435
 20
451.197484
 30
0.0
 11
-319.397433
 21
505.197483
 31
0.0
  0
LINE
  5
120
330
1F
100
AcDbEntity
  8
LC-001-100-D00-0
 62
     7
370
    50
100
AcDbLine
 10
-339.397435
 20
437.197484
 30
0.0
 11
-338.397435
 21
436.197484
 31
0.0
  0
LINE
  5
121
330
1F
100
AcDbEntity
  8
LC-001-100-D00-0
 62
     7
370
    50
100
AcDbLine
 10
-320.397435
 20
436.197484
 30
0.0
 11
-319.397435
 21
437.197484
 31
0.0
  0
LINE
  5
122
330
1F
100
AcDbEntity
  8
LC-001-100-D00-0
 62
     7
370
    50
100
AcDbLine
 10
-337.297438
 20
451.197481
 30
0.0
 11
-337.297438
 21
447.697482
 31
0.0
  0
LINE
  5
123
330
1F
100
AcDbEntity
  8
LC-001-100-D00-0
 62
     7
370
    50
100
AcDbLine
 10
-321.497438
 20
447.697482
 30
0.0
 11
-321.497438
 21
451.197481
 31
0.0
  0
LINE
  5
124
330
1F
100
AcDbEntity
  8
LC-001-100-D00-0
 62
     7
370
    50
100
AcDbLine
 10
-344.197435
 20
546.46625
 30
0.0
 11
-344.197435
 21
548.928717
 31
0.0
  0
ARC
  5
125
330
1F
100
AcDbEntity
  8
LC-001-100-D00-0
 62
     7
370
    50
100
AcDbCircle
 10
-343.597435
 20
546.46625
 30
0.0
 40
0.6000000000001364
100
AcDbArc
 50
180.0
 51
255.0
  0
LINE
  5
126
330
1F
100
AcDbEntity
  8
LC-001-100-D00-0
 62
     7
370
    50
100
AcDbLine
 10
-343.046589
 20
545.697483
 30
0.0
 11
-343.752726
 21
545.886695
 31
0.0
  0
LINE
  5
127
330
1F
100
AcDbEntity
  8
LC-001-100-D00-0
 62
     7
370
    50
100
AcDbLine
 10
-343.046589
 20
545.697483
 30
0.0
 11
-343.046589
 21
543.697484
 31
0.0
  0
LINE
  5
128
330
1F
100
AcDbEntity
  8
LC-001-100-D00-0
 62
     7
370
    50
100
AcDbLine
 10
-345.997435
 20
544.697484
 30
0.0
 11
-344.997435
 21
543.697484
 31
0.0
  0
LINE
  5
129
330
1F
100
AcDbEntity
  8
LC-001-100-D00-0
 62
     7
370
    50
100
AcDbLine
 10
-345.997435
 20
544.697484
 30
0.0
 11
-345.997436
 21
550.697484
 31
0.0
  0
LINE
  5
12A
330
1F
100
AcDbEntity
  8
LC-001-100-D00-0
 62
     7
370
    50
100
AcDbLine
 10
-344.997434
 20
551.697484
 30
0.0
 11
-345.997436
 21
550.697484
 31
0.0
  0
LINE
  5
12B
330
1F
100
AcDbEntity
  8
LC-001-100-D00-0
 62
     7
370
    50
100
AcDbLine
 10
-343.046589
 20
551.697484
 30
0.0
 11
-343.046589
 21
549.697484
 31
0.0
  0
LINE
  5
12C
330
1F
100
AcDbEntity
  8
LC-001-100-D00-0
 62
     7
370
    50
100
AcDbLine
 10
-343.752726
 20
549.508273
 30
0.0
 11
-343.046589
 21
549.697484
 31
0.0
  0
ARC
  5
12D
330
1F
100
AcDbEntity
  8
LC-001-100-D00-0
 62
     7
370
    50
100
AcDbCircle
 10
-343.597435
 20
548.928717
 30
0.0
 40
0.600000000000118
100
AcDbArc
 50
105.0
 51
180.0
  0
LINE
  5
12E
330
1F
100
AcDbEntity
  8
LC-001-100-D00-0
 62
     7
370
    50
100
AcDbLine
 10
-344.997434
 20
551.697484
 30
0.0
 11
-343.046589
 21
551.697484
 31
0.0
  0
LINE
  5
12F
330
1F
100
AcDbEntity
  8
LC-001-100-D00-0
 62
     7
370
    50
100
AcDbLine
 10
-344.997435
 20
543.697484
 30
0.0
 11
-343.046589
 21
543.697484
 31
0.0
  0
LINE
  5
130
330
1F
100
AcDbEntity
  8
LC-001-100-D00-0
 62
     7
370
    50
100
AcDbLine
 10
-354.597435
 20
548.928717
 30
0.0
 11
-354.597435
 21
546.46625
 31
0.0
  0
LINE
  5
131
330
1F
100
AcDbEntity
  8
LC-001-100-D00-0
 62
     7
370
    50
100
AcDbLine
 10
-352.797432
 20
550.697484
 30
0.0
 11
-353.797434
 21
551.697484
 31
0.0
  0
LINE
  5
132
330
1F
100
AcDbEntity
  8
LC-001-100-D00-0
 62
     7
370
    50
100
AcDbLine
 10
-353.797435
 20
543.697484
 30
0.0
 11
-352.797435
 21
544.697484
 31
0.0
  0
LINE
  5
133
330
1F
100
AcDbEntity
  8
LC-001-100-D00-0
 62
     7
370
    50
100
AcDbLine
 10
-352.797435
 20
544.697484
 30
0.0
 11
-352.639595
 21
544.697484
 31
0.0
  0
LINE
  5
134
330
1F
100
AcDbEntity
  8
LC-001-100-D00-0
 62
     7
370
    50
100
AcDbLine
 10
-346.155275
 20
544.697484
 30
0.0
 11
-345.997435
 21
544.697484
 31
0.0
  0
LINE
  5
135
330
1F
100
AcDbEntity
  8
LC-001-100-D00-0
 62
     7
370
    50
100
AcDbLine
 10
-344.997435
 20
543.697484
 30
0.0
 11
-345.533217
 21
543.697484
 31
0.0
  0
LINE
  5
136
330
1F
100
AcDbEntity
  8
LC-001-100-D00-0
 62
     7
370
    50
100
AcDbLine
 10
-353.261653
 20
543.697484
 30
0.0
 11
-353.797435
 21
543.697484
 31
0.0
  0
LINE
  5
137
330
1F
100
AcDbEntity
  8
LC-001-100-D00-0
 62
     7
370
    50
100
AcDbLine
 10
-352.797432
 20
550.697484
 30
0.0
 11
-352.797435
 21
544.697484
 31
0.0
  0
LINE
  5
138
330
1F
100
AcDbEntity
  8
LC-001-100-D00-0
 62
     7
370
    50
100
AcDbLine
 10
-355.748294
 20
545.697483
 30
0.0
 11
-355.748294
 21
543.697484
 31
0.0
  0
LINE
  5
139
330
1F
100
AcDbEntity
  8
LC-001-100-D00-0
 62
     7
370
    50
100
AcDbLine
 10
-355.042143
 20
545.886695
 30
0.0
 11
-355.748294
 21
545.697483
 31
0.0
  0
ARC
  5
13A
330
1F
100
AcDbEntity
  8
LC-001-100-D00-0
 62
     7
370
    50
100
AcDbCircle
 10
-355.197435
 20
546.46625
 30
0.0
 40
0.600000000000118
100
AcDbArc
 50
285.0
 51
0.0
  0
ARC
  5
13B
330
1F
100
AcDbEntity
  8
LC-001-100-D00-0
 62
     7
370
    50
100
AcDbCircle
 10
-355.197435
 20
548.928717
 30
0.0
 40
0.6000000000001364
100
AcDbArc
 50
0.0
 51
75.0
  0
LINE
  5
13C
330
1F
100
AcDbEntity
  8
LC-001-100-D00-0
 62
     7
370
    50
100
AcDbLine
 10
-355.748294
 20
549.697484
 30
0.0
 11
-355.042143
 21
549.508273
 31
0.0
  0
LINE
  5
13D
330
1F
100
AcDbEntity
  8
LC-001-100-D00-0
 62
     7
370
    50
100
AcDbLine
 10
-355.748294
 20
551.697484
 30
0.0
 11
-355.748294
 21
549.697484
 31
0.0
  0
LINE
  5
13E
330
1F
100
AcDbEntity
  8
LC-001-100-D00-0
 62
     7
370
    50
100
AcDbLine
 10
-355.748294
 20
551.697484
 30
0.0
 11
-353.797434
 21
551.697484
 31
0.0
  0
LINE
  5
13F
330
1F
100
AcDbEntity
  8
LC-001-100-D00-0
 62
     7
370
    50
100
AcDbLine
 10
-355.748294
 20
543.697484
 30
0.0
 11
-353.797435
 21
543.697484
 31
0.0
  0
LINE
  5
140
330
1F
100
AcDbEntity
  8
LC-001-100-D00-0
 62
     7
370
    50
100
AcDbLine
 10
-343.046589
 20
551.697484
 30
0.0
 11
-345.497442
 21
551.697484
 31
0.0
  0
LINE
  5
141
330
1F
100
AcDbEntity
  8
LC-001-100-D00-0
 62
     7
370
    50
100
AcDbLine
 10
-345.497442
 20
551.697484
 30
0.0
 11
-345.497435
 21
562.697484
 31
0.0
  0
LINE
  5
142
330
1F
100
AcDbEntity
  8
LC-001-100-D00-0
 62
     7
370
    50
100
AcDbLine
 10
-345.497435
 20
562.697484
 30
0.0
 11
-332.147435
 21
562.697484
 31
0.0
  0
ARC
  5
143
330
1F
100
AcDbEntity
  8
LC-001-100-D00-0
 62
     7
370
    50
100
AcDbCircle
 10
-332.147435
 20
561.697484
 30
0.0
 40
1.000000000000227
100
AcDbArc
 50
0.0
 51
90.0
  0
LINE
  5
144
330
1F
100
AcDbEntity
  8
LC-001-100-D00-0
 62
     7
370
    50
100
AcDbLine
 10
-331.147435
 20
561.697484
 30
0.0
 11
-331.14743
 21
555.697484
 31
0.0
  0
LINE
  5
145
330
1F
100
AcDbEntity
  8
LC-001-100-D00-0
 62
     7
370
    50
100
AcDbLine
 10
-334.147435
 20
555.697484
 30
0.0
 11
-331.14743
 21
555.697484
 31
0.0
  0
LINE
  5
146
330
1F
100
AcDbEntity
  8
LC-001-100-D00-0
 62
     7
370
    50
100
AcDbLine
 10
-334.147435
 20
555.697484
 30
0.0
 11
-334.147436
 21
559.697484
 31
0.0
  0
LINE
  5
147
330
1F
100
AcDbEntity
  8
LC-001-100-D00-0
 62
     7
370
    50
100
AcDbLine
 10
-338.647435
 20
559.697484
 30
0.0
 11
-334.147436
 21
559.697484
 31
0.0
  0
ARC
  5
148
330
1F
100
AcDbEntity
  8
LC-001-100-D00-0
 62
     7
370
    50
100
AcDbCircle
 10
-338.647435
 20
558.697484
 30
0.0
 40
1.0
100
AcDbArc
 50
90.0
 51
180.0
  0
LINE
  5
149
330
1F
100
AcDbEntity
  8
LC-001-100-D00-0
 62
     7
370
    50
100
AcDbLine
 10
-339.647435
 20
544.697484
 30
0.0
 11
-339.647435
 21
558.697484
 31
0.0
  0
ARC
  5
14A
330
1F
100
AcDbEntity
  8
LC-001-100-D00-0
 62
     7
370
    50
100
AcDbCircle
 10
-340.647435
 20
544.697484
 30
0.0
 40
1.000000000000227
100
AcDbArc
 50
270.0
 51
0.0
  0
LINE
  5
14B
330
1F
100
AcDbEntity
  8
LC-001-100-D00-0
 62
     7
370
    50
100
AcDbLine
 10
-340.647435
 20
543.697484
 30
0.0
 11
-343.046589
 21
543.697484
 31
0.0
  0
LINE
  5
14C
330
1F
100
AcDbEntity
  8
LC-001-100-D00-0
 62
     7
370
    50
100
AcDbLine
 10
-343.046589
 20
545.697483
 30
0.0
 11
-343.046589
 21
543.697484
 31
0.0
  0
LINE
  5
14D
330
1F
100
AcDbEntity
  8
LC-001-100-D00-0
 62
     7
370
    50
100
AcDbLine
 10
-343.697435
 20
545.697484
 30
0.0
 11
-343.046589
 21
545.697483
 31
0.0
  0
ARC
  5
14E
330
1F
100
AcDbEntity
  8
LC-001-100-D00-0
 62
     7
370
    50
100
AcDbCircle
 10
-343.697435
 20
546.197484
 30
0.0
 40
0.5
100
AcDbArc
 50
180.0
 51
270.0
  0
LINE
  5
14F
330
1F
100
AcDbEntity
  8
LC-001-100-D00-0
 62
     7
370
    50
100
AcDbLine
 10
-344.197435
 20
549.197484
 30
0.0
 11
-344.197435
 21
546.197484
 31
0.0
  0
ARC
  5
150
330
1F
100
AcDbEntity
  8
LC-001-100-D00-0
 62
     7
370
    50
100
AcDbCircle
 10
-343.697435
 20
549.197484
 30
0.0
 40
0.5000000000002274
100
AcDbArc
 50
90.0
 51
180.0
  0
LINE
  5
151
330
1F
100
AcDbEntity
  8
LC-001-100-D00-0
 62
     7
370
    50
100
AcDbLine
 10
-343.046589
 20
549.697484
 30
0.0
 11
-343.697435
 21
549.697484
 31
0.0
  0
LINE
  5
152
330
1F
100
AcDbEntity
  8
LC-001-100-D00-0
 62
     7
370
    50
100
AcDbLine
 10
-343.046589
 20
551.697484
 30
0.0
 11
-343.046589
 21
549.697484
 31
0.0
  0
ARC
  5
153
330
1F
100
AcDbEntity
  8
LC-001-100-D00-0
 62
     7
370
    50
100
AcDbCircle
 10
-360.147435
 20
558.697484
 30
0.0
 40
1.000000000000227
100
AcDbArc
 50
0.0
 51
90.0
  0
ARC
  5
154
330
1F
100
AcDbEntity
  8
LC-001-100-D00-0
 62
     7
370
    50
100
AcDbCircle
 10
-358.147435
 20
544.697484
 30
0.0
 40
1.000000000000227
100
AcDbArc
 50
180.0
 51
270.0
  0
LINE
  5
155
330
1F
100
AcDbEntity
  8
LC-001-100-D00-0
 62
     7
370
    50
100
AcDbLine
 10
-359.147435
 20
558.697484
 30
0.0
 11
-359.147435
 21
544.697484
 31
0.0
  0
LINE
  5
156
330
1F
100
AcDbEntity
  8
LC-001-100-D00-0
 62
     7
370
    50
100
AcDbLine
 10
-354.597435
 20
546.197484
 30
0.0
 11
-354.597435
 21
549.197484
 31
0.0
  0
LINE
  5
157
330
1F
100
AcDbEntity
  8
LC-001-100-D00-0
 62
     7
370
    50
100
AcDbLine
 10
-353.297435
 20
562.697484
 30
0.0
 11
-353.29744
 21
551.697484
 31
0.0
  0
LINE
  5
158
330
1F
100
AcDbEntity
  8
LC-001-100-D00-0
 62
     7
370
    50
100
AcDbLine
 10
-353.297435
 20
562.697484
 30
0.0
 11
-345.497435
 21
562.697484
 31
0.0
  0
LINE
  5
159
330
1F
100
AcDbEntity
  8
LC-001-100-D00-0
 62
     7
370
    50
100
AcDbLine
 10
-355.748294
 20
545.697483
 30
0.0
 11
-355.748294
 21
543.697484
 31
0.0
  0
LINE
  5
15A
330
1F
100
AcDbEntity
  8
LC-001-100-D00-0
 62
     7
370
    50
100
AcDbLine
 10
-355.748294
 20
551.697484
 30
0.0
 11
-355.748294
 21
549.697484
 31
0.0
  0
ARC
  5
15B
330
1F
100
AcDbEntity
  8
LC-001-100-D00-0
 62
     7
370
    50
100
AcDbCircle
 10
-355.097435
 20
546.197484
 30
0.0
 40
0.5
100
AcDbArc
 50
270.0
 51
0.0
  0
LINE
  5
15C
330
1F
100
AcDbEntity
  8
LC-001-100-D00-0
 62
     7
370
    50
100
AcDbLine
 10
-355.748294
 20
545.697483
 30
0.0
 11
-355.097435
 21
545.697484
 31
0.0
  0
LINE
  5
15D
330
1F
100
AcDbEntity
  8
LC-001-100-D00-0
 62
     7
370
    50
100
AcDbLine
 10
-364.647431
 20
559.697484
 30
0.0
 11
-364.647435
 21
555.697484
 31
0.0
  0
LINE
  5
15E
330
1F
100
AcDbEntity
  8
LC-001-100-D00-0
 62
     7
370
    50
100
AcDbLine
 10
-367.647437
 20
555.697484
 30
0.0
 11
-367.647435
 21
561.697484
 31
0.0
  0
ARC
  5
15F
330
1F
100
AcDbEntity
  8
LC-001-100-D00-0
 62
     7
370
    50
100
AcDbCircle
 10
-366.647435
 20
561.697484
 30
0.0
 40
1.000000000000227
100
AcDbArc
 50
90.0
 51
180.0
  0
LINE
  5
160
330
1F
100
AcDbEntity
  8
LC-001-100-D00-0
 62
     7
370
    50
100
AcDbLine
 10
-355.097435
 20
549.697484
 30
0.0
 11
-355.748294
 21
549.697484
 31
0.0
  0
ARC
  5
161
330
1F
100
AcDbEntity
  8
LC-001-100-D00-0
 62
     7
370
    50
100
AcDbCircle
 10
-355.097435
 20
549.197484
 30
0.0
 40
0.5000000000002274
100
AcDbArc
 50
0.0
 51
90.0
  0
LINE
  5
162
330
1F
100
AcDbEntity
  8
LC-001-100-D00-0
 62
     7
370
    50
100
AcDbLine
 10
-353.29744
 20
551.697484
 30
0.0
 11
-355.748294
 21
551.697484
 31
0.0
  0
LINE
  5
163
330
1F
100
AcDbEntity
  8
LC-001-100-D00-0
 62
     7
370
    50
100
AcDbLine
 10
-355.748294
 20
543.697484
 30
0.0
 11
-358.147435
 21
543.697484
 31
0.0
  0
LINE
  5
164
330
1F
100
AcDbEntity
  8
LC-001-100-D00-0
 62
     7
370
    50
100
AcDbLine
 10
-364.647431
 20
559.697484
 30
0.0
 11
-360.147435
 21
559.697484
 31
0.0
  0
LINE
  5
165
330
1F
100
AcDbEntity
  8
LC-001-100-D00-0
 62
     7
370
    50
100
AcDbLine
 10
-366.647435
 20
562.697484
 30
0.0
 11
-353.297435
 21
562.697484
 31
0.0
  0
LINE
  5
166
330
1F
100
AcDbEntity
  8
LC-001-100-D00-0
 62
     7
370
    50
100
AcDbLine
 10
-367.647437
 20
555.697484
 30
0.0
 11
-364.647435
 21
555.697484
 31
0.0
  0
LINE
  5
167
330
1F
100
AcDbEntity
  8
LC-001-100-D00-0
 62
     7
370
    50
100
AcDbLine
 10
-336.147435
 20
555.697484
 30
0.0
 11
-334.147435
 21
555.697484
 31
0.0
  0
LINE
  5
168
330
1F
100
AcDbEntity
  8
LC-001-100-D00-0
 62
     7
370
    50
100
AcDbLine
 10
-364.647435
 20
555.697484
 30
0.0
 11
-362.647435
 21
555.697484
 31
0.0
  0
LINE
  5
169
330
1F
100
AcDbEntity
  8
LC-001-100-D00-0
 62
     7
370
    50
100
AcDbLine
 10
-362.647435
 20
555.697484
 30
0.0
 11
-359.147442
 21
555.697484
 31
0.0
  0
LINE
  5
16A
330
1F
100
AcDbEntity
  8
LC-001-100-D00-0
 62
     7
370
    50
100
AcDbLine
 10
-339.64744
 20
555.697484
 30
0.0
 11
-336.147435
 21
555.697484
 31
0.0
  0
LINE
  5
16B
330
1F
100
AcDbEntity
  8
LC-001-100-D00-0
 62
     7
370
    50
100
AcDbLine
 10
-224.197435
 20
546.46625
 30
0.0
 11
-224.197435
 21
548.928717
 31
0.0
  0
ARC
  5
16C
330
1F
100
AcDbEntity
  8
LC-001-100-D00-0
 62
     7
370
    50
100
AcDbCircle
 10
-223.597435
 20
546.46625
 30
0.0
 40
0.6000000000001364
100
AcDbArc
 50
180.0
 51
255.0
  0
LINE
  5
16D
330
1F
100
AcDbEntity
  8
LC-001-100-D00-0
 62
     7
370
    50
100
AcDbLine
 10
-223.046584
 20
545.697483
 30
0.0
 11
-223.752726
 21
545.886695
 31
0.0
  0
LINE
  5
16E
330
1F
100
AcDbEntity
  8
LC-001-100-D00-0
 62
     7
370
    50
100
AcDbLine
 10
-223.046584
 20
545.697483
 30
0.0
 11
-223.046584
 21
543.697484
 31
0.0
  0
LINE
  5
16F
330
1F
100
AcDbEntity
  8
LC-001-100-D00-0
 62
     7
370
    50
100
AcDbLine
 10
-224.997435
 20
543.697484
 30
0.0
 11
-223.046584
 21
543.697484
 31
0.0
  0
LINE
  5
170
330
1F
100
AcDbEntity
  8
LC-001-100-D00-0
 62
     7
370
    50
100
AcDbLine
 10
-225.997435
 20
544.697484
 30
0.0
 11
-224.997435
 21
543.697484
 31
0.0
  0
LINE
  5
171
330
1F
100
AcDbEntity
  8
LC-001-100-D00-0
 62
     7
370
    50
100
AcDbLine
 10
-225.997435
 20
544.697484
 30
0.0
 11
-225.997438
 21
550.697484
 31
0.0
  0
LINE
  5
172
330
1F
100
AcDbEntity
  8
LC-001-100-D00-0
 62
     7
370
    50
100
AcDbLine
 10
-224.997436
 20
551.697484
 30
0.0
 11
-225.997438
 21
550.697484
 31
0.0
  0
LINE
  5
173
330
1F
100
AcDbEntity
  8
LC-001-100-D00-0
 62
     7
370
    50
100
AcDbLine
 10
-224.997436
 20
551.697484
 30
0.0
 11
-223.046584
 21
551.697484
 31
0.0
  0
LINE
  5
174
330
1F
100
AcDbEntity
  8
LC-001-100-D00-0
 62
     7
370
    50
100
AcDbLine
 10
-223.046584
 20
551.697484
 30
0.0
 11
-223.046584
 21
549.697484
 31
0.0
  0
LINE
  5
175
330
1F
100
AcDbEntity
  8
LC-001-100-D00-0
 62
     7
370
    50
100
AcDbLine
 10
-223.752726
 20
549.508273
 30
0.0
 11
-223.046584
 21
549.697484
 31
0.0
  0
ARC
  5
176
330
1F
100
AcDbEntity
  8
LC-001-100-D00-0
 62
     7
370
    50
100
AcDbCircle
 10
-223.597435
 20
548.928717
 30
0.0
 40
0.6000000000001474
100
AcDbArc
 50
105.0
 51
180.0
  0
LINE
  5
177
330
1F
100
AcDbEntity
  8
LC-001-100-D00-0
 62
     7
370
    50
100
AcDbLine
 10
-232.797434
 20
550.697484
 30
0.0
 11
-233.797436
 21
551.697484
 31
0.0
  0
LINE
  5
178
330
1F
100
AcDbEntity
  8
LC-001-100-D00-0
 62
     7
370
    50
100
AcDbLine
 10
-233.797435
 20
543.697484
 30
0.0
 11
-232.797435
 21
544.697484
 31
0.0
  0
LINE
  5
179
330
1F
100
AcDbEntity
  8
LC-001-100-D00-0
 62
     7
370
    50
100
AcDbLine
 10
-232.797435
 20
544.697484
 30
0.0
 11
-232.639595
 21
544.697484
 31
0.0
  0
LINE
  5
17A
330
1F
100
AcDbEntity
  8
LC-001-100-D00-0
 62
     7
370
    50
100
AcDbLine
 10
-226.155275
 20
544.697484
 30
0.0
 11
-225.997435
 21
544.697484
 31
0.0
  0
LINE
  5
17B
330
1F
100
AcDbEntity
  8
LC-001-100-D00-0
 62
     7
370
    50
100
AcDbLine
 10
-224.997435
 20
543.697484
 30
0.0
 11
-225.533217
 21
543.697484
 31
0.0
  0
LINE
  5
17C
330
1F
100
AcDbEntity
  8
LC-001-100-D00-0
 62
     7
370
    50
100
AcDbLine
 10
-233.261653
 20
543.697484
 30
0.0
 11
-233.797435
 21
543.697484
 31
0.0
  0
LINE
  5
17D
330
1F
100
AcDbEntity
  8
LC-001-100-D00-0
 62
     7
370
    50
100
AcDbLine
 10
-232.797434
 20
550.697484
 30
0.0
 11
-232.797435
 21
544.697484
 31
0.0
  0
LINE
  5
17E
330
1F
100
AcDbEntity
  8
LC-001-100-D00-0
 62
     7
370
    50
100
AcDbLine
 10
-234.597435
 20
548.928717
 30
0.0
 11
-234.597435
 21
546.46625
 31
0.0
  0
LINE
  5
17F
330
1F
100
AcDbEntity
  8
LC-001-100-D00-0
 62
     7
370
    50
100
AcDbLine
 10
-235.748289
 20
545.697483
 30
0.0
 11
-235.748289
 21
543.697484
 31
0.0
  0
LINE
  5
180
330
1F
100
AcDbEntity
  8
LC-001-100-D00-0
 62
     7
370
    50
100
AcDbLine
 10
-235.042143
 20
545.886695
 30
0.0
 11
-235.748289
 21
545.697483
 31
0.0
  0
ARC
  5
181
330
1F
100
AcDbEntity
  8
LC-001-100-D00-0
 62
     7
370
    50
100
AcDbCircle
 10
-235.197435
 20
546.46625
 30
0.0
 40
0.5999999999998689
100
AcDbArc
 50
285.0
 51
0.0
  0
ARC
  5
182
330
1F
100
AcDbEntity
  8
LC-001-100-D00-0
 62
     7
370
    50
100
AcDbCircle
 10
-235.197435
 20
548.928717
 30
0.0
 40
0.6000000000001364
100
AcDbArc
 50
0.0
 51
75.0
  0
LINE
  5
183
330
1F
100
AcDbEntity
  8
LC-001-100-D00-0
 62
     7
370
    50
100
AcDbLine
 10
-235.748289
 20
549.697484
 30
0.0
 11
-235.042143
 21
549.508273
 31
0.0
  0
LINE
  5
184
330
1F
100
AcDbEntity
  8
LC-001-100-D00-0
 62
     7
370
    50
100
AcDbLine
 10
-235.748289
 20
551.697484
 30
0.0
 11
-235.748289
 21
549.697484
 31
0.0
  0
LINE
  5
185
330
1F
100
AcDbEntity
  8
LC-001-100-D00-0
 62
     7
370
    50
100
AcDbLine
 10
-235.748289
 20
543.697484
 30
0.0
 11
-233.797435
 21
543.697484
 31
0.0
  0
LINE
  5
186
330
1F
100
AcDbEntity
  8
LC-001-100-D00-0
 62
     7
370
    50
100
AcDbLine
 10
-235.748289
 20
551.697484
 30
0.0
 11
-233.797436
 21
551.697484
 31
0.0
  0
LINE
  5
187
330
1F
100
AcDbEntity
  8
LC-001-100-D00-0
 62
     7
370
    50
100
AcDbLine
 10
-223.046584
 20
551.697484
 30
0.0
 11
-225.497437
 21
551.697484
 31
0.0
  0
LINE
  5
188
330
1F
100
AcDbEntity
  8
LC-001-100-D00-0
 62
     7
370
    50
100
AcDbLine
 10
-225.497437
 20
551.697484
 30
0.0
 11
-225.497435
 21
562.697484
 31
0.0
  0
LINE
  5
189
330
1F
100
AcDbEntity
  8
LC-001-100-D00-0
 62
     7
370
    50
100
AcDbLine
 10
-225.497435
 20
562.697484
 30
0.0
 11
-212.147435
 21
562.697484
 31
0.0
  0
ARC
  5
18A
330
1F
100
AcDbEntity
  8
LC-001-100-D00-0
 62
     7
370
    50
100
AcDbCircle
 10
-212.147435
 20
561.697484
 30
0.0
 40
1.000000000000227
100
AcDbArc
 50
0.0
 51
90.0
  0
LINE
  5
18B
330
1F
100
AcDbEntity
  8
LC-001-100-D00-0
 62
     7
370
    50
100
AcDbLine
 10
-211.147435
 20
561.697484
 30
0.0
 11
-211.147433
 21
555.697484
 31
0.0
  0
LINE
  5
18C
330
1F
100
AcDbEntity
  8
LC-001-100-D00-0
 62
     7
370
    50
100
AcDbLine
 10
-214.147435
 20
555.697484
 30
0.0
 11
-211.147433
 21
555.697484
 31
0.0
  0
LINE
  5
18D
330
1F
100
AcDbEntity
  8
LC-001-100-D00-0
 62
     7
370
    50
100
AcDbLine
 10
-214.147435
 20
555.697484
 30
0.0
 11
-214.147432
 21
559.697484
 31
0.0
  0
LINE
  5
18E
330
1F
100
AcDbEntity
  8
LC-001-100-D00-0
 62
     7
370
    50
100
AcDbLine
 10
-218.647435
 20
559.697484
 30
0.0
 11
-214.147432
 21
559.697484
 31
0.0
  0
ARC
  5
18F
330
1F
100
AcDbEntity
  8
LC-001-100-D00-0
 62
     7
370
    50
100
AcDbCircle
 10
-218.647435
 20
558.697484
 30
0.0
 40
0.9999999999997726
100
AcDbArc
 50
90.0
 51
180.0
  0
LINE
  5
190
330
1F
100
AcDbEntity
  8
LC-001-100-D00-0
 62
     7
370
    50
100
AcDbLine
 10
-219.647435
 20
544.697484
 30
0.0
 11
-219.647435
 21
558.697484
 31
0.0
  0
ARC
  5
191
330
1F
100
AcDbEntity
  8
LC-001-100-D00-0
 62
     7
370
    50
100
AcDbCircle
 10
-220.647435
 20
544.697484
 30
0.0
 40
1.000000000000227
100
AcDbArc
 50
270.0
 51
0.0
  0
LINE
  5
192
330
1F
100
AcDbEntity
  8
LC-001-100-D00-0
 62
     7
370
    50
100
AcDbLine
 10
-220.647435
 20
543.697484
 30
0.0
 11
-223.046584
 21
543.697484
 31
0.0
  0
LINE
  5
193
330
1F
100
AcDbEntity
  8
LC-001-100-D00-0
 62
     7
370
    50
100
AcDbLine
 10
-223.046584
 20
545.697483
 30
0.0
 11
-223.046584
 21
543.697484
 31
0.0
  0
LINE
  5
194
330
1F
100
AcDbEntity
  8
LC-001-100-D00-0
 62
     7
370
    50
100
AcDbLine
 10
-223.697435
 20
545.697484
 30
0.0
 11
-223.046584
 21
545.697483
 31
0.0
  0
ARC
  5
195
330
1F
100
AcDbEntity
  8
LC-001-100-D00-0
 62
     7
370
    50
100
AcDbCircle
 10
-223.697435
 20
546.197484
 30
0.0
 40
0.5
100
AcDbArc
 50
180.0
 51
270.0
  0
LINE
  5
196
330
1F
100
AcDbEntity
  8
LC-001-100-D00-0
 62
     7
370
    50
100
AcDbLine
 10
-224.197435
 20
549.197484
 30
0.0
 11
-224.197435
 21
546.197484
 31
0.0
  0
ARC
  5
197
330
1F
100
AcDbEntity
  8
LC-001-100-D00-0
 62
     7
370
    50
100
AcDbCircle
 10
-223.697435
 20
549.197484
 30
0.0
 40
0.5000000000002274
100
AcDbArc
 50
90.0
 51
180.0
  0
LINE
  5
198
330
1F
100
AcDbEntity
  8
LC-001-100-D00-0
 62
     7
370
    50
100
AcDbLine
 10
-223.046584
 20
549.697484
 30
0.0
 11
-223.697435
 21
549.697484
 31
0.0
  0
LINE
  5
199
330
1F
100
AcDbEntity
  8
LC-001-100-D00-0
 62
     7
370
    50
100
AcDbLine
 10
-223.046584
 20
551.697484
 30
0.0
 11
-223.046584
 21
549.697484
 31
0.0
  0
LINE
  5
19A
330
1F
100
AcDbEntity
  8
LC-001-100-D00-0
 62
     7
370
    50
100
AcDbLine
 10
-233.297435
 20
562.697484
 30
0.0
 11
-233.297435
 21
551.697484
 31
0.0
  0
LINE
  5
19B
330
1F
100
AcDbEntity
  8
LC-001-100-D00-0
 62
     7
370
    50
100
AcDbLine
 10
-233.297435
 20
562.697484
 30
0.0
 11
-225.497435
 21
562.697484
 31
0.0
  0
ARC
  5
19C
330
1F
100
AcDbEntity
  8
LC-001-100-D00-0
 62
     7
370
    50
100
AcDbCircle
 10
-240.147435
 20
558.697484
 30
0.0
 40
1.000000000000227
100
AcDbArc
 50
0.0
 51
90.0
  0
ARC
  5
19D
330
1F
100
AcDbEntity
  8
LC-001-100-D00-0
 62
     7
370
    50
100
AcDbCircle
 10
-238.147435
 20
544.697484
 30
0.0
 40
1.000000000000227
100
AcDbArc
 50
180.0
 51
270.0
  0
LINE
  5
19E
330
1F
100
AcDbEntity
  8
LC-001-100-D00-0
 62
     7
370
    50
100
AcDbLine
 10
-239.147435
 20
558.697484
 30
0.0
 11
-239.147435
 21
544.697484
 31
0.0
  0
LINE
  5
19F
330
1F
100
AcDbEntity
  8
LC-001-100-D00-0
 62
     7
370
    50
100
AcDbLine
 10
-234.597435
 20
546.197484
 30
0.0
 11
-234.597435
 21
549.197484
 31
0.0
  0
ARC
  5
1A0
330
1F
100
AcDbEntity
  8
LC-001-100-D00-0
 62
     7
370
    50
100
AcDbCircle
 10
-235.097435
 20
546.197484
 30
0.0
 40
0.5
100
AcDbArc
 50
270.0
 51
0.0
  0
LINE
  5
1A1
330
1F
100
AcDbEntity
  8
LC-001-100-D00-0
 62
     7
370
    50
100
AcDbLine
 10
-235.748289
 20
545.697483
 30
0.0
 11
-235.097435
 21
545.697484
 31
0.0
  0
LINE
  5
1A2
330
1F
100
AcDbEntity
  8
LC-001-100-D00-0
 62
     7
370
    50
100
AcDbLine
 10
-235.748289
 20
545.697483
 30
0.0
 11
-235.748289
 21
543.697484
 31
0.0
  0
LINE
  5
1A3
330
1F
100
AcDbEntity
  8
LC-001-100-D00-0
 62
     7
370
    50
100
AcDbLine
 10
-244.647434
 20
559.697484
 30
0.0
 11
-244.647435
 21
555.697484
 31
0.0
  0
LINE
  5
1A4
330
1F
100
AcDbEntity
  8
LC-001-100-D00-0
 62
     7
370
    50
100
AcDbLine
 10
-247.647432
 20
555.697484
 30
0.0
 11
-247.647435
 21
561.697484
 31
0.0
  0
ARC
  5
1A5
330
1F
100
AcDbEntity
  8
LC-001-100-D00-0
 62
     7
370
    50
100
AcDbCircle
 10
-246.647435
 20
561.697484
 30
0.0
 40
1.000000000000227
100
AcDbArc
 50
90.0
 51
180.0
  0
LINE
  5
1A6
330
1F
100
AcDbEntity
  8
LC-001-100-D00-0
 62
     7
370
    50
100
AcDbLine
 10
-235.748289
 20
551.697484
 30
0.0
 11
-235.748289
 21
549.697484
 31
0.0
  0
LINE
  5
1A7
330
1F
100
AcDbEntity
  8
LC-001-100-D00-0
 62
     7
370
    50
100
AcDbLine
 10
-235.097435
 20
549.697484
 30
0.0
 11
-235.748289
 21
549.697484
 31
0.0
  0
ARC
  5
1A8
330
1F
100
AcDbEntity
  8
LC-001-100-D00-0
 62
     7
370
    50
100
AcDbCircle
 10
-235.097435
 20
549.197484
 30
0.0
 40
0.5000000000002274
100
AcDbArc
 50
0.0
 51
90.0
  0
LINE
  5
1A9
330
1F
100
AcDbEntity
  8
LC-001-100-D00-0
 62
     7
370
    50
100
AcDbLine
 10
-235.748289
 20
543.697484
 30
0.0
 11
-238.147435
 21
543.697484
 31
0.0
  0
LINE
  5
1AA
330
1F
100
AcDbEntity
  8
LC-001-100-D00-0
 62
     7
370
    50
100
AcDbLine
 10
-233.297435
 20
551.697484
 30
0.0
 11
-235.748289
 21
551.697484
 31
0.0
  0
LINE
  5
1AB
330
1F
100
AcDbEntity
  8
LC-001-100-D00-0
 62
     7
370
    50
100
AcDbLine
 10
-244.647434
 20
559.697484
 30
0.0
 11
-240.147435
 21
559.697484
 31
0.0
  0
LINE
  5
1AC
330
1F
100
AcDbEntity
  8
LC-001-100-D00-0
 62
     7
370
    50
100
AcDbLine
 10
-246.647435
 20
562.697484
 30
0.0
 11
-233.297435
 21
562.697484
 31
0.0
  0
LINE
  5
1AD
330
1F
100
AcDbEntity
  8
LC-001-100-D00-0
 62
     7
370
    50
100
AcDbLine
 10
-247.647432
 20
555.697484
 30
0.0
 11
-244.647435
 21
555.697484
 31
0.0
  0
LINE
  5
1AE
330
1F
100
AcDbEntity
  8
LC-001-100-D00-0
 62
     7
370
    50
100
AcDbLine
 10
-216.147435
 20
555.697484
 30
0.0
 11
-214.147435
 21
555.697484
 31
0.0
  0
LINE
  5
1AF
330
1F
100
AcDbEntity
  8
LC-001-100-D00-0
 62
     7
370
    50
100
AcDbLine
 10
-244.647435
 20
555.697484
 30
0.0
 11
-242.647435
 21
555.697484
 31
0.0
  0
LINE
  5
1B0
330
1F
100
AcDbEntity
  8
LC-001-100-D00-0
 62
     7
370
    50
100
AcDbLine
 10
-242.647435
 20
555.697484
 30
0.0
 11
-239.147438
 21
555.697484
 31
0.0
  0
LINE
  5
1B1
330
1F
100
AcDbEntity
  8
LC-001-100-D00-0
 62
     7
370
    50
100
AcDbLine
 10
-219.647435
 20
555.697484
 30
0.0
 11
-216.147435
 21
555.697484
 31
0.0
  0
LINE
  5
1B2
330
1F
100
AcDbEntity
  8
LC-001-100-D00-0
 62
     7
370
    50
100
AcDbLine
 10
95.802565
 20
546.46625
 30
0.0
 11
95.802565
 21
548.928717
 31
0.0
  0
ARC
  5
1B3
330
1F
100
AcDbEntity
  8
LC-001-100-D00-0
 62
     7
370
    50
100
AcDbCircle
 10
96.402565
 20
546.46625
 30
0.0
 40
0.6000000000001364
100
AcDbArc
 50
180.0
 51
255.0
  0
LINE
  5
1B4
330
1F
100
AcDbEntity
  8
LC-001-100-D00-0
 62
     7
370
    50
100
AcDbLine
 10
96.953424
 20
545.697483
 30
0.0
 11
96.247274
 21
545.886695
 31
0.0
  0
LINE
  5
1B5
330
1F
100
AcDbEntity
  8
LC-001-100-D00-0
 62
     7
370
    50
100
AcDbLine
 10
96.953424
 20
545.697483
 30
0.0
 11
96.953424
 21
543.697484
 31
0.0
  0
LINE
  5
1B6
330
1F
100
AcDbEntity
  8
LC-001-100-D00-0
 62
     7
370
    50
100
AcDbLine
 10
94.002565
 20
544.697484
 30
0.0
 11
95.002565
 21
543.697484
 31
0.0
  0
LINE
  5
1B7
330
1F
100
AcDbEntity
  8
LC-001-100-D00-0
 62
     7
370
    50
100
AcDbLine
 10
94.002565
 20
544.697484
 30
0.0
 11
94.002562
 21
550.697484
 31
0.0
  0
LINE
  5
1B8
330
1F
100
AcDbEntity
  8
LC-001-100-D00-0
 62
     7
370
    50
100
AcDbLine
 10
95.002564
 20
551.697484
 30
0.0
 11
94.002562
 21
550.697484
 31
0.0
  0
LINE
  5
1B9
330
1F
100
AcDbEntity
  8
LC-001-100-D00-0
 62
     7
370
    50
100
AcDbLine
 10
96.953424
 20
551.697484
 30
0.0
 11
96.953424
 21
549.697484
 31
0.0
  0
LINE
  5
1BA
330
1F
100
AcDbEntity
  8
LC-001-100-D00-0
 62
     7
370
    50
100
AcDbLine
 10
96.247274
 20
549.508273
 30
0.0
 11
96.953424
 21
549.697484
 31
0.0
  0
ARC
  5
1BB
330
1F
100
AcDbEntity
  8
LC-001-100-D00-0
 62
     7
370
    50
100
AcDbCircle
 10
96.402565
 20
548.928717
 30
0.0
 40
0.6000000000001474
100
AcDbArc
 50
105.0
 51
180.0
  0
LINE
  5
1BC
330
1F
100
AcDbEntity
  8
LC-001-100-D00-0
 62
     7
370
    50
100
AcDbLine
 10
95.002564
 20
551.697484
 30
0.0
 11
96.953424
 21
551.697484
 31
0.0
  0
LINE
  5
1BD
330
1F
100
AcDbEntity
  8
LC-001-100-D00-0
 62
     7
370
    50
100
AcDbLine
 10
95.002565
 20
543.697484
 30
0.0
 11
96.953424
 21
543.697484
 31
0.0
  0
LINE
  5
1BE
330
1F
100
AcDbEntity
  8
LC-001-100-D00-0
 62
     7
370
    50
100
AcDbLine
 10
85.402565
 20
548.928717
 30
0.0
 11
85.402565
 21
546.46625
 31
0.0
  0
LINE
  5
1BF
330
1F
100
AcDbEntity
  8
LC-001-100-D00-0
 62
     7
370
    50
100
AcDbLine
 10
87.202566
 20
550.697484
 30
0.0
 11
86.202564
 21
551.697484
 31
0.0
  0
LINE
  5
1C0
330
1F
100
AcDbEntity
  8
LC-001-100-D00-0
 62
     7
370
    50
100
AcDbLine
 10
86.202565
 20
543.697484
 30
0.0
 11
87.202565
 21
544.697484
 31
0.0
  0
LINE
  5
1C1
330
1F
100
AcDbEntity
  8
LC-001-100-D00-0
 62
     7
370
    50
100
AcDbLine
 10
87.202565
 20
544.697484
 30
0.0
 11
87.360405
 21
544.697484
 31
0.0
  0
LINE
  5
1C2
330
1F
100
AcDbEntity
  8
LC-001-100-D00-0
 62
     7
370
    50
100
AcDbLine
 10
93.844725
 20
544.697484
 30
0.0
 11
94.002565
 21
544.697484
 31
0.0
  0
LINE
  5
1C3
330
1F
100
AcDbEntity
  8
LC-001-100-D00-0
 62
     7
370
    50
100
AcDbLine
 10
95.002565
 20
543.697484
 30
0.0
 11
94.466783
 21
543.697484
 31
0.0
  0
LINE
  5
1C4
330
1F
100
AcDbEntity
  8
LC-001-100-D00-0
 62
     7
370
    50
100
AcDbLine
 10
86.738347
 20
543.697484
 30
0.0
 11
86.202565
 21
543.697484
 31
0.0
  0
LINE
  5
1C5
330
1F
100
AcDbEntity
  8
LC-001-100-D00-0
 62
     7
370
    50
100
AcDbLine
 10
87.202566
 20
550.697484
 30
0.0
 11
87.202565
 21
544.697484
 31
0.0
  0
LINE
  5
1C6
330
1F
100
AcDbEntity
  8
LC-001-100-D00-0
 62
     7
370
    50
100
AcDbLine
 10
84.957857
 20
545.886695
 30
0.0
 11
84.251719
 21
545.697483
 31
0.0
  0
ARC
  5
1C7
330
1F
100
AcDbEntity
  8
LC-001-100-D00-0
 62
     7
370
    50
100
AcDbCircle
 10
84.802565
 20
546.46625
 30
0.0
 40
0.5999999999998689
100
AcDbArc
 50
285.0
 51
0.0
  0
ARC
  5
1C8
330
1F
100
AcDbEntity
  8
LC-001-100-D00-0
 62
     7
370
    50
100
AcDbCircle
 10
84.802565
 20
548.928717
 30
0.0
 40
0.5999999999999091
100
AcDbArc
 50
0.0
 51
75.0
  0
LINE
  5
1C9
330
1F
100
AcDbEntity
  8
LC-001-100-D00-0
 62
     7
370
    50
100
AcDbLine
 10
84.251719
 20
549.697484
 30
0.0
 11
84.957857
 21
549.508273
 31
0.0
  0
LINE
  5
1CA
330
1F
100
AcDbEntity
  8
LC-001-100-D00-0
 62
     7
370
    50
100
AcDbLine
 10
84.251719
 20
551.697484
 30
0.0
 11
84.251719
 21
549.697484
 31
0.0
  0
LINE
  5
1CB
330
1F
100
AcDbEntity
  8
LC-001-100-D00-0
 62
     7
370
    50
100
AcDbLine
 10
84.251719
 20
545.697483
 30
0.0
 11
84.251719
 21
543.697484
 31
0.0
  0
LINE
  5
1CC
330
1F
100
AcDbEntity
  8
LC-001-100-D00-0
 62
     7
370
    50
100
AcDbLine
 10
84.251719
 20
551.697484
 30
0.0
 11
86.202564
 21
551.697484
 31
0.0
  0
LINE
  5
1CD
330
1F
100
AcDbEntity
  8
LC-001-100-D00-0
 62
     7
370
    50
100
AcDbLine
 10
84.251719
 20
543.697484
 30
0.0
 11
86.202565
 21
543.697484
 31
0.0
  0
LINE
  5
1CE
330
1F
100
AcDbEntity
  8
LC-001-100-D00-0
 62
     7
370
    50
100
AcDbLine
 10
96.953424
 20
551.697484
 30
0.0
 11
94.50257
 21
551.697484
 31
0.0
  0
LINE
  5
1CF
330
1F
100
AcDbEntity
  8
LC-001-100-D00-0
 62
     7
370
    50
100
AcDbLine
 10
94.50257
 20
551.697484
 30
0.0
 11
94.502565
 21
562.697484
 31
0.0
  0
LINE
  5
1D0
330
1F
100
AcDbEntity
  8
LC-001-100-D00-0
 62
     7
370
    50
100
AcDbLine
 10
94.502565
 20
562.697484
 30
0.0
 11
107.852565
 21
562.697484
 31
0.0
  0
ARC
  5
1D1
330
1F
100
AcDbEntity
  8
LC-001-100-D00-0
 62
     7
370
    50
100
AcDbCircle
 10
107.852565
 20
561.697484
 30
0.0
 40
1.0
100
AcDbArc
 50
0.0
 51
90.0
  0
LINE
  5
1D2
330
1F
100
AcDbEntity
  8
LC-001-100-D00-0
 62
     7
370
    50
100
AcDbLine
 10
108.852565
 20
561.697484
 30
0.0
 11
108.852567
 21
555.697484
 31
0.0
  0
LINE
  5
1D3
330
1F
100
AcDbEntity
  8
LC-001-100-D00-0
 62
     7
370
    50
100
AcDbLine
 10
105.852565
 20
555.697484
 30
0.0
 11
108.852567
 21
555.697484
 31
0.0
  0
LINE
  5
1D4
330
1F
100
AcDbEntity
  8
LC-001-100-D00-0
 62
     7
370
    50
100
AcDbLine
 10
105.852565
 20
555.697484
 30
0.0
 11
105.852561
 21
559.697484
 31
0.0
  0
LINE
  5
1D5
330
1F
100
AcDbEntity
  8
LC-001-100-D00-0
 62
     7
370
    50
100
AcDbLine
 10
101.352565
 20
559.697484
 30
0.0
 11
105.852561
 21
559.697484
 31
0.0
  0
ARC
  5
1D6
330
1F
100
AcDbEntity
  8
LC-001-100-D00-0
 62
     7
370
    50
100
AcDbCircle
 10
101.352565
 20
558.697484
 30
0.0
 40
0.9999999999997726
100
AcDbArc
 50
90.0
 51
180.0
  0
LINE
  5
1D7
330
1F
100
AcDbEntity
  8
LC-001-100-D00-0
 62
     7
370
    50
100
AcDbLine
 10
100.352565
 20
544.697484
 30
0.0
 11
100.352565
 21
558.697484
 31
0.0
  0
ARC
  5
1D8
330
1F
100
AcDbEntity
  8
LC-001-100-D00-0
 62
     7
370
    50
100
AcDbCircle
 10
99.352565
 20
544.697484
 30
0.0
 40
1.0
100
AcDbArc
 50
270.0
 51
0.0
  0
LINE
  5
1D9
330
1F
100
AcDbEntity
  8
LC-001-100-D00-0
 62
     7
370
    50
100
AcDbLine
 10
99.352565
 20
543.697484
 30
0.0
 11
96.953424
 21
543.697484
 31
0.0
  0
LINE
  5
1DA
330
1F
100
AcDbEntity
  8
LC-001-100-D00-0
 62
     7
370
    50
100
AcDbLine
 10
96.953424
 20
545.697483
 30
0.0
 11
96.953424
 21
543.697484
 31
0.0
  0
LINE
  5
1DB
330
1F
100
AcDbEntity
  8
LC-001-100-D00-0
 62
     7
370
    50
100
AcDbLine
 10
96.302565
 20
545.697484
 30
0.0
 11
96.953424
 21
545.697483
 31
0.0
  0
ARC
  5
1DC
330
1F
100
AcDbEntity
  8
LC-001-100-D00-0
 62
     7
370
    50
100
AcDbCircle
 10
96.302565
 20
546.197484
 30
0.0
 40
0.5000000000002274
100
AcDbArc
 50
180.0
 51
270.0
  0
LINE
  5
1DD
330
1F
100
AcDbEntity
  8
LC-001-100-D00-0
 62
     7
370
    50
100
AcDbLine
 10
95.802565
 20
549.197484
 30
0.0
 11
95.802565
 21
546.197484
 31
0.0
  0
ARC
  5
1DE
330
1F
100
AcDbEntity
  8
LC-001-100-D00-0
 62
     7
370
    50
100
AcDbCircle
 10
96.302565
 20
549.197484
 30
0.0
 40
0.5
100
AcDbArc
 50
90.0
 51
180.0
  0
LINE
  5
1DF
330
1F
100
AcDbEntity
  8
LC-001-100-D00-0
 62
     7
370
    50
100
AcDbLine
 10
96.953424
 20
549.697484
 30
0.0
 11
96.302565
 21
549.697484
 31
0.0
  0
LINE
  5
1E0
330
1F
100
AcDbEntity
  8
LC-001-100-D00-0
 62
     7
370
    50
100
AcDbLine
 10
96.953424
 20
551.697484
 30
0.0
 11
96.953424
 21
549.697484
 31
0.0
  0
ARC
  5
1E1
330
1F
100
AcDbEntity
  8
LC-001-100-D00-0
 62
     7
370
    50
100
AcDbCircle
 10
79.852565
 20
558.697484
 30
0.0
 40
0.9999999999998863
100
AcDbArc
 50
0.0
 51
90.0
  0
ARC
  5
1E2
330
1F
100
AcDbEntity
  8
LC-001-100-D00-0
 62
     7
370
    50
100
AcDbCircle
 10
81.852565
 20
544.697484
 30
0.0
 40
1.000000000000114
100
AcDbArc
 50
180.0
 51
270.0
  0
LINE
  5
1E3
330
1F
100
AcDbEntity
  8
LC-001-100-D00-0
 62
     7
370
    50
100
AcDbLine
 10
80.852565
 20
558.697484
 30
0.0
 11
80.852565
 21
544.697484
 31
0.0
  0
LINE
  5
1E4
330
1F
100
AcDbEntity
  8
LC-001-100-D00-0
 62
     7
370
    50
100
AcDbLine
 10
85.402565
 20
546.197484
 30
0.0
 11
85.402565
 21
549.197484
 31
0.0
  0
LINE
  5
1E5
330
1F
100
AcDbEntity
  8
LC-001-100-D00-0
 62
     7
370
    50
100
AcDbLine
 10
86.702565
 20
562.697484
 30
0.0
 11
86.702572
 21
551.697484
 31
0.0
  0
LINE
  5
1E6
330
1F
100
AcDbEntity
  8
LC-001-100-D00-0
 62
     7
370
    50
100
AcDbLine
 10
86.702565
 20
562.697484
 30
0.0
 11
94.502565
 21
562.697484
 31
0.0
  0
LINE
  5
1E7
330
1F
100
AcDbEntity
  8
LC-001-100-D00-0
 62
     7
370
    50
100
AcDbLine
 10
84.251719
 20
545.697483
 30
0.0
 11
84.251719
 21
543.697484
 31
0.0
  0
LINE
  5
1E8
330
1F
100
AcDbEntity
  8
LC-001-100-D00-0
 62
     7
370
    50
100
AcDbLine
 10
84.251719
 20
551.697484
 30
0.0
 11
84.251719
 21
549.697484
 31
0.0
  0
ARC
  5
1E9
330
1F
100
AcDbEntity
  8
LC-001-100-D00-0
 62
     7
370
    50
100
AcDbCircle
 10
84.902565
 20
546.197484
 30
0.0
 40
0.5
100
AcDbArc
 50
270.0
 51
0.0
  0
LINE
  5
1EA
330
1F
100
AcDbEntity
  8
LC-001-100-D00-0
 62
     7
370
    50
100
AcDbLine
 10
84.251719
 20
545.697483
 30
0.0
 11
84.902565
 21
545.697484
 31
0.0
  0
LINE
  5
1EB
330
1F
100
AcDbEntity
  8
LC-001-100-D00-0
 62
     7
370
    50
100
AcDbLine
 10
75.352567
 20
559.697484
 30
0.0
 11
75.352565
 21
555.697484
 31
0.0
  0
LINE
  5
1EC
330
1F
100
AcDbEntity
  8
LC-001-100-D00-0
 62
     7
370
    50
100
AcDbLine
 10
72.35256
 20
555.697484
 30
0.0
 11
72.352565
 21
561.697484
 31
0.0
  0
ARC
  5
1ED
330
1F
100
AcDbEntity
  8
LC-001-100-D00-0
 62
     7
370
    50
100
AcDbCircle
 10
73.352565
 20
561.697484
 30
0.0
 40
1.0
100
AcDbArc
 50
90.0
 51
180.0
  0
LINE
  5
1EE
330
1F
100
AcDbEntity
  8
LC-001-100-D00-0
 62
     7
370
    50
100
AcDbLine
 10
84.902565
 20
549.697484
 30
0.0
 11
84.251719
 21
549.697484
 31
0.0
  0
ARC
  5
1EF
330
1F
100
AcDbEntity
  8
LC-001-100-D00-0
 62
     7
370
    50
100
AcDbCircle
 10
84.902565
 20
549.197484
 30
0.0
 40
0.5
100
AcDbArc
 50
0.0
 51
90.0
  0
LINE
  5
1F0
330
1F
100
AcDbEntity
  8
LC-001-100-D00-0
 62
     7
370
    50
100
AcDbLine
 10
86.702572
 20
551.697484
 30
0.0
 11
84.251719
 21
551.697484
 31
0.0
  0
LINE
  5
1F1
330
1F
100
AcDbEntity
  8
LC-001-100-D00-0
 62
     7
370
    50
100
AcDbLine
 10
84.251719
 20
543.697484
 30
0.0
 11
81.852565
 21
543.697484
 31
0.0
  0
LINE
  5
1F2
330
1F
100
AcDbEntity
  8
LC-001-100-D00-0
 62
     7
370
    50
100
AcDbLine
 10
75.352567
 20
559.697484
 30
0.0
 11
79.852565
 21
559.697484
 31
0.0
  0
LINE
  5
1F3
330
1F
100
AcDbEntity
  8
LC-001-100-D00-0
 62
     7
370
    50
100
AcDbLine
 10
73.352565
 20
562.697484
 30
0.0
 11
86.702565
 21
562.697484
 31
0.0
  0
LINE
  5
1F4
330
1F
100
AcDbEntity
  8
LC-001-100-D00-0
 62
     7
370
    50
100
AcDbLine
 10
72.35256
 20
555.697484
 30
0.0
 11
75.352565
 21
555.697484
 31
0.0
  0
LINE
  5
1F5
330
1F
100
AcDbEntity
  8
LC-001-100-D00-0
 62
     7
370
    50
100
AcDbLine
 10
103.852565
 20
555.697484
 30
0.0
 11
105.852565
 21
555.697484
 31
0.0
  0
LINE
  5
1F6
330
1F
100
AcDbEntity
  8
LC-001-100-D00-0
 62
     7
370
    50
100
AcDbLine
 10
75.352565
 20
555.697484
 30
0.0
 11
77.352565
 21
555.697484
 31
0.0
  0
LINE
  5
1F7
330
1F
100
AcDbEntity
  8
LC-001-100-D00-0
 62
     7
370
    50
100
AcDbLine
 10
77.352565
 20
555.697484
 30
0.0
 11
80.85257
 21
555.697484
 31
0.0
  0
LINE
  5
1F8
330
1F
100
AcDbEntity
  8
LC-001-100-D00-0
 62
     7
370
    50
100
AcDbLine
 10
100.352572
 20
555.697484
 30
0.0
 11
103.852565
 21
555.697484
 31
0.0
  0
LINE
  5
1F9
330
1F
100
AcDbEntity
  8
LC-001-100-D00-0
 62
     7
370
    50
100
AcDbLine
 10
-24.197435
 20
546.46625
 30
0.0
 11
-24.197435
 21
548.928717
 31
0.0
  0
ARC
  5
1FA
330
1F
100
AcDbEntity
  8
LC-001-100-D00-0
 62
     7
370
    50
100
AcDbCircle
 10
-23.597435
 20
546.46625
 30
0.0
 40
0.6000000000001364
100
AcDbArc
 50
180.0
 51
255.0
  0
LINE
  5
1FB
330
1F
100
AcDbEntity
  8
LC-001-100-D00-0
 62
     7
370
    50
100
AcDbLine
 10
-23.046581
 20
545.697483
 30
0.0
 11
-23.752726
 21
545.886695
 31
0.0
  0
LINE
  5
1FC
330
1F
100
AcDbEntity
  8
LC-001-100-D00-0
 62
     7
370
    50
100
AcDbLine
 10
-23.046581
 20
545.697483
 30
0.0
 11
-23.046581
 21
543.697484
 31
0.0
  0
LINE
  5
1FD
330
1F
100
AcDbEntity
  8
LC-001-100-D00-0
 62
     7
370
    50
100
AcDbLine
 10
-24.997435
 20
543.697484
 30
0.0
 11
-23.046581
 21
543.697484
 31
0.0
  0
LINE
  5
1FE
330
1F
100
AcDbEntity
  8
LC-001-100-D00-0
 62
     7
370
    50
100
AcDbLine
 10
-25.997435
 20
544.697484
 30
0.0
 11
-24.997435
 21
543.697484
 31
0.0
  0
LINE
  5
1FF
330
1F
100
AcDbEntity
  8
LC-001-100-D00-0
 62
     7
370
    50
100
AcDbLine
 10
-25.997435
 20
544.697484
 30
0.0
 11
-25.997435
 21
550.697484
 31
0.0
  0
LINE
  5
200
330
1F
100
AcDbEntity
  8
LC-001-100-D00-0
 62
     7
370
    50
100
AcDbLine
 10
-24.997433
 20
551.697484
 30
0.0
 11
-25.997435
 21
550.697484
 31
0.0
  0
LINE
  5
201
330
1F
100
AcDbEntity
  8
LC-001-100-D00-0
 62
     7
370
    50
100
AcDbLine
 10
-24.997433
 20
551.697484
 30
0.0
 11
-23.046581
 21
551.697484
 31
0.0
  0
LINE
  5
202
330
1F
100
AcDbEntity
  8
LC-001-100-D00-0
 62
     7
370
    50
100
AcDbLine
 10
-23.046581
 20
551.697484
 30
0.0
 11
-23.046581
 21
549.697484
 31
0.0
  0
LINE
  5
203
330
1F
100
AcDbEntity
  8
LC-001-100-D00-0
 62
     7
370
    50
100
AcDbLine
 10
-23.752726
 20
549.508273
 30
0.0
 11
-23.046581
 21
549.697484
 31
0.0
  0
ARC
  5
204
330
1F
100
AcDbEntity
  8
LC-001-100-D00-0
 62
     7
370
    50
100
AcDbCircle
 10
-23.597435
 20
548.928717
 30
0.0
 40
0.6000000000001474
100
AcDbArc
 50
105.0
 51
180.0
  0
LINE
  5
205
330
1F
100
AcDbEntity
  8
LC-001-100-D00-0
 62
     7
370
    50
100
AcDbLine
 10
-32.797431
 20
550.697484
 30
0.0
 11
-33.797433
 21
551.697484
 31
0.0
  0
LINE
  5
206
330
1F
100
AcDbEntity
  8
LC-001-100-D00-0
 62
     7
370
    50
100
AcDbLine
 10
-33.797435
 20
543.697484
 30
0.0
 11
-32.797435
 21
544.697484
 31
0.0
  0
LINE
  5
207
330
1F
100
AcDbEntity
  8
LC-001-100-D00-0
 62
     7
370
    50
100
AcDbLine
 10
-32.797435
 20
544.697484
 30
0.0
 11
-32.639595
 21
544.697484
 31
0.0
  0
LINE
  5
208
330
1F
100
AcDbEntity
  8
LC-001-100-D00-0
 62
     7
370
    50
100
AcDbLine
 10
-26.155275
 20
544.697484
 30
0.0
 11
-25.997435
 21
544.697484
 31
0.0
  0
LINE
  5
209
330
1F
100
AcDbEntity
  8
LC-001-100-D00-0
 62
     7
370
    50
100
AcDbLine
 10
-24.997435
 20
543.697484
 30
0.0
 11
-25.533217
 21
543.697484
 31
0.0
  0
LINE
  5
20A
330
1F
100
AcDbEntity
  8
LC-001-100-D00-0
 62
     7
370
    50
100
AcDbLine
 10
-33.261653
 20
543.697484
 30
0.0
 11
-33.797435
 21
543.697484
 31
0.0
  0
LINE
  5
20B
330
1F
100
AcDbEntity
  8
LC-001-100-D00-0
 62
     7
370
    50
100
AcDbLine
 10
-32.797431
 20
550.697484
 30
0.0
 11
-32.797435
 21
544.697484
 31
0.0
  0
LINE
  5
20C
330
1F
100
AcDbEntity
  8
LC-001-100-D00-0
 62
     7
370
    50
100
AcDbLine
 10
-34.597435
 20
548.928717
 30
0.0
 11
-34.597435
 21
546.46625
 31
0.0
  0
LINE
  5
20D
330
1F
100
AcDbEntity
  8
LC-001-100-D00-0
 62
     7
370
    50
100
AcDbLine
 10
-35.748286
 20
545.697483
 30
0.0
 11
-35.748286
 21
543.697484
 31
0.0
  0
LINE
  5
20E
330
1F
100
AcDbEntity
  8
LC-001-100-D00-0
 62
     7
370
    50
100
AcDbLine
 10
-35.042143
 20
545.886695
 30
0.0
 11
-35.748286
 21
545.697483
 31
0.0
  0
ARC
  5
20F
330
1F
100
AcDbEntity
  8
LC-001-100-D00-0
 62
     7
370
    50
100
AcDbCircle
 10
-35.197435
 20
546.46625
 30
0.0
 40
0.600000000000118
100
AcDbArc
 50
285.0
 51
0.0
  0
ARC
  5
210
330
1F
100
AcDbEntity
  8
LC-001-100-D00-0
 62
     7
370
    50
100
AcDbCircle
 10
-35.197435
 20
548.928717
 30
0.0
 40
0.6000000000001364
100
AcDbArc
 50
0.0
 51
75.0
  0
LINE
  5
211
330
1F
100
AcDbEntity
  8
LC-001-100-D00-0
 62
     7
370
    50
100
AcDbLine
 10
-35.748286
 20
549.697484
 30
0.0
 11
-35.042143
 21
549.508273
 31
0.0
  0
LINE
  5
212
330
1F
100
AcDbEntity
  8
LC-001-100-D00-0
 62
     7
370
    50
100
AcDbLine
 10
-35.748286
 20
551.697484
 30
0.0
 11
-35.748286
 21
549.697484
 31
0.0
  0
LINE
  5
213
330
1F
100
AcDbEntity
  8
LC-001-100-D00-0
 62
     7
370
    50
100
AcDbLine
 10
-35.748286
 20
543.697484
 30
0.0
 11
-33.797435
 21
543.697484
 31
0.0
  0
LINE
  5
214
330
1F
100
AcDbEntity
  8
LC-001-100-D00-0
 62
     7
370
    50
100
AcDbLine
 10
-35.748286
 20
551.697484
 30
0.0
 11
-33.797433
 21
551.697484
 31
0.0
  0
LINE
  5
215
330
1F
100
AcDbEntity
  8
LC-001-100-D00-0
 62
     7
370
    50
100
AcDbLine
 10
-23.046581
 20
551.697484
 30
0.0
 11
-25.497434
 21
551.697484
 31
0.0
  0
LINE
  5
216
330
1F
100
AcDbEntity
  8
LC-001-100-D00-0
 62
     7
370
    50
100
AcDbLine
 10
-25.497434
 20
551.697484
 30
0.0
 11
-25.497435
 21
562.697484
 31
0.0
  0
LINE
  5
217
330
1F
100
AcDbEntity
  8
LC-001-100-D00-0
 62
     7
370
    50
100
AcDbLine
 10
-25.497435
 20
562.697484
 30
0.0
 11
-12.147435
 21
562.697484
 31
0.0
  0
ARC
  5
218
330
1F
100
AcDbEntity
  8
LC-001-100-D00-0
 62
     7
370
    50
100
AcDbCircle
 10
-12.147435
 20
561.697484
 30
0.0
 40
1.000000000000114
100
AcDbArc
 50
0.0
 51
90.0
  0
LINE
  5
219
330
1F
100
AcDbEntity
  8
LC-001-100-D00-0
 62
     7
370
    50
100
AcDbLine
 10
-11.147435
 20
561.697484
 30
0.0
 11
-11.147437
 21
555.697484
 31
0.0
  0
LINE
  5
21A
330
1F
100
AcDbEntity
  8
LC-001-100-D00-0
 62
     7
370
    50
100
AcDbLine
 10
-14.147435
 20
555.697484
 30
0.0
 11
-11.147437
 21
555.697484
 31
0.0
  0
LINE
  5
21B
330
1F
100
AcDbEntity
  8
LC-001-100-D00-0
 62
     7
370
    50
100
AcDbLine
 10
-14.147435
 20
555.697484
 30
0.0
 11
-14.147436
 21
559.697484
 31
0.0
  0
LINE
  5
21C
330
1F
100
AcDbEntity
  8
LC-001-100-D00-0
 62
     7
370
    50
100
AcDbLine
 10
-18.647435
 20
559.697484
 30
0.0
 11
-14.147436
 21
559.697484
 31
0.0
  0
ARC
  5
21D
330
1F
100
AcDbEntity
  8
LC-001-100-D00-0
 62
     7
370
    50
100
AcDbCircle
 10
-18.647435
 20
558.697484
 30
0.0
 40
1.0
100
AcDbArc
 50
90.0
 51
180.0
  0
LINE
  5
21E
330
1F
100
AcDbEntity
  8
LC-001-100-D00-0
 62
     7
370
    50
100
AcDbLine
 10
-19.647435
 20
544.697484
 30
0.0
 11
-19.647435
 21
558.697484
 31
0.0
  0
ARC
  5
21F
330
1F
100
AcDbEntity
  8
LC-001-100-D00-0
 62
     7
370
    50
100
AcDbCircle
 10
-20.647435
 20
544.697484
 30
0.0
 40
1.0
100
AcDbArc
 50
270.0
 51
0.0
  0
LINE
  5
220
330
1F
100
AcDbEntity
  8
LC-001-100-D00-0
 62
     7
370
    50
100
AcDbLine
 10
-20.647435
 20
543.697484
 30
0.0
 11
-23.046581
 21
543.697484
 31
0.0
  0
LINE
  5
221
330
1F
100
AcDbEntity
  8
LC-001-100-D00-0
 62
     7
370
    50
100
AcDbLine
 10
-23.046581
 20
545.697483
 30
0.0
 11
-23.046581
 21
543.697484
 31
0.0
  0
LINE
  5
222
330
1F
100
AcDbEntity
  8
LC-001-100-D00-0
 62
     7
370
    50
100
AcDbLine
 10
-23.697435
 20
545.697484
 30
0.0
 11
-23.046581
 21
545.697483
 31
0.0
  0
ARC
  5
223
330
1F
100
AcDbEntity
  8
LC-001-100-D00-0
 62
     7
370
    50
100
AcDbCircle
 10
-23.697435
 20
546.197484
 30
0.0
 40
0.5
100
AcDbArc
 50
180.0
 51
270.0
  0
LINE
  5
224
330
1F
100
AcDbEntity
  8
LC-001-100-D00-0
 62
     7
370
    50
100
AcDbLine
 10
-24.197435
 20
549.197484
 30
0.0
 11
-24.197435
 21
546.197484
 31
0.0
  0
ARC
  5
225
330
1F
100
AcDbEntity
  8
LC-001-100-D00-0
 62
     7
370
    50
100
AcDbCircle
 10
-23.697435
 20
549.197484
 30
0.0
 40
0.5
100
AcDbArc
 50
90.0
 51
180.0
  0
LINE
  5
226
330
1F
100
AcDbEntity
  8
LC-001-100-D00-0
 62
     7
370
    50
100
AcDbLine
 10
-23.046581
 20
549.697484
 30
0.0
 11
-23.697435
 21
549.697484
 31
0.0
  0
LINE
  5
227
330
1F
100
AcDbEntity
  8
LC-001-100-D00-0
 62
     7
370
    50
100
AcDbLine
 10
-23.046581
 20
551.697484
 30
0.0
 11
-23.046581
 21
549.697484
 31
0.0
  0
LINE
  5
228
330
1F
100
AcDbEntity
  8
LC-001-100-D00-0
 62
     7
370
    50
100
AcDbLine
 10
-33.297435
 20
562.697484
 30
0.0
 11
-33.297432
 21
551.697484
 31
0.0
  0
LINE
  5
229
330
1F
100
AcDbEntity
  8
LC-001-100-D00-0
 62
     7
370
    50
100
AcDbLine
 10
-33.297435
 20
562.697484
 30
0.0
 11
-25.497435
 21
562.697484
 31
0.0
  0
ARC
  5
22A
330
1F
100
AcDbEntity
  8
LC-001-100-D00-0
 62
     7
370
    50
100
AcDbCircle
 10
-40.147435
 20
558.697484
 30
0.0
 40
1.000000000000114
100
AcDbArc
 50
0.0
 51
90.0
  0
ARC
  5
22B
330
1F
100
AcDbEntity
  8
LC-001-100-D00-0
 62
     7
370
    50
100
AcDbCircle
 10
-38.147435
 20
544.697484
 30
0.0
 40
0.9999999999998863
100
AcDbArc
 50
180.0
 51
270.0
  0
LINE
  5
22C
330
1F
100
AcDbEntity
  8
LC-001-100-D00-0
 62
     7
370
    50
100
AcDbLine
 10
-39.147435
 20
558.697484
 30
0.0
 11
-39.147435
 21
544.697484
 31
0.0
  0
LINE
  5
22D
330
1F
100
AcDbEntity
  8
LC-001-100-D00-0
 62
     7
370
    50
100
AcDbLine
 10
-34.597435
 20
546.197484
 30
0.0
 11
-34.597435
 21
549.197484
 31
0.0
  0
ARC
  5
22E
330
1F
100
AcDbEntity
  8
LC-001-100-D00-0
 62
     7
370
    50
100
AcDbCircle
 10
-35.097435
 20
546.197484
 30
0.0
 40
0.5
100
AcDbArc
 50
270.0
 51
0.0
  0
LINE
  5
22F
330
1F
100
AcDbEntity
  8
LC-001-100-D00-0
 62
     7
370
    50
100
AcDbLine
 10
-35.748286
 20
545.697483
 30
0.0
 11
-35.097435
 21
545.697484
 31
0.0
  0
LINE
  5
230
330
1F
100
AcDbEntity
  8
LC-001-100-D00-0
 62
     7
370
    50
100
AcDbLine
 10
-35.748286
 20
545.697483
 30
0.0
 11
-35.748286
 21
543.697484
 31
0.0
  0
LINE
  5
231
330
1F
100
AcDbEntity
  8
LC-001-100-D00-0
 62
     7
370
    50
100
AcDbLine
 10
-44.647438
 20
559.697484
 30
0.0
 11
-44.647435
 21
555.697484
 31
0.0
  0
LINE
  5
232
330
1F
100
AcDbEntity
  8
LC-001-100-D00-0
 62
     7
370
    50
100
AcDbLine
 10
-47.647437
 20
555.697484
 30
0.0
 11
-47.647435
 21
561.697484
 31
0.0
  0
ARC
  5
233
330
1F
100
AcDbEntity
  8
LC-001-100-D00-0
 62
     7
370
    50
100
AcDbCircle
 10
-46.647435
 20
561.697484
 30
0.0
 40
1.000000000000227
100
AcDbArc
 50
90.0
 51
180.0
  0
LINE
  5
234
330
1F
100
AcDbEntity
  8
LC-001-100-D00-0
 62
     7
370
    50
100
AcDbLine
 10
-35.748286
 20
551.697484
 30
0.0
 11
-35.748286
 21
549.697484
 31
0.0
  0
LINE
  5
235
330
1F
100
AcDbEntity
  8
LC-001-100-D00-0
 62
     7
370
    50
100
AcDbLine
 10
-35.097435
 20
549.697484
 30
0.0
 11
-35.748286
 21
549.697484
 31
0.0
  0
ARC
  5
236
330
1F
100
AcDbEntity
  8
LC-001-100-D00-0
 62
     7
370
    50
100
AcDbCircle
 10
-35.097435
 20
549.197484
 30
0.0
 40
0.5
100
AcDbArc
 50
0.0
 51
90.0
  0
LINE
  5
237
330
1F
100
AcDbEntity
  8
LC-001-100-D00-0
 62
     7
370
    50
100
AcDbLine
 10
-35.748286
 20
543.697484
 30
0.0
 11
-38.147435
 21
543.697484
 31
0.0
  0
LINE
  5
238
330
1F
100
AcDbEntity
  8
LC-001-100-D00-0
 62
     7
370
    50
100
AcDbLine
 10
-33.297432
 20
551.697484
 30
0.0
 11
-35.748286
 21
551.697484
 31
0.0
  0
LINE
  5
239
330
1F
100
AcDbEntity
  8
LC-001-100-D00-0
 62
     7
370
    50
100
AcDbLine
 10
-44.647438
 20
559.697484
 30
0.0
 11
-40.147435
 21
559.697484
 31
0.0
  0
LINE
  5
23A
330
1F
100
AcDbEntity
  8
LC-001-100-D00-0
 62
     7
370
    50
100
AcDbLine
 10
-46.647435
 20
562.697484
 30
0.0
 11
-33.297435
 21
562.697484
 31
0.0
  0
LINE
  5
23B
330
1F
100
AcDbEntity
  8
LC-001-100-D00-0
 62
     7
370
    50
100
AcDbLine
 10
-47.647437
 20
555.697484
 30
0.0
 11
-44.647435
 21
555.697484
 31
0.0
  0
LINE
  5
23C
330
1F
100
AcDbEntity
  8
LC-001-100-D00-0
 62
     7
370
    50
100
AcDbLine
 10
-16.147435
 20
555.697484
 30
0.0
 11
-14.147435
 21
555.697484
 31
0.0
  0
LINE
  5
23D
330
1F
100
AcDbEntity
  8
LC-001-100-D00-0
 62
     7
370
    50
100
AcDbLine
 10
-44.647435
 20
555.697484
 30
0.0
 11
-42.647435
 21
555.697484
 31
0.0
  0
LINE
  5
23E
330
1F
100
AcDbEntity
  8
LC-001-100-D00-0
 62
     7
370
    50
100
AcDbLine
 10
-42.647435
 20
555.697484
 30
0.0
 11
-39.147435
 21
555.697484
 31
0.0
  0
LINE
  5
23F
330
1F
100
AcDbEntity
  8
LC-001-100-D00-0
 62
     7
370
    50
100
AcDbLine
 10
-19.647432
 20
555.697484
 30
0.0
 11
-16.147435
 21
555.697484
 31
0.0
  0
LINE
  5
240
330
1F
100
AcDbEntity
  8
LC-001-100-D00-0
 62
     7
370
    50
100
AcDbLine
 10
-70.897436
 20
532.854567
 30
0.0
 11
-70.607518
 21
532.763485
 31
0.0
  0
LINE
  5
241
330
1F
100
AcDbEntity
  8
LC-001-100-D00-0
 62
     7
370
    50
100
AcDbLine
 10
-72.085049
 20
530.712055
 30
0.0
 11
-70.897436
 21
532.854567
 31
0.0
  0
ARC
  5
242
330
1F
100
AcDbEntity
  8
LC-001-100-D00-0
 62
     7
370
    50
100
AcDbCircle
 10
-72.347435
 20
530.857498
 30
0.0
 40
0.3000000000000682
100
AcDbArc
 50
180.0
 51
331.0
  0
LINE
  5
243
330
1F
100
AcDbEntity
  8
LC-001-100-D00-0
 62
     7
370
    50
100
AcDbLine
 10
-72.647435
 20
533.397738
 30
0.0
 11
-72.647435
 21
530.857498
 31
0.0
  0
ARC
  5
244
330
1F
100
AcDbEntity
  8
LC-001-100-D00-0
 62
     7
370
    50
100
AcDbCircle
 10
-70.647435
 20
533.397738
 30
0.0
 40
1.999999999999918
100
AcDbArc
 50
113.962489
 51
180.0
  0
LINE
  5
245
330
1F
100
AcDbEntity
  8
LC-001-100-D00-0
 62
     7
370
    50
100
AcDbLine
 10
-70.591359
 20
535.611295
 30
0.0
 11
-71.459712
 21
535.225361
 31
0.0
  0
ARC
  5
246
330
1F
100
AcDbEntity
  8
LC-001-100-D00-0
 62
     7
370
    50
100
AcDbCircle
 10
-70.18522
 20
534.697484
 30
0.0
 40
1.0
100
AcDbArc
 50
90.0
 51
113.962489
  0
LINE
  5
247
330
1F
100
AcDbEntity
  8
LC-001-100-D00-0
 62
     7
370
    50
100
AcDbLine
 10
-64.397437
 20
535.697483
 30
0.0
 11
-64.397437
 21
531.697484
 31
0.0
  0
LINE
  5
248
330
1F
100
AcDbEntity
  8
LC-001-100-D00-0
 62
     7
370
    50
100
AcDbLine
 10
-70.397435
 20
532.477277
 30
0.0
 11
-70.397435
 21
531.697484
 31
0.0
  0
ARC
  5
249
330
1F
100
AcDbEntity
  8
LC-001-100-D00-0
 62
     7
370
    50
100
AcDbCircle
 10
-70.697435
 20
532.477277
 30
0.0
 40
0.3000000000000682
100
AcDbArc
 50
0.0
 51
72.558995
  0
LINE
  5
24A
330
1F
100
AcDbEntity
  8
LC-001-100-D00-0
 62
     7
370
    50
100
AcDbLine
 10
-64.397437
 20
535.697483
 30
0.0
 11
-70.18522
 21
535.697484
 31
0.0
  0
LINE
  5
24B
330
1F
100
AcDbEntity
  8
LC-001-100-D00-0
 62
     7
370
    50
100
AcDbLine
 10
-64.397437
 20
531.697484
 30
0.0
 11
-70.397435
 21
531.697484
 31
0.0
  0
LINE
  5
24C
330
1F
100
AcDbEntity
  8
LC-001-100-D00-0
 62
     7
370
    50
100
AcDbLine
 10
-70.397435
 20
531.697484
 30
0.0
 11
-71.538817
 21
531.697484
 31
0.0
  0
LINE
  5
24D
330
1F
100
AcDbEntity
  8
LC-001-100-D00-0
 62
     7
370
    50
100
AcDbLine
 10
-70.947923
 20
532.763485
 30
0.0
 11
-70.607518
 21
532.763485
 31
0.0
  0
LINE
  5
24E
330
1F
100
AcDbEntity
  8
LC-001-100-D00-0
 62
     7
370
    50
100
AcDbLine
 10
-188.397435
 20
531.697484
 30
0.0
 11
-188.397435
 21
532.477277
 31
0.0
  0
LINE
  5
24F
330
1F
100
AcDbEntity
  8
LC-001-100-D00-0
 62
     7
370
    50
100
AcDbLine
 10
-187.256053
 20
531.697484
 30
0.0
 11
-188.397435
 21
531.697484
 31
0.0
  0
LINE
  5
250
330
1F
100
AcDbEntity
  8
LC-001-100-D00-0
 62
     7
370
    50
100
AcDbLine
 10
-187.897434
 20
532.854567
 30
0.0
 11
-186.709821
 21
530.712055
 31
0.0
  0
LINE
  5
251
330
1F
100
AcDbEntity
  8
LC-001-100-D00-0
 62
     7
370
    50
100
AcDbLine
 10
-188.187352
 20
532.763485
 30
0.0
 11
-187.846947
 21
532.763485
 31
0.0
  0
LINE
  5
252
330
1F
100
AcDbEntity
  8
LC-001-100-D00-0
 62
     7
370
    50
100
AcDbLine
 10
-188.187352
 20
532.763485
 30
0.0
 11
-187.897434
 21
532.854567
 31
0.0
  0
ARC
  5
253
330
1F
100
AcDbEntity
  8
LC-001-100-D00-0
 62
     7
370
    50
100
AcDbCircle
 10
-186.447435
 20
530.857498
 30
0.0
 40
0.3000000000000423
100
AcDbArc
 50
209.0
 51
0.0
  0
LINE
  5
254
330
1F
100
AcDbEntity
  8
LC-001-100-D00-0
 62
     7
370
    50
100
AcDbLine
 10
-186.147435
 20
530.857498
 30
0.0
 11
-186.147435
 21
533.397738
 31
0.0
  0
ARC
  5
255
330
1F
100
AcDbEntity
  8
LC-001-100-D00-0
 62
     7
370
    50
100
AcDbCircle
 10
-188.147435
 20
533.397738
 30
0.0
 40
2.000000000000227
100
AcDbArc
 50
0.0
 51
66.037511
  0
ARC
  5
256
330
1F
100
AcDbEntity
  8
LC-001-100-D00-0
 62
     7
370
    50
100
AcDbCircle
 10
-188.097435
 20
532.477277
 30
0.0
 40
0.3000000000000931
100
AcDbArc
 50
107.441005
 51
180.0
  0
LINE
  5
257
330
1F
100
AcDbEntity
  8
LC-001-100-D00-0
 62
     7
370
    50
100
AcDbLine
 10
-187.335158
 20
535.225361
 30
0.0
 11
-188.203511
 21
535.611295
 31
0.0
  0
ARC
  5
258
330
1F
100
AcDbEntity
  8
LC-001-100-D00-0
 62
     7
370
    50
100
AcDbCircle
 10
-188.609649
 20
534.697484
 30
0.0
 40
1.000000000000167
100
AcDbArc
 50
66.037511
 51
90.0
  0
LINE
  5
259
330
1F
100
AcDbEntity
  8
LC-001-100-D00-0
 62
     7
370
    50
100
AcDbLine
 10
-194.397433
 20
531.697484
 30
0.0
 11
-194.397433
 21
535.697483
 31
0.0
  0
LINE
  5
25A
330
1F
100
AcDbEntity
  8
LC-001-100-D00-0
 62
     7
370
    50
100
AcDbLine
 10
-188.609649
 20
535.697484
 30
0.0
 11
-194.397433
 21
535.697483
 31
0.0
  0
LINE
  5
25B
330
1F
100
AcDbEntity
  8
LC-001-100-D00-0
 62
     7
370
    50
100
AcDbLine
 10
-188.397435
 20
531.697484
 30
0.0
 11
-194.397433
 21
531.697484
 31
0.0
  0
LINE
  5
25C
330
1F
100
AcDbEntity
  8
LC-001-100-D00-0
 62
     7
370
    50
100
AcDbLine
 10
-55.397434
 20
535.697483
 30
0.0
 11
-55.397434
 21
511.947485
 31
0.0
  0
LINE
  5
25D
330
1F
100
AcDbEntity
  8
LC-001-100-D00-0
 62
     7
370
    50
100
AcDbLine
 10
-58.397433
 20
532.697484
 30
0.0
 11
-58.397435
 21
511.947484
 31
0.0
  0
LINE
  5
25E
330
1F
100
AcDbEntity
  8
LC-001-100-D00-0
 62
     7
370
    50
100
AcDbLine
 10
-61.397431
 20
532.697484
 30
0.0
 11
-58.397433
 21
532.697484
 31
0.0
  0
LINE
  5
25F
330
1F
100
AcDbEntity
  8
LC-001-100-D00-0
 62
     7
370
    50
100
AcDbLine
 10
-61.397431
 20
532.697484
 30
0.0
 11
-61.397431
 21
528.697482
 31
0.0
  0
LINE
  5
260
330
1F
100
AcDbEntity
  8
LC-001-100-D00-0
 62
     7
370
    50
100
AcDbLine
 10
-67.397435
 20
528.697484
 30
0.0
 11
-61.397431
 21
528.697482
 31
0.0
  0
LINE
  5
261
330
1F
100
AcDbEntity
  8
LC-001-100-D00-0
 62
     7
370
    50
100
AcDbLine
 10
-67.397436
 20
531.697484
 30
0.0
 11
-67.397435
 21
528.697484
 31
0.0
  0
LINE
  5
262
330
1F
100
AcDbEntity
  8
LC-001-100-D00-0
 62
     7
370
    50
100
AcDbLine
 10
-64.397437
 20
531.697484
 30
0.0
 11
-67.397436
 21
531.697484
 31
0.0
  0
LINE
  5
263
330
1F
100
AcDbEntity
  8
LC-001-100-D00-0
 62
     7
370
    50
100
AcDbLine
 10
-64.397437
 20
531.697484
 30
0.0
 11
-64.397437
 21
535.697483
 31
0.0
  0
LINE
  5
264
330
1F
100
AcDbEntity
  8
LC-001-100-D00-0
 62
     7
370
    50
100
AcDbLine
 10
-55.397434
 20
535.697483
 30
0.0
 11
-64.397437
 21
535.697483
 31
0.0
  0
LINE
  5
265
330
1F
100
AcDbEntity
  8
LC-001-100-D00-0
 62
     7
370
    50
100
AcDbLine
 10
-58.397435
 20
511.947484
 30
0.0
 11
-55.397434
 21
511.947485
 31
0.0
  0
LINE
  5
266
330
1F
100
AcDbEntity
  8
LC-001-100-D00-0
 62
     7
370
    50
100
AcDbLine
 10
-79.097027
 20
511.947484
 30
0.0
 11
-58.397435
 21
511.947484
 31
0.0
  0
LINE
  5
267
330
1F
100
AcDbEntity
  8
LC-001-100-D00-0
 62
     7
370
    50
100
AcDbLine
 10
-74.147435
 20
528.697484
 30
0.0
 11
-67.397435
 21
528.697484
 31
0.0
  0
LINE
  5
268
330
1F
100
AcDbEntity
  8
LC-001-100-D00-0
 62
     7
370
    50
100
AcDbLine
 10
-191.397435
 20
528.697484
 30
0.0
 11
-191.397434
 21
531.697484
 31
0.0
  0
LINE
  5
269
330
1F
100
AcDbEntity
  8
LC-001-100-D00-0
 62
     7
370
    50
100
AcDbLine
 10
-191.397435
 20
528.697484
 30
0.0
 11
-184.647435
 21
528.697484
 31
0.0
  0
LINE
  5
26A
330
1F
100
AcDbEntity
  8
LC-001-100-D00-0
 62
     7
370
    50
100
AcDbLine
 10
-194.397433
 20
535.697483
 30
0.0
 11
-194.397433
 21
531.697484
 31
0.0
  0
LINE
  5
26B
330
1F
100
AcDbEntity
  8
LC-001-100-D00-0
 62
     7
370
    50
100
AcDbLine
 10
-197.397439
 20
528.697482
 30
0.0
 11
-197.397439
 21
532.697484
 31
0.0
  0
LINE
  5
26C
330
1F
100
AcDbEntity
  8
LC-001-100-D00-0
 62
     7
370
    50
100
AcDbLine
 10
-203.397436
 20
511.947485
 30
0.0
 11
-203.397436
 21
535.697483
 31
0.0
  0
LINE
  5
26D
330
1F
100
AcDbEntity
  8
LC-001-100-D00-0
 62
     7
370
    50
100
AcDbLine
 10
-200.397435
 20
511.947484
 30
0.0
 11
-200.397437
 21
532.697484
 31
0.0
  0
LINE
  5
26E
330
1F
100
AcDbEntity
  8
LC-001-100-D00-0
 62
     7
370
    50
100
AcDbLine
 10
-200.397435
 20
511.947484
 30
0.0
 11
-179.697842
 21
511.947484
 31
0.0
  0
LINE
  5
26F
330
1F
100
AcDbEntity
  8
LC-001-100-D00-0
 62
     7
370
    50
100
AcDbLine
 10
-191.397434
 20
531.697484
 30
0.0
 11
-194.397433
 21
531.697484
 31
0.0
  0
LINE
  5
270
330
1F
100
AcDbEntity
  8
LC-001-100-D00-0
 62
     7
370
    50
100
AcDbLine
 10
-197.397439
 20
528.697482
 30
0.0
 11
-191.397435
 21
528.697484
 31
0.0
  0
LINE
  5
271
330
1F
100
AcDbEntity
  8
LC-001-100-D00-0
 62
     7
370
    50
100
AcDbLine
 10
-200.397437
 20
532.697484
 30
0.0
 11
-197.397439
 21
532.697484
 31
0.0
  0
LINE
  5
272
330
1F
100
AcDbEntity
  8
LC-001-100-D00-0
 62
     7
370
    50
100
AcDbLine
 10
-194.397433
 20
535.697483
 30
0.0
 11
-203.397436
 21
535.697483
 31
0.0
  0
LINE
  5
273
330
1F
100
AcDbEntity
  8
LC-001-100-D00-0
 62
     7
370
    50
100
AcDbLine
 10
-203.397436
 20
511.947485
 30
0.0
 11
-200.397435
 21
511.947484
 31
0.0
  0
LINE
  5
274
330
1F
100
AcDbEntity
  8
LC-001-100-D00-0
 62
     7
370
    50
100
AcDbLine
 10
-87.40831
 20
511.947484
 30
0.0
 11
-79.097027
 21
511.947484
 31
0.0
  0
LINE
  5
275
330
1F
100
AcDbEntity
  8
LC-001-100-D00-0
 62
     7
370
    50
100
AcDbLine
 10
-179.697842
 20
511.947484
 30
0.0
 11
-171.38656
 21
511.947484
 31
0.0
  0
LINE
  5
276
330
1F
100
AcDbEntity
  8
LC-001-100-D00-0
 62
     7
370
    50
100
AcDbLine
 10
-171.38656
 20
511.947484
 30
0.0
 11
-170.397436
 21
511.947485
 31
0.0
  0
LINE
  5
277
330
1F
100
AcDbEntity
  8
LC-001-100-D00-0
 62
     7
370
    50
100
AcDbLine
 10
-88.397434
 20
511.947485
 30
0.0
 11
-87.40831
 21
511.947484
 31
0.0
  0
LINE
  5
278
330
1F
100
AcDbEntity
  8
LC-001-100-D00-0
 62
     7
370
    50
100
AcDbLine
 10
-55.397434
 20
511.197484
 30
0.0
 11
-44.397434
 21
511.197484
 31
0.0
  0
LINE
  5
279
330
1F
100
AcDbEntity
  8
LC-001-100-D00-0
 62
     7
370
    50
100
AcDbLine
 10
-44.397434
 20
459.197483
 30
0.0
 11
-55.397434
 21
459.197483
 31
0.0
  0
LINE
  5
27A
330
1F
100
AcDbEntity
  8
LC-001-100-D00-0
 62
     7
370
    50
100
AcDbLine
 10
-55.397434
 20
511.947485
 30
0.0
 11
-55.397434
 21
511.197484
 31
0.0
  0
INSERT
  5
28B
330
1F
100
AcDbEntity
  8
LC-001-100-D00-0
 62
     7
370
    50
100
AcDbBlockReference
  2
KLON13
 10
0.0
 20
0.0
 30
0.0
  0
INSERT
  5
29F
330
1F
100
AcDbEntity
  8
LC-001-100-D00-0
 62
     7
370
    50
100
AcDbBlockReference
  2
KLON14
 10
0.0
 20
0.0
 30
0.0
  0
LINE
  5
2A0
330
1F
100
AcDbEntity
  8
LC-001-100-D00-0
 62
     7
370
    50
100
AcDbLine
 10
-58.397433
 20
508.197485
 30
0.0
 11
-16.500249
 21
508.197484
 31
0.0
  0
LINE
  5
2A1
330
1F
100
AcDbEntity
  8
LC-001-100-D00-0
 62
     7
370
    50
100
AcDbLine
 10
-16.500249
 20
462.197484
 30
0.0
 11
-16.500249
 21
508.197484
 31
0.0
  0
LINE
  5
2A2
330
1F
100
AcDbEntity
  8
LC-001-100-D00-0
 62
     7
370
    50
100
AcDbLine
 10
-16.500249
 20
462.197484
 30
0.0
 11
-55.397434
 21
462.197481
 31
0.0
  0
INSERT
  5
2A8
330
1F
100
AcDbEntity
  8
LC-001-100-D00-0
 62
     7
370
    50
100
AcDbBlockReference
  2
KLON15
 10
0.0
 20
0.0
 30
0.0
  0
LINE
  5
2A9
330
1F
100
AcDbEntity
  8
LC-001-100-D00-0
 62
     7
370
    50
100
AcDbLine
 10
-58.397435
 20
511.947484
 30
0.0
 11
-79.097027
 21
511.947484
 31
0.0
  0
LINE
  5
2AA
330
1F
100
AcDbEntity
  8
LC-001-100-D00-0
 62
     7
370
    50
100
AcDbLine
 10
-58.397435
 20
511.947484
 30
0.0
 11
-58.397433
 21
508.197485
 31
0.0
  0
LINE
  5
2AB
330
1F
100
AcDbEntity
  8
LC-001-100-D00-0
 62
     7
370
    50
100
AcDbLine
 10
-68.397435
 20
459.197484
 30
0.0
 11
-55.397434
 21
459.197483
 31
0.0
  0
ARC
  5
2AC
330
1F
100
AcDbEntity
  8
LC-001-100-D00-0
 62
     7
370
    50
100
AcDbCircle
 10
-75.379555
 20
459.697484
 30
0.0
 40
7.0
100
AcDbArc
 50
270.0
 51
355.903956
  0
LINE
  5
2AD
330
1F
100
AcDbEntity
  8
LC-001-100-D00-0
 62
     7
370
    50
100
AcDbLine
 10
-75.379555
 20
452.697484
 30
0.0
 11
-183.415315
 21
452.697484
 31
0.0
  0
ARC
  5
2AE
330
1F
100
AcDbEntity
  8
LC-001-100-D00-0
 62
     7
370
    50
100
AcDbCircle
 10
-183.415315
 20
459.697484
 30
0.0
 40
6.999999999999959
100
AcDbArc
 50
184.096044
 51
270.0
  0
LINE
  5
2AF
330
1F
100
AcDbEntity
  8
LC-001-100-D00-0
 62
     7
370
    50
100
AcDbLine
 10
-190.897435
 20
459.197484
 30
0.0
 11
-190.397435
 21
459.197484
 31
0.0
  0
ARC
  5
2B0
330
1F
100
AcDbEntity
  8
LC-001-100-D00-0
 62
     7
370
    50
100
AcDbCircle
 10
-190.897435
 20
471.697484
 30
0.0
 40
12.5
100
AcDbArc
 50
180.0
 51
270.0
  0
LINE
  5
2B1
330
1F
100
AcDbEntity
  8
LC-001-100-D00-0
 62
     7
370
    50
100
AcDbLine
 10
-203.397435
 20
471.697484
 30
0.0
 11
-203.397436
 21
511.947485
 31
0.0
  0
LINE
  5
2B2
330
1F
100
AcDbEntity
  8
LC-001-100-D00-0
 62
     7
370
    50
100
AcDbLine
 10
-203.397436
 20
511.947485
 30
0.0
 11
-200.397435
 21
511.947484
 31
0.0
  0
LINE
  5
2B3
330
1F
100
AcDbEntity
  8
LC-001-100-D00-0
 62
     7
370
    50
100
AcDbLine
 10
-200.397435
 20
471.697484
 30
0.0
 11
-200.397435
 21
511.947484
 31
0.0
  0
ARC
  5
2B4
330
1F
100
AcDbEntity
  8
LC-001-100-D00-0
 62
     7
370
    50
100
AcDbCircle
 10
-190.897435
 20
471.697484
 30
0.0
 40
9.5
100
AcDbArc
 50
180.0
 51
270.0
  0
LINE
  5
2B5
330
1F
100
AcDbEntity
  8
LC-001-100-D00-0
 62
     7
370
    50
100
AcDbLine
 10
-190.897435
 20
462.197484
 30
0.0
 11
-188.397435
 21
462.197484
 31
0.0
  0
ARC
  5
2B6
330
1F
100
AcDbEntity
  8
LC-001-100-D00-0
 62
     7
370
    50
100
AcDbCircle
 10
-188.397435
 20
461.197484
 30
0.0
 40
1.000000000000114
100
AcDbArc
 50
0.0
 51
90.0
  0
LINE
  5
2B7
330
1F
100
AcDbEntity
  8
LC-001-100-D00-0
 62
     7
370
    50
100
AcDbLine
 10
-187.397435
 20
461.197484
 30
0.0
 11
-187.397435
 21
459.697484
 31
0.0
  0
ARC
  5
2B8
330
1F
100
AcDbEntity
  8
LC-001-100-D00-0
 62
     7
370
    50
100
AcDbCircle
 10
-183.397435
 20
459.697484
 30
0.0
 40
4.0
100
AcDbArc
 50
180.0
 51
270.0
  0
LINE
  5
2B9
330
1F
100
AcDbEntity
  8
LC-001-100-D00-0
 62
     7
370
    50
100
AcDbLine
 10
-75.397435
 20
455.697484
 30
0.0
 11
-183.397435
 21
455.697484
 31
0.0
  0
ARC
  5
2BA
330
1F
100
AcDbEntity
  8
LC-001-100-D00-0
 62
     7
370
    50
100
AcDbCircle
 10
-75.397435
 20
459.697484
 30
0.0
 40
4.0
100
AcDbArc
 50
270.0
 51
0.0
  0
LINE
  5
2BB
330
1F
100
AcDbEntity
  8
LC-001-100-D00-0
 62
     7
370
    50
100
AcDbLine
 10
-71.397435
 20
459.697484
 30
0.0
 11
-71.397435
 21
461.197484
 31
0.0
  0
ARC
  5
2BC
330
1F
100
AcDbEntity
  8
LC-001-100-D00-0
 62
     7
370
    50
100
AcDbCircle
 10
-70.397435
 20
461.197484
 30
0.0
 40
1.0
100
AcDbArc
 50
90.0
 51
180.0
  0
LINE
  5
2BD
330
1F
100
AcDbEntity
  8
LC-001-100-D00-0
 62
     7
370
    50
100
AcDbLine
 10
-70.397435
 20
462.197484
 30
0.0
 11
-55.397434
 21
462.197481
 31
0.0
  0
LINE
  5
2BE
330
1F
100
AcDbEntity
  8
LC-001-100-D00-0
 62
     7
370
    50
100
AcDbLine
 10
-10.900249
 20
460.696968
 30
0.0
 11
-16.500249
 21
462.197484
 31
0.0
  0
LINE
  5
2BF
330
1F
100
AcDbEntity
  8
LC-001-100-D00-0
 62
     7
370
    50
100
AcDbLine
 10
-10.900249
 20
460.263229
 30
0.0
 11
-10.900249
 21
460.696968
 31
0.0
  0
ARC
  5
2C0
330
1F
100
AcDbEntity
  8
LC-001-100-D00-0
 62
     7
370
    50
100
AcDbCircle
 10
-11.400207
 20
460.263229
 30
0.0
 40
0.4999578796799692
100
AcDbArc
 50
301.198872
 51
0.0
  0
ARC
  5
2C1
330
1F
100
AcDbEntity
  8
LC-001-100-D00-0
 62
     7
370
    50
100
AcDbCircle
 10
-26.498931
 20
485.195294
 30
0.0
 40
29.64750216706083
100
AcDbArc
 50
292.382556
 51
301.198872
  0
ARC
  5
2C2
330
1F
100
AcDbEntity
  8
LC-001-100-D00-0
 62
     7
370
    50
100
AcDbCircle
 10
-15.399871
 20
458.243667
 30
0.0
 40
0.4999578796800961
100
AcDbArc
 50
180.0
 51
292.382556
  0
LINE
  5
2C3
330
1F
100
AcDbEntity
  8
LC-001-100-D00-0
 62
     7
370
    50
100
AcDbLine
 10
-15.899829
 20
459.547526
 30
0.0
 11
-15.899829
 21
458.243667
 31
0.0
  0
ARC
  5
2C4
330
1F
100
AcDbEntity
  8
LC-001-100-D00-0
 62
     7
370
    50
100
AcDbCircle
 10
-16.399786
 20
459.547526
 30
0.0
 40
0.4999578796800961
100
AcDbArc
 50
0.0
 51
90.0
  0
LINE
  5
2C5
330
1F
100
AcDbEntity
  8
LC-001-100-D00-0
 62
     7
370
    50
100
AcDbLine
 10
-19.899492
 20
460.047484
 30
0.0
 11
-16.399786
 21
460.047484
 31
0.0
  0
ARC
  5
2C6
330
1F
100
AcDbEntity
  8
LC-001-100-D00-0
 62
     7
370
    50
100
AcDbCircle
 10
-19.899492
 20
459.547526
 30
0.0
 40
0.4999578796798687
100
AcDbArc
 50
90.0
 51
180.0
  0
LINE
  5
2C7
330
1F
100
AcDbEntity
  8
LC-001-100-D00-0
 62
     7
370
    50
100
AcDbLine
 10
-20.399449
 20
456.590665
 30
0.0
 11
-20.399449
 21
459.547526
 31
0.0
  0
ARC
  5
2C8
330
1F
100
AcDbEntity
  8
LC-001-100-D00-0
 62
     7
370
    50
100
AcDbCircle
 10
-20.899407
 20
456.590665
 30
0.0
 40
0.4999578796801373
100
AcDbArc
 50
281.075925
 51
0.0
  0
ARC
  5
2C9
330
1F
100
AcDbEntity
  8
LC-001-100-D00-0
 62
     7
370
    50
100
AcDbCircle
 10
-26.498931
 20
485.195294
 30
0.0
 40
29.64750432250012
100
AcDbArc
 50
241.270296
 51
281.075925
  0
LINE
  5
2CA
330
1F
100
AcDbEntity
  8
LC-001-100-D00-0
 62
     7
370
    50
100
AcDbLine
 10
-41.897638
 20
459.197483
 30
0.0
 11
-40.74984
 21
459.197484
 31
0.0
  0
LINE
  5
2CB
330
1F
100
AcDbEntity
  8
LC-001-100-D00-0
 62
     7
370
    50
100
AcDbLine
 10
-41.897638
 20
457.697487
 30
0.0
 11
-41.897638
 21
459.197483
 31
0.0
  0
LINE
  5
2CC
330
1F
100
AcDbEntity
  8
LC-001-100-D00-0
 62
     7
370
    50
100
AcDbLine
 10
-44.397434
 20
457.697487
 30
0.0
 11
-41.897638
 21
457.697487
 31
0.0
  0
LINE
  5
2CD
330
1F
100
AcDbEntity
  8
LC-001-100-D00-0
 62
     7
370
    50
100
AcDbLine
 10
-44.397434
 20
459.197483
 30
0.0
 11
-44.397434
 21
457.697487
 31
0.0
  0
ARC
  5
2CE
330
1F
100
AcDbEntity
  8
LC-001-100-D00-0
 62
     7
370
    50
100
AcDbCircle
 10
-26.498931
 20
485.199674
 30
0.0
 40
29.64750216706075
100
AcDbArc
 50
58.801128
 51
67.617444
  0
ARC
  5
2CF
330
1F
100
AcDbEntity
  8
LC-001-100-D00-0
 62
     7
370
    50
100
AcDbCircle
 10
-11.400207
 20
510.131739
 30
0.0
 40
0.4999578796800961
100
AcDbArc
 50
0.0
 51
58.801128
  0
LINE
  5
2D0
330
1F
100
AcDbEntity
  8
LC-001-100-D00-0
 62
     7
370
    50
100
AcDbLine
 10
-10.900249
 20
509.697999
 30
0.0
 11
-10.900249
 21
460.696968
 31
0.0
  0
LINE
  5
2D1
330
1F
100
AcDbEntity
  8
LC-001-100-D00-0
 62
     7
370
    50
100
AcDbLine
 10
-16.500249
 20
508.197484
 30
0.0
 11
-10.900249
 21
509.697999
 31
0.0
  0
ARC
  5
2D2
330
1F
100
AcDbEntity
  8
LC-001-100-D00-0
 62
     7
370
    50
100
AcDbCircle
 10
-15.399871
 20
512.151301
 30
0.0
 40
0.4999578796801971
100
AcDbArc
 50
67.617444
 51
180.0
  0
ARC
  5
2D3
330
1F
100
AcDbEntity
  8
LC-001-100-D00-0
 62
     7
370
    50
100
AcDbCircle
 10
-16.399786
 20
510.847442
 30
0.0
 40
0.4999578796798687
100
AcDbArc
 50
270.0
 51
0.0
  0
LINE
  5
2D4
330
1F
100
AcDbEntity
  8
LC-001-100-D00-0
 62
     7
370
    50
100
AcDbLine
 10
-15.899829
 20
512.151301
 30
0.0
 11
-15.899829
 21
510.847442
 31
0.0
  0
LINE
  5
2D5
330
1F
100
AcDbEntity
  8
LC-001-100-D00-0
 62
     7
370
    50
100
AcDbLine
 10
-58.397435
 20
511.947484
 30
0.0
 11
-55.397434
 21
511.947485
 31
0.0
  0
LINE
  5
2D6
330
1F
100
AcDbEntity
  8
LC-001-100-D00-0
 62
     7
370
    50
100
AcDbLine
 10
-44.397434
 20
512.697483
 30
0.0
 11
-44.397434
 21
511.197484
 31
0.0
  0
LINE
  5
2D7
330
1F
100
AcDbEntity
  8
LC-001-100-D00-0
 62
     7
370
    50
100
AcDbLine
 10
-41.897638
 20
512.697484
 30
0.0
 11
-44.397434
 21
512.697483
 31
0.0
  0
ARC
  5
2D8
330
1F
100
AcDbEntity
  8
LC-001-100-D00-0
 62
     7
370
    50
100
AcDbCircle
 10
-26.535346
 20
485.197484
 30
0.0
 40
31.5000000000002
100
AcDbArc
 50
105.394857
 51
119.188982
  0
LINE
  5
2D9
330
1F
100
AcDbEntity
  8
LC-001-100-D00-0
 62
     7
370
    50
100
AcDbLine
 10
-34.897638
 20
515.56724
 30
0.0
 11
-34.897638
 21
513.632687
 31
0.0
  0
ARC
  5
2DA
330
1F
100
AcDbEntity
  8
LC-001-100-D00-0
 62
     7
370
    50
100
AcDbCircle
 10
-26.498931
 20
485.199674
 30
0.0
 40
29.6475043225003
100
AcDbArc
 50
78.924075
 51
106.456389
  0
ARC
  5
2DB
330
1F
100
AcDbEntity
  8
LC-001-100-D00-0
 62
     7
370
    50
100
AcDbCircle
 10
-20.899407
 20
513.804303
 30
0.0
 40
0.4999578796802098
100
AcDbArc
 50
0.0
 51
78.924075
  0
LINE
  5
2DC
330
1F
100
AcDbEntity
  8
LC-001-100-D00-0
 62
     7
370
    50
100
AcDbLine
 10
-20.399449
 20
510.847442
 30
0.0
 11
-20.399449
 21
513.804303
 31
0.0
  0
ARC
  5
2DD
330
1F
100
AcDbEntity
  8
LC-001-100-D00-0
 62
     7
370
    50
100
AcDbCircle
 10
-19.899492
 20
510.847442
 30
0.0
 40
0.4999578796799824
100
AcDbArc
 50
180.0
 51
270.0
  0
LINE
  5
2DE
330
1F
100
AcDbEntity
  8
LC-001-100-D00-0
 62
     7
370
    50
100
AcDbLine
 10
-16.399786
 20
510.347484
 30
0.0
 11
-19.899492
 21
510.347484
 31
0.0
  0
LINE
  5
2DF
330
1F
100
AcDbEntity
  8
LC-001-100-D00-0
 62
     7
370
    50
100
AcDbLine
 10
-10.900249
 20
509.697999
 30
0.0
 11
-10.900249
 21
510.131739
 31
0.0
  0
LINE
  5
2E0
330
1F
100
AcDbEntity
  8
LC-001-100-D00-0
 62
     7
370
    50
100
AcDbLine
 10
-84.963815
 20
462.197484
 30
0.0
 11
-70.397435
 21
462.197484
 31
0.0
  0
LINE
  5
2E1
330
1F
100
AcDbEntity
  8
LC-001-100-D00-0
 62
     7
370
    50
100
AcDbLine
 10
-188.397435
 20
462.197484
 30
0.0
 11
-173.831055
 21
462.197484
 31
0.0
  0
LINE
  5
2E2
330
1F
100
AcDbEntity
  8
LC-001-100-D00-0
 62
     7
370
    50
100
AcDbLine
 10
-179.697842
 20
511.947484
 30
0.0
 11
-200.397435
 21
511.947484
 31
0.0
  0
LINE
  5
2E3
330
1F
100
AcDbEntity
  8
LC-001-100-D00-0
 62
     7
370
    50
100
AcDbLine
 10
-87.40831
 20
462.197484
 30
0.0
 11
-84.963815
 21
462.197484
 31
0.0
  0
LINE
  5
2E4
330
1F
100
AcDbEntity
  8
LC-001-100-D00-0
 62
     7
370
    50
100
AcDbLine
 10
-173.831055
 20
462.197484
 30
0.0
 11
-171.38656
 21
462.197484
 31
0.0
  0
LINE
  5
2E5
330
1F
100
AcDbEntity
  8
LC-001-100-D00-0
 62
     7
370
    50
100
AcDbLine
 10
-171.38656
 20
462.197484
 30
0.0
 11
-170.397436
 21
462.197481
 31
0.0
  0
LINE
  5
2E6
330
1F
100
AcDbEntity
  8
LC-001-100-D00-0
 62
     7
370
    50
100
AcDbLine
 10
-88.397434
 20
462.197481
 30
0.0
 11
-87.40831
 21
462.197484
 31
0.0
  0
LINE
  5
2E7
330
1F
100
AcDbEntity
  8
LC-001-100-D00-0
 62
     7
370
    50
100
AcDbLine
 10
-79.097027
 20
511.947484
 30
0.0
 11
-87.40831
 21
511.947484
 31
0.0
  0
LINE
  5
2E8
330
1F
100
AcDbEntity
  8
LC-001-100-D00-0
 62
     7
370
    50
100
AcDbLine
 10
-171.38656
 20
511.947484
 30
0.0
 11
-179.697842
 21
511.947484
 31
0.0
  0
LINE
  5
2E9
330
1F
100
AcDbEntity
  8
LC-001-100-D00-0
 62
     7
370
    50
100
AcDbLine
 10
-87.40831
 20
511.947484
 30
0.0
 11
-88.397434
 21
511.947485
 31
0.0
  0
LINE
  5
2EA
330
1F
100
AcDbEntity
  8
LC-001-100-D00-0
 62
     7
370
    50
100
AcDbLine
 10
-170.397436
 20
511.947485
 30
0.0
 11
-171.38656
 21
511.947484
 31
0.0
  0
CIRCLE
  5
2EB
330
1F
100
AcDbEntity
  8
LC-001-100-D00-0
 62
     7
370
    50
100
AcDbCircle
 10
-75.147435
 20
533.447484
 30
0.0
 40
1.750000000000114
  0
CIRCLE
  5
2EC
330
1F
100
AcDbEntity
  8
LC-001-100-D00-0
 62
     7
370
    50
100
AcDbCircle
 10
-183.647435
 20
533.447484
 30
0.0
 40
1.75
  0
LINE
  5
2ED
330
1F
100
AcDbEntity
  8
LC-001-100-D00-0
 62
     7
370
    50
100
AcDbLine
 10
-74.897436
 20
535.197484
 30
0.0
 11
-74.897436
 21
536.697483
 31
0.0
  0
LINE
  5
2EE
330
1F
100
AcDbEntity
  8
LC-001-100-D00-0
 62
     7
370
    50
100
AcDbLine
 10
-76.897437
 20
535.197484
 30
0.0
 11
-74.897436
 21
535.197484
 31
0.0
  0
LINE
  5
2EF
330
1F
100
AcDbEntity
  8
LC-001-100-D00-0
 62
     7
370
    50
100
AcDbLine
 10
-76.897437
 20
535.197484
 30
0.0
 11
-76.897437
 21
531.697484
 31
0.0
  0
LINE
  5
2F0
330
1F
100
AcDbEntity
  8
LC-001-100-D00-0
 62
     7
370
    50
100
AcDbLine
 10
-76.897437
 20
531.697484
 30
0.0
 11
-74.897436
 21
531.697484
 31
0.0
  0
LINE
  5
2F1
330
1F
100
AcDbEntity
  8
LC-001-100-D00-0
 62
     7
370
    50
100
AcDbLine
 10
-74.897436
 20
531.697484
 30
0.0
 11
-74.897436
 21
530.697482
 31
0.0
  0
LINE
  5
2F2
330
1F
100
AcDbEntity
  8
LC-001-100-D00-0
 62
     7
370
    50
100
AcDbLine
 10
-90.397435
 20
530.697484
 30
0.0
 11
-74.897436
 21
530.697482
 31
0.0
  0
ARC
  5
2F3
330
1F
100
AcDbEntity
  8
LC-001-100-D00-0
 62
     7
370
    50
100
AcDbCircle
 10
-90.397435
 20
520.697484
 30
0.0
 40
10.0
100
AcDbArc
 50
90.0
 51
180.0
  0
LINE
  5
2F4
330
1F
100
AcDbEntity
  8
LC-001-100-D00-0
 62
     7
370
    50
100
AcDbLine
 10
-100.397435
 20
520.697484
 30
0.0
 11
-100.397436
 21
470.797485
 31
0.0
  0
LINE
  5
2F5
330
1F
100
AcDbEntity
  8
LC-001-100-D00-0
 62
     7
370
    50
100
AcDbLine
 10
-101.897435
 20
470.797484
 30
0.0
 11
-100.397436
 21
470.797485
 31
0.0
  0
LINE
  5
2F6
330
1F
100
AcDbEntity
  8
LC-001-100-D00-0
 62
     7
370
    50
100
AcDbLine
 10
-101.897435
 20
534.697484
 30
0.0
 11
-101.897435
 21
470.797484
 31
0.0
  0
ARC
  5
2F7
330
1F
100
AcDbEntity
  8
LC-001-100-D00-0
 62
     7
370
    50
100
AcDbCircle
 10
-99.897435
 20
534.697484
 30
0.0
 40
2.0
100
AcDbArc
 50
90.0
 51
180.0
  0
LINE
  5
2F8
330
1F
100
AcDbEntity
  8
LC-001-100-D00-0
 62
     7
370
    50
100
AcDbLine
 10
-99.897435
 20
536.697484
 30
0.0
 11
-74.897436
 21
536.697483
 31
0.0
  0
LINE
  5
2F9
330
1F
100
AcDbEntity
  8
LC-001-100-D00-0
 62
     7
370
    50
100
AcDbLine
 10
-117.897435
 20
536.697484
 30
0.0
 11
-99.897435
 21
536.697484
 31
0.0
  0
LINE
  5
2FA
330
1F
100
AcDbEntity
  8
LC-001-100-D00-0
 62
     7
370
    50
100
AcDbLine
 10
-117.897435
 20
470.797484
 30
0.0
 11
-101.897435
 21
470.797484
 31
0.0
  0
LINE
  5
2FB
330
1F
100
AcDbEntity
  8
LC-001-100-D00-0
 62
     7
370
    50
100
AcDbLine
 10
-158.397434
 20
470.797485
 30
0.0
 11
-158.397435
 21
520.697484
 31
0.0
  0
ARC
  5
2FC
330
1F
100
AcDbEntity
  8
LC-001-100-D00-0
 62
     7
370
    50
100
AcDbCircle
 10
-158.897435
 20
534.697484
 30
0.0
 40
2.000000000000114
100
AcDbArc
 50
0.0
 51
90.0
  0
LINE
  5
2FD
330
1F
100
AcDbEntity
  8
LC-001-100-D00-0
 62
     7
370
    50
100
AcDbLine
 10
-158.897435
 20
536.697484
 30
0.0
 11
-140.897435
 21
536.697484
 31
0.0
  0
LINE
  5
2FE
330
1F
100
AcDbEntity
  8
LC-001-100-D00-0
 62
     7
370
    50
100
AcDbLine
 10
-156.897435
 20
470.797484
 30
0.0
 11
-156.897435
 21
534.697484
 31
0.0
  0
LINE
  5
2FF
330
1F
100
AcDbEntity
  8
LC-001-100-D00-0
 62
     7
370
    50
100
AcDbLine
 10
-156.897435
 20
470.797484
 30
0.0
 11
-140.897435
 21
470.797484
 31
0.0
  0
ARC
  5
300
330
1F
100
AcDbEntity
  8
LC-001-100-D00-0
 62
     7
370
    50
100
AcDbCircle
 10
-168.397435
 20
520.697484
 30
0.0
 40
10.00000000000011
100
AcDbArc
 50
0.0
 51
90.0
  0
LINE
  5
301
330
1F
100
AcDbEntity
  8
LC-001-100-D00-0
 62
     7
370
    50
100
AcDbLine
 10
-183.897434
 20
530.697482
 30
0.0
 11
-183.897434
 21
531.697484
 31
0.0
  0
LINE
  5
302
330
1F
100
AcDbEntity
  8
LC-001-100-D00-0
 62
     7
370
    50
100
AcDbLine
 10
-181.897433
 20
531.697484
 30
0.0
 11
-181.897433
 21
535.197484
 31
0.0
  0
LINE
  5
303
330
1F
100
AcDbEntity
  8
LC-001-100-D00-0
 62
     7
370
    50
100
AcDbLine
 10
-183.897434
 20
536.697483
 30
0.0
 11
-183.897434
 21
535.197484
 31
0.0
  0
LINE
  5
304
330
1F
100
AcDbEntity
  8
LC-001-100-D00-0
 62
     7
370
    50
100
AcDbLine
 10
-158.397434
 20
470.797485
 30
0.0
 11
-156.897435
 21
470.797484
 31
0.0
  0
LINE
  5
305
330
1F
100
AcDbEntity
  8
LC-001-100-D00-0
 62
     7
370
    50
100
AcDbLine
 10
-183.897434
 20
531.697484
 30
0.0
 11
-181.897433
 21
531.697484
 31
0.0
  0
LINE
  5
306
330
1F
100
AcDbEntity
  8
LC-001-100-D00-0
 62
     7
370
    50
100
AcDbLine
 10
-183.897434
 20
535.197484
 30
0.0
 11
-181.897433
 21
535.197484
 31
0.0
  0
LINE
  5
307
330
1F
100
AcDbEntity
  8
LC-001-100-D00-0
 62
     7
370
    50
100
AcDbLine
 10
-183.897434
 20
536.697483
 30
0.0
 11
-158.897435
 21
536.697484
 31
0.0
  0
LINE
  5
308
330
1F
100
AcDbEntity
  8
LC-001-100-D00-0
 62
     7
370
    50
100
AcDbLine
 10
-183.897434
 20
530.697482
 30
0.0
 11
-168.397435
 21
530.697484
 31
0.0
  0
LINE
  5
309
330
1F
100
AcDbEntity
  8
LC-001-100-D00-0
 62
     7
370
    50
100
AcDbLine
 10
-140.897435
 20
470.797484
 30
0.0
 11
-117.897435
 21
470.797484
 31
0.0
  0
LINE
  5
30A
330
1F
100
AcDbEntity
  8
LC-001-100-D00-0
 62
     7
370
    50
100
AcDbLine
 10
-140.897435
 20
536.697484
 30
0.0
 11
-117.897435
 21
536.697484
 31
0.0
  0
LINE
  5
30B
330
1F
100
AcDbEntity
  8
LC-001-100-D00-0
 62
     7
370
    50
100
AcDbLine
 10
-170.397436
 20
521.197485
 30
0.0
 11
-180.33312
 21
528.503135
 31
0.0
  0
ARC
  5
30C
330
1F
100
AcDbEntity
  8
LC-001-100-D00-0
 62
     7
370
    50
100
AcDbCircle
 10
-180.925511
 20
527.697484
 30
0.0
 40
0.9999999999997635
100
AcDbArc
 50
53.673174
 51
90.0
  0
LINE
  5
30D
330
1F
100
AcDbEntity
  8
LC-001-100-D00-0
 62
     7
370
    50
100
AcDbLine
 10
-184.647435
 20
528.697484
 30
0.0
 11
-180.925511
 21
528.697484
 31
0.0
  0
LINE
  5
30E
330
1F
100
AcDbEntity
  8
LC-001-100-D00-0
 62
     7
370
    50
100
AcDbLine
 10
-184.647435
 20
528.697484
 30
0.0
 11
-184.647435
 21
530.697484
 31
0.0
  0
LINE
  5
30F
330
1F
100
AcDbEntity
  8
LC-001-100-D00-0
 62
     7
370
    50
100
AcDbLine
 10
-184.647435
 20
530.697484
 30
0.0
 11
-180.925511
 21
530.697484
 31
0.0
  0
ARC
  5
310
330
1F
100
AcDbEntity
  8
LC-001-100-D00-0
 62
     7
370
    50
100
AcDbCircle
 10
-180.925511
 20
527.697484
 30
0.0
 40
3.000000000000158
100
AcDbArc
 50
53.673174
 51
90.0
  0
LINE
  5
311
330
1F
100
AcDbEntity
  8
LC-001-100-D00-0
 62
     7
370
    50
100
AcDbLine
 10
-179.148339
 20
530.114437
 30
0.0
 11
-169.305044
 21
522.87672
 31
0.0
  0
ARC
  5
312
330
1F
100
AcDbEntity
  8
LC-001-100-D00-0
 62
     7
370
    50
100
AcDbCircle
 10
-169.897435
 20
522.071069
 30
0.0
 40
1.0
100
AcDbArc
 50
0.0
 51
53.673174
  0
LINE
  5
313
330
1F
100
AcDbEntity
  8
LC-001-100-D00-0
 62
     7
370
    50
100
AcDbLine
 10
-168.897435
 20
460.197484
 30
0.0
 11
-168.897435
 21
522.071069
 31
0.0
  0
ARC
  5
314
330
1F
100
AcDbEntity
  8
LC-001-100-D00-0
 62
     7
370
    50
100
AcDbCircle
 10
-165.397435
 20
460.197484
 30
0.0
 40
3.500000000000114
100
AcDbArc
 50
180.0
 51
270.0
  0
LINE
  5
315
330
1F
100
AcDbEntity
  8
LC-001-100-D00-0
 62
     7
370
    50
100
AcDbLine
 10
-93.397435
 20
456.697484
 30
0.0
 11
-165.397435
 21
456.697484
 31
0.0
  0
ARC
  5
316
330
1F
100
AcDbEntity
  8
LC-001-100-D00-0
 62
     7
370
    50
100
AcDbCircle
 10
-93.397435
 20
460.197484
 30
0.0
 40
3.5
100
AcDbArc
 50
270.0
 51
0.0
  0
LINE
  5
317
330
1F
100
AcDbEntity
  8
LC-001-100-D00-0
 62
     7
370
    50
100
AcDbLine
 10
-89.897435
 20
522.071069
 30
0.0
 11
-89.897435
 21
460.197484
 31
0.0
  0
ARC
  5
318
330
1F
100
AcDbEntity
  8
LC-001-100-D00-0
 62
     7
370
    50
100
AcDbCircle
 10
-88.897435
 20
522.071069
 30
0.0
 40
1.000000000000014
100
AcDbArc
 50
126.326826
 51
180.0
  0
LINE
  5
319
330
1F
100
AcDbEntity
  8
LC-001-100-D00-0
 62
     7
370
    50
100
AcDbLine
 10
-79.64653
 20
530.114437
 30
0.0
 11
-89.489825
 21
522.87672
 31
0.0
  0
ARC
  5
31A
330
1F
100
AcDbEntity
  8
LC-001-100-D00-0
 62
     7
370
    50
100
AcDbCircle
 10
-77.869359
 20
527.697484
 30
0.0
 40
3.0
100
AcDbArc
 50
90.0
 51
126.326826
  0
LINE
  5
31B
330
1F
100
AcDbEntity
  8
LC-001-100-D00-0
 62
     7
370
    50
100
AcDbLine
 10
-77.869359
 20
530.697484
 30
0.0
 11
-74.147435
 21
530.697484
 31
0.0
  0
LINE
  5
31C
330
1F
100
AcDbEntity
  8
LC-001-100-D00-0
 62
     7
370
    50
100
AcDbLine
 10
-74.147435
 20
530.697484
 30
0.0
 11
-74.147435
 21
528.697484
 31
0.0
  0
LINE
  5
31D
330
1F
100
AcDbEntity
  8
LC-001-100-D00-0
 62
     7
370
    50
100
AcDbLine
 10
-77.869359
 20
528.697484
 30
0.0
 11
-74.147435
 21
528.697484
 31
0.0
  0
ARC
  5
31E
330
1F
100
AcDbEntity
  8
LC-001-100-D00-0
 62
     7
370
    50
100
AcDbCircle
 10
-77.869359
 20
527.697484
 30
0.0
 40
1.0
100
AcDbArc
 50
90.0
 51
126.326826
  0
LINE
  5
31F
330
1F
100
AcDbEntity
  8
LC-001-100-D00-0
 62
     7
370
    50
100
AcDbLine
 10
-88.397434
 20
521.197485
 30
0.0
 11
-78.46175
 21
528.503135
 31
0.0
  0
LINE
  5
320
330
1F
100
AcDbEntity
  8
LC-001-100-D00-0
 62
     7
370
    50
100
AcDbLine
 10
-88.397434
 20
521.197485
 30
0.0
 11
-88.397435
 21
460.197484
 31
0.0
  0
ARC
  5
321
330
1F
100
AcDbEntity
  8
LC-001-100-D00-0
 62
     7
370
    50
100
AcDbCircle
 10
-93.397435
 20
460.197484
 30
0.0
 40
5.0
100
AcDbArc
 50
270.0
 51
0.0
  0
LINE
  5
322
330
1F
100
AcDbEntity
  8
LC-001-100-D00-0
 62
     7
370
    50
100
AcDbLine
 10
-93.397435
 20
455.197484
 30
0.0
 11
-165.397435
 21
455.197484
 31
0.0
  0
ARC
  5
323
330
1F
100
AcDbEntity
  8
LC-001-100-D00-0
 62
     7
370
    50
100
AcDbCircle
 10
-165.397435
 20
460.197484
 30
0.0
 40
5.0
100
AcDbArc
 50
180.0
 51
270.0
  0
LINE
  5
324
330
1F
100
AcDbEntity
  8
LC-001-100-D00-0
 62
     7
370
    50
100
AcDbLine
 10
-170.397435
 20
460.197484
 30
0.0
 11
-170.397436
 21
521.197485
 31
0.0
  0
LINE
  5
325
330
1F
100
AcDbEntity
  8
LC-001-100-D00-0
 62
     7
370
    50
100
AcDbLine
 10
-89.904556
 20
521.197484
 30
0.0
 11
-94.31804
 21
521.197484
 31
0.0
  0
LINE
  5
326
330
1F
100
AcDbEntity
  8
LC-001-100-D00-0
 62
     7
370
    50
100
AcDbLine
 10
-89.904556
 20
522.065702
 30
0.0
 11
-89.904556
 21
521.197484
 31
0.0
  0
ARC
  5
327
330
1F
100
AcDbEntity
  8
LC-001-100-D00-0
 62
     7
370
    50
100
AcDbCircle
 10
-88.904182
 20
522.065643
 30
0.0
 40
1.000373573444883
100
AcDbArc
 50
126.325165
 51
180.0
  0
LINE
  5
328
330
1F
100
AcDbEntity
  8
LC-001-100-D00-0
 62
     7
370
    50
100
AcDbLine
 10
-89.496771
 20
522.871612
 30
0.0
 11
-89.489825
 21
522.87672
 31
0.0
  0
LINE
  5
329
330
1F
100
AcDbEntity
  8
LC-001-100-D00-0
 62
     7
370
    50
100
AcDbLine
 10
-168.890314
 20
522.065702
 30
0.0
 11
-168.890314
 21
521.197484
 31
0.0
  0
LINE
  5
32A
330
1F
100
AcDbEntity
  8
LC-001-100-D00-0
 62
     7
370
    50
100
AcDbLine
 10
-164.47683
 20
521.197484
 30
0.0
 11
-168.890314
 21
521.197484
 31
0.0
  0
ARC
  5
32B
330
1F
100
AcDbEntity
  8
LC-001-100-D00-0
 62
     7
370
    50
100
AcDbCircle
 10
-169.890661
 20
522.065656
 30
0.0
 40
1.00034703912263
100
AcDbArc
 50
0.0
 51
53.675603
  0
LINE
  5
32C
330
1F
100
AcDbEntity
  8
LC-001-100-D00-0
 62
     7
370
    50
100
AcDbLine
 10
-96.469069
 20
528.643253
 30
0.0
 11
-96.469069
 21
521.197485
 31
0.0
  0
LINE
  5
32D
330
1F
100
AcDbEntity
  8
LC-001-100-D00-0
 62
     7
370
    50
100
AcDbLine
 10
-96.46907
 20
528.697484
 30
0.0
 11
-89.68302
 21
528.697484
 31
0.0
  0
LINE
  5
32E
330
1F
100
AcDbEntity
  8
LC-001-100-D00-0
 62
     7
370
    50
100
AcDbLine
 10
-85.218732
 20
528.697484
 30
0.0
 11
-81.573587
 21
528.697484
 31
0.0
  0
LINE
  5
32F
330
1F
100
AcDbEntity
  8
LC-001-100-D00-0
 62
     7
370
    50
100
AcDbLine
 10
-162.325801
 20
528.643253
 30
0.0
 11
-162.325801
 21
521.197485
 31
0.0
  0
LINE
  5
330
330
1F
100
AcDbEntity
  8
LC-001-100-D00-0
 62
     7
370
    50
100
AcDbLine
 10
-177.221283
 20
528.697484
 30
0.0
 11
-173.576138
 21
528.697484
 31
0.0
  0
LINE
  5
331
330
1F
100
AcDbEntity
  8
LC-001-100-D00-0
 62
     7
370
    50
100
AcDbLine
 10
-169.11185
 20
528.697484
 30
0.0
 11
-162.3258
 21
528.697484
 31
0.0
  0
LINE
  5
332
330
1F
100
AcDbEntity
  8
LC-001-100-D00-0
 62
     7
370
    50
100
AcDbLine
 10
-94.31804
 20
521.197484
 30
0.0
 11
-100.384927
 21
521.197484
 31
0.0
  0
LINE
  5
333
330
1F
100
AcDbEntity
  8
LC-001-100-D00-0
 62
     7
370
    50
100
AcDbLine
 10
-158.409943
 20
521.197484
 30
0.0
 11
-164.47683
 21
521.197484
 31
0.0
  0
LINE
  5
334
330
1F
100
AcDbEntity
  8
LC-001-100-D00-0
 62
     7
370
    50
100
AcDbLine
 10
76.602357
 20
510.197485
 30
0.0
 11
80.102356
 21
509.259662
 31
0.0
  0
LINE
  5
335
330
1F
100
AcDbEntity
  8
LC-001-100-D00-0
 62
     7
370
    50
100
AcDbLine
 10
80.102356
 20
461.135304
 30
0.0
 11
76.602357
 21
460.197485
 31
0.0
  0
LINE
  5
336
330
1F
100
AcDbEntity
  8
LC-001-100-D00-0
 62
     7
370
    50
100
AcDbLine
 10
80.102362
 20
507.947484
 30
0.0
 11
-7.617662
 21
507.947484
 31
0.0
  0
LINE
  5
337
330
1F
100
AcDbEntity
  8
LC-001-100-D00-0
 62
     7
370
    50
100
AcDbLine
 10
80.102362
 20
507.947484
 30
0.0
 11
80.102362
 21
462.447484
 31
0.0
  0
LINE
  5
338
330
1F
100
AcDbEntity
  8
LC-001-100-D00-0
 62
     7
370
    50
100
AcDbLine
 10
-7.617662
 20
462.447484
 30
0.0
 11
80.102362
 21
462.447484
 31
0.0
  0
LINE
  5
339
330
1F
100
AcDbEntity
  8
LC-001-100-D00-0
 62
     7
370
    50
100
AcDbLine
 10
-7.617662
 20
507.947484
 30
0.0
 11
-7.617662
 21
462.447484
 31
0.0
  0
ARC
  5
33A
330
1F
100
AcDbEntity
  8
LC-001-100-D00-0
 62
     7
370
    50
100
AcDbCircle
 10
-26.397638
 20
485.197484
 30
0.0
 40
32.00000000000007
100
AcDbArc
 50
51.375167
 51
90.0
  0
LINE
  5
33B
330
1F
100
AcDbEntity
  8
LC-001-100-D00-0
 62
     7
370
    50
100
AcDbLine
 10
-6.422654
 20
510.197484
 30
0.0
 11
76.602357
 21
510.197485
 31
0.0
  0
LINE
  5
33C
330
1F
100
AcDbEntity
  8
LC-001-100-D00-0
 62
     7
370
    50
100
AcDbLine
 10
80.102356
 20
509.259662
 30
0.0
 11
80.102362
 21
507.947484
 31
0.0
  0
ARC
  5
33D
330
1F
100
AcDbEntity
  8
LC-001-100-D00-0
 62
     7
370
    50
100
AcDbCircle
 10
-26.397638
 20
485.197484
 30
0.0
 40
29.50000000000004
100
AcDbArc
 50
50.46055
 51
104.235124
  0
ARC
  5
33E
330
1F
100
AcDbEntity
  8
LC-001-100-D00-0
 62
     7
370
    50
100
AcDbCircle
 10
-33.897638
 20
514.760975
 30
0.0
 40
1.0
100
AcDbArc
 50
180.0
 51
284.235124
  0
LINE
  5
33F
330
1F
100
AcDbEntity
  8
LC-001-100-D00-0
 62
     7
370
    50
100
AcDbLine
 10
-34.897638
 20
514.760975
 30
0.0
 11
-34.897638
 21
517.197485
 31
0.0
  0
LINE
  5
340
330
1F
100
AcDbEntity
  8
LC-001-100-D00-0
 62
     7
370
    50
100
AcDbLine
 10
-34.897638
 20
517.197485
 30
0.0
 11
-26.397638
 21
517.197484
 31
0.0
  0
LINE
  5
341
330
1F
100
AcDbEntity
  8
LC-001-100-D00-0
 62
     7
370
    50
100
AcDbLine
 10
-34.897638
 20
453.197485
 30
0.0
 11
-34.897638
 21
455.633993
 31
0.0
  0
ARC
  5
342
330
1F
100
AcDbEntity
  8
LC-001-100-D00-0
 62
     7
370
    50
100
AcDbCircle
 10
-33.897638
 20
455.633993
 30
0.0
 40
0.9999999999998909
100
AcDbArc
 50
75.764876
 51
180.0
  0
ARC
  5
343
330
1F
100
AcDbEntity
  8
LC-001-100-D00-0
 62
     7
370
    50
100
AcDbCircle
 10
-26.397638
 20
485.197484
 30
0.0
 40
29.50000000000022
100
AcDbArc
 50
255.764876
 51
309.53945
  0
LINE
  5
344
330
1F
100
AcDbEntity
  8
LC-001-100-D00-0
 62
     7
370
    50
100
AcDbLine
 10
80.102362
 20
462.447484
 30
0.0
 11
80.102356
 21
461.135304
 31
0.0
  0
LINE
  5
345
330
1F
100
AcDbEntity
  8
LC-001-100-D00-0
 62
     7
370
    50
100
AcDbLine
 10
76.602357
 20
460.197485
 30
0.0
 11
-6.422654
 21
460.197484
 31
0.0
  0
ARC
  5
346
330
1F
100
AcDbEntity
  8
LC-001-100-D00-0
 62
     7
370
    50
100
AcDbCircle
 10
-26.397638
 20
485.197484
 30
0.0
 40
32.0
100
AcDbArc
 50
270.0
 51
308.624833
  0
LINE
  5
347
330
1F
100
AcDbEntity
  8
LC-001-100-D00-0
 62
     7
370
    50
100
AcDbLine
 10
-26.397638
 20
453.197484
 30
0.0
 11
-34.897638
 21
453.197485
 31
0.0
  0
LINE
  5
348
330
1F
100
AcDbEntity
  8
LC-001-100-D00-0
 62
     7
370
    50
100
AcDbLine
 10
-34.897638
 20
456.762281
 30
0.0
 11
-34.897638
 21
455.633993
 31
0.0
  0
CIRCLE
  5
349
330
1F
100
AcDbEntity
  8
LC-001-100-D00-0
 62
     7
370
    50
100
AcDbCircle
 10
-18.149639
 20
512.197484
 30
0.0
 40
2.0
  0
CIRCLE
  5
34A
330
1F
100
AcDbEntity
  8
LC-001-100-D00-0
 62
     7
370
    50
100
AcDbCircle
 10
-18.149639
 20
458.197484
 30
0.0
 40
2.0
  0
LINE
  5
34B
330
1F
100
AcDbEntity
  8
LC-001-100-D00-0
 62
     7
370
    50
100
AcDbLine
 10
-36.443326
 20
542.061187
 30
0.0
 11
-54.276997
 21
537.282669
 31
0.0
  0
ARC
  5
34C
330
1F
100
AcDbEntity
  8
LC-001-100-D00-0
 62
     7
370
    50
100
AcDbCircle
 10
-35.40805
 20
538.197484
 30
0.0
 40
4.0
100
AcDbArc
 50
90.0
 51
105.0
  0
LINE
  5
34D
330
1F
100
AcDbEntity
  8
LC-001-100-D00-0
 62
     7
370
    50
100
AcDbLine
 10
-35.40805
 20
542.197484
 30
0.0
 11
-33.897435
 21
542.197483
 31
0.0
  0
LINE
  5
34E
330
1F
100
AcDbEntity
  8
LC-001-100-D00-0
 62
     7
370
    50
100
AcDbLine
 10
-33.897435
 20
542.197483
 30
0.0
 11
-33.897435
 21
543.597485
 31
0.0
  0
LINE
  5
34F
330
1F
100
AcDbEntity
  8
LC-001-100-D00-0
 62
     7
370
    50
100
AcDbLine
 10
-33.397435
 20
543.597484
 30
0.0
 11
-33.897435
 21
543.597485
 31
0.0
  0
ARC
  5
350
330
1F
100
AcDbEntity
  8
LC-001-100-D00-0
 62
     7
370
    50
100
AcDbCircle
 10
-34.397435
 20
545.097484
 30
0.0
 40
1.802775637732121
100
AcDbArc
 50
303.690068
 51
56.309932
  0
LINE
  5
351
330
1F
100
AcDbEntity
  8
LC-001-100-D00-0
 62
     7
370
    50
100
AcDbLine
 10
-33.397434
 20
561.197484
 30
0.0
 11
-33.397435
 21
546.597484
 31
0.0
  0
LINE
  5
352
330
1F
100
AcDbEntity
  8
LC-001-100-D00-0
 62
     7
370
    50
100
AcDbLine
 10
-32.397432
 20
562.197484
 30
0.0
 11
-33.397434
 21
561.197484
 31
0.0
  0
LINE
  5
353
330
1F
100
AcDbEntity
  8
LC-001-100-D00-0
 62
     7
370
    50
100
AcDbLine
 10
-26.397435
 20
562.197484
 30
0.0
 11
-32.397432
 21
562.197484
 31
0.0
  0
LINE
  5
354
330
1F
100
AcDbEntity
  8
LC-001-100-D00-0
 62
     7
370
    50
100
AcDbLine
 10
-25.397433
 20
561.197484
 30
0.0
 11
-26.397435
 21
562.197484
 31
0.0
  0
LINE
  5
355
330
1F
100
AcDbEntity
  8
LC-001-100-D00-0
 62
     7
370
    50
100
AcDbLine
 10
-25.397435
 20
546.597484
 30
0.0
 11
-25.397433
 21
561.197484
 31
0.0
  0
ARC
  5
356
330
1F
100
AcDbEntity
  8
LC-001-100-D00-0
 62
     7
370
    50
100
AcDbCircle
 10
-24.397435
 20
545.097484
 30
0.0
 40
1.802775637732058
100
AcDbArc
 50
123.690068
 51
236.309932
  0
LINE
  5
357
330
1F
100
AcDbEntity
  8
LC-001-100-D00-0
 62
     7
370
    50
100
AcDbLine
 10
-24.897432
 20
543.597485
 30
0.0
 11
-25.397435
 21
543.597484
 31
0.0
  0
LINE
  5
358
330
1F
100
AcDbEntity
  8
LC-001-100-D00-0
 62
     7
370
    50
100
AcDbLine
 10
-24.897432
 20
543.597485
 30
0.0
 11
-24.897432
 21
542.197483
 31
0.0
  0
LINE
  5
359
330
1F
100
AcDbEntity
  8
LC-001-100-D00-0
 62
     7
370
    50
100
AcDbLine
 10
-24.897432
 20
542.197483
 30
0.0
 11
86.102562
 21
542.197483
 31
0.0
  0
LINE
  5
35A
330
1F
100
AcDbEntity
  8
LC-001-100-D00-0
 62
     7
370
    50
100
AcDbLine
 10
86.102562
 20
542.197483
 30
0.0
 11
86.102562
 21
543.597485
 31
0.0
  0
LINE
  5
35B
330
1F
100
AcDbEntity
  8
LC-001-100-D00-0
 62
     7
370
    50
100
AcDbLine
 10
86.602565
 20
543.597484
 30
0.0
 11
86.102562
 21
543.597485
 31
0.0
  0
ARC
  5
35C
330
1F
100
AcDbEntity
  8
LC-001-100-D00-0
 62
     7
370
    50
100
AcDbCircle
 10
85.602565
 20
545.097484
 30
0.0
 40
1.802775637731932
100
AcDbArc
 50
303.690068
 51
56.309932
  0
LINE
  5
35D
330
1F
100
AcDbEntity
  8
LC-001-100-D00-0
 62
     7
370
    50
100
AcDbLine
 10
86.602571
 20
561.197484
 30
0.0
 11
86.602565
 21
546.597484
 31
0.0
  0
LINE
  5
35E
330
1F
100
AcDbEntity
  8
LC-001-100-D00-0
 62
     7
370
    50
100
AcDbLine
 10
87.602558
 20
562.197484
 30
0.0
 11
86.602571
 21
561.197484
 31
0.0
  0
LINE
  5
35F
330
1F
100
AcDbEntity
  8
LC-001-100-D00-0
 62
     7
370
    50
100
AcDbLine
 10
93.60257
 20
562.197484
 30
0.0
 11
87.602558
 21
562.197484
 31
0.0
  0
LINE
  5
360
330
1F
100
AcDbEntity
  8
LC-001-100-D00-0
 62
     7
370
    50
100
AcDbLine
 10
94.602572
 20
561.197484
 30
0.0
 11
93.60257
 21
562.197484
 31
0.0
  0
LINE
  5
361
330
1F
100
AcDbEntity
  8
LC-001-100-D00-0
 62
     7
370
    50
100
AcDbLine
 10
94.602565
 20
546.597484
 30
0.0
 11
94.602572
 21
561.197484
 31
0.0
  0
ARC
  5
362
330
1F
100
AcDbEntity
  8
LC-001-100-D00-0
 62
     7
370
    50
100
AcDbCircle
 10
95.602565
 20
545.097484
 30
0.0
 40
1.802775637732058
100
AcDbArc
 50
123.690068
 51
236.309932
  0
LINE
  5
363
330
1F
100
AcDbEntity
  8
LC-001-100-D00-0
 62
     7
370
    50
100
AcDbLine
 10
95.102566
 20
543.597485
 30
0.0
 11
94.602565
 21
543.597484
 31
0.0
  0
LINE
  5
364
330
1F
100
AcDbEntity
  8
LC-001-100-D00-0
 62
     7
370
    50
100
AcDbLine
 10
95.102566
 20
543.597485
 30
0.0
 11
95.102566
 21
542.197483
 31
0.0
  0
LINE
  5
365
330
1F
100
AcDbEntity
  8
LC-001-100-D00-0
 62
     7
370
    50
100
AcDbLine
 10
95.102566
 20
542.197483
 30
0.0
 11
112.602565
 21
542.197484
 31
0.0
  0
ARC
  5
366
330
1F
100
AcDbEntity
  8
LC-001-100-D00-0
 62
     7
370
    50
100
AcDbCircle
 10
112.602565
 20
550.197484
 30
0.0
 40
8.000000000000227
100
AcDbArc
 50
270.0
 51
0.0
  0
LINE
  5
367
330
1F
100
AcDbEntity
  8
LC-001-100-D00-0
 62
     7
370
    50
100
AcDbLine
 10
120.602565
 20
550.197484
 30
0.0
 11
120.602565
 21
559.697484
 31
0.0
  0
ARC
  5
368
330
1F
100
AcDbEntity
  8
LC-001-100-D00-0
 62
     7
370
    50
100
AcDbCircle
 10
123.602565
 20
559.697484
 30
0.0
 40
3.0
100
AcDbArc
 50
90.0
 51
180.0
  0
LINE
  5
369
330
1F
100
AcDbEntity
  8
LC-001-100-D00-0
 62
     7
370
    50
100
AcDbLine
 10
170.602577
 20
562.697484
 30
0.0
 11
123.602565
 21
562.697484
 31
0.0
  0
LINE
  5
36A
330
1F
100
AcDbEntity
  8
LC-001-100-D00-0
 62
     7
370
    50
100
AcDbLine
 10
170.602577
 20
561.197484
 30
0.0
 11
170.602577
 21
562.697484
 31
0.0
  0
LINE
  5
36B
330
1F
100
AcDbEntity
  8
LC-001-100-D00-0
 62
     7
370
    50
100
AcDbLine
 10
170.602577
 20
561.197484
 30
0.0
 11
123.602565
 21
561.197484
 31
0.0
  0
ARC
  5
36C
330
1F
100
AcDbEntity
  8
LC-001-100-D00-0
 62
     7
370
    50
100
AcDbCircle
 10
123.602565
 20
559.697484
 30
0.0
 40
1.5
100
AcDbArc
 50
90.0
 51
180.0
  0
LINE
  5
36D
330
1F
100
AcDbEntity
  8
LC-001-100-D00-0
 62
     7
370
    50
100
AcDbLine
 10
122.102565
 20
550.197484
 30
0.0
 11
122.102565
 21
559.697484
 31
0.0
  0
ARC
  5
36E
330
1F
100
AcDbEntity
  8
LC-001-100-D00-0
 62
     7
370
    50
100
AcDbCircle
 10
112.602565
 20
550.197484
 30
0.0
 40
9.500000000000227
100
AcDbArc
 50
270.0
 51
0.0
  0
LINE
  5
36F
330
1F
100
AcDbEntity
  8
LC-001-100-D00-0
 62
     7
370
    50
100
AcDbLine
 10
-35.40805
 20
540.697484
 30
0.0
 11
112.602565
 21
540.697484
 31
0.0
  0
ARC
  5
370
330
1F
100
AcDbEntity
  8
LC-001-100-D00-0
 62
     7
370
    50
100
AcDbCircle
 10
-35.40805
 20
538.197484
 30
0.0
 40
2.5
100
AcDbArc
 50
90.0
 51
105.0
  0
LINE
  5
371
330
1F
100
AcDbEntity
  8
LC-001-100-D00-0
 62
     7
370
    50
100
AcDbLine
 10
-36.055097
 20
540.612298
 30
0.0
 11
-53.888769
 21
535.833781
 31
0.0
  0
ARC
  5
372
330
1F
100
AcDbEntity
  8
LC-001-100-D00-0
 62
     7
370
    50
100
AcDbCircle
 10
-54.924045
 20
539.697484
 30
0.0
 40
4.0
100
AcDbArc
 50
270.0
 51
285.0
  0
LINE
  5
373
330
1F
100
AcDbEntity
  8
LC-001-100-D00-0
 62
     7
370
    50
100
AcDbLine
 10
-54.924045
 20
535.697484
 30
0.0
 11
-71.597435
 21
535.697484
 31
0.0
  0
ARC
  5
374
330
1F
100
AcDbEntity
  8
LC-001-100-D00-0
 62
     7
370
    50
100
AcDbCircle
 10
-71.597435
 20
534.697484
 30
0.0
 40
1.0
100
AcDbArc
 50
90.0
 51
180.0
  0
LINE
  5
375
330
1F
100
AcDbEntity
  8
LC-001-100-D00-0
 62
     7
370
    50
100
AcDbLine
 10
-72.597435
 20
534.697484
 30
0.0
 11
-72.597435
 21
530.697482
 31
0.0
  0
LINE
  5
376
330
1F
100
AcDbEntity
  8
LC-001-100-D00-0
 62
     7
370
    50
100
AcDbLine
 10
-72.597435
 20
530.697482
 30
0.0
 11
-74.097435
 21
530.697484
 31
0.0
  0
LINE
  5
377
330
1F
100
AcDbEntity
  8
LC-001-100-D00-0
 62
     7
370
    50
100
AcDbLine
 10
-74.097435
 20
534.697484
 30
0.0
 11
-74.097435
 21
530.697484
 31
0.0
  0
ARC
  5
378
330
1F
100
AcDbEntity
  8
LC-001-100-D00-0
 62
     7
370
    50
100
AcDbCircle
 10
-71.597435
 20
534.697484
 30
0.0
 40
2.5
100
AcDbArc
 50
90.0
 51
180.0
  0
LINE
  5
379
330
1F
100
AcDbEntity
  8
LC-001-100-D00-0
 62
     7
370
    50
100
AcDbLine
 10
-54.924045
 20
537.197484
 30
0.0
 11
-71.597435
 21
537.197484
 31
0.0
  0
ARC
  5
37A
330
1F
100
AcDbEntity
  8
LC-001-100-D00-0
 62
     7
370
    50
100
AcDbCircle
 10
-54.924045
 20
539.697484
 30
0.0
 40
2.500000000000227
100
AcDbArc
 50
270.0
 51
285.0
  0
LINE
  5
37B
330
1F
100
AcDbEntity
  8
LC-001-100-D00-0
 62
     7
370
    50
100
AcDbLine
 10
-74.097435
 20
530.697484
 30
0.0
 11
-74.147435
 21
530.697484
 31
0.0
  0
LINE
  5
37C
330
1F
100
AcDbEntity
  8
LC-001-100-D00-0
 62
     7
370
    50
100
AcDbLine
 10
-85.003551
 20
537.197484
 30
0.0
 11
-71.597435
 21
537.197484
 31
0.0
  0
LINE
  5
37D
330
1F
100
AcDbEntity
  8
LC-001-100-D00-0
 62
     7
370
    50
100
AcDbLine
 10
-186.197435
 20
530.697482
 30
0.0
 11
-186.197435
 21
534.697484
 31
0.0
  0
LINE
  5
37E
330
1F
100
AcDbEntity
  8
LC-001-100-D00-0
 62
     7
370
    50
100
AcDbLine
 10
-184.647435
 20
530.697484
 30
0.0
 11
-184.697435
 21
530.697484
 31
0.0
  0
LINE
  5
37F
330
1F
100
AcDbEntity
  8
LC-001-100-D00-0
 62
     7
370
    50
100
AcDbLine
 10
-184.697435
 20
530.697484
 30
0.0
 11
-184.697435
 21
534.697484
 31
0.0
  0
ARC
  5
380
330
1F
100
AcDbEntity
  8
LC-001-100-D00-0
 62
     7
370
    50
100
AcDbCircle
 10
-187.197435
 20
534.697484
 30
0.0
 40
2.5
100
AcDbArc
 50
0.0
 51
90.0
  0
LINE
  5
381
330
1F
100
AcDbEntity
  8
LC-001-100-D00-0
 62
     7
370
    50
100
AcDbLine
 10
-173.791318
 20
537.197484
 30
0.0
 11
-187.197435
 21
537.197484
 31
0.0
  0
ARC
  5
382
330
1F
100
AcDbEntity
  8
LC-001-100-D00-0
 62
     7
370
    50
100
AcDbCircle
 10
-187.197435
 20
534.697484
 30
0.0
 40
1.000000000000114
100
AcDbArc
 50
0.0
 51
90.0
  0
LINE
  5
383
330
1F
100
AcDbEntity
  8
LC-001-100-D00-0
 62
     7
370
    50
100
AcDbLine
 10
-353.397442
 20
561.197484
 30
0.0
 11
-353.397435
 21
546.597484
 31
0.0
  0
LINE
  5
384
330
1F
100
AcDbEntity
  8
LC-001-100-D00-0
 62
     7
370
    50
100
AcDbLine
 10
-352.39744
 20
562.197484
 30
0.0
 11
-353.397442
 21
561.197484
 31
0.0
  0
LINE
  5
385
330
1F
100
AcDbEntity
  8
LC-001-100-D00-0
 62
     7
370
    50
100
AcDbLine
 10
-346.397428
 20
562.197484
 30
0.0
 11
-352.39744
 21
562.197484
 31
0.0
  0
LINE
  5
386
330
1F
100
AcDbEntity
  8
LC-001-100-D00-0
 62
     7
370
    50
100
AcDbLine
 10
-345.397441
 20
561.197484
 30
0.0
 11
-346.397428
 21
562.197484
 31
0.0
  0
LINE
  5
387
330
1F
100
AcDbEntity
  8
LC-001-100-D00-0
 62
     7
370
    50
100
AcDbLine
 10
-345.397435
 20
546.597484
 30
0.0
 11
-345.397441
 21
561.197484
 31
0.0
  0
ARC
  5
388
330
1F
100
AcDbEntity
  8
LC-001-100-D00-0
 62
     7
370
    50
100
AcDbCircle
 10
-344.397435
 20
545.097484
 30
0.0
 40
1.802775637732058
100
AcDbArc
 50
123.690068
 51
236.309932
  0
LINE
  5
389
330
1F
100
AcDbEntity
  8
LC-001-100-D00-0
 62
     7
370
    50
100
AcDbLine
 10
-344.897432
 20
543.597485
 30
0.0
 11
-345.397435
 21
543.597484
 31
0.0
  0
LINE
  5
38A
330
1F
100
AcDbEntity
  8
LC-001-100-D00-0
 62
     7
370
    50
100
AcDbLine
 10
-344.897432
 20
543.597485
 30
0.0
 11
-344.897432
 21
542.197483
 31
0.0
  0
LINE
  5
38B
330
1F
100
AcDbEntity
  8
LC-001-100-D00-0
 62
     7
370
    50
100
AcDbLine
 10
-344.897432
 20
542.197483
 30
0.0
 11
-233.897438
 21
542.197483
 31
0.0
  0
LINE
  5
38C
330
1F
100
AcDbEntity
  8
LC-001-100-D00-0
 62
     7
370
    50
100
AcDbLine
 10
-233.897438
 20
542.197483
 30
0.0
 11
-233.897438
 21
543.597485
 31
0.0
  0
LINE
  5
38D
330
1F
100
AcDbEntity
  8
LC-001-100-D00-0
 62
     7
370
    50
100
AcDbLine
 10
-233.397435
 20
543.597484
 30
0.0
 11
-233.897438
 21
543.597485
 31
0.0
  0
ARC
  5
38E
330
1F
100
AcDbEntity
  8
LC-001-100-D00-0
 62
     7
370
    50
100
AcDbCircle
 10
-234.397435
 20
545.097484
 30
0.0
 40
1.802775637731932
100
AcDbArc
 50
303.690068
 51
56.309932
  0
LINE
  5
38F
330
1F
100
AcDbEntity
  8
LC-001-100-D00-0
 62
     7
370
    50
100
AcDbLine
 10
-233.397437
 20
561.197484
 30
0.0
 11
-233.397435
 21
546.597484
 31
0.0
  0
LINE
  5
390
330
1F
100
AcDbEntity
  8
LC-001-100-D00-0
 62
     7
370
    50
100
AcDbLine
 10
-232.397435
 20
562.197484
 30
0.0
 11
-233.397437
 21
561.197484
 31
0.0
  0
LINE
  5
391
330
1F
100
AcDbEntity
  8
LC-001-100-D00-0
 62
     7
370
    50
100
AcDbLine
 10
-226.397438
 20
562.197484
 30
0.0
 11
-232.397435
 21
562.197484
 31
0.0
  0
LINE
  5
392
330
1F
100
AcDbEntity
  8
LC-001-100-D00-0
 62
     7
370
    50
100
AcDbLine
 10
-225.397436
 20
561.197484
 30
0.0
 11
-226.397438
 21
562.197484
 31
0.0
  0
LINE
  5
393
330
1F
100
AcDbEntity
  8
LC-001-100-D00-0
 62
     7
370
    50
100
AcDbLine
 10
-225.397435
 20
546.597484
 30
0.0
 11
-225.397436
 21
561.197484
 31
0.0
  0
ARC
  5
394
330
1F
100
AcDbEntity
  8
LC-001-100-D00-0
 62
     7
370
    50
100
AcDbCircle
 10
-224.397435
 20
545.097484
 30
0.0
 40
1.802775637732058
100
AcDbArc
 50
123.690068
 51
236.309932
  0
LINE
  5
395
330
1F
100
AcDbEntity
  8
LC-001-100-D00-0
 62
     7
370
    50
100
AcDbLine
 10
-224.897435
 20
543.597485
 30
0.0
 11
-225.397435
 21
543.597484
 31
0.0
  0
LINE
  5
396
330
1F
100
AcDbEntity
  8
LC-001-100-D00-0
 62
     7
370
    50
100
AcDbLine
 10
-224.897435
 20
543.597485
 30
0.0
 11
-224.897435
 21
542.197483
 31
0.0
  0
LINE
  5
397
330
1F
100
AcDbEntity
  8
LC-001-100-D00-0
 62
     7
370
    50
100
AcDbLine
 10
-224.897435
 20
542.197483
 30
0.0
 11
-223.38682
 21
542.197484
 31
0.0
  0
ARC
  5
398
330
1F
100
AcDbEntity
  8
LC-001-100-D00-0
 62
     7
370
    50
100
AcDbCircle
 10
-223.38682
 20
538.197484
 30
0.0
 40
4.000000000000122
100
AcDbArc
 50
75.0
 51
90.0
  0
LINE
  5
399
330
1F
100
AcDbEntity
  8
LC-001-100-D00-0
 62
     7
370
    50
100
AcDbLine
 10
-204.517873
 20
537.282669
 30
0.0
 11
-222.351544
 21
542.061187
 31
0.0
  0
ARC
  5
39A
330
1F
100
AcDbEntity
  8
LC-001-100-D00-0
 62
     7
370
    50
100
AcDbCircle
 10
-203.870825
 20
539.697484
 30
0.0
 40
2.500000000000091
100
AcDbArc
 50
255.0
 51
270.0
  0
LINE
  5
39B
330
1F
100
AcDbEntity
  8
LC-001-100-D00-0
 62
     7
370
    50
100
AcDbLine
 10
-198.474644
 20
537.097484
 30
0.0
 11
-198.474644
 21
537.197484
 31
0.0
  0
LINE
  5
39C
330
1F
100
AcDbEntity
  8
LC-001-100-D00-0
 62
     7
370
    50
100
AcDbLine
 10
-197.950808
 20
537.097484
 30
0.0
 11
-198.474644
 21
537.097484
 31
0.0
  0
LINE
  5
39D
330
1F
100
AcDbEntity
  8
LC-001-100-D00-0
 62
     7
370
    50
100
AcDbLine
 10
-197.950808
 20
537.197484
 30
0.0
 11
-197.950808
 21
537.097484
 31
0.0
  0
LINE
  5
39E
330
1F
100
AcDbEntity
  8
LC-001-100-D00-0
 62
     7
370
    50
100
AcDbLine
 10
-197.256563
 20
537.097484
 30
0.0
 11
-197.256563
 21
537.197484
 31
0.0
  0
LINE
  5
39F
330
1F
100
AcDbEntity
  8
LC-001-100-D00-0
 62
     7
370
    50
100
AcDbLine
 10
-196.732214
 20
537.097484
 30
0.0
 11
-197.256563
 21
537.097484
 31
0.0
  0
LINE
  5
3A0
330
1F
100
AcDbEntity
  8
LC-001-100-D00-0
 62
     7
370
    50
100
AcDbLine
 10
-196.732214
 20
537.197484
 30
0.0
 11
-196.732214
 21
537.097484
 31
0.0
  0
ARC
  5
3A1
330
1F
100
AcDbEntity
  8
LC-001-100-D00-0
 62
     7
370
    50
100
AcDbCircle
 10
-203.870825
 20
539.697484
 30
0.0
 40
4.000000000000122
100
AcDbArc
 50
255.0
 51
270.0
  0
LINE
  5
3A2
330
1F
100
AcDbEntity
  8
LC-001-100-D00-0
 62
     7
370
    50
100
AcDbLine
 10
-204.906101
 20
535.833781
 30
0.0
 11
-222.739773
 21
540.612298
 31
0.0
  0
ARC
  5
3A3
330
1F
100
AcDbEntity
  8
LC-001-100-D00-0
 62
     7
370
    50
100
AcDbCircle
 10
-223.38682
 20
538.197484
 30
0.0
 40
2.500000000000091
100
AcDbArc
 50
75.0
 51
90.0
  0
LINE
  5
3A4
330
1F
100
AcDbEntity
  8
LC-001-100-D00-0
 62
     7
370
    50
100
AcDbLine
 10
-371.397435
 20
540.697484
 30
0.0
 11
-223.38682
 21
540.697484
 31
0.0
  0
ARC
  5
3A5
330
1F
100
AcDbEntity
  8
LC-001-100-D00-0
 62
     7
370
    50
100
AcDbCircle
 10
-371.397435
 20
550.197484
 30
0.0
 40
9.500000000000114
100
AcDbArc
 50
180.0
 51
270.0
  0
LINE
  5
3A6
330
1F
100
AcDbEntity
  8
LC-001-100-D00-0
 62
     7
370
    50
100
AcDbLine
 10
-380.897435
 20
559.697484
 30
0.0
 11
-380.897435
 21
550.197484
 31
0.0
  0
ARC
  5
3A7
330
1F
100
AcDbEntity
  8
LC-001-100-D00-0
 62
     7
370
    50
100
AcDbCircle
 10
-382.397435
 20
559.697484
 30
0.0
 40
1.499999999999886
100
AcDbArc
 50
0.0
 51
90.0
  0
ARC
  5
3A8
330
1F
100
AcDbEntity
  8
LC-001-100-D00-0
 62
     7
370
    50
100
AcDbCircle
 10
-382.397435
 20
559.697484
 30
0.0
 40
2.999999999999886
100
AcDbArc
 50
0.0
 51
90.0
  0
LINE
  5
3A9
330
1F
100
AcDbEntity
  8
LC-001-100-D00-0
 62
     7
370
    50
100
AcDbLine
 10
-379.397435
 20
559.697484
 30
0.0
 11
-379.397435
 21
550.197484
 31
0.0
  0
ARC
  5
3AA
330
1F
100
AcDbEntity
  8
LC-001-100-D00-0
 62
     7
370
    50
100
AcDbCircle
 10
-371.397435
 20
550.197484
 30
0.0
 40
8.000000000000114
100
AcDbArc
 50
180.0
 51
270.0
  0
LINE
  5
3AB
330
1F
100
AcDbEntity
  8
LC-001-100-D00-0
 62
     7
370
    50
100
AcDbLine
 10
-371.397435
 20
542.197484
 30
0.0
 11
-353.897435
 21
542.197483
 31
0.0
  0
LINE
  5
3AC
330
1F
100
AcDbEntity
  8
LC-001-100-D00-0
 62
     7
370
    50
100
AcDbLine
 10
-353.897435
 20
542.197483
 30
0.0
 11
-353.897435
 21
543.597485
 31
0.0
  0
LINE
  5
3AD
330
1F
100
AcDbEntity
  8
LC-001-100-D00-0
 62
     7
370
    50
100
AcDbLine
 10
-353.397435
 20
543.597484
 30
0.0
 11
-353.897435
 21
543.597485
 31
0.0
  0
ARC
  5
3AE
330
1F
100
AcDbEntity
  8
LC-001-100-D00-0
 62
     7
370
    50
100
AcDbCircle
 10
-354.397435
 20
545.097484
 30
0.0
 40
1.802775637731868
100
AcDbArc
 50
303.690068
 51
56.309932
  0
LINE
  5
3AF
330
1F
100
AcDbEntity
  8
LC-001-100-D00-0
 62
     7
370
    50
100
AcDbLine
 10
-184.697435
 20
530.697484
 30
0.0
 11
-186.197435
 21
530.697482
 31
0.0
  0
LINE
  5
3B0
330
1F
100
AcDbEntity
  8
LC-001-100-D00-0
 62
     7
370
    50
100
AcDbLine
 10
-187.197435
 20
535.697484
 30
0.0
 11
-203.870825
 21
535.697484
 31
0.0
  0
LINE
  5
3B1
330
1F
100
AcDbEntity
  8
LC-001-100-D00-0
 62
     7
370
    50
100
AcDbLine
 10
-197.256563
 20
537.197484
 30
0.0
 11
-197.950808
 21
537.197484
 31
0.0
  0
LINE
  5
3B2
330
1F
100
AcDbEntity
  8
LC-001-100-D00-0
 62
     7
370
    50
100
AcDbLine
 10
-198.474644
 20
537.197484
 30
0.0
 11
-203.870825
 21
537.197484
 31
0.0
  0
LINE
  5
3B3
330
1F
100
AcDbEntity
  8
LC-001-100-D00-0
 62
     7
370
    50
100
AcDbLine
 10
-187.197435
 20
537.197484
 30
0.0
 11
-196.732214
 21
537.197484
 31
0.0
  0
LINE
  5
3B4
330
1F
100
AcDbEntity
  8
LC-001-100-D00-0
 62
     7
370
    50
100
AcDbLine
 10
-382.397435
 20
562.697484
 30
0.0
 11
-423.208435
 21
562.697484
 31
0.0
  0
LINE
  5
3B5
330
1F
100
AcDbEntity
  8
LC-001-100-D00-0
 62
     7
370
    50
100
AcDbLine
 10
-382.397435
 20
561.197484
 30
0.0
 11
-423.208435
 21
561.197484
 31
0.0
  0
LINE
  5
3B6
330
1F
100
AcDbEntity
  8
LC-001-100-D00-0
 62
     7
370
    50
100
AcDbLine
 10
-197.256563
 20
537.197484
 30
0.0
 11
-196.732214
 21
537.197484
 31
0.0
  0
LINE
  5
3B7
330
1F
100
AcDbEntity
  8
LC-001-100-D00-0
 62
     7
370
    50
100
AcDbLine
 10
-198.474644
 20
537.197484
 30
0.0
 11
-197.950808
 21
537.197484
 31
0.0
  0
ELLIPSE
  5
3B8
330
1F
100
AcDbEntity
  8
LC-001-100-D00-0
 62
     7
370
    50
100
AcDbEllipse
 10
-24.375618
 20
538.197484
 30
0.0
 11
0.0
 21
-2.500000007629394
 31
0.0
210
0.0
220
0.0
230
1.0
 40
0.027578
 41
6.283185307176237
 42
6.604935861574525
  0
ELLIPSE
  5
3B9
330
1F
100
AcDbEntity
  8
LC-001-100-D00-0
 62
     7
370
    50
100
AcDbEllipse
 10
-234.419252
 20
538.197484
 30
0.0
 11
0.0
 21
-2.500000032424927
 31
0.0
210
0.0
220
0.0
230
0.9999999999999999
 40
0.027578
 41
5.961434752787242
 42
6.28318530718577
  0
LINE
  5
3BA
330
1F
100
AcDbEntity
  8
LC-001-100-D00-0
 62
     7
370
    50
100
AcDbLine
 10
-24.397438
 20
540.568831
 30
0.0
 11
-24.397438
 21
535.903443
 31
0.0
  0
LINE
  5
3BB
330
1F
100
AcDbEntity
  8
LC-001-100-D00-0
 62
     7
370
    50
100
AcDbLine
 10
-234.397432
 20
540.568831
 30
0.0
 11
-234.397432
 21
535.903443
 31
0.0
  0
INSERT
  5
3C5
330
1F
100
AcDbEntity
  8
LC-001-100-D00-0
 62
     7
370
    50
100
AcDbBlockReference
  2
KLON16
 10
0.0
 20
0.0
 30
0.0
  0
INSERT
  5
3CF
330
1F
100
AcDbEntity
  8
LC-001-100-D00-0
 62
     7
370
    50
100
AcDbBlockReference
  2
KLON17
 10
0.0
 20
0.0
 30
0.0
  0
LINE
  5
3D0
330
1F
100
AcDbEntity
  8
LC-001-100-D00-0
 62
     7
370
    50
100
AcDbLine
 10
-24.397446
 20
535.697483
 30
0.0
 11
-24.397468
 21
535.90275
 31
0.0
  0
LINE
  5
3D1
330
1F
100
AcDbEntity
  8
LC-001-100-D00-0
 62
     7
370
    50
100
AcDbLine
 10
-24.397438
 20
535.697483
 30
0.0
 11
103.510248
 21
540.365648
 31
0.0
  0
LINE
  5
3D2
330
1F
100
AcDbEntity
  8
LC-001-100-D00-0
 62
     7
370
    50
100
AcDbLine
 10
-24.397446
 20
535.697483
 30
0.0
 11
-24.397446
 21
535.697483
 31
0.0
  0
LINE
  5
3D3
330
1F
100
AcDbEntity
  8
LC-001-100-D00-0
 62
     7
370
    50
100
AcDbLine
 10
-234.397424
 20
535.697483
 30
0.0
 11
-234.397402
 21
535.90275
 31
0.0
  0
LINE
  5
3D4
330
1F
100
AcDbEntity
  8
LC-001-100-D00-0
 62
     7
370
    50
100
AcDbLine
 10
-234.397432
 20
535.697483
 30
0.0
 11
-362.305118
 21
540.365648
 31
0.0
  0
LINE
  5
3D5
330
1F
100
AcDbEntity
  8
LC-001-100-D00-0
 62
     7
370
    50
100
AcDbLine
 10
-234.397424
 20
535.697483
 30
0.0
 11
-234.397424
 21
535.697483
 31
0.0
  0
LINE
  5
3D6
330
1F
100
AcDbEntity
  8
LC-001-100-D00-0
 62
     7
370
    50
100
AcDbLine
 10
-87.611278
 20
528.697484
 30
0.0
 11
-85.218732
 21
528.697484
 31
0.0
  0
LINE
  5
3D7
330
1F
100
AcDbEntity
  8
LC-001-100-D00-0
 62
     7
370
    50
100
AcDbLine
 10
-84.24752
 20
527.197484
 30
0.0
 11
-84.151933
 21
527.205544
 31
0.0
  0
LINE
  5
3D8
330
1F
100
AcDbEntity
  8
LC-001-100-D00-0
 62
     7
370
    50
100
AcDbLine
 10
-84.24752
 20
527.197484
 30
0.0
 11
-87.611278
 21
527.197484
 31
0.0
  0
LINE
  5
3D9
330
1F
100
AcDbEntity
  8
LC-001-100-D00-0
 62
     7
370
    50
100
AcDbLine
 10
-174.642937
 20
527.205544
 30
0.0
 11
-174.54735
 21
527.197484
 31
0.0
  0
LINE
  5
3DA
330
1F
100
AcDbEntity
  8
LC-001-100-D00-0
 62
     7
370
    50
100
AcDbLine
 10
-173.576138
 20
528.697484
 30
0.0
 11
-171.183591
 21
528.697484
 31
0.0
  0
LINE
  5
3DB
330
1F
100
AcDbEntity
  8
LC-001-100-D00-0
 62
     7
370
    50
100
AcDbLine
 10
-171.183591
 20
527.197484
 30
0.0
 11
-174.54735
 21
527.197484
 31
0.0
  0
LINE
  5
3DC
330
1F
100
AcDbEntity
  8
LC-001-100-D00-0
 62
     7
370
    50
100
AcDbLine
 10
-87.611278
 20
528.697484
 30
0.0
 11
-88.388207
 21
528.697484
 31
0.0
  0
LINE
  5
3DD
330
1F
100
AcDbEntity
  8
LC-001-100-D00-0
 62
     7
370
    50
100
AcDbLine
 10
-87.611278
 20
527.197484
 30
0.0
 11
-88.388207
 21
527.197484
 31
0.0
  0
LINE
  5
3DE
330
1F
100
AcDbEntity
  8
LC-001-100-D00-0
 62
     7
370
    50
100
AcDbLine
 10
-171.183591
 20
528.697484
 30
0.0
 11
-170.406663
 21
528.697484
 31
0.0
  0
LINE
  5
3DF
330
1F
100
AcDbEntity
  8
LC-001-100-D00-0
 62
     7
370
    50
100
AcDbLine
 10
-171.183591
 20
527.197484
 30
0.0
 11
-170.406663
 21
527.197484
 31
0.0
  0
LINE
  5
3E0
330
1F
100
AcDbEntity
  8
LC-001-100-D00-0
 62
     7
370
    50
100
AcDbLine
 10
-54.924045
 20
535.697484
 30
0.0
 11
-52.823445
 21
535.697483
 31
0.0
  0
LINE
  5
3E1
330
1F
100
AcDbEntity
  8
LC-001-100-D00-0
 62
     7
370
    50
100
AcDbLine
 10
-203.870825
 20
535.697484
 30
0.0
 11
-205.971425
 21
535.697483
 31
0.0
  0
LINE
  5
3E2
330
1F
100
AcDbEntity
  8
LC-001-100-D00-0
 62
     7
370
    50
100
AcDbLine
 10
-89.667089
 20
528.697484
 30
0.0
 11
-88.388207
 21
528.697484
 31
0.0
  0
LINE
  5
3E3
330
1F
100
AcDbEntity
  8
LC-001-100-D00-0
 62
     7
370
    50
100
AcDbLine
 10
-88.388207
 20
527.197484
 30
0.0
 11
-89.68302
 21
527.197484
 31
0.0
  0
LINE
  5
3E4
330
1F
100
AcDbEntity
  8
LC-001-100-D00-0
 62
     7
370
    50
100
AcDbLine
 10
-170.406663
 20
528.697484
 30
0.0
 11
-169.127781
 21
528.697484
 31
0.0
  0
LINE
  5
3E5
330
1F
100
AcDbEntity
  8
LC-001-100-D00-0
 62
     7
370
    50
100
AcDbLine
 10
-169.11185
 20
527.197484
 30
0.0
 11
-170.406663
 21
527.197484
 31
0.0
  0
LINE
  5
3E6
330
1F
100
AcDbEntity
  8
LC-001-100-D00-0
 62
     7
370
    50
100
AcDbLine
 10
-52.823445
 20
535.697483
 30
0.0
 11
-24.397446
 21
535.697483
 31
0.0
  0
LINE
  5
3E7
330
1F
100
AcDbEntity
  8
LC-001-100-D00-0
 62
     7
370
    50
100
AcDbLine
 10
-205.971425
 20
535.697483
 30
0.0
 11
-234.397424
 21
535.697483
 31
0.0
  0
ARC
  5
3E8
330
1F
100
AcDbEntity
  8
LC-001-100-D00-0
 62
     7
370
    50
100
AcDbCircle
 10
-84.881807
 20
528.631635
 30
0.0
 40
1.602014939991413
100
AcDbArc
 50
297.103406
 51
2.355668
  0
INSERT
  5
3F1
330
1F
100
AcDbEntity
  8
LC-001-100-D00-0
 62
     7
370
    50
100
AcDbBlockReference
  2
KLON18
 10
0.0
 20
0.0
 30
0.0
  0
INSERT
  5
3FE
330
1F
100
AcDbEntity
  8
LC-001-100-D00-0
 62
     7
370
    50
100
AcDbBlockReference
  2
KLON19
 10
0.0
 20
0.0
 30
0.0
  0
INSERT
  5
40B
330
1F
100
AcDbEntity
  8
LC-001-100-D00-0
 62
     7
370
    50
100
AcDbBlockReference
  2
KLON20
 10
0.0
 20
0.0
 30
0.0
  0
LINE
  5
40C
330
1F
100
AcDbEntity
  8
LC-001-100-D00-0
 62
     7
370
    50
100
AcDbLine
 10
118.102565
 20
562.697484
 30
0.0
 11
123.602565
 21
562.697484
 31
0.0
  0
LINE
  5
40D
330
1F
100
AcDbEntity
  8
LC-001-100-D00-0
 62
     7
370
    50
100
AcDbLine
 10
-376.897435
 20
562.697484
 30
0.0
 11
-382.397435
 21
562.697484
 31
0.0
  0
LINE
  5
40E
330
1F
100
AcDbEntity
  8
LC-001-100-D00-0
 62
     7
370
    50
100
AcDbLine
 10
118.102565
 20
562.697484
 30
0.0
 11
107.852565
 21
562.697484
 31
0.0
  0
LINE
  5
40F
330
1F
100
AcDbEntity
  8
LC-001-100-D00-0
 62
     7
370
    50
100
AcDbLine
 10
73.352565
 20
562.697484
 30
0.0
 11
-12.147435
 21
562.697484
 31
0.0
  0
LINE
  5
410
330
1F
100
AcDbEntity
  8
LC-001-100-D00-0
 62
     7
370
    50
100
AcDbLine
 10
-46.647435
 20
562.697484
 30
0.0
 11
-212.147435
 21
562.697484
 31
0.0
  0
LINE
  5
411
330
1F
100
AcDbEntity
  8
LC-001-100-D00-0
 62
     7
370
    50
100
AcDbLine
 10
-246.647435
 20
562.697484
 30
0.0
 11
-332.147435
 21
562.697484
 31
0.0
  0
LINE
  5
412
330
1F
100
AcDbEntity
  8
LC-001-100-D00-0
 62
     7
370
    50
100
AcDbLine
 10
-366.647435
 20
562.697484
 30
0.0
 11
-376.897435
 21
562.697484
 31
0.0
  0
ARC
  5
413
330
1F
100
AcDbEntity
  8
LC-001-100-D00-0
 62
     7
370
    50
100
AcDbCircle
 10
57.702565
 20
536.097484
 30
0.0
 40
2.000000000000114
100
AcDbArc
 50
180.0
 51
270.0
  0
LINE
  5
414
330
1F
100
AcDbEntity
  8
LC-001-100-D00-0
 62
     7
370
    50
100
AcDbLine
 10
57.702565
 20
534.097484
 30
0.0
 11
83.502565
 21
534.097484
 31
0.0
  0
ARC
  5
415
330
1F
100
AcDbEntity
  8
LC-001-100-D00-0
 62
     7
370
    50
100
AcDbCircle
 10
83.502565
 20
536.097484
 30
0.0
 40
2.000000000000227
100
AcDbArc
 50
270.0
 51
0.0
  0
LINE
  5
416
330
1F
100
AcDbEntity
  8
LC-001-100-D00-0
 62
     7
370
    50
100
AcDbLine
 10
85.502565
 20
536.097484
 30
0.0
 11
85.502567
 21
539.708432
 31
0.0
  0
LINE
  5
417
330
1F
100
AcDbEntity
  8
LC-001-100-D00-0
 62
     7
370
    50
100
AcDbLine
 10
87.502571
 20
539.781426
 30
0.0
 11
87.502565
 21
536.097484
 31
0.0
  0
ARC
  5
418
330
1F
100
AcDbEntity
  8
LC-001-100-D00-0
 62
     7
370
    50
100
AcDbCircle
 10
83.502565
 20
536.097484
 30
0.0
 40
4.0
100
AcDbArc
 50
270.0
 51
0.0
  0
LINE
  5
419
330
1F
100
AcDbEntity
  8
LC-001-100-D00-0
 62
     7
370
    50
100
AcDbLine
 10
83.502565
 20
532.097484
 30
0.0
 11
57.702565
 21
532.097484
 31
0.0
  0
ARC
  5
41A
330
1F
100
AcDbEntity
  8
LC-001-100-D00-0
 62
     7
370
    50
100
AcDbCircle
 10
57.702565
 20
536.097484
 30
0.0
 40
4.000000000000114
100
AcDbArc
 50
180.0
 51
270.0
  0
LINE
  5
41B
330
1F
100
AcDbEntity
  8
LC-001-100-D00-0
 62
     7
370
    50
100
AcDbLine
 10
53.702565
 20
536.097484
 30
0.0
 11
53.702565
 21
538.547848
 31
0.0
  0
LINE
  5
41C
330
1F
100
AcDbEntity
  8
LC-001-100-D00-0
 62
     7
370
    50
100
AcDbLine
 10
55.702569
 20
538.620841
 30
0.0
 11
55.702565
 21
536.097484
 31
0.0
  0
LINE
  5
41D
330
1F
100
AcDbEntity
  8
LC-001-100-D00-0
 62
     7
370
    50
100
AcDbLine
 10
-312.497435
 20
536.097484
 30
0.0
 11
-312.497435
 21
538.547848
 31
0.0
  0
ARC
  5
41E
330
1F
100
AcDbEntity
  8
LC-001-100-D00-0
 62
     7
370
    50
100
AcDbCircle
 10
-316.497435
 20
536.097484
 30
0.0
 40
4.000000000000227
100
AcDbArc
 50
270.0
 51
0.0
  0
LINE
  5
41F
330
1F
100
AcDbEntity
  8
LC-001-100-D00-0
 62
     7
370
    50
100
AcDbLine
 10
-342.297435
 20
532.097484
 30
0.0
 11
-316.497435
 21
532.097484
 31
0.0
  0
ARC
  5
420
330
1F
100
AcDbEntity
  8
LC-001-100-D00-0
 62
     7
370
    50
100
AcDbCircle
 10
-342.297435
 20
536.097484
 30
0.0
 40
4.0
100
AcDbArc
 50
180.0
 51
270.0
  0
LINE
  5
421
330
1F
100
AcDbEntity
  8
LC-001-100-D00-0
 62
     7
370
    50
100
AcDbLine
 10
-346.297441
 20
539.781426
 30
0.0
 11
-346.297435
 21
536.097484
 31
0.0
  0
LINE
  5
422
330
1F
100
AcDbEntity
  8
LC-001-100-D00-0
 62
     7
370
    50
100
AcDbLine
 10
-344.297435
 20
536.097484
 30
0.0
 11
-344.297437
 21
539.708432
 31
0.0
  0
ARC
  5
423
330
1F
100
AcDbEntity
  8
LC-001-100-D00-0
 62
     7
370
    50
100
AcDbCircle
 10
-342.297435
 20
536.097484
 30
0.0
 40
2.0
100
AcDbArc
 50
180.0
 51
270.0
  0
LINE
  5
424
330
1F
100
AcDbEntity
  8
LC-001-100-D00-0
 62
     7
370
    50
100
AcDbLine
 10
-316.497435
 20
534.097484
 30
0.0
 11
-342.297435
 21
534.097484
 31
0.0
  0
ARC
  5
425
330
1F
100
AcDbEntity
  8
LC-001-100-D00-0
 62
     7
370
    50
100
AcDbCircle
 10
-316.497435
 20
536.097484
 30
0.0
 40
2.0
100
AcDbArc
 50
270.0
 51
0.0
  0
LINE
  5
426
330
1F
100
AcDbEntity
  8
LC-001-100-D00-0
 62
     7
370
    50
100
AcDbLine
 10
-314.497439
 20
538.620841
 30
0.0
 11
-314.497435
 21
536.097484
 31
0.0
  0
LINE
  5
427
330
1F
100
AcDbEntity
  8
LC-001-100-D00-0
 62
     7
370
    50
100
AcDbLine
 10
-327.561704
 20
436.197488
 30
0.0
 11
-338.239355
 21
436.197488
 31
0.0
  0
LINE
  5
428
330
1F
100
AcDbEntity
  8
LC-001-100-D00-0
 62
     7
370
    50
100
AcDbLine
 10
-327.561704
 20
436.197488
 30
0.0
 11
-320.529533
 21
436.197488
 31
0.0
  0
LINE
  5
429
330
1F
100
AcDbEntity
  8
LC-001-100-D00-0
 62
     7
370
    50
100
AcDbLine
 10
-338.697717
 20
428.197484
 30
0.0
 11
-338.897435
 21
428.197484
 31
0.0
  0
LINE
  5
42A
330
1F
100
AcDbEntity
  8
LC-001-100-D00-0
 62
     7
370
    50
100
AcDbLine
 10
-319.897435
 20
428.197484
 30
0.0
 11
-338.697717
 21
428.197484
 31
0.0
  0
LINE
  5
42B
330
1F
100
AcDbEntity
  8
LC-001-100-D00-0
 62
     7
370
    50
100
AcDbLine
 10
72.438302
 20
436.197488
 30
0.0
 11
61.760636
 21
436.197488
 31
0.0
  0
LINE
  5
42C
330
1F
100
AcDbEntity
  8
LC-001-100-D00-0
 62
     7
370
    50
100
AcDbLine
 10
72.438302
 20
436.197488
 30
0.0
 11
79.470458
 21
436.197488
 31
0.0
  0
LINE
  5
42D
330
1F
100
AcDbEntity
  8
LC-001-100-D00-0
 62
     7
370
    50
100
AcDbLine
 10
61.302283
 20
428.197484
 30
0.0
 11
61.102565
 21
428.197484
 31
0.0
  0
LINE
  5
42E
330
1F
100
AcDbEntity
  8
LC-001-100-D00-0
 62
     7
370
    50
100
AcDbLine
 10
80.102565
 20
428.197484
 30
0.0
 11
61.302283
 21
428.197484
 31
0.0
  0
LINE
  5
42F
330
1F
100
AcDbEntity
  8
LC-001-100-D00-0
 62
     7
370
    50
100
AcDbLine
 10
79.602565
 20
530.197484
 30
0.0
 11
73.48931
 21
530.197485
 31
0.0
  0
LINE
  5
430
330
1F
100
AcDbEntity
  8
LC-001-100-D00-0
 62
     7
370
    50
100
AcDbLine
 10
67.715811
 20
530.197485
 30
0.0
 11
61.602565
 21
530.197484
 31
0.0
  0
LINE
  5
431
330
1F
100
AcDbEntity
  8
LC-001-100-D00-0
 62
     7
370
    50
100
AcDbLine
 10
85.602565
 20
532.197484
 30
0.0
 11
85.602565
 21
530.197484
 31
0.0
  0
LINE
  5
432
330
1F
100
AcDbEntity
  8
LC-001-100-D00-0
 62
     7
370
    50
100
AcDbLine
 10
85.602565
 20
530.197484
 30
0.0
 11
79.602565
 21
530.197484
 31
0.0
  0
LINE
  5
433
330
1F
100
AcDbEntity
  8
LC-001-100-D00-0
 62
     7
370
    50
100
AcDbLine
 10
84.391385
 20
532.197484
 30
0.0
 11
85.602565
 21
532.197484
 31
0.0
  0
LINE
  5
434
330
1F
100
AcDbEntity
  8
LC-001-100-D00-0
 62
     7
370
    50
100
AcDbLine
 10
55.602565
 20
530.197484
 30
0.0
 11
55.602565
 21
532.197484
 31
0.0
  0
LINE
  5
435
330
1F
100
AcDbEntity
  8
LC-001-100-D00-0
 62
     7
370
    50
100
AcDbLine
 10
61.602565
 20
530.197484
 30
0.0
 11
55.602565
 21
530.197484
 31
0.0
  0
LINE
  5
436
330
1F
100
AcDbEntity
  8
LC-001-100-D00-0
 62
     7
370
    50
100
AcDbLine
 10
55.602565
 20
532.197484
 30
0.0
 11
56.813746
 21
532.197484
 31
0.0
  0
LINE
  5
437
330
1F
100
AcDbEntity
  8
LC-001-100-D00-0
 62
     7
370
    50
100
AcDbLine
 10
82.438246
 20
505.197484
 30
0.0
 11
80.102356
 21
505.197483
 31
0.0
  0
LINE
  5
438
330
1F
100
AcDbEntity
  8
LC-001-100-D00-0
 62
     7
370
    50
100
AcDbLine
 10
83.376068
 20
505.197484
 30
0.0
 11
82.438246
 21
505.197484
 31
0.0
  0
LINE
  5
439
330
1F
100
AcDbEntity
  8
LC-001-100-D00-0
 62
     7
370
    50
100
AcDbLine
 10
-320.397435
 20
530.197484
 30
0.0
 11
-326.510681
 21
530.197485
 31
0.0
  0
LINE
  5
43A
330
1F
100
AcDbEntity
  8
LC-001-100-D00-0
 62
     7
370
    50
100
AcDbLine
 10
-332.28418
 20
530.197485
 30
0.0
 11
-338.397435
 21
530.197484
 31
0.0
  0
LINE
  5
43B
330
1F
100
AcDbEntity
  8
LC-001-100-D00-0
 62
     7
370
    50
100
AcDbLine
 10
-326.510684
 20
505.197484
 30
0.0
 11
-332.284186
 21
505.197484
 31
0.0
  0
LINE
  5
43C
330
1F
100
AcDbEntity
  8
LC-001-100-D00-0
 62
     7
370
    50
100
AcDbLine
 10
-332.284186
 20
505.197484
 30
0.0
 11
-338.346364
 21
505.197484
 31
0.0
  0
LINE
  5
43D
330
1F
100
AcDbEntity
  8
LC-001-100-D00-0
 62
     7
370
    50
100
AcDbLine
 10
-315.608615
 20
532.197484
 30
0.0
 11
-314.397435
 21
532.197484
 31
0.0
  0
LINE
  5
43E
330
1F
100
AcDbEntity
  8
LC-001-100-D00-0
 62
     7
370
    50
100
AcDbLine
 10
-314.397435
 20
532.197484
 30
0.0
 11
-314.397435
 21
530.197484
 31
0.0
  0
LINE
  5
43F
330
1F
100
AcDbEntity
  8
LC-001-100-D00-0
 62
     7
370
    50
100
AcDbLine
 10
-314.397435
 20
530.197484
 30
0.0
 11
-320.397435
 21
530.197484
 31
0.0
  0
LINE
  5
440
330
1F
100
AcDbEntity
  8
LC-001-100-D00-0
 62
     7
370
    50
100
AcDbLine
 10
-320.448506
 20
505.197484
 30
0.0
 11
-326.510684
 21
505.197484
 31
0.0
  0
LINE
  5
441
330
1F
100
AcDbEntity
  8
LC-001-100-D00-0
 62
     7
370
    50
100
AcDbLine
 10
-344.397435
 20
530.197484
 30
0.0
 11
-344.397435
 21
532.197484
 31
0.0
  0
LINE
  5
442
330
1F
100
AcDbEntity
  8
LC-001-100-D00-0
 62
     7
370
    50
100
AcDbLine
 10
-338.397435
 20
530.197484
 30
0.0
 11
-344.397435
 21
530.197484
 31
0.0
  0
LINE
  5
443
330
1F
100
AcDbEntity
  8
LC-001-100-D00-0
 62
     7
370
    50
100
AcDbLine
 10
-344.397435
 20
532.197484
 30
0.0
 11
-343.186254
 21
532.197484
 31
0.0
  0
LINE
  5
444
330
1F
100
AcDbEntity
  8
LC-001-100-D00-0
 62
     7
370
    50
100
AcDbLine
 10
-317.561754
 20
505.197484
 30
0.0
 11
-320.448506
 21
505.197484
 31
0.0
  0
LINE
  5
445
330
1F
100
AcDbEntity
  8
LC-001-100-D00-0
 62
     7
370
    50
100
AcDbLine
 10
-338.346364
 20
505.197484
 30
0.0
 11
-341.233115
 21
505.197484
 31
0.0
  0
LINE
  5
446
330
1F
100
AcDbEntity
  8
LC-001-100-D00-0
 62
     7
370
    50
100
AcDbLine
 10
-341.233115
 20
505.197484
 30
0.0
 11
-342.170938
 21
505.197484
 31
0.0
  0
LINE
  5
447
330
1F
100
AcDbEntity
  8
LC-001-100-D00-0
 62
     7
370
    50
100
AcDbLine
 10
-316.623932
 20
505.197484
 30
0.0
 11
-317.561754
 21
505.197484
 31
0.0
  0
LINE
  5
448
330
1F
100
AcDbEntity
  8
LC-001-100-D00-0
 62
     7
370
    50
100
AcDbLine
 10
73.489316
 20
534.197484
 30
0.0
 11
67.715814
 21
534.197484
 31
0.0
  0
LINE
  5
449
330
1F
100
AcDbEntity
  8
LC-001-100-D00-0
 62
     7
370
    50
100
AcDbLine
 10
67.715814
 20
534.197484
 30
0.0
 11
61.653636
 21
534.197484
 31
0.0
  0
LINE
  5
44A
330
1F
100
AcDbEntity
  8
LC-001-100-D00-0
 62
     7
370
    50
100
AcDbLine
 10
79.551494
 20
534.197484
 30
0.0
 11
73.489316
 21
534.197484
 31
0.0
  0
LINE
  5
44B
330
1F
100
AcDbEntity
  8
LC-001-100-D00-0
 62
     7
370
    50
100
AcDbLine
 10
82.438246
 20
534.197484
 30
0.0
 11
79.551494
 21
534.197484
 31
0.0
  0
LINE
  5
44C
330
1F
100
AcDbEntity
  8
LC-001-100-D00-0
 62
     7
370
    50
100
AcDbLine
 10
61.653636
 20
534.197484
 30
0.0
 11
58.766885
 21
534.197484
 31
0.0
  0
LINE
  5
44D
330
1F
100
AcDbEntity
  8
LC-001-100-D00-0
 62
     7
370
    50
100
AcDbLine
 10
58.766885
 20
534.197484
 30
0.0
 11
57.829062
 21
534.197484
 31
0.0
  0
LINE
  5
44E
330
1F
100
AcDbEntity
  8
LC-001-100-D00-0
 62
     7
370
    50
100
AcDbLine
 10
83.376068
 20
534.197484
 30
0.0
 11
82.438246
 21
534.197484
 31
0.0
  0
LINE
  5
44F
330
1F
100
AcDbEntity
  8
LC-001-100-D00-0
 62
     7
370
    50
100
AcDbLine
 10
-326.510684
 20
534.197484
 30
0.0
 11
-332.284186
 21
534.197484
 31
0.0
  0
LINE
  5
450
330
1F
100
AcDbEntity
  8
LC-001-100-D00-0
 62
     7
370
    50
100
AcDbLine
 10
-332.284186
 20
534.197484
 30
0.0
 11
-338.346364
 21
534.197484
 31
0.0
  0
LINE
  5
451
330
1F
100
AcDbEntity
  8
LC-001-100-D00-0
 62
     7
370
    50
100
AcDbLine
 10
-320.448506
 20
534.197484
 30
0.0
 11
-326.510684
 21
534.197484
 31
0.0
  0
LINE
  5
452
330
1F
100
AcDbEntity
  8
LC-001-100-D00-0
 62
     7
370
    50
100
AcDbLine
 10
-317.561754
 20
534.197484
 30
0.0
 11
-320.448506
 21
534.197484
 31
0.0
  0
LINE
  5
453
330
1F
100
AcDbEntity
  8
LC-001-100-D00-0
 62
     7
370
    50
100
AcDbLine
 10
-338.346364
 20
534.197484
 30
0.0
 11
-341.233115
 21
534.197484
 31
0.0
  0
LINE
  5
454
330
1F
100
AcDbEntity
  8
LC-001-100-D00-0
 62
     7
370
    50
100
AcDbLine
 10
-341.233115
 20
534.197484
 30
0.0
 11
-342.170938
 21
534.197484
 31
0.0
  0
LINE
  5
455
330
1F
100
AcDbEntity
  8
LC-001-100-D00-0
 62
     7
370
    50
100
AcDbLine
 10
-316.623932
 20
534.197484
 30
0.0
 11
-317.561754
 21
534.197484
 31
0.0
  0
LINE
  5
456
330
1F
100
AcDbEntity
  8
LC-001-100-D00-0
 62
     7
370
    50
100
AcDbLine
 10
60.602565
 20
447.697484
 30
0.0
 11
80.602565
 21
447.697484
 31
0.0
  0
LINE
  5
457
330
1F
100
AcDbEntity
  8
LC-001-100-D00-0
 62
     7
370
    50
100
AcDbLine
 10
60.812795
 20
437.197484
 30
0.0
 11
80.602565
 21
437.197484
 31
0.0
  0
LINE
  5
458
330
1F
100
AcDbEntity
  8
LC-001-100-D00-0
 62
     7
370
    50
100
AcDbLine
 10
60.602565
 20
437.197484
 30
0.0
 11
60.812795
 21
437.197484
 31
0.0
  0
LINE
  5
459
330
1F
100
AcDbEntity
  8
LC-001-100-D00-0
 62
     7
370
    50
100
AcDbLine
 10
60.602565
 20
451.197484
 30
0.0
 11
80.602565
 21
451.197484
 31
0.0
  0
LINE
  5
45A
330
1F
100
AcDbEntity
  8
LC-001-100-D00-0
 62
     7
370
    50
100
AcDbLine
 10
61.791772
 20
436.197484
 30
0.0
 11
61.602565
 21
436.197484
 31
0.0
  0
LINE
  5
45B
330
1F
100
AcDbEntity
  8
LC-001-100-D00-0
 62
     7
370
    50
100
AcDbLine
 10
79.602565
 20
436.197484
 30
0.0
 11
61.791772
 21
436.197484
 31
0.0
  0
LINE
  5
45C
330
1F
100
AcDbEntity
  8
LC-001-100-D00-0
 62
     7
370
    50
100
AcDbLine
 10
-339.397435
 20
447.697484
 30
0.0
 11
-319.397435
 21
447.697484
 31
0.0
  0
LINE
  5
45D
330
1F
100
AcDbEntity
  8
LC-001-100-D00-0
 62
     7
370
    50
100
AcDbLine
 10
-339.187205
 20
437.197484
 30
0.0
 11
-319.397435
 21
437.197484
 31
0.0
  0
LINE
  5
45E
330
1F
100
AcDbEntity
  8
LC-001-100-D00-0
 62
     7
370
    50
100
AcDbLine
 10
-339.397435
 20
437.197484
 30
0.0
 11
-339.187205
 21
437.197484
 31
0.0
  0
LINE
  5
45F
330
1F
100
AcDbEntity
  8
LC-001-100-D00-0
 62
     7
370
    50
100
AcDbLine
 10
-339.397435
 20
451.197484
 30
0.0
 11
-319.397435
 21
451.197484
 31
0.0
  0
LINE
  5
460
330
1F
100
AcDbEntity
  8
LC-001-100-D00-0
 62
     7
370
    50
100
AcDbLine
 10
-338.208228
 20
436.197484
 30
0.0
 11
-338.397435
 21
436.197484
 31
0.0
  0
LINE
  5
461
330
1F
100
AcDbEntity
  8
LC-001-100-D00-0
 62
     7
370
    50
100
AcDbLine
 10
-320.397435
 20
436.197484
 30
0.0
 11
-338.208228
 21
436.197484
 31
0.0
  0
DIMENSION
  5
462
330
1F
100
AcDbEntity
  8
LC-001-100-D00-0
 62
     7
370
    25
100
AcDbDimension
  2
*D22
 10
244.820581
 20
485.197484
 30
0.0
 11
189.820581
 21
483.334451
 31
0.0
 70
   160
  1
77,5
 71
     5
 42
77.5
 53
90.0
  3
LC-DIM-L-0100-02-02
100
AcDbAlignedDimension
 13
170.602565
 23
562.697484
 33
0.0
 14
86.602362
 24
485.197484
 34
0.0
 50
90.0
100
AcDbRotatedDimension
  0
DIMENSION
  5
470
330
1F
100
AcDbEntity
  8
LC-001-100-D00-0
 62
     7
370
    25
100
AcDbDimension
  2
*D23
 10
154.621463
 20
460.197484
 30
0.0
 11
99.621463
 21
357.666593
 31
0.0
 70
   160
  1
DN50
 71
     5
 42
50.0
 53
90.0
  3
LC-DIM-L-0100-02-02
100
AcDbAlignedDimension
 13
76.602362
 23
510.197484
 33
0.0
 14
76.602362
 24
460.197484
 34
0.0
 50
90.0
100
AcDbRotatedDimension
  0
DIMENSION
  5
47E
330
1F
100
AcDbEntity
  8
LC-001-100-D00-0
 62
     7
370
    25
100
AcDbDimension
  2
*D24
 10
366.46486
 20
428.197484
 30
0.0
 11
311.46486
 21
419.844451
 31
0.0
 70
   160
  1
110-129,5
 71
     5
 42
134.5
 53
90.0
  3
LC-DIM-L-0100-02-02
100
AcDbAlignedDimension
 13
170.602565
 23
562.697484
 33
0.0
 14
80.102565
 24
428.197484
 34
0.0
 50
90.0
100
AcDbRotatedDimension
  0
DIMENSION
  5
48C
330
1F
100
AcDbEntity
  8
LC-001-100-D00-0
 62
     7
370
    25
100
AcDbDimension
  2
*D25
 10
-55.397435
 20
380.906191
 30
0.0
 11
-141.454313
 21
435.906191
 31
0.0
 70
   160
  1
148
 71
     5
 42
148.0
  3
LC-DIM-L-0100-02-02
100
AcDbAlignedDimension
 13
-203.397435
 23
471.697484
 33
0.0
 14
-55.397435
 24
511.947484
 34
0.0
100
AcDbRotatedDimension
  0
DIMENSION
  5
499
330
1F
100
AcDbEntity
  8
LC-001-100-D00-0
 62
     7
370
    25
100
AcDbDimension
  2
*D26
 10
-203.397435
 20
302.797169
 30
0.0
 11
-57.06233
 21
357.797169
 31
0.0
 70
   160
  1
284
 71
     5
 42
283.499797
  3
LC-DIM-L-0100-02-02
100
AcDbAlignedDimension
 13
80.102362
 23
461.135306
 33
0.0
 14
-203.397435
 24
471.697484
 34
0.0
100
AcDbRotatedDimension
  0
DIMENSION
  5
4A6
330
1F
100
AcDbEntity
  8
LC-001-100-D00-0
 62
     7
370
    25
100
AcDbDimension
  2
*D27
 10
-264.778315
 20
521.197484
 30
0.0
 11
-319.778315
 21
342.624451
 31
0.0
 70
   160
  1
50
 71
     5
 42
50.4
 53
90.0
  3
LC-DIM-L-0100-02-02
100
AcDbAlignedDimension
 13
-158.397435
 23
470.797484
 33
0.0
 14
-168.890314
 24
521.197484
 34
0.0
 50
90.0
100
AcDbRotatedDimension
  0
DIMENSION
  5
4B4
330
1F
100
AcDbEntity
  8
LC-001-100-D00-0
 62
     7
370
    25
100
AcDbDimension
  2
*D28
 10
-429.397435
 20
705.151182
 30
0.0
 11
-137.160508
 21
760.151182
 31
0.0
 70
   160
  1
600
 71
     5
 42
600.0
  3
LC-DIM-L-0100-02-02
100
AcDbAlignedDimension
 13
170.602565
 23
562.697484
 33
0.0
 14
-429.397435
 24
562.697484
 34
0.0
100
AcDbRotatedDimension
  0
DIMENSION
  5
4C1
330
1F
100
AcDbEntity
  8
LC-001-100-D00-0
 62
     7
370
    25
100
AcDbDimension
  2
*D29
 10
120.602565
 20
626.529759
 30
0.0
 11
-137.160508
 21
681.529759
 31
0.0
 70
   160
  1
500
 71
     5
 42
500.0
  3
LC-DIM-L-0100-02-02
100
AcDbAlignedDimension
 13
-379.397435
 23
559.697484
 33
0.0
 14
120.602565
 24
559.697484
 34
0.0
100
AcDbRotatedDimension
  0
LINE
  5
4CE
330
1F
100
AcDbEntity
  8
LC-001-100-D00-0
 62
     7
370
    50
100
AcDbLine
 10
-234.597435
 20
548.276915
 30
0.0
 11
-232.797435
 21
550.076915
 31
0.0
  0
INSERT
  5
4D4
330
1F
100
AcDbEntity
  8
LC-001-100-D00-0
 62
     7
370
    25
100
AcDbBlockReference
  2
KLON21
 10
0.0
 20
0.0
 30
0.0
  0
LINE
  5
4D5
330
1F
100
AcDbEntity
  8
LC-001-100-D00-0
 62
     7
370
    25
100
AcDbLine
 10
-225.497435
 20
557.376915
 30
0.0
 11
-220.176867
 21
562.697484
 31
0.0
  0
LINE
  5
4D6
330
1F
100
AcDbEntity
  8
LC-001-100-D00-0
 62
     7
370
    50
100
AcDbLine
 10
-345.997435
 20
549.130112
 30
0.0
 11
-343.430063
 21
551.697484
 31
0.0
  0
LINE
  5
4D7
330
1F
100
AcDbEntity
  8
LC-001-100-D00-0
 62
     7
370
    25
100
AcDbLine
 10
-359.147435
 20
558.430752
 30
0.0
 11
-354.880704
 21
562.697484
 31
0.0
  0
INSERT
  5
4DD
330
1F
100
AcDbEntity
  8
LC-001-100-D00-0
 62
     7
370
    25
100
AcDbBlockReference
  2
KLON22
 10
0.0
 20
0.0
 30
0.0
  0
LINE
  5
4DE
330
1F
100
AcDbEntity
  8
LC-001-100-D00-0
 62
     7
370
    25
100
AcDbLine
 10
80.852565
 20
549.417962
 30
0.0
 11
86.702565
 21
555.267962
 31
0.0
  0
LINE
  5
4DF
330
1F
100
AcDbEntity
  8
LC-001-100-D00-0
 62
     7
370
    25
100
AcDbLine
 10
97.582727
 20
543.697484
 30
0.0
 11
100.352565
 21
546.467322
 31
0.0
  0
INSERT
  5
4E5
330
1F
100
AcDbEntity
  8
LC-001-100-D00-0
 62
     7
370
    50
100
AcDbBlockReference
  2
KLON23
 10
0.0
 20
0.0
 30
0.0
  0
INSERT
  5
4ED
330
1F
100
AcDbEntity
  8
LC-001-100-D00-0
 62
     7
370
    25
100
AcDbBlockReference
  2
KLON24
 10
0.0
 20
0.0
 30
0.0
  0
LINE
  5
4EE
330
1F
100
AcDbEntity
  8
LC-001-100-D00-0
 62
     7
370
    25
100
AcDbLine
 10
-25.497435
 20
555.32116
 30
0.0
 11
-18.121111
 21
562.697484
 31
0.0
  0
INSERT
  5
4FE
330
1F
100
AcDbEntity
  8
LC-001-100-D00-0
 62
     7
370
    25
100
AcDbBlockReference
  2
KLON25
 10
0.0
 20
0.0
 30
0.0
  0
INSERT
  5
510
330
1F
100
AcDbEntity
  8
LC-001-100-D00-0
 62
     7
370
    25
100
AcDbBlockReference
  2
KLON26
 10
0.0
 20
0.0
 30
0.0
  0
INSERT
  5
517
330
1F
100
AcDbEntity
  8
LC-001-100-D00-0
 62
     7
370
    25
100
AcDbBlockReference
  2
KLON27
 10
0.0
 20
0.0
 30
0.0
  0
INSERT
  5
520
330
1F
100
AcDbEntity
  8
LC-001-100-D00-0
 62
     7
370
    25
100
AcDbBlockReference
  2
KLON28
 10
0.0
 20
0.0
 30
0.0
  0
INSERT
  5
52F
330
1F
100
AcDbEntity
  8
LC-001-100-D00-0
 62
     7
370
    25
100
AcDbBlockReference
  2
KLON29
 10
0.0
 20
0.0
 30
0.0
  0
INSERT
  5
536
330
1F
100
AcDbEntity
  8
LC-001-100-D00-0
 62
     7
370
    25
100
AcDbBlockReference
  2
KLON30
 10
0.0
 20
0.0
 30
0.0
  0
INSERT
  5
53E
330
1F
100
AcDbEntity
  8
LC-001-100-D00-0
 62
     7
370
    25
100
AcDbBlockReference
  2
KLON31
 10
0.0
 20
0.0
 30
0.0
  0
LINE
  5
53F
330
1F
100
AcDbEntity
  8
LC-001-100-D00-0
 62
     7
370
    50
100
AcDbLine
 10
-183.816737
 20
531.705693
 30
0.0
 11
-181.905644
 21
533.616786
 31
0.0
  0
INSERT
  5
545
330
1F
100
AcDbEntity
  8
LC-001-100-D00-0
 62
     7
370
    25
100
AcDbBlockReference
  2
KLON32
 10
0.0
 20
0.0
 30
0.0
  0
LINE
  5
546
330
1F
100
AcDbEntity
  8
LC-001-100-D00-0
 62
     7
370
    25
100
AcDbLine
 10
-58.397435
 20
522.421157
 30
0.0
 11
-55.397435
 21
525.421157
 31
0.0
  0
INSERT
  5
54C
330
1F
100
AcDbEntity
  8
LC-001-100-D00-0
 62
     7
370
    25
100
AcDbBlockReference
  2
KLON33
 10
0.0
 20
0.0
 30
0.0
  0
INSERT
  5
55A
330
1F
100
AcDbEntity
  8
LC-001-100-D00-0
 62
     7
370
    25
100
AcDbBlockReference
  2
KLON34
 10
0.0
 20
0.0
 30
0.0
  0
INSERT
  5
560
330
1F
100
AcDbEntity
  8
LC-001-100-D00-0
 62
     7
370
    25
100
AcDbBlockReference
  2
KLON35
 10
0.0
 20
0.0
 30
0.0
  0
LINE
  5
561
330
1F
100
AcDbEntity
  8
LC-001-100-D00-0
  6
DASHDOT
 62
     7
370
    25
100
AcDbLine
 10
70.602565
 20
441.197484
 30
0.0
 11
70.602565
 21
565.197484
 31
0.0
  0
LINE
  5
562
330
1F
100
AcDbEntity
  8
LC-001-100-D00-0
  6
DASHDOT
 62
     7
370
    25
100
AcDbLine
 10
86.602362
 20
485.197484
 30
0.0
 11
-16.422654
 21
485.197484
 31
0.0
  0
LINE
  5
563
330
1F
100
AcDbEntity
  8
LC-001-100-D00-0
  6
DASHDOT
 62
     7
370
    25
100
AcDbLine
 10
-129.397435
 20
531.197484
 30
0.0
 11
-129.397435
 21
450.197484
 31
0.0
  0
LINE
  5
564
330
1F
100
AcDbEntity
  8
LC-001-100-D00-0
  6
DASHDOT
 62
     7
370
    25
100
AcDbLine
 10
-29.397435
 20
534.697484
 30
0.0
 11
-29.397435
 21
568.697484
 31
0.0
  0
LINE
  5
565
330
1F
100
AcDbEntity
  8
LC-001-100-D00-0
  6
DASHDOT
 62
     7
370
    25
100
AcDbLine
 10
90.602565
 20
534.697484
 30
0.0
 11
90.602565
 21
568.697484
 31
0.0
  0
LINE
  5
566
330
1F
100
AcDbEntity
  8
LC-001-100-D00-0
  6
DASHDOT
 62
     7
370
    25
100
AcDbLine
 10
-229.397435
 20
534.697484
 30
0.0
 11
-229.397435
 21
568.697484
 31
0.0
  0
LINE
  5
567
330
1F
100
AcDbEntity
  8
LC-001-100-D00-0
  6
DASHDOT
 62
     7
370
    25
100
AcDbLine
 10
-329.397435
 20
441.197484
 30
0.0
 11
-329.397435
 21
539.197484
 31
0.0
  0
LINE
  5
568
330
1F
100
AcDbEntity
  8
LC-001-100-D00-0
  6
DASHDOT
 62
     7
370
    25
100
AcDbLine
 10
-349.397435
 20
534.697484
 30
0.0
 11
-349.397435
 21
568.697484
 31
0.0
  0
DIMENSION
  5
56A
330
1F
100
AcDbEntity
  8
LC-002-003-----0
 62
     7
370
    25
100
AcDbDimension
  2
*D45
 10
-433.208435
 20
452.697484
 30
0.0
 11
-488.208435
 21
479.244451
 31
0.0
 70
   160
 71
     5
 42
110.0
 53
90.0
  3
LC-DIM-L-0100-02-02
100
AcDbAlignedDimension
 13
-242.627506
 23
562.697484
 33
0.0
 14
-183.415315
 24
452.697484
 34
0.0
 50
90.0
100
AcDbRotatedDimension
  0
ENDSEC
  0
SECTION
  2
OBJECTS
  0
DICTIONARY
  5
C
330
0
100
AcDbDictionary
281
     1
  3
ACAD_GROUP
350
D
  3
ACAD_LAYOUT
350
1A
  3
ACAD_MLINESTYLE
350
17
  3
ACAD_PLOTSETTINGS
350
19
  3
ACAD_PLOTSTYLENAME
350
E
  0
DICTIONARY
  5
D
102
{ACAD_REACTORS
330
C
102
}
330
C
100
AcDbDictionary
281
     1
  0
DICTIONARY
  5
1A
102
{ACAD_REACTORS
330
C
102
}
330
C
100
AcDbDictionary
281
     1
  3
Layout1
350
1E
  3
Layout2
350
26
  3
Model
350
22
  0
DICTIONARY
  5
17
102
{ACAD_REACTORS
330
C
102
}
330
C
100
AcDbDictionary
281
     1
  3
Standard
350
18
  0
DICTIONARY
  5
19
102
{ACAD_REACTORS
330
C
102
}
330
C
100
AcDbDictionary
281
     1
  0
ACDBDICTIONARYWDFLT
  5
E
102
{ACAD_REACTORS
330
C
102
}
330
C
100
AcDbDictionary
281
     1
  3
Normal
350
F
100
AcDbDictionaryWithDefault
340
F
  0
LAYOUT
  5
1E
102
{ACAD_REACTORS
330
1A
102
}
330
1A
100
AcDbPlotSettings
  1

  2

  4

  6

 40
0.0
 41
0.0
 42
0.0
 43
0.0
 44
0.0
 45
0.0
 46
0.0
 47
0.0
 48
0.0
 49
0.0
140
0.0
141
0.0
142
1.0
143
1.0
 70
   688
 72
     0
 73
     0
 74
     5
  7

 75
    16
147
1.0
148
0.0
149
0.0
100
AcDbLayout
  1
Layout1
 70
     1
 71
     1
 10
-840.514556
 20
-579.560549
 11
1259.485444
 21
905.439451
 12
0.0
 22
0.0
 32
0.0
 14
-840.514556
 24
-579.560549
 34
0.0
 15
1259.485444
 25
905.439451
 35
0.0
146
0.0
 13
0.0
 23
0.0
 33
0.0
 16
1.0
 26
0.0
 36
0.0
 17
0.0
 27
1.0
 37
0.0
 76
     0
330
1B
  0
LAYOUT
  5
26
102
{ACAD_REACTORS
330
1A
102
}
330
1A
100
AcDbPlotSettings
  1

  2

  4

  6

 40
0.0
 41
0.0
 42
0.0
 43
0.0
 44
0.0
 45
0.0
 46
0.0
 47
0.0
 48
0.0
 49
0.0
140
0.0
141
0.0
142
1.0
143
1.0
 70
   688
 72
     0
 73
     0
 74
     5
  7

 75
    16
147
1.0
148
0.0
149
0.0
100
AcDbLayout
  1
Layout2
 70
     1
 71
     2
 10
0.0
 20
0.0
 11
0.0
 21
0.0
 12
0.0
 22
0.0
 32
0.0
 14
0.0
 24
0.0
 34
0.0
 15
0.0
 25
0.0
 35
0.0
146
0.0
 13
0.0
 23
0.0
 33
0.0
 16
1.0
 26
0.0
 36
0.0
 17
0.0
 27
1.0
 37
0.0
 76
     0
330
23
  0
LAYOUT
  5
22
102
{ACAD_REACTORS
330
1A
102
}
330
1A
100
AcDbPlotSettings
  1

  2

  4

  6

 40
0.0
 41
0.0
 42
0.0
 43
0.0
 44
0.0
 45
0.0
 46
0.0
 47
0.0
 48
0.0
 49
0.0
140
0.0
141
0.0
142
1.0
143
1.0
 70
  1776
 72
     0
 73
     0
 74
     0
  7

 75
     0
147
1.0
148
0.0
149
0.0
100
AcDbLayout
  1
Model
 70
     1
 71
     0
 10
-840.514556
 20
-579.560549
 11
1259.485444
 21
905.439451
 12
0.0
 22
0.0
 32
0.0
 14
-840.514556
 24
-579.560549
 34
0.0
 15
1259.485444
 25
905.439451
 35
0.0
146
0.0
 13
0.0
 23
0.0
 33
0.0
 16
1.0
 26
0.0
 36
0.0
 17
0.0
 27
1.0
 37
0.0
 76
     0
330
1F
  0
MLINESTYLE
  5
18
102
{ACAD_REACTORS
330
17
102
}
330
17
100
AcDbMlineStyle
  2
Standard
 70
     0
  3

 62
   256
 51
90.0
 52
90.0
 71
     2
 49
0.5
 62
   256
  6
BYLAYER
 49
-0.5
 62
   256
  6
BYLAYER
  0
ACDBPLACEHOLDER
  5
F
102
{ACAD_REACTORS
330
E
102
}
330
E
  0
ENDSEC
  0
EOF
