  0
SECTION
  2
HEADER
  9
$ACADVER
  1
AC1015
  9
$ACADMAINTVER
 70
     6
  9
$DWGCODEPAGE
  3
ANSI_1252
  9
$INSBASE
 10
0.0
 20
0.0
 30
0.0
  9
$EXTMIN
 10
-840.138218
 20
-613.867995
 30
0.0
  9
$EXTMAX
 10
1259.861782
 20
871.132005
 30
0.0
  9
$LIMMIN
 10
-840.138218
 20
-613.867995
  9
$LIMMAX
 10
1259.861782
 20
871.132005
  9
$ORTHOMODE
 70
     0
  9
$REGENMODE
 70
     1
  9
$FILLMODE
 70
     1
  9
$QTEXTMODE
 70
     0
  9
$MIRRTEXT
 70
     1
  9
$LTSCALE
 40
5.0
  9
$ATTMODE
 70
     1
  9
$TEXTSIZE
 40
2.5
  9
$TRACEWID
 40
1.0
  9
$TEXTSTYLE
  7
Standard
  9
$CLAYER
  8
0
  9
$CELTYPE
  6
ByLayer
  9
$CECOLOR
 62
     7
  9
$CELTSCALE
 40
1.0
  9
$DISPSILH
 70
     0
  9
$DIMSCALE
 40
5.0
  9
$DIMASZ
 40
3.5
  9
$DIMEXO
 40
0.625
  9
$DIMDLI
 40
3.75
  9
$DIMRND
 40
0.0
  9
$DIMDLE
 40
0.0
  9
$DIMEXE
 40
1.25
  9
$DIMTP
 40
0.0
  9
$DIMTM
 40
0.0
  9
$DIMTXT
 40
3.5
  9
$DIMCEN
 40
2.5
  9
$DIMTSZ
 40
0.0
  9
$DIMTOL
 70
     0
  9
$DIMLIM
 70
     0
  9
$DIMTIH
 70
     0
  9
$DIMTOH
 70
     0
  9
$DIMSE1
 70
     0
  9
$DIMSE2
 70
     0
  9
$DIMTAD
 70
     1
  9
$DIMZIN
 70
     8
  9
$DIMBLK
  1

  9
$DIMASO
 70
     1
  9
$DIMSHO
 70
     1
  9
$DIMPOST
  1

  9
$DIMAPOST
  1

  9
$DIMALT
 70
     0
  9
$DIMALTD
 70
     3
  9
$DIMALTF
 40
0.03937
  9
$DIMLFAC
 40
1.0
  9
$DIMTOFL
 70
     1
  9
$DIMTVP
 40
0.0
  9
$DIMTIX
 70
     0
  9
$DIMSOXD
 70
     0
  9
$DIMSAH
 70
     0
  9
$DIMBLK1
  1

  9
$DIMBLK2
  1

  9
$DIMSTYLE
  2
ISO-25
  9
$DIMCLRD
 70
     0
  9
$DIMCLRE
 70
     0
  9
$DIMCLRT
 70
     0
  9
$DIMTFAC
 40
1.0
  9
$DIMGAP
 40
0.625
  9
$DIMJUST
 70
     0
  9
$DIMSD1
 70
     0
  9
$DIMSD2
 70
     0
  9
$DIMTOLJ
 70
     0
  9
$DIMTZIN
 70
     8
  9
$DIMALTZ
 70
     0
  9
$DIMALTTZ
 70
     0
  9
$DIMUPT
 70
     0
  9
$DIMDEC
 70
     2
  9
$DIMTDEC
 70
     2
  9
$DIMALTU
 70
     2
  9
$DIMALTTD
 70
     3
  9
$DIMTXSTY
  7
Standard
  9
$DIMAUNIT
 70
     0
  9
$DIMADEC
 70
     0
  9
$DIMALTRND
 40
0.0
  9
$DIMAZIN
 70
     0
  9
$DIMDSEP
 70
    44
  9
$DIMATFIT
 70
     3
  9
$DIMFRAC
 70
     0
  9
$DIMLDRBLK
  1

  9
$DIMLUNIT
 70
     2
  9
$DIMLWD
 70
    -2
  9
$DIMLWE
 70
    -2
  9
$DIMTMOVE
 70
     0
  9
$LUNITS
 70
     2
  9
$LUPREC
 70
     4
  9
$SKETCHINC
 40
1.0
  9
$FILLETRAD
 40
10.0
  9
$AUNITS
 70
     0
  9
$AUPREC
 70
     0
  9
$MENU
  1
.
  9
$ELEVATION
 40
0.0
  9
$PELEVATION
 40
0.0
  9
$THICKNESS
 40
0.0
  9
$LIMCHECK
 70
     0
  9
$CHAMFERA
 40
10.0
  9
$CHAMFERB
 40
10.0
  9
$CHAMFERC
 40
20.0
  9
$CHAMFERD
 40
0.0
  9
$SKPOLY
 70
     0
  9
$TDCREATE
 40
2456856.472206655
  9
$TDUCREATE
 40
2456856.388873322
  9
$TDUPDATE
 40
2456856.472206667
  9
$TDUUPDATE
 40
2456856.388873333
  9
$TDINDWG
 40
0.0000000116
  9
$TDUSRTIMER
 40
0.0000000116
  9
$USRTIMER
 70
     1
  9
$ANGBASE
 50
0.0
  9
$ANGDIR
 70
     0
  9
$PDMODE
 70
     0
  9
$PDSIZE
 40
0.0
  9
$PLINEWID
 40
0.0
  9
$SPLFRAME
 70
     0
  9
$SPLINETYPE
 70
     6
  9
$SPLINESEGS
 70
     8
  9
$HANDSEED
  5
73E
  9
$SURFTAB1
 70
     6
  9
$SURFTAB2
 70
     6
  9
$SURFTYPE
 70
     6
  9
$SURFU
 70
     6
  9
$SURFV
 70
     6
  9
$UCSBASE
  2

  9
$UCSNAME
  2

  9
$UCSORG
 10
0.0
 20
0.0
 30
0.0
  9
$UCSXDIR
 10
1.0
 20
0.0
 30
0.0
  9
$UCSYDIR
 10
0.0
 20
1.0
 30
0.0
  9
$UCSORTHOREF
  2

  9
$UCSORTHOVIEW
 70
     0
  9
$UCSORGTOP
 10
0.0
 20
0.0
 30
0.0
  9
$UCSORGBOTTOM
 10
0.0
 20
0.0
 30
0.0
  9
$UCSORGLEFT
 10
0.0
 20
0.0
 30
0.0
  9
$UCSORGRIGHT
 10
0.0
 20
0.0
 30
0.0
  9
$UCSORGFRONT
 10
0.0
 20
0.0
 30
0.0
  9
$UCSORGBACK
 10
0.0
 20
0.0
 30
0.0
  9
$PUCSBASE
  2

  9
$PUCSNAME
  2

  9
$PUCSORG
 10
0.0
 20
0.0
 30
0.0
  9
$PUCSXDIR
 10
1.0
 20
0.0
 30
0.0
  9
$PUCSYDIR
 10
0.0
 20
1.0
 30
0.0
  9
$PUCSORTHOREF
  2

  9
$PUCSORTHOVIEW
 70
     0
  9
$PUCSORGTOP
 10
0.0
 20
0.0
 30
0.0
  9
$PUCSORGBOTTOM
 10
0.0
 20
0.0
 30
0.0
  9
$PUCSORGLEFT
 10
0.0
 20
0.0
 30
0.0
  9
$PUCSORGRIGHT
 10
0.0
 20
0.0
 30
0.0
  9
$PUCSORGFRONT
 10
0.0
 20
0.0
 30
0.0
  9
$PUCSORGBACK
 10
0.0
 20
0.0
 30
0.0
  9
$USERI1
 70
     0
  9
$USERI2
 70
     0
  9
$USERI3
 70
     0
  9
$USERI4
 70
     0
  9
$USERI5
 70
     0
  9
$USERR1
 40
0.0
  9
$USERR2
 40
0.0
  9
$USERR3
 40
0.0
  9
$USERR4
 40
0.0
  9
$USERR5
 40
0.0
  9
$WORLDVIEW
 70
     1
  9
$SHADEDGE
 70
     3
  9
$SHADEDIF
 70
    70
  9
$TILEMODE
 70
     1
  9
$MAXACTVP
 70
    64
  9
$PINSBASE
 10
0.0
 20
0.0
 30
0.0
  9
$PLIMCHECK
 70
     0
  9
$PEXTMIN
 10
-840.138218
 20
-613.867995
 30
0.0
  9
$PEXTMAX
 10
1259.861782
 20
871.132005
 30
0.0
  9
$PLIMMIN
 10
-840.138218
 20
-613.867995
  9
$PLIMMAX
 10
1259.861782
 20
871.132005
  9
$UNITMODE
 70
     0
  9
$VISRETAIN
 70
     1
  9
$PLINEGEN
 70
     0
  9
$PSLTSCALE
 70
     1
  9
$TREEDEPTH
 70
  3020
  9
$CMLSTYLE
  2
Standard
  9
$CMLJUST
 70
     0
  9
$CMLSCALE
 40
20.0
  9
$PROXYGRAPHICS
 70
     1
  9
$MEASUREMENT
 70
     1
  9
$CELWEIGHT
370
    -1
  9
$ENDCAPS
280
     0
  9
$JOINSTYLE
280
     0
  9
$LWDISPLAY
290
     0
  9
$INSUNITS
 70
     4
  9
$HYPERLINKBASE
  1

  9
$STYLESHEET
  1

  9
$XEDIT
290
     1
  9
$CEPSNTYPE
380
     0
  9
$PSTYLEMODE
290
     1
  9
$FINGERPRINTGUID
  2
{FAEB1C30-E019-11D5-929B-00C0DF256EC4}
  9
$VERSIONGUID
  2
{FAEB1C32-E019-11D5-929B-00C0DF256EC4}
  9
$EXTNAMES
290
     1
  9
$PSVPSCALE
 40
0.0
  9
$OLESTARTUP
290
     0
  0
ENDSEC
  0
SECTION
  2
CLASSES
  0
CLASS
  1
ACDBDICTIONARYWDFLT
  2
AcDbDictionaryWithDefault
  3
ObjectDBX Classes
 90
        0
280
     0
281
     0
  0
CLASS
  1
ACDBPLACEHOLDER
  2
AcDbPlaceHolder
  3
ObjectDBX Classes
 90
        0
280
     0
281
     0
  0
CLASS
  1
LAYOUT
  2
AcDbLayout
  3
ObjectDBX Classes
 90
        0
280
     0
281
     0
  0
ENDSEC
  0
SECTION
  2
TABLES
  0
TABLE
  2
VPORT
  5
8
330
0
100
AcDbSymbolTable
 70
     2
  0
VPORT
  5
29
330
8
100
AcDbSymbolTableRecord
100
AcDbViewportTableRecord
  2
*ACTIVE
 70
     0
 10
0.0
 20
0.0
 11
1.0
 21
1.0
 12
209.861782
 22
128.632005
 13
0.0
 23
0.0
 14
1.0
 24
1.0
 15
0.0
 25
0.0
 16
0.0
 26
0.0
 36
1.0
 17
0.0
 27
0.0
 37
0.0
 40
1485.0
 41
1.414141
 42
50.0
 43
0.0
 44
0.0
 50
0.0
 51
0.0
 71
    16
 72
   100
 73
     1
 74
     0
 75
     0
 76
     0
 77
     0
 78
     0
281
     0
 65
     0
110
0.0
120
0.0
130
0.0
111
1.0
121
0.0
131
0.0
112
0.0
122
1.0
132
0.0
 79
     0
146
0.0
  0
ENDTAB
  0
TABLE
  2
LTYPE
  5
5
330
0
100
AcDbSymbolTable
 70
     3
  0
LTYPE
  5
14
330
5
100
AcDbSymbolTableRecord
100
AcDbLinetypeTableRecord
  2
ByBlock
 70
     0
  3

 72
    65
 73
     0
 40
0.0
  0
LTYPE
  5
15
330
5
100
AcDbSymbolTableRecord
100
AcDbLinetypeTableRecord
  2
ByLayer
 70
     0
  3

 72
    65
 73
     0
 40
0.0
  0
LTYPE
  5
16
330
5
100
AcDbSymbolTableRecord
100
AcDbLinetypeTableRecord
  2
Continuous
 70
     0
  3
Solid line
 72
    65
 73
     0
 40
0.0
  0
LTYPE
  5
2A
330
5
100
AcDbSymbolTableRecord
100
AcDbLinetypeTableRecord
  2
DASHED
 70
     0
  3
__ __ __ __ __
 72
    65
 73
     2
 40
6.25
 49
5.0
 74
     4
 75
     0
340
0
 46
1.0
 50
0.0
 44
0.0
 45
0.0
 49
-1.25
 74
     4
 75
     0
340
0
 46
1.0
 50
0.0
 44
0.0
 45
0.0
  0
LTYPE
  5
E7
330
5
100
AcDbSymbolTableRecord
100
AcDbLinetypeTableRecord
  2
DASHDOT
 70
     0
  3
__ . __ . __ . __ . __
 72
    65
 73
     4
 40
7.5
 49
5.0
 74
     4
 75
     0
340
0
 46
1.0
 50
0.0
 44
0.0
 45
0.0
 49
-1.25
 74
     4
 75
     0
340
0
 46
1.0
 50
0.0
 44
0.0
 45
0.0
 49
0.0
 74
     4
 75
     0
340
0
 46
1.0
 50
0.0
 44
0.0
 45
0.0
 49
-1.25
 74
     4
 75
     0
340
0
 46
1.0
 50
0.0
 44
0.0
 45
0.0
  0
ENDTAB
  0
TABLE
  2
LAYER
  5
2
330
0
100
AcDbSymbolTable
 70
    12
  0
LAYER
  5
10
330
2
100
AcDbSymbolTableRecord
100
AcDbLayerTableRecord
  2
0
 70
     0
 62
     7
  6
Continuous
370
    -3
390
F
  0
LAYER
  5
2B
330
2
100
AcDbSymbolTableRecord
100
AcDbLayerTableRecord
  2
LC-INFO-1-5-mm-A3-0
 70
     1
 62
     7
  6
ByBlock
370
    -3
390
F
  0
LAYER
  5
2C
330
2
100
AcDbSymbolTableRecord
100
AcDbLayerTableRecord
  2
LC-CUT-HIDDEN
 70
     0
 62
     7
  6
DASHED
370
    -3
390
F
  0
LAYER
  5
2D
330
2
100
AcDbSymbolTableRecord
100
AcDbLayerTableRecord
  2
LC-VIEWPORT
 70
     0
 62
     7
  6
ByBlock
370
    -3
390
F
  0
LAYER
  5
2E
330
2
100
AcDbSymbolTableRecord
100
AcDbLayerTableRecord
  2
LC-3D-HIDDEN
 70
     0
 62
     9
  6
DASHED
370
    -3
390
F
  0
LAYER
  5
30
330
2
100
AcDbSymbolTableRecord
100
AcDbLayerTableRecord
  2
LC-001-002-----0
 70
     0
 62
     2
  6
ByBlock
370
    -3
390
F
  0
LAYER
  5
32
330
2
100
AcDbSymbolTableRecord
100
AcDbLayerTableRecord
  2
LC-002-100-D00-0
 70
     0
 62
     1
  6
ByBlock
370
    -3
390
F
  0
LAYER
  5
D9
330
2
100
AcDbSymbolTableRecord
100
AcDbLayerTableRecord
  2
Defpoints
 70
     0
 62
     7
  6
Continuous
290
     0
370
    -3
390
F
  0
LAYER
  5
6EA
330
2
100
AcDbSymbolTableRecord
100
AcDbLayerTableRecord
  2
LC-003-207-RND-0
 70
     0
 62
     1
  6
ByBlock
370
    -3
390
F
  0
LAYER
  5
6F6
330
2
100
AcDbSymbolTableRecord
100
AcDbLayerTableRecord
  2
LC-004-005-----0
 70
     0
 62
     2
  6
ByBlock
370
    -3
390
F
  0
LAYER
  5
71D
330
2
100
AcDbSymbolTableRecord
100
AcDbLayerTableRecord
  2
LC-005-207-----0
 70
     0
 62
     1
  6
ByBlock
370
    -3
390
F
  0
LAYER
  5
721
330
2
100
AcDbSymbolTableRecord
100
AcDbLayerTableRecord
  2
LC-006-003-----0
 70
     0
 62
     2
  6
ByBlock
370
    -3
390
F
  0
ENDTAB
  0
TABLE
  2
STYLE
  5
3
330
0
100
AcDbSymbolTable
 70
     3
  0
STYLE
  5
11
330
3
100
AcDbSymbolTableRecord
100
AcDbTextStyleTableRecord
  2
Standard
 70
     0
 40
0.0
 41
1.0
 50
0.0
 71
     0
 42
2.5
  3
txt
  4

  0
STYLE
  5
2F
330
3
100
AcDbSymbolTableRecord
100
AcDbTextStyleTableRecord
  2
LCTX15-400-0-0-Arial
 70
     0
 40
0.0
 41
0.8
 50
0.0
 71
     0
 42
3.5
  3

  4

1001
ACAD
1000
Arial
1071
 16777218
  0
STYLE
  5
D6
330
3
100
AcDbSymbolTableRecord
100
AcDbTextStyleTableRecord
  2
LCTX15-400-0-0pDIN-Schrift
 70
     0
 40
2.5
 41
0.8
 50
15.0
 71
     0
 42
3.5
  3
STANDARD
  4

  0
ENDTAB
  0
TABLE
  2
VIEW
  5
6
330
0
100
AcDbSymbolTable
 70
     0
  0
ENDTAB
  0
TABLE
  2
UCS
  5
7
330
0
100
AcDbSymbolTable
 70
     0
  0
ENDTAB
  0
TABLE
  2
APPID
  5
9
330
0
100
AcDbSymbolTable
 70
     1
  0
APPID
  5
12
330
9
100
AcDbSymbolTableRecord
100
AcDbRegAppTableRecord
  2
ACAD
 70
     0
  0
ENDTAB
  0
TABLE
  2
DIMSTYLE
  5
A
330
0
100
AcDbSymbolTable
 70
     2
100
AcDbDimStyleTable
  0
DIMSTYLE
105
27
330
A
100
AcDbSymbolTableRecord
100
AcDbDimStyleTableRecord
  2
ISO-25
 70
     0
 41
2.5
 42
0.625
 43
3.75
 44
1.25
 73
     0
 74
     0
 77
     1
 78
     8
140
2.5
141
2.5
143
0.03937
147
0.625
171
     3
172
     1
271
     2
272
     2
274
     3
278
    44
283
     0
284
     8
340
11
  0
DIMSTYLE
105
D7
102
{ACAD_REACTORS
330
D8
330
21F
330
22D
330
23B
330
5DA
330
5E9
330
5F6
330
603
330
611
330
61E
330
62C
330
722
330
72F
102
}
330
A
100
AcDbSymbolTableRecord
100
AcDbDimStyleTableRecord
  2
LC-DIM-L-0100-02-02
 70
     0
 40
5.0
 41
10.0
 42
0.0
 43
7.5
 44
1.8
 73
     0
 74
     0
 77
     1
 78
     8
 79
     2
140
10.0
141
0.0
146
0.71
147
1.5
176
     2
177
     2
178
     2
179
     2
271
     2
278
    44
289
     1
340
D6
  0
ENDTAB
  0
TABLE
  2
BLOCK_RECORD
  5
1
330
0
100
AcDbSymbolTable
 70
    54
  0
BLOCK_RECORD
  5
1F
330
1
100
AcDbSymbolTableRecord
100
AcDbBlockTableRecord
  2
*Model_Space
340
22
  0
BLOCK_RECORD
  5
1B
330
1
100
AcDbSymbolTableRecord
100
AcDbBlockTableRecord
  2
*Paper_Space
340
1E
  0
BLOCK_RECORD
  5
23
330
1
100
AcDbSymbolTableRecord
100
AcDbBlockTableRecord
  2
*Paper_Space0
340
26
  0
BLOCK_RECORD
  5
DA
330
1
100
AcDbSymbolTableRecord
100
AcDbBlockTableRecord
  2
*D1
340
0
  0
BLOCK_RECORD
  5
108
330
1
100
AcDbSymbolTableRecord
100
AcDbBlockTableRecord
  2
KLON1
340
0
102
{BLKREFS
331
10E
102
}
  0
BLOCK_RECORD
  5
10F
330
1
100
AcDbSymbolTableRecord
100
AcDbBlockTableRecord
  2
KLON2
340
0
102
{BLKREFS
331
116
102
}
  0
BLOCK_RECORD
  5
118
330
1
100
AcDbSymbolTableRecord
100
AcDbBlockTableRecord
  2
KLON3
340
0
102
{BLKREFS
331
11D
102
}
  0
BLOCK_RECORD
  5
11E
330
1
100
AcDbSymbolTableRecord
100
AcDbBlockTableRecord
  2
KLON4
340
0
102
{BLKREFS
331
123
102
}
  0
BLOCK_RECORD
  5
124
330
1
100
AcDbSymbolTableRecord
100
AcDbBlockTableRecord
  2
KLON5
340
0
102
{BLKREFS
331
129
102
}
  0
BLOCK_RECORD
  5
12B
330
1
100
AcDbSymbolTableRecord
100
AcDbBlockTableRecord
  2
KLON6
340
0
102
{BLKREFS
331
132
102
}
  0
BLOCK_RECORD
  5
133
330
1
100
AcDbSymbolTableRecord
100
AcDbBlockTableRecord
  2
KLON7
340
0
102
{BLKREFS
331
139
102
}
  0
BLOCK_RECORD
  5
13B
330
1
100
AcDbSymbolTableRecord
100
AcDbBlockTableRecord
  2
KLON8
340
0
102
{BLKREFS
331
140
102
}
  0
BLOCK_RECORD
  5
14E
330
1
100
AcDbSymbolTableRecord
100
AcDbBlockTableRecord
  2
KLON9
340
0
102
{BLKREFS
331
153
102
}
  0
BLOCK_RECORD
  5
154
330
1
100
AcDbSymbolTableRecord
100
AcDbBlockTableRecord
  2
KLON10
340
0
102
{BLKREFS
331
159
102
}
  0
BLOCK_RECORD
  5
15B
330
1
100
AcDbSymbolTableRecord
100
AcDbBlockTableRecord
  2
KLON11
340
0
102
{BLKREFS
331
161
102
}
  0
BLOCK_RECORD
  5
162
330
1
100
AcDbSymbolTableRecord
100
AcDbBlockTableRecord
  2
KLON12
340
0
102
{BLKREFS
331
168
102
}
  0
BLOCK_RECORD
  5
169
330
1
100
AcDbSymbolTableRecord
100
AcDbBlockTableRecord
  2
KLON13
340
0
102
{BLKREFS
331
16E
102
}
  0
BLOCK_RECORD
  5
16F
330
1
100
AcDbSymbolTableRecord
100
AcDbBlockTableRecord
  2
KLON14
340
0
102
{BLKREFS
331
175
102
}
  0
BLOCK_RECORD
  5
176
330
1
100
AcDbSymbolTableRecord
100
AcDbBlockTableRecord
  2
KLON15
340
0
102
{BLKREFS
331
17C
102
}
  0
BLOCK_RECORD
  5
17D
330
1
100
AcDbSymbolTableRecord
100
AcDbBlockTableRecord
  2
KLON16
340
0
102
{BLKREFS
331
182
102
}
  0
BLOCK_RECORD
  5
220
330
1
100
AcDbSymbolTableRecord
100
AcDbBlockTableRecord
  2
*D18
340
0
  0
BLOCK_RECORD
  5
22E
330
1
100
AcDbSymbolTableRecord
100
AcDbBlockTableRecord
  2
*D19
340
0
  0
BLOCK_RECORD
  5
23C
330
1
100
AcDbSymbolTableRecord
100
AcDbBlockTableRecord
  2
*D20
340
0
  0
BLOCK_RECORD
  5
437
330
1
100
AcDbSymbolTableRecord
100
AcDbBlockTableRecord
  2
KLON17
340
0
102
{BLKREFS
331
447
102
}
  0
BLOCK_RECORD
  5
448
330
1
100
AcDbSymbolTableRecord
100
AcDbBlockTableRecord
  2
KLON18
340
0
102
{BLKREFS
331
45B
102
}
  0
BLOCK_RECORD
  5
45F
330
1
100
AcDbSymbolTableRecord
100
AcDbBlockTableRecord
  2
KLON19
340
0
102
{BLKREFS
331
464
102
}
  0
BLOCK_RECORD
  5
57C
330
1
100
AcDbSymbolTableRecord
100
AcDbBlockTableRecord
  2
KLON20
340
0
102
{BLKREFS
331
585
102
}
  0
BLOCK_RECORD
  5
586
330
1
100
AcDbSymbolTableRecord
100
AcDbBlockTableRecord
  2
KLON21
340
0
102
{BLKREFS
331
58F
102
}
  0
BLOCK_RECORD
  5
5A7
330
1
100
AcDbSymbolTableRecord
100
AcDbBlockTableRecord
  2
KLON22
340
0
102
{BLKREFS
331
5AF
102
}
  0
BLOCK_RECORD
  5
5B0
330
1
100
AcDbSymbolTableRecord
100
AcDbBlockTableRecord
  2
KLON23
340
0
102
{BLKREFS
331
5BC
102
}
  0
BLOCK_RECORD
  5
5BD
330
1
100
AcDbSymbolTableRecord
100
AcDbBlockTableRecord
  2
KLON24
340
0
102
{BLKREFS
331
5C9
102
}
  0
BLOCK_RECORD
  5
5DB
330
1
100
AcDbSymbolTableRecord
100
AcDbBlockTableRecord
  2
*D29
340
0
  0
BLOCK_RECORD
  5
5EA
330
1
100
AcDbSymbolTableRecord
100
AcDbBlockTableRecord
  2
*D30
340
0
  0
BLOCK_RECORD
  5
5F7
330
1
100
AcDbSymbolTableRecord
100
AcDbBlockTableRecord
  2
*D31
340
0
  0
BLOCK_RECORD
  5
604
330
1
100
AcDbSymbolTableRecord
100
AcDbBlockTableRecord
  2
*D32
340
0
  0
BLOCK_RECORD
  5
612
330
1
100
AcDbSymbolTableRecord
100
AcDbBlockTableRecord
  2
*D33
340
0
  0
BLOCK_RECORD
  5
61F
330
1
100
AcDbSymbolTableRecord
100
AcDbBlockTableRecord
  2
*D34
340
0
  0
BLOCK_RECORD
  5
62D
330
1
100
AcDbSymbolTableRecord
100
AcDbBlockTableRecord
  2
*D35
340
0
  0
BLOCK_RECORD
  5
63B
330
1
100
AcDbSymbolTableRecord
100
AcDbBlockTableRecord
  2
KLON25
340
0
102
{BLKREFS
331
642
102
}
  0
BLOCK_RECORD
  5
643
330
1
100
AcDbSymbolTableRecord
100
AcDbBlockTableRecord
  2
KLON26
340
0
102
{BLKREFS
331
64B
102
}
  0
BLOCK_RECORD
  5
64C
330
1
100
AcDbSymbolTableRecord
100
AcDbBlockTableRecord
  2
KLON27
340
0
102
{BLKREFS
331
65A
102
}
  0
BLOCK_RECORD
  5
65E
330
1
100
AcDbSymbolTableRecord
100
AcDbBlockTableRecord
  2
KLON28
340
0
102
{BLKREFS
331
66C
102
}
  0
BLOCK_RECORD
  5
66D
330
1
100
AcDbSymbolTableRecord
100
AcDbBlockTableRecord
  2
KLON29
340
0
102
{BLKREFS
331
672
102
}
  0
BLOCK_RECORD
  5
673
330
1
100
AcDbSymbolTableRecord
100
AcDbBlockTableRecord
  2
KLON30
340
0
102
{BLKREFS
331
68B
102
}
  0
BLOCK_RECORD
  5
68C
330
1
100
AcDbSymbolTableRecord
100
AcDbBlockTableRecord
  2
KLON31
340
0
102
{BLKREFS
331
6A5
102
}
  0
BLOCK_RECORD
  5
6A7
330
1
100
AcDbSymbolTableRecord
100
AcDbBlockTableRecord
  2
KLON32
340
0
102
{BLKREFS
331
6AC
102
}
  0
BLOCK_RECORD
  5
6AF
330
1
100
AcDbSymbolTableRecord
100
AcDbBlockTableRecord
  2
KLON33
340
0
102
{BLKREFS
331
6B5
102
}
  0
BLOCK_RECORD
  5
6B6
330
1
100
AcDbSymbolTableRecord
100
AcDbBlockTableRecord
  2
KLON34
340
0
102
{BLKREFS
331
6BB
102
}
  0
BLOCK_RECORD
  5
6BD
330
1
100
AcDbSymbolTableRecord
100
AcDbBlockTableRecord
  2
KLON35
340
0
102
{BLKREFS
331
6C3
102
}
  0
BLOCK_RECORD
  5
6C6
330
1
100
AcDbSymbolTableRecord
100
AcDbBlockTableRecord
  2
KLON36
340
0
102
{BLKREFS
331
6CB
102
}
  0
BLOCK_RECORD
  5
6CE
330
1
100
AcDbSymbolTableRecord
100
AcDbBlockTableRecord
  2
KLON37
340
0
102
{BLKREFS
331
6D4
102
}
  0
BLOCK_RECORD
  5
6D7
330
1
100
AcDbSymbolTableRecord
100
AcDbBlockTableRecord
  2
KLON38
340
0
102
{BLKREFS
331
6DD
102
}
  0
BLOCK_RECORD
  5
6F3
330
1
100
AcDbSymbolTableRecord
100
AcDbBlockTableRecord
  2
*X150
340
0
102
{BLKREFS
331
6FF
102
}
  0
BLOCK_RECORD
  5
706
330
1
100
AcDbSymbolTableRecord
100
AcDbBlockTableRecord
  2
*X251
340
0
102
{BLKREFS
331
713
102
}
  0
BLOCK_RECORD
  5
723
330
1
100
AcDbSymbolTableRecord
100
AcDbBlockTableRecord
  2
*D52
340
0
  0
BLOCK_RECORD
  5
730
330
1
100
AcDbSymbolTableRecord
100
AcDbBlockTableRecord
  2
*D53
340
0
  0
ENDTAB
  0
ENDSEC
  0
SECTION
  2
BLOCKS
  0
BLOCK
  5
20
330
1F
100
AcDbEntity
  8
0
100
AcDbBlockBegin
  2
*Model_Space
 70
     0
 71
     0
 10
0.0
 20
0.0
 30
0.0
  3
*Model_Space
  1

  0
ENDBLK
  5
21
330
1F
100
AcDbEntity
  8
0
100
AcDbBlockEnd
  0
BLOCK
  5
1C
330
1B
100
AcDbEntity
 67
     1
  8
0
100
AcDbBlockBegin
  2
*Paper_Space
 70
     0
 71
     0
 10
0.0
 20
0.0
 30
0.0
  3
*Paper_Space
  1

  0
ENDBLK
  5
1D
330
1B
100
AcDbEntity
 67
     1
  8
0
100
AcDbBlockEnd
  0
BLOCK
  5
24
330
23
100
AcDbEntity
  8
0
100
AcDbBlockBegin
  2
*Paper_Space0
 70
     0
 71
     0
 10
0.0
 20
0.0
 30
0.0
  3
*Paper_Space0
  1

  0
ENDBLK
  5
25
330
23
100
AcDbEntity
  8
0
100
AcDbBlockEnd
  0
BLOCK
  5
E5
330
DA
100
AcDbEntity
  8
0
100
AcDbBlockBegin
  2
*D1
 70
     1
 71
     0
 10
0.0
 20
0.0
 30
0.0
  3
*D1
  1

  0
LINE
  5
DB
330
DA
100
AcDbEntity
  8
LC-002-100-D00-0
 62
     2
370
    -2
100
AcDbLine
 10
776.364283
 20
377.448353
 30
0.0
 11
776.364283
 21
269.617005
 31
0.0
  0
LINE
  5
DC
330
DA
100
AcDbEntity
  8
LC-002-100-D00-0
 62
     2
370
    -2
100
AcDbLine
 10
857.364283
 20
377.448353
 30
0.0
 11
857.364283
 21
269.617005
 31
0.0
  0
LINE
  5
DD
330
DA
100
AcDbEntity
  8
LC-002-100-D00-0
 62
     2
370
    -2
100
AcDbLine
 10
726.364283
 20
278.617005
 30
0.0
 11
676.364283
 21
278.617005
 31
0.0
  0
LINE
  5
DE
330
DA
100
AcDbEntity
  8
LC-002-100-D00-0
 62
     2
370
    -2
100
AcDbLine
 10
907.364283
 20
278.617005
 30
0.0
 11
925.285124
 21
278.617005
 31
0.0
  0
SOLID
  5
DF
330
DA
100
AcDbEntity
  8
LC-002-100-D00-0
 62
     2
100
AcDbTrace
 10
726.364283
 20
270.283672
 30
0.0
 11
726.364283
 21
286.950338
 31
0.0
 12
776.364283
 22
278.617005
 32
0.0
 13
776.364283
 23
278.617005
 33
0.0
  0
SOLID
  5
E0
330
DA
100
AcDbEntity
  8
LC-002-100-D00-0
 62
     2
100
AcDbTrace
 10
907.364283
 20
286.950338
 30
0.0
 11
907.364283
 21
270.283672
 31
0.0
 12
857.364283
 22
278.617005
 32
0.0
 13
857.364283
 23
278.617005
 33
0.0
  0
MTEXT
  5
E1
330
DA
100
AcDbEntity
  8
LC-002-100-D00-0
 62
     2
100
AcDbMText
 10
885.695676
 20
333.617005
 30
0.0
 40
50.0
 41
0.0
 71
     5
 72
     1
  1
\A1;81
  7
LCTX15-400-0-0pDIN-Schrift
 73
     1
 44
1.0
  0
POINT
  5
E2
330
DA
100
AcDbEntity
  8
Defpoints
 62
     0
100
AcDbPoint
 10
776.364283
 20
377.448353
 30
0.0
  0
POINT
  5
E3
330
DA
100
AcDbEntity
  8
Defpoints
 62
     0
100
AcDbPoint
 10
857.364283
 20
377.448353
 30
0.0
  0
POINT
  5
E4
330
DA
100
AcDbEntity
  8
Defpoints
 62
     0
100
AcDbPoint
 10
857.364283
 20
278.617005
 30
0.0
  0
ENDBLK
  5
E6
330
DA
100
AcDbEntity
  8
0
100
AcDbBlockEnd
  0
BLOCK
  5
109
330
108
100
AcDbEntity
  8
0
100
AcDbBlockBegin
  2
KLON1
 70
     0
 71
     0
 10
0.0
 20
0.0
 30
0.0
  3
KLON1
  1

  4
KLON1
  0
LINE
  5
10B
330
108
100
AcDbEntity
  8
LC-002-100-D00-0
 62
     7
370
    15
100
AcDbLine
 10
405.016827
 20
12.198987
 30
0.0
 11
405.014592
 21
12.184701
 31
0.0
  0
LINE
  5
10C
330
108
100
AcDbEntity
  8
LC-002-100-D00-0
 62
     7
370
    15
100
AcDbLine
 10
405.014592
 20
12.184701
 30
0.0
 11
405.003297
 21
12.112393
 31
0.0
  0
LINE
  5
10D
330
108
100
AcDbEntity
  8
LC-002-100-D00-0
 62
     7
370
    15
100
AcDbLine
 10
405.003297
 20
12.112393
 30
0.0
 11
404.99066
 21
12.031513
 31
0.0
  0
ENDBLK
  5
10A
330
108
100
AcDbEntity
  8
0
100
AcDbBlockEnd
  0
BLOCK
  5
110
330
10F
100
AcDbEntity
  8
0
100
AcDbBlockBegin
  2
KLON2
 70
     0
 71
     0
 10
0.0
 20
0.0
 30
0.0
  3
KLON2
  1

  4
KLON2
  0
LINE
  5
112
330
10F
100
AcDbEntity
  8
LC-002-100-D00-0
 62
     7
370
    15
100
AcDbLine
 10
404.99066
 20
36.67685
 30
0.0
 11
405.003297
 21
36.59597
 31
0.0
  0
LINE
  5
113
330
10F
100
AcDbEntity
  8
LC-002-100-D00-0
 62
     7
370
    15
100
AcDbLine
 10
405.003297
 20
36.59597
 30
0.0
 11
405.012088
 21
36.539761
 31
0.0
  0
LINE
  5
114
330
10F
100
AcDbEntity
  8
LC-002-100-D00-0
 62
     7
370
    15
100
AcDbLine
 10
405.012088
 20
36.539761
 30
0.0
 11
405.014592
 21
36.523662
 31
0.0
  0
LINE
  5
115
330
10F
100
AcDbEntity
  8
LC-002-100-D00-0
 62
     7
370
    15
100
AcDbLine
 10
405.014592
 20
36.523662
 30
0.0
 11
405.016827
 21
36.509376
 31
0.0
  0
ENDBLK
  5
111
330
10F
100
AcDbEntity
  8
0
100
AcDbBlockEnd
  0
BLOCK
  5
119
330
118
100
AcDbEntity
  8
0
100
AcDbBlockBegin
  2
KLON3
 70
     0
 71
     0
 10
0.0
 20
0.0
 30
0.0
  3
KLON3
  1

  4
KLON3
  0
LINE
  5
11B
330
118
100
AcDbEntity
  8
LC-002-100-D00-0
 62
     7
370
    15
100
AcDbLine
 10
404.99066
 20
47.839542
 30
0.0
 11
405.001211
 21
47.845452
 31
0.0
  0
LINE
  5
11C
330
118
100
AcDbEntity
  8
LC-002-100-D00-0
 62
     7
370
    15
100
AcDbLine
 10
405.001211
 20
47.845452
 30
0.0
 11
405.016827
 21
47.854181
 31
0.0
  0
ENDBLK
  5
11A
330
118
100
AcDbEntity
  8
0
100
AcDbBlockEnd
  0
BLOCK
  5
11F
330
11E
100
AcDbEntity
  8
0
100
AcDbBlockBegin
  2
KLON4
 70
     0
 71
     0
 10
0.0
 20
0.0
 30
0.0
  3
KLON4
  1

  4
KLON4
  0
LINE
  5
121
330
11E
100
AcDbEntity
  8
LC-002-100-D00-0
 62
     7
370
    15
100
AcDbLine
 10
404.99066
 20
0.854182
 30
0.0
 11
404.998051
 21
0.816009
 31
0.0
  0
LINE
  5
122
330
11E
100
AcDbEntity
  8
LC-002-100-D00-0
 62
     7
370
    15
100
AcDbLine
 10
404.998051
 20
0.816009
 30
0.0
 11
405.016827
 21
0.783525
 31
0.0
  0
ENDBLK
  5
120
330
11E
100
AcDbEntity
  8
0
100
AcDbBlockEnd
  0
BLOCK
  5
125
330
124
100
AcDbEntity
  8
0
100
AcDbBlockBegin
  2
KLON5
 70
     0
 71
     0
 10
0.0
 20
0.0
 30
0.0
  3
KLON5
  1

  4
KLON5
  0
LINE
  5
127
330
124
100
AcDbEntity
  8
LC-002-100-D00-0
 62
     7
370
    15
100
AcDbLine
 10
-378.956986
 20
47.839542
 30
0.0
 11
-378.967536
 21
47.845452
 31
0.0
  0
LINE
  5
128
330
124
100
AcDbEntity
  8
LC-002-100-D00-0
 62
     7
370
    15
100
AcDbLine
 10
-378.967536
 20
47.845452
 30
0.0
 11
-378.983153
 21
47.854181
 31
0.0
  0
ENDBLK
  5
126
330
124
100
AcDbEntity
  8
0
100
AcDbBlockEnd
  0
BLOCK
  5
12C
330
12B
100
AcDbEntity
  8
0
100
AcDbBlockBegin
  2
KLON6
 70
     0
 71
     0
 10
0.0
 20
0.0
 30
0.0
  3
KLON6
  1

  4
KLON6
  0
LINE
  5
12E
330
12B
100
AcDbEntity
  8
LC-002-100-D00-0
 62
     7
370
    15
100
AcDbLine
 10
-378.956986
 20
36.67685
 30
0.0
 11
-378.969622
 21
36.59597
 31
0.0
  0
LINE
  5
12F
330
12B
100
AcDbEntity
  8
LC-002-100-D00-0
 62
     7
370
    15
100
AcDbLine
 10
-378.969622
 20
36.59597
 30
0.0
 11
-378.978414
 21
36.539761
 31
0.0
  0
LINE
  5
130
330
12B
100
AcDbEntity
  8
LC-002-100-D00-0
 62
     7
370
    15
100
AcDbLine
 10
-378.978414
 20
36.539761
 30
0.0
 11
-378.980917
 21
36.523662
 31
0.0
  0
LINE
  5
131
330
12B
100
AcDbEntity
  8
LC-002-100-D00-0
 62
     7
370
    15
100
AcDbLine
 10
-378.980917
 20
36.523662
 30
0.0
 11
-378.983153
 21
36.509376
 31
0.0
  0
ENDBLK
  5
12D
330
12B
100
AcDbEntity
  8
0
100
AcDbBlockEnd
  0
BLOCK
  5
134
330
133
100
AcDbEntity
  8
0
100
AcDbBlockBegin
  2
KLON7
 70
     0
 71
     0
 10
0.0
 20
0.0
 30
0.0
  3
KLON7
  1

  4
KLON7
  0
LINE
  5
136
330
133
100
AcDbEntity
  8
LC-002-100-D00-0
 62
     7
370
    15
100
AcDbLine
 10
-378.983153
 20
12.198987
 30
0.0
 11
-378.980917
 21
12.184701
 31
0.0
  0
LINE
  5
137
330
133
100
AcDbEntity
  8
LC-002-100-D00-0
 62
     7
370
    15
100
AcDbLine
 10
-378.980917
 20
12.184701
 30
0.0
 11
-378.969622
 21
12.112393
 31
0.0
  0
LINE
  5
138
330
133
100
AcDbEntity
  8
LC-002-100-D00-0
 62
     7
370
    15
100
AcDbLine
 10
-378.969622
 20
12.112393
 30
0.0
 11
-378.956986
 21
12.031513
 31
0.0
  0
ENDBLK
  5
135
330
133
100
AcDbEntity
  8
0
100
AcDbBlockEnd
  0
BLOCK
  5
13C
330
13B
100
AcDbEntity
  8
0
100
AcDbBlockBegin
  2
KLON8
 70
     0
 71
     0
 10
0.0
 20
0.0
 30
0.0
  3
KLON8
  1

  4
KLON8
  0
LINE
  5
13E
330
13B
100
AcDbEntity
  8
LC-002-100-D00-0
 62
     7
370
    15
100
AcDbLine
 10
-378.956986
 20
0.854182
 30
0.0
 11
-378.964377
 21
0.816009
 31
0.0
  0
LINE
  5
13F
330
13B
100
AcDbEntity
  8
LC-002-100-D00-0
 62
     7
370
    15
100
AcDbLine
 10
-378.964377
 20
0.816009
 30
0.0
 11
-378.983153
 21
0.783525
 31
0.0
  0
ENDBLK
  5
13D
330
13B
100
AcDbEntity
  8
0
100
AcDbBlockEnd
  0
BLOCK
  5
14F
330
14E
100
AcDbEntity
  8
0
100
AcDbBlockBegin
  2
KLON9
 70
     0
 71
     0
 10
0.0
 20
0.0
 30
0.0
  3
KLON9
  1

  4
KLON9
  0
LINE
  5
151
330
14E
100
AcDbEntity
  8
LC-002-100-D00-0
 62
     7
370
    15
100
AcDbLine
 10
404.96214
 20
12.020773
 30
0.0
 11
404.978293
 21
12.026857
 31
0.0
  0
LINE
  5
152
330
14E
100
AcDbEntity
  8
LC-002-100-D00-0
 62
     7
370
    15
100
AcDbLine
 10
404.978293
 20
12.026857
 30
0.0
 11
404.99066
 21
12.031513
 31
0.0
  0
ENDBLK
  5
150
330
14E
100
AcDbEntity
  8
0
100
AcDbBlockEnd
  0
BLOCK
  5
155
330
154
100
AcDbEntity
  8
0
100
AcDbBlockBegin
  2
KLON10
 70
     0
 71
     0
 10
0.0
 20
0.0
 30
0.0
  3
KLON10
  1

  4
KLON10
  0
LINE
  5
157
330
154
100
AcDbEntity
  8
LC-002-100-D00-0
 62
     7
370
    15
100
AcDbLine
 10
-378.928465
 20
12.020773
 30
0.0
 11
-378.944618
 21
12.026857
 31
0.0
  0
LINE
  5
158
330
154
100
AcDbEntity
  8
LC-002-100-D00-0
 62
     7
370
    15
100
AcDbLine
 10
-378.944618
 20
12.026857
 30
0.0
 11
-378.956986
 21
12.031513
 31
0.0
  0
ENDBLK
  5
156
330
154
100
AcDbEntity
  8
0
100
AcDbBlockEnd
  0
BLOCK
  5
15C
330
15B
100
AcDbEntity
  8
0
100
AcDbBlockBegin
  2
KLON11
 70
     0
 71
     0
 10
0.0
 20
0.0
 30
0.0
  3
KLON11
  1

  4
KLON11
  0
LINE
  5
15E
330
15B
100
AcDbEntity
  8
LC-002-100-D00-0
 62
     7
370
    15
100
AcDbLine
 10
268.003779
 20
18.494964
 30
0.0
 11
268.015163
 21
18.908439
 31
0.0
  0
LINE
  5
15F
330
15B
100
AcDbEntity
  8
LC-002-100-D00-0
 62
     7
370
    15
100
AcDbLine
 10
268.015163
 20
18.908439
 30
0.0
 11
268.026846
 21
19.331697
 31
0.0
  0
LINE
  5
160
330
15B
100
AcDbEntity
  8
LC-002-100-D00-0
 62
     7
370
    15
100
AcDbLine
 10
268.026846
 20
19.331697
 30
0.0
 11
268.038648
 21
19.759876
 31
0.0
  0
ENDBLK
  5
15D
330
15B
100
AcDbEntity
  8
0
100
AcDbBlockEnd
  0
BLOCK
  5
163
330
162
100
AcDbEntity
  8
0
100
AcDbBlockBegin
  2
KLON12
 70
     0
 71
     0
 10
0.0
 20
0.0
 30
0.0
  3
KLON12
  1

  4
KLON12
  0
LINE
  5
165
330
162
100
AcDbEntity
  8
LC-002-100-D00-0
 62
     7
370
    15
100
AcDbLine
 10
268.038648
 20
28.948488
 30
0.0
 11
268.026846
 21
29.376666
 31
0.0
  0
LINE
  5
166
330
162
100
AcDbEntity
  8
LC-002-100-D00-0
 62
     7
370
    15
100
AcDbLine
 10
268.026846
 20
29.376666
 30
0.0
 11
268.015163
 21
29.799925
 31
0.0
  0
LINE
  5
167
330
162
100
AcDbEntity
  8
LC-002-100-D00-0
 62
     7
370
    15
100
AcDbLine
 10
268.015163
 20
29.799925
 30
0.0
 11
268.003779
 21
30.213399
 31
0.0
  0
ENDBLK
  5
164
330
162
100
AcDbEntity
  8
0
100
AcDbBlockEnd
  0
BLOCK
  5
16A
330
169
100
AcDbEntity
  8
0
100
AcDbBlockBegin
  2
KLON13
 70
     0
 71
     0
 10
0.0
 20
0.0
 30
0.0
  3
KLON13
  1

  4
KLON13
  0
LINE
  5
16C
330
169
100
AcDbEntity
  8
LC-002-100-D00-0
 62
     7
370
    15
100
AcDbLine
 10
404.96214
 20
36.68759
 30
0.0
 11
404.978293
 21
36.681506
 31
0.0
  0
LINE
  5
16D
330
169
100
AcDbEntity
  8
LC-002-100-D00-0
 62
     7
370
    15
100
AcDbLine
 10
404.978293
 20
36.681506
 30
0.0
 11
404.99066
 21
36.67685
 31
0.0
  0
ENDBLK
  5
16B
330
169
100
AcDbEntity
  8
0
100
AcDbBlockEnd
  0
BLOCK
  5
170
330
16F
100
AcDbEntity
  8
0
100
AcDbBlockBegin
  2
KLON14
 70
     0
 71
     0
 10
0.0
 20
0.0
 30
0.0
  3
KLON14
  1

  4
KLON14
  0
LINE
  5
172
330
16F
100
AcDbEntity
  8
LC-002-100-D00-0
 62
     7
370
    15
100
AcDbLine
 10
-241.970105
 20
18.494964
 30
0.0
 11
-241.981489
 21
18.908439
 31
0.0
  0
LINE
  5
173
330
16F
100
AcDbEntity
  8
LC-002-100-D00-0
 62
     7
370
    15
100
AcDbLine
 10
-241.981489
 20
18.908439
 30
0.0
 11
-241.993172
 21
19.331697
 31
0.0
  0
LINE
  5
174
330
16F
100
AcDbEntity
  8
LC-002-100-D00-0
 62
     7
370
    15
100
AcDbLine
 10
-241.993172
 20
19.331697
 30
0.0
 11
-242.004973
 21
19.759876
 31
0.0
  0
ENDBLK
  5
171
330
16F
100
AcDbEntity
  8
0
100
AcDbBlockEnd
  0
BLOCK
  5
177
330
176
100
AcDbEntity
  8
0
100
AcDbBlockBegin
  2
KLON15
 70
     0
 71
     0
 10
0.0
 20
0.0
 30
0.0
  3
KLON15
  1

  4
KLON15
  0
LINE
  5
179
330
176
100
AcDbEntity
  8
LC-002-100-D00-0
 62
     7
370
    15
100
AcDbLine
 10
-242.004973
 20
28.948488
 30
0.0
 11
-241.993172
 21
29.376666
 31
0.0
  0
LINE
  5
17A
330
176
100
AcDbEntity
  8
LC-002-100-D00-0
 62
     7
370
    15
100
AcDbLine
 10
-241.993172
 20
29.376666
 30
0.0
 11
-241.981489
 21
29.799925
 31
0.0
  0
LINE
  5
17B
330
176
100
AcDbEntity
  8
LC-002-100-D00-0
 62
     7
370
    15
100
AcDbLine
 10
-241.981489
 20
29.799925
 30
0.0
 11
-241.970105
 21
30.213399
 31
0.0
  0
ENDBLK
  5
178
330
176
100
AcDbEntity
  8
0
100
AcDbBlockEnd
  0
BLOCK
  5
17E
330
17D
100
AcDbEntity
  8
0
100
AcDbBlockBegin
  2
KLON16
 70
     0
 71
     0
 10
0.0
 20
0.0
 30
0.0
  3
KLON16
  1

  4
KLON16
  0
LINE
  5
180
330
17D
100
AcDbEntity
  8
LC-002-100-D00-0
 62
     7
370
    15
100
AcDbLine
 10
-378.928465
 20
36.68759
 30
0.0
 11
-378.944618
 21
36.681506
 31
0.0
  0
LINE
  5
181
330
17D
100
AcDbEntity
  8
LC-002-100-D00-0
 62
     7
370
    15
100
AcDbLine
 10
-378.944618
 20
36.681506
 30
0.0
 11
-378.956986
 21
36.67685
 31
0.0
  0
ENDBLK
  5
17F
330
17D
100
AcDbEntity
  8
0
100
AcDbBlockEnd
  0
BLOCK
  5
22B
330
220
100
AcDbEntity
  8
0
100
AcDbBlockBegin
  2
*D18
 70
     1
 71
     0
 10
0.0
 20
0.0
 30
0.0
  3
*D18
  1

  0
LINE
  5
221
330
220
100
AcDbEntity
  8
LC-002-100-D00-0
 62
     2
370
    -2
100
AcDbLine
 10
458.016837
 20
70.354182
 30
0.0
 11
551.619692
 21
70.354182
 31
0.0
  0
LINE
  5
222
330
220
100
AcDbEntity
  8
LC-002-100-D00-0
 62
     2
370
    -2
100
AcDbLine
 10
458.016837
 20
68.854182
 30
0.0
 11
551.619692
 21
68.854182
 31
0.0
  0
LINE
  5
223
330
220
100
AcDbEntity
  8
LC-002-100-D00-0
 62
     2
370
    -2
100
AcDbLine
 10
542.619692
 20
120.354182
 30
0.0
 11
542.619692
 21
170.354182
 31
0.0
  0
LINE
  5
224
330
220
100
AcDbEntity
  8
LC-002-100-D00-0
 62
     2
370
    -2
100
AcDbLine
 10
542.619692
 20
18.854182
 30
0.0
 11
542.619692
 21
18.197323
 31
0.0
  0
SOLID
  5
225
330
220
100
AcDbEntity
  8
LC-002-100-D00-0
 62
     2
100
AcDbTrace
 10
534.286358
 20
120.354182
 30
0.0
 11
550.953025
 21
120.354182
 31
0.0
 12
542.619692
 22
70.354182
 32
0.0
 13
542.619692
 23
70.354182
 33
0.0
  0
SOLID
  5
226
330
220
100
AcDbEntity
  8
LC-002-100-D00-0
 62
     2
100
AcDbTrace
 10
550.953025
 20
18.854182
 30
0.0
 11
534.286358
 21
18.854182
 31
0.0
 12
542.619692
 22
68.854182
 32
0.0
 13
542.619692
 23
68.854182
 33
0.0
  0
MTEXT
  5
227
330
220
100
AcDbEntity
  8
LC-002-100-D00-0
 62
     2
100
AcDbMText
 10
487.619692
 20
64.777005
 30
0.0
 40
50.0
 41
0.0
 71
     5
 72
     1
  1
\A1;1.5
  7
LCTX15-400-0-0pDIN-Schrift
 11
6.123031769111886E-17
 21
1.0
 31
0.0
 73
     1
 44
1.0
  0
POINT
  5
228
330
220
100
AcDbEntity
  8
Defpoints
 62
     0
100
AcDbPoint
 10
458.016837
 20
70.354182
 30
0.0
  0
POINT
  5
229
330
220
100
AcDbEntity
  8
Defpoints
 62
     0
100
AcDbPoint
 10
458.016837
 20
68.854182
 30
0.0
  0
POINT
  5
22A
330
220
100
AcDbEntity
  8
Defpoints
 62
     0
100
AcDbPoint
 10
542.619692
 20
68.854182
 30
0.0
  0
ENDBLK
  5
22C
330
220
100
AcDbEntity
  8
0
100
AcDbBlockEnd
  0
BLOCK
  5
239
330
22E
100
AcDbEntity
  8
0
100
AcDbBlockBegin
  2
*D19
 70
     1
 71
     0
 10
0.0
 20
0.0
 30
0.0
  3
*D19
  1

  0
LINE
  5
22F
330
22E
100
AcDbEntity
  8
LC-002-100-D00-0
 62
     2
370
    -2
100
AcDbLine
 10
458.016837
 20
68.854182
 30
0.0
 11
631.584771
 21
68.854182
 31
0.0
  0
LINE
  5
230
330
22E
100
AcDbEntity
  8
LC-002-100-D00-0
 62
     2
370
    -2
100
AcDbLine
 10
410.516837
 20
50.354182
 30
0.0
 11
631.584771
 21
50.354182
 31
0.0
  0
LINE
  5
231
330
22E
100
AcDbEntity
  8
LC-002-100-D00-0
 62
     2
370
    -2
100
AcDbLine
 10
622.584771
 20
118.854182
 30
0.0
 11
622.584771
 21
168.854182
 31
0.0
  0
LINE
  5
232
330
22E
100
AcDbEntity
  8
LC-002-100-D00-0
 62
     2
370
    -2
100
AcDbLine
 10
622.584771
 20
0.354182
 30
0.0
 11
622.584771
 21
-15.700296
 31
0.0
  0
SOLID
  5
233
330
22E
100
AcDbEntity
  8
LC-002-100-D00-0
 62
     2
100
AcDbTrace
 10
614.251437
 20
118.854182
 30
0.0
 11
630.918104
 21
118.854182
 31
0.0
 12
622.584771
 22
68.854182
 32
0.0
 13
622.584771
 23
68.854182
 33
0.0
  0
SOLID
  5
234
330
22E
100
AcDbEntity
  8
LC-002-100-D00-0
 62
     2
100
AcDbTrace
 10
630.918104
 20
0.354182
 30
0.0
 11
614.251437
 21
0.354182
 31
0.0
 12
622.584771
 22
50.354182
 32
0.0
 13
622.584771
 23
50.354182
 33
0.0
  0
MTEXT
  5
235
330
22E
100
AcDbEntity
  8
LC-002-100-D00-0
 62
     2
100
AcDbMText
 10
567.584771
 20
49.927005
 30
0.0
 40
50.0
 41
0.0
 71
     5
 72
     1
  1
\A1;18,5
  7
LCTX15-400-0-0pDIN-Schrift
 11
6.123031769111886E-17
 21
1.0
 31
0.0
 73
     1
 44
1.0
  0
POINT
  5
236
330
22E
100
AcDbEntity
  8
Defpoints
 62
     0
100
AcDbPoint
 10
458.016837
 20
68.854182
 30
0.0
  0
POINT
  5
237
330
22E
100
AcDbEntity
  8
Defpoints
 62
     0
100
AcDbPoint
 10
410.516837
 20
50.354182
 30
0.0
  0
POINT
  5
238
330
22E
100
AcDbEntity
  8
Defpoints
 62
     0
100
AcDbPoint
 10
622.584771
 20
50.354182
 30
0.0
  0
ENDBLK
  5
23A
330
22E
100
AcDbEntity
  8
0
100
AcDbBlockEnd
  0
BLOCK
  5
246
330
23C
100
AcDbEntity
  8
0
100
AcDbBlockBegin
  2
*D20
 70
     1
 71
     0
 10
0.0
 20
0.0
 30
0.0
  3
*D20
  1

  0
LINE
  5
23D
330
23C
100
AcDbEntity
  8
LC-002-100-D00-0
 62
     2
370
    -2
100
AcDbLine
 10
458.016837
 20
70.354182
 30
0.0
 11
716.708887
 21
70.354182
 31
0.0
  0
LINE
  5
23E
330
23C
100
AcDbEntity
  8
LC-002-100-D00-0
 62
     2
370
    -2
100
AcDbLine
 10
458.016837
 20
-53.145818
 30
0.0
 11
716.708887
 21
-53.145818
 31
0.0
  0
LINE
  5
23F
330
23C
100
AcDbEntity
  8
LC-002-100-D00-0
 62
     2
370
    -2
100
AcDbLine
 10
707.708887
 20
20.354182
 30
0.0
 11
707.708887
 21
-3.145818
 31
0.0
  0
SOLID
  5
240
330
23C
100
AcDbEntity
  8
LC-002-100-D00-0
 62
     2
100
AcDbTrace
 10
716.042221
 20
20.354182
 30
0.0
 11
699.375554
 21
20.354182
 31
0.0
 12
707.708887
 22
70.354182
 32
0.0
 13
707.708887
 23
70.354182
 33
0.0
  0
SOLID
  5
241
330
23C
100
AcDbEntity
  8
LC-002-100-D00-0
 62
     2
100
AcDbTrace
 10
699.375554
 20
-3.145818
 30
0.0
 11
716.042221
 21
-3.145818
 31
0.0
 12
707.708887
 22
-53.145818
 32
0.0
 13
707.708887
 23
-53.145818
 33
0.0
  0
MTEXT
  5
242
330
23C
100
AcDbEntity
  8
LC-002-100-D00-0
 62
     2
100
AcDbMText
 10
652.708887
 20
-16.897995
 30
0.0
 40
50.0
 41
0.0
 71
     5
 72
     1
  1
\A1;123.5
  7
LCTX15-400-0-0pDIN-Schrift
 11
6.123031769111886E-17
 21
1.0
 31
0.0
 73
     1
 44
1.0
  0
POINT
  5
243
330
23C
100
AcDbEntity
  8
Defpoints
 62
     0
100
AcDbPoint
 10
458.016837
 20
70.354182
 30
0.0
  0
POINT
  5
244
330
23C
100
AcDbEntity
  8
Defpoints
 62
     0
100
AcDbPoint
 10
458.016837
 20
-53.145818
 30
0.0
  0
POINT
  5
245
330
23C
100
AcDbEntity
  8
Defpoints
 62
     0
100
AcDbPoint
 10
707.708887
 20
-53.145818
 30
0.0
  0
ENDBLK
  5
247
330
23C
100
AcDbEntity
  8
0
100
AcDbBlockEnd
  0
BLOCK
  5
438
330
437
100
AcDbEntity
  8
0
100
AcDbBlockBegin
  2
KLON17
 70
     0
 71
     0
 10
0.0
 20
0.0
 30
0.0
  3
KLON17
  1

  4
KLON17
  0
LINE
  5
43A
330
437
100
AcDbEntity
  8
LC-002-100-D00-0
 62
     7
370
    15
100
AcDbLine
 10
87.016826
 20
367.94835
 30
0.0
 11
87.014099
 21
367.948387
 31
0.0
  0
LINE
  5
43B
330
437
100
AcDbEntity
  8
LC-002-100-D00-0
 62
     7
370
    15
100
AcDbLine
 10
87.014099
 20
367.948387
 30
0.0
 11
87.009517
 21
367.948581
 31
0.0
  0
LINE
  5
43C
330
437
100
AcDbEntity
  8
LC-002-100-D00-0
 62
     7
370
    15
100
AcDbLine
 10
87.009517
 20
367.948581
 30
0.0
 11
87.000644
 21
367.949416
 31
0.0
  0
LINE
  5
43D
330
437
100
AcDbEntity
  8
LC-002-100-D00-0
 62
     7
370
    15
100
AcDbLine
 10
87.000644
 20
367.949416
 30
0.0
 11
86.998364
 21
367.949721
 31
0.0
  0
LINE
  5
43E
330
437
100
AcDbEntity
  8
LC-002-100-D00-0
 62
     7
370
    15
100
AcDbLine
 10
86.998364
 20
367.949721
 30
0.0
 11
86.99779
 21
367.949803
 31
0.0
  0
LINE
  5
43F
330
437
100
AcDbEntity
  8
LC-002-100-D00-0
 62
     7
370
    15
100
AcDbLine
 10
86.99779
 20
367.949803
 30
0.0
 11
86.997648
 21
367.949825
 31
0.0
  0
LINE
  5
440
330
437
100
AcDbEntity
  8
LC-002-100-D00-0
 62
     7
370
    15
100
AcDbLine
 10
86.997648
 20
367.949825
 30
0.0
 11
86.878469
 21
367.999096
 31
0.0
  0
LINE
  5
441
330
437
100
AcDbEntity
  8
LC-002-100-D00-0
 62
     7
370
    15
100
AcDbLine
 10
86.878469
 20
367.999096
 30
0.0
 11
86.037865
 21
368.811992
 31
0.0
  0
LINE
  5
442
330
437
100
AcDbEntity
  8
LC-002-100-D00-0
 62
     7
370
    15
100
AcDbLine
 10
86.037865
 20
368.811992
 30
0.0
 11
84.949186
 21
370.137316
 31
0.0
  0
LINE
  5
443
330
437
100
AcDbEntity
  8
LC-002-100-D00-0
 62
     7
370
    15
100
AcDbLine
 10
84.949186
 20
370.137316
 30
0.0
 11
83.523323
 21
372.040477
 31
0.0
  0
LINE
  5
444
330
437
100
AcDbEntity
  8
LC-002-100-D00-0
 62
     7
370
    15
100
AcDbLine
 10
83.523323
 20
372.040477
 30
0.0
 11
81.470979
 21
375.006136
 31
0.0
  0
LINE
  5
445
330
437
100
AcDbEntity
  8
LC-002-100-D00-0
 62
     7
370
    15
100
AcDbLine
 10
81.470979
 20
375.006136
 30
0.0
 11
79.100309
 21
378.647466
 31
0.0
  0
LINE
  5
446
330
437
100
AcDbEntity
  8
LC-002-100-D00-0
 62
     7
370
    15
100
AcDbLine
 10
79.100309
 20
378.647466
 30
0.0
 11
78.992119
 21
378.813845
 31
0.0
  0
ENDBLK
  5
439
330
437
100
AcDbEntity
  8
0
100
AcDbBlockEnd
  0
BLOCK
  5
449
330
448
100
AcDbEntity
  8
0
100
AcDbBlockBegin
  2
KLON18
 70
     0
 71
     0
 10
0.0
 20
0.0
 30
0.0
  3
KLON18
  1

  4
KLON18
  0
LINE
  5
44B
330
448
100
AcDbEntity
  8
LC-002-100-D00-0
 62
     7
370
    15
100
AcDbLine
 10
78.992119
 20
378.813845
 30
0.0
 11
78.25051
 21
381.192398
 31
0.0
  0
LINE
  5
44C
330
448
100
AcDbEntity
  8
LC-002-100-D00-0
 62
     7
370
    15
100
AcDbLine
 10
78.25051
 20
381.192398
 30
0.0
 11
77.615773
 21
383.772824
 31
0.0
  0
LINE
  5
44D
330
448
100
AcDbEntity
  8
LC-002-100-D00-0
 62
     7
370
    15
100
AcDbLine
 10
77.615773
 20
383.772824
 30
0.0
 11
77.096564
 21
386.905004
 31
0.0
  0
LINE
  5
44E
330
448
100
AcDbEntity
  8
LC-002-100-D00-0
 62
     7
370
    15
100
AcDbLine
 10
77.096564
 20
386.905004
 30
0.0
 11
76.859725
 21
390.24188
 31
0.0
  0
LINE
  5
44F
330
448
100
AcDbEntity
  8
LC-002-100-D00-0
 62
     7
370
    15
100
AcDbLine
 10
76.859725
 20
390.24188
 30
0.0
 11
76.950645
 21
393.51165
 31
0.0
  0
LINE
  5
450
330
448
100
AcDbEntity
  8
LC-002-100-D00-0
 62
     7
370
    15
100
AcDbLine
 10
76.950645
 20
393.51165
 30
0.0
 11
77.362461
 21
396.803026
 31
0.0
  0
LINE
  5
451
330
448
100
AcDbEntity
  8
LC-002-100-D00-0
 62
     7
370
    15
100
AcDbLine
 10
77.362461
 20
396.803026
 30
0.0
 11
78.006355
 21
399.795812
 31
0.0
  0
LINE
  5
452
330
448
100
AcDbEntity
  8
LC-002-100-D00-0
 62
     7
370
    15
100
AcDbLine
 10
78.006355
 20
399.795812
 30
0.0
 11
78.844985
 21
402.645741
 31
0.0
  0
LINE
  5
453
330
448
100
AcDbEntity
  8
LC-002-100-D00-0
 62
     7
370
    15
100
AcDbLine
 10
78.844985
 20
402.645741
 30
0.0
 11
79.912645
 21
405.556765
 31
0.0
  0
LINE
  5
454
330
448
100
AcDbEntity
  8
LC-002-100-D00-0
 62
     7
370
    15
100
AcDbLine
 10
79.912645
 20
405.556765
 30
0.0
 11
81.036521
 21
408.166871
 31
0.0
  0
LINE
  5
455
330
448
100
AcDbEntity
  8
LC-002-100-D00-0
 62
     7
370
    15
100
AcDbLine
 10
81.036521
 20
408.166871
 30
0.0
 11
82.184938
 21
410.54358
 31
0.0
  0
LINE
  5
456
330
448
100
AcDbEntity
  8
LC-002-100-D00-0
 62
     7
370
    15
100
AcDbLine
 10
82.184938
 20
410.54358
 30
0.0
 11
83.156755
 21
412.397694
 31
0.0
  0
LINE
  5
457
330
448
100
AcDbEntity
  8
LC-002-100-D00-0
 62
     7
370
    15
100
AcDbLine
 10
83.156755
 20
412.397694
 30
0.0
 11
83.698993
 21
413.383965
 31
0.0
  0
LINE
  5
458
330
448
100
AcDbEntity
  8
LC-002-100-D00-0
 62
     7
370
    15
100
AcDbLine
 10
83.698993
 20
413.383965
 30
0.0
 11
83.985692
 21
413.893492
 31
0.0
  0
LINE
  5
459
330
448
100
AcDbEntity
  8
LC-002-100-D00-0
 62
     7
370
    15
100
AcDbLine
 10
83.985692
 20
413.893492
 30
0.0
 11
84.016552
 21
413.94787
 31
0.0
  0
LINE
  5
45A
330
448
100
AcDbEntity
  8
LC-002-100-D00-0
 62
     7
370
    15
100
AcDbLine
 10
84.016552
 20
413.94787
 30
0.0
 11
84.016828
 21
413.948354
 31
0.0
  0
ENDBLK
  5
44A
330
448
100
AcDbEntity
  8
0
100
AcDbBlockEnd
  0
BLOCK
  5
460
330
45F
100
AcDbEntity
  8
0
100
AcDbBlockBegin
  2
KLON19
 70
     0
 71
     0
 10
0.0
 20
0.0
 30
0.0
  3
KLON19
  1

  4
KLON19
  0
LINE
  5
462
330
45F
100
AcDbEntity
  8
LC-002-100-D00-0
 62
     7
370
    15
100
AcDbLine
 10
78.334277
 20
377.448354
 30
0.0
 11
78.341057
 21
377.46263
 31
0.0
  0
LINE
  5
463
330
45F
100
AcDbEntity
  8
LC-002-100-D00-0
 62
     7
370
    15
100
AcDbLine
 10
78.341057
 20
377.46263
 30
0.0
 11
78.992119
 21
378.813845
 31
0.0
  0
ENDBLK
  5
461
330
45F
100
AcDbEntity
  8
0
100
AcDbBlockEnd
  0
BLOCK
  5
57D
330
57C
100
AcDbEntity
  8
0
100
AcDbBlockBegin
  2
KLON20
 70
     0
 71
     0
 10
0.0
 20
0.0
 30
0.0
  3
KLON20
  1

  4
KLON20
  0
LINE
  5
57F
330
57C
100
AcDbEntity
  8
LC-002-100-D00-0
 62
     7
370
    15
100
AcDbLine
 10
395.924514
 20
446.116517
 30
0.0
 11
398.480808
 21
446.209813
 31
0.0
  0
LINE
  5
580
330
57C
100
AcDbEntity
  8
LC-002-100-D00-0
 62
     7
370
    15
100
AcDbLine
 10
398.480808
 20
446.209813
 30
0.0
 11
400.626605
 21
446.288126
 31
0.0
  0
LINE
  5
581
330
57C
100
AcDbEntity
  8
LC-002-100-D00-0
 62
     7
370
    15
100
AcDbLine
 10
400.626605
 20
446.288126
 30
0.0
 11
402.356749
 21
446.35127
 31
0.0
  0
LINE
  5
582
330
57C
100
AcDbEntity
  8
LC-002-100-D00-0
 62
     7
370
    15
100
AcDbLine
 10
402.356749
 20
446.35127
 30
0.0
 11
403.667098
 21
446.399091
 31
0.0
  0
LINE
  5
583
330
57C
100
AcDbEntity
  8
LC-002-100-D00-0
 62
     7
370
    15
100
AcDbLine
 10
403.667098
 20
446.399091
 30
0.0
 11
404.554492
 21
446.431479
 31
0.0
  0
LINE
  5
584
330
57C
100
AcDbEntity
  8
LC-002-100-D00-0
 62
     7
370
    15
100
AcDbLine
 10
404.554492
 20
446.431479
 30
0.0
 11
405.016815
 21
446.448353
 31
0.0
  0
ENDBLK
  5
57E
330
57C
100
AcDbEntity
  8
0
100
AcDbBlockEnd
  0
BLOCK
  5
587
330
586
100
AcDbEntity
  8
0
100
AcDbBlockBegin
  2
KLON21
 70
     0
 71
     0
 10
0.0
 20
0.0
 30
0.0
  3
KLON21
  1

  4
KLON21
  0
LINE
  5
589
330
586
100
AcDbEntity
  8
LC-002-100-D00-0
 62
     7
370
    15
100
AcDbLine
 10
-369.890863
 20
446.116517
 30
0.0
 11
-372.447158
 21
446.209813
 31
0.0
  0
LINE
  5
58A
330
586
100
AcDbEntity
  8
LC-002-100-D00-0
 62
     7
370
    15
100
AcDbLine
 10
-372.447158
 20
446.209813
 30
0.0
 11
-374.592955
 21
446.288126
 31
0.0
  0
LINE
  5
58B
330
586
100
AcDbEntity
  8
LC-002-100-D00-0
 62
     7
370
    15
100
AcDbLine
 10
-374.592955
 20
446.288126
 30
0.0
 11
-376.323099
 21
446.35127
 31
0.0
  0
LINE
  5
58C
330
586
100
AcDbEntity
  8
LC-002-100-D00-0
 62
     7
370
    15
100
AcDbLine
 10
-376.323099
 20
446.35127
 30
0.0
 11
-377.633447
 21
446.399091
 31
0.0
  0
LINE
  5
58D
330
586
100
AcDbEntity
  8
LC-002-100-D00-0
 62
     7
370
    15
100
AcDbLine
 10
-377.633447
 20
446.399091
 30
0.0
 11
-378.520841
 21
446.431479
 31
0.0
  0
LINE
  5
58E
330
586
100
AcDbEntity
  8
LC-002-100-D00-0
 62
     7
370
    15
100
AcDbLine
 10
-378.520841
 20
446.431479
 30
0.0
 11
-378.983164
 21
446.448353
 31
0.0
  0
ENDBLK
  5
588
330
586
100
AcDbEntity
  8
0
100
AcDbBlockEnd
  0
BLOCK
  5
5A8
330
5A7
100
AcDbEntity
  8
0
100
AcDbBlockBegin
  2
KLON22
 70
     0
 71
     0
 10
0.0
 20
0.0
 30
0.0
  3
KLON22
  1

  4
KLON22
  0
LINE
  5
5AA
330
5A7
100
AcDbEntity
  8
LC-002-100-D00-0
 62
     7
370
    15
100
AcDbLine
 10
-33.10279
 20
434.448351
 30
0.0
 11
-33.08926
 21
434.289646
 31
0.0
  0
LINE
  5
5AB
330
5A7
100
AcDbEntity
  8
LC-002-100-D00-0
 62
     7
370
    15
100
AcDbLine
 10
-33.08926
 20
434.289646
 30
0.0
 11
-32.927336
 21
433.705226
 31
0.0
  0
LINE
  5
5AC
330
5A7
100
AcDbEntity
  8
LC-002-100-D00-0
 62
     7
370
    15
100
AcDbLine
 10
-32.927336
 20
433.705226
 30
0.0
 11
-32.67747
 21
433.258921
 31
0.0
  0
LINE
  5
5AD
330
5A7
100
AcDbEntity
  8
LC-002-100-D00-0
 62
     7
370
    15
100
AcDbLine
 10
-32.67747
 20
433.258921
 30
0.0
 11
-32.36617
 21
433.00017
 31
0.0
  0
LINE
  5
5AE
330
5A7
100
AcDbEntity
  8
LC-002-100-D00-0
 62
     7
370
    15
100
AcDbLine
 10
-32.36617
 20
433.00017
 30
0.0
 11
-32.228677
 21
432.956413
 31
0.0
  0
ENDBLK
  5
5A9
330
5A7
100
AcDbEntity
  8
0
100
AcDbBlockEnd
  0
BLOCK
  5
5B1
330
5B0
100
AcDbEntity
  8
0
100
AcDbBlockBegin
  2
KLON23
 70
     0
 71
     0
 10
0.0
 20
0.0
 30
0.0
  3
KLON23
  1

  4
KLON23
  0
LINE
  5
5B3
330
5B0
100
AcDbEntity
  8
LC-002-100-D00-0
 62
     7
370
    15
100
AcDbLine
 10
404.989456
 20
447.948352
 30
0.0
 11
404.988771
 21
447.986333
 31
0.0
  0
LINE
  5
5B4
330
5B0
100
AcDbEntity
  8
LC-002-100-D00-0
 62
     7
370
    15
100
AcDbLine
 10
404.988771
 20
447.986333
 30
0.0
 11
404.986715
 21
448.09912
 31
0.0
  0
LINE
  5
5B5
330
5B0
100
AcDbEntity
  8
LC-002-100-D00-0
 62
     7
370
    15
100
AcDbLine
 10
404.986715
 20
448.09912
 30
0.0
 11
404.983347
 21
448.283289
 31
0.0
  0
LINE
  5
5B6
330
5B0
100
AcDbEntity
  8
LC-002-100-D00-0
 62
     7
370
    15
100
AcDbLine
 10
404.983347
 20
448.283289
 30
0.0
 11
404.978787
 21
448.533241
 31
0.0
  0
LINE
  5
5B7
330
5B0
100
AcDbEntity
  8
LC-002-100-D00-0
 62
     7
370
    15
100
AcDbLine
 10
404.978787
 20
448.533241
 30
0.0
 11
404.973184
 21
448.841384
 31
0.0
  0
LINE
  5
5B8
330
5B0
100
AcDbEntity
  8
LC-002-100-D00-0
 62
     7
370
    15
100
AcDbLine
 10
404.973184
 20
448.841384
 30
0.0
 11
404.966658
 21
449.198353
 31
0.0
  0
LINE
  5
5B9
330
5B0
100
AcDbEntity
  8
LC-002-100-D00-0
 62
     7
370
    15
100
AcDbLine
 10
404.966658
 20
449.198353
 30
0.0
 11
404.959446
 21
449.593302
 31
0.0
  0
LINE
  5
5BA
330
5B0
100
AcDbEntity
  8
LC-002-100-D00-0
 62
     7
370
    15
100
AcDbLine
 10
404.959446
 20
449.593302
 30
0.0
 11
404.951786
 21
450.014232
 31
0.0
  0
LINE
  5
5BB
330
5B0
100
AcDbEntity
  8
LC-002-100-D00-0
 62
     7
370
    15
100
AcDbLine
 10
404.951786
 20
450.014232
 30
0.0
 11
404.943859
 21
450.448353
 31
0.0
  0
ENDBLK
  5
5B2
330
5B0
100
AcDbEntity
  8
0
100
AcDbBlockEnd
  0
BLOCK
  5
5BE
330
5BD
100
AcDbEntity
  8
0
100
AcDbBlockBegin
  2
KLON24
 70
     0
 71
     0
 10
0.0
 20
0.0
 30
0.0
  3
KLON24
  1

  4
KLON24
  0
LINE
  5
5C0
330
5BD
100
AcDbEntity
  8
LC-002-100-D00-0
 62
     7
370
    15
100
AcDbLine
 10
-378.955806
 20
447.948352
 30
0.0
 11
-378.955121
 21
447.986333
 31
0.0
  0
LINE
  5
5C1
330
5BD
100
AcDbEntity
  8
LC-002-100-D00-0
 62
     7
370
    15
100
AcDbLine
 10
-378.955121
 20
447.986333
 30
0.0
 11
-378.953064
 21
448.09912
 31
0.0
  0
LINE
  5
5C2
330
5BD
100
AcDbEntity
  8
LC-002-100-D00-0
 62
     7
370
    15
100
AcDbLine
 10
-378.953064
 20
448.09912
 30
0.0
 11
-378.949696
 21
448.283289
 31
0.0
  0
LINE
  5
5C3
330
5BD
100
AcDbEntity
  8
LC-002-100-D00-0
 62
     7
370
    15
100
AcDbLine
 10
-378.949696
 20
448.283289
 30
0.0
 11
-378.945137
 21
448.533241
 31
0.0
  0
LINE
  5
5C4
330
5BD
100
AcDbEntity
  8
LC-002-100-D00-0
 62
     7
370
    15
100
AcDbLine
 10
-378.945137
 20
448.533241
 30
0.0
 11
-378.939534
 21
448.841384
 31
0.0
  0
LINE
  5
5C5
330
5BD
100
AcDbEntity
  8
LC-002-100-D00-0
 62
     7
370
    15
100
AcDbLine
 10
-378.939534
 20
448.841384
 30
0.0
 11
-378.933007
 21
449.198353
 31
0.0
  0
LINE
  5
5C6
330
5BD
100
AcDbEntity
  8
LC-002-100-D00-0
 62
     7
370
    15
100
AcDbLine
 10
-378.933007
 20
449.198353
 30
0.0
 11
-378.925795
 21
449.593302
 31
0.0
  0
LINE
  5
5C7
330
5BD
100
AcDbEntity
  8
LC-002-100-D00-0
 62
     7
370
    15
100
AcDbLine
 10
-378.925795
 20
449.593302
 30
0.0
 11
-378.918136
 21
450.014232
 31
0.0
  0
LINE
  5
5C8
330
5BD
100
AcDbEntity
  8
LC-002-100-D00-0
 62
     7
370
    15
100
AcDbLine
 10
-378.918136
 20
450.014232
 30
0.0
 11
-378.910208
 21
450.448353
 31
0.0
  0
ENDBLK
  5
5BF
330
5BD
100
AcDbEntity
  8
0
100
AcDbBlockEnd
  0
BLOCK
  5
5E7
330
5DB
100
AcDbEntity
  8
0
100
AcDbBlockBegin
  2
*D29
 70
     1
 71
     0
 10
0.0
 20
0.0
 30
0.0
  3
*D29
  1

  0
LINE
  5
5DC
330
5DB
100
AcDbEntity
  8
LC-002-100-D00-0
 62
     2
370
    -2
100
AcDbLine
 10
-436.983175
 20
468.448353
 30
0.0
 11
-498.187781
 21
468.448353
 31
0.0
  0
LINE
  5
5DD
330
5DB
100
AcDbEntity
  8
LC-002-100-D00-0
 62
     2
370
    -2
100
AcDbLine
 10
-431.983175
 20
514.448353
 30
0.0
 11
-498.187781
 21
514.448353
 31
0.0
  0
LINE
  5
5DE
330
5DB
100
AcDbEntity
  8
LC-002-100-D00-0
 62
     2
370
    -2
100
AcDbLine
 10
-489.187781
 20
418.448353
 30
0.0
 11
-489.187781
 21
368.448353
 31
0.0
  0
LINE
  5
5DF
330
5DB
100
AcDbEntity
  8
LC-002-100-D00-0
 62
     2
370
    -2
100
AcDbLine
 10
-489.187781
 20
564.448353
 30
0.0
 11
-489.187781
 21
614.448353
 31
0.0
  0
LINE
  5
5E0
330
5DB
100
AcDbEntity
  8
LC-002-100-D00-0
 62
     2
370
    -2
100
AcDbLine
 10
-489.187781
 20
468.448353
 30
0.0
 11
-489.187781
 21
514.448353
 31
0.0
  0
SOLID
  5
5E1
330
5DB
100
AcDbEntity
  8
LC-002-100-D00-0
 62
     2
100
AcDbTrace
 10
-480.854448
 20
418.448353
 30
0.0
 11
-497.521115
 21
418.448353
 31
0.0
 12
-489.187781
 22
468.448353
 32
0.0
 13
-489.187781
 23
468.448353
 33
0.0
  0
SOLID
  5
5E2
330
5DB
100
AcDbEntity
  8
LC-002-100-D00-0
 62
     2
100
AcDbTrace
 10
-497.521115
 20
564.448353
 30
0.0
 11
-480.854448
 21
564.448353
 31
0.0
 12
-489.187781
 22
514.448353
 32
0.0
 13
-489.187781
 23
514.448353
 33
0.0
  0
MTEXT
  5
5E3
330
5DB
100
AcDbEntity
  8
LC-002-100-D00-0
 62
     2
100
AcDbMText
 10
-544.187781
 20
496.001113
 30
0.0
 40
50.0
 41
0.0
 71
     5
 72
     1
  1
\A1;46
  7
LCTX15-400-0-0pDIN-Schrift
 11
6.123031769111886E-17
 21
1.0
 31
0.0
 73
     1
 44
1.0
  0
POINT
  5
5E4
330
5DB
100
AcDbEntity
  8
Defpoints
 62
     0
100
AcDbPoint
 10
-436.983175
 20
468.448353
 30
0.0
  0
POINT
  5
5E5
330
5DB
100
AcDbEntity
  8
Defpoints
 62
     0
100
AcDbPoint
 10
-431.983175
 20
514.448353
 30
0.0
  0
POINT
  5
5E6
330
5DB
100
AcDbEntity
  8
Defpoints
 62
     0
100
AcDbPoint
 10
-489.187781
 20
514.448353
 30
0.0
  0
ENDBLK
  5
5E8
330
5DB
100
AcDbEntity
  8
0
100
AcDbBlockEnd
  0
BLOCK
  5
5F4
330
5EA
100
AcDbEntity
  8
0
100
AcDbBlockBegin
  2
*D30
 70
     1
 71
     0
 10
0.0
 20
0.0
 30
0.0
  3
*D30
  1

  0
LINE
  5
5EB
330
5EA
100
AcDbEntity
  8
LC-002-100-D00-0
 62
     2
370
    -2
100
AcDbLine
 10
-436.983175
 20
509.448353
 30
0.0
 11
-436.983175
 21
622.197005
 31
0.0
  0
LINE
  5
5EC
330
5EA
100
AcDbEntity
  8
LC-002-100-D00-0
 62
     2
370
    -2
100
AcDbLine
 10
463.016825
 20
509.448353
 30
0.0
 11
463.016825
 21
622.197005
 31
0.0
  0
LINE
  5
5ED
330
5EA
100
AcDbEntity
  8
LC-002-100-D00-0
 62
     2
370
    -2
100
AcDbLine
 10
-386.983175
 20
613.197005
 30
0.0
 11
413.016825
 21
613.197005
 31
0.0
  0
SOLID
  5
5EE
330
5EA
100
AcDbEntity
  8
LC-002-100-D00-0
 62
     2
100
AcDbTrace
 10
-386.983175
 20
621.530338
 30
0.0
 11
-386.983175
 21
604.863672
 31
0.0
 12
-436.983175
 22
613.197005
 32
0.0
 13
-436.983175
 23
613.197005
 33
0.0
  0
SOLID
  5
5EF
330
5EA
100
AcDbEntity
  8
LC-002-100-D00-0
 62
     2
100
AcDbTrace
 10
413.016825
 20
604.863672
 30
0.0
 11
413.016825
 21
621.530338
 31
0.0
 12
463.016825
 22
613.197005
 32
0.0
 13
463.016825
 23
613.197005
 33
0.0
  0
MTEXT
  5
5F0
330
5EA
100
AcDbEntity
  8
LC-002-100-D00-0
 62
     2
100
AcDbMText
 10
0.920768
 20
668.197005
 30
0.0
 40
50.0
 41
0.0
 71
     5
 72
     1
  1
\A1;900
  7
LCTX15-400-0-0pDIN-Schrift
 73
     1
 44
1.0
  0
POINT
  5
5F1
330
5EA
100
AcDbEntity
  8
Defpoints
 62
     0
100
AcDbPoint
 10
-436.983175
 20
509.448353
 30
0.0
  0
POINT
  5
5F2
330
5EA
100
AcDbEntity
  8
Defpoints
 62
     0
100
AcDbPoint
 10
463.016825
 20
509.448353
 30
0.0
  0
POINT
  5
5F3
330
5EA
100
AcDbEntity
  8
Defpoints
 62
     0
100
AcDbPoint
 10
463.016825
 20
613.197005
 30
0.0
  0
ENDBLK
  5
5F5
330
5EA
100
AcDbEntity
  8
0
100
AcDbBlockEnd
  0
BLOCK
  5
601
330
5F7
100
AcDbEntity
  8
0
100
AcDbBlockBegin
  2
*D31
 70
     1
 71
     0
 10
0.0
 20
0.0
 30
0.0
  3
*D31
  1

  0
LINE
  5
5F8
330
5F7
100
AcDbEntity
  8
LC-002-100-D00-0
 62
     2
370
    -2
100
AcDbLine
 10
-386.983175
 20
465.448353
 30
0.0
 11
-386.983175
 21
549.34972
 31
0.0
  0
LINE
  5
5F9
330
5F7
100
AcDbEntity
  8
LC-002-100-D00-0
 62
     2
370
    -2
100
AcDbLine
 10
413.016825
 20
465.448353
 30
0.0
 11
413.016825
 21
549.34972
 31
0.0
  0
LINE
  5
5FA
330
5F7
100
AcDbEntity
  8
LC-002-100-D00-0
 62
     2
370
    -2
100
AcDbLine
 10
-336.983175
 20
540.34972
 30
0.0
 11
363.016825
 21
540.34972
 31
0.0
  0
SOLID
  5
5FB
330
5F7
100
AcDbEntity
  8
LC-002-100-D00-0
 62
     2
100
AcDbTrace
 10
-336.983175
 20
548.683053
 30
0.0
 11
-336.983175
 21
532.016387
 31
0.0
 12
-386.983175
 22
540.34972
 32
0.0
 13
-386.983175
 23
540.34972
 33
0.0
  0
SOLID
  5
5FC
330
5F7
100
AcDbEntity
  8
LC-002-100-D00-0
 62
     2
100
AcDbTrace
 10
363.016825
 20
532.016387
 30
0.0
 11
363.016825
 21
548.683053
 31
0.0
 12
413.016825
 22
540.34972
 32
0.0
 13
413.016825
 23
540.34972
 33
0.0
  0
MTEXT
  5
5FD
330
5F7
100
AcDbEntity
  8
LC-002-100-D00-0
 62
     2
100
AcDbMText
 10
3.384022
 20
595.34972
 30
0.0
 40
50.0
 41
0.0
 71
     5
 72
     1
  1
\A1;800
  7
LCTX15-400-0-0pDIN-Schrift
 73
     1
 44
1.0
  0
POINT
  5
5FE
330
5F7
100
AcDbEntity
  8
Defpoints
 62
     0
100
AcDbPoint
 10
-386.983175
 20
465.448353
 30
0.0
  0
POINT
  5
5FF
330
5F7
100
AcDbEntity
  8
Defpoints
 62
     0
100
AcDbPoint
 10
413.016825
 20
465.448353
 30
0.0
  0
POINT
  5
600
330
5F7
100
AcDbEntity
  8
Defpoints
 62
     0
100
AcDbPoint
 10
413.016825
 20
540.34972
 30
0.0
  0
ENDBLK
  5
602
330
5F7
100
AcDbEntity
  8
0
100
AcDbBlockEnd
  0
BLOCK
  5
60F
330
604
100
AcDbEntity
  8
0
100
AcDbBlockBegin
  2
*D32
 70
     1
 71
     0
 10
0.0
 20
0.0
 30
0.0
  3
*D32
  1

  0
LINE
  5
605
330
604
100
AcDbEntity
  8
LC-002-100-D00-0
 62
     2
370
    -2
100
AcDbLine
 10
-15.983175
 20
376.548353
 30
0.0
 11
-162.850353
 21
376.548353
 31
0.0
  0
LINE
  5
606
330
604
100
AcDbEntity
  8
LC-002-100-D00-0
 62
     2
370
    -2
100
AcDbLine
 10
-22.06257
 20
426.948353
 30
0.0
 11
-162.850353
 21
426.948353
 31
0.0
  0
LINE
  5
607
330
604
100
AcDbEntity
  8
LC-002-100-D00-0
 62
     2
370
    -2
100
AcDbLine
 10
-153.850353
 20
476.948353
 30
0.0
 11
-153.850353
 21
526.948353
 31
0.0
  0
LINE
  5
608
330
604
100
AcDbEntity
  8
LC-002-100-D00-0
 62
     2
370
    -2
100
AcDbLine
 10
-153.850353
 20
326.548353
 30
0.0
 11
-153.850353
 21
278.606601
 31
0.0
  0
SOLID
  5
609
330
604
100
AcDbEntity
  8
LC-002-100-D00-0
 62
     2
100
AcDbTrace
 10
-145.517019
 20
326.548353
 30
0.0
 11
-162.183686
 21
326.548353
 31
0.0
 12
-153.850353
 22
376.548353
 32
0.0
 13
-153.850353
 23
376.548353
 33
0.0
  0
SOLID
  5
60A
330
604
100
AcDbEntity
  8
LC-002-100-D00-0
 62
     2
100
AcDbTrace
 10
-162.183686
 20
476.948353
 30
0.0
 11
-145.517019
 21
476.948353
 31
0.0
 12
-153.850353
 22
426.948353
 32
0.0
 13
-153.850353
 23
426.948353
 33
0.0
  0
MTEXT
  5
60B
330
604
100
AcDbEntity
  8
LC-002-100-D00-0
 62
     2
100
AcDbMText
 10
-208.850353
 20
321.682005
 30
0.0
 40
50.0
 41
0.0
 71
     5
 72
     1
  1
\A1;50
  7
LCTX15-400-0-0pDIN-Schrift
 11
6.123031769111886E-17
 21
1.0
 31
0.0
 73
     1
 44
1.0
  0
POINT
  5
60C
330
604
100
AcDbEntity
  8
Defpoints
 62
     0
100
AcDbPoint
 10
-15.983175
 20
376.548353
 30
0.0
  0
POINT
  5
60D
330
604
100
AcDbEntity
  8
Defpoints
 62
     0
100
AcDbPoint
 10
-22.06257
 20
426.948353
 30
0.0
  0
POINT
  5
60E
330
604
100
AcDbEntity
  8
Defpoints
 62
     0
100
AcDbPoint
 10
-153.850353
 20
426.948353
 30
0.0
  0
ENDBLK
  5
610
330
604
100
AcDbEntity
  8
0
100
AcDbBlockEnd
  0
BLOCK
  5
61C
330
612
100
AcDbEntity
  8
0
100
AcDbBlockBegin
  2
*D33
 70
     1
 71
     0
 10
0.0
 20
0.0
 30
0.0
  3
*D33
  1

  0
LINE
  5
613
330
612
100
AcDbEntity
  8
LC-002-100-D00-0
 62
     2
370
    -2
100
AcDbLine
 10
-60.983175
 20
377.448353
 30
0.0
 11
-60.983175
 21
262.192005
 31
0.0
  0
LINE
  5
614
330
612
100
AcDbEntity
  8
LC-002-100-D00-0
 62
     2
370
    -2
100
AcDbLine
 10
87.016825
 20
417.698353
 30
0.0
 11
87.016825
 21
262.192005
 31
0.0
  0
LINE
  5
615
330
612
100
AcDbEntity
  8
LC-002-100-D00-0
 62
     2
370
    -2
100
AcDbLine
 10
-10.983175
 20
271.192005
 30
0.0
 11
37.016825
 21
271.192005
 31
0.0
  0
SOLID
  5
616
330
612
100
AcDbEntity
  8
LC-002-100-D00-0
 62
     2
100
AcDbTrace
 10
-10.983175
 20
279.525338
 30
0.0
 11
-10.983175
 21
262.858672
 31
0.0
 12
-60.983175
 22
271.192005
 32
0.0
 13
-60.983175
 23
271.192005
 33
0.0
  0
SOLID
  5
617
330
612
100
AcDbEntity
  8
LC-002-100-D00-0
 62
     2
100
AcDbTrace
 10
37.016825
 20
262.858672
 30
0.0
 11
37.016825
 21
279.525338
 31
0.0
 12
87.016825
 22
271.192005
 32
0.0
 13
87.016825
 23
271.192005
 33
0.0
  0
MTEXT
  5
618
330
612
100
AcDbEntity
  8
LC-002-100-D00-0
 62
     2
100
AcDbMText
 10
6.079806
 20
326.192005
 30
0.0
 40
50.0
 41
0.0
 71
     5
 72
     1
  1
\A1;148
  7
LCTX15-400-0-0pDIN-Schrift
 73
     1
 44
1.0
  0
POINT
  5
619
330
612
100
AcDbEntity
  8
Defpoints
 62
     0
100
AcDbPoint
 10
-60.983175
 20
377.448353
 30
0.0
  0
POINT
  5
61A
330
612
100
AcDbEntity
  8
Defpoints
 62
     0
100
AcDbPoint
 10
87.016825
 20
417.698353
 30
0.0
  0
POINT
  5
61B
330
612
100
AcDbEntity
  8
Defpoints
 62
     0
100
AcDbPoint
 10
87.016825
 20
271.192005
 30
0.0
  0
ENDBLK
  5
61D
330
612
100
AcDbEntity
  8
0
100
AcDbBlockEnd
  0
BLOCK
  5
62A
330
61F
100
AcDbEntity
  8
0
100
AcDbBlockBegin
  2
*D34
 70
     1
 71
     0
 10
0.0
 20
0.0
 30
0.0
  3
*D34
  1

  0
LINE
  5
620
330
61F
100
AcDbEntity
  8
LC-002-100-D00-0
 62
     2
370
    -2
100
AcDbLine
 10
463.016825
 20
468.448353
 30
0.0
 11
574.83536
 21
468.448353
 31
0.0
  0
LINE
  5
621
330
61F
100
AcDbEntity
  8
LC-002-100-D00-0
 62
     2
370
    -2
100
AcDbLine
 10
229.016622
 20
390.948353
 30
0.0
 11
574.83536
 21
390.948353
 31
0.0
  0
LINE
  5
622
330
61F
100
AcDbEntity
  8
LC-002-100-D00-0
 62
     2
370
    -2
100
AcDbLine
 10
565.83536
 20
518.448353
 30
0.0
 11
565.83536
 21
568.448353
 31
0.0
  0
LINE
  5
623
330
61F
100
AcDbEntity
  8
LC-002-100-D00-0
 62
     2
370
    -2
100
AcDbLine
 10
565.83536
 20
340.948353
 30
0.0
 11
565.83536
 21
319.07018
 31
0.0
  0
SOLID
  5
624
330
61F
100
AcDbEntity
  8
LC-002-100-D00-0
 62
     2
100
AcDbTrace
 10
557.502026
 20
518.448353
 30
0.0
 11
574.168693
 21
518.448353
 31
0.0
 12
565.83536
 22
468.448353
 32
0.0
 13
565.83536
 23
468.448353
 33
0.0
  0
SOLID
  5
625
330
61F
100
AcDbEntity
  8
LC-002-100-D00-0
 62
     2
100
AcDbTrace
 10
574.168693
 20
340.948353
 30
0.0
 11
557.502026
 21
340.948353
 31
0.0
 12
565.83536
 22
390.948353
 32
0.0
 13
565.83536
 23
390.948353
 33
0.0
  0
MTEXT
  5
626
330
61F
100
AcDbEntity
  8
LC-002-100-D00-0
 62
     2
100
AcDbMText
 10
510.83536
 20
388.507005
 30
0.0
 40
50.0
 41
0.0
 71
     5
 72
     1
  1
\A1;77.5
  7
LCTX15-400-0-0pDIN-Schrift
 11
6.123031769111886E-17
 21
1.0
 31
0.0
 73
     1
 44
1.0
  0
POINT
  5
627
330
61F
100
AcDbEntity
  8
Defpoints
 62
     0
100
AcDbPoint
 10
463.016825
 20
468.448353
 30
0.0
  0
POINT
  5
628
330
61F
100
AcDbEntity
  8
Defpoints
 62
     0
100
AcDbPoint
 10
229.016622
 20
390.948353
 30
0.0
  0
POINT
  5
629
330
61F
100
AcDbEntity
  8
Defpoints
 62
     0
100
AcDbPoint
 10
565.83536
 20
390.948353
 30
0.0
  0
ENDBLK
  5
62B
330
61F
100
AcDbEntity
  8
0
100
AcDbBlockEnd
  0
BLOCK
  5
639
330
62D
100
AcDbEntity
  8
0
100
AcDbBlockBegin
  2
*D35
 70
     1
 71
     0
 10
0.0
 20
0.0
 30
0.0
  3
*D35
  1

  0
LINE
  5
62E
330
62D
100
AcDbEntity
  8
LC-002-100-D00-0
 62
     2
370
    -2
100
AcDbLine
 10
463.016825
 20
468.448353
 30
0.0
 11
670.277551
 21
468.448353
 31
0.0
  0
LINE
  5
62F
330
62D
100
AcDbEntity
  8
LC-002-100-D00-0
 62
     2
370
    -2
100
AcDbLine
 10
67.034705
 20
358.448353
 30
0.0
 11
670.277551
 21
358.448353
 31
0.0
  0
LINE
  5
630
330
62D
100
AcDbEntity
  8
LC-002-100-D00-0
 62
     2
370
    -2
100
AcDbLine
 10
661.277551
 20
518.448353
 30
0.0
 11
661.277551
 21
568.448353
 31
0.0
  0
LINE
  5
631
330
62D
100
AcDbEntity
  8
LC-002-100-D00-0
 62
     2
370
    -2
100
AcDbLine
 10
661.277551
 20
308.448353
 30
0.0
 11
661.277551
 21
258.448353
 31
0.0
  0
LINE
  5
632
330
62D
100
AcDbEntity
  8
LC-002-100-D00-0
 62
     2
370
    -2
100
AcDbLine
 10
661.277551
 20
468.448353
 30
0.0
 11
661.277551
 21
358.448353
 31
0.0
  0
SOLID
  5
633
330
62D
100
AcDbEntity
  8
LC-002-100-D00-0
 62
     2
100
AcDbTrace
 10
652.944218
 20
518.448353
 30
0.0
 11
669.610884
 21
518.448353
 31
0.0
 12
661.277551
 22
468.448353
 32
0.0
 13
661.277551
 23
468.448353
 33
0.0
  0
SOLID
  5
634
330
62D
100
AcDbEntity
  8
LC-002-100-D00-0
 62
     2
100
AcDbTrace
 10
669.610884
 20
308.448353
 30
0.0
 11
652.944218
 21
308.448353
 31
0.0
 12
661.277551
 22
358.448353
 32
0.0
 13
661.277551
 23
358.448353
 33
0.0
  0
MTEXT
  5
635
330
62D
100
AcDbEntity
  8
LC-002-100-D00-0
 62
     2
100
AcDbMText
 10
606.277551
 20
379.597005
 30
0.0
 40
50.0
 41
0.0
 71
     5
 72
     1
  1
\A1;110
  7
LCTX15-400-0-0pDIN-Schrift
 11
6.123031769111886E-17
 21
1.0
 31
0.0
 73
     1
 44
1.0
  0
POINT
  5
636
330
62D
100
AcDbEntity
  8
Defpoints
 62
     0
100
AcDbPoint
 10
463.016825
 20
468.448353
 30
0.0
  0
POINT
  5
637
330
62D
100
AcDbEntity
  8
Defpoints
 62
     0
100
AcDbPoint
 10
67.034705
 20
358.448353
 30
0.0
  0
POINT
  5
638
330
62D
100
AcDbEntity
  8
Defpoints
 62
     0
100
AcDbPoint
 10
661.277551
 20
358.448353
 30
0.0
  0
ENDBLK
  5
63A
330
62D
100
AcDbEntity
  8
0
100
AcDbBlockEnd
  0
BLOCK
  5
63C
330
63B
100
AcDbEntity
  8
0
100
AcDbBlockBegin
  2
KLON25
 70
     0
 71
     0
 10
0.0
 20
0.0
 30
0.0
  3
KLON25
  1

  4
KLON25
  0
LINE
  5
63E
330
63B
100
AcDbEntity
  8
LC-002-100-D00-0
 62
     7
370
    25
100
AcDbLine
 10
40.516825
 20
388.32775
 30
0.0
 11
42.016825
 21
389.82775
 31
0.0
  0
LINE
  5
63F
330
63B
100
AcDbEntity
  8
LC-002-100-D00-0
 62
     7
370
    25
100
AcDbLine
 10
40.516825
 20
410.778391
 30
0.0
 11
42.016825
 21
412.278391
 31
0.0
  0
LINE
  5
640
330
63B
100
AcDbEntity
  8
LC-002-100-D00-0
 62
     7
370
    25
100
AcDbLine
 10
66.186785
 20
436.448353
 30
0.0
 11
67.186785
 21
437.448353
 31
0.0
  0
LINE
  5
641
330
63B
100
AcDbEntity
  8
LC-002-100-D00-0
 62
     7
370
    25
100
AcDbLine
 10
40.516825
 20
433.229032
 30
0.0
 11
49.736145
 21
442.448353
 31
0.0
  0
ENDBLK
  5
63D
330
63B
100
AcDbEntity
  8
0
100
AcDbBlockEnd
  0
BLOCK
  5
644
330
643
100
AcDbEntity
  8
0
100
AcDbBlockBegin
  2
KLON26
 70
     0
 71
     0
 10
0.0
 20
0.0
 30
0.0
  3
KLON26
  1

  4
KLON26
  0
LINE
  5
646
330
643
100
AcDbEntity
  8
LC-002-100-D00-0
 62
     7
370
    25
100
AcDbLine
 10
-15.983175
 20
376.729028
 30
0.0
 11
-14.483175
 21
378.229028
 31
0.0
  0
LINE
  5
647
330
643
100
AcDbEntity
  8
LC-002-100-D00-0
 62
     7
370
    25
100
AcDbLine
 10
-15.983175
 20
399.179669
 30
0.0
 11
-14.483175
 21
400.679669
 31
0.0
  0
LINE
  5
648
330
643
100
AcDbEntity
  8
LC-002-100-D00-0
 62
     7
370
    25
100
AcDbLine
 10
-15.983175
 20
421.63031
 30
0.0
 11
-14.483175
 21
423.13031
 31
0.0
  0
LINE
  5
649
330
643
100
AcDbEntity
  8
LC-002-100-D00-0
 62
     7
370
    25
100
AcDbLine
 10
-23.846671
 20
436.217454
 30
0.0
 11
-17.615773
 21
442.448353
 31
0.0
  0
LINE
  5
64A
330
643
100
AcDbEntity
  8
LC-002-100-D00-0
 62
     7
370
    25
100
AcDbLine
 10
-41.483175
 20
441.03159
 30
0.0
 11
-40.066413
 21
442.448353
 31
0.0
  0
ENDBLK
  5
645
330
643
100
AcDbEntity
  8
0
100
AcDbBlockEnd
  0
BLOCK
  5
64D
330
64C
100
AcDbEntity
  8
0
100
AcDbBlockBegin
  2
KLON27
 70
     0
 71
     0
 10
0.0
 20
0.0
 30
0.0
  3
KLON27
  1

  4
KLON27
  0
LINE
  5
64F
330
64C
100
AcDbEntity
  8
LC-002-100-D00-0
 62
     7
370
    25
100
AcDbLine
 10
35.58807
 20
360.948353
 30
0.0
 11
37.08807
 21
362.448353
 31
0.0
  0
LINE
  5
650
330
64C
100
AcDbEntity
  8
LC-002-100-D00-0
 62
     7
370
    25
100
AcDbLine
 10
52.516825
 20
377.877109
 30
0.0
 11
54.016825
 21
379.377109
 31
0.0
  0
LINE
  5
651
330
64C
100
AcDbEntity
  8
LC-002-100-D00-0
 62
     7
370
    25
100
AcDbLine
 10
13.13743
 20
360.948353
 30
0.0
 11
14.63743
 21
362.448353
 31
0.0
  0
LINE
  5
652
330
64C
100
AcDbEntity
  8
LC-002-100-D00-0
 62
     7
370
    25
100
AcDbLine
 10
52.516825
 20
400.327751
 30
0.0
 11
54.016825
 21
401.827751
 31
0.0
  0
LINE
  5
653
330
64C
100
AcDbEntity
  8
LC-002-100-D00-0
 62
     7
370
    25
100
AcDbLine
 10
-9.313209
 20
360.948353
 30
0.0
 11
-7.813209
 21
362.448353
 31
0.0
  0
LINE
  5
654
330
64C
100
AcDbEntity
  8
LC-002-100-D00-0
 62
     7
370
    25
100
AcDbLine
 10
52.516825
 20
422.778392
 30
0.0
 11
54.016825
 21
424.278392
 31
0.0
  0
LINE
  5
655
330
64C
100
AcDbEntity
  8
LC-002-100-D00-0
 62
     7
370
    25
100
AcDbLine
 10
64.063024
 20
434.324592
 30
0.0
 11
66.186785
 21
436.448353
 31
0.0
  0
LINE
  5
656
330
64C
100
AcDbEntity
  8
LC-002-100-D00-0
 62
     7
370
    25
100
AcDbLine
 10
-27.861258
 20
364.850944
 30
0.0
 11
-26.483175
 21
366.229027
 31
0.0
  0
LINE
  5
657
330
64C
100
AcDbEntity
  8
LC-002-100-D00-0
 62
     7
370
    25
100
AcDbLine
 10
-27.983175
 20
387.179668
 30
0.0
 11
-26.483175
 21
388.679668
 31
0.0
  0
LINE
  5
658
330
64C
100
AcDbEntity
  8
LC-002-100-D00-0
 62
     7
370
    25
100
AcDbLine
 10
-27.983175
 20
409.630309
 30
0.0
 11
-26.483175
 21
411.130309
 31
0.0
  0
LINE
  5
659
330
64C
100
AcDbEntity
  8
LC-002-100-D00-0
 62
     7
370
    25
100
AcDbLine
 10
-30.940943
 20
429.123182
 30
0.0
 11
-29.51037
 21
430.553755
 31
0.0
  0
ENDBLK
  5
64E
330
64C
100
AcDbEntity
  8
0
100
AcDbBlockEnd
  0
BLOCK
  5
65F
330
65E
100
AcDbEntity
  8
0
100
AcDbBlockBegin
  2
KLON28
 70
     0
 71
     0
 10
0.0
 20
0.0
 30
0.0
  3
KLON28
  1

  4
KLON28
  0
LINE
  5
661
330
65E
100
AcDbEntity
  8
LC-002-100-D00-0
 62
     7
370
    25
100
AcDbLine
 10
128.583954
 20
364.14168
 30
0.0
 11
131.021957
 21
366.579683
 31
0.0
  0
LINE
  5
662
330
65E
100
AcDbEntity
  8
LC-002-100-D00-0
 62
     7
370
    25
100
AcDbLine
 10
105.268115
 20
363.27648
 30
0.0
 11
109.939988
 21
367.948353
 31
0.0
  0
LINE
  5
663
330
65E
100
AcDbEntity
  8
LC-002-100-D00-0
 62
     7
370
    25
100
AcDbLine
 10
84.489348
 20
364.948353
 30
0.0
 11
87.489348
 21
367.948353
 31
0.0
  0
LINE
  5
664
330
65E
100
AcDbEntity
  8
LC-002-100-D00-0
 62
     7
370
    25
100
AcDbLine
 10
55.538709
 20
358.448353
 30
0.0
 11
58.538709
 21
361.448353
 31
0.0
  0
LINE
  5
665
330
65E
100
AcDbEntity
  8
LC-002-100-D00-0
 62
     7
370
    25
100
AcDbLine
 10
33.08807
 20
358.448353
 30
0.0
 11
36.08807
 21
361.448353
 31
0.0
  0
LINE
  5
666
330
65E
100
AcDbEntity
  8
LC-002-100-D00-0
 62
     7
370
    25
100
AcDbLine
 10
10.63743
 20
358.448353
 30
0.0
 11
13.63743
 21
361.448353
 31
0.0
  0
LINE
  5
667
330
65E
100
AcDbEntity
  8
LC-002-100-D00-0
 62
     7
370
    25
100
AcDbLine
 10
-11.813209
 20
358.448353
 30
0.0
 11
-8.813209
 21
361.448353
 31
0.0
  0
LINE
  5
668
330
65E
100
AcDbEntity
  8
LC-002-100-D00-0
 62
     7
370
    25
100
AcDbLine
 10
-34.263849
 20
358.448353
 30
0.0
 11
-31.263849
 21
361.448353
 31
0.0
  0
LINE
  5
669
330
65E
100
AcDbEntity
  8
LC-002-100-D00-0
 62
     7
370
    25
100
AcDbLine
 10
-50.108386
 20
365.054455
 30
0.0
 11
-47.214489
 21
367.948353
 31
0.0
  0
LINE
  5
66A
330
65E
100
AcDbEntity
  8
LC-002-100-D00-0
 62
     7
370
    25
100
AcDbLine
 10
-60.958003
 20
376.655478
 30
0.0
 11
-57.983175
 21
379.630307
 31
0.0
  0
LINE
  5
66B
330
65E
100
AcDbEntity
  8
LC-002-100-D00-0
 62
     7
370
    25
100
AcDbLine
 10
-60.983175
 20
399.080948
 30
0.0
 11
-57.983175
 21
402.080948
 31
0.0
  0
ENDBLK
  5
660
330
65E
100
AcDbEntity
  8
0
100
AcDbBlockEnd
  0
BLOCK
  5
66E
330
66D
100
AcDbEntity
  8
0
100
AcDbBlockBegin
  2
KLON29
 70
     0
 71
     0
 10
0.0
 20
0.0
 30
0.0
  3
KLON29
  1

  4
KLON29
  0
LINE
  5
670
330
66D
100
AcDbEntity
  8
LC-002-100-D00-0
 62
     7
370
    25
100
AcDbLine
 10
111.038705
 20
413.948353
 30
0.0
 11
117.638292
 21
420.54794
 31
0.0
  0
LINE
  5
671
330
66D
100
AcDbEntity
  8
LC-002-100-D00-0
 62
     7
370
    25
100
AcDbLine
 10
88.588066
 20
413.948353
 30
0.0
 11
91.588066
 21
416.948353
 31
0.0
  0
ENDBLK
  5
66F
330
66D
100
AcDbEntity
  8
0
100
AcDbBlockEnd
  0
BLOCK
  5
674
330
673
100
AcDbEntity
  8
0
100
AcDbBlockBegin
  2
KLON30
 70
     0
 71
     0
 10
0.0
 20
0.0
 30
0.0
  3
KLON30
  1

  4
KLON30
  0
LINE
  5
676
330
673
100
AcDbEntity
  8
LC-002-100-D00-0
 62
     7
370
    25
100
AcDbLine
 10
455.897015
 20
466.948353
 30
0.0
 11
457.397015
 21
468.448353
 31
0.0
  0
LINE
  5
677
330
673
100
AcDbEntity
  8
LC-002-100-D00-0
 62
     7
370
    25
100
AcDbLine
 10
433.446375
 20
466.948353
 30
0.0
 11
434.946375
 21
468.448353
 31
0.0
  0
LINE
  5
678
330
673
100
AcDbEntity
  8
LC-002-100-D00-0
 62
     7
370
    25
100
AcDbLine
 10
390.495737
 20
446.448353
 30
0.0
 11
391.995737
 21
447.948353
 31
0.0
  0
LINE
  5
679
330
673
100
AcDbEntity
  8
LC-002-100-D00-0
 62
     7
370
    25
100
AcDbLine
 10
368.045098
 20
446.448353
 30
0.0
 11
369.545098
 21
447.948353
 31
0.0
  0
LINE
  5
67A
330
673
100
AcDbEntity
  8
LC-002-100-D00-0
 62
     7
370
    25
100
AcDbLine
 10
379.016825
 20
457.420081
 30
0.0
 11
387.016825
 21
465.420081
 31
0.0
  0
LINE
  5
67B
330
673
100
AcDbEntity
  8
LC-002-100-D00-0
 62
     7
370
    25
100
AcDbLine
 10
345.594458
 20
446.448353
 30
0.0
 11
347.094458
 21
447.948353
 31
0.0
  0
LINE
  5
67C
330
673
100
AcDbEntity
  8
LC-002-100-D00-0
 62
     7
370
    25
100
AcDbLine
 10
323.143819
 20
446.448353
 30
0.0
 11
324.643819
 21
447.948353
 31
0.0
  0
LINE
  5
67D
330
673
100
AcDbEntity
  8
LC-002-100-D00-0
 62
     7
370
    25
100
AcDbLine
 10
300.693179
 20
446.448353
 30
0.0
 11
302.193179
 21
447.948353
 31
0.0
  0
LINE
  5
67E
330
673
100
AcDbEntity
  8
LC-002-100-D00-0
 62
     7
370
    25
100
AcDbLine
 10
278.24254
 20
446.448353
 30
0.0
 11
279.74254
 21
447.948353
 31
0.0
  0
LINE
  5
67F
330
673
100
AcDbEntity
  8
LC-002-100-D00-0
 62
     7
370
    25
100
AcDbLine
 10
255.7919
 20
446.448353
 30
0.0
 11
257.2919
 21
447.948353
 31
0.0
  0
LINE
  5
680
330
673
100
AcDbEntity
  8
LC-002-100-D00-0
 62
     7
370
    25
100
AcDbLine
 10
233.341261
 20
446.448353
 30
0.0
 11
234.841261
 21
447.948353
 31
0.0
  0
LINE
  5
681
330
673
100
AcDbEntity
  8
LC-002-100-D00-0
 62
     7
370
    25
100
AcDbLine
 10
244.016825
 20
457.123918
 30
0.0
 11
252.016825
 21
465.123918
 31
0.0
  0
LINE
  5
682
330
673
100
AcDbEntity
  8
LC-002-100-D00-0
 62
     7
370
    25
100
AcDbLine
 10
210.890621
 20
446.448353
 30
0.0
 11
212.390621
 21
447.948353
 31
0.0
  0
LINE
  5
683
330
673
100
AcDbEntity
  8
LC-002-100-D00-0
 62
     7
370
    25
100
AcDbLine
 10
188.439982
 20
446.448353
 30
0.0
 11
189.939982
 21
447.948353
 31
0.0
  0
LINE
  5
684
330
673
100
AcDbEntity
  8
LC-002-100-D00-0
 62
     7
370
    25
100
AcDbLine
 10
165.989342
 20
446.448353
 30
0.0
 11
167.489342
 21
447.948353
 31
0.0
  0
LINE
  5
685
330
673
100
AcDbEntity
  8
LC-002-100-D00-0
 62
     7
370
    25
100
AcDbLine
 10
143.538703
 20
446.448353
 30
0.0
 11
145.038703
 21
447.948353
 31
0.0
  0
LINE
  5
686
330
673
100
AcDbEntity
  8
LC-002-100-D00-0
 62
     7
370
    25
100
AcDbLine
 10
121.088063
 20
446.448353
 30
0.0
 11
122.588063
 21
447.948353
 31
0.0
  0
LINE
  5
687
330
673
100
AcDbEntity
  8
LC-002-100-D00-0
 62
     7
370
    25
100
AcDbLine
 10
95.694706
 20
443.505635
 30
0.0
 11
97.816026
 21
445.626955
 31
0.0
  0
LINE
  5
688
330
673
100
AcDbEntity
  8
LC-002-100-D00-0
 62
     7
370
    25
100
AcDbLine
 10
109.016825
 20
456.827755
 30
0.0
 11
117.016825
 21
464.827755
 31
0.0
  0
LINE
  5
689
330
673
100
AcDbEntity
  8
LC-002-100-D00-0
 62
     7
370
    25
100
AcDbLine
 10
68.316825
 20
438.578393
 30
0.0
 11
69.816825
 21
440.078393
 31
0.0
  0
LINE
  5
68A
330
673
100
AcDbEntity
  8
LC-002-100-D00-0
 62
     7
370
    25
100
AcDbLine
 10
71.186785
 20
441.448353
 30
0.0
 11
72.686785
 21
442.948353
 31
0.0
  0
ENDBLK
  5
675
330
673
100
AcDbEntity
  8
0
100
AcDbBlockEnd
  0
BLOCK
  5
68D
330
68C
100
AcDbEntity
  8
0
100
AcDbBlockBegin
  2
KLON31
 70
     0
 71
     0
 10
0.0
 20
0.0
 30
0.0
  3
KLON31
  1

  4
KLON31
  0
LINE
  5
68F
330
68C
100
AcDbEntity
  8
LC-002-100-D00-0
 62
     7
370
    25
100
AcDbLine
 10
-43.783175
 20
438.73159
 30
0.0
 11
-42.283175
 21
440.23159
 31
0.0
  0
LINE
  5
690
330
68C
100
AcDbEntity
  8
LC-002-100-D00-0
 62
     7
370
    25
100
AcDbLine
 10
-63.192906
 20
441.772499
 30
0.0
 11
-61.964838
 21
443.000566
 31
0.0
  0
LINE
  5
691
330
68C
100
AcDbEntity
  8
LC-002-100-D00-0
 62
     7
370
    25
100
AcDbLine
 10
-80.967697
 20
446.448348
 30
0.0
 11
-79.674422
 21
447.741622
 31
0.0
  0
LINE
  5
692
330
68C
100
AcDbEntity
  8
LC-002-100-D00-0
 62
     7
370
    25
100
AcDbLine
 10
-103.418331
 20
446.448353
 30
0.0
 11
-101.918331
 21
447.948353
 31
0.0
  0
LINE
  5
693
330
68C
100
AcDbEntity
  8
LC-002-100-D00-0
 62
     7
370
    25
100
AcDbLine
 10
-90.983175
 20
458.88351
 30
0.0
 11
-82.983175
 21
466.883511
 31
0.0
  0
LINE
  5
694
330
68C
100
AcDbEntity
  8
LC-002-100-D00-0
 62
     7
370
    25
100
AcDbLine
 10
-125.868971
 20
446.448353
 30
0.0
 11
-124.368971
 21
447.948353
 31
0.0
  0
LINE
  5
695
330
68C
100
AcDbEntity
  8
LC-002-100-D00-0
 62
     7
370
    25
100
AcDbLine
 10
-148.31961
 20
446.448353
 30
0.0
 11
-146.81961
 21
447.948353
 31
0.0
  0
LINE
  5
696
330
68C
100
AcDbEntity
  8
LC-002-100-D00-0
 62
     7
370
    25
100
AcDbLine
 10
-170.77025
 20
446.448353
 30
0.0
 11
-169.27025
 21
447.948353
 31
0.0
  0
LINE
  5
697
330
68C
100
AcDbEntity
  8
LC-002-100-D00-0
 62
     7
370
    25
100
AcDbLine
 10
-193.220889
 20
446.448353
 30
0.0
 11
-191.720889
 21
447.948353
 31
0.0
  0
LINE
  5
698
330
68C
100
AcDbEntity
  8
LC-002-100-D00-0
 62
     7
370
    25
100
AcDbLine
 10
-215.671529
 20
446.448353
 30
0.0
 11
-214.171529
 21
447.948353
 31
0.0
  0
LINE
  5
699
330
68C
100
AcDbEntity
  8
LC-002-100-D00-0
 62
     7
370
    25
100
AcDbLine
 10
-238.122168
 20
446.448353
 30
0.0
 11
-236.622168
 21
447.948353
 31
0.0
  0
LINE
  5
69A
330
68C
100
AcDbEntity
  8
LC-002-100-D00-0
 62
     7
370
    25
100
AcDbLine
 10
-225.983175
 20
458.587347
 30
0.0
 11
-217.983175
 21
466.587348
 31
0.0
  0
LINE
  5
69B
330
68C
100
AcDbEntity
  8
LC-002-100-D00-0
 62
     7
370
    25
100
AcDbLine
 10
-260.572808
 20
446.448353
 30
0.0
 11
-259.072808
 21
447.948353
 31
0.0
  0
LINE
  5
69C
330
68C
100
AcDbEntity
  8
LC-002-100-D00-0
 62
     7
370
    25
100
AcDbLine
 10
-283.023447
 20
446.448353
 30
0.0
 11
-281.523447
 21
447.948353
 31
0.0
  0
LINE
  5
69D
330
68C
100
AcDbEntity
  8
LC-002-100-D00-0
 62
     7
370
    25
100
AcDbLine
 10
-305.474087
 20
446.448353
 30
0.0
 11
-303.974087
 21
447.948353
 31
0.0
  0
LINE
  5
69E
330
68C
100
AcDbEntity
  8
LC-002-100-D00-0
 62
     7
370
    25
100
AcDbLine
 10
-327.924726
 20
446.448353
 30
0.0
 11
-326.424726
 21
447.948353
 31
0.0
  0
LINE
  5
69F
330
68C
100
AcDbEntity
  8
LC-002-100-D00-0
 62
     7
370
    25
100
AcDbLine
 10
-350.375366
 20
446.448353
 30
0.0
 11
-348.875366
 21
447.948353
 31
0.0
  0
LINE
  5
6A0
330
68C
100
AcDbEntity
  8
LC-002-100-D00-0
 62
     7
370
    25
100
AcDbLine
 10
-372.826005
 20
446.448353
 30
0.0
 11
-371.326005
 21
447.948353
 31
0.0
  0
LINE
  5
6A1
330
68C
100
AcDbEntity
  8
LC-002-100-D00-0
 62
     7
370
    25
100
AcDbLine
 10
-360.983175
 20
458.291184
 30
0.0
 11
-352.983175
 21
466.291184
 31
0.0
  0
LINE
  5
6A2
330
68C
100
AcDbEntity
  8
LC-002-100-D00-0
 62
     7
370
    25
100
AcDbLine
 10
-388.175356
 20
453.549642
 30
0.0
 11
-386.903425
 21
454.821573
 31
0.0
  0
LINE
  5
6A3
330
68C
100
AcDbEntity
  8
LC-002-100-D00-0
 62
     7
370
    25
100
AcDbLine
 10
-397.227286
 20
466.948353
 30
0.0
 11
-395.727286
 21
468.448353
 31
0.0
  0
LINE
  5
6A4
330
68C
100
AcDbEntity
  8
LC-002-100-D00-0
 62
     7
370
    25
100
AcDbLine
 10
-419.677925
 20
466.948353
 30
0.0
 11
-418.177925
 21
468.448353
 31
0.0
  0
ENDBLK
  5
68E
330
68C
100
AcDbEntity
  8
0
100
AcDbBlockEnd
  0
BLOCK
  5
6A8
330
6A7
100
AcDbEntity
  8
0
100
AcDbBlockBegin
  2
KLON32
 70
     0
 71
     0
 10
0.0
 20
0.0
 30
0.0
  3
KLON32
  1

  4
KLON32
  0
LINE
  5
6AA
330
6A7
100
AcDbEntity
  8
LC-002-100-D00-0
 62
     7
370
    25
100
AcDbLine
 10
238.266825
 20
451.373917
 30
0.0
 11
242.34069
 21
455.447783
 31
0.0
  0
LINE
  5
6AB
330
6A7
100
AcDbEntity
  8
LC-002-100-D00-0
 62
     7
370
    25
100
AcDbLine
 10
229.766825
 20
465.324558
 30
0.0
 11
232.89062
 21
468.448353
 31
0.0
  0
ENDBLK
  5
6A9
330
6A7
100
AcDbEntity
  8
0
100
AcDbBlockEnd
  0
BLOCK
  5
6B0
330
6AF
100
AcDbEntity
  8
0
100
AcDbBlockBegin
  2
KLON33
 70
     0
 71
     0
 10
0.0
 20
0.0
 30
0.0
  3
KLON33
  1

  4
KLON33
  0
LINE
  5
6B2
330
6AF
100
AcDbEntity
  8
LC-002-100-D00-0
 62
     7
370
    25
100
AcDbLine
 10
-96.733175
 20
453.13351
 30
0.0
 11
-93.334028
 21
456.532657
 31
0.0
  0
LINE
  5
6B3
330
6AF
100
AcDbEntity
  8
LC-002-100-D00-0
 62
     7
370
    25
100
AcDbLine
 10
-92.418332
 20
457.448353
 30
0.0
 11
-90.883175
 21
458.98351
 31
0.0
  0
LINE
  5
6B4
330
6AF
100
AcDbEntity
  8
LC-002-100-D00-0
 62
     7
370
    25
100
AcDbLine
 10
-105.233175
 20
467.08415
 30
0.0
 11
-103.868972
 21
468.448353
 31
0.0
  0
ENDBLK
  5
6B1
330
6AF
100
AcDbEntity
  8
0
100
AcDbBlockEnd
  0
BLOCK
  5
6B7
330
6B6
100
AcDbEntity
  8
0
100
AcDbBlockBegin
  2
KLON34
 70
     0
 71
     0
 10
0.0
 20
0.0
 30
0.0
  3
KLON34
  1

  4
KLON34
  0
LINE
  5
6B9
330
6B6
100
AcDbEntity
  8
LC-002-100-D00-0
 62
     7
370
    25
100
AcDbLine
 10
-77.916089
 20
449.499956
 30
0.0
 11
-77.284778
 21
450.131267
 31
0.0
  0
LINE
  5
6BA
330
6B6
100
AcDbEntity
  8
LC-002-100-D00-0
 62
     7
370
    25
100
AcDbLine
 10
-83.083175
 20
466.783511
 30
0.0
 11
-81.418333
 21
468.448353
 31
0.0
  0
ENDBLK
  5
6B8
330
6B6
100
AcDbEntity
  8
0
100
AcDbBlockEnd
  0
BLOCK
  5
6BE
330
6BD
100
AcDbEntity
  8
0
100
AcDbBlockBegin
  2
KLON35
 70
     0
 71
     0
 10
0.0
 20
0.0
 30
0.0
  3
KLON35
  1

  4
KLON35
  0
LINE
  5
6C0
330
6BD
100
AcDbEntity
  8
LC-002-100-D00-0
 62
     7
370
    25
100
AcDbLine
 10
-366.733175
 20
452.541183
 30
0.0
 11
-363.334028
 21
455.940331
 31
0.0
  0
LINE
  5
6C1
330
6BD
100
AcDbEntity
  8
LC-002-100-D00-0
 62
     7
370
    25
100
AcDbLine
 10
-361.826006
 20
457.448353
 30
0.0
 11
-360.883175
 21
458.391184
 31
0.0
  0
LINE
  5
6C2
330
6BD
100
AcDbEntity
  8
LC-002-100-D00-0
 62
     7
370
    25
100
AcDbLine
 10
-375.233175
 20
466.491824
 30
0.0
 11
-373.276646
 21
468.448353
 31
0.0
  0
ENDBLK
  5
6BF
330
6BD
100
AcDbEntity
  8
0
100
AcDbBlockEnd
  0
BLOCK
  5
6C7
330
6C6
100
AcDbEntity
  8
0
100
AcDbBlockBegin
  2
KLON36
 70
     0
 71
     0
 10
0.0
 20
0.0
 30
0.0
  3
KLON36
  1

  4
KLON36
  0
LINE
  5
6C9
330
6C6
100
AcDbEntity
  8
LC-002-100-D00-0
 62
     7
370
    25
100
AcDbLine
 10
103.266825
 20
451.077754
 30
0.0
 11
107.569109
 21
455.380039
 31
0.0
  0
LINE
  5
6CA
330
6C6
100
AcDbEntity
  8
LC-002-100-D00-0
 62
     7
370
    25
100
AcDbLine
 10
94.766825
 20
465.028395
 30
0.0
 11
98.186783
 21
468.448353
 31
0.0
  0
ENDBLK
  5
6C8
330
6C6
100
AcDbEntity
  8
0
100
AcDbBlockEnd
  0
BLOCK
  5
6CF
330
6CE
100
AcDbEntity
  8
0
100
AcDbBlockBegin
  2
KLON37
 70
     0
 71
     0
 10
0.0
 20
0.0
 30
0.0
  3
KLON37
  1

  4
KLON37
  0
LINE
  5
6D1
330
6CE
100
AcDbEntity
  8
LC-002-100-D00-0
 62
     7
370
    25
100
AcDbLine
 10
-231.733175
 20
452.837347
 30
0.0
 11
-228.334028
 21
456.236494
 31
0.0
  0
LINE
  5
6D2
330
6CE
100
AcDbEntity
  8
LC-002-100-D00-0
 62
     7
370
    25
100
AcDbLine
 10
-227.122169
 20
457.448353
 30
0.0
 11
-225.883175
 21
458.687347
 31
0.0
  0
LINE
  5
6D3
330
6CE
100
AcDbEntity
  8
LC-002-100-D00-0
 62
     7
370
    25
100
AcDbLine
 10
-240.233175
 20
466.787987
 30
0.0
 11
-238.572809
 21
468.448353
 31
0.0
  0
ENDBLK
  5
6D0
330
6CE
100
AcDbEntity
  8
0
100
AcDbBlockEnd
  0
BLOCK
  5
6D8
330
6D7
100
AcDbEntity
  8
0
100
AcDbBlockBegin
  2
KLON38
 70
     0
 71
     0
 10
0.0
 20
0.0
 30
0.0
  3
KLON38
  1

  4
KLON38
  0
LINE
  5
6DA
330
6D7
100
AcDbEntity
  8
LC-002-100-D00-0
 62
     7
370
    25
100
AcDbLine
 10
373.266825
 20
451.67008
 30
0.0
 11
377.045097
 21
455.448353
 31
0.0
  0
LINE
  5
6DB
330
6D7
100
AcDbEntity
  8
LC-002-100-D00-0
 62
     7
370
    25
100
AcDbLine
 10
379.045097
 20
457.448353
 30
0.0
 11
379.116825
 21
457.520081
 31
0.0
  0
LINE
  5
6DC
330
6D7
100
AcDbEntity
  8
LC-002-100-D00-0
 62
     7
370
    25
100
AcDbLine
 10
364.766825
 20
465.620721
 30
0.0
 11
367.594457
 21
468.448353
 31
0.0
  0
ENDBLK
  5
6D9
330
6D7
100
AcDbEntity
  8
0
100
AcDbBlockEnd
  0
BLOCK
  5
6F4
330
6F3
100
AcDbEntity
  8
0
100
AcDbBlockBegin
  2
*X150
 70
     1
 71
     0
 10
0.0
 20
0.0
 30
0.0
  3
*X150
  1

  4
*X1
  0
LINE
  5
6F7
330
6F3
100
AcDbEntity
  8
LC-004-005-----0
 62
     7
370
    25
100
AcDbLine
 10
162.958454
 20
360.948353
 30
0.0
 11
164.958454
 21
362.948353
 31
0.0
  0
LINE
  5
6F8
330
6F3
100
AcDbEntity
  8
LC-004-005-----0
 62
     7
370
    25
100
AcDbLine
 10
155.887386
 20
360.948353
 30
0.0
 11
157.887386
 21
362.948353
 31
0.0
  0
LINE
  5
6F9
330
6F3
100
AcDbEntity
  8
LC-004-005-----0
 62
     7
370
    25
100
AcDbLine
 10
148.816318
 20
360.948353
 30
0.0
 11
150.816318
 21
362.948353
 31
0.0
  0
LINE
  5
6FA
330
6F3
100
AcDbEntity
  8
LC-004-005-----0
 62
     7
370
    25
100
AcDbLine
 10
141.74525
 20
360.948353
 30
0.0
 11
143.74525
 21
362.948353
 31
0.0
  0
LINE
  5
6FB
330
6F3
100
AcDbEntity
  8
LC-004-005-----0
 62
     7
370
    25
100
AcDbLine
 10
134.674183
 20
360.948353
 30
0.0
 11
136.674183
 21
362.948353
 31
0.0
  0
LINE
  5
6FC
330
6F3
100
AcDbEntity
  8
LC-004-005-----0
 62
     7
370
    25
100
AcDbLine
 10
127.603115
 20
360.948353
 30
0.0
 11
135.131311
 21
368.476549
 31
0.0
  0
LINE
  5
6FD
330
6F3
100
AcDbEntity
  8
LC-004-005-----0
 62
     7
370
    25
100
AcDbLine
 10
118.666317
 20
359.082623
 30
0.0
 11
121.396979
 21
361.813284
 31
0.0
  0
LINE
  5
6FE
330
6F3
100
AcDbEntity
  8
LC-004-005-----0
 62
     7
370
    25
100
AcDbLine
 10
110.824102
 20
358.311475
 30
0.0
 11
113.816505
 21
361.303878
 31
0.0
  0
ENDBLK
  5
6F5
330
6F3
100
AcDbEntity
  8
0
100
AcDbBlockEnd
  0
BLOCK
  5
707
330
706
100
AcDbEntity
  8
0
100
AcDbBlockBegin
  2
*X251
 70
     1
 71
     0
 10
0.0
 20
0.0
 30
0.0
  3
*X251
  1

  4
*X2
  0
LINE
  5
709
330
706
100
AcDbEntity
  8
LC-004-005-----0
 62
     7
370
    25
100
AcDbLine
 10
164.389911
 20
418.948353
 30
0.0
 11
166.389911
 21
420.948353
 31
0.0
  0
LINE
  5
70A
330
706
100
AcDbEntity
  8
LC-004-005-----0
 62
     7
370
    25
100
AcDbLine
 10
157.318844
 20
418.948353
 30
0.0
 11
159.318844
 21
420.948353
 31
0.0
  0
LINE
  5
70B
330
706
100
AcDbEntity
  8
LC-004-005-----0
 62
     7
370
    25
100
AcDbLine
 10
150.247776
 20
418.948353
 30
0.0
 11
152.247776
 21
420.948353
 31
0.0
  0
LINE
  5
70C
330
706
100
AcDbEntity
  8
LC-004-005-----0
 62
     7
370
    25
100
AcDbLine
 10
143.176708
 20
418.948353
 30
0.0
 11
145.176708
 21
420.948353
 31
0.0
  0
LINE
  5
70D
330
706
100
AcDbEntity
  8
LC-004-005-----0
 62
     7
370
    25
100
AcDbLine
 10
132.529879
 20
415.372591
 30
0.0
 11
134.333947
 21
417.17666
 31
0.0
  0
LINE
  5
70E
330
706
100
AcDbEntity
  8
LC-004-005-----0
 62
     7
370
    25
100
AcDbLine
 10
136.10564
 20
418.948353
 30
0.0
 11
138.10564
 21
420.948353
 31
0.0
  0
LINE
  5
70F
330
706
100
AcDbEntity
  8
LC-004-005-----0
 62
     7
370
    25
100
AcDbLine
 10
128.025181
 20
417.938962
 30
0.0
 11
131.034572
 21
420.948353
 31
0.0
  0
LINE
  5
710
330
706
100
AcDbEntity
  8
LC-004-005-----0
 62
     7
370
    25
100
AcDbLine
 10
122.78837
 20
419.773218
 30
0.0
 11
124.685267
 21
421.670115
 31
0.0
  0
LINE
  5
711
330
706
100
AcDbEntity
  8
LC-004-005-----0
 62
     7
370
    25
100
AcDbLine
 10
116.577379
 20
420.633295
 30
0.0
 11
118.749943
 21
422.805859
 31
0.0
  0
LINE
  5
712
330
706
100
AcDbEntity
  8
LC-004-005-----0
 62
     7
370
    25
100
AcDbLine
 10
108.701491
 20
419.828474
 30
0.0
 11
112.311943
 21
423.438926
 31
0.0
  0
ENDBLK
  5
708
330
706
100
AcDbEntity
  8
0
100
AcDbBlockEnd
  0
BLOCK
  5
72D
330
723
100
AcDbEntity
  8
0
100
AcDbBlockBegin
  2
*D52
 70
     1
 71
     0
 10
0.0
 20
0.0
 30
0.0
  3
*D52
  1

  0
LINE
  5
724
330
723
100
AcDbEntity
  8
LC-006-003-----0
 62
     2
370
    -2
100
AcDbLine
 10
-60.983175
 20
377.448353
 30
0.0
 11
-60.983175
 21
137.452005
 31
0.0
  0
LINE
  5
725
330
723
100
AcDbEntity
  8
LC-006-003-----0
 62
     2
370
    -2
100
AcDbLine
 10
167.131311
 20
390.948353
 30
0.0
 11
167.131311
 21
137.452005
 31
0.0
  0
LINE
  5
726
330
723
100
AcDbEntity
  8
LC-006-003-----0
 62
     2
370
    -2
100
AcDbLine
 10
-10.983175
 20
146.452005
 30
0.0
 11
117.131311
 21
146.452005
 31
0.0
  0
SOLID
  5
727
330
723
100
AcDbEntity
  8
LC-006-003-----0
 62
     2
100
AcDbTrace
 10
-10.983175
 20
154.785338
 30
0.0
 11
-10.983175
 21
138.118672
 31
0.0
 12
-60.983175
 22
146.452005
 32
0.0
 13
-60.983175
 23
146.452005
 33
0.0
  0
SOLID
  5
728
330
723
100
AcDbEntity
  8
LC-006-003-----0
 62
     2
100
AcDbTrace
 10
117.131311
 20
138.118672
 30
0.0
 11
117.131311
 21
154.785338
 31
0.0
 12
167.131311
 22
146.452005
 32
0.0
 13
167.131311
 23
146.452005
 33
0.0
  0
MTEXT
  5
729
330
723
100
AcDbEntity
  8
LC-006-003-----0
 62
     2
100
AcDbMText
 10
44.772586
 20
201.452005
 30
0.0
 40
50.0
 41
0.0
 71
     5
 72
     1
  1
\A1;228
  7
LCTX15-400-0-0pDIN-Schrift
 73
     1
 44
1.0
  0
POINT
  5
72A
330
723
100
AcDbEntity
  8
Defpoints
 62
     0
100
AcDbPoint
 10
-60.983175
 20
377.448353
 30
0.0
  0
POINT
  5
72B
330
723
100
AcDbEntity
  8
Defpoints
 62
     0
100
AcDbPoint
 10
167.131311
 20
390.948353
 30
0.0
  0
POINT
  5
72C
330
723
100
AcDbEntity
  8
Defpoints
 62
     0
100
AcDbPoint
 10
167.131311
 20
146.452005
 30
0.0
  0
ENDBLK
  5
72E
330
723
100
AcDbEntity
  8
0
100
AcDbBlockEnd
  0
BLOCK
  5
73B
330
730
100
AcDbEntity
  8
0
100
AcDbBlockBegin
  2
*D53
 70
     1
 71
     0
 10
0.0
 20
0.0
 30
0.0
  3
*D53
  1

  0
LINE
  5
731
330
730
100
AcDbEntity
  8
LC-006-003-----0
 62
     2
370
    -2
100
AcDbLine
 10
166.631311
 20
418.948353
 30
0.0
 11
265.401683
 21
418.948353
 31
0.0
  0
LINE
  5
732
330
730
100
AcDbEntity
  8
LC-006-003-----0
 62
     2
370
    -2
100
AcDbLine
 10
166.631311
 20
362.948353
 30
0.0
 11
265.401683
 21
362.948353
 31
0.0
  0
LINE
  5
733
330
730
100
AcDbEntity
  8
LC-006-003-----0
 62
     2
370
    -2
100
AcDbLine
 10
256.401683
 20
468.948353
 30
0.0
 11
256.401683
 21
518.948353
 31
0.0
  0
LINE
  5
734
330
730
100
AcDbEntity
  8
LC-006-003-----0
 62
     2
370
    -2
100
AcDbLine
 10
256.401683
 20
312.948353
 30
0.0
 11
256.401683
 21
214.432614
 31
0.0
  0
SOLID
  5
735
330
730
100
AcDbEntity
  8
LC-006-003-----0
 62
     2
100
AcDbTrace
 10
248.06835
 20
468.948353
 30
0.0
 11
264.735016
 21
468.948353
 31
0.0
 12
256.401683
 22
418.948353
 32
0.0
 13
256.401683
 23
418.948353
 33
0.0
  0
SOLID
  5
736
330
730
100
AcDbEntity
  8
LC-006-003-----0
 62
     2
100
AcDbTrace
 10
264.735016
 20
312.948353
 30
0.0
 11
248.06835
 21
312.948353
 31
0.0
 12
256.401683
 22
362.948353
 32
0.0
 13
256.401683
 23
362.948353
 33
0.0
  0
MTEXT
  5
737
330
730
100
AcDbEntity
  8
LC-006-003-----0
 62
     2
100
AcDbMText
 10
201.401683
 20
257.827005
 30
0.0
 40
50.0
 41
0.0
 71
     5
 72
     1
  1
%%c\A1;56
  7
LCTX15-400-0-0pDIN-Schrift
 11
6.123031769111886E-17
 21
1.0
 31
0.0
 73
     1
 44
1.0
  0
POINT
  5
738
330
730
100
AcDbEntity
  8
Defpoints
 62
     0
100
AcDbPoint
 10
166.631311
 20
418.948353
 30
0.0
  0
POINT
  5
739
330
730
100
AcDbEntity
  8
Defpoints
 62
     0
100
AcDbPoint
 10
166.631311
 20
362.948353
 30
0.0
  0
POINT
  5
73A
330
730
100
AcDbEntity
  8
Defpoints
 62
     0
100
AcDbPoint
 10
256.401683
 20
362.948353
 30
0.0
  0
ENDBLK
  5
73C
330
730
100
AcDbEntity
  8
0
100
AcDbBlockEnd
  0
ENDSEC
  0
SECTION
  2
ENTITIES
  0
LINE
  5
31
330
1F
100
AcDbEntity
  8
LC-001-002-----0
 62
     7
370
    25
100
AcDbLine
 10
167.131311
 20
390.948353
 30
0.0
 11
229.016622
 21
390.948353
 31
0.0
  0
LINE
  5
33
330
1F
100
AcDbEntity
  8
LC-002-100-D00-0
 62
     7
370
    50
100
AcDbLine
 10
847.364283
 20
466.948353
 30
0.0
 11
847.364283
 21
465.548353
 31
0.0
  0
LINE
  5
34
330
1F
100
AcDbEntity
  8
LC-002-100-D00-0
 62
     7
370
    50
100
AcDbLine
 10
856.364283
 20
465.548353
 30
0.0
 11
856.364285
 21
466.948353
 31
0.0
  0
LINE
  5
35
330
1F
100
AcDbEntity
  8
LC-002-100-D00-0
 62
     7
370
    50
100
AcDbLine
 10
777.364281
 20
466.948353
 30
0.0
 11
777.364283
 21
465.548353
 31
0.0
  0
LINE
  5
36
330
1F
100
AcDbEntity
  8
LC-002-100-D00-0
 62
     7
370
    50
100
AcDbLine
 10
786.364283
 20
465.548353
 30
0.0
 11
786.364283
 21
466.948353
 31
0.0
  0
LINE
  5
37
330
1F
100
AcDbEntity
  8
LC-002-100-D00-0
 62
     7
370
    50
100
AcDbLine
 10
777.864282
 20
465.548353
 30
0.0
 11
777.864283
 21
451.948353
 31
0.0
  0
LINE
  5
38
330
1F
100
AcDbEntity
  8
LC-002-100-D00-0
 62
     7
370
    50
100
AcDbLine
 10
785.864283
 20
451.948353
 30
0.0
 11
785.864283
 21
465.548353
 31
0.0
  0
LINE
  5
39
330
1F
100
AcDbEntity
  8
LC-002-100-D00-0
 62
     7
370
    50
100
AcDbLine
 10
847.864282
 20
465.548353
 30
0.0
 11
847.864283
 21
451.948353
 31
0.0
  0
LINE
  5
3A
330
1F
100
AcDbEntity
  8
LC-002-100-D00-0
 62
     7
370
    50
100
AcDbLine
 10
855.864283
 20
451.948353
 30
0.0
 11
855.864284
 21
465.548353
 31
0.0
  0
ARC
  5
3B
330
1F
100
AcDbEntity
  8
LC-002-100-D00-0
 62
     7
370
    50
100
AcDbCircle
 10
872.364283
 20
341.448353
 30
0.0
 40
0.5000000000004548
100
AcDbArc
 50
90.0
 51
180.0
  0
ARC
  5
3C
330
1F
100
AcDbEntity
  8
LC-002-100-D00-0
 62
     7
370
    50
100
AcDbCircle
 10
890.364283
 20
341.448353
 30
0.0
 40
0.5000000000006821
100
AcDbArc
 50
0.0
 51
90.0
  0
LINE
  5
3D
330
1F
100
AcDbEntity
  8
LC-002-100-D00-0
 62
     7
370
    50
100
AcDbLine
 10
871.864283
 20
341.448353
 30
0.0
 11
871.864283
 21
333.948353
 31
0.0
  0
LINE
  5
3E
330
1F
100
AcDbEntity
  8
LC-002-100-D00-0
 62
     7
370
    50
100
AcDbLine
 10
890.864283
 20
333.948353
 30
0.0
 11
890.864283
 21
341.448353
 31
0.0
  0
LINE
  5
3F
330
1F
100
AcDbEntity
  8
LC-002-100-D00-0
 62
     7
370
    50
100
AcDbLine
 10
871.364283
 20
353.448353
 30
0.0
 11
871.364283
 21
342.948353
 31
0.0
  0
LINE
  5
40
330
1F
100
AcDbEntity
  8
LC-002-100-D00-0
 62
     7
370
    50
100
AcDbLine
 10
891.364283
 20
342.948353
 30
0.0
 11
891.364283
 21
353.448353
 31
0.0
  0
LINE
  5
41
330
1F
100
AcDbEntity
  8
LC-002-100-D00-0
 62
     7
370
    50
100
AcDbLine
 10
871.364282
 20
410.948352
 30
0.0
 11
871.364283
 21
356.948353
 31
0.0
  0
LINE
  5
42
330
1F
100
AcDbEntity
  8
LC-002-100-D00-0
 62
     7
370
    50
100
AcDbLine
 10
891.364283
 20
356.948353
 30
0.0
 11
891.364285
 21
410.948352
 31
0.0
  0
LINE
  5
43
330
1F
100
AcDbEntity
  8
LC-002-100-D00-0
 62
     7
370
    50
100
AcDbLine
 10
871.364283
 20
342.948353
 30
0.0
 11
872.364283
 21
341.948353
 31
0.0
  0
LINE
  5
44
330
1F
100
AcDbEntity
  8
LC-002-100-D00-0
 62
     7
370
    50
100
AcDbLine
 10
890.364283
 20
341.948353
 30
0.0
 11
891.364283
 21
342.948353
 31
0.0
  0
LINE
  5
45
330
1F
100
AcDbEntity
  8
LC-002-100-D00-0
 62
     7
370
    50
100
AcDbLine
 10
873.464284
 20
356.94835
 30
0.0
 11
873.464284
 21
353.44835
 31
0.0
  0
LINE
  5
46
330
1F
100
AcDbEntity
  8
LC-002-100-D00-0
 62
     7
370
    50
100
AcDbLine
 10
889.264287
 20
353.44835
 30
0.0
 11
889.264287
 21
356.94835
 31
0.0
  0
LINE
  5
47
330
1F
100
AcDbEntity
  8
LC-002-100-D00-0
 62
     7
370
    50
100
AcDbLine
 10
856.864283
 20
442.548353
 30
0.0
 11
856.864282
 21
445.948352
 31
0.0
  0
LINE
  5
48
330
1F
100
AcDbEntity
  8
LC-002-100-D00-0
 62
     7
370
    50
100
AcDbLine
 10
846.864282
 20
445.948352
 30
0.0
 11
846.864283
 21
442.548353
 31
0.0
  0
ARC
  5
49
330
1F
100
AcDbEntity
  8
LC-002-100-D00-0
 62
     7
370
    50
100
AcDbCircle
 10
856.264283
 20
442.548353
 30
0.0
 40
0.6000000000001364
100
AcDbArc
 50
270.0
 51
0.0
  0
ARC
  5
4A
330
1F
100
AcDbEntity
  8
LC-002-100-D00-0
 62
     7
370
    50
100
AcDbCircle
 10
847.464283
 20
442.548353
 30
0.0
 40
0.6000000000001364
100
AcDbArc
 50
180.0
 51
270.0
  0
LINE
  5
4B
330
1F
100
AcDbEntity
  8
LC-002-100-D00-0
 62
     7
370
    50
100
AcDbLine
 10
854.864282
 20
450.948353
 30
0.0
 11
854.864282
 21
451.948353
 31
0.0
  0
LINE
  5
4C
330
1F
100
AcDbEntity
  8
LC-002-100-D00-0
 62
     7
370
    50
100
AcDbLine
 10
848.864284
 20
451.948353
 30
0.0
 11
848.864284
 21
450.948353
 31
0.0
  0
ARC
  5
4D
330
1F
100
AcDbEntity
  8
LC-002-100-D00-0
 62
     7
370
    50
100
AcDbCircle
 10
786.264283
 20
442.548353
 30
0.0
 40
0.6000000000001364
100
AcDbArc
 50
270.0
 51
0.0
  0
ARC
  5
4E
330
1F
100
AcDbEntity
  8
LC-002-100-D00-0
 62
     7
370
    50
100
AcDbCircle
 10
777.464283
 20
442.548353
 30
0.0
 40
0.6000000000001364
100
AcDbArc
 50
180.0
 51
270.0
  0
LINE
  5
4F
330
1F
100
AcDbEntity
  8
LC-002-100-D00-0
 62
     7
370
    50
100
AcDbLine
 10
786.864283
 20
442.548353
 30
0.0
 11
786.864284
 21
445.948352
 31
0.0
  0
LINE
  5
50
330
1F
100
AcDbEntity
  8
LC-002-100-D00-0
 62
     7
370
    50
100
AcDbLine
 10
776.864284
 20
445.948352
 30
0.0
 11
776.864283
 21
442.548353
 31
0.0
  0
LINE
  5
51
330
1F
100
AcDbEntity
  8
LC-002-100-D00-0
 62
     7
370
    50
100
AcDbLine
 10
784.864281
 20
450.948353
 30
0.0
 11
784.864281
 21
451.948353
 31
0.0
  0
LINE
  5
52
330
1F
100
AcDbEntity
  8
LC-002-100-D00-0
 62
     7
370
    50
100
AcDbLine
 10
778.864284
 20
451.948353
 30
0.0
 11
778.864284
 21
450.948353
 31
0.0
  0
LINE
  5
53
330
1F
100
AcDbEntity
  8
LC-002-100-D00-0
 62
     7
370
    50
100
AcDbLine
 10
857.364283
 20
445.948353
 30
0.0
 11
857.364283
 21
447.948353
 31
0.0
  0
LINE
  5
54
330
1F
100
AcDbEntity
  8
LC-002-100-D00-0
 62
     7
370
    50
100
AcDbLine
 10
846.364283
 20
447.948352
 30
0.0
 11
846.364283
 21
445.948353
 31
0.0
  0
LINE
  5
55
330
1F
100
AcDbEntity
  8
LC-002-100-D00-0
 62
     7
370
    50
100
AcDbLine
 10
787.364283
 20
445.948353
 30
0.0
 11
787.364283
 21
447.948352
 31
0.0
  0
LINE
  5
56
330
1F
100
AcDbEntity
  8
LC-002-100-D00-0
 62
     7
370
    50
100
AcDbLine
 10
776.364283
 20
447.948353
 30
0.0
 11
776.364283
 21
445.948353
 31
0.0
  0
LINE
  5
57
330
1F
100
AcDbEntity
  8
LC-002-100-D00-0
 62
     7
370
    50
100
AcDbLine
 10
889.364283
 20
468.448353
 30
0.0
 11
894.364283
 21
468.448353
 31
0.0
  0
LINE
  5
58
330
1F
100
AcDbEntity
  8
LC-002-100-D00-0
 62
     7
370
    50
100
AcDbLine
 10
894.364283
 20
468.448353
 30
0.0
 11
894.364283
 21
466.948353
 31
0.0
  0
LINE
  5
59
330
1F
100
AcDbEntity
  8
LC-002-100-D00-0
 62
     7
370
    50
100
AcDbLine
 10
894.364283
 20
466.948353
 30
0.0
 11
889.364283
 21
466.948353
 31
0.0
  0
LINE
  5
5A
330
1F
100
AcDbEntity
  8
LC-002-100-D00-0
 62
     7
370
    50
100
AcDbLine
 10
770.864283
 20
518.448353
 30
0.0
 11
772.364283
 21
518.448353
 31
0.0
  0
LINE
  5
5B
330
1F
100
AcDbEntity
  8
LC-002-100-D00-0
 62
     7
370
    50
100
AcDbLine
 10
772.364283
 20
518.448353
 30
0.0
 11
772.364283
 21
513.448353
 31
0.0
  0
LINE
  5
5C
330
1F
100
AcDbEntity
  8
LC-002-100-D00-0
 62
     7
370
    50
100
AcDbLine
 10
770.864283
 20
513.448353
 30
0.0
 11
770.864283
 21
518.448353
 31
0.0
  0
LINE
  5
5D
330
1F
100
AcDbEntity
  8
LC-002-100-D00-0
 62
     7
370
    50
100
AcDbLine
 10
773.864283
 20
468.448353
 30
0.0
 11
889.364283
 21
468.448353
 31
0.0
  0
LINE
  5
5E
330
1F
100
AcDbEntity
  8
LC-002-100-D00-0
 62
     7
370
    50
100
AcDbLine
 10
773.364283
 20
466.948353
 30
0.0
 11
889.364283
 21
466.948353
 31
0.0
  0
ARC
  5
5F
330
1F
100
AcDbEntity
  8
LC-002-100-D00-0
 62
     7
370
    50
100
AcDbCircle
 10
773.364283
 20
469.448353
 30
0.0
 40
2.5
100
AcDbArc
 50
180.0
 51
270.0
  0
ARC
  5
60
330
1F
100
AcDbEntity
  8
LC-002-100-D00-0
 62
     7
370
    50
100
AcDbCircle
 10
773.864283
 20
469.948353
 30
0.0
 40
1.5
100
AcDbArc
 50
180.0
 51
270.0
  0
LINE
  5
61
330
1F
100
AcDbEntity
  8
LC-002-100-D00-0
 62
     7
370
    50
100
AcDbLine
 10
772.364283
 20
513.448353
 30
0.0
 11
772.364283
 21
469.948353
 31
0.0
  0
LINE
  5
62
330
1F
100
AcDbEntity
  8
LC-002-100-D00-0
 62
     7
370
    50
100
AcDbLine
 10
770.864283
 20
469.448353
 30
0.0
 11
770.864283
 21
513.448353
 31
0.0
  0
ARC
  5
63
330
1F
100
AcDbEntity
  8
LC-002-100-D00-0
 62
     7
370
    50
100
AcDbCircle
 10
845.864283
 20
465.448353
 30
0.0
 40
1.5
100
AcDbArc
 50
90.0
 51
180.0
  0
ARC
  5
64
330
1F
100
AcDbEntity
  8
LC-002-100-D00-0
 62
     7
370
    50
100
AcDbCircle
 10
787.864283
 20
465.448353
 30
0.0
 40
1.499999999999773
100
AcDbArc
 50
0.0
 51
90.0
  0
LINE
  5
65
330
1F
100
AcDbEntity
  8
LC-002-100-D00-0
 62
     7
370
    50
100
AcDbLine
 10
829.197692
 20
446.448353
 30
0.0
 11
840.364283
 21
446.448353
 31
0.0
  0
LINE
  5
66
330
1F
100
AcDbEntity
  8
LC-002-100-D00-0
 62
     7
370
    50
100
AcDbLine
 10
829.019478
 20
446.448353
 30
0.0
 11
829.197692
 21
446.448353
 31
0.0
  0
LINE
  5
67
330
1F
100
AcDbEntity
  8
LC-002-100-D00-0
 62
     7
370
    50
100
AcDbLine
 10
829.019478
 20
446.448353
 30
0.0
 11
804.709088
 21
446.448353
 31
0.0
  0
LINE
  5
68
330
1F
100
AcDbEntity
  8
LC-002-100-D00-0
 62
     7
370
    50
100
AcDbLine
 10
804.530874
 20
446.448353
 30
0.0
 11
804.709088
 21
446.448353
 31
0.0
  0
LINE
  5
69
330
1F
100
AcDbEntity
  8
LC-002-100-D00-0
 62
     7
370
    50
100
AcDbLine
 10
793.364283
 20
446.448353
 30
0.0
 11
804.530874
 21
446.448353
 31
0.0
  0
ARC
  5
6A
330
1F
100
AcDbEntity
  8
LC-002-100-D00-0
 62
     7
370
    50
100
AcDbCircle
 10
793.364283
 20
450.448353
 30
0.0
 40
4.000000000000227
100
AcDbArc
 50
180.0
 51
270.0
  0
LINE
  5
6B
330
1F
100
AcDbEntity
  8
LC-002-100-D00-0
 62
     7
370
    50
100
AcDbLine
 10
789.364283
 20
455.948353
 30
0.0
 11
789.364283
 21
450.448353
 31
0.0
  0
LINE
  5
6C
330
1F
100
AcDbEntity
  8
LC-002-100-D00-0
 62
     7
370
    50
100
AcDbLine
 10
789.364283
 20
455.948353
 30
0.0
 11
789.364283
 21
465.448353
 31
0.0
  0
ARC
  5
6D
330
1F
100
AcDbEntity
  8
LC-002-100-D00-0
 62
     7
370
    50
100
AcDbCircle
 10
840.364283
 20
450.448353
 30
0.0
 40
4.000000000014325
100
AcDbArc
 50
270.0
 51
0.0
  0
LINE
  5
6E
330
1F
100
AcDbEntity
  8
LC-002-100-D00-0
 62
     7
370
    50
100
AcDbLine
 10
844.364283
 20
450.448353
 30
0.0
 11
844.364283
 21
455.948353
 31
0.0
  0
LINE
  5
6F
330
1F
100
AcDbEntity
  8
LC-002-100-D00-0
 62
     7
370
    50
100
AcDbLine
 10
844.364283
 20
465.448353
 30
0.0
 11
844.364283
 21
455.948353
 31
0.0
  0
ARC
  5
70
330
1F
100
AcDbEntity
  8
LC-002-100-D00-0
 62
     7
370
    50
100
AcDbCircle
 10
840.364283
 20
445.448353
 30
0.0
 40
4.000000000000227
100
AcDbArc
 50
270.0
 51
0.0
  0
LINE
  5
71
330
1F
100
AcDbEntity
  8
LC-002-100-D00-0
 62
     7
370
    50
100
AcDbLine
 10
844.364283
 20
450.448353
 30
0.0
 11
844.364283
 21
445.448353
 31
0.0
  0
ARC
  5
72
330
1F
100
AcDbEntity
  8
LC-002-100-D00-0
 62
     7
370
    50
100
AcDbCircle
 10
793.364283
 20
445.448353
 30
0.0
 40
4.000000000045475
100
AcDbArc
 50
180.0
 51
270.0
  0
LINE
  5
73
330
1F
100
AcDbEntity
  8
LC-002-100-D00-0
 62
     7
370
    50
100
AcDbLine
 10
789.364283
 20
445.448353
 30
0.0
 11
789.364283
 21
450.448353
 31
0.0
  0
ARC
  5
74
330
1F
100
AcDbEntity
  8
LC-002-100-D00-0
 62
     7
370
    50
100
AcDbCircle
 10
812.269977
 20
443.948353
 30
0.0
 40
2.500000000000455
100
AcDbArc
 50
90.0
 51
108.434949
  0
LINE
  5
75
330
1F
100
AcDbEntity
  8
LC-002-100-D00-0
 62
     7
370
    50
100
AcDbLine
 10
811.479407
 20
446.320061
 30
0.0
 11
811.478324
 21
446.3197
 31
0.0
  0
LINE
  5
76
330
1F
100
AcDbEntity
  8
LC-002-100-D00-0
 62
     7
370
    50
100
AcDbLine
 10
822.250242
 20
446.3197
 30
0.0
 11
822.249158
 21
446.320061
 31
0.0
  0
ARC
  5
77
330
1F
100
AcDbEntity
  8
LC-002-100-D00-0
 62
     7
370
    50
100
AcDbCircle
 10
821.458589
 20
443.948353
 30
0.0
 40
2.500000000000277
100
AcDbArc
 50
71.565051
 51
90.0
  0
LINE
  5
78
330
1F
100
AcDbEntity
  8
LC-002-100-D00-0
 62
     7
370
    50
100
AcDbLine
 10
840.364282
 20
441.448352
 30
0.0
 11
837.515251
 21
441.448352
 31
0.0
  0
LINE
  5
79
330
1F
100
AcDbEntity
  8
LC-002-100-D00-0
 62
     7
370
    50
100
AcDbLine
 10
796.213315
 20
441.448352
 30
0.0
 11
793.364284
 21
441.448352
 31
0.0
  0
LINE
  5
7A
330
1F
100
AcDbEntity
  8
LC-002-100-D00-0
 62
     7
370
    50
100
AcDbLine
 10
837.515251
 20
441.448352
 30
0.0
 11
837.513394
 21
441.448352
 31
0.0
  0
LINE
  5
7B
330
1F
100
AcDbEntity
  8
LC-002-100-D00-0
 62
     7
370
    50
100
AcDbLine
 10
837.513394
 20
441.448352
 30
0.0
 11
836.248483
 21
441.653619
 31
0.0
  0
LINE
  5
7C
330
1F
100
AcDbEntity
  8
LC-002-100-D00-0
 62
     7
370
    50
100
AcDbLine
 10
836.248483
 20
441.653619
 30
0.0
 11
836.246402
 21
441.654312
 31
0.0
  0
LINE
  5
7D
330
1F
100
AcDbEntity
  8
LC-002-100-D00-0
 62
     7
370
    50
100
AcDbLine
 10
796.215172
 20
441.448352
 30
0.0
 11
797.480083
 21
441.653619
 31
0.0
  0
LINE
  5
7E
330
1F
100
AcDbEntity
  8
LC-002-100-D00-0
 62
     7
370
    50
100
AcDbLine
 10
796.215172
 20
441.448352
 30
0.0
 11
796.213315
 21
441.448352
 31
0.0
  0
LINE
  5
7F
330
1F
100
AcDbEntity
  8
LC-002-100-D00-0
 62
     7
370
    50
100
AcDbLine
 10
797.482164
 20
441.654312
 30
0.0
 11
797.480083
 21
441.653619
 31
0.0
  0
LINE
  5
80
330
1F
100
AcDbEntity
  8
LC-002-100-D00-0
 62
     7
370
    50
100
AcDbLine
 10
836.246402
 20
441.654312
 30
0.0
 11
822.250242
 21
446.3197
 31
0.0
  0
LINE
  5
81
330
1F
100
AcDbEntity
  8
LC-002-100-D00-0
 62
     7
370
    50
100
AcDbLine
 10
811.478324
 20
446.3197
 30
0.0
 11
797.482164
 21
441.654312
 31
0.0
  0
LINE
  5
82
330
1F
100
AcDbEntity
  8
LC-002-100-D00-0
 62
     7
370
    50
100
AcDbLine
 10
868.364283
 20
466.948353
 30
0.0
 11
868.364283
 21
464.948353
 31
0.0
  0
LINE
  5
83
330
1F
100
AcDbEntity
  8
LC-002-100-D00-0
 62
     7
370
    50
100
AcDbLine
 10
868.364283
 20
464.948353
 30
0.0
 11
894.364283
 21
464.948353
 31
0.0
  0
LINE
  5
84
330
1F
100
AcDbEntity
  8
LC-002-100-D00-0
 62
     7
370
    50
100
AcDbLine
 10
894.364283
 20
466.948353
 30
0.0
 11
894.364283
 21
464.948353
 31
0.0
  0
LINE
  5
85
330
1F
100
AcDbEntity
  8
LC-002-100-D00-0
 62
     7
370
    50
100
AcDbLine
 10
868.364283
 20
462.948353
 30
0.0
 11
868.364283
 21
464.948353
 31
0.0
  0
LINE
  5
86
330
1F
100
AcDbEntity
  8
LC-002-100-D00-0
 62
     7
370
    50
100
AcDbLine
 10
894.364283
 20
464.948353
 30
0.0
 11
894.364283
 21
462.948353
 31
0.0
  0
LINE
  5
87
330
1F
100
AcDbEntity
  8
LC-002-100-D00-0
 62
     7
370
    50
100
AcDbLine
 10
894.364283
 20
437.848353
 30
0.0
 11
891.923891
 21
437.848352
 31
0.0
  0
LINE
  5
88
330
1F
100
AcDbEntity
  8
LC-002-100-D00-0
 62
     7
370
    50
100
AcDbLine
 10
870.804676
 20
437.848352
 30
0.0
 11
868.364283
 21
437.848353
 31
0.0
  0
LINE
  5
89
330
1F
100
AcDbEntity
  8
LC-002-100-D00-0
 62
     7
370
    50
100
AcDbLine
 10
868.364283
 20
437.848353
 30
0.0
 11
868.364283
 21
441.848353
 31
0.0
  0
LINE
  5
8A
330
1F
100
AcDbEntity
  8
LC-002-100-D00-0
 62
     7
370
    50
100
AcDbLine
 10
894.364283
 20
441.848353
 30
0.0
 11
894.364283
 21
437.848353
 31
0.0
  0
LINE
  5
8B
330
1F
100
AcDbEntity
  8
LC-002-100-D00-0
 62
     7
370
    50
100
AcDbLine
 10
868.364283
 20
462.948353
 30
0.0
 11
868.364283
 21
441.848353
 31
0.0
  0
LINE
  5
8C
330
1F
100
AcDbEntity
  8
LC-002-100-D00-0
 62
     7
370
    50
100
AcDbLine
 10
894.364283
 20
462.948353
 30
0.0
 11
894.364283
 21
441.848353
 31
0.0
  0
LINE
  5
8D
330
1F
100
AcDbEntity
  8
LC-002-100-D00-0
 62
     7
370
    50
100
AcDbLine
 10
797.934423
 20
441.448352
 30
0.0
 11
796.215172
 21
441.448352
 31
0.0
  0
LINE
  5
8E
330
1F
100
AcDbEntity
  8
LC-002-100-D00-0
 62
     7
370
    50
100
AcDbLine
 10
837.513394
 20
441.448352
 30
0.0
 11
835.794143
 21
441.448352
 31
0.0
  0
LINE
  5
8F
330
1F
100
AcDbEntity
  8
LC-002-100-D00-0
 62
     7
370
    50
100
AcDbLine
 10
835.794143
 20
441.448352
 30
0.0
 11
797.934423
 21
441.448352
 31
0.0
  0
LINE
  5
90
330
1F
100
AcDbEntity
  8
LC-002-100-D00-0
 62
     7
370
    50
100
AcDbLine
 10
856.364283
 20
465.548353
 30
0.0
 11
847.364283
 21
465.548353
 31
0.0
  0
LINE
  5
91
330
1F
100
AcDbEntity
  8
LC-002-100-D00-0
 62
     7
370
    50
100
AcDbLine
 10
777.364283
 20
465.548353
 30
0.0
 11
786.364283
 21
465.548353
 31
0.0
  0
LINE
  5
92
330
1F
100
AcDbEntity
  8
LC-002-100-D00-0
 62
     7
370
    50
100
AcDbLine
 10
777.864283
 20
451.948353
 30
0.0
 11
785.864283
 21
451.948353
 31
0.0
  0
LINE
  5
93
330
1F
100
AcDbEntity
  8
LC-002-100-D00-0
 62
     7
370
    50
100
AcDbLine
 10
855.864283
 20
451.948353
 30
0.0
 11
847.864283
 21
451.948353
 31
0.0
  0
LINE
  5
94
330
1F
100
AcDbEntity
  8
LC-002-100-D00-0
 62
     7
370
    50
100
AcDbLine
 10
872.522359
 20
341.948357
 30
0.0
 11
890.232177
 21
341.948357
 31
0.0
  0
LINE
  5
95
330
1F
100
AcDbEntity
  8
LC-002-100-D00-0
 62
     7
370
    50
100
AcDbLine
 10
883.302002
 20
333.948353
 30
0.0
 11
871.864283
 21
333.948353
 31
0.0
  0
LINE
  5
96
330
1F
100
AcDbEntity
  8
LC-002-100-D00-0
 62
     7
370
    50
100
AcDbLine
 10
890.864283
 20
333.948353
 30
0.0
 11
883.302002
 21
333.948353
 31
0.0
  0
LINE
  5
97
330
1F
100
AcDbEntity
  8
LC-002-100-D00-0
 62
     7
370
    50
100
AcDbLine
 10
869.364283
 20
435.948353
 30
0.0
 11
869.364281
 21
437.848352
 31
0.0
  0
LINE
  5
98
330
1F
100
AcDbEntity
  8
LC-002-100-D00-0
 62
     7
370
    50
100
AcDbLine
 10
875.364283
 20
435.948353
 30
0.0
 11
869.364283
 21
435.948353
 31
0.0
  0
LINE
  5
99
330
1F
100
AcDbEntity
  8
LC-002-100-D00-0
 62
     7
370
    50
100
AcDbLine
 10
871.749423
 20
437.948353
 30
0.0
 11
875.364283
 21
437.948353
 31
0.0
  0
LINE
  5
9A
330
1F
100
AcDbEntity
  8
LC-002-100-D00-0
 62
     7
370
    50
100
AcDbLine
 10
887.364283
 20
435.948353
 30
0.0
 11
875.364283
 21
435.948353
 31
0.0
  0
LINE
  5
9B
330
1F
100
AcDbEntity
  8
LC-002-100-D00-0
 62
     7
370
    50
100
AcDbLine
 10
887.364283
 20
437.948353
 30
0.0
 11
875.364283
 21
437.948353
 31
0.0
  0
LINE
  5
9C
330
1F
100
AcDbEntity
  8
LC-002-100-D00-0
 62
     7
370
    50
100
AcDbLine
 10
893.364281
 20
437.848352
 30
0.0
 11
893.364283
 21
435.948353
 31
0.0
  0
LINE
  5
9D
330
1F
100
AcDbEntity
  8
LC-002-100-D00-0
 62
     7
370
    50
100
AcDbLine
 10
893.364283
 20
435.948353
 30
0.0
 11
887.364283
 21
435.948353
 31
0.0
  0
LINE
  5
9E
330
1F
100
AcDbEntity
  8
LC-002-100-D00-0
 62
     7
370
    50
100
AcDbLine
 10
887.364283
 20
437.948353
 30
0.0
 11
890.979142
 21
437.948353
 31
0.0
  0
LINE
  5
9F
330
1F
100
AcDbEntity
  8
LC-002-100-D00-0
 62
     7
370
    50
100
AcDbLine
 10
884.864283
 20
410.948353
 30
0.0
 11
877.864283
 21
410.948353
 31
0.0
  0
LINE
  5
A0
330
1F
100
AcDbEntity
  8
LC-002-100-D00-0
 62
     7
370
    50
100
AcDbLine
 10
889.864283
 20
410.948353
 30
0.0
 11
884.864283
 21
410.948353
 31
0.0
  0
LINE
  5
A1
330
1F
100
AcDbEntity
  8
LC-002-100-D00-0
 62
     7
370
    50
100
AcDbLine
 10
877.864283
 20
410.948353
 30
0.0
 11
872.864283
 21
410.948353
 31
0.0
  0
LINE
  5
A2
330
1F
100
AcDbEntity
  8
LC-002-100-D00-0
 62
     7
370
    50
100
AcDbLine
 10
869.364283
 20
410.948353
 30
0.0
 11
869.364283
 21
435.948353
 31
0.0
  0
LINE
  5
A3
330
1F
100
AcDbEntity
  8
LC-002-100-D00-0
 62
     7
370
    50
100
AcDbLine
 10
872.864283
 20
410.948353
 30
0.0
 11
869.364283
 21
410.948353
 31
0.0
  0
LINE
  5
A4
330
1F
100
AcDbEntity
  8
LC-002-100-D00-0
 62
     7
370
    50
100
AcDbLine
 10
893.364283
 20
435.948353
 30
0.0
 11
893.364283
 21
410.948353
 31
0.0
  0
LINE
  5
A5
330
1F
100
AcDbEntity
  8
LC-002-100-D00-0
 62
     7
370
    50
100
AcDbLine
 10
893.364283
 20
410.948353
 30
0.0
 11
889.864283
 21
410.948353
 31
0.0
  0
LINE
  5
A6
330
1F
100
AcDbEntity
  8
LC-002-100-D00-0
 62
     7
370
    50
100
AcDbLine
 10
871.364283
 20
353.448353
 30
0.0
 11
891.364283
 21
353.448353
 31
0.0
  0
LINE
  5
A7
330
1F
100
AcDbEntity
  8
LC-002-100-D00-0
 62
     7
370
    50
100
AcDbLine
 10
883.403988
 20
342.948353
 30
0.0
 11
891.364283
 21
342.948353
 31
0.0
  0
LINE
  5
A8
330
1F
100
AcDbEntity
  8
LC-002-100-D00-0
 62
     7
370
    50
100
AcDbLine
 10
871.364283
 20
342.948353
 30
0.0
 11
883.403988
 21
342.948353
 31
0.0
  0
LINE
  5
A9
330
1F
100
AcDbEntity
  8
LC-002-100-D00-0
 62
     7
370
    50
100
AcDbLine
 10
871.364283
 20
356.948353
 30
0.0
 11
891.364283
 21
356.948353
 31
0.0
  0
LINE
  5
AA
330
1F
100
AcDbEntity
  8
LC-002-100-D00-0
 62
     7
370
    50
100
AcDbLine
 10
883.200017
 20
341.948353
 30
0.0
 11
872.364283
 21
341.948353
 31
0.0
  0
LINE
  5
AB
330
1F
100
AcDbEntity
  8
LC-002-100-D00-0
 62
     7
370
    50
100
AcDbLine
 10
890.364283
 20
341.948353
 30
0.0
 11
883.200017
 21
341.948353
 31
0.0
  0
LINE
  5
AC
330
1F
100
AcDbEntity
  8
LC-002-100-D00-0
 62
     7
370
    50
100
AcDbLine
 10
851.864283
 20
441.948353
 30
0.0
 11
847.464283
 21
441.948353
 31
0.0
  0
LINE
  5
AD
330
1F
100
AcDbEntity
  8
LC-002-100-D00-0
 62
     7
370
    50
100
AcDbLine
 10
856.264283
 20
441.948353
 30
0.0
 11
851.864283
 21
441.948353
 31
0.0
  0
LINE
  5
AE
330
1F
100
AcDbEntity
  8
LC-002-100-D00-0
 62
     7
370
    50
100
AcDbLine
 10
781.864283
 20
441.948353
 30
0.0
 11
777.464283
 21
441.948353
 31
0.0
  0
LINE
  5
AF
330
1F
100
AcDbEntity
  8
LC-002-100-D00-0
 62
     7
370
    50
100
AcDbLine
 10
786.264283
 20
441.948353
 30
0.0
 11
781.864283
 21
441.948353
 31
0.0
  0
LINE
  5
B0
330
1F
100
AcDbEntity
  8
LC-002-100-D00-0
 62
     7
370
    50
100
AcDbLine
 10
781.364283
 20
447.948353
 30
0.0
 11
789.364283
 21
447.948352
 31
0.0
  0
LINE
  5
B1
330
1F
100
AcDbEntity
  8
LC-002-100-D00-0
 62
     7
370
    50
100
AcDbLine
 10
781.364283
 20
450.948353
 30
0.0
 11
789.364283
 21
450.948353
 31
0.0
  0
LINE
  5
B2
330
1F
100
AcDbEntity
  8
LC-002-100-D00-0
 62
     7
370
    50
100
AcDbLine
 10
776.364283
 20
447.948353
 30
0.0
 11
776.364283
 21
450.948353
 31
0.0
  0
LINE
  5
B3
330
1F
100
AcDbEntity
  8
LC-002-100-D00-0
 62
     7
370
    50
100
AcDbLine
 10
776.364283
 20
450.948353
 30
0.0
 11
781.364283
 21
450.948353
 31
0.0
  0
LINE
  5
B4
330
1F
100
AcDbEntity
  8
LC-002-100-D00-0
 62
     7
370
    50
100
AcDbLine
 10
781.364283
 20
447.948353
 30
0.0
 11
776.364283
 21
447.948353
 31
0.0
  0
LINE
  5
B5
330
1F
100
AcDbEntity
  8
LC-002-100-D00-0
 62
     7
370
    50
100
AcDbLine
 10
857.364283
 20
450.948353
 30
0.0
 11
857.364283
 21
447.948353
 31
0.0
  0
LINE
  5
B6
330
1F
100
AcDbEntity
  8
LC-002-100-D00-0
 62
     7
370
    50
100
AcDbLine
 10
857.364283
 20
447.948353
 30
0.0
 11
852.364283
 21
447.948353
 31
0.0
  0
LINE
  5
B7
330
1F
100
AcDbEntity
  8
LC-002-100-D00-0
 62
     7
370
    50
100
AcDbLine
 10
852.364283
 20
450.948353
 30
0.0
 11
857.364283
 21
450.948353
 31
0.0
  0
LINE
  5
B8
330
1F
100
AcDbEntity
  8
LC-002-100-D00-0
 62
     7
370
    50
100
AcDbLine
 10
844.364283
 20
447.948352
 30
0.0
 11
852.364283
 21
447.948353
 31
0.0
  0
LINE
  5
B9
330
1F
100
AcDbEntity
  8
LC-002-100-D00-0
 62
     7
370
    50
100
AcDbLine
 10
844.364283
 20
450.948353
 30
0.0
 11
852.364283
 21
450.948353
 31
0.0
  0
LINE
  5
BA
330
1F
100
AcDbEntity
  8
LC-002-100-D00-0
 62
     7
370
    50
100
AcDbLine
 10
854.811091
 20
417.698353
 30
0.0
 11
778.917474
 21
417.698353
 31
0.0
  0
LINE
  5
BB
330
1F
100
AcDbEntity
  8
LC-002-100-D00-0
 62
     7
370
    50
100
AcDbLine
 10
776.364283
 20
450.948353
 30
0.0
 11
776.364283
 21
451.948353
 31
0.0
  0
LINE
  5
BC
330
1F
100
AcDbEntity
  8
LC-002-100-D00-0
 62
     7
370
    50
100
AcDbLine
 10
857.364283
 20
451.948353
 30
0.0
 11
857.364283
 21
450.948353
 31
0.0
  0
LINE
  5
BD
330
1F
100
AcDbEntity
  8
LC-002-100-D00-0
 62
     7
370
    50
100
AcDbLine
 10
776.364283
 20
451.948353
 30
0.0
 11
776.364283
 21
466.948353
 31
0.0
  0
LINE
  5
BE
330
1F
100
AcDbEntity
  8
LC-002-100-D00-0
 62
     7
370
    50
100
AcDbLine
 10
776.364283
 20
417.698353
 30
0.0
 11
776.364283
 21
445.948353
 31
0.0
  0
LINE
  5
BF
330
1F
100
AcDbEntity
  8
LC-002-100-D00-0
 62
     7
370
    50
100
AcDbLine
 10
778.917474
 20
417.698353
 30
0.0
 11
776.364283
 21
417.698353
 31
0.0
  0
LINE
  5
C0
330
1F
100
AcDbEntity
  8
LC-002-100-D00-0
 62
     7
370
    50
100
AcDbLine
 10
857.364283
 20
466.948353
 30
0.0
 11
857.364283
 21
451.948353
 31
0.0
  0
LINE
  5
C1
330
1F
100
AcDbEntity
  8
LC-002-100-D00-0
 62
     7
370
    50
100
AcDbLine
 10
857.364283
 20
445.948353
 30
0.0
 11
857.364283
 21
417.698353
 31
0.0
  0
LINE
  5
C2
330
1F
100
AcDbEntity
  8
LC-002-100-D00-0
 62
     7
370
    50
100
AcDbLine
 10
857.364283
 20
417.698353
 30
0.0
 11
854.811091
 21
417.698353
 31
0.0
  0
LINE
  5
C3
330
1F
100
AcDbEntity
  8
LC-002-100-D00-0
 62
     7
370
    50
100
AcDbLine
 10
843.906836
 20
364.948353
 30
0.0
 11
789.82173
 21
364.948353
 31
0.0
  0
LINE
  5
C4
330
1F
100
AcDbEntity
  8
LC-002-100-D00-0
 62
     7
370
    50
100
AcDbLine
 10
778.917474
 20
417.698353
 30
0.0
 11
854.811091
 21
417.698353
 31
0.0
  0
LINE
  5
C5
330
1F
100
AcDbEntity
  8
LC-002-100-D00-0
 62
     7
370
    50
100
AcDbLine
 10
837.37988
 20
358.448353
 30
0.0
 11
796.348685
 21
358.448353
 31
0.0
  0
LINE
  5
C6
330
1F
100
AcDbEntity
  8
LC-002-100-D00-0
 62
     7
370
    50
100
AcDbLine
 10
857.364283
 20
417.698353
 30
0.0
 11
857.364283
 21
377.448353
 31
0.0
  0
LINE
  5
C7
330
1F
100
AcDbEntity
  8
LC-002-100-D00-0
 62
     7
370
    50
100
AcDbLine
 10
854.811091
 20
417.698353
 30
0.0
 11
857.364283
 21
417.698353
 31
0.0
  0
ARC
  5
C8
330
1F
100
AcDbEntity
  8
LC-002-100-D00-0
 62
     7
370
    50
100
AcDbCircle
 10
844.864283
 20
377.448353
 30
0.0
 40
12.5
100
AcDbArc
 50
270.0
 51
0.0
  0
LINE
  5
C9
330
1F
100
AcDbEntity
  8
LC-002-100-D00-0
 62
     7
370
    50
100
AcDbLine
 10
844.864283
 20
364.948353
 30
0.0
 11
843.906836
 21
364.948353
 31
0.0
  0
LINE
  5
CA
330
1F
100
AcDbEntity
  8
LC-002-100-D00-0
 62
     7
370
    50
100
AcDbLine
 10
776.364283
 20
377.448353
 30
0.0
 11
776.364283
 21
417.698353
 31
0.0
  0
LINE
  5
CB
330
1F
100
AcDbEntity
  8
LC-002-100-D00-0
 62
     7
370
    50
100
AcDbLine
 10
776.364283
 20
417.698353
 30
0.0
 11
778.917474
 21
417.698353
 31
0.0
  0
ARC
  5
CC
330
1F
100
AcDbEntity
  8
LC-002-100-D00-0
 62
     7
370
    50
100
AcDbCircle
 10
788.864283
 20
377.448353
 30
0.0
 40
12.50000000000046
100
AcDbArc
 50
180.0
 51
270.0
  0
LINE
  5
CD
330
1F
100
AcDbEntity
  8
LC-002-100-D00-0
 62
     7
370
    50
100
AcDbLine
 10
789.82173
 20
364.948353
 30
0.0
 11
788.864283
 21
364.948353
 31
0.0
  0
ARC
  5
CE
330
1F
100
AcDbEntity
  8
LC-002-100-D00-0
 62
     7
370
    50
100
AcDbCircle
 10
796.346403
 20
365.448353
 30
0.0
 40
6.999999999999882
100
AcDbArc
 50
184.096044
 51
270.0
  0
LINE
  5
CF
330
1F
100
AcDbEntity
  8
LC-002-100-D00-0
 62
     7
370
    50
100
AcDbLine
 10
796.348685
 20
358.448353
 30
0.0
 11
796.346403
 21
358.448353
 31
0.0
  0
ARC
  5
D0
330
1F
100
AcDbEntity
  8
LC-002-100-D00-0
 62
     7
370
    50
100
AcDbCircle
 10
837.382163
 20
365.448353
 30
0.0
 40
7.0
100
AcDbArc
 50
270.0
 51
355.903956
  0
LINE
  5
D1
330
1F
100
AcDbEntity
  8
LC-002-100-D00-0
 62
     7
370
    50
100
AcDbLine
 10
837.382163
 20
358.448353
 30
0.0
 11
837.37988
 21
358.448353
 31
0.0
  0
LINE
  5
D2
330
1F
100
AcDbEntity
  8
LC-002-100-D00-0
 62
     7
370
    50
100
AcDbLine
 10
851.864283
 20
445.948353
 30
0.0
 11
857.364283
 21
445.948353
 31
0.0
  0
LINE
  5
D3
330
1F
100
AcDbEntity
  8
LC-002-100-D00-0
 62
     7
370
    50
100
AcDbLine
 10
846.364283
 20
445.948353
 30
0.0
 11
851.864283
 21
445.948353
 31
0.0
  0
LINE
  5
D4
330
1F
100
AcDbEntity
  8
LC-002-100-D00-0
 62
     7
370
    50
100
AcDbLine
 10
781.864283
 20
445.948353
 30
0.0
 11
787.364283
 21
445.948353
 31
0.0
  0
LINE
  5
D5
330
1F
100
AcDbEntity
  8
LC-002-100-D00-0
 62
     7
370
    50
100
AcDbLine
 10
776.364283
 20
445.948353
 30
0.0
 11
781.864283
 21
445.948353
 31
0.0
  0
DIMENSION
  5
D8
330
1F
100
AcDbEntity
  8
LC-002-100-D00-0
 62
     7
370
    25
100
AcDbDimension
  2
*D1
 10
857.364283
 20
278.617005
 30
0.0
 11
885.695676
 21
333.617005
 31
0.0
 70
   160
  1
81
 71
     5
 42
81.0
  3
LC-DIM-L-0100-02-02
100
AcDbAlignedDimension
 13
776.364283
 23
377.448353
 33
0.0
 14
857.364283
 24
377.448353
 34
0.0
100
AcDbRotatedDimension
  0
LINE
  5
E8
330
1F
100
AcDbEntity
  8
LC-002-100-D00-0
  6
DASHDOT
 62
     7
370
    25
100
AcDbLine
 10
816.864283
 20
358.448353
 30
0.0
 11
816.864283
 21
468.448353
 31
0.0
  0
LINE
  5
E9
330
1F
100
AcDbEntity
  8
LC-002-100-D00-0
  6
DASHDOT
 62
     7
370
    25
100
AcDbLine
 10
881.364283
 20
346.948353
 30
0.0
 11
881.364283
 21
470.948353
 31
0.0
  0
LINE
  5
EA
330
1F
100
AcDbEntity
  8
LC-002-100-D00-0
 62
     7
370
    50
100
AcDbLine
 10
463.016837
 20
70.354182
 30
0.0
 11
463.016837
 21
68.854182
 31
0.0
  0
LINE
  5
EB
330
1F
100
AcDbEntity
  8
LC-002-100-D00-0
 62
     7
370
    50
100
AcDbLine
 10
463.016837
 20
68.854182
 30
0.0
 11
458.016837
 21
68.854182
 31
0.0
  0
LINE
  5
EC
330
1F
100
AcDbEntity
  8
LC-002-100-D00-0
 62
     7
370
    50
100
AcDbLine
 10
458.016837
 20
70.354182
 30
0.0
 11
463.016837
 21
70.354182
 31
0.0
  0
LINE
  5
ED
330
1F
100
AcDbEntity
  8
LC-002-100-D00-0
 62
     7
370
    50
100
AcDbLine
 10
-431.983163
 20
68.854182
 30
0.0
 11
458.016837
 21
68.854182
 31
0.0
  0
LINE
  5
EE
330
1F
100
AcDbEntity
  8
LC-002-100-D00-0
 62
     7
370
    50
100
AcDbLine
 10
-431.983163
 20
70.354182
 30
0.0
 11
458.016837
 21
70.354182
 31
0.0
  0
LINE
  5
EF
330
1F
100
AcDbEntity
  8
LC-002-100-D00-0
 62
     7
370
    50
100
AcDbLine
 10
-436.983163
 20
68.854182
 30
0.0
 11
-436.983163
 21
70.354182
 31
0.0
  0
LINE
  5
F0
330
1F
100
AcDbEntity
  8
LC-002-100-D00-0
 62
     7
370
    50
100
AcDbLine
 10
-431.983163
 20
68.854182
 30
0.0
 11
-436.983163
 21
68.854182
 31
0.0
  0
LINE
  5
F1
330
1F
100
AcDbEntity
  8
LC-002-100-D00-0
 62
     7
370
    50
100
AcDbLine
 10
-436.983163
 20
70.354182
 30
0.0
 11
-431.983163
 21
70.354182
 31
0.0
  0
LINE
  5
F2
330
1F
100
AcDbEntity
  8
LC-002-100-D00-0
 62
     7
370
    50
100
AcDbLine
 10
-436.983163
 20
67.354182
 30
0.0
 11
-436.983163
 21
68.854182
 31
0.0
  0
LINE
  5
F3
330
1F
100
AcDbEntity
  8
LC-002-100-D00-0
 62
     7
370
    50
100
AcDbLine
 10
463.016837
 20
68.854182
 30
0.0
 11
463.016837
 21
67.354182
 31
0.0
  0
ARC
  5
F4
330
1F
100
AcDbEntity
  8
LC-002-100-D00-0
 62
     7
370
    50
100
AcDbCircle
 10
410.516837
 20
0.854182
 30
0.0
 40
2.5
100
AcDbArc
 50
270.0
 51
0.0
  0
ARC
  5
F5
330
1F
100
AcDbEntity
  8
LC-002-100-D00-0
 62
     7
370
    50
100
AcDbCircle
 10
410.516837
 20
47.854182
 30
0.0
 40
2.5
100
AcDbArc
 50
0.0
 51
90.0
  0
LINE
  5
F6
330
1F
100
AcDbEntity
  8
LC-002-100-D00-0
 62
     7
370
    50
100
AcDbLine
 10
413.016837
 20
0.854182
 30
0.0
 11
413.016837
 21
47.854182
 31
0.0
  0
LINE
  5
F7
330
1F
100
AcDbEntity
  8
LC-002-100-D00-0
 62
     7
370
    50
100
AcDbLine
 10
410.516837
 20
-1.645818
 30
0.0
 11
-384.483163
 21
-1.645818
 31
0.0
  0
LINE
  5
F8
330
1F
100
AcDbEntity
  8
LC-002-100-D00-0
 62
     7
370
    50
100
AcDbLine
 10
-384.483163
 20
50.354182
 30
0.0
 11
410.516837
 21
50.354182
 31
0.0
  0
ARC
  5
F9
330
1F
100
AcDbEntity
  8
LC-002-100-D00-0
 62
     7
370
    50
100
AcDbCircle
 10
-384.483163
 20
47.854182
 30
0.0
 40
2.500000000000341
100
AcDbArc
 50
90.0
 51
180.0
  0
ARC
  5
FA
330
1F
100
AcDbEntity
  8
LC-002-100-D00-0
 62
     7
370
    50
100
AcDbCircle
 10
-384.483163
 20
0.854182
 30
0.0
 40
2.5
100
AcDbArc
 50
180.0
 51
270.0
  0
LINE
  5
FB
330
1F
100
AcDbEntity
  8
LC-002-100-D00-0
 62
     7
370
    50
100
AcDbLine
 10
-386.983163
 20
0.854182
 30
0.0
 11
-386.983163
 21
47.854182
 31
0.0
  0
LINE
  5
FC
330
1F
100
AcDbEntity
  8
LC-002-100-D00-0
 62
     7
370
    50
100
AcDbLine
 10
-431.983163
 20
-53.145818
 30
0.0
 11
458.016837
 21
-53.145818
 31
0.0
  0
ARC
  5
FD
330
1F
100
AcDbEntity
  8
LC-002-100-D00-0
 62
     7
370
    50
100
AcDbCircle
 10
-431.983163
 20
-48.145818
 30
0.0
 40
5.0
100
AcDbArc
 50
180.0
 51
270.0
  0
ARC
  5
FE
330
1F
100
AcDbEntity
  8
LC-002-100-D00-0
 62
     7
370
    50
100
AcDbCircle
 10
458.016837
 20
-48.145818
 30
0.0
 40
5.0
100
AcDbArc
 50
270.0
 51
0.0
  0
LINE
  5
FF
330
1F
100
AcDbEntity
  8
LC-002-100-D00-0
 62
     7
370
    50
100
AcDbLine
 10
-436.983163
 20
67.354182
 30
0.0
 11
-436.983163
 21
-48.145818
 31
0.0
  0
LINE
  5
100
330
1F
100
AcDbEntity
  8
LC-002-100-D00-0
 62
     7
370
    50
100
AcDbLine
 10
463.016837
 20
67.354182
 30
0.0
 11
463.016837
 21
-48.145818
 31
0.0
  0
CIRCLE
  5
101
330
1F
100
AcDbEntity
  8
LC-002-100-D00-0
 62
     7
370
    50
100
AcDbCircle
 10
383.016837
 20
24.354182
 30
0.0
 40
2.999999999999773
  0
CIRCLE
  5
102
330
1F
100
AcDbEntity
  8
LC-002-100-D00-0
 62
     7
370
    50
100
AcDbCircle
 10
248.016837
 20
24.354182
 30
0.0
 40
3.0
  0
CIRCLE
  5
103
330
1F
100
AcDbEntity
  8
LC-002-100-D00-0
 62
     7
370
    50
100
AcDbCircle
 10
113.016837
 20
24.354182
 30
0.0
 40
3.0
  0
CIRCLE
  5
104
330
1F
100
AcDbEntity
  8
LC-002-100-D00-0
 62
     7
370
    50
100
AcDbCircle
 10
-86.983163
 20
24.354182
 30
0.0
 40
3.0
  0
CIRCLE
  5
105
330
1F
100
AcDbEntity
  8
LC-002-100-D00-0
 62
     7
370
    50
100
AcDbCircle
 10
-221.983163
 20
24.354182
 30
0.0
 40
3.0
  0
CIRCLE
  5
106
330
1F
100
AcDbEntity
  8
LC-002-100-D00-0
 62
     7
370
    50
100
AcDbCircle
 10
-356.983163
 20
24.354182
 30
0.0
 40
3.0
  0
LINE
  5
107
330
1F
100
AcDbEntity
  8
LC-002-100-D00-0
 62
     7
370
    50
100
AcDbLine
 10
404.99066
 20
12.031513
 30
0.0
 11
404.99066
 21
0.854182
 31
0.0
  0
INSERT
  5
10E
330
1F
100
AcDbEntity
  8
LC-002-100-D00-0
 62
     7
370
    50
100
AcDbBlockReference
  2
KLON1
 10
0.0
 20
0.0
 30
0.0
  0
INSERT
  5
116
330
1F
100
AcDbEntity
  8
LC-002-100-D00-0
 62
     7
370
    50
100
AcDbBlockReference
  2
KLON2
 10
0.0
 20
0.0
 30
0.0
  0
LINE
  5
117
330
1F
100
AcDbEntity
  8
LC-002-100-D00-0
 62
     7
370
    50
100
AcDbLine
 10
404.99066
 20
47.839542
 30
0.0
 11
404.99066
 21
36.67685
 31
0.0
  0
INSERT
  5
11D
330
1F
100
AcDbEntity
  8
LC-002-100-D00-0
 62
     7
370
    50
100
AcDbBlockReference
  2
KLON3
 10
0.0
 20
0.0
 30
0.0
  0
INSERT
  5
123
330
1F
100
AcDbEntity
  8
LC-002-100-D00-0
 62
     7
370
    50
100
AcDbBlockReference
  2
KLON4
 10
0.0
 20
0.0
 30
0.0
  0
INSERT
  5
129
330
1F
100
AcDbEntity
  8
LC-002-100-D00-0
 62
     7
370
    50
100
AcDbBlockReference
  2
KLON5
 10
0.0
 20
0.0
 30
0.0
  0
LINE
  5
12A
330
1F
100
AcDbEntity
  8
LC-002-100-D00-0
 62
     7
370
    50
100
AcDbLine
 10
-378.956986
 20
47.839542
 30
0.0
 11
-378.956986
 21
36.67685
 31
0.0
  0
INSERT
  5
132
330
1F
100
AcDbEntity
  8
LC-002-100-D00-0
 62
     7
370
    50
100
AcDbBlockReference
  2
KLON6
 10
0.0
 20
0.0
 30
0.0
  0
INSERT
  5
139
330
1F
100
AcDbEntity
  8
LC-002-100-D00-0
 62
     7
370
    50
100
AcDbBlockReference
  2
KLON7
 10
0.0
 20
0.0
 30
0.0
  0
LINE
  5
13A
330
1F
100
AcDbEntity
  8
LC-002-100-D00-0
 62
     7
370
    50
100
AcDbLine
 10
-378.956986
 20
12.031513
 30
0.0
 11
-378.956986
 21
0.854182
 31
0.0
  0
INSERT
  5
140
330
1F
100
AcDbEntity
  8
LC-002-100-D00-0
 62
     7
370
    50
100
AcDbBlockReference
  2
KLON8
 10
0.0
 20
0.0
 30
0.0
  0
ELLIPSE
  5
141
330
1F
100
AcDbEntity
  8
LC-002-100-D00-0
 62
     7
370
    50
100
AcDbEllipse
 10
404.943869
 20
0.854182
 30
0.0
 11
0.0
 21
-2.5
 31
0.0
210
0.0
220
0.0
230
1.0
 40
0.018242
 41
3.141592653594779
 42
4.712388980377186
  0
ELLIPSE
  5
142
330
1F
100
AcDbEntity
  8
LC-002-100-D00-0
 62
     7
370
    50
100
AcDbEllipse
 10
267.943869
 20
0.854182
 30
0.0
 11
0.0
 21
-2.5
 31
0.0
210
0.0
220
0.0
230
1.0
 40
0.018242
 41
3.141592653591039
 42
4.712388980381052
  0
ELLIPSE
  5
143
330
1F
100
AcDbEntity
  8
LC-002-100-D00-0
 62
     7
370
    50
100
AcDbEllipse
 10
473.489474
 20
0.854182
 30
0.0
 11
68.4999999999998
 21
0.0
 31
0.0
210
0.0
220
0.0
230
1.0
 40
0.036496
 41
3.141592653597524
 42
3.169858841660708
  0
ELLIPSE
  5
144
330
1F
100
AcDbEntity
  8
LC-002-100-D00-0
 62
     7
370
    50
100
AcDbEllipse
 10
-378.910194
 20
0.854182
 30
0.0
 11
0.0
 21
-2.500000015258789
 31
0.0
210
0.0
220
0.0
230
1.0
 40
0.018242
 41
1.570796326802445
 42
3.141592653591039
  0
ELLIPSE
  5
145
330
1F
100
AcDbEntity
  8
LC-002-100-D00-0
 62
     7
370
    50
100
AcDbEllipse
 10
-241.910194
 20
0.854182
 30
0.0
 11
0.0
 21
-2.499999923706053
 31
0.0
210
0.0
220
0.0
230
1.0
 40
0.018242
 41
1.570796326798489
 42
3.141592653597895
  0
ELLIPSE
  5
146
330
1F
100
AcDbEntity
  8
LC-002-100-D00-0
 62
     7
370
    50
100
AcDbEllipse
 10
-447.4558
 20
0.854182
 30
0.0
 11
68.50000000816537
 21
0.0
 31
0.0
210
0.0
220
0.0
230
1.0
 40
0.036496
 41
6.254919119109449
 42
6.283185307179586
  0
ELLIPSE
  5
147
330
1F
100
AcDbEntity
  8
LC-002-100-D00-0
 62
     7
370
    50
100
AcDbEllipse
 10
473.489474
 20
47.854182
 30
0.0
 11
68.50000000000124
 21
0.0
 31
0.0
210
0.0
220
0.0
230
1.0
 40
0.036496
 41
3.141592653589793
 42
3.147448628039362
  0
ELLIPSE
  5
148
330
1F
100
AcDbEntity
  8
LC-002-100-D00-0
 62
     7
370
    50
100
AcDbEllipse
 10
404.943869
 20
47.854182
 30
0.0
 11
0.0
 21
-2.499999526977494
 31
0.0
210
0.0
220
0.0
230
1.0
 40
0.018242
 41
4.712388980384784
 42
6.283185334012575
  0
ELLIPSE
  5
149
330
1F
100
AcDbEntity
  8
LC-002-100-D00-0
 62
     7
370
    50
100
AcDbEllipse
 10
-447.4558
 20
47.854182
 30
0.0
 11
68.5000000073474
 21
0.0
 31
0.0
210
0.0
220
0.0
230
1.0
 40
0.036496
 41
6.277329332730962
 42
6.283185307179584
  0
ELLIPSE
  5
14A
330
1F
100
AcDbEntity
  8
LC-002-100-D00-0
 62
     7
370
    50
100
AcDbEllipse
 10
-378.910194
 20
47.854182
 30
0.0
 11
0.0
 21
-2.500000015258789
 31
0.0
210
0.0
220
0.0
230
1.0
 40
0.018242
 41
6.283185280337877
 42
7.853981633974668
  0
ELLIPSE
  5
14B
330
1F
100
AcDbEntity
  8
LC-002-100-D00-0
 62
     7
370
    50
100
AcDbEllipse
 10
267.943869
 20
47.854182
 30
0.0
 11
0.0
 21
-2.5
 31
0.0
210
0.0
220
0.0
230
1.0
 40
0.018242
 41
4.71238898038847
 42
6.283185320151105
  0
ELLIPSE
  5
14C
330
1F
100
AcDbEntity
  8
LC-002-100-D00-0
 62
     7
370
    50
100
AcDbEllipse
 10
-241.910194
 20
47.854182
 30
0.0
 11
0.0
 21
-2.5
 31
0.0
210
0.0
220
0.0
230
1.0
 40
0.018242
 41
6.28318529421056
 42
7.853981633970703
  0
LINE
  5
14D
330
1F
100
AcDbEntity
  8
LC-002-100-D00-0
 62
     7
370
    50
100
AcDbLine
 10
267.989474
 20
0.854182
 30
0.0
 11
267.989474
 21
3.704698
 31
0.0
  0
INSERT
  5
153
330
1F
100
AcDbEntity
  8
LC-002-100-D00-0
 62
     7
370
    50
100
AcDbBlockReference
  2
KLON9
 10
0.0
 20
0.0
 30
0.0
  0
INSERT
  5
159
330
1F
100
AcDbEntity
  8
LC-002-100-D00-0
 62
     7
370
    50
100
AcDbBlockReference
  2
KLON10
 10
0.0
 20
0.0
 30
0.0
  0
LINE
  5
15A
330
1F
100
AcDbEntity
  8
LC-002-100-D00-0
 62
     7
370
    50
100
AcDbLine
 10
-241.9558
 20
0.854182
 30
0.0
 11
-241.9558
 21
3.704698
 31
0.0
  0
INSERT
  5
161
330
1F
100
AcDbEntity
  8
LC-002-100-D00-0
 62
     7
370
    50
100
AcDbBlockReference
  2
KLON11
 10
0.0
 20
0.0
 30
0.0
  0
INSERT
  5
168
330
1F
100
AcDbEntity
  8
LC-002-100-D00-0
 62
     7
370
    50
100
AcDbBlockReference
  2
KLON12
 10
0.0
 20
0.0
 30
0.0
  0
INSERT
  5
16E
330
1F
100
AcDbEntity
  8
LC-002-100-D00-0
 62
     7
370
    50
100
AcDbBlockReference
  2
KLON13
 10
0.0
 20
0.0
 30
0.0
  0
INSERT
  5
175
330
1F
100
AcDbEntity
  8
LC-002-100-D00-0
 62
     7
370
    50
100
AcDbBlockReference
  2
KLON14
 10
0.0
 20
0.0
 30
0.0
  0
INSERT
  5
17C
330
1F
100
AcDbEntity
  8
LC-002-100-D00-0
 62
     7
370
    50
100
AcDbBlockReference
  2
KLON15
 10
0.0
 20
0.0
 30
0.0
  0
INSERT
  5
182
330
1F
100
AcDbEntity
  8
LC-002-100-D00-0
 62
     7
370
    50
100
AcDbBlockReference
  2
KLON16
 10
0.0
 20
0.0
 30
0.0
  0
LINE
  5
183
330
1F
100
AcDbEntity
  8
LC-002-100-D00-0
 62
     7
370
    50
100
AcDbLine
 10
267.989474
 20
45.003665
 30
0.0
 11
267.989474
 21
47.854181
 31
0.0
  0
LINE
  5
184
330
1F
100
AcDbEntity
  8
LC-002-100-D00-0
 62
     7
370
    50
100
AcDbLine
 10
-241.9558
 20
45.003665
 30
0.0
 11
-241.9558
 21
47.854181
 31
0.0
  0
LINE
  5
185
330
1F
100
AcDbEntity
  8
LC-002-100-D00-0
 62
     7
370
    50
100
AcDbLine
 10
268.003749
 20
4.498503
 30
0.0
 11
268.003749
 21
18.493231
 31
0.0
  0
ELLIPSE
  5
186
330
1F
100
AcDbEntity
  8
LC-002-100-D00-0
 62
     7
370
    15
100
AcDbEllipse
 10
181.304311
 20
166.799716
 30
0.0
 11
28.64933018561367
 21
1.713494940947308
 31
0.0
210
0.0
220
0.0
230
1.0
 40
0.016531
 41
6.280994665932699
 42
6.282196627510337
  0
ELLIPSE
  5
187
330
1F
100
AcDbEntity
  8
LC-002-100-D00-0
 62
     7
370
    15
100
AcDbEllipse
 10
181.304311
 20
178.168039
 30
0.0
 11
28.64933025630985
 21
-1.713494945175595
 31
0.0
210
0.0
220
0.0
230
1.0
 40
0.016531
 41
0.0009886796614376
 42
0.0021906412388436
  0
LINE
  5
188
330
1F
100
AcDbEntity
  8
LC-002-100-D00-0
 62
     7
370
    50
100
AcDbLine
 10
268.003749
 20
30.215132
 30
0.0
 11
268.003749
 21
44.20986
 31
0.0
  0
ELLIPSE
  5
189
330
1F
100
AcDbEntity
  8
LC-002-100-D00-0
 62
     7
370
    15
100
AcDbEllipse
 10
136.608236
 20
166.799716
 30
0.0
 11
28.64933027406909
 21
-1.713494946237819
 31
0.0
210
0.0
220
0.0
230
1.0
 40
0.016531
 41
3.14258133325624
 42
3.143783294834017
  0
LINE
  5
18A
330
1F
100
AcDbEntity
  8
LC-002-100-D00-0
 62
     7
370
    50
100
AcDbLine
 10
-241.970075
 20
4.498503
 30
0.0
 11
-241.970075
 21
18.493231
 31
0.0
  0
ELLIPSE
  5
18B
330
1F
100
AcDbEntity
  8
LC-002-100-D00-0
 62
     7
370
    15
100
AcDbEllipse
 10
136.608236
 20
178.168039
 30
0.0
 11
28.64933025460202
 21
1.71349494507345
 31
0.0
210
0.0
220
0.0
230
1.0
 40
0.016531
 41
3.139402012344176
 42
3.140603973921333
  0
LINE
  5
18C
330
1F
100
AcDbEntity
  8
LC-002-100-D00-0
 62
     7
370
    50
100
AcDbLine
 10
-241.970075
 20
30.215132
 30
0.0
 11
-241.970075
 21
44.20986
 31
0.0
  0
LINE
  5
18D
330
1F
100
AcDbEntity
  8
LC-002-100-D00-0
 62
     7
370
    50
100
AcDbLine
 10
267.989474
 20
3.705071
 30
0.0
 11
268.00363
 21
4.495641
 31
0.0
  0
LINE
  5
18E
330
1F
100
AcDbEntity
  8
LC-002-100-D00-0
 62
     7
370
    50
100
AcDbLine
 10
267.989474
 20
45.003292
 30
0.0
 11
268.00363
 21
44.212723
 31
0.0
  0
LINE
  5
18F
330
1F
100
AcDbEntity
  8
LC-002-100-D00-0
 62
     7
370
    50
100
AcDbLine
 10
-241.9558
 20
3.705071
 30
0.0
 11
-241.969956
 21
4.495641
 31
0.0
  0
LINE
  5
190
330
1F
100
AcDbEntity
  8
LC-002-100-D00-0
 62
     7
370
    50
100
AcDbLine
 10
-241.9558
 20
45.003292
 30
0.0
 11
-241.969956
 21
44.212723
 31
0.0
  0
ARC
  5
191
330
1F
100
AcDbEntity
  8
LC-002-100-D00-0
 62
     7
370
    50
100
AcDbCircle
 10
43.516829
 20
24.354202
 30
0.0
 40
24.80002105914457
100
AcDbArc
 50
270.0
 51
300.592807
  0
ARC
  5
192
330
1F
100
AcDbEntity
  8
LC-002-100-D00-0
 62
     7
370
    50
100
AcDbCircle
 10
-17.483155
 20
24.354202
 30
0.0
 40
24.80002105914413
100
AcDbArc
 50
239.407193
 51
270.0
  0
ARC
  5
193
330
1F
100
AcDbEntity
  8
LC-002-100-D00-0
 62
     7
370
    50
100
AcDbCircle
 10
43.516831
 20
24.354169
 30
0.0
 40
24.80001358063861
100
AcDbArc
 50
59.407188
 51
90.0
  0
ARC
  5
194
330
1F
100
AcDbEntity
  8
LC-002-100-D00-0
 62
     7
370
    50
100
AcDbCircle
 10
-17.483157
 20
24.354169
 30
0.0
 40
24.80001358063805
100
AcDbArc
 50
90.0
 51
120.592812
  0
LINE
  5
195
330
1F
100
AcDbEntity
  8
LC-002-100-D00-0
 62
     7
370
    50
100
AcDbLine
 10
-17.483163
 20
49.154182
 30
0.0
 11
43.516838
 21
49.154182
 31
0.0
  0
LINE
  5
196
330
1F
100
AcDbEntity
  8
LC-002-100-D00-0
 62
     7
370
    50
100
AcDbLine
 10
43.516838
 20
-0.445819
 30
0.0
 11
-17.483163
 21
-0.445819
 31
0.0
  0
LINE
  5
197
330
1F
100
AcDbEntity
  8
LC-002-100-D00-0
 62
     7
370
    50
100
AcDbLine
 10
-53.815996
 20
27.793085
 30
0.0
 11
-53.807852
 21
27.425193
 31
0.0
  0
LINE
  5
198
330
1F
100
AcDbEntity
  8
LC-002-100-D00-0
 62
     7
370
    50
100
AcDbLine
 10
-54.927272
 20
28.586053
 30
0.0
 11
-53.815996
 21
27.793085
 31
0.0
  0
LINE
  5
199
330
1F
100
AcDbEntity
  8
LC-002-100-D00-0
 62
     7
370
    50
100
AcDbLine
 10
-53.815996
 20
29.379022
 30
0.0
 11
-54.927272
 21
28.586053
 31
0.0
  0
LINE
  5
19A
330
1F
100
AcDbEntity
  8
LC-002-100-D00-0
 62
     7
370
    50
100
AcDbLine
 10
-53.815996
 20
29.75272
 30
0.0
 11
-53.815996
 21
29.379022
 31
0.0
  0
LINE
  5
19B
330
1F
100
AcDbEntity
  8
LC-002-100-D00-0
 62
     7
370
    50
100
AcDbLine
 10
-55.189495
 20
28.773253
 30
0.0
 11
-53.815996
 21
29.75272
 31
0.0
  0
LINE
  5
19C
330
1F
100
AcDbEntity
  8
LC-002-100-D00-0
 62
     7
370
    50
100
AcDbLine
 10
-56.373691
 20
29.618105
 30
0.0
 11
-55.189495
 21
28.773253
 31
0.0
  0
LINE
  5
19D
330
1F
100
AcDbEntity
  8
LC-002-100-D00-0
 62
     7
370
    50
100
AcDbLine
 10
-56.373691
 20
29.244406
 30
0.0
 11
-56.373691
 21
29.618105
 31
0.0
  0
LINE
  5
19E
330
1F
100
AcDbEntity
  8
LC-002-100-D00-0
 62
     7
370
    50
100
AcDbLine
 10
-55.451011
 20
28.586053
 30
0.0
 11
-56.373691
 21
29.244406
 31
0.0
  0
LINE
  5
19F
330
1F
100
AcDbEntity
  8
LC-002-100-D00-0
 62
     7
370
    50
100
AcDbLine
 10
-56.373691
 20
27.9277
 30
0.0
 11
-55.451011
 21
28.586053
 31
0.0
  0
LINE
  5
1A0
330
1F
100
AcDbEntity
  8
LC-002-100-D00-0
 62
     7
370
    50
100
AcDbLine
 10
-56.373691
 20
27.554002
 30
0.0
 11
-56.373691
 21
27.9277
 31
0.0
  0
LINE
  5
1A1
330
1F
100
AcDbEntity
  8
LC-002-100-D00-0
 62
     7
370
    50
100
AcDbLine
 10
-55.189495
 20
28.399555
 30
0.0
 11
-56.373691
 21
27.554002
 31
0.0
  0
LINE
  5
1A2
330
1F
100
AcDbEntity
  8
LC-002-100-D00-0
 62
     7
370
    50
100
AcDbLine
 10
-53.807852
 20
27.425193
 30
0.0
 11
-55.189495
 21
28.399555
 31
0.0
  0
LINE
  5
1A3
330
1F
100
AcDbEntity
  8
LC-002-100-D00-0
 62
     7
370
    50
100
AcDbLine
 10
-53.815996
 20
23.126418
 30
0.0
 11
-53.807852
 21
22.758526
 31
0.0
  0
LINE
  5
1A4
330
1F
100
AcDbEntity
  8
LC-002-100-D00-0
 62
     7
370
    50
100
AcDbLine
 10
-54.927272
 20
23.919387
 30
0.0
 11
-53.815996
 21
23.126418
 31
0.0
  0
LINE
  5
1A5
330
1F
100
AcDbEntity
  8
LC-002-100-D00-0
 62
     7
370
    50
100
AcDbLine
 10
-53.815996
 20
24.712355
 30
0.0
 11
-54.927272
 21
23.919387
 31
0.0
  0
LINE
  5
1A6
330
1F
100
AcDbEntity
  8
LC-002-100-D00-0
 62
     7
370
    50
100
AcDbLine
 10
-53.815996
 20
25.086053
 30
0.0
 11
-53.815996
 21
24.712355
 31
0.0
  0
LINE
  5
1A7
330
1F
100
AcDbEntity
  8
LC-002-100-D00-0
 62
     7
370
    50
100
AcDbLine
 10
-55.189495
 20
24.106586
 30
0.0
 11
-53.815996
 21
25.086053
 31
0.0
  0
LINE
  5
1A8
330
1F
100
AcDbEntity
  8
LC-002-100-D00-0
 62
     7
370
    50
100
AcDbLine
 10
-56.373691
 20
24.951438
 30
0.0
 11
-55.189495
 21
24.106586
 31
0.0
  0
LINE
  5
1A9
330
1F
100
AcDbEntity
  8
LC-002-100-D00-0
 62
     7
370
    50
100
AcDbLine
 10
-56.373691
 20
24.57774
 30
0.0
 11
-56.373691
 21
24.951438
 31
0.0
  0
LINE
  5
1AA
330
1F
100
AcDbEntity
  8
LC-002-100-D00-0
 62
     7
370
    50
100
AcDbLine
 10
-55.451011
 20
23.919387
 30
0.0
 11
-56.373691
 21
24.57774
 31
0.0
  0
LINE
  5
1AB
330
1F
100
AcDbEntity
  8
LC-002-100-D00-0
 62
     7
370
    50
100
AcDbLine
 10
-56.373691
 20
23.261033
 30
0.0
 11
-55.451011
 21
23.919387
 31
0.0
  0
LINE
  5
1AC
330
1F
100
AcDbEntity
  8
LC-002-100-D00-0
 62
     7
370
    50
100
AcDbLine
 10
-56.373691
 20
22.887335
 30
0.0
 11
-56.373691
 21
23.261033
 31
0.0
  0
LINE
  5
1AD
330
1F
100
AcDbEntity
  8
LC-002-100-D00-0
 62
     7
370
    50
100
AcDbLine
 10
-55.189495
 20
23.732888
 30
0.0
 11
-56.373691
 21
22.887335
 31
0.0
  0
LINE
  5
1AE
330
1F
100
AcDbEntity
  8
LC-002-100-D00-0
 62
     7
370
    50
100
AcDbLine
 10
-53.807852
 20
22.758526
 30
0.0
 11
-55.189495
 21
23.732888
 31
0.0
  0
LINE
  5
1AF
330
1F
100
AcDbEntity
  8
LC-002-100-D00-0
 62
     7
370
    50
100
AcDbLine
 10
-53.815996
 20
18.459751
 30
0.0
 11
-53.807852
 21
18.09186
 31
0.0
  0
LINE
  5
1B0
330
1F
100
AcDbEntity
  8
LC-002-100-D00-0
 62
     7
370
    50
100
AcDbLine
 10
-54.927272
 20
19.25272
 30
0.0
 11
-53.815996
 21
18.459751
 31
0.0
  0
LINE
  5
1B1
330
1F
100
AcDbEntity
  8
LC-002-100-D00-0
 62
     7
370
    50
100
AcDbLine
 10
-53.815996
 20
20.045689
 30
0.0
 11
-54.927272
 21
19.25272
 31
0.0
  0
LINE
  5
1B2
330
1F
100
AcDbEntity
  8
LC-002-100-D00-0
 62
     7
370
    50
100
AcDbLine
 10
-53.815996
 20
20.419387
 30
0.0
 11
-53.815996
 21
20.045689
 31
0.0
  0
LINE
  5
1B3
330
1F
100
AcDbEntity
  8
LC-002-100-D00-0
 62
     7
370
    50
100
AcDbLine
 10
-55.189495
 20
19.43992
 30
0.0
 11
-53.815996
 21
20.419387
 31
0.0
  0
LINE
  5
1B4
330
1F
100
AcDbEntity
  8
LC-002-100-D00-0
 62
     7
370
    50
100
AcDbLine
 10
-56.373691
 20
20.284771
 30
0.0
 11
-55.189495
 21
19.43992
 31
0.0
  0
LINE
  5
1B5
330
1F
100
AcDbEntity
  8
LC-002-100-D00-0
 62
     7
370
    50
100
AcDbLine
 10
-56.373691
 20
19.911073
 30
0.0
 11
-56.373691
 21
20.284771
 31
0.0
  0
LINE
  5
1B6
330
1F
100
AcDbEntity
  8
LC-002-100-D00-0
 62
     7
370
    50
100
AcDbLine
 10
-55.451011
 20
19.25272
 30
0.0
 11
-56.373691
 21
19.911073
 31
0.0
  0
LINE
  5
1B7
330
1F
100
AcDbEntity
  8
LC-002-100-D00-0
 62
     7
370
    50
100
AcDbLine
 10
-56.373691
 20
18.594367
 30
0.0
 11
-55.451011
 21
19.25272
 31
0.0
  0
LINE
  5
1B8
330
1F
100
AcDbEntity
  8
LC-002-100-D00-0
 62
     7
370
    50
100
AcDbLine
 10
-56.373691
 20
18.220668
 30
0.0
 11
-56.373691
 21
18.594367
 31
0.0
  0
LINE
  5
1B9
330
1F
100
AcDbEntity
  8
LC-002-100-D00-0
 62
     7
370
    50
100
AcDbLine
 10
-55.189495
 20
19.066221
 30
0.0
 11
-56.373691
 21
18.220668
 31
0.0
  0
LINE
  5
1BA
330
1F
100
AcDbEntity
  8
LC-002-100-D00-0
 62
     7
370
    50
100
AcDbLine
 10
-53.807852
 20
18.09186
 30
0.0
 11
-55.189495
 21
19.066221
 31
0.0
  0
LINE
  5
1BB
330
1F
100
AcDbEntity
  8
LC-002-100-D00-0
 62
     7
370
    50
100
AcDbLine
 10
-53.815996
 20
16.126418
 30
0.0
 11
-53.815996
 21
15.75272
 31
0.0
  0
LINE
  5
1BC
330
1F
100
AcDbEntity
  8
LC-002-100-D00-0
 62
     7
370
    50
100
AcDbLine
 10
-54.927272
 20
16.919386
 30
0.0
 11
-53.815996
 21
16.126418
 31
0.0
  0
LINE
  5
1BD
330
1F
100
AcDbEntity
  8
LC-002-100-D00-0
 62
     7
370
    50
100
AcDbLine
 10
-53.815996
 20
17.712355
 30
0.0
 11
-54.927272
 21
16.919386
 31
0.0
  0
LINE
  5
1BE
330
1F
100
AcDbEntity
  8
LC-002-100-D00-0
 62
     7
370
    50
100
AcDbLine
 10
-53.815996
 20
18.086053
 30
0.0
 11
-53.815996
 21
17.712355
 31
0.0
  0
LINE
  5
1BF
330
1F
100
AcDbEntity
  8
LC-002-100-D00-0
 62
     7
370
    50
100
AcDbLine
 10
-55.189495
 20
17.106586
 30
0.0
 11
-53.815996
 21
18.086053
 31
0.0
  0
LINE
  5
1C0
330
1F
100
AcDbEntity
  8
LC-002-100-D00-0
 62
     7
370
    50
100
AcDbLine
 10
-56.373691
 20
17.951438
 30
0.0
 11
-55.189495
 21
17.106586
 31
0.0
  0
LINE
  5
1C1
330
1F
100
AcDbEntity
  8
LC-002-100-D00-0
 62
     7
370
    50
100
AcDbLine
 10
-56.373691
 20
17.57774
 30
0.0
 11
-56.373691
 21
17.951438
 31
0.0
  0
LINE
  5
1C2
330
1F
100
AcDbEntity
  8
LC-002-100-D00-0
 62
     7
370
    50
100
AcDbLine
 10
-55.451011
 20
16.919386
 30
0.0
 11
-56.373691
 21
17.57774
 31
0.0
  0
LINE
  5
1C3
330
1F
100
AcDbEntity
  8
LC-002-100-D00-0
 62
     7
370
    50
100
AcDbLine
 10
-56.373691
 20
16.261033
 30
0.0
 11
-55.451011
 21
16.919386
 31
0.0
  0
LINE
  5
1C4
330
1F
100
AcDbEntity
  8
LC-002-100-D00-0
 62
     7
370
    50
100
AcDbLine
 10
-56.373691
 20
15.887335
 30
0.0
 11
-56.373691
 21
16.261033
 31
0.0
  0
LINE
  5
1C5
330
1F
100
AcDbEntity
  8
LC-002-100-D00-0
 62
     7
370
    50
100
AcDbLine
 10
-55.189495
 20
16.732888
 30
0.0
 11
-56.373691
 21
15.887335
 31
0.0
  0
LINE
  5
1C6
330
1F
100
AcDbEntity
  8
LC-002-100-D00-0
 62
     7
370
    50
100
AcDbLine
 10
-53.815996
 20
15.75272
 30
0.0
 11
-55.189495
 21
16.732888
 31
0.0
  0
LINE
  5
1C7
330
1F
100
AcDbEntity
  8
LC-002-100-D00-0
 62
     7
370
    50
100
AcDbLine
 10
-53.815996
 20
20.793085
 30
0.0
 11
-53.807852
 21
20.425193
 31
0.0
  0
LINE
  5
1C8
330
1F
100
AcDbEntity
  8
LC-002-100-D00-0
 62
     7
370
    50
100
AcDbLine
 10
-54.927272
 20
21.586053
 30
0.0
 11
-53.815996
 21
20.793085
 31
0.0
  0
LINE
  5
1C9
330
1F
100
AcDbEntity
  8
LC-002-100-D00-0
 62
     7
370
    50
100
AcDbLine
 10
-53.815996
 20
22.379022
 30
0.0
 11
-54.927272
 21
21.586053
 31
0.0
  0
LINE
  5
1CA
330
1F
100
AcDbEntity
  8
LC-002-100-D00-0
 62
     7
370
    50
100
AcDbLine
 10
-53.815996
 20
22.75272
 30
0.0
 11
-53.815996
 21
22.379022
 31
0.0
  0
LINE
  5
1CB
330
1F
100
AcDbEntity
  8
LC-002-100-D00-0
 62
     7
370
    50
100
AcDbLine
 10
-55.189495
 20
21.773253
 30
0.0
 11
-53.815996
 21
22.75272
 31
0.0
  0
LINE
  5
1CC
330
1F
100
AcDbEntity
  8
LC-002-100-D00-0
 62
     7
370
    50
100
AcDbLine
 10
-56.373691
 20
22.618105
 30
0.0
 11
-55.189495
 21
21.773253
 31
0.0
  0
LINE
  5
1CD
330
1F
100
AcDbEntity
  8
LC-002-100-D00-0
 62
     7
370
    50
100
AcDbLine
 10
-56.373691
 20
22.244407
 30
0.0
 11
-56.373691
 21
22.618105
 31
0.0
  0
LINE
  5
1CE
330
1F
100
AcDbEntity
  8
LC-002-100-D00-0
 62
     7
370
    50
100
AcDbLine
 10
-55.451011
 20
21.586053
 30
0.0
 11
-56.373691
 21
22.244407
 31
0.0
  0
LINE
  5
1CF
330
1F
100
AcDbEntity
  8
LC-002-100-D00-0
 62
     7
370
    50
100
AcDbLine
 10
-56.373691
 20
20.9277
 30
0.0
 11
-55.451011
 21
21.586053
 31
0.0
  0
LINE
  5
1D0
330
1F
100
AcDbEntity
  8
LC-002-100-D00-0
 62
     7
370
    50
100
AcDbLine
 10
-56.373691
 20
20.554002
 30
0.0
 11
-56.373691
 21
20.9277
 31
0.0
  0
LINE
  5
1D1
330
1F
100
AcDbEntity
  8
LC-002-100-D00-0
 62
     7
370
    50
100
AcDbLine
 10
-55.189495
 20
21.399555
 30
0.0
 11
-56.373691
 21
20.554002
 31
0.0
  0
LINE
  5
1D2
330
1F
100
AcDbEntity
  8
LC-002-100-D00-0
 62
     7
370
    50
100
AcDbLine
 10
-53.807852
 20
20.425193
 30
0.0
 11
-55.189495
 21
21.399555
 31
0.0
  0
LINE
  5
1D3
330
1F
100
AcDbEntity
  8
LC-002-100-D00-0
 62
     7
370
    50
100
AcDbLine
 10
-53.815996
 20
25.459751
 30
0.0
 11
-53.807852
 21
25.091859
 31
0.0
  0
LINE
  5
1D4
330
1F
100
AcDbEntity
  8
LC-002-100-D00-0
 62
     7
370
    50
100
AcDbLine
 10
-54.927272
 20
26.25272
 30
0.0
 11
-53.815996
 21
25.459751
 31
0.0
  0
LINE
  5
1D5
330
1F
100
AcDbEntity
  8
LC-002-100-D00-0
 62
     7
370
    50
100
AcDbLine
 10
-53.815996
 20
27.045689
 30
0.0
 11
-54.927272
 21
26.25272
 31
0.0
  0
LINE
  5
1D6
330
1F
100
AcDbEntity
  8
LC-002-100-D00-0
 62
     7
370
    50
100
AcDbLine
 10
-53.815996
 20
27.419387
 30
0.0
 11
-53.815996
 21
27.045689
 31
0.0
  0
LINE
  5
1D7
330
1F
100
AcDbEntity
  8
LC-002-100-D00-0
 62
     7
370
    50
100
AcDbLine
 10
-55.189495
 20
26.439919
 30
0.0
 11
-53.815996
 21
27.419387
 31
0.0
  0
LINE
  5
1D8
330
1F
100
AcDbEntity
  8
LC-002-100-D00-0
 62
     7
370
    50
100
AcDbLine
 10
-56.373691
 20
27.284771
 30
0.0
 11
-55.189495
 21
26.439919
 31
0.0
  0
LINE
  5
1D9
330
1F
100
AcDbEntity
  8
LC-002-100-D00-0
 62
     7
370
    50
100
AcDbLine
 10
-56.373691
 20
26.911073
 30
0.0
 11
-56.373691
 21
27.284771
 31
0.0
  0
LINE
  5
1DA
330
1F
100
AcDbEntity
  8
LC-002-100-D00-0
 62
     7
370
    50
100
AcDbLine
 10
-55.451011
 20
26.25272
 30
0.0
 11
-56.373691
 21
26.911073
 31
0.0
  0
LINE
  5
1DB
330
1F
100
AcDbEntity
  8
LC-002-100-D00-0
 62
     7
370
    50
100
AcDbLine
 10
-56.373691
 20
25.594367
 30
0.0
 11
-55.451011
 21
26.25272
 31
0.0
  0
LINE
  5
1DC
330
1F
100
AcDbEntity
  8
LC-002-100-D00-0
 62
     7
370
    50
100
AcDbLine
 10
-56.373691
 20
25.220669
 30
0.0
 11
-56.373691
 21
25.594367
 31
0.0
  0
LINE
  5
1DD
330
1F
100
AcDbEntity
  8
LC-002-100-D00-0
 62
     7
370
    50
100
AcDbLine
 10
-55.189495
 20
26.066222
 30
0.0
 11
-56.373691
 21
25.220669
 31
0.0
  0
LINE
  5
1DE
330
1F
100
AcDbEntity
  8
LC-002-100-D00-0
 62
     7
370
    50
100
AcDbLine
 10
-53.807852
 20
25.091859
 30
0.0
 11
-55.189495
 21
26.066222
 31
0.0
  0
ARC
  5
1DF
330
1F
100
AcDbEntity
  8
LC-002-100-D00-0
 62
     7
370
    50
100
AcDbCircle
 10
43.516837
 20
24.354182
 30
0.0
 40
24.79999999999453
100
AcDbArc
 50
300.592814
 51
59.407186
  0
ARC
  5
1E0
330
1F
100
AcDbEntity
  8
LC-002-100-D00-0
 62
     7
370
    50
100
AcDbCircle
 10
-17.483163
 20
24.354182
 30
0.0
 40
24.79999999999465
100
AcDbArc
 50
120.592814
 51
239.407186
  0
ARC
  5
1E1
330
1F
100
AcDbEntity
  8
LC-002-100-D00-0
 62
     7
370
    50
100
AcDbCircle
 10
261.266837
 20
11.104182
 30
0.0
 40
5.0
100
AcDbArc
 50
270.0
 51
0.0
  0
LINE
  5
1E2
330
1F
100
AcDbEntity
  8
LC-002-100-D00-0
 62
     7
370
    50
100
AcDbLine
 10
266.266837
 20
37.604182
 30
0.0
 11
266.266837
 21
11.104182
 31
0.0
  0
ARC
  5
1E3
330
1F
100
AcDbEntity
  8
LC-002-100-D00-0
 62
     7
370
    50
100
AcDbCircle
 10
261.266837
 20
37.604182
 30
0.0
 40
5.0
100
AcDbArc
 50
0.0
 51
90.0
  0
CIRCLE
  5
1E4
330
1F
100
AcDbEntity
  8
LC-002-100-D00-0
 62
     7
370
    50
100
AcDbCircle
 10
248.016837
 20
24.354182
 30
0.0
 40
3.899999999999864
  0
LINE
  5
1E5
330
1F
100
AcDbEntity
  8
LC-002-100-D00-0
 62
     7
370
    50
100
AcDbLine
 10
261.266837
 20
6.104182
 30
0.0
 11
234.766837
 21
6.104182
 31
0.0
  0
LINE
  5
1E6
330
1F
100
AcDbEntity
  8
LC-002-100-D00-0
 62
     7
370
    50
100
AcDbLine
 10
234.766837
 20
42.604182
 30
0.0
 11
261.266837
 21
42.604182
 31
0.0
  0
ARC
  5
1E7
330
1F
100
AcDbEntity
  8
LC-002-100-D00-0
 62
     7
370
    50
100
AcDbCircle
 10
234.766837
 20
11.104182
 30
0.0
 40
5.000000000000341
100
AcDbArc
 50
180.0
 51
270.0
  0
ARC
  5
1E8
330
1F
100
AcDbEntity
  8
LC-002-100-D00-0
 62
     7
370
    50
100
AcDbCircle
 10
234.766837
 20
37.604182
 30
0.0
 40
5.0
100
AcDbArc
 50
90.0
 51
180.0
  0
LINE
  5
1E9
330
1F
100
AcDbEntity
  8
LC-002-100-D00-0
 62
     7
370
    50
100
AcDbLine
 10
229.766837
 20
11.104182
 30
0.0
 11
229.766837
 21
37.604182
 31
0.0
  0
ARC
  5
1EA
330
1F
100
AcDbEntity
  8
LC-002-100-D00-0
 62
     7
370
    50
100
AcDbCircle
 10
-73.733163
 20
37.604182
 30
0.0
 40
5.0
100
AcDbArc
 50
0.0
 51
90.0
  0
LINE
  5
1EB
330
1F
100
AcDbEntity
  8
LC-002-100-D00-0
 62
     7
370
    50
100
AcDbLine
 10
-68.733163
 20
37.604182
 30
0.0
 11
-68.733163
 21
11.104182
 31
0.0
  0
ARC
  5
1EC
330
1F
100
AcDbEntity
  8
LC-002-100-D00-0
 62
     7
370
    50
100
AcDbCircle
 10
-73.733163
 20
11.104182
 30
0.0
 40
5.0
100
AcDbArc
 50
270.0
 51
0.0
  0
CIRCLE
  5
1ED
330
1F
100
AcDbEntity
  8
LC-002-100-D00-0
 62
     7
370
    50
100
AcDbCircle
 10
-86.983163
 20
24.354182
 30
0.0
 40
3.900000000000091
  0
LINE
  5
1EE
330
1F
100
AcDbEntity
  8
LC-002-100-D00-0
 62
     7
370
    50
100
AcDbLine
 10
-100.233163
 20
42.604182
 30
0.0
 11
-73.733163
 21
42.604182
 31
0.0
  0
LINE
  5
1EF
330
1F
100
AcDbEntity
  8
LC-002-100-D00-0
 62
     7
370
    50
100
AcDbLine
 10
-73.733163
 20
6.104182
 30
0.0
 11
-100.233163
 21
6.104182
 31
0.0
  0
ARC
  5
1F0
330
1F
100
AcDbEntity
  8
LC-002-100-D00-0
 62
     7
370
    50
100
AcDbCircle
 10
-100.233163
 20
11.104182
 30
0.0
 40
5.000000000000341
100
AcDbArc
 50
180.0
 51
270.0
  0
ARC
  5
1F1
330
1F
100
AcDbEntity
  8
LC-002-100-D00-0
 62
     7
370
    50
100
AcDbCircle
 10
-100.233163
 20
37.604182
 30
0.0
 40
5.0
100
AcDbArc
 50
90.0
 51
180.0
  0
LINE
  5
1F2
330
1F
100
AcDbEntity
  8
LC-002-100-D00-0
 62
     7
370
    50
100
AcDbLine
 10
-105.233163
 20
11.104182
 30
0.0
 11
-105.233163
 21
37.604182
 31
0.0
  0
ARC
  5
1F3
330
1F
100
AcDbEntity
  8
LC-002-100-D00-0
 62
     7
370
    50
100
AcDbCircle
 10
-343.733163
 20
11.104182
 30
0.0
 40
5.0
100
AcDbArc
 50
270.0
 51
0.0
  0
ARC
  5
1F4
330
1F
100
AcDbEntity
  8
LC-002-100-D00-0
 62
     7
370
    50
100
AcDbCircle
 10
-343.733163
 20
37.604182
 30
0.0
 40
5.0
100
AcDbArc
 50
0.0
 51
90.0
  0
LINE
  5
1F5
330
1F
100
AcDbEntity
  8
LC-002-100-D00-0
 62
     7
370
    50
100
AcDbLine
 10
-338.733163
 20
37.604182
 30
0.0
 11
-338.733163
 21
11.104182
 31
0.0
  0
CIRCLE
  5
1F6
330
1F
100
AcDbEntity
  8
LC-002-100-D00-0
 62
     7
370
    50
100
AcDbCircle
 10
-356.983163
 20
24.354182
 30
0.0
 40
3.900000000000091
  0
LINE
  5
1F7
330
1F
100
AcDbEntity
  8
LC-002-100-D00-0
 62
     7
370
    50
100
AcDbLine
 10
-343.733163
 20
6.104182
 30
0.0
 11
-370.233163
 21
6.104182
 31
0.0
  0
LINE
  5
1F8
330
1F
100
AcDbEntity
  8
LC-002-100-D00-0
 62
     7
370
    50
100
AcDbLine
 10
-370.233163
 20
42.604182
 30
0.0
 11
-343.733163
 21
42.604182
 31
0.0
  0
ARC
  5
1F9
330
1F
100
AcDbEntity
  8
LC-002-100-D00-0
 62
     7
370
    50
100
AcDbCircle
 10
-370.233163
 20
11.104182
 30
0.0
 40
5.0
100
AcDbArc
 50
180.0
 51
270.0
  0
ARC
  5
1FA
330
1F
100
AcDbEntity
  8
LC-002-100-D00-0
 62
     7
370
    50
100
AcDbCircle
 10
-370.233163
 20
37.604182
 30
0.0
 40
5.0
100
AcDbArc
 50
90.0
 51
180.0
  0
LINE
  5
1FB
330
1F
100
AcDbEntity
  8
LC-002-100-D00-0
 62
     7
370
    50
100
AcDbLine
 10
-375.233163
 20
11.104182
 30
0.0
 11
-375.233163
 21
37.604182
 31
0.0
  0
LINE
  5
1FC
330
1F
100
AcDbEntity
  8
LC-002-100-D00-0
 62
     7
370
    50
100
AcDbLine
 10
401.266837
 20
37.604182
 30
0.0
 11
401.266837
 21
11.104182
 31
0.0
  0
ARC
  5
1FD
330
1F
100
AcDbEntity
  8
LC-002-100-D00-0
 62
     7
370
    50
100
AcDbCircle
 10
396.266837
 20
11.104182
 30
0.0
 40
5.0
100
AcDbArc
 50
270.0
 51
0.0
  0
ARC
  5
1FE
330
1F
100
AcDbEntity
  8
LC-002-100-D00-0
 62
     7
370
    50
100
AcDbCircle
 10
396.266837
 20
37.604182
 30
0.0
 40
5.0
100
AcDbArc
 50
0.0
 51
90.0
  0
CIRCLE
  5
1FF
330
1F
100
AcDbEntity
  8
LC-002-100-D00-0
 62
     7
370
    50
100
AcDbCircle
 10
383.016837
 20
24.354182
 30
0.0
 40
3.900000000000091
  0
LINE
  5
200
330
1F
100
AcDbEntity
  8
LC-002-100-D00-0
 62
     7
370
    50
100
AcDbLine
 10
369.766837
 20
42.604182
 30
0.0
 11
396.266837
 21
42.604182
 31
0.0
  0
LINE
  5
201
330
1F
100
AcDbEntity
  8
LC-002-100-D00-0
 62
     7
370
    50
100
AcDbLine
 10
396.266837
 20
6.104182
 30
0.0
 11
369.766837
 21
6.104182
 31
0.0
  0
ARC
  5
202
330
1F
100
AcDbEntity
  8
LC-002-100-D00-0
 62
     7
370
    50
100
AcDbCircle
 10
369.766837
 20
11.104182
 30
0.0
 40
5.0
100
AcDbArc
 50
180.0
 51
270.0
  0
ARC
  5
203
330
1F
100
AcDbEntity
  8
LC-002-100-D00-0
 62
     7
370
    50
100
AcDbCircle
 10
369.766837
 20
37.604182
 30
0.0
 40
5.0
100
AcDbArc
 50
90.0
 51
180.0
  0
LINE
  5
204
330
1F
100
AcDbEntity
  8
LC-002-100-D00-0
 62
     7
370
    50
100
AcDbLine
 10
364.766837
 20
11.104182
 30
0.0
 11
364.766837
 21
37.604182
 31
0.0
  0
ARC
  5
205
330
1F
100
AcDbEntity
  8
LC-002-100-D00-0
 62
     7
370
    50
100
AcDbCircle
 10
126.266837
 20
11.104182
 30
0.0
 40
5.0
100
AcDbArc
 50
270.0
 51
0.0
  0
ARC
  5
206
330
1F
100
AcDbEntity
  8
LC-002-100-D00-0
 62
     7
370
    50
100
AcDbCircle
 10
126.266837
 20
37.604182
 30
0.0
 40
5.0
100
AcDbArc
 50
0.0
 51
90.0
  0
LINE
  5
207
330
1F
100
AcDbEntity
  8
LC-002-100-D00-0
 62
     7
370
    50
100
AcDbLine
 10
131.266837
 20
37.604182
 30
0.0
 11
131.266837
 21
11.104182
 31
0.0
  0
CIRCLE
  5
208
330
1F
100
AcDbEntity
  8
LC-002-100-D00-0
 62
     7
370
    50
100
AcDbCircle
 10
113.016837
 20
24.354182
 30
0.0
 40
3.899999999999864
  0
LINE
  5
209
330
1F
100
AcDbEntity
  8
LC-002-100-D00-0
 62
     7
370
    50
100
AcDbLine
 10
99.766837
 20
42.604182
 30
0.0
 11
126.266837
 21
42.604182
 31
0.0
  0
LINE
  5
20A
330
1F
100
AcDbEntity
  8
LC-002-100-D00-0
 62
     7
370
    50
100
AcDbLine
 10
126.266837
 20
6.104182
 30
0.0
 11
99.766837
 21
6.104182
 31
0.0
  0
ARC
  5
20B
330
1F
100
AcDbEntity
  8
LC-002-100-D00-0
 62
     7
370
    50
100
AcDbCircle
 10
99.766837
 20
11.104182
 30
0.0
 40
5.000000000000341
100
AcDbArc
 50
180.0
 51
270.0
  0
ARC
  5
20C
330
1F
100
AcDbEntity
  8
LC-002-100-D00-0
 62
     7
370
    50
100
AcDbCircle
 10
99.766837
 20
37.604182
 30
0.0
 40
5.0
100
AcDbArc
 50
90.0
 51
180.0
  0
LINE
  5
20D
330
1F
100
AcDbEntity
  8
LC-002-100-D00-0
 62
     7
370
    50
100
AcDbLine
 10
94.766837
 20
11.104182
 30
0.0
 11
94.766837
 21
37.604182
 31
0.0
  0
LINE
  5
20E
330
1F
100
AcDbEntity
  8
LC-002-100-D00-0
 62
     7
370
    50
100
AcDbLine
 10
-203.733163
 20
37.604182
 30
0.0
 11
-203.733163
 21
11.104182
 31
0.0
  0
ARC
  5
20F
330
1F
100
AcDbEntity
  8
LC-002-100-D00-0
 62
     7
370
    50
100
AcDbCircle
 10
-208.733163
 20
11.104182
 30
0.0
 40
5.0
100
AcDbArc
 50
270.0
 51
0.0
  0
ARC
  5
210
330
1F
100
AcDbEntity
  8
LC-002-100-D00-0
 62
     7
370
    50
100
AcDbCircle
 10
-208.733163
 20
37.604182
 30
0.0
 40
5.000000000000227
100
AcDbArc
 50
0.0
 51
90.0
  0
CIRCLE
  5
211
330
1F
100
AcDbEntity
  8
LC-002-100-D00-0
 62
     7
370
    50
100
AcDbCircle
 10
-221.983163
 20
24.354182
 30
0.0
 40
3.899999999999864
  0
LINE
  5
212
330
1F
100
AcDbEntity
  8
LC-002-100-D00-0
 62
     7
370
    50
100
AcDbLine
 10
-235.233163
 20
42.604182
 30
0.0
 11
-208.733163
 21
42.604182
 31
0.0
  0
LINE
  5
213
330
1F
100
AcDbEntity
  8
LC-002-100-D00-0
 62
     7
370
    50
100
AcDbLine
 10
-208.733163
 20
6.104182
 30
0.0
 11
-235.233163
 21
6.104182
 31
0.0
  0
ARC
  5
214
330
1F
100
AcDbEntity
  8
LC-002-100-D00-0
 62
     7
370
    50
100
AcDbCircle
 10
-235.233163
 20
11.104182
 30
0.0
 40
5.000000000000341
100
AcDbArc
 50
180.0
 51
270.0
  0
ARC
  5
215
330
1F
100
AcDbEntity
  8
LC-002-100-D00-0
 62
     7
370
    50
100
AcDbCircle
 10
-235.233163
 20
37.604182
 30
0.0
 40
5.0
100
AcDbArc
 50
90.0
 51
180.0
  0
LINE
  5
216
330
1F
100
AcDbEntity
  8
LC-002-100-D00-0
 62
     7
370
    50
100
AcDbLine
 10
-240.233163
 20
11.104182
 30
0.0
 11
-240.233163
 21
37.604182
 31
0.0
  0
LINE
  5
217
330
1F
100
AcDbEntity
  8
LC-002-100-D00-0
 62
     7
370
    50
100
AcDbLine
 10
-17.483163
 20
0.354182
 30
0.0
 11
43.516837
 21
0.354182
 31
0.0
  0
ARC
  5
218
330
1F
100
AcDbEntity
  8
LC-002-100-D00-0
 62
     7
370
    50
100
AcDbCircle
 10
-17.483163
 20
24.354182
 30
0.0
 40
24.00000000000011
100
AcDbArc
 50
90.0
 51
270.0
  0
LINE
  5
219
330
1F
100
AcDbEntity
  8
LC-002-100-D00-0
 62
     7
370
    50
100
AcDbLine
 10
43.516837
 20
48.354182
 30
0.0
 11
-17.483163
 21
48.354182
 31
0.0
  0
ARC
  5
21A
330
1F
100
AcDbEntity
  8
LC-002-100-D00-0
 62
     7
370
    50
100
AcDbCircle
 10
43.516837
 20
24.354182
 30
0.0
 40
24.0
100
AcDbArc
 50
270.0
 51
90.0
  0
ARC
  5
21B
330
1F
100
AcDbEntity
  8
LC-002-100-D00-0
 62
     7
370
    50
100
AcDbCircle
 10
24.516837
 20
24.354182
 30
0.0
 40
15.99999999999989
100
AcDbArc
 50
270.0
 51
90.0
  0
LINE
  5
21C
330
1F
100
AcDbEntity
  8
LC-002-100-D00-0
 62
     7
370
    50
100
AcDbLine
 10
1.516837
 20
8.354182
 30
0.0
 11
24.516837
 21
8.354182
 31
0.0
  0
LINE
  5
21D
330
1F
100
AcDbEntity
  8
LC-002-100-D00-0
 62
     7
370
    50
100
AcDbLine
 10
24.516837
 20
40.354182
 30
0.0
 11
1.516837
 21
40.354182
 31
0.0
  0
ARC
  5
21E
330
1F
100
AcDbEntity
  8
LC-002-100-D00-0
 62
     7
370
    50
100
AcDbCircle
 10
1.516837
 20
24.354182
 30
0.0
 40
16.0
100
AcDbArc
 50
90.0
 51
270.0
  0
DIMENSION
  5
21F
330
1F
100
AcDbEntity
  8
LC-002-100-D00-0
 62
     7
370
    25
100
AcDbDimension
  2
*D18
 10
542.619692
 20
68.854182
 30
0.0
 11
487.619692
 21
64.777005
 31
0.0
 70
   160
  1
1.5
 71
     5
 42
1.5
 53
90.0
  3
LC-DIM-L-0100-02-02
100
AcDbAlignedDimension
 13
458.016837
 23
70.354182
 33
0.0
 14
458.016837
 24
68.854182
 34
0.0
 50
90.0
100
AcDbRotatedDimension
  0
DIMENSION
  5
22D
330
1F
100
AcDbEntity
  8
LC-002-100-D00-0
 62
     7
370
    25
100
AcDbDimension
  2
*D19
 10
622.584771
 20
50.354182
 30
0.0
 11
567.584771
 21
49.927005
 31
0.0
 70
   160
  1
18,5
 71
     5
 42
18.5
 53
90.0
  3
LC-DIM-L-0100-02-02
100
AcDbAlignedDimension
 13
458.016837
 23
68.854182
 33
0.0
 14
410.516837
 24
50.354182
 34
0.0
 50
90.0
100
AcDbRotatedDimension
  0
DIMENSION
  5
23B
330
1F
100
AcDbEntity
  8
LC-002-100-D00-0
 62
     7
370
    25
100
AcDbDimension
  2
*D20
 10
707.708887
 20
-53.145818
 30
0.0
 11
652.708887
 21
-16.897995
 31
0.0
 70
   160
  1
123.5
 71
     5
 42
123.5
 53
90.0
  3
LC-DIM-L-0100-02-02
100
AcDbAlignedDimension
 13
458.016837
 23
70.354182
 33
0.0
 14
458.016837
 24
-53.145818
 34
0.0
 50
90.0
100
AcDbRotatedDimension
  0
LINE
  5
248
330
1F
100
AcDbEntity
  8
LC-002-100-D00-0
  6
DASHDOT
 62
     7
370
    25
100
AcDbLine
 10
420.516837
 20
24.354182
 30
0.0
 11
-394.483163
 21
24.354182
 31
0.0
  0
LINE
  5
249
330
1F
100
AcDbEntity
  8
LC-002-100-D00-0
  6
DASHDOT
 62
     7
370
    25
100
AcDbLine
 10
13.016837
 20
80.354182
 30
0.0
 11
13.016837
 21
-58.145818
 31
0.0
  0
LINE
  5
24A
330
1F
100
AcDbEntity
  8
LC-002-100-D00-0
 62
     7
370
    50
100
AcDbLine
 10
68.266825
 20
436.308367
 30
0.0
 11
70.066825
 21
436.308367
 31
0.0
  0
LINE
  5
24B
330
1F
100
AcDbEntity
  8
LC-002-100-D00-0
 62
     7
370
    50
100
AcDbLine
 10
-44.033175
 20
436.308367
 30
0.0
 11
-42.233175
 21
436.308367
 31
0.0
  0
LINE
  5
24C
330
1F
100
AcDbEntity
  8
LC-002-100-D00-0
 62
     7
370
    50
100
AcDbLine
 10
126.264621
 20
363.948353
 30
0.0
 11
126.264621
 21
365.731274
 31
0.0
  0
LINE
  5
24D
330
1F
100
AcDbEntity
  8
LC-002-100-D00-0
 62
     7
370
    50
100
AcDbLine
 10
126.264621
 20
416.165432
 30
0.0
 11
126.264621
 21
417.948353
 31
0.0
  0
LINE
  5
24E
330
1F
100
AcDbEntity
  8
LC-002-100-D00-0
 62
     7
370
    50
100
AcDbLine
 10
122.264621
 20
417.948353
 30
0.0
 11
122.264621
 21
416.165432
 31
0.0
  0
LINE
  5
24F
330
1F
100
AcDbEntity
  8
LC-002-100-D00-0
 62
     7
370
    50
100
AcDbLine
 10
122.264621
 20
365.731274
 30
0.0
 11
122.264621
 21
363.948353
 31
0.0
  0
LINE
  5
250
330
1F
100
AcDbEntity
  8
LC-002-100-D00-0
 62
     7
370
    50
100
AcDbLine
 10
52.73124
 20
434.448353
 30
0.0
 11
52.73124
 21
432.948353
 31
0.0
  0
LINE
  5
251
330
1F
100
AcDbEntity
  8
LC-002-100-D00-0
 62
     7
370
    50
100
AcDbLine
 10
-26.69759
 20
432.948353
 30
0.0
 11
-26.69759
 21
434.448353
 31
0.0
  0
LINE
  5
252
330
1F
100
AcDbEntity
  8
LC-002-100-D00-0
 62
     7
370
    50
100
AcDbLine
 10
379.616832
 20
456.448352
 30
0.0
 11
378.616815
 21
457.448353
 31
0.0
  0
LINE
  5
253
330
1F
100
AcDbEntity
  8
LC-002-100-D00-0
 62
     7
370
    50
100
AcDbLine
 10
379.616832
 20
456.448352
 30
0.0
 11
379.616825
 21
450.448353
 31
0.0
  0
LINE
  5
254
330
1F
100
AcDbEntity
  8
LC-002-100-D00-0
 62
     7
370
    50
100
AcDbLine
 10
378.616825
 20
449.448353
 30
0.0
 11
379.616825
 21
450.448353
 31
0.0
  0
LINE
  5
255
330
1F
100
AcDbEntity
  8
LC-002-100-D00-0
 62
     7
370
    50
100
AcDbLine
 10
376.665985
 20
451.448352
 30
0.0
 11
376.665985
 21
449.448353
 31
0.0
  0
LINE
  5
256
330
1F
100
AcDbEntity
  8
LC-002-100-D00-0
 62
     7
370
    50
100
AcDbLine
 10
377.372117
 20
451.637563
 30
0.0
 11
376.665985
 21
451.448352
 31
0.0
  0
ARC
  5
257
330
1F
100
AcDbEntity
  8
LC-002-100-D00-0
 62
     7
370
    50
100
AcDbCircle
 10
377.216825
 20
452.217119
 30
0.0
 40
0.6000000000000886
100
AcDbArc
 50
285.0
 51
0.0
  0
LINE
  5
258
330
1F
100
AcDbEntity
  8
LC-002-100-D00-0
 62
     7
370
    50
100
AcDbLine
 10
377.816825
 20
454.679586
 30
0.0
 11
377.816825
 21
452.217119
 31
0.0
  0
ARC
  5
259
330
1F
100
AcDbEntity
  8
LC-002-100-D00-0
 62
     7
370
    50
100
AcDbCircle
 10
377.216825
 20
454.679586
 30
0.0
 40
0.6000000000001364
100
AcDbArc
 50
0.0
 51
75.0
  0
LINE
  5
25A
330
1F
100
AcDbEntity
  8
LC-002-100-D00-0
 62
     7
370
    50
100
AcDbLine
 10
376.665985
 20
455.448352
 30
0.0
 11
377.372117
 21
455.259142
 31
0.0
  0
LINE
  5
25B
330
1F
100
AcDbEntity
  8
LC-002-100-D00-0
 62
     7
370
    50
100
AcDbLine
 10
376.665985
 20
457.448353
 30
0.0
 11
376.665985
 21
455.448352
 31
0.0
  0
LINE
  5
25C
330
1F
100
AcDbEntity
  8
LC-002-100-D00-0
 62
     7
370
    50
100
AcDbLine
 10
376.665985
 20
449.448353
 30
0.0
 11
378.616825
 21
449.448353
 31
0.0
  0
LINE
  5
25D
330
1F
100
AcDbEntity
  8
LC-002-100-D00-0
 62
     7
370
    50
100
AcDbLine
 10
376.665985
 20
457.448353
 30
0.0
 11
378.616815
 21
457.448353
 31
0.0
  0
LINE
  5
25E
330
1F
100
AcDbEntity
  8
LC-002-100-D00-0
 62
     7
370
    50
100
AcDbLine
 10
388.216825
 20
452.217119
 30
0.0
 11
388.216825
 21
454.679586
 31
0.0
  0
ARC
  5
25F
330
1F
100
AcDbEntity
  8
LC-002-100-D00-0
 62
     7
370
    50
100
AcDbCircle
 10
388.816825
 20
452.217119
 30
0.0
 40
0.5999999999999091
100
AcDbArc
 50
180.0
 51
255.0
  0
LINE
  5
260
330
1F
100
AcDbEntity
  8
LC-002-100-D00-0
 62
     7
370
    50
100
AcDbLine
 10
389.367675
 20
451.448352
 30
0.0
 11
388.661534
 21
451.637563
 31
0.0
  0
LINE
  5
261
330
1F
100
AcDbEntity
  8
LC-002-100-D00-0
 62
     7
370
    50
100
AcDbLine
 10
389.367675
 20
451.448352
 30
0.0
 11
389.367675
 21
449.448353
 31
0.0
  0
LINE
  5
262
330
1F
100
AcDbEntity
  8
LC-002-100-D00-0
 62
     7
370
    50
100
AcDbLine
 10
386.416825
 20
450.448353
 30
0.0
 11
387.416825
 21
449.448353
 31
0.0
  0
LINE
  5
263
330
1F
100
AcDbEntity
  8
LC-002-100-D00-0
 62
     7
370
    50
100
AcDbLine
 10
386.416825
 20
450.448353
 30
0.0
 11
386.416828
 21
456.448352
 31
0.0
  0
LINE
  5
264
330
1F
100
AcDbEntity
  8
LC-002-100-D00-0
 62
     7
370
    50
100
AcDbLine
 10
387.416815
 20
457.448353
 30
0.0
 11
386.416828
 21
456.448352
 31
0.0
  0
LINE
  5
265
330
1F
100
AcDbEntity
  8
LC-002-100-D00-0
 62
     7
370
    50
100
AcDbLine
 10
389.367675
 20
457.448353
 30
0.0
 11
389.367675
 21
455.448352
 31
0.0
  0
LINE
  5
266
330
1F
100
AcDbEntity
  8
LC-002-100-D00-0
 62
     7
370
    50
100
AcDbLine
 10
388.661534
 20
455.259142
 30
0.0
 11
389.367675
 21
455.448352
 31
0.0
  0
ARC
  5
267
330
1F
100
AcDbEntity
  8
LC-002-100-D00-0
 62
     7
370
    50
100
AcDbCircle
 10
388.816825
 20
454.679586
 30
0.0
 40
0.6000000000000886
100
AcDbArc
 50
105.0
 51
180.0
  0
LINE
  5
268
330
1F
100
AcDbEntity
  8
LC-002-100-D00-0
 62
     7
370
    50
100
AcDbLine
 10
387.416825
 20
449.448353
 30
0.0
 11
389.367675
 21
449.448353
 31
0.0
  0
LINE
  5
269
330
1F
100
AcDbEntity
  8
LC-002-100-D00-0
 62
     7
370
    50
100
AcDbLine
 10
387.416815
 20
457.448353
 30
0.0
 11
389.367675
 21
457.448353
 31
0.0
  0
LINE
  5
26A
330
1F
100
AcDbEntity
  8
LC-002-100-D00-0
 62
     7
370
    50
100
AcDbLine
 10
379.616825
 20
450.448353
 30
0.0
 11
379.774665
 21
450.448353
 31
0.0
  0
LINE
  5
26B
330
1F
100
AcDbEntity
  8
LC-002-100-D00-0
 62
     7
370
    50
100
AcDbLine
 10
386.258986
 20
450.448353
 30
0.0
 11
386.416825
 21
450.448353
 31
0.0
  0
LINE
  5
26C
330
1F
100
AcDbEntity
  8
LC-002-100-D00-0
 62
     7
370
    50
100
AcDbLine
 10
387.416825
 20
449.448353
 30
0.0
 11
386.881044
 21
449.448353
 31
0.0
  0
LINE
  5
26D
330
1F
100
AcDbEntity
  8
LC-002-100-D00-0
 62
     7
370
    50
100
AcDbLine
 10
379.152607
 20
449.448353
 30
0.0
 11
378.616825
 21
449.448353
 31
0.0
  0
LINE
  5
26E
330
1F
100
AcDbEntity
  8
LC-002-100-D00-0
 62
     7
370
    50
100
AcDbLine
 10
389.367675
 20
457.448353
 30
0.0
 11
386.916822
 21
457.448353
 31
0.0
  0
LINE
  5
26F
330
1F
100
AcDbEntity
  8
LC-002-100-D00-0
 62
     7
370
    50
100
AcDbLine
 10
386.916822
 20
457.448353
 30
0.0
 11
386.916825
 21
468.448353
 31
0.0
  0
LINE
  5
270
330
1F
100
AcDbEntity
  8
LC-002-100-D00-0
 62
     7
370
    50
100
AcDbLine
 10
386.916825
 20
468.448353
 30
0.0
 11
400.266825
 21
468.448353
 31
0.0
  0
ARC
  5
271
330
1F
100
AcDbEntity
  8
LC-002-100-D00-0
 62
     7
370
    50
100
AcDbCircle
 10
400.266825
 20
467.448353
 30
0.0
 40
1.0
100
AcDbArc
 50
0.0
 51
90.0
  0
LINE
  5
272
330
1F
100
AcDbEntity
  8
LC-002-100-D00-0
 62
     7
370
    50
100
AcDbLine
 10
401.266825
 20
467.448353
 30
0.0
 11
401.266819
 21
461.448352
 31
0.0
  0
LINE
  5
273
330
1F
100
AcDbEntity
  8
LC-002-100-D00-0
 62
     7
370
    50
100
AcDbLine
 10
398.266825
 20
461.448353
 30
0.0
 11
401.266819
 21
461.448352
 31
0.0
  0
LINE
  5
274
330
1F
100
AcDbEntity
  8
LC-002-100-D00-0
 62
     7
370
    50
100
AcDbLine
 10
398.266825
 20
461.448353
 30
0.0
 11
398.266827
 21
465.448353
 31
0.0
  0
LINE
  5
275
330
1F
100
AcDbEntity
  8
LC-002-100-D00-0
 62
     7
370
    50
100
AcDbLine
 10
393.766825
 20
465.448353
 30
0.0
 11
398.266827
 21
465.448353
 31
0.0
  0
ARC
  5
276
330
1F
100
AcDbEntity
  8
LC-002-100-D00-0
 62
     7
370
    50
100
AcDbCircle
 10
393.766825
 20
464.448353
 30
0.0
 40
1.000000000000227
100
AcDbArc
 50
90.0
 51
180.0
  0
LINE
  5
277
330
1F
100
AcDbEntity
  8
LC-002-100-D00-0
 62
     7
370
    50
100
AcDbLine
 10
392.766825
 20
450.448353
 30
0.0
 11
392.766825
 21
464.448353
 31
0.0
  0
ARC
  5
278
330
1F
100
AcDbEntity
  8
LC-002-100-D00-0
 62
     7
370
    50
100
AcDbCircle
 10
391.766825
 20
450.448353
 30
0.0
 40
1.000000000000227
100
AcDbArc
 50
270.0
 51
0.0
  0
LINE
  5
279
330
1F
100
AcDbEntity
  8
LC-002-100-D00-0
 62
     7
370
    50
100
AcDbLine
 10
391.766825
 20
449.448353
 30
0.0
 11
389.367675
 21
449.448353
 31
0.0
  0
LINE
  5
27A
330
1F
100
AcDbEntity
  8
LC-002-100-D00-0
 62
     7
370
    50
100
AcDbLine
 10
389.367675
 20
451.448352
 30
0.0
 11
389.367675
 21
449.448353
 31
0.0
  0
LINE
  5
27B
330
1F
100
AcDbEntity
  8
LC-002-100-D00-0
 62
     7
370
    50
100
AcDbLine
 10
388.716825
 20
451.448353
 30
0.0
 11
389.367675
 21
451.448352
 31
0.0
  0
ARC
  5
27C
330
1F
100
AcDbEntity
  8
LC-002-100-D00-0
 62
     7
370
    50
100
AcDbCircle
 10
388.716825
 20
451.948353
 30
0.0
 40
0.5
100
AcDbArc
 50
180.0
 51
270.0
  0
LINE
  5
27D
330
1F
100
AcDbEntity
  8
LC-002-100-D00-0
 62
     7
370
    50
100
AcDbLine
 10
388.216825
 20
454.948353
 30
0.0
 11
388.216825
 21
451.948353
 31
0.0
  0
ARC
  5
27E
330
1F
100
AcDbEntity
  8
LC-002-100-D00-0
 62
     7
370
    50
100
AcDbCircle
 10
388.716825
 20
454.948353
 30
0.0
 40
0.5
100
AcDbArc
 50
90.0
 51
180.0
  0
LINE
  5
27F
330
1F
100
AcDbEntity
  8
LC-002-100-D00-0
 62
     7
370
    50
100
AcDbLine
 10
389.367675
 20
455.448352
 30
0.0
 11
388.716825
 21
455.448353
 31
0.0
  0
LINE
  5
280
330
1F
100
AcDbEntity
  8
LC-002-100-D00-0
 62
     7
370
    50
100
AcDbLine
 10
389.367675
 20
457.448353
 30
0.0
 11
389.367675
 21
455.448352
 31
0.0
  0
ARC
  5
281
330
1F
100
AcDbEntity
  8
LC-002-100-D00-0
 62
     7
370
    50
100
AcDbCircle
 10
372.266825
 20
464.448353
 30
0.0
 40
1.000000000000227
100
AcDbArc
 50
0.0
 51
90.0
  0
ARC
  5
282
330
1F
100
AcDbEntity
  8
LC-002-100-D00-0
 62
     7
370
    50
100
AcDbCircle
 10
374.266825
 20
450.448353
 30
0.0
 40
1.000000000000227
100
AcDbArc
 50
180.0
 51
270.0
  0
LINE
  5
283
330
1F
100
AcDbEntity
  8
LC-002-100-D00-0
 62
     7
370
    50
100
AcDbLine
 10
373.266825
 20
464.448353
 30
0.0
 11
373.266825
 21
450.448353
 31
0.0
  0
LINE
  5
284
330
1F
100
AcDbEntity
  8
LC-002-100-D00-0
 62
     7
370
    50
100
AcDbLine
 10
377.816825
 20
451.948353
 30
0.0
 11
377.816825
 21
454.948353
 31
0.0
  0
LINE
  5
285
330
1F
100
AcDbEntity
  8
LC-002-100-D00-0
 62
     7
370
    50
100
AcDbLine
 10
379.116825
 20
468.448353
 30
0.0
 11
379.116839
 21
457.448353
 31
0.0
  0
LINE
  5
286
330
1F
100
AcDbEntity
  8
LC-002-100-D00-0
 62
     7
370
    50
100
AcDbLine
 10
379.116825
 20
468.448353
 30
0.0
 11
386.916825
 21
468.448353
 31
0.0
  0
LINE
  5
287
330
1F
100
AcDbEntity
  8
LC-002-100-D00-0
 62
     7
370
    50
100
AcDbLine
 10
376.665985
 20
457.448353
 30
0.0
 11
376.665985
 21
455.448352
 31
0.0
  0
LINE
  5
288
330
1F
100
AcDbEntity
  8
LC-002-100-D00-0
 62
     7
370
    50
100
AcDbLine
 10
376.665985
 20
451.448352
 30
0.0
 11
376.665985
 21
449.448353
 31
0.0
  0
ARC
  5
289
330
1F
100
AcDbEntity
  8
LC-002-100-D00-0
 62
     7
370
    50
100
AcDbCircle
 10
377.316825
 20
451.948353
 30
0.0
 40
0.4999999999997726
100
AcDbArc
 50
270.0
 51
0.0
  0
LINE
  5
28A
330
1F
100
AcDbEntity
  8
LC-002-100-D00-0
 62
     7
370
    50
100
AcDbLine
 10
376.665985
 20
451.448352
 30
0.0
 11
377.316825
 21
451.448353
 31
0.0
  0
LINE
  5
28B
330
1F
100
AcDbEntity
  8
LC-002-100-D00-0
 62
     7
370
    50
100
AcDbLine
 10
367.766833
 20
465.448353
 30
0.0
 11
367.766825
 21
461.448353
 31
0.0
  0
LINE
  5
28C
330
1F
100
AcDbEntity
  8
LC-002-100-D00-0
 62
     7
370
    50
100
AcDbLine
 10
364.766812
 20
461.448352
 30
0.0
 11
364.766825
 21
467.448353
 31
0.0
  0
ARC
  5
28D
330
1F
100
AcDbEntity
  8
LC-002-100-D00-0
 62
     7
370
    50
100
AcDbCircle
 10
365.766825
 20
467.448353
 30
0.0
 40
0.9999999999997726
100
AcDbArc
 50
90.0
 51
180.0
  0
LINE
  5
28E
330
1F
100
AcDbEntity
  8
LC-002-100-D00-0
 62
     7
370
    50
100
AcDbLine
 10
377.316825
 20
455.448353
 30
0.0
 11
376.665985
 21
455.448352
 31
0.0
  0
ARC
  5
28F
330
1F
100
AcDbEntity
  8
LC-002-100-D00-0
 62
     7
370
    50
100
AcDbCircle
 10
377.316825
 20
454.948353
 30
0.0
 40
0.5000000000002274
100
AcDbArc
 50
0.0
 51
90.0
  0
LINE
  5
290
330
1F
100
AcDbEntity
  8
LC-002-100-D00-0
 62
     7
370
    50
100
AcDbLine
 10
364.766812
 20
461.448352
 30
0.0
 11
367.766825
 21
461.448353
 31
0.0
  0
LINE
  5
291
330
1F
100
AcDbEntity
  8
LC-002-100-D00-0
 62
     7
370
    50
100
AcDbLine
 10
379.116839
 20
457.448353
 30
0.0
 11
376.665985
 21
457.448353
 31
0.0
  0
LINE
  5
292
330
1F
100
AcDbEntity
  8
LC-002-100-D00-0
 62
     7
370
    50
100
AcDbLine
 10
376.665985
 20
449.448353
 30
0.0
 11
374.266825
 21
449.448353
 31
0.0
  0
LINE
  5
293
330
1F
100
AcDbEntity
  8
LC-002-100-D00-0
 62
     7
370
    50
100
AcDbLine
 10
367.766833
 20
465.448353
 30
0.0
 11
372.266825
 21
465.448353
 31
0.0
  0
LINE
  5
294
330
1F
100
AcDbEntity
  8
LC-002-100-D00-0
 62
     7
370
    50
100
AcDbLine
 10
365.766825
 20
468.448353
 30
0.0
 11
379.116825
 21
468.448353
 31
0.0
  0
LINE
  5
295
330
1F
100
AcDbEntity
  8
LC-002-100-D00-0
 62
     7
370
    50
100
AcDbLine
 10
396.266825
 20
461.448353
 30
0.0
 11
398.266825
 21
461.448353
 31
0.0
  0
LINE
  5
296
330
1F
100
AcDbEntity
  8
LC-002-100-D00-0
 62
     7
370
    50
100
AcDbLine
 10
367.766825
 20
461.448353
 30
0.0
 11
369.766825
 21
461.448353
 31
0.0
  0
LINE
  5
297
330
1F
100
AcDbEntity
  8
LC-002-100-D00-0
 62
     7
370
    50
100
AcDbLine
 10
369.766825
 20
461.448353
 30
0.0
 11
373.266821
 21
461.448352
 31
0.0
  0
LINE
  5
298
330
1F
100
AcDbEntity
  8
LC-002-100-D00-0
 62
     7
370
    50
100
AcDbLine
 10
392.766839
 20
461.448352
 30
0.0
 11
396.266825
 21
461.448353
 31
0.0
  0
LINE
  5
299
330
1F
100
AcDbEntity
  8
LC-002-100-D00-0
 62
     7
370
    50
100
AcDbLine
 10
-360.383177
 20
456.448352
 30
0.0
 11
-361.383165
 21
457.448353
 31
0.0
  0
LINE
  5
29A
330
1F
100
AcDbEntity
  8
LC-002-100-D00-0
 62
     7
370
    50
100
AcDbLine
 10
-360.383177
 20
456.448352
 30
0.0
 11
-360.383175
 21
450.448353
 31
0.0
  0
LINE
  5
29B
330
1F
100
AcDbEntity
  8
LC-002-100-D00-0
 62
     7
370
    50
100
AcDbLine
 10
-361.383175
 20
449.448353
 30
0.0
 11
-360.383175
 21
450.448353
 31
0.0
  0
LINE
  5
29C
330
1F
100
AcDbEntity
  8
LC-002-100-D00-0
 62
     7
370
    50
100
AcDbLine
 10
-363.334025
 20
451.448352
 30
0.0
 11
-363.334025
 21
449.448353
 31
0.0
  0
LINE
  5
29D
330
1F
100
AcDbEntity
  8
LC-002-100-D00-0
 62
     7
370
    50
100
AcDbLine
 10
-362.627883
 20
451.637563
 30
0.0
 11
-363.334025
 21
451.448352
 31
0.0
  0
ARC
  5
29E
330
1F
100
AcDbEntity
  8
LC-002-100-D00-0
 62
     7
370
    50
100
AcDbCircle
 10
-362.783175
 20
452.217119
 30
0.0
 40
0.6000000000000886
100
AcDbArc
 50
285.0
 51
0.0
  0
LINE
  5
29F
330
1F
100
AcDbEntity
  8
LC-002-100-D00-0
 62
     7
370
    50
100
AcDbLine
 10
-362.183175
 20
454.679586
 30
0.0
 11
-362.183175
 21
452.217119
 31
0.0
  0
ARC
  5
2A0
330
1F
100
AcDbEntity
  8
LC-002-100-D00-0
 62
     7
370
    50
100
AcDbCircle
 10
-362.783175
 20
454.679586
 30
0.0
 40
0.600000000000307
100
AcDbArc
 50
0.0
 51
75.0
  0
LINE
  5
2A1
330
1F
100
AcDbEntity
  8
LC-002-100-D00-0
 62
     7
370
    50
100
AcDbLine
 10
-363.334025
 20
455.448352
 30
0.0
 11
-362.627883
 21
455.259142
 31
0.0
  0
LINE
  5
2A2
330
1F
100
AcDbEntity
  8
LC-002-100-D00-0
 62
     7
370
    50
100
AcDbLine
 10
-363.334025
 20
457.448353
 30
0.0
 11
-363.334025
 21
455.448352
 31
0.0
  0
LINE
  5
2A3
330
1F
100
AcDbEntity
  8
LC-002-100-D00-0
 62
     7
370
    50
100
AcDbLine
 10
-363.334025
 20
449.448353
 30
0.0
 11
-361.383175
 21
449.448353
 31
0.0
  0
LINE
  5
2A4
330
1F
100
AcDbEntity
  8
LC-002-100-D00-0
 62
     7
370
    50
100
AcDbLine
 10
-363.334025
 20
457.448353
 30
0.0
 11
-361.383165
 21
457.448353
 31
0.0
  0
LINE
  5
2A5
330
1F
100
AcDbEntity
  8
LC-002-100-D00-0
 62
     7
370
    50
100
AcDbLine
 10
-351.783175
 20
452.217119
 30
0.0
 11
-351.783175
 21
454.679586
 31
0.0
  0
ARC
  5
2A6
330
1F
100
AcDbEntity
  8
LC-002-100-D00-0
 62
     7
370
    50
100
AcDbCircle
 10
-351.183175
 20
452.217119
 30
0.0
 40
0.6000000000000227
100
AcDbArc
 50
180.0
 51
255.0
  0
LINE
  5
2A7
330
1F
100
AcDbEntity
  8
LC-002-100-D00-0
 62
     7
370
    50
100
AcDbLine
 10
-350.632334
 20
451.448352
 30
0.0
 11
-351.338466
 21
451.637563
 31
0.0
  0
LINE
  5
2A8
330
1F
100
AcDbEntity
  8
LC-002-100-D00-0
 62
     7
370
    50
100
AcDbLine
 10
-350.632334
 20
451.448352
 30
0.0
 11
-350.632334
 21
449.448353
 31
0.0
  0
LINE
  5
2A9
330
1F
100
AcDbEntity
  8
LC-002-100-D00-0
 62
     7
370
    50
100
AcDbLine
 10
-353.583175
 20
450.448353
 30
0.0
 11
-352.583175
 21
449.448353
 31
0.0
  0
LINE
  5
2AA
330
1F
100
AcDbEntity
  8
LC-002-100-D00-0
 62
     7
370
    50
100
AcDbLine
 10
-353.583175
 20
450.448353
 30
0.0
 11
-353.583182
 21
456.448352
 31
0.0
  0
LINE
  5
2AB
330
1F
100
AcDbEntity
  8
LC-002-100-D00-0
 62
     7
370
    50
100
AcDbLine
 10
-352.583165
 20
457.448353
 30
0.0
 11
-353.583182
 21
456.448352
 31
0.0
  0
LINE
  5
2AC
330
1F
100
AcDbEntity
  8
LC-002-100-D00-0
 62
     7
370
    50
100
AcDbLine
 10
-350.632334
 20
457.448353
 30
0.0
 11
-350.632334
 21
455.448352
 31
0.0
  0
LINE
  5
2AD
330
1F
100
AcDbEntity
  8
LC-002-100-D00-0
 62
     7
370
    50
100
AcDbLine
 10
-351.338466
 20
455.259142
 30
0.0
 11
-350.632334
 21
455.448352
 31
0.0
  0
ARC
  5
2AE
330
1F
100
AcDbEntity
  8
LC-002-100-D00-0
 62
     7
370
    50
100
AcDbCircle
 10
-351.183175
 20
454.679586
 30
0.0
 40
0.600000000000118
100
AcDbArc
 50
105.0
 51
180.0
  0
LINE
  5
2AF
330
1F
100
AcDbEntity
  8
LC-002-100-D00-0
 62
     7
370
    50
100
AcDbLine
 10
-352.583175
 20
449.448353
 30
0.0
 11
-350.632334
 21
449.448353
 31
0.0
  0
LINE
  5
2B0
330
1F
100
AcDbEntity
  8
LC-002-100-D00-0
 62
     7
370
    50
100
AcDbLine
 10
-352.583165
 20
457.448353
 30
0.0
 11
-350.632334
 21
457.448353
 31
0.0
  0
LINE
  5
2B1
330
1F
100
AcDbEntity
  8
LC-002-100-D00-0
 62
     7
370
    50
100
AcDbLine
 10
-360.383175
 20
450.448353
 30
0.0
 11
-360.225335
 21
450.448353
 31
0.0
  0
LINE
  5
2B2
330
1F
100
AcDbEntity
  8
LC-002-100-D00-0
 62
     7
370
    50
100
AcDbLine
 10
-353.741014
 20
450.448353
 30
0.0
 11
-353.583175
 21
450.448353
 31
0.0
  0
LINE
  5
2B3
330
1F
100
AcDbEntity
  8
LC-002-100-D00-0
 62
     7
370
    50
100
AcDbLine
 10
-352.583175
 20
449.448353
 30
0.0
 11
-353.118956
 21
449.448353
 31
0.0
  0
LINE
  5
2B4
330
1F
100
AcDbEntity
  8
LC-002-100-D00-0
 62
     7
370
    50
100
AcDbLine
 10
-360.847393
 20
449.448353
 30
0.0
 11
-361.383175
 21
449.448353
 31
0.0
  0
LINE
  5
2B5
330
1F
100
AcDbEntity
  8
LC-002-100-D00-0
 62
     7
370
    50
100
AcDbLine
 10
-350.632334
 20
457.448353
 30
0.0
 11
-353.083188
 21
457.448353
 31
0.0
  0
LINE
  5
2B6
330
1F
100
AcDbEntity
  8
LC-002-100-D00-0
 62
     7
370
    50
100
AcDbLine
 10
-353.083188
 20
457.448353
 30
0.0
 11
-353.083175
 21
468.448353
 31
0.0
  0
LINE
  5
2B7
330
1F
100
AcDbEntity
  8
LC-002-100-D00-0
 62
     7
370
    50
100
AcDbLine
 10
-353.083175
 20
468.448353
 30
0.0
 11
-339.733175
 21
468.448353
 31
0.0
  0
ARC
  5
2B8
330
1F
100
AcDbEntity
  8
LC-002-100-D00-0
 62
     7
370
    50
100
AcDbCircle
 10
-339.733175
 20
467.448353
 30
0.0
 40
1.0
100
AcDbArc
 50
0.0
 51
90.0
  0
LINE
  5
2B9
330
1F
100
AcDbEntity
  8
LC-002-100-D00-0
 62
     7
370
    50
100
AcDbLine
 10
-338.733175
 20
467.448353
 30
0.0
 11
-338.733161
 21
461.448352
 31
0.0
  0
LINE
  5
2BA
330
1F
100
AcDbEntity
  8
LC-002-100-D00-0
 62
     7
370
    50
100
AcDbLine
 10
-341.733175
 20
461.448353
 30
0.0
 11
-338.733161
 21
461.448352
 31
0.0
  0
LINE
  5
2BB
330
1F
100
AcDbEntity
  8
LC-002-100-D00-0
 62
     7
370
    50
100
AcDbLine
 10
-341.733175
 20
461.448353
 30
0.0
 11
-341.733182
 21
465.448353
 31
0.0
  0
LINE
  5
2BC
330
1F
100
AcDbEntity
  8
LC-002-100-D00-0
 62
     7
370
    50
100
AcDbLine
 10
-346.233175
 20
465.448353
 30
0.0
 11
-341.733182
 21
465.448353
 31
0.0
  0
ARC
  5
2BD
330
1F
100
AcDbEntity
  8
LC-002-100-D00-0
 62
     7
370
    50
100
AcDbCircle
 10
-346.233175
 20
464.448353
 30
0.0
 40
1.000000000000227
100
AcDbArc
 50
90.0
 51
180.0
  0
LINE
  5
2BE
330
1F
100
AcDbEntity
  8
LC-002-100-D00-0
 62
     7
370
    50
100
AcDbLine
 10
-347.233175
 20
450.448353
 30
0.0
 11
-347.233175
 21
464.448353
 31
0.0
  0
ARC
  5
2BF
330
1F
100
AcDbEntity
  8
LC-002-100-D00-0
 62
     7
370
    50
100
AcDbCircle
 10
-348.233175
 20
450.448353
 30
0.0
 40
1.000000000000227
100
AcDbArc
 50
270.0
 51
0.0
  0
LINE
  5
2C0
330
1F
100
AcDbEntity
  8
LC-002-100-D00-0
 62
     7
370
    50
100
AcDbLine
 10
-348.233175
 20
449.448353
 30
0.0
 11
-350.632334
 21
449.448353
 31
0.0
  0
LINE
  5
2C1
330
1F
100
AcDbEntity
  8
LC-002-100-D00-0
 62
     7
370
    50
100
AcDbLine
 10
-350.632334
 20
451.448352
 30
0.0
 11
-350.632334
 21
449.448353
 31
0.0
  0
LINE
  5
2C2
330
1F
100
AcDbEntity
  8
LC-002-100-D00-0
 62
     7
370
    50
100
AcDbLine
 10
-351.283175
 20
451.448353
 30
0.0
 11
-350.632334
 21
451.448352
 31
0.0
  0
ARC
  5
2C3
330
1F
100
AcDbEntity
  8
LC-002-100-D00-0
 62
     7
370
    50
100
AcDbCircle
 10
-351.283175
 20
451.948353
 30
0.0
 40
0.5
100
AcDbArc
 50
180.0
 51
270.0
  0
LINE
  5
2C4
330
1F
100
AcDbEntity
  8
LC-002-100-D00-0
 62
     7
370
    50
100
AcDbLine
 10
-351.783175
 20
454.948353
 30
0.0
 11
-351.783175
 21
451.948353
 31
0.0
  0
ARC
  5
2C5
330
1F
100
AcDbEntity
  8
LC-002-100-D00-0
 62
     7
370
    50
100
AcDbCircle
 10
-351.283175
 20
454.948353
 30
0.0
 40
0.5
100
AcDbArc
 50
90.0
 51
180.0
  0
LINE
  5
2C6
330
1F
100
AcDbEntity
  8
LC-002-100-D00-0
 62
     7
370
    50
100
AcDbLine
 10
-350.632334
 20
455.448352
 30
0.0
 11
-351.283175
 21
455.448353
 31
0.0
  0
LINE
  5
2C7
330
1F
100
AcDbEntity
  8
LC-002-100-D00-0
 62
     7
370
    50
100
AcDbLine
 10
-350.632334
 20
457.448353
 30
0.0
 11
-350.632334
 21
455.448352
 31
0.0
  0
ARC
  5
2C8
330
1F
100
AcDbEntity
  8
LC-002-100-D00-0
 62
     7
370
    50
100
AcDbCircle
 10
-367.733175
 20
464.448353
 30
0.0
 40
1.000000000000227
100
AcDbArc
 50
0.0
 51
90.0
  0
LINE
  5
2C9
330
1F
100
AcDbEntity
  8
LC-002-100-D00-0
 62
     7
370
    50
100
AcDbLine
 10
-366.733175
 20
464.448353
 30
0.0
 11
-366.733175
 21
450.448353
 31
0.0
  0
ARC
  5
2CA
330
1F
100
AcDbEntity
  8
LC-002-100-D00-0
 62
     7
370
    50
100
AcDbCircle
 10
-365.733175
 20
450.448353
 30
0.0
 40
1.000000000000227
100
AcDbArc
 50
180.0
 51
270.0
  0
LINE
  5
2CB
330
1F
100
AcDbEntity
  8
LC-002-100-D00-0
 62
     7
370
    50
100
AcDbLine
 10
-362.183175
 20
451.948353
 30
0.0
 11
-362.183175
 21
454.948353
 31
0.0
  0
LINE
  5
2CC
330
1F
100
AcDbEntity
  8
LC-002-100-D00-0
 62
     7
370
    50
100
AcDbLine
 10
-360.883175
 20
468.448353
 30
0.0
 11
-360.883171
 21
457.448353
 31
0.0
  0
LINE
  5
2CD
330
1F
100
AcDbEntity
  8
LC-002-100-D00-0
 62
     7
370
    50
100
AcDbLine
 10
-360.883175
 20
468.448353
 30
0.0
 11
-353.083175
 21
468.448353
 31
0.0
  0
LINE
  5
2CE
330
1F
100
AcDbEntity
  8
LC-002-100-D00-0
 62
     7
370
    50
100
AcDbLine
 10
-363.334025
 20
457.448353
 30
0.0
 11
-363.334025
 21
455.448352
 31
0.0
  0
LINE
  5
2CF
330
1F
100
AcDbEntity
  8
LC-002-100-D00-0
 62
     7
370
    50
100
AcDbLine
 10
-363.334025
 20
451.448352
 30
0.0
 11
-363.334025
 21
449.448353
 31
0.0
  0
ARC
  5
2D0
330
1F
100
AcDbEntity
  8
LC-002-100-D00-0
 62
     7
370
    50
100
AcDbCircle
 10
-362.683175
 20
451.948353
 30
0.0
 40
0.5000000000002274
100
AcDbArc
 50
270.0
 51
0.0
  0
LINE
  5
2D1
330
1F
100
AcDbEntity
  8
LC-002-100-D00-0
 62
     7
370
    50
100
AcDbLine
 10
-363.334025
 20
451.448352
 30
0.0
 11
-362.683175
 21
451.448353
 31
0.0
  0
LINE
  5
2D2
330
1F
100
AcDbEntity
  8
LC-002-100-D00-0
 62
     7
370
    50
100
AcDbLine
 10
-372.233177
 20
465.448353
 30
0.0
 11
-372.233175
 21
461.448353
 31
0.0
  0
LINE
  5
2D3
330
1F
100
AcDbEntity
  8
LC-002-100-D00-0
 62
     7
370
    50
100
AcDbLine
 10
-375.233168
 20
461.448352
 30
0.0
 11
-375.233175
 21
467.448353
 31
0.0
  0
ARC
  5
2D4
330
1F
100
AcDbEntity
  8
LC-002-100-D00-0
 62
     7
370
    50
100
AcDbCircle
 10
-374.233175
 20
467.448353
 30
0.0
 40
0.9999999999997726
100
AcDbArc
 50
90.0
 51
180.0
  0
LINE
  5
2D5
330
1F
100
AcDbEntity
  8
LC-002-100-D00-0
 62
     7
370
    50
100
AcDbLine
 10
-362.683175
 20
455.448353
 30
0.0
 11
-363.334025
 21
455.448352
 31
0.0
  0
ARC
  5
2D6
330
1F
100
AcDbEntity
  8
LC-002-100-D00-0
 62
     7
370
    50
100
AcDbCircle
 10
-362.683175
 20
454.948353
 30
0.0
 40
0.5000000000001137
100
AcDbArc
 50
0.0
 51
90.0
  0
LINE
  5
2D7
330
1F
100
AcDbEntity
  8
LC-002-100-D00-0
 62
     7
370
    50
100
AcDbLine
 10
-375.233168
 20
461.448352
 30
0.0
 11
-372.233175
 21
461.448353
 31
0.0
  0
LINE
  5
2D8
330
1F
100
AcDbEntity
  8
LC-002-100-D00-0
 62
     7
370
    50
100
AcDbLine
 10
-360.883171
 20
457.448353
 30
0.0
 11
-363.334025
 21
457.448353
 31
0.0
  0
LINE
  5
2D9
330
1F
100
AcDbEntity
  8
LC-002-100-D00-0
 62
     7
370
    50
100
AcDbLine
 10
-363.334025
 20
449.448353
 30
0.0
 11
-365.733175
 21
449.448353
 31
0.0
  0
LINE
  5
2DA
330
1F
100
AcDbEntity
  8
LC-002-100-D00-0
 62
     7
370
    50
100
AcDbLine
 10
-372.233177
 20
465.448353
 30
0.0
 11
-367.733175
 21
465.448353
 31
0.0
  0
LINE
  5
2DB
330
1F
100
AcDbEntity
  8
LC-002-100-D00-0
 62
     7
370
    50
100
AcDbLine
 10
-374.233175
 20
468.448353
 30
0.0
 11
-360.883175
 21
468.448353
 31
0.0
  0
LINE
  5
2DC
330
1F
100
AcDbEntity
  8
LC-002-100-D00-0
 62
     7
370
    50
100
AcDbLine
 10
-343.733175
 20
461.448353
 30
0.0
 11
-341.733175
 21
461.448353
 31
0.0
  0
LINE
  5
2DD
330
1F
100
AcDbEntity
  8
LC-002-100-D00-0
 62
     7
370
    50
100
AcDbLine
 10
-372.233175
 20
461.448353
 30
0.0
 11
-370.233175
 21
461.448353
 31
0.0
  0
LINE
  5
2DE
330
1F
100
AcDbEntity
  8
LC-002-100-D00-0
 62
     7
370
    50
100
AcDbLine
 10
-370.233175
 20
461.448353
 30
0.0
 11
-366.733188
 21
461.448352
 31
0.0
  0
LINE
  5
2DF
330
1F
100
AcDbEntity
  8
LC-002-100-D00-0
 62
     7
370
    50
100
AcDbLine
 10
-347.233171
 20
461.448352
 30
0.0
 11
-343.733175
 21
461.448353
 31
0.0
  0
LINE
  5
2E0
330
1F
100
AcDbEntity
  8
LC-002-100-D00-0
 62
     7
370
    50
100
AcDbLine
 10
-225.383172
 20
456.448352
 30
0.0
 11
-226.383174
 21
457.448353
 31
0.0
  0
LINE
  5
2E1
330
1F
100
AcDbEntity
  8
LC-002-100-D00-0
 62
     7
370
    50
100
AcDbLine
 10
-225.383172
 20
456.448352
 30
0.0
 11
-225.383175
 21
450.448353
 31
0.0
  0
LINE
  5
2E2
330
1F
100
AcDbEntity
  8
LC-002-100-D00-0
 62
     7
370
    50
100
AcDbLine
 10
-226.383175
 20
449.448353
 30
0.0
 11
-225.383175
 21
450.448353
 31
0.0
  0
LINE
  5
2E3
330
1F
100
AcDbEntity
  8
LC-002-100-D00-0
 62
     7
370
    50
100
AcDbLine
 10
-228.334034
 20
451.448352
 30
0.0
 11
-228.334034
 21
449.448353
 31
0.0
  0
LINE
  5
2E4
330
1F
100
AcDbEntity
  8
LC-002-100-D00-0
 62
     7
370
    50
100
AcDbLine
 10
-227.627883
 20
451.637563
 30
0.0
 11
-228.334034
 21
451.448352
 31
0.0
  0
ARC
  5
2E5
330
1F
100
AcDbEntity
  8
LC-002-100-D00-0
 62
     7
370
    50
100
AcDbCircle
 10
-227.783175
 20
452.217119
 30
0.0
 40
0.6000000000000886
100
AcDbArc
 50
285.0
 51
0.0
  0
LINE
  5
2E6
330
1F
100
AcDbEntity
  8
LC-002-100-D00-0
 62
     7
370
    50
100
AcDbLine
 10
-227.183175
 20
454.679586
 30
0.0
 11
-227.183175
 21
452.217119
 31
0.0
  0
ARC
  5
2E7
330
1F
100
AcDbEntity
  8
LC-002-100-D00-0
 62
     7
370
    50
100
AcDbCircle
 10
-227.783175
 20
454.679586
 30
0.0
 40
0.6000000000002501
100
AcDbArc
 50
0.0
 51
75.0
  0
LINE
  5
2E8
330
1F
100
AcDbEntity
  8
LC-002-100-D00-0
 62
     7
370
    50
100
AcDbLine
 10
-228.334034
 20
455.448352
 30
0.0
 11
-227.627883
 21
455.259142
 31
0.0
  0
LINE
  5
2E9
330
1F
100
AcDbEntity
  8
LC-002-100-D00-0
 62
     7
370
    50
100
AcDbLine
 10
-228.334034
 20
457.448353
 30
0.0
 11
-228.334034
 21
455.448352
 31
0.0
  0
LINE
  5
2EA
330
1F
100
AcDbEntity
  8
LC-002-100-D00-0
 62
     7
370
    50
100
AcDbLine
 10
-228.334034
 20
449.448353
 30
0.0
 11
-226.383175
 21
449.448353
 31
0.0
  0
LINE
  5
2EB
330
1F
100
AcDbEntity
  8
LC-002-100-D00-0
 62
     7
370
    50
100
AcDbLine
 10
-228.334034
 20
457.448353
 30
0.0
 11
-226.383174
 21
457.448353
 31
0.0
  0
LINE
  5
2EC
330
1F
100
AcDbEntity
  8
LC-002-100-D00-0
 62
     7
370
    50
100
AcDbLine
 10
-216.783175
 20
452.217119
 30
0.0
 11
-216.783175
 21
454.679586
 31
0.0
  0
ARC
  5
2ED
330
1F
100
AcDbEntity
  8
LC-002-100-D00-0
 62
     7
370
    50
100
AcDbCircle
 10
-216.183175
 20
452.217119
 30
0.0
 40
0.6000000000000227
100
AcDbArc
 50
180.0
 51
255.0
  0
LINE
  5
2EE
330
1F
100
AcDbEntity
  8
LC-002-100-D00-0
 62
     7
370
    50
100
AcDbLine
 10
-215.632329
 20
451.448352
 30
0.0
 11
-216.338466
 21
451.637563
 31
0.0
  0
LINE
  5
2EF
330
1F
100
AcDbEntity
  8
LC-002-100-D00-0
 62
     7
370
    50
100
AcDbLine
 10
-215.632329
 20
451.448352
 30
0.0
 11
-215.632329
 21
449.448353
 31
0.0
  0
LINE
  5
2F0
330
1F
100
AcDbEntity
  8
LC-002-100-D00-0
 62
     7
370
    50
100
AcDbLine
 10
-218.583175
 20
450.448353
 30
0.0
 11
-217.583175
 21
449.448353
 31
0.0
  0
LINE
  5
2F1
330
1F
100
AcDbEntity
  8
LC-002-100-D00-0
 62
     7
370
    50
100
AcDbLine
 10
-218.583175
 20
450.448353
 30
0.0
 11
-218.583176
 21
456.448352
 31
0.0
  0
LINE
  5
2F2
330
1F
100
AcDbEntity
  8
LC-002-100-D00-0
 62
     7
370
    50
100
AcDbLine
 10
-217.583174
 20
457.448353
 30
0.0
 11
-218.583176
 21
456.448352
 31
0.0
  0
LINE
  5
2F3
330
1F
100
AcDbEntity
  8
LC-002-100-D00-0
 62
     7
370
    50
100
AcDbLine
 10
-215.632329
 20
457.448353
 30
0.0
 11
-215.632329
 21
455.448352
 31
0.0
  0
LINE
  5
2F4
330
1F
100
AcDbEntity
  8
LC-002-100-D00-0
 62
     7
370
    50
100
AcDbLine
 10
-216.338466
 20
455.259142
 30
0.0
 11
-215.632329
 21
455.448352
 31
0.0
  0
ARC
  5
2F5
330
1F
100
AcDbEntity
  8
LC-002-100-D00-0
 62
     7
370
    50
100
AcDbCircle
 10
-216.183175
 20
454.679586
 30
0.0
 40
0.600000000000118
100
AcDbArc
 50
105.0
 51
180.0
  0
LINE
  5
2F6
330
1F
100
AcDbEntity
  8
LC-002-100-D00-0
 62
     7
370
    50
100
AcDbLine
 10
-217.583175
 20
449.448353
 30
0.0
 11
-215.632329
 21
449.448353
 31
0.0
  0
LINE
  5
2F7
330
1F
100
AcDbEntity
  8
LC-002-100-D00-0
 62
     7
370
    50
100
AcDbLine
 10
-217.583174
 20
457.448353
 30
0.0
 11
-215.632329
 21
457.448353
 31
0.0
  0
LINE
  5
2F8
330
1F
100
AcDbEntity
  8
LC-002-100-D00-0
 62
     7
370
    50
100
AcDbLine
 10
-225.383175
 20
450.448353
 30
0.0
 11
-225.225335
 21
450.448353
 31
0.0
  0
LINE
  5
2F9
330
1F
100
AcDbEntity
  8
LC-002-100-D00-0
 62
     7
370
    50
100
AcDbLine
 10
-218.741014
 20
450.448353
 30
0.0
 11
-218.583175
 21
450.448353
 31
0.0
  0
LINE
  5
2FA
330
1F
100
AcDbEntity
  8
LC-002-100-D00-0
 62
     7
370
    50
100
AcDbLine
 10
-217.583175
 20
449.448353
 30
0.0
 11
-218.118956
 21
449.448353
 31
0.0
  0
LINE
  5
2FB
330
1F
100
AcDbEntity
  8
LC-002-100-D00-0
 62
     7
370
    50
100
AcDbLine
 10
-225.847393
 20
449.448353
 30
0.0
 11
-226.383175
 21
449.448353
 31
0.0
  0
LINE
  5
2FC
330
1F
100
AcDbEntity
  8
LC-002-100-D00-0
 62
     7
370
    50
100
AcDbLine
 10
-215.632329
 20
457.448353
 30
0.0
 11
-218.083168
 21
457.448353
 31
0.0
  0
LINE
  5
2FD
330
1F
100
AcDbEntity
  8
LC-002-100-D00-0
 62
     7
370
    50
100
AcDbLine
 10
-218.083168
 20
457.448353
 30
0.0
 11
-218.083175
 21
468.448353
 31
0.0
  0
LINE
  5
2FE
330
1F
100
AcDbEntity
  8
LC-002-100-D00-0
 62
     7
370
    50
100
AcDbLine
 10
-218.083175
 20
468.448353
 30
0.0
 11
-204.733175
 21
468.448353
 31
0.0
  0
ARC
  5
2FF
330
1F
100
AcDbEntity
  8
LC-002-100-D00-0
 62
     7
370
    50
100
AcDbCircle
 10
-204.733175
 20
467.448353
 30
0.0
 40
1.0
100
AcDbArc
 50
0.0
 51
90.0
  0
LINE
  5
300
330
1F
100
AcDbEntity
  8
LC-002-100-D00-0
 62
     7
370
    50
100
AcDbLine
 10
-203.733175
 20
467.448353
 30
0.0
 11
-203.733171
 21
461.448352
 31
0.0
  0
LINE
  5
301
330
1F
100
AcDbEntity
  8
LC-002-100-D00-0
 62
     7
370
    50
100
AcDbLine
 10
-206.733175
 20
461.448353
 30
0.0
 11
-203.733171
 21
461.448352
 31
0.0
  0
LINE
  5
302
330
1F
100
AcDbEntity
  8
LC-002-100-D00-0
 62
     7
370
    50
100
AcDbLine
 10
-206.733175
 20
461.448353
 30
0.0
 11
-206.733177
 21
465.448353
 31
0.0
  0
LINE
  5
303
330
1F
100
AcDbEntity
  8
LC-002-100-D00-0
 62
     7
370
    50
100
AcDbLine
 10
-211.233175
 20
465.448353
 30
0.0
 11
-206.733177
 21
465.448353
 31
0.0
  0
ARC
  5
304
330
1F
100
AcDbEntity
  8
LC-002-100-D00-0
 62
     7
370
    50
100
AcDbCircle
 10
-211.233175
 20
464.448353
 30
0.0
 40
1.000000000000227
100
AcDbArc
 50
90.0
 51
180.0
  0
LINE
  5
305
330
1F
100
AcDbEntity
  8
LC-002-100-D00-0
 62
     7
370
    50
100
AcDbLine
 10
-212.233175
 20
450.448353
 30
0.0
 11
-212.233175
 21
464.448353
 31
0.0
  0
ARC
  5
306
330
1F
100
AcDbEntity
  8
LC-002-100-D00-0
 62
     7
370
    50
100
AcDbCircle
 10
-213.233175
 20
450.448353
 30
0.0
 40
1.000000000000227
100
AcDbArc
 50
270.0
 51
0.0
  0
LINE
  5
307
330
1F
100
AcDbEntity
  8
LC-002-100-D00-0
 62
     7
370
    50
100
AcDbLine
 10
-213.233175
 20
449.448353
 30
0.0
 11
-215.632329
 21
449.448353
 31
0.0
  0
LINE
  5
308
330
1F
100
AcDbEntity
  8
LC-002-100-D00-0
 62
     7
370
    50
100
AcDbLine
 10
-215.632329
 20
451.448352
 30
0.0
 11
-215.632329
 21
449.448353
 31
0.0
  0
LINE
  5
309
330
1F
100
AcDbEntity
  8
LC-002-100-D00-0
 62
     7
370
    50
100
AcDbLine
 10
-216.283175
 20
451.448353
 30
0.0
 11
-215.632329
 21
451.448352
 31
0.0
  0
ARC
  5
30A
330
1F
100
AcDbEntity
  8
LC-002-100-D00-0
 62
     7
370
    50
100
AcDbCircle
 10
-216.283175
 20
451.948353
 30
0.0
 40
0.4999999999998863
100
AcDbArc
 50
180.0
 51
270.0
  0
LINE
  5
30B
330
1F
100
AcDbEntity
  8
LC-002-100-D00-0
 62
     7
370
    50
100
AcDbLine
 10
-216.783175
 20
454.948353
 30
0.0
 11
-216.783175
 21
451.948353
 31
0.0
  0
ARC
  5
30C
330
1F
100
AcDbEntity
  8
LC-002-100-D00-0
 62
     7
370
    50
100
AcDbCircle
 10
-216.283175
 20
454.948353
 30
0.0
 40
0.5
100
AcDbArc
 50
90.0
 51
180.0
  0
LINE
  5
30D
330
1F
100
AcDbEntity
  8
LC-002-100-D00-0
 62
     7
370
    50
100
AcDbLine
 10
-215.632329
 20
455.448352
 30
0.0
 11
-216.283175
 21
455.448353
 31
0.0
  0
LINE
  5
30E
330
1F
100
AcDbEntity
  8
LC-002-100-D00-0
 62
     7
370
    50
100
AcDbLine
 10
-215.632329
 20
457.448353
 30
0.0
 11
-215.632329
 21
455.448352
 31
0.0
  0
ARC
  5
30F
330
1F
100
AcDbEntity
  8
LC-002-100-D00-0
 62
     7
370
    50
100
AcDbCircle
 10
-232.733175
 20
464.448353
 30
0.0
 40
1.000000000000227
100
AcDbArc
 50
0.0
 51
90.0
  0
ARC
  5
310
330
1F
100
AcDbEntity
  8
LC-002-100-D00-0
 62
     7
370
    50
100
AcDbCircle
 10
-230.733175
 20
450.448353
 30
0.0
 40
1.000000000000227
100
AcDbArc
 50
180.0
 51
270.0
  0
LINE
  5
311
330
1F
100
AcDbEntity
  8
LC-002-100-D00-0
 62
     7
370
    50
100
AcDbLine
 10
-231.733175
 20
464.448353
 30
0.0
 11
-231.733175
 21
450.448353
 31
0.0
  0
LINE
  5
312
330
1F
100
AcDbEntity
  8
LC-002-100-D00-0
 62
     7
370
    50
100
AcDbLine
 10
-227.183175
 20
451.948353
 30
0.0
 11
-227.183175
 21
454.948353
 31
0.0
  0
LINE
  5
313
330
1F
100
AcDbEntity
  8
LC-002-100-D00-0
 62
     7
370
    50
100
AcDbLine
 10
-225.883175
 20
468.448353
 30
0.0
 11
-225.883181
 21
457.448353
 31
0.0
  0
LINE
  5
314
330
1F
100
AcDbEntity
  8
LC-002-100-D00-0
 62
     7
370
    50
100
AcDbLine
 10
-225.883175
 20
468.448353
 30
0.0
 11
-218.083175
 21
468.448353
 31
0.0
  0
LINE
  5
315
330
1F
100
AcDbEntity
  8
LC-002-100-D00-0
 62
     7
370
    50
100
AcDbLine
 10
-228.334034
 20
451.448352
 30
0.0
 11
-228.334034
 21
449.448353
 31
0.0
  0
LINE
  5
316
330
1F
100
AcDbEntity
  8
LC-002-100-D00-0
 62
     7
370
    50
100
AcDbLine
 10
-228.334034
 20
457.448353
 30
0.0
 11
-228.334034
 21
455.448352
 31
0.0
  0
ARC
  5
317
330
1F
100
AcDbEntity
  8
LC-002-100-D00-0
 62
     7
370
    50
100
AcDbCircle
 10
-227.683175
 20
451.948353
 30
0.0
 40
0.5000000000002274
100
AcDbArc
 50
270.0
 51
0.0
  0
LINE
  5
318
330
1F
100
AcDbEntity
  8
LC-002-100-D00-0
 62
     7
370
    50
100
AcDbLine
 10
-228.334034
 20
451.448352
 30
0.0
 11
-227.683175
 21
451.448353
 31
0.0
  0
LINE
  5
319
330
1F
100
AcDbEntity
  8
LC-002-100-D00-0
 62
     7
370
    50
100
AcDbLine
 10
-237.233186
 20
465.448353
 30
0.0
 11
-237.233175
 21
461.448353
 31
0.0
  0
LINE
  5
31A
330
1F
100
AcDbEntity
  8
LC-002-100-D00-0
 62
     7
370
    50
100
AcDbLine
 10
-240.233178
 20
461.448352
 30
0.0
 11
-240.233175
 21
467.448353
 31
0.0
  0
ARC
  5
31B
330
1F
100
AcDbEntity
  8
LC-002-100-D00-0
 62
     7
370
    50
100
AcDbCircle
 10
-239.233175
 20
467.448353
 30
0.0
 40
0.9999999999997726
100
AcDbArc
 50
90.0
 51
180.0
  0
LINE
  5
31C
330
1F
100
AcDbEntity
  8
LC-002-100-D00-0
 62
     7
370
    50
100
AcDbLine
 10
-227.683175
 20
455.448353
 30
0.0
 11
-228.334034
 21
455.448352
 31
0.0
  0
ARC
  5
31D
330
1F
100
AcDbEntity
  8
LC-002-100-D00-0
 62
     7
370
    50
100
AcDbCircle
 10
-227.683175
 20
454.948353
 30
0.0
 40
0.5000000000002274
100
AcDbArc
 50
0.0
 51
90.0
  0
LINE
  5
31E
330
1F
100
AcDbEntity
  8
LC-002-100-D00-0
 62
     7
370
    50
100
AcDbLine
 10
-225.883181
 20
457.448353
 30
0.0
 11
-228.334034
 21
457.448353
 31
0.0
  0
LINE
  5
31F
330
1F
100
AcDbEntity
  8
LC-002-100-D00-0
 62
     7
370
    50
100
AcDbLine
 10
-228.334034
 20
449.448353
 30
0.0
 11
-230.733175
 21
449.448353
 31
0.0
  0
LINE
  5
320
330
1F
100
AcDbEntity
  8
LC-002-100-D00-0
 62
     7
370
    50
100
AcDbLine
 10
-237.233186
 20
465.448353
 30
0.0
 11
-232.733175
 21
465.448353
 31
0.0
  0
LINE
  5
321
330
1F
100
AcDbEntity
  8
LC-002-100-D00-0
 62
     7
370
    50
100
AcDbLine
 10
-239.233175
 20
468.448353
 30
0.0
 11
-225.883175
 21
468.448353
 31
0.0
  0
LINE
  5
322
330
1F
100
AcDbEntity
  8
LC-002-100-D00-0
 62
     7
370
    50
100
AcDbLine
 10
-240.233178
 20
461.448352
 30
0.0
 11
-237.233175
 21
461.448353
 31
0.0
  0
LINE
  5
323
330
1F
100
AcDbEntity
  8
LC-002-100-D00-0
 62
     7
370
    50
100
AcDbLine
 10
-208.733175
 20
461.448353
 30
0.0
 11
-206.733175
 21
461.448353
 31
0.0
  0
LINE
  5
324
330
1F
100
AcDbEntity
  8
LC-002-100-D00-0
 62
     7
370
    50
100
AcDbLine
 10
-237.233175
 20
461.448353
 30
0.0
 11
-235.233175
 21
461.448353
 31
0.0
  0
LINE
  5
325
330
1F
100
AcDbEntity
  8
LC-002-100-D00-0
 62
     7
370
    50
100
AcDbLine
 10
-235.233175
 20
461.448353
 30
0.0
 11
-231.733168
 21
461.448352
 31
0.0
  0
LINE
  5
326
330
1F
100
AcDbEntity
  8
LC-002-100-D00-0
 62
     7
370
    50
100
AcDbLine
 10
-212.23318
 20
461.448352
 30
0.0
 11
-208.733175
 21
461.448353
 31
0.0
  0
LINE
  5
327
330
1F
100
AcDbEntity
  8
LC-002-100-D00-0
 62
     7
370
    50
100
AcDbLine
 10
244.616827
 20
456.448352
 30
0.0
 11
243.616825
 21
457.448353
 31
0.0
  0
LINE
  5
328
330
1F
100
AcDbEntity
  8
LC-002-100-D00-0
 62
     7
370
    50
100
AcDbLine
 10
244.616827
 20
456.448352
 30
0.0
 11
244.616825
 21
450.448353
 31
0.0
  0
LINE
  5
329
330
1F
100
AcDbEntity
  8
LC-002-100-D00-0
 62
     7
370
    50
100
AcDbLine
 10
243.616825
 20
449.448353
 30
0.0
 11
244.616825
 21
450.448353
 31
0.0
  0
LINE
  5
32A
330
1F
100
AcDbEntity
  8
LC-002-100-D00-0
 62
     7
370
    50
100
AcDbLine
 10
241.66598
 20
451.448352
 30
0.0
 11
241.66598
 21
449.448353
 31
0.0
  0
LINE
  5
32B
330
1F
100
AcDbEntity
  8
LC-002-100-D00-0
 62
     7
370
    50
100
AcDbLine
 10
242.372117
 20
451.637563
 30
0.0
 11
241.66598
 21
451.448352
 31
0.0
  0
ARC
  5
32C
330
1F
100
AcDbEntity
  8
LC-002-100-D00-0
 62
     7
370
    50
100
AcDbCircle
 10
242.216825
 20
452.217119
 30
0.0
 40
0.600000000000118
100
AcDbArc
 50
285.0
 51
0.0
  0
LINE
  5
32D
330
1F
100
AcDbEntity
  8
LC-002-100-D00-0
 62
     7
370
    50
100
AcDbLine
 10
242.816825
 20
454.679586
 30
0.0
 11
242.816825
 21
452.217119
 31
0.0
  0
ARC
  5
32E
330
1F
100
AcDbEntity
  8
LC-002-100-D00-0
 62
     7
370
    50
100
AcDbCircle
 10
242.216825
 20
454.679586
 30
0.0
 40
0.6000000000002501
100
AcDbArc
 50
0.0
 51
75.0
  0
LINE
  5
32F
330
1F
100
AcDbEntity
  8
LC-002-100-D00-0
 62
     7
370
    50
100
AcDbLine
 10
241.66598
 20
455.448352
 30
0.0
 11
242.372117
 21
455.259142
 31
0.0
  0
LINE
  5
330
330
1F
100
AcDbEntity
  8
LC-002-100-D00-0
 62
     7
370
    50
100
AcDbLine
 10
241.66598
 20
457.448353
 30
0.0
 11
241.66598
 21
455.448352
 31
0.0
  0
LINE
  5
331
330
1F
100
AcDbEntity
  8
LC-002-100-D00-0
 62
     7
370
    50
100
AcDbLine
 10
241.66598
 20
449.448353
 30
0.0
 11
243.616825
 21
449.448353
 31
0.0
  0
LINE
  5
332
330
1F
100
AcDbEntity
  8
LC-002-100-D00-0
 62
     7
370
    50
100
AcDbLine
 10
241.66598
 20
457.448353
 30
0.0
 11
243.616825
 21
457.448353
 31
0.0
  0
LINE
  5
333
330
1F
100
AcDbEntity
  8
LC-002-100-D00-0
 62
     7
370
    50
100
AcDbLine
 10
253.216825
 20
452.217119
 30
0.0
 11
253.216825
 21
454.679586
 31
0.0
  0
ARC
  5
334
330
1F
100
AcDbEntity
  8
LC-002-100-D00-0
 62
     7
370
    50
100
AcDbCircle
 10
253.816825
 20
452.217119
 30
0.0
 40
0.5999999999999091
100
AcDbArc
 50
180.0
 51
255.0
  0
LINE
  5
335
330
1F
100
AcDbEntity
  8
LC-002-100-D00-0
 62
     7
370
    50
100
AcDbLine
 10
254.367685
 20
451.448352
 30
0.0
 11
253.661534
 21
451.637563
 31
0.0
  0
LINE
  5
336
330
1F
100
AcDbEntity
  8
LC-002-100-D00-0
 62
     7
370
    50
100
AcDbLine
 10
254.367685
 20
451.448352
 30
0.0
 11
254.367685
 21
449.448353
 31
0.0
  0
LINE
  5
337
330
1F
100
AcDbEntity
  8
LC-002-100-D00-0
 62
     7
370
    50
100
AcDbLine
 10
251.416825
 20
450.448353
 30
0.0
 11
252.416825
 21
449.448353
 31
0.0
  0
LINE
  5
338
330
1F
100
AcDbEntity
  8
LC-002-100-D00-0
 62
     7
370
    50
100
AcDbLine
 10
251.416825
 20
450.448353
 30
0.0
 11
251.416823
 21
456.448352
 31
0.0
  0
LINE
  5
339
330
1F
100
AcDbEntity
  8
LC-002-100-D00-0
 62
     7
370
    50
100
AcDbLine
 10
252.416825
 20
457.448353
 30
0.0
 11
251.416823
 21
456.448352
 31
0.0
  0
LINE
  5
33A
330
1F
100
AcDbEntity
  8
LC-002-100-D00-0
 62
     7
370
    50
100
AcDbLine
 10
254.367685
 20
457.448353
 30
0.0
 11
254.367685
 21
455.448352
 31
0.0
  0
LINE
  5
33B
330
1F
100
AcDbEntity
  8
LC-002-100-D00-0
 62
     7
370
    50
100
AcDbLine
 10
253.661534
 20
455.259142
 30
0.0
 11
254.367685
 21
455.448352
 31
0.0
  0
ARC
  5
33C
330
1F
100
AcDbEntity
  8
LC-002-100-D00-0
 62
     7
370
    50
100
AcDbCircle
 10
253.816825
 20
454.679586
 30
0.0
 40
0.6000000000000886
100
AcDbArc
 50
105.0
 51
180.0
  0
LINE
  5
33D
330
1F
100
AcDbEntity
  8
LC-002-100-D00-0
 62
     7
370
    50
100
AcDbLine
 10
252.416825
 20
449.448353
 30
0.0
 11
254.367685
 21
449.448353
 31
0.0
  0
LINE
  5
33E
330
1F
100
AcDbEntity
  8
LC-002-100-D00-0
 62
     7
370
    50
100
AcDbLine
 10
252.416825
 20
457.448353
 30
0.0
 11
254.367685
 21
457.448353
 31
0.0
  0
LINE
  5
33F
330
1F
100
AcDbEntity
  8
LC-002-100-D00-0
 62
     7
370
    50
100
AcDbLine
 10
244.616825
 20
450.448353
 30
0.0
 11
244.774665
 21
450.448353
 31
0.0
  0
LINE
  5
340
330
1F
100
AcDbEntity
  8
LC-002-100-D00-0
 62
     7
370
    50
100
AcDbLine
 10
251.258986
 20
450.448353
 30
0.0
 11
251.416825
 21
450.448353
 31
0.0
  0
LINE
  5
341
330
1F
100
AcDbEntity
  8
LC-002-100-D00-0
 62
     7
370
    50
100
AcDbLine
 10
252.416825
 20
449.448353
 30
0.0
 11
251.881044
 21
449.448353
 31
0.0
  0
LINE
  5
342
330
1F
100
AcDbEntity
  8
LC-002-100-D00-0
 62
     7
370
    50
100
AcDbLine
 10
244.152607
 20
449.448353
 30
0.0
 11
243.616825
 21
449.448353
 31
0.0
  0
LINE
  5
343
330
1F
100
AcDbEntity
  8
LC-002-100-D00-0
 62
     7
370
    50
100
AcDbLine
 10
254.367685
 20
457.448353
 30
0.0
 11
251.916831
 21
457.448353
 31
0.0
  0
LINE
  5
344
330
1F
100
AcDbEntity
  8
LC-002-100-D00-0
 62
     7
370
    50
100
AcDbLine
 10
251.916831
 20
457.448353
 30
0.0
 11
251.916825
 21
468.448353
 31
0.0
  0
LINE
  5
345
330
1F
100
AcDbEntity
  8
LC-002-100-D00-0
 62
     7
370
    50
100
AcDbLine
 10
251.916825
 20
468.448353
 30
0.0
 11
265.266825
 21
468.448353
 31
0.0
  0
ARC
  5
346
330
1F
100
AcDbEntity
  8
LC-002-100-D00-0
 62
     7
370
    50
100
AcDbCircle
 10
265.266825
 20
467.448353
 30
0.0
 40
1.0
100
AcDbArc
 50
0.0
 51
90.0
  0
LINE
  5
347
330
1F
100
AcDbEntity
  8
LC-002-100-D00-0
 62
     7
370
    50
100
AcDbLine
 10
266.266825
 20
467.448353
 30
0.0
 11
266.266828
 21
461.448352
 31
0.0
  0
LINE
  5
348
330
1F
100
AcDbEntity
  8
LC-002-100-D00-0
 62
     7
370
    50
100
AcDbLine
 10
263.266825
 20
461.448353
 30
0.0
 11
266.266828
 21
461.448352
 31
0.0
  0
LINE
  5
349
330
1F
100
AcDbEntity
  8
LC-002-100-D00-0
 62
     7
370
    50
100
AcDbLine
 10
263.266825
 20
461.448353
 30
0.0
 11
263.266837
 21
465.448353
 31
0.0
  0
LINE
  5
34A
330
1F
100
AcDbEntity
  8
LC-002-100-D00-0
 62
     7
370
    50
100
AcDbLine
 10
258.766825
 20
465.448353
 30
0.0
 11
263.266837
 21
465.448353
 31
0.0
  0
ARC
  5
34B
330
1F
100
AcDbEntity
  8
LC-002-100-D00-0
 62
     7
370
    50
100
AcDbCircle
 10
258.766825
 20
464.448353
 30
0.0
 40
1.000000000000227
100
AcDbArc
 50
90.0
 51
180.0
  0
LINE
  5
34C
330
1F
100
AcDbEntity
  8
LC-002-100-D00-0
 62
     7
370
    50
100
AcDbLine
 10
257.766825
 20
450.448353
 30
0.0
 11
257.766825
 21
464.448353
 31
0.0
  0
ARC
  5
34D
330
1F
100
AcDbEntity
  8
LC-002-100-D00-0
 62
     7
370
    50
100
AcDbCircle
 10
256.766825
 20
450.448353
 30
0.0
 40
1.000000000000227
100
AcDbArc
 50
270.0
 51
0.0
  0
LINE
  5
34E
330
1F
100
AcDbEntity
  8
LC-002-100-D00-0
 62
     7
370
    50
100
AcDbLine
 10
256.766825
 20
449.448353
 30
0.0
 11
254.367685
 21
449.448353
 31
0.0
  0
LINE
  5
34F
330
1F
100
AcDbEntity
  8
LC-002-100-D00-0
 62
     7
370
    50
100
AcDbLine
 10
254.367685
 20
451.448352
 30
0.0
 11
254.367685
 21
449.448353
 31
0.0
  0
LINE
  5
350
330
1F
100
AcDbEntity
  8
LC-002-100-D00-0
 62
     7
370
    50
100
AcDbLine
 10
253.716825
 20
451.448353
 30
0.0
 11
254.367685
 21
451.448352
 31
0.0
  0
ARC
  5
351
330
1F
100
AcDbEntity
  8
LC-002-100-D00-0
 62
     7
370
    50
100
AcDbCircle
 10
253.716825
 20
451.948353
 30
0.0
 40
0.5
100
AcDbArc
 50
180.0
 51
270.0
  0
LINE
  5
352
330
1F
100
AcDbEntity
  8
LC-002-100-D00-0
 62
     7
370
    50
100
AcDbLine
 10
253.216825
 20
454.948353
 30
0.0
 11
253.216825
 21
451.948353
 31
0.0
  0
ARC
  5
353
330
1F
100
AcDbEntity
  8
LC-002-100-D00-0
 62
     7
370
    50
100
AcDbCircle
 10
253.716825
 20
454.948353
 30
0.0
 40
0.5
100
AcDbArc
 50
90.0
 51
180.0
  0
LINE
  5
354
330
1F
100
AcDbEntity
  8
LC-002-100-D00-0
 62
     7
370
    50
100
AcDbLine
 10
254.367685
 20
455.448352
 30
0.0
 11
253.716825
 21
455.448353
 31
0.0
  0
LINE
  5
355
330
1F
100
AcDbEntity
  8
LC-002-100-D00-0
 62
     7
370
    50
100
AcDbLine
 10
254.367685
 20
457.448353
 30
0.0
 11
254.367685
 21
455.448352
 31
0.0
  0
ARC
  5
356
330
1F
100
AcDbEntity
  8
LC-002-100-D00-0
 62
     7
370
    50
100
AcDbCircle
 10
237.266825
 20
464.448353
 30
0.0
 40
1.000000000000227
100
AcDbArc
 50
0.0
 51
90.0
  0
ARC
  5
357
330
1F
100
AcDbEntity
  8
LC-002-100-D00-0
 62
     7
370
    50
100
AcDbCircle
 10
239.266825
 20
450.448353
 30
0.0
 40
1.000000000000227
100
AcDbArc
 50
180.0
 51
270.0
  0
LINE
  5
358
330
1F
100
AcDbEntity
  8
LC-002-100-D00-0
 62
     7
370
    50
100
AcDbLine
 10
238.266825
 20
464.448353
 30
0.0
 11
238.266825
 21
450.448353
 31
0.0
  0
LINE
  5
359
330
1F
100
AcDbEntity
  8
LC-002-100-D00-0
 62
     7
370
    50
100
AcDbLine
 10
242.816825
 20
451.948353
 30
0.0
 11
242.816825
 21
454.948353
 31
0.0
  0
LINE
  5
35A
330
1F
100
AcDbEntity
  8
LC-002-100-D00-0
 62
     7
370
    50
100
AcDbLine
 10
244.116825
 20
468.448353
 30
0.0
 11
244.116818
 21
457.448353
 31
0.0
  0
LINE
  5
35B
330
1F
100
AcDbEntity
  8
LC-002-100-D00-0
 62
     7
370
    50
100
AcDbLine
 10
244.116825
 20
468.448353
 30
0.0
 11
251.916825
 21
468.448353
 31
0.0
  0
LINE
  5
35C
330
1F
100
AcDbEntity
  8
LC-002-100-D00-0
 62
     7
370
    50
100
AcDbLine
 10
241.66598
 20
457.448353
 30
0.0
 11
241.66598
 21
455.448352
 31
0.0
  0
LINE
  5
35D
330
1F
100
AcDbEntity
  8
LC-002-100-D00-0
 62
     7
370
    50
100
AcDbLine
 10
241.66598
 20
451.448352
 30
0.0
 11
241.66598
 21
449.448353
 31
0.0
  0
ARC
  5
35E
330
1F
100
AcDbEntity
  8
LC-002-100-D00-0
 62
     7
370
    50
100
AcDbCircle
 10
242.316825
 20
451.948353
 30
0.0
 40
0.4999999999997726
100
AcDbArc
 50
270.0
 51
0.0
  0
LINE
  5
35F
330
1F
100
AcDbEntity
  8
LC-002-100-D00-0
 62
     7
370
    50
100
AcDbLine
 10
241.66598
 20
451.448352
 30
0.0
 11
242.316825
 21
451.448353
 31
0.0
  0
LINE
  5
360
330
1F
100
AcDbEntity
  8
LC-002-100-D00-0
 62
     7
370
    50
100
AcDbLine
 10
232.766827
 20
465.448353
 30
0.0
 11
232.766825
 21
461.448353
 31
0.0
  0
LINE
  5
361
330
1F
100
AcDbEntity
  8
LC-002-100-D00-0
 62
     7
370
    50
100
AcDbLine
 10
229.766821
 20
461.448352
 30
0.0
 11
229.766825
 21
467.448353
 31
0.0
  0
ARC
  5
362
330
1F
100
AcDbEntity
  8
LC-002-100-D00-0
 62
     7
370
    50
100
AcDbCircle
 10
230.766825
 20
467.448353
 30
0.0
 40
0.9999999999997726
100
AcDbArc
 50
90.0
 51
180.0
  0
LINE
  5
363
330
1F
100
AcDbEntity
  8
LC-002-100-D00-0
 62
     7
370
    50
100
AcDbLine
 10
242.316825
 20
455.448353
 30
0.0
 11
241.66598
 21
455.448352
 31
0.0
  0
ARC
  5
364
330
1F
100
AcDbEntity
  8
LC-002-100-D00-0
 62
     7
370
    50
100
AcDbCircle
 10
242.316825
 20
454.948353
 30
0.0
 40
0.5000000000002274
100
AcDbArc
 50
0.0
 51
90.0
  0
LINE
  5
365
330
1F
100
AcDbEntity
  8
LC-002-100-D00-0
 62
     7
370
    50
100
AcDbLine
 10
244.116818
 20
457.448353
 30
0.0
 11
241.66598
 21
457.448353
 31
0.0
  0
LINE
  5
366
330
1F
100
AcDbEntity
  8
LC-002-100-D00-0
 62
     7
370
    50
100
AcDbLine
 10
241.66598
 20
449.448353
 30
0.0
 11
239.266825
 21
449.448353
 31
0.0
  0
LINE
  5
367
330
1F
100
AcDbEntity
  8
LC-002-100-D00-0
 62
     7
370
    50
100
AcDbLine
 10
232.766827
 20
465.448353
 30
0.0
 11
237.266825
 21
465.448353
 31
0.0
  0
LINE
  5
368
330
1F
100
AcDbEntity
  8
LC-002-100-D00-0
 62
     7
370
    50
100
AcDbLine
 10
230.766825
 20
468.448353
 30
0.0
 11
244.116825
 21
468.448353
 31
0.0
  0
LINE
  5
369
330
1F
100
AcDbEntity
  8
LC-002-100-D00-0
 62
     7
370
    50
100
AcDbLine
 10
229.766821
 20
461.448352
 30
0.0
 11
232.766825
 21
461.448353
 31
0.0
  0
LINE
  5
36A
330
1F
100
AcDbEntity
  8
LC-002-100-D00-0
 62
     7
370
    50
100
AcDbLine
 10
261.266825
 20
461.448353
 30
0.0
 11
263.266825
 21
461.448353
 31
0.0
  0
LINE
  5
36B
330
1F
100
AcDbEntity
  8
LC-002-100-D00-0
 62
     7
370
    50
100
AcDbLine
 10
232.766825
 20
461.448353
 30
0.0
 11
234.766825
 21
461.448353
 31
0.0
  0
LINE
  5
36C
330
1F
100
AcDbEntity
  8
LC-002-100-D00-0
 62
     7
370
    50
100
AcDbLine
 10
234.766825
 20
461.448353
 30
0.0
 11
238.266831
 21
461.448352
 31
0.0
  0
LINE
  5
36D
330
1F
100
AcDbEntity
  8
LC-002-100-D00-0
 62
     7
370
    50
100
AcDbLine
 10
257.766818
 20
461.448352
 30
0.0
 11
261.266825
 21
461.448353
 31
0.0
  0
LINE
  5
36E
330
1F
100
AcDbEntity
  8
LC-002-100-D00-0
 62
     7
370
    50
100
AcDbLine
 10
-90.383174
 20
456.448352
 30
0.0
 11
-91.383176
 21
457.448353
 31
0.0
  0
LINE
  5
36F
330
1F
100
AcDbEntity
  8
LC-002-100-D00-0
 62
     7
370
    50
100
AcDbLine
 10
-90.383174
 20
456.448352
 30
0.0
 11
-90.383175
 21
450.448353
 31
0.0
  0
LINE
  5
370
330
1F
100
AcDbEntity
  8
LC-002-100-D00-0
 62
     7
370
    50
100
AcDbLine
 10
-91.383175
 20
449.448353
 30
0.0
 11
-90.383175
 21
450.448353
 31
0.0
  0
LINE
  5
371
330
1F
100
AcDbEntity
  8
LC-002-100-D00-0
 62
     7
370
    50
100
AcDbLine
 10
-93.334029
 20
451.448352
 30
0.0
 11
-93.334029
 21
449.448353
 31
0.0
  0
LINE
  5
372
330
1F
100
AcDbEntity
  8
LC-002-100-D00-0
 62
     7
370
    50
100
AcDbLine
 10
-92.627883
 20
451.637563
 30
0.0
 11
-93.334029
 21
451.448352
 31
0.0
  0
ARC
  5
373
330
1F
100
AcDbEntity
  8
LC-002-100-D00-0
 62
     7
370
    50
100
AcDbCircle
 10
-92.783175
 20
452.217119
 30
0.0
 40
0.600000000000118
100
AcDbArc
 50
285.0
 51
0.0
  0
LINE
  5
374
330
1F
100
AcDbEntity
  8
LC-002-100-D00-0
 62
     7
370
    50
100
AcDbLine
 10
-92.183175
 20
454.679586
 30
0.0
 11
-92.183175
 21
452.217119
 31
0.0
  0
ARC
  5
375
330
1F
100
AcDbEntity
  8
LC-002-100-D00-0
 62
     7
370
    50
100
AcDbCircle
 10
-92.783175
 20
454.679586
 30
0.0
 40
0.6000000000003638
100
AcDbArc
 50
0.0
 51
75.0
  0
LINE
  5
376
330
1F
100
AcDbEntity
  8
LC-002-100-D00-0
 62
     7
370
    50
100
AcDbLine
 10
-93.334029
 20
455.448352
 30
0.0
 11
-92.627883
 21
455.259142
 31
0.0
  0
LINE
  5
377
330
1F
100
AcDbEntity
  8
LC-002-100-D00-0
 62
     7
370
    50
100
AcDbLine
 10
-93.334029
 20
457.448353
 30
0.0
 11
-93.334029
 21
455.448352
 31
0.0
  0
LINE
  5
378
330
1F
100
AcDbEntity
  8
LC-002-100-D00-0
 62
     7
370
    50
100
AcDbLine
 10
-93.334029
 20
449.448353
 30
0.0
 11
-91.383175
 21
449.448353
 31
0.0
  0
LINE
  5
379
330
1F
100
AcDbEntity
  8
LC-002-100-D00-0
 62
     7
370
    50
100
AcDbLine
 10
-93.334029
 20
457.448353
 30
0.0
 11
-91.383176
 21
457.448353
 31
0.0
  0
LINE
  5
37A
330
1F
100
AcDbEntity
  8
LC-002-100-D00-0
 62
     7
370
    50
100
AcDbLine
 10
-81.783175
 20
452.217119
 30
0.0
 11
-81.783175
 21
454.679586
 31
0.0
  0
ARC
  5
37B
330
1F
100
AcDbEntity
  8
LC-002-100-D00-0
 62
     7
370
    50
100
AcDbCircle
 10
-81.183175
 20
452.217119
 30
0.0
 40
0.6000000000000227
100
AcDbArc
 50
180.0
 51
255.0
  0
LINE
  5
37C
330
1F
100
AcDbEntity
  8
LC-002-100-D00-0
 62
     7
370
    50
100
AcDbLine
 10
-80.632324
 20
451.448352
 30
0.0
 11
-81.338466
 21
451.637563
 31
0.0
  0
LINE
  5
37D
330
1F
100
AcDbEntity
  8
LC-002-100-D00-0
 62
     7
370
    50
100
AcDbLine
 10
-80.632324
 20
451.448352
 30
0.0
 11
-80.632324
 21
449.448353
 31
0.0
  0
LINE
  5
37E
330
1F
100
AcDbEntity
  8
LC-002-100-D00-0
 62
     7
370
    50
100
AcDbLine
 10
-83.583175
 20
450.448353
 30
0.0
 11
-82.583175
 21
449.448353
 31
0.0
  0
LINE
  5
37F
330
1F
100
AcDbEntity
  8
LC-002-100-D00-0
 62
     7
370
    50
100
AcDbLine
 10
-83.583175
 20
450.448353
 30
0.0
 11
-83.583178
 21
456.448352
 31
0.0
  0
LINE
  5
380
330
1F
100
AcDbEntity
  8
LC-002-100-D00-0
 62
     7
370
    50
100
AcDbLine
 10
-82.583176
 20
457.448353
 30
0.0
 11
-83.583178
 21
456.448352
 31
0.0
  0
LINE
  5
381
330
1F
100
AcDbEntity
  8
LC-002-100-D00-0
 62
     7
370
    50
100
AcDbLine
 10
-80.632324
 20
457.448353
 30
0.0
 11
-80.632324
 21
455.448352
 31
0.0
  0
LINE
  5
382
330
1F
100
AcDbEntity
  8
LC-002-100-D00-0
 62
     7
370
    50
100
AcDbLine
 10
-81.338466
 20
455.259142
 30
0.0
 11
-80.632324
 21
455.448352
 31
0.0
  0
ARC
  5
383
330
1F
100
AcDbEntity
  8
LC-002-100-D00-0
 62
     7
370
    50
100
AcDbCircle
 10
-81.183175
 20
454.679586
 30
0.0
 40
0.600000000000118
100
AcDbArc
 50
105.0
 51
180.0
  0
LINE
  5
384
330
1F
100
AcDbEntity
  8
LC-002-100-D00-0
 62
     7
370
    50
100
AcDbLine
 10
-82.583175
 20
449.448353
 30
0.0
 11
-80.632324
 21
449.448353
 31
0.0
  0
LINE
  5
385
330
1F
100
AcDbEntity
  8
LC-002-100-D00-0
 62
     7
370
    50
100
AcDbLine
 10
-82.583176
 20
457.448353
 30
0.0
 11
-80.632324
 21
457.448353
 31
0.0
  0
LINE
  5
386
330
1F
100
AcDbEntity
  8
LC-002-100-D00-0
 62
     7
370
    50
100
AcDbLine
 10
-90.383175
 20
450.448353
 30
0.0
 11
-90.225335
 21
450.448353
 31
0.0
  0
LINE
  5
387
330
1F
100
AcDbEntity
  8
LC-002-100-D00-0
 62
     7
370
    50
100
AcDbLine
 10
-83.741014
 20
450.448353
 30
0.0
 11
-83.583175
 21
450.448353
 31
0.0
  0
LINE
  5
388
330
1F
100
AcDbEntity
  8
LC-002-100-D00-0
 62
     7
370
    50
100
AcDbLine
 10
-82.583175
 20
449.448353
 30
0.0
 11
-83.118956
 21
449.448353
 31
0.0
  0
LINE
  5
389
330
1F
100
AcDbEntity
  8
LC-002-100-D00-0
 62
     7
370
    50
100
AcDbLine
 10
-90.847393
 20
449.448353
 30
0.0
 11
-91.383175
 21
449.448353
 31
0.0
  0
LINE
  5
38A
330
1F
100
AcDbEntity
  8
LC-002-100-D00-0
 62
     7
370
    50
100
AcDbLine
 10
-80.632324
 20
457.448353
 30
0.0
 11
-83.083177
 21
457.448353
 31
0.0
  0
LINE
  5
38B
330
1F
100
AcDbEntity
  8
LC-002-100-D00-0
 62
     7
370
    50
100
AcDbLine
 10
-83.083177
 20
457.448353
 30
0.0
 11
-83.083175
 21
468.448353
 31
0.0
  0
LINE
  5
38C
330
1F
100
AcDbEntity
  8
LC-002-100-D00-0
 62
     7
370
    50
100
AcDbLine
 10
-83.083175
 20
468.448353
 30
0.0
 11
-69.733175
 21
468.448353
 31
0.0
  0
ARC
  5
38D
330
1F
100
AcDbEntity
  8
LC-002-100-D00-0
 62
     7
370
    50
100
AcDbCircle
 10
-69.733175
 20
467.448353
 30
0.0
 40
1.0
100
AcDbArc
 50
0.0
 51
90.0
  0
LINE
  5
38E
330
1F
100
AcDbEntity
  8
LC-002-100-D00-0
 62
     7
370
    50
100
AcDbLine
 10
-68.733175
 20
467.448353
 30
0.0
 11
-68.733173
 21
461.448352
 31
0.0
  0
LINE
  5
38F
330
1F
100
AcDbEntity
  8
LC-002-100-D00-0
 62
     7
370
    50
100
AcDbLine
 10
-71.733175
 20
461.448353
 30
0.0
 11
-68.733173
 21
461.448352
 31
0.0
  0
LINE
  5
390
330
1F
100
AcDbEntity
  8
LC-002-100-D00-0
 62
     7
370
    50
100
AcDbLine
 10
-71.733175
 20
461.448353
 30
0.0
 11
-71.733171
 21
465.448353
 31
0.0
  0
LINE
  5
391
330
1F
100
AcDbEntity
  8
LC-002-100-D00-0
 62
     7
370
    50
100
AcDbLine
 10
-76.233175
 20
465.448353
 30
0.0
 11
-71.733171
 21
465.448353
 31
0.0
  0
ARC
  5
392
330
1F
100
AcDbEntity
  8
LC-002-100-D00-0
 62
     7
370
    50
100
AcDbCircle
 10
-76.233175
 20
464.448353
 30
0.0
 40
1.000000000000227
100
AcDbArc
 50
90.0
 51
180.0
  0
LINE
  5
393
330
1F
100
AcDbEntity
  8
LC-002-100-D00-0
 62
     7
370
    50
100
AcDbLine
 10
-77.233175
 20
450.448353
 30
0.0
 11
-77.233175
 21
464.448353
 31
0.0
  0
ARC
  5
394
330
1F
100
AcDbEntity
  8
LC-002-100-D00-0
 62
     7
370
    50
100
AcDbCircle
 10
-78.233175
 20
450.448353
 30
0.0
 40
1.000000000000227
100
AcDbArc
 50
270.0
 51
0.0
  0
LINE
  5
395
330
1F
100
AcDbEntity
  8
LC-002-100-D00-0
 62
     7
370
    50
100
AcDbLine
 10
-78.233175
 20
449.448353
 30
0.0
 11
-80.632324
 21
449.448353
 31
0.0
  0
LINE
  5
396
330
1F
100
AcDbEntity
  8
LC-002-100-D00-0
 62
     7
370
    50
100
AcDbLine
 10
-80.632324
 20
451.448352
 30
0.0
 11
-80.632324
 21
449.448353
 31
0.0
  0
LINE
  5
397
330
1F
100
AcDbEntity
  8
LC-002-100-D00-0
 62
     7
370
    50
100
AcDbLine
 10
-81.283175
 20
451.448353
 30
0.0
 11
-80.632324
 21
451.448352
 31
0.0
  0
ARC
  5
398
330
1F
100
AcDbEntity
  8
LC-002-100-D00-0
 62
     7
370
    50
100
AcDbCircle
 10
-81.283175
 20
451.948353
 30
0.0
 40
0.5
100
AcDbArc
 50
180.0
 51
270.0
  0
LINE
  5
399
330
1F
100
AcDbEntity
  8
LC-002-100-D00-0
 62
     7
370
    50
100
AcDbLine
 10
-81.783175
 20
454.948353
 30
0.0
 11
-81.783175
 21
451.948353
 31
0.0
  0
ARC
  5
39A
330
1F
100
AcDbEntity
  8
LC-002-100-D00-0
 62
     7
370
    50
100
AcDbCircle
 10
-81.283175
 20
454.948353
 30
0.0
 40
0.5
100
AcDbArc
 50
90.0
 51
180.0
  0
LINE
  5
39B
330
1F
100
AcDbEntity
  8
LC-002-100-D00-0
 62
     7
370
    50
100
AcDbLine
 10
-80.632324
 20
455.448352
 30
0.0
 11
-81.283175
 21
455.448353
 31
0.0
  0
LINE
  5
39C
330
1F
100
AcDbEntity
  8
LC-002-100-D00-0
 62
     7
370
    50
100
AcDbLine
 10
-80.632324
 20
457.448353
 30
0.0
 11
-80.632324
 21
455.448352
 31
0.0
  0
ARC
  5
39D
330
1F
100
AcDbEntity
  8
LC-002-100-D00-0
 62
     7
370
    50
100
AcDbCircle
 10
-97.733175
 20
464.448353
 30
0.0
 40
1.000000000000227
100
AcDbArc
 50
0.0
 51
90.0
  0
ARC
  5
39E
330
1F
100
AcDbEntity
  8
LC-002-100-D00-0
 62
     7
370
    50
100
AcDbCircle
 10
-95.733175
 20
450.448353
 30
0.0
 40
1.000000000000227
100
AcDbArc
 50
180.0
 51
270.0
  0
LINE
  5
39F
330
1F
100
AcDbEntity
  8
LC-002-100-D00-0
 62
     7
370
    50
100
AcDbLine
 10
-96.733175
 20
464.448353
 30
0.0
 11
-96.733175
 21
450.448353
 31
0.0
  0
LINE
  5
3A0
330
1F
100
AcDbEntity
  8
LC-002-100-D00-0
 62
     7
370
    50
100
AcDbLine
 10
-92.183175
 20
451.948353
 30
0.0
 11
-92.183175
 21
454.948353
 31
0.0
  0
LINE
  5
3A1
330
1F
100
AcDbEntity
  8
LC-002-100-D00-0
 62
     7
370
    50
100
AcDbLine
 10
-90.883175
 20
468.448353
 30
0.0
 11
-90.883175
 21
457.448353
 31
0.0
  0
LINE
  5
3A2
330
1F
100
AcDbEntity
  8
LC-002-100-D00-0
 62
     7
370
    50
100
AcDbLine
 10
-90.883175
 20
468.448353
 30
0.0
 11
-83.083175
 21
468.448353
 31
0.0
  0
LINE
  5
3A3
330
1F
100
AcDbEntity
  8
LC-002-100-D00-0
 62
     7
370
    50
100
AcDbLine
 10
-93.334029
 20
457.448353
 30
0.0
 11
-93.334029
 21
455.448352
 31
0.0
  0
LINE
  5
3A4
330
1F
100
AcDbEntity
  8
LC-002-100-D00-0
 62
     7
370
    50
100
AcDbLine
 10
-93.334029
 20
451.448352
 30
0.0
 11
-93.334029
 21
449.448353
 31
0.0
  0
ARC
  5
3A5
330
1F
100
AcDbEntity
  8
LC-002-100-D00-0
 62
     7
370
    50
100
AcDbCircle
 10
-92.683175
 20
451.948353
 30
0.0
 40
0.5000000000002274
100
AcDbArc
 50
270.0
 51
0.0
  0
LINE
  5
3A6
330
1F
100
AcDbEntity
  8
LC-002-100-D00-0
 62
     7
370
    50
100
AcDbLine
 10
-93.334029
 20
451.448352
 30
0.0
 11
-92.683175
 21
451.448353
 31
0.0
  0
LINE
  5
3A7
330
1F
100
AcDbEntity
  8
LC-002-100-D00-0
 62
     7
370
    50
100
AcDbLine
 10
-102.233174
 20
465.448353
 30
0.0
 11
-102.233175
 21
461.448353
 31
0.0
  0
LINE
  5
3A8
330
1F
100
AcDbEntity
  8
LC-002-100-D00-0
 62
     7
370
    50
100
AcDbLine
 10
-105.233172
 20
461.448352
 30
0.0
 11
-105.233175
 21
467.448353
 31
0.0
  0
ARC
  5
3A9
330
1F
100
AcDbEntity
  8
LC-002-100-D00-0
 62
     7
370
    50
100
AcDbCircle
 10
-104.233175
 20
467.448353
 30
0.0
 40
0.9999999999997726
100
AcDbArc
 50
90.0
 51
180.0
  0
LINE
  5
3AA
330
1F
100
AcDbEntity
  8
LC-002-100-D00-0
 62
     7
370
    50
100
AcDbLine
 10
-92.683175
 20
455.448353
 30
0.0
 11
-93.334029
 21
455.448352
 31
0.0
  0
ARC
  5
3AB
330
1F
100
AcDbEntity
  8
LC-002-100-D00-0
 62
     7
370
    50
100
AcDbCircle
 10
-92.683175
 20
454.948353
 30
0.0
 40
0.5000000000002274
100
AcDbArc
 50
0.0
 51
90.0
  0
LINE
  5
3AC
330
1F
100
AcDbEntity
  8
LC-002-100-D00-0
 62
     7
370
    50
100
AcDbLine
 10
-90.883175
 20
457.448353
 30
0.0
 11
-93.334029
 21
457.448353
 31
0.0
  0
LINE
  5
3AD
330
1F
100
AcDbEntity
  8
LC-002-100-D00-0
 62
     7
370
    50
100
AcDbLine
 10
-93.334029
 20
449.448353
 30
0.0
 11
-95.733175
 21
449.448353
 31
0.0
  0
LINE
  5
3AE
330
1F
100
AcDbEntity
  8
LC-002-100-D00-0
 62
     7
370
    50
100
AcDbLine
 10
-102.233174
 20
465.448353
 30
0.0
 11
-97.733175
 21
465.448353
 31
0.0
  0
LINE
  5
3AF
330
1F
100
AcDbEntity
  8
LC-002-100-D00-0
 62
     7
370
    50
100
AcDbLine
 10
-104.233175
 20
468.448353
 30
0.0
 11
-90.883175
 21
468.448353
 31
0.0
  0
LINE
  5
3B0
330
1F
100
AcDbEntity
  8
LC-002-100-D00-0
 62
     7
370
    50
100
AcDbLine
 10
-105.233172
 20
461.448352
 30
0.0
 11
-102.233175
 21
461.448353
 31
0.0
  0
LINE
  5
3B1
330
1F
100
AcDbEntity
  8
LC-002-100-D00-0
 62
     7
370
    50
100
AcDbLine
 10
-73.733175
 20
461.448353
 30
0.0
 11
-71.733175
 21
461.448353
 31
0.0
  0
LINE
  5
3B2
330
1F
100
AcDbEntity
  8
LC-002-100-D00-0
 62
     7
370
    50
100
AcDbLine
 10
-102.233175
 20
461.448353
 30
0.0
 11
-100.233175
 21
461.448353
 31
0.0
  0
LINE
  5
3B3
330
1F
100
AcDbEntity
  8
LC-002-100-D00-0
 62
     7
370
    50
100
AcDbLine
 10
-100.233175
 20
461.448353
 30
0.0
 11
-96.733177
 21
461.448352
 31
0.0
  0
LINE
  5
3B4
330
1F
100
AcDbEntity
  8
LC-002-100-D00-0
 62
     7
370
    50
100
AcDbLine
 10
-77.233175
 20
461.448352
 30
0.0
 11
-73.733175
 21
461.448353
 31
0.0
  0
LINE
  5
3B5
330
1F
100
AcDbEntity
  8
LC-002-100-D00-0
 62
     7
370
    50
100
AcDbLine
 10
109.616829
 20
456.448352
 30
0.0
 11
108.616827
 21
457.448353
 31
0.0
  0
LINE
  5
3B6
330
1F
100
AcDbEntity
  8
LC-002-100-D00-0
 62
     7
370
    50
100
AcDbLine
 10
109.616829
 20
456.448352
 30
0.0
 11
109.616825
 21
450.448353
 31
0.0
  0
LINE
  5
3B7
330
1F
100
AcDbEntity
  8
LC-002-100-D00-0
 62
     7
370
    50
100
AcDbLine
 10
108.616825
 20
449.448353
 30
0.0
 11
109.616825
 21
450.448353
 31
0.0
  0
LINE
  5
3B8
330
1F
100
AcDbEntity
  8
LC-002-100-D00-0
 62
     7
370
    50
100
AcDbLine
 10
106.665974
 20
451.448352
 30
0.0
 11
106.665974
 21
449.448353
 31
0.0
  0
LINE
  5
3B9
330
1F
100
AcDbEntity
  8
LC-002-100-D00-0
 62
     7
370
    50
100
AcDbLine
 10
107.372117
 20
451.637563
 30
0.0
 11
106.665974
 21
451.448352
 31
0.0
  0
ARC
  5
3BA
330
1F
100
AcDbEntity
  8
LC-002-100-D00-0
 62
     7
370
    50
100
AcDbCircle
 10
107.216825
 20
452.217119
 30
0.0
 40
0.6000000000003376
100
AcDbArc
 50
285.0
 51
0.0
  0
LINE
  5
3BB
330
1F
100
AcDbEntity
  8
LC-002-100-D00-0
 62
     7
370
    50
100
AcDbLine
 10
107.816825
 20
454.679586
 30
0.0
 11
107.816825
 21
452.217119
 31
0.0
  0
ARC
  5
3BC
330
1F
100
AcDbEntity
  8
LC-002-100-D00-0
 62
     7
370
    50
100
AcDbCircle
 10
107.216825
 20
454.679586
 30
0.0
 40
0.6000000000003638
100
AcDbArc
 50
0.0
 51
75.0
  0
LINE
  5
3BD
330
1F
100
AcDbEntity
  8
LC-002-100-D00-0
 62
     7
370
    50
100
AcDbLine
 10
106.665974
 20
455.448352
 30
0.0
 11
107.372117
 21
455.259142
 31
0.0
  0
LINE
  5
3BE
330
1F
100
AcDbEntity
  8
LC-002-100-D00-0
 62
     7
370
    50
100
AcDbLine
 10
106.665974
 20
457.448353
 30
0.0
 11
106.665974
 21
455.448352
 31
0.0
  0
LINE
  5
3BF
330
1F
100
AcDbEntity
  8
LC-002-100-D00-0
 62
     7
370
    50
100
AcDbLine
 10
106.665974
 20
449.448353
 30
0.0
 11
108.616825
 21
449.448353
 31
0.0
  0
LINE
  5
3C0
330
1F
100
AcDbEntity
  8
LC-002-100-D00-0
 62
     7
370
    50
100
AcDbLine
 10
106.665974
 20
457.448353
 30
0.0
 11
108.616827
 21
457.448353
 31
0.0
  0
LINE
  5
3C1
330
1F
100
AcDbEntity
  8
LC-002-100-D00-0
 62
     7
370
    50
100
AcDbLine
 10
118.216825
 20
452.217119
 30
0.0
 11
118.216825
 21
454.679586
 31
0.0
  0
ARC
  5
3C2
330
1F
100
AcDbEntity
  8
LC-002-100-D00-0
 62
     7
370
    50
100
AcDbCircle
 10
118.816825
 20
452.217119
 30
0.0
 40
0.6000000000000227
100
AcDbArc
 50
180.0
 51
255.0
  0
LINE
  5
3C3
330
1F
100
AcDbEntity
  8
LC-002-100-D00-0
 62
     7
370
    50
100
AcDbLine
 10
119.367679
 20
451.448352
 30
0.0
 11
118.661534
 21
451.637563
 31
0.0
  0
LINE
  5
3C4
330
1F
100
AcDbEntity
  8
LC-002-100-D00-0
 62
     7
370
    50
100
AcDbLine
 10
119.367679
 20
451.448352
 30
0.0
 11
119.367679
 21
449.448353
 31
0.0
  0
LINE
  5
3C5
330
1F
100
AcDbEntity
  8
LC-002-100-D00-0
 62
     7
370
    50
100
AcDbLine
 10
116.416825
 20
450.448353
 30
0.0
 11
117.416825
 21
449.448353
 31
0.0
  0
LINE
  5
3C6
330
1F
100
AcDbEntity
  8
LC-002-100-D00-0
 62
     7
370
    50
100
AcDbLine
 10
116.416825
 20
450.448353
 30
0.0
 11
116.416825
 21
456.448352
 31
0.0
  0
LINE
  5
3C7
330
1F
100
AcDbEntity
  8
LC-002-100-D00-0
 62
     7
370
    50
100
AcDbLine
 10
117.416827
 20
457.448353
 30
0.0
 11
116.416825
 21
456.448352
 31
0.0
  0
LINE
  5
3C8
330
1F
100
AcDbEntity
  8
LC-002-100-D00-0
 62
     7
370
    50
100
AcDbLine
 10
119.367679
 20
457.448353
 30
0.0
 11
119.367679
 21
455.448352
 31
0.0
  0
LINE
  5
3C9
330
1F
100
AcDbEntity
  8
LC-002-100-D00-0
 62
     7
370
    50
100
AcDbLine
 10
118.661534
 20
455.259142
 30
0.0
 11
119.367679
 21
455.448352
 31
0.0
  0
ARC
  5
3CA
330
1F
100
AcDbEntity
  8
LC-002-100-D00-0
 62
     7
370
    50
100
AcDbCircle
 10
118.816825
 20
454.679586
 30
0.0
 40
0.600000000000118
100
AcDbArc
 50
105.0
 51
180.0
  0
LINE
  5
3CB
330
1F
100
AcDbEntity
  8
LC-002-100-D00-0
 62
     7
370
    50
100
AcDbLine
 10
117.416825
 20
449.448353
 30
0.0
 11
119.367679
 21
449.448353
 31
0.0
  0
LINE
  5
3CC
330
1F
100
AcDbEntity
  8
LC-002-100-D00-0
 62
     7
370
    50
100
AcDbLine
 10
117.416827
 20
457.448353
 30
0.0
 11
119.367679
 21
457.448353
 31
0.0
  0
LINE
  5
3CD
330
1F
100
AcDbEntity
  8
LC-002-100-D00-0
 62
     7
370
    50
100
AcDbLine
 10
109.616825
 20
450.448353
 30
0.0
 11
109.774665
 21
450.448353
 31
0.0
  0
LINE
  5
3CE
330
1F
100
AcDbEntity
  8
LC-002-100-D00-0
 62
     7
370
    50
100
AcDbLine
 10
116.258986
 20
450.448353
 30
0.0
 11
116.416825
 21
450.448353
 31
0.0
  0
LINE
  5
3CF
330
1F
100
AcDbEntity
  8
LC-002-100-D00-0
 62
     7
370
    50
100
AcDbLine
 10
117.416825
 20
449.448353
 30
0.0
 11
116.881044
 21
449.448353
 31
0.0
  0
LINE
  5
3D0
330
1F
100
AcDbEntity
  8
LC-002-100-D00-0
 62
     7
370
    50
100
AcDbLine
 10
109.152607
 20
449.448353
 30
0.0
 11
108.616825
 21
449.448353
 31
0.0
  0
LINE
  5
3D1
330
1F
100
AcDbEntity
  8
LC-002-100-D00-0
 62
     7
370
    50
100
AcDbLine
 10
119.367679
 20
457.448353
 30
0.0
 11
116.916826
 21
457.448353
 31
0.0
  0
LINE
  5
3D2
330
1F
100
AcDbEntity
  8
LC-002-100-D00-0
 62
     7
370
    50
100
AcDbLine
 10
116.916826
 20
457.448353
 30
0.0
 11
116.916825
 21
468.448353
 31
0.0
  0
LINE
  5
3D3
330
1F
100
AcDbEntity
  8
LC-002-100-D00-0
 62
     7
370
    50
100
AcDbLine
 10
116.916825
 20
468.448353
 30
0.0
 11
130.266825
 21
468.448353
 31
0.0
  0
ARC
  5
3D4
330
1F
100
AcDbEntity
  8
LC-002-100-D00-0
 62
     7
370
    50
100
AcDbCircle
 10
130.266825
 20
467.448353
 30
0.0
 40
1.000000000000114
100
AcDbArc
 50
0.0
 51
90.0
  0
LINE
  5
3D5
330
1F
100
AcDbEntity
  8
LC-002-100-D00-0
 62
     7
370
    50
100
AcDbLine
 10
131.266825
 20
467.448353
 30
0.0
 11
131.266823
 21
461.448352
 31
0.0
  0
LINE
  5
3D6
330
1F
100
AcDbEntity
  8
LC-002-100-D00-0
 62
     7
370
    50
100
AcDbLine
 10
128.266825
 20
461.448353
 30
0.0
 11
131.266823
 21
461.448352
 31
0.0
  0
LINE
  5
3D7
330
1F
100
AcDbEntity
  8
LC-002-100-D00-0
 62
     7
370
    50
100
AcDbLine
 10
128.266825
 20
461.448353
 30
0.0
 11
128.266824
 21
465.448353
 31
0.0
  0
LINE
  5
3D8
330
1F
100
AcDbEntity
  8
LC-002-100-D00-0
 62
     7
370
    50
100
AcDbLine
 10
123.766825
 20
465.448353
 30
0.0
 11
128.266824
 21
465.448353
 31
0.0
  0
ARC
  5
3D9
330
1F
100
AcDbEntity
  8
LC-002-100-D00-0
 62
     7
370
    50
100
AcDbCircle
 10
123.766825
 20
464.448353
 30
0.0
 40
1.000000000000227
100
AcDbArc
 50
90.0
 51
180.0
  0
LINE
  5
3DA
330
1F
100
AcDbEntity
  8
LC-002-100-D00-0
 62
     7
370
    50
100
AcDbLine
 10
122.766825
 20
450.448353
 30
0.0
 11
122.766825
 21
464.448353
 31
0.0
  0
ARC
  5
3DB
330
1F
100
AcDbEntity
  8
LC-002-100-D00-0
 62
     7
370
    50
100
AcDbCircle
 10
121.766825
 20
450.448353
 30
0.0
 40
1.000000000000227
100
AcDbArc
 50
270.0
 51
0.0
  0
LINE
  5
3DC
330
1F
100
AcDbEntity
  8
LC-002-100-D00-0
 62
     7
370
    50
100
AcDbLine
 10
121.766825
 20
449.448353
 30
0.0
 11
119.367679
 21
449.448353
 31
0.0
  0
LINE
  5
3DD
330
1F
100
AcDbEntity
  8
LC-002-100-D00-0
 62
     7
370
    50
100
AcDbLine
 10
119.367679
 20
451.448352
 30
0.0
 11
119.367679
 21
449.448353
 31
0.0
  0
LINE
  5
3DE
330
1F
100
AcDbEntity
  8
LC-002-100-D00-0
 62
     7
370
    50
100
AcDbLine
 10
118.716825
 20
451.448353
 30
0.0
 11
119.367679
 21
451.448352
 31
0.0
  0
ARC
  5
3DF
330
1F
100
AcDbEntity
  8
LC-002-100-D00-0
 62
     7
370
    50
100
AcDbCircle
 10
118.716825
 20
451.948353
 30
0.0
 40
0.5000000000001137
100
AcDbArc
 50
180.0
 51
270.0
  0
LINE
  5
3E0
330
1F
100
AcDbEntity
  8
LC-002-100-D00-0
 62
     7
370
    50
100
AcDbLine
 10
118.216825
 20
454.948353
 30
0.0
 11
118.216825
 21
451.948353
 31
0.0
  0
ARC
  5
3E1
330
1F
100
AcDbEntity
  8
LC-002-100-D00-0
 62
     7
370
    50
100
AcDbCircle
 10
118.716825
 20
454.948353
 30
0.0
 40
0.5
100
AcDbArc
 50
90.0
 51
180.0
  0
LINE
  5
3E2
330
1F
100
AcDbEntity
  8
LC-002-100-D00-0
 62
     7
370
    50
100
AcDbLine
 10
119.367679
 20
455.448352
 30
0.0
 11
118.716825
 21
455.448353
 31
0.0
  0
LINE
  5
3E3
330
1F
100
AcDbEntity
  8
LC-002-100-D00-0
 62
     7
370
    50
100
AcDbLine
 10
119.367679
 20
457.448353
 30
0.0
 11
119.367679
 21
455.448352
 31
0.0
  0
ARC
  5
3E4
330
1F
100
AcDbEntity
  8
LC-002-100-D00-0
 62
     7
370
    50
100
AcDbCircle
 10
102.266825
 20
464.448353
 30
0.0
 40
1.000000000000227
100
AcDbArc
 50
0.0
 51
90.0
  0
LINE
  5
3E5
330
1F
100
AcDbEntity
  8
LC-002-100-D00-0
 62
     7
370
    50
100
AcDbLine
 10
103.266825
 20
464.448353
 30
0.0
 11
103.266825
 21
450.448353
 31
0.0
  0
ARC
  5
3E6
330
1F
100
AcDbEntity
  8
LC-002-100-D00-0
 62
     7
370
    50
100
AcDbCircle
 10
104.266825
 20
450.448353
 30
0.0
 40
1.000000000000227
100
AcDbArc
 50
180.0
 51
270.0
  0
LINE
  5
3E7
330
1F
100
AcDbEntity
  8
LC-002-100-D00-0
 62
     7
370
    50
100
AcDbLine
 10
107.816825
 20
451.948353
 30
0.0
 11
107.816825
 21
454.948353
 31
0.0
  0
LINE
  5
3E8
330
1F
100
AcDbEntity
  8
LC-002-100-D00-0
 62
     7
370
    50
100
AcDbLine
 10
109.116825
 20
468.448353
 30
0.0
 11
109.116828
 21
457.448353
 31
0.0
  0
LINE
  5
3E9
330
1F
100
AcDbEntity
  8
LC-002-100-D00-0
 62
     7
370
    50
100
AcDbLine
 10
109.116825
 20
468.448353
 30
0.0
 11
116.916825
 21
468.448353
 31
0.0
  0
LINE
  5
3EA
330
1F
100
AcDbEntity
  8
LC-002-100-D00-0
 62
     7
370
    50
100
AcDbLine
 10
106.665974
 20
457.448353
 30
0.0
 11
106.665974
 21
455.448352
 31
0.0
  0
LINE
  5
3EB
330
1F
100
AcDbEntity
  8
LC-002-100-D00-0
 62
     7
370
    50
100
AcDbLine
 10
106.665974
 20
451.448352
 30
0.0
 11
106.665974
 21
449.448353
 31
0.0
  0
ARC
  5
3EC
330
1F
100
AcDbEntity
  8
LC-002-100-D00-0
 62
     7
370
    50
100
AcDbCircle
 10
107.316825
 20
451.948353
 30
0.0
 40
0.5000000000002274
100
AcDbArc
 50
270.0
 51
0.0
  0
LINE
  5
3ED
330
1F
100
AcDbEntity
  8
LC-002-100-D00-0
 62
     7
370
    50
100
AcDbLine
 10
106.665974
 20
451.448352
 30
0.0
 11
107.316825
 21
451.448353
 31
0.0
  0
LINE
  5
3EE
330
1F
100
AcDbEntity
  8
LC-002-100-D00-0
 62
     7
370
    50
100
AcDbLine
 10
97.766822
 20
465.448353
 30
0.0
 11
97.766825
 21
461.448353
 31
0.0
  0
LINE
  5
3EF
330
1F
100
AcDbEntity
  8
LC-002-100-D00-0
 62
     7
370
    50
100
AcDbLine
 10
94.766823
 20
461.448352
 30
0.0
 11
94.766825
 21
467.448353
 31
0.0
  0
ARC
  5
3F0
330
1F
100
AcDbEntity
  8
LC-002-100-D00-0
 62
     7
370
    50
100
AcDbCircle
 10
95.766825
 20
467.448353
 30
0.0
 40
0.9999999999997726
100
AcDbArc
 50
90.0
 51
180.0
  0
LINE
  5
3F1
330
1F
100
AcDbEntity
  8
LC-002-100-D00-0
 62
     7
370
    50
100
AcDbLine
 10
107.316825
 20
455.448353
 30
0.0
 11
106.665974
 21
455.448352
 31
0.0
  0
ARC
  5
3F2
330
1F
100
AcDbEntity
  8
LC-002-100-D00-0
 62
     7
370
    50
100
AcDbCircle
 10
107.316825
 20
454.948353
 30
0.0
 40
0.5000000000002274
100
AcDbArc
 50
0.0
 51
90.0
  0
LINE
  5
3F3
330
1F
100
AcDbEntity
  8
LC-002-100-D00-0
 62
     7
370
    50
100
AcDbLine
 10
109.116828
 20
457.448353
 30
0.0
 11
106.665974
 21
457.448353
 31
0.0
  0
LINE
  5
3F4
330
1F
100
AcDbEntity
  8
LC-002-100-D00-0
 62
     7
370
    50
100
AcDbLine
 10
106.665974
 20
449.448353
 30
0.0
 11
104.266825
 21
449.448353
 31
0.0
  0
LINE
  5
3F5
330
1F
100
AcDbEntity
  8
LC-002-100-D00-0
 62
     7
370
    50
100
AcDbLine
 10
97.766822
 20
465.448353
 30
0.0
 11
102.266825
 21
465.448353
 31
0.0
  0
LINE
  5
3F6
330
1F
100
AcDbEntity
  8
LC-002-100-D00-0
 62
     7
370
    50
100
AcDbLine
 10
95.766825
 20
468.448353
 30
0.0
 11
109.116825
 21
468.448353
 31
0.0
  0
LINE
  5
3F7
330
1F
100
AcDbEntity
  8
LC-002-100-D00-0
 62
     7
370
    50
100
AcDbLine
 10
94.766823
 20
461.448352
 30
0.0
 11
97.766825
 21
461.448353
 31
0.0
  0
LINE
  5
3F8
330
1F
100
AcDbEntity
  8
LC-002-100-D00-0
 62
     7
370
    50
100
AcDbLine
 10
126.266825
 20
461.448353
 30
0.0
 11
128.266825
 21
461.448353
 31
0.0
  0
LINE
  5
3F9
330
1F
100
AcDbEntity
  8
LC-002-100-D00-0
 62
     7
370
    50
100
AcDbLine
 10
97.766825
 20
461.448353
 30
0.0
 11
99.766825
 21
461.448353
 31
0.0
  0
LINE
  5
3FA
330
1F
100
AcDbEntity
  8
LC-002-100-D00-0
 62
     7
370
    50
100
AcDbLine
 10
99.766825
 20
461.448353
 30
0.0
 11
103.266826
 21
461.448352
 31
0.0
  0
LINE
  5
3FB
330
1F
100
AcDbEntity
  8
LC-002-100-D00-0
 62
     7
370
    50
100
AcDbLine
 10
122.766828
 20
461.448352
 30
0.0
 11
126.266825
 21
461.448353
 31
0.0
  0
LINE
  5
3FC
330
1F
100
AcDbEntity
  8
LC-002-100-D00-0
 62
     7
370
    50
100
AcDbLine
 10
71.516825
 20
438.605436
 30
0.0
 11
71.806742
 21
438.514354
 31
0.0
  0
LINE
  5
3FD
330
1F
100
AcDbEntity
  8
LC-002-100-D00-0
 62
     7
370
    50
100
AcDbLine
 10
70.329211
 20
436.462924
 30
0.0
 11
71.516825
 21
438.605436
 31
0.0
  0
ARC
  5
3FE
330
1F
100
AcDbEntity
  8
LC-002-100-D00-0
 62
     7
370
    50
100
AcDbCircle
 10
70.066825
 20
436.608367
 30
0.0
 40
0.3000000000000682
100
AcDbArc
 50
180.0
 51
331.0
  0
LINE
  5
3FF
330
1F
100
AcDbEntity
  8
LC-002-100-D00-0
 62
     7
370
    50
100
AcDbLine
 10
69.766825
 20
439.148606
 30
0.0
 11
69.766825
 21
436.608367
 31
0.0
  0
ARC
  5
400
330
1F
100
AcDbEntity
  8
LC-002-100-D00-0
 62
     7
370
    50
100
AcDbCircle
 10
71.766825
 20
439.148606
 30
0.0
 40
1.999999999999965
100
AcDbArc
 50
113.962489
 51
180.0
  0
LINE
  5
401
330
1F
100
AcDbEntity
  8
LC-002-100-D00-0
 62
     7
370
    50
100
AcDbLine
 10
71.822901
 20
441.362164
 30
0.0
 11
70.954548
 21
440.976229
 31
0.0
  0
ARC
  5
402
330
1F
100
AcDbEntity
  8
LC-002-100-D00-0
 62
     7
370
    50
100
AcDbCircle
 10
72.22904
 20
440.448353
 30
0.0
 40
0.9999999999997726
100
AcDbArc
 50
90.0
 51
113.962489
  0
LINE
  5
403
330
1F
100
AcDbEntity
  8
LC-002-100-D00-0
 62
     7
370
    50
100
AcDbLine
 10
78.016823
 20
441.448352
 30
0.0
 11
78.016823
 21
437.448353
 31
0.0
  0
LINE
  5
404
330
1F
100
AcDbEntity
  8
LC-002-100-D00-0
 62
     7
370
    50
100
AcDbLine
 10
72.016825
 20
438.228146
 30
0.0
 11
72.016825
 21
437.448353
 31
0.0
  0
ARC
  5
405
330
1F
100
AcDbEntity
  8
LC-002-100-D00-0
 62
     7
370
    50
100
AcDbCircle
 10
71.716825
 20
438.228146
 30
0.0
 40
0.3000000000000682
100
AcDbArc
 50
0.0
 51
72.558995
  0
LINE
  5
406
330
1F
100
AcDbEntity
  8
LC-002-100-D00-0
 62
     7
370
    50
100
AcDbLine
 10
78.016823
 20
441.448352
 30
0.0
 11
72.22904
 21
441.448353
 31
0.0
  0
LINE
  5
407
330
1F
100
AcDbEntity
  8
LC-002-100-D00-0
 62
     7
370
    50
100
AcDbLine
 10
78.016823
 20
437.448353
 30
0.0
 11
72.016825
 21
437.448353
 31
0.0
  0
LINE
  5
408
330
1F
100
AcDbEntity
  8
LC-002-100-D00-0
 62
     7
370
    50
100
AcDbLine
 10
72.016825
 20
437.448353
 30
0.0
 11
70.875443
 21
437.448353
 31
0.0
  0
LINE
  5
409
330
1F
100
AcDbEntity
  8
LC-002-100-D00-0
 62
     7
370
    50
100
AcDbLine
 10
71.466337
 20
438.514354
 30
0.0
 11
71.806742
 21
438.514354
 31
0.0
  0
LINE
  5
40A
330
1F
100
AcDbEntity
  8
LC-002-100-D00-0
 62
     7
370
    50
100
AcDbLine
 10
-45.983175
 20
437.448353
 30
0.0
 11
-45.983175
 21
438.228146
 31
0.0
  0
LINE
  5
40B
330
1F
100
AcDbEntity
  8
LC-002-100-D00-0
 62
     7
370
    50
100
AcDbLine
 10
-44.841793
 20
437.448353
 30
0.0
 11
-45.983175
 21
437.448353
 31
0.0
  0
LINE
  5
40C
330
1F
100
AcDbEntity
  8
LC-002-100-D00-0
 62
     7
370
    50
100
AcDbLine
 10
-45.483174
 20
438.605436
 30
0.0
 11
-44.295561
 21
436.462924
 31
0.0
  0
LINE
  5
40D
330
1F
100
AcDbEntity
  8
LC-002-100-D00-0
 62
     7
370
    50
100
AcDbLine
 10
-45.773092
 20
438.514354
 30
0.0
 11
-45.432687
 21
438.514354
 31
0.0
  0
LINE
  5
40E
330
1F
100
AcDbEntity
  8
LC-002-100-D00-0
 62
     7
370
    50
100
AcDbLine
 10
-45.773092
 20
438.514354
 30
0.0
 11
-45.483174
 21
438.605436
 31
0.0
  0
ARC
  5
40F
330
1F
100
AcDbEntity
  8
LC-002-100-D00-0
 62
     7
370
    50
100
AcDbCircle
 10
-45.683175
 20
438.228146
 30
0.0
 40
0.3000000000001272
100
AcDbArc
 50
107.441005
 51
180.0
  0
ARC
  5
410
330
1F
100
AcDbEntity
  8
LC-002-100-D00-0
 62
     7
370
    50
100
AcDbCircle
 10
-44.033175
 20
436.608367
 30
0.0
 40
0.3000000000001742
100
AcDbArc
 50
209.0
 51
0.0
  0
ARC
  5
411
330
1F
100
AcDbEntity
  8
LC-002-100-D00-0
 62
     7
370
    50
100
AcDbCircle
 10
-45.733175
 20
439.148606
 30
0.0
 40
2.0
100
AcDbArc
 50
0.0
 51
66.037511
  0
LINE
  5
412
330
1F
100
AcDbEntity
  8
LC-002-100-D00-0
 62
     7
370
    50
100
AcDbLine
 10
-43.733175
 20
436.608367
 30
0.0
 11
-43.733175
 21
439.148606
 31
0.0
  0
ARC
  5
413
330
1F
100
AcDbEntity
  8
LC-002-100-D00-0
 62
     7
370
    50
100
AcDbCircle
 10
-46.195389
 20
440.448353
 30
0.0
 40
0.9999999999997051
100
AcDbArc
 50
66.037511
 51
90.0
  0
LINE
  5
414
330
1F
100
AcDbEntity
  8
LC-002-100-D00-0
 62
     7
370
    50
100
AcDbLine
 10
-44.920898
 20
440.976229
 30
0.0
 11
-45.789251
 21
441.362164
 31
0.0
  0
LINE
  5
415
330
1F
100
AcDbEntity
  8
LC-002-100-D00-0
 62
     7
370
    50
100
AcDbLine
 10
-51.983172
 20
437.448353
 30
0.0
 11
-51.983172
 21
441.448352
 31
0.0
  0
LINE
  5
416
330
1F
100
AcDbEntity
  8
LC-002-100-D00-0
 62
     7
370
    50
100
AcDbLine
 10
-46.195389
 20
441.448353
 30
0.0
 11
-51.983172
 21
441.448352
 31
0.0
  0
LINE
  5
417
330
1F
100
AcDbEntity
  8
LC-002-100-D00-0
 62
     7
370
    50
100
AcDbLine
 10
-45.983175
 20
437.448353
 30
0.0
 11
-51.983172
 21
437.448353
 31
0.0
  0
LINE
  5
418
330
1F
100
AcDbEntity
  8
LC-002-100-D00-0
 62
     7
370
    50
100
AcDbLine
 10
87.016826
 20
441.448352
 30
0.0
 11
87.016826
 21
417.698354
 31
0.0
  0
LINE
  5
419
330
1F
100
AcDbEntity
  8
LC-002-100-D00-0
 62
     7
370
    50
100
AcDbLine
 10
84.016828
 20
438.448353
 30
0.0
 11
84.016825
 21
417.698353
 31
0.0
  0
LINE
  5
41A
330
1F
100
AcDbEntity
  8
LC-002-100-D00-0
 62
     7
370
    50
100
AcDbLine
 10
81.016829
 20
438.448353
 30
0.0
 11
81.016829
 21
434.448351
 31
0.0
  0
LINE
  5
41B
330
1F
100
AcDbEntity
  8
LC-002-100-D00-0
 62
     7
370
    50
100
AcDbLine
 10
75.016825
 20
434.448353
 30
0.0
 11
81.016829
 21
434.448351
 31
0.0
  0
LINE
  5
41C
330
1F
100
AcDbEntity
  8
LC-002-100-D00-0
 62
     7
370
    50
100
AcDbLine
 10
75.016824
 20
437.448353
 30
0.0
 11
75.016825
 21
434.448353
 31
0.0
  0
LINE
  5
41D
330
1F
100
AcDbEntity
  8
LC-002-100-D00-0
 62
     7
370
    50
100
AcDbLine
 10
78.016823
 20
437.448353
 30
0.0
 11
75.016824
 21
437.448353
 31
0.0
  0
LINE
  5
41E
330
1F
100
AcDbEntity
  8
LC-002-100-D00-0
 62
     7
370
    50
100
AcDbLine
 10
78.016823
 20
437.448353
 30
0.0
 11
78.016823
 21
441.448352
 31
0.0
  0
LINE
  5
41F
330
1F
100
AcDbEntity
  8
LC-002-100-D00-0
 62
     7
370
    50
100
AcDbLine
 10
81.016829
 20
438.448353
 30
0.0
 11
84.016828
 21
438.448353
 31
0.0
  0
LINE
  5
420
330
1F
100
AcDbEntity
  8
LC-002-100-D00-0
 62
     7
370
    50
100
AcDbLine
 10
84.016825
 20
417.698353
 30
0.0
 11
87.016826
 21
417.698354
 31
0.0
  0
LINE
  5
421
330
1F
100
AcDbEntity
  8
LC-002-100-D00-0
 62
     7
370
    50
100
AcDbLine
 10
87.016826
 20
441.448352
 30
0.0
 11
78.016823
 21
441.448352
 31
0.0
  0
LINE
  5
422
330
1F
100
AcDbEntity
  8
LC-002-100-D00-0
 62
     7
370
    50
100
AcDbLine
 10
63.317233
 20
417.698353
 30
0.0
 11
84.016825
 21
417.698353
 31
0.0
  0
LINE
  5
423
330
1F
100
AcDbEntity
  8
LC-002-100-D00-0
 62
     7
370
    50
100
AcDbLine
 10
68.266825
 20
434.448353
 30
0.0
 11
75.016825
 21
434.448353
 31
0.0
  0
LINE
  5
424
330
1F
100
AcDbEntity
  8
LC-002-100-D00-0
 62
     7
370
    50
100
AcDbLine
 10
-48.983175
 20
434.448353
 30
0.0
 11
-48.983174
 21
437.448353
 31
0.0
  0
LINE
  5
425
330
1F
100
AcDbEntity
  8
LC-002-100-D00-0
 62
     7
370
    50
100
AcDbLine
 10
-48.983175
 20
434.448353
 30
0.0
 11
-42.233175
 21
434.448353
 31
0.0
  0
LINE
  5
426
330
1F
100
AcDbEntity
  8
LC-002-100-D00-0
 62
     7
370
    50
100
AcDbLine
 10
-51.983172
 20
441.448352
 30
0.0
 11
-51.983172
 21
437.448353
 31
0.0
  0
LINE
  5
427
330
1F
100
AcDbEntity
  8
LC-002-100-D00-0
 62
     7
370
    50
100
AcDbLine
 10
-54.983178
 20
434.448351
 30
0.0
 11
-54.983178
 21
438.448353
 31
0.0
  0
LINE
  5
428
330
1F
100
AcDbEntity
  8
LC-002-100-D00-0
 62
     7
370
    50
100
AcDbLine
 10
-57.983175
 20
417.698353
 30
0.0
 11
-57.983177
 21
438.448353
 31
0.0
  0
LINE
  5
429
330
1F
100
AcDbEntity
  8
LC-002-100-D00-0
 62
     7
370
    50
100
AcDbLine
 10
-57.983175
 20
417.698353
 30
0.0
 11
-37.283582
 21
417.698353
 31
0.0
  0
LINE
  5
42A
330
1F
100
AcDbEntity
  8
LC-002-100-D00-0
 62
     7
370
    50
100
AcDbLine
 10
-60.983176
 20
417.698354
 30
0.0
 11
-60.983176
 21
441.448352
 31
0.0
  0
LINE
  5
42B
330
1F
100
AcDbEntity
  8
LC-002-100-D00-0
 62
     7
370
    50
100
AcDbLine
 10
-48.983174
 20
437.448353
 30
0.0
 11
-51.983172
 21
437.448353
 31
0.0
  0
LINE
  5
42C
330
1F
100
AcDbEntity
  8
LC-002-100-D00-0
 62
     7
370
    50
100
AcDbLine
 10
-54.983178
 20
434.448351
 30
0.0
 11
-48.983175
 21
434.448353
 31
0.0
  0
LINE
  5
42D
330
1F
100
AcDbEntity
  8
LC-002-100-D00-0
 62
     7
370
    50
100
AcDbLine
 10
-57.983177
 20
438.448353
 30
0.0
 11
-54.983178
 21
438.448353
 31
0.0
  0
LINE
  5
42E
330
1F
100
AcDbEntity
  8
LC-002-100-D00-0
 62
     7
370
    50
100
AcDbLine
 10
-60.983176
 20
417.698354
 30
0.0
 11
-57.983175
 21
417.698353
 31
0.0
  0
LINE
  5
42F
330
1F
100
AcDbEntity
  8
LC-002-100-D00-0
 62
     7
370
    50
100
AcDbLine
 10
-51.983172
 20
441.448352
 30
0.0
 11
-60.983176
 21
441.448352
 31
0.0
  0
LINE
  5
430
330
1F
100
AcDbEntity
  8
LC-002-100-D00-0
 62
     7
370
    50
100
AcDbLine
 10
55.005951
 20
417.698353
 30
0.0
 11
63.317233
 21
417.698353
 31
0.0
  0
LINE
  5
431
330
1F
100
AcDbEntity
  8
LC-002-100-D00-0
 62
     7
370
    50
100
AcDbLine
 10
-37.283582
 20
417.698353
 30
0.0
 11
-28.9723
 21
417.698353
 31
0.0
  0
LINE
  5
432
330
1F
100
AcDbEntity
  8
LC-002-100-D00-0
 62
     7
370
    50
100
AcDbLine
 10
-28.9723
 20
417.698353
 30
0.0
 11
-27.983176
 21
417.698354
 31
0.0
  0
LINE
  5
433
330
1F
100
AcDbEntity
  8
LC-002-100-D00-0
 62
     7
370
    50
100
AcDbLine
 10
54.016826
 20
417.698354
 30
0.0
 11
55.005951
 21
417.698353
 31
0.0
  0
LINE
  5
434
330
1F
100
AcDbEntity
  8
LC-002-100-D00-0
 62
     7
370
    50
100
AcDbLine
 10
87.016826
 20
416.948353
 30
0.0
 11
98.016826
 21
416.948353
 31
0.0
  0
LINE
  5
435
330
1F
100
AcDbEntity
  8
LC-002-100-D00-0
 62
     7
370
    50
100
AcDbLine
 10
98.016826
 20
364.948351
 30
0.0
 11
87.016826
 21
364.948351
 31
0.0
  0
LINE
  5
436
330
1F
100
AcDbEntity
  8
LC-002-100-D00-0
 62
     7
370
    50
100
AcDbLine
 10
87.016826
 20
417.698354
 30
0.0
 11
87.016826
 21
416.948353
 31
0.0
  0
INSERT
  5
447
330
1F
100
AcDbEntity
  8
LC-002-100-D00-0
 62
     7
370
    50
100
AcDbBlockReference
  2
KLON17
 10
0.0
 20
0.0
 30
0.0
  0
INSERT
  5
45B
330
1F
100
AcDbEntity
  8
LC-002-100-D00-0
 62
     7
370
    50
100
AcDbBlockReference
  2
KLON18
 10
0.0
 20
0.0
 30
0.0
  0
LINE
  5
45C
330
1F
100
AcDbEntity
  8
LC-002-100-D00-0
 62
     7
370
    50
100
AcDbLine
 10
84.016828
 20
413.948354
 30
0.0
 11
125.914011
 21
413.948353
 31
0.0
  0
LINE
  5
45D
330
1F
100
AcDbEntity
  8
LC-002-100-D00-0
 62
     7
370
    50
100
AcDbLine
 10
125.914011
 20
367.948353
 30
0.0
 11
125.914011
 21
413.948353
 31
0.0
  0
LINE
  5
45E
330
1F
100
AcDbEntity
  8
LC-002-100-D00-0
 62
     7
370
    50
100
AcDbLine
 10
125.914011
 20
367.948353
 30
0.0
 11
87.016826
 21
367.94835
 31
0.0
  0
INSERT
  5
464
330
1F
100
AcDbEntity
  8
LC-002-100-D00-0
 62
     7
370
    50
100
AcDbBlockReference
  2
KLON19
 10
0.0
 20
0.0
 30
0.0
  0
LINE
  5
465
330
1F
100
AcDbEntity
  8
LC-002-100-D00-0
 62
     7
370
    50
100
AcDbLine
 10
84.016825
 20
417.698353
 30
0.0
 11
63.317233
 21
417.698353
 31
0.0
  0
LINE
  5
466
330
1F
100
AcDbEntity
  8
LC-002-100-D00-0
 62
     7
370
    50
100
AcDbLine
 10
84.016825
 20
417.698353
 30
0.0
 11
84.016828
 21
413.948354
 31
0.0
  0
LINE
  5
467
330
1F
100
AcDbEntity
  8
LC-002-100-D00-0
 62
     7
370
    50
100
AcDbLine
 10
74.016825
 20
364.948353
 30
0.0
 11
87.016826
 21
364.948351
 31
0.0
  0
ARC
  5
468
330
1F
100
AcDbEntity
  8
LC-002-100-D00-0
 62
     7
370
    50
100
AcDbCircle
 10
67.034705
 20
365.448353
 30
0.0
 40
7.000000000000227
100
AcDbArc
 50
270.0
 51
355.903956
  0
LINE
  5
469
330
1F
100
AcDbEntity
  8
LC-002-100-D00-0
 62
     7
370
    50
100
AcDbLine
 10
67.034705
 20
358.448353
 30
0.0
 11
-41.001055
 21
358.448353
 31
0.0
  0
ARC
  5
46A
330
1F
100
AcDbEntity
  8
LC-002-100-D00-0
 62
     7
370
    50
100
AcDbCircle
 10
-41.001055
 20
365.448353
 30
0.0
 40
6.999999999999959
100
AcDbArc
 50
184.096044
 51
270.0
  0
LINE
  5
46B
330
1F
100
AcDbEntity
  8
LC-002-100-D00-0
 62
     7
370
    50
100
AcDbLine
 10
-48.483175
 20
364.948353
 30
0.0
 11
-47.983175
 21
364.948353
 31
0.0
  0
ARC
  5
46C
330
1F
100
AcDbEntity
  8
LC-002-100-D00-0
 62
     7
370
    50
100
AcDbCircle
 10
-48.483175
 20
377.448353
 30
0.0
 40
12.5
100
AcDbArc
 50
180.0
 51
270.0
  0
LINE
  5
46D
330
1F
100
AcDbEntity
  8
LC-002-100-D00-0
 62
     7
370
    50
100
AcDbLine
 10
-60.983175
 20
377.448353
 30
0.0
 11
-60.983176
 21
417.698354
 31
0.0
  0
LINE
  5
46E
330
1F
100
AcDbEntity
  8
LC-002-100-D00-0
 62
     7
370
    50
100
AcDbLine
 10
-60.983176
 20
417.698354
 30
0.0
 11
-57.983175
 21
417.698353
 31
0.0
  0
LINE
  5
46F
330
1F
100
AcDbEntity
  8
LC-002-100-D00-0
 62
     7
370
    50
100
AcDbLine
 10
-57.983175
 20
377.448353
 30
0.0
 11
-57.983175
 21
417.698353
 31
0.0
  0
ARC
  5
470
330
1F
100
AcDbEntity
  8
LC-002-100-D00-0
 62
     7
370
    50
100
AcDbCircle
 10
-48.483175
 20
377.448353
 30
0.0
 40
9.5
100
AcDbArc
 50
180.0
 51
270.0
  0
LINE
  5
471
330
1F
100
AcDbEntity
  8
LC-002-100-D00-0
 62
     7
370
    50
100
AcDbLine
 10
-48.483175
 20
367.948353
 30
0.0
 11
-45.983175
 21
367.948353
 31
0.0
  0
ARC
  5
472
330
1F
100
AcDbEntity
  8
LC-002-100-D00-0
 62
     7
370
    50
100
AcDbCircle
 10
-45.983175
 20
366.948353
 30
0.0
 40
1.0
100
AcDbArc
 50
0.0
 51
90.0
  0
LINE
  5
473
330
1F
100
AcDbEntity
  8
LC-002-100-D00-0
 62
     7
370
    50
100
AcDbLine
 10
-44.983175
 20
366.948353
 30
0.0
 11
-44.983175
 21
365.448353
 31
0.0
  0
ARC
  5
474
330
1F
100
AcDbEntity
  8
LC-002-100-D00-0
 62
     7
370
    50
100
AcDbCircle
 10
-40.983175
 20
365.448353
 30
0.0
 40
4.0
100
AcDbArc
 50
180.0
 51
270.0
  0
LINE
  5
475
330
1F
100
AcDbEntity
  8
LC-002-100-D00-0
 62
     7
370
    50
100
AcDbLine
 10
67.016825
 20
361.448353
 30
0.0
 11
-40.983175
 21
361.448353
 31
0.0
  0
ARC
  5
476
330
1F
100
AcDbEntity
  8
LC-002-100-D00-0
 62
     7
370
    50
100
AcDbCircle
 10
67.016825
 20
365.448353
 30
0.0
 40
4.000000000000227
100
AcDbArc
 50
270.0
 51
0.0
  0
LINE
  5
477
330
1F
100
AcDbEntity
  8
LC-002-100-D00-0
 62
     7
370
    50
100
AcDbLine
 10
71.016825
 20
365.448353
 30
0.0
 11
71.016825
 21
366.948353
 31
0.0
  0
ARC
  5
478
330
1F
100
AcDbEntity
  8
LC-002-100-D00-0
 62
     7
370
    50
100
AcDbCircle
 10
72.016825
 20
366.948353
 30
0.0
 40
1.0
100
AcDbArc
 50
90.0
 51
180.0
  0
LINE
  5
479
330
1F
100
AcDbEntity
  8
LC-002-100-D00-0
 62
     7
370
    50
100
AcDbLine
 10
72.016825
 20
367.948353
 30
0.0
 11
87.016826
 21
367.94835
 31
0.0
  0
LINE
  5
47A
330
1F
100
AcDbEntity
  8
LC-002-100-D00-0
 62
     7
370
    50
100
AcDbLine
 10
131.514011
 20
366.447837
 30
0.0
 11
125.914011
 21
367.948353
 31
0.0
  0
LINE
  5
47B
330
1F
100
AcDbEntity
  8
LC-002-100-D00-0
 62
     7
370
    50
100
AcDbLine
 10
131.514011
 20
366.014098
 30
0.0
 11
131.514011
 21
366.447837
 31
0.0
  0
ARC
  5
47C
330
1F
100
AcDbEntity
  8
LC-002-100-D00-0
 62
     7
370
    50
100
AcDbCircle
 10
131.014053
 20
366.014098
 30
0.0
 40
0.4999578796799692
100
AcDbArc
 50
301.198872
 51
0.0
  0
ARC
  5
47D
330
1F
100
AcDbEntity
  8
LC-002-100-D00-0
 62
     7
370
    50
100
AcDbCircle
 10
115.915329
 20
390.946163
 30
0.0
 40
29.64750216706075
100
AcDbArc
 50
292.382556
 51
301.198872
  0
ARC
  5
47E
330
1F
100
AcDbEntity
  8
LC-002-100-D00-0
 62
     7
370
    50
100
AcDbCircle
 10
127.01439
 20
363.994536
 30
0.0
 40
0.4999578796800961
100
AcDbArc
 50
180.0
 51
292.382556
  0
LINE
  5
47F
330
1F
100
AcDbEntity
  8
LC-002-100-D00-0
 62
     7
370
    50
100
AcDbLine
 10
126.514432
 20
365.298395
 30
0.0
 11
126.514432
 21
363.994536
 31
0.0
  0
ARC
  5
480
330
1F
100
AcDbEntity
  8
LC-002-100-D00-0
 62
     7
370
    50
100
AcDbCircle
 10
126.014474
 20
365.298395
 30
0.0
 40
0.4999578796800961
100
AcDbArc
 50
0.0
 51
90.0
  0
LINE
  5
481
330
1F
100
AcDbEntity
  8
LC-002-100-D00-0
 62
     7
370
    50
100
AcDbLine
 10
122.514769
 20
365.798353
 30
0.0
 11
126.014474
 21
365.798353
 31
0.0
  0
ARC
  5
482
330
1F
100
AcDbEntity
  8
LC-002-100-D00-0
 62
     7
370
    50
100
AcDbCircle
 10
122.514769
 20
365.298395
 30
0.0
 40
0.4999578796803235
100
AcDbArc
 50
90.0
 51
180.0
  0
LINE
  5
483
330
1F
100
AcDbEntity
  8
LC-002-100-D00-0
 62
     7
370
    50
100
AcDbLine
 10
122.014811
 20
362.341534
 30
0.0
 11
122.014811
 21
365.298395
 31
0.0
  0
ARC
  5
484
330
1F
100
AcDbEntity
  8
LC-002-100-D00-0
 62
     7
370
    50
100
AcDbCircle
 10
121.514853
 20
362.341534
 30
0.0
 40
0.4999578796801155
100
AcDbArc
 50
281.075925
 51
0.0
  0
ARC
  5
485
330
1F
100
AcDbEntity
  8
LC-002-100-D00-0
 62
     7
370
    50
100
AcDbCircle
 10
115.915329
 20
390.946163
 30
0.0
 40
29.64750432250023
100
AcDbArc
 50
241.270296
 51
281.075925
  0
LINE
  5
486
330
1F
100
AcDbEntity
  8
LC-002-100-D00-0
 62
     7
370
    50
100
AcDbLine
 10
100.516623
 20
364.948351
 30
0.0
 11
101.66442
 21
364.948353
 31
0.0
  0
LINE
  5
487
330
1F
100
AcDbEntity
  8
LC-002-100-D00-0
 62
     7
370
    50
100
AcDbLine
 10
100.516623
 20
363.448356
 30
0.0
 11
100.516623
 21
364.948351
 31
0.0
  0
LINE
  5
488
330
1F
100
AcDbEntity
  8
LC-002-100-D00-0
 62
     7
370
    50
100
AcDbLine
 10
98.016826
 20
363.448356
 30
0.0
 11
100.516623
 21
363.448356
 31
0.0
  0
LINE
  5
489
330
1F
100
AcDbEntity
  8
LC-002-100-D00-0
 62
     7
370
    50
100
AcDbLine
 10
98.016826
 20
364.948351
 30
0.0
 11
98.016826
 21
363.448356
 31
0.0
  0
ARC
  5
48A
330
1F
100
AcDbEntity
  8
LC-002-100-D00-0
 62
     7
370
    50
100
AcDbCircle
 10
115.915329
 20
390.950543
 30
0.0
 40
29.64750216706069
100
AcDbArc
 50
58.801128
 51
67.617444
  0
ARC
  5
48B
330
1F
100
AcDbEntity
  8
LC-002-100-D00-0
 62
     7
370
    50
100
AcDbCircle
 10
131.014053
 20
415.882607
 30
0.0
 40
0.4999578796798687
100
AcDbArc
 50
0.0
 51
58.801128
  0
ARC
  5
48C
330
1F
100
AcDbEntity
  8
LC-002-100-D00-0
 62
     7
370
    50
100
AcDbCircle
 10
126.014474
 20
416.59831
 30
0.0
 40
0.4999578796800961
100
AcDbArc
 50
270.0
 51
0.0
  0
LINE
  5
48D
330
1F
100
AcDbEntity
  8
LC-002-100-D00-0
 62
     7
370
    50
100
AcDbLine
 10
126.514432
 20
417.902169
 30
0.0
 11
126.514432
 21
416.59831
 31
0.0
  0
ARC
  5
48E
330
1F
100
AcDbEntity
  8
LC-002-100-D00-0
 62
     7
370
    50
100
AcDbCircle
 10
127.01439
 20
417.902169
 30
0.0
 40
0.4999578796801538
100
AcDbArc
 50
67.617444
 51
180.0
  0
LINE
  5
48F
330
1F
100
AcDbEntity
  8
LC-002-100-D00-0
 62
     7
370
    50
100
AcDbLine
 10
131.514011
 20
415.448868
 30
0.0
 11
131.514011
 21
415.882607
 31
0.0
  0
LINE
  5
490
330
1F
100
AcDbEntity
  8
LC-002-100-D00-0
 62
     7
370
    50
100
AcDbLine
 10
125.914011
 20
413.948353
 30
0.0
 11
131.514011
 21
415.448868
 31
0.0
  0
LINE
  5
491
330
1F
100
AcDbEntity
  8
LC-002-100-D00-0
 62
     7
370
    50
100
AcDbLine
 10
84.016825
 20
417.698353
 30
0.0
 11
87.016826
 21
417.698354
 31
0.0
  0
LINE
  5
492
330
1F
100
AcDbEntity
  8
LC-002-100-D00-0
 62
     7
370
    50
100
AcDbLine
 10
98.016826
 20
418.448352
 30
0.0
 11
98.016826
 21
416.948353
 31
0.0
  0
LINE
  5
493
330
1F
100
AcDbEntity
  8
LC-002-100-D00-0
 62
     7
370
    50
100
AcDbLine
 10
100.516622
 20
418.448353
 30
0.0
 11
98.016826
 21
418.448352
 31
0.0
  0
ARC
  5
494
330
1F
100
AcDbEntity
  8
LC-002-100-D00-0
 62
     7
370
    50
100
AcDbCircle
 10
115.878914
 20
390.948353
 30
0.0
 40
31.49999999999995
100
AcDbArc
 50
105.394857
 51
119.188982
  0
LINE
  5
495
330
1F
100
AcDbEntity
  8
LC-002-100-D00-0
 62
     7
370
    50
100
AcDbLine
 10
107.516622
 20
421.318109
 30
0.0
 11
107.516622
 21
419.383556
 31
0.0
  0
ARC
  5
496
330
1F
100
AcDbEntity
  8
LC-002-100-D00-0
 62
     7
370
    50
100
AcDbCircle
 10
115.915329
 20
390.950543
 30
0.0
 40
29.64750432250028
100
AcDbArc
 50
78.924075
 51
106.456389
  0
ARC
  5
497
330
1F
100
AcDbEntity
  8
LC-002-100-D00-0
 62
     7
370
    50
100
AcDbCircle
 10
121.514853
 20
419.555171
 30
0.0
 40
0.4999578796800961
100
AcDbArc
 50
0.0
 51
78.924075
  0
LINE
  5
498
330
1F
100
AcDbEntity
  8
LC-002-100-D00-0
 62
     7
370
    50
100
AcDbLine
 10
122.014811
 20
416.59831
 30
0.0
 11
122.014811
 21
419.555171
 31
0.0
  0
ARC
  5
499
330
1F
100
AcDbEntity
  8
LC-002-100-D00-0
 62
     7
370
    50
100
AcDbCircle
 10
122.514769
 20
416.59831
 30
0.0
 40
0.4999578796799824
100
AcDbArc
 50
180.0
 51
270.0
  0
LINE
  5
49A
330
1F
100
AcDbEntity
  8
LC-002-100-D00-0
 62
     7
370
    50
100
AcDbLine
 10
126.014474
 20
416.098353
 30
0.0
 11
122.514769
 21
416.098353
 31
0.0
  0
LINE
  5
49B
330
1F
100
AcDbEntity
  8
LC-002-100-D00-0
 62
     7
370
    50
100
AcDbLine
 10
131.514011
 20
415.448868
 30
0.0
 11
131.514011
 21
366.447837
 31
0.0
  0
LINE
  5
49C
330
1F
100
AcDbEntity
  8
LC-002-100-D00-0
 62
     7
370
    50
100
AcDbLine
 10
57.450445
 20
367.948353
 30
0.0
 11
72.016825
 21
367.948353
 31
0.0
  0
LINE
  5
49D
330
1F
100
AcDbEntity
  8
LC-002-100-D00-0
 62
     7
370
    50
100
AcDbLine
 10
-45.983175
 20
367.948353
 30
0.0
 11
-31.416795
 21
367.948353
 31
0.0
  0
LINE
  5
49E
330
1F
100
AcDbEntity
  8
LC-002-100-D00-0
 62
     7
370
    50
100
AcDbLine
 10
-37.283582
 20
417.698353
 30
0.0
 11
-57.983175
 21
417.698353
 31
0.0
  0
LINE
  5
49F
330
1F
100
AcDbEntity
  8
LC-002-100-D00-0
 62
     7
370
    50
100
AcDbLine
 10
55.005951
 20
367.948353
 30
0.0
 11
57.450445
 21
367.948353
 31
0.0
  0
LINE
  5
4A0
330
1F
100
AcDbEntity
  8
LC-002-100-D00-0
 62
     7
370
    50
100
AcDbLine
 10
-31.416795
 20
367.948353
 30
0.0
 11
-28.9723
 21
367.948353
 31
0.0
  0
LINE
  5
4A1
330
1F
100
AcDbEntity
  8
LC-002-100-D00-0
 62
     7
370
    50
100
AcDbLine
 10
-28.9723
 20
367.948353
 30
0.0
 11
-27.983176
 21
367.94835
 31
0.0
  0
LINE
  5
4A2
330
1F
100
AcDbEntity
  8
LC-002-100-D00-0
 62
     7
370
    50
100
AcDbLine
 10
54.016826
 20
367.94835
 30
0.0
 11
55.005951
 21
367.948353
 31
0.0
  0
LINE
  5
4A3
330
1F
100
AcDbEntity
  8
LC-002-100-D00-0
 62
     7
370
    50
100
AcDbLine
 10
63.317233
 20
417.698353
 30
0.0
 11
55.005951
 21
417.698353
 31
0.0
  0
LINE
  5
4A4
330
1F
100
AcDbEntity
  8
LC-002-100-D00-0
 62
     7
370
    50
100
AcDbLine
 10
-28.9723
 20
417.698353
 30
0.0
 11
-37.283582
 21
417.698353
 31
0.0
  0
LINE
  5
4A5
330
1F
100
AcDbEntity
  8
LC-002-100-D00-0
 62
     7
370
    50
100
AcDbLine
 10
55.005951
 20
417.698353
 30
0.0
 11
54.016826
 21
417.698354
 31
0.0
  0
LINE
  5
4A6
330
1F
100
AcDbEntity
  8
LC-002-100-D00-0
 62
     7
370
    50
100
AcDbLine
 10
-27.983176
 20
417.698354
 30
0.0
 11
-28.9723
 21
417.698353
 31
0.0
  0
CIRCLE
  5
4A7
330
1F
100
AcDbEntity
  8
LC-002-100-D00-0
 62
     7
370
    50
100
AcDbCircle
 10
67.266825
 20
439.198353
 30
0.0
 40
1.750000000000227
  0
CIRCLE
  5
4A8
330
1F
100
AcDbEntity
  8
LC-002-100-D00-0
 62
     7
370
    50
100
AcDbCircle
 10
-41.233175
 20
439.198353
 30
0.0
 40
1.750000000000114
  0
LINE
  5
4A9
330
1F
100
AcDbEntity
  8
LC-002-100-D00-0
 62
     7
370
    50
100
AcDbLine
 10
67.516824
 20
440.948353
 30
0.0
 11
67.516824
 21
442.448352
 31
0.0
  0
LINE
  5
4AA
330
1F
100
AcDbEntity
  8
LC-002-100-D00-0
 62
     7
370
    50
100
AcDbLine
 10
65.516824
 20
440.948353
 30
0.0
 11
67.516824
 21
440.948353
 31
0.0
  0
LINE
  5
4AB
330
1F
100
AcDbEntity
  8
LC-002-100-D00-0
 62
     7
370
    50
100
AcDbLine
 10
65.516824
 20
440.948353
 30
0.0
 11
65.516824
 21
437.448353
 31
0.0
  0
LINE
  5
4AC
330
1F
100
AcDbEntity
  8
LC-002-100-D00-0
 62
     7
370
    50
100
AcDbLine
 10
65.516824
 20
437.448353
 30
0.0
 11
67.516824
 21
437.448353
 31
0.0
  0
LINE
  5
4AD
330
1F
100
AcDbEntity
  8
LC-002-100-D00-0
 62
     7
370
    50
100
AcDbLine
 10
67.516824
 20
437.448353
 30
0.0
 11
67.516824
 21
436.448351
 31
0.0
  0
LINE
  5
4AE
330
1F
100
AcDbEntity
  8
LC-002-100-D00-0
 62
     7
370
    50
100
AcDbLine
 10
52.016825
 20
436.448353
 30
0.0
 11
67.516824
 21
436.448351
 31
0.0
  0
ARC
  5
4AF
330
1F
100
AcDbEntity
  8
LC-002-100-D00-0
 62
     7
370
    50
100
AcDbCircle
 10
52.016825
 20
426.448353
 30
0.0
 40
10.0
100
AcDbArc
 50
90.0
 51
180.0
  0
LINE
  5
4B0
330
1F
100
AcDbEntity
  8
LC-002-100-D00-0
 62
     7
370
    50
100
AcDbLine
 10
42.016825
 20
426.448353
 30
0.0
 11
42.016824
 21
376.548354
 31
0.0
  0
LINE
  5
4B1
330
1F
100
AcDbEntity
  8
LC-002-100-D00-0
 62
     7
370
    50
100
AcDbLine
 10
40.516825
 20
376.548353
 30
0.0
 11
42.016824
 21
376.548354
 31
0.0
  0
LINE
  5
4B2
330
1F
100
AcDbEntity
  8
LC-002-100-D00-0
 62
     7
370
    50
100
AcDbLine
 10
40.516825
 20
440.448353
 30
0.0
 11
40.516825
 21
376.548353
 31
0.0
  0
ARC
  5
4B3
330
1F
100
AcDbEntity
  8
LC-002-100-D00-0
 62
     7
370
    50
100
AcDbCircle
 10
42.516825
 20
440.448353
 30
0.0
 40
1.999999999999773
100
AcDbArc
 50
90.0
 51
180.0
  0
LINE
  5
4B4
330
1F
100
AcDbEntity
  8
LC-002-100-D00-0
 62
     7
370
    50
100
AcDbLine
 10
42.516825
 20
442.448353
 30
0.0
 11
67.516824
 21
442.448352
 31
0.0
  0
LINE
  5
4B5
330
1F
100
AcDbEntity
  8
LC-002-100-D00-0
 62
     7
370
    50
100
AcDbLine
 10
24.516825
 20
442.448353
 30
0.0
 11
42.516825
 21
442.448353
 31
0.0
  0
LINE
  5
4B6
330
1F
100
AcDbEntity
  8
LC-002-100-D00-0
 62
     7
370
    50
100
AcDbLine
 10
24.516825
 20
376.548353
 30
0.0
 11
40.516825
 21
376.548353
 31
0.0
  0
LINE
  5
4B7
330
1F
100
AcDbEntity
  8
LC-002-100-D00-0
 62
     7
370
    50
100
AcDbLine
 10
-15.983174
 20
376.548354
 30
0.0
 11
-15.983175
 21
426.448353
 31
0.0
  0
ARC
  5
4B8
330
1F
100
AcDbEntity
  8
LC-002-100-D00-0
 62
     7
370
    50
100
AcDbCircle
 10
-16.483175
 20
440.448353
 30
0.0
 40
2.000000000000114
100
AcDbArc
 50
0.0
 51
90.0
  0
LINE
  5
4B9
330
1F
100
AcDbEntity
  8
LC-002-100-D00-0
 62
     7
370
    50
100
AcDbLine
 10
-16.483175
 20
442.448353
 30
0.0
 11
1.516825
 21
442.448353
 31
0.0
  0
LINE
  5
4BA
330
1F
100
AcDbEntity
  8
LC-002-100-D00-0
 62
     7
370
    50
100
AcDbLine
 10
-14.483175
 20
376.548353
 30
0.0
 11
-14.483175
 21
440.448353
 31
0.0
  0
LINE
  5
4BB
330
1F
100
AcDbEntity
  8
LC-002-100-D00-0
 62
     7
370
    50
100
AcDbLine
 10
-14.483175
 20
376.548353
 30
0.0
 11
1.516825
 21
376.548353
 31
0.0
  0
ARC
  5
4BC
330
1F
100
AcDbEntity
  8
LC-002-100-D00-0
 62
     7
370
    50
100
AcDbCircle
 10
-25.983175
 20
426.448353
 30
0.0
 40
10.0
100
AcDbArc
 50
0.0
 51
90.0
  0
LINE
  5
4BD
330
1F
100
AcDbEntity
  8
LC-002-100-D00-0
 62
     7
370
    50
100
AcDbLine
 10
-41.483173
 20
436.448351
 30
0.0
 11
-41.483173
 21
437.448353
 31
0.0
  0
LINE
  5
4BE
330
1F
100
AcDbEntity
  8
LC-002-100-D00-0
 62
     7
370
    50
100
AcDbLine
 10
-39.483173
 20
437.448353
 30
0.0
 11
-39.483173
 21
440.948353
 31
0.0
  0
LINE
  5
4BF
330
1F
100
AcDbEntity
  8
LC-002-100-D00-0
 62
     7
370
    50
100
AcDbLine
 10
-41.483173
 20
442.448352
 30
0.0
 11
-41.483173
 21
440.948353
 31
0.0
  0
LINE
  5
4C0
330
1F
100
AcDbEntity
  8
LC-002-100-D00-0
 62
     7
370
    50
100
AcDbLine
 10
-15.983174
 20
376.548354
 30
0.0
 11
-14.483175
 21
376.548353
 31
0.0
  0
LINE
  5
4C1
330
1F
100
AcDbEntity
  8
LC-002-100-D00-0
 62
     7
370
    50
100
AcDbLine
 10
-41.483173
 20
437.448353
 30
0.0
 11
-39.483173
 21
437.448353
 31
0.0
  0
LINE
  5
4C2
330
1F
100
AcDbEntity
  8
LC-002-100-D00-0
 62
     7
370
    50
100
AcDbLine
 10
-41.483173
 20
440.948353
 30
0.0
 11
-39.483173
 21
440.948353
 31
0.0
  0
LINE
  5
4C3
330
1F
100
AcDbEntity
  8
LC-002-100-D00-0
 62
     7
370
    50
100
AcDbLine
 10
-41.483173
 20
436.448351
 30
0.0
 11
-25.983175
 21
436.448353
 31
0.0
  0
LINE
  5
4C4
330
1F
100
AcDbEntity
  8
LC-002-100-D00-0
 62
     7
370
    50
100
AcDbLine
 10
-41.483173
 20
442.448352
 30
0.0
 11
-16.483175
 21
442.448353
 31
0.0
  0
LINE
  5
4C5
330
1F
100
AcDbEntity
  8
LC-002-100-D00-0
 62
     7
370
    50
100
AcDbLine
 10
1.516825
 20
442.448353
 30
0.0
 11
24.516825
 21
442.448353
 31
0.0
  0
LINE
  5
4C6
330
1F
100
AcDbEntity
  8
LC-002-100-D00-0
 62
     7
370
    50
100
AcDbLine
 10
1.516825
 20
376.548353
 30
0.0
 11
24.516825
 21
376.548353
 31
0.0
  0
LINE
  5
4C7
330
1F
100
AcDbEntity
  8
LC-002-100-D00-0
 62
     7
370
    50
100
AcDbLine
 10
-27.983176
 20
426.948354
 30
0.0
 11
-37.91886
 21
434.254004
 31
0.0
  0
ARC
  5
4C8
330
1F
100
AcDbEntity
  8
LC-002-100-D00-0
 62
     7
370
    50
100
AcDbCircle
 10
-38.511251
 20
433.448353
 30
0.0
 40
1.000000000000197
100
AcDbArc
 50
53.673174
 51
90.0
  0
LINE
  5
4C9
330
1F
100
AcDbEntity
  8
LC-002-100-D00-0
 62
     7
370
    50
100
AcDbLine
 10
-42.233175
 20
434.448353
 30
0.0
 11
-38.511251
 21
434.448353
 31
0.0
  0
LINE
  5
4CA
330
1F
100
AcDbEntity
  8
LC-002-100-D00-0
 62
     7
370
    50
100
AcDbLine
 10
-42.233175
 20
434.448353
 30
0.0
 11
-42.233175
 21
436.448353
 31
0.0
  0
LINE
  5
4CB
330
1F
100
AcDbEntity
  8
LC-002-100-D00-0
 62
     7
370
    50
100
AcDbLine
 10
-42.233175
 20
436.448353
 30
0.0
 11
-38.511251
 21
436.448353
 31
0.0
  0
ARC
  5
4CC
330
1F
100
AcDbEntity
  8
LC-002-100-D00-0
 62
     7
370
    50
100
AcDbCircle
 10
-38.511251
 20
433.448353
 30
0.0
 40
3.000000000000226
100
AcDbArc
 50
53.673174
 51
90.0
  0
LINE
  5
4CD
330
1F
100
AcDbEntity
  8
LC-002-100-D00-0
 62
     7
370
    50
100
AcDbLine
 10
-36.734079
 20
435.865306
 30
0.0
 11
-26.890784
 21
428.627589
 31
0.0
  0
ARC
  5
4CE
330
1F
100
AcDbEntity
  8
LC-002-100-D00-0
 62
     7
370
    50
100
AcDbCircle
 10
-27.483175
 20
427.821938
 30
0.0
 40
0.9999999999998863
100
AcDbArc
 50
0.0
 51
53.673174
  0
LINE
  5
4CF
330
1F
100
AcDbEntity
  8
LC-002-100-D00-0
 62
     7
370
    50
100
AcDbLine
 10
-26.483175
 20
365.948353
 30
0.0
 11
-26.483175
 21
427.821938
 31
0.0
  0
ARC
  5
4D0
330
1F
100
AcDbEntity
  8
LC-002-100-D00-0
 62
     7
370
    50
100
AcDbCircle
 10
-22.983175
 20
365.948353
 30
0.0
 40
3.500000000000114
100
AcDbArc
 50
180.0
 51
270.0
  0
LINE
  5
4D1
330
1F
100
AcDbEntity
  8
LC-002-100-D00-0
 62
     7
370
    50
100
AcDbLine
 10
49.016825
 20
362.448353
 30
0.0
 11
-22.983175
 21
362.448353
 31
0.0
  0
ARC
  5
4D2
330
1F
100
AcDbEntity
  8
LC-002-100-D00-0
 62
     7
370
    50
100
AcDbCircle
 10
49.016825
 20
365.948353
 30
0.0
 40
3.5
100
AcDbArc
 50
270.0
 51
0.0
  0
LINE
  5
4D3
330
1F
100
AcDbEntity
  8
LC-002-100-D00-0
 62
     7
370
    50
100
AcDbLine
 10
52.516825
 20
427.821938
 30
0.0
 11
52.516825
 21
365.948353
 31
0.0
  0
ARC
  5
4D4
330
1F
100
AcDbEntity
  8
LC-002-100-D00-0
 62
     7
370
    50
100
AcDbCircle
 10
53.516825
 20
427.821938
 30
0.0
 40
1.000000000000014
100
AcDbArc
 50
126.326826
 51
180.0
  0
LINE
  5
4D5
330
1F
100
AcDbEntity
  8
LC-002-100-D00-0
 62
     7
370
    50
100
AcDbLine
 10
62.76773
 20
435.865306
 30
0.0
 11
52.924435
 21
428.627589
 31
0.0
  0
ARC
  5
4D6
330
1F
100
AcDbEntity
  8
LC-002-100-D00-0
 62
     7
370
    50
100
AcDbCircle
 10
64.544901
 20
433.448353
 30
0.0
 40
3.000000000000227
100
AcDbArc
 50
90.0
 51
126.326826
  0
LINE
  5
4D7
330
1F
100
AcDbEntity
  8
LC-002-100-D00-0
 62
     7
370
    50
100
AcDbLine
 10
64.544901
 20
436.448353
 30
0.0
 11
68.266825
 21
436.448353
 31
0.0
  0
LINE
  5
4D8
330
1F
100
AcDbEntity
  8
LC-002-100-D00-0
 62
     7
370
    50
100
AcDbLine
 10
68.266825
 20
436.448353
 30
0.0
 11
68.266825
 21
434.448353
 31
0.0
  0
LINE
  5
4D9
330
1F
100
AcDbEntity
  8
LC-002-100-D00-0
 62
     7
370
    50
100
AcDbLine
 10
64.544901
 20
434.448353
 30
0.0
 11
68.266825
 21
434.448353
 31
0.0
  0
ARC
  5
4DA
330
1F
100
AcDbEntity
  8
LC-002-100-D00-0
 62
     7
370
    50
100
AcDbCircle
 10
64.544901
 20
433.448353
 30
0.0
 40
1.000000000000227
100
AcDbArc
 50
90.0
 51
126.326826
  0
LINE
  5
4DB
330
1F
100
AcDbEntity
  8
LC-002-100-D00-0
 62
     7
370
    50
100
AcDbLine
 10
54.016826
 20
426.948354
 30
0.0
 11
63.952511
 21
434.254004
 31
0.0
  0
LINE
  5
4DC
330
1F
100
AcDbEntity
  8
LC-002-100-D00-0
 62
     7
370
    50
100
AcDbLine
 10
54.016826
 20
426.948354
 30
0.0
 11
54.016825
 21
365.948353
 31
0.0
  0
ARC
  5
4DD
330
1F
100
AcDbEntity
  8
LC-002-100-D00-0
 62
     7
370
    50
100
AcDbCircle
 10
49.016825
 20
365.948353
 30
0.0
 40
5.0
100
AcDbArc
 50
270.0
 51
0.0
  0
LINE
  5
4DE
330
1F
100
AcDbEntity
  8
LC-002-100-D00-0
 62
     7
370
    50
100
AcDbLine
 10
49.016825
 20
360.948353
 30
0.0
 11
-22.983175
 21
360.948353
 31
0.0
  0
ARC
  5
4DF
330
1F
100
AcDbEntity
  8
LC-002-100-D00-0
 62
     7
370
    50
100
AcDbCircle
 10
-22.983175
 20
365.948353
 30
0.0
 40
5.0
100
AcDbArc
 50
180.0
 51
270.0
  0
LINE
  5
4E0
330
1F
100
AcDbEntity
  8
LC-002-100-D00-0
 62
     7
370
    50
100
AcDbLine
 10
-27.983175
 20
365.948353
 30
0.0
 11
-27.983176
 21
426.948354
 31
0.0
  0
ARC
  5
4E1
330
1F
100
AcDbEntity
  8
LC-002-100-D00-0
 62
     7
370
    50
100
AcDbCircle
 10
53.510078
 20
427.816512
 30
0.0
 40
1.000373573444632
100
AcDbArc
 50
126.325165
 51
180.0
  0
LINE
  5
4E2
330
1F
100
AcDbEntity
  8
LC-002-100-D00-0
 62
     7
370
    50
100
AcDbLine
 10
52.917489
 20
428.622481
 30
0.0
 11
52.924435
 21
428.627589
 31
0.0
  0
LINE
  5
4E3
330
1F
100
AcDbEntity
  8
LC-002-100-D00-0
 62
     7
370
    50
100
AcDbLine
 10
52.509704
 20
426.948353
 30
0.0
 11
48.096221
 21
426.948353
 31
0.0
  0
LINE
  5
4E4
330
1F
100
AcDbEntity
  8
LC-002-100-D00-0
 62
     7
370
    50
100
AcDbLine
 10
52.509704
 20
427.81657
 30
0.0
 11
52.509704
 21
426.948353
 31
0.0
  0
LINE
  5
4E5
330
1F
100
AcDbEntity
  8
LC-002-100-D00-0
 62
     7
370
    50
100
AcDbLine
 10
-26.476054
 20
427.81657
 30
0.0
 11
-26.476054
 21
426.948353
 31
0.0
  0
LINE
  5
4E6
330
1F
100
AcDbEntity
  8
LC-002-100-D00-0
 62
     7
370
    50
100
AcDbLine
 10
-22.06257
 20
426.948353
 30
0.0
 11
-26.476054
 21
426.948353
 31
0.0
  0
ARC
  5
4E7
330
1F
100
AcDbEntity
  8
LC-002-100-D00-0
 62
     7
370
    50
100
AcDbCircle
 10
-27.476401
 20
427.816525
 30
0.0
 40
1.000347039120811
100
AcDbArc
 50
0.0
 51
53.675603
  0
LINE
  5
4E8
330
1F
100
AcDbEntity
  8
LC-002-100-D00-0
 62
     7
370
    50
100
AcDbLine
 10
45.945191
 20
434.394122
 30
0.0
 11
45.945191
 21
426.948354
 31
0.0
  0
LINE
  5
4E9
330
1F
100
AcDbEntity
  8
LC-002-100-D00-0
 62
     7
370
    50
100
AcDbLine
 10
45.94519
 20
434.448353
 30
0.0
 11
52.73124
 21
434.448353
 31
0.0
  0
LINE
  5
4EA
330
1F
100
AcDbEntity
  8
LC-002-100-D00-0
 62
     7
370
    50
100
AcDbLine
 10
57.195528
 20
434.448353
 30
0.0
 11
60.840674
 21
434.448353
 31
0.0
  0
LINE
  5
4EB
330
1F
100
AcDbEntity
  8
LC-002-100-D00-0
 62
     7
370
    50
100
AcDbLine
 10
-19.911541
 20
434.394122
 30
0.0
 11
-19.911541
 21
426.948354
 31
0.0
  0
LINE
  5
4EC
330
1F
100
AcDbEntity
  8
LC-002-100-D00-0
 62
     7
370
    50
100
AcDbLine
 10
-34.807023
 20
434.448353
 30
0.0
 11
-31.161878
 21
434.448353
 31
0.0
  0
LINE
  5
4ED
330
1F
100
AcDbEntity
  8
LC-002-100-D00-0
 62
     7
370
    50
100
AcDbLine
 10
-26.69759
 20
434.448353
 30
0.0
 11
-19.911539
 21
434.448353
 31
0.0
  0
LINE
  5
4EE
330
1F
100
AcDbEntity
  8
LC-002-100-D00-0
 62
     7
370
    50
100
AcDbLine
 10
48.096221
 20
426.948353
 30
0.0
 11
42.029333
 21
426.948353
 31
0.0
  0
LINE
  5
4EF
330
1F
100
AcDbEntity
  8
LC-002-100-D00-0
 62
     7
370
    50
100
AcDbLine
 10
-15.995683
 20
426.948353
 30
0.0
 11
-22.06257
 21
426.948353
 31
0.0
  0
CIRCLE
  5
4F0
330
1F
100
AcDbEntity
  8
LC-002-100-D00-0
 62
     7
370
    50
100
AcDbCircle
 10
124.264621
 20
417.948353
 30
0.0
 40
2.000000000000114
  0
CIRCLE
  5
4F1
330
1F
100
AcDbEntity
  8
LC-002-100-D00-0
 62
     7
370
    50
100
AcDbCircle
 10
124.264621
 20
363.948353
 30
0.0
 40
2.0
  0
LINE
  5
4F2
330
1F
100
AcDbEntity
  8
LC-002-100-D00-0
 62
     7
370
    50
100
AcDbLine
 10
106.359163
 20
446.363167
 30
0.0
 11
88.525491
 21
441.584649
 31
0.0
  0
ARC
  5
4F3
330
1F
100
AcDbEntity
  8
LC-002-100-D00-0
 62
     7
370
    50
100
AcDbCircle
 10
87.490215
 20
445.448353
 30
0.0
 40
4.000000000000227
100
AcDbArc
 50
270.0
 51
285.0
  0
LINE
  5
4F4
330
1F
100
AcDbEntity
  8
LC-002-100-D00-0
 62
     7
370
    50
100
AcDbLine
 10
87.490215
 20
441.448353
 30
0.0
 11
70.816825
 21
441.448353
 31
0.0
  0
ARC
  5
4F5
330
1F
100
AcDbEntity
  8
LC-002-100-D00-0
 62
     7
370
    50
100
AcDbCircle
 10
70.816825
 20
440.448353
 30
0.0
 40
1.0
100
AcDbArc
 50
90.0
 51
180.0
  0
LINE
  5
4F6
330
1F
100
AcDbEntity
  8
LC-002-100-D00-0
 62
     7
370
    50
100
AcDbLine
 10
69.816825
 20
440.448353
 30
0.0
 11
69.816826
 21
436.448351
 31
0.0
  0
LINE
  5
4F7
330
1F
100
AcDbEntity
  8
LC-002-100-D00-0
 62
     7
370
    50
100
AcDbLine
 10
69.816826
 20
436.448351
 30
0.0
 11
68.316825
 21
436.448353
 31
0.0
  0
LINE
  5
4F8
330
1F
100
AcDbEntity
  8
LC-002-100-D00-0
 62
     7
370
    50
100
AcDbLine
 10
68.316825
 20
440.448353
 30
0.0
 11
68.316825
 21
436.448353
 31
0.0
  0
ARC
  5
4F9
330
1F
100
AcDbEntity
  8
LC-002-100-D00-0
 62
     7
370
    50
100
AcDbCircle
 10
70.816825
 20
440.448353
 30
0.0
 40
2.5
100
AcDbArc
 50
90.0
 51
180.0
  0
LINE
  5
4FA
330
1F
100
AcDbEntity
  8
LC-002-100-D00-0
 62
     7
370
    50
100
AcDbLine
 10
87.490215
 20
442.948353
 30
0.0
 11
70.816825
 21
442.948353
 31
0.0
  0
ARC
  5
4FB
330
1F
100
AcDbEntity
  8
LC-002-100-D00-0
 62
     7
370
    50
100
AcDbCircle
 10
87.490215
 20
445.448353
 30
0.0
 40
2.5
100
AcDbArc
 50
270.0
 51
285.0
  0
LINE
  5
4FC
330
1F
100
AcDbEntity
  8
LC-002-100-D00-0
 62
     7
370
    50
100
AcDbLine
 10
105.970934
 20
447.812056
 30
0.0
 11
88.137263
 21
443.033538
 31
0.0
  0
ARC
  5
4FD
330
1F
100
AcDbEntity
  8
LC-002-100-D00-0
 62
     7
370
    50
100
AcDbCircle
 10
107.006211
 20
443.948353
 30
0.0
 40
4.000000000000227
100
AcDbArc
 50
90.0
 51
105.0
  0
LINE
  5
4FE
330
1F
100
AcDbEntity
  8
LC-002-100-D00-0
 62
     7
370
    50
100
AcDbLine
 10
107.006211
 20
447.948353
 30
0.0
 11
108.516825
 21
447.948352
 31
0.0
  0
LINE
  5
4FF
330
1F
100
AcDbEntity
  8
LC-002-100-D00-0
 62
     7
370
    50
100
AcDbLine
 10
108.516825
 20
447.948352
 30
0.0
 11
108.516825
 21
449.348353
 31
0.0
  0
LINE
  5
500
330
1F
100
AcDbEntity
  8
LC-002-100-D00-0
 62
     7
370
    50
100
AcDbLine
 10
109.016825
 20
449.348353
 30
0.0
 11
108.516825
 21
449.348353
 31
0.0
  0
ARC
  5
501
330
1F
100
AcDbEntity
  8
LC-002-100-D00-0
 62
     7
370
    50
100
AcDbCircle
 10
108.016825
 20
450.848353
 30
0.0
 40
1.802775637732058
100
AcDbArc
 50
303.690068
 51
56.309932
  0
LINE
  5
502
330
1F
100
AcDbEntity
  8
LC-002-100-D00-0
 62
     7
370
    50
100
AcDbLine
 10
109.016826
 20
466.948353
 30
0.0
 11
109.016825
 21
452.348353
 31
0.0
  0
LINE
  5
503
330
1F
100
AcDbEntity
  8
LC-002-100-D00-0
 62
     7
370
    50
100
AcDbLine
 10
110.016828
 20
467.948353
 30
0.0
 11
109.016826
 21
466.948353
 31
0.0
  0
LINE
  5
504
330
1F
100
AcDbEntity
  8
LC-002-100-D00-0
 62
     7
370
    50
100
AcDbLine
 10
116.016825
 20
467.948353
 30
0.0
 11
110.016828
 21
467.948353
 31
0.0
  0
LINE
  5
505
330
1F
100
AcDbEntity
  8
LC-002-100-D00-0
 62
     7
370
    50
100
AcDbLine
 10
117.016827
 20
466.948353
 30
0.0
 11
116.016825
 21
467.948353
 31
0.0
  0
LINE
  5
506
330
1F
100
AcDbEntity
  8
LC-002-100-D00-0
 62
     7
370
    50
100
AcDbLine
 10
117.016825
 20
452.348353
 30
0.0
 11
117.016827
 21
466.948353
 31
0.0
  0
ARC
  5
507
330
1F
100
AcDbEntity
  8
LC-002-100-D00-0
 62
     7
370
    50
100
AcDbCircle
 10
118.016825
 20
450.848353
 30
0.0
 40
1.802775637732121
100
AcDbArc
 50
123.690068
 51
236.309932
  0
LINE
  5
508
330
1F
100
AcDbEntity
  8
LC-002-100-D00-0
 62
     7
370
    50
100
AcDbLine
 10
117.516828
 20
449.348353
 30
0.0
 11
117.016825
 21
449.348353
 31
0.0
  0
LINE
  5
509
330
1F
100
AcDbEntity
  8
LC-002-100-D00-0
 62
     7
370
    50
100
AcDbLine
 10
117.516828
 20
449.348353
 30
0.0
 11
117.516828
 21
447.948352
 31
0.0
  0
LINE
  5
50A
330
1F
100
AcDbEntity
  8
LC-002-100-D00-0
 62
     7
370
    50
100
AcDbLine
 10
117.516828
 20
447.948352
 30
0.0
 11
243.516823
 21
447.948352
 31
0.0
  0
LINE
  5
50B
330
1F
100
AcDbEntity
  8
LC-002-100-D00-0
 62
     7
370
    50
100
AcDbLine
 10
243.516823
 20
447.948352
 30
0.0
 11
243.516823
 21
449.348353
 31
0.0
  0
LINE
  5
50C
330
1F
100
AcDbEntity
  8
LC-002-100-D00-0
 62
     7
370
    50
100
AcDbLine
 10
244.016825
 20
449.348353
 30
0.0
 11
243.516823
 21
449.348353
 31
0.0
  0
ARC
  5
50D
330
1F
100
AcDbEntity
  8
LC-002-100-D00-0
 62
     7
370
    50
100
AcDbCircle
 10
243.016825
 20
450.848353
 30
0.0
 40
1.802775637732058
100
AcDbArc
 50
303.690068
 51
56.309932
  0
LINE
  5
50E
330
1F
100
AcDbEntity
  8
LC-002-100-D00-0
 62
     7
370
    50
100
AcDbLine
 10
244.016831
 20
466.948353
 30
0.0
 11
244.016825
 21
452.348353
 31
0.0
  0
LINE
  5
50F
330
1F
100
AcDbEntity
  8
LC-002-100-D00-0
 62
     7
370
    50
100
AcDbLine
 10
245.016819
 20
467.948353
 30
0.0
 11
244.016831
 21
466.948353
 31
0.0
  0
LINE
  5
510
330
1F
100
AcDbEntity
  8
LC-002-100-D00-0
 62
     7
370
    50
100
AcDbLine
 10
251.016831
 20
467.948353
 30
0.0
 11
245.016819
 21
467.948353
 31
0.0
  0
LINE
  5
511
330
1F
100
AcDbEntity
  8
LC-002-100-D00-0
 62
     7
370
    50
100
AcDbLine
 10
252.016818
 20
466.948353
 30
0.0
 11
251.016831
 21
467.948353
 31
0.0
  0
LINE
  5
512
330
1F
100
AcDbEntity
  8
LC-002-100-D00-0
 62
     7
370
    50
100
AcDbLine
 10
252.016825
 20
452.348353
 30
0.0
 11
252.016818
 21
466.948353
 31
0.0
  0
ARC
  5
513
330
1F
100
AcDbEntity
  8
LC-002-100-D00-0
 62
     7
370
    50
100
AcDbCircle
 10
253.016825
 20
450.848353
 30
0.0
 40
1.802775637732184
100
AcDbArc
 50
123.690068
 51
236.309932
  0
LINE
  5
514
330
1F
100
AcDbEntity
  8
LC-002-100-D00-0
 62
     7
370
    50
100
AcDbLine
 10
252.516826
 20
449.348353
 30
0.0
 11
252.016825
 21
449.348353
 31
0.0
  0
LINE
  5
515
330
1F
100
AcDbEntity
  8
LC-002-100-D00-0
 62
     7
370
    50
100
AcDbLine
 10
252.516826
 20
449.348353
 30
0.0
 11
252.516826
 21
447.948352
 31
0.0
  0
LINE
  5
516
330
1F
100
AcDbEntity
  8
LC-002-100-D00-0
 62
     7
370
    50
100
AcDbLine
 10
252.516826
 20
447.948352
 30
0.0
 11
378.516828
 21
447.948352
 31
0.0
  0
LINE
  5
517
330
1F
100
AcDbEntity
  8
LC-002-100-D00-0
 62
     7
370
    50
100
AcDbLine
 10
378.516828
 20
447.948352
 30
0.0
 11
378.516828
 21
449.348353
 31
0.0
  0
LINE
  5
518
330
1F
100
AcDbEntity
  8
LC-002-100-D00-0
 62
     7
370
    50
100
AcDbLine
 10
379.016825
 20
449.348353
 30
0.0
 11
378.516828
 21
449.348353
 31
0.0
  0
ARC
  5
519
330
1F
100
AcDbEntity
  8
LC-002-100-D00-0
 62
     7
370
    50
100
AcDbCircle
 10
378.016825
 20
450.848353
 30
0.0
 40
1.802775637732058
100
AcDbArc
 50
303.690068
 51
56.309932
  0
LINE
  5
51A
330
1F
100
AcDbEntity
  8
LC-002-100-D00-0
 62
     7
370
    50
100
AcDbLine
 10
379.016822
 20
466.948353
 30
0.0
 11
379.016825
 21
452.348353
 31
0.0
  0
LINE
  5
51B
330
1F
100
AcDbEntity
  8
LC-002-100-D00-0
 62
     7
370
    50
100
AcDbLine
 10
380.016839
 20
467.948353
 30
0.0
 11
379.016822
 21
466.948353
 31
0.0
  0
LINE
  5
51C
330
1F
100
AcDbEntity
  8
LC-002-100-D00-0
 62
     7
370
    50
100
AcDbLine
 10
386.016821
 20
467.948353
 30
0.0
 11
380.016839
 21
467.948353
 31
0.0
  0
LINE
  5
51D
330
1F
100
AcDbEntity
  8
LC-002-100-D00-0
 62
     7
370
    50
100
AcDbLine
 10
387.016838
 20
466.948353
 30
0.0
 11
386.016821
 21
467.948353
 31
0.0
  0
LINE
  5
51E
330
1F
100
AcDbEntity
  8
LC-002-100-D00-0
 62
     7
370
    50
100
AcDbLine
 10
387.016825
 20
452.348353
 30
0.0
 11
387.016838
 21
466.948353
 31
0.0
  0
ARC
  5
51F
330
1F
100
AcDbEntity
  8
LC-002-100-D00-0
 62
     7
370
    50
100
AcDbCircle
 10
388.016825
 20
450.848353
 30
0.0
 40
1.802775637732184
100
AcDbArc
 50
123.690068
 51
236.309932
  0
LINE
  5
520
330
1F
100
AcDbEntity
  8
LC-002-100-D00-0
 62
     7
370
    50
100
AcDbLine
 10
387.516832
 20
449.348353
 30
0.0
 11
387.016825
 21
449.348353
 31
0.0
  0
LINE
  5
521
330
1F
100
AcDbEntity
  8
LC-002-100-D00-0
 62
     7
370
    50
100
AcDbLine
 10
387.516832
 20
449.348353
 30
0.0
 11
387.516832
 21
447.948352
 31
0.0
  0
LINE
  5
522
330
1F
100
AcDbEntity
  8
LC-002-100-D00-0
 62
     7
370
    50
100
AcDbLine
 10
387.516832
 20
447.948352
 30
0.0
 11
405.016825
 21
447.948353
 31
0.0
  0
ARC
  5
523
330
1F
100
AcDbEntity
  8
LC-002-100-D00-0
 62
     7
370
    50
100
AcDbCircle
 10
405.016825
 20
455.948353
 30
0.0
 40
7.999999999999773
100
AcDbArc
 50
270.0
 51
0.0
  0
LINE
  5
524
330
1F
100
AcDbEntity
  8
LC-002-100-D00-0
 62
     7
370
    50
100
AcDbLine
 10
413.016825
 20
455.948353
 30
0.0
 11
413.016825
 21
465.448353
 31
0.0
  0
ARC
  5
525
330
1F
100
AcDbEntity
  8
LC-002-100-D00-0
 62
     7
370
    50
100
AcDbCircle
 10
416.016825
 20
465.448353
 30
0.0
 40
3.0
100
AcDbArc
 50
90.0
 51
180.0
  0
LINE
  5
526
330
1F
100
AcDbEntity
  8
LC-002-100-D00-0
 62
     7
370
    50
100
AcDbLine
 10
463.016825
 20
468.448353
 30
0.0
 11
416.016825
 21
468.448353
 31
0.0
  0
LINE
  5
527
330
1F
100
AcDbEntity
  8
LC-002-100-D00-0
 62
     7
370
    50
100
AcDbLine
 10
463.016813
 20
466.948353
 30
0.0
 11
463.016825
 21
468.448353
 31
0.0
  0
LINE
  5
528
330
1F
100
AcDbEntity
  8
LC-002-100-D00-0
 62
     7
370
    50
100
AcDbLine
 10
463.016813
 20
466.948353
 30
0.0
 11
416.016825
 21
466.948353
 31
0.0
  0
ARC
  5
529
330
1F
100
AcDbEntity
  8
LC-002-100-D00-0
 62
     7
370
    50
100
AcDbCircle
 10
416.016825
 20
465.448353
 30
0.0
 40
1.5
100
AcDbArc
 50
90.0
 51
180.0
  0
LINE
  5
52A
330
1F
100
AcDbEntity
  8
LC-002-100-D00-0
 62
     7
370
    50
100
AcDbLine
 10
414.516825
 20
455.948353
 30
0.0
 11
414.516825
 21
465.448353
 31
0.0
  0
ARC
  5
52B
330
1F
100
AcDbEntity
  8
LC-002-100-D00-0
 62
     7
370
    50
100
AcDbCircle
 10
405.016825
 20
455.948353
 30
0.0
 40
9.500000000000227
100
AcDbArc
 50
270.0
 51
0.0
  0
LINE
  5
52C
330
1F
100
AcDbEntity
  8
LC-002-100-D00-0
 62
     7
370
    50
100
AcDbLine
 10
107.006211
 20
446.448353
 30
0.0
 11
405.016825
 21
446.448353
 31
0.0
  0
ARC
  5
52D
330
1F
100
AcDbEntity
  8
LC-002-100-D00-0
 62
     7
370
    50
100
AcDbCircle
 10
107.006211
 20
443.948353
 30
0.0
 40
2.500000000000455
100
AcDbArc
 50
90.0
 51
105.0
  0
LINE
  5
52E
330
1F
100
AcDbEntity
  8
LC-002-100-D00-0
 62
     7
370
    50
100
AcDbLine
 10
57.410709
 20
442.948353
 30
0.0
 11
70.816825
 21
442.948353
 31
0.0
  0
LINE
  5
52F
330
1F
100
AcDbEntity
  8
LC-002-100-D00-0
 62
     7
370
    50
100
AcDbLine
 10
68.316825
 20
436.448353
 30
0.0
 11
68.266825
 21
436.448353
 31
0.0
  0
LINE
  5
530
330
1F
100
AcDbEntity
  8
LC-002-100-D00-0
 62
     7
370
    50
100
AcDbLine
 10
-43.783175
 20
436.448351
 30
0.0
 11
-43.783175
 21
440.448353
 31
0.0
  0
LINE
  5
531
330
1F
100
AcDbEntity
  8
LC-002-100-D00-0
 62
     7
370
    50
100
AcDbLine
 10
-42.233175
 20
436.448353
 30
0.0
 11
-42.283175
 21
436.448353
 31
0.0
  0
LINE
  5
532
330
1F
100
AcDbEntity
  8
LC-002-100-D00-0
 62
     7
370
    50
100
AcDbLine
 10
-42.283175
 20
436.448353
 30
0.0
 11
-42.283175
 21
440.448353
 31
0.0
  0
LINE
  5
533
330
1F
100
AcDbEntity
  8
LC-002-100-D00-0
 62
     7
370
    50
100
AcDbLine
 10
-352.483178
 20
449.348353
 30
0.0
 11
-352.983175
 21
449.348353
 31
0.0
  0
LINE
  5
534
330
1F
100
AcDbEntity
  8
LC-002-100-D00-0
 62
     7
370
    50
100
AcDbLine
 10
-352.483178
 20
449.348353
 30
0.0
 11
-352.483178
 21
447.948352
 31
0.0
  0
LINE
  5
535
330
1F
100
AcDbEntity
  8
LC-002-100-D00-0
 62
     7
370
    50
100
AcDbLine
 10
-352.483178
 20
447.948352
 30
0.0
 11
-226.483176
 21
447.948352
 31
0.0
  0
LINE
  5
536
330
1F
100
AcDbEntity
  8
LC-002-100-D00-0
 62
     7
370
    50
100
AcDbLine
 10
-226.483176
 20
447.948352
 30
0.0
 11
-226.483176
 21
449.348353
 31
0.0
  0
LINE
  5
537
330
1F
100
AcDbEntity
  8
LC-002-100-D00-0
 62
     7
370
    50
100
AcDbLine
 10
-225.983175
 20
449.348353
 30
0.0
 11
-226.483176
 21
449.348353
 31
0.0
  0
ARC
  5
538
330
1F
100
AcDbEntity
  8
LC-002-100-D00-0
 62
     7
370
    50
100
AcDbCircle
 10
-226.983175
 20
450.848353
 30
0.0
 40
1.802775637732121
100
AcDbArc
 50
303.690068
 51
56.309932
  0
LINE
  5
539
330
1F
100
AcDbEntity
  8
LC-002-100-D00-0
 62
     7
370
    50
100
AcDbLine
 10
-225.983167
 20
466.948353
 30
0.0
 11
-225.983175
 21
452.348353
 31
0.0
  0
LINE
  5
53A
330
1F
100
AcDbEntity
  8
LC-002-100-D00-0
 62
     7
370
    50
100
AcDbLine
 10
-224.98318
 20
467.948353
 30
0.0
 11
-225.983167
 21
466.948353
 31
0.0
  0
LINE
  5
53B
330
1F
100
AcDbEntity
  8
LC-002-100-D00-0
 62
     7
370
    50
100
AcDbLine
 10
-218.983168
 20
467.948353
 30
0.0
 11
-224.98318
 21
467.948353
 31
0.0
  0
LINE
  5
53C
330
1F
100
AcDbEntity
  8
LC-002-100-D00-0
 62
     7
370
    50
100
AcDbLine
 10
-217.983181
 20
466.948353
 30
0.0
 11
-218.983168
 21
467.948353
 31
0.0
  0
LINE
  5
53D
330
1F
100
AcDbEntity
  8
LC-002-100-D00-0
 62
     7
370
    50
100
AcDbLine
 10
-217.983175
 20
452.348353
 30
0.0
 11
-217.983181
 21
466.948353
 31
0.0
  0
ARC
  5
53E
330
1F
100
AcDbEntity
  8
LC-002-100-D00-0
 62
     7
370
    50
100
AcDbCircle
 10
-216.983175
 20
450.848353
 30
0.0
 40
1.802775637732121
100
AcDbArc
 50
123.690068
 51
236.309932
  0
LINE
  5
53F
330
1F
100
AcDbEntity
  8
LC-002-100-D00-0
 62
     7
370
    50
100
AcDbLine
 10
-217.483172
 20
449.348353
 30
0.0
 11
-217.983175
 21
449.348353
 31
0.0
  0
LINE
  5
540
330
1F
100
AcDbEntity
  8
LC-002-100-D00-0
 62
     7
370
    50
100
AcDbLine
 10
-217.483172
 20
449.348353
 30
0.0
 11
-217.483172
 21
447.948352
 31
0.0
  0
LINE
  5
541
330
1F
100
AcDbEntity
  8
LC-002-100-D00-0
 62
     7
370
    50
100
AcDbLine
 10
-217.483172
 20
447.948352
 30
0.0
 11
-91.483178
 21
447.948352
 31
0.0
  0
LINE
  5
542
330
1F
100
AcDbEntity
  8
LC-002-100-D00-0
 62
     7
370
    50
100
AcDbLine
 10
-91.483178
 20
447.948352
 30
0.0
 11
-91.483178
 21
449.348353
 31
0.0
  0
LINE
  5
543
330
1F
100
AcDbEntity
  8
LC-002-100-D00-0
 62
     7
370
    50
100
AcDbLine
 10
-90.983175
 20
449.348353
 30
0.0
 11
-91.483178
 21
449.348353
 31
0.0
  0
ARC
  5
544
330
1F
100
AcDbEntity
  8
LC-002-100-D00-0
 62
     7
370
    50
100
AcDbCircle
 10
-91.983175
 20
450.848353
 30
0.0
 40
1.802775637732058
100
AcDbArc
 50
303.690068
 51
56.309932
  0
LINE
  5
545
330
1F
100
AcDbEntity
  8
LC-002-100-D00-0
 62
     7
370
    50
100
AcDbLine
 10
-90.983177
 20
466.948353
 30
0.0
 11
-90.983175
 21
452.348353
 31
0.0
  0
LINE
  5
546
330
1F
100
AcDbEntity
  8
LC-002-100-D00-0
 62
     7
370
    50
100
AcDbLine
 10
-89.983175
 20
467.948353
 30
0.0
 11
-90.983177
 21
466.948353
 31
0.0
  0
LINE
  5
547
330
1F
100
AcDbEntity
  8
LC-002-100-D00-0
 62
     7
370
    50
100
AcDbLine
 10
-83.983178
 20
467.948353
 30
0.0
 11
-89.983175
 21
467.948353
 31
0.0
  0
LINE
  5
548
330
1F
100
AcDbEntity
  8
LC-002-100-D00-0
 62
     7
370
    50
100
AcDbLine
 10
-82.983176
 20
466.948353
 30
0.0
 11
-83.983178
 21
467.948353
 31
0.0
  0
LINE
  5
549
330
1F
100
AcDbEntity
  8
LC-002-100-D00-0
 62
     7
370
    50
100
AcDbLine
 10
-82.983175
 20
452.348353
 30
0.0
 11
-82.983176
 21
466.948353
 31
0.0
  0
ARC
  5
54A
330
1F
100
AcDbEntity
  8
LC-002-100-D00-0
 62
     7
370
    50
100
AcDbCircle
 10
-81.983175
 20
450.848353
 30
0.0
 40
1.802775637732121
100
AcDbArc
 50
123.690068
 51
236.309932
  0
LINE
  5
54B
330
1F
100
AcDbEntity
  8
LC-002-100-D00-0
 62
     7
370
    50
100
AcDbLine
 10
-82.483175
 20
449.348353
 30
0.0
 11
-82.983175
 21
449.348353
 31
0.0
  0
LINE
  5
54C
330
1F
100
AcDbEntity
  8
LC-002-100-D00-0
 62
     7
370
    50
100
AcDbLine
 10
-82.483175
 20
449.348353
 30
0.0
 11
-82.483175
 21
447.948352
 31
0.0
  0
LINE
  5
54D
330
1F
100
AcDbEntity
  8
LC-002-100-D00-0
 62
     7
370
    50
100
AcDbLine
 10
-82.483175
 20
447.948352
 30
0.0
 11
-80.97256
 21
447.948353
 31
0.0
  0
ARC
  5
54E
330
1F
100
AcDbEntity
  8
LC-002-100-D00-0
 62
     7
370
    50
100
AcDbCircle
 10
-80.97256
 20
443.948353
 30
0.0
 40
4.000000000000122
100
AcDbArc
 50
75.0
 51
90.0
  0
LINE
  5
54F
330
1F
100
AcDbEntity
  8
LC-002-100-D00-0
 62
     7
370
    50
100
AcDbLine
 10
-62.103612
 20
443.033538
 30
0.0
 11
-79.937284
 21
447.812056
 31
0.0
  0
ARC
  5
550
330
1F
100
AcDbEntity
  8
LC-002-100-D00-0
 62
     7
370
    50
100
AcDbCircle
 10
-61.456565
 20
445.448353
 30
0.0
 40
2.500000000000062
100
AcDbArc
 50
255.0
 51
270.0
  0
LINE
  5
551
330
1F
100
AcDbEntity
  8
LC-002-100-D00-0
 62
     7
370
    50
100
AcDbLine
 10
-56.060383
 20
442.948353
 30
0.0
 11
-61.456565
 21
442.948353
 31
0.0
  0
LINE
  5
552
330
1F
100
AcDbEntity
  8
LC-002-100-D00-0
 62
     7
370
    50
100
AcDbLine
 10
-56.060383
 20
442.848353
 30
0.0
 11
-56.060383
 21
442.948353
 31
0.0
  0
LINE
  5
553
330
1F
100
AcDbEntity
  8
LC-002-100-D00-0
 62
     7
370
    50
100
AcDbLine
 10
-55.536548
 20
442.848353
 30
0.0
 11
-56.060383
 21
442.848353
 31
0.0
  0
LINE
  5
554
330
1F
100
AcDbEntity
  8
LC-002-100-D00-0
 62
     7
370
    50
100
AcDbLine
 10
-55.536548
 20
442.948353
 30
0.0
 11
-55.536548
 21
442.848353
 31
0.0
  0
LINE
  5
555
330
1F
100
AcDbEntity
  8
LC-002-100-D00-0
 62
     7
370
    50
100
AcDbLine
 10
-54.842303
 20
442.948353
 30
0.0
 11
-55.536548
 21
442.948353
 31
0.0
  0
LINE
  5
556
330
1F
100
AcDbEntity
  8
LC-002-100-D00-0
 62
     7
370
    50
100
AcDbLine
 10
-54.842303
 20
442.848353
 30
0.0
 11
-54.842303
 21
442.948353
 31
0.0
  0
LINE
  5
557
330
1F
100
AcDbEntity
  8
LC-002-100-D00-0
 62
     7
370
    50
100
AcDbLine
 10
-54.317953
 20
442.848353
 30
0.0
 11
-54.842303
 21
442.848353
 31
0.0
  0
LINE
  5
558
330
1F
100
AcDbEntity
  8
LC-002-100-D00-0
 62
     7
370
    50
100
AcDbLine
 10
-54.317953
 20
442.948353
 30
0.0
 11
-54.317953
 21
442.848353
 31
0.0
  0
LINE
  5
559
330
1F
100
AcDbEntity
  8
LC-002-100-D00-0
 62
     7
370
    50
100
AcDbLine
 10
-44.783175
 20
442.948353
 30
0.0
 11
-54.317953
 21
442.948353
 31
0.0
  0
ARC
  5
55A
330
1F
100
AcDbEntity
  8
LC-002-100-D00-0
 62
     7
370
    50
100
AcDbCircle
 10
-44.783175
 20
440.448353
 30
0.0
 40
2.5
100
AcDbArc
 50
0.0
 51
90.0
  0
LINE
  5
55B
330
1F
100
AcDbEntity
  8
LC-002-100-D00-0
 62
     7
370
    50
100
AcDbLine
 10
-42.283175
 20
436.448353
 30
0.0
 11
-43.783175
 21
436.448351
 31
0.0
  0
ARC
  5
55C
330
1F
100
AcDbEntity
  8
LC-002-100-D00-0
 62
     7
370
    50
100
AcDbCircle
 10
-44.783175
 20
440.448353
 30
0.0
 40
1.0
100
AcDbArc
 50
0.0
 51
90.0
  0
LINE
  5
55D
330
1F
100
AcDbEntity
  8
LC-002-100-D00-0
 62
     7
370
    50
100
AcDbLine
 10
-44.783175
 20
441.448353
 30
0.0
 11
-61.456565
 21
441.448353
 31
0.0
  0
ARC
  5
55E
330
1F
100
AcDbEntity
  8
LC-002-100-D00-0
 62
     7
370
    50
100
AcDbCircle
 10
-61.456565
 20
445.448353
 30
0.0
 40
4.000000000000341
100
AcDbArc
 50
255.0
 51
270.0
  0
LINE
  5
55F
330
1F
100
AcDbEntity
  8
LC-002-100-D00-0
 62
     7
370
    50
100
AcDbLine
 10
-62.491841
 20
441.584649
 30
0.0
 11
-80.325512
 21
446.363167
 31
0.0
  0
ARC
  5
560
330
1F
100
AcDbEntity
  8
LC-002-100-D00-0
 62
     7
370
    50
100
AcDbCircle
 10
-80.97256
 20
443.948353
 30
0.0
 40
2.50000000000053
100
AcDbArc
 50
75.0
 51
90.0
  0
LINE
  5
561
330
1F
100
AcDbEntity
  8
LC-002-100-D00-0
 62
     7
370
    50
100
AcDbLine
 10
-378.983175
 20
446.448353
 30
0.0
 11
-80.97256
 21
446.448353
 31
0.0
  0
ARC
  5
562
330
1F
100
AcDbEntity
  8
LC-002-100-D00-0
 62
     7
370
    50
100
AcDbCircle
 10
-378.983175
 20
455.948353
 30
0.0
 40
9.500000000000057
100
AcDbArc
 50
180.0
 51
270.0
  0
LINE
  5
563
330
1F
100
AcDbEntity
  8
LC-002-100-D00-0
 62
     7
370
    50
100
AcDbLine
 10
-388.483175
 20
465.448353
 30
0.0
 11
-388.483175
 21
455.948353
 31
0.0
  0
ARC
  5
564
330
1F
100
AcDbEntity
  8
LC-002-100-D00-0
 62
     7
370
    50
100
AcDbCircle
 10
-389.983175
 20
465.448353
 30
0.0
 40
1.499999999999886
100
AcDbArc
 50
0.0
 51
90.0
  0
LINE
  5
565
330
1F
100
AcDbEntity
  8
LC-002-100-D00-0
 62
     7
370
    50
100
AcDbLine
 10
-436.983175
 20
468.448353
 30
0.0
 11
-436.983163
 21
466.948353
 31
0.0
  0
ARC
  5
566
330
1F
100
AcDbEntity
  8
LC-002-100-D00-0
 62
     7
370
    50
100
AcDbCircle
 10
-389.983175
 20
465.448353
 30
0.0
 40
2.999999999999943
100
AcDbArc
 50
0.0
 51
90.0
  0
LINE
  5
567
330
1F
100
AcDbEntity
  8
LC-002-100-D00-0
 62
     7
370
    50
100
AcDbLine
 10
-386.983175
 20
465.448353
 30
0.0
 11
-386.983175
 21
455.948353
 31
0.0
  0
ARC
  5
568
330
1F
100
AcDbEntity
  8
LC-002-100-D00-0
 62
     7
370
    50
100
AcDbCircle
 10
-378.983175
 20
455.948353
 30
0.0
 40
8.0
100
AcDbArc
 50
180.0
 51
270.0
  0
LINE
  5
569
330
1F
100
AcDbEntity
  8
LC-002-100-D00-0
 62
     7
370
    50
100
AcDbLine
 10
-378.983175
 20
447.948353
 30
0.0
 11
-361.483181
 21
447.948352
 31
0.0
  0
LINE
  5
56A
330
1F
100
AcDbEntity
  8
LC-002-100-D00-0
 62
     7
370
    50
100
AcDbLine
 10
-361.483181
 20
447.948352
 30
0.0
 11
-361.483181
 21
449.348353
 31
0.0
  0
LINE
  5
56B
330
1F
100
AcDbEntity
  8
LC-002-100-D00-0
 62
     7
370
    50
100
AcDbLine
 10
-360.983175
 20
449.348353
 30
0.0
 11
-361.483181
 21
449.348353
 31
0.0
  0
ARC
  5
56C
330
1F
100
AcDbEntity
  8
LC-002-100-D00-0
 62
     7
370
    50
100
AcDbCircle
 10
-361.983175
 20
450.848353
 30
0.0
 40
1.802775637732089
100
AcDbArc
 50
303.690068
 51
56.309932
  0
LINE
  5
56D
330
1F
100
AcDbEntity
  8
LC-002-100-D00-0
 62
     7
370
    50
100
AcDbLine
 10
-360.983188
 20
466.948353
 30
0.0
 11
-360.983175
 21
452.348353
 31
0.0
  0
LINE
  5
56E
330
1F
100
AcDbEntity
  8
LC-002-100-D00-0
 62
     7
370
    50
100
AcDbLine
 10
-359.983171
 20
467.948353
 30
0.0
 11
-360.983188
 21
466.948353
 31
0.0
  0
LINE
  5
56F
330
1F
100
AcDbEntity
  8
LC-002-100-D00-0
 62
     7
370
    50
100
AcDbLine
 10
-353.983188
 20
467.948353
 30
0.0
 11
-359.983171
 21
467.948353
 31
0.0
  0
LINE
  5
570
330
1F
100
AcDbEntity
  8
LC-002-100-D00-0
 62
     7
370
    50
100
AcDbLine
 10
-352.983171
 20
466.948353
 30
0.0
 11
-353.983188
 21
467.948353
 31
0.0
  0
LINE
  5
571
330
1F
100
AcDbEntity
  8
LC-002-100-D00-0
 62
     7
370
    50
100
AcDbLine
 10
-352.983175
 20
452.348353
 30
0.0
 11
-352.983171
 21
466.948353
 31
0.0
  0
ARC
  5
572
330
1F
100
AcDbEntity
  8
LC-002-100-D00-0
 62
     7
370
    50
100
AcDbCircle
 10
-351.983175
 20
450.848353
 30
0.0
 40
1.802775637732121
100
AcDbArc
 50
123.690068
 51
236.309932
  0
LINE
  5
573
330
1F
100
AcDbEntity
  8
LC-002-100-D00-0
 62
     7
370
    50
100
AcDbLine
 10
-389.983175
 20
468.448353
 30
0.0
 11
-436.983175
 21
468.448353
 31
0.0
  0
LINE
  5
574
330
1F
100
AcDbEntity
  8
LC-002-100-D00-0
 62
     7
370
    50
100
AcDbLine
 10
-389.983175
 20
466.948353
 30
0.0
 11
-436.983163
 21
466.948353
 31
0.0
  0
LINE
  5
575
330
1F
100
AcDbEntity
  8
LC-002-100-D00-0
 62
     7
370
    50
100
AcDbLine
 10
-31.377058
 20
442.948353
 30
0.0
 11
-44.783175
 21
442.948353
 31
0.0
  0
LINE
  5
576
330
1F
100
AcDbEntity
  8
LC-002-100-D00-0
 62
     7
370
    50
100
AcDbLine
 10
-54.842303
 20
442.948353
 30
0.0
 11
-54.317953
 21
442.948353
 31
0.0
  0
LINE
  5
577
330
1F
100
AcDbEntity
  8
LC-002-100-D00-0
 62
     7
370
    50
100
AcDbLine
 10
-56.060383
 20
442.948353
 30
0.0
 11
-55.536548
 21
442.948353
 31
0.0
  0
ELLIPSE
  5
578
330
1F
100
AcDbEntity
  8
LC-002-100-D00-0
 62
     7
370
    50
100
AcDbEllipse
 10
268.038642
 20
443.948353
 30
0.0
 11
0.0
 21
-2.500000000000284
 31
0.0
210
0.0
220
0.0
230
1.0
 40
0.027578
 41
6.283185307176288
 42
6.604935861574776
  0
ELLIPSE
  5
579
330
1F
100
AcDbEntity
  8
LC-002-100-D00-0
 62
     7
370
    50
100
AcDbEllipse
 10
-242.004992
 20
443.948353
 30
0.0
 11
0.0
 21
-2.500000003814981
 31
0.0
210
0.0
220
0.0
230
1.0
 40
0.027578
 41
5.961434752782168
 42
6.283185307179174
  0
LINE
  5
57A
330
1F
100
AcDbEntity
  8
LC-002-100-D00-0
 62
     7
370
    50
100
AcDbLine
 10
268.01682
 20
446.3197
 30
0.0
 11
268.01682
 21
441.654312
 31
0.0
  0
LINE
  5
57B
330
1F
100
AcDbEntity
  8
LC-002-100-D00-0
 62
     7
370
    50
100
AcDbLine
 10
-241.98317
 20
446.3197
 30
0.0
 11
-241.98317
 21
441.654312
 31
0.0
  0
INSERT
  5
585
330
1F
100
AcDbEntity
  8
LC-002-100-D00-0
 62
     7
370
    50
100
AcDbBlockReference
  2
KLON20
 10
0.0
 20
0.0
 30
0.0
  0
INSERT
  5
58F
330
1F
100
AcDbEntity
  8
LC-002-100-D00-0
 62
     7
370
    50
100
AcDbBlockReference
  2
KLON21
 10
0.0
 20
0.0
 30
0.0
  0
LINE
  5
590
330
1F
100
AcDbEntity
  8
LC-002-100-D00-0
 62
     7
370
    50
100
AcDbLine
 10
268.01682
 20
441.448352
 30
0.0
 11
268.016791
 21
441.653619
 31
0.0
  0
LINE
  5
591
330
1F
100
AcDbEntity
  8
LC-002-100-D00-0
 62
     7
370
    50
100
AcDbLine
 10
268.01682
 20
441.448352
 30
0.0
 11
395.924514
 21
446.116517
 31
0.0
  0
LINE
  5
592
330
1F
100
AcDbEntity
  8
LC-002-100-D00-0
 62
     7
370
    50
100
AcDbLine
 10
-241.98317
 20
441.448352
 30
0.0
 11
-241.98314
 21
441.653619
 31
0.0
  0
LINE
  5
593
330
1F
100
AcDbEntity
  8
LC-002-100-D00-0
 62
     7
370
    50
100
AcDbLine
 10
-241.98317
 20
441.448352
 30
0.0
 11
-369.890863
 21
446.116517
 31
0.0
  0
LINE
  5
594
330
1F
100
AcDbEntity
  8
LC-002-100-D00-0
 62
     7
370
    50
100
AcDbLine
 10
54.802982
 20
434.448353
 30
0.0
 11
57.195528
 21
434.448353
 31
0.0
  0
LINE
  5
595
330
1F
100
AcDbEntity
  8
LC-002-100-D00-0
 62
     7
370
    50
100
AcDbLine
 10
58.166741
 20
432.948353
 30
0.0
 11
58.262327
 21
432.956413
 31
0.0
  0
LINE
  5
596
330
1F
100
AcDbEntity
  8
LC-002-100-D00-0
 62
     7
370
    50
100
AcDbLine
 10
58.166741
 20
432.948353
 30
0.0
 11
54.802982
 21
432.948353
 31
0.0
  0
LINE
  5
597
330
1F
100
AcDbEntity
  8
LC-002-100-D00-0
 62
     7
370
    50
100
AcDbLine
 10
-32.228677
 20
432.956413
 30
0.0
 11
-32.13309
 21
432.948353
 31
0.0
  0
LINE
  5
598
330
1F
100
AcDbEntity
  8
LC-002-100-D00-0
 62
     7
370
    50
100
AcDbLine
 10
-28.769331
 20
432.948353
 30
0.0
 11
-32.13309
 21
432.948353
 31
0.0
  0
LINE
  5
599
330
1F
100
AcDbEntity
  8
LC-002-100-D00-0
 62
     7
370
    50
100
AcDbLine
 10
-31.161878
 20
434.448353
 30
0.0
 11
-28.769331
 21
434.448353
 31
0.0
  0
LINE
  5
59A
330
1F
100
AcDbEntity
  8
LC-002-100-D00-0
 62
     7
370
    50
100
AcDbLine
 10
54.802982
 20
432.948353
 30
0.0
 11
54.026054
 21
432.948353
 31
0.0
  0
LINE
  5
59B
330
1F
100
AcDbEntity
  8
LC-002-100-D00-0
 62
     7
370
    50
100
AcDbLine
 10
54.802982
 20
434.448353
 30
0.0
 11
54.026054
 21
434.448353
 31
0.0
  0
LINE
  5
59C
330
1F
100
AcDbEntity
  8
LC-002-100-D00-0
 62
     7
370
    50
100
AcDbLine
 10
-28.769331
 20
432.948353
 30
0.0
 11
-27.992403
 21
432.948353
 31
0.0
  0
LINE
  5
59D
330
1F
100
AcDbEntity
  8
LC-002-100-D00-0
 62
     7
370
    50
100
AcDbLine
 10
-28.769331
 20
434.448353
 30
0.0
 11
-27.992403
 21
434.448353
 31
0.0
  0
LINE
  5
59E
330
1F
100
AcDbEntity
  8
LC-002-100-D00-0
 62
     7
370
    50
100
AcDbLine
 10
87.490215
 20
441.448353
 30
0.0
 11
89.590816
 21
441.448352
 31
0.0
  0
LINE
  5
59F
330
1F
100
AcDbEntity
  8
LC-002-100-D00-0
 62
     7
370
    50
100
AcDbLine
 10
-61.456565
 20
441.448353
 30
0.0
 11
-63.557165
 21
441.448352
 31
0.0
  0
LINE
  5
5A0
330
1F
100
AcDbEntity
  8
LC-002-100-D00-0
 62
     7
370
    50
100
AcDbLine
 10
54.026054
 20
432.948353
 30
0.0
 11
52.73124
 21
432.948353
 31
0.0
  0
LINE
  5
5A1
330
1F
100
AcDbEntity
  8
LC-002-100-D00-0
 62
     7
370
    50
100
AcDbLine
 10
52.747171
 20
434.448353
 30
0.0
 11
54.026054
 21
434.448353
 31
0.0
  0
LINE
  5
5A2
330
1F
100
AcDbEntity
  8
LC-002-100-D00-0
 62
     7
370
    50
100
AcDbLine
 10
-26.69759
 20
432.948353
 30
0.0
 11
-27.992403
 21
432.948353
 31
0.0
  0
LINE
  5
5A3
330
1F
100
AcDbEntity
  8
LC-002-100-D00-0
 62
     7
370
    50
100
AcDbLine
 10
-27.992403
 20
434.448353
 30
0.0
 11
-26.713521
 21
434.448353
 31
0.0
  0
LINE
  5
5A4
330
1F
100
AcDbEntity
  8
LC-002-100-D00-0
 62
     7
370
    50
100
AcDbLine
 10
89.590816
 20
441.448352
 30
0.0
 11
268.01682
 21
441.448352
 31
0.0
  0
LINE
  5
5A5
330
1F
100
AcDbEntity
  8
LC-002-100-D00-0
 62
     7
370
    50
100
AcDbLine
 10
-63.557165
 20
441.448352
 30
0.0
 11
-241.98317
 21
441.448352
 31
0.0
  0
ARC
  5
5A6
330
1F
100
AcDbEntity
  8
LC-002-100-D00-0
 62
     7
370
    50
100
AcDbCircle
 10
57.532453
 20
434.382504
 30
0.0
 40
1.602014939989126
100
AcDbArc
 50
297.103406
 51
2.355668
  0
INSERT
  5
5AF
330
1F
100
AcDbEntity
  8
LC-002-100-D00-0
 62
     7
370
    50
100
AcDbBlockReference
  2
KLON22
 10
0.0
 20
0.0
 30
0.0
  0
INSERT
  5
5BC
330
1F
100
AcDbEntity
  8
LC-002-100-D00-0
 62
     7
370
    50
100
AcDbBlockReference
  2
KLON23
 10
0.0
 20
0.0
 30
0.0
  0
INSERT
  5
5C9
330
1F
100
AcDbEntity
  8
LC-002-100-D00-0
 62
     7
370
    50
100
AcDbBlockReference
  2
KLON24
 10
0.0
 20
0.0
 30
0.0
  0
LINE
  5
5CA
330
1F
100
AcDbEntity
  8
LC-002-100-D00-0
 62
     7
370
    50
100
AcDbLine
 10
410.516825
 20
468.448353
 30
0.0
 11
416.016825
 21
468.448353
 31
0.0
  0
LINE
  5
5CB
330
1F
100
AcDbEntity
  8
LC-002-100-D00-0
 62
     7
370
    50
100
AcDbLine
 10
-384.483175
 20
468.448353
 30
0.0
 11
-389.983175
 21
468.448353
 31
0.0
  0
LINE
  5
5CC
330
1F
100
AcDbEntity
  8
LC-002-100-D00-0
 62
     7
370
    50
100
AcDbLine
 10
410.516825
 20
468.448353
 30
0.0
 11
400.266825
 21
468.448353
 31
0.0
  0
LINE
  5
5CD
330
1F
100
AcDbEntity
  8
LC-002-100-D00-0
 62
     7
370
    50
100
AcDbLine
 10
365.766825
 20
468.448353
 30
0.0
 11
265.266825
 21
468.448353
 31
0.0
  0
LINE
  5
5CE
330
1F
100
AcDbEntity
  8
LC-002-100-D00-0
 62
     7
370
    50
100
AcDbLine
 10
230.766825
 20
468.448353
 30
0.0
 11
130.266825
 21
468.448353
 31
0.0
  0
LINE
  5
5CF
330
1F
100
AcDbEntity
  8
LC-002-100-D00-0
 62
     7
370
    50
100
AcDbLine
 10
95.766825
 20
468.448353
 30
0.0
 11
-69.733175
 21
468.448353
 31
0.0
  0
LINE
  5
5D0
330
1F
100
AcDbEntity
  8
LC-002-100-D00-0
 62
     7
370
    50
100
AcDbLine
 10
-104.233175
 20
468.448353
 30
0.0
 11
-204.733175
 21
468.448353
 31
0.0
  0
LINE
  5
5D1
330
1F
100
AcDbEntity
  8
LC-002-100-D00-0
 62
     7
370
    50
100
AcDbLine
 10
-239.233175
 20
468.448353
 30
0.0
 11
-339.733175
 21
468.448353
 31
0.0
  0
LINE
  5
5D2
330
1F
100
AcDbEntity
  8
LC-002-100-D00-0
 62
     7
370
    50
100
AcDbLine
 10
-374.233175
 20
468.448353
 30
0.0
 11
-384.483175
 21
468.448353
 31
0.0
  0
LINE
  5
5D3
330
1F
100
AcDbEntity
  8
LC-002-100-D00-0
 62
     7
370
    50
100
AcDbLine
 10
-436.983175
 20
468.448353
 30
0.0
 11
-436.983175
 21
469.948353
 31
0.0
  0
LINE
  5
5D4
330
1F
100
AcDbEntity
  8
LC-002-100-D00-0
 62
     7
370
    50
100
AcDbLine
 10
463.016825
 20
469.948353
 30
0.0
 11
463.016825
 21
468.448353
 31
0.0
  0
ARC
  5
5D5
330
1F
100
AcDbEntity
  8
LC-002-100-D00-0
 62
     7
370
    50
100
AcDbCircle
 10
-431.983175
 20
509.448353
 30
0.0
 40
5.0
100
AcDbArc
 50
90.0
 51
180.0
  0
LINE
  5
5D6
330
1F
100
AcDbEntity
  8
LC-002-100-D00-0
 62
     7
370
    50
100
AcDbLine
 10
-431.983175
 20
514.448353
 30
0.0
 11
458.016825
 21
514.448353
 31
0.0
  0
ARC
  5
5D7
330
1F
100
AcDbEntity
  8
LC-002-100-D00-0
 62
     7
370
    50
100
AcDbCircle
 10
458.016825
 20
509.448353
 30
0.0
 40
5.0
100
AcDbArc
 50
0.0
 51
90.0
  0
LINE
  5
5D8
330
1F
100
AcDbEntity
  8
LC-002-100-D00-0
 62
     7
370
    50
100
AcDbLine
 10
-436.983175
 20
509.448353
 30
0.0
 11
-436.983175
 21
469.948353
 31
0.0
  0
LINE
  5
5D9
330
1F
100
AcDbEntity
  8
LC-002-100-D00-0
 62
     7
370
    50
100
AcDbLine
 10
463.016825
 20
509.448353
 30
0.0
 11
463.016825
 21
469.948353
 31
0.0
  0
DIMENSION
  5
5DA
330
1F
100
AcDbEntity
  8
LC-002-100-D00-0
 62
     7
370
    25
100
AcDbDimension
  2
*D29
 10
-489.187781
 20
514.448353
 30
0.0
 11
-544.187781
 21
496.001113
 31
0.0
 70
   160
  1
46
 71
     5
 42
46.0
 53
90.0
  3
LC-DIM-L-0100-02-02
100
AcDbAlignedDimension
 13
-436.983175
 23
468.448353
 33
0.0
 14
-431.983175
 24
514.448353
 34
0.0
 50
90.0
100
AcDbRotatedDimension
  0
DIMENSION
  5
5E9
330
1F
100
AcDbEntity
  8
LC-002-100-D00-0
 62
     7
370
    25
100
AcDbDimension
  2
*D30
 10
463.016825
 20
613.197005
 30
0.0
 11
0.920768
 21
668.197005
 31
0.0
 70
   160
  1
900
 71
     5
 42
900.0
  3
LC-DIM-L-0100-02-02
100
AcDbAlignedDimension
 13
-436.983175
 23
509.448353
 33
0.0
 14
463.016825
 24
509.448353
 34
0.0
100
AcDbRotatedDimension
  0
DIMENSION
  5
5F6
330
1F
100
AcDbEntity
  8
LC-002-100-D00-0
 62
     7
370
    25
100
AcDbDimension
  2
*D31
 10
413.016825
 20
540.34972
 30
0.0
 11
3.384022
 21
595.34972
 31
0.0
 70
   160
  1
800
 71
     5
 42
800.0
  3
LC-DIM-L-0100-02-02
100
AcDbAlignedDimension
 13
-386.983175
 23
465.448353
 33
0.0
 14
413.016825
 24
465.448353
 34
0.0
100
AcDbRotatedDimension
  0
DIMENSION
  5
603
330
1F
100
AcDbEntity
  8
LC-002-100-D00-0
 62
     7
370
    25
100
AcDbDimension
  2
*D32
 10
-153.850353
 20
426.948353
 30
0.0
 11
-208.850353
 21
321.682005
 31
0.0
 70
   160
  1
50
 71
     5
 42
50.4
 53
90.0
  3
LC-DIM-L-0100-02-02
100
AcDbAlignedDimension
 13
-15.983175
 23
376.548353
 33
0.0
 14
-22.06257
 24
426.948353
 34
0.0
 50
90.0
100
AcDbRotatedDimension
  0
DIMENSION
  5
611
330
1F
100
AcDbEntity
  8
LC-002-100-D00-0
 62
     7
370
    25
100
AcDbDimension
  2
*D33
 10
87.016825
 20
271.192005
 30
0.0
 11
6.079806
 21
326.192005
 31
0.0
 70
   160
  1
148
 71
     5
 42
148.0
  3
LC-DIM-L-0100-02-02
100
AcDbAlignedDimension
 13
-60.983175
 23
377.448353
 33
0.0
 14
87.016825
 24
417.698353
 34
0.0
100
AcDbRotatedDimension
  0
DIMENSION
  5
61E
330
1F
100
AcDbEntity
  8
LC-002-100-D00-0
 62
     7
370
    25
100
AcDbDimension
  2
*D34
 10
565.83536
 20
390.948353
 30
0.0
 11
510.83536
 21
388.507005
 31
0.0
 70
   160
  1
77.5
 71
     5
 42
77.5
 53
90.0
  3
LC-DIM-L-0100-02-02
100
AcDbAlignedDimension
 13
463.016825
 23
468.448353
 33
0.0
 14
229.016622
 24
390.948353
 34
0.0
 50
90.0
100
AcDbRotatedDimension
  0
DIMENSION
  5
62C
330
1F
100
AcDbEntity
  8
LC-002-100-D00-0
 62
     7
370
    25
100
AcDbDimension
  2
*D35
 10
661.277551
 20
358.448353
 30
0.0
 11
606.277551
 21
379.597005
 31
0.0
 70
   160
  1
110
 71
     5
 42
110.0
 53
90.0
  3
LC-DIM-L-0100-02-02
100
AcDbAlignedDimension
 13
463.016825
 23
468.448353
 33
0.0
 14
67.034705
 24
358.448353
 34
0.0
 50
90.0
100
AcDbRotatedDimension
  0
INSERT
  5
642
330
1F
100
AcDbEntity
  8
LC-002-100-D00-0
 62
     7
370
    25
100
AcDbBlockReference
  2
KLON25
 10
0.0
 20
0.0
 30
0.0
  0
INSERT
  5
64B
330
1F
100
AcDbEntity
  8
LC-002-100-D00-0
 62
     7
370
    25
100
AcDbBlockReference
  2
KLON26
 10
0.0
 20
0.0
 30
0.0
  0
INSERT
  5
65A
330
1F
100
AcDbEntity
  8
LC-002-100-D00-0
 62
     7
370
    25
100
AcDbBlockReference
  2
KLON27
 10
0.0
 20
0.0
 30
0.0
  0
LINE
  5
65B
330
1F
100
AcDbEntity
  8
LC-002-100-D00-0
 62
     7
370
    50
100
AcDbLine
 10
-44.921898
 20
437.592867
 30
0.0
 11
-43.733175
 21
438.78159
 31
0.0
  0
LINE
  5
65C
330
1F
100
AcDbEntity
  8
LC-002-100-D00-0
 62
     7
370
    25
100
AcDbLine
 10
84.016825
 20
431.827753
 30
0.0
 11
87.016825
 21
434.827753
 31
0.0
  0
LINE
  5
65D
330
1F
100
AcDbEntity
  8
LC-002-100-D00-0
 62
     7
370
    25
100
AcDbLine
 10
-60.983175
 20
421.531589
 30
0.0
 11
-57.983175
 21
424.531589
 31
0.0
  0
INSERT
  5
66C
330
1F
100
AcDbEntity
  8
LC-002-100-D00-0
 62
     7
370
    25
100
AcDbBlockReference
  2
KLON28
 10
0.0
 20
0.0
 30
0.0
  0
INSERT
  5
672
330
1F
100
AcDbEntity
  8
LC-002-100-D00-0
 62
     7
370
    25
100
AcDbBlockReference
  2
KLON29
 10
0.0
 20
0.0
 30
0.0
  0
INSERT
  5
68B
330
1F
100
AcDbEntity
  8
LC-002-100-D00-0
 62
     7
370
    25
100
AcDbBlockReference
  2
KLON30
 10
0.0
 20
0.0
 30
0.0
  0
INSERT
  5
6A5
330
1F
100
AcDbEntity
  8
LC-002-100-D00-0
 62
     7
370
    25
100
AcDbBlockReference
  2
KLON31
 10
0.0
 20
0.0
 30
0.0
  0
LINE
  5
6A6
330
1F
100
AcDbEntity
  8
LC-002-100-D00-0
 62
     7
370
    50
100
AcDbLine
 10
242.198555
 20
455.305647
 30
0.0
 11
243.979043
 21
457.086135
 31
0.0
  0
INSERT
  5
6AC
330
1F
100
AcDbEntity
  8
LC-002-100-D00-0
 62
     7
370
    25
100
AcDbBlockReference
  2
KLON32
 10
0.0
 20
0.0
 30
0.0
  0
LINE
  5
6AD
330
1F
100
AcDbEntity
  8
LC-002-100-D00-0
 62
     7
370
    25
100
AcDbLine
 10
251.916825
 20
465.023918
 30
0.0
 11
255.341259
 21
468.448353
 31
0.0
  0
LINE
  5
6AE
330
1F
100
AcDbEntity
  8
LC-002-100-D00-0
 62
     7
370
    50
100
AcDbLine
 10
-93.334028
 20
456.532657
 30
0.0
 11
-92.418332
 21
457.448353
 31
0.0
  0
INSERT
  5
6B5
330
1F
100
AcDbEntity
  8
LC-002-100-D00-0
 62
     7
370
    25
100
AcDbBlockReference
  2
KLON33
 10
0.0
 20
0.0
 30
0.0
  0
INSERT
  5
6BB
330
1F
100
AcDbEntity
  8
LC-002-100-D00-0
 62
     7
370
    25
100
AcDbBlockReference
  2
KLON34
 10
0.0
 20
0.0
 30
0.0
  0
LINE
  5
6BC
330
1F
100
AcDbEntity
  8
LC-002-100-D00-0
 62
     7
370
    50
100
AcDbLine
 10
-363.334028
 20
455.940331
 30
0.0
 11
-361.826006
 21
457.448353
 31
0.0
  0
INSERT
  5
6C3
330
1F
100
AcDbEntity
  8
LC-002-100-D00-0
 62
     7
370
    25
100
AcDbBlockReference
  2
KLON35
 10
0.0
 20
0.0
 30
0.0
  0
LINE
  5
6C4
330
1F
100
AcDbEntity
  8
LC-002-100-D00-0
 62
     7
370
    25
100
AcDbLine
 10
-353.083175
 20
466.191184
 30
0.0
 11
-350.826007
 21
468.448353
 31
0.0
  0
LINE
  5
6C5
330
1F
100
AcDbEntity
  8
LC-002-100-D00-0
 62
     7
370
    50
100
AcDbLine
 10
107.429645
 20
455.240574
 30
0.0
 11
109.127124
 21
456.938054
 31
0.0
  0
INSERT
  5
6CB
330
1F
100
AcDbEntity
  8
LC-002-100-D00-0
 62
     7
370
    25
100
AcDbBlockReference
  2
KLON36
 10
0.0
 20
0.0
 30
0.0
  0
LINE
  5
6CC
330
1F
100
AcDbEntity
  8
LC-002-100-D00-0
 62
     7
370
    25
100
AcDbLine
 10
116.916825
 20
464.727755
 30
0.0
 11
120.637422
 21
468.448353
 31
0.0
  0
LINE
  5
6CD
330
1F
100
AcDbEntity
  8
LC-002-100-D00-0
 62
     7
370
    50
100
AcDbLine
 10
-228.334028
 20
456.236494
 30
0.0
 11
-227.122169
 21
457.448353
 31
0.0
  0
INSERT
  5
6D4
330
1F
100
AcDbEntity
  8
LC-002-100-D00-0
 62
     7
370
    25
100
AcDbBlockReference
  2
KLON37
 10
0.0
 20
0.0
 30
0.0
  0
LINE
  5
6D5
330
1F
100
AcDbEntity
  8
LC-002-100-D00-0
 62
     7
370
    25
100
AcDbLine
 10
-218.083175
 20
466.487348
 30
0.0
 11
-216.12217
 21
468.448353
 31
0.0
  0
LINE
  5
6D6
330
1F
100
AcDbEntity
  8
LC-002-100-D00-0
 62
     7
370
    50
100
AcDbLine
 10
376.964979
 20
455.368234
 30
0.0
 11
378.830961
 21
457.234217
 31
0.0
  0
INSERT
  5
6DD
330
1F
100
AcDbEntity
  8
LC-002-100-D00-0
 62
     7
370
    25
100
AcDbBlockReference
  2
KLON38
 10
0.0
 20
0.0
 30
0.0
  0
LINE
  5
6DE
330
1F
100
AcDbEntity
  8
LC-002-100-D00-0
 62
     7
370
    25
100
AcDbLine
 10
386.916825
 20
465.320081
 30
0.0
 11
390.045096
 21
468.448353
 31
0.0
  0
LINE
  5
6DF
330
1F
100
AcDbEntity
  8
LC-002-100-D00-0
  6
DASHDOT
 62
     7
370
    25
100
AcDbLine
 10
383.016825
 20
440.448353
 30
0.0
 11
383.016825
 21
474.448353
 31
0.0
  0
LINE
  5
6E0
330
1F
100
AcDbEntity
  8
LC-002-100-D00-0
  6
DASHDOT
 62
     7
370
    25
100
AcDbLine
 10
248.016825
 20
440.448353
 30
0.0
 11
248.016825
 21
474.448353
 31
0.0
  0
LINE
  5
6E1
330
1F
100
AcDbEntity
  8
LC-002-100-D00-0
  6
DASHDOT
 62
     7
370
    25
100
AcDbLine
 10
113.016825
 20
440.448353
 30
0.0
 11
113.016825
 21
474.448353
 31
0.0
  0
LINE
  5
6E2
330
1F
100
AcDbEntity
  8
LC-002-100-D00-0
  6
DASHDOT
 62
     7
370
    25
100
AcDbLine
 10
167.131311
 20
390.948353
 30
0.0
 11
107.516622
 21
390.948353
 31
0.0
  0
LINE
  5
6E3
330
1F
100
AcDbEntity
  8
LC-002-100-D00-0
  6
DASHDOT
 62
     7
370
    25
100
AcDbLine
 10
13.016825
 20
468.448353
 30
0.0
 11
13.016825
 21
355.948353
 31
0.0
  0
LINE
  5
6E4
330
1F
100
AcDbEntity
  8
LC-002-100-D00-0
  6
DASHDOT
 62
     7
370
    25
100
AcDbLine
 10
-86.983175
 20
440.448353
 30
0.0
 11
-86.983175
 21
474.448353
 31
0.0
  0
LINE
  5
6E5
330
1F
100
AcDbEntity
  8
LC-002-100-D00-0
  6
DASHDOT
 62
     7
370
    25
100
AcDbLine
 10
-221.983175
 20
440.448353
 30
0.0
 11
-221.983175
 21
474.448353
 31
0.0
  0
LINE
  5
6E6
330
1F
100
AcDbEntity
  8
LC-002-100-D00-0
  6
DASHDOT
 62
     7
370
    25
100
AcDbLine
 10
-356.983175
 20
440.448353
 30
0.0
 11
-356.983175
 21
474.448353
 31
0.0
  0
LINE
  5
6E7
102
{ACAD_REACTORS
330
73D
102
}
330
1F
100
AcDbEntity
  8
LC-001-002-----0
 62
     7
370
    50
100
AcDbLine
 10
118.862859
 20
359.101949
 30
0.0
 11
107.131311
 21
357.948353
 31
0.0
  0
LINE
  5
6E8
102
{ACAD_REACTORS
330
73D
102
}
330
1F
100
AcDbEntity
  8
LC-001-002-----0
 62
     7
370
    50
100
AcDbLine
 10
126.86684
 20
360.948353
 30
0.0
 11
166.631311
 21
360.948353
 31
0.0
  0
LINE
  5
6E9
102
{ACAD_REACTORS
330
73D
102
}
330
1F
100
AcDbEntity
  8
LC-001-002-----0
 62
     7
370
    50
100
AcDbLine
 10
107.131311
 20
423.948353
 30
0.0
 11
107.131311
 21
420.718024
 31
0.0
  0
ARC
  5
6EB
102
{ACAD_REACTORS
330
73D
102
}
330
1F
100
AcDbEntity
  8
LC-003-207-RND-0
 62
     7
370
    50
100
AcDbCircle
 10
108.131311
 20
361.178681
 30
0.0
 40
0.9999999999999977
100
AcDbArc
 50
75.858695
 51
180.0
  0
LINE
  5
6EC
102
{ACAD_REACTORS
330
73D
102
}
330
1F
100
AcDbEntity
  8
LC-001-002-----0
 62
     7
370
    50
100
AcDbLine
 10
167.131311
 20
361.448353
 30
0.0
 11
167.131311
 21
362.448353
 31
0.0
  0
LINE
  5
6ED
102
{ACAD_REACTORS
330
73D
102
}
330
1F
100
AcDbEntity
  8
LC-001-002-----0
 62
     7
370
    50
100
AcDbLine
 10
167.131311
 20
362.448353
 30
0.0
 11
167.131311
 21
419.448353
 31
0.0
  0
LINE
  5
6EE
102
{ACAD_REACTORS
330
73D
102
}
330
1F
100
AcDbEntity
  8
LC-001-002-----0
 62
     7
370
    50
100
AcDbLine
 10
132.131311
 20
418.948353
 30
0.0
 11
132.131311
 21
418.448353
 31
0.0
  0
LINE
  5
6EF
102
{ACAD_REACTORS
330
73D
102
}
330
1F
100
AcDbEntity
  8
LC-001-002-----0
 62
     7
370
    50
100
AcDbLine
 10
118.862859
 20
422.794756
 30
0.0
 11
107.131311
 21
423.948353
 31
0.0
  0
LINE
  5
6F0
102
{ACAD_REACTORS
330
73D
102
}
330
1F
100
AcDbEntity
  8
LC-001-002-----0
 62
     7
370
    50
100
AcDbLine
 10
135.131311
 20
390.948353
 30
0.0
 11
135.131311
 21
416.716302
 31
0.0
  0
ARC
  5
6F1
102
{ACAD_REACTORS
330
73D
102
}
330
1F
100
AcDbEntity
  8
LC-001-002-----0
 62
     7
370
    50
100
AcDbCircle
 10
115.731311
 20
390.948353
 30
0.0
 40
32.00000000000082
100
AcDbArc
 50
275.616003
 51
290.364135
  0
LINE
  5
6F2
102
{ACAD_REACTORS
330
73D
102
}
330
1F
100
AcDbEntity
  8
LC-001-002-----0
 62
     7
370
    50
100
AcDbLine
 10
167.131311
 20
420.448353
 30
0.0
 11
167.131311
 21
419.448353
 31
0.0
  0
INSERT
  5
6FF
102
{ACAD_REACTORS
330
73D
102
}
330
1F
100
AcDbEntity
  8
LC-004-005-----0
 62
     7
370
    25
100
AcDbBlockReference
  2
*X150
 10
0.0
 20
0.0
 30
0.0
  0
ARC
  5
700
102
{ACAD_REACTORS
330
73D
102
}
330
1F
100
AcDbEntity
  8
LC-003-207-RND-0
 62
     7
370
    50
100
AcDbCircle
 10
108.131311
 20
420.718024
 30
0.0
 40
1.0
100
AcDbArc
 50
180.0
 51
284.141305
  0
LINE
  5
701
102
{ACAD_REACTORS
330
73D
102
}
330
1F
100
AcDbEntity
  8
LC-001-002-----0
 62
     7
370
    50
100
AcDbLine
 10
166.631311
 20
418.948353
 30
0.0
 11
132.131311
 21
418.948353
 31
0.0
  0
LINE
  5
702
102
{ACAD_REACTORS
330
73D
102
}
330
1F
100
AcDbEntity
  8
LC-001-002-----0
 62
     7
370
    50
100
AcDbLine
 10
126.86684
 20
420.948353
 30
0.0
 11
166.631311
 21
420.948353
 31
0.0
  0
LINE
  5
703
102
{ACAD_REACTORS
330
73D
102
}
330
1F
100
AcDbEntity
  8
LC-001-002-----0
 62
     7
370
    50
100
AcDbLine
 10
167.131311
 20
362.448353
 30
0.0
 11
166.631311
 21
362.948353
 31
0.0
  0
LINE
  5
704
102
{ACAD_REACTORS
330
73D
102
}
330
1F
100
AcDbEntity
  8
LC-001-002-----0
 62
     7
370
    50
100
AcDbLine
 10
166.631311
 20
360.948353
 30
0.0
 11
167.131311
 21
361.448353
 31
0.0
  0
LINE
  5
705
102
{ACAD_REACTORS
330
73D
102
}
330
1F
100
AcDbEntity
  8
LC-001-002-----0
 62
     7
370
    50
100
AcDbLine
 10
135.131311
 20
365.180403
 30
0.0
 11
135.131311
 21
390.948353
 31
0.0
  0
INSERT
  5
713
102
{ACAD_REACTORS
330
73D
102
}
330
1F
100
AcDbEntity
  8
LC-004-005-----0
 62
     7
370
    25
100
AcDbBlockReference
  2
*X251
 10
0.0
 20
0.0
 30
0.0
  0
LINE
  5
714
102
{ACAD_REACTORS
330
73D
102
}
330
1F
100
AcDbEntity
  8
LC-001-002-----0
 62
     7
370
    50
100
AcDbLine
 10
166.631311
 20
362.948353
 30
0.0
 11
166.631311
 21
418.948353
 31
0.0
  0
ARC
  5
715
102
{ACAD_REACTORS
330
73D
102
}
330
1F
100
AcDbEntity
  8
LC-001-002-----0
 62
     7
370
    50
100
AcDbCircle
 10
115.731311
 20
390.948353
 30
0.0
 40
32.00000000000075
100
AcDbArc
 50
69.635865
 51
84.383997
  0
LINE
  5
716
102
{ACAD_REACTORS
330
73D
102
}
330
1F
100
AcDbEntity
  8
LC-001-002-----0
 62
     7
370
    50
100
AcDbLine
 10
167.131311
 20
419.448353
 30
0.0
 11
166.631311
 21
418.948353
 31
0.0
  0
LINE
  5
717
102
{ACAD_REACTORS
330
73D
102
}
330
1F
100
AcDbEntity
  8
LC-001-002-----0
 62
     7
370
    50
100
AcDbLine
 10
166.631311
 20
362.948353
 30
0.0
 11
135.131311
 21
362.948353
 31
0.0
  0
LINE
  5
718
102
{ACAD_REACTORS
330
73D
102
}
330
1F
100
AcDbEntity
  8
LC-001-002-----0
 62
     7
370
    50
100
AcDbLine
 10
166.631311
 20
420.948353
 30
0.0
 11
167.131311
 21
420.448353
 31
0.0
  0
LINE
  5
719
102
{ACAD_REACTORS
330
73D
102
}
330
1F
100
AcDbEntity
  8
LC-001-002-----0
 62
     7
370
    50
100
AcDbLine
 10
132.131311
 20
418.448353
 30
0.0
 11
135.131311
 21
416.716302
 31
0.0
  0
LINE
  5
71A
102
{ACAD_REACTORS
330
73D
102
}
330
1F
100
AcDbEntity
  8
LC-001-002-----0
 62
     7
370
    50
100
AcDbLine
 10
135.131311
 20
362.948353
 30
0.0
 11
132.131311
 21
362.948353
 31
0.0
  0
LINE
  5
71B
102
{ACAD_REACTORS
330
73D
102
}
330
1F
100
AcDbEntity
  8
LC-001-002-----0
 62
     7
370
    50
100
AcDbLine
 10
132.131311
 20
363.448353
 30
0.0
 11
135.131311
 21
365.180403
 31
0.0
  0
LINE
  5
71C
102
{ACAD_REACTORS
330
73D
102
}
330
1F
100
AcDbEntity
  8
LC-001-002-----0
 62
     7
370
    50
100
AcDbLine
 10
132.131311
 20
362.948353
 30
0.0
 11
132.131311
 21
363.448353
 31
0.0
  0
ARC
  5
71E
102
{ACAD_REACTORS
330
73D
102
}
330
1F
100
AcDbEntity
  8
LC-005-207-----0
 62
     7
370
    50
100
AcDbCircle
 10
115.631755
 20
390.948353
 30
0.0
 40
29.70000000000019
100
AcDbArc
 50
48.962662
 51
104.141305
  0
ARC
  5
71F
102
{ACAD_REACTORS
330
73D
102
}
330
1F
100
AcDbEntity
  8
LC-005-207-----0
 62
     7
370
    50
100
AcDbCircle
 10
115.631755
 20
390.948353
 30
0.0
 40
29.70000000000007
100
AcDbArc
 50
255.858695
 51
311.037338
  0
LINE
  5
720
102
{ACAD_REACTORS
330
73D
102
}
330
1F
100
AcDbEntity
  8
LC-001-002-----0
 62
     7
370
    50
100
AcDbLine
 10
107.131311
 20
361.178681
 30
0.0
 11
107.131311
 21
357.948353
 31
0.0
  0
DIMENSION
  5
722
330
1F
100
AcDbEntity
  8
LC-006-003-----0
 62
     7
370
    25
100
AcDbDimension
  2
*D52
 10
167.131311
 20
146.452005
 30
0.0
 11
44.772586
 21
201.452005
 31
0.0
 70
   160
  1
228
 71
     5
 42
228.114486
  3
LC-DIM-L-0100-02-02
100
AcDbAlignedDimension
 13
-60.983175
 23
377.448353
 33
0.0
 14
167.131311
 24
390.948353
 34
0.0
100
AcDbRotatedDimension
  0
DIMENSION
  5
72F
330
1F
100
AcDbEntity
  8
LC-006-003-----0
 62
     7
370
    25
100
AcDbDimension
  2
*D53
 10
256.401683
 20
362.948353
 30
0.0
 11
201.401683
 21
257.827005
 31
0.0
 70
   160
  1
%%c<>
 71
     5
 42
56.0
 53
90.0
  3
LC-DIM-L-0100-02-02
100
AcDbAlignedDimension
 13
166.631311
 23
418.948353
 33
0.0
 14
166.631311
 24
362.948353
 34
0.0
 50
90.0
100
AcDbRotatedDimension
  0
ENDSEC
  0
SECTION
  2
OBJECTS
  0
DICTIONARY
  5
C
330
0
100
AcDbDictionary
281
     1
  3
ACAD_GROUP
350
D
  3
ACAD_LAYOUT
350
1A
  3
ACAD_MLINESTYLE
350
17
  3
ACAD_PLOTSETTINGS
350
19
  3
ACAD_PLOTSTYLENAME
350
E
  0
DICTIONARY
  5
D
102
{ACAD_REACTORS
330
C
102
}
330
C
100
AcDbDictionary
281
     1
  3
LCGROUP1365
350
73D
  0
DICTIONARY
  5
1A
102
{ACAD_REACTORS
330
C
102
}
330
C
100
AcDbDictionary
281
     1
  3
Layout1
350
1E
  3
Layout2
350
26
  3
Model
350
22
  0
DICTIONARY
  5
17
102
{ACAD_REACTORS
330
C
102
}
330
C
100
AcDbDictionary
281
     1
  3
Standard
350
18
  0
DICTIONARY
  5
19
102
{ACAD_REACTORS
330
C
102
}
330
C
100
AcDbDictionary
281
     1
  0
ACDBDICTIONARYWDFLT
  5
E
102
{ACAD_REACTORS
330
C
102
}
330
C
100
AcDbDictionary
281
     1
  3
Normal
350
F
100
AcDbDictionaryWithDefault
340
F
  0
GROUP
  5
73D
102
{ACAD_REACTORS
330
D
102
}
330
D
100
AcDbGroup
300
Spitzende bs
 70
     1
 71
     1
340
6E7
340
6E8
340
6E9
340
6EB
340
6EC
340
6ED
340
6EE
340
6EF
340
6F0
340
6F1
340
6F2
340
6FF
340
700
340
701
340
702
340
703
340
704
340
705
340
713
340
714
340
715
340
716
340
717
340
718
340
719
340
71A
340
71B
340
71C
340
71E
340
71F
340
720
  0
LAYOUT
  5
1E
102
{ACAD_REACTORS
330
1A
102
}
330
1A
100
AcDbPlotSettings
  1

  2

  4

  6

 40
0.0
 41
0.0
 42
0.0
 43
0.0
 44
0.0
 45
0.0
 46
0.0
 47
0.0
 48
0.0
 49
0.0
140
0.0
141
0.0
142
1.0
143
1.0
 70
   688
 72
     0
 73
     0
 74
     5
  7

 75
    16
147
1.0
148
0.0
149
0.0
100
AcDbLayout
  1
Layout1
 70
     1
 71
     1
 10
-840.138218
 20
-613.867995
 11
1259.861782
 21
871.132005
 12
0.0
 22
0.0
 32
0.0
 14
-840.138218
 24
-613.867995
 34
0.0
 15
1259.861782
 25
871.132005
 35
0.0
146
0.0
 13
0.0
 23
0.0
 33
0.0
 16
1.0
 26
0.0
 36
0.0
 17
0.0
 27
1.0
 37
0.0
 76
     0
330
1B
  0
LAYOUT
  5
26
102
{ACAD_REACTORS
330
1A
102
}
330
1A
100
AcDbPlotSettings
  1

  2

  4

  6

 40
0.0
 41
0.0
 42
0.0
 43
0.0
 44
0.0
 45
0.0
 46
0.0
 47
0.0
 48
0.0
 49
0.0
140
0.0
141
0.0
142
1.0
143
1.0
 70
   688
 72
     0
 73
     0
 74
     5
  7

 75
    16
147
1.0
148
0.0
149
0.0
100
AcDbLayout
  1
Layout2
 70
     1
 71
     2
 10
0.0
 20
0.0
 11
0.0
 21
0.0
 12
0.0
 22
0.0
 32
0.0
 14
0.0
 24
0.0
 34
0.0
 15
0.0
 25
0.0
 35
0.0
146
0.0
 13
0.0
 23
0.0
 33
0.0
 16
1.0
 26
0.0
 36
0.0
 17
0.0
 27
1.0
 37
0.0
 76
     0
330
23
  0
LAYOUT
  5
22
102
{ACAD_REACTORS
330
1A
102
}
330
1A
100
AcDbPlotSettings
  1

  2

  4

  6

 40
0.0
 41
0.0
 42
0.0
 43
0.0
 44
0.0
 45
0.0
 46
0.0
 47
0.0
 48
0.0
 49
0.0
140
0.0
141
0.0
142
1.0
143
1.0
 70
  1776
 72
     0
 73
     0
 74
     0
  7

 75
     0
147
1.0
148
0.0
149
0.0
100
AcDbLayout
  1
Model
 70
     1
 71
     0
 10
-840.138218
 20
-613.867995
 11
1259.861782
 21
871.132005
 12
0.0
 22
0.0
 32
0.0
 14
-840.138218
 24
-613.867995
 34
0.0
 15
1259.861782
 25
871.132005
 35
0.0
146
0.0
 13
0.0
 23
0.0
 33
0.0
 16
1.0
 26
0.0
 36
0.0
 17
0.0
 27
1.0
 37
0.0
 76
     0
330
1F
  0
MLINESTYLE
  5
18
102
{ACAD_REACTORS
330
17
102
}
330
17
100
AcDbMlineStyle
  2
Standard
 70
     0
  3

 62
   256
 51
90.0
 52
90.0
 71
     2
 49
0.5
 62
   256
  6
BYLAYER
 49
-0.5
 62
   256
  6
BYLAYER
  0
ACDBPLACEHOLDER
  5
F
102
{ACAD_REACTORS
330
E
102
}
330
E
  0
ENDSEC
  0
EOF
