  0
SECTION
  2
HEADER
  9
$ACADVER
  1
AC1015
  9
$ACADMAINTVER
 70
     6
  9
$DWGCODEPAGE
  3
ANSI_1252
  9
$INSBASE
 10
0.0
 20
0.0
 30
0.0
  9
$EXTMIN
 10
-856.178896
 20
-611.031554
 30
0.0
  9
$EXTMAX
 10
1243.821104
 20
873.968446
 30
0.0
  9
$LIMMIN
 10
-856.178896
 20
-611.031554
  9
$LIMMAX
 10
1243.821104
 20
873.968446
  9
$ORTHOMODE
 70
     0
  9
$REGENMODE
 70
     1
  9
$FILLMODE
 70
     1
  9
$QTEXTMODE
 70
     0
  9
$MIRRTEXT
 70
     1
  9
$LTSCALE
 40
5.0
  9
$ATTMODE
 70
     1
  9
$TEXTSIZE
 40
2.5
  9
$TRACEWID
 40
1.0
  9
$TEXTSTYLE
  7
Standard
  9
$CLAYER
  8
0
  9
$CELTYPE
  6
ByLayer
  9
$CECOLOR
 62
     7
  9
$CELTSCALE
 40
1.0
  9
$DISPSILH
 70
     0
  9
$DIMSCALE
 40
5.0
  9
$DIMASZ
 40
3.5
  9
$DIMEXO
 40
0.625
  9
$DIMDLI
 40
3.75
  9
$DIMRND
 40
0.0
  9
$DIMDLE
 40
0.0
  9
$DIMEXE
 40
1.25
  9
$DIMTP
 40
0.0
  9
$DIMTM
 40
0.0
  9
$DIMTXT
 40
3.5
  9
$DIMCEN
 40
2.5
  9
$DIMTSZ
 40
0.0
  9
$DIMTOL
 70
     0
  9
$DIMLIM
 70
     0
  9
$DIMTIH
 70
     0
  9
$DIMTOH
 70
     0
  9
$DIMSE1
 70
     0
  9
$DIMSE2
 70
     0
  9
$DIMTAD
 70
     1
  9
$DIMZIN
 70
     8
  9
$DIMBLK
  1

  9
$DIMASO
 70
     1
  9
$DIMSHO
 70
     1
  9
$DIMPOST
  1

  9
$DIMAPOST
  1

  9
$DIMALT
 70
     0
  9
$DIMALTD
 70
     3
  9
$DIMALTF
 40
0.03937
  9
$DIMLFAC
 40
1.0
  9
$DIMTOFL
 70
     1
  9
$DIMTVP
 40
0.0
  9
$DIMTIX
 70
     0
  9
$DIMSOXD
 70
     0
  9
$DIMSAH
 70
     0
  9
$DIMBLK1
  1

  9
$DIMBLK2
  1

  9
$DIMSTYLE
  2
ISO-25
  9
$DIMCLRD
 70
     0
  9
$DIMCLRE
 70
     0
  9
$DIMCLRT
 70
     0
  9
$DIMTFAC
 40
1.0
  9
$DIMGAP
 40
0.625
  9
$DIMJUST
 70
     0
  9
$DIMSD1
 70
     0
  9
$DIMSD2
 70
     0
  9
$DIMTOLJ
 70
     0
  9
$DIMTZIN
 70
     8
  9
$DIMALTZ
 70
     0
  9
$DIMALTTZ
 70
     0
  9
$DIMUPT
 70
     0
  9
$DIMDEC
 70
     2
  9
$DIMTDEC
 70
     2
  9
$DIMALTU
 70
     2
  9
$DIMALTTD
 70
     3
  9
$DIMTXSTY
  7
Standard
  9
$DIMAUNIT
 70
     0
  9
$DIMADEC
 70
     0
  9
$DIMALTRND
 40
0.0
  9
$DIMAZIN
 70
     0
  9
$DIMDSEP
 70
    44
  9
$DIMATFIT
 70
     3
  9
$DIMFRAC
 70
     0
  9
$DIMLDRBLK
  1

  9
$DIMLUNIT
 70
     2
  9
$DIMLWD
 70
    -2
  9
$DIMLWE
 70
    -2
  9
$DIMTMOVE
 70
     0
  9
$LUNITS
 70
     2
  9
$LUPREC
 70
     4
  9
$SKETCHINC
 40
1.0
  9
$FILLETRAD
 40
10.0
  9
$AUNITS
 70
     0
  9
$AUPREC
 70
     0
  9
$MENU
  1
.
  9
$ELEVATION
 40
0.0
  9
$PELEVATION
 40
0.0
  9
$THICKNESS
 40
0.0
  9
$LIMCHECK
 70
     0
  9
$CHAMFERA
 40
10.0
  9
$CHAMFERB
 40
10.0
  9
$CHAMFERC
 40
20.0
  9
$CHAMFERD
 40
0.0
  9
$SKPOLY
 70
     0
  9
$TDCREATE
 40
2456856.472637072
  9
$TDUCREATE
 40
2456856.389303738
  9
$TDUPDATE
 40
2456856.472637083
  9
$TDUUPDATE
 40
2456856.38930375
  9
$TDINDWG
 40
0.0000000116
  9
$TDUSRTIMER
 40
0.0000000116
  9
$USRTIMER
 70
     1
  9
$ANGBASE
 50
0.0
  9
$ANGDIR
 70
     0
  9
$PDMODE
 70
     0
  9
$PDSIZE
 40
0.0
  9
$PLINEWID
 40
0.0
  9
$SPLFRAME
 70
     0
  9
$SPLINETYPE
 70
     6
  9
$SPLINESEGS
 70
     8
  9
$HANDSEED
  5
736
  9
$SURFTAB1
 70
     6
  9
$SURFTAB2
 70
     6
  9
$SURFTYPE
 70
     6
  9
$SURFU
 70
     6
  9
$SURFV
 70
     6
  9
$UCSBASE
  2

  9
$UCSNAME
  2

  9
$UCSORG
 10
0.0
 20
0.0
 30
0.0
  9
$UCSXDIR
 10
1.0
 20
0.0
 30
0.0
  9
$UCSYDIR
 10
0.0
 20
1.0
 30
0.0
  9
$UCSORTHOREF
  2

  9
$UCSORTHOVIEW
 70
     0
  9
$UCSORGTOP
 10
0.0
 20
0.0
 30
0.0
  9
$UCSORGBOTTOM
 10
0.0
 20
0.0
 30
0.0
  9
$UCSORGLEFT
 10
0.0
 20
0.0
 30
0.0
  9
$UCSORGRIGHT
 10
0.0
 20
0.0
 30
0.0
  9
$UCSORGFRONT
 10
0.0
 20
0.0
 30
0.0
  9
$UCSORGBACK
 10
0.0
 20
0.0
 30
0.0
  9
$PUCSBASE
  2

  9
$PUCSNAME
  2

  9
$PUCSORG
 10
0.0
 20
0.0
 30
0.0
  9
$PUCSXDIR
 10
1.0
 20
0.0
 30
0.0
  9
$PUCSYDIR
 10
0.0
 20
1.0
 30
0.0
  9
$PUCSORTHOREF
  2

  9
$PUCSORTHOVIEW
 70
     0
  9
$PUCSORGTOP
 10
0.0
 20
0.0
 30
0.0
  9
$PUCSORGBOTTOM
 10
0.0
 20
0.0
 30
0.0
  9
$PUCSORGLEFT
 10
0.0
 20
0.0
 30
0.0
  9
$PUCSORGRIGHT
 10
0.0
 20
0.0
 30
0.0
  9
$PUCSORGFRONT
 10
0.0
 20
0.0
 30
0.0
  9
$PUCSORGBACK
 10
0.0
 20
0.0
 30
0.0
  9
$USERI1
 70
     0
  9
$USERI2
 70
     0
  9
$USERI3
 70
     0
  9
$USERI4
 70
     0
  9
$USERI5
 70
     0
  9
$USERR1
 40
0.0
  9
$USERR2
 40
0.0
  9
$USERR3
 40
0.0
  9
$USERR4
 40
0.0
  9
$USERR5
 40
0.0
  9
$WORLDVIEW
 70
     1
  9
$SHADEDGE
 70
     3
  9
$SHADEDIF
 70
    70
  9
$TILEMODE
 70
     1
  9
$MAXACTVP
 70
    64
  9
$PINSBASE
 10
0.0
 20
0.0
 30
0.0
  9
$PLIMCHECK
 70
     0
  9
$PEXTMIN
 10
-856.178896
 20
-611.031554
 30
0.0
  9
$PEXTMAX
 10
1243.821104
 20
873.968446
 30
0.0
  9
$PLIMMIN
 10
-856.178896
 20
-611.031554
  9
$PLIMMAX
 10
1243.821104
 20
873.968446
  9
$UNITMODE
 70
     0
  9
$VISRETAIN
 70
     1
  9
$PLINEGEN
 70
     0
  9
$PSLTSCALE
 70
     1
  9
$TREEDEPTH
 70
  3020
  9
$CMLSTYLE
  2
Standard
  9
$CMLJUST
 70
     0
  9
$CMLSCALE
 40
20.0
  9
$PROXYGRAPHICS
 70
     1
  9
$MEASUREMENT
 70
     1
  9
$CELWEIGHT
370
    -1
  9
$ENDCAPS
280
     0
  9
$JOINSTYLE
280
     0
  9
$LWDISPLAY
290
     0
  9
$INSUNITS
 70
     4
  9
$HYPERLINKBASE
  1

  9
$STYLESHEET
  1

  9
$XEDIT
290
     1
  9
$CEPSNTYPE
380
     0
  9
$PSTYLEMODE
290
     1
  9
$FINGERPRINTGUID
  2
{FAEB1C30-E019-11D5-929B-00C0DF256EC4}
  9
$VERSIONGUID
  2
{FAEB1C32-E019-11D5-929B-00C0DF256EC4}
  9
$EXTNAMES
290
     1
  9
$PSVPSCALE
 40
0.0
  9
$OLESTARTUP
290
     0
  0
ENDSEC
  0
SECTION
  2
CLASSES
  0
CLASS
  1
ACDBDICTIONARYWDFLT
  2
AcDbDictionaryWithDefault
  3
ObjectDBX Classes
 90
        0
280
     0
281
     0
  0
CLASS
  1
ACDBPLACEHOLDER
  2
AcDbPlaceHolder
  3
ObjectDBX Classes
 90
        0
280
     0
281
     0
  0
CLASS
  1
LAYOUT
  2
AcDbLayout
  3
ObjectDBX Classes
 90
        0
280
     0
281
     0
  0
ENDSEC
  0
SECTION
  2
TABLES
  0
TABLE
  2
VPORT
  5
8
330
0
100
AcDbSymbolTable
 70
     2
  0
VPORT
  5
29
330
8
100
AcDbSymbolTableRecord
100
AcDbViewportTableRecord
  2
*ACTIVE
 70
     0
 10
0.0
 20
0.0
 11
1.0
 21
1.0
 12
193.821104
 22
131.468446
 13
0.0
 23
0.0
 14
1.0
 24
1.0
 15
0.0
 25
0.0
 16
0.0
 26
0.0
 36
1.0
 17
0.0
 27
0.0
 37
0.0
 40
1485.0
 41
1.414141
 42
50.0
 43
0.0
 44
0.0
 50
0.0
 51
0.0
 71
    16
 72
   100
 73
     1
 74
     0
 75
     0
 76
     0
 77
     0
 78
     0
281
     0
 65
     0
110
0.0
120
0.0
130
0.0
111
1.0
121
0.0
131
0.0
112
0.0
122
1.0
132
0.0
 79
     0
146
0.0
  0
ENDTAB
  0
TABLE
  2
LTYPE
  5
5
330
0
100
AcDbSymbolTable
 70
     3
  0
LTYPE
  5
14
330
5
100
AcDbSymbolTableRecord
100
AcDbLinetypeTableRecord
  2
ByBlock
 70
     0
  3

 72
    65
 73
     0
 40
0.0
  0
LTYPE
  5
15
330
5
100
AcDbSymbolTableRecord
100
AcDbLinetypeTableRecord
  2
ByLayer
 70
     0
  3

 72
    65
 73
     0
 40
0.0
  0
LTYPE
  5
16
330
5
100
AcDbSymbolTableRecord
100
AcDbLinetypeTableRecord
  2
Continuous
 70
     0
  3
Solid line
 72
    65
 73
     0
 40
0.0
  0
LTYPE
  5
2A
330
5
100
AcDbSymbolTableRecord
100
AcDbLinetypeTableRecord
  2
DASHED
 70
     0
  3
__ __ __ __ __
 72
    65
 73
     2
 40
6.25
 49
5.0
 74
     4
 75
     0
340
0
 46
1.0
 50
0.0
 44
0.0
 45
0.0
 49
-1.25
 74
     4
 75
     0
340
0
 46
1.0
 50
0.0
 44
0.0
 45
0.0
  0
LTYPE
  5
E6
330
5
100
AcDbSymbolTableRecord
100
AcDbLinetypeTableRecord
  2
DASHDOT
 70
     0
  3
__ . __ . __ . __ . __
 72
    65
 73
     4
 40
7.5
 49
5.0
 74
     4
 75
     0
340
0
 46
1.0
 50
0.0
 44
0.0
 45
0.0
 49
-1.25
 74
     4
 75
     0
340
0
 46
1.0
 50
0.0
 44
0.0
 45
0.0
 49
0.0
 74
     4
 75
     0
340
0
 46
1.0
 50
0.0
 44
0.0
 45
0.0
 49
-1.25
 74
     4
 75
     0
340
0
 46
1.0
 50
0.0
 44
0.0
 45
0.0
  0
ENDTAB
  0
TABLE
  2
LAYER
  5
2
330
0
100
AcDbSymbolTable
 70
    12
  0
LAYER
  5
10
330
2
100
AcDbSymbolTableRecord
100
AcDbLayerTableRecord
  2
0
 70
     0
 62
     7
  6
Continuous
370
    -3
390
F
  0
LAYER
  5
2B
330
2
100
AcDbSymbolTableRecord
100
AcDbLayerTableRecord
  2
LC-INFO-1-5-mm-A3-0
 70
     1
 62
     7
  6
ByBlock
370
    -3
390
F
  0
LAYER
  5
2C
330
2
100
AcDbSymbolTableRecord
100
AcDbLayerTableRecord
  2
LC-CUT-HIDDEN
 70
     0
 62
     7
  6
DASHED
370
    -3
390
F
  0
LAYER
  5
2D
330
2
100
AcDbSymbolTableRecord
100
AcDbLayerTableRecord
  2
LC-VIEWPORT
 70
     0
 62
     7
  6
ByBlock
370
    -3
390
F
  0
LAYER
  5
2E
330
2
100
AcDbSymbolTableRecord
100
AcDbLayerTableRecord
  2
LC-3D-HIDDEN
 70
     0
 62
     9
  6
DASHED
370
    -3
390
F
  0
LAYER
  5
30
330
2
100
AcDbSymbolTableRecord
100
AcDbLayerTableRecord
  2
LC-001-100-D00-0
 70
     0
 62
     1
  6
ByBlock
370
    -3
390
F
  0
LAYER
  5
D7
330
2
100
AcDbSymbolTableRecord
100
AcDbLayerTableRecord
  2
Defpoints
 70
     0
 62
     7
  6
Continuous
290
     0
370
    -3
390
F
  0
LAYER
  5
6C2
330
2
100
AcDbSymbolTableRecord
100
AcDbLayerTableRecord
  2
LC-002-003-----0
 70
     0
 62
     2
  6
ByBlock
370
    -3
390
F
  0
LAYER
  5
6DD
330
2
100
AcDbSymbolTableRecord
100
AcDbLayerTableRecord
  2
LC-003-002-----0
 70
     0
 62
     1
  6
ByBlock
370
    -3
390
F
  0
LAYER
  5
6E1
330
2
100
AcDbSymbolTableRecord
100
AcDbLayerTableRecord
  2
LC-004-207-RND-0
 70
     0
 62
     1
  6
ByBlock
370
    -3
390
F
  0
LAYER
  5
6ED
330
2
100
AcDbSymbolTableRecord
100
AcDbLayerTableRecord
  2
LC-005-005-----0
 70
     0
 62
     2
  6
ByBlock
370
    -3
390
F
  0
LAYER
  5
716
330
2
100
AcDbSymbolTableRecord
100
AcDbLayerTableRecord
  2
LC-006-207-----0
 70
     0
 62
     1
  6
ByBlock
370
    -3
390
F
  0
ENDTAB
  0
TABLE
  2
STYLE
  5
3
330
0
100
AcDbSymbolTable
 70
     3
  0
STYLE
  5
11
330
3
100
AcDbSymbolTableRecord
100
AcDbTextStyleTableRecord
  2
Standard
 70
     0
 40
0.0
 41
1.0
 50
0.0
 71
     0
 42
2.5
  3
txt
  4

  0
STYLE
  5
2F
330
3
100
AcDbSymbolTableRecord
100
AcDbTextStyleTableRecord
  2
LCTX15-400-0-0-Arial
 70
     0
 40
0.0
 41
0.8
 50
0.0
 71
     0
 42
3.5
  3

  4

1001
ACAD
1000
Arial
1071
 16777218
  0
STYLE
  5
D4
330
3
100
AcDbSymbolTableRecord
100
AcDbTextStyleTableRecord
  2
LCTX15-400-0-0pDIN-Schrift
 70
     0
 40
2.5
 41
0.8
 50
15.0
 71
     0
 42
3.5
  3
STANDARD
  4

  0
ENDTAB
  0
TABLE
  2
VIEW
  5
6
330
0
100
AcDbSymbolTable
 70
     0
  0
ENDTAB
  0
TABLE
  2
UCS
  5
7
330
0
100
AcDbSymbolTable
 70
     0
  0
ENDTAB
  0
TABLE
  2
APPID
  5
9
330
0
100
AcDbSymbolTable
 70
     1
  0
APPID
  5
12
330
9
100
AcDbSymbolTableRecord
100
AcDbRegAppTableRecord
  2
ACAD
 70
     0
  0
ENDTAB
  0
TABLE
  2
DIMSTYLE
  5
A
330
0
100
AcDbSymbolTable
 70
     2
100
AcDbDimStyleTable
  0
DIMSTYLE
105
27
330
A
100
AcDbSymbolTableRecord
100
AcDbDimStyleTableRecord
  2
ISO-25
 70
     0
 41
2.5
 42
0.625
 43
3.75
 44
1.25
 73
     0
 74
     0
 77
     1
 78
     8
140
2.5
141
2.5
143
0.03937
147
0.625
171
     3
172
     1
271
     2
272
     2
274
     3
278
    44
283
     0
284
     8
340
11
  0
DIMSTYLE
105
D5
102
{ACAD_REACTORS
330
D6
330
212
330
220
330
22E
330
5CD
330
5DB
330
5EA
330
5F7
330
605
330
6C3
330
6D0
330
71A
330
728
102
}
330
A
100
AcDbSymbolTableRecord
100
AcDbDimStyleTableRecord
  2
LC-DIM-L-0100-02-02
 70
     0
 40
5.0
 41
10.0
 42
0.0
 43
7.5
 44
1.8
 73
     0
 74
     0
 77
     1
 78
     8
 79
     2
140
10.0
141
0.0
146
0.71
147
1.5
176
     2
177
     2
178
     2
179
     2
271
     2
278
    44
289
     1
340
D4
  0
ENDTAB
  0
TABLE
  2
BLOCK_RECORD
  5
1
330
0
100
AcDbSymbolTable
 70
    52
  0
BLOCK_RECORD
  5
1F
330
1
100
AcDbSymbolTableRecord
100
AcDbBlockTableRecord
  2
*Model_Space
340
22
  0
BLOCK_RECORD
  5
1B
330
1
100
AcDbSymbolTableRecord
100
AcDbBlockTableRecord
  2
*Paper_Space
340
1E
  0
BLOCK_RECORD
  5
23
330
1
100
AcDbSymbolTableRecord
100
AcDbBlockTableRecord
  2
*Paper_Space0
340
26
  0
BLOCK_RECORD
  5
D8
330
1
100
AcDbSymbolTableRecord
100
AcDbBlockTableRecord
  2
*D1
340
0
  0
BLOCK_RECORD
  5
108
330
1
100
AcDbSymbolTableRecord
100
AcDbBlockTableRecord
  2
KLON1
340
0
102
{BLKREFS
331
10F
102
}
  0
BLOCK_RECORD
  5
111
330
1
100
AcDbSymbolTableRecord
100
AcDbBlockTableRecord
  2
KLON2
340
0
102
{BLKREFS
331
116
102
}
  0
BLOCK_RECORD
  5
117
330
1
100
AcDbSymbolTableRecord
100
AcDbBlockTableRecord
  2
KLON3
340
0
102
{BLKREFS
331
11C
102
}
  0
BLOCK_RECORD
  5
11D
330
1
100
AcDbSymbolTableRecord
100
AcDbBlockTableRecord
  2
KLON4
340
0
102
{BLKREFS
331
122
102
}
  0
BLOCK_RECORD
  5
124
330
1
100
AcDbSymbolTableRecord
100
AcDbBlockTableRecord
  2
KLON5
340
0
102
{BLKREFS
331
12B
102
}
  0
BLOCK_RECORD
  5
12E
330
1
100
AcDbSymbolTableRecord
100
AcDbBlockTableRecord
  2
KLON6
340
0
102
{BLKREFS
331
133
102
}
  0
BLOCK_RECORD
  5
141
330
1
100
AcDbSymbolTableRecord
100
AcDbBlockTableRecord
  2
KLON7
340
0
102
{BLKREFS
331
146
102
}
  0
BLOCK_RECORD
  5
147
330
1
100
AcDbSymbolTableRecord
100
AcDbBlockTableRecord
  2
KLON8
340
0
102
{BLKREFS
331
14C
102
}
  0
BLOCK_RECORD
  5
14E
330
1
100
AcDbSymbolTableRecord
100
AcDbBlockTableRecord
  2
KLON9
340
0
102
{BLKREFS
331
154
102
}
  0
BLOCK_RECORD
  5
155
330
1
100
AcDbSymbolTableRecord
100
AcDbBlockTableRecord
  2
KLON10
340
0
102
{BLKREFS
331
15B
102
}
  0
BLOCK_RECORD
  5
15C
330
1
100
AcDbSymbolTableRecord
100
AcDbBlockTableRecord
  2
KLON11
340
0
102
{BLKREFS
331
161
102
}
  0
BLOCK_RECORD
  5
162
330
1
100
AcDbSymbolTableRecord
100
AcDbBlockTableRecord
  2
KLON12
340
0
102
{BLKREFS
331
168
102
}
  0
BLOCK_RECORD
  5
169
330
1
100
AcDbSymbolTableRecord
100
AcDbBlockTableRecord
  2
KLON13
340
0
102
{BLKREFS
331
16F
102
}
  0
BLOCK_RECORD
  5
170
330
1
100
AcDbSymbolTableRecord
100
AcDbBlockTableRecord
  2
KLON14
340
0
102
{BLKREFS
331
175
102
}
  0
BLOCK_RECORD
  5
213
330
1
100
AcDbSymbolTableRecord
100
AcDbBlockTableRecord
  2
*D16
340
0
  0
BLOCK_RECORD
  5
221
330
1
100
AcDbSymbolTableRecord
100
AcDbBlockTableRecord
  2
*D17
340
0
  0
BLOCK_RECORD
  5
22F
330
1
100
AcDbSymbolTableRecord
100
AcDbBlockTableRecord
  2
*D18
340
0
  0
BLOCK_RECORD
  5
42A
330
1
100
AcDbSymbolTableRecord
100
AcDbBlockTableRecord
  2
KLON15
340
0
102
{BLKREFS
331
43A
102
}
  0
BLOCK_RECORD
  5
43B
330
1
100
AcDbSymbolTableRecord
100
AcDbBlockTableRecord
  2
KLON16
340
0
102
{BLKREFS
331
44E
102
}
  0
BLOCK_RECORD
  5
452
330
1
100
AcDbSymbolTableRecord
100
AcDbBlockTableRecord
  2
KLON17
340
0
102
{BLKREFS
331
457
102
}
  0
BLOCK_RECORD
  5
56F
330
1
100
AcDbSymbolTableRecord
100
AcDbBlockTableRecord
  2
KLON18
340
0
102
{BLKREFS
331
578
102
}
  0
BLOCK_RECORD
  5
579
330
1
100
AcDbSymbolTableRecord
100
AcDbBlockTableRecord
  2
KLON19
340
0
102
{BLKREFS
331
582
102
}
  0
BLOCK_RECORD
  5
59A
330
1
100
AcDbSymbolTableRecord
100
AcDbBlockTableRecord
  2
KLON20
340
0
102
{BLKREFS
331
5A2
102
}
  0
BLOCK_RECORD
  5
5A3
330
1
100
AcDbSymbolTableRecord
100
AcDbBlockTableRecord
  2
KLON21
340
0
102
{BLKREFS
331
5AF
102
}
  0
BLOCK_RECORD
  5
5B0
330
1
100
AcDbSymbolTableRecord
100
AcDbBlockTableRecord
  2
KLON22
340
0
102
{BLKREFS
331
5BC
102
}
  0
BLOCK_RECORD
  5
5CE
330
1
100
AcDbSymbolTableRecord
100
AcDbBlockTableRecord
  2
*D27
340
0
  0
BLOCK_RECORD
  5
5DC
330
1
100
AcDbSymbolTableRecord
100
AcDbBlockTableRecord
  2
*D28
340
0
  0
BLOCK_RECORD
  5
5EB
330
1
100
AcDbSymbolTableRecord
100
AcDbBlockTableRecord
  2
*D29
340
0
  0
BLOCK_RECORD
  5
5F8
330
1
100
AcDbSymbolTableRecord
100
AcDbBlockTableRecord
  2
*D30
340
0
  0
BLOCK_RECORD
  5
606
330
1
100
AcDbSymbolTableRecord
100
AcDbBlockTableRecord
  2
*D31
340
0
  0
BLOCK_RECORD
  5
614
330
1
100
AcDbSymbolTableRecord
100
AcDbBlockTableRecord
  2
KLON23
340
0
102
{BLKREFS
331
61B
102
}
  0
BLOCK_RECORD
  5
61C
330
1
100
AcDbSymbolTableRecord
100
AcDbBlockTableRecord
  2
KLON24
340
0
102
{BLKREFS
331
623
102
}
  0
BLOCK_RECORD
  5
624
330
1
100
AcDbSymbolTableRecord
100
AcDbBlockTableRecord
  2
KLON25
340
0
102
{BLKREFS
331
632
102
}
  0
BLOCK_RECORD
  5
634
330
1
100
AcDbSymbolTableRecord
100
AcDbBlockTableRecord
  2
KLON26
340
0
102
{BLKREFS
331
639
102
}
  0
BLOCK_RECORD
  5
63B
330
1
100
AcDbSymbolTableRecord
100
AcDbBlockTableRecord
  2
KLON27
340
0
102
{BLKREFS
331
64A
102
}
  0
BLOCK_RECORD
  5
64B
330
1
100
AcDbSymbolTableRecord
100
AcDbBlockTableRecord
  2
KLON28
340
0
102
{BLKREFS
331
650
102
}
  0
BLOCK_RECORD
  5
652
330
1
100
AcDbSymbolTableRecord
100
AcDbBlockTableRecord
  2
KLON29
340
0
102
{BLKREFS
331
66E
102
}
  0
BLOCK_RECORD
  5
66F
330
1
100
AcDbSymbolTableRecord
100
AcDbBlockTableRecord
  2
KLON30
340
0
102
{BLKREFS
331
68B
102
}
  0
BLOCK_RECORD
  5
68D
330
1
100
AcDbSymbolTableRecord
100
AcDbBlockTableRecord
  2
KLON31
340
0
102
{BLKREFS
331
692
102
}
  0
BLOCK_RECORD
  5
695
330
1
100
AcDbSymbolTableRecord
100
AcDbBlockTableRecord
  2
KLON32
340
0
102
{BLKREFS
331
69A
102
}
  0
BLOCK_RECORD
  5
69D
330
1
100
AcDbSymbolTableRecord
100
AcDbBlockTableRecord
  2
KLON33
340
0
102
{BLKREFS
331
6A2
102
}
  0
BLOCK_RECORD
  5
6A4
330
1
100
AcDbSymbolTableRecord
100
AcDbBlockTableRecord
  2
KLON34
340
0
102
{BLKREFS
331
6A9
102
}
  0
BLOCK_RECORD
  5
6AC
330
1
100
AcDbSymbolTableRecord
100
AcDbBlockTableRecord
  2
KLON35
340
0
102
{BLKREFS
331
6B1
102
}
  0
BLOCK_RECORD
  5
6B4
330
1
100
AcDbSymbolTableRecord
100
AcDbBlockTableRecord
  2
KLON36
340
0
102
{BLKREFS
331
6B9
102
}
  0
BLOCK_RECORD
  5
6C4
330
1
100
AcDbSymbolTableRecord
100
AcDbBlockTableRecord
  2
*D46
340
0
  0
BLOCK_RECORD
  5
6D1
330
1
100
AcDbSymbolTableRecord
100
AcDbBlockTableRecord
  2
*D47
340
0
  0
BLOCK_RECORD
  5
6EA
330
1
100
AcDbSymbolTableRecord
100
AcDbBlockTableRecord
  2
*X148
340
0
102
{BLKREFS
331
6F8
102
}
  0
BLOCK_RECORD
  5
6FF
330
1
100
AcDbSymbolTableRecord
100
AcDbBlockTableRecord
  2
*X249
340
0
102
{BLKREFS
331
70C
102
}
  0
BLOCK_RECORD
  5
71B
330
1
100
AcDbSymbolTableRecord
100
AcDbBlockTableRecord
  2
*D50
340
0
  0
BLOCK_RECORD
  5
729
330
1
100
AcDbSymbolTableRecord
100
AcDbBlockTableRecord
  2
*D51
340
0
  0
ENDTAB
  0
ENDSEC
  0
SECTION
  2
BLOCKS
  0
BLOCK
  5
20
330
1F
100
AcDbEntity
  8
0
100
AcDbBlockBegin
  2
*Model_Space
 70
     0
 71
     0
 10
0.0
 20
0.0
 30
0.0
  3
*Model_Space
  1

  0
ENDBLK
  5
21
330
1F
100
AcDbEntity
  8
0
100
AcDbBlockEnd
  0
BLOCK
  5
1C
330
1B
100
AcDbEntity
 67
     1
  8
0
100
AcDbBlockBegin
  2
*Paper_Space
 70
     0
 71
     0
 10
0.0
 20
0.0
 30
0.0
  3
*Paper_Space
  1

  0
ENDBLK
  5
1D
330
1B
100
AcDbEntity
 67
     1
  8
0
100
AcDbBlockEnd
  0
BLOCK
  5
24
330
23
100
AcDbEntity
  8
0
100
AcDbBlockBegin
  2
*Paper_Space0
 70
     0
 71
     0
 10
0.0
 20
0.0
 30
0.0
  3
*Paper_Space0
  1

  0
ENDBLK
  5
25
330
23
100
AcDbEntity
  8
0
100
AcDbBlockEnd
  0
BLOCK
  5
E4
330
D8
100
AcDbEntity
  8
0
100
AcDbBlockBegin
  2
*D1
 70
     1
 71
     0
 10
0.0
 20
0.0
 30
0.0
  3
*D1
  1

  0
LINE
  5
D9
330
D8
100
AcDbEntity
  8
LC-001-100-D00-0
 62
     2
370
    -2
100
AcDbLine
 10
975.925432
 20
373.598446
 30
0.0
 11
975.925432
 21
290.276323
 31
0.0
  0
LINE
  5
DA
330
D8
100
AcDbEntity
  8
LC-001-100-D00-0
 62
     2
370
    -2
100
AcDbLine
 10
1056.925432
 20
373.598446
 30
0.0
 11
1056.925432
 21
290.276323
 31
0.0
  0
LINE
  5
DB
330
D8
100
AcDbEntity
  8
LC-001-100-D00-0
 62
     2
370
    -2
100
AcDbLine
 10
925.925432
 20
299.276323
 30
0.0
 11
875.925432
 21
299.276323
 31
0.0
  0
LINE
  5
DC
330
D8
100
AcDbEntity
  8
LC-001-100-D00-0
 62
     2
370
    -2
100
AcDbLine
 10
1106.925432
 20
299.276323
 30
0.0
 11
1156.925432
 21
299.276323
 31
0.0
  0
LINE
  5
DD
330
D8
100
AcDbEntity
  8
LC-001-100-D00-0
 62
     2
370
    -2
100
AcDbLine
 10
975.925432
 20
299.276323
 30
0.0
 11
1056.925432
 21
299.276323
 31
0.0
  0
SOLID
  5
DE
330
D8
100
AcDbEntity
  8
LC-001-100-D00-0
 62
     2
100
AcDbTrace
 10
925.925432
 20
290.94299
 30
0.0
 11
925.925432
 21
307.609657
 31
0.0
 12
975.925432
 22
299.276323
 32
0.0
 13
975.925432
 23
299.276323
 33
0.0
  0
SOLID
  5
DF
330
D8
100
AcDbEntity
  8
LC-001-100-D00-0
 62
     2
100
AcDbTrace
 10
1106.925432
 20
307.609657
 30
0.0
 11
1106.925432
 21
290.94299
 31
0.0
 12
1056.925432
 22
299.276323
 32
0.0
 13
1056.925432
 23
299.276323
 33
0.0
  0
MTEXT
  5
E0
330
D8
100
AcDbEntity
  8
LC-001-100-D00-0
 62
     2
100
AcDbMText
 10
1018.536168
 20
354.276323
 30
0.0
 40
50.0
 41
0.0
 71
     5
 72
     1
  1
\A1;81
  7
LCTX15-400-0-0pDIN-Schrift
 73
     1
 44
1.0
  0
POINT
  5
E1
330
D8
100
AcDbEntity
  8
Defpoints
 62
     0
100
AcDbPoint
 10
975.925432
 20
373.598446
 30
0.0
  0
POINT
  5
E2
330
D8
100
AcDbEntity
  8
Defpoints
 62
     0
100
AcDbPoint
 10
1056.925432
 20
373.598446
 30
0.0
  0
POINT
  5
E3
330
D8
100
AcDbEntity
  8
Defpoints
 62
     0
100
AcDbPoint
 10
1056.925432
 20
299.276323
 30
0.0
  0
ENDBLK
  5
E5
330
D8
100
AcDbEntity
  8
0
100
AcDbBlockEnd
  0
BLOCK
  5
109
330
108
100
AcDbEntity
  8
0
100
AcDbBlockBegin
  2
KLON1
 70
     0
 71
     0
 10
0.0
 20
0.0
 30
0.0
  3
KLON1
  1

  4
KLON1
  0
LINE
  5
10B
330
108
100
AcDbEntity
  8
LC-001-100-D00-0
 62
     7
370
    15
100
AcDbLine
 10
604.880594
 20
48.878687
 30
0.0
 11
604.89323
 21
48.797806
 31
0.0
  0
LINE
  5
10C
330
108
100
AcDbEntity
  8
LC-001-100-D00-0
 62
     7
370
    15
100
AcDbLine
 10
604.89323
 20
48.797806
 30
0.0
 11
604.902022
 21
48.741597
 31
0.0
  0
LINE
  5
10D
330
108
100
AcDbEntity
  8
LC-001-100-D00-0
 62
     7
370
    15
100
AcDbLine
 10
604.902022
 20
48.741597
 30
0.0
 11
604.904555
 21
48.725498
 31
0.0
  0
LINE
  5
10E
330
108
100
AcDbEntity
  8
LC-001-100-D00-0
 62
     7
370
    15
100
AcDbLine
 10
604.904555
 20
48.725498
 30
0.0
 11
604.90679
 21
48.711213
 31
0.0
  0
ENDBLK
  5
10A
330
108
100
AcDbEntity
  8
0
100
AcDbBlockEnd
  0
BLOCK
  5
112
330
111
100
AcDbEntity
  8
0
100
AcDbBlockBegin
  2
KLON2
 70
     0
 71
     0
 10
0.0
 20
0.0
 30
0.0
  3
KLON2
  1

  4
KLON2
  0
LINE
  5
114
330
111
100
AcDbEntity
  8
LC-001-100-D00-0
 62
     7
370
    15
100
AcDbLine
 10
604.880594
 20
60.041379
 30
0.0
 11
604.891173
 21
60.047289
 31
0.0
  0
LINE
  5
115
330
111
100
AcDbEntity
  8
LC-001-100-D00-0
 62
     7
370
    15
100
AcDbLine
 10
604.891173
 20
60.047289
 30
0.0
 11
604.90679
 21
60.056017
 31
0.0
  0
ENDBLK
  5
113
330
111
100
AcDbEntity
  8
0
100
AcDbBlockEnd
  0
BLOCK
  5
118
330
117
100
AcDbEntity
  8
0
100
AcDbBlockBegin
  2
KLON3
 70
     0
 71
     0
 10
0.0
 20
0.0
 30
0.0
  3
KLON3
  1

  4
KLON3
  0
LINE
  5
11A
330
117
100
AcDbEntity
  8
LC-001-100-D00-0
 62
     7
370
    15
100
AcDbLine
 10
604.880594
 20
13.056019
 30
0.0
 11
604.888014
 21
13.017846
 31
0.0
  0
LINE
  5
11B
330
117
100
AcDbEntity
  8
LC-001-100-D00-0
 62
     7
370
    15
100
AcDbLine
 10
604.888014
 20
13.017846
 30
0.0
 11
604.90679
 21
12.985361
 31
0.0
  0
ENDBLK
  5
119
330
117
100
AcDbEntity
  8
0
100
AcDbBlockEnd
  0
BLOCK
  5
11E
330
11D
100
AcDbEntity
  8
0
100
AcDbBlockBegin
  2
KLON4
 70
     0
 71
     0
 10
0.0
 20
0.0
 30
0.0
  3
KLON4
  1

  4
KLON4
  0
LINE
  5
120
330
11D
100
AcDbEntity
  8
LC-001-100-D00-0
 62
     7
370
    15
100
AcDbLine
 10
-379.067041
 20
60.041379
 30
0.0
 11
-379.077621
 21
60.047289
 31
0.0
  0
LINE
  5
121
330
11D
100
AcDbEntity
  8
LC-001-100-D00-0
 62
     7
370
    15
100
AcDbLine
 10
-379.077621
 20
60.047289
 30
0.0
 11
-379.093237
 21
60.056017
 31
0.0
  0
ENDBLK
  5
11F
330
11D
100
AcDbEntity
  8
0
100
AcDbBlockEnd
  0
BLOCK
  5
125
330
124
100
AcDbEntity
  8
0
100
AcDbBlockBegin
  2
KLON5
 70
     0
 71
     0
 10
0.0
 20
0.0
 30
0.0
  3
KLON5
  1

  4
KLON5
  0
LINE
  5
127
330
124
100
AcDbEntity
  8
LC-001-100-D00-0
 62
     7
370
    15
100
AcDbLine
 10
-379.067041
 20
48.878687
 30
0.0
 11
-379.079677
 21
48.797806
 31
0.0
  0
LINE
  5
128
330
124
100
AcDbEntity
  8
LC-001-100-D00-0
 62
     7
370
    15
100
AcDbLine
 10
-379.079677
 20
48.797806
 30
0.0
 11
-379.088469
 21
48.741597
 31
0.0
  0
LINE
  5
129
330
124
100
AcDbEntity
  8
LC-001-100-D00-0
 62
     7
370
    15
100
AcDbLine
 10
-379.088469
 20
48.741597
 30
0.0
 11
-379.091002
 21
48.725498
 31
0.0
  0
LINE
  5
12A
330
124
100
AcDbEntity
  8
LC-001-100-D00-0
 62
     7
370
    15
100
AcDbLine
 10
-379.091002
 20
48.725498
 30
0.0
 11
-379.093237
 21
48.711213
 31
0.0
  0
ENDBLK
  5
126
330
124
100
AcDbEntity
  8
0
100
AcDbBlockEnd
  0
BLOCK
  5
12F
330
12E
100
AcDbEntity
  8
0
100
AcDbBlockBegin
  2
KLON6
 70
     0
 71
     0
 10
0.0
 20
0.0
 30
0.0
  3
KLON6
  1

  4
KLON6
  0
LINE
  5
131
330
12E
100
AcDbEntity
  8
LC-001-100-D00-0
 62
     7
370
    15
100
AcDbLine
 10
-379.067041
 20
13.056019
 30
0.0
 11
-379.074462
 21
13.017846
 31
0.0
  0
LINE
  5
132
330
12E
100
AcDbEntity
  8
LC-001-100-D00-0
 62
     7
370
    15
100
AcDbLine
 10
-379.074462
 20
13.017846
 30
0.0
 11
-379.093237
 21
12.985361
 31
0.0
  0
ENDBLK
  5
130
330
12E
100
AcDbEntity
  8
0
100
AcDbBlockEnd
  0
BLOCK
  5
142
330
141
100
AcDbEntity
  8
0
100
AcDbBlockBegin
  2
KLON7
 70
     0
 71
     0
 10
0.0
 20
0.0
 30
0.0
  3
KLON7
  1

  4
KLON7
  0
LINE
  5
144
330
141
100
AcDbEntity
  8
LC-001-100-D00-0
 62
     7
370
    15
100
AcDbLine
 10
604.852073
 20
24.222609
 30
0.0
 11
604.868226
 21
24.228694
 31
0.0
  0
LINE
  5
145
330
141
100
AcDbEntity
  8
LC-001-100-D00-0
 62
     7
370
    15
100
AcDbLine
 10
604.868226
 20
24.228694
 30
0.0
 11
604.880594
 21
24.233349
 31
0.0
  0
ENDBLK
  5
143
330
141
100
AcDbEntity
  8
0
100
AcDbBlockEnd
  0
BLOCK
  5
148
330
147
100
AcDbEntity
  8
0
100
AcDbBlockBegin
  2
KLON8
 70
     0
 71
     0
 10
0.0
 20
0.0
 30
0.0
  3
KLON8
  1

  4
KLON8
  0
LINE
  5
14A
330
147
100
AcDbEntity
  8
LC-001-100-D00-0
 62
     7
370
    15
100
AcDbLine
 10
-379.03852
 20
24.222609
 30
0.0
 11
-379.054673
 21
24.228694
 31
0.0
  0
LINE
  5
14B
330
147
100
AcDbEntity
  8
LC-001-100-D00-0
 62
     7
370
    15
100
AcDbLine
 10
-379.054673
 20
24.228694
 30
0.0
 11
-379.067041
 21
24.233349
 31
0.0
  0
ENDBLK
  5
149
330
147
100
AcDbEntity
  8
0
100
AcDbBlockEnd
  0
BLOCK
  5
14F
330
14E
100
AcDbEntity
  8
0
100
AcDbBlockBegin
  2
KLON9
 70
     0
 71
     0
 10
0.0
 20
0.0
 30
0.0
  3
KLON9
  1

  4
KLON9
  0
LINE
  5
151
330
14E
100
AcDbEntity
  8
LC-001-100-D00-0
 62
     7
370
    15
100
AcDbLine
 10
467.893712
 20
30.696801
 30
0.0
 11
467.905126
 21
31.110275
 31
0.0
  0
LINE
  5
152
330
14E
100
AcDbEntity
  8
LC-001-100-D00-0
 62
     7
370
    15
100
AcDbLine
 10
467.905126
 20
31.110275
 30
0.0
 11
467.916779
 21
31.533533
 31
0.0
  0
LINE
  5
153
330
14E
100
AcDbEntity
  8
LC-001-100-D00-0
 62
     7
370
    15
100
AcDbLine
 10
467.916779
 20
31.533533
 30
0.0
 11
467.928581
 21
31.961712
 31
0.0
  0
ENDBLK
  5
150
330
14E
100
AcDbEntity
  8
0
100
AcDbBlockEnd
  0
BLOCK
  5
156
330
155
100
AcDbEntity
  8
0
100
AcDbBlockBegin
  2
KLON10
 70
     0
 71
     0
 10
0.0
 20
0.0
 30
0.0
  3
KLON10
  1

  4
KLON10
  0
LINE
  5
158
330
155
100
AcDbEntity
  8
LC-001-100-D00-0
 62
     7
370
    15
100
AcDbLine
 10
467.928581
 20
41.150324
 30
0.0
 11
467.916779
 21
41.578503
 31
0.0
  0
LINE
  5
159
330
155
100
AcDbEntity
  8
LC-001-100-D00-0
 62
     7
370
    15
100
AcDbLine
 10
467.916779
 20
41.578503
 30
0.0
 11
467.905126
 21
42.001761
 31
0.0
  0
LINE
  5
15A
330
155
100
AcDbEntity
  8
LC-001-100-D00-0
 62
     7
370
    15
100
AcDbLine
 10
467.905126
 20
42.001761
 30
0.0
 11
467.893712
 21
42.415235
 31
0.0
  0
ENDBLK
  5
157
330
155
100
AcDbEntity
  8
0
100
AcDbBlockEnd
  0
BLOCK
  5
15D
330
15C
100
AcDbEntity
  8
0
100
AcDbBlockBegin
  2
KLON11
 70
     0
 71
     0
 10
0.0
 20
0.0
 30
0.0
  3
KLON11
  1

  4
KLON11
  0
LINE
  5
15F
330
15C
100
AcDbEntity
  8
LC-001-100-D00-0
 62
     7
370
    15
100
AcDbLine
 10
604.852073
 20
48.889427
 30
0.0
 11
604.868226
 21
48.883343
 31
0.0
  0
LINE
  5
160
330
15C
100
AcDbEntity
  8
LC-001-100-D00-0
 62
     7
370
    15
100
AcDbLine
 10
604.868226
 20
48.883343
 30
0.0
 11
604.880594
 21
48.878687
 31
0.0
  0
ENDBLK
  5
15E
330
15C
100
AcDbEntity
  8
0
100
AcDbBlockEnd
  0
BLOCK
  5
163
330
162
100
AcDbEntity
  8
0
100
AcDbBlockBegin
  2
KLON12
 70
     0
 71
     0
 10
0.0
 20
0.0
 30
0.0
  3
KLON12
  1

  4
KLON12
  0
LINE
  5
165
330
162
100
AcDbEntity
  8
LC-001-100-D00-0
 62
     7
370
    15
100
AcDbLine
 10
-242.08016
 20
30.696801
 30
0.0
 11
-242.091574
 21
31.110275
 31
0.0
  0
LINE
  5
166
330
162
100
AcDbEntity
  8
LC-001-100-D00-0
 62
     7
370
    15
100
AcDbLine
 10
-242.091574
 20
31.110275
 30
0.0
 11
-242.103227
 21
31.533533
 31
0.0
  0
LINE
  5
167
330
162
100
AcDbEntity
  8
LC-001-100-D00-0
 62
     7
370
    15
100
AcDbLine
 10
-242.103227
 20
31.533533
 30
0.0
 11
-242.115028
 21
31.961712
 31
0.0
  0
ENDBLK
  5
164
330
162
100
AcDbEntity
  8
0
100
AcDbBlockEnd
  0
BLOCK
  5
16A
330
169
100
AcDbEntity
  8
0
100
AcDbBlockBegin
  2
KLON13
 70
     0
 71
     0
 10
0.0
 20
0.0
 30
0.0
  3
KLON13
  1

  4
KLON13
  0
LINE
  5
16C
330
169
100
AcDbEntity
  8
LC-001-100-D00-0
 62
     7
370
    15
100
AcDbLine
 10
-242.115028
 20
41.150324
 30
0.0
 11
-242.103227
 21
41.578503
 31
0.0
  0
LINE
  5
16D
330
169
100
AcDbEntity
  8
LC-001-100-D00-0
 62
     7
370
    15
100
AcDbLine
 10
-242.103227
 20
41.578503
 30
0.0
 11
-242.091574
 21
42.001761
 31
0.0
  0
LINE
  5
16E
330
169
100
AcDbEntity
  8
LC-001-100-D00-0
 62
     7
370
    15
100
AcDbLine
 10
-242.091574
 20
42.001761
 30
0.0
 11
-242.08016
 21
42.415235
 31
0.0
  0
ENDBLK
  5
16B
330
169
100
AcDbEntity
  8
0
100
AcDbBlockEnd
  0
BLOCK
  5
171
330
170
100
AcDbEntity
  8
0
100
AcDbBlockBegin
  2
KLON14
 70
     0
 71
     0
 10
0.0
 20
0.0
 30
0.0
  3
KLON14
  1

  4
KLON14
  0
LINE
  5
173
330
170
100
AcDbEntity
  8
LC-001-100-D00-0
 62
     7
370
    15
100
AcDbLine
 10
-379.03852
 20
48.889427
 30
0.0
 11
-379.054673
 21
48.883343
 31
0.0
  0
LINE
  5
174
330
170
100
AcDbEntity
  8
LC-001-100-D00-0
 62
     7
370
    15
100
AcDbLine
 10
-379.054673
 20
48.883343
 30
0.0
 11
-379.067041
 21
48.878687
 31
0.0
  0
ENDBLK
  5
172
330
170
100
AcDbEntity
  8
0
100
AcDbBlockEnd
  0
BLOCK
  5
21E
330
213
100
AcDbEntity
  8
0
100
AcDbBlockBegin
  2
*D16
 70
     1
 71
     0
 10
0.0
 20
0.0
 30
0.0
  3
*D16
  1

  0
LINE
  5
214
330
213
100
AcDbEntity
  8
LC-001-100-D00-0
 62
     2
370
    -2
100
AcDbLine
 10
657.906776
 20
82.556018
 30
0.0
 11
757.417621
 21
82.556018
 31
0.0
  0
LINE
  5
215
330
213
100
AcDbEntity
  8
LC-001-100-D00-0
 62
     2
370
    -2
100
AcDbLine
 10
657.906776
 20
81.056018
 30
0.0
 11
757.417621
 21
81.056018
 31
0.0
  0
LINE
  5
216
330
213
100
AcDbEntity
  8
LC-001-100-D00-0
 62
     2
370
    -2
100
AcDbLine
 10
748.417621
 20
132.556018
 30
0.0
 11
748.417621
 21
182.556018
 31
0.0
  0
LINE
  5
217
330
213
100
AcDbEntity
  8
LC-001-100-D00-0
 62
     2
370
    -2
100
AcDbLine
 10
748.417621
 20
31.056018
 30
0.0
 11
748.417621
 21
12.123763
 31
0.0
  0
SOLID
  5
218
330
213
100
AcDbEntity
  8
LC-001-100-D00-0
 62
     2
100
AcDbTrace
 10
740.084287
 20
132.556018
 30
0.0
 11
756.750954
 21
132.556018
 31
0.0
 12
748.417621
 22
82.556018
 32
0.0
 13
748.417621
 23
82.556018
 33
0.0
  0
SOLID
  5
219
330
213
100
AcDbEntity
  8
LC-001-100-D00-0
 62
     2
100
AcDbTrace
 10
756.750954
 20
31.056018
 30
0.0
 11
740.084287
 21
31.056018
 31
0.0
 12
748.417621
 22
81.056018
 32
0.0
 13
748.417621
 23
81.056018
 33
0.0
  0
MTEXT
  5
21A
330
213
100
AcDbEntity
  8
LC-001-100-D00-0
 62
     2
100
AcDbMText
 10
693.417621
 20
58.703446
 30
0.0
 40
50.0
 41
0.0
 71
     5
 72
     1
  1
\A1;1.5
  7
LCTX15-400-0-0pDIN-Schrift
 11
6.123031769111886E-17
 21
1.0
 31
0.0
 73
     1
 44
1.0
  0
POINT
  5
21B
330
213
100
AcDbEntity
  8
Defpoints
 62
     0
100
AcDbPoint
 10
657.906776
 20
82.556018
 30
0.0
  0
POINT
  5
21C
330
213
100
AcDbEntity
  8
Defpoints
 62
     0
100
AcDbPoint
 10
657.906776
 20
81.056018
 30
0.0
  0
POINT
  5
21D
330
213
100
AcDbEntity
  8
Defpoints
 62
     0
100
AcDbPoint
 10
748.417621
 20
81.056018
 30
0.0
  0
ENDBLK
  5
21F
330
213
100
AcDbEntity
  8
0
100
AcDbBlockEnd
  0
BLOCK
  5
22C
330
221
100
AcDbEntity
  8
0
100
AcDbBlockBegin
  2
*D17
 70
     1
 71
     0
 10
0.0
 20
0.0
 30
0.0
  3
*D17
  1

  0
LINE
  5
222
330
221
100
AcDbEntity
  8
LC-001-100-D00-0
 62
     2
370
    -2
100
AcDbLine
 10
657.906776
 20
81.056018
 30
0.0
 11
832.223662
 21
81.056018
 31
0.0
  0
LINE
  5
223
330
221
100
AcDbEntity
  8
LC-001-100-D00-0
 62
     2
370
    -2
100
AcDbLine
 10
610.406776
 20
62.556018
 30
0.0
 11
832.223662
 21
62.556018
 31
0.0
  0
LINE
  5
224
330
221
100
AcDbEntity
  8
LC-001-100-D00-0
 62
     2
370
    -2
100
AcDbLine
 10
823.223662
 20
131.056018
 30
0.0
 11
823.223662
 21
181.056018
 31
0.0
  0
LINE
  5
225
330
221
100
AcDbEntity
  8
LC-001-100-D00-0
 62
     2
370
    -2
100
AcDbLine
 10
823.223662
 20
12.556018
 30
0.0
 11
823.223662
 21
-15.833856
 31
0.0
  0
SOLID
  5
226
330
221
100
AcDbEntity
  8
LC-001-100-D00-0
 62
     2
100
AcDbTrace
 10
814.890329
 20
131.056018
 30
0.0
 11
831.556996
 21
131.056018
 31
0.0
 12
823.223662
 22
81.056018
 32
0.0
 13
823.223662
 23
81.056018
 33
0.0
  0
SOLID
  5
227
330
221
100
AcDbEntity
  8
LC-001-100-D00-0
 62
     2
100
AcDbTrace
 10
831.556996
 20
12.556018
 30
0.0
 11
814.890329
 21
12.556018
 31
0.0
 12
823.223662
 22
62.556018
 32
0.0
 13
823.223662
 23
62.556018
 33
0.0
  0
MTEXT
  5
228
330
221
100
AcDbEntity
  8
LC-001-100-D00-0
 62
     2
100
AcDbMText
 10
768.223662
 20
49.793446
 30
0.0
 40
50.0
 41
0.0
 71
     5
 72
     1
  1
\A1;18,5
  7
LCTX15-400-0-0pDIN-Schrift
 11
6.123031769111886E-17
 21
1.0
 31
0.0
 73
     1
 44
1.0
  0
POINT
  5
229
330
221
100
AcDbEntity
  8
Defpoints
 62
     0
100
AcDbPoint
 10
657.906776
 20
81.056018
 30
0.0
  0
POINT
  5
22A
330
221
100
AcDbEntity
  8
Defpoints
 62
     0
100
AcDbPoint
 10
610.406776
 20
62.556018
 30
0.0
  0
POINT
  5
22B
330
221
100
AcDbEntity
  8
Defpoints
 62
     0
100
AcDbPoint
 10
823.223662
 20
62.556018
 30
0.0
  0
ENDBLK
  5
22D
330
221
100
AcDbEntity
  8
0
100
AcDbBlockEnd
  0
BLOCK
  5
239
330
22F
100
AcDbEntity
  8
0
100
AcDbBlockBegin
  2
*D18
 70
     1
 71
     0
 10
0.0
 20
0.0
 30
0.0
  3
*D18
  1

  0
LINE
  5
230
330
22F
100
AcDbEntity
  8
LC-001-100-D00-0
 62
     2
370
    -2
100
AcDbLine
 10
657.906776
 20
82.556018
 30
0.0
 11
901.870667
 21
82.556018
 31
0.0
  0
LINE
  5
231
330
22F
100
AcDbEntity
  8
LC-001-100-D00-0
 62
     2
370
    -2
100
AcDbLine
 10
657.906776
 20
-40.943982
 30
0.0
 11
901.870667
 21
-40.943982
 31
0.0
  0
LINE
  5
232
330
22F
100
AcDbEntity
  8
LC-001-100-D00-0
 62
     2
370
    -2
100
AcDbLine
 10
892.870667
 20
32.556018
 30
0.0
 11
892.870667
 21
9.056018
 31
0.0
  0
SOLID
  5
233
330
22F
100
AcDbEntity
  8
LC-001-100-D00-0
 62
     2
100
AcDbTrace
 10
901.204
 20
32.556018
 30
0.0
 11
884.537333
 21
32.556018
 31
0.0
 12
892.870667
 22
82.556018
 32
0.0
 13
892.870667
 23
82.556018
 33
0.0
  0
SOLID
  5
234
330
22F
100
AcDbEntity
  8
LC-001-100-D00-0
 62
     2
100
AcDbTrace
 10
884.537333
 20
9.056018
 30
0.0
 11
901.204
 21
9.056018
 31
0.0
 12
892.870667
 22
-40.943982
 32
0.0
 13
892.870667
 23
-40.943982
 33
0.0
  0
MTEXT
  5
235
330
22F
100
AcDbEntity
  8
LC-001-100-D00-0
 62
     2
100
AcDbMText
 10
837.870667
 20
3.758446
 30
0.0
 40
50.0
 41
0.0
 71
     5
 72
     1
  1
\A1;123.5
  7
LCTX15-400-0-0pDIN-Schrift
 11
6.123031769111886E-17
 21
1.0
 31
0.0
 73
     1
 44
1.0
  0
POINT
  5
236
330
22F
100
AcDbEntity
  8
Defpoints
 62
     0
100
AcDbPoint
 10
657.906776
 20
82.556018
 30
0.0
  0
POINT
  5
237
330
22F
100
AcDbEntity
  8
Defpoints
 62
     0
100
AcDbPoint
 10
657.906776
 20
-40.943982
 30
0.0
  0
POINT
  5
238
330
22F
100
AcDbEntity
  8
Defpoints
 62
     0
100
AcDbPoint
 10
892.870667
 20
-40.943982
 30
0.0
  0
ENDBLK
  5
23A
330
22F
100
AcDbEntity
  8
0
100
AcDbBlockEnd
  0
BLOCK
  5
42B
330
42A
100
AcDbEntity
  8
0
100
AcDbBlockBegin
  2
KLON15
 70
     0
 71
     0
 10
0.0
 20
0.0
 30
0.0
  3
KLON15
  1

  4
KLON15
  0
LINE
  5
42D
330
42A
100
AcDbEntity
  8
LC-001-100-D00-0
 62
     7
370
    15
100
AcDbLine
 10
186.906789
 20
364.098443
 30
0.0
 11
186.904062
 21
364.09848
 31
0.0
  0
LINE
  5
42E
330
42A
100
AcDbEntity
  8
LC-001-100-D00-0
 62
     7
370
    15
100
AcDbLine
 10
186.904062
 20
364.09848
 30
0.0
 11
186.89948
 21
364.098674
 31
0.0
  0
LINE
  5
42F
330
42A
100
AcDbEntity
  8
LC-001-100-D00-0
 62
     7
370
    15
100
AcDbLine
 10
186.89948
 20
364.098674
 30
0.0
 11
186.890607
 21
364.099508
 31
0.0
  0
LINE
  5
430
330
42A
100
AcDbEntity
  8
LC-001-100-D00-0
 62
     7
370
    15
100
AcDbLine
 10
186.890607
 20
364.099508
 30
0.0
 11
186.888327
 21
364.099814
 31
0.0
  0
LINE
  5
431
330
42A
100
AcDbEntity
  8
LC-001-100-D00-0
 62
     7
370
    15
100
AcDbLine
 10
186.888327
 20
364.099814
 30
0.0
 11
186.887753
 21
364.099896
 31
0.0
  0
LINE
  5
432
330
42A
100
AcDbEntity
  8
LC-001-100-D00-0
 62
     7
370
    15
100
AcDbLine
 10
186.887753
 20
364.099896
 30
0.0
 11
186.887611
 21
364.099918
 31
0.0
  0
LINE
  5
433
330
42A
100
AcDbEntity
  8
LC-001-100-D00-0
 62
     7
370
    15
100
AcDbLine
 10
186.887611
 20
364.099918
 30
0.0
 11
186.768432
 21
364.149189
 31
0.0
  0
LINE
  5
434
330
42A
100
AcDbEntity
  8
LC-001-100-D00-0
 62
     7
370
    15
100
AcDbLine
 10
186.768432
 20
364.149189
 30
0.0
 11
185.927828
 21
364.962085
 31
0.0
  0
LINE
  5
435
330
42A
100
AcDbEntity
  8
LC-001-100-D00-0
 62
     7
370
    15
100
AcDbLine
 10
185.927828
 20
364.962085
 30
0.0
 11
184.839149
 21
366.287409
 31
0.0
  0
LINE
  5
436
330
42A
100
AcDbEntity
  8
LC-001-100-D00-0
 62
     7
370
    15
100
AcDbLine
 10
184.839149
 20
366.287409
 30
0.0
 11
183.413286
 21
368.19057
 31
0.0
  0
LINE
  5
437
330
42A
100
AcDbEntity
  8
LC-001-100-D00-0
 62
     7
370
    15
100
AcDbLine
 10
183.413286
 20
368.19057
 30
0.0
 11
181.360942
 21
371.156229
 31
0.0
  0
LINE
  5
438
330
42A
100
AcDbEntity
  8
LC-001-100-D00-0
 62
     7
370
    15
100
AcDbLine
 10
181.360942
 20
371.156229
 30
0.0
 11
178.990272
 21
374.797559
 31
0.0
  0
LINE
  5
439
330
42A
100
AcDbEntity
  8
LC-001-100-D00-0
 62
     7
370
    15
100
AcDbLine
 10
178.990272
 20
374.797559
 30
0.0
 11
178.882082
 21
374.963938
 31
0.0
  0
ENDBLK
  5
42C
330
42A
100
AcDbEntity
  8
0
100
AcDbBlockEnd
  0
BLOCK
  5
43C
330
43B
100
AcDbEntity
  8
0
100
AcDbBlockBegin
  2
KLON16
 70
     0
 71
     0
 10
0.0
 20
0.0
 30
0.0
  3
KLON16
  1

  4
KLON16
  0
LINE
  5
43E
330
43B
100
AcDbEntity
  8
LC-001-100-D00-0
 62
     7
370
    15
100
AcDbLine
 10
178.882082
 20
374.963938
 30
0.0
 11
178.140473
 21
377.342491
 31
0.0
  0
LINE
  5
43F
330
43B
100
AcDbEntity
  8
LC-001-100-D00-0
 62
     7
370
    15
100
AcDbLine
 10
178.140473
 20
377.342491
 30
0.0
 11
177.505736
 21
379.922917
 31
0.0
  0
LINE
  5
440
330
43B
100
AcDbEntity
  8
LC-001-100-D00-0
 62
     7
370
    15
100
AcDbLine
 10
177.505736
 20
379.922917
 30
0.0
 11
176.986527
 21
383.055097
 31
0.0
  0
LINE
  5
441
330
43B
100
AcDbEntity
  8
LC-001-100-D00-0
 62
     7
370
    15
100
AcDbLine
 10
176.986527
 20
383.055097
 30
0.0
 11
176.749688
 21
386.391973
 31
0.0
  0
LINE
  5
442
330
43B
100
AcDbEntity
  8
LC-001-100-D00-0
 62
     7
370
    15
100
AcDbLine
 10
176.749688
 20
386.391973
 30
0.0
 11
176.840608
 21
389.661743
 31
0.0
  0
LINE
  5
443
330
43B
100
AcDbEntity
  8
LC-001-100-D00-0
 62
     7
370
    15
100
AcDbLine
 10
176.840608
 20
389.661743
 30
0.0
 11
177.252424
 21
392.953119
 31
0.0
  0
LINE
  5
444
330
43B
100
AcDbEntity
  8
LC-001-100-D00-0
 62
     7
370
    15
100
AcDbLine
 10
177.252424
 20
392.953119
 30
0.0
 11
177.896318
 21
395.945905
 31
0.0
  0
LINE
  5
445
330
43B
100
AcDbEntity
  8
LC-001-100-D00-0
 62
     7
370
    15
100
AcDbLine
 10
177.896318
 20
395.945905
 30
0.0
 11
178.734948
 21
398.795834
 31
0.0
  0
LINE
  5
446
330
43B
100
AcDbEntity
  8
LC-001-100-D00-0
 62
     7
370
    15
100
AcDbLine
 10
178.734948
 20
398.795834
 30
0.0
 11
179.802608
 21
401.706858
 31
0.0
  0
LINE
  5
447
330
43B
100
AcDbEntity
  8
LC-001-100-D00-0
 62
     7
370
    15
100
AcDbLine
 10
179.802608
 20
401.706858
 30
0.0
 11
180.926484
 21
404.316964
 31
0.0
  0
LINE
  5
448
330
43B
100
AcDbEntity
  8
LC-001-100-D00-0
 62
     7
370
    15
100
AcDbLine
 10
180.926484
 20
404.316964
 30
0.0
 11
182.074901
 21
406.693673
 31
0.0
  0
LINE
  5
449
330
43B
100
AcDbEntity
  8
LC-001-100-D00-0
 62
     7
370
    15
100
AcDbLine
 10
182.074901
 20
406.693673
 30
0.0
 11
183.046718
 21
408.547787
 31
0.0
  0
LINE
  5
44A
330
43B
100
AcDbEntity
  8
LC-001-100-D00-0
 62
     7
370
    15
100
AcDbLine
 10
183.046718
 20
408.547787
 30
0.0
 11
183.588956
 21
409.534058
 31
0.0
  0
LINE
  5
44B
330
43B
100
AcDbEntity
  8
LC-001-100-D00-0
 62
     7
370
    15
100
AcDbLine
 10
183.588956
 20
409.534058
 30
0.0
 11
183.875655
 21
410.043584
 31
0.0
  0
LINE
  5
44C
330
43B
100
AcDbEntity
  8
LC-001-100-D00-0
 62
     7
370
    15
100
AcDbLine
 10
183.875655
 20
410.043584
 30
0.0
 11
183.906515
 21
410.097963
 31
0.0
  0
LINE
  5
44D
330
43B
100
AcDbEntity
  8
LC-001-100-D00-0
 62
     7
370
    15
100
AcDbLine
 10
183.906515
 20
410.097963
 30
0.0
 11
183.906791
 21
410.098447
 31
0.0
  0
ENDBLK
  5
43D
330
43B
100
AcDbEntity
  8
0
100
AcDbBlockEnd
  0
BLOCK
  5
453
330
452
100
AcDbEntity
  8
0
100
AcDbBlockBegin
  2
KLON17
 70
     0
 71
     0
 10
0.0
 20
0.0
 30
0.0
  3
KLON17
  1

  4
KLON17
  0
LINE
  5
455
330
452
100
AcDbEntity
  8
LC-001-100-D00-0
 62
     7
370
    15
100
AcDbLine
 10
178.22424
 20
373.598447
 30
0.0
 11
178.23102
 21
373.612723
 31
0.0
  0
LINE
  5
456
330
452
100
AcDbEntity
  8
LC-001-100-D00-0
 62
     7
370
    15
100
AcDbLine
 10
178.23102
 20
373.612723
 30
0.0
 11
178.882082
 21
374.963938
 31
0.0
  0
ENDBLK
  5
454
330
452
100
AcDbEntity
  8
0
100
AcDbBlockEnd
  0
BLOCK
  5
570
330
56F
100
AcDbEntity
  8
0
100
AcDbBlockBegin
  2
KLON18
 70
     0
 71
     0
 10
0.0
 20
0.0
 30
0.0
  3
KLON18
  1

  4
KLON18
  0
LINE
  5
572
330
56F
100
AcDbEntity
  8
LC-001-100-D00-0
 62
     7
370
    15
100
AcDbLine
 10
595.814471
 20
442.26661
 30
0.0
 11
598.370795
 21
442.359906
 31
0.0
  0
LINE
  5
573
330
56F
100
AcDbEntity
  8
LC-001-100-D00-0
 62
     7
370
    15
100
AcDbLine
 10
598.370795
 20
442.359906
 30
0.0
 11
600.516592
 21
442.438219
 31
0.0
  0
LINE
  5
574
330
56F
100
AcDbEntity
  8
LC-001-100-D00-0
 62
     7
370
    15
100
AcDbLine
 10
600.516592
 20
442.438219
 30
0.0
 11
602.246706
 21
442.501363
 31
0.0
  0
LINE
  5
575
330
56F
100
AcDbEntity
  8
LC-001-100-D00-0
 62
     7
370
    15
100
AcDbLine
 10
602.246706
 20
442.501363
 30
0.0
 11
603.557055
 21
442.549184
 31
0.0
  0
LINE
  5
576
330
56F
100
AcDbEntity
  8
LC-001-100-D00-0
 62
     7
370
    15
100
AcDbLine
 10
603.557055
 20
442.549184
 30
0.0
 11
604.444449
 21
442.581572
 31
0.0
  0
LINE
  5
577
330
56F
100
AcDbEntity
  8
LC-001-100-D00-0
 62
     7
370
    15
100
AcDbLine
 10
604.444449
 20
442.581572
 30
0.0
 11
604.906802
 21
442.598446
 31
0.0
  0
ENDBLK
  5
571
330
56F
100
AcDbEntity
  8
0
100
AcDbBlockEnd
  0
BLOCK
  5
57A
330
579
100
AcDbEntity
  8
0
100
AcDbBlockBegin
  2
KLON19
 70
     0
 71
     0
 10
0.0
 20
0.0
 30
0.0
  3
KLON19
  1

  4
KLON19
  0
LINE
  5
57C
330
579
100
AcDbEntity
  8
LC-001-100-D00-0
 62
     7
370
    15
100
AcDbLine
 10
-370.000894
 20
442.26661
 30
0.0
 11
-372.557218
 21
442.359906
 31
0.0
  0
LINE
  5
57D
330
579
100
AcDbEntity
  8
LC-001-100-D00-0
 62
     7
370
    15
100
AcDbLine
 10
-372.557218
 20
442.359906
 30
0.0
 11
-374.703015
 21
442.438219
 31
0.0
  0
LINE
  5
57E
330
579
100
AcDbEntity
  8
LC-001-100-D00-0
 62
     7
370
    15
100
AcDbLine
 10
-374.703015
 20
442.438219
 30
0.0
 11
-376.43313
 21
442.501363
 31
0.0
  0
LINE
  5
57F
330
579
100
AcDbEntity
  8
LC-001-100-D00-0
 62
     7
370
    15
100
AcDbLine
 10
-376.43313
 20
442.501363
 30
0.0
 11
-377.743478
 21
442.549184
 31
0.0
  0
LINE
  5
580
330
579
100
AcDbEntity
  8
LC-001-100-D00-0
 62
     7
370
    15
100
AcDbLine
 10
-377.743478
 20
442.549184
 30
0.0
 11
-378.630872
 21
442.581572
 31
0.0
  0
LINE
  5
581
330
579
100
AcDbEntity
  8
LC-001-100-D00-0
 62
     7
370
    15
100
AcDbLine
 10
-378.630872
 20
442.581572
 30
0.0
 11
-379.093225
 21
442.598446
 31
0.0
  0
ENDBLK
  5
57B
330
579
100
AcDbEntity
  8
0
100
AcDbBlockEnd
  0
BLOCK
  5
59B
330
59A
100
AcDbEntity
  8
0
100
AcDbBlockBegin
  2
KLON20
 70
     0
 71
     0
 10
0.0
 20
0.0
 30
0.0
  3
KLON20
  1

  4
KLON20
  0
LINE
  5
59D
330
59A
100
AcDbEntity
  8
LC-001-100-D00-0
 62
     7
370
    15
100
AcDbLine
 10
66.787173
 20
430.598444
 30
0.0
 11
66.800703
 21
430.439739
 31
0.0
  0
LINE
  5
59E
330
59A
100
AcDbEntity
  8
LC-001-100-D00-0
 62
     7
370
    15
100
AcDbLine
 10
66.800703
 20
430.439739
 30
0.0
 11
66.962627
 21
429.855319
 31
0.0
  0
LINE
  5
59F
330
59A
100
AcDbEntity
  8
LC-001-100-D00-0
 62
     7
370
    15
100
AcDbLine
 10
66.962627
 20
429.855319
 30
0.0
 11
67.212493
 21
429.409014
 31
0.0
  0
LINE
  5
5A0
330
59A
100
AcDbEntity
  8
LC-001-100-D00-0
 62
     7
370
    15
100
AcDbLine
 10
67.212493
 20
429.409014
 30
0.0
 11
67.523793
 21
429.150263
 31
0.0
  0
LINE
  5
5A1
330
59A
100
AcDbEntity
  8
LC-001-100-D00-0
 62
     7
370
    15
100
AcDbLine
 10
67.523793
 20
429.150263
 30
0.0
 11
67.661286
 21
429.106506
 31
0.0
  0
ENDBLK
  5
59C
330
59A
100
AcDbEntity
  8
0
100
AcDbBlockEnd
  0
BLOCK
  5
5A4
330
5A3
100
AcDbEntity
  8
0
100
AcDbBlockBegin
  2
KLON21
 70
     0
 71
     0
 10
0.0
 20
0.0
 30
0.0
  3
KLON21
  1

  4
KLON21
  0
LINE
  5
5A6
330
5A3
100
AcDbEntity
  8
LC-001-100-D00-0
 62
     7
370
    15
100
AcDbLine
 10
604.879413
 20
444.098445
 30
0.0
 11
604.878728
 21
444.136426
 31
0.0
  0
LINE
  5
5A7
330
5A3
100
AcDbEntity
  8
LC-001-100-D00-0
 62
     7
370
    15
100
AcDbLine
 10
604.878728
 20
444.136426
 30
0.0
 11
604.876672
 21
444.249213
 31
0.0
  0
LINE
  5
5A8
330
5A3
100
AcDbEntity
  8
LC-001-100-D00-0
 62
     7
370
    15
100
AcDbLine
 10
604.876672
 20
444.249213
 30
0.0
 11
604.873304
 21
444.433382
 31
0.0
  0
LINE
  5
5A9
330
5A3
100
AcDbEntity
  8
LC-001-100-D00-0
 62
     7
370
    15
100
AcDbLine
 10
604.873304
 20
444.433382
 30
0.0
 11
604.868744
 21
444.683334
 31
0.0
  0
LINE
  5
5AA
330
5A3
100
AcDbEntity
  8
LC-001-100-D00-0
 62
     7
370
    15
100
AcDbLine
 10
604.868744
 20
444.683334
 30
0.0
 11
604.863141
 21
444.991477
 31
0.0
  0
LINE
  5
5AB
330
5A3
100
AcDbEntity
  8
LC-001-100-D00-0
 62
     7
370
    15
100
AcDbLine
 10
604.863141
 20
444.991477
 30
0.0
 11
604.856615
 21
445.348446
 31
0.0
  0
LINE
  5
5AC
330
5A3
100
AcDbEntity
  8
LC-001-100-D00-0
 62
     7
370
    15
100
AcDbLine
 10
604.856615
 20
445.348446
 30
0.0
 11
604.849432
 21
445.743395
 31
0.0
  0
LINE
  5
5AD
330
5A3
100
AcDbEntity
  8
LC-001-100-D00-0
 62
     7
370
    15
100
AcDbLine
 10
604.849432
 20
445.743395
 30
0.0
 11
604.841743
 21
446.164325
 31
0.0
  0
LINE
  5
5AE
330
5A3
100
AcDbEntity
  8
LC-001-100-D00-0
 62
     7
370
    15
100
AcDbLine
 10
604.841743
 20
446.164325
 30
0.0
 11
604.833816
 21
446.598446
 31
0.0
  0
ENDBLK
  5
5A5
330
5A3
100
AcDbEntity
  8
0
100
AcDbBlockEnd
  0
BLOCK
  5
5B1
330
5B0
100
AcDbEntity
  8
0
100
AcDbBlockBegin
  2
KLON22
 70
     0
 71
     0
 10
0.0
 20
0.0
 30
0.0
  3
KLON22
  1

  4
KLON22
  0
LINE
  5
5B3
330
5B0
100
AcDbEntity
  8
LC-001-100-D00-0
 62
     7
370
    15
100
AcDbLine
 10
-379.065837
 20
444.098445
 30
0.0
 11
-379.065152
 21
444.136426
 31
0.0
  0
LINE
  5
5B4
330
5B0
100
AcDbEntity
  8
LC-001-100-D00-0
 62
     7
370
    15
100
AcDbLine
 10
-379.065152
 20
444.136426
 30
0.0
 11
-379.063095
 21
444.249213
 31
0.0
  0
LINE
  5
5B5
330
5B0
100
AcDbEntity
  8
LC-001-100-D00-0
 62
     7
370
    15
100
AcDbLine
 10
-379.063095
 20
444.249213
 30
0.0
 11
-379.059728
 21
444.433382
 31
0.0
  0
LINE
  5
5B6
330
5B0
100
AcDbEntity
  8
LC-001-100-D00-0
 62
     7
370
    15
100
AcDbLine
 10
-379.059728
 20
444.433382
 30
0.0
 11
-379.055168
 21
444.683334
 31
0.0
  0
LINE
  5
5B7
330
5B0
100
AcDbEntity
  8
LC-001-100-D00-0
 62
     7
370
    15
100
AcDbLine
 10
-379.055168
 20
444.683334
 30
0.0
 11
-379.049565
 21
444.991477
 31
0.0
  0
LINE
  5
5B8
330
5B0
100
AcDbEntity
  8
LC-001-100-D00-0
 62
     7
370
    15
100
AcDbLine
 10
-379.049565
 20
444.991477
 30
0.0
 11
-379.043038
 21
445.348446
 31
0.0
  0
LINE
  5
5B9
330
5B0
100
AcDbEntity
  8
LC-001-100-D00-0
 62
     7
370
    15
100
AcDbLine
 10
-379.043038
 20
445.348446
 30
0.0
 11
-379.035856
 21
445.743395
 31
0.0
  0
LINE
  5
5BA
330
5B0
100
AcDbEntity
  8
LC-001-100-D00-0
 62
     7
370
    15
100
AcDbLine
 10
-379.035856
 20
445.743395
 30
0.0
 11
-379.028167
 21
446.164325
 31
0.0
  0
LINE
  5
5BB
330
5B0
100
AcDbEntity
  8
LC-001-100-D00-0
 62
     7
370
    15
100
AcDbLine
 10
-379.028167
 20
446.164325
 30
0.0
 11
-379.020239
 21
446.598446
 31
0.0
  0
ENDBLK
  5
5B2
330
5B0
100
AcDbEntity
  8
0
100
AcDbBlockEnd
  0
BLOCK
  5
5D9
330
5CE
100
AcDbEntity
  8
0
100
AcDbBlockBegin
  2
*D27
 70
     1
 71
     0
 10
0.0
 20
0.0
 30
0.0
  3
*D27
  1

  0
LINE
  5
5CF
330
5CE
100
AcDbEntity
  8
LC-001-100-D00-0
 62
     2
370
    -2
100
AcDbLine
 10
-437.093212
 20
464.598446
 30
0.0
 11
-493.949049
 21
464.598446
 31
0.0
  0
LINE
  5
5D0
330
5CE
100
AcDbEntity
  8
LC-001-100-D00-0
 62
     2
370
    -2
100
AcDbLine
 10
-432.093212
 20
510.598446
 30
0.0
 11
-493.949049
 21
510.598446
 31
0.0
  0
LINE
  5
5D1
330
5CE
100
AcDbEntity
  8
LC-001-100-D00-0
 62
     2
370
    -2
100
AcDbLine
 10
-484.949049
 20
414.598446
 30
0.0
 11
-484.949049
 21
364.598446
 31
0.0
  0
LINE
  5
5D2
330
5CE
100
AcDbEntity
  8
LC-001-100-D00-0
 62
     2
370
    -2
100
AcDbLine
 10
-484.949049
 20
560.598446
 30
0.0
 11
-484.949049
 21
568.915875
 31
0.0
  0
SOLID
  5
5D3
330
5CE
100
AcDbEntity
  8
LC-001-100-D00-0
 62
     2
100
AcDbTrace
 10
-476.615715
 20
414.598446
 30
0.0
 11
-493.282382
 21
414.598446
 31
0.0
 12
-484.949049
 22
464.598446
 32
0.0
 13
-484.949049
 23
464.598446
 33
0.0
  0
SOLID
  5
5D4
330
5CE
100
AcDbEntity
  8
LC-001-100-D00-0
 62
     2
100
AcDbTrace
 10
-493.282382
 20
560.598446
 30
0.0
 11
-476.615715
 21
560.598446
 31
0.0
 12
-484.949049
 22
510.598446
 32
0.0
 13
-484.949049
 23
510.598446
 33
0.0
  0
MTEXT
  5
5D5
330
5CE
100
AcDbEntity
  8
LC-001-100-D00-0
 62
     2
100
AcDbMText
 10
-539.949049
 20
526.478446
 30
0.0
 40
50.0
 41
0.0
 71
     5
 72
     1
  1
\A1;46
  7
LCTX15-400-0-0pDIN-Schrift
 11
6.123031769111886E-17
 21
1.0
 31
0.0
 73
     1
 44
1.0
  0
POINT
  5
5D6
330
5CE
100
AcDbEntity
  8
Defpoints
 62
     0
100
AcDbPoint
 10
-437.093212
 20
464.598446
 30
0.0
  0
POINT
  5
5D7
330
5CE
100
AcDbEntity
  8
Defpoints
 62
     0
100
AcDbPoint
 10
-432.093212
 20
510.598446
 30
0.0
  0
POINT
  5
5D8
330
5CE
100
AcDbEntity
  8
Defpoints
 62
     0
100
AcDbPoint
 10
-484.949049
 20
510.598446
 30
0.0
  0
ENDBLK
  5
5DA
330
5CE
100
AcDbEntity
  8
0
100
AcDbBlockEnd
  0
BLOCK
  5
5E8
330
5DC
100
AcDbEntity
  8
0
100
AcDbBlockBegin
  2
*D28
 70
     1
 71
     0
 10
0.0
 20
0.0
 30
0.0
  3
*D28
  1

  0
LINE
  5
5DD
330
5DC
100
AcDbEntity
  8
LC-001-100-D00-0
 62
     2
370
    -2
100
AcDbLine
 10
83.906788
 20
372.698446
 30
0.0
 11
-72.089794
 21
372.698446
 31
0.0
  0
LINE
  5
5DE
330
5DC
100
AcDbEntity
  8
LC-001-100-D00-0
 62
     2
370
    -2
100
AcDbLine
 10
79.978424
 20
423.098446
 30
0.0
 11
-72.089794
 21
423.098446
 31
0.0
  0
LINE
  5
5DF
330
5DC
100
AcDbEntity
  8
LC-001-100-D00-0
 62
     2
370
    -2
100
AcDbLine
 10
-63.089794
 20
322.698446
 30
0.0
 11
-63.089794
 21
272.698446
 31
0.0
  0
LINE
  5
5E0
330
5DC
100
AcDbEntity
  8
LC-001-100-D00-0
 62
     2
370
    -2
100
AcDbLine
 10
-63.089794
 20
473.098446
 30
0.0
 11
-63.089794
 21
523.098446
 31
0.0
  0
LINE
  5
5E1
330
5DC
100
AcDbEntity
  8
LC-001-100-D00-0
 62
     2
370
    -2
100
AcDbLine
 10
-63.089794
 20
372.698446
 30
0.0
 11
-63.089794
 21
423.098446
 31
0.0
  0
SOLID
  5
5E2
330
5DC
100
AcDbEntity
  8
LC-001-100-D00-0
 62
     2
100
AcDbTrace
 10
-54.756461
 20
322.698446
 30
0.0
 11
-71.423128
 21
322.698446
 31
0.0
 12
-63.089794
 22
372.698446
 32
0.0
 13
-63.089794
 23
372.698446
 33
0.0
  0
SOLID
  5
5E3
330
5DC
100
AcDbEntity
  8
LC-001-100-D00-0
 62
     2
100
AcDbTrace
 10
-71.423128
 20
473.098446
 30
0.0
 11
-54.756461
 21
473.098446
 31
0.0
 12
-63.089794
 22
423.098446
 32
0.0
 13
-63.089794
 23
423.098446
 33
0.0
  0
MTEXT
  5
5E4
330
5DC
100
AcDbEntity
  8
LC-001-100-D00-0
 62
     2
100
AcDbMText
 10
-118.089794
 20
397.677193
 30
0.0
 40
50.0
 41
0.0
 71
     5
 72
     1
  1
\A1;50
  7
LCTX15-400-0-0pDIN-Schrift
 11
6.123031769111886E-17
 21
1.0
 31
0.0
 73
     1
 44
1.0
  0
POINT
  5
5E5
330
5DC
100
AcDbEntity
  8
Defpoints
 62
     0
100
AcDbPoint
 10
83.906788
 20
372.698446
 30
0.0
  0
POINT
  5
5E6
330
5DC
100
AcDbEntity
  8
Defpoints
 62
     0
100
AcDbPoint
 10
79.978424
 20
423.098446
 30
0.0
  0
POINT
  5
5E7
330
5DC
100
AcDbEntity
  8
Defpoints
 62
     0
100
AcDbPoint
 10
-63.089794
 20
423.098446
 30
0.0
  0
ENDBLK
  5
5E9
330
5DC
100
AcDbEntity
  8
0
100
AcDbBlockEnd
  0
BLOCK
  5
5F5
330
5EB
100
AcDbEntity
  8
0
100
AcDbBlockBegin
  2
*D29
 70
     1
 71
     0
 10
0.0
 20
0.0
 30
0.0
  3
*D29
  1

  0
LINE
  5
5EC
330
5EB
100
AcDbEntity
  8
LC-001-100-D00-0
 62
     2
370
    -2
100
AcDbLine
 10
38.906788
 20
373.598446
 30
0.0
 11
38.906788
 21
262.058446
 31
0.0
  0
LINE
  5
5ED
330
5EB
100
AcDbEntity
  8
LC-001-100-D00-0
 62
     2
370
    -2
100
AcDbLine
 10
186.906788
 20
413.848446
 30
0.0
 11
186.906788
 21
262.058446
 31
0.0
  0
LINE
  5
5EE
330
5EB
100
AcDbEntity
  8
LC-001-100-D00-0
 62
     2
370
    -2
100
AcDbLine
 10
88.906788
 20
271.058446
 30
0.0
 11
136.906788
 21
271.058446
 31
0.0
  0
SOLID
  5
5EF
330
5EB
100
AcDbEntity
  8
LC-001-100-D00-0
 62
     2
100
AcDbTrace
 10
88.906788
 20
279.391779
 30
0.0
 11
88.906788
 21
262.725112
 31
0.0
 12
38.906788
 22
271.058446
 32
0.0
 13
38.906788
 23
271.058446
 33
0.0
  0
SOLID
  5
5F0
330
5EB
100
AcDbEntity
  8
LC-001-100-D00-0
 62
     2
100
AcDbTrace
 10
136.906788
 20
262.725112
 30
0.0
 11
136.906788
 21
279.391779
 31
0.0
 12
186.906788
 22
271.058446
 32
0.0
 13
186.906788
 23
271.058446
 33
0.0
  0
MTEXT
  5
5F1
330
5EB
100
AcDbEntity
  8
LC-001-100-D00-0
 62
     2
100
AcDbMText
 10
103.53795
 20
326.058446
 30
0.0
 40
50.0
 41
0.0
 71
     5
 72
     1
  1
\A1;148
  7
LCTX15-400-0-0pDIN-Schrift
 73
     1
 44
1.0
  0
POINT
  5
5F2
330
5EB
100
AcDbEntity
  8
Defpoints
 62
     0
100
AcDbPoint
 10
38.906788
 20
373.598446
 30
0.0
  0
POINT
  5
5F3
330
5EB
100
AcDbEntity
  8
Defpoints
 62
     0
100
AcDbPoint
 10
186.906788
 20
413.848446
 30
0.0
  0
POINT
  5
5F4
330
5EB
100
AcDbEntity
  8
Defpoints
 62
     0
100
AcDbPoint
 10
186.906788
 20
271.058446
 30
0.0
  0
ENDBLK
  5
5F6
330
5EB
100
AcDbEntity
  8
0
100
AcDbBlockEnd
  0
BLOCK
  5
603
330
5F8
100
AcDbEntity
  8
0
100
AcDbBlockBegin
  2
*D30
 70
     1
 71
     0
 10
0.0
 20
0.0
 30
0.0
  3
*D30
  1

  0
LINE
  5
5F9
330
5F8
100
AcDbEntity
  8
LC-001-100-D00-0
 62
     2
370
    -2
100
AcDbLine
 10
662.906788
 20
464.598446
 30
0.0
 11
744.520027
 21
464.598446
 31
0.0
  0
LINE
  5
5FA
330
5F8
100
AcDbEntity
  8
LC-001-100-D00-0
 62
     2
370
    -2
100
AcDbLine
 10
328.906585
 20
387.098446
 30
0.0
 11
744.520027
 21
387.098446
 31
0.0
  0
LINE
  5
5FB
330
5F8
100
AcDbEntity
  8
LC-001-100-D00-0
 62
     2
370
    -2
100
AcDbLine
 10
735.520027
 20
514.598446
 30
0.0
 11
735.520027
 21
564.598446
 31
0.0
  0
LINE
  5
5FC
330
5F8
100
AcDbEntity
  8
LC-001-100-D00-0
 62
     2
370
    -2
100
AcDbLine
 10
735.520027
 20
337.098446
 30
0.0
 11
735.520027
 21
283.29662
 31
0.0
  0
SOLID
  5
5FD
330
5F8
100
AcDbEntity
  8
LC-001-100-D00-0
 62
     2
100
AcDbTrace
 10
727.186694
 20
514.598446
 30
0.0
 11
743.85336
 21
514.598446
 31
0.0
 12
735.520027
 22
464.598446
 32
0.0
 13
735.520027
 23
464.598446
 33
0.0
  0
SOLID
  5
5FE
330
5F8
100
AcDbEntity
  8
LC-001-100-D00-0
 62
     2
100
AcDbTrace
 10
743.85336
 20
337.098446
 30
0.0
 11
727.186694
 21
337.098446
 31
0.0
 12
735.520027
 22
387.098446
 32
0.0
 13
735.520027
 23
387.098446
 33
0.0
  0
MTEXT
  5
5FF
330
5F8
100
AcDbEntity
  8
LC-001-100-D00-0
 62
     2
100
AcDbMText
 10
680.520027
 20
352.733446
 30
0.0
 40
50.0
 41
0.0
 71
     5
 72
     1
  1
\A1;77.5
  7
LCTX15-400-0-0pDIN-Schrift
 11
6.123031769111886E-17
 21
1.0
 31
0.0
 73
     1
 44
1.0
  0
POINT
  5
600
330
5F8
100
AcDbEntity
  8
Defpoints
 62
     0
100
AcDbPoint
 10
662.906788
 20
464.598446
 30
0.0
  0
POINT
  5
601
330
5F8
100
AcDbEntity
  8
Defpoints
 62
     0
100
AcDbPoint
 10
328.906585
 20
387.098446
 30
0.0
  0
POINT
  5
602
330
5F8
100
AcDbEntity
  8
Defpoints
 62
     0
100
AcDbPoint
 10
735.520027
 20
387.098446
 30
0.0
  0
ENDBLK
  5
604
330
5F8
100
AcDbEntity
  8
0
100
AcDbBlockEnd
  0
BLOCK
  5
612
330
606
100
AcDbEntity
  8
0
100
AcDbBlockBegin
  2
*D31
 70
     1
 71
     0
 10
0.0
 20
0.0
 30
0.0
  3
*D31
  1

  0
LINE
  5
607
330
606
100
AcDbEntity
  8
LC-001-100-D00-0
 62
     2
370
    -2
100
AcDbLine
 10
662.906788
 20
464.598446
 30
0.0
 11
860.598368
 21
464.598446
 31
0.0
  0
LINE
  5
608
330
606
100
AcDbEntity
  8
LC-001-100-D00-0
 62
     2
370
    -2
100
AcDbLine
 10
166.924668
 20
354.598446
 30
0.0
 11
860.598368
 21
354.598446
 31
0.0
  0
LINE
  5
609
330
606
100
AcDbEntity
  8
LC-001-100-D00-0
 62
     2
370
    -2
100
AcDbLine
 10
851.598368
 20
514.598446
 30
0.0
 11
851.598368
 21
564.598446
 31
0.0
  0
LINE
  5
60A
330
606
100
AcDbEntity
  8
LC-001-100-D00-0
 62
     2
370
    -2
100
AcDbLine
 10
851.598368
 20
304.598446
 30
0.0
 11
851.598368
 21
254.598446
 31
0.0
  0
LINE
  5
60B
330
606
100
AcDbEntity
  8
LC-001-100-D00-0
 62
     2
370
    -2
100
AcDbLine
 10
851.598368
 20
464.598446
 30
0.0
 11
851.598368
 21
354.598446
 31
0.0
  0
SOLID
  5
60C
330
606
100
AcDbEntity
  8
LC-001-100-D00-0
 62
     2
100
AcDbTrace
 10
843.265034
 20
514.598446
 30
0.0
 11
859.931701
 21
514.598446
 31
0.0
 12
851.598368
 22
464.598446
 32
0.0
 13
851.598368
 23
464.598446
 33
0.0
  0
SOLID
  5
60D
330
606
100
AcDbEntity
  8
LC-001-100-D00-0
 62
     2
100
AcDbTrace
 10
859.931701
 20
304.598446
 30
0.0
 11
843.265034
 21
304.598446
 31
0.0
 12
851.598368
 22
354.598446
 32
0.0
 13
851.598368
 23
354.598446
 33
0.0
  0
MTEXT
  5
60E
330
606
100
AcDbEntity
  8
LC-001-100-D00-0
 62
     2
100
AcDbMText
 10
796.598368
 20
395.798446
 30
0.0
 40
50.0
 41
0.0
 71
     5
 72
     1
  1
\A1;110
  7
LCTX15-400-0-0pDIN-Schrift
 11
6.123031769111886E-17
 21
1.0
 31
0.0
 73
     1
 44
1.0
  0
POINT
  5
60F
330
606
100
AcDbEntity
  8
Defpoints
 62
     0
100
AcDbPoint
 10
662.906788
 20
464.598446
 30
0.0
  0
POINT
  5
610
330
606
100
AcDbEntity
  8
Defpoints
 62
     0
100
AcDbPoint
 10
166.924668
 20
354.598446
 30
0.0
  0
POINT
  5
611
330
606
100
AcDbEntity
  8
Defpoints
 62
     0
100
AcDbPoint
 10
851.598368
 20
354.598446
 30
0.0
  0
ENDBLK
  5
613
330
606
100
AcDbEntity
  8
0
100
AcDbBlockEnd
  0
BLOCK
  5
615
330
614
100
AcDbEntity
  8
0
100
AcDbBlockBegin
  2
KLON23
 70
     0
 71
     0
 10
0.0
 20
0.0
 30
0.0
  3
KLON23
  1

  4
KLON23
  0
LINE
  5
617
330
614
100
AcDbEntity
  8
LC-001-100-D00-0
 62
     7
370
    50
100
AcDbLine
 10
140.406788
 20
377.225751
 30
0.0
 11
141.906788
 21
378.725751
 31
0.0
  0
LINE
  5
618
330
614
100
AcDbEntity
  8
LC-001-100-D00-0
 62
     7
370
    50
100
AcDbLine
 10
140.406788
 20
399.676392
 30
0.0
 11
141.906788
 21
401.176392
 31
0.0
  0
LINE
  5
619
330
614
100
AcDbEntity
  8
LC-001-100-D00-0
 62
     7
370
    50
100
AcDbLine
 10
140.406788
 20
422.127034
 30
0.0
 11
141.966146
 21
423.686391
 31
0.0
  0
LINE
  5
61A
330
614
100
AcDbEntity
  8
LC-001-100-D00-0
 62
     7
370
    50
100
AcDbLine
 10
150.818842
 20
432.539088
 30
0.0
 11
156.878199
 21
438.598446
 31
0.0
  0
ENDBLK
  5
616
330
614
100
AcDbEntity
  8
0
100
AcDbBlockEnd
  0
BLOCK
  5
61D
330
61C
100
AcDbEntity
  8
0
100
AcDbBlockBegin
  2
KLON24
 70
     0
 71
     0
 10
0.0
 20
0.0
 30
0.0
  3
KLON24
  1

  4
KLON24
  0
LINE
  5
61F
330
61C
100
AcDbEntity
  8
LC-001-100-D00-0
 62
     7
370
    50
100
AcDbLine
 10
83.906788
 20
388.077671
 30
0.0
 11
85.406788
 21
389.577671
 31
0.0
  0
LINE
  5
620
330
61C
100
AcDbEntity
  8
LC-001-100-D00-0
 62
     7
370
    50
100
AcDbLine
 10
83.906788
 20
410.528312
 30
0.0
 11
85.406788
 21
412.028312
 31
0.0
  0
LINE
  5
621
330
61C
100
AcDbEntity
  8
LC-001-100-D00-0
 62
     7
370
    50
100
AcDbLine
 10
80.785043
 20
429.857207
 30
0.0
 11
85.406788
 21
434.478953
 31
0.0
  0
LINE
  5
622
330
61C
100
AcDbEntity
  8
LC-001-100-D00-0
 62
     7
370
    50
100
AcDbLine
 10
61.075642
 20
432.598446
 30
0.0
 11
67.075641
 21
438.598446
 31
0.0
  0
ENDBLK
  5
61E
330
61C
100
AcDbEntity
  8
0
100
AcDbBlockEnd
  0
BLOCK
  5
625
330
624
100
AcDbEntity
  8
0
100
AcDbBlockBegin
  2
KLON25
 70
     0
 71
     0
 10
0.0
 20
0.0
 30
0.0
  3
KLON25
  1

  4
KLON25
  0
LINE
  5
627
330
624
100
AcDbEntity
  8
LC-001-100-D00-0
 62
     7
370
    50
100
AcDbLine
 10
142.730123
 20
357.098446
 30
0.0
 11
144.230123
 21
358.598446
 31
0.0
  0
LINE
  5
628
330
624
100
AcDbEntity
  8
LC-001-100-D00-0
 62
     7
370
    50
100
AcDbLine
 10
152.406788
 20
366.775111
 30
0.0
 11
153.906788
 21
368.275111
 31
0.0
  0
LINE
  5
629
330
624
100
AcDbEntity
  8
LC-001-100-D00-0
 62
     7
370
    50
100
AcDbLine
 10
120.279484
 20
357.098446
 30
0.0
 11
121.779484
 21
358.598446
 31
0.0
  0
LINE
  5
62A
330
624
100
AcDbEntity
  8
LC-001-100-D00-0
 62
     7
370
    50
100
AcDbLine
 10
152.406788
 20
389.225752
 30
0.0
 11
153.906788
 21
390.725752
 31
0.0
  0
LINE
  5
62B
330
624
100
AcDbEntity
  8
LC-001-100-D00-0
 62
     7
370
    50
100
AcDbLine
 10
97.828844
 20
357.098446
 30
0.0
 11
99.328844
 21
358.598446
 31
0.0
  0
LINE
  5
62C
330
624
100
AcDbEntity
  8
LC-001-100-D00-0
 62
     7
370
    50
100
AcDbLine
 10
152.406788
 20
411.676393
 30
0.0
 11
153.906788
 21
413.176393
 31
0.0
  0
LINE
  5
62D
330
624
100
AcDbEntity
  8
LC-001-100-D00-0
 62
     7
370
    50
100
AcDbLine
 10
75.562348
 20
357.282588
 30
0.0
 11
76.878321
 21
358.598561
 31
0.0
  0
LINE
  5
62E
330
624
100
AcDbEntity
  8
LC-001-100-D00-0
 62
     7
370
    50
100
AcDbLine
 10
71.906788
 20
376.07767
 30
0.0
 11
73.406788
 21
377.57767
 31
0.0
  0
LINE
  5
62F
330
624
100
AcDbEntity
  8
LC-001-100-D00-0
 62
     7
370
    50
100
AcDbLine
 10
71.906788
 20
398.528311
 30
0.0
 11
73.406788
 21
400.028311
 31
0.0
  0
LINE
  5
630
330
624
100
AcDbEntity
  8
LC-001-100-D00-0
 62
     7
370
    50
100
AcDbLine
 10
71.906788
 20
420.978952
 30
0.0
 11
73.406788
 21
422.478952
 31
0.0
  0
LINE
  5
631
330
624
100
AcDbEntity
  8
LC-001-100-D00-0
 62
     7
370
    50
100
AcDbLine
 10
59.075642
 20
430.598446
 30
0.0
 11
61.075642
 21
432.598446
 31
0.0
  0
ENDBLK
  5
626
330
624
100
AcDbEntity
  8
0
100
AcDbBlockEnd
  0
BLOCK
  5
635
330
634
100
AcDbEntity
  8
0
100
AcDbBlockBegin
  2
KLON26
 70
     0
 71
     0
 10
0.0
 20
0.0
 30
0.0
  3
KLON26
  1

  4
KLON26
  0
LINE
  5
637
330
634
100
AcDbEntity
  8
LC-001-100-D00-0
 62
     7
370
    50
100
AcDbLine
 10
183.906788
 20
420.725754
 30
0.0
 11
186.906788
 21
423.725755
 31
0.0
  0
LINE
  5
638
330
634
100
AcDbEntity
  8
LC-001-100-D00-0
 62
     7
370
    50
100
AcDbLine
 10
177.906788
 20
437.176395
 30
0.0
 11
178.328839
 21
437.598446
 31
0.0
  0
ENDBLK
  5
636
330
634
100
AcDbEntity
  8
0
100
AcDbBlockEnd
  0
BLOCK
  5
63C
330
63B
100
AcDbEntity
  8
0
100
AcDbBlockBegin
  2
KLON27
 70
     0
 71
     0
 10
0.0
 20
0.0
 30
0.0
  3
KLON27
  1

  4
KLON27
  0
LINE
  5
63E
330
63B
100
AcDbEntity
  8
LC-001-100-D00-0
 62
     7
370
    50
100
AcDbLine
 10
210.849483
 20
357.865887
 30
0.0
 11
217.082041
 21
364.098446
 31
0.0
  0
LINE
  5
63F
330
63B
100
AcDbEntity
  8
LC-001-100-D00-0
 62
     7
370
    50
100
AcDbLine
 10
191.631402
 20
361.098446
 30
0.0
 11
194.631402
 21
364.098446
 31
0.0
  0
LINE
  5
640
330
63B
100
AcDbEntity
  8
LC-001-100-D00-0
 62
     7
370
    50
100
AcDbLine
 10
162.680763
 20
354.598446
 30
0.0
 11
165.680763
 21
357.598446
 31
0.0
  0
LINE
  5
641
330
63B
100
AcDbEntity
  8
LC-001-100-D00-0
 62
     7
370
    50
100
AcDbLine
 10
170.906788
 20
362.824471
 30
0.0
 11
172.180762
 21
364.098446
 31
0.0
  0
LINE
  5
642
330
63B
100
AcDbEntity
  8
LC-001-100-D00-0
 62
     7
370
    50
100
AcDbLine
 10
140.230124
 20
354.598446
 30
0.0
 11
143.230123
 21
357.598446
 31
0.0
  0
LINE
  5
643
330
63B
100
AcDbEntity
  8
LC-001-100-D00-0
 62
     7
370
    50
100
AcDbLine
 10
117.779484
 20
354.598446
 30
0.0
 11
120.779484
 21
357.598446
 31
0.0
  0
LINE
  5
644
330
63B
100
AcDbEntity
  8
LC-001-100-D00-0
 62
     7
370
    50
100
AcDbLine
 10
95.328845
 20
354.598446
 30
0.0
 11
98.328844
 21
357.598446
 31
0.0
  0
LINE
  5
645
330
63B
100
AcDbEntity
  8
LC-001-100-D00-0
 62
     7
370
    50
100
AcDbLine
 10
72.878205
 20
354.598446
 30
0.0
 11
75.878205
 21
357.598446
 31
0.0
  0
LINE
  5
646
330
63B
100
AcDbEntity
  8
LC-001-100-D00-0
 62
     7
370
    50
100
AcDbLine
 10
53.262717
 20
357.433597
 30
0.0
 11
55.437163
 21
359.608043
 31
0.0
  0
LINE
  5
647
330
63B
100
AcDbEntity
  8
LC-001-100-D00-0
 62
     7
370
    50
100
AcDbLine
 10
40.635042
 20
367.256562
 30
0.0
 11
42.850005
 21
369.471526
 31
0.0
  0
LINE
  5
648
330
63B
100
AcDbEntity
  8
LC-001-100-D00-0
 62
     7
370
    50
100
AcDbLine
 10
38.906788
 20
387.978949
 30
0.0
 11
41.906788
 21
390.97895
 31
0.0
  0
LINE
  5
649
330
63B
100
AcDbEntity
  8
LC-001-100-D00-0
 62
     7
370
    50
100
AcDbLine
 10
38.906788
 20
410.429591
 30
0.0
 11
41.906788
 21
413.429591
 31
0.0
  0
ENDBLK
  5
63D
330
63B
100
AcDbEntity
  8
0
100
AcDbBlockEnd
  0
BLOCK
  5
64C
330
64B
100
AcDbEntity
  8
0
100
AcDbBlockBegin
  2
KLON28
 70
     0
 71
     0
 10
0.0
 20
0.0
 30
0.0
  3
KLON28
  1

  4
KLON28
  0
LINE
  5
64E
330
64B
100
AcDbEntity
  8
LC-001-100-D00-0
 62
     7
370
    50
100
AcDbLine
 10
218.180759
 20
410.098446
 30
0.0
 11
221.904774
 21
413.82246
 31
0.0
  0
LINE
  5
64F
330
64B
100
AcDbEntity
  8
LC-001-100-D00-0
 62
     7
370
    50
100
AcDbLine
 10
195.73012
 20
410.098446
 30
0.0
 11
200.230119
 21
414.598446
 31
0.0
  0
ENDBLK
  5
64D
330
64B
100
AcDbEntity
  8
0
100
AcDbBlockEnd
  0
BLOCK
  5
653
330
652
100
AcDbEntity
  8
0
100
AcDbBlockBegin
  2
KLON29
 70
     0
 71
     0
 10
0.0
 20
0.0
 30
0.0
  3
KLON29
  1

  4
KLON29
  0
LINE
  5
655
330
652
100
AcDbEntity
  8
LC-001-100-D00-0
 62
     7
370
    50
100
AcDbLine
 10
652.841626
 20
463.098446
 30
0.0
 11
654.341626
 21
464.598446
 31
0.0
  0
LINE
  5
656
330
652
100
AcDbEntity
  8
LC-001-100-D00-0
 62
     7
370
    50
100
AcDbLine
 10
630.390987
 20
463.098446
 30
0.0
 11
631.890987
 21
464.598446
 31
0.0
  0
LINE
  5
657
330
652
100
AcDbEntity
  8
LC-001-100-D00-0
 62
     7
370
    50
100
AcDbLine
 10
587.440349
 20
442.598446
 30
0.0
 11
588.940349
 21
444.098446
 31
0.0
  0
LINE
  5
658
330
652
100
AcDbEntity
  8
LC-001-100-D00-0
 62
     7
370
    50
100
AcDbLine
 10
564.989709
 20
442.598446
 30
0.0
 11
566.489709
 21
444.098446
 31
0.0
  0
LINE
  5
659
330
652
100
AcDbEntity
  8
LC-001-100-D00-0
 62
     7
370
    50
100
AcDbLine
 10
578.906788
 20
456.515525
 30
0.0
 11
586.198248
 21
463.806986
 31
0.0
  0
LINE
  5
65A
330
652
100
AcDbEntity
  8
LC-001-100-D00-0
 62
     7
370
    50
100
AcDbLine
 10
542.53907
 20
442.598446
 30
0.0
 11
544.03907
 21
444.098446
 31
0.0
  0
LINE
  5
65B
330
652
100
AcDbEntity
  8
LC-001-100-D00-0
 62
     7
370
    50
100
AcDbLine
 10
520.08843
 20
442.598446
 30
0.0
 11
521.58843
 21
444.098446
 31
0.0
  0
LINE
  5
65C
330
652
100
AcDbEntity
  8
LC-001-100-D00-0
 62
     7
370
    50
100
AcDbLine
 10
497.637791
 20
442.598446
 30
0.0
 11
499.137791
 21
444.098446
 31
0.0
  0
LINE
  5
65D
330
652
100
AcDbEntity
  8
LC-001-100-D00-0
 62
     7
370
    50
100
AcDbLine
 10
475.187151
 20
442.598446
 30
0.0
 11
476.687151
 21
444.098446
 31
0.0
  0
LINE
  5
65E
330
652
100
AcDbEntity
  8
LC-001-100-D00-0
 62
     7
370
    50
100
AcDbLine
 10
452.736512
 20
442.598446
 30
0.0
 11
454.236512
 21
444.098446
 31
0.0
  0
LINE
  5
65F
330
652
100
AcDbEntity
  8
LC-001-100-D00-0
 62
     7
370
    50
100
AcDbLine
 10
430.285873
 20
442.598446
 30
0.0
 11
431.785872
 21
444.098446
 31
0.0
  0
LINE
  5
660
330
652
100
AcDbEntity
  8
LC-001-100-D00-0
 62
     7
370
    50
100
AcDbLine
 10
407.835233
 20
442.598446
 30
0.0
 11
409.335233
 21
444.098446
 31
0.0
  0
LINE
  5
661
330
652
100
AcDbEntity
  8
LC-001-100-D00-0
 62
     7
370
    50
100
AcDbLine
 10
385.384594
 20
442.598446
 30
0.0
 11
386.884593
 21
444.098446
 31
0.0
  0
LINE
  5
662
330
652
100
AcDbEntity
  8
LC-001-100-D00-0
 62
     7
370
    50
100
AcDbLine
 10
393.906788
 20
451.120641
 30
0.0
 11
401.906788
 21
459.120641
 31
0.0
  0
LINE
  5
663
330
652
100
AcDbEntity
  8
LC-001-100-D00-0
 62
     7
370
    50
100
AcDbLine
 10
362.933954
 20
442.598446
 30
0.0
 11
364.433954
 21
444.098446
 31
0.0
  0
LINE
  5
664
330
652
100
AcDbEntity
  8
LC-001-100-D00-0
 62
     7
370
    50
100
AcDbLine
 10
340.483315
 20
442.598446
 30
0.0
 11
341.983314
 21
444.098446
 31
0.0
  0
LINE
  5
665
330
652
100
AcDbEntity
  8
LC-001-100-D00-0
 62
     7
370
    50
100
AcDbLine
 10
318.032675
 20
442.598446
 30
0.0
 11
319.532675
 21
444.098446
 31
0.0
  0
LINE
  5
666
330
652
100
AcDbEntity
  8
LC-001-100-D00-0
 62
     7
370
    50
100
AcDbLine
 10
295.582036
 20
442.598446
 30
0.0
 11
297.082036
 21
444.098446
 31
0.0
  0
LINE
  5
667
330
652
100
AcDbEntity
  8
LC-001-100-D00-0
 62
     7
370
    50
100
AcDbLine
 10
273.131396
 20
442.598446
 30
0.0
 11
274.631396
 21
444.098446
 31
0.0
  0
LINE
  5
668
330
652
100
AcDbEntity
  8
LC-001-100-D00-0
 62
     7
370
    50
100
AcDbLine
 10
250.680757
 20
442.598446
 30
0.0
 11
252.180757
 21
444.098446
 31
0.0
  0
LINE
  5
669
330
652
100
AcDbEntity
  8
LC-001-100-D00-0
 62
     7
370
    50
100
AcDbLine
 10
228.230117
 20
442.598446
 30
0.0
 11
229.730117
 21
444.098446
 31
0.0
  0
LINE
  5
66A
330
652
100
AcDbEntity
  8
LC-001-100-D00-0
 62
     7
370
    50
100
AcDbLine
 10
205.491209
 20
442.310177
 30
0.0
 11
207.279478
 21
444.098446
 31
0.0
  0
LINE
  5
66B
330
652
100
AcDbEntity
  8
LC-001-100-D00-0
 62
     7
370
    50
100
AcDbLine
 10
208.406788
 20
445.225756
 30
0.0
 11
208.679478
 21
445.498446
 31
0.0
  0
LINE
  5
66C
330
652
100
AcDbEntity
  8
LC-001-100-D00-0
 62
     7
370
    50
100
AcDbLine
 10
209.620819
 20
446.439787
 30
0.0
 11
216.906788
 21
453.725757
 31
0.0
  0
LINE
  5
66D
330
652
100
AcDbEntity
  8
LC-001-100-D00-0
 62
     7
370
    50
100
AcDbLine
 10
178.328839
 20
437.598446
 30
0.0
 11
179.828838
 21
439.098446
 31
0.0
  0
ENDBLK
  5
654
330
652
100
AcDbEntity
  8
0
100
AcDbBlockEnd
  0
BLOCK
  5
670
330
66F
100
AcDbEntity
  8
0
100
AcDbBlockBegin
  2
KLON30
 70
     0
 71
     0
 10
0.0
 20
0.0
 30
0.0
  3
KLON30
  1

  4
KLON30
  0
LINE
  5
672
330
66F
100
AcDbEntity
  8
LC-001-100-D00-0
 62
     7
370
    50
100
AcDbLine
 10
43.625002
 20
437.598446
 30
0.0
 11
45.047659
 21
439.021103
 31
0.0
  0
LINE
  5
673
330
66F
100
AcDbEntity
  8
LC-001-100-D00-0
 62
     7
370
    50
100
AcDbLine
 10
24.71034
 20
441.134423
 30
0.0
 11
25.935085
 21
442.359168
 31
0.0
  0
LINE
  5
674
330
66F
100
AcDbEntity
  8
LC-001-100-D00-0
 62
     7
370
    50
100
AcDbLine
 10
3.723722
 20
442.598446
 30
0.0
 11
5.223722
 21
444.098446
 31
0.0
  0
LINE
  5
675
330
66F
100
AcDbEntity
  8
LC-001-100-D00-0
 62
     7
370
    50
100
AcDbLine
 10
9.285387
 20
448.160111
 30
0.0
 11
16.906788
 21
455.781512
 31
0.0
  0
LINE
  5
676
330
66F
100
AcDbEntity
  8
LC-001-100-D00-0
 62
     7
370
    50
100
AcDbLine
 10
-18.726917
 20
442.598446
 30
0.0
 11
-17.226917
 21
444.098446
 31
0.0
  0
LINE
  5
677
330
66F
100
AcDbEntity
  8
LC-001-100-D00-0
 62
     7
370
    50
100
AcDbLine
 10
-41.177557
 20
442.598446
 30
0.0
 11
-39.677557
 21
444.098446
 31
0.0
  0
LINE
  5
678
330
66F
100
AcDbEntity
  8
LC-001-100-D00-0
 62
     7
370
    50
100
AcDbLine
 10
-63.628196
 20
442.598446
 30
0.0
 11
-62.128196
 21
444.098446
 31
0.0
  0
LINE
  5
679
330
66F
100
AcDbEntity
  8
LC-001-100-D00-0
 62
     7
370
    50
100
AcDbLine
 10
-86.078836
 20
442.598446
 30
0.0
 11
-84.578836
 21
444.098446
 31
0.0
  0
LINE
  5
67A
330
66F
100
AcDbEntity
  8
LC-001-100-D00-0
 62
     7
370
    50
100
AcDbLine
 10
-108.529475
 20
442.598446
 30
0.0
 11
-107.029475
 21
444.098446
 31
0.0
  0
LINE
  5
67B
330
66F
100
AcDbEntity
  8
LC-001-100-D00-0
 62
     7
370
    50
100
AcDbLine
 10
-130.980114
 20
442.598446
 30
0.0
 11
-129.480115
 21
444.098446
 31
0.0
  0
LINE
  5
67C
330
66F
100
AcDbEntity
  8
LC-001-100-D00-0
 62
     7
370
    50
100
AcDbLine
 10
-153.430754
 20
442.598446
 30
0.0
 11
-151.930754
 21
444.098446
 31
0.0
  0
LINE
  5
67D
330
66F
100
AcDbEntity
  8
LC-001-100-D00-0
 62
     7
370
    50
100
AcDbLine
 10
-175.881393
 20
442.598446
 30
0.0
 11
-168.093212
 21
450.386628
 31
0.0
  0
LINE
  5
67E
330
66F
100
AcDbEntity
  8
LC-001-100-D00-0
 62
     7
370
    50
100
AcDbLine
 10
-198.332033
 20
442.598446
 30
0.0
 11
-196.832033
 21
444.098446
 31
0.0
  0
LINE
  5
67F
330
66F
100
AcDbEntity
  8
LC-001-100-D00-0
 62
     7
370
    50
100
AcDbLine
 10
-220.782672
 20
442.598446
 30
0.0
 11
-219.282673
 21
444.098446
 31
0.0
  0
LINE
  5
680
330
66F
100
AcDbEntity
  8
LC-001-100-D00-0
 62
     7
370
    50
100
AcDbLine
 10
-243.233312
 20
442.598446
 30
0.0
 11
-241.733312
 21
444.098446
 31
0.0
  0
LINE
  5
681
330
66F
100
AcDbEntity
  8
LC-001-100-D00-0
 62
     7
370
    50
100
AcDbLine
 10
-265.683951
 20
442.598446
 30
0.0
 11
-264.183951
 21
444.098446
 31
0.0
  0
LINE
  5
682
330
66F
100
AcDbEntity
  8
LC-001-100-D00-0
 62
     7
370
    50
100
AcDbLine
 10
-288.134591
 20
442.598446
 30
0.0
 11
-286.634591
 21
444.098446
 31
0.0
  0
LINE
  5
683
330
66F
100
AcDbEntity
  8
LC-001-100-D00-0
 62
     7
370
    50
100
AcDbLine
 10
-310.58523
 20
442.598446
 30
0.0
 11
-309.08523
 21
444.098446
 31
0.0
  0
LINE
  5
684
330
66F
100
AcDbEntity
  8
LC-001-100-D00-0
 62
     7
370
    50
100
AcDbLine
 10
-333.03587
 20
442.598446
 30
0.0
 11
-331.53587
 21
444.098446
 31
0.0
  0
LINE
  5
685
330
66F
100
AcDbEntity
  8
LC-001-100-D00-0
 62
     7
370
    50
100
AcDbLine
 10
-355.486509
 20
442.598446
 30
0.0
 11
-352.593212
 21
445.491743
 31
0.0
  0
LINE
  5
686
330
66F
100
AcDbEntity
  8
LC-001-100-D00-0
 62
     7
370
    50
100
AcDbLine
 10
-377.937149
 20
442.598446
 30
0.0
 11
-376.437149
 21
444.098446
 31
0.0
  0
LINE
  5
687
330
66F
100
AcDbEntity
  8
LC-001-100-D00-0
 62
     7
370
    50
100
AcDbLine
 10
-361.093212
 20
459.442384
 30
0.0
 11
-356.43715
 21
464.098446
 31
0.0
  0
LINE
  5
688
330
66F
100
AcDbEntity
  8
LC-001-100-D00-0
 62
     7
370
    50
100
AcDbLine
 10
-388.593212
 20
454.393023
 30
0.0
 11
-387.093212
 21
455.893023
 31
0.0
  0
LINE
  5
689
330
66F
100
AcDbEntity
  8
LC-001-100-D00-0
 62
     7
370
    50
100
AcDbLine
 10
-402.338429
 20
463.098446
 30
0.0
 11
-400.838429
 21
464.598446
 31
0.0
  0
LINE
  5
68A
330
66F
100
AcDbEntity
  8
LC-001-100-D00-0
 62
     7
370
    50
100
AcDbLine
 10
-424.789069
 20
463.098446
 30
0.0
 11
-423.289069
 21
464.598446
 31
0.0
  0
ENDBLK
  5
671
330
66F
100
AcDbEntity
  8
0
100
AcDbBlockEnd
  0
BLOCK
  5
68E
330
68D
100
AcDbEntity
  8
0
100
AcDbBlockBegin
  2
KLON31
 70
     0
 71
     0
 10
0.0
 20
0.0
 30
0.0
  3
KLON31
  1

  4
KLON31
  0
LINE
  5
690
330
68D
100
AcDbEntity
  8
LC-001-100-D00-0
 62
     7
370
    50
100
AcDbLine
 10
590.440349
 20
445.598446
 30
0.0
 11
592.656788
 21
447.814885
 31
0.0
  0
LINE
  5
691
330
68D
100
AcDbEntity
  8
LC-001-100-D00-0
 62
     7
370
    50
100
AcDbLine
 10
586.806788
 20
464.415526
 30
0.0
 11
586.989708
 21
464.598446
 31
0.0
  0
ENDBLK
  5
68F
330
68D
100
AcDbEntity
  8
0
100
AcDbBlockEnd
  0
BLOCK
  5
696
330
695
100
AcDbEntity
  8
0
100
AcDbBlockBegin
  2
KLON32
 70
     0
 71
     0
 10
0.0
 20
0.0
 30
0.0
  3
KLON32
  1

  4
KLON32
  0
LINE
  5
698
330
695
100
AcDbEntity
  8
LC-001-100-D00-0
 62
     7
370
    50
100
AcDbLine
 10
-350.742359
 20
447.342596
 30
0.0
 11
-347.343212
 21
450.741744
 31
0.0
  0
LINE
  5
699
330
695
100
AcDbEntity
  8
LC-001-100-D00-0
 62
     7
370
    50
100
AcDbLine
 10
-340.48651
 20
457.598446
 30
0.0
 11
-338.843212
 21
459.241744
 31
0.0
  0
ENDBLK
  5
697
330
695
100
AcDbEntity
  8
0
100
AcDbBlockEnd
  0
BLOCK
  5
69E
330
69D
100
AcDbEntity
  8
0
100
AcDbBlockBegin
  2
KLON33
 70
     0
 71
     0
 10
0.0
 20
0.0
 30
0.0
  3
KLON33
  1

  4
KLON33
  0
LINE
  5
6A0
330
69D
100
AcDbEntity
  8
LC-001-100-D00-0
 62
     7
370
    50
100
AcDbLine
 10
-165.742359
 20
452.737481
 30
0.0
 11
-162.343212
 21
456.136628
 31
0.0
  0
LINE
  5
6A1
330
69D
100
AcDbEntity
  8
LC-001-100-D00-0
 62
     7
370
    50
100
AcDbLine
 10
-156.881395
 20
461.598446
 30
0.0
 11
-154.155454
 21
464.324386
 31
0.0
  0
ENDBLK
  5
69F
330
69D
100
AcDbEntity
  8
0
100
AcDbBlockEnd
  0
BLOCK
  5
6A5
330
6A4
100
AcDbEntity
  8
0
100
AcDbBlockBegin
  2
KLON34
 70
     0
 71
     0
 10
0.0
 20
0.0
 30
0.0
  3
KLON34
  1

  4
KLON34
  0
LINE
  5
6A7
330
6A4
100
AcDbEntity
  8
LC-001-100-D00-0
 62
     7
370
    50
100
AcDbLine
 10
388.572818
 20
445.78667
 30
0.0
 11
392.706788
 21
449.920641
 31
0.0
  0
LINE
  5
6A8
330
6A4
100
AcDbEntity
  8
LC-001-100-D00-0
 62
     7
370
    50
100
AcDbLine
 10
379.656788
 20
459.321281
 30
0.0
 11
384.933952
 21
464.598446
 31
0.0
  0
ENDBLK
  5
6A6
330
6A4
100
AcDbEntity
  8
0
100
AcDbBlockEnd
  0
BLOCK
  5
6AD
330
6AC
100
AcDbEntity
  8
0
100
AcDbBlockBegin
  2
KLON35
 70
     0
 71
     0
 10
0.0
 20
0.0
 30
0.0
  3
KLON35
  1

  4
KLON35
  0
LINE
  5
6AF
330
6AC
100
AcDbEntity
  8
LC-001-100-D00-0
 62
     7
370
    50
100
AcDbLine
 10
-3.726918
 20
457.598446
 30
0.0
 11
-2.343212
 21
458.982152
 31
0.0
  0
LINE
  5
6B0
330
6AC
100
AcDbEntity
  8
LC-001-100-D00-0
 62
     7
370
    50
100
AcDbLine
 10
0.273082
 20
461.598446
 30
0.0
 11
3.273081
 21
464.598446
 31
0.0
  0
ENDBLK
  5
6AE
330
6AC
100
AcDbEntity
  8
0
100
AcDbBlockEnd
  0
BLOCK
  5
6B5
330
6B4
100
AcDbEntity
  8
0
100
AcDbBlockBegin
  2
KLON36
 70
     0
 71
     0
 10
0.0
 20
0.0
 30
0.0
  3
KLON36
  1

  4
KLON36
  0
LINE
  5
6B7
330
6B4
100
AcDbEntity
  8
LC-001-100-D00-0
 62
     7
370
    50
100
AcDbLine
 10
216.806788
 20
453.625757
 30
0.0
 11
222.656788
 21
459.475757
 31
0.0
  0
LINE
  5
6B8
330
6B4
100
AcDbEntity
  8
LC-001-100-D00-0
 62
     7
370
    50
100
AcDbLine
 10
224.779476
 20
461.598446
 30
0.0
 11
227.779476
 21
464.598446
 31
0.0
  0
ENDBLK
  5
6B6
330
6B4
100
AcDbEntity
  8
0
100
AcDbBlockEnd
  0
BLOCK
  5
6CE
330
6C4
100
AcDbEntity
  8
0
100
AcDbBlockBegin
  2
*D46
 70
     1
 71
     0
 10
0.0
 20
0.0
 30
0.0
  3
*D46
  1

  0
LINE
  5
6C5
330
6C4
100
AcDbEntity
  8
LC-002-003-----0
 62
     2
370
    -2
100
AcDbLine
 10
-437.093212
 20
505.598446
 30
0.0
 11
-437.093212
 21
657.703446
 31
0.0
  0
LINE
  5
6C6
330
6C4
100
AcDbEntity
  8
LC-002-003-----0
 62
     2
370
    -2
100
AcDbLine
 10
662.906788
 20
505.598446
 30
0.0
 11
662.906788
 21
657.703446
 31
0.0
  0
LINE
  5
6C7
330
6C4
100
AcDbEntity
  8
LC-002-003-----0
 62
     2
370
    -2
100
AcDbLine
 10
-387.093212
 20
648.703446
 30
0.0
 11
612.906788
 21
648.703446
 31
0.0
  0
SOLID
  5
6C8
330
6C4
100
AcDbEntity
  8
LC-002-003-----0
 62
     2
100
AcDbTrace
 10
-387.093212
 20
657.036779
 30
0.0
 11
-387.093212
 21
640.370112
 31
0.0
 12
-437.093212
 22
648.703446
 32
0.0
 13
-437.093212
 23
648.703446
 33
0.0
  0
SOLID
  5
6C9
330
6C4
100
AcDbEntity
  8
LC-002-003-----0
 62
     2
100
AcDbTrace
 10
612.906788
 20
640.370112
 30
0.0
 11
612.906788
 21
657.036779
 31
0.0
 12
662.906788
 22
648.703446
 32
0.0
 13
662.906788
 23
648.703446
 33
0.0
  0
MTEXT
  5
6CA
330
6C4
100
AcDbEntity
  8
LC-002-003-----0
 62
     2
100
AcDbMText
 10
103.53795
 20
703.703446
 30
0.0
 40
50.0
 41
0.0
 71
     5
 72
     1
  1
\A1;1100
  7
LCTX15-400-0-0pDIN-Schrift
 73
     1
 44
1.0
  0
POINT
  5
6CB
330
6C4
100
AcDbEntity
  8
Defpoints
 62
     0
100
AcDbPoint
 10
-437.093212
 20
505.598446
 30
0.0
  0
POINT
  5
6CC
330
6C4
100
AcDbEntity
  8
Defpoints
 62
     0
100
AcDbPoint
 10
662.906788
 20
505.598446
 30
0.0
  0
POINT
  5
6CD
330
6C4
100
AcDbEntity
  8
Defpoints
 62
     0
100
AcDbPoint
 10
662.906788
 20
648.703446
 30
0.0
  0
ENDBLK
  5
6CF
330
6C4
100
AcDbEntity
  8
0
100
AcDbBlockEnd
  0
BLOCK
  5
6DB
330
6D1
100
AcDbEntity
  8
0
100
AcDbBlockBegin
  2
*D47
 70
     1
 71
     0
 10
0.0
 20
0.0
 30
0.0
  3
*D47
  1

  0
LINE
  5
6D2
330
6D1
100
AcDbEntity
  8
LC-002-003-----0
 62
     2
370
    -2
100
AcDbLine
 10
-387.093212
 20
461.598446
 30
0.0
 11
-387.093212
 21
576.028446
 31
0.0
  0
LINE
  5
6D3
330
6D1
100
AcDbEntity
  8
LC-002-003-----0
 62
     2
370
    -2
100
AcDbLine
 10
612.906788
 20
461.598446
 30
0.0
 11
612.906788
 21
576.028446
 31
0.0
  0
LINE
  5
6D4
330
6D1
100
AcDbEntity
  8
LC-002-003-----0
 62
     2
370
    -2
100
AcDbLine
 10
-337.093212
 20
567.028446
 30
0.0
 11
562.906788
 21
567.028446
 31
0.0
  0
SOLID
  5
6D5
330
6D1
100
AcDbEntity
  8
LC-002-003-----0
 62
     2
100
AcDbTrace
 10
-337.093212
 20
575.361779
 30
0.0
 11
-337.093212
 21
558.695112
 31
0.0
 12
-387.093212
 22
567.028446
 32
0.0
 13
-387.093212
 23
567.028446
 33
0.0
  0
SOLID
  5
6D6
330
6D1
100
AcDbEntity
  8
LC-002-003-----0
 62
     2
100
AcDbTrace
 10
562.906788
 20
558.695112
 30
0.0
 11
562.906788
 21
575.361779
 31
0.0
 12
612.906788
 22
567.028446
 32
0.0
 13
612.906788
 23
567.028446
 33
0.0
  0
MTEXT
  5
6D7
330
6D1
100
AcDbEntity
  8
LC-002-003-----0
 62
     2
100
AcDbMText
 10
108.696987
 20
622.028446
 30
0.0
 40
50.0
 41
0.0
 71
     5
 72
     1
  1
\A1;1000
  7
LCTX15-400-0-0pDIN-Schrift
 73
     1
 44
1.0
  0
POINT
  5
6D8
330
6D1
100
AcDbEntity
  8
Defpoints
 62
     0
100
AcDbPoint
 10
-387.093212
 20
461.598446
 30
0.0
  0
POINT
  5
6D9
330
6D1
100
AcDbEntity
  8
Defpoints
 62
     0
100
AcDbPoint
 10
612.906788
 20
461.598446
 30
0.0
  0
POINT
  5
6DA
330
6D1
100
AcDbEntity
  8
Defpoints
 62
     0
100
AcDbPoint
 10
612.906788
 20
567.028446
 30
0.0
  0
ENDBLK
  5
6DC
330
6D1
100
AcDbEntity
  8
0
100
AcDbBlockEnd
  0
BLOCK
  5
6EB
330
6EA
100
AcDbEntity
  8
0
100
AcDbBlockBegin
  2
*X148
 70
     1
 71
     0
 10
0.0
 20
0.0
 30
0.0
  3
*X148
  1

  4
*X1
  0
LINE
  5
6EE
330
6EA
100
AcDbEntity
  8
LC-005-005-----0
 62
     7
370
    25
100
AcDbLine
 10
265.174564
 20
357.098446
 30
0.0
 11
266.847919
 21
358.771801
 31
0.0
  0
LINE
  5
6EF
330
6EA
100
AcDbEntity
  8
LC-005-005-----0
 62
     7
370
    25
100
AcDbLine
 10
258.103496
 20
357.098446
 30
0.0
 11
260.103496
 21
359.098446
 31
0.0
  0
LINE
  5
6F0
330
6EA
100
AcDbEntity
  8
LC-005-005-----0
 62
     7
370
    25
100
AcDbLine
 10
251.032428
 20
357.098446
 30
0.0
 11
253.032428
 21
359.098446
 31
0.0
  0
LINE
  5
6F1
330
6EA
100
AcDbEntity
  8
LC-005-005-----0
 62
     7
370
    25
100
AcDbLine
 10
243.961361
 20
357.098446
 30
0.0
 11
245.961361
 21
359.098446
 31
0.0
  0
LINE
  5
6F2
330
6EA
100
AcDbEntity
  8
LC-005-005-----0
 62
     7
370
    25
100
AcDbLine
 10
236.890293
 20
357.098446
 30
0.0
 11
238.890293
 21
359.098446
 31
0.0
  0
LINE
  5
6F3
330
6EA
100
AcDbEntity
  8
LC-005-005-----0
 62
     7
370
    25
100
AcDbLine
 10
229.819225
 20
357.098446
 30
0.0
 11
232.021274
 21
359.300495
 31
0.0
  0
LINE
  5
6F4
330
6EA
100
AcDbEntity
  8
LC-005-005-----0
 62
     7
370
    25
100
AcDbLine
 10
232.726233
 20
360.005454
 30
0.0
 11
235.021274
 21
362.300495
 31
0.0
  0
LINE
  5
6F5
330
6EA
100
AcDbEntity
  8
LC-005-005-----0
 62
     7
370
    25
100
AcDbLine
 10
221.246453
 20
355.596741
 30
0.0
 11
224.409041
 21
358.75933
 31
0.0
  0
LINE
  5
6F6
330
6EA
100
AcDbEntity
  8
LC-005-005-----0
 62
     7
370
    25
100
AcDbLine
 10
213.293894
 20
354.71525
 30
0.0
 11
215.980635
 21
357.401991
 31
0.0
  0
LINE
  5
6F7
330
6EA
100
AcDbEntity
  8
LC-005-005-----0
 62
     7
370
    25
100
AcDbLine
 10
207.021274
 20
355.513698
 30
0.0
 11
209.518964
 21
358.011388
 31
0.0
  0
ENDBLK
  5
6EC
330
6EA
100
AcDbEntity
  8
0
100
AcDbBlockEnd
  0
BLOCK
  5
700
330
6FF
100
AcDbEntity
  8
0
100
AcDbBlockBegin
  2
*X249
 70
     1
 71
     0
 10
0.0
 20
0.0
 30
0.0
  3
*X249
  1

  4
*X2
  0
LINE
  5
702
330
6FF
100
AcDbEntity
  8
LC-005-005-----0
 62
     7
370
    25
100
AcDbLine
 10
259.534954
 20
415.098446
 30
0.0
 11
261.534954
 21
417.098446
 31
0.0
  0
LINE
  5
703
330
6FF
100
AcDbEntity
  8
LC-005-005-----0
 62
     7
370
    25
100
AcDbLine
 10
252.463886
 20
415.098446
 30
0.0
 11
254.463886
 21
417.098446
 31
0.0
  0
LINE
  5
704
330
6FF
100
AcDbEntity
  8
LC-005-005-----0
 62
     7
370
    25
100
AcDbLine
 10
245.392818
 20
415.098446
 30
0.0
 11
247.392818
 21
417.098446
 31
0.0
  0
LINE
  5
705
330
6FF
100
AcDbEntity
  8
LC-005-005-----0
 62
     7
370
    25
100
AcDbLine
 10
233.761242
 20
410.537937
 30
0.0
 11
235.021274
 21
411.797969
 31
0.0
  0
LINE
  5
706
330
6FF
100
AcDbEntity
  8
LC-005-005-----0
 62
     7
370
    25
100
AcDbLine
 10
238.32175
 20
415.098446
 30
0.0
 11
240.32175
 21
417.098446
 31
0.0
  0
LINE
  5
707
330
6FF
100
AcDbEntity
  8
LC-005-005-----0
 62
     7
370
    25
100
AcDbLine
 10
229.471031
 20
413.318794
 30
0.0
 11
233.250682
 21
417.098446
 31
0.0
  0
LINE
  5
708
330
6FF
100
AcDbEntity
  8
LC-005-005-----0
 62
     7
370
    25
100
AcDbLine
 10
224.492441
 20
415.411272
 30
0.0
 11
226.333395
 21
417.252226
 31
0.0
  0
LINE
  5
709
330
6FF
100
AcDbEntity
  8
LC-005-005-----0
 62
     7
370
    25
100
AcDbLine
 10
218.643975
 20
416.633874
 30
0.0
 11
220.702545
 21
418.692443
 31
0.0
  0
LINE
  5
70A
330
6FF
100
AcDbEntity
  8
LC-005-005-----0
 62
     7
370
    25
100
AcDbLine
 10
211.45818
 20
416.519147
 30
0.0
 11
214.319795
 21
419.380761
 31
0.0
  0
LINE
  5
70B
330
6FF
100
AcDbEntity
  8
LC-005-005-----0
 62
     7
370
    25
100
AcDbLine
 10
207.021274
 20
419.153309
 30
0.0
 11
207.881794
 21
420.013828
 31
0.0
  0
ENDBLK
  5
701
330
6FF
100
AcDbEntity
  8
0
100
AcDbBlockEnd
  0
BLOCK
  5
726
330
71B
100
AcDbEntity
  8
0
100
AcDbBlockBegin
  2
*D50
 70
     1
 71
     0
 10
0.0
 20
0.0
 30
0.0
  3
*D50
  1

  0
LINE
  5
71C
330
71B
100
AcDbEntity
  8
LC-002-003-----0
 62
     2
370
    -2
100
AcDbLine
 10
266.521274
 20
415.098446
 30
0.0
 11
365.291646
 21
415.098446
 31
0.0
  0
LINE
  5
71D
330
71B
100
AcDbEntity
  8
LC-002-003-----0
 62
     2
370
    -2
100
AcDbLine
 10
266.521274
 20
359.098446
 30
0.0
 11
365.291646
 21
359.098446
 31
0.0
  0
LINE
  5
71E
330
71B
100
AcDbEntity
  8
LC-002-003-----0
 62
     2
370
    -2
100
AcDbLine
 10
356.291646
 20
465.098446
 30
0.0
 11
356.291646
 21
515.098446
 31
0.0
  0
LINE
  5
71F
330
71B
100
AcDbEntity
  8
LC-002-003-----0
 62
     2
370
    -2
100
AcDbLine
 10
356.291646
 20
309.098446
 30
0.0
 11
356.291646
 21
210.582707
 31
0.0
  0
SOLID
  5
720
330
71B
100
AcDbEntity
  8
LC-002-003-----0
 62
     2
100
AcDbTrace
 10
347.958313
 20
465.098446
 30
0.0
 11
364.624979
 21
465.098446
 31
0.0
 12
356.291646
 22
415.098446
 32
0.0
 13
356.291646
 23
415.098446
 33
0.0
  0
SOLID
  5
721
330
71B
100
AcDbEntity
  8
LC-002-003-----0
 62
     2
100
AcDbTrace
 10
364.624979
 20
309.098446
 30
0.0
 11
347.958313
 21
309.098446
 31
0.0
 12
356.291646
 22
359.098446
 32
0.0
 13
356.291646
 23
359.098446
 33
0.0
  0
MTEXT
  5
722
330
71B
100
AcDbEntity
  8
LC-002-003-----0
 62
     2
100
AcDbMText
 10
301.291646
 20
253.977098
 30
0.0
 40
50.0
 41
0.0
 71
     5
 72
     1
  1
%%c\A1;56
  7
LCTX15-400-0-0pDIN-Schrift
 11
6.123031769111886E-17
 21
1.0
 31
0.0
 73
     1
 44
1.0
  0
POINT
  5
723
330
71B
100
AcDbEntity
  8
Defpoints
 62
     0
100
AcDbPoint
 10
266.521274
 20
415.098446
 30
0.0
  0
POINT
  5
724
330
71B
100
AcDbEntity
  8
Defpoints
 62
     0
100
AcDbPoint
 10
266.521274
 20
359.098446
 30
0.0
  0
POINT
  5
725
330
71B
100
AcDbEntity
  8
Defpoints
 62
     0
100
AcDbPoint
 10
356.291646
 20
359.098446
 30
0.0
  0
ENDBLK
  5
727
330
71B
100
AcDbEntity
  8
0
100
AcDbBlockEnd
  0
BLOCK
  5
733
330
729
100
AcDbEntity
  8
0
100
AcDbBlockBegin
  2
*D51
 70
     1
 71
     0
 10
0.0
 20
0.0
 30
0.0
  3
*D51
  1

  0
LINE
  5
72A
330
729
100
AcDbEntity
  8
LC-002-003-----0
 62
     2
370
    -2
100
AcDbLine
 10
38.906788
 20
373.598446
 30
0.0
 11
38.906788
 21
171.000026
 31
0.0
  0
LINE
  5
72B
330
729
100
AcDbEntity
  8
LC-002-003-----0
 62
     2
370
    -2
100
AcDbLine
 10
267.021274
 20
387.098446
 30
0.0
 11
267.021274
 21
171.000026
 31
0.0
  0
LINE
  5
72C
330
729
100
AcDbEntity
  8
LC-002-003-----0
 62
     2
370
    -2
100
AcDbLine
 10
88.906788
 20
180.000026
 30
0.0
 11
217.021274
 21
180.000026
 31
0.0
  0
SOLID
  5
72D
330
729
100
AcDbEntity
  8
LC-002-003-----0
 62
     2
100
AcDbTrace
 10
88.906788
 20
188.33336
 30
0.0
 11
88.906788
 21
171.666693
 31
0.0
 12
38.906788
 22
180.000026
 32
0.0
 13
38.906788
 23
180.000026
 33
0.0
  0
SOLID
  5
72E
330
729
100
AcDbEntity
  8
LC-002-003-----0
 62
     2
100
AcDbTrace
 10
217.021274
 20
171.666693
 30
0.0
 11
217.021274
 21
188.33336
 31
0.0
 12
267.021274
 22
180.000026
 32
0.0
 13
267.021274
 23
180.000026
 33
0.0
  0
MTEXT
  5
72F
330
729
100
AcDbEntity
  8
LC-002-003-----0
 62
     2
100
AcDbMText
 10
119.951283
 20
235.000026
 30
0.0
 40
50.0
 41
0.0
 71
     5
 72
     1
  1
\A1;228
  7
LCTX15-400-0-0pDIN-Schrift
 73
     1
 44
1.0
  0
POINT
  5
730
330
729
100
AcDbEntity
  8
Defpoints
 62
     0
100
AcDbPoint
 10
38.906788
 20
373.598446
 30
0.0
  0
POINT
  5
731
330
729
100
AcDbEntity
  8
Defpoints
 62
     0
100
AcDbPoint
 10
267.021274
 20
387.098446
 30
0.0
  0
POINT
  5
732
330
729
100
AcDbEntity
  8
Defpoints
 62
     0
100
AcDbPoint
 10
267.021274
 20
180.000026
 30
0.0
  0
ENDBLK
  5
734
330
729
100
AcDbEntity
  8
0
100
AcDbBlockEnd
  0
ENDSEC
  0
SECTION
  2
ENTITIES
  0
LINE
  5
31
330
1F
100
AcDbEntity
  8
LC-001-100-D00-0
 62
     7
370
    50
100
AcDbLine
 10
1046.925433
 20
463.098446
 30
0.0
 11
1046.925432
 21
461.698446
 31
0.0
  0
LINE
  5
32
330
1F
100
AcDbEntity
  8
LC-001-100-D00-0
 62
     7
370
    50
100
AcDbLine
 10
1055.925432
 20
461.698446
 30
0.0
 11
1055.925434
 21
463.098446
 31
0.0
  0
LINE
  5
33
330
1F
100
AcDbEntity
  8
LC-001-100-D00-0
 62
     7
370
    50
100
AcDbLine
 10
976.92543
 20
463.098446
 30
0.0
 11
976.925432
 21
461.698446
 31
0.0
  0
LINE
  5
34
330
1F
100
AcDbEntity
  8
LC-001-100-D00-0
 62
     7
370
    50
100
AcDbLine
 10
985.925432
 20
461.698446
 30
0.0
 11
985.925432
 21
463.098446
 31
0.0
  0
LINE
  5
35
330
1F
100
AcDbEntity
  8
LC-001-100-D00-0
 62
     7
370
    50
100
AcDbLine
 10
977.425431
 20
461.698446
 30
0.0
 11
977.425432
 21
448.098446
 31
0.0
  0
LINE
  5
36
330
1F
100
AcDbEntity
  8
LC-001-100-D00-0
 62
     7
370
    50
100
AcDbLine
 10
985.425432
 20
448.098446
 30
0.0
 11
985.425433
 21
461.698446
 31
0.0
  0
LINE
  5
37
330
1F
100
AcDbEntity
  8
LC-001-100-D00-0
 62
     7
370
    50
100
AcDbLine
 10
1047.425432
 20
461.698446
 30
0.0
 11
1047.425432
 21
448.098446
 31
0.0
  0
LINE
  5
38
330
1F
100
AcDbEntity
  8
LC-001-100-D00-0
 62
     7
370
    50
100
AcDbLine
 10
1055.425432
 20
448.098446
 30
0.0
 11
1055.425433
 21
461.698446
 31
0.0
  0
ARC
  5
39
330
1F
100
AcDbEntity
  8
LC-001-100-D00-0
 62
     7
370
    50
100
AcDbCircle
 10
1071.925432
 20
337.598446
 30
0.0
 40
0.5000000000004548
100
AcDbArc
 50
90.0
 51
180.0
  0
ARC
  5
3A
330
1F
100
AcDbEntity
  8
LC-001-100-D00-0
 62
     7
370
    50
100
AcDbCircle
 10
1089.925432
 20
337.598446
 30
0.0
 40
0.5000000000004548
100
AcDbArc
 50
0.0
 51
90.0
  0
LINE
  5
3B
330
1F
100
AcDbEntity
  8
LC-001-100-D00-0
 62
     7
370
    50
100
AcDbLine
 10
1071.425432
 20
337.598446
 30
0.0
 11
1071.425432
 21
330.098446
 31
0.0
  0
LINE
  5
3C
330
1F
100
AcDbEntity
  8
LC-001-100-D00-0
 62
     7
370
    50
100
AcDbLine
 10
1090.425432
 20
330.098446
 30
0.0
 11
1090.425432
 21
337.598446
 31
0.0
  0
LINE
  5
3D
330
1F
100
AcDbEntity
  8
LC-001-100-D00-0
 62
     7
370
    50
100
AcDbLine
 10
1070.925431
 20
407.098444
 30
0.0
 11
1070.925432
 21
353.098446
 31
0.0
  0
LINE
  5
3E
330
1F
100
AcDbEntity
  8
LC-001-100-D00-0
 62
     7
370
    50
100
AcDbLine
 10
1090.925432
 20
353.098446
 30
0.0
 11
1090.925434
 21
407.098444
 31
0.0
  0
LINE
  5
3F
330
1F
100
AcDbEntity
  8
LC-001-100-D00-0
 62
     7
370
    50
100
AcDbLine
 10
1070.925432
 20
349.598446
 30
0.0
 11
1070.925432
 21
339.098446
 31
0.0
  0
LINE
  5
40
330
1F
100
AcDbEntity
  8
LC-001-100-D00-0
 62
     7
370
    50
100
AcDbLine
 10
1090.925432
 20
339.098446
 30
0.0
 11
1090.925432
 21
349.598446
 31
0.0
  0
LINE
  5
41
330
1F
100
AcDbEntity
  8
LC-001-100-D00-0
 62
     7
370
    50
100
AcDbLine
 10
1070.925432
 20
339.098446
 30
0.0
 11
1071.925432
 21
338.098446
 31
0.0
  0
LINE
  5
42
330
1F
100
AcDbEntity
  8
LC-001-100-D00-0
 62
     7
370
    50
100
AcDbLine
 10
1089.925432
 20
338.098446
 30
0.0
 11
1090.925432
 21
339.098446
 31
0.0
  0
LINE
  5
43
330
1F
100
AcDbEntity
  8
LC-001-100-D00-0
 62
     7
370
    50
100
AcDbLine
 10
1073.025433
 20
353.098443
 30
0.0
 11
1073.025433
 21
349.598443
 31
0.0
  0
LINE
  5
44
330
1F
100
AcDbEntity
  8
LC-001-100-D00-0
 62
     7
370
    50
100
AcDbLine
 10
1088.825436
 20
349.598443
 30
0.0
 11
1088.825436
 21
353.098443
 31
0.0
  0
LINE
  5
45
330
1F
100
AcDbEntity
  8
LC-001-100-D00-0
 62
     7
370
    50
100
AcDbLine
 10
1056.425432
 20
438.698446
 30
0.0
 11
1056.425431
 21
442.098445
 31
0.0
  0
LINE
  5
46
330
1F
100
AcDbEntity
  8
LC-001-100-D00-0
 62
     7
370
    50
100
AcDbLine
 10
1046.425432
 20
442.098445
 30
0.0
 11
1046.425432
 21
438.698446
 31
0.0
  0
ARC
  5
47
330
1F
100
AcDbEntity
  8
LC-001-100-D00-0
 62
     7
370
    50
100
AcDbCircle
 10
1055.825432
 20
438.698446
 30
0.0
 40
0.6000000000003638
100
AcDbArc
 50
270.0
 51
0.0
  0
ARC
  5
48
330
1F
100
AcDbEntity
  8
LC-001-100-D00-0
 62
     7
370
    50
100
AcDbCircle
 10
1047.025432
 20
438.698446
 30
0.0
 40
0.5999999999999091
100
AcDbArc
 50
180.0
 51
270.0
  0
LINE
  5
49
330
1F
100
AcDbEntity
  8
LC-001-100-D00-0
 62
     7
370
    50
100
AcDbLine
 10
1054.425431
 20
447.098445
 30
0.0
 11
1054.425431
 21
448.098446
 31
0.0
  0
LINE
  5
4A
330
1F
100
AcDbEntity
  8
LC-001-100-D00-0
 62
     7
370
    50
100
AcDbLine
 10
1048.425434
 20
448.098446
 30
0.0
 11
1048.425434
 21
447.098445
 31
0.0
  0
ARC
  5
4B
330
1F
100
AcDbEntity
  8
LC-001-100-D00-0
 62
     7
370
    50
100
AcDbCircle
 10
985.825432
 20
438.698446
 30
0.0
 40
0.6000000000001364
100
AcDbArc
 50
270.0
 51
0.0
  0
ARC
  5
4C
330
1F
100
AcDbEntity
  8
LC-001-100-D00-0
 62
     7
370
    50
100
AcDbCircle
 10
977.025432
 20
438.698446
 30
0.0
 40
0.5999999999999091
100
AcDbArc
 50
180.0
 51
270.0
  0
LINE
  5
4D
330
1F
100
AcDbEntity
  8
LC-001-100-D00-0
 62
     7
370
    50
100
AcDbLine
 10
986.425432
 20
438.698446
 30
0.0
 11
986.425433
 21
442.098445
 31
0.0
  0
LINE
  5
4E
330
1F
100
AcDbEntity
  8
LC-001-100-D00-0
 62
     7
370
    50
100
AcDbLine
 10
976.425433
 20
442.098445
 30
0.0
 11
976.425432
 21
438.698446
 31
0.0
  0
LINE
  5
4F
330
1F
100
AcDbEntity
  8
LC-001-100-D00-0
 62
     7
370
    50
100
AcDbLine
 10
984.425431
 20
447.098445
 30
0.0
 11
984.425431
 21
448.098446
 31
0.0
  0
LINE
  5
50
330
1F
100
AcDbEntity
  8
LC-001-100-D00-0
 62
     7
370
    50
100
AcDbLine
 10
978.425434
 20
448.098446
 30
0.0
 11
978.425434
 21
447.098445
 31
0.0
  0
LINE
  5
51
330
1F
100
AcDbEntity
  8
LC-001-100-D00-0
 62
     7
370
    50
100
AcDbLine
 10
986.925432
 20
442.098446
 30
0.0
 11
986.925432
 21
444.098445
 31
0.0
  0
LINE
  5
52
330
1F
100
AcDbEntity
  8
LC-001-100-D00-0
 62
     7
370
    50
100
AcDbLine
 10
975.925432
 20
444.098446
 30
0.0
 11
975.925432
 21
442.098446
 31
0.0
  0
LINE
  5
53
330
1F
100
AcDbEntity
  8
LC-001-100-D00-0
 62
     7
370
    50
100
AcDbLine
 10
1056.925432
 20
442.098446
 30
0.0
 11
1056.925432
 21
444.098446
 31
0.0
  0
LINE
  5
54
330
1F
100
AcDbEntity
  8
LC-001-100-D00-0
 62
     7
370
    50
100
AcDbLine
 10
1045.925432
 20
444.098445
 30
0.0
 11
1045.925432
 21
442.098446
 31
0.0
  0
LINE
  5
55
330
1F
100
AcDbEntity
  8
LC-001-100-D00-0
 62
     7
370
    50
100
AcDbLine
 10
1088.925432
 20
464.598446
 30
0.0
 11
1093.925432
 21
464.598446
 31
0.0
  0
LINE
  5
56
330
1F
100
AcDbEntity
  8
LC-001-100-D00-0
 62
     7
370
    50
100
AcDbLine
 10
1093.925432
 20
464.598446
 30
0.0
 11
1093.925432
 21
463.098446
 31
0.0
  0
LINE
  5
57
330
1F
100
AcDbEntity
  8
LC-001-100-D00-0
 62
     7
370
    50
100
AcDbLine
 10
1093.925432
 20
463.098446
 30
0.0
 11
1088.925432
 21
463.098446
 31
0.0
  0
LINE
  5
58
330
1F
100
AcDbEntity
  8
LC-001-100-D00-0
 62
     7
370
    50
100
AcDbLine
 10
970.425432
 20
514.598446
 30
0.0
 11
971.925432
 21
514.598446
 31
0.0
  0
LINE
  5
59
330
1F
100
AcDbEntity
  8
LC-001-100-D00-0
 62
     7
370
    50
100
AcDbLine
 10
971.925432
 20
514.598446
 30
0.0
 11
971.925432
 21
509.598446
 31
0.0
  0
LINE
  5
5A
330
1F
100
AcDbEntity
  8
LC-001-100-D00-0
 62
     7
370
    50
100
AcDbLine
 10
970.425432
 20
509.598446
 30
0.0
 11
970.425432
 21
514.598446
 31
0.0
  0
LINE
  5
5B
330
1F
100
AcDbEntity
  8
LC-001-100-D00-0
 62
     7
370
    50
100
AcDbLine
 10
973.425432
 20
464.598446
 30
0.0
 11
1088.925432
 21
464.598446
 31
0.0
  0
LINE
  5
5C
330
1F
100
AcDbEntity
  8
LC-001-100-D00-0
 62
     7
370
    50
100
AcDbLine
 10
972.925432
 20
463.098446
 30
0.0
 11
1088.925432
 21
463.098446
 31
0.0
  0
ARC
  5
5D
330
1F
100
AcDbEntity
  8
LC-001-100-D00-0
 62
     7
370
    50
100
AcDbCircle
 10
972.925432
 20
465.598446
 30
0.0
 40
2.5
100
AcDbArc
 50
180.0
 51
270.0
  0
ARC
  5
5E
330
1F
100
AcDbEntity
  8
LC-001-100-D00-0
 62
     7
370
    50
100
AcDbCircle
 10
973.425432
 20
466.098446
 30
0.0
 40
1.499999999999773
100
AcDbArc
 50
180.0
 51
270.0
  0
LINE
  5
5F
330
1F
100
AcDbEntity
  8
LC-001-100-D00-0
 62
     7
370
    50
100
AcDbLine
 10
971.925432
 20
509.598446
 30
0.0
 11
971.925432
 21
466.098446
 31
0.0
  0
LINE
  5
60
330
1F
100
AcDbEntity
  8
LC-001-100-D00-0
 62
     7
370
    50
100
AcDbLine
 10
970.425432
 20
465.598446
 30
0.0
 11
970.425432
 21
509.598446
 31
0.0
  0
ARC
  5
61
330
1F
100
AcDbEntity
  8
LC-001-100-D00-0
 62
     7
370
    50
100
AcDbCircle
 10
1045.425432
 20
461.598446
 30
0.0
 40
1.499999999999773
100
AcDbArc
 50
90.0
 51
180.0
  0
ARC
  5
62
330
1F
100
AcDbEntity
  8
LC-001-100-D00-0
 62
     7
370
    50
100
AcDbCircle
 10
987.425432
 20
461.598446
 30
0.0
 40
1.499999999999773
100
AcDbArc
 50
0.0
 51
90.0
  0
LINE
  5
63
330
1F
100
AcDbEntity
  8
LC-001-100-D00-0
 62
     7
370
    50
100
AcDbLine
 10
1028.758841
 20
442.598446
 30
0.0
 11
1039.925432
 21
442.598446
 31
0.0
  0
LINE
  5
64
330
1F
100
AcDbEntity
  8
LC-001-100-D00-0
 62
     7
370
    50
100
AcDbLine
 10
1028.580627
 20
442.598446
 30
0.0
 11
1028.758841
 21
442.598446
 31
0.0
  0
LINE
  5
65
330
1F
100
AcDbEntity
  8
LC-001-100-D00-0
 62
     7
370
    50
100
AcDbLine
 10
1028.580627
 20
442.598446
 30
0.0
 11
1004.270238
 21
442.598446
 31
0.0
  0
LINE
  5
66
330
1F
100
AcDbEntity
  8
LC-001-100-D00-0
 62
     7
370
    50
100
AcDbLine
 10
1004.092023
 20
442.598446
 30
0.0
 11
1004.270238
 21
442.598446
 31
0.0
  0
LINE
  5
67
330
1F
100
AcDbEntity
  8
LC-001-100-D00-0
 62
     7
370
    50
100
AcDbLine
 10
992.925432
 20
442.598446
 30
0.0
 11
1004.092023
 21
442.598446
 31
0.0
  0
ARC
  5
68
330
1F
100
AcDbEntity
  8
LC-001-100-D00-0
 62
     7
370
    50
100
AcDbCircle
 10
992.925432
 20
446.598446
 30
0.0
 40
4.0
100
AcDbArc
 50
180.0
 51
270.0
  0
LINE
  5
69
330
1F
100
AcDbEntity
  8
LC-001-100-D00-0
 62
     7
370
    50
100
AcDbLine
 10
988.925432
 20
452.098446
 30
0.0
 11
988.925432
 21
446.598446
 31
0.0
  0
LINE
  5
6A
330
1F
100
AcDbEntity
  8
LC-001-100-D00-0
 62
     7
370
    50
100
AcDbLine
 10
988.925432
 20
452.098446
 30
0.0
 11
988.925432
 21
461.598446
 31
0.0
  0
ARC
  5
6B
330
1F
100
AcDbEntity
  8
LC-001-100-D00-0
 62
     7
370
    50
100
AcDbCircle
 10
1039.925432
 20
446.598446
 30
0.0
 40
4.000000000014552
100
AcDbArc
 50
270.0
 51
0.0
  0
LINE
  5
6C
330
1F
100
AcDbEntity
  8
LC-001-100-D00-0
 62
     7
370
    50
100
AcDbLine
 10
1043.925432
 20
446.598446
 30
0.0
 11
1043.925432
 21
452.098446
 31
0.0
  0
LINE
  5
6D
330
1F
100
AcDbEntity
  8
LC-001-100-D00-0
 62
     7
370
    50
100
AcDbLine
 10
1043.925432
 20
461.598446
 30
0.0
 11
1043.925432
 21
452.098446
 31
0.0
  0
ARC
  5
6E
330
1F
100
AcDbEntity
  8
LC-001-100-D00-0
 62
     7
370
    50
100
AcDbCircle
 10
1039.925432
 20
441.598446
 30
0.0
 40
4.0
100
AcDbArc
 50
270.0
 51
0.0
  0
LINE
  5
6F
330
1F
100
AcDbEntity
  8
LC-001-100-D00-0
 62
     7
370
    50
100
AcDbLine
 10
1043.925432
 20
446.598446
 30
0.0
 11
1043.925432
 21
441.598445
 31
0.0
  0
LINE
  5
70
330
1F
100
AcDbEntity
  8
LC-001-100-D00-0
 62
     7
370
    50
100
AcDbLine
 10
1021.811391
 20
442.469793
 30
0.0
 11
1021.810308
 21
442.470154
 31
0.0
  0
ARC
  5
71
330
1F
100
AcDbEntity
  8
LC-001-100-D00-0
 62
     7
370
    50
100
AcDbCircle
 10
1021.019738
 20
440.098446
 30
0.0
 40
2.499999999999846
100
AcDbArc
 50
71.565051
 51
90.0
  0
ARC
  5
72
330
1F
100
AcDbEntity
  8
LC-001-100-D00-0
 62
     7
370
    50
100
AcDbCircle
 10
1011.831126
 20
440.098446
 30
0.0
 40
2.5
100
AcDbArc
 50
90.0
 51
108.434949
  0
LINE
  5
73
330
1F
100
AcDbEntity
  8
LC-001-100-D00-0
 62
     7
370
    50
100
AcDbLine
 10
1011.040557
 20
442.470154
 30
0.0
 11
1011.039473
 21
442.469793
 31
0.0
  0
LINE
  5
74
330
1F
100
AcDbEntity
  8
LC-001-100-D00-0
 62
     7
370
    50
100
AcDbLine
 10
1039.925431
 20
437.598445
 30
0.0
 11
1037.0764
 21
437.598445
 31
0.0
  0
ARC
  5
75
330
1F
100
AcDbEntity
  8
LC-001-100-D00-0
 62
     7
370
    50
100
AcDbCircle
 10
992.925432
 20
441.598446
 30
0.0
 40
4.000000000047294
100
AcDbArc
 50
180.0
 51
270.0
  0
LINE
  5
76
330
1F
100
AcDbEntity
  8
LC-001-100-D00-0
 62
     7
370
    50
100
AcDbLine
 10
988.925432
 20
441.598445
 30
0.0
 11
988.925432
 21
446.598446
 31
0.0
  0
LINE
  5
77
330
1F
100
AcDbEntity
  8
LC-001-100-D00-0
 62
     7
370
    50
100
AcDbLine
 10
995.774464
 20
437.598445
 30
0.0
 11
992.925433
 21
437.598445
 31
0.0
  0
LINE
  5
78
330
1F
100
AcDbEntity
  8
LC-001-100-D00-0
 62
     7
370
    50
100
AcDbLine
 10
1037.0764
 20
437.598445
 30
0.0
 11
1037.074543
 21
437.598445
 31
0.0
  0
LINE
  5
79
330
1F
100
AcDbEntity
  8
LC-001-100-D00-0
 62
     7
370
    50
100
AcDbLine
 10
1037.074543
 20
437.598445
 30
0.0
 11
1035.809632
 21
437.803712
 31
0.0
  0
LINE
  5
7A
330
1F
100
AcDbEntity
  8
LC-001-100-D00-0
 62
     7
370
    50
100
AcDbLine
 10
1035.809632
 20
437.803712
 30
0.0
 11
1035.807551
 21
437.804405
 31
0.0
  0
LINE
  5
7B
330
1F
100
AcDbEntity
  8
LC-001-100-D00-0
 62
     7
370
    50
100
AcDbLine
 10
995.776321
 20
437.598445
 30
0.0
 11
997.041233
 21
437.803712
 31
0.0
  0
LINE
  5
7C
330
1F
100
AcDbEntity
  8
LC-001-100-D00-0
 62
     7
370
    50
100
AcDbLine
 10
995.776321
 20
437.598445
 30
0.0
 11
995.774464
 21
437.598445
 31
0.0
  0
LINE
  5
7D
330
1F
100
AcDbEntity
  8
LC-001-100-D00-0
 62
     7
370
    50
100
AcDbLine
 10
997.043313
 20
437.804405
 30
0.0
 11
997.041233
 21
437.803712
 31
0.0
  0
LINE
  5
7E
330
1F
100
AcDbEntity
  8
LC-001-100-D00-0
 62
     7
370
    50
100
AcDbLine
 10
1035.807551
 20
437.804405
 30
0.0
 11
1021.811391
 21
442.469793
 31
0.0
  0
LINE
  5
7F
330
1F
100
AcDbEntity
  8
LC-001-100-D00-0
 62
     7
370
    50
100
AcDbLine
 10
1011.039473
 20
442.469793
 30
0.0
 11
997.043313
 21
437.804405
 31
0.0
  0
LINE
  5
80
330
1F
100
AcDbEntity
  8
LC-001-100-D00-0
 62
     7
370
    50
100
AcDbLine
 10
1067.925432
 20
461.098446
 30
0.0
 11
1093.925432
 21
461.098446
 31
0.0
  0
LINE
  5
81
330
1F
100
AcDbEntity
  8
LC-001-100-D00-0
 62
     7
370
    50
100
AcDbLine
 10
1067.925432
 20
463.098446
 30
0.0
 11
1067.925432
 21
461.098446
 31
0.0
  0
LINE
  5
82
330
1F
100
AcDbEntity
  8
LC-001-100-D00-0
 62
     7
370
    50
100
AcDbLine
 10
1093.925432
 20
463.098446
 30
0.0
 11
1093.925432
 21
461.098446
 31
0.0
  0
LINE
  5
83
330
1F
100
AcDbEntity
  8
LC-001-100-D00-0
 62
     7
370
    50
100
AcDbLine
 10
1067.925432
 20
459.098446
 30
0.0
 11
1067.925432
 21
461.098446
 31
0.0
  0
LINE
  5
84
330
1F
100
AcDbEntity
  8
LC-001-100-D00-0
 62
     7
370
    50
100
AcDbLine
 10
1093.925432
 20
461.098446
 30
0.0
 11
1093.925432
 21
459.098446
 31
0.0
  0
LINE
  5
85
330
1F
100
AcDbEntity
  8
LC-001-100-D00-0
 62
     7
370
    50
100
AcDbLine
 10
1067.925432
 20
459.098446
 30
0.0
 11
1067.925432
 21
437.998446
 31
0.0
  0
LINE
  5
86
330
1F
100
AcDbEntity
  8
LC-001-100-D00-0
 62
     7
370
    50
100
AcDbLine
 10
1093.925432
 20
459.098446
 30
0.0
 11
1093.925432
 21
437.998446
 31
0.0
  0
LINE
  5
87
330
1F
100
AcDbEntity
  8
LC-001-100-D00-0
 62
     7
370
    50
100
AcDbLine
 10
1093.925432
 20
433.998446
 30
0.0
 11
1091.48504
 21
433.998445
 31
0.0
  0
LINE
  5
88
330
1F
100
AcDbEntity
  8
LC-001-100-D00-0
 62
     7
370
    50
100
AcDbLine
 10
1070.365825
 20
433.998445
 30
0.0
 11
1067.925432
 21
433.998446
 31
0.0
  0
LINE
  5
89
330
1F
100
AcDbEntity
  8
LC-001-100-D00-0
 62
     7
370
    50
100
AcDbLine
 10
1067.925432
 20
433.998446
 30
0.0
 11
1067.925432
 21
437.998446
 31
0.0
  0
LINE
  5
8A
330
1F
100
AcDbEntity
  8
LC-001-100-D00-0
 62
     7
370
    50
100
AcDbLine
 10
1093.925432
 20
437.998446
 30
0.0
 11
1093.925432
 21
433.998446
 31
0.0
  0
LINE
  5
8B
330
1F
100
AcDbEntity
  8
LC-001-100-D00-0
 62
     7
370
    50
100
AcDbLine
 10
1037.074543
 20
437.598445
 30
0.0
 11
1035.355292
 21
437.598445
 31
0.0
  0
LINE
  5
8C
330
1F
100
AcDbEntity
  8
LC-001-100-D00-0
 62
     7
370
    50
100
AcDbLine
 10
997.495573
 20
437.598445
 30
0.0
 11
995.776321
 21
437.598445
 31
0.0
  0
LINE
  5
8D
330
1F
100
AcDbEntity
  8
LC-001-100-D00-0
 62
     7
370
    50
100
AcDbLine
 10
1035.355292
 20
437.598445
 30
0.0
 11
997.495573
 21
437.598445
 31
0.0
  0
LINE
  5
8E
330
1F
100
AcDbEntity
  8
LC-001-100-D00-0
 62
     7
370
    50
100
AcDbLine
 10
1055.925432
 20
461.698446
 30
0.0
 11
1046.925432
 21
461.698446
 31
0.0
  0
LINE
  5
8F
330
1F
100
AcDbEntity
  8
LC-001-100-D00-0
 62
     7
370
    50
100
AcDbLine
 10
976.925432
 20
461.698446
 30
0.0
 11
985.925432
 21
461.698446
 31
0.0
  0
LINE
  5
90
330
1F
100
AcDbEntity
  8
LC-001-100-D00-0
 62
     7
370
    50
100
AcDbLine
 10
977.425432
 20
448.098446
 30
0.0
 11
985.425432
 21
448.098446
 31
0.0
  0
LINE
  5
91
330
1F
100
AcDbEntity
  8
LC-001-100-D00-0
 62
     7
370
    50
100
AcDbLine
 10
1055.425432
 20
448.098446
 30
0.0
 11
1047.425432
 21
448.098446
 31
0.0
  0
LINE
  5
92
330
1F
100
AcDbEntity
  8
LC-001-100-D00-0
 62
     7
370
    50
100
AcDbLine
 10
1072.083508
 20
338.09845
 30
0.0
 11
1089.793326
 21
338.09845
 31
0.0
  0
LINE
  5
93
330
1F
100
AcDbEntity
  8
LC-001-100-D00-0
 62
     7
370
    50
100
AcDbLine
 10
1082.863152
 20
330.098446
 30
0.0
 11
1071.425432
 21
330.098446
 31
0.0
  0
LINE
  5
94
330
1F
100
AcDbEntity
  8
LC-001-100-D00-0
 62
     7
370
    50
100
AcDbLine
 10
1090.425432
 20
330.098446
 30
0.0
 11
1082.863152
 21
330.098446
 31
0.0
  0
LINE
  5
95
330
1F
100
AcDbEntity
  8
LC-001-100-D00-0
 62
     7
370
    50
100
AcDbLine
 10
1086.925432
 20
434.098446
 30
0.0
 11
1074.925432
 21
434.098446
 31
0.0
  0
LINE
  5
96
330
1F
100
AcDbEntity
  8
LC-001-100-D00-0
 62
     7
370
    50
100
AcDbLine
 10
1086.925432
 20
432.098446
 30
0.0
 11
1074.925432
 21
432.098446
 31
0.0
  0
LINE
  5
97
330
1F
100
AcDbEntity
  8
LC-001-100-D00-0
 62
     7
370
    50
100
AcDbLine
 10
1068.925432
 20
432.098446
 30
0.0
 11
1068.925431
 21
433.998445
 31
0.0
  0
LINE
  5
98
330
1F
100
AcDbEntity
  8
LC-001-100-D00-0
 62
     7
370
    50
100
AcDbLine
 10
1071.310573
 20
434.098446
 30
0.0
 11
1074.925432
 21
434.098446
 31
0.0
  0
LINE
  5
99
330
1F
100
AcDbEntity
  8
LC-001-100-D00-0
 62
     7
370
    50
100
AcDbLine
 10
1074.925432
 20
432.098446
 30
0.0
 11
1068.925432
 21
432.098446
 31
0.0
  0
LINE
  5
9A
330
1F
100
AcDbEntity
  8
LC-001-100-D00-0
 62
     7
370
    50
100
AcDbLine
 10
1092.925431
 20
433.998445
 30
0.0
 11
1092.925432
 21
432.098446
 31
0.0
  0
LINE
  5
9B
330
1F
100
AcDbEntity
  8
LC-001-100-D00-0
 62
     7
370
    50
100
AcDbLine
 10
1086.925432
 20
434.098446
 30
0.0
 11
1090.540292
 21
434.098446
 31
0.0
  0
LINE
  5
9C
330
1F
100
AcDbEntity
  8
LC-001-100-D00-0
 62
     7
370
    50
100
AcDbLine
 10
1092.925432
 20
432.098446
 30
0.0
 11
1086.925432
 21
432.098446
 31
0.0
  0
LINE
  5
9D
330
1F
100
AcDbEntity
  8
LC-001-100-D00-0
 62
     7
370
    50
100
AcDbLine
 10
1084.425432
 20
407.098446
 30
0.0
 11
1077.425432
 21
407.098446
 31
0.0
  0
LINE
  5
9E
330
1F
100
AcDbEntity
  8
LC-001-100-D00-0
 62
     7
370
    50
100
AcDbLine
 10
1089.425432
 20
407.098446
 30
0.0
 11
1084.425432
 21
407.098446
 31
0.0
  0
LINE
  5
9F
330
1F
100
AcDbEntity
  8
LC-001-100-D00-0
 62
     7
370
    50
100
AcDbLine
 10
1077.425432
 20
407.098446
 30
0.0
 11
1072.425432
 21
407.098446
 31
0.0
  0
LINE
  5
A0
330
1F
100
AcDbEntity
  8
LC-001-100-D00-0
 62
     7
370
    50
100
AcDbLine
 10
1068.925432
 20
407.098446
 30
0.0
 11
1068.925432
 21
432.098446
 31
0.0
  0
LINE
  5
A1
330
1F
100
AcDbEntity
  8
LC-001-100-D00-0
 62
     7
370
    50
100
AcDbLine
 10
1072.425432
 20
407.098446
 30
0.0
 11
1068.925432
 21
407.098446
 31
0.0
  0
LINE
  5
A2
330
1F
100
AcDbEntity
  8
LC-001-100-D00-0
 62
     7
370
    50
100
AcDbLine
 10
1092.925432
 20
432.098446
 30
0.0
 11
1092.925432
 21
407.098446
 31
0.0
  0
LINE
  5
A3
330
1F
100
AcDbEntity
  8
LC-001-100-D00-0
 62
     7
370
    50
100
AcDbLine
 10
1092.925432
 20
407.098446
 30
0.0
 11
1089.425432
 21
407.098446
 31
0.0
  0
LINE
  5
A4
330
1F
100
AcDbEntity
  8
LC-001-100-D00-0
 62
     7
370
    50
100
AcDbLine
 10
1070.925432
 20
353.098446
 30
0.0
 11
1090.925432
 21
353.098446
 31
0.0
  0
LINE
  5
A5
330
1F
100
AcDbEntity
  8
LC-001-100-D00-0
 62
     7
370
    50
100
AcDbLine
 10
1070.925432
 20
349.598446
 30
0.0
 11
1090.925432
 21
349.598446
 31
0.0
  0
LINE
  5
A6
330
1F
100
AcDbEntity
  8
LC-001-100-D00-0
 62
     7
370
    50
100
AcDbLine
 10
1082.965137
 20
339.098446
 30
0.0
 11
1090.925432
 21
339.098446
 31
0.0
  0
LINE
  5
A7
330
1F
100
AcDbEntity
  8
LC-001-100-D00-0
 62
     7
370
    50
100
AcDbLine
 10
1070.925432
 20
339.098446
 30
0.0
 11
1082.965137
 21
339.098446
 31
0.0
  0
LINE
  5
A8
330
1F
100
AcDbEntity
  8
LC-001-100-D00-0
 62
     7
370
    50
100
AcDbLine
 10
1082.761167
 20
338.098446
 30
0.0
 11
1071.925432
 21
338.098446
 31
0.0
  0
LINE
  5
A9
330
1F
100
AcDbEntity
  8
LC-001-100-D00-0
 62
     7
370
    50
100
AcDbLine
 10
1089.925432
 20
338.098446
 30
0.0
 11
1082.761167
 21
338.098446
 31
0.0
  0
LINE
  5
AA
330
1F
100
AcDbEntity
  8
LC-001-100-D00-0
 62
     7
370
    50
100
AcDbLine
 10
1051.425432
 20
438.098446
 30
0.0
 11
1047.025432
 21
438.098446
 31
0.0
  0
LINE
  5
AB
330
1F
100
AcDbEntity
  8
LC-001-100-D00-0
 62
     7
370
    50
100
AcDbLine
 10
1055.825432
 20
438.098446
 30
0.0
 11
1051.425432
 21
438.098446
 31
0.0
  0
LINE
  5
AC
330
1F
100
AcDbEntity
  8
LC-001-100-D00-0
 62
     7
370
    50
100
AcDbLine
 10
981.425432
 20
438.098446
 30
0.0
 11
977.025432
 21
438.098446
 31
0.0
  0
LINE
  5
AD
330
1F
100
AcDbEntity
  8
LC-001-100-D00-0
 62
     7
370
    50
100
AcDbLine
 10
985.825432
 20
438.098446
 30
0.0
 11
981.425432
 21
438.098446
 31
0.0
  0
LINE
  5
AE
330
1F
100
AcDbEntity
  8
LC-001-100-D00-0
 62
     7
370
    50
100
AcDbLine
 10
980.925432
 20
444.098446
 30
0.0
 11
988.925432
 21
444.098445
 31
0.0
  0
LINE
  5
AF
330
1F
100
AcDbEntity
  8
LC-001-100-D00-0
 62
     7
370
    50
100
AcDbLine
 10
980.925432
 20
447.098446
 30
0.0
 11
988.925432
 21
447.098445
 31
0.0
  0
LINE
  5
B0
330
1F
100
AcDbEntity
  8
LC-001-100-D00-0
 62
     7
370
    50
100
AcDbLine
 10
975.925432
 20
444.098446
 30
0.0
 11
975.925432
 21
447.098446
 31
0.0
  0
LINE
  5
B1
330
1F
100
AcDbEntity
  8
LC-001-100-D00-0
 62
     7
370
    50
100
AcDbLine
 10
975.925432
 20
447.098446
 30
0.0
 11
980.925432
 21
447.098446
 31
0.0
  0
LINE
  5
B2
330
1F
100
AcDbEntity
  8
LC-001-100-D00-0
 62
     7
370
    50
100
AcDbLine
 10
980.925432
 20
444.098446
 30
0.0
 11
975.925432
 21
444.098446
 31
0.0
  0
LINE
  5
B3
330
1F
100
AcDbEntity
  8
LC-001-100-D00-0
 62
     7
370
    50
100
AcDbLine
 10
1056.925432
 20
447.098446
 30
0.0
 11
1056.925432
 21
444.098446
 31
0.0
  0
LINE
  5
B4
330
1F
100
AcDbEntity
  8
LC-001-100-D00-0
 62
     7
370
    50
100
AcDbLine
 10
1056.925432
 20
444.098446
 30
0.0
 11
1051.925432
 21
444.098446
 31
0.0
  0
LINE
  5
B5
330
1F
100
AcDbEntity
  8
LC-001-100-D00-0
 62
     7
370
    50
100
AcDbLine
 10
1051.925432
 20
447.098446
 30
0.0
 11
1056.925432
 21
447.098446
 31
0.0
  0
LINE
  5
B6
330
1F
100
AcDbEntity
  8
LC-001-100-D00-0
 62
     7
370
    50
100
AcDbLine
 10
1043.925432
 20
444.098445
 30
0.0
 11
1051.925432
 21
444.098446
 31
0.0
  0
LINE
  5
B7
330
1F
100
AcDbEntity
  8
LC-001-100-D00-0
 62
     7
370
    50
100
AcDbLine
 10
1043.925432
 20
447.098445
 30
0.0
 11
1051.925432
 21
447.098446
 31
0.0
  0
LINE
  5
B8
330
1F
100
AcDbEntity
  8
LC-001-100-D00-0
 62
     7
370
    50
100
AcDbLine
 10
1054.372241
 20
413.848446
 30
0.0
 11
978.478624
 21
413.848446
 31
0.0
  0
LINE
  5
B9
330
1F
100
AcDbEntity
  8
LC-001-100-D00-0
 62
     7
370
    50
100
AcDbLine
 10
975.925432
 20
447.098446
 30
0.0
 11
975.925432
 21
448.098446
 31
0.0
  0
LINE
  5
BA
330
1F
100
AcDbEntity
  8
LC-001-100-D00-0
 62
     7
370
    50
100
AcDbLine
 10
1056.925432
 20
448.098446
 30
0.0
 11
1056.925432
 21
447.098446
 31
0.0
  0
LINE
  5
BB
330
1F
100
AcDbEntity
  8
LC-001-100-D00-0
 62
     7
370
    50
100
AcDbLine
 10
975.925432
 20
448.098446
 30
0.0
 11
975.925432
 21
463.098446
 31
0.0
  0
LINE
  5
BC
330
1F
100
AcDbEntity
  8
LC-001-100-D00-0
 62
     7
370
    50
100
AcDbLine
 10
975.925432
 20
413.848446
 30
0.0
 11
975.925432
 21
442.098446
 31
0.0
  0
LINE
  5
BD
330
1F
100
AcDbEntity
  8
LC-001-100-D00-0
 62
     7
370
    50
100
AcDbLine
 10
978.478624
 20
413.848446
 30
0.0
 11
975.925432
 21
413.848446
 31
0.0
  0
LINE
  5
BE
330
1F
100
AcDbEntity
  8
LC-001-100-D00-0
 62
     7
370
    50
100
AcDbLine
 10
1056.925432
 20
463.098446
 30
0.0
 11
1056.925432
 21
448.098446
 31
0.0
  0
LINE
  5
BF
330
1F
100
AcDbEntity
  8
LC-001-100-D00-0
 62
     7
370
    50
100
AcDbLine
 10
1056.925432
 20
442.098446
 30
0.0
 11
1056.925432
 21
413.848446
 31
0.0
  0
LINE
  5
C0
330
1F
100
AcDbEntity
  8
LC-001-100-D00-0
 62
     7
370
    50
100
AcDbLine
 10
1056.925432
 20
413.848446
 30
0.0
 11
1054.372241
 21
413.848446
 31
0.0
  0
LINE
  5
C1
330
1F
100
AcDbEntity
  8
LC-001-100-D00-0
 62
     7
370
    50
100
AcDbLine
 10
1043.467985
 20
361.098446
 30
0.0
 11
989.382879
 21
361.098446
 31
0.0
  0
LINE
  5
C2
330
1F
100
AcDbEntity
  8
LC-001-100-D00-0
 62
     7
370
    50
100
AcDbLine
 10
978.478624
 20
413.848446
 30
0.0
 11
1054.372241
 21
413.848446
 31
0.0
  0
LINE
  5
C3
330
1F
100
AcDbEntity
  8
LC-001-100-D00-0
 62
     7
370
    50
100
AcDbLine
 10
1036.94103
 20
354.598446
 30
0.0
 11
995.909835
 21
354.598446
 31
0.0
  0
LINE
  5
C4
330
1F
100
AcDbEntity
  8
LC-001-100-D00-0
 62
     7
370
    50
100
AcDbLine
 10
1056.925432
 20
413.848446
 30
0.0
 11
1056.925432
 21
373.598446
 31
0.0
  0
LINE
  5
C5
330
1F
100
AcDbEntity
  8
LC-001-100-D00-0
 62
     7
370
    50
100
AcDbLine
 10
1054.372241
 20
413.848446
 30
0.0
 11
1056.925432
 21
413.848446
 31
0.0
  0
ARC
  5
C6
330
1F
100
AcDbEntity
  8
LC-001-100-D00-0
 62
     7
370
    50
100
AcDbCircle
 10
1044.425432
 20
373.598446
 30
0.0
 40
12.5
100
AcDbArc
 50
270.0
 51
0.0
  0
LINE
  5
C7
330
1F
100
AcDbEntity
  8
LC-001-100-D00-0
 62
     7
370
    50
100
AcDbLine
 10
1044.425432
 20
361.098446
 30
0.0
 11
1043.467985
 21
361.098446
 31
0.0
  0
LINE
  5
C8
330
1F
100
AcDbEntity
  8
LC-001-100-D00-0
 62
     7
370
    50
100
AcDbLine
 10
975.925432
 20
373.598446
 30
0.0
 11
975.925432
 21
413.848446
 31
0.0
  0
LINE
  5
C9
330
1F
100
AcDbEntity
  8
LC-001-100-D00-0
 62
     7
370
    50
100
AcDbLine
 10
975.925432
 20
413.848446
 30
0.0
 11
978.478624
 21
413.848446
 31
0.0
  0
ARC
  5
CA
330
1F
100
AcDbEntity
  8
LC-001-100-D00-0
 62
     7
370
    50
100
AcDbCircle
 10
988.425432
 20
373.598446
 30
0.0
 40
12.50000000000023
100
AcDbArc
 50
180.0
 51
270.0
  0
LINE
  5
CB
330
1F
100
AcDbEntity
  8
LC-001-100-D00-0
 62
     7
370
    50
100
AcDbLine
 10
989.382879
 20
361.098446
 30
0.0
 11
988.425432
 21
361.098446
 31
0.0
  0
ARC
  5
CC
330
1F
100
AcDbEntity
  8
LC-001-100-D00-0
 62
     7
370
    50
100
AcDbCircle
 10
995.907552
 20
361.598446
 30
0.0
 40
7.000000000000336
100
AcDbArc
 50
184.096044
 51
270.0
  0
LINE
  5
CD
330
1F
100
AcDbEntity
  8
LC-001-100-D00-0
 62
     7
370
    50
100
AcDbLine
 10
995.909835
 20
354.598446
 30
0.0
 11
995.907552
 21
354.598446
 31
0.0
  0
ARC
  5
CE
330
1F
100
AcDbEntity
  8
LC-001-100-D00-0
 62
     7
370
    50
100
AcDbCircle
 10
1036.943312
 20
361.598446
 30
0.0
 40
7.0
100
AcDbArc
 50
270.0
 51
355.903956
  0
LINE
  5
CF
330
1F
100
AcDbEntity
  8
LC-001-100-D00-0
 62
     7
370
    50
100
AcDbLine
 10
1036.943312
 20
354.598446
 30
0.0
 11
1036.94103
 21
354.598446
 31
0.0
  0
LINE
  5
D0
330
1F
100
AcDbEntity
  8
LC-001-100-D00-0
 62
     7
370
    50
100
AcDbLine
 10
981.425432
 20
442.098446
 30
0.0
 11
986.925432
 21
442.098446
 31
0.0
  0
LINE
  5
D1
330
1F
100
AcDbEntity
  8
LC-001-100-D00-0
 62
     7
370
    50
100
AcDbLine
 10
975.925432
 20
442.098446
 30
0.0
 11
981.425432
 21
442.098446
 31
0.0
  0
LINE
  5
D2
330
1F
100
AcDbEntity
  8
LC-001-100-D00-0
 62
     7
370
    50
100
AcDbLine
 10
1051.425432
 20
442.098446
 30
0.0
 11
1056.925432
 21
442.098446
 31
0.0
  0
LINE
  5
D3
330
1F
100
AcDbEntity
  8
LC-001-100-D00-0
 62
     7
370
    50
100
AcDbLine
 10
1045.925432
 20
442.098446
 30
0.0
 11
1051.425432
 21
442.098446
 31
0.0
  0
DIMENSION
  5
D6
330
1F
100
AcDbEntity
  8
LC-001-100-D00-0
 62
     7
370
    25
100
AcDbDimension
  2
*D1
 10
1056.925432
 20
299.276323
 30
0.0
 11
1018.536168
 21
354.276323
 31
0.0
 70
   160
  1
81
 71
     5
 42
81.0
  3
LC-DIM-L-0100-02-02
100
AcDbAlignedDimension
 13
975.925432
 23
373.598446
 33
0.0
 14
1056.925432
 24
373.598446
 34
0.0
100
AcDbRotatedDimension
  0
LINE
  5
E7
330
1F
100
AcDbEntity
  8
LC-001-100-D00-0
  6
DASHDOT
 62
     7
370
    25
100
AcDbLine
 10
1016.425432
 20
354.598446
 30
0.0
 11
1016.425432
 21
464.598446
 31
0.0
  0
LINE
  5
E8
330
1F
100
AcDbEntity
  8
LC-001-100-D00-0
  6
DASHDOT
 62
     7
370
    25
100
AcDbLine
 10
1080.925432
 20
343.098446
 30
0.0
 11
1080.925432
 21
467.098446
 31
0.0
  0
LINE
  5
E9
330
1F
100
AcDbEntity
  8
LC-001-100-D00-0
 62
     7
370
    50
100
AcDbLine
 10
662.906776
 20
82.556018
 30
0.0
 11
662.906776
 21
81.056018
 31
0.0
  0
LINE
  5
EA
330
1F
100
AcDbEntity
  8
LC-001-100-D00-0
 62
     7
370
    50
100
AcDbLine
 10
662.906776
 20
81.056018
 30
0.0
 11
657.906776
 21
81.056018
 31
0.0
  0
LINE
  5
EB
330
1F
100
AcDbEntity
  8
LC-001-100-D00-0
 62
     7
370
    50
100
AcDbLine
 10
657.906776
 20
82.556018
 30
0.0
 11
662.906776
 21
82.556018
 31
0.0
  0
LINE
  5
EC
330
1F
100
AcDbEntity
  8
LC-001-100-D00-0
 62
     7
370
    50
100
AcDbLine
 10
-432.093224
 20
81.056018
 30
0.0
 11
657.906776
 21
81.056018
 31
0.0
  0
LINE
  5
ED
330
1F
100
AcDbEntity
  8
LC-001-100-D00-0
 62
     7
370
    50
100
AcDbLine
 10
-432.093224
 20
82.556018
 30
0.0
 11
657.906776
 21
82.556018
 31
0.0
  0
LINE
  5
EE
330
1F
100
AcDbEntity
  8
LC-001-100-D00-0
 62
     7
370
    50
100
AcDbLine
 10
-437.093224
 20
81.056018
 30
0.0
 11
-437.093224
 21
82.556018
 31
0.0
  0
LINE
  5
EF
330
1F
100
AcDbEntity
  8
LC-001-100-D00-0
 62
     7
370
    50
100
AcDbLine
 10
-432.093224
 20
81.056018
 30
0.0
 11
-437.093224
 21
81.056018
 31
0.0
  0
LINE
  5
F0
330
1F
100
AcDbEntity
  8
LC-001-100-D00-0
 62
     7
370
    50
100
AcDbLine
 10
-437.093224
 20
82.556018
 30
0.0
 11
-432.093224
 21
82.556018
 31
0.0
  0
LINE
  5
F1
330
1F
100
AcDbEntity
  8
LC-001-100-D00-0
 62
     7
370
    50
100
AcDbLine
 10
-437.093224
 20
79.556018
 30
0.0
 11
-437.093224
 21
81.056018
 31
0.0
  0
LINE
  5
F2
330
1F
100
AcDbEntity
  8
LC-001-100-D00-0
 62
     7
370
    50
100
AcDbLine
 10
662.906776
 20
81.056018
 30
0.0
 11
662.906776
 21
79.556018
 31
0.0
  0
ARC
  5
F3
330
1F
100
AcDbEntity
  8
LC-001-100-D00-0
 62
     7
370
    50
100
AcDbCircle
 10
610.406776
 20
13.056018
 30
0.0
 40
2.5
100
AcDbArc
 50
270.0
 51
0.0
  0
ARC
  5
F4
330
1F
100
AcDbEntity
  8
LC-001-100-D00-0
 62
     7
370
    50
100
AcDbCircle
 10
610.406776
 20
60.056018
 30
0.0
 40
2.5
100
AcDbArc
 50
0.0
 51
90.0
  0
LINE
  5
F5
330
1F
100
AcDbEntity
  8
LC-001-100-D00-0
 62
     7
370
    50
100
AcDbLine
 10
612.906776
 20
13.056018
 30
0.0
 11
612.906776
 21
60.056018
 31
0.0
  0
LINE
  5
F6
330
1F
100
AcDbEntity
  8
LC-001-100-D00-0
 62
     7
370
    50
100
AcDbLine
 10
610.406776
 20
10.556018
 30
0.0
 11
-384.593224
 21
10.556018
 31
0.0
  0
LINE
  5
F7
330
1F
100
AcDbEntity
  8
LC-001-100-D00-0
 62
     7
370
    50
100
AcDbLine
 10
-384.593224
 20
62.556018
 30
0.0
 11
610.406776
 21
62.556018
 31
0.0
  0
ARC
  5
F8
330
1F
100
AcDbEntity
  8
LC-001-100-D00-0
 62
     7
370
    50
100
AcDbCircle
 10
-384.593224
 20
60.056018
 30
0.0
 40
2.5
100
AcDbArc
 50
90.0
 51
180.0
  0
ARC
  5
F9
330
1F
100
AcDbEntity
  8
LC-001-100-D00-0
 62
     7
370
    50
100
AcDbCircle
 10
-384.593224
 20
13.056018
 30
0.0
 40
2.500000000000114
100
AcDbArc
 50
180.0
 51
270.0
  0
LINE
  5
FA
330
1F
100
AcDbEntity
  8
LC-001-100-D00-0
 62
     7
370
    50
100
AcDbLine
 10
-387.093224
 20
13.056018
 30
0.0
 11
-387.093224
 21
60.056018
 31
0.0
  0
LINE
  5
FB
330
1F
100
AcDbEntity
  8
LC-001-100-D00-0
 62
     7
370
    50
100
AcDbLine
 10
-432.093224
 20
-40.943982
 30
0.0
 11
657.906776
 21
-40.943982
 31
0.0
  0
ARC
  5
FC
330
1F
100
AcDbEntity
  8
LC-001-100-D00-0
 62
     7
370
    50
100
AcDbCircle
 10
-432.093224
 20
-35.943982
 30
0.0
 40
5.0
100
AcDbArc
 50
180.0
 51
270.0
  0
ARC
  5
FD
330
1F
100
AcDbEntity
  8
LC-001-100-D00-0
 62
     7
370
    50
100
AcDbCircle
 10
657.906776
 20
-35.943982
 30
0.0
 40
5.0
100
AcDbArc
 50
270.0
 51
0.0
  0
LINE
  5
FE
330
1F
100
AcDbEntity
  8
LC-001-100-D00-0
 62
     7
370
    50
100
AcDbLine
 10
-437.093224
 20
79.556018
 30
0.0
 11
-437.093224
 21
-35.943982
 31
0.0
  0
LINE
  5
FF
330
1F
100
AcDbEntity
  8
LC-001-100-D00-0
 62
     7
370
    50
100
AcDbLine
 10
662.906776
 20
79.556018
 30
0.0
 11
662.906776
 21
-35.943982
 31
0.0
  0
CIRCLE
  5
100
330
1F
100
AcDbEntity
  8
LC-001-100-D00-0
 62
     7
370
    50
100
AcDbCircle
 10
582.906776
 20
36.556018
 30
0.0
 40
3.0
  0
CIRCLE
  5
101
330
1F
100
AcDbEntity
  8
LC-001-100-D00-0
 62
     7
370
    50
100
AcDbCircle
 10
397.906776
 20
36.556018
 30
0.0
 40
2.999999999999545
  0
CIRCLE
  5
102
330
1F
100
AcDbEntity
  8
LC-001-100-D00-0
 62
     7
370
    50
100
AcDbCircle
 10
212.906776
 20
36.556018
 30
0.0
 40
3.0
  0
CIRCLE
  5
103
330
1F
100
AcDbEntity
  8
LC-001-100-D00-0
 62
     7
370
    50
100
AcDbCircle
 10
12.906776
 20
36.556018
 30
0.0
 40
2.999999999999773
  0
CIRCLE
  5
104
330
1F
100
AcDbEntity
  8
LC-001-100-D00-0
 62
     7
370
    50
100
AcDbCircle
 10
-172.093224
 20
36.556018
 30
0.0
 40
2.999999999999773
  0
CIRCLE
  5
105
330
1F
100
AcDbEntity
  8
LC-001-100-D00-0
 62
     7
370
    50
100
AcDbCircle
 10
-357.093224
 20
36.556018
 30
0.0
 40
2.999999999999773
  0
LINE
  5
106
330
1F
100
AcDbEntity
  8
LC-001-100-D00-0
 62
     7
370
    50
100
AcDbLine
 10
604.880594
 20
24.233349
 30
0.0
 11
604.880594
 21
13.056019
 31
0.0
  0
ARC
  5
107
330
1F
100
AcDbEntity
  8
LC-001-100-D00-0
 62
     7
370
    50
100
AcDbCircle
 10
1608.887265
 20
-132.727197
 30
0.0
 40
1016.201755852241
100
AcDbArc
 50
171.105076
 51
171.114633
  0
INSERT
  5
10F
330
1F
100
AcDbEntity
  8
LC-001-100-D00-0
 62
     7
370
    50
100
AcDbBlockReference
  2
KLON1
 10
0.0
 20
0.0
 30
0.0
  0
LINE
  5
110
330
1F
100
AcDbEntity
  8
LC-001-100-D00-0
 62
     7
370
    50
100
AcDbLine
 10
604.880594
 20
60.041379
 30
0.0
 11
604.880594
 21
48.878687
 31
0.0
  0
INSERT
  5
116
330
1F
100
AcDbEntity
  8
LC-001-100-D00-0
 62
     7
370
    50
100
AcDbBlockReference
  2
KLON2
 10
0.0
 20
0.0
 30
0.0
  0
INSERT
  5
11C
330
1F
100
AcDbEntity
  8
LC-001-100-D00-0
 62
     7
370
    50
100
AcDbBlockReference
  2
KLON3
 10
0.0
 20
0.0
 30
0.0
  0
INSERT
  5
122
330
1F
100
AcDbEntity
  8
LC-001-100-D00-0
 62
     7
370
    50
100
AcDbBlockReference
  2
KLON4
 10
0.0
 20
0.0
 30
0.0
  0
LINE
  5
123
330
1F
100
AcDbEntity
  8
LC-001-100-D00-0
 62
     7
370
    50
100
AcDbLine
 10
-379.067041
 20
60.041379
 30
0.0
 11
-379.067041
 21
48.878687
 31
0.0
  0
INSERT
  5
12B
330
1F
100
AcDbEntity
  8
LC-001-100-D00-0
 62
     7
370
    50
100
AcDbBlockReference
  2
KLON5
 10
0.0
 20
0.0
 30
0.0
  0
ARC
  5
12C
330
1F
100
AcDbEntity
  8
LC-001-100-D00-0
 62
     7
370
    50
100
AcDbCircle
 10
-1383.073712
 20
-132.727197
 30
0.0
 40
1016.201755852291
100
AcDbArc
 50
8.885367
 51
8.894924
  0
LINE
  5
12D
330
1F
100
AcDbEntity
  8
LC-001-100-D00-0
 62
     7
370
    50
100
AcDbLine
 10
-379.067041
 20
24.233349
 30
0.0
 11
-379.067041
 21
13.056019
 31
0.0
  0
INSERT
  5
133
330
1F
100
AcDbEntity
  8
LC-001-100-D00-0
 62
     7
370
    50
100
AcDbBlockReference
  2
KLON6
 10
0.0
 20
0.0
 30
0.0
  0
ELLIPSE
  5
134
330
1F
100
AcDbEntity
  8
LC-001-100-D00-0
 62
     7
370
    50
100
AcDbEllipse
 10
604.833808
 20
13.056018
 30
0.0
 11
0.0
 21
-2.499999511718702
 31
0.0
210
0.0
220
0.0
230
1.0
 40
0.018242
 41
3.141592653599765
 42
4.712388980377641
  0
ELLIPSE
  5
135
330
1F
100
AcDbEntity
  8
LC-001-100-D00-0
 62
     7
370
    50
100
AcDbEllipse
 10
467.833808
 20
13.056018
 30
0.0
 11
0.0
 21
-2.499999404907156
 31
0.0
210
0.0
220
0.0
230
1.0
 40
0.018242
 41
3.141592653588547
 42
4.712388980381052
  0
ELLIPSE
  5
136
330
1F
100
AcDbEntity
  8
LC-001-100-D00-0
 62
     7
370
    50
100
AcDbEllipse
 10
673.379413
 20
13.056018
 30
0.0
 11
68.49999999346683
 21
0.0
 31
0.0
210
0.0
220
0.0
230
1.0
 40
0.036496
 41
3.141592653597524
 42
3.169858841660811
  0
ELLIPSE
  5
137
330
1F
100
AcDbEntity
  8
LC-001-100-D00-0
 62
     7
370
    50
100
AcDbEllipse
 10
-379.020255
 20
13.056018
 30
0.0
 11
0.0
 21
-2.5
 31
0.0
210
0.0
220
0.0
230
1.0
 40
0.018242
 41
1.570796326802217
 42
3.141592653591039
  0
ELLIPSE
  5
138
330
1F
100
AcDbEntity
  8
LC-001-100-D00-0
 62
     7
370
    50
100
AcDbEllipse
 10
-242.020255
 20
13.056018
 30
0.0
 11
0.0
 21
-2.499999877929684
 31
0.0
210
0.0
220
0.0
230
1.0
 40
0.018242
 41
1.570796326798489
 42
3.141592653591663
  0
ELLIPSE
  5
139
330
1F
100
AcDbEntity
  8
LC-001-100-D00-0
 62
     7
370
    50
100
AcDbEllipse
 10
-447.565861
 20
13.056018
 30
0.0
 11
68.4999999902
 21
0.0
 31
0.0
210
0.0
220
0.0
230
1.0
 40
0.036496
 41
6.254919119109631
 42
6.283185307179723
  0
ELLIPSE
  5
13A
330
1F
100
AcDbEntity
  8
LC-001-100-D00-0
 62
     7
370
    50
100
AcDbEllipse
 10
673.379413
 20
60.056018
 30
0.0
 11
68.49999999999949
 21
0.0
 31
0.0
210
0.0
220
0.0
230
1.0
 40
0.036496
 41
3.141592653589796
 42
3.147448628039455
  0
ELLIPSE
  5
13B
330
1F
100
AcDbEntity
  8
LC-001-100-D00-0
 62
     7
370
    50
100
AcDbEllipse
 10
604.833808
 20
60.056018
 30
0.0
 11
0.0
 21
-2.499999023437309
 31
0.0
210
0.0
220
0.0
230
1.0
 40
0.018242
 41
4.712388980384692
 42
6.283185335732645
  0
ELLIPSE
  5
13C
330
1F
100
AcDbEntity
  8
LC-001-100-D00-0
 62
     7
370
    50
100
AcDbEllipse
 10
-447.565861
 20
60.056018
 30
0.0
 11
68.50000000000583
 21
0.0
 31
0.0
210
0.0
220
0.0
230
1.0
 40
0.036496
 41
6.277329332730695
 42
6.283185307179581
  0
ELLIPSE
  5
13D
330
1F
100
AcDbEntity
  8
LC-001-100-D00-0
 62
     7
370
    50
100
AcDbEllipse
 10
-379.020255
 20
60.056018
 30
0.0
 11
0.0
 21
-2.499999969482422
 31
0.0
210
0.0
220
0.0
230
1.0
 40
0.018242
 41
6.283185278617814
 42
7.853981633974486
  0
ELLIPSE
  5
13E
330
1F
100
AcDbEntity
  8
LC-001-100-D00-0
 62
     7
370
    50
100
AcDbEllipse
 10
467.833808
 20
60.056018
 30
0.0
 11
0.0
 21
-2.499999771118154
 31
0.0
210
0.0
220
0.0
230
0.9999999999999999
 40
0.018242
 41
4.71238898038833
 42
6.28318531934841
  0
ELLIPSE
  5
13F
330
1F
100
AcDbEntity
  8
LC-001-100-D00-0
 62
     7
370
    50
100
AcDbEllipse
 10
-242.020255
 20
60.056018
 30
0.0
 11
0.0
 21
-2.499999755859363
 31
0.0
210
0.0
220
0.0
230
0.9999999999999999
 40
0.018242
 41
6.283185295017617
 42
7.853981633970842
  0
LINE
  5
140
330
1F
100
AcDbEntity
  8
LC-001-100-D00-0
 62
     7
370
    50
100
AcDbLine
 10
467.879407
 20
13.056019
 30
0.0
 11
467.879407
 21
15.906535
 31
0.0
  0
INSERT
  5
146
330
1F
100
AcDbEntity
  8
LC-001-100-D00-0
 62
     7
370
    50
100
AcDbBlockReference
  2
KLON7
 10
0.0
 20
0.0
 30
0.0
  0
INSERT
  5
14C
330
1F
100
AcDbEntity
  8
LC-001-100-D00-0
 62
     7
370
    50
100
AcDbBlockReference
  2
KLON8
 10
0.0
 20
0.0
 30
0.0
  0
LINE
  5
14D
330
1F
100
AcDbEntity
  8
LC-001-100-D00-0
 62
     7
370
    50
100
AcDbLine
 10
-242.065854
 20
13.056019
 30
0.0
 11
-242.065854
 21
15.906535
 31
0.0
  0
INSERT
  5
154
330
1F
100
AcDbEntity
  8
LC-001-100-D00-0
 62
     7
370
    50
100
AcDbBlockReference
  2
KLON9
 10
0.0
 20
0.0
 30
0.0
  0
INSERT
  5
15B
330
1F
100
AcDbEntity
  8
LC-001-100-D00-0
 62
     7
370
    50
100
AcDbBlockReference
  2
KLON10
 10
0.0
 20
0.0
 30
0.0
  0
INSERT
  5
161
330
1F
100
AcDbEntity
  8
LC-001-100-D00-0
 62
     7
370
    50
100
AcDbBlockReference
  2
KLON11
 10
0.0
 20
0.0
 30
0.0
  0
INSERT
  5
168
330
1F
100
AcDbEntity
  8
LC-001-100-D00-0
 62
     7
370
    50
100
AcDbBlockReference
  2
KLON12
 10
0.0
 20
0.0
 30
0.0
  0
INSERT
  5
16F
330
1F
100
AcDbEntity
  8
LC-001-100-D00-0
 62
     7
370
    50
100
AcDbBlockReference
  2
KLON13
 10
0.0
 20
0.0
 30
0.0
  0
INSERT
  5
175
330
1F
100
AcDbEntity
  8
LC-001-100-D00-0
 62
     7
370
    50
100
AcDbBlockReference
  2
KLON14
 10
0.0
 20
0.0
 30
0.0
  0
LINE
  5
176
330
1F
100
AcDbEntity
  8
LC-001-100-D00-0
 62
     7
370
    50
100
AcDbLine
 10
467.879407
 20
57.205502
 30
0.0
 11
467.879407
 21
60.056017
 31
0.0
  0
LINE
  5
177
330
1F
100
AcDbEntity
  8
LC-001-100-D00-0
 62
     7
370
    50
100
AcDbLine
 10
-242.065854
 20
57.205502
 30
0.0
 11
-242.065854
 21
60.056017
 31
0.0
  0
LINE
  5
178
330
1F
100
AcDbEntity
  8
LC-001-100-D00-0
 62
     7
370
    50
100
AcDbLine
 10
467.893682
 20
16.70034
 30
0.0
 11
467.893682
 21
30.695067
 31
0.0
  0
ELLIPSE
  5
179
330
1F
100
AcDbEntity
  8
LC-001-100-D00-0
 62
     7
370
    15
100
AcDbEllipse
 10
185.29651
 20
182.393455
 30
0.0
 11
28.64933018629679
 21
1.713494940988166
 31
0.0
210
0.0
220
0.0
230
1.0
 40
0.016531
 41
6.280994665934066
 42
6.282196627511634
  0
ELLIPSE
  5
17A
330
1F
100
AcDbEntity
  8
LC-001-100-D00-0
 62
     7
370
    15
100
AcDbEllipse
 10
185.29651
 20
193.761778
 30
0.0
 11
28.64933022557235
 21
-1.713494943337208
 31
0.0
210
0.0
220
0.0
230
1.0
 40
0.016531
 41
0.000988679664139
 42
0.0021906412414867
  0
LINE
  5
17B
330
1F
100
AcDbEntity
  8
LC-001-100-D00-0
 62
     7
370
    50
100
AcDbLine
 10
467.893682
 20
42.416969
 30
0.0
 11
467.893682
 21
56.411696
 31
0.0
  0
ELLIPSE
  5
17C
330
1F
100
AcDbEntity
  8
LC-001-100-D00-0
 62
     7
370
    15
100
AcDbEllipse
 10
100.600435
 20
182.393455
 30
0.0
 11
28.64933024128268
 21
-1.713494944276881
 31
0.0
210
0.0
220
0.0
230
1.0
 40
0.016531
 41
3.142581333258
 42
3.143783294835569
  0
LINE
  5
17D
330
1F
100
AcDbEntity
  8
LC-001-100-D00-0
 62
     7
370
    50
100
AcDbLine
 10
-242.08013
 20
16.70034
 30
0.0
 11
-242.08013
 21
30.695067
 31
0.0
  0
ELLIPSE
  5
17E
330
1F
100
AcDbEntity
  8
LC-001-100-D00-0
 62
     7
370
    15
100
AcDbEllipse
 10
100.600435
 20
193.761778
 30
0.0
 11
28.64933025460208
 21
1.713494945073454
 31
0.0
210
0.0
220
0.0
230
0.9999999999999999
 40
0.016531
 41
3.139402012346098
 42
3.1406039739235
  0
LINE
  5
17F
330
1F
100
AcDbEntity
  8
LC-001-100-D00-0
 62
     7
370
    50
100
AcDbLine
 10
-242.08013
 20
42.416969
 30
0.0
 11
-242.08013
 21
56.411696
 31
0.0
  0
LINE
  5
180
330
1F
100
AcDbEntity
  8
LC-001-100-D00-0
 62
     7
370
    50
100
AcDbLine
 10
467.879407
 20
15.906907
 30
0.0
 11
467.893593
 21
16.697477
 31
0.0
  0
LINE
  5
181
330
1F
100
AcDbEntity
  8
LC-001-100-D00-0
 62
     7
370
    50
100
AcDbLine
 10
467.879407
 20
57.205129
 30
0.0
 11
467.893593
 21
56.414559
 31
0.0
  0
LINE
  5
182
330
1F
100
AcDbEntity
  8
LC-001-100-D00-0
 62
     7
370
    50
100
AcDbLine
 10
-242.065854
 20
15.906907
 30
0.0
 11
-242.08004
 21
16.697477
 31
0.0
  0
LINE
  5
183
330
1F
100
AcDbEntity
  8
LC-001-100-D00-0
 62
     7
370
    50
100
AcDbLine
 10
-242.065854
 20
57.205129
 30
0.0
 11
-242.08004
 21
56.414559
 31
0.0
  0
ARC
  5
184
330
1F
100
AcDbEntity
  8
LC-001-100-D00-0
 62
     7
370
    50
100
AcDbCircle
 10
143.406769
 20
36.556038
 30
0.0
 40
24.80002105914423
100
AcDbArc
 50
270.0
 51
300.592807
  0
ARC
  5
185
330
1F
100
AcDbEntity
  8
LC-001-100-D00-0
 62
     7
370
    50
100
AcDbCircle
 10
82.406784
 20
36.556038
 30
0.0
 40
24.80002105914384
100
AcDbArc
 50
239.407193
 51
270.0
  0
ARC
  5
186
330
1F
100
AcDbEntity
  8
LC-001-100-D00-0
 62
     7
370
    50
100
AcDbCircle
 10
143.406771
 20
36.556005
 30
0.0
 40
24.80001358063947
100
AcDbArc
 50
59.407188
 51
90.0
  0
ARC
  5
187
330
1F
100
AcDbEntity
  8
LC-001-100-D00-0
 62
     7
370
    50
100
AcDbCircle
 10
82.406782
 20
36.556005
 30
0.0
 40
24.80001358063953
100
AcDbArc
 50
90.0
 51
120.592812
  0
LINE
  5
188
330
1F
100
AcDbEntity
  8
LC-001-100-D00-0
 62
     7
370
    50
100
AcDbLine
 10
82.406776
 20
61.356019
 30
0.0
 11
143.406777
 21
61.356019
 31
0.0
  0
LINE
  5
189
330
1F
100
AcDbEntity
  8
LC-001-100-D00-0
 62
     7
370
    50
100
AcDbLine
 10
143.406777
 20
11.756017
 30
0.0
 11
82.406776
 21
11.756017
 31
0.0
  0
LINE
  5
18A
330
1F
100
AcDbEntity
  8
LC-001-100-D00-0
 62
     7
370
    50
100
AcDbLine
 10
46.073943
 20
39.994921
 30
0.0
 11
46.082087
 21
39.627029
 31
0.0
  0
LINE
  5
18B
330
1F
100
AcDbEntity
  8
LC-001-100-D00-0
 62
     7
370
    50
100
AcDbLine
 10
44.962667
 20
40.78789
 30
0.0
 11
46.073943
 21
39.994921
 31
0.0
  0
LINE
  5
18C
330
1F
100
AcDbEntity
  8
LC-001-100-D00-0
 62
     7
370
    50
100
AcDbLine
 10
46.073943
 20
41.580859
 30
0.0
 11
44.962667
 21
40.78789
 31
0.0
  0
LINE
  5
18D
330
1F
100
AcDbEntity
  8
LC-001-100-D00-0
 62
     7
370
    50
100
AcDbLine
 10
46.073943
 20
41.954557
 30
0.0
 11
46.073943
 21
41.580859
 31
0.0
  0
LINE
  5
18E
330
1F
100
AcDbEntity
  8
LC-001-100-D00-0
 62
     7
370
    50
100
AcDbLine
 10
44.700444
 20
40.975089
 30
0.0
 11
46.073943
 21
41.954557
 31
0.0
  0
LINE
  5
18F
330
1F
100
AcDbEntity
  8
LC-001-100-D00-0
 62
     7
370
    50
100
AcDbLine
 10
43.516248
 20
41.819941
 30
0.0
 11
44.700444
 21
40.975089
 31
0.0
  0
LINE
  5
190
330
1F
100
AcDbEntity
  8
LC-001-100-D00-0
 62
     7
370
    50
100
AcDbLine
 10
43.516248
 20
41.446243
 30
0.0
 11
43.516248
 21
41.819941
 31
0.0
  0
LINE
  5
191
330
1F
100
AcDbEntity
  8
LC-001-100-D00-0
 62
     7
370
    50
100
AcDbLine
 10
44.438928
 20
40.78789
 30
0.0
 11
43.516248
 21
41.446243
 31
0.0
  0
LINE
  5
192
330
1F
100
AcDbEntity
  8
LC-001-100-D00-0
 62
     7
370
    50
100
AcDbLine
 10
43.516248
 20
40.129537
 30
0.0
 11
44.438928
 21
40.78789
 31
0.0
  0
LINE
  5
193
330
1F
100
AcDbEntity
  8
LC-001-100-D00-0
 62
     7
370
    50
100
AcDbLine
 10
43.516248
 20
39.755839
 30
0.0
 11
43.516248
 21
40.129537
 31
0.0
  0
LINE
  5
194
330
1F
100
AcDbEntity
  8
LC-001-100-D00-0
 62
     7
370
    50
100
AcDbLine
 10
44.700444
 20
40.601391
 30
0.0
 11
43.516248
 21
39.755839
 31
0.0
  0
LINE
  5
195
330
1F
100
AcDbEntity
  8
LC-001-100-D00-0
 62
     7
370
    50
100
AcDbLine
 10
46.082087
 20
39.627029
 30
0.0
 11
44.700444
 21
40.601391
 31
0.0
  0
LINE
  5
196
330
1F
100
AcDbEntity
  8
LC-001-100-D00-0
 62
     7
370
    50
100
AcDbLine
 10
46.073943
 20
35.328254
 30
0.0
 11
46.082087
 21
34.960363
 31
0.0
  0
LINE
  5
197
330
1F
100
AcDbEntity
  8
LC-001-100-D00-0
 62
     7
370
    50
100
AcDbLine
 10
44.962667
 20
36.121223
 30
0.0
 11
46.073943
 21
35.328254
 31
0.0
  0
LINE
  5
198
330
1F
100
AcDbEntity
  8
LC-001-100-D00-0
 62
     7
370
    50
100
AcDbLine
 10
46.073943
 20
36.914192
 30
0.0
 11
44.962667
 21
36.121223
 31
0.0
  0
LINE
  5
199
330
1F
100
AcDbEntity
  8
LC-001-100-D00-0
 62
     7
370
    50
100
AcDbLine
 10
46.073943
 20
37.28789
 30
0.0
 11
46.073943
 21
36.914192
 31
0.0
  0
LINE
  5
19A
330
1F
100
AcDbEntity
  8
LC-001-100-D00-0
 62
     7
370
    50
100
AcDbLine
 10
44.700444
 20
36.308423
 30
0.0
 11
46.073943
 21
37.28789
 31
0.0
  0
LINE
  5
19B
330
1F
100
AcDbEntity
  8
LC-001-100-D00-0
 62
     7
370
    50
100
AcDbLine
 10
43.516248
 20
37.153275
 30
0.0
 11
44.700444
 21
36.308423
 31
0.0
  0
LINE
  5
19C
330
1F
100
AcDbEntity
  8
LC-001-100-D00-0
 62
     7
370
    50
100
AcDbLine
 10
43.516248
 20
36.779577
 30
0.0
 11
43.516248
 21
37.153275
 31
0.0
  0
LINE
  5
19D
330
1F
100
AcDbEntity
  8
LC-001-100-D00-0
 62
     7
370
    50
100
AcDbLine
 10
44.438928
 20
36.121223
 30
0.0
 11
43.516248
 21
36.779577
 31
0.0
  0
LINE
  5
19E
330
1F
100
AcDbEntity
  8
LC-001-100-D00-0
 62
     7
370
    50
100
AcDbLine
 10
43.516248
 20
35.46287
 30
0.0
 11
44.438928
 21
36.121223
 31
0.0
  0
LINE
  5
19F
330
1F
100
AcDbEntity
  8
LC-001-100-D00-0
 62
     7
370
    50
100
AcDbLine
 10
43.516248
 20
35.089172
 30
0.0
 11
43.516248
 21
35.46287
 31
0.0
  0
LINE
  5
1A0
330
1F
100
AcDbEntity
  8
LC-001-100-D00-0
 62
     7
370
    50
100
AcDbLine
 10
44.700444
 20
35.934725
 30
0.0
 11
43.516248
 21
35.089172
 31
0.0
  0
LINE
  5
1A1
330
1F
100
AcDbEntity
  8
LC-001-100-D00-0
 62
     7
370
    50
100
AcDbLine
 10
46.082087
 20
34.960363
 30
0.0
 11
44.700444
 21
35.934725
 31
0.0
  0
LINE
  5
1A2
330
1F
100
AcDbEntity
  8
LC-001-100-D00-0
 62
     7
370
    50
100
AcDbLine
 10
46.073943
 20
30.661588
 30
0.0
 11
46.082087
 21
30.293696
 31
0.0
  0
LINE
  5
1A3
330
1F
100
AcDbEntity
  8
LC-001-100-D00-0
 62
     7
370
    50
100
AcDbLine
 10
44.962667
 20
31.454557
 30
0.0
 11
46.073943
 21
30.661588
 31
0.0
  0
LINE
  5
1A4
330
1F
100
AcDbEntity
  8
LC-001-100-D00-0
 62
     7
370
    50
100
AcDbLine
 10
46.073943
 20
32.247525
 30
0.0
 11
44.962667
 21
31.454557
 31
0.0
  0
LINE
  5
1A5
330
1F
100
AcDbEntity
  8
LC-001-100-D00-0
 62
     7
370
    50
100
AcDbLine
 10
46.073943
 20
32.621223
 30
0.0
 11
46.073943
 21
32.247525
 31
0.0
  0
LINE
  5
1A6
330
1F
100
AcDbEntity
  8
LC-001-100-D00-0
 62
     7
370
    50
100
AcDbLine
 10
44.700444
 20
31.641756
 30
0.0
 11
46.073943
 21
32.621223
 31
0.0
  0
LINE
  5
1A7
330
1F
100
AcDbEntity
  8
LC-001-100-D00-0
 62
     7
370
    50
100
AcDbLine
 10
43.516248
 20
32.486608
 30
0.0
 11
44.700444
 21
31.641756
 31
0.0
  0
LINE
  5
1A8
330
1F
100
AcDbEntity
  8
LC-001-100-D00-0
 62
     7
370
    50
100
AcDbLine
 10
43.516248
 20
32.11291
 30
0.0
 11
43.516248
 21
32.486608
 31
0.0
  0
LINE
  5
1A9
330
1F
100
AcDbEntity
  8
LC-001-100-D00-0
 62
     7
370
    50
100
AcDbLine
 10
44.438928
 20
31.454557
 30
0.0
 11
43.516248
 21
32.11291
 31
0.0
  0
LINE
  5
1AA
330
1F
100
AcDbEntity
  8
LC-001-100-D00-0
 62
     7
370
    50
100
AcDbLine
 10
43.516248
 20
30.796203
 30
0.0
 11
44.438928
 21
31.454557
 31
0.0
  0
LINE
  5
1AB
330
1F
100
AcDbEntity
  8
LC-001-100-D00-0
 62
     7
370
    50
100
AcDbLine
 10
43.516248
 20
30.422505
 30
0.0
 11
43.516248
 21
30.796203
 31
0.0
  0
LINE
  5
1AC
330
1F
100
AcDbEntity
  8
LC-001-100-D00-0
 62
     7
370
    50
100
AcDbLine
 10
44.700444
 20
31.268058
 30
0.0
 11
43.516248
 21
30.422505
 31
0.0
  0
LINE
  5
1AD
330
1F
100
AcDbEntity
  8
LC-001-100-D00-0
 62
     7
370
    50
100
AcDbLine
 10
46.082087
 20
30.293696
 30
0.0
 11
44.700444
 21
31.268058
 31
0.0
  0
LINE
  5
1AE
330
1F
100
AcDbEntity
  8
LC-001-100-D00-0
 62
     7
370
    50
100
AcDbLine
 10
46.073943
 20
28.328254
 30
0.0
 11
46.073943
 21
27.954557
 31
0.0
  0
LINE
  5
1AF
330
1F
100
AcDbEntity
  8
LC-001-100-D00-0
 62
     7
370
    50
100
AcDbLine
 10
44.962667
 20
29.121223
 30
0.0
 11
46.073943
 21
28.328254
 31
0.0
  0
LINE
  5
1B0
330
1F
100
AcDbEntity
  8
LC-001-100-D00-0
 62
     7
370
    50
100
AcDbLine
 10
46.073943
 20
29.914192
 30
0.0
 11
44.962667
 21
29.121223
 31
0.0
  0
LINE
  5
1B1
330
1F
100
AcDbEntity
  8
LC-001-100-D00-0
 62
     7
370
    50
100
AcDbLine
 10
46.073943
 20
30.28789
 30
0.0
 11
46.073943
 21
29.914192
 31
0.0
  0
LINE
  5
1B2
330
1F
100
AcDbEntity
  8
LC-001-100-D00-0
 62
     7
370
    50
100
AcDbLine
 10
44.700444
 20
29.308423
 30
0.0
 11
46.073943
 21
30.28789
 31
0.0
  0
LINE
  5
1B3
330
1F
100
AcDbEntity
  8
LC-001-100-D00-0
 62
     7
370
    50
100
AcDbLine
 10
43.516248
 20
30.153275
 30
0.0
 11
44.700444
 21
29.308423
 31
0.0
  0
LINE
  5
1B4
330
1F
100
AcDbEntity
  8
LC-001-100-D00-0
 62
     7
370
    50
100
AcDbLine
 10
43.516248
 20
29.779577
 30
0.0
 11
43.516248
 21
30.153275
 31
0.0
  0
LINE
  5
1B5
330
1F
100
AcDbEntity
  8
LC-001-100-D00-0
 62
     7
370
    50
100
AcDbLine
 10
44.438928
 20
29.121223
 30
0.0
 11
43.516248
 21
29.779577
 31
0.0
  0
LINE
  5
1B6
330
1F
100
AcDbEntity
  8
LC-001-100-D00-0
 62
     7
370
    50
100
AcDbLine
 10
43.516248
 20
28.46287
 30
0.0
 11
44.438928
 21
29.121223
 31
0.0
  0
LINE
  5
1B7
330
1F
100
AcDbEntity
  8
LC-001-100-D00-0
 62
     7
370
    50
100
AcDbLine
 10
43.516248
 20
28.089172
 30
0.0
 11
43.516248
 21
28.46287
 31
0.0
  0
LINE
  5
1B8
330
1F
100
AcDbEntity
  8
LC-001-100-D00-0
 62
     7
370
    50
100
AcDbLine
 10
44.700444
 20
28.934725
 30
0.0
 11
43.516248
 21
28.089172
 31
0.0
  0
LINE
  5
1B9
330
1F
100
AcDbEntity
  8
LC-001-100-D00-0
 62
     7
370
    50
100
AcDbLine
 10
46.073943
 20
27.954557
 30
0.0
 11
44.700444
 21
28.934725
 31
0.0
  0
LINE
  5
1BA
330
1F
100
AcDbEntity
  8
LC-001-100-D00-0
 62
     7
370
    50
100
AcDbLine
 10
46.073943
 20
32.994921
 30
0.0
 11
46.082087
 21
32.627029
 31
0.0
  0
LINE
  5
1BB
330
1F
100
AcDbEntity
  8
LC-001-100-D00-0
 62
     7
370
    50
100
AcDbLine
 10
44.962667
 20
33.78789
 30
0.0
 11
46.073943
 21
32.994921
 31
0.0
  0
LINE
  5
1BC
330
1F
100
AcDbEntity
  8
LC-001-100-D00-0
 62
     7
370
    50
100
AcDbLine
 10
46.073943
 20
34.580859
 30
0.0
 11
44.962667
 21
33.78789
 31
0.0
  0
LINE
  5
1BD
330
1F
100
AcDbEntity
  8
LC-001-100-D00-0
 62
     7
370
    50
100
AcDbLine
 10
46.073943
 20
34.954557
 30
0.0
 11
46.073943
 21
34.580859
 31
0.0
  0
LINE
  5
1BE
330
1F
100
AcDbEntity
  8
LC-001-100-D00-0
 62
     7
370
    50
100
AcDbLine
 10
44.700444
 20
33.97509
 30
0.0
 11
46.073943
 21
34.954557
 31
0.0
  0
LINE
  5
1BF
330
1F
100
AcDbEntity
  8
LC-001-100-D00-0
 62
     7
370
    50
100
AcDbLine
 10
43.516248
 20
34.819941
 30
0.0
 11
44.700444
 21
33.97509
 31
0.0
  0
LINE
  5
1C0
330
1F
100
AcDbEntity
  8
LC-001-100-D00-0
 62
     7
370
    50
100
AcDbLine
 10
43.516248
 20
34.446243
 30
0.0
 11
43.516248
 21
34.819941
 31
0.0
  0
LINE
  5
1C1
330
1F
100
AcDbEntity
  8
LC-001-100-D00-0
 62
     7
370
    50
100
AcDbLine
 10
44.438928
 20
33.78789
 30
0.0
 11
43.516248
 21
34.446243
 31
0.0
  0
LINE
  5
1C2
330
1F
100
AcDbEntity
  8
LC-001-100-D00-0
 62
     7
370
    50
100
AcDbLine
 10
43.516248
 20
33.129537
 30
0.0
 11
44.438928
 21
33.78789
 31
0.0
  0
LINE
  5
1C3
330
1F
100
AcDbEntity
  8
LC-001-100-D00-0
 62
     7
370
    50
100
AcDbLine
 10
43.516248
 20
32.755839
 30
0.0
 11
43.516248
 21
33.129537
 31
0.0
  0
LINE
  5
1C4
330
1F
100
AcDbEntity
  8
LC-001-100-D00-0
 62
     7
370
    50
100
AcDbLine
 10
44.700444
 20
33.601391
 30
0.0
 11
43.516248
 21
32.755839
 31
0.0
  0
LINE
  5
1C5
330
1F
100
AcDbEntity
  8
LC-001-100-D00-0
 62
     7
370
    50
100
AcDbLine
 10
46.082087
 20
32.627029
 30
0.0
 11
44.700444
 21
33.601391
 31
0.0
  0
LINE
  5
1C6
330
1F
100
AcDbEntity
  8
LC-001-100-D00-0
 62
     7
370
    50
100
AcDbLine
 10
46.073943
 20
37.661588
 30
0.0
 11
46.082087
 21
37.293696
 31
0.0
  0
LINE
  5
1C7
330
1F
100
AcDbEntity
  8
LC-001-100-D00-0
 62
     7
370
    50
100
AcDbLine
 10
44.962667
 20
38.454557
 30
0.0
 11
46.073943
 21
37.661588
 31
0.0
  0
LINE
  5
1C8
330
1F
100
AcDbEntity
  8
LC-001-100-D00-0
 62
     7
370
    50
100
AcDbLine
 10
46.073943
 20
39.247525
 30
0.0
 11
44.962667
 21
38.454557
 31
0.0
  0
LINE
  5
1C9
330
1F
100
AcDbEntity
  8
LC-001-100-D00-0
 62
     7
370
    50
100
AcDbLine
 10
46.073943
 20
39.621223
 30
0.0
 11
46.073943
 21
39.247525
 31
0.0
  0
LINE
  5
1CA
330
1F
100
AcDbEntity
  8
LC-001-100-D00-0
 62
     7
370
    50
100
AcDbLine
 10
44.700444
 20
38.641756
 30
0.0
 11
46.073943
 21
39.621223
 31
0.0
  0
LINE
  5
1CB
330
1F
100
AcDbEntity
  8
LC-001-100-D00-0
 62
     7
370
    50
100
AcDbLine
 10
43.516248
 20
39.486608
 30
0.0
 11
44.700444
 21
38.641756
 31
0.0
  0
LINE
  5
1CC
330
1F
100
AcDbEntity
  8
LC-001-100-D00-0
 62
     7
370
    50
100
AcDbLine
 10
43.516248
 20
39.11291
 30
0.0
 11
43.516248
 21
39.486608
 31
0.0
  0
LINE
  5
1CD
330
1F
100
AcDbEntity
  8
LC-001-100-D00-0
 62
     7
370
    50
100
AcDbLine
 10
44.438928
 20
38.454557
 30
0.0
 11
43.516248
 21
39.11291
 31
0.0
  0
LINE
  5
1CE
330
1F
100
AcDbEntity
  8
LC-001-100-D00-0
 62
     7
370
    50
100
AcDbLine
 10
43.516248
 20
37.796203
 30
0.0
 11
44.438928
 21
38.454557
 31
0.0
  0
LINE
  5
1CF
330
1F
100
AcDbEntity
  8
LC-001-100-D00-0
 62
     7
370
    50
100
AcDbLine
 10
43.516248
 20
37.422505
 30
0.0
 11
43.516248
 21
37.796203
 31
0.0
  0
LINE
  5
1D0
330
1F
100
AcDbEntity
  8
LC-001-100-D00-0
 62
     7
370
    50
100
AcDbLine
 10
44.700444
 20
38.268058
 30
0.0
 11
43.516248
 21
37.422505
 31
0.0
  0
LINE
  5
1D1
330
1F
100
AcDbEntity
  8
LC-001-100-D00-0
 62
     7
370
    50
100
AcDbLine
 10
46.082087
 20
37.293696
 30
0.0
 11
44.700444
 21
38.268058
 31
0.0
  0
ARC
  5
1D2
330
1F
100
AcDbEntity
  8
LC-001-100-D00-0
 62
     7
370
    50
100
AcDbCircle
 10
143.406776
 20
36.556018
 30
0.0
 40
24.79999999999465
100
AcDbArc
 50
300.592814
 51
59.407186
  0
ARC
  5
1D3
330
1F
100
AcDbEntity
  8
LC-001-100-D00-0
 62
     7
370
    50
100
AcDbCircle
 10
82.406776
 20
36.556018
 30
0.0
 40
24.79999999999453
100
AcDbArc
 50
120.592814
 51
239.407186
  0
ARC
  5
1D4
330
1F
100
AcDbEntity
  8
LC-001-100-D00-0
 62
     7
370
    50
100
AcDbCircle
 10
596.156776
 20
23.306018
 30
0.0
 40
5.0
100
AcDbArc
 50
270.0
 51
0.0
  0
LINE
  5
1D5
330
1F
100
AcDbEntity
  8
LC-001-100-D00-0
 62
     7
370
    50
100
AcDbLine
 10
601.156776
 20
49.806018
 30
0.0
 11
601.156776
 21
23.306018
 31
0.0
  0
ARC
  5
1D6
330
1F
100
AcDbEntity
  8
LC-001-100-D00-0
 62
     7
370
    50
100
AcDbCircle
 10
596.156776
 20
49.806018
 30
0.0
 40
5.0
100
AcDbArc
 50
0.0
 51
90.0
  0
CIRCLE
  5
1D7
330
1F
100
AcDbEntity
  8
LC-001-100-D00-0
 62
     7
370
    50
100
AcDbCircle
 10
582.906776
 20
36.556018
 30
0.0
 40
3.899999999999864
  0
LINE
  5
1D8
330
1F
100
AcDbEntity
  8
LC-001-100-D00-0
 62
     7
370
    50
100
AcDbLine
 10
569.656776
 20
54.806018
 30
0.0
 11
596.156776
 21
54.806018
 31
0.0
  0
LINE
  5
1D9
330
1F
100
AcDbEntity
  8
LC-001-100-D00-0
 62
     7
370
    50
100
AcDbLine
 10
596.156776
 20
18.306018
 30
0.0
 11
569.656776
 21
18.306018
 31
0.0
  0
ARC
  5
1DA
330
1F
100
AcDbEntity
  8
LC-001-100-D00-0
 62
     7
370
    50
100
AcDbCircle
 10
569.656776
 20
49.806018
 30
0.0
 40
5.0
100
AcDbArc
 50
90.0
 51
180.0
  0
ARC
  5
1DB
330
1F
100
AcDbEntity
  8
LC-001-100-D00-0
 62
     7
370
    50
100
AcDbCircle
 10
569.656776
 20
23.306018
 30
0.0
 40
5.0
100
AcDbArc
 50
180.0
 51
270.0
  0
LINE
  5
1DC
330
1F
100
AcDbEntity
  8
LC-001-100-D00-0
 62
     7
370
    50
100
AcDbLine
 10
564.656776
 20
23.306018
 30
0.0
 11
564.656776
 21
49.806018
 31
0.0
  0
ARC
  5
1DD
330
1F
100
AcDbEntity
  8
LC-001-100-D00-0
 62
     7
370
    50
100
AcDbCircle
 10
-343.843224
 20
49.806018
 30
0.0
 40
5.0
100
AcDbArc
 50
0.0
 51
90.0
  0
LINE
  5
1DE
330
1F
100
AcDbEntity
  8
LC-001-100-D00-0
 62
     7
370
    50
100
AcDbLine
 10
-338.843224
 20
49.806018
 30
0.0
 11
-338.843224
 21
23.306018
 31
0.0
  0
ARC
  5
1DF
330
1F
100
AcDbEntity
  8
LC-001-100-D00-0
 62
     7
370
    50
100
AcDbCircle
 10
-343.843224
 20
23.306018
 30
0.0
 40
5.0
100
AcDbArc
 50
270.0
 51
0.0
  0
CIRCLE
  5
1E0
330
1F
100
AcDbEntity
  8
LC-001-100-D00-0
 62
     7
370
    50
100
AcDbCircle
 10
-357.093224
 20
36.556018
 30
0.0
 40
3.899999999999864
  0
LINE
  5
1E1
330
1F
100
AcDbEntity
  8
LC-001-100-D00-0
 62
     7
370
    50
100
AcDbLine
 10
-370.343224
 20
54.806018
 30
0.0
 11
-343.843224
 21
54.806018
 31
0.0
  0
LINE
  5
1E2
330
1F
100
AcDbEntity
  8
LC-001-100-D00-0
 62
     7
370
    50
100
AcDbLine
 10
-343.843224
 20
18.306018
 30
0.0
 11
-370.343224
 21
18.306018
 31
0.0
  0
ARC
  5
1E3
330
1F
100
AcDbEntity
  8
LC-001-100-D00-0
 62
     7
370
    50
100
AcDbCircle
 10
-370.343224
 20
49.806018
 30
0.0
 40
5.0
100
AcDbArc
 50
90.0
 51
180.0
  0
ARC
  5
1E4
330
1F
100
AcDbEntity
  8
LC-001-100-D00-0
 62
     7
370
    50
100
AcDbCircle
 10
-370.343224
 20
23.306018
 30
0.0
 40
5.0
100
AcDbArc
 50
180.0
 51
270.0
  0
LINE
  5
1E5
330
1F
100
AcDbEntity
  8
LC-001-100-D00-0
 62
     7
370
    50
100
AcDbLine
 10
-375.343224
 20
23.306018
 30
0.0
 11
-375.343224
 21
49.806018
 31
0.0
  0
LINE
  5
1E6
330
1F
100
AcDbEntity
  8
LC-001-100-D00-0
 62
     7
370
    50
100
AcDbLine
 10
-153.843224
 20
49.806018
 30
0.0
 11
-153.843224
 21
23.306018
 31
0.0
  0
ARC
  5
1E7
330
1F
100
AcDbEntity
  8
LC-001-100-D00-0
 62
     7
370
    50
100
AcDbCircle
 10
-158.843224
 20
49.806018
 30
0.0
 40
5.0
100
AcDbArc
 50
0.0
 51
90.0
  0
ARC
  5
1E8
330
1F
100
AcDbEntity
  8
LC-001-100-D00-0
 62
     7
370
    50
100
AcDbCircle
 10
-158.843224
 20
23.306018
 30
0.0
 40
5.0
100
AcDbArc
 50
270.0
 51
0.0
  0
CIRCLE
  5
1E9
330
1F
100
AcDbEntity
  8
LC-001-100-D00-0
 62
     7
370
    50
100
AcDbCircle
 10
-172.093224
 20
36.556018
 30
0.0
 40
3.899999999999864
  0
LINE
  5
1EA
330
1F
100
AcDbEntity
  8
LC-001-100-D00-0
 62
     7
370
    50
100
AcDbLine
 10
-158.843224
 20
18.306018
 30
0.0
 11
-185.343224
 21
18.306018
 31
0.0
  0
LINE
  5
1EB
330
1F
100
AcDbEntity
  8
LC-001-100-D00-0
 62
     7
370
    50
100
AcDbLine
 10
-185.343224
 20
54.806018
 30
0.0
 11
-158.843224
 21
54.806018
 31
0.0
  0
ARC
  5
1EC
330
1F
100
AcDbEntity
  8
LC-001-100-D00-0
 62
     7
370
    50
100
AcDbCircle
 10
-185.343224
 20
23.306018
 30
0.0
 40
5.000000000000284
100
AcDbArc
 50
180.0
 51
270.0
  0
ARC
  5
1ED
330
1F
100
AcDbEntity
  8
LC-001-100-D00-0
 62
     7
370
    50
100
AcDbCircle
 10
-185.343224
 20
49.806018
 30
0.0
 40
5.0
100
AcDbArc
 50
90.0
 51
180.0
  0
LINE
  5
1EE
330
1F
100
AcDbEntity
  8
LC-001-100-D00-0
 62
     7
370
    50
100
AcDbLine
 10
-190.343224
 20
23.306018
 30
0.0
 11
-190.343224
 21
49.806018
 31
0.0
  0
LINE
  5
1EF
330
1F
100
AcDbEntity
  8
LC-001-100-D00-0
 62
     7
370
    50
100
AcDbLine
 10
231.156776
 20
49.806018
 30
0.0
 11
231.156776
 21
23.306018
 31
0.0
  0
ARC
  5
1F0
330
1F
100
AcDbEntity
  8
LC-001-100-D00-0
 62
     7
370
    50
100
AcDbCircle
 10
226.156776
 20
23.306018
 30
0.0
 40
5.0
100
AcDbArc
 50
270.0
 51
0.0
  0
ARC
  5
1F1
330
1F
100
AcDbEntity
  8
LC-001-100-D00-0
 62
     7
370
    50
100
AcDbCircle
 10
226.156776
 20
49.806018
 30
0.0
 40
5.0
100
AcDbArc
 50
0.0
 51
90.0
  0
CIRCLE
  5
1F2
330
1F
100
AcDbEntity
  8
LC-001-100-D00-0
 62
     7
370
    50
100
AcDbCircle
 10
212.906776
 20
36.556018
 30
0.0
 40
3.899999999999864
  0
LINE
  5
1F3
330
1F
100
AcDbEntity
  8
LC-001-100-D00-0
 62
     7
370
    50
100
AcDbLine
 10
226.156776
 20
18.306018
 30
0.0
 11
199.656776
 21
18.306018
 31
0.0
  0
LINE
  5
1F4
330
1F
100
AcDbEntity
  8
LC-001-100-D00-0
 62
     7
370
    50
100
AcDbLine
 10
199.656776
 20
54.806018
 30
0.0
 11
226.156776
 21
54.806018
 31
0.0
  0
ARC
  5
1F5
330
1F
100
AcDbEntity
  8
LC-001-100-D00-0
 62
     7
370
    50
100
AcDbCircle
 10
199.656776
 20
23.306018
 30
0.0
 40
5.000000000000568
100
AcDbArc
 50
180.0
 51
270.0
  0
ARC
  5
1F6
330
1F
100
AcDbEntity
  8
LC-001-100-D00-0
 62
     7
370
    50
100
AcDbCircle
 10
199.656776
 20
49.806018
 30
0.0
 40
5.0
100
AcDbArc
 50
90.0
 51
180.0
  0
LINE
  5
1F7
330
1F
100
AcDbEntity
  8
LC-001-100-D00-0
 62
     7
370
    50
100
AcDbLine
 10
194.656776
 20
23.306018
 30
0.0
 11
194.656776
 21
49.806018
 31
0.0
  0
ARC
  5
1F8
330
1F
100
AcDbEntity
  8
LC-001-100-D00-0
 62
     7
370
    50
100
AcDbCircle
 10
411.156776
 20
49.806018
 30
0.0
 40
5.0
100
AcDbArc
 50
0.0
 51
90.0
  0
LINE
  5
1F9
330
1F
100
AcDbEntity
  8
LC-001-100-D00-0
 62
     7
370
    50
100
AcDbLine
 10
416.156776
 20
49.806018
 30
0.0
 11
416.156776
 21
23.306018
 31
0.0
  0
ARC
  5
1FA
330
1F
100
AcDbEntity
  8
LC-001-100-D00-0
 62
     7
370
    50
100
AcDbCircle
 10
411.156776
 20
23.306018
 30
0.0
 40
5.0
100
AcDbArc
 50
270.0
 51
0.0
  0
CIRCLE
  5
1FB
330
1F
100
AcDbEntity
  8
LC-001-100-D00-0
 62
     7
370
    50
100
AcDbCircle
 10
397.906776
 20
36.556018
 30
0.0
 40
3.899999999999864
  0
LINE
  5
1FC
330
1F
100
AcDbEntity
  8
LC-001-100-D00-0
 62
     7
370
    50
100
AcDbLine
 10
384.656776
 20
54.806018
 30
0.0
 11
411.156776
 21
54.806018
 31
0.0
  0
LINE
  5
1FD
330
1F
100
AcDbEntity
  8
LC-001-100-D00-0
 62
     7
370
    50
100
AcDbLine
 10
411.156776
 20
18.306018
 30
0.0
 11
384.656776
 21
18.306018
 31
0.0
  0
ARC
  5
1FE
330
1F
100
AcDbEntity
  8
LC-001-100-D00-0
 62
     7
370
    50
100
AcDbCircle
 10
384.656776
 20
49.806018
 30
0.0
 40
5.0
100
AcDbArc
 50
90.0
 51
180.0
  0
ARC
  5
1FF
330
1F
100
AcDbEntity
  8
LC-001-100-D00-0
 62
     7
370
    50
100
AcDbCircle
 10
384.656776
 20
23.306018
 30
0.0
 40
5.000000000000568
100
AcDbArc
 50
180.0
 51
270.0
  0
LINE
  5
200
330
1F
100
AcDbEntity
  8
LC-001-100-D00-0
 62
     7
370
    50
100
AcDbLine
 10
379.656776
 20
23.306018
 30
0.0
 11
379.656776
 21
49.806018
 31
0.0
  0
LINE
  5
201
330
1F
100
AcDbEntity
  8
LC-001-100-D00-0
 62
     7
370
    50
100
AcDbLine
 10
31.156776
 20
49.806018
 30
0.0
 11
31.156776
 21
23.306018
 31
0.0
  0
ARC
  5
202
330
1F
100
AcDbEntity
  8
LC-001-100-D00-0
 62
     7
370
    50
100
AcDbCircle
 10
26.156776
 20
23.306018
 30
0.0
 40
5.0
100
AcDbArc
 50
270.0
 51
0.0
  0
ARC
  5
203
330
1F
100
AcDbEntity
  8
LC-001-100-D00-0
 62
     7
370
    50
100
AcDbCircle
 10
26.156776
 20
49.806018
 30
0.0
 40
5.0
100
AcDbArc
 50
0.0
 51
90.0
  0
CIRCLE
  5
204
330
1F
100
AcDbEntity
  8
LC-001-100-D00-0
 62
     7
370
    50
100
AcDbCircle
 10
12.906776
 20
36.556018
 30
0.0
 40
3.899999999999864
  0
LINE
  5
205
330
1F
100
AcDbEntity
  8
LC-001-100-D00-0
 62
     7
370
    50
100
AcDbLine
 10
-0.343224
 20
54.806018
 30
0.0
 11
26.156776
 21
54.806018
 31
0.0
  0
LINE
  5
206
330
1F
100
AcDbEntity
  8
LC-001-100-D00-0
 62
     7
370
    50
100
AcDbLine
 10
26.156776
 20
18.306018
 30
0.0
 11
-0.343224
 21
18.306018
 31
0.0
  0
ARC
  5
207
330
1F
100
AcDbEntity
  8
LC-001-100-D00-0
 62
     7
370
    50
100
AcDbCircle
 10
-0.343224
 20
23.306018
 30
0.0
 40
5.000000000000341
100
AcDbArc
 50
180.0
 51
270.0
  0
ARC
  5
208
330
1F
100
AcDbEntity
  8
LC-001-100-D00-0
 62
     7
370
    50
100
AcDbCircle
 10
-0.343224
 20
49.806018
 30
0.0
 40
5.0
100
AcDbArc
 50
90.0
 51
180.0
  0
LINE
  5
209
330
1F
100
AcDbEntity
  8
LC-001-100-D00-0
 62
     7
370
    50
100
AcDbLine
 10
-5.343224
 20
23.306018
 30
0.0
 11
-5.343224
 21
49.806018
 31
0.0
  0
LINE
  5
20A
330
1F
100
AcDbEntity
  8
LC-001-100-D00-0
 62
     7
370
    50
100
AcDbLine
 10
82.406776
 20
12.556018
 30
0.0
 11
143.406776
 21
12.556018
 31
0.0
  0
ARC
  5
20B
330
1F
100
AcDbEntity
  8
LC-001-100-D00-0
 62
     7
370
    50
100
AcDbCircle
 10
82.406776
 20
36.556018
 30
0.0
 40
24.00000000000046
100
AcDbArc
 50
90.0
 51
270.0
  0
LINE
  5
20C
330
1F
100
AcDbEntity
  8
LC-001-100-D00-0
 62
     7
370
    50
100
AcDbLine
 10
143.406776
 20
60.556018
 30
0.0
 11
82.406776
 21
60.556018
 31
0.0
  0
ARC
  5
20D
330
1F
100
AcDbEntity
  8
LC-001-100-D00-0
 62
     7
370
    50
100
AcDbCircle
 10
143.406776
 20
36.556018
 30
0.0
 40
24.00000000000023
100
AcDbArc
 50
270.0
 51
90.0
  0
ARC
  5
20E
330
1F
100
AcDbEntity
  8
LC-001-100-D00-0
 62
     7
370
    50
100
AcDbCircle
 10
124.406776
 20
36.556018
 30
0.0
 40
15.99999999999989
100
AcDbArc
 50
270.0
 51
90.0
  0
LINE
  5
20F
330
1F
100
AcDbEntity
  8
LC-001-100-D00-0
 62
     7
370
    50
100
AcDbLine
 10
101.406776
 20
20.556018
 30
0.0
 11
124.406776
 21
20.556018
 31
0.0
  0
LINE
  5
210
330
1F
100
AcDbEntity
  8
LC-001-100-D00-0
 62
     7
370
    50
100
AcDbLine
 10
124.406776
 20
52.556018
 30
0.0
 11
101.406776
 21
52.556018
 31
0.0
  0
ARC
  5
211
330
1F
100
AcDbEntity
  8
LC-001-100-D00-0
 62
     7
370
    50
100
AcDbCircle
 10
101.406776
 20
36.556018
 30
0.0
 40
16.0
100
AcDbArc
 50
90.0
 51
270.0
  0
DIMENSION
  5
212
330
1F
100
AcDbEntity
  8
LC-001-100-D00-0
 62
     7
370
    25
100
AcDbDimension
  2
*D16
 10
748.417621
 20
81.056018
 30
0.0
 11
693.417621
 21
58.703446
 31
0.0
 70
   160
  1
1.5
 71
     5
 42
1.5
 53
90.0
  3
LC-DIM-L-0100-02-02
100
AcDbAlignedDimension
 13
657.906776
 23
82.556018
 33
0.0
 14
657.906776
 24
81.056018
 34
0.0
 50
90.0
100
AcDbRotatedDimension
  0
DIMENSION
  5
220
330
1F
100
AcDbEntity
  8
LC-001-100-D00-0
 62
     7
370
    25
100
AcDbDimension
  2
*D17
 10
823.223662
 20
62.556018
 30
0.0
 11
768.223662
 21
49.793446
 31
0.0
 70
   160
  1
18,5
 71
     5
 42
18.5
 53
90.0
  3
LC-DIM-L-0100-02-02
100
AcDbAlignedDimension
 13
657.906776
 23
81.056018
 33
0.0
 14
610.406776
 24
62.556018
 34
0.0
 50
90.0
100
AcDbRotatedDimension
  0
DIMENSION
  5
22E
330
1F
100
AcDbEntity
  8
LC-001-100-D00-0
 62
     7
370
    25
100
AcDbDimension
  2
*D18
 10
892.870667
 20
-40.943982
 30
0.0
 11
837.870667
 21
3.758446
 31
0.0
 70
   160
  1
123.5
 71
     5
 42
123.5
 53
90.0
  3
LC-DIM-L-0100-02-02
100
AcDbAlignedDimension
 13
657.906776
 23
82.556018
 33
0.0
 14
657.906776
 24
-40.943982
 34
0.0
 50
90.0
100
AcDbRotatedDimension
  0
LINE
  5
23B
330
1F
100
AcDbEntity
  8
LC-001-100-D00-0
  6
DASHDOT
 62
     7
370
    25
100
AcDbLine
 10
620.406776
 20
36.556018
 30
0.0
 11
-394.593224
 21
36.556018
 31
0.0
  0
LINE
  5
23C
330
1F
100
AcDbEntity
  8
LC-001-100-D00-0
  6
DASHDOT
 62
     7
370
    25
100
AcDbLine
 10
112.906776
 20
92.556018
 30
0.0
 11
112.906776
 21
-45.943982
 31
0.0
  0
LINE
  5
23D
330
1F
100
AcDbEntity
  8
LC-001-100-D00-0
 62
     7
370
    50
100
AcDbLine
 10
168.156788
 20
432.458459
 30
0.0
 11
169.956788
 21
432.458459
 31
0.0
  0
LINE
  5
23E
330
1F
100
AcDbEntity
  8
LC-001-100-D00-0
 62
     7
370
    50
100
AcDbLine
 10
55.856788
 20
432.458459
 30
0.0
 11
57.656788
 21
432.458459
 31
0.0
  0
LINE
  5
23F
330
1F
100
AcDbEntity
  8
LC-001-100-D00-0
 62
     7
370
    50
100
AcDbLine
 10
226.154584
 20
360.098446
 30
0.0
 11
226.154584
 21
361.881367
 31
0.0
  0
LINE
  5
240
330
1F
100
AcDbEntity
  8
LC-001-100-D00-0
 62
     7
370
    50
100
AcDbLine
 10
226.154584
 20
412.315525
 30
0.0
 11
226.154584
 21
414.098446
 31
0.0
  0
LINE
  5
241
330
1F
100
AcDbEntity
  8
LC-001-100-D00-0
 62
     7
370
    50
100
AcDbLine
 10
222.154584
 20
414.098446
 30
0.0
 11
222.154584
 21
412.315525
 31
0.0
  0
LINE
  5
242
330
1F
100
AcDbEntity
  8
LC-001-100-D00-0
 62
     7
370
    50
100
AcDbLine
 10
222.154584
 20
361.881367
 30
0.0
 11
222.154584
 21
360.098446
 31
0.0
  0
LINE
  5
243
330
1F
100
AcDbEntity
  8
LC-001-100-D00-0
 62
     7
370
    50
100
AcDbLine
 10
152.621203
 20
430.598446
 30
0.0
 11
152.621203
 21
429.098446
 31
0.0
  0
LINE
  5
244
330
1F
100
AcDbEntity
  8
LC-001-100-D00-0
 62
     7
370
    50
100
AcDbLine
 10
73.192373
 20
429.098446
 30
0.0
 11
73.192373
 21
430.598446
 31
0.0
  0
LINE
  5
245
330
1F
100
AcDbEntity
  8
LC-001-100-D00-0
 62
     7
370
    50
100
AcDbLine
 10
579.506789
 20
452.598445
 30
0.0
 11
578.506802
 21
453.598446
 31
0.0
  0
LINE
  5
246
330
1F
100
AcDbEntity
  8
LC-001-100-D00-0
 62
     7
370
    50
100
AcDbLine
 10
579.506789
 20
452.598445
 30
0.0
 11
579.506788
 21
446.598446
 31
0.0
  0
LINE
  5
247
330
1F
100
AcDbEntity
  8
LC-001-100-D00-0
 62
     7
370
    50
100
AcDbLine
 10
578.506788
 20
445.598446
 30
0.0
 11
579.506788
 21
446.598446
 31
0.0
  0
LINE
  5
248
330
1F
100
AcDbEntity
  8
LC-001-100-D00-0
 62
     7
370
    50
100
AcDbLine
 10
576.555942
 20
447.598445
 30
0.0
 11
576.555942
 21
445.598446
 31
0.0
  0
LINE
  5
249
330
1F
100
AcDbEntity
  8
LC-001-100-D00-0
 62
     7
370
    50
100
AcDbLine
 10
577.26208
 20
447.787656
 30
0.0
 11
576.555942
 21
447.598445
 31
0.0
  0
ARC
  5
24A
330
1F
100
AcDbEntity
  8
LC-001-100-D00-0
 62
     7
370
    50
100
AcDbCircle
 10
577.106788
 20
448.367212
 30
0.0
 40
0.6000000000000886
100
AcDbArc
 50
285.0
 51
0.0
  0
LINE
  5
24B
330
1F
100
AcDbEntity
  8
LC-001-100-D00-0
 62
     7
370
    50
100
AcDbLine
 10
577.706788
 20
450.829679
 30
0.0
 11
577.706788
 21
448.367212
 31
0.0
  0
ARC
  5
24C
330
1F
100
AcDbEntity
  8
LC-001-100-D00-0
 62
     7
370
    50
100
AcDbCircle
 10
577.106788
 20
450.829679
 30
0.0
 40
0.5999999999999091
100
AcDbArc
 50
0.0
 51
75.0
  0
LINE
  5
24D
330
1F
100
AcDbEntity
  8
LC-001-100-D00-0
 62
     7
370
    50
100
AcDbLine
 10
576.555942
 20
451.598445
 30
0.0
 11
577.26208
 21
451.409235
 31
0.0
  0
LINE
  5
24E
330
1F
100
AcDbEntity
  8
LC-001-100-D00-0
 62
     7
370
    50
100
AcDbLine
 10
576.555942
 20
453.598446
 30
0.0
 11
576.555942
 21
451.598445
 31
0.0
  0
LINE
  5
24F
330
1F
100
AcDbEntity
  8
LC-001-100-D00-0
 62
     7
370
    50
100
AcDbLine
 10
576.555942
 20
445.598446
 30
0.0
 11
578.506788
 21
445.598446
 31
0.0
  0
LINE
  5
250
330
1F
100
AcDbEntity
  8
LC-001-100-D00-0
 62
     7
370
    50
100
AcDbLine
 10
576.555942
 20
453.598446
 30
0.0
 11
578.506802
 21
453.598446
 31
0.0
  0
LINE
  5
251
330
1F
100
AcDbEntity
  8
LC-001-100-D00-0
 62
     7
370
    50
100
AcDbLine
 10
588.106788
 20
448.367212
 30
0.0
 11
588.106788
 21
450.829679
 31
0.0
  0
ARC
  5
252
330
1F
100
AcDbEntity
  8
LC-001-100-D00-0
 62
     7
370
    50
100
AcDbCircle
 10
588.706788
 20
448.367212
 30
0.0
 40
0.6000000000001364
100
AcDbArc
 50
180.0
 51
255.0
  0
LINE
  5
253
330
1F
100
AcDbEntity
  8
LC-001-100-D00-0
 62
     7
370
    50
100
AcDbLine
 10
589.257632
 20
447.598445
 30
0.0
 11
588.551497
 21
447.787656
 31
0.0
  0
LINE
  5
254
330
1F
100
AcDbEntity
  8
LC-001-100-D00-0
 62
     7
370
    50
100
AcDbLine
 10
589.257632
 20
447.598445
 30
0.0
 11
589.257632
 21
445.598446
 31
0.0
  0
LINE
  5
255
330
1F
100
AcDbEntity
  8
LC-001-100-D00-0
 62
     7
370
    50
100
AcDbLine
 10
586.306788
 20
446.598446
 30
0.0
 11
587.306788
 21
445.598446
 31
0.0
  0
LINE
  5
256
330
1F
100
AcDbEntity
  8
LC-001-100-D00-0
 62
     7
370
    50
100
AcDbLine
 10
586.306788
 20
446.598446
 30
0.0
 11
586.306785
 21
452.598445
 31
0.0
  0
LINE
  5
257
330
1F
100
AcDbEntity
  8
LC-001-100-D00-0
 62
     7
370
    50
100
AcDbLine
 10
587.306802
 20
453.598446
 30
0.0
 11
586.306785
 21
452.598445
 31
0.0
  0
LINE
  5
258
330
1F
100
AcDbEntity
  8
LC-001-100-D00-0
 62
     7
370
    50
100
AcDbLine
 10
589.257632
 20
453.598446
 30
0.0
 11
589.257632
 21
451.598445
 31
0.0
  0
LINE
  5
259
330
1F
100
AcDbEntity
  8
LC-001-100-D00-0
 62
     7
370
    50
100
AcDbLine
 10
588.551497
 20
451.409235
 30
0.0
 11
589.257632
 21
451.598445
 31
0.0
  0
ARC
  5
25A
330
1F
100
AcDbEntity
  8
LC-001-100-D00-0
 62
     7
370
    50
100
AcDbCircle
 10
588.706788
 20
450.829679
 30
0.0
 40
0.5999999999999277
100
AcDbArc
 50
105.0
 51
180.0
  0
LINE
  5
25B
330
1F
100
AcDbEntity
  8
LC-001-100-D00-0
 62
     7
370
    50
100
AcDbLine
 10
587.306788
 20
445.598446
 30
0.0
 11
589.257632
 21
445.598446
 31
0.0
  0
LINE
  5
25C
330
1F
100
AcDbEntity
  8
LC-001-100-D00-0
 62
     7
370
    50
100
AcDbLine
 10
587.306802
 20
453.598446
 30
0.0
 11
589.257632
 21
453.598446
 31
0.0
  0
LINE
  5
25D
330
1F
100
AcDbEntity
  8
LC-001-100-D00-0
 62
     7
370
    50
100
AcDbLine
 10
579.506788
 20
446.598446
 30
0.0
 11
579.664628
 21
446.598446
 31
0.0
  0
LINE
  5
25E
330
1F
100
AcDbEntity
  8
LC-001-100-D00-0
 62
     7
370
    50
100
AcDbLine
 10
586.148949
 20
446.598446
 30
0.0
 11
586.306788
 21
446.598446
 31
0.0
  0
LINE
  5
25F
330
1F
100
AcDbEntity
  8
LC-001-100-D00-0
 62
     7
370
    50
100
AcDbLine
 10
587.306788
 20
445.598446
 30
0.0
 11
586.771007
 21
445.598446
 31
0.0
  0
LINE
  5
260
330
1F
100
AcDbEntity
  8
LC-001-100-D00-0
 62
     7
370
    50
100
AcDbLine
 10
579.04257
 20
445.598446
 30
0.0
 11
578.506788
 21
445.598446
 31
0.0
  0
LINE
  5
261
330
1F
100
AcDbEntity
  8
LC-001-100-D00-0
 62
     7
370
    50
100
AcDbLine
 10
589.257632
 20
453.598446
 30
0.0
 11
586.806779
 21
453.598446
 31
0.0
  0
LINE
  5
262
330
1F
100
AcDbEntity
  8
LC-001-100-D00-0
 62
     7
370
    50
100
AcDbLine
 10
586.806779
 20
453.598446
 30
0.0
 11
586.806788
 21
464.598446
 31
0.0
  0
LINE
  5
263
330
1F
100
AcDbEntity
  8
LC-001-100-D00-0
 62
     7
370
    50
100
AcDbLine
 10
586.806788
 20
464.598446
 30
0.0
 11
600.156788
 21
464.598446
 31
0.0
  0
ARC
  5
264
330
1F
100
AcDbEntity
  8
LC-001-100-D00-0
 62
     7
370
    50
100
AcDbCircle
 10
600.156788
 20
463.598446
 30
0.0
 40
1.000000000000227
100
AcDbArc
 50
0.0
 51
90.0
  0
LINE
  5
265
330
1F
100
AcDbEntity
  8
LC-001-100-D00-0
 62
     7
370
    50
100
AcDbLine
 10
601.156788
 20
463.598446
 30
0.0
 11
601.156776
 21
457.598445
 31
0.0
  0
LINE
  5
266
330
1F
100
AcDbEntity
  8
LC-001-100-D00-0
 62
     7
370
    50
100
AcDbLine
 10
598.156788
 20
457.598446
 30
0.0
 11
601.156776
 21
457.598445
 31
0.0
  0
LINE
  5
267
330
1F
100
AcDbEntity
  8
LC-001-100-D00-0
 62
     7
370
    50
100
AcDbLine
 10
598.156788
 20
457.598446
 30
0.0
 11
598.156784
 21
461.598446
 31
0.0
  0
LINE
  5
268
330
1F
100
AcDbEntity
  8
LC-001-100-D00-0
 62
     7
370
    50
100
AcDbLine
 10
593.656788
 20
461.598446
 30
0.0
 11
598.156784
 21
461.598446
 31
0.0
  0
ARC
  5
269
330
1F
100
AcDbEntity
  8
LC-001-100-D00-0
 62
     7
370
    50
100
AcDbCircle
 10
593.656788
 20
460.598446
 30
0.0
 40
1.000000000000227
100
AcDbArc
 50
90.0
 51
180.0
  0
LINE
  5
26A
330
1F
100
AcDbEntity
  8
LC-001-100-D00-0
 62
     7
370
    50
100
AcDbLine
 10
592.656788
 20
446.598446
 30
0.0
 11
592.656788
 21
460.598446
 31
0.0
  0
ARC
  5
26B
330
1F
100
AcDbEntity
  8
LC-001-100-D00-0
 62
     7
370
    50
100
AcDbCircle
 10
591.656788
 20
446.598446
 30
0.0
 40
1.0
100
AcDbArc
 50
270.0
 51
0.0
  0
LINE
  5
26C
330
1F
100
AcDbEntity
  8
LC-001-100-D00-0
 62
     7
370
    50
100
AcDbLine
 10
591.656788
 20
445.598446
 30
0.0
 11
589.257632
 21
445.598446
 31
0.0
  0
LINE
  5
26D
330
1F
100
AcDbEntity
  8
LC-001-100-D00-0
 62
     7
370
    50
100
AcDbLine
 10
589.257632
 20
447.598445
 30
0.0
 11
589.257632
 21
445.598446
 31
0.0
  0
LINE
  5
26E
330
1F
100
AcDbEntity
  8
LC-001-100-D00-0
 62
     7
370
    50
100
AcDbLine
 10
588.606788
 20
447.598446
 30
0.0
 11
589.257632
 21
447.598445
 31
0.0
  0
ARC
  5
26F
330
1F
100
AcDbEntity
  8
LC-001-100-D00-0
 62
     7
370
    50
100
AcDbCircle
 10
588.606788
 20
448.098446
 30
0.0
 40
0.4999999999997726
100
AcDbArc
 50
180.0
 51
270.0
  0
LINE
  5
270
330
1F
100
AcDbEntity
  8
LC-001-100-D00-0
 62
     7
370
    50
100
AcDbLine
 10
588.106788
 20
451.098446
 30
0.0
 11
588.106788
 21
448.098446
 31
0.0
  0
ARC
  5
271
330
1F
100
AcDbEntity
  8
LC-001-100-D00-0
 62
     7
370
    50
100
AcDbCircle
 10
588.606788
 20
451.098446
 30
0.0
 40
0.5
100
AcDbArc
 50
90.0
 51
180.0
  0
LINE
  5
272
330
1F
100
AcDbEntity
  8
LC-001-100-D00-0
 62
     7
370
    50
100
AcDbLine
 10
589.257632
 20
451.598445
 30
0.0
 11
588.606788
 21
451.598446
 31
0.0
  0
LINE
  5
273
330
1F
100
AcDbEntity
  8
LC-001-100-D00-0
 62
     7
370
    50
100
AcDbLine
 10
589.257632
 20
453.598446
 30
0.0
 11
589.257632
 21
451.598445
 31
0.0
  0
ARC
  5
274
330
1F
100
AcDbEntity
  8
LC-001-100-D00-0
 62
     7
370
    50
100
AcDbCircle
 10
572.156788
 20
460.598446
 30
0.0
 40
0.9999999999997726
100
AcDbArc
 50
0.0
 51
90.0
  0
LINE
  5
275
330
1F
100
AcDbEntity
  8
LC-001-100-D00-0
 62
     7
370
    50
100
AcDbLine
 10
573.156788
 20
460.598446
 30
0.0
 11
573.156788
 21
446.598446
 31
0.0
  0
ARC
  5
276
330
1F
100
AcDbEntity
  8
LC-001-100-D00-0
 62
     7
370
    50
100
AcDbCircle
 10
574.156788
 20
446.598446
 30
0.0
 40
1.0
100
AcDbArc
 50
180.0
 51
270.0
  0
LINE
  5
277
330
1F
100
AcDbEntity
  8
LC-001-100-D00-0
 62
     7
370
    50
100
AcDbLine
 10
577.706788
 20
448.098446
 30
0.0
 11
577.706788
 21
451.098446
 31
0.0
  0
LINE
  5
278
330
1F
100
AcDbEntity
  8
LC-001-100-D00-0
 62
     7
370
    50
100
AcDbLine
 10
579.006788
 20
464.598446
 30
0.0
 11
579.006796
 21
453.598446
 31
0.0
  0
LINE
  5
279
330
1F
100
AcDbEntity
  8
LC-001-100-D00-0
 62
     7
370
    50
100
AcDbLine
 10
579.006788
 20
464.598446
 30
0.0
 11
586.806788
 21
464.598446
 31
0.0
  0
ARC
  5
27A
330
1F
100
AcDbEntity
  8
LC-001-100-D00-0
 62
     7
370
    50
100
AcDbCircle
 10
577.206788
 20
448.098446
 30
0.0
 40
0.4999999999997726
100
AcDbArc
 50
270.0
 51
0.0
  0
LINE
  5
27B
330
1F
100
AcDbEntity
  8
LC-001-100-D00-0
 62
     7
370
    50
100
AcDbLine
 10
576.555942
 20
447.598445
 30
0.0
 11
577.206788
 21
447.598446
 31
0.0
  0
LINE
  5
27C
330
1F
100
AcDbEntity
  8
LC-001-100-D00-0
 62
     7
370
    50
100
AcDbLine
 10
576.555942
 20
447.598445
 30
0.0
 11
576.555942
 21
445.598446
 31
0.0
  0
LINE
  5
27D
330
1F
100
AcDbEntity
  8
LC-001-100-D00-0
 62
     7
370
    50
100
AcDbLine
 10
567.65679
 20
461.598446
 30
0.0
 11
567.656788
 21
457.598446
 31
0.0
  0
LINE
  5
27E
330
1F
100
AcDbEntity
  8
LC-001-100-D00-0
 62
     7
370
    50
100
AcDbLine
 10
564.656798
 20
457.598445
 30
0.0
 11
567.656788
 21
457.598446
 31
0.0
  0
LINE
  5
27F
330
1F
100
AcDbEntity
  8
LC-001-100-D00-0
 62
     7
370
    50
100
AcDbLine
 10
564.656798
 20
457.598445
 30
0.0
 11
564.656788
 21
463.598446
 31
0.0
  0
ARC
  5
280
330
1F
100
AcDbEntity
  8
LC-001-100-D00-0
 62
     7
370
    50
100
AcDbCircle
 10
565.656788
 20
463.598446
 30
0.0
 40
1.000000000000227
100
AcDbArc
 50
90.0
 51
180.0
  0
LINE
  5
281
330
1F
100
AcDbEntity
  8
LC-001-100-D00-0
 62
     7
370
    50
100
AcDbLine
 10
576.555942
 20
453.598446
 30
0.0
 11
576.555942
 21
451.598445
 31
0.0
  0
LINE
  5
282
330
1F
100
AcDbEntity
  8
LC-001-100-D00-0
 62
     7
370
    50
100
AcDbLine
 10
577.206788
 20
451.598446
 30
0.0
 11
576.555942
 21
451.598445
 31
0.0
  0
ARC
  5
283
330
1F
100
AcDbEntity
  8
LC-001-100-D00-0
 62
     7
370
    50
100
AcDbCircle
 10
577.206788
 20
451.098446
 30
0.0
 40
0.5000000000002274
100
AcDbArc
 50
0.0
 51
90.0
  0
LINE
  5
284
330
1F
100
AcDbEntity
  8
LC-001-100-D00-0
 62
     7
370
    50
100
AcDbLine
 10
579.006796
 20
453.598446
 30
0.0
 11
576.555942
 21
453.598446
 31
0.0
  0
LINE
  5
285
330
1F
100
AcDbEntity
  8
LC-001-100-D00-0
 62
     7
370
    50
100
AcDbLine
 10
576.555942
 20
445.598446
 30
0.0
 11
574.156788
 21
445.598446
 31
0.0
  0
LINE
  5
286
330
1F
100
AcDbEntity
  8
LC-001-100-D00-0
 62
     7
370
    50
100
AcDbLine
 10
567.65679
 20
461.598446
 30
0.0
 11
572.156788
 21
461.598446
 31
0.0
  0
LINE
  5
287
330
1F
100
AcDbEntity
  8
LC-001-100-D00-0
 62
     7
370
    50
100
AcDbLine
 10
565.656788
 20
464.598446
 30
0.0
 11
579.006788
 21
464.598446
 31
0.0
  0
LINE
  5
288
330
1F
100
AcDbEntity
  8
LC-001-100-D00-0
 62
     7
370
    50
100
AcDbLine
 10
596.156788
 20
457.598446
 30
0.0
 11
598.156788
 21
457.598446
 31
0.0
  0
LINE
  5
289
330
1F
100
AcDbEntity
  8
LC-001-100-D00-0
 62
     7
370
    50
100
AcDbLine
 10
567.656788
 20
457.598446
 30
0.0
 11
569.656788
 21
457.598446
 31
0.0
  0
LINE
  5
28A
330
1F
100
AcDbEntity
  8
LC-001-100-D00-0
 62
     7
370
    50
100
AcDbLine
 10
569.656788
 20
457.598446
 30
0.0
 11
573.156778
 21
457.598445
 31
0.0
  0
LINE
  5
28B
330
1F
100
AcDbEntity
  8
LC-001-100-D00-0
 62
     7
370
    50
100
AcDbLine
 10
592.656796
 20
457.598445
 30
0.0
 11
596.156788
 21
457.598446
 31
0.0
  0
LINE
  5
28C
330
1F
100
AcDbEntity
  8
LC-001-100-D00-0
 62
     7
370
    50
100
AcDbLine
 10
-360.493209
 20
452.598445
 30
0.0
 11
-361.493225
 21
453.598446
 31
0.0
  0
LINE
  5
28D
330
1F
100
AcDbEntity
  8
LC-001-100-D00-0
 62
     7
370
    50
100
AcDbLine
 10
-360.493209
 20
452.598445
 30
0.0
 11
-360.493212
 21
446.598446
 31
0.0
  0
LINE
  5
28E
330
1F
100
AcDbEntity
  8
LC-001-100-D00-0
 62
     7
370
    50
100
AcDbLine
 10
-361.493212
 20
445.598446
 30
0.0
 11
-360.493212
 21
446.598446
 31
0.0
  0
LINE
  5
28F
330
1F
100
AcDbEntity
  8
LC-001-100-D00-0
 62
     7
370
    50
100
AcDbLine
 10
-363.444056
 20
447.598445
 30
0.0
 11
-363.444056
 21
445.598446
 31
0.0
  0
LINE
  5
290
330
1F
100
AcDbEntity
  8
LC-001-100-D00-0
 62
     7
370
    50
100
AcDbLine
 10
-362.73792
 20
447.787656
 30
0.0
 11
-363.444056
 21
447.598445
 31
0.0
  0
ARC
  5
291
330
1F
100
AcDbEntity
  8
LC-001-100-D00-0
 62
     7
370
    50
100
AcDbCircle
 10
-362.893212
 20
448.367212
 30
0.0
 40
0.600000000000118
100
AcDbArc
 50
285.0
 51
0.0
  0
LINE
  5
292
330
1F
100
AcDbEntity
  8
LC-001-100-D00-0
 62
     7
370
    50
100
AcDbLine
 10
-362.293212
 20
450.829679
 30
0.0
 11
-362.293212
 21
448.367212
 31
0.0
  0
ARC
  5
293
330
1F
100
AcDbEntity
  8
LC-001-100-D00-0
 62
     7
370
    50
100
AcDbCircle
 10
-362.893212
 20
450.829679
 30
0.0
 40
0.600000000000307
100
AcDbArc
 50
0.0
 51
75.0
  0
LINE
  5
294
330
1F
100
AcDbEntity
  8
LC-001-100-D00-0
 62
     7
370
    50
100
AcDbLine
 10
-363.444056
 20
451.598445
 30
0.0
 11
-362.73792
 21
451.409235
 31
0.0
  0
LINE
  5
295
330
1F
100
AcDbEntity
  8
LC-001-100-D00-0
 62
     7
370
    50
100
AcDbLine
 10
-363.444056
 20
453.598446
 30
0.0
 11
-363.444056
 21
451.598445
 31
0.0
  0
LINE
  5
296
330
1F
100
AcDbEntity
  8
LC-001-100-D00-0
 62
     7
370
    50
100
AcDbLine
 10
-363.444056
 20
445.598446
 30
0.0
 11
-361.493212
 21
445.598446
 31
0.0
  0
LINE
  5
297
330
1F
100
AcDbEntity
  8
LC-001-100-D00-0
 62
     7
370
    50
100
AcDbLine
 10
-363.444056
 20
453.598446
 30
0.0
 11
-361.493225
 21
453.598446
 31
0.0
  0
LINE
  5
298
330
1F
100
AcDbEntity
  8
LC-001-100-D00-0
 62
     7
370
    50
100
AcDbLine
 10
-351.893212
 20
448.367212
 30
0.0
 11
-351.893212
 21
450.829679
 31
0.0
  0
ARC
  5
299
330
1F
100
AcDbEntity
  8
LC-001-100-D00-0
 62
     7
370
    50
100
AcDbCircle
 10
-351.293212
 20
448.367212
 30
0.0
 40
0.6000000000000796
100
AcDbArc
 50
180.0
 51
255.0
  0
LINE
  5
29A
330
1F
100
AcDbEntity
  8
LC-001-100-D00-0
 62
     7
370
    50
100
AcDbLine
 10
-350.742365
 20
447.598445
 30
0.0
 11
-351.448503
 21
447.787656
 31
0.0
  0
LINE
  5
29B
330
1F
100
AcDbEntity
  8
LC-001-100-D00-0
 62
     7
370
    50
100
AcDbLine
 10
-350.742365
 20
447.598445
 30
0.0
 11
-350.742365
 21
445.598446
 31
0.0
  0
LINE
  5
29C
330
1F
100
AcDbEntity
  8
LC-001-100-D00-0
 62
     7
370
    50
100
AcDbLine
 10
-353.693212
 20
446.598446
 30
0.0
 11
-352.693212
 21
445.598446
 31
0.0
  0
LINE
  5
29D
330
1F
100
AcDbEntity
  8
LC-001-100-D00-0
 62
     7
370
    50
100
AcDbLine
 10
-353.693212
 20
446.598446
 30
0.0
 11
-353.693213
 21
452.598445
 31
0.0
  0
LINE
  5
29E
330
1F
100
AcDbEntity
  8
LC-001-100-D00-0
 62
     7
370
    50
100
AcDbLine
 10
-352.693225
 20
453.598446
 30
0.0
 11
-353.693213
 21
452.598445
 31
0.0
  0
LINE
  5
29F
330
1F
100
AcDbEntity
  8
LC-001-100-D00-0
 62
     7
370
    50
100
AcDbLine
 10
-350.742365
 20
453.598446
 30
0.0
 11
-350.742365
 21
451.598445
 31
0.0
  0
LINE
  5
2A0
330
1F
100
AcDbEntity
  8
LC-001-100-D00-0
 62
     7
370
    50
100
AcDbLine
 10
-351.448503
 20
451.409235
 30
0.0
 11
-350.742365
 21
451.598445
 31
0.0
  0
ARC
  5
2A1
330
1F
100
AcDbEntity
  8
LC-001-100-D00-0
 62
     7
370
    50
100
AcDbCircle
 10
-351.293212
 20
450.829679
 30
0.0
 40
0.5999999999998983
100
AcDbArc
 50
105.0
 51
180.0
  0
LINE
  5
2A2
330
1F
100
AcDbEntity
  8
LC-001-100-D00-0
 62
     7
370
    50
100
AcDbLine
 10
-352.693212
 20
445.598446
 30
0.0
 11
-350.742365
 21
445.598446
 31
0.0
  0
LINE
  5
2A3
330
1F
100
AcDbEntity
  8
LC-001-100-D00-0
 62
     7
370
    50
100
AcDbLine
 10
-352.693225
 20
453.598446
 30
0.0
 11
-350.742365
 21
453.598446
 31
0.0
  0
LINE
  5
2A4
330
1F
100
AcDbEntity
  8
LC-001-100-D00-0
 62
     7
370
    50
100
AcDbLine
 10
-360.493212
 20
446.598446
 30
0.0
 11
-360.335372
 21
446.598446
 31
0.0
  0
LINE
  5
2A5
330
1F
100
AcDbEntity
  8
LC-001-100-D00-0
 62
     7
370
    50
100
AcDbLine
 10
-353.851051
 20
446.598446
 30
0.0
 11
-353.693212
 21
446.598446
 31
0.0
  0
LINE
  5
2A6
330
1F
100
AcDbEntity
  8
LC-001-100-D00-0
 62
     7
370
    50
100
AcDbLine
 10
-352.693212
 20
445.598446
 30
0.0
 11
-353.228993
 21
445.598446
 31
0.0
  0
LINE
  5
2A7
330
1F
100
AcDbEntity
  8
LC-001-100-D00-0
 62
     7
370
    50
100
AcDbLine
 10
-360.95743
 20
445.598446
 30
0.0
 11
-361.493212
 21
445.598446
 31
0.0
  0
LINE
  5
2A8
330
1F
100
AcDbEntity
  8
LC-001-100-D00-0
 62
     7
370
    50
100
AcDbLine
 10
-350.742365
 20
453.598446
 30
0.0
 11
-353.193219
 21
453.598446
 31
0.0
  0
LINE
  5
2A9
330
1F
100
AcDbEntity
  8
LC-001-100-D00-0
 62
     7
370
    50
100
AcDbLine
 10
-353.193219
 20
453.598446
 30
0.0
 11
-353.193212
 21
464.598446
 31
0.0
  0
LINE
  5
2AA
330
1F
100
AcDbEntity
  8
LC-001-100-D00-0
 62
     7
370
    50
100
AcDbLine
 10
-353.193212
 20
464.598446
 30
0.0
 11
-339.843212
 21
464.598446
 31
0.0
  0
ARC
  5
2AB
330
1F
100
AcDbEntity
  8
LC-001-100-D00-0
 62
     7
370
    50
100
AcDbCircle
 10
-339.843212
 20
463.598446
 30
0.0
 40
1.000000000000227
100
AcDbArc
 50
0.0
 51
90.0
  0
LINE
  5
2AC
330
1F
100
AcDbEntity
  8
LC-001-100-D00-0
 62
     7
370
    50
100
AcDbLine
 10
-338.843212
 20
463.598446
 30
0.0
 11
-338.843222
 21
457.598445
 31
0.0
  0
LINE
  5
2AD
330
1F
100
AcDbEntity
  8
LC-001-100-D00-0
 62
     7
370
    50
100
AcDbLine
 10
-341.843212
 20
457.598446
 30
0.0
 11
-338.843222
 21
457.598445
 31
0.0
  0
LINE
  5
2AE
330
1F
100
AcDbEntity
  8
LC-001-100-D00-0
 62
     7
370
    50
100
AcDbLine
 10
-341.843212
 20
457.598446
 30
0.0
 11
-341.843213
 21
461.598446
 31
0.0
  0
LINE
  5
2AF
330
1F
100
AcDbEntity
  8
LC-001-100-D00-0
 62
     7
370
    50
100
AcDbLine
 10
-346.343212
 20
461.598446
 30
0.0
 11
-341.843213
 21
461.598446
 31
0.0
  0
ARC
  5
2B0
330
1F
100
AcDbEntity
  8
LC-001-100-D00-0
 62
     7
370
    50
100
AcDbCircle
 10
-346.343212
 20
460.598446
 30
0.0
 40
1.0
100
AcDbArc
 50
90.0
 51
180.0
  0
LINE
  5
2B1
330
1F
100
AcDbEntity
  8
LC-001-100-D00-0
 62
     7
370
    50
100
AcDbLine
 10
-347.343212
 20
446.598446
 30
0.0
 11
-347.343212
 21
460.598446
 31
0.0
  0
ARC
  5
2B2
330
1F
100
AcDbEntity
  8
LC-001-100-D00-0
 62
     7
370
    50
100
AcDbCircle
 10
-348.343212
 20
446.598446
 30
0.0
 40
1.0
100
AcDbArc
 50
270.0
 51
0.0
  0
LINE
  5
2B3
330
1F
100
AcDbEntity
  8
LC-001-100-D00-0
 62
     7
370
    50
100
AcDbLine
 10
-348.343212
 20
445.598446
 30
0.0
 11
-350.742365
 21
445.598446
 31
0.0
  0
LINE
  5
2B4
330
1F
100
AcDbEntity
  8
LC-001-100-D00-0
 62
     7
370
    50
100
AcDbLine
 10
-350.742365
 20
447.598445
 30
0.0
 11
-350.742365
 21
445.598446
 31
0.0
  0
LINE
  5
2B5
330
1F
100
AcDbEntity
  8
LC-001-100-D00-0
 62
     7
370
    50
100
AcDbLine
 10
-351.393212
 20
447.598446
 30
0.0
 11
-350.742365
 21
447.598445
 31
0.0
  0
ARC
  5
2B6
330
1F
100
AcDbEntity
  8
LC-001-100-D00-0
 62
     7
370
    50
100
AcDbCircle
 10
-351.393212
 20
448.098446
 30
0.0
 40
0.5
100
AcDbArc
 50
180.0
 51
270.0
  0
LINE
  5
2B7
330
1F
100
AcDbEntity
  8
LC-001-100-D00-0
 62
     7
370
    50
100
AcDbLine
 10
-351.893212
 20
451.098446
 30
0.0
 11
-351.893212
 21
448.098446
 31
0.0
  0
ARC
  5
2B8
330
1F
100
AcDbEntity
  8
LC-001-100-D00-0
 62
     7
370
    50
100
AcDbCircle
 10
-351.393212
 20
451.098446
 30
0.0
 40
0.5
100
AcDbArc
 50
90.0
 51
180.0
  0
LINE
  5
2B9
330
1F
100
AcDbEntity
  8
LC-001-100-D00-0
 62
     7
370
    50
100
AcDbLine
 10
-350.742365
 20
451.598445
 30
0.0
 11
-351.393212
 21
451.598446
 31
0.0
  0
LINE
  5
2BA
330
1F
100
AcDbEntity
  8
LC-001-100-D00-0
 62
     7
370
    50
100
AcDbLine
 10
-350.742365
 20
453.598446
 30
0.0
 11
-350.742365
 21
451.598445
 31
0.0
  0
ARC
  5
2BB
330
1F
100
AcDbEntity
  8
LC-001-100-D00-0
 62
     7
370
    50
100
AcDbCircle
 10
-367.843212
 20
460.598446
 30
0.0
 40
1.0
100
AcDbArc
 50
0.0
 51
90.0
  0
LINE
  5
2BC
330
1F
100
AcDbEntity
  8
LC-001-100-D00-0
 62
     7
370
    50
100
AcDbLine
 10
-366.843212
 20
460.598446
 30
0.0
 11
-366.843212
 21
446.598446
 31
0.0
  0
ARC
  5
2BD
330
1F
100
AcDbEntity
  8
LC-001-100-D00-0
 62
     7
370
    50
100
AcDbCircle
 10
-365.843212
 20
446.598446
 30
0.0
 40
1.000000000000057
100
AcDbArc
 50
180.0
 51
270.0
  0
LINE
  5
2BE
330
1F
100
AcDbEntity
  8
LC-001-100-D00-0
 62
     7
370
    50
100
AcDbLine
 10
-362.293212
 20
448.098446
 30
0.0
 11
-362.293212
 21
451.098446
 31
0.0
  0
LINE
  5
2BF
330
1F
100
AcDbEntity
  8
LC-001-100-D00-0
 62
     7
370
    50
100
AcDbLine
 10
-360.993212
 20
464.598446
 30
0.0
 11
-360.993202
 21
453.598446
 31
0.0
  0
LINE
  5
2C0
330
1F
100
AcDbEntity
  8
LC-001-100-D00-0
 62
     7
370
    50
100
AcDbLine
 10
-360.993212
 20
464.598446
 30
0.0
 11
-353.193212
 21
464.598446
 31
0.0
  0
ARC
  5
2C1
330
1F
100
AcDbEntity
  8
LC-001-100-D00-0
 62
     7
370
    50
100
AcDbCircle
 10
-362.793212
 20
448.098446
 30
0.0
 40
0.4999999999997726
100
AcDbArc
 50
270.0
 51
0.0
  0
LINE
  5
2C2
330
1F
100
AcDbEntity
  8
LC-001-100-D00-0
 62
     7
370
    50
100
AcDbLine
 10
-363.444056
 20
447.598445
 30
0.0
 11
-362.793212
 21
447.598446
 31
0.0
  0
LINE
  5
2C3
330
1F
100
AcDbEntity
  8
LC-001-100-D00-0
 62
     7
370
    50
100
AcDbLine
 10
-363.444056
 20
447.598445
 30
0.0
 11
-363.444056
 21
445.598446
 31
0.0
  0
LINE
  5
2C4
330
1F
100
AcDbEntity
  8
LC-001-100-D00-0
 62
     7
370
    50
100
AcDbLine
 10
-372.343208
 20
461.598446
 30
0.0
 11
-372.343212
 21
457.598446
 31
0.0
  0
LINE
  5
2C5
330
1F
100
AcDbEntity
  8
LC-001-100-D00-0
 62
     7
370
    50
100
AcDbLine
 10
-375.343199
 20
457.598445
 30
0.0
 11
-372.343212
 21
457.598446
 31
0.0
  0
LINE
  5
2C6
330
1F
100
AcDbEntity
  8
LC-001-100-D00-0
 62
     7
370
    50
100
AcDbLine
 10
-375.343199
 20
457.598445
 30
0.0
 11
-375.343212
 21
463.598446
 31
0.0
  0
ARC
  5
2C7
330
1F
100
AcDbEntity
  8
LC-001-100-D00-0
 62
     7
370
    50
100
AcDbCircle
 10
-374.343212
 20
463.598446
 30
0.0
 40
1.0
100
AcDbArc
 50
90.0
 51
180.0
  0
LINE
  5
2C8
330
1F
100
AcDbEntity
  8
LC-001-100-D00-0
 62
     7
370
    50
100
AcDbLine
 10
-363.444056
 20
453.598446
 30
0.0
 11
-363.444056
 21
451.598445
 31
0.0
  0
LINE
  5
2C9
330
1F
100
AcDbEntity
  8
LC-001-100-D00-0
 62
     7
370
    50
100
AcDbLine
 10
-362.793212
 20
451.598446
 30
0.0
 11
-363.444056
 21
451.598445
 31
0.0
  0
ARC
  5
2CA
330
1F
100
AcDbEntity
  8
LC-001-100-D00-0
 62
     7
370
    50
100
AcDbCircle
 10
-362.793212
 20
451.098446
 30
0.0
 40
0.5000000000001137
100
AcDbArc
 50
0.0
 51
90.0
  0
LINE
  5
2CB
330
1F
100
AcDbEntity
  8
LC-001-100-D00-0
 62
     7
370
    50
100
AcDbLine
 10
-360.993202
 20
453.598446
 30
0.0
 11
-363.444056
 21
453.598446
 31
0.0
  0
LINE
  5
2CC
330
1F
100
AcDbEntity
  8
LC-001-100-D00-0
 62
     7
370
    50
100
AcDbLine
 10
-363.444056
 20
445.598446
 30
0.0
 11
-365.843212
 21
445.598446
 31
0.0
  0
LINE
  5
2CD
330
1F
100
AcDbEntity
  8
LC-001-100-D00-0
 62
     7
370
    50
100
AcDbLine
 10
-372.343208
 20
461.598446
 30
0.0
 11
-367.843212
 21
461.598446
 31
0.0
  0
LINE
  5
2CE
330
1F
100
AcDbEntity
  8
LC-001-100-D00-0
 62
     7
370
    50
100
AcDbLine
 10
-374.343212
 20
464.598446
 30
0.0
 11
-360.993212
 21
464.598446
 31
0.0
  0
LINE
  5
2CF
330
1F
100
AcDbEntity
  8
LC-001-100-D00-0
 62
     7
370
    50
100
AcDbLine
 10
-343.843212
 20
457.598446
 30
0.0
 11
-341.843212
 21
457.598446
 31
0.0
  0
LINE
  5
2D0
330
1F
100
AcDbEntity
  8
LC-001-100-D00-0
 62
     7
370
    50
100
AcDbLine
 10
-372.343212
 20
457.598446
 30
0.0
 11
-370.343212
 21
457.598446
 31
0.0
  0
LINE
  5
2D1
330
1F
100
AcDbEntity
  8
LC-001-100-D00-0
 62
     7
370
    50
100
AcDbLine
 10
-370.343212
 20
457.598446
 30
0.0
 11
-366.843219
 21
457.598445
 31
0.0
  0
LINE
  5
2D2
330
1F
100
AcDbEntity
  8
LC-001-100-D00-0
 62
     7
370
    50
100
AcDbLine
 10
-347.343202
 20
457.598445
 30
0.0
 11
-343.843212
 21
457.598446
 31
0.0
  0
LINE
  5
2D3
330
1F
100
AcDbEntity
  8
LC-001-100-D00-0
 62
     7
370
    50
100
AcDbLine
 10
-175.493206
 20
452.598445
 30
0.0
 11
-176.493223
 21
453.598446
 31
0.0
  0
LINE
  5
2D4
330
1F
100
AcDbEntity
  8
LC-001-100-D00-0
 62
     7
370
    50
100
AcDbLine
 10
-175.493206
 20
452.598445
 30
0.0
 11
-175.493212
 21
446.598446
 31
0.0
  0
LINE
  5
2D5
330
1F
100
AcDbEntity
  8
LC-001-100-D00-0
 62
     7
370
    50
100
AcDbLine
 10
-176.493212
 20
445.598446
 30
0.0
 11
-175.493212
 21
446.598446
 31
0.0
  0
LINE
  5
2D6
330
1F
100
AcDbEntity
  8
LC-001-100-D00-0
 62
     7
370
    50
100
AcDbLine
 10
-178.444053
 20
447.598445
 30
0.0
 11
-178.444053
 21
445.598446
 31
0.0
  0
LINE
  5
2D7
330
1F
100
AcDbEntity
  8
LC-001-100-D00-0
 62
     7
370
    50
100
AcDbLine
 10
-177.73792
 20
447.787656
 30
0.0
 11
-178.444053
 21
447.598445
 31
0.0
  0
ARC
  5
2D8
330
1F
100
AcDbEntity
  8
LC-001-100-D00-0
 62
     7
370
    50
100
AcDbCircle
 10
-177.893212
 20
448.367212
 30
0.0
 40
0.6000000000001032
100
AcDbArc
 50
285.0
 51
0.0
  0
LINE
  5
2D9
330
1F
100
AcDbEntity
  8
LC-001-100-D00-0
 62
     7
370
    50
100
AcDbLine
 10
-177.293212
 20
450.829679
 30
0.0
 11
-177.293212
 21
448.367212
 31
0.0
  0
ARC
  5
2DA
330
1F
100
AcDbEntity
  8
LC-001-100-D00-0
 62
     7
370
    50
100
AcDbCircle
 10
-177.893212
 20
450.829679
 30
0.0
 40
0.600000000000307
100
AcDbArc
 50
0.0
 51
75.0
  0
LINE
  5
2DB
330
1F
100
AcDbEntity
  8
LC-001-100-D00-0
 62
     7
370
    50
100
AcDbLine
 10
-178.444053
 20
451.598445
 30
0.0
 11
-177.73792
 21
451.409235
 31
0.0
  0
LINE
  5
2DC
330
1F
100
AcDbEntity
  8
LC-001-100-D00-0
 62
     7
370
    50
100
AcDbLine
 10
-178.444053
 20
453.598446
 30
0.0
 11
-178.444053
 21
451.598445
 31
0.0
  0
LINE
  5
2DD
330
1F
100
AcDbEntity
  8
LC-001-100-D00-0
 62
     7
370
    50
100
AcDbLine
 10
-178.444053
 20
445.598446
 30
0.0
 11
-176.493212
 21
445.598446
 31
0.0
  0
LINE
  5
2DE
330
1F
100
AcDbEntity
  8
LC-001-100-D00-0
 62
     7
370
    50
100
AcDbLine
 10
-178.444053
 20
453.598446
 30
0.0
 11
-176.493223
 21
453.598446
 31
0.0
  0
LINE
  5
2DF
330
1F
100
AcDbEntity
  8
LC-001-100-D00-0
 62
     7
370
    50
100
AcDbLine
 10
-166.893212
 20
448.367212
 30
0.0
 11
-166.893212
 21
450.829679
 31
0.0
  0
ARC
  5
2E0
330
1F
100
AcDbEntity
  8
LC-001-100-D00-0
 62
     7
370
    50
100
AcDbCircle
 10
-166.293212
 20
448.367212
 30
0.0
 40
0.6000000000000227
100
AcDbArc
 50
180.0
 51
255.0
  0
LINE
  5
2E1
330
1F
100
AcDbEntity
  8
LC-001-100-D00-0
 62
     7
370
    50
100
AcDbLine
 10
-165.742363
 20
447.598445
 30
0.0
 11
-166.448503
 21
447.787656
 31
0.0
  0
LINE
  5
2E2
330
1F
100
AcDbEntity
  8
LC-001-100-D00-0
 62
     7
370
    50
100
AcDbLine
 10
-165.742363
 20
447.598445
 30
0.0
 11
-165.742363
 21
445.598446
 31
0.0
  0
LINE
  5
2E3
330
1F
100
AcDbEntity
  8
LC-001-100-D00-0
 62
     7
370
    50
100
AcDbLine
 10
-168.693212
 20
446.598446
 30
0.0
 11
-167.693212
 21
445.598446
 31
0.0
  0
LINE
  5
2E4
330
1F
100
AcDbEntity
  8
LC-001-100-D00-0
 62
     7
370
    50
100
AcDbLine
 10
-168.693212
 20
446.598446
 30
0.0
 11
-168.69321
 21
452.598445
 31
0.0
  0
LINE
  5
2E5
330
1F
100
AcDbEntity
  8
LC-001-100-D00-0
 62
     7
370
    50
100
AcDbLine
 10
-167.693223
 20
453.598446
 30
0.0
 11
-168.69321
 21
452.598445
 31
0.0
  0
LINE
  5
2E6
330
1F
100
AcDbEntity
  8
LC-001-100-D00-0
 62
     7
370
    50
100
AcDbLine
 10
-165.742363
 20
453.598446
 30
0.0
 11
-165.742363
 21
451.598445
 31
0.0
  0
LINE
  5
2E7
330
1F
100
AcDbEntity
  8
LC-001-100-D00-0
 62
     7
370
    50
100
AcDbLine
 10
-166.448503
 20
451.409235
 30
0.0
 11
-165.742363
 21
451.598445
 31
0.0
  0
ARC
  5
2E8
330
1F
100
AcDbEntity
  8
LC-001-100-D00-0
 62
     7
370
    50
100
AcDbCircle
 10
-166.293212
 20
450.829679
 30
0.0
 40
0.600000000000118
100
AcDbArc
 50
105.0
 51
180.0
  0
LINE
  5
2E9
330
1F
100
AcDbEntity
  8
LC-001-100-D00-0
 62
     7
370
    50
100
AcDbLine
 10
-167.693212
 20
445.598446
 30
0.0
 11
-165.742363
 21
445.598446
 31
0.0
  0
LINE
  5
2EA
330
1F
100
AcDbEntity
  8
LC-001-100-D00-0
 62
     7
370
    50
100
AcDbLine
 10
-167.693223
 20
453.598446
 30
0.0
 11
-165.742363
 21
453.598446
 31
0.0
  0
LINE
  5
2EB
330
1F
100
AcDbEntity
  8
LC-001-100-D00-0
 62
     7
370
    50
100
AcDbLine
 10
-175.493212
 20
446.598446
 30
0.0
 11
-175.335372
 21
446.598446
 31
0.0
  0
LINE
  5
2EC
330
1F
100
AcDbEntity
  8
LC-001-100-D00-0
 62
     7
370
    50
100
AcDbLine
 10
-168.851051
 20
446.598446
 30
0.0
 11
-168.693212
 21
446.598446
 31
0.0
  0
LINE
  5
2ED
330
1F
100
AcDbEntity
  8
LC-001-100-D00-0
 62
     7
370
    50
100
AcDbLine
 10
-167.693212
 20
445.598446
 30
0.0
 11
-168.228993
 21
445.598446
 31
0.0
  0
LINE
  5
2EE
330
1F
100
AcDbEntity
  8
LC-001-100-D00-0
 62
     7
370
    50
100
AcDbLine
 10
-175.95743
 20
445.598446
 30
0.0
 11
-176.493212
 21
445.598446
 31
0.0
  0
LINE
  5
2EF
330
1F
100
AcDbEntity
  8
LC-001-100-D00-0
 62
     7
370
    50
100
AcDbLine
 10
-165.742363
 20
453.598446
 30
0.0
 11
-168.193217
 21
453.598446
 31
0.0
  0
LINE
  5
2F0
330
1F
100
AcDbEntity
  8
LC-001-100-D00-0
 62
     7
370
    50
100
AcDbLine
 10
-168.193217
 20
453.598446
 30
0.0
 11
-168.193212
 21
464.598446
 31
0.0
  0
LINE
  5
2F1
330
1F
100
AcDbEntity
  8
LC-001-100-D00-0
 62
     7
370
    50
100
AcDbLine
 10
-168.193212
 20
464.598446
 30
0.0
 11
-154.843212
 21
464.598446
 31
0.0
  0
ARC
  5
2F2
330
1F
100
AcDbEntity
  8
LC-001-100-D00-0
 62
     7
370
    50
100
AcDbCircle
 10
-154.843212
 20
463.598446
 30
0.0
 40
1.000000000000227
100
AcDbArc
 50
0.0
 51
90.0
  0
LINE
  5
2F3
330
1F
100
AcDbEntity
  8
LC-001-100-D00-0
 62
     7
370
    50
100
AcDbLine
 10
-153.843212
 20
463.598446
 30
0.0
 11
-153.84322
 21
457.598445
 31
0.0
  0
LINE
  5
2F4
330
1F
100
AcDbEntity
  8
LC-001-100-D00-0
 62
     7
370
    50
100
AcDbLine
 10
-156.843212
 20
457.598446
 30
0.0
 11
-153.84322
 21
457.598445
 31
0.0
  0
LINE
  5
2F5
330
1F
100
AcDbEntity
  8
LC-001-100-D00-0
 62
     7
370
    50
100
AcDbLine
 10
-156.843212
 20
457.598446
 30
0.0
 11
-156.843211
 21
461.598446
 31
0.0
  0
LINE
  5
2F6
330
1F
100
AcDbEntity
  8
LC-001-100-D00-0
 62
     7
370
    50
100
AcDbLine
 10
-161.343212
 20
461.598446
 30
0.0
 11
-156.843211
 21
461.598446
 31
0.0
  0
ARC
  5
2F7
330
1F
100
AcDbEntity
  8
LC-001-100-D00-0
 62
     7
370
    50
100
AcDbCircle
 10
-161.343212
 20
460.598446
 30
0.0
 40
1.000000000000227
100
AcDbArc
 50
90.0
 51
180.0
  0
LINE
  5
2F8
330
1F
100
AcDbEntity
  8
LC-001-100-D00-0
 62
     7
370
    50
100
AcDbLine
 10
-162.343212
 20
446.598446
 30
0.0
 11
-162.343212
 21
460.598446
 31
0.0
  0
ARC
  5
2F9
330
1F
100
AcDbEntity
  8
LC-001-100-D00-0
 62
     7
370
    50
100
AcDbCircle
 10
-163.343212
 20
446.598446
 30
0.0
 40
1.000000000000227
100
AcDbArc
 50
270.0
 51
0.0
  0
LINE
  5
2FA
330
1F
100
AcDbEntity
  8
LC-001-100-D00-0
 62
     7
370
    50
100
AcDbLine
 10
-163.343212
 20
445.598446
 30
0.0
 11
-165.742363
 21
445.598446
 31
0.0
  0
LINE
  5
2FB
330
1F
100
AcDbEntity
  8
LC-001-100-D00-0
 62
     7
370
    50
100
AcDbLine
 10
-165.742363
 20
447.598445
 30
0.0
 11
-165.742363
 21
445.598446
 31
0.0
  0
LINE
  5
2FC
330
1F
100
AcDbEntity
  8
LC-001-100-D00-0
 62
     7
370
    50
100
AcDbLine
 10
-166.393212
 20
447.598446
 30
0.0
 11
-165.742363
 21
447.598445
 31
0.0
  0
ARC
  5
2FD
330
1F
100
AcDbEntity
  8
LC-001-100-D00-0
 62
     7
370
    50
100
AcDbCircle
 10
-166.393212
 20
448.098446
 30
0.0
 40
0.4999999999999432
100
AcDbArc
 50
180.0
 51
270.0
  0
LINE
  5
2FE
330
1F
100
AcDbEntity
  8
LC-001-100-D00-0
 62
     7
370
    50
100
AcDbLine
 10
-166.893212
 20
451.098446
 30
0.0
 11
-166.893212
 21
448.098446
 31
0.0
  0
ARC
  5
2FF
330
1F
100
AcDbEntity
  8
LC-001-100-D00-0
 62
     7
370
    50
100
AcDbCircle
 10
-166.393212
 20
451.098446
 30
0.0
 40
0.5000000000004548
100
AcDbArc
 50
90.0
 51
180.0
  0
LINE
  5
300
330
1F
100
AcDbEntity
  8
LC-001-100-D00-0
 62
     7
370
    50
100
AcDbLine
 10
-165.742363
 20
451.598445
 30
0.0
 11
-166.393212
 21
451.598446
 31
0.0
  0
LINE
  5
301
330
1F
100
AcDbEntity
  8
LC-001-100-D00-0
 62
     7
370
    50
100
AcDbLine
 10
-165.742363
 20
453.598446
 30
0.0
 11
-165.742363
 21
451.598445
 31
0.0
  0
ARC
  5
302
330
1F
100
AcDbEntity
  8
LC-001-100-D00-0
 62
     7
370
    50
100
AcDbCircle
 10
-182.843212
 20
460.598446
 30
0.0
 40
1.000000000000057
100
AcDbArc
 50
0.0
 51
90.0
  0
LINE
  5
303
330
1F
100
AcDbEntity
  8
LC-001-100-D00-0
 62
     7
370
    50
100
AcDbLine
 10
-181.843212
 20
460.598446
 30
0.0
 11
-181.843212
 21
446.598446
 31
0.0
  0
ARC
  5
304
330
1F
100
AcDbEntity
  8
LC-001-100-D00-0
 62
     7
370
    50
100
AcDbCircle
 10
-180.843212
 20
446.598446
 30
0.0
 40
1.000000000000227
100
AcDbArc
 50
180.0
 51
270.0
  0
LINE
  5
305
330
1F
100
AcDbEntity
  8
LC-001-100-D00-0
 62
     7
370
    50
100
AcDbLine
 10
-177.293212
 20
448.098446
 30
0.0
 11
-177.293212
 21
451.098446
 31
0.0
  0
LINE
  5
306
330
1F
100
AcDbEntity
  8
LC-001-100-D00-0
 62
     7
370
    50
100
AcDbLine
 10
-175.993212
 20
464.598446
 30
0.0
 11
-175.9932
 21
453.598446
 31
0.0
  0
LINE
  5
307
330
1F
100
AcDbEntity
  8
LC-001-100-D00-0
 62
     7
370
    50
100
AcDbLine
 10
-175.993212
 20
464.598446
 30
0.0
 11
-168.193212
 21
464.598446
 31
0.0
  0
ARC
  5
308
330
1F
100
AcDbEntity
  8
LC-001-100-D00-0
 62
     7
370
    50
100
AcDbCircle
 10
-177.793212
 20
448.098446
 30
0.0
 40
0.4999999999997726
100
AcDbArc
 50
270.0
 51
0.0
  0
LINE
  5
309
330
1F
100
AcDbEntity
  8
LC-001-100-D00-0
 62
     7
370
    50
100
AcDbLine
 10
-178.444053
 20
447.598445
 30
0.0
 11
-177.793212
 21
447.598446
 31
0.0
  0
LINE
  5
30A
330
1F
100
AcDbEntity
  8
LC-001-100-D00-0
 62
     7
370
    50
100
AcDbLine
 10
-178.444053
 20
447.598445
 30
0.0
 11
-178.444053
 21
445.598446
 31
0.0
  0
LINE
  5
30B
330
1F
100
AcDbEntity
  8
LC-001-100-D00-0
 62
     7
370
    50
100
AcDbLine
 10
-187.343206
 20
461.598446
 30
0.0
 11
-187.343212
 21
457.598446
 31
0.0
  0
LINE
  5
30C
330
1F
100
AcDbEntity
  8
LC-001-100-D00-0
 62
     7
370
    50
100
AcDbLine
 10
-190.343227
 20
457.598445
 30
0.0
 11
-190.343212
 21
463.598446
 31
0.0
  0
ARC
  5
30D
330
1F
100
AcDbEntity
  8
LC-001-100-D00-0
 62
     7
370
    50
100
AcDbCircle
 10
-189.343212
 20
463.598446
 30
0.0
 40
1.000000000000227
100
AcDbArc
 50
90.0
 51
180.0
  0
LINE
  5
30E
330
1F
100
AcDbEntity
  8
LC-001-100-D00-0
 62
     7
370
    50
100
AcDbLine
 10
-178.444053
 20
453.598446
 30
0.0
 11
-178.444053
 21
451.598445
 31
0.0
  0
LINE
  5
30F
330
1F
100
AcDbEntity
  8
LC-001-100-D00-0
 62
     7
370
    50
100
AcDbLine
 10
-177.793212
 20
451.598446
 30
0.0
 11
-178.444053
 21
451.598445
 31
0.0
  0
ARC
  5
310
330
1F
100
AcDbEntity
  8
LC-001-100-D00-0
 62
     7
370
    50
100
AcDbCircle
 10
-177.793212
 20
451.098446
 30
0.0
 40
0.5000000000003979
100
AcDbArc
 50
0.0
 51
90.0
  0
LINE
  5
311
330
1F
100
AcDbEntity
  8
LC-001-100-D00-0
 62
     7
370
    50
100
AcDbLine
 10
-190.343227
 20
457.598445
 30
0.0
 11
-187.343212
 21
457.598446
 31
0.0
  0
LINE
  5
312
330
1F
100
AcDbEntity
  8
LC-001-100-D00-0
 62
     7
370
    50
100
AcDbLine
 10
-175.9932
 20
453.598446
 30
0.0
 11
-178.444053
 21
453.598446
 31
0.0
  0
LINE
  5
313
330
1F
100
AcDbEntity
  8
LC-001-100-D00-0
 62
     7
370
    50
100
AcDbLine
 10
-178.444053
 20
445.598446
 30
0.0
 11
-180.843212
 21
445.598446
 31
0.0
  0
LINE
  5
314
330
1F
100
AcDbEntity
  8
LC-001-100-D00-0
 62
     7
370
    50
100
AcDbLine
 10
-187.343206
 20
461.598446
 30
0.0
 11
-182.843212
 21
461.598446
 31
0.0
  0
LINE
  5
315
330
1F
100
AcDbEntity
  8
LC-001-100-D00-0
 62
     7
370
    50
100
AcDbLine
 10
-189.343212
 20
464.598446
 30
0.0
 11
-175.993212
 21
464.598446
 31
0.0
  0
LINE
  5
316
330
1F
100
AcDbEntity
  8
LC-001-100-D00-0
 62
     7
370
    50
100
AcDbLine
 10
-158.843212
 20
457.598446
 30
0.0
 11
-156.843212
 21
457.598446
 31
0.0
  0
LINE
  5
317
330
1F
100
AcDbEntity
  8
LC-001-100-D00-0
 62
     7
370
    50
100
AcDbLine
 10
-187.343212
 20
457.598446
 30
0.0
 11
-185.343212
 21
457.598446
 31
0.0
  0
LINE
  5
318
330
1F
100
AcDbEntity
  8
LC-001-100-D00-0
 62
     7
370
    50
100
AcDbLine
 10
-185.343212
 20
457.598446
 30
0.0
 11
-181.843217
 21
457.598445
 31
0.0
  0
LINE
  5
319
330
1F
100
AcDbEntity
  8
LC-001-100-D00-0
 62
     7
370
    50
100
AcDbLine
 10
-162.3432
 20
457.598445
 30
0.0
 11
-158.843212
 21
457.598446
 31
0.0
  0
LINE
  5
31A
330
1F
100
AcDbEntity
  8
LC-001-100-D00-0
 62
     7
370
    50
100
AcDbLine
 10
394.506787
 20
452.598445
 30
0.0
 11
393.5068
 21
453.598446
 31
0.0
  0
LINE
  5
31B
330
1F
100
AcDbEntity
  8
LC-001-100-D00-0
 62
     7
370
    50
100
AcDbLine
 10
394.506787
 20
452.598445
 30
0.0
 11
394.506788
 21
446.598446
 31
0.0
  0
LINE
  5
31C
330
1F
100
AcDbEntity
  8
LC-001-100-D00-0
 62
     7
370
    50
100
AcDbLine
 10
393.506788
 20
445.598446
 30
0.0
 11
394.506788
 21
446.598446
 31
0.0
  0
LINE
  5
31D
330
1F
100
AcDbEntity
  8
LC-001-100-D00-0
 62
     7
370
    50
100
AcDbLine
 10
391.55594
 20
447.598445
 30
0.0
 11
391.55594
 21
445.598446
 31
0.0
  0
LINE
  5
31E
330
1F
100
AcDbEntity
  8
LC-001-100-D00-0
 62
     7
370
    50
100
AcDbLine
 10
392.26208
 20
447.787656
 30
0.0
 11
391.55594
 21
447.598445
 31
0.0
  0
ARC
  5
31F
330
1F
100
AcDbEntity
  8
LC-001-100-D00-0
 62
     7
370
    50
100
AcDbCircle
 10
392.106788
 20
448.367212
 30
0.0
 40
0.600000000000118
100
AcDbArc
 50
285.0
 51
0.0
  0
LINE
  5
320
330
1F
100
AcDbEntity
  8
LC-001-100-D00-0
 62
     7
370
    50
100
AcDbLine
 10
392.706788
 20
450.829679
 30
0.0
 11
392.706788
 21
448.367212
 31
0.0
  0
ARC
  5
321
330
1F
100
AcDbEntity
  8
LC-001-100-D00-0
 62
     7
370
    50
100
AcDbCircle
 10
392.106788
 20
450.829679
 30
0.0
 40
0.6000000000000227
100
AcDbArc
 50
0.0
 51
75.0
  0
LINE
  5
322
330
1F
100
AcDbEntity
  8
LC-001-100-D00-0
 62
     7
370
    50
100
AcDbLine
 10
391.55594
 20
451.598445
 30
0.0
 11
392.26208
 21
451.409235
 31
0.0
  0
LINE
  5
323
330
1F
100
AcDbEntity
  8
LC-001-100-D00-0
 62
     7
370
    50
100
AcDbLine
 10
391.55594
 20
453.598446
 30
0.0
 11
391.55594
 21
451.598445
 31
0.0
  0
LINE
  5
324
330
1F
100
AcDbEntity
  8
LC-001-100-D00-0
 62
     7
370
    50
100
AcDbLine
 10
391.55594
 20
445.598446
 30
0.0
 11
393.506788
 21
445.598446
 31
0.0
  0
LINE
  5
325
330
1F
100
AcDbEntity
  8
LC-001-100-D00-0
 62
     7
370
    50
100
AcDbLine
 10
391.55594
 20
453.598446
 30
0.0
 11
393.5068
 21
453.598446
 31
0.0
  0
LINE
  5
326
330
1F
100
AcDbEntity
  8
LC-001-100-D00-0
 62
     7
370
    50
100
AcDbLine
 10
403.106788
 20
448.367212
 30
0.0
 11
403.106788
 21
450.829679
 31
0.0
  0
ARC
  5
327
330
1F
100
AcDbEntity
  8
LC-001-100-D00-0
 62
     7
370
    50
100
AcDbCircle
 10
403.706788
 20
448.367212
 30
0.0
 40
0.6000000000002501
100
AcDbArc
 50
180.0
 51
255.0
  0
LINE
  5
328
330
1F
100
AcDbEntity
  8
LC-001-100-D00-0
 62
     7
370
    50
100
AcDbLine
 10
404.25763
 20
447.598445
 30
0.0
 11
403.551497
 21
447.787656
 31
0.0
  0
LINE
  5
329
330
1F
100
AcDbEntity
  8
LC-001-100-D00-0
 62
     7
370
    50
100
AcDbLine
 10
404.25763
 20
447.598445
 30
0.0
 11
404.25763
 21
445.598446
 31
0.0
  0
LINE
  5
32A
330
1F
100
AcDbEntity
  8
LC-001-100-D00-0
 62
     7
370
    50
100
AcDbLine
 10
401.306788
 20
446.598446
 30
0.0
 11
402.306788
 21
445.598446
 31
0.0
  0
LINE
  5
32B
330
1F
100
AcDbEntity
  8
LC-001-100-D00-0
 62
     7
370
    50
100
AcDbLine
 10
401.306788
 20
446.598446
 30
0.0
 11
401.306783
 21
452.598445
 31
0.0
  0
LINE
  5
32C
330
1F
100
AcDbEntity
  8
LC-001-100-D00-0
 62
     7
370
    50
100
AcDbLine
 10
402.3068
 20
453.598446
 30
0.0
 11
401.306783
 21
452.598445
 31
0.0
  0
LINE
  5
32D
330
1F
100
AcDbEntity
  8
LC-001-100-D00-0
 62
     7
370
    50
100
AcDbLine
 10
404.25763
 20
453.598446
 30
0.0
 11
404.25763
 21
451.598445
 31
0.0
  0
LINE
  5
32E
330
1F
100
AcDbEntity
  8
LC-001-100-D00-0
 62
     7
370
    50
100
AcDbLine
 10
403.551497
 20
451.409235
 30
0.0
 11
404.25763
 21
451.598445
 31
0.0
  0
ARC
  5
32F
330
1F
100
AcDbEntity
  8
LC-001-100-D00-0
 62
     7
370
    50
100
AcDbCircle
 10
403.706788
 20
450.829679
 30
0.0
 40
0.6000000000001474
100
AcDbArc
 50
105.0
 51
180.0
  0
LINE
  5
330
330
1F
100
AcDbEntity
  8
LC-001-100-D00-0
 62
     7
370
    50
100
AcDbLine
 10
402.306788
 20
445.598446
 30
0.0
 11
404.25763
 21
445.598446
 31
0.0
  0
LINE
  5
331
330
1F
100
AcDbEntity
  8
LC-001-100-D00-0
 62
     7
370
    50
100
AcDbLine
 10
402.3068
 20
453.598446
 30
0.0
 11
404.25763
 21
453.598446
 31
0.0
  0
LINE
  5
332
330
1F
100
AcDbEntity
  8
LC-001-100-D00-0
 62
     7
370
    50
100
AcDbLine
 10
394.506788
 20
446.598446
 30
0.0
 11
394.664628
 21
446.598446
 31
0.0
  0
LINE
  5
333
330
1F
100
AcDbEntity
  8
LC-001-100-D00-0
 62
     7
370
    50
100
AcDbLine
 10
401.148949
 20
446.598446
 30
0.0
 11
401.306788
 21
446.598446
 31
0.0
  0
LINE
  5
334
330
1F
100
AcDbEntity
  8
LC-001-100-D00-0
 62
     7
370
    50
100
AcDbLine
 10
402.306788
 20
445.598446
 30
0.0
 11
401.771007
 21
445.598446
 31
0.0
  0
LINE
  5
335
330
1F
100
AcDbEntity
  8
LC-001-100-D00-0
 62
     7
370
    50
100
AcDbLine
 10
394.04257
 20
445.598446
 30
0.0
 11
393.506788
 21
445.598446
 31
0.0
  0
LINE
  5
336
330
1F
100
AcDbEntity
  8
LC-001-100-D00-0
 62
     7
370
    50
100
AcDbLine
 10
404.25763
 20
453.598446
 30
0.0
 11
401.806776
 21
453.598446
 31
0.0
  0
LINE
  5
337
330
1F
100
AcDbEntity
  8
LC-001-100-D00-0
 62
     7
370
    50
100
AcDbLine
 10
401.806776
 20
453.598446
 30
0.0
 11
401.806788
 21
464.598446
 31
0.0
  0
LINE
  5
338
330
1F
100
AcDbEntity
  8
LC-001-100-D00-0
 62
     7
370
    50
100
AcDbLine
 10
401.806788
 20
464.598446
 30
0.0
 11
415.156788
 21
464.598446
 31
0.0
  0
ARC
  5
339
330
1F
100
AcDbEntity
  8
LC-001-100-D00-0
 62
     7
370
    50
100
AcDbCircle
 10
415.156788
 20
463.598446
 30
0.0
 40
1.000000000000114
100
AcDbArc
 50
0.0
 51
90.0
  0
LINE
  5
33A
330
1F
100
AcDbEntity
  8
LC-001-100-D00-0
 62
     7
370
    50
100
AcDbLine
 10
416.156788
 20
463.598446
 30
0.0
 11
416.156803
 21
457.598445
 31
0.0
  0
LINE
  5
33B
330
1F
100
AcDbEntity
  8
LC-001-100-D00-0
 62
     7
370
    50
100
AcDbLine
 10
413.156788
 20
457.598446
 30
0.0
 11
416.156803
 21
457.598445
 31
0.0
  0
LINE
  5
33C
330
1F
100
AcDbEntity
  8
LC-001-100-D00-0
 62
     7
370
    50
100
AcDbLine
 10
413.156788
 20
457.598446
 30
0.0
 11
413.156782
 21
461.598446
 31
0.0
  0
LINE
  5
33D
330
1F
100
AcDbEntity
  8
LC-001-100-D00-0
 62
     7
370
    50
100
AcDbLine
 10
408.656788
 20
461.598446
 30
0.0
 11
413.156782
 21
461.598446
 31
0.0
  0
ARC
  5
33E
330
1F
100
AcDbEntity
  8
LC-001-100-D00-0
 62
     7
370
    50
100
AcDbCircle
 10
408.656788
 20
460.598446
 30
0.0
 40
1.000000000000227
100
AcDbArc
 50
90.0
 51
180.0
  0
LINE
  5
33F
330
1F
100
AcDbEntity
  8
LC-001-100-D00-0
 62
     7
370
    50
100
AcDbLine
 10
407.656788
 20
446.598446
 30
0.0
 11
407.656788
 21
460.598446
 31
0.0
  0
ARC
  5
340
330
1F
100
AcDbEntity
  8
LC-001-100-D00-0
 62
     7
370
    50
100
AcDbCircle
 10
406.656788
 20
446.598446
 30
0.0
 40
1.0
100
AcDbArc
 50
270.0
 51
0.0
  0
LINE
  5
341
330
1F
100
AcDbEntity
  8
LC-001-100-D00-0
 62
     7
370
    50
100
AcDbLine
 10
406.656788
 20
445.598446
 30
0.0
 11
404.25763
 21
445.598446
 31
0.0
  0
LINE
  5
342
330
1F
100
AcDbEntity
  8
LC-001-100-D00-0
 62
     7
370
    50
100
AcDbLine
 10
404.25763
 20
447.598445
 30
0.0
 11
404.25763
 21
445.598446
 31
0.0
  0
LINE
  5
343
330
1F
100
AcDbEntity
  8
LC-001-100-D00-0
 62
     7
370
    50
100
AcDbLine
 10
403.606788
 20
447.598446
 30
0.0
 11
404.25763
 21
447.598445
 31
0.0
  0
ARC
  5
344
330
1F
100
AcDbEntity
  8
LC-001-100-D00-0
 62
     7
370
    50
100
AcDbCircle
 10
403.606788
 20
448.098446
 30
0.0
 40
0.5000000000001137
100
AcDbArc
 50
180.0
 51
270.0
  0
LINE
  5
345
330
1F
100
AcDbEntity
  8
LC-001-100-D00-0
 62
     7
370
    50
100
AcDbLine
 10
403.106788
 20
451.098446
 30
0.0
 11
403.106788
 21
448.098446
 31
0.0
  0
ARC
  5
346
330
1F
100
AcDbEntity
  8
LC-001-100-D00-0
 62
     7
370
    50
100
AcDbCircle
 10
403.606788
 20
451.098446
 30
0.0
 40
0.5
100
AcDbArc
 50
90.0
 51
180.0
  0
LINE
  5
347
330
1F
100
AcDbEntity
  8
LC-001-100-D00-0
 62
     7
370
    50
100
AcDbLine
 10
404.25763
 20
451.598445
 30
0.0
 11
403.606788
 21
451.598446
 31
0.0
  0
LINE
  5
348
330
1F
100
AcDbEntity
  8
LC-001-100-D00-0
 62
     7
370
    50
100
AcDbLine
 10
404.25763
 20
453.598446
 30
0.0
 11
404.25763
 21
451.598445
 31
0.0
  0
ARC
  5
349
330
1F
100
AcDbEntity
  8
LC-001-100-D00-0
 62
     7
370
    50
100
AcDbCircle
 10
387.156788
 20
460.598446
 30
0.0
 40
1.000000000000114
100
AcDbArc
 50
0.0
 51
90.0
  0
LINE
  5
34A
330
1F
100
AcDbEntity
  8
LC-001-100-D00-0
 62
     7
370
    50
100
AcDbLine
 10
388.156788
 20
460.598446
 30
0.0
 11
388.156788
 21
446.598446
 31
0.0
  0
ARC
  5
34B
330
1F
100
AcDbEntity
  8
LC-001-100-D00-0
 62
     7
370
    50
100
AcDbCircle
 10
389.156788
 20
446.598446
 30
0.0
 40
1.000000000000114
100
AcDbArc
 50
180.0
 51
270.0
  0
LINE
  5
34C
330
1F
100
AcDbEntity
  8
LC-001-100-D00-0
 62
     7
370
    50
100
AcDbLine
 10
392.706788
 20
448.098446
 30
0.0
 11
392.706788
 21
451.098446
 31
0.0
  0
LINE
  5
34D
330
1F
100
AcDbEntity
  8
LC-001-100-D00-0
 62
     7
370
    50
100
AcDbLine
 10
394.006788
 20
464.598446
 30
0.0
 11
394.006793
 21
453.598446
 31
0.0
  0
LINE
  5
34E
330
1F
100
AcDbEntity
  8
LC-001-100-D00-0
 62
     7
370
    50
100
AcDbLine
 10
394.006788
 20
464.598446
 30
0.0
 11
401.806788
 21
464.598446
 31
0.0
  0
ARC
  5
34F
330
1F
100
AcDbEntity
  8
LC-001-100-D00-0
 62
     7
370
    50
100
AcDbCircle
 10
392.206788
 20
448.098446
 30
0.0
 40
0.5
100
AcDbArc
 50
270.0
 51
0.0
  0
LINE
  5
350
330
1F
100
AcDbEntity
  8
LC-001-100-D00-0
 62
     7
370
    50
100
AcDbLine
 10
391.55594
 20
447.598445
 30
0.0
 11
392.206788
 21
447.598446
 31
0.0
  0
LINE
  5
351
330
1F
100
AcDbEntity
  8
LC-001-100-D00-0
 62
     7
370
    50
100
AcDbLine
 10
391.55594
 20
447.598445
 30
0.0
 11
391.55594
 21
445.598446
 31
0.0
  0
LINE
  5
352
330
1F
100
AcDbEntity
  8
LC-001-100-D00-0
 62
     7
370
    50
100
AcDbLine
 10
382.656787
 20
461.598446
 30
0.0
 11
382.656788
 21
457.598446
 31
0.0
  0
LINE
  5
353
330
1F
100
AcDbEntity
  8
LC-001-100-D00-0
 62
     7
370
    50
100
AcDbLine
 10
379.656796
 20
457.598445
 30
0.0
 11
379.656788
 21
463.598446
 31
0.0
  0
ARC
  5
354
330
1F
100
AcDbEntity
  8
LC-001-100-D00-0
 62
     7
370
    50
100
AcDbCircle
 10
380.656788
 20
463.598446
 30
0.0
 40
1.000000000000227
100
AcDbArc
 50
90.0
 51
180.0
  0
LINE
  5
355
330
1F
100
AcDbEntity
  8
LC-001-100-D00-0
 62
     7
370
    50
100
AcDbLine
 10
391.55594
 20
453.598446
 30
0.0
 11
391.55594
 21
451.598445
 31
0.0
  0
LINE
  5
356
330
1F
100
AcDbEntity
  8
LC-001-100-D00-0
 62
     7
370
    50
100
AcDbLine
 10
392.206788
 20
451.598446
 30
0.0
 11
391.55594
 21
451.598445
 31
0.0
  0
ARC
  5
357
330
1F
100
AcDbEntity
  8
LC-001-100-D00-0
 62
     7
370
    50
100
AcDbCircle
 10
392.206788
 20
451.098446
 30
0.0
 40
0.5000000000001137
100
AcDbArc
 50
0.0
 51
90.0
  0
LINE
  5
358
330
1F
100
AcDbEntity
  8
LC-001-100-D00-0
 62
     7
370
    50
100
AcDbLine
 10
379.656796
 20
457.598445
 30
0.0
 11
382.656788
 21
457.598446
 31
0.0
  0
LINE
  5
359
330
1F
100
AcDbEntity
  8
LC-001-100-D00-0
 62
     7
370
    50
100
AcDbLine
 10
394.006793
 20
453.598446
 30
0.0
 11
391.55594
 21
453.598446
 31
0.0
  0
LINE
  5
35A
330
1F
100
AcDbEntity
  8
LC-001-100-D00-0
 62
     7
370
    50
100
AcDbLine
 10
391.55594
 20
445.598446
 30
0.0
 11
389.156788
 21
445.598446
 31
0.0
  0
LINE
  5
35B
330
1F
100
AcDbEntity
  8
LC-001-100-D00-0
 62
     7
370
    50
100
AcDbLine
 10
382.656787
 20
461.598446
 30
0.0
 11
387.156788
 21
461.598446
 31
0.0
  0
LINE
  5
35C
330
1F
100
AcDbEntity
  8
LC-001-100-D00-0
 62
     7
370
    50
100
AcDbLine
 10
380.656788
 20
464.598446
 30
0.0
 11
394.006788
 21
464.598446
 31
0.0
  0
LINE
  5
35D
330
1F
100
AcDbEntity
  8
LC-001-100-D00-0
 62
     7
370
    50
100
AcDbLine
 10
411.156788
 20
457.598446
 30
0.0
 11
413.156788
 21
457.598446
 31
0.0
  0
LINE
  5
35E
330
1F
100
AcDbEntity
  8
LC-001-100-D00-0
 62
     7
370
    50
100
AcDbLine
 10
382.656788
 20
457.598446
 30
0.0
 11
384.656788
 21
457.598446
 31
0.0
  0
LINE
  5
35F
330
1F
100
AcDbEntity
  8
LC-001-100-D00-0
 62
     7
370
    50
100
AcDbLine
 10
384.656788
 20
457.598446
 30
0.0
 11
388.156776
 21
457.598445
 31
0.0
  0
LINE
  5
360
330
1F
100
AcDbEntity
  8
LC-001-100-D00-0
 62
     7
370
    50
100
AcDbLine
 10
407.656793
 20
457.598445
 30
0.0
 11
411.156788
 21
457.598446
 31
0.0
  0
LINE
  5
361
330
1F
100
AcDbEntity
  8
LC-001-100-D00-0
 62
     7
370
    50
100
AcDbLine
 10
9.506789
 20
452.598445
 30
0.0
 11
8.506787
 21
453.598446
 31
0.0
  0
LINE
  5
362
330
1F
100
AcDbEntity
  8
LC-001-100-D00-0
 62
     7
370
    50
100
AcDbLine
 10
9.506789
 20
452.598445
 30
0.0
 11
9.506788
 21
446.598446
 31
0.0
  0
LINE
  5
363
330
1F
100
AcDbEntity
  8
LC-001-100-D00-0
 62
     7
370
    50
100
AcDbLine
 10
8.506788
 20
445.598446
 30
0.0
 11
9.506788
 21
446.598446
 31
0.0
  0
LINE
  5
364
330
1F
100
AcDbEntity
  8
LC-001-100-D00-0
 62
     7
370
    50
100
AcDbLine
 10
6.555934
 20
447.598445
 30
0.0
 11
6.555934
 21
445.598446
 31
0.0
  0
LINE
  5
365
330
1F
100
AcDbEntity
  8
LC-001-100-D00-0
 62
     7
370
    50
100
AcDbLine
 10
7.26208
 20
447.787656
 30
0.0
 11
6.555934
 21
447.598445
 31
0.0
  0
ARC
  5
366
330
1F
100
AcDbEntity
  8
LC-001-100-D00-0
 62
     7
370
    50
100
AcDbCircle
 10
7.106788
 20
448.367212
 30
0.0
 40
0.600000000000118
100
AcDbArc
 50
285.0
 51
0.0
  0
LINE
  5
367
330
1F
100
AcDbEntity
  8
LC-001-100-D00-0
 62
     7
370
    50
100
AcDbLine
 10
7.706788
 20
450.829679
 30
0.0
 11
7.706788
 21
448.367212
 31
0.0
  0
ARC
  5
368
330
1F
100
AcDbEntity
  8
LC-001-100-D00-0
 62
     7
370
    50
100
AcDbCircle
 10
7.106788
 20
450.829679
 30
0.0
 40
0.6000000000003638
100
AcDbArc
 50
0.0
 51
75.0
  0
LINE
  5
369
330
1F
100
AcDbEntity
  8
LC-001-100-D00-0
 62
     7
370
    50
100
AcDbLine
 10
6.555934
 20
451.598445
 30
0.0
 11
7.26208
 21
451.409235
 31
0.0
  0
LINE
  5
36A
330
1F
100
AcDbEntity
  8
LC-001-100-D00-0
 62
     7
370
    50
100
AcDbLine
 10
6.555934
 20
453.598446
 30
0.0
 11
6.555934
 21
451.598445
 31
0.0
  0
LINE
  5
36B
330
1F
100
AcDbEntity
  8
LC-001-100-D00-0
 62
     7
370
    50
100
AcDbLine
 10
6.555934
 20
445.598446
 30
0.0
 11
8.506788
 21
445.598446
 31
0.0
  0
LINE
  5
36C
330
1F
100
AcDbEntity
  8
LC-001-100-D00-0
 62
     7
370
    50
100
AcDbLine
 10
6.555934
 20
453.598446
 30
0.0
 11
8.506787
 21
453.598446
 31
0.0
  0
LINE
  5
36D
330
1F
100
AcDbEntity
  8
LC-001-100-D00-0
 62
     7
370
    50
100
AcDbLine
 10
18.106788
 20
448.367212
 30
0.0
 11
18.106788
 21
450.829679
 31
0.0
  0
ARC
  5
36E
330
1F
100
AcDbEntity
  8
LC-001-100-D00-0
 62
     7
370
    50
100
AcDbCircle
 10
18.706788
 20
448.367212
 30
0.0
 40
0.6000000000000227
100
AcDbArc
 50
180.0
 51
255.0
  0
LINE
  5
36F
330
1F
100
AcDbEntity
  8
LC-001-100-D00-0
 62
     7
370
    50
100
AcDbLine
 10
19.257639
 20
447.598445
 30
0.0
 11
18.551497
 21
447.787656
 31
0.0
  0
LINE
  5
370
330
1F
100
AcDbEntity
  8
LC-001-100-D00-0
 62
     7
370
    50
100
AcDbLine
 10
19.257639
 20
447.598445
 30
0.0
 11
19.257639
 21
445.598446
 31
0.0
  0
LINE
  5
371
330
1F
100
AcDbEntity
  8
LC-001-100-D00-0
 62
     7
370
    50
100
AcDbLine
 10
16.306788
 20
446.598446
 30
0.0
 11
17.306788
 21
445.598446
 31
0.0
  0
LINE
  5
372
330
1F
100
AcDbEntity
  8
LC-001-100-D00-0
 62
     7
370
    50
100
AcDbLine
 10
16.306788
 20
446.598446
 30
0.0
 11
16.306785
 21
452.598445
 31
0.0
  0
LINE
  5
373
330
1F
100
AcDbEntity
  8
LC-001-100-D00-0
 62
     7
370
    50
100
AcDbLine
 10
17.306787
 20
453.598446
 30
0.0
 11
16.306785
 21
452.598445
 31
0.0
  0
LINE
  5
374
330
1F
100
AcDbEntity
  8
LC-001-100-D00-0
 62
     7
370
    50
100
AcDbLine
 10
19.257639
 20
453.598446
 30
0.0
 11
19.257639
 21
451.598445
 31
0.0
  0
LINE
  5
375
330
1F
100
AcDbEntity
  8
LC-001-100-D00-0
 62
     7
370
    50
100
AcDbLine
 10
18.551497
 20
451.409235
 30
0.0
 11
19.257639
 21
451.598445
 31
0.0
  0
ARC
  5
376
330
1F
100
AcDbEntity
  8
LC-001-100-D00-0
 62
     7
370
    50
100
AcDbCircle
 10
18.706788
 20
450.829679
 30
0.0
 40
0.600000000000118
100
AcDbArc
 50
105.0
 51
180.0
  0
LINE
  5
377
330
1F
100
AcDbEntity
  8
LC-001-100-D00-0
 62
     7
370
    50
100
AcDbLine
 10
17.306788
 20
445.598446
 30
0.0
 11
19.257639
 21
445.598446
 31
0.0
  0
LINE
  5
378
330
1F
100
AcDbEntity
  8
LC-001-100-D00-0
 62
     7
370
    50
100
AcDbLine
 10
17.306787
 20
453.598446
 30
0.0
 11
19.257639
 21
453.598446
 31
0.0
  0
LINE
  5
379
330
1F
100
AcDbEntity
  8
LC-001-100-D00-0
 62
     7
370
    50
100
AcDbLine
 10
9.506788
 20
446.598446
 30
0.0
 11
9.664628
 21
446.598446
 31
0.0
  0
LINE
  5
37A
330
1F
100
AcDbEntity
  8
LC-001-100-D00-0
 62
     7
370
    50
100
AcDbLine
 10
16.148949
 20
446.598446
 30
0.0
 11
16.306788
 21
446.598446
 31
0.0
  0
LINE
  5
37B
330
1F
100
AcDbEntity
  8
LC-001-100-D00-0
 62
     7
370
    50
100
AcDbLine
 10
17.306788
 20
445.598446
 30
0.0
 11
16.771007
 21
445.598446
 31
0.0
  0
LINE
  5
37C
330
1F
100
AcDbEntity
  8
LC-001-100-D00-0
 62
     7
370
    50
100
AcDbLine
 10
9.04257
 20
445.598446
 30
0.0
 11
8.506788
 21
445.598446
 31
0.0
  0
LINE
  5
37D
330
1F
100
AcDbEntity
  8
LC-001-100-D00-0
 62
     7
370
    50
100
AcDbLine
 10
19.257639
 20
453.598446
 30
0.0
 11
16.806786
 21
453.598446
 31
0.0
  0
LINE
  5
37E
330
1F
100
AcDbEntity
  8
LC-001-100-D00-0
 62
     7
370
    50
100
AcDbLine
 10
16.806786
 20
453.598446
 30
0.0
 11
16.806788
 21
464.598446
 31
0.0
  0
LINE
  5
37F
330
1F
100
AcDbEntity
  8
LC-001-100-D00-0
 62
     7
370
    50
100
AcDbLine
 10
16.806788
 20
464.598446
 30
0.0
 11
30.156788
 21
464.598446
 31
0.0
  0
ARC
  5
380
330
1F
100
AcDbEntity
  8
LC-001-100-D00-0
 62
     7
370
    50
100
AcDbCircle
 10
30.156788
 20
463.598446
 30
0.0
 40
1.000000000000227
100
AcDbArc
 50
0.0
 51
90.0
  0
LINE
  5
381
330
1F
100
AcDbEntity
  8
LC-001-100-D00-0
 62
     7
370
    50
100
AcDbLine
 10
31.156788
 20
463.598446
 30
0.0
 11
31.15679
 21
457.598445
 31
0.0
  0
LINE
  5
382
330
1F
100
AcDbEntity
  8
LC-001-100-D00-0
 62
     7
370
    50
100
AcDbLine
 10
28.156788
 20
457.598446
 30
0.0
 11
31.15679
 21
457.598445
 31
0.0
  0
LINE
  5
383
330
1F
100
AcDbEntity
  8
LC-001-100-D00-0
 62
     7
370
    50
100
AcDbLine
 10
28.156788
 20
457.598446
 30
0.0
 11
28.156792
 21
461.598446
 31
0.0
  0
LINE
  5
384
330
1F
100
AcDbEntity
  8
LC-001-100-D00-0
 62
     7
370
    50
100
AcDbLine
 10
23.656788
 20
461.598446
 30
0.0
 11
28.156792
 21
461.598446
 31
0.0
  0
ARC
  5
385
330
1F
100
AcDbEntity
  8
LC-001-100-D00-0
 62
     7
370
    50
100
AcDbCircle
 10
23.656788
 20
460.598446
 30
0.0
 40
1.000000000000227
100
AcDbArc
 50
90.0
 51
180.0
  0
LINE
  5
386
330
1F
100
AcDbEntity
  8
LC-001-100-D00-0
 62
     7
370
    50
100
AcDbLine
 10
22.656788
 20
446.598446
 30
0.0
 11
22.656788
 21
460.598446
 31
0.0
  0
ARC
  5
387
330
1F
100
AcDbEntity
  8
LC-001-100-D00-0
 62
     7
370
    50
100
AcDbCircle
 10
21.656788
 20
446.598446
 30
0.0
 40
1.000000000000227
100
AcDbArc
 50
270.0
 51
0.0
  0
LINE
  5
388
330
1F
100
AcDbEntity
  8
LC-001-100-D00-0
 62
     7
370
    50
100
AcDbLine
 10
21.656788
 20
445.598446
 30
0.0
 11
19.257639
 21
445.598446
 31
0.0
  0
LINE
  5
389
330
1F
100
AcDbEntity
  8
LC-001-100-D00-0
 62
     7
370
    50
100
AcDbLine
 10
19.257639
 20
447.598445
 30
0.0
 11
19.257639
 21
445.598446
 31
0.0
  0
LINE
  5
38A
330
1F
100
AcDbEntity
  8
LC-001-100-D00-0
 62
     7
370
    50
100
AcDbLine
 10
18.606788
 20
447.598446
 30
0.0
 11
19.257639
 21
447.598445
 31
0.0
  0
ARC
  5
38B
330
1F
100
AcDbEntity
  8
LC-001-100-D00-0
 62
     7
370
    50
100
AcDbCircle
 10
18.606788
 20
448.098446
 30
0.0
 40
0.5
100
AcDbArc
 50
180.0
 51
270.0
  0
LINE
  5
38C
330
1F
100
AcDbEntity
  8
LC-001-100-D00-0
 62
     7
370
    50
100
AcDbLine
 10
18.106788
 20
451.098446
 30
0.0
 11
18.106788
 21
448.098446
 31
0.0
  0
ARC
  5
38D
330
1F
100
AcDbEntity
  8
LC-001-100-D00-0
 62
     7
370
    50
100
AcDbCircle
 10
18.606788
 20
451.098446
 30
0.0
 40
0.5
100
AcDbArc
 50
90.0
 51
180.0
  0
LINE
  5
38E
330
1F
100
AcDbEntity
  8
LC-001-100-D00-0
 62
     7
370
    50
100
AcDbLine
 10
19.257639
 20
451.598445
 30
0.0
 11
18.606788
 21
451.598446
 31
0.0
  0
LINE
  5
38F
330
1F
100
AcDbEntity
  8
LC-001-100-D00-0
 62
     7
370
    50
100
AcDbLine
 10
19.257639
 20
453.598446
 30
0.0
 11
19.257639
 21
451.598445
 31
0.0
  0
ARC
  5
390
330
1F
100
AcDbEntity
  8
LC-001-100-D00-0
 62
     7
370
    50
100
AcDbCircle
 10
2.156788
 20
460.598446
 30
0.0
 40
1.000000000000227
100
AcDbArc
 50
0.0
 51
90.0
  0
LINE
  5
391
330
1F
100
AcDbEntity
  8
LC-001-100-D00-0
 62
     7
370
    50
100
AcDbLine
 10
3.156788
 20
460.598446
 30
0.0
 11
3.156788
 21
446.598446
 31
0.0
  0
ARC
  5
392
330
1F
100
AcDbEntity
  8
LC-001-100-D00-0
 62
     7
370
    50
100
AcDbCircle
 10
4.156788
 20
446.598446
 30
0.0
 40
1.000000000000227
100
AcDbArc
 50
180.0
 51
270.0
  0
LINE
  5
393
330
1F
100
AcDbEntity
  8
LC-001-100-D00-0
 62
     7
370
    50
100
AcDbLine
 10
7.706788
 20
448.098446
 30
0.0
 11
7.706788
 21
451.098446
 31
0.0
  0
LINE
  5
394
330
1F
100
AcDbEntity
  8
LC-001-100-D00-0
 62
     7
370
    50
100
AcDbLine
 10
9.006788
 20
464.598446
 30
0.0
 11
9.006788
 21
453.598446
 31
0.0
  0
LINE
  5
395
330
1F
100
AcDbEntity
  8
LC-001-100-D00-0
 62
     7
370
    50
100
AcDbLine
 10
9.006788
 20
464.598446
 30
0.0
 11
16.806788
 21
464.598446
 31
0.0
  0
ARC
  5
396
330
1F
100
AcDbEntity
  8
LC-001-100-D00-0
 62
     7
370
    50
100
AcDbCircle
 10
7.206788
 20
448.098446
 30
0.0
 40
0.5
100
AcDbArc
 50
270.0
 51
0.0
  0
LINE
  5
397
330
1F
100
AcDbEntity
  8
LC-001-100-D00-0
 62
     7
370
    50
100
AcDbLine
 10
6.555934
 20
447.598445
 30
0.0
 11
7.206788
 21
447.598446
 31
0.0
  0
LINE
  5
398
330
1F
100
AcDbEntity
  8
LC-001-100-D00-0
 62
     7
370
    50
100
AcDbLine
 10
6.555934
 20
447.598445
 30
0.0
 11
6.555934
 21
445.598446
 31
0.0
  0
LINE
  5
399
330
1F
100
AcDbEntity
  8
LC-001-100-D00-0
 62
     7
370
    50
100
AcDbLine
 10
-2.343211
 20
461.598446
 30
0.0
 11
-2.343212
 21
457.598446
 31
0.0
  0
LINE
  5
39A
330
1F
100
AcDbEntity
  8
LC-001-100-D00-0
 62
     7
370
    50
100
AcDbLine
 10
-5.343209
 20
457.598445
 30
0.0
 11
-5.343212
 21
463.598446
 31
0.0
  0
ARC
  5
39B
330
1F
100
AcDbEntity
  8
LC-001-100-D00-0
 62
     7
370
    50
100
AcDbCircle
 10
-4.343212
 20
463.598446
 30
0.0
 40
1.000000000000227
100
AcDbArc
 50
90.0
 51
180.0
  0
LINE
  5
39C
330
1F
100
AcDbEntity
  8
LC-001-100-D00-0
 62
     7
370
    50
100
AcDbLine
 10
6.555934
 20
453.598446
 30
0.0
 11
6.555934
 21
451.598445
 31
0.0
  0
LINE
  5
39D
330
1F
100
AcDbEntity
  8
LC-001-100-D00-0
 62
     7
370
    50
100
AcDbLine
 10
7.206788
 20
451.598446
 30
0.0
 11
6.555934
 21
451.598445
 31
0.0
  0
ARC
  5
39E
330
1F
100
AcDbEntity
  8
LC-001-100-D00-0
 62
     7
370
    50
100
AcDbCircle
 10
7.206788
 20
451.098446
 30
0.0
 40
0.5000000000001137
100
AcDbArc
 50
0.0
 51
90.0
  0
LINE
  5
39F
330
1F
100
AcDbEntity
  8
LC-001-100-D00-0
 62
     7
370
    50
100
AcDbLine
 10
9.006788
 20
453.598446
 30
0.0
 11
6.555934
 21
453.598446
 31
0.0
  0
LINE
  5
3A0
330
1F
100
AcDbEntity
  8
LC-001-100-D00-0
 62
     7
370
    50
100
AcDbLine
 10
-5.343209
 20
457.598445
 30
0.0
 11
-2.343212
 21
457.598446
 31
0.0
  0
LINE
  5
3A1
330
1F
100
AcDbEntity
  8
LC-001-100-D00-0
 62
     7
370
    50
100
AcDbLine
 10
6.555934
 20
445.598446
 30
0.0
 11
4.156788
 21
445.598446
 31
0.0
  0
LINE
  5
3A2
330
1F
100
AcDbEntity
  8
LC-001-100-D00-0
 62
     7
370
    50
100
AcDbLine
 10
-2.343211
 20
461.598446
 30
0.0
 11
2.156788
 21
461.598446
 31
0.0
  0
LINE
  5
3A3
330
1F
100
AcDbEntity
  8
LC-001-100-D00-0
 62
     7
370
    50
100
AcDbLine
 10
-4.343212
 20
464.598446
 30
0.0
 11
9.006788
 21
464.598446
 31
0.0
  0
LINE
  5
3A4
330
1F
100
AcDbEntity
  8
LC-001-100-D00-0
 62
     7
370
    50
100
AcDbLine
 10
26.156788
 20
457.598446
 30
0.0
 11
28.156788
 21
457.598446
 31
0.0
  0
LINE
  5
3A5
330
1F
100
AcDbEntity
  8
LC-001-100-D00-0
 62
     7
370
    50
100
AcDbLine
 10
-2.343212
 20
457.598446
 30
0.0
 11
-0.343212
 21
457.598446
 31
0.0
  0
LINE
  5
3A6
330
1F
100
AcDbEntity
  8
LC-001-100-D00-0
 62
     7
370
    50
100
AcDbLine
 10
-0.343212
 20
457.598446
 30
0.0
 11
3.156786
 21
457.598445
 31
0.0
  0
LINE
  5
3A7
330
1F
100
AcDbEntity
  8
LC-001-100-D00-0
 62
     7
370
    50
100
AcDbLine
 10
22.656788
 20
457.598445
 30
0.0
 11
26.156788
 21
457.598446
 31
0.0
  0
LINE
  5
3A8
330
1F
100
AcDbEntity
  8
LC-001-100-D00-0
 62
     7
370
    50
100
AcDbLine
 10
209.506792
 20
452.598445
 30
0.0
 11
208.50679
 21
453.598446
 31
0.0
  0
LINE
  5
3A9
330
1F
100
AcDbEntity
  8
LC-001-100-D00-0
 62
     7
370
    50
100
AcDbLine
 10
209.506792
 20
452.598445
 30
0.0
 11
209.506788
 21
446.598446
 31
0.0
  0
LINE
  5
3AA
330
1F
100
AcDbEntity
  8
LC-001-100-D00-0
 62
     7
370
    50
100
AcDbLine
 10
208.506788
 20
445.598446
 30
0.0
 11
209.506788
 21
446.598446
 31
0.0
  0
LINE
  5
3AB
330
1F
100
AcDbEntity
  8
LC-001-100-D00-0
 62
     7
370
    50
100
AcDbLine
 10
206.555937
 20
447.598445
 30
0.0
 11
206.555937
 21
445.598446
 31
0.0
  0
LINE
  5
3AC
330
1F
100
AcDbEntity
  8
LC-001-100-D00-0
 62
     7
370
    50
100
AcDbLine
 10
207.26208
 20
447.787656
 30
0.0
 11
206.555937
 21
447.598445
 31
0.0
  0
ARC
  5
3AD
330
1F
100
AcDbEntity
  8
LC-001-100-D00-0
 62
     7
370
    50
100
AcDbCircle
 10
207.106788
 20
448.367212
 30
0.0
 40
0.600000000000118
100
AcDbArc
 50
285.0
 51
0.0
  0
LINE
  5
3AE
330
1F
100
AcDbEntity
  8
LC-001-100-D00-0
 62
     7
370
    50
100
AcDbLine
 10
207.706788
 20
450.829679
 30
0.0
 11
207.706788
 21
448.367212
 31
0.0
  0
ARC
  5
3AF
330
1F
100
AcDbEntity
  8
LC-001-100-D00-0
 62
     7
370
    50
100
AcDbCircle
 10
207.106788
 20
450.829679
 30
0.0
 40
0.6000000000002501
100
AcDbArc
 50
0.0
 51
75.0
  0
LINE
  5
3B0
330
1F
100
AcDbEntity
  8
LC-001-100-D00-0
 62
     7
370
    50
100
AcDbLine
 10
206.555937
 20
451.598445
 30
0.0
 11
207.26208
 21
451.409235
 31
0.0
  0
LINE
  5
3B1
330
1F
100
AcDbEntity
  8
LC-001-100-D00-0
 62
     7
370
    50
100
AcDbLine
 10
206.555937
 20
453.598446
 30
0.0
 11
206.555937
 21
451.598445
 31
0.0
  0
LINE
  5
3B2
330
1F
100
AcDbEntity
  8
LC-001-100-D00-0
 62
     7
370
    50
100
AcDbLine
 10
206.555937
 20
445.598446
 30
0.0
 11
208.506788
 21
445.598446
 31
0.0
  0
LINE
  5
3B3
330
1F
100
AcDbEntity
  8
LC-001-100-D00-0
 62
     7
370
    50
100
AcDbLine
 10
206.555937
 20
453.598446
 30
0.0
 11
208.50679
 21
453.598446
 31
0.0
  0
LINE
  5
3B4
330
1F
100
AcDbEntity
  8
LC-001-100-D00-0
 62
     7
370
    50
100
AcDbLine
 10
218.106788
 20
448.367212
 30
0.0
 11
218.106788
 21
450.829679
 31
0.0
  0
ARC
  5
3B5
330
1F
100
AcDbEntity
  8
LC-001-100-D00-0
 62
     7
370
    50
100
AcDbCircle
 10
218.706788
 20
448.367212
 30
0.0
 40
0.6000000000001364
100
AcDbArc
 50
180.0
 51
255.0
  0
LINE
  5
3B6
330
1F
100
AcDbEntity
  8
LC-001-100-D00-0
 62
     7
370
    50
100
AcDbLine
 10
219.257642
 20
447.598445
 30
0.0
 11
218.551497
 21
447.787656
 31
0.0
  0
LINE
  5
3B7
330
1F
100
AcDbEntity
  8
LC-001-100-D00-0
 62
     7
370
    50
100
AcDbLine
 10
219.257642
 20
447.598445
 30
0.0
 11
219.257642
 21
445.598446
 31
0.0
  0
LINE
  5
3B8
330
1F
100
AcDbEntity
  8
LC-001-100-D00-0
 62
     7
370
    50
100
AcDbLine
 10
216.306788
 20
446.598446
 30
0.0
 11
217.306788
 21
445.598446
 31
0.0
  0
LINE
  5
3B9
330
1F
100
AcDbEntity
  8
LC-001-100-D00-0
 62
     7
370
    50
100
AcDbLine
 10
216.306788
 20
446.598446
 30
0.0
 11
216.306788
 21
452.598445
 31
0.0
  0
LINE
  5
3BA
330
1F
100
AcDbEntity
  8
LC-001-100-D00-0
 62
     7
370
    50
100
AcDbLine
 10
217.30679
 20
453.598446
 30
0.0
 11
216.306788
 21
452.598445
 31
0.0
  0
LINE
  5
3BB
330
1F
100
AcDbEntity
  8
LC-001-100-D00-0
 62
     7
370
    50
100
AcDbLine
 10
219.257642
 20
453.598446
 30
0.0
 11
219.257642
 21
451.598445
 31
0.0
  0
LINE
  5
3BC
330
1F
100
AcDbEntity
  8
LC-001-100-D00-0
 62
     7
370
    50
100
AcDbLine
 10
218.551497
 20
451.409235
 30
0.0
 11
219.257642
 21
451.598445
 31
0.0
  0
ARC
  5
3BD
330
1F
100
AcDbEntity
  8
LC-001-100-D00-0
 62
     7
370
    50
100
AcDbCircle
 10
218.706788
 20
450.829679
 30
0.0
 40
0.6000000000001474
100
AcDbArc
 50
105.0
 51
180.0
  0
LINE
  5
3BE
330
1F
100
AcDbEntity
  8
LC-001-100-D00-0
 62
     7
370
    50
100
AcDbLine
 10
217.306788
 20
445.598446
 30
0.0
 11
219.257642
 21
445.598446
 31
0.0
  0
LINE
  5
3BF
330
1F
100
AcDbEntity
  8
LC-001-100-D00-0
 62
     7
370
    50
100
AcDbLine
 10
217.30679
 20
453.598446
 30
0.0
 11
219.257642
 21
453.598446
 31
0.0
  0
LINE
  5
3C0
330
1F
100
AcDbEntity
  8
LC-001-100-D00-0
 62
     7
370
    50
100
AcDbLine
 10
209.506788
 20
446.598446
 30
0.0
 11
209.664628
 21
446.598446
 31
0.0
  0
LINE
  5
3C1
330
1F
100
AcDbEntity
  8
LC-001-100-D00-0
 62
     7
370
    50
100
AcDbLine
 10
216.148949
 20
446.598446
 30
0.0
 11
216.306788
 21
446.598446
 31
0.0
  0
LINE
  5
3C2
330
1F
100
AcDbEntity
  8
LC-001-100-D00-0
 62
     7
370
    50
100
AcDbLine
 10
217.306788
 20
445.598446
 30
0.0
 11
216.771007
 21
445.598446
 31
0.0
  0
LINE
  5
3C3
330
1F
100
AcDbEntity
  8
LC-001-100-D00-0
 62
     7
370
    50
100
AcDbLine
 10
209.04257
 20
445.598446
 30
0.0
 11
208.506788
 21
445.598446
 31
0.0
  0
LINE
  5
3C4
330
1F
100
AcDbEntity
  8
LC-001-100-D00-0
 62
     7
370
    50
100
AcDbLine
 10
219.257642
 20
453.598446
 30
0.0
 11
216.806789
 21
453.598446
 31
0.0
  0
LINE
  5
3C5
330
1F
100
AcDbEntity
  8
LC-001-100-D00-0
 62
     7
370
    50
100
AcDbLine
 10
216.806789
 20
453.598446
 30
0.0
 11
216.806788
 21
464.598446
 31
0.0
  0
LINE
  5
3C6
330
1F
100
AcDbEntity
  8
LC-001-100-D00-0
 62
     7
370
    50
100
AcDbLine
 10
216.806788
 20
464.598446
 30
0.0
 11
230.156788
 21
464.598446
 31
0.0
  0
ARC
  5
3C7
330
1F
100
AcDbEntity
  8
LC-001-100-D00-0
 62
     7
370
    50
100
AcDbCircle
 10
230.156788
 20
463.598446
 30
0.0
 40
1.000000000000114
100
AcDbArc
 50
0.0
 51
90.0
  0
LINE
  5
3C8
330
1F
100
AcDbEntity
  8
LC-001-100-D00-0
 62
     7
370
    50
100
AcDbLine
 10
231.156788
 20
463.598446
 30
0.0
 11
231.156786
 21
457.598445
 31
0.0
  0
LINE
  5
3C9
330
1F
100
AcDbEntity
  8
LC-001-100-D00-0
 62
     7
370
    50
100
AcDbLine
 10
228.156788
 20
457.598446
 30
0.0
 11
231.156786
 21
457.598445
 31
0.0
  0
LINE
  5
3CA
330
1F
100
AcDbEntity
  8
LC-001-100-D00-0
 62
     7
370
    50
100
AcDbLine
 10
228.156788
 20
457.598446
 30
0.0
 11
228.156787
 21
461.598446
 31
0.0
  0
LINE
  5
3CB
330
1F
100
AcDbEntity
  8
LC-001-100-D00-0
 62
     7
370
    50
100
AcDbLine
 10
223.656788
 20
461.598446
 30
0.0
 11
228.156787
 21
461.598446
 31
0.0
  0
ARC
  5
3CC
330
1F
100
AcDbEntity
  8
LC-001-100-D00-0
 62
     7
370
    50
100
AcDbCircle
 10
223.656788
 20
460.598446
 30
0.0
 40
1.000000000000227
100
AcDbArc
 50
90.0
 51
180.0
  0
LINE
  5
3CD
330
1F
100
AcDbEntity
  8
LC-001-100-D00-0
 62
     7
370
    50
100
AcDbLine
 10
222.656788
 20
446.598446
 30
0.0
 11
222.656788
 21
460.598446
 31
0.0
  0
ARC
  5
3CE
330
1F
100
AcDbEntity
  8
LC-001-100-D00-0
 62
     7
370
    50
100
AcDbCircle
 10
221.656788
 20
446.598446
 30
0.0
 40
1.000000000000227
100
AcDbArc
 50
270.0
 51
0.0
  0
LINE
  5
3CF
330
1F
100
AcDbEntity
  8
LC-001-100-D00-0
 62
     7
370
    50
100
AcDbLine
 10
221.656788
 20
445.598446
 30
0.0
 11
219.257642
 21
445.598446
 31
0.0
  0
LINE
  5
3D0
330
1F
100
AcDbEntity
  8
LC-001-100-D00-0
 62
     7
370
    50
100
AcDbLine
 10
219.257642
 20
447.598445
 30
0.0
 11
219.257642
 21
445.598446
 31
0.0
  0
LINE
  5
3D1
330
1F
100
AcDbEntity
  8
LC-001-100-D00-0
 62
     7
370
    50
100
AcDbLine
 10
218.606788
 20
447.598446
 30
0.0
 11
219.257642
 21
447.598445
 31
0.0
  0
ARC
  5
3D2
330
1F
100
AcDbEntity
  8
LC-001-100-D00-0
 62
     7
370
    50
100
AcDbCircle
 10
218.606788
 20
448.098446
 30
0.0
 40
0.5000000000001137
100
AcDbArc
 50
180.0
 51
270.0
  0
LINE
  5
3D3
330
1F
100
AcDbEntity
  8
LC-001-100-D00-0
 62
     7
370
    50
100
AcDbLine
 10
218.106788
 20
451.098446
 30
0.0
 11
218.106788
 21
448.098446
 31
0.0
  0
ARC
  5
3D4
330
1F
100
AcDbEntity
  8
LC-001-100-D00-0
 62
     7
370
    50
100
AcDbCircle
 10
218.606788
 20
451.098446
 30
0.0
 40
0.5
100
AcDbArc
 50
90.0
 51
180.0
  0
LINE
  5
3D5
330
1F
100
AcDbEntity
  8
LC-001-100-D00-0
 62
     7
370
    50
100
AcDbLine
 10
219.257642
 20
451.598445
 30
0.0
 11
218.606788
 21
451.598446
 31
0.0
  0
LINE
  5
3D6
330
1F
100
AcDbEntity
  8
LC-001-100-D00-0
 62
     7
370
    50
100
AcDbLine
 10
219.257642
 20
453.598446
 30
0.0
 11
219.257642
 21
451.598445
 31
0.0
  0
ARC
  5
3D7
330
1F
100
AcDbEntity
  8
LC-001-100-D00-0
 62
     7
370
    50
100
AcDbCircle
 10
202.156788
 20
460.598446
 30
0.0
 40
1.000000000000227
100
AcDbArc
 50
0.0
 51
90.0
  0
LINE
  5
3D8
330
1F
100
AcDbEntity
  8
LC-001-100-D00-0
 62
     7
370
    50
100
AcDbLine
 10
203.156788
 20
460.598446
 30
0.0
 11
203.156788
 21
446.598446
 31
0.0
  0
ARC
  5
3D9
330
1F
100
AcDbEntity
  8
LC-001-100-D00-0
 62
     7
370
    50
100
AcDbCircle
 10
204.156788
 20
446.598446
 30
0.0
 40
1.000000000000227
100
AcDbArc
 50
180.0
 51
270.0
  0
LINE
  5
3DA
330
1F
100
AcDbEntity
  8
LC-001-100-D00-0
 62
     7
370
    50
100
AcDbLine
 10
207.706788
 20
448.098446
 30
0.0
 11
207.706788
 21
451.098446
 31
0.0
  0
LINE
  5
3DB
330
1F
100
AcDbEntity
  8
LC-001-100-D00-0
 62
     7
370
    50
100
AcDbLine
 10
209.006788
 20
464.598446
 30
0.0
 11
209.006791
 21
453.598446
 31
0.0
  0
LINE
  5
3DC
330
1F
100
AcDbEntity
  8
LC-001-100-D00-0
 62
     7
370
    50
100
AcDbLine
 10
209.006788
 20
464.598446
 30
0.0
 11
216.806788
 21
464.598446
 31
0.0
  0
ARC
  5
3DD
330
1F
100
AcDbEntity
  8
LC-001-100-D00-0
 62
     7
370
    50
100
AcDbCircle
 10
207.206788
 20
448.098446
 30
0.0
 40
0.4999999999997726
100
AcDbArc
 50
270.0
 51
0.0
  0
LINE
  5
3DE
330
1F
100
AcDbEntity
  8
LC-001-100-D00-0
 62
     7
370
    50
100
AcDbLine
 10
206.555937
 20
447.598445
 30
0.0
 11
207.206788
 21
447.598446
 31
0.0
  0
LINE
  5
3DF
330
1F
100
AcDbEntity
  8
LC-001-100-D00-0
 62
     7
370
    50
100
AcDbLine
 10
206.555937
 20
447.598445
 30
0.0
 11
206.555937
 21
445.598446
 31
0.0
  0
LINE
  5
3E0
330
1F
100
AcDbEntity
  8
LC-001-100-D00-0
 62
     7
370
    50
100
AcDbLine
 10
197.656785
 20
461.598446
 30
0.0
 11
197.656788
 21
457.598446
 31
0.0
  0
LINE
  5
3E1
330
1F
100
AcDbEntity
  8
LC-001-100-D00-0
 62
     7
370
    50
100
AcDbLine
 10
194.656786
 20
457.598445
 30
0.0
 11
194.656788
 21
463.598446
 31
0.0
  0
ARC
  5
3E2
330
1F
100
AcDbEntity
  8
LC-001-100-D00-0
 62
     7
370
    50
100
AcDbCircle
 10
195.656788
 20
463.598446
 30
0.0
 40
1.000000000000227
100
AcDbArc
 50
90.0
 51
180.0
  0
LINE
  5
3E3
330
1F
100
AcDbEntity
  8
LC-001-100-D00-0
 62
     7
370
    50
100
AcDbLine
 10
206.555937
 20
453.598446
 30
0.0
 11
206.555937
 21
451.598445
 31
0.0
  0
LINE
  5
3E4
330
1F
100
AcDbEntity
  8
LC-001-100-D00-0
 62
     7
370
    50
100
AcDbLine
 10
207.206788
 20
451.598446
 30
0.0
 11
206.555937
 21
451.598445
 31
0.0
  0
ARC
  5
3E5
330
1F
100
AcDbEntity
  8
LC-001-100-D00-0
 62
     7
370
    50
100
AcDbCircle
 10
207.206788
 20
451.098446
 30
0.0
 40
0.5000000000001137
100
AcDbArc
 50
0.0
 51
90.0
  0
LINE
  5
3E6
330
1F
100
AcDbEntity
  8
LC-001-100-D00-0
 62
     7
370
    50
100
AcDbLine
 10
209.006791
 20
453.598446
 30
0.0
 11
206.555937
 21
453.598446
 31
0.0
  0
LINE
  5
3E7
330
1F
100
AcDbEntity
  8
LC-001-100-D00-0
 62
     7
370
    50
100
AcDbLine
 10
194.656786
 20
457.598445
 30
0.0
 11
197.656788
 21
457.598446
 31
0.0
  0
LINE
  5
3E8
330
1F
100
AcDbEntity
  8
LC-001-100-D00-0
 62
     7
370
    50
100
AcDbLine
 10
206.555937
 20
445.598446
 30
0.0
 11
204.156788
 21
445.598446
 31
0.0
  0
LINE
  5
3E9
330
1F
100
AcDbEntity
  8
LC-001-100-D00-0
 62
     7
370
    50
100
AcDbLine
 10
197.656785
 20
461.598446
 30
0.0
 11
202.156788
 21
461.598446
 31
0.0
  0
LINE
  5
3EA
330
1F
100
AcDbEntity
  8
LC-001-100-D00-0
 62
     7
370
    50
100
AcDbLine
 10
195.656788
 20
464.598446
 30
0.0
 11
209.006788
 21
464.598446
 31
0.0
  0
LINE
  5
3EB
330
1F
100
AcDbEntity
  8
LC-001-100-D00-0
 62
     7
370
    50
100
AcDbLine
 10
226.156788
 20
457.598446
 30
0.0
 11
228.156788
 21
457.598446
 31
0.0
  0
LINE
  5
3EC
330
1F
100
AcDbEntity
  8
LC-001-100-D00-0
 62
     7
370
    50
100
AcDbLine
 10
197.656788
 20
457.598446
 30
0.0
 11
199.656788
 21
457.598446
 31
0.0
  0
LINE
  5
3ED
330
1F
100
AcDbEntity
  8
LC-001-100-D00-0
 62
     7
370
    50
100
AcDbLine
 10
199.656788
 20
457.598446
 30
0.0
 11
203.156789
 21
457.598445
 31
0.0
  0
LINE
  5
3EE
330
1F
100
AcDbEntity
  8
LC-001-100-D00-0
 62
     7
370
    50
100
AcDbLine
 10
222.656791
 20
457.598445
 30
0.0
 11
226.156788
 21
457.598446
 31
0.0
  0
LINE
  5
3EF
330
1F
100
AcDbEntity
  8
LC-001-100-D00-0
 62
     7
370
    50
100
AcDbLine
 10
171.406788
 20
434.755529
 30
0.0
 11
171.696705
 21
434.664447
 31
0.0
  0
LINE
  5
3F0
330
1F
100
AcDbEntity
  8
LC-001-100-D00-0
 62
     7
370
    50
100
AcDbLine
 10
170.219174
 20
432.613017
 30
0.0
 11
171.406788
 21
434.755529
 31
0.0
  0
ARC
  5
3F1
330
1F
100
AcDbEntity
  8
LC-001-100-D00-0
 62
     7
370
    50
100
AcDbCircle
 10
169.956788
 20
432.758459
 30
0.0
 40
0.3000000000000682
100
AcDbArc
 50
180.0
 51
331.0
  0
LINE
  5
3F2
330
1F
100
AcDbEntity
  8
LC-001-100-D00-0
 62
     7
370
    50
100
AcDbLine
 10
169.656788
 20
435.298699
 30
0.0
 11
169.656788
 21
432.758459
 31
0.0
  0
ARC
  5
3F3
330
1F
100
AcDbEntity
  8
LC-001-100-D00-0
 62
     7
370
    50
100
AcDbCircle
 10
171.656788
 20
435.298699
 30
0.0
 40
2.000000000000126
100
AcDbArc
 50
113.962489
 51
180.0
  0
LINE
  5
3F4
330
1F
100
AcDbEntity
  8
LC-001-100-D00-0
 62
     7
370
    50
100
AcDbLine
 10
171.712864
 20
437.512257
 30
0.0
 11
170.844511
 21
437.126322
 31
0.0
  0
ARC
  5
3F5
330
1F
100
AcDbEntity
  8
LC-001-100-D00-0
 62
     7
370
    50
100
AcDbCircle
 10
172.119003
 20
436.598446
 30
0.0
 40
1.0
100
AcDbArc
 50
90.0
 51
113.962489
  0
LINE
  5
3F6
330
1F
100
AcDbEntity
  8
LC-001-100-D00-0
 62
     7
370
    50
100
AcDbLine
 10
177.906786
 20
437.598445
 30
0.0
 11
177.906786
 21
433.598446
 31
0.0
  0
LINE
  5
3F7
330
1F
100
AcDbEntity
  8
LC-001-100-D00-0
 62
     7
370
    50
100
AcDbLine
 10
171.906788
 20
434.378239
 30
0.0
 11
171.906788
 21
433.598446
 31
0.0
  0
ARC
  5
3F8
330
1F
100
AcDbEntity
  8
LC-001-100-D00-0
 62
     7
370
    50
100
AcDbCircle
 10
171.606788
 20
434.378239
 30
0.0
 40
0.3000000000001819
100
AcDbArc
 50
0.0
 51
72.558995
  0
LINE
  5
3F9
330
1F
100
AcDbEntity
  8
LC-001-100-D00-0
 62
     7
370
    50
100
AcDbLine
 10
177.906786
 20
433.598446
 30
0.0
 11
171.906788
 21
433.598446
 31
0.0
  0
LINE
  5
3FA
330
1F
100
AcDbEntity
  8
LC-001-100-D00-0
 62
     7
370
    50
100
AcDbLine
 10
177.906786
 20
437.598445
 30
0.0
 11
172.119003
 21
437.598446
 31
0.0
  0
LINE
  5
3FB
330
1F
100
AcDbEntity
  8
LC-001-100-D00-0
 62
     7
370
    50
100
AcDbLine
 10
171.3563
 20
434.664447
 30
0.0
 11
171.696705
 21
434.664447
 31
0.0
  0
LINE
  5
3FC
330
1F
100
AcDbEntity
  8
LC-001-100-D00-0
 62
     7
370
    50
100
AcDbLine
 10
171.906788
 20
433.598446
 30
0.0
 11
170.765406
 21
433.598446
 31
0.0
  0
LINE
  5
3FD
330
1F
100
AcDbEntity
  8
LC-001-100-D00-0
 62
     7
370
    50
100
AcDbLine
 10
54.406789
 20
434.755529
 30
0.0
 11
55.594402
 21
432.613017
 31
0.0
  0
LINE
  5
3FE
330
1F
100
AcDbEntity
  8
LC-001-100-D00-0
 62
     7
370
    50
100
AcDbLine
 10
54.116871
 20
434.664447
 30
0.0
 11
54.457276
 21
434.664447
 31
0.0
  0
LINE
  5
3FF
330
1F
100
AcDbEntity
  8
LC-001-100-D00-0
 62
     7
370
    50
100
AcDbLine
 10
54.116871
 20
434.664447
 30
0.0
 11
54.406789
 21
434.755529
 31
0.0
  0
LINE
  5
400
330
1F
100
AcDbEntity
  8
LC-001-100-D00-0
 62
     7
370
    50
100
AcDbLine
 10
53.906788
 20
433.598446
 30
0.0
 11
53.906788
 21
434.378239
 31
0.0
  0
LINE
  5
401
330
1F
100
AcDbEntity
  8
LC-001-100-D00-0
 62
     7
370
    50
100
AcDbLine
 10
55.04817
 20
433.598446
 30
0.0
 11
53.906788
 21
433.598446
 31
0.0
  0
ARC
  5
402
330
1F
100
AcDbEntity
  8
LC-001-100-D00-0
 62
     7
370
    50
100
AcDbCircle
 10
54.156788
 20
435.298699
 30
0.0
 40
2.000000000000227
100
AcDbArc
 50
0.0
 51
66.037511
  0
ARC
  5
403
330
1F
100
AcDbEntity
  8
LC-001-100-D00-0
 62
     7
370
    50
100
AcDbCircle
 10
53.694574
 20
436.598446
 30
0.0
 40
0.9999999999999591
100
AcDbArc
 50
66.037511
 51
90.0
  0
LINE
  5
404
330
1F
100
AcDbEntity
  8
LC-001-100-D00-0
 62
     7
370
    50
100
AcDbLine
 10
56.156788
 20
432.758459
 30
0.0
 11
56.156788
 21
435.298699
 31
0.0
  0
LINE
  5
405
330
1F
100
AcDbEntity
  8
LC-001-100-D00-0
 62
     7
370
    50
100
AcDbLine
 10
54.969065
 20
437.126322
 30
0.0
 11
54.100712
 21
437.512257
 31
0.0
  0
ARC
  5
406
330
1F
100
AcDbEntity
  8
LC-001-100-D00-0
 62
     7
370
    50
100
AcDbCircle
 10
54.206788
 20
434.378239
 30
0.0
 40
0.2999999999998761
100
AcDbArc
 50
107.441005
 51
180.0
  0
ARC
  5
407
330
1F
100
AcDbEntity
  8
LC-001-100-D00-0
 62
     7
370
    50
100
AcDbCircle
 10
55.856788
 20
432.758459
 30
0.0
 40
0.300000000000252
100
AcDbArc
 50
209.0
 51
0.0
  0
LINE
  5
408
330
1F
100
AcDbEntity
  8
LC-001-100-D00-0
 62
     7
370
    50
100
AcDbLine
 10
47.906791
 20
433.598446
 30
0.0
 11
47.906791
 21
437.598445
 31
0.0
  0
LINE
  5
409
330
1F
100
AcDbEntity
  8
LC-001-100-D00-0
 62
     7
370
    50
100
AcDbLine
 10
53.906788
 20
433.598446
 30
0.0
 11
47.906791
 21
433.598446
 31
0.0
  0
LINE
  5
40A
330
1F
100
AcDbEntity
  8
LC-001-100-D00-0
 62
     7
370
    50
100
AcDbLine
 10
53.694574
 20
437.598446
 30
0.0
 11
47.906791
 21
437.598445
 31
0.0
  0
LINE
  5
40B
330
1F
100
AcDbEntity
  8
LC-001-100-D00-0
 62
     7
370
    50
100
AcDbLine
 10
186.906789
 20
437.598445
 30
0.0
 11
186.906789
 21
413.848447
 31
0.0
  0
LINE
  5
40C
330
1F
100
AcDbEntity
  8
LC-001-100-D00-0
 62
     7
370
    50
100
AcDbLine
 10
183.906791
 20
434.598446
 30
0.0
 11
183.906788
 21
413.848446
 31
0.0
  0
LINE
  5
40D
330
1F
100
AcDbEntity
  8
LC-001-100-D00-0
 62
     7
370
    50
100
AcDbLine
 10
180.906792
 20
434.598446
 30
0.0
 11
180.906792
 21
430.598444
 31
0.0
  0
LINE
  5
40E
330
1F
100
AcDbEntity
  8
LC-001-100-D00-0
 62
     7
370
    50
100
AcDbLine
 10
174.906788
 20
430.598446
 30
0.0
 11
180.906792
 21
430.598444
 31
0.0
  0
LINE
  5
40F
330
1F
100
AcDbEntity
  8
LC-001-100-D00-0
 62
     7
370
    50
100
AcDbLine
 10
174.906787
 20
433.598446
 30
0.0
 11
174.906788
 21
430.598446
 31
0.0
  0
LINE
  5
410
330
1F
100
AcDbEntity
  8
LC-001-100-D00-0
 62
     7
370
    50
100
AcDbLine
 10
177.906786
 20
433.598446
 30
0.0
 11
174.906787
 21
433.598446
 31
0.0
  0
LINE
  5
411
330
1F
100
AcDbEntity
  8
LC-001-100-D00-0
 62
     7
370
    50
100
AcDbLine
 10
177.906786
 20
433.598446
 30
0.0
 11
177.906786
 21
437.598445
 31
0.0
  0
LINE
  5
412
330
1F
100
AcDbEntity
  8
LC-001-100-D00-0
 62
     7
370
    50
100
AcDbLine
 10
180.906792
 20
434.598446
 30
0.0
 11
183.906791
 21
434.598446
 31
0.0
  0
LINE
  5
413
330
1F
100
AcDbEntity
  8
LC-001-100-D00-0
 62
     7
370
    50
100
AcDbLine
 10
186.906789
 20
437.598445
 30
0.0
 11
177.906786
 21
437.598445
 31
0.0
  0
LINE
  5
414
330
1F
100
AcDbEntity
  8
LC-001-100-D00-0
 62
     7
370
    50
100
AcDbLine
 10
183.906788
 20
413.848446
 30
0.0
 11
186.906789
 21
413.848447
 31
0.0
  0
LINE
  5
415
330
1F
100
AcDbEntity
  8
LC-001-100-D00-0
 62
     7
370
    50
100
AcDbLine
 10
163.207196
 20
413.848446
 30
0.0
 11
183.906788
 21
413.848446
 31
0.0
  0
LINE
  5
416
330
1F
100
AcDbEntity
  8
LC-001-100-D00-0
 62
     7
370
    50
100
AcDbLine
 10
168.156788
 20
430.598446
 30
0.0
 11
174.906788
 21
430.598446
 31
0.0
  0
LINE
  5
417
330
1F
100
AcDbEntity
  8
LC-001-100-D00-0
 62
     7
370
    50
100
AcDbLine
 10
50.906788
 20
430.598446
 30
0.0
 11
50.906789
 21
433.598446
 31
0.0
  0
LINE
  5
418
330
1F
100
AcDbEntity
  8
LC-001-100-D00-0
 62
     7
370
    50
100
AcDbLine
 10
50.906788
 20
430.598446
 30
0.0
 11
57.656788
 21
430.598446
 31
0.0
  0
LINE
  5
419
330
1F
100
AcDbEntity
  8
LC-001-100-D00-0
 62
     7
370
    50
100
AcDbLine
 10
47.906791
 20
437.598445
 30
0.0
 11
47.906791
 21
433.598446
 31
0.0
  0
LINE
  5
41A
330
1F
100
AcDbEntity
  8
LC-001-100-D00-0
 62
     7
370
    50
100
AcDbLine
 10
44.906785
 20
430.598444
 30
0.0
 11
44.906785
 21
434.598446
 31
0.0
  0
LINE
  5
41B
330
1F
100
AcDbEntity
  8
LC-001-100-D00-0
 62
     7
370
    50
100
AcDbLine
 10
41.906788
 20
413.848446
 30
0.0
 11
41.906786
 21
434.598446
 31
0.0
  0
LINE
  5
41C
330
1F
100
AcDbEntity
  8
LC-001-100-D00-0
 62
     7
370
    50
100
AcDbLine
 10
41.906788
 20
413.848446
 30
0.0
 11
62.606381
 21
413.848446
 31
0.0
  0
LINE
  5
41D
330
1F
100
AcDbEntity
  8
LC-001-100-D00-0
 62
     7
370
    50
100
AcDbLine
 10
38.906787
 20
413.848447
 30
0.0
 11
38.906787
 21
437.598445
 31
0.0
  0
LINE
  5
41E
330
1F
100
AcDbEntity
  8
LC-001-100-D00-0
 62
     7
370
    50
100
AcDbLine
 10
50.906789
 20
433.598446
 30
0.0
 11
47.906791
 21
433.598446
 31
0.0
  0
LINE
  5
41F
330
1F
100
AcDbEntity
  8
LC-001-100-D00-0
 62
     7
370
    50
100
AcDbLine
 10
44.906785
 20
430.598444
 30
0.0
 11
50.906788
 21
430.598446
 31
0.0
  0
LINE
  5
420
330
1F
100
AcDbEntity
  8
LC-001-100-D00-0
 62
     7
370
    50
100
AcDbLine
 10
41.906786
 20
434.598446
 30
0.0
 11
44.906785
 21
434.598446
 31
0.0
  0
LINE
  5
421
330
1F
100
AcDbEntity
  8
LC-001-100-D00-0
 62
     7
370
    50
100
AcDbLine
 10
47.906791
 20
437.598445
 30
0.0
 11
38.906787
 21
437.598445
 31
0.0
  0
LINE
  5
422
330
1F
100
AcDbEntity
  8
LC-001-100-D00-0
 62
     7
370
    50
100
AcDbLine
 10
38.906787
 20
413.848447
 30
0.0
 11
41.906788
 21
413.848446
 31
0.0
  0
LINE
  5
423
330
1F
100
AcDbEntity
  8
LC-001-100-D00-0
 62
     7
370
    50
100
AcDbLine
 10
154.895914
 20
413.848446
 30
0.0
 11
163.207196
 21
413.848446
 31
0.0
  0
LINE
  5
424
330
1F
100
AcDbEntity
  8
LC-001-100-D00-0
 62
     7
370
    50
100
AcDbLine
 10
62.606381
 20
413.848446
 30
0.0
 11
70.917663
 21
413.848446
 31
0.0
  0
LINE
  5
425
330
1F
100
AcDbEntity
  8
LC-001-100-D00-0
 62
     7
370
    50
100
AcDbLine
 10
70.917663
 20
413.848446
 30
0.0
 11
71.906787
 21
413.848447
 31
0.0
  0
LINE
  5
426
330
1F
100
AcDbEntity
  8
LC-001-100-D00-0
 62
     7
370
    50
100
AcDbLine
 10
153.906789
 20
413.848447
 30
0.0
 11
154.895914
 21
413.848446
 31
0.0
  0
LINE
  5
427
330
1F
100
AcDbEntity
  8
LC-001-100-D00-0
 62
     7
370
    50
100
AcDbLine
 10
186.906789
 20
413.098445
 30
0.0
 11
197.906789
 21
413.098445
 31
0.0
  0
LINE
  5
428
330
1F
100
AcDbEntity
  8
LC-001-100-D00-0
 62
     7
370
    50
100
AcDbLine
 10
197.906789
 20
361.098444
 30
0.0
 11
186.906789
 21
361.098444
 31
0.0
  0
LINE
  5
429
330
1F
100
AcDbEntity
  8
LC-001-100-D00-0
 62
     7
370
    50
100
AcDbLine
 10
186.906789
 20
413.848447
 30
0.0
 11
186.906789
 21
413.098445
 31
0.0
  0
INSERT
  5
43A
330
1F
100
AcDbEntity
  8
LC-001-100-D00-0
 62
     7
370
    50
100
AcDbBlockReference
  2
KLON15
 10
0.0
 20
0.0
 30
0.0
  0
INSERT
  5
44E
330
1F
100
AcDbEntity
  8
LC-001-100-D00-0
 62
     7
370
    50
100
AcDbBlockReference
  2
KLON16
 10
0.0
 20
0.0
 30
0.0
  0
LINE
  5
44F
330
1F
100
AcDbEntity
  8
LC-001-100-D00-0
 62
     7
370
    50
100
AcDbLine
 10
183.906791
 20
410.098447
 30
0.0
 11
225.803974
 21
410.098446
 31
0.0
  0
LINE
  5
450
330
1F
100
AcDbEntity
  8
LC-001-100-D00-0
 62
     7
370
    50
100
AcDbLine
 10
225.803974
 20
364.098446
 30
0.0
 11
225.803974
 21
410.098446
 31
0.0
  0
LINE
  5
451
330
1F
100
AcDbEntity
  8
LC-001-100-D00-0
 62
     7
370
    50
100
AcDbLine
 10
225.803974
 20
364.098446
 30
0.0
 11
186.906789
 21
364.098443
 31
0.0
  0
INSERT
  5
457
330
1F
100
AcDbEntity
  8
LC-001-100-D00-0
 62
     7
370
    50
100
AcDbBlockReference
  2
KLON17
 10
0.0
 20
0.0
 30
0.0
  0
LINE
  5
458
330
1F
100
AcDbEntity
  8
LC-001-100-D00-0
 62
     7
370
    50
100
AcDbLine
 10
183.906788
 20
413.848446
 30
0.0
 11
163.207196
 21
413.848446
 31
0.0
  0
LINE
  5
459
330
1F
100
AcDbEntity
  8
LC-001-100-D00-0
 62
     7
370
    50
100
AcDbLine
 10
183.906788
 20
413.848446
 30
0.0
 11
183.906791
 21
410.098447
 31
0.0
  0
LINE
  5
45A
330
1F
100
AcDbEntity
  8
LC-001-100-D00-0
 62
     7
370
    50
100
AcDbLine
 10
173.906788
 20
361.098446
 30
0.0
 11
186.906789
 21
361.098444
 31
0.0
  0
ARC
  5
45B
330
1F
100
AcDbEntity
  8
LC-001-100-D00-0
 62
     7
370
    50
100
AcDbCircle
 10
166.924668
 20
361.598446
 30
0.0
 40
7.0
100
AcDbArc
 50
270.0
 51
355.903956
  0
LINE
  5
45C
330
1F
100
AcDbEntity
  8
LC-001-100-D00-0
 62
     7
370
    50
100
AcDbLine
 10
166.924668
 20
354.598446
 30
0.0
 11
58.888908
 21
354.598446
 31
0.0
  0
ARC
  5
45D
330
1F
100
AcDbEntity
  8
LC-001-100-D00-0
 62
     7
370
    50
100
AcDbCircle
 10
58.888908
 20
361.598446
 30
0.0
 40
7.000000000000073
100
AcDbArc
 50
184.096044
 51
270.0
  0
LINE
  5
45E
330
1F
100
AcDbEntity
  8
LC-001-100-D00-0
 62
     7
370
    50
100
AcDbLine
 10
51.406788
 20
361.098446
 30
0.0
 11
51.906788
 21
361.098446
 31
0.0
  0
ARC
  5
45F
330
1F
100
AcDbEntity
  8
LC-001-100-D00-0
 62
     7
370
    50
100
AcDbCircle
 10
51.406788
 20
373.598446
 30
0.0
 40
12.5
100
AcDbArc
 50
180.0
 51
270.0
  0
LINE
  5
460
330
1F
100
AcDbEntity
  8
LC-001-100-D00-0
 62
     7
370
    50
100
AcDbLine
 10
38.906788
 20
373.598446
 30
0.0
 11
38.906787
 21
413.848447
 31
0.0
  0
LINE
  5
461
330
1F
100
AcDbEntity
  8
LC-001-100-D00-0
 62
     7
370
    50
100
AcDbLine
 10
38.906787
 20
413.848447
 30
0.0
 11
41.906788
 21
413.848446
 31
0.0
  0
LINE
  5
462
330
1F
100
AcDbEntity
  8
LC-001-100-D00-0
 62
     7
370
    50
100
AcDbLine
 10
41.906788
 20
373.598446
 30
0.0
 11
41.906788
 21
413.848446
 31
0.0
  0
ARC
  5
463
330
1F
100
AcDbEntity
  8
LC-001-100-D00-0
 62
     7
370
    50
100
AcDbCircle
 10
51.406788
 20
373.598446
 30
0.0
 40
9.500000000000114
100
AcDbArc
 50
180.0
 51
270.0
  0
LINE
  5
464
330
1F
100
AcDbEntity
  8
LC-001-100-D00-0
 62
     7
370
    50
100
AcDbLine
 10
51.406788
 20
364.098446
 30
0.0
 11
53.906788
 21
364.098446
 31
0.0
  0
ARC
  5
465
330
1F
100
AcDbEntity
  8
LC-001-100-D00-0
 62
     7
370
    50
100
AcDbCircle
 10
53.906788
 20
363.098446
 30
0.0
 40
1.000000000000114
100
AcDbArc
 50
0.0
 51
90.0
  0
LINE
  5
466
330
1F
100
AcDbEntity
  8
LC-001-100-D00-0
 62
     7
370
    50
100
AcDbLine
 10
54.906788
 20
363.098446
 30
0.0
 11
54.906788
 21
361.598446
 31
0.0
  0
ARC
  5
467
330
1F
100
AcDbEntity
  8
LC-001-100-D00-0
 62
     7
370
    50
100
AcDbCircle
 10
58.906788
 20
361.598446
 30
0.0
 40
4.000000000000114
100
AcDbArc
 50
180.0
 51
270.0
  0
LINE
  5
468
330
1F
100
AcDbEntity
  8
LC-001-100-D00-0
 62
     7
370
    50
100
AcDbLine
 10
166.906788
 20
357.598446
 30
0.0
 11
58.906788
 21
357.598446
 31
0.0
  0
ARC
  5
469
330
1F
100
AcDbEntity
  8
LC-001-100-D00-0
 62
     7
370
    50
100
AcDbCircle
 10
166.906788
 20
361.598446
 30
0.0
 40
4.0
100
AcDbArc
 50
270.0
 51
0.0
  0
LINE
  5
46A
330
1F
100
AcDbEntity
  8
LC-001-100-D00-0
 62
     7
370
    50
100
AcDbLine
 10
170.906788
 20
361.598446
 30
0.0
 11
170.906788
 21
363.098446
 31
0.0
  0
ARC
  5
46B
330
1F
100
AcDbEntity
  8
LC-001-100-D00-0
 62
     7
370
    50
100
AcDbCircle
 10
171.906788
 20
363.098446
 30
0.0
 40
1.000000000000227
100
AcDbArc
 50
90.0
 51
180.0
  0
LINE
  5
46C
330
1F
100
AcDbEntity
  8
LC-001-100-D00-0
 62
     7
370
    50
100
AcDbLine
 10
171.906788
 20
364.098446
 30
0.0
 11
186.906789
 21
364.098443
 31
0.0
  0
LINE
  5
46D
330
1F
100
AcDbEntity
  8
LC-001-100-D00-0
 62
     7
370
    50
100
AcDbLine
 10
231.403974
 20
362.59793
 30
0.0
 11
225.803974
 21
364.098446
 31
0.0
  0
LINE
  5
46E
330
1F
100
AcDbEntity
  8
LC-001-100-D00-0
 62
     7
370
    50
100
AcDbLine
 10
231.403974
 20
362.164191
 30
0.0
 11
231.403974
 21
362.59793
 31
0.0
  0
ARC
  5
46F
330
1F
100
AcDbEntity
  8
LC-001-100-D00-0
 62
     7
370
    50
100
AcDbCircle
 10
230.904016
 20
362.164191
 30
0.0
 40
0.4999578796799692
100
AcDbArc
 50
301.198872
 51
0.0
  0
ARC
  5
470
330
1F
100
AcDbEntity
  8
LC-001-100-D00-0
 62
     7
370
    50
100
AcDbCircle
 10
215.805292
 20
387.096256
 30
0.0
 40
29.64750216706078
100
AcDbArc
 50
292.382556
 51
301.198872
  0
ARC
  5
471
330
1F
100
AcDbEntity
  8
LC-001-100-D00-0
 62
     7
370
    50
100
AcDbCircle
 10
226.904353
 20
360.144629
 30
0.0
 40
0.4999578796799824
100
AcDbArc
 50
180.0
 51
292.382556
  0
LINE
  5
472
330
1F
100
AcDbEntity
  8
LC-001-100-D00-0
 62
     7
370
    50
100
AcDbLine
 10
226.404395
 20
361.448488
 30
0.0
 11
226.404395
 21
360.144629
 31
0.0
  0
ARC
  5
473
330
1F
100
AcDbEntity
  8
LC-001-100-D00-0
 62
     7
370
    50
100
AcDbCircle
 10
225.904437
 20
361.448488
 30
0.0
 40
0.4999578796800961
100
AcDbArc
 50
0.0
 51
90.0
  0
LINE
  5
474
330
1F
100
AcDbEntity
  8
LC-001-100-D00-0
 62
     7
370
    50
100
AcDbLine
 10
222.404732
 20
361.948446
 30
0.0
 11
225.904437
 21
361.948446
 31
0.0
  0
ARC
  5
475
330
1F
100
AcDbEntity
  8
LC-001-100-D00-0
 62
     7
370
    50
100
AcDbCircle
 10
222.404732
 20
361.448488
 30
0.0
 40
0.4999578796800961
100
AcDbArc
 50
90.0
 51
180.0
  0
LINE
  5
476
330
1F
100
AcDbEntity
  8
LC-001-100-D00-0
 62
     7
370
    50
100
AcDbLine
 10
221.904774
 20
358.491627
 30
0.0
 11
221.904774
 21
361.448488
 31
0.0
  0
ARC
  5
477
330
1F
100
AcDbEntity
  8
LC-001-100-D00-0
 62
     7
370
    50
100
AcDbCircle
 10
221.404816
 20
358.491627
 30
0.0
 40
0.4999578796801155
100
AcDbArc
 50
281.075925
 51
0.0
  0
ARC
  5
478
330
1F
100
AcDbEntity
  8
LC-001-100-D00-0
 62
     7
370
    50
100
AcDbCircle
 10
215.805292
 20
387.096256
 30
0.0
 40
29.64750432250032
100
AcDbArc
 50
241.270296
 51
281.075925
  0
LINE
  5
479
330
1F
100
AcDbEntity
  8
LC-001-100-D00-0
 62
     7
370
    50
100
AcDbLine
 10
200.406586
 20
361.098444
 30
0.0
 11
201.554383
 21
361.098446
 31
0.0
  0
LINE
  5
47A
330
1F
100
AcDbEntity
  8
LC-001-100-D00-0
 62
     7
370
    50
100
AcDbLine
 10
200.406586
 20
359.598449
 30
0.0
 11
200.406586
 21
361.098444
 31
0.0
  0
LINE
  5
47B
330
1F
100
AcDbEntity
  8
LC-001-100-D00-0
 62
     7
370
    50
100
AcDbLine
 10
197.906789
 20
359.598449
 30
0.0
 11
200.406586
 21
359.598449
 31
0.0
  0
LINE
  5
47C
330
1F
100
AcDbEntity
  8
LC-001-100-D00-0
 62
     7
370
    50
100
AcDbLine
 10
197.906789
 20
361.098444
 30
0.0
 11
197.906789
 21
359.598449
 31
0.0
  0
ARC
  5
47D
330
1F
100
AcDbEntity
  8
LC-001-100-D00-0
 62
     7
370
    50
100
AcDbCircle
 10
215.805292
 20
387.100636
 30
0.0
 40
29.64750216706075
100
AcDbArc
 50
58.801128
 51
67.617444
  0
ARC
  5
47E
330
1F
100
AcDbEntity
  8
LC-001-100-D00-0
 62
     7
370
    50
100
AcDbCircle
 10
230.904016
 20
412.0327
 30
0.0
 40
0.4999578796800961
100
AcDbArc
 50
0.0
 51
58.801128
  0
ARC
  5
47F
330
1F
100
AcDbEntity
  8
LC-001-100-D00-0
 62
     7
370
    50
100
AcDbCircle
 10
225.904437
 20
412.748403
 30
0.0
 40
0.4999578796800961
100
AcDbArc
 50
270.0
 51
0.0
  0
LINE
  5
480
330
1F
100
AcDbEntity
  8
LC-001-100-D00-0
 62
     7
370
    50
100
AcDbLine
 10
226.404395
 20
414.052262
 30
0.0
 11
226.404395
 21
412.748403
 31
0.0
  0
ARC
  5
481
330
1F
100
AcDbEntity
  8
LC-001-100-D00-0
 62
     7
370
    50
100
AcDbCircle
 10
226.904353
 20
414.052262
 30
0.0
 40
0.4999578796799869
100
AcDbArc
 50
67.617444
 51
180.0
  0
LINE
  5
482
330
1F
100
AcDbEntity
  8
LC-001-100-D00-0
 62
     7
370
    50
100
AcDbLine
 10
231.403974
 20
411.598961
 30
0.0
 11
231.403974
 21
412.0327
 31
0.0
  0
LINE
  5
483
330
1F
100
AcDbEntity
  8
LC-001-100-D00-0
 62
     7
370
    50
100
AcDbLine
 10
225.803974
 20
410.098446
 30
0.0
 11
231.403974
 21
411.598961
 31
0.0
  0
LINE
  5
484
330
1F
100
AcDbEntity
  8
LC-001-100-D00-0
 62
     7
370
    50
100
AcDbLine
 10
183.906788
 20
413.848446
 30
0.0
 11
186.906789
 21
413.848447
 31
0.0
  0
LINE
  5
485
330
1F
100
AcDbEntity
  8
LC-001-100-D00-0
 62
     7
370
    50
100
AcDbLine
 10
197.906789
 20
414.598445
 30
0.0
 11
197.906789
 21
413.098445
 31
0.0
  0
LINE
  5
486
330
1F
100
AcDbEntity
  8
LC-001-100-D00-0
 62
     7
370
    50
100
AcDbLine
 10
200.406585
 20
414.598446
 30
0.0
 11
197.906789
 21
414.598445
 31
0.0
  0
ARC
  5
487
330
1F
100
AcDbEntity
  8
LC-001-100-D00-0
 62
     7
370
    50
100
AcDbCircle
 10
215.768877
 20
387.098446
 30
0.0
 40
31.49999999999998
100
AcDbArc
 50
105.394857
 51
119.188982
  0
LINE
  5
488
330
1F
100
AcDbEntity
  8
LC-001-100-D00-0
 62
     7
370
    50
100
AcDbLine
 10
207.406585
 20
417.468202
 30
0.0
 11
207.406585
 21
415.533649
 31
0.0
  0
ARC
  5
489
330
1F
100
AcDbEntity
  8
LC-001-100-D00-0
 62
     7
370
    50
100
AcDbCircle
 10
215.805292
 20
387.100636
 30
0.0
 40
29.6475043225003
100
AcDbArc
 50
78.924075
 51
106.456389
  0
ARC
  5
48A
330
1F
100
AcDbEntity
  8
LC-001-100-D00-0
 62
     7
370
    50
100
AcDbCircle
 10
221.404816
 20
415.705264
 30
0.0
 40
0.4999578796800961
100
AcDbArc
 50
0.0
 51
78.924075
  0
LINE
  5
48B
330
1F
100
AcDbEntity
  8
LC-001-100-D00-0
 62
     7
370
    50
100
AcDbLine
 10
221.904774
 20
412.748403
 30
0.0
 11
221.904774
 21
415.705264
 31
0.0
  0
ARC
  5
48C
330
1F
100
AcDbEntity
  8
LC-001-100-D00-0
 62
     7
370
    50
100
AcDbCircle
 10
222.404732
 20
412.748403
 30
0.0
 40
0.4999578796798687
100
AcDbArc
 50
180.0
 51
270.0
  0
LINE
  5
48D
330
1F
100
AcDbEntity
  8
LC-001-100-D00-0
 62
     7
370
    50
100
AcDbLine
 10
225.904437
 20
412.248446
 30
0.0
 11
222.404732
 21
412.248446
 31
0.0
  0
LINE
  5
48E
330
1F
100
AcDbEntity
  8
LC-001-100-D00-0
 62
     7
370
    50
100
AcDbLine
 10
231.403974
 20
411.598961
 30
0.0
 11
231.403974
 21
362.59793
 31
0.0
  0
LINE
  5
48F
330
1F
100
AcDbEntity
  8
LC-001-100-D00-0
 62
     7
370
    50
100
AcDbLine
 10
157.340408
 20
364.098446
 30
0.0
 11
171.906788
 21
364.098446
 31
0.0
  0
LINE
  5
490
330
1F
100
AcDbEntity
  8
LC-001-100-D00-0
 62
     7
370
    50
100
AcDbLine
 10
53.906788
 20
364.098446
 30
0.0
 11
68.473168
 21
364.098446
 31
0.0
  0
LINE
  5
491
330
1F
100
AcDbEntity
  8
LC-001-100-D00-0
 62
     7
370
    50
100
AcDbLine
 10
62.606381
 20
413.848446
 30
0.0
 11
41.906788
 21
413.848446
 31
0.0
  0
LINE
  5
492
330
1F
100
AcDbEntity
  8
LC-001-100-D00-0
 62
     7
370
    50
100
AcDbLine
 10
154.895914
 20
364.098446
 30
0.0
 11
157.340408
 21
364.098446
 31
0.0
  0
LINE
  5
493
330
1F
100
AcDbEntity
  8
LC-001-100-D00-0
 62
     7
370
    50
100
AcDbLine
 10
68.473168
 20
364.098446
 30
0.0
 11
70.917663
 21
364.098446
 31
0.0
  0
LINE
  5
494
330
1F
100
AcDbEntity
  8
LC-001-100-D00-0
 62
     7
370
    50
100
AcDbLine
 10
70.917663
 20
364.098446
 30
0.0
 11
71.906787
 21
364.098443
 31
0.0
  0
LINE
  5
495
330
1F
100
AcDbEntity
  8
LC-001-100-D00-0
 62
     7
370
    50
100
AcDbLine
 10
153.906789
 20
364.098443
 30
0.0
 11
154.895914
 21
364.098446
 31
0.0
  0
LINE
  5
496
330
1F
100
AcDbEntity
  8
LC-001-100-D00-0
 62
     7
370
    50
100
AcDbLine
 10
163.207196
 20
413.848446
 30
0.0
 11
154.895914
 21
413.848446
 31
0.0
  0
LINE
  5
497
330
1F
100
AcDbEntity
  8
LC-001-100-D00-0
 62
     7
370
    50
100
AcDbLine
 10
70.917663
 20
413.848446
 30
0.0
 11
62.606381
 21
413.848446
 31
0.0
  0
LINE
  5
498
330
1F
100
AcDbEntity
  8
LC-001-100-D00-0
 62
     7
370
    50
100
AcDbLine
 10
154.895914
 20
413.848446
 30
0.0
 11
153.906789
 21
413.848447
 31
0.0
  0
LINE
  5
499
330
1F
100
AcDbEntity
  8
LC-001-100-D00-0
 62
     7
370
    50
100
AcDbLine
 10
71.906787
 20
413.848447
 30
0.0
 11
70.917663
 21
413.848446
 31
0.0
  0
CIRCLE
  5
49A
330
1F
100
AcDbEntity
  8
LC-001-100-D00-0
 62
     7
370
    50
100
AcDbCircle
 10
167.156788
 20
435.348446
 30
0.0
 40
1.749999999999886
  0
CIRCLE
  5
49B
330
1F
100
AcDbEntity
  8
LC-001-100-D00-0
 62
     7
370
    50
100
AcDbCircle
 10
58.656788
 20
435.348446
 30
0.0
 40
1.750000000000114
  0
LINE
  5
49C
330
1F
100
AcDbEntity
  8
LC-001-100-D00-0
 62
     7
370
    50
100
AcDbLine
 10
167.406787
 20
437.098446
 30
0.0
 11
167.406787
 21
438.598445
 31
0.0
  0
LINE
  5
49D
330
1F
100
AcDbEntity
  8
LC-001-100-D00-0
 62
     7
370
    50
100
AcDbLine
 10
165.406787
 20
437.098446
 30
0.0
 11
167.406787
 21
437.098446
 31
0.0
  0
LINE
  5
49E
330
1F
100
AcDbEntity
  8
LC-001-100-D00-0
 62
     7
370
    50
100
AcDbLine
 10
165.406787
 20
437.098446
 30
0.0
 11
165.406787
 21
433.598446
 31
0.0
  0
LINE
  5
49F
330
1F
100
AcDbEntity
  8
LC-001-100-D00-0
 62
     7
370
    50
100
AcDbLine
 10
165.406787
 20
433.598446
 30
0.0
 11
167.406787
 21
433.598446
 31
0.0
  0
LINE
  5
4A0
330
1F
100
AcDbEntity
  8
LC-001-100-D00-0
 62
     7
370
    50
100
AcDbLine
 10
167.406787
 20
433.598446
 30
0.0
 11
167.406787
 21
432.598444
 31
0.0
  0
LINE
  5
4A1
330
1F
100
AcDbEntity
  8
LC-001-100-D00-0
 62
     7
370
    50
100
AcDbLine
 10
151.906788
 20
432.598446
 30
0.0
 11
167.406787
 21
432.598444
 31
0.0
  0
ARC
  5
4A2
330
1F
100
AcDbEntity
  8
LC-001-100-D00-0
 62
     7
370
    50
100
AcDbCircle
 10
151.906788
 20
422.598446
 30
0.0
 40
10.0
100
AcDbArc
 50
90.0
 51
180.0
  0
LINE
  5
4A3
330
1F
100
AcDbEntity
  8
LC-001-100-D00-0
 62
     7
370
    50
100
AcDbLine
 10
141.906788
 20
422.598446
 30
0.0
 11
141.906787
 21
372.698447
 31
0.0
  0
LINE
  5
4A4
330
1F
100
AcDbEntity
  8
LC-001-100-D00-0
 62
     7
370
    50
100
AcDbLine
 10
140.406788
 20
372.698446
 30
0.0
 11
141.906787
 21
372.698447
 31
0.0
  0
LINE
  5
4A5
330
1F
100
AcDbEntity
  8
LC-001-100-D00-0
 62
     7
370
    50
100
AcDbLine
 10
140.406788
 20
436.598446
 30
0.0
 11
140.406788
 21
372.698446
 31
0.0
  0
ARC
  5
4A6
330
1F
100
AcDbEntity
  8
LC-001-100-D00-0
 62
     7
370
    50
100
AcDbCircle
 10
142.406788
 20
436.598446
 30
0.0
 40
1.999999999999773
100
AcDbArc
 50
90.0
 51
180.0
  0
LINE
  5
4A7
330
1F
100
AcDbEntity
  8
LC-001-100-D00-0
 62
     7
370
    50
100
AcDbLine
 10
142.406788
 20
438.598446
 30
0.0
 11
167.406787
 21
438.598445
 31
0.0
  0
LINE
  5
4A8
330
1F
100
AcDbEntity
  8
LC-001-100-D00-0
 62
     7
370
    50
100
AcDbLine
 10
124.406788
 20
438.598446
 30
0.0
 11
142.406788
 21
438.598446
 31
0.0
  0
LINE
  5
4A9
330
1F
100
AcDbEntity
  8
LC-001-100-D00-0
 62
     7
370
    50
100
AcDbLine
 10
124.406788
 20
372.698446
 30
0.0
 11
140.406788
 21
372.698446
 31
0.0
  0
LINE
  5
4AA
330
1F
100
AcDbEntity
  8
LC-001-100-D00-0
 62
     7
370
    50
100
AcDbLine
 10
83.906789
 20
372.698447
 30
0.0
 11
83.906788
 21
422.598446
 31
0.0
  0
ARC
  5
4AB
330
1F
100
AcDbEntity
  8
LC-001-100-D00-0
 62
     7
370
    50
100
AcDbCircle
 10
83.406788
 20
436.598446
 30
0.0
 40
2.000000000000114
100
AcDbArc
 50
0.0
 51
90.0
  0
LINE
  5
4AC
330
1F
100
AcDbEntity
  8
LC-001-100-D00-0
 62
     7
370
    50
100
AcDbLine
 10
83.406788
 20
438.598446
 30
0.0
 11
101.406788
 21
438.598446
 31
0.0
  0
LINE
  5
4AD
330
1F
100
AcDbEntity
  8
LC-001-100-D00-0
 62
     7
370
    50
100
AcDbLine
 10
85.406788
 20
372.698446
 30
0.0
 11
85.406788
 21
436.598446
 31
0.0
  0
LINE
  5
4AE
330
1F
100
AcDbEntity
  8
LC-001-100-D00-0
 62
     7
370
    50
100
AcDbLine
 10
85.406788
 20
372.698446
 30
0.0
 11
101.406788
 21
372.698446
 31
0.0
  0
ARC
  5
4AF
330
1F
100
AcDbEntity
  8
LC-001-100-D00-0
 62
     7
370
    50
100
AcDbCircle
 10
73.906788
 20
422.598446
 30
0.0
 40
10.0
100
AcDbArc
 50
0.0
 51
90.0
  0
LINE
  5
4B0
330
1F
100
AcDbEntity
  8
LC-001-100-D00-0
 62
     7
370
    50
100
AcDbLine
 10
58.40679
 20
432.598444
 30
0.0
 11
58.40679
 21
433.598446
 31
0.0
  0
LINE
  5
4B1
330
1F
100
AcDbEntity
  8
LC-001-100-D00-0
 62
     7
370
    50
100
AcDbLine
 10
60.40679
 20
433.598446
 30
0.0
 11
60.40679
 21
437.098446
 31
0.0
  0
LINE
  5
4B2
330
1F
100
AcDbEntity
  8
LC-001-100-D00-0
 62
     7
370
    50
100
AcDbLine
 10
58.40679
 20
438.598445
 30
0.0
 11
58.40679
 21
437.098446
 31
0.0
  0
LINE
  5
4B3
330
1F
100
AcDbEntity
  8
LC-001-100-D00-0
 62
     7
370
    50
100
AcDbLine
 10
83.906789
 20
372.698447
 30
0.0
 11
85.406788
 21
372.698446
 31
0.0
  0
LINE
  5
4B4
330
1F
100
AcDbEntity
  8
LC-001-100-D00-0
 62
     7
370
    50
100
AcDbLine
 10
58.40679
 20
433.598446
 30
0.0
 11
60.40679
 21
433.598446
 31
0.0
  0
LINE
  5
4B5
330
1F
100
AcDbEntity
  8
LC-001-100-D00-0
 62
     7
370
    50
100
AcDbLine
 10
58.40679
 20
437.098446
 30
0.0
 11
60.40679
 21
437.098446
 31
0.0
  0
LINE
  5
4B6
330
1F
100
AcDbEntity
  8
LC-001-100-D00-0
 62
     7
370
    50
100
AcDbLine
 10
58.40679
 20
432.598444
 30
0.0
 11
73.906788
 21
432.598446
 31
0.0
  0
LINE
  5
4B7
330
1F
100
AcDbEntity
  8
LC-001-100-D00-0
 62
     7
370
    50
100
AcDbLine
 10
58.40679
 20
438.598445
 30
0.0
 11
83.406788
 21
438.598446
 31
0.0
  0
LINE
  5
4B8
330
1F
100
AcDbEntity
  8
LC-001-100-D00-0
 62
     7
370
    50
100
AcDbLine
 10
101.406788
 20
438.598446
 30
0.0
 11
124.406788
 21
438.598446
 31
0.0
  0
LINE
  5
4B9
330
1F
100
AcDbEntity
  8
LC-001-100-D00-0
 62
     7
370
    50
100
AcDbLine
 10
101.406788
 20
372.698446
 30
0.0
 11
124.406788
 21
372.698446
 31
0.0
  0
LINE
  5
4BA
330
1F
100
AcDbEntity
  8
LC-001-100-D00-0
 62
     7
370
    50
100
AcDbLine
 10
71.906787
 20
423.098447
 30
0.0
 11
61.971103
 21
430.404097
 31
0.0
  0
ARC
  5
4BB
330
1F
100
AcDbEntity
  8
LC-001-100-D00-0
 62
     7
370
    50
100
AcDbCircle
 10
61.378712
 20
429.598446
 30
0.0
 40
0.9999999999999467
100
AcDbArc
 50
53.673174
 51
90.0
  0
LINE
  5
4BC
330
1F
100
AcDbEntity
  8
LC-001-100-D00-0
 62
     7
370
    50
100
AcDbLine
 10
57.656788
 20
430.598446
 30
0.0
 11
61.378712
 21
430.598446
 31
0.0
  0
LINE
  5
4BD
330
1F
100
AcDbEntity
  8
LC-001-100-D00-0
 62
     7
370
    50
100
AcDbLine
 10
57.656788
 20
430.598446
 30
0.0
 11
57.656788
 21
432.598446
 31
0.0
  0
LINE
  5
4BE
330
1F
100
AcDbEntity
  8
LC-001-100-D00-0
 62
     7
370
    50
100
AcDbLine
 10
57.656788
 20
432.598446
 30
0.0
 11
61.378712
 21
432.598446
 31
0.0
  0
ARC
  5
4BF
330
1F
100
AcDbEntity
  8
LC-001-100-D00-0
 62
     7
370
    50
100
AcDbCircle
 10
61.378712
 20
429.598446
 30
0.0
 40
2.999999999999975
100
AcDbArc
 50
53.673174
 51
90.0
  0
LINE
  5
4C0
330
1F
100
AcDbEntity
  8
LC-001-100-D00-0
 62
     7
370
    50
100
AcDbLine
 10
63.155884
 20
432.015399
 30
0.0
 11
72.999179
 21
424.777682
 31
0.0
  0
ARC
  5
4C1
330
1F
100
AcDbEntity
  8
LC-001-100-D00-0
 62
     7
370
    50
100
AcDbCircle
 10
72.406788
 20
423.972031
 30
0.0
 40
1.000000000000227
100
AcDbArc
 50
0.0
 51
53.673174
  0
LINE
  5
4C2
330
1F
100
AcDbEntity
  8
LC-001-100-D00-0
 62
     7
370
    50
100
AcDbLine
 10
73.406788
 20
362.098446
 30
0.0
 11
73.406788
 21
423.972031
 31
0.0
  0
ARC
  5
4C3
330
1F
100
AcDbEntity
  8
LC-001-100-D00-0
 62
     7
370
    50
100
AcDbCircle
 10
76.906788
 20
362.098446
 30
0.0
 40
3.499999999999886
100
AcDbArc
 50
180.0
 51
270.0
  0
LINE
  5
4C4
330
1F
100
AcDbEntity
  8
LC-001-100-D00-0
 62
     7
370
    50
100
AcDbLine
 10
148.906788
 20
358.598446
 30
0.0
 11
76.906788
 21
358.598446
 31
0.0
  0
ARC
  5
4C5
330
1F
100
AcDbEntity
  8
LC-001-100-D00-0
 62
     7
370
    50
100
AcDbCircle
 10
148.906788
 20
362.098446
 30
0.0
 40
3.5
100
AcDbArc
 50
270.0
 51
0.0
  0
LINE
  5
4C6
330
1F
100
AcDbEntity
  8
LC-001-100-D00-0
 62
     7
370
    50
100
AcDbLine
 10
152.406788
 20
423.972031
 30
0.0
 11
152.406788
 21
362.098446
 31
0.0
  0
ARC
  5
4C7
330
1F
100
AcDbEntity
  8
LC-001-100-D00-0
 62
     7
370
    50
100
AcDbCircle
 10
153.406788
 20
423.972031
 30
0.0
 40
1.000000000000014
100
AcDbArc
 50
126.326826
 51
180.0
  0
LINE
  5
4C8
330
1F
100
AcDbEntity
  8
LC-001-100-D00-0
 62
     7
370
    50
100
AcDbLine
 10
162.657693
 20
432.015399
 30
0.0
 11
152.814398
 21
424.777682
 31
0.0
  0
ARC
  5
4C9
330
1F
100
AcDbEntity
  8
LC-001-100-D00-0
 62
     7
370
    50
100
AcDbCircle
 10
164.434864
 20
429.598446
 30
0.0
 40
3.0
100
AcDbArc
 50
90.0
 51
126.326826
  0
LINE
  5
4CA
330
1F
100
AcDbEntity
  8
LC-001-100-D00-0
 62
     7
370
    50
100
AcDbLine
 10
164.434864
 20
432.598446
 30
0.0
 11
168.156788
 21
432.598446
 31
0.0
  0
LINE
  5
4CB
330
1F
100
AcDbEntity
  8
LC-001-100-D00-0
 62
     7
370
    50
100
AcDbLine
 10
168.156788
 20
432.598446
 30
0.0
 11
168.156788
 21
430.598446
 31
0.0
  0
LINE
  5
4CC
330
1F
100
AcDbEntity
  8
LC-001-100-D00-0
 62
     7
370
    50
100
AcDbLine
 10
164.434864
 20
430.598446
 30
0.0
 11
168.156788
 21
430.598446
 31
0.0
  0
ARC
  5
4CD
330
1F
100
AcDbEntity
  8
LC-001-100-D00-0
 62
     7
370
    50
100
AcDbCircle
 10
164.434864
 20
429.598446
 30
0.0
 40
0.9999999999997726
100
AcDbArc
 50
90.0
 51
126.326826
  0
LINE
  5
4CE
330
1F
100
AcDbEntity
  8
LC-001-100-D00-0
 62
     7
370
    50
100
AcDbLine
 10
153.906789
 20
423.098447
 30
0.0
 11
163.842474
 21
430.404097
 31
0.0
  0
LINE
  5
4CF
330
1F
100
AcDbEntity
  8
LC-001-100-D00-0
 62
     7
370
    50
100
AcDbLine
 10
153.906789
 20
423.098447
 30
0.0
 11
153.906788
 21
362.098446
 31
0.0
  0
ARC
  5
4D0
330
1F
100
AcDbEntity
  8
LC-001-100-D00-0
 62
     7
370
    50
100
AcDbCircle
 10
148.906788
 20
362.098446
 30
0.0
 40
5.0
100
AcDbArc
 50
270.0
 51
0.0
  0
LINE
  5
4D1
330
1F
100
AcDbEntity
  8
LC-001-100-D00-0
 62
     7
370
    50
100
AcDbLine
 10
148.906788
 20
357.098446
 30
0.0
 11
76.906788
 21
357.098446
 31
0.0
  0
ARC
  5
4D2
330
1F
100
AcDbEntity
  8
LC-001-100-D00-0
 62
     7
370
    50
100
AcDbCircle
 10
76.906788
 20
362.098446
 30
0.0
 40
5.0
100
AcDbArc
 50
180.0
 51
270.0
  0
LINE
  5
4D3
330
1F
100
AcDbEntity
  8
LC-001-100-D00-0
 62
     7
370
    50
100
AcDbLine
 10
71.906788
 20
362.098446
 30
0.0
 11
71.906787
 21
423.098447
 31
0.0
  0
ARC
  5
4D4
330
1F
100
AcDbEntity
  8
LC-001-100-D00-0
 62
     7
370
    50
100
AcDbCircle
 10
153.400041
 20
423.966605
 30
0.0
 40
1.000373573444883
100
AcDbArc
 50
126.325165
 51
180.0
  0
LINE
  5
4D5
330
1F
100
AcDbEntity
  8
LC-001-100-D00-0
 62
     7
370
    50
100
AcDbLine
 10
152.807452
 20
424.772574
 30
0.0
 11
152.814398
 21
424.777682
 31
0.0
  0
LINE
  5
4D6
330
1F
100
AcDbEntity
  8
LC-001-100-D00-0
 62
     7
370
    50
100
AcDbLine
 10
152.399667
 20
423.098446
 30
0.0
 11
147.986184
 21
423.098446
 31
0.0
  0
LINE
  5
4D7
330
1F
100
AcDbEntity
  8
LC-001-100-D00-0
 62
     7
370
    50
100
AcDbLine
 10
152.399667
 20
423.966663
 30
0.0
 11
152.399667
 21
423.098446
 31
0.0
  0
LINE
  5
4D8
330
1F
100
AcDbEntity
  8
LC-001-100-D00-0
 62
     7
370
    50
100
AcDbLine
 10
73.413909
 20
423.966663
 30
0.0
 11
73.413909
 21
423.098446
 31
0.0
  0
LINE
  5
4D9
330
1F
100
AcDbEntity
  8
LC-001-100-D00-0
 62
     7
370
    50
100
AcDbLine
 10
77.827393
 20
423.098446
 30
0.0
 11
73.413909
 21
423.098446
 31
0.0
  0
ARC
  5
4DA
330
1F
100
AcDbEntity
  8
LC-001-100-D00-0
 62
     7
370
    50
100
AcDbCircle
 10
72.413562
 20
423.966618
 30
0.0
 40
1.000347039121834
100
AcDbArc
 50
0.0
 51
53.675603
  0
LINE
  5
4DB
330
1F
100
AcDbEntity
  8
LC-001-100-D00-0
 62
     7
370
    50
100
AcDbLine
 10
145.835154
 20
430.544215
 30
0.0
 11
145.835154
 21
423.098447
 31
0.0
  0
LINE
  5
4DC
330
1F
100
AcDbEntity
  8
LC-001-100-D00-0
 62
     7
370
    50
100
AcDbLine
 10
145.835153
 20
430.598446
 30
0.0
 11
152.621203
 21
430.598446
 31
0.0
  0
LINE
  5
4DD
330
1F
100
AcDbEntity
  8
LC-001-100-D00-0
 62
     7
370
    50
100
AcDbLine
 10
157.085491
 20
430.598446
 30
0.0
 11
160.730637
 21
430.598446
 31
0.0
  0
LINE
  5
4DE
330
1F
100
AcDbEntity
  8
LC-001-100-D00-0
 62
     7
370
    50
100
AcDbLine
 10
79.978422
 20
430.544215
 30
0.0
 11
79.978422
 21
423.098447
 31
0.0
  0
LINE
  5
4DF
330
1F
100
AcDbEntity
  8
LC-001-100-D00-0
 62
     7
370
    50
100
AcDbLine
 10
65.08294
 20
430.598446
 30
0.0
 11
68.728085
 21
430.598446
 31
0.0
  0
LINE
  5
4E0
330
1F
100
AcDbEntity
  8
LC-001-100-D00-0
 62
     7
370
    50
100
AcDbLine
 10
73.192373
 20
430.598446
 30
0.0
 11
79.978424
 21
430.598446
 31
0.0
  0
LINE
  5
4E1
330
1F
100
AcDbEntity
  8
LC-001-100-D00-0
 62
     7
370
    50
100
AcDbLine
 10
147.986184
 20
423.098446
 30
0.0
 11
141.919296
 21
423.098446
 31
0.0
  0
LINE
  5
4E2
330
1F
100
AcDbEntity
  8
LC-001-100-D00-0
 62
     7
370
    50
100
AcDbLine
 10
83.89428
 20
423.098446
 30
0.0
 11
77.827393
 21
423.098446
 31
0.0
  0
CIRCLE
  5
4E3
330
1F
100
AcDbEntity
  8
LC-001-100-D00-0
 62
     7
370
    50
100
AcDbCircle
 10
224.154584
 20
414.098446
 30
0.0
 40
2.000000000000227
  0
CIRCLE
  5
4E4
330
1F
100
AcDbEntity
  8
LC-001-100-D00-0
 62
     7
370
    50
100
AcDbCircle
 10
224.154584
 20
360.098446
 30
0.0
 40
2.000000000000114
  0
LINE
  5
4E5
330
1F
100
AcDbEntity
  8
LC-001-100-D00-0
 62
     7
370
    50
100
AcDbLine
 10
206.249126
 20
442.51326
 30
0.0
 11
188.415454
 21
437.734742
 31
0.0
  0
ARC
  5
4E6
330
1F
100
AcDbEntity
  8
LC-001-100-D00-0
 62
     7
370
    50
100
AcDbCircle
 10
187.380178
 20
441.598446
 30
0.0
 40
4.0
100
AcDbArc
 50
270.0
 51
285.0
  0
LINE
  5
4E7
330
1F
100
AcDbEntity
  8
LC-001-100-D00-0
 62
     7
370
    50
100
AcDbLine
 10
187.380178
 20
437.598446
 30
0.0
 11
170.706788
 21
437.598446
 31
0.0
  0
ARC
  5
4E8
330
1F
100
AcDbEntity
  8
LC-001-100-D00-0
 62
     7
370
    50
100
AcDbCircle
 10
170.706788
 20
436.598446
 30
0.0
 40
1.0
100
AcDbArc
 50
90.0
 51
180.0
  0
LINE
  5
4E9
330
1F
100
AcDbEntity
  8
LC-001-100-D00-0
 62
     7
370
    50
100
AcDbLine
 10
169.706788
 20
436.598446
 30
0.0
 11
169.706789
 21
432.598444
 31
0.0
  0
LINE
  5
4EA
330
1F
100
AcDbEntity
  8
LC-001-100-D00-0
 62
     7
370
    50
100
AcDbLine
 10
169.706789
 20
432.598444
 30
0.0
 11
168.206788
 21
432.598446
 31
0.0
  0
LINE
  5
4EB
330
1F
100
AcDbEntity
  8
LC-001-100-D00-0
 62
     7
370
    50
100
AcDbLine
 10
168.206788
 20
436.598446
 30
0.0
 11
168.206788
 21
432.598446
 31
0.0
  0
ARC
  5
4EC
330
1F
100
AcDbEntity
  8
LC-001-100-D00-0
 62
     7
370
    50
100
AcDbCircle
 10
170.706788
 20
436.598446
 30
0.0
 40
2.5
100
AcDbArc
 50
90.0
 51
180.0
  0
LINE
  5
4ED
330
1F
100
AcDbEntity
  8
LC-001-100-D00-0
 62
     7
370
    50
100
AcDbLine
 10
187.380178
 20
439.098446
 30
0.0
 11
170.706788
 21
439.098446
 31
0.0
  0
ARC
  5
4EE
330
1F
100
AcDbEntity
  8
LC-001-100-D00-0
 62
     7
370
    50
100
AcDbCircle
 10
187.380178
 20
441.598446
 30
0.0
 40
2.5
100
AcDbArc
 50
270.0
 51
285.0
  0
LINE
  5
4EF
330
1F
100
AcDbEntity
  8
LC-001-100-D00-0
 62
     7
370
    50
100
AcDbLine
 10
205.860897
 20
443.962149
 30
0.0
 11
188.027226
 21
439.183631
 31
0.0
  0
ARC
  5
4F0
330
1F
100
AcDbEntity
  8
LC-001-100-D00-0
 62
     7
370
    50
100
AcDbCircle
 10
206.896174
 20
440.098446
 30
0.0
 40
4.0
100
AcDbArc
 50
90.0
 51
105.0
  0
LINE
  5
4F1
330
1F
100
AcDbEntity
  8
LC-001-100-D00-0
 62
     7
370
    50
100
AcDbLine
 10
206.896174
 20
444.098446
 30
0.0
 11
208.406788
 21
444.098445
 31
0.0
  0
LINE
  5
4F2
330
1F
100
AcDbEntity
  8
LC-001-100-D00-0
 62
     7
370
    50
100
AcDbLine
 10
208.406788
 20
444.098445
 30
0.0
 11
208.406788
 21
445.498446
 31
0.0
  0
LINE
  5
4F3
330
1F
100
AcDbEntity
  8
LC-001-100-D00-0
 62
     7
370
    50
100
AcDbLine
 10
208.906788
 20
445.498446
 30
0.0
 11
208.406788
 21
445.498446
 31
0.0
  0
ARC
  5
4F4
330
1F
100
AcDbEntity
  8
LC-001-100-D00-0
 62
     7
370
    50
100
AcDbCircle
 10
207.906788
 20
446.998446
 30
0.0
 40
1.802775637732562
100
AcDbArc
 50
303.690068
 51
56.309932
  0
LINE
  5
4F5
330
1F
100
AcDbEntity
  8
LC-001-100-D00-0
 62
     7
370
    50
100
AcDbLine
 10
208.906789
 20
463.098446
 30
0.0
 11
208.906788
 21
448.498446
 31
0.0
  0
LINE
  5
4F6
330
1F
100
AcDbEntity
  8
LC-001-100-D00-0
 62
     7
370
    50
100
AcDbLine
 10
209.906791
 20
464.098446
 30
0.0
 11
208.906789
 21
463.098446
 31
0.0
  0
LINE
  5
4F7
330
1F
100
AcDbEntity
  8
LC-001-100-D00-0
 62
     7
370
    50
100
AcDbLine
 10
215.906788
 20
464.098446
 30
0.0
 11
209.906791
 21
464.098446
 31
0.0
  0
LINE
  5
4F8
330
1F
100
AcDbEntity
  8
LC-001-100-D00-0
 62
     7
370
    50
100
AcDbLine
 10
216.90679
 20
463.098446
 30
0.0
 11
215.906788
 21
464.098446
 31
0.0
  0
LINE
  5
4F9
330
1F
100
AcDbEntity
  8
LC-001-100-D00-0
 62
     7
370
    50
100
AcDbLine
 10
216.906788
 20
448.498446
 30
0.0
 11
216.90679
 21
463.098446
 31
0.0
  0
ARC
  5
4FA
330
1F
100
AcDbEntity
  8
LC-001-100-D00-0
 62
     7
370
    50
100
AcDbCircle
 10
217.906788
 20
446.998446
 30
0.0
 40
1.802775637731995
100
AcDbArc
 50
123.690068
 51
236.309932
  0
LINE
  5
4FB
330
1F
100
AcDbEntity
  8
LC-001-100-D00-0
 62
     7
370
    50
100
AcDbLine
 10
217.406791
 20
445.498446
 30
0.0
 11
216.906788
 21
445.498446
 31
0.0
  0
LINE
  5
4FC
330
1F
100
AcDbEntity
  8
LC-001-100-D00-0
 62
     7
370
    50
100
AcDbLine
 10
217.406791
 20
445.498446
 30
0.0
 11
217.406791
 21
444.098445
 31
0.0
  0
LINE
  5
4FD
330
1F
100
AcDbEntity
  8
LC-001-100-D00-0
 62
     7
370
    50
100
AcDbLine
 10
217.406791
 20
444.098445
 30
0.0
 11
393.406783
 21
444.098445
 31
0.0
  0
LINE
  5
4FE
330
1F
100
AcDbEntity
  8
LC-001-100-D00-0
 62
     7
370
    50
100
AcDbLine
 10
393.406783
 20
444.098445
 30
0.0
 11
393.406783
 21
445.498446
 31
0.0
  0
LINE
  5
4FF
330
1F
100
AcDbEntity
  8
LC-001-100-D00-0
 62
     7
370
    50
100
AcDbLine
 10
393.906788
 20
445.498446
 30
0.0
 11
393.406783
 21
445.498446
 31
0.0
  0
ARC
  5
500
330
1F
100
AcDbEntity
  8
LC-001-100-D00-0
 62
     7
370
    50
100
AcDbCircle
 10
392.906788
 20
446.998446
 30
0.0
 40
1.802775637732373
100
AcDbArc
 50
303.690068
 51
56.309932
  0
LINE
  5
501
330
1F
100
AcDbEntity
  8
LC-001-100-D00-0
 62
     7
370
    50
100
AcDbLine
 10
393.906777
 20
463.098446
 30
0.0
 11
393.906788
 21
448.498446
 31
0.0
  0
LINE
  5
502
330
1F
100
AcDbEntity
  8
LC-001-100-D00-0
 62
     7
370
    50
100
AcDbLine
 10
394.906793
 20
464.098446
 30
0.0
 11
393.906777
 21
463.098446
 31
0.0
  0
LINE
  5
503
330
1F
100
AcDbEntity
  8
LC-001-100-D00-0
 62
     7
370
    50
100
AcDbLine
 10
400.906776
 20
464.098446
 30
0.0
 11
394.906793
 21
464.098446
 31
0.0
  0
LINE
  5
504
330
1F
100
AcDbEntity
  8
LC-001-100-D00-0
 62
     7
370
    50
100
AcDbLine
 10
401.906793
 20
463.098446
 30
0.0
 11
400.906776
 21
464.098446
 31
0.0
  0
LINE
  5
505
330
1F
100
AcDbEntity
  8
LC-001-100-D00-0
 62
     7
370
    50
100
AcDbLine
 10
401.906788
 20
448.498446
 30
0.0
 11
401.906793
 21
463.098446
 31
0.0
  0
ARC
  5
506
330
1F
100
AcDbEntity
  8
LC-001-100-D00-0
 62
     7
370
    50
100
AcDbCircle
 10
402.906788
 20
446.998446
 30
0.0
 40
1.802775637732373
100
AcDbArc
 50
123.690068
 51
236.309932
  0
LINE
  5
507
330
1F
100
AcDbEntity
  8
LC-001-100-D00-0
 62
     7
370
    50
100
AcDbLine
 10
402.406786
 20
445.498446
 30
0.0
 11
401.906788
 21
445.498446
 31
0.0
  0
LINE
  5
508
330
1F
100
AcDbEntity
  8
LC-001-100-D00-0
 62
     7
370
    50
100
AcDbLine
 10
402.406786
 20
445.498446
 30
0.0
 11
402.406786
 21
444.098445
 31
0.0
  0
LINE
  5
509
330
1F
100
AcDbEntity
  8
LC-001-100-D00-0
 62
     7
370
    50
100
AcDbLine
 10
402.406786
 20
444.098445
 30
0.0
 11
578.406785
 21
444.098445
 31
0.0
  0
LINE
  5
50A
330
1F
100
AcDbEntity
  8
LC-001-100-D00-0
 62
     7
370
    50
100
AcDbLine
 10
578.406785
 20
444.098445
 30
0.0
 11
578.406785
 21
445.498446
 31
0.0
  0
LINE
  5
50B
330
1F
100
AcDbEntity
  8
LC-001-100-D00-0
 62
     7
370
    50
100
AcDbLine
 10
578.906788
 20
445.498446
 30
0.0
 11
578.406785
 21
445.498446
 31
0.0
  0
ARC
  5
50C
330
1F
100
AcDbEntity
  8
LC-001-100-D00-0
 62
     7
370
    50
100
AcDbCircle
 10
577.906788
 20
446.998446
 30
0.0
 40
1.802775637731868
100
AcDbArc
 50
303.690068
 51
56.309932
  0
LINE
  5
50D
330
1F
100
AcDbEntity
  8
LC-001-100-D00-0
 62
     7
370
    50
100
AcDbLine
 10
578.906779
 20
463.098446
 30
0.0
 11
578.906788
 21
448.498446
 31
0.0
  0
LINE
  5
50E
330
1F
100
AcDbEntity
  8
LC-001-100-D00-0
 62
     7
370
    50
100
AcDbLine
 10
579.906796
 20
464.098446
 30
0.0
 11
578.906779
 21
463.098446
 31
0.0
  0
LINE
  5
50F
330
1F
100
AcDbEntity
  8
LC-001-100-D00-0
 62
     7
370
    50
100
AcDbLine
 10
585.906778
 20
464.098446
 30
0.0
 11
579.906796
 21
464.098446
 31
0.0
  0
LINE
  5
510
330
1F
100
AcDbEntity
  8
LC-001-100-D00-0
 62
     7
370
    50
100
AcDbLine
 10
586.906795
 20
463.098446
 30
0.0
 11
585.906778
 21
464.098446
 31
0.0
  0
LINE
  5
511
330
1F
100
AcDbEntity
  8
LC-001-100-D00-0
 62
     7
370
    50
100
AcDbLine
 10
586.906788
 20
448.498446
 30
0.0
 11
586.906795
 21
463.098446
 31
0.0
  0
ARC
  5
512
330
1F
100
AcDbEntity
  8
LC-001-100-D00-0
 62
     7
370
    50
100
AcDbCircle
 10
587.906788
 20
446.998446
 30
0.0
 40
1.802775637731868
100
AcDbArc
 50
123.690068
 51
236.309932
  0
LINE
  5
513
330
1F
100
AcDbEntity
  8
LC-001-100-D00-0
 62
     7
370
    50
100
AcDbLine
 10
587.406789
 20
445.498446
 30
0.0
 11
586.906788
 21
445.498446
 31
0.0
  0
LINE
  5
514
330
1F
100
AcDbEntity
  8
LC-001-100-D00-0
 62
     7
370
    50
100
AcDbLine
 10
587.406789
 20
445.498446
 30
0.0
 11
587.406789
 21
444.098445
 31
0.0
  0
LINE
  5
515
330
1F
100
AcDbEntity
  8
LC-001-100-D00-0
 62
     7
370
    50
100
AcDbLine
 10
587.406789
 20
444.098445
 30
0.0
 11
604.906788
 21
444.098446
 31
0.0
  0
ARC
  5
516
330
1F
100
AcDbEntity
  8
LC-001-100-D00-0
 62
     7
370
    50
100
AcDbCircle
 10
604.906788
 20
452.098446
 30
0.0
 40
8.0
100
AcDbArc
 50
270.0
 51
0.0
  0
LINE
  5
517
330
1F
100
AcDbEntity
  8
LC-001-100-D00-0
 62
     7
370
    50
100
AcDbLine
 10
612.906788
 20
452.098446
 30
0.0
 11
612.906788
 21
461.598446
 31
0.0
  0
ARC
  5
518
330
1F
100
AcDbEntity
  8
LC-001-100-D00-0
 62
     7
370
    50
100
AcDbCircle
 10
615.906788
 20
461.598446
 30
0.0
 40
3.000000000000227
100
AcDbArc
 50
90.0
 51
180.0
  0
LINE
  5
519
330
1F
100
AcDbEntity
  8
LC-001-100-D00-0
 62
     7
370
    50
100
AcDbLine
 10
662.906788
 20
464.598446
 30
0.0
 11
615.906788
 21
464.598446
 31
0.0
  0
LINE
  5
51A
330
1F
100
AcDbEntity
  8
LC-001-100-D00-0
 62
     7
370
    50
100
AcDbLine
 10
662.9068
 20
463.098446
 30
0.0
 11
662.906788
 21
464.598446
 31
0.0
  0
LINE
  5
51B
330
1F
100
AcDbEntity
  8
LC-001-100-D00-0
 62
     7
370
    50
100
AcDbLine
 10
662.9068
 20
463.098446
 30
0.0
 11
615.906788
 21
463.098446
 31
0.0
  0
ARC
  5
51C
330
1F
100
AcDbEntity
  8
LC-001-100-D00-0
 62
     7
370
    50
100
AcDbCircle
 10
615.906788
 20
461.598446
 30
0.0
 40
1.5
100
AcDbArc
 50
90.0
 51
180.0
  0
LINE
  5
51D
330
1F
100
AcDbEntity
  8
LC-001-100-D00-0
 62
     7
370
    50
100
AcDbLine
 10
614.406788
 20
452.098446
 30
0.0
 11
614.406788
 21
461.598446
 31
0.0
  0
ARC
  5
51E
330
1F
100
AcDbEntity
  8
LC-001-100-D00-0
 62
     7
370
    50
100
AcDbCircle
 10
604.906788
 20
452.098446
 30
0.0
 40
9.500000000000227
100
AcDbArc
 50
270.0
 51
0.0
  0
LINE
  5
51F
330
1F
100
AcDbEntity
  8
LC-001-100-D00-0
 62
     7
370
    50
100
AcDbLine
 10
206.896174
 20
442.598446
 30
0.0
 11
604.906788
 21
442.598446
 31
0.0
  0
ARC
  5
520
330
1F
100
AcDbEntity
  8
LC-001-100-D00-0
 62
     7
370
    50
100
AcDbCircle
 10
206.896174
 20
440.098446
 30
0.0
 40
2.5
100
AcDbArc
 50
90.0
 51
105.0
  0
LINE
  5
521
330
1F
100
AcDbEntity
  8
LC-001-100-D00-0
 62
     7
370
    50
100
AcDbLine
 10
157.300672
 20
439.098446
 30
0.0
 11
170.706788
 21
439.098446
 31
0.0
  0
LINE
  5
522
330
1F
100
AcDbEntity
  8
LC-001-100-D00-0
 62
     7
370
    50
100
AcDbLine
 10
168.206788
 20
432.598446
 30
0.0
 11
168.156788
 21
432.598446
 31
0.0
  0
LINE
  5
523
330
1F
100
AcDbEntity
  8
LC-001-100-D00-0
 62
     7
370
    50
100
AcDbLine
 10
57.656788
 20
432.598446
 30
0.0
 11
57.606788
 21
432.598446
 31
0.0
  0
LINE
  5
524
330
1F
100
AcDbEntity
  8
LC-001-100-D00-0
 62
     7
370
    50
100
AcDbLine
 10
57.606788
 20
432.598446
 30
0.0
 11
57.606788
 21
436.598446
 31
0.0
  0
LINE
  5
525
330
1F
100
AcDbEntity
  8
LC-001-100-D00-0
 62
     7
370
    50
100
AcDbLine
 10
56.106788
 20
432.598444
 30
0.0
 11
56.106788
 21
436.598446
 31
0.0
  0
LINE
  5
526
330
1F
100
AcDbEntity
  8
LC-001-100-D00-0
 62
     7
370
    50
100
AcDbLine
 10
-352.593209
 20
445.498446
 30
0.0
 11
-353.093212
 21
445.498446
 31
0.0
  0
LINE
  5
527
330
1F
100
AcDbEntity
  8
LC-001-100-D00-0
 62
     7
370
    50
100
AcDbLine
 10
-352.593209
 20
445.498446
 30
0.0
 11
-352.593209
 21
444.098445
 31
0.0
  0
LINE
  5
528
330
1F
100
AcDbEntity
  8
LC-001-100-D00-0
 62
     7
370
    50
100
AcDbLine
 10
-352.593209
 20
444.098445
 30
0.0
 11
-176.59321
 21
444.098445
 31
0.0
  0
LINE
  5
529
330
1F
100
AcDbEntity
  8
LC-001-100-D00-0
 62
     7
370
    50
100
AcDbLine
 10
-176.59321
 20
444.098445
 30
0.0
 11
-176.59321
 21
445.498446
 31
0.0
  0
LINE
  5
52A
330
1F
100
AcDbEntity
  8
LC-001-100-D00-0
 62
     7
370
    50
100
AcDbLine
 10
-176.093212
 20
445.498446
 30
0.0
 11
-176.59321
 21
445.498446
 31
0.0
  0
ARC
  5
52B
330
1F
100
AcDbEntity
  8
LC-001-100-D00-0
 62
     7
370
    50
100
AcDbCircle
 10
-177.093212
 20
446.998446
 30
0.0
 40
1.802775637732278
100
AcDbArc
 50
303.690068
 51
56.309932
  0
LINE
  5
52C
330
1F
100
AcDbEntity
  8
LC-001-100-D00-0
 62
     7
370
    50
100
AcDbLine
 10
-176.093216
 20
463.098446
 30
0.0
 11
-176.093212
 21
448.498446
 31
0.0
  0
LINE
  5
52D
330
1F
100
AcDbEntity
  8
LC-001-100-D00-0
 62
     7
370
    50
100
AcDbLine
 10
-175.093199
 20
464.098446
 30
0.0
 11
-176.093216
 21
463.098446
 31
0.0
  0
LINE
  5
52E
330
1F
100
AcDbEntity
  8
LC-001-100-D00-0
 62
     7
370
    50
100
AcDbLine
 10
-169.093217
 20
464.098446
 30
0.0
 11
-175.093199
 21
464.098446
 31
0.0
  0
LINE
  5
52F
330
1F
100
AcDbEntity
  8
LC-001-100-D00-0
 62
     7
370
    50
100
AcDbLine
 10
-168.0932
 20
463.098446
 30
0.0
 11
-169.093217
 21
464.098446
 31
0.0
  0
LINE
  5
530
330
1F
100
AcDbEntity
  8
LC-001-100-D00-0
 62
     7
370
    50
100
AcDbLine
 10
-168.093212
 20
448.498446
 30
0.0
 11
-168.0932
 21
463.098446
 31
0.0
  0
ARC
  5
531
330
1F
100
AcDbEntity
  8
LC-001-100-D00-0
 62
     7
370
    50
100
AcDbCircle
 10
-167.093212
 20
446.998446
 30
0.0
 40
1.8027756377319
100
AcDbArc
 50
123.690068
 51
236.309932
  0
LINE
  5
532
330
1F
100
AcDbEntity
  8
LC-001-100-D00-0
 62
     7
370
    50
100
AcDbLine
 10
-167.593207
 20
445.498446
 30
0.0
 11
-168.093212
 21
445.498446
 31
0.0
  0
LINE
  5
533
330
1F
100
AcDbEntity
  8
LC-001-100-D00-0
 62
     7
370
    50
100
AcDbLine
 10
-167.593207
 20
445.498446
 30
0.0
 11
-167.593207
 21
444.098445
 31
0.0
  0
LINE
  5
534
330
1F
100
AcDbEntity
  8
LC-001-100-D00-0
 62
     7
370
    50
100
AcDbLine
 10
-167.593207
 20
444.098445
 30
0.0
 11
8.406785
 21
444.098445
 31
0.0
  0
LINE
  5
535
330
1F
100
AcDbEntity
  8
LC-001-100-D00-0
 62
     7
370
    50
100
AcDbLine
 10
8.406785
 20
444.098445
 30
0.0
 11
8.406785
 21
445.498446
 31
0.0
  0
LINE
  5
536
330
1F
100
AcDbEntity
  8
LC-001-100-D00-0
 62
     7
370
    50
100
AcDbLine
 10
8.906788
 20
445.498446
 30
0.0
 11
8.406785
 21
445.498446
 31
0.0
  0
ARC
  5
537
330
1F
100
AcDbEntity
  8
LC-001-100-D00-0
 62
     7
370
    50
100
AcDbCircle
 10
7.906788
 20
446.998446
 30
0.0
 40
1.80277563773231
100
AcDbArc
 50
303.690068
 51
56.309932
  0
LINE
  5
538
330
1F
100
AcDbEntity
  8
LC-001-100-D00-0
 62
     7
370
    50
100
AcDbLine
 10
8.906786
 20
463.098446
 30
0.0
 11
8.906788
 21
448.498446
 31
0.0
  0
LINE
  5
539
330
1F
100
AcDbEntity
  8
LC-001-100-D00-0
 62
     7
370
    50
100
AcDbLine
 10
9.906788
 20
464.098446
 30
0.0
 11
8.906786
 21
463.098446
 31
0.0
  0
LINE
  5
53A
330
1F
100
AcDbEntity
  8
LC-001-100-D00-0
 62
     7
370
    50
100
AcDbLine
 10
15.906785
 20
464.098446
 30
0.0
 11
9.906788
 21
464.098446
 31
0.0
  0
LINE
  5
53B
330
1F
100
AcDbEntity
  8
LC-001-100-D00-0
 62
     7
370
    50
100
AcDbLine
 10
16.906787
 20
463.098446
 30
0.0
 11
15.906785
 21
464.098446
 31
0.0
  0
LINE
  5
53C
330
1F
100
AcDbEntity
  8
LC-001-100-D00-0
 62
     7
370
    50
100
AcDbLine
 10
16.906788
 20
448.498446
 30
0.0
 11
16.906787
 21
463.098446
 31
0.0
  0
ARC
  5
53D
330
1F
100
AcDbEntity
  8
LC-001-100-D00-0
 62
     7
370
    50
100
AcDbCircle
 10
17.906788
 20
446.998446
 30
0.0
 40
1.802775637731932
100
AcDbArc
 50
123.690068
 51
236.309932
  0
LINE
  5
53E
330
1F
100
AcDbEntity
  8
LC-001-100-D00-0
 62
     7
370
    50
100
AcDbLine
 10
17.406788
 20
445.498446
 30
0.0
 11
16.906788
 21
445.498446
 31
0.0
  0
LINE
  5
53F
330
1F
100
AcDbEntity
  8
LC-001-100-D00-0
 62
     7
370
    50
100
AcDbLine
 10
17.406788
 20
445.498446
 30
0.0
 11
17.406788
 21
444.098445
 31
0.0
  0
LINE
  5
540
330
1F
100
AcDbEntity
  8
LC-001-100-D00-0
 62
     7
370
    50
100
AcDbLine
 10
17.406788
 20
444.098445
 30
0.0
 11
18.917403
 21
444.098446
 31
0.0
  0
ARC
  5
541
330
1F
100
AcDbEntity
  8
LC-001-100-D00-0
 62
     7
370
    50
100
AcDbCircle
 10
18.917403
 20
440.098446
 30
0.0
 40
4.000000000000092
100
AcDbArc
 50
75.0
 51
90.0
  0
LINE
  5
542
330
1F
100
AcDbEntity
  8
LC-001-100-D00-0
 62
     7
370
    50
100
AcDbLine
 10
37.786351
 20
439.183631
 30
0.0
 11
19.952679
 21
443.962149
 31
0.0
  0
ARC
  5
543
330
1F
100
AcDbEntity
  8
LC-001-100-D00-0
 62
     7
370
    50
100
AcDbCircle
 10
38.433398
 20
441.598446
 30
0.0
 40
2.500000000000062
100
AcDbArc
 50
255.0
 51
270.0
  0
LINE
  5
544
330
1F
100
AcDbEntity
  8
LC-001-100-D00-0
 62
     7
370
    50
100
AcDbLine
 10
43.82958
 20
439.098446
 30
0.0
 11
38.433398
 21
439.098446
 31
0.0
  0
LINE
  5
545
330
1F
100
AcDbEntity
  8
LC-001-100-D00-0
 62
     7
370
    50
100
AcDbLine
 10
43.82958
 20
438.998446
 30
0.0
 11
43.82958
 21
439.098446
 31
0.0
  0
LINE
  5
546
330
1F
100
AcDbEntity
  8
LC-001-100-D00-0
 62
     7
370
    50
100
AcDbLine
 10
44.353415
 20
438.998446
 30
0.0
 11
43.82958
 21
438.998446
 31
0.0
  0
LINE
  5
547
330
1F
100
AcDbEntity
  8
LC-001-100-D00-0
 62
     7
370
    50
100
AcDbLine
 10
44.353415
 20
439.098446
 30
0.0
 11
44.353415
 21
438.998446
 31
0.0
  0
LINE
  5
548
330
1F
100
AcDbEntity
  8
LC-001-100-D00-0
 62
     7
370
    50
100
AcDbLine
 10
45.04766
 20
439.098446
 30
0.0
 11
44.353415
 21
439.098446
 31
0.0
  0
LINE
  5
549
330
1F
100
AcDbEntity
  8
LC-001-100-D00-0
 62
     7
370
    50
100
AcDbLine
 10
45.04766
 20
438.998446
 30
0.0
 11
45.04766
 21
439.098446
 31
0.0
  0
LINE
  5
54A
330
1F
100
AcDbEntity
  8
LC-001-100-D00-0
 62
     7
370
    50
100
AcDbLine
 10
45.57201
 20
438.998446
 30
0.0
 11
45.04766
 21
438.998446
 31
0.0
  0
LINE
  5
54B
330
1F
100
AcDbEntity
  8
LC-001-100-D00-0
 62
     7
370
    50
100
AcDbLine
 10
45.57201
 20
439.098446
 30
0.0
 11
45.57201
 21
438.998446
 31
0.0
  0
LINE
  5
54C
330
1F
100
AcDbEntity
  8
LC-001-100-D00-0
 62
     7
370
    50
100
AcDbLine
 10
55.106788
 20
439.098446
 30
0.0
 11
45.57201
 21
439.098446
 31
0.0
  0
ARC
  5
54D
330
1F
100
AcDbEntity
  8
LC-001-100-D00-0
 62
     7
370
    50
100
AcDbCircle
 10
55.106788
 20
436.598446
 30
0.0
 40
2.5
100
AcDbArc
 50
0.0
 51
90.0
  0
LINE
  5
54E
330
1F
100
AcDbEntity
  8
LC-001-100-D00-0
 62
     7
370
    50
100
AcDbLine
 10
57.606788
 20
432.598446
 30
0.0
 11
56.106788
 21
432.598444
 31
0.0
  0
ARC
  5
54F
330
1F
100
AcDbEntity
  8
LC-001-100-D00-0
 62
     7
370
    50
100
AcDbCircle
 10
55.106788
 20
436.598446
 30
0.0
 40
0.9999999999998863
100
AcDbArc
 50
0.0
 51
90.0
  0
LINE
  5
550
330
1F
100
AcDbEntity
  8
LC-001-100-D00-0
 62
     7
370
    50
100
AcDbLine
 10
55.106788
 20
437.598446
 30
0.0
 11
38.433398
 21
437.598446
 31
0.0
  0
ARC
  5
551
330
1F
100
AcDbEntity
  8
LC-001-100-D00-0
 62
     7
370
    50
100
AcDbCircle
 10
38.433398
 20
441.598446
 30
0.0
 40
4.000000000000092
100
AcDbArc
 50
255.0
 51
270.0
  0
LINE
  5
552
330
1F
100
AcDbEntity
  8
LC-001-100-D00-0
 62
     7
370
    50
100
AcDbLine
 10
37.398122
 20
437.734742
 30
0.0
 11
19.564451
 21
442.51326
 31
0.0
  0
ARC
  5
553
330
1F
100
AcDbEntity
  8
LC-001-100-D00-0
 62
     7
370
    50
100
AcDbCircle
 10
18.917403
 20
440.098446
 30
0.0
 40
2.500000000000062
100
AcDbArc
 50
75.0
 51
90.0
  0
LINE
  5
554
330
1F
100
AcDbEntity
  8
LC-001-100-D00-0
 62
     7
370
    50
100
AcDbLine
 10
-379.093212
 20
442.598446
 30
0.0
 11
18.917403
 21
442.598446
 31
0.0
  0
ARC
  5
555
330
1F
100
AcDbEntity
  8
LC-001-100-D00-0
 62
     7
370
    50
100
AcDbCircle
 10
-379.093212
 20
452.098446
 30
0.0
 40
9.5
100
AcDbArc
 50
180.0
 51
270.0
  0
LINE
  5
556
330
1F
100
AcDbEntity
  8
LC-001-100-D00-0
 62
     7
370
    50
100
AcDbLine
 10
-388.593212
 20
461.598446
 30
0.0
 11
-388.593212
 21
452.098446
 31
0.0
  0
ARC
  5
557
330
1F
100
AcDbEntity
  8
LC-001-100-D00-0
 62
     7
370
    50
100
AcDbCircle
 10
-390.093212
 20
461.598446
 30
0.0
 40
1.500000000000057
100
AcDbArc
 50
0.0
 51
90.0
  0
LINE
  5
558
330
1F
100
AcDbEntity
  8
LC-001-100-D00-0
 62
     7
370
    50
100
AcDbLine
 10
-437.093212
 20
464.598446
 30
0.0
 11
-437.093224
 21
463.098446
 31
0.0
  0
ARC
  5
559
330
1F
100
AcDbEntity
  8
LC-001-100-D00-0
 62
     7
370
    50
100
AcDbCircle
 10
-390.093212
 20
461.598446
 30
0.0
 40
2.999999999999943
100
AcDbArc
 50
0.0
 51
90.0
  0
LINE
  5
55A
330
1F
100
AcDbEntity
  8
LC-001-100-D00-0
 62
     7
370
    50
100
AcDbLine
 10
-387.093212
 20
461.598446
 30
0.0
 11
-387.093212
 21
452.098446
 31
0.0
  0
ARC
  5
55B
330
1F
100
AcDbEntity
  8
LC-001-100-D00-0
 62
     7
370
    50
100
AcDbCircle
 10
-379.093212
 20
452.098446
 30
0.0
 40
8.000000000000114
100
AcDbArc
 50
180.0
 51
270.0
  0
LINE
  5
55C
330
1F
100
AcDbEntity
  8
LC-001-100-D00-0
 62
     7
370
    50
100
AcDbLine
 10
-379.093212
 20
444.098446
 30
0.0
 11
-361.593212
 21
444.098445
 31
0.0
  0
LINE
  5
55D
330
1F
100
AcDbEntity
  8
LC-001-100-D00-0
 62
     7
370
    50
100
AcDbLine
 10
-361.593212
 20
444.098445
 30
0.0
 11
-361.593212
 21
445.498446
 31
0.0
  0
LINE
  5
55E
330
1F
100
AcDbEntity
  8
LC-001-100-D00-0
 62
     7
370
    50
100
AcDbLine
 10
-361.093212
 20
445.498446
 30
0.0
 11
-361.593212
 21
445.498446
 31
0.0
  0
ARC
  5
55F
330
1F
100
AcDbEntity
  8
LC-001-100-D00-0
 62
     7
370
    50
100
AcDbCircle
 10
-362.093212
 20
446.998446
 30
0.0
 40
1.80277563773231
100
AcDbArc
 50
303.690068
 51
56.309932
  0
LINE
  5
560
330
1F
100
AcDbEntity
  8
LC-001-100-D00-0
 62
     7
370
    50
100
AcDbLine
 10
-361.093219
 20
463.098446
 30
0.0
 11
-361.093212
 21
448.498446
 31
0.0
  0
LINE
  5
561
330
1F
100
AcDbEntity
  8
LC-001-100-D00-0
 62
     7
370
    50
100
AcDbLine
 10
-360.093202
 20
464.098446
 30
0.0
 11
-361.093219
 21
463.098446
 31
0.0
  0
LINE
  5
562
330
1F
100
AcDbEntity
  8
LC-001-100-D00-0
 62
     7
370
    50
100
AcDbLine
 10
-354.093219
 20
464.098446
 30
0.0
 11
-360.093202
 21
464.098446
 31
0.0
  0
LINE
  5
563
330
1F
100
AcDbEntity
  8
LC-001-100-D00-0
 62
     7
370
    50
100
AcDbLine
 10
-353.093202
 20
463.098446
 30
0.0
 11
-354.093219
 21
464.098446
 31
0.0
  0
LINE
  5
564
330
1F
100
AcDbEntity
  8
LC-001-100-D00-0
 62
     7
370
    50
100
AcDbLine
 10
-353.093212
 20
448.498446
 30
0.0
 11
-353.093202
 21
463.098446
 31
0.0
  0
ARC
  5
565
330
1F
100
AcDbEntity
  8
LC-001-100-D00-0
 62
     7
370
    50
100
AcDbCircle
 10
-352.093212
 20
446.998446
 30
0.0
 40
1.8027756377319
100
AcDbArc
 50
123.690068
 51
236.309932
  0
LINE
  5
566
330
1F
100
AcDbEntity
  8
LC-001-100-D00-0
 62
     7
370
    50
100
AcDbLine
 10
-390.093212
 20
463.098446
 30
0.0
 11
-437.093224
 21
463.098446
 31
0.0
  0
LINE
  5
567
330
1F
100
AcDbEntity
  8
LC-001-100-D00-0
 62
     7
370
    50
100
AcDbLine
 10
-390.093212
 20
464.598446
 30
0.0
 11
-437.093212
 21
464.598446
 31
0.0
  0
LINE
  5
568
330
1F
100
AcDbEntity
  8
LC-001-100-D00-0
 62
     7
370
    50
100
AcDbLine
 10
68.512905
 20
439.098446
 30
0.0
 11
55.106788
 21
439.098446
 31
0.0
  0
LINE
  5
569
330
1F
100
AcDbEntity
  8
LC-001-100-D00-0
 62
     7
370
    50
100
AcDbLine
 10
45.04766
 20
439.098446
 30
0.0
 11
45.57201
 21
439.098446
 31
0.0
  0
LINE
  5
56A
330
1F
100
AcDbEntity
  8
LC-001-100-D00-0
 62
     7
370
    50
100
AcDbLine
 10
43.82958
 20
439.098446
 30
0.0
 11
44.353415
 21
439.098446
 31
0.0
  0
ELLIPSE
  5
56B
330
1F
100
AcDbEntity
  8
LC-001-100-D00-0
 62
     7
370
    50
100
AcDbEllipse
 10
467.928605
 20
440.098446
 30
0.0
 11
0.0
 21
-2.500000183105462
 31
0.0
210
0.0
220
0.0
230
1.0
 40
0.027578
 41
0.0000000000074203
 42
0.3217505544065027
  0
ELLIPSE
  5
56C
330
1F
100
AcDbEntity
  8
LC-001-100-D00-0
 62
     7
370
    50
100
AcDbEllipse
 10
-242.115029
 20
440.098446
 30
0.0
 11
0.0
 21
-2.500000003814981
 31
0.0
210
0.0
220
0.0
230
1.0
 40
0.027578
 41
5.961434752782921
 42
6.283185307179174
  0
LINE
  5
56D
330
1F
100
AcDbEntity
  8
LC-001-100-D00-0
 62
     7
370
    50
100
AcDbLine
 10
467.906778
 20
442.469793
 30
0.0
 11
467.906778
 21
437.804405
 31
0.0
  0
LINE
  5
56E
330
1F
100
AcDbEntity
  8
LC-001-100-D00-0
 62
     7
370
    50
100
AcDbLine
 10
-242.093201
 20
442.469793
 30
0.0
 11
-242.093201
 21
437.804405
 31
0.0
  0
INSERT
  5
578
330
1F
100
AcDbEntity
  8
LC-001-100-D00-0
 62
     7
370
    50
100
AcDbBlockReference
  2
KLON18
 10
0.0
 20
0.0
 30
0.0
  0
INSERT
  5
582
330
1F
100
AcDbEntity
  8
LC-001-100-D00-0
 62
     7
370
    50
100
AcDbBlockReference
  2
KLON19
 10
0.0
 20
0.0
 30
0.0
  0
LINE
  5
583
330
1F
100
AcDbEntity
  8
LC-001-100-D00-0
 62
     7
370
    50
100
AcDbLine
 10
467.906778
 20
437.598445
 30
0.0
 11
467.906748
 21
437.803712
 31
0.0
  0
LINE
  5
584
330
1F
100
AcDbEntity
  8
LC-001-100-D00-0
 62
     7
370
    50
100
AcDbLine
 10
467.906778
 20
437.598445
 30
0.0
 11
595.814471
 21
442.26661
 31
0.0
  0
LINE
  5
585
330
1F
100
AcDbEntity
  8
LC-001-100-D00-0
 62
     7
370
    50
100
AcDbLine
 10
-242.093201
 20
437.598445
 30
0.0
 11
-242.093171
 21
437.803712
 31
0.0
  0
LINE
  5
586
330
1F
100
AcDbEntity
  8
LC-001-100-D00-0
 62
     7
370
    50
100
AcDbLine
 10
-242.093201
 20
437.598445
 30
0.0
 11
-370.000894
 21
442.26661
 31
0.0
  0
LINE
  5
587
330
1F
100
AcDbEntity
  8
LC-001-100-D00-0
 62
     7
370
    50
100
AcDbLine
 10
154.692945
 20
430.598446
 30
0.0
 11
157.085491
 21
430.598446
 31
0.0
  0
LINE
  5
588
330
1F
100
AcDbEntity
  8
LC-001-100-D00-0
 62
     7
370
    50
100
AcDbLine
 10
158.056703
 20
429.098446
 30
0.0
 11
158.15229
 21
429.106506
 31
0.0
  0
LINE
  5
589
330
1F
100
AcDbEntity
  8
LC-001-100-D00-0
 62
     7
370
    50
100
AcDbLine
 10
158.056703
 20
429.098446
 30
0.0
 11
154.692945
 21
429.098446
 31
0.0
  0
LINE
  5
58A
330
1F
100
AcDbEntity
  8
LC-001-100-D00-0
 62
     7
370
    50
100
AcDbLine
 10
67.661286
 20
429.106506
 30
0.0
 11
67.756873
 21
429.098446
 31
0.0
  0
LINE
  5
58B
330
1F
100
AcDbEntity
  8
LC-001-100-D00-0
 62
     7
370
    50
100
AcDbLine
 10
71.120632
 20
429.098446
 30
0.0
 11
67.756873
 21
429.098446
 31
0.0
  0
LINE
  5
58C
330
1F
100
AcDbEntity
  8
LC-001-100-D00-0
 62
     7
370
    50
100
AcDbLine
 10
68.728085
 20
430.598446
 30
0.0
 11
71.120632
 21
430.598446
 31
0.0
  0
LINE
  5
58D
330
1F
100
AcDbEntity
  8
LC-001-100-D00-0
 62
     7
370
    50
100
AcDbLine
 10
154.692945
 20
429.098446
 30
0.0
 11
153.916017
 21
429.098446
 31
0.0
  0
LINE
  5
58E
330
1F
100
AcDbEntity
  8
LC-001-100-D00-0
 62
     7
370
    50
100
AcDbLine
 10
154.692945
 20
430.598446
 30
0.0
 11
153.916017
 21
430.598446
 31
0.0
  0
LINE
  5
58F
330
1F
100
AcDbEntity
  8
LC-001-100-D00-0
 62
     7
370
    50
100
AcDbLine
 10
71.120632
 20
429.098446
 30
0.0
 11
71.89756
 21
429.098446
 31
0.0
  0
LINE
  5
590
330
1F
100
AcDbEntity
  8
LC-001-100-D00-0
 62
     7
370
    50
100
AcDbLine
 10
71.120632
 20
430.598446
 30
0.0
 11
71.89756
 21
430.598446
 31
0.0
  0
LINE
  5
591
330
1F
100
AcDbEntity
  8
LC-001-100-D00-0
 62
     7
370
    50
100
AcDbLine
 10
187.380178
 20
437.598446
 30
0.0
 11
189.480779
 21
437.598445
 31
0.0
  0
LINE
  5
592
330
1F
100
AcDbEntity
  8
LC-001-100-D00-0
 62
     7
370
    50
100
AcDbLine
 10
38.433398
 20
437.598446
 30
0.0
 11
36.332798
 21
437.598445
 31
0.0
  0
LINE
  5
593
330
1F
100
AcDbEntity
  8
LC-001-100-D00-0
 62
     7
370
    50
100
AcDbLine
 10
153.916017
 20
429.098446
 30
0.0
 11
152.621203
 21
429.098446
 31
0.0
  0
LINE
  5
594
330
1F
100
AcDbEntity
  8
LC-001-100-D00-0
 62
     7
370
    50
100
AcDbLine
 10
152.637134
 20
430.598446
 30
0.0
 11
153.916017
 21
430.598446
 31
0.0
  0
LINE
  5
595
330
1F
100
AcDbEntity
  8
LC-001-100-D00-0
 62
     7
370
    50
100
AcDbLine
 10
73.192373
 20
429.098446
 30
0.0
 11
71.89756
 21
429.098446
 31
0.0
  0
LINE
  5
596
330
1F
100
AcDbEntity
  8
LC-001-100-D00-0
 62
     7
370
    50
100
AcDbLine
 10
71.89756
 20
430.598446
 30
0.0
 11
73.176442
 21
430.598446
 31
0.0
  0
LINE
  5
597
330
1F
100
AcDbEntity
  8
LC-001-100-D00-0
 62
     7
370
    50
100
AcDbLine
 10
189.480779
 20
437.598445
 30
0.0
 11
467.906778
 21
437.598445
 31
0.0
  0
LINE
  5
598
330
1F
100
AcDbEntity
  8
LC-001-100-D00-0
 62
     7
370
    50
100
AcDbLine
 10
36.332798
 20
437.598445
 30
0.0
 11
-242.093201
 21
437.598445
 31
0.0
  0
ARC
  5
599
330
1F
100
AcDbEntity
  8
LC-001-100-D00-0
 62
     7
370
    50
100
AcDbCircle
 10
157.422416
 20
430.532597
 30
0.0
 40
1.602014939990905
100
AcDbArc
 50
297.103406
 51
2.355668
  0
INSERT
  5
5A2
330
1F
100
AcDbEntity
  8
LC-001-100-D00-0
 62
     7
370
    50
100
AcDbBlockReference
  2
KLON20
 10
0.0
 20
0.0
 30
0.0
  0
INSERT
  5
5AF
330
1F
100
AcDbEntity
  8
LC-001-100-D00-0
 62
     7
370
    50
100
AcDbBlockReference
  2
KLON21
 10
0.0
 20
0.0
 30
0.0
  0
INSERT
  5
5BC
330
1F
100
AcDbEntity
  8
LC-001-100-D00-0
 62
     7
370
    50
100
AcDbBlockReference
  2
KLON22
 10
0.0
 20
0.0
 30
0.0
  0
LINE
  5
5BD
330
1F
100
AcDbEntity
  8
LC-001-100-D00-0
 62
     7
370
    50
100
AcDbLine
 10
610.406788
 20
464.598446
 30
0.0
 11
615.906788
 21
464.598446
 31
0.0
  0
LINE
  5
5BE
330
1F
100
AcDbEntity
  8
LC-001-100-D00-0
 62
     7
370
    50
100
AcDbLine
 10
-384.593212
 20
464.598446
 30
0.0
 11
-390.093212
 21
464.598446
 31
0.0
  0
LINE
  5
5BF
330
1F
100
AcDbEntity
  8
LC-001-100-D00-0
 62
     7
370
    50
100
AcDbLine
 10
610.406788
 20
464.598446
 30
0.0
 11
600.156788
 21
464.598446
 31
0.0
  0
LINE
  5
5C0
330
1F
100
AcDbEntity
  8
LC-001-100-D00-0
 62
     7
370
    50
100
AcDbLine
 10
565.656788
 20
464.598446
 30
0.0
 11
415.156788
 21
464.598446
 31
0.0
  0
LINE
  5
5C1
330
1F
100
AcDbEntity
  8
LC-001-100-D00-0
 62
     7
370
    50
100
AcDbLine
 10
380.656788
 20
464.598446
 30
0.0
 11
230.156788
 21
464.598446
 31
0.0
  0
LINE
  5
5C2
330
1F
100
AcDbEntity
  8
LC-001-100-D00-0
 62
     7
370
    50
100
AcDbLine
 10
195.656788
 20
464.598446
 30
0.0
 11
30.156788
 21
464.598446
 31
0.0
  0
LINE
  5
5C3
330
1F
100
AcDbEntity
  8
LC-001-100-D00-0
 62
     7
370
    50
100
AcDbLine
 10
-4.343212
 20
464.598446
 30
0.0
 11
-154.843212
 21
464.598446
 31
0.0
  0
LINE
  5
5C4
330
1F
100
AcDbEntity
  8
LC-001-100-D00-0
 62
     7
370
    50
100
AcDbLine
 10
-189.343212
 20
464.598446
 30
0.0
 11
-339.843212
 21
464.598446
 31
0.0
  0
LINE
  5
5C5
330
1F
100
AcDbEntity
  8
LC-001-100-D00-0
 62
     7
370
    50
100
AcDbLine
 10
-374.343212
 20
464.598446
 30
0.0
 11
-384.593212
 21
464.598446
 31
0.0
  0
LINE
  5
5C6
330
1F
100
AcDbEntity
  8
LC-001-100-D00-0
 62
     7
370
    50
100
AcDbLine
 10
-437.093212
 20
464.598446
 30
0.0
 11
-437.093212
 21
466.098446
 31
0.0
  0
LINE
  5
5C7
330
1F
100
AcDbEntity
  8
LC-001-100-D00-0
 62
     7
370
    50
100
AcDbLine
 10
662.906788
 20
466.098446
 30
0.0
 11
662.906788
 21
464.598446
 31
0.0
  0
ARC
  5
5C8
330
1F
100
AcDbEntity
  8
LC-001-100-D00-0
 62
     7
370
    50
100
AcDbCircle
 10
-432.093212
 20
505.598446
 30
0.0
 40
5.0
100
AcDbArc
 50
90.0
 51
180.0
  0
LINE
  5
5C9
330
1F
100
AcDbEntity
  8
LC-001-100-D00-0
 62
     7
370
    50
100
AcDbLine
 10
-432.093212
 20
510.598446
 30
0.0
 11
657.906788
 21
510.598446
 31
0.0
  0
ARC
  5
5CA
330
1F
100
AcDbEntity
  8
LC-001-100-D00-0
 62
     7
370
    50
100
AcDbCircle
 10
657.906788
 20
505.598446
 30
0.0
 40
5.0
100
AcDbArc
 50
0.0
 51
90.0
  0
LINE
  5
5CB
330
1F
100
AcDbEntity
  8
LC-001-100-D00-0
 62
     7
370
    50
100
AcDbLine
 10
-437.093212
 20
505.598446
 30
0.0
 11
-437.093212
 21
466.098446
 31
0.0
  0
LINE
  5
5CC
330
1F
100
AcDbEntity
  8
LC-001-100-D00-0
 62
     7
370
    50
100
AcDbLine
 10
662.906788
 20
505.598446
 30
0.0
 11
662.906788
 21
466.098446
 31
0.0
  0
DIMENSION
  5
5CD
330
1F
100
AcDbEntity
  8
LC-001-100-D00-0
 62
     7
370
    25
100
AcDbDimension
  2
*D27
 10
-484.949049
 20
510.598446
 30
0.0
 11
-539.949049
 21
526.478446
 31
0.0
 70
   160
  1
46
 71
     5
 42
46.0
 53
90.0
  3
LC-DIM-L-0100-02-02
100
AcDbAlignedDimension
 13
-437.093212
 23
464.598446
 33
0.0
 14
-432.093212
 24
510.598446
 34
0.0
 50
90.0
100
AcDbRotatedDimension
  0
DIMENSION
  5
5DB
330
1F
100
AcDbEntity
  8
LC-001-100-D00-0
 62
     7
370
    25
100
AcDbDimension
  2
*D28
 10
-63.089794
 20
423.098446
 30
0.0
 11
-118.089794
 21
397.677193
 31
0.0
 70
   160
  1
50
 71
     5
 42
50.4
 53
90.0
  3
LC-DIM-L-0100-02-02
100
AcDbAlignedDimension
 13
83.906788
 23
372.698446
 33
0.0
 14
79.978424
 24
423.098446
 34
0.0
 50
90.0
100
AcDbRotatedDimension
  0
DIMENSION
  5
5EA
330
1F
100
AcDbEntity
  8
LC-001-100-D00-0
 62
     7
370
    25
100
AcDbDimension
  2
*D29
 10
186.906788
 20
271.058446
 30
0.0
 11
103.53795
 21
326.058446
 31
0.0
 70
   160
  1
148
 71
     5
 42
148.0
  3
LC-DIM-L-0100-02-02
100
AcDbAlignedDimension
 13
38.906788
 23
373.598446
 33
0.0
 14
186.906788
 24
413.848446
 34
0.0
100
AcDbRotatedDimension
  0
DIMENSION
  5
5F7
330
1F
100
AcDbEntity
  8
LC-001-100-D00-0
 62
     7
370
    25
100
AcDbDimension
  2
*D30
 10
735.520027
 20
387.098446
 30
0.0
 11
680.520027
 21
352.733446
 31
0.0
 70
   160
  1
77.5
 71
     5
 42
77.5
 53
90.0
  3
LC-DIM-L-0100-02-02
100
AcDbAlignedDimension
 13
662.906788
 23
464.598446
 33
0.0
 14
328.906585
 24
387.098446
 34
0.0
 50
90.0
100
AcDbRotatedDimension
  0
DIMENSION
  5
605
330
1F
100
AcDbEntity
  8
LC-001-100-D00-0
 62
     7
370
    25
100
AcDbDimension
  2
*D31
 10
851.598368
 20
354.598446
 30
0.0
 11
796.598368
 21
395.798446
 31
0.0
 70
   160
  1
110
 71
     5
 42
110.0
 53
90.0
  3
LC-DIM-L-0100-02-02
100
AcDbAlignedDimension
 13
662.906788
 23
464.598446
 33
0.0
 14
166.924668
 24
354.598446
 34
0.0
 50
90.0
100
AcDbRotatedDimension
  0
INSERT
  5
61B
330
1F
100
AcDbEntity
  8
LC-001-100-D00-0
 62
     7
370
    50
100
AcDbBlockReference
  2
KLON23
 10
0.0
 20
0.0
 30
0.0
  0
INSERT
  5
623
330
1F
100
AcDbEntity
  8
LC-001-100-D00-0
 62
     7
370
    50
100
AcDbBlockReference
  2
KLON24
 10
0.0
 20
0.0
 30
0.0
  0
INSERT
  5
632
330
1F
100
AcDbEntity
  8
LC-001-100-D00-0
 62
     7
370
    50
100
AcDbBlockReference
  2
KLON25
 10
0.0
 20
0.0
 30
0.0
  0
LINE
  5
633
330
1F
100
AcDbEntity
  8
LC-001-100-D00-0
 62
     7
370
    50
100
AcDbLine
 10
174.328839
 20
433.598446
 30
0.0
 11
177.906788
 21
437.176395
 31
0.0
  0
INSERT
  5
639
330
1F
100
AcDbEntity
  8
LC-001-100-D00-0
 62
     7
370
    50
100
AcDbBlockReference
  2
KLON26
 10
0.0
 20
0.0
 30
0.0
  0
LINE
  5
63A
330
1F
100
AcDbEntity
  8
LC-001-100-D00-0
 62
     7
370
    50
100
AcDbLine
 10
38.906788
 20
432.880232
 30
0.0
 11
43.625002
 21
437.598446
 31
0.0
  0
INSERT
  5
64A
330
1F
100
AcDbEntity
  8
LC-001-100-D00-0
 62
     7
370
    50
100
AcDbBlockReference
  2
KLON27
 10
0.0
 20
0.0
 30
0.0
  0
INSERT
  5
650
330
1F
100
AcDbEntity
  8
LC-001-100-D00-0
 62
     7
370
    50
100
AcDbBlockReference
  2
KLON28
 10
0.0
 20
0.0
 30
0.0
  0
LINE
  5
651
330
1F
100
AcDbEntity
  8
LC-001-100-D00-0
 62
     7
370
    50
100
AcDbLine
 10
222.154753
 20
414.072439
 30
0.0
 11
224.180591
 21
416.098276
 31
0.0
  0
INSERT
  5
66E
330
1F
100
AcDbEntity
  8
LC-001-100-D00-0
 62
     7
370
    50
100
AcDbBlockReference
  2
KLON29
 10
0.0
 20
0.0
 30
0.0
  0
INSERT
  5
68B
330
1F
100
AcDbEntity
  8
LC-001-100-D00-0
 62
     7
370
    50
100
AcDbBlockReference
  2
KLON30
 10
0.0
 20
0.0
 30
0.0
  0
LINE
  5
68C
330
1F
100
AcDbEntity
  8
LC-001-100-D00-0
 62
     7
370
    50
100
AcDbLine
 10
573.156788
 20
450.765525
 30
0.0
 11
579.006788
 21
456.615525
 31
0.0
  0
INSERT
  5
692
330
1F
100
AcDbEntity
  8
LC-001-100-D00-0
 62
     7
370
    50
100
AcDbBlockReference
  2
KLON31
 10
0.0
 20
0.0
 30
0.0
  0
LINE
  5
693
330
1F
100
AcDbEntity
  8
LC-001-100-D00-0
 62
     7
370
    50
100
AcDbLine
 10
-352.48651
 20
445.598446
 30
0.0
 11
-350.742359
 21
447.342596
 31
0.0
  0
LINE
  5
694
330
1F
100
AcDbEntity
  8
LC-001-100-D00-0
 62
     7
370
    50
100
AcDbLine
 10
-366.843212
 20
453.692383
 30
0.0
 11
-360.993212
 21
459.542384
 31
0.0
  0
INSERT
  5
69A
330
1F
100
AcDbEntity
  8
LC-001-100-D00-0
 62
     7
370
    50
100
AcDbBlockReference
  2
KLON32
 10
0.0
 20
0.0
 30
0.0
  0
LINE
  5
69B
330
1F
100
AcDbEntity
  8
LC-001-100-D00-0
 62
     7
370
    50
100
AcDbLine
 10
-168.693212
 20
449.786628
 30
0.0
 11
-165.742359
 21
452.737481
 31
0.0
  0
LINE
  5
69C
330
1F
100
AcDbEntity
  8
LC-001-100-D00-0
 62
     7
370
    50
100
AcDbLine
 10
-181.843212
 20
459.087268
 30
0.0
 11
-176.332035
 21
464.598446
 31
0.0
  0
INSERT
  5
6A2
330
1F
100
AcDbEntity
  8
LC-001-100-D00-0
 62
     7
370
    50
100
AcDbBlockReference
  2
KLON33
 10
0.0
 20
0.0
 30
0.0
  0
LINE
  5
6A3
330
1F
100
AcDbEntity
  8
LC-001-100-D00-0
 62
     7
370
    50
100
AcDbLine
 10
392.706788
 20
449.920641
 30
0.0
 11
394.506788
 21
451.720641
 31
0.0
  0
INSERT
  5
6A9
330
1F
100
AcDbEntity
  8
LC-001-100-D00-0
 62
     7
370
    50
100
AcDbBlockReference
  2
KLON34
 10
0.0
 20
0.0
 30
0.0
  0
LINE
  5
6AA
330
1F
100
AcDbEntity
  8
LC-001-100-D00-0
 62
     7
370
    50
100
AcDbLine
 10
401.806788
 20
459.020641
 30
0.0
 11
407.384592
 21
464.598446
 31
0.0
  0
LINE
  5
6AB
330
1F
100
AcDbEntity
  8
LC-001-100-D00-0
 62
     7
370
    50
100
AcDbLine
 10
6.723722
 20
445.598446
 30
0.0
 11
9.506788
 21
448.381512
 31
0.0
  0
INSERT
  5
6B1
330
1F
100
AcDbEntity
  8
LC-001-100-D00-0
 62
     7
370
    50
100
AcDbBlockReference
  2
KLON35
 10
0.0
 20
0.0
 30
0.0
  0
LINE
  5
6B2
330
1F
100
AcDbEntity
  8
LC-001-100-D00-0
 62
     7
370
    50
100
AcDbLine
 10
16.806788
 20
455.681512
 30
0.0
 11
25.723721
 21
464.598446
 31
0.0
  0
LINE
  5
6B3
330
1F
100
AcDbEntity
  8
LC-001-100-D00-0
 62
     7
370
    50
100
AcDbLine
 10
202.31607
 20
461.585679
 30
0.0
 11
205.328837
 21
464.598446
 31
0.0
  0
INSERT
  5
6B9
330
1F
100
AcDbEntity
  8
LC-001-100-D00-0
 62
     7
370
    50
100
AcDbBlockReference
  2
KLON36
 10
0.0
 20
0.0
 30
0.0
  0
LINE
  5
6BA
330
1F
100
AcDbEntity
  8
LC-001-100-D00-0
  6
DASHDOT
 62
     7
370
    25
100
AcDbLine
 10
-357.093212
 20
436.598446
 30
0.0
 11
-357.093212
 21
470.598446
 31
0.0
  0
LINE
  5
6BB
330
1F
100
AcDbEntity
  8
LC-001-100-D00-0
  6
DASHDOT
 62
     7
370
    25
100
AcDbLine
 10
-172.093212
 20
436.598446
 30
0.0
 11
-172.093212
 21
470.598446
 31
0.0
  0
LINE
  5
6BC
330
1F
100
AcDbEntity
  8
LC-001-100-D00-0
  6
DASHDOT
 62
     7
370
    25
100
AcDbLine
 10
12.906788
 20
436.598446
 30
0.0
 11
12.906788
 21
470.598446
 31
0.0
  0
LINE
  5
6BD
330
1F
100
AcDbEntity
  8
LC-001-100-D00-0
  6
DASHDOT
 62
     7
370
    25
100
AcDbLine
 10
112.906788
 20
464.598446
 30
0.0
 11
112.906788
 21
352.098446
 31
0.0
  0
LINE
  5
6BE
330
1F
100
AcDbEntity
  8
LC-001-100-D00-0
  6
DASHDOT
 62
     7
370
    25
100
AcDbLine
 10
212.906788
 20
436.598446
 30
0.0
 11
212.906788
 21
470.598446
 31
0.0
  0
LINE
  5
6BF
330
1F
100
AcDbEntity
  8
LC-001-100-D00-0
  6
DASHDOT
 62
     7
370
    25
100
AcDbLine
 10
328.906585
 20
387.098446
 30
0.0
 11
225.88157
 21
387.098446
 31
0.0
  0
LINE
  5
6C0
330
1F
100
AcDbEntity
  8
LC-001-100-D00-0
  6
DASHDOT
 62
     7
370
    25
100
AcDbLine
 10
397.906788
 20
436.598446
 30
0.0
 11
397.906788
 21
470.598446
 31
0.0
  0
LINE
  5
6C1
330
1F
100
AcDbEntity
  8
LC-001-100-D00-0
  6
DASHDOT
 62
     7
370
    25
100
AcDbLine
 10
582.906788
 20
436.598446
 30
0.0
 11
582.906788
 21
470.598446
 31
0.0
  0
DIMENSION
  5
6C3
330
1F
100
AcDbEntity
  8
LC-002-003-----0
 62
     7
370
    25
100
AcDbDimension
  2
*D46
 10
662.906788
 20
648.703446
 30
0.0
 11
103.53795
 21
703.703446
 31
0.0
 70
   160
 71
     5
 42
1100.0
  3
LC-DIM-L-0100-02-02
100
AcDbAlignedDimension
 13
-437.093212
 23
505.598446
 33
0.0
 14
662.906788
 24
505.598446
 34
0.0
100
AcDbRotatedDimension
  0
DIMENSION
  5
6D0
330
1F
100
AcDbEntity
  8
LC-002-003-----0
 62
     7
370
    25
100
AcDbDimension
  2
*D47
 10
612.906788
 20
567.028446
 30
0.0
 11
108.696987
 21
622.028446
 31
0.0
 70
   160
 71
     5
 42
1000.0
  3
LC-DIM-L-0100-02-02
100
AcDbAlignedDimension
 13
-387.093212
 23
461.598446
 33
0.0
 14
612.906788
 24
461.598446
 34
0.0
100
AcDbRotatedDimension
  0
LINE
  5
6DE
102
{ACAD_REACTORS
330
735
102
}
330
1F
100
AcDbEntity
  8
LC-003-002-----0
 62
     7
370
    50
100
AcDbLine
 10
218.752822
 20
355.252042
 30
0.0
 11
207.021274
 21
354.098446
 31
0.0
  0
LINE
  5
6DF
102
{ACAD_REACTORS
330
735
102
}
330
1F
100
AcDbEntity
  8
LC-003-002-----0
 62
     7
370
    50
100
AcDbLine
 10
226.756803
 20
357.098446
 30
0.0
 11
266.521274
 21
357.098446
 31
0.0
  0
LINE
  5
6E0
102
{ACAD_REACTORS
330
735
102
}
330
1F
100
AcDbEntity
  8
LC-003-002-----0
 62
     7
370
    50
100
AcDbLine
 10
207.021274
 20
420.098446
 30
0.0
 11
207.021274
 21
416.868117
 31
0.0
  0
ARC
  5
6E2
102
{ACAD_REACTORS
330
735
102
}
330
1F
100
AcDbEntity
  8
LC-004-207-RND-0
 62
     7
370
    50
100
AcDbCircle
 10
208.021274
 20
357.328774
 30
0.0
 40
0.9999999999999977
100
AcDbArc
 50
75.858695
 51
180.0
  0
LINE
  5
6E3
102
{ACAD_REACTORS
330
735
102
}
330
1F
100
AcDbEntity
  8
LC-003-002-----0
 62
     7
370
    50
100
AcDbLine
 10
267.021274
 20
357.598446
 30
0.0
 11
267.021274
 21
358.598446
 31
0.0
  0
LINE
  5
6E4
102
{ACAD_REACTORS
330
735
102
}
330
1F
100
AcDbEntity
  8
LC-003-002-----0
 62
     7
370
    50
100
AcDbLine
 10
267.021274
 20
358.598446
 30
0.0
 11
267.021274
 21
415.598446
 31
0.0
  0
LINE
  5
6E5
102
{ACAD_REACTORS
330
735
102
}
330
1F
100
AcDbEntity
  8
LC-003-002-----0
 62
     7
370
    50
100
AcDbLine
 10
232.021274
 20
415.098446
 30
0.0
 11
232.021274
 21
414.598446
 31
0.0
  0
LINE
  5
6E6
102
{ACAD_REACTORS
330
735
102
}
330
1F
100
AcDbEntity
  8
LC-003-002-----0
 62
     7
370
    50
100
AcDbLine
 10
218.752822
 20
418.944849
 30
0.0
 11
207.021274
 21
420.098446
 31
0.0
  0
LINE
  5
6E7
102
{ACAD_REACTORS
330
735
102
}
330
1F
100
AcDbEntity
  8
LC-003-002-----0
 62
     7
370
    50
100
AcDbLine
 10
235.021274
 20
387.098446
 30
0.0
 11
235.021274
 21
412.866395
 31
0.0
  0
ARC
  5
6E8
102
{ACAD_REACTORS
330
735
102
}
330
1F
100
AcDbEntity
  8
LC-003-002-----0
 62
     7
370
    50
100
AcDbCircle
 10
215.621274
 20
387.098446
 30
0.0
 40
32.00000000000082
100
AcDbArc
 50
275.616003
 51
290.364135
  0
LINE
  5
6E9
102
{ACAD_REACTORS
330
735
102
}
330
1F
100
AcDbEntity
  8
LC-003-002-----0
 62
     7
370
    50
100
AcDbLine
 10
267.021274
 20
416.598446
 30
0.0
 11
267.021274
 21
415.598446
 31
0.0
  0
INSERT
  5
6F8
102
{ACAD_REACTORS
330
735
102
}
330
1F
100
AcDbEntity
  8
LC-005-005-----0
 62
     7
370
    25
100
AcDbBlockReference
  2
*X148
 10
0.0
 20
0.0
 30
0.0
  0
ARC
  5
6F9
102
{ACAD_REACTORS
330
735
102
}
330
1F
100
AcDbEntity
  8
LC-004-207-RND-0
 62
     7
370
    50
100
AcDbCircle
 10
208.021274
 20
416.868117
 30
0.0
 40
1.0
100
AcDbArc
 50
180.0
 51
284.141305
  0
LINE
  5
6FA
102
{ACAD_REACTORS
330
735
102
}
330
1F
100
AcDbEntity
  8
LC-003-002-----0
 62
     7
370
    50
100
AcDbLine
 10
266.521274
 20
415.098446
 30
0.0
 11
232.021274
 21
415.098446
 31
0.0
  0
LINE
  5
6FB
102
{ACAD_REACTORS
330
735
102
}
330
1F
100
AcDbEntity
  8
LC-003-002-----0
 62
     7
370
    50
100
AcDbLine
 10
226.756803
 20
417.098446
 30
0.0
 11
266.521274
 21
417.098446
 31
0.0
  0
LINE
  5
6FC
102
{ACAD_REACTORS
330
735
102
}
330
1F
100
AcDbEntity
  8
LC-003-002-----0
 62
     7
370
    50
100
AcDbLine
 10
267.021274
 20
358.598446
 30
0.0
 11
266.521274
 21
359.098446
 31
0.0
  0
LINE
  5
6FD
102
{ACAD_REACTORS
330
735
102
}
330
1F
100
AcDbEntity
  8
LC-003-002-----0
 62
     7
370
    50
100
AcDbLine
 10
266.521274
 20
357.098446
 30
0.0
 11
267.021274
 21
357.598446
 31
0.0
  0
LINE
  5
6FE
102
{ACAD_REACTORS
330
735
102
}
330
1F
100
AcDbEntity
  8
LC-003-002-----0
 62
     7
370
    50
100
AcDbLine
 10
235.021274
 20
361.330496
 30
0.0
 11
235.021274
 21
387.098446
 31
0.0
  0
INSERT
  5
70C
102
{ACAD_REACTORS
330
735
102
}
330
1F
100
AcDbEntity
  8
LC-005-005-----0
 62
     7
370
    25
100
AcDbBlockReference
  2
*X249
 10
0.0
 20
0.0
 30
0.0
  0
LINE
  5
70D
102
{ACAD_REACTORS
330
735
102
}
330
1F
100
AcDbEntity
  8
LC-003-002-----0
 62
     7
370
    50
100
AcDbLine
 10
266.521274
 20
359.098446
 30
0.0
 11
266.521274
 21
415.098446
 31
0.0
  0
ARC
  5
70E
102
{ACAD_REACTORS
330
735
102
}
330
1F
100
AcDbEntity
  8
LC-003-002-----0
 62
     7
370
    50
100
AcDbCircle
 10
215.621274
 20
387.098446
 30
0.0
 40
32.0000000000007
100
AcDbArc
 50
69.635865
 51
84.383997
  0
LINE
  5
70F
102
{ACAD_REACTORS
330
735
102
}
330
1F
100
AcDbEntity
  8
LC-003-002-----0
 62
     7
370
    50
100
AcDbLine
 10
267.021274
 20
415.598446
 30
0.0
 11
266.521274
 21
415.098446
 31
0.0
  0
LINE
  5
710
102
{ACAD_REACTORS
330
735
102
}
330
1F
100
AcDbEntity
  8
LC-003-002-----0
 62
     7
370
    50
100
AcDbLine
 10
266.521274
 20
359.098446
 30
0.0
 11
235.021274
 21
359.098446
 31
0.0
  0
LINE
  5
711
102
{ACAD_REACTORS
330
735
102
}
330
1F
100
AcDbEntity
  8
LC-003-002-----0
 62
     7
370
    50
100
AcDbLine
 10
266.521274
 20
417.098446
 30
0.0
 11
267.021274
 21
416.598446
 31
0.0
  0
LINE
  5
712
102
{ACAD_REACTORS
330
735
102
}
330
1F
100
AcDbEntity
  8
LC-003-002-----0
 62
     7
370
    50
100
AcDbLine
 10
232.021274
 20
414.598446
 30
0.0
 11
235.021274
 21
412.866395
 31
0.0
  0
LINE
  5
713
102
{ACAD_REACTORS
330
735
102
}
330
1F
100
AcDbEntity
  8
LC-003-002-----0
 62
     7
370
    50
100
AcDbLine
 10
235.021274
 20
359.098446
 30
0.0
 11
232.021274
 21
359.098446
 31
0.0
  0
LINE
  5
714
102
{ACAD_REACTORS
330
735
102
}
330
1F
100
AcDbEntity
  8
LC-003-002-----0
 62
     7
370
    50
100
AcDbLine
 10
232.021274
 20
359.598446
 30
0.0
 11
235.021274
 21
361.330496
 31
0.0
  0
LINE
  5
715
102
{ACAD_REACTORS
330
735
102
}
330
1F
100
AcDbEntity
  8
LC-003-002-----0
 62
     7
370
    50
100
AcDbLine
 10
232.021274
 20
359.098446
 30
0.0
 11
232.021274
 21
359.598446
 31
0.0
  0
ARC
  5
717
102
{ACAD_REACTORS
330
735
102
}
330
1F
100
AcDbEntity
  8
LC-006-207-----0
 62
     7
370
    50
100
AcDbCircle
 10
215.521718
 20
387.098446
 30
0.0
 40
29.70000000000019
100
AcDbArc
 50
48.962662
 51
104.141305
  0
ARC
  5
718
102
{ACAD_REACTORS
330
735
102
}
330
1F
100
AcDbEntity
  8
LC-006-207-----0
 62
     7
370
    50
100
AcDbCircle
 10
215.521718
 20
387.098446
 30
0.0
 40
29.70000000000007
100
AcDbArc
 50
255.858695
 51
311.037338
  0
LINE
  5
719
102
{ACAD_REACTORS
330
735
102
}
330
1F
100
AcDbEntity
  8
LC-003-002-----0
 62
     7
370
    50
100
AcDbLine
 10
207.021274
 20
357.328774
 30
0.0
 11
207.021274
 21
354.098446
 31
0.0
  0
DIMENSION
  5
71A
330
1F
100
AcDbEntity
  8
LC-002-003-----0
 62
     7
370
    25
100
AcDbDimension
  2
*D50
 10
356.291646
 20
359.098446
 30
0.0
 11
301.291646
 21
253.977098
 31
0.0
 70
   160
  1
%%c<>
 71
     5
 42
56.0
 53
90.0
  3
LC-DIM-L-0100-02-02
100
AcDbAlignedDimension
 13
266.521274
 23
415.098446
 33
0.0
 14
266.521274
 24
359.098446
 34
0.0
 50
90.0
100
AcDbRotatedDimension
  0
DIMENSION
  5
728
330
1F
100
AcDbEntity
  8
LC-002-003-----0
 62
     7
370
    25
100
AcDbDimension
  2
*D51
 10
267.021274
 20
180.000026
 30
0.0
 11
119.951283
 21
235.000026
 31
0.0
 70
   160
  1
228
 71
     5
 42
228.114486
  3
LC-DIM-L-0100-02-02
100
AcDbAlignedDimension
 13
38.906788
 23
373.598446
 33
0.0
 14
267.021274
 24
387.098446
 34
0.0
100
AcDbRotatedDimension
  0
ENDSEC
  0
SECTION
  2
OBJECTS
  0
DICTIONARY
  5
C
330
0
100
AcDbDictionary
281
     1
  3
ACAD_GROUP
350
D
  3
ACAD_LAYOUT
350
1A
  3
ACAD_MLINESTYLE
350
17
  3
ACAD_PLOTSETTINGS
350
19
  3
ACAD_PLOTSTYLENAME
350
E
  0
DICTIONARY
  5
D
102
{ACAD_REACTORS
330
C
102
}
330
C
100
AcDbDictionary
281
     1
  3
LCGROUP1360
350
735
  0
DICTIONARY
  5
1A
102
{ACAD_REACTORS
330
C
102
}
330
C
100
AcDbDictionary
281
     1
  3
Layout1
350
1E
  3
Layout2
350
26
  3
Model
350
22
  0
DICTIONARY
  5
17
102
{ACAD_REACTORS
330
C
102
}
330
C
100
AcDbDictionary
281
     1
  3
Standard
350
18
  0
DICTIONARY
  5
19
102
{ACAD_REACTORS
330
C
102
}
330
C
100
AcDbDictionary
281
     1
  0
ACDBDICTIONARYWDFLT
  5
E
102
{ACAD_REACTORS
330
C
102
}
330
C
100
AcDbDictionary
281
     1
  3
Normal
350
F
100
AcDbDictionaryWithDefault
340
F
  0
GROUP
  5
735
102
{ACAD_REACTORS
330
D
102
}
330
D
100
AcDbGroup
300
Spitzende bs
 70
     1
 71
     1
340
6DE
340
6DF
340
6E0
340
6E2
340
6E3
340
6E4
340
6E5
340
6E6
340
6E7
340
6E8
340
6E9
340
6F8
340
6F9
340
6FA
340
6FB
340
6FC
340
6FD
340
6FE
340
70C
340
70D
340
70E
340
70F
340
710
340
711
340
712
340
713
340
714
340
715
340
717
340
718
340
719
  0
LAYOUT
  5
1E
102
{ACAD_REACTORS
330
1A
102
}
330
1A
100
AcDbPlotSettings
  1

  2

  4

  6

 40
0.0
 41
0.0
 42
0.0
 43
0.0
 44
0.0
 45
0.0
 46
0.0
 47
0.0
 48
0.0
 49
0.0
140
0.0
141
0.0
142
1.0
143
1.0
 70
   688
 72
     0
 73
     0
 74
     5
  7

 75
    16
147
1.0
148
0.0
149
0.0
100
AcDbLayout
  1
Layout1
 70
     1
 71
     1
 10
-856.178896
 20
-611.031554
 11
1243.821104
 21
873.968446
 12
0.0
 22
0.0
 32
0.0
 14
-856.178896
 24
-611.031554
 34
0.0
 15
1243.821104
 25
873.968446
 35
0.0
146
0.0
 13
0.0
 23
0.0
 33
0.0
 16
1.0
 26
0.0
 36
0.0
 17
0.0
 27
1.0
 37
0.0
 76
     0
330
1B
  0
LAYOUT
  5
26
102
{ACAD_REACTORS
330
1A
102
}
330
1A
100
AcDbPlotSettings
  1

  2

  4

  6

 40
0.0
 41
0.0
 42
0.0
 43
0.0
 44
0.0
 45
0.0
 46
0.0
 47
0.0
 48
0.0
 49
0.0
140
0.0
141
0.0
142
1.0
143
1.0
 70
   688
 72
     0
 73
     0
 74
     5
  7

 75
    16
147
1.0
148
0.0
149
0.0
100
AcDbLayout
  1
Layout2
 70
     1
 71
     2
 10
0.0
 20
0.0
 11
0.0
 21
0.0
 12
0.0
 22
0.0
 32
0.0
 14
0.0
 24
0.0
 34
0.0
 15
0.0
 25
0.0
 35
0.0
146
0.0
 13
0.0
 23
0.0
 33
0.0
 16
1.0
 26
0.0
 36
0.0
 17
0.0
 27
1.0
 37
0.0
 76
     0
330
23
  0
LAYOUT
  5
22
102
{ACAD_REACTORS
330
1A
102
}
330
1A
100
AcDbPlotSettings
  1

  2

  4

  6

 40
0.0
 41
0.0
 42
0.0
 43
0.0
 44
0.0
 45
0.0
 46
0.0
 47
0.0
 48
0.0
 49
0.0
140
0.0
141
0.0
142
1.0
143
1.0
 70
  1776
 72
     0
 73
     0
 74
     0
  7

 75
     0
147
1.0
148
0.0
149
0.0
100
AcDbLayout
  1
Model
 70
     1
 71
     0
 10
-856.178896
 20
-611.031554
 11
1243.821104
 21
873.968446
 12
0.0
 22
0.0
 32
0.0
 14
-856.178896
 24
-611.031554
 34
0.0
 15
1243.821104
 25
873.968446
 35
0.0
146
0.0
 13
0.0
 23
0.0
 33
0.0
 16
1.0
 26
0.0
 36
0.0
 17
0.0
 27
1.0
 37
0.0
 76
     0
330
1F
  0
MLINESTYLE
  5
18
102
{ACAD_REACTORS
330
17
102
}
330
17
100
AcDbMlineStyle
  2
Standard
 70
     0
  3

 62
   256
 51
90.0
 52
90.0
 71
     2
 49
0.5
 62
   256
  6
BYLAYER
 49
-0.5
 62
   256
  6
BYLAYER
  0
ACDBPLACEHOLDER
  5
F
102
{ACAD_REACTORS
330
E
102
}
330
E
  0
ENDSEC
  0
EOF
