  0
SECTION
  2
HEADER
  9
$ACADVER
  1
AC1015
  9
$ACADMAINTVER
 70
     6
  9
$DWGCODEPAGE
  3
ANSI_1252
  9
$INSBASE
 10
0.0
 20
0.0
 30
0.0
  9
$EXTMIN
 10
-1304.026184
 20
-919.321046
 30
0.0
  9
$EXTMAX
 10
1665.973816
 20
1180.678954
 30
0.0
  9
$LIMMIN
 10
-1304.026184
 20
-919.321046
  9
$LIMMAX
 10
1665.973816
 20
1180.678954
  9
$ORTHOMODE
 70
     0
  9
$REGENMODE
 70
     1
  9
$FILLMODE
 70
     1
  9
$QTEXTMODE
 70
     0
  9
$MIRRTEXT
 70
     1
  9
$LTSCALE
 40
5.0
  9
$ATTMODE
 70
     1
  9
$TEXTSIZE
 40
2.5
  9
$TRACEWID
 40
1.0
  9
$TEXTSTYLE
  7
Standard
  9
$CLAYER
  8
0
  9
$CELTYPE
  6
ByLayer
  9
$CECOLOR
 62
     7
  9
$CELTSCALE
 40
1.0
  9
$DISPSILH
 70
     0
  9
$DIMSCALE
 40
5.0
  9
$DIMASZ
 40
3.5
  9
$DIMEXO
 40
0.625
  9
$DIMDLI
 40
3.75
  9
$DIMRND
 40
0.0
  9
$DIMDLE
 40
0.0
  9
$DIMEXE
 40
1.25
  9
$DIMTP
 40
0.0
  9
$DIMTM
 40
0.0
  9
$DIMTXT
 40
3.5
  9
$DIMCEN
 40
2.5
  9
$DIMTSZ
 40
0.0
  9
$DIMTOL
 70
     0
  9
$DIMLIM
 70
     0
  9
$DIMTIH
 70
     0
  9
$DIMTOH
 70
     0
  9
$DIMSE1
 70
     0
  9
$DIMSE2
 70
     0
  9
$DIMTAD
 70
     1
  9
$DIMZIN
 70
     8
  9
$DIMBLK
  1

  9
$DIMASO
 70
     1
  9
$DIMSHO
 70
     1
  9
$DIMPOST
  1

  9
$DIMAPOST
  1

  9
$DIMALT
 70
     0
  9
$DIMALTD
 70
     3
  9
$DIMALTF
 40
0.03937
  9
$DIMLFAC
 40
1.0
  9
$DIMTOFL
 70
     1
  9
$DIMTVP
 40
0.0
  9
$DIMTIX
 70
     0
  9
$DIMSOXD
 70
     0
  9
$DIMSAH
 70
     0
  9
$DIMBLK1
  1

  9
$DIMBLK2
  1

  9
$DIMSTYLE
  2
ISO-25
  9
$DIMCLRD
 70
     0
  9
$DIMCLRE
 70
     0
  9
$DIMCLRT
 70
     0
  9
$DIMTFAC
 40
1.0
  9
$DIMGAP
 40
0.625
  9
$DIMJUST
 70
     0
  9
$DIMSD1
 70
     0
  9
$DIMSD2
 70
     0
  9
$DIMTOLJ
 70
     0
  9
$DIMTZIN
 70
     8
  9
$DIMALTZ
 70
     0
  9
$DIMALTTZ
 70
     0
  9
$DIMUPT
 70
     0
  9
$DIMDEC
 70
     2
  9
$DIMTDEC
 70
     2
  9
$DIMALTU
 70
     2
  9
$DIMALTTD
 70
     3
  9
$DIMTXSTY
  7
Standard
  9
$DIMAUNIT
 70
     0
  9
$DIMADEC
 70
     0
  9
$DIMALTRND
 40
0.0
  9
$DIMAZIN
 70
     0
  9
$DIMDSEP
 70
    44
  9
$DIMATFIT
 70
     3
  9
$DIMFRAC
 70
     0
  9
$DIMLDRBLK
  1

  9
$DIMLUNIT
 70
     2
  9
$DIMLWD
 70
    -2
  9
$DIMLWE
 70
    -2
  9
$DIMTMOVE
 70
     0
  9
$LUNITS
 70
     2
  9
$LUPREC
 70
     4
  9
$SKETCHINC
 40
1.0
  9
$FILLETRAD
 40
10.0
  9
$AUNITS
 70
     0
  9
$AUPREC
 70
     0
  9
$MENU
  1
.
  9
$ELEVATION
 40
0.0
  9
$PELEVATION
 40
0.0
  9
$THICKNESS
 40
0.0
  9
$LIMCHECK
 70
     0
  9
$CHAMFERA
 40
10.0
  9
$CHAMFERB
 40
10.0
  9
$CHAMFERC
 40
20.0
  9
$CHAMFERD
 40
0.0
  9
$SKPOLY
 70
     0
  9
$TDCREATE
 40
2456015.506096933
  9
$TDUCREATE
 40
2456015.4227636
  9
$TDUPDATE
 40
2456015.506096944
  9
$TDUUPDATE
 40
2456015.422763611
  9
$TDINDWG
 40
0.0000000116
  9
$TDUSRTIMER
 40
0.0000000116
  9
$USRTIMER
 70
     1
  9
$ANGBASE
 50
0.0
  9
$ANGDIR
 70
     0
  9
$PDMODE
 70
     0
  9
$PDSIZE
 40
0.0
  9
$PLINEWID
 40
0.0
  9
$SPLFRAME
 70
     0
  9
$SPLINETYPE
 70
     6
  9
$SPLINESEGS
 70
     8
  9
$HANDSEED
  5
772
  9
$SURFTAB1
 70
     6
  9
$SURFTAB2
 70
     6
  9
$SURFTYPE
 70
     6
  9
$SURFU
 70
     6
  9
$SURFV
 70
     6
  9
$UCSBASE
  2

  9
$UCSNAME
  2

  9
$UCSORG
 10
0.0
 20
0.0
 30
0.0
  9
$UCSXDIR
 10
1.0
 20
0.0
 30
0.0
  9
$UCSYDIR
 10
0.0
 20
1.0
 30
0.0
  9
$UCSORTHOREF
  2

  9
$UCSORTHOVIEW
 70
     0
  9
$UCSORGTOP
 10
0.0
 20
0.0
 30
0.0
  9
$UCSORGBOTTOM
 10
0.0
 20
0.0
 30
0.0
  9
$UCSORGLEFT
 10
0.0
 20
0.0
 30
0.0
  9
$UCSORGRIGHT
 10
0.0
 20
0.0
 30
0.0
  9
$UCSORGFRONT
 10
0.0
 20
0.0
 30
0.0
  9
$UCSORGBACK
 10
0.0
 20
0.0
 30
0.0
  9
$PUCSBASE
  2

  9
$PUCSNAME
  2

  9
$PUCSORG
 10
0.0
 20
0.0
 30
0.0
  9
$PUCSXDIR
 10
1.0
 20
0.0
 30
0.0
  9
$PUCSYDIR
 10
0.0
 20
1.0
 30
0.0
  9
$PUCSORTHOREF
  2

  9
$PUCSORTHOVIEW
 70
     0
  9
$PUCSORGTOP
 10
0.0
 20
0.0
 30
0.0
  9
$PUCSORGBOTTOM
 10
0.0
 20
0.0
 30
0.0
  9
$PUCSORGLEFT
 10
0.0
 20
0.0
 30
0.0
  9
$PUCSORGRIGHT
 10
0.0
 20
0.0
 30
0.0
  9
$PUCSORGFRONT
 10
0.0
 20
0.0
 30
0.0
  9
$PUCSORGBACK
 10
0.0
 20
0.0
 30
0.0
  9
$USERI1
 70
     0
  9
$USERI2
 70
     0
  9
$USERI3
 70
     0
  9
$USERI4
 70
     0
  9
$USERI5
 70
     0
  9
$USERR1
 40
0.0
  9
$USERR2
 40
0.0
  9
$USERR3
 40
0.0
  9
$USERR4
 40
0.0
  9
$USERR5
 40
0.0
  9
$WORLDVIEW
 70
     1
  9
$SHADEDGE
 70
     3
  9
$SHADEDIF
 70
    70
  9
$TILEMODE
 70
     1
  9
$MAXACTVP
 70
    64
  9
$PINSBASE
 10
0.0
 20
0.0
 30
0.0
  9
$PLIMCHECK
 70
     0
  9
$PEXTMIN
 10
-1304.026184
 20
-919.321046
 30
0.0
  9
$PEXTMAX
 10
1665.973816
 20
1180.678954
 30
0.0
  9
$PLIMMIN
 10
-1304.026184
 20
-919.321046
  9
$PLIMMAX
 10
1665.973816
 20
1180.678954
  9
$UNITMODE
 70
     0
  9
$VISRETAIN
 70
     1
  9
$PLINEGEN
 70
     0
  9
$PSLTSCALE
 70
     1
  9
$TREEDEPTH
 70
  3020
  9
$CMLSTYLE
  2
Standard
  9
$CMLJUST
 70
     0
  9
$CMLSCALE
 40
20.0
  9
$PROXYGRAPHICS
 70
     1
  9
$MEASUREMENT
 70
     1
  9
$CELWEIGHT
370
    -1
  9
$ENDCAPS
280
     0
  9
$JOINSTYLE
280
     0
  9
$LWDISPLAY
290
     0
  9
$INSUNITS
 70
     4
  9
$HYPERLINKBASE
  1

  9
$STYLESHEET
  1

  9
$XEDIT
290
     1
  9
$CEPSNTYPE
380
     0
  9
$PSTYLEMODE
290
     1
  9
$FINGERPRINTGUID
  2
{FAEB1C30-E019-11D5-929B-00C0DF256EC4}
  9
$VERSIONGUID
  2
{FAEB1C32-E019-11D5-929B-00C0DF256EC4}
  9
$EXTNAMES
290
     1
  9
$PSVPSCALE
 40
0.0
  9
$OLESTARTUP
290
     0
  0
ENDSEC
  0
SECTION
  2
CLASSES
  0
CLASS
  1
ACDBDICTIONARYWDFLT
  2
AcDbDictionaryWithDefault
  3
ObjectDBX Classes
 90
        0
280
     0
281
     0
  0
CLASS
  1
ACDBPLACEHOLDER
  2
AcDbPlaceHolder
  3
ObjectDBX Classes
 90
        0
280
     0
281
     0
  0
CLASS
  1
LAYOUT
  2
AcDbLayout
  3
ObjectDBX Classes
 90
        0
280
     0
281
     0
  0
ENDSEC
  0
SECTION
  2
TABLES
  0
TABLE
  2
VPORT
  5
8
330
0
100
AcDbSymbolTable
 70
     2
  0
VPORT
  5
29
330
8
100
AcDbSymbolTableRecord
100
AcDbViewportTableRecord
  2
*ACTIVE
 70
     0
 10
0.0
 20
0.0
 11
1.0
 21
1.0
 12
180.973816
 22
130.678954
 13
0.0
 23
0.0
 14
1.0
 24
1.0
 15
0.0
 25
0.0
 16
0.0
 26
0.0
 36
1.0
 17
0.0
 27
0.0
 37
0.0
 40
2100.0
 41
1.414286
 42
50.0
 43
0.0
 44
0.0
 50
0.0
 51
0.0
 71
    16
 72
   100
 73
     1
 74
     0
 75
     0
 76
     0
 77
     0
 78
     0
281
     0
 65
     0
110
0.0
120
0.0
130
0.0
111
1.0
121
0.0
131
0.0
112
0.0
122
1.0
132
0.0
 79
     0
146
0.0
  0
ENDTAB
  0
TABLE
  2
LTYPE
  5
5
330
0
100
AcDbSymbolTable
 70
     3
  0
LTYPE
  5
14
330
5
100
AcDbSymbolTableRecord
100
AcDbLinetypeTableRecord
  2
ByBlock
 70
     0
  3

 72
    65
 73
     0
 40
0.0
  0
LTYPE
  5
15
330
5
100
AcDbSymbolTableRecord
100
AcDbLinetypeTableRecord
  2
ByLayer
 70
     0
  3

 72
    65
 73
     0
 40
0.0
  0
LTYPE
  5
16
330
5
100
AcDbSymbolTableRecord
100
AcDbLinetypeTableRecord
  2
Continuous
 70
     0
  3
Solid line
 72
    65
 73
     0
 40
0.0
  0
LTYPE
  5
2A
330
5
100
AcDbSymbolTableRecord
100
AcDbLinetypeTableRecord
  2
DASHED
 70
     0
  3
__ __ __ __ __
 72
    65
 73
     2
 40
6.25
 49
5.0
 74
     4
 75
     0
340
0
 46
1.0
 50
0.0
 44
0.0
 45
0.0
 49
-1.25
 74
     4
 75
     0
340
0
 46
1.0
 50
0.0
 44
0.0
 45
0.0
  0
LTYPE
  5
111
330
5
100
AcDbSymbolTableRecord
100
AcDbLinetypeTableRecord
  2
DASHDOT
 70
     0
  3
__ . __ . __ . __ . __
 72
    65
 73
     4
 40
7.5
 49
5.0
 74
     4
 75
     0
340
0
 46
1.0
 50
0.0
 44
0.0
 45
0.0
 49
-1.25
 74
     4
 75
     0
340
0
 46
1.0
 50
0.0
 44
0.0
 45
0.0
 49
0.0
 74
     4
 75
     0
340
0
 46
1.0
 50
0.0
 44
0.0
 45
0.0
 49
-1.25
 74
     4
 75
     0
340
0
 46
1.0
 50
0.0
 44
0.0
 45
0.0
  0
ENDTAB
  0
TABLE
  2
LAYER
  5
2
330
0
100
AcDbSymbolTable
 70
     7
  0
LAYER
  5
10
330
2
100
AcDbSymbolTableRecord
100
AcDbLayerTableRecord
  2
0
 70
     0
 62
     7
  6
Continuous
370
    -3
390
F
  0
LAYER
  5
2B
330
2
100
AcDbSymbolTableRecord
100
AcDbLayerTableRecord
  2
LC-INFO-1-5-mm-A2-0
 70
     1
 62
     7
  6
ByBlock
370
    -3
390
F
  0
LAYER
  5
2C
330
2
100
AcDbSymbolTableRecord
100
AcDbLayerTableRecord
  2
LC-CUT-HIDDEN
 70
     0
 62
     7
  6
DASHED
370
    -3
390
F
  0
LAYER
  5
2D
330
2
100
AcDbSymbolTableRecord
100
AcDbLayerTableRecord
  2
LC-VIEWPORT
 70
     0
 62
     7
  6
ByBlock
370
    -3
390
F
  0
LAYER
  5
2E
330
2
100
AcDbSymbolTableRecord
100
AcDbLayerTableRecord
  2
LC-3D-HIDDEN
 70
     0
 62
     9
  6
DASHED
370
    -3
390
F
  0
LAYER
  5
30
330
2
100
AcDbSymbolTableRecord
100
AcDbLayerTableRecord
  2
LC-001-100-D00-0
 70
     0
 62
     1
  6
ByBlock
370
    -3
390
F
  0
LAYER
  5
102
330
2
100
AcDbSymbolTableRecord
100
AcDbLayerTableRecord
  2
Defpoints
 70
     0
 62
     7
  6
Continuous
290
     0
370
    -3
390
F
  0
ENDTAB
  0
TABLE
  2
STYLE
  5
3
330
0
100
AcDbSymbolTable
 70
     3
  0
STYLE
  5
11
330
3
100
AcDbSymbolTableRecord
100
AcDbTextStyleTableRecord
  2
Standard
 70
     0
 40
0.0
 41
1.0
 50
0.0
 71
     0
 42
2.5
  3
txt
  4

  0
STYLE
  5
2F
330
3
100
AcDbSymbolTableRecord
100
AcDbTextStyleTableRecord
  2
LCTX15-400-0-0-Arial
 70
     0
 40
0.0
 41
0.8
 50
0.0
 71
     0
 42
3.5
  3

  4

1001
ACAD
1000
Arial
1071
 16777218
  0
STYLE
  5
FF
330
3
100
AcDbSymbolTableRecord
100
AcDbTextStyleTableRecord
  2
LCTX15-400-0-0pDIN-Schrift
 70
     0
 40
2.5
 41
0.8
 50
15.0
 71
     0
 42
3.5
  3
STANDARD
  4

  0
ENDTAB
  0
TABLE
  2
VIEW
  5
6
330
0
100
AcDbSymbolTable
 70
     0
  0
ENDTAB
  0
TABLE
  2
UCS
  5
7
330
0
100
AcDbSymbolTable
 70
     0
  0
ENDTAB
  0
TABLE
  2
APPID
  5
9
330
0
100
AcDbSymbolTable
 70
     1
  0
APPID
  5
12
330
9
100
AcDbSymbolTableRecord
100
AcDbRegAppTableRecord
  2
ACAD
 70
     0
  0
ENDTAB
  0
TABLE
  2
DIMSTYLE
  5
A
330
0
100
AcDbSymbolTable
 70
     2
100
AcDbDimStyleTable
  0
DIMSTYLE
105
27
330
A
100
AcDbSymbolTableRecord
100
AcDbDimStyleTableRecord
  2
ISO-25
 70
     0
 41
2.5
 42
0.625
 43
3.75
 44
1.25
 73
     0
 74
     0
 77
     1
 78
     8
140
2.5
141
2.5
143
0.03937
147
0.625
171
     3
172
     1
271
     2
272
     2
274
     3
278
    44
283
     0
284
     8
340
11
  0
DIMSTYLE
105
100
102
{ACAD_REACTORS
330
101
330
243
330
657
330
664
330
671
330
67F
330
68C
330
69A
330
6A9
330
6B8
102
}
330
A
100
AcDbSymbolTableRecord
100
AcDbDimStyleTableRecord
  2
LC-DIM-L-0100-02-02
 70
     0
 40
5.0
 41
10.0
 42
0.0
 43
7.5
 44
1.8
 73
     0
 74
     0
 77
     1
 78
     8
 79
     2
140
10.0
141
0.0
146
0.71
147
1.5
176
     2
177
     2
178
     2
179
     2
271
     2
278
    44
289
     1
340
FF
  0
ENDTAB
  0
TABLE
  2
BLOCK_RECORD
  5
1
330
0
100
AcDbSymbolTable
 70
    50
  0
BLOCK_RECORD
  5
1F
330
1
100
AcDbSymbolTableRecord
100
AcDbBlockTableRecord
  2
*Model_Space
340
22
  0
BLOCK_RECORD
  5
1B
330
1
100
AcDbSymbolTableRecord
100
AcDbBlockTableRecord
  2
*Paper_Space
340
1E
  0
BLOCK_RECORD
  5
23
330
1
100
AcDbSymbolTableRecord
100
AcDbBlockTableRecord
  2
*Paper_Space0
340
26
  0
BLOCK_RECORD
  5
103
330
1
100
AcDbSymbolTableRecord
100
AcDbBlockTableRecord
  2
*D1
340
0
  0
BLOCK_RECORD
  5
12C
330
1
100
AcDbSymbolTableRecord
100
AcDbBlockTableRecord
  2
KLON1
340
0
102
{BLKREFS
331
132
102
}
  0
BLOCK_RECORD
  5
133
330
1
100
AcDbSymbolTableRecord
100
AcDbBlockTableRecord
  2
KLON2
340
0
102
{BLKREFS
331
13A
102
}
  0
BLOCK_RECORD
  5
13C
330
1
100
AcDbSymbolTableRecord
100
AcDbBlockTableRecord
  2
KLON3
340
0
102
{BLKREFS
331
141
102
}
  0
BLOCK_RECORD
  5
142
330
1
100
AcDbSymbolTableRecord
100
AcDbBlockTableRecord
  2
KLON4
340
0
102
{BLKREFS
331
147
102
}
  0
BLOCK_RECORD
  5
148
330
1
100
AcDbSymbolTableRecord
100
AcDbBlockTableRecord
  2
KLON5
340
0
102
{BLKREFS
331
14D
102
}
  0
BLOCK_RECORD
  5
14F
330
1
100
AcDbSymbolTableRecord
100
AcDbBlockTableRecord
  2
KLON6
340
0
102
{BLKREFS
331
156
102
}
  0
BLOCK_RECORD
  5
157
330
1
100
AcDbSymbolTableRecord
100
AcDbBlockTableRecord
  2
KLON7
340
0
102
{BLKREFS
331
15D
102
}
  0
BLOCK_RECORD
  5
15F
330
1
100
AcDbSymbolTableRecord
100
AcDbBlockTableRecord
  2
KLON8
340
0
102
{BLKREFS
331
164
102
}
  0
BLOCK_RECORD
  5
172
330
1
100
AcDbSymbolTableRecord
100
AcDbBlockTableRecord
  2
KLON9
340
0
102
{BLKREFS
331
177
102
}
  0
BLOCK_RECORD
  5
178
330
1
100
AcDbSymbolTableRecord
100
AcDbBlockTableRecord
  2
KLON10
340
0
102
{BLKREFS
331
17D
102
}
  0
BLOCK_RECORD
  5
17F
330
1
100
AcDbSymbolTableRecord
100
AcDbBlockTableRecord
  2
KLON11
340
0
102
{BLKREFS
331
185
102
}
  0
BLOCK_RECORD
  5
186
330
1
100
AcDbSymbolTableRecord
100
AcDbBlockTableRecord
  2
KLON12
340
0
102
{BLKREFS
331
18C
102
}
  0
BLOCK_RECORD
  5
18D
330
1
100
AcDbSymbolTableRecord
100
AcDbBlockTableRecord
  2
KLON13
340
0
102
{BLKREFS
331
192
102
}
  0
BLOCK_RECORD
  5
193
330
1
100
AcDbSymbolTableRecord
100
AcDbBlockTableRecord
  2
KLON14
340
0
102
{BLKREFS
331
199
102
}
  0
BLOCK_RECORD
  5
19A
330
1
100
AcDbSymbolTableRecord
100
AcDbBlockTableRecord
  2
KLON15
340
0
102
{BLKREFS
331
1A0
102
}
  0
BLOCK_RECORD
  5
1A1
330
1
100
AcDbSymbolTableRecord
100
AcDbBlockTableRecord
  2
KLON16
340
0
102
{BLKREFS
331
1A6
102
}
  0
BLOCK_RECORD
  5
244
330
1
100
AcDbSymbolTableRecord
100
AcDbBlockTableRecord
  2
*D18
340
0
  0
BLOCK_RECORD
  5
455
330
1
100
AcDbSymbolTableRecord
100
AcDbBlockTableRecord
  2
KLON17
340
0
102
{BLKREFS
331
465
102
}
  0
BLOCK_RECORD
  5
466
330
1
100
AcDbSymbolTableRecord
100
AcDbBlockTableRecord
  2
KLON18
340
0
102
{BLKREFS
331
479
102
}
  0
BLOCK_RECORD
  5
47D
330
1
100
AcDbSymbolTableRecord
100
AcDbBlockTableRecord
  2
KLON19
340
0
102
{BLKREFS
331
482
102
}
  0
BLOCK_RECORD
  5
5AB
330
1
100
AcDbSymbolTableRecord
100
AcDbBlockTableRecord
  2
KLON20
340
0
102
{BLKREFS
331
5B4
102
}
  0
BLOCK_RECORD
  5
5B5
330
1
100
AcDbSymbolTableRecord
100
AcDbBlockTableRecord
  2
KLON21
340
0
102
{BLKREFS
331
5BE
102
}
  0
BLOCK_RECORD
  5
5D7
330
1
100
AcDbSymbolTableRecord
100
AcDbBlockTableRecord
  2
KLON22
340
0
102
{BLKREFS
331
5DF
102
}
  0
BLOCK_RECORD
  5
5E0
330
1
100
AcDbSymbolTableRecord
100
AcDbBlockTableRecord
  2
KLON23
340
0
102
{BLKREFS
331
5EC
102
}
  0
BLOCK_RECORD
  5
5ED
330
1
100
AcDbSymbolTableRecord
100
AcDbBlockTableRecord
  2
KLON24
340
0
102
{BLKREFS
331
5F9
102
}
  0
BLOCK_RECORD
  5
658
330
1
100
AcDbSymbolTableRecord
100
AcDbBlockTableRecord
  2
*D27
340
0
  0
BLOCK_RECORD
  5
665
330
1
100
AcDbSymbolTableRecord
100
AcDbBlockTableRecord
  2
*D28
340
0
  0
BLOCK_RECORD
  5
672
330
1
100
AcDbSymbolTableRecord
100
AcDbBlockTableRecord
  2
*D29
340
0
  0
BLOCK_RECORD
  5
680
330
1
100
AcDbSymbolTableRecord
100
AcDbBlockTableRecord
  2
*D30
340
0
  0
BLOCK_RECORD
  5
68D
330
1
100
AcDbSymbolTableRecord
100
AcDbBlockTableRecord
  2
*D31
340
0
  0
BLOCK_RECORD
  5
69B
330
1
100
AcDbSymbolTableRecord
100
AcDbBlockTableRecord
  2
*D32
340
0
  0
BLOCK_RECORD
  5
6AA
330
1
100
AcDbSymbolTableRecord
100
AcDbBlockTableRecord
  2
*D33
340
0
  0
BLOCK_RECORD
  5
6B9
330
1
100
AcDbSymbolTableRecord
100
AcDbBlockTableRecord
  2
*D34
340
0
  0
BLOCK_RECORD
  5
6C5
330
1
100
AcDbSymbolTableRecord
100
AcDbBlockTableRecord
  2
KLON25
340
0
102
{BLKREFS
331
6D1
102
}
  0
BLOCK_RECORD
  5
6D2
330
1
100
AcDbSymbolTableRecord
100
AcDbBlockTableRecord
  2
KLON26
340
0
102
{BLKREFS
331
6D8
102
}
  0
BLOCK_RECORD
  5
6D9
330
1
100
AcDbSymbolTableRecord
100
AcDbBlockTableRecord
  2
KLON27
340
0
102
{BLKREFS
331
6DF
102
}
  0
BLOCK_RECORD
  5
6E0
330
1
100
AcDbSymbolTableRecord
100
AcDbBlockTableRecord
  2
KLON28
340
0
102
{BLKREFS
331
6F8
102
}
  0
BLOCK_RECORD
  5
6F9
330
1
100
AcDbSymbolTableRecord
100
AcDbBlockTableRecord
  2
KLON29
340
0
102
{BLKREFS
331
712
102
}
  0
BLOCK_RECORD
  5
713
330
1
100
AcDbSymbolTableRecord
100
AcDbBlockTableRecord
  2
KLON30
340
0
102
{BLKREFS
331
718
102
}
  0
BLOCK_RECORD
  5
719
330
1
100
AcDbSymbolTableRecord
100
AcDbBlockTableRecord
  2
KLON31
340
0
102
{BLKREFS
331
720
102
}
  0
BLOCK_RECORD
  5
721
330
1
100
AcDbSymbolTableRecord
100
AcDbBlockTableRecord
  2
KLON32
340
0
102
{BLKREFS
331
72F
102
}
  0
BLOCK_RECORD
  5
730
330
1
100
AcDbSymbolTableRecord
100
AcDbBlockTableRecord
  2
KLON33
340
0
102
{BLKREFS
331
735
102
}
  0
BLOCK_RECORD
  5
738
330
1
100
AcDbSymbolTableRecord
100
AcDbBlockTableRecord
  2
KLON34
340
0
102
{BLKREFS
331
73D
102
}
  0
BLOCK_RECORD
  5
740
330
1
100
AcDbSymbolTableRecord
100
AcDbBlockTableRecord
  2
KLON35
340
0
102
{BLKREFS
331
745
102
}
  0
BLOCK_RECORD
  5
748
330
1
100
AcDbSymbolTableRecord
100
AcDbBlockTableRecord
  2
KLON36
340
0
102
{BLKREFS
331
74D
102
}
  0
BLOCK_RECORD
  5
750
330
1
100
AcDbSymbolTableRecord
100
AcDbBlockTableRecord
  2
KLON37
340
0
102
{BLKREFS
331
755
102
}
  0
BLOCK_RECORD
  5
758
330
1
100
AcDbSymbolTableRecord
100
AcDbBlockTableRecord
  2
KLON38
340
0
102
{BLKREFS
331
75D
102
}
  0
BLOCK_RECORD
  5
760
330
1
100
AcDbSymbolTableRecord
100
AcDbBlockTableRecord
  2
KLON39
340
0
102
{BLKREFS
331
765
102
}
  0
ENDTAB
  0
ENDSEC
  0
SECTION
  2
BLOCKS
  0
BLOCK
  5
20
330
1F
100
AcDbEntity
  8
0
100
AcDbBlockBegin
  2
*Model_Space
 70
     0
 71
     0
 10
0.0
 20
0.0
 30
0.0
  3
*Model_Space
  1

  0
ENDBLK
  5
21
330
1F
100
AcDbEntity
  8
0
100
AcDbBlockEnd
  0
BLOCK
  5
1C
330
1B
100
AcDbEntity
 67
     1
  8
0
100
AcDbBlockBegin
  2
*Paper_Space
 70
     0
 71
     0
 10
0.0
 20
0.0
 30
0.0
  3
*Paper_Space
  1

  0
ENDBLK
  5
1D
330
1B
100
AcDbEntity
 67
     1
  8
0
100
AcDbBlockEnd
  0
BLOCK
  5
24
330
23
100
AcDbEntity
  8
0
100
AcDbBlockBegin
  2
*Paper_Space0
 70
     0
 71
     0
 10
0.0
 20
0.0
 30
0.0
  3
*Paper_Space0
  1

  0
ENDBLK
  5
25
330
23
100
AcDbEntity
  8
0
100
AcDbBlockEnd
  0
BLOCK
  5
10F
330
103
100
AcDbEntity
  8
0
100
AcDbBlockBegin
  2
*D1
 70
     1
 71
     0
 10
0.0
 20
0.0
 30
0.0
  3
*D1
  1

  0
LINE
  5
104
330
103
100
AcDbEntity
  8
LC-001-100-D00-0
 62
     2
370
    -2
100
AcDbLine
 10
933.668015
 20
278.918954
 30
0.0
 11
933.668015
 21
178.228234
 31
0.0
  0
LINE
  5
105
330
103
100
AcDbEntity
  8
LC-001-100-D00-0
 62
     2
370
    -2
100
AcDbLine
 10
1014.668015
 20
278.918954
 30
0.0
 11
1014.668015
 21
178.228234
 31
0.0
  0
LINE
  5
106
330
103
100
AcDbEntity
  8
LC-001-100-D00-0
 62
     2
370
    -2
100
AcDbLine
 10
883.668015
 20
187.228234
 30
0.0
 11
833.668015
 21
187.228234
 31
0.0
  0
LINE
  5
107
330
103
100
AcDbEntity
  8
LC-001-100-D00-0
 62
     2
370
    -2
100
AcDbLine
 10
1064.668015
 20
187.228234
 30
0.0
 11
1114.668015
 21
187.228234
 31
0.0
  0
LINE
  5
108
330
103
100
AcDbEntity
  8
LC-001-100-D00-0
 62
     2
370
    -2
100
AcDbLine
 10
933.668015
 20
187.228234
 30
0.0
 11
1014.668015
 21
187.228234
 31
0.0
  0
SOLID
  5
109
330
103
100
AcDbEntity
  8
LC-001-100-D00-0
 62
     2
100
AcDbTrace
 10
883.668015
 20
178.894901
 30
0.0
 11
883.668015
 21
195.561567
 31
0.0
 12
933.668015
 22
187.228234
 32
0.0
 13
933.668015
 23
187.228234
 33
0.0
  0
SOLID
  5
10A
330
103
100
AcDbEntity
  8
LC-001-100-D00-0
 62
     2
100
AcDbTrace
 10
1064.668015
 20
195.561567
 30
0.0
 11
1064.668015
 21
178.894901
 31
0.0
 12
1014.668015
 22
187.228234
 32
0.0
 13
1014.668015
 23
187.228234
 33
0.0
  0
MTEXT
  5
10B
330
103
100
AcDbEntity
  8
LC-001-100-D00-0
 62
     2
100
AcDbMText
 10
975.000158
 20
242.228234
 30
0.0
 40
50.0
 41
0.0
 71
     5
 72
     1
  1
\A1;81
  7
LCTX15-400-0-0pDIN-Schrift
 73
     1
 44
1.0
  0
POINT
  5
10C
330
103
100
AcDbEntity
  8
Defpoints
 62
     0
100
AcDbPoint
 10
933.668015
 20
278.918954
 30
0.0
  0
POINT
  5
10D
330
103
100
AcDbEntity
  8
Defpoints
 62
     0
100
AcDbPoint
 10
1014.668015
 20
278.918954
 30
0.0
  0
POINT
  5
10E
330
103
100
AcDbEntity
  8
Defpoints
 62
     0
100
AcDbPoint
 10
1014.668015
 20
187.228234
 30
0.0
  0
ENDBLK
  5
110
330
103
100
AcDbEntity
  8
0
100
AcDbBlockEnd
  0
BLOCK
  5
12D
330
12C
100
AcDbEntity
  8
0
100
AcDbBlockBegin
  2
KLON1
 70
     0
 71
     0
 10
0.0
 20
0.0
 30
0.0
  3
KLON1
  1

  4
KLON1
  0
LINE
  5
12F
330
12C
100
AcDbEntity
  8
LC-001-100-D00-0
 62
     7
370
    15
100
AcDbLine
 10
457.678187
 20
8.19573
 30
0.0
 11
457.675951
 21
8.181444
 31
0.0
  0
LINE
  5
130
330
12C
100
AcDbEntity
  8
LC-001-100-D00-0
 62
     7
370
    15
100
AcDbLine
 10
457.675951
 20
8.181444
 30
0.0
 11
457.664656
 21
8.109137
 31
0.0
  0
LINE
  5
131
330
12C
100
AcDbEntity
  8
LC-001-100-D00-0
 62
     7
370
    15
100
AcDbLine
 10
457.664656
 20
8.109137
 30
0.0
 11
457.65202
 21
8.028256
 31
0.0
  0
ENDBLK
  5
12E
330
12C
100
AcDbEntity
  8
0
100
AcDbBlockEnd
  0
BLOCK
  5
134
330
133
100
AcDbEntity
  8
0
100
AcDbBlockBegin
  2
KLON2
 70
     0
 71
     0
 10
0.0
 20
0.0
 30
0.0
  3
KLON2
  1

  4
KLON2
  0
LINE
  5
136
330
133
100
AcDbEntity
  8
LC-001-100-D00-0
 62
     7
370
    15
100
AcDbLine
 10
457.65202
 20
32.673594
 30
0.0
 11
457.664656
 21
32.592713
 31
0.0
  0
LINE
  5
137
330
133
100
AcDbEntity
  8
LC-001-100-D00-0
 62
     7
370
    15
100
AcDbLine
 10
457.664656
 20
32.592713
 30
0.0
 11
457.673448
 21
32.536504
 31
0.0
  0
LINE
  5
138
330
133
100
AcDbEntity
  8
LC-001-100-D00-0
 62
     7
370
    15
100
AcDbLine
 10
457.673448
 20
32.536504
 30
0.0
 11
457.675951
 21
32.520405
 31
0.0
  0
LINE
  5
139
330
133
100
AcDbEntity
  8
LC-001-100-D00-0
 62
     7
370
    15
100
AcDbLine
 10
457.675951
 20
32.520405
 30
0.0
 11
457.678187
 21
32.50612
 31
0.0
  0
ENDBLK
  5
135
330
133
100
AcDbEntity
  8
0
100
AcDbBlockEnd
  0
BLOCK
  5
13D
330
13C
100
AcDbEntity
  8
0
100
AcDbBlockBegin
  2
KLON3
 70
     0
 71
     0
 10
0.0
 20
0.0
 30
0.0
  3
KLON3
  1

  4
KLON3
  0
LINE
  5
13F
330
13C
100
AcDbEntity
  8
LC-001-100-D00-0
 62
     7
370
    15
100
AcDbLine
 10
457.65202
 20
43.836285
 30
0.0
 11
457.66257
 21
43.842196
 31
0.0
  0
LINE
  5
140
330
13C
100
AcDbEntity
  8
LC-001-100-D00-0
 62
     7
370
    15
100
AcDbLine
 10
457.66257
 20
43.842196
 30
0.0
 11
457.678187
 21
43.850924
 31
0.0
  0
ENDBLK
  5
13E
330
13C
100
AcDbEntity
  8
0
100
AcDbBlockEnd
  0
BLOCK
  5
143
330
142
100
AcDbEntity
  8
0
100
AcDbBlockBegin
  2
KLON4
 70
     0
 71
     0
 10
0.0
 20
0.0
 30
0.0
  3
KLON4
  1

  4
KLON4
  0
LINE
  5
145
330
142
100
AcDbEntity
  8
LC-001-100-D00-0
 62
     7
370
    15
100
AcDbLine
 10
457.65202
 20
-3.149074
 30
0.0
 11
457.659411
 21
-3.187247
 31
0.0
  0
LINE
  5
146
330
142
100
AcDbEntity
  8
LC-001-100-D00-0
 62
     7
370
    15
100
AcDbLine
 10
457.659411
 20
-3.187247
 30
0.0
 11
457.678187
 21
-3.219732
 31
0.0
  0
ENDBLK
  5
144
330
142
100
AcDbEntity
  8
0
100
AcDbBlockEnd
  0
BLOCK
  5
149
330
148
100
AcDbEntity
  8
0
100
AcDbBlockBegin
  2
KLON5
 70
     0
 71
     0
 10
0.0
 20
0.0
 30
0.0
  3
KLON5
  1

  4
KLON5
  0
LINE
  5
14B
330
148
100
AcDbEntity
  8
LC-001-100-D00-0
 62
     7
370
    15
100
AcDbLine
 10
-326.295626
 20
43.836285
 30
0.0
 11
-326.306176
 21
43.842196
 31
0.0
  0
LINE
  5
14C
330
148
100
AcDbEntity
  8
LC-001-100-D00-0
 62
     7
370
    15
100
AcDbLine
 10
-326.306176
 20
43.842196
 30
0.0
 11
-326.321793
 21
43.850924
 31
0.0
  0
ENDBLK
  5
14A
330
148
100
AcDbEntity
  8
0
100
AcDbBlockEnd
  0
BLOCK
  5
150
330
14F
100
AcDbEntity
  8
0
100
AcDbBlockBegin
  2
KLON6
 70
     0
 71
     0
 10
0.0
 20
0.0
 30
0.0
  3
KLON6
  1

  4
KLON6
  0
LINE
  5
152
330
14F
100
AcDbEntity
  8
LC-001-100-D00-0
 62
     7
370
    15
100
AcDbLine
 10
-326.295626
 20
32.673594
 30
0.0
 11
-326.308263
 21
32.592713
 31
0.0
  0
LINE
  5
153
330
14F
100
AcDbEntity
  8
LC-001-100-D00-0
 62
     7
370
    15
100
AcDbLine
 10
-326.308263
 20
32.592713
 30
0.0
 11
-326.317054
 21
32.536504
 31
0.0
  0
LINE
  5
154
330
14F
100
AcDbEntity
  8
LC-001-100-D00-0
 62
     7
370
    15
100
AcDbLine
 10
-326.317054
 20
32.536504
 30
0.0
 11
-326.319558
 21
32.520405
 31
0.0
  0
LINE
  5
155
330
14F
100
AcDbEntity
  8
LC-001-100-D00-0
 62
     7
370
    15
100
AcDbLine
 10
-326.319558
 20
32.520405
 30
0.0
 11
-326.321793
 21
32.50612
 31
0.0
  0
ENDBLK
  5
151
330
14F
100
AcDbEntity
  8
0
100
AcDbBlockEnd
  0
BLOCK
  5
158
330
157
100
AcDbEntity
  8
0
100
AcDbBlockBegin
  2
KLON7
 70
     0
 71
     0
 10
0.0
 20
0.0
 30
0.0
  3
KLON7
  1

  4
KLON7
  0
LINE
  5
15A
330
157
100
AcDbEntity
  8
LC-001-100-D00-0
 62
     7
370
    15
100
AcDbLine
 10
-326.321793
 20
8.19573
 30
0.0
 11
-326.319558
 21
8.181444
 31
0.0
  0
LINE
  5
15B
330
157
100
AcDbEntity
  8
LC-001-100-D00-0
 62
     7
370
    15
100
AcDbLine
 10
-326.319558
 20
8.181444
 30
0.0
 11
-326.308263
 21
8.109137
 31
0.0
  0
LINE
  5
15C
330
157
100
AcDbEntity
  8
LC-001-100-D00-0
 62
     7
370
    15
100
AcDbLine
 10
-326.308263
 20
8.109137
 30
0.0
 11
-326.295626
 21
8.028256
 31
0.0
  0
ENDBLK
  5
159
330
157
100
AcDbEntity
  8
0
100
AcDbBlockEnd
  0
BLOCK
  5
160
330
15F
100
AcDbEntity
  8
0
100
AcDbBlockBegin
  2
KLON8
 70
     0
 71
     0
 10
0.0
 20
0.0
 30
0.0
  3
KLON8
  1

  4
KLON8
  0
LINE
  5
162
330
15F
100
AcDbEntity
  8
LC-001-100-D00-0
 62
     7
370
    15
100
AcDbLine
 10
-326.295626
 20
-3.149074
 30
0.0
 11
-326.303017
 21
-3.187247
 31
0.0
  0
LINE
  5
163
330
15F
100
AcDbEntity
  8
LC-001-100-D00-0
 62
     7
370
    15
100
AcDbLine
 10
-326.303017
 20
-3.187247
 30
0.0
 11
-326.321793
 21
-3.219732
 31
0.0
  0
ENDBLK
  5
161
330
15F
100
AcDbEntity
  8
0
100
AcDbBlockEnd
  0
BLOCK
  5
173
330
172
100
AcDbEntity
  8
0
100
AcDbBlockBegin
  2
KLON9
 70
     0
 71
     0
 10
0.0
 20
0.0
 30
0.0
  3
KLON9
  1

  4
KLON9
  0
LINE
  5
175
330
172
100
AcDbEntity
  8
LC-001-100-D00-0
 62
     7
370
    15
100
AcDbLine
 10
457.623499
 20
8.017516
 30
0.0
 11
457.639652
 21
8.0236
 31
0.0
  0
LINE
  5
176
330
172
100
AcDbEntity
  8
LC-001-100-D00-0
 62
     7
370
    15
100
AcDbLine
 10
457.639652
 20
8.0236
 30
0.0
 11
457.65202
 21
8.028256
 31
0.0
  0
ENDBLK
  5
174
330
172
100
AcDbEntity
  8
0
100
AcDbBlockEnd
  0
BLOCK
  5
179
330
178
100
AcDbEntity
  8
0
100
AcDbBlockBegin
  2
KLON10
 70
     0
 71
     0
 10
0.0
 20
0.0
 30
0.0
  3
KLON10
  1

  4
KLON10
  0
LINE
  5
17B
330
178
100
AcDbEntity
  8
LC-001-100-D00-0
 62
     7
370
    15
100
AcDbLine
 10
-326.267106
 20
8.017516
 30
0.0
 11
-326.283258
 21
8.0236
 31
0.0
  0
LINE
  5
17C
330
178
100
AcDbEntity
  8
LC-001-100-D00-0
 62
     7
370
    15
100
AcDbLine
 10
-326.283258
 20
8.0236
 30
0.0
 11
-326.295626
 21
8.028256
 31
0.0
  0
ENDBLK
  5
17A
330
178
100
AcDbEntity
  8
0
100
AcDbBlockEnd
  0
BLOCK
  5
180
330
17F
100
AcDbEntity
  8
0
100
AcDbBlockBegin
  2
KLON11
 70
     0
 71
     0
 10
0.0
 20
0.0
 30
0.0
  3
KLON11
  1

  4
KLON11
  0
LINE
  5
182
330
17F
100
AcDbEntity
  8
LC-001-100-D00-0
 62
     7
370
    15
100
AcDbLine
 10
320.665139
 20
14.491708
 30
0.0
 11
320.676523
 21
14.905182
 31
0.0
  0
LINE
  5
183
330
17F
100
AcDbEntity
  8
LC-001-100-D00-0
 62
     7
370
    15
100
AcDbLine
 10
320.676523
 20
14.905182
 30
0.0
 11
320.688206
 21
15.32844
 31
0.0
  0
LINE
  5
184
330
17F
100
AcDbEntity
  8
LC-001-100-D00-0
 62
     7
370
    15
100
AcDbLine
 10
320.688206
 20
15.32844
 30
0.0
 11
320.700007
 21
15.756619
 31
0.0
  0
ENDBLK
  5
181
330
17F
100
AcDbEntity
  8
0
100
AcDbBlockEnd
  0
BLOCK
  5
187
330
186
100
AcDbEntity
  8
0
100
AcDbBlockBegin
  2
KLON12
 70
     0
 71
     0
 10
0.0
 20
0.0
 30
0.0
  3
KLON12
  1

  4
KLON12
  0
LINE
  5
189
330
186
100
AcDbEntity
  8
LC-001-100-D00-0
 62
     7
370
    15
100
AcDbLine
 10
320.700007
 20
24.945231
 30
0.0
 11
320.688206
 21
25.37341
 31
0.0
  0
LINE
  5
18A
330
186
100
AcDbEntity
  8
LC-001-100-D00-0
 62
     7
370
    15
100
AcDbLine
 10
320.688206
 20
25.37341
 30
0.0
 11
320.676523
 21
25.796668
 31
0.0
  0
LINE
  5
18B
330
186
100
AcDbEntity
  8
LC-001-100-D00-0
 62
     7
370
    15
100
AcDbLine
 10
320.676523
 20
25.796668
 30
0.0
 11
320.665139
 21
26.210142
 31
0.0
  0
ENDBLK
  5
188
330
186
100
AcDbEntity
  8
0
100
AcDbBlockEnd
  0
BLOCK
  5
18E
330
18D
100
AcDbEntity
  8
0
100
AcDbBlockBegin
  2
KLON13
 70
     0
 71
     0
 10
0.0
 20
0.0
 30
0.0
  3
KLON13
  1

  4
KLON13
  0
LINE
  5
190
330
18D
100
AcDbEntity
  8
LC-001-100-D00-0
 62
     7
370
    15
100
AcDbLine
 10
457.623499
 20
32.684334
 30
0.0
 11
457.639652
 21
32.678249
 31
0.0
  0
LINE
  5
191
330
18D
100
AcDbEntity
  8
LC-001-100-D00-0
 62
     7
370
    15
100
AcDbLine
 10
457.639652
 20
32.678249
 30
0.0
 11
457.65202
 21
32.673594
 31
0.0
  0
ENDBLK
  5
18F
330
18D
100
AcDbEntity
  8
0
100
AcDbBlockEnd
  0
BLOCK
  5
194
330
193
100
AcDbEntity
  8
0
100
AcDbBlockBegin
  2
KLON14
 70
     0
 71
     0
 10
0.0
 20
0.0
 30
0.0
  3
KLON14
  1

  4
KLON14
  0
LINE
  5
196
330
193
100
AcDbEntity
  8
LC-001-100-D00-0
 62
     7
370
    15
100
AcDbLine
 10
-189.308745
 20
14.491708
 30
0.0
 11
-189.320129
 21
14.905182
 31
0.0
  0
LINE
  5
197
330
193
100
AcDbEntity
  8
LC-001-100-D00-0
 62
     7
370
    15
100
AcDbLine
 10
-189.320129
 20
14.905182
 30
0.0
 11
-189.331812
 21
15.32844
 31
0.0
  0
LINE
  5
198
330
193
100
AcDbEntity
  8
LC-001-100-D00-0
 62
     7
370
    15
100
AcDbLine
 10
-189.331812
 20
15.32844
 30
0.0
 11
-189.343614
 21
15.756619
 31
0.0
  0
ENDBLK
  5
195
330
193
100
AcDbEntity
  8
0
100
AcDbBlockEnd
  0
BLOCK
  5
19B
330
19A
100
AcDbEntity
  8
0
100
AcDbBlockBegin
  2
KLON15
 70
     0
 71
     0
 10
0.0
 20
0.0
 30
0.0
  3
KLON15
  1

  4
KLON15
  0
LINE
  5
19D
330
19A
100
AcDbEntity
  8
LC-001-100-D00-0
 62
     7
370
    15
100
AcDbLine
 10
-189.343614
 20
24.945231
 30
0.0
 11
-189.331812
 21
25.37341
 31
0.0
  0
LINE
  5
19E
330
19A
100
AcDbEntity
  8
LC-001-100-D00-0
 62
     7
370
    15
100
AcDbLine
 10
-189.331812
 20
25.37341
 30
0.0
 11
-189.320129
 21
25.796668
 31
0.0
  0
LINE
  5
19F
330
19A
100
AcDbEntity
  8
LC-001-100-D00-0
 62
     7
370
    15
100
AcDbLine
 10
-189.320129
 20
25.796668
 30
0.0
 11
-189.308745
 21
26.210142
 31
0.0
  0
ENDBLK
  5
19C
330
19A
100
AcDbEntity
  8
0
100
AcDbBlockEnd
  0
BLOCK
  5
1A2
330
1A1
100
AcDbEntity
  8
0
100
AcDbBlockBegin
  2
KLON16
 70
     0
 71
     0
 10
0.0
 20
0.0
 30
0.0
  3
KLON16
  1

  4
KLON16
  0
LINE
  5
1A4
330
1A1
100
AcDbEntity
  8
LC-001-100-D00-0
 62
     7
370
    15
100
AcDbLine
 10
-326.267106
 20
32.684334
 30
0.0
 11
-326.283258
 21
32.678249
 31
0.0
  0
LINE
  5
1A5
330
1A1
100
AcDbEntity
  8
LC-001-100-D00-0
 62
     7
370
    15
100
AcDbLine
 10
-326.283258
 20
32.678249
 30
0.0
 11
-326.295626
 21
32.673594
 31
0.0
  0
ENDBLK
  5
1A3
330
1A1
100
AcDbEntity
  8
0
100
AcDbBlockEnd
  0
BLOCK
  5
24E
330
244
100
AcDbEntity
  8
0
100
AcDbBlockBegin
  2
*D18
 70
     1
 71
     0
 10
0.0
 20
0.0
 30
0.0
  3
*D18
  1

  0
LINE
  5
245
330
244
100
AcDbEntity
  8
LC-001-100-D00-0
 62
     2
370
    -2
100
AcDbLine
 10
510.678197
 20
97.850925
 30
0.0
 11
657.336981
 21
97.850925
 31
0.0
  0
LINE
  5
246
330
244
100
AcDbEntity
  8
LC-001-100-D00-0
 62
     2
370
    -2
100
AcDbLine
 10
510.678197
 20
-57.149075
 30
0.0
 11
657.336981
 21
-57.149075
 31
0.0
  0
LINE
  5
247
330
244
100
AcDbEntity
  8
LC-001-100-D00-0
 62
     2
370
    -2
100
AcDbLine
 10
648.336981
 20
47.850925
 30
0.0
 11
648.336981
 21
-7.149075
 31
0.0
  0
SOLID
  5
248
330
244
100
AcDbEntity
  8
LC-001-100-D00-0
 62
     2
100
AcDbTrace
 10
656.670314
 20
47.850925
 30
0.0
 11
640.003648
 21
47.850925
 31
0.0
 12
648.336981
 22
97.850925
 32
0.0
 13
648.336981
 23
97.850925
 33
0.0
  0
SOLID
  5
249
330
244
100
AcDbEntity
  8
LC-001-100-D00-0
 62
     2
100
AcDbTrace
 10
640.003648
 20
-7.149075
 30
0.0
 11
656.670314
 21
-7.149075
 31
0.0
 12
648.336981
 22
-57.149075
 32
0.0
 13
648.336981
 23
-57.149075
 33
0.0
  0
MTEXT
  5
24A
330
244
100
AcDbEntity
  8
LC-001-100-D00-0
 62
     2
100
AcDbMText
 10
593.336981
 20
6.740431
 30
0.0
 40
50.0
 41
0.0
 71
     5
 72
     1
  1
\A1;155
  7
LCTX15-400-0-0pDIN-Schrift
 11
6.123031769111886E-17
 21
1.0
 31
0.0
 73
     1
 44
1.0
  0
POINT
  5
24B
330
244
100
AcDbEntity
  8
Defpoints
 62
     0
100
AcDbPoint
 10
510.678197
 20
97.850925
 30
0.0
  0
POINT
  5
24C
330
244
100
AcDbEntity
  8
Defpoints
 62
     0
100
AcDbPoint
 10
510.678197
 20
-57.149075
 30
0.0
  0
POINT
  5
24D
330
244
100
AcDbEntity
  8
Defpoints
 62
     0
100
AcDbPoint
 10
648.336981
 20
-57.149075
 30
0.0
  0
ENDBLK
  5
24F
330
244
100
AcDbEntity
  8
0
100
AcDbBlockEnd
  0
BLOCK
  5
456
330
455
100
AcDbEntity
  8
0
100
AcDbBlockBegin
  2
KLON17
 70
     0
 71
     0
 10
0.0
 20
0.0
 30
0.0
  3
KLON17
  1

  4
KLON17
  0
LINE
  5
458
330
455
100
AcDbEntity
  8
LC-001-100-D00-0
 62
     7
370
    15
100
AcDbLine
 10
139.678186
 20
269.418955
 30
0.0
 11
139.675459
 21
269.418985
 31
0.0
  0
LINE
  5
459
330
455
100
AcDbEntity
  8
LC-001-100-D00-0
 62
     7
370
    15
100
AcDbLine
 10
139.675459
 20
269.418985
 30
0.0
 11
139.670877
 21
269.419178
 31
0.0
  0
LINE
  5
45A
330
455
100
AcDbEntity
  8
LC-001-100-D00-0
 62
     7
370
    15
100
AcDbLine
 10
139.670877
 20
269.419178
 30
0.0
 11
139.662003
 21
269.420013
 31
0.0
  0
LINE
  5
45B
330
455
100
AcDbEntity
  8
LC-001-100-D00-0
 62
     7
370
    15
100
AcDbLine
 10
139.662003
 20
269.420013
 30
0.0
 11
139.659723
 21
269.420318
 31
0.0
  0
LINE
  5
45C
330
455
100
AcDbEntity
  8
LC-001-100-D00-0
 62
     7
370
    15
100
AcDbLine
 10
139.659723
 20
269.420318
 30
0.0
 11
139.65915
 21
269.4204
 31
0.0
  0
LINE
  5
45D
330
455
100
AcDbEntity
  8
LC-001-100-D00-0
 62
     7
370
    15
100
AcDbLine
 10
139.65915
 20
269.4204
 30
0.0
 11
139.659008
 21
269.420422
 31
0.0
  0
LINE
  5
45E
330
455
100
AcDbEntity
  8
LC-001-100-D00-0
 62
     7
370
    15
100
AcDbLine
 10
139.659008
 20
269.420422
 30
0.0
 11
139.539829
 21
269.469693
 31
0.0
  0
LINE
  5
45F
330
455
100
AcDbEntity
  8
LC-001-100-D00-0
 62
     7
370
    15
100
AcDbLine
 10
139.539829
 20
269.469693
 30
0.0
 11
138.699224
 21
270.282589
 31
0.0
  0
LINE
  5
460
330
455
100
AcDbEntity
  8
LC-001-100-D00-0
 62
     7
370
    15
100
AcDbLine
 10
138.699224
 20
270.282589
 30
0.0
 11
137.610545
 21
271.60792
 31
0.0
  0
LINE
  5
461
330
455
100
AcDbEntity
  8
LC-001-100-D00-0
 62
     7
370
    15
100
AcDbLine
 10
137.610545
 20
271.60792
 30
0.0
 11
136.184683
 21
273.511074
 31
0.0
  0
LINE
  5
462
330
455
100
AcDbEntity
  8
LC-001-100-D00-0
 62
     7
370
    15
100
AcDbLine
 10
136.184683
 20
273.511074
 30
0.0
 11
134.132339
 21
276.476733
 31
0.0
  0
LINE
  5
463
330
455
100
AcDbEntity
  8
LC-001-100-D00-0
 62
     7
370
    15
100
AcDbLine
 10
134.132339
 20
276.476733
 30
0.0
 11
131.761668
 21
280.118063
 31
0.0
  0
LINE
  5
464
330
455
100
AcDbEntity
  8
LC-001-100-D00-0
 62
     7
370
    15
100
AcDbLine
 10
131.761668
 20
280.118063
 30
0.0
 11
131.653478
 21
280.284449
 31
0.0
  0
ENDBLK
  5
457
330
455
100
AcDbEntity
  8
0
100
AcDbBlockEnd
  0
BLOCK
  5
467
330
466
100
AcDbEntity
  8
0
100
AcDbBlockBegin
  2
KLON18
 70
     0
 71
     0
 10
0.0
 20
0.0
 30
0.0
  3
KLON18
  1

  4
KLON18
  0
LINE
  5
469
330
466
100
AcDbEntity
  8
LC-001-100-D00-0
 62
     7
370
    15
100
AcDbLine
 10
131.653478
 20
280.284449
 30
0.0
 11
130.91187
 21
282.662995
 31
0.0
  0
LINE
  5
46A
330
466
100
AcDbEntity
  8
LC-001-100-D00-0
 62
     7
370
    15
100
AcDbLine
 10
130.91187
 20
282.662995
 30
0.0
 11
130.277133
 21
285.243422
 31
0.0
  0
LINE
  5
46B
330
466
100
AcDbEntity
  8
LC-001-100-D00-0
 62
     7
370
    15
100
AcDbLine
 10
130.277133
 20
285.243422
 30
0.0
 11
129.757924
 21
288.375605
 31
0.0
  0
LINE
  5
46C
330
466
100
AcDbEntity
  8
LC-001-100-D00-0
 62
     7
370
    15
100
AcDbLine
 10
129.757924
 20
288.375605
 30
0.0
 11
129.521085
 21
291.712481
 31
0.0
  0
LINE
  5
46D
330
466
100
AcDbEntity
  8
LC-001-100-D00-0
 62
     7
370
    15
100
AcDbLine
 10
129.521085
 20
291.712481
 30
0.0
 11
129.612004
 21
294.982251
 31
0.0
  0
LINE
  5
46E
330
466
100
AcDbEntity
  8
LC-001-100-D00-0
 62
     7
370
    15
100
AcDbLine
 10
129.612004
 20
294.982251
 30
0.0
 11
130.02382
 21
298.273627
 31
0.0
  0
LINE
  5
46F
330
466
100
AcDbEntity
  8
LC-001-100-D00-0
 62
     7
370
    15
100
AcDbLine
 10
130.02382
 20
298.273627
 30
0.0
 11
130.667715
 21
301.266417
 31
0.0
  0
LINE
  5
470
330
466
100
AcDbEntity
  8
LC-001-100-D00-0
 62
     7
370
    15
100
AcDbLine
 10
130.667715
 20
301.266417
 30
0.0
 11
131.506344
 21
304.116342
 31
0.0
  0
LINE
  5
471
330
466
100
AcDbEntity
  8
LC-001-100-D00-0
 62
     7
370
    15
100
AcDbLine
 10
131.506344
 20
304.116342
 30
0.0
 11
132.574005
 21
307.02737
 31
0.0
  0
LINE
  5
472
330
466
100
AcDbEntity
  8
LC-001-100-D00-0
 62
     7
370
    15
100
AcDbLine
 10
132.574005
 20
307.02737
 30
0.0
 11
133.697881
 21
309.637472
 31
0.0
  0
LINE
  5
473
330
466
100
AcDbEntity
  8
LC-001-100-D00-0
 62
     7
370
    15
100
AcDbLine
 10
133.697881
 20
309.637472
 30
0.0
 11
134.846298
 21
312.014185
 31
0.0
  0
LINE
  5
474
330
466
100
AcDbEntity
  8
LC-001-100-D00-0
 62
     7
370
    15
100
AcDbLine
 10
134.846298
 20
312.014185
 30
0.0
 11
135.818115
 21
313.868295
 31
0.0
  0
LINE
  5
475
330
466
100
AcDbEntity
  8
LC-001-100-D00-0
 62
     7
370
    15
100
AcDbLine
 10
135.818115
 20
313.868295
 30
0.0
 11
136.360353
 21
314.854566
 31
0.0
  0
LINE
  5
476
330
466
100
AcDbEntity
  8
LC-001-100-D00-0
 62
     7
370
    15
100
AcDbLine
 10
136.360353
 20
314.854566
 30
0.0
 11
136.647051
 21
315.364092
 31
0.0
  0
LINE
  5
477
330
466
100
AcDbEntity
  8
LC-001-100-D00-0
 62
     7
370
    15
100
AcDbLine
 10
136.647051
 20
315.364092
 30
0.0
 11
136.677912
 21
315.418471
 31
0.0
  0
LINE
  5
478
330
466
100
AcDbEntity
  8
LC-001-100-D00-0
 62
     7
370
    15
100
AcDbLine
 10
136.677912
 20
315.418471
 30
0.0
 11
136.678187
 21
315.418955
 31
0.0
  0
ENDBLK
  5
468
330
466
100
AcDbEntity
  8
0
100
AcDbBlockEnd
  0
BLOCK
  5
47E
330
47D
100
AcDbEntity
  8
0
100
AcDbBlockBegin
  2
KLON19
 70
     0
 71
     0
 10
0.0
 20
0.0
 30
0.0
  3
KLON19
  1

  4
KLON19
  0
LINE
  5
480
330
47D
100
AcDbEntity
  8
LC-001-100-D00-0
 62
     7
370
    15
100
AcDbLine
 10
130.995637
 20
278.918952
 30
0.0
 11
131.002417
 21
278.933234
 31
0.0
  0
LINE
  5
481
330
47D
100
AcDbEntity
  8
LC-001-100-D00-0
 62
     7
370
    15
100
AcDbLine
 10
131.002417
 20
278.933234
 30
0.0
 11
131.653478
 21
280.284449
 31
0.0
  0
ENDBLK
  5
47F
330
47D
100
AcDbEntity
  8
0
100
AcDbBlockEnd
  0
BLOCK
  5
5AC
330
5AB
100
AcDbEntity
  8
0
100
AcDbBlockBegin
  2
KLON20
 70
     0
 71
     0
 10
0.0
 20
0.0
 30
0.0
  3
KLON20
  1

  4
KLON20
  0
LINE
  5
5AE
330
5AB
100
AcDbEntity
  8
LC-001-100-D00-0
 62
     7
370
    15
100
AcDbLine
 10
448.585874
 20
327.587118
 30
0.0
 11
451.142168
 21
327.680414
 31
0.0
  0
LINE
  5
5AF
330
5AB
100
AcDbEntity
  8
LC-001-100-D00-0
 62
     7
370
    15
100
AcDbLine
 10
451.142168
 20
327.680414
 30
0.0
 11
453.287965
 21
327.758727
 31
0.0
  0
LINE
  5
5B0
330
5AB
100
AcDbEntity
  8
LC-001-100-D00-0
 62
     7
370
    15
100
AcDbLine
 10
453.287965
 20
327.758727
 30
0.0
 11
455.018109
 21
327.821871
 31
0.0
  0
LINE
  5
5B1
330
5AB
100
AcDbEntity
  8
LC-001-100-D00-0
 62
     7
370
    15
100
AcDbLine
 10
455.018109
 20
327.821871
 30
0.0
 11
456.328457
 21
327.869693
 31
0.0
  0
LINE
  5
5B2
330
5AB
100
AcDbEntity
  8
LC-001-100-D00-0
 62
     7
370
    15
100
AcDbLine
 10
456.328457
 20
327.869693
 30
0.0
 11
457.215851
 21
327.90208
 31
0.0
  0
LINE
  5
5B3
330
5AB
100
AcDbEntity
  8
LC-001-100-D00-0
 62
     7
370
    15
100
AcDbLine
 10
457.215851
 20
327.90208
 30
0.0
 11
457.678175
 21
327.918954
 31
0.0
  0
ENDBLK
  5
5AD
330
5AB
100
AcDbEntity
  8
0
100
AcDbBlockEnd
  0
BLOCK
  5
5B6
330
5B5
100
AcDbEntity
  8
0
100
AcDbBlockBegin
  2
KLON21
 70
     0
 71
     0
 10
0.0
 20
0.0
 30
0.0
  3
KLON21
  1

  4
KLON21
  0
LINE
  5
5B8
330
5B5
100
AcDbEntity
  8
LC-001-100-D00-0
 62
     7
370
    15
100
AcDbLine
 10
-317.229504
 20
327.587118
 30
0.0
 11
-319.785798
 21
327.680414
 31
0.0
  0
LINE
  5
5B9
330
5B5
100
AcDbEntity
  8
LC-001-100-D00-0
 62
     7
370
    15
100
AcDbLine
 10
-319.785798
 20
327.680414
 30
0.0
 11
-321.931595
 21
327.758727
 31
0.0
  0
LINE
  5
5BA
330
5B5
100
AcDbEntity
  8
LC-001-100-D00-0
 62
     7
370
    15
100
AcDbLine
 10
-321.931595
 20
327.758727
 30
0.0
 11
-323.661739
 21
327.821871
 31
0.0
  0
LINE
  5
5BB
330
5B5
100
AcDbEntity
  8
LC-001-100-D00-0
 62
     7
370
    15
100
AcDbLine
 10
-323.661739
 20
327.821871
 30
0.0
 11
-324.972087
 21
327.869693
 31
0.0
  0
LINE
  5
5BC
330
5B5
100
AcDbEntity
  8
LC-001-100-D00-0
 62
     7
370
    15
100
AcDbLine
 10
-324.972087
 20
327.869693
 30
0.0
 11
-325.859481
 21
327.90208
 31
0.0
  0
LINE
  5
5BD
330
5B5
100
AcDbEntity
  8
LC-001-100-D00-0
 62
     7
370
    15
100
AcDbLine
 10
-325.859481
 20
327.90208
 30
0.0
 11
-326.321805
 21
327.918954
 31
0.0
  0
ENDBLK
  5
5B7
330
5B5
100
AcDbEntity
  8
0
100
AcDbBlockEnd
  0
BLOCK
  5
5D8
330
5D7
100
AcDbEntity
  8
0
100
AcDbBlockBegin
  2
KLON22
 70
     0
 71
     0
 10
0.0
 20
0.0
 30
0.0
  3
KLON22
  1

  4
KLON22
  0
LINE
  5
5DA
330
5D7
100
AcDbEntity
  8
LC-001-100-D00-0
 62
     7
370
    15
100
AcDbLine
 10
19.55857
 20
315.918952
 30
0.0
 11
19.5721
 21
315.760247
 31
0.0
  0
LINE
  5
5DB
330
5D7
100
AcDbEntity
  8
LC-001-100-D00-0
 62
     7
370
    15
100
AcDbLine
 10
19.5721
 20
315.760247
 30
0.0
 11
19.734023
 21
315.175827
 31
0.0
  0
LINE
  5
5DC
330
5D7
100
AcDbEntity
  8
LC-001-100-D00-0
 62
     7
370
    15
100
AcDbLine
 10
19.734023
 20
315.175827
 30
0.0
 11
19.98389
 21
314.729523
 31
0.0
  0
LINE
  5
5DD
330
5D7
100
AcDbEntity
  8
LC-001-100-D00-0
 62
     7
370
    15
100
AcDbLine
 10
19.98389
 20
314.729523
 30
0.0
 11
20.29519
 21
314.470772
 31
0.0
  0
LINE
  5
5DE
330
5D7
100
AcDbEntity
  8
LC-001-100-D00-0
 62
     7
370
    15
100
AcDbLine
 10
20.29519
 20
314.470772
 30
0.0
 11
20.432683
 21
314.427014
 31
0.0
  0
ENDBLK
  5
5D9
330
5D7
100
AcDbEntity
  8
0
100
AcDbBlockEnd
  0
BLOCK
  5
5E1
330
5E0
100
AcDbEntity
  8
0
100
AcDbBlockBegin
  2
KLON23
 70
     0
 71
     0
 10
0.0
 20
0.0
 30
0.0
  3
KLON23
  1

  4
KLON23
  0
LINE
  5
5E3
330
5E0
100
AcDbEntity
  8
LC-001-100-D00-0
 62
     7
370
    15
100
AcDbLine
 10
457.650816
 20
329.418953
 30
0.0
 11
457.650131
 21
329.456935
 31
0.0
  0
LINE
  5
5E4
330
5E0
100
AcDbEntity
  8
LC-001-100-D00-0
 62
     7
370
    15
100
AcDbLine
 10
457.650131
 20
329.456935
 30
0.0
 11
457.648074
 21
329.569721
 31
0.0
  0
LINE
  5
5E5
330
5E0
100
AcDbEntity
  8
LC-001-100-D00-0
 62
     7
370
    15
100
AcDbLine
 10
457.648074
 20
329.569721
 30
0.0
 11
457.644707
 21
329.753891
 31
0.0
  0
LINE
  5
5E6
330
5E0
100
AcDbEntity
  8
LC-001-100-D00-0
 62
     7
370
    15
100
AcDbLine
 10
457.644707
 20
329.753891
 30
0.0
 11
457.640147
 21
330.003843
 31
0.0
  0
LINE
  5
5E7
330
5E0
100
AcDbEntity
  8
LC-001-100-D00-0
 62
     7
370
    15
100
AcDbLine
 10
457.640147
 20
330.003843
 30
0.0
 11
457.634544
 21
330.311986
 31
0.0
  0
LINE
  5
5E8
330
5E0
100
AcDbEntity
  8
LC-001-100-D00-0
 62
     7
370
    15
100
AcDbLine
 10
457.634544
 20
330.311986
 30
0.0
 11
457.628017
 21
330.668954
 31
0.0
  0
LINE
  5
5E9
330
5E0
100
AcDbEntity
  8
LC-001-100-D00-0
 62
     7
370
    15
100
AcDbLine
 10
457.628017
 20
330.668954
 30
0.0
 11
457.620805
 21
331.063904
 31
0.0
  0
LINE
  5
5EA
330
5E0
100
AcDbEntity
  8
LC-001-100-D00-0
 62
     7
370
    15
100
AcDbLine
 10
457.620805
 20
331.063904
 30
0.0
 11
457.613146
 21
331.484834
 31
0.0
  0
LINE
  5
5EB
330
5E0
100
AcDbEntity
  8
LC-001-100-D00-0
 62
     7
370
    15
100
AcDbLine
 10
457.613146
 20
331.484834
 30
0.0
 11
457.605219
 21
331.918955
 31
0.0
  0
ENDBLK
  5
5E2
330
5E0
100
AcDbEntity
  8
0
100
AcDbBlockEnd
  0
BLOCK
  5
5EE
330
5ED
100
AcDbEntity
  8
0
100
AcDbBlockBegin
  2
KLON24
 70
     0
 71
     0
 10
0.0
 20
0.0
 30
0.0
  3
KLON24
  1

  4
KLON24
  0
LINE
  5
5F0
330
5ED
100
AcDbEntity
  8
LC-001-100-D00-0
 62
     7
370
    15
100
AcDbLine
 10
-326.294446
 20
329.418953
 30
0.0
 11
-326.293761
 21
329.456935
 31
0.0
  0
LINE
  5
5F1
330
5ED
100
AcDbEntity
  8
LC-001-100-D00-0
 62
     7
370
    15
100
AcDbLine
 10
-326.293761
 20
329.456935
 30
0.0
 11
-326.291704
 21
329.569721
 31
0.0
  0
LINE
  5
5F2
330
5ED
100
AcDbEntity
  8
LC-001-100-D00-0
 62
     7
370
    15
100
AcDbLine
 10
-326.291704
 20
329.569721
 30
0.0
 11
-326.288337
 21
329.753891
 31
0.0
  0
LINE
  5
5F3
330
5ED
100
AcDbEntity
  8
LC-001-100-D00-0
 62
     7
370
    15
100
AcDbLine
 10
-326.288337
 20
329.753891
 30
0.0
 11
-326.283777
 21
330.003843
 31
0.0
  0
LINE
  5
5F4
330
5ED
100
AcDbEntity
  8
LC-001-100-D00-0
 62
     7
370
    15
100
AcDbLine
 10
-326.283777
 20
330.003843
 30
0.0
 11
-326.278174
 21
330.311986
 31
0.0
  0
LINE
  5
5F5
330
5ED
100
AcDbEntity
  8
LC-001-100-D00-0
 62
     7
370
    15
100
AcDbLine
 10
-326.278174
 20
330.311986
 30
0.0
 11
-326.271647
 21
330.668954
 31
0.0
  0
LINE
  5
5F6
330
5ED
100
AcDbEntity
  8
LC-001-100-D00-0
 62
     7
370
    15
100
AcDbLine
 10
-326.271647
 20
330.668954
 30
0.0
 11
-326.264435
 21
331.063904
 31
0.0
  0
LINE
  5
5F7
330
5ED
100
AcDbEntity
  8
LC-001-100-D00-0
 62
     7
370
    15
100
AcDbLine
 10
-326.264435
 20
331.063904
 30
0.0
 11
-326.256776
 21
331.484834
 31
0.0
  0
LINE
  5
5F8
330
5ED
100
AcDbEntity
  8
LC-001-100-D00-0
 62
     7
370
    15
100
AcDbLine
 10
-326.256776
 20
331.484834
 30
0.0
 11
-326.248849
 21
331.918955
 31
0.0
  0
ENDBLK
  5
5EF
330
5ED
100
AcDbEntity
  8
0
100
AcDbBlockEnd
  0
BLOCK
  5
662
330
658
100
AcDbEntity
  8
0
100
AcDbBlockBegin
  2
*D27
 70
     1
 71
     0
 10
0.0
 20
0.0
 30
0.0
  3
*D27
  1

  0
LINE
  5
659
330
658
100
AcDbEntity
  8
LC-001-100-D00-0
 62
     2
370
    -2
100
AcDbLine
 10
515.678185
 20
349.918954
 30
0.0
 11
515.678185
 21
484.475104
 31
0.0
  0
LINE
  5
65A
330
658
100
AcDbEntity
  8
LC-001-100-D00-0
 62
     2
370
    -2
100
AcDbLine
 10
-384.321815
 20
349.918954
 30
0.0
 11
-384.321815
 21
484.475104
 31
0.0
  0
LINE
  5
65B
330
658
100
AcDbEntity
  8
LC-001-100-D00-0
 62
     2
370
    -2
100
AcDbLine
 10
465.678185
 20
475.475104
 30
0.0
 11
-334.321815
 21
475.475104
 31
0.0
  0
SOLID
  5
65C
330
658
100
AcDbEntity
  8
LC-001-100-D00-0
 62
     2
100
AcDbTrace
 10
465.678185
 20
467.14177
 30
0.0
 11
465.678185
 21
483.808437
 31
0.0
 12
515.678185
 22
475.475104
 32
0.0
 13
515.678185
 23
475.475104
 33
0.0
  0
SOLID
  5
65D
330
658
100
AcDbEntity
  8
LC-001-100-D00-0
 62
     2
100
AcDbTrace
 10
-334.321815
 20
483.808437
 30
0.0
 11
-334.321815
 21
467.14177
 31
0.0
 12
-384.321815
 22
475.475104
 32
0.0
 13
-384.321815
 23
475.475104
 33
0.0
  0
MTEXT
  5
65E
330
658
100
AcDbEntity
  8
LC-001-100-D00-0
 62
     2
100
AcDbMText
 10
55.279957
 20
530.475104
 30
0.0
 40
50.0
 41
0.0
 71
     5
 72
     1
  1
\A1;900
  7
LCTX15-400-0-0pDIN-Schrift
 73
     1
 44
1.0
  0
POINT
  5
65F
330
658
100
AcDbEntity
  8
Defpoints
 62
     0
100
AcDbPoint
 10
515.678185
 20
349.918954
 30
0.0
  0
POINT
  5
660
330
658
100
AcDbEntity
  8
Defpoints
 62
     0
100
AcDbPoint
 10
-384.321815
 20
349.918954
 30
0.0
  0
POINT
  5
661
330
658
100
AcDbEntity
  8
Defpoints
 62
     0
100
AcDbPoint
 10
-384.321815
 20
475.475104
 30
0.0
  0
ENDBLK
  5
663
330
658
100
AcDbEntity
  8
0
100
AcDbBlockEnd
  0
BLOCK
  5
66F
330
665
100
AcDbEntity
  8
0
100
AcDbBlockBegin
  2
*D28
 70
     1
 71
     0
 10
0.0
 20
0.0
 30
0.0
  3
*D28
  1

  0
LINE
  5
666
330
665
100
AcDbEntity
  8
LC-001-100-D00-0
 62
     2
370
    -2
100
AcDbLine
 10
-334.321815
 20
346.918954
 30
0.0
 11
-334.321815
 21
398.044306
 31
0.0
  0
LINE
  5
667
330
665
100
AcDbEntity
  8
LC-001-100-D00-0
 62
     2
370
    -2
100
AcDbLine
 10
465.678185
 20
346.918954
 30
0.0
 11
465.678185
 21
398.044306
 31
0.0
  0
LINE
  5
668
330
665
100
AcDbEntity
  8
LC-001-100-D00-0
 62
     2
370
    -2
100
AcDbLine
 10
-284.321815
 20
389.044306
 30
0.0
 11
415.678185
 21
389.044306
 31
0.0
  0
SOLID
  5
669
330
665
100
AcDbEntity
  8
LC-001-100-D00-0
 62
     2
100
AcDbTrace
 10
-284.321815
 20
397.377639
 30
0.0
 11
-284.321815
 21
380.710973
 31
0.0
 12
-334.321815
 22
389.044306
 32
0.0
 13
-334.321815
 23
389.044306
 33
0.0
  0
SOLID
  5
66A
330
665
100
AcDbEntity
  8
LC-001-100-D00-0
 62
     2
100
AcDbTrace
 10
415.678185
 20
380.710973
 30
0.0
 11
415.678185
 21
397.377639
 31
0.0
 12
465.678185
 22
389.044306
 32
0.0
 13
465.678185
 23
389.044306
 33
0.0
  0
MTEXT
  5
66B
330
665
100
AcDbEntity
  8
LC-001-100-D00-0
 62
     2
100
AcDbMText
 10
57.332738
 20
444.044306
 30
0.0
 40
50.0
 41
0.0
 71
     5
 72
     1
  1
\A1;800
  7
LCTX15-400-0-0pDIN-Schrift
 73
     1
 44
1.0
  0
POINT
  5
66C
330
665
100
AcDbEntity
  8
Defpoints
 62
     0
100
AcDbPoint
 10
-334.321815
 20
346.918954
 30
0.0
  0
POINT
  5
66D
330
665
100
AcDbEntity
  8
Defpoints
 62
     0
100
AcDbPoint
 10
465.678185
 20
346.918954
 30
0.0
  0
POINT
  5
66E
330
665
100
AcDbEntity
  8
Defpoints
 62
     0
100
AcDbPoint
 10
465.678185
 20
389.044306
 30
0.0
  0
ENDBLK
  5
670
330
665
100
AcDbEntity
  8
0
100
AcDbBlockEnd
  0
BLOCK
  5
67D
330
672
100
AcDbEntity
  8
0
100
AcDbBlockBegin
  2
*D29
 70
     1
 71
     0
 10
0.0
 20
0.0
 30
0.0
  3
*D29
  1

  0
LINE
  5
673
330
672
100
AcDbEntity
  8
LC-001-100-D00-0
 62
     2
370
    -2
100
AcDbLine
 10
32.725752
 20
308.418954
 30
0.0
 11
-98.958498
 21
308.418954
 31
0.0
  0
LINE
  5
674
330
672
100
AcDbEntity
  8
LC-001-100-D00-0
 62
     2
370
    -2
100
AcDbLine
 10
36.678185
 20
278.418954
 30
0.0
 11
-98.958498
 21
278.418954
 31
0.0
  0
LINE
  5
675
330
672
100
AcDbEntity
  8
LC-001-100-D00-0
 62
     2
370
    -2
100
AcDbLine
 10
-89.958498
 20
358.418954
 30
0.0
 11
-89.958498
 21
408.418954
 31
0.0
  0
LINE
  5
676
330
672
100
AcDbEntity
  8
LC-001-100-D00-0
 62
     2
370
    -2
100
AcDbLine
 10
-89.958498
 20
228.418954
 30
0.0
 11
-89.958498
 21
197.777432
 31
0.0
  0
SOLID
  5
677
330
672
100
AcDbEntity
  8
LC-001-100-D00-0
 62
     2
100
AcDbTrace
 10
-98.291831
 20
358.418954
 30
0.0
 11
-81.625165
 21
358.418954
 31
0.0
 12
-89.958498
 22
308.418954
 32
0.0
 13
-89.958498
 23
308.418954
 33
0.0
  0
SOLID
  5
678
330
672
100
AcDbEntity
  8
LC-001-100-D00-0
 62
     2
100
AcDbTrace
 10
-81.625165
 20
228.418954
 30
0.0
 11
-98.291831
 21
228.418954
 31
0.0
 12
-89.958498
 22
278.418954
 32
0.0
 13
-89.958498
 23
278.418954
 33
0.0
  0
MTEXT
  5
679
330
672
100
AcDbEntity
  8
LC-001-100-D00-0
 62
     2
100
AcDbMText
 10
-144.958498
 20
240.852836
 30
0.0
 40
50.0
 41
0.0
 71
     5
 72
     1
  1
\A1;30
  7
LCTX15-400-0-0pDIN-Schrift
 11
6.123031769111886E-17
 21
1.0
 31
0.0
 73
     1
 44
1.0
  0
POINT
  5
67A
330
672
100
AcDbEntity
  8
Defpoints
 62
     0
100
AcDbPoint
 10
32.725752
 20
308.418954
 30
0.0
  0
POINT
  5
67B
330
672
100
AcDbEntity
  8
Defpoints
 62
     0
100
AcDbPoint
 10
36.678185
 20
278.418954
 30
0.0
  0
POINT
  5
67C
330
672
100
AcDbEntity
  8
Defpoints
 62
     0
100
AcDbPoint
 10
-89.958498
 20
278.418954
 30
0.0
  0
ENDBLK
  5
67E
330
672
100
AcDbEntity
  8
0
100
AcDbBlockEnd
  0
BLOCK
  5
68A
330
680
100
AcDbEntity
  8
0
100
AcDbBlockBegin
  2
*D30
 70
     1
 71
     0
 10
0.0
 20
0.0
 30
0.0
  3
*D30
  1

  0
LINE
  5
681
330
680
100
AcDbEntity
  8
LC-001-100-D00-0
 62
     2
370
    -2
100
AcDbLine
 10
-8.321815
 20
278.918954
 30
0.0
 11
-8.321815
 21
168.285227
 31
0.0
  0
LINE
  5
682
330
680
100
AcDbEntity
  8
LC-001-100-D00-0
 62
     2
370
    -2
100
AcDbLine
 10
275.177982
 20
268.356776
 30
0.0
 11
275.177982
 21
168.285227
 31
0.0
  0
LINE
  5
683
330
680
100
AcDbEntity
  8
LC-001-100-D00-0
 62
     2
370
    -2
100
AcDbLine
 10
41.678185
 20
177.285227
 30
0.0
 11
225.177982
 21
177.285227
 31
0.0
  0
SOLID
  5
684
330
680
100
AcDbEntity
  8
LC-001-100-D00-0
 62
     2
100
AcDbTrace
 10
41.678185
 20
185.61856
 30
0.0
 11
41.678185
 21
168.951893
 31
0.0
 12
-8.321815
 22
177.285227
 32
0.0
 13
-8.321815
 23
177.285227
 33
0.0
  0
SOLID
  5
685
330
680
100
AcDbEntity
  8
LC-001-100-D00-0
 62
     2
100
AcDbTrace
 10
225.177982
 20
168.951893
 30
0.0
 11
225.177982
 21
185.61856
 31
0.0
 12
275.177982
 22
177.285227
 32
0.0
 13
275.177982
 23
177.285227
 33
0.0
  0
MTEXT
  5
686
330
680
100
AcDbEntity
  8
LC-001-100-D00-0
 62
     2
100
AcDbMText
 10
133.086272
 20
232.285227
 30
0.0
 40
50.0
 41
0.0
 71
     5
 72
     1
  1
\A1;284
  7
LCTX15-400-0-0pDIN-Schrift
 73
     1
 44
1.0
  0
POINT
  5
687
330
680
100
AcDbEntity
  8
Defpoints
 62
     0
100
AcDbPoint
 10
-8.321815
 20
278.918954
 30
0.0
  0
POINT
  5
688
330
680
100
AcDbEntity
  8
Defpoints
 62
     0
100
AcDbPoint
 10
275.177982
 20
268.356776
 30
0.0
  0
POINT
  5
689
330
680
100
AcDbEntity
  8
Defpoints
 62
     0
100
AcDbPoint
 10
275.177982
 20
177.285227
 30
0.0
  0
ENDBLK
  5
68B
330
680
100
AcDbEntity
  8
0
100
AcDbBlockEnd
  0
BLOCK
  5
698
330
68D
100
AcDbEntity
  8
0
100
AcDbBlockBegin
  2
*D31
 70
     1
 71
     0
 10
0.0
 20
0.0
 30
0.0
  3
*D31
  1

  0
LINE
  5
68E
330
68D
100
AcDbEntity
  8
LC-001-100-D00-0
 62
     2
370
    -2
100
AcDbLine
 10
271.677982
 20
317.418954
 30
0.0
 11
598.549987
 21
317.418954
 31
0.0
  0
LINE
  5
68F
330
68D
100
AcDbEntity
  8
LC-001-100-D00-0
 62
     2
370
    -2
100
AcDbLine
 10
271.677982
 20
267.418954
 30
0.0
 11
598.549987
 21
267.418954
 31
0.0
  0
LINE
  5
690
330
68D
100
AcDbEntity
  8
LC-001-100-D00-0
 62
     2
370
    -2
100
AcDbLine
 10
589.549987
 20
217.418954
 30
0.0
 11
589.549987
 21
167.418954
 31
0.0
  0
LINE
  5
691
330
68D
100
AcDbEntity
  8
LC-001-100-D00-0
 62
     2
370
    -2
100
AcDbLine
 10
589.549987
 20
367.418954
 30
0.0
 11
589.549987
 21
447.716309
 31
0.0
  0
SOLID
  5
692
330
68D
100
AcDbEntity
  8
LC-001-100-D00-0
 62
     2
100
AcDbTrace
 10
581.216654
 20
367.418954
 30
0.0
 11
597.883321
 21
367.418954
 31
0.0
 12
589.549987
 22
317.418954
 32
0.0
 13
589.549987
 23
317.418954
 33
0.0
  0
SOLID
  5
693
330
68D
100
AcDbEntity
  8
LC-001-100-D00-0
 62
     2
100
AcDbTrace
 10
597.883321
 20
217.418954
 30
0.0
 11
581.216654
 21
217.418954
 31
0.0
 12
589.549987
 22
267.418954
 32
0.0
 13
589.549987
 23
267.418954
 33
0.0
  0
MTEXT
  5
694
330
68D
100
AcDbEntity
  8
LC-001-100-D00-0
 62
     2
100
AcDbMText
 10
534.549987
 20
363.364956
 30
0.0
 40
50.0
 41
0.0
 71
     5
 72
     1
  1
\A1;DN50
  7
LCTX15-400-0-0pDIN-Schrift
 11
6.123031769111886E-17
 21
1.0
 31
0.0
 73
     1
 44
1.0
  0
POINT
  5
695
330
68D
100
AcDbEntity
  8
Defpoints
 62
     0
100
AcDbPoint
 10
271.677982
 20
317.418954
 30
0.0
  0
POINT
  5
696
330
68D
100
AcDbEntity
  8
Defpoints
 62
     0
100
AcDbPoint
 10
271.677982
 20
267.418954
 30
0.0
  0
POINT
  5
697
330
68D
100
AcDbEntity
  8
Defpoints
 62
     0
100
AcDbPoint
 10
589.549987
 20
267.418954
 30
0.0
  0
ENDBLK
  5
699
330
68D
100
AcDbEntity
  8
0
100
AcDbBlockEnd
  0
BLOCK
  5
6A7
330
69B
100
AcDbEntity
  8
0
100
AcDbBlockBegin
  2
*D32
 70
     1
 71
     0
 10
0.0
 20
0.0
 30
0.0
  3
*D32
  1

  0
LINE
  5
69C
330
69B
100
AcDbEntity
  8
LC-001-100-D00-0
 62
     2
370
    -2
100
AcDbLine
 10
515.678185
 20
349.918954
 30
0.0
 11
702.291741
 21
349.918954
 31
0.0
  0
LINE
  5
69D
330
69B
100
AcDbEntity
  8
LC-001-100-D00-0
 62
     2
370
    -2
100
AcDbLine
 10
281.677982
 20
292.418954
 30
0.0
 11
702.291741
 21
292.418954
 31
0.0
  0
LINE
  5
69E
330
69B
100
AcDbEntity
  8
LC-001-100-D00-0
 62
     2
370
    -2
100
AcDbLine
 10
693.291741
 20
399.918954
 30
0.0
 11
693.291741
 21
449.918954
 31
0.0
  0
LINE
  5
69F
330
69B
100
AcDbEntity
  8
LC-001-100-D00-0
 62
     2
370
    -2
100
AcDbLine
 10
693.291741
 20
242.418954
 30
0.0
 11
693.291741
 21
192.418954
 31
0.0
  0
LINE
  5
6A0
330
69B
100
AcDbEntity
  8
LC-001-100-D00-0
 62
     2
370
    -2
100
AcDbLine
 10
693.291741
 20
349.918954
 30
0.0
 11
693.291741
 21
292.418954
 31
0.0
  0
SOLID
  5
6A1
330
69B
100
AcDbEntity
  8
LC-001-100-D00-0
 62
     2
100
AcDbTrace
 10
684.958407
 20
399.918954
 30
0.0
 11
701.625074
 21
399.918954
 31
0.0
 12
693.291741
 22
349.918954
 32
0.0
 13
693.291741
 23
349.918954
 33
0.0
  0
SOLID
  5
6A2
330
69B
100
AcDbEntity
  8
LC-001-100-D00-0
 62
     2
100
AcDbTrace
 10
701.625074
 20
242.418954
 30
0.0
 11
684.958407
 21
242.418954
 31
0.0
 12
693.291741
 22
292.418954
 32
0.0
 13
693.291741
 23
292.418954
 33
0.0
  0
MTEXT
  5
6A3
330
69B
100
AcDbEntity
  8
LC-001-100-D00-0
 62
     2
100
AcDbMText
 10
638.291741
 20
333.314814
 30
0.0
 40
50.0
 41
0.0
 71
     5
 72
     1
  1
\A1;57,5
  7
LCTX15-400-0-0pDIN-Schrift
 11
6.123031769111886E-17
 21
1.0
 31
0.0
 73
     1
 44
1.0
  0
POINT
  5
6A4
330
69B
100
AcDbEntity
  8
Defpoints
 62
     0
100
AcDbPoint
 10
515.678185
 20
349.918954
 30
0.0
  0
POINT
  5
6A5
330
69B
100
AcDbEntity
  8
Defpoints
 62
     0
100
AcDbPoint
 10
281.677982
 20
292.418954
 30
0.0
  0
POINT
  5
6A6
330
69B
100
AcDbEntity
  8
Defpoints
 62
     0
100
AcDbPoint
 10
693.291741
 20
292.418954
 30
0.0
  0
ENDBLK
  5
6A8
330
69B
100
AcDbEntity
  8
0
100
AcDbBlockEnd
  0
BLOCK
  5
6B6
330
6AA
100
AcDbEntity
  8
0
100
AcDbBlockBegin
  2
*D33
 70
     1
 71
     0
 10
0.0
 20
0.0
 30
0.0
  3
*D33
  1

  0
LINE
  5
6AB
330
6AA
100
AcDbEntity
  8
LC-001-100-D00-0
 62
     2
370
    -2
100
AcDbLine
 10
-384.321815
 20
349.918954
 30
0.0
 11
-420.352204
 21
349.918954
 31
0.0
  0
LINE
  5
6AC
330
6AA
100
AcDbEntity
  8
LC-001-100-D00-0
 62
     2
370
    -2
100
AcDbLine
 10
11.660305
 20
259.918954
 30
0.0
 11
-420.352204
 21
259.918954
 31
0.0
  0
LINE
  5
6AD
330
6AA
100
AcDbEntity
  8
LC-001-100-D00-0
 62
     2
370
    -2
100
AcDbLine
 10
-411.352204
 20
399.918954
 30
0.0
 11
-411.352204
 21
449.918954
 31
0.0
  0
LINE
  5
6AE
330
6AA
100
AcDbEntity
  8
LC-001-100-D00-0
 62
     2
370
    -2
100
AcDbLine
 10
-411.352204
 20
209.918954
 30
0.0
 11
-411.352204
 21
159.918954
 31
0.0
  0
LINE
  5
6AF
330
6AA
100
AcDbEntity
  8
LC-001-100-D00-0
 62
     2
370
    -2
100
AcDbLine
 10
-411.352204
 20
349.918954
 30
0.0
 11
-411.352204
 21
259.918954
 31
0.0
  0
SOLID
  5
6B0
330
6AA
100
AcDbEntity
  8
LC-001-100-D00-0
 62
     2
100
AcDbTrace
 10
-419.685538
 20
399.918954
 30
0.0
 11
-403.018871
 21
399.918954
 31
0.0
 12
-411.352204
 22
349.918954
 32
0.0
 13
-411.352204
 23
349.918954
 33
0.0
  0
SOLID
  5
6B1
330
6AA
100
AcDbEntity
  8
LC-001-100-D00-0
 62
     2
100
AcDbTrace
 10
-403.018871
 20
209.918954
 30
0.0
 11
-419.685538
 21
209.918954
 31
0.0
 12
-411.352204
 22
259.918954
 32
0.0
 13
-411.352204
 23
259.918954
 33
0.0
  0
MTEXT
  5
6B2
330
6AA
100
AcDbEntity
  8
LC-001-100-D00-0
 62
     2
100
AcDbMText
 10
-466.352204
 20
279.778954
 30
0.0
 40
50.0
 41
0.0
 71
     5
 72
     1
  1
\A1;90
  7
LCTX15-400-0-0pDIN-Schrift
 11
6.123031769111886E-17
 21
1.0
 31
0.0
 73
     1
 44
1.0
  0
POINT
  5
6B3
330
6AA
100
AcDbEntity
  8
Defpoints
 62
     0
100
AcDbPoint
 10
-384.321815
 20
349.918954
 30
0.0
  0
POINT
  5
6B4
330
6AA
100
AcDbEntity
  8
Defpoints
 62
     0
100
AcDbPoint
 10
11.660305
 20
259.918954
 30
0.0
  0
POINT
  5
6B5
330
6AA
100
AcDbEntity
  8
Defpoints
 62
     0
100
AcDbPoint
 10
-411.352204
 20
259.918954
 30
0.0
  0
ENDBLK
  5
6B7
330
6AA
100
AcDbEntity
  8
0
100
AcDbBlockEnd
  0
BLOCK
  5
6C3
330
6B9
100
AcDbEntity
  8
0
100
AcDbBlockBegin
  2
*D34
 70
     1
 71
     0
 10
0.0
 20
0.0
 30
0.0
  3
*D34
  1

  0
LINE
  5
6BA
330
6B9
100
AcDbEntity
  8
LC-001-100-D00-0
 62
     2
370
    -2
100
AcDbLine
 10
515.678185
 20
349.918954
 30
0.0
 11
794.835836
 21
349.918954
 31
0.0
  0
LINE
  5
6BB
330
6B9
100
AcDbEntity
  8
LC-001-100-D00-0
 62
     2
370
    -2
100
AcDbLine
 10
418.178185
 20
215.418954
 30
0.0
 11
794.835836
 21
215.418954
 31
0.0
  0
LINE
  5
6BC
330
6B9
100
AcDbEntity
  8
LC-001-100-D00-0
 62
     2
370
    -2
100
AcDbLine
 10
785.835836
 20
299.918954
 30
0.0
 11
785.835836
 21
265.418954
 31
0.0
  0
SOLID
  5
6BD
330
6B9
100
AcDbEntity
  8
LC-001-100-D00-0
 62
     2
100
AcDbTrace
 10
794.169169
 20
299.918954
 30
0.0
 11
777.502502
 21
299.918954
 31
0.0
 12
785.835836
 22
349.918954
 32
0.0
 13
785.835836
 23
349.918954
 33
0.0
  0
SOLID
  5
6BE
330
6B9
100
AcDbEntity
  8
LC-001-100-D00-0
 62
     2
100
AcDbTrace
 10
777.502502
 20
265.418954
 30
0.0
 11
794.169169
 21
265.418954
 31
0.0
 12
785.835836
 22
215.418954
 32
0.0
 13
785.835836
 23
215.418954
 33
0.0
  0
MTEXT
  5
6BF
330
6B9
100
AcDbEntity
  8
LC-001-100-D00-0
 62
     2
100
AcDbMText
 10
730.835836
 20
349.078954
 30
0.0
 40
50.0
 41
0.0
 71
     5
 72
     1
  1
\A1;90-129,5
  7
LCTX15-400-0-0pDIN-Schrift
 11
6.123031769111886E-17
 21
1.0
 31
0.0
 73
     1
 44
1.0
  0
POINT
  5
6C0
330
6B9
100
AcDbEntity
  8
Defpoints
 62
     0
100
AcDbPoint
 10
515.678185
 20
349.918954
 30
0.0
  0
POINT
  5
6C1
330
6B9
100
AcDbEntity
  8
Defpoints
 62
     0
100
AcDbPoint
 10
418.178185
 20
215.418954
 30
0.0
  0
POINT
  5
6C2
330
6B9
100
AcDbEntity
  8
Defpoints
 62
     0
100
AcDbPoint
 10
785.835836
 20
215.418954
 30
0.0
  0
ENDBLK
  5
6C4
330
6B9
100
AcDbEntity
  8
0
100
AcDbBlockEnd
  0
BLOCK
  5
6C6
330
6C5
100
AcDbEntity
  8
0
100
AcDbBlockBegin
  2
KLON25
 70
     0
 71
     0
 10
0.0
 20
0.0
 30
0.0
  3
KLON25
  1

  4
KLON25
  0
LINE
  5
6C8
330
6C5
100
AcDbEntity
  8
LC-001-100-D00-0
 62
     7
370
    25
100
AcDbLine
 10
87.847498
 20
262.418954
 30
0.0
 11
89.347498
 21
263.918954
 31
0.0
  0
LINE
  5
6C9
330
6C5
100
AcDbEntity
  8
LC-001-100-D00-0
 62
     7
370
    25
100
AcDbLine
 10
105.178185
 20
279.749643
 30
0.0
 11
106.678185
 21
281.249643
 31
0.0
  0
LINE
  5
6CA
330
6C5
100
AcDbEntity
  8
LC-001-100-D00-0
 62
     7
370
    25
100
AcDbLine
 10
65.396858
 20
262.418954
 30
0.0
 11
66.896858
 21
263.918954
 31
0.0
  0
LINE
  5
6CB
330
6C5
100
AcDbEntity
  8
LC-001-100-D00-0
 62
     7
370
    25
100
AcDbLine
 10
105.178185
 20
302.200284
 30
0.0
 11
106.678185
 21
303.700284
 31
0.0
  0
LINE
  5
6CC
330
6C5
100
AcDbEntity
  8
LC-001-100-D00-0
 62
     7
370
    25
100
AcDbLine
 10
118.896854
 20
315.918954
 30
0.0
 11
120.778185
 21
317.800285
 31
0.0
  0
LINE
  5
6CD
330
6C5
100
AcDbEntity
  8
LC-001-100-D00-0
 62
     7
370
    25
100
AcDbLine
 10
42.946219
 20
262.418954
 30
0.0
 11
44.446219
 21
263.918954
 31
0.0
  0
LINE
  5
6CE
330
6C5
100
AcDbEntity
  8
LC-001-100-D00-0
 62
     7
370
    25
100
AcDbLine
 10
24.736189
 20
266.659564
 30
0.0
 11
26.178185
 21
268.10156
 31
0.0
  0
LINE
  5
6CF
330
6C5
100
AcDbEntity
  8
LC-001-100-D00-0
 62
     7
370
    25
100
AcDbLine
 10
24.678185
 20
289.052201
 30
0.0
 11
26.178185
 21
290.552201
 31
0.0
  0
LINE
  5
6D0
330
6C5
100
AcDbEntity
  8
LC-001-100-D00-0
 62
     7
370
    25
100
AcDbLine
 10
22.901029
 20
309.725686
 30
0.0
 11
24.331602
 21
311.156259
 31
0.0
  0
ENDBLK
  5
6C7
330
6C5
100
AcDbEntity
  8
0
100
AcDbBlockEnd
  0
BLOCK
  5
6D3
330
6D2
100
AcDbEntity
  8
0
100
AcDbBlockBegin
  2
KLON26
 70
     0
 71
     0
 10
0.0
 20
0.0
 30
0.0
  3
KLON26
  1

  4
KLON26
  0
LINE
  5
6D5
330
6D2
100
AcDbEntity
  8
LC-001-100-D00-0
 62
     7
370
    25
100
AcDbLine
 10
169.777631
 20
321.898451
 30
0.0
 11
172.113211
 21
324.234032
 31
0.0
  0
LINE
  5
6D6
330
6D2
100
AcDbEntity
  8
LC-001-100-D00-0
 62
     7
370
    25
100
AcDbLine
 10
186.361286
 20
316.031466
 30
0.0
 11
188.145745
 21
317.815926
 31
0.0
  0
LINE
  5
6D7
330
6D2
100
AcDbEntity
  8
LC-001-100-D00-0
 62
     7
370
    25
100
AcDbLine
 10
207.949394
 20
315.168954
 30
0.0
 11
210.199394
 21
317.418954
 31
0.0
  0
ENDBLK
  5
6D4
330
6D2
100
AcDbEntity
  8
0
100
AcDbBlockEnd
  0
BLOCK
  5
6DA
330
6D9
100
AcDbEntity
  8
0
100
AcDbBlockBegin
  2
KLON27
 70
     0
 71
     0
 10
0.0
 20
0.0
 30
0.0
  3
KLON27
  1

  4
KLON27
  0
LINE
  5
6DC
330
6D9
100
AcDbEntity
  8
LC-001-100-D00-0
 62
     7
370
    25
100
AcDbLine
 10
227.551334
 20
267.418954
 30
0.0
 11
229.801334
 21
269.668954
 31
0.0
  0
LINE
  5
6DD
330
6D9
100
AcDbEntity
  8
LC-001-100-D00-0
 62
     7
370
    25
100
AcDbLine
 10
250.001974
 20
267.418954
 30
0.0
 11
252.251974
 21
269.668954
 31
0.0
  0
LINE
  5
6DE
330
6D9
100
AcDbEntity
  8
LC-001-100-D00-0
 62
     7
370
    25
100
AcDbLine
 10
272.736149
 20
267.702489
 30
0.0
 11
274.702614
 21
269.668954
 31
0.0
  0
ENDBLK
  5
6DB
330
6D9
100
AcDbEntity
  8
0
100
AcDbBlockEnd
  0
BLOCK
  5
6E1
330
6E0
100
AcDbEntity
  8
0
100
AcDbBlockBegin
  2
KLON28
 70
     0
 71
     0
 10
0.0
 20
0.0
 30
0.0
  3
KLON28
  1

  4
KLON28
  0
LINE
  5
6E3
330
6E0
100
AcDbEntity
  8
LC-001-100-D00-0
 62
     7
370
    25
100
AcDbLine
 10
510.607084
 20
348.418954
 30
0.0
 11
512.107083
 21
349.918954
 31
0.0
  0
LINE
  5
6E4
330
6E0
100
AcDbEntity
  8
LC-001-100-D00-0
 62
     7
370
    25
100
AcDbLine
 10
488.156444
 20
348.418954
 30
0.0
 11
489.656444
 21
349.918954
 31
0.0
  0
LINE
  5
6E5
330
6E0
100
AcDbEntity
  8
LC-001-100-D00-0
 62
     7
370
    25
100
AcDbLine
 10
445.205806
 20
327.918954
 30
0.0
 11
446.705806
 21
329.418954
 31
0.0
  0
LINE
  5
6E6
330
6E0
100
AcDbEntity
  8
LC-001-100-D00-0
 62
     7
370
    25
100
AcDbLine
 10
422.755167
 20
327.918954
 30
0.0
 11
424.255167
 21
329.418954
 31
0.0
  0
LINE
  5
6E7
330
6E0
100
AcDbEntity
  8
LC-001-100-D00-0
 62
     7
370
    25
100
AcDbLine
 10
431.678185
 20
336.841973
 30
0.0
 11
439.678185
 21
344.841974
 31
0.0
  0
LINE
  5
6E8
330
6E0
100
AcDbEntity
  8
LC-001-100-D00-0
 62
     7
370
    25
100
AcDbLine
 10
400.304527
 20
327.918954
 30
0.0
 11
401.804527
 21
329.418954
 31
0.0
  0
LINE
  5
6E9
330
6E0
100
AcDbEntity
  8
LC-001-100-D00-0
 62
     7
370
    25
100
AcDbLine
 10
377.853888
 20
327.918954
 30
0.0
 11
379.353888
 21
329.418954
 31
0.0
  0
LINE
  5
6EA
330
6E0
100
AcDbEntity
  8
LC-001-100-D00-0
 62
     7
370
    25
100
AcDbLine
 10
355.403248
 20
327.918954
 30
0.0
 11
356.903248
 21
329.418954
 31
0.0
  0
LINE
  5
6EB
330
6E0
100
AcDbEntity
  8
LC-001-100-D00-0
 62
     7
370
    25
100
AcDbLine
 10
332.952609
 20
327.918954
 30
0.0
 11
334.452609
 21
329.418954
 31
0.0
  0
LINE
  5
6EC
330
6E0
100
AcDbEntity
  8
LC-001-100-D00-0
 62
     7
370
    25
100
AcDbLine
 10
310.501969
 20
327.918954
 30
0.0
 11
312.001969
 21
329.418954
 31
0.0
  0
LINE
  5
6ED
330
6E0
100
AcDbEntity
  8
LC-001-100-D00-0
 62
     7
370
    25
100
AcDbLine
 10
288.05133
 20
327.918954
 30
0.0
 11
289.55133
 21
329.418954
 31
0.0
  0
LINE
  5
6EE
330
6E0
100
AcDbEntity
  8
LC-001-100-D00-0
 62
     7
370
    25
100
AcDbLine
 10
296.678185
 20
336.54581
 30
0.0
 11
304.678185
 21
344.54581
 31
0.0
  0
LINE
  5
6EF
330
6E0
100
AcDbEntity
  8
LC-001-100-D00-0
 62
     7
370
    25
100
AcDbLine
 10
265.60069
 20
327.918954
 30
0.0
 11
267.10069
 21
329.418954
 31
0.0
  0
LINE
  5
6F0
330
6E0
100
AcDbEntity
  8
LC-001-100-D00-0
 62
     7
370
    25
100
AcDbLine
 10
243.150051
 20
327.918954
 30
0.0
 11
244.650051
 21
329.418954
 31
0.0
  0
LINE
  5
6F1
330
6E0
100
AcDbEntity
  8
LC-001-100-D00-0
 62
     7
370
    25
100
AcDbLine
 10
220.699411
 20
327.918954
 30
0.0
 11
222.199411
 21
329.418954
 31
0.0
  0
LINE
  5
6F2
330
6E0
100
AcDbEntity
  8
LC-001-100-D00-0
 62
     7
370
    25
100
AcDbLine
 10
198.248772
 20
327.918954
 30
0.0
 11
199.748772
 21
329.418954
 31
0.0
  0
LINE
  5
6F3
330
6E0
100
AcDbEntity
  8
LC-001-100-D00-0
 62
     7
370
    25
100
AcDbLine
 10
175.798132
 20
327.918954
 30
0.0
 11
177.298132
 21
329.418954
 31
0.0
  0
LINE
  5
6F4
330
6E0
100
AcDbEntity
  8
LC-001-100-D00-0
 62
     7
370
    25
100
AcDbLine
 10
151.154655
 20
325.726116
 30
0.0
 11
153.275975
 21
327.847436
 31
0.0
  0
LINE
  5
6F5
330
6E0
100
AcDbEntity
  8
LC-001-100-D00-0
 62
     7
370
    25
100
AcDbLine
 10
161.678185
 20
336.249647
 30
0.0
 11
169.678185
 21
344.249647
 31
0.0
  0
LINE
  5
6F6
330
6E0
100
AcDbEntity
  8
LC-001-100-D00-0
 62
     7
370
    25
100
AcDbLine
 10
120.978185
 20
318.000285
 30
0.0
 11
122.478185
 21
319.500285
 31
0.0
  0
LINE
  5
6F7
330
6E0
100
AcDbEntity
  8
LC-001-100-D00-0
 62
     7
370
    25
100
AcDbLine
 10
125.896854
 20
322.918954
 30
0.0
 11
127.396854
 21
324.418954
 31
0.0
  0
ENDBLK
  5
6E2
330
6E0
100
AcDbEntity
  8
0
100
AcDbBlockEnd
  0
BLOCK
  5
6FA
330
6F9
100
AcDbEntity
  8
0
100
AcDbBlockBegin
  2
KLON29
 70
     0
 71
     0
 10
0.0
 20
0.0
 30
0.0
  3
KLON29
  1

  4
KLON29
  0
LINE
  5
6FC
330
6F9
100
AcDbEntity
  8
LC-001-100-D00-0
 62
     7
370
    25
100
AcDbLine
 10
8.878185
 20
318.153482
 30
0.0
 11
10.378185
 21
319.653482
 31
0.0
  0
LINE
  5
6FD
330
6F9
100
AcDbEntity
  8
LC-001-100-D00-0
 62
     7
370
    25
100
AcDbLine
 10
-8.806966
 20
322.918971
 30
0.0
 11
-7.306983
 21
324.418954
 31
0.0
  0
LINE
  5
6FE
330
6F9
100
AcDbEntity
  8
LC-001-100-D00-0
 62
     7
370
    25
100
AcDbLine
 10
-26.622041
 20
327.554536
 30
0.0
 11
-25.397297
 21
328.77928
 31
0.0
  0
LINE
  5
6FF
330
6F9
100
AcDbEntity
  8
LC-001-100-D00-0
 62
     7
370
    25
100
AcDbLine
 10
-48.708262
 20
327.918954
 30
0.0
 11
-47.208263
 21
329.418954
 31
0.0
  0
LINE
  5
700
330
6F9
100
AcDbEntity
  8
LC-001-100-D00-0
 62
     7
370
    25
100
AcDbLine
 10
-38.321815
 20
338.305402
 30
0.0
 11
-30.321815
 21
346.305403
 31
0.0
  0
LINE
  5
701
330
6F9
100
AcDbEntity
  8
LC-001-100-D00-0
 62
     7
370
    25
100
AcDbLine
 10
-71.158902
 20
327.918954
 30
0.0
 11
-69.658902
 21
329.418954
 31
0.0
  0
LINE
  5
702
330
6F9
100
AcDbEntity
  8
LC-001-100-D00-0
 62
     7
370
    25
100
AcDbLine
 10
-93.609541
 20
327.918954
 30
0.0
 11
-92.109542
 21
329.418954
 31
0.0
  0
LINE
  5
703
330
6F9
100
AcDbEntity
  8
LC-001-100-D00-0
 62
     7
370
    25
100
AcDbLine
 10
-116.060181
 20
327.918954
 30
0.0
 11
-114.560181
 21
329.418954
 31
0.0
  0
LINE
  5
704
330
6F9
100
AcDbEntity
  8
LC-001-100-D00-0
 62
     7
370
    25
100
AcDbLine
 10
-138.51082
 20
327.918954
 30
0.0
 11
-137.010821
 21
329.418954
 31
0.0
  0
LINE
  5
705
330
6F9
100
AcDbEntity
  8
LC-001-100-D00-0
 62
     7
370
    25
100
AcDbLine
 10
-160.96146
 20
327.918954
 30
0.0
 11
-159.46146
 21
329.418954
 31
0.0
  0
LINE
  5
706
330
6F9
100
AcDbEntity
  8
LC-001-100-D00-0
 62
     7
370
    25
100
AcDbLine
 10
-183.412099
 20
327.918954
 30
0.0
 11
-181.912099
 21
329.418954
 31
0.0
  0
LINE
  5
707
330
6F9
100
AcDbEntity
  8
LC-001-100-D00-0
 62
     7
370
    25
100
AcDbLine
 10
-173.321815
 20
338.009239
 30
0.0
 11
-165.321815
 21
346.00924
 31
0.0
  0
LINE
  5
708
330
6F9
100
AcDbEntity
  8
LC-001-100-D00-0
 62
     7
370
    25
100
AcDbLine
 10
-205.862739
 20
327.918954
 30
0.0
 11
-204.362739
 21
329.418954
 31
0.0
  0
LINE
  5
709
330
6F9
100
AcDbEntity
  8
LC-001-100-D00-0
 62
     7
370
    25
100
AcDbLine
 10
-228.313378
 20
327.918954
 30
0.0
 11
-226.813378
 21
329.418954
 31
0.0
  0
LINE
  5
70A
330
6F9
100
AcDbEntity
  8
LC-001-100-D00-0
 62
     7
370
    25
100
AcDbLine
 10
-250.764018
 20
327.918954
 30
0.0
 11
-249.264018
 21
329.418954
 31
0.0
  0
LINE
  5
70B
330
6F9
100
AcDbEntity
  8
LC-001-100-D00-0
 62
     7
370
    25
100
AcDbLine
 10
-273.214657
 20
327.918954
 30
0.0
 11
-271.714657
 21
329.418954
 31
0.0
  0
LINE
  5
70C
330
6F9
100
AcDbEntity
  8
LC-001-100-D00-0
 62
     7
370
    25
100
AcDbLine
 10
-295.665297
 20
327.918954
 30
0.0
 11
-294.165297
 21
329.418954
 31
0.0
  0
LINE
  5
70D
330
6F9
100
AcDbEntity
  8
LC-001-100-D00-0
 62
     7
370
    25
100
AcDbLine
 10
-318.115936
 20
327.918954
 30
0.0
 11
-316.615936
 21
329.418954
 31
0.0
  0
LINE
  5
70E
330
6F9
100
AcDbEntity
  8
LC-001-100-D00-0
 62
     7
370
    25
100
AcDbLine
 10
-308.321815
 20
337.713076
 30
0.0
 11
-300.321815
 21
345.713076
 31
0.0
  0
LINE
  5
70F
330
6F9
100
AcDbEntity
  8
LC-001-100-D00-0
 62
     7
370
    25
100
AcDbLine
 10
-334.978844
 20
333.506686
 30
0.0
 11
-333.829545
 21
334.655985
 31
0.0
  0
LINE
  5
710
330
6F9
100
AcDbEntity
  8
LC-001-100-D00-0
 62
     7
370
    25
100
AcDbLine
 10
-342.517217
 20
348.418954
 30
0.0
 11
-341.017217
 21
349.918954
 31
0.0
  0
LINE
  5
711
330
6F9
100
AcDbEntity
  8
LC-001-100-D00-0
 62
     7
370
    25
100
AcDbLine
 10
-364.967856
 20
348.418954
 30
0.0
 11
-363.467856
 21
349.918954
 31
0.0
  0
ENDBLK
  5
6FB
330
6F9
100
AcDbEntity
  8
0
100
AcDbBlockEnd
  0
BLOCK
  5
714
330
713
100
AcDbEntity
  8
0
100
AcDbBlockBegin
  2
KLON30
 70
     0
 71
     0
 10
0.0
 20
0.0
 30
0.0
  3
KLON30
  1

  4
KLON30
  0
LINE
  5
716
330
713
100
AcDbEntity
  8
LC-001-100-D00-0
 62
     7
370
    25
100
AcDbLine
 10
93.178185
 20
290.200283
 30
0.0
 11
94.678185
 21
291.700283
 31
0.0
  0
LINE
  5
717
330
713
100
AcDbEntity
  8
LC-001-100-D00-0
 62
     7
370
    25
100
AcDbLine
 10
93.178185
 20
312.650924
 30
0.0
 11
104.446214
 21
323.918954
 31
0.0
  0
ENDBLK
  5
715
330
713
100
AcDbEntity
  8
0
100
AcDbBlockEnd
  0
BLOCK
  5
71A
330
719
100
AcDbEntity
  8
0
100
AcDbBlockBegin
  2
KLON31
 70
     0
 71
     0
 10
0.0
 20
0.0
 30
0.0
  3
KLON31
  1

  4
KLON31
  0
LINE
  5
71C
330
719
100
AcDbEntity
  8
LC-001-100-D00-0
 62
     7
370
    25
100
AcDbLine
 10
36.678185
 20
278.601561
 30
0.0
 11
38.178185
 21
280.101561
 31
0.0
  0
LINE
  5
71D
330
719
100
AcDbEntity
  8
LC-001-100-D00-0
 62
     7
370
    25
100
AcDbLine
 10
36.678185
 20
301.052202
 30
0.0
 11
38.178185
 21
302.552202
 31
0.0
  0
LINE
  5
71E
330
719
100
AcDbEntity
  8
LC-001-100-D00-0
 62
     7
370
    25
100
AcDbLine
 10
30.382782
 20
317.207439
 30
0.0
 11
36.942493
 21
323.767151
 31
0.0
  0
LINE
  5
71F
330
719
100
AcDbEntity
  8
LC-001-100-D00-0
 62
     7
370
    25
100
AcDbLine
 10
13.143656
 20
322.418954
 30
0.0
 11
14.643656
 21
323.918954
 31
0.0
  0
ENDBLK
  5
71B
330
719
100
AcDbEntity
  8
0
100
AcDbBlockEnd
  0
BLOCK
  5
722
330
721
100
AcDbEntity
  8
0
100
AcDbBlockBegin
  2
KLON32
 70
     0
 71
     0
 10
0.0
 20
0.0
 30
0.0
  3
KLON32
  1

  4
KLON32
  0
LINE
  5
724
330
721
100
AcDbEntity
  8
LC-001-100-D00-0
 62
     7
370
    25
100
AcDbLine
 10
180.506491
 20
265.27539
 30
0.0
 11
183.366323
 21
268.135222
 31
0.0
  0
LINE
  5
725
330
721
100
AcDbEntity
  8
LC-001-100-D00-0
 62
     7
370
    25
100
AcDbLine
 10
157.640485
 20
264.860023
 30
0.0
 11
162.199416
 21
269.418954
 31
0.0
  0
LINE
  5
726
330
721
100
AcDbEntity
  8
LC-001-100-D00-0
 62
     7
370
    25
100
AcDbLine
 10
136.748776
 20
266.418954
 30
0.0
 11
139.748776
 21
269.418954
 31
0.0
  0
LINE
  5
727
330
721
100
AcDbEntity
  8
LC-001-100-D00-0
 62
     7
370
    25
100
AcDbLine
 10
107.798137
 20
259.918954
 30
0.0
 11
110.798137
 21
262.918954
 31
0.0
  0
LINE
  5
728
330
721
100
AcDbEntity
  8
LC-001-100-D00-0
 62
     7
370
    25
100
AcDbLine
 10
85.347498
 20
259.918954
 30
0.0
 11
88.347498
 21
262.918954
 31
0.0
  0
LINE
  5
729
330
721
100
AcDbEntity
  8
LC-001-100-D00-0
 62
     7
370
    25
100
AcDbLine
 10
62.896858
 20
259.918954
 30
0.0
 11
65.896858
 21
262.918954
 31
0.0
  0
LINE
  5
72A
330
721
100
AcDbEntity
  8
LC-001-100-D00-0
 62
     7
370
    25
100
AcDbLine
 10
40.446219
 20
259.918954
 30
0.0
 11
43.446219
 21
262.918954
 31
0.0
  0
LINE
  5
72B
330
721
100
AcDbEntity
  8
LC-001-100-D00-0
 62
     7
370
    25
100
AcDbLine
 10
17.995579
 20
259.918954
 30
0.0
 11
20.995579
 21
262.918954
 31
0.0
  0
LINE
  5
72C
330
721
100
AcDbEntity
  8
LC-001-100-D00-0
 62
     7
370
    25
100
AcDbLine
 10
2.202121
 20
266.576135
 30
0.0
 11
5.044939
 21
269.418954
 31
0.0
  0
LINE
  5
72D
330
721
100
AcDbEntity
  8
LC-001-100-D00-0
 62
     7
370
    25
100
AcDbLine
 10
-8.315109
 20
278.509546
 30
0.0
 11
-5.321815
 21
281.50284
 31
0.0
  0
LINE
  5
72E
330
721
100
AcDbEntity
  8
LC-001-100-D00-0
 62
     7
370
    25
100
AcDbLine
 10
-8.321815
 20
300.953481
 30
0.0
 11
-5.321815
 21
303.953481
 31
0.0
  0
ENDBLK
  5
723
330
721
100
AcDbEntity
  8
0
100
AcDbBlockEnd
  0
BLOCK
  5
731
330
730
100
AcDbEntity
  8
0
100
AcDbBlockBegin
  2
KLON33
 70
     0
 71
     0
 10
0.0
 20
0.0
 30
0.0
  3
KLON33
  1

  4
KLON33
  0
LINE
  5
733
330
730
100
AcDbEntity
  8
LC-001-100-D00-0
 62
     7
370
    50
100
AcDbLine
 10
163.298133
 20
315.418954
 30
0.0
 11
169.917493
 21
322.038314
 31
0.0
  0
LINE
  5
734
330
730
100
AcDbEntity
  8
LC-001-100-D00-0
 62
     7
370
    50
100
AcDbLine
 10
140.847494
 20
315.418954
 30
0.0
 11
143.847494
 21
318.418954
 31
0.0
  0
ENDBLK
  5
732
330
730
100
AcDbEntity
  8
0
100
AcDbBlockEnd
  0
BLOCK
  5
739
330
738
100
AcDbEntity
  8
0
100
AcDbBlockBegin
  2
KLON34
 70
     0
 71
     0
 10
0.0
 20
0.0
 30
0.0
  3
KLON34
  1

  4
KLON34
  0
LINE
  5
73B
330
738
100
AcDbEntity
  8
LC-001-100-D00-0
 62
     7
370
    25
100
AcDbLine
 10
-44.071815
 20
332.555402
 30
0.0
 11
-39.773998
 21
336.853219
 31
0.0
  0
LINE
  5
73C
330
738
100
AcDbEntity
  8
LC-001-100-D00-0
 62
     7
370
    25
100
AcDbLine
 10
-52.571815
 20
346.506042
 30
0.0
 11
-49.158904
 21
349.918954
 31
0.0
  0
ENDBLK
  5
73A
330
738
100
AcDbEntity
  8
0
100
AcDbBlockEnd
  0
BLOCK
  5
741
330
740
100
AcDbEntity
  8
0
100
AcDbBlockBegin
  2
KLON35
 70
     0
 71
     0
 10
0.0
 20
0.0
 30
0.0
  3
KLON35
  1

  4
KLON35
  0
LINE
  5
743
330
740
100
AcDbEntity
  8
LC-001-100-D00-0
 62
     7
370
    25
100
AcDbLine
 10
291.285336
 20
331.152961
 30
0.0
 11
295.478185
 21
335.34581
 31
0.0
  0
LINE
  5
744
330
740
100
AcDbEntity
  8
LC-001-100-D00-0
 62
     7
370
    25
100
AcDbLine
 10
282.428185
 20
344.74645
 30
0.0
 11
287.600689
 21
349.918954
 31
0.0
  0
ENDBLK
  5
742
330
740
100
AcDbEntity
  8
0
100
AcDbBlockEnd
  0
BLOCK
  5
749
330
748
100
AcDbEntity
  8
0
100
AcDbBlockBegin
  2
KLON36
 70
     0
 71
     0
 10
0.0
 20
0.0
 30
0.0
  3
KLON36
  1

  4
KLON36
  0
LINE
  5
74B
330
748
100
AcDbEntity
  8
LC-001-100-D00-0
 62
     7
370
    25
100
AcDbLine
 10
-314.071815
 20
331.963075
 30
0.0
 11
-309.529366
 21
336.505524
 31
0.0
  0
LINE
  5
74C
330
748
100
AcDbEntity
  8
LC-001-100-D00-0
 62
     7
370
    25
100
AcDbLine
 10
-322.571815
 20
345.913716
 30
0.0
 11
-318.566577
 21
349.918954
 31
0.0
  0
ENDBLK
  5
74A
330
748
100
AcDbEntity
  8
0
100
AcDbBlockEnd
  0
BLOCK
  5
751
330
750
100
AcDbEntity
  8
0
100
AcDbBlockBegin
  2
KLON37
 70
     0
 71
     0
 10
0.0
 20
0.0
 30
0.0
  3
KLON37
  1

  4
KLON37
  0
LINE
  5
753
330
750
100
AcDbEntity
  8
LC-001-100-D00-0
 62
     7
370
    25
100
AcDbLine
 10
-179.071815
 20
332.259239
 30
0.0
 11
-174.617686
 21
336.713368
 31
0.0
  0
LINE
  5
754
330
750
100
AcDbEntity
  8
LC-001-100-D00-0
 62
     7
370
    25
100
AcDbLine
 10
-187.571815
 20
346.209879
 30
0.0
 11
-183.86274
 21
349.918954
 31
0.0
  0
ENDBLK
  5
752
330
750
100
AcDbEntity
  8
0
100
AcDbBlockEnd
  0
BLOCK
  5
759
330
758
100
AcDbEntity
  8
0
100
AcDbBlockBegin
  2
KLON38
 70
     0
 71
     0
 10
0.0
 20
0.0
 30
0.0
  3
KLON38
  1

  4
KLON38
  0
LINE
  5
75B
330
758
100
AcDbEntity
  8
LC-001-100-D00-0
 62
     7
370
    25
100
AcDbLine
 10
426.139881
 20
331.303668
 30
0.0
 11
430.478185
 21
335.641973
 31
0.0
  0
LINE
  5
75C
330
758
100
AcDbEntity
  8
LC-001-100-D00-0
 62
     7
370
    25
100
AcDbLine
 10
417.428185
 20
345.042613
 30
0.0
 11
422.304526
 21
349.918954
 31
0.0
  0
ENDBLK
  5
75A
330
758
100
AcDbEntity
  8
0
100
AcDbBlockEnd
  0
BLOCK
  5
761
330
760
100
AcDbEntity
  8
0
100
AcDbBlockBegin
  2
KLON39
 70
     0
 71
     0
 10
0.0
 20
0.0
 30
0.0
  3
KLON39
  1

  4
KLON39
  0
LINE
  5
763
330
760
100
AcDbEntity
  8
LC-001-100-D00-0
 62
     7
370
    25
100
AcDbLine
 10
156.462528
 20
331.033989
 30
0.0
 11
160.478185
 21
335.049647
 31
0.0
  0
LINE
  5
764
330
760
100
AcDbEntity
  8
LC-001-100-D00-0
 62
     7
370
    25
100
AcDbLine
 10
147.428185
 20
344.450287
 30
0.0
 11
152.896852
 21
349.918954
 31
0.0
  0
ENDBLK
  5
762
330
760
100
AcDbEntity
  8
0
100
AcDbBlockEnd
  0
ENDSEC
  0
SECTION
  2
ENTITIES
  0
LINE
  5
31
330
1F
100
AcDbEntity
  8
LC-001-100-D00-0
 62
     7
370
    50
100
AcDbLine
 10
1004.668016
 20
348.418954
 30
0.0
 11
1004.668015
 21
347.018954
 31
0.0
  0
LINE
  5
32
330
1F
100
AcDbEntity
  8
LC-001-100-D00-0
 62
     7
370
    50
100
AcDbLine
 10
1013.668015
 20
347.018954
 30
0.0
 11
1013.668017
 21
348.418954
 31
0.0
  0
LINE
  5
33
330
1F
100
AcDbEntity
  8
LC-001-100-D00-0
 62
     7
370
    50
100
AcDbLine
 10
934.668014
 20
348.418954
 30
0.0
 11
934.668015
 21
347.018954
 31
0.0
  0
LINE
  5
34
330
1F
100
AcDbEntity
  8
LC-001-100-D00-0
 62
     7
370
    50
100
AcDbLine
 10
943.668015
 20
347.018954
 30
0.0
 11
943.668015
 21
348.418954
 31
0.0
  0
LINE
  5
35
330
1F
100
AcDbEntity
  8
LC-001-100-D00-0
 62
     7
370
    50
100
AcDbLine
 10
1005.168015
 20
347.018954
 30
0.0
 11
1005.168015
 21
333.418954
 31
0.0
  0
LINE
  5
36
330
1F
100
AcDbEntity
  8
LC-001-100-D00-0
 62
     7
370
    50
100
AcDbLine
 10
1013.168015
 20
333.418954
 30
0.0
 11
1013.168016
 21
347.018954
 31
0.0
  0
LINE
  5
37
330
1F
100
AcDbEntity
  8
LC-001-100-D00-0
 62
     7
370
    50
100
AcDbLine
 10
935.168015
 20
347.018954
 30
0.0
 11
935.168015
 21
333.418954
 31
0.0
  0
LINE
  5
38
330
1F
100
AcDbEntity
  8
LC-001-100-D00-0
 62
     7
370
    50
100
AcDbLine
 10
943.168015
 20
333.418954
 30
0.0
 11
943.168016
 21
347.018954
 31
0.0
  0
ARC
  5
39
330
1F
100
AcDbEntity
  8
LC-001-100-D00-0
 62
     7
370
    50
100
AcDbCircle
 10
900.668015
 20
222.918954
 30
0.0
 40
0.4999999999997726
100
AcDbArc
 50
90.0
 51
180.0
  0
ARC
  5
3A
330
1F
100
AcDbEntity
  8
LC-001-100-D00-0
 62
     7
370
    50
100
AcDbCircle
 10
918.668015
 20
222.918954
 30
0.0
 40
0.4999999999997726
100
AcDbArc
 50
0.0
 51
90.0
  0
LINE
  5
3B
330
1F
100
AcDbEntity
  8
LC-001-100-D00-0
 62
     7
370
    50
100
AcDbLine
 10
900.168015
 20
222.918954
 30
0.0
 11
900.168015
 21
215.418954
 31
0.0
  0
LINE
  5
3C
330
1F
100
AcDbEntity
  8
LC-001-100-D00-0
 62
     7
370
    50
100
AcDbLine
 10
919.168015
 20
215.418954
 30
0.0
 11
919.168015
 21
222.918954
 31
0.0
  0
ARC
  5
3D
330
1F
100
AcDbEntity
  8
LC-001-100-D00-0
 62
     7
370
    50
100
AcDbCircle
 10
1029.668015
 20
222.918954
 30
0.0
 40
0.5000000000002274
100
AcDbArc
 50
90.0
 51
180.0
  0
ARC
  5
3E
330
1F
100
AcDbEntity
  8
LC-001-100-D00-0
 62
     7
370
    50
100
AcDbCircle
 10
1047.668015
 20
222.918954
 30
0.0
 40
0.5
100
AcDbArc
 50
0.0
 51
90.0
  0
LINE
  5
3F
330
1F
100
AcDbEntity
  8
LC-001-100-D00-0
 62
     7
370
    50
100
AcDbLine
 10
1029.168015
 20
222.918954
 30
0.0
 11
1029.168015
 21
215.418954
 31
0.0
  0
LINE
  5
40
330
1F
100
AcDbEntity
  8
LC-001-100-D00-0
 62
     7
370
    50
100
AcDbLine
 10
1048.168015
 20
215.418954
 30
0.0
 11
1048.168015
 21
222.918954
 31
0.0
  0
LINE
  5
41
330
1F
100
AcDbEntity
  8
LC-001-100-D00-0
 62
     7
370
    50
100
AcDbLine
 10
899.668014
 20
292.418953
 30
0.0
 11
899.668015
 21
238.418954
 31
0.0
  0
LINE
  5
42
330
1F
100
AcDbEntity
  8
LC-001-100-D00-0
 62
     7
370
    50
100
AcDbLine
 10
919.668015
 20
238.418954
 30
0.0
 11
919.668017
 21
292.418953
 31
0.0
  0
LINE
  5
43
330
1F
100
AcDbEntity
  8
LC-001-100-D00-0
 62
     7
370
    50
100
AcDbLine
 10
899.668015
 20
234.918954
 30
0.0
 11
899.668015
 21
224.418954
 31
0.0
  0
LINE
  5
44
330
1F
100
AcDbEntity
  8
LC-001-100-D00-0
 62
     7
370
    50
100
AcDbLine
 10
919.668015
 20
224.418954
 30
0.0
 11
919.668015
 21
234.918954
 31
0.0
  0
LINE
  5
45
330
1F
100
AcDbEntity
  8
LC-001-100-D00-0
 62
     7
370
    50
100
AcDbLine
 10
899.668015
 20
224.418954
 30
0.0
 11
900.668015
 21
223.418954
 31
0.0
  0
LINE
  5
46
330
1F
100
AcDbEntity
  8
LC-001-100-D00-0
 62
     7
370
    50
100
AcDbLine
 10
918.668015
 20
223.418954
 30
0.0
 11
919.668015
 21
224.418954
 31
0.0
  0
LINE
  5
47
330
1F
100
AcDbEntity
  8
LC-001-100-D00-0
 62
     7
370
    50
100
AcDbLine
 10
901.768012
 20
238.418952
 30
0.0
 11
901.768012
 21
234.918952
 31
0.0
  0
LINE
  5
48
330
1F
100
AcDbEntity
  8
LC-001-100-D00-0
 62
     7
370
    50
100
AcDbLine
 10
917.568015
 20
234.918952
 30
0.0
 11
917.568015
 21
238.418952
 31
0.0
  0
LINE
  5
49
330
1F
100
AcDbEntity
  8
LC-001-100-D00-0
 62
     7
370
    50
100
AcDbLine
 10
1028.668014
 20
292.418953
 30
0.0
 11
1028.668015
 21
238.418954
 31
0.0
  0
LINE
  5
4A
330
1F
100
AcDbEntity
  8
LC-001-100-D00-0
 62
     7
370
    50
100
AcDbLine
 10
1048.668015
 20
238.418954
 30
0.0
 11
1048.668017
 21
292.418953
 31
0.0
  0
LINE
  5
4B
330
1F
100
AcDbEntity
  8
LC-001-100-D00-0
 62
     7
370
    50
100
AcDbLine
 10
1028.668015
 20
234.918954
 30
0.0
 11
1028.668015
 21
224.418954
 31
0.0
  0
LINE
  5
4C
330
1F
100
AcDbEntity
  8
LC-001-100-D00-0
 62
     7
370
    50
100
AcDbLine
 10
1048.668015
 20
224.418954
 30
0.0
 11
1048.668015
 21
234.918954
 31
0.0
  0
LINE
  5
4D
330
1F
100
AcDbEntity
  8
LC-001-100-D00-0
 62
     7
370
    50
100
AcDbLine
 10
1028.668015
 20
224.418954
 30
0.0
 11
1029.668015
 21
223.418954
 31
0.0
  0
LINE
  5
4E
330
1F
100
AcDbEntity
  8
LC-001-100-D00-0
 62
     7
370
    50
100
AcDbLine
 10
1047.668015
 20
223.418954
 30
0.0
 11
1048.668015
 21
224.418954
 31
0.0
  0
LINE
  5
4F
330
1F
100
AcDbEntity
  8
LC-001-100-D00-0
 62
     7
370
    50
100
AcDbLine
 10
1030.768016
 20
238.418952
 30
0.0
 11
1030.768016
 21
234.918952
 31
0.0
  0
LINE
  5
50
330
1F
100
AcDbEntity
  8
LC-001-100-D00-0
 62
     7
370
    50
100
AcDbLine
 10
1046.568019
 20
234.918952
 30
0.0
 11
1046.568019
 21
238.418952
 31
0.0
  0
ARC
  5
51
330
1F
100
AcDbEntity
  8
LC-001-100-D00-0
 62
     7
370
    50
100
AcDbCircle
 10
943.568015
 20
324.018954
 30
0.0
 40
0.6000000000001364
100
AcDbArc
 50
270.0
 51
0.0
  0
ARC
  5
52
330
1F
100
AcDbEntity
  8
LC-001-100-D00-0
 62
     7
370
    50
100
AcDbCircle
 10
934.768015
 20
324.018954
 30
0.0
 40
0.6000000000001364
100
AcDbArc
 50
180.0
 51
270.0
  0
LINE
  5
53
330
1F
100
AcDbEntity
  8
LC-001-100-D00-0
 62
     7
370
    50
100
AcDbLine
 10
944.168015
 20
324.018954
 30
0.0
 11
944.168016
 21
327.418953
 31
0.0
  0
LINE
  5
54
330
1F
100
AcDbEntity
  8
LC-001-100-D00-0
 62
     7
370
    50
100
AcDbLine
 10
934.168016
 20
327.418953
 30
0.0
 11
934.168015
 21
324.018954
 31
0.0
  0
LINE
  5
55
330
1F
100
AcDbEntity
  8
LC-001-100-D00-0
 62
     7
370
    50
100
AcDbLine
 10
942.168014
 20
332.418954
 30
0.0
 11
942.168014
 21
333.418954
 31
0.0
  0
LINE
  5
56
330
1F
100
AcDbEntity
  8
LC-001-100-D00-0
 62
     7
370
    50
100
AcDbLine
 10
936.168017
 20
333.418954
 30
0.0
 11
936.168017
 21
332.418954
 31
0.0
  0
ARC
  5
57
330
1F
100
AcDbEntity
  8
LC-001-100-D00-0
 62
     7
370
    50
100
AcDbCircle
 10
1013.568015
 20
324.018954
 30
0.0
 40
0.6000000000001364
100
AcDbArc
 50
270.0
 51
0.0
  0
ARC
  5
58
330
1F
100
AcDbEntity
  8
LC-001-100-D00-0
 62
     7
370
    50
100
AcDbCircle
 10
1004.768015
 20
324.018954
 30
0.0
 40
0.6000000000001364
100
AcDbArc
 50
180.0
 51
270.0
  0
LINE
  5
59
330
1F
100
AcDbEntity
  8
LC-001-100-D00-0
 62
     7
370
    50
100
AcDbLine
 10
1014.168015
 20
324.018954
 30
0.0
 11
1014.168015
 21
327.418953
 31
0.0
  0
LINE
  5
5A
330
1F
100
AcDbEntity
  8
LC-001-100-D00-0
 62
     7
370
    50
100
AcDbLine
 10
1004.168015
 20
327.418953
 30
0.0
 11
1004.168015
 21
324.018954
 31
0.0
  0
LINE
  5
5B
330
1F
100
AcDbEntity
  8
LC-001-100-D00-0
 62
     7
370
    50
100
AcDbLine
 10
1012.168014
 20
332.418954
 30
0.0
 11
1012.168014
 21
333.418954
 31
0.0
  0
LINE
  5
5C
330
1F
100
AcDbEntity
  8
LC-001-100-D00-0
 62
     7
370
    50
100
AcDbLine
 10
1006.168017
 20
333.418954
 30
0.0
 11
1006.168017
 21
332.418954
 31
0.0
  0
LINE
  5
5D
330
1F
100
AcDbEntity
  8
LC-001-100-D00-0
 62
     7
370
    50
100
AcDbLine
 10
944.668015
 20
327.418954
 30
0.0
 11
944.668015
 21
329.418953
 31
0.0
  0
LINE
  5
5E
330
1F
100
AcDbEntity
  8
LC-001-100-D00-0
 62
     7
370
    50
100
AcDbLine
 10
933.668015
 20
329.418954
 30
0.0
 11
933.668015
 21
327.418954
 31
0.0
  0
LINE
  5
5F
330
1F
100
AcDbEntity
  8
LC-001-100-D00-0
 62
     7
370
    50
100
AcDbLine
 10
1014.668015
 20
327.418954
 30
0.0
 11
1014.668015
 21
329.418954
 31
0.0
  0
LINE
  5
60
330
1F
100
AcDbEntity
  8
LC-001-100-D00-0
 62
     7
370
    50
100
AcDbLine
 10
1003.668016
 20
329.418953
 30
0.0
 11
1003.668015
 21
327.418954
 31
0.0
  0
LINE
  5
61
330
1F
100
AcDbEntity
  8
LC-001-100-D00-0
 62
     7
370
    50
100
AcDbLine
 10
1046.668015
 20
349.918954
 30
0.0
 11
1051.668015
 21
349.918954
 31
0.0
  0
LINE
  5
62
330
1F
100
AcDbEntity
  8
LC-001-100-D00-0
 62
     7
370
    50
100
AcDbLine
 10
1051.668015
 20
349.918954
 30
0.0
 11
1051.668015
 21
348.418954
 31
0.0
  0
LINE
  5
63
330
1F
100
AcDbEntity
  8
LC-001-100-D00-0
 62
     7
370
    50
100
AcDbLine
 10
1051.668015
 20
348.418954
 30
0.0
 11
1046.668015
 21
348.418954
 31
0.0
  0
LINE
  5
64
330
1F
100
AcDbEntity
  8
LC-001-100-D00-0
 62
     7
370
    50
100
AcDbLine
 10
896.668015
 20
348.418954
 30
0.0
 11
896.668015
 21
349.918954
 31
0.0
  0
LINE
  5
65
330
1F
100
AcDbEntity
  8
LC-001-100-D00-0
 62
     7
370
    50
100
AcDbLine
 10
896.668015
 20
349.918954
 30
0.0
 11
901.668015
 21
349.918954
 31
0.0
  0
LINE
  5
66
330
1F
100
AcDbEntity
  8
LC-001-100-D00-0
 62
     7
370
    50
100
AcDbLine
 10
901.668015
 20
348.418954
 30
0.0
 11
896.668015
 21
348.418954
 31
0.0
  0
LINE
  5
67
330
1F
100
AcDbEntity
  8
LC-001-100-D00-0
 62
     7
370
    50
100
AcDbLine
 10
901.668015
 20
348.418954
 30
0.0
 11
1046.668015
 21
348.418954
 31
0.0
  0
LINE
  5
68
330
1F
100
AcDbEntity
  8
LC-001-100-D00-0
 62
     7
370
    50
100
AcDbLine
 10
901.668015
 20
349.918954
 30
0.0
 11
1046.668015
 21
349.918954
 31
0.0
  0
ARC
  5
69
330
1F
100
AcDbEntity
  8
LC-001-100-D00-0
 62
     7
370
    50
100
AcDbCircle
 10
945.168015
 20
346.918954
 30
0.0
 40
1.5
100
AcDbArc
 50
0.0
 51
90.0
  0
ARC
  5
6A
330
1F
100
AcDbEntity
  8
LC-001-100-D00-0
 62
     7
370
    50
100
AcDbCircle
 10
1003.168015
 20
346.918954
 30
0.0
 40
1.499999999999773
100
AcDbArc
 50
90.0
 51
180.0
  0
LINE
  5
6B
330
1F
100
AcDbEntity
  8
LC-001-100-D00-0
 62
     7
370
    50
100
AcDbLine
 10
1001.668015
 20
346.918954
 30
0.0
 11
1001.668015
 21
337.418954
 31
0.0
  0
ARC
  5
6C
330
1F
100
AcDbEntity
  8
LC-001-100-D00-0
 62
     7
370
    50
100
AcDbCircle
 10
950.668015
 20
331.918954
 30
0.0
 40
4.000000000000227
100
AcDbArc
 50
180.0
 51
270.0
  0
LINE
  5
6D
330
1F
100
AcDbEntity
  8
LC-001-100-D00-0
 62
     7
370
    50
100
AcDbLine
 10
946.668015
 20
337.418954
 30
0.0
 11
946.668015
 21
331.918954
 31
0.0
  0
ARC
  5
6E
330
1F
100
AcDbEntity
  8
LC-001-100-D00-0
 62
     7
370
    50
100
AcDbCircle
 10
997.668015
 20
331.918954
 30
0.0
 40
4.000000000014552
100
AcDbArc
 50
270.0
 51
0.0
  0
LINE
  5
6F
330
1F
100
AcDbEntity
  8
LC-001-100-D00-0
 62
     7
370
    50
100
AcDbLine
 10
1001.668015
 20
331.918954
 30
0.0
 11
1001.668015
 21
337.418954
 31
0.0
  0
LINE
  5
70
330
1F
100
AcDbEntity
  8
LC-001-100-D00-0
 62
     7
370
    50
100
AcDbLine
 10
946.668015
 20
337.418954
 30
0.0
 11
946.668015
 21
346.918954
 31
0.0
  0
LINE
  5
71
330
1F
100
AcDbEntity
  8
LC-001-100-D00-0
 62
     7
370
    50
100
AcDbLine
 10
986.501424
 20
327.918954
 30
0.0
 11
997.668015
 21
327.918954
 31
0.0
  0
LINE
  5
72
330
1F
100
AcDbEntity
  8
LC-001-100-D00-0
 62
     7
370
    50
100
AcDbLine
 10
986.32321
 20
327.918954
 30
0.0
 11
986.501424
 21
327.918954
 31
0.0
  0
LINE
  5
73
330
1F
100
AcDbEntity
  8
LC-001-100-D00-0
 62
     7
370
    50
100
AcDbLine
 10
986.32321
 20
327.918954
 30
0.0
 11
962.012821
 21
327.918954
 31
0.0
  0
LINE
  5
74
330
1F
100
AcDbEntity
  8
LC-001-100-D00-0
 62
     7
370
    50
100
AcDbLine
 10
961.834607
 20
327.918954
 30
0.0
 11
962.012821
 21
327.918954
 31
0.0
  0
LINE
  5
75
330
1F
100
AcDbEntity
  8
LC-001-100-D00-0
 62
     7
370
    50
100
AcDbLine
 10
950.668015
 20
327.918954
 30
0.0
 11
961.834607
 21
327.918954
 31
0.0
  0
ARC
  5
76
330
1F
100
AcDbEntity
  8
LC-001-100-D00-0
 62
     7
370
    50
100
AcDbCircle
 10
997.668015
 20
326.918954
 30
0.0
 40
4.0
100
AcDbArc
 50
270.0
 51
0.0
  0
LINE
  5
77
330
1F
100
AcDbEntity
  8
LC-001-100-D00-0
 62
     7
370
    50
100
AcDbLine
 10
1001.668015
 20
331.918954
 30
0.0
 11
1001.668015
 21
326.918954
 31
0.0
  0
ARC
  5
78
330
1F
100
AcDbEntity
  8
LC-001-100-D00-0
 62
     7
370
    50
100
AcDbCircle
 10
950.668015
 20
326.918954
 30
0.0
 40
4.00000000004593
100
AcDbArc
 50
180.0
 51
270.0
  0
LINE
  5
79
330
1F
100
AcDbEntity
  8
LC-001-100-D00-0
 62
     7
370
    50
100
AcDbLine
 10
946.668016
 20
326.918954
 30
0.0
 11
946.668015
 21
331.918954
 31
0.0
  0
LINE
  5
7A
330
1F
100
AcDbEntity
  8
LC-001-100-D00-0
 62
     7
370
    50
100
AcDbLine
 10
997.668015
 20
322.918953
 30
0.0
 11
994.818983
 21
322.918953
 31
0.0
  0
LINE
  5
7B
330
1F
100
AcDbEntity
  8
LC-001-100-D00-0
 62
     7
370
    50
100
AcDbLine
 10
953.517048
 20
322.918953
 30
0.0
 11
950.668016
 21
322.918953
 31
0.0
  0
ARC
  5
7C
330
1F
100
AcDbEntity
  8
LC-001-100-D00-0
 62
     7
370
    50
100
AcDbCircle
 10
969.57371
 20
325.418954
 30
0.0
 40
2.5
100
AcDbArc
 50
90.0
 51
108.434949
  0
LINE
  5
7D
330
1F
100
AcDbEntity
  8
LC-001-100-D00-0
 62
     7
370
    50
100
AcDbLine
 10
968.78314
 20
327.790663
 30
0.0
 11
968.782056
 21
327.790301
 31
0.0
  0
LINE
  5
7E
330
1F
100
AcDbEntity
  8
LC-001-100-D00-0
 62
     7
370
    50
100
AcDbLine
 10
979.553975
 20
327.790301
 30
0.0
 11
979.552891
 21
327.790663
 31
0.0
  0
ARC
  5
7F
330
1F
100
AcDbEntity
  8
LC-001-100-D00-0
 62
     7
370
    50
100
AcDbCircle
 10
978.762321
 20
325.418954
 30
0.0
 40
2.500000000000349
100
AcDbArc
 50
71.565051
 51
90.0
  0
LINE
  5
80
330
1F
100
AcDbEntity
  8
LC-001-100-D00-0
 62
     7
370
    50
100
AcDbLine
 10
994.818983
 20
322.918953
 30
0.0
 11
994.817126
 21
322.918953
 31
0.0
  0
LINE
  5
81
330
1F
100
AcDbEntity
  8
LC-001-100-D00-0
 62
     7
370
    50
100
AcDbLine
 10
994.817126
 20
322.918953
 30
0.0
 11
993.552215
 21
323.12422
 31
0.0
  0
LINE
  5
82
330
1F
100
AcDbEntity
  8
LC-001-100-D00-0
 62
     7
370
    50
100
AcDbLine
 10
993.552215
 20
323.12422
 30
0.0
 11
993.550135
 21
323.124913
 31
0.0
  0
LINE
  5
83
330
1F
100
AcDbEntity
  8
LC-001-100-D00-0
 62
     7
370
    50
100
AcDbLine
 10
953.518905
 20
322.918953
 30
0.0
 11
954.783816
 21
323.12422
 31
0.0
  0
LINE
  5
84
330
1F
100
AcDbEntity
  8
LC-001-100-D00-0
 62
     7
370
    50
100
AcDbLine
 10
953.518905
 20
322.918953
 30
0.0
 11
953.517048
 21
322.918953
 31
0.0
  0
LINE
  5
85
330
1F
100
AcDbEntity
  8
LC-001-100-D00-0
 62
     7
370
    50
100
AcDbLine
 10
954.785896
 20
323.124913
 30
0.0
 11
954.783816
 21
323.12422
 31
0.0
  0
LINE
  5
86
330
1F
100
AcDbEntity
  8
LC-001-100-D00-0
 62
     7
370
    50
100
AcDbLine
 10
993.550135
 20
323.124913
 30
0.0
 11
979.553975
 21
327.790301
 31
0.0
  0
LINE
  5
87
330
1F
100
AcDbEntity
  8
LC-001-100-D00-0
 62
     7
370
    50
100
AcDbLine
 10
968.782056
 20
327.790301
 30
0.0
 11
954.785896
 21
323.124913
 31
0.0
  0
LINE
  5
88
330
1F
100
AcDbEntity
  8
LC-001-100-D00-0
 62
     7
370
    50
100
AcDbLine
 10
1025.668015
 20
346.418954
 30
0.0
 11
1051.668015
 21
346.418954
 31
0.0
  0
LINE
  5
89
330
1F
100
AcDbEntity
  8
LC-001-100-D00-0
 62
     7
370
    50
100
AcDbLine
 10
1025.668016
 20
348.418954
 30
0.0
 11
1025.668015
 21
346.418954
 31
0.0
  0
LINE
  5
8A
330
1F
100
AcDbEntity
  8
LC-001-100-D00-0
 62
     7
370
    50
100
AcDbLine
 10
1051.668015
 20
348.418954
 30
0.0
 11
1051.668015
 21
346.418954
 31
0.0
  0
LINE
  5
8B
330
1F
100
AcDbEntity
  8
LC-001-100-D00-0
 62
     7
370
    50
100
AcDbLine
 10
922.668015
 20
346.418954
 30
0.0
 11
896.668015
 21
346.418954
 31
0.0
  0
LINE
  5
8C
330
1F
100
AcDbEntity
  8
LC-001-100-D00-0
 62
     7
370
    50
100
AcDbLine
 10
922.668015
 20
348.418954
 30
0.0
 11
922.668015
 21
346.418954
 31
0.0
  0
LINE
  5
8D
330
1F
100
AcDbEntity
  8
LC-001-100-D00-0
 62
     7
370
    50
100
AcDbLine
 10
896.668015
 20
348.418954
 30
0.0
 11
896.668015
 21
346.418954
 31
0.0
  0
LINE
  5
8E
330
1F
100
AcDbEntity
  8
LC-001-100-D00-0
 62
     7
370
    50
100
AcDbLine
 10
1025.668015
 20
344.418954
 30
0.0
 11
1025.668015
 21
346.418954
 31
0.0
  0
LINE
  5
8F
330
1F
100
AcDbEntity
  8
LC-001-100-D00-0
 62
     7
370
    50
100
AcDbLine
 10
1051.668015
 20
346.418954
 30
0.0
 11
1051.668015
 21
344.418954
 31
0.0
  0
LINE
  5
90
330
1F
100
AcDbEntity
  8
LC-001-100-D00-0
 62
     7
370
    50
100
AcDbLine
 10
922.668015
 20
344.418954
 30
0.0
 11
922.668015
 21
346.418954
 31
0.0
  0
LINE
  5
91
330
1F
100
AcDbEntity
  8
LC-001-100-D00-0
 62
     7
370
    50
100
AcDbLine
 10
896.668015
 20
346.418954
 30
0.0
 11
896.668015
 21
344.418954
 31
0.0
  0
LINE
  5
92
330
1F
100
AcDbEntity
  8
LC-001-100-D00-0
 62
     7
370
    50
100
AcDbLine
 10
1025.668015
 20
344.418954
 30
0.0
 11
1025.668015
 21
323.318954
 31
0.0
  0
LINE
  5
93
330
1F
100
AcDbEntity
  8
LC-001-100-D00-0
 62
     7
370
    50
100
AcDbLine
 10
1051.668015
 20
344.418954
 30
0.0
 11
1051.668015
 21
323.318954
 31
0.0
  0
LINE
  5
94
330
1F
100
AcDbEntity
  8
LC-001-100-D00-0
 62
     7
370
    50
100
AcDbLine
 10
922.668015
 20
344.418954
 30
0.0
 11
922.668015
 21
323.318954
 31
0.0
  0
LINE
  5
95
330
1F
100
AcDbEntity
  8
LC-001-100-D00-0
 62
     7
370
    50
100
AcDbLine
 10
896.668015
 20
344.418954
 30
0.0
 11
896.668015
 21
323.318954
 31
0.0
  0
LINE
  5
96
330
1F
100
AcDbEntity
  8
LC-001-100-D00-0
 62
     7
370
    50
100
AcDbLine
 10
1051.668015
 20
319.318954
 30
0.0
 11
1049.227623
 21
319.318954
 31
0.0
  0
LINE
  5
97
330
1F
100
AcDbEntity
  8
LC-001-100-D00-0
 62
     7
370
    50
100
AcDbLine
 10
1028.108409
 20
319.318954
 30
0.0
 11
1025.668015
 21
319.318954
 31
0.0
  0
LINE
  5
98
330
1F
100
AcDbEntity
  8
LC-001-100-D00-0
 62
     7
370
    50
100
AcDbLine
 10
1025.668015
 20
319.318954
 30
0.0
 11
1025.668015
 21
323.318954
 31
0.0
  0
LINE
  5
99
330
1F
100
AcDbEntity
  8
LC-001-100-D00-0
 62
     7
370
    50
100
AcDbLine
 10
1051.668015
 20
323.318954
 30
0.0
 11
1051.668015
 21
319.318954
 31
0.0
  0
LINE
  5
9A
330
1F
100
AcDbEntity
  8
LC-001-100-D00-0
 62
     7
370
    50
100
AcDbLine
 10
896.668015
 20
319.318954
 30
0.0
 11
899.108408
 21
319.318954
 31
0.0
  0
LINE
  5
9B
330
1F
100
AcDbEntity
  8
LC-001-100-D00-0
 62
     7
370
    50
100
AcDbLine
 10
920.227622
 20
319.318954
 30
0.0
 11
922.668015
 21
319.318954
 31
0.0
  0
LINE
  5
9C
330
1F
100
AcDbEntity
  8
LC-001-100-D00-0
 62
     7
370
    50
100
AcDbLine
 10
922.668015
 20
319.318954
 30
0.0
 11
922.668015
 21
323.318954
 31
0.0
  0
LINE
  5
9D
330
1F
100
AcDbEntity
  8
LC-001-100-D00-0
 62
     7
370
    50
100
AcDbLine
 10
896.668015
 20
323.318954
 30
0.0
 11
896.668015
 21
319.318954
 31
0.0
  0
LINE
  5
9E
330
1F
100
AcDbEntity
  8
LC-001-100-D00-0
 62
     7
370
    50
100
AcDbLine
 10
955.238156
 20
322.918953
 30
0.0
 11
953.518905
 21
322.918953
 31
0.0
  0
LINE
  5
9F
330
1F
100
AcDbEntity
  8
LC-001-100-D00-0
 62
     7
370
    50
100
AcDbLine
 10
994.817126
 20
322.918953
 30
0.0
 11
993.097875
 21
322.918953
 31
0.0
  0
LINE
  5
A0
330
1F
100
AcDbEntity
  8
LC-001-100-D00-0
 62
     7
370
    50
100
AcDbLine
 10
993.097875
 20
322.918953
 30
0.0
 11
955.238156
 21
322.918953
 31
0.0
  0
LINE
  5
A1
330
1F
100
AcDbEntity
  8
LC-001-100-D00-0
 62
     7
370
    50
100
AcDbLine
 10
1013.668015
 20
347.018954
 30
0.0
 11
1004.668015
 21
347.018954
 31
0.0
  0
LINE
  5
A2
330
1F
100
AcDbEntity
  8
LC-001-100-D00-0
 62
     7
370
    50
100
AcDbLine
 10
934.668015
 20
347.018954
 30
0.0
 11
943.668015
 21
347.018954
 31
0.0
  0
LINE
  5
A3
330
1F
100
AcDbEntity
  8
LC-001-100-D00-0
 62
     7
370
    50
100
AcDbLine
 10
1013.168015
 20
333.418954
 30
0.0
 11
1005.168015
 21
333.418954
 31
0.0
  0
LINE
  5
A4
330
1F
100
AcDbEntity
  8
LC-001-100-D00-0
 62
     7
370
    50
100
AcDbLine
 10
935.168015
 20
333.418954
 30
0.0
 11
943.168015
 21
333.418954
 31
0.0
  0
LINE
  5
A5
330
1F
100
AcDbEntity
  8
LC-001-100-D00-0
 62
     7
370
    50
100
AcDbLine
 10
900.826087
 20
223.418958
 30
0.0
 11
918.535912
 21
223.418958
 31
0.0
  0
LINE
  5
A6
330
1F
100
AcDbEntity
  8
LC-001-100-D00-0
 62
     7
370
    50
100
AcDbLine
 10
911.605735
 20
215.418954
 30
0.0
 11
900.168015
 21
215.418954
 31
0.0
  0
LINE
  5
A7
330
1F
100
AcDbEntity
  8
LC-001-100-D00-0
 62
     7
370
    50
100
AcDbLine
 10
919.168015
 20
215.418954
 30
0.0
 11
911.605735
 21
215.418954
 31
0.0
  0
LINE
  5
A8
330
1F
100
AcDbEntity
  8
LC-001-100-D00-0
 62
     7
370
    50
100
AcDbLine
 10
1029.826091
 20
223.418958
 30
0.0
 11
1047.535909
 21
223.418958
 31
0.0
  0
LINE
  5
A9
330
1F
100
AcDbEntity
  8
LC-001-100-D00-0
 62
     7
370
    50
100
AcDbLine
 10
1040.605735
 20
215.418954
 30
0.0
 11
1029.168015
 21
215.418954
 31
0.0
  0
LINE
  5
AA
330
1F
100
AcDbEntity
  8
LC-001-100-D00-0
 62
     7
370
    50
100
AcDbLine
 10
1048.168015
 20
215.418954
 30
0.0
 11
1040.605735
 21
215.418954
 31
0.0
  0
LINE
  5
AB
330
1F
100
AcDbEntity
  8
LC-001-100-D00-0
 62
     7
370
    50
100
AcDbLine
 10
1044.668015
 20
319.418954
 30
0.0
 11
1032.668015
 21
319.418954
 31
0.0
  0
LINE
  5
AC
330
1F
100
AcDbEntity
  8
LC-001-100-D00-0
 62
     7
370
    50
100
AcDbLine
 10
1044.668015
 20
317.418954
 30
0.0
 11
1032.668015
 21
317.418954
 31
0.0
  0
LINE
  5
AD
330
1F
100
AcDbEntity
  8
LC-001-100-D00-0
 62
     7
370
    50
100
AcDbLine
 10
1026.668015
 20
317.418954
 30
0.0
 11
1026.668014
 21
319.318954
 31
0.0
  0
LINE
  5
AE
330
1F
100
AcDbEntity
  8
LC-001-100-D00-0
 62
     7
370
    50
100
AcDbLine
 10
1029.053156
 20
319.418954
 30
0.0
 11
1032.668015
 21
319.418954
 31
0.0
  0
LINE
  5
AF
330
1F
100
AcDbEntity
  8
LC-001-100-D00-0
 62
     7
370
    50
100
AcDbLine
 10
1032.668015
 20
317.418954
 30
0.0
 11
1026.668015
 21
317.418954
 31
0.0
  0
LINE
  5
B0
330
1F
100
AcDbEntity
  8
LC-001-100-D00-0
 62
     7
370
    50
100
AcDbLine
 10
1050.668014
 20
319.318954
 30
0.0
 11
1050.668015
 21
317.418954
 31
0.0
  0
LINE
  5
B1
330
1F
100
AcDbEntity
  8
LC-001-100-D00-0
 62
     7
370
    50
100
AcDbLine
 10
1044.668015
 20
319.418954
 30
0.0
 11
1048.282875
 21
319.418954
 31
0.0
  0
LINE
  5
B2
330
1F
100
AcDbEntity
  8
LC-001-100-D00-0
 62
     7
370
    50
100
AcDbLine
 10
1050.668015
 20
317.418954
 30
0.0
 11
1044.668015
 21
317.418954
 31
0.0
  0
LINE
  5
B3
330
1F
100
AcDbEntity
  8
LC-001-100-D00-0
 62
     7
370
    50
100
AcDbLine
 10
1042.168015
 20
292.418954
 30
0.0
 11
1035.168015
 21
292.418954
 31
0.0
  0
LINE
  5
B4
330
1F
100
AcDbEntity
  8
LC-001-100-D00-0
 62
     7
370
    50
100
AcDbLine
 10
1047.168015
 20
292.418954
 30
0.0
 11
1042.168015
 21
292.418954
 31
0.0
  0
LINE
  5
B5
330
1F
100
AcDbEntity
  8
LC-001-100-D00-0
 62
     7
370
    50
100
AcDbLine
 10
1035.168015
 20
292.418954
 30
0.0
 11
1030.168015
 21
292.418954
 31
0.0
  0
LINE
  5
B6
330
1F
100
AcDbEntity
  8
LC-001-100-D00-0
 62
     7
370
    50
100
AcDbLine
 10
1026.668015
 20
292.418954
 30
0.0
 11
1026.668015
 21
317.418954
 31
0.0
  0
LINE
  5
B7
330
1F
100
AcDbEntity
  8
LC-001-100-D00-0
 62
     7
370
    50
100
AcDbLine
 10
1030.168015
 20
292.418954
 30
0.0
 11
1026.668015
 21
292.418954
 31
0.0
  0
LINE
  5
B8
330
1F
100
AcDbEntity
  8
LC-001-100-D00-0
 62
     7
370
    50
100
AcDbLine
 10
1050.668015
 20
317.418954
 30
0.0
 11
1050.668015
 21
292.418954
 31
0.0
  0
LINE
  5
B9
330
1F
100
AcDbEntity
  8
LC-001-100-D00-0
 62
     7
370
    50
100
AcDbLine
 10
1050.668015
 20
292.418954
 30
0.0
 11
1047.168015
 21
292.418954
 31
0.0
  0
LINE
  5
BA
330
1F
100
AcDbEntity
  8
LC-001-100-D00-0
 62
     7
370
    50
100
AcDbLine
 10
915.668015
 20
319.418954
 30
0.0
 11
903.668015
 21
319.418954
 31
0.0
  0
LINE
  5
BB
330
1F
100
AcDbEntity
  8
LC-001-100-D00-0
 62
     7
370
    50
100
AcDbLine
 10
915.668015
 20
317.418954
 30
0.0
 11
903.668015
 21
317.418954
 31
0.0
  0
LINE
  5
BC
330
1F
100
AcDbEntity
  8
LC-001-100-D00-0
 62
     7
370
    50
100
AcDbLine
 10
897.668015
 20
317.418954
 30
0.0
 11
897.668017
 21
319.318954
 31
0.0
  0
LINE
  5
BD
330
1F
100
AcDbEntity
  8
LC-001-100-D00-0
 62
     7
370
    50
100
AcDbLine
 10
903.668015
 20
317.418954
 30
0.0
 11
897.668015
 21
317.418954
 31
0.0
  0
LINE
  5
BE
330
1F
100
AcDbEntity
  8
LC-001-100-D00-0
 62
     7
370
    50
100
AcDbLine
 10
900.053156
 20
319.418954
 30
0.0
 11
903.668015
 21
319.418954
 31
0.0
  0
LINE
  5
BF
330
1F
100
AcDbEntity
  8
LC-001-100-D00-0
 62
     7
370
    50
100
AcDbLine
 10
921.668017
 20
319.318954
 30
0.0
 11
921.668015
 21
317.418954
 31
0.0
  0
LINE
  5
C0
330
1F
100
AcDbEntity
  8
LC-001-100-D00-0
 62
     7
370
    50
100
AcDbLine
 10
921.668015
 20
317.418954
 30
0.0
 11
915.668015
 21
317.418954
 31
0.0
  0
LINE
  5
C1
330
1F
100
AcDbEntity
  8
LC-001-100-D00-0
 62
     7
370
    50
100
AcDbLine
 10
915.668015
 20
319.418954
 30
0.0
 11
919.282875
 21
319.418954
 31
0.0
  0
LINE
  5
C2
330
1F
100
AcDbEntity
  8
LC-001-100-D00-0
 62
     7
370
    50
100
AcDbLine
 10
913.168015
 20
292.418954
 30
0.0
 11
906.168015
 21
292.418954
 31
0.0
  0
LINE
  5
C3
330
1F
100
AcDbEntity
  8
LC-001-100-D00-0
 62
     7
370
    50
100
AcDbLine
 10
918.168015
 20
292.418954
 30
0.0
 11
913.168015
 21
292.418954
 31
0.0
  0
LINE
  5
C4
330
1F
100
AcDbEntity
  8
LC-001-100-D00-0
 62
     7
370
    50
100
AcDbLine
 10
906.168015
 20
292.418954
 30
0.0
 11
901.168015
 21
292.418954
 31
0.0
  0
LINE
  5
C5
330
1F
100
AcDbEntity
  8
LC-001-100-D00-0
 62
     7
370
    50
100
AcDbLine
 10
897.668015
 20
292.418954
 30
0.0
 11
897.668015
 21
317.418954
 31
0.0
  0
LINE
  5
C6
330
1F
100
AcDbEntity
  8
LC-001-100-D00-0
 62
     7
370
    50
100
AcDbLine
 10
901.168015
 20
292.418954
 30
0.0
 11
897.668015
 21
292.418954
 31
0.0
  0
LINE
  5
C7
330
1F
100
AcDbEntity
  8
LC-001-100-D00-0
 62
     7
370
    50
100
AcDbLine
 10
921.668015
 20
317.418954
 30
0.0
 11
921.668015
 21
292.418954
 31
0.0
  0
LINE
  5
C8
330
1F
100
AcDbEntity
  8
LC-001-100-D00-0
 62
     7
370
    50
100
AcDbLine
 10
921.668015
 20
292.418954
 30
0.0
 11
918.168015
 21
292.418954
 31
0.0
  0
LINE
  5
C9
330
1F
100
AcDbEntity
  8
LC-001-100-D00-0
 62
     7
370
    50
100
AcDbLine
 10
899.668015
 20
238.418954
 30
0.0
 11
919.668015
 21
238.418954
 31
0.0
  0
LINE
  5
CA
330
1F
100
AcDbEntity
  8
LC-001-100-D00-0
 62
     7
370
    50
100
AcDbLine
 10
899.668015
 20
234.918954
 30
0.0
 11
919.668015
 21
234.918954
 31
0.0
  0
LINE
  5
CB
330
1F
100
AcDbEntity
  8
LC-001-100-D00-0
 62
     7
370
    50
100
AcDbLine
 10
911.70772
 20
224.418954
 30
0.0
 11
919.668015
 21
224.418954
 31
0.0
  0
LINE
  5
CC
330
1F
100
AcDbEntity
  8
LC-001-100-D00-0
 62
     7
370
    50
100
AcDbLine
 10
899.668015
 20
224.418954
 30
0.0
 11
911.70772
 21
224.418954
 31
0.0
  0
LINE
  5
CD
330
1F
100
AcDbEntity
  8
LC-001-100-D00-0
 62
     7
370
    50
100
AcDbLine
 10
911.50375
 20
223.418954
 30
0.0
 11
900.668015
 21
223.418954
 31
0.0
  0
LINE
  5
CE
330
1F
100
AcDbEntity
  8
LC-001-100-D00-0
 62
     7
370
    50
100
AcDbLine
 10
918.668015
 20
223.418954
 30
0.0
 11
911.50375
 21
223.418954
 31
0.0
  0
LINE
  5
CF
330
1F
100
AcDbEntity
  8
LC-001-100-D00-0
 62
     7
370
    50
100
AcDbLine
 10
1028.668015
 20
238.418954
 30
0.0
 11
1048.668015
 21
238.418954
 31
0.0
  0
LINE
  5
D0
330
1F
100
AcDbEntity
  8
LC-001-100-D00-0
 62
     7
370
    50
100
AcDbLine
 10
1028.668015
 20
234.918954
 30
0.0
 11
1048.668015
 21
234.918954
 31
0.0
  0
LINE
  5
D1
330
1F
100
AcDbEntity
  8
LC-001-100-D00-0
 62
     7
370
    50
100
AcDbLine
 10
1040.70772
 20
224.418954
 30
0.0
 11
1048.668015
 21
224.418954
 31
0.0
  0
LINE
  5
D2
330
1F
100
AcDbEntity
  8
LC-001-100-D00-0
 62
     7
370
    50
100
AcDbLine
 10
1028.668015
 20
224.418954
 30
0.0
 11
1040.70772
 21
224.418954
 31
0.0
  0
LINE
  5
D3
330
1F
100
AcDbEntity
  8
LC-001-100-D00-0
 62
     7
370
    50
100
AcDbLine
 10
1040.50375
 20
223.418954
 30
0.0
 11
1029.668015
 21
223.418954
 31
0.0
  0
LINE
  5
D4
330
1F
100
AcDbEntity
  8
LC-001-100-D00-0
 62
     7
370
    50
100
AcDbLine
 10
1047.668015
 20
223.418954
 30
0.0
 11
1040.50375
 21
223.418954
 31
0.0
  0
LINE
  5
D5
330
1F
100
AcDbEntity
  8
LC-001-100-D00-0
 62
     7
370
    50
100
AcDbLine
 10
939.168015
 20
323.418954
 30
0.0
 11
934.768015
 21
323.418954
 31
0.0
  0
LINE
  5
D6
330
1F
100
AcDbEntity
  8
LC-001-100-D00-0
 62
     7
370
    50
100
AcDbLine
 10
943.568015
 20
323.418954
 30
0.0
 11
939.168015
 21
323.418954
 31
0.0
  0
LINE
  5
D7
330
1F
100
AcDbEntity
  8
LC-001-100-D00-0
 62
     7
370
    50
100
AcDbLine
 10
1009.168015
 20
323.418954
 30
0.0
 11
1004.768015
 21
323.418954
 31
0.0
  0
LINE
  5
D8
330
1F
100
AcDbEntity
  8
LC-001-100-D00-0
 62
     7
370
    50
100
AcDbLine
 10
1013.568015
 20
323.418954
 30
0.0
 11
1009.168015
 21
323.418954
 31
0.0
  0
LINE
  5
D9
330
1F
100
AcDbEntity
  8
LC-001-100-D00-0
 62
     7
370
    50
100
AcDbLine
 10
938.668015
 20
329.418954
 30
0.0
 11
933.668015
 21
329.418954
 31
0.0
  0
LINE
  5
DA
330
1F
100
AcDbEntity
  8
LC-001-100-D00-0
 62
     7
370
    50
100
AcDbLine
 10
933.668015
 20
329.418954
 30
0.0
 11
933.668015
 21
332.418954
 31
0.0
  0
LINE
  5
DB
330
1F
100
AcDbEntity
  8
LC-001-100-D00-0
 62
     7
370
    50
100
AcDbLine
 10
933.668015
 20
332.418954
 30
0.0
 11
938.668015
 21
332.418954
 31
0.0
  0
LINE
  5
DC
330
1F
100
AcDbEntity
  8
LC-001-100-D00-0
 62
     7
370
    50
100
AcDbLine
 10
1014.668015
 20
332.418954
 30
0.0
 11
1014.668015
 21
329.418954
 31
0.0
  0
LINE
  5
DD
330
1F
100
AcDbEntity
  8
LC-001-100-D00-0
 62
     7
370
    50
100
AcDbLine
 10
1009.668015
 20
332.418954
 30
0.0
 11
1014.668015
 21
332.418954
 31
0.0
  0
LINE
  5
DE
330
1F
100
AcDbEntity
  8
LC-001-100-D00-0
 62
     7
370
    50
100
AcDbLine
 10
1014.668015
 20
329.418954
 30
0.0
 11
1009.668015
 21
329.418954
 31
0.0
  0
LINE
  5
DF
330
1F
100
AcDbEntity
  8
LC-001-100-D00-0
 62
     7
370
    50
100
AcDbLine
 10
938.668015
 20
329.418954
 30
0.0
 11
946.668016
 21
329.418953
 31
0.0
  0
LINE
  5
E0
330
1F
100
AcDbEntity
  8
LC-001-100-D00-0
 62
     7
370
    50
100
AcDbLine
 10
938.668015
 20
332.418954
 30
0.0
 11
946.668016
 21
332.418954
 31
0.0
  0
LINE
  5
E1
330
1F
100
AcDbEntity
  8
LC-001-100-D00-0
 62
     7
370
    50
100
AcDbLine
 10
1001.668015
 20
332.418954
 30
0.0
 11
1009.668015
 21
332.418954
 31
0.0
  0
LINE
  5
E2
330
1F
100
AcDbEntity
  8
LC-001-100-D00-0
 62
     7
370
    50
100
AcDbLine
 10
1001.668015
 20
329.418953
 30
0.0
 11
1009.668015
 21
329.418954
 31
0.0
  0
LINE
  5
E3
330
1F
100
AcDbEntity
  8
LC-001-100-D00-0
 62
     7
370
    50
100
AcDbLine
 10
1012.114824
 20
319.168954
 30
0.0
 11
936.221207
 21
319.168954
 31
0.0
  0
LINE
  5
E4
330
1F
100
AcDbEntity
  8
LC-001-100-D00-0
 62
     7
370
    50
100
AcDbLine
 10
933.668015
 20
332.418954
 30
0.0
 11
933.668015
 21
333.418954
 31
0.0
  0
LINE
  5
E5
330
1F
100
AcDbEntity
  8
LC-001-100-D00-0
 62
     7
370
    50
100
AcDbLine
 10
1014.668016
 20
333.418954
 30
0.0
 11
1014.668015
 21
332.418954
 31
0.0
  0
LINE
  5
E6
330
1F
100
AcDbEntity
  8
LC-001-100-D00-0
 62
     7
370
    50
100
AcDbLine
 10
933.668015
 20
333.418954
 30
0.0
 11
933.668015
 21
348.418954
 31
0.0
  0
LINE
  5
E7
330
1F
100
AcDbEntity
  8
LC-001-100-D00-0
 62
     7
370
    50
100
AcDbLine
 10
933.668015
 20
319.168954
 30
0.0
 11
933.668015
 21
327.418954
 31
0.0
  0
LINE
  5
E8
330
1F
100
AcDbEntity
  8
LC-001-100-D00-0
 62
     7
370
    50
100
AcDbLine
 10
936.221207
 20
319.168954
 30
0.0
 11
933.668015
 21
319.168954
 31
0.0
  0
LINE
  5
E9
330
1F
100
AcDbEntity
  8
LC-001-100-D00-0
 62
     7
370
    50
100
AcDbLine
 10
1014.668016
 20
348.418954
 30
0.0
 11
1014.668016
 21
333.418954
 31
0.0
  0
LINE
  5
EA
330
1F
100
AcDbEntity
  8
LC-001-100-D00-0
 62
     7
370
    50
100
AcDbLine
 10
1014.668015
 20
327.418954
 30
0.0
 11
1014.668015
 21
319.168954
 31
0.0
  0
LINE
  5
EB
330
1F
100
AcDbEntity
  8
LC-001-100-D00-0
 62
     7
370
    50
100
AcDbLine
 10
1014.668015
 20
319.168954
 30
0.0
 11
1012.114824
 21
319.168954
 31
0.0
  0
LINE
  5
EC
330
1F
100
AcDbEntity
  8
LC-001-100-D00-0
 62
     7
370
    50
100
AcDbLine
 10
1001.210569
 20
266.418954
 30
0.0
 11
947.125462
 21
266.418954
 31
0.0
  0
LINE
  5
ED
330
1F
100
AcDbEntity
  8
LC-001-100-D00-0
 62
     7
370
    50
100
AcDbLine
 10
936.221207
 20
319.168954
 30
0.0
 11
1012.114824
 21
319.168954
 31
0.0
  0
LINE
  5
EE
330
1F
100
AcDbEntity
  8
LC-001-100-D00-0
 62
     7
370
    50
100
AcDbLine
 10
994.683613
 20
259.918954
 30
0.0
 11
953.652418
 21
259.918954
 31
0.0
  0
LINE
  5
EF
330
1F
100
AcDbEntity
  8
LC-001-100-D00-0
 62
     7
370
    50
100
AcDbLine
 10
1014.668015
 20
319.168954
 30
0.0
 11
1014.668015
 21
278.918954
 31
0.0
  0
LINE
  5
F0
330
1F
100
AcDbEntity
  8
LC-001-100-D00-0
 62
     7
370
    50
100
AcDbLine
 10
1012.114824
 20
319.168954
 30
0.0
 11
1014.668015
 21
319.168954
 31
0.0
  0
ARC
  5
F1
330
1F
100
AcDbEntity
  8
LC-001-100-D00-0
 62
     7
370
    50
100
AcDbCircle
 10
1002.168015
 20
278.918954
 30
0.0
 40
12.5
100
AcDbArc
 50
270.0
 51
0.0
  0
LINE
  5
F2
330
1F
100
AcDbEntity
  8
LC-001-100-D00-0
 62
     7
370
    50
100
AcDbLine
 10
1002.168015
 20
266.418954
 30
0.0
 11
1001.210569
 21
266.418954
 31
0.0
  0
ARC
  5
F3
330
1F
100
AcDbEntity
  8
LC-001-100-D00-0
 62
     7
370
    50
100
AcDbCircle
 10
946.168015
 20
278.918954
 30
0.0
 40
12.5
100
AcDbArc
 50
180.0
 51
270.0
  0
LINE
  5
F4
330
1F
100
AcDbEntity
  8
LC-001-100-D00-0
 62
     7
370
    50
100
AcDbLine
 10
947.125462
 20
266.418954
 30
0.0
 11
946.168015
 21
266.418954
 31
0.0
  0
LINE
  5
F5
330
1F
100
AcDbEntity
  8
LC-001-100-D00-0
 62
     7
370
    50
100
AcDbLine
 10
933.668015
 20
278.918954
 30
0.0
 11
933.668015
 21
319.168954
 31
0.0
  0
LINE
  5
F6
330
1F
100
AcDbEntity
  8
LC-001-100-D00-0
 62
     7
370
    50
100
AcDbLine
 10
933.668015
 20
319.168954
 30
0.0
 11
936.221207
 21
319.168954
 31
0.0
  0
ARC
  5
F7
330
1F
100
AcDbEntity
  8
LC-001-100-D00-0
 62
     7
370
    50
100
AcDbCircle
 10
994.685895
 20
266.918954
 30
0.0
 40
7.0
100
AcDbArc
 50
270.0
 51
355.903956
  0
LINE
  5
F8
330
1F
100
AcDbEntity
  8
LC-001-100-D00-0
 62
     7
370
    50
100
AcDbLine
 10
994.685895
 20
259.918954
 30
0.0
 11
994.683613
 21
259.918954
 31
0.0
  0
ARC
  5
F9
330
1F
100
AcDbEntity
  8
LC-001-100-D00-0
 62
     7
370
    50
100
AcDbCircle
 10
953.650135
 20
266.918954
 30
0.0
 40
6.999999999999882
100
AcDbArc
 50
184.096044
 51
270.0
  0
LINE
  5
FA
330
1F
100
AcDbEntity
  8
LC-001-100-D00-0
 62
     7
370
    50
100
AcDbLine
 10
953.652418
 20
259.918954
 30
0.0
 11
953.650135
 21
259.918954
 31
0.0
  0
LINE
  5
FB
330
1F
100
AcDbEntity
  8
LC-001-100-D00-0
 62
     7
370
    50
100
AcDbLine
 10
939.168015
 20
327.418954
 30
0.0
 11
944.668015
 21
327.418954
 31
0.0
  0
LINE
  5
FC
330
1F
100
AcDbEntity
  8
LC-001-100-D00-0
 62
     7
370
    50
100
AcDbLine
 10
933.668015
 20
327.418954
 30
0.0
 11
939.168015
 21
327.418954
 31
0.0
  0
LINE
  5
FD
330
1F
100
AcDbEntity
  8
LC-001-100-D00-0
 62
     7
370
    50
100
AcDbLine
 10
1009.168015
 20
327.418954
 30
0.0
 11
1014.668015
 21
327.418954
 31
0.0
  0
LINE
  5
FE
330
1F
100
AcDbEntity
  8
LC-001-100-D00-0
 62
     7
370
    50
100
AcDbLine
 10
1003.668015
 20
327.418954
 30
0.0
 11
1009.168015
 21
327.418954
 31
0.0
  0
DIMENSION
  5
101
330
1F
100
AcDbEntity
  8
LC-001-100-D00-0
 62
     7
370
    25
100
AcDbDimension
  2
*D1
 10
1014.668015
 20
187.228234
 30
0.0
 11
975.000158
 21
242.228234
 31
0.0
 70
   160
  1
81
 71
     5
 42
81.0
  3
LC-DIM-L-0100-02-02
100
AcDbAlignedDimension
 13
933.668015
 23
278.918954
 33
0.0
 14
1014.668015
 24
278.918954
 34
0.0
100
AcDbRotatedDimension
  0
LINE
  5
112
330
1F
100
AcDbEntity
  8
LC-001-100-D00-0
  6
DASHDOT
 62
     7
370
    25
100
AcDbLine
 10
974.168015
 20
259.918954
 30
0.0
 11
974.168015
 21
349.918954
 31
0.0
  0
LINE
  5
113
330
1F
100
AcDbEntity
  8
LC-001-100-D00-0
  6
DASHDOT
 62
     7
370
    25
100
AcDbLine
 10
909.668015
 20
228.418954
 30
0.0
 11
909.668015
 21
352.418954
 31
0.0
  0
LINE
  5
114
330
1F
100
AcDbEntity
  8
LC-001-100-D00-0
  6
DASHDOT
 62
     7
370
    25
100
AcDbLine
 10
1038.668015
 20
228.418954
 30
0.0
 11
1038.668015
 21
352.418954
 31
0.0
  0
LINE
  5
115
330
1F
100
AcDbEntity
  8
LC-001-100-D00-0
 62
     7
370
    50
100
AcDbLine
 10
465.678197
 20
-3.149075
 30
0.0
 11
465.678197
 21
43.850925
 31
0.0
  0
ARC
  5
116
330
1F
100
AcDbEntity
  8
LC-001-100-D00-0
 62
     7
370
    50
100
AcDbCircle
 10
463.178197
 20
43.850925
 30
0.0
 40
2.5
100
AcDbArc
 50
0.0
 51
90.0
  0
ARC
  5
117
330
1F
100
AcDbEntity
  8
LC-001-100-D00-0
 62
     7
370
    50
100
AcDbCircle
 10
463.178197
 20
-3.149075
 30
0.0
 40
2.5
100
AcDbArc
 50
270.0
 51
0.0
  0
LINE
  5
118
330
1F
100
AcDbEntity
  8
LC-001-100-D00-0
 62
     7
370
    50
100
AcDbLine
 10
463.178197
 20
-5.649075
 30
0.0
 11
-331.821803
 21
-5.649075
 31
0.0
  0
LINE
  5
119
330
1F
100
AcDbEntity
  8
LC-001-100-D00-0
 62
     7
370
    50
100
AcDbLine
 10
-331.821803
 20
46.350925
 30
0.0
 11
463.178197
 21
46.350925
 31
0.0
  0
ARC
  5
11A
330
1F
100
AcDbEntity
  8
LC-001-100-D00-0
 62
     7
370
    50
100
AcDbCircle
 10
-331.821803
 20
43.850925
 30
0.0
 40
2.5
100
AcDbArc
 50
90.0
 51
180.0
  0
ARC
  5
11B
330
1F
100
AcDbEntity
  8
LC-001-100-D00-0
 62
     7
370
    50
100
AcDbCircle
 10
-331.821803
 20
-3.149075
 30
0.0
 40
2.5
100
AcDbArc
 50
180.0
 51
270.0
  0
LINE
  5
11C
330
1F
100
AcDbEntity
  8
LC-001-100-D00-0
 62
     7
370
    50
100
AcDbLine
 10
-334.321803
 20
-3.149075
 30
0.0
 11
-334.321803
 21
43.850925
 31
0.0
  0
ARC
  5
11D
330
1F
100
AcDbEntity
  8
LC-001-100-D00-0
 62
     7
370
    50
100
AcDbCircle
 10
-379.321803
 20
92.850925
 30
0.0
 40
5.0
100
AcDbArc
 50
90.0
 51
180.0
  0
LINE
  5
11E
330
1F
100
AcDbEntity
  8
LC-001-100-D00-0
 62
     7
370
    50
100
AcDbLine
 10
510.678197
 20
97.850925
 30
0.0
 11
-379.321803
 21
97.850925
 31
0.0
  0
ARC
  5
11F
330
1F
100
AcDbEntity
  8
LC-001-100-D00-0
 62
     7
370
    50
100
AcDbCircle
 10
510.678197
 20
92.850925
 30
0.0
 40
5.0
100
AcDbArc
 50
0.0
 51
90.0
  0
LINE
  5
120
330
1F
100
AcDbEntity
  8
LC-001-100-D00-0
 62
     7
370
    50
100
AcDbLine
 10
-379.321803
 20
-57.149075
 30
0.0
 11
510.678197
 21
-57.149075
 31
0.0
  0
ARC
  5
121
330
1F
100
AcDbEntity
  8
LC-001-100-D00-0
 62
     7
370
    50
100
AcDbCircle
 10
-379.321803
 20
-52.149075
 30
0.0
 40
5.0
100
AcDbArc
 50
180.0
 51
270.0
  0
LINE
  5
122
330
1F
100
AcDbEntity
  8
LC-001-100-D00-0
 62
     7
370
    50
100
AcDbLine
 10
-384.321803
 20
92.850925
 30
0.0
 11
-384.321803
 21
-52.149075
 31
0.0
  0
LINE
  5
123
330
1F
100
AcDbEntity
  8
LC-001-100-D00-0
 62
     7
370
    50
100
AcDbLine
 10
515.678197
 20
92.850925
 30
0.0
 11
515.678197
 21
-52.149075
 31
0.0
  0
ARC
  5
124
330
1F
100
AcDbEntity
  8
LC-001-100-D00-0
 62
     7
370
    50
100
AcDbCircle
 10
510.678197
 20
-52.149075
 30
0.0
 40
5.0
100
AcDbArc
 50
270.0
 51
0.0
  0
CIRCLE
  5
125
330
1F
100
AcDbEntity
  8
LC-001-100-D00-0
 62
     7
370
    50
100
AcDbCircle
 10
435.678197
 20
20.350925
 30
0.0
 40
3.000000000000114
  0
CIRCLE
  5
126
330
1F
100
AcDbEntity
  8
LC-001-100-D00-0
 62
     7
370
    50
100
AcDbCircle
 10
300.678197
 20
20.350925
 30
0.0
 40
3.000000000000114
  0
CIRCLE
  5
127
330
1F
100
AcDbEntity
  8
LC-001-100-D00-0
 62
     7
370
    50
100
AcDbCircle
 10
165.678197
 20
20.350925
 30
0.0
 40
2.999999999999773
  0
CIRCLE
  5
128
330
1F
100
AcDbEntity
  8
LC-001-100-D00-0
 62
     7
370
    50
100
AcDbCircle
 10
-34.321803
 20
20.350925
 30
0.0
 40
3.000000000000114
  0
CIRCLE
  5
129
330
1F
100
AcDbEntity
  8
LC-001-100-D00-0
 62
     7
370
    50
100
AcDbCircle
 10
-169.321803
 20
20.350925
 30
0.0
 40
3.000000000000114
  0
CIRCLE
  5
12A
330
1F
100
AcDbEntity
  8
LC-001-100-D00-0
 62
     7
370
    50
100
AcDbCircle
 10
-304.321803
 20
20.350925
 30
0.0
 40
2.999999999999773
  0
LINE
  5
12B
330
1F
100
AcDbEntity
  8
LC-001-100-D00-0
 62
     7
370
    50
100
AcDbLine
 10
457.65202
 20
8.028256
 30
0.0
 11
457.65202
 21
-3.149074
 31
0.0
  0
INSERT
  5
132
330
1F
100
AcDbEntity
  8
LC-001-100-D00-0
 62
     7
370
    50
100
AcDbBlockReference
  2
KLON1
 10
0.0
 20
0.0
 30
0.0
  0
INSERT
  5
13A
330
1F
100
AcDbEntity
  8
LC-001-100-D00-0
 62
     7
370
    50
100
AcDbBlockReference
  2
KLON2
 10
0.0
 20
0.0
 30
0.0
  0
LINE
  5
13B
330
1F
100
AcDbEntity
  8
LC-001-100-D00-0
 62
     7
370
    50
100
AcDbLine
 10
457.65202
 20
43.836285
 30
0.0
 11
457.65202
 21
32.673594
 31
0.0
  0
INSERT
  5
141
330
1F
100
AcDbEntity
  8
LC-001-100-D00-0
 62
     7
370
    50
100
AcDbBlockReference
  2
KLON3
 10
0.0
 20
0.0
 30
0.0
  0
INSERT
  5
147
330
1F
100
AcDbEntity
  8
LC-001-100-D00-0
 62
     7
370
    50
100
AcDbBlockReference
  2
KLON4
 10
0.0
 20
0.0
 30
0.0
  0
INSERT
  5
14D
330
1F
100
AcDbEntity
  8
LC-001-100-D00-0
 62
     7
370
    50
100
AcDbBlockReference
  2
KLON5
 10
0.0
 20
0.0
 30
0.0
  0
LINE
  5
14E
330
1F
100
AcDbEntity
  8
LC-001-100-D00-0
 62
     7
370
    50
100
AcDbLine
 10
-326.295626
 20
43.836285
 30
0.0
 11
-326.295626
 21
32.673594
 31
0.0
  0
INSERT
  5
156
330
1F
100
AcDbEntity
  8
LC-001-100-D00-0
 62
     7
370
    50
100
AcDbBlockReference
  2
KLON6
 10
0.0
 20
0.0
 30
0.0
  0
INSERT
  5
15D
330
1F
100
AcDbEntity
  8
LC-001-100-D00-0
 62
     7
370
    50
100
AcDbBlockReference
  2
KLON7
 10
0.0
 20
0.0
 30
0.0
  0
LINE
  5
15E
330
1F
100
AcDbEntity
  8
LC-001-100-D00-0
 62
     7
370
    50
100
AcDbLine
 10
-326.295626
 20
8.028256
 30
0.0
 11
-326.295626
 21
-3.149074
 31
0.0
  0
INSERT
  5
164
330
1F
100
AcDbEntity
  8
LC-001-100-D00-0
 62
     7
370
    50
100
AcDbBlockReference
  2
KLON8
 10
0.0
 20
0.0
 30
0.0
  0
ELLIPSE
  5
165
330
1F
100
AcDbEntity
  8
LC-001-100-D00-0
 62
     7
370
    50
100
AcDbEllipse
 10
457.605228
 20
-3.149075
 30
0.0
 11
0.0
 21
-2.499999771118154
 31
0.0
210
0.0
220
0.0
230
0.9999999999999999
 40
0.018242
 41
3.141592653589793
 42
4.712388980377226
  0
ELLIPSE
  5
166
330
1F
100
AcDbEntity
  8
LC-001-100-D00-0
 62
     7
370
    50
100
AcDbEllipse
 10
526.150834
 20
-3.149075
 30
0.0
 11
68.49999999999965
 21
0.0
 31
0.0
210
0.0
220
0.0
230
1.0
 40
0.036496
 41
3.141592653597523
 42
3.169858841660708
  0
ELLIPSE
  5
167
330
1F
100
AcDbEntity
  8
LC-001-100-D00-0
 62
     7
370
    50
100
AcDbEllipse
 10
320.605228
 20
-3.149075
 30
0.0
 11
0.0
 21
-2.500000038146972
 31
0.0
210
0.0
220
0.0
230
0.9999999999999999
 40
0.018242
 41
3.141592653591039
 42
4.712388980380822
  0
ELLIPSE
  5
168
330
1F
100
AcDbEntity
  8
LC-001-100-D00-0
 62
     7
370
    50
100
AcDbEllipse
 10
-326.248835
 20
-3.149075
 30
0.0
 11
0.0
 21
-2.500000007629394
 31
0.0
210
0.0
220
0.0
230
1.0
 40
0.018242
 41
1.57079632680236
 42
3.141592653596026
  0
ELLIPSE
  5
169
330
1F
100
AcDbEntity
  8
LC-001-100-D00-0
 62
     7
370
    50
100
AcDbEllipse
 10
-189.248835
 20
-3.149075
 30
0.0
 11
0.0
 21
-2.499999938964843
 31
0.0
210
0.0
220
0.0
230
1.0
 40
0.018242
 41
1.570796326798586
 42
3.141592653593532
  0
ELLIPSE
  5
16A
330
1F
100
AcDbEntity
  8
LC-001-100-D00-0
 62
     7
370
    50
100
AcDbEllipse
 10
-394.79444
 20
-3.149075
 30
0.0
 11
68.49999999917475
 21
0.0
 31
0.0
210
0.0
220
0.0
230
1.0
 40
0.036496
 41
6.254919119109522
 42
6.283185307179637
  0
ELLIPSE
  5
16B
330
1F
100
AcDbEntity
  8
LC-001-100-D00-0
 62
     7
370
    50
100
AcDbEllipse
 10
526.150834
 20
43.850925
 30
0.0
 11
68.50000000004111
 21
0.0
 31
0.0
210
0.0
220
0.0
230
1.0
 40
0.036496
 41
3.141592653589807
 42
3.147448628039463
  0
ELLIPSE
  5
16C
330
1F
100
AcDbEntity
  8
LC-001-100-D00-0
 62
     7
370
    50
100
AcDbEllipse
 10
457.605228
 20
43.850925
 30
0.0
 11
0.0
 21
-2.500000076293944
 31
0.0
210
0.0
220
0.0
230
0.9999999999999999
 40
0.018242
 41
4.712388980384453
 42
6.283185334023788
  0
ELLIPSE
  5
16D
330
1F
100
AcDbEntity
  8
LC-001-100-D00-0
 62
     7
370
    50
100
AcDbEllipse
 10
-394.79444
 20
43.850925
 30
0.0
 11
68.50000000979236
 21
0.0
 31
0.0
210
0.0
220
0.0
230
1.0
 40
0.036496
 41
6.277329332730591
 42
6.283185307179504
  0
ELLIPSE
  5
16E
330
1F
100
AcDbEntity
  8
LC-001-100-D00-0
 62
     7
370
    50
100
AcDbEllipse
 10
-326.248835
 20
43.850925
 30
0.0
 11
0.0
 21
-2.499999794006339
 31
0.0
210
0.0
220
0.0
230
1.0
 40
0.018242
 41
6.283185280340368
 42
7.853981633974565
  0
ELLIPSE
  5
16F
330
1F
100
AcDbEntity
  8
LC-001-100-D00-0
 62
     7
370
    50
100
AcDbEllipse
 10
320.605228
 20
43.850925
 30
0.0
 11
0.0
 21
-2.499999038696104
 31
0.0
210
0.0
220
0.0
230
1.0
 40
0.018242
 41
4.712388980388191
 42
6.283185320127428
  0
ELLIPSE
  5
170
330
1F
100
AcDbEntity
  8
LC-001-100-D00-0
 62
     7
370
    50
100
AcDbEllipse
 10
-189.248835
 20
43.850925
 30
0.0
 11
0.0
 21
-2.499999889373777
 31
0.0
210
0.0
220
0.0
230
1.0
 40
0.018242
 41
6.283185294198095
 42
7.853981633970948
  0
LINE
  5
171
330
1F
100
AcDbEntity
  8
LC-001-100-D00-0
 62
     7
370
    50
100
AcDbLine
 10
320.650834
 20
-3.149074
 30
0.0
 11
320.650834
 21
-0.298559
 31
0.0
  0
INSERT
  5
177
330
1F
100
AcDbEntity
  8
LC-001-100-D00-0
 62
     7
370
    50
100
AcDbBlockReference
  2
KLON9
 10
0.0
 20
0.0
 30
0.0
  0
INSERT
  5
17D
330
1F
100
AcDbEntity
  8
LC-001-100-D00-0
 62
     7
370
    50
100
AcDbBlockReference
  2
KLON10
 10
0.0
 20
0.0
 30
0.0
  0
LINE
  5
17E
330
1F
100
AcDbEntity
  8
LC-001-100-D00-0
 62
     7
370
    50
100
AcDbLine
 10
-189.29444
 20
-3.149074
 30
0.0
 11
-189.29444
 21
-0.298559
 31
0.0
  0
INSERT
  5
185
330
1F
100
AcDbEntity
  8
LC-001-100-D00-0
 62
     7
370
    50
100
AcDbBlockReference
  2
KLON11
 10
0.0
 20
0.0
 30
0.0
  0
INSERT
  5
18C
330
1F
100
AcDbEntity
  8
LC-001-100-D00-0
 62
     7
370
    50
100
AcDbBlockReference
  2
KLON12
 10
0.0
 20
0.0
 30
0.0
  0
INSERT
  5
192
330
1F
100
AcDbEntity
  8
LC-001-100-D00-0
 62
     7
370
    50
100
AcDbBlockReference
  2
KLON13
 10
0.0
 20
0.0
 30
0.0
  0
INSERT
  5
199
330
1F
100
AcDbEntity
  8
LC-001-100-D00-0
 62
     7
370
    50
100
AcDbBlockReference
  2
KLON14
 10
0.0
 20
0.0
 30
0.0
  0
INSERT
  5
1A0
330
1F
100
AcDbEntity
  8
LC-001-100-D00-0
 62
     7
370
    50
100
AcDbBlockReference
  2
KLON15
 10
0.0
 20
0.0
 30
0.0
  0
INSERT
  5
1A6
330
1F
100
AcDbEntity
  8
LC-001-100-D00-0
 62
     7
370
    50
100
AcDbBlockReference
  2
KLON16
 10
0.0
 20
0.0
 30
0.0
  0
LINE
  5
1A7
330
1F
100
AcDbEntity
  8
LC-001-100-D00-0
 62
     7
370
    50
100
AcDbLine
 10
320.650834
 20
41.000408
 30
0.0
 11
320.650834
 21
43.850924
 31
0.0
  0
LINE
  5
1A8
330
1F
100
AcDbEntity
  8
LC-001-100-D00-0
 62
     7
370
    50
100
AcDbLine
 10
-189.29444
 20
41.000408
 30
0.0
 11
-189.29444
 21
43.850924
 31
0.0
  0
LINE
  5
1A9
330
1F
100
AcDbEntity
  8
LC-001-100-D00-0
 62
     7
370
    50
100
AcDbLine
 10
320.665109
 20
0.495247
 30
0.0
 11
320.665109
 21
14.489974
 31
0.0
  0
ELLIPSE
  5
1AA
330
1F
100
AcDbEntity
  8
LC-001-100-D00-0
 62
     7
370
    50
100
AcDbEllipse
 10
177.418385
 20
-8.069883
 30
0.0
 11
143.2466515750823
 21
8.567474743433927
 31
0.0
210
0.0
220
0.0
230
1.0
 40
0.016531
 41
6.280994665940602
 42
6.282196627518364
  0
ELLIPSE
  5
1AB
330
1F
100
AcDbEntity
  8
LC-001-100-D00-0
 62
     7
370
    50
100
AcDbEllipse
 10
177.418385
 20
48.771733
 30
0.0
 11
143.24665144174
 21
-8.567474735459117
 31
0.0
210
0.0
220
0.0
230
1.0
 40
0.016531
 41
0.0009886796653361
 42
0.0021906412429888
  0
LINE
  5
1AC
330
1F
100
AcDbEntity
  8
LC-001-100-D00-0
 62
     7
370
    50
100
AcDbLine
 10
320.665109
 20
26.211876
 30
0.0
 11
320.665109
 21
40.206603
 31
0.0
  0
ELLIPSE
  5
1AD
330
1F
100
AcDbEntity
  8
LC-001-100-D00-0
 62
     7
370
    50
100
AcDbEllipse
 10
-46.061992
 20
-8.069883
 30
0.0
 11
143.2466513397887
 21
-8.56747472936123
 31
0.0
210
0.0
220
0.0
230
1.0
 40
0.016531
 41
3.142581333250555
 42
3.143783294828199
  0
LINE
  5
1AE
330
1F
100
AcDbEntity
  8
LC-001-100-D00-0
 62
     7
370
    50
100
AcDbLine
 10
-189.308715
 20
0.495247
 30
0.0
 11
-189.308715
 21
14.489974
 31
0.0
  0
ELLIPSE
  5
1AF
330
1F
100
AcDbEntity
  8
LC-001-100-D00-0
 62
     7
370
    50
100
AcDbEllipse
 10
-46.061992
 20
48.771733
 30
0.0
 11
143.2466513578982
 21
8.567474730444346
 31
0.0
210
0.0
220
0.0
230
1.0
 40
0.016531
 41
3.139402012347909
 42
3.140603973925519
  0
LINE
  5
1B0
330
1F
100
AcDbEntity
  8
LC-001-100-D00-0
 62
     7
370
    50
100
AcDbLine
 10
-189.308715
 20
26.211876
 30
0.0
 11
-189.308715
 21
40.206603
 31
0.0
  0
LINE
  5
1B1
330
1F
100
AcDbEntity
  8
LC-001-100-D00-0
 62
     7
370
    50
100
AcDbLine
 10
320.650834
 20
41.000036
 30
0.0
 11
320.66499
 21
40.209466
 31
0.0
  0
LINE
  5
1B2
330
1F
100
AcDbEntity
  8
LC-001-100-D00-0
 62
     7
370
    50
100
AcDbLine
 10
320.650834
 20
-0.298186
 30
0.0
 11
320.66499
 21
0.492384
 31
0.0
  0
LINE
  5
1B3
330
1F
100
AcDbEntity
  8
LC-001-100-D00-0
 62
     7
370
    50
100
AcDbLine
 10
-189.29444
 20
-0.298186
 30
0.0
 11
-189.308596
 21
0.492384
 31
0.0
  0
LINE
  5
1B4
330
1F
100
AcDbEntity
  8
LC-001-100-D00-0
 62
     7
370
    50
100
AcDbLine
 10
-189.29444
 20
41.000036
 30
0.0
 11
-189.308596
 21
40.209466
 31
0.0
  0
ARC
  5
1B5
330
1F
100
AcDbEntity
  8
LC-001-100-D00-0
 62
     7
370
    50
100
AcDbCircle
 10
96.178189
 20
20.350945
 30
0.0
 40
24.80002105913775
100
AcDbArc
 50
270.0
 51
300.592807
  0
ARC
  5
1B6
330
1F
100
AcDbEntity
  8
LC-001-100-D00-0
 62
     7
370
    50
100
AcDbCircle
 10
35.178205
 20
20.350945
 30
0.0
 40
24.80002105913768
100
AcDbArc
 50
239.407193
 51
270.0
  0
ARC
  5
1B7
330
1F
100
AcDbEntity
  8
LC-001-100-D00-0
 62
     7
370
    50
100
AcDbCircle
 10
96.178191
 20
20.350912
 30
0.0
 40
24.80001358063763
100
AcDbArc
 50
59.407188
 51
90.0
  0
ARC
  5
1B8
330
1F
100
AcDbEntity
  8
LC-001-100-D00-0
 62
     7
370
    50
100
AcDbCircle
 10
35.178203
 20
20.350912
 30
0.0
 40
24.8000135806376
100
AcDbArc
 50
90.0
 51
120.592812
  0
LINE
  5
1B9
330
1F
100
AcDbEntity
  8
LC-001-100-D00-0
 62
     7
370
    50
100
AcDbLine
 10
35.178197
 20
45.150925
 30
0.0
 11
96.178197
 21
45.150925
 31
0.0
  0
LINE
  5
1BA
330
1F
100
AcDbEntity
  8
LC-001-100-D00-0
 62
     7
370
    50
100
AcDbLine
 10
96.178197
 20
-4.449076
 30
0.0
 11
35.178197
 21
-4.449076
 31
0.0
  0
LINE
  5
1BB
330
1F
100
AcDbEntity
  8
LC-001-100-D00-0
 62
     7
370
    50
100
AcDbLine
 10
-1.154636
 20
23.789828
 30
0.0
 11
-1.146493
 21
23.421936
 31
0.0
  0
LINE
  5
1BC
330
1F
100
AcDbEntity
  8
LC-001-100-D00-0
 62
     7
370
    50
100
AcDbLine
 10
-2.265913
 20
24.582796
 30
0.0
 11
-1.154636
 21
23.789828
 31
0.0
  0
LINE
  5
1BD
330
1F
100
AcDbEntity
  8
LC-001-100-D00-0
 62
     7
370
    50
100
AcDbLine
 10
-1.154636
 20
25.375765
 30
0.0
 11
-2.265913
 21
24.582796
 31
0.0
  0
LINE
  5
1BE
330
1F
100
AcDbEntity
  8
LC-001-100-D00-0
 62
     7
370
    50
100
AcDbLine
 10
-1.154636
 20
25.749463
 30
0.0
 11
-1.154636
 21
25.375765
 31
0.0
  0
LINE
  5
1BF
330
1F
100
AcDbEntity
  8
LC-001-100-D00-0
 62
     7
370
    50
100
AcDbLine
 10
-2.528136
 20
24.769996
 30
0.0
 11
-1.154636
 21
25.749463
 31
0.0
  0
LINE
  5
1C0
330
1F
100
AcDbEntity
  8
LC-001-100-D00-0
 62
     7
370
    50
100
AcDbLine
 10
-3.712331
 20
25.614848
 30
0.0
 11
-2.528136
 21
24.769996
 31
0.0
  0
LINE
  5
1C1
330
1F
100
AcDbEntity
  8
LC-001-100-D00-0
 62
     7
370
    50
100
AcDbLine
 10
-3.712331
 20
25.24115
 30
0.0
 11
-3.712331
 21
25.614848
 31
0.0
  0
LINE
  5
1C2
330
1F
100
AcDbEntity
  8
LC-001-100-D00-0
 62
     7
370
    50
100
AcDbLine
 10
-2.789651
 20
24.582796
 30
0.0
 11
-3.712331
 21
25.24115
 31
0.0
  0
LINE
  5
1C3
330
1F
100
AcDbEntity
  8
LC-001-100-D00-0
 62
     7
370
    50
100
AcDbLine
 10
-3.712331
 20
23.924443
 30
0.0
 11
-2.789651
 21
24.582796
 31
0.0
  0
LINE
  5
1C4
330
1F
100
AcDbEntity
  8
LC-001-100-D00-0
 62
     7
370
    50
100
AcDbLine
 10
-3.712331
 20
23.550745
 30
0.0
 11
-3.712331
 21
23.924443
 31
0.0
  0
LINE
  5
1C5
330
1F
100
AcDbEntity
  8
LC-001-100-D00-0
 62
     7
370
    50
100
AcDbLine
 10
-2.528136
 20
24.396298
 30
0.0
 11
-3.712331
 21
23.550745
 31
0.0
  0
LINE
  5
1C6
330
1F
100
AcDbEntity
  8
LC-001-100-D00-0
 62
     7
370
    50
100
AcDbLine
 10
-1.146493
 20
23.421936
 30
0.0
 11
-2.528136
 21
24.396298
 31
0.0
  0
LINE
  5
1C7
330
1F
100
AcDbEntity
  8
LC-001-100-D00-0
 62
     7
370
    50
100
AcDbLine
 10
-1.154636
 20
19.123161
 30
0.0
 11
-1.146493
 21
18.755269
 31
0.0
  0
LINE
  5
1C8
330
1F
100
AcDbEntity
  8
LC-001-100-D00-0
 62
     7
370
    50
100
AcDbLine
 10
-2.265913
 20
19.91613
 30
0.0
 11
-1.154636
 21
19.123161
 31
0.0
  0
LINE
  5
1C9
330
1F
100
AcDbEntity
  8
LC-001-100-D00-0
 62
     7
370
    50
100
AcDbLine
 10
-1.154636
 20
20.709099
 30
0.0
 11
-2.265913
 21
19.91613
 31
0.0
  0
LINE
  5
1CA
330
1F
100
AcDbEntity
  8
LC-001-100-D00-0
 62
     7
370
    50
100
AcDbLine
 10
-1.154636
 20
21.082797
 30
0.0
 11
-1.154636
 21
20.709099
 31
0.0
  0
LINE
  5
1CB
330
1F
100
AcDbEntity
  8
LC-001-100-D00-0
 62
     7
370
    50
100
AcDbLine
 10
-2.528136
 20
20.103329
 30
0.0
 11
-1.154636
 21
21.082797
 31
0.0
  0
LINE
  5
1CC
330
1F
100
AcDbEntity
  8
LC-001-100-D00-0
 62
     7
370
    50
100
AcDbLine
 10
-3.712331
 20
20.948181
 30
0.0
 11
-2.528136
 21
20.103329
 31
0.0
  0
LINE
  5
1CD
330
1F
100
AcDbEntity
  8
LC-001-100-D00-0
 62
     7
370
    50
100
AcDbLine
 10
-3.712331
 20
20.574483
 30
0.0
 11
-3.712331
 21
20.948181
 31
0.0
  0
LINE
  5
1CE
330
1F
100
AcDbEntity
  8
LC-001-100-D00-0
 62
     7
370
    50
100
AcDbLine
 10
-2.789651
 20
19.91613
 30
0.0
 11
-3.712331
 21
20.574483
 31
0.0
  0
LINE
  5
1CF
330
1F
100
AcDbEntity
  8
LC-001-100-D00-0
 62
     7
370
    50
100
AcDbLine
 10
-3.712331
 20
19.257776
 30
0.0
 11
-2.789651
 21
19.91613
 31
0.0
  0
LINE
  5
1D0
330
1F
100
AcDbEntity
  8
LC-001-100-D00-0
 62
     7
370
    50
100
AcDbLine
 10
-3.712331
 20
18.884079
 30
0.0
 11
-3.712331
 21
19.257776
 31
0.0
  0
LINE
  5
1D1
330
1F
100
AcDbEntity
  8
LC-001-100-D00-0
 62
     7
370
    50
100
AcDbLine
 10
-2.528136
 20
19.729631
 30
0.0
 11
-3.712331
 21
18.884079
 31
0.0
  0
LINE
  5
1D2
330
1F
100
AcDbEntity
  8
LC-001-100-D00-0
 62
     7
370
    50
100
AcDbLine
 10
-1.146493
 20
18.755269
 30
0.0
 11
-2.528136
 21
19.729631
 31
0.0
  0
LINE
  5
1D3
330
1F
100
AcDbEntity
  8
LC-001-100-D00-0
 62
     7
370
    50
100
AcDbLine
 10
-1.154636
 20
14.456494
 30
0.0
 11
-1.146493
 21
14.088603
 31
0.0
  0
LINE
  5
1D4
330
1F
100
AcDbEntity
  8
LC-001-100-D00-0
 62
     7
370
    50
100
AcDbLine
 10
-2.265913
 20
15.249463
 30
0.0
 11
-1.154636
 21
14.456494
 31
0.0
  0
LINE
  5
1D5
330
1F
100
AcDbEntity
  8
LC-001-100-D00-0
 62
     7
370
    50
100
AcDbLine
 10
-1.154636
 20
16.042432
 30
0.0
 11
-2.265913
 21
15.249463
 31
0.0
  0
LINE
  5
1D6
330
1F
100
AcDbEntity
  8
LC-001-100-D00-0
 62
     7
370
    50
100
AcDbLine
 10
-1.154636
 20
16.41613
 30
0.0
 11
-1.154636
 21
16.042432
 31
0.0
  0
LINE
  5
1D7
330
1F
100
AcDbEntity
  8
LC-001-100-D00-0
 62
     7
370
    50
100
AcDbLine
 10
-2.528136
 20
15.436663
 30
0.0
 11
-1.154636
 21
16.41613
 31
0.0
  0
LINE
  5
1D8
330
1F
100
AcDbEntity
  8
LC-001-100-D00-0
 62
     7
370
    50
100
AcDbLine
 10
-3.712331
 20
16.281514
 30
0.0
 11
-2.528136
 21
15.436663
 31
0.0
  0
LINE
  5
1D9
330
1F
100
AcDbEntity
  8
LC-001-100-D00-0
 62
     7
370
    50
100
AcDbLine
 10
-3.712331
 20
15.907817
 30
0.0
 11
-3.712331
 21
16.281514
 31
0.0
  0
LINE
  5
1DA
330
1F
100
AcDbEntity
  8
LC-001-100-D00-0
 62
     7
370
    50
100
AcDbLine
 10
-2.789651
 20
15.249463
 30
0.0
 11
-3.712331
 21
15.907817
 31
0.0
  0
LINE
  5
1DB
330
1F
100
AcDbEntity
  8
LC-001-100-D00-0
 62
     7
370
    50
100
AcDbLine
 10
-3.712331
 20
14.59111
 30
0.0
 11
-2.789651
 21
15.249463
 31
0.0
  0
LINE
  5
1DC
330
1F
100
AcDbEntity
  8
LC-001-100-D00-0
 62
     7
370
    50
100
AcDbLine
 10
-3.712331
 20
14.217412
 30
0.0
 11
-3.712331
 21
14.59111
 31
0.0
  0
LINE
  5
1DD
330
1F
100
AcDbEntity
  8
LC-001-100-D00-0
 62
     7
370
    50
100
AcDbLine
 10
-2.528136
 20
15.062965
 30
0.0
 11
-3.712331
 21
14.217412
 31
0.0
  0
LINE
  5
1DE
330
1F
100
AcDbEntity
  8
LC-001-100-D00-0
 62
     7
370
    50
100
AcDbLine
 10
-1.146493
 20
14.088603
 30
0.0
 11
-2.528136
 21
15.062965
 31
0.0
  0
LINE
  5
1DF
330
1F
100
AcDbEntity
  8
LC-001-100-D00-0
 62
     7
370
    50
100
AcDbLine
 10
-1.154636
 20
12.123161
 30
0.0
 11
-1.154636
 21
11.749463
 31
0.0
  0
LINE
  5
1E0
330
1F
100
AcDbEntity
  8
LC-001-100-D00-0
 62
     7
370
    50
100
AcDbLine
 10
-2.265913
 20
12.91613
 30
0.0
 11
-1.154636
 21
12.123161
 31
0.0
  0
LINE
  5
1E1
330
1F
100
AcDbEntity
  8
LC-001-100-D00-0
 62
     7
370
    50
100
AcDbLine
 10
-1.154636
 20
13.709099
 30
0.0
 11
-2.265913
 21
12.91613
 31
0.0
  0
LINE
  5
1E2
330
1F
100
AcDbEntity
  8
LC-001-100-D00-0
 62
     7
370
    50
100
AcDbLine
 10
-1.154636
 20
14.082796
 30
0.0
 11
-1.154636
 21
13.709099
 31
0.0
  0
LINE
  5
1E3
330
1F
100
AcDbEntity
  8
LC-001-100-D00-0
 62
     7
370
    50
100
AcDbLine
 10
-2.528136
 20
13.103329
 30
0.0
 11
-1.154636
 21
14.082796
 31
0.0
  0
LINE
  5
1E4
330
1F
100
AcDbEntity
  8
LC-001-100-D00-0
 62
     7
370
    50
100
AcDbLine
 10
-3.712331
 20
13.948181
 30
0.0
 11
-2.528136
 21
13.103329
 31
0.0
  0
LINE
  5
1E5
330
1F
100
AcDbEntity
  8
LC-001-100-D00-0
 62
     7
370
    50
100
AcDbLine
 10
-3.712331
 20
13.574483
 30
0.0
 11
-3.712331
 21
13.948181
 31
0.0
  0
LINE
  5
1E6
330
1F
100
AcDbEntity
  8
LC-001-100-D00-0
 62
     7
370
    50
100
AcDbLine
 10
-2.789651
 20
12.91613
 30
0.0
 11
-3.712331
 21
13.574483
 31
0.0
  0
LINE
  5
1E7
330
1F
100
AcDbEntity
  8
LC-001-100-D00-0
 62
     7
370
    50
100
AcDbLine
 10
-3.712331
 20
12.257776
 30
0.0
 11
-2.789651
 21
12.91613
 31
0.0
  0
LINE
  5
1E8
330
1F
100
AcDbEntity
  8
LC-001-100-D00-0
 62
     7
370
    50
100
AcDbLine
 10
-3.712331
 20
11.884078
 30
0.0
 11
-3.712331
 21
12.257776
 31
0.0
  0
LINE
  5
1E9
330
1F
100
AcDbEntity
  8
LC-001-100-D00-0
 62
     7
370
    50
100
AcDbLine
 10
-2.528136
 20
12.729631
 30
0.0
 11
-3.712331
 21
11.884078
 31
0.0
  0
LINE
  5
1EA
330
1F
100
AcDbEntity
  8
LC-001-100-D00-0
 62
     7
370
    50
100
AcDbLine
 10
-1.154636
 20
11.749463
 30
0.0
 11
-2.528136
 21
12.729631
 31
0.0
  0
LINE
  5
1EB
330
1F
100
AcDbEntity
  8
LC-001-100-D00-0
 62
     7
370
    50
100
AcDbLine
 10
-1.154636
 20
16.789828
 30
0.0
 11
-1.146493
 21
16.421936
 31
0.0
  0
LINE
  5
1EC
330
1F
100
AcDbEntity
  8
LC-001-100-D00-0
 62
     7
370
    50
100
AcDbLine
 10
-2.265913
 20
17.582797
 30
0.0
 11
-1.154636
 21
16.789828
 31
0.0
  0
LINE
  5
1ED
330
1F
100
AcDbEntity
  8
LC-001-100-D00-0
 62
     7
370
    50
100
AcDbLine
 10
-1.154636
 20
18.375765
 30
0.0
 11
-2.265913
 21
17.582797
 31
0.0
  0
LINE
  5
1EE
330
1F
100
AcDbEntity
  8
LC-001-100-D00-0
 62
     7
370
    50
100
AcDbLine
 10
-1.154636
 20
18.749463
 30
0.0
 11
-1.154636
 21
18.375765
 31
0.0
  0
LINE
  5
1EF
330
1F
100
AcDbEntity
  8
LC-001-100-D00-0
 62
     7
370
    50
100
AcDbLine
 10
-2.528136
 20
17.769996
 30
0.0
 11
-1.154636
 21
18.749463
 31
0.0
  0
LINE
  5
1F0
330
1F
100
AcDbEntity
  8
LC-001-100-D00-0
 62
     7
370
    50
100
AcDbLine
 10
-3.712331
 20
18.614848
 30
0.0
 11
-2.528136
 21
17.769996
 31
0.0
  0
LINE
  5
1F1
330
1F
100
AcDbEntity
  8
LC-001-100-D00-0
 62
     7
370
    50
100
AcDbLine
 10
-3.712331
 20
18.24115
 30
0.0
 11
-3.712331
 21
18.614848
 31
0.0
  0
LINE
  5
1F2
330
1F
100
AcDbEntity
  8
LC-001-100-D00-0
 62
     7
370
    50
100
AcDbLine
 10
-2.789651
 20
17.582797
 30
0.0
 11
-3.712331
 21
18.24115
 31
0.0
  0
LINE
  5
1F3
330
1F
100
AcDbEntity
  8
LC-001-100-D00-0
 62
     7
370
    50
100
AcDbLine
 10
-3.712331
 20
16.924443
 30
0.0
 11
-2.789651
 21
17.582797
 31
0.0
  0
LINE
  5
1F4
330
1F
100
AcDbEntity
  8
LC-001-100-D00-0
 62
     7
370
    50
100
AcDbLine
 10
-3.712331
 20
16.550745
 30
0.0
 11
-3.712331
 21
16.924443
 31
0.0
  0
LINE
  5
1F5
330
1F
100
AcDbEntity
  8
LC-001-100-D00-0
 62
     7
370
    50
100
AcDbLine
 10
-2.528136
 20
17.396298
 30
0.0
 11
-3.712331
 21
16.550745
 31
0.0
  0
LINE
  5
1F6
330
1F
100
AcDbEntity
  8
LC-001-100-D00-0
 62
     7
370
    50
100
AcDbLine
 10
-1.146493
 20
16.421936
 30
0.0
 11
-2.528136
 21
17.396298
 31
0.0
  0
LINE
  5
1F7
330
1F
100
AcDbEntity
  8
LC-001-100-D00-0
 62
     7
370
    50
100
AcDbLine
 10
-1.154636
 20
21.456494
 30
0.0
 11
-1.146493
 21
21.088603
 31
0.0
  0
LINE
  5
1F8
330
1F
100
AcDbEntity
  8
LC-001-100-D00-0
 62
     7
370
    50
100
AcDbLine
 10
-2.265913
 20
22.249463
 30
0.0
 11
-1.154636
 21
21.456494
 31
0.0
  0
LINE
  5
1F9
330
1F
100
AcDbEntity
  8
LC-001-100-D00-0
 62
     7
370
    50
100
AcDbLine
 10
-1.154636
 20
23.042432
 30
0.0
 11
-2.265913
 21
22.249463
 31
0.0
  0
LINE
  5
1FA
330
1F
100
AcDbEntity
  8
LC-001-100-D00-0
 62
     7
370
    50
100
AcDbLine
 10
-1.154636
 20
23.41613
 30
0.0
 11
-1.154636
 21
23.042432
 31
0.0
  0
LINE
  5
1FB
330
1F
100
AcDbEntity
  8
LC-001-100-D00-0
 62
     7
370
    50
100
AcDbLine
 10
-2.528136
 20
22.436663
 30
0.0
 11
-1.154636
 21
23.41613
 31
0.0
  0
LINE
  5
1FC
330
1F
100
AcDbEntity
  8
LC-001-100-D00-0
 62
     7
370
    50
100
AcDbLine
 10
-3.712331
 20
23.281514
 30
0.0
 11
-2.528136
 21
22.436663
 31
0.0
  0
LINE
  5
1FD
330
1F
100
AcDbEntity
  8
LC-001-100-D00-0
 62
     7
370
    50
100
AcDbLine
 10
-3.712331
 20
22.907817
 30
0.0
 11
-3.712331
 21
23.281514
 31
0.0
  0
LINE
  5
1FE
330
1F
100
AcDbEntity
  8
LC-001-100-D00-0
 62
     7
370
    50
100
AcDbLine
 10
-2.789651
 20
22.249463
 30
0.0
 11
-3.712331
 21
22.907817
 31
0.0
  0
LINE
  5
1FF
330
1F
100
AcDbEntity
  8
LC-001-100-D00-0
 62
     7
370
    50
100
AcDbLine
 10
-3.712331
 20
21.59111
 30
0.0
 11
-2.789651
 21
22.249463
 31
0.0
  0
LINE
  5
200
330
1F
100
AcDbEntity
  8
LC-001-100-D00-0
 62
     7
370
    50
100
AcDbLine
 10
-3.712331
 20
21.217412
 30
0.0
 11
-3.712331
 21
21.59111
 31
0.0
  0
LINE
  5
201
330
1F
100
AcDbEntity
  8
LC-001-100-D00-0
 62
     7
370
    50
100
AcDbLine
 10
-2.528136
 20
22.062965
 30
0.0
 11
-3.712331
 21
21.217412
 31
0.0
  0
LINE
  5
202
330
1F
100
AcDbEntity
  8
LC-001-100-D00-0
 62
     7
370
    50
100
AcDbLine
 10
-1.146493
 20
21.088603
 30
0.0
 11
-2.528136
 21
22.062965
 31
0.0
  0
ARC
  5
203
330
1F
100
AcDbEntity
  8
LC-001-100-D00-0
 62
     7
370
    50
100
AcDbCircle
 10
96.178197
 20
20.350925
 30
0.0
 40
24.79999999999465
100
AcDbArc
 50
300.592814
 51
59.407186
  0
ARC
  5
204
330
1F
100
AcDbEntity
  8
LC-001-100-D00-0
 62
     7
370
    50
100
AcDbCircle
 10
35.178197
 20
20.350925
 30
0.0
 40
24.79999999999465
100
AcDbArc
 50
120.592814
 51
239.407186
  0
LINE
  5
205
330
1F
100
AcDbEntity
  8
LC-001-100-D00-0
 62
     7
370
    50
100
AcDbLine
 10
-151.071803
 20
33.600925
 30
0.0
 11
-151.071803
 21
7.100925
 31
0.0
  0
ARC
  5
206
330
1F
100
AcDbEntity
  8
LC-001-100-D00-0
 62
     7
370
    50
100
AcDbCircle
 10
-156.071803
 20
33.600925
 30
0.0
 40
5.0
100
AcDbArc
 50
0.0
 51
90.0
  0
ARC
  5
207
330
1F
100
AcDbEntity
  8
LC-001-100-D00-0
 62
     7
370
    50
100
AcDbCircle
 10
-156.071803
 20
7.100925
 30
0.0
 40
5.0
100
AcDbArc
 50
270.0
 51
0.0
  0
CIRCLE
  5
208
330
1F
100
AcDbEntity
  8
LC-001-100-D00-0
 62
     7
370
    50
100
AcDbCircle
 10
-169.321803
 20
20.350925
 30
0.0
 40
3.900000000000091
  0
LINE
  5
209
330
1F
100
AcDbEntity
  8
LC-001-100-D00-0
 62
     7
370
    50
100
AcDbLine
 10
-156.071803
 20
2.100925
 30
0.0
 11
-182.571803
 21
2.100925
 31
0.0
  0
LINE
  5
20A
330
1F
100
AcDbEntity
  8
LC-001-100-D00-0
 62
     7
370
    50
100
AcDbLine
 10
-182.571803
 20
38.600925
 30
0.0
 11
-156.071803
 21
38.600925
 31
0.0
  0
ARC
  5
20B
330
1F
100
AcDbEntity
  8
LC-001-100-D00-0
 62
     7
370
    50
100
AcDbCircle
 10
-182.571803
 20
7.100925
 30
0.0
 40
5.000000000000341
100
AcDbArc
 50
180.0
 51
270.0
  0
ARC
  5
20C
330
1F
100
AcDbEntity
  8
LC-001-100-D00-0
 62
     7
370
    50
100
AcDbCircle
 10
-182.571803
 20
33.600925
 30
0.0
 40
5.0
100
AcDbArc
 50
90.0
 51
180.0
  0
LINE
  5
20D
330
1F
100
AcDbEntity
  8
LC-001-100-D00-0
 62
     7
370
    50
100
AcDbLine
 10
-187.571803
 20
7.100925
 30
0.0
 11
-187.571803
 21
33.600925
 31
0.0
  0
LINE
  5
20E
330
1F
100
AcDbEntity
  8
LC-001-100-D00-0
 62
     7
370
    50
100
AcDbLine
 10
-286.071803
 20
33.600925
 30
0.0
 11
-286.071803
 21
7.100925
 31
0.0
  0
ARC
  5
20F
330
1F
100
AcDbEntity
  8
LC-001-100-D00-0
 62
     7
370
    50
100
AcDbCircle
 10
-291.071803
 20
7.100925
 30
0.0
 40
5.0
100
AcDbArc
 50
270.0
 51
0.0
  0
ARC
  5
210
330
1F
100
AcDbEntity
  8
LC-001-100-D00-0
 62
     7
370
    50
100
AcDbCircle
 10
-291.071803
 20
33.600925
 30
0.0
 40
5.0
100
AcDbArc
 50
0.0
 51
90.0
  0
CIRCLE
  5
211
330
1F
100
AcDbEntity
  8
LC-001-100-D00-0
 62
     7
370
    50
100
AcDbCircle
 10
-304.321803
 20
20.350925
 30
0.0
 40
3.900000000000091
  0
LINE
  5
212
330
1F
100
AcDbEntity
  8
LC-001-100-D00-0
 62
     7
370
    50
100
AcDbLine
 10
-317.571803
 20
38.600925
 30
0.0
 11
-291.071803
 21
38.600925
 31
0.0
  0
LINE
  5
213
330
1F
100
AcDbEntity
  8
LC-001-100-D00-0
 62
     7
370
    50
100
AcDbLine
 10
-291.071803
 20
2.100925
 30
0.0
 11
-317.571803
 21
2.100925
 31
0.0
  0
ARC
  5
214
330
1F
100
AcDbEntity
  8
LC-001-100-D00-0
 62
     7
370
    50
100
AcDbCircle
 10
-317.571803
 20
7.100925
 30
0.0
 40
5.0
100
AcDbArc
 50
180.0
 51
270.0
  0
ARC
  5
215
330
1F
100
AcDbEntity
  8
LC-001-100-D00-0
 62
     7
370
    50
100
AcDbCircle
 10
-317.571803
 20
33.600925
 30
0.0
 40
5.0
100
AcDbArc
 50
90.0
 51
180.0
  0
LINE
  5
216
330
1F
100
AcDbEntity
  8
LC-001-100-D00-0
 62
     7
370
    50
100
AcDbLine
 10
-322.571803
 20
7.100925
 30
0.0
 11
-322.571803
 21
33.600925
 31
0.0
  0
LINE
  5
217
330
1F
100
AcDbEntity
  8
LC-001-100-D00-0
 62
     7
370
    50
100
AcDbLine
 10
453.928197
 20
33.600925
 30
0.0
 11
453.928197
 21
7.100925
 31
0.0
  0
ARC
  5
218
330
1F
100
AcDbEntity
  8
LC-001-100-D00-0
 62
     7
370
    50
100
AcDbCircle
 10
448.928197
 20
33.600925
 30
0.0
 40
5.0
100
AcDbArc
 50
0.0
 51
90.0
  0
ARC
  5
219
330
1F
100
AcDbEntity
  8
LC-001-100-D00-0
 62
     7
370
    50
100
AcDbCircle
 10
448.928197
 20
7.100925
 30
0.0
 40
5.0
100
AcDbArc
 50
270.0
 51
0.0
  0
CIRCLE
  5
21A
330
1F
100
AcDbEntity
  8
LC-001-100-D00-0
 62
     7
370
    50
100
AcDbCircle
 10
435.678197
 20
20.350925
 30
0.0
 40
3.900000000000091
  0
LINE
  5
21B
330
1F
100
AcDbEntity
  8
LC-001-100-D00-0
 62
     7
370
    50
100
AcDbLine
 10
422.428197
 20
38.600925
 30
0.0
 11
448.928197
 21
38.600925
 31
0.0
  0
LINE
  5
21C
330
1F
100
AcDbEntity
  8
LC-001-100-D00-0
 62
     7
370
    50
100
AcDbLine
 10
448.928197
 20
2.100925
 30
0.0
 11
422.428197
 21
2.100925
 31
0.0
  0
ARC
  5
21D
330
1F
100
AcDbEntity
  8
LC-001-100-D00-0
 62
     7
370
    50
100
AcDbCircle
 10
422.428197
 20
33.600925
 30
0.0
 40
5.0
100
AcDbArc
 50
90.0
 51
180.0
  0
ARC
  5
21E
330
1F
100
AcDbEntity
  8
LC-001-100-D00-0
 62
     7
370
    50
100
AcDbCircle
 10
422.428197
 20
7.100925
 30
0.0
 40
5.0
100
AcDbArc
 50
180.0
 51
270.0
  0
LINE
  5
21F
330
1F
100
AcDbEntity
  8
LC-001-100-D00-0
 62
     7
370
    50
100
AcDbLine
 10
417.428197
 20
7.100925
 30
0.0
 11
417.428197
 21
33.600925
 31
0.0
  0
ARC
  5
220
330
1F
100
AcDbEntity
  8
LC-001-100-D00-0
 62
     7
370
    50
100
AcDbCircle
 10
313.928197
 20
7.100925
 30
0.0
 40
5.0
100
AcDbArc
 50
270.0
 51
0.0
  0
ARC
  5
221
330
1F
100
AcDbEntity
  8
LC-001-100-D00-0
 62
     7
370
    50
100
AcDbCircle
 10
313.928197
 20
33.600925
 30
0.0
 40
5.0
100
AcDbArc
 50
0.0
 51
90.0
  0
LINE
  5
222
330
1F
100
AcDbEntity
  8
LC-001-100-D00-0
 62
     7
370
    50
100
AcDbLine
 10
318.928197
 20
33.600925
 30
0.0
 11
318.928197
 21
7.100925
 31
0.0
  0
CIRCLE
  5
223
330
1F
100
AcDbEntity
  8
LC-001-100-D00-0
 62
     7
370
    50
100
AcDbCircle
 10
300.678197
 20
20.350925
 30
0.0
 40
3.900000000000091
  0
LINE
  5
224
330
1F
100
AcDbEntity
  8
LC-001-100-D00-0
 62
     7
370
    50
100
AcDbLine
 10
287.428197
 20
38.600925
 30
0.0
 11
313.928197
 21
38.600925
 31
0.0
  0
LINE
  5
225
330
1F
100
AcDbEntity
  8
LC-001-100-D00-0
 62
     7
370
    50
100
AcDbLine
 10
313.928197
 20
2.100925
 30
0.0
 11
287.428197
 21
2.100925
 31
0.0
  0
ARC
  5
226
330
1F
100
AcDbEntity
  8
LC-001-100-D00-0
 62
     7
370
    50
100
AcDbCircle
 10
287.428197
 20
7.100925
 30
0.0
 40
5.000000000000341
100
AcDbArc
 50
180.0
 51
270.0
  0
ARC
  5
227
330
1F
100
AcDbEntity
  8
LC-001-100-D00-0
 62
     7
370
    50
100
AcDbCircle
 10
287.428197
 20
33.600925
 30
0.0
 40
5.0
100
AcDbArc
 50
90.0
 51
180.0
  0
LINE
  5
228
330
1F
100
AcDbEntity
  8
LC-001-100-D00-0
 62
     7
370
    50
100
AcDbLine
 10
282.428197
 20
7.100925
 30
0.0
 11
282.428197
 21
33.600925
 31
0.0
  0
ARC
  5
229
330
1F
100
AcDbEntity
  8
LC-001-100-D00-0
 62
     7
370
    50
100
AcDbCircle
 10
178.928197
 20
33.600925
 30
0.0
 40
5.0
100
AcDbArc
 50
0.0
 51
90.0
  0
LINE
  5
22A
330
1F
100
AcDbEntity
  8
LC-001-100-D00-0
 62
     7
370
    50
100
AcDbLine
 10
183.928197
 20
33.600925
 30
0.0
 11
183.928197
 21
7.100925
 31
0.0
  0
ARC
  5
22B
330
1F
100
AcDbEntity
  8
LC-001-100-D00-0
 62
     7
370
    50
100
AcDbCircle
 10
178.928197
 20
7.100925
 30
0.0
 40
5.0
100
AcDbArc
 50
270.0
 51
0.0
  0
CIRCLE
  5
22C
330
1F
100
AcDbEntity
  8
LC-001-100-D00-0
 62
     7
370
    50
100
AcDbCircle
 10
165.678197
 20
20.350925
 30
0.0
 40
3.900000000000091
  0
LINE
  5
22D
330
1F
100
AcDbEntity
  8
LC-001-100-D00-0
 62
     7
370
    50
100
AcDbLine
 10
152.428197
 20
38.600925
 30
0.0
 11
178.928197
 21
38.600925
 31
0.0
  0
LINE
  5
22E
330
1F
100
AcDbEntity
  8
LC-001-100-D00-0
 62
     7
370
    50
100
AcDbLine
 10
178.928197
 20
2.100925
 30
0.0
 11
152.428197
 21
2.100925
 31
0.0
  0
ARC
  5
22F
330
1F
100
AcDbEntity
  8
LC-001-100-D00-0
 62
     7
370
    50
100
AcDbCircle
 10
152.428197
 20
7.100925
 30
0.0
 40
5.000000000000341
100
AcDbArc
 50
180.0
 51
270.0
  0
ARC
  5
230
330
1F
100
AcDbEntity
  8
LC-001-100-D00-0
 62
     7
370
    50
100
AcDbCircle
 10
152.428197
 20
33.600925
 30
0.0
 40
5.0
100
AcDbArc
 50
90.0
 51
180.0
  0
LINE
  5
231
330
1F
100
AcDbEntity
  8
LC-001-100-D00-0
 62
     7
370
    50
100
AcDbLine
 10
147.428197
 20
7.100925
 30
0.0
 11
147.428197
 21
33.600925
 31
0.0
  0
LINE
  5
232
330
1F
100
AcDbEntity
  8
LC-001-100-D00-0
 62
     7
370
    50
100
AcDbLine
 10
-16.071803
 20
33.600925
 30
0.0
 11
-16.071803
 21
7.100925
 31
0.0
  0
ARC
  5
233
330
1F
100
AcDbEntity
  8
LC-001-100-D00-0
 62
     7
370
    50
100
AcDbCircle
 10
-21.071803
 20
33.600925
 30
0.0
 40
5.0
100
AcDbArc
 50
0.0
 51
90.0
  0
ARC
  5
234
330
1F
100
AcDbEntity
  8
LC-001-100-D00-0
 62
     7
370
    50
100
AcDbCircle
 10
-21.071803
 20
7.100925
 30
0.0
 40
5.0
100
AcDbArc
 50
270.0
 51
0.0
  0
CIRCLE
  5
235
330
1F
100
AcDbEntity
  8
LC-001-100-D00-0
 62
     7
370
    50
100
AcDbCircle
 10
-34.321803
 20
20.350925
 30
0.0
 40
3.900000000000091
  0
LINE
  5
236
330
1F
100
AcDbEntity
  8
LC-001-100-D00-0
 62
     7
370
    50
100
AcDbLine
 10
-21.071803
 20
2.100925
 30
0.0
 11
-47.571803
 21
2.100925
 31
0.0
  0
LINE
  5
237
330
1F
100
AcDbEntity
  8
LC-001-100-D00-0
 62
     7
370
    50
100
AcDbLine
 10
-47.571803
 20
38.600925
 30
0.0
 11
-21.071803
 21
38.600925
 31
0.0
  0
ARC
  5
238
330
1F
100
AcDbEntity
  8
LC-001-100-D00-0
 62
     7
370
    50
100
AcDbCircle
 10
-47.571803
 20
33.600925
 30
0.0
 40
5.0
100
AcDbArc
 50
90.0
 51
180.0
  0
ARC
  5
239
330
1F
100
AcDbEntity
  8
LC-001-100-D00-0
 62
     7
370
    50
100
AcDbCircle
 10
-47.571803
 20
7.100925
 30
0.0
 40
5.000000000000341
100
AcDbArc
 50
180.0
 51
270.0
  0
LINE
  5
23A
330
1F
100
AcDbEntity
  8
LC-001-100-D00-0
 62
     7
370
    50
100
AcDbLine
 10
-52.571803
 20
7.100925
 30
0.0
 11
-52.571803
 21
33.600925
 31
0.0
  0
LINE
  5
23B
330
1F
100
AcDbEntity
  8
LC-001-100-D00-0
 62
     7
370
    50
100
AcDbLine
 10
35.178197
 20
-3.649075
 30
0.0
 11
96.178197
 21
-3.649075
 31
0.0
  0
ARC
  5
23C
330
1F
100
AcDbEntity
  8
LC-001-100-D00-0
 62
     7
370
    50
100
AcDbCircle
 10
35.178197
 20
20.350925
 30
0.0
 40
24.00000000000034
100
AcDbArc
 50
90.0
 51
270.0
  0
LINE
  5
23D
330
1F
100
AcDbEntity
  8
LC-001-100-D00-0
 62
     7
370
    50
100
AcDbLine
 10
96.178197
 20
44.350925
 30
0.0
 11
35.178197
 21
44.350925
 31
0.0
  0
ARC
  5
23E
330
1F
100
AcDbEntity
  8
LC-001-100-D00-0
 62
     7
370
    50
100
AcDbCircle
 10
96.178197
 20
20.350925
 30
0.0
 40
24.00000000000034
100
AcDbArc
 50
270.0
 51
90.0
  0
ARC
  5
23F
330
1F
100
AcDbEntity
  8
LC-001-100-D00-0
 62
     7
370
    50
100
AcDbCircle
 10
77.178197
 20
20.350925
 30
0.0
 40
16.00000000000023
100
AcDbArc
 50
270.0
 51
90.0
  0
LINE
  5
240
330
1F
100
AcDbEntity
  8
LC-001-100-D00-0
 62
     7
370
    50
100
AcDbLine
 10
54.178197
 20
4.350925
 30
0.0
 11
77.178197
 21
4.350925
 31
0.0
  0
LINE
  5
241
330
1F
100
AcDbEntity
  8
LC-001-100-D00-0
 62
     7
370
    50
100
AcDbLine
 10
77.178197
 20
36.350925
 30
0.0
 11
54.178197
 21
36.350925
 31
0.0
  0
ARC
  5
242
330
1F
100
AcDbEntity
  8
LC-001-100-D00-0
 62
     7
370
    50
100
AcDbCircle
 10
54.178197
 20
20.350925
 30
0.0
 40
16.00000000000023
100
AcDbArc
 50
90.0
 51
270.0
  0
DIMENSION
  5
243
330
1F
100
AcDbEntity
  8
LC-001-100-D00-0
 62
     7
370
    25
100
AcDbDimension
  2
*D18
 10
648.336981
 20
-57.149075
 30
0.0
 11
593.336981
 21
6.740431
 31
0.0
 70
   160
  1
155
 71
     5
 42
155.0
 53
90.0
  3
LC-DIM-L-0100-02-02
100
AcDbAlignedDimension
 13
510.678197
 23
97.850925
 33
0.0
 14
510.678197
 24
-57.149075
 34
0.0
 50
90.0
100
AcDbRotatedDimension
  0
LINE
  5
250
330
1F
100
AcDbEntity
  8
LC-001-100-D00-0
  6
DASHDOT
 62
     7
370
    25
100
AcDbLine
 10
-389.321803
 20
20.350925
 30
0.0
 11
520.678197
 21
20.350925
 31
0.0
  0
LINE
  5
251
330
1F
100
AcDbEntity
  8
LC-001-100-D00-0
  6
DASHDOT
 62
     7
370
    25
100
AcDbLine
 10
65.678197
 20
102.850925
 30
0.0
 11
65.678197
 21
-62.149075
 31
0.0
  0
LINE
  5
252
330
1F
100
AcDbEntity
  8
LC-001-100-D00-0
 62
     7
370
    50
100
AcDbLine
 10
178.925981
 20
265.418954
 30
0.0
 11
178.925981
 21
267.201875
 31
0.0
  0
LINE
  5
253
330
1F
100
AcDbEntity
  8
LC-001-100-D00-0
 62
     7
370
    50
100
AcDbLine
 10
178.925981
 20
317.636033
 30
0.0
 11
178.925981
 21
319.418954
 31
0.0
  0
LINE
  5
254
330
1F
100
AcDbEntity
  8
LC-001-100-D00-0
 62
     7
370
    50
100
AcDbLine
 10
174.925981
 20
319.418954
 30
0.0
 11
174.925981
 21
317.636033
 31
0.0
  0
LINE
  5
255
330
1F
100
AcDbEntity
  8
LC-001-100-D00-0
 62
     7
370
    50
100
AcDbLine
 10
174.925981
 20
267.201875
 30
0.0
 11
174.925981
 21
265.418954
 31
0.0
  0
LINE
  5
256
330
1F
100
AcDbEntity
  8
LC-001-100-D00-0
 62
     7
370
    50
100
AcDbLine
 10
105.3926
 20
315.918954
 30
0.0
 11
105.3926
 21
314.418954
 31
0.0
  0
LINE
  5
257
330
1F
100
AcDbEntity
  8
LC-001-100-D00-0
 62
     7
370
    50
100
AcDbLine
 10
25.96377
 20
314.418954
 30
0.0
 11
25.96377
 21
315.918954
 31
0.0
  0
ARC
  5
258
330
1F
100
AcDbEntity
  8
LC-001-100-D00-0
 62
     7
370
    50
100
AcDbCircle
 10
406.678185
 20
222.918954
 30
0.0
 40
0.4999999999997726
100
AcDbArc
 50
90.0
 51
180.0
  0
ARC
  5
259
330
1F
100
AcDbEntity
  8
LC-001-100-D00-0
 62
     7
370
    50
100
AcDbCircle
 10
424.678185
 20
222.918954
 30
0.0
 40
0.4999999999998863
100
AcDbArc
 50
0.0
 51
90.0
  0
LINE
  5
25A
330
1F
100
AcDbEntity
  8
LC-001-100-D00-0
 62
     7
370
    50
100
AcDbLine
 10
406.178185
 20
222.918954
 30
0.0
 11
406.178185
 21
215.418954
 31
0.0
  0
LINE
  5
25B
330
1F
100
AcDbEntity
  8
LC-001-100-D00-0
 62
     7
370
    50
100
AcDbLine
 10
425.178185
 20
215.418954
 30
0.0
 11
425.178185
 21
222.918954
 31
0.0
  0
ARC
  5
25C
330
1F
100
AcDbEntity
  8
LC-001-100-D00-0
 62
     7
370
    50
100
AcDbCircle
 10
-293.321815
 20
222.918954
 30
0.0
 40
0.5
100
AcDbArc
 50
90.0
 51
180.0
  0
ARC
  5
25D
330
1F
100
AcDbEntity
  8
LC-001-100-D00-0
 62
     7
370
    50
100
AcDbCircle
 10
-275.321815
 20
222.918954
 30
0.0
 40
0.4999999999999432
100
AcDbArc
 50
0.0
 51
90.0
  0
LINE
  5
25E
330
1F
100
AcDbEntity
  8
LC-001-100-D00-0
 62
     7
370
    50
100
AcDbLine
 10
-293.821815
 20
222.918954
 30
0.0
 11
-293.821815
 21
215.418954
 31
0.0
  0
LINE
  5
25F
330
1F
100
AcDbEntity
  8
LC-001-100-D00-0
 62
     7
370
    50
100
AcDbLine
 10
-274.821815
 20
215.418954
 30
0.0
 11
-274.821815
 21
222.918954
 31
0.0
  0
LINE
  5
260
330
1F
100
AcDbEntity
  8
LC-001-100-D00-0
 62
     7
370
    50
100
AcDbLine
 10
-271.548312
 20
292.418954
 30
0.0
 11
-271.548325
 21
317.418955
 31
0.0
  0
LINE
  5
261
330
1F
100
AcDbEntity
  8
LC-001-100-D00-0
 62
     7
370
    50
100
AcDbLine
 10
-297.095323
 20
317.418955
 30
0.0
 11
-297.095318
 21
292.418954
 31
0.0
  0
LINE
  5
262
330
1F
100
AcDbEntity
  8
LC-001-100-D00-0
 62
     7
370
    50
100
AcDbLine
 10
428.451688
 20
321.418954
 30
0.0
 11
428.451693
 21
326.852294
 31
0.0
  0
LINE
  5
263
330
1F
100
AcDbEntity
  8
LC-001-100-D00-0
 62
     7
370
    50
100
AcDbLine
 10
402.904695
 20
325.91992
 30
0.0
 11
402.904682
 21
321.418954
 31
0.0
  0
LINE
  5
264
330
1F
100
AcDbEntity
  8
LC-001-100-D00-0
 62
     7
370
    50
100
AcDbLine
 10
-271.548312
 20
321.418954
 30
0.0
 11
-271.548325
 21
325.91992
 31
0.0
  0
LINE
  5
265
330
1F
100
AcDbEntity
  8
LC-001-100-D00-0
 62
     7
370
    50
100
AcDbLine
 10
-297.095323
 20
326.852294
 30
0.0
 11
-297.095318
 21
321.418954
 31
0.0
  0
LINE
  5
266
330
1F
100
AcDbEntity
  8
LC-001-100-D00-0
 62
     7
370
    50
100
AcDbLine
 10
428.451688
 20
292.418954
 30
0.0
 11
428.451693
 21
317.418955
 31
0.0
  0
LINE
  5
267
330
1F
100
AcDbEntity
  8
LC-001-100-D00-0
 62
     7
370
    50
100
AcDbLine
 10
402.904695
 20
317.418955
 30
0.0
 11
402.904682
 21
292.418954
 31
0.0
  0
LINE
  5
268
330
1F
100
AcDbEntity
  8
LC-001-100-D00-0
 62
     7
370
    50
100
AcDbLine
 10
-294.321815
 20
234.918954
 30
0.0
 11
-294.321815
 21
224.418954
 31
0.0
  0
LINE
  5
269
330
1F
100
AcDbEntity
  8
LC-001-100-D00-0
 62
     7
370
    50
100
AcDbLine
 10
-274.321815
 20
224.418954
 30
0.0
 11
-274.321815
 21
234.918954
 31
0.0
  0
LINE
  5
26A
330
1F
100
AcDbEntity
  8
LC-001-100-D00-0
 62
     7
370
    50
100
AcDbLine
 10
-294.321829
 20
321.418954
 30
0.0
 11
-294.321829
 21
321.318954
 31
0.0
  0
LINE
  5
26B
330
1F
100
AcDbEntity
  8
LC-001-100-D00-0
 62
     7
370
    50
100
AcDbLine
 10
-294.321829
 20
292.418953
 30
0.0
 11
-294.321815
 21
238.418954
 31
0.0
  0
LINE
  5
26C
330
1F
100
AcDbEntity
  8
LC-001-100-D00-0
 62
     7
370
    50
100
AcDbLine
 10
-274.321815
 20
238.418954
 30
0.0
 11
-274.321819
 21
292.418953
 31
0.0
  0
LINE
  5
26D
330
1F
100
AcDbEntity
  8
LC-001-100-D00-0
 62
     7
370
    50
100
AcDbLine
 10
-274.321819
 20
321.318954
 30
0.0
 11
-274.321819
 21
321.418954
 31
0.0
  0
LINE
  5
26E
330
1F
100
AcDbEntity
  8
LC-001-100-D00-0
 62
     7
370
    50
100
AcDbLine
 10
-294.321815
 20
224.418954
 30
0.0
 11
-293.321815
 21
223.418954
 31
0.0
  0
LINE
  5
26F
330
1F
100
AcDbEntity
  8
LC-001-100-D00-0
 62
     7
370
    50
100
AcDbLine
 10
-275.321815
 20
223.418954
 30
0.0
 11
-274.321815
 21
224.418954
 31
0.0
  0
LINE
  5
270
330
1F
100
AcDbEntity
  8
LC-001-100-D00-0
 62
     7
370
    50
100
AcDbLine
 10
-292.221809
 20
238.418952
 30
0.0
 11
-292.221809
 21
234.918952
 31
0.0
  0
LINE
  5
271
330
1F
100
AcDbEntity
  8
LC-001-100-D00-0
 62
     7
370
    50
100
AcDbLine
 10
-276.421809
 20
234.918952
 30
0.0
 11
-276.421809
 21
238.418952
 31
0.0
  0
LINE
  5
272
330
1F
100
AcDbEntity
  8
LC-001-100-D00-0
 62
     7
370
    50
100
AcDbLine
 10
405.678185
 20
234.918954
 30
0.0
 11
405.678185
 21
224.418954
 31
0.0
  0
LINE
  5
273
330
1F
100
AcDbEntity
  8
LC-001-100-D00-0
 62
     7
370
    50
100
AcDbLine
 10
425.678185
 20
224.418954
 30
0.0
 11
425.678185
 21
234.918954
 31
0.0
  0
LINE
  5
274
330
1F
100
AcDbEntity
  8
LC-001-100-D00-0
 62
     7
370
    50
100
AcDbLine
 10
405.678189
 20
321.418954
 30
0.0
 11
405.678189
 21
321.318954
 31
0.0
  0
LINE
  5
275
330
1F
100
AcDbEntity
  8
LC-001-100-D00-0
 62
     7
370
    50
100
AcDbLine
 10
405.678189
 20
292.418953
 30
0.0
 11
405.678185
 21
238.418954
 31
0.0
  0
LINE
  5
276
330
1F
100
AcDbEntity
  8
LC-001-100-D00-0
 62
     7
370
    50
100
AcDbLine
 10
425.678185
 20
238.418954
 30
0.0
 11
425.678199
 21
292.418953
 31
0.0
  0
LINE
  5
277
330
1F
100
AcDbEntity
  8
LC-001-100-D00-0
 62
     7
370
    50
100
AcDbLine
 10
425.678199
 20
321.318954
 30
0.0
 11
425.678199
 21
321.418954
 31
0.0
  0
LINE
  5
278
330
1F
100
AcDbEntity
  8
LC-001-100-D00-0
 62
     7
370
    50
100
AcDbLine
 10
405.678185
 20
224.418954
 30
0.0
 11
406.678185
 21
223.418954
 31
0.0
  0
LINE
  5
279
330
1F
100
AcDbEntity
  8
LC-001-100-D00-0
 62
     7
370
    50
100
AcDbLine
 10
424.678185
 20
223.418954
 30
0.0
 11
425.678185
 21
224.418954
 31
0.0
  0
LINE
  5
27A
330
1F
100
AcDbEntity
  8
LC-001-100-D00-0
 62
     7
370
    50
100
AcDbLine
 10
407.778179
 20
238.418952
 30
0.0
 11
407.778179
 21
234.918952
 31
0.0
  0
LINE
  5
27B
330
1F
100
AcDbEntity
  8
LC-001-100-D00-0
 62
     7
370
    50
100
AcDbLine
 10
423.578179
 20
234.918952
 30
0.0
 11
423.578179
 21
238.418952
 31
0.0
  0
LINE
  5
27C
330
1F
100
AcDbEntity
  8
LC-001-100-D00-0
 62
     7
370
    50
100
AcDbLine
 10
170.878185
 20
333.68772
 30
0.0
 11
170.878185
 21
336.150188
 31
0.0
  0
ARC
  5
27D
330
1F
100
AcDbEntity
  8
LC-001-100-D00-0
 62
     7
370
    50
100
AcDbCircle
 10
171.478185
 20
333.68772
 30
0.0
 40
0.6000000000000227
100
AcDbArc
 50
180.0
 51
255.0
  0
LINE
  5
27E
330
1F
100
AcDbEntity
  8
LC-001-100-D00-0
 62
     7
370
    50
100
AcDbLine
 10
172.029039
 20
332.918953
 30
0.0
 11
171.322894
 21
333.108165
 31
0.0
  0
LINE
  5
27F
330
1F
100
AcDbEntity
  8
LC-001-100-D00-0
 62
     7
370
    50
100
AcDbLine
 10
172.029039
 20
332.918953
 30
0.0
 11
172.029039
 21
330.918955
 31
0.0
  0
LINE
  5
280
330
1F
100
AcDbEntity
  8
LC-001-100-D00-0
 62
     7
370
    50
100
AcDbLine
 10
169.078185
 20
331.918954
 30
0.0
 11
170.078185
 21
330.918954
 31
0.0
  0
LINE
  5
281
330
1F
100
AcDbEntity
  8
LC-001-100-D00-0
 62
     7
370
    50
100
AcDbLine
 10
169.078185
 20
331.918954
 30
0.0
 11
169.078184
 21
337.918954
 31
0.0
  0
LINE
  5
282
330
1F
100
AcDbEntity
  8
LC-001-100-D00-0
 62
     7
370
    50
100
AcDbLine
 10
170.078186
 20
338.918954
 30
0.0
 11
169.078184
 21
337.918954
 31
0.0
  0
LINE
  5
283
330
1F
100
AcDbEntity
  8
LC-001-100-D00-0
 62
     7
370
    50
100
AcDbLine
 10
172.029039
 20
338.918954
 30
0.0
 11
172.029039
 21
336.918954
 31
0.0
  0
LINE
  5
284
330
1F
100
AcDbEntity
  8
LC-001-100-D00-0
 62
     7
370
    50
100
AcDbLine
 10
171.322894
 20
336.729743
 30
0.0
 11
172.029039
 21
336.918954
 31
0.0
  0
ARC
  5
285
330
1F
100
AcDbEntity
  8
LC-001-100-D00-0
 62
     7
370
    50
100
AcDbCircle
 10
171.478185
 20
336.150188
 30
0.0
 40
0.600000000000118
100
AcDbArc
 50
105.0
 51
180.0
  0
LINE
  5
286
330
1F
100
AcDbEntity
  8
LC-001-100-D00-0
 62
     7
370
    50
100
AcDbLine
 10
170.078185
 20
330.918954
 30
0.0
 11
172.029039
 21
330.918955
 31
0.0
  0
LINE
  5
287
330
1F
100
AcDbEntity
  8
LC-001-100-D00-0
 62
     7
370
    50
100
AcDbLine
 10
170.078186
 20
338.918954
 30
0.0
 11
172.029039
 21
338.918954
 31
0.0
  0
LINE
  5
288
330
1F
100
AcDbEntity
  8
LC-001-100-D00-0
 62
     7
370
    50
100
AcDbLine
 10
160.478185
 20
336.150188
 30
0.0
 11
160.478185
 21
333.68772
 31
0.0
  0
LINE
  5
289
330
1F
100
AcDbEntity
  8
LC-001-100-D00-0
 62
     7
370
    50
100
AcDbLine
 10
162.278189
 20
337.918954
 30
0.0
 11
161.278186
 21
338.918954
 31
0.0
  0
LINE
  5
28A
330
1F
100
AcDbEntity
  8
LC-001-100-D00-0
 62
     7
370
    50
100
AcDbLine
 10
161.278185
 20
330.918954
 30
0.0
 11
162.278185
 21
331.918954
 31
0.0
  0
LINE
  5
28B
330
1F
100
AcDbEntity
  8
LC-001-100-D00-0
 62
     7
370
    50
100
AcDbLine
 10
162.278185
 20
331.918954
 30
0.0
 11
162.436025
 21
331.918954
 31
0.0
  0
LINE
  5
28C
330
1F
100
AcDbEntity
  8
LC-001-100-D00-0
 62
     7
370
    50
100
AcDbLine
 10
168.920345
 20
331.918954
 30
0.0
 11
169.078185
 21
331.918954
 31
0.0
  0
LINE
  5
28D
330
1F
100
AcDbEntity
  8
LC-001-100-D00-0
 62
     7
370
    50
100
AcDbLine
 10
170.078185
 20
330.918954
 30
0.0
 11
169.542403
 21
330.918954
 31
0.0
  0
LINE
  5
28E
330
1F
100
AcDbEntity
  8
LC-001-100-D00-0
 62
     7
370
    50
100
AcDbLine
 10
161.813967
 20
330.918954
 30
0.0
 11
161.278185
 21
330.918954
 31
0.0
  0
LINE
  5
28F
330
1F
100
AcDbEntity
  8
LC-001-100-D00-0
 62
     7
370
    50
100
AcDbLine
 10
162.278189
 20
337.918954
 30
0.0
 11
162.278185
 21
331.918954
 31
0.0
  0
LINE
  5
290
330
1F
100
AcDbEntity
  8
LC-001-100-D00-0
 62
     7
370
    50
100
AcDbLine
 10
159.327334
 20
332.918953
 30
0.0
 11
159.327334
 21
330.918955
 31
0.0
  0
LINE
  5
291
330
1F
100
AcDbEntity
  8
LC-001-100-D00-0
 62
     7
370
    50
100
AcDbLine
 10
160.033476
 20
333.108165
 30
0.0
 11
159.327334
 21
332.918953
 31
0.0
  0
ARC
  5
292
330
1F
100
AcDbEntity
  8
LC-001-100-D00-0
 62
     7
370
    50
100
AcDbCircle
 10
159.878185
 20
333.68772
 30
0.0
 40
0.5999999999998983
100
AcDbArc
 50
285.0
 51
0.0
  0
ARC
  5
293
330
1F
100
AcDbEntity
  8
LC-001-100-D00-0
 62
     7
370
    50
100
AcDbCircle
 10
159.878185
 20
336.150188
 30
0.0
 40
0.6000000000000227
100
AcDbArc
 50
0.0
 51
75.0
  0
LINE
  5
294
330
1F
100
AcDbEntity
  8
LC-001-100-D00-0
 62
     7
370
    50
100
AcDbLine
 10
159.327334
 20
336.918954
 30
0.0
 11
160.033476
 21
336.729743
 31
0.0
  0
LINE
  5
295
330
1F
100
AcDbEntity
  8
LC-001-100-D00-0
 62
     7
370
    50
100
AcDbLine
 10
159.327334
 20
338.918954
 30
0.0
 11
159.327334
 21
336.918954
 31
0.0
  0
LINE
  5
296
330
1F
100
AcDbEntity
  8
LC-001-100-D00-0
 62
     7
370
    50
100
AcDbLine
 10
159.327334
 20
330.918955
 30
0.0
 11
161.278185
 21
330.918954
 31
0.0
  0
LINE
  5
297
330
1F
100
AcDbEntity
  8
LC-001-100-D00-0
 62
     7
370
    50
100
AcDbLine
 10
159.327334
 20
338.918954
 30
0.0
 11
161.278186
 21
338.918954
 31
0.0
  0
LINE
  5
298
330
1F
100
AcDbEntity
  8
LC-001-100-D00-0
 62
     7
370
    50
100
AcDbLine
 10
172.029039
 20
338.918954
 30
0.0
 11
169.578185
 21
338.918954
 31
0.0
  0
LINE
  5
299
330
1F
100
AcDbEntity
  8
LC-001-100-D00-0
 62
     7
370
    50
100
AcDbLine
 10
169.578185
 20
338.918954
 30
0.0
 11
169.578185
 21
349.918954
 31
0.0
  0
LINE
  5
29A
330
1F
100
AcDbEntity
  8
LC-001-100-D00-0
 62
     7
370
    50
100
AcDbLine
 10
169.578185
 20
349.918954
 30
0.0
 11
182.928185
 21
349.918954
 31
0.0
  0
ARC
  5
29B
330
1F
100
AcDbEntity
  8
LC-001-100-D00-0
 62
     7
370
    50
100
AcDbCircle
 10
182.928185
 20
348.918954
 30
0.0
 40
1.000000000000114
100
AcDbArc
 50
0.0
 51
90.0
  0
LINE
  5
29C
330
1F
100
AcDbEntity
  8
LC-001-100-D00-0
 62
     7
370
    50
100
AcDbLine
 10
183.928185
 20
348.918954
 30
0.0
 11
183.928182
 21
342.918954
 31
0.0
  0
LINE
  5
29D
330
1F
100
AcDbEntity
  8
LC-001-100-D00-0
 62
     7
370
    50
100
AcDbLine
 10
180.928185
 20
342.918954
 30
0.0
 11
183.928182
 21
342.918954
 31
0.0
  0
LINE
  5
29E
330
1F
100
AcDbEntity
  8
LC-001-100-D00-0
 62
     7
370
    50
100
AcDbLine
 10
180.928185
 20
342.918954
 30
0.0
 11
180.928184
 21
346.918954
 31
0.0
  0
LINE
  5
29F
330
1F
100
AcDbEntity
  8
LC-001-100-D00-0
 62
     7
370
    50
100
AcDbLine
 10
176.428185
 20
346.918954
 30
0.0
 11
180.928184
 21
346.918954
 31
0.0
  0
ARC
  5
2A0
330
1F
100
AcDbEntity
  8
LC-001-100-D00-0
 62
     7
370
    50
100
AcDbCircle
 10
176.428185
 20
345.918954
 30
0.0
 40
1.0
100
AcDbArc
 50
90.0
 51
180.0
  0
LINE
  5
2A1
330
1F
100
AcDbEntity
  8
LC-001-100-D00-0
 62
     7
370
    50
100
AcDbLine
 10
175.428185
 20
331.918954
 30
0.0
 11
175.428185
 21
345.918954
 31
0.0
  0
ARC
  5
2A2
330
1F
100
AcDbEntity
  8
LC-001-100-D00-0
 62
     7
370
    50
100
AcDbCircle
 10
174.428185
 20
331.918954
 30
0.0
 40
1.000000000000227
100
AcDbArc
 50
270.0
 51
0.0
  0
LINE
  5
2A3
330
1F
100
AcDbEntity
  8
LC-001-100-D00-0
 62
     7
370
    50
100
AcDbLine
 10
174.428185
 20
330.918954
 30
0.0
 11
172.029039
 21
330.918955
 31
0.0
  0
LINE
  5
2A4
330
1F
100
AcDbEntity
  8
LC-001-100-D00-0
 62
     7
370
    50
100
AcDbLine
 10
172.029039
 20
332.918953
 30
0.0
 11
172.029039
 21
330.918955
 31
0.0
  0
LINE
  5
2A5
330
1F
100
AcDbEntity
  8
LC-001-100-D00-0
 62
     7
370
    50
100
AcDbLine
 10
171.378185
 20
332.918954
 30
0.0
 11
172.029039
 21
332.918953
 31
0.0
  0
ARC
  5
2A6
330
1F
100
AcDbEntity
  8
LC-001-100-D00-0
 62
     7
370
    50
100
AcDbCircle
 10
171.378185
 20
333.418954
 30
0.0
 40
0.4999999999998863
100
AcDbArc
 50
180.0
 51
270.0
  0
LINE
  5
2A7
330
1F
100
AcDbEntity
  8
LC-001-100-D00-0
 62
     7
370
    50
100
AcDbLine
 10
170.878185
 20
336.418954
 30
0.0
 11
170.878185
 21
333.418954
 31
0.0
  0
ARC
  5
2A8
330
1F
100
AcDbEntity
  8
LC-001-100-D00-0
 62
     7
370
    50
100
AcDbCircle
 10
171.378185
 20
336.418954
 30
0.0
 40
0.5
100
AcDbArc
 50
90.0
 51
180.0
  0
LINE
  5
2A9
330
1F
100
AcDbEntity
  8
LC-001-100-D00-0
 62
     7
370
    50
100
AcDbLine
 10
172.029039
 20
336.918954
 30
0.0
 11
171.378185
 21
336.918954
 31
0.0
  0
LINE
  5
2AA
330
1F
100
AcDbEntity
  8
LC-001-100-D00-0
 62
     7
370
    50
100
AcDbLine
 10
172.029039
 20
338.918954
 30
0.0
 11
172.029039
 21
336.918954
 31
0.0
  0
ARC
  5
2AB
330
1F
100
AcDbEntity
  8
LC-001-100-D00-0
 62
     7
370
    50
100
AcDbCircle
 10
154.928185
 20
345.918954
 30
0.0
 40
1.000000000000114
100
AcDbArc
 50
0.0
 51
90.0
  0
LINE
  5
2AC
330
1F
100
AcDbEntity
  8
LC-001-100-D00-0
 62
     7
370
    50
100
AcDbLine
 10
155.928185
 20
345.918954
 30
0.0
 11
155.928185
 21
331.918954
 31
0.0
  0
ARC
  5
2AD
330
1F
100
AcDbEntity
  8
LC-001-100-D00-0
 62
     7
370
    50
100
AcDbCircle
 10
156.928185
 20
331.918954
 30
0.0
 40
1.000000000000114
100
AcDbArc
 50
180.0
 51
270.0
  0
LINE
  5
2AE
330
1F
100
AcDbEntity
  8
LC-001-100-D00-0
 62
     7
370
    50
100
AcDbLine
 10
160.478185
 20
333.418954
 30
0.0
 11
160.478185
 21
336.418954
 31
0.0
  0
LINE
  5
2AF
330
1F
100
AcDbEntity
  8
LC-001-100-D00-0
 62
     7
370
    50
100
AcDbLine
 10
161.778185
 20
349.918954
 30
0.0
 11
161.778187
 21
338.918954
 31
0.0
  0
LINE
  5
2B0
330
1F
100
AcDbEntity
  8
LC-001-100-D00-0
 62
     7
370
    50
100
AcDbLine
 10
161.778185
 20
349.918954
 30
0.0
 11
169.578185
 21
349.918954
 31
0.0
  0
LINE
  5
2B1
330
1F
100
AcDbEntity
  8
LC-001-100-D00-0
 62
     7
370
    50
100
AcDbLine
 10
159.327334
 20
332.918953
 30
0.0
 11
159.327334
 21
330.918955
 31
0.0
  0
LINE
  5
2B2
330
1F
100
AcDbEntity
  8
LC-001-100-D00-0
 62
     7
370
    50
100
AcDbLine
 10
159.327334
 20
338.918954
 30
0.0
 11
159.327334
 21
336.918954
 31
0.0
  0
ARC
  5
2B3
330
1F
100
AcDbEntity
  8
LC-001-100-D00-0
 62
     7
370
    50
100
AcDbCircle
 10
159.978185
 20
333.418954
 30
0.0
 40
0.5
100
AcDbArc
 50
270.0
 51
0.0
  0
LINE
  5
2B4
330
1F
100
AcDbEntity
  8
LC-001-100-D00-0
 62
     7
370
    50
100
AcDbLine
 10
159.327334
 20
332.918953
 30
0.0
 11
159.978185
 21
332.918954
 31
0.0
  0
LINE
  5
2B5
330
1F
100
AcDbEntity
  8
LC-001-100-D00-0
 62
     7
370
    50
100
AcDbLine
 10
150.428182
 20
346.918954
 30
0.0
 11
150.428185
 21
342.918954
 31
0.0
  0
LINE
  5
2B6
330
1F
100
AcDbEntity
  8
LC-001-100-D00-0
 62
     7
370
    50
100
AcDbLine
 10
147.428183
 20
342.918954
 30
0.0
 11
147.428185
 21
348.918954
 31
0.0
  0
ARC
  5
2B7
330
1F
100
AcDbEntity
  8
LC-001-100-D00-0
 62
     7
370
    50
100
AcDbCircle
 10
148.428185
 20
348.918954
 30
0.0
 40
1.0
100
AcDbArc
 50
90.0
 51
180.0
  0
LINE
  5
2B8
330
1F
100
AcDbEntity
  8
LC-001-100-D00-0
 62
     7
370
    50
100
AcDbLine
 10
159.978185
 20
336.918954
 30
0.0
 11
159.327334
 21
336.918954
 31
0.0
  0
ARC
  5
2B9
330
1F
100
AcDbEntity
  8
LC-001-100-D00-0
 62
     7
370
    50
100
AcDbCircle
 10
159.978185
 20
336.418954
 30
0.0
 40
0.5
100
AcDbArc
 50
0.0
 51
90.0
  0
LINE
  5
2BA
330
1F
100
AcDbEntity
  8
LC-001-100-D00-0
 62
     7
370
    50
100
AcDbLine
 10
161.778187
 20
338.918954
 30
0.0
 11
159.327334
 21
338.918954
 31
0.0
  0
LINE
  5
2BB
330
1F
100
AcDbEntity
  8
LC-001-100-D00-0
 62
     7
370
    50
100
AcDbLine
 10
159.327334
 20
330.918955
 30
0.0
 11
156.928185
 21
330.918954
 31
0.0
  0
LINE
  5
2BC
330
1F
100
AcDbEntity
  8
LC-001-100-D00-0
 62
     7
370
    50
100
AcDbLine
 10
150.428182
 20
346.918954
 30
0.0
 11
154.928185
 21
346.918954
 31
0.0
  0
LINE
  5
2BD
330
1F
100
AcDbEntity
  8
LC-001-100-D00-0
 62
     7
370
    50
100
AcDbLine
 10
148.428185
 20
349.918954
 30
0.0
 11
161.778185
 21
349.918954
 31
0.0
  0
LINE
  5
2BE
330
1F
100
AcDbEntity
  8
LC-001-100-D00-0
 62
     7
370
    50
100
AcDbLine
 10
147.428183
 20
342.918954
 30
0.0
 11
150.428185
 21
342.918954
 31
0.0
  0
LINE
  5
2BF
330
1F
100
AcDbEntity
  8
LC-001-100-D00-0
 62
     7
370
    50
100
AcDbLine
 10
178.928185
 20
342.918954
 30
0.0
 11
180.928185
 21
342.918954
 31
0.0
  0
LINE
  5
2C0
330
1F
100
AcDbEntity
  8
LC-001-100-D00-0
 62
     7
370
    50
100
AcDbLine
 10
150.428185
 20
342.918954
 30
0.0
 11
152.428185
 21
342.918954
 31
0.0
  0
LINE
  5
2C1
330
1F
100
AcDbEntity
  8
LC-001-100-D00-0
 62
     7
370
    50
100
AcDbLine
 10
152.428185
 20
342.918954
 30
0.0
 11
155.928185
 21
342.918954
 31
0.0
  0
LINE
  5
2C2
330
1F
100
AcDbEntity
  8
LC-001-100-D00-0
 62
     7
370
    50
100
AcDbLine
 10
175.428188
 20
342.918954
 30
0.0
 11
178.928185
 21
342.918954
 31
0.0
  0
LINE
  5
2C3
330
1F
100
AcDbEntity
  8
LC-001-100-D00-0
 62
     7
370
    50
100
AcDbLine
 10
-29.121815
 20
333.68772
 30
0.0
 11
-29.121815
 21
336.150188
 31
0.0
  0
ARC
  5
2C4
330
1F
100
AcDbEntity
  8
LC-001-100-D00-0
 62
     7
370
    50
100
AcDbCircle
 10
-28.521815
 20
333.68772
 30
0.0
 40
0.6000000000000227
100
AcDbArc
 50
180.0
 51
255.0
  0
LINE
  5
2C5
330
1F
100
AcDbEntity
  8
LC-001-100-D00-0
 62
     7
370
    50
100
AcDbLine
 10
-27.970964
 20
332.918953
 30
0.0
 11
-28.677106
 21
333.108165
 31
0.0
  0
LINE
  5
2C6
330
1F
100
AcDbEntity
  8
LC-001-100-D00-0
 62
     7
370
    50
100
AcDbLine
 10
-27.970964
 20
332.918953
 30
0.0
 11
-27.970964
 21
330.918955
 31
0.0
  0
LINE
  5
2C7
330
1F
100
AcDbEntity
  8
LC-001-100-D00-0
 62
     7
370
    50
100
AcDbLine
 10
-30.921815
 20
331.918954
 30
0.0
 11
-29.921815
 21
330.918954
 31
0.0
  0
LINE
  5
2C8
330
1F
100
AcDbEntity
  8
LC-001-100-D00-0
 62
     7
370
    50
100
AcDbLine
 10
-30.921815
 20
331.918954
 30
0.0
 11
-30.921819
 21
337.918954
 31
0.0
  0
LINE
  5
2C9
330
1F
100
AcDbEntity
  8
LC-001-100-D00-0
 62
     7
370
    50
100
AcDbLine
 10
-29.921817
 20
338.918954
 30
0.0
 11
-30.921819
 21
337.918954
 31
0.0
  0
LINE
  5
2CA
330
1F
100
AcDbEntity
  8
LC-001-100-D00-0
 62
     7
370
    50
100
AcDbLine
 10
-27.970964
 20
338.918954
 30
0.0
 11
-27.970964
 21
336.918954
 31
0.0
  0
LINE
  5
2CB
330
1F
100
AcDbEntity
  8
LC-001-100-D00-0
 62
     7
370
    50
100
AcDbLine
 10
-28.677106
 20
336.729743
 30
0.0
 11
-27.970964
 21
336.918954
 31
0.0
  0
ARC
  5
2CC
330
1F
100
AcDbEntity
  8
LC-001-100-D00-0
 62
     7
370
    50
100
AcDbCircle
 10
-28.521815
 20
336.150188
 30
0.0
 40
0.600000000000118
100
AcDbArc
 50
105.0
 51
180.0
  0
LINE
  5
2CD
330
1F
100
AcDbEntity
  8
LC-001-100-D00-0
 62
     7
370
    50
100
AcDbLine
 10
-29.921815
 20
330.918954
 30
0.0
 11
-27.970964
 21
330.918955
 31
0.0
  0
LINE
  5
2CE
330
1F
100
AcDbEntity
  8
LC-001-100-D00-0
 62
     7
370
    50
100
AcDbLine
 10
-29.921817
 20
338.918954
 30
0.0
 11
-27.970964
 21
338.918954
 31
0.0
  0
LINE
  5
2CF
330
1F
100
AcDbEntity
  8
LC-001-100-D00-0
 62
     7
370
    50
100
AcDbLine
 10
-39.521815
 20
336.150188
 30
0.0
 11
-39.521815
 21
333.68772
 31
0.0
  0
LINE
  5
2D0
330
1F
100
AcDbEntity
  8
LC-001-100-D00-0
 62
     7
370
    50
100
AcDbLine
 10
-37.721814
 20
337.918954
 30
0.0
 11
-38.721817
 21
338.918954
 31
0.0
  0
LINE
  5
2D1
330
1F
100
AcDbEntity
  8
LC-001-100-D00-0
 62
     7
370
    50
100
AcDbLine
 10
-38.721815
 20
330.918954
 30
0.0
 11
-37.721815
 21
331.918954
 31
0.0
  0
LINE
  5
2D2
330
1F
100
AcDbEntity
  8
LC-001-100-D00-0
 62
     7
370
    50
100
AcDbLine
 10
-37.721815
 20
331.918954
 30
0.0
 11
-37.563975
 21
331.918954
 31
0.0
  0
LINE
  5
2D3
330
1F
100
AcDbEntity
  8
LC-001-100-D00-0
 62
     7
370
    50
100
AcDbLine
 10
-31.079655
 20
331.918954
 30
0.0
 11
-30.921815
 21
331.918954
 31
0.0
  0
LINE
  5
2D4
330
1F
100
AcDbEntity
  8
LC-001-100-D00-0
 62
     7
370
    50
100
AcDbLine
 10
-29.921815
 20
330.918954
 30
0.0
 11
-30.457597
 21
330.918954
 31
0.0
  0
LINE
  5
2D5
330
1F
100
AcDbEntity
  8
LC-001-100-D00-0
 62
     7
370
    50
100
AcDbLine
 10
-38.186033
 20
330.918954
 30
0.0
 11
-38.721815
 21
330.918954
 31
0.0
  0
LINE
  5
2D6
330
1F
100
AcDbEntity
  8
LC-001-100-D00-0
 62
     7
370
    50
100
AcDbLine
 10
-37.721814
 20
337.918954
 30
0.0
 11
-37.721815
 21
331.918954
 31
0.0
  0
LINE
  5
2D7
330
1F
100
AcDbEntity
  8
LC-001-100-D00-0
 62
     7
370
    50
100
AcDbLine
 10
-40.672669
 20
332.918953
 30
0.0
 11
-40.672669
 21
330.918955
 31
0.0
  0
LINE
  5
2D8
330
1F
100
AcDbEntity
  8
LC-001-100-D00-0
 62
     7
370
    50
100
AcDbLine
 10
-39.966524
 20
333.108165
 30
0.0
 11
-40.672669
 21
332.918953
 31
0.0
  0
ARC
  5
2D9
330
1F
100
AcDbEntity
  8
LC-001-100-D00-0
 62
     7
370
    50
100
AcDbCircle
 10
-40.121815
 20
333.68772
 30
0.0
 40
0.5999999999998689
100
AcDbArc
 50
285.0
 51
0.0
  0
ARC
  5
2DA
330
1F
100
AcDbEntity
  8
LC-001-100-D00-0
 62
     7
370
    50
100
AcDbCircle
 10
-40.121815
 20
336.150188
 30
0.0
 40
0.6000000000000227
100
AcDbArc
 50
0.0
 51
75.0
  0
LINE
  5
2DB
330
1F
100
AcDbEntity
  8
LC-001-100-D00-0
 62
     7
370
    50
100
AcDbLine
 10
-40.672669
 20
336.918954
 30
0.0
 11
-39.966524
 21
336.729743
 31
0.0
  0
LINE
  5
2DC
330
1F
100
AcDbEntity
  8
LC-001-100-D00-0
 62
     7
370
    50
100
AcDbLine
 10
-40.672669
 20
338.918954
 30
0.0
 11
-40.672669
 21
336.918954
 31
0.0
  0
LINE
  5
2DD
330
1F
100
AcDbEntity
  8
LC-001-100-D00-0
 62
     7
370
    50
100
AcDbLine
 10
-40.672669
 20
330.918955
 30
0.0
 11
-38.721815
 21
330.918954
 31
0.0
  0
LINE
  5
2DE
330
1F
100
AcDbEntity
  8
LC-001-100-D00-0
 62
     7
370
    50
100
AcDbLine
 10
-40.672669
 20
338.918954
 30
0.0
 11
-38.721817
 21
338.918954
 31
0.0
  0
LINE
  5
2DF
330
1F
100
AcDbEntity
  8
LC-001-100-D00-0
 62
     7
370
    50
100
AcDbLine
 10
-27.970964
 20
338.918954
 30
0.0
 11
-30.421818
 21
338.918954
 31
0.0
  0
LINE
  5
2E0
330
1F
100
AcDbEntity
  8
LC-001-100-D00-0
 62
     7
370
    50
100
AcDbLine
 10
-30.421818
 20
338.918954
 30
0.0
 11
-30.421815
 21
349.918954
 31
0.0
  0
LINE
  5
2E1
330
1F
100
AcDbEntity
  8
LC-001-100-D00-0
 62
     7
370
    50
100
AcDbLine
 10
-30.421815
 20
349.918954
 30
0.0
 11
-17.071815
 21
349.918954
 31
0.0
  0
ARC
  5
2E2
330
1F
100
AcDbEntity
  8
LC-001-100-D00-0
 62
     7
370
    50
100
AcDbCircle
 10
-17.071815
 20
348.918954
 30
0.0
 40
1.0
100
AcDbArc
 50
0.0
 51
90.0
  0
LINE
  5
2E3
330
1F
100
AcDbEntity
  8
LC-001-100-D00-0
 62
     7
370
    50
100
AcDbLine
 10
-16.071815
 20
348.918954
 30
0.0
 11
-16.071813
 21
342.918954
 31
0.0
  0
LINE
  5
2E4
330
1F
100
AcDbEntity
  8
LC-001-100-D00-0
 62
     7
370
    50
100
AcDbLine
 10
-19.071815
 20
342.918954
 30
0.0
 11
-16.071813
 21
342.918954
 31
0.0
  0
LINE
  5
2E5
330
1F
100
AcDbEntity
  8
LC-001-100-D00-0
 62
     7
370
    50
100
AcDbLine
 10
-19.071815
 20
342.918954
 30
0.0
 11
-19.071812
 21
346.918954
 31
0.0
  0
LINE
  5
2E6
330
1F
100
AcDbEntity
  8
LC-001-100-D00-0
 62
     7
370
    50
100
AcDbLine
 10
-23.571815
 20
346.918954
 30
0.0
 11
-19.071812
 21
346.918954
 31
0.0
  0
ARC
  5
2E7
330
1F
100
AcDbEntity
  8
LC-001-100-D00-0
 62
     7
370
    50
100
AcDbCircle
 10
-23.571815
 20
345.918954
 30
0.0
 40
1.0
100
AcDbArc
 50
90.0
 51
180.0
  0
LINE
  5
2E8
330
1F
100
AcDbEntity
  8
LC-001-100-D00-0
 62
     7
370
    50
100
AcDbLine
 10
-24.571815
 20
331.918954
 30
0.0
 11
-24.571815
 21
345.918954
 31
0.0
  0
ARC
  5
2E9
330
1F
100
AcDbEntity
  8
LC-001-100-D00-0
 62
     7
370
    50
100
AcDbCircle
 10
-25.571815
 20
331.918954
 30
0.0
 40
1.000000000000227
100
AcDbArc
 50
270.0
 51
0.0
  0
LINE
  5
2EA
330
1F
100
AcDbEntity
  8
LC-001-100-D00-0
 62
     7
370
    50
100
AcDbLine
 10
-25.571815
 20
330.918954
 30
0.0
 11
-27.970964
 21
330.918955
 31
0.0
  0
LINE
  5
2EB
330
1F
100
AcDbEntity
  8
LC-001-100-D00-0
 62
     7
370
    50
100
AcDbLine
 10
-27.970964
 20
332.918953
 30
0.0
 11
-27.970964
 21
330.918955
 31
0.0
  0
LINE
  5
2EC
330
1F
100
AcDbEntity
  8
LC-001-100-D00-0
 62
     7
370
    50
100
AcDbLine
 10
-28.621815
 20
332.918954
 30
0.0
 11
-27.970964
 21
332.918953
 31
0.0
  0
ARC
  5
2ED
330
1F
100
AcDbEntity
  8
LC-001-100-D00-0
 62
     7
370
    50
100
AcDbCircle
 10
-28.621815
 20
333.418954
 30
0.0
 40
0.5000000000001137
100
AcDbArc
 50
180.0
 51
270.0
  0
LINE
  5
2EE
330
1F
100
AcDbEntity
  8
LC-001-100-D00-0
 62
     7
370
    50
100
AcDbLine
 10
-29.121815
 20
336.418954
 30
0.0
 11
-29.121815
 21
333.418954
 31
0.0
  0
ARC
  5
2EF
330
1F
100
AcDbEntity
  8
LC-001-100-D00-0
 62
     7
370
    50
100
AcDbCircle
 10
-28.621815
 20
336.418954
 30
0.0
 40
0.5
100
AcDbArc
 50
90.0
 51
180.0
  0
LINE
  5
2F0
330
1F
100
AcDbEntity
  8
LC-001-100-D00-0
 62
     7
370
    50
100
AcDbLine
 10
-27.970964
 20
336.918954
 30
0.0
 11
-28.621815
 21
336.918954
 31
0.0
  0
LINE
  5
2F1
330
1F
100
AcDbEntity
  8
LC-001-100-D00-0
 62
     7
370
    50
100
AcDbLine
 10
-27.970964
 20
338.918954
 30
0.0
 11
-27.970964
 21
336.918954
 31
0.0
  0
ARC
  5
2F2
330
1F
100
AcDbEntity
  8
LC-001-100-D00-0
 62
     7
370
    50
100
AcDbCircle
 10
-45.071815
 20
345.918954
 30
0.0
 40
1.000000000000057
100
AcDbArc
 50
0.0
 51
90.0
  0
LINE
  5
2F3
330
1F
100
AcDbEntity
  8
LC-001-100-D00-0
 62
     7
370
    50
100
AcDbLine
 10
-44.071815
 20
345.918954
 30
0.0
 11
-44.071815
 21
331.918954
 31
0.0
  0
ARC
  5
2F4
330
1F
100
AcDbEntity
  8
LC-001-100-D00-0
 62
     7
370
    50
100
AcDbCircle
 10
-43.071815
 20
331.918954
 30
0.0
 40
1.000000000000114
100
AcDbArc
 50
180.0
 51
270.0
  0
LINE
  5
2F5
330
1F
100
AcDbEntity
  8
LC-001-100-D00-0
 62
     7
370
    50
100
AcDbLine
 10
-39.521815
 20
333.418954
 30
0.0
 11
-39.521815
 21
336.418954
 31
0.0
  0
LINE
  5
2F6
330
1F
100
AcDbEntity
  8
LC-001-100-D00-0
 62
     7
370
    50
100
AcDbLine
 10
-38.221815
 20
349.918954
 30
0.0
 11
-38.221815
 21
338.918954
 31
0.0
  0
LINE
  5
2F7
330
1F
100
AcDbEntity
  8
LC-001-100-D00-0
 62
     7
370
    50
100
AcDbLine
 10
-38.221815
 20
349.918954
 30
0.0
 11
-30.421815
 21
349.918954
 31
0.0
  0
LINE
  5
2F8
330
1F
100
AcDbEntity
  8
LC-001-100-D00-0
 62
     7
370
    50
100
AcDbLine
 10
-40.672669
 20
332.918953
 30
0.0
 11
-40.672669
 21
330.918955
 31
0.0
  0
LINE
  5
2F9
330
1F
100
AcDbEntity
  8
LC-001-100-D00-0
 62
     7
370
    50
100
AcDbLine
 10
-40.672669
 20
338.918954
 30
0.0
 11
-40.672669
 21
336.918954
 31
0.0
  0
ARC
  5
2FA
330
1F
100
AcDbEntity
  8
LC-001-100-D00-0
 62
     7
370
    50
100
AcDbCircle
 10
-40.021815
 20
333.418954
 30
0.0
 40
0.5
100
AcDbArc
 50
270.0
 51
0.0
  0
LINE
  5
2FB
330
1F
100
AcDbEntity
  8
LC-001-100-D00-0
 62
     7
370
    50
100
AcDbLine
 10
-40.672669
 20
332.918953
 30
0.0
 11
-40.021815
 21
332.918954
 31
0.0
  0
LINE
  5
2FC
330
1F
100
AcDbEntity
  8
LC-001-100-D00-0
 62
     7
370
    50
100
AcDbLine
 10
-49.571814
 20
346.918954
 30
0.0
 11
-49.571815
 21
342.918954
 31
0.0
  0
LINE
  5
2FD
330
1F
100
AcDbEntity
  8
LC-001-100-D00-0
 62
     7
370
    50
100
AcDbLine
 10
-52.571813
 20
342.918954
 30
0.0
 11
-52.571815
 21
348.918954
 31
0.0
  0
ARC
  5
2FE
330
1F
100
AcDbEntity
  8
LC-001-100-D00-0
 62
     7
370
    50
100
AcDbCircle
 10
-51.571815
 20
348.918954
 30
0.0
 40
1.0
100
AcDbArc
 50
90.0
 51
180.0
  0
LINE
  5
2FF
330
1F
100
AcDbEntity
  8
LC-001-100-D00-0
 62
     7
370
    50
100
AcDbLine
 10
-40.021815
 20
336.918954
 30
0.0
 11
-40.672669
 21
336.918954
 31
0.0
  0
ARC
  5
300
330
1F
100
AcDbEntity
  8
LC-001-100-D00-0
 62
     7
370
    50
100
AcDbCircle
 10
-40.021815
 20
336.418954
 30
0.0
 40
0.4999999999999432
100
AcDbArc
 50
0.0
 51
90.0
  0
LINE
  5
301
330
1F
100
AcDbEntity
  8
LC-001-100-D00-0
 62
     7
370
    50
100
AcDbLine
 10
-38.221815
 20
338.918954
 30
0.0
 11
-40.672669
 21
338.918954
 31
0.0
  0
LINE
  5
302
330
1F
100
AcDbEntity
  8
LC-001-100-D00-0
 62
     7
370
    50
100
AcDbLine
 10
-40.672669
 20
330.918955
 30
0.0
 11
-43.071815
 21
330.918954
 31
0.0
  0
LINE
  5
303
330
1F
100
AcDbEntity
  8
LC-001-100-D00-0
 62
     7
370
    50
100
AcDbLine
 10
-49.571814
 20
346.918954
 30
0.0
 11
-45.071815
 21
346.918954
 31
0.0
  0
LINE
  5
304
330
1F
100
AcDbEntity
  8
LC-001-100-D00-0
 62
     7
370
    50
100
AcDbLine
 10
-51.571815
 20
349.918954
 30
0.0
 11
-38.221815
 21
349.918954
 31
0.0
  0
LINE
  5
305
330
1F
100
AcDbEntity
  8
LC-001-100-D00-0
 62
     7
370
    50
100
AcDbLine
 10
-52.571813
 20
342.918954
 30
0.0
 11
-49.571815
 21
342.918954
 31
0.0
  0
LINE
  5
306
330
1F
100
AcDbEntity
  8
LC-001-100-D00-0
 62
     7
370
    50
100
AcDbLine
 10
-21.071815
 20
342.918954
 30
0.0
 11
-19.071815
 21
342.918954
 31
0.0
  0
LINE
  5
307
330
1F
100
AcDbEntity
  8
LC-001-100-D00-0
 62
     7
370
    50
100
AcDbLine
 10
-49.571815
 20
342.918954
 30
0.0
 11
-47.571815
 21
342.918954
 31
0.0
  0
LINE
  5
308
330
1F
100
AcDbEntity
  8
LC-001-100-D00-0
 62
     7
370
    50
100
AcDbLine
 10
-47.571815
 20
342.918954
 30
0.0
 11
-44.071818
 21
342.918954
 31
0.0
  0
LINE
  5
309
330
1F
100
AcDbEntity
  8
LC-001-100-D00-0
 62
     7
370
    50
100
AcDbLine
 10
-24.571815
 20
342.918954
 30
0.0
 11
-21.071815
 21
342.918954
 31
0.0
  0
LINE
  5
30A
330
1F
100
AcDbEntity
  8
LC-001-100-D00-0
 62
     7
370
    50
100
AcDbLine
 10
305.878185
 20
333.68772
 30
0.0
 11
305.878185
 21
336.150188
 31
0.0
  0
ARC
  5
30B
330
1F
100
AcDbEntity
  8
LC-001-100-D00-0
 62
     7
370
    50
100
AcDbCircle
 10
306.478185
 20
333.68772
 30
0.0
 40
0.6000000000000227
100
AcDbArc
 50
180.0
 51
255.0
  0
LINE
  5
30C
330
1F
100
AcDbEntity
  8
LC-001-100-D00-0
 62
     7
370
    50
100
AcDbLine
 10
307.029044
 20
332.918953
 30
0.0
 11
306.322894
 21
333.108165
 31
0.0
  0
LINE
  5
30D
330
1F
100
AcDbEntity
  8
LC-001-100-D00-0
 62
     7
370
    50
100
AcDbLine
 10
307.029044
 20
332.918953
 30
0.0
 11
307.029044
 21
330.918955
 31
0.0
  0
LINE
  5
30E
330
1F
100
AcDbEntity
  8
LC-001-100-D00-0
 62
     7
370
    50
100
AcDbLine
 10
304.078185
 20
331.918954
 30
0.0
 11
305.078185
 21
330.918954
 31
0.0
  0
LINE
  5
30F
330
1F
100
AcDbEntity
  8
LC-001-100-D00-0
 62
     7
370
    50
100
AcDbLine
 10
304.078185
 20
331.918954
 30
0.0
 11
304.078182
 21
337.918954
 31
0.0
  0
LINE
  5
310
330
1F
100
AcDbEntity
  8
LC-001-100-D00-0
 62
     7
370
    50
100
AcDbLine
 10
305.078184
 20
338.918954
 30
0.0
 11
304.078182
 21
337.918954
 31
0.0
  0
LINE
  5
311
330
1F
100
AcDbEntity
  8
LC-001-100-D00-0
 62
     7
370
    50
100
AcDbLine
 10
307.029044
 20
338.918954
 30
0.0
 11
307.029044
 21
336.918954
 31
0.0
  0
LINE
  5
312
330
1F
100
AcDbEntity
  8
LC-001-100-D00-0
 62
     7
370
    50
100
AcDbLine
 10
306.322894
 20
336.729743
 30
0.0
 11
307.029044
 21
336.918954
 31
0.0
  0
ARC
  5
313
330
1F
100
AcDbEntity
  8
LC-001-100-D00-0
 62
     7
370
    50
100
AcDbCircle
 10
306.478185
 20
336.150188
 30
0.0
 40
0.600000000000118
100
AcDbArc
 50
105.0
 51
180.0
  0
LINE
  5
314
330
1F
100
AcDbEntity
  8
LC-001-100-D00-0
 62
     7
370
    50
100
AcDbLine
 10
305.078185
 20
330.918954
 30
0.0
 11
307.029044
 21
330.918955
 31
0.0
  0
LINE
  5
315
330
1F
100
AcDbEntity
  8
LC-001-100-D00-0
 62
     7
370
    50
100
AcDbLine
 10
305.078184
 20
338.918954
 30
0.0
 11
307.029044
 21
338.918954
 31
0.0
  0
LINE
  5
316
330
1F
100
AcDbEntity
  8
LC-001-100-D00-0
 62
     7
370
    50
100
AcDbLine
 10
295.478185
 20
336.150188
 30
0.0
 11
295.478185
 21
333.68772
 31
0.0
  0
LINE
  5
317
330
1F
100
AcDbEntity
  8
LC-001-100-D00-0
 62
     7
370
    50
100
AcDbLine
 10
297.278186
 20
337.918954
 30
0.0
 11
296.278184
 21
338.918954
 31
0.0
  0
LINE
  5
318
330
1F
100
AcDbEntity
  8
LC-001-100-D00-0
 62
     7
370
    50
100
AcDbLine
 10
296.278185
 20
330.918954
 30
0.0
 11
297.278185
 21
331.918954
 31
0.0
  0
LINE
  5
319
330
1F
100
AcDbEntity
  8
LC-001-100-D00-0
 62
     7
370
    50
100
AcDbLine
 10
297.278185
 20
331.918954
 30
0.0
 11
297.436025
 21
331.918954
 31
0.0
  0
LINE
  5
31A
330
1F
100
AcDbEntity
  8
LC-001-100-D00-0
 62
     7
370
    50
100
AcDbLine
 10
303.920345
 20
331.918954
 30
0.0
 11
304.078185
 21
331.918954
 31
0.0
  0
LINE
  5
31B
330
1F
100
AcDbEntity
  8
LC-001-100-D00-0
 62
     7
370
    50
100
AcDbLine
 10
305.078185
 20
330.918954
 30
0.0
 11
304.542403
 21
330.918954
 31
0.0
  0
LINE
  5
31C
330
1F
100
AcDbEntity
  8
LC-001-100-D00-0
 62
     7
370
    50
100
AcDbLine
 10
296.813967
 20
330.918954
 30
0.0
 11
296.278185
 21
330.918954
 31
0.0
  0
LINE
  5
31D
330
1F
100
AcDbEntity
  8
LC-001-100-D00-0
 62
     7
370
    50
100
AcDbLine
 10
297.278186
 20
337.918954
 30
0.0
 11
297.278185
 21
331.918954
 31
0.0
  0
LINE
  5
31E
330
1F
100
AcDbEntity
  8
LC-001-100-D00-0
 62
     7
370
    50
100
AcDbLine
 10
294.327339
 20
332.918953
 30
0.0
 11
294.327339
 21
330.918955
 31
0.0
  0
LINE
  5
31F
330
1F
100
AcDbEntity
  8
LC-001-100-D00-0
 62
     7
370
    50
100
AcDbLine
 10
295.033476
 20
333.108165
 30
0.0
 11
294.327339
 21
332.918953
 31
0.0
  0
ARC
  5
320
330
1F
100
AcDbEntity
  8
LC-001-100-D00-0
 62
     7
370
    50
100
AcDbCircle
 10
294.878185
 20
333.68772
 30
0.0
 40
0.5999999999998983
100
AcDbArc
 50
285.0
 51
0.0
  0
ARC
  5
321
330
1F
100
AcDbEntity
  8
LC-001-100-D00-0
 62
     7
370
    50
100
AcDbCircle
 10
294.878185
 20
336.150188
 30
0.0
 40
0.6000000000000227
100
AcDbArc
 50
0.0
 51
75.0
  0
LINE
  5
322
330
1F
100
AcDbEntity
  8
LC-001-100-D00-0
 62
     7
370
    50
100
AcDbLine
 10
294.327339
 20
336.918954
 30
0.0
 11
295.033476
 21
336.729743
 31
0.0
  0
LINE
  5
323
330
1F
100
AcDbEntity
  8
LC-001-100-D00-0
 62
     7
370
    50
100
AcDbLine
 10
294.327339
 20
338.918954
 30
0.0
 11
294.327339
 21
336.918954
 31
0.0
  0
LINE
  5
324
330
1F
100
AcDbEntity
  8
LC-001-100-D00-0
 62
     7
370
    50
100
AcDbLine
 10
294.327339
 20
330.918955
 30
0.0
 11
296.278185
 21
330.918954
 31
0.0
  0
LINE
  5
325
330
1F
100
AcDbEntity
  8
LC-001-100-D00-0
 62
     7
370
    50
100
AcDbLine
 10
294.327339
 20
338.918954
 30
0.0
 11
296.278184
 21
338.918954
 31
0.0
  0
LINE
  5
326
330
1F
100
AcDbEntity
  8
LC-001-100-D00-0
 62
     7
370
    50
100
AcDbLine
 10
307.029044
 20
338.918954
 30
0.0
 11
304.578191
 21
338.918954
 31
0.0
  0
LINE
  5
327
330
1F
100
AcDbEntity
  8
LC-001-100-D00-0
 62
     7
370
    50
100
AcDbLine
 10
304.578191
 20
338.918954
 30
0.0
 11
304.578185
 21
349.918954
 31
0.0
  0
LINE
  5
328
330
1F
100
AcDbEntity
  8
LC-001-100-D00-0
 62
     7
370
    50
100
AcDbLine
 10
304.578185
 20
349.918954
 30
0.0
 11
317.928185
 21
349.918954
 31
0.0
  0
ARC
  5
329
330
1F
100
AcDbEntity
  8
LC-001-100-D00-0
 62
     7
370
    50
100
AcDbCircle
 10
317.928185
 20
348.918954
 30
0.0
 40
1.0
100
AcDbArc
 50
0.0
 51
90.0
  0
LINE
  5
32A
330
1F
100
AcDbEntity
  8
LC-001-100-D00-0
 62
     7
370
    50
100
AcDbLine
 10
318.928185
 20
348.918954
 30
0.0
 11
318.928188
 21
342.918954
 31
0.0
  0
LINE
  5
32B
330
1F
100
AcDbEntity
  8
LC-001-100-D00-0
 62
     7
370
    50
100
AcDbLine
 10
315.928185
 20
342.918954
 30
0.0
 11
318.928188
 21
342.918954
 31
0.0
  0
LINE
  5
32C
330
1F
100
AcDbEntity
  8
LC-001-100-D00-0
 62
     7
370
    50
100
AcDbLine
 10
315.928185
 20
342.918954
 30
0.0
 11
315.928197
 21
346.918954
 31
0.0
  0
LINE
  5
32D
330
1F
100
AcDbEntity
  8
LC-001-100-D00-0
 62
     7
370
    50
100
AcDbLine
 10
311.428185
 20
346.918954
 30
0.0
 11
315.928197
 21
346.918954
 31
0.0
  0
ARC
  5
32E
330
1F
100
AcDbEntity
  8
LC-001-100-D00-0
 62
     7
370
    50
100
AcDbCircle
 10
311.428185
 20
345.918954
 30
0.0
 40
1.0
100
AcDbArc
 50
90.0
 51
180.0
  0
LINE
  5
32F
330
1F
100
AcDbEntity
  8
LC-001-100-D00-0
 62
     7
370
    50
100
AcDbLine
 10
310.428185
 20
331.918954
 30
0.0
 11
310.428185
 21
345.918954
 31
0.0
  0
ARC
  5
330
330
1F
100
AcDbEntity
  8
LC-001-100-D00-0
 62
     7
370
    50
100
AcDbCircle
 10
309.428185
 20
331.918954
 30
0.0
 40
1.000000000000227
100
AcDbArc
 50
270.0
 51
0.0
  0
LINE
  5
331
330
1F
100
AcDbEntity
  8
LC-001-100-D00-0
 62
     7
370
    50
100
AcDbLine
 10
309.428185
 20
330.918954
 30
0.0
 11
307.029044
 21
330.918955
 31
0.0
  0
LINE
  5
332
330
1F
100
AcDbEntity
  8
LC-001-100-D00-0
 62
     7
370
    50
100
AcDbLine
 10
307.029044
 20
332.918953
 30
0.0
 11
307.029044
 21
330.918955
 31
0.0
  0
LINE
  5
333
330
1F
100
AcDbEntity
  8
LC-001-100-D00-0
 62
     7
370
    50
100
AcDbLine
 10
306.378185
 20
332.918954
 30
0.0
 11
307.029044
 21
332.918953
 31
0.0
  0
ARC
  5
334
330
1F
100
AcDbEntity
  8
LC-001-100-D00-0
 62
     7
370
    50
100
AcDbCircle
 10
306.378185
 20
333.418954
 30
0.0
 40
0.5000000000001137
100
AcDbArc
 50
180.0
 51
270.0
  0
LINE
  5
335
330
1F
100
AcDbEntity
  8
LC-001-100-D00-0
 62
     7
370
    50
100
AcDbLine
 10
305.878185
 20
336.418954
 30
0.0
 11
305.878185
 21
333.418954
 31
0.0
  0
ARC
  5
336
330
1F
100
AcDbEntity
  8
LC-001-100-D00-0
 62
     7
370
    50
100
AcDbCircle
 10
306.378185
 20
336.418954
 30
0.0
 40
0.5000000000002274
100
AcDbArc
 50
90.0
 51
180.0
  0
LINE
  5
337
330
1F
100
AcDbEntity
  8
LC-001-100-D00-0
 62
     7
370
    50
100
AcDbLine
 10
307.029044
 20
336.918954
 30
0.0
 11
306.378185
 21
336.918954
 31
0.0
  0
LINE
  5
338
330
1F
100
AcDbEntity
  8
LC-001-100-D00-0
 62
     7
370
    50
100
AcDbLine
 10
307.029044
 20
338.918954
 30
0.0
 11
307.029044
 21
336.918954
 31
0.0
  0
ARC
  5
339
330
1F
100
AcDbEntity
  8
LC-001-100-D00-0
 62
     7
370
    50
100
AcDbCircle
 10
289.928185
 20
345.918954
 30
0.0
 40
0.9999999999998863
100
AcDbArc
 50
0.0
 51
90.0
  0
ARC
  5
33A
330
1F
100
AcDbEntity
  8
LC-001-100-D00-0
 62
     7
370
    50
100
AcDbCircle
 10
291.928185
 20
331.918954
 30
0.0
 40
1.000000000000114
100
AcDbArc
 50
180.0
 51
270.0
  0
LINE
  5
33B
330
1F
100
AcDbEntity
  8
LC-001-100-D00-0
 62
     7
370
    50
100
AcDbLine
 10
290.928185
 20
345.918954
 30
0.0
 11
290.928185
 21
331.918954
 31
0.0
  0
LINE
  5
33C
330
1F
100
AcDbEntity
  8
LC-001-100-D00-0
 62
     7
370
    50
100
AcDbLine
 10
295.478185
 20
333.418954
 30
0.0
 11
295.478185
 21
336.418954
 31
0.0
  0
LINE
  5
33D
330
1F
100
AcDbEntity
  8
LC-001-100-D00-0
 62
     7
370
    50
100
AcDbLine
 10
296.778185
 20
349.918954
 30
0.0
 11
296.778178
 21
338.918954
 31
0.0
  0
LINE
  5
33E
330
1F
100
AcDbEntity
  8
LC-001-100-D00-0
 62
     7
370
    50
100
AcDbLine
 10
296.778185
 20
349.918954
 30
0.0
 11
304.578185
 21
349.918954
 31
0.0
  0
LINE
  5
33F
330
1F
100
AcDbEntity
  8
LC-001-100-D00-0
 62
     7
370
    50
100
AcDbLine
 10
294.327339
 20
332.918953
 30
0.0
 11
294.327339
 21
330.918955
 31
0.0
  0
LINE
  5
340
330
1F
100
AcDbEntity
  8
LC-001-100-D00-0
 62
     7
370
    50
100
AcDbLine
 10
294.327339
 20
338.918954
 30
0.0
 11
294.327339
 21
336.918954
 31
0.0
  0
ARC
  5
341
330
1F
100
AcDbEntity
  8
LC-001-100-D00-0
 62
     7
370
    50
100
AcDbCircle
 10
294.978185
 20
333.418954
 30
0.0
 40
0.5
100
AcDbArc
 50
270.0
 51
0.0
  0
LINE
  5
342
330
1F
100
AcDbEntity
  8
LC-001-100-D00-0
 62
     7
370
    50
100
AcDbLine
 10
294.327339
 20
332.918953
 30
0.0
 11
294.978185
 21
332.918954
 31
0.0
  0
LINE
  5
343
330
1F
100
AcDbEntity
  8
LC-001-100-D00-0
 62
     7
370
    50
100
AcDbLine
 10
285.428187
 20
346.918954
 30
0.0
 11
285.428185
 21
342.918954
 31
0.0
  0
LINE
  5
344
330
1F
100
AcDbEntity
  8
LC-001-100-D00-0
 62
     7
370
    50
100
AcDbLine
 10
282.428181
 20
342.918954
 30
0.0
 11
282.428185
 21
348.918954
 31
0.0
  0
ARC
  5
345
330
1F
100
AcDbEntity
  8
LC-001-100-D00-0
 62
     7
370
    50
100
AcDbCircle
 10
283.428185
 20
348.918954
 30
0.0
 40
1.0
100
AcDbArc
 50
90.0
 51
180.0
  0
LINE
  5
346
330
1F
100
AcDbEntity
  8
LC-001-100-D00-0
 62
     7
370
    50
100
AcDbLine
 10
294.978185
 20
336.918954
 30
0.0
 11
294.327339
 21
336.918954
 31
0.0
  0
ARC
  5
347
330
1F
100
AcDbEntity
  8
LC-001-100-D00-0
 62
     7
370
    50
100
AcDbCircle
 10
294.978185
 20
336.418954
 30
0.0
 40
0.5
100
AcDbArc
 50
0.0
 51
90.0
  0
LINE
  5
348
330
1F
100
AcDbEntity
  8
LC-001-100-D00-0
 62
     7
370
    50
100
AcDbLine
 10
296.778178
 20
338.918954
 30
0.0
 11
294.327339
 21
338.918954
 31
0.0
  0
LINE
  5
349
330
1F
100
AcDbEntity
  8
LC-001-100-D00-0
 62
     7
370
    50
100
AcDbLine
 10
294.327339
 20
330.918955
 30
0.0
 11
291.928185
 21
330.918954
 31
0.0
  0
LINE
  5
34A
330
1F
100
AcDbEntity
  8
LC-001-100-D00-0
 62
     7
370
    50
100
AcDbLine
 10
285.428187
 20
346.918954
 30
0.0
 11
289.928185
 21
346.918954
 31
0.0
  0
LINE
  5
34B
330
1F
100
AcDbEntity
  8
LC-001-100-D00-0
 62
     7
370
    50
100
AcDbLine
 10
283.428185
 20
349.918954
 30
0.0
 11
296.778185
 21
349.918954
 31
0.0
  0
LINE
  5
34C
330
1F
100
AcDbEntity
  8
LC-001-100-D00-0
 62
     7
370
    50
100
AcDbLine
 10
282.428181
 20
342.918954
 30
0.0
 11
285.428185
 21
342.918954
 31
0.0
  0
LINE
  5
34D
330
1F
100
AcDbEntity
  8
LC-001-100-D00-0
 62
     7
370
    50
100
AcDbLine
 10
313.928185
 20
342.918954
 30
0.0
 11
315.928185
 21
342.918954
 31
0.0
  0
LINE
  5
34E
330
1F
100
AcDbEntity
  8
LC-001-100-D00-0
 62
     7
370
    50
100
AcDbLine
 10
285.428185
 20
342.918954
 30
0.0
 11
287.428185
 21
342.918954
 31
0.0
  0
LINE
  5
34F
330
1F
100
AcDbEntity
  8
LC-001-100-D00-0
 62
     7
370
    50
100
AcDbLine
 10
287.428185
 20
342.918954
 30
0.0
 11
290.928191
 21
342.918954
 31
0.0
  0
LINE
  5
350
330
1F
100
AcDbEntity
  8
LC-001-100-D00-0
 62
     7
370
    50
100
AcDbLine
 10
310.428178
 20
342.918954
 30
0.0
 11
313.928185
 21
342.918954
 31
0.0
  0
LINE
  5
351
330
1F
100
AcDbEntity
  8
LC-001-100-D00-0
 62
     7
370
    50
100
AcDbLine
 10
-299.121815
 20
333.68772
 30
0.0
 11
-299.121815
 21
336.150188
 31
0.0
  0
ARC
  5
352
330
1F
100
AcDbEntity
  8
LC-001-100-D00-0
 62
     7
370
    50
100
AcDbCircle
 10
-298.521815
 20
333.68772
 30
0.0
 40
0.6000000000000227
100
AcDbArc
 50
180.0
 51
255.0
  0
LINE
  5
353
330
1F
100
AcDbEntity
  8
LC-001-100-D00-0
 62
     7
370
    50
100
AcDbLine
 10
-297.970975
 20
332.918953
 30
0.0
 11
-298.677106
 21
333.108165
 31
0.0
  0
LINE
  5
354
330
1F
100
AcDbEntity
  8
LC-001-100-D00-0
 62
     7
370
    50
100
AcDbLine
 10
-297.970975
 20
332.918953
 30
0.0
 11
-297.970975
 21
330.918955
 31
0.0
  0
LINE
  5
355
330
1F
100
AcDbEntity
  8
LC-001-100-D00-0
 62
     7
370
    50
100
AcDbLine
 10
-300.921815
 20
331.918954
 30
0.0
 11
-299.921815
 21
330.918954
 31
0.0
  0
LINE
  5
356
330
1F
100
AcDbEntity
  8
LC-001-100-D00-0
 62
     7
370
    50
100
AcDbLine
 10
-300.921815
 20
331.918954
 30
0.0
 11
-300.921822
 21
337.918954
 31
0.0
  0
LINE
  5
357
330
1F
100
AcDbEntity
  8
LC-001-100-D00-0
 62
     7
370
    50
100
AcDbLine
 10
-299.921805
 20
338.918954
 30
0.0
 11
-300.921822
 21
337.918954
 31
0.0
  0
LINE
  5
358
330
1F
100
AcDbEntity
  8
LC-001-100-D00-0
 62
     7
370
    50
100
AcDbLine
 10
-297.970975
 20
338.918954
 30
0.0
 11
-297.970975
 21
336.918954
 31
0.0
  0
LINE
  5
359
330
1F
100
AcDbEntity
  8
LC-001-100-D00-0
 62
     7
370
    50
100
AcDbLine
 10
-298.677106
 20
336.729743
 30
0.0
 11
-297.970975
 21
336.918954
 31
0.0
  0
ARC
  5
35A
330
1F
100
AcDbEntity
  8
LC-001-100-D00-0
 62
     7
370
    50
100
AcDbCircle
 10
-298.521815
 20
336.150188
 30
0.0
 40
0.6000000000001032
100
AcDbArc
 50
105.0
 51
180.0
  0
LINE
  5
35B
330
1F
100
AcDbEntity
  8
LC-001-100-D00-0
 62
     7
370
    50
100
AcDbLine
 10
-299.921815
 20
330.918954
 30
0.0
 11
-297.970975
 21
330.918955
 31
0.0
  0
LINE
  5
35C
330
1F
100
AcDbEntity
  8
LC-001-100-D00-0
 62
     7
370
    50
100
AcDbLine
 10
-299.921805
 20
338.918954
 30
0.0
 11
-297.970975
 21
338.918954
 31
0.0
  0
LINE
  5
35D
330
1F
100
AcDbEntity
  8
LC-001-100-D00-0
 62
     7
370
    50
100
AcDbLine
 10
-309.521815
 20
336.150188
 30
0.0
 11
-309.521815
 21
333.68772
 31
0.0
  0
LINE
  5
35E
330
1F
100
AcDbEntity
  8
LC-001-100-D00-0
 62
     7
370
    50
100
AcDbLine
 10
-307.721818
 20
337.918954
 30
0.0
 11
-308.721805
 21
338.918954
 31
0.0
  0
LINE
  5
35F
330
1F
100
AcDbEntity
  8
LC-001-100-D00-0
 62
     7
370
    50
100
AcDbLine
 10
-307.721818
 20
337.918954
 30
0.0
 11
-307.721815
 21
331.918954
 31
0.0
  0
LINE
  5
360
330
1F
100
AcDbEntity
  8
LC-001-100-D00-0
 62
     7
370
    50
100
AcDbLine
 10
-308.721815
 20
330.918954
 30
0.0
 11
-307.721815
 21
331.918954
 31
0.0
  0
LINE
  5
361
330
1F
100
AcDbEntity
  8
LC-001-100-D00-0
 62
     7
370
    50
100
AcDbLine
 10
-310.672665
 20
332.918953
 30
0.0
 11
-310.672665
 21
330.918955
 31
0.0
  0
LINE
  5
362
330
1F
100
AcDbEntity
  8
LC-001-100-D00-0
 62
     7
370
    50
100
AcDbLine
 10
-309.966524
 20
333.108165
 30
0.0
 11
-310.672665
 21
332.918953
 31
0.0
  0
ARC
  5
363
330
1F
100
AcDbEntity
  8
LC-001-100-D00-0
 62
     7
370
    50
100
AcDbCircle
 10
-310.121815
 20
333.68772
 30
0.0
 40
0.5999999999998836
100
AcDbArc
 50
285.0
 51
0.0
  0
ARC
  5
364
330
1F
100
AcDbEntity
  8
LC-001-100-D00-0
 62
     7
370
    50
100
AcDbCircle
 10
-310.121815
 20
336.150188
 30
0.0
 40
0.6000000000000227
100
AcDbArc
 50
0.0
 51
75.0
  0
LINE
  5
365
330
1F
100
AcDbEntity
  8
LC-001-100-D00-0
 62
     7
370
    50
100
AcDbLine
 10
-310.672665
 20
336.918954
 30
0.0
 11
-309.966524
 21
336.729743
 31
0.0
  0
LINE
  5
366
330
1F
100
AcDbEntity
  8
LC-001-100-D00-0
 62
     7
370
    50
100
AcDbLine
 10
-310.672665
 20
338.918954
 30
0.0
 11
-310.672665
 21
336.918954
 31
0.0
  0
LINE
  5
367
330
1F
100
AcDbEntity
  8
LC-001-100-D00-0
 62
     7
370
    50
100
AcDbLine
 10
-310.672665
 20
330.918955
 30
0.0
 11
-308.721815
 21
330.918954
 31
0.0
  0
LINE
  5
368
330
1F
100
AcDbEntity
  8
LC-001-100-D00-0
 62
     7
370
    50
100
AcDbLine
 10
-310.672665
 20
338.918954
 30
0.0
 11
-308.721805
 21
338.918954
 31
0.0
  0
LINE
  5
369
330
1F
100
AcDbEntity
  8
LC-001-100-D00-0
 62
     7
370
    50
100
AcDbLine
 10
-307.721815
 20
331.918954
 30
0.0
 11
-307.563975
 21
331.918954
 31
0.0
  0
LINE
  5
36A
330
1F
100
AcDbEntity
  8
LC-001-100-D00-0
 62
     7
370
    50
100
AcDbLine
 10
-301.079655
 20
331.918954
 30
0.0
 11
-300.921815
 21
331.918954
 31
0.0
  0
LINE
  5
36B
330
1F
100
AcDbEntity
  8
LC-001-100-D00-0
 62
     7
370
    50
100
AcDbLine
 10
-299.921815
 20
330.918954
 30
0.0
 11
-300.457597
 21
330.918954
 31
0.0
  0
LINE
  5
36C
330
1F
100
AcDbEntity
  8
LC-001-100-D00-0
 62
     7
370
    50
100
AcDbLine
 10
-308.186033
 20
330.918954
 30
0.0
 11
-308.721815
 21
330.918954
 31
0.0
  0
LINE
  5
36D
330
1F
100
AcDbEntity
  8
LC-001-100-D00-0
 62
     7
370
    50
100
AcDbLine
 10
-297.970975
 20
338.918954
 30
0.0
 11
-300.421828
 21
338.918954
 31
0.0
  0
LINE
  5
36E
330
1F
100
AcDbEntity
  8
LC-001-100-D00-0
 62
     7
370
    50
100
AcDbLine
 10
-300.421828
 20
338.918954
 30
0.0
 11
-300.421815
 21
349.918954
 31
0.0
  0
LINE
  5
36F
330
1F
100
AcDbEntity
  8
LC-001-100-D00-0
 62
     7
370
    50
100
AcDbLine
 10
-300.421815
 20
349.918954
 30
0.0
 11
-287.071815
 21
349.918954
 31
0.0
  0
ARC
  5
370
330
1F
100
AcDbEntity
  8
LC-001-100-D00-0
 62
     7
370
    50
100
AcDbCircle
 10
-287.071815
 20
348.918954
 30
0.0
 40
0.9999999999999432
100
AcDbArc
 50
0.0
 51
90.0
  0
LINE
  5
371
330
1F
100
AcDbEntity
  8
LC-001-100-D00-0
 62
     7
370
    50
100
AcDbLine
 10
-286.071815
 20
348.918954
 30
0.0
 11
-286.071801
 21
342.918954
 31
0.0
  0
LINE
  5
372
330
1F
100
AcDbEntity
  8
LC-001-100-D00-0
 62
     7
370
    50
100
AcDbLine
 10
-289.071815
 20
342.918954
 30
0.0
 11
-286.071801
 21
342.918954
 31
0.0
  0
LINE
  5
373
330
1F
100
AcDbEntity
  8
LC-001-100-D00-0
 62
     7
370
    50
100
AcDbLine
 10
-289.071815
 20
342.918954
 30
0.0
 11
-289.071822
 21
346.918954
 31
0.0
  0
LINE
  5
374
330
1F
100
AcDbEntity
  8
LC-001-100-D00-0
 62
     7
370
    50
100
AcDbLine
 10
-293.571815
 20
346.918954
 30
0.0
 11
-289.071822
 21
346.918954
 31
0.0
  0
ARC
  5
375
330
1F
100
AcDbEntity
  8
LC-001-100-D00-0
 62
     7
370
    50
100
AcDbCircle
 10
-293.571815
 20
345.918954
 30
0.0
 40
1.0
100
AcDbArc
 50
90.0
 51
180.0
  0
LINE
  5
376
330
1F
100
AcDbEntity
  8
LC-001-100-D00-0
 62
     7
370
    50
100
AcDbLine
 10
-294.571815
 20
331.918954
 30
0.0
 11
-294.571815
 21
345.918954
 31
0.0
  0
ARC
  5
377
330
1F
100
AcDbEntity
  8
LC-001-100-D00-0
 62
     7
370
    50
100
AcDbCircle
 10
-295.571815
 20
331.918954
 30
0.0
 40
1.000000000000227
100
AcDbArc
 50
270.0
 51
0.0
  0
LINE
  5
378
330
1F
100
AcDbEntity
  8
LC-001-100-D00-0
 62
     7
370
    50
100
AcDbLine
 10
-295.571815
 20
330.918954
 30
0.0
 11
-297.970975
 21
330.918955
 31
0.0
  0
LINE
  5
379
330
1F
100
AcDbEntity
  8
LC-001-100-D00-0
 62
     7
370
    50
100
AcDbLine
 10
-297.970975
 20
332.918953
 30
0.0
 11
-297.970975
 21
330.918955
 31
0.0
  0
LINE
  5
37A
330
1F
100
AcDbEntity
  8
LC-001-100-D00-0
 62
     7
370
    50
100
AcDbLine
 10
-298.621815
 20
332.918954
 30
0.0
 11
-297.970975
 21
332.918953
 31
0.0
  0
ARC
  5
37B
330
1F
100
AcDbEntity
  8
LC-001-100-D00-0
 62
     7
370
    50
100
AcDbCircle
 10
-298.621815
 20
333.418954
 30
0.0
 40
0.5
100
AcDbArc
 50
180.0
 51
270.0
  0
LINE
  5
37C
330
1F
100
AcDbEntity
  8
LC-001-100-D00-0
 62
     7
370
    50
100
AcDbLine
 10
-299.121815
 20
336.418954
 30
0.0
 11
-299.121815
 21
333.418954
 31
0.0
  0
ARC
  5
37D
330
1F
100
AcDbEntity
  8
LC-001-100-D00-0
 62
     7
370
    50
100
AcDbCircle
 10
-298.621815
 20
336.418954
 30
0.0
 40
0.5
100
AcDbArc
 50
90.0
 51
180.0
  0
LINE
  5
37E
330
1F
100
AcDbEntity
  8
LC-001-100-D00-0
 62
     7
370
    50
100
AcDbLine
 10
-297.970975
 20
336.918954
 30
0.0
 11
-298.621815
 21
336.918954
 31
0.0
  0
LINE
  5
37F
330
1F
100
AcDbEntity
  8
LC-001-100-D00-0
 62
     7
370
    50
100
AcDbLine
 10
-297.970975
 20
338.918954
 30
0.0
 11
-297.970975
 21
336.918954
 31
0.0
  0
ARC
  5
380
330
1F
100
AcDbEntity
  8
LC-001-100-D00-0
 62
     7
370
    50
100
AcDbCircle
 10
-315.071815
 20
345.918954
 30
0.0
 40
0.9999999999999432
100
AcDbArc
 50
0.0
 51
90.0
  0
ARC
  5
381
330
1F
100
AcDbEntity
  8
LC-001-100-D00-0
 62
     7
370
    50
100
AcDbCircle
 10
-313.071815
 20
331.918954
 30
0.0
 40
1.000000000000114
100
AcDbArc
 50
180.0
 51
270.0
  0
LINE
  5
382
330
1F
100
AcDbEntity
  8
LC-001-100-D00-0
 62
     7
370
    50
100
AcDbLine
 10
-314.071815
 20
345.918954
 30
0.0
 11
-314.071815
 21
331.918954
 31
0.0
  0
LINE
  5
383
330
1F
100
AcDbEntity
  8
LC-001-100-D00-0
 62
     7
370
    50
100
AcDbLine
 10
-309.521815
 20
333.418954
 30
0.0
 11
-309.521815
 21
336.418954
 31
0.0
  0
LINE
  5
384
330
1F
100
AcDbEntity
  8
LC-001-100-D00-0
 62
     7
370
    50
100
AcDbLine
 10
-308.221815
 20
349.918954
 30
0.0
 11
-308.221811
 21
338.918954
 31
0.0
  0
LINE
  5
385
330
1F
100
AcDbEntity
  8
LC-001-100-D00-0
 62
     7
370
    50
100
AcDbLine
 10
-308.221815
 20
349.918954
 30
0.0
 11
-300.421815
 21
349.918954
 31
0.0
  0
LINE
  5
386
330
1F
100
AcDbEntity
  8
LC-001-100-D00-0
 62
     7
370
    50
100
AcDbLine
 10
-310.672665
 20
332.918953
 30
0.0
 11
-310.672665
 21
330.918955
 31
0.0
  0
LINE
  5
387
330
1F
100
AcDbEntity
  8
LC-001-100-D00-0
 62
     7
370
    50
100
AcDbLine
 10
-310.672665
 20
338.918954
 30
0.0
 11
-310.672665
 21
336.918954
 31
0.0
  0
ARC
  5
388
330
1F
100
AcDbEntity
  8
LC-001-100-D00-0
 62
     7
370
    50
100
AcDbCircle
 10
-310.021815
 20
333.418954
 30
0.0
 40
0.5
100
AcDbArc
 50
270.0
 51
0.0
  0
LINE
  5
389
330
1F
100
AcDbEntity
  8
LC-001-100-D00-0
 62
     7
370
    50
100
AcDbLine
 10
-310.672665
 20
332.918953
 30
0.0
 11
-310.021815
 21
332.918954
 31
0.0
  0
LINE
  5
38A
330
1F
100
AcDbEntity
  8
LC-001-100-D00-0
 62
     7
370
    50
100
AcDbLine
 10
-319.571817
 20
346.918954
 30
0.0
 11
-319.571815
 21
342.918954
 31
0.0
  0
LINE
  5
38B
330
1F
100
AcDbEntity
  8
LC-001-100-D00-0
 62
     7
370
    50
100
AcDbLine
 10
-322.571808
 20
342.918954
 30
0.0
 11
-322.571815
 21
348.918954
 31
0.0
  0
ARC
  5
38C
330
1F
100
AcDbEntity
  8
LC-001-100-D00-0
 62
     7
370
    50
100
AcDbCircle
 10
-321.571815
 20
348.918954
 30
0.0
 40
1.0
100
AcDbArc
 50
90.0
 51
180.0
  0
LINE
  5
38D
330
1F
100
AcDbEntity
  8
LC-001-100-D00-0
 62
     7
370
    50
100
AcDbLine
 10
-310.021815
 20
336.918954
 30
0.0
 11
-310.672665
 21
336.918954
 31
0.0
  0
ARC
  5
38E
330
1F
100
AcDbEntity
  8
LC-001-100-D00-0
 62
     7
370
    50
100
AcDbCircle
 10
-310.021815
 20
336.418954
 30
0.0
 40
0.5
100
AcDbArc
 50
0.0
 51
90.0
  0
LINE
  5
38F
330
1F
100
AcDbEntity
  8
LC-001-100-D00-0
 62
     7
370
    50
100
AcDbLine
 10
-322.571808
 20
342.918954
 30
0.0
 11
-319.571815
 21
342.918954
 31
0.0
  0
LINE
  5
390
330
1F
100
AcDbEntity
  8
LC-001-100-D00-0
 62
     7
370
    50
100
AcDbLine
 10
-308.221811
 20
338.918954
 30
0.0
 11
-310.672665
 21
338.918954
 31
0.0
  0
LINE
  5
391
330
1F
100
AcDbEntity
  8
LC-001-100-D00-0
 62
     7
370
    50
100
AcDbLine
 10
-310.672665
 20
330.918955
 30
0.0
 11
-313.071815
 21
330.918954
 31
0.0
  0
LINE
  5
392
330
1F
100
AcDbEntity
  8
LC-001-100-D00-0
 62
     7
370
    50
100
AcDbLine
 10
-319.571817
 20
346.918954
 30
0.0
 11
-315.071815
 21
346.918954
 31
0.0
  0
LINE
  5
393
330
1F
100
AcDbEntity
  8
LC-001-100-D00-0
 62
     7
370
    50
100
AcDbLine
 10
-321.571815
 20
349.918954
 30
0.0
 11
-308.221815
 21
349.918954
 31
0.0
  0
LINE
  5
394
330
1F
100
AcDbEntity
  8
LC-001-100-D00-0
 62
     7
370
    50
100
AcDbLine
 10
-291.071815
 20
342.918954
 30
0.0
 11
-289.071815
 21
342.918954
 31
0.0
  0
LINE
  5
395
330
1F
100
AcDbEntity
  8
LC-001-100-D00-0
 62
     7
370
    50
100
AcDbLine
 10
-319.571815
 20
342.918954
 30
0.0
 11
-317.571815
 21
342.918954
 31
0.0
  0
LINE
  5
396
330
1F
100
AcDbEntity
  8
LC-001-100-D00-0
 62
     7
370
    50
100
AcDbLine
 10
-317.571815
 20
342.918954
 30
0.0
 11
-314.071828
 21
342.918954
 31
0.0
  0
LINE
  5
397
330
1F
100
AcDbEntity
  8
LC-001-100-D00-0
 62
     7
370
    50
100
AcDbLine
 10
-294.571811
 20
342.918954
 30
0.0
 11
-291.071815
 21
342.918954
 31
0.0
  0
LINE
  5
398
330
1F
100
AcDbEntity
  8
LC-001-100-D00-0
 62
     7
370
    50
100
AcDbLine
 10
-164.121815
 20
333.68772
 30
0.0
 11
-164.121815
 21
336.150188
 31
0.0
  0
ARC
  5
399
330
1F
100
AcDbEntity
  8
LC-001-100-D00-0
 62
     7
370
    50
100
AcDbCircle
 10
-163.521815
 20
333.68772
 30
0.0
 40
0.6000000000000227
100
AcDbArc
 50
180.0
 51
255.0
  0
LINE
  5
39A
330
1F
100
AcDbEntity
  8
LC-001-100-D00-0
 62
     7
370
    50
100
AcDbLine
 10
-162.970969
 20
332.918953
 30
0.0
 11
-163.677106
 21
333.108165
 31
0.0
  0
LINE
  5
39B
330
1F
100
AcDbEntity
  8
LC-001-100-D00-0
 62
     7
370
    50
100
AcDbLine
 10
-162.970969
 20
332.918953
 30
0.0
 11
-162.970969
 21
330.918955
 31
0.0
  0
LINE
  5
39C
330
1F
100
AcDbEntity
  8
LC-001-100-D00-0
 62
     7
370
    50
100
AcDbLine
 10
-165.921815
 20
331.918954
 30
0.0
 11
-164.921815
 21
330.918954
 31
0.0
  0
LINE
  5
39D
330
1F
100
AcDbEntity
  8
LC-001-100-D00-0
 62
     7
370
    50
100
AcDbLine
 10
-165.921815
 20
331.918954
 30
0.0
 11
-165.921816
 21
337.918954
 31
0.0
  0
LINE
  5
39E
330
1F
100
AcDbEntity
  8
LC-001-100-D00-0
 62
     7
370
    50
100
AcDbLine
 10
-164.921814
 20
338.918954
 30
0.0
 11
-165.921816
 21
337.918954
 31
0.0
  0
LINE
  5
39F
330
1F
100
AcDbEntity
  8
LC-001-100-D00-0
 62
     7
370
    50
100
AcDbLine
 10
-162.970969
 20
338.918954
 30
0.0
 11
-162.970969
 21
336.918954
 31
0.0
  0
LINE
  5
3A0
330
1F
100
AcDbEntity
  8
LC-001-100-D00-0
 62
     7
370
    50
100
AcDbLine
 10
-163.677106
 20
336.729743
 30
0.0
 11
-162.970969
 21
336.918954
 31
0.0
  0
ARC
  5
3A1
330
1F
100
AcDbEntity
  8
LC-001-100-D00-0
 62
     7
370
    50
100
AcDbCircle
 10
-163.521815
 20
336.150188
 30
0.0
 40
0.6000000000000886
100
AcDbArc
 50
105.0
 51
180.0
  0
LINE
  5
3A2
330
1F
100
AcDbEntity
  8
LC-001-100-D00-0
 62
     7
370
    50
100
AcDbLine
 10
-164.921815
 20
330.918954
 30
0.0
 11
-162.970969
 21
330.918955
 31
0.0
  0
LINE
  5
3A3
330
1F
100
AcDbEntity
  8
LC-001-100-D00-0
 62
     7
370
    50
100
AcDbLine
 10
-164.921814
 20
338.918954
 30
0.0
 11
-162.970969
 21
338.918954
 31
0.0
  0
LINE
  5
3A4
330
1F
100
AcDbEntity
  8
LC-001-100-D00-0
 62
     7
370
    50
100
AcDbLine
 10
-174.521815
 20
336.150188
 30
0.0
 11
-174.521815
 21
333.68772
 31
0.0
  0
LINE
  5
3A5
330
1F
100
AcDbEntity
  8
LC-001-100-D00-0
 62
     7
370
    50
100
AcDbLine
 10
-172.721812
 20
337.918954
 30
0.0
 11
-173.721814
 21
338.918954
 31
0.0
  0
LINE
  5
3A6
330
1F
100
AcDbEntity
  8
LC-001-100-D00-0
 62
     7
370
    50
100
AcDbLine
 10
-173.721815
 20
330.918954
 30
0.0
 11
-172.721815
 21
331.918954
 31
0.0
  0
LINE
  5
3A7
330
1F
100
AcDbEntity
  8
LC-001-100-D00-0
 62
     7
370
    50
100
AcDbLine
 10
-172.721815
 20
331.918954
 30
0.0
 11
-172.563975
 21
331.918954
 31
0.0
  0
LINE
  5
3A8
330
1F
100
AcDbEntity
  8
LC-001-100-D00-0
 62
     7
370
    50
100
AcDbLine
 10
-166.079655
 20
331.918954
 30
0.0
 11
-165.921815
 21
331.918954
 31
0.0
  0
LINE
  5
3A9
330
1F
100
AcDbEntity
  8
LC-001-100-D00-0
 62
     7
370
    50
100
AcDbLine
 10
-164.921815
 20
330.918954
 30
0.0
 11
-165.457597
 21
330.918954
 31
0.0
  0
LINE
  5
3AA
330
1F
100
AcDbEntity
  8
LC-001-100-D00-0
 62
     7
370
    50
100
AcDbLine
 10
-173.186033
 20
330.918954
 30
0.0
 11
-173.721815
 21
330.918954
 31
0.0
  0
LINE
  5
3AB
330
1F
100
AcDbEntity
  8
LC-001-100-D00-0
 62
     7
370
    50
100
AcDbLine
 10
-172.721812
 20
337.918954
 30
0.0
 11
-172.721815
 21
331.918954
 31
0.0
  0
LINE
  5
3AC
330
1F
100
AcDbEntity
  8
LC-001-100-D00-0
 62
     7
370
    50
100
AcDbLine
 10
-175.672674
 20
332.918953
 30
0.0
 11
-175.672674
 21
330.918955
 31
0.0
  0
LINE
  5
3AD
330
1F
100
AcDbEntity
  8
LC-001-100-D00-0
 62
     7
370
    50
100
AcDbLine
 10
-174.966524
 20
333.108165
 30
0.0
 11
-175.672674
 21
332.918953
 31
0.0
  0
ARC
  5
3AE
330
1F
100
AcDbEntity
  8
LC-001-100-D00-0
 62
     7
370
    50
100
AcDbCircle
 10
-175.121815
 20
333.68772
 30
0.0
 40
0.600000000000118
100
AcDbArc
 50
285.0
 51
0.0
  0
ARC
  5
3AF
330
1F
100
AcDbEntity
  8
LC-001-100-D00-0
 62
     7
370
    50
100
AcDbCircle
 10
-175.121815
 20
336.150188
 30
0.0
 40
0.6000000000000796
100
AcDbArc
 50
0.0
 51
75.0
  0
LINE
  5
3B0
330
1F
100
AcDbEntity
  8
LC-001-100-D00-0
 62
     7
370
    50
100
AcDbLine
 10
-175.672674
 20
336.918954
 30
0.0
 11
-174.966524
 21
336.729743
 31
0.0
  0
LINE
  5
3B1
330
1F
100
AcDbEntity
  8
LC-001-100-D00-0
 62
     7
370
    50
100
AcDbLine
 10
-175.672674
 20
338.918954
 30
0.0
 11
-175.672674
 21
336.918954
 31
0.0
  0
LINE
  5
3B2
330
1F
100
AcDbEntity
  8
LC-001-100-D00-0
 62
     7
370
    50
100
AcDbLine
 10
-175.672674
 20
330.918955
 30
0.0
 11
-173.721815
 21
330.918954
 31
0.0
  0
LINE
  5
3B3
330
1F
100
AcDbEntity
  8
LC-001-100-D00-0
 62
     7
370
    50
100
AcDbLine
 10
-175.672674
 20
338.918954
 30
0.0
 11
-173.721814
 21
338.918954
 31
0.0
  0
LINE
  5
3B4
330
1F
100
AcDbEntity
  8
LC-001-100-D00-0
 62
     7
370
    50
100
AcDbLine
 10
-162.970969
 20
338.918954
 30
0.0
 11
-165.421808
 21
338.918954
 31
0.0
  0
LINE
  5
3B5
330
1F
100
AcDbEntity
  8
LC-001-100-D00-0
 62
     7
370
    50
100
AcDbLine
 10
-165.421808
 20
338.918954
 30
0.0
 11
-165.421815
 21
349.918954
 31
0.0
  0
LINE
  5
3B6
330
1F
100
AcDbEntity
  8
LC-001-100-D00-0
 62
     7
370
    50
100
AcDbLine
 10
-165.421815
 20
349.918954
 30
0.0
 11
-152.071815
 21
349.918954
 31
0.0
  0
ARC
  5
3B7
330
1F
100
AcDbEntity
  8
LC-001-100-D00-0
 62
     7
370
    50
100
AcDbCircle
 10
-152.071815
 20
348.918954
 30
0.0
 40
1.0
100
AcDbArc
 50
0.0
 51
90.0
  0
LINE
  5
3B8
330
1F
100
AcDbEntity
  8
LC-001-100-D00-0
 62
     7
370
    50
100
AcDbLine
 10
-151.071815
 20
348.918954
 30
0.0
 11
-151.071811
 21
342.918954
 31
0.0
  0
LINE
  5
3B9
330
1F
100
AcDbEntity
  8
LC-001-100-D00-0
 62
     7
370
    50
100
AcDbLine
 10
-154.071815
 20
342.918954
 30
0.0
 11
-151.071811
 21
342.918954
 31
0.0
  0
LINE
  5
3BA
330
1F
100
AcDbEntity
  8
LC-001-100-D00-0
 62
     7
370
    50
100
AcDbLine
 10
-154.071815
 20
342.918954
 30
0.0
 11
-154.071817
 21
346.918954
 31
0.0
  0
LINE
  5
3BB
330
1F
100
AcDbEntity
  8
LC-001-100-D00-0
 62
     7
370
    50
100
AcDbLine
 10
-158.571815
 20
346.918954
 30
0.0
 11
-154.071817
 21
346.918954
 31
0.0
  0
ARC
  5
3BC
330
1F
100
AcDbEntity
  8
LC-001-100-D00-0
 62
     7
370
    50
100
AcDbCircle
 10
-158.571815
 20
345.918954
 30
0.0
 40
1.000000000000227
100
AcDbArc
 50
90.0
 51
180.0
  0
LINE
  5
3BD
330
1F
100
AcDbEntity
  8
LC-001-100-D00-0
 62
     7
370
    50
100
AcDbLine
 10
-159.571815
 20
331.918954
 30
0.0
 11
-159.571815
 21
345.918954
 31
0.0
  0
ARC
  5
3BE
330
1F
100
AcDbEntity
  8
LC-001-100-D00-0
 62
     7
370
    50
100
AcDbCircle
 10
-160.571815
 20
331.918954
 30
0.0
 40
1.000000000000227
100
AcDbArc
 50
270.0
 51
0.0
  0
LINE
  5
3BF
330
1F
100
AcDbEntity
  8
LC-001-100-D00-0
 62
     7
370
    50
100
AcDbLine
 10
-160.571815
 20
330.918954
 30
0.0
 11
-162.970969
 21
330.918955
 31
0.0
  0
LINE
  5
3C0
330
1F
100
AcDbEntity
  8
LC-001-100-D00-0
 62
     7
370
    50
100
AcDbLine
 10
-162.970969
 20
332.918953
 30
0.0
 11
-162.970969
 21
330.918955
 31
0.0
  0
LINE
  5
3C1
330
1F
100
AcDbEntity
  8
LC-001-100-D00-0
 62
     7
370
    50
100
AcDbLine
 10
-163.621815
 20
332.918954
 30
0.0
 11
-162.970969
 21
332.918953
 31
0.0
  0
ARC
  5
3C2
330
1F
100
AcDbEntity
  8
LC-001-100-D00-0
 62
     7
370
    50
100
AcDbCircle
 10
-163.621815
 20
333.418954
 30
0.0
 40
0.4999999999999432
100
AcDbArc
 50
180.0
 51
270.0
  0
LINE
  5
3C3
330
1F
100
AcDbEntity
  8
LC-001-100-D00-0
 62
     7
370
    50
100
AcDbLine
 10
-164.121815
 20
336.418954
 30
0.0
 11
-164.121815
 21
333.418954
 31
0.0
  0
ARC
  5
3C4
330
1F
100
AcDbEntity
  8
LC-001-100-D00-0
 62
     7
370
    50
100
AcDbCircle
 10
-163.621815
 20
336.418954
 30
0.0
 40
0.5
100
AcDbArc
 50
90.0
 51
180.0
  0
LINE
  5
3C5
330
1F
100
AcDbEntity
  8
LC-001-100-D00-0
 62
     7
370
    50
100
AcDbLine
 10
-162.970969
 20
336.918954
 30
0.0
 11
-163.621815
 21
336.918954
 31
0.0
  0
LINE
  5
3C6
330
1F
100
AcDbEntity
  8
LC-001-100-D00-0
 62
     7
370
    50
100
AcDbLine
 10
-162.970969
 20
338.918954
 30
0.0
 11
-162.970969
 21
336.918954
 31
0.0
  0
ARC
  5
3C7
330
1F
100
AcDbEntity
  8
LC-001-100-D00-0
 62
     7
370
    50
100
AcDbCircle
 10
-180.071815
 20
345.918954
 30
0.0
 40
1.0
100
AcDbArc
 50
0.0
 51
90.0
  0
LINE
  5
3C8
330
1F
100
AcDbEntity
  8
LC-001-100-D00-0
 62
     7
370
    50
100
AcDbLine
 10
-179.071815
 20
345.918954
 30
0.0
 11
-179.071815
 21
331.918954
 31
0.0
  0
ARC
  5
3C9
330
1F
100
AcDbEntity
  8
LC-001-100-D00-0
 62
     7
370
    50
100
AcDbCircle
 10
-178.071815
 20
331.918954
 30
0.0
 40
1.000000000000114
100
AcDbArc
 50
180.0
 51
270.0
  0
LINE
  5
3CA
330
1F
100
AcDbEntity
  8
LC-001-100-D00-0
 62
     7
370
    50
100
AcDbLine
 10
-174.521815
 20
333.418954
 30
0.0
 11
-174.521815
 21
336.418954
 31
0.0
  0
LINE
  5
3CB
330
1F
100
AcDbEntity
  8
LC-001-100-D00-0
 62
     7
370
    50
100
AcDbLine
 10
-173.221815
 20
349.918954
 30
0.0
 11
-173.221821
 21
338.918954
 31
0.0
  0
LINE
  5
3CC
330
1F
100
AcDbEntity
  8
LC-001-100-D00-0
 62
     7
370
    50
100
AcDbLine
 10
-173.221815
 20
349.918954
 30
0.0
 11
-165.421815
 21
349.918954
 31
0.0
  0
LINE
  5
3CD
330
1F
100
AcDbEntity
  8
LC-001-100-D00-0
 62
     7
370
    50
100
AcDbLine
 10
-175.672674
 20
338.918954
 30
0.0
 11
-175.672674
 21
336.918954
 31
0.0
  0
LINE
  5
3CE
330
1F
100
AcDbEntity
  8
LC-001-100-D00-0
 62
     7
370
    50
100
AcDbLine
 10
-175.672674
 20
332.918953
 30
0.0
 11
-175.672674
 21
330.918955
 31
0.0
  0
ARC
  5
3CF
330
1F
100
AcDbEntity
  8
LC-001-100-D00-0
 62
     7
370
    50
100
AcDbCircle
 10
-175.021815
 20
333.418954
 30
0.0
 40
0.5
100
AcDbArc
 50
270.0
 51
0.0
  0
LINE
  5
3D0
330
1F
100
AcDbEntity
  8
LC-001-100-D00-0
 62
     7
370
    50
100
AcDbLine
 10
-175.672674
 20
332.918953
 30
0.0
 11
-175.021815
 21
332.918954
 31
0.0
  0
LINE
  5
3D1
330
1F
100
AcDbEntity
  8
LC-001-100-D00-0
 62
     7
370
    50
100
AcDbLine
 10
-184.571827
 20
346.918954
 30
0.0
 11
-184.571815
 21
342.918954
 31
0.0
  0
LINE
  5
3D2
330
1F
100
AcDbEntity
  8
LC-001-100-D00-0
 62
     7
370
    50
100
AcDbLine
 10
-187.571818
 20
342.918954
 30
0.0
 11
-187.571815
 21
348.918954
 31
0.0
  0
ARC
  5
3D3
330
1F
100
AcDbEntity
  8
LC-001-100-D00-0
 62
     7
370
    50
100
AcDbCircle
 10
-186.571815
 20
348.918954
 30
0.0
 40
1.0
100
AcDbArc
 50
90.0
 51
180.0
  0
LINE
  5
3D4
330
1F
100
AcDbEntity
  8
LC-001-100-D00-0
 62
     7
370
    50
100
AcDbLine
 10
-175.021815
 20
336.918954
 30
0.0
 11
-175.672674
 21
336.918954
 31
0.0
  0
ARC
  5
3D5
330
1F
100
AcDbEntity
  8
LC-001-100-D00-0
 62
     7
370
    50
100
AcDbCircle
 10
-175.021815
 20
336.418954
 30
0.0
 40
0.5000000000000568
100
AcDbArc
 50
0.0
 51
90.0
  0
LINE
  5
3D6
330
1F
100
AcDbEntity
  8
LC-001-100-D00-0
 62
     7
370
    50
100
AcDbLine
 10
-173.221821
 20
338.918954
 30
0.0
 11
-175.672674
 21
338.918954
 31
0.0
  0
LINE
  5
3D7
330
1F
100
AcDbEntity
  8
LC-001-100-D00-0
 62
     7
370
    50
100
AcDbLine
 10
-175.672674
 20
330.918955
 30
0.0
 11
-178.071815
 21
330.918954
 31
0.0
  0
LINE
  5
3D8
330
1F
100
AcDbEntity
  8
LC-001-100-D00-0
 62
     7
370
    50
100
AcDbLine
 10
-184.571827
 20
346.918954
 30
0.0
 11
-180.071815
 21
346.918954
 31
0.0
  0
LINE
  5
3D9
330
1F
100
AcDbEntity
  8
LC-001-100-D00-0
 62
     7
370
    50
100
AcDbLine
 10
-186.571815
 20
349.918954
 30
0.0
 11
-173.221815
 21
349.918954
 31
0.0
  0
LINE
  5
3DA
330
1F
100
AcDbEntity
  8
LC-001-100-D00-0
 62
     7
370
    50
100
AcDbLine
 10
-187.571818
 20
342.918954
 30
0.0
 11
-184.571815
 21
342.918954
 31
0.0
  0
LINE
  5
3DB
330
1F
100
AcDbEntity
  8
LC-001-100-D00-0
 62
     7
370
    50
100
AcDbLine
 10
-156.071815
 20
342.918954
 30
0.0
 11
-154.071815
 21
342.918954
 31
0.0
  0
LINE
  5
3DC
330
1F
100
AcDbEntity
  8
LC-001-100-D00-0
 62
     7
370
    50
100
AcDbLine
 10
-184.571815
 20
342.918954
 30
0.0
 11
-182.571815
 21
342.918954
 31
0.0
  0
LINE
  5
3DD
330
1F
100
AcDbEntity
  8
LC-001-100-D00-0
 62
     7
370
    50
100
AcDbLine
 10
-182.571815
 20
342.918954
 30
0.0
 11
-179.071808
 21
342.918954
 31
0.0
  0
LINE
  5
3DE
330
1F
100
AcDbEntity
  8
LC-001-100-D00-0
 62
     7
370
    50
100
AcDbLine
 10
-159.571821
 20
342.918954
 30
0.0
 11
-156.071815
 21
342.918954
 31
0.0
  0
LINE
  5
3DF
330
1F
100
AcDbEntity
  8
LC-001-100-D00-0
 62
     7
370
    50
100
AcDbLine
 10
440.878185
 20
333.68772
 30
0.0
 11
440.878185
 21
336.150188
 31
0.0
  0
ARC
  5
3E0
330
1F
100
AcDbEntity
  8
LC-001-100-D00-0
 62
     7
370
    50
100
AcDbCircle
 10
441.478185
 20
333.68772
 30
0.0
 40
0.6000000000000227
100
AcDbArc
 50
180.0
 51
255.0
  0
LINE
  5
3E1
330
1F
100
AcDbEntity
  8
LC-001-100-D00-0
 62
     7
370
    50
100
AcDbLine
 10
442.029035
 20
332.918953
 30
0.0
 11
441.322894
 21
333.108165
 31
0.0
  0
LINE
  5
3E2
330
1F
100
AcDbEntity
  8
LC-001-100-D00-0
 62
     7
370
    50
100
AcDbLine
 10
442.029035
 20
332.918953
 30
0.0
 11
442.029035
 21
330.918955
 31
0.0
  0
LINE
  5
3E3
330
1F
100
AcDbEntity
  8
LC-001-100-D00-0
 62
     7
370
    50
100
AcDbLine
 10
439.078185
 20
331.918954
 30
0.0
 11
440.078185
 21
330.918954
 31
0.0
  0
LINE
  5
3E4
330
1F
100
AcDbEntity
  8
LC-001-100-D00-0
 62
     7
370
    50
100
AcDbLine
 10
439.078185
 20
331.918954
 30
0.0
 11
439.078188
 21
337.918954
 31
0.0
  0
LINE
  5
3E5
330
1F
100
AcDbEntity
  8
LC-001-100-D00-0
 62
     7
370
    50
100
AcDbLine
 10
440.078175
 20
338.918954
 30
0.0
 11
439.078188
 21
337.918954
 31
0.0
  0
LINE
  5
3E6
330
1F
100
AcDbEntity
  8
LC-001-100-D00-0
 62
     7
370
    50
100
AcDbLine
 10
442.029035
 20
338.918954
 30
0.0
 11
442.029035
 21
336.918954
 31
0.0
  0
LINE
  5
3E7
330
1F
100
AcDbEntity
  8
LC-001-100-D00-0
 62
     7
370
    50
100
AcDbLine
 10
441.322894
 20
336.729743
 30
0.0
 11
442.029035
 21
336.918954
 31
0.0
  0
ARC
  5
3E8
330
1F
100
AcDbEntity
  8
LC-001-100-D00-0
 62
     7
370
    50
100
AcDbCircle
 10
441.478185
 20
336.150188
 30
0.0
 40
0.600000000000118
100
AcDbArc
 50
105.0
 51
180.0
  0
LINE
  5
3E9
330
1F
100
AcDbEntity
  8
LC-001-100-D00-0
 62
     7
370
    50
100
AcDbLine
 10
440.078185
 20
330.918954
 30
0.0
 11
442.029035
 21
330.918955
 31
0.0
  0
LINE
  5
3EA
330
1F
100
AcDbEntity
  8
LC-001-100-D00-0
 62
     7
370
    50
100
AcDbLine
 10
440.078175
 20
338.918954
 30
0.0
 11
442.029035
 21
338.918954
 31
0.0
  0
LINE
  5
3EB
330
1F
100
AcDbEntity
  8
LC-001-100-D00-0
 62
     7
370
    50
100
AcDbLine
 10
430.478185
 20
336.150188
 30
0.0
 11
430.478185
 21
333.68772
 31
0.0
  0
LINE
  5
3EC
330
1F
100
AcDbEntity
  8
LC-001-100-D00-0
 62
     7
370
    50
100
AcDbLine
 10
432.278192
 20
337.918954
 30
0.0
 11
431.278175
 21
338.918954
 31
0.0
  0
LINE
  5
3ED
330
1F
100
AcDbEntity
  8
LC-001-100-D00-0
 62
     7
370
    50
100
AcDbLine
 10
432.278192
 20
337.918954
 30
0.0
 11
432.278185
 21
331.918954
 31
0.0
  0
LINE
  5
3EE
330
1F
100
AcDbEntity
  8
LC-001-100-D00-0
 62
     7
370
    50
100
AcDbLine
 10
431.278185
 20
330.918954
 30
0.0
 11
432.278185
 21
331.918954
 31
0.0
  0
LINE
  5
3EF
330
1F
100
AcDbEntity
  8
LC-001-100-D00-0
 62
     7
370
    50
100
AcDbLine
 10
429.327345
 20
332.918953
 30
0.0
 11
429.327345
 21
330.918955
 31
0.0
  0
LINE
  5
3F0
330
1F
100
AcDbEntity
  8
LC-001-100-D00-0
 62
     7
370
    50
100
AcDbLine
 10
430.033476
 20
333.108165
 30
0.0
 11
429.327345
 21
332.918953
 31
0.0
  0
ARC
  5
3F1
330
1F
100
AcDbEntity
  8
LC-001-100-D00-0
 62
     7
370
    50
100
AcDbCircle
 10
429.878185
 20
333.68772
 30
0.0
 40
0.5999999999998983
100
AcDbArc
 50
285.0
 51
0.0
  0
ARC
  5
3F2
330
1F
100
AcDbEntity
  8
LC-001-100-D00-0
 62
     7
370
    50
100
AcDbCircle
 10
429.878185
 20
336.150188
 30
0.0
 40
0.6000000000000227
100
AcDbArc
 50
0.0
 51
75.0
  0
LINE
  5
3F3
330
1F
100
AcDbEntity
  8
LC-001-100-D00-0
 62
     7
370
    50
100
AcDbLine
 10
429.327345
 20
336.918954
 30
0.0
 11
430.033476
 21
336.729743
 31
0.0
  0
LINE
  5
3F4
330
1F
100
AcDbEntity
  8
LC-001-100-D00-0
 62
     7
370
    50
100
AcDbLine
 10
429.327345
 20
338.918954
 30
0.0
 11
429.327345
 21
336.918954
 31
0.0
  0
LINE
  5
3F5
330
1F
100
AcDbEntity
  8
LC-001-100-D00-0
 62
     7
370
    50
100
AcDbLine
 10
429.327345
 20
330.918955
 30
0.0
 11
431.278185
 21
330.918954
 31
0.0
  0
LINE
  5
3F6
330
1F
100
AcDbEntity
  8
LC-001-100-D00-0
 62
     7
370
    50
100
AcDbLine
 10
429.327345
 20
338.918954
 30
0.0
 11
431.278175
 21
338.918954
 31
0.0
  0
LINE
  5
3F7
330
1F
100
AcDbEntity
  8
LC-001-100-D00-0
 62
     7
370
    50
100
AcDbLine
 10
432.278185
 20
331.918954
 30
0.0
 11
432.436025
 21
331.918954
 31
0.0
  0
LINE
  5
3F8
330
1F
100
AcDbEntity
  8
LC-001-100-D00-0
 62
     7
370
    50
100
AcDbLine
 10
438.920345
 20
331.918954
 30
0.0
 11
439.078185
 21
331.918954
 31
0.0
  0
LINE
  5
3F9
330
1F
100
AcDbEntity
  8
LC-001-100-D00-0
 62
     7
370
    50
100
AcDbLine
 10
440.078185
 20
330.918954
 30
0.0
 11
439.542403
 21
330.918954
 31
0.0
  0
LINE
  5
3FA
330
1F
100
AcDbEntity
  8
LC-001-100-D00-0
 62
     7
370
    50
100
AcDbLine
 10
431.813967
 20
330.918954
 30
0.0
 11
431.278185
 21
330.918954
 31
0.0
  0
LINE
  5
3FB
330
1F
100
AcDbEntity
  8
LC-001-100-D00-0
 62
     7
370
    50
100
AcDbLine
 10
442.029035
 20
338.918954
 30
0.0
 11
439.578181
 21
338.918954
 31
0.0
  0
LINE
  5
3FC
330
1F
100
AcDbEntity
  8
LC-001-100-D00-0
 62
     7
370
    50
100
AcDbLine
 10
439.578181
 20
338.918954
 30
0.0
 11
439.578185
 21
349.918954
 31
0.0
  0
LINE
  5
3FD
330
1F
100
AcDbEntity
  8
LC-001-100-D00-0
 62
     7
370
    50
100
AcDbLine
 10
439.578185
 20
349.918954
 30
0.0
 11
452.928185
 21
349.918954
 31
0.0
  0
ARC
  5
3FE
330
1F
100
AcDbEntity
  8
LC-001-100-D00-0
 62
     7
370
    50
100
AcDbCircle
 10
452.928185
 20
348.918954
 30
0.0
 40
1.0
100
AcDbArc
 50
0.0
 51
90.0
  0
LINE
  5
3FF
330
1F
100
AcDbEntity
  8
LC-001-100-D00-0
 62
     7
370
    50
100
AcDbLine
 10
453.928185
 20
348.918954
 30
0.0
 11
453.928178
 21
342.918954
 31
0.0
  0
LINE
  5
400
330
1F
100
AcDbEntity
  8
LC-001-100-D00-0
 62
     7
370
    50
100
AcDbLine
 10
450.928185
 20
342.918954
 30
0.0
 11
453.928178
 21
342.918954
 31
0.0
  0
LINE
  5
401
330
1F
100
AcDbEntity
  8
LC-001-100-D00-0
 62
     7
370
    50
100
AcDbLine
 10
450.928185
 20
342.918954
 30
0.0
 11
450.928187
 21
346.918954
 31
0.0
  0
LINE
  5
402
330
1F
100
AcDbEntity
  8
LC-001-100-D00-0
 62
     7
370
    50
100
AcDbLine
 10
446.428185
 20
346.918954
 30
0.0
 11
450.928187
 21
346.918954
 31
0.0
  0
ARC
  5
403
330
1F
100
AcDbEntity
  8
LC-001-100-D00-0
 62
     7
370
    50
100
AcDbCircle
 10
446.428185
 20
345.918954
 30
0.0
 40
1.0
100
AcDbArc
 50
90.0
 51
180.0
  0
LINE
  5
404
330
1F
100
AcDbEntity
  8
LC-001-100-D00-0
 62
     7
370
    50
100
AcDbLine
 10
445.428185
 20
331.918954
 30
0.0
 11
445.428185
 21
345.918954
 31
0.0
  0
ARC
  5
405
330
1F
100
AcDbEntity
  8
LC-001-100-D00-0
 62
     7
370
    50
100
AcDbCircle
 10
444.428185
 20
331.918954
 30
0.0
 40
1.000000000000227
100
AcDbArc
 50
270.0
 51
0.0
  0
LINE
  5
406
330
1F
100
AcDbEntity
  8
LC-001-100-D00-0
 62
     7
370
    50
100
AcDbLine
 10
444.428185
 20
330.918954
 30
0.0
 11
442.029035
 21
330.918955
 31
0.0
  0
LINE
  5
407
330
1F
100
AcDbEntity
  8
LC-001-100-D00-0
 62
     7
370
    50
100
AcDbLine
 10
442.029035
 20
332.918953
 30
0.0
 11
442.029035
 21
330.918955
 31
0.0
  0
LINE
  5
408
330
1F
100
AcDbEntity
  8
LC-001-100-D00-0
 62
     7
370
    50
100
AcDbLine
 10
441.378185
 20
332.918954
 30
0.0
 11
442.029035
 21
332.918953
 31
0.0
  0
ARC
  5
409
330
1F
100
AcDbEntity
  8
LC-001-100-D00-0
 62
     7
370
    50
100
AcDbCircle
 10
441.378185
 20
333.418954
 30
0.0
 40
0.4999999999998863
100
AcDbArc
 50
180.0
 51
270.0
  0
LINE
  5
40A
330
1F
100
AcDbEntity
  8
LC-001-100-D00-0
 62
     7
370
    50
100
AcDbLine
 10
440.878185
 20
336.418954
 30
0.0
 11
440.878185
 21
333.418954
 31
0.0
  0
ARC
  5
40B
330
1F
100
AcDbEntity
  8
LC-001-100-D00-0
 62
     7
370
    50
100
AcDbCircle
 10
441.378185
 20
336.418954
 30
0.0
 40
0.5
100
AcDbArc
 50
90.0
 51
180.0
  0
LINE
  5
40C
330
1F
100
AcDbEntity
  8
LC-001-100-D00-0
 62
     7
370
    50
100
AcDbLine
 10
442.029035
 20
336.918954
 30
0.0
 11
441.378185
 21
336.918954
 31
0.0
  0
LINE
  5
40D
330
1F
100
AcDbEntity
  8
LC-001-100-D00-0
 62
     7
370
    50
100
AcDbLine
 10
442.029035
 20
338.918954
 30
0.0
 11
442.029035
 21
336.918954
 31
0.0
  0
ARC
  5
40E
330
1F
100
AcDbEntity
  8
LC-001-100-D00-0
 62
     7
370
    50
100
AcDbCircle
 10
424.928185
 20
345.918954
 30
0.0
 40
0.9999999999998863
100
AcDbArc
 50
0.0
 51
90.0
  0
LINE
  5
40F
330
1F
100
AcDbEntity
  8
LC-001-100-D00-0
 62
     7
370
    50
100
AcDbLine
 10
425.928185
 20
345.918954
 30
0.0
 11
425.928185
 21
331.918954
 31
0.0
  0
ARC
  5
410
330
1F
100
AcDbEntity
  8
LC-001-100-D00-0
 62
     7
370
    50
100
AcDbCircle
 10
426.928185
 20
331.918954
 30
0.0
 40
1.000000000000114
100
AcDbArc
 50
180.0
 51
270.0
  0
LINE
  5
411
330
1F
100
AcDbEntity
  8
LC-001-100-D00-0
 62
     7
370
    50
100
AcDbLine
 10
430.478185
 20
333.418954
 30
0.0
 11
430.478185
 21
336.418954
 31
0.0
  0
LINE
  5
412
330
1F
100
AcDbEntity
  8
LC-001-100-D00-0
 62
     7
370
    50
100
AcDbLine
 10
431.778185
 20
349.918954
 30
0.0
 11
431.778198
 21
338.918954
 31
0.0
  0
LINE
  5
413
330
1F
100
AcDbEntity
  8
LC-001-100-D00-0
 62
     7
370
    50
100
AcDbLine
 10
431.778185
 20
349.918954
 30
0.0
 11
439.578185
 21
349.918954
 31
0.0
  0
LINE
  5
414
330
1F
100
AcDbEntity
  8
LC-001-100-D00-0
 62
     7
370
    50
100
AcDbLine
 10
429.327345
 20
338.918954
 30
0.0
 11
429.327345
 21
336.918954
 31
0.0
  0
LINE
  5
415
330
1F
100
AcDbEntity
  8
LC-001-100-D00-0
 62
     7
370
    50
100
AcDbLine
 10
429.327345
 20
332.918953
 30
0.0
 11
429.327345
 21
330.918955
 31
0.0
  0
ARC
  5
416
330
1F
100
AcDbEntity
  8
LC-001-100-D00-0
 62
     7
370
    50
100
AcDbCircle
 10
429.978185
 20
333.418954
 30
0.0
 40
0.5
100
AcDbArc
 50
270.0
 51
0.0
  0
LINE
  5
417
330
1F
100
AcDbEntity
  8
LC-001-100-D00-0
 62
     7
370
    50
100
AcDbLine
 10
429.327345
 20
332.918953
 30
0.0
 11
429.978185
 21
332.918954
 31
0.0
  0
LINE
  5
418
330
1F
100
AcDbEntity
  8
LC-001-100-D00-0
 62
     7
370
    50
100
AcDbLine
 10
420.428192
 20
346.918954
 30
0.0
 11
420.428185
 21
342.918954
 31
0.0
  0
LINE
  5
419
330
1F
100
AcDbEntity
  8
LC-001-100-D00-0
 62
     7
370
    50
100
AcDbLine
 10
417.428171
 20
342.918954
 30
0.0
 11
417.428185
 21
348.918954
 31
0.0
  0
ARC
  5
41A
330
1F
100
AcDbEntity
  8
LC-001-100-D00-0
 62
     7
370
    50
100
AcDbCircle
 10
418.428185
 20
348.918954
 30
0.0
 40
1.0
100
AcDbArc
 50
90.0
 51
180.0
  0
LINE
  5
41B
330
1F
100
AcDbEntity
  8
LC-001-100-D00-0
 62
     7
370
    50
100
AcDbLine
 10
429.978185
 20
336.918954
 30
0.0
 11
429.327345
 21
336.918954
 31
0.0
  0
ARC
  5
41C
330
1F
100
AcDbEntity
  8
LC-001-100-D00-0
 62
     7
370
    50
100
AcDbCircle
 10
429.978185
 20
336.418954
 30
0.0
 40
0.5000000000001137
100
AcDbArc
 50
0.0
 51
90.0
  0
LINE
  5
41D
330
1F
100
AcDbEntity
  8
LC-001-100-D00-0
 62
     7
370
    50
100
AcDbLine
 10
417.428171
 20
342.918954
 30
0.0
 11
420.428185
 21
342.918954
 31
0.0
  0
LINE
  5
41E
330
1F
100
AcDbEntity
  8
LC-001-100-D00-0
 62
     7
370
    50
100
AcDbLine
 10
431.778198
 20
338.918954
 30
0.0
 11
429.327345
 21
338.918954
 31
0.0
  0
LINE
  5
41F
330
1F
100
AcDbEntity
  8
LC-001-100-D00-0
 62
     7
370
    50
100
AcDbLine
 10
429.327345
 20
330.918955
 30
0.0
 11
426.928185
 21
330.918954
 31
0.0
  0
LINE
  5
420
330
1F
100
AcDbEntity
  8
LC-001-100-D00-0
 62
     7
370
    50
100
AcDbLine
 10
420.428192
 20
346.918954
 30
0.0
 11
424.928185
 21
346.918954
 31
0.0
  0
LINE
  5
421
330
1F
100
AcDbEntity
  8
LC-001-100-D00-0
 62
     7
370
    50
100
AcDbLine
 10
418.428185
 20
349.918954
 30
0.0
 11
431.778185
 21
349.918954
 31
0.0
  0
LINE
  5
422
330
1F
100
AcDbEntity
  8
LC-001-100-D00-0
 62
     7
370
    50
100
AcDbLine
 10
448.928185
 20
342.918954
 30
0.0
 11
450.928185
 21
342.918954
 31
0.0
  0
LINE
  5
423
330
1F
100
AcDbEntity
  8
LC-001-100-D00-0
 62
     7
370
    50
100
AcDbLine
 10
420.428185
 20
342.918954
 30
0.0
 11
422.428185
 21
342.918954
 31
0.0
  0
LINE
  5
424
330
1F
100
AcDbEntity
  8
LC-001-100-D00-0
 62
     7
370
    50
100
AcDbLine
 10
422.428185
 20
342.918954
 30
0.0
 11
425.928181
 21
342.918954
 31
0.0
  0
LINE
  5
425
330
1F
100
AcDbEntity
  8
LC-001-100-D00-0
 62
     7
370
    50
100
AcDbLine
 10
445.428198
 20
342.918954
 30
0.0
 11
448.928185
 21
342.918954
 31
0.0
  0
LINE
  5
426
330
1F
100
AcDbEntity
  8
LC-001-100-D00-0
 62
     7
370
    50
100
AcDbLine
 10
121.306321
 20
319.169651
 30
0.0
 11
124.313106
 21
319.837825
 31
0.0
  0
ARC
  5
427
330
1F
100
AcDbEntity
  8
LC-001-100-D00-0
 62
     7
370
    50
100
AcDbCircle
 10
121.241242
 20
319.462507
 30
0.0
 40
0.3000000000000399
100
AcDbArc
 50
131.633539
 51
282.528808
  0
LINE
  5
428
330
1F
100
AcDbEntity
  8
LC-001-100-D00-0
 62
     7
370
    50
100
AcDbLine
 10
124.39402
 20
322.666363
 30
0.0
 11
121.041933
 21
319.68673
 31
0.0
  0
ARC
  5
429
330
1F
100
AcDbEntity
  8
LC-001-100-D00-0
 62
     7
370
    50
100
AcDbCircle
 10
125.058384
 20
321.918954
 30
0.0
 40
1.0
100
AcDbArc
 50
90.0
 51
131.633539
  0
LINE
  5
42A
330
1F
100
AcDbEntity
  8
LC-001-100-D00-0
 62
     7
370
    50
100
AcDbLine
 10
130.678183
 20
322.918953
 30
0.0
 11
130.678183
 21
318.918954
 31
0.0
  0
LINE
  5
42B
330
1F
100
AcDbEntity
  8
LC-001-100-D00-0
 62
     7
370
    50
100
AcDbLine
 10
124.678185
 20
319.544969
 30
0.0
 11
124.678185
 21
318.918954
 31
0.0
  0
ARC
  5
42C
330
1F
100
AcDbEntity
  8
LC-001-100-D00-0
 62
     7
370
    50
100
AcDbCircle
 10
124.378185
 20
319.544969
 30
0.0
 40
0.3000000000000682
100
AcDbArc
 50
0.0
 51
102.528808
  0
LINE
  5
42D
330
1F
100
AcDbEntity
  8
LC-001-100-D00-0
 62
     7
370
    50
100
AcDbLine
 10
130.678183
 20
322.918953
 30
0.0
 11
125.058384
 21
322.918954
 31
0.0
  0
LINE
  5
42E
330
1F
100
AcDbEntity
  8
LC-001-100-D00-0
 62
     7
370
    50
100
AcDbLine
 10
130.678183
 20
318.918954
 30
0.0
 11
124.678185
 21
318.918954
 31
0.0
  0
LINE
  5
42F
330
1F
100
AcDbEntity
  8
LC-001-100-D00-0
 62
     7
370
    50
100
AcDbLine
 10
124.678185
 20
318.918954
 30
0.0
 11
122.478185
 21
318.918954
 31
0.0
  0
LINE
  5
430
330
1F
100
AcDbEntity
  8
LC-001-100-D00-0
 62
     7
370
    50
100
AcDbLine
 10
6.678185
 20
318.918954
 30
0.0
 11
6.678185
 21
319.544969
 31
0.0
  0
LINE
  5
431
330
1F
100
AcDbEntity
  8
LC-001-100-D00-0
 62
     7
370
    50
100
AcDbLine
 10
8.878185
 20
318.918954
 30
0.0
 11
6.678185
 21
318.918954
 31
0.0
  0
ARC
  5
432
330
1F
100
AcDbEntity
  8
LC-001-100-D00-0
 62
     7
370
    50
100
AcDbCircle
 10
6.978185
 20
319.544969
 30
0.0
 40
0.2999999999999122
100
AcDbArc
 50
77.471192
 51
180.0
  0
LINE
  5
433
330
1F
100
AcDbEntity
  8
LC-001-100-D00-0
 62
     7
370
    50
100
AcDbLine
 10
7.043264
 20
319.837825
 30
0.0
 11
10.050049
 21
319.169651
 31
0.0
  0
LINE
  5
434
330
1F
100
AcDbEntity
  8
LC-001-100-D00-0
 62
     7
370
    50
100
AcDbLine
 10
10.314437
 20
319.68673
 30
0.0
 11
6.962349
 21
322.666363
 31
0.0
  0
ARC
  5
435
330
1F
100
AcDbEntity
  8
LC-001-100-D00-0
 62
     7
370
    50
100
AcDbCircle
 10
6.297986
 20
321.918954
 30
0.0
 40
1.00000000000007
100
AcDbArc
 50
48.366461
 51
90.0
  0
ARC
  5
436
330
1F
100
AcDbEntity
  8
LC-001-100-D00-0
 62
     7
370
    50
100
AcDbCircle
 10
10.115128
 20
319.462507
 30
0.0
 40
0.3000000000000355
100
AcDbArc
 50
257.471192
 51
48.366461
  0
LINE
  5
437
330
1F
100
AcDbEntity
  8
LC-001-100-D00-0
 62
     7
370
    50
100
AcDbLine
 10
0.678187
 20
318.918954
 30
0.0
 11
0.678187
 21
322.918953
 31
0.0
  0
LINE
  5
438
330
1F
100
AcDbEntity
  8
LC-001-100-D00-0
 62
     7
370
    50
100
AcDbLine
 10
6.297986
 20
322.918954
 30
0.0
 11
0.678187
 21
322.918953
 31
0.0
  0
LINE
  5
439
330
1F
100
AcDbEntity
  8
LC-001-100-D00-0
 62
     7
370
    50
100
AcDbLine
 10
6.678185
 20
318.918954
 30
0.0
 11
0.678187
 21
318.918954
 31
0.0
  0
LINE
  5
43A
330
1F
100
AcDbEntity
  8
LC-001-100-D00-0
 62
     7
370
    50
100
AcDbLine
 10
139.678186
 20
322.918953
 30
0.0
 11
139.678186
 21
319.168953
 31
0.0
  0
LINE
  5
43B
330
1F
100
AcDbEntity
  8
LC-001-100-D00-0
 62
     7
370
    50
100
AcDbLine
 10
136.678187
 20
319.918955
 30
0.0
 11
136.678185
 21
319.168954
 31
0.0
  0
LINE
  5
43C
330
1F
100
AcDbEntity
  8
LC-001-100-D00-0
 62
     7
370
    50
100
AcDbLine
 10
133.678189
 20
319.918955
 30
0.0
 11
133.678189
 21
315.918952
 31
0.0
  0
LINE
  5
43D
330
1F
100
AcDbEntity
  8
LC-001-100-D00-0
 62
     7
370
    50
100
AcDbLine
 10
127.678185
 20
315.918954
 30
0.0
 11
133.678189
 21
315.918952
 31
0.0
  0
LINE
  5
43E
330
1F
100
AcDbEntity
  8
LC-001-100-D00-0
 62
     7
370
    50
100
AcDbLine
 10
127.678184
 20
318.918954
 30
0.0
 11
127.678185
 21
315.918954
 31
0.0
  0
LINE
  5
43F
330
1F
100
AcDbEntity
  8
LC-001-100-D00-0
 62
     7
370
    50
100
AcDbLine
 10
130.678183
 20
318.918954
 30
0.0
 11
127.678184
 21
318.918954
 31
0.0
  0
LINE
  5
440
330
1F
100
AcDbEntity
  8
LC-001-100-D00-0
 62
     7
370
    50
100
AcDbLine
 10
130.678183
 20
318.918954
 30
0.0
 11
130.678183
 21
322.918953
 31
0.0
  0
LINE
  5
441
330
1F
100
AcDbEntity
  8
LC-001-100-D00-0
 62
     7
370
    50
100
AcDbLine
 10
133.678189
 20
319.918955
 30
0.0
 11
136.678187
 21
319.918955
 31
0.0
  0
LINE
  5
442
330
1F
100
AcDbEntity
  8
LC-001-100-D00-0
 62
     7
370
    50
100
AcDbLine
 10
139.678186
 20
322.918953
 30
0.0
 11
130.678183
 21
322.918953
 31
0.0
  0
LINE
  5
443
330
1F
100
AcDbEntity
  8
LC-001-100-D00-0
 62
     7
370
    50
100
AcDbLine
 10
136.678185
 20
319.168954
 30
0.0
 11
139.678186
 21
319.168953
 31
0.0
  0
LINE
  5
444
330
1F
100
AcDbEntity
  8
LC-001-100-D00-0
 62
     7
370
    50
100
AcDbLine
 10
133.678185
 20
319.168954
 30
0.0
 11
136.678185
 21
319.168954
 31
0.0
  0
LINE
  5
445
330
1F
100
AcDbEntity
  8
LC-001-100-D00-0
 62
     7
370
    50
100
AcDbLine
 10
120.778185
 20
315.918954
 30
0.0
 11
127.678185
 21
315.918954
 31
0.0
  0
LINE
  5
446
330
1F
100
AcDbEntity
  8
LC-001-100-D00-0
 62
     7
370
    50
100
AcDbLine
 10
3.678185
 20
315.918954
 30
0.0
 11
3.678186
 21
318.918954
 31
0.0
  0
LINE
  5
447
330
1F
100
AcDbEntity
  8
LC-001-100-D00-0
 62
     7
370
    50
100
AcDbLine
 10
3.678185
 20
315.918954
 30
0.0
 11
10.578185
 21
315.918954
 31
0.0
  0
LINE
  5
448
330
1F
100
AcDbEntity
  8
LC-001-100-D00-0
 62
     7
370
    50
100
AcDbLine
 10
0.678187
 20
322.918953
 30
0.0
 11
0.678187
 21
318.918954
 31
0.0
  0
LINE
  5
449
330
1F
100
AcDbEntity
  8
LC-001-100-D00-0
 62
     7
370
    50
100
AcDbLine
 10
-2.321819
 20
315.918952
 30
0.0
 11
-2.321819
 21
319.918955
 31
0.0
  0
LINE
  5
44A
330
1F
100
AcDbEntity
  8
LC-001-100-D00-0
 62
     7
370
    50
100
AcDbLine
 10
-5.321815
 20
319.168954
 30
0.0
 11
-5.321817
 21
319.918955
 31
0.0
  0
LINE
  5
44B
330
1F
100
AcDbEntity
  8
LC-001-100-D00-0
 62
     7
370
    50
100
AcDbLine
 10
-5.321815
 20
319.168954
 30
0.0
 11
-2.321815
 21
319.168954
 31
0.0
  0
LINE
  5
44C
330
1F
100
AcDbEntity
  8
LC-001-100-D00-0
 62
     7
370
    50
100
AcDbLine
 10
-8.321816
 20
319.168953
 30
0.0
 11
-8.321816
 21
322.918953
 31
0.0
  0
LINE
  5
44D
330
1F
100
AcDbEntity
  8
LC-001-100-D00-0
 62
     7
370
    50
100
AcDbLine
 10
3.678186
 20
318.918954
 30
0.0
 11
0.678187
 21
318.918954
 31
0.0
  0
LINE
  5
44E
330
1F
100
AcDbEntity
  8
LC-001-100-D00-0
 62
     7
370
    50
100
AcDbLine
 10
-2.321819
 20
315.918952
 30
0.0
 11
3.678185
 21
315.918954
 31
0.0
  0
LINE
  5
44F
330
1F
100
AcDbEntity
  8
LC-001-100-D00-0
 62
     7
370
    50
100
AcDbLine
 10
-5.321817
 20
319.918955
 30
0.0
 11
-2.321819
 21
319.918955
 31
0.0
  0
LINE
  5
450
330
1F
100
AcDbEntity
  8
LC-001-100-D00-0
 62
     7
370
    50
100
AcDbLine
 10
0.678187
 20
322.918953
 30
0.0
 11
-8.321816
 21
322.918953
 31
0.0
  0
LINE
  5
451
330
1F
100
AcDbEntity
  8
LC-001-100-D00-0
 62
     7
370
    50
100
AcDbLine
 10
-8.321816
 20
319.168953
 30
0.0
 11
-5.321815
 21
319.168954
 31
0.0
  0
LINE
  5
452
330
1F
100
AcDbEntity
  8
LC-001-100-D00-0
 62
     7
370
    50
100
AcDbLine
 10
139.678186
 20
318.418953
 30
0.0
 11
150.678186
 21
318.418953
 31
0.0
  0
LINE
  5
453
330
1F
100
AcDbEntity
  8
LC-001-100-D00-0
 62
     7
370
    50
100
AcDbLine
 10
150.678186
 20
266.418956
 30
0.0
 11
139.678186
 21
266.418956
 31
0.0
  0
LINE
  5
454
330
1F
100
AcDbEntity
  8
LC-001-100-D00-0
 62
     7
370
    50
100
AcDbLine
 10
139.678186
 20
319.168953
 30
0.0
 11
139.678186
 21
318.418953
 31
0.0
  0
INSERT
  5
465
330
1F
100
AcDbEntity
  8
LC-001-100-D00-0
 62
     7
370
    50
100
AcDbBlockReference
  2
KLON17
 10
0.0
 20
0.0
 30
0.0
  0
INSERT
  5
479
330
1F
100
AcDbEntity
  8
LC-001-100-D00-0
 62
     7
370
    50
100
AcDbBlockReference
  2
KLON18
 10
0.0
 20
0.0
 30
0.0
  0
LINE
  5
47A
330
1F
100
AcDbEntity
  8
LC-001-100-D00-0
 62
     7
370
    50
100
AcDbLine
 10
136.678187
 20
315.418955
 30
0.0
 11
178.575371
 21
315.418954
 31
0.0
  0
LINE
  5
47B
330
1F
100
AcDbEntity
  8
LC-001-100-D00-0
 62
     7
370
    50
100
AcDbLine
 10
178.575371
 20
269.418954
 30
0.0
 11
178.575371
 21
315.418954
 31
0.0
  0
LINE
  5
47C
330
1F
100
AcDbEntity
  8
LC-001-100-D00-0
 62
     7
370
    50
100
AcDbLine
 10
178.575371
 20
269.418954
 30
0.0
 11
139.678186
 21
269.418955
 31
0.0
  0
INSERT
  5
482
330
1F
100
AcDbEntity
  8
LC-001-100-D00-0
 62
     7
370
    50
100
AcDbBlockReference
  2
KLON19
 10
0.0
 20
0.0
 30
0.0
  0
LINE
  5
483
330
1F
100
AcDbEntity
  8
LC-001-100-D00-0
 62
     7
370
    50
100
AcDbLine
 10
136.678185
 20
319.168954
 30
0.0
 11
133.678185
 21
319.168954
 31
0.0
  0
LINE
  5
484
330
1F
100
AcDbEntity
  8
LC-001-100-D00-0
 62
     7
370
    50
100
AcDbLine
 10
136.678185
 20
319.168954
 30
0.0
 11
136.678187
 21
315.418955
 31
0.0
  0
LINE
  5
485
330
1F
100
AcDbEntity
  8
LC-001-100-D00-0
 62
     7
370
    50
100
AcDbLine
 10
126.678185
 20
266.418954
 30
0.0
 11
139.678186
 21
266.418956
 31
0.0
  0
ARC
  5
486
330
1F
100
AcDbEntity
  8
LC-001-100-D00-0
 62
     7
370
    50
100
AcDbCircle
 10
119.696065
 20
266.918954
 30
0.0
 40
7.0
100
AcDbArc
 50
270.0
 51
355.903956
  0
LINE
  5
487
330
1F
100
AcDbEntity
  8
LC-001-100-D00-0
 62
     7
370
    50
100
AcDbLine
 10
119.696065
 20
259.918954
 30
0.0
 11
11.660305
 21
259.918954
 31
0.0
  0
ARC
  5
488
330
1F
100
AcDbEntity
  8
LC-001-100-D00-0
 62
     7
370
    50
100
AcDbCircle
 10
11.660305
 20
266.918954
 30
0.0
 40
7.000000000000074
100
AcDbArc
 50
184.096044
 51
270.0
  0
LINE
  5
489
330
1F
100
AcDbEntity
  8
LC-001-100-D00-0
 62
     7
370
    50
100
AcDbLine
 10
4.178185
 20
266.418954
 30
0.0
 11
4.678185
 21
266.418954
 31
0.0
  0
ARC
  5
48A
330
1F
100
AcDbEntity
  8
LC-001-100-D00-0
 62
     7
370
    50
100
AcDbCircle
 10
4.178185
 20
278.918954
 30
0.0
 40
12.5
100
AcDbArc
 50
180.0
 51
270.0
  0
LINE
  5
48B
330
1F
100
AcDbEntity
  8
LC-001-100-D00-0
 62
     7
370
    50
100
AcDbLine
 10
-8.321815
 20
278.918954
 30
0.0
 11
-8.321816
 21
319.168953
 31
0.0
  0
LINE
  5
48C
330
1F
100
AcDbEntity
  8
LC-001-100-D00-0
 62
     7
370
    50
100
AcDbLine
 10
-8.321816
 20
319.168953
 30
0.0
 11
-5.321815
 21
319.168954
 31
0.0
  0
LINE
  5
48D
330
1F
100
AcDbEntity
  8
LC-001-100-D00-0
 62
     7
370
    50
100
AcDbLine
 10
-5.321815
 20
278.918954
 30
0.0
 11
-5.321815
 21
319.168954
 31
0.0
  0
ARC
  5
48E
330
1F
100
AcDbEntity
  8
LC-001-100-D00-0
 62
     7
370
    50
100
AcDbCircle
 10
4.178185
 20
278.918954
 30
0.0
 40
9.500000000000114
100
AcDbArc
 50
180.0
 51
270.0
  0
LINE
  5
48F
330
1F
100
AcDbEntity
  8
LC-001-100-D00-0
 62
     7
370
    50
100
AcDbLine
 10
4.178185
 20
269.418954
 30
0.0
 11
6.678185
 21
269.418954
 31
0.0
  0
ARC
  5
490
330
1F
100
AcDbEntity
  8
LC-001-100-D00-0
 62
     7
370
    50
100
AcDbCircle
 10
6.678185
 20
268.418954
 30
0.0
 40
1.0
100
AcDbArc
 50
0.0
 51
90.0
  0
LINE
  5
491
330
1F
100
AcDbEntity
  8
LC-001-100-D00-0
 62
     7
370
    50
100
AcDbLine
 10
7.678185
 20
268.418954
 30
0.0
 11
7.678185
 21
266.918954
 31
0.0
  0
ARC
  5
492
330
1F
100
AcDbEntity
  8
LC-001-100-D00-0
 62
     7
370
    50
100
AcDbCircle
 10
11.678185
 20
266.918954
 30
0.0
 40
4.0
100
AcDbArc
 50
180.0
 51
270.0
  0
LINE
  5
493
330
1F
100
AcDbEntity
  8
LC-001-100-D00-0
 62
     7
370
    50
100
AcDbLine
 10
119.678185
 20
262.918954
 30
0.0
 11
11.678185
 21
262.918954
 31
0.0
  0
ARC
  5
494
330
1F
100
AcDbEntity
  8
LC-001-100-D00-0
 62
     7
370
    50
100
AcDbCircle
 10
119.678185
 20
266.918954
 30
0.0
 40
4.0
100
AcDbArc
 50
270.0
 51
0.0
  0
LINE
  5
495
330
1F
100
AcDbEntity
  8
LC-001-100-D00-0
 62
     7
370
    50
100
AcDbLine
 10
123.678185
 20
266.918954
 30
0.0
 11
123.678185
 21
268.418954
 31
0.0
  0
ARC
  5
496
330
1F
100
AcDbEntity
  8
LC-001-100-D00-0
 62
     7
370
    50
100
AcDbCircle
 10
124.678185
 20
268.418954
 30
0.0
 40
1.0
100
AcDbArc
 50
90.0
 51
180.0
  0
LINE
  5
497
330
1F
100
AcDbEntity
  8
LC-001-100-D00-0
 62
     7
370
    50
100
AcDbLine
 10
124.678185
 20
269.418954
 30
0.0
 11
139.678186
 21
269.418955
 31
0.0
  0
LINE
  5
498
330
1F
100
AcDbEntity
  8
LC-001-100-D00-0
 62
     7
370
    50
100
AcDbLine
 10
184.175371
 20
267.918438
 30
0.0
 11
178.575371
 21
269.418954
 31
0.0
  0
LINE
  5
499
330
1F
100
AcDbEntity
  8
LC-001-100-D00-0
 62
     7
370
    50
100
AcDbLine
 10
184.175371
 20
267.484699
 30
0.0
 11
184.175371
 21
267.918438
 31
0.0
  0
ARC
  5
49A
330
1F
100
AcDbEntity
  8
LC-001-100-D00-0
 62
     7
370
    50
100
AcDbCircle
 10
183.675413
 20
267.484699
 30
0.0
 40
0.4999578796800281
100
AcDbArc
 50
301.198872
 51
0.0
  0
ARC
  5
49B
330
1F
100
AcDbEntity
  8
LC-001-100-D00-0
 62
     7
370
    50
100
AcDbCircle
 10
168.576688
 20
292.416764
 30
0.0
 40
29.64750216706078
100
AcDbArc
 50
292.382556
 51
301.198872
  0
ARC
  5
49C
330
1F
100
AcDbEntity
  8
LC-001-100-D00-0
 62
     7
370
    50
100
AcDbCircle
 10
179.675749
 20
265.465137
 30
0.0
 40
0.4999578796802098
100
AcDbArc
 50
180.0
 51
292.382556
  0
LINE
  5
49D
330
1F
100
AcDbEntity
  8
LC-001-100-D00-0
 62
     7
370
    50
100
AcDbLine
 10
179.175791
 20
266.768996
 30
0.0
 11
179.175791
 21
265.465137
 31
0.0
  0
ARC
  5
49E
330
1F
100
AcDbEntity
  8
LC-001-100-D00-0
 62
     7
370
    50
100
AcDbCircle
 10
178.675833
 20
266.768996
 30
0.0
 40
0.4999578796802098
100
AcDbArc
 50
0.0
 51
90.0
  0
LINE
  5
49F
330
1F
100
AcDbEntity
  8
LC-001-100-D00-0
 62
     7
370
    50
100
AcDbLine
 10
175.176128
 20
267.268954
 30
0.0
 11
178.675833
 21
267.268954
 31
0.0
  0
ARC
  5
4A0
330
1F
100
AcDbEntity
  8
LC-001-100-D00-0
 62
     7
370
    50
100
AcDbCircle
 10
175.176128
 20
266.768996
 30
0.0
 40
0.4999578796798687
100
AcDbArc
 50
90.0
 51
180.0
  0
LINE
  5
4A1
330
1F
100
AcDbEntity
  8
LC-001-100-D00-0
 62
     7
370
    50
100
AcDbLine
 10
174.67617
 20
263.812135
 30
0.0
 11
174.67617
 21
266.768996
 31
0.0
  0
ARC
  5
4A2
330
1F
100
AcDbEntity
  8
LC-001-100-D00-0
 62
     7
370
    50
100
AcDbCircle
 10
174.176213
 20
263.812135
 30
0.0
 40
0.4999578796799141
100
AcDbArc
 50
281.075925
 51
0.0
  0
ARC
  5
4A3
330
1F
100
AcDbEntity
  8
LC-001-100-D00-0
 62
     7
370
    50
100
AcDbCircle
 10
168.576688
 20
292.416764
 30
0.0
 40
29.64750432250037
100
AcDbArc
 50
241.270296
 51
281.075925
  0
LINE
  5
4A4
330
1F
100
AcDbEntity
  8
LC-001-100-D00-0
 62
     7
370
    50
100
AcDbLine
 10
153.177982
 20
266.418956
 30
0.0
 11
154.32578
 21
266.418954
 31
0.0
  0
LINE
  5
4A5
330
1F
100
AcDbEntity
  8
LC-001-100-D00-0
 62
     7
370
    50
100
AcDbLine
 10
153.177982
 20
264.918953
 30
0.0
 11
153.177982
 21
266.418956
 31
0.0
  0
LINE
  5
4A6
330
1F
100
AcDbEntity
  8
LC-001-100-D00-0
 62
     7
370
    50
100
AcDbLine
 10
150.678186
 20
264.918953
 30
0.0
 11
153.177982
 21
264.918953
 31
0.0
  0
LINE
  5
4A7
330
1F
100
AcDbEntity
  8
LC-001-100-D00-0
 62
     7
370
    50
100
AcDbLine
 10
150.678186
 20
266.418956
 30
0.0
 11
150.678186
 21
264.918953
 31
0.0
  0
ARC
  5
4A8
330
1F
100
AcDbEntity
  8
LC-001-100-D00-0
 62
     7
370
    50
100
AcDbCircle
 10
168.576688
 20
292.421144
 30
0.0
 40
29.64750216706075
100
AcDbArc
 50
58.801128
 51
67.617444
  0
ARC
  5
4A9
330
1F
100
AcDbEntity
  8
LC-001-100-D00-0
 62
     7
370
    50
100
AcDbCircle
 10
183.675413
 20
317.353209
 30
0.0
 40
0.4999578796798687
100
AcDbArc
 50
0.0
 51
58.801128
  0
ARC
  5
4AA
330
1F
100
AcDbEntity
  8
LC-001-100-D00-0
 62
     7
370
    50
100
AcDbCircle
 10
178.675833
 20
318.068912
 30
0.0
 40
0.4999578796803235
100
AcDbArc
 50
270.0
 51
0.0
  0
LINE
  5
4AB
330
1F
100
AcDbEntity
  8
LC-001-100-D00-0
 62
     7
370
    50
100
AcDbLine
 10
179.175791
 20
319.372771
 30
0.0
 11
179.175791
 21
318.068912
 31
0.0
  0
ARC
  5
4AC
330
1F
100
AcDbEntity
  8
LC-001-100-D00-0
 62
     7
370
    50
100
AcDbCircle
 10
179.675749
 20
319.372771
 30
0.0
 40
0.4999578796801971
100
AcDbArc
 50
67.617444
 51
180.0
  0
LINE
  5
4AD
330
1F
100
AcDbEntity
  8
LC-001-100-D00-0
 62
     7
370
    50
100
AcDbLine
 10
184.175371
 20
316.919469
 30
0.0
 11
184.175371
 21
317.353209
 31
0.0
  0
LINE
  5
4AE
330
1F
100
AcDbEntity
  8
LC-001-100-D00-0
 62
     7
370
    50
100
AcDbLine
 10
178.575371
 20
315.418954
 30
0.0
 11
184.175371
 21
316.919469
 31
0.0
  0
LINE
  5
4AF
330
1F
100
AcDbEntity
  8
LC-001-100-D00-0
 62
     7
370
    50
100
AcDbLine
 10
136.678185
 20
319.168954
 30
0.0
 11
139.678186
 21
319.168953
 31
0.0
  0
LINE
  5
4B0
330
1F
100
AcDbEntity
  8
LC-001-100-D00-0
 62
     7
370
    50
100
AcDbLine
 10
150.678186
 20
319.918955
 30
0.0
 11
150.678186
 21
318.418953
 31
0.0
  0
LINE
  5
4B1
330
1F
100
AcDbEntity
  8
LC-001-100-D00-0
 62
     7
370
    50
100
AcDbLine
 10
153.177982
 20
319.918954
 30
0.0
 11
150.678186
 21
319.918955
 31
0.0
  0
ARC
  5
4B2
330
1F
100
AcDbEntity
  8
LC-001-100-D00-0
 62
     7
370
    50
100
AcDbCircle
 10
168.540273
 20
292.418954
 30
0.0
 40
31.50000000000017
100
AcDbArc
 50
105.394857
 51
119.188982
  0
LINE
  5
4B3
330
1F
100
AcDbEntity
  8
LC-001-100-D00-0
 62
     7
370
    50
100
AcDbLine
 10
160.177982
 20
322.78871
 30
0.0
 11
160.177982
 21
320.854157
 31
0.0
  0
ARC
  5
4B4
330
1F
100
AcDbEntity
  8
LC-001-100-D00-0
 62
     7
370
    50
100
AcDbCircle
 10
168.576688
 20
292.421144
 30
0.0
 40
29.6475043225003
100
AcDbArc
 50
78.924075
 51
106.456389
  0
ARC
  5
4B5
330
1F
100
AcDbEntity
  8
LC-001-100-D00-0
 62
     7
370
    50
100
AcDbCircle
 10
174.176213
 20
321.025773
 30
0.0
 40
0.4999578796800961
100
AcDbArc
 50
0.0
 51
78.924075
  0
LINE
  5
4B6
330
1F
100
AcDbEntity
  8
LC-001-100-D00-0
 62
     7
370
    50
100
AcDbLine
 10
174.67617
 20
318.068912
 30
0.0
 11
174.67617
 21
321.025773
 31
0.0
  0
ARC
  5
4B7
330
1F
100
AcDbEntity
  8
LC-001-100-D00-0
 62
     7
370
    50
100
AcDbCircle
 10
175.176128
 20
318.068912
 30
0.0
 40
0.4999578796799824
100
AcDbArc
 50
180.0
 51
270.0
  0
LINE
  5
4B8
330
1F
100
AcDbEntity
  8
LC-001-100-D00-0
 62
     7
370
    50
100
AcDbLine
 10
178.675833
 20
317.568954
 30
0.0
 11
175.176128
 21
317.568954
 31
0.0
  0
LINE
  5
4B9
330
1F
100
AcDbEntity
  8
LC-001-100-D00-0
 62
     7
370
    50
100
AcDbLine
 10
184.175371
 20
316.919469
 30
0.0
 11
184.175371
 21
267.918438
 31
0.0
  0
LINE
  5
4BA
330
1F
100
AcDbEntity
  8
LC-001-100-D00-0
 62
     7
370
    50
100
AcDbLine
 10
110.111805
 20
269.418954
 30
0.0
 11
124.678185
 21
269.418954
 31
0.0
  0
LINE
  5
4BB
330
1F
100
AcDbEntity
  8
LC-001-100-D00-0
 62
     7
370
    50
100
AcDbLine
 10
6.678185
 20
269.418954
 30
0.0
 11
21.244565
 21
269.418954
 31
0.0
  0
LINE
  5
4BC
330
1F
100
AcDbEntity
  8
LC-001-100-D00-0
 62
     7
370
    50
100
AcDbLine
 10
-2.321815
 20
319.168954
 30
0.0
 11
-5.321815
 21
319.168954
 31
0.0
  0
LINE
  5
4BD
330
1F
100
AcDbEntity
  8
LC-001-100-D00-0
 62
     7
370
    50
100
AcDbLine
 10
107.66731
 20
269.418954
 30
0.0
 11
110.111805
 21
269.418954
 31
0.0
  0
LINE
  5
4BE
330
1F
100
AcDbEntity
  8
LC-001-100-D00-0
 62
     7
370
    50
100
AcDbLine
 10
21.244565
 20
269.418954
 30
0.0
 11
23.68906
 21
269.418954
 31
0.0
  0
LINE
  5
4BF
330
1F
100
AcDbEntity
  8
LC-001-100-D00-0
 62
     7
370
    50
100
AcDbLine
 10
23.68906
 20
269.418954
 30
0.0
 11
24.678184
 21
269.418955
 31
0.0
  0
LINE
  5
4C0
330
1F
100
AcDbEntity
  8
LC-001-100-D00-0
 62
     7
370
    50
100
AcDbLine
 10
106.678186
 20
269.418955
 30
0.0
 11
107.66731
 21
269.418954
 31
0.0
  0
CIRCLE
  5
4C1
330
1F
100
AcDbEntity
  8
LC-001-100-D00-0
 62
     7
370
    50
100
AcDbCircle
 10
119.928185
 20
320.668954
 30
0.0
 40
1.749999999999886
  0
CIRCLE
  5
4C2
330
1F
100
AcDbEntity
  8
LC-001-100-D00-0
 62
     7
370
    50
100
AcDbCircle
 10
11.428185
 20
320.668954
 30
0.0
 40
1.750000000000114
  0
LINE
  5
4C3
330
1F
100
AcDbEntity
  8
LC-001-100-D00-0
 62
     7
370
    50
100
AcDbLine
 10
120.178184
 20
322.418954
 30
0.0
 11
120.178184
 21
323.918953
 31
0.0
  0
LINE
  5
4C4
330
1F
100
AcDbEntity
  8
LC-001-100-D00-0
 62
     7
370
    50
100
AcDbLine
 10
118.178183
 20
322.418954
 30
0.0
 11
120.178184
 21
322.418954
 31
0.0
  0
LINE
  5
4C5
330
1F
100
AcDbEntity
  8
LC-001-100-D00-0
 62
     7
370
    50
100
AcDbLine
 10
118.178183
 20
322.418954
 30
0.0
 11
118.178183
 21
318.918954
 31
0.0
  0
LINE
  5
4C6
330
1F
100
AcDbEntity
  8
LC-001-100-D00-0
 62
     7
370
    50
100
AcDbLine
 10
118.178183
 20
318.918954
 30
0.0
 11
120.178184
 21
318.918954
 31
0.0
  0
LINE
  5
4C7
330
1F
100
AcDbEntity
  8
LC-001-100-D00-0
 62
     7
370
    50
100
AcDbLine
 10
120.178184
 20
318.918954
 30
0.0
 11
120.178184
 21
317.918952
 31
0.0
  0
LINE
  5
4C8
330
1F
100
AcDbEntity
  8
LC-001-100-D00-0
 62
     7
370
    50
100
AcDbLine
 10
104.678185
 20
317.918954
 30
0.0
 11
120.178184
 21
317.918952
 31
0.0
  0
ARC
  5
4C9
330
1F
100
AcDbEntity
  8
LC-001-100-D00-0
 62
     7
370
    50
100
AcDbCircle
 10
104.678185
 20
307.918954
 30
0.0
 40
10.0
100
AcDbArc
 50
90.0
 51
180.0
  0
LINE
  5
4CA
330
1F
100
AcDbEntity
  8
LC-001-100-D00-0
 62
     7
370
    50
100
AcDbLine
 10
94.678185
 20
307.918954
 30
0.0
 11
94.678184
 21
278.418951
 31
0.0
  0
LINE
  5
4CB
330
1F
100
AcDbEntity
  8
LC-001-100-D00-0
 62
     7
370
    50
100
AcDbLine
 10
93.178185
 20
278.418954
 30
0.0
 11
94.678184
 21
278.418951
 31
0.0
  0
LINE
  5
4CC
330
1F
100
AcDbEntity
  8
LC-001-100-D00-0
 62
     7
370
    50
100
AcDbLine
 10
93.178185
 20
321.918954
 30
0.0
 11
93.178185
 21
278.418954
 31
0.0
  0
ARC
  5
4CD
330
1F
100
AcDbEntity
  8
LC-001-100-D00-0
 62
     7
370
    50
100
AcDbCircle
 10
95.178185
 20
321.918954
 30
0.0
 40
2.0
100
AcDbArc
 50
90.0
 51
180.0
  0
LINE
  5
4CE
330
1F
100
AcDbEntity
  8
LC-001-100-D00-0
 62
     7
370
    50
100
AcDbLine
 10
95.178185
 20
323.918954
 30
0.0
 11
120.178184
 21
323.918953
 31
0.0
  0
LINE
  5
4CF
330
1F
100
AcDbEntity
  8
LC-001-100-D00-0
 62
     7
370
    50
100
AcDbLine
 10
77.178185
 20
323.918954
 30
0.0
 11
95.178185
 21
323.918954
 31
0.0
  0
LINE
  5
4D0
330
1F
100
AcDbEntity
  8
LC-001-100-D00-0
 62
     7
370
    50
100
AcDbLine
 10
77.178185
 20
278.418954
 30
0.0
 11
93.178185
 21
278.418954
 31
0.0
  0
LINE
  5
4D1
330
1F
100
AcDbEntity
  8
LC-001-100-D00-0
 62
     7
370
    50
100
AcDbLine
 10
36.678186
 20
278.418951
 30
0.0
 11
36.678185
 21
307.918954
 31
0.0
  0
ARC
  5
4D2
330
1F
100
AcDbEntity
  8
LC-001-100-D00-0
 62
     7
370
    50
100
AcDbCircle
 10
36.178185
 20
321.918954
 30
0.0
 40
2.000000000000114
100
AcDbArc
 50
0.0
 51
90.0
  0
LINE
  5
4D3
330
1F
100
AcDbEntity
  8
LC-001-100-D00-0
 62
     7
370
    50
100
AcDbLine
 10
36.178185
 20
323.918954
 30
0.0
 11
54.178185
 21
323.918954
 31
0.0
  0
LINE
  5
4D4
330
1F
100
AcDbEntity
  8
LC-001-100-D00-0
 62
     7
370
    50
100
AcDbLine
 10
38.178185
 20
278.418954
 30
0.0
 11
38.178185
 21
321.918954
 31
0.0
  0
LINE
  5
4D5
330
1F
100
AcDbEntity
  8
LC-001-100-D00-0
 62
     7
370
    50
100
AcDbLine
 10
38.178185
 20
278.418954
 30
0.0
 11
54.178185
 21
278.418954
 31
0.0
  0
ARC
  5
4D6
330
1F
100
AcDbEntity
  8
LC-001-100-D00-0
 62
     7
370
    50
100
AcDbCircle
 10
26.678185
 20
307.918954
 30
0.0
 40
10.0
100
AcDbArc
 50
0.0
 51
90.0
  0
LINE
  5
4D7
330
1F
100
AcDbEntity
  8
LC-001-100-D00-0
 62
     7
370
    50
100
AcDbLine
 10
11.178186
 20
317.918952
 30
0.0
 11
11.178186
 21
318.918954
 31
0.0
  0
LINE
  5
4D8
330
1F
100
AcDbEntity
  8
LC-001-100-D00-0
 62
     7
370
    50
100
AcDbLine
 10
13.178187
 20
318.918954
 30
0.0
 11
13.178187
 21
322.418954
 31
0.0
  0
LINE
  5
4D9
330
1F
100
AcDbEntity
  8
LC-001-100-D00-0
 62
     7
370
    50
100
AcDbLine
 10
11.178186
 20
323.918953
 30
0.0
 11
11.178186
 21
322.418954
 31
0.0
  0
LINE
  5
4DA
330
1F
100
AcDbEntity
  8
LC-001-100-D00-0
 62
     7
370
    50
100
AcDbLine
 10
36.678186
 20
278.418951
 30
0.0
 11
38.178185
 21
278.418954
 31
0.0
  0
LINE
  5
4DB
330
1F
100
AcDbEntity
  8
LC-001-100-D00-0
 62
     7
370
    50
100
AcDbLine
 10
11.178186
 20
318.918954
 30
0.0
 11
13.178187
 21
318.918954
 31
0.0
  0
LINE
  5
4DC
330
1F
100
AcDbEntity
  8
LC-001-100-D00-0
 62
     7
370
    50
100
AcDbLine
 10
11.178186
 20
322.418954
 30
0.0
 11
13.178187
 21
322.418954
 31
0.0
  0
LINE
  5
4DD
330
1F
100
AcDbEntity
  8
LC-001-100-D00-0
 62
     7
370
    50
100
AcDbLine
 10
11.178186
 20
323.918953
 30
0.0
 11
36.178185
 21
323.918954
 31
0.0
  0
LINE
  5
4DE
330
1F
100
AcDbEntity
  8
LC-001-100-D00-0
 62
     7
370
    50
100
AcDbLine
 10
11.178186
 20
317.918952
 30
0.0
 11
26.678185
 21
317.918954
 31
0.0
  0
LINE
  5
4DF
330
1F
100
AcDbEntity
  8
LC-001-100-D00-0
 62
     7
370
    50
100
AcDbLine
 10
54.178185
 20
323.918954
 30
0.0
 11
77.178185
 21
323.918954
 31
0.0
  0
LINE
  5
4E0
330
1F
100
AcDbEntity
  8
LC-001-100-D00-0
 62
     7
370
    50
100
AcDbLine
 10
54.178185
 20
278.418954
 30
0.0
 11
77.178185
 21
278.418954
 31
0.0
  0
LINE
  5
4E1
330
1F
100
AcDbEntity
  8
LC-001-100-D00-0
 62
     7
370
    50
100
AcDbLine
 10
120.778185
 20
317.918954
 30
0.0
 11
120.778185
 21
315.918954
 31
0.0
  0
LINE
  5
4E2
330
1F
100
AcDbEntity
  8
LC-001-100-D00-0
 62
     7
370
    50
100
AcDbLine
 10
106.678186
 20
308.418956
 30
0.0
 11
116.61387
 21
315.724605
 31
0.0
  0
LINE
  5
4E3
330
1F
100
AcDbEntity
  8
LC-001-100-D00-0
 62
     7
370
    50
100
AcDbLine
 10
106.678186
 20
308.418956
 30
0.0
 11
106.678185
 21
267.418954
 31
0.0
  0
ARC
  5
4E4
330
1F
100
AcDbEntity
  8
LC-001-100-D00-0
 62
     7
370
    50
100
AcDbCircle
 10
101.678185
 20
267.418954
 30
0.0
 40
5.0
100
AcDbArc
 50
270.0
 51
0.0
  0
LINE
  5
4E5
330
1F
100
AcDbEntity
  8
LC-001-100-D00-0
 62
     7
370
    50
100
AcDbLine
 10
101.678185
 20
262.418954
 30
0.0
 11
29.678185
 21
262.418954
 31
0.0
  0
ARC
  5
4E6
330
1F
100
AcDbEntity
  8
LC-001-100-D00-0
 62
     7
370
    50
100
AcDbCircle
 10
29.678185
 20
267.418954
 30
0.0
 40
5.0
100
AcDbArc
 50
180.0
 51
270.0
  0
LINE
  5
4E7
330
1F
100
AcDbEntity
  8
LC-001-100-D00-0
 62
     7
370
    50
100
AcDbLine
 10
24.678185
 20
267.418954
 30
0.0
 11
24.678184
 21
308.418956
 31
0.0
  0
LINE
  5
4E8
330
1F
100
AcDbEntity
  8
LC-001-100-D00-0
 62
     7
370
    50
100
AcDbLine
 10
24.678184
 20
308.418956
 30
0.0
 11
14.7425
 21
315.724605
 31
0.0
  0
ARC
  5
4E9
330
1F
100
AcDbEntity
  8
LC-001-100-D00-0
 62
     7
370
    50
100
AcDbCircle
 10
14.150109
 20
314.918954
 30
0.0
 40
1.000000000000062
100
AcDbArc
 50
53.673174
 51
90.0
  0
LINE
  5
4EA
330
1F
100
AcDbEntity
  8
LC-001-100-D00-0
 62
     7
370
    50
100
AcDbLine
 10
10.578185
 20
315.918954
 30
0.0
 11
14.150109
 21
315.918954
 31
0.0
  0
LINE
  5
4EB
330
1F
100
AcDbEntity
  8
LC-001-100-D00-0
 62
     7
370
    50
100
AcDbLine
 10
10.578185
 20
315.918954
 30
0.0
 11
10.578185
 21
317.918954
 31
0.0
  0
LINE
  5
4EC
330
1F
100
AcDbEntity
  8
LC-001-100-D00-0
 62
     7
370
    50
100
AcDbLine
 10
10.578185
 20
317.918954
 30
0.0
 11
14.150109
 21
317.918954
 31
0.0
  0
ARC
  5
4ED
330
1F
100
AcDbEntity
  8
LC-001-100-D00-0
 62
     7
370
    50
100
AcDbCircle
 10
14.150109
 20
314.918954
 30
0.0
 40
2.999999999999908
100
AcDbArc
 50
53.673174
 51
90.0
  0
LINE
  5
4EE
330
1F
100
AcDbEntity
  8
LC-001-100-D00-0
 62
     7
370
    50
100
AcDbLine
 10
15.92728
 20
317.335907
 30
0.0
 11
25.770575
 21
310.09819
 31
0.0
  0
ARC
  5
4EF
330
1F
100
AcDbEntity
  8
LC-001-100-D00-0
 62
     7
370
    50
100
AcDbCircle
 10
25.178185
 20
309.292539
 30
0.0
 40
1.0
100
AcDbArc
 50
0.0
 51
53.673174
  0
LINE
  5
4F0
330
1F
100
AcDbEntity
  8
LC-001-100-D00-0
 62
     7
370
    50
100
AcDbLine
 10
26.178185
 20
267.418954
 30
0.0
 11
26.178185
 21
309.292539
 31
0.0
  0
ARC
  5
4F1
330
1F
100
AcDbEntity
  8
LC-001-100-D00-0
 62
     7
370
    50
100
AcDbCircle
 10
29.678185
 20
267.418954
 30
0.0
 40
3.5
100
AcDbArc
 50
180.0
 51
270.0
  0
LINE
  5
4F2
330
1F
100
AcDbEntity
  8
LC-001-100-D00-0
 62
     7
370
    50
100
AcDbLine
 10
101.678185
 20
263.918954
 30
0.0
 11
29.678185
 21
263.918954
 31
0.0
  0
ARC
  5
4F3
330
1F
100
AcDbEntity
  8
LC-001-100-D00-0
 62
     7
370
    50
100
AcDbCircle
 10
101.678185
 20
267.418954
 30
0.0
 40
3.5
100
AcDbArc
 50
270.0
 51
0.0
  0
LINE
  5
4F4
330
1F
100
AcDbEntity
  8
LC-001-100-D00-0
 62
     7
370
    50
100
AcDbLine
 10
105.178185
 20
309.292539
 30
0.0
 11
105.178185
 21
267.418954
 31
0.0
  0
ARC
  5
4F5
330
1F
100
AcDbEntity
  8
LC-001-100-D00-0
 62
     7
370
    50
100
AcDbCircle
 10
106.178185
 20
309.292539
 30
0.0
 40
0.9999999999999467
100
AcDbArc
 50
126.326826
 51
180.0
  0
LINE
  5
4F6
330
1F
100
AcDbEntity
  8
LC-001-100-D00-0
 62
     7
370
    50
100
AcDbLine
 10
115.429089
 20
317.335907
 30
0.0
 11
105.585795
 21
310.09819
 31
0.0
  0
ARC
  5
4F7
330
1F
100
AcDbEntity
  8
LC-001-100-D00-0
 62
     7
370
    50
100
AcDbCircle
 10
117.206261
 20
314.918954
 30
0.0
 40
3.0
100
AcDbArc
 50
90.0
 51
126.326826
  0
LINE
  5
4F8
330
1F
100
AcDbEntity
  8
LC-001-100-D00-0
 62
     7
370
    50
100
AcDbLine
 10
117.206261
 20
315.918954
 30
0.0
 11
120.778185
 21
315.918954
 31
0.0
  0
ARC
  5
4F9
330
1F
100
AcDbEntity
  8
LC-001-100-D00-0
 62
     7
370
    50
100
AcDbCircle
 10
117.206261
 20
314.918954
 30
0.0
 40
1.000000000000227
100
AcDbArc
 50
90.0
 51
126.326826
  0
LINE
  5
4FA
330
1F
100
AcDbEntity
  8
LC-001-100-D00-0
 62
     7
370
    50
100
AcDbLine
 10
117.206261
 20
317.918954
 30
0.0
 11
120.778185
 21
317.918954
 31
0.0
  0
ARC
  5
4FB
330
1F
100
AcDbEntity
  8
LC-001-100-D00-0
 62
     7
370
    50
100
AcDbCircle
 10
106.171438
 20
309.287113
 30
0.0
 40
1.0003735734447
100
AcDbArc
 50
126.325165
 51
180.0
  0
LINE
  5
4FC
330
1F
100
AcDbEntity
  8
LC-001-100-D00-0
 62
     7
370
    50
100
AcDbLine
 10
105.578849
 20
310.093082
 30
0.0
 11
105.585795
 21
310.09819
 31
0.0
  0
LINE
  5
4FD
330
1F
100
AcDbEntity
  8
LC-001-100-D00-0
 62
     7
370
    50
100
AcDbLine
 10
105.171064
 20
308.418954
 30
0.0
 11
100.75758
 21
308.418954
 31
0.0
  0
LINE
  5
4FE
330
1F
100
AcDbEntity
  8
LC-001-100-D00-0
 62
     7
370
    50
100
AcDbLine
 10
105.171064
 20
309.287172
 30
0.0
 11
105.171064
 21
308.418954
 31
0.0
  0
LINE
  5
4FF
330
1F
100
AcDbEntity
  8
LC-001-100-D00-0
 62
     7
370
    50
100
AcDbLine
 10
26.185306
 20
309.287172
 30
0.0
 11
26.185306
 21
308.418954
 31
0.0
  0
LINE
  5
500
330
1F
100
AcDbEntity
  8
LC-001-100-D00-0
 62
     7
370
    50
100
AcDbLine
 10
30.59879
 20
308.418954
 30
0.0
 11
26.185306
 21
308.418954
 31
0.0
  0
ARC
  5
501
330
1F
100
AcDbEntity
  8
LC-001-100-D00-0
 62
     7
370
    50
100
AcDbCircle
 10
25.184959
 20
309.287127
 30
0.0
 40
1.000347039121152
100
AcDbArc
 50
0.0
 51
53.675603
  0
LINE
  5
502
330
1F
100
AcDbEntity
  8
LC-001-100-D00-0
 62
     7
370
    50
100
AcDbLine
 10
98.63062
 20
315.883059
 30
0.0
 11
98.63062
 21
308.418956
 31
0.0
  0
LINE
  5
503
330
1F
100
AcDbEntity
  8
LC-001-100-D00-0
 62
     7
370
    50
100
AcDbLine
 10
98.630618
 20
315.918954
 30
0.0
 11
105.3926
 21
315.918954
 31
0.0
  0
LINE
  5
504
330
1F
100
AcDbEntity
  8
LC-001-100-D00-0
 62
     7
370
    50
100
AcDbLine
 10
109.766051
 20
315.918954
 30
0.0
 11
113.502033
 21
315.918954
 31
0.0
  0
LINE
  5
505
330
1F
100
AcDbEntity
  8
LC-001-100-D00-0
 62
     7
370
    50
100
AcDbLine
 10
32.72575
 20
315.883059
 30
0.0
 11
32.72575
 21
308.418956
 31
0.0
  0
LINE
  5
506
330
1F
100
AcDbEntity
  8
LC-001-100-D00-0
 62
     7
370
    50
100
AcDbLine
 10
17.854337
 20
315.918954
 30
0.0
 11
21.590319
 21
315.918954
 31
0.0
  0
LINE
  5
507
330
1F
100
AcDbEntity
  8
LC-001-100-D00-0
 62
     7
370
    50
100
AcDbLine
 10
25.96377
 20
315.918954
 30
0.0
 11
32.725752
 21
315.918954
 31
0.0
  0
LINE
  5
508
330
1F
100
AcDbEntity
  8
LC-001-100-D00-0
 62
     7
370
    50
100
AcDbLine
 10
100.75758
 20
308.418954
 30
0.0
 11
94.690693
 21
308.418954
 31
0.0
  0
LINE
  5
509
330
1F
100
AcDbEntity
  8
LC-001-100-D00-0
 62
     7
370
    50
100
AcDbLine
 10
36.665677
 20
308.418954
 30
0.0
 11
30.59879
 21
308.418954
 31
0.0
  0
ARC
  5
50A
330
1F
100
AcDbEntity
  8
LC-001-100-D00-0
 62
     7
370
    50
100
AcDbCircle
 10
168.677982
 20
292.418954
 30
0.0
 40
32.00000000000025
100
AcDbArc
 50
51.375167
 51
90.0
  0
LINE
  5
50B
330
1F
100
AcDbEntity
  8
LC-001-100-D00-0
 62
     7
370
    50
100
AcDbLine
 10
188.652966
 20
317.418954
 30
0.0
 11
271.677977
 21
317.418955
 31
0.0
  0
LINE
  5
50C
330
1F
100
AcDbEntity
  8
LC-001-100-D00-0
 62
     7
370
    50
100
AcDbLine
 10
271.677977
 20
317.418955
 30
0.0
 11
275.177976
 21
316.481132
 31
0.0
  0
LINE
  5
50D
330
1F
100
AcDbEntity
  8
LC-001-100-D00-0
 62
     7
370
    50
100
AcDbLine
 10
275.177976
 20
316.481132
 30
0.0
 11
275.177982
 21
315.168954
 31
0.0
  0
LINE
  5
50E
330
1F
100
AcDbEntity
  8
LC-001-100-D00-0
 62
     7
370
    50
100
AcDbLine
 10
275.177982
 20
315.168954
 30
0.0
 11
187.457958
 21
315.168954
 31
0.0
  0
ARC
  5
50F
330
1F
100
AcDbEntity
  8
LC-001-100-D00-0
 62
     7
370
    50
100
AcDbCircle
 10
168.677982
 20
292.418954
 30
0.0
 40
29.50000000000015
100
AcDbArc
 50
50.46055
 51
104.235124
  0
ARC
  5
510
330
1F
100
AcDbEntity
  8
LC-001-100-D00-0
 62
     7
370
    50
100
AcDbCircle
 10
161.177982
 20
321.982445
 30
0.0
 40
1.000000000000114
100
AcDbArc
 50
180.0
 51
284.235124
  0
LINE
  5
511
330
1F
100
AcDbEntity
  8
LC-001-100-D00-0
 62
     7
370
    50
100
AcDbLine
 10
160.177982
 20
321.982445
 30
0.0
 11
160.177982
 21
324.418954
 31
0.0
  0
LINE
  5
512
330
1F
100
AcDbEntity
  8
LC-001-100-D00-0
 62
     7
370
    50
100
AcDbLine
 10
160.177982
 20
324.418954
 30
0.0
 11
168.677982
 21
324.418954
 31
0.0
  0
LINE
  5
513
330
1F
100
AcDbEntity
  8
LC-001-100-D00-0
 62
     7
370
    50
100
AcDbLine
 10
160.177982
 20
260.418951
 30
0.0
 11
160.177982
 21
262.855463
 31
0.0
  0
ARC
  5
514
330
1F
100
AcDbEntity
  8
LC-001-100-D00-0
 62
     7
370
    50
100
AcDbCircle
 10
161.177982
 20
262.855463
 30
0.0
 40
0.9999999999998909
100
AcDbArc
 50
75.764876
 51
180.0
  0
ARC
  5
515
330
1F
100
AcDbEntity
  8
LC-001-100-D00-0
 62
     7
370
    50
100
AcDbCircle
 10
168.677982
 20
292.418954
 30
0.0
 40
29.5
100
AcDbArc
 50
255.764876
 51
309.53945
  0
LINE
  5
516
330
1F
100
AcDbEntity
  8
LC-001-100-D00-0
 62
     7
370
    50
100
AcDbLine
 10
187.457958
 20
269.668954
 30
0.0
 11
275.177982
 21
269.668954
 31
0.0
  0
LINE
  5
517
330
1F
100
AcDbEntity
  8
LC-001-100-D00-0
 62
     7
370
    50
100
AcDbLine
 10
275.177982
 20
269.668954
 30
0.0
 11
275.177976
 21
268.356778
 31
0.0
  0
LINE
  5
518
330
1F
100
AcDbEntity
  8
LC-001-100-D00-0
 62
     7
370
    50
100
AcDbLine
 10
275.177976
 20
268.356778
 30
0.0
 11
271.677977
 21
267.418951
 31
0.0
  0
LINE
  5
519
330
1F
100
AcDbEntity
  8
LC-001-100-D00-0
 62
     7
370
    50
100
AcDbLine
 10
271.677977
 20
267.418951
 30
0.0
 11
188.652966
 21
267.418954
 31
0.0
  0
ARC
  5
51A
330
1F
100
AcDbEntity
  8
LC-001-100-D00-0
 62
     7
370
    50
100
AcDbCircle
 10
168.677982
 20
292.418954
 30
0.0
 40
32.0
100
AcDbArc
 50
270.0
 51
308.624833
  0
LINE
  5
51B
330
1F
100
AcDbEntity
  8
LC-001-100-D00-0
 62
     7
370
    50
100
AcDbLine
 10
168.677982
 20
260.418954
 30
0.0
 11
160.177982
 21
260.418951
 31
0.0
  0
LINE
  5
51C
330
1F
100
AcDbEntity
  8
LC-001-100-D00-0
 62
     7
370
    50
100
AcDbLine
 10
275.177982
 20
315.168954
 30
0.0
 11
275.177982
 21
269.668954
 31
0.0
  0
LINE
  5
51D
330
1F
100
AcDbEntity
  8
LC-001-100-D00-0
 62
     7
370
    50
100
AcDbLine
 10
187.457958
 20
315.168954
 30
0.0
 11
187.457958
 21
269.668954
 31
0.0
  0
LINE
  5
51E
330
1F
100
AcDbEntity
  8
LC-001-100-D00-0
 62
     7
370
    50
100
AcDbLine
 10
160.177982
 20
263.983751
 30
0.0
 11
160.177982
 21
262.855463
 31
0.0
  0
CIRCLE
  5
51F
330
1F
100
AcDbEntity
  8
LC-001-100-D00-0
 62
     7
370
    50
100
AcDbCircle
 10
176.925981
 20
319.418954
 30
0.0
 40
2.000000000000227
  0
CIRCLE
  5
520
330
1F
100
AcDbEntity
  8
LC-001-100-D00-0
 62
     7
370
    50
100
AcDbCircle
 10
176.925981
 20
265.418954
 30
0.0
 40
2.000000000000227
  0
LINE
  5
521
330
1F
100
AcDbEntity
  8
LC-001-100-D00-0
 62
     7
370
    50
100
AcDbLine
 10
159.020523
 20
327.833769
 30
0.0
 11
141.186851
 21
323.055251
 31
0.0
  0
ARC
  5
522
330
1F
100
AcDbEntity
  8
LC-001-100-D00-0
 62
     7
370
    50
100
AcDbCircle
 10
140.151575
 20
326.918954
 30
0.0
 40
4.0
100
AcDbArc
 50
270.0
 51
285.0
  0
LINE
  5
523
330
1F
100
AcDbEntity
  8
LC-001-100-D00-0
 62
     7
370
    50
100
AcDbLine
 10
140.151575
 20
322.918954
 30
0.0
 11
123.478185
 21
322.918954
 31
0.0
  0
ARC
  5
524
330
1F
100
AcDbEntity
  8
LC-001-100-D00-0
 62
     7
370
    50
100
AcDbCircle
 10
123.478185
 20
321.918954
 30
0.0
 40
1.0
100
AcDbArc
 50
90.0
 51
180.0
  0
LINE
  5
525
330
1F
100
AcDbEntity
  8
LC-001-100-D00-0
 62
     7
370
    50
100
AcDbLine
 10
122.478185
 20
321.918954
 30
0.0
 11
122.478185
 21
317.918952
 31
0.0
  0
LINE
  5
526
330
1F
100
AcDbEntity
  8
LC-001-100-D00-0
 62
     7
370
    50
100
AcDbLine
 10
122.478185
 20
317.918952
 30
0.0
 11
120.978185
 21
317.918954
 31
0.0
  0
LINE
  5
527
330
1F
100
AcDbEntity
  8
LC-001-100-D00-0
 62
     7
370
    50
100
AcDbLine
 10
120.978185
 20
321.918954
 30
0.0
 11
120.978185
 21
317.918954
 31
0.0
  0
ARC
  5
528
330
1F
100
AcDbEntity
  8
LC-001-100-D00-0
 62
     7
370
    50
100
AcDbCircle
 10
123.478185
 20
321.918954
 30
0.0
 40
2.5
100
AcDbArc
 50
90.0
 51
180.0
  0
LINE
  5
529
330
1F
100
AcDbEntity
  8
LC-001-100-D00-0
 62
     7
370
    50
100
AcDbLine
 10
140.151575
 20
324.418954
 30
0.0
 11
123.478185
 21
324.418954
 31
0.0
  0
ARC
  5
52A
330
1F
100
AcDbEntity
  8
LC-001-100-D00-0
 62
     7
370
    50
100
AcDbCircle
 10
140.151575
 20
326.918954
 30
0.0
 40
2.500000000000227
100
AcDbArc
 50
270.0
 51
285.0
  0
LINE
  5
52B
330
1F
100
AcDbEntity
  8
LC-001-100-D00-0
 62
     7
370
    50
100
AcDbLine
 10
158.632294
 20
329.282657
 30
0.0
 11
140.798623
 21
324.504139
 31
0.0
  0
ARC
  5
52C
330
1F
100
AcDbEntity
  8
LC-001-100-D00-0
 62
     7
370
    50
100
AcDbCircle
 10
159.66757
 20
325.418954
 30
0.0
 40
4.000000000000227
100
AcDbArc
 50
90.0
 51
105.0
  0
LINE
  5
52D
330
1F
100
AcDbEntity
  8
LC-001-100-D00-0
 62
     7
370
    50
100
AcDbLine
 10
159.66757
 20
329.418954
 30
0.0
 11
161.178185
 21
329.418953
 31
0.0
  0
LINE
  5
52E
330
1F
100
AcDbEntity
  8
LC-001-100-D00-0
 62
     7
370
    50
100
AcDbLine
 10
161.178185
 20
329.418953
 30
0.0
 11
161.178185
 21
330.818955
 31
0.0
  0
LINE
  5
52F
330
1F
100
AcDbEntity
  8
LC-001-100-D00-0
 62
     7
370
    50
100
AcDbLine
 10
161.678185
 20
330.818954
 30
0.0
 11
161.178185
 21
330.818955
 31
0.0
  0
ARC
  5
530
330
1F
100
AcDbEntity
  8
LC-001-100-D00-0
 62
     7
370
    50
100
AcDbCircle
 10
160.678185
 20
332.318954
 30
0.0
 40
1.802775637732121
100
AcDbArc
 50
303.690068
 51
56.309932
  0
LINE
  5
531
330
1F
100
AcDbEntity
  8
LC-001-100-D00-0
 62
     7
370
    50
100
AcDbLine
 10
161.678186
 20
348.418954
 30
0.0
 11
161.678185
 21
333.818954
 31
0.0
  0
LINE
  5
532
330
1F
100
AcDbEntity
  8
LC-001-100-D00-0
 62
     7
370
    50
100
AcDbLine
 10
162.678188
 20
349.418954
 30
0.0
 11
161.678186
 21
348.418954
 31
0.0
  0
LINE
  5
533
330
1F
100
AcDbEntity
  8
LC-001-100-D00-0
 62
     7
370
    50
100
AcDbLine
 10
168.678185
 20
349.418954
 30
0.0
 11
162.678188
 21
349.418954
 31
0.0
  0
LINE
  5
534
330
1F
100
AcDbEntity
  8
LC-001-100-D00-0
 62
     7
370
    50
100
AcDbLine
 10
169.678187
 20
348.418954
 30
0.0
 11
168.678185
 21
349.418954
 31
0.0
  0
LINE
  5
535
330
1F
100
AcDbEntity
  8
LC-001-100-D00-0
 62
     7
370
    50
100
AcDbLine
 10
169.678185
 20
333.818954
 30
0.0
 11
169.678187
 21
348.418954
 31
0.0
  0
ARC
  5
536
330
1F
100
AcDbEntity
  8
LC-001-100-D00-0
 62
     7
370
    50
100
AcDbCircle
 10
170.678185
 20
332.318954
 30
0.0
 40
1.802775637731932
100
AcDbArc
 50
123.690068
 51
236.309932
  0
LINE
  5
537
330
1F
100
AcDbEntity
  8
LC-001-100-D00-0
 62
     7
370
    50
100
AcDbLine
 10
170.178188
 20
330.818955
 30
0.0
 11
169.678185
 21
330.818954
 31
0.0
  0
LINE
  5
538
330
1F
100
AcDbEntity
  8
LC-001-100-D00-0
 62
     7
370
    50
100
AcDbLine
 10
170.178188
 20
330.818955
 30
0.0
 11
170.178188
 21
329.418953
 31
0.0
  0
LINE
  5
539
330
1F
100
AcDbEntity
  8
LC-001-100-D00-0
 62
     7
370
    50
100
AcDbLine
 10
170.178188
 20
329.418953
 30
0.0
 11
296.178183
 21
329.418953
 31
0.0
  0
LINE
  5
53A
330
1F
100
AcDbEntity
  8
LC-001-100-D00-0
 62
     7
370
    50
100
AcDbLine
 10
296.178183
 20
329.418953
 30
0.0
 11
296.178183
 21
330.818955
 31
0.0
  0
LINE
  5
53B
330
1F
100
AcDbEntity
  8
LC-001-100-D00-0
 62
     7
370
    50
100
AcDbLine
 10
296.678185
 20
330.818954
 30
0.0
 11
296.178183
 21
330.818955
 31
0.0
  0
ARC
  5
53C
330
1F
100
AcDbEntity
  8
LC-001-100-D00-0
 62
     7
370
    50
100
AcDbCircle
 10
295.678185
 20
332.318954
 30
0.0
 40
1.802775637732121
100
AcDbArc
 50
303.690068
 51
56.309932
  0
LINE
  5
53D
330
1F
100
AcDbEntity
  8
LC-001-100-D00-0
 62
     7
370
    50
100
AcDbLine
 10
296.678191
 20
348.418954
 30
0.0
 11
296.678185
 21
333.818954
 31
0.0
  0
LINE
  5
53E
330
1F
100
AcDbEntity
  8
LC-001-100-D00-0
 62
     7
370
    50
100
AcDbLine
 10
297.678178
 20
349.418954
 30
0.0
 11
296.678191
 21
348.418954
 31
0.0
  0
LINE
  5
53F
330
1F
100
AcDbEntity
  8
LC-001-100-D00-0
 62
     7
370
    50
100
AcDbLine
 10
303.67819
 20
349.418954
 30
0.0
 11
297.678178
 21
349.418954
 31
0.0
  0
LINE
  5
540
330
1F
100
AcDbEntity
  8
LC-001-100-D00-0
 62
     7
370
    50
100
AcDbLine
 10
304.678178
 20
348.418954
 30
0.0
 11
303.67819
 21
349.418954
 31
0.0
  0
LINE
  5
541
330
1F
100
AcDbEntity
  8
LC-001-100-D00-0
 62
     7
370
    50
100
AcDbLine
 10
304.678185
 20
333.818954
 30
0.0
 11
304.678178
 21
348.418954
 31
0.0
  0
ARC
  5
542
330
1F
100
AcDbEntity
  8
LC-001-100-D00-0
 62
     7
370
    50
100
AcDbCircle
 10
305.678185
 20
332.318954
 30
0.0
 40
1.802775637731932
100
AcDbArc
 50
123.690068
 51
236.309932
  0
LINE
  5
543
330
1F
100
AcDbEntity
  8
LC-001-100-D00-0
 62
     7
370
    50
100
AcDbLine
 10
305.178186
 20
330.818955
 30
0.0
 11
304.678185
 21
330.818954
 31
0.0
  0
LINE
  5
544
330
1F
100
AcDbEntity
  8
LC-001-100-D00-0
 62
     7
370
    50
100
AcDbLine
 10
305.178186
 20
330.818955
 30
0.0
 11
305.178186
 21
329.418953
 31
0.0
  0
LINE
  5
545
330
1F
100
AcDbEntity
  8
LC-001-100-D00-0
 62
     7
370
    50
100
AcDbLine
 10
305.178186
 20
329.418953
 30
0.0
 11
431.178188
 21
329.418953
 31
0.0
  0
LINE
  5
546
330
1F
100
AcDbEntity
  8
LC-001-100-D00-0
 62
     7
370
    50
100
AcDbLine
 10
431.178188
 20
329.418953
 30
0.0
 11
431.178188
 21
330.818955
 31
0.0
  0
LINE
  5
547
330
1F
100
AcDbEntity
  8
LC-001-100-D00-0
 62
     7
370
    50
100
AcDbLine
 10
431.678185
 20
330.818954
 30
0.0
 11
431.178188
 21
330.818955
 31
0.0
  0
ARC
  5
548
330
1F
100
AcDbEntity
  8
LC-001-100-D00-0
 62
     7
370
    50
100
AcDbCircle
 10
430.678185
 20
332.318954
 30
0.0
 40
1.802775637732121
100
AcDbArc
 50
303.690068
 51
56.309932
  0
LINE
  5
549
330
1F
100
AcDbEntity
  8
LC-001-100-D00-0
 62
     7
370
    50
100
AcDbLine
 10
431.678182
 20
348.418954
 30
0.0
 11
431.678185
 21
333.818954
 31
0.0
  0
LINE
  5
54A
330
1F
100
AcDbEntity
  8
LC-001-100-D00-0
 62
     7
370
    50
100
AcDbLine
 10
432.678199
 20
349.418954
 30
0.0
 11
431.678182
 21
348.418954
 31
0.0
  0
LINE
  5
54B
330
1F
100
AcDbEntity
  8
LC-001-100-D00-0
 62
     7
370
    50
100
AcDbLine
 10
438.678181
 20
349.418954
 30
0.0
 11
432.678199
 21
349.418954
 31
0.0
  0
LINE
  5
54C
330
1F
100
AcDbEntity
  8
LC-001-100-D00-0
 62
     7
370
    50
100
AcDbLine
 10
439.678198
 20
348.418954
 30
0.0
 11
438.678181
 21
349.418954
 31
0.0
  0
LINE
  5
54D
330
1F
100
AcDbEntity
  8
LC-001-100-D00-0
 62
     7
370
    50
100
AcDbLine
 10
439.678185
 20
333.818954
 30
0.0
 11
439.678198
 21
348.418954
 31
0.0
  0
ARC
  5
54E
330
1F
100
AcDbEntity
  8
LC-001-100-D00-0
 62
     7
370
    50
100
AcDbCircle
 10
440.678185
 20
332.318954
 30
0.0
 40
1.802775637731932
100
AcDbArc
 50
123.690068
 51
236.309932
  0
LINE
  5
54F
330
1F
100
AcDbEntity
  8
LC-001-100-D00-0
 62
     7
370
    50
100
AcDbLine
 10
440.178191
 20
330.818955
 30
0.0
 11
439.678185
 21
330.818954
 31
0.0
  0
LINE
  5
550
330
1F
100
AcDbEntity
  8
LC-001-100-D00-0
 62
     7
370
    50
100
AcDbLine
 10
440.178191
 20
330.818955
 30
0.0
 11
440.178191
 21
329.418953
 31
0.0
  0
LINE
  5
551
330
1F
100
AcDbEntity
  8
LC-001-100-D00-0
 62
     7
370
    50
100
AcDbLine
 10
440.178191
 20
329.418953
 30
0.0
 11
457.678185
 21
329.418954
 31
0.0
  0
ARC
  5
552
330
1F
100
AcDbEntity
  8
LC-001-100-D00-0
 62
     7
370
    50
100
AcDbCircle
 10
457.678185
 20
337.418954
 30
0.0
 40
7.999999999999773
100
AcDbArc
 50
270.0
 51
0.0
  0
LINE
  5
553
330
1F
100
AcDbEntity
  8
LC-001-100-D00-0
 62
     7
370
    50
100
AcDbLine
 10
465.678185
 20
337.418954
 30
0.0
 11
465.678185
 21
346.918954
 31
0.0
  0
ARC
  5
554
330
1F
100
AcDbEntity
  8
LC-001-100-D00-0
 62
     7
370
    50
100
AcDbCircle
 10
468.678185
 20
346.918954
 30
0.0
 40
3.0
100
AcDbArc
 50
90.0
 51
180.0
  0
LINE
  5
555
330
1F
100
AcDbEntity
  8
LC-001-100-D00-0
 62
     7
370
    50
100
AcDbLine
 10
515.678173
 20
349.918954
 30
0.0
 11
468.678185
 21
349.918954
 31
0.0
  0
LINE
  5
556
330
1F
100
AcDbEntity
  8
LC-001-100-D00-0
 62
     7
370
    50
100
AcDbLine
 10
515.678173
 20
348.418954
 30
0.0
 11
515.678173
 21
349.918954
 31
0.0
  0
LINE
  5
557
330
1F
100
AcDbEntity
  8
LC-001-100-D00-0
 62
     7
370
    50
100
AcDbLine
 10
515.678173
 20
348.418954
 30
0.0
 11
468.678185
 21
348.418954
 31
0.0
  0
ARC
  5
558
330
1F
100
AcDbEntity
  8
LC-001-100-D00-0
 62
     7
370
    50
100
AcDbCircle
 10
468.678185
 20
346.918954
 30
0.0
 40
1.5
100
AcDbArc
 50
90.0
 51
180.0
  0
LINE
  5
559
330
1F
100
AcDbEntity
  8
LC-001-100-D00-0
 62
     7
370
    50
100
AcDbLine
 10
467.178185
 20
337.418954
 30
0.0
 11
467.178185
 21
346.918954
 31
0.0
  0
ARC
  5
55A
330
1F
100
AcDbEntity
  8
LC-001-100-D00-0
 62
     7
370
    50
100
AcDbCircle
 10
457.678185
 20
337.418954
 30
0.0
 40
9.5
100
AcDbArc
 50
270.0
 51
0.0
  0
LINE
  5
55B
330
1F
100
AcDbEntity
  8
LC-001-100-D00-0
 62
     7
370
    50
100
AcDbLine
 10
159.66757
 20
327.918954
 30
0.0
 11
457.678185
 21
327.918954
 31
0.0
  0
ARC
  5
55C
330
1F
100
AcDbEntity
  8
LC-001-100-D00-0
 62
     7
370
    50
100
AcDbCircle
 10
159.66757
 20
325.418954
 30
0.0
 40
2.5
100
AcDbArc
 50
90.0
 51
105.0
  0
LINE
  5
55D
330
1F
100
AcDbEntity
  8
LC-001-100-D00-0
 62
     7
370
    50
100
AcDbLine
 10
110.072069
 20
324.418954
 30
0.0
 11
123.478185
 21
324.418954
 31
0.0
  0
LINE
  5
55E
330
1F
100
AcDbEntity
  8
LC-001-100-D00-0
 62
     7
370
    50
100
AcDbLine
 10
120.978185
 20
317.918954
 30
0.0
 11
120.778185
 21
317.918954
 31
0.0
  0
LINE
  5
55F
330
1F
100
AcDbEntity
  8
LC-001-100-D00-0
 62
     7
370
    50
100
AcDbLine
 10
10.578185
 20
317.918954
 30
0.0
 11
10.378185
 21
317.918954
 31
0.0
  0
LINE
  5
560
330
1F
100
AcDbEntity
  8
LC-001-100-D00-0
 62
     7
370
    50
100
AcDbLine
 10
10.378185
 20
317.918954
 30
0.0
 11
10.378185
 21
321.918954
 31
0.0
  0
LINE
  5
561
330
1F
100
AcDbEntity
  8
LC-001-100-D00-0
 62
     7
370
    50
100
AcDbLine
 10
8.878185
 20
317.918952
 30
0.0
 11
8.878185
 21
321.918954
 31
0.0
  0
LINE
  5
562
330
1F
100
AcDbEntity
  8
LC-001-100-D00-0
 62
     7
370
    50
100
AcDbLine
 10
-299.821818
 20
330.818955
 30
0.0
 11
-300.321815
 21
330.818954
 31
0.0
  0
LINE
  5
563
330
1F
100
AcDbEntity
  8
LC-001-100-D00-0
 62
     7
370
    50
100
AcDbLine
 10
-299.821818
 20
330.818955
 30
0.0
 11
-299.821818
 21
329.418953
 31
0.0
  0
LINE
  5
564
330
1F
100
AcDbEntity
  8
LC-001-100-D00-0
 62
     7
370
    50
100
AcDbLine
 10
-299.821818
 20
329.418953
 30
0.0
 11
-173.821816
 21
329.418953
 31
0.0
  0
LINE
  5
565
330
1F
100
AcDbEntity
  8
LC-001-100-D00-0
 62
     7
370
    50
100
AcDbLine
 10
-173.821816
 20
329.418953
 30
0.0
 11
-173.821816
 21
330.818955
 31
0.0
  0
LINE
  5
566
330
1F
100
AcDbEntity
  8
LC-001-100-D00-0
 62
     7
370
    50
100
AcDbLine
 10
-173.321815
 20
330.818954
 30
0.0
 11
-173.821816
 21
330.818955
 31
0.0
  0
ARC
  5
567
330
1F
100
AcDbEntity
  8
LC-001-100-D00-0
 62
     7
370
    50
100
AcDbCircle
 10
-174.321815
 20
332.318954
 30
0.0
 40
1.802775637732058
100
AcDbArc
 50
303.690068
 51
56.309932
  0
LINE
  5
568
330
1F
100
AcDbEntity
  8
LC-001-100-D00-0
 62
     7
370
    50
100
AcDbLine
 10
-173.321808
 20
348.418954
 30
0.0
 11
-173.321815
 21
333.818954
 31
0.0
  0
LINE
  5
569
330
1F
100
AcDbEntity
  8
LC-001-100-D00-0
 62
     7
370
    50
100
AcDbLine
 10
-172.321821
 20
349.418954
 30
0.0
 11
-173.321808
 21
348.418954
 31
0.0
  0
LINE
  5
56A
330
1F
100
AcDbEntity
  8
LC-001-100-D00-0
 62
     7
370
    50
100
AcDbLine
 10
-166.321808
 20
349.418954
 30
0.0
 11
-172.321821
 21
349.418954
 31
0.0
  0
LINE
  5
56B
330
1F
100
AcDbEntity
  8
LC-001-100-D00-0
 62
     7
370
    50
100
AcDbLine
 10
-165.321821
 20
348.418954
 30
0.0
 11
-166.321808
 21
349.418954
 31
0.0
  0
LINE
  5
56C
330
1F
100
AcDbEntity
  8
LC-001-100-D00-0
 62
     7
370
    50
100
AcDbLine
 10
-165.321815
 20
333.818954
 30
0.0
 11
-165.321821
 21
348.418954
 31
0.0
  0
ARC
  5
56D
330
1F
100
AcDbEntity
  8
LC-001-100-D00-0
 62
     7
370
    50
100
AcDbCircle
 10
-164.321815
 20
332.318954
 30
0.0
 40
1.802775637731868
100
AcDbArc
 50
123.690068
 51
236.309932
  0
LINE
  5
56E
330
1F
100
AcDbEntity
  8
LC-001-100-D00-0
 62
     7
370
    50
100
AcDbLine
 10
-164.821813
 20
330.818955
 30
0.0
 11
-165.321815
 21
330.818954
 31
0.0
  0
LINE
  5
56F
330
1F
100
AcDbEntity
  8
LC-001-100-D00-0
 62
     7
370
    50
100
AcDbLine
 10
-164.821813
 20
330.818955
 30
0.0
 11
-164.821813
 21
329.418953
 31
0.0
  0
LINE
  5
570
330
1F
100
AcDbEntity
  8
LC-001-100-D00-0
 62
     7
370
    50
100
AcDbLine
 10
-164.821813
 20
329.418953
 30
0.0
 11
-38.821818
 21
329.418953
 31
0.0
  0
LINE
  5
571
330
1F
100
AcDbEntity
  8
LC-001-100-D00-0
 62
     7
370
    50
100
AcDbLine
 10
-38.821818
 20
329.418953
 30
0.0
 11
-38.821818
 21
330.818955
 31
0.0
  0
LINE
  5
572
330
1F
100
AcDbEntity
  8
LC-001-100-D00-0
 62
     7
370
    50
100
AcDbLine
 10
-38.321815
 20
330.818954
 30
0.0
 11
-38.821818
 21
330.818955
 31
0.0
  0
ARC
  5
573
330
1F
100
AcDbEntity
  8
LC-001-100-D00-0
 62
     7
370
    50
100
AcDbCircle
 10
-39.321815
 20
332.318954
 30
0.0
 40
1.802775637732089
100
AcDbArc
 50
303.690068
 51
56.309932
  0
LINE
  5
574
330
1F
100
AcDbEntity
  8
LC-001-100-D00-0
 62
     7
370
    50
100
AcDbLine
 10
-38.321817
 20
348.418954
 30
0.0
 11
-38.321815
 21
333.818954
 31
0.0
  0
LINE
  5
575
330
1F
100
AcDbEntity
  8
LC-001-100-D00-0
 62
     7
370
    50
100
AcDbLine
 10
-37.321815
 20
349.418954
 30
0.0
 11
-38.321817
 21
348.418954
 31
0.0
  0
LINE
  5
576
330
1F
100
AcDbEntity
  8
LC-001-100-D00-0
 62
     7
370
    50
100
AcDbLine
 10
-31.321818
 20
349.418954
 30
0.0
 11
-37.321815
 21
349.418954
 31
0.0
  0
LINE
  5
577
330
1F
100
AcDbEntity
  8
LC-001-100-D00-0
 62
     7
370
    50
100
AcDbLine
 10
-30.321816
 20
348.418954
 30
0.0
 11
-31.321818
 21
349.418954
 31
0.0
  0
LINE
  5
578
330
1F
100
AcDbEntity
  8
LC-001-100-D00-0
 62
     7
370
    50
100
AcDbLine
 10
-30.321815
 20
333.818954
 30
0.0
 11
-30.321816
 21
348.418954
 31
0.0
  0
ARC
  5
579
330
1F
100
AcDbEntity
  8
LC-001-100-D00-0
 62
     7
370
    50
100
AcDbCircle
 10
-29.321815
 20
332.318954
 30
0.0
 40
1.802775637731868
100
AcDbArc
 50
123.690068
 51
236.309932
  0
LINE
  5
57A
330
1F
100
AcDbEntity
  8
LC-001-100-D00-0
 62
     7
370
    50
100
AcDbLine
 10
-29.821815
 20
330.818955
 30
0.0
 11
-30.321815
 21
330.818954
 31
0.0
  0
LINE
  5
57B
330
1F
100
AcDbEntity
  8
LC-001-100-D00-0
 62
     7
370
    50
100
AcDbLine
 10
-29.821815
 20
330.818955
 30
0.0
 11
-29.821815
 21
329.418953
 31
0.0
  0
LINE
  5
57C
330
1F
100
AcDbEntity
  8
LC-001-100-D00-0
 62
     7
370
    50
100
AcDbLine
 10
-29.821815
 20
329.418953
 30
0.0
 11
-28.3112
 21
329.418954
 31
0.0
  0
ARC
  5
57D
330
1F
100
AcDbEntity
  8
LC-001-100-D00-0
 62
     7
370
    50
100
AcDbCircle
 10
-28.3112
 20
325.418954
 30
0.0
 40
4.000000000000092
100
AcDbArc
 50
75.0
 51
90.0
  0
LINE
  5
57E
330
1F
100
AcDbEntity
  8
LC-001-100-D00-0
 62
     7
370
    50
100
AcDbLine
 10
-9.442253
 20
324.504139
 30
0.0
 11
-27.275924
 21
329.282657
 31
0.0
  0
ARC
  5
57F
330
1F
100
AcDbEntity
  8
LC-001-100-D00-0
 62
     7
370
    50
100
AcDbCircle
 10
-8.795205
 20
326.918954
 30
0.0
 40
2.500000000000062
100
AcDbArc
 50
255.0
 51
270.0
  0
LINE
  5
580
330
1F
100
AcDbEntity
  8
LC-001-100-D00-0
 62
     7
370
    50
100
AcDbLine
 10
-3.399024
 20
324.418954
 30
0.0
 11
-8.795205
 21
324.418954
 31
0.0
  0
LINE
  5
581
330
1F
100
AcDbEntity
  8
LC-001-100-D00-0
 62
     7
370
    50
100
AcDbLine
 10
-3.399024
 20
324.318955
 30
0.0
 11
-3.399024
 21
324.418954
 31
0.0
  0
LINE
  5
582
330
1F
100
AcDbEntity
  8
LC-001-100-D00-0
 62
     7
370
    50
100
AcDbLine
 10
-2.875188
 20
324.318955
 30
0.0
 11
-3.399024
 21
324.318955
 31
0.0
  0
LINE
  5
583
330
1F
100
AcDbEntity
  8
LC-001-100-D00-0
 62
     7
370
    50
100
AcDbLine
 10
-2.875188
 20
324.418954
 30
0.0
 11
-2.875188
 21
324.318955
 31
0.0
  0
LINE
  5
584
330
1F
100
AcDbEntity
  8
LC-001-100-D00-0
 62
     7
370
    50
100
AcDbLine
 10
-2.180943
 20
324.418954
 30
0.0
 11
-2.875188
 21
324.418954
 31
0.0
  0
LINE
  5
585
330
1F
100
AcDbEntity
  8
LC-001-100-D00-0
 62
     7
370
    50
100
AcDbLine
 10
-2.180943
 20
324.318955
 30
0.0
 11
-2.180943
 21
324.418954
 31
0.0
  0
LINE
  5
586
330
1F
100
AcDbEntity
  8
LC-001-100-D00-0
 62
     7
370
    50
100
AcDbLine
 10
-1.656594
 20
324.318955
 30
0.0
 11
-2.180943
 21
324.318955
 31
0.0
  0
LINE
  5
587
330
1F
100
AcDbEntity
  8
LC-001-100-D00-0
 62
     7
370
    50
100
AcDbLine
 10
-1.656594
 20
324.418954
 30
0.0
 11
-1.656594
 21
324.318955
 31
0.0
  0
LINE
  5
588
330
1F
100
AcDbEntity
  8
LC-001-100-D00-0
 62
     7
370
    50
100
AcDbLine
 10
7.878185
 20
324.418954
 30
0.0
 11
-1.656594
 21
324.418954
 31
0.0
  0
ARC
  5
589
330
1F
100
AcDbEntity
  8
LC-001-100-D00-0
 62
     7
370
    50
100
AcDbCircle
 10
7.878185
 20
321.918954
 30
0.0
 40
2.5
100
AcDbArc
 50
0.0
 51
90.0
  0
LINE
  5
58A
330
1F
100
AcDbEntity
  8
LC-001-100-D00-0
 62
     7
370
    50
100
AcDbLine
 10
10.378185
 20
317.918954
 30
0.0
 11
8.878185
 21
317.918952
 31
0.0
  0
ARC
  5
58B
330
1F
100
AcDbEntity
  8
LC-001-100-D00-0
 62
     7
370
    50
100
AcDbCircle
 10
7.878185
 20
321.918954
 30
0.0
 40
1.000000000000114
100
AcDbArc
 50
0.0
 51
90.0
  0
LINE
  5
58C
330
1F
100
AcDbEntity
  8
LC-001-100-D00-0
 62
     7
370
    50
100
AcDbLine
 10
7.878185
 20
322.918954
 30
0.0
 11
-8.795205
 21
322.918954
 31
0.0
  0
ARC
  5
58D
330
1F
100
AcDbEntity
  8
LC-001-100-D00-0
 62
     7
370
    50
100
AcDbCircle
 10
-8.795205
 20
326.918954
 30
0.0
 40
4.000000000000092
100
AcDbArc
 50
255.0
 51
270.0
  0
LINE
  5
58E
330
1F
100
AcDbEntity
  8
LC-001-100-D00-0
 62
     7
370
    50
100
AcDbLine
 10
-9.830481
 20
323.055251
 30
0.0
 11
-27.664153
 21
327.833769
 31
0.0
  0
ARC
  5
58F
330
1F
100
AcDbEntity
  8
LC-001-100-D00-0
 62
     7
370
    50
100
AcDbCircle
 10
-28.3112
 20
325.418954
 30
0.0
 40
2.500000000000062
100
AcDbArc
 50
75.0
 51
90.0
  0
LINE
  5
590
330
1F
100
AcDbEntity
  8
LC-001-100-D00-0
 62
     7
370
    50
100
AcDbLine
 10
-326.321815
 20
327.918954
 30
0.0
 11
-28.3112
 21
327.918954
 31
0.0
  0
ARC
  5
591
330
1F
100
AcDbEntity
  8
LC-001-100-D00-0
 62
     7
370
    50
100
AcDbCircle
 10
-326.321815
 20
337.418954
 30
0.0
 40
9.5
100
AcDbArc
 50
180.0
 51
270.0
  0
LINE
  5
592
330
1F
100
AcDbEntity
  8
LC-001-100-D00-0
 62
     7
370
    50
100
AcDbLine
 10
-335.821815
 20
346.918954
 30
0.0
 11
-335.821815
 21
337.418954
 31
0.0
  0
ARC
  5
593
330
1F
100
AcDbEntity
  8
LC-001-100-D00-0
 62
     7
370
    50
100
AcDbCircle
 10
-337.321815
 20
346.918954
 30
0.0
 40
1.500000000000114
100
AcDbArc
 50
0.0
 51
90.0
  0
LINE
  5
594
330
1F
100
AcDbEntity
  8
LC-001-100-D00-0
 62
     7
370
    50
100
AcDbLine
 10
-384.321803
 20
349.918954
 30
0.0
 11
-384.321803
 21
348.418954
 31
0.0
  0
ARC
  5
595
330
1F
100
AcDbEntity
  8
LC-001-100-D00-0
 62
     7
370
    50
100
AcDbCircle
 10
-337.321815
 20
346.918954
 30
0.0
 40
3.0
100
AcDbArc
 50
0.0
 51
90.0
  0
LINE
  5
596
330
1F
100
AcDbEntity
  8
LC-001-100-D00-0
 62
     7
370
    50
100
AcDbLine
 10
-334.321815
 20
346.918954
 30
0.0
 11
-334.321815
 21
337.418954
 31
0.0
  0
ARC
  5
597
330
1F
100
AcDbEntity
  8
LC-001-100-D00-0
 62
     7
370
    50
100
AcDbCircle
 10
-326.321815
 20
337.418954
 30
0.0
 40
8.0
100
AcDbArc
 50
180.0
 51
270.0
  0
LINE
  5
598
330
1F
100
AcDbEntity
  8
LC-001-100-D00-0
 62
     7
370
    50
100
AcDbLine
 10
-326.321815
 20
329.418954
 30
0.0
 11
-308.821821
 21
329.418953
 31
0.0
  0
LINE
  5
599
330
1F
100
AcDbEntity
  8
LC-001-100-D00-0
 62
     7
370
    50
100
AcDbLine
 10
-308.821821
 20
329.418953
 30
0.0
 11
-308.821821
 21
330.818955
 31
0.0
  0
LINE
  5
59A
330
1F
100
AcDbEntity
  8
LC-001-100-D00-0
 62
     7
370
    50
100
AcDbLine
 10
-308.321815
 20
330.818954
 30
0.0
 11
-308.821821
 21
330.818955
 31
0.0
  0
ARC
  5
59B
330
1F
100
AcDbEntity
  8
LC-001-100-D00-0
 62
     7
370
    50
100
AcDbCircle
 10
-309.321815
 20
332.318954
 30
0.0
 40
1.802775637732089
100
AcDbArc
 50
303.690068
 51
56.309932
  0
LINE
  5
59C
330
1F
100
AcDbEntity
  8
LC-001-100-D00-0
 62
     7
370
    50
100
AcDbLine
 10
-308.321828
 20
348.418954
 30
0.0
 11
-308.321815
 21
333.818954
 31
0.0
  0
LINE
  5
59D
330
1F
100
AcDbEntity
  8
LC-001-100-D00-0
 62
     7
370
    50
100
AcDbLine
 10
-307.321811
 20
349.418954
 30
0.0
 11
-308.321828
 21
348.418954
 31
0.0
  0
LINE
  5
59E
330
1F
100
AcDbEntity
  8
LC-001-100-D00-0
 62
     7
370
    50
100
AcDbLine
 10
-301.321829
 20
349.418954
 30
0.0
 11
-307.321811
 21
349.418954
 31
0.0
  0
LINE
  5
59F
330
1F
100
AcDbEntity
  8
LC-001-100-D00-0
 62
     7
370
    50
100
AcDbLine
 10
-300.321812
 20
348.418954
 30
0.0
 11
-301.321829
 21
349.418954
 31
0.0
  0
LINE
  5
5A0
330
1F
100
AcDbEntity
  8
LC-001-100-D00-0
 62
     7
370
    50
100
AcDbLine
 10
-300.321815
 20
333.818954
 30
0.0
 11
-300.321812
 21
348.418954
 31
0.0
  0
ARC
  5
5A1
330
1F
100
AcDbEntity
  8
LC-001-100-D00-0
 62
     7
370
    50
100
AcDbCircle
 10
-299.321815
 20
332.318954
 30
0.0
 40
1.8027756377319
100
AcDbArc
 50
123.690068
 51
236.309932
  0
LINE
  5
5A2
330
1F
100
AcDbEntity
  8
LC-001-100-D00-0
 62
     7
370
    50
100
AcDbLine
 10
-337.321815
 20
348.418954
 30
0.0
 11
-384.321803
 21
348.418954
 31
0.0
  0
LINE
  5
5A3
330
1F
100
AcDbEntity
  8
LC-001-100-D00-0
 62
     7
370
    50
100
AcDbLine
 10
-337.321815
 20
349.918954
 30
0.0
 11
-384.321803
 21
349.918954
 31
0.0
  0
LINE
  5
5A4
330
1F
100
AcDbEntity
  8
LC-001-100-D00-0
 62
     7
370
    50
100
AcDbLine
 10
21.284301
 20
324.418954
 30
0.0
 11
7.878185
 21
324.418954
 31
0.0
  0
LINE
  5
5A5
330
1F
100
AcDbEntity
  8
LC-001-100-D00-0
 62
     7
370
    50
100
AcDbLine
 10
-2.180943
 20
324.418954
 30
0.0
 11
-1.656594
 21
324.418954
 31
0.0
  0
LINE
  5
5A6
330
1F
100
AcDbEntity
  8
LC-001-100-D00-0
 62
     7
370
    50
100
AcDbLine
 10
-3.399024
 20
324.418954
 30
0.0
 11
-2.875188
 21
324.418954
 31
0.0
  0
ELLIPSE
  5
5A7
330
1F
100
AcDbEntity
  8
LC-001-100-D00-0
 62
     7
370
    50
100
AcDbEllipse
 10
320.700002
 20
325.418954
 30
0.0
 11
0.0
 21
-2.500000171661371
 31
0.0
210
0.0
220
0.0
230
1.0
 40
0.027578
 41
0.0000000000041225
 42
0.3217505543999042
  0
ELLIPSE
  5
5A8
330
1F
100
AcDbEntity
  8
LC-001-100-D00-0
 62
     7
370
    50
100
AcDbEllipse
 10
-189.343632
 20
325.418954
 30
0.0
 11
0.0
 21
-2.5
 31
0.0
210
0.0
220
0.0
230
0.9999999999999999
 40
0.027578
 41
5.96143475278332
 42
6.283185307179586
  0
LINE
  5
5A9
330
1F
100
AcDbEntity
  8
LC-001-100-D00-0
 62
     7
370
    50
100
AcDbLine
 10
320.67818
 20
327.790301
 30
0.0
 11
320.67818
 21
323.124913
 31
0.0
  0
LINE
  5
5AA
330
1F
100
AcDbEntity
  8
LC-001-100-D00-0
 62
     7
370
    50
100
AcDbLine
 10
-189.32181
 20
327.790301
 30
0.0
 11
-189.32181
 21
323.124913
 31
0.0
  0
INSERT
  5
5B4
330
1F
100
AcDbEntity
  8
LC-001-100-D00-0
 62
     7
370
    50
100
AcDbBlockReference
  2
KLON20
 10
0.0
 20
0.0
 30
0.0
  0
INSERT
  5
5BE
330
1F
100
AcDbEntity
  8
LC-001-100-D00-0
 62
     7
370
    50
100
AcDbBlockReference
  2
KLON21
 10
0.0
 20
0.0
 30
0.0
  0
LINE
  5
5BF
330
1F
100
AcDbEntity
  8
LC-001-100-D00-0
 62
     7
370
    50
100
AcDbLine
 10
320.67818
 20
322.918953
 30
0.0
 11
320.67815
 21
323.12422
 31
0.0
  0
LINE
  5
5C0
330
1F
100
AcDbEntity
  8
LC-001-100-D00-0
 62
     7
370
    50
100
AcDbLine
 10
320.67818
 20
322.918953
 30
0.0
 11
448.585874
 21
327.587118
 31
0.0
  0
LINE
  5
5C1
330
1F
100
AcDbEntity
  8
LC-001-100-D00-0
 62
     7
370
    50
100
AcDbLine
 10
-189.32181
 20
322.918953
 30
0.0
 11
-189.32178
 21
323.12422
 31
0.0
  0
LINE
  5
5C2
330
1F
100
AcDbEntity
  8
LC-001-100-D00-0
 62
     7
370
    50
100
AcDbLine
 10
-189.32181
 20
322.918953
 30
0.0
 11
-317.229504
 21
327.587118
 31
0.0
  0
LINE
  5
5C3
330
1F
100
AcDbEntity
  8
LC-001-100-D00-0
 62
     7
370
    50
100
AcDbLine
 10
107.464341
 20
315.918954
 30
0.0
 11
109.766051
 21
315.918954
 31
0.0
  0
LINE
  5
5C4
330
1F
100
AcDbEntity
  8
LC-001-100-D00-0
 62
     7
370
    50
100
AcDbLine
 10
110.8281
 20
314.418954
 30
0.0
 11
110.923687
 21
314.427014
 31
0.0
  0
LINE
  5
5C5
330
1F
100
AcDbEntity
  8
LC-001-100-D00-0
 62
     7
370
    50
100
AcDbLine
 10
110.8281
 20
314.418954
 30
0.0
 11
107.464341
 21
314.418954
 31
0.0
  0
LINE
  5
5C6
330
1F
100
AcDbEntity
  8
LC-001-100-D00-0
 62
     7
370
    50
100
AcDbLine
 10
20.432683
 20
314.427014
 30
0.0
 11
20.52827
 21
314.418954
 31
0.0
  0
LINE
  5
5C7
330
1F
100
AcDbEntity
  8
LC-001-100-D00-0
 62
     7
370
    50
100
AcDbLine
 10
21.590319
 20
315.918954
 30
0.0
 11
23.892029
 21
315.918954
 31
0.0
  0
LINE
  5
5C8
330
1F
100
AcDbEntity
  8
LC-001-100-D00-0
 62
     7
370
    50
100
AcDbLine
 10
23.892029
 20
314.418954
 30
0.0
 11
20.52827
 21
314.418954
 31
0.0
  0
LINE
  5
5C9
330
1F
100
AcDbEntity
  8
LC-001-100-D00-0
 62
     7
370
    50
100
AcDbLine
 10
107.464341
 20
315.918954
 30
0.0
 11
106.687413
 21
315.918954
 31
0.0
  0
LINE
  5
5CA
330
1F
100
AcDbEntity
  8
LC-001-100-D00-0
 62
     7
370
    50
100
AcDbLine
 10
107.464341
 20
314.418954
 30
0.0
 11
106.687413
 21
314.418954
 31
0.0
  0
LINE
  5
5CB
330
1F
100
AcDbEntity
  8
LC-001-100-D00-0
 62
     7
370
    50
100
AcDbLine
 10
23.892029
 20
315.918954
 30
0.0
 11
24.668957
 21
315.918954
 31
0.0
  0
LINE
  5
5CC
330
1F
100
AcDbEntity
  8
LC-001-100-D00-0
 62
     7
370
    50
100
AcDbLine
 10
23.892029
 20
314.418954
 30
0.0
 11
24.668957
 21
314.418954
 31
0.0
  0
LINE
  5
5CD
330
1F
100
AcDbEntity
  8
LC-001-100-D00-0
 62
     7
370
    50
100
AcDbLine
 10
140.151575
 20
322.918954
 30
0.0
 11
142.252175
 21
322.918953
 31
0.0
  0
LINE
  5
5CE
330
1F
100
AcDbEntity
  8
LC-001-100-D00-0
 62
     7
370
    50
100
AcDbLine
 10
-8.795205
 20
322.918954
 30
0.0
 11
-10.895805
 21
322.918953
 31
0.0
  0
LINE
  5
5CF
330
1F
100
AcDbEntity
  8
LC-001-100-D00-0
 62
     7
370
    50
100
AcDbLine
 10
105.416986
 20
315.918954
 30
0.0
 11
106.687413
 21
315.918954
 31
0.0
  0
LINE
  5
5D0
330
1F
100
AcDbEntity
  8
LC-001-100-D00-0
 62
     7
370
    50
100
AcDbLine
 10
106.687413
 20
314.418954
 30
0.0
 11
105.3926
 21
314.418954
 31
0.0
  0
LINE
  5
5D1
330
1F
100
AcDbEntity
  8
LC-001-100-D00-0
 62
     7
370
    50
100
AcDbLine
 10
24.668957
 20
315.918954
 30
0.0
 11
25.939383
 21
315.918954
 31
0.0
  0
LINE
  5
5D2
330
1F
100
AcDbEntity
  8
LC-001-100-D00-0
 62
     7
370
    50
100
AcDbLine
 10
25.96377
 20
314.418954
 30
0.0
 11
24.668957
 21
314.418954
 31
0.0
  0
LINE
  5
5D3
330
1F
100
AcDbEntity
  8
LC-001-100-D00-0
 62
     7
370
    50
100
AcDbLine
 10
142.252175
 20
322.918953
 30
0.0
 11
160.177982
 21
322.918953
 31
0.0
  0
LINE
  5
5D4
330
1F
100
AcDbEntity
  8
LC-001-100-D00-0
 62
     7
370
    50
100
AcDbLine
 10
178.360438
 20
322.918953
 30
0.0
 11
320.67818
 21
322.918953
 31
0.0
  0
LINE
  5
5D5
330
1F
100
AcDbEntity
  8
LC-001-100-D00-0
 62
     7
370
    50
100
AcDbLine
 10
-10.895805
 20
322.918953
 30
0.0
 11
-189.32181
 21
322.918953
 31
0.0
  0
ARC
  5
5D6
330
1F
100
AcDbEntity
  8
LC-001-100-D00-0
 62
     7
370
    50
100
AcDbCircle
 10
110.193813
 20
315.853105
 30
0.0
 40
1.602014939990651
100
AcDbArc
 50
297.103406
 51
2.355668
  0
INSERT
  5
5DF
330
1F
100
AcDbEntity
  8
LC-001-100-D00-0
 62
     7
370
    50
100
AcDbBlockReference
  2
KLON22
 10
0.0
 20
0.0
 30
0.0
  0
INSERT
  5
5EC
330
1F
100
AcDbEntity
  8
LC-001-100-D00-0
 62
     7
370
    50
100
AcDbBlockReference
  2
KLON23
 10
0.0
 20
0.0
 30
0.0
  0
INSERT
  5
5F9
330
1F
100
AcDbEntity
  8
LC-001-100-D00-0
 62
     7
370
    50
100
AcDbBlockReference
  2
KLON24
 10
0.0
 20
0.0
 30
0.0
  0
LINE
  5
5FA
330
1F
100
AcDbEntity
  8
LC-001-100-D00-0
 62
     7
370
    50
100
AcDbLine
 10
463.178185
 20
349.918954
 30
0.0
 11
468.678185
 21
349.918954
 31
0.0
  0
LINE
  5
5FB
330
1F
100
AcDbEntity
  8
LC-001-100-D00-0
 62
     7
370
    50
100
AcDbLine
 10
-331.821815
 20
349.918954
 30
0.0
 11
-337.321815
 21
349.918954
 31
0.0
  0
LINE
  5
5FC
330
1F
100
AcDbEntity
  8
LC-001-100-D00-0
 62
     7
370
    50
100
AcDbLine
 10
463.178185
 20
349.918954
 30
0.0
 11
452.928185
 21
349.918954
 31
0.0
  0
LINE
  5
5FD
330
1F
100
AcDbEntity
  8
LC-001-100-D00-0
 62
     7
370
    50
100
AcDbLine
 10
418.428185
 20
349.918954
 30
0.0
 11
317.928185
 21
349.918954
 31
0.0
  0
LINE
  5
5FE
330
1F
100
AcDbEntity
  8
LC-001-100-D00-0
 62
     7
370
    50
100
AcDbLine
 10
283.428185
 20
349.918954
 30
0.0
 11
182.928185
 21
349.918954
 31
0.0
  0
LINE
  5
5FF
330
1F
100
AcDbEntity
  8
LC-001-100-D00-0
 62
     7
370
    50
100
AcDbLine
 10
148.428185
 20
349.918954
 30
0.0
 11
-17.071815
 21
349.918954
 31
0.0
  0
LINE
  5
600
330
1F
100
AcDbEntity
  8
LC-001-100-D00-0
 62
     7
370
    50
100
AcDbLine
 10
-51.571815
 20
349.918954
 30
0.0
 11
-152.071815
 21
349.918954
 31
0.0
  0
LINE
  5
601
330
1F
100
AcDbEntity
  8
LC-001-100-D00-0
 62
     7
370
    50
100
AcDbLine
 10
-186.571815
 20
349.918954
 30
0.0
 11
-287.071815
 21
349.918954
 31
0.0
  0
LINE
  5
602
330
1F
100
AcDbEntity
  8
LC-001-100-D00-0
 62
     7
370
    50
100
AcDbLine
 10
-321.571815
 20
349.918954
 30
0.0
 11
-331.821815
 21
349.918954
 31
0.0
  0
ARC
  5
603
330
1F
100
AcDbEntity
  8
LC-001-100-D00-0
 62
     7
370
    50
100
AcDbCircle
 10
402.778185
 20
323.318954
 30
0.0
 40
2.0
100
AcDbArc
 50
180.0
 51
270.0
  0
LINE
  5
604
330
1F
100
AcDbEntity
  8
LC-001-100-D00-0
 62
     7
370
    50
100
AcDbLine
 10
402.778185
 20
321.318954
 30
0.0
 11
428.578185
 21
321.318954
 31
0.0
  0
ARC
  5
605
330
1F
100
AcDbEntity
  8
LC-001-100-D00-0
 62
     7
370
    50
100
AcDbCircle
 10
428.578185
 20
323.318954
 30
0.0
 40
2.0
100
AcDbArc
 50
270.0
 51
0.0
  0
LINE
  5
606
330
1F
100
AcDbEntity
  8
LC-001-100-D00-0
 62
     7
370
    50
100
AcDbLine
 10
430.578185
 20
323.318954
 30
0.0
 11
430.578178
 21
326.929903
 31
0.0
  0
LINE
  5
607
330
1F
100
AcDbEntity
  8
LC-001-100-D00-0
 62
     7
370
    50
100
AcDbLine
 10
432.578182
 20
327.002896
 30
0.0
 11
432.578185
 21
323.318954
 31
0.0
  0
ARC
  5
608
330
1F
100
AcDbEntity
  8
LC-001-100-D00-0
 62
     7
370
    50
100
AcDbCircle
 10
428.578185
 20
323.318954
 30
0.0
 40
4.0
100
AcDbArc
 50
270.0
 51
0.0
  0
LINE
  5
609
330
1F
100
AcDbEntity
  8
LC-001-100-D00-0
 62
     7
370
    50
100
AcDbLine
 10
428.578185
 20
319.318954
 30
0.0
 11
402.778185
 21
319.318954
 31
0.0
  0
ARC
  5
60A
330
1F
100
AcDbEntity
  8
LC-001-100-D00-0
 62
     7
370
    50
100
AcDbCircle
 10
402.778185
 20
323.318954
 30
0.0
 40
4.0
100
AcDbArc
 50
180.0
 51
270.0
  0
LINE
  5
60B
330
1F
100
AcDbEntity
  8
LC-001-100-D00-0
 62
     7
370
    50
100
AcDbLine
 10
398.778185
 20
323.318954
 30
0.0
 11
398.778176
 21
325.769318
 31
0.0
  0
LINE
  5
60C
330
1F
100
AcDbEntity
  8
LC-001-100-D00-0
 62
     7
370
    50
100
AcDbLine
 10
400.77818
 20
325.842311
 30
0.0
 11
400.778185
 21
323.318954
 31
0.0
  0
LINE
  5
60D
330
1F
100
AcDbEntity
  8
LC-001-100-D00-0
 62
     7
370
    50
100
AcDbLine
 10
-267.421815
 20
323.318954
 30
0.0
 11
-267.421806
 21
325.769318
 31
0.0
  0
ARC
  5
60E
330
1F
100
AcDbEntity
  8
LC-001-100-D00-0
 62
     7
370
    50
100
AcDbCircle
 10
-271.421815
 20
323.318954
 30
0.0
 40
4.0
100
AcDbArc
 50
270.0
 51
0.0
  0
LINE
  5
60F
330
1F
100
AcDbEntity
  8
LC-001-100-D00-0
 62
     7
370
    50
100
AcDbLine
 10
-297.221815
 20
319.318954
 30
0.0
 11
-271.421815
 21
319.318954
 31
0.0
  0
ARC
  5
610
330
1F
100
AcDbEntity
  8
LC-001-100-D00-0
 62
     7
370
    50
100
AcDbCircle
 10
-297.221815
 20
323.318954
 30
0.0
 40
4.000000000000057
100
AcDbArc
 50
180.0
 51
270.0
  0
LINE
  5
611
330
1F
100
AcDbEntity
  8
LC-001-100-D00-0
 62
     7
370
    50
100
AcDbLine
 10
-301.221812
 20
327.002896
 30
0.0
 11
-301.221815
 21
323.318954
 31
0.0
  0
LINE
  5
612
330
1F
100
AcDbEntity
  8
LC-001-100-D00-0
 62
     7
370
    50
100
AcDbLine
 10
-299.221815
 20
323.318954
 30
0.0
 11
-299.221808
 21
326.929903
 31
0.0
  0
ARC
  5
613
330
1F
100
AcDbEntity
  8
LC-001-100-D00-0
 62
     7
370
    50
100
AcDbCircle
 10
-297.221815
 20
323.318954
 30
0.0
 40
2.000000000000114
100
AcDbArc
 50
180.0
 51
270.0
  0
LINE
  5
614
330
1F
100
AcDbEntity
  8
LC-001-100-D00-0
 62
     7
370
    50
100
AcDbLine
 10
-271.421815
 20
321.318954
 30
0.0
 11
-297.221815
 21
321.318954
 31
0.0
  0
ARC
  5
615
330
1F
100
AcDbEntity
  8
LC-001-100-D00-0
 62
     7
370
    50
100
AcDbCircle
 10
-271.421815
 20
323.318954
 30
0.0
 40
2.0
100
AcDbArc
 50
270.0
 51
0.0
  0
LINE
  5
616
330
1F
100
AcDbEntity
  8
LC-001-100-D00-0
 62
     7
370
    50
100
AcDbLine
 10
-269.42181
 20
325.842311
 30
0.0
 11
-269.421815
 21
323.318954
 31
0.0
  0
LINE
  5
617
330
1F
100
AcDbEntity
  8
LC-001-100-D00-0
 62
     7
370
    50
100
AcDbLine
 10
417.513913
 20
223.418958
 30
0.0
 11
406.836247
 21
223.418958
 31
0.0
  0
LINE
  5
618
330
1F
100
AcDbEntity
  8
LC-001-100-D00-0
 62
     7
370
    50
100
AcDbLine
 10
417.513913
 20
223.418958
 30
0.0
 11
424.546069
 21
223.418958
 31
0.0
  0
LINE
  5
619
330
1F
100
AcDbEntity
  8
LC-001-100-D00-0
 62
     7
370
    50
100
AcDbLine
 10
406.377903
 20
215.418954
 30
0.0
 11
406.178185
 21
215.418954
 31
0.0
  0
LINE
  5
61A
330
1F
100
AcDbEntity
  8
LC-001-100-D00-0
 62
     7
370
    50
100
AcDbLine
 10
425.178185
 20
215.418954
 30
0.0
 11
406.377903
 21
215.418954
 31
0.0
  0
LINE
  5
61B
330
1F
100
AcDbEntity
  8
LC-001-100-D00-0
 62
     7
370
    50
100
AcDbLine
 10
-282.486075
 20
223.418958
 30
0.0
 11
-293.163741
 21
223.418958
 31
0.0
  0
LINE
  5
61C
330
1F
100
AcDbEntity
  8
LC-001-100-D00-0
 62
     7
370
    50
100
AcDbLine
 10
-282.486075
 20
223.418958
 30
0.0
 11
-275.453919
 21
223.418958
 31
0.0
  0
LINE
  5
61D
330
1F
100
AcDbEntity
  8
LC-001-100-D00-0
 62
     7
370
    50
100
AcDbLine
 10
-293.622097
 20
215.418954
 30
0.0
 11
-293.821815
 21
215.418954
 31
0.0
  0
LINE
  5
61E
330
1F
100
AcDbEntity
  8
LC-001-100-D00-0
 62
     7
370
    50
100
AcDbLine
 10
-274.821815
 20
215.418954
 30
0.0
 11
-293.622097
 21
215.418954
 31
0.0
  0
LINE
  5
61F
330
1F
100
AcDbEntity
  8
LC-001-100-D00-0
 62
     7
370
    50
100
AcDbLine
 10
-275.321815
 20
317.418954
 30
0.0
 11
-281.435067
 21
317.418955
 31
0.0
  0
LINE
  5
620
330
1F
100
AcDbEntity
  8
LC-001-100-D00-0
 62
     7
370
    50
100
AcDbLine
 10
-287.208581
 20
317.418955
 30
0.0
 11
-293.321815
 21
317.418954
 31
0.0
  0
LINE
  5
621
330
1F
100
AcDbEntity
  8
LC-001-100-D00-0
 62
     7
370
    50
100
AcDbLine
 10
-281.435064
 20
292.418954
 30
0.0
 11
-287.208566
 21
292.418954
 31
0.0
  0
LINE
  5
622
330
1F
100
AcDbEntity
  8
LC-001-100-D00-0
 62
     7
370
    50
100
AcDbLine
 10
-287.208566
 20
292.418954
 30
0.0
 11
-293.270744
 21
292.418954
 31
0.0
  0
LINE
  5
623
330
1F
100
AcDbEntity
  8
LC-001-100-D00-0
 62
     7
370
    50
100
AcDbLine
 10
-270.532996
 20
319.418954
 30
0.0
 11
-269.321815
 21
319.418954
 31
0.0
  0
LINE
  5
624
330
1F
100
AcDbEntity
  8
LC-001-100-D00-0
 62
     7
370
    50
100
AcDbLine
 10
-269.321815
 20
319.418954
 30
0.0
 11
-269.321815
 21
317.418954
 31
0.0
  0
LINE
  5
625
330
1F
100
AcDbEntity
  8
LC-001-100-D00-0
 62
     7
370
    50
100
AcDbLine
 10
-269.321815
 20
317.418954
 30
0.0
 11
-275.321815
 21
317.418954
 31
0.0
  0
LINE
  5
626
330
1F
100
AcDbEntity
  8
LC-001-100-D00-0
 62
     7
370
    50
100
AcDbLine
 10
-275.372886
 20
292.418954
 30
0.0
 11
-281.435064
 21
292.418954
 31
0.0
  0
LINE
  5
627
330
1F
100
AcDbEntity
  8
LC-001-100-D00-0
 62
     7
370
    50
100
AcDbLine
 10
-299.321815
 20
317.418954
 30
0.0
 11
-299.321815
 21
319.418954
 31
0.0
  0
LINE
  5
628
330
1F
100
AcDbEntity
  8
LC-001-100-D00-0
 62
     7
370
    50
100
AcDbLine
 10
-293.321815
 20
317.418954
 30
0.0
 11
-299.321815
 21
317.418954
 31
0.0
  0
LINE
  5
629
330
1F
100
AcDbEntity
  8
LC-001-100-D00-0
 62
     7
370
    50
100
AcDbLine
 10
-299.321815
 20
319.418954
 30
0.0
 11
-298.110634
 21
319.418954
 31
0.0
  0
LINE
  5
62A
330
1F
100
AcDbEntity
  8
LC-001-100-D00-0
 62
     7
370
    50
100
AcDbLine
 10
-272.486135
 20
292.418954
 30
0.0
 11
-275.372886
 21
292.418954
 31
0.0
  0
LINE
  5
62B
330
1F
100
AcDbEntity
  8
LC-001-100-D00-0
 62
     7
370
    50
100
AcDbLine
 10
-293.270744
 20
292.418954
 30
0.0
 11
-296.157496
 21
292.418954
 31
0.0
  0
LINE
  5
62C
330
1F
100
AcDbEntity
  8
LC-001-100-D00-0
 62
     7
370
    50
100
AcDbLine
 10
-271.548312
 20
292.418954
 30
0.0
 11
-272.486135
 21
292.418954
 31
0.0
  0
LINE
  5
62D
330
1F
100
AcDbEntity
  8
LC-001-100-D00-0
 62
     7
370
    50
100
AcDbLine
 10
-296.157496
 20
292.418954
 30
0.0
 11
-297.095318
 21
292.418954
 31
0.0
  0
LINE
  5
62E
330
1F
100
AcDbEntity
  8
LC-001-100-D00-0
 62
     7
370
    50
100
AcDbLine
 10
418.564936
 20
321.418954
 30
0.0
 11
412.791434
 21
321.418954
 31
0.0
  0
LINE
  5
62F
330
1F
100
AcDbEntity
  8
LC-001-100-D00-0
 62
     7
370
    50
100
AcDbLine
 10
412.791434
 20
321.418954
 30
0.0
 11
406.729256
 21
321.418954
 31
0.0
  0
LINE
  5
630
330
1F
100
AcDbEntity
  8
LC-001-100-D00-0
 62
     7
370
    50
100
AcDbLine
 10
424.627114
 20
321.418954
 30
0.0
 11
418.564936
 21
321.418954
 31
0.0
  0
LINE
  5
631
330
1F
100
AcDbEntity
  8
LC-001-100-D00-0
 62
     7
370
    50
100
AcDbLine
 10
427.513865
 20
321.418954
 30
0.0
 11
424.627114
 21
321.418954
 31
0.0
  0
LINE
  5
632
330
1F
100
AcDbEntity
  8
LC-001-100-D00-0
 62
     7
370
    50
100
AcDbLine
 10
406.729256
 20
321.418954
 30
0.0
 11
403.842504
 21
321.418954
 31
0.0
  0
LINE
  5
633
330
1F
100
AcDbEntity
  8
LC-001-100-D00-0
 62
     7
370
    50
100
AcDbLine
 10
428.451688
 20
321.418954
 30
0.0
 11
427.513865
 21
321.418954
 31
0.0
  0
LINE
  5
634
330
1F
100
AcDbEntity
  8
LC-001-100-D00-0
 62
     7
370
    50
100
AcDbLine
 10
403.842504
 20
321.418954
 30
0.0
 11
402.904682
 21
321.418954
 31
0.0
  0
LINE
  5
635
330
1F
100
AcDbEntity
  8
LC-001-100-D00-0
 62
     7
370
    50
100
AcDbLine
 10
-281.435064
 20
321.418954
 30
0.0
 11
-287.208566
 21
321.418954
 31
0.0
  0
LINE
  5
636
330
1F
100
AcDbEntity
  8
LC-001-100-D00-0
 62
     7
370
    50
100
AcDbLine
 10
-287.208566
 20
321.418954
 30
0.0
 11
-293.270744
 21
321.418954
 31
0.0
  0
LINE
  5
637
330
1F
100
AcDbEntity
  8
LC-001-100-D00-0
 62
     7
370
    50
100
AcDbLine
 10
-275.372886
 20
321.418954
 30
0.0
 11
-281.435064
 21
321.418954
 31
0.0
  0
LINE
  5
638
330
1F
100
AcDbEntity
  8
LC-001-100-D00-0
 62
     7
370
    50
100
AcDbLine
 10
-272.486135
 20
321.418954
 30
0.0
 11
-275.372886
 21
321.418954
 31
0.0
  0
LINE
  5
639
330
1F
100
AcDbEntity
  8
LC-001-100-D00-0
 62
     7
370
    50
100
AcDbLine
 10
-293.270744
 20
321.418954
 30
0.0
 11
-296.157496
 21
321.418954
 31
0.0
  0
LINE
  5
63A
330
1F
100
AcDbEntity
  8
LC-001-100-D00-0
 62
     7
370
    50
100
AcDbLine
 10
-271.548312
 20
321.418954
 30
0.0
 11
-272.486135
 21
321.418954
 31
0.0
  0
LINE
  5
63B
330
1F
100
AcDbEntity
  8
LC-001-100-D00-0
 62
     7
370
    50
100
AcDbLine
 10
-296.157496
 20
321.418954
 30
0.0
 11
-297.095318
 21
321.418954
 31
0.0
  0
LINE
  5
63C
330
1F
100
AcDbEntity
  8
LC-001-100-D00-0
 62
     7
370
    50
100
AcDbLine
 10
424.678185
 20
317.418954
 30
0.0
 11
418.564951
 21
317.418955
 31
0.0
  0
LINE
  5
63D
330
1F
100
AcDbEntity
  8
LC-001-100-D00-0
 62
     7
370
    50
100
AcDbLine
 10
412.791437
 20
317.418955
 30
0.0
 11
406.678185
 21
317.418954
 31
0.0
  0
LINE
  5
63E
330
1F
100
AcDbEntity
  8
LC-001-100-D00-0
 62
     7
370
    50
100
AcDbLine
 10
418.564936
 20
292.418954
 30
0.0
 11
412.791434
 21
292.418954
 31
0.0
  0
LINE
  5
63F
330
1F
100
AcDbEntity
  8
LC-001-100-D00-0
 62
     7
370
    50
100
AcDbLine
 10
412.791434
 20
292.418954
 30
0.0
 11
406.729256
 21
292.418954
 31
0.0
  0
LINE
  5
640
330
1F
100
AcDbEntity
  8
LC-001-100-D00-0
 62
     7
370
    50
100
AcDbLine
 10
430.678185
 20
319.418954
 30
0.0
 11
430.678185
 21
317.418954
 31
0.0
  0
LINE
  5
641
330
1F
100
AcDbEntity
  8
LC-001-100-D00-0
 62
     7
370
    50
100
AcDbLine
 10
430.678185
 20
317.418954
 30
0.0
 11
424.678185
 21
317.418954
 31
0.0
  0
LINE
  5
642
330
1F
100
AcDbEntity
  8
LC-001-100-D00-0
 62
     7
370
    50
100
AcDbLine
 10
429.467004
 20
319.418954
 30
0.0
 11
430.678185
 21
319.418954
 31
0.0
  0
LINE
  5
643
330
1F
100
AcDbEntity
  8
LC-001-100-D00-0
 62
     7
370
    50
100
AcDbLine
 10
424.627114
 20
292.418954
 30
0.0
 11
418.564936
 21
292.418954
 31
0.0
  0
LINE
  5
644
330
1F
100
AcDbEntity
  8
LC-001-100-D00-0
 62
     7
370
    50
100
AcDbLine
 10
400.678185
 20
317.418954
 30
0.0
 11
400.678185
 21
319.418954
 31
0.0
  0
LINE
  5
645
330
1F
100
AcDbEntity
  8
LC-001-100-D00-0
 62
     7
370
    50
100
AcDbLine
 10
406.678185
 20
317.418954
 30
0.0
 11
400.678185
 21
317.418954
 31
0.0
  0
LINE
  5
646
330
1F
100
AcDbEntity
  8
LC-001-100-D00-0
 62
     7
370
    50
100
AcDbLine
 10
400.678185
 20
319.418954
 30
0.0
 11
401.889366
 21
319.418954
 31
0.0
  0
LINE
  5
647
330
1F
100
AcDbEntity
  8
LC-001-100-D00-0
 62
     7
370
    50
100
AcDbLine
 10
427.513865
 20
292.418954
 30
0.0
 11
424.627114
 21
292.418954
 31
0.0
  0
LINE
  5
648
330
1F
100
AcDbEntity
  8
LC-001-100-D00-0
 62
     7
370
    50
100
AcDbLine
 10
406.729256
 20
292.418954
 30
0.0
 11
403.842504
 21
292.418954
 31
0.0
  0
LINE
  5
649
330
1F
100
AcDbEntity
  8
LC-001-100-D00-0
 62
     7
370
    50
100
AcDbLine
 10
428.451688
 20
292.418954
 30
0.0
 11
427.513865
 21
292.418954
 31
0.0
  0
LINE
  5
64A
330
1F
100
AcDbEntity
  8
LC-001-100-D00-0
 62
     7
370
    50
100
AcDbLine
 10
403.842504
 20
292.418954
 30
0.0
 11
402.904682
 21
292.418954
 31
0.0
  0
LINE
  5
64B
330
1F
100
AcDbEntity
  8
LC-001-100-D00-0
 62
     7
370
    50
100
AcDbLine
 10
-294.321815
 20
234.918954
 30
0.0
 11
-274.321815
 21
234.918954
 31
0.0
  0
LINE
  5
64C
330
1F
100
AcDbEntity
  8
LC-001-100-D00-0
 62
     7
370
    50
100
AcDbLine
 10
-294.111585
 20
224.418954
 30
0.0
 11
-274.321815
 21
224.418954
 31
0.0
  0
LINE
  5
64D
330
1F
100
AcDbEntity
  8
LC-001-100-D00-0
 62
     7
370
    50
100
AcDbLine
 10
-294.321815
 20
224.418954
 30
0.0
 11
-294.111585
 21
224.418954
 31
0.0
  0
LINE
  5
64E
330
1F
100
AcDbEntity
  8
LC-001-100-D00-0
 62
     7
370
    50
100
AcDbLine
 10
-294.321815
 20
238.418954
 30
0.0
 11
-274.321815
 21
238.418954
 31
0.0
  0
LINE
  5
64F
330
1F
100
AcDbEntity
  8
LC-001-100-D00-0
 62
     7
370
    50
100
AcDbLine
 10
-293.132608
 20
223.418954
 30
0.0
 11
-293.321815
 21
223.418954
 31
0.0
  0
LINE
  5
650
330
1F
100
AcDbEntity
  8
LC-001-100-D00-0
 62
     7
370
    50
100
AcDbLine
 10
-275.321815
 20
223.418954
 30
0.0
 11
-293.132608
 21
223.418954
 31
0.0
  0
LINE
  5
651
330
1F
100
AcDbEntity
  8
LC-001-100-D00-0
 62
     7
370
    50
100
AcDbLine
 10
405.678185
 20
234.918954
 30
0.0
 11
425.678185
 21
234.918954
 31
0.0
  0
LINE
  5
652
330
1F
100
AcDbEntity
  8
LC-001-100-D00-0
 62
     7
370
    50
100
AcDbLine
 10
405.888415
 20
224.418954
 30
0.0
 11
425.678185
 21
224.418954
 31
0.0
  0
LINE
  5
653
330
1F
100
AcDbEntity
  8
LC-001-100-D00-0
 62
     7
370
    50
100
AcDbLine
 10
405.678185
 20
224.418954
 30
0.0
 11
405.888415
 21
224.418954
 31
0.0
  0
LINE
  5
654
330
1F
100
AcDbEntity
  8
LC-001-100-D00-0
 62
     7
370
    50
100
AcDbLine
 10
405.678185
 20
238.418954
 30
0.0
 11
425.678185
 21
238.418954
 31
0.0
  0
LINE
  5
655
330
1F
100
AcDbEntity
  8
LC-001-100-D00-0
 62
     7
370
    50
100
AcDbLine
 10
406.867392
 20
223.418954
 30
0.0
 11
406.678185
 21
223.418954
 31
0.0
  0
LINE
  5
656
330
1F
100
AcDbEntity
  8
LC-001-100-D00-0
 62
     7
370
    50
100
AcDbLine
 10
424.678185
 20
223.418954
 30
0.0
 11
406.867392
 21
223.418954
 31
0.0
  0
DIMENSION
  5
657
330
1F
100
AcDbEntity
  8
LC-001-100-D00-0
 62
     7
370
    25
100
AcDbDimension
  2
*D27
 10
-384.321815
 20
475.475104
 30
0.0
 11
55.279957
 21
530.475104
 31
0.0
 70
   160
  1
900
 71
     5
 42
900.0
  3
LC-DIM-L-0100-02-02
100
AcDbAlignedDimension
 13
515.678185
 23
349.918954
 33
0.0
 14
-384.321815
 24
349.918954
 34
0.0
100
AcDbRotatedDimension
  0
DIMENSION
  5
664
330
1F
100
AcDbEntity
  8
LC-001-100-D00-0
 62
     7
370
    25
100
AcDbDimension
  2
*D28
 10
465.678185
 20
389.044306
 30
0.0
 11
57.332738
 21
444.044306
 31
0.0
 70
   160
  1
800
 71
     5
 42
800.0
  3
LC-DIM-L-0100-02-02
100
AcDbAlignedDimension
 13
-334.321815
 23
346.918954
 33
0.0
 14
465.678185
 24
346.918954
 34
0.0
100
AcDbRotatedDimension
  0
DIMENSION
  5
671
330
1F
100
AcDbEntity
  8
LC-001-100-D00-0
 62
     7
370
    25
100
AcDbDimension
  2
*D29
 10
-89.958498
 20
278.418954
 30
0.0
 11
-144.958498
 21
240.852836
 31
0.0
 70
   160
  1
30
 71
     5
 42
30.0
 53
90.0
  3
LC-DIM-L-0100-02-02
100
AcDbAlignedDimension
 13
32.725752
 23
308.418954
 33
0.0
 14
36.678185
 24
278.418954
 34
0.0
 50
90.0
100
AcDbRotatedDimension
  0
DIMENSION
  5
67F
330
1F
100
AcDbEntity
  8
LC-001-100-D00-0
 62
     7
370
    25
100
AcDbDimension
  2
*D30
 10
275.177982
 20
177.285227
 30
0.0
 11
133.086272
 21
232.285227
 31
0.0
 70
   160
  1
284
 71
     5
 42
283.499797
  3
LC-DIM-L-0100-02-02
100
AcDbAlignedDimension
 13
-8.321815
 23
278.918954
 33
0.0
 14
275.177982
 24
268.356776
 34
0.0
100
AcDbRotatedDimension
  0
DIMENSION
  5
68C
330
1F
100
AcDbEntity
  8
LC-001-100-D00-0
 62
     7
370
    25
100
AcDbDimension
  2
*D31
 10
589.549987
 20
267.418954
 30
0.0
 11
534.549987
 21
363.364956
 31
0.0
 70
   160
  1
DN50
 71
     5
 42
50.0
 53
90.0
  3
LC-DIM-L-0100-02-02
100
AcDbAlignedDimension
 13
271.677982
 23
317.418954
 33
0.0
 14
271.677982
 24
267.418954
 34
0.0
 50
90.0
100
AcDbRotatedDimension
  0
DIMENSION
  5
69A
330
1F
100
AcDbEntity
  8
LC-001-100-D00-0
 62
     7
370
    25
100
AcDbDimension
  2
*D32
 10
693.291741
 20
292.418954
 30
0.0
 11
638.291741
 21
333.314814
 31
0.0
 70
   160
  1
57,5
 71
     5
 42
57.5
 53
90.0
  3
LC-DIM-L-0100-02-02
100
AcDbAlignedDimension
 13
515.678185
 23
349.918954
 33
0.0
 14
281.677982
 24
292.418954
 34
0.0
 50
90.0
100
AcDbRotatedDimension
  0
DIMENSION
  5
6A9
330
1F
100
AcDbEntity
  8
LC-001-100-D00-0
 62
     7
370
    25
100
AcDbDimension
  2
*D33
 10
-411.352204
 20
259.918954
 30
0.0
 11
-466.352204
 21
279.778954
 31
0.0
 70
   160
  1
90
 71
     5
 42
90.0
 53
90.0
  3
LC-DIM-L-0100-02-02
100
AcDbAlignedDimension
 13
-384.321815
 23
349.918954
 33
0.0
 14
11.660305
 24
259.918954
 34
0.0
 50
90.0
100
AcDbRotatedDimension
  0
DIMENSION
  5
6B8
330
1F
100
AcDbEntity
  8
LC-001-100-D00-0
 62
     7
370
    25
100
AcDbDimension
  2
*D34
 10
785.835836
 20
215.418954
 30
0.0
 11
730.835836
 21
349.078954
 31
0.0
 70
   160
  1
90-129,5
 71
     5
 42
134.5
 53
90.0
  3
LC-DIM-L-0100-02-02
100
AcDbAlignedDimension
 13
515.678185
 23
349.918954
 33
0.0
 14
418.178185
 24
215.418954
 34
0.0
 50
90.0
100
AcDbRotatedDimension
  0
INSERT
  5
6D1
330
1F
100
AcDbEntity
  8
LC-001-100-D00-0
 62
     7
370
    25
100
AcDbBlockReference
  2
KLON25
 10
0.0
 20
0.0
 30
0.0
  0
INSERT
  5
6D8
330
1F
100
AcDbEntity
  8
LC-001-100-D00-0
 62
     7
370
    25
100
AcDbBlockReference
  2
KLON26
 10
0.0
 20
0.0
 30
0.0
  0
INSERT
  5
6DF
330
1F
100
AcDbEntity
  8
LC-001-100-D00-0
 62
     7
370
    25
100
AcDbBlockReference
  2
KLON27
 10
0.0
 20
0.0
 30
0.0
  0
INSERT
  5
6F8
330
1F
100
AcDbEntity
  8
LC-001-100-D00-0
 62
     7
370
    25
100
AcDbBlockReference
  2
KLON28
 10
0.0
 20
0.0
 30
0.0
  0
INSERT
  5
712
330
1F
100
AcDbEntity
  8
LC-001-100-D00-0
 62
     7
370
    25
100
AcDbBlockReference
  2
KLON29
 10
0.0
 20
0.0
 30
0.0
  0
INSERT
  5
718
330
1F
100
AcDbEntity
  8
LC-001-100-D00-0
 62
     7
370
    25
100
AcDbBlockReference
  2
KLON30
 10
0.0
 20
0.0
 30
0.0
  0
INSERT
  5
720
330
1F
100
AcDbEntity
  8
LC-001-100-D00-0
 62
     7
370
    25
100
AcDbBlockReference
  2
KLON31
 10
0.0
 20
0.0
 30
0.0
  0
INSERT
  5
72F
330
1F
100
AcDbEntity
  8
LC-001-100-D00-0
 62
     7
370
    25
100
AcDbBlockReference
  2
KLON32
 10
0.0
 20
0.0
 30
0.0
  0
INSERT
  5
735
330
1F
100
AcDbEntity
  8
LC-001-100-D00-0
 62
     7
370
    50
100
AcDbBlockReference
  2
KLON33
 10
0.0
 20
0.0
 30
0.0
  0
LINE
  5
736
330
1F
100
AcDbEntity
  8
LC-001-100-D00-0
 62
     7
370
    25
100
AcDbLine
 10
122.387902
 20
319.410002
 30
0.0
 11
125.896854
 21
322.918954
 31
0.0
  0
LINE
  5
737
330
1F
100
AcDbEntity
  8
LC-001-100-D00-0
 62
     7
370
    50
100
AcDbLine
 10
9.922662
 20
319.197959
 30
0.0
 11
10.360217
 21
319.635514
 31
0.0
  0
INSERT
  5
73D
330
1F
100
AcDbEntity
  8
LC-001-100-D00-0
 62
     7
370
    25
100
AcDbBlockReference
  2
KLON34
 10
0.0
 20
0.0
 30
0.0
  0
LINE
  5
73E
330
1F
100
AcDbEntity
  8
LC-001-100-D00-0
 62
     7
370
    25
100
AcDbLine
 10
-30.421815
 20
346.205403
 30
0.0
 11
-26.708264
 21
349.918954
 31
0.0
  0
LINE
  5
73F
330
1F
100
AcDbEntity
  8
LC-001-100-D00-0
 62
     7
370
    50
100
AcDbLine
 10
-39.914123
 20
336.713094
 30
0.0
 11
-38.215039
 21
338.412178
 31
0.0
  0
INSERT
  5
745
330
1F
100
AcDbEntity
  8
LC-001-100-D00-0
 62
     7
370
    25
100
AcDbBlockReference
  2
KLON35
 10
0.0
 20
0.0
 30
0.0
  0
LINE
  5
746
330
1F
100
AcDbEntity
  8
LC-001-100-D00-0
 62
     7
370
    25
100
AcDbLine
 10
304.578185
 20
344.44581
 30
0.0
 11
310.051328
 21
349.918954
 31
0.0
  0
LINE
  5
747
330
1F
100
AcDbEntity
  8
LC-001-100-D00-0
 62
     7
370
    50
100
AcDbLine
 10
295.478185
 20
335.34581
 30
0.0
 11
297.278185
 21
337.14581
 31
0.0
  0
INSERT
  5
74D
330
1F
100
AcDbEntity
  8
LC-001-100-D00-0
 62
     7
370
    25
100
AcDbBlockReference
  2
KLON36
 10
0.0
 20
0.0
 30
0.0
  0
LINE
  5
74E
330
1F
100
AcDbEntity
  8
LC-001-100-D00-0
 62
     7
370
    25
100
AcDbLine
 10
-300.421815
 20
345.613076
 30
0.0
 11
-296.115938
 21
349.918954
 31
0.0
  0
LINE
  5
74F
330
1F
100
AcDbEntity
  8
LC-001-100-D00-0
 62
     7
370
    50
100
AcDbLine
 10
-309.595896
 20
336.438995
 30
0.0
 11
-307.918876
 21
338.116015
 31
0.0
  0
INSERT
  5
755
330
1F
100
AcDbEntity
  8
LC-001-100-D00-0
 62
     7
370
    25
100
AcDbBlockReference
  2
KLON37
 10
0.0
 20
0.0
 30
0.0
  0
LINE
  5
756
330
1F
100
AcDbEntity
  8
LC-001-100-D00-0
 62
     7
370
    25
100
AcDbLine
 10
-165.421815
 20
345.90924
 30
0.0
 11
-161.412101
 21
349.918954
 31
0.0
  0
LINE
  5
757
330
1F
100
AcDbEntity
  8
LC-001-100-D00-0
 62
     7
370
    50
100
AcDbLine
 10
-174.728105
 20
336.602949
 30
0.0
 11
-173.066958
 21
338.264096
 31
0.0
  0
INSERT
  5
75D
330
1F
100
AcDbEntity
  8
LC-001-100-D00-0
 62
     7
370
    25
100
AcDbBlockReference
  2
KLON38
 10
0.0
 20
0.0
 30
0.0
  0
LINE
  5
75E
330
1F
100
AcDbEntity
  8
LC-001-100-D00-0
 62
     7
370
    25
100
AcDbLine
 10
439.578185
 20
344.741974
 30
0.0
 11
444.755165
 21
349.918954
 31
0.0
  0
LINE
  5
75F
330
1F
100
AcDbEntity
  8
LC-001-100-D00-0
 62
     7
370
    50
100
AcDbLine
 10
430.478185
 20
335.641973
 30
0.0
 11
432.278185
 21
337.441973
 31
0.0
  0
INSERT
  5
765
330
1F
100
AcDbEntity
  8
LC-001-100-D00-0
 62
     7
370
    25
100
AcDbBlockReference
  2
KLON39
 10
0.0
 20
0.0
 30
0.0
  0
LINE
  5
766
330
1F
100
AcDbEntity
  8
LC-001-100-D00-0
 62
     7
370
    25
100
AcDbLine
 10
169.578185
 20
344.149647
 30
0.0
 11
175.347491
 21
349.918954
 31
0.0
  0
LINE
  5
767
330
1F
100
AcDbEntity
  8
LC-001-100-D00-0
 62
     7
370
    50
100
AcDbLine
 10
160.478185
 20
335.049647
 30
0.0
 11
162.278185
 21
336.849647
 31
0.0
  0
LINE
  5
768
330
1F
100
AcDbEntity
  8
LC-001-100-D00-0
  6
DASHDOT
 62
     7
370
    25
100
AcDbLine
 10
415.678185
 20
228.418954
 30
0.0
 11
415.678185
 21
352.418954
 31
0.0
  0
LINE
  5
769
330
1F
100
AcDbEntity
  8
LC-001-100-D00-0
  6
DASHDOT
 62
     7
370
    25
100
AcDbLine
 10
281.677982
 20
292.418954
 30
0.0
 11
178.652966
 21
292.418954
 31
0.0
  0
LINE
  5
76A
330
1F
100
AcDbEntity
  8
LC-001-100-D00-0
  6
DASHDOT
 62
     7
370
    25
100
AcDbLine
 10
65.678185
 20
349.918954
 30
0.0
 11
65.678185
 21
257.418954
 31
0.0
  0
LINE
  5
76B
330
1F
100
AcDbEntity
  8
LC-001-100-D00-0
  6
DASHDOT
 62
     7
370
    25
100
AcDbLine
 10
165.678185
 20
321.918954
 30
0.0
 11
165.678185
 21
355.918954
 31
0.0
  0
LINE
  5
76C
330
1F
100
AcDbEntity
  8
LC-001-100-D00-0
  6
DASHDOT
 62
     7
370
    25
100
AcDbLine
 10
300.678185
 20
321.918954
 30
0.0
 11
300.678185
 21
355.918954
 31
0.0
  0
LINE
  5
76D
330
1F
100
AcDbEntity
  8
LC-001-100-D00-0
  6
DASHDOT
 62
     7
370
    25
100
AcDbLine
 10
435.678185
 20
321.918954
 30
0.0
 11
435.678185
 21
355.918954
 31
0.0
  0
LINE
  5
76E
330
1F
100
AcDbEntity
  8
LC-001-100-D00-0
  6
DASHDOT
 62
     7
370
    25
100
AcDbLine
 10
-284.321815
 20
228.418954
 30
0.0
 11
-284.321815
 21
352.418954
 31
0.0
  0
LINE
  5
76F
330
1F
100
AcDbEntity
  8
LC-001-100-D00-0
  6
DASHDOT
 62
     7
370
    25
100
AcDbLine
 10
-304.321815
 20
321.918954
 30
0.0
 11
-304.321815
 21
355.918954
 31
0.0
  0
LINE
  5
770
330
1F
100
AcDbEntity
  8
LC-001-100-D00-0
  6
DASHDOT
 62
     7
370
    25
100
AcDbLine
 10
-169.321815
 20
321.918954
 30
0.0
 11
-169.321815
 21
355.918954
 31
0.0
  0
LINE
  5
771
330
1F
100
AcDbEntity
  8
LC-001-100-D00-0
  6
DASHDOT
 62
     7
370
    25
100
AcDbLine
 10
-34.321815
 20
321.918954
 30
0.0
 11
-34.321815
 21
355.918954
 31
0.0
  0
ENDSEC
  0
SECTION
  2
OBJECTS
  0
DICTIONARY
  5
C
330
0
100
AcDbDictionary
281
     1
  3
ACAD_GROUP
350
D
  3
ACAD_LAYOUT
350
1A
  3
ACAD_MLINESTYLE
350
17
  3
ACAD_PLOTSETTINGS
350
19
  3
ACAD_PLOTSTYLENAME
350
E
  0
DICTIONARY
  5
D
102
{ACAD_REACTORS
330
C
102
}
330
C
100
AcDbDictionary
281
     1
  0
DICTIONARY
  5
1A
102
{ACAD_REACTORS
330
C
102
}
330
C
100
AcDbDictionary
281
     1
  3
Layout1
350
1E
  3
Layout2
350
26
  3
Model
350
22
  0
DICTIONARY
  5
17
102
{ACAD_REACTORS
330
C
102
}
330
C
100
AcDbDictionary
281
     1
  3
Standard
350
18
  0
DICTIONARY
  5
19
102
{ACAD_REACTORS
330
C
102
}
330
C
100
AcDbDictionary
281
     1
  0
ACDBDICTIONARYWDFLT
  5
E
102
{ACAD_REACTORS
330
C
102
}
330
C
100
AcDbDictionary
281
     1
  3
Normal
350
F
100
AcDbDictionaryWithDefault
340
F
  0
LAYOUT
  5
1E
102
{ACAD_REACTORS
330
1A
102
}
330
1A
100
AcDbPlotSettings
  1

  2

  4

  6

 40
0.0
 41
0.0
 42
0.0
 43
0.0
 44
0.0
 45
0.0
 46
0.0
 47
0.0
 48
0.0
 49
0.0
140
0.0
141
0.0
142
1.0
143
1.0
 70
   688
 72
     0
 73
     0
 74
     5
  7

 75
    16
147
1.0
148
0.0
149
0.0
100
AcDbLayout
  1
Layout1
 70
     1
 71
     1
 10
-1304.026184
 20
-919.321046
 11
1665.973816
 21
1180.678954
 12
0.0
 22
0.0
 32
0.0
 14
-1304.026184
 24
-919.321046
 34
0.0
 15
1665.973816
 25
1180.678954
 35
0.0
146
0.0
 13
0.0
 23
0.0
 33
0.0
 16
1.0
 26
0.0
 36
0.0
 17
0.0
 27
1.0
 37
0.0
 76
     0
330
1B
  0
LAYOUT
  5
26
102
{ACAD_REACTORS
330
1A
102
}
330
1A
100
AcDbPlotSettings
  1

  2

  4

  6

 40
0.0
 41
0.0
 42
0.0
 43
0.0
 44
0.0
 45
0.0
 46
0.0
 47
0.0
 48
0.0
 49
0.0
140
0.0
141
0.0
142
1.0
143
1.0
 70
   688
 72
     0
 73
     0
 74
     5
  7

 75
    16
147
1.0
148
0.0
149
0.0
100
AcDbLayout
  1
Layout2
 70
     1
 71
     2
 10
0.0
 20
0.0
 11
0.0
 21
0.0
 12
0.0
 22
0.0
 32
0.0
 14
0.0
 24
0.0
 34
0.0
 15
0.0
 25
0.0
 35
0.0
146
0.0
 13
0.0
 23
0.0
 33
0.0
 16
1.0
 26
0.0
 36
0.0
 17
0.0
 27
1.0
 37
0.0
 76
     0
330
23
  0
LAYOUT
  5
22
102
{ACAD_REACTORS
330
1A
102
}
330
1A
100
AcDbPlotSettings
  1

  2

  4

  6

 40
0.0
 41
0.0
 42
0.0
 43
0.0
 44
0.0
 45
0.0
 46
0.0
 47
0.0
 48
0.0
 49
0.0
140
0.0
141
0.0
142
1.0
143
1.0
 70
  1776
 72
     0
 73
     0
 74
     0
  7

 75
     0
147
1.0
148
0.0
149
0.0
100
AcDbLayout
  1
Model
 70
     1
 71
     0
 10
-1304.026184
 20
-919.321046
 11
1665.973816
 21
1180.678954
 12
0.0
 22
0.0
 32
0.0
 14
-1304.026184
 24
-919.321046
 34
0.0
 15
1665.973816
 25
1180.678954
 35
0.0
146
0.0
 13
0.0
 23
0.0
 33
0.0
 16
1.0
 26
0.0
 36
0.0
 17
0.0
 27
1.0
 37
0.0
 76
     0
330
1F
  0
MLINESTYLE
  5
18
102
{ACAD_REACTORS
330
17
102
}
330
17
100
AcDbMlineStyle
  2
Standard
 70
     0
  3

 62
   256
 51
90.0
 52
90.0
 71
     2
 49
0.5
 62
   256
  6
BYLAYER
 49
-0.5
 62
   256
  6
BYLAYER
  0
ACDBPLACEHOLDER
  5
F
102
{ACAD_REACTORS
330
E
102
}
330
E
  0
ENDSEC
  0
EOF
