  0
SECTION
  2
HEADER
  9
$ACADVER
  1
AC1015
  9
$ACADMAINTVER
 70
     6
  9
$DWGCODEPAGE
  3
ANSI_1252
  9
$INSBASE
 10
0.0
 20
0.0
 30
0.0
  9
$EXTMIN
 10
-847.628424
 20
-600.696639
 30
0.0
  9
$EXTMAX
 10
1252.371576
 20
884.303361
 30
0.0
  9
$LIMMIN
 10
-847.628424
 20
-600.696639
  9
$LIMMAX
 10
1252.371576
 20
884.303361
  9
$ORTHOMODE
 70
     0
  9
$REGENMODE
 70
     1
  9
$FILLMODE
 70
     1
  9
$QTEXTMODE
 70
     0
  9
$MIRRTEXT
 70
     1
  9
$LTSCALE
 40
5.0
  9
$ATTMODE
 70
     1
  9
$TEXTSIZE
 40
2.5
  9
$TRACEWID
 40
1.0
  9
$TEXTSTYLE
  7
Standard
  9
$CLAYER
  8
0
  9
$CELTYPE
  6
ByLayer
  9
$CECOLOR
 62
     7
  9
$CELTSCALE
 40
1.0
  9
$DISPSILH
 70
     0
  9
$DIMSCALE
 40
5.0
  9
$DIMASZ
 40
3.5
  9
$DIMEXO
 40
0.625
  9
$DIMDLI
 40
3.75
  9
$DIMRND
 40
0.0
  9
$DIMDLE
 40
0.0
  9
$DIMEXE
 40
1.25
  9
$DIMTP
 40
0.0
  9
$DIMTM
 40
0.0
  9
$DIMTXT
 40
3.5
  9
$DIMCEN
 40
2.5
  9
$DIMTSZ
 40
0.0
  9
$DIMTOL
 70
     0
  9
$DIMLIM
 70
     0
  9
$DIMTIH
 70
     0
  9
$DIMTOH
 70
     0
  9
$DIMSE1
 70
     0
  9
$DIMSE2
 70
     0
  9
$DIMTAD
 70
     1
  9
$DIMZIN
 70
     8
  9
$DIMBLK
  1

  9
$DIMASO
 70
     1
  9
$DIMSHO
 70
     1
  9
$DIMPOST
  1

  9
$DIMAPOST
  1

  9
$DIMALT
 70
     0
  9
$DIMALTD
 70
     3
  9
$DIMALTF
 40
0.03937
  9
$DIMLFAC
 40
1.0
  9
$DIMTOFL
 70
     1
  9
$DIMTVP
 40
0.0
  9
$DIMTIX
 70
     0
  9
$DIMSOXD
 70
     0
  9
$DIMSAH
 70
     0
  9
$DIMBLK1
  1

  9
$DIMBLK2
  1

  9
$DIMSTYLE
  2
ISO-25
  9
$DIMCLRD
 70
     0
  9
$DIMCLRE
 70
     0
  9
$DIMCLRT
 70
     0
  9
$DIMTFAC
 40
1.0
  9
$DIMGAP
 40
0.625
  9
$DIMJUST
 70
     0
  9
$DIMSD1
 70
     0
  9
$DIMSD2
 70
     0
  9
$DIMTOLJ
 70
     0
  9
$DIMTZIN
 70
     8
  9
$DIMALTZ
 70
     0
  9
$DIMALTTZ
 70
     0
  9
$DIMUPT
 70
     0
  9
$DIMDEC
 70
     2
  9
$DIMTDEC
 70
     2
  9
$DIMALTU
 70
     2
  9
$DIMALTTD
 70
     3
  9
$DIMTXSTY
  7
Standard
  9
$DIMAUNIT
 70
     0
  9
$DIMADEC
 70
     0
  9
$DIMALTRND
 40
0.0
  9
$DIMAZIN
 70
     0
  9
$DIMDSEP
 70
    44
  9
$DIMATFIT
 70
     3
  9
$DIMFRAC
 70
     0
  9
$DIMLDRBLK
  1

  9
$DIMLUNIT
 70
     2
  9
$DIMLWD
 70
    -2
  9
$DIMLWE
 70
    -2
  9
$DIMTMOVE
 70
     0
  9
$LUNITS
 70
     2
  9
$LUPREC
 70
     4
  9
$SKETCHINC
 40
1.0
  9
$FILLETRAD
 40
10.0
  9
$AUNITS
 70
     0
  9
$AUPREC
 70
     0
  9
$MENU
  1
.
  9
$ELEVATION
 40
0.0
  9
$PELEVATION
 40
0.0
  9
$THICKNESS
 40
0.0
  9
$LIMCHECK
 70
     0
  9
$CHAMFERA
 40
10.0
  9
$CHAMFERB
 40
10.0
  9
$CHAMFERC
 40
20.0
  9
$CHAMFERD
 40
0.0
  9
$SKPOLY
 70
     0
  9
$TDCREATE
 40
2455421.483131945
  9
$TDUCREATE
 40
2455421.399798611
  9
$TDUPDATE
 40
2455421.483131956
  9
$TDUUPDATE
 40
2455421.399798623
  9
$TDINDWG
 40
0.0000000116
  9
$TDUSRTIMER
 40
0.0000000116
  9
$USRTIMER
 70
     1
  9
$ANGBASE
 50
0.0
  9
$ANGDIR
 70
     0
  9
$PDMODE
 70
     0
  9
$PDSIZE
 40
0.0
  9
$PLINEWID
 40
0.0
  9
$SPLFRAME
 70
     0
  9
$SPLINETYPE
 70
     6
  9
$SPLINESEGS
 70
     8
  9
$HANDSEED
  5
617
  9
$SURFTAB1
 70
     6
  9
$SURFTAB2
 70
     6
  9
$SURFTYPE
 70
     6
  9
$SURFU
 70
     6
  9
$SURFV
 70
     6
  9
$UCSBASE
  2

  9
$UCSNAME
  2

  9
$UCSORG
 10
0.0
 20
0.0
 30
0.0
  9
$UCSXDIR
 10
1.0
 20
0.0
 30
0.0
  9
$UCSYDIR
 10
0.0
 20
1.0
 30
0.0
  9
$UCSORTHOREF
  2

  9
$UCSORTHOVIEW
 70
     0
  9
$UCSORGTOP
 10
0.0
 20
0.0
 30
0.0
  9
$UCSORGBOTTOM
 10
0.0
 20
0.0
 30
0.0
  9
$UCSORGLEFT
 10
0.0
 20
0.0
 30
0.0
  9
$UCSORGRIGHT
 10
0.0
 20
0.0
 30
0.0
  9
$UCSORGFRONT
 10
0.0
 20
0.0
 30
0.0
  9
$UCSORGBACK
 10
0.0
 20
0.0
 30
0.0
  9
$PUCSBASE
  2

  9
$PUCSNAME
  2

  9
$PUCSORG
 10
0.0
 20
0.0
 30
0.0
  9
$PUCSXDIR
 10
1.0
 20
0.0
 30
0.0
  9
$PUCSYDIR
 10
0.0
 20
1.0
 30
0.0
  9
$PUCSORTHOREF
  2

  9
$PUCSORTHOVIEW
 70
     0
  9
$PUCSORGTOP
 10
0.0
 20
0.0
 30
0.0
  9
$PUCSORGBOTTOM
 10
0.0
 20
0.0
 30
0.0
  9
$PUCSORGLEFT
 10
0.0
 20
0.0
 30
0.0
  9
$PUCSORGRIGHT
 10
0.0
 20
0.0
 30
0.0
  9
$PUCSORGFRONT
 10
0.0
 20
0.0
 30
0.0
  9
$PUCSORGBACK
 10
0.0
 20
0.0
 30
0.0
  9
$USERI1
 70
     0
  9
$USERI2
 70
     0
  9
$USERI3
 70
     0
  9
$USERI4
 70
     0
  9
$USERI5
 70
     0
  9
$USERR1
 40
0.0
  9
$USERR2
 40
0.0
  9
$USERR3
 40
0.0
  9
$USERR4
 40
0.0
  9
$USERR5
 40
0.0
  9
$WORLDVIEW
 70
     1
  9
$SHADEDGE
 70
     3
  9
$SHADEDIF
 70
    70
  9
$TILEMODE
 70
     1
  9
$MAXACTVP
 70
    64
  9
$PINSBASE
 10
0.0
 20
0.0
 30
0.0
  9
$PLIMCHECK
 70
     0
  9
$PEXTMIN
 10
-847.628424
 20
-600.696639
 30
0.0
  9
$PEXTMAX
 10
1252.371576
 20
884.303361
 30
0.0
  9
$PLIMMIN
 10
-847.628424
 20
-600.696639
  9
$PLIMMAX
 10
1252.371576
 20
884.303361
  9
$UNITMODE
 70
     0
  9
$VISRETAIN
 70
     1
  9
$PLINEGEN
 70
     0
  9
$PSLTSCALE
 70
     1
  9
$TREEDEPTH
 70
  3020
  9
$CMLSTYLE
  2
Standard
  9
$CMLJUST
 70
     0
  9
$CMLSCALE
 40
20.0
  9
$PROXYGRAPHICS
 70
     1
  9
$MEASUREMENT
 70
     1
  9
$CELWEIGHT
370
    -1
  9
$ENDCAPS
280
     0
  9
$JOINSTYLE
280
     0
  9
$LWDISPLAY
290
     0
  9
$INSUNITS
 70
     4
  9
$HYPERLINKBASE
  1

  9
$STYLESHEET
  1

  9
$XEDIT
290
     1
  9
$CEPSNTYPE
380
     0
  9
$PSTYLEMODE
290
     1
  9
$FINGERPRINTGUID
  2
{FAEB1C30-E019-11D5-929B-00C0DF256EC4}
  9
$VERSIONGUID
  2
{FAEB1C32-E019-11D5-929B-00C0DF256EC4}
  9
$EXTNAMES
290
     1
  9
$PSVPSCALE
 40
0.0
  9
$OLESTARTUP
290
     0
  0
ENDSEC
  0
SECTION
  2
CLASSES
  0
CLASS
  1
ACDBDICTIONARYWDFLT
  2
AcDbDictionaryWithDefault
  3
ObjectDBX Classes
 90
        0
280
     0
281
     0
  0
CLASS
  1
ACDBPLACEHOLDER
  2
AcDbPlaceHolder
  3
ObjectDBX Classes
 90
        0
280
     0
281
     0
  0
CLASS
  1
LAYOUT
  2
AcDbLayout
  3
ObjectDBX Classes
 90
        0
280
     0
281
     0
  0
ENDSEC
  0
SECTION
  2
TABLES
  0
TABLE
  2
VPORT
  5
8
330
0
100
AcDbSymbolTable
 70
     2
  0
VPORT
  5
29
330
8
100
AcDbSymbolTableRecord
100
AcDbViewportTableRecord
  2
*ACTIVE
 70
     0
 10
0.0
 20
0.0
 11
1.0
 21
1.0
 12
202.371576
 22
141.803361
 13
0.0
 23
0.0
 14
1.0
 24
1.0
 15
0.0
 25
0.0
 16
0.0
 26
0.0
 36
1.0
 17
0.0
 27
0.0
 37
0.0
 40
1485.0
 41
1.414141
 42
50.0
 43
0.0
 44
0.0
 50
0.0
 51
0.0
 71
    16
 72
   100
 73
     1
 74
     0
 75
     0
 76
     0
 77
     0
 78
     0
281
     0
 65
     0
110
0.0
120
0.0
130
0.0
111
1.0
121
0.0
131
0.0
112
0.0
122
1.0
132
0.0
 79
     0
146
0.0
  0
ENDTAB
  0
TABLE
  2
LTYPE
  5
5
330
0
100
AcDbSymbolTable
 70
     3
  0
LTYPE
  5
14
330
5
100
AcDbSymbolTableRecord
100
AcDbLinetypeTableRecord
  2
ByBlock
 70
     0
  3

 72
    65
 73
     0
 40
0.0
  0
LTYPE
  5
15
330
5
100
AcDbSymbolTableRecord
100
AcDbLinetypeTableRecord
  2
ByLayer
 70
     0
  3

 72
    65
 73
     0
 40
0.0
  0
LTYPE
  5
16
330
5
100
AcDbSymbolTableRecord
100
AcDbLinetypeTableRecord
  2
Continuous
 70
     0
  3
Solid line
 72
    65
 73
     0
 40
0.0
  0
LTYPE
  5
2A
330
5
100
AcDbSymbolTableRecord
100
AcDbLinetypeTableRecord
  2
DASHED
 70
     0
  3
__ __ __ __ __
 72
    65
 73
     2
 40
6.25
 49
5.0
 74
     4
 75
     0
340
0
 46
1.0
 50
0.0
 44
0.0
 45
0.0
 49
-1.25
 74
     4
 75
     0
340
0
 46
1.0
 50
0.0
 44
0.0
 45
0.0
  0
LTYPE
  5
E5
330
5
100
AcDbSymbolTableRecord
100
AcDbLinetypeTableRecord
  2
DASHDOT
 70
     0
  3
__ . __ . __ . __ . __
 72
    65
 73
     4
 40
7.5
 49
5.0
 74
     4
 75
     0
340
0
 46
1.0
 50
0.0
 44
0.0
 45
0.0
 49
-1.25
 74
     4
 75
     0
340
0
 46
1.0
 50
0.0
 44
0.0
 45
0.0
 49
0.0
 74
     4
 75
     0
340
0
 46
1.0
 50
0.0
 44
0.0
 45
0.0
 49
-1.25
 74
     4
 75
     0
340
0
 46
1.0
 50
0.0
 44
0.0
 45
0.0
  0
ENDTAB
  0
TABLE
  2
LAYER
  5
2
330
0
100
AcDbSymbolTable
 70
     7
  0
LAYER
  5
10
330
2
100
AcDbSymbolTableRecord
100
AcDbLayerTableRecord
  2
0
 70
     0
 62
     7
  6
Continuous
370
    -3
390
F
  0
LAYER
  5
2B
330
2
100
AcDbSymbolTableRecord
100
AcDbLayerTableRecord
  2
LC-INFO-1-5-mm-A3-0
 70
     1
 62
     7
  6
ByBlock
370
    -3
390
F
  0
LAYER
  5
2C
330
2
100
AcDbSymbolTableRecord
100
AcDbLayerTableRecord
  2
LC-CUT-HIDDEN
 70
     0
 62
     7
  6
DASHED
370
    -3
390
F
  0
LAYER
  5
2D
330
2
100
AcDbSymbolTableRecord
100
AcDbLayerTableRecord
  2
LC-VIEWPORT
 70
     0
 62
     7
  6
ByBlock
370
    -3
390
F
  0
LAYER
  5
2E
330
2
100
AcDbSymbolTableRecord
100
AcDbLayerTableRecord
  2
LC-3D-HIDDEN
 70
     0
 62
     9
  6
DASHED
370
    -3
390
F
  0
LAYER
  5
30
330
2
100
AcDbSymbolTableRecord
100
AcDbLayerTableRecord
  2
LC-001-100-D00-0
 70
     0
 62
     1
  6
ByBlock
370
    -3
390
F
  0
LAYER
  5
D7
330
2
100
AcDbSymbolTableRecord
100
AcDbLayerTableRecord
  2
Defpoints
 70
     0
 62
     7
  6
Continuous
290
     0
370
    -3
390
F
  0
ENDTAB
  0
TABLE
  2
STYLE
  5
3
330
0
100
AcDbSymbolTable
 70
     3
  0
STYLE
  5
11
330
3
100
AcDbSymbolTableRecord
100
AcDbTextStyleTableRecord
  2
Standard
 70
     0
 40
0.0
 41
1.0
 50
0.0
 71
     0
 42
2.5
  3
txt
  4

  0
STYLE
  5
2F
330
3
100
AcDbSymbolTableRecord
100
AcDbTextStyleTableRecord
  2
LCTX15-400-0-0-Arial
 70
     0
 40
0.0
 41
0.8
 50
0.0
 71
     0
 42
3.5
  3

  4

1001
ACAD
1000
Arial
1071
 16777218
  0
STYLE
  5
D4
330
3
100
AcDbSymbolTableRecord
100
AcDbTextStyleTableRecord
  2
LCTX15-400-0-0pDIN-Schrift
 70
     0
 40
2.5
 41
0.8
 50
15.0
 71
     0
 42
3.5
  3
STANDARD
  4

  0
ENDTAB
  0
TABLE
  2
VIEW
  5
6
330
0
100
AcDbSymbolTable
 70
     0
  0
ENDTAB
  0
TABLE
  2
UCS
  5
7
330
0
100
AcDbSymbolTable
 70
     0
  0
ENDTAB
  0
TABLE
  2
APPID
  5
9
330
0
100
AcDbSymbolTable
 70
     1
  0
APPID
  5
12
330
9
100
AcDbSymbolTableRecord
100
AcDbRegAppTableRecord
  2
ACAD
 70
     0
  0
ENDTAB
  0
TABLE
  2
DIMSTYLE
  5
A
330
0
100
AcDbSymbolTable
 70
     2
100
AcDbDimStyleTable
  0
DIMSTYLE
105
27
330
A
100
AcDbSymbolTableRecord
100
AcDbDimStyleTableRecord
  2
ISO-25
 70
     0
 41
2.5
 42
0.625
 43
3.75
 44
1.25
 73
     0
 74
     0
 77
     1
 78
     8
140
2.5
141
2.5
143
0.03937
147
0.625
171
     3
172
     1
271
     2
272
     2
274
     3
278
    44
283
     0
284
     8
340
11
  0
DIMSTYLE
105
D5
102
{ACAD_REACTORS
330
D6
330
1FE
330
20C
330
21A
330
518
330
527
330
534
330
541
330
54F
330
55C
330
56A
330
578
102
}
330
A
100
AcDbSymbolTableRecord
100
AcDbDimStyleTableRecord
  2
LC-DIM-L-0100-02-02
 70
     0
 40
5.0
 41
10.0
 42
0.0
 43
7.5
 44
1.8
 73
     0
 74
     0
 77
     1
 78
     8
 79
     2
140
10.0
141
0.0
146
0.71
147
1.5
176
     2
177
     2
178
     2
179
     2
271
     2
278
    44
289
     1
340
D4
  0
ENDTAB
  0
TABLE
  2
BLOCK_RECORD
  5
1
330
0
100
AcDbSymbolTable
 70
    48
  0
BLOCK_RECORD
  5
1F
330
1
100
AcDbSymbolTableRecord
100
AcDbBlockTableRecord
  2
*Model_Space
340
22
  0
BLOCK_RECORD
  5
1B
330
1
100
AcDbSymbolTableRecord
100
AcDbBlockTableRecord
  2
*Paper_Space
340
1E
  0
BLOCK_RECORD
  5
23
330
1
100
AcDbSymbolTableRecord
100
AcDbBlockTableRecord
  2
*Paper_Space0
340
26
  0
BLOCK_RECORD
  5
D8
330
1
100
AcDbSymbolTableRecord
100
AcDbBlockTableRecord
  2
*D1
340
0
  0
BLOCK_RECORD
  5
104
330
1
100
AcDbSymbolTableRecord
100
AcDbBlockTableRecord
  2
KLON1
340
0
102
{BLKREFS
331
109
102
}
  0
BLOCK_RECORD
  5
10C
330
1
100
AcDbSymbolTableRecord
100
AcDbBlockTableRecord
  2
KLON2
340
0
102
{BLKREFS
331
113
102
}
  0
BLOCK_RECORD
  5
115
330
1
100
AcDbSymbolTableRecord
100
AcDbBlockTableRecord
  2
KLON3
340
0
102
{BLKREFS
331
11A
102
}
  0
BLOCK_RECORD
  5
11B
330
1
100
AcDbSymbolTableRecord
100
AcDbBlockTableRecord
  2
KLON4
340
0
102
{BLKREFS
331
120
102
}
  0
BLOCK_RECORD
  5
122
330
1
100
AcDbSymbolTableRecord
100
AcDbBlockTableRecord
  2
KLON5
340
0
102
{BLKREFS
331
129
102
}
  0
BLOCK_RECORD
  5
12C
330
1
100
AcDbSymbolTableRecord
100
AcDbBlockTableRecord
  2
KLON6
340
0
102
{BLKREFS
331
131
102
}
  0
BLOCK_RECORD
  5
13F
330
1
100
AcDbSymbolTableRecord
100
AcDbBlockTableRecord
  2
KLON7
340
0
102
{BLKREFS
331
144
102
}
  0
BLOCK_RECORD
  5
145
330
1
100
AcDbSymbolTableRecord
100
AcDbBlockTableRecord
  2
KLON8
340
0
102
{BLKREFS
331
14A
102
}
  0
BLOCK_RECORD
  5
14C
330
1
100
AcDbSymbolTableRecord
100
AcDbBlockTableRecord
  2
KLON9
340
0
102
{BLKREFS
331
152
102
}
  0
BLOCK_RECORD
  5
153
330
1
100
AcDbSymbolTableRecord
100
AcDbBlockTableRecord
  2
KLON10
340
0
102
{BLKREFS
331
158
102
}
  0
BLOCK_RECORD
  5
159
330
1
100
AcDbSymbolTableRecord
100
AcDbBlockTableRecord
  2
KLON11
340
0
102
{BLKREFS
331
15F
102
}
  0
BLOCK_RECORD
  5
160
330
1
100
AcDbSymbolTableRecord
100
AcDbBlockTableRecord
  2
KLON12
340
0
102
{BLKREFS
331
166
102
}
  0
BLOCK_RECORD
  5
167
330
1
100
AcDbSymbolTableRecord
100
AcDbBlockTableRecord
  2
KLON13
340
0
102
{BLKREFS
331
16D
102
}
  0
BLOCK_RECORD
  5
16E
330
1
100
AcDbSymbolTableRecord
100
AcDbBlockTableRecord
  2
KLON14
340
0
102
{BLKREFS
331
173
102
}
  0
BLOCK_RECORD
  5
1FF
330
1
100
AcDbSymbolTableRecord
100
AcDbBlockTableRecord
  2
*D16
340
0
  0
BLOCK_RECORD
  5
20D
330
1
100
AcDbSymbolTableRecord
100
AcDbBlockTableRecord
  2
*D17
340
0
  0
BLOCK_RECORD
  5
21B
330
1
100
AcDbSymbolTableRecord
100
AcDbBlockTableRecord
  2
*D18
340
0
  0
BLOCK_RECORD
  5
37B
330
1
100
AcDbSymbolTableRecord
100
AcDbBlockTableRecord
  2
KLON15
340
0
102
{BLKREFS
331
38B
102
}
  0
BLOCK_RECORD
  5
38C
330
1
100
AcDbSymbolTableRecord
100
AcDbBlockTableRecord
  2
KLON16
340
0
102
{BLKREFS
331
39F
102
}
  0
BLOCK_RECORD
  5
3A3
330
1
100
AcDbSymbolTableRecord
100
AcDbBlockTableRecord
  2
KLON17
340
0
102
{BLKREFS
331
3A8
102
}
  0
BLOCK_RECORD
  5
4B9
330
1
100
AcDbSymbolTableRecord
100
AcDbBlockTableRecord
  2
KLON18
340
0
102
{BLKREFS
331
4C2
102
}
  0
BLOCK_RECORD
  5
4C3
330
1
100
AcDbSymbolTableRecord
100
AcDbBlockTableRecord
  2
KLON19
340
0
102
{BLKREFS
331
4CC
102
}
  0
BLOCK_RECORD
  5
4E7
330
1
100
AcDbSymbolTableRecord
100
AcDbBlockTableRecord
  2
KLON20
340
0
102
{BLKREFS
331
4EF
102
}
  0
BLOCK_RECORD
  5
4F0
330
1
100
AcDbSymbolTableRecord
100
AcDbBlockTableRecord
  2
KLON21
340
0
102
{BLKREFS
331
4FC
102
}
  0
BLOCK_RECORD
  5
4FD
330
1
100
AcDbSymbolTableRecord
100
AcDbBlockTableRecord
  2
KLON22
340
0
102
{BLKREFS
331
509
102
}
  0
BLOCK_RECORD
  5
519
330
1
100
AcDbSymbolTableRecord
100
AcDbBlockTableRecord
  2
*D27
340
0
  0
BLOCK_RECORD
  5
528
330
1
100
AcDbSymbolTableRecord
100
AcDbBlockTableRecord
  2
*D28
340
0
  0
BLOCK_RECORD
  5
535
330
1
100
AcDbSymbolTableRecord
100
AcDbBlockTableRecord
  2
*D29
340
0
  0
BLOCK_RECORD
  5
542
330
1
100
AcDbSymbolTableRecord
100
AcDbBlockTableRecord
  2
*D30
340
0
  0
BLOCK_RECORD
  5
550
330
1
100
AcDbSymbolTableRecord
100
AcDbBlockTableRecord
  2
*D31
340
0
  0
BLOCK_RECORD
  5
55D
330
1
100
AcDbSymbolTableRecord
100
AcDbBlockTableRecord
  2
*D32
340
0
  0
BLOCK_RECORD
  5
56B
330
1
100
AcDbSymbolTableRecord
100
AcDbBlockTableRecord
  2
*D33
340
0
  0
BLOCK_RECORD
  5
579
330
1
100
AcDbSymbolTableRecord
100
AcDbBlockTableRecord
  2
*D34
340
0
  0
BLOCK_RECORD
  5
587
330
1
100
AcDbSymbolTableRecord
100
AcDbBlockTableRecord
  2
KLON23
340
0
102
{BLKREFS
331
594
102
}
  0
BLOCK_RECORD
  5
595
330
1
100
AcDbSymbolTableRecord
100
AcDbBlockTableRecord
  2
KLON24
340
0
102
{BLKREFS
331
59A
102
}
  0
BLOCK_RECORD
  5
59D
330
1
100
AcDbSymbolTableRecord
100
AcDbBlockTableRecord
  2
KLON25
340
0
102
{BLKREFS
331
5B0
102
}
  0
BLOCK_RECORD
  5
5B1
330
1
100
AcDbSymbolTableRecord
100
AcDbBlockTableRecord
  2
KLON26
340
0
102
{BLKREFS
331
5C4
102
}
  0
BLOCK_RECORD
  5
5C5
330
1
100
AcDbSymbolTableRecord
100
AcDbBlockTableRecord
  2
KLON27
340
0
102
{BLKREFS
331
5CB
102
}
  0
BLOCK_RECORD
  5
5CC
330
1
100
AcDbSymbolTableRecord
100
AcDbBlockTableRecord
  2
KLON28
340
0
102
{BLKREFS
331
5D3
102
}
  0
BLOCK_RECORD
  5
5D4
330
1
100
AcDbSymbolTableRecord
100
AcDbBlockTableRecord
  2
KLON29
340
0
102
{BLKREFS
331
5E0
102
}
  0
BLOCK_RECORD
  5
5E1
330
1
100
AcDbSymbolTableRecord
100
AcDbBlockTableRecord
  2
KLON30
340
0
102
{BLKREFS
331
5E8
102
}
  0
BLOCK_RECORD
  5
5E9
330
1
100
AcDbSymbolTableRecord
100
AcDbBlockTableRecord
  2
KLON31
340
0
102
{BLKREFS
331
5EE
102
}
  0
BLOCK_RECORD
  5
5EF
330
1
100
AcDbSymbolTableRecord
100
AcDbBlockTableRecord
  2
KLON32
340
0
102
{BLKREFS
331
5F5
102
}
  0
BLOCK_RECORD
  5
5F8
330
1
100
AcDbSymbolTableRecord
100
AcDbBlockTableRecord
  2
KLON33
340
0
102
{BLKREFS
331
5FE
102
}
  0
BLOCK_RECORD
  5
602
330
1
100
AcDbSymbolTableRecord
100
AcDbBlockTableRecord
  2
KLON34
340
0
102
{BLKREFS
331
607
102
}
  0
BLOCK_RECORD
  5
60A
330
1
100
AcDbSymbolTableRecord
100
AcDbBlockTableRecord
  2
KLON35
340
0
102
{BLKREFS
331
60F
102
}
  0
ENDTAB
  0
ENDSEC
  0
SECTION
  2
BLOCKS
  0
BLOCK
  5
20
330
1F
100
AcDbEntity
  8
0
100
AcDbBlockBegin
  2
*Model_Space
 70
     0
 71
     0
 10
0.0
 20
0.0
 30
0.0
  3
*Model_Space
  1

  0
ENDBLK
  5
21
330
1F
100
AcDbEntity
  8
0
100
AcDbBlockEnd
  0
BLOCK
  5
1C
330
1B
100
AcDbEntity
 67
     1
  8
0
100
AcDbBlockBegin
  2
*Paper_Space
 70
     0
 71
     0
 10
0.0
 20
0.0
 30
0.0
  3
*Paper_Space
  1

  0
ENDBLK
  5
1D
330
1B
100
AcDbEntity
 67
     1
  8
0
100
AcDbBlockEnd
  0
BLOCK
  5
24
330
23
100
AcDbEntity
  8
0
100
AcDbBlockBegin
  2
*Paper_Space0
 70
     0
 71
     0
 10
0.0
 20
0.0
 30
0.0
  3
*Paper_Space0
  1

  0
ENDBLK
  5
25
330
23
100
AcDbEntity
  8
0
100
AcDbBlockEnd
  0
BLOCK
  5
E3
330
D8
100
AcDbEntity
  8
0
100
AcDbBlockBegin
  2
*D1
 70
     1
 71
     0
 10
0.0
 20
0.0
 30
0.0
  3
*D1
  1

  0
LINE
  5
D9
330
D8
100
AcDbEntity
  8
LC-001-100-D00-0
 62
     2
370
    -2
100
AcDbLine
 10
756.777316
 20
407.466873
 30
0.0
 11
756.777316
 21
278.333361
 31
0.0
  0
LINE
  5
DA
330
D8
100
AcDbEntity
  8
LC-001-100-D00-0
 62
     2
370
    -2
100
AcDbLine
 10
837.777316
 20
407.466873
 30
0.0
 11
837.777316
 21
278.333361
 31
0.0
  0
LINE
  5
DB
330
D8
100
AcDbEntity
  8
LC-001-100-D00-0
 62
     2
370
    -2
100
AcDbLine
 10
706.777316
 20
287.333361
 30
0.0
 11
656.777316
 21
287.333361
 31
0.0
  0
LINE
  5
DC
330
D8
100
AcDbEntity
  8
LC-001-100-D00-0
 62
     2
370
    -2
100
AcDbLine
 10
887.777316
 20
287.333361
 30
0.0
 11
960.528775
 21
287.333361
 31
0.0
  0
SOLID
  5
DD
330
D8
100
AcDbEntity
  8
LC-001-100-D00-0
 62
     2
100
AcDbTrace
 10
706.777316
 20
279.000028
 30
0.0
 11
706.777316
 21
295.666694
 31
0.0
 12
756.777316
 22
287.333361
 32
0.0
 13
756.777316
 23
287.333361
 33
0.0
  0
SOLID
  5
DE
330
D8
100
AcDbEntity
  8
LC-001-100-D00-0
 62
     2
100
AcDbTrace
 10
887.777316
 20
295.666694
 30
0.0
 11
887.777316
 21
279.000028
 31
0.0
 12
837.777316
 22
287.333361
 32
0.0
 13
837.777316
 23
287.333361
 33
0.0
  0
MTEXT
  5
DF
330
D8
100
AcDbEntity
  8
LC-001-100-D00-0
 62
     2
100
AcDbMText
 10
920.939327
 20
342.333361
 30
0.0
 40
50.0
 41
0.0
 71
     5
 72
     1
  1
\A1;81
  7
LCTX15-400-0-0pDIN-Schrift
 73
     1
 44
1.0
  0
POINT
  5
E0
330
D8
100
AcDbEntity
  8
Defpoints
 62
     0
100
AcDbPoint
 10
756.777316
 20
407.466873
 30
0.0
  0
POINT
  5
E1
330
D8
100
AcDbEntity
  8
Defpoints
 62
     0
100
AcDbPoint
 10
837.777316
 20
407.466873
 30
0.0
  0
POINT
  5
E2
330
D8
100
AcDbEntity
  8
Defpoints
 62
     0
100
AcDbPoint
 10
837.777316
 20
287.333361
 30
0.0
  0
ENDBLK
  5
E4
330
D8
100
AcDbEntity
  8
0
100
AcDbBlockEnd
  0
BLOCK
  5
105
330
104
100
AcDbEntity
  8
0
100
AcDbBlockBegin
  2
KLON1
 70
     0
 71
     0
 10
0.0
 20
0.0
 30
0.0
  3
KLON1
  1

  4
KLON1
  0
LINE
  5
107
330
104
100
AcDbEntity
  8
LC-001-100-D00-0
 62
     7
370
    15
100
AcDbLine
 10
309.288773
 20
128.733362
 30
0.0
 11
309.296194
 21
128.695189
 31
0.0
  0
LINE
  5
108
330
104
100
AcDbEntity
  8
LC-001-100-D00-0
 62
     7
370
    15
100
AcDbLine
 10
309.296194
 20
128.695189
 30
0.0
 11
309.314969
 21
128.662704
 31
0.0
  0
ENDBLK
  5
106
330
104
100
AcDbEntity
  8
0
100
AcDbBlockEnd
  0
BLOCK
  5
10D
330
10C
100
AcDbEntity
  8
0
100
AcDbBlockBegin
  2
KLON2
 70
     0
 71
     0
 10
0.0
 20
0.0
 30
0.0
  3
KLON2
  1

  4
KLON2
  0
LINE
  5
10F
330
10C
100
AcDbEntity
  8
LC-001-100-D00-0
 62
     7
370
    15
100
AcDbLine
 10
309.288773
 20
164.55603
 30
0.0
 11
309.301439
 21
164.475149
 31
0.0
  0
LINE
  5
110
330
10C
100
AcDbEntity
  8
LC-001-100-D00-0
 62
     7
370
    15
100
AcDbLine
 10
309.301439
 20
164.475149
 30
0.0
 11
309.310231
 21
164.41894
 31
0.0
  0
LINE
  5
111
330
10C
100
AcDbEntity
  8
LC-001-100-D00-0
 62
     7
370
    15
100
AcDbLine
 10
309.310231
 20
164.41894
 30
0.0
 11
309.312734
 21
164.402841
 31
0.0
  0
LINE
  5
112
330
10C
100
AcDbEntity
  8
LC-001-100-D00-0
 62
     7
370
    15
100
AcDbLine
 10
309.312734
 20
164.402841
 30
0.0
 11
309.314969
 21
164.388556
 31
0.0
  0
ENDBLK
  5
10E
330
10C
100
AcDbEntity
  8
0
100
AcDbBlockEnd
  0
BLOCK
  5
116
330
115
100
AcDbEntity
  8
0
100
AcDbBlockBegin
  2
KLON3
 70
     0
 71
     0
 10
0.0
 20
0.0
 30
0.0
  3
KLON3
  1

  4
KLON3
  0
LINE
  5
118
330
115
100
AcDbEntity
  8
LC-001-100-D00-0
 62
     7
370
    15
100
AcDbLine
 10
309.288773
 20
175.718722
 30
0.0
 11
309.299353
 21
175.724632
 31
0.0
  0
LINE
  5
119
330
115
100
AcDbEntity
  8
LC-001-100-D00-0
 62
     7
370
    15
100
AcDbLine
 10
309.299353
 20
175.724632
 30
0.0
 11
309.314969
 21
175.73336
 31
0.0
  0
ENDBLK
  5
117
330
115
100
AcDbEntity
  8
0
100
AcDbBlockEnd
  0
BLOCK
  5
11C
330
11B
100
AcDbEntity
  8
0
100
AcDbBlockBegin
  2
KLON4
 70
     0
 71
     0
 10
0.0
 20
0.0
 30
0.0
  3
KLON4
  1

  4
KLON4
  0
LINE
  5
11E
330
11B
100
AcDbEntity
  8
LC-001-100-D00-0
 62
     7
370
    15
100
AcDbLine
 10
-274.658826
 20
175.718722
 30
0.0
 11
-274.669406
 21
175.724632
 31
0.0
  0
LINE
  5
11F
330
11B
100
AcDbEntity
  8
LC-001-100-D00-0
 62
     7
370
    15
100
AcDbLine
 10
-274.669406
 20
175.724632
 30
0.0
 11
-274.685022
 21
175.73336
 31
0.0
  0
ENDBLK
  5
11D
330
11B
100
AcDbEntity
  8
0
100
AcDbBlockEnd
  0
BLOCK
  5
123
330
122
100
AcDbEntity
  8
0
100
AcDbBlockBegin
  2
KLON5
 70
     0
 71
     0
 10
0.0
 20
0.0
 30
0.0
  3
KLON5
  1

  4
KLON5
  0
LINE
  5
125
330
122
100
AcDbEntity
  8
LC-001-100-D00-0
 62
     7
370
    15
100
AcDbLine
 10
-274.658826
 20
164.55603
 30
0.0
 11
-274.671492
 21
164.475149
 31
0.0
  0
LINE
  5
126
330
122
100
AcDbEntity
  8
LC-001-100-D00-0
 62
     7
370
    15
100
AcDbLine
 10
-274.671492
 20
164.475149
 30
0.0
 11
-274.680284
 21
164.41894
 31
0.0
  0
LINE
  5
127
330
122
100
AcDbEntity
  8
LC-001-100-D00-0
 62
     7
370
    15
100
AcDbLine
 10
-274.680284
 20
164.41894
 30
0.0
 11
-274.682787
 21
164.402841
 31
0.0
  0
LINE
  5
128
330
122
100
AcDbEntity
  8
LC-001-100-D00-0
 62
     7
370
    15
100
AcDbLine
 10
-274.682787
 20
164.402841
 30
0.0
 11
-274.685022
 21
164.388556
 31
0.0
  0
ENDBLK
  5
124
330
122
100
AcDbEntity
  8
0
100
AcDbBlockEnd
  0
BLOCK
  5
12D
330
12C
100
AcDbEntity
  8
0
100
AcDbBlockBegin
  2
KLON6
 70
     0
 71
     0
 10
0.0
 20
0.0
 30
0.0
  3
KLON6
  1

  4
KLON6
  0
LINE
  5
12F
330
12C
100
AcDbEntity
  8
LC-001-100-D00-0
 62
     7
370
    15
100
AcDbLine
 10
-274.658826
 20
128.733362
 30
0.0
 11
-274.666247
 21
128.695189
 31
0.0
  0
LINE
  5
130
330
12C
100
AcDbEntity
  8
LC-001-100-D00-0
 62
     7
370
    15
100
AcDbLine
 10
-274.666247
 20
128.695189
 30
0.0
 11
-274.685022
 21
128.662704
 31
0.0
  0
ENDBLK
  5
12E
330
12C
100
AcDbEntity
  8
0
100
AcDbBlockEnd
  0
BLOCK
  5
140
330
13F
100
AcDbEntity
  8
0
100
AcDbBlockBegin
  2
KLON7
 70
     0
 71
     0
 10
0.0
 20
0.0
 30
0.0
  3
KLON7
  1

  4
KLON7
  0
LINE
  5
142
330
13F
100
AcDbEntity
  8
LC-001-100-D00-0
 62
     7
370
    15
100
AcDbLine
 10
309.260252
 20
139.899952
 30
0.0
 11
309.276435
 21
139.906036
 31
0.0
  0
LINE
  5
143
330
13F
100
AcDbEntity
  8
LC-001-100-D00-0
 62
     7
370
    15
100
AcDbLine
 10
309.276435
 20
139.906036
 30
0.0
 11
309.288773
 21
139.910692
 31
0.0
  0
ENDBLK
  5
141
330
13F
100
AcDbEntity
  8
0
100
AcDbBlockEnd
  0
BLOCK
  5
146
330
145
100
AcDbEntity
  8
0
100
AcDbBlockBegin
  2
KLON8
 70
     0
 71
     0
 10
0.0
 20
0.0
 30
0.0
  3
KLON8
  1

  4
KLON8
  0
LINE
  5
148
330
145
100
AcDbEntity
  8
LC-001-100-D00-0
 62
     7
370
    15
100
AcDbLine
 10
-274.630305
 20
139.899952
 30
0.0
 11
-274.646488
 21
139.906036
 31
0.0
  0
LINE
  5
149
330
145
100
AcDbEntity
  8
LC-001-100-D00-0
 62
     7
370
    15
100
AcDbLine
 10
-274.646488
 20
139.906036
 30
0.0
 11
-274.658826
 21
139.910692
 31
0.0
  0
ENDBLK
  5
147
330
145
100
AcDbEntity
  8
0
100
AcDbBlockEnd
  0
BLOCK
  5
14D
330
14C
100
AcDbEntity
  8
0
100
AcDbBlockBegin
  2
KLON9
 70
     0
 71
     0
 10
0.0
 20
0.0
 30
0.0
  3
KLON9
  1

  4
KLON9
  0
LINE
  5
14F
330
14C
100
AcDbEntity
  8
LC-001-100-D00-0
 62
     7
370
    15
100
AcDbLine
 10
172.301906
 20
146.374144
 30
0.0
 11
172.313306
 21
146.787618
 31
0.0
  0
LINE
  5
150
330
14C
100
AcDbEntity
  8
LC-001-100-D00-0
 62
     7
370
    15
100
AcDbLine
 10
172.313306
 20
146.787618
 30
0.0
 11
172.324988
 21
147.210876
 31
0.0
  0
LINE
  5
151
330
14C
100
AcDbEntity
  8
LC-001-100-D00-0
 62
     7
370
    15
100
AcDbLine
 10
172.324988
 20
147.210876
 30
0.0
 11
172.33679
 21
147.639055
 31
0.0
  0
ENDBLK
  5
14E
330
14C
100
AcDbEntity
  8
0
100
AcDbBlockEnd
  0
BLOCK
  5
154
330
153
100
AcDbEntity
  8
0
100
AcDbBlockBegin
  2
KLON10
 70
     0
 71
     0
 10
0.0
 20
0.0
 30
0.0
  3
KLON10
  1

  4
KLON10
  0
LINE
  5
156
330
153
100
AcDbEntity
  8
LC-001-100-D00-0
 62
     7
370
    15
100
AcDbLine
 10
309.260252
 20
164.56677
 30
0.0
 11
309.276435
 21
164.560685
 31
0.0
  0
LINE
  5
157
330
153
100
AcDbEntity
  8
LC-001-100-D00-0
 62
     7
370
    15
100
AcDbLine
 10
309.276435
 20
164.560685
 30
0.0
 11
309.288773
 21
164.55603
 31
0.0
  0
ENDBLK
  5
155
330
153
100
AcDbEntity
  8
0
100
AcDbBlockEnd
  0
BLOCK
  5
15A
330
159
100
AcDbEntity
  8
0
100
AcDbBlockBegin
  2
KLON11
 70
     0
 71
     0
 10
0.0
 20
0.0
 30
0.0
  3
KLON11
  1

  4
KLON11
  0
LINE
  5
15C
330
159
100
AcDbEntity
  8
LC-001-100-D00-0
 62
     7
370
    15
100
AcDbLine
 10
172.33679
 20
156.827667
 30
0.0
 11
172.324988
 21
157.255846
 31
0.0
  0
LINE
  5
15D
330
159
100
AcDbEntity
  8
LC-001-100-D00-0
 62
     7
370
    15
100
AcDbLine
 10
172.324988
 20
157.255846
 30
0.0
 11
172.313306
 21
157.679104
 31
0.0
  0
LINE
  5
15E
330
159
100
AcDbEntity
  8
LC-001-100-D00-0
 62
     7
370
    15
100
AcDbLine
 10
172.313306
 20
157.679104
 30
0.0
 11
172.301906
 21
158.092578
 31
0.0
  0
ENDBLK
  5
15B
330
159
100
AcDbEntity
  8
0
100
AcDbBlockEnd
  0
BLOCK
  5
161
330
160
100
AcDbEntity
  8
0
100
AcDbBlockBegin
  2
KLON12
 70
     0
 71
     0
 10
0.0
 20
0.0
 30
0.0
  3
KLON12
  1

  4
KLON12
  0
LINE
  5
163
330
160
100
AcDbEntity
  8
LC-001-100-D00-0
 62
     7
370
    15
100
AcDbLine
 10
-137.671959
 20
146.374144
 30
0.0
 11
-137.683359
 21
146.787618
 31
0.0
  0
LINE
  5
164
330
160
100
AcDbEntity
  8
LC-001-100-D00-0
 62
     7
370
    15
100
AcDbLine
 10
-137.683359
 20
146.787618
 30
0.0
 11
-137.695041
 21
147.210876
 31
0.0
  0
LINE
  5
165
330
160
100
AcDbEntity
  8
LC-001-100-D00-0
 62
     7
370
    15
100
AcDbLine
 10
-137.695041
 20
147.210876
 30
0.0
 11
-137.706843
 21
147.639055
 31
0.0
  0
ENDBLK
  5
162
330
160
100
AcDbEntity
  8
0
100
AcDbBlockEnd
  0
BLOCK
  5
168
330
167
100
AcDbEntity
  8
0
100
AcDbBlockBegin
  2
KLON13
 70
     0
 71
     0
 10
0.0
 20
0.0
 30
0.0
  3
KLON13
  1

  4
KLON13
  0
LINE
  5
16A
330
167
100
AcDbEntity
  8
LC-001-100-D00-0
 62
     7
370
    15
100
AcDbLine
 10
-137.706843
 20
156.827667
 30
0.0
 11
-137.695041
 21
157.255846
 31
0.0
  0
LINE
  5
16B
330
167
100
AcDbEntity
  8
LC-001-100-D00-0
 62
     7
370
    15
100
AcDbLine
 10
-137.695041
 20
157.255846
 30
0.0
 11
-137.683359
 21
157.679104
 31
0.0
  0
LINE
  5
16C
330
167
100
AcDbEntity
  8
LC-001-100-D00-0
 62
     7
370
    15
100
AcDbLine
 10
-137.683359
 20
157.679104
 30
0.0
 11
-137.671959
 21
158.092578
 31
0.0
  0
ENDBLK
  5
169
330
167
100
AcDbEntity
  8
0
100
AcDbBlockEnd
  0
BLOCK
  5
16F
330
16E
100
AcDbEntity
  8
0
100
AcDbBlockBegin
  2
KLON14
 70
     0
 71
     0
 10
0.0
 20
0.0
 30
0.0
  3
KLON14
  1

  4
KLON14
  0
LINE
  5
171
330
16E
100
AcDbEntity
  8
LC-001-100-D00-0
 62
     7
370
    15
100
AcDbLine
 10
-274.630305
 20
164.56677
 30
0.0
 11
-274.646488
 21
164.560685
 31
0.0
  0
LINE
  5
172
330
16E
100
AcDbEntity
  8
LC-001-100-D00-0
 62
     7
370
    15
100
AcDbLine
 10
-274.646488
 20
164.560685
 30
0.0
 11
-274.658826
 21
164.55603
 31
0.0
  0
ENDBLK
  5
170
330
16E
100
AcDbEntity
  8
0
100
AcDbBlockEnd
  0
BLOCK
  5
20A
330
1FF
100
AcDbEntity
  8
0
100
AcDbBlockBegin
  2
*D16
 70
     1
 71
     0
 10
0.0
 20
0.0
 30
0.0
  3
*D16
  1

  0
LINE
  5
200
330
1FF
100
AcDbEntity
  8
LC-001-100-D00-0
 62
     2
370
    -2
100
AcDbLine
 10
362.314973
 20
198.233361
 30
0.0
 11
454.579122
 21
198.233361
 31
0.0
  0
LINE
  5
201
330
1FF
100
AcDbEntity
  8
LC-001-100-D00-0
 62
     2
370
    -2
100
AcDbLine
 10
362.314973
 20
196.733361
 30
0.0
 11
454.579122
 21
196.733361
 31
0.0
  0
LINE
  5
202
330
1FF
100
AcDbEntity
  8
LC-001-100-D00-0
 62
     2
370
    -2
100
AcDbLine
 10
445.579122
 20
248.233361
 30
0.0
 11
445.579122
 21
298.233361
 31
0.0
  0
LINE
  5
203
330
1FF
100
AcDbEntity
  8
LC-001-100-D00-0
 62
     2
370
    -2
100
AcDbLine
 10
445.579122
 20
146.733361
 30
0.0
 11
445.579122
 21
89.283679
 31
0.0
  0
SOLID
  5
204
330
1FF
100
AcDbEntity
  8
LC-001-100-D00-0
 62
     2
100
AcDbTrace
 10
437.245789
 20
248.233361
 30
0.0
 11
453.912456
 21
248.233361
 31
0.0
 12
445.579122
 22
198.233361
 32
0.0
 13
445.579122
 23
198.233361
 33
0.0
  0
SOLID
  5
205
330
1FF
100
AcDbEntity
  8
LC-001-100-D00-0
 62
     2
100
AcDbTrace
 10
453.912456
 20
146.733361
 30
0.0
 11
437.245789
 21
146.733361
 31
0.0
 12
445.579122
 22
196.733361
 32
0.0
 13
445.579122
 23
196.733361
 33
0.0
  0
MTEXT
  5
206
330
1FF
100
AcDbEntity
  8
LC-001-100-D00-0
 62
     2
100
AcDbMText
 10
390.579122
 20
135.863361
 30
0.0
 40
50.0
 41
0.0
 71
     5
 72
     1
  1
\A1;1.5
  7
LCTX15-400-0-0pDIN-Schrift
 11
6.123031769111886E-17
 21
1.0
 31
0.0
 73
     1
 44
1.0
  0
POINT
  5
207
330
1FF
100
AcDbEntity
  8
Defpoints
 62
     0
100
AcDbPoint
 10
362.314973
 20
198.233361
 30
0.0
  0
POINT
  5
208
330
1FF
100
AcDbEntity
  8
Defpoints
 62
     0
100
AcDbPoint
 10
362.314973
 20
196.733361
 30
0.0
  0
POINT
  5
209
330
1FF
100
AcDbEntity
  8
Defpoints
 62
     0
100
AcDbPoint
 10
445.579122
 20
196.733361
 30
0.0
  0
ENDBLK
  5
20B
330
1FF
100
AcDbEntity
  8
0
100
AcDbBlockEnd
  0
BLOCK
  5
218
330
20D
100
AcDbEntity
  8
0
100
AcDbBlockBegin
  2
*D17
 70
     1
 71
     0
 10
0.0
 20
0.0
 30
0.0
  3
*D17
  1

  0
LINE
  5
20E
330
20D
100
AcDbEntity
  8
LC-001-100-D00-0
 62
     2
370
    -2
100
AcDbLine
 10
362.314973
 20
196.733361
 30
0.0
 11
536.385297
 21
196.733361
 31
0.0
  0
LINE
  5
20F
330
20D
100
AcDbEntity
  8
LC-001-100-D00-0
 62
     2
370
    -2
100
AcDbLine
 10
314.814973
 20
178.233361
 30
0.0
 11
536.385297
 21
178.233361
 31
0.0
  0
LINE
  5
210
330
20D
100
AcDbEntity
  8
LC-001-100-D00-0
 62
     2
370
    -2
100
AcDbLine
 10
527.385297
 20
246.733361
 30
0.0
 11
527.385297
 21
296.733361
 31
0.0
  0
LINE
  5
211
330
20D
100
AcDbEntity
  8
LC-001-100-D00-0
 62
     2
370
    -2
100
AcDbLine
 10
527.385297
 20
128.233361
 30
0.0
 11
527.385297
 21
49.44606
 31
0.0
  0
SOLID
  5
212
330
20D
100
AcDbEntity
  8
LC-001-100-D00-0
 62
     2
100
AcDbTrace
 10
519.051964
 20
246.733361
 30
0.0
 11
535.71863
 21
246.733361
 31
0.0
 12
527.385297
 22
196.733361
 32
0.0
 13
527.385297
 23
196.733361
 33
0.0
  0
SOLID
  5
213
330
20D
100
AcDbEntity
  8
LC-001-100-D00-0
 62
     2
100
AcDbTrace
 10
535.71863
 20
128.233361
 30
0.0
 11
519.051964
 21
128.233361
 31
0.0
 12
527.385297
 22
178.233361
 32
0.0
 13
527.385297
 23
178.233361
 33
0.0
  0
MTEXT
  5
214
330
20D
100
AcDbEntity
  8
LC-001-100-D00-0
 62
     2
100
AcDbMText
 10
472.385297
 20
115.073361
 30
0.0
 40
50.0
 41
0.0
 71
     5
 72
     1
  1
\A1;18,5
  7
LCTX15-400-0-0pDIN-Schrift
 11
6.123031769111886E-17
 21
1.0
 31
0.0
 73
     1
 44
1.0
  0
POINT
  5
215
330
20D
100
AcDbEntity
  8
Defpoints
 62
     0
100
AcDbPoint
 10
362.314973
 20
196.733361
 30
0.0
  0
POINT
  5
216
330
20D
100
AcDbEntity
  8
Defpoints
 62
     0
100
AcDbPoint
 10
314.814973
 20
178.233361
 30
0.0
  0
POINT
  5
217
330
20D
100
AcDbEntity
  8
Defpoints
 62
     0
100
AcDbPoint
 10
527.385297
 20
178.233361
 30
0.0
  0
ENDBLK
  5
219
330
20D
100
AcDbEntity
  8
0
100
AcDbBlockEnd
  0
BLOCK
  5
226
330
21B
100
AcDbEntity
  8
0
100
AcDbBlockBegin
  2
*D18
 70
     1
 71
     0
 10
0.0
 20
0.0
 30
0.0
  3
*D18
  1

  0
LINE
  5
21C
330
21B
100
AcDbEntity
  8
LC-001-100-D00-0
 62
     2
370
    -2
100
AcDbLine
 10
362.314973
 20
198.233361
 30
0.0
 11
602.714628
 21
198.233361
 31
0.0
  0
LINE
  5
21D
330
21B
100
AcDbEntity
  8
LC-001-100-D00-0
 62
     2
370
    -2
100
AcDbLine
 10
362.314973
 20
74.733361
 30
0.0
 11
602.714628
 21
74.733361
 31
0.0
  0
LINE
  5
21E
330
21B
100
AcDbEntity
  8
LC-001-100-D00-0
 62
     2
370
    -2
100
AcDbLine
 10
593.714628
 20
148.233361
 30
0.0
 11
593.714628
 21
124.733361
 31
0.0
  0
LINE
  5
21F
330
21B
100
AcDbEntity
  8
LC-001-100-D00-0
 62
     2
370
    -2
100
AcDbLine
 10
593.714628
 20
74.733361
 30
0.0
 11
593.714628
 21
-113.646559
 31
0.0
  0
SOLID
  5
220
330
21B
100
AcDbEntity
  8
LC-001-100-D00-0
 62
     2
100
AcDbTrace
 10
602.047961
 20
148.233361
 30
0.0
 11
585.381295
 21
148.233361
 31
0.0
 12
593.714628
 22
198.233361
 32
0.0
 13
593.714628
 23
198.233361
 33
0.0
  0
SOLID
  5
221
330
21B
100
AcDbEntity
  8
LC-001-100-D00-0
 62
     2
100
AcDbTrace
 10
585.381295
 20
124.733361
 30
0.0
 11
602.047961
 21
124.733361
 31
0.0
 12
593.714628
 22
74.733361
 32
0.0
 13
593.714628
 23
74.733361
 33
0.0
  0
MTEXT
  5
222
330
21B
100
AcDbEntity
  8
LC-001-100-D00-0
 62
     2
100
AcDbMText
 10
538.714628
 20
-28.971639
 30
0.0
 40
50.0
 41
0.0
 71
     5
 72
     1
  1
\A1;123.5
  7
LCTX15-400-0-0pDIN-Schrift
 11
6.123031769111886E-17
 21
1.0
 31
0.0
 73
     1
 44
1.0
  0
POINT
  5
223
330
21B
100
AcDbEntity
  8
Defpoints
 62
     0
100
AcDbPoint
 10
362.314973
 20
198.233361
 30
0.0
  0
POINT
  5
224
330
21B
100
AcDbEntity
  8
Defpoints
 62
     0
100
AcDbPoint
 10
362.314973
 20
74.733361
 30
0.0
  0
POINT
  5
225
330
21B
100
AcDbEntity
  8
Defpoints
 62
     0
100
AcDbPoint
 10
593.714628
 20
74.733361
 30
0.0
  0
ENDBLK
  5
227
330
21B
100
AcDbEntity
  8
0
100
AcDbBlockEnd
  0
BLOCK
  5
37C
330
37B
100
AcDbEntity
  8
0
100
AcDbBlockBegin
  2
KLON15
 70
     0
 71
     0
 10
0.0
 20
0.0
 30
0.0
  3
KLON15
  1

  4
KLON15
  0
LINE
  5
37E
330
37B
100
AcDbEntity
  8
LC-001-100-D00-0
 62
     7
370
    15
100
AcDbLine
 10
91.314968
 20
397.966874
 30
0.0
 11
91.312242
 21
397.966904
 31
0.0
  0
LINE
  5
37F
330
37B
100
AcDbEntity
  8
LC-001-100-D00-0
 62
     7
370
    15
100
AcDbLine
 10
91.312242
 20
397.966904
 30
0.0
 11
91.307659
 21
397.967097
 31
0.0
  0
LINE
  5
380
330
37B
100
AcDbEntity
  8
LC-001-100-D00-0
 62
     7
370
    15
100
AcDbLine
 10
91.307659
 20
397.967097
 30
0.0
 11
91.298786
 21
397.967932
 31
0.0
  0
LINE
  5
381
330
37B
100
AcDbEntity
  8
LC-001-100-D00-0
 62
     7
370
    15
100
AcDbLine
 10
91.298786
 20
397.967932
 30
0.0
 11
91.296506
 21
397.968237
 31
0.0
  0
LINE
  5
382
330
37B
100
AcDbEntity
  8
LC-001-100-D00-0
 62
     7
370
    15
100
AcDbLine
 10
91.296506
 20
397.968237
 30
0.0
 11
91.295932
 21
397.968319
 31
0.0
  0
LINE
  5
383
330
37B
100
AcDbEntity
  8
LC-001-100-D00-0
 62
     7
370
    15
100
AcDbLine
 10
91.295932
 20
397.968319
 30
0.0
 11
91.295791
 21
397.968342
 31
0.0
  0
LINE
  5
384
330
37B
100
AcDbEntity
  8
LC-001-100-D00-0
 62
     7
370
    15
100
AcDbLine
 10
91.295791
 20
397.968342
 30
0.0
 11
91.176611
 21
398.017612
 31
0.0
  0
LINE
  5
385
330
37B
100
AcDbEntity
  8
LC-001-100-D00-0
 62
     7
370
    15
100
AcDbLine
 10
91.176611
 20
398.017612
 30
0.0
 11
90.336007
 21
398.830508
 31
0.0
  0
LINE
  5
386
330
37B
100
AcDbEntity
  8
LC-001-100-D00-0
 62
     7
370
    15
100
AcDbLine
 10
90.336007
 20
398.830508
 30
0.0
 11
89.247328
 21
400.15584
 31
0.0
  0
LINE
  5
387
330
37B
100
AcDbEntity
  8
LC-001-100-D00-0
 62
     7
370
    15
100
AcDbLine
 10
89.247328
 20
400.15584
 30
0.0
 11
87.821466
 21
402.058994
 31
0.0
  0
LINE
  5
388
330
37B
100
AcDbEntity
  8
LC-001-100-D00-0
 62
     7
370
    15
100
AcDbLine
 10
87.821466
 20
402.058994
 30
0.0
 11
85.769121
 21
405.024652
 31
0.0
  0
LINE
  5
389
330
37B
100
AcDbEntity
  8
LC-001-100-D00-0
 62
     7
370
    15
100
AcDbLine
 10
85.769121
 20
405.024652
 30
0.0
 11
83.398451
 21
408.665982
 31
0.0
  0
LINE
  5
38A
330
37B
100
AcDbEntity
  8
LC-001-100-D00-0
 62
     7
370
    15
100
AcDbLine
 10
83.398451
 20
408.665982
 30
0.0
 11
83.290261
 21
408.832368
 31
0.0
  0
ENDBLK
  5
37D
330
37B
100
AcDbEntity
  8
0
100
AcDbBlockEnd
  0
BLOCK
  5
38D
330
38C
100
AcDbEntity
  8
0
100
AcDbBlockBegin
  2
KLON16
 70
     0
 71
     0
 10
0.0
 20
0.0
 30
0.0
  3
KLON16
  1

  4
KLON16
  0
LINE
  5
38F
330
38C
100
AcDbEntity
  8
LC-001-100-D00-0
 62
     7
370
    15
100
AcDbLine
 10
83.290261
 20
408.832368
 30
0.0
 11
82.548653
 21
411.210914
 31
0.0
  0
LINE
  5
390
330
38C
100
AcDbEntity
  8
LC-001-100-D00-0
 62
     7
370
    15
100
AcDbLine
 10
82.548653
 20
411.210914
 30
0.0
 11
81.913915
 21
413.791341
 31
0.0
  0
LINE
  5
391
330
38C
100
AcDbEntity
  8
LC-001-100-D00-0
 62
     7
370
    15
100
AcDbLine
 10
81.913915
 20
413.791341
 30
0.0
 11
81.394707
 21
416.923524
 31
0.0
  0
LINE
  5
392
330
38C
100
AcDbEntity
  8
LC-001-100-D00-0
 62
     7
370
    15
100
AcDbLine
 10
81.394707
 20
416.923524
 30
0.0
 11
81.157868
 21
420.260401
 31
0.0
  0
LINE
  5
393
330
38C
100
AcDbEntity
  8
LC-001-100-D00-0
 62
     7
370
    15
100
AcDbLine
 10
81.157868
 20
420.260401
 30
0.0
 11
81.248787
 21
423.53017
 31
0.0
  0
LINE
  5
394
330
38C
100
AcDbEntity
  8
LC-001-100-D00-0
 62
     7
370
    15
100
AcDbLine
 10
81.248787
 20
423.53017
 30
0.0
 11
81.660603
 21
426.821546
 31
0.0
  0
LINE
  5
395
330
38C
100
AcDbEntity
  8
LC-001-100-D00-0
 62
     7
370
    15
100
AcDbLine
 10
81.660603
 20
426.821546
 30
0.0
 11
82.304497
 21
429.814336
 31
0.0
  0
LINE
  5
396
330
38C
100
AcDbEntity
  8
LC-001-100-D00-0
 62
     7
370
    15
100
AcDbLine
 10
82.304497
 20
429.814336
 30
0.0
 11
83.143127
 21
432.664261
 31
0.0
  0
LINE
  5
397
330
38C
100
AcDbEntity
  8
LC-001-100-D00-0
 62
     7
370
    15
100
AcDbLine
 10
83.143127
 20
432.664261
 30
0.0
 11
84.210788
 21
435.575289
 31
0.0
  0
LINE
  5
398
330
38C
100
AcDbEntity
  8
LC-001-100-D00-0
 62
     7
370
    15
100
AcDbLine
 10
84.210788
 20
435.575289
 30
0.0
 11
85.334663
 21
438.185391
 31
0.0
  0
LINE
  5
399
330
38C
100
AcDbEntity
  8
LC-001-100-D00-0
 62
     7
370
    15
100
AcDbLine
 10
85.334663
 20
438.185391
 30
0.0
 11
86.483081
 21
440.562104
 31
0.0
  0
LINE
  5
39A
330
38C
100
AcDbEntity
  8
LC-001-100-D00-0
 62
     7
370
    15
100
AcDbLine
 10
86.483081
 20
440.562104
 30
0.0
 11
87.454897
 21
442.416214
 31
0.0
  0
LINE
  5
39B
330
38C
100
AcDbEntity
  8
LC-001-100-D00-0
 62
     7
370
    15
100
AcDbLine
 10
87.454897
 20
442.416214
 30
0.0
 11
87.997136
 21
443.402485
 31
0.0
  0
LINE
  5
39C
330
38C
100
AcDbEntity
  8
LC-001-100-D00-0
 62
     7
370
    15
100
AcDbLine
 10
87.997136
 20
443.402485
 30
0.0
 11
88.283834
 21
443.912012
 31
0.0
  0
LINE
  5
39D
330
38C
100
AcDbEntity
  8
LC-001-100-D00-0
 62
     7
370
    15
100
AcDbLine
 10
88.283834
 20
443.912012
 30
0.0
 11
88.314694
 21
443.96639
 31
0.0
  0
LINE
  5
39E
330
38C
100
AcDbEntity
  8
LC-001-100-D00-0
 62
     7
370
    15
100
AcDbLine
 10
88.314694
 20
443.96639
 30
0.0
 11
88.31497
 21
443.966874
 31
0.0
  0
ENDBLK
  5
38E
330
38C
100
AcDbEntity
  8
0
100
AcDbBlockEnd
  0
BLOCK
  5
3A4
330
3A3
100
AcDbEntity
  8
0
100
AcDbBlockBegin
  2
KLON17
 70
     0
 71
     0
 10
0.0
 20
0.0
 30
0.0
  3
KLON17
  1

  4
KLON17
  0
LINE
  5
3A6
330
3A3
100
AcDbEntity
  8
LC-001-100-D00-0
 62
     7
370
    15
100
AcDbLine
 10
82.632419
 20
407.466871
 30
0.0
 11
82.639199
 21
407.481154
 31
0.0
  0
LINE
  5
3A7
330
3A3
100
AcDbEntity
  8
LC-001-100-D00-0
 62
     7
370
    15
100
AcDbLine
 10
82.639199
 20
407.481154
 30
0.0
 11
83.290261
 21
408.832368
 31
0.0
  0
ENDBLK
  5
3A5
330
3A3
100
AcDbEntity
  8
0
100
AcDbBlockEnd
  0
BLOCK
  5
4BA
330
4B9
100
AcDbEntity
  8
0
100
AcDbBlockBegin
  2
KLON18
 70
     0
 71
     0
 10
0.0
 20
0.0
 30
0.0
  3
KLON18
  1

  4
KLON18
  0
LINE
  5
4BC
330
4B9
100
AcDbEntity
  8
LC-001-100-D00-0
 62
     7
370
    15
100
AcDbLine
 10
300.222662
 20
456.135037
 30
0.0
 11
302.778956
 21
456.228334
 31
0.0
  0
LINE
  5
4BD
330
4B9
100
AcDbEntity
  8
LC-001-100-D00-0
 62
     7
370
    15
100
AcDbLine
 10
302.778956
 20
456.228334
 30
0.0
 11
304.924753
 21
456.306647
 31
0.0
  0
LINE
  5
4BE
330
4B9
100
AcDbEntity
  8
LC-001-100-D00-0
 62
     7
370
    15
100
AcDbLine
 10
304.924753
 20
456.306647
 30
0.0
 11
306.654897
 21
456.36979
 31
0.0
  0
LINE
  5
4BF
330
4B9
100
AcDbEntity
  8
LC-001-100-D00-0
 62
     7
370
    15
100
AcDbLine
 10
306.654897
 20
456.36979
 30
0.0
 11
307.965216
 21
456.417612
 31
0.0
  0
LINE
  5
4C0
330
4B9
100
AcDbEntity
  8
LC-001-100-D00-0
 62
     7
370
    15
100
AcDbLine
 10
307.965216
 20
456.417612
 30
0.0
 11
308.85264
 21
456.45
 31
0.0
  0
LINE
  5
4C1
330
4B9
100
AcDbEntity
  8
LC-001-100-D00-0
 62
     7
370
    15
100
AcDbLine
 10
308.85264
 20
456.45
 30
0.0
 11
309.314963
 21
456.466873
 31
0.0
  0
ENDBLK
  5
4BB
330
4B9
100
AcDbEntity
  8
0
100
AcDbBlockEnd
  0
BLOCK
  5
4C4
330
4C3
100
AcDbEntity
  8
0
100
AcDbBlockBegin
  2
KLON19
 70
     0
 71
     0
 10
0.0
 20
0.0
 30
0.0
  3
KLON19
  1

  4
KLON19
  0
LINE
  5
4C6
330
4C3
100
AcDbEntity
  8
LC-001-100-D00-0
 62
     7
370
    15
100
AcDbLine
 10
-265.592727
 20
456.135037
 30
0.0
 11
-268.149021
 21
456.228334
 31
0.0
  0
LINE
  5
4C7
330
4C3
100
AcDbEntity
  8
LC-001-100-D00-0
 62
     7
370
    15
100
AcDbLine
 10
-268.149021
 20
456.228334
 30
0.0
 11
-270.294818
 21
456.306647
 31
0.0
  0
LINE
  5
4C8
330
4C3
100
AcDbEntity
  8
LC-001-100-D00-0
 62
     7
370
    15
100
AcDbLine
 10
-270.294818
 20
456.306647
 30
0.0
 11
-272.024962
 21
456.36979
 31
0.0
  0
LINE
  5
4C9
330
4C3
100
AcDbEntity
  8
LC-001-100-D00-0
 62
     7
370
    15
100
AcDbLine
 10
-272.024962
 20
456.36979
 30
0.0
 11
-273.335281
 21
456.417612
 31
0.0
  0
LINE
  5
4CA
330
4C3
100
AcDbEntity
  8
LC-001-100-D00-0
 62
     7
370
    15
100
AcDbLine
 10
-273.335281
 20
456.417612
 30
0.0
 11
-274.222705
 21
456.45
 31
0.0
  0
LINE
  5
4CB
330
4C3
100
AcDbEntity
  8
LC-001-100-D00-0
 62
     7
370
    15
100
AcDbLine
 10
-274.222705
 20
456.45
 30
0.0
 11
-274.685028
 21
456.466873
 31
0.0
  0
ENDBLK
  5
4C5
330
4C3
100
AcDbEntity
  8
0
100
AcDbBlockEnd
  0
BLOCK
  5
4E8
330
4E7
100
AcDbEntity
  8
0
100
AcDbBlockBegin
  2
KLON20
 70
     0
 71
     0
 10
0.0
 20
0.0
 30
0.0
  3
KLON20
  1

  4
KLON20
  0
LINE
  5
4EA
330
4E7
100
AcDbEntity
  8
LC-001-100-D00-0
 62
     7
370
    15
100
AcDbLine
 10
-28.804648
 20
444.466871
 30
0.0
 11
-28.791118
 21
444.308166
 31
0.0
  0
LINE
  5
4EB
330
4E7
100
AcDbEntity
  8
LC-001-100-D00-0
 62
     7
370
    15
100
AcDbLine
 10
-28.791118
 20
444.308166
 30
0.0
 11
-28.629194
 21
443.723747
 31
0.0
  0
LINE
  5
4EC
330
4E7
100
AcDbEntity
  8
LC-001-100-D00-0
 62
     7
370
    15
100
AcDbLine
 10
-28.629194
 20
443.723747
 30
0.0
 11
-28.379328
 21
443.277442
 31
0.0
  0
LINE
  5
4ED
330
4E7
100
AcDbEntity
  8
LC-001-100-D00-0
 62
     7
370
    15
100
AcDbLine
 10
-28.379328
 20
443.277442
 30
0.0
 11
-28.068028
 21
443.018691
 31
0.0
  0
LINE
  5
4EE
330
4E7
100
AcDbEntity
  8
LC-001-100-D00-0
 62
     7
370
    15
100
AcDbLine
 10
-28.068028
 20
443.018691
 30
0.0
 11
-27.930535
 21
442.974933
 31
0.0
  0
ENDBLK
  5
4E9
330
4E7
100
AcDbEntity
  8
0
100
AcDbBlockEnd
  0
BLOCK
  5
4F1
330
4F0
100
AcDbEntity
  8
0
100
AcDbBlockBegin
  2
KLON21
 70
     0
 71
     0
 10
0.0
 20
0.0
 30
0.0
  3
KLON21
  1

  4
KLON21
  0
LINE
  5
4F3
330
4F0
100
AcDbEntity
  8
LC-001-100-D00-0
 62
     7
370
    15
100
AcDbLine
 10
309.287605
 20
457.966873
 30
0.0
 11
309.286919
 21
458.004854
 31
0.0
  0
LINE
  5
4F4
330
4F0
100
AcDbEntity
  8
LC-001-100-D00-0
 62
     7
370
    15
100
AcDbLine
 10
309.286919
 20
458.004854
 30
0.0
 11
309.284863
 21
458.117641
 31
0.0
  0
LINE
  5
4F5
330
4F0
100
AcDbEntity
  8
LC-001-100-D00-0
 62
     7
370
    15
100
AcDbLine
 10
309.284863
 20
458.117641
 30
0.0
 11
309.281495
 21
458.30181
 31
0.0
  0
LINE
  5
4F6
330
4F0
100
AcDbEntity
  8
LC-001-100-D00-0
 62
     7
370
    15
100
AcDbLine
 10
309.281495
 20
458.30181
 30
0.0
 11
309.276935
 21
458.551762
 31
0.0
  0
LINE
  5
4F7
330
4F0
100
AcDbEntity
  8
LC-001-100-D00-0
 62
     7
370
    15
100
AcDbLine
 10
309.276935
 20
458.551762
 30
0.0
 11
309.271303
 21
458.859905
 31
0.0
  0
LINE
  5
4F8
330
4F0
100
AcDbEntity
  8
LC-001-100-D00-0
 62
     7
370
    15
100
AcDbLine
 10
309.271303
 20
458.859905
 30
0.0
 11
309.264806
 21
459.216873
 31
0.0
  0
LINE
  5
4F9
330
4F0
100
AcDbEntity
  8
LC-001-100-D00-0
 62
     7
370
    15
100
AcDbLine
 10
309.264806
 20
459.216873
 30
0.0
 11
309.257594
 21
459.611823
 31
0.0
  0
LINE
  5
4FA
330
4F0
100
AcDbEntity
  8
LC-001-100-D00-0
 62
     7
370
    15
100
AcDbLine
 10
309.257594
 20
459.611823
 30
0.0
 11
309.249905
 21
460.032753
 31
0.0
  0
LINE
  5
4FB
330
4F0
100
AcDbEntity
  8
LC-001-100-D00-0
 62
     7
370
    15
100
AcDbLine
 10
309.249905
 20
460.032753
 30
0.0
 11
309.242007
 21
460.466874
 31
0.0
  0
ENDBLK
  5
4F2
330
4F0
100
AcDbEntity
  8
0
100
AcDbBlockEnd
  0
BLOCK
  5
4FE
330
4FD
100
AcDbEntity
  8
0
100
AcDbBlockBegin
  2
KLON22
 70
     0
 71
     0
 10
0.0
 20
0.0
 30
0.0
  3
KLON22
  1

  4
KLON22
  0
LINE
  5
500
330
4FD
100
AcDbEntity
  8
LC-001-100-D00-0
 62
     7
370
    15
100
AcDbLine
 10
-274.65767
 20
457.966873
 30
0.0
 11
-274.656984
 21
458.004854
 31
0.0
  0
LINE
  5
501
330
4FD
100
AcDbEntity
  8
LC-001-100-D00-0
 62
     7
370
    15
100
AcDbLine
 10
-274.656984
 20
458.004854
 30
0.0
 11
-274.654928
 21
458.117641
 31
0.0
  0
LINE
  5
502
330
4FD
100
AcDbEntity
  8
LC-001-100-D00-0
 62
     7
370
    15
100
AcDbLine
 10
-274.654928
 20
458.117641
 30
0.0
 11
-274.65156
 21
458.30181
 31
0.0
  0
LINE
  5
503
330
4FD
100
AcDbEntity
  8
LC-001-100-D00-0
 62
     7
370
    15
100
AcDbLine
 10
-274.65156
 20
458.30181
 30
0.0
 11
-274.647
 21
458.551762
 31
0.0
  0
LINE
  5
504
330
4FD
100
AcDbEntity
  8
LC-001-100-D00-0
 62
     7
370
    15
100
AcDbLine
 10
-274.647
 20
458.551762
 30
0.0
 11
-274.641368
 21
458.859905
 31
0.0
  0
LINE
  5
505
330
4FD
100
AcDbEntity
  8
LC-001-100-D00-0
 62
     7
370
    15
100
AcDbLine
 10
-274.641368
 20
458.859905
 30
0.0
 11
-274.634871
 21
459.216873
 31
0.0
  0
LINE
  5
506
330
4FD
100
AcDbEntity
  8
LC-001-100-D00-0
 62
     7
370
    15
100
AcDbLine
 10
-274.634871
 20
459.216873
 30
0.0
 11
-274.627659
 21
459.611823
 31
0.0
  0
LINE
  5
507
330
4FD
100
AcDbEntity
  8
LC-001-100-D00-0
 62
     7
370
    15
100
AcDbLine
 10
-274.627659
 20
459.611823
 30
0.0
 11
-274.61997
 21
460.032753
 31
0.0
  0
LINE
  5
508
330
4FD
100
AcDbEntity
  8
LC-001-100-D00-0
 62
     7
370
    15
100
AcDbLine
 10
-274.61997
 20
460.032753
 30
0.0
 11
-274.612072
 21
460.466874
 31
0.0
  0
ENDBLK
  5
4FF
330
4FD
100
AcDbEntity
  8
0
100
AcDbBlockEnd
  0
BLOCK
  5
525
330
519
100
AcDbEntity
  8
0
100
AcDbBlockBegin
  2
*D27
 70
     1
 71
     0
 10
0.0
 20
0.0
 30
0.0
  3
*D27
  1

  0
LINE
  5
51A
330
519
100
AcDbEntity
  8
LC-001-100-D00-0
 62
     2
370
    -2
100
AcDbLine
 10
-332.685032
 20
478.466873
 30
0.0
 11
-385.106022
 21
478.466873
 31
0.0
  0
LINE
  5
51B
330
519
100
AcDbEntity
  8
LC-001-100-D00-0
 62
     2
370
    -2
100
AcDbLine
 10
-327.685032
 20
523.466873
 30
0.0
 11
-385.106022
 21
523.466873
 31
0.0
  0
LINE
  5
51C
330
519
100
AcDbEntity
  8
LC-001-100-D00-0
 62
     2
370
    -2
100
AcDbLine
 10
-376.106022
 20
428.466873
 30
0.0
 11
-376.106022
 21
378.466873
 31
0.0
  0
LINE
  5
51D
330
519
100
AcDbEntity
  8
LC-001-100-D00-0
 62
     2
370
    -2
100
AcDbLine
 10
-376.106022
 20
573.466873
 30
0.0
 11
-376.106022
 21
623.466873
 31
0.0
  0
LINE
  5
51E
330
519
100
AcDbEntity
  8
LC-001-100-D00-0
 62
     2
370
    -2
100
AcDbLine
 10
-376.106022
 20
478.466873
 30
0.0
 11
-376.106022
 21
523.466873
 31
0.0
  0
SOLID
  5
51F
330
519
100
AcDbEntity
  8
LC-001-100-D00-0
 62
     2
100
AcDbTrace
 10
-367.772689
 20
428.466873
 30
0.0
 11
-384.439355
 21
428.466873
 31
0.0
 12
-376.106022
 22
478.466873
 32
0.0
 13
-376.106022
 23
478.466873
 33
0.0
  0
SOLID
  5
520
330
519
100
AcDbEntity
  8
LC-001-100-D00-0
 62
     2
100
AcDbTrace
 10
-384.439355
 20
573.466873
 30
0.0
 11
-367.772689
 21
573.466873
 31
0.0
 12
-376.106022
 22
523.466873
 32
0.0
 13
-376.106022
 23
523.466873
 33
0.0
  0
MTEXT
  5
521
330
519
100
AcDbEntity
  8
LC-001-100-D00-0
 62
     2
100
AcDbMText
 10
-431.106022
 20
502.428157
 30
0.0
 40
50.0
 41
0.0
 71
     5
 72
     1
  1
\A1;46
  7
LCTX15-400-0-0pDIN-Schrift
 11
6.123031769111886E-17
 21
1.0
 31
0.0
 73
     1
 44
1.0
  0
POINT
  5
522
330
519
100
AcDbEntity
  8
Defpoints
 62
     0
100
AcDbPoint
 10
-332.685032
 20
478.466873
 30
0.0
  0
POINT
  5
523
330
519
100
AcDbEntity
  8
Defpoints
 62
     0
100
AcDbPoint
 10
-327.685032
 20
523.466873
 30
0.0
  0
POINT
  5
524
330
519
100
AcDbEntity
  8
Defpoints
 62
     0
100
AcDbPoint
 10
-376.106022
 20
523.466873
 30
0.0
  0
ENDBLK
  5
526
330
519
100
AcDbEntity
  8
0
100
AcDbBlockEnd
  0
BLOCK
  5
532
330
528
100
AcDbEntity
  8
0
100
AcDbBlockBegin
  2
*D28
 70
     1
 71
     0
 10
0.0
 20
0.0
 30
0.0
  3
*D28
  1

  0
LINE
  5
529
330
528
100
AcDbEntity
  8
LC-001-100-D00-0
 62
     2
370
    -2
100
AcDbLine
 10
-332.685032
 20
518.466873
 30
0.0
 11
-332.685032
 21
631.398361
 31
0.0
  0
LINE
  5
52A
330
528
100
AcDbEntity
  8
LC-001-100-D00-0
 62
     2
370
    -2
100
AcDbLine
 10
367.314968
 20
518.466873
 30
0.0
 11
367.314968
 21
631.398361
 31
0.0
  0
LINE
  5
52B
330
528
100
AcDbEntity
  8
LC-001-100-D00-0
 62
     2
370
    -2
100
AcDbLine
 10
-282.685032
 20
622.398361
 30
0.0
 11
317.314968
 21
622.398361
 31
0.0
  0
SOLID
  5
52C
330
528
100
AcDbEntity
  8
LC-001-100-D00-0
 62
     2
100
AcDbTrace
 10
-282.685032
 20
630.731694
 30
0.0
 11
-282.685032
 21
614.065028
 31
0.0
 12
-332.685032
 22
622.398361
 32
0.0
 13
-332.685032
 23
622.398361
 33
0.0
  0
SOLID
  5
52D
330
528
100
AcDbEntity
  8
LC-001-100-D00-0
 62
     2
100
AcDbTrace
 10
317.314968
 20
614.065028
 30
0.0
 11
317.314968
 21
630.731694
 31
0.0
 12
367.314968
 22
622.398361
 32
0.0
 13
367.314968
 23
622.398361
 33
0.0
  0
MTEXT
  5
52E
330
528
100
AcDbEntity
  8
LC-001-100-D00-0
 62
     2
100
AcDbMText
 10
16.649449
 20
677.398361
 30
0.0
 40
50.0
 41
0.0
 71
     5
 72
     1
  1
\A1;700
  7
LCTX15-400-0-0pDIN-Schrift
 73
     1
 44
1.0
  0
POINT
  5
52F
330
528
100
AcDbEntity
  8
Defpoints
 62
     0
100
AcDbPoint
 10
-332.685032
 20
518.466873
 30
0.0
  0
POINT
  5
530
330
528
100
AcDbEntity
  8
Defpoints
 62
     0
100
AcDbPoint
 10
367.314968
 20
518.466873
 30
0.0
  0
POINT
  5
531
330
528
100
AcDbEntity
  8
Defpoints
 62
     0
100
AcDbPoint
 10
367.314968
 20
622.398361
 30
0.0
  0
ENDBLK
  5
533
330
528
100
AcDbEntity
  8
0
100
AcDbBlockEnd
  0
BLOCK
  5
53F
330
535
100
AcDbEntity
  8
0
100
AcDbBlockBegin
  2
*D29
 70
     1
 71
     0
 10
0.0
 20
0.0
 30
0.0
  3
*D29
  1

  0
LINE
  5
536
330
535
100
AcDbEntity
  8
LC-001-100-D00-0
 62
     2
370
    -2
100
AcDbLine
 10
-282.685032
 20
475.466873
 30
0.0
 11
-282.685032
 21
554.915431
 31
0.0
  0
LINE
  5
537
330
535
100
AcDbEntity
  8
LC-001-100-D00-0
 62
     2
370
    -2
100
AcDbLine
 10
317.314968
 20
475.466873
 30
0.0
 11
317.314968
 21
554.915431
 31
0.0
  0
LINE
  5
538
330
535
100
AcDbEntity
  8
LC-001-100-D00-0
 62
     2
370
    -2
100
AcDbLine
 10
-232.685032
 20
545.915431
 30
0.0
 11
267.314968
 21
545.915431
 31
0.0
  0
SOLID
  5
539
330
535
100
AcDbEntity
  8
LC-001-100-D00-0
 62
     2
100
AcDbTrace
 10
-232.685032
 20
554.248764
 30
0.0
 11
-232.685032
 21
537.582097
 31
0.0
 12
-282.685032
 22
545.915431
 32
0.0
 13
-282.685032
 23
545.915431
 33
0.0
  0
SOLID
  5
53A
330
535
100
AcDbEntity
  8
LC-001-100-D00-0
 62
     2
100
AcDbTrace
 10
267.314968
 20
537.582097
 30
0.0
 11
267.314968
 21
554.248764
 31
0.0
 12
317.314968
 22
545.915431
 32
0.0
 13
317.314968
 23
545.915431
 33
0.0
  0
MTEXT
  5
53B
330
535
100
AcDbEntity
  8
LC-001-100-D00-0
 62
     2
100
AcDbMText
 10
11.650811
 20
600.915431
 30
0.0
 40
50.0
 41
0.0
 71
     5
 72
     1
  1
\A1;600
  7
LCTX15-400-0-0pDIN-Schrift
 73
     1
 44
1.0
  0
POINT
  5
53C
330
535
100
AcDbEntity
  8
Defpoints
 62
     0
100
AcDbPoint
 10
-282.685032
 20
475.466873
 30
0.0
  0
POINT
  5
53D
330
535
100
AcDbEntity
  8
Defpoints
 62
     0
100
AcDbPoint
 10
317.314968
 20
475.466873
 30
0.0
  0
POINT
  5
53E
330
535
100
AcDbEntity
  8
Defpoints
 62
     0
100
AcDbPoint
 10
317.314968
 20
545.915431
 30
0.0
  0
ENDBLK
  5
540
330
535
100
AcDbEntity
  8
0
100
AcDbBlockEnd
  0
BLOCK
  5
54D
330
542
100
AcDbEntity
  8
0
100
AcDbBlockBegin
  2
*D30
 70
     1
 71
     0
 10
0.0
 20
0.0
 30
0.0
  3
*D30
  1

  0
LINE
  5
543
330
542
100
AcDbEntity
  8
LC-001-100-D00-0
 62
     2
370
    -2
100
AcDbLine
 10
-11.685032
 20
406.966873
 30
0.0
 11
-138.275079
 21
406.966873
 31
0.0
  0
LINE
  5
544
330
542
100
AcDbEntity
  8
LC-001-100-D00-0
 62
     2
370
    -2
100
AcDbLine
 10
-17.764428
 20
436.966873
 30
0.0
 11
-138.275079
 21
436.966873
 31
0.0
  0
LINE
  5
545
330
542
100
AcDbEntity
  8
LC-001-100-D00-0
 62
     2
370
    -2
100
AcDbLine
 10
-129.275079
 20
486.966873
 30
0.0
 11
-129.275079
 21
536.966873
 31
0.0
  0
LINE
  5
546
330
542
100
AcDbEntity
  8
LC-001-100-D00-0
 62
     2
370
    -2
100
AcDbLine
 10
-129.275079
 20
356.966873
 30
0.0
 11
-129.275079
 21
340.782957
 31
0.0
  0
SOLID
  5
547
330
542
100
AcDbEntity
  8
LC-001-100-D00-0
 62
     2
100
AcDbTrace
 10
-120.941745
 20
356.966873
 30
0.0
 11
-137.608412
 21
356.966873
 31
0.0
 12
-129.275079
 22
406.966873
 32
0.0
 13
-129.275079
 23
406.966873
 33
0.0
  0
SOLID
  5
548
330
542
100
AcDbEntity
  8
LC-001-100-D00-0
 62
     2
100
AcDbTrace
 10
-137.608412
 20
486.966873
 30
0.0
 11
-120.941745
 21
486.966873
 31
0.0
 12
-129.275079
 22
436.966873
 32
0.0
 13
-129.275079
 23
436.966873
 33
0.0
  0
MTEXT
  5
549
330
542
100
AcDbEntity
  8
LC-001-100-D00-0
 62
     2
100
AcDbMText
 10
-184.275079
 20
383.858361
 30
0.0
 40
50.0
 41
0.0
 71
     5
 72
     1
  1
\A1;30
  7
LCTX15-400-0-0pDIN-Schrift
 11
6.123031769111886E-17
 21
1.0
 31
0.0
 73
     1
 44
1.0
  0
POINT
  5
54A
330
542
100
AcDbEntity
  8
Defpoints
 62
     0
100
AcDbPoint
 10
-11.685032
 20
406.966873
 30
0.0
  0
POINT
  5
54B
330
542
100
AcDbEntity
  8
Defpoints
 62
     0
100
AcDbPoint
 10
-17.764428
 20
436.966873
 30
0.0
  0
POINT
  5
54C
330
542
100
AcDbEntity
  8
Defpoints
 62
     0
100
AcDbPoint
 10
-129.275079
 20
436.966873
 30
0.0
  0
ENDBLK
  5
54E
330
542
100
AcDbEntity
  8
0
100
AcDbBlockEnd
  0
BLOCK
  5
55A
330
550
100
AcDbEntity
  8
0
100
AcDbBlockBegin
  2
*D31
 70
     1
 71
     0
 10
0.0
 20
0.0
 30
0.0
  3
*D31
  1

  0
LINE
  5
551
330
550
100
AcDbEntity
  8
LC-001-100-D00-0
 62
     2
370
    -2
100
AcDbLine
 10
-56.685032
 20
407.466873
 30
0.0
 11
-56.685032
 21
284.273361
 31
0.0
  0
LINE
  5
552
330
550
100
AcDbEntity
  8
LC-001-100-D00-0
 62
     2
370
    -2
100
AcDbLine
 10
226.814764
 20
396.904695
 30
0.0
 11
226.814764
 21
284.273361
 31
0.0
  0
LINE
  5
553
330
550
100
AcDbEntity
  8
LC-001-100-D00-0
 62
     2
370
    -2
100
AcDbLine
 10
-6.685032
 20
293.273361
 30
0.0
 11
176.814764
 21
293.273361
 31
0.0
  0
SOLID
  5
554
330
550
100
AcDbEntity
  8
LC-001-100-D00-0
 62
     2
100
AcDbTrace
 10
-6.685032
 20
301.606694
 30
0.0
 11
-6.685032
 21
284.940028
 31
0.0
 12
-56.685032
 22
293.273361
 32
0.0
 13
-56.685032
 23
293.273361
 33
0.0
  0
SOLID
  5
555
330
550
100
AcDbEntity
  8
LC-001-100-D00-0
 62
     2
100
AcDbTrace
 10
176.814764
 20
284.940028
 30
0.0
 11
176.814764
 21
301.606694
 31
0.0
 12
226.814764
 22
293.273361
 32
0.0
 13
226.814764
 23
293.273361
 33
0.0
  0
MTEXT
  5
556
330
550
100
AcDbEntity
  8
LC-001-100-D00-0
 62
     2
100
AcDbMText
 10
74.134869
 20
348.273361
 30
0.0
 40
50.0
 41
0.0
 71
     5
 72
     1
  1
\A1;284
  7
LCTX15-400-0-0pDIN-Schrift
 73
     1
 44
1.0
  0
POINT
  5
557
330
550
100
AcDbEntity
  8
Defpoints
 62
     0
100
AcDbPoint
 10
-56.685032
 20
407.466873
 30
0.0
  0
POINT
  5
558
330
550
100
AcDbEntity
  8
Defpoints
 62
     0
100
AcDbPoint
 10
226.814764
 20
396.904695
 30
0.0
  0
POINT
  5
559
330
550
100
AcDbEntity
  8
Defpoints
 62
     0
100
AcDbPoint
 10
226.814764
 20
293.273361
 30
0.0
  0
ENDBLK
  5
55B
330
550
100
AcDbEntity
  8
0
100
AcDbBlockEnd
  0
BLOCK
  5
568
330
55D
100
AcDbEntity
  8
0
100
AcDbBlockBegin
  2
*D32
 70
     1
 71
     0
 10
0.0
 20
0.0
 30
0.0
  3
*D32
  1

  0
LINE
  5
55E
330
55D
100
AcDbEntity
  8
LC-001-100-D00-0
 62
     2
370
    -2
100
AcDbLine
 10
223.314764
 20
445.966873
 30
0.0
 11
476.688899
 21
445.966873
 31
0.0
  0
LINE
  5
55F
330
55D
100
AcDbEntity
  8
LC-001-100-D00-0
 62
     2
370
    -2
100
AcDbLine
 10
223.314764
 20
395.966873
 30
0.0
 11
476.688899
 21
395.966873
 31
0.0
  0
LINE
  5
560
330
55D
100
AcDbEntity
  8
LC-001-100-D00-0
 62
     2
370
    -2
100
AcDbLine
 10
467.688899
 20
345.966873
 30
0.0
 11
467.688899
 21
295.966873
 31
0.0
  0
LINE
  5
561
330
55D
100
AcDbEntity
  8
LC-001-100-D00-0
 62
     2
370
    -2
100
AcDbLine
 10
467.688899
 20
495.966873
 30
0.0
 11
467.688899
 21
631.559714
 31
0.0
  0
SOLID
  5
562
330
55D
100
AcDbEntity
  8
LC-001-100-D00-0
 62
     2
100
AcDbTrace
 10
459.355566
 20
495.966873
 30
0.0
 11
476.022233
 21
495.966873
 31
0.0
 12
467.688899
 22
445.966873
 32
0.0
 13
467.688899
 23
445.966873
 33
0.0
  0
SOLID
  5
563
330
55D
100
AcDbEntity
  8
LC-001-100-D00-0
 62
     2
100
AcDbTrace
 10
476.022233
 20
345.966873
 30
0.0
 11
459.355566
 21
345.966873
 31
0.0
 12
467.688899
 22
395.966873
 32
0.0
 13
467.688899
 23
395.966873
 33
0.0
  0
MTEXT
  5
564
330
55D
100
AcDbEntity
  8
LC-001-100-D00-0
 62
     2
100
AcDbMText
 10
412.688899
 20
547.208361
 30
0.0
 40
50.0
 41
0.0
 71
     5
 72
     1
  1
\A1;DN50
  7
LCTX15-400-0-0pDIN-Schrift
 11
6.123031769111886E-17
 21
1.0
 31
0.0
 73
     1
 44
1.0
  0
POINT
  5
565
330
55D
100
AcDbEntity
  8
Defpoints
 62
     0
100
AcDbPoint
 10
223.314764
 20
445.966873
 30
0.0
  0
POINT
  5
566
330
55D
100
AcDbEntity
  8
Defpoints
 62
     0
100
AcDbPoint
 10
223.314764
 20
395.966873
 30
0.0
  0
POINT
  5
567
330
55D
100
AcDbEntity
  8
Defpoints
 62
     0
100
AcDbPoint
 10
467.688899
 20
395.966873
 30
0.0
  0
ENDBLK
  5
569
330
55D
100
AcDbEntity
  8
0
100
AcDbBlockEnd
  0
BLOCK
  5
576
330
56B
100
AcDbEntity
  8
0
100
AcDbBlockBegin
  2
*D33
 70
     1
 71
     0
 10
0.0
 20
0.0
 30
0.0
  3
*D33
  1

  0
LINE
  5
56C
330
56B
100
AcDbEntity
  8
LC-001-100-D00-0
 62
     2
370
    -2
100
AcDbLine
 10
367.314968
 20
478.466873
 30
0.0
 11
591.65974
 21
478.466873
 31
0.0
  0
LINE
  5
56D
330
56B
100
AcDbEntity
  8
LC-001-100-D00-0
 62
     2
370
    -2
100
AcDbLine
 10
233.314764
 20
420.966873
 30
0.0
 11
591.65974
 21
420.966873
 31
0.0
  0
LINE
  5
56E
330
56B
100
AcDbEntity
  8
LC-001-100-D00-0
 62
     2
370
    -2
100
AcDbLine
 10
582.65974
 20
370.966873
 30
0.0
 11
582.65974
 21
320.966873
 31
0.0
  0
LINE
  5
56F
330
56B
100
AcDbEntity
  8
LC-001-100-D00-0
 62
     2
370
    -2
100
AcDbLine
 10
582.65974
 20
528.466873
 30
0.0
 11
582.65974
 21
553.838761
 31
0.0
  0
SOLID
  5
570
330
56B
100
AcDbEntity
  8
LC-001-100-D00-0
 62
     2
100
AcDbTrace
 10
574.326406
 20
528.466873
 30
0.0
 11
590.993073
 21
528.466873
 31
0.0
 12
582.65974
 22
478.466873
 32
0.0
 13
582.65974
 23
478.466873
 33
0.0
  0
SOLID
  5
571
330
56B
100
AcDbEntity
  8
LC-001-100-D00-0
 62
     2
100
AcDbTrace
 10
590.993073
 20
370.966873
 30
0.0
 11
574.326406
 21
370.966873
 31
0.0
 12
582.65974
 22
420.966873
 32
0.0
 13
582.65974
 23
420.966873
 33
0.0
  0
MTEXT
  5
572
330
56B
100
AcDbEntity
  8
LC-001-100-D00-0
 62
     2
100
AcDbMText
 10
527.65974
 20
481.868361
 30
0.0
 40
50.0
 41
0.0
 71
     5
 72
     1
  1
\A1;57.5
  7
LCTX15-400-0-0pDIN-Schrift
 11
6.123031769111886E-17
 21
1.0
 31
0.0
 73
     1
 44
1.0
  0
POINT
  5
573
330
56B
100
AcDbEntity
  8
Defpoints
 62
     0
100
AcDbPoint
 10
367.314968
 20
478.466873
 30
0.0
  0
POINT
  5
574
330
56B
100
AcDbEntity
  8
Defpoints
 62
     0
100
AcDbPoint
 10
233.314764
 20
420.966873
 30
0.0
  0
POINT
  5
575
330
56B
100
AcDbEntity
  8
Defpoints
 62
     0
100
AcDbPoint
 10
582.65974
 20
420.966873
 30
0.0
  0
ENDBLK
  5
577
330
56B
100
AcDbEntity
  8
0
100
AcDbBlockEnd
  0
BLOCK
  5
585
330
579
100
AcDbEntity
  8
0
100
AcDbBlockBegin
  2
*D34
 70
     1
 71
     0
 10
0.0
 20
0.0
 30
0.0
  3
*D34
  1

  0
LINE
  5
57A
330
579
100
AcDbEntity
  8
LC-001-100-D00-0
 62
     2
370
    -2
100
AcDbLine
 10
367.314968
 20
478.466873
 30
0.0
 11
686.73178
 21
478.466873
 31
0.0
  0
LINE
  5
57B
330
579
100
AcDbEntity
  8
LC-001-100-D00-0
 62
     2
370
    -2
100
AcDbLine
 10
71.332847
 20
388.466873
 30
0.0
 11
686.73178
 21
388.466873
 31
0.0
  0
LINE
  5
57C
330
579
100
AcDbEntity
  8
LC-001-100-D00-0
 62
     2
370
    -2
100
AcDbLine
 10
677.73178
 20
528.466873
 30
0.0
 11
677.73178
 21
578.466873
 31
0.0
  0
LINE
  5
57D
330
579
100
AcDbEntity
  8
LC-001-100-D00-0
 62
     2
370
    -2
100
AcDbLine
 10
677.73178
 20
338.466873
 30
0.0
 11
677.73178
 21
288.466873
 31
0.0
  0
LINE
  5
57E
330
579
100
AcDbEntity
  8
LC-001-100-D00-0
 62
     2
370
    -2
100
AcDbLine
 10
677.73178
 20
478.466873
 30
0.0
 11
677.73178
 21
388.466873
 31
0.0
  0
SOLID
  5
57F
330
579
100
AcDbEntity
  8
LC-001-100-D00-0
 62
     2
100
AcDbTrace
 10
669.398447
 20
528.466873
 30
0.0
 11
686.065114
 21
528.466873
 31
0.0
 12
677.73178
 22
478.466873
 32
0.0
 13
677.73178
 23
478.466873
 33
0.0
  0
SOLID
  5
580
330
579
100
AcDbEntity
  8
LC-001-100-D00-0
 62
     2
100
AcDbTrace
 10
686.065114
 20
338.466873
 30
0.0
 11
669.398447
 21
338.466873
 31
0.0
 12
677.73178
 22
388.466873
 32
0.0
 13
677.73178
 23
388.466873
 33
0.0
  0
MTEXT
  5
581
330
579
100
AcDbEntity
  8
LC-001-100-D00-0
 62
     2
100
AcDbMText
 10
622.73178
 20
425.438361
 30
0.0
 40
50.0
 41
0.0
 71
     5
 72
     1
  1
\A1;90
  7
LCTX15-400-0-0pDIN-Schrift
 11
6.123031769111886E-17
 21
1.0
 31
0.0
 73
     1
 44
1.0
  0
POINT
  5
582
330
579
100
AcDbEntity
  8
Defpoints
 62
     0
100
AcDbPoint
 10
367.314968
 20
478.466873
 30
0.0
  0
POINT
  5
583
330
579
100
AcDbEntity
  8
Defpoints
 62
     0
100
AcDbPoint
 10
71.332847
 20
388.466873
 30
0.0
  0
POINT
  5
584
330
579
100
AcDbEntity
  8
Defpoints
 62
     0
100
AcDbPoint
 10
677.73178
 20
388.466873
 30
0.0
  0
ENDBLK
  5
586
330
579
100
AcDbEntity
  8
0
100
AcDbBlockEnd
  0
BLOCK
  5
588
330
587
100
AcDbEntity
  8
0
100
AcDbBlockBegin
  2
KLON23
 70
     0
 71
     0
 10
0.0
 20
0.0
 30
0.0
  3
KLON23
  1

  4
KLON23
  0
LINE
  5
58A
330
587
100
AcDbEntity
  8
LC-001-100-D00-0
 62
     7
370
    25
100
AcDbLine
 10
111.255815
 20
392.702784
 30
0.0
 11
116.519904
 21
397.966873
 31
0.0
  0
LINE
  5
58B
330
587
100
AcDbEntity
  8
LC-001-100-D00-0
 62
     7
370
    25
100
AcDbLine
 10
91.069265
 20
394.966873
 30
0.0
 11
94.069264
 21
397.966873
 31
0.0
  0
LINE
  5
58C
330
587
100
AcDbEntity
  8
LC-001-100-D00-0
 62
     7
370
    25
100
AcDbLine
 10
62.118626
 20
388.466873
 30
0.0
 11
65.118625
 21
391.466873
 31
0.0
  0
LINE
  5
58D
330
587
100
AcDbEntity
  8
LC-001-100-D00-0
 62
     7
370
    25
100
AcDbLine
 10
39.667986
 20
388.466873
 30
0.0
 11
42.667986
 21
391.466873
 31
0.0
  0
LINE
  5
58E
330
587
100
AcDbEntity
  8
LC-001-100-D00-0
 62
     7
370
    25
100
AcDbLine
 10
17.217347
 20
388.466873
 30
0.0
 11
20.217346
 21
391.466873
 31
0.0
  0
LINE
  5
58F
330
587
100
AcDbEntity
  8
LC-001-100-D00-0
 62
     7
370
    25
100
AcDbLine
 10
-5.233293
 20
388.466873
 30
0.0
 11
-2.233293
 21
391.466873
 31
0.0
  0
LINE
  5
590
330
587
100
AcDbEntity
  8
LC-001-100-D00-0
 62
     7
370
    25
100
AcDbLine
 10
-27.683932
 20
388.466873
 30
0.0
 11
-24.683933
 21
391.466873
 31
0.0
  0
LINE
  5
591
330
587
100
AcDbEntity
  8
LC-001-100-D00-0
 62
     7
370
    25
100
AcDbLine
 10
-43.681512
 20
394.919933
 30
0.0
 11
-40.953146
 21
397.6483
 31
0.0
  0
LINE
  5
592
330
587
100
AcDbEntity
  8
LC-001-100-D00-0
 62
     7
370
    25
100
AcDbLine
 10
-56.370719
 20
404.681367
 30
0.0
 11
-53.684514
 21
407.367572
 31
0.0
  0
LINE
  5
593
330
587
100
AcDbEntity
  8
LC-001-100-D00-0
 62
     7
370
    25
100
AcDbLine
 10
-56.685032
 20
426.817694
 30
0.0
 11
-53.685032
 21
429.817694
 31
0.0
  0
ENDBLK
  5
589
330
587
100
AcDbEntity
  8
0
100
AcDbBlockEnd
  0
BLOCK
  5
596
330
595
100
AcDbEntity
  8
0
100
AcDbBlockBegin
  2
KLON24
 70
     0
 71
     0
 10
0.0
 20
0.0
 30
0.0
  3
KLON24
  1

  4
KLON24
  0
LINE
  5
598
330
595
100
AcDbEntity
  8
LC-001-100-D00-0
 62
     7
370
    25
100
AcDbLine
 10
117.618622
 20
443.966873
 30
0.0
 11
124.022598
 21
450.37085
 31
0.0
  0
LINE
  5
599
330
595
100
AcDbEntity
  8
LC-001-100-D00-0
 62
     7
370
    25
100
AcDbLine
 10
95.167982
 20
443.966873
 30
0.0
 11
98.167982
 21
446.966873
 31
0.0
  0
ENDBLK
  5
597
330
595
100
AcDbEntity
  8
0
100
AcDbBlockEnd
  0
BLOCK
  5
59E
330
59D
100
AcDbEntity
  8
0
100
AcDbBlockBegin
  2
KLON25
 70
     0
 71
     0
 10
0.0
 20
0.0
 30
0.0
  3
KLON25
  1

  4
KLON25
  0
LINE
  5
5A0
330
59D
100
AcDbEntity
  8
LC-001-100-D00-0
 62
     7
370
    25
100
AcDbLine
 10
352.674374
 20
476.966873
 30
0.0
 11
354.174374
 21
478.466873
 31
0.0
  0
LINE
  5
5A1
330
59D
100
AcDbEntity
  8
LC-001-100-D00-0
 62
     7
370
    25
100
AcDbLine
 10
309.732935
 20
456.476072
 30
0.0
 11
311.539137
 21
458.282273
 31
0.0
  0
LINE
  5
5A2
330
59D
100
AcDbEntity
  8
LC-001-100-D00-0
 62
     7
370
    25
100
AcDbLine
 10
316.999567
 20
463.742704
 30
0.0
 11
318.805768
 21
465.548906
 31
0.0
  0
LINE
  5
5A3
330
59D
100
AcDbEntity
  8
LC-001-100-D00-0
 62
     7
370
    25
100
AcDbLine
 10
330.223735
 20
476.966873
 30
0.0
 11
331.723735
 21
478.466873
 31
0.0
  0
LINE
  5
5A4
330
59D
100
AcDbEntity
  8
LC-001-100-D00-0
 62
     7
370
    25
100
AcDbLine
 10
287.273097
 20
456.466873
 30
0.0
 11
290.760338
 21
459.954115
 31
0.0
  0
LINE
  5
5A5
330
59D
100
AcDbEntity
  8
LC-001-100-D00-0
 62
     7
370
    25
100
AcDbLine
 10
264.822457
 20
456.466873
 30
0.0
 11
266.322457
 21
457.966873
 31
0.0
  0
LINE
  5
5A6
330
59D
100
AcDbEntity
  8
LC-001-100-D00-0
 62
     7
370
    25
100
AcDbLine
 10
283.314968
 20
474.959384
 30
0.0
 11
286.322456
 21
477.966873
 31
0.0
  0
LINE
  5
5A7
330
59D
100
AcDbEntity
  8
LC-001-100-D00-0
 62
     7
370
    25
100
AcDbLine
 10
242.371818
 20
456.466873
 30
0.0
 11
243.871818
 21
457.966873
 31
0.0
  0
LINE
  5
5A8
330
59D
100
AcDbEntity
  8
LC-001-100-D00-0
 62
     7
370
    25
100
AcDbLine
 10
219.921179
 20
456.466873
 30
0.0
 11
221.421178
 21
457.966873
 31
0.0
  0
LINE
  5
5A9
330
59D
100
AcDbEntity
  8
LC-001-100-D00-0
 62
     7
370
    25
100
AcDbLine
 10
197.470539
 20
456.466873
 30
0.0
 11
198.970539
 21
457.966873
 31
0.0
  0
LINE
  5
5AA
330
59D
100
AcDbEntity
  8
LC-001-100-D00-0
 62
     7
370
    25
100
AcDbLine
 10
175.0199
 20
456.466873
 30
0.0
 11
176.519899
 21
457.966873
 31
0.0
  0
LINE
  5
5AB
330
59D
100
AcDbEntity
  8
LC-001-100-D00-0
 62
     7
370
    25
100
AcDbLine
 10
152.56926
 20
456.466873
 30
0.0
 11
154.06926
 21
457.966873
 31
0.0
  0
LINE
  5
5AC
330
59D
100
AcDbEntity
  8
LC-001-100-D00-0
 62
     7
370
    25
100
AcDbLine
 10
130.118621
 20
456.466873
 30
0.0
 11
131.61862
 21
457.966873
 31
0.0
  0
LINE
  5
5AD
330
59D
100
AcDbEntity
  8
LC-001-100-D00-0
 62
     7
370
    25
100
AcDbLine
 10
106.457447
 20
455.256339
 30
0.0
 11
108.578767
 21
457.377659
 31
0.0
  0
LINE
  5
5AE
330
59D
100
AcDbEntity
  8
LC-001-100-D00-0
 62
     7
370
    25
100
AcDbLine
 10
113.460233
 20
462.259125
 30
0.0
 11
121.314968
 21
470.11386
 31
0.0
  0
LINE
  5
5AF
330
59D
100
AcDbEntity
  8
LC-001-100-D00-0
 62
     7
370
    25
100
AcDbLine
 10
80.217342
 20
451.466873
 30
0.0
 11
81.717342
 21
452.966873
 31
0.0
  0
ENDBLK
  5
59F
330
59D
100
AcDbEntity
  8
0
100
AcDbBlockEnd
  0
BLOCK
  5
5B2
330
5B1
100
AcDbEntity
  8
0
100
AcDbBlockBegin
  2
KLON26
 70
     0
 71
     0
 10
0.0
 20
0.0
 30
0.0
  3
KLON26
  1

  4
KLON26
  0
LINE
  5
5B4
330
5B1
100
AcDbEntity
  8
LC-001-100-D00-0
 62
     7
370
    25
100
AcDbLine
 10
-54.486495
 20
451.466873
 30
0.0
 11
-52.986495
 21
452.966873
 31
0.0
  0
LINE
  5
5B5
330
5B1
100
AcDbEntity
  8
LC-001-100-D00-0
 62
     7
370
    25
100
AcDbLine
 10
-72.868687
 20
455.535321
 30
0.0
 11
-71.643942
 21
456.760066
 31
0.0
  0
LINE
  5
5B6
330
5B1
100
AcDbEntity
  8
LC-001-100-D00-0
 62
     7
370
    25
100
AcDbLine
 10
-94.387774
 20
456.466873
 30
0.0
 11
-92.887774
 21
457.966873
 31
0.0
  0
LINE
  5
5B7
330
5B1
100
AcDbEntity
  8
LC-001-100-D00-0
 62
     7
370
    25
100
AcDbLine
 10
-86.685032
 20
464.169615
 30
0.0
 11
-78.685032
 21
472.169616
 31
0.0
  0
LINE
  5
5B8
330
5B1
100
AcDbEntity
  8
LC-001-100-D00-0
 62
     7
370
    25
100
AcDbLine
 10
-116.838414
 20
456.466873
 30
0.0
 11
-115.338414
 21
457.966873
 31
0.0
  0
LINE
  5
5B9
330
5B1
100
AcDbEntity
  8
LC-001-100-D00-0
 62
     7
370
    25
100
AcDbLine
 10
-139.289053
 20
456.466873
 30
0.0
 11
-137.789053
 21
457.966873
 31
0.0
  0
LINE
  5
5BA
330
5B1
100
AcDbEntity
  8
LC-001-100-D00-0
 62
     7
370
    25
100
AcDbLine
 10
-161.739693
 20
456.466873
 30
0.0
 11
-160.239693
 21
457.966873
 31
0.0
  0
LINE
  5
5BB
330
5B1
100
AcDbEntity
  8
LC-001-100-D00-0
 62
     7
370
    25
100
AcDbLine
 10
-184.190332
 20
456.466873
 30
0.0
 11
-182.690332
 21
457.966873
 31
0.0
  0
LINE
  5
5BC
330
5B1
100
AcDbEntity
  8
LC-001-100-D00-0
 62
     7
370
    25
100
AcDbLine
 10
-206.640972
 20
456.466873
 30
0.0
 11
-205.140972
 21
457.966873
 31
0.0
  0
LINE
  5
5BD
330
5B1
100
AcDbEntity
  8
LC-001-100-D00-0
 62
     7
370
    25
100
AcDbLine
 10
-229.091611
 20
456.466873
 30
0.0
 11
-227.591611
 21
457.966873
 31
0.0
  0
LINE
  5
5BE
330
5B1
100
AcDbEntity
  8
LC-001-100-D00-0
 62
     7
370
    25
100
AcDbLine
 10
-251.542251
 20
456.466873
 30
0.0
 11
-248.642251
 21
459.366873
 31
0.0
  0
LINE
  5
5BF
330
5B1
100
AcDbEntity
  8
LC-001-100-D00-0
 62
     7
370
    25
100
AcDbLine
 10
-273.99289
 20
456.466873
 30
0.0
 11
-272.49289
 21
457.966873
 31
0.0
  0
LINE
  5
5C0
330
5B1
100
AcDbEntity
  8
LC-001-100-D00-0
 62
     7
370
    25
100
AcDbLine
 10
-256.685032
 20
473.774732
 30
0.0
 11
-252.492892
 21
477.966873
 31
0.0
  0
LINE
  5
5C1
330
5B1
100
AcDbEntity
  8
LC-001-100-D00-0
 62
     7
370
    25
100
AcDbLine
 10
-284.185032
 20
468.725371
 30
0.0
 11
-282.685032
 21
470.225371
 31
0.0
  0
LINE
  5
5C2
330
5B1
100
AcDbEntity
  8
LC-001-100-D00-0
 62
     7
370
    25
100
AcDbLine
 10
-298.394171
 20
476.966873
 30
0.0
 11
-296.894171
 21
478.466873
 31
0.0
  0
LINE
  5
5C3
330
5B1
100
AcDbEntity
  8
LC-001-100-D00-0
 62
     7
370
    25
100
AcDbLine
 10
-320.84481
 20
476.966873
 30
0.0
 11
-319.34481
 21
478.466873
 31
0.0
  0
ENDBLK
  5
5B3
330
5B1
100
AcDbEntity
  8
0
100
AcDbBlockEnd
  0
BLOCK
  5
5C6
330
5C5
100
AcDbEntity
  8
0
100
AcDbBlockBegin
  2
KLON27
 70
     0
 71
     0
 10
0.0
 20
0.0
 30
0.0
  3
KLON27
  1

  4
KLON27
  0
LINE
  5
5C8
330
5C5
100
AcDbEntity
  8
LC-001-100-D00-0
 62
     7
370
    50
100
AcDbLine
 10
44.814968
 20
416.064496
 30
0.0
 11
46.314968
 21
417.564496
 31
0.0
  0
LINE
  5
5C9
330
5C5
100
AcDbEntity
  8
LC-001-100-D00-0
 62
     7
370
    50
100
AcDbLine
 10
44.814968
 20
438.515137
 30
0.0
 11
47.513242
 21
441.213412
 31
0.0
  0
LINE
  5
5CA
330
5C5
100
AcDbEntity
  8
LC-001-100-D00-0
 62
     7
370
    50
100
AcDbLine
 10
51.568428
 20
445.268598
 30
0.0
 11
58.766702
 21
452.466873
 31
0.0
  0
ENDBLK
  5
5C7
330
5C5
100
AcDbEntity
  8
0
100
AcDbBlockEnd
  0
BLOCK
  5
5CD
330
5CC
100
AcDbEntity
  8
0
100
AcDbBlockBegin
  2
KLON28
 70
     0
 71
     0
 10
0.0
 20
0.0
 30
0.0
  3
KLON28
  1

  4
KLON28
  0
LINE
  5
5CF
330
5CC
100
AcDbEntity
  8
LC-001-100-D00-0
 62
     7
370
    25
100
AcDbLine
 10
-11.685032
 20
426.916415
 30
0.0
 11
-10.185032
 21
428.416415
 31
0.0
  0
LINE
  5
5D0
330
5CC
100
AcDbEntity
  8
LC-001-100-D00-0
 62
     7
370
    25
100
AcDbLine
 10
-16.214341
 20
444.837747
 30
0.0
 11
-10.218871
 21
450.833218
 31
0.0
  0
LINE
  5
5D1
330
5CC
100
AcDbEntity
  8
LC-001-100-D00-0
 62
     7
370
    25
100
AcDbLine
 10
-37.035855
 20
446.466873
 30
0.0
 11
-36.035855
 21
447.466873
 31
0.0
  0
LINE
  5
5D2
330
5CC
100
AcDbEntity
  8
LC-001-100-D00-0
 62
     7
370
    25
100
AcDbLine
 10
-35.185032
 20
448.317696
 30
0.0
 11
-31.035855
 21
452.466873
 31
0.0
  0
ENDBLK
  5
5CE
330
5CC
100
AcDbEntity
  8
0
100
AcDbBlockEnd
  0
BLOCK
  5
5D5
330
5D4
100
AcDbEntity
  8
0
100
AcDbBlockBegin
  2
KLON29
 70
     0
 71
     0
 10
0.0
 20
0.0
 30
0.0
  3
KLON29
  1

  4
KLON29
  0
LINE
  5
5D7
330
5D4
100
AcDbEntity
  8
LC-001-100-D00-0
 62
     7
370
    25
100
AcDbLine
 10
42.167986
 20
390.966873
 30
0.0
 11
43.667986
 21
392.466873
 31
0.0
  0
LINE
  5
5D8
330
5D4
100
AcDbEntity
  8
LC-001-100-D00-0
 62
     7
370
    25
100
AcDbLine
 10
56.814968
 20
405.613856
 30
0.0
 11
58.314968
 21
407.113856
 31
0.0
  0
LINE
  5
5D9
330
5D4
100
AcDbEntity
  8
LC-001-100-D00-0
 62
     7
370
    25
100
AcDbLine
 10
19.717346
 20
390.966873
 30
0.0
 11
21.217346
 21
392.466873
 31
0.0
  0
LINE
  5
5DA
330
5D4
100
AcDbEntity
  8
LC-001-100-D00-0
 62
     7
370
    25
100
AcDbLine
 10
56.814968
 20
428.064497
 30
0.0
 11
58.314968
 21
429.564497
 31
0.0
  0
LINE
  5
5DB
330
5D4
100
AcDbEntity
  8
LC-001-100-D00-0
 62
     7
370
    25
100
AcDbLine
 10
-2.733293
 20
390.966873
 30
0.0
 11
-1.233293
 21
392.466873
 31
0.0
  0
LINE
  5
5DC
330
5D4
100
AcDbEntity
  8
LC-001-100-D00-0
 62
     7
370
    25
100
AcDbLine
 10
-22.889671
 20
393.261135
 30
0.0
 11
-21.793153
 21
394.357653
 31
0.0
  0
LINE
  5
5DD
330
5D4
100
AcDbEntity
  8
LC-001-100-D00-0
 62
     7
370
    25
100
AcDbLine
 10
-23.685032
 20
414.916414
 30
0.0
 11
-22.185032
 21
416.416414
 31
0.0
  0
LINE
  5
5DE
330
5D4
100
AcDbEntity
  8
LC-001-100-D00-0
 62
     7
370
    25
100
AcDbLine
 10
-23.915646
 20
437.136442
 30
0.0
 11
-22.491349
 21
438.560739
 31
0.0
  0
LINE
  5
5DF
330
5D4
100
AcDbEntity
  8
LC-001-100-D00-0
 62
     7
370
    25
100
AcDbLine
 10
-37.785032
 20
445.717696
 30
0.0
 11
-37.035855
 21
446.466873
 31
0.0
  0
ENDBLK
  5
5D6
330
5D4
100
AcDbEntity
  8
0
100
AcDbBlockEnd
  0
BLOCK
  5
5E2
330
5E1
100
AcDbEntity
  8
0
100
AcDbBlockBegin
  2
KLON30
 70
     0
 71
     0
 10
0.0
 20
0.0
 30
0.0
  3
KLON30
  1

  4
KLON30
  0
LINE
  5
5E4
330
5E1
100
AcDbEntity
  8
LC-001-100-D00-0
 62
     7
370
    25
100
AcDbLine
 10
123.899953
 20
450.248205
 30
0.0
 11
126.092671
 21
452.440923
 31
0.0
  0
LINE
  5
5E5
330
5E1
100
AcDbEntity
  8
LC-001-100-D00-0
 62
     7
370
    25
100
AcDbLine
 10
139.819262
 20
443.716873
 30
0.0
 11
142.069261
 21
445.966873
 31
0.0
  0
LINE
  5
5E6
330
5E1
100
AcDbEntity
  8
LC-001-100-D00-0
 62
     7
370
    25
100
AcDbLine
 10
162.269902
 20
443.716873
 30
0.0
 11
164.519901
 21
445.966873
 31
0.0
  0
LINE
  5
5E7
330
5E1
100
AcDbEntity
  8
LC-001-100-D00-0
 62
     7
370
    25
100
AcDbLine
 10
184.720522
 20
443.716873
 30
0.0
 11
186.970521
 21
445.966873
 31
0.0
  0
ENDBLK
  5
5E3
330
5E1
100
AcDbEntity
  8
0
100
AcDbBlockEnd
  0
BLOCK
  5
5EA
330
5E9
100
AcDbEntity
  8
0
100
AcDbBlockBegin
  2
KLON31
 70
     0
 71
     0
 10
0.0
 20
0.0
 30
0.0
  3
KLON31
  1

  4
KLON31
  0
LINE
  5
5EC
330
5E9
100
AcDbEntity
  8
LC-001-100-D00-0
 62
     7
370
    25
100
AcDbLine
 10
204.322462
 20
395.966873
 30
0.0
 11
206.572462
 21
398.216873
 31
0.0
  0
LINE
  5
5ED
330
5E9
100
AcDbEntity
  8
LC-001-100-D00-0
 62
     7
370
    25
100
AcDbLine
 10
132.299603
 20
391.29595
 30
0.0
 11
139.220525
 21
398.216873
 31
0.0
  0
ENDBLK
  5
5EB
330
5E9
100
AcDbEntity
  8
0
100
AcDbBlockEnd
  0
BLOCK
  5
5F0
330
5EF
100
AcDbEntity
  8
0
100
AcDbBlockBegin
  2
KLON32
 70
     0
 71
     0
 10
0.0
 20
0.0
 30
0.0
  3
KLON32
  1

  4
KLON32
  0
LINE
  5
5F2
330
5EF
100
AcDbEntity
  8
LC-001-100-D00-0
 62
     7
370
    25
100
AcDbLine
 10
110.667981
 20
459.466873
 30
0.0
 11
110.964115
 21
459.763007
 31
0.0
  0
LINE
  5
5F3
330
5EF
100
AcDbEntity
  8
LC-001-100-D00-0
 62
     7
370
    25
100
AcDbLine
 10
100.217341
 20
471.466873
 30
0.0
 11
102.064968
 21
473.3145
 31
0.0
  0
LINE
  5
5F4
330
5EF
100
AcDbEntity
  8
LC-001-100-D00-0
 62
     7
370
    25
100
AcDbLine
 10
104.21734
 20
475.466873
 30
0.0
 11
107.21734
 21
478.466873
 31
0.0
  0
ENDBLK
  5
5F1
330
5EF
100
AcDbEntity
  8
0
100
AcDbBlockEnd
  0
BLOCK
  5
5F9
330
5F8
100
AcDbEntity
  8
0
100
AcDbBlockBegin
  2
KLON33
 70
     0
 71
     0
 10
0.0
 20
0.0
 30
0.0
  3
KLON33
  1

  4
KLON33
  0
LINE
  5
5FB
330
5F8
100
AcDbEntity
  8
LC-001-100-D00-0
 62
     7
370
    25
100
AcDbLine
 10
-91.387774
 20
459.466873
 30
0.0
 11
-87.885032
 21
462.969615
 31
0.0
  0
LINE
  5
5FC
330
5F8
100
AcDbEntity
  8
LC-001-100-D00-0
 62
     7
370
    25
100
AcDbLine
 10
-100.935032
 20
472.370255
 30
0.0
 11
-97.935032
 21
475.370256
 31
0.0
  0
LINE
  5
5FD
330
5F8
100
AcDbEntity
  8
LC-001-100-D00-0
 62
     7
370
    25
100
AcDbLine
 10
-97.838415
 20
475.466873
 30
0.0
 11
-94.838415
 21
478.466873
 31
0.0
  0
ENDBLK
  5
5FA
330
5F8
100
AcDbEntity
  8
0
100
AcDbBlockEnd
  0
BLOCK
  5
603
330
602
100
AcDbEntity
  8
0
100
AcDbBlockBegin
  2
KLON34
 70
     0
 71
     0
 10
0.0
 20
0.0
 30
0.0
  3
KLON34
  1

  4
KLON34
  0
LINE
  5
605
330
602
100
AcDbEntity
  8
LC-001-100-D00-0
 62
     7
370
    25
100
AcDbLine
 10
292.561805
 20
461.755582
 30
0.0
 11
297.064968
 21
466.258744
 31
0.0
  0
LINE
  5
606
330
602
100
AcDbEntity
  8
LC-001-100-D00-0
 62
     7
370
    25
100
AcDbLine
 10
302.564968
 20
471.758745
 30
0.0
 11
305.564968
 21
474.758745
 31
0.0
  0
ENDBLK
  5
604
330
602
100
AcDbEntity
  8
0
100
AcDbBlockEnd
  0
BLOCK
  5
60B
330
60A
100
AcDbEntity
  8
0
100
AcDbBlockBegin
  2
KLON35
 70
     0
 71
     0
 10
0.0
 20
0.0
 30
0.0
  3
KLON35
  1

  4
KLON35
  0
LINE
  5
60D
330
60A
100
AcDbEntity
  8
LC-001-100-D00-0
 62
     7
370
    25
100
AcDbLine
 10
-246.542251
 20
461.466873
 30
0.0
 11
-242.935032
 21
465.074092
 31
0.0
  0
LINE
  5
60E
330
60A
100
AcDbEntity
  8
LC-001-100-D00-0
 62
     7
370
    25
100
AcDbLine
 10
-236.542252
 20
471.466873
 30
0.0
 11
-234.435032
 21
473.574092
 31
0.0
  0
ENDBLK
  5
60C
330
60A
100
AcDbEntity
  8
0
100
AcDbBlockEnd
  0
ENDSEC
  0
SECTION
  2
ENTITIES
  0
LINE
  5
31
330
1F
100
AcDbEntity
  8
LC-001-100-D00-0
 62
     7
370
    50
100
AcDbLine
 10
827.777316
 20
476.966873
 30
0.0
 11
827.777316
 21
475.566873
 31
0.0
  0
LINE
  5
32
330
1F
100
AcDbEntity
  8
LC-001-100-D00-0
 62
     7
370
    50
100
AcDbLine
 10
836.777316
 20
475.566873
 30
0.0
 11
836.777318
 21
476.966873
 31
0.0
  0
LINE
  5
33
330
1F
100
AcDbEntity
  8
LC-001-100-D00-0
 62
     7
370
    50
100
AcDbLine
 10
757.777314
 20
476.966873
 30
0.0
 11
757.777316
 21
475.566873
 31
0.0
  0
LINE
  5
34
330
1F
100
AcDbEntity
  8
LC-001-100-D00-0
 62
     7
370
    50
100
AcDbLine
 10
766.777316
 20
475.566873
 30
0.0
 11
766.777316
 21
476.966873
 31
0.0
  0
LINE
  5
35
330
1F
100
AcDbEntity
  8
LC-001-100-D00-0
 62
     7
370
    50
100
AcDbLine
 10
828.277316
 20
475.566873
 30
0.0
 11
828.277316
 21
461.966873
 31
0.0
  0
LINE
  5
36
330
1F
100
AcDbEntity
  8
LC-001-100-D00-0
 62
     7
370
    50
100
AcDbLine
 10
836.277316
 20
461.966873
 30
0.0
 11
836.277317
 21
475.566873
 31
0.0
  0
LINE
  5
37
330
1F
100
AcDbEntity
  8
LC-001-100-D00-0
 62
     7
370
    50
100
AcDbLine
 10
758.277315
 20
475.566873
 30
0.0
 11
758.277316
 21
461.966873
 31
0.0
  0
LINE
  5
38
330
1F
100
AcDbEntity
  8
LC-001-100-D00-0
 62
     7
370
    50
100
AcDbLine
 10
766.277316
 20
461.966873
 30
0.0
 11
766.277317
 21
475.566873
 31
0.0
  0
ARC
  5
39
330
1F
100
AcDbEntity
  8
LC-001-100-D00-0
 62
     7
370
    50
100
AcDbCircle
 10
852.777316
 20
351.466873
 30
0.0
 40
0.5
100
AcDbArc
 50
90.0
 51
180.0
  0
ARC
  5
3A
330
1F
100
AcDbEntity
  8
LC-001-100-D00-0
 62
     7
370
    50
100
AcDbCircle
 10
870.777316
 20
351.466873
 30
0.0
 40
0.5000000000002274
100
AcDbArc
 50
0.0
 51
90.0
  0
LINE
  5
3B
330
1F
100
AcDbEntity
  8
LC-001-100-D00-0
 62
     7
370
    50
100
AcDbLine
 10
852.277316
 20
351.466873
 30
0.0
 11
852.277316
 21
343.966873
 31
0.0
  0
LINE
  5
3C
330
1F
100
AcDbEntity
  8
LC-001-100-D00-0
 62
     7
370
    50
100
AcDbLine
 10
871.277316
 20
343.966873
 30
0.0
 11
871.277316
 21
351.466873
 31
0.0
  0
LINE
  5
3D
330
1F
100
AcDbEntity
  8
LC-001-100-D00-0
 62
     7
370
    50
100
AcDbLine
 10
851.777316
 20
352.966873
 30
0.0
 11
852.777316
 21
351.966873
 31
0.0
  0
LINE
  5
3E
330
1F
100
AcDbEntity
  8
LC-001-100-D00-0
 62
     7
370
    50
100
AcDbLine
 10
870.777316
 20
351.966873
 30
0.0
 11
871.777316
 21
352.966873
 31
0.0
  0
LINE
  5
3F
330
1F
100
AcDbEntity
  8
LC-001-100-D00-0
 62
     7
370
    50
100
AcDbLine
 10
851.777316
 20
363.466873
 30
0.0
 11
851.777316
 21
352.966873
 31
0.0
  0
LINE
  5
40
330
1F
100
AcDbEntity
  8
LC-001-100-D00-0
 62
     7
370
    50
100
AcDbLine
 10
871.777316
 20
352.966873
 30
0.0
 11
871.777316
 21
363.466873
 31
0.0
  0
LINE
  5
41
330
1F
100
AcDbEntity
  8
LC-001-100-D00-0
 62
     7
370
    50
100
AcDbLine
 10
851.777315
 20
420.966872
 30
0.0
 11
851.777316
 21
366.966873
 31
0.0
  0
LINE
  5
42
330
1F
100
AcDbEntity
  8
LC-001-100-D00-0
 62
     7
370
    50
100
AcDbLine
 10
871.777316
 20
366.966873
 30
0.0
 11
871.777318
 21
420.966872
 31
0.0
  0
LINE
  5
43
330
1F
100
AcDbEntity
  8
LC-001-100-D00-0
 62
     7
370
    50
100
AcDbLine
 10
853.877317
 20
366.966871
 30
0.0
 11
853.877317
 21
363.466871
 31
0.0
  0
LINE
  5
44
330
1F
100
AcDbEntity
  8
LC-001-100-D00-0
 62
     7
370
    50
100
AcDbLine
 10
869.67732
 20
363.466871
 30
0.0
 11
869.67732
 21
366.966871
 31
0.0
  0
LINE
  5
45
330
1F
100
AcDbEntity
  8
LC-001-100-D00-0
 62
     7
370
    50
100
AcDbLine
 10
767.277316
 20
452.566873
 30
0.0
 11
767.277317
 21
455.966872
 31
0.0
  0
LINE
  5
46
330
1F
100
AcDbEntity
  8
LC-001-100-D00-0
 62
     7
370
    50
100
AcDbLine
 10
757.277317
 20
455.966872
 30
0.0
 11
757.277316
 21
452.566873
 31
0.0
  0
ARC
  5
47
330
1F
100
AcDbEntity
  8
LC-001-100-D00-0
 62
     7
370
    50
100
AcDbCircle
 10
766.677316
 20
452.566873
 30
0.0
 40
0.5999999999999091
100
AcDbArc
 50
270.0
 51
0.0
  0
ARC
  5
48
330
1F
100
AcDbEntity
  8
LC-001-100-D00-0
 62
     7
370
    50
100
AcDbCircle
 10
757.877316
 20
452.566873
 30
0.0
 40
0.6000000000001364
100
AcDbArc
 50
180.0
 51
270.0
  0
LINE
  5
49
330
1F
100
AcDbEntity
  8
LC-001-100-D00-0
 62
     7
370
    50
100
AcDbLine
 10
765.277315
 20
460.966873
 30
0.0
 11
765.277315
 21
461.966873
 31
0.0
  0
LINE
  5
4A
330
1F
100
AcDbEntity
  8
LC-001-100-D00-0
 62
     7
370
    50
100
AcDbLine
 10
759.277317
 20
461.966873
 30
0.0
 11
759.277317
 21
460.966873
 31
0.0
  0
LINE
  5
4B
330
1F
100
AcDbEntity
  8
LC-001-100-D00-0
 62
     7
370
    50
100
AcDbLine
 10
837.277316
 20
452.566873
 30
0.0
 11
837.277315
 21
455.966872
 31
0.0
  0
LINE
  5
4C
330
1F
100
AcDbEntity
  8
LC-001-100-D00-0
 62
     7
370
    50
100
AcDbLine
 10
827.277315
 20
455.966872
 30
0.0
 11
827.277316
 21
452.566873
 31
0.0
  0
ARC
  5
4D
330
1F
100
AcDbEntity
  8
LC-001-100-D00-0
 62
     7
370
    50
100
AcDbCircle
 10
836.677316
 20
452.566873
 30
0.0
 40
0.5999999999999091
100
AcDbArc
 50
270.0
 51
0.0
  0
ARC
  5
4E
330
1F
100
AcDbEntity
  8
LC-001-100-D00-0
 62
     7
370
    50
100
AcDbCircle
 10
827.877316
 20
452.566873
 30
0.0
 40
0.6000000000001364
100
AcDbArc
 50
180.0
 51
270.0
  0
LINE
  5
4F
330
1F
100
AcDbEntity
  8
LC-001-100-D00-0
 62
     7
370
    50
100
AcDbLine
 10
835.277315
 20
460.966873
 30
0.0
 11
835.277315
 21
461.966873
 31
0.0
  0
LINE
  5
50
330
1F
100
AcDbEntity
  8
LC-001-100-D00-0
 62
     7
370
    50
100
AcDbLine
 10
829.277318
 20
461.966873
 30
0.0
 11
829.277318
 21
460.966873
 31
0.0
  0
LINE
  5
51
330
1F
100
AcDbEntity
  8
LC-001-100-D00-0
 62
     7
370
    50
100
AcDbLine
 10
837.777316
 20
455.966873
 30
0.0
 11
837.777316
 21
457.966873
 31
0.0
  0
LINE
  5
52
330
1F
100
AcDbEntity
  8
LC-001-100-D00-0
 62
     7
370
    50
100
AcDbLine
 10
826.777316
 20
457.966873
 30
0.0
 11
826.777316
 21
455.966873
 31
0.0
  0
LINE
  5
53
330
1F
100
AcDbEntity
  8
LC-001-100-D00-0
 62
     7
370
    50
100
AcDbLine
 10
767.777316
 20
455.966873
 30
0.0
 11
767.777316
 21
457.966873
 31
0.0
  0
LINE
  5
54
330
1F
100
AcDbEntity
  8
LC-001-100-D00-0
 62
     7
370
    50
100
AcDbLine
 10
756.777316
 20
457.966873
 30
0.0
 11
756.777316
 21
455.966873
 31
0.0
  0
LINE
  5
55
330
1F
100
AcDbEntity
  8
LC-001-100-D00-0
 62
     7
370
    50
100
AcDbLine
 10
869.777316
 20
478.466873
 30
0.0
 11
874.777316
 21
478.466873
 31
0.0
  0
LINE
  5
56
330
1F
100
AcDbEntity
  8
LC-001-100-D00-0
 62
     7
370
    50
100
AcDbLine
 10
874.777316
 20
478.466873
 30
0.0
 11
874.777316
 21
476.966873
 31
0.0
  0
LINE
  5
57
330
1F
100
AcDbEntity
  8
LC-001-100-D00-0
 62
     7
370
    50
100
AcDbLine
 10
874.777316
 20
476.966873
 30
0.0
 11
869.777316
 21
476.966873
 31
0.0
  0
ARC
  5
58
330
1F
100
AcDbEntity
  8
LC-001-100-D00-0
 62
     7
370
    50
100
AcDbCircle
 10
754.277316
 20
479.966873
 30
0.0
 40
1.5
100
AcDbArc
 50
180.0
 51
270.0
  0
LINE
  5
59
330
1F
100
AcDbEntity
  8
LC-001-100-D00-0
 62
     7
370
    50
100
AcDbLine
 10
754.277316
 20
478.466873
 30
0.0
 11
869.777316
 21
478.466873
 31
0.0
  0
LINE
  5
5A
330
1F
100
AcDbEntity
  8
LC-001-100-D00-0
 62
     7
370
    50
100
AcDbLine
 10
753.777316
 20
476.966873
 30
0.0
 11
869.777316
 21
476.966873
 31
0.0
  0
LINE
  5
5B
330
1F
100
AcDbEntity
  8
LC-001-100-D00-0
 62
     7
370
    50
100
AcDbLine
 10
751.277316
 20
479.466873
 30
0.0
 11
751.277316
 21
523.466873
 31
0.0
  0
LINE
  5
5C
330
1F
100
AcDbEntity
  8
LC-001-100-D00-0
 62
     7
370
    50
100
AcDbLine
 10
752.777316
 20
523.466873
 30
0.0
 11
752.777316
 21
479.966873
 31
0.0
  0
ARC
  5
5D
330
1F
100
AcDbEntity
  8
LC-001-100-D00-0
 62
     7
370
    50
100
AcDbCircle
 10
753.777316
 20
479.466873
 30
0.0
 40
2.5
100
AcDbArc
 50
180.0
 51
270.0
  0
LINE
  5
5E
330
1F
100
AcDbEntity
  8
LC-001-100-D00-0
 62
     7
370
    50
100
AcDbLine
 10
751.277316
 20
528.466873
 30
0.0
 11
752.777316
 21
528.466873
 31
0.0
  0
LINE
  5
5F
330
1F
100
AcDbEntity
  8
LC-001-100-D00-0
 62
     7
370
    50
100
AcDbLine
 10
752.777316
 20
528.466873
 30
0.0
 11
752.777316
 21
523.466873
 31
0.0
  0
LINE
  5
60
330
1F
100
AcDbEntity
  8
LC-001-100-D00-0
 62
     7
370
    50
100
AcDbLine
 10
751.277316
 20
523.466873
 30
0.0
 11
751.277316
 21
528.466873
 31
0.0
  0
ARC
  5
61
330
1F
100
AcDbEntity
  8
LC-001-100-D00-0
 62
     7
370
    50
100
AcDbCircle
 10
826.277316
 20
475.466873
 30
0.0
 40
1.5
100
AcDbArc
 50
90.0
 51
180.0
  0
ARC
  5
62
330
1F
100
AcDbEntity
  8
LC-001-100-D00-0
 62
     7
370
    50
100
AcDbCircle
 10
768.277316
 20
475.466873
 30
0.0
 40
1.5
100
AcDbArc
 50
0.0
 51
90.0
  0
LINE
  5
63
330
1F
100
AcDbEntity
  8
LC-001-100-D00-0
 62
     7
370
    50
100
AcDbLine
 10
769.777316
 20
465.966873
 30
0.0
 11
769.777316
 21
475.466873
 31
0.0
  0
LINE
  5
64
330
1F
100
AcDbEntity
  8
LC-001-100-D00-0
 62
     7
370
    50
100
AcDbLine
 10
809.610725
 20
456.466873
 30
0.0
 11
820.777316
 21
456.466873
 31
0.0
  0
LINE
  5
65
330
1F
100
AcDbEntity
  8
LC-001-100-D00-0
 62
     7
370
    50
100
AcDbLine
 10
809.432511
 20
456.466873
 30
0.0
 11
809.610725
 21
456.466873
 31
0.0
  0
LINE
  5
66
330
1F
100
AcDbEntity
  8
LC-001-100-D00-0
 62
     7
370
    50
100
AcDbLine
 10
809.432511
 20
456.466873
 30
0.0
 11
785.122121
 21
456.466873
 31
0.0
  0
LINE
  5
67
330
1F
100
AcDbEntity
  8
LC-001-100-D00-0
 62
     7
370
    50
100
AcDbLine
 10
784.943907
 20
456.466873
 30
0.0
 11
785.122121
 21
456.466873
 31
0.0
  0
LINE
  5
68
330
1F
100
AcDbEntity
  8
LC-001-100-D00-0
 62
     7
370
    50
100
AcDbLine
 10
773.777316
 20
456.466873
 30
0.0
 11
784.943907
 21
456.466873
 31
0.0
  0
ARC
  5
69
330
1F
100
AcDbEntity
  8
LC-001-100-D00-0
 62
     7
370
    50
100
AcDbCircle
 10
773.777316
 20
460.466873
 30
0.0
 40
4.000000000000227
100
AcDbArc
 50
180.0
 51
270.0
  0
LINE
  5
6A
330
1F
100
AcDbEntity
  8
LC-001-100-D00-0
 62
     7
370
    50
100
AcDbLine
 10
769.777316
 20
465.966873
 30
0.0
 11
769.777316
 21
460.466873
 31
0.0
  0
ARC
  5
6B
330
1F
100
AcDbEntity
  8
LC-001-100-D00-0
 62
     7
370
    50
100
AcDbCircle
 10
820.777316
 20
460.466873
 30
0.0
 40
4.000000000014552
100
AcDbArc
 50
270.0
 51
0.0
  0
LINE
  5
6C
330
1F
100
AcDbEntity
  8
LC-001-100-D00-0
 62
     7
370
    50
100
AcDbLine
 10
824.777316
 20
460.466873
 30
0.0
 11
824.777316
 21
465.966873
 31
0.0
  0
LINE
  5
6D
330
1F
100
AcDbEntity
  8
LC-001-100-D00-0
 62
     7
370
    50
100
AcDbLine
 10
824.777316
 20
475.466873
 30
0.0
 11
824.777316
 21
465.966873
 31
0.0
  0
ARC
  5
6E
330
1F
100
AcDbEntity
  8
LC-001-100-D00-0
 62
     7
370
    50
100
AcDbCircle
 10
773.777316
 20
455.466873
 30
0.0
 40
4.000000000041155
100
AcDbArc
 50
180.0
 51
270.0
  0
LINE
  5
6F
330
1F
100
AcDbEntity
  8
LC-001-100-D00-0
 62
     7
370
    50
100
AcDbLine
 10
769.777316
 20
455.466873
 30
0.0
 11
769.777316
 21
460.466873
 31
0.0
  0
ARC
  5
70
330
1F
100
AcDbEntity
  8
LC-001-100-D00-0
 62
     7
370
    50
100
AcDbCircle
 10
820.777316
 20
455.466873
 30
0.0
 40
4.000000000000227
100
AcDbArc
 50
270.0
 51
0.0
  0
LINE
  5
71
330
1F
100
AcDbEntity
  8
LC-001-100-D00-0
 62
     7
370
    50
100
AcDbLine
 10
824.777316
 20
460.466873
 30
0.0
 11
824.777316
 21
455.466873
 31
0.0
  0
LINE
  5
72
330
1F
100
AcDbEntity
  8
LC-001-100-D00-0
 62
     7
370
    50
100
AcDbLine
 10
776.626348
 20
451.466872
 30
0.0
 11
773.777317
 21
451.466872
 31
0.0
  0
LINE
  5
73
330
1F
100
AcDbEntity
  8
LC-001-100-D00-0
 62
     7
370
    50
100
AcDbLine
 10
820.777315
 20
451.466872
 30
0.0
 11
817.928284
 21
451.466872
 31
0.0
  0
LINE
  5
74
330
1F
100
AcDbEntity
  8
LC-001-100-D00-0
 62
     7
370
    50
100
AcDbLine
 10
802.663275
 20
456.33822
 30
0.0
 11
802.662192
 21
456.338582
 31
0.0
  0
ARC
  5
75
330
1F
100
AcDbEntity
  8
LC-001-100-D00-0
 62
     7
370
    50
100
AcDbCircle
 10
801.871622
 20
453.966873
 30
0.0
 40
2.500000000000133
100
AcDbArc
 50
71.565051
 51
90.0
  0
ARC
  5
76
330
1F
100
AcDbEntity
  8
LC-001-100-D00-0
 62
     7
370
    50
100
AcDbCircle
 10
792.68301
 20
453.966873
 30
0.0
 40
2.5
100
AcDbArc
 50
90.0
 51
108.434949
  0
LINE
  5
77
330
1F
100
AcDbEntity
  8
LC-001-100-D00-0
 62
     7
370
    50
100
AcDbLine
 10
791.892441
 20
456.338582
 30
0.0
 11
791.891357
 21
456.33822
 31
0.0
  0
LINE
  5
78
330
1F
100
AcDbEntity
  8
LC-001-100-D00-0
 62
     7
370
    50
100
AcDbLine
 10
817.928284
 20
451.466872
 30
0.0
 11
817.926427
 21
451.466872
 31
0.0
  0
LINE
  5
79
330
1F
100
AcDbEntity
  8
LC-001-100-D00-0
 62
     7
370
    50
100
AcDbLine
 10
817.926427
 20
451.466872
 30
0.0
 11
816.661516
 21
451.67214
 31
0.0
  0
LINE
  5
7A
330
1F
100
AcDbEntity
  8
LC-001-100-D00-0
 62
     7
370
    50
100
AcDbLine
 10
816.661516
 20
451.67214
 30
0.0
 11
816.659435
 21
451.672833
 31
0.0
  0
LINE
  5
7B
330
1F
100
AcDbEntity
  8
LC-001-100-D00-0
 62
     7
370
    50
100
AcDbLine
 10
776.628205
 20
451.466872
 30
0.0
 11
777.893116
 21
451.67214
 31
0.0
  0
LINE
  5
7C
330
1F
100
AcDbEntity
  8
LC-001-100-D00-0
 62
     7
370
    50
100
AcDbLine
 10
776.628205
 20
451.466872
 30
0.0
 11
776.626348
 21
451.466872
 31
0.0
  0
LINE
  5
7D
330
1F
100
AcDbEntity
  8
LC-001-100-D00-0
 62
     7
370
    50
100
AcDbLine
 10
777.895197
 20
451.672833
 30
0.0
 11
777.893116
 21
451.67214
 31
0.0
  0
LINE
  5
7E
330
1F
100
AcDbEntity
  8
LC-001-100-D00-0
 62
     7
370
    50
100
AcDbLine
 10
816.659435
 20
451.672833
 30
0.0
 11
802.663275
 21
456.33822
 31
0.0
  0
LINE
  5
7F
330
1F
100
AcDbEntity
  8
LC-001-100-D00-0
 62
     7
370
    50
100
AcDbLine
 10
791.891357
 20
456.33822
 30
0.0
 11
777.895197
 21
451.672833
 31
0.0
  0
LINE
  5
80
330
1F
100
AcDbEntity
  8
LC-001-100-D00-0
 62
     7
370
    50
100
AcDbLine
 10
848.777316
 20
476.966873
 30
0.0
 11
848.777316
 21
474.966873
 31
0.0
  0
LINE
  5
81
330
1F
100
AcDbEntity
  8
LC-001-100-D00-0
 62
     7
370
    50
100
AcDbLine
 10
848.777316
 20
474.966873
 30
0.0
 11
874.777316
 21
474.966873
 31
0.0
  0
LINE
  5
82
330
1F
100
AcDbEntity
  8
LC-001-100-D00-0
 62
     7
370
    50
100
AcDbLine
 10
874.777316
 20
476.966873
 30
0.0
 11
874.777316
 21
474.966873
 31
0.0
  0
LINE
  5
83
330
1F
100
AcDbEntity
  8
LC-001-100-D00-0
 62
     7
370
    50
100
AcDbLine
 10
848.777316
 20
472.966873
 30
0.0
 11
848.777316
 21
474.966873
 31
0.0
  0
LINE
  5
84
330
1F
100
AcDbEntity
  8
LC-001-100-D00-0
 62
     7
370
    50
100
AcDbLine
 10
874.777316
 20
474.966873
 30
0.0
 11
874.777316
 21
472.966873
 31
0.0
  0
LINE
  5
85
330
1F
100
AcDbEntity
  8
LC-001-100-D00-0
 62
     7
370
    50
100
AcDbLine
 10
874.777316
 20
447.866873
 30
0.0
 11
872.336924
 21
447.866873
 31
0.0
  0
LINE
  5
86
330
1F
100
AcDbEntity
  8
LC-001-100-D00-0
 62
     7
370
    50
100
AcDbLine
 10
851.217709
 20
447.866873
 30
0.0
 11
848.777316
 21
447.866873
 31
0.0
  0
LINE
  5
87
330
1F
100
AcDbEntity
  8
LC-001-100-D00-0
 62
     7
370
    50
100
AcDbLine
 10
848.777316
 20
447.866873
 30
0.0
 11
848.777316
 21
451.866873
 31
0.0
  0
LINE
  5
88
330
1F
100
AcDbEntity
  8
LC-001-100-D00-0
 62
     7
370
    50
100
AcDbLine
 10
874.777316
 20
451.866873
 30
0.0
 11
874.777316
 21
447.866873
 31
0.0
  0
LINE
  5
89
330
1F
100
AcDbEntity
  8
LC-001-100-D00-0
 62
     7
370
    50
100
AcDbLine
 10
848.777316
 20
472.966873
 30
0.0
 11
848.777316
 21
451.866873
 31
0.0
  0
LINE
  5
8A
330
1F
100
AcDbEntity
  8
LC-001-100-D00-0
 62
     7
370
    50
100
AcDbLine
 10
874.777316
 20
472.966873
 30
0.0
 11
874.777316
 21
451.866873
 31
0.0
  0
LINE
  5
8B
330
1F
100
AcDbEntity
  8
LC-001-100-D00-0
 62
     7
370
    50
100
AcDbLine
 10
817.926427
 20
451.466872
 30
0.0
 11
816.207176
 21
451.466872
 31
0.0
  0
LINE
  5
8C
330
1F
100
AcDbEntity
  8
LC-001-100-D00-0
 62
     7
370
    50
100
AcDbLine
 10
778.347457
 20
451.466872
 30
0.0
 11
776.628205
 21
451.466872
 31
0.0
  0
LINE
  5
8D
330
1F
100
AcDbEntity
  8
LC-001-100-D00-0
 62
     7
370
    50
100
AcDbLine
 10
816.207176
 20
451.466872
 30
0.0
 11
778.347457
 21
451.466872
 31
0.0
  0
LINE
  5
8E
330
1F
100
AcDbEntity
  8
LC-001-100-D00-0
 62
     7
370
    50
100
AcDbLine
 10
836.777316
 20
475.566873
 30
0.0
 11
827.777316
 21
475.566873
 31
0.0
  0
LINE
  5
8F
330
1F
100
AcDbEntity
  8
LC-001-100-D00-0
 62
     7
370
    50
100
AcDbLine
 10
757.777316
 20
475.566873
 30
0.0
 11
766.777316
 21
475.566873
 31
0.0
  0
LINE
  5
90
330
1F
100
AcDbEntity
  8
LC-001-100-D00-0
 62
     7
370
    50
100
AcDbLine
 10
836.277316
 20
461.966873
 30
0.0
 11
828.277316
 21
461.966873
 31
0.0
  0
LINE
  5
91
330
1F
100
AcDbEntity
  8
LC-001-100-D00-0
 62
     7
370
    50
100
AcDbLine
 10
758.277316
 20
461.966873
 30
0.0
 11
766.277316
 21
461.966873
 31
0.0
  0
LINE
  5
92
330
1F
100
AcDbEntity
  8
LC-001-100-D00-0
 62
     7
370
    50
100
AcDbLine
 10
852.935392
 20
351.966878
 30
0.0
 11
870.64521
 21
351.966878
 31
0.0
  0
LINE
  5
93
330
1F
100
AcDbEntity
  8
LC-001-100-D00-0
 62
     7
370
    50
100
AcDbLine
 10
863.715036
 20
343.966873
 30
0.0
 11
852.277316
 21
343.966873
 31
0.0
  0
LINE
  5
94
330
1F
100
AcDbEntity
  8
LC-001-100-D00-0
 62
     7
370
    50
100
AcDbLine
 10
871.277316
 20
343.966873
 30
0.0
 11
863.715036
 21
343.966873
 31
0.0
  0
LINE
  5
95
330
1F
100
AcDbEntity
  8
LC-001-100-D00-0
 62
     7
370
    50
100
AcDbLine
 10
867.777316
 20
447.966873
 30
0.0
 11
855.777316
 21
447.966873
 31
0.0
  0
LINE
  5
96
330
1F
100
AcDbEntity
  8
LC-001-100-D00-0
 62
     7
370
    50
100
AcDbLine
 10
867.777316
 20
445.966873
 30
0.0
 11
855.777316
 21
445.966873
 31
0.0
  0
LINE
  5
97
330
1F
100
AcDbEntity
  8
LC-001-100-D00-0
 62
     7
370
    50
100
AcDbLine
 10
849.777316
 20
445.966873
 30
0.0
 11
849.777315
 21
447.866873
 31
0.0
  0
LINE
  5
98
330
1F
100
AcDbEntity
  8
LC-001-100-D00-0
 62
     7
370
    50
100
AcDbLine
 10
855.777316
 20
445.966873
 30
0.0
 11
849.777316
 21
445.966873
 31
0.0
  0
LINE
  5
99
330
1F
100
AcDbEntity
  8
LC-001-100-D00-0
 62
     7
370
    50
100
AcDbLine
 10
852.162457
 20
447.966873
 30
0.0
 11
855.777316
 21
447.966873
 31
0.0
  0
LINE
  5
9A
330
1F
100
AcDbEntity
  8
LC-001-100-D00-0
 62
     7
370
    50
100
AcDbLine
 10
873.777315
 20
447.866873
 30
0.0
 11
873.777316
 21
445.966873
 31
0.0
  0
LINE
  5
9B
330
1F
100
AcDbEntity
  8
LC-001-100-D00-0
 62
     7
370
    50
100
AcDbLine
 10
873.777316
 20
445.966873
 30
0.0
 11
867.777316
 21
445.966873
 31
0.0
  0
LINE
  5
9C
330
1F
100
AcDbEntity
  8
LC-001-100-D00-0
 62
     7
370
    50
100
AcDbLine
 10
867.777316
 20
447.966873
 30
0.0
 11
871.392176
 21
447.966873
 31
0.0
  0
LINE
  5
9D
330
1F
100
AcDbEntity
  8
LC-001-100-D00-0
 62
     7
370
    50
100
AcDbLine
 10
865.277316
 20
420.966873
 30
0.0
 11
858.277316
 21
420.966873
 31
0.0
  0
LINE
  5
9E
330
1F
100
AcDbEntity
  8
LC-001-100-D00-0
 62
     7
370
    50
100
AcDbLine
 10
870.277316
 20
420.966873
 30
0.0
 11
865.277316
 21
420.966873
 31
0.0
  0
LINE
  5
9F
330
1F
100
AcDbEntity
  8
LC-001-100-D00-0
 62
     7
370
    50
100
AcDbLine
 10
858.277316
 20
420.966873
 30
0.0
 11
853.277316
 21
420.966873
 31
0.0
  0
LINE
  5
A0
330
1F
100
AcDbEntity
  8
LC-001-100-D00-0
 62
     7
370
    50
100
AcDbLine
 10
849.777316
 20
420.966873
 30
0.0
 11
849.777316
 21
445.966873
 31
0.0
  0
LINE
  5
A1
330
1F
100
AcDbEntity
  8
LC-001-100-D00-0
 62
     7
370
    50
100
AcDbLine
 10
853.277316
 20
420.966873
 30
0.0
 11
849.777316
 21
420.966873
 31
0.0
  0
LINE
  5
A2
330
1F
100
AcDbEntity
  8
LC-001-100-D00-0
 62
     7
370
    50
100
AcDbLine
 10
873.777316
 20
445.966873
 30
0.0
 11
873.777316
 21
420.966873
 31
0.0
  0
LINE
  5
A3
330
1F
100
AcDbEntity
  8
LC-001-100-D00-0
 62
     7
370
    50
100
AcDbLine
 10
873.777316
 20
420.966873
 30
0.0
 11
870.277316
 21
420.966873
 31
0.0
  0
LINE
  5
A4
330
1F
100
AcDbEntity
  8
LC-001-100-D00-0
 62
     7
370
    50
100
AcDbLine
 10
863.817021
 20
352.966873
 30
0.0
 11
871.777316
 21
352.966873
 31
0.0
  0
LINE
  5
A5
330
1F
100
AcDbEntity
  8
LC-001-100-D00-0
 62
     7
370
    50
100
AcDbLine
 10
851.777316
 20
352.966873
 30
0.0
 11
863.817021
 21
352.966873
 31
0.0
  0
LINE
  5
A6
330
1F
100
AcDbEntity
  8
LC-001-100-D00-0
 62
     7
370
    50
100
AcDbLine
 10
863.61305
 20
351.966873
 30
0.0
 11
852.777316
 21
351.966873
 31
0.0
  0
LINE
  5
A7
330
1F
100
AcDbEntity
  8
LC-001-100-D00-0
 62
     7
370
    50
100
AcDbLine
 10
870.777316
 20
351.966873
 30
0.0
 11
863.61305
 21
351.966873
 31
0.0
  0
LINE
  5
A8
330
1F
100
AcDbEntity
  8
LC-001-100-D00-0
 62
     7
370
    50
100
AcDbLine
 10
851.777316
 20
363.466873
 30
0.0
 11
871.777316
 21
363.466873
 31
0.0
  0
LINE
  5
A9
330
1F
100
AcDbEntity
  8
LC-001-100-D00-0
 62
     7
370
    50
100
AcDbLine
 10
851.777316
 20
366.966873
 30
0.0
 11
871.777316
 21
366.966873
 31
0.0
  0
LINE
  5
AA
330
1F
100
AcDbEntity
  8
LC-001-100-D00-0
 62
     7
370
    50
100
AcDbLine
 10
762.277316
 20
451.966873
 30
0.0
 11
757.877316
 21
451.966873
 31
0.0
  0
LINE
  5
AB
330
1F
100
AcDbEntity
  8
LC-001-100-D00-0
 62
     7
370
    50
100
AcDbLine
 10
766.677316
 20
451.966873
 30
0.0
 11
762.277316
 21
451.966873
 31
0.0
  0
LINE
  5
AC
330
1F
100
AcDbEntity
  8
LC-001-100-D00-0
 62
     7
370
    50
100
AcDbLine
 10
832.277316
 20
451.966873
 30
0.0
 11
827.877316
 21
451.966873
 31
0.0
  0
LINE
  5
AD
330
1F
100
AcDbEntity
  8
LC-001-100-D00-0
 62
     7
370
    50
100
AcDbLine
 10
836.677316
 20
451.966873
 30
0.0
 11
832.277316
 21
451.966873
 31
0.0
  0
LINE
  5
AE
330
1F
100
AcDbEntity
  8
LC-001-100-D00-0
 62
     7
370
    50
100
AcDbLine
 10
761.777316
 20
457.966873
 30
0.0
 11
769.777316
 21
457.966873
 31
0.0
  0
LINE
  5
AF
330
1F
100
AcDbEntity
  8
LC-001-100-D00-0
 62
     7
370
    50
100
AcDbLine
 10
761.777316
 20
460.966873
 30
0.0
 11
769.777316
 21
460.966873
 31
0.0
  0
LINE
  5
B0
330
1F
100
AcDbEntity
  8
LC-001-100-D00-0
 62
     7
370
    50
100
AcDbLine
 10
756.777316
 20
457.966873
 30
0.0
 11
756.777316
 21
460.966873
 31
0.0
  0
LINE
  5
B1
330
1F
100
AcDbEntity
  8
LC-001-100-D00-0
 62
     7
370
    50
100
AcDbLine
 10
761.777316
 20
457.966873
 30
0.0
 11
756.777316
 21
457.966873
 31
0.0
  0
LINE
  5
B2
330
1F
100
AcDbEntity
  8
LC-001-100-D00-0
 62
     7
370
    50
100
AcDbLine
 10
756.777316
 20
460.966873
 30
0.0
 11
761.777316
 21
460.966873
 31
0.0
  0
LINE
  5
B3
330
1F
100
AcDbEntity
  8
LC-001-100-D00-0
 62
     7
370
    50
100
AcDbLine
 10
824.777316
 20
460.966873
 30
0.0
 11
832.777316
 21
460.966873
 31
0.0
  0
LINE
  5
B4
330
1F
100
AcDbEntity
  8
LC-001-100-D00-0
 62
     7
370
    50
100
AcDbLine
 10
824.777316
 20
457.966873
 30
0.0
 11
832.777316
 21
457.966873
 31
0.0
  0
LINE
  5
B5
330
1F
100
AcDbEntity
  8
LC-001-100-D00-0
 62
     7
370
    50
100
AcDbLine
 10
837.777316
 20
460.966873
 30
0.0
 11
837.777316
 21
457.966873
 31
0.0
  0
LINE
  5
B6
330
1F
100
AcDbEntity
  8
LC-001-100-D00-0
 62
     7
370
    50
100
AcDbLine
 10
832.777316
 20
460.966873
 30
0.0
 11
837.777316
 21
460.966873
 31
0.0
  0
LINE
  5
B7
330
1F
100
AcDbEntity
  8
LC-001-100-D00-0
 62
     7
370
    50
100
AcDbLine
 10
837.777316
 20
457.966873
 30
0.0
 11
832.777316
 21
457.966873
 31
0.0
  0
LINE
  5
B8
330
1F
100
AcDbEntity
  8
LC-001-100-D00-0
 62
     7
370
    50
100
AcDbLine
 10
835.224125
 20
447.716873
 30
0.0
 11
759.330508
 21
447.716873
 31
0.0
  0
LINE
  5
B9
330
1F
100
AcDbEntity
  8
LC-001-100-D00-0
 62
     7
370
    50
100
AcDbLine
 10
837.777316
 20
461.966873
 30
0.0
 11
837.777316
 21
460.966873
 31
0.0
  0
LINE
  5
BA
330
1F
100
AcDbEntity
  8
LC-001-100-D00-0
 62
     7
370
    50
100
AcDbLine
 10
756.777316
 20
460.966873
 30
0.0
 11
756.777316
 21
461.966873
 31
0.0
  0
LINE
  5
BB
330
1F
100
AcDbEntity
  8
LC-001-100-D00-0
 62
     7
370
    50
100
AcDbLine
 10
756.777316
 20
461.966873
 30
0.0
 11
756.777316
 21
476.966873
 31
0.0
  0
LINE
  5
BC
330
1F
100
AcDbEntity
  8
LC-001-100-D00-0
 62
     7
370
    50
100
AcDbLine
 10
837.777316
 20
476.966873
 30
0.0
 11
837.777316
 21
461.966873
 31
0.0
  0
LINE
  5
BD
330
1F
100
AcDbEntity
  8
LC-001-100-D00-0
 62
     7
370
    50
100
AcDbLine
 10
837.777316
 20
455.966873
 30
0.0
 11
837.777316
 21
447.716873
 31
0.0
  0
LINE
  5
BE
330
1F
100
AcDbEntity
  8
LC-001-100-D00-0
 62
     7
370
    50
100
AcDbLine
 10
837.777316
 20
447.716873
 30
0.0
 11
835.224125
 21
447.716873
 31
0.0
  0
LINE
  5
BF
330
1F
100
AcDbEntity
  8
LC-001-100-D00-0
 62
     7
370
    50
100
AcDbLine
 10
756.777316
 20
447.716873
 30
0.0
 11
756.777316
 21
455.966873
 31
0.0
  0
LINE
  5
C0
330
1F
100
AcDbEntity
  8
LC-001-100-D00-0
 62
     7
370
    50
100
AcDbLine
 10
759.330508
 20
447.716873
 30
0.0
 11
756.777316
 21
447.716873
 31
0.0
  0
LINE
  5
C1
330
1F
100
AcDbEntity
  8
LC-001-100-D00-0
 62
     7
370
    50
100
AcDbLine
 10
759.330508
 20
447.716873
 30
0.0
 11
835.224125
 21
447.716873
 31
0.0
  0
LINE
  5
C2
330
1F
100
AcDbEntity
  8
LC-001-100-D00-0
 62
     7
370
    50
100
AcDbLine
 10
824.319869
 20
394.966873
 30
0.0
 11
770.234763
 21
394.966873
 31
0.0
  0
LINE
  5
C3
330
1F
100
AcDbEntity
  8
LC-001-100-D00-0
 62
     7
370
    50
100
AcDbLine
 10
817.792914
 20
388.466873
 30
0.0
 11
776.761719
 21
388.466873
 31
0.0
  0
LINE
  5
C4
330
1F
100
AcDbEntity
  8
LC-001-100-D00-0
 62
     7
370
    50
100
AcDbLine
 10
837.777316
 20
447.716873
 30
0.0
 11
837.777316
 21
407.466873
 31
0.0
  0
LINE
  5
C5
330
1F
100
AcDbEntity
  8
LC-001-100-D00-0
 62
     7
370
    50
100
AcDbLine
 10
835.224125
 20
447.716873
 30
0.0
 11
837.777316
 21
447.716873
 31
0.0
  0
ARC
  5
C6
330
1F
100
AcDbEntity
  8
LC-001-100-D00-0
 62
     7
370
    50
100
AcDbCircle
 10
825.277316
 20
407.466873
 30
0.0
 40
12.50000000000023
100
AcDbArc
 50
270.0
 51
0.0
  0
LINE
  5
C7
330
1F
100
AcDbEntity
  8
LC-001-100-D00-0
 62
     7
370
    50
100
AcDbLine
 10
825.277316
 20
394.966873
 30
0.0
 11
824.319869
 21
394.966873
 31
0.0
  0
ARC
  5
C8
330
1F
100
AcDbEntity
  8
LC-001-100-D00-0
 62
     7
370
    50
100
AcDbCircle
 10
769.277316
 20
407.466873
 30
0.0
 40
12.50000000000023
100
AcDbArc
 50
180.0
 51
270.0
  0
LINE
  5
C9
330
1F
100
AcDbEntity
  8
LC-001-100-D00-0
 62
     7
370
    50
100
AcDbLine
 10
770.234763
 20
394.966873
 30
0.0
 11
769.277316
 21
394.966873
 31
0.0
  0
LINE
  5
CA
330
1F
100
AcDbEntity
  8
LC-001-100-D00-0
 62
     7
370
    50
100
AcDbLine
 10
756.777316
 20
407.466873
 30
0.0
 11
756.777316
 21
447.716873
 31
0.0
  0
LINE
  5
CB
330
1F
100
AcDbEntity
  8
LC-001-100-D00-0
 62
     7
370
    50
100
AcDbLine
 10
756.777316
 20
447.716873
 30
0.0
 11
759.330508
 21
447.716873
 31
0.0
  0
ARC
  5
CC
330
1F
100
AcDbEntity
  8
LC-001-100-D00-0
 62
     7
370
    50
100
AcDbCircle
 10
776.759436
 20
395.466873
 30
0.0
 40
7.00000000000032
100
AcDbArc
 50
184.096044
 51
270.0
  0
LINE
  5
CD
330
1F
100
AcDbEntity
  8
LC-001-100-D00-0
 62
     7
370
    50
100
AcDbLine
 10
776.761719
 20
388.466873
 30
0.0
 11
776.759436
 21
388.466873
 31
0.0
  0
ARC
  5
CE
330
1F
100
AcDbEntity
  8
LC-001-100-D00-0
 62
     7
370
    50
100
AcDbCircle
 10
817.795196
 20
395.466873
 30
0.0
 40
6.999999999999773
100
AcDbArc
 50
270.0
 51
355.903956
  0
LINE
  5
CF
330
1F
100
AcDbEntity
  8
LC-001-100-D00-0
 62
     7
370
    50
100
AcDbLine
 10
817.795196
 20
388.466873
 30
0.0
 11
817.792914
 21
388.466873
 31
0.0
  0
LINE
  5
D0
330
1F
100
AcDbEntity
  8
LC-001-100-D00-0
 62
     7
370
    50
100
AcDbLine
 10
832.277316
 20
455.966873
 30
0.0
 11
837.777316
 21
455.966873
 31
0.0
  0
LINE
  5
D1
330
1F
100
AcDbEntity
  8
LC-001-100-D00-0
 62
     7
370
    50
100
AcDbLine
 10
826.777316
 20
455.966873
 30
0.0
 11
832.277316
 21
455.966873
 31
0.0
  0
LINE
  5
D2
330
1F
100
AcDbEntity
  8
LC-001-100-D00-0
 62
     7
370
    50
100
AcDbLine
 10
762.277316
 20
455.966873
 30
0.0
 11
767.777316
 21
455.966873
 31
0.0
  0
LINE
  5
D3
330
1F
100
AcDbEntity
  8
LC-001-100-D00-0
 62
     7
370
    50
100
AcDbLine
 10
756.777316
 20
455.966873
 30
0.0
 11
762.277316
 21
455.966873
 31
0.0
  0
DIMENSION
  5
D6
330
1F
100
AcDbEntity
  8
LC-001-100-D00-0
 62
     7
370
    25
100
AcDbDimension
  2
*D1
 10
837.777316
 20
287.333361
 30
0.0
 11
920.939327
 21
342.333361
 31
0.0
 70
   160
  1
81
 71
     5
 42
81.0
  3
LC-DIM-L-0100-02-02
100
AcDbAlignedDimension
 13
756.777316
 23
407.466873
 33
0.0
 14
837.777316
 24
407.466873
 34
0.0
100
AcDbRotatedDimension
  0
LINE
  5
E6
330
1F
100
AcDbEntity
  8
LC-001-100-D00-0
  6
DASHDOT
 62
     7
370
    25
100
AcDbLine
 10
797.277316
 20
388.466873
 30
0.0
 11
797.277316
 21
478.466873
 31
0.0
  0
LINE
  5
E7
330
1F
100
AcDbEntity
  8
LC-001-100-D00-0
 62
     7
370
    50
100
AcDbLine
 10
797.277316
 20
457.716873
 30
0.0
 11
797.277316
 21
397.466873
 31
0.0
  0
LINE
  5
E8
330
1F
100
AcDbEntity
  8
LC-001-100-D00-0
  6
DASHDOT
 62
     7
370
    25
100
AcDbLine
 10
861.777316
 20
356.966873
 30
0.0
 11
861.777316
 21
454.966873
 31
0.0
  0
LINE
  5
E9
330
1F
100
AcDbEntity
  8
LC-001-100-D00-0
 62
     7
370
    50
100
AcDbLine
 10
367.314973
 20
198.233361
 30
0.0
 11
367.314973
 21
196.733361
 31
0.0
  0
LINE
  5
EA
330
1F
100
AcDbEntity
  8
LC-001-100-D00-0
 62
     7
370
    50
100
AcDbLine
 10
362.314973
 20
198.233361
 30
0.0
 11
367.314973
 21
198.233361
 31
0.0
  0
LINE
  5
EB
330
1F
100
AcDbEntity
  8
LC-001-100-D00-0
 62
     7
370
    50
100
AcDbLine
 10
367.314973
 20
196.733361
 30
0.0
 11
362.314973
 21
196.733361
 31
0.0
  0
LINE
  5
EC
330
1F
100
AcDbEntity
  8
LC-001-100-D00-0
 62
     7
370
    50
100
AcDbLine
 10
-327.685027
 20
198.233361
 30
0.0
 11
362.314973
 21
198.233361
 31
0.0
  0
LINE
  5
ED
330
1F
100
AcDbEntity
  8
LC-001-100-D00-0
 62
     7
370
    50
100
AcDbLine
 10
-327.685027
 20
196.733361
 30
0.0
 11
362.314973
 21
196.733361
 31
0.0
  0
LINE
  5
EE
330
1F
100
AcDbEntity
  8
LC-001-100-D00-0
 62
     7
370
    50
100
AcDbLine
 10
-332.685027
 20
196.733361
 30
0.0
 11
-332.685027
 21
198.233361
 31
0.0
  0
LINE
  5
EF
330
1F
100
AcDbEntity
  8
LC-001-100-D00-0
 62
     7
370
    50
100
AcDbLine
 10
-332.685027
 20
198.233361
 30
0.0
 11
-327.685027
 21
198.233361
 31
0.0
  0
LINE
  5
F0
330
1F
100
AcDbEntity
  8
LC-001-100-D00-0
 62
     7
370
    50
100
AcDbLine
 10
-327.685027
 20
196.733361
 30
0.0
 11
-332.685027
 21
196.733361
 31
0.0
  0
LINE
  5
F1
330
1F
100
AcDbEntity
  8
LC-001-100-D00-0
 62
     7
370
    50
100
AcDbLine
 10
-332.685027
 20
195.233361
 30
0.0
 11
-332.685027
 21
196.733361
 31
0.0
  0
LINE
  5
F2
330
1F
100
AcDbEntity
  8
LC-001-100-D00-0
 62
     7
370
    50
100
AcDbLine
 10
367.314973
 20
196.733361
 30
0.0
 11
367.314973
 21
195.233361
 31
0.0
  0
ARC
  5
F3
330
1F
100
AcDbEntity
  8
LC-001-100-D00-0
 62
     7
370
    50
100
AcDbCircle
 10
314.814973
 20
175.733361
 30
0.0
 40
2.5
100
AcDbArc
 50
0.0
 51
90.0
  0
ARC
  5
F4
330
1F
100
AcDbEntity
  8
LC-001-100-D00-0
 62
     7
370
    50
100
AcDbCircle
 10
314.814973
 20
128.733361
 30
0.0
 40
2.5
100
AcDbArc
 50
270.0
 51
0.0
  0
LINE
  5
F5
330
1F
100
AcDbEntity
  8
LC-001-100-D00-0
 62
     7
370
    50
100
AcDbLine
 10
317.314973
 20
128.733361
 30
0.0
 11
317.314973
 21
175.733361
 31
0.0
  0
LINE
  5
F6
330
1F
100
AcDbEntity
  8
LC-001-100-D00-0
 62
     7
370
    50
100
AcDbLine
 10
314.814973
 20
126.233361
 30
0.0
 11
-280.185027
 21
126.233361
 31
0.0
  0
LINE
  5
F7
330
1F
100
AcDbEntity
  8
LC-001-100-D00-0
 62
     7
370
    50
100
AcDbLine
 10
-280.185027
 20
178.233361
 30
0.0
 11
314.814973
 21
178.233361
 31
0.0
  0
ARC
  5
F8
330
1F
100
AcDbEntity
  8
LC-001-100-D00-0
 62
     7
370
    50
100
AcDbCircle
 10
-280.185027
 20
175.733361
 30
0.0
 40
2.5
100
AcDbArc
 50
90.0
 51
180.0
  0
ARC
  5
F9
330
1F
100
AcDbEntity
  8
LC-001-100-D00-0
 62
     7
370
    50
100
AcDbCircle
 10
-280.185027
 20
128.733361
 30
0.0
 40
2.5
100
AcDbArc
 50
180.0
 51
270.0
  0
LINE
  5
FA
330
1F
100
AcDbEntity
  8
LC-001-100-D00-0
 62
     7
370
    50
100
AcDbLine
 10
-282.685027
 20
128.733361
 30
0.0
 11
-282.685027
 21
175.733361
 31
0.0
  0
ARC
  5
FB
330
1F
100
AcDbEntity
  8
LC-001-100-D00-0
 62
     7
370
    50
100
AcDbCircle
 10
362.314973
 20
79.733361
 30
0.0
 40
5.0
100
AcDbArc
 50
270.0
 51
0.0
  0
LINE
  5
FC
330
1F
100
AcDbEntity
  8
LC-001-100-D00-0
 62
     7
370
    50
100
AcDbLine
 10
-327.685027
 20
74.733361
 30
0.0
 11
362.314973
 21
74.733361
 31
0.0
  0
ARC
  5
FD
330
1F
100
AcDbEntity
  8
LC-001-100-D00-0
 62
     7
370
    50
100
AcDbCircle
 10
-327.685027
 20
79.733361
 30
0.0
 40
5.0
100
AcDbArc
 50
180.0
 51
270.0
  0
LINE
  5
FE
330
1F
100
AcDbEntity
  8
LC-001-100-D00-0
 62
     7
370
    50
100
AcDbLine
 10
-332.685027
 20
195.233361
 30
0.0
 11
-332.685027
 21
79.733361
 31
0.0
  0
LINE
  5
FF
330
1F
100
AcDbEntity
  8
LC-001-100-D00-0
 62
     7
370
    50
100
AcDbLine
 10
367.314973
 20
195.233361
 30
0.0
 11
367.314973
 21
79.733361
 31
0.0
  0
CIRCLE
  5
100
330
1F
100
AcDbEntity
  8
LC-001-100-D00-0
 62
     7
370
    50
100
AcDbCircle
 10
287.314973
 20
152.233361
 30
0.0
 40
3.000000000000114
  0
CIRCLE
  5
101
330
1F
100
AcDbEntity
  8
LC-001-100-D00-0
 62
     7
370
    50
100
AcDbCircle
 10
117.314973
 20
152.233361
 30
0.0
 40
3.000000000000114
  0
CIRCLE
  5
102
330
1F
100
AcDbEntity
  8
LC-001-100-D00-0
 62
     7
370
    50
100
AcDbCircle
 10
-82.685027
 20
152.233361
 30
0.0
 40
3.000000000000114
  0
CIRCLE
  5
103
330
1F
100
AcDbEntity
  8
LC-001-100-D00-0
 62
     7
370
    50
100
AcDbCircle
 10
-252.685027
 20
152.233361
 30
0.0
 40
3.000000000000114
  0
INSERT
  5
109
330
1F
100
AcDbEntity
  8
LC-001-100-D00-0
 62
     7
370
    50
100
AcDbBlockReference
  2
KLON1
 10
0.0
 20
0.0
 30
0.0
  0
LINE
  5
10A
330
1F
100
AcDbEntity
  8
LC-001-100-D00-0
 62
     7
370
    50
100
AcDbLine
 10
309.288773
 20
139.910692
 30
0.0
 11
309.288773
 21
128.733362
 31
0.0
  0
ARC
  5
10B
330
1F
100
AcDbEntity
  8
LC-001-100-D00-0
 62
     7
370
    50
100
AcDbCircle
 10
1072.474911
 20
20.6192
 30
0.0
 40
772.4529380327047
100
AcDbArc
 50
171.103568
 51
171.116141
  0
INSERT
  5
113
330
1F
100
AcDbEntity
  8
LC-001-100-D00-0
 62
     7
370
    50
100
AcDbBlockReference
  2
KLON2
 10
0.0
 20
0.0
 30
0.0
  0
LINE
  5
114
330
1F
100
AcDbEntity
  8
LC-001-100-D00-0
 62
     7
370
    50
100
AcDbLine
 10
309.288773
 20
175.718722
 30
0.0
 11
309.288773
 21
164.55603
 31
0.0
  0
INSERT
  5
11A
330
1F
100
AcDbEntity
  8
LC-001-100-D00-0
 62
     7
370
    50
100
AcDbBlockReference
  2
KLON3
 10
0.0
 20
0.0
 30
0.0
  0
INSERT
  5
120
330
1F
100
AcDbEntity
  8
LC-001-100-D00-0
 62
     7
370
    50
100
AcDbBlockReference
  2
KLON4
 10
0.0
 20
0.0
 30
0.0
  0
LINE
  5
121
330
1F
100
AcDbEntity
  8
LC-001-100-D00-0
 62
     7
370
    50
100
AcDbLine
 10
-274.658826
 20
175.718722
 30
0.0
 11
-274.658826
 21
164.55603
 31
0.0
  0
INSERT
  5
129
330
1F
100
AcDbEntity
  8
LC-001-100-D00-0
 62
     7
370
    50
100
AcDbBlockReference
  2
KLON5
 10
0.0
 20
0.0
 30
0.0
  0
ARC
  5
12A
330
1F
100
AcDbEntity
  8
LC-001-100-D00-0
 62
     7
370
    50
100
AcDbCircle
 10
-1037.84493
 20
20.619205
 30
0.0
 40
772.4529036995837
100
AcDbArc
 50
8.883859
 51
8.896432
  0
LINE
  5
12B
330
1F
100
AcDbEntity
  8
LC-001-100-D00-0
 62
     7
370
    50
100
AcDbLine
 10
-274.658826
 20
139.910692
 30
0.0
 11
-274.658826
 21
128.733362
 31
0.0
  0
INSERT
  5
131
330
1F
100
AcDbEntity
  8
LC-001-100-D00-0
 62
     7
370
    50
100
AcDbBlockReference
  2
KLON6
 10
0.0
 20
0.0
 30
0.0
  0
ELLIPSE
  5
132
330
1F
100
AcDbEntity
  8
LC-001-100-D00-0
 62
     7
370
    50
100
AcDbEllipse
 10
309.242005
 20
128.733361
 30
0.0
 11
0.0
 21
-2.5
 31
0.0
210
0.0
220
0.0
230
1.0
 40
0.018242
 41
3.141592653591039
 42
4.712388980377232
  0
ELLIPSE
  5
133
330
1F
100
AcDbEntity
  8
LC-001-100-D00-0
 62
     7
370
    50
100
AcDbEllipse
 10
172.242005
 20
128.733361
 30
0.0
 11
0.0
 21
-2.500000007629394
 31
0.0
210
0.0
220
0.0
230
1.0
 40
0.018242
 41
3.141592653589793
 42
4.712388980380915
  0
ELLIPSE
  5
134
330
1F
100
AcDbEntity
  8
LC-001-100-D00-0
 62
     7
370
    50
100
AcDbEllipse
 10
377.78761
 20
128.733361
 30
0.0
 11
68.4999999999998
 21
0.0
 31
0.0
210
0.0
220
0.0
230
1.0
 40
0.036496
 41
3.141592653597603
 42
3.169858841660788
  0
ELLIPSE
  5
135
330
1F
100
AcDbEntity
  8
LC-001-100-D00-0
 62
     7
370
    50
100
AcDbEllipse
 10
-274.612058
 20
128.733361
 30
0.0
 11
0.0
 21
-2.5
 31
0.0
210
0.0
220
0.0
230
1.0
 40
0.018242
 41
1.570796326802434
 42
3.141592653592286
  0
ELLIPSE
  5
136
330
1F
100
AcDbEntity
  8
LC-001-100-D00-0
 62
     7
370
    50
100
AcDbEllipse
 10
-137.612058
 20
128.733361
 30
0.0
 11
0.0
 21
-2.5
 31
0.0
210
0.0
220
0.0
230
1.0
 40
0.018242
 41
1.570796326799024
 42
3.141592653589793
  0
ELLIPSE
  5
137
330
1F
100
AcDbEntity
  8
LC-001-100-D00-0
 62
     7
370
    50
100
AcDbEllipse
 10
-343.157663
 20
128.733361
 30
0.0
 11
68.49999999836668
 21
0.0
 31
0.0
210
0.0
220
0.0
230
1.0
 40
0.036496
 41
6.254919119109407
 42
6.283185307179632
  0
ELLIPSE
  5
138
330
1F
100
AcDbEntity
  8
LC-001-100-D00-0
 62
     7
370
    50
100
AcDbEllipse
 10
377.78761
 20
175.733361
 30
0.0
 11
68.4999999999998
 21
0.0
 31
0.0
210
0.0
220
0.0
230
1.0
 40
0.036496
 41
3.141592653589793
 42
3.147448628039498
  0
ELLIPSE
  5
139
330
1F
100
AcDbEntity
  8
LC-001-100-D00-0
 62
     7
370
    50
100
AcDbEllipse
 10
309.242005
 20
175.733361
 30
0.0
 11
0.0
 21
-2.49999892425514
 31
0.0
210
0.0
220
0.0
230
1.0
 40
0.018242
 41
4.712388980384531
 42
6.283185357510149
  0
ELLIPSE
  5
13A
330
1F
100
AcDbEntity
  8
LC-001-100-D00-0
 62
     7
370
    50
100
AcDbEllipse
 10
-343.157663
 20
175.733361
 30
0.0
 11
68.4999999999998
 21
0.0
 31
0.0
210
0.0
220
0.0
230
1.0
 40
0.036496
 41
6.2773293327307
 42
6.283185307179586
  0
ELLIPSE
  5
13B
330
1F
100
AcDbEntity
  8
LC-001-100-D00-0
 62
     7
370
    50
100
AcDbEllipse
 10
-274.612058
 20
175.733361
 30
0.0
 11
0.0
 21
-2.499999816894525
 31
0.0
210
0.0
220
0.0
230
0.9999999999999999
 40
0.018242
 41
6.283185256836577
 42
7.853981633974642
  0
ELLIPSE
  5
13C
330
1F
100
AcDbEntity
  8
LC-001-100-D00-0
 62
     7
370
    50
100
AcDbEllipse
 10
172.242005
 20
175.733361
 30
0.0
 11
0.0
 21
-2.4999996948242
 31
0.0
210
0.0
220
0.0
230
1.0
 40
0.018242
 41
4.712388980388498
 42
6.283185315667101
  0
ELLIPSE
  5
13D
330
1F
100
AcDbEntity
  8
LC-001-100-D00-0
 62
     7
370
    50
100
AcDbEllipse
 10
-137.612058
 20
175.733361
 30
0.0
 11
0.0
 21
-2.5
 31
0.0
210
0.0
220
0.0
230
1.0
 40
0.018242
 41
6.283185298686464
 42
7.853981633970879
  0
LINE
  5
13E
330
1F
100
AcDbEntity
  8
LC-001-100-D00-0
 62
     7
370
    50
100
AcDbLine
 10
172.287616
 20
128.733362
 30
0.0
 11
172.287616
 21
131.583877
 31
0.0
  0
INSERT
  5
144
330
1F
100
AcDbEntity
  8
LC-001-100-D00-0
 62
     7
370
    50
100
AcDbBlockReference
  2
KLON7
 10
0.0
 20
0.0
 30
0.0
  0
INSERT
  5
14A
330
1F
100
AcDbEntity
  8
LC-001-100-D00-0
 62
     7
370
    50
100
AcDbBlockReference
  2
KLON8
 10
0.0
 20
0.0
 30
0.0
  0
LINE
  5
14B
330
1F
100
AcDbEntity
  8
LC-001-100-D00-0
 62
     7
370
    50
100
AcDbLine
 10
-137.657669
 20
128.733362
 30
0.0
 11
-137.657669
 21
131.583877
 31
0.0
  0
INSERT
  5
152
330
1F
100
AcDbEntity
  8
LC-001-100-D00-0
 62
     7
370
    50
100
AcDbBlockReference
  2
KLON9
 10
0.0
 20
0.0
 30
0.0
  0
INSERT
  5
158
330
1F
100
AcDbEntity
  8
LC-001-100-D00-0
 62
     7
370
    50
100
AcDbBlockReference
  2
KLON10
 10
0.0
 20
0.0
 30
0.0
  0
INSERT
  5
15F
330
1F
100
AcDbEntity
  8
LC-001-100-D00-0
 62
     7
370
    50
100
AcDbBlockReference
  2
KLON11
 10
0.0
 20
0.0
 30
0.0
  0
INSERT
  5
166
330
1F
100
AcDbEntity
  8
LC-001-100-D00-0
 62
     7
370
    50
100
AcDbBlockReference
  2
KLON12
 10
0.0
 20
0.0
 30
0.0
  0
INSERT
  5
16D
330
1F
100
AcDbEntity
  8
LC-001-100-D00-0
 62
     7
370
    50
100
AcDbBlockReference
  2
KLON13
 10
0.0
 20
0.0
 30
0.0
  0
INSERT
  5
173
330
1F
100
AcDbEntity
  8
LC-001-100-D00-0
 62
     7
370
    50
100
AcDbBlockReference
  2
KLON14
 10
0.0
 20
0.0
 30
0.0
  0
LINE
  5
174
330
1F
100
AcDbEntity
  8
LC-001-100-D00-0
 62
     7
370
    50
100
AcDbLine
 10
172.287616
 20
172.882844
 30
0.0
 11
172.287616
 21
175.73336
 31
0.0
  0
LINE
  5
175
330
1F
100
AcDbEntity
  8
LC-001-100-D00-0
 62
     7
370
    50
100
AcDbLine
 10
-137.657669
 20
172.882844
 30
0.0
 11
-137.657669
 21
175.73336
 31
0.0
  0
LINE
  5
176
330
1F
100
AcDbEntity
  8
LC-001-100-D00-0
 62
     7
370
    50
100
AcDbLine
 10
172.301877
 20
132.377683
 30
0.0
 11
172.301877
 21
146.37241
 31
0.0
  0
ELLIPSE
  5
177
330
1F
100
AcDbEntity
  8
LC-001-100-D00-0
 62
     7
370
    15
100
AcDbEllipse
 10
146.202615
 20
180.706763
 30
0.0
 11
28.64933021532651
 21
1.713494942724469
 31
0.0
210
0.0
220
0.0
230
1.0
 40
0.016531
 41
6.280994665935753
 42
6.28219662751367
  0
ELLIPSE
  5
178
330
1F
100
AcDbEntity
  8
LC-001-100-D00-0
 62
     7
370
    15
100
AcDbEllipse
 10
146.202615
 20
192.075086
 30
0.0
 11
28.64933022454794
 21
-1.713494943275989
 31
0.0
210
0.0
220
0.0
230
1.0
 40
0.016531
 41
0.0009886796652945
 42
0.0021906412427465
  0
LINE
  5
179
330
1F
100
AcDbEntity
  8
LC-001-100-D00-0
 62
     7
370
    50
100
AcDbLine
 10
172.301877
 20
158.094312
 30
0.0
 11
172.301877
 21
172.089039
 31
0.0
  0
ELLIPSE
  5
17A
330
1F
100
AcDbEntity
  8
LC-001-100-D00-0
 62
     7
370
    15
100
AcDbEllipse
 10
141.50654
 20
180.706763
 30
0.0
 11
28.64933025323601
 21
-1.713494944991751
 31
0.0
210
0.0
220
0.0
230
1.0
 40
0.016531
 41
3.14258133325645
 42
3.143783294834093
  0
LINE
  5
17B
330
1F
100
AcDbEntity
  8
LC-001-100-D00-0
 62
     7
370
    50
100
AcDbLine
 10
-137.67193
 20
132.377683
 30
0.0
 11
-137.67193
 21
146.37241
 31
0.0
  0
ELLIPSE
  5
17C
330
1F
100
AcDbEntity
  8
LC-001-100-D00-0
 62
     7
370
    15
100
AcDbEllipse
 10
141.50654
 20
192.075086
 30
0.0
 11
28.64933025665131
 21
1.713494945196017
 31
0.0
210
0.0
220
0.0
230
1.0
 40
0.016531
 41
3.139402012340798
 42
3.140603973918373
  0
LINE
  5
17D
330
1F
100
AcDbEntity
  8
LC-001-100-D00-0
 62
     7
370
    50
100
AcDbLine
 10
-137.67193
 20
158.094312
 30
0.0
 11
-137.67193
 21
172.089039
 31
0.0
  0
LINE
  5
17E
330
1F
100
AcDbEntity
  8
LC-001-100-D00-0
 62
     7
370
    50
100
AcDbLine
 10
172.287616
 20
131.58425
 30
0.0
 11
172.301787
 21
132.37482
 31
0.0
  0
LINE
  5
17F
330
1F
100
AcDbEntity
  8
LC-001-100-D00-0
 62
     7
370
    50
100
AcDbLine
 10
172.287616
 20
172.882472
 30
0.0
 11
172.301787
 21
172.091902
 31
0.0
  0
LINE
  5
180
330
1F
100
AcDbEntity
  8
LC-001-100-D00-0
 62
     7
370
    50
100
AcDbLine
 10
-137.657669
 20
131.58425
 30
0.0
 11
-137.67184
 21
132.37482
 31
0.0
  0
LINE
  5
181
330
1F
100
AcDbEntity
  8
LC-001-100-D00-0
 62
     7
370
    50
100
AcDbLine
 10
-137.657669
 20
172.882472
 30
0.0
 11
-137.67184
 21
172.091902
 31
0.0
  0
ARC
  5
182
330
1F
100
AcDbEntity
  8
LC-001-100-D00-0
 62
     7
370
    50
100
AcDbCircle
 10
47.814966
 20
152.233381
 30
0.0
 40
24.80002105913093
100
AcDbArc
 50
270.0
 51
300.592807
  0
ARC
  5
183
330
1F
100
AcDbEntity
  8
LC-001-100-D00-0
 62
     7
370
    50
100
AcDbCircle
 10
-13.185019
 20
152.233381
 30
0.0
 40
24.80002105913067
100
AcDbArc
 50
239.407193
 51
270.0
  0
ARC
  5
184
330
1F
100
AcDbEntity
  8
LC-001-100-D00-0
 62
     7
370
    50
100
AcDbCircle
 10
47.814968
 20
152.233348
 30
0.0
 40
24.80001358063295
100
AcDbArc
 50
59.407188
 51
90.0
  0
ARC
  5
185
330
1F
100
AcDbEntity
  8
LC-001-100-D00-0
 62
     7
370
    50
100
AcDbCircle
 10
-13.185021
 20
152.233348
 30
0.0
 40
24.80001358063305
100
AcDbArc
 50
90.0
 51
120.592812
  0
LINE
  5
186
330
1F
100
AcDbEntity
  8
LC-001-100-D00-0
 62
     7
370
    50
100
AcDbLine
 10
-13.185027
 20
177.033362
 30
0.0
 11
47.814974
 21
177.033362
 31
0.0
  0
LINE
  5
187
330
1F
100
AcDbEntity
  8
LC-001-100-D00-0
 62
     7
370
    50
100
AcDbLine
 10
47.814974
 20
127.43336
 30
0.0
 11
-13.185027
 21
127.43336
 31
0.0
  0
LINE
  5
188
330
1F
100
AcDbEntity
  8
LC-001-100-D00-0
 62
     7
370
    50
100
AcDbLine
 10
-49.51786
 20
155.672264
 30
0.0
 11
-49.509716
 21
155.304372
 31
0.0
  0
LINE
  5
189
330
1F
100
AcDbEntity
  8
LC-001-100-D00-0
 62
     7
370
    50
100
AcDbLine
 10
-50.629136
 20
156.465232
 30
0.0
 11
-49.51786
 21
155.672264
 31
0.0
  0
LINE
  5
18A
330
1F
100
AcDbEntity
  8
LC-001-100-D00-0
 62
     7
370
    50
100
AcDbLine
 10
-49.51786
 20
157.258201
 30
0.0
 11
-50.629136
 21
156.465232
 31
0.0
  0
LINE
  5
18B
330
1F
100
AcDbEntity
  8
LC-001-100-D00-0
 62
     7
370
    50
100
AcDbLine
 10
-49.51786
 20
157.631899
 30
0.0
 11
-49.51786
 21
157.258201
 31
0.0
  0
LINE
  5
18C
330
1F
100
AcDbEntity
  8
LC-001-100-D00-0
 62
     7
370
    50
100
AcDbLine
 10
-50.891359
 20
156.652432
 30
0.0
 11
-49.51786
 21
157.631899
 31
0.0
  0
LINE
  5
18D
330
1F
100
AcDbEntity
  8
LC-001-100-D00-0
 62
     7
370
    50
100
AcDbLine
 10
-52.075554
 20
157.497284
 30
0.0
 11
-50.891359
 21
156.652432
 31
0.0
  0
LINE
  5
18E
330
1F
100
AcDbEntity
  8
LC-001-100-D00-0
 62
     7
370
    50
100
AcDbLine
 10
-52.075554
 20
157.123586
 30
0.0
 11
-52.075554
 21
157.497284
 31
0.0
  0
LINE
  5
18F
330
1F
100
AcDbEntity
  8
LC-001-100-D00-0
 62
     7
370
    50
100
AcDbLine
 10
-51.152875
 20
156.465232
 30
0.0
 11
-52.075554
 21
157.123586
 31
0.0
  0
LINE
  5
190
330
1F
100
AcDbEntity
  8
LC-001-100-D00-0
 62
     7
370
    50
100
AcDbLine
 10
-52.075554
 20
155.806879
 30
0.0
 11
-51.152875
 21
156.465232
 31
0.0
  0
LINE
  5
191
330
1F
100
AcDbEntity
  8
LC-001-100-D00-0
 62
     7
370
    50
100
AcDbLine
 10
-52.075554
 20
155.433181
 30
0.0
 11
-52.075554
 21
155.806879
 31
0.0
  0
LINE
  5
192
330
1F
100
AcDbEntity
  8
LC-001-100-D00-0
 62
     7
370
    50
100
AcDbLine
 10
-50.891359
 20
156.278734
 30
0.0
 11
-52.075554
 21
155.433181
 31
0.0
  0
LINE
  5
193
330
1F
100
AcDbEntity
  8
LC-001-100-D00-0
 62
     7
370
    50
100
AcDbLine
 10
-49.509716
 20
155.304372
 30
0.0
 11
-50.891359
 21
156.278734
 31
0.0
  0
LINE
  5
194
330
1F
100
AcDbEntity
  8
LC-001-100-D00-0
 62
     7
370
    50
100
AcDbLine
 10
-49.51786
 20
151.005597
 30
0.0
 11
-49.509716
 21
150.637705
 31
0.0
  0
LINE
  5
195
330
1F
100
AcDbEntity
  8
LC-001-100-D00-0
 62
     7
370
    50
100
AcDbLine
 10
-50.629136
 20
151.798566
 30
0.0
 11
-49.51786
 21
151.005597
 31
0.0
  0
LINE
  5
196
330
1F
100
AcDbEntity
  8
LC-001-100-D00-0
 62
     7
370
    50
100
AcDbLine
 10
-49.51786
 20
152.591535
 30
0.0
 11
-50.629136
 21
151.798566
 31
0.0
  0
LINE
  5
197
330
1F
100
AcDbEntity
  8
LC-001-100-D00-0
 62
     7
370
    50
100
AcDbLine
 10
-49.51786
 20
152.965233
 30
0.0
 11
-49.51786
 21
152.591535
 31
0.0
  0
LINE
  5
198
330
1F
100
AcDbEntity
  8
LC-001-100-D00-0
 62
     7
370
    50
100
AcDbLine
 10
-50.891359
 20
151.985765
 30
0.0
 11
-49.51786
 21
152.965233
 31
0.0
  0
LINE
  5
199
330
1F
100
AcDbEntity
  8
LC-001-100-D00-0
 62
     7
370
    50
100
AcDbLine
 10
-52.075554
 20
152.830617
 30
0.0
 11
-50.891359
 21
151.985765
 31
0.0
  0
LINE
  5
19A
330
1F
100
AcDbEntity
  8
LC-001-100-D00-0
 62
     7
370
    50
100
AcDbLine
 10
-52.075554
 20
152.456919
 30
0.0
 11
-52.075554
 21
152.830617
 31
0.0
  0
LINE
  5
19B
330
1F
100
AcDbEntity
  8
LC-001-100-D00-0
 62
     7
370
    50
100
AcDbLine
 10
-51.152875
 20
151.798566
 30
0.0
 11
-52.075554
 21
152.456919
 31
0.0
  0
LINE
  5
19C
330
1F
100
AcDbEntity
  8
LC-001-100-D00-0
 62
     7
370
    50
100
AcDbLine
 10
-52.075554
 20
151.140213
 30
0.0
 11
-51.152875
 21
151.798566
 31
0.0
  0
LINE
  5
19D
330
1F
100
AcDbEntity
  8
LC-001-100-D00-0
 62
     7
370
    50
100
AcDbLine
 10
-52.075554
 20
150.766515
 30
0.0
 11
-52.075554
 21
151.140213
 31
0.0
  0
LINE
  5
19E
330
1F
100
AcDbEntity
  8
LC-001-100-D00-0
 62
     7
370
    50
100
AcDbLine
 10
-50.891359
 20
151.612068
 30
0.0
 11
-52.075554
 21
150.766515
 31
0.0
  0
LINE
  5
19F
330
1F
100
AcDbEntity
  8
LC-001-100-D00-0
 62
     7
370
    50
100
AcDbLine
 10
-49.509716
 20
150.637705
 30
0.0
 11
-50.891359
 21
151.612068
 31
0.0
  0
LINE
  5
1A0
330
1F
100
AcDbEntity
  8
LC-001-100-D00-0
 62
     7
370
    50
100
AcDbLine
 10
-49.51786
 20
146.33893
 30
0.0
 11
-49.509716
 21
145.971039
 31
0.0
  0
LINE
  5
1A1
330
1F
100
AcDbEntity
  8
LC-001-100-D00-0
 62
     7
370
    50
100
AcDbLine
 10
-50.629136
 20
147.131899
 30
0.0
 11
-49.51786
 21
146.33893
 31
0.0
  0
LINE
  5
1A2
330
1F
100
AcDbEntity
  8
LC-001-100-D00-0
 62
     7
370
    50
100
AcDbLine
 10
-49.51786
 20
147.924868
 30
0.0
 11
-50.629136
 21
147.131899
 31
0.0
  0
LINE
  5
1A3
330
1F
100
AcDbEntity
  8
LC-001-100-D00-0
 62
     7
370
    50
100
AcDbLine
 10
-49.51786
 20
148.298566
 30
0.0
 11
-49.51786
 21
147.924868
 31
0.0
  0
LINE
  5
1A4
330
1F
100
AcDbEntity
  8
LC-001-100-D00-0
 62
     7
370
    50
100
AcDbLine
 10
-50.891359
 20
147.319099
 30
0.0
 11
-49.51786
 21
148.298566
 31
0.0
  0
LINE
  5
1A5
330
1F
100
AcDbEntity
  8
LC-001-100-D00-0
 62
     7
370
    50
100
AcDbLine
 10
-52.075554
 20
148.163951
 30
0.0
 11
-50.891359
 21
147.319099
 31
0.0
  0
LINE
  5
1A6
330
1F
100
AcDbEntity
  8
LC-001-100-D00-0
 62
     7
370
    50
100
AcDbLine
 10
-52.075554
 20
147.790253
 30
0.0
 11
-52.075554
 21
148.163951
 31
0.0
  0
LINE
  5
1A7
330
1F
100
AcDbEntity
  8
LC-001-100-D00-0
 62
     7
370
    50
100
AcDbLine
 10
-51.152875
 20
147.131899
 30
0.0
 11
-52.075554
 21
147.790253
 31
0.0
  0
LINE
  5
1A8
330
1F
100
AcDbEntity
  8
LC-001-100-D00-0
 62
     7
370
    50
100
AcDbLine
 10
-52.075554
 20
146.473546
 30
0.0
 11
-51.152875
 21
147.131899
 31
0.0
  0
LINE
  5
1A9
330
1F
100
AcDbEntity
  8
LC-001-100-D00-0
 62
     7
370
    50
100
AcDbLine
 10
-52.075554
 20
146.099848
 30
0.0
 11
-52.075554
 21
146.473546
 31
0.0
  0
LINE
  5
1AA
330
1F
100
AcDbEntity
  8
LC-001-100-D00-0
 62
     7
370
    50
100
AcDbLine
 10
-50.891359
 20
146.945401
 30
0.0
 11
-52.075554
 21
146.099848
 31
0.0
  0
LINE
  5
1AB
330
1F
100
AcDbEntity
  8
LC-001-100-D00-0
 62
     7
370
    50
100
AcDbLine
 10
-49.509716
 20
145.971039
 30
0.0
 11
-50.891359
 21
146.945401
 31
0.0
  0
LINE
  5
1AC
330
1F
100
AcDbEntity
  8
LC-001-100-D00-0
 62
     7
370
    50
100
AcDbLine
 10
-49.51786
 20
144.005597
 30
0.0
 11
-49.51786
 21
143.631899
 31
0.0
  0
LINE
  5
1AD
330
1F
100
AcDbEntity
  8
LC-001-100-D00-0
 62
     7
370
    50
100
AcDbLine
 10
-50.629136
 20
144.798566
 30
0.0
 11
-49.51786
 21
144.005597
 31
0.0
  0
LINE
  5
1AE
330
1F
100
AcDbEntity
  8
LC-001-100-D00-0
 62
     7
370
    50
100
AcDbLine
 10
-49.51786
 20
145.591535
 30
0.0
 11
-50.629136
 21
144.798566
 31
0.0
  0
LINE
  5
1AF
330
1F
100
AcDbEntity
  8
LC-001-100-D00-0
 62
     7
370
    50
100
AcDbLine
 10
-49.51786
 20
145.965233
 30
0.0
 11
-49.51786
 21
145.591535
 31
0.0
  0
LINE
  5
1B0
330
1F
100
AcDbEntity
  8
LC-001-100-D00-0
 62
     7
370
    50
100
AcDbLine
 10
-50.891359
 20
144.985765
 30
0.0
 11
-49.51786
 21
145.965233
 31
0.0
  0
LINE
  5
1B1
330
1F
100
AcDbEntity
  8
LC-001-100-D00-0
 62
     7
370
    50
100
AcDbLine
 10
-52.075554
 20
145.830617
 30
0.0
 11
-50.891359
 21
144.985765
 31
0.0
  0
LINE
  5
1B2
330
1F
100
AcDbEntity
  8
LC-001-100-D00-0
 62
     7
370
    50
100
AcDbLine
 10
-52.075554
 20
145.45692
 30
0.0
 11
-52.075554
 21
145.830617
 31
0.0
  0
LINE
  5
1B3
330
1F
100
AcDbEntity
  8
LC-001-100-D00-0
 62
     7
370
    50
100
AcDbLine
 10
-51.152875
 20
144.798566
 30
0.0
 11
-52.075554
 21
145.45692
 31
0.0
  0
LINE
  5
1B4
330
1F
100
AcDbEntity
  8
LC-001-100-D00-0
 62
     7
370
    50
100
AcDbLine
 10
-52.075554
 20
144.140212
 30
0.0
 11
-51.152875
 21
144.798566
 31
0.0
  0
LINE
  5
1B5
330
1F
100
AcDbEntity
  8
LC-001-100-D00-0
 62
     7
370
    50
100
AcDbLine
 10
-52.075554
 20
143.766515
 30
0.0
 11
-52.075554
 21
144.140212
 31
0.0
  0
LINE
  5
1B6
330
1F
100
AcDbEntity
  8
LC-001-100-D00-0
 62
     7
370
    50
100
AcDbLine
 10
-50.891359
 20
144.612067
 30
0.0
 11
-52.075554
 21
143.766515
 31
0.0
  0
LINE
  5
1B7
330
1F
100
AcDbEntity
  8
LC-001-100-D00-0
 62
     7
370
    50
100
AcDbLine
 10
-49.51786
 20
143.631899
 30
0.0
 11
-50.891359
 21
144.612067
 31
0.0
  0
LINE
  5
1B8
330
1F
100
AcDbEntity
  8
LC-001-100-D00-0
 62
     7
370
    50
100
AcDbLine
 10
-49.51786
 20
148.672264
 30
0.0
 11
-49.509716
 21
148.304372
 31
0.0
  0
LINE
  5
1B9
330
1F
100
AcDbEntity
  8
LC-001-100-D00-0
 62
     7
370
    50
100
AcDbLine
 10
-50.629136
 20
149.465233
 30
0.0
 11
-49.51786
 21
148.672264
 31
0.0
  0
LINE
  5
1BA
330
1F
100
AcDbEntity
  8
LC-001-100-D00-0
 62
     7
370
    50
100
AcDbLine
 10
-49.51786
 20
150.258201
 30
0.0
 11
-50.629136
 21
149.465233
 31
0.0
  0
LINE
  5
1BB
330
1F
100
AcDbEntity
  8
LC-001-100-D00-0
 62
     7
370
    50
100
AcDbLine
 10
-49.51786
 20
150.631899
 30
0.0
 11
-49.51786
 21
150.258201
 31
0.0
  0
LINE
  5
1BC
330
1F
100
AcDbEntity
  8
LC-001-100-D00-0
 62
     7
370
    50
100
AcDbLine
 10
-50.891359
 20
149.652432
 30
0.0
 11
-49.51786
 21
150.631899
 31
0.0
  0
LINE
  5
1BD
330
1F
100
AcDbEntity
  8
LC-001-100-D00-0
 62
     7
370
    50
100
AcDbLine
 10
-52.075554
 20
150.497284
 30
0.0
 11
-50.891359
 21
149.652432
 31
0.0
  0
LINE
  5
1BE
330
1F
100
AcDbEntity
  8
LC-001-100-D00-0
 62
     7
370
    50
100
AcDbLine
 10
-52.075554
 20
150.123586
 30
0.0
 11
-52.075554
 21
150.497284
 31
0.0
  0
LINE
  5
1BF
330
1F
100
AcDbEntity
  8
LC-001-100-D00-0
 62
     7
370
    50
100
AcDbLine
 10
-51.152875
 20
149.465233
 30
0.0
 11
-52.075554
 21
150.123586
 31
0.0
  0
LINE
  5
1C0
330
1F
100
AcDbEntity
  8
LC-001-100-D00-0
 62
     7
370
    50
100
AcDbLine
 10
-52.075554
 20
148.806879
 30
0.0
 11
-51.152875
 21
149.465233
 31
0.0
  0
LINE
  5
1C1
330
1F
100
AcDbEntity
  8
LC-001-100-D00-0
 62
     7
370
    50
100
AcDbLine
 10
-52.075554
 20
148.433181
 30
0.0
 11
-52.075554
 21
148.806879
 31
0.0
  0
LINE
  5
1C2
330
1F
100
AcDbEntity
  8
LC-001-100-D00-0
 62
     7
370
    50
100
AcDbLine
 10
-50.891359
 20
149.278734
 30
0.0
 11
-52.075554
 21
148.433181
 31
0.0
  0
LINE
  5
1C3
330
1F
100
AcDbEntity
  8
LC-001-100-D00-0
 62
     7
370
    50
100
AcDbLine
 10
-49.509716
 20
148.304372
 30
0.0
 11
-50.891359
 21
149.278734
 31
0.0
  0
LINE
  5
1C4
330
1F
100
AcDbEntity
  8
LC-001-100-D00-0
 62
     7
370
    50
100
AcDbLine
 10
-49.51786
 20
153.338931
 30
0.0
 11
-49.509716
 21
152.971039
 31
0.0
  0
LINE
  5
1C5
330
1F
100
AcDbEntity
  8
LC-001-100-D00-0
 62
     7
370
    50
100
AcDbLine
 10
-50.629136
 20
154.131899
 30
0.0
 11
-49.51786
 21
153.338931
 31
0.0
  0
LINE
  5
1C6
330
1F
100
AcDbEntity
  8
LC-001-100-D00-0
 62
     7
370
    50
100
AcDbLine
 10
-49.51786
 20
154.924868
 30
0.0
 11
-50.629136
 21
154.131899
 31
0.0
  0
LINE
  5
1C7
330
1F
100
AcDbEntity
  8
LC-001-100-D00-0
 62
     7
370
    50
100
AcDbLine
 10
-49.51786
 20
155.298566
 30
0.0
 11
-49.51786
 21
154.924868
 31
0.0
  0
LINE
  5
1C8
330
1F
100
AcDbEntity
  8
LC-001-100-D00-0
 62
     7
370
    50
100
AcDbLine
 10
-50.891359
 20
154.319099
 30
0.0
 11
-49.51786
 21
155.298566
 31
0.0
  0
LINE
  5
1C9
330
1F
100
AcDbEntity
  8
LC-001-100-D00-0
 62
     7
370
    50
100
AcDbLine
 10
-52.075554
 20
155.163951
 30
0.0
 11
-50.891359
 21
154.319099
 31
0.0
  0
LINE
  5
1CA
330
1F
100
AcDbEntity
  8
LC-001-100-D00-0
 62
     7
370
    50
100
AcDbLine
 10
-52.075554
 20
154.790253
 30
0.0
 11
-52.075554
 21
155.163951
 31
0.0
  0
LINE
  5
1CB
330
1F
100
AcDbEntity
  8
LC-001-100-D00-0
 62
     7
370
    50
100
AcDbLine
 10
-51.152875
 20
154.131899
 30
0.0
 11
-52.075554
 21
154.790253
 31
0.0
  0
LINE
  5
1CC
330
1F
100
AcDbEntity
  8
LC-001-100-D00-0
 62
     7
370
    50
100
AcDbLine
 10
-52.075554
 20
153.473546
 30
0.0
 11
-51.152875
 21
154.131899
 31
0.0
  0
LINE
  5
1CD
330
1F
100
AcDbEntity
  8
LC-001-100-D00-0
 62
     7
370
    50
100
AcDbLine
 10
-52.075554
 20
153.099848
 30
0.0
 11
-52.075554
 21
153.473546
 31
0.0
  0
LINE
  5
1CE
330
1F
100
AcDbEntity
  8
LC-001-100-D00-0
 62
     7
370
    50
100
AcDbLine
 10
-50.891359
 20
153.945401
 30
0.0
 11
-52.075554
 21
153.099848
 31
0.0
  0
LINE
  5
1CF
330
1F
100
AcDbEntity
  8
LC-001-100-D00-0
 62
     7
370
    50
100
AcDbLine
 10
-49.509716
 20
152.971039
 30
0.0
 11
-50.891359
 21
153.945401
 31
0.0
  0
ARC
  5
1D0
330
1F
100
AcDbEntity
  8
LC-001-100-D00-0
 62
     7
370
    50
100
AcDbCircle
 10
47.814973
 20
152.233361
 30
0.0
 40
24.79999999999433
100
AcDbArc
 50
300.592814
 51
59.407186
  0
ARC
  5
1D1
330
1F
100
AcDbEntity
  8
LC-001-100-D00-0
 62
     7
370
    50
100
AcDbCircle
 10
-13.185027
 20
152.233361
 30
0.0
 40
24.79999999999433
100
AcDbArc
 50
120.592814
 51
239.407186
  0
ARC
  5
1D2
330
1F
100
AcDbEntity
  8
LC-001-100-D00-0
 62
     7
370
    50
100
AcDbCircle
 10
-69.435027
 20
165.483361
 30
0.0
 40
5.0
100
AcDbArc
 50
0.0
 51
90.0
  0
LINE
  5
1D3
330
1F
100
AcDbEntity
  8
LC-001-100-D00-0
 62
     7
370
    50
100
AcDbLine
 10
-64.435027
 20
165.483361
 30
0.0
 11
-64.435027
 21
138.983361
 31
0.0
  0
ARC
  5
1D4
330
1F
100
AcDbEntity
  8
LC-001-100-D00-0
 62
     7
370
    50
100
AcDbCircle
 10
-69.435027
 20
138.983361
 30
0.0
 40
5.0
100
AcDbArc
 50
270.0
 51
0.0
  0
CIRCLE
  5
1D5
330
1F
100
AcDbEntity
  8
LC-001-100-D00-0
 62
     7
370
    50
100
AcDbCircle
 10
-82.685027
 20
152.233361
 30
0.0
 40
3.899999999999864
  0
LINE
  5
1D6
330
1F
100
AcDbEntity
  8
LC-001-100-D00-0
 62
     7
370
    50
100
AcDbLine
 10
-95.935027
 20
170.483361
 30
0.0
 11
-69.435027
 21
170.483361
 31
0.0
  0
LINE
  5
1D7
330
1F
100
AcDbEntity
  8
LC-001-100-D00-0
 62
     7
370
    50
100
AcDbLine
 10
-69.435027
 20
133.983361
 30
0.0
 11
-95.935027
 21
133.983361
 31
0.0
  0
ARC
  5
1D8
330
1F
100
AcDbEntity
  8
LC-001-100-D00-0
 62
     7
370
    50
100
AcDbCircle
 10
-95.935027
 20
165.483361
 30
0.0
 40
5.0
100
AcDbArc
 50
90.0
 51
180.0
  0
ARC
  5
1D9
330
1F
100
AcDbEntity
  8
LC-001-100-D00-0
 62
     7
370
    50
100
AcDbCircle
 10
-95.935027
 20
138.983361
 30
0.0
 40
5.0
100
AcDbArc
 50
180.0
 51
270.0
  0
LINE
  5
1DA
330
1F
100
AcDbEntity
  8
LC-001-100-D00-0
 62
     7
370
    50
100
AcDbLine
 10
-100.935027
 20
138.983361
 30
0.0
 11
-100.935027
 21
165.483361
 31
0.0
  0
ARC
  5
1DB
330
1F
100
AcDbEntity
  8
LC-001-100-D00-0
 62
     7
370
    50
100
AcDbCircle
 10
300.564973
 20
138.983361
 30
0.0
 40
5.0
100
AcDbArc
 50
270.0
 51
0.0
  0
LINE
  5
1DC
330
1F
100
AcDbEntity
  8
LC-001-100-D00-0
 62
     7
370
    50
100
AcDbLine
 10
305.564973
 20
165.483361
 30
0.0
 11
305.564973
 21
138.983361
 31
0.0
  0
ARC
  5
1DD
330
1F
100
AcDbEntity
  8
LC-001-100-D00-0
 62
     7
370
    50
100
AcDbCircle
 10
300.564973
 20
165.483361
 30
0.0
 40
5.0
100
AcDbArc
 50
0.0
 51
90.0
  0
CIRCLE
  5
1DE
330
1F
100
AcDbEntity
  8
LC-001-100-D00-0
 62
     7
370
    50
100
AcDbCircle
 10
287.314973
 20
152.233361
 30
0.0
 40
3.899999999999864
  0
LINE
  5
1DF
330
1F
100
AcDbEntity
  8
LC-001-100-D00-0
 62
     7
370
    50
100
AcDbLine
 10
274.064973
 20
170.483361
 30
0.0
 11
300.564973
 21
170.483361
 31
0.0
  0
LINE
  5
1E0
330
1F
100
AcDbEntity
  8
LC-001-100-D00-0
 62
     7
370
    50
100
AcDbLine
 10
300.564973
 20
133.983361
 30
0.0
 11
274.064973
 21
133.983361
 31
0.0
  0
ARC
  5
1E1
330
1F
100
AcDbEntity
  8
LC-001-100-D00-0
 62
     7
370
    50
100
AcDbCircle
 10
274.064973
 20
138.983361
 30
0.0
 40
5.0
100
AcDbArc
 50
180.0
 51
270.0
  0
ARC
  5
1E2
330
1F
100
AcDbEntity
  8
LC-001-100-D00-0
 62
     7
370
    50
100
AcDbCircle
 10
274.064973
 20
165.483361
 30
0.0
 40
5.0
100
AcDbArc
 50
90.0
 51
180.0
  0
LINE
  5
1E3
330
1F
100
AcDbEntity
  8
LC-001-100-D00-0
 62
     7
370
    50
100
AcDbLine
 10
269.064973
 20
138.983361
 30
0.0
 11
269.064973
 21
165.483361
 31
0.0
  0
LINE
  5
1E4
330
1F
100
AcDbEntity
  8
LC-001-100-D00-0
 62
     7
370
    50
100
AcDbLine
 10
135.564973
 20
165.483361
 30
0.0
 11
135.564973
 21
138.983361
 31
0.0
  0
ARC
  5
1E5
330
1F
100
AcDbEntity
  8
LC-001-100-D00-0
 62
     7
370
    50
100
AcDbCircle
 10
130.564973
 20
165.483361
 30
0.0
 40
5.0
100
AcDbArc
 50
0.0
 51
90.0
  0
ARC
  5
1E6
330
1F
100
AcDbEntity
  8
LC-001-100-D00-0
 62
     7
370
    50
100
AcDbCircle
 10
130.564973
 20
138.983361
 30
0.0
 40
5.0
100
AcDbArc
 50
270.0
 51
0.0
  0
CIRCLE
  5
1E7
330
1F
100
AcDbEntity
  8
LC-001-100-D00-0
 62
     7
370
    50
100
AcDbCircle
 10
117.314973
 20
152.233361
 30
0.0
 40
3.899999999999864
  0
LINE
  5
1E8
330
1F
100
AcDbEntity
  8
LC-001-100-D00-0
 62
     7
370
    50
100
AcDbLine
 10
130.564973
 20
133.983361
 30
0.0
 11
104.064973
 21
133.983361
 31
0.0
  0
LINE
  5
1E9
330
1F
100
AcDbEntity
  8
LC-001-100-D00-0
 62
     7
370
    50
100
AcDbLine
 10
104.064973
 20
170.483361
 30
0.0
 11
130.564973
 21
170.483361
 31
0.0
  0
ARC
  5
1EA
330
1F
100
AcDbEntity
  8
LC-001-100-D00-0
 62
     7
370
    50
100
AcDbCircle
 10
104.064973
 20
138.983361
 30
0.0
 40
5.0
100
AcDbArc
 50
180.0
 51
270.0
  0
ARC
  5
1EB
330
1F
100
AcDbEntity
  8
LC-001-100-D00-0
 62
     7
370
    50
100
AcDbCircle
 10
104.064973
 20
165.483361
 30
0.0
 40
5.0
100
AcDbArc
 50
90.0
 51
180.0
  0
LINE
  5
1EC
330
1F
100
AcDbEntity
  8
LC-001-100-D00-0
 62
     7
370
    50
100
AcDbLine
 10
99.064973
 20
138.983361
 30
0.0
 11
99.064973
 21
165.483361
 31
0.0
  0
ARC
  5
1ED
330
1F
100
AcDbEntity
  8
LC-001-100-D00-0
 62
     7
370
    50
100
AcDbCircle
 10
-239.435027
 20
165.483361
 30
0.0
 40
5.0
100
AcDbArc
 50
0.0
 51
90.0
  0
ARC
  5
1EE
330
1F
100
AcDbEntity
  8
LC-001-100-D00-0
 62
     7
370
    50
100
AcDbCircle
 10
-239.435027
 20
138.983361
 30
0.0
 40
5.0
100
AcDbArc
 50
270.0
 51
0.0
  0
LINE
  5
1EF
330
1F
100
AcDbEntity
  8
LC-001-100-D00-0
 62
     7
370
    50
100
AcDbLine
 10
-234.435027
 20
165.483361
 30
0.0
 11
-234.435027
 21
138.983361
 31
0.0
  0
CIRCLE
  5
1F0
330
1F
100
AcDbEntity
  8
LC-001-100-D00-0
 62
     7
370
    50
100
AcDbCircle
 10
-252.685027
 20
152.233361
 30
0.0
 40
3.899999999999864
  0
LINE
  5
1F1
330
1F
100
AcDbEntity
  8
LC-001-100-D00-0
 62
     7
370
    50
100
AcDbLine
 10
-239.435027
 20
133.983361
 30
0.0
 11
-265.935027
 21
133.983361
 31
0.0
  0
LINE
  5
1F2
330
1F
100
AcDbEntity
  8
LC-001-100-D00-0
 62
     7
370
    50
100
AcDbLine
 10
-265.935027
 20
170.483361
 30
0.0
 11
-239.435027
 21
170.483361
 31
0.0
  0
ARC
  5
1F3
330
1F
100
AcDbEntity
  8
LC-001-100-D00-0
 62
     7
370
    50
100
AcDbCircle
 10
-265.935027
 20
165.483361
 30
0.0
 40
5.0
100
AcDbArc
 50
90.0
 51
180.0
  0
ARC
  5
1F4
330
1F
100
AcDbEntity
  8
LC-001-100-D00-0
 62
     7
370
    50
100
AcDbCircle
 10
-265.935027
 20
138.983361
 30
0.0
 40
5.0
100
AcDbArc
 50
180.0
 51
270.0
  0
LINE
  5
1F5
330
1F
100
AcDbEntity
  8
LC-001-100-D00-0
 62
     7
370
    50
100
AcDbLine
 10
-270.935027
 20
138.983361
 30
0.0
 11
-270.935027
 21
165.483361
 31
0.0
  0
LINE
  5
1F6
330
1F
100
AcDbEntity
  8
LC-001-100-D00-0
 62
     7
370
    50
100
AcDbLine
 10
-13.185027
 20
128.233361
 30
0.0
 11
47.814973
 21
128.233361
 31
0.0
  0
ARC
  5
1F7
330
1F
100
AcDbEntity
  8
LC-001-100-D00-0
 62
     7
370
    50
100
AcDbCircle
 10
-13.185027
 20
152.233361
 30
0.0
 40
24.0
100
AcDbArc
 50
90.0
 51
270.0
  0
LINE
  5
1F8
330
1F
100
AcDbEntity
  8
LC-001-100-D00-0
 62
     7
370
    50
100
AcDbLine
 10
47.814973
 20
176.233361
 30
0.0
 11
-13.185027
 21
176.233361
 31
0.0
  0
ARC
  5
1F9
330
1F
100
AcDbEntity
  8
LC-001-100-D00-0
 62
     7
370
    50
100
AcDbCircle
 10
47.814973
 20
152.233361
 30
0.0
 40
24.0
100
AcDbArc
 50
270.0
 51
90.0
  0
ARC
  5
1FA
330
1F
100
AcDbEntity
  8
LC-001-100-D00-0
 62
     7
370
    50
100
AcDbCircle
 10
28.814973
 20
152.233361
 30
0.0
 40
16.00000000000023
100
AcDbArc
 50
270.0
 51
90.0
  0
LINE
  5
1FB
330
1F
100
AcDbEntity
  8
LC-001-100-D00-0
 62
     7
370
    50
100
AcDbLine
 10
5.814973
 20
136.233361
 30
0.0
 11
28.814973
 21
136.233361
 31
0.0
  0
LINE
  5
1FC
330
1F
100
AcDbEntity
  8
LC-001-100-D00-0
 62
     7
370
    50
100
AcDbLine
 10
28.814973
 20
168.233361
 30
0.0
 11
5.814973
 21
168.233361
 31
0.0
  0
ARC
  5
1FD
330
1F
100
AcDbEntity
  8
LC-001-100-D00-0
 62
     7
370
    50
100
AcDbCircle
 10
5.814973
 20
152.233361
 30
0.0
 40
16.00000000000023
100
AcDbArc
 50
90.0
 51
270.0
  0
DIMENSION
  5
1FE
330
1F
100
AcDbEntity
  8
LC-001-100-D00-0
 62
     7
370
    25
100
AcDbDimension
  2
*D16
 10
445.579122
 20
196.733361
 30
0.0
 11
390.579122
 21
135.863361
 31
0.0
 70
   160
  1
1.5
 71
     5
 42
1.5
 53
90.0
  3
LC-DIM-L-0100-02-02
100
AcDbAlignedDimension
 13
362.314973
 23
198.233361
 33
0.0
 14
362.314973
 24
196.733361
 34
0.0
 50
90.0
100
AcDbRotatedDimension
  0
DIMENSION
  5
20C
330
1F
100
AcDbEntity
  8
LC-001-100-D00-0
 62
     7
370
    25
100
AcDbDimension
  2
*D17
 10
527.385297
 20
178.233361
 30
0.0
 11
472.385297
 21
115.073361
 31
0.0
 70
   160
  1
18,5
 71
     5
 42
18.5
 53
90.0
  3
LC-DIM-L-0100-02-02
100
AcDbAlignedDimension
 13
362.314973
 23
196.733361
 33
0.0
 14
314.814973
 24
178.233361
 34
0.0
 50
90.0
100
AcDbRotatedDimension
  0
DIMENSION
  5
21A
330
1F
100
AcDbEntity
  8
LC-001-100-D00-0
 62
     7
370
    25
100
AcDbDimension
  2
*D18
 10
593.714628
 20
74.733361
 30
0.0
 11
538.714628
 21
-28.971639
 31
0.0
 70
   160
  1
123.5
 71
     5
 42
123.5
 53
90.0
  3
LC-DIM-L-0100-02-02
100
AcDbAlignedDimension
 13
362.314973
 23
198.233361
 33
0.0
 14
362.314973
 24
74.733361
 34
0.0
 50
90.0
100
AcDbRotatedDimension
  0
LINE
  5
228
330
1F
100
AcDbEntity
  8
LC-001-100-D00-0
  6
DASHDOT
 62
     7
370
    25
100
AcDbLine
 10
324.814973
 20
152.233361
 30
0.0
 11
-290.185027
 21
152.233361
 31
0.0
  0
LINE
  5
229
330
1F
100
AcDbEntity
  8
LC-001-100-D00-0
  6
DASHDOT
 62
     7
370
    25
100
AcDbLine
 10
17.314973
 20
208.233361
 30
0.0
 11
17.314973
 21
69.733361
 31
0.0
  0
LINE
  5
22A
330
1F
100
AcDbEntity
  8
LC-001-100-D00-0
 62
     7
370
    50
100
AcDbLine
 10
130.562763
 20
393.966873
 30
0.0
 11
130.562763
 21
395.749794
 31
0.0
  0
LINE
  5
22B
330
1F
100
AcDbEntity
  8
LC-001-100-D00-0
 62
     7
370
    50
100
AcDbLine
 10
130.562763
 20
446.183952
 30
0.0
 11
130.562763
 21
447.966873
 31
0.0
  0
LINE
  5
22C
330
1F
100
AcDbEntity
  8
LC-001-100-D00-0
 62
     7
370
    50
100
AcDbLine
 10
126.562763
 20
447.966873
 30
0.0
 11
126.562763
 21
446.183952
 31
0.0
  0
LINE
  5
22D
330
1F
100
AcDbEntity
  8
LC-001-100-D00-0
 62
     7
370
    50
100
AcDbLine
 10
126.562763
 20
395.749794
 30
0.0
 11
126.562763
 21
393.966873
 31
0.0
  0
LINE
  5
22E
330
1F
100
AcDbEntity
  8
LC-001-100-D00-0
 62
     7
370
    50
100
AcDbLine
 10
57.029383
 20
444.466873
 30
0.0
 11
57.029383
 21
442.966873
 31
0.0
  0
LINE
  5
22F
330
1F
100
AcDbEntity
  8
LC-001-100-D00-0
 62
     7
370
    50
100
AcDbLine
 10
-22.399448
 20
442.966873
 30
0.0
 11
-22.399448
 21
444.466873
 31
0.0
  0
LINE
  5
230
330
1F
100
AcDbEntity
  8
LC-001-100-D00-0
 62
     7
370
    50
100
AcDbLine
 10
113.914971
 20
466.466873
 30
0.0
 11
112.914969
 21
467.466873
 31
0.0
  0
LINE
  5
231
330
1F
100
AcDbEntity
  8
LC-001-100-D00-0
 62
     7
370
    50
100
AcDbLine
 10
113.914971
 20
466.466873
 30
0.0
 11
113.914968
 21
460.466873
 31
0.0
  0
LINE
  5
232
330
1F
100
AcDbEntity
  8
LC-001-100-D00-0
 62
     7
370
    50
100
AcDbLine
 10
112.914968
 20
459.466873
 30
0.0
 11
113.914968
 21
460.466873
 31
0.0
  0
LINE
  5
233
330
1F
100
AcDbEntity
  8
LC-001-100-D00-0
 62
     7
370
    50
100
AcDbLine
 10
110.964116
 20
461.466872
 30
0.0
 11
110.964116
 21
459.466874
 31
0.0
  0
LINE
  5
234
330
1F
100
AcDbEntity
  8
LC-001-100-D00-0
 62
     7
370
    50
100
AcDbLine
 10
111.670259
 20
461.656084
 30
0.0
 11
110.964116
 21
461.466872
 31
0.0
  0
ARC
  5
235
330
1F
100
AcDbEntity
  8
LC-001-100-D00-0
 62
     7
370
    50
100
AcDbCircle
 10
111.514968
 20
462.235639
 30
0.0
 40
0.5999999999998394
100
AcDbArc
 50
285.0
 51
0.0
  0
LINE
  5
236
330
1F
100
AcDbEntity
  8
LC-001-100-D00-0
 62
     7
370
    50
100
AcDbLine
 10
112.114968
 20
464.698107
 30
0.0
 11
112.114968
 21
462.235639
 31
0.0
  0
ARC
  5
237
330
1F
100
AcDbEntity
  8
LC-001-100-D00-0
 62
     7
370
    50
100
AcDbCircle
 10
111.514968
 20
464.698107
 30
0.0
 40
0.6000000000001364
100
AcDbArc
 50
0.0
 51
75.0
  0
LINE
  5
238
330
1F
100
AcDbEntity
  8
LC-001-100-D00-0
 62
     7
370
    50
100
AcDbLine
 10
110.964116
 20
465.466873
 30
0.0
 11
111.670259
 21
465.277662
 31
0.0
  0
LINE
  5
239
330
1F
100
AcDbEntity
  8
LC-001-100-D00-0
 62
     7
370
    50
100
AcDbLine
 10
110.964116
 20
467.466873
 30
0.0
 11
110.964116
 21
465.466873
 31
0.0
  0
LINE
  5
23A
330
1F
100
AcDbEntity
  8
LC-001-100-D00-0
 62
     7
370
    50
100
AcDbLine
 10
110.964116
 20
459.466874
 30
0.0
 11
112.914968
 21
459.466873
 31
0.0
  0
LINE
  5
23B
330
1F
100
AcDbEntity
  8
LC-001-100-D00-0
 62
     7
370
    50
100
AcDbLine
 10
110.964116
 20
467.466873
 30
0.0
 11
112.914969
 21
467.466873
 31
0.0
  0
LINE
  5
23C
330
1F
100
AcDbEntity
  8
LC-001-100-D00-0
 62
     7
370
    50
100
AcDbLine
 10
122.514968
 20
462.235639
 30
0.0
 11
122.514968
 21
464.698107
 31
0.0
  0
ARC
  5
23D
330
1F
100
AcDbEntity
  8
LC-001-100-D00-0
 62
     7
370
    50
100
AcDbCircle
 10
123.114968
 20
462.235639
 30
0.0
 40
0.5999999999997954
100
AcDbArc
 50
180.0
 51
255.0
  0
LINE
  5
23E
330
1F
100
AcDbEntity
  8
LC-001-100-D00-0
 62
     7
370
    50
100
AcDbLine
 10
123.665822
 20
461.466872
 30
0.0
 11
122.959676
 21
461.656084
 31
0.0
  0
LINE
  5
23F
330
1F
100
AcDbEntity
  8
LC-001-100-D00-0
 62
     7
370
    50
100
AcDbLine
 10
123.665822
 20
461.466872
 30
0.0
 11
123.665822
 21
459.466874
 31
0.0
  0
LINE
  5
240
330
1F
100
AcDbEntity
  8
LC-001-100-D00-0
 62
     7
370
    50
100
AcDbLine
 10
120.714968
 20
460.466873
 30
0.0
 11
121.714968
 21
459.466873
 31
0.0
  0
LINE
  5
241
330
1F
100
AcDbEntity
  8
LC-001-100-D00-0
 62
     7
370
    50
100
AcDbLine
 10
120.714968
 20
460.466873
 30
0.0
 11
120.714967
 21
466.466873
 31
0.0
  0
LINE
  5
242
330
1F
100
AcDbEntity
  8
LC-001-100-D00-0
 62
     7
370
    50
100
AcDbLine
 10
121.714969
 20
467.466873
 30
0.0
 11
120.714967
 21
466.466873
 31
0.0
  0
LINE
  5
243
330
1F
100
AcDbEntity
  8
LC-001-100-D00-0
 62
     7
370
    50
100
AcDbLine
 10
123.665822
 20
467.466873
 30
0.0
 11
123.665822
 21
465.466873
 31
0.0
  0
LINE
  5
244
330
1F
100
AcDbEntity
  8
LC-001-100-D00-0
 62
     7
370
    50
100
AcDbLine
 10
122.959676
 20
465.277662
 30
0.0
 11
123.665822
 21
465.466873
 31
0.0
  0
ARC
  5
245
330
1F
100
AcDbEntity
  8
LC-001-100-D00-0
 62
     7
370
    50
100
AcDbCircle
 10
123.114968
 20
464.698107
 30
0.0
 40
0.600000000000118
100
AcDbArc
 50
105.0
 51
180.0
  0
LINE
  5
246
330
1F
100
AcDbEntity
  8
LC-001-100-D00-0
 62
     7
370
    50
100
AcDbLine
 10
121.714968
 20
459.466873
 30
0.0
 11
123.665822
 21
459.466874
 31
0.0
  0
LINE
  5
247
330
1F
100
AcDbEntity
  8
LC-001-100-D00-0
 62
     7
370
    50
100
AcDbLine
 10
121.714969
 20
467.466873
 30
0.0
 11
123.665822
 21
467.466873
 31
0.0
  0
LINE
  5
248
330
1F
100
AcDbEntity
  8
LC-001-100-D00-0
 62
     7
370
    50
100
AcDbLine
 10
113.914968
 20
460.466873
 30
0.0
 11
114.072807
 21
460.466873
 31
0.0
  0
LINE
  5
249
330
1F
100
AcDbEntity
  8
LC-001-100-D00-0
 62
     7
370
    50
100
AcDbLine
 10
120.557128
 20
460.466873
 30
0.0
 11
120.714968
 21
460.466873
 31
0.0
  0
LINE
  5
24A
330
1F
100
AcDbEntity
  8
LC-001-100-D00-0
 62
     7
370
    50
100
AcDbLine
 10
121.714968
 20
459.466873
 30
0.0
 11
121.179186
 21
459.466873
 31
0.0
  0
LINE
  5
24B
330
1F
100
AcDbEntity
  8
LC-001-100-D00-0
 62
     7
370
    50
100
AcDbLine
 10
113.450749
 20
459.466873
 30
0.0
 11
112.914968
 21
459.466873
 31
0.0
  0
LINE
  5
24C
330
1F
100
AcDbEntity
  8
LC-001-100-D00-0
 62
     7
370
    50
100
AcDbLine
 10
123.665822
 20
467.466873
 30
0.0
 11
121.214968
 21
467.466873
 31
0.0
  0
LINE
  5
24D
330
1F
100
AcDbEntity
  8
LC-001-100-D00-0
 62
     7
370
    50
100
AcDbLine
 10
121.214968
 20
467.466873
 30
0.0
 11
121.214968
 21
478.466873
 31
0.0
  0
LINE
  5
24E
330
1F
100
AcDbEntity
  8
LC-001-100-D00-0
 62
     7
370
    50
100
AcDbLine
 10
121.214968
 20
478.466873
 30
0.0
 11
134.564968
 21
478.466873
 31
0.0
  0
ARC
  5
24F
330
1F
100
AcDbEntity
  8
LC-001-100-D00-0
 62
     7
370
    50
100
AcDbCircle
 10
134.564968
 20
477.466873
 30
0.0
 40
1.0
100
AcDbArc
 50
0.0
 51
90.0
  0
LINE
  5
250
330
1F
100
AcDbEntity
  8
LC-001-100-D00-0
 62
     7
370
    50
100
AcDbLine
 10
135.564968
 20
477.466873
 30
0.0
 11
135.564965
 21
471.466873
 31
0.0
  0
LINE
  5
251
330
1F
100
AcDbEntity
  8
LC-001-100-D00-0
 62
     7
370
    50
100
AcDbLine
 10
132.564968
 20
471.466873
 30
0.0
 11
135.564965
 21
471.466873
 31
0.0
  0
LINE
  5
252
330
1F
100
AcDbEntity
  8
LC-001-100-D00-0
 62
     7
370
    50
100
AcDbLine
 10
132.564968
 20
471.466873
 30
0.0
 11
132.564966
 21
475.466873
 31
0.0
  0
LINE
  5
253
330
1F
100
AcDbEntity
  8
LC-001-100-D00-0
 62
     7
370
    50
100
AcDbLine
 10
128.064968
 20
475.466873
 30
0.0
 11
132.564966
 21
475.466873
 31
0.0
  0
ARC
  5
254
330
1F
100
AcDbEntity
  8
LC-001-100-D00-0
 62
     7
370
    50
100
AcDbCircle
 10
128.064968
 20
474.466873
 30
0.0
 40
1.0
100
AcDbArc
 50
90.0
 51
180.0
  0
LINE
  5
255
330
1F
100
AcDbEntity
  8
LC-001-100-D00-0
 62
     7
370
    50
100
AcDbLine
 10
127.064968
 20
460.466873
 30
0.0
 11
127.064968
 21
474.466873
 31
0.0
  0
ARC
  5
256
330
1F
100
AcDbEntity
  8
LC-001-100-D00-0
 62
     7
370
    50
100
AcDbCircle
 10
126.064968
 20
460.466873
 30
0.0
 40
1.0
100
AcDbArc
 50
270.0
 51
0.0
  0
LINE
  5
257
330
1F
100
AcDbEntity
  8
LC-001-100-D00-0
 62
     7
370
    50
100
AcDbLine
 10
126.064968
 20
459.466873
 30
0.0
 11
123.665822
 21
459.466874
 31
0.0
  0
LINE
  5
258
330
1F
100
AcDbEntity
  8
LC-001-100-D00-0
 62
     7
370
    50
100
AcDbLine
 10
123.665822
 20
461.466872
 30
0.0
 11
123.665822
 21
459.466874
 31
0.0
  0
LINE
  5
259
330
1F
100
AcDbEntity
  8
LC-001-100-D00-0
 62
     7
370
    50
100
AcDbLine
 10
123.014968
 20
461.466873
 30
0.0
 11
123.665822
 21
461.466872
 31
0.0
  0
ARC
  5
25A
330
1F
100
AcDbEntity
  8
LC-001-100-D00-0
 62
     7
370
    50
100
AcDbCircle
 10
123.014968
 20
461.966873
 30
0.0
 40
0.5
100
AcDbArc
 50
180.0
 51
270.0
  0
LINE
  5
25B
330
1F
100
AcDbEntity
  8
LC-001-100-D00-0
 62
     7
370
    50
100
AcDbLine
 10
122.514968
 20
464.966873
 30
0.0
 11
122.514968
 21
461.966873
 31
0.0
  0
ARC
  5
25C
330
1F
100
AcDbEntity
  8
LC-001-100-D00-0
 62
     7
370
    50
100
AcDbCircle
 10
123.014968
 20
464.966873
 30
0.0
 40
0.5
100
AcDbArc
 50
90.0
 51
180.0
  0
LINE
  5
25D
330
1F
100
AcDbEntity
  8
LC-001-100-D00-0
 62
     7
370
    50
100
AcDbLine
 10
123.665822
 20
465.466873
 30
0.0
 11
123.014968
 21
465.466873
 31
0.0
  0
LINE
  5
25E
330
1F
100
AcDbEntity
  8
LC-001-100-D00-0
 62
     7
370
    50
100
AcDbLine
 10
123.665822
 20
467.466873
 30
0.0
 11
123.665822
 21
465.466873
 31
0.0
  0
ARC
  5
25F
330
1F
100
AcDbEntity
  8
LC-001-100-D00-0
 62
     7
370
    50
100
AcDbCircle
 10
106.564968
 20
474.466873
 30
0.0
 40
0.9999999999998863
100
AcDbArc
 50
0.0
 51
90.0
  0
ARC
  5
260
330
1F
100
AcDbEntity
  8
LC-001-100-D00-0
 62
     7
370
    50
100
AcDbCircle
 10
108.564968
 20
460.466873
 30
0.0
 40
1.000000000000114
100
AcDbArc
 50
180.0
 51
270.0
  0
LINE
  5
261
330
1F
100
AcDbEntity
  8
LC-001-100-D00-0
 62
     7
370
    50
100
AcDbLine
 10
107.564968
 20
474.466873
 30
0.0
 11
107.564968
 21
460.466873
 31
0.0
  0
LINE
  5
262
330
1F
100
AcDbEntity
  8
LC-001-100-D00-0
 62
     7
370
    50
100
AcDbLine
 10
112.114968
 20
461.966873
 30
0.0
 11
112.114968
 21
464.966873
 31
0.0
  0
LINE
  5
263
330
1F
100
AcDbEntity
  8
LC-001-100-D00-0
 62
     7
370
    50
100
AcDbLine
 10
113.414968
 20
478.466873
 30
0.0
 11
113.41497
 21
467.466873
 31
0.0
  0
LINE
  5
264
330
1F
100
AcDbEntity
  8
LC-001-100-D00-0
 62
     7
370
    50
100
AcDbLine
 10
113.414968
 20
478.466873
 30
0.0
 11
121.214968
 21
478.466873
 31
0.0
  0
LINE
  5
265
330
1F
100
AcDbEntity
  8
LC-001-100-D00-0
 62
     7
370
    50
100
AcDbLine
 10
110.964116
 20
467.466873
 30
0.0
 11
110.964116
 21
465.466873
 31
0.0
  0
LINE
  5
266
330
1F
100
AcDbEntity
  8
LC-001-100-D00-0
 62
     7
370
    50
100
AcDbLine
 10
110.964116
 20
461.466872
 30
0.0
 11
110.964116
 21
459.466874
 31
0.0
  0
ARC
  5
267
330
1F
100
AcDbEntity
  8
LC-001-100-D00-0
 62
     7
370
    50
100
AcDbCircle
 10
111.614968
 20
461.966873
 30
0.0
 40
0.5
100
AcDbArc
 50
270.0
 51
0.0
  0
LINE
  5
268
330
1F
100
AcDbEntity
  8
LC-001-100-D00-0
 62
     7
370
    50
100
AcDbLine
 10
110.964116
 20
461.466872
 30
0.0
 11
111.614968
 21
461.466873
 31
0.0
  0
LINE
  5
269
330
1F
100
AcDbEntity
  8
LC-001-100-D00-0
 62
     7
370
    50
100
AcDbLine
 10
102.064964
 20
475.466873
 30
0.0
 11
102.064968
 21
471.466873
 31
0.0
  0
LINE
  5
26A
330
1F
100
AcDbEntity
  8
LC-001-100-D00-0
 62
     7
370
    50
100
AcDbLine
 10
99.064966
 20
471.466873
 30
0.0
 11
99.064968
 21
477.466873
 31
0.0
  0
ARC
  5
26B
330
1F
100
AcDbEntity
  8
LC-001-100-D00-0
 62
     7
370
    50
100
AcDbCircle
 10
100.064968
 20
477.466873
 30
0.0
 40
1.0
100
AcDbArc
 50
90.0
 51
180.0
  0
LINE
  5
26C
330
1F
100
AcDbEntity
  8
LC-001-100-D00-0
 62
     7
370
    50
100
AcDbLine
 10
111.614968
 20
465.466873
 30
0.0
 11
110.964116
 21
465.466873
 31
0.0
  0
ARC
  5
26D
330
1F
100
AcDbEntity
  8
LC-001-100-D00-0
 62
     7
370
    50
100
AcDbCircle
 10
111.614968
 20
464.966873
 30
0.0
 40
0.4999999999998863
100
AcDbArc
 50
0.0
 51
90.0
  0
LINE
  5
26E
330
1F
100
AcDbEntity
  8
LC-001-100-D00-0
 62
     7
370
    50
100
AcDbLine
 10
113.41497
 20
467.466873
 30
0.0
 11
110.964116
 21
467.466873
 31
0.0
  0
LINE
  5
26F
330
1F
100
AcDbEntity
  8
LC-001-100-D00-0
 62
     7
370
    50
100
AcDbLine
 10
110.964116
 20
459.466874
 30
0.0
 11
108.564968
 21
459.466873
 31
0.0
  0
LINE
  5
270
330
1F
100
AcDbEntity
  8
LC-001-100-D00-0
 62
     7
370
    50
100
AcDbLine
 10
102.064964
 20
475.466873
 30
0.0
 11
106.564968
 21
475.466873
 31
0.0
  0
LINE
  5
271
330
1F
100
AcDbEntity
  8
LC-001-100-D00-0
 62
     7
370
    50
100
AcDbLine
 10
99.064966
 20
471.466873
 30
0.0
 11
102.064968
 21
471.466873
 31
0.0
  0
LINE
  5
272
330
1F
100
AcDbEntity
  8
LC-001-100-D00-0
 62
     7
370
    50
100
AcDbLine
 10
100.064968
 20
478.466873
 30
0.0
 11
113.414968
 21
478.466873
 31
0.0
  0
LINE
  5
273
330
1F
100
AcDbEntity
  8
LC-001-100-D00-0
 62
     7
370
    50
100
AcDbLine
 10
130.564968
 20
471.466873
 30
0.0
 11
132.564968
 21
471.466873
 31
0.0
  0
LINE
  5
274
330
1F
100
AcDbEntity
  8
LC-001-100-D00-0
 62
     7
370
    50
100
AcDbLine
 10
102.064968
 20
471.466873
 30
0.0
 11
104.064968
 21
471.466873
 31
0.0
  0
LINE
  5
275
330
1F
100
AcDbEntity
  8
LC-001-100-D00-0
 62
     7
370
    50
100
AcDbLine
 10
104.064968
 20
471.466873
 30
0.0
 11
107.564968
 21
471.466873
 31
0.0
  0
LINE
  5
276
330
1F
100
AcDbEntity
  8
LC-001-100-D00-0
 62
     7
370
    50
100
AcDbLine
 10
127.06497
 20
471.466873
 30
0.0
 11
130.564968
 21
471.466873
 31
0.0
  0
LINE
  5
277
330
1F
100
AcDbEntity
  8
LC-001-100-D00-0
 62
     7
370
    50
100
AcDbLine
 10
-86.085032
 20
466.466873
 30
0.0
 11
-87.085034
 21
467.466873
 31
0.0
  0
LINE
  5
278
330
1F
100
AcDbEntity
  8
LC-001-100-D00-0
 62
     7
370
    50
100
AcDbLine
 10
-86.085032
 20
466.466873
 30
0.0
 11
-86.085032
 21
460.466873
 31
0.0
  0
LINE
  5
279
330
1F
100
AcDbEntity
  8
LC-001-100-D00-0
 62
     7
370
    50
100
AcDbLine
 10
-87.085032
 20
459.466873
 30
0.0
 11
-86.085032
 21
460.466873
 31
0.0
  0
LINE
  5
27A
330
1F
100
AcDbEntity
  8
LC-001-100-D00-0
 62
     7
370
    50
100
AcDbLine
 10
-89.035887
 20
461.466872
 30
0.0
 11
-89.035887
 21
459.466874
 31
0.0
  0
LINE
  5
27B
330
1F
100
AcDbEntity
  8
LC-001-100-D00-0
 62
     7
370
    50
100
AcDbLine
 10
-88.329741
 20
461.656084
 30
0.0
 11
-89.035887
 21
461.466872
 31
0.0
  0
ARC
  5
27C
330
1F
100
AcDbEntity
  8
LC-001-100-D00-0
 62
     7
370
    50
100
AcDbCircle
 10
-88.485032
 20
462.235639
 30
0.0
 40
0.5999999999998689
100
AcDbArc
 50
285.0
 51
0.0
  0
LINE
  5
27D
330
1F
100
AcDbEntity
  8
LC-001-100-D00-0
 62
     7
370
    50
100
AcDbLine
 10
-87.885032
 20
464.698107
 30
0.0
 11
-87.885032
 21
462.235639
 31
0.0
  0
ARC
  5
27E
330
1F
100
AcDbEntity
  8
LC-001-100-D00-0
 62
     7
370
    50
100
AcDbCircle
 10
-88.485032
 20
464.698107
 30
0.0
 40
0.6000000000001364
100
AcDbArc
 50
0.0
 51
75.0
  0
LINE
  5
27F
330
1F
100
AcDbEntity
  8
LC-001-100-D00-0
 62
     7
370
    50
100
AcDbLine
 10
-89.035887
 20
465.466873
 30
0.0
 11
-88.329741
 21
465.277662
 31
0.0
  0
LINE
  5
280
330
1F
100
AcDbEntity
  8
LC-001-100-D00-0
 62
     7
370
    50
100
AcDbLine
 10
-89.035887
 20
467.466873
 30
0.0
 11
-89.035887
 21
465.466873
 31
0.0
  0
LINE
  5
281
330
1F
100
AcDbEntity
  8
LC-001-100-D00-0
 62
     7
370
    50
100
AcDbLine
 10
-89.035887
 20
459.466874
 30
0.0
 11
-87.085032
 21
459.466873
 31
0.0
  0
LINE
  5
282
330
1F
100
AcDbEntity
  8
LC-001-100-D00-0
 62
     7
370
    50
100
AcDbLine
 10
-89.035887
 20
467.466873
 30
0.0
 11
-87.085034
 21
467.466873
 31
0.0
  0
LINE
  5
283
330
1F
100
AcDbEntity
  8
LC-001-100-D00-0
 62
     7
370
    50
100
AcDbLine
 10
-77.485032
 20
462.235639
 30
0.0
 11
-77.485032
 21
464.698107
 31
0.0
  0
ARC
  5
284
330
1F
100
AcDbEntity
  8
LC-001-100-D00-0
 62
     7
370
    50
100
AcDbCircle
 10
-76.885032
 20
462.235639
 30
0.0
 40
0.6000000000000227
100
AcDbArc
 50
180.0
 51
255.0
  0
LINE
  5
285
330
1F
100
AcDbEntity
  8
LC-001-100-D00-0
 62
     7
370
    50
100
AcDbLine
 10
-76.334181
 20
461.466872
 30
0.0
 11
-77.040324
 21
461.656084
 31
0.0
  0
LINE
  5
286
330
1F
100
AcDbEntity
  8
LC-001-100-D00-0
 62
     7
370
    50
100
AcDbLine
 10
-76.334181
 20
461.466872
 30
0.0
 11
-76.334181
 21
459.466874
 31
0.0
  0
LINE
  5
287
330
1F
100
AcDbEntity
  8
LC-001-100-D00-0
 62
     7
370
    50
100
AcDbLine
 10
-79.285032
 20
460.466873
 30
0.0
 11
-78.285032
 21
459.466873
 31
0.0
  0
LINE
  5
288
330
1F
100
AcDbEntity
  8
LC-001-100-D00-0
 62
     7
370
    50
100
AcDbLine
 10
-79.285032
 20
460.466873
 30
0.0
 11
-79.285036
 21
466.466873
 31
0.0
  0
LINE
  5
289
330
1F
100
AcDbEntity
  8
LC-001-100-D00-0
 62
     7
370
    50
100
AcDbLine
 10
-78.285034
 20
467.466873
 30
0.0
 11
-79.285036
 21
466.466873
 31
0.0
  0
LINE
  5
28A
330
1F
100
AcDbEntity
  8
LC-001-100-D00-0
 62
     7
370
    50
100
AcDbLine
 10
-76.334181
 20
467.466873
 30
0.0
 11
-76.334181
 21
465.466873
 31
0.0
  0
LINE
  5
28B
330
1F
100
AcDbEntity
  8
LC-001-100-D00-0
 62
     7
370
    50
100
AcDbLine
 10
-77.040324
 20
465.277662
 30
0.0
 11
-76.334181
 21
465.466873
 31
0.0
  0
ARC
  5
28C
330
1F
100
AcDbEntity
  8
LC-001-100-D00-0
 62
     7
370
    50
100
AcDbCircle
 10
-76.885032
 20
464.698107
 30
0.0
 40
0.600000000000118
100
AcDbArc
 50
105.0
 51
180.0
  0
LINE
  5
28D
330
1F
100
AcDbEntity
  8
LC-001-100-D00-0
 62
     7
370
    50
100
AcDbLine
 10
-78.285032
 20
459.466873
 30
0.0
 11
-76.334181
 21
459.466874
 31
0.0
  0
LINE
  5
28E
330
1F
100
AcDbEntity
  8
LC-001-100-D00-0
 62
     7
370
    50
100
AcDbLine
 10
-78.285034
 20
467.466873
 30
0.0
 11
-76.334181
 21
467.466873
 31
0.0
  0
LINE
  5
28F
330
1F
100
AcDbEntity
  8
LC-001-100-D00-0
 62
     7
370
    50
100
AcDbLine
 10
-86.085032
 20
460.466873
 30
0.0
 11
-85.927193
 21
460.466873
 31
0.0
  0
LINE
  5
290
330
1F
100
AcDbEntity
  8
LC-001-100-D00-0
 62
     7
370
    50
100
AcDbLine
 10
-79.442872
 20
460.466873
 30
0.0
 11
-79.285032
 21
460.466873
 31
0.0
  0
LINE
  5
291
330
1F
100
AcDbEntity
  8
LC-001-100-D00-0
 62
     7
370
    50
100
AcDbLine
 10
-78.285032
 20
459.466873
 30
0.0
 11
-78.820814
 21
459.466873
 31
0.0
  0
LINE
  5
292
330
1F
100
AcDbEntity
  8
LC-001-100-D00-0
 62
     7
370
    50
100
AcDbLine
 10
-86.549251
 20
459.466873
 30
0.0
 11
-87.085032
 21
459.466873
 31
0.0
  0
LINE
  5
293
330
1F
100
AcDbEntity
  8
LC-001-100-D00-0
 62
     7
370
    50
100
AcDbLine
 10
-76.334181
 20
467.466873
 30
0.0
 11
-78.785035
 21
467.466873
 31
0.0
  0
LINE
  5
294
330
1F
100
AcDbEntity
  8
LC-001-100-D00-0
 62
     7
370
    50
100
AcDbLine
 10
-78.785035
 20
467.466873
 30
0.0
 11
-78.785032
 21
478.466873
 31
0.0
  0
LINE
  5
295
330
1F
100
AcDbEntity
  8
LC-001-100-D00-0
 62
     7
370
    50
100
AcDbLine
 10
-78.785032
 20
478.466873
 30
0.0
 11
-65.435032
 21
478.466873
 31
0.0
  0
ARC
  5
296
330
1F
100
AcDbEntity
  8
LC-001-100-D00-0
 62
     7
370
    50
100
AcDbCircle
 10
-65.435032
 20
477.466873
 30
0.0
 40
1.0
100
AcDbArc
 50
0.0
 51
90.0
  0
LINE
  5
297
330
1F
100
AcDbEntity
  8
LC-001-100-D00-0
 62
     7
370
    50
100
AcDbLine
 10
-64.435032
 20
477.466873
 30
0.0
 11
-64.435031
 21
471.466873
 31
0.0
  0
LINE
  5
298
330
1F
100
AcDbEntity
  8
LC-001-100-D00-0
 62
     7
370
    50
100
AcDbLine
 10
-67.435032
 20
471.466873
 30
0.0
 11
-64.435031
 21
471.466873
 31
0.0
  0
LINE
  5
299
330
1F
100
AcDbEntity
  8
LC-001-100-D00-0
 62
     7
370
    50
100
AcDbLine
 10
-67.435032
 20
471.466873
 30
0.0
 11
-67.435029
 21
475.466873
 31
0.0
  0
LINE
  5
29A
330
1F
100
AcDbEntity
  8
LC-001-100-D00-0
 62
     7
370
    50
100
AcDbLine
 10
-71.935032
 20
475.466873
 30
0.0
 11
-67.435029
 21
475.466873
 31
0.0
  0
ARC
  5
29B
330
1F
100
AcDbEntity
  8
LC-001-100-D00-0
 62
     7
370
    50
100
AcDbCircle
 10
-71.935032
 20
474.466873
 30
0.0
 40
1.0
100
AcDbArc
 50
90.0
 51
180.0
  0
LINE
  5
29C
330
1F
100
AcDbEntity
  8
LC-001-100-D00-0
 62
     7
370
    50
100
AcDbLine
 10
-72.935032
 20
460.466873
 30
0.0
 11
-72.935032
 21
474.466873
 31
0.0
  0
ARC
  5
29D
330
1F
100
AcDbEntity
  8
LC-001-100-D00-0
 62
     7
370
    50
100
AcDbCircle
 10
-73.935032
 20
460.466873
 30
0.0
 40
1.0
100
AcDbArc
 50
270.0
 51
0.0
  0
LINE
  5
29E
330
1F
100
AcDbEntity
  8
LC-001-100-D00-0
 62
     7
370
    50
100
AcDbLine
 10
-73.935032
 20
459.466873
 30
0.0
 11
-76.334181
 21
459.466874
 31
0.0
  0
LINE
  5
29F
330
1F
100
AcDbEntity
  8
LC-001-100-D00-0
 62
     7
370
    50
100
AcDbLine
 10
-76.334181
 20
461.466872
 30
0.0
 11
-76.334181
 21
459.466874
 31
0.0
  0
LINE
  5
2A0
330
1F
100
AcDbEntity
  8
LC-001-100-D00-0
 62
     7
370
    50
100
AcDbLine
 10
-76.985032
 20
461.466873
 30
0.0
 11
-76.334181
 21
461.466872
 31
0.0
  0
ARC
  5
2A1
330
1F
100
AcDbEntity
  8
LC-001-100-D00-0
 62
     7
370
    50
100
AcDbCircle
 10
-76.985032
 20
461.966873
 30
0.0
 40
0.5
100
AcDbArc
 50
180.0
 51
270.0
  0
LINE
  5
2A2
330
1F
100
AcDbEntity
  8
LC-001-100-D00-0
 62
     7
370
    50
100
AcDbLine
 10
-77.485032
 20
464.966873
 30
0.0
 11
-77.485032
 21
461.966873
 31
0.0
  0
ARC
  5
2A3
330
1F
100
AcDbEntity
  8
LC-001-100-D00-0
 62
     7
370
    50
100
AcDbCircle
 10
-76.985032
 20
464.966873
 30
0.0
 40
0.5
100
AcDbArc
 50
90.0
 51
180.0
  0
LINE
  5
2A4
330
1F
100
AcDbEntity
  8
LC-001-100-D00-0
 62
     7
370
    50
100
AcDbLine
 10
-76.334181
 20
465.466873
 30
0.0
 11
-76.985032
 21
465.466873
 31
0.0
  0
LINE
  5
2A5
330
1F
100
AcDbEntity
  8
LC-001-100-D00-0
 62
     7
370
    50
100
AcDbLine
 10
-76.334181
 20
467.466873
 30
0.0
 11
-76.334181
 21
465.466873
 31
0.0
  0
ARC
  5
2A6
330
1F
100
AcDbEntity
  8
LC-001-100-D00-0
 62
     7
370
    50
100
AcDbCircle
 10
-93.435032
 20
474.466873
 30
0.0
 40
1.0
100
AcDbArc
 50
0.0
 51
90.0
  0
LINE
  5
2A7
330
1F
100
AcDbEntity
  8
LC-001-100-D00-0
 62
     7
370
    50
100
AcDbLine
 10
-92.435032
 20
474.466873
 30
0.0
 11
-92.435032
 21
460.466873
 31
0.0
  0
ARC
  5
2A8
330
1F
100
AcDbEntity
  8
LC-001-100-D00-0
 62
     7
370
    50
100
AcDbCircle
 10
-91.435032
 20
460.466873
 30
0.0
 40
1.0
100
AcDbArc
 50
180.0
 51
270.0
  0
LINE
  5
2A9
330
1F
100
AcDbEntity
  8
LC-001-100-D00-0
 62
     7
370
    50
100
AcDbLine
 10
-87.885032
 20
461.966873
 30
0.0
 11
-87.885032
 21
464.966873
 31
0.0
  0
LINE
  5
2AA
330
1F
100
AcDbEntity
  8
LC-001-100-D00-0
 62
     7
370
    50
100
AcDbLine
 10
-86.585032
 20
478.466873
 30
0.0
 11
-86.585033
 21
467.466873
 31
0.0
  0
LINE
  5
2AB
330
1F
100
AcDbEntity
  8
LC-001-100-D00-0
 62
     7
370
    50
100
AcDbLine
 10
-86.585032
 20
478.466873
 30
0.0
 11
-78.785032
 21
478.466873
 31
0.0
  0
LINE
  5
2AC
330
1F
100
AcDbEntity
  8
LC-001-100-D00-0
 62
     7
370
    50
100
AcDbLine
 10
-89.035887
 20
461.466872
 30
0.0
 11
-89.035887
 21
459.466874
 31
0.0
  0
LINE
  5
2AD
330
1F
100
AcDbEntity
  8
LC-001-100-D00-0
 62
     7
370
    50
100
AcDbLine
 10
-89.035887
 20
467.466873
 30
0.0
 11
-89.035887
 21
465.466873
 31
0.0
  0
ARC
  5
2AE
330
1F
100
AcDbEntity
  8
LC-001-100-D00-0
 62
     7
370
    50
100
AcDbCircle
 10
-88.385032
 20
461.966873
 30
0.0
 40
0.5
100
AcDbArc
 50
270.0
 51
0.0
  0
LINE
  5
2AF
330
1F
100
AcDbEntity
  8
LC-001-100-D00-0
 62
     7
370
    50
100
AcDbLine
 10
-89.035887
 20
461.466872
 30
0.0
 11
-88.385032
 21
461.466873
 31
0.0
  0
LINE
  5
2B0
330
1F
100
AcDbEntity
  8
LC-001-100-D00-0
 62
     7
370
    50
100
AcDbLine
 10
-97.935031
 20
475.466873
 30
0.0
 11
-97.935032
 21
471.466873
 31
0.0
  0
LINE
  5
2B1
330
1F
100
AcDbEntity
  8
LC-001-100-D00-0
 62
     7
370
    50
100
AcDbLine
 10
-100.93503
 20
471.466873
 30
0.0
 11
-100.935032
 21
477.466873
 31
0.0
  0
ARC
  5
2B2
330
1F
100
AcDbEntity
  8
LC-001-100-D00-0
 62
     7
370
    50
100
AcDbCircle
 10
-99.935032
 20
477.466873
 30
0.0
 40
1.0
100
AcDbArc
 50
90.0
 51
180.0
  0
LINE
  5
2B3
330
1F
100
AcDbEntity
  8
LC-001-100-D00-0
 62
     7
370
    50
100
AcDbLine
 10
-88.385032
 20
465.466873
 30
0.0
 11
-89.035887
 21
465.466873
 31
0.0
  0
ARC
  5
2B4
330
1F
100
AcDbEntity
  8
LC-001-100-D00-0
 62
     7
370
    50
100
AcDbCircle
 10
-88.385032
 20
464.966873
 30
0.0
 40
0.4999999999998863
100
AcDbArc
 50
0.0
 51
90.0
  0
LINE
  5
2B5
330
1F
100
AcDbEntity
  8
LC-001-100-D00-0
 62
     7
370
    50
100
AcDbLine
 10
-86.585033
 20
467.466873
 30
0.0
 11
-89.035887
 21
467.466873
 31
0.0
  0
LINE
  5
2B6
330
1F
100
AcDbEntity
  8
LC-001-100-D00-0
 62
     7
370
    50
100
AcDbLine
 10
-89.035887
 20
459.466874
 30
0.0
 11
-91.435032
 21
459.466873
 31
0.0
  0
LINE
  5
2B7
330
1F
100
AcDbEntity
  8
LC-001-100-D00-0
 62
     7
370
    50
100
AcDbLine
 10
-97.935031
 20
475.466873
 30
0.0
 11
-93.435032
 21
475.466873
 31
0.0
  0
LINE
  5
2B8
330
1F
100
AcDbEntity
  8
LC-001-100-D00-0
 62
     7
370
    50
100
AcDbLine
 10
-100.93503
 20
471.466873
 30
0.0
 11
-97.935032
 21
471.466873
 31
0.0
  0
LINE
  5
2B9
330
1F
100
AcDbEntity
  8
LC-001-100-D00-0
 62
     7
370
    50
100
AcDbLine
 10
-99.935032
 20
478.466873
 30
0.0
 11
-86.585032
 21
478.466873
 31
0.0
  0
LINE
  5
2BA
330
1F
100
AcDbEntity
  8
LC-001-100-D00-0
 62
     7
370
    50
100
AcDbLine
 10
-69.435032
 20
471.466873
 30
0.0
 11
-67.435032
 21
471.466873
 31
0.0
  0
LINE
  5
2BB
330
1F
100
AcDbEntity
  8
LC-001-100-D00-0
 62
     7
370
    50
100
AcDbLine
 10
-97.935032
 20
471.466873
 30
0.0
 11
-95.935032
 21
471.466873
 31
0.0
  0
LINE
  5
2BC
330
1F
100
AcDbEntity
  8
LC-001-100-D00-0
 62
     7
370
    50
100
AcDbLine
 10
-95.935032
 20
471.466873
 30
0.0
 11
-92.435035
 21
471.466873
 31
0.0
  0
LINE
  5
2BD
330
1F
100
AcDbEntity
  8
LC-001-100-D00-0
 62
     7
370
    50
100
AcDbLine
 10
-72.935033
 20
471.466873
 30
0.0
 11
-69.435032
 21
471.466873
 31
0.0
  0
LINE
  5
2BE
330
1F
100
AcDbEntity
  8
LC-001-100-D00-0
 62
     7
370
    50
100
AcDbLine
 10
-256.085041
 20
466.466873
 30
0.0
 11
-257.085028
 21
467.466873
 31
0.0
  0
LINE
  5
2BF
330
1F
100
AcDbEntity
  8
LC-001-100-D00-0
 62
     7
370
    50
100
AcDbLine
 10
-256.085041
 20
466.466873
 30
0.0
 11
-256.085032
 21
460.466873
 31
0.0
  0
LINE
  5
2C0
330
1F
100
AcDbEntity
  8
LC-001-100-D00-0
 62
     7
370
    50
100
AcDbLine
 10
-257.085032
 20
459.466873
 30
0.0
 11
-256.085032
 21
460.466873
 31
0.0
  0
LINE
  5
2C1
330
1F
100
AcDbEntity
  8
LC-001-100-D00-0
 62
     7
370
    50
100
AcDbLine
 10
-259.035888
 20
461.466872
 30
0.0
 11
-259.035888
 21
459.466874
 31
0.0
  0
LINE
  5
2C2
330
1F
100
AcDbEntity
  8
LC-001-100-D00-0
 62
     7
370
    50
100
AcDbLine
 10
-258.329741
 20
461.656084
 30
0.0
 11
-259.035888
 21
461.466872
 31
0.0
  0
ARC
  5
2C3
330
1F
100
AcDbEntity
  8
LC-001-100-D00-0
 62
     7
370
    50
100
AcDbCircle
 10
-258.485032
 20
462.235639
 30
0.0
 40
0.5999999999998836
100
AcDbArc
 50
285.0
 51
0.0
  0
LINE
  5
2C4
330
1F
100
AcDbEntity
  8
LC-001-100-D00-0
 62
     7
370
    50
100
AcDbLine
 10
-257.885032
 20
464.698107
 30
0.0
 11
-257.885032
 21
462.235639
 31
0.0
  0
ARC
  5
2C5
330
1F
100
AcDbEntity
  8
LC-001-100-D00-0
 62
     7
370
    50
100
AcDbCircle
 10
-258.485032
 20
464.698107
 30
0.0
 40
0.6000000000001364
100
AcDbArc
 50
0.0
 51
75.0
  0
LINE
  5
2C6
330
1F
100
AcDbEntity
  8
LC-001-100-D00-0
 62
     7
370
    50
100
AcDbLine
 10
-259.035888
 20
465.466873
 30
0.0
 11
-258.329741
 21
465.277662
 31
0.0
  0
LINE
  5
2C7
330
1F
100
AcDbEntity
  8
LC-001-100-D00-0
 62
     7
370
    50
100
AcDbLine
 10
-259.035888
 20
467.466873
 30
0.0
 11
-259.035888
 21
465.466873
 31
0.0
  0
LINE
  5
2C8
330
1F
100
AcDbEntity
  8
LC-001-100-D00-0
 62
     7
370
    50
100
AcDbLine
 10
-259.035888
 20
459.466874
 30
0.0
 11
-257.085032
 21
459.466873
 31
0.0
  0
LINE
  5
2C9
330
1F
100
AcDbEntity
  8
LC-001-100-D00-0
 62
     7
370
    50
100
AcDbLine
 10
-259.035888
 20
467.466873
 30
0.0
 11
-257.085028
 21
467.466873
 31
0.0
  0
LINE
  5
2CA
330
1F
100
AcDbEntity
  8
LC-001-100-D00-0
 62
     7
370
    50
100
AcDbLine
 10
-247.485032
 20
462.235639
 30
0.0
 11
-247.485032
 21
464.698107
 31
0.0
  0
ARC
  5
2CB
330
1F
100
AcDbEntity
  8
LC-001-100-D00-0
 62
     7
370
    50
100
AcDbCircle
 10
-246.885032
 20
462.235639
 30
0.0
 40
0.6000000000000227
100
AcDbArc
 50
180.0
 51
255.0
  0
LINE
  5
2CC
330
1F
100
AcDbEntity
  8
LC-001-100-D00-0
 62
     7
370
    50
100
AcDbLine
 10
-246.334168
 20
461.466872
 30
0.0
 11
-247.040324
 21
461.656084
 31
0.0
  0
LINE
  5
2CD
330
1F
100
AcDbEntity
  8
LC-001-100-D00-0
 62
     7
370
    50
100
AcDbLine
 10
-246.334168
 20
461.466872
 30
0.0
 11
-246.334168
 21
459.466874
 31
0.0
  0
LINE
  5
2CE
330
1F
100
AcDbEntity
  8
LC-001-100-D00-0
 62
     7
370
    50
100
AcDbLine
 10
-249.285032
 20
460.466873
 30
0.0
 11
-248.285032
 21
459.466873
 31
0.0
  0
LINE
  5
2CF
330
1F
100
AcDbEntity
  8
LC-001-100-D00-0
 62
     7
370
    50
100
AcDbLine
 10
-249.285032
 20
460.466873
 30
0.0
 11
-249.285045
 21
466.466873
 31
0.0
  0
LINE
  5
2D0
330
1F
100
AcDbEntity
  8
LC-001-100-D00-0
 62
     7
370
    50
100
AcDbLine
 10
-248.285028
 20
467.466873
 30
0.0
 11
-249.285045
 21
466.466873
 31
0.0
  0
LINE
  5
2D1
330
1F
100
AcDbEntity
  8
LC-001-100-D00-0
 62
     7
370
    50
100
AcDbLine
 10
-246.334168
 20
467.466873
 30
0.0
 11
-246.334168
 21
465.466873
 31
0.0
  0
LINE
  5
2D2
330
1F
100
AcDbEntity
  8
LC-001-100-D00-0
 62
     7
370
    50
100
AcDbLine
 10
-247.040324
 20
465.277662
 30
0.0
 11
-246.334168
 21
465.466873
 31
0.0
  0
ARC
  5
2D3
330
1F
100
AcDbEntity
  8
LC-001-100-D00-0
 62
     7
370
    50
100
AcDbCircle
 10
-246.885032
 20
464.698107
 30
0.0
 40
0.6000000000001032
100
AcDbArc
 50
105.0
 51
180.0
  0
LINE
  5
2D4
330
1F
100
AcDbEntity
  8
LC-001-100-D00-0
 62
     7
370
    50
100
AcDbLine
 10
-248.285032
 20
459.466873
 30
0.0
 11
-246.334168
 21
459.466874
 31
0.0
  0
LINE
  5
2D5
330
1F
100
AcDbEntity
  8
LC-001-100-D00-0
 62
     7
370
    50
100
AcDbLine
 10
-248.285028
 20
467.466873
 30
0.0
 11
-246.334168
 21
467.466873
 31
0.0
  0
LINE
  5
2D6
330
1F
100
AcDbEntity
  8
LC-001-100-D00-0
 62
     7
370
    50
100
AcDbLine
 10
-256.085032
 20
460.466873
 30
0.0
 11
-255.927193
 21
460.466873
 31
0.0
  0
LINE
  5
2D7
330
1F
100
AcDbEntity
  8
LC-001-100-D00-0
 62
     7
370
    50
100
AcDbLine
 10
-249.442872
 20
460.466873
 30
0.0
 11
-249.285032
 21
460.466873
 31
0.0
  0
LINE
  5
2D8
330
1F
100
AcDbEntity
  8
LC-001-100-D00-0
 62
     7
370
    50
100
AcDbLine
 10
-248.285032
 20
459.466873
 30
0.0
 11
-248.820814
 21
459.466873
 31
0.0
  0
LINE
  5
2D9
330
1F
100
AcDbEntity
  8
LC-001-100-D00-0
 62
     7
370
    50
100
AcDbLine
 10
-256.549251
 20
459.466873
 30
0.0
 11
-257.085032
 21
459.466873
 31
0.0
  0
LINE
  5
2DA
330
1F
100
AcDbEntity
  8
LC-001-100-D00-0
 62
     7
370
    50
100
AcDbLine
 10
-246.334168
 20
467.466873
 30
0.0
 11
-248.785022
 21
467.466873
 31
0.0
  0
LINE
  5
2DB
330
1F
100
AcDbEntity
  8
LC-001-100-D00-0
 62
     7
370
    50
100
AcDbLine
 10
-248.785022
 20
467.466873
 30
0.0
 11
-248.785032
 21
478.466873
 31
0.0
  0
LINE
  5
2DC
330
1F
100
AcDbEntity
  8
LC-001-100-D00-0
 62
     7
370
    50
100
AcDbLine
 10
-248.785032
 20
478.466873
 30
0.0
 11
-235.435032
 21
478.466873
 31
0.0
  0
ARC
  5
2DD
330
1F
100
AcDbEntity
  8
LC-001-100-D00-0
 62
     7
370
    50
100
AcDbCircle
 10
-235.435032
 20
477.466873
 30
0.0
 40
0.9999999999999432
100
AcDbArc
 50
0.0
 51
90.0
  0
LINE
  5
2DE
330
1F
100
AcDbEntity
  8
LC-001-100-D00-0
 62
     7
370
    50
100
AcDbLine
 10
-234.435032
 20
477.466873
 30
0.0
 11
-234.435025
 21
471.466873
 31
0.0
  0
LINE
  5
2DF
330
1F
100
AcDbEntity
  8
LC-001-100-D00-0
 62
     7
370
    50
100
AcDbLine
 10
-237.435032
 20
471.466873
 30
0.0
 11
-234.435025
 21
471.466873
 31
0.0
  0
LINE
  5
2E0
330
1F
100
AcDbEntity
  8
LC-001-100-D00-0
 62
     7
370
    50
100
AcDbLine
 10
-237.435032
 20
471.466873
 30
0.0
 11
-237.435046
 21
475.466873
 31
0.0
  0
LINE
  5
2E1
330
1F
100
AcDbEntity
  8
LC-001-100-D00-0
 62
     7
370
    50
100
AcDbLine
 10
-241.935032
 20
475.466873
 30
0.0
 11
-237.435046
 21
475.466873
 31
0.0
  0
ARC
  5
2E2
330
1F
100
AcDbEntity
  8
LC-001-100-D00-0
 62
     7
370
    50
100
AcDbCircle
 10
-241.935032
 20
474.466873
 30
0.0
 40
1.0
100
AcDbArc
 50
90.0
 51
180.0
  0
LINE
  5
2E3
330
1F
100
AcDbEntity
  8
LC-001-100-D00-0
 62
     7
370
    50
100
AcDbLine
 10
-242.935032
 20
460.466873
 30
0.0
 11
-242.935032
 21
474.466873
 31
0.0
  0
ARC
  5
2E4
330
1F
100
AcDbEntity
  8
LC-001-100-D00-0
 62
     7
370
    50
100
AcDbCircle
 10
-243.935032
 20
460.466873
 30
0.0
 40
1.0
100
AcDbArc
 50
270.0
 51
0.0
  0
LINE
  5
2E5
330
1F
100
AcDbEntity
  8
LC-001-100-D00-0
 62
     7
370
    50
100
AcDbLine
 10
-243.935032
 20
459.466873
 30
0.0
 11
-246.334168
 21
459.466874
 31
0.0
  0
LINE
  5
2E6
330
1F
100
AcDbEntity
  8
LC-001-100-D00-0
 62
     7
370
    50
100
AcDbLine
 10
-246.334168
 20
461.466872
 30
0.0
 11
-246.334168
 21
459.466874
 31
0.0
  0
LINE
  5
2E7
330
1F
100
AcDbEntity
  8
LC-001-100-D00-0
 62
     7
370
    50
100
AcDbLine
 10
-246.985032
 20
461.466873
 30
0.0
 11
-246.334168
 21
461.466872
 31
0.0
  0
ARC
  5
2E8
330
1F
100
AcDbEntity
  8
LC-001-100-D00-0
 62
     7
370
    50
100
AcDbCircle
 10
-246.985032
 20
461.966873
 30
0.0
 40
0.5000000000000568
100
AcDbArc
 50
180.0
 51
270.0
  0
LINE
  5
2E9
330
1F
100
AcDbEntity
  8
LC-001-100-D00-0
 62
     7
370
    50
100
AcDbLine
 10
-247.485032
 20
464.966873
 30
0.0
 11
-247.485032
 21
461.966873
 31
0.0
  0
ARC
  5
2EA
330
1F
100
AcDbEntity
  8
LC-001-100-D00-0
 62
     7
370
    50
100
AcDbCircle
 10
-246.985032
 20
464.966873
 30
0.0
 40
0.5
100
AcDbArc
 50
90.0
 51
180.0
  0
LINE
  5
2EB
330
1F
100
AcDbEntity
  8
LC-001-100-D00-0
 62
     7
370
    50
100
AcDbLine
 10
-246.334168
 20
465.466873
 30
0.0
 11
-246.985032
 21
465.466873
 31
0.0
  0
LINE
  5
2EC
330
1F
100
AcDbEntity
  8
LC-001-100-D00-0
 62
     7
370
    50
100
AcDbLine
 10
-246.334168
 20
467.466873
 30
0.0
 11
-246.334168
 21
465.466873
 31
0.0
  0
ARC
  5
2ED
330
1F
100
AcDbEntity
  8
LC-001-100-D00-0
 62
     7
370
    50
100
AcDbCircle
 10
-263.435032
 20
474.466873
 30
0.0
 40
0.9999999999999432
100
AcDbArc
 50
0.0
 51
90.0
  0
LINE
  5
2EE
330
1F
100
AcDbEntity
  8
LC-001-100-D00-0
 62
     7
370
    50
100
AcDbLine
 10
-262.435032
 20
474.466873
 30
0.0
 11
-262.435032
 21
460.466873
 31
0.0
  0
ARC
  5
2EF
330
1F
100
AcDbEntity
  8
LC-001-100-D00-0
 62
     7
370
    50
100
AcDbCircle
 10
-261.435032
 20
460.466873
 30
0.0
 40
1.000000000000114
100
AcDbArc
 50
180.0
 51
270.0
  0
LINE
  5
2F0
330
1F
100
AcDbEntity
  8
LC-001-100-D00-0
 62
     7
370
    50
100
AcDbLine
 10
-257.885032
 20
461.966873
 30
0.0
 11
-257.885032
 21
464.966873
 31
0.0
  0
LINE
  5
2F1
330
1F
100
AcDbEntity
  8
LC-001-100-D00-0
 62
     7
370
    50
100
AcDbLine
 10
-256.585032
 20
478.466873
 30
0.0
 11
-256.585035
 21
467.466873
 31
0.0
  0
LINE
  5
2F2
330
1F
100
AcDbEntity
  8
LC-001-100-D00-0
 62
     7
370
    50
100
AcDbLine
 10
-256.585032
 20
478.466873
 30
0.0
 11
-248.785032
 21
478.466873
 31
0.0
  0
LINE
  5
2F3
330
1F
100
AcDbEntity
  8
LC-001-100-D00-0
 62
     7
370
    50
100
AcDbLine
 10
-259.035888
 20
467.466873
 30
0.0
 11
-259.035888
 21
465.466873
 31
0.0
  0
LINE
  5
2F4
330
1F
100
AcDbEntity
  8
LC-001-100-D00-0
 62
     7
370
    50
100
AcDbLine
 10
-259.035888
 20
461.466872
 30
0.0
 11
-259.035888
 21
459.466874
 31
0.0
  0
ARC
  5
2F5
330
1F
100
AcDbEntity
  8
LC-001-100-D00-0
 62
     7
370
    50
100
AcDbCircle
 10
-258.385032
 20
461.966873
 30
0.0
 40
0.5
100
AcDbArc
 50
270.0
 51
0.0
  0
LINE
  5
2F6
330
1F
100
AcDbEntity
  8
LC-001-100-D00-0
 62
     7
370
    50
100
AcDbLine
 10
-259.035888
 20
461.466872
 30
0.0
 11
-258.385032
 21
461.466873
 31
0.0
  0
LINE
  5
2F7
330
1F
100
AcDbEntity
  8
LC-001-100-D00-0
 62
     7
370
    50
100
AcDbLine
 10
-267.935041
 20
475.466873
 30
0.0
 11
-267.935032
 21
471.466873
 31
0.0
  0
LINE
  5
2F8
330
1F
100
AcDbEntity
  8
LC-001-100-D00-0
 62
     7
370
    50
100
AcDbLine
 10
-270.935032
 20
471.466873
 30
0.0
 11
-270.935032
 21
477.466873
 31
0.0
  0
ARC
  5
2F9
330
1F
100
AcDbEntity
  8
LC-001-100-D00-0
 62
     7
370
    50
100
AcDbCircle
 10
-269.935032
 20
477.466873
 30
0.0
 40
1.0
100
AcDbArc
 50
90.0
 51
180.0
  0
LINE
  5
2FA
330
1F
100
AcDbEntity
  8
LC-001-100-D00-0
 62
     7
370
    50
100
AcDbLine
 10
-258.385032
 20
465.466873
 30
0.0
 11
-259.035888
 21
465.466873
 31
0.0
  0
ARC
  5
2FB
330
1F
100
AcDbEntity
  8
LC-001-100-D00-0
 62
     7
370
    50
100
AcDbCircle
 10
-258.385032
 20
464.966873
 30
0.0
 40
0.5000000000001137
100
AcDbArc
 50
0.0
 51
90.0
  0
LINE
  5
2FC
330
1F
100
AcDbEntity
  8
LC-001-100-D00-0
 62
     7
370
    50
100
AcDbLine
 10
-270.935032
 20
471.466873
 30
0.0
 11
-267.935032
 21
471.466873
 31
0.0
  0
LINE
  5
2FD
330
1F
100
AcDbEntity
  8
LC-001-100-D00-0
 62
     7
370
    50
100
AcDbLine
 10
-256.585035
 20
467.466873
 30
0.0
 11
-259.035888
 21
467.466873
 31
0.0
  0
LINE
  5
2FE
330
1F
100
AcDbEntity
  8
LC-001-100-D00-0
 62
     7
370
    50
100
AcDbLine
 10
-259.035888
 20
459.466874
 30
0.0
 11
-261.435032
 21
459.466873
 31
0.0
  0
LINE
  5
2FF
330
1F
100
AcDbEntity
  8
LC-001-100-D00-0
 62
     7
370
    50
100
AcDbLine
 10
-267.935041
 20
475.466873
 30
0.0
 11
-263.435032
 21
475.466873
 31
0.0
  0
LINE
  5
300
330
1F
100
AcDbEntity
  8
LC-001-100-D00-0
 62
     7
370
    50
100
AcDbLine
 10
-269.935032
 20
478.466873
 30
0.0
 11
-256.585032
 21
478.466873
 31
0.0
  0
LINE
  5
301
330
1F
100
AcDbEntity
  8
LC-001-100-D00-0
 62
     7
370
    50
100
AcDbLine
 10
-239.435032
 20
471.466873
 30
0.0
 11
-237.435032
 21
471.466873
 31
0.0
  0
LINE
  5
302
330
1F
100
AcDbEntity
  8
LC-001-100-D00-0
 62
     7
370
    50
100
AcDbLine
 10
-267.935032
 20
471.466873
 30
0.0
 11
-265.935032
 21
471.466873
 31
0.0
  0
LINE
  5
303
330
1F
100
AcDbEntity
  8
LC-001-100-D00-0
 62
     7
370
    50
100
AcDbLine
 10
-265.935032
 20
471.466873
 30
0.0
 11
-262.435022
 21
471.466873
 31
0.0
  0
LINE
  5
304
330
1F
100
AcDbEntity
  8
LC-001-100-D00-0
 62
     7
370
    50
100
AcDbLine
 10
-242.935035
 20
471.466873
 30
0.0
 11
-239.435032
 21
471.466873
 31
0.0
  0
LINE
  5
305
330
1F
100
AcDbEntity
  8
LC-001-100-D00-0
 62
     7
370
    50
100
AcDbLine
 10
283.91498
 20
466.466873
 30
0.0
 11
282.914963
 21
467.466873
 31
0.0
  0
LINE
  5
306
330
1F
100
AcDbEntity
  8
LC-001-100-D00-0
 62
     7
370
    50
100
AcDbLine
 10
283.91498
 20
466.466873
 30
0.0
 11
283.914968
 21
460.466873
 31
0.0
  0
LINE
  5
307
330
1F
100
AcDbEntity
  8
LC-001-100-D00-0
 62
     7
370
    50
100
AcDbLine
 10
282.914968
 20
459.466873
 30
0.0
 11
283.914968
 21
460.466873
 31
0.0
  0
LINE
  5
308
330
1F
100
AcDbEntity
  8
LC-001-100-D00-0
 62
     7
370
    50
100
AcDbLine
 10
280.964103
 20
461.466872
 30
0.0
 11
280.964103
 21
459.466874
 31
0.0
  0
LINE
  5
309
330
1F
100
AcDbEntity
  8
LC-001-100-D00-0
 62
     7
370
    50
100
AcDbLine
 10
281.670259
 20
461.656084
 30
0.0
 11
280.964103
 21
461.466872
 31
0.0
  0
ARC
  5
30A
330
1F
100
AcDbEntity
  8
LC-001-100-D00-0
 62
     7
370
    50
100
AcDbCircle
 10
281.514968
 20
462.235639
 30
0.0
 40
0.5999999999998689
100
AcDbArc
 50
285.0
 51
0.0
  0
LINE
  5
30B
330
1F
100
AcDbEntity
  8
LC-001-100-D00-0
 62
     7
370
    50
100
AcDbLine
 10
282.114968
 20
464.698107
 30
0.0
 11
282.114968
 21
462.235639
 31
0.0
  0
ARC
  5
30C
330
1F
100
AcDbEntity
  8
LC-001-100-D00-0
 62
     7
370
    50
100
AcDbCircle
 10
281.514968
 20
464.698107
 30
0.0
 40
0.6000000000001364
100
AcDbArc
 50
0.0
 51
75.0
  0
LINE
  5
30D
330
1F
100
AcDbEntity
  8
LC-001-100-D00-0
 62
     7
370
    50
100
AcDbLine
 10
280.964103
 20
465.466873
 30
0.0
 11
281.670259
 21
465.277662
 31
0.0
  0
LINE
  5
30E
330
1F
100
AcDbEntity
  8
LC-001-100-D00-0
 62
     7
370
    50
100
AcDbLine
 10
280.964103
 20
467.466873
 30
0.0
 11
280.964103
 21
465.466873
 31
0.0
  0
LINE
  5
30F
330
1F
100
AcDbEntity
  8
LC-001-100-D00-0
 62
     7
370
    50
100
AcDbLine
 10
280.964103
 20
459.466874
 30
0.0
 11
282.914968
 21
459.466873
 31
0.0
  0
LINE
  5
310
330
1F
100
AcDbEntity
  8
LC-001-100-D00-0
 62
     7
370
    50
100
AcDbLine
 10
280.964103
 20
467.466873
 30
0.0
 11
282.914963
 21
467.466873
 31
0.0
  0
LINE
  5
311
330
1F
100
AcDbEntity
  8
LC-001-100-D00-0
 62
     7
370
    50
100
AcDbLine
 10
292.514968
 20
462.235639
 30
0.0
 11
292.514968
 21
464.698107
 31
0.0
  0
ARC
  5
312
330
1F
100
AcDbEntity
  8
LC-001-100-D00-0
 62
     7
370
    50
100
AcDbCircle
 10
293.114968
 20
462.235639
 30
0.0
 40
0.6000000000000227
100
AcDbArc
 50
180.0
 51
255.0
  0
LINE
  5
313
330
1F
100
AcDbEntity
  8
LC-001-100-D00-0
 62
     7
370
    50
100
AcDbLine
 10
293.665823
 20
461.466872
 30
0.0
 11
292.959676
 21
461.656084
 31
0.0
  0
LINE
  5
314
330
1F
100
AcDbEntity
  8
LC-001-100-D00-0
 62
     7
370
    50
100
AcDbLine
 10
293.665823
 20
461.466872
 30
0.0
 11
293.665823
 21
459.466874
 31
0.0
  0
LINE
  5
315
330
1F
100
AcDbEntity
  8
LC-001-100-D00-0
 62
     7
370
    50
100
AcDbLine
 10
290.714968
 20
460.466873
 30
0.0
 11
291.714968
 21
459.466873
 31
0.0
  0
LINE
  5
316
330
1F
100
AcDbEntity
  8
LC-001-100-D00-0
 62
     7
370
    50
100
AcDbLine
 10
290.714968
 20
460.466873
 30
0.0
 11
290.714976
 21
466.466873
 31
0.0
  0
LINE
  5
317
330
1F
100
AcDbEntity
  8
LC-001-100-D00-0
 62
     7
370
    50
100
AcDbLine
 10
291.714963
 20
467.466873
 30
0.0
 11
290.714976
 21
466.466873
 31
0.0
  0
LINE
  5
318
330
1F
100
AcDbEntity
  8
LC-001-100-D00-0
 62
     7
370
    50
100
AcDbLine
 10
293.665823
 20
467.466873
 30
0.0
 11
293.665823
 21
465.466873
 31
0.0
  0
LINE
  5
319
330
1F
100
AcDbEntity
  8
LC-001-100-D00-0
 62
     7
370
    50
100
AcDbLine
 10
292.959676
 20
465.277662
 30
0.0
 11
293.665823
 21
465.466873
 31
0.0
  0
ARC
  5
31A
330
1F
100
AcDbEntity
  8
LC-001-100-D00-0
 62
     7
370
    50
100
AcDbCircle
 10
293.114968
 20
464.698107
 30
0.0
 40
0.600000000000118
100
AcDbArc
 50
105.0
 51
180.0
  0
LINE
  5
31B
330
1F
100
AcDbEntity
  8
LC-001-100-D00-0
 62
     7
370
    50
100
AcDbLine
 10
291.714968
 20
459.466873
 30
0.0
 11
293.665823
 21
459.466874
 31
0.0
  0
LINE
  5
31C
330
1F
100
AcDbEntity
  8
LC-001-100-D00-0
 62
     7
370
    50
100
AcDbLine
 10
291.714963
 20
467.466873
 30
0.0
 11
293.665823
 21
467.466873
 31
0.0
  0
LINE
  5
31D
330
1F
100
AcDbEntity
  8
LC-001-100-D00-0
 62
     7
370
    50
100
AcDbLine
 10
283.914968
 20
460.466873
 30
0.0
 11
284.072807
 21
460.466873
 31
0.0
  0
LINE
  5
31E
330
1F
100
AcDbEntity
  8
LC-001-100-D00-0
 62
     7
370
    50
100
AcDbLine
 10
290.557128
 20
460.466873
 30
0.0
 11
290.714968
 21
460.466873
 31
0.0
  0
LINE
  5
31F
330
1F
100
AcDbEntity
  8
LC-001-100-D00-0
 62
     7
370
    50
100
AcDbLine
 10
291.714968
 20
459.466873
 30
0.0
 11
291.179186
 21
459.466873
 31
0.0
  0
LINE
  5
320
330
1F
100
AcDbEntity
  8
LC-001-100-D00-0
 62
     7
370
    50
100
AcDbLine
 10
283.450749
 20
459.466873
 30
0.0
 11
282.914968
 21
459.466873
 31
0.0
  0
LINE
  5
321
330
1F
100
AcDbEntity
  8
LC-001-100-D00-0
 62
     7
370
    50
100
AcDbLine
 10
293.665823
 20
467.466873
 30
0.0
 11
291.21497
 21
467.466873
 31
0.0
  0
LINE
  5
322
330
1F
100
AcDbEntity
  8
LC-001-100-D00-0
 62
     7
370
    50
100
AcDbLine
 10
291.21497
 20
467.466873
 30
0.0
 11
291.214968
 21
478.466873
 31
0.0
  0
LINE
  5
323
330
1F
100
AcDbEntity
  8
LC-001-100-D00-0
 62
     7
370
    50
100
AcDbLine
 10
291.214968
 20
478.466873
 30
0.0
 11
304.564968
 21
478.466873
 31
0.0
  0
ARC
  5
324
330
1F
100
AcDbEntity
  8
LC-001-100-D00-0
 62
     7
370
    50
100
AcDbCircle
 10
304.564968
 20
477.466873
 30
0.0
 40
1.0
100
AcDbArc
 50
0.0
 51
90.0
  0
LINE
  5
325
330
1F
100
AcDbEntity
  8
LC-001-100-D00-0
 62
     7
370
    50
100
AcDbLine
 10
305.564968
 20
477.466873
 30
0.0
 11
305.564967
 21
471.466873
 31
0.0
  0
LINE
  5
326
330
1F
100
AcDbEntity
  8
LC-001-100-D00-0
 62
     7
370
    50
100
AcDbLine
 10
302.564968
 20
471.466873
 30
0.0
 11
305.564967
 21
471.466873
 31
0.0
  0
LINE
  5
327
330
1F
100
AcDbEntity
  8
LC-001-100-D00-0
 62
     7
370
    50
100
AcDbLine
 10
302.564968
 20
471.466873
 30
0.0
 11
302.564976
 21
475.466873
 31
0.0
  0
LINE
  5
328
330
1F
100
AcDbEntity
  8
LC-001-100-D00-0
 62
     7
370
    50
100
AcDbLine
 10
298.064968
 20
475.466873
 30
0.0
 11
302.564976
 21
475.466873
 31
0.0
  0
ARC
  5
329
330
1F
100
AcDbEntity
  8
LC-001-100-D00-0
 62
     7
370
    50
100
AcDbCircle
 10
298.064968
 20
474.466873
 30
0.0
 40
1.0
100
AcDbArc
 50
90.0
 51
180.0
  0
LINE
  5
32A
330
1F
100
AcDbEntity
  8
LC-001-100-D00-0
 62
     7
370
    50
100
AcDbLine
 10
297.064968
 20
460.466873
 30
0.0
 11
297.064968
 21
474.466873
 31
0.0
  0
ARC
  5
32B
330
1F
100
AcDbEntity
  8
LC-001-100-D00-0
 62
     7
370
    50
100
AcDbCircle
 10
296.064968
 20
460.466873
 30
0.0
 40
1.0
100
AcDbArc
 50
270.0
 51
0.0
  0
LINE
  5
32C
330
1F
100
AcDbEntity
  8
LC-001-100-D00-0
 62
     7
370
    50
100
AcDbLine
 10
296.064968
 20
459.466873
 30
0.0
 11
293.665823
 21
459.466874
 31
0.0
  0
LINE
  5
32D
330
1F
100
AcDbEntity
  8
LC-001-100-D00-0
 62
     7
370
    50
100
AcDbLine
 10
293.665823
 20
461.466872
 30
0.0
 11
293.665823
 21
459.466874
 31
0.0
  0
LINE
  5
32E
330
1F
100
AcDbEntity
  8
LC-001-100-D00-0
 62
     7
370
    50
100
AcDbLine
 10
293.014968
 20
461.466873
 30
0.0
 11
293.665823
 21
461.466872
 31
0.0
  0
ARC
  5
32F
330
1F
100
AcDbEntity
  8
LC-001-100-D00-0
 62
     7
370
    50
100
AcDbCircle
 10
293.014968
 20
461.966873
 30
0.0
 40
0.5000000000001137
100
AcDbArc
 50
180.0
 51
270.0
  0
LINE
  5
330
330
1F
100
AcDbEntity
  8
LC-001-100-D00-0
 62
     7
370
    50
100
AcDbLine
 10
292.514968
 20
464.966873
 30
0.0
 11
292.514968
 21
461.966873
 31
0.0
  0
ARC
  5
331
330
1F
100
AcDbEntity
  8
LC-001-100-D00-0
 62
     7
370
    50
100
AcDbCircle
 10
293.014968
 20
464.966873
 30
0.0
 40
0.5000000000002274
100
AcDbArc
 50
90.0
 51
180.0
  0
LINE
  5
332
330
1F
100
AcDbEntity
  8
LC-001-100-D00-0
 62
     7
370
    50
100
AcDbLine
 10
293.665823
 20
465.466873
 30
0.0
 11
293.014968
 21
465.466873
 31
0.0
  0
LINE
  5
333
330
1F
100
AcDbEntity
  8
LC-001-100-D00-0
 62
     7
370
    50
100
AcDbLine
 10
293.665823
 20
467.466873
 30
0.0
 11
293.665823
 21
465.466873
 31
0.0
  0
ARC
  5
334
330
1F
100
AcDbEntity
  8
LC-001-100-D00-0
 62
     7
370
    50
100
AcDbCircle
 10
276.564968
 20
474.466873
 30
0.0
 40
0.9999999999998863
100
AcDbArc
 50
0.0
 51
90.0
  0
LINE
  5
335
330
1F
100
AcDbEntity
  8
LC-001-100-D00-0
 62
     7
370
    50
100
AcDbLine
 10
277.564968
 20
474.466873
 30
0.0
 11
277.564968
 21
460.466873
 31
0.0
  0
ARC
  5
336
330
1F
100
AcDbEntity
  8
LC-001-100-D00-0
 62
     7
370
    50
100
AcDbCircle
 10
278.564968
 20
460.466873
 30
0.0
 40
1.000000000000114
100
AcDbArc
 50
180.0
 51
270.0
  0
LINE
  5
337
330
1F
100
AcDbEntity
  8
LC-001-100-D00-0
 62
     7
370
    50
100
AcDbLine
 10
282.114968
 20
461.966873
 30
0.0
 11
282.114968
 21
464.966873
 31
0.0
  0
LINE
  5
338
330
1F
100
AcDbEntity
  8
LC-001-100-D00-0
 62
     7
370
    50
100
AcDbLine
 10
283.414968
 20
478.466873
 30
0.0
 11
283.414957
 21
467.466873
 31
0.0
  0
LINE
  5
339
330
1F
100
AcDbEntity
  8
LC-001-100-D00-0
 62
     7
370
    50
100
AcDbLine
 10
283.414968
 20
478.466873
 30
0.0
 11
291.214968
 21
478.466873
 31
0.0
  0
LINE
  5
33A
330
1F
100
AcDbEntity
  8
LC-001-100-D00-0
 62
     7
370
    50
100
AcDbLine
 10
280.964103
 20
467.466873
 30
0.0
 11
280.964103
 21
465.466873
 31
0.0
  0
LINE
  5
33B
330
1F
100
AcDbEntity
  8
LC-001-100-D00-0
 62
     7
370
    50
100
AcDbLine
 10
280.964103
 20
461.466872
 30
0.0
 11
280.964103
 21
459.466874
 31
0.0
  0
ARC
  5
33C
330
1F
100
AcDbEntity
  8
LC-001-100-D00-0
 62
     7
370
    50
100
AcDbCircle
 10
281.614968
 20
461.966873
 30
0.0
 40
0.5
100
AcDbArc
 50
270.0
 51
0.0
  0
LINE
  5
33D
330
1F
100
AcDbEntity
  8
LC-001-100-D00-0
 62
     7
370
    50
100
AcDbLine
 10
280.964103
 20
461.466872
 30
0.0
 11
281.614968
 21
461.466873
 31
0.0
  0
LINE
  5
33E
330
1F
100
AcDbEntity
  8
LC-001-100-D00-0
 62
     7
370
    50
100
AcDbLine
 10
272.064981
 20
475.466873
 30
0.0
 11
272.064968
 21
471.466873
 31
0.0
  0
LINE
  5
33F
330
1F
100
AcDbEntity
  8
LC-001-100-D00-0
 62
     7
370
    50
100
AcDbLine
 10
269.06496
 20
471.466873
 30
0.0
 11
269.064968
 21
477.466873
 31
0.0
  0
ARC
  5
340
330
1F
100
AcDbEntity
  8
LC-001-100-D00-0
 62
     7
370
    50
100
AcDbCircle
 10
270.064968
 20
477.466873
 30
0.0
 40
1.0
100
AcDbArc
 50
90.0
 51
180.0
  0
LINE
  5
341
330
1F
100
AcDbEntity
  8
LC-001-100-D00-0
 62
     7
370
    50
100
AcDbLine
 10
281.614968
 20
465.466873
 30
0.0
 11
280.964103
 21
465.466873
 31
0.0
  0
ARC
  5
342
330
1F
100
AcDbEntity
  8
LC-001-100-D00-0
 62
     7
370
    50
100
AcDbCircle
 10
281.614968
 20
464.966873
 30
0.0
 40
0.4999999999998863
100
AcDbArc
 50
0.0
 51
90.0
  0
LINE
  5
343
330
1F
100
AcDbEntity
  8
LC-001-100-D00-0
 62
     7
370
    50
100
AcDbLine
 10
269.06496
 20
471.466873
 30
0.0
 11
272.064968
 21
471.466873
 31
0.0
  0
LINE
  5
344
330
1F
100
AcDbEntity
  8
LC-001-100-D00-0
 62
     7
370
    50
100
AcDbLine
 10
283.414957
 20
467.466873
 30
0.0
 11
280.964103
 21
467.466873
 31
0.0
  0
LINE
  5
345
330
1F
100
AcDbEntity
  8
LC-001-100-D00-0
 62
     7
370
    50
100
AcDbLine
 10
280.964103
 20
459.466874
 30
0.0
 11
278.564968
 21
459.466873
 31
0.0
  0
LINE
  5
346
330
1F
100
AcDbEntity
  8
LC-001-100-D00-0
 62
     7
370
    50
100
AcDbLine
 10
272.064981
 20
475.466873
 30
0.0
 11
276.564968
 21
475.466873
 31
0.0
  0
LINE
  5
347
330
1F
100
AcDbEntity
  8
LC-001-100-D00-0
 62
     7
370
    50
100
AcDbLine
 10
270.064968
 20
478.466873
 30
0.0
 11
283.414968
 21
478.466873
 31
0.0
  0
LINE
  5
348
330
1F
100
AcDbEntity
  8
LC-001-100-D00-0
 62
     7
370
    50
100
AcDbLine
 10
300.564968
 20
471.466873
 30
0.0
 11
302.564968
 21
471.466873
 31
0.0
  0
LINE
  5
349
330
1F
100
AcDbEntity
  8
LC-001-100-D00-0
 62
     7
370
    50
100
AcDbLine
 10
272.064968
 20
471.466873
 30
0.0
 11
274.064968
 21
471.466873
 31
0.0
  0
LINE
  5
34A
330
1F
100
AcDbEntity
  8
LC-001-100-D00-0
 62
     7
370
    50
100
AcDbLine
 10
274.064968
 20
471.466873
 30
0.0
 11
277.56497
 21
471.466873
 31
0.0
  0
LINE
  5
34B
330
1F
100
AcDbEntity
  8
LC-001-100-D00-0
 62
     7
370
    50
100
AcDbLine
 10
297.064957
 20
471.466873
 30
0.0
 11
300.564968
 21
471.466873
 31
0.0
  0
LINE
  5
34C
330
1F
100
AcDbEntity
  8
LC-001-100-D00-0
 62
     7
370
    50
100
AcDbLine
 10
72.943104
 20
447.71757
 30
0.0
 11
75.949888
 21
448.385744
 31
0.0
  0
ARC
  5
34D
330
1F
100
AcDbEntity
  8
LC-001-100-D00-0
 62
     7
370
    50
100
AcDbCircle
 10
72.878024
 20
448.010426
 30
0.0
 40
0.3000000000000399
100
AcDbArc
 50
131.633539
 51
282.528808
  0
LINE
  5
34E
330
1F
100
AcDbEntity
  8
LC-001-100-D00-0
 62
     7
370
    50
100
AcDbLine
 10
76.030803
 20
451.214282
 30
0.0
 11
72.678715
 21
448.234649
 31
0.0
  0
ARC
  5
34F
330
1F
100
AcDbEntity
  8
LC-001-100-D00-0
 62
     7
370
    50
100
AcDbCircle
 10
76.695167
 20
450.466873
 30
0.0
 40
1.0
100
AcDbArc
 50
90.0
 51
131.633539
  0
LINE
  5
350
330
1F
100
AcDbEntity
  8
LC-001-100-D00-0
 62
     7
370
    50
100
AcDbLine
 10
82.314965
 20
451.466872
 30
0.0
 11
82.314965
 21
447.466874
 31
0.0
  0
LINE
  5
351
330
1F
100
AcDbEntity
  8
LC-001-100-D00-0
 62
     7
370
    50
100
AcDbLine
 10
76.314968
 20
448.092888
 30
0.0
 11
76.314968
 21
447.466873
 31
0.0
  0
ARC
  5
352
330
1F
100
AcDbEntity
  8
LC-001-100-D00-0
 62
     7
370
    50
100
AcDbCircle
 10
76.014968
 20
448.092888
 30
0.0
 40
0.3000000000001819
100
AcDbArc
 50
0.0
 51
102.528808
  0
LINE
  5
353
330
1F
100
AcDbEntity
  8
LC-001-100-D00-0
 62
     7
370
    50
100
AcDbLine
 10
82.314965
 20
451.466872
 30
0.0
 11
76.695167
 21
451.466873
 31
0.0
  0
LINE
  5
354
330
1F
100
AcDbEntity
  8
LC-001-100-D00-0
 62
     7
370
    50
100
AcDbLine
 10
82.314965
 20
447.466874
 30
0.0
 11
76.314968
 21
447.466873
 31
0.0
  0
LINE
  5
355
330
1F
100
AcDbEntity
  8
LC-001-100-D00-0
 62
     7
370
    50
100
AcDbLine
 10
76.314968
 20
447.466873
 30
0.0
 11
74.114968
 21
447.466873
 31
0.0
  0
LINE
  5
356
330
1F
100
AcDbEntity
  8
LC-001-100-D00-0
 62
     7
370
    50
100
AcDbLine
 10
-41.685032
 20
447.466873
 30
0.0
 11
-41.685032
 21
448.092888
 31
0.0
  0
LINE
  5
357
330
1F
100
AcDbEntity
  8
LC-001-100-D00-0
 62
     7
370
    50
100
AcDbLine
 10
-39.485032
 20
447.466873
 30
0.0
 11
-41.685032
 21
447.466873
 31
0.0
  0
ARC
  5
358
330
1F
100
AcDbEntity
  8
LC-001-100-D00-0
 62
     7
370
    50
100
AcDbCircle
 10
-41.385032
 20
448.092888
 30
0.0
 40
0.2999999999999368
100
AcDbArc
 50
77.471192
 51
180.0
  0
ARC
  5
359
330
1F
100
AcDbEntity
  8
LC-001-100-D00-0
 62
     7
370
    50
100
AcDbCircle
 10
-42.065232
 20
450.466873
 30
0.0
 40
1.00000000000007
100
AcDbArc
 50
48.366461
 51
90.0
  0
LINE
  5
35A
330
1F
100
AcDbEntity
  8
LC-001-100-D00-0
 62
     7
370
    50
100
AcDbLine
 10
-41.319953
 20
448.385744
 30
0.0
 11
-38.313169
 21
447.71757
 31
0.0
  0
LINE
  5
35B
330
1F
100
AcDbEntity
  8
LC-001-100-D00-0
 62
     7
370
    50
100
AcDbLine
 10
-38.04878
 20
448.234649
 30
0.0
 11
-41.400868
 21
451.214282
 31
0.0
  0
ARC
  5
35C
330
1F
100
AcDbEntity
  8
LC-001-100-D00-0
 62
     7
370
    50
100
AcDbCircle
 10
-38.248089
 20
448.010426
 30
0.0
 40
0.3000000000002821
100
AcDbArc
 50
257.471192
 51
48.366461
  0
LINE
  5
35D
330
1F
100
AcDbEntity
  8
LC-001-100-D00-0
 62
     7
370
    50
100
AcDbLine
 10
-47.68503
 20
447.466874
 30
0.0
 11
-47.68503
 21
451.466872
 31
0.0
  0
LINE
  5
35E
330
1F
100
AcDbEntity
  8
LC-001-100-D00-0
 62
     7
370
    50
100
AcDbLine
 10
-42.065232
 20
451.466873
 30
0.0
 11
-47.68503
 21
451.466872
 31
0.0
  0
LINE
  5
35F
330
1F
100
AcDbEntity
  8
LC-001-100-D00-0
 62
     7
370
    50
100
AcDbLine
 10
-41.685032
 20
447.466873
 30
0.0
 11
-47.68503
 21
447.466874
 31
0.0
  0
LINE
  5
360
330
1F
100
AcDbEntity
  8
LC-001-100-D00-0
 62
     7
370
    50
100
AcDbLine
 10
91.314968
 20
451.466872
 30
0.0
 11
91.314968
 21
447.716872
 31
0.0
  0
LINE
  5
361
330
1F
100
AcDbEntity
  8
LC-001-100-D00-0
 62
     7
370
    50
100
AcDbLine
 10
88.31497
 20
448.466874
 30
0.0
 11
88.314968
 21
447.716873
 31
0.0
  0
LINE
  5
362
330
1F
100
AcDbEntity
  8
LC-001-100-D00-0
 62
     7
370
    50
100
AcDbLine
 10
85.314971
 20
448.466874
 30
0.0
 11
85.314971
 21
444.466871
 31
0.0
  0
LINE
  5
363
330
1F
100
AcDbEntity
  8
LC-001-100-D00-0
 62
     7
370
    50
100
AcDbLine
 10
79.314968
 20
444.466873
 30
0.0
 11
85.314971
 21
444.466871
 31
0.0
  0
LINE
  5
364
330
1F
100
AcDbEntity
  8
LC-001-100-D00-0
 62
     7
370
    50
100
AcDbLine
 10
79.314966
 20
447.466874
 30
0.0
 11
79.314968
 21
444.466873
 31
0.0
  0
LINE
  5
365
330
1F
100
AcDbEntity
  8
LC-001-100-D00-0
 62
     7
370
    50
100
AcDbLine
 10
82.314965
 20
447.466874
 30
0.0
 11
79.314966
 21
447.466874
 31
0.0
  0
LINE
  5
366
330
1F
100
AcDbEntity
  8
LC-001-100-D00-0
 62
     7
370
    50
100
AcDbLine
 10
82.314965
 20
447.466874
 30
0.0
 11
82.314965
 21
451.466872
 31
0.0
  0
LINE
  5
367
330
1F
100
AcDbEntity
  8
LC-001-100-D00-0
 62
     7
370
    50
100
AcDbLine
 10
85.314971
 20
448.466874
 30
0.0
 11
88.31497
 21
448.466874
 31
0.0
  0
LINE
  5
368
330
1F
100
AcDbEntity
  8
LC-001-100-D00-0
 62
     7
370
    50
100
AcDbLine
 10
91.314968
 20
451.466872
 30
0.0
 11
82.314965
 21
451.466872
 31
0.0
  0
LINE
  5
369
330
1F
100
AcDbEntity
  8
LC-001-100-D00-0
 62
     7
370
    50
100
AcDbLine
 10
88.314968
 20
447.716873
 30
0.0
 11
91.314968
 21
447.716872
 31
0.0
  0
LINE
  5
36A
330
1F
100
AcDbEntity
  8
LC-001-100-D00-0
 62
     7
370
    50
100
AcDbLine
 10
85.314968
 20
447.716873
 30
0.0
 11
88.314968
 21
447.716873
 31
0.0
  0
LINE
  5
36B
330
1F
100
AcDbEntity
  8
LC-001-100-D00-0
 62
     7
370
    50
100
AcDbLine
 10
72.414968
 20
444.466873
 30
0.0
 11
79.314968
 21
444.466873
 31
0.0
  0
LINE
  5
36C
330
1F
100
AcDbEntity
  8
LC-001-100-D00-0
 62
     7
370
    50
100
AcDbLine
 10
-44.685032
 20
444.466873
 30
0.0
 11
-44.685031
 21
447.466874
 31
0.0
  0
LINE
  5
36D
330
1F
100
AcDbEntity
  8
LC-001-100-D00-0
 62
     7
370
    50
100
AcDbLine
 10
-44.685032
 20
444.466873
 30
0.0
 11
-37.785032
 21
444.466873
 31
0.0
  0
LINE
  5
36E
330
1F
100
AcDbEntity
  8
LC-001-100-D00-0
 62
     7
370
    50
100
AcDbLine
 10
-47.68503
 20
451.466872
 30
0.0
 11
-47.68503
 21
447.466874
 31
0.0
  0
LINE
  5
36F
330
1F
100
AcDbEntity
  8
LC-001-100-D00-0
 62
     7
370
    50
100
AcDbLine
 10
-50.685036
 20
444.466871
 30
0.0
 11
-50.685036
 21
448.466874
 31
0.0
  0
LINE
  5
370
330
1F
100
AcDbEntity
  8
LC-001-100-D00-0
 62
     7
370
    50
100
AcDbLine
 10
-53.685032
 20
447.716873
 30
0.0
 11
-53.685035
 21
448.466874
 31
0.0
  0
LINE
  5
371
330
1F
100
AcDbEntity
  8
LC-001-100-D00-0
 62
     7
370
    50
100
AcDbLine
 10
-53.685032
 20
447.716873
 30
0.0
 11
-50.685032
 21
447.716873
 31
0.0
  0
LINE
  5
372
330
1F
100
AcDbEntity
  8
LC-001-100-D00-0
 62
     7
370
    50
100
AcDbLine
 10
-56.685033
 20
447.716872
 30
0.0
 11
-56.685033
 21
451.466872
 31
0.0
  0
LINE
  5
373
330
1F
100
AcDbEntity
  8
LC-001-100-D00-0
 62
     7
370
    50
100
AcDbLine
 10
-44.685031
 20
447.466874
 30
0.0
 11
-47.68503
 21
447.466874
 31
0.0
  0
LINE
  5
374
330
1F
100
AcDbEntity
  8
LC-001-100-D00-0
 62
     7
370
    50
100
AcDbLine
 10
-50.685036
 20
444.466871
 30
0.0
 11
-44.685032
 21
444.466873
 31
0.0
  0
LINE
  5
375
330
1F
100
AcDbEntity
  8
LC-001-100-D00-0
 62
     7
370
    50
100
AcDbLine
 10
-53.685035
 20
448.466874
 30
0.0
 11
-50.685036
 21
448.466874
 31
0.0
  0
LINE
  5
376
330
1F
100
AcDbEntity
  8
LC-001-100-D00-0
 62
     7
370
    50
100
AcDbLine
 10
-47.68503
 20
451.466872
 30
0.0
 11
-56.685033
 21
451.466872
 31
0.0
  0
LINE
  5
377
330
1F
100
AcDbEntity
  8
LC-001-100-D00-0
 62
     7
370
    50
100
AcDbLine
 10
-56.685033
 20
447.716872
 30
0.0
 11
-53.685032
 21
447.716873
 31
0.0
  0
LINE
  5
378
330
1F
100
AcDbEntity
  8
LC-001-100-D00-0
 62
     7
370
    50
100
AcDbLine
 10
91.314968
 20
446.966873
 30
0.0
 11
102.314968
 21
446.966873
 31
0.0
  0
LINE
  5
379
330
1F
100
AcDbEntity
  8
LC-001-100-D00-0
 62
     7
370
    50
100
AcDbLine
 10
102.314968
 20
394.966875
 30
0.0
 11
91.314968
 21
394.966875
 31
0.0
  0
LINE
  5
37A
330
1F
100
AcDbEntity
  8
LC-001-100-D00-0
 62
     7
370
    50
100
AcDbLine
 10
91.314968
 20
447.716872
 30
0.0
 11
91.314968
 21
446.966873
 31
0.0
  0
INSERT
  5
38B
330
1F
100
AcDbEntity
  8
LC-001-100-D00-0
 62
     7
370
    50
100
AcDbBlockReference
  2
KLON15
 10
0.0
 20
0.0
 30
0.0
  0
INSERT
  5
39F
330
1F
100
AcDbEntity
  8
LC-001-100-D00-0
 62
     7
370
    50
100
AcDbBlockReference
  2
KLON16
 10
0.0
 20
0.0
 30
0.0
  0
LINE
  5
3A0
330
1F
100
AcDbEntity
  8
LC-001-100-D00-0
 62
     7
370
    50
100
AcDbLine
 10
88.31497
 20
443.966874
 30
0.0
 11
130.212153
 21
443.966873
 31
0.0
  0
LINE
  5
3A1
330
1F
100
AcDbEntity
  8
LC-001-100-D00-0
 62
     7
370
    50
100
AcDbLine
 10
130.212153
 20
397.966873
 30
0.0
 11
130.212153
 21
443.966873
 31
0.0
  0
LINE
  5
3A2
330
1F
100
AcDbEntity
  8
LC-001-100-D00-0
 62
     7
370
    50
100
AcDbLine
 10
130.212153
 20
397.966873
 30
0.0
 11
91.314968
 21
397.966874
 31
0.0
  0
INSERT
  5
3A8
330
1F
100
AcDbEntity
  8
LC-001-100-D00-0
 62
     7
370
    50
100
AcDbBlockReference
  2
KLON17
 10
0.0
 20
0.0
 30
0.0
  0
LINE
  5
3A9
330
1F
100
AcDbEntity
  8
LC-001-100-D00-0
 62
     7
370
    50
100
AcDbLine
 10
88.314968
 20
447.716873
 30
0.0
 11
85.314968
 21
447.716873
 31
0.0
  0
LINE
  5
3AA
330
1F
100
AcDbEntity
  8
LC-001-100-D00-0
 62
     7
370
    50
100
AcDbLine
 10
88.314968
 20
447.716873
 30
0.0
 11
88.31497
 21
443.966874
 31
0.0
  0
LINE
  5
3AB
330
1F
100
AcDbEntity
  8
LC-001-100-D00-0
 62
     7
370
    50
100
AcDbLine
 10
78.314968
 20
394.966873
 30
0.0
 11
91.314968
 21
394.966875
 31
0.0
  0
ARC
  5
3AC
330
1F
100
AcDbEntity
  8
LC-001-100-D00-0
 62
     7
370
    50
100
AcDbCircle
 10
71.332847
 20
395.466873
 30
0.0
 40
7.000000000000227
100
AcDbArc
 50
270.0
 51
355.903956
  0
LINE
  5
3AD
330
1F
100
AcDbEntity
  8
LC-001-100-D00-0
 62
     7
370
    50
100
AcDbLine
 10
71.332847
 20
388.466873
 30
0.0
 11
-36.702912
 21
388.466873
 31
0.0
  0
ARC
  5
3AE
330
1F
100
AcDbEntity
  8
LC-001-100-D00-0
 62
     7
370
    50
100
AcDbCircle
 10
-36.702912
 20
395.466873
 30
0.0
 40
7.000000000000056
100
AcDbArc
 50
184.096044
 51
270.0
  0
LINE
  5
3AF
330
1F
100
AcDbEntity
  8
LC-001-100-D00-0
 62
     7
370
    50
100
AcDbLine
 10
-44.185032
 20
394.966873
 30
0.0
 11
-43.685032
 21
394.966873
 31
0.0
  0
ARC
  5
3B0
330
1F
100
AcDbEntity
  8
LC-001-100-D00-0
 62
     7
370
    50
100
AcDbCircle
 10
-44.185032
 20
407.466873
 30
0.0
 40
12.5
100
AcDbArc
 50
180.0
 51
270.0
  0
LINE
  5
3B1
330
1F
100
AcDbEntity
  8
LC-001-100-D00-0
 62
     7
370
    50
100
AcDbLine
 10
-56.685032
 20
407.466873
 30
0.0
 11
-56.685033
 21
447.716872
 31
0.0
  0
LINE
  5
3B2
330
1F
100
AcDbEntity
  8
LC-001-100-D00-0
 62
     7
370
    50
100
AcDbLine
 10
-56.685033
 20
447.716872
 30
0.0
 11
-53.685032
 21
447.716873
 31
0.0
  0
LINE
  5
3B3
330
1F
100
AcDbEntity
  8
LC-001-100-D00-0
 62
     7
370
    50
100
AcDbLine
 10
-53.685032
 20
407.466873
 30
0.0
 11
-53.685032
 21
447.716873
 31
0.0
  0
ARC
  5
3B4
330
1F
100
AcDbEntity
  8
LC-001-100-D00-0
 62
     7
370
    50
100
AcDbCircle
 10
-44.185032
 20
407.466873
 30
0.0
 40
9.500000000000114
100
AcDbArc
 50
180.0
 51
270.0
  0
LINE
  5
3B5
330
1F
100
AcDbEntity
  8
LC-001-100-D00-0
 62
     7
370
    50
100
AcDbLine
 10
-44.185032
 20
397.966873
 30
0.0
 11
-41.685032
 21
397.966873
 31
0.0
  0
ARC
  5
3B6
330
1F
100
AcDbEntity
  8
LC-001-100-D00-0
 62
     7
370
    50
100
AcDbCircle
 10
-41.685032
 20
396.966873
 30
0.0
 40
1.0
100
AcDbArc
 50
0.0
 51
90.0
  0
LINE
  5
3B7
330
1F
100
AcDbEntity
  8
LC-001-100-D00-0
 62
     7
370
    50
100
AcDbLine
 10
-40.685032
 20
396.966873
 30
0.0
 11
-40.685032
 21
395.466873
 31
0.0
  0
ARC
  5
3B8
330
1F
100
AcDbEntity
  8
LC-001-100-D00-0
 62
     7
370
    50
100
AcDbCircle
 10
-36.685032
 20
395.466873
 30
0.0
 40
4.000000000000114
100
AcDbArc
 50
180.0
 51
270.0
  0
LINE
  5
3B9
330
1F
100
AcDbEntity
  8
LC-001-100-D00-0
 62
     7
370
    50
100
AcDbLine
 10
71.314968
 20
391.466873
 30
0.0
 11
-36.685032
 21
391.466873
 31
0.0
  0
ARC
  5
3BA
330
1F
100
AcDbEntity
  8
LC-001-100-D00-0
 62
     7
370
    50
100
AcDbCircle
 10
71.314968
 20
395.466873
 30
0.0
 40
4.000000000000227
100
AcDbArc
 50
270.0
 51
0.0
  0
LINE
  5
3BB
330
1F
100
AcDbEntity
  8
LC-001-100-D00-0
 62
     7
370
    50
100
AcDbLine
 10
75.314968
 20
395.466873
 30
0.0
 11
75.314968
 21
396.966873
 31
0.0
  0
ARC
  5
3BC
330
1F
100
AcDbEntity
  8
LC-001-100-D00-0
 62
     7
370
    50
100
AcDbCircle
 10
76.314968
 20
396.966873
 30
0.0
 40
1.0
100
AcDbArc
 50
90.0
 51
180.0
  0
LINE
  5
3BD
330
1F
100
AcDbEntity
  8
LC-001-100-D00-0
 62
     7
370
    50
100
AcDbLine
 10
76.314968
 20
397.966873
 30
0.0
 11
91.314968
 21
397.966874
 31
0.0
  0
LINE
  5
3BE
330
1F
100
AcDbEntity
  8
LC-001-100-D00-0
 62
     7
370
    50
100
AcDbLine
 10
135.812153
 20
396.466358
 30
0.0
 11
130.212153
 21
397.966873
 31
0.0
  0
LINE
  5
3BF
330
1F
100
AcDbEntity
  8
LC-001-100-D00-0
 62
     7
370
    50
100
AcDbLine
 10
135.812153
 20
396.032618
 30
0.0
 11
135.812153
 21
396.466358
 31
0.0
  0
ARC
  5
3C0
330
1F
100
AcDbEntity
  8
LC-001-100-D00-0
 62
     7
370
    50
100
AcDbCircle
 10
135.312195
 20
396.032618
 30
0.0
 40
0.4999578796797747
100
AcDbArc
 50
301.198872
 51
0.0
  0
ARC
  5
3C1
330
1F
100
AcDbEntity
  8
LC-001-100-D00-0
 62
     7
370
    50
100
AcDbCircle
 10
120.213471
 20
420.964683
 30
0.0
 40
29.64750216706074
100
AcDbArc
 50
292.382556
 51
301.198872
  0
ARC
  5
3C2
330
1F
100
AcDbEntity
  8
LC-001-100-D00-0
 62
     7
370
    50
100
AcDbCircle
 10
131.312532
 20
394.013056
 30
0.0
 40
0.4999578796799824
100
AcDbArc
 50
180.0
 51
292.382556
  0
LINE
  5
3C3
330
1F
100
AcDbEntity
  8
LC-001-100-D00-0
 62
     7
370
    50
100
AcDbLine
 10
130.812574
 20
395.316915
 30
0.0
 11
130.812574
 21
394.013056
 31
0.0
  0
ARC
  5
3C4
330
1F
100
AcDbEntity
  8
LC-001-100-D00-0
 62
     7
370
    50
100
AcDbCircle
 10
130.312616
 20
395.316915
 30
0.0
 40
0.4999578796799824
100
AcDbArc
 50
0.0
 51
90.0
  0
LINE
  5
3C5
330
1F
100
AcDbEntity
  8
LC-001-100-D00-0
 62
     7
370
    50
100
AcDbLine
 10
126.812911
 20
395.816873
 30
0.0
 11
130.312616
 21
395.816873
 31
0.0
  0
ARC
  5
3C6
330
1F
100
AcDbEntity
  8
LC-001-100-D00-0
 62
     7
370
    50
100
AcDbCircle
 10
126.812911
 20
395.316915
 30
0.0
 40
0.4999578796798687
100
AcDbArc
 50
90.0
 51
180.0
  0
LINE
  5
3C7
330
1F
100
AcDbEntity
  8
LC-001-100-D00-0
 62
     7
370
    50
100
AcDbLine
 10
126.312953
 20
392.360054
 30
0.0
 11
126.312953
 21
395.316915
 31
0.0
  0
ARC
  5
3C8
330
1F
100
AcDbEntity
  8
LC-001-100-D00-0
 62
     7
370
    50
100
AcDbCircle
 10
125.812995
 20
392.360054
 30
0.0
 40
0.4999578796801155
100
AcDbArc
 50
281.075925
 51
0.0
  0
ARC
  5
3C9
330
1F
100
AcDbEntity
  8
LC-001-100-D00-0
 62
     7
370
    50
100
AcDbCircle
 10
120.213471
 20
420.964683
 30
0.0
 40
29.64750432250037
100
AcDbArc
 50
241.270296
 51
281.075925
  0
LINE
  5
3CA
330
1F
100
AcDbEntity
  8
LC-001-100-D00-0
 62
     7
370
    50
100
AcDbLine
 10
104.814765
 20
394.966875
 30
0.0
 11
105.962563
 21
394.966873
 31
0.0
  0
LINE
  5
3CB
330
1F
100
AcDbEntity
  8
LC-001-100-D00-0
 62
     7
370
    50
100
AcDbLine
 10
104.814765
 20
393.466872
 30
0.0
 11
104.814765
 21
394.966875
 31
0.0
  0
LINE
  5
3CC
330
1F
100
AcDbEntity
  8
LC-001-100-D00-0
 62
     7
370
    50
100
AcDbLine
 10
102.314968
 20
393.466872
 30
0.0
 11
104.814765
 21
393.466872
 31
0.0
  0
LINE
  5
3CD
330
1F
100
AcDbEntity
  8
LC-001-100-D00-0
 62
     7
370
    50
100
AcDbLine
 10
102.314968
 20
394.966875
 30
0.0
 11
102.314968
 21
393.466872
 31
0.0
  0
ARC
  5
3CE
330
1F
100
AcDbEntity
  8
LC-001-100-D00-0
 62
     7
370
    50
100
AcDbCircle
 10
120.213471
 20
420.969063
 30
0.0
 40
29.64750216706075
100
AcDbArc
 50
58.801128
 51
67.617444
  0
ARC
  5
3CF
330
1F
100
AcDbEntity
  8
LC-001-100-D00-0
 62
     7
370
    50
100
AcDbCircle
 10
135.312195
 20
445.901128
 30
0.0
 40
0.4999578796798687
100
AcDbArc
 50
0.0
 51
58.801128
  0
ARC
  5
3D0
330
1F
100
AcDbEntity
  8
LC-001-100-D00-0
 62
     7
370
    50
100
AcDbCircle
 10
130.312616
 20
446.616831
 30
0.0
 40
0.4999578796803235
100
AcDbArc
 50
270.0
 51
0.0
  0
LINE
  5
3D1
330
1F
100
AcDbEntity
  8
LC-001-100-D00-0
 62
     7
370
    50
100
AcDbLine
 10
130.812574
 20
447.92069
 30
0.0
 11
130.812574
 21
446.616831
 31
0.0
  0
ARC
  5
3D2
330
1F
100
AcDbEntity
  8
LC-001-100-D00-0
 62
     7
370
    50
100
AcDbCircle
 10
131.312532
 20
447.92069
 30
0.0
 40
0.4999578796801971
100
AcDbArc
 50
67.617444
 51
180.0
  0
LINE
  5
3D3
330
1F
100
AcDbEntity
  8
LC-001-100-D00-0
 62
     7
370
    50
100
AcDbLine
 10
135.812153
 20
445.467389
 30
0.0
 11
135.812153
 21
445.901128
 31
0.0
  0
LINE
  5
3D4
330
1F
100
AcDbEntity
  8
LC-001-100-D00-0
 62
     7
370
    50
100
AcDbLine
 10
130.212153
 20
443.966873
 30
0.0
 11
135.812153
 21
445.467389
 31
0.0
  0
LINE
  5
3D5
330
1F
100
AcDbEntity
  8
LC-001-100-D00-0
 62
     7
370
    50
100
AcDbLine
 10
88.314968
 20
447.716873
 30
0.0
 11
91.314968
 21
447.716872
 31
0.0
  0
LINE
  5
3D6
330
1F
100
AcDbEntity
  8
LC-001-100-D00-0
 62
     7
370
    50
100
AcDbLine
 10
102.314968
 20
448.466874
 30
0.0
 11
102.314968
 21
446.966873
 31
0.0
  0
LINE
  5
3D7
330
1F
100
AcDbEntity
  8
LC-001-100-D00-0
 62
     7
370
    50
100
AcDbLine
 10
104.814764
 20
448.466873
 30
0.0
 11
102.314968
 21
448.466874
 31
0.0
  0
ARC
  5
3D8
330
1F
100
AcDbEntity
  8
LC-001-100-D00-0
 62
     7
370
    50
100
AcDbCircle
 10
120.177056
 20
420.966873
 30
0.0
 40
31.50000000000042
100
AcDbArc
 50
105.394857
 51
119.188982
  0
LINE
  5
3D9
330
1F
100
AcDbEntity
  8
LC-001-100-D00-0
 62
     7
370
    50
100
AcDbLine
 10
111.814764
 20
451.336629
 30
0.0
 11
111.814764
 21
449.402076
 31
0.0
  0
ARC
  5
3DA
330
1F
100
AcDbEntity
  8
LC-001-100-D00-0
 62
     7
370
    50
100
AcDbCircle
 10
120.213471
 20
420.969063
 30
0.0
 40
29.64750432250028
100
AcDbArc
 50
78.924075
 51
106.456389
  0
ARC
  5
3DB
330
1F
100
AcDbEntity
  8
LC-001-100-D00-0
 62
     7
370
    50
100
AcDbCircle
 10
125.812995
 20
449.573692
 30
0.0
 40
0.4999578796799824
100
AcDbArc
 50
0.0
 51
78.924075
  0
LINE
  5
3DC
330
1F
100
AcDbEntity
  8
LC-001-100-D00-0
 62
     7
370
    50
100
AcDbLine
 10
126.312953
 20
446.616831
 30
0.0
 11
126.312953
 21
449.573692
 31
0.0
  0
ARC
  5
3DD
330
1F
100
AcDbEntity
  8
LC-001-100-D00-0
 62
     7
370
    50
100
AcDbCircle
 10
126.812911
 20
446.616831
 30
0.0
 40
0.4999578796798687
100
AcDbArc
 50
180.0
 51
270.0
  0
LINE
  5
3DE
330
1F
100
AcDbEntity
  8
LC-001-100-D00-0
 62
     7
370
    50
100
AcDbLine
 10
130.312616
 20
446.116873
 30
0.0
 11
126.812911
 21
446.116873
 31
0.0
  0
LINE
  5
3DF
330
1F
100
AcDbEntity
  8
LC-001-100-D00-0
 62
     7
370
    50
100
AcDbLine
 10
135.812153
 20
445.467389
 30
0.0
 11
135.812153
 21
396.466358
 31
0.0
  0
LINE
  5
3E0
330
1F
100
AcDbEntity
  8
LC-001-100-D00-0
 62
     7
370
    50
100
AcDbLine
 10
61.748588
 20
397.966873
 30
0.0
 11
76.314968
 21
397.966873
 31
0.0
  0
LINE
  5
3E1
330
1F
100
AcDbEntity
  8
LC-001-100-D00-0
 62
     7
370
    50
100
AcDbLine
 10
-41.685032
 20
397.966873
 30
0.0
 11
-27.118653
 21
397.966873
 31
0.0
  0
LINE
  5
3E2
330
1F
100
AcDbEntity
  8
LC-001-100-D00-0
 62
     7
370
    50
100
AcDbLine
 10
-50.685032
 20
447.716873
 30
0.0
 11
-53.685032
 21
447.716873
 31
0.0
  0
LINE
  5
3E3
330
1F
100
AcDbEntity
  8
LC-001-100-D00-0
 62
     7
370
    50
100
AcDbLine
 10
59.304093
 20
397.966873
 30
0.0
 11
61.748588
 21
397.966873
 31
0.0
  0
LINE
  5
3E4
330
1F
100
AcDbEntity
  8
LC-001-100-D00-0
 62
     7
370
    50
100
AcDbLine
 10
-27.118653
 20
397.966873
 30
0.0
 11
-24.674158
 21
397.966873
 31
0.0
  0
LINE
  5
3E5
330
1F
100
AcDbEntity
  8
LC-001-100-D00-0
 62
     7
370
    50
100
AcDbLine
 10
-24.674158
 20
397.966873
 30
0.0
 11
-23.685034
 21
397.966874
 31
0.0
  0
LINE
  5
3E6
330
1F
100
AcDbEntity
  8
LC-001-100-D00-0
 62
     7
370
    50
100
AcDbLine
 10
58.314969
 20
397.966874
 30
0.0
 11
59.304093
 21
397.966873
 31
0.0
  0
CIRCLE
  5
3E7
330
1F
100
AcDbEntity
  8
LC-001-100-D00-0
 62
     7
370
    50
100
AcDbCircle
 10
71.564968
 20
449.216873
 30
0.0
 40
1.750000000000114
  0
CIRCLE
  5
3E8
330
1F
100
AcDbEntity
  8
LC-001-100-D00-0
 62
     7
370
    50
100
AcDbCircle
 10
-36.935032
 20
449.216873
 30
0.0
 40
1.749999999999773
  0
LINE
  5
3E9
330
1F
100
AcDbEntity
  8
LC-001-100-D00-0
 62
     7
370
    50
100
AcDbLine
 10
71.814966
 20
450.966873
 30
0.0
 11
71.814966
 21
452.466873
 31
0.0
  0
LINE
  5
3EA
330
1F
100
AcDbEntity
  8
LC-001-100-D00-0
 62
     7
370
    50
100
AcDbLine
 10
69.814966
 20
450.966873
 30
0.0
 11
71.814966
 21
450.966873
 31
0.0
  0
LINE
  5
3EB
330
1F
100
AcDbEntity
  8
LC-001-100-D00-0
 62
     7
370
    50
100
AcDbLine
 10
69.814966
 20
450.966873
 30
0.0
 11
69.814966
 21
447.466874
 31
0.0
  0
LINE
  5
3EC
330
1F
100
AcDbEntity
  8
LC-001-100-D00-0
 62
     7
370
    50
100
AcDbLine
 10
69.814966
 20
447.466874
 30
0.0
 11
71.814966
 21
447.466874
 31
0.0
  0
LINE
  5
3ED
330
1F
100
AcDbEntity
  8
LC-001-100-D00-0
 62
     7
370
    50
100
AcDbLine
 10
71.814966
 20
447.466874
 30
0.0
 11
71.814966
 21
446.466872
 31
0.0
  0
LINE
  5
3EE
330
1F
100
AcDbEntity
  8
LC-001-100-D00-0
 62
     7
370
    50
100
AcDbLine
 10
56.314968
 20
446.466873
 30
0.0
 11
71.814966
 21
446.466872
 31
0.0
  0
ARC
  5
3EF
330
1F
100
AcDbEntity
  8
LC-001-100-D00-0
 62
     7
370
    50
100
AcDbCircle
 10
56.314968
 20
436.466873
 30
0.0
 40
10.0
100
AcDbArc
 50
90.0
 51
180.0
  0
LINE
  5
3F0
330
1F
100
AcDbEntity
  8
LC-001-100-D00-0
 62
     7
370
    50
100
AcDbLine
 10
46.314968
 20
436.466873
 30
0.0
 11
46.314967
 21
406.96687
 31
0.0
  0
LINE
  5
3F1
330
1F
100
AcDbEntity
  8
LC-001-100-D00-0
 62
     7
370
    50
100
AcDbLine
 10
44.814968
 20
406.966873
 30
0.0
 11
46.314967
 21
406.96687
 31
0.0
  0
LINE
  5
3F2
330
1F
100
AcDbEntity
  8
LC-001-100-D00-0
 62
     7
370
    50
100
AcDbLine
 10
44.814968
 20
450.466873
 30
0.0
 11
44.814968
 21
406.966873
 31
0.0
  0
ARC
  5
3F3
330
1F
100
AcDbEntity
  8
LC-001-100-D00-0
 62
     7
370
    50
100
AcDbCircle
 10
46.814968
 20
450.466873
 30
0.0
 40
2.0
100
AcDbArc
 50
90.0
 51
180.0
  0
LINE
  5
3F4
330
1F
100
AcDbEntity
  8
LC-001-100-D00-0
 62
     7
370
    50
100
AcDbLine
 10
46.814968
 20
452.466873
 30
0.0
 11
71.814966
 21
452.466873
 31
0.0
  0
LINE
  5
3F5
330
1F
100
AcDbEntity
  8
LC-001-100-D00-0
 62
     7
370
    50
100
AcDbLine
 10
28.814968
 20
452.466873
 30
0.0
 11
46.814968
 21
452.466873
 31
0.0
  0
LINE
  5
3F6
330
1F
100
AcDbEntity
  8
LC-001-100-D00-0
 62
     7
370
    50
100
AcDbLine
 10
28.814968
 20
406.966873
 30
0.0
 11
44.814968
 21
406.966873
 31
0.0
  0
LINE
  5
3F7
330
1F
100
AcDbEntity
  8
LC-001-100-D00-0
 62
     7
370
    50
100
AcDbLine
 10
-11.685032
 20
406.96687
 30
0.0
 11
-11.685032
 21
436.466873
 31
0.0
  0
ARC
  5
3F8
330
1F
100
AcDbEntity
  8
LC-001-100-D00-0
 62
     7
370
    50
100
AcDbCircle
 10
-12.185032
 20
450.466873
 30
0.0
 40
2.0
100
AcDbArc
 50
0.0
 51
90.0
  0
LINE
  5
3F9
330
1F
100
AcDbEntity
  8
LC-001-100-D00-0
 62
     7
370
    50
100
AcDbLine
 10
-12.185032
 20
452.466873
 30
0.0
 11
5.814968
 21
452.466873
 31
0.0
  0
LINE
  5
3FA
330
1F
100
AcDbEntity
  8
LC-001-100-D00-0
 62
     7
370
    50
100
AcDbLine
 10
-10.185032
 20
406.966873
 30
0.0
 11
-10.185032
 21
450.466873
 31
0.0
  0
LINE
  5
3FB
330
1F
100
AcDbEntity
  8
LC-001-100-D00-0
 62
     7
370
    50
100
AcDbLine
 10
-10.185032
 20
406.966873
 30
0.0
 11
5.814968
 21
406.966873
 31
0.0
  0
ARC
  5
3FC
330
1F
100
AcDbEntity
  8
LC-001-100-D00-0
 62
     7
370
    50
100
AcDbCircle
 10
-21.685032
 20
436.466873
 30
0.0
 40
10.0
100
AcDbArc
 50
0.0
 51
90.0
  0
LINE
  5
3FD
330
1F
100
AcDbEntity
  8
LC-001-100-D00-0
 62
     7
370
    50
100
AcDbLine
 10
-37.185031
 20
446.466872
 30
0.0
 11
-37.185031
 21
447.466874
 31
0.0
  0
LINE
  5
3FE
330
1F
100
AcDbEntity
  8
LC-001-100-D00-0
 62
     7
370
    50
100
AcDbLine
 10
-35.185031
 20
447.466874
 30
0.0
 11
-35.185031
 21
450.966873
 31
0.0
  0
LINE
  5
3FF
330
1F
100
AcDbEntity
  8
LC-001-100-D00-0
 62
     7
370
    50
100
AcDbLine
 10
-37.185031
 20
452.466873
 30
0.0
 11
-37.185031
 21
450.966873
 31
0.0
  0
LINE
  5
400
330
1F
100
AcDbEntity
  8
LC-001-100-D00-0
 62
     7
370
    50
100
AcDbLine
 10
-11.685032
 20
406.96687
 30
0.0
 11
-10.185032
 21
406.966873
 31
0.0
  0
LINE
  5
401
330
1F
100
AcDbEntity
  8
LC-001-100-D00-0
 62
     7
370
    50
100
AcDbLine
 10
-37.185031
 20
447.466874
 30
0.0
 11
-35.185031
 21
447.466874
 31
0.0
  0
LINE
  5
402
330
1F
100
AcDbEntity
  8
LC-001-100-D00-0
 62
     7
370
    50
100
AcDbLine
 10
-37.185031
 20
450.966873
 30
0.0
 11
-35.185031
 21
450.966873
 31
0.0
  0
LINE
  5
403
330
1F
100
AcDbEntity
  8
LC-001-100-D00-0
 62
     7
370
    50
100
AcDbLine
 10
-37.185031
 20
452.466873
 30
0.0
 11
-12.185032
 21
452.466873
 31
0.0
  0
LINE
  5
404
330
1F
100
AcDbEntity
  8
LC-001-100-D00-0
 62
     7
370
    50
100
AcDbLine
 10
-37.185031
 20
446.466872
 30
0.0
 11
-21.685032
 21
446.466873
 31
0.0
  0
LINE
  5
405
330
1F
100
AcDbEntity
  8
LC-001-100-D00-0
 62
     7
370
    50
100
AcDbLine
 10
5.814968
 20
406.966873
 30
0.0
 11
28.814968
 21
406.966873
 31
0.0
  0
LINE
  5
406
330
1F
100
AcDbEntity
  8
LC-001-100-D00-0
 62
     7
370
    50
100
AcDbLine
 10
5.814968
 20
452.466873
 30
0.0
 11
28.814968
 21
452.466873
 31
0.0
  0
LINE
  5
407
330
1F
100
AcDbEntity
  8
LC-001-100-D00-0
 62
     7
370
    50
100
AcDbLine
 10
58.314969
 20
436.966875
 30
0.0
 11
68.250653
 21
444.272524
 31
0.0
  0
LINE
  5
408
330
1F
100
AcDbEntity
  8
LC-001-100-D00-0
 62
     7
370
    50
100
AcDbLine
 10
58.314969
 20
436.966875
 30
0.0
 11
58.314968
 21
395.966873
 31
0.0
  0
ARC
  5
409
330
1F
100
AcDbEntity
  8
LC-001-100-D00-0
 62
     7
370
    50
100
AcDbCircle
 10
53.314968
 20
395.966873
 30
0.0
 40
5.0
100
AcDbArc
 50
270.0
 51
0.0
  0
LINE
  5
40A
330
1F
100
AcDbEntity
  8
LC-001-100-D00-0
 62
     7
370
    50
100
AcDbLine
 10
53.314968
 20
390.966873
 30
0.0
 11
-18.685032
 21
390.966873
 31
0.0
  0
ARC
  5
40B
330
1F
100
AcDbEntity
  8
LC-001-100-D00-0
 62
     7
370
    50
100
AcDbCircle
 10
-18.685032
 20
395.966873
 30
0.0
 40
5.0
100
AcDbArc
 50
180.0
 51
270.0
  0
LINE
  5
40C
330
1F
100
AcDbEntity
  8
LC-001-100-D00-0
 62
     7
370
    50
100
AcDbLine
 10
-23.685032
 20
395.966873
 30
0.0
 11
-23.685034
 21
436.966875
 31
0.0
  0
LINE
  5
40D
330
1F
100
AcDbEntity
  8
LC-001-100-D00-0
 62
     7
370
    50
100
AcDbLine
 10
-23.685034
 20
436.966875
 30
0.0
 11
-33.620718
 21
444.272524
 31
0.0
  0
ARC
  5
40E
330
1F
100
AcDbEntity
  8
LC-001-100-D00-0
 62
     7
370
    50
100
AcDbCircle
 10
-34.213108
 20
443.466873
 30
0.0
 40
0.9999999999999467
100
AcDbArc
 50
53.673174
 51
90.0
  0
LINE
  5
40F
330
1F
100
AcDbEntity
  8
LC-001-100-D00-0
 62
     7
370
    50
100
AcDbLine
 10
-37.785032
 20
444.466873
 30
0.0
 11
-34.213108
 21
444.466873
 31
0.0
  0
LINE
  5
410
330
1F
100
AcDbEntity
  8
LC-001-100-D00-0
 62
     7
370
    50
100
AcDbLine
 10
-37.785032
 20
444.466873
 30
0.0
 11
-37.785032
 21
446.466873
 31
0.0
  0
LINE
  5
411
330
1F
100
AcDbEntity
  8
LC-001-100-D00-0
 62
     7
370
    50
100
AcDbLine
 10
-37.785032
 20
446.466873
 30
0.0
 11
-34.213108
 21
446.466873
 31
0.0
  0
ARC
  5
412
330
1F
100
AcDbEntity
  8
LC-001-100-D00-0
 62
     7
370
    50
100
AcDbCircle
 10
-34.213108
 20
443.466873
 30
0.0
 40
2.999999999999908
100
AcDbArc
 50
53.673174
 51
90.0
  0
LINE
  5
413
330
1F
100
AcDbEntity
  8
LC-001-100-D00-0
 62
     7
370
    50
100
AcDbLine
 10
-32.435937
 20
445.883826
 30
0.0
 11
-22.592642
 21
438.646109
 31
0.0
  0
ARC
  5
414
330
1F
100
AcDbEntity
  8
LC-001-100-D00-0
 62
     7
370
    50
100
AcDbCircle
 10
-23.185032
 20
437.840458
 30
0.0
 40
1.000000000000114
100
AcDbArc
 50
0.0
 51
53.673174
  0
LINE
  5
415
330
1F
100
AcDbEntity
  8
LC-001-100-D00-0
 62
     7
370
    50
100
AcDbLine
 10
-22.185032
 20
395.966873
 30
0.0
 11
-22.185032
 21
437.840458
 31
0.0
  0
ARC
  5
416
330
1F
100
AcDbEntity
  8
LC-001-100-D00-0
 62
     7
370
    50
100
AcDbCircle
 10
-18.685032
 20
395.966873
 30
0.0
 40
3.5
100
AcDbArc
 50
180.0
 51
270.0
  0
LINE
  5
417
330
1F
100
AcDbEntity
  8
LC-001-100-D00-0
 62
     7
370
    50
100
AcDbLine
 10
53.314968
 20
392.466873
 30
0.0
 11
-18.685032
 21
392.466873
 31
0.0
  0
ARC
  5
418
330
1F
100
AcDbEntity
  8
LC-001-100-D00-0
 62
     7
370
    50
100
AcDbCircle
 10
53.314968
 20
395.966873
 30
0.0
 40
3.5
100
AcDbArc
 50
270.0
 51
0.0
  0
LINE
  5
419
330
1F
100
AcDbEntity
  8
LC-001-100-D00-0
 62
     7
370
    50
100
AcDbLine
 10
56.814968
 20
437.840458
 30
0.0
 11
56.814968
 21
395.966873
 31
0.0
  0
ARC
  5
41A
330
1F
100
AcDbEntity
  8
LC-001-100-D00-0
 62
     7
370
    50
100
AcDbCircle
 10
57.814968
 20
437.840458
 30
0.0
 40
1.000000000000081
100
AcDbArc
 50
126.326826
 51
180.0
  0
LINE
  5
41B
330
1F
100
AcDbEntity
  8
LC-001-100-D00-0
 62
     7
370
    50
100
AcDbLine
 10
67.065872
 20
445.883826
 30
0.0
 11
57.222577
 21
438.646109
 31
0.0
  0
ARC
  5
41C
330
1F
100
AcDbEntity
  8
LC-001-100-D00-0
 62
     7
370
    50
100
AcDbCircle
 10
68.843043
 20
443.466873
 30
0.0
 40
2.999999999999773
100
AcDbArc
 50
90.0
 51
126.326826
  0
LINE
  5
41D
330
1F
100
AcDbEntity
  8
LC-001-100-D00-0
 62
     7
370
    50
100
AcDbLine
 10
68.843043
 20
446.466873
 30
0.0
 11
72.414968
 21
446.466873
 31
0.0
  0
LINE
  5
41E
330
1F
100
AcDbEntity
  8
LC-001-100-D00-0
 62
     7
370
    50
100
AcDbLine
 10
72.414968
 20
446.466873
 30
0.0
 11
72.414968
 21
444.466873
 31
0.0
  0
LINE
  5
41F
330
1F
100
AcDbEntity
  8
LC-001-100-D00-0
 62
     7
370
    50
100
AcDbLine
 10
68.843043
 20
444.466873
 30
0.0
 11
72.414968
 21
444.466873
 31
0.0
  0
ARC
  5
420
330
1F
100
AcDbEntity
  8
LC-001-100-D00-0
 62
     7
370
    50
100
AcDbCircle
 10
68.843043
 20
443.466873
 30
0.0
 40
0.9999999999997726
100
AcDbArc
 50
90.0
 51
126.326826
  0
ARC
  5
421
330
1F
100
AcDbEntity
  8
LC-001-100-D00-0
 62
     7
370
    50
100
AcDbCircle
 10
57.80822
 20
437.835032
 30
0.0
 40
1.0003735734447
100
AcDbArc
 50
126.325165
 51
180.0
  0
LINE
  5
422
330
1F
100
AcDbEntity
  8
LC-001-100-D00-0
 62
     7
370
    50
100
AcDbLine
 10
57.215632
 20
438.641002
 30
0.0
 11
57.222577
 21
438.646109
 31
0.0
  0
LINE
  5
423
330
1F
100
AcDbEntity
  8
LC-001-100-D00-0
 62
     7
370
    50
100
AcDbLine
 10
56.807847
 20
436.966873
 30
0.0
 11
52.394363
 21
436.966873
 31
0.0
  0
LINE
  5
424
330
1F
100
AcDbEntity
  8
LC-001-100-D00-0
 62
     7
370
    50
100
AcDbLine
 10
56.807847
 20
437.835091
 30
0.0
 11
56.807847
 21
436.966873
 31
0.0
  0
LINE
  5
425
330
1F
100
AcDbEntity
  8
LC-001-100-D00-0
 62
     7
370
    50
100
AcDbLine
 10
-22.177912
 20
437.835091
 30
0.0
 11
-22.177912
 21
436.966873
 31
0.0
  0
LINE
  5
426
330
1F
100
AcDbEntity
  8
LC-001-100-D00-0
 62
     7
370
    50
100
AcDbLine
 10
-17.764428
 20
436.966873
 30
0.0
 11
-22.177912
 21
436.966873
 31
0.0
  0
ARC
  5
427
330
1F
100
AcDbEntity
  8
LC-001-100-D00-0
 62
     7
370
    50
100
AcDbCircle
 10
-23.178259
 20
437.835046
 30
0.0
 40
1.000347039120811
100
AcDbArc
 50
0.0
 51
53.675603
  0
LINE
  5
428
330
1F
100
AcDbEntity
  8
LC-001-100-D00-0
 62
     7
370
    50
100
AcDbLine
 10
50.267403
 20
444.430978
 30
0.0
 11
50.267403
 21
436.966875
 31
0.0
  0
LINE
  5
429
330
1F
100
AcDbEntity
  8
LC-001-100-D00-0
 62
     7
370
    50
100
AcDbLine
 10
50.267401
 20
444.466873
 30
0.0
 11
57.029383
 21
444.466873
 31
0.0
  0
LINE
  5
42A
330
1F
100
AcDbEntity
  8
LC-001-100-D00-0
 62
     7
370
    50
100
AcDbLine
 10
61.402834
 20
444.466873
 30
0.0
 11
65.138816
 21
444.466873
 31
0.0
  0
LINE
  5
42B
330
1F
100
AcDbEntity
  8
LC-001-100-D00-0
 62
     7
370
    50
100
AcDbLine
 10
-15.637468
 20
444.430978
 30
0.0
 11
-15.637468
 21
436.966875
 31
0.0
  0
LINE
  5
42C
330
1F
100
AcDbEntity
  8
LC-001-100-D00-0
 62
     7
370
    50
100
AcDbLine
 10
-30.508881
 20
444.466873
 30
0.0
 11
-26.772899
 21
444.466873
 31
0.0
  0
LINE
  5
42D
330
1F
100
AcDbEntity
  8
LC-001-100-D00-0
 62
     7
370
    50
100
AcDbLine
 10
-22.399448
 20
444.466873
 30
0.0
 11
-15.637466
 21
444.466873
 31
0.0
  0
LINE
  5
42E
330
1F
100
AcDbEntity
  8
LC-001-100-D00-0
 62
     7
370
    50
100
AcDbLine
 10
52.394363
 20
436.966873
 30
0.0
 11
46.327475
 21
436.966873
 31
0.0
  0
LINE
  5
42F
330
1F
100
AcDbEntity
  8
LC-001-100-D00-0
 62
     7
370
    50
100
AcDbLine
 10
-11.69754
 20
436.966873
 30
0.0
 11
-17.764428
 21
436.966873
 31
0.0
  0
ARC
  5
430
330
1F
100
AcDbEntity
  8
LC-001-100-D00-0
 62
     7
370
    50
100
AcDbCircle
 10
120.314764
 20
420.966873
 30
0.0
 40
32.00000000000025
100
AcDbArc
 50
51.375167
 51
90.0
  0
LINE
  5
431
330
1F
100
AcDbEntity
  8
LC-001-100-D00-0
 62
     7
370
    50
100
AcDbLine
 10
140.289749
 20
445.966873
 30
0.0
 11
223.314759
 21
445.966874
 31
0.0
  0
LINE
  5
432
330
1F
100
AcDbEntity
  8
LC-001-100-D00-0
 62
     7
370
    50
100
AcDbLine
 10
223.314759
 20
445.966874
 30
0.0
 11
226.814759
 21
445.029051
 31
0.0
  0
LINE
  5
433
330
1F
100
AcDbEntity
  8
LC-001-100-D00-0
 62
     7
370
    50
100
AcDbLine
 10
226.814759
 20
445.029051
 30
0.0
 11
226.814764
 21
443.716873
 31
0.0
  0
LINE
  5
434
330
1F
100
AcDbEntity
  8
LC-001-100-D00-0
 62
     7
370
    50
100
AcDbLine
 10
226.814764
 20
443.716873
 30
0.0
 11
139.094741
 21
443.716873
 31
0.0
  0
ARC
  5
435
330
1F
100
AcDbEntity
  8
LC-001-100-D00-0
 62
     7
370
    50
100
AcDbCircle
 10
120.314764
 20
420.966873
 30
0.0
 40
29.50000000000004
100
AcDbArc
 50
50.46055
 51
104.235124
  0
ARC
  5
436
330
1F
100
AcDbEntity
  8
LC-001-100-D00-0
 62
     7
370
    50
100
AcDbCircle
 10
112.814764
 20
450.530364
 30
0.0
 40
1.000000000000114
100
AcDbArc
 50
180.0
 51
284.235124
  0
LINE
  5
437
330
1F
100
AcDbEntity
  8
LC-001-100-D00-0
 62
     7
370
    50
100
AcDbLine
 10
111.814764
 20
450.530364
 30
0.0
 11
111.814764
 21
452.966874
 31
0.0
  0
LINE
  5
438
330
1F
100
AcDbEntity
  8
LC-001-100-D00-0
 62
     7
370
    50
100
AcDbLine
 10
111.814764
 20
452.966874
 30
0.0
 11
120.314764
 21
452.966873
 31
0.0
  0
LINE
  5
439
330
1F
100
AcDbEntity
  8
LC-001-100-D00-0
 62
     7
370
    50
100
AcDbLine
 10
111.814764
 20
388.966871
 30
0.0
 11
111.814764
 21
391.403382
 31
0.0
  0
ARC
  5
43A
330
1F
100
AcDbEntity
  8
LC-001-100-D00-0
 62
     7
370
    50
100
AcDbCircle
 10
112.814764
 20
391.403382
 30
0.0
 40
0.9999999999998909
100
AcDbArc
 50
75.764876
 51
180.0
  0
ARC
  5
43B
330
1F
100
AcDbEntity
  8
LC-001-100-D00-0
 62
     7
370
    50
100
AcDbCircle
 10
120.314764
 20
420.966873
 30
0.0
 40
29.5
100
AcDbArc
 50
255.764876
 51
309.53945
  0
LINE
  5
43C
330
1F
100
AcDbEntity
  8
LC-001-100-D00-0
 62
     7
370
    50
100
AcDbLine
 10
139.094741
 20
398.216873
 30
0.0
 11
226.814764
 21
398.216873
 31
0.0
  0
LINE
  5
43D
330
1F
100
AcDbEntity
  8
LC-001-100-D00-0
 62
     7
370
    50
100
AcDbLine
 10
226.814764
 20
398.216873
 30
0.0
 11
226.814759
 21
396.904697
 31
0.0
  0
LINE
  5
43E
330
1F
100
AcDbEntity
  8
LC-001-100-D00-0
 62
     7
370
    50
100
AcDbLine
 10
226.814759
 20
396.904697
 30
0.0
 11
223.314759
 21
395.96687
 31
0.0
  0
LINE
  5
43F
330
1F
100
AcDbEntity
  8
LC-001-100-D00-0
 62
     7
370
    50
100
AcDbLine
 10
223.314759
 20
395.96687
 30
0.0
 11
140.289749
 21
395.966873
 31
0.0
  0
ARC
  5
440
330
1F
100
AcDbEntity
  8
LC-001-100-D00-0
 62
     7
370
    50
100
AcDbCircle
 10
120.314764
 20
420.966873
 30
0.0
 40
32.0
100
AcDbArc
 50
270.0
 51
308.624833
  0
LINE
  5
441
330
1F
100
AcDbEntity
  8
LC-001-100-D00-0
 62
     7
370
    50
100
AcDbLine
 10
120.314764
 20
388.966873
 30
0.0
 11
111.814764
 21
388.966871
 31
0.0
  0
LINE
  5
442
330
1F
100
AcDbEntity
  8
LC-001-100-D00-0
 62
     7
370
    50
100
AcDbLine
 10
226.814764
 20
443.716873
 30
0.0
 11
226.814764
 21
398.216873
 31
0.0
  0
LINE
  5
443
330
1F
100
AcDbEntity
  8
LC-001-100-D00-0
 62
     7
370
    50
100
AcDbLine
 10
139.094741
 20
443.716873
 30
0.0
 11
139.094741
 21
398.216873
 31
0.0
  0
LINE
  5
444
330
1F
100
AcDbEntity
  8
LC-001-100-D00-0
 62
     7
370
    50
100
AcDbLine
 10
111.814764
 20
392.53167
 30
0.0
 11
111.814764
 21
391.403382
 31
0.0
  0
CIRCLE
  5
445
330
1F
100
AcDbEntity
  8
LC-001-100-D00-0
 62
     7
370
    50
100
AcDbCircle
 10
128.562763
 20
447.966873
 30
0.0
 40
2.0
  0
CIRCLE
  5
446
330
1F
100
AcDbEntity
  8
LC-001-100-D00-0
 62
     7
370
    50
100
AcDbCircle
 10
128.562763
 20
393.966873
 30
0.0
 40
2.000000000000114
  0
LINE
  5
447
330
1F
100
AcDbEntity
  8
LC-001-100-D00-0
 62
     7
370
    50
100
AcDbLine
 10
110.269077
 20
457.830576
 30
0.0
 11
92.435405
 21
453.052059
 31
0.0
  0
ARC
  5
448
330
1F
100
AcDbEntity
  8
LC-001-100-D00-0
 62
     7
370
    50
100
AcDbCircle
 10
111.304353
 20
453.966873
 30
0.0
 40
4.0
100
AcDbArc
 50
90.0
 51
105.0
  0
LINE
  5
449
330
1F
100
AcDbEntity
  8
LC-001-100-D00-0
 62
     7
370
    50
100
AcDbLine
 10
111.304353
 20
457.966873
 30
0.0
 11
112.814967
 21
457.966873
 31
0.0
  0
LINE
  5
44A
330
1F
100
AcDbEntity
  8
LC-001-100-D00-0
 62
     7
370
    50
100
AcDbLine
 10
112.814967
 20
457.966873
 30
0.0
 11
112.814967
 21
459.366874
 31
0.0
  0
LINE
  5
44B
330
1F
100
AcDbEntity
  8
LC-001-100-D00-0
 62
     7
370
    50
100
AcDbLine
 10
113.314968
 20
459.366873
 30
0.0
 11
112.814967
 21
459.366874
 31
0.0
  0
ARC
  5
44C
330
1F
100
AcDbEntity
  8
LC-001-100-D00-0
 62
     7
370
    50
100
AcDbCircle
 10
112.314968
 20
460.866873
 30
0.0
 40
1.802775637732184
100
AcDbArc
 50
303.690068
 51
56.309932
  0
LINE
  5
44D
330
1F
100
AcDbEntity
  8
LC-001-100-D00-0
 62
     7
370
    50
100
AcDbLine
 10
113.314968
 20
476.966873
 30
0.0
 11
113.314968
 21
462.366873
 31
0.0
  0
LINE
  5
44E
330
1F
100
AcDbEntity
  8
LC-001-100-D00-0
 62
     7
370
    50
100
AcDbLine
 10
114.31497
 20
477.966873
 30
0.0
 11
113.314968
 21
476.966873
 31
0.0
  0
LINE
  5
44F
330
1F
100
AcDbEntity
  8
LC-001-100-D00-0
 62
     7
370
    50
100
AcDbLine
 10
120.314968
 20
477.966873
 30
0.0
 11
114.31497
 21
477.966873
 31
0.0
  0
LINE
  5
450
330
1F
100
AcDbEntity
  8
LC-001-100-D00-0
 62
     7
370
    50
100
AcDbLine
 10
121.31497
 20
476.966873
 30
0.0
 11
120.314968
 21
477.966873
 31
0.0
  0
LINE
  5
451
330
1F
100
AcDbEntity
  8
LC-001-100-D00-0
 62
     7
370
    50
100
AcDbLine
 10
121.314968
 20
462.366873
 30
0.0
 11
121.31497
 21
476.966873
 31
0.0
  0
ARC
  5
452
330
1F
100
AcDbEntity
  8
LC-001-100-D00-0
 62
     7
370
    50
100
AcDbCircle
 10
122.314968
 20
460.866873
 30
0.0
 40
1.802775637732184
100
AcDbArc
 50
123.690068
 51
236.309932
  0
LINE
  5
453
330
1F
100
AcDbEntity
  8
LC-001-100-D00-0
 62
     7
370
    50
100
AcDbLine
 10
121.814971
 20
459.366874
 30
0.0
 11
121.314968
 21
459.366873
 31
0.0
  0
LINE
  5
454
330
1F
100
AcDbEntity
  8
LC-001-100-D00-0
 62
     7
370
    50
100
AcDbLine
 10
121.814971
 20
459.366874
 30
0.0
 11
121.814971
 21
457.966873
 31
0.0
  0
LINE
  5
455
330
1F
100
AcDbEntity
  8
LC-001-100-D00-0
 62
     7
370
    50
100
AcDbLine
 10
121.814971
 20
457.966873
 30
0.0
 11
282.814977
 21
457.966873
 31
0.0
  0
LINE
  5
456
330
1F
100
AcDbEntity
  8
LC-001-100-D00-0
 62
     7
370
    50
100
AcDbLine
 10
282.814977
 20
457.966873
 30
0.0
 11
282.814977
 21
459.366874
 31
0.0
  0
LINE
  5
457
330
1F
100
AcDbEntity
  8
LC-001-100-D00-0
 62
     7
370
    50
100
AcDbLine
 10
283.314968
 20
459.366873
 30
0.0
 11
282.814977
 21
459.366874
 31
0.0
  0
ARC
  5
458
330
1F
100
AcDbEntity
  8
LC-001-100-D00-0
 62
     7
370
    50
100
AcDbCircle
 10
282.314968
 20
460.866873
 30
0.0
 40
1.802775637731868
100
AcDbArc
 50
303.690068
 51
56.309932
  0
LINE
  5
459
330
1F
100
AcDbEntity
  8
LC-001-100-D00-0
 62
     7
370
    50
100
AcDbLine
 10
283.31497
 20
476.966873
 30
0.0
 11
283.314968
 21
462.366873
 31
0.0
  0
LINE
  5
45A
330
1F
100
AcDbEntity
  8
LC-001-100-D00-0
 62
     7
370
    50
100
AcDbLine
 10
284.314957
 20
477.966873
 30
0.0
 11
283.31497
 21
476.966873
 31
0.0
  0
LINE
  5
45B
330
1F
100
AcDbEntity
  8
LC-001-100-D00-0
 62
     7
370
    50
100
AcDbLine
 10
290.314969
 20
477.966873
 30
0.0
 11
284.314957
 21
477.966873
 31
0.0
  0
LINE
  5
45C
330
1F
100
AcDbEntity
  8
LC-001-100-D00-0
 62
     7
370
    50
100
AcDbLine
 10
291.314957
 20
476.966873
 30
0.0
 11
290.314969
 21
477.966873
 31
0.0
  0
LINE
  5
45D
330
1F
100
AcDbEntity
  8
LC-001-100-D00-0
 62
     7
370
    50
100
AcDbLine
 10
291.314968
 20
462.366873
 30
0.0
 11
291.314957
 21
476.966873
 31
0.0
  0
ARC
  5
45E
330
1F
100
AcDbEntity
  8
LC-001-100-D00-0
 62
     7
370
    50
100
AcDbCircle
 10
292.314968
 20
460.866873
 30
0.0
 40
1.802775637731868
100
AcDbArc
 50
123.690068
 51
236.309932
  0
LINE
  5
45F
330
1F
100
AcDbEntity
  8
LC-001-100-D00-0
 62
     7
370
    50
100
AcDbLine
 10
291.81498
 20
459.366874
 30
0.0
 11
291.314968
 21
459.366873
 31
0.0
  0
LINE
  5
460
330
1F
100
AcDbEntity
  8
LC-001-100-D00-0
 62
     7
370
    50
100
AcDbLine
 10
291.81498
 20
459.366874
 30
0.0
 11
291.81498
 21
457.966873
 31
0.0
  0
LINE
  5
461
330
1F
100
AcDbEntity
  8
LC-001-100-D00-0
 62
     7
370
    50
100
AcDbLine
 10
291.81498
 20
457.966873
 30
0.0
 11
309.314968
 21
457.966873
 31
0.0
  0
ARC
  5
462
330
1F
100
AcDbEntity
  8
LC-001-100-D00-0
 62
     7
370
    50
100
AcDbCircle
 10
309.314968
 20
465.966873
 30
0.0
 40
8.0
100
AcDbArc
 50
270.0
 51
0.0
  0
LINE
  5
463
330
1F
100
AcDbEntity
  8
LC-001-100-D00-0
 62
     7
370
    50
100
AcDbLine
 10
317.314968
 20
465.966873
 30
0.0
 11
317.314968
 21
475.466873
 31
0.0
  0
ARC
  5
464
330
1F
100
AcDbEntity
  8
LC-001-100-D00-0
 62
     7
370
    50
100
AcDbCircle
 10
320.314968
 20
475.466873
 30
0.0
 40
3.0
100
AcDbArc
 50
90.0
 51
180.0
  0
LINE
  5
465
330
1F
100
AcDbEntity
  8
LC-001-100-D00-0
 62
     7
370
    50
100
AcDbLine
 10
367.314968
 20
478.466873
 30
0.0
 11
320.314968
 21
478.466873
 31
0.0
  0
LINE
  5
466
330
1F
100
AcDbEntity
  8
LC-001-100-D00-0
 62
     7
370
    50
100
AcDbLine
 10
367.314962
 20
476.966873
 30
0.0
 11
367.314968
 21
478.466873
 31
0.0
  0
LINE
  5
467
330
1F
100
AcDbEntity
  8
LC-001-100-D00-0
 62
     7
370
    50
100
AcDbLine
 10
367.314962
 20
476.966873
 30
0.0
 11
320.314968
 21
476.966873
 31
0.0
  0
ARC
  5
468
330
1F
100
AcDbEntity
  8
LC-001-100-D00-0
 62
     7
370
    50
100
AcDbCircle
 10
320.314968
 20
475.466873
 30
0.0
 40
1.5
100
AcDbArc
 50
90.0
 51
180.0
  0
LINE
  5
469
330
1F
100
AcDbEntity
  8
LC-001-100-D00-0
 62
     7
370
    50
100
AcDbLine
 10
318.814968
 20
465.966873
 30
0.0
 11
318.814968
 21
475.466873
 31
0.0
  0
ARC
  5
46A
330
1F
100
AcDbEntity
  8
LC-001-100-D00-0
 62
     7
370
    50
100
AcDbCircle
 10
309.314968
 20
465.966873
 30
0.0
 40
9.5
100
AcDbArc
 50
270.0
 51
0.0
  0
LINE
  5
46B
330
1F
100
AcDbEntity
  8
LC-001-100-D00-0
 62
     7
370
    50
100
AcDbLine
 10
111.304353
 20
456.466873
 30
0.0
 11
309.314968
 21
456.466873
 31
0.0
  0
ARC
  5
46C
330
1F
100
AcDbEntity
  8
LC-001-100-D00-0
 62
     7
370
    50
100
AcDbCircle
 10
111.304353
 20
453.966873
 30
0.0
 40
2.5
100
AcDbArc
 50
90.0
 51
105.0
  0
LINE
  5
46D
330
1F
100
AcDbEntity
  8
LC-001-100-D00-0
 62
     7
370
    50
100
AcDbLine
 10
110.657305
 20
456.381688
 30
0.0
 11
92.823634
 21
451.60317
 31
0.0
  0
ARC
  5
46E
330
1F
100
AcDbEntity
  8
LC-001-100-D00-0
 62
     7
370
    50
100
AcDbCircle
 10
91.788358
 20
455.466873
 30
0.0
 40
4.0
100
AcDbArc
 50
270.0
 51
285.0
  0
LINE
  5
46F
330
1F
100
AcDbEntity
  8
LC-001-100-D00-0
 62
     7
370
    50
100
AcDbLine
 10
91.788358
 20
451.466873
 30
0.0
 11
75.114968
 21
451.466873
 31
0.0
  0
ARC
  5
470
330
1F
100
AcDbEntity
  8
LC-001-100-D00-0
 62
     7
370
    50
100
AcDbCircle
 10
75.114968
 20
450.466873
 30
0.0
 40
1.0
100
AcDbArc
 50
90.0
 51
180.0
  0
LINE
  5
471
330
1F
100
AcDbEntity
  8
LC-001-100-D00-0
 62
     7
370
    50
100
AcDbLine
 10
74.114968
 20
450.466873
 30
0.0
 11
74.114968
 21
446.466872
 31
0.0
  0
LINE
  5
472
330
1F
100
AcDbEntity
  8
LC-001-100-D00-0
 62
     7
370
    50
100
AcDbLine
 10
74.114968
 20
446.466872
 30
0.0
 11
72.614968
 21
446.466873
 31
0.0
  0
LINE
  5
473
330
1F
100
AcDbEntity
  8
LC-001-100-D00-0
 62
     7
370
    50
100
AcDbLine
 10
72.614968
 20
450.466873
 30
0.0
 11
72.614968
 21
446.466873
 31
0.0
  0
ARC
  5
474
330
1F
100
AcDbEntity
  8
LC-001-100-D00-0
 62
     7
370
    50
100
AcDbCircle
 10
75.114968
 20
450.466873
 30
0.0
 40
2.5
100
AcDbArc
 50
90.0
 51
180.0
  0
LINE
  5
475
330
1F
100
AcDbEntity
  8
LC-001-100-D00-0
 62
     7
370
    50
100
AcDbLine
 10
91.788358
 20
452.966873
 30
0.0
 11
75.114968
 21
452.966873
 31
0.0
  0
ARC
  5
476
330
1F
100
AcDbEntity
  8
LC-001-100-D00-0
 62
     7
370
    50
100
AcDbCircle
 10
91.788358
 20
455.466873
 30
0.0
 40
2.5
100
AcDbArc
 50
270.0
 51
285.0
  0
LINE
  5
477
330
1F
100
AcDbEntity
  8
LC-001-100-D00-0
 62
     7
370
    50
100
AcDbLine
 10
61.708851
 20
452.966873
 30
0.0
 11
75.114968
 21
452.966873
 31
0.0
  0
LINE
  5
478
330
1F
100
AcDbEntity
  8
LC-001-100-D00-0
 62
     7
370
    50
100
AcDbLine
 10
72.614968
 20
446.466873
 30
0.0
 11
72.414968
 21
446.466873
 31
0.0
  0
LINE
  5
479
330
1F
100
AcDbEntity
  8
LC-001-100-D00-0
 62
     7
370
    50
100
AcDbLine
 10
-37.785032
 20
446.466873
 30
0.0
 11
-37.985032
 21
446.466873
 31
0.0
  0
LINE
  5
47A
330
1F
100
AcDbEntity
  8
LC-001-100-D00-0
 62
     7
370
    50
100
AcDbLine
 10
-37.985032
 20
446.466873
 30
0.0
 11
-37.985032
 21
450.466873
 31
0.0
  0
LINE
  5
47B
330
1F
100
AcDbEntity
  8
LC-001-100-D00-0
 62
     7
370
    50
100
AcDbLine
 10
-39.485033
 20
446.466872
 30
0.0
 11
-39.485032
 21
450.466873
 31
0.0
  0
LINE
  5
47C
330
1F
100
AcDbEntity
  8
LC-001-100-D00-0
 62
     7
370
    50
100
AcDbLine
 10
-27.078916
 20
452.966873
 30
0.0
 11
-40.485032
 21
452.966873
 31
0.0
  0
ARC
  5
47D
330
1F
100
AcDbEntity
  8
LC-001-100-D00-0
 62
     7
370
    50
100
AcDbCircle
 10
-40.485032
 20
450.466873
 30
0.0
 40
2.5
100
AcDbArc
 50
0.0
 51
90.0
  0
ARC
  5
47E
330
1F
100
AcDbEntity
  8
LC-001-100-D00-0
 62
     7
370
    50
100
AcDbCircle
 10
-40.485032
 20
450.466873
 30
0.0
 40
1.000000000000114
100
AcDbArc
 50
0.0
 51
90.0
  0
LINE
  5
47F
330
1F
100
AcDbEntity
  8
LC-001-100-D00-0
 62
     7
370
    50
100
AcDbLine
 10
-256.685022
 20
476.966873
 30
0.0
 11
-256.685032
 21
462.366873
 31
0.0
  0
LINE
  5
480
330
1F
100
AcDbEntity
  8
LC-001-100-D00-0
 62
     7
370
    50
100
AcDbLine
 10
-255.685034
 20
477.966873
 30
0.0
 11
-256.685022
 21
476.966873
 31
0.0
  0
LINE
  5
481
330
1F
100
AcDbEntity
  8
LC-001-100-D00-0
 62
     7
370
    50
100
AcDbLine
 10
-249.685022
 20
477.966873
 30
0.0
 11
-255.685034
 21
477.966873
 31
0.0
  0
LINE
  5
482
330
1F
100
AcDbEntity
  8
LC-001-100-D00-0
 62
     7
370
    50
100
AcDbLine
 10
-248.685035
 20
476.966873
 30
0.0
 11
-249.685022
 21
477.966873
 31
0.0
  0
LINE
  5
483
330
1F
100
AcDbEntity
  8
LC-001-100-D00-0
 62
     7
370
    50
100
AcDbLine
 10
-248.685032
 20
462.366873
 30
0.0
 11
-248.685035
 21
476.966873
 31
0.0
  0
ARC
  5
484
330
1F
100
AcDbEntity
  8
LC-001-100-D00-0
 62
     7
370
    50
100
AcDbCircle
 10
-247.685032
 20
460.866873
 30
0.0
 40
1.802775637731868
100
AcDbArc
 50
123.690068
 51
236.309932
  0
LINE
  5
485
330
1F
100
AcDbEntity
  8
LC-001-100-D00-0
 62
     7
370
    50
100
AcDbLine
 10
-248.185042
 20
459.366874
 30
0.0
 11
-248.685032
 21
459.366873
 31
0.0
  0
LINE
  5
486
330
1F
100
AcDbEntity
  8
LC-001-100-D00-0
 62
     7
370
    50
100
AcDbLine
 10
-248.185042
 20
459.366874
 30
0.0
 11
-248.185042
 21
457.966873
 31
0.0
  0
LINE
  5
487
330
1F
100
AcDbEntity
  8
LC-001-100-D00-0
 62
     7
370
    50
100
AcDbLine
 10
-248.185042
 20
457.966873
 30
0.0
 11
-87.185036
 21
457.966873
 31
0.0
  0
LINE
  5
488
330
1F
100
AcDbEntity
  8
LC-001-100-D00-0
 62
     7
370
    50
100
AcDbLine
 10
-87.185036
 20
457.966873
 30
0.0
 11
-87.185036
 21
459.366874
 31
0.0
  0
LINE
  5
489
330
1F
100
AcDbEntity
  8
LC-001-100-D00-0
 62
     7
370
    50
100
AcDbLine
 10
-86.685032
 20
459.366873
 30
0.0
 11
-87.185036
 21
459.366874
 31
0.0
  0
ARC
  5
48A
330
1F
100
AcDbEntity
  8
LC-001-100-D00-0
 62
     7
370
    50
100
AcDbCircle
 10
-87.685032
 20
460.866873
 30
0.0
 40
1.802775637732184
100
AcDbArc
 50
303.690068
 51
56.309932
  0
LINE
  5
48B
330
1F
100
AcDbEntity
  8
LC-001-100-D00-0
 62
     7
370
    50
100
AcDbLine
 10
-86.685035
 20
476.966873
 30
0.0
 11
-86.685032
 21
462.366873
 31
0.0
  0
LINE
  5
48C
330
1F
100
AcDbEntity
  8
LC-001-100-D00-0
 62
     7
370
    50
100
AcDbLine
 10
-85.685033
 20
477.966873
 30
0.0
 11
-86.685035
 21
476.966873
 31
0.0
  0
LINE
  5
48D
330
1F
100
AcDbEntity
  8
LC-001-100-D00-0
 62
     7
370
    50
100
AcDbLine
 10
-79.685035
 20
477.966873
 30
0.0
 11
-85.685033
 21
477.966873
 31
0.0
  0
LINE
  5
48E
330
1F
100
AcDbEntity
  8
LC-001-100-D00-0
 62
     7
370
    50
100
AcDbLine
 10
-78.685033
 20
476.966873
 30
0.0
 11
-79.685035
 21
477.966873
 31
0.0
  0
LINE
  5
48F
330
1F
100
AcDbEntity
  8
LC-001-100-D00-0
 62
     7
370
    50
100
AcDbLine
 10
-78.685032
 20
462.366873
 30
0.0
 11
-78.685033
 21
476.966873
 31
0.0
  0
ARC
  5
490
330
1F
100
AcDbEntity
  8
LC-001-100-D00-0
 62
     7
370
    50
100
AcDbCircle
 10
-77.685032
 20
460.866873
 30
0.0
 40
1.802775637732121
100
AcDbArc
 50
123.690068
 51
236.309932
  0
LINE
  5
491
330
1F
100
AcDbEntity
  8
LC-001-100-D00-0
 62
     7
370
    50
100
AcDbLine
 10
-78.185032
 20
459.366874
 30
0.0
 11
-78.685032
 21
459.366873
 31
0.0
  0
LINE
  5
492
330
1F
100
AcDbEntity
  8
LC-001-100-D00-0
 62
     7
370
    50
100
AcDbLine
 10
-78.185032
 20
459.366874
 30
0.0
 11
-78.185032
 21
457.966873
 31
0.0
  0
LINE
  5
493
330
1F
100
AcDbEntity
  8
LC-001-100-D00-0
 62
     7
370
    50
100
AcDbLine
 10
-78.185032
 20
457.966873
 30
0.0
 11
-76.674418
 21
457.966873
 31
0.0
  0
ARC
  5
494
330
1F
100
AcDbEntity
  8
LC-001-100-D00-0
 62
     7
370
    50
100
AcDbCircle
 10
-76.674418
 20
453.966873
 30
0.0
 40
4.000000000000092
100
AcDbArc
 50
75.0
 51
90.0
  0
LINE
  5
495
330
1F
100
AcDbEntity
  8
LC-001-100-D00-0
 62
     7
370
    50
100
AcDbLine
 10
-57.80547
 20
453.052059
 30
0.0
 11
-75.639142
 21
457.830576
 31
0.0
  0
ARC
  5
496
330
1F
100
AcDbEntity
  8
LC-001-100-D00-0
 62
     7
370
    50
100
AcDbCircle
 10
-57.158423
 20
455.466873
 30
0.0
 40
2.500000000000062
100
AcDbArc
 50
255.0
 51
270.0
  0
LINE
  5
497
330
1F
100
AcDbEntity
  8
LC-001-100-D00-0
 62
     7
370
    50
100
AcDbLine
 10
-51.762241
 20
452.866874
 30
0.0
 11
-51.762241
 21
452.966874
 31
0.0
  0
LINE
  5
498
330
1F
100
AcDbEntity
  8
LC-001-100-D00-0
 62
     7
370
    50
100
AcDbLine
 10
-51.238406
 20
452.866874
 30
0.0
 11
-51.762241
 21
452.866874
 31
0.0
  0
LINE
  5
499
330
1F
100
AcDbEntity
  8
LC-001-100-D00-0
 62
     7
370
    50
100
AcDbLine
 10
-51.238406
 20
452.966874
 30
0.0
 11
-51.238406
 21
452.866874
 31
0.0
  0
LINE
  5
49A
330
1F
100
AcDbEntity
  8
LC-001-100-D00-0
 62
     7
370
    50
100
AcDbLine
 10
-50.544161
 20
452.866874
 30
0.0
 11
-50.544161
 21
452.966874
 31
0.0
  0
LINE
  5
49B
330
1F
100
AcDbEntity
  8
LC-001-100-D00-0
 62
     7
370
    50
100
AcDbLine
 10
-50.019811
 20
452.866874
 30
0.0
 11
-50.544161
 21
452.866874
 31
0.0
  0
LINE
  5
49C
330
1F
100
AcDbEntity
  8
LC-001-100-D00-0
 62
     7
370
    50
100
AcDbLine
 10
-50.019811
 20
452.966874
 30
0.0
 11
-50.019811
 21
452.866874
 31
0.0
  0
LINE
  5
49D
330
1F
100
AcDbEntity
  8
LC-001-100-D00-0
 62
     7
370
    50
100
AcDbLine
 10
-37.985032
 20
446.466873
 30
0.0
 11
-39.485033
 21
446.466872
 31
0.0
  0
ARC
  5
49E
330
1F
100
AcDbEntity
  8
LC-001-100-D00-0
 62
     7
370
    50
100
AcDbCircle
 10
-57.158423
 20
455.466873
 30
0.0
 40
4.000000000000122
100
AcDbArc
 50
255.0
 51
270.0
  0
LINE
  5
49F
330
1F
100
AcDbEntity
  8
LC-001-100-D00-0
 62
     7
370
    50
100
AcDbLine
 10
-58.193699
 20
451.60317
 30
0.0
 11
-76.02737
 21
456.381688
 31
0.0
  0
ARC
  5
4A0
330
1F
100
AcDbEntity
  8
LC-001-100-D00-0
 62
     7
370
    50
100
AcDbCircle
 10
-76.674418
 20
453.966873
 30
0.0
 40
2.500000000000062
100
AcDbArc
 50
75.0
 51
90.0
  0
LINE
  5
4A1
330
1F
100
AcDbEntity
  8
LC-001-100-D00-0
 62
     7
370
    50
100
AcDbLine
 10
-274.685032
 20
456.466873
 30
0.0
 11
-76.674418
 21
456.466873
 31
0.0
  0
ARC
  5
4A2
330
1F
100
AcDbEntity
  8
LC-001-100-D00-0
 62
     7
370
    50
100
AcDbCircle
 10
-274.685032
 20
465.966873
 30
0.0
 40
9.500000000000114
100
AcDbArc
 50
180.0
 51
270.0
  0
LINE
  5
4A3
330
1F
100
AcDbEntity
  8
LC-001-100-D00-0
 62
     7
370
    50
100
AcDbLine
 10
-284.185032
 20
475.466873
 30
0.0
 11
-284.185032
 21
465.966873
 31
0.0
  0
ARC
  5
4A4
330
1F
100
AcDbEntity
  8
LC-001-100-D00-0
 62
     7
370
    50
100
AcDbCircle
 10
-285.685032
 20
475.466873
 30
0.0
 40
1.500000000000057
100
AcDbArc
 50
0.0
 51
90.0
  0
LINE
  5
4A5
330
1F
100
AcDbEntity
  8
LC-001-100-D00-0
 62
     7
370
    50
100
AcDbLine
 10
-332.685032
 20
478.466873
 30
0.0
 11
-332.685027
 21
476.966873
 31
0.0
  0
ARC
  5
4A6
330
1F
100
AcDbEntity
  8
LC-001-100-D00-0
 62
     7
370
    50
100
AcDbCircle
 10
-285.685032
 20
475.466873
 30
0.0
 40
3.0
100
AcDbArc
 50
0.0
 51
90.0
  0
LINE
  5
4A7
330
1F
100
AcDbEntity
  8
LC-001-100-D00-0
 62
     7
370
    50
100
AcDbLine
 10
-282.685032
 20
475.466873
 30
0.0
 11
-282.685032
 21
465.966873
 31
0.0
  0
ARC
  5
4A8
330
1F
100
AcDbEntity
  8
LC-001-100-D00-0
 62
     7
370
    50
100
AcDbCircle
 10
-274.685032
 20
465.966873
 30
0.0
 40
8.0
100
AcDbArc
 50
180.0
 51
270.0
  0
LINE
  5
4A9
330
1F
100
AcDbEntity
  8
LC-001-100-D00-0
 62
     7
370
    50
100
AcDbLine
 10
-274.685032
 20
457.966873
 30
0.0
 11
-257.185045
 21
457.966873
 31
0.0
  0
LINE
  5
4AA
330
1F
100
AcDbEntity
  8
LC-001-100-D00-0
 62
     7
370
    50
100
AcDbLine
 10
-257.185045
 20
457.966873
 30
0.0
 11
-257.185045
 21
459.366874
 31
0.0
  0
LINE
  5
4AB
330
1F
100
AcDbEntity
  8
LC-001-100-D00-0
 62
     7
370
    50
100
AcDbLine
 10
-256.685032
 20
459.366873
 30
0.0
 11
-257.185045
 21
459.366874
 31
0.0
  0
ARC
  5
4AC
330
1F
100
AcDbEntity
  8
LC-001-100-D00-0
 62
     7
370
    50
100
AcDbCircle
 10
-257.685032
 20
460.866873
 30
0.0
 40
1.802775637731837
100
AcDbArc
 50
303.690068
 51
56.309932
  0
LINE
  5
4AD
330
1F
100
AcDbEntity
  8
LC-001-100-D00-0
 62
     7
370
    50
100
AcDbLine
 10
-40.485032
 20
451.466873
 30
0.0
 11
-57.158423
 21
451.466873
 31
0.0
  0
LINE
  5
4AE
330
1F
100
AcDbEntity
  8
LC-001-100-D00-0
 62
     7
370
    50
100
AcDbLine
 10
-50.544161
 20
452.966874
 30
0.0
 11
-51.238406
 21
452.966874
 31
0.0
  0
LINE
  5
4AF
330
1F
100
AcDbEntity
  8
LC-001-100-D00-0
 62
     7
370
    50
100
AcDbLine
 10
-51.762241
 20
452.966874
 30
0.0
 11
-57.158423
 21
452.966873
 31
0.0
  0
LINE
  5
4B0
330
1F
100
AcDbEntity
  8
LC-001-100-D00-0
 62
     7
370
    50
100
AcDbLine
 10
-40.485032
 20
452.966873
 30
0.0
 11
-50.019811
 21
452.966874
 31
0.0
  0
LINE
  5
4B1
330
1F
100
AcDbEntity
  8
LC-001-100-D00-0
 62
     7
370
    50
100
AcDbLine
 10
-285.685032
 20
478.466873
 30
0.0
 11
-332.685032
 21
478.466873
 31
0.0
  0
LINE
  5
4B2
330
1F
100
AcDbEntity
  8
LC-001-100-D00-0
 62
     7
370
    50
100
AcDbLine
 10
-285.685032
 20
476.966873
 30
0.0
 11
-332.685027
 21
476.966873
 31
0.0
  0
LINE
  5
4B3
330
1F
100
AcDbEntity
  8
LC-001-100-D00-0
 62
     7
370
    50
100
AcDbLine
 10
-50.544161
 20
452.966874
 30
0.0
 11
-50.019811
 21
452.966874
 31
0.0
  0
LINE
  5
4B4
330
1F
100
AcDbEntity
  8
LC-001-100-D00-0
 62
     7
370
    50
100
AcDbLine
 10
-51.762241
 20
452.966874
 30
0.0
 11
-51.238406
 21
452.966874
 31
0.0
  0
ELLIPSE
  5
4B5
330
1F
100
AcDbEntity
  8
LC-001-100-D00-0
 62
     7
370
    50
100
AcDbEllipse
 10
172.336785
 20
453.966873
 30
0.0
 11
0.0
 21
-2.500000155448909
 31
0.0
210
0.0
220
0.0
230
1.0
 40
0.027578
 41
0.0000000000086571
 42
0.3217505544028101
  0
ELLIPSE
  5
4B6
330
1F
100
AcDbEntity
  8
LC-001-100-D00-0
 62
     7
370
    50
100
AcDbEllipse
 10
-137.70685
 20
453.966873
 30
0.0
 11
0.0
 21
-2.5
 31
0.0
210
0.0
220
0.0
230
0.9999999999999999
 40
0.027578
 41
5.961434752785983
 42
6.283185307181236
  0
LINE
  5
4B7
330
1F
100
AcDbEntity
  8
LC-001-100-D00-0
 62
     7
370
    50
100
AcDbLine
 10
172.314969
 20
456.33822
 30
0.0
 11
172.314969
 21
451.672833
 31
0.0
  0
LINE
  5
4B8
330
1F
100
AcDbEntity
  8
LC-001-100-D00-0
 62
     7
370
    50
100
AcDbLine
 10
-137.685034
 20
456.33822
 30
0.0
 11
-137.685034
 21
451.672833
 31
0.0
  0
INSERT
  5
4C2
330
1F
100
AcDbEntity
  8
LC-001-100-D00-0
 62
     7
370
    50
100
AcDbBlockReference
  2
KLON18
 10
0.0
 20
0.0
 30
0.0
  0
INSERT
  5
4CC
330
1F
100
AcDbEntity
  8
LC-001-100-D00-0
 62
     7
370
    50
100
AcDbBlockReference
  2
KLON19
 10
0.0
 20
0.0
 30
0.0
  0
LINE
  5
4CD
330
1F
100
AcDbEntity
  8
LC-001-100-D00-0
 62
     7
370
    50
100
AcDbLine
 10
172.314954
 20
451.466872
 30
0.0
 11
172.314939
 21
451.67214
 31
0.0
  0
LINE
  5
4CE
330
1F
100
AcDbEntity
  8
LC-001-100-D00-0
 62
     7
370
    50
100
AcDbLine
 10
172.314969
 20
451.466872
 30
0.0
 11
300.222662
 21
456.135037
 31
0.0
  0
LINE
  5
4CF
330
1F
100
AcDbEntity
  8
LC-001-100-D00-0
 62
     7
370
    50
100
AcDbLine
 10
172.314954
 20
451.466872
 30
0.0
 11
172.314954
 21
451.466872
 31
0.0
  0
LINE
  5
4D0
330
1F
100
AcDbEntity
  8
LC-001-100-D00-0
 62
     7
370
    50
100
AcDbLine
 10
-137.685019
 20
451.466872
 30
0.0
 11
-137.685004
 21
451.67214
 31
0.0
  0
LINE
  5
4D1
330
1F
100
AcDbEntity
  8
LC-001-100-D00-0
 62
     7
370
    50
100
AcDbLine
 10
-137.685034
 20
451.466872
 30
0.0
 11
-265.592727
 21
456.135037
 31
0.0
  0
LINE
  5
4D2
330
1F
100
AcDbEntity
  8
LC-001-100-D00-0
 62
     7
370
    50
100
AcDbLine
 10
-137.685019
 20
451.466872
 30
0.0
 11
-137.685019
 21
451.466872
 31
0.0
  0
LINE
  5
4D3
330
1F
100
AcDbEntity
  8
LC-001-100-D00-0
 62
     7
370
    50
100
AcDbLine
 10
59.101124
 20
444.466873
 30
0.0
 11
61.402834
 21
444.466873
 31
0.0
  0
LINE
  5
4D4
330
1F
100
AcDbEntity
  8
LC-001-100-D00-0
 62
     7
370
    50
100
AcDbLine
 10
62.464883
 20
442.966873
 30
0.0
 11
62.56047
 21
442.974933
 31
0.0
  0
LINE
  5
4D5
330
1F
100
AcDbEntity
  8
LC-001-100-D00-0
 62
     7
370
    50
100
AcDbLine
 10
62.464883
 20
442.966873
 30
0.0
 11
59.101124
 21
442.966873
 31
0.0
  0
LINE
  5
4D6
330
1F
100
AcDbEntity
  8
LC-001-100-D00-0
 62
     7
370
    50
100
AcDbLine
 10
-27.930535
 20
442.974933
 30
0.0
 11
-27.834948
 21
442.966873
 31
0.0
  0
LINE
  5
4D7
330
1F
100
AcDbEntity
  8
LC-001-100-D00-0
 62
     7
370
    50
100
AcDbLine
 10
-26.772899
 20
444.466873
 30
0.0
 11
-24.471189
 21
444.466873
 31
0.0
  0
LINE
  5
4D8
330
1F
100
AcDbEntity
  8
LC-001-100-D00-0
 62
     7
370
    50
100
AcDbLine
 10
-24.471189
 20
442.966873
 30
0.0
 11
-27.834948
 21
442.966873
 31
0.0
  0
LINE
  5
4D9
330
1F
100
AcDbEntity
  8
LC-001-100-D00-0
 62
     7
370
    50
100
AcDbLine
 10
59.101124
 20
444.466873
 30
0.0
 11
58.324196
 21
444.466873
 31
0.0
  0
LINE
  5
4DA
330
1F
100
AcDbEntity
  8
LC-001-100-D00-0
 62
     7
370
    50
100
AcDbLine
 10
59.101124
 20
442.966873
 30
0.0
 11
58.324196
 21
442.966873
 31
0.0
  0
LINE
  5
4DB
330
1F
100
AcDbEntity
  8
LC-001-100-D00-0
 62
     7
370
    50
100
AcDbLine
 10
-24.471189
 20
444.466873
 30
0.0
 11
-23.694261
 21
444.466873
 31
0.0
  0
LINE
  5
4DC
330
1F
100
AcDbEntity
  8
LC-001-100-D00-0
 62
     7
370
    50
100
AcDbLine
 10
-24.471189
 20
442.966873
 30
0.0
 11
-23.694261
 21
442.966873
 31
0.0
  0
LINE
  5
4DD
330
1F
100
AcDbEntity
  8
LC-001-100-D00-0
 62
     7
370
    50
100
AcDbLine
 10
91.788358
 20
451.466873
 30
0.0
 11
93.888958
 21
451.466872
 31
0.0
  0
LINE
  5
4DE
330
1F
100
AcDbEntity
  8
LC-001-100-D00-0
 62
     7
370
    50
100
AcDbLine
 10
-57.158423
 20
451.466873
 30
0.0
 11
-59.259023
 21
451.466872
 31
0.0
  0
LINE
  5
4DF
330
1F
100
AcDbEntity
  8
LC-001-100-D00-0
 62
     7
370
    50
100
AcDbLine
 10
57.053769
 20
444.466873
 30
0.0
 11
58.324196
 21
444.466873
 31
0.0
  0
LINE
  5
4E0
330
1F
100
AcDbEntity
  8
LC-001-100-D00-0
 62
     7
370
    50
100
AcDbLine
 10
58.324196
 20
442.966873
 30
0.0
 11
57.029383
 21
442.966873
 31
0.0
  0
LINE
  5
4E1
330
1F
100
AcDbEntity
  8
LC-001-100-D00-0
 62
     7
370
    50
100
AcDbLine
 10
-23.694261
 20
444.466873
 30
0.0
 11
-22.423834
 21
444.466873
 31
0.0
  0
LINE
  5
4E2
330
1F
100
AcDbEntity
  8
LC-001-100-D00-0
 62
     7
370
    50
100
AcDbLine
 10
-22.399448
 20
442.966873
 30
0.0
 11
-23.694261
 21
442.966873
 31
0.0
  0
LINE
  5
4E3
330
1F
100
AcDbEntity
  8
LC-001-100-D00-0
 62
     7
370
    50
100
AcDbLine
 10
93.888958
 20
451.466872
 30
0.0
 11
111.814764
 21
451.466872
 31
0.0
  0
LINE
  5
4E4
330
1F
100
AcDbEntity
  8
LC-001-100-D00-0
 62
     7
370
    50
100
AcDbLine
 10
129.997221
 20
451.466872
 30
0.0
 11
172.314954
 21
451.466872
 31
0.0
  0
LINE
  5
4E5
330
1F
100
AcDbEntity
  8
LC-001-100-D00-0
 62
     7
370
    50
100
AcDbLine
 10
-59.259023
 20
451.466872
 30
0.0
 11
-137.685019
 21
451.466872
 31
0.0
  0
ARC
  5
4E6
330
1F
100
AcDbEntity
  8
LC-001-100-D00-0
 62
     7
370
    50
100
AcDbCircle
 10
61.830595
 20
444.401024
 30
0.0
 40
1.60201493998938
100
AcDbArc
 50
297.103406
 51
2.355668
  0
INSERT
  5
4EF
330
1F
100
AcDbEntity
  8
LC-001-100-D00-0
 62
     7
370
    50
100
AcDbBlockReference
  2
KLON20
 10
0.0
 20
0.0
 30
0.0
  0
INSERT
  5
4FC
330
1F
100
AcDbEntity
  8
LC-001-100-D00-0
 62
     7
370
    50
100
AcDbBlockReference
  2
KLON21
 10
0.0
 20
0.0
 30
0.0
  0
INSERT
  5
509
330
1F
100
AcDbEntity
  8
LC-001-100-D00-0
 62
     7
370
    50
100
AcDbBlockReference
  2
KLON22
 10
0.0
 20
0.0
 30
0.0
  0
LINE
  5
50A
330
1F
100
AcDbEntity
  8
LC-001-100-D00-0
 62
     7
370
    50
100
AcDbLine
 10
314.814968
 20
478.466873
 30
0.0
 11
320.314968
 21
478.466873
 31
0.0
  0
LINE
  5
50B
330
1F
100
AcDbEntity
  8
LC-001-100-D00-0
 62
     7
370
    50
100
AcDbLine
 10
-280.185032
 20
478.466873
 30
0.0
 11
-285.685032
 21
478.466873
 31
0.0
  0
LINE
  5
50C
330
1F
100
AcDbEntity
  8
LC-001-100-D00-0
 62
     7
370
    50
100
AcDbLine
 10
314.814968
 20
478.466873
 30
0.0
 11
304.564968
 21
478.466873
 31
0.0
  0
LINE
  5
50D
330
1F
100
AcDbEntity
  8
LC-001-100-D00-0
 62
     7
370
    50
100
AcDbLine
 10
270.064968
 20
478.466873
 30
0.0
 11
134.564968
 21
478.466873
 31
0.0
  0
LINE
  5
50E
330
1F
100
AcDbEntity
  8
LC-001-100-D00-0
 62
     7
370
    50
100
AcDbLine
 10
100.064968
 20
478.466873
 30
0.0
 11
-65.435032
 21
478.466873
 31
0.0
  0
LINE
  5
50F
330
1F
100
AcDbEntity
  8
LC-001-100-D00-0
 62
     7
370
    50
100
AcDbLine
 10
-99.935032
 20
478.466873
 30
0.0
 11
-235.435032
 21
478.466873
 31
0.0
  0
LINE
  5
510
330
1F
100
AcDbEntity
  8
LC-001-100-D00-0
 62
     7
370
    50
100
AcDbLine
 10
-269.935032
 20
478.466873
 30
0.0
 11
-280.185032
 21
478.466873
 31
0.0
  0
LINE
  5
511
330
1F
100
AcDbEntity
  8
LC-001-100-D00-0
 62
     7
370
    50
100
AcDbLine
 10
-332.685032
 20
478.466873
 30
0.0
 11
-332.685032
 21
479.966873
 31
0.0
  0
LINE
  5
512
330
1F
100
AcDbEntity
  8
LC-001-100-D00-0
 62
     7
370
    50
100
AcDbLine
 10
367.314968
 20
479.966873
 30
0.0
 11
367.314968
 21
478.466873
 31
0.0
  0
ARC
  5
513
330
1F
100
AcDbEntity
  8
LC-001-100-D00-0
 62
     7
370
    50
100
AcDbCircle
 10
-327.685032
 20
518.466873
 30
0.0
 40
5.0
100
AcDbArc
 50
90.0
 51
180.0
  0
LINE
  5
514
330
1F
100
AcDbEntity
  8
LC-001-100-D00-0
 62
     7
370
    50
100
AcDbLine
 10
-327.685032
 20
523.466873
 30
0.0
 11
362.314968
 21
523.466873
 31
0.0
  0
ARC
  5
515
330
1F
100
AcDbEntity
  8
LC-001-100-D00-0
 62
     7
370
    50
100
AcDbCircle
 10
362.314968
 20
518.466873
 30
0.0
 40
5.0
100
AcDbArc
 50
0.0
 51
90.0
  0
LINE
  5
516
330
1F
100
AcDbEntity
  8
LC-001-100-D00-0
 62
     7
370
    50
100
AcDbLine
 10
-332.685032
 20
518.466873
 30
0.0
 11
-332.685032
 21
479.966873
 31
0.0
  0
LINE
  5
517
330
1F
100
AcDbEntity
  8
LC-001-100-D00-0
 62
     7
370
    50
100
AcDbLine
 10
367.314968
 20
518.466873
 30
0.0
 11
367.314968
 21
479.966873
 31
0.0
  0
DIMENSION
  5
518
330
1F
100
AcDbEntity
  8
LC-001-100-D00-0
 62
     7
370
    25
100
AcDbDimension
  2
*D27
 10
-376.106022
 20
523.466873
 30
0.0
 11
-431.106022
 21
502.428157
 31
0.0
 70
   160
  1
46
 71
     5
 42
45.0
 53
90.0
  3
LC-DIM-L-0100-02-02
100
AcDbAlignedDimension
 13
-332.685032
 23
478.466873
 33
0.0
 14
-327.685032
 24
523.466873
 34
0.0
 50
90.0
100
AcDbRotatedDimension
  0
DIMENSION
  5
527
330
1F
100
AcDbEntity
  8
LC-001-100-D00-0
 62
     7
370
    25
100
AcDbDimension
  2
*D28
 10
367.314968
 20
622.398361
 30
0.0
 11
16.649449
 21
677.398361
 31
0.0
 70
   160
  1
700
 71
     5
 42
700.0
  3
LC-DIM-L-0100-02-02
100
AcDbAlignedDimension
 13
-332.685032
 23
518.466873
 33
0.0
 14
367.314968
 24
518.466873
 34
0.0
100
AcDbRotatedDimension
  0
DIMENSION
  5
534
330
1F
100
AcDbEntity
  8
LC-001-100-D00-0
 62
     7
370
    25
100
AcDbDimension
  2
*D29
 10
317.314968
 20
545.915431
 30
0.0
 11
11.650811
 21
600.915431
 31
0.0
 70
   160
  1
600
 71
     5
 42
600.0
  3
LC-DIM-L-0100-02-02
100
AcDbAlignedDimension
 13
-282.685032
 23
475.466873
 33
0.0
 14
317.314968
 24
475.466873
 34
0.0
100
AcDbRotatedDimension
  0
DIMENSION
  5
541
330
1F
100
AcDbEntity
  8
LC-001-100-D00-0
 62
     7
370
    25
100
AcDbDimension
  2
*D30
 10
-129.275079
 20
436.966873
 30
0.0
 11
-184.275079
 21
383.858361
 31
0.0
 70
   160
  1
30
 71
     5
 42
30.0
 53
90.0
  3
LC-DIM-L-0100-02-02
100
AcDbAlignedDimension
 13
-11.685032
 23
406.966873
 33
0.0
 14
-17.764428
 24
436.966873
 34
0.0
 50
90.0
100
AcDbRotatedDimension
  0
DIMENSION
  5
54F
330
1F
100
AcDbEntity
  8
LC-001-100-D00-0
 62
     7
370
    25
100
AcDbDimension
  2
*D31
 10
226.814764
 20
293.273361
 30
0.0
 11
74.134869
 21
348.273361
 31
0.0
 70
   160
  1
284
 71
     5
 42
283.499797
  3
LC-DIM-L-0100-02-02
100
AcDbAlignedDimension
 13
-56.685032
 23
407.466873
 33
0.0
 14
226.814764
 24
396.904695
 34
0.0
100
AcDbRotatedDimension
  0
DIMENSION
  5
55C
330
1F
100
AcDbEntity
  8
LC-001-100-D00-0
 62
     7
370
    25
100
AcDbDimension
  2
*D32
 10
467.688899
 20
395.966873
 30
0.0
 11
412.688899
 21
547.208361
 31
0.0
 70
   160
  1
DN50
 71
     5
 42
50.0
 53
90.0
  3
LC-DIM-L-0100-02-02
100
AcDbAlignedDimension
 13
223.314764
 23
445.966873
 33
0.0
 14
223.314764
 24
395.966873
 34
0.0
 50
90.0
100
AcDbRotatedDimension
  0
DIMENSION
  5
56A
330
1F
100
AcDbEntity
  8
LC-001-100-D00-0
 62
     7
370
    25
100
AcDbDimension
  2
*D33
 10
582.65974
 20
420.966873
 30
0.0
 11
527.65974
 21
481.868361
 31
0.0
 70
   160
  1
57.5
 71
     5
 42
57.5
 53
90.0
  3
LC-DIM-L-0100-02-02
100
AcDbAlignedDimension
 13
367.314968
 23
478.466873
 33
0.0
 14
233.314764
 24
420.966873
 34
0.0
 50
90.0
100
AcDbRotatedDimension
  0
DIMENSION
  5
578
330
1F
100
AcDbEntity
  8
LC-001-100-D00-0
 62
     7
370
    25
100
AcDbDimension
  2
*D34
 10
677.73178
 20
388.466873
 30
0.0
 11
622.73178
 21
425.438361
 31
0.0
 70
   160
  1
90
 71
     5
 42
90.0
 53
90.0
  3
LC-DIM-L-0100-02-02
100
AcDbAlignedDimension
 13
367.314968
 23
478.466873
 33
0.0
 14
71.332847
 24
388.466873
 34
0.0
 50
90.0
100
AcDbRotatedDimension
  0
INSERT
  5
594
330
1F
100
AcDbEntity
  8
LC-001-100-D00-0
 62
     7
370
    25
100
AcDbBlockReference
  2
KLON23
 10
0.0
 20
0.0
 30
0.0
  0
INSERT
  5
59A
330
1F
100
AcDbEntity
  8
LC-001-100-D00-0
 62
     7
370
    25
100
AcDbBlockReference
  2
KLON24
 10
0.0
 20
0.0
 30
0.0
  0
LINE
  5
59B
330
1F
100
AcDbEntity
  8
LC-001-100-D00-0
 62
     7
370
    25
100
AcDbLine
 10
76.314968
 20
447.564498
 30
0.0
 11
80.217342
 21
451.466873
 31
0.0
  0
LINE
  5
59C
330
1F
100
AcDbEntity
  8
LC-001-100-D00-0
 62
     7
370
    25
100
AcDbLine
 10
-56.685032
 20
449.268335
 30
0.0
 11
-54.486495
 21
451.466873
 31
0.0
  0
INSERT
  5
5B0
330
1F
100
AcDbEntity
  8
LC-001-100-D00-0
 62
     7
370
    25
100
AcDbBlockReference
  2
KLON25
 10
0.0
 20
0.0
 30
0.0
  0
INSERT
  5
5C4
330
1F
100
AcDbEntity
  8
LC-001-100-D00-0
 62
     7
370
    25
100
AcDbBlockReference
  2
KLON26
 10
0.0
 20
0.0
 30
0.0
  0
INSERT
  5
5CB
330
1F
100
AcDbEntity
  8
LC-001-100-D00-0
 62
     7
370
    50
100
AcDbBlockReference
  2
KLON27
 10
0.0
 20
0.0
 30
0.0
  0
INSERT
  5
5D3
330
1F
100
AcDbEntity
  8
LC-001-100-D00-0
 62
     7
370
    25
100
AcDbBlockReference
  2
KLON28
 10
0.0
 20
0.0
 30
0.0
  0
INSERT
  5
5E0
330
1F
100
AcDbEntity
  8
LC-001-100-D00-0
 62
     7
370
    25
100
AcDbBlockReference
  2
KLON29
 10
0.0
 20
0.0
 30
0.0
  0
INSERT
  5
5E8
330
1F
100
AcDbEntity
  8
LC-001-100-D00-0
 62
     7
370
    25
100
AcDbBlockReference
  2
KLON30
 10
0.0
 20
0.0
 30
0.0
  0
INSERT
  5
5EE
330
1F
100
AcDbEntity
  8
LC-001-100-D00-0
 62
     7
370
    25
100
AcDbBlockReference
  2
KLON31
 10
0.0
 20
0.0
 30
0.0
  0
INSERT
  5
5F5
330
1F
100
AcDbEntity
  8
LC-001-100-D00-0
 62
     7
370
    25
100
AcDbBlockReference
  2
KLON32
 10
0.0
 20
0.0
 30
0.0
  0
LINE
  5
5F6
330
1F
100
AcDbEntity
  8
LC-001-100-D00-0
 62
     7
370
    25
100
AcDbLine
 10
121.214968
 20
470.01386
 30
0.0
 11
129.667979
 21
478.466873
 31
0.0
  0
LINE
  5
5F7
330
1F
100
AcDbEntity
  8
LC-001-100-D00-0
 62
     7
370
    50
100
AcDbLine
 10
110.964115
 20
459.763007
 30
0.0
 11
113.914968
 21
462.71386
 31
0.0
  0
INSERT
  5
5FE
330
1F
100
AcDbEntity
  8
LC-001-100-D00-0
 62
     7
370
    25
100
AcDbBlockReference
  2
KLON33
 10
0.0
 20
0.0
 30
0.0
  0
LINE
  5
5FF
330
1F
100
AcDbEntity
  8
LC-001-100-D00-0
 62
     7
370
    25
100
AcDbLine
 10
-78.785032
 20
472.069616
 30
0.0
 11
-72.387776
 21
478.466873
 31
0.0
  0
LINE
  5
600
330
1F
100
AcDbEntity
  8
LC-001-100-D00-0
 62
     7
370
    50
100
AcDbLine
 10
-87.885032
 20
462.969615
 30
0.0
 11
-86.085032
 21
464.769615
 31
0.0
  0
LINE
  5
601
330
1F
100
AcDbEntity
  8
LC-001-100-D00-0
 62
     7
370
    25
100
AcDbLine
 10
277.564968
 20
469.209384
 30
0.0
 11
283.414968
 21
475.059384
 31
0.0
  0
INSERT
  5
607
330
1F
100
AcDbEntity
  8
LC-001-100-D00-0
 62
     7
370
    25
100
AcDbBlockReference
  2
KLON34
 10
0.0
 20
0.0
 30
0.0
  0
LINE
  5
608
330
1F
100
AcDbEntity
  8
LC-001-100-D00-0
 62
     7
370
    50
100
AcDbLine
 10
290.994032
 20
460.187809
 30
0.0
 11
292.655729
 21
461.849505
 31
0.0
  0
LINE
  5
609
330
1F
100
AcDbEntity
  8
LC-001-100-D00-0
 62
     7
370
    25
100
AcDbLine
 10
-262.435032
 20
468.024732
 30
0.0
 11
-256.585032
 21
473.874732
 31
0.0
  0
INSERT
  5
60F
330
1F
100
AcDbEntity
  8
LC-001-100-D00-0
 62
     7
370
    25
100
AcDbBlockReference
  2
KLON35
 10
0.0
 20
0.0
 30
0.0
  0
LINE
  5
610
330
1F
100
AcDbEntity
  8
LC-001-100-D00-0
 62
     7
370
    50
100
AcDbLine
 10
-248.413642
 20
459.595482
 30
0.0
 11
-246.49828
 21
461.510844
 31
0.0
  0
LINE
  5
611
330
1F
100
AcDbEntity
  8
LC-001-100-D00-0
  6
DASHDOT
 62
     7
370
    25
100
AcDbLine
 10
-252.685032
 20
450.466873
 30
0.0
 11
-252.685032
 21
484.466873
 31
0.0
  0
LINE
  5
612
330
1F
100
AcDbEntity
  8
LC-001-100-D00-0
  6
DASHDOT
 62
     7
370
    25
100
AcDbLine
 10
-82.685032
 20
450.466873
 30
0.0
 11
-82.685032
 21
484.466873
 31
0.0
  0
LINE
  5
613
330
1F
100
AcDbEntity
  8
LC-001-100-D00-0
  6
DASHDOT
 62
     7
370
    25
100
AcDbLine
 10
17.314968
 20
523.466873
 30
0.0
 11
17.314968
 21
385.966873
 31
0.0
  0
LINE
  5
614
330
1F
100
AcDbEntity
  8
LC-001-100-D00-0
  6
DASHDOT
 62
     7
370
    25
100
AcDbLine
 10
117.314968
 20
450.466873
 30
0.0
 11
117.314968
 21
484.466873
 31
0.0
  0
LINE
  5
615
330
1F
100
AcDbEntity
  8
LC-001-100-D00-0
  6
DASHDOT
 62
     7
370
    25
100
AcDbLine
 10
233.314764
 20
420.966873
 30
0.0
 11
130.289749
 21
420.966873
 31
0.0
  0
LINE
  5
616
330
1F
100
AcDbEntity
  8
LC-001-100-D00-0
  6
DASHDOT
 62
     7
370
    25
100
AcDbLine
 10
287.314968
 20
450.466873
 30
0.0
 11
287.314968
 21
484.466873
 31
0.0
  0
ENDSEC
  0
SECTION
  2
OBJECTS
  0
DICTIONARY
  5
C
330
0
100
AcDbDictionary
281
     1
  3
ACAD_GROUP
350
D
  3
ACAD_LAYOUT
350
1A
  3
ACAD_MLINESTYLE
350
17
  3
ACAD_PLOTSETTINGS
350
19
  3
ACAD_PLOTSTYLENAME
350
E
  0
DICTIONARY
  5
D
102
{ACAD_REACTORS
330
C
102
}
330
C
100
AcDbDictionary
281
     1
  0
DICTIONARY
  5
1A
102
{ACAD_REACTORS
330
C
102
}
330
C
100
AcDbDictionary
281
     1
  3
Layout1
350
1E
  3
Layout2
350
26
  3
Model
350
22
  0
DICTIONARY
  5
17
102
{ACAD_REACTORS
330
C
102
}
330
C
100
AcDbDictionary
281
     1
  3
Standard
350
18
  0
DICTIONARY
  5
19
102
{ACAD_REACTORS
330
C
102
}
330
C
100
AcDbDictionary
281
     1
  0
ACDBDICTIONARYWDFLT
  5
E
102
{ACAD_REACTORS
330
C
102
}
330
C
100
AcDbDictionary
281
     1
  3
Normal
350
F
100
AcDbDictionaryWithDefault
340
F
  0
LAYOUT
  5
1E
102
{ACAD_REACTORS
330
1A
102
}
330
1A
100
AcDbPlotSettings
  1

  2

  4

  6

 40
0.0
 41
0.0
 42
0.0
 43
0.0
 44
0.0
 45
0.0
 46
0.0
 47
0.0
 48
0.0
 49
0.0
140
0.0
141
0.0
142
1.0
143
1.0
 70
   688
 72
     0
 73
     0
 74
     5
  7

 75
    16
147
1.0
148
0.0
149
0.0
100
AcDbLayout
  1
Layout1
 70
     1
 71
     1
 10
-847.628424
 20
-600.696639
 11
1252.371576
 21
884.303361
 12
0.0
 22
0.0
 32
0.0
 14
-847.628424
 24
-600.696639
 34
0.0
 15
1252.371576
 25
884.303361
 35
0.0
146
0.0
 13
0.0
 23
0.0
 33
0.0
 16
1.0
 26
0.0
 36
0.0
 17
0.0
 27
1.0
 37
0.0
 76
     0
330
1B
  0
LAYOUT
  5
26
102
{ACAD_REACTORS
330
1A
102
}
330
1A
100
AcDbPlotSettings
  1

  2

  4

  6

 40
0.0
 41
0.0
 42
0.0
 43
0.0
 44
0.0
 45
0.0
 46
0.0
 47
0.0
 48
0.0
 49
0.0
140
0.0
141
0.0
142
1.0
143
1.0
 70
   688
 72
     0
 73
     0
 74
     5
  7

 75
    16
147
1.0
148
0.0
149
0.0
100
AcDbLayout
  1
Layout2
 70
     1
 71
     2
 10
0.0
 20
0.0
 11
0.0
 21
0.0
 12
0.0
 22
0.0
 32
0.0
 14
0.0
 24
0.0
 34
0.0
 15
0.0
 25
0.0
 35
0.0
146
0.0
 13
0.0
 23
0.0
 33
0.0
 16
1.0
 26
0.0
 36
0.0
 17
0.0
 27
1.0
 37
0.0
 76
     0
330
23
  0
LAYOUT
  5
22
102
{ACAD_REACTORS
330
1A
102
}
330
1A
100
AcDbPlotSettings
  1

  2

  4

  6

 40
0.0
 41
0.0
 42
0.0
 43
0.0
 44
0.0
 45
0.0
 46
0.0
 47
0.0
 48
0.0
 49
0.0
140
0.0
141
0.0
142
1.0
143
1.0
 70
  1776
 72
     0
 73
     0
 74
     0
  7

 75
     0
147
1.0
148
0.0
149
0.0
100
AcDbLayout
  1
Model
 70
     1
 71
     0
 10
-847.628424
 20
-600.696639
 11
1252.371576
 21
884.303361
 12
0.0
 22
0.0
 32
0.0
 14
-847.628424
 24
-600.696639
 34
0.0
 15
1252.371576
 25
884.303361
 35
0.0
146
0.0
 13
0.0
 23
0.0
 33
0.0
 16
1.0
 26
0.0
 36
0.0
 17
0.0
 27
1.0
 37
0.0
 76
     0
330
1F
  0
MLINESTYLE
  5
18
102
{ACAD_REACTORS
330
17
102
}
330
17
100
AcDbMlineStyle
  2
Standard
 70
     0
  3

 62
   256
 51
90.0
 52
90.0
 71
     2
 49
0.5
 62
   256
  6
BYLAYER
 49
-0.5
 62
   256
  6
BYLAYER
  0
ACDBPLACEHOLDER
  5
F
102
{ACAD_REACTORS
330
E
102
}
330
E
  0
ENDSEC
  0
EOF
