  0
SECTION
  2
HEADER
  9
$ACADVER
  1
AC1015
  9
$ACADMAINTVER
 70
     6
  9
$DWGCODEPAGE
  3
ANSI_1252
  9
$INSBASE
 10
0.0
 20
0.0
 30
0.0
  9
$EXTMIN
 10
-854.671542
 20
-591.607498
 30
0.0
  9
$EXTMAX
 10
1245.328458
 20
893.392502
 30
0.0
  9
$LIMMIN
 10
-854.671542
 20
-591.607498
  9
$LIMMAX
 10
1245.328458
 20
893.392502
  9
$ORTHOMODE
 70
     0
  9
$REGENMODE
 70
     1
  9
$FILLMODE
 70
     1
  9
$QTEXTMODE
 70
     0
  9
$MIRRTEXT
 70
     1
  9
$LTSCALE
 40
5.0
  9
$ATTMODE
 70
     1
  9
$TEXTSIZE
 40
2.5
  9
$TRACEWID
 40
1.0
  9
$TEXTSTYLE
  7
Standard
  9
$CLAYER
  8
0
  9
$CELTYPE
  6
ByLayer
  9
$CECOLOR
 62
     7
  9
$CELTSCALE
 40
1.0
  9
$DISPSILH
 70
     0
  9
$DIMSCALE
 40
5.0
  9
$DIMASZ
 40
3.5
  9
$DIMEXO
 40
0.625
  9
$DIMDLI
 40
3.75
  9
$DIMRND
 40
0.0
  9
$DIMDLE
 40
0.0
  9
$DIMEXE
 40
1.25
  9
$DIMTP
 40
0.0
  9
$DIMTM
 40
0.0
  9
$DIMTXT
 40
3.5
  9
$DIMCEN
 40
2.5
  9
$DIMTSZ
 40
0.0
  9
$DIMTOL
 70
     0
  9
$DIMLIM
 70
     0
  9
$DIMTIH
 70
     0
  9
$DIMTOH
 70
     0
  9
$DIMSE1
 70
     0
  9
$DIMSE2
 70
     0
  9
$DIMTAD
 70
     1
  9
$DIMZIN
 70
     8
  9
$DIMBLK
  1

  9
$DIMASO
 70
     1
  9
$DIMSHO
 70
     1
  9
$DIMPOST
  1

  9
$DIMAPOST
  1

  9
$DIMALT
 70
     0
  9
$DIMALTD
 70
     3
  9
$DIMALTF
 40
0.03937
  9
$DIMLFAC
 40
1.0
  9
$DIMTOFL
 70
     1
  9
$DIMTVP
 40
0.0
  9
$DIMTIX
 70
     0
  9
$DIMSOXD
 70
     0
  9
$DIMSAH
 70
     0
  9
$DIMBLK1
  1

  9
$DIMBLK2
  1

  9
$DIMSTYLE
  2
ISO-25
  9
$DIMCLRD
 70
     0
  9
$DIMCLRE
 70
     0
  9
$DIMCLRT
 70
     0
  9
$DIMTFAC
 40
1.0
  9
$DIMGAP
 40
0.625
  9
$DIMJUST
 70
     0
  9
$DIMSD1
 70
     0
  9
$DIMSD2
 70
     0
  9
$DIMTOLJ
 70
     0
  9
$DIMTZIN
 70
     8
  9
$DIMALTZ
 70
     0
  9
$DIMALTTZ
 70
     0
  9
$DIMUPT
 70
     0
  9
$DIMDEC
 70
     2
  9
$DIMTDEC
 70
     2
  9
$DIMALTU
 70
     2
  9
$DIMALTTD
 70
     3
  9
$DIMTXSTY
  7
Standard
  9
$DIMAUNIT
 70
     0
  9
$DIMADEC
 70
     0
  9
$DIMALTRND
 40
0.0
  9
$DIMAZIN
 70
     0
  9
$DIMDSEP
 70
    44
  9
$DIMATFIT
 70
     3
  9
$DIMFRAC
 70
     0
  9
$DIMLDRBLK
  1

  9
$DIMLUNIT
 70
     2
  9
$DIMLWD
 70
    -2
  9
$DIMLWE
 70
    -2
  9
$DIMTMOVE
 70
     0
  9
$LUNITS
 70
     2
  9
$LUPREC
 70
     4
  9
$SKETCHINC
 40
1.0
  9
$FILLETRAD
 40
10.0
  9
$AUNITS
 70
     0
  9
$AUPREC
 70
     0
  9
$MENU
  1
.
  9
$ELEVATION
 40
0.0
  9
$PELEVATION
 40
0.0
  9
$THICKNESS
 40
0.0
  9
$LIMCHECK
 70
     0
  9
$CHAMFERA
 40
10.0
  9
$CHAMFERB
 40
10.0
  9
$CHAMFERC
 40
20.0
  9
$CHAMFERD
 40
0.0
  9
$SKPOLY
 70
     0
  9
$TDCREATE
 40
2455421.483382408
  9
$TDUCREATE
 40
2455421.400049074
  9
$TDUPDATE
 40
2455421.483382419
  9
$TDUUPDATE
 40
2455421.400049086
  9
$TDINDWG
 40
0.0000000116
  9
$TDUSRTIMER
 40
0.0000000116
  9
$USRTIMER
 70
     1
  9
$ANGBASE
 50
0.0
  9
$ANGDIR
 70
     0
  9
$PDMODE
 70
     0
  9
$PDSIZE
 40
0.0
  9
$PLINEWID
 40
0.0
  9
$SPLFRAME
 70
     0
  9
$SPLINETYPE
 70
     6
  9
$SPLINESEGS
 70
     8
  9
$HANDSEED
  5
6CA
  9
$SURFTAB1
 70
     6
  9
$SURFTAB2
 70
     6
  9
$SURFTYPE
 70
     6
  9
$SURFU
 70
     6
  9
$SURFV
 70
     6
  9
$UCSBASE
  2

  9
$UCSNAME
  2

  9
$UCSORG
 10
0.0
 20
0.0
 30
0.0
  9
$UCSXDIR
 10
1.0
 20
0.0
 30
0.0
  9
$UCSYDIR
 10
0.0
 20
1.0
 30
0.0
  9
$UCSORTHOREF
  2

  9
$UCSORTHOVIEW
 70
     0
  9
$UCSORGTOP
 10
0.0
 20
0.0
 30
0.0
  9
$UCSORGBOTTOM
 10
0.0
 20
0.0
 30
0.0
  9
$UCSORGLEFT
 10
0.0
 20
0.0
 30
0.0
  9
$UCSORGRIGHT
 10
0.0
 20
0.0
 30
0.0
  9
$UCSORGFRONT
 10
0.0
 20
0.0
 30
0.0
  9
$UCSORGBACK
 10
0.0
 20
0.0
 30
0.0
  9
$PUCSBASE
  2

  9
$PUCSNAME
  2

  9
$PUCSORG
 10
0.0
 20
0.0
 30
0.0
  9
$PUCSXDIR
 10
1.0
 20
0.0
 30
0.0
  9
$PUCSYDIR
 10
0.0
 20
1.0
 30
0.0
  9
$PUCSORTHOREF
  2

  9
$PUCSORTHOVIEW
 70
     0
  9
$PUCSORGTOP
 10
0.0
 20
0.0
 30
0.0
  9
$PUCSORGBOTTOM
 10
0.0
 20
0.0
 30
0.0
  9
$PUCSORGLEFT
 10
0.0
 20
0.0
 30
0.0
  9
$PUCSORGRIGHT
 10
0.0
 20
0.0
 30
0.0
  9
$PUCSORGFRONT
 10
0.0
 20
0.0
 30
0.0
  9
$PUCSORGBACK
 10
0.0
 20
0.0
 30
0.0
  9
$USERI1
 70
     0
  9
$USERI2
 70
     0
  9
$USERI3
 70
     0
  9
$USERI4
 70
     0
  9
$USERI5
 70
     0
  9
$USERR1
 40
0.0
  9
$USERR2
 40
0.0
  9
$USERR3
 40
0.0
  9
$USERR4
 40
0.0
  9
$USERR5
 40
0.0
  9
$WORLDVIEW
 70
     1
  9
$SHADEDGE
 70
     3
  9
$SHADEDIF
 70
    70
  9
$TILEMODE
 70
     1
  9
$MAXACTVP
 70
    64
  9
$PINSBASE
 10
0.0
 20
0.0
 30
0.0
  9
$PLIMCHECK
 70
     0
  9
$PEXTMIN
 10
-854.671542
 20
-591.607498
 30
0.0
  9
$PEXTMAX
 10
1245.328458
 20
893.392502
 30
0.0
  9
$PLIMMIN
 10
-854.671542
 20
-591.607498
  9
$PLIMMAX
 10
1245.328458
 20
893.392502
  9
$UNITMODE
 70
     0
  9
$VISRETAIN
 70
     1
  9
$PLINEGEN
 70
     0
  9
$PSLTSCALE
 70
     1
  9
$TREEDEPTH
 70
  3020
  9
$CMLSTYLE
  2
Standard
  9
$CMLJUST
 70
     0
  9
$CMLSCALE
 40
20.0
  9
$PROXYGRAPHICS
 70
     1
  9
$MEASUREMENT
 70
     1
  9
$CELWEIGHT
370
    -1
  9
$ENDCAPS
280
     0
  9
$JOINSTYLE
280
     0
  9
$LWDISPLAY
290
     0
  9
$INSUNITS
 70
     4
  9
$HYPERLINKBASE
  1

  9
$STYLESHEET
  1

  9
$XEDIT
290
     1
  9
$CEPSNTYPE
380
     0
  9
$PSTYLEMODE
290
     1
  9
$FINGERPRINTGUID
  2
{FAEB1C30-E019-11D5-929B-00C0DF256EC4}
  9
$VERSIONGUID
  2
{FAEB1C32-E019-11D5-929B-00C0DF256EC4}
  9
$EXTNAMES
290
     1
  9
$PSVPSCALE
 40
0.0
  9
$OLESTARTUP
290
     0
  0
ENDSEC
  0
SECTION
  2
CLASSES
  0
CLASS
  1
ACDBDICTIONARYWDFLT
  2
AcDbDictionaryWithDefault
  3
ObjectDBX Classes
 90
        0
280
     0
281
     0
  0
CLASS
  1
ACDBPLACEHOLDER
  2
AcDbPlaceHolder
  3
ObjectDBX Classes
 90
        0
280
     0
281
     0
  0
CLASS
  1
LAYOUT
  2
AcDbLayout
  3
ObjectDBX Classes
 90
        0
280
     0
281
     0
  0
ENDSEC
  0
SECTION
  2
TABLES
  0
TABLE
  2
VPORT
  5
8
330
0
100
AcDbSymbolTable
 70
     2
  0
VPORT
  5
29
330
8
100
AcDbSymbolTableRecord
100
AcDbViewportTableRecord
  2
*ACTIVE
 70
     0
 10
0.0
 20
0.0
 11
1.0
 21
1.0
 12
195.328458
 22
150.892502
 13
0.0
 23
0.0
 14
1.0
 24
1.0
 15
0.0
 25
0.0
 16
0.0
 26
0.0
 36
1.0
 17
0.0
 27
0.0
 37
0.0
 40
1485.0
 41
1.414141
 42
50.0
 43
0.0
 44
0.0
 50
0.0
 51
0.0
 71
    16
 72
   100
 73
     1
 74
     0
 75
     0
 76
     0
 77
     0
 78
     0
281
     0
 65
     0
110
0.0
120
0.0
130
0.0
111
1.0
121
0.0
131
0.0
112
0.0
122
1.0
132
0.0
 79
     0
146
0.0
  0
ENDTAB
  0
TABLE
  2
LTYPE
  5
5
330
0
100
AcDbSymbolTable
 70
     3
  0
LTYPE
  5
14
330
5
100
AcDbSymbolTableRecord
100
AcDbLinetypeTableRecord
  2
ByBlock
 70
     0
  3

 72
    65
 73
     0
 40
0.0
  0
LTYPE
  5
15
330
5
100
AcDbSymbolTableRecord
100
AcDbLinetypeTableRecord
  2
ByLayer
 70
     0
  3

 72
    65
 73
     0
 40
0.0
  0
LTYPE
  5
16
330
5
100
AcDbSymbolTableRecord
100
AcDbLinetypeTableRecord
  2
Continuous
 70
     0
  3
Solid line
 72
    65
 73
     0
 40
0.0
  0
LTYPE
  5
2A
330
5
100
AcDbSymbolTableRecord
100
AcDbLinetypeTableRecord
  2
DASHED
 70
     0
  3
__ __ __ __ __
 72
    65
 73
     2
 40
6.25
 49
5.0
 74
     4
 75
     0
340
0
 46
1.0
 50
0.0
 44
0.0
 45
0.0
 49
-1.25
 74
     4
 75
     0
340
0
 46
1.0
 50
0.0
 44
0.0
 45
0.0
  0
LTYPE
  5
E6
330
5
100
AcDbSymbolTableRecord
100
AcDbLinetypeTableRecord
  2
DASHDOT
 70
     0
  3
__ . __ . __ . __ . __
 72
    65
 73
     4
 40
7.5
 49
5.0
 74
     4
 75
     0
340
0
 46
1.0
 50
0.0
 44
0.0
 45
0.0
 49
-1.25
 74
     4
 75
     0
340
0
 46
1.0
 50
0.0
 44
0.0
 45
0.0
 49
0.0
 74
     4
 75
     0
340
0
 46
1.0
 50
0.0
 44
0.0
 45
0.0
 49
-1.25
 74
     4
 75
     0
340
0
 46
1.0
 50
0.0
 44
0.0
 45
0.0
  0
ENDTAB
  0
TABLE
  2
LAYER
  5
2
330
0
100
AcDbSymbolTable
 70
     7
  0
LAYER
  5
10
330
2
100
AcDbSymbolTableRecord
100
AcDbLayerTableRecord
  2
0
 70
     0
 62
     7
  6
Continuous
370
    -3
390
F
  0
LAYER
  5
2B
330
2
100
AcDbSymbolTableRecord
100
AcDbLayerTableRecord
  2
LC-INFO-1-5-mm-A3-0
 70
     1
 62
     7
  6
ByBlock
370
    -3
390
F
  0
LAYER
  5
2C
330
2
100
AcDbSymbolTableRecord
100
AcDbLayerTableRecord
  2
LC-CUT-HIDDEN
 70
     0
 62
     7
  6
DASHED
370
    -3
390
F
  0
LAYER
  5
2D
330
2
100
AcDbSymbolTableRecord
100
AcDbLayerTableRecord
  2
LC-VIEWPORT
 70
     0
 62
     7
  6
ByBlock
370
    -3
390
F
  0
LAYER
  5
2E
330
2
100
AcDbSymbolTableRecord
100
AcDbLayerTableRecord
  2
LC-3D-HIDDEN
 70
     0
 62
     9
  6
DASHED
370
    -3
390
F
  0
LAYER
  5
30
330
2
100
AcDbSymbolTableRecord
100
AcDbLayerTableRecord
  2
LC-001-100-D00-0
 70
     0
 62
     1
  6
ByBlock
370
    -3
390
F
  0
LAYER
  5
D7
330
2
100
AcDbSymbolTableRecord
100
AcDbLayerTableRecord
  2
Defpoints
 70
     0
 62
     7
  6
Continuous
290
     0
370
    -3
390
F
  0
ENDTAB
  0
TABLE
  2
STYLE
  5
3
330
0
100
AcDbSymbolTable
 70
     3
  0
STYLE
  5
11
330
3
100
AcDbSymbolTableRecord
100
AcDbTextStyleTableRecord
  2
Standard
 70
     0
 40
0.0
 41
1.0
 50
0.0
 71
     0
 42
2.5
  3
txt
  4

  0
STYLE
  5
2F
330
3
100
AcDbSymbolTableRecord
100
AcDbTextStyleTableRecord
  2
LCTX15-400-0-0-Arial
 70
     0
 40
0.0
 41
0.8
 50
0.0
 71
     0
 42
3.5
  3

  4

1001
ACAD
1000
Arial
1071
 16777218
  0
STYLE
  5
D4
330
3
100
AcDbSymbolTableRecord
100
AcDbTextStyleTableRecord
  2
LCTX15-400-0-0pDIN-Schrift
 70
     0
 40
2.5
 41
0.8
 50
15.0
 71
     0
 42
3.5
  3
STANDARD
  4

  0
ENDTAB
  0
TABLE
  2
VIEW
  5
6
330
0
100
AcDbSymbolTable
 70
     0
  0
ENDTAB
  0
TABLE
  2
UCS
  5
7
330
0
100
AcDbSymbolTable
 70
     0
  0
ENDTAB
  0
TABLE
  2
APPID
  5
9
330
0
100
AcDbSymbolTable
 70
     1
  0
APPID
  5
12
330
9
100
AcDbSymbolTableRecord
100
AcDbRegAppTableRecord
  2
ACAD
 70
     0
  0
ENDTAB
  0
TABLE
  2
DIMSTYLE
  5
A
330
0
100
AcDbSymbolTable
 70
     2
100
AcDbDimStyleTable
  0
DIMSTYLE
105
27
330
A
100
AcDbSymbolTableRecord
100
AcDbDimStyleTableRecord
  2
ISO-25
 70
     0
 41
2.5
 42
0.625
 43
3.75
 44
1.25
 73
     0
 74
     0
 77
     1
 78
     8
140
2.5
141
2.5
143
0.03937
147
0.625
171
     3
172
     1
271
     2
272
     2
274
     3
278
    44
283
     0
284
     8
340
11
  0
DIMSTYLE
105
D5
102
{ACAD_REACTORS
330
D6
330
1F6
330
204
330
212
330
5B7
330
5C5
330
5D2
330
5DF
330
5EC
330
5FA
330
608
330
616
102
}
330
A
100
AcDbSymbolTableRecord
100
AcDbDimStyleTableRecord
  2
LC-DIM-L-0100-02-02
 70
     0
 40
5.0
 41
10.0
 42
0.0
 43
7.5
 44
1.8
 73
     0
 74
     0
 77
     1
 78
     8
 79
     2
140
10.0
141
0.0
146
0.71
147
1.5
176
     2
177
     2
178
     2
179
     2
271
     2
278
    44
289
     1
340
D4
  0
ENDTAB
  0
TABLE
  2
BLOCK_RECORD
  5
1
330
0
100
AcDbSymbolTable
 70
    46
  0
BLOCK_RECORD
  5
1F
330
1
100
AcDbSymbolTableRecord
100
AcDbBlockTableRecord
  2
*Model_Space
340
22
  0
BLOCK_RECORD
  5
1B
330
1
100
AcDbSymbolTableRecord
100
AcDbBlockTableRecord
  2
*Paper_Space
340
1E
  0
BLOCK_RECORD
  5
23
330
1
100
AcDbSymbolTableRecord
100
AcDbBlockTableRecord
  2
*Paper_Space0
340
26
  0
BLOCK_RECORD
  5
D8
330
1
100
AcDbSymbolTableRecord
100
AcDbBlockTableRecord
  2
*D1
340
0
  0
BLOCK_RECORD
  5
106
330
1
100
AcDbSymbolTableRecord
100
AcDbBlockTableRecord
  2
KLON1
340
0
102
{BLKREFS
331
10B
102
}
  0
BLOCK_RECORD
  5
10E
330
1
100
AcDbSymbolTableRecord
100
AcDbBlockTableRecord
  2
KLON2
340
0
102
{BLKREFS
331
115
102
}
  0
BLOCK_RECORD
  5
117
330
1
100
AcDbSymbolTableRecord
100
AcDbBlockTableRecord
  2
KLON3
340
0
102
{BLKREFS
331
11C
102
}
  0
BLOCK_RECORD
  5
11D
330
1
100
AcDbSymbolTableRecord
100
AcDbBlockTableRecord
  2
KLON4
340
0
102
{BLKREFS
331
122
102
}
  0
BLOCK_RECORD
  5
123
330
1
100
AcDbSymbolTableRecord
100
AcDbBlockTableRecord
  2
KLON5
340
0
102
{BLKREFS
331
128
102
}
  0
BLOCK_RECORD
  5
12A
330
1
100
AcDbSymbolTableRecord
100
AcDbBlockTableRecord
  2
KLON6
340
0
102
{BLKREFS
331
131
102
}
  0
BLOCK_RECORD
  5
141
330
1
100
AcDbSymbolTableRecord
100
AcDbBlockTableRecord
  2
KLON7
340
0
102
{BLKREFS
331
146
102
}
  0
BLOCK_RECORD
  5
147
330
1
100
AcDbSymbolTableRecord
100
AcDbBlockTableRecord
  2
KLON8
340
0
102
{BLKREFS
331
14C
102
}
  0
BLOCK_RECORD
  5
14E
330
1
100
AcDbSymbolTableRecord
100
AcDbBlockTableRecord
  2
KLON9
340
0
102
{BLKREFS
331
153
102
}
  0
BLOCK_RECORD
  5
154
330
1
100
AcDbSymbolTableRecord
100
AcDbBlockTableRecord
  2
KLON10
340
0
102
{BLKREFS
331
159
102
}
  0
BLOCK_RECORD
  5
1F7
330
1
100
AcDbSymbolTableRecord
100
AcDbBlockTableRecord
  2
*D12
340
0
  0
BLOCK_RECORD
  5
205
330
1
100
AcDbSymbolTableRecord
100
AcDbBlockTableRecord
  2
*D13
340
0
  0
BLOCK_RECORD
  5
213
330
1
100
AcDbSymbolTableRecord
100
AcDbBlockTableRecord
  2
*D14
340
0
  0
BLOCK_RECORD
  5
400
330
1
100
AcDbSymbolTableRecord
100
AcDbBlockTableRecord
  2
KLON11
340
0
102
{BLKREFS
331
410
102
}
  0
BLOCK_RECORD
  5
411
330
1
100
AcDbSymbolTableRecord
100
AcDbBlockTableRecord
  2
KLON12
340
0
102
{BLKREFS
331
424
102
}
  0
BLOCK_RECORD
  5
428
330
1
100
AcDbSymbolTableRecord
100
AcDbBlockTableRecord
  2
KLON13
340
0
102
{BLKREFS
331
42D
102
}
  0
BLOCK_RECORD
  5
556
330
1
100
AcDbSymbolTableRecord
100
AcDbBlockTableRecord
  2
KLON14
340
0
102
{BLKREFS
331
55F
102
}
  0
BLOCK_RECORD
  5
560
330
1
100
AcDbSymbolTableRecord
100
AcDbBlockTableRecord
  2
KLON15
340
0
102
{BLKREFS
331
569
102
}
  0
BLOCK_RECORD
  5
584
330
1
100
AcDbSymbolTableRecord
100
AcDbBlockTableRecord
  2
KLON16
340
0
102
{BLKREFS
331
58C
102
}
  0
BLOCK_RECORD
  5
58D
330
1
100
AcDbSymbolTableRecord
100
AcDbBlockTableRecord
  2
KLON17
340
0
102
{BLKREFS
331
599
102
}
  0
BLOCK_RECORD
  5
59A
330
1
100
AcDbSymbolTableRecord
100
AcDbBlockTableRecord
  2
KLON18
340
0
102
{BLKREFS
331
5A6
102
}
  0
BLOCK_RECORD
  5
5B8
330
1
100
AcDbSymbolTableRecord
100
AcDbBlockTableRecord
  2
*D23
340
0
  0
BLOCK_RECORD
  5
5C6
330
1
100
AcDbSymbolTableRecord
100
AcDbBlockTableRecord
  2
*D24
340
0
  0
BLOCK_RECORD
  5
5D3
330
1
100
AcDbSymbolTableRecord
100
AcDbBlockTableRecord
  2
*D25
340
0
  0
BLOCK_RECORD
  5
5E0
330
1
100
AcDbSymbolTableRecord
100
AcDbBlockTableRecord
  2
*D26
340
0
  0
BLOCK_RECORD
  5
5ED
330
1
100
AcDbSymbolTableRecord
100
AcDbBlockTableRecord
  2
*D27
340
0
  0
BLOCK_RECORD
  5
5FB
330
1
100
AcDbSymbolTableRecord
100
AcDbBlockTableRecord
  2
*D28
340
0
  0
BLOCK_RECORD
  5
609
330
1
100
AcDbSymbolTableRecord
100
AcDbBlockTableRecord
  2
*D29
340
0
  0
BLOCK_RECORD
  5
617
330
1
100
AcDbSymbolTableRecord
100
AcDbBlockTableRecord
  2
*D30
340
0
  0
BLOCK_RECORD
  5
626
330
1
100
AcDbSymbolTableRecord
100
AcDbBlockTableRecord
  2
KLON19
340
0
102
{BLKREFS
331
62B
102
}
  0
BLOCK_RECORD
  5
62E
330
1
100
AcDbSymbolTableRecord
100
AcDbBlockTableRecord
  2
KLON20
340
0
102
{BLKREFS
331
633
102
}
  0
BLOCK_RECORD
  5
635
330
1
100
AcDbSymbolTableRecord
100
AcDbBlockTableRecord
  2
KLON21
340
0
102
{BLKREFS
331
63A
102
}
  0
BLOCK_RECORD
  5
63D
330
1
100
AcDbSymbolTableRecord
100
AcDbBlockTableRecord
  2
KLON22
340
0
102
{BLKREFS
331
642
102
}
  0
BLOCK_RECORD
  5
645
330
1
100
AcDbSymbolTableRecord
100
AcDbBlockTableRecord
  2
KLON23
340
0
102
{BLKREFS
331
64A
102
}
  0
BLOCK_RECORD
  5
64E
330
1
100
AcDbSymbolTableRecord
100
AcDbBlockTableRecord
  2
KLON24
340
0
102
{BLKREFS
331
654
102
}
  0
BLOCK_RECORD
  5
655
330
1
100
AcDbSymbolTableRecord
100
AcDbBlockTableRecord
  2
KLON25
340
0
102
{BLKREFS
331
65B
102
}
  0
BLOCK_RECORD
  5
65C
330
1
100
AcDbSymbolTableRecord
100
AcDbBlockTableRecord
  2
KLON26
340
0
102
{BLKREFS
331
668
102
}
  0
BLOCK_RECORD
  5
669
330
1
100
AcDbSymbolTableRecord
100
AcDbBlockTableRecord
  2
KLON27
340
0
102
{BLKREFS
331
670
102
}
  0
BLOCK_RECORD
  5
671
330
1
100
AcDbSymbolTableRecord
100
AcDbBlockTableRecord
  2
KLON28
340
0
102
{BLKREFS
331
677
102
}
  0
BLOCK_RECORD
  5
678
330
1
100
AcDbSymbolTableRecord
100
AcDbBlockTableRecord
  2
KLON29
340
0
102
{BLKREFS
331
68C
102
}
  0
BLOCK_RECORD
  5
68D
330
1
100
AcDbSymbolTableRecord
100
AcDbBlockTableRecord
  2
KLON30
340
0
102
{BLKREFS
331
6A3
102
}
  0
BLOCK_RECORD
  5
6A4
330
1
100
AcDbSymbolTableRecord
100
AcDbBlockTableRecord
  2
KLON31
340
0
102
{BLKREFS
331
6B2
102
}
  0
BLOCK_RECORD
  5
6B3
330
1
100
AcDbSymbolTableRecord
100
AcDbBlockTableRecord
  2
KLON32
340
0
102
{BLKREFS
331
6B9
102
}
  0
BLOCK_RECORD
  5
6BB
330
1
100
AcDbSymbolTableRecord
100
AcDbBlockTableRecord
  2
KLON33
340
0
102
{BLKREFS
331
6C0
102
}
  0
ENDTAB
  0
ENDSEC
  0
SECTION
  2
BLOCKS
  0
BLOCK
  5
20
330
1F
100
AcDbEntity
  8
0
100
AcDbBlockBegin
  2
*Model_Space
 70
     0
 71
     0
 10
0.0
 20
0.0
 30
0.0
  3
*Model_Space
  1

  0
ENDBLK
  5
21
330
1F
100
AcDbEntity
  8
0
100
AcDbBlockEnd
  0
BLOCK
  5
1C
330
1B
100
AcDbEntity
 67
     1
  8
0
100
AcDbBlockBegin
  2
*Paper_Space
 70
     0
 71
     0
 10
0.0
 20
0.0
 30
0.0
  3
*Paper_Space
  1

  0
ENDBLK
  5
1D
330
1B
100
AcDbEntity
 67
     1
  8
0
100
AcDbBlockEnd
  0
BLOCK
  5
24
330
23
100
AcDbEntity
  8
0
100
AcDbBlockBegin
  2
*Paper_Space0
 70
     0
 71
     0
 10
0.0
 20
0.0
 30
0.0
  3
*Paper_Space0
  1

  0
ENDBLK
  5
25
330
23
100
AcDbEntity
  8
0
100
AcDbBlockEnd
  0
BLOCK
  5
E4
330
D8
100
AcDbEntity
  8
0
100
AcDbBlockBegin
  2
*D1
 70
     1
 71
     0
 10
0.0
 20
0.0
 30
0.0
  3
*D1
  1

  0
LINE
  5
D9
330
D8
100
AcDbEntity
  8
LC-001-100-D00-0
 62
     2
370
    -2
100
AcDbLine
 10
952.753358
 20
419.002881
 30
0.0
 11
952.753358
 21
312.848264
 31
0.0
  0
LINE
  5
DA
330
D8
100
AcDbEntity
  8
LC-001-100-D00-0
 62
     2
370
    -2
100
AcDbLine
 10
1033.753358
 20
419.002881
 30
0.0
 11
1033.753358
 21
312.848264
 31
0.0
  0
LINE
  5
DB
330
D8
100
AcDbEntity
  8
LC-001-100-D00-0
 62
     2
370
    -2
100
AcDbLine
 10
902.753358
 20
321.848264
 30
0.0
 11
852.753358
 21
321.848264
 31
0.0
  0
LINE
  5
DC
330
D8
100
AcDbEntity
  8
LC-001-100-D00-0
 62
     2
370
    -2
100
AcDbLine
 10
1083.753358
 20
321.848264
 30
0.0
 11
1133.753358
 21
321.848264
 31
0.0
  0
LINE
  5
DD
330
D8
100
AcDbEntity
  8
LC-001-100-D00-0
 62
     2
370
    -2
100
AcDbLine
 10
952.753358
 20
321.848264
 30
0.0
 11
1033.753358
 21
321.848264
 31
0.0
  0
SOLID
  5
DE
330
D8
100
AcDbEntity
  8
LC-001-100-D00-0
 62
     2
100
AcDbTrace
 10
902.753358
 20
313.51493
 30
0.0
 11
902.753358
 21
330.181597
 31
0.0
 12
952.753358
 22
321.848264
 32
0.0
 13
952.753358
 23
321.848264
 33
0.0
  0
SOLID
  5
DF
330
D8
100
AcDbEntity
  8
LC-001-100-D00-0
 62
     2
100
AcDbTrace
 10
1083.753358
 20
330.181597
 30
0.0
 11
1083.753358
 21
313.51493
 31
0.0
 12
1033.753358
 22
321.848264
 32
0.0
 13
1033.753358
 23
321.848264
 33
0.0
  0
MTEXT
  5
E0
330
D8
100
AcDbEntity
  8
LC-001-100-D00-0
 62
     2
100
AcDbMText
 10
996.80495
 20
376.848264
 30
0.0
 40
50.0
 41
0.0
 71
     5
 72
     1
  1
\A1;81
  7
LCTX15-400-0-0pDIN-Schrift
 73
     1
 44
1.0
  0
POINT
  5
E1
330
D8
100
AcDbEntity
  8
Defpoints
 62
     0
100
AcDbPoint
 10
952.753358
 20
419.002881
 30
0.0
  0
POINT
  5
E2
330
D8
100
AcDbEntity
  8
Defpoints
 62
     0
100
AcDbPoint
 10
1033.753358
 20
419.002881
 30
0.0
  0
POINT
  5
E3
330
D8
100
AcDbEntity
  8
Defpoints
 62
     0
100
AcDbPoint
 10
1033.753358
 20
321.848264
 30
0.0
  0
ENDBLK
  5
E5
330
D8
100
AcDbEntity
  8
0
100
AcDbBlockEnd
  0
BLOCK
  5
107
330
106
100
AcDbEntity
  8
0
100
AcDbBlockBegin
  2
KLON1
 70
     0
 71
     0
 10
0.0
 20
0.0
 30
0.0
  3
KLON1
  1

  4
KLON1
  0
LINE
  5
109
330
106
100
AcDbEntity
  8
LC-001-100-D00-0
 62
     7
370
    15
100
AcDbLine
 10
485.797018
 20
127.607503
 30
0.0
 11
485.804439
 21
127.56933
 31
0.0
  0
LINE
  5
10A
330
106
100
AcDbEntity
  8
LC-001-100-D00-0
 62
     7
370
    15
100
AcDbLine
 10
485.804439
 20
127.56933
 30
0.0
 11
485.823215
 21
127.536845
 31
0.0
  0
ENDBLK
  5
108
330
106
100
AcDbEntity
  8
0
100
AcDbBlockEnd
  0
BLOCK
  5
10F
330
10E
100
AcDbEntity
  8
0
100
AcDbBlockBegin
  2
KLON2
 70
     0
 71
     0
 10
0.0
 20
0.0
 30
0.0
  3
KLON2
  1

  4
KLON2
  0
LINE
  5
111
330
10E
100
AcDbEntity
  8
LC-001-100-D00-0
 62
     7
370
    15
100
AcDbLine
 10
485.797018
 20
163.430171
 30
0.0
 11
485.809654
 21
163.34929
 31
0.0
  0
LINE
  5
112
330
10E
100
AcDbEntity
  8
LC-001-100-D00-0
 62
     7
370
    15
100
AcDbLine
 10
485.809654
 20
163.34929
 30
0.0
 11
485.818446
 21
163.293081
 31
0.0
  0
LINE
  5
113
330
10E
100
AcDbEntity
  8
LC-001-100-D00-0
 62
     7
370
    15
100
AcDbLine
 10
485.818446
 20
163.293081
 30
0.0
 11
485.820979
 21
163.276982
 31
0.0
  0
LINE
  5
114
330
10E
100
AcDbEntity
  8
LC-001-100-D00-0
 62
     7
370
    15
100
AcDbLine
 10
485.820979
 20
163.276982
 30
0.0
 11
485.823215
 21
163.262697
 31
0.0
  0
ENDBLK
  5
110
330
10E
100
AcDbEntity
  8
0
100
AcDbBlockEnd
  0
BLOCK
  5
118
330
117
100
AcDbEntity
  8
0
100
AcDbBlockBegin
  2
KLON3
 70
     0
 71
     0
 10
0.0
 20
0.0
 30
0.0
  3
KLON3
  1

  4
KLON3
  0
LINE
  5
11A
330
117
100
AcDbEntity
  8
LC-001-100-D00-0
 62
     7
370
    15
100
AcDbLine
 10
485.797018
 20
174.592863
 30
0.0
 11
485.807598
 21
174.598773
 31
0.0
  0
LINE
  5
11B
330
117
100
AcDbEntity
  8
LC-001-100-D00-0
 62
     7
370
    15
100
AcDbLine
 10
485.807598
 20
174.598773
 30
0.0
 11
485.823215
 21
174.607501
 31
0.0
  0
ENDBLK
  5
119
330
117
100
AcDbEntity
  8
0
100
AcDbBlockEnd
  0
BLOCK
  5
11E
330
11D
100
AcDbEntity
  8
0
100
AcDbBlockBegin
  2
KLON4
 70
     0
 71
     0
 10
0.0
 20
0.0
 30
0.0
  3
KLON4
  1

  4
KLON4
  0
LINE
  5
120
330
11D
100
AcDbEntity
  8
LC-001-100-D00-0
 62
     7
370
    15
100
AcDbLine
 10
-198.150605
 20
127.607503
 30
0.0
 11
-198.158025
 21
127.56933
 31
0.0
  0
LINE
  5
121
330
11D
100
AcDbEntity
  8
LC-001-100-D00-0
 62
     7
370
    15
100
AcDbLine
 10
-198.158025
 20
127.56933
 30
0.0
 11
-198.176801
 21
127.536845
 31
0.0
  0
ENDBLK
  5
11F
330
11D
100
AcDbEntity
  8
0
100
AcDbBlockEnd
  0
BLOCK
  5
124
330
123
100
AcDbEntity
  8
0
100
AcDbBlockBegin
  2
KLON5
 70
     0
 71
     0
 10
0.0
 20
0.0
 30
0.0
  3
KLON5
  1

  4
KLON5
  0
LINE
  5
126
330
123
100
AcDbEntity
  8
LC-001-100-D00-0
 62
     7
370
    15
100
AcDbLine
 10
-198.150605
 20
174.592863
 30
0.0
 11
-198.161184
 21
174.598773
 31
0.0
  0
LINE
  5
127
330
123
100
AcDbEntity
  8
LC-001-100-D00-0
 62
     7
370
    15
100
AcDbLine
 10
-198.161184
 20
174.598773
 30
0.0
 11
-198.176801
 21
174.607501
 31
0.0
  0
ENDBLK
  5
125
330
123
100
AcDbEntity
  8
0
100
AcDbBlockEnd
  0
BLOCK
  5
12B
330
12A
100
AcDbEntity
  8
0
100
AcDbBlockBegin
  2
KLON6
 70
     0
 71
     0
 10
0.0
 20
0.0
 30
0.0
  3
KLON6
  1

  4
KLON6
  0
LINE
  5
12D
330
12A
100
AcDbEntity
  8
LC-001-100-D00-0
 62
     7
370
    15
100
AcDbLine
 10
-198.150605
 20
163.430171
 30
0.0
 11
-198.163241
 21
163.34929
 31
0.0
  0
LINE
  5
12E
330
12A
100
AcDbEntity
  8
LC-001-100-D00-0
 62
     7
370
    15
100
AcDbLine
 10
-198.163241
 20
163.34929
 30
0.0
 11
-198.172032
 21
163.293081
 31
0.0
  0
LINE
  5
12F
330
12A
100
AcDbEntity
  8
LC-001-100-D00-0
 62
     7
370
    15
100
AcDbLine
 10
-198.172032
 20
163.293081
 30
0.0
 11
-198.174566
 21
163.276982
 31
0.0
  0
LINE
  5
130
330
12A
100
AcDbEntity
  8
LC-001-100-D00-0
 62
     7
370
    15
100
AcDbLine
 10
-198.174566
 20
163.276982
 30
0.0
 11
-198.176801
 21
163.262697
 31
0.0
  0
ENDBLK
  5
12C
330
12A
100
AcDbEntity
  8
0
100
AcDbBlockEnd
  0
BLOCK
  5
142
330
141
100
AcDbEntity
  8
0
100
AcDbBlockBegin
  2
KLON7
 70
     0
 71
     0
 10
0.0
 20
0.0
 30
0.0
  3
KLON7
  1

  4
KLON7
  0
LINE
  5
144
330
141
100
AcDbEntity
  8
LC-001-100-D00-0
 62
     7
370
    15
100
AcDbLine
 10
485.768497
 20
138.774093
 30
0.0
 11
485.78465
 21
138.780177
 31
0.0
  0
LINE
  5
145
330
141
100
AcDbEntity
  8
LC-001-100-D00-0
 62
     7
370
    15
100
AcDbLine
 10
485.78465
 20
138.780177
 30
0.0
 11
485.797018
 21
138.784833
 31
0.0
  0
ENDBLK
  5
143
330
141
100
AcDbEntity
  8
0
100
AcDbBlockEnd
  0
BLOCK
  5
148
330
147
100
AcDbEntity
  8
0
100
AcDbBlockBegin
  2
KLON8
 70
     0
 71
     0
 10
0.0
 20
0.0
 30
0.0
  3
KLON8
  1

  4
KLON8
  0
LINE
  5
14A
330
147
100
AcDbEntity
  8
LC-001-100-D00-0
 62
     7
370
    15
100
AcDbLine
 10
-198.122084
 20
138.774093
 30
0.0
 11
-198.138237
 21
138.780177
 31
0.0
  0
LINE
  5
14B
330
147
100
AcDbEntity
  8
LC-001-100-D00-0
 62
     7
370
    15
100
AcDbLine
 10
-198.138237
 20
138.780177
 30
0.0
 11
-198.150605
 21
138.784833
 31
0.0
  0
ENDBLK
  5
149
330
147
100
AcDbEntity
  8
0
100
AcDbBlockEnd
  0
BLOCK
  5
14F
330
14E
100
AcDbEntity
  8
0
100
AcDbBlockBegin
  2
KLON9
 70
     0
 71
     0
 10
0.0
 20
0.0
 30
0.0
  3
KLON9
  1

  4
KLON9
  0
LINE
  5
151
330
14E
100
AcDbEntity
  8
LC-001-100-D00-0
 62
     7
370
    15
100
AcDbLine
 10
485.768497
 20
163.440911
 30
0.0
 11
485.78465
 21
163.434827
 31
0.0
  0
LINE
  5
152
330
14E
100
AcDbEntity
  8
LC-001-100-D00-0
 62
     7
370
    15
100
AcDbLine
 10
485.78465
 20
163.434827
 30
0.0
 11
485.797018
 21
163.430171
 31
0.0
  0
ENDBLK
  5
150
330
14E
100
AcDbEntity
  8
0
100
AcDbBlockEnd
  0
BLOCK
  5
155
330
154
100
AcDbEntity
  8
0
100
AcDbBlockBegin
  2
KLON10
 70
     0
 71
     0
 10
0.0
 20
0.0
 30
0.0
  3
KLON10
  1

  4
KLON10
  0
LINE
  5
157
330
154
100
AcDbEntity
  8
LC-001-100-D00-0
 62
     7
370
    15
100
AcDbLine
 10
-198.122084
 20
163.440911
 30
0.0
 11
-198.138237
 21
163.434827
 31
0.0
  0
LINE
  5
158
330
154
100
AcDbEntity
  8
LC-001-100-D00-0
 62
     7
370
    15
100
AcDbLine
 10
-198.138237
 20
163.434827
 30
0.0
 11
-198.150605
 21
163.430171
 31
0.0
  0
ENDBLK
  5
156
330
154
100
AcDbEntity
  8
0
100
AcDbBlockEnd
  0
BLOCK
  5
202
330
1F7
100
AcDbEntity
  8
0
100
AcDbBlockBegin
  2
*D12
 70
     1
 71
     0
 10
0.0
 20
0.0
 30
0.0
  3
*D12
  1

  0
LINE
  5
1F8
330
1F7
100
AcDbEntity
  8
LC-001-100-D00-0
 62
     2
370
    -2
100
AcDbLine
 10
538.823207
 20
197.107502
 30
0.0
 11
638.700873
 21
197.107502
 31
0.0
  0
LINE
  5
1F9
330
1F7
100
AcDbEntity
  8
LC-001-100-D00-0
 62
     2
370
    -2
100
AcDbLine
 10
538.823207
 20
195.607502
 30
0.0
 11
638.700873
 21
195.607502
 31
0.0
  0
LINE
  5
1FA
330
1F7
100
AcDbEntity
  8
LC-001-100-D00-0
 62
     2
370
    -2
100
AcDbLine
 10
629.700873
 20
247.107502
 30
0.0
 11
629.700873
 21
297.107502
 31
0.0
  0
LINE
  5
1FB
330
1F7
100
AcDbEntity
  8
LC-001-100-D00-0
 62
     2
370
    -2
100
AcDbLine
 10
629.700873
 20
145.607502
 30
0.0
 11
629.700873
 21
125.10282
 31
0.0
  0
SOLID
  5
1FC
330
1F7
100
AcDbEntity
  8
LC-001-100-D00-0
 62
     2
100
AcDbTrace
 10
621.367539
 20
247.107502
 30
0.0
 11
638.034206
 21
247.107502
 31
0.0
 12
629.700873
 22
197.107502
 32
0.0
 13
629.700873
 23
197.107502
 33
0.0
  0
SOLID
  5
1FD
330
1F7
100
AcDbEntity
  8
LC-001-100-D00-0
 62
     2
100
AcDbTrace
 10
638.034206
 20
145.607502
 30
0.0
 11
621.367539
 21
145.607502
 31
0.0
 12
629.700873
 22
195.607502
 32
0.0
 13
629.700873
 23
195.607502
 33
0.0
  0
MTEXT
  5
1FE
330
1F7
100
AcDbEntity
  8
LC-001-100-D00-0
 62
     2
100
AcDbMText
 10
574.700873
 20
171.682502
 30
0.0
 40
50.0
 41
0.0
 71
     5
 72
     1
  1
\A1;1.5
  7
LCTX15-400-0-0pDIN-Schrift
 11
6.123031769111886E-17
 21
1.0
 31
0.0
 73
     1
 44
1.0
  0
POINT
  5
1FF
330
1F7
100
AcDbEntity
  8
Defpoints
 62
     0
100
AcDbPoint
 10
538.823207
 20
197.107502
 30
0.0
  0
POINT
  5
200
330
1F7
100
AcDbEntity
  8
Defpoints
 62
     0
100
AcDbPoint
 10
538.823207
 20
195.607502
 30
0.0
  0
POINT
  5
201
330
1F7
100
AcDbEntity
  8
Defpoints
 62
     0
100
AcDbPoint
 10
629.700873
 20
195.607502
 30
0.0
  0
ENDBLK
  5
203
330
1F7
100
AcDbEntity
  8
0
100
AcDbBlockEnd
  0
BLOCK
  5
210
330
205
100
AcDbEntity
  8
0
100
AcDbBlockBegin
  2
*D13
 70
     1
 71
     0
 10
0.0
 20
0.0
 30
0.0
  3
*D13
  1

  0
LINE
  5
206
330
205
100
AcDbEntity
  8
LC-001-100-D00-0
 62
     2
370
    -2
100
AcDbLine
 10
538.823207
 20
195.607502
 30
0.0
 11
718.483561
 21
195.607502
 31
0.0
  0
LINE
  5
207
330
205
100
AcDbEntity
  8
LC-001-100-D00-0
 62
     2
370
    -2
100
AcDbLine
 10
491.323207
 20
177.107502
 30
0.0
 11
718.483561
 21
177.107502
 31
0.0
  0
LINE
  5
208
330
205
100
AcDbEntity
  8
LC-001-100-D00-0
 62
     2
370
    -2
100
AcDbLine
 10
709.483561
 20
245.607502
 30
0.0
 11
709.483561
 21
295.607502
 31
0.0
  0
LINE
  5
209
330
205
100
AcDbEntity
  8
LC-001-100-D00-0
 62
     2
370
    -2
100
AcDbLine
 10
709.483561
 20
127.107502
 30
0.0
 11
709.483561
 21
77.840201
 31
0.0
  0
SOLID
  5
20A
330
205
100
AcDbEntity
  8
LC-001-100-D00-0
 62
     2
100
AcDbTrace
 10
701.150228
 20
245.607502
 30
0.0
 11
717.816894
 21
245.607502
 31
0.0
 12
709.483561
 22
195.607502
 32
0.0
 13
709.483561
 23
195.607502
 33
0.0
  0
SOLID
  5
20B
330
205
100
AcDbEntity
  8
LC-001-100-D00-0
 62
     2
100
AcDbTrace
 10
717.816894
 20
127.107502
 30
0.0
 11
701.150228
 21
127.107502
 31
0.0
 12
709.483561
 22
177.107502
 32
0.0
 13
709.483561
 23
177.107502
 33
0.0
  0
MTEXT
  5
20C
330
205
100
AcDbEntity
  8
LC-001-100-D00-0
 62
     2
100
AcDbMText
 10
654.483561
 20
143.467502
 30
0.0
 40
50.0
 41
0.0
 71
     5
 72
     1
  1
\A1;18,5
  7
LCTX15-400-0-0pDIN-Schrift
 11
6.123031769111886E-17
 21
1.0
 31
0.0
 73
     1
 44
1.0
  0
POINT
  5
20D
330
205
100
AcDbEntity
  8
Defpoints
 62
     0
100
AcDbPoint
 10
538.823207
 20
195.607502
 30
0.0
  0
POINT
  5
20E
330
205
100
AcDbEntity
  8
Defpoints
 62
     0
100
AcDbPoint
 10
491.323207
 20
177.107502
 30
0.0
  0
POINT
  5
20F
330
205
100
AcDbEntity
  8
Defpoints
 62
     0
100
AcDbPoint
 10
709.483561
 20
177.107502
 30
0.0
  0
ENDBLK
  5
211
330
205
100
AcDbEntity
  8
0
100
AcDbBlockEnd
  0
BLOCK
  5
21D
330
213
100
AcDbEntity
  8
0
100
AcDbBlockBegin
  2
*D14
 70
     1
 71
     0
 10
0.0
 20
0.0
 30
0.0
  3
*D14
  1

  0
LINE
  5
214
330
213
100
AcDbEntity
  8
LC-001-100-D00-0
 62
     2
370
    -2
100
AcDbLine
 10
538.823207
 20
197.107502
 30
0.0
 11
796.050064
 21
197.107502
 31
0.0
  0
LINE
  5
215
330
213
100
AcDbEntity
  8
LC-001-100-D00-0
 62
     2
370
    -2
100
AcDbLine
 10
538.823207
 20
73.607502
 30
0.0
 11
796.050064
 21
73.607502
 31
0.0
  0
LINE
  5
216
330
213
100
AcDbEntity
  8
LC-001-100-D00-0
 62
     2
370
    -2
100
AcDbLine
 10
787.050064
 20
147.107502
 30
0.0
 11
787.050064
 21
123.607502
 31
0.0
  0
SOLID
  5
217
330
213
100
AcDbEntity
  8
LC-001-100-D00-0
 62
     2
100
AcDbTrace
 10
795.383397
 20
147.107502
 30
0.0
 11
778.71673
 21
147.107502
 31
0.0
 12
787.050064
 22
197.107502
 32
0.0
 13
787.050064
 23
197.107502
 33
0.0
  0
SOLID
  5
218
330
213
100
AcDbEntity
  8
LC-001-100-D00-0
 62
     2
100
AcDbTrace
 10
778.71673
 20
123.607502
 30
0.0
 11
795.383397
 21
123.607502
 31
0.0
 12
787.050064
 22
73.607502
 32
0.0
 13
787.050064
 23
73.607502
 33
0.0
  0
MTEXT
  5
219
330
213
100
AcDbEntity
  8
LC-001-100-D00-0
 62
     2
100
AcDbMText
 10
732.050064
 20
88.522502
 30
0.0
 40
50.0
 41
0.0
 71
     5
 72
     1
  1
\A1;123.5
  7
LCTX15-400-0-0pDIN-Schrift
 11
6.123031769111886E-17
 21
1.0
 31
0.0
 73
     1
 44
1.0
  0
POINT
  5
21A
330
213
100
AcDbEntity
  8
Defpoints
 62
     0
100
AcDbPoint
 10
538.823207
 20
197.107502
 30
0.0
  0
POINT
  5
21B
330
213
100
AcDbEntity
  8
Defpoints
 62
     0
100
AcDbPoint
 10
538.823207
 20
73.607502
 30
0.0
  0
POINT
  5
21C
330
213
100
AcDbEntity
  8
Defpoints
 62
     0
100
AcDbPoint
 10
787.050064
 20
73.607502
 30
0.0
  0
ENDBLK
  5
21E
330
213
100
AcDbEntity
  8
0
100
AcDbBlockEnd
  0
BLOCK
  5
401
330
400
100
AcDbEntity
  8
0
100
AcDbBlockBegin
  2
KLON11
 70
     0
 71
     0
 10
0.0
 20
0.0
 30
0.0
  3
KLON11
  1

  4
KLON11
  0
LINE
  5
403
330
400
100
AcDbEntity
  8
LC-001-100-D00-0
 62
     7
370
    15
100
AcDbLine
 10
217.823214
 20
409.502882
 30
0.0
 11
217.820487
 21
409.502912
 31
0.0
  0
LINE
  5
404
330
400
100
AcDbEntity
  8
LC-001-100-D00-0
 62
     7
370
    15
100
AcDbLine
 10
217.820487
 20
409.502912
 30
0.0
 11
217.815905
 21
409.503105
 31
0.0
  0
LINE
  5
405
330
400
100
AcDbEntity
  8
LC-001-100-D00-0
 62
     7
370
    15
100
AcDbLine
 10
217.815905
 20
409.503105
 30
0.0
 11
217.807031
 21
409.50394
 31
0.0
  0
LINE
  5
406
330
400
100
AcDbEntity
  8
LC-001-100-D00-0
 62
     7
370
    15
100
AcDbLine
 10
217.807031
 20
409.50394
 30
0.0
 11
217.804751
 21
409.504245
 31
0.0
  0
LINE
  5
407
330
400
100
AcDbEntity
  8
LC-001-100-D00-0
 62
     7
370
    15
100
AcDbLine
 10
217.804751
 20
409.504245
 30
0.0
 11
217.804178
 21
409.504327
 31
0.0
  0
LINE
  5
408
330
400
100
AcDbEntity
  8
LC-001-100-D00-0
 62
     7
370
    15
100
AcDbLine
 10
217.804178
 20
409.504327
 30
0.0
 11
217.804036
 21
409.50435
 31
0.0
  0
LINE
  5
409
330
400
100
AcDbEntity
  8
LC-001-100-D00-0
 62
     7
370
    15
100
AcDbLine
 10
217.804036
 20
409.50435
 30
0.0
 11
217.684857
 21
409.55362
 31
0.0
  0
LINE
  5
40A
330
400
100
AcDbEntity
  8
LC-001-100-D00-0
 62
     7
370
    15
100
AcDbLine
 10
217.684857
 20
409.55362
 30
0.0
 11
216.844252
 21
410.366516
 31
0.0
  0
LINE
  5
40B
330
400
100
AcDbEntity
  8
LC-001-100-D00-0
 62
     7
370
    15
100
AcDbLine
 10
216.844252
 20
410.366516
 30
0.0
 11
215.755573
 21
411.691847
 31
0.0
  0
LINE
  5
40C
330
400
100
AcDbEntity
  8
LC-001-100-D00-0
 62
     7
370
    15
100
AcDbLine
 10
215.755573
 20
411.691847
 30
0.0
 11
214.329711
 21
413.595001
 31
0.0
  0
LINE
  5
40D
330
400
100
AcDbEntity
  8
LC-001-100-D00-0
 62
     7
370
    15
100
AcDbLine
 10
214.329711
 20
413.595001
 30
0.0
 11
212.277367
 21
416.56066
 31
0.0
  0
LINE
  5
40E
330
400
100
AcDbEntity
  8
LC-001-100-D00-0
 62
     7
370
    15
100
AcDbLine
 10
212.277367
 20
416.56066
 30
0.0
 11
209.906696
 21
420.20199
 31
0.0
  0
LINE
  5
40F
330
400
100
AcDbEntity
  8
LC-001-100-D00-0
 62
     7
370
    15
100
AcDbLine
 10
209.906696
 20
420.20199
 30
0.0
 11
209.798506
 21
420.368376
 31
0.0
  0
ENDBLK
  5
402
330
400
100
AcDbEntity
  8
0
100
AcDbBlockEnd
  0
BLOCK
  5
412
330
411
100
AcDbEntity
  8
0
100
AcDbBlockBegin
  2
KLON12
 70
     0
 71
     0
 10
0.0
 20
0.0
 30
0.0
  3
KLON12
  1

  4
KLON12
  0
LINE
  5
414
330
411
100
AcDbEntity
  8
LC-001-100-D00-0
 62
     7
370
    15
100
AcDbLine
 10
209.798506
 20
420.368376
 30
0.0
 11
209.056898
 21
422.746922
 31
0.0
  0
LINE
  5
415
330
411
100
AcDbEntity
  8
LC-001-100-D00-0
 62
     7
370
    15
100
AcDbLine
 10
209.056898
 20
422.746922
 30
0.0
 11
208.422161
 21
425.327349
 31
0.0
  0
LINE
  5
416
330
411
100
AcDbEntity
  8
LC-001-100-D00-0
 62
     7
370
    15
100
AcDbLine
 10
208.422161
 20
425.327349
 30
0.0
 11
207.902952
 21
428.459532
 31
0.0
  0
LINE
  5
417
330
411
100
AcDbEntity
  8
LC-001-100-D00-0
 62
     7
370
    15
100
AcDbLine
 10
207.902952
 20
428.459532
 30
0.0
 11
207.666113
 21
431.796408
 31
0.0
  0
LINE
  5
418
330
411
100
AcDbEntity
  8
LC-001-100-D00-0
 62
     7
370
    15
100
AcDbLine
 10
207.666113
 20
431.796408
 30
0.0
 11
207.757032
 21
435.066178
 31
0.0
  0
LINE
  5
419
330
411
100
AcDbEntity
  8
LC-001-100-D00-0
 62
     7
370
    15
100
AcDbLine
 10
207.757032
 20
435.066178
 30
0.0
 11
208.168848
 21
438.357554
 31
0.0
  0
LINE
  5
41A
330
411
100
AcDbEntity
  8
LC-001-100-D00-0
 62
     7
370
    15
100
AcDbLine
 10
208.168848
 20
438.357554
 30
0.0
 11
208.812742
 21
441.350344
 31
0.0
  0
LINE
  5
41B
330
411
100
AcDbEntity
  8
LC-001-100-D00-0
 62
     7
370
    15
100
AcDbLine
 10
208.812742
 20
441.350344
 30
0.0
 11
209.651372
 21
444.200269
 31
0.0
  0
LINE
  5
41C
330
411
100
AcDbEntity
  8
LC-001-100-D00-0
 62
     7
370
    15
100
AcDbLine
 10
209.651372
 20
444.200269
 30
0.0
 11
210.719033
 21
447.111297
 31
0.0
  0
LINE
  5
41D
330
411
100
AcDbEntity
  8
LC-001-100-D00-0
 62
     7
370
    15
100
AcDbLine
 10
210.719033
 20
447.111297
 30
0.0
 11
211.842908
 21
449.721399
 31
0.0
  0
LINE
  5
41E
330
411
100
AcDbEntity
  8
LC-001-100-D00-0
 62
     7
370
    15
100
AcDbLine
 10
211.842908
 20
449.721399
 30
0.0
 11
212.991326
 21
452.098112
 31
0.0
  0
LINE
  5
41F
330
411
100
AcDbEntity
  8
LC-001-100-D00-0
 62
     7
370
    15
100
AcDbLine
 10
212.991326
 20
452.098112
 30
0.0
 11
213.963142
 21
453.952222
 31
0.0
  0
LINE
  5
420
330
411
100
AcDbEntity
  8
LC-001-100-D00-0
 62
     7
370
    15
100
AcDbLine
 10
213.963142
 20
453.952222
 30
0.0
 11
214.505381
 21
454.938493
 31
0.0
  0
LINE
  5
421
330
411
100
AcDbEntity
  8
LC-001-100-D00-0
 62
     7
370
    15
100
AcDbLine
 10
214.505381
 20
454.938493
 30
0.0
 11
214.792079
 21
455.44802
 31
0.0
  0
LINE
  5
422
330
411
100
AcDbEntity
  8
LC-001-100-D00-0
 62
     7
370
    15
100
AcDbLine
 10
214.792079
 20
455.44802
 30
0.0
 11
214.822939
 21
455.502398
 31
0.0
  0
LINE
  5
423
330
411
100
AcDbEntity
  8
LC-001-100-D00-0
 62
     7
370
    15
100
AcDbLine
 10
214.822939
 20
455.502398
 30
0.0
 11
214.823215
 21
455.502882
 31
0.0
  0
ENDBLK
  5
413
330
411
100
AcDbEntity
  8
0
100
AcDbBlockEnd
  0
BLOCK
  5
429
330
428
100
AcDbEntity
  8
0
100
AcDbBlockBegin
  2
KLON13
 70
     0
 71
     0
 10
0.0
 20
0.0
 30
0.0
  3
KLON13
  1

  4
KLON13
  0
LINE
  5
42B
330
428
100
AcDbEntity
  8
LC-001-100-D00-0
 62
     7
370
    15
100
AcDbLine
 10
209.140665
 20
419.002879
 30
0.0
 11
209.147445
 21
419.017161
 31
0.0
  0
LINE
  5
42C
330
428
100
AcDbEntity
  8
LC-001-100-D00-0
 62
     7
370
    15
100
AcDbLine
 10
209.147445
 20
419.017161
 30
0.0
 11
209.798506
 21
420.368376
 31
0.0
  0
ENDBLK
  5
42A
330
428
100
AcDbEntity
  8
0
100
AcDbBlockEnd
  0
BLOCK
  5
557
330
556
100
AcDbEntity
  8
0
100
AcDbBlockBegin
  2
KLON14
 70
     0
 71
     0
 10
0.0
 20
0.0
 30
0.0
  3
KLON14
  1

  4
KLON14
  0
LINE
  5
559
330
556
100
AcDbEntity
  8
LC-001-100-D00-0
 62
     7
370
    15
100
AcDbLine
 10
476.73089
 20
467.671045
 30
0.0
 11
479.287214
 21
467.764341
 31
0.0
  0
LINE
  5
55A
330
556
100
AcDbEntity
  8
LC-001-100-D00-0
 62
     7
370
    15
100
AcDbLine
 10
479.287214
 20
467.764341
 30
0.0
 11
481.433011
 21
467.842655
 31
0.0
  0
LINE
  5
55B
330
556
100
AcDbEntity
  8
LC-001-100-D00-0
 62
     7
370
    15
100
AcDbLine
 10
481.433011
 20
467.842655
 30
0.0
 11
483.163155
 21
467.905798
 31
0.0
  0
LINE
  5
55C
330
556
100
AcDbEntity
  8
LC-001-100-D00-0
 62
     7
370
    15
100
AcDbLine
 10
483.163155
 20
467.905798
 30
0.0
 11
484.473473
 21
467.95362
 31
0.0
  0
LINE
  5
55D
330
556
100
AcDbEntity
  8
LC-001-100-D00-0
 62
     7
370
    15
100
AcDbLine
 10
484.473473
 20
467.95362
 30
0.0
 11
485.360867
 21
467.986007
 31
0.0
  0
LINE
  5
55E
330
556
100
AcDbEntity
  8
LC-001-100-D00-0
 62
     7
370
    15
100
AcDbLine
 10
485.360867
 20
467.986007
 30
0.0
 11
485.82322
 21
468.002881
 31
0.0
  0
ENDBLK
  5
558
330
556
100
AcDbEntity
  8
0
100
AcDbBlockEnd
  0
BLOCK
  5
561
330
560
100
AcDbEntity
  8
0
100
AcDbBlockBegin
  2
KLON15
 70
     0
 71
     0
 10
0.0
 20
0.0
 30
0.0
  3
KLON15
  1

  4
KLON15
  0
LINE
  5
563
330
560
100
AcDbEntity
  8
LC-001-100-D00-0
 62
     7
370
    15
100
AcDbLine
 10
-189.084464
 20
467.671045
 30
0.0
 11
-191.640788
 21
467.764341
 31
0.0
  0
LINE
  5
564
330
560
100
AcDbEntity
  8
LC-001-100-D00-0
 62
     7
370
    15
100
AcDbLine
 10
-191.640788
 20
467.764341
 30
0.0
 11
-193.786585
 21
467.842655
 31
0.0
  0
LINE
  5
565
330
560
100
AcDbEntity
  8
LC-001-100-D00-0
 62
     7
370
    15
100
AcDbLine
 10
-193.786585
 20
467.842655
 30
0.0
 11
-195.516729
 21
467.905798
 31
0.0
  0
LINE
  5
566
330
560
100
AcDbEntity
  8
LC-001-100-D00-0
 62
     7
370
    15
100
AcDbLine
 10
-195.516729
 20
467.905798
 30
0.0
 11
-196.827048
 21
467.95362
 31
0.0
  0
LINE
  5
567
330
560
100
AcDbEntity
  8
LC-001-100-D00-0
 62
     7
370
    15
100
AcDbLine
 10
-196.827048
 20
467.95362
 30
0.0
 11
-197.714442
 21
467.986007
 31
0.0
  0
LINE
  5
568
330
560
100
AcDbEntity
  8
LC-001-100-D00-0
 62
     7
370
    15
100
AcDbLine
 10
-197.714442
 20
467.986007
 30
0.0
 11
-198.176795
 21
468.002881
 31
0.0
  0
ENDBLK
  5
562
330
560
100
AcDbEntity
  8
0
100
AcDbBlockEnd
  0
BLOCK
  5
585
330
584
100
AcDbEntity
  8
0
100
AcDbBlockBegin
  2
KLON16
 70
     0
 71
     0
 10
0.0
 20
0.0
 30
0.0
  3
KLON16
  1

  4
KLON16
  0
LINE
  5
587
330
584
100
AcDbEntity
  8
LC-001-100-D00-0
 62
     7
370
    15
100
AcDbLine
 10
97.703597
 20
456.002879
 30
0.0
 11
97.717128
 21
455.844174
 31
0.0
  0
LINE
  5
588
330
584
100
AcDbEntity
  8
LC-001-100-D00-0
 62
     7
370
    15
100
AcDbLine
 10
97.717128
 20
455.844174
 30
0.0
 11
97.879051
 21
455.259755
 31
0.0
  0
LINE
  5
589
330
584
100
AcDbEntity
  8
LC-001-100-D00-0
 62
     7
370
    15
100
AcDbLine
 10
97.879051
 20
455.259755
 30
0.0
 11
98.128918
 21
454.81345
 31
0.0
  0
LINE
  5
58A
330
584
100
AcDbEntity
  8
LC-001-100-D00-0
 62
     7
370
    15
100
AcDbLine
 10
98.128918
 20
454.81345
 30
0.0
 11
98.440218
 21
454.554699
 31
0.0
  0
LINE
  5
58B
330
584
100
AcDbEntity
  8
LC-001-100-D00-0
 62
     7
370
    15
100
AcDbLine
 10
98.440218
 20
454.554699
 30
0.0
 11
98.577711
 21
454.510941
 31
0.0
  0
ENDBLK
  5
586
330
584
100
AcDbEntity
  8
0
100
AcDbBlockEnd
  0
BLOCK
  5
58E
330
58D
100
AcDbEntity
  8
0
100
AcDbBlockBegin
  2
KLON17
 70
     0
 71
     0
 10
0.0
 20
0.0
 30
0.0
  3
KLON17
  1

  4
KLON17
  0
LINE
  5
590
330
58D
100
AcDbEntity
  8
LC-001-100-D00-0
 62
     7
370
    15
100
AcDbLine
 10
485.795862
 20
469.50288
 30
0.0
 11
485.795147
 21
469.540862
 31
0.0
  0
LINE
  5
591
330
58D
100
AcDbEntity
  8
LC-001-100-D00-0
 62
     7
370
    15
100
AcDbLine
 10
485.795147
 20
469.540862
 30
0.0
 11
485.79309
 21
469.653649
 31
0.0
  0
LINE
  5
592
330
58D
100
AcDbEntity
  8
LC-001-100-D00-0
 62
     7
370
    15
100
AcDbLine
 10
485.79309
 20
469.653649
 30
0.0
 11
485.789752
 21
469.837818
 31
0.0
  0
LINE
  5
593
330
58D
100
AcDbEntity
  8
LC-001-100-D00-0
 62
     7
370
    15
100
AcDbLine
 10
485.789752
 20
469.837818
 30
0.0
 11
485.785193
 21
470.08777
 31
0.0
  0
LINE
  5
594
330
58D
100
AcDbEntity
  8
LC-001-100-D00-0
 62
     7
370
    15
100
AcDbLine
 10
485.785193
 20
470.08777
 30
0.0
 11
485.77956
 21
470.395913
 31
0.0
  0
LINE
  5
595
330
58D
100
AcDbEntity
  8
LC-001-100-D00-0
 62
     7
370
    15
100
AcDbLine
 10
485.77956
 20
470.395913
 30
0.0
 11
485.773033
 21
470.752881
 31
0.0
  0
LINE
  5
596
330
58D
100
AcDbEntity
  8
LC-001-100-D00-0
 62
     7
370
    15
100
AcDbLine
 10
485.773033
 20
470.752881
 30
0.0
 11
485.765851
 21
471.147831
 31
0.0
  0
LINE
  5
597
330
58D
100
AcDbEntity
  8
LC-001-100-D00-0
 62
     7
370
    15
100
AcDbLine
 10
485.765851
 20
471.147831
 30
0.0
 11
485.758162
 21
471.568761
 31
0.0
  0
LINE
  5
598
330
58D
100
AcDbEntity
  8
LC-001-100-D00-0
 62
     7
370
    15
100
AcDbLine
 10
485.758162
 20
471.568761
 30
0.0
 11
485.750235
 21
472.002882
 31
0.0
  0
ENDBLK
  5
58F
330
58D
100
AcDbEntity
  8
0
100
AcDbBlockEnd
  0
BLOCK
  5
59B
330
59A
100
AcDbEntity
  8
0
100
AcDbBlockBegin
  2
KLON18
 70
     0
 71
     0
 10
0.0
 20
0.0
 30
0.0
  3
KLON18
  1

  4
KLON18
  0
LINE
  5
59D
330
59A
100
AcDbEntity
  8
LC-001-100-D00-0
 62
     7
370
    15
100
AcDbLine
 10
-198.149436
 20
469.50288
 30
0.0
 11
-198.148721
 21
469.540862
 31
0.0
  0
LINE
  5
59E
330
59A
100
AcDbEntity
  8
LC-001-100-D00-0
 62
     7
370
    15
100
AcDbLine
 10
-198.148721
 20
469.540862
 30
0.0
 11
-198.146665
 21
469.653649
 31
0.0
  0
LINE
  5
59F
330
59A
100
AcDbEntity
  8
LC-001-100-D00-0
 62
     7
370
    15
100
AcDbLine
 10
-198.146665
 20
469.653649
 30
0.0
 11
-198.143327
 21
469.837818
 31
0.0
  0
LINE
  5
5A0
330
59A
100
AcDbEntity
  8
LC-001-100-D00-0
 62
     7
370
    15
100
AcDbLine
 10
-198.143327
 20
469.837818
 30
0.0
 11
-198.138767
 21
470.08777
 31
0.0
  0
LINE
  5
5A1
330
59A
100
AcDbEntity
  8
LC-001-100-D00-0
 62
     7
370
    15
100
AcDbLine
 10
-198.138767
 20
470.08777
 30
0.0
 11
-198.133134
 21
470.395913
 31
0.0
  0
LINE
  5
5A2
330
59A
100
AcDbEntity
  8
LC-001-100-D00-0
 62
     7
370
    15
100
AcDbLine
 10
-198.133134
 20
470.395913
 30
0.0
 11
-198.126608
 21
470.752881
 31
0.0
  0
LINE
  5
5A3
330
59A
100
AcDbEntity
  8
LC-001-100-D00-0
 62
     7
370
    15
100
AcDbLine
 10
-198.126608
 20
470.752881
 30
0.0
 11
-198.119425
 21
471.147831
 31
0.0
  0
LINE
  5
5A4
330
59A
100
AcDbEntity
  8
LC-001-100-D00-0
 62
     7
370
    15
100
AcDbLine
 10
-198.119425
 20
471.147831
 30
0.0
 11
-198.111736
 21
471.568761
 31
0.0
  0
LINE
  5
5A5
330
59A
100
AcDbEntity
  8
LC-001-100-D00-0
 62
     7
370
    15
100
AcDbLine
 10
-198.111736
 20
471.568761
 30
0.0
 11
-198.103809
 21
472.002882
 31
0.0
  0
ENDBLK
  5
59C
330
59A
100
AcDbEntity
  8
0
100
AcDbBlockEnd
  0
BLOCK
  5
5C3
330
5B8
100
AcDbEntity
  8
0
100
AcDbBlockBegin
  2
*D23
 70
     1
 71
     0
 10
0.0
 20
0.0
 30
0.0
  3
*D23
  1

  0
LINE
  5
5B9
330
5B8
100
AcDbEntity
  8
LC-001-100-D00-0
 62
     2
370
    -2
100
AcDbLine
 10
-256.176787
 20
490.002881
 30
0.0
 11
-321.178087
 21
490.002881
 31
0.0
  0
LINE
  5
5BA
330
5B8
100
AcDbEntity
  8
LC-001-100-D00-0
 62
     2
370
    -2
100
AcDbLine
 10
-251.176787
 20
535.002881
 30
0.0
 11
-321.178087
 21
535.002881
 31
0.0
  0
LINE
  5
5BB
330
5B8
100
AcDbEntity
  8
LC-001-100-D00-0
 62
     2
370
    -2
100
AcDbLine
 10
-312.178087
 20
440.002881
 30
0.0
 11
-312.178087
 21
390.002881
 31
0.0
  0
LINE
  5
5BC
330
5B8
100
AcDbEntity
  8
LC-001-100-D00-0
 62
     2
370
    -2
100
AcDbLine
 10
-312.178087
 20
585.002881
 30
0.0
 11
-312.178087
 21
595.219932
 31
0.0
  0
SOLID
  5
5BD
330
5B8
100
AcDbEntity
  8
LC-001-100-D00-0
 62
     2
100
AcDbTrace
 10
-303.844754
 20
440.002881
 30
0.0
 11
-320.511421
 21
440.002881
 31
0.0
 12
-312.178087
 22
490.002881
 32
0.0
 13
-312.178087
 23
490.002881
 33
0.0
  0
SOLID
  5
5BE
330
5B8
100
AcDbEntity
  8
LC-001-100-D00-0
 62
     2
100
AcDbTrace
 10
-320.511421
 20
585.002881
 30
0.0
 11
-303.844754
 21
585.002881
 31
0.0
 12
-312.178087
 22
535.002881
 32
0.0
 13
-312.178087
 23
535.002881
 33
0.0
  0
MTEXT
  5
5BF
330
5B8
100
AcDbEntity
  8
LC-001-100-D00-0
 62
     2
100
AcDbMText
 10
-367.178087
 20
552.782502
 30
0.0
 40
50.0
 41
0.0
 71
     5
 72
     1
  1
\A1;46
  7
LCTX15-400-0-0pDIN-Schrift
 11
6.123031769111886E-17
 21
1.0
 31
0.0
 73
     1
 44
1.0
  0
POINT
  5
5C0
330
5B8
100
AcDbEntity
  8
Defpoints
 62
     0
100
AcDbPoint
 10
-256.176787
 20
490.002881
 30
0.0
  0
POINT
  5
5C1
330
5B8
100
AcDbEntity
  8
Defpoints
 62
     0
100
AcDbPoint
 10
-251.176787
 20
535.002881
 30
0.0
  0
POINT
  5
5C2
330
5B8
100
AcDbEntity
  8
Defpoints
 62
     0
100
AcDbPoint
 10
-312.178087
 20
535.002881
 30
0.0
  0
ENDBLK
  5
5C4
330
5B8
100
AcDbEntity
  8
0
100
AcDbBlockEnd
  0
BLOCK
  5
5D0
330
5C6
100
AcDbEntity
  8
0
100
AcDbBlockBegin
  2
*D24
 70
     1
 71
     0
 10
0.0
 20
0.0
 30
0.0
  3
*D24
  1

  0
LINE
  5
5C7
330
5C6
100
AcDbEntity
  8
LC-001-100-D00-0
 62
     2
370
    -2
100
AcDbLine
 10
-256.176787
 20
530.002881
 30
0.0
 11
-256.176787
 21
639.002502
 31
0.0
  0
LINE
  5
5C8
330
5C6
100
AcDbEntity
  8
LC-001-100-D00-0
 62
     2
370
    -2
100
AcDbLine
 10
543.823213
 20
530.002881
 30
0.0
 11
543.823213
 21
639.002502
 31
0.0
  0
LINE
  5
5C9
330
5C6
100
AcDbEntity
  8
LC-001-100-D00-0
 62
     2
370
    -2
100
AcDbLine
 10
-206.176787
 20
630.002502
 30
0.0
 11
493.823213
 21
630.002502
 31
0.0
  0
SOLID
  5
5CA
330
5C6
100
AcDbEntity
  8
LC-001-100-D00-0
 62
     2
100
AcDbTrace
 10
-206.176787
 20
638.335835
 30
0.0
 11
-206.176787
 21
621.669169
 31
0.0
 12
-256.176787
 22
630.002502
 32
0.0
 13
-256.176787
 23
630.002502
 33
0.0
  0
SOLID
  5
5CB
330
5C6
100
AcDbEntity
  8
LC-001-100-D00-0
 62
     2
100
AcDbTrace
 10
493.823213
 20
621.669169
 30
0.0
 11
493.823213
 21
638.335835
 31
0.0
 12
543.823213
 22
630.002502
 32
0.0
 13
543.823213
 23
630.002502
 33
0.0
  0
MTEXT
  5
5CC
330
5C6
100
AcDbEntity
  8
LC-001-100-D00-0
 62
     2
100
AcDbMText
 10
142.139999
 20
685.002502
 30
0.0
 40
50.0
 41
0.0
 71
     5
 72
     1
  1
\A1;800
  7
LCTX15-400-0-0pDIN-Schrift
 73
     1
 44
1.0
  0
POINT
  5
5CD
330
5C6
100
AcDbEntity
  8
Defpoints
 62
     0
100
AcDbPoint
 10
-256.176787
 20
530.002881
 30
0.0
  0
POINT
  5
5CE
330
5C6
100
AcDbEntity
  8
Defpoints
 62
     0
100
AcDbPoint
 10
543.823213
 20
530.002881
 30
0.0
  0
POINT
  5
5CF
330
5C6
100
AcDbEntity
  8
Defpoints
 62
     0
100
AcDbPoint
 10
543.823213
 20
630.002502
 30
0.0
  0
ENDBLK
  5
5D1
330
5C6
100
AcDbEntity
  8
0
100
AcDbBlockEnd
  0
BLOCK
  5
5DD
330
5D3
100
AcDbEntity
  8
0
100
AcDbBlockBegin
  2
*D25
 70
     1
 71
     0
 10
0.0
 20
0.0
 30
0.0
  3
*D25
  1

  0
LINE
  5
5D4
330
5D3
100
AcDbEntity
  8
LC-001-100-D00-0
 62
     2
370
    -2
100
AcDbLine
 10
-206.176787
 20
487.002881
 30
0.0
 11
-206.176787
 21
571.562285
 31
0.0
  0
LINE
  5
5D5
330
5D3
100
AcDbEntity
  8
LC-001-100-D00-0
 62
     2
370
    -2
100
AcDbLine
 10
493.823213
 20
487.002881
 30
0.0
 11
493.823213
 21
571.562285
 31
0.0
  0
LINE
  5
5D6
330
5D3
100
AcDbEntity
  8
LC-001-100-D00-0
 62
     2
370
    -2
100
AcDbLine
 10
-156.176787
 20
562.562285
 30
0.0
 11
443.823213
 21
562.562285
 31
0.0
  0
SOLID
  5
5D7
330
5D3
100
AcDbEntity
  8
LC-001-100-D00-0
 62
     2
100
AcDbTrace
 10
-156.176787
 20
570.895618
 30
0.0
 11
-156.176787
 21
554.228952
 31
0.0
 12
-206.176787
 22
562.562285
 32
0.0
 13
-206.176787
 23
562.562285
 33
0.0
  0
SOLID
  5
5D8
330
5D3
100
AcDbEntity
  8
LC-001-100-D00-0
 62
     2
100
AcDbTrace
 10
443.823213
 20
554.228952
 30
0.0
 11
443.823213
 21
570.895618
 31
0.0
 12
493.823213
 22
562.562285
 32
0.0
 13
493.823213
 23
562.562285
 33
0.0
  0
MTEXT
  5
5D9
330
5D3
100
AcDbEntity
  8
LC-001-100-D00-0
 62
     2
100
AcDbMText
 10
138.088537
 20
617.562285
 30
0.0
 40
50.0
 41
0.0
 71
     5
 72
     1
  1
\A1;700
  7
LCTX15-400-0-0pDIN-Schrift
 73
     1
 44
1.0
  0
POINT
  5
5DA
330
5D3
100
AcDbEntity
  8
Defpoints
 62
     0
100
AcDbPoint
 10
-206.176787
 20
487.002881
 30
0.0
  0
POINT
  5
5DB
330
5D3
100
AcDbEntity
  8
Defpoints
 62
     0
100
AcDbPoint
 10
493.823213
 20
487.002881
 30
0.0
  0
POINT
  5
5DC
330
5D3
100
AcDbEntity
  8
Defpoints
 62
     0
100
AcDbPoint
 10
493.823213
 20
562.562285
 30
0.0
  0
ENDBLK
  5
5DE
330
5D3
100
AcDbEntity
  8
0
100
AcDbBlockEnd
  0
BLOCK
  5
5EA
330
5E0
100
AcDbEntity
  8
0
100
AcDbBlockBegin
  2
*D26
 70
     1
 71
     0
 10
0.0
 20
0.0
 30
0.0
  3
*D26
  1

  0
LINE
  5
5E1
330
5E0
100
AcDbEntity
  8
LC-001-100-D00-0
 62
     2
370
    -2
100
AcDbLine
 10
69.823213
 20
419.002881
 30
0.0
 11
69.823213
 21
284.452502
 31
0.0
  0
LINE
  5
5E2
330
5E0
100
AcDbEntity
  8
LC-001-100-D00-0
 62
     2
370
    -2
100
AcDbLine
 10
353.32301
 20
408.440703
 30
0.0
 11
353.32301
 21
284.452502
 31
0.0
  0
LINE
  5
5E3
330
5E0
100
AcDbEntity
  8
LC-001-100-D00-0
 62
     2
370
    -2
100
AcDbLine
 10
119.823213
 20
293.452502
 30
0.0
 11
303.32301
 21
293.452502
 31
0.0
  0
SOLID
  5
5E4
330
5E0
100
AcDbEntity
  8
LC-001-100-D00-0
 62
     2
100
AcDbTrace
 10
119.823213
 20
301.785835
 30
0.0
 11
119.823213
 21
285.119169
 31
0.0
 12
69.823213
 22
293.452502
 32
0.0
 13
69.823213
 23
293.452502
 33
0.0
  0
SOLID
  5
5E5
330
5E0
100
AcDbEntity
  8
LC-001-100-D00-0
 62
     2
100
AcDbTrace
 10
303.32301
 20
285.119169
 30
0.0
 11
303.32301
 21
301.785835
 31
0.0
 12
353.32301
 22
293.452502
 32
0.0
 13
353.32301
 23
293.452502
 33
0.0
  0
MTEXT
  5
5E6
330
5E0
100
AcDbEntity
  8
LC-001-100-D00-0
 62
     2
100
AcDbMText
 10
237.435988
 20
348.452502
 30
0.0
 40
50.0
 41
0.0
 71
     5
 72
     1
  1
\A1;284
  7
LCTX15-400-0-0pDIN-Schrift
 73
     1
 44
1.0
  0
POINT
  5
5E7
330
5E0
100
AcDbEntity
  8
Defpoints
 62
     0
100
AcDbPoint
 10
69.823213
 20
419.002881
 30
0.0
  0
POINT
  5
5E8
330
5E0
100
AcDbEntity
  8
Defpoints
 62
     0
100
AcDbPoint
 10
353.32301
 20
408.440703
 30
0.0
  0
POINT
  5
5E9
330
5E0
100
AcDbEntity
  8
Defpoints
 62
     0
100
AcDbPoint
 10
353.32301
 20
293.452502
 30
0.0
  0
ENDBLK
  5
5EB
330
5E0
100
AcDbEntity
  8
0
100
AcDbBlockEnd
  0
BLOCK
  5
5F8
330
5ED
100
AcDbEntity
  8
0
100
AcDbBlockBegin
  2
*D27
 70
     1
 71
     0
 10
0.0
 20
0.0
 30
0.0
  3
*D27
  1

  0
LINE
  5
5EE
330
5ED
100
AcDbEntity
  8
LC-001-100-D00-0
 62
     2
370
    -2
100
AcDbLine
 10
114.823213
 20
418.502881
 30
0.0
 11
-4.26352
 21
418.502881
 31
0.0
  0
LINE
  5
5EF
330
5ED
100
AcDbEntity
  8
LC-001-100-D00-0
 62
     2
370
    -2
100
AcDbLine
 10
104.330334
 20
448.502881
 30
0.0
 11
-4.26352
 21
448.502881
 31
0.0
  0
LINE
  5
5F0
330
5ED
100
AcDbEntity
  8
LC-001-100-D00-0
 62
     2
370
    -2
100
AcDbLine
 10
4.73648
 20
498.502881
 30
0.0
 11
4.73648
 21
548.502881
 31
0.0
  0
LINE
  5
5F1
330
5ED
100
AcDbEntity
  8
LC-001-100-D00-0
 62
     2
370
    -2
100
AcDbLine
 10
4.73648
 20
368.502881
 30
0.0
 11
4.73648
 21
311.262098
 31
0.0
  0
SOLID
  5
5F2
330
5ED
100
AcDbEntity
  8
LC-001-100-D00-0
 62
     2
100
AcDbTrace
 10
13.069814
 20
368.502881
 30
0.0
 11
-3.596853
 21
368.502881
 31
0.0
 12
4.73648
 22
418.502881
 32
0.0
 13
4.73648
 23
418.502881
 33
0.0
  0
SOLID
  5
5F3
330
5ED
100
AcDbEntity
  8
LC-001-100-D00-0
 62
     2
100
AcDbTrace
 10
-3.596853
 20
498.502881
 30
0.0
 11
13.069814
 21
498.502881
 31
0.0
 12
4.73648
 22
448.502881
 32
0.0
 13
4.73648
 23
448.502881
 33
0.0
  0
MTEXT
  5
5F4
330
5ED
100
AcDbEntity
  8
LC-001-100-D00-0
 62
     2
100
AcDbMText
 10
-50.26352
 20
354.337502
 30
0.0
 40
50.0
 41
0.0
 71
     5
 72
     1
  1
\A1;30
  7
LCTX15-400-0-0pDIN-Schrift
 11
6.123031769111886E-17
 21
1.0
 31
0.0
 73
     1
 44
1.0
  0
POINT
  5
5F5
330
5ED
100
AcDbEntity
  8
Defpoints
 62
     0
100
AcDbPoint
 10
114.823213
 20
418.502881
 30
0.0
  0
POINT
  5
5F6
330
5ED
100
AcDbEntity
  8
Defpoints
 62
     0
100
AcDbPoint
 10
104.330334
 20
448.502881
 30
0.0
  0
POINT
  5
5F7
330
5ED
100
AcDbEntity
  8
Defpoints
 62
     0
100
AcDbPoint
 10
4.73648
 20
448.502881
 30
0.0
  0
ENDBLK
  5
5F9
330
5ED
100
AcDbEntity
  8
0
100
AcDbBlockEnd
  0
BLOCK
  5
606
330
5FB
100
AcDbEntity
  8
0
100
AcDbBlockBegin
  2
*D28
 70
     1
 71
     0
 10
0.0
 20
0.0
 30
0.0
  3
*D28
  1

  0
LINE
  5
5FC
330
5FB
100
AcDbEntity
  8
LC-001-100-D00-0
 62
     2
370
    -2
100
AcDbLine
 10
349.82301
 20
457.502881
 30
0.0
 11
647.565616
 21
457.502881
 31
0.0
  0
LINE
  5
5FD
330
5FB
100
AcDbEntity
  8
LC-001-100-D00-0
 62
     2
370
    -2
100
AcDbLine
 10
349.82301
 20
407.502881
 30
0.0
 11
647.565616
 21
407.502881
 31
0.0
  0
LINE
  5
5FE
330
5FB
100
AcDbEntity
  8
LC-001-100-D00-0
 62
     2
370
    -2
100
AcDbLine
 10
638.565616
 20
357.502881
 30
0.0
 11
638.565616
 21
307.502881
 31
0.0
  0
LINE
  5
5FF
330
5FB
100
AcDbEntity
  8
LC-001-100-D00-0
 62
     2
370
    -2
100
AcDbLine
 10
638.565616
 20
507.502881
 30
0.0
 11
638.565616
 21
575.308855
 31
0.0
  0
SOLID
  5
600
330
5FB
100
AcDbEntity
  8
LC-001-100-D00-0
 62
     2
100
AcDbTrace
 10
630.232282
 20
507.502881
 30
0.0
 11
646.898949
 21
507.502881
 31
0.0
 12
638.565616
 22
457.502881
 32
0.0
 13
638.565616
 23
457.502881
 33
0.0
  0
SOLID
  5
601
330
5FB
100
AcDbEntity
  8
LC-001-100-D00-0
 62
     2
100
AcDbTrace
 10
646.898949
 20
357.502881
 30
0.0
 11
630.232282
 21
357.502881
 31
0.0
 12
638.565616
 22
407.502881
 32
0.0
 13
638.565616
 23
407.502881
 33
0.0
  0
MTEXT
  5
602
330
5FB
100
AcDbEntity
  8
LC-001-100-D00-0
 62
     2
100
AcDbMText
 10
583.565616
 20
490.957502
 30
0.0
 40
50.0
 41
0.0
 71
     5
 72
     1
  1
\A1;DN50
  7
LCTX15-400-0-0pDIN-Schrift
 11
6.123031769111886E-17
 21
1.0
 31
0.0
 73
     1
 44
1.0
  0
POINT
  5
603
330
5FB
100
AcDbEntity
  8
Defpoints
 62
     0
100
AcDbPoint
 10
349.82301
 20
457.502881
 30
0.0
  0
POINT
  5
604
330
5FB
100
AcDbEntity
  8
Defpoints
 62
     0
100
AcDbPoint
 10
349.82301
 20
407.502881
 30
0.0
  0
POINT
  5
605
330
5FB
100
AcDbEntity
  8
Defpoints
 62
     0
100
AcDbPoint
 10
638.565616
 20
407.502881
 30
0.0
  0
ENDBLK
  5
607
330
5FB
100
AcDbEntity
  8
0
100
AcDbBlockEnd
  0
BLOCK
  5
614
330
609
100
AcDbEntity
  8
0
100
AcDbBlockBegin
  2
*D29
 70
     1
 71
     0
 10
0.0
 20
0.0
 30
0.0
  3
*D29
  1

  0
LINE
  5
60A
330
609
100
AcDbEntity
  8
LC-001-100-D00-0
 62
     2
370
    -2
100
AcDbLine
 10
543.823213
 20
490.002881
 30
0.0
 11
749.510162
 21
490.002881
 31
0.0
  0
LINE
  5
60B
330
609
100
AcDbEntity
  8
LC-001-100-D00-0
 62
     2
370
    -2
100
AcDbLine
 10
359.82301
 20
432.502881
 30
0.0
 11
749.510162
 21
432.502881
 31
0.0
  0
LINE
  5
60C
330
609
100
AcDbEntity
  8
LC-001-100-D00-0
 62
     2
370
    -2
100
AcDbLine
 10
740.510162
 20
382.502881
 30
0.0
 11
740.510162
 21
332.502881
 31
0.0
  0
LINE
  5
60D
330
609
100
AcDbEntity
  8
LC-001-100-D00-0
 62
     2
370
    -2
100
AcDbLine
 10
740.510162
 20
540.002881
 30
0.0
 11
740.510162
 21
573.322902
 31
0.0
  0
SOLID
  5
60E
330
609
100
AcDbEntity
  8
LC-001-100-D00-0
 62
     2
100
AcDbTrace
 10
732.176829
 20
540.002881
 30
0.0
 11
748.843495
 21
540.002881
 31
0.0
 12
740.510162
 22
490.002881
 32
0.0
 13
740.510162
 23
490.002881
 33
0.0
  0
SOLID
  5
60F
330
609
100
AcDbEntity
  8
LC-001-100-D00-0
 62
     2
100
AcDbTrace
 10
748.843495
 20
382.502881
 30
0.0
 11
732.176829
 21
382.502881
 31
0.0
 12
740.510162
 22
432.502881
 32
0.0
 13
740.510162
 23
432.502881
 33
0.0
  0
MTEXT
  5
610
330
609
100
AcDbEntity
  8
LC-001-100-D00-0
 62
     2
100
AcDbMText
 10
685.510162
 20
501.352502
 30
0.0
 40
50.0
 41
0.0
 71
     5
 72
     1
  1
\A1;57.5
  7
LCTX15-400-0-0pDIN-Schrift
 11
6.123031769111886E-17
 21
1.0
 31
0.0
 73
     1
 44
1.0
  0
POINT
  5
611
330
609
100
AcDbEntity
  8
Defpoints
 62
     0
100
AcDbPoint
 10
543.823213
 20
490.002881
 30
0.0
  0
POINT
  5
612
330
609
100
AcDbEntity
  8
Defpoints
 62
     0
100
AcDbPoint
 10
359.82301
 20
432.502881
 30
0.0
  0
POINT
  5
613
330
609
100
AcDbEntity
  8
Defpoints
 62
     0
100
AcDbPoint
 10
740.510162
 20
432.502881
 30
0.0
  0
ENDBLK
  5
615
330
609
100
AcDbEntity
  8
0
100
AcDbBlockEnd
  0
BLOCK
  5
623
330
617
100
AcDbEntity
  8
0
100
AcDbBlockBegin
  2
*D30
 70
     1
 71
     0
 10
0.0
 20
0.0
 30
0.0
  3
*D30
  1

  0
LINE
  5
618
330
617
100
AcDbEntity
  8
LC-001-100-D00-0
 62
     2
370
    -2
100
AcDbLine
 10
543.823213
 20
490.002881
 30
0.0
 11
835.941408
 21
490.002881
 31
0.0
  0
LINE
  5
619
330
617
100
AcDbEntity
  8
LC-001-100-D00-0
 62
     2
370
    -2
100
AcDbLine
 10
197.841093
 20
400.002881
 30
0.0
 11
835.941408
 21
400.002881
 31
0.0
  0
LINE
  5
61A
330
617
100
AcDbEntity
  8
LC-001-100-D00-0
 62
     2
370
    -2
100
AcDbLine
 10
826.941408
 20
540.002881
 30
0.0
 11
826.941408
 21
590.002881
 31
0.0
  0
LINE
  5
61B
330
617
100
AcDbEntity
  8
LC-001-100-D00-0
 62
     2
370
    -2
100
AcDbLine
 10
826.941408
 20
350.002881
 30
0.0
 11
826.941408
 21
300.002881
 31
0.0
  0
LINE
  5
61C
330
617
100
AcDbEntity
  8
LC-001-100-D00-0
 62
     2
370
    -2
100
AcDbLine
 10
826.941408
 20
490.002881
 30
0.0
 11
826.941408
 21
400.002881
 31
0.0
  0
SOLID
  5
61D
330
617
100
AcDbEntity
  8
LC-001-100-D00-0
 62
     2
100
AcDbTrace
 10
818.608074
 20
540.002881
 30
0.0
 11
835.274741
 21
540.002881
 31
0.0
 12
826.941408
 22
490.002881
 32
0.0
 13
826.941408
 23
490.002881
 33
0.0
  0
SOLID
  5
61E
330
617
100
AcDbEntity
  8
LC-001-100-D00-0
 62
     2
100
AcDbTrace
 10
835.274741
 20
350.002881
 30
0.0
 11
818.608074
 21
350.002881
 31
0.0
 12
826.941408
 22
400.002881
 32
0.0
 13
826.941408
 23
400.002881
 33
0.0
  0
MTEXT
  5
61F
330
617
100
AcDbEntity
  8
LC-001-100-D00-0
 62
     2
100
AcDbMText
 10
771.941408
 20
450.862502
 30
0.0
 40
50.0
 41
0.0
 71
     5
 72
     1
  1
\A1;90
  7
LCTX15-400-0-0pDIN-Schrift
 11
6.123031769111886E-17
 21
1.0
 31
0.0
 73
     1
 44
1.0
  0
POINT
  5
620
330
617
100
AcDbEntity
  8
Defpoints
 62
     0
100
AcDbPoint
 10
543.823213
 20
490.002881
 30
0.0
  0
POINT
  5
621
330
617
100
AcDbEntity
  8
Defpoints
 62
     0
100
AcDbPoint
 10
197.841093
 20
400.002881
 30
0.0
  0
POINT
  5
622
330
617
100
AcDbEntity
  8
Defpoints
 62
     0
100
AcDbPoint
 10
826.941408
 20
400.002881
 30
0.0
  0
ENDBLK
  5
624
330
617
100
AcDbEntity
  8
0
100
AcDbBlockEnd
  0
BLOCK
  5
627
330
626
100
AcDbEntity
  8
0
100
AcDbBlockBegin
  2
KLON19
 70
     0
 71
     0
 10
0.0
 20
0.0
 30
0.0
  3
KLON19
  1

  4
KLON19
  0
LINE
  5
629
330
626
100
AcDbEntity
  8
LC-001-100-D00-0
 62
     7
370
    25
100
AcDbLine
 10
-60.07171
 20
479.002881
 30
0.0
 11
-56.426787
 21
482.647804
 31
0.0
  0
LINE
  5
62A
330
626
100
AcDbEntity
  8
LC-001-100-D00-0
 62
     7
370
    25
100
AcDbLine
 10
-52.071711
 20
487.002881
 30
0.0
 11
-49.071711
 21
490.002881
 31
0.0
  0
ENDBLK
  5
628
330
626
100
AcDbEntity
  8
0
100
AcDbBlockEnd
  0
BLOCK
  5
62F
330
62E
100
AcDbEntity
  8
0
100
AcDbBlockBegin
  2
KLON20
 70
     0
 71
     0
 10
0.0
 20
0.0
 30
0.0
  3
KLON20
  1

  4
KLON20
  0
LINE
  5
631
330
62E
100
AcDbEntity
  8
LC-001-100-D00-0
 62
     7
370
    25
100
AcDbLine
 10
-172.276787
 20
479.051002
 30
0.0
 11
-166.426787
 21
484.901002
 31
0.0
  0
LINE
  5
632
330
62E
100
AcDbEntity
  8
LC-001-100-D00-0
 62
     7
370
    25
100
AcDbLine
 10
-164.324908
 20
487.002881
 30
0.0
 11
-161.324908
 21
490.002881
 31
0.0
  0
ENDBLK
  5
630
330
62E
100
AcDbEntity
  8
0
100
AcDbBlockEnd
  0
BLOCK
  5
636
330
635
100
AcDbEntity
  8
0
100
AcDbBlockBegin
  2
KLON21
 70
     0
 71
     0
 10
0.0
 20
0.0
 30
0.0
  3
KLON21
  1

  4
KLON21
  0
LINE
  5
638
330
635
100
AcDbEntity
  8
LC-001-100-D00-0
 62
     7
370
    25
100
AcDbLine
 10
360.174066
 20
472.686506
 30
0.0
 11
363.573213
 21
476.085654
 31
0.0
  0
LINE
  5
639
330
635
100
AcDbEntity
  8
LC-001-100-D00-0
 62
     7
370
    25
100
AcDbLine
 10
370.49044
 20
483.002881
 30
0.0
 11
372.073213
 21
484.585654
 31
0.0
  0
ENDBLK
  5
637
330
635
100
AcDbEntity
  8
0
100
AcDbBlockEnd
  0
BLOCK
  5
63E
330
63D
100
AcDbEntity
  8
0
100
AcDbBlockBegin
  2
KLON22
 70
     0
 71
     0
 10
0.0
 20
0.0
 30
0.0
  3
KLON22
  1

  4
KLON22
  0
LINE
  5
640
330
63D
100
AcDbEntity
  8
LC-001-100-D00-0
 62
     7
370
    25
100
AcDbLine
 10
249.023213
 20
473.788851
 30
0.0
 11
253.573213
 21
478.338851
 31
0.0
  0
LINE
  5
641
330
63D
100
AcDbEntity
  8
LC-001-100-D00-0
 62
     7
370
    25
100
AcDbLine
 10
259.073213
 20
483.838852
 30
0.0
 11
262.073213
 21
486.838852
 31
0.0
  0
ENDBLK
  5
63F
330
63D
100
AcDbEntity
  8
0
100
AcDbBlockEnd
  0
BLOCK
  5
646
330
645
100
AcDbEntity
  8
0
100
AcDbBlockBegin
  2
KLON23
 70
     0
 71
     0
 10
0.0
 20
0.0
 30
0.0
  3
KLON23
  1

  4
KLON23
  0
LINE
  5
648
330
645
100
AcDbEntity
  8
LC-001-100-D00-0
 62
     7
370
    25
100
AcDbLine
 10
49.023213
 20
475.844606
 30
0.0
 11
53.573213
 21
480.394607
 31
0.0
  0
LINE
  5
649
330
645
100
AcDbEntity
  8
LC-001-100-D00-0
 62
     7
370
    25
100
AcDbLine
 10
59.073213
 20
485.894607
 30
0.0
 11
62.073213
 21
488.894607
 31
0.0
  0
ENDBLK
  5
647
330
645
100
AcDbEntity
  8
0
100
AcDbBlockEnd
  0
BLOCK
  5
64F
330
64E
100
AcDbEntity
  8
0
100
AcDbBlockBegin
  2
KLON24
 70
     0
 71
     0
 10
0.0
 20
0.0
 30
0.0
  3
KLON24
  1

  4
KLON24
  0
LINE
  5
651
330
64E
100
AcDbEntity
  8
LC-001-100-D00-0
 62
     7
370
    25
100
AcDbLine
 10
171.323213
 20
418.539486
 30
0.0
 11
172.823213
 21
420.039487
 31
0.0
  0
LINE
  5
652
330
64E
100
AcDbEntity
  8
LC-001-100-D00-0
 62
     7
370
    25
100
AcDbLine
 10
171.323213
 20
440.990128
 30
0.0
 11
172.823213
 21
442.490128
 31
0.0
  0
LINE
  5
653
330
64E
100
AcDbEntity
  8
LC-001-100-D00-0
 62
     7
370
    25
100
AcDbLine
 10
188.335965
 20
458.002881
 30
0.0
 11
194.335965
 21
464.002881
 31
0.0
  0
ENDBLK
  5
650
330
64E
100
AcDbEntity
  8
0
100
AcDbBlockEnd
  0
BLOCK
  5
656
330
655
100
AcDbEntity
  8
0
100
AcDbBlockBegin
  2
KLON25
 70
     0
 71
     0
 10
0.0
 20
0.0
 30
0.0
  3
KLON25
  1

  4
KLON25
  0
LINE
  5
658
330
655
100
AcDbEntity
  8
LC-001-100-D00-0
 62
     7
370
    25
100
AcDbLine
 10
114.823213
 20
429.391406
 30
0.0
 11
116.323213
 21
430.891406
 31
0.0
  0
LINE
  5
659
330
655
100
AcDbEntity
  8
LC-001-100-D00-0
 62
     7
370
    25
100
AcDbLine
 10
114.268458
 20
451.287291
 30
0.0
 11
116.323213
 21
453.342047
 31
0.0
  0
LINE
  5
65A
330
655
100
AcDbEntity
  8
LC-001-100-D00-0
 62
     7
370
    25
100
AcDbLine
 10
98.533407
 20
458.002881
 30
0.0
 11
104.533407
 21
464.002881
 31
0.0
  0
ENDBLK
  5
657
330
655
100
AcDbEntity
  8
0
100
AcDbBlockEnd
  0
BLOCK
  5
65D
330
65C
100
AcDbEntity
  8
0
100
AcDbBlockBegin
  2
KLON26
 70
     0
 71
     0
 10
0.0
 20
0.0
 30
0.0
  3
KLON26
  1

  4
KLON26
  0
LINE
  5
65F
330
65C
100
AcDbEntity
  8
LC-001-100-D00-0
 62
     7
370
    25
100
AcDbLine
 10
177.737248
 20
402.502881
 30
0.0
 11
179.237248
 21
404.002881
 31
0.0
  0
LINE
  5
660
330
65C
100
AcDbEntity
  8
LC-001-100-D00-0
 62
     7
370
    25
100
AcDbLine
 10
183.323213
 20
408.088846
 30
0.0
 11
184.823213
 21
409.588846
 31
0.0
  0
LINE
  5
661
330
65C
100
AcDbEntity
  8
LC-001-100-D00-0
 62
     7
370
    25
100
AcDbLine
 10
155.286609
 20
402.502881
 30
0.0
 11
156.786608
 21
404.002881
 31
0.0
  0
LINE
  5
662
330
65C
100
AcDbEntity
  8
LC-001-100-D00-0
 62
     7
370
    25
100
AcDbLine
 10
183.323213
 20
430.539487
 30
0.0
 11
184.823213
 21
432.039487
 31
0.0
  0
LINE
  5
663
330
65C
100
AcDbEntity
  8
LC-001-100-D00-0
 62
     7
370
    25
100
AcDbLine
 10
132.835969
 20
402.502881
 30
0.0
 11
134.335969
 21
404.002881
 31
0.0
  0
LINE
  5
664
330
65C
100
AcDbEntity
  8
LC-001-100-D00-0
 62
     7
370
    25
100
AcDbLine
 10
110.38533
 20
402.502881
 30
0.0
 11
111.88533
 21
404.002881
 31
0.0
  0
LINE
  5
665
330
65C
100
AcDbEntity
  8
LC-001-100-D00-0
 62
     7
370
    25
100
AcDbLine
 10
102.823213
 20
417.391405
 30
0.0
 11
104.323213
 21
418.891405
 31
0.0
  0
LINE
  5
666
330
65C
100
AcDbEntity
  8
LC-001-100-D00-0
 62
     7
370
    25
100
AcDbLine
 10
102.823213
 20
439.842046
 30
0.0
 11
104.323213
 21
441.342046
 31
0.0
  0
LINE
  5
667
330
65C
100
AcDbEntity
  8
LC-001-100-D00-0
 62
     7
370
    25
100
AcDbLine
 10
94.876545
 20
454.346019
 30
0.0
 11
96.307118
 21
455.776592
 31
0.0
  0
ENDBLK
  5
65E
330
65C
100
AcDbEntity
  8
0
100
AcDbBlockEnd
  0
BLOCK
  5
66A
330
669
100
AcDbEntity
  8
0
100
AcDbBlockBegin
  2
KLON27
 70
     0
 71
     0
 10
0.0
 20
0.0
 30
0.0
  3
KLON27
  1

  4
KLON27
  0
LINE
  5
66C
330
669
100
AcDbEntity
  8
LC-001-100-D00-0
 62
     7
370
    25
100
AcDbLine
 10
257.635087
 20
459.950085
 30
0.0
 11
259.548691
 21
461.863689
 31
0.0
  0
LINE
  5
66D
330
669
100
AcDbEntity
  8
LC-001-100-D00-0
 62
     7
370
    25
100
AcDbLine
 10
275.388524
 20
455.252881
 30
0.0
 11
277.638524
 21
457.502881
 31
0.0
  0
LINE
  5
66E
330
669
100
AcDbEntity
  8
LC-001-100-D00-0
 62
     7
370
    25
100
AcDbLine
 10
297.839164
 20
455.252881
 30
0.0
 11
300.089164
 21
457.502881
 31
0.0
  0
LINE
  5
66F
330
669
100
AcDbEntity
  8
LC-001-100-D00-0
 62
     7
370
    25
100
AcDbLine
 10
320.289784
 20
455.252881
 30
0.0
 11
322.539784
 21
457.502881
 31
0.0
  0
ENDBLK
  5
66B
330
669
100
AcDbEntity
  8
0
100
AcDbBlockEnd
  0
BLOCK
  5
672
330
671
100
AcDbEntity
  8
0
100
AcDbBlockBegin
  2
KLON28
 70
     0
 71
     0
 10
0.0
 20
0.0
 30
0.0
  3
KLON28
  1

  4
KLON28
  0
LINE
  5
674
330
671
100
AcDbEntity
  8
LC-001-100-D00-0
 62
     7
370
    25
100
AcDbLine
 10
339.891724
 20
407.502881
 30
0.0
 11
342.141724
 21
409.752881
 31
0.0
  0
LINE
  5
675
330
671
100
AcDbEntity
  8
LC-001-100-D00-0
 62
     7
370
    25
100
AcDbLine
 10
243.089168
 20
400.502881
 30
0.0
 11
245.613954
 21
403.027668
 31
0.0
  0
LINE
  5
676
330
671
100
AcDbEntity
  8
LC-001-100-D00-0
 62
     7
370
    25
100
AcDbLine
 10
272.539787
 20
407.502881
 30
0.0
 11
274.789787
 21
409.752881
 31
0.0
  0
ENDBLK
  5
673
330
671
100
AcDbEntity
  8
0
100
AcDbBlockEnd
  0
BLOCK
  5
679
330
678
100
AcDbEntity
  8
0
100
AcDbBlockBegin
  2
KLON29
 70
     0
 71
     0
 10
0.0
 20
0.0
 30
0.0
  3
KLON29
  1

  4
KLON29
  0
LINE
  5
67B
330
678
100
AcDbEntity
  8
LC-001-100-D00-0
 62
     7
370
    25
100
AcDbLine
 10
533.144916
 20
488.502881
 30
0.0
 11
534.644915
 21
490.002881
 31
0.0
  0
LINE
  5
67C
330
678
100
AcDbEntity
  8
LC-001-100-D00-0
 62
     7
370
    25
100
AcDbLine
 10
510.694276
 20
488.502881
 30
0.0
 11
512.194276
 21
490.002881
 31
0.0
  0
LINE
  5
67D
330
678
100
AcDbEntity
  8
LC-001-100-D00-0
 62
     7
370
    25
100
AcDbLine
 10
467.743638
 20
468.002881
 30
0.0
 11
469.243638
 21
469.502881
 31
0.0
  0
LINE
  5
67E
330
678
100
AcDbEntity
  8
LC-001-100-D00-0
 62
     7
370
    25
100
AcDbLine
 10
445.292999
 20
468.002881
 30
0.0
 11
446.792998
 21
469.502881
 31
0.0
  0
LINE
  5
67F
330
678
100
AcDbEntity
  8
LC-001-100-D00-0
 62
     7
370
    25
100
AcDbLine
 10
459.823213
 20
482.533096
 30
0.0
 11
466.792997
 21
489.502881
 31
0.0
  0
LINE
  5
680
330
678
100
AcDbEntity
  8
LC-001-100-D00-0
 62
     7
370
    25
100
AcDbLine
 10
422.842359
 20
468.002881
 30
0.0
 11
424.342359
 21
469.502881
 31
0.0
  0
LINE
  5
681
330
678
100
AcDbEntity
  8
LC-001-100-D00-0
 62
     7
370
    25
100
AcDbLine
 10
400.39172
 20
468.002881
 30
0.0
 11
401.89172
 21
469.502881
 31
0.0
  0
LINE
  5
682
330
678
100
AcDbEntity
  8
LC-001-100-D00-0
 62
     7
370
    25
100
AcDbLine
 10
377.94108
 20
468.002881
 30
0.0
 11
379.44108
 21
469.502881
 31
0.0
  0
LINE
  5
683
330
678
100
AcDbEntity
  8
LC-001-100-D00-0
 62
     7
370
    25
100
AcDbLine
 10
355.490441
 20
468.002881
 30
0.0
 11
358.323213
 21
470.835653
 31
0.0
  0
LINE
  5
684
330
678
100
AcDbEntity
  8
LC-001-100-D00-0
 62
     7
370
    25
100
AcDbLine
 10
333.039801
 20
468.002881
 30
0.0
 11
334.539801
 21
469.502881
 31
0.0
  0
LINE
  5
685
330
678
100
AcDbEntity
  8
LC-001-100-D00-0
 62
     7
370
    25
100
AcDbLine
 10
349.823213
 20
484.786294
 30
0.0
 11
354.5398
 21
489.502881
 31
0.0
  0
LINE
  5
686
330
678
100
AcDbEntity
  8
LC-001-100-D00-0
 62
     7
370
    25
100
AcDbLine
 10
310.589162
 20
468.002881
 30
0.0
 11
312.089162
 21
469.502881
 31
0.0
  0
LINE
  5
687
330
678
100
AcDbEntity
  8
LC-001-100-D00-0
 62
     7
370
    25
100
AcDbLine
 10
288.138522
 20
468.002881
 30
0.0
 11
289.638522
 21
469.502881
 31
0.0
  0
LINE
  5
688
330
678
100
AcDbEntity
  8
LC-001-100-D00-0
 62
     7
370
    25
100
AcDbLine
 10
265.687883
 20
468.002881
 30
0.0
 11
267.187883
 21
469.502881
 31
0.0
  0
LINE
  5
689
330
678
100
AcDbEntity
  8
LC-001-100-D00-0
 62
     7
370
    25
100
AcDbLine
 10
243.237243
 20
468.002881
 30
0.0
 11
247.101791
 21
471.867429
 31
0.0
  0
LINE
  5
68A
330
678
100
AcDbEntity
  8
LC-001-100-D00-0
 62
     7
370
    25
100
AcDbLine
 10
215.786604
 20
463.002881
 30
0.0
 11
217.286604
 21
464.502881
 31
0.0
  0
LINE
  5
68B
330
678
100
AcDbEntity
  8
LC-001-100-D00-0
 62
     7
370
    25
100
AcDbLine
 10
239.823213
 20
487.039491
 30
0.0
 11
242.286602
 21
489.502881
 31
0.0
  0
ENDBLK
  5
67A
330
678
100
AcDbEntity
  8
0
100
AcDbBlockEnd
  0
BLOCK
  5
68E
330
68D
100
AcDbEntity
  8
0
100
AcDbBlockBegin
  2
KLON30
 70
     0
 71
     0
 10
0.0
 20
0.0
 30
0.0
  3
KLON30
  1

  4
KLON30
  0
LINE
  5
690
330
68D
100
AcDbEntity
  8
LC-001-100-D00-0
 62
     7
370
    25
100
AcDbLine
 10
81.082767
 20
463.002881
 30
0.0
 11
82.582767
 21
464.502881
 31
0.0
  0
LINE
  5
691
330
68D
100
AcDbEntity
  8
LC-001-100-D00-0
 62
     7
370
    25
100
AcDbLine
 10
60.785757
 20
465.156511
 30
0.0
 11
62.010502
 21
466.381256
 31
0.0
  0
LINE
  5
692
330
68D
100
AcDbEntity
  8
LC-001-100-D00-0
 62
     7
370
    25
100
AcDbLine
 10
41.181488
 20
468.002881
 30
0.0
 11
47.823213
 21
474.644606
 31
0.0
  0
LINE
  5
693
330
68D
100
AcDbEntity
  8
LC-001-100-D00-0
 62
     7
370
    25
100
AcDbLine
 10
18.730848
 20
468.002881
 30
0.0
 11
20.230848
 21
469.502881
 31
0.0
  0
LINE
  5
694
330
68D
100
AcDbEntity
  8
LC-001-100-D00-0
 62
     7
370
    25
100
AcDbLine
 10
-3.719791
 20
468.002881
 30
0.0
 11
-2.219791
 21
469.502881
 31
0.0
  0
LINE
  5
695
330
68D
100
AcDbEntity
  8
LC-001-100-D00-0
 62
     7
370
    25
100
AcDbLine
 10
-26.17043
 20
468.002881
 30
0.0
 11
-24.670431
 21
469.502881
 31
0.0
  0
LINE
  5
696
330
68D
100
AcDbEntity
  8
LC-001-100-D00-0
 62
     7
370
    25
100
AcDbLine
 10
-48.62107
 20
468.002881
 30
0.0
 11
-47.12107
 21
469.502881
 31
0.0
  0
LINE
  5
697
330
68D
100
AcDbEntity
  8
LC-001-100-D00-0
 62
     7
370
    25
100
AcDbLine
 10
-71.071709
 20
468.002881
 30
0.0
 11
-62.176787
 21
476.897804
 31
0.0
  0
LINE
  5
698
330
68D
100
AcDbEntity
  8
LC-001-100-D00-0
 62
     7
370
    25
100
AcDbLine
 10
-93.522349
 20
468.002881
 30
0.0
 11
-92.022349
 21
469.502881
 31
0.0
  0
LINE
  5
699
330
68D
100
AcDbEntity
  8
LC-001-100-D00-0
 62
     7
370
    25
100
AcDbLine
 10
-115.972988
 20
468.002881
 30
0.0
 11
-114.472989
 21
469.502881
 31
0.0
  0
LINE
  5
69A
330
68D
100
AcDbEntity
  8
LC-001-100-D00-0
 62
     7
370
    25
100
AcDbLine
 10
-138.423628
 20
468.002881
 30
0.0
 11
-136.923628
 21
469.502881
 31
0.0
  0
LINE
  5
69B
330
68D
100
AcDbEntity
  8
LC-001-100-D00-0
 62
     7
370
    25
100
AcDbLine
 10
-160.874267
 20
468.002881
 30
0.0
 11
-159.374267
 21
469.502881
 31
0.0
  0
LINE
  5
69C
330
68D
100
AcDbEntity
  8
LC-001-100-D00-0
 62
     7
370
    25
100
AcDbLine
 10
-183.324907
 20
468.002881
 30
0.0
 11
-181.824907
 21
469.502881
 31
0.0
  0
LINE
  5
69D
330
68D
100
AcDbEntity
  8
LC-001-100-D00-0
 62
     7
370
    25
100
AcDbLine
 10
-180.676787
 20
470.651001
 30
0.0
 11
-180.424907
 21
470.902881
 31
0.0
  0
LINE
  5
69E
330
68D
100
AcDbEntity
  8
LC-001-100-D00-0
 62
     7
370
    25
100
AcDbLine
 10
-179.453136
 20
471.874653
 30
0.0
 11
-172.176787
 21
479.151002
 31
0.0
  0
LINE
  5
69F
330
68D
100
AcDbEntity
  8
LC-001-100-D00-0
 62
     7
370
    25
100
AcDbLine
 10
-203.876078
 20
469.902349
 30
0.0
 11
-202.802574
 21
470.975853
 31
0.0
  0
LINE
  5
6A0
330
68D
100
AcDbEntity
  8
LC-001-100-D00-0
 62
     7
370
    25
100
AcDbLine
 10
-208.141115
 20
488.087954
 30
0.0
 11
-207.080311
 21
489.148758
 31
0.0
  0
LINE
  5
6A1
330
68D
100
AcDbEntity
  8
LC-001-100-D00-0
 62
     7
370
    25
100
AcDbLine
 10
-230.176827
 20
488.502881
 30
0.0
 11
-228.676827
 21
490.002881
 31
0.0
  0
LINE
  5
6A2
330
68D
100
AcDbEntity
  8
LC-001-100-D00-0
 62
     7
370
    25
100
AcDbLine
 10
-252.627466
 20
488.502881
 30
0.0
 11
-251.127466
 21
490.002881
 31
0.0
  0
ENDBLK
  5
68F
330
68D
100
AcDbEntity
  8
0
100
AcDbBlockEnd
  0
BLOCK
  5
6A5
330
6A4
100
AcDbEntity
  8
0
100
AcDbBlockBegin
  2
KLON31
 70
     0
 71
     0
 10
0.0
 20
0.0
 30
0.0
  3
KLON31
  1

  4
KLON31
  0
LINE
  5
6A7
330
6A4
100
AcDbEntity
  8
LC-001-100-D00-0
 62
     7
370
    25
100
AcDbLine
 10
245.466074
 20
402.879788
 30
0.0
 11
252.089166
 21
409.502881
 31
0.0
  0
LINE
  5
6A8
330
6A4
100
AcDbEntity
  8
LC-001-100-D00-0
 62
     7
370
    25
100
AcDbLine
 10
226.638527
 20
406.502881
 30
0.0
 11
229.638527
 21
409.502881
 31
0.0
  0
LINE
  5
6A9
330
6A4
100
AcDbEntity
  8
LC-001-100-D00-0
 62
     7
370
    25
100
AcDbLine
 10
197.687888
 20
400.002881
 30
0.0
 11
207.187887
 21
409.502881
 31
0.0
  0
LINE
  5
6AA
330
6A4
100
AcDbEntity
  8
LC-001-100-D00-0
 62
     7
370
    25
100
AcDbLine
 10
175.237248
 20
400.002881
 30
0.0
 11
178.237248
 21
403.002881
 31
0.0
  0
LINE
  5
6AB
330
6A4
100
AcDbEntity
  8
LC-001-100-D00-0
 62
     7
370
    25
100
AcDbLine
 10
152.786609
 20
400.002881
 30
0.0
 11
155.786609
 21
403.002881
 31
0.0
  0
LINE
  5
6AC
330
6A4
100
AcDbEntity
  8
LC-001-100-D00-0
 62
     7
370
    25
100
AcDbLine
 10
130.335969
 20
400.002881
 30
0.0
 11
133.335969
 21
403.002881
 31
0.0
  0
LINE
  5
6AD
330
6A4
100
AcDbEntity
  8
LC-001-100-D00-0
 62
     7
370
    25
100
AcDbLine
 10
107.88533
 20
400.002881
 30
0.0
 11
110.88533
 21
403.002881
 31
0.0
  0
LINE
  5
6AE
330
6A4
100
AcDbEntity
  8
LC-001-100-D00-0
 62
     7
370
    25
100
AcDbLine
 10
86.34805
 20
400.91624
 30
0.0
 11
88.619958
 21
403.188149
 31
0.0
  0
LINE
  5
6AF
330
6A4
100
AcDbEntity
  8
LC-001-100-D00-0
 62
     7
370
    25
100
AcDbLine
 10
73.316424
 20
410.335255
 30
0.0
 11
75.438258
 21
412.457089
 31
0.0
  0
LINE
  5
6B0
330
6A4
100
AcDbEntity
  8
LC-001-100-D00-0
 62
     7
370
    25
100
AcDbLine
 10
69.823213
 20
429.292685
 30
0.0
 11
72.823213
 21
432.292685
 31
0.0
  0
LINE
  5
6B1
330
6A4
100
AcDbEntity
  8
LC-001-100-D00-0
 62
     7
370
    25
100
AcDbLine
 10
69.823213
 20
451.743326
 30
0.0
 11
72.823213
 21
454.743326
 31
0.0
  0
ENDBLK
  5
6A6
330
6A4
100
AcDbEntity
  8
0
100
AcDbBlockEnd
  0
BLOCK
  5
6B4
330
6B3
100
AcDbEntity
  8
0
100
AcDbBlockBegin
  2
KLON32
 70
     0
 71
     0
 10
0.0
 20
0.0
 30
0.0
  3
KLON32
  1

  4
KLON32
  0
LINE
  5
6B6
330
6B3
100
AcDbEntity
  8
LC-001-100-D00-0
 62
     7
370
    25
100
AcDbLine
 10
253.187884
 20
455.502881
 30
0.0
 11
255.337884
 21
457.652881
 31
0.0
  0
LINE
  5
6B7
330
6B3
100
AcDbEntity
  8
LC-001-100-D00-0
 62
     7
370
    25
100
AcDbLine
 10
257.382788
 20
459.697785
 30
0.0
 11
257.57969
 21
459.894687
 31
0.0
  0
LINE
  5
6B8
330
6B3
100
AcDbEntity
  8
LC-001-100-D00-0
 62
     7
370
    25
100
AcDbLine
 10
230.737244
 20
455.502881
 30
0.0
 11
238.022711
 21
462.788348
 31
0.0
  0
ENDBLK
  5
6B5
330
6B3
100
AcDbEntity
  8
0
100
AcDbBlockEnd
  0
BLOCK
  5
6BC
330
6BB
100
AcDbEntity
  8
0
100
AcDbBlockBegin
  2
KLON33
 70
     0
 71
     0
 10
0.0
 20
0.0
 30
0.0
  3
KLON33
  1

  4
KLON33
  0
LINE
  5
6BE
330
6BB
100
AcDbEntity
  8
LC-001-100-D00-0
 62
     7
370
    25
100
AcDbLine
 10
208.786605
 20
456.002881
 30
0.0
 11
211.823213
 21
459.039489
 31
0.0
  0
LINE
  5
6BF
330
6BB
100
AcDbEntity
  8
LC-001-100-D00-0
 62
     7
370
    25
100
AcDbLine
 10
212.786604
 20
460.002881
 30
0.0
 11
215.786604
 21
463.002881
 31
0.0
  0
ENDBLK
  5
6BD
330
6BB
100
AcDbEntity
  8
0
100
AcDbBlockEnd
  0
ENDSEC
  0
SECTION
  2
ENTITIES
  0
LINE
  5
31
330
1F
100
AcDbEntity
  8
LC-001-100-D00-0
 62
     7
370
    50
100
AcDbLine
 10
953.753356
 20
488.502881
 30
0.0
 11
953.753358
 21
487.102881
 31
0.0
  0
LINE
  5
32
330
1F
100
AcDbEntity
  8
LC-001-100-D00-0
 62
     7
370
    50
100
AcDbLine
 10
962.753358
 20
487.102881
 30
0.0
 11
962.753358
 21
488.502881
 31
0.0
  0
LINE
  5
33
330
1F
100
AcDbEntity
  8
LC-001-100-D00-0
 62
     7
370
    50
100
AcDbLine
 10
1023.753358
 20
488.502881
 30
0.0
 11
1023.753358
 21
487.102881
 31
0.0
  0
LINE
  5
34
330
1F
100
AcDbEntity
  8
LC-001-100-D00-0
 62
     7
370
    50
100
AcDbLine
 10
1032.753358
 20
487.102881
 30
0.0
 11
1032.75336
 21
488.502881
 31
0.0
  0
LINE
  5
35
330
1F
100
AcDbEntity
  8
LC-001-100-D00-0
 62
     7
370
    50
100
AcDbLine
 10
954.253357
 20
487.102881
 30
0.0
 11
954.253358
 21
473.502881
 31
0.0
  0
LINE
  5
36
330
1F
100
AcDbEntity
  8
LC-001-100-D00-0
 62
     7
370
    50
100
AcDbLine
 10
962.253358
 20
473.502881
 30
0.0
 11
962.253359
 21
487.102881
 31
0.0
  0
LINE
  5
37
330
1F
100
AcDbEntity
  8
LC-001-100-D00-0
 62
     7
370
    50
100
AcDbLine
 10
1024.253358
 20
487.102881
 30
0.0
 11
1024.253358
 21
473.502881
 31
0.0
  0
LINE
  5
38
330
1F
100
AcDbEntity
  8
LC-001-100-D00-0
 62
     7
370
    50
100
AcDbLine
 10
1032.253358
 20
473.502881
 30
0.0
 11
1032.253359
 21
487.102881
 31
0.0
  0
ARC
  5
39
330
1F
100
AcDbEntity
  8
LC-001-100-D00-0
 62
     7
370
    50
100
AcDbCircle
 10
1048.753358
 20
363.002881
 30
0.0
 40
0.5000000000002274
100
AcDbArc
 50
90.0
 51
180.0
  0
ARC
  5
3A
330
1F
100
AcDbEntity
  8
LC-001-100-D00-0
 62
     7
370
    50
100
AcDbCircle
 10
1066.753358
 20
363.002881
 30
0.0
 40
0.5000000000004548
100
AcDbArc
 50
0.0
 51
90.0
  0
LINE
  5
3B
330
1F
100
AcDbEntity
  8
LC-001-100-D00-0
 62
     7
370
    50
100
AcDbLine
 10
1048.253358
 20
363.002881
 30
0.0
 11
1048.253358
 21
355.502881
 31
0.0
  0
LINE
  5
3C
330
1F
100
AcDbEntity
  8
LC-001-100-D00-0
 62
     7
370
    50
100
AcDbLine
 10
1067.253358
 20
355.502881
 30
0.0
 11
1067.253358
 21
363.002881
 31
0.0
  0
LINE
  5
3D
330
1F
100
AcDbEntity
  8
LC-001-100-D00-0
 62
     7
370
    50
100
AcDbLine
 10
1047.753358
 20
375.002881
 30
0.0
 11
1047.753358
 21
364.502881
 31
0.0
  0
LINE
  5
3E
330
1F
100
AcDbEntity
  8
LC-001-100-D00-0
 62
     7
370
    50
100
AcDbLine
 10
1067.753358
 20
364.502881
 30
0.0
 11
1067.753358
 21
375.002881
 31
0.0
  0
LINE
  5
3F
330
1F
100
AcDbEntity
  8
LC-001-100-D00-0
 62
     7
370
    50
100
AcDbLine
 10
1047.753358
 20
364.502881
 30
0.0
 11
1048.753358
 21
363.502881
 31
0.0
  0
LINE
  5
40
330
1F
100
AcDbEntity
  8
LC-001-100-D00-0
 62
     7
370
    50
100
AcDbLine
 10
1066.753358
 20
363.502881
 30
0.0
 11
1067.753358
 21
364.502881
 31
0.0
  0
LINE
  5
41
330
1F
100
AcDbEntity
  8
LC-001-100-D00-0
 62
     7
370
    50
100
AcDbLine
 10
1047.753357
 20
432.50288
 30
0.0
 11
1047.753358
 21
378.502881
 31
0.0
  0
LINE
  5
42
330
1F
100
AcDbEntity
  8
LC-001-100-D00-0
 62
     7
370
    50
100
AcDbLine
 10
1067.753358
 20
378.502881
 30
0.0
 11
1067.75336
 21
432.50288
 31
0.0
  0
LINE
  5
43
330
1F
100
AcDbEntity
  8
LC-001-100-D00-0
 62
     7
370
    50
100
AcDbLine
 10
1049.853359
 20
378.502879
 30
0.0
 11
1049.853359
 21
375.002879
 31
0.0
  0
LINE
  5
44
330
1F
100
AcDbEntity
  8
LC-001-100-D00-0
 62
     7
370
    50
100
AcDbLine
 10
1065.653362
 20
375.002879
 30
0.0
 11
1065.653362
 21
378.502879
 31
0.0
  0
LINE
  5
45
330
1F
100
AcDbEntity
  8
LC-001-100-D00-0
 62
     7
370
    50
100
AcDbLine
 10
963.253358
 20
464.102881
 30
0.0
 11
963.253359
 21
467.50288
 31
0.0
  0
LINE
  5
46
330
1F
100
AcDbEntity
  8
LC-001-100-D00-0
 62
     7
370
    50
100
AcDbLine
 10
953.253359
 20
467.50288
 30
0.0
 11
953.253358
 21
464.102881
 31
0.0
  0
ARC
  5
47
330
1F
100
AcDbEntity
  8
LC-001-100-D00-0
 62
     7
370
    50
100
AcDbCircle
 10
962.653358
 20
464.102881
 30
0.0
 40
0.6000000000001364
100
AcDbArc
 50
270.0
 51
0.0
  0
ARC
  5
48
330
1F
100
AcDbEntity
  8
LC-001-100-D00-0
 62
     7
370
    50
100
AcDbCircle
 10
953.853358
 20
464.102881
 30
0.0
 40
0.6000000000001364
100
AcDbArc
 50
180.0
 51
270.0
  0
LINE
  5
49
330
1F
100
AcDbEntity
  8
LC-001-100-D00-0
 62
     7
370
    50
100
AcDbLine
 10
961.253357
 20
472.502881
 30
0.0
 11
961.253357
 21
473.502881
 31
0.0
  0
LINE
  5
4A
330
1F
100
AcDbEntity
  8
LC-001-100-D00-0
 62
     7
370
    50
100
AcDbLine
 10
955.253359
 20
473.502881
 30
0.0
 11
955.253359
 21
472.502881
 31
0.0
  0
LINE
  5
4B
330
1F
100
AcDbEntity
  8
LC-001-100-D00-0
 62
     7
370
    50
100
AcDbLine
 10
1033.253358
 20
464.102881
 30
0.0
 11
1033.253357
 21
467.50288
 31
0.0
  0
LINE
  5
4C
330
1F
100
AcDbEntity
  8
LC-001-100-D00-0
 62
     7
370
    50
100
AcDbLine
 10
1023.253357
 20
467.50288
 30
0.0
 11
1023.253358
 21
464.102881
 31
0.0
  0
ARC
  5
4D
330
1F
100
AcDbEntity
  8
LC-001-100-D00-0
 62
     7
370
    50
100
AcDbCircle
 10
1032.653358
 20
464.102881
 30
0.0
 40
0.6000000000001364
100
AcDbArc
 50
270.0
 51
0.0
  0
ARC
  5
4E
330
1F
100
AcDbEntity
  8
LC-001-100-D00-0
 62
     7
370
    50
100
AcDbCircle
 10
1023.853358
 20
464.102881
 30
0.0
 40
0.6000000000001364
100
AcDbArc
 50
180.0
 51
270.0
  0
LINE
  5
4F
330
1F
100
AcDbEntity
  8
LC-001-100-D00-0
 62
     7
370
    50
100
AcDbLine
 10
1031.253357
 20
472.502881
 30
0.0
 11
1031.253357
 21
473.502881
 31
0.0
  0
LINE
  5
50
330
1F
100
AcDbEntity
  8
LC-001-100-D00-0
 62
     7
370
    50
100
AcDbLine
 10
1025.25336
 20
473.502881
 30
0.0
 11
1025.25336
 21
472.502881
 31
0.0
  0
LINE
  5
51
330
1F
100
AcDbEntity
  8
LC-001-100-D00-0
 62
     7
370
    50
100
AcDbLine
 10
963.753358
 20
467.502881
 30
0.0
 11
963.753358
 21
469.50288
 31
0.0
  0
LINE
  5
52
330
1F
100
AcDbEntity
  8
LC-001-100-D00-0
 62
     7
370
    50
100
AcDbLine
 10
952.753358
 20
469.502881
 30
0.0
 11
952.753358
 21
467.502881
 31
0.0
  0
LINE
  5
53
330
1F
100
AcDbEntity
  8
LC-001-100-D00-0
 62
     7
370
    50
100
AcDbLine
 10
1033.753358
 20
467.502881
 30
0.0
 11
1033.753358
 21
469.502881
 31
0.0
  0
LINE
  5
54
330
1F
100
AcDbEntity
  8
LC-001-100-D00-0
 62
     7
370
    50
100
AcDbLine
 10
1022.753358
 20
469.50288
 30
0.0
 11
1022.753358
 21
467.502881
 31
0.0
  0
LINE
  5
55
330
1F
100
AcDbEntity
  8
LC-001-100-D00-0
 62
     7
370
    50
100
AcDbLine
 10
1065.753358
 20
490.002881
 30
0.0
 11
1070.753358
 21
490.002881
 31
0.0
  0
LINE
  5
56
330
1F
100
AcDbEntity
  8
LC-001-100-D00-0
 62
     7
370
    50
100
AcDbLine
 10
1070.753358
 20
490.002881
 30
0.0
 11
1070.753358
 21
488.502881
 31
0.0
  0
LINE
  5
57
330
1F
100
AcDbEntity
  8
LC-001-100-D00-0
 62
     7
370
    50
100
AcDbLine
 10
1070.753358
 20
488.502881
 30
0.0
 11
1065.753358
 21
488.502881
 31
0.0
  0
ARC
  5
58
330
1F
100
AcDbEntity
  8
LC-001-100-D00-0
 62
     7
370
    50
100
AcDbCircle
 10
950.253358
 20
491.502881
 30
0.0
 40
1.500000000000227
100
AcDbArc
 50
180.0
 51
270.0
  0
LINE
  5
59
330
1F
100
AcDbEntity
  8
LC-001-100-D00-0
 62
     7
370
    50
100
AcDbLine
 10
950.253358
 20
490.002881
 30
0.0
 11
1065.753358
 21
490.002881
 31
0.0
  0
LINE
  5
5A
330
1F
100
AcDbEntity
  8
LC-001-100-D00-0
 62
     7
370
    50
100
AcDbLine
 10
949.753358
 20
488.502881
 30
0.0
 11
1065.753358
 21
488.502881
 31
0.0
  0
ARC
  5
5B
330
1F
100
AcDbEntity
  8
LC-001-100-D00-0
 62
     7
370
    50
100
AcDbCircle
 10
949.753358
 20
491.002881
 30
0.0
 40
2.5
100
AcDbArc
 50
180.0
 51
270.0
  0
LINE
  5
5C
330
1F
100
AcDbEntity
  8
LC-001-100-D00-0
 62
     7
370
    50
100
AcDbLine
 10
947.253358
 20
491.002881
 30
0.0
 11
947.253358
 21
535.002881
 31
0.0
  0
LINE
  5
5D
330
1F
100
AcDbEntity
  8
LC-001-100-D00-0
 62
     7
370
    50
100
AcDbLine
 10
948.753358
 20
535.002881
 30
0.0
 11
948.753358
 21
491.502881
 31
0.0
  0
LINE
  5
5E
330
1F
100
AcDbEntity
  8
LC-001-100-D00-0
 62
     7
370
    50
100
AcDbLine
 10
947.253358
 20
540.002881
 30
0.0
 11
948.753358
 21
540.002881
 31
0.0
  0
LINE
  5
5F
330
1F
100
AcDbEntity
  8
LC-001-100-D00-0
 62
     7
370
    50
100
AcDbLine
 10
948.753358
 20
540.002881
 30
0.0
 11
948.753358
 21
535.002881
 31
0.0
  0
LINE
  5
60
330
1F
100
AcDbEntity
  8
LC-001-100-D00-0
 62
     7
370
    50
100
AcDbLine
 10
947.253358
 20
535.002881
 30
0.0
 11
947.253358
 21
540.002881
 31
0.0
  0
ARC
  5
61
330
1F
100
AcDbEntity
  8
LC-001-100-D00-0
 62
     7
370
    50
100
AcDbCircle
 10
964.253358
 20
487.002881
 30
0.0
 40
1.500000000000227
100
AcDbArc
 50
0.0
 51
90.0
  0
ARC
  5
62
330
1F
100
AcDbEntity
  8
LC-001-100-D00-0
 62
     7
370
    50
100
AcDbCircle
 10
1022.253358
 20
487.002881
 30
0.0
 40
1.500000000000455
100
AcDbArc
 50
90.0
 51
180.0
  0
LINE
  5
63
330
1F
100
AcDbEntity
  8
LC-001-100-D00-0
 62
     7
370
    50
100
AcDbLine
 10
1005.586767
 20
468.002881
 30
0.0
 11
1016.753358
 21
468.002881
 31
0.0
  0
LINE
  5
64
330
1F
100
AcDbEntity
  8
LC-001-100-D00-0
 62
     7
370
    50
100
AcDbLine
 10
1005.408553
 20
468.002881
 30
0.0
 11
1005.586767
 21
468.002881
 31
0.0
  0
LINE
  5
65
330
1F
100
AcDbEntity
  8
LC-001-100-D00-0
 62
     7
370
    50
100
AcDbLine
 10
1005.408553
 20
468.002881
 30
0.0
 11
981.098163
 21
468.002881
 31
0.0
  0
LINE
  5
66
330
1F
100
AcDbEntity
  8
LC-001-100-D00-0
 62
     7
370
    50
100
AcDbLine
 10
980.919949
 20
468.002881
 30
0.0
 11
981.098163
 21
468.002881
 31
0.0
  0
LINE
  5
67
330
1F
100
AcDbEntity
  8
LC-001-100-D00-0
 62
     7
370
    50
100
AcDbLine
 10
969.753358
 20
468.002881
 30
0.0
 11
980.919949
 21
468.002881
 31
0.0
  0
ARC
  5
68
330
1F
100
AcDbEntity
  8
LC-001-100-D00-0
 62
     7
370
    50
100
AcDbCircle
 10
969.753358
 20
472.002881
 30
0.0
 40
4.0
100
AcDbArc
 50
180.0
 51
270.0
  0
LINE
  5
69
330
1F
100
AcDbEntity
  8
LC-001-100-D00-0
 62
     7
370
    50
100
AcDbLine
 10
965.753358
 20
477.502881
 30
0.0
 11
965.753358
 21
472.002881
 31
0.0
  0
LINE
  5
6A
330
1F
100
AcDbEntity
  8
LC-001-100-D00-0
 62
     7
370
    50
100
AcDbLine
 10
965.753358
 20
477.502881
 30
0.0
 11
965.753358
 21
487.002881
 31
0.0
  0
ARC
  5
6B
330
1F
100
AcDbEntity
  8
LC-001-100-D00-0
 62
     7
370
    50
100
AcDbCircle
 10
1016.753358
 20
472.002881
 30
0.0
 40
4.000000000014552
100
AcDbArc
 50
270.0
 51
0.0
  0
LINE
  5
6C
330
1F
100
AcDbEntity
  8
LC-001-100-D00-0
 62
     7
370
    50
100
AcDbLine
 10
1020.753358
 20
472.002881
 30
0.0
 11
1020.753358
 21
477.502881
 31
0.0
  0
LINE
  5
6D
330
1F
100
AcDbEntity
  8
LC-001-100-D00-0
 62
     7
370
    50
100
AcDbLine
 10
1020.753358
 20
487.002881
 30
0.0
 11
1020.753358
 21
477.502881
 31
0.0
  0
ARC
  5
6E
330
1F
100
AcDbEntity
  8
LC-001-100-D00-0
 62
     7
370
    50
100
AcDbCircle
 10
969.753358
 20
467.002881
 30
0.0
 40
4.000000000041609
100
AcDbArc
 50
180.0
 51
270.0
  0
LINE
  5
6F
330
1F
100
AcDbEntity
  8
LC-001-100-D00-0
 62
     7
370
    50
100
AcDbLine
 10
965.753358
 20
467.002881
 30
0.0
 11
965.753358
 21
472.002881
 31
0.0
  0
ARC
  5
70
330
1F
100
AcDbEntity
  8
LC-001-100-D00-0
 62
     7
370
    50
100
AcDbCircle
 10
1016.753358
 20
467.002881
 30
0.0
 40
4.000000000000227
100
AcDbArc
 50
270.0
 51
0.0
  0
LINE
  5
71
330
1F
100
AcDbEntity
  8
LC-001-100-D00-0
 62
     7
370
    50
100
AcDbLine
 10
1020.753358
 20
472.002881
 30
0.0
 11
1020.753358
 21
467.002881
 31
0.0
  0
LINE
  5
72
330
1F
100
AcDbEntity
  8
LC-001-100-D00-0
 62
     7
370
    50
100
AcDbLine
 10
972.60239
 20
463.00288
 30
0.0
 11
969.753359
 21
463.00288
 31
0.0
  0
LINE
  5
73
330
1F
100
AcDbEntity
  8
LC-001-100-D00-0
 62
     7
370
    50
100
AcDbLine
 10
998.639317
 20
467.874228
 30
0.0
 11
998.638234
 21
467.87459
 31
0.0
  0
ARC
  5
74
330
1F
100
AcDbEntity
  8
LC-001-100-D00-0
 62
     7
370
    50
100
AcDbCircle
 10
997.847664
 20
465.502881
 30
0.0
 40
2.500000000000061
100
AcDbArc
 50
71.565051
 51
90.0
  0
ARC
  5
75
330
1F
100
AcDbEntity
  8
LC-001-100-D00-0
 62
     7
370
    50
100
AcDbCircle
 10
988.659052
 20
465.502881
 30
0.0
 40
2.5
100
AcDbArc
 50
90.0
 51
108.434949
  0
LINE
  5
76
330
1F
100
AcDbEntity
  8
LC-001-100-D00-0
 62
     7
370
    50
100
AcDbLine
 10
987.868483
 20
467.87459
 30
0.0
 11
987.867399
 21
467.874228
 31
0.0
  0
LINE
  5
77
330
1F
100
AcDbEntity
  8
LC-001-100-D00-0
 62
     7
370
    50
100
AcDbLine
 10
1016.753357
 20
463.00288
 30
0.0
 11
1013.904326
 21
463.00288
 31
0.0
  0
LINE
  5
78
330
1F
100
AcDbEntity
  8
LC-001-100-D00-0
 62
     7
370
    50
100
AcDbLine
 10
1013.904326
 20
463.00288
 30
0.0
 11
1013.902469
 21
463.00288
 31
0.0
  0
LINE
  5
79
330
1F
100
AcDbEntity
  8
LC-001-100-D00-0
 62
     7
370
    50
100
AcDbLine
 10
1013.902469
 20
463.00288
 30
0.0
 11
1012.637558
 21
463.208148
 31
0.0
  0
LINE
  5
7A
330
1F
100
AcDbEntity
  8
LC-001-100-D00-0
 62
     7
370
    50
100
AcDbLine
 10
1012.637558
 20
463.208148
 30
0.0
 11
1012.635477
 21
463.20884
 31
0.0
  0
LINE
  5
7B
330
1F
100
AcDbEntity
  8
LC-001-100-D00-0
 62
     7
370
    50
100
AcDbLine
 10
972.604247
 20
463.00288
 30
0.0
 11
973.869158
 21
463.208148
 31
0.0
  0
LINE
  5
7C
330
1F
100
AcDbEntity
  8
LC-001-100-D00-0
 62
     7
370
    50
100
AcDbLine
 10
972.604247
 20
463.00288
 30
0.0
 11
972.60239
 21
463.00288
 31
0.0
  0
LINE
  5
7D
330
1F
100
AcDbEntity
  8
LC-001-100-D00-0
 62
     7
370
    50
100
AcDbLine
 10
973.871239
 20
463.20884
 30
0.0
 11
973.869158
 21
463.208148
 31
0.0
  0
LINE
  5
7E
330
1F
100
AcDbEntity
  8
LC-001-100-D00-0
 62
     7
370
    50
100
AcDbLine
 10
1012.635477
 20
463.20884
 30
0.0
 11
998.639317
 21
467.874228
 31
0.0
  0
LINE
  5
7F
330
1F
100
AcDbEntity
  8
LC-001-100-D00-0
 62
     7
370
    50
100
AcDbLine
 10
987.867399
 20
467.874228
 30
0.0
 11
973.871239
 21
463.20884
 31
0.0
  0
LINE
  5
80
330
1F
100
AcDbEntity
  8
LC-001-100-D00-0
 62
     7
370
    50
100
AcDbLine
 10
1044.753358
 20
486.502881
 30
0.0
 11
1070.753358
 21
486.502881
 31
0.0
  0
LINE
  5
81
330
1F
100
AcDbEntity
  8
LC-001-100-D00-0
 62
     7
370
    50
100
AcDbLine
 10
1044.753358
 20
488.502881
 30
0.0
 11
1044.753358
 21
486.502881
 31
0.0
  0
LINE
  5
82
330
1F
100
AcDbEntity
  8
LC-001-100-D00-0
 62
     7
370
    50
100
AcDbLine
 10
1070.753358
 20
488.502881
 30
0.0
 11
1070.753358
 21
486.502881
 31
0.0
  0
LINE
  5
83
330
1F
100
AcDbEntity
  8
LC-001-100-D00-0
 62
     7
370
    50
100
AcDbLine
 10
1044.753358
 20
484.502881
 30
0.0
 11
1044.753358
 21
486.502881
 31
0.0
  0
LINE
  5
84
330
1F
100
AcDbEntity
  8
LC-001-100-D00-0
 62
     7
370
    50
100
AcDbLine
 10
1070.753358
 20
486.502881
 30
0.0
 11
1070.753358
 21
484.502881
 31
0.0
  0
LINE
  5
85
330
1F
100
AcDbEntity
  8
LC-001-100-D00-0
 62
     7
370
    50
100
AcDbLine
 10
1044.753358
 20
484.502881
 30
0.0
 11
1044.753358
 21
463.402881
 31
0.0
  0
LINE
  5
86
330
1F
100
AcDbEntity
  8
LC-001-100-D00-0
 62
     7
370
    50
100
AcDbLine
 10
1070.753358
 20
484.502881
 30
0.0
 11
1070.753358
 21
463.402881
 31
0.0
  0
LINE
  5
87
330
1F
100
AcDbEntity
  8
LC-001-100-D00-0
 62
     7
370
    50
100
AcDbLine
 10
1070.753358
 20
459.402881
 30
0.0
 11
1068.312966
 21
459.402881
 31
0.0
  0
LINE
  5
88
330
1F
100
AcDbEntity
  8
LC-001-100-D00-0
 62
     7
370
    50
100
AcDbLine
 10
1047.193751
 20
459.402881
 30
0.0
 11
1044.753358
 21
459.402881
 31
0.0
  0
LINE
  5
89
330
1F
100
AcDbEntity
  8
LC-001-100-D00-0
 62
     7
370
    50
100
AcDbLine
 10
1044.753358
 20
459.402881
 30
0.0
 11
1044.753358
 21
463.402881
 31
0.0
  0
LINE
  5
8A
330
1F
100
AcDbEntity
  8
LC-001-100-D00-0
 62
     7
370
    50
100
AcDbLine
 10
1070.753358
 20
463.402881
 30
0.0
 11
1070.753358
 21
459.402881
 31
0.0
  0
LINE
  5
8B
330
1F
100
AcDbEntity
  8
LC-001-100-D00-0
 62
     7
370
    50
100
AcDbLine
 10
1013.902469
 20
463.00288
 30
0.0
 11
1012.183218
 21
463.00288
 31
0.0
  0
LINE
  5
8C
330
1F
100
AcDbEntity
  8
LC-001-100-D00-0
 62
     7
370
    50
100
AcDbLine
 10
974.323498
 20
463.00288
 30
0.0
 11
972.604247
 21
463.00288
 31
0.0
  0
LINE
  5
8D
330
1F
100
AcDbEntity
  8
LC-001-100-D00-0
 62
     7
370
    50
100
AcDbLine
 10
1012.183218
 20
463.00288
 30
0.0
 11
974.323498
 21
463.00288
 31
0.0
  0
LINE
  5
8E
330
1F
100
AcDbEntity
  8
LC-001-100-D00-0
 62
     7
370
    50
100
AcDbLine
 10
953.753358
 20
487.102881
 30
0.0
 11
962.753358
 21
487.102881
 31
0.0
  0
LINE
  5
8F
330
1F
100
AcDbEntity
  8
LC-001-100-D00-0
 62
     7
370
    50
100
AcDbLine
 10
1032.753358
 20
487.102881
 30
0.0
 11
1023.753358
 21
487.102881
 31
0.0
  0
LINE
  5
90
330
1F
100
AcDbEntity
  8
LC-001-100-D00-0
 62
     7
370
    50
100
AcDbLine
 10
954.253358
 20
473.502881
 30
0.0
 11
962.253358
 21
473.502881
 31
0.0
  0
LINE
  5
91
330
1F
100
AcDbEntity
  8
LC-001-100-D00-0
 62
     7
370
    50
100
AcDbLine
 10
1032.253358
 20
473.502881
 30
0.0
 11
1024.253358
 21
473.502881
 31
0.0
  0
LINE
  5
92
330
1F
100
AcDbEntity
  8
LC-001-100-D00-0
 62
     7
370
    50
100
AcDbLine
 10
1048.911434
 20
363.502885
 30
0.0
 11
1066.621252
 21
363.502885
 31
0.0
  0
LINE
  5
93
330
1F
100
AcDbEntity
  8
LC-001-100-D00-0
 62
     7
370
    50
100
AcDbLine
 10
1059.691078
 20
355.502881
 30
0.0
 11
1048.253358
 21
355.502881
 31
0.0
  0
LINE
  5
94
330
1F
100
AcDbEntity
  8
LC-001-100-D00-0
 62
     7
370
    50
100
AcDbLine
 10
1067.253358
 20
355.502881
 30
0.0
 11
1059.691078
 21
355.502881
 31
0.0
  0
LINE
  5
95
330
1F
100
AcDbEntity
  8
LC-001-100-D00-0
 62
     7
370
    50
100
AcDbLine
 10
1063.753358
 20
459.502881
 30
0.0
 11
1051.753358
 21
459.502881
 31
0.0
  0
LINE
  5
96
330
1F
100
AcDbEntity
  8
LC-001-100-D00-0
 62
     7
370
    50
100
AcDbLine
 10
1063.753358
 20
457.502881
 30
0.0
 11
1051.753358
 21
457.502881
 31
0.0
  0
LINE
  5
97
330
1F
100
AcDbEntity
  8
LC-001-100-D00-0
 62
     7
370
    50
100
AcDbLine
 10
1045.753358
 20
457.502881
 30
0.0
 11
1045.753356
 21
459.402881
 31
0.0
  0
LINE
  5
98
330
1F
100
AcDbEntity
  8
LC-001-100-D00-0
 62
     7
370
    50
100
AcDbLine
 10
1048.138499
 20
459.502881
 30
0.0
 11
1051.753358
 21
459.502881
 31
0.0
  0
LINE
  5
99
330
1F
100
AcDbEntity
  8
LC-001-100-D00-0
 62
     7
370
    50
100
AcDbLine
 10
1051.753358
 20
457.502881
 30
0.0
 11
1045.753358
 21
457.502881
 31
0.0
  0
LINE
  5
9A
330
1F
100
AcDbEntity
  8
LC-001-100-D00-0
 62
     7
370
    50
100
AcDbLine
 10
1069.753357
 20
459.402881
 30
0.0
 11
1069.753358
 21
457.502881
 31
0.0
  0
LINE
  5
9B
330
1F
100
AcDbEntity
  8
LC-001-100-D00-0
 62
     7
370
    50
100
AcDbLine
 10
1063.753358
 20
459.502881
 30
0.0
 11
1067.368217
 21
459.502881
 31
0.0
  0
LINE
  5
9C
330
1F
100
AcDbEntity
  8
LC-001-100-D00-0
 62
     7
370
    50
100
AcDbLine
 10
1069.753358
 20
457.502881
 30
0.0
 11
1063.753358
 21
457.502881
 31
0.0
  0
LINE
  5
9D
330
1F
100
AcDbEntity
  8
LC-001-100-D00-0
 62
     7
370
    50
100
AcDbLine
 10
1061.253358
 20
432.502881
 30
0.0
 11
1054.253358
 21
432.502881
 31
0.0
  0
LINE
  5
9E
330
1F
100
AcDbEntity
  8
LC-001-100-D00-0
 62
     7
370
    50
100
AcDbLine
 10
1066.253358
 20
432.502881
 30
0.0
 11
1061.253358
 21
432.502881
 31
0.0
  0
LINE
  5
9F
330
1F
100
AcDbEntity
  8
LC-001-100-D00-0
 62
     7
370
    50
100
AcDbLine
 10
1054.253358
 20
432.502881
 30
0.0
 11
1049.253358
 21
432.502881
 31
0.0
  0
LINE
  5
A0
330
1F
100
AcDbEntity
  8
LC-001-100-D00-0
 62
     7
370
    50
100
AcDbLine
 10
1045.753358
 20
432.502881
 30
0.0
 11
1045.753358
 21
457.502881
 31
0.0
  0
LINE
  5
A1
330
1F
100
AcDbEntity
  8
LC-001-100-D00-0
 62
     7
370
    50
100
AcDbLine
 10
1049.253358
 20
432.502881
 30
0.0
 11
1045.753358
 21
432.502881
 31
0.0
  0
LINE
  5
A2
330
1F
100
AcDbEntity
  8
LC-001-100-D00-0
 62
     7
370
    50
100
AcDbLine
 10
1069.753358
 20
457.502881
 30
0.0
 11
1069.753358
 21
432.502881
 31
0.0
  0
LINE
  5
A3
330
1F
100
AcDbEntity
  8
LC-001-100-D00-0
 62
     7
370
    50
100
AcDbLine
 10
1069.753358
 20
432.502881
 30
0.0
 11
1066.253358
 21
432.502881
 31
0.0
  0
LINE
  5
A4
330
1F
100
AcDbEntity
  8
LC-001-100-D00-0
 62
     7
370
    50
100
AcDbLine
 10
1047.753358
 20
375.002881
 30
0.0
 11
1067.753358
 21
375.002881
 31
0.0
  0
LINE
  5
A5
330
1F
100
AcDbEntity
  8
LC-001-100-D00-0
 62
     7
370
    50
100
AcDbLine
 10
1059.793063
 20
364.502881
 30
0.0
 11
1067.753358
 21
364.502881
 31
0.0
  0
LINE
  5
A6
330
1F
100
AcDbEntity
  8
LC-001-100-D00-0
 62
     7
370
    50
100
AcDbLine
 10
1047.753358
 20
364.502881
 30
0.0
 11
1059.793063
 21
364.502881
 31
0.0
  0
LINE
  5
A7
330
1F
100
AcDbEntity
  8
LC-001-100-D00-0
 62
     7
370
    50
100
AcDbLine
 10
1059.589092
 20
363.502881
 30
0.0
 11
1048.753358
 21
363.502881
 31
0.0
  0
LINE
  5
A8
330
1F
100
AcDbEntity
  8
LC-001-100-D00-0
 62
     7
370
    50
100
AcDbLine
 10
1066.753358
 20
363.502881
 30
0.0
 11
1059.589092
 21
363.502881
 31
0.0
  0
LINE
  5
A9
330
1F
100
AcDbEntity
  8
LC-001-100-D00-0
 62
     7
370
    50
100
AcDbLine
 10
1047.753358
 20
378.502881
 30
0.0
 11
1067.753358
 21
378.502881
 31
0.0
  0
LINE
  5
AA
330
1F
100
AcDbEntity
  8
LC-001-100-D00-0
 62
     7
370
    50
100
AcDbLine
 10
958.253358
 20
463.502881
 30
0.0
 11
953.853358
 21
463.502881
 31
0.0
  0
LINE
  5
AB
330
1F
100
AcDbEntity
  8
LC-001-100-D00-0
 62
     7
370
    50
100
AcDbLine
 10
962.653358
 20
463.502881
 30
0.0
 11
958.253358
 21
463.502881
 31
0.0
  0
LINE
  5
AC
330
1F
100
AcDbEntity
  8
LC-001-100-D00-0
 62
     7
370
    50
100
AcDbLine
 10
1028.253358
 20
463.502881
 30
0.0
 11
1023.853358
 21
463.502881
 31
0.0
  0
LINE
  5
AD
330
1F
100
AcDbEntity
  8
LC-001-100-D00-0
 62
     7
370
    50
100
AcDbLine
 10
1032.653358
 20
463.502881
 30
0.0
 11
1028.253358
 21
463.502881
 31
0.0
  0
LINE
  5
AE
330
1F
100
AcDbEntity
  8
LC-001-100-D00-0
 62
     7
370
    50
100
AcDbLine
 10
957.753358
 20
469.502881
 30
0.0
 11
965.753358
 21
469.50288
 31
0.0
  0
LINE
  5
AF
330
1F
100
AcDbEntity
  8
LC-001-100-D00-0
 62
     7
370
    50
100
AcDbLine
 10
957.753358
 20
472.502881
 30
0.0
 11
965.753358
 21
472.502881
 31
0.0
  0
LINE
  5
B0
330
1F
100
AcDbEntity
  8
LC-001-100-D00-0
 62
     7
370
    50
100
AcDbLine
 10
957.753358
 20
469.502881
 30
0.0
 11
952.753358
 21
469.502881
 31
0.0
  0
LINE
  5
B1
330
1F
100
AcDbEntity
  8
LC-001-100-D00-0
 62
     7
370
    50
100
AcDbLine
 10
952.753358
 20
469.502881
 30
0.0
 11
952.753358
 21
472.502881
 31
0.0
  0
LINE
  5
B2
330
1F
100
AcDbEntity
  8
LC-001-100-D00-0
 62
     7
370
    50
100
AcDbLine
 10
952.753358
 20
472.502881
 30
0.0
 11
957.753358
 21
472.502881
 31
0.0
  0
LINE
  5
B3
330
1F
100
AcDbEntity
  8
LC-001-100-D00-0
 62
     7
370
    50
100
AcDbLine
 10
1020.753358
 20
469.50288
 30
0.0
 11
1028.753358
 21
469.502881
 31
0.0
  0
LINE
  5
B4
330
1F
100
AcDbEntity
  8
LC-001-100-D00-0
 62
     7
370
    50
100
AcDbLine
 10
1020.753358
 20
472.502881
 30
0.0
 11
1028.753358
 21
472.502881
 31
0.0
  0
LINE
  5
B5
330
1F
100
AcDbEntity
  8
LC-001-100-D00-0
 62
     7
370
    50
100
AcDbLine
 10
1033.753358
 20
472.502881
 30
0.0
 11
1033.753358
 21
469.502881
 31
0.0
  0
LINE
  5
B6
330
1F
100
AcDbEntity
  8
LC-001-100-D00-0
 62
     7
370
    50
100
AcDbLine
 10
1033.753358
 20
469.502881
 30
0.0
 11
1028.753358
 21
469.502881
 31
0.0
  0
LINE
  5
B7
330
1F
100
AcDbEntity
  8
LC-001-100-D00-0
 62
     7
370
    50
100
AcDbLine
 10
1028.753358
 20
472.502881
 30
0.0
 11
1033.753358
 21
472.502881
 31
0.0
  0
LINE
  5
B8
330
1F
100
AcDbEntity
  8
LC-001-100-D00-0
 62
     7
370
    50
100
AcDbLine
 10
1031.200167
 20
459.252881
 30
0.0
 11
955.30655
 21
459.252881
 31
0.0
  0
LINE
  5
B9
330
1F
100
AcDbEntity
  8
LC-001-100-D00-0
 62
     7
370
    50
100
AcDbLine
 10
1033.753358
 20
473.502881
 30
0.0
 11
1033.753358
 21
472.502881
 31
0.0
  0
LINE
  5
BA
330
1F
100
AcDbEntity
  8
LC-001-100-D00-0
 62
     7
370
    50
100
AcDbLine
 10
952.753358
 20
472.502881
 30
0.0
 11
952.753358
 21
473.502881
 31
0.0
  0
LINE
  5
BB
330
1F
100
AcDbEntity
  8
LC-001-100-D00-0
 62
     7
370
    50
100
AcDbLine
 10
952.753358
 20
473.502881
 30
0.0
 11
952.753358
 21
488.502881
 31
0.0
  0
LINE
  5
BC
330
1F
100
AcDbEntity
  8
LC-001-100-D00-0
 62
     7
370
    50
100
AcDbLine
 10
1033.753358
 20
488.502881
 30
0.0
 11
1033.753358
 21
473.502881
 31
0.0
  0
LINE
  5
BD
330
1F
100
AcDbEntity
  8
LC-001-100-D00-0
 62
     7
370
    50
100
AcDbLine
 10
1033.753358
 20
467.502881
 30
0.0
 11
1033.753358
 21
459.252881
 31
0.0
  0
LINE
  5
BE
330
1F
100
AcDbEntity
  8
LC-001-100-D00-0
 62
     7
370
    50
100
AcDbLine
 10
1033.753358
 20
459.252881
 30
0.0
 11
1031.200167
 21
459.252881
 31
0.0
  0
LINE
  5
BF
330
1F
100
AcDbEntity
  8
LC-001-100-D00-0
 62
     7
370
    50
100
AcDbLine
 10
952.753358
 20
459.252881
 30
0.0
 11
952.753358
 21
467.502881
 31
0.0
  0
LINE
  5
C0
330
1F
100
AcDbEntity
  8
LC-001-100-D00-0
 62
     7
370
    50
100
AcDbLine
 10
955.30655
 20
459.252881
 30
0.0
 11
952.753358
 21
459.252881
 31
0.0
  0
LINE
  5
C1
330
1F
100
AcDbEntity
  8
LC-001-100-D00-0
 62
     7
370
    50
100
AcDbLine
 10
955.30655
 20
459.252881
 30
0.0
 11
1031.200167
 21
459.252881
 31
0.0
  0
LINE
  5
C2
330
1F
100
AcDbEntity
  8
LC-001-100-D00-0
 62
     7
370
    50
100
AcDbLine
 10
1020.295911
 20
406.502881
 30
0.0
 11
966.210805
 21
406.502881
 31
0.0
  0
LINE
  5
C3
330
1F
100
AcDbEntity
  8
LC-001-100-D00-0
 62
     7
370
    50
100
AcDbLine
 10
1013.768956
 20
400.002881
 30
0.0
 11
972.737761
 21
400.002881
 31
0.0
  0
LINE
  5
C4
330
1F
100
AcDbEntity
  8
LC-001-100-D00-0
 62
     7
370
    50
100
AcDbLine
 10
1033.753358
 20
459.252881
 30
0.0
 11
1033.753358
 21
419.002881
 31
0.0
  0
LINE
  5
C5
330
1F
100
AcDbEntity
  8
LC-001-100-D00-0
 62
     7
370
    50
100
AcDbLine
 10
1031.200167
 20
459.252881
 30
0.0
 11
1033.753358
 21
459.252881
 31
0.0
  0
ARC
  5
C6
330
1F
100
AcDbEntity
  8
LC-001-100-D00-0
 62
     7
370
    50
100
AcDbCircle
 10
1021.253358
 20
419.002881
 30
0.0
 40
12.50000000000023
100
AcDbArc
 50
270.0
 51
0.0
  0
LINE
  5
C7
330
1F
100
AcDbEntity
  8
LC-001-100-D00-0
 62
     7
370
    50
100
AcDbLine
 10
1021.253358
 20
406.502881
 30
0.0
 11
1020.295911
 21
406.502881
 31
0.0
  0
ARC
  5
C8
330
1F
100
AcDbEntity
  8
LC-001-100-D00-0
 62
     7
370
    50
100
AcDbCircle
 10
965.253358
 20
419.002881
 30
0.0
 40
12.5
100
AcDbArc
 50
180.0
 51
270.0
  0
LINE
  5
C9
330
1F
100
AcDbEntity
  8
LC-001-100-D00-0
 62
     7
370
    50
100
AcDbLine
 10
966.210805
 20
406.502881
 30
0.0
 11
965.253358
 21
406.502881
 31
0.0
  0
LINE
  5
CA
330
1F
100
AcDbEntity
  8
LC-001-100-D00-0
 62
     7
370
    50
100
AcDbLine
 10
952.753358
 20
419.002881
 30
0.0
 11
952.753358
 21
459.252881
 31
0.0
  0
LINE
  5
CB
330
1F
100
AcDbEntity
  8
LC-001-100-D00-0
 62
     7
370
    50
100
AcDbLine
 10
952.753358
 20
459.252881
 30
0.0
 11
955.30655
 21
459.252881
 31
0.0
  0
ARC
  5
CC
330
1F
100
AcDbEntity
  8
LC-001-100-D00-0
 62
     7
370
    50
100
AcDbCircle
 10
972.735478
 20
407.002881
 30
0.0
 40
7.000000000000109
100
AcDbArc
 50
184.096044
 51
270.0
  0
LINE
  5
CD
330
1F
100
AcDbEntity
  8
LC-001-100-D00-0
 62
     7
370
    50
100
AcDbLine
 10
972.737761
 20
400.002881
 30
0.0
 11
972.735478
 21
400.002881
 31
0.0
  0
ARC
  5
CE
330
1F
100
AcDbEntity
  8
LC-001-100-D00-0
 62
     7
370
    50
100
AcDbCircle
 10
1013.771238
 20
407.002881
 30
0.0
 40
7.0
100
AcDbArc
 50
270.0
 51
355.903956
  0
LINE
  5
CF
330
1F
100
AcDbEntity
  8
LC-001-100-D00-0
 62
     7
370
    50
100
AcDbLine
 10
1013.771238
 20
400.002881
 30
0.0
 11
1013.768956
 21
400.002881
 31
0.0
  0
LINE
  5
D0
330
1F
100
AcDbEntity
  8
LC-001-100-D00-0
 62
     7
370
    50
100
AcDbLine
 10
958.253358
 20
467.502881
 30
0.0
 11
963.753358
 21
467.502881
 31
0.0
  0
LINE
  5
D1
330
1F
100
AcDbEntity
  8
LC-001-100-D00-0
 62
     7
370
    50
100
AcDbLine
 10
952.753358
 20
467.502881
 30
0.0
 11
958.253358
 21
467.502881
 31
0.0
  0
LINE
  5
D2
330
1F
100
AcDbEntity
  8
LC-001-100-D00-0
 62
     7
370
    50
100
AcDbLine
 10
1028.253358
 20
467.502881
 30
0.0
 11
1033.753358
 21
467.502881
 31
0.0
  0
LINE
  5
D3
330
1F
100
AcDbEntity
  8
LC-001-100-D00-0
 62
     7
370
    50
100
AcDbLine
 10
1022.753358
 20
467.502881
 30
0.0
 11
1028.253358
 21
467.502881
 31
0.0
  0
DIMENSION
  5
D6
330
1F
100
AcDbEntity
  8
LC-001-100-D00-0
 62
     7
370
    25
100
AcDbDimension
  2
*D1
 10
1033.753358
 20
321.848264
 30
0.0
 11
996.80495
 21
376.848264
 31
0.0
 70
   160
  1
81
 71
     5
 42
81.0
  3
LC-DIM-L-0100-02-02
100
AcDbAlignedDimension
 13
952.753358
 23
419.002881
 33
0.0
 14
1033.753358
 24
419.002881
 34
0.0
100
AcDbRotatedDimension
  0
LINE
  5
E7
330
1F
100
AcDbEntity
  8
LC-001-100-D00-0
  6
DASHDOT
 62
     7
370
    25
100
AcDbLine
 10
993.253358
 20
400.002881
 30
0.0
 11
993.253358
 21
490.002881
 31
0.0
  0
LINE
  5
E8
330
1F
100
AcDbEntity
  8
LC-001-100-D00-0
  6
DASHDOT
 62
     7
370
    25
100
AcDbLine
 10
1057.753358
 20
368.502881
 30
0.0
 11
1057.753358
 21
466.502881
 31
0.0
  0
LINE
  5
E9
330
1F
100
AcDbEntity
  8
LC-001-100-D00-0
 62
     7
370
    50
100
AcDbLine
 10
543.823207
 20
197.107502
 30
0.0
 11
543.823207
 21
195.607502
 31
0.0
  0
LINE
  5
EA
330
1F
100
AcDbEntity
  8
LC-001-100-D00-0
 62
     7
370
    50
100
AcDbLine
 10
543.823207
 20
195.607502
 30
0.0
 11
538.823207
 21
195.607502
 31
0.0
  0
LINE
  5
EB
330
1F
100
AcDbEntity
  8
LC-001-100-D00-0
 62
     7
370
    50
100
AcDbLine
 10
538.823207
 20
197.107502
 30
0.0
 11
543.823207
 21
197.107502
 31
0.0
  0
LINE
  5
EC
330
1F
100
AcDbEntity
  8
LC-001-100-D00-0
 62
     7
370
    50
100
AcDbLine
 10
-251.176793
 20
195.607502
 30
0.0
 11
538.823207
 21
195.607502
 31
0.0
  0
LINE
  5
ED
330
1F
100
AcDbEntity
  8
LC-001-100-D00-0
 62
     7
370
    50
100
AcDbLine
 10
-251.176793
 20
197.107502
 30
0.0
 11
538.823207
 21
197.107502
 31
0.0
  0
LINE
  5
EE
330
1F
100
AcDbEntity
  8
LC-001-100-D00-0
 62
     7
370
    50
100
AcDbLine
 10
-256.176793
 20
195.607502
 30
0.0
 11
-256.176793
 21
197.107502
 31
0.0
  0
LINE
  5
EF
330
1F
100
AcDbEntity
  8
LC-001-100-D00-0
 62
     7
370
    50
100
AcDbLine
 10
-251.176793
 20
195.607502
 30
0.0
 11
-256.176793
 21
195.607502
 31
0.0
  0
LINE
  5
F0
330
1F
100
AcDbEntity
  8
LC-001-100-D00-0
 62
     7
370
    50
100
AcDbLine
 10
-256.176793
 20
197.107502
 30
0.0
 11
-251.176793
 21
197.107502
 31
0.0
  0
LINE
  5
F1
330
1F
100
AcDbEntity
  8
LC-001-100-D00-0
 62
     7
370
    50
100
AcDbLine
 10
-256.176793
 20
194.107502
 30
0.0
 11
-256.176793
 21
195.607502
 31
0.0
  0
LINE
  5
F2
330
1F
100
AcDbEntity
  8
LC-001-100-D00-0
 62
     7
370
    50
100
AcDbLine
 10
543.823207
 20
195.607502
 30
0.0
 11
543.823207
 21
194.107502
 31
0.0
  0
ARC
  5
F3
330
1F
100
AcDbEntity
  8
LC-001-100-D00-0
 62
     7
370
    50
100
AcDbCircle
 10
491.323207
 20
127.607502
 30
0.0
 40
2.5
100
AcDbArc
 50
270.0
 51
0.0
  0
ARC
  5
F4
330
1F
100
AcDbEntity
  8
LC-001-100-D00-0
 62
     7
370
    50
100
AcDbCircle
 10
491.323207
 20
174.607502
 30
0.0
 40
2.5
100
AcDbArc
 50
0.0
 51
90.0
  0
LINE
  5
F5
330
1F
100
AcDbEntity
  8
LC-001-100-D00-0
 62
     7
370
    50
100
AcDbLine
 10
493.823207
 20
127.607502
 30
0.0
 11
493.823207
 21
174.607502
 31
0.0
  0
LINE
  5
F6
330
1F
100
AcDbEntity
  8
LC-001-100-D00-0
 62
     7
370
    50
100
AcDbLine
 10
491.323207
 20
125.107502
 30
0.0
 11
-203.676793
 21
125.107502
 31
0.0
  0
LINE
  5
F7
330
1F
100
AcDbEntity
  8
LC-001-100-D00-0
 62
     7
370
    50
100
AcDbLine
 10
-203.676793
 20
177.107502
 30
0.0
 11
491.323207
 21
177.107502
 31
0.0
  0
ARC
  5
F8
330
1F
100
AcDbEntity
  8
LC-001-100-D00-0
 62
     7
370
    50
100
AcDbCircle
 10
-203.676793
 20
174.607502
 30
0.0
 40
2.5
100
AcDbArc
 50
90.0
 51
180.0
  0
ARC
  5
F9
330
1F
100
AcDbEntity
  8
LC-001-100-D00-0
 62
     7
370
    50
100
AcDbCircle
 10
-203.676793
 20
127.607502
 30
0.0
 40
2.5
100
AcDbArc
 50
180.0
 51
270.0
  0
LINE
  5
FA
330
1F
100
AcDbEntity
  8
LC-001-100-D00-0
 62
     7
370
    50
100
AcDbLine
 10
-206.176793
 20
127.607502
 30
0.0
 11
-206.176793
 21
174.607502
 31
0.0
  0
ARC
  5
FB
330
1F
100
AcDbEntity
  8
LC-001-100-D00-0
 62
     7
370
    50
100
AcDbCircle
 10
538.823207
 20
78.607502
 30
0.0
 40
5.0
100
AcDbArc
 50
270.0
 51
0.0
  0
LINE
  5
FC
330
1F
100
AcDbEntity
  8
LC-001-100-D00-0
 62
     7
370
    50
100
AcDbLine
 10
-251.176793
 20
73.607502
 30
0.0
 11
538.823207
 21
73.607502
 31
0.0
  0
ARC
  5
FD
330
1F
100
AcDbEntity
  8
LC-001-100-D00-0
 62
     7
370
    50
100
AcDbCircle
 10
-251.176793
 20
78.607502
 30
0.0
 40
5.0
100
AcDbArc
 50
180.0
 51
270.0
  0
LINE
  5
FE
330
1F
100
AcDbEntity
  8
LC-001-100-D00-0
 62
     7
370
    50
100
AcDbLine
 10
-256.176793
 20
194.107502
 30
0.0
 11
-256.176793
 21
78.607502
 31
0.0
  0
LINE
  5
FF
330
1F
100
AcDbEntity
  8
LC-001-100-D00-0
 62
     7
370
    50
100
AcDbLine
 10
543.823207
 20
194.107502
 30
0.0
 11
543.823207
 21
78.607502
 31
0.0
  0
CIRCLE
  5
100
330
1F
100
AcDbEntity
  8
LC-001-100-D00-0
 62
     7
370
    50
100
AcDbCircle
 10
463.823207
 20
151.107502
 30
0.0
 40
3.000000000000114
  0
CIRCLE
  5
101
330
1F
100
AcDbEntity
  8
LC-001-100-D00-0
 62
     7
370
    50
100
AcDbCircle
 10
353.823207
 20
151.107502
 30
0.0
 40
3.000000000000455
  0
CIRCLE
  5
102
330
1F
100
AcDbEntity
  8
LC-001-100-D00-0
 62
     7
370
    50
100
AcDbCircle
 10
243.823207
 20
151.107502
 30
0.0
 40
3.000000000000114
  0
CIRCLE
  5
103
330
1F
100
AcDbEntity
  8
LC-001-100-D00-0
 62
     7
370
    50
100
AcDbCircle
 10
43.823207
 20
151.107502
 30
0.0
 40
3.000000000000114
  0
CIRCLE
  5
104
330
1F
100
AcDbEntity
  8
LC-001-100-D00-0
 62
     7
370
    50
100
AcDbCircle
 10
-66.176793
 20
151.107502
 30
0.0
 40
3.000000000000455
  0
CIRCLE
  5
105
330
1F
100
AcDbEntity
  8
LC-001-100-D00-0
 62
     7
370
    50
100
AcDbCircle
 10
-176.176793
 20
151.107502
 30
0.0
 40
3.000000000000114
  0
INSERT
  5
10B
330
1F
100
AcDbEntity
  8
LC-001-100-D00-0
 62
     7
370
    50
100
AcDbBlockReference
  2
KLON1
 10
0.0
 20
0.0
 30
0.0
  0
LINE
  5
10C
330
1F
100
AcDbEntity
  8
LC-001-100-D00-0
 62
     7
370
    50
100
AcDbLine
 10
485.797018
 20
138.784833
 30
0.0
 11
485.797018
 21
127.607503
 31
0.0
  0
ARC
  5
10D
330
1F
100
AcDbEntity
  8
LC-001-100-D00-0
 62
     7
370
    50
100
AcDbCircle
 10
1489.803632
 20
-18.175704
 30
0.0
 40
1016.20169807523
100
AcDbArc
 50
171.105076
 51
171.114633
  0
INSERT
  5
115
330
1F
100
AcDbEntity
  8
LC-001-100-D00-0
 62
     7
370
    50
100
AcDbBlockReference
  2
KLON2
 10
0.0
 20
0.0
 30
0.0
  0
LINE
  5
116
330
1F
100
AcDbEntity
  8
LC-001-100-D00-0
 62
     7
370
    50
100
AcDbLine
 10
485.797018
 20
174.592863
 30
0.0
 11
485.797018
 21
163.430171
 31
0.0
  0
INSERT
  5
11C
330
1F
100
AcDbEntity
  8
LC-001-100-D00-0
 62
     7
370
    50
100
AcDbBlockReference
  2
KLON3
 10
0.0
 20
0.0
 30
0.0
  0
INSERT
  5
122
330
1F
100
AcDbEntity
  8
LC-001-100-D00-0
 62
     7
370
    50
100
AcDbBlockReference
  2
KLON4
 10
0.0
 20
0.0
 30
0.0
  0
INSERT
  5
128
330
1F
100
AcDbEntity
  8
LC-001-100-D00-0
 62
     7
370
    50
100
AcDbBlockReference
  2
KLON5
 10
0.0
 20
0.0
 30
0.0
  0
LINE
  5
129
330
1F
100
AcDbEntity
  8
LC-001-100-D00-0
 62
     7
370
    50
100
AcDbLine
 10
-198.150605
 20
174.592863
 30
0.0
 11
-198.150605
 21
163.430171
 31
0.0
  0
INSERT
  5
131
330
1F
100
AcDbEntity
  8
LC-001-100-D00-0
 62
     7
370
    50
100
AcDbBlockReference
  2
KLON6
 10
0.0
 20
0.0
 30
0.0
  0
ARC
  5
132
330
1F
100
AcDbEntity
  8
LC-001-100-D00-0
 62
     7
370
    50
100
AcDbCircle
 10
-1202.157218
 20
-18.175704
 30
0.0
 40
1016.201698075231
100
AcDbArc
 50
8.885367
 51
8.894924
  0
LINE
  5
133
330
1F
100
AcDbEntity
  8
LC-001-100-D00-0
 62
     7
370
    50
100
AcDbLine
 10
-198.150605
 20
138.784833
 30
0.0
 11
-198.150605
 21
127.607503
 31
0.0
  0
ELLIPSE
  5
134
330
1F
100
AcDbEntity
  8
LC-001-100-D00-0
 62
     7
370
    50
100
AcDbEllipse
 10
485.750238
 20
127.607502
 30
0.0
 11
0.0
 21
-2.499999786376944
 31
0.0
210
0.0
220
0.0
230
1.0
 40
0.018242
 41
3.1415926535873
 42
4.71238898037709
  0
ELLIPSE
  5
135
330
1F
100
AcDbEntity
  8
LC-001-100-D00-0
 62
     7
370
    50
100
AcDbEllipse
 10
348.750238
 20
127.607502
 30
0.0
 11
0.0
 21
-2.5
 31
0.0
210
0.0
220
0.0
230
1.0
 40
0.018242
 41
3.141592653589793
 42
4.712388980380972
  0
ELLIPSE
  5
136
330
1F
100
AcDbEntity
  8
LC-001-100-D00-0
 62
     7
370
    50
100
AcDbEllipse
 10
554.295844
 20
127.607502
 30
0.0
 11
68.49999999999965
 21
0.0
 31
0.0
210
0.0
220
0.0
230
1.0
 40
0.036496
 41
3.14159265359762
 42
3.169858841660805
  0
ELLIPSE
  5
137
330
1F
100
AcDbEntity
  8
LC-001-100-D00-0
 62
     7
370
    50
100
AcDbEllipse
 10
-198.103825
 20
127.607502
 30
0.0
 11
0.0
 21
-2.500000007629394
 31
0.0
210
0.0
220
0.0
230
1.0
 40
0.018242
 41
1.570796326802542
 42
3.141592653590417
  0
ELLIPSE
  5
138
330
1F
100
AcDbEntity
  8
LC-001-100-D00-0
 62
     7
370
    50
100
AcDbEllipse
 10
-61.103825
 20
127.607502
 30
0.0
 11
0.0
 21
-2.5
 31
0.0
210
0.0
220
0.0
230
1.0
 40
0.018242
 41
1.570796326798796
 42
3.141592653589638
  0
ELLIPSE
  5
139
330
1F
100
AcDbEntity
  8
LC-001-100-D00-0
 62
     7
370
    50
100
AcDbEllipse
 10
-266.64943
 20
127.607502
 30
0.0
 11
68.50000000979874
 21
0.0
 31
0.0
210
0.0
220
0.0
230
1.0
 40
0.036496
 41
6.254919119109264
 42
6.283185307179546
  0
ELLIPSE
  5
13A
330
1F
100
AcDbEntity
  8
LC-001-100-D00-0
 62
     7
370
    50
100
AcDbEllipse
 10
554.295844
 20
174.607502
 30
0.0
 11
68.50000000170937
 21
0.0
 31
0.0
210
0.0
220
0.0
230
1.0
 40
0.036496
 41
3.141592653590021
 42
3.147448628039722
  0
ELLIPSE
  5
13B
330
1F
100
AcDbEntity
  8
LC-001-100-D00-0
 62
     7
370
    50
100
AcDbEllipse
 10
485.750238
 20
174.607502
 30
0.0
 11
0.0
 21
-2.5
 31
0.0
210
0.0
220
0.0
230
1.0
 40
0.018242
 41
4.712388980384713
 42
6.283185358117136
  0
ELLIPSE
  5
13C
330
1F
100
AcDbEntity
  8
LC-001-100-D00-0
 62
     7
370
    50
100
AcDbEllipse
 10
-266.64943
 20
174.607502
 30
0.0
 11
68.50000000898216
 21
0.0
 31
0.0
210
0.0
220
0.0
230
1.0
 40
0.036496
 41
6.277329332730512
 42
6.283185307179404
  0
ELLIPSE
  5
13D
330
1F
100
AcDbEntity
  8
LC-001-100-D00-0
 62
     7
370
    50
100
AcDbEllipse
 10
-198.103825
 20
174.607502
 30
0.0
 11
0.0
 21
-2.499999755859363
 31
0.0
210
0.0
220
0.0
230
0.9999999999999999
 40
0.018242
 41
6.283185256230191
 42
7.853981633974517
  0
ELLIPSE
  5
13E
330
1F
100
AcDbEntity
  8
LC-001-100-D00-0
 62
     7
370
    50
100
AcDbEllipse
 10
348.750238
 20
174.607502
 30
0.0
 11
0.0
 21
-2.499999771118154
 31
0.0
210
0.0
220
0.0
230
0.9999999999999999
 40
0.018242
 41
4.712388980388475
 42
6.283185315321219
  0
ELLIPSE
  5
13F
330
1F
100
AcDbEntity
  8
LC-001-100-D00-0
 62
     7
370
    50
100
AcDbEllipse
 10
-61.103825
 20
174.607502
 30
0.0
 11
0.0
 21
-2.500000000953675
 31
0.0
210
0.0
220
0.0
230
1.0
 40
0.018242
 41
6.283185299027672
 42
7.853981633970935
  0
LINE
  5
140
330
1F
100
AcDbEntity
  8
LC-001-100-D00-0
 62
     7
370
    50
100
AcDbLine
 10
348.795847
 20
127.607503
 30
0.0
 11
348.795847
 21
130.458019
 31
0.0
  0
INSERT
  5
146
330
1F
100
AcDbEntity
  8
LC-001-100-D00-0
 62
     7
370
    50
100
AcDbBlockReference
  2
KLON7
 10
0.0
 20
0.0
 30
0.0
  0
INSERT
  5
14C
330
1F
100
AcDbEntity
  8
LC-001-100-D00-0
 62
     7
370
    50
100
AcDbBlockReference
  2
KLON8
 10
0.0
 20
0.0
 30
0.0
  0
LINE
  5
14D
330
1F
100
AcDbEntity
  8
LC-001-100-D00-0
 62
     7
370
    50
100
AcDbLine
 10
-61.149433
 20
127.607503
 30
0.0
 11
-61.149433
 21
130.458019
 31
0.0
  0
INSERT
  5
153
330
1F
100
AcDbEntity
  8
LC-001-100-D00-0
 62
     7
370
    50
100
AcDbBlockReference
  2
KLON9
 10
0.0
 20
0.0
 30
0.0
  0
INSERT
  5
159
330
1F
100
AcDbEntity
  8
LC-001-100-D00-0
 62
     7
370
    50
100
AcDbBlockReference
  2
KLON10
 10
0.0
 20
0.0
 30
0.0
  0
LINE
  5
15A
330
1F
100
AcDbEntity
  8
LC-001-100-D00-0
 62
     7
370
    50
100
AcDbLine
 10
348.795847
 20
171.756985
 30
0.0
 11
348.795847
 21
174.607501
 31
0.0
  0
LINE
  5
15B
330
1F
100
AcDbEntity
  8
LC-001-100-D00-0
 62
     7
370
    50
100
AcDbLine
 10
-61.149433
 20
171.756985
 30
0.0
 11
-61.149433
 21
174.607501
 31
0.0
  0
LINE
  5
15C
330
1F
100
AcDbEntity
  8
LC-001-100-D00-0
 62
     7
370
    50
100
AcDbLine
 10
348.810122
 20
131.251824
 30
0.0
 11
348.810122
 21
132.857502
 31
0.0
  0
ELLIPSE
  5
15D
330
1F
100
AcDbEntity
  8
LC-001-100-D00-0
 62
     7
370
    15
100
AcDbEllipse
 10
154.692443
 20
178.476424
 30
0.0
 11
28.64933027441076
 21
1.713494946258248
 31
0.0
210
0.0
220
0.0
230
1.0
 40
0.016531
 41
6.280994665940232
 42
6.28219662751807
  0
ELLIPSE
  5
15E
330
1F
100
AcDbEntity
  8
LC-001-100-D00-0
 62
     7
370
    15
100
AcDbEllipse
 10
154.692443
 20
189.844747
 30
0.0
 11
28.64933027987512
 21
-1.713494946585015
 31
0.0
210
0.0
220
0.0
230
1.0
 40
0.016531
 41
0.0009886796551666
 42
0.0021906412326809
  0
LINE
  5
15F
330
1F
100
AcDbEntity
  8
LC-001-100-D00-0
 62
     7
370
    50
100
AcDbLine
 10
348.810122
 20
169.357502
 30
0.0
 11
348.810122
 21
170.96318
 31
0.0
  0
ELLIPSE
  5
160
330
1F
100
AcDbEntity
  8
LC-001-100-D00-0
 62
     7
370
    15
100
AcDbEllipse
 10
129.996368
 20
178.476424
 30
0.0
 11
28.64933025289459
 21
-1.71349494497133
 31
0.0
210
0.0
220
0.0
230
1.0
 40
0.016531
 41
3.142581333254241
 42
3.143783294831893
  0
LINE
  5
161
330
1F
100
AcDbEntity
  8
LC-001-100-D00-0
 62
     7
370
    50
100
AcDbLine
 10
-61.163708
 20
131.251824
 30
0.0
 11
-61.163708
 21
132.857502
 31
0.0
  0
ELLIPSE
  5
162
330
1F
100
AcDbEntity
  8
LC-001-100-D00-0
 62
     7
370
    15
100
AcDbEllipse
 10
129.996368
 20
189.844747
 30
0.0
 11
28.64933032905492
 21
1.713494949526416
 31
0.0
210
0.0
220
0.0
230
1.0
 40
0.016531
 41
3.139402012349563
 42
3.140603973927172
  0
LINE
  5
163
330
1F
100
AcDbEntity
  8
LC-001-100-D00-0
 62
     7
370
    50
100
AcDbLine
 10
-61.163708
 20
169.357502
 30
0.0
 11
-61.163708
 21
170.96318
 31
0.0
  0
LINE
  5
164
330
1F
100
AcDbEntity
  8
LC-001-100-D00-0
 62
     7
370
    50
100
AcDbLine
 10
348.795847
 20
130.458391
 30
0.0
 11
348.810018
 21
131.248961
 31
0.0
  0
LINE
  5
165
330
1F
100
AcDbEntity
  8
LC-001-100-D00-0
 62
     7
370
    50
100
AcDbLine
 10
348.795847
 20
171.756613
 30
0.0
 11
348.810018
 21
170.966043
 31
0.0
  0
LINE
  5
166
330
1F
100
AcDbEntity
  8
LC-001-100-D00-0
 62
     7
370
    50
100
AcDbLine
 10
-61.149433
 20
130.458391
 30
0.0
 11
-61.163604
 21
131.248961
 31
0.0
  0
LINE
  5
167
330
1F
100
AcDbEntity
  8
LC-001-100-D00-0
 62
     7
370
    50
100
AcDbLine
 10
-61.149433
 20
171.756613
 30
0.0
 11
-61.163604
 21
170.966043
 31
0.0
  0
ARC
  5
168
330
1F
100
AcDbEntity
  8
LC-001-100-D00-0
 62
     7
370
    50
100
AcDbCircle
 10
174.323199
 20
151.107522
 30
0.0
 40
24.80002105913093
100
AcDbArc
 50
270.0
 51
300.592807
  0
ARC
  5
169
330
1F
100
AcDbEntity
  8
LC-001-100-D00-0
 62
     7
370
    50
100
AcDbCircle
 10
113.323215
 20
151.107522
 30
0.0
 40
24.80002105913077
100
AcDbArc
 50
239.407193
 51
270.0
  0
ARC
  5
16A
330
1F
100
AcDbEntity
  8
LC-001-100-D00-0
 62
     7
370
    50
100
AcDbCircle
 10
174.323201
 20
151.107489
 30
0.0
 40
24.80001358063295
100
AcDbArc
 50
59.407188
 51
90.0
  0
ARC
  5
16B
330
1F
100
AcDbEntity
  8
LC-001-100-D00-0
 62
     7
370
    50
100
AcDbCircle
 10
113.323213
 20
151.107489
 30
0.0
 40
24.80001358063305
100
AcDbArc
 50
90.0
 51
120.592812
  0
LINE
  5
16C
330
1F
100
AcDbEntity
  8
LC-001-100-D00-0
 62
     7
370
    50
100
AcDbLine
 10
113.323207
 20
175.907503
 30
0.0
 11
174.323207
 21
175.907503
 31
0.0
  0
LINE
  5
16D
330
1F
100
AcDbEntity
  8
LC-001-100-D00-0
 62
     7
370
    50
100
AcDbLine
 10
174.323207
 20
126.307501
 30
0.0
 11
113.323207
 21
126.307501
 31
0.0
  0
LINE
  5
16E
330
1F
100
AcDbEntity
  8
LC-001-100-D00-0
 62
     7
370
    50
100
AcDbLine
 10
76.990374
 20
154.546405
 30
0.0
 11
76.998517
 21
154.178513
 31
0.0
  0
LINE
  5
16F
330
1F
100
AcDbEntity
  8
LC-001-100-D00-0
 62
     7
370
    50
100
AcDbLine
 10
75.879097
 20
155.339374
 30
0.0
 11
76.990374
 21
154.546405
 31
0.0
  0
LINE
  5
170
330
1F
100
AcDbEntity
  8
LC-001-100-D00-0
 62
     7
370
    50
100
AcDbLine
 10
76.990374
 20
156.132343
 30
0.0
 11
75.879097
 21
155.339374
 31
0.0
  0
LINE
  5
171
330
1F
100
AcDbEntity
  8
LC-001-100-D00-0
 62
     7
370
    50
100
AcDbLine
 10
76.990374
 20
156.50604
 30
0.0
 11
76.990374
 21
156.132343
 31
0.0
  0
LINE
  5
172
330
1F
100
AcDbEntity
  8
LC-001-100-D00-0
 62
     7
370
    50
100
AcDbLine
 10
75.616874
 20
155.526573
 30
0.0
 11
76.990374
 21
156.50604
 31
0.0
  0
LINE
  5
173
330
1F
100
AcDbEntity
  8
LC-001-100-D00-0
 62
     7
370
    50
100
AcDbLine
 10
74.432679
 20
156.371425
 30
0.0
 11
75.616874
 21
155.526573
 31
0.0
  0
LINE
  5
174
330
1F
100
AcDbEntity
  8
LC-001-100-D00-0
 62
     7
370
    50
100
AcDbLine
 10
74.432679
 20
155.997727
 30
0.0
 11
74.432679
 21
156.371425
 31
0.0
  0
LINE
  5
175
330
1F
100
AcDbEntity
  8
LC-001-100-D00-0
 62
     7
370
    50
100
AcDbLine
 10
75.355359
 20
155.339374
 30
0.0
 11
74.432679
 21
155.997727
 31
0.0
  0
LINE
  5
176
330
1F
100
AcDbEntity
  8
LC-001-100-D00-0
 62
     7
370
    50
100
AcDbLine
 10
74.432679
 20
154.68102
 30
0.0
 11
75.355359
 21
155.339374
 31
0.0
  0
LINE
  5
177
330
1F
100
AcDbEntity
  8
LC-001-100-D00-0
 62
     7
370
    50
100
AcDbLine
 10
74.432679
 20
154.307322
 30
0.0
 11
74.432679
 21
154.68102
 31
0.0
  0
LINE
  5
178
330
1F
100
AcDbEntity
  8
LC-001-100-D00-0
 62
     7
370
    50
100
AcDbLine
 10
75.616874
 20
155.152875
 30
0.0
 11
74.432679
 21
154.307322
 31
0.0
  0
LINE
  5
179
330
1F
100
AcDbEntity
  8
LC-001-100-D00-0
 62
     7
370
    50
100
AcDbLine
 10
76.998517
 20
154.178513
 30
0.0
 11
75.616874
 21
155.152875
 31
0.0
  0
LINE
  5
17A
330
1F
100
AcDbEntity
  8
LC-001-100-D00-0
 62
     7
370
    50
100
AcDbLine
 10
76.990374
 20
149.879738
 30
0.0
 11
76.998517
 21
149.511847
 31
0.0
  0
LINE
  5
17B
330
1F
100
AcDbEntity
  8
LC-001-100-D00-0
 62
     7
370
    50
100
AcDbLine
 10
75.879097
 20
150.672707
 30
0.0
 11
76.990374
 21
149.879738
 31
0.0
  0
LINE
  5
17C
330
1F
100
AcDbEntity
  8
LC-001-100-D00-0
 62
     7
370
    50
100
AcDbLine
 10
76.990374
 20
151.465676
 30
0.0
 11
75.879097
 21
150.672707
 31
0.0
  0
LINE
  5
17D
330
1F
100
AcDbEntity
  8
LC-001-100-D00-0
 62
     7
370
    50
100
AcDbLine
 10
76.990374
 20
151.839374
 30
0.0
 11
76.990374
 21
151.465676
 31
0.0
  0
LINE
  5
17E
330
1F
100
AcDbEntity
  8
LC-001-100-D00-0
 62
     7
370
    50
100
AcDbLine
 10
75.616874
 20
150.859907
 30
0.0
 11
76.990374
 21
151.839374
 31
0.0
  0
LINE
  5
17F
330
1F
100
AcDbEntity
  8
LC-001-100-D00-0
 62
     7
370
    50
100
AcDbLine
 10
74.432679
 20
151.704758
 30
0.0
 11
75.616874
 21
150.859907
 31
0.0
  0
LINE
  5
180
330
1F
100
AcDbEntity
  8
LC-001-100-D00-0
 62
     7
370
    50
100
AcDbLine
 10
74.432679
 20
151.33106
 30
0.0
 11
74.432679
 21
151.704758
 31
0.0
  0
LINE
  5
181
330
1F
100
AcDbEntity
  8
LC-001-100-D00-0
 62
     7
370
    50
100
AcDbLine
 10
75.355359
 20
150.672707
 30
0.0
 11
74.432679
 21
151.33106
 31
0.0
  0
LINE
  5
182
330
1F
100
AcDbEntity
  8
LC-001-100-D00-0
 62
     7
370
    50
100
AcDbLine
 10
74.432679
 20
150.014354
 30
0.0
 11
75.355359
 21
150.672707
 31
0.0
  0
LINE
  5
183
330
1F
100
AcDbEntity
  8
LC-001-100-D00-0
 62
     7
370
    50
100
AcDbLine
 10
74.432679
 20
149.640656
 30
0.0
 11
74.432679
 21
150.014354
 31
0.0
  0
LINE
  5
184
330
1F
100
AcDbEntity
  8
LC-001-100-D00-0
 62
     7
370
    50
100
AcDbLine
 10
75.616874
 20
150.486209
 30
0.0
 11
74.432679
 21
149.640656
 31
0.0
  0
LINE
  5
185
330
1F
100
AcDbEntity
  8
LC-001-100-D00-0
 62
     7
370
    50
100
AcDbLine
 10
76.998517
 20
149.511847
 30
0.0
 11
75.616874
 21
150.486209
 31
0.0
  0
LINE
  5
186
330
1F
100
AcDbEntity
  8
LC-001-100-D00-0
 62
     7
370
    50
100
AcDbLine
 10
76.990374
 20
145.213072
 30
0.0
 11
76.998517
 21
144.84518
 31
0.0
  0
LINE
  5
187
330
1F
100
AcDbEntity
  8
LC-001-100-D00-0
 62
     7
370
    50
100
AcDbLine
 10
75.879097
 20
146.006041
 30
0.0
 11
76.990374
 21
145.213072
 31
0.0
  0
LINE
  5
188
330
1F
100
AcDbEntity
  8
LC-001-100-D00-0
 62
     7
370
    50
100
AcDbLine
 10
76.990374
 20
146.799009
 30
0.0
 11
75.879097
 21
146.006041
 31
0.0
  0
LINE
  5
189
330
1F
100
AcDbEntity
  8
LC-001-100-D00-0
 62
     7
370
    50
100
AcDbLine
 10
76.990374
 20
147.172707
 30
0.0
 11
76.990374
 21
146.799009
 31
0.0
  0
LINE
  5
18A
330
1F
100
AcDbEntity
  8
LC-001-100-D00-0
 62
     7
370
    50
100
AcDbLine
 10
75.616874
 20
146.19324
 30
0.0
 11
76.990374
 21
147.172707
 31
0.0
  0
LINE
  5
18B
330
1F
100
AcDbEntity
  8
LC-001-100-D00-0
 62
     7
370
    50
100
AcDbLine
 10
74.432679
 20
147.038092
 30
0.0
 11
75.616874
 21
146.19324
 31
0.0
  0
LINE
  5
18C
330
1F
100
AcDbEntity
  8
LC-001-100-D00-0
 62
     7
370
    50
100
AcDbLine
 10
74.432679
 20
146.664394
 30
0.0
 11
74.432679
 21
147.038092
 31
0.0
  0
LINE
  5
18D
330
1F
100
AcDbEntity
  8
LC-001-100-D00-0
 62
     7
370
    50
100
AcDbLine
 10
75.355359
 20
146.006041
 30
0.0
 11
74.432679
 21
146.664394
 31
0.0
  0
LINE
  5
18E
330
1F
100
AcDbEntity
  8
LC-001-100-D00-0
 62
     7
370
    50
100
AcDbLine
 10
74.432679
 20
145.347687
 30
0.0
 11
75.355359
 21
146.006041
 31
0.0
  0
LINE
  5
18F
330
1F
100
AcDbEntity
  8
LC-001-100-D00-0
 62
     7
370
    50
100
AcDbLine
 10
74.432679
 20
144.973989
 30
0.0
 11
74.432679
 21
145.347687
 31
0.0
  0
LINE
  5
190
330
1F
100
AcDbEntity
  8
LC-001-100-D00-0
 62
     7
370
    50
100
AcDbLine
 10
75.616874
 20
145.819542
 30
0.0
 11
74.432679
 21
144.973989
 31
0.0
  0
LINE
  5
191
330
1F
100
AcDbEntity
  8
LC-001-100-D00-0
 62
     7
370
    50
100
AcDbLine
 10
76.998517
 20
144.84518
 30
0.0
 11
75.616874
 21
145.819542
 31
0.0
  0
LINE
  5
192
330
1F
100
AcDbEntity
  8
LC-001-100-D00-0
 62
     7
370
    50
100
AcDbLine
 10
76.990374
 20
142.879738
 30
0.0
 11
76.990374
 21
142.50604
 31
0.0
  0
LINE
  5
193
330
1F
100
AcDbEntity
  8
LC-001-100-D00-0
 62
     7
370
    50
100
AcDbLine
 10
75.879097
 20
143.672707
 30
0.0
 11
76.990374
 21
142.879738
 31
0.0
  0
LINE
  5
194
330
1F
100
AcDbEntity
  8
LC-001-100-D00-0
 62
     7
370
    50
100
AcDbLine
 10
76.990374
 20
144.465676
 30
0.0
 11
75.879097
 21
143.672707
 31
0.0
  0
LINE
  5
195
330
1F
100
AcDbEntity
  8
LC-001-100-D00-0
 62
     7
370
    50
100
AcDbLine
 10
76.990374
 20
144.839374
 30
0.0
 11
76.990374
 21
144.465676
 31
0.0
  0
LINE
  5
196
330
1F
100
AcDbEntity
  8
LC-001-100-D00-0
 62
     7
370
    50
100
AcDbLine
 10
75.616874
 20
143.859906
 30
0.0
 11
76.990374
 21
144.839374
 31
0.0
  0
LINE
  5
197
330
1F
100
AcDbEntity
  8
LC-001-100-D00-0
 62
     7
370
    50
100
AcDbLine
 10
74.432679
 20
144.704758
 30
0.0
 11
75.616874
 21
143.859906
 31
0.0
  0
LINE
  5
198
330
1F
100
AcDbEntity
  8
LC-001-100-D00-0
 62
     7
370
    50
100
AcDbLine
 10
74.432679
 20
144.331061
 30
0.0
 11
74.432679
 21
144.704758
 31
0.0
  0
LINE
  5
199
330
1F
100
AcDbEntity
  8
LC-001-100-D00-0
 62
     7
370
    50
100
AcDbLine
 10
75.355359
 20
143.672707
 30
0.0
 11
74.432679
 21
144.331061
 31
0.0
  0
LINE
  5
19A
330
1F
100
AcDbEntity
  8
LC-001-100-D00-0
 62
     7
370
    50
100
AcDbLine
 10
74.432679
 20
143.014354
 30
0.0
 11
75.355359
 21
143.672707
 31
0.0
  0
LINE
  5
19B
330
1F
100
AcDbEntity
  8
LC-001-100-D00-0
 62
     7
370
    50
100
AcDbLine
 10
74.432679
 20
142.640656
 30
0.0
 11
74.432679
 21
143.014354
 31
0.0
  0
LINE
  5
19C
330
1F
100
AcDbEntity
  8
LC-001-100-D00-0
 62
     7
370
    50
100
AcDbLine
 10
75.616874
 20
143.486209
 30
0.0
 11
74.432679
 21
142.640656
 31
0.0
  0
LINE
  5
19D
330
1F
100
AcDbEntity
  8
LC-001-100-D00-0
 62
     7
370
    50
100
AcDbLine
 10
76.990374
 20
142.50604
 30
0.0
 11
75.616874
 21
143.486209
 31
0.0
  0
LINE
  5
19E
330
1F
100
AcDbEntity
  8
LC-001-100-D00-0
 62
     7
370
    50
100
AcDbLine
 10
76.990374
 20
147.546405
 30
0.0
 11
76.998517
 21
147.178513
 31
0.0
  0
LINE
  5
19F
330
1F
100
AcDbEntity
  8
LC-001-100-D00-0
 62
     7
370
    50
100
AcDbLine
 10
75.879097
 20
148.339374
 30
0.0
 11
76.990374
 21
147.546405
 31
0.0
  0
LINE
  5
1A0
330
1F
100
AcDbEntity
  8
LC-001-100-D00-0
 62
     7
370
    50
100
AcDbLine
 10
76.990374
 20
149.132343
 30
0.0
 11
75.879097
 21
148.339374
 31
0.0
  0
LINE
  5
1A1
330
1F
100
AcDbEntity
  8
LC-001-100-D00-0
 62
     7
370
    50
100
AcDbLine
 10
76.990374
 20
149.50604
 30
0.0
 11
76.990374
 21
149.132343
 31
0.0
  0
LINE
  5
1A2
330
1F
100
AcDbEntity
  8
LC-001-100-D00-0
 62
     7
370
    50
100
AcDbLine
 10
75.616874
 20
148.526573
 30
0.0
 11
76.990374
 21
149.50604
 31
0.0
  0
LINE
  5
1A3
330
1F
100
AcDbEntity
  8
LC-001-100-D00-0
 62
     7
370
    50
100
AcDbLine
 10
74.432679
 20
149.371425
 30
0.0
 11
75.616874
 21
148.526573
 31
0.0
  0
LINE
  5
1A4
330
1F
100
AcDbEntity
  8
LC-001-100-D00-0
 62
     7
370
    50
100
AcDbLine
 10
74.432679
 20
148.997727
 30
0.0
 11
74.432679
 21
149.371425
 31
0.0
  0
LINE
  5
1A5
330
1F
100
AcDbEntity
  8
LC-001-100-D00-0
 62
     7
370
    50
100
AcDbLine
 10
75.355359
 20
148.339374
 30
0.0
 11
74.432679
 21
148.997727
 31
0.0
  0
LINE
  5
1A6
330
1F
100
AcDbEntity
  8
LC-001-100-D00-0
 62
     7
370
    50
100
AcDbLine
 10
74.432679
 20
147.68102
 30
0.0
 11
75.355359
 21
148.339374
 31
0.0
  0
LINE
  5
1A7
330
1F
100
AcDbEntity
  8
LC-001-100-D00-0
 62
     7
370
    50
100
AcDbLine
 10
74.432679
 20
147.307322
 30
0.0
 11
74.432679
 21
147.68102
 31
0.0
  0
LINE
  5
1A8
330
1F
100
AcDbEntity
  8
LC-001-100-D00-0
 62
     7
370
    50
100
AcDbLine
 10
75.616874
 20
148.152875
 30
0.0
 11
74.432679
 21
147.307322
 31
0.0
  0
LINE
  5
1A9
330
1F
100
AcDbEntity
  8
LC-001-100-D00-0
 62
     7
370
    50
100
AcDbLine
 10
76.998517
 20
147.178513
 30
0.0
 11
75.616874
 21
148.152875
 31
0.0
  0
LINE
  5
1AA
330
1F
100
AcDbEntity
  8
LC-001-100-D00-0
 62
     7
370
    50
100
AcDbLine
 10
76.990374
 20
152.213072
 30
0.0
 11
76.998517
 21
151.84518
 31
0.0
  0
LINE
  5
1AB
330
1F
100
AcDbEntity
  8
LC-001-100-D00-0
 62
     7
370
    50
100
AcDbLine
 10
75.879097
 20
153.00604
 30
0.0
 11
76.990374
 21
152.213072
 31
0.0
  0
LINE
  5
1AC
330
1F
100
AcDbEntity
  8
LC-001-100-D00-0
 62
     7
370
    50
100
AcDbLine
 10
76.990374
 20
153.799009
 30
0.0
 11
75.879097
 21
153.00604
 31
0.0
  0
LINE
  5
1AD
330
1F
100
AcDbEntity
  8
LC-001-100-D00-0
 62
     7
370
    50
100
AcDbLine
 10
76.990374
 20
154.172707
 30
0.0
 11
76.990374
 21
153.799009
 31
0.0
  0
LINE
  5
1AE
330
1F
100
AcDbEntity
  8
LC-001-100-D00-0
 62
     7
370
    50
100
AcDbLine
 10
75.616874
 20
153.19324
 30
0.0
 11
76.990374
 21
154.172707
 31
0.0
  0
LINE
  5
1AF
330
1F
100
AcDbEntity
  8
LC-001-100-D00-0
 62
     7
370
    50
100
AcDbLine
 10
74.432679
 20
154.038092
 30
0.0
 11
75.616874
 21
153.19324
 31
0.0
  0
LINE
  5
1B0
330
1F
100
AcDbEntity
  8
LC-001-100-D00-0
 62
     7
370
    50
100
AcDbLine
 10
74.432679
 20
153.664394
 30
0.0
 11
74.432679
 21
154.038092
 31
0.0
  0
LINE
  5
1B1
330
1F
100
AcDbEntity
  8
LC-001-100-D00-0
 62
     7
370
    50
100
AcDbLine
 10
75.355359
 20
153.00604
 30
0.0
 11
74.432679
 21
153.664394
 31
0.0
  0
LINE
  5
1B2
330
1F
100
AcDbEntity
  8
LC-001-100-D00-0
 62
     7
370
    50
100
AcDbLine
 10
74.432679
 20
152.347687
 30
0.0
 11
75.355359
 21
153.00604
 31
0.0
  0
LINE
  5
1B3
330
1F
100
AcDbEntity
  8
LC-001-100-D00-0
 62
     7
370
    50
100
AcDbLine
 10
74.432679
 20
151.973989
 30
0.0
 11
74.432679
 21
152.347687
 31
0.0
  0
LINE
  5
1B4
330
1F
100
AcDbEntity
  8
LC-001-100-D00-0
 62
     7
370
    50
100
AcDbLine
 10
75.616874
 20
152.819542
 30
0.0
 11
74.432679
 21
151.973989
 31
0.0
  0
LINE
  5
1B5
330
1F
100
AcDbEntity
  8
LC-001-100-D00-0
 62
     7
370
    50
100
AcDbLine
 10
76.998517
 20
151.84518
 30
0.0
 11
75.616874
 21
152.819542
 31
0.0
  0
ARC
  5
1B6
330
1F
100
AcDbEntity
  8
LC-001-100-D00-0
 62
     7
370
    50
100
AcDbCircle
 10
174.323207
 20
151.107502
 30
0.0
 40
24.79999999999434
100
AcDbArc
 50
300.592814
 51
59.407186
  0
ARC
  5
1B7
330
1F
100
AcDbEntity
  8
LC-001-100-D00-0
 62
     7
370
    50
100
AcDbCircle
 10
113.323207
 20
151.107502
 30
0.0
 40
24.79999999999424
100
AcDbArc
 50
120.592814
 51
239.407186
  0
LINE
  5
1B8
330
1F
100
AcDbEntity
  8
LC-001-100-D00-0
 62
     7
370
    50
100
AcDbLine
 10
-157.926793
 20
164.357502
 30
0.0
 11
-157.926793
 21
137.857502
 31
0.0
  0
ARC
  5
1B9
330
1F
100
AcDbEntity
  8
LC-001-100-D00-0
 62
     7
370
    50
100
AcDbCircle
 10
-162.926793
 20
164.357502
 30
0.0
 40
5.0
100
AcDbArc
 50
0.0
 51
90.0
  0
ARC
  5
1BA
330
1F
100
AcDbEntity
  8
LC-001-100-D00-0
 62
     7
370
    50
100
AcDbCircle
 10
-162.926793
 20
137.857502
 30
0.0
 40
5.0
100
AcDbArc
 50
270.0
 51
0.0
  0
CIRCLE
  5
1BB
330
1F
100
AcDbEntity
  8
LC-001-100-D00-0
 62
     7
370
    50
100
AcDbCircle
 10
-176.176793
 20
151.107502
 30
0.0
 40
3.900000000000205
  0
LINE
  5
1BC
330
1F
100
AcDbEntity
  8
LC-001-100-D00-0
 62
     7
370
    50
100
AcDbLine
 10
-189.426793
 20
169.357502
 30
0.0
 11
-162.926793
 21
169.357502
 31
0.0
  0
LINE
  5
1BD
330
1F
100
AcDbEntity
  8
LC-001-100-D00-0
 62
     7
370
    50
100
AcDbLine
 10
-162.926793
 20
132.857502
 30
0.0
 11
-189.426793
 21
132.857502
 31
0.0
  0
ARC
  5
1BE
330
1F
100
AcDbEntity
  8
LC-001-100-D00-0
 62
     7
370
    50
100
AcDbCircle
 10
-189.426793
 20
137.857502
 30
0.0
 40
5.0
100
AcDbArc
 50
180.0
 51
270.0
  0
ARC
  5
1BF
330
1F
100
AcDbEntity
  8
LC-001-100-D00-0
 62
     7
370
    50
100
AcDbCircle
 10
-189.426793
 20
164.357502
 30
0.0
 40
5.0
100
AcDbArc
 50
90.0
 51
180.0
  0
LINE
  5
1C0
330
1F
100
AcDbEntity
  8
LC-001-100-D00-0
 62
     7
370
    50
100
AcDbLine
 10
-194.426793
 20
137.857502
 30
0.0
 11
-194.426793
 21
164.357502
 31
0.0
  0
LINE
  5
1C1
330
1F
100
AcDbEntity
  8
LC-001-100-D00-0
 62
     7
370
    50
100
AcDbLine
 10
62.073207
 20
164.357502
 30
0.0
 11
62.073207
 21
137.857502
 31
0.0
  0
ARC
  5
1C2
330
1F
100
AcDbEntity
  8
LC-001-100-D00-0
 62
     7
370
    50
100
AcDbCircle
 10
57.073207
 20
137.857502
 30
0.0
 40
5.0
100
AcDbArc
 50
270.0
 51
0.0
  0
ARC
  5
1C3
330
1F
100
AcDbEntity
  8
LC-001-100-D00-0
 62
     7
370
    50
100
AcDbCircle
 10
57.073207
 20
164.357502
 30
0.0
 40
5.0
100
AcDbArc
 50
0.0
 51
90.0
  0
CIRCLE
  5
1C4
330
1F
100
AcDbEntity
  8
LC-001-100-D00-0
 62
     7
370
    50
100
AcDbCircle
 10
43.823207
 20
151.107502
 30
0.0
 40
3.900000000000205
  0
LINE
  5
1C5
330
1F
100
AcDbEntity
  8
LC-001-100-D00-0
 62
     7
370
    50
100
AcDbLine
 10
30.573207
 20
169.357502
 30
0.0
 11
57.073207
 21
169.357502
 31
0.0
  0
LINE
  5
1C6
330
1F
100
AcDbEntity
  8
LC-001-100-D00-0
 62
     7
370
    50
100
AcDbLine
 10
57.073207
 20
132.857502
 30
0.0
 11
30.573207
 21
132.857502
 31
0.0
  0
ARC
  5
1C7
330
1F
100
AcDbEntity
  8
LC-001-100-D00-0
 62
     7
370
    50
100
AcDbCircle
 10
30.573207
 20
164.357502
 30
0.0
 40
5.0
100
AcDbArc
 50
90.0
 51
180.0
  0
ARC
  5
1C8
330
1F
100
AcDbEntity
  8
LC-001-100-D00-0
 62
     7
370
    50
100
AcDbCircle
 10
30.573207
 20
137.857502
 30
0.0
 40
5.0
100
AcDbArc
 50
180.0
 51
270.0
  0
LINE
  5
1C9
330
1F
100
AcDbEntity
  8
LC-001-100-D00-0
 62
     7
370
    50
100
AcDbLine
 10
25.573207
 20
137.857502
 30
0.0
 11
25.573207
 21
164.357502
 31
0.0
  0
ARC
  5
1CA
330
1F
100
AcDbEntity
  8
LC-001-100-D00-0
 62
     7
370
    50
100
AcDbCircle
 10
477.073207
 20
164.357502
 30
0.0
 40
5.0
100
AcDbArc
 50
0.0
 51
90.0
  0
LINE
  5
1CB
330
1F
100
AcDbEntity
  8
LC-001-100-D00-0
 62
     7
370
    50
100
AcDbLine
 10
482.073207
 20
164.357502
 30
0.0
 11
482.073207
 21
137.857502
 31
0.0
  0
ARC
  5
1CC
330
1F
100
AcDbEntity
  8
LC-001-100-D00-0
 62
     7
370
    50
100
AcDbCircle
 10
477.073207
 20
137.857502
 30
0.0
 40
5.0
100
AcDbArc
 50
270.0
 51
0.0
  0
CIRCLE
  5
1CD
330
1F
100
AcDbEntity
  8
LC-001-100-D00-0
 62
     7
370
    50
100
AcDbCircle
 10
463.823207
 20
151.107502
 30
0.0
 40
3.900000000000205
  0
LINE
  5
1CE
330
1F
100
AcDbEntity
  8
LC-001-100-D00-0
 62
     7
370
    50
100
AcDbLine
 10
450.573207
 20
169.357502
 30
0.0
 11
477.073207
 21
169.357502
 31
0.0
  0
LINE
  5
1CF
330
1F
100
AcDbEntity
  8
LC-001-100-D00-0
 62
     7
370
    50
100
AcDbLine
 10
477.073207
 20
132.857502
 30
0.0
 11
450.573207
 21
132.857502
 31
0.0
  0
ARC
  5
1D0
330
1F
100
AcDbEntity
  8
LC-001-100-D00-0
 62
     7
370
    50
100
AcDbCircle
 10
450.573207
 20
137.857502
 30
0.0
 40
5.0
100
AcDbArc
 50
180.0
 51
270.0
  0
ARC
  5
1D1
330
1F
100
AcDbEntity
  8
LC-001-100-D00-0
 62
     7
370
    50
100
AcDbCircle
 10
450.573207
 20
164.357502
 30
0.0
 40
5.0
100
AcDbArc
 50
90.0
 51
180.0
  0
LINE
  5
1D2
330
1F
100
AcDbEntity
  8
LC-001-100-D00-0
 62
     7
370
    50
100
AcDbLine
 10
445.573207
 20
137.857502
 30
0.0
 11
445.573207
 21
164.357502
 31
0.0
  0
LINE
  5
1D3
330
1F
100
AcDbEntity
  8
LC-001-100-D00-0
 62
     7
370
    50
100
AcDbLine
 10
262.073207
 20
164.357502
 30
0.0
 11
262.073207
 21
137.857502
 31
0.0
  0
ARC
  5
1D4
330
1F
100
AcDbEntity
  8
LC-001-100-D00-0
 62
     7
370
    50
100
AcDbCircle
 10
257.073207
 20
164.357502
 30
0.0
 40
5.0
100
AcDbArc
 50
0.0
 51
90.0
  0
ARC
  5
1D5
330
1F
100
AcDbEntity
  8
LC-001-100-D00-0
 62
     7
370
    50
100
AcDbCircle
 10
257.073207
 20
137.857502
 30
0.0
 40
5.0
100
AcDbArc
 50
270.0
 51
0.0
  0
CIRCLE
  5
1D6
330
1F
100
AcDbEntity
  8
LC-001-100-D00-0
 62
     7
370
    50
100
AcDbCircle
 10
243.823207
 20
151.107502
 30
0.0
 40
3.900000000000205
  0
LINE
  5
1D7
330
1F
100
AcDbEntity
  8
LC-001-100-D00-0
 62
     7
370
    50
100
AcDbLine
 10
230.573207
 20
169.357502
 30
0.0
 11
257.073207
 21
169.357502
 31
0.0
  0
LINE
  5
1D8
330
1F
100
AcDbEntity
  8
LC-001-100-D00-0
 62
     7
370
    50
100
AcDbLine
 10
257.073207
 20
132.857502
 30
0.0
 11
230.573207
 21
132.857502
 31
0.0
  0
ARC
  5
1D9
330
1F
100
AcDbEntity
  8
LC-001-100-D00-0
 62
     7
370
    50
100
AcDbCircle
 10
230.573207
 20
164.357502
 30
0.0
 40
5.0
100
AcDbArc
 50
90.0
 51
180.0
  0
ARC
  5
1DA
330
1F
100
AcDbEntity
  8
LC-001-100-D00-0
 62
     7
370
    50
100
AcDbCircle
 10
230.573207
 20
137.857502
 30
0.0
 40
5.0
100
AcDbArc
 50
180.0
 51
270.0
  0
LINE
  5
1DB
330
1F
100
AcDbEntity
  8
LC-001-100-D00-0
 62
     7
370
    50
100
AcDbLine
 10
225.573207
 20
137.857502
 30
0.0
 11
225.573207
 21
164.357502
 31
0.0
  0
ARC
  5
1DC
330
1F
100
AcDbEntity
  8
LC-001-100-D00-0
 62
     7
370
    50
100
AcDbCircle
 10
-52.926793
 20
137.857502
 30
0.0
 40
5.0
100
AcDbArc
 50
270.0
 51
0.0
  0
ARC
  5
1DD
330
1F
100
AcDbEntity
  8
LC-001-100-D00-0
 62
     7
370
    50
100
AcDbCircle
 10
-52.926793
 20
164.357502
 30
0.0
 40
5.0
100
AcDbArc
 50
0.0
 51
90.0
  0
LINE
  5
1DE
330
1F
100
AcDbEntity
  8
LC-001-100-D00-0
 62
     7
370
    50
100
AcDbLine
 10
-47.926793
 20
164.357502
 30
0.0
 11
-47.926793
 21
137.857502
 31
0.0
  0
CIRCLE
  5
1DF
330
1F
100
AcDbEntity
  8
LC-001-100-D00-0
 62
     7
370
    50
100
AcDbCircle
 10
-66.176793
 20
151.107502
 30
0.0
 40
3.899999999999864
  0
LINE
  5
1E0
330
1F
100
AcDbEntity
  8
LC-001-100-D00-0
 62
     7
370
    50
100
AcDbLine
 10
-79.426793
 20
169.357502
 30
0.0
 11
-52.926793
 21
169.357502
 31
0.0
  0
LINE
  5
1E1
330
1F
100
AcDbEntity
  8
LC-001-100-D00-0
 62
     7
370
    50
100
AcDbLine
 10
-52.926793
 20
132.857502
 30
0.0
 11
-79.426793
 21
132.857502
 31
0.0
  0
ARC
  5
1E2
330
1F
100
AcDbEntity
  8
LC-001-100-D00-0
 62
     7
370
    50
100
AcDbCircle
 10
-79.426793
 20
137.857502
 30
0.0
 40
5.0
100
AcDbArc
 50
180.0
 51
270.0
  0
ARC
  5
1E3
330
1F
100
AcDbEntity
  8
LC-001-100-D00-0
 62
     7
370
    50
100
AcDbCircle
 10
-79.426793
 20
164.357502
 30
0.0
 40
5.0
100
AcDbArc
 50
90.0
 51
180.0
  0
LINE
  5
1E4
330
1F
100
AcDbEntity
  8
LC-001-100-D00-0
 62
     7
370
    50
100
AcDbLine
 10
-84.426793
 20
137.857502
 30
0.0
 11
-84.426793
 21
164.357502
 31
0.0
  0
ARC
  5
1E5
330
1F
100
AcDbEntity
  8
LC-001-100-D00-0
 62
     7
370
    50
100
AcDbCircle
 10
367.073207
 20
164.357502
 30
0.0
 40
5.0
100
AcDbArc
 50
0.0
 51
90.0
  0
LINE
  5
1E6
330
1F
100
AcDbEntity
  8
LC-001-100-D00-0
 62
     7
370
    50
100
AcDbLine
 10
372.073207
 20
164.357502
 30
0.0
 11
372.073207
 21
137.857502
 31
0.0
  0
ARC
  5
1E7
330
1F
100
AcDbEntity
  8
LC-001-100-D00-0
 62
     7
370
    50
100
AcDbCircle
 10
367.073207
 20
137.857502
 30
0.0
 40
5.0
100
AcDbArc
 50
270.0
 51
0.0
  0
CIRCLE
  5
1E8
330
1F
100
AcDbEntity
  8
LC-001-100-D00-0
 62
     7
370
    50
100
AcDbCircle
 10
353.823207
 20
151.107502
 30
0.0
 40
3.900000000000205
  0
LINE
  5
1E9
330
1F
100
AcDbEntity
  8
LC-001-100-D00-0
 62
     7
370
    50
100
AcDbLine
 10
340.573207
 20
169.357502
 30
0.0
 11
367.073207
 21
169.357502
 31
0.0
  0
LINE
  5
1EA
330
1F
100
AcDbEntity
  8
LC-001-100-D00-0
 62
     7
370
    50
100
AcDbLine
 10
367.073207
 20
132.857502
 30
0.0
 11
340.573207
 21
132.857502
 31
0.0
  0
ARC
  5
1EB
330
1F
100
AcDbEntity
  8
LC-001-100-D00-0
 62
     7
370
    50
100
AcDbCircle
 10
340.573207
 20
137.857502
 30
0.0
 40
5.0
100
AcDbArc
 50
180.0
 51
270.0
  0
ARC
  5
1EC
330
1F
100
AcDbEntity
  8
LC-001-100-D00-0
 62
     7
370
    50
100
AcDbCircle
 10
340.573207
 20
164.357502
 30
0.0
 40
5.0
100
AcDbArc
 50
90.0
 51
180.0
  0
LINE
  5
1ED
330
1F
100
AcDbEntity
  8
LC-001-100-D00-0
 62
     7
370
    50
100
AcDbLine
 10
335.573207
 20
137.857502
 30
0.0
 11
335.573207
 21
164.357502
 31
0.0
  0
LINE
  5
1EE
330
1F
100
AcDbEntity
  8
LC-001-100-D00-0
 62
     7
370
    50
100
AcDbLine
 10
113.323207
 20
127.107502
 30
0.0
 11
174.323207
 21
127.107502
 31
0.0
  0
ARC
  5
1EF
330
1F
100
AcDbEntity
  8
LC-001-100-D00-0
 62
     7
370
    50
100
AcDbCircle
 10
113.323207
 20
151.107502
 30
0.0
 40
24.0
100
AcDbArc
 50
90.0
 51
270.0
  0
LINE
  5
1F0
330
1F
100
AcDbEntity
  8
LC-001-100-D00-0
 62
     7
370
    50
100
AcDbLine
 10
174.323207
 20
175.107502
 30
0.0
 11
113.323207
 21
175.107502
 31
0.0
  0
ARC
  5
1F1
330
1F
100
AcDbEntity
  8
LC-001-100-D00-0
 62
     7
370
    50
100
AcDbCircle
 10
174.323207
 20
151.107502
 30
0.0
 40
24.00000000000011
100
AcDbArc
 50
270.0
 51
90.0
  0
ARC
  5
1F2
330
1F
100
AcDbEntity
  8
LC-001-100-D00-0
 62
     7
370
    50
100
AcDbCircle
 10
155.323207
 20
151.107502
 30
0.0
 40
16.00000000000023
100
AcDbArc
 50
270.0
 51
90.0
  0
LINE
  5
1F3
330
1F
100
AcDbEntity
  8
LC-001-100-D00-0
 62
     7
370
    50
100
AcDbLine
 10
132.323207
 20
135.107502
 30
0.0
 11
155.323207
 21
135.107502
 31
0.0
  0
LINE
  5
1F4
330
1F
100
AcDbEntity
  8
LC-001-100-D00-0
 62
     7
370
    50
100
AcDbLine
 10
155.323207
 20
167.107502
 30
0.0
 11
132.323207
 21
167.107502
 31
0.0
  0
ARC
  5
1F5
330
1F
100
AcDbEntity
  8
LC-001-100-D00-0
 62
     7
370
    50
100
AcDbCircle
 10
132.323207
 20
151.107502
 30
0.0
 40
16.00000000000023
100
AcDbArc
 50
90.0
 51
270.0
  0
DIMENSION
  5
1F6
330
1F
100
AcDbEntity
  8
LC-001-100-D00-0
 62
     7
370
    25
100
AcDbDimension
  2
*D12
 10
629.700873
 20
195.607502
 30
0.0
 11
574.700873
 21
171.682502
 31
0.0
 70
   160
  1
1.5
 71
     5
 42
1.5
 53
90.0
  3
LC-DIM-L-0100-02-02
100
AcDbAlignedDimension
 13
538.823207
 23
197.107502
 33
0.0
 14
538.823207
 24
195.607502
 34
0.0
 50
90.0
100
AcDbRotatedDimension
  0
DIMENSION
  5
204
330
1F
100
AcDbEntity
  8
LC-001-100-D00-0
 62
     7
370
    25
100
AcDbDimension
  2
*D13
 10
709.483561
 20
177.107502
 30
0.0
 11
654.483561
 21
143.467502
 31
0.0
 70
   160
  1
18,5
 71
     5
 42
18.5
 53
90.0
  3
LC-DIM-L-0100-02-02
100
AcDbAlignedDimension
 13
538.823207
 23
195.607502
 33
0.0
 14
491.323207
 24
177.107502
 34
0.0
 50
90.0
100
AcDbRotatedDimension
  0
DIMENSION
  5
212
330
1F
100
AcDbEntity
  8
LC-001-100-D00-0
 62
     7
370
    25
100
AcDbDimension
  2
*D14
 10
787.050064
 20
73.607502
 30
0.0
 11
732.050064
 21
88.522502
 31
0.0
 70
   160
  1
123.5
 71
     5
 42
123.5
 53
90.0
  3
LC-DIM-L-0100-02-02
100
AcDbAlignedDimension
 13
538.823207
 23
197.107502
 33
0.0
 14
538.823207
 24
73.607502
 34
0.0
 50
90.0
100
AcDbRotatedDimension
  0
LINE
  5
21F
330
1F
100
AcDbEntity
  8
LC-001-100-D00-0
  6
DASHDOT
 62
     7
370
    25
100
AcDbLine
 10
501.323207
 20
151.107502
 30
0.0
 11
-213.676793
 21
151.107502
 31
0.0
  0
LINE
  5
220
330
1F
100
AcDbEntity
  8
LC-001-100-D00-0
  6
DASHDOT
 62
     7
370
    25
100
AcDbLine
 10
143.823207
 20
207.107502
 30
0.0
 11
143.823207
 21
68.607502
 31
0.0
  0
LINE
  5
221
330
1F
100
AcDbEntity
  8
LC-001-100-D00-0
 62
     7
370
    50
100
AcDbLine
 10
257.071009
 20
405.502881
 30
0.0
 11
257.071009
 21
407.285802
 31
0.0
  0
LINE
  5
222
330
1F
100
AcDbEntity
  8
LC-001-100-D00-0
 62
     7
370
    50
100
AcDbLine
 10
257.071009
 20
457.71996
 30
0.0
 11
257.071009
 21
459.502881
 31
0.0
  0
LINE
  5
223
330
1F
100
AcDbEntity
  8
LC-001-100-D00-0
 62
     7
370
    50
100
AcDbLine
 10
253.071009
 20
459.502881
 30
0.0
 11
253.071009
 21
457.71996
 31
0.0
  0
LINE
  5
224
330
1F
100
AcDbEntity
  8
LC-001-100-D00-0
 62
     7
370
    50
100
AcDbLine
 10
253.071009
 20
407.285802
 30
0.0
 11
253.071009
 21
405.502881
 31
0.0
  0
LINE
  5
225
330
1F
100
AcDbEntity
  8
LC-001-100-D00-0
 62
     7
370
    50
100
AcDbLine
 10
183.537628
 20
456.002881
 30
0.0
 11
183.537628
 21
454.502881
 31
0.0
  0
LINE
  5
226
330
1F
100
AcDbEntity
  8
LC-001-100-D00-0
 62
     7
370
    50
100
AcDbLine
 10
104.108798
 20
454.502881
 30
0.0
 11
104.108798
 21
456.002881
 31
0.0
  0
LINE
  5
227
330
1F
100
AcDbEntity
  8
LC-001-100-D00-0
 62
     7
370
    50
100
AcDbLine
 10
240.423216
 20
478.002881
 30
0.0
 11
239.423214
 21
479.002881
 31
0.0
  0
LINE
  5
228
330
1F
100
AcDbEntity
  8
LC-001-100-D00-0
 62
     7
370
    50
100
AcDbLine
 10
240.423216
 20
478.002881
 30
0.0
 11
240.423213
 21
472.002881
 31
0.0
  0
LINE
  5
229
330
1F
100
AcDbEntity
  8
LC-001-100-D00-0
 62
     7
370
    50
100
AcDbLine
 10
239.423213
 20
471.002881
 30
0.0
 11
240.423213
 21
472.002881
 31
0.0
  0
LINE
  5
22A
330
1F
100
AcDbEntity
  8
LC-001-100-D00-0
 62
     7
370
    50
100
AcDbLine
 10
237.472362
 20
473.00288
 30
0.0
 11
237.472362
 21
471.002882
 31
0.0
  0
LINE
  5
22B
330
1F
100
AcDbEntity
  8
LC-001-100-D00-0
 62
     7
370
    50
100
AcDbLine
 10
238.178504
 20
473.192092
 30
0.0
 11
237.472362
 21
473.00288
 31
0.0
  0
ARC
  5
22C
330
1F
100
AcDbEntity
  8
LC-001-100-D00-0
 62
     7
370
    50
100
AcDbCircle
 10
238.023213
 20
473.771647
 30
0.0
 40
0.600000000000118
100
AcDbArc
 50
285.0
 51
0.0
  0
LINE
  5
22D
330
1F
100
AcDbEntity
  8
LC-001-100-D00-0
 62
     7
370
    50
100
AcDbLine
 10
238.623213
 20
476.234115
 30
0.0
 11
238.623213
 21
473.771647
 31
0.0
  0
ARC
  5
22E
330
1F
100
AcDbEntity
  8
LC-001-100-D00-0
 62
     7
370
    50
100
AcDbCircle
 10
238.023213
 20
476.234115
 30
0.0
 40
0.6000000000001364
100
AcDbArc
 50
0.0
 51
75.0
  0
LINE
  5
22F
330
1F
100
AcDbEntity
  8
LC-001-100-D00-0
 62
     7
370
    50
100
AcDbLine
 10
237.472362
 20
477.002881
 30
0.0
 11
238.178504
 21
476.81367
 31
0.0
  0
LINE
  5
230
330
1F
100
AcDbEntity
  8
LC-001-100-D00-0
 62
     7
370
    50
100
AcDbLine
 10
237.472362
 20
479.002881
 30
0.0
 11
237.472362
 21
477.002881
 31
0.0
  0
LINE
  5
231
330
1F
100
AcDbEntity
  8
LC-001-100-D00-0
 62
     7
370
    50
100
AcDbLine
 10
237.472362
 20
471.002882
 30
0.0
 11
239.423213
 21
471.002881
 31
0.0
  0
LINE
  5
232
330
1F
100
AcDbEntity
  8
LC-001-100-D00-0
 62
     7
370
    50
100
AcDbLine
 10
237.472362
 20
479.002881
 30
0.0
 11
239.423214
 21
479.002881
 31
0.0
  0
LINE
  5
233
330
1F
100
AcDbEntity
  8
LC-001-100-D00-0
 62
     7
370
    50
100
AcDbLine
 10
249.023213
 20
473.771647
 30
0.0
 11
249.023213
 21
476.234115
 31
0.0
  0
ARC
  5
234
330
1F
100
AcDbEntity
  8
LC-001-100-D00-0
 62
     7
370
    50
100
AcDbCircle
 10
249.623213
 20
473.771647
 30
0.0
 40
0.6000000000001364
100
AcDbArc
 50
180.0
 51
255.0
  0
LINE
  5
235
330
1F
100
AcDbEntity
  8
LC-001-100-D00-0
 62
     7
370
    50
100
AcDbLine
 10
250.174067
 20
473.00288
 30
0.0
 11
249.467921
 21
473.192092
 31
0.0
  0
LINE
  5
236
330
1F
100
AcDbEntity
  8
LC-001-100-D00-0
 62
     7
370
    50
100
AcDbLine
 10
250.174067
 20
473.00288
 30
0.0
 11
250.174067
 21
471.002882
 31
0.0
  0
LINE
  5
237
330
1F
100
AcDbEntity
  8
LC-001-100-D00-0
 62
     7
370
    50
100
AcDbLine
 10
247.223213
 20
472.002881
 30
0.0
 11
248.223213
 21
471.002881
 31
0.0
  0
LINE
  5
238
330
1F
100
AcDbEntity
  8
LC-001-100-D00-0
 62
     7
370
    50
100
AcDbLine
 10
247.223213
 20
472.002881
 30
0.0
 11
247.223212
 21
478.002881
 31
0.0
  0
LINE
  5
239
330
1F
100
AcDbEntity
  8
LC-001-100-D00-0
 62
     7
370
    50
100
AcDbLine
 10
248.223214
 20
479.002881
 30
0.0
 11
247.223212
 21
478.002881
 31
0.0
  0
LINE
  5
23A
330
1F
100
AcDbEntity
  8
LC-001-100-D00-0
 62
     7
370
    50
100
AcDbLine
 10
250.174067
 20
479.002881
 30
0.0
 11
250.174067
 21
477.002881
 31
0.0
  0
LINE
  5
23B
330
1F
100
AcDbEntity
  8
LC-001-100-D00-0
 62
     7
370
    50
100
AcDbLine
 10
249.467921
 20
476.81367
 30
0.0
 11
250.174067
 21
477.002881
 31
0.0
  0
ARC
  5
23C
330
1F
100
AcDbEntity
  8
LC-001-100-D00-0
 62
     7
370
    50
100
AcDbCircle
 10
249.623213
 20
476.234115
 30
0.0
 40
0.6000000000001474
100
AcDbArc
 50
105.0
 51
180.0
  0
LINE
  5
23D
330
1F
100
AcDbEntity
  8
LC-001-100-D00-0
 62
     7
370
    50
100
AcDbLine
 10
248.223213
 20
471.002881
 30
0.0
 11
250.174067
 21
471.002882
 31
0.0
  0
LINE
  5
23E
330
1F
100
AcDbEntity
  8
LC-001-100-D00-0
 62
     7
370
    50
100
AcDbLine
 10
248.223214
 20
479.002881
 30
0.0
 11
250.174067
 21
479.002881
 31
0.0
  0
LINE
  5
23F
330
1F
100
AcDbEntity
  8
LC-001-100-D00-0
 62
     7
370
    50
100
AcDbLine
 10
240.423213
 20
472.002881
 30
0.0
 11
240.581052
 21
472.002881
 31
0.0
  0
LINE
  5
240
330
1F
100
AcDbEntity
  8
LC-001-100-D00-0
 62
     7
370
    50
100
AcDbLine
 10
247.065373
 20
472.002881
 30
0.0
 11
247.223213
 21
472.002881
 31
0.0
  0
LINE
  5
241
330
1F
100
AcDbEntity
  8
LC-001-100-D00-0
 62
     7
370
    50
100
AcDbLine
 10
248.223213
 20
471.002881
 30
0.0
 11
247.687431
 21
471.002881
 31
0.0
  0
LINE
  5
242
330
1F
100
AcDbEntity
  8
LC-001-100-D00-0
 62
     7
370
    50
100
AcDbLine
 10
239.958995
 20
471.002881
 30
0.0
 11
239.423213
 21
471.002881
 31
0.0
  0
LINE
  5
243
330
1F
100
AcDbEntity
  8
LC-001-100-D00-0
 62
     7
370
    50
100
AcDbLine
 10
250.174067
 20
479.002881
 30
0.0
 11
247.723213
 21
479.002881
 31
0.0
  0
LINE
  5
244
330
1F
100
AcDbEntity
  8
LC-001-100-D00-0
 62
     7
370
    50
100
AcDbLine
 10
247.723213
 20
479.002881
 30
0.0
 11
247.723213
 21
490.002881
 31
0.0
  0
LINE
  5
245
330
1F
100
AcDbEntity
  8
LC-001-100-D00-0
 62
     7
370
    50
100
AcDbLine
 10
247.723213
 20
490.002881
 30
0.0
 11
261.073213
 21
490.002881
 31
0.0
  0
ARC
  5
246
330
1F
100
AcDbEntity
  8
LC-001-100-D00-0
 62
     7
370
    50
100
AcDbCircle
 10
261.073213
 20
489.002881
 30
0.0
 40
1.000000000000227
100
AcDbArc
 50
0.0
 51
90.0
  0
LINE
  5
247
330
1F
100
AcDbEntity
  8
LC-001-100-D00-0
 62
     7
370
    50
100
AcDbLine
 10
262.073213
 20
489.002881
 30
0.0
 11
262.07321
 21
483.002881
 31
0.0
  0
LINE
  5
248
330
1F
100
AcDbEntity
  8
LC-001-100-D00-0
 62
     7
370
    50
100
AcDbLine
 10
259.073213
 20
483.002881
 30
0.0
 11
262.07321
 21
483.002881
 31
0.0
  0
LINE
  5
249
330
1F
100
AcDbEntity
  8
LC-001-100-D00-0
 62
     7
370
    50
100
AcDbLine
 10
259.073213
 20
483.002881
 30
0.0
 11
259.073212
 21
487.002881
 31
0.0
  0
LINE
  5
24A
330
1F
100
AcDbEntity
  8
LC-001-100-D00-0
 62
     7
370
    50
100
AcDbLine
 10
254.573213
 20
487.002881
 30
0.0
 11
259.073212
 21
487.002881
 31
0.0
  0
ARC
  5
24B
330
1F
100
AcDbEntity
  8
LC-001-100-D00-0
 62
     7
370
    50
100
AcDbCircle
 10
254.573213
 20
486.002881
 30
0.0
 40
1.000000000000227
100
AcDbArc
 50
90.0
 51
180.0
  0
LINE
  5
24C
330
1F
100
AcDbEntity
  8
LC-001-100-D00-0
 62
     7
370
    50
100
AcDbLine
 10
253.573213
 20
472.002881
 30
0.0
 11
253.573213
 21
486.002881
 31
0.0
  0
ARC
  5
24D
330
1F
100
AcDbEntity
  8
LC-001-100-D00-0
 62
     7
370
    50
100
AcDbCircle
 10
252.573213
 20
472.002881
 30
0.0
 40
1.000000000000227
100
AcDbArc
 50
270.0
 51
0.0
  0
LINE
  5
24E
330
1F
100
AcDbEntity
  8
LC-001-100-D00-0
 62
     7
370
    50
100
AcDbLine
 10
252.573213
 20
471.002881
 30
0.0
 11
250.174067
 21
471.002882
 31
0.0
  0
LINE
  5
24F
330
1F
100
AcDbEntity
  8
LC-001-100-D00-0
 62
     7
370
    50
100
AcDbLine
 10
250.174067
 20
473.00288
 30
0.0
 11
250.174067
 21
471.002882
 31
0.0
  0
LINE
  5
250
330
1F
100
AcDbEntity
  8
LC-001-100-D00-0
 62
     7
370
    50
100
AcDbLine
 10
249.523213
 20
473.002881
 30
0.0
 11
250.174067
 21
473.00288
 31
0.0
  0
ARC
  5
251
330
1F
100
AcDbEntity
  8
LC-001-100-D00-0
 62
     7
370
    50
100
AcDbCircle
 10
249.523213
 20
473.502881
 30
0.0
 40
0.5
100
AcDbArc
 50
180.0
 51
270.0
  0
LINE
  5
252
330
1F
100
AcDbEntity
  8
LC-001-100-D00-0
 62
     7
370
    50
100
AcDbLine
 10
249.023213
 20
476.502881
 30
0.0
 11
249.023213
 21
473.502881
 31
0.0
  0
ARC
  5
253
330
1F
100
AcDbEntity
  8
LC-001-100-D00-0
 62
     7
370
    50
100
AcDbCircle
 10
249.523213
 20
476.502881
 30
0.0
 40
0.5
100
AcDbArc
 50
90.0
 51
180.0
  0
LINE
  5
254
330
1F
100
AcDbEntity
  8
LC-001-100-D00-0
 62
     7
370
    50
100
AcDbLine
 10
250.174067
 20
477.002881
 30
0.0
 11
249.523213
 21
477.002881
 31
0.0
  0
LINE
  5
255
330
1F
100
AcDbEntity
  8
LC-001-100-D00-0
 62
     7
370
    50
100
AcDbLine
 10
250.174067
 20
479.002881
 30
0.0
 11
250.174067
 21
477.002881
 31
0.0
  0
ARC
  5
256
330
1F
100
AcDbEntity
  8
LC-001-100-D00-0
 62
     7
370
    50
100
AcDbCircle
 10
233.073213
 20
486.002881
 30
0.0
 40
1.000000000000114
100
AcDbArc
 50
0.0
 51
90.0
  0
LINE
  5
257
330
1F
100
AcDbEntity
  8
LC-001-100-D00-0
 62
     7
370
    50
100
AcDbLine
 10
234.073213
 20
486.002881
 30
0.0
 11
234.073213
 21
472.002881
 31
0.0
  0
ARC
  5
258
330
1F
100
AcDbEntity
  8
LC-001-100-D00-0
 62
     7
370
    50
100
AcDbCircle
 10
235.073213
 20
472.002881
 30
0.0
 40
1.000000000000114
100
AcDbArc
 50
180.0
 51
270.0
  0
LINE
  5
259
330
1F
100
AcDbEntity
  8
LC-001-100-D00-0
 62
     7
370
    50
100
AcDbLine
 10
238.623213
 20
473.502881
 30
0.0
 11
238.623213
 21
476.502881
 31
0.0
  0
LINE
  5
25A
330
1F
100
AcDbEntity
  8
LC-001-100-D00-0
 62
     7
370
    50
100
AcDbLine
 10
239.923213
 20
490.002881
 30
0.0
 11
239.923215
 21
479.002881
 31
0.0
  0
LINE
  5
25B
330
1F
100
AcDbEntity
  8
LC-001-100-D00-0
 62
     7
370
    50
100
AcDbLine
 10
239.923213
 20
490.002881
 30
0.0
 11
247.723213
 21
490.002881
 31
0.0
  0
LINE
  5
25C
330
1F
100
AcDbEntity
  8
LC-001-100-D00-0
 62
     7
370
    50
100
AcDbLine
 10
237.472362
 20
479.002881
 30
0.0
 11
237.472362
 21
477.002881
 31
0.0
  0
LINE
  5
25D
330
1F
100
AcDbEntity
  8
LC-001-100-D00-0
 62
     7
370
    50
100
AcDbLine
 10
237.472362
 20
473.00288
 30
0.0
 11
237.472362
 21
471.002882
 31
0.0
  0
ARC
  5
25E
330
1F
100
AcDbEntity
  8
LC-001-100-D00-0
 62
     7
370
    50
100
AcDbCircle
 10
238.123213
 20
473.502881
 30
0.0
 40
0.5
100
AcDbArc
 50
270.0
 51
0.0
  0
LINE
  5
25F
330
1F
100
AcDbEntity
  8
LC-001-100-D00-0
 62
     7
370
    50
100
AcDbLine
 10
237.472362
 20
473.00288
 30
0.0
 11
238.123213
 21
473.002881
 31
0.0
  0
LINE
  5
260
330
1F
100
AcDbEntity
  8
LC-001-100-D00-0
 62
     7
370
    50
100
AcDbLine
 10
228.573209
 20
487.002881
 30
0.0
 11
228.573213
 21
483.002881
 31
0.0
  0
LINE
  5
261
330
1F
100
AcDbEntity
  8
LC-001-100-D00-0
 62
     7
370
    50
100
AcDbLine
 10
225.573211
 20
483.002881
 30
0.0
 11
225.573213
 21
489.002881
 31
0.0
  0
ARC
  5
262
330
1F
100
AcDbEntity
  8
LC-001-100-D00-0
 62
     7
370
    50
100
AcDbCircle
 10
226.573213
 20
489.002881
 30
0.0
 40
1.000000000000227
100
AcDbArc
 50
90.0
 51
180.0
  0
LINE
  5
263
330
1F
100
AcDbEntity
  8
LC-001-100-D00-0
 62
     7
370
    50
100
AcDbLine
 10
238.123213
 20
477.002881
 30
0.0
 11
237.472362
 21
477.002881
 31
0.0
  0
ARC
  5
264
330
1F
100
AcDbEntity
  8
LC-001-100-D00-0
 62
     7
370
    50
100
AcDbCircle
 10
238.123213
 20
476.502881
 30
0.0
 40
0.5000000000001137
100
AcDbArc
 50
0.0
 51
90.0
  0
LINE
  5
265
330
1F
100
AcDbEntity
  8
LC-001-100-D00-0
 62
     7
370
    50
100
AcDbLine
 10
239.923215
 20
479.002881
 30
0.0
 11
237.472362
 21
479.002881
 31
0.0
  0
LINE
  5
266
330
1F
100
AcDbEntity
  8
LC-001-100-D00-0
 62
     7
370
    50
100
AcDbLine
 10
237.472362
 20
471.002882
 30
0.0
 11
235.073213
 21
471.002881
 31
0.0
  0
LINE
  5
267
330
1F
100
AcDbEntity
  8
LC-001-100-D00-0
 62
     7
370
    50
100
AcDbLine
 10
228.573209
 20
487.002881
 30
0.0
 11
233.073213
 21
487.002881
 31
0.0
  0
LINE
  5
268
330
1F
100
AcDbEntity
  8
LC-001-100-D00-0
 62
     7
370
    50
100
AcDbLine
 10
225.573211
 20
483.002881
 30
0.0
 11
228.573213
 21
483.002881
 31
0.0
  0
LINE
  5
269
330
1F
100
AcDbEntity
  8
LC-001-100-D00-0
 62
     7
370
    50
100
AcDbLine
 10
226.573213
 20
490.002881
 30
0.0
 11
239.923213
 21
490.002881
 31
0.0
  0
LINE
  5
26A
330
1F
100
AcDbEntity
  8
LC-001-100-D00-0
 62
     7
370
    50
100
AcDbLine
 10
257.073213
 20
483.002881
 30
0.0
 11
259.073213
 21
483.002881
 31
0.0
  0
LINE
  5
26B
330
1F
100
AcDbEntity
  8
LC-001-100-D00-0
 62
     7
370
    50
100
AcDbLine
 10
228.573213
 20
483.002881
 30
0.0
 11
230.573213
 21
483.002881
 31
0.0
  0
LINE
  5
26C
330
1F
100
AcDbEntity
  8
LC-001-100-D00-0
 62
     7
370
    50
100
AcDbLine
 10
230.573213
 20
483.002881
 30
0.0
 11
234.073213
 21
483.002881
 31
0.0
  0
LINE
  5
26D
330
1F
100
AcDbEntity
  8
LC-001-100-D00-0
 62
     7
370
    50
100
AcDbLine
 10
253.573215
 20
483.002881
 30
0.0
 11
257.073213
 21
483.002881
 31
0.0
  0
LINE
  5
26E
330
1F
100
AcDbEntity
  8
LC-001-100-D00-0
 62
     7
370
    50
100
AcDbLine
 10
40.423213
 20
478.002881
 30
0.0
 11
39.423211
 21
479.002881
 31
0.0
  0
LINE
  5
26F
330
1F
100
AcDbEntity
  8
LC-001-100-D00-0
 62
     7
370
    50
100
AcDbLine
 10
40.423213
 20
478.002881
 30
0.0
 11
40.423213
 21
472.002881
 31
0.0
  0
LINE
  5
270
330
1F
100
AcDbEntity
  8
LC-001-100-D00-0
 62
     7
370
    50
100
AcDbLine
 10
39.423213
 20
471.002881
 30
0.0
 11
40.423213
 21
472.002881
 31
0.0
  0
LINE
  5
271
330
1F
100
AcDbEntity
  8
LC-001-100-D00-0
 62
     7
370
    50
100
AcDbLine
 10
37.472359
 20
473.00288
 30
0.0
 11
37.472359
 21
471.002882
 31
0.0
  0
LINE
  5
272
330
1F
100
AcDbEntity
  8
LC-001-100-D00-0
 62
     7
370
    50
100
AcDbLine
 10
38.178504
 20
473.192092
 30
0.0
 11
37.472359
 21
473.00288
 31
0.0
  0
ARC
  5
273
330
1F
100
AcDbEntity
  8
LC-001-100-D00-0
 62
     7
370
    50
100
AcDbCircle
 10
38.023213
 20
473.771647
 30
0.0
 40
0.6000000000000886
100
AcDbArc
 50
285.0
 51
0.0
  0
LINE
  5
274
330
1F
100
AcDbEntity
  8
LC-001-100-D00-0
 62
     7
370
    50
100
AcDbLine
 10
38.623213
 20
476.234115
 30
0.0
 11
38.623213
 21
473.771647
 31
0.0
  0
ARC
  5
275
330
1F
100
AcDbEntity
  8
LC-001-100-D00-0
 62
     7
370
    50
100
AcDbCircle
 10
38.023213
 20
476.234115
 30
0.0
 40
0.6000000000001364
100
AcDbArc
 50
0.0
 51
75.0
  0
LINE
  5
276
330
1F
100
AcDbEntity
  8
LC-001-100-D00-0
 62
     7
370
    50
100
AcDbLine
 10
37.472359
 20
477.002881
 30
0.0
 11
38.178504
 21
476.81367
 31
0.0
  0
LINE
  5
277
330
1F
100
AcDbEntity
  8
LC-001-100-D00-0
 62
     7
370
    50
100
AcDbLine
 10
37.472359
 20
479.002881
 30
0.0
 11
37.472359
 21
477.002881
 31
0.0
  0
LINE
  5
278
330
1F
100
AcDbEntity
  8
LC-001-100-D00-0
 62
     7
370
    50
100
AcDbLine
 10
37.472359
 20
471.002882
 30
0.0
 11
39.423213
 21
471.002881
 31
0.0
  0
LINE
  5
279
330
1F
100
AcDbEntity
  8
LC-001-100-D00-0
 62
     7
370
    50
100
AcDbLine
 10
37.472359
 20
479.002881
 30
0.0
 11
39.423211
 21
479.002881
 31
0.0
  0
LINE
  5
27A
330
1F
100
AcDbEntity
  8
LC-001-100-D00-0
 62
     7
370
    50
100
AcDbLine
 10
49.023213
 20
473.771647
 30
0.0
 11
49.023213
 21
476.234115
 31
0.0
  0
ARC
  5
27B
330
1F
100
AcDbEntity
  8
LC-001-100-D00-0
 62
     7
370
    50
100
AcDbCircle
 10
49.623213
 20
473.771647
 30
0.0
 40
0.6000000000000227
100
AcDbArc
 50
180.0
 51
255.0
  0
LINE
  5
27C
330
1F
100
AcDbEntity
  8
LC-001-100-D00-0
 62
     7
370
    50
100
AcDbLine
 10
50.174064
 20
473.00288
 30
0.0
 11
49.467921
 21
473.192092
 31
0.0
  0
LINE
  5
27D
330
1F
100
AcDbEntity
  8
LC-001-100-D00-0
 62
     7
370
    50
100
AcDbLine
 10
50.174064
 20
473.00288
 30
0.0
 11
50.174064
 21
471.002882
 31
0.0
  0
LINE
  5
27E
330
1F
100
AcDbEntity
  8
LC-001-100-D00-0
 62
     7
370
    50
100
AcDbLine
 10
47.223213
 20
472.002881
 30
0.0
 11
48.223213
 21
471.002881
 31
0.0
  0
LINE
  5
27F
330
1F
100
AcDbEntity
  8
LC-001-100-D00-0
 62
     7
370
    50
100
AcDbLine
 10
47.223213
 20
472.002881
 30
0.0
 11
47.223209
 21
478.002881
 31
0.0
  0
LINE
  5
280
330
1F
100
AcDbEntity
  8
LC-001-100-D00-0
 62
     7
370
    50
100
AcDbLine
 10
48.223211
 20
479.002881
 30
0.0
 11
47.223209
 21
478.002881
 31
0.0
  0
LINE
  5
281
330
1F
100
AcDbEntity
  8
LC-001-100-D00-0
 62
     7
370
    50
100
AcDbLine
 10
50.174064
 20
479.002881
 30
0.0
 11
50.174064
 21
477.002881
 31
0.0
  0
LINE
  5
282
330
1F
100
AcDbEntity
  8
LC-001-100-D00-0
 62
     7
370
    50
100
AcDbLine
 10
49.467921
 20
476.81367
 30
0.0
 11
50.174064
 21
477.002881
 31
0.0
  0
ARC
  5
283
330
1F
100
AcDbEntity
  8
LC-001-100-D00-0
 62
     7
370
    50
100
AcDbCircle
 10
49.623213
 20
476.234115
 30
0.0
 40
0.6000000000000886
100
AcDbArc
 50
105.0
 51
180.0
  0
LINE
  5
284
330
1F
100
AcDbEntity
  8
LC-001-100-D00-0
 62
     7
370
    50
100
AcDbLine
 10
48.223213
 20
471.002881
 30
0.0
 11
50.174064
 21
471.002882
 31
0.0
  0
LINE
  5
285
330
1F
100
AcDbEntity
  8
LC-001-100-D00-0
 62
     7
370
    50
100
AcDbLine
 10
48.223211
 20
479.002881
 30
0.0
 11
50.174064
 21
479.002881
 31
0.0
  0
LINE
  5
286
330
1F
100
AcDbEntity
  8
LC-001-100-D00-0
 62
     7
370
    50
100
AcDbLine
 10
40.423213
 20
472.002881
 30
0.0
 11
40.581052
 21
472.002881
 31
0.0
  0
LINE
  5
287
330
1F
100
AcDbEntity
  8
LC-001-100-D00-0
 62
     7
370
    50
100
AcDbLine
 10
47.065373
 20
472.002881
 30
0.0
 11
47.223213
 21
472.002881
 31
0.0
  0
LINE
  5
288
330
1F
100
AcDbEntity
  8
LC-001-100-D00-0
 62
     7
370
    50
100
AcDbLine
 10
48.223213
 20
471.002881
 30
0.0
 11
47.687431
 21
471.002881
 31
0.0
  0
LINE
  5
289
330
1F
100
AcDbEntity
  8
LC-001-100-D00-0
 62
     7
370
    50
100
AcDbLine
 10
39.958995
 20
471.002881
 30
0.0
 11
39.423213
 21
471.002881
 31
0.0
  0
LINE
  5
28A
330
1F
100
AcDbEntity
  8
LC-001-100-D00-0
 62
     7
370
    50
100
AcDbLine
 10
50.174064
 20
479.002881
 30
0.0
 11
47.72321
 21
479.002881
 31
0.0
  0
LINE
  5
28B
330
1F
100
AcDbEntity
  8
LC-001-100-D00-0
 62
     7
370
    50
100
AcDbLine
 10
47.72321
 20
479.002881
 30
0.0
 11
47.723213
 21
490.002881
 31
0.0
  0
LINE
  5
28C
330
1F
100
AcDbEntity
  8
LC-001-100-D00-0
 62
     7
370
    50
100
AcDbLine
 10
47.723213
 20
490.002881
 30
0.0
 11
61.073213
 21
490.002881
 31
0.0
  0
ARC
  5
28D
330
1F
100
AcDbEntity
  8
LC-001-100-D00-0
 62
     7
370
    50
100
AcDbCircle
 10
61.073213
 20
489.002881
 30
0.0
 40
1.000000000000227
100
AcDbArc
 50
0.0
 51
90.0
  0
LINE
  5
28E
330
1F
100
AcDbEntity
  8
LC-001-100-D00-0
 62
     7
370
    50
100
AcDbLine
 10
62.073213
 20
489.002881
 30
0.0
 11
62.073215
 21
483.002881
 31
0.0
  0
LINE
  5
28F
330
1F
100
AcDbEntity
  8
LC-001-100-D00-0
 62
     7
370
    50
100
AcDbLine
 10
59.073213
 20
483.002881
 30
0.0
 11
62.073215
 21
483.002881
 31
0.0
  0
LINE
  5
290
330
1F
100
AcDbEntity
  8
LC-001-100-D00-0
 62
     7
370
    50
100
AcDbLine
 10
59.073213
 20
483.002881
 30
0.0
 11
59.073216
 21
487.002881
 31
0.0
  0
LINE
  5
291
330
1F
100
AcDbEntity
  8
LC-001-100-D00-0
 62
     7
370
    50
100
AcDbLine
 10
54.573213
 20
487.002881
 30
0.0
 11
59.073216
 21
487.002881
 31
0.0
  0
ARC
  5
292
330
1F
100
AcDbEntity
  8
LC-001-100-D00-0
 62
     7
370
    50
100
AcDbCircle
 10
54.573213
 20
486.002881
 30
0.0
 40
1.000000000000227
100
AcDbArc
 50
90.0
 51
180.0
  0
LINE
  5
293
330
1F
100
AcDbEntity
  8
LC-001-100-D00-0
 62
     7
370
    50
100
AcDbLine
 10
53.573213
 20
472.002881
 30
0.0
 11
53.573213
 21
486.002881
 31
0.0
  0
ARC
  5
294
330
1F
100
AcDbEntity
  8
LC-001-100-D00-0
 62
     7
370
    50
100
AcDbCircle
 10
52.573213
 20
472.002881
 30
0.0
 40
1.000000000000227
100
AcDbArc
 50
270.0
 51
0.0
  0
LINE
  5
295
330
1F
100
AcDbEntity
  8
LC-001-100-D00-0
 62
     7
370
    50
100
AcDbLine
 10
52.573213
 20
471.002881
 30
0.0
 11
50.174064
 21
471.002882
 31
0.0
  0
LINE
  5
296
330
1F
100
AcDbEntity
  8
LC-001-100-D00-0
 62
     7
370
    50
100
AcDbLine
 10
50.174064
 20
473.00288
 30
0.0
 11
50.174064
 21
471.002882
 31
0.0
  0
LINE
  5
297
330
1F
100
AcDbEntity
  8
LC-001-100-D00-0
 62
     7
370
    50
100
AcDbLine
 10
49.523213
 20
473.002881
 30
0.0
 11
50.174064
 21
473.00288
 31
0.0
  0
ARC
  5
298
330
1F
100
AcDbEntity
  8
LC-001-100-D00-0
 62
     7
370
    50
100
AcDbCircle
 10
49.523213
 20
473.502881
 30
0.0
 40
0.5
100
AcDbArc
 50
180.0
 51
270.0
  0
LINE
  5
299
330
1F
100
AcDbEntity
  8
LC-001-100-D00-0
 62
     7
370
    50
100
AcDbLine
 10
49.023213
 20
476.502881
 30
0.0
 11
49.023213
 21
473.502881
 31
0.0
  0
ARC
  5
29A
330
1F
100
AcDbEntity
  8
LC-001-100-D00-0
 62
     7
370
    50
100
AcDbCircle
 10
49.523213
 20
476.502881
 30
0.0
 40
0.5
100
AcDbArc
 50
90.0
 51
180.0
  0
LINE
  5
29B
330
1F
100
AcDbEntity
  8
LC-001-100-D00-0
 62
     7
370
    50
100
AcDbLine
 10
50.174064
 20
477.002881
 30
0.0
 11
49.523213
 21
477.002881
 31
0.0
  0
LINE
  5
29C
330
1F
100
AcDbEntity
  8
LC-001-100-D00-0
 62
     7
370
    50
100
AcDbLine
 10
50.174064
 20
479.002881
 30
0.0
 11
50.174064
 21
477.002881
 31
0.0
  0
ARC
  5
29D
330
1F
100
AcDbEntity
  8
LC-001-100-D00-0
 62
     7
370
    50
100
AcDbCircle
 10
33.073213
 20
486.002881
 30
0.0
 40
1.0
100
AcDbArc
 50
0.0
 51
90.0
  0
ARC
  5
29E
330
1F
100
AcDbEntity
  8
LC-001-100-D00-0
 62
     7
370
    50
100
AcDbCircle
 10
35.073213
 20
472.002881
 30
0.0
 40
1.0
100
AcDbArc
 50
180.0
 51
270.0
  0
LINE
  5
29F
330
1F
100
AcDbEntity
  8
LC-001-100-D00-0
 62
     7
370
    50
100
AcDbLine
 10
34.073213
 20
486.002881
 30
0.0
 11
34.073213
 21
472.002881
 31
0.0
  0
LINE
  5
2A0
330
1F
100
AcDbEntity
  8
LC-001-100-D00-0
 62
     7
370
    50
100
AcDbLine
 10
38.623213
 20
473.502881
 30
0.0
 11
38.623213
 21
476.502881
 31
0.0
  0
LINE
  5
2A1
330
1F
100
AcDbEntity
  8
LC-001-100-D00-0
 62
     7
370
    50
100
AcDbLine
 10
39.923213
 20
490.002881
 30
0.0
 11
39.923212
 21
479.002881
 31
0.0
  0
LINE
  5
2A2
330
1F
100
AcDbEntity
  8
LC-001-100-D00-0
 62
     7
370
    50
100
AcDbLine
 10
39.923213
 20
490.002881
 30
0.0
 11
47.723213
 21
490.002881
 31
0.0
  0
LINE
  5
2A3
330
1F
100
AcDbEntity
  8
LC-001-100-D00-0
 62
     7
370
    50
100
AcDbLine
 10
37.472359
 20
479.002881
 30
0.0
 11
37.472359
 21
477.002881
 31
0.0
  0
LINE
  5
2A4
330
1F
100
AcDbEntity
  8
LC-001-100-D00-0
 62
     7
370
    50
100
AcDbLine
 10
37.472359
 20
473.00288
 30
0.0
 11
37.472359
 21
471.002882
 31
0.0
  0
ARC
  5
2A5
330
1F
100
AcDbEntity
  8
LC-001-100-D00-0
 62
     7
370
    50
100
AcDbCircle
 10
38.123213
 20
473.502881
 30
0.0
 40
0.5
100
AcDbArc
 50
270.0
 51
0.0
  0
LINE
  5
2A6
330
1F
100
AcDbEntity
  8
LC-001-100-D00-0
 62
     7
370
    50
100
AcDbLine
 10
37.472359
 20
473.00288
 30
0.0
 11
38.123213
 21
473.002881
 31
0.0
  0
LINE
  5
2A7
330
1F
100
AcDbEntity
  8
LC-001-100-D00-0
 62
     7
370
    50
100
AcDbLine
 10
28.573214
 20
487.002881
 30
0.0
 11
28.573213
 21
483.002881
 31
0.0
  0
LINE
  5
2A8
330
1F
100
AcDbEntity
  8
LC-001-100-D00-0
 62
     7
370
    50
100
AcDbLine
 10
25.573215
 20
483.002881
 30
0.0
 11
25.573213
 21
489.002881
 31
0.0
  0
ARC
  5
2A9
330
1F
100
AcDbEntity
  8
LC-001-100-D00-0
 62
     7
370
    50
100
AcDbCircle
 10
26.573213
 20
489.002881
 30
0.0
 40
1.000000000000227
100
AcDbArc
 50
90.0
 51
180.0
  0
LINE
  5
2AA
330
1F
100
AcDbEntity
  8
LC-001-100-D00-0
 62
     7
370
    50
100
AcDbLine
 10
38.123213
 20
477.002881
 30
0.0
 11
37.472359
 21
477.002881
 31
0.0
  0
ARC
  5
2AB
330
1F
100
AcDbEntity
  8
LC-001-100-D00-0
 62
     7
370
    50
100
AcDbCircle
 10
38.123213
 20
476.502881
 30
0.0
 40
0.5
100
AcDbArc
 50
0.0
 51
90.0
  0
LINE
  5
2AC
330
1F
100
AcDbEntity
  8
LC-001-100-D00-0
 62
     7
370
    50
100
AcDbLine
 10
39.923212
 20
479.002881
 30
0.0
 11
37.472359
 21
479.002881
 31
0.0
  0
LINE
  5
2AD
330
1F
100
AcDbEntity
  8
LC-001-100-D00-0
 62
     7
370
    50
100
AcDbLine
 10
37.472359
 20
471.002882
 30
0.0
 11
35.073213
 21
471.002881
 31
0.0
  0
LINE
  5
2AE
330
1F
100
AcDbEntity
  8
LC-001-100-D00-0
 62
     7
370
    50
100
AcDbLine
 10
28.573214
 20
487.002881
 30
0.0
 11
33.073213
 21
487.002881
 31
0.0
  0
LINE
  5
2AF
330
1F
100
AcDbEntity
  8
LC-001-100-D00-0
 62
     7
370
    50
100
AcDbLine
 10
25.573215
 20
483.002881
 30
0.0
 11
28.573213
 21
483.002881
 31
0.0
  0
LINE
  5
2B0
330
1F
100
AcDbEntity
  8
LC-001-100-D00-0
 62
     7
370
    50
100
AcDbLine
 10
26.573213
 20
490.002881
 30
0.0
 11
39.923213
 21
490.002881
 31
0.0
  0
LINE
  5
2B1
330
1F
100
AcDbEntity
  8
LC-001-100-D00-0
 62
     7
370
    50
100
AcDbLine
 10
57.073213
 20
483.002881
 30
0.0
 11
59.073213
 21
483.002881
 31
0.0
  0
LINE
  5
2B2
330
1F
100
AcDbEntity
  8
LC-001-100-D00-0
 62
     7
370
    50
100
AcDbLine
 10
28.573213
 20
483.002881
 30
0.0
 11
30.573213
 21
483.002881
 31
0.0
  0
LINE
  5
2B3
330
1F
100
AcDbEntity
  8
LC-001-100-D00-0
 62
     7
370
    50
100
AcDbLine
 10
30.573213
 20
483.002881
 30
0.0
 11
34.07321
 21
483.002881
 31
0.0
  0
LINE
  5
2B4
330
1F
100
AcDbEntity
  8
LC-001-100-D00-0
 62
     7
370
    50
100
AcDbLine
 10
53.573212
 20
483.002881
 30
0.0
 11
57.073213
 21
483.002881
 31
0.0
  0
LINE
  5
2B5
330
1F
100
AcDbEntity
  8
LC-001-100-D00-0
 62
     7
370
    50
100
AcDbLine
 10
460.423208
 20
478.002881
 30
0.0
 11
459.423221
 21
479.002881
 31
0.0
  0
LINE
  5
2B6
330
1F
100
AcDbEntity
  8
LC-001-100-D00-0
 62
     7
370
    50
100
AcDbLine
 10
460.423208
 20
478.002881
 30
0.0
 11
460.423213
 21
472.002881
 31
0.0
  0
LINE
  5
2B7
330
1F
100
AcDbEntity
  8
LC-001-100-D00-0
 62
     7
370
    50
100
AcDbLine
 10
459.423213
 20
471.002881
 30
0.0
 11
460.423213
 21
472.002881
 31
0.0
  0
LINE
  5
2B8
330
1F
100
AcDbEntity
  8
LC-001-100-D00-0
 62
     7
370
    50
100
AcDbLine
 10
457.472361
 20
473.00288
 30
0.0
 11
457.472361
 21
471.002882
 31
0.0
  0
LINE
  5
2B9
330
1F
100
AcDbEntity
  8
LC-001-100-D00-0
 62
     7
370
    50
100
AcDbLine
 10
458.178504
 20
473.192092
 30
0.0
 11
457.472361
 21
473.00288
 31
0.0
  0
ARC
  5
2BA
330
1F
100
AcDbEntity
  8
LC-001-100-D00-0
 62
     7
370
    50
100
AcDbCircle
 10
458.023213
 20
473.771647
 30
0.0
 40
0.6000000000003082
100
AcDbArc
 50
285.0
 51
0.0
  0
LINE
  5
2BB
330
1F
100
AcDbEntity
  8
LC-001-100-D00-0
 62
     7
370
    50
100
AcDbLine
 10
458.623213
 20
476.234115
 30
0.0
 11
458.623213
 21
473.771647
 31
0.0
  0
ARC
  5
2BC
330
1F
100
AcDbEntity
  8
LC-001-100-D00-0
 62
     7
370
    50
100
AcDbCircle
 10
458.023213
 20
476.234115
 30
0.0
 40
0.6000000000001364
100
AcDbArc
 50
0.0
 51
75.0
  0
LINE
  5
2BD
330
1F
100
AcDbEntity
  8
LC-001-100-D00-0
 62
     7
370
    50
100
AcDbLine
 10
457.472361
 20
477.002881
 30
0.0
 11
458.178504
 21
476.81367
 31
0.0
  0
LINE
  5
2BE
330
1F
100
AcDbEntity
  8
LC-001-100-D00-0
 62
     7
370
    50
100
AcDbLine
 10
457.472361
 20
479.002881
 30
0.0
 11
457.472361
 21
477.002881
 31
0.0
  0
LINE
  5
2BF
330
1F
100
AcDbEntity
  8
LC-001-100-D00-0
 62
     7
370
    50
100
AcDbLine
 10
457.472361
 20
471.002882
 30
0.0
 11
459.423213
 21
471.002881
 31
0.0
  0
LINE
  5
2C0
330
1F
100
AcDbEntity
  8
LC-001-100-D00-0
 62
     7
370
    50
100
AcDbLine
 10
457.472361
 20
479.002881
 30
0.0
 11
459.423221
 21
479.002881
 31
0.0
  0
LINE
  5
2C1
330
1F
100
AcDbEntity
  8
LC-001-100-D00-0
 62
     7
370
    50
100
AcDbLine
 10
469.023213
 20
473.771647
 30
0.0
 11
469.023213
 21
476.234115
 31
0.0
  0
ARC
  5
2C2
330
1F
100
AcDbEntity
  8
LC-001-100-D00-0
 62
     7
370
    50
100
AcDbCircle
 10
469.623213
 20
473.771647
 30
0.0
 40
0.6000000000001364
100
AcDbArc
 50
180.0
 51
255.0
  0
LINE
  5
2C3
330
1F
100
AcDbEntity
  8
LC-001-100-D00-0
 62
     7
370
    50
100
AcDbLine
 10
470.174081
 20
473.00288
 30
0.0
 11
469.467921
 21
473.192092
 31
0.0
  0
LINE
  5
2C4
330
1F
100
AcDbEntity
  8
LC-001-100-D00-0
 62
     7
370
    50
100
AcDbLine
 10
470.174081
 20
473.00288
 30
0.0
 11
470.174081
 21
471.002882
 31
0.0
  0
LINE
  5
2C5
330
1F
100
AcDbEntity
  8
LC-001-100-D00-0
 62
     7
370
    50
100
AcDbLine
 10
467.223213
 20
472.002881
 30
0.0
 11
468.223213
 21
471.002881
 31
0.0
  0
LINE
  5
2C6
330
1F
100
AcDbEntity
  8
LC-001-100-D00-0
 62
     7
370
    50
100
AcDbLine
 10
467.223213
 20
472.002881
 30
0.0
 11
467.223204
 21
478.002881
 31
0.0
  0
LINE
  5
2C7
330
1F
100
AcDbEntity
  8
LC-001-100-D00-0
 62
     7
370
    50
100
AcDbLine
 10
468.223221
 20
479.002881
 30
0.0
 11
467.223204
 21
478.002881
 31
0.0
  0
LINE
  5
2C8
330
1F
100
AcDbEntity
  8
LC-001-100-D00-0
 62
     7
370
    50
100
AcDbLine
 10
470.174081
 20
479.002881
 30
0.0
 11
470.174081
 21
477.002881
 31
0.0
  0
LINE
  5
2C9
330
1F
100
AcDbEntity
  8
LC-001-100-D00-0
 62
     7
370
    50
100
AcDbLine
 10
469.467921
 20
476.81367
 30
0.0
 11
470.174081
 21
477.002881
 31
0.0
  0
ARC
  5
2CA
330
1F
100
AcDbEntity
  8
LC-001-100-D00-0
 62
     7
370
    50
100
AcDbCircle
 10
469.623213
 20
476.234115
 30
0.0
 40
0.6000000000001474
100
AcDbArc
 50
105.0
 51
180.0
  0
LINE
  5
2CB
330
1F
100
AcDbEntity
  8
LC-001-100-D00-0
 62
     7
370
    50
100
AcDbLine
 10
468.223213
 20
471.002881
 30
0.0
 11
470.174081
 21
471.002882
 31
0.0
  0
LINE
  5
2CC
330
1F
100
AcDbEntity
  8
LC-001-100-D00-0
 62
     7
370
    50
100
AcDbLine
 10
468.223221
 20
479.002881
 30
0.0
 11
470.174081
 21
479.002881
 31
0.0
  0
LINE
  5
2CD
330
1F
100
AcDbEntity
  8
LC-001-100-D00-0
 62
     7
370
    50
100
AcDbLine
 10
460.423213
 20
472.002881
 30
0.0
 11
460.581052
 21
472.002881
 31
0.0
  0
LINE
  5
2CE
330
1F
100
AcDbEntity
  8
LC-001-100-D00-0
 62
     7
370
    50
100
AcDbLine
 10
467.065373
 20
472.002881
 30
0.0
 11
467.223213
 21
472.002881
 31
0.0
  0
LINE
  5
2CF
330
1F
100
AcDbEntity
  8
LC-001-100-D00-0
 62
     7
370
    50
100
AcDbLine
 10
468.223213
 20
471.002881
 30
0.0
 11
467.687431
 21
471.002881
 31
0.0
  0
LINE
  5
2D0
330
1F
100
AcDbEntity
  8
LC-001-100-D00-0
 62
     7
370
    50
100
AcDbLine
 10
459.958995
 20
471.002881
 30
0.0
 11
459.423213
 21
471.002881
 31
0.0
  0
LINE
  5
2D1
330
1F
100
AcDbEntity
  8
LC-001-100-D00-0
 62
     7
370
    50
100
AcDbLine
 10
470.174081
 20
479.002881
 30
0.0
 11
467.723227
 21
479.002881
 31
0.0
  0
LINE
  5
2D2
330
1F
100
AcDbEntity
  8
LC-001-100-D00-0
 62
     7
370
    50
100
AcDbLine
 10
467.723227
 20
479.002881
 30
0.0
 11
467.723213
 21
490.002881
 31
0.0
  0
LINE
  5
2D3
330
1F
100
AcDbEntity
  8
LC-001-100-D00-0
 62
     7
370
    50
100
AcDbLine
 10
467.723213
 20
490.002881
 30
0.0
 11
481.073213
 21
490.002881
 31
0.0
  0
ARC
  5
2D4
330
1F
100
AcDbEntity
  8
LC-001-100-D00-0
 62
     7
370
    50
100
AcDbCircle
 10
481.073213
 20
489.002881
 30
0.0
 40
1.000000000000227
100
AcDbArc
 50
0.0
 51
90.0
  0
LINE
  5
2D5
330
1F
100
AcDbEntity
  8
LC-001-100-D00-0
 62
     7
370
    50
100
AcDbLine
 10
482.073213
 20
489.002881
 30
0.0
 11
482.073224
 21
483.002881
 31
0.0
  0
LINE
  5
2D6
330
1F
100
AcDbEntity
  8
LC-001-100-D00-0
 62
     7
370
    50
100
AcDbLine
 10
479.073213
 20
483.002881
 30
0.0
 11
482.073224
 21
483.002881
 31
0.0
  0
LINE
  5
2D7
330
1F
100
AcDbEntity
  8
LC-001-100-D00-0
 62
     7
370
    50
100
AcDbLine
 10
479.073213
 20
483.002881
 30
0.0
 11
479.073203
 21
487.002881
 31
0.0
  0
LINE
  5
2D8
330
1F
100
AcDbEntity
  8
LC-001-100-D00-0
 62
     7
370
    50
100
AcDbLine
 10
474.573213
 20
487.002881
 30
0.0
 11
479.073203
 21
487.002881
 31
0.0
  0
ARC
  5
2D9
330
1F
100
AcDbEntity
  8
LC-001-100-D00-0
 62
     7
370
    50
100
AcDbCircle
 10
474.573213
 20
486.002881
 30
0.0
 40
1.000000000000227
100
AcDbArc
 50
90.0
 51
180.0
  0
LINE
  5
2DA
330
1F
100
AcDbEntity
  8
LC-001-100-D00-0
 62
     7
370
    50
100
AcDbLine
 10
473.573213
 20
472.002881
 30
0.0
 11
473.573213
 21
486.002881
 31
0.0
  0
ARC
  5
2DB
330
1F
100
AcDbEntity
  8
LC-001-100-D00-0
 62
     7
370
    50
100
AcDbCircle
 10
472.573213
 20
472.002881
 30
0.0
 40
1.000000000000227
100
AcDbArc
 50
270.0
 51
0.0
  0
LINE
  5
2DC
330
1F
100
AcDbEntity
  8
LC-001-100-D00-0
 62
     7
370
    50
100
AcDbLine
 10
472.573213
 20
471.002881
 30
0.0
 11
470.174081
 21
471.002882
 31
0.0
  0
LINE
  5
2DD
330
1F
100
AcDbEntity
  8
LC-001-100-D00-0
 62
     7
370
    50
100
AcDbLine
 10
470.174081
 20
473.00288
 30
0.0
 11
470.174081
 21
471.002882
 31
0.0
  0
LINE
  5
2DE
330
1F
100
AcDbEntity
  8
LC-001-100-D00-0
 62
     7
370
    50
100
AcDbLine
 10
469.523213
 20
473.002881
 30
0.0
 11
470.174081
 21
473.00288
 31
0.0
  0
ARC
  5
2DF
330
1F
100
AcDbEntity
  8
LC-001-100-D00-0
 62
     7
370
    50
100
AcDbCircle
 10
469.523213
 20
473.502881
 30
0.0
 40
0.5000000000002274
100
AcDbArc
 50
180.0
 51
270.0
  0
LINE
  5
2E0
330
1F
100
AcDbEntity
  8
LC-001-100-D00-0
 62
     7
370
    50
100
AcDbLine
 10
469.023213
 20
476.502881
 30
0.0
 11
469.023213
 21
473.502881
 31
0.0
  0
ARC
  5
2E1
330
1F
100
AcDbEntity
  8
LC-001-100-D00-0
 62
     7
370
    50
100
AcDbCircle
 10
469.523213
 20
476.502881
 30
0.0
 40
0.5000000000002274
100
AcDbArc
 50
90.0
 51
180.0
  0
LINE
  5
2E2
330
1F
100
AcDbEntity
  8
LC-001-100-D00-0
 62
     7
370
    50
100
AcDbLine
 10
470.174081
 20
477.002881
 30
0.0
 11
469.523213
 21
477.002881
 31
0.0
  0
LINE
  5
2E3
330
1F
100
AcDbEntity
  8
LC-001-100-D00-0
 62
     7
370
    50
100
AcDbLine
 10
470.174081
 20
479.002881
 30
0.0
 11
470.174081
 21
477.002881
 31
0.0
  0
ARC
  5
2E4
330
1F
100
AcDbEntity
  8
LC-001-100-D00-0
 62
     7
370
    50
100
AcDbCircle
 10
453.073213
 20
486.002881
 30
0.0
 40
1.000000000000114
100
AcDbArc
 50
0.0
 51
90.0
  0
ARC
  5
2E5
330
1F
100
AcDbEntity
  8
LC-001-100-D00-0
 62
     7
370
    50
100
AcDbCircle
 10
455.073213
 20
472.002881
 30
0.0
 40
0.9999999999998863
100
AcDbArc
 50
180.0
 51
270.0
  0
LINE
  5
2E6
330
1F
100
AcDbEntity
  8
LC-001-100-D00-0
 62
     7
370
    50
100
AcDbLine
 10
454.073213
 20
486.002881
 30
0.0
 11
454.073213
 21
472.002881
 31
0.0
  0
LINE
  5
2E7
330
1F
100
AcDbEntity
  8
LC-001-100-D00-0
 62
     7
370
    50
100
AcDbLine
 10
458.623213
 20
473.502881
 30
0.0
 11
458.623213
 21
476.502881
 31
0.0
  0
LINE
  5
2E8
330
1F
100
AcDbEntity
  8
LC-001-100-D00-0
 62
     7
370
    50
100
AcDbLine
 10
459.923213
 20
490.002881
 30
0.0
 11
459.923214
 21
479.002881
 31
0.0
  0
LINE
  5
2E9
330
1F
100
AcDbEntity
  8
LC-001-100-D00-0
 62
     7
370
    50
100
AcDbLine
 10
459.923213
 20
490.002881
 30
0.0
 11
467.723213
 21
490.002881
 31
0.0
  0
LINE
  5
2EA
330
1F
100
AcDbEntity
  8
LC-001-100-D00-0
 62
     7
370
    50
100
AcDbLine
 10
457.472361
 20
479.002881
 30
0.0
 11
457.472361
 21
477.002881
 31
0.0
  0
LINE
  5
2EB
330
1F
100
AcDbEntity
  8
LC-001-100-D00-0
 62
     7
370
    50
100
AcDbLine
 10
457.472361
 20
473.00288
 30
0.0
 11
457.472361
 21
471.002882
 31
0.0
  0
ARC
  5
2EC
330
1F
100
AcDbEntity
  8
LC-001-100-D00-0
 62
     7
370
    50
100
AcDbCircle
 10
458.123213
 20
473.502881
 30
0.0
 40
0.5
100
AcDbArc
 50
270.0
 51
0.0
  0
LINE
  5
2ED
330
1F
100
AcDbEntity
  8
LC-001-100-D00-0
 62
     7
370
    50
100
AcDbLine
 10
457.472361
 20
473.00288
 30
0.0
 11
458.123213
 21
473.002881
 31
0.0
  0
LINE
  5
2EE
330
1F
100
AcDbEntity
  8
LC-001-100-D00-0
 62
     7
370
    50
100
AcDbLine
 10
448.573208
 20
487.002881
 30
0.0
 11
448.573213
 21
483.002881
 31
0.0
  0
LINE
  5
2EF
330
1F
100
AcDbEntity
  8
LC-001-100-D00-0
 62
     7
370
    50
100
AcDbLine
 10
445.573217
 20
483.002881
 30
0.0
 11
445.573213
 21
489.002881
 31
0.0
  0
ARC
  5
2F0
330
1F
100
AcDbEntity
  8
LC-001-100-D00-0
 62
     7
370
    50
100
AcDbCircle
 10
446.573213
 20
489.002881
 30
0.0
 40
1.000000000000227
100
AcDbArc
 50
90.0
 51
180.0
  0
LINE
  5
2F1
330
1F
100
AcDbEntity
  8
LC-001-100-D00-0
 62
     7
370
    50
100
AcDbLine
 10
458.123213
 20
477.002881
 30
0.0
 11
457.472361
 21
477.002881
 31
0.0
  0
ARC
  5
2F2
330
1F
100
AcDbEntity
  8
LC-001-100-D00-0
 62
     7
370
    50
100
AcDbCircle
 10
458.123213
 20
476.502881
 30
0.0
 40
0.5
100
AcDbArc
 50
0.0
 51
90.0
  0
LINE
  5
2F3
330
1F
100
AcDbEntity
  8
LC-001-100-D00-0
 62
     7
370
    50
100
AcDbLine
 10
445.573217
 20
483.002881
 30
0.0
 11
448.573213
 21
483.002881
 31
0.0
  0
LINE
  5
2F4
330
1F
100
AcDbEntity
  8
LC-001-100-D00-0
 62
     7
370
    50
100
AcDbLine
 10
459.923214
 20
479.002881
 30
0.0
 11
457.472361
 21
479.002881
 31
0.0
  0
LINE
  5
2F5
330
1F
100
AcDbEntity
  8
LC-001-100-D00-0
 62
     7
370
    50
100
AcDbLine
 10
457.472361
 20
471.002882
 30
0.0
 11
455.073213
 21
471.002881
 31
0.0
  0
LINE
  5
2F6
330
1F
100
AcDbEntity
  8
LC-001-100-D00-0
 62
     7
370
    50
100
AcDbLine
 10
448.573208
 20
487.002881
 30
0.0
 11
453.073213
 21
487.002881
 31
0.0
  0
LINE
  5
2F7
330
1F
100
AcDbEntity
  8
LC-001-100-D00-0
 62
     7
370
    50
100
AcDbLine
 10
446.573213
 20
490.002881
 30
0.0
 11
459.923213
 21
490.002881
 31
0.0
  0
LINE
  5
2F8
330
1F
100
AcDbEntity
  8
LC-001-100-D00-0
 62
     7
370
    50
100
AcDbLine
 10
477.073213
 20
483.002881
 30
0.0
 11
479.073213
 21
483.002881
 31
0.0
  0
LINE
  5
2F9
330
1F
100
AcDbEntity
  8
LC-001-100-D00-0
 62
     7
370
    50
100
AcDbLine
 10
448.573213
 20
483.002881
 30
0.0
 11
450.573213
 21
483.002881
 31
0.0
  0
LINE
  5
2FA
330
1F
100
AcDbEntity
  8
LC-001-100-D00-0
 62
     7
370
    50
100
AcDbLine
 10
450.573213
 20
483.002881
 30
0.0
 11
454.073227
 21
483.002881
 31
0.0
  0
LINE
  5
2FB
330
1F
100
AcDbEntity
  8
LC-001-100-D00-0
 62
     7
370
    50
100
AcDbLine
 10
473.573214
 20
483.002881
 30
0.0
 11
477.073213
 21
483.002881
 31
0.0
  0
LINE
  5
2FC
330
1F
100
AcDbEntity
  8
LC-001-100-D00-0
 62
     7
370
    50
100
AcDbLine
 10
-69.576793
 20
478.002881
 30
0.0
 11
-70.576781
 21
479.002881
 31
0.0
  0
LINE
  5
2FD
330
1F
100
AcDbEntity
  8
LC-001-100-D00-0
 62
     7
370
    50
100
AcDbLine
 10
-69.576793
 20
478.002881
 30
0.0
 11
-69.576787
 21
472.002881
 31
0.0
  0
LINE
  5
2FE
330
1F
100
AcDbEntity
  8
LC-001-100-D00-0
 62
     7
370
    50
100
AcDbLine
 10
-70.576787
 20
471.002881
 30
0.0
 11
-69.576787
 21
472.002881
 31
0.0
  0
LINE
  5
2FF
330
1F
100
AcDbEntity
  8
LC-001-100-D00-0
 62
     7
370
    50
100
AcDbLine
 10
-72.527641
 20
473.00288
 30
0.0
 11
-72.527641
 21
471.002882
 31
0.0
  0
LINE
  5
300
330
1F
100
AcDbEntity
  8
LC-001-100-D00-0
 62
     7
370
    50
100
AcDbLine
 10
-71.821496
 20
473.192092
 30
0.0
 11
-72.527641
 21
473.00288
 31
0.0
  0
ARC
  5
301
330
1F
100
AcDbEntity
  8
LC-001-100-D00-0
 62
     7
370
    50
100
AcDbCircle
 10
-71.976787
 20
473.771647
 30
0.0
 40
0.6000000000001032
100
AcDbArc
 50
285.0
 51
0.0
  0
LINE
  5
302
330
1F
100
AcDbEntity
  8
LC-001-100-D00-0
 62
     7
370
    50
100
AcDbLine
 10
-71.376787
 20
476.234115
 30
0.0
 11
-71.376787
 21
473.771647
 31
0.0
  0
ARC
  5
303
330
1F
100
AcDbEntity
  8
LC-001-100-D00-0
 62
     7
370
    50
100
AcDbCircle
 10
-71.976787
 20
476.234115
 30
0.0
 40
0.6000000000000796
100
AcDbArc
 50
0.0
 51
75.0
  0
LINE
  5
304
330
1F
100
AcDbEntity
  8
LC-001-100-D00-0
 62
     7
370
    50
100
AcDbLine
 10
-72.527641
 20
477.002881
 30
0.0
 11
-71.821496
 21
476.81367
 31
0.0
  0
LINE
  5
305
330
1F
100
AcDbEntity
  8
LC-001-100-D00-0
 62
     7
370
    50
100
AcDbLine
 10
-72.527641
 20
479.002881
 30
0.0
 11
-72.527641
 21
477.002881
 31
0.0
  0
LINE
  5
306
330
1F
100
AcDbEntity
  8
LC-001-100-D00-0
 62
     7
370
    50
100
AcDbLine
 10
-72.527641
 20
471.002882
 30
0.0
 11
-70.576787
 21
471.002881
 31
0.0
  0
LINE
  5
307
330
1F
100
AcDbEntity
  8
LC-001-100-D00-0
 62
     7
370
    50
100
AcDbLine
 10
-72.527641
 20
479.002881
 30
0.0
 11
-70.576781
 21
479.002881
 31
0.0
  0
LINE
  5
308
330
1F
100
AcDbEntity
  8
LC-001-100-D00-0
 62
     7
370
    50
100
AcDbLine
 10
-60.976787
 20
473.771647
 30
0.0
 11
-60.976787
 21
476.234115
 31
0.0
  0
ARC
  5
309
330
1F
100
AcDbEntity
  8
LC-001-100-D00-0
 62
     7
370
    50
100
AcDbCircle
 10
-60.376787
 20
473.771647
 30
0.0
 40
0.6000000000000227
100
AcDbArc
 50
180.0
 51
255.0
  0
LINE
  5
30A
330
1F
100
AcDbEntity
  8
LC-001-100-D00-0
 62
     7
370
    50
100
AcDbLine
 10
-59.825936
 20
473.00288
 30
0.0
 11
-60.532079
 21
473.192092
 31
0.0
  0
LINE
  5
30B
330
1F
100
AcDbEntity
  8
LC-001-100-D00-0
 62
     7
370
    50
100
AcDbLine
 10
-59.825936
 20
473.00288
 30
0.0
 11
-59.825936
 21
471.002882
 31
0.0
  0
LINE
  5
30C
330
1F
100
AcDbEntity
  8
LC-001-100-D00-0
 62
     7
370
    50
100
AcDbLine
 10
-62.776787
 20
472.002881
 30
0.0
 11
-61.776787
 21
471.002881
 31
0.0
  0
LINE
  5
30D
330
1F
100
AcDbEntity
  8
LC-001-100-D00-0
 62
     7
370
    50
100
AcDbLine
 10
-62.776787
 20
472.002881
 30
0.0
 11
-62.776783
 21
478.002881
 31
0.0
  0
LINE
  5
30E
330
1F
100
AcDbEntity
  8
LC-001-100-D00-0
 62
     7
370
    50
100
AcDbLine
 10
-61.776781
 20
479.002881
 30
0.0
 11
-62.776783
 21
478.002881
 31
0.0
  0
LINE
  5
30F
330
1F
100
AcDbEntity
  8
LC-001-100-D00-0
 62
     7
370
    50
100
AcDbLine
 10
-59.825936
 20
479.002881
 30
0.0
 11
-59.825936
 21
477.002881
 31
0.0
  0
LINE
  5
310
330
1F
100
AcDbEntity
  8
LC-001-100-D00-0
 62
     7
370
    50
100
AcDbLine
 10
-60.532079
 20
476.81367
 30
0.0
 11
-59.825936
 21
477.002881
 31
0.0
  0
ARC
  5
311
330
1F
100
AcDbEntity
  8
LC-001-100-D00-0
 62
     7
370
    50
100
AcDbCircle
 10
-60.376787
 20
476.234115
 30
0.0
 40
0.6000000000000886
100
AcDbArc
 50
105.0
 51
180.0
  0
LINE
  5
312
330
1F
100
AcDbEntity
  8
LC-001-100-D00-0
 62
     7
370
    50
100
AcDbLine
 10
-61.776787
 20
471.002881
 30
0.0
 11
-59.825936
 21
471.002882
 31
0.0
  0
LINE
  5
313
330
1F
100
AcDbEntity
  8
LC-001-100-D00-0
 62
     7
370
    50
100
AcDbLine
 10
-61.776781
 20
479.002881
 30
0.0
 11
-59.825936
 21
479.002881
 31
0.0
  0
LINE
  5
314
330
1F
100
AcDbEntity
  8
LC-001-100-D00-0
 62
     7
370
    50
100
AcDbLine
 10
-69.576787
 20
472.002881
 30
0.0
 11
-69.418948
 21
472.002881
 31
0.0
  0
LINE
  5
315
330
1F
100
AcDbEntity
  8
LC-001-100-D00-0
 62
     7
370
    50
100
AcDbLine
 10
-62.934627
 20
472.002881
 30
0.0
 11
-62.776787
 21
472.002881
 31
0.0
  0
LINE
  5
316
330
1F
100
AcDbEntity
  8
LC-001-100-D00-0
 62
     7
370
    50
100
AcDbLine
 10
-61.776787
 20
471.002881
 30
0.0
 11
-62.312569
 21
471.002881
 31
0.0
  0
LINE
  5
317
330
1F
100
AcDbEntity
  8
LC-001-100-D00-0
 62
     7
370
    50
100
AcDbLine
 10
-70.041005
 20
471.002881
 30
0.0
 11
-70.576787
 21
471.002881
 31
0.0
  0
LINE
  5
318
330
1F
100
AcDbEntity
  8
LC-001-100-D00-0
 62
     7
370
    50
100
AcDbLine
 10
-59.825936
 20
479.002881
 30
0.0
 11
-62.276789
 21
479.002881
 31
0.0
  0
LINE
  5
319
330
1F
100
AcDbEntity
  8
LC-001-100-D00-0
 62
     7
370
    50
100
AcDbLine
 10
-62.276789
 20
479.002881
 30
0.0
 11
-62.276787
 21
490.002881
 31
0.0
  0
LINE
  5
31A
330
1F
100
AcDbEntity
  8
LC-001-100-D00-0
 62
     7
370
    50
100
AcDbLine
 10
-62.276787
 20
490.002881
 30
0.0
 11
-48.926787
 21
490.002881
 31
0.0
  0
ARC
  5
31B
330
1F
100
AcDbEntity
  8
LC-001-100-D00-0
 62
     7
370
    50
100
AcDbCircle
 10
-48.926787
 20
489.002881
 30
0.0
 40
1.000000000000227
100
AcDbArc
 50
0.0
 51
90.0
  0
LINE
  5
31C
330
1F
100
AcDbEntity
  8
LC-001-100-D00-0
 62
     7
370
    50
100
AcDbLine
 10
-47.926787
 20
489.002881
 30
0.0
 11
-47.926792
 21
483.002881
 31
0.0
  0
LINE
  5
31D
330
1F
100
AcDbEntity
  8
LC-001-100-D00-0
 62
     7
370
    50
100
AcDbLine
 10
-50.926787
 20
483.002881
 30
0.0
 11
-47.926792
 21
483.002881
 31
0.0
  0
LINE
  5
31E
330
1F
100
AcDbEntity
  8
LC-001-100-D00-0
 62
     7
370
    50
100
AcDbLine
 10
-50.926787
 20
483.002881
 30
0.0
 11
-50.926783
 21
487.002881
 31
0.0
  0
LINE
  5
31F
330
1F
100
AcDbEntity
  8
LC-001-100-D00-0
 62
     7
370
    50
100
AcDbLine
 10
-55.426787
 20
487.002881
 30
0.0
 11
-50.926783
 21
487.002881
 31
0.0
  0
ARC
  5
320
330
1F
100
AcDbEntity
  8
LC-001-100-D00-0
 62
     7
370
    50
100
AcDbCircle
 10
-55.426787
 20
486.002881
 30
0.0
 40
1.000000000000227
100
AcDbArc
 50
90.0
 51
180.0
  0
LINE
  5
321
330
1F
100
AcDbEntity
  8
LC-001-100-D00-0
 62
     7
370
    50
100
AcDbLine
 10
-56.426787
 20
472.002881
 30
0.0
 11
-56.426787
 21
486.002881
 31
0.0
  0
ARC
  5
322
330
1F
100
AcDbEntity
  8
LC-001-100-D00-0
 62
     7
370
    50
100
AcDbCircle
 10
-57.426787
 20
472.002881
 30
0.0
 40
1.0
100
AcDbArc
 50
270.0
 51
0.0
  0
LINE
  5
323
330
1F
100
AcDbEntity
  8
LC-001-100-D00-0
 62
     7
370
    50
100
AcDbLine
 10
-57.426787
 20
471.002881
 30
0.0
 11
-59.825936
 21
471.002882
 31
0.0
  0
LINE
  5
324
330
1F
100
AcDbEntity
  8
LC-001-100-D00-0
 62
     7
370
    50
100
AcDbLine
 10
-59.825936
 20
473.00288
 30
0.0
 11
-59.825936
 21
471.002882
 31
0.0
  0
LINE
  5
325
330
1F
100
AcDbEntity
  8
LC-001-100-D00-0
 62
     7
370
    50
100
AcDbLine
 10
-60.476787
 20
473.002881
 30
0.0
 11
-59.825936
 21
473.00288
 31
0.0
  0
ARC
  5
326
330
1F
100
AcDbEntity
  8
LC-001-100-D00-0
 62
     7
370
    50
100
AcDbCircle
 10
-60.476787
 20
473.502881
 30
0.0
 40
0.5000000000000568
100
AcDbArc
 50
180.0
 51
270.0
  0
LINE
  5
327
330
1F
100
AcDbEntity
  8
LC-001-100-D00-0
 62
     7
370
    50
100
AcDbLine
 10
-60.976787
 20
476.502881
 30
0.0
 11
-60.976787
 21
473.502881
 31
0.0
  0
ARC
  5
328
330
1F
100
AcDbEntity
  8
LC-001-100-D00-0
 62
     7
370
    50
100
AcDbCircle
 10
-60.476787
 20
476.502881
 30
0.0
 40
0.5
100
AcDbArc
 50
90.0
 51
180.0
  0
LINE
  5
329
330
1F
100
AcDbEntity
  8
LC-001-100-D00-0
 62
     7
370
    50
100
AcDbLine
 10
-59.825936
 20
477.002881
 30
0.0
 11
-60.476787
 21
477.002881
 31
0.0
  0
LINE
  5
32A
330
1F
100
AcDbEntity
  8
LC-001-100-D00-0
 62
     7
370
    50
100
AcDbLine
 10
-59.825936
 20
479.002881
 30
0.0
 11
-59.825936
 21
477.002881
 31
0.0
  0
ARC
  5
32B
330
1F
100
AcDbEntity
  8
LC-001-100-D00-0
 62
     7
370
    50
100
AcDbCircle
 10
-76.926787
 20
486.002881
 30
0.0
 40
1.000000000000114
100
AcDbArc
 50
0.0
 51
90.0
  0
ARC
  5
32C
330
1F
100
AcDbEntity
  8
LC-001-100-D00-0
 62
     7
370
    50
100
AcDbCircle
 10
-74.926787
 20
472.002881
 30
0.0
 40
1.0
100
AcDbArc
 50
180.0
 51
270.0
  0
LINE
  5
32D
330
1F
100
AcDbEntity
  8
LC-001-100-D00-0
 62
     7
370
    50
100
AcDbLine
 10
-75.926787
 20
486.002881
 30
0.0
 11
-75.926787
 21
472.002881
 31
0.0
  0
LINE
  5
32E
330
1F
100
AcDbEntity
  8
LC-001-100-D00-0
 62
     7
370
    50
100
AcDbLine
 10
-71.376787
 20
473.502881
 30
0.0
 11
-71.376787
 21
476.502881
 31
0.0
  0
LINE
  5
32F
330
1F
100
AcDbEntity
  8
LC-001-100-D00-0
 62
     7
370
    50
100
AcDbLine
 10
-70.076787
 20
490.002881
 30
0.0
 11
-70.076787
 21
479.002881
 31
0.0
  0
LINE
  5
330
330
1F
100
AcDbEntity
  8
LC-001-100-D00-0
 62
     7
370
    50
100
AcDbLine
 10
-70.076787
 20
490.002881
 30
0.0
 11
-62.276787
 21
490.002881
 31
0.0
  0
LINE
  5
331
330
1F
100
AcDbEntity
  8
LC-001-100-D00-0
 62
     7
370
    50
100
AcDbLine
 10
-72.527641
 20
479.002881
 30
0.0
 11
-72.527641
 21
477.002881
 31
0.0
  0
LINE
  5
332
330
1F
100
AcDbEntity
  8
LC-001-100-D00-0
 62
     7
370
    50
100
AcDbLine
 10
-72.527641
 20
473.00288
 30
0.0
 11
-72.527641
 21
471.002882
 31
0.0
  0
ARC
  5
333
330
1F
100
AcDbEntity
  8
LC-001-100-D00-0
 62
     7
370
    50
100
AcDbCircle
 10
-71.876787
 20
473.502881
 30
0.0
 40
0.5
100
AcDbArc
 50
270.0
 51
0.0
  0
LINE
  5
334
330
1F
100
AcDbEntity
  8
LC-001-100-D00-0
 62
     7
370
    50
100
AcDbLine
 10
-72.527641
 20
473.00288
 30
0.0
 11
-71.876787
 21
473.002881
 31
0.0
  0
LINE
  5
335
330
1F
100
AcDbEntity
  8
LC-001-100-D00-0
 62
     7
370
    50
100
AcDbLine
 10
-81.426793
 20
487.002881
 30
0.0
 11
-81.426787
 21
483.002881
 31
0.0
  0
LINE
  5
336
330
1F
100
AcDbEntity
  8
LC-001-100-D00-0
 62
     7
370
    50
100
AcDbLine
 10
-84.426784
 20
483.002881
 30
0.0
 11
-84.426787
 21
489.002881
 31
0.0
  0
ARC
  5
337
330
1F
100
AcDbEntity
  8
LC-001-100-D00-0
 62
     7
370
    50
100
AcDbCircle
 10
-83.426787
 20
489.002881
 30
0.0
 40
1.000000000000227
100
AcDbArc
 50
90.0
 51
180.0
  0
LINE
  5
338
330
1F
100
AcDbEntity
  8
LC-001-100-D00-0
 62
     7
370
    50
100
AcDbLine
 10
-71.876787
 20
477.002881
 30
0.0
 11
-72.527641
 21
477.002881
 31
0.0
  0
ARC
  5
339
330
1F
100
AcDbEntity
  8
LC-001-100-D00-0
 62
     7
370
    50
100
AcDbCircle
 10
-71.876787
 20
476.502881
 30
0.0
 40
0.5
100
AcDbArc
 50
0.0
 51
90.0
  0
LINE
  5
33A
330
1F
100
AcDbEntity
  8
LC-001-100-D00-0
 62
     7
370
    50
100
AcDbLine
 10
-70.076787
 20
479.002881
 30
0.0
 11
-72.527641
 21
479.002881
 31
0.0
  0
LINE
  5
33B
330
1F
100
AcDbEntity
  8
LC-001-100-D00-0
 62
     7
370
    50
100
AcDbLine
 10
-72.527641
 20
471.002882
 30
0.0
 11
-74.926787
 21
471.002881
 31
0.0
  0
LINE
  5
33C
330
1F
100
AcDbEntity
  8
LC-001-100-D00-0
 62
     7
370
    50
100
AcDbLine
 10
-81.426793
 20
487.002881
 30
0.0
 11
-76.926787
 21
487.002881
 31
0.0
  0
LINE
  5
33D
330
1F
100
AcDbEntity
  8
LC-001-100-D00-0
 62
     7
370
    50
100
AcDbLine
 10
-83.426787
 20
490.002881
 30
0.0
 11
-70.076787
 21
490.002881
 31
0.0
  0
LINE
  5
33E
330
1F
100
AcDbEntity
  8
LC-001-100-D00-0
 62
     7
370
    50
100
AcDbLine
 10
-84.426784
 20
483.002881
 30
0.0
 11
-81.426787
 21
483.002881
 31
0.0
  0
LINE
  5
33F
330
1F
100
AcDbEntity
  8
LC-001-100-D00-0
 62
     7
370
    50
100
AcDbLine
 10
-52.926787
 20
483.002881
 30
0.0
 11
-50.926787
 21
483.002881
 31
0.0
  0
LINE
  5
340
330
1F
100
AcDbEntity
  8
LC-001-100-D00-0
 62
     7
370
    50
100
AcDbLine
 10
-81.426787
 20
483.002881
 30
0.0
 11
-79.426787
 21
483.002881
 31
0.0
  0
LINE
  5
341
330
1F
100
AcDbEntity
  8
LC-001-100-D00-0
 62
     7
370
    50
100
AcDbLine
 10
-79.426787
 20
483.002881
 30
0.0
 11
-75.926789
 21
483.002881
 31
0.0
  0
LINE
  5
342
330
1F
100
AcDbEntity
  8
LC-001-100-D00-0
 62
     7
370
    50
100
AcDbLine
 10
-56.426787
 20
483.002881
 30
0.0
 11
-52.926787
 21
483.002881
 31
0.0
  0
LINE
  5
343
330
1F
100
AcDbEntity
  8
LC-001-100-D00-0
 62
     7
370
    50
100
AcDbLine
 10
-179.576778
 20
478.002881
 30
0.0
 11
-180.576795
 21
479.002881
 31
0.0
  0
LINE
  5
344
330
1F
100
AcDbEntity
  8
LC-001-100-D00-0
 62
     7
370
    50
100
AcDbLine
 10
-179.576778
 20
478.002881
 30
0.0
 11
-179.576787
 21
472.002881
 31
0.0
  0
LINE
  5
345
330
1F
100
AcDbEntity
  8
LC-001-100-D00-0
 62
     7
370
    50
100
AcDbLine
 10
-180.576787
 20
471.002881
 30
0.0
 11
-179.576787
 21
472.002881
 31
0.0
  0
LINE
  5
346
330
1F
100
AcDbEntity
  8
LC-001-100-D00-0
 62
     7
370
    50
100
AcDbLine
 10
-182.527655
 20
473.00288
 30
0.0
 11
-182.527655
 21
471.002882
 31
0.0
  0
LINE
  5
347
330
1F
100
AcDbEntity
  8
LC-001-100-D00-0
 62
     7
370
    50
100
AcDbLine
 10
-181.821496
 20
473.192092
 30
0.0
 11
-182.527655
 21
473.00288
 31
0.0
  0
ARC
  5
348
330
1F
100
AcDbEntity
  8
LC-001-100-D00-0
 62
     7
370
    50
100
AcDbCircle
 10
-181.976787
 20
473.771647
 30
0.0
 40
0.6000000000001032
100
AcDbArc
 50
285.0
 51
0.0
  0
LINE
  5
349
330
1F
100
AcDbEntity
  8
LC-001-100-D00-0
 62
     7
370
    50
100
AcDbLine
 10
-181.376787
 20
476.234115
 30
0.0
 11
-181.376787
 21
473.771647
 31
0.0
  0
ARC
  5
34A
330
1F
100
AcDbEntity
  8
LC-001-100-D00-0
 62
     7
370
    50
100
AcDbCircle
 10
-181.976787
 20
476.234115
 30
0.0
 40
0.6000000000001364
100
AcDbArc
 50
0.0
 51
75.0
  0
LINE
  5
34B
330
1F
100
AcDbEntity
  8
LC-001-100-D00-0
 62
     7
370
    50
100
AcDbLine
 10
-182.527655
 20
477.002881
 30
0.0
 11
-181.821496
 21
476.81367
 31
0.0
  0
LINE
  5
34C
330
1F
100
AcDbEntity
  8
LC-001-100-D00-0
 62
     7
370
    50
100
AcDbLine
 10
-182.527655
 20
479.002881
 30
0.0
 11
-182.527655
 21
477.002881
 31
0.0
  0
LINE
  5
34D
330
1F
100
AcDbEntity
  8
LC-001-100-D00-0
 62
     7
370
    50
100
AcDbLine
 10
-182.527655
 20
471.002882
 30
0.0
 11
-180.576787
 21
471.002881
 31
0.0
  0
LINE
  5
34E
330
1F
100
AcDbEntity
  8
LC-001-100-D00-0
 62
     7
370
    50
100
AcDbLine
 10
-182.527655
 20
479.002881
 30
0.0
 11
-180.576795
 21
479.002881
 31
0.0
  0
LINE
  5
34F
330
1F
100
AcDbEntity
  8
LC-001-100-D00-0
 62
     7
370
    50
100
AcDbLine
 10
-170.976787
 20
473.771647
 30
0.0
 11
-170.976787
 21
476.234115
 31
0.0
  0
ARC
  5
350
330
1F
100
AcDbEntity
  8
LC-001-100-D00-0
 62
     7
370
    50
100
AcDbCircle
 10
-170.376787
 20
473.771647
 30
0.0
 40
0.6000000000000227
100
AcDbArc
 50
180.0
 51
255.0
  0
LINE
  5
351
330
1F
100
AcDbEntity
  8
LC-001-100-D00-0
 62
     7
370
    50
100
AcDbLine
 10
-169.825935
 20
473.00288
 30
0.0
 11
-170.532079
 21
473.192092
 31
0.0
  0
LINE
  5
352
330
1F
100
AcDbEntity
  8
LC-001-100-D00-0
 62
     7
370
    50
100
AcDbLine
 10
-169.825935
 20
473.00288
 30
0.0
 11
-169.825935
 21
471.002882
 31
0.0
  0
LINE
  5
353
330
1F
100
AcDbEntity
  8
LC-001-100-D00-0
 62
     7
370
    50
100
AcDbLine
 10
-172.776787
 20
472.002881
 30
0.0
 11
-171.776787
 21
471.002881
 31
0.0
  0
LINE
  5
354
330
1F
100
AcDbEntity
  8
LC-001-100-D00-0
 62
     7
370
    50
100
AcDbLine
 10
-172.776787
 20
472.002881
 30
0.0
 11
-172.776782
 21
478.002881
 31
0.0
  0
LINE
  5
355
330
1F
100
AcDbEntity
  8
LC-001-100-D00-0
 62
     7
370
    50
100
AcDbLine
 10
-171.776795
 20
479.002881
 30
0.0
 11
-172.776782
 21
478.002881
 31
0.0
  0
LINE
  5
356
330
1F
100
AcDbEntity
  8
LC-001-100-D00-0
 62
     7
370
    50
100
AcDbLine
 10
-169.825935
 20
479.002881
 30
0.0
 11
-169.825935
 21
477.002881
 31
0.0
  0
LINE
  5
357
330
1F
100
AcDbEntity
  8
LC-001-100-D00-0
 62
     7
370
    50
100
AcDbLine
 10
-170.532079
 20
476.81367
 30
0.0
 11
-169.825935
 21
477.002881
 31
0.0
  0
ARC
  5
358
330
1F
100
AcDbEntity
  8
LC-001-100-D00-0
 62
     7
370
    50
100
AcDbCircle
 10
-170.376787
 20
476.234115
 30
0.0
 40
0.6000000000000886
100
AcDbArc
 50
105.0
 51
180.0
  0
LINE
  5
359
330
1F
100
AcDbEntity
  8
LC-001-100-D00-0
 62
     7
370
    50
100
AcDbLine
 10
-171.776787
 20
471.002881
 30
0.0
 11
-169.825935
 21
471.002882
 31
0.0
  0
LINE
  5
35A
330
1F
100
AcDbEntity
  8
LC-001-100-D00-0
 62
     7
370
    50
100
AcDbLine
 10
-171.776795
 20
479.002881
 30
0.0
 11
-169.825935
 21
479.002881
 31
0.0
  0
LINE
  5
35B
330
1F
100
AcDbEntity
  8
LC-001-100-D00-0
 62
     7
370
    50
100
AcDbLine
 10
-179.576787
 20
472.002881
 30
0.0
 11
-179.418948
 21
472.002881
 31
0.0
  0
LINE
  5
35C
330
1F
100
AcDbEntity
  8
LC-001-100-D00-0
 62
     7
370
    50
100
AcDbLine
 10
-172.934627
 20
472.002881
 30
0.0
 11
-172.776787
 21
472.002881
 31
0.0
  0
LINE
  5
35D
330
1F
100
AcDbEntity
  8
LC-001-100-D00-0
 62
     7
370
    50
100
AcDbLine
 10
-171.776787
 20
471.002881
 30
0.0
 11
-172.312569
 21
471.002881
 31
0.0
  0
LINE
  5
35E
330
1F
100
AcDbEntity
  8
LC-001-100-D00-0
 62
     7
370
    50
100
AcDbLine
 10
-180.041005
 20
471.002881
 30
0.0
 11
-180.576787
 21
471.002881
 31
0.0
  0
LINE
  5
35F
330
1F
100
AcDbEntity
  8
LC-001-100-D00-0
 62
     7
370
    50
100
AcDbLine
 10
-169.825935
 20
479.002881
 30
0.0
 11
-172.276789
 21
479.002881
 31
0.0
  0
LINE
  5
360
330
1F
100
AcDbEntity
  8
LC-001-100-D00-0
 62
     7
370
    50
100
AcDbLine
 10
-172.276789
 20
479.002881
 30
0.0
 11
-172.276787
 21
490.002881
 31
0.0
  0
LINE
  5
361
330
1F
100
AcDbEntity
  8
LC-001-100-D00-0
 62
     7
370
    50
100
AcDbLine
 10
-172.276787
 20
490.002881
 30
0.0
 11
-158.926787
 21
490.002881
 31
0.0
  0
ARC
  5
362
330
1F
100
AcDbEntity
  8
LC-001-100-D00-0
 62
     7
370
    50
100
AcDbCircle
 10
-158.926787
 20
489.002881
 30
0.0
 40
1.000000000000227
100
AcDbArc
 50
0.0
 51
90.0
  0
LINE
  5
363
330
1F
100
AcDbEntity
  8
LC-001-100-D00-0
 62
     7
370
    50
100
AcDbLine
 10
-157.926787
 20
489.002881
 30
0.0
 11
-157.926791
 21
483.002881
 31
0.0
  0
LINE
  5
364
330
1F
100
AcDbEntity
  8
LC-001-100-D00-0
 62
     7
370
    50
100
AcDbLine
 10
-160.926787
 20
483.002881
 30
0.0
 11
-157.926791
 21
483.002881
 31
0.0
  0
LINE
  5
365
330
1F
100
AcDbEntity
  8
LC-001-100-D00-0
 62
     7
370
    50
100
AcDbLine
 10
-160.926787
 20
483.002881
 30
0.0
 11
-160.926783
 21
487.002881
 31
0.0
  0
LINE
  5
366
330
1F
100
AcDbEntity
  8
LC-001-100-D00-0
 62
     7
370
    50
100
AcDbLine
 10
-165.426787
 20
487.002881
 30
0.0
 11
-160.926783
 21
487.002881
 31
0.0
  0
ARC
  5
367
330
1F
100
AcDbEntity
  8
LC-001-100-D00-0
 62
     7
370
    50
100
AcDbCircle
 10
-165.426787
 20
486.002881
 30
0.0
 40
1.000000000000227
100
AcDbArc
 50
90.0
 51
180.0
  0
LINE
  5
368
330
1F
100
AcDbEntity
  8
LC-001-100-D00-0
 62
     7
370
    50
100
AcDbLine
 10
-166.426787
 20
472.002881
 30
0.0
 11
-166.426787
 21
486.002881
 31
0.0
  0
ARC
  5
369
330
1F
100
AcDbEntity
  8
LC-001-100-D00-0
 62
     7
370
    50
100
AcDbCircle
 10
-167.426787
 20
472.002881
 30
0.0
 40
1.0
100
AcDbArc
 50
270.0
 51
0.0
  0
LINE
  5
36A
330
1F
100
AcDbEntity
  8
LC-001-100-D00-0
 62
     7
370
    50
100
AcDbLine
 10
-167.426787
 20
471.002881
 30
0.0
 11
-169.825935
 21
471.002882
 31
0.0
  0
LINE
  5
36B
330
1F
100
AcDbEntity
  8
LC-001-100-D00-0
 62
     7
370
    50
100
AcDbLine
 10
-169.825935
 20
473.00288
 30
0.0
 11
-169.825935
 21
471.002882
 31
0.0
  0
LINE
  5
36C
330
1F
100
AcDbEntity
  8
LC-001-100-D00-0
 62
     7
370
    50
100
AcDbLine
 10
-170.476787
 20
473.002881
 30
0.0
 11
-169.825935
 21
473.00288
 31
0.0
  0
ARC
  5
36D
330
1F
100
AcDbEntity
  8
LC-001-100-D00-0
 62
     7
370
    50
100
AcDbCircle
 10
-170.476787
 20
473.502881
 30
0.0
 40
0.5
100
AcDbArc
 50
180.0
 51
270.0
  0
LINE
  5
36E
330
1F
100
AcDbEntity
  8
LC-001-100-D00-0
 62
     7
370
    50
100
AcDbLine
 10
-170.976787
 20
476.502881
 30
0.0
 11
-170.976787
 21
473.502881
 31
0.0
  0
ARC
  5
36F
330
1F
100
AcDbEntity
  8
LC-001-100-D00-0
 62
     7
370
    50
100
AcDbCircle
 10
-170.476787
 20
476.502881
 30
0.0
 40
0.5
100
AcDbArc
 50
90.0
 51
180.0
  0
LINE
  5
370
330
1F
100
AcDbEntity
  8
LC-001-100-D00-0
 62
     7
370
    50
100
AcDbLine
 10
-169.825935
 20
477.002881
 30
0.0
 11
-170.476787
 21
477.002881
 31
0.0
  0
LINE
  5
371
330
1F
100
AcDbEntity
  8
LC-001-100-D00-0
 62
     7
370
    50
100
AcDbLine
 10
-169.825935
 20
479.002881
 30
0.0
 11
-169.825935
 21
477.002881
 31
0.0
  0
ARC
  5
372
330
1F
100
AcDbEntity
  8
LC-001-100-D00-0
 62
     7
370
    50
100
AcDbCircle
 10
-186.926787
 20
486.002881
 30
0.0
 40
1.000000000000114
100
AcDbArc
 50
0.0
 51
90.0
  0
ARC
  5
373
330
1F
100
AcDbEntity
  8
LC-001-100-D00-0
 62
     7
370
    50
100
AcDbCircle
 10
-184.926787
 20
472.002881
 30
0.0
 40
0.9999999999998863
100
AcDbArc
 50
180.0
 51
270.0
  0
LINE
  5
374
330
1F
100
AcDbEntity
  8
LC-001-100-D00-0
 62
     7
370
    50
100
AcDbLine
 10
-185.926787
 20
486.002881
 30
0.0
 11
-185.926787
 21
472.002881
 31
0.0
  0
LINE
  5
375
330
1F
100
AcDbEntity
  8
LC-001-100-D00-0
 62
     7
370
    50
100
AcDbLine
 10
-181.376787
 20
473.502881
 30
0.0
 11
-181.376787
 21
476.502881
 31
0.0
  0
LINE
  5
376
330
1F
100
AcDbEntity
  8
LC-001-100-D00-0
 62
     7
370
    50
100
AcDbLine
 10
-180.076787
 20
490.002881
 30
0.0
 11
-180.076801
 21
479.002881
 31
0.0
  0
LINE
  5
377
330
1F
100
AcDbEntity
  8
LC-001-100-D00-0
 62
     7
370
    50
100
AcDbLine
 10
-180.076787
 20
490.002881
 30
0.0
 11
-172.276787
 21
490.002881
 31
0.0
  0
LINE
  5
378
330
1F
100
AcDbEntity
  8
LC-001-100-D00-0
 62
     7
370
    50
100
AcDbLine
 10
-182.527655
 20
473.00288
 30
0.0
 11
-182.527655
 21
471.002882
 31
0.0
  0
LINE
  5
379
330
1F
100
AcDbEntity
  8
LC-001-100-D00-0
 62
     7
370
    50
100
AcDbLine
 10
-182.527655
 20
479.002881
 30
0.0
 11
-182.527655
 21
477.002881
 31
0.0
  0
ARC
  5
37A
330
1F
100
AcDbEntity
  8
LC-001-100-D00-0
 62
     7
370
    50
100
AcDbCircle
 10
-181.876787
 20
473.502881
 30
0.0
 40
0.5
100
AcDbArc
 50
270.0
 51
0.0
  0
LINE
  5
37B
330
1F
100
AcDbEntity
  8
LC-001-100-D00-0
 62
     7
370
    50
100
AcDbLine
 10
-182.527655
 20
473.00288
 30
0.0
 11
-181.876787
 21
473.002881
 31
0.0
  0
LINE
  5
37C
330
1F
100
AcDbEntity
  8
LC-001-100-D00-0
 62
     7
370
    50
100
AcDbLine
 10
-191.426777
 20
487.002881
 30
0.0
 11
-191.426787
 21
483.002881
 31
0.0
  0
LINE
  5
37D
330
1F
100
AcDbEntity
  8
LC-001-100-D00-0
 62
     7
370
    50
100
AcDbLine
 10
-194.426798
 20
483.002881
 30
0.0
 11
-194.426787
 21
489.002881
 31
0.0
  0
ARC
  5
37E
330
1F
100
AcDbEntity
  8
LC-001-100-D00-0
 62
     7
370
    50
100
AcDbCircle
 10
-193.426787
 20
489.002881
 30
0.0
 40
1.000000000000227
100
AcDbArc
 50
90.0
 51
180.0
  0
LINE
  5
37F
330
1F
100
AcDbEntity
  8
LC-001-100-D00-0
 62
     7
370
    50
100
AcDbLine
 10
-181.876787
 20
477.002881
 30
0.0
 11
-182.527655
 21
477.002881
 31
0.0
  0
ARC
  5
380
330
1F
100
AcDbEntity
  8
LC-001-100-D00-0
 62
     7
370
    50
100
AcDbCircle
 10
-181.876787
 20
476.502881
 30
0.0
 40
0.5000000000000568
100
AcDbArc
 50
0.0
 51
90.0
  0
LINE
  5
381
330
1F
100
AcDbEntity
  8
LC-001-100-D00-0
 62
     7
370
    50
100
AcDbLine
 10
-194.426798
 20
483.002881
 30
0.0
 11
-191.426787
 21
483.002881
 31
0.0
  0
LINE
  5
382
330
1F
100
AcDbEntity
  8
LC-001-100-D00-0
 62
     7
370
    50
100
AcDbLine
 10
-180.076801
 20
479.002881
 30
0.0
 11
-182.527655
 21
479.002881
 31
0.0
  0
LINE
  5
383
330
1F
100
AcDbEntity
  8
LC-001-100-D00-0
 62
     7
370
    50
100
AcDbLine
 10
-182.527655
 20
471.002882
 30
0.0
 11
-184.926787
 21
471.002881
 31
0.0
  0
LINE
  5
384
330
1F
100
AcDbEntity
  8
LC-001-100-D00-0
 62
     7
370
    50
100
AcDbLine
 10
-191.426777
 20
487.002881
 30
0.0
 11
-186.926787
 21
487.002881
 31
0.0
  0
LINE
  5
385
330
1F
100
AcDbEntity
  8
LC-001-100-D00-0
 62
     7
370
    50
100
AcDbLine
 10
-193.426787
 20
490.002881
 30
0.0
 11
-180.076787
 21
490.002881
 31
0.0
  0
LINE
  5
386
330
1F
100
AcDbEntity
  8
LC-001-100-D00-0
 62
     7
370
    50
100
AcDbLine
 10
-162.926787
 20
483.002881
 30
0.0
 11
-160.926787
 21
483.002881
 31
0.0
  0
LINE
  5
387
330
1F
100
AcDbEntity
  8
LC-001-100-D00-0
 62
     7
370
    50
100
AcDbLine
 10
-191.426787
 20
483.002881
 30
0.0
 11
-189.426787
 21
483.002881
 31
0.0
  0
LINE
  5
388
330
1F
100
AcDbEntity
  8
LC-001-100-D00-0
 62
     7
370
    50
100
AcDbLine
 10
-189.426787
 20
483.002881
 30
0.0
 11
-185.926789
 21
483.002881
 31
0.0
  0
LINE
  5
389
330
1F
100
AcDbEntity
  8
LC-001-100-D00-0
 62
     7
370
    50
100
AcDbLine
 10
-166.426801
 20
483.002881
 30
0.0
 11
-162.926787
 21
483.002881
 31
0.0
  0
LINE
  5
38A
330
1F
100
AcDbEntity
  8
LC-001-100-D00-0
 62
     7
370
    50
100
AcDbLine
 10
350.423208
 20
478.002881
 30
0.0
 11
349.423206
 21
479.002881
 31
0.0
  0
LINE
  5
38B
330
1F
100
AcDbEntity
  8
LC-001-100-D00-0
 62
     7
370
    50
100
AcDbLine
 10
350.423208
 20
478.002881
 30
0.0
 11
350.423213
 21
472.002881
 31
0.0
  0
LINE
  5
38C
330
1F
100
AcDbEntity
  8
LC-001-100-D00-0
 62
     7
370
    50
100
AcDbLine
 10
349.423213
 20
471.002881
 30
0.0
 11
350.423213
 21
472.002881
 31
0.0
  0
LINE
  5
38D
330
1F
100
AcDbEntity
  8
LC-001-100-D00-0
 62
     7
370
    50
100
AcDbLine
 10
347.472361
 20
473.00288
 30
0.0
 11
347.472361
 21
471.002882
 31
0.0
  0
LINE
  5
38E
330
1F
100
AcDbEntity
  8
LC-001-100-D00-0
 62
     7
370
    50
100
AcDbLine
 10
348.178504
 20
473.192092
 30
0.0
 11
347.472361
 21
473.00288
 31
0.0
  0
ARC
  5
38F
330
1F
100
AcDbEntity
  8
LC-001-100-D00-0
 62
     7
370
    50
100
AcDbCircle
 10
348.023213
 20
473.771647
 30
0.0
 40
0.600000000000118
100
AcDbArc
 50
285.0
 51
0.0
  0
LINE
  5
390
330
1F
100
AcDbEntity
  8
LC-001-100-D00-0
 62
     7
370
    50
100
AcDbLine
 10
348.623213
 20
476.234115
 30
0.0
 11
348.623213
 21
473.771647
 31
0.0
  0
ARC
  5
391
330
1F
100
AcDbEntity
  8
LC-001-100-D00-0
 62
     7
370
    50
100
AcDbCircle
 10
348.023213
 20
476.234115
 30
0.0
 40
0.6000000000001364
100
AcDbArc
 50
0.0
 51
75.0
  0
LINE
  5
392
330
1F
100
AcDbEntity
  8
LC-001-100-D00-0
 62
     7
370
    50
100
AcDbLine
 10
347.472361
 20
477.002881
 30
0.0
 11
348.178504
 21
476.81367
 31
0.0
  0
LINE
  5
393
330
1F
100
AcDbEntity
  8
LC-001-100-D00-0
 62
     7
370
    50
100
AcDbLine
 10
347.472361
 20
479.002881
 30
0.0
 11
347.472361
 21
477.002881
 31
0.0
  0
LINE
  5
394
330
1F
100
AcDbEntity
  8
LC-001-100-D00-0
 62
     7
370
    50
100
AcDbLine
 10
347.472361
 20
471.002882
 30
0.0
 11
349.423213
 21
471.002881
 31
0.0
  0
LINE
  5
395
330
1F
100
AcDbEntity
  8
LC-001-100-D00-0
 62
     7
370
    50
100
AcDbLine
 10
347.472361
 20
479.002881
 30
0.0
 11
349.423206
 21
479.002881
 31
0.0
  0
LINE
  5
396
330
1F
100
AcDbEntity
  8
LC-001-100-D00-0
 62
     7
370
    50
100
AcDbLine
 10
359.023213
 20
473.771647
 30
0.0
 11
359.023213
 21
476.234115
 31
0.0
  0
ARC
  5
397
330
1F
100
AcDbEntity
  8
LC-001-100-D00-0
 62
     7
370
    50
100
AcDbCircle
 10
359.623213
 20
473.771647
 30
0.0
 40
0.6000000000001364
100
AcDbArc
 50
180.0
 51
255.0
  0
LINE
  5
398
330
1F
100
AcDbEntity
  8
LC-001-100-D00-0
 62
     7
370
    50
100
AcDbLine
 10
360.174066
 20
473.00288
 30
0.0
 11
359.467921
 21
473.192092
 31
0.0
  0
LINE
  5
399
330
1F
100
AcDbEntity
  8
LC-001-100-D00-0
 62
     7
370
    50
100
AcDbLine
 10
360.174066
 20
473.00288
 30
0.0
 11
360.174066
 21
471.002882
 31
0.0
  0
LINE
  5
39A
330
1F
100
AcDbEntity
  8
LC-001-100-D00-0
 62
     7
370
    50
100
AcDbLine
 10
357.223213
 20
472.002881
 30
0.0
 11
358.223213
 21
471.002881
 31
0.0
  0
LINE
  5
39B
330
1F
100
AcDbEntity
  8
LC-001-100-D00-0
 62
     7
370
    50
100
AcDbLine
 10
357.223213
 20
472.002881
 30
0.0
 11
357.223219
 21
478.002881
 31
0.0
  0
LINE
  5
39C
330
1F
100
AcDbEntity
  8
LC-001-100-D00-0
 62
     7
370
    50
100
AcDbLine
 10
358.223206
 20
479.002881
 30
0.0
 11
357.223219
 21
478.002881
 31
0.0
  0
LINE
  5
39D
330
1F
100
AcDbEntity
  8
LC-001-100-D00-0
 62
     7
370
    50
100
AcDbLine
 10
360.174066
 20
479.002881
 30
0.0
 11
360.174066
 21
477.002881
 31
0.0
  0
LINE
  5
39E
330
1F
100
AcDbEntity
  8
LC-001-100-D00-0
 62
     7
370
    50
100
AcDbLine
 10
359.467921
 20
476.81367
 30
0.0
 11
360.174066
 21
477.002881
 31
0.0
  0
ARC
  5
39F
330
1F
100
AcDbEntity
  8
LC-001-100-D00-0
 62
     7
370
    50
100
AcDbCircle
 10
359.623213
 20
476.234115
 30
0.0
 40
0.6000000000001474
100
AcDbArc
 50
105.0
 51
180.0
  0
LINE
  5
3A0
330
1F
100
AcDbEntity
  8
LC-001-100-D00-0
 62
     7
370
    50
100
AcDbLine
 10
358.223213
 20
471.002881
 30
0.0
 11
360.174066
 21
471.002882
 31
0.0
  0
LINE
  5
3A1
330
1F
100
AcDbEntity
  8
LC-001-100-D00-0
 62
     7
370
    50
100
AcDbLine
 10
358.223206
 20
479.002881
 30
0.0
 11
360.174066
 21
479.002881
 31
0.0
  0
LINE
  5
3A2
330
1F
100
AcDbEntity
  8
LC-001-100-D00-0
 62
     7
370
    50
100
AcDbLine
 10
350.423213
 20
472.002881
 30
0.0
 11
350.581052
 21
472.002881
 31
0.0
  0
LINE
  5
3A3
330
1F
100
AcDbEntity
  8
LC-001-100-D00-0
 62
     7
370
    50
100
AcDbLine
 10
357.065373
 20
472.002881
 30
0.0
 11
357.223213
 21
472.002881
 31
0.0
  0
LINE
  5
3A4
330
1F
100
AcDbEntity
  8
LC-001-100-D00-0
 62
     7
370
    50
100
AcDbLine
 10
358.223213
 20
471.002881
 30
0.0
 11
357.687431
 21
471.002881
 31
0.0
  0
LINE
  5
3A5
330
1F
100
AcDbEntity
  8
LC-001-100-D00-0
 62
     7
370
    50
100
AcDbLine
 10
349.958995
 20
471.002881
 30
0.0
 11
349.423213
 21
471.002881
 31
0.0
  0
LINE
  5
3A6
330
1F
100
AcDbEntity
  8
LC-001-100-D00-0
 62
     7
370
    50
100
AcDbLine
 10
360.174066
 20
479.002881
 30
0.0
 11
357.723213
 21
479.002881
 31
0.0
  0
LINE
  5
3A7
330
1F
100
AcDbEntity
  8
LC-001-100-D00-0
 62
     7
370
    50
100
AcDbLine
 10
357.723213
 20
479.002881
 30
0.0
 11
357.723213
 21
490.002881
 31
0.0
  0
LINE
  5
3A8
330
1F
100
AcDbEntity
  8
LC-001-100-D00-0
 62
     7
370
    50
100
AcDbLine
 10
357.723213
 20
490.002881
 30
0.0
 11
371.073213
 21
490.002881
 31
0.0
  0
ARC
  5
3A9
330
1F
100
AcDbEntity
  8
LC-001-100-D00-0
 62
     7
370
    50
100
AcDbCircle
 10
371.073213
 20
489.002881
 30
0.0
 40
1.000000000000227
100
AcDbArc
 50
0.0
 51
90.0
  0
LINE
  5
3AA
330
1F
100
AcDbEntity
  8
LC-001-100-D00-0
 62
     7
370
    50
100
AcDbLine
 10
372.073213
 20
489.002881
 30
0.0
 11
372.07321
 21
483.002881
 31
0.0
  0
LINE
  5
3AB
330
1F
100
AcDbEntity
  8
LC-001-100-D00-0
 62
     7
370
    50
100
AcDbLine
 10
369.073213
 20
483.002881
 30
0.0
 11
372.07321
 21
483.002881
 31
0.0
  0
LINE
  5
3AC
330
1F
100
AcDbEntity
  8
LC-001-100-D00-0
 62
     7
370
    50
100
AcDbLine
 10
369.073213
 20
483.002881
 30
0.0
 11
369.073219
 21
487.002881
 31
0.0
  0
LINE
  5
3AD
330
1F
100
AcDbEntity
  8
LC-001-100-D00-0
 62
     7
370
    50
100
AcDbLine
 10
364.573213
 20
487.002881
 30
0.0
 11
369.073219
 21
487.002881
 31
0.0
  0
ARC
  5
3AE
330
1F
100
AcDbEntity
  8
LC-001-100-D00-0
 62
     7
370
    50
100
AcDbCircle
 10
364.573213
 20
486.002881
 30
0.0
 40
1.000000000000227
100
AcDbArc
 50
90.0
 51
180.0
  0
LINE
  5
3AF
330
1F
100
AcDbEntity
  8
LC-001-100-D00-0
 62
     7
370
    50
100
AcDbLine
 10
363.573213
 20
472.002881
 30
0.0
 11
363.573213
 21
486.002881
 31
0.0
  0
ARC
  5
3B0
330
1F
100
AcDbEntity
  8
LC-001-100-D00-0
 62
     7
370
    50
100
AcDbCircle
 10
362.573213
 20
472.002881
 30
0.0
 40
1.0
100
AcDbArc
 50
270.0
 51
0.0
  0
LINE
  5
3B1
330
1F
100
AcDbEntity
  8
LC-001-100-D00-0
 62
     7
370
    50
100
AcDbLine
 10
362.573213
 20
471.002881
 30
0.0
 11
360.174066
 21
471.002882
 31
0.0
  0
LINE
  5
3B2
330
1F
100
AcDbEntity
  8
LC-001-100-D00-0
 62
     7
370
    50
100
AcDbLine
 10
360.174066
 20
473.00288
 30
0.0
 11
360.174066
 21
471.002882
 31
0.0
  0
LINE
  5
3B3
330
1F
100
AcDbEntity
  8
LC-001-100-D00-0
 62
     7
370
    50
100
AcDbLine
 10
359.523213
 20
473.002881
 30
0.0
 11
360.174066
 21
473.00288
 31
0.0
  0
ARC
  5
3B4
330
1F
100
AcDbEntity
  8
LC-001-100-D00-0
 62
     7
370
    50
100
AcDbCircle
 10
359.523213
 20
473.502881
 30
0.0
 40
0.5
100
AcDbArc
 50
180.0
 51
270.0
  0
LINE
  5
3B5
330
1F
100
AcDbEntity
  8
LC-001-100-D00-0
 62
     7
370
    50
100
AcDbLine
 10
359.023213
 20
476.502881
 30
0.0
 11
359.023213
 21
473.502881
 31
0.0
  0
ARC
  5
3B6
330
1F
100
AcDbEntity
  8
LC-001-100-D00-0
 62
     7
370
    50
100
AcDbCircle
 10
359.523213
 20
476.502881
 30
0.0
 40
0.5
100
AcDbArc
 50
90.0
 51
180.0
  0
LINE
  5
3B7
330
1F
100
AcDbEntity
  8
LC-001-100-D00-0
 62
     7
370
    50
100
AcDbLine
 10
360.174066
 20
477.002881
 30
0.0
 11
359.523213
 21
477.002881
 31
0.0
  0
LINE
  5
3B8
330
1F
100
AcDbEntity
  8
LC-001-100-D00-0
 62
     7
370
    50
100
AcDbLine
 10
360.174066
 20
479.002881
 30
0.0
 11
360.174066
 21
477.002881
 31
0.0
  0
ARC
  5
3B9
330
1F
100
AcDbEntity
  8
LC-001-100-D00-0
 62
     7
370
    50
100
AcDbCircle
 10
343.073213
 20
486.002881
 30
0.0
 40
1.000000000000114
100
AcDbArc
 50
0.0
 51
90.0
  0
LINE
  5
3BA
330
1F
100
AcDbEntity
  8
LC-001-100-D00-0
 62
     7
370
    50
100
AcDbLine
 10
344.073213
 20
486.002881
 30
0.0
 11
344.073213
 21
472.002881
 31
0.0
  0
ARC
  5
3BB
330
1F
100
AcDbEntity
  8
LC-001-100-D00-0
 62
     7
370
    50
100
AcDbCircle
 10
345.073213
 20
472.002881
 30
0.0
 40
1.000000000000114
100
AcDbArc
 50
180.0
 51
270.0
  0
LINE
  5
3BC
330
1F
100
AcDbEntity
  8
LC-001-100-D00-0
 62
     7
370
    50
100
AcDbLine
 10
348.623213
 20
473.502881
 30
0.0
 11
348.623213
 21
476.502881
 31
0.0
  0
LINE
  5
3BD
330
1F
100
AcDbEntity
  8
LC-001-100-D00-0
 62
     7
370
    50
100
AcDbLine
 10
349.923213
 20
490.002881
 30
0.0
 11
349.923215
 21
479.002881
 31
0.0
  0
LINE
  5
3BE
330
1F
100
AcDbEntity
  8
LC-001-100-D00-0
 62
     7
370
    50
100
AcDbLine
 10
349.923213
 20
490.002881
 30
0.0
 11
357.723213
 21
490.002881
 31
0.0
  0
LINE
  5
3BF
330
1F
100
AcDbEntity
  8
LC-001-100-D00-0
 62
     7
370
    50
100
AcDbLine
 10
347.472361
 20
479.002881
 30
0.0
 11
347.472361
 21
477.002881
 31
0.0
  0
LINE
  5
3C0
330
1F
100
AcDbEntity
  8
LC-001-100-D00-0
 62
     7
370
    50
100
AcDbLine
 10
347.472361
 20
473.00288
 30
0.0
 11
347.472361
 21
471.002882
 31
0.0
  0
ARC
  5
3C1
330
1F
100
AcDbEntity
  8
LC-001-100-D00-0
 62
     7
370
    50
100
AcDbCircle
 10
348.123213
 20
473.502881
 30
0.0
 40
0.5
100
AcDbArc
 50
270.0
 51
0.0
  0
LINE
  5
3C2
330
1F
100
AcDbEntity
  8
LC-001-100-D00-0
 62
     7
370
    50
100
AcDbLine
 10
347.472361
 20
473.00288
 30
0.0
 11
348.123213
 21
473.002881
 31
0.0
  0
LINE
  5
3C3
330
1F
100
AcDbEntity
  8
LC-001-100-D00-0
 62
     7
370
    50
100
AcDbLine
 10
338.573209
 20
487.002881
 30
0.0
 11
338.573213
 21
483.002881
 31
0.0
  0
LINE
  5
3C4
330
1F
100
AcDbEntity
  8
LC-001-100-D00-0
 62
     7
370
    50
100
AcDbLine
 10
335.573218
 20
483.002881
 30
0.0
 11
335.573213
 21
489.002881
 31
0.0
  0
ARC
  5
3C5
330
1F
100
AcDbEntity
  8
LC-001-100-D00-0
 62
     7
370
    50
100
AcDbCircle
 10
336.573213
 20
489.002881
 30
0.0
 40
1.000000000000227
100
AcDbArc
 50
90.0
 51
180.0
  0
LINE
  5
3C6
330
1F
100
AcDbEntity
  8
LC-001-100-D00-0
 62
     7
370
    50
100
AcDbLine
 10
348.123213
 20
477.002881
 30
0.0
 11
347.472361
 21
477.002881
 31
0.0
  0
ARC
  5
3C7
330
1F
100
AcDbEntity
  8
LC-001-100-D00-0
 62
     7
370
    50
100
AcDbCircle
 10
348.123213
 20
476.502881
 30
0.0
 40
0.5
100
AcDbArc
 50
0.0
 51
90.0
  0
LINE
  5
3C8
330
1F
100
AcDbEntity
  8
LC-001-100-D00-0
 62
     7
370
    50
100
AcDbLine
 10
349.923215
 20
479.002881
 30
0.0
 11
347.472361
 21
479.002881
 31
0.0
  0
LINE
  5
3C9
330
1F
100
AcDbEntity
  8
LC-001-100-D00-0
 62
     7
370
    50
100
AcDbLine
 10
347.472361
 20
471.002882
 30
0.0
 11
345.073213
 21
471.002881
 31
0.0
  0
LINE
  5
3CA
330
1F
100
AcDbEntity
  8
LC-001-100-D00-0
 62
     7
370
    50
100
AcDbLine
 10
338.573209
 20
487.002881
 30
0.0
 11
343.073213
 21
487.002881
 31
0.0
  0
LINE
  5
3CB
330
1F
100
AcDbEntity
  8
LC-001-100-D00-0
 62
     7
370
    50
100
AcDbLine
 10
336.573213
 20
490.002881
 30
0.0
 11
349.923213
 21
490.002881
 31
0.0
  0
LINE
  5
3CC
330
1F
100
AcDbEntity
  8
LC-001-100-D00-0
 62
     7
370
    50
100
AcDbLine
 10
335.573218
 20
483.002881
 30
0.0
 11
338.573213
 21
483.002881
 31
0.0
  0
LINE
  5
3CD
330
1F
100
AcDbEntity
  8
LC-001-100-D00-0
 62
     7
370
    50
100
AcDbLine
 10
367.073213
 20
483.002881
 30
0.0
 11
369.073213
 21
483.002881
 31
0.0
  0
LINE
  5
3CE
330
1F
100
AcDbEntity
  8
LC-001-100-D00-0
 62
     7
370
    50
100
AcDbLine
 10
338.573213
 20
483.002881
 30
0.0
 11
340.573213
 21
483.002881
 31
0.0
  0
LINE
  5
3CF
330
1F
100
AcDbEntity
  8
LC-001-100-D00-0
 62
     7
370
    50
100
AcDbLine
 10
340.573213
 20
483.002881
 30
0.0
 11
344.073213
 21
483.002881
 31
0.0
  0
LINE
  5
3D0
330
1F
100
AcDbEntity
  8
LC-001-100-D00-0
 62
     7
370
    50
100
AcDbLine
 10
363.573215
 20
483.002881
 30
0.0
 11
367.073213
 21
483.002881
 31
0.0
  0
LINE
  5
3D1
330
1F
100
AcDbEntity
  8
LC-001-100-D00-0
 62
     7
370
    50
100
AcDbLine
 10
199.451349
 20
459.253578
 30
0.0
 11
202.458134
 21
459.921752
 31
0.0
  0
ARC
  5
3D2
330
1F
100
AcDbEntity
  8
LC-001-100-D00-0
 62
     7
370
    50
100
AcDbCircle
 10
199.38627
 20
459.546434
 30
0.0
 40
0.3000000000000399
100
AcDbArc
 50
131.633539
 51
282.528808
  0
LINE
  5
3D3
330
1F
100
AcDbEntity
  8
LC-001-100-D00-0
 62
     7
370
    50
100
AcDbLine
 10
202.539048
 20
462.75029
 30
0.0
 11
199.186961
 21
459.770657
 31
0.0
  0
ARC
  5
3D4
330
1F
100
AcDbEntity
  8
LC-001-100-D00-0
 62
     7
370
    50
100
AcDbCircle
 10
203.203412
 20
462.002881
 30
0.0
 40
1.0
100
AcDbArc
 50
90.0
 51
131.633539
  0
LINE
  5
3D5
330
1F
100
AcDbEntity
  8
LC-001-100-D00-0
 62
     7
370
    50
100
AcDbLine
 10
208.82321
 20
463.00288
 30
0.0
 11
208.82321
 21
459.002882
 31
0.0
  0
LINE
  5
3D6
330
1F
100
AcDbEntity
  8
LC-001-100-D00-0
 62
     7
370
    50
100
AcDbLine
 10
202.823213
 20
459.628896
 30
0.0
 11
202.823213
 21
459.002881
 31
0.0
  0
ARC
  5
3D7
330
1F
100
AcDbEntity
  8
LC-001-100-D00-0
 62
     7
370
    50
100
AcDbCircle
 10
202.523213
 20
459.628896
 30
0.0
 40
0.3000000000001819
100
AcDbArc
 50
0.0
 51
102.528808
  0
LINE
  5
3D8
330
1F
100
AcDbEntity
  8
LC-001-100-D00-0
 62
     7
370
    50
100
AcDbLine
 10
208.82321
 20
459.002882
 30
0.0
 11
202.823213
 21
459.002881
 31
0.0
  0
LINE
  5
3D9
330
1F
100
AcDbEntity
  8
LC-001-100-D00-0
 62
     7
370
    50
100
AcDbLine
 10
208.82321
 20
463.00288
 30
0.0
 11
203.203412
 21
463.002881
 31
0.0
  0
LINE
  5
3DA
330
1F
100
AcDbEntity
  8
LC-001-100-D00-0
 62
     7
370
    50
100
AcDbLine
 10
202.823213
 20
459.002881
 30
0.0
 11
200.623213
 21
459.002881
 31
0.0
  0
LINE
  5
3DB
330
1F
100
AcDbEntity
  8
LC-001-100-D00-0
 62
     7
370
    50
100
AcDbLine
 10
84.823213
 20
459.002881
 30
0.0
 11
84.823213
 21
459.628896
 31
0.0
  0
LINE
  5
3DC
330
1F
100
AcDbEntity
  8
LC-001-100-D00-0
 62
     7
370
    50
100
AcDbLine
 10
87.023213
 20
459.002881
 30
0.0
 11
84.823213
 21
459.002881
 31
0.0
  0
ARC
  5
3DD
330
1F
100
AcDbEntity
  8
LC-001-100-D00-0
 62
     7
370
    50
100
AcDbCircle
 10
85.123213
 20
459.628896
 30
0.0
 40
0.2999999999999615
100
AcDbArc
 50
77.471192
 51
180.0
  0
LINE
  5
3DE
330
1F
100
AcDbEntity
  8
LC-001-100-D00-0
 62
     7
370
    50
100
AcDbLine
 10
88.459465
 20
459.770657
 30
0.0
 11
85.107377
 21
462.75029
 31
0.0
  0
ARC
  5
3DF
330
1F
100
AcDbEntity
  8
LC-001-100-D00-0
 62
     7
370
    50
100
AcDbCircle
 10
84.443014
 20
462.002881
 30
0.0
 40
0.9999999999999945
100
AcDbArc
 50
48.366461
 51
90.0
  0
LINE
  5
3E0
330
1F
100
AcDbEntity
  8
LC-001-100-D00-0
 62
     7
370
    50
100
AcDbLine
 10
85.188292
 20
459.921752
 30
0.0
 11
88.195077
 21
459.253578
 31
0.0
  0
ARC
  5
3E1
330
1F
100
AcDbEntity
  8
LC-001-100-D00-0
 62
     7
370
    50
100
AcDbCircle
 10
88.260156
 20
459.546434
 30
0.0
 40
0.3000000000002575
100
AcDbArc
 50
257.471192
 51
48.366461
  0
LINE
  5
3E2
330
1F
100
AcDbEntity
  8
LC-001-100-D00-0
 62
     7
370
    50
100
AcDbLine
 10
78.823215
 20
459.002882
 30
0.0
 11
78.823215
 21
463.00288
 31
0.0
  0
LINE
  5
3E3
330
1F
100
AcDbEntity
  8
LC-001-100-D00-0
 62
     7
370
    50
100
AcDbLine
 10
84.823213
 20
459.002881
 30
0.0
 11
78.823215
 21
459.002882
 31
0.0
  0
LINE
  5
3E4
330
1F
100
AcDbEntity
  8
LC-001-100-D00-0
 62
     7
370
    50
100
AcDbLine
 10
84.443014
 20
463.002881
 30
0.0
 11
78.823215
 21
463.00288
 31
0.0
  0
LINE
  5
3E5
330
1F
100
AcDbEntity
  8
LC-001-100-D00-0
 62
     7
370
    50
100
AcDbLine
 10
217.823214
 20
463.00288
 30
0.0
 11
217.823214
 21
459.25288
 31
0.0
  0
LINE
  5
3E6
330
1F
100
AcDbEntity
  8
LC-001-100-D00-0
 62
     7
370
    50
100
AcDbLine
 10
214.823215
 20
460.002882
 30
0.0
 11
214.823213
 21
459.252881
 31
0.0
  0
LINE
  5
3E7
330
1F
100
AcDbEntity
  8
LC-001-100-D00-0
 62
     7
370
    50
100
AcDbLine
 10
211.823217
 20
460.002882
 30
0.0
 11
211.823217
 21
456.002879
 31
0.0
  0
LINE
  5
3E8
330
1F
100
AcDbEntity
  8
LC-001-100-D00-0
 62
     7
370
    50
100
AcDbLine
 10
205.823213
 20
456.002881
 30
0.0
 11
211.823217
 21
456.002879
 31
0.0
  0
LINE
  5
3E9
330
1F
100
AcDbEntity
  8
LC-001-100-D00-0
 62
     7
370
    50
100
AcDbLine
 10
205.823212
 20
459.002882
 30
0.0
 11
205.823213
 21
456.002881
 31
0.0
  0
LINE
  5
3EA
330
1F
100
AcDbEntity
  8
LC-001-100-D00-0
 62
     7
370
    50
100
AcDbLine
 10
208.82321
 20
459.002882
 30
0.0
 11
205.823212
 21
459.002882
 31
0.0
  0
LINE
  5
3EB
330
1F
100
AcDbEntity
  8
LC-001-100-D00-0
 62
     7
370
    50
100
AcDbLine
 10
208.82321
 20
459.002882
 30
0.0
 11
208.82321
 21
463.00288
 31
0.0
  0
LINE
  5
3EC
330
1F
100
AcDbEntity
  8
LC-001-100-D00-0
 62
     7
370
    50
100
AcDbLine
 10
211.823217
 20
460.002882
 30
0.0
 11
214.823215
 21
460.002882
 31
0.0
  0
LINE
  5
3ED
330
1F
100
AcDbEntity
  8
LC-001-100-D00-0
 62
     7
370
    50
100
AcDbLine
 10
214.823213
 20
459.252881
 30
0.0
 11
217.823214
 21
459.25288
 31
0.0
  0
LINE
  5
3EE
330
1F
100
AcDbEntity
  8
LC-001-100-D00-0
 62
     7
370
    50
100
AcDbLine
 10
217.823214
 20
463.00288
 30
0.0
 11
208.82321
 21
463.00288
 31
0.0
  0
LINE
  5
3EF
330
1F
100
AcDbEntity
  8
LC-001-100-D00-0
 62
     7
370
    50
100
AcDbLine
 10
211.823213
 20
459.252881
 30
0.0
 11
214.823213
 21
459.252881
 31
0.0
  0
LINE
  5
3F0
330
1F
100
AcDbEntity
  8
LC-001-100-D00-0
 62
     7
370
    50
100
AcDbLine
 10
198.923213
 20
456.002881
 30
0.0
 11
205.823213
 21
456.002881
 31
0.0
  0
LINE
  5
3F1
330
1F
100
AcDbEntity
  8
LC-001-100-D00-0
 62
     7
370
    50
100
AcDbLine
 10
81.823213
 20
456.002881
 30
0.0
 11
81.823214
 21
459.002882
 31
0.0
  0
LINE
  5
3F2
330
1F
100
AcDbEntity
  8
LC-001-100-D00-0
 62
     7
370
    50
100
AcDbLine
 10
81.823213
 20
456.002881
 30
0.0
 11
88.723213
 21
456.002881
 31
0.0
  0
LINE
  5
3F3
330
1F
100
AcDbEntity
  8
LC-001-100-D00-0
 62
     7
370
    50
100
AcDbLine
 10
78.823215
 20
463.00288
 30
0.0
 11
78.823215
 21
459.002882
 31
0.0
  0
LINE
  5
3F4
330
1F
100
AcDbEntity
  8
LC-001-100-D00-0
 62
     7
370
    50
100
AcDbLine
 10
75.823209
 20
456.002879
 30
0.0
 11
75.823209
 21
460.002882
 31
0.0
  0
LINE
  5
3F5
330
1F
100
AcDbEntity
  8
LC-001-100-D00-0
 62
     7
370
    50
100
AcDbLine
 10
72.823213
 20
459.252881
 30
0.0
 11
72.823211
 21
460.002882
 31
0.0
  0
LINE
  5
3F6
330
1F
100
AcDbEntity
  8
LC-001-100-D00-0
 62
     7
370
    50
100
AcDbLine
 10
72.823213
 20
459.252881
 30
0.0
 11
75.823213
 21
459.252881
 31
0.0
  0
LINE
  5
3F7
330
1F
100
AcDbEntity
  8
LC-001-100-D00-0
 62
     7
370
    50
100
AcDbLine
 10
69.823212
 20
459.25288
 30
0.0
 11
69.823212
 21
463.00288
 31
0.0
  0
LINE
  5
3F8
330
1F
100
AcDbEntity
  8
LC-001-100-D00-0
 62
     7
370
    50
100
AcDbLine
 10
81.823214
 20
459.002882
 30
0.0
 11
78.823215
 21
459.002882
 31
0.0
  0
LINE
  5
3F9
330
1F
100
AcDbEntity
  8
LC-001-100-D00-0
 62
     7
370
    50
100
AcDbLine
 10
75.823209
 20
456.002879
 30
0.0
 11
81.823213
 21
456.002881
 31
0.0
  0
LINE
  5
3FA
330
1F
100
AcDbEntity
  8
LC-001-100-D00-0
 62
     7
370
    50
100
AcDbLine
 10
72.823211
 20
460.002882
 30
0.0
 11
75.823209
 21
460.002882
 31
0.0
  0
LINE
  5
3FB
330
1F
100
AcDbEntity
  8
LC-001-100-D00-0
 62
     7
370
    50
100
AcDbLine
 10
69.823212
 20
459.25288
 30
0.0
 11
72.823213
 21
459.252881
 31
0.0
  0
LINE
  5
3FC
330
1F
100
AcDbEntity
  8
LC-001-100-D00-0
 62
     7
370
    50
100
AcDbLine
 10
78.823215
 20
463.00288
 30
0.0
 11
69.823212
 21
463.00288
 31
0.0
  0
LINE
  5
3FD
330
1F
100
AcDbEntity
  8
LC-001-100-D00-0
 62
     7
370
    50
100
AcDbLine
 10
217.823214
 20
458.502881
 30
0.0
 11
228.823214
 21
458.502881
 31
0.0
  0
LINE
  5
3FE
330
1F
100
AcDbEntity
  8
LC-001-100-D00-0
 62
     7
370
    50
100
AcDbLine
 10
228.823214
 20
406.502883
 30
0.0
 11
217.823214
 21
406.502883
 31
0.0
  0
LINE
  5
3FF
330
1F
100
AcDbEntity
  8
LC-001-100-D00-0
 62
     7
370
    50
100
AcDbLine
 10
217.823214
 20
459.25288
 30
0.0
 11
217.823214
 21
458.502881
 31
0.0
  0
INSERT
  5
410
330
1F
100
AcDbEntity
  8
LC-001-100-D00-0
 62
     7
370
    50
100
AcDbBlockReference
  2
KLON11
 10
0.0
 20
0.0
 30
0.0
  0
INSERT
  5
424
330
1F
100
AcDbEntity
  8
LC-001-100-D00-0
 62
     7
370
    50
100
AcDbBlockReference
  2
KLON12
 10
0.0
 20
0.0
 30
0.0
  0
LINE
  5
425
330
1F
100
AcDbEntity
  8
LC-001-100-D00-0
 62
     7
370
    50
100
AcDbLine
 10
214.823215
 20
455.502882
 30
0.0
 11
256.720399
 21
455.502881
 31
0.0
  0
LINE
  5
426
330
1F
100
AcDbEntity
  8
LC-001-100-D00-0
 62
     7
370
    50
100
AcDbLine
 10
256.720399
 20
409.502881
 30
0.0
 11
256.720399
 21
455.502881
 31
0.0
  0
LINE
  5
427
330
1F
100
AcDbEntity
  8
LC-001-100-D00-0
 62
     7
370
    50
100
AcDbLine
 10
256.720399
 20
409.502881
 30
0.0
 11
217.823214
 21
409.502882
 31
0.0
  0
INSERT
  5
42D
330
1F
100
AcDbEntity
  8
LC-001-100-D00-0
 62
     7
370
    50
100
AcDbBlockReference
  2
KLON13
 10
0.0
 20
0.0
 30
0.0
  0
LINE
  5
42E
330
1F
100
AcDbEntity
  8
LC-001-100-D00-0
 62
     7
370
    50
100
AcDbLine
 10
214.823213
 20
459.252881
 30
0.0
 11
211.823213
 21
459.252881
 31
0.0
  0
LINE
  5
42F
330
1F
100
AcDbEntity
  8
LC-001-100-D00-0
 62
     7
370
    50
100
AcDbLine
 10
214.823213
 20
459.252881
 30
0.0
 11
214.823215
 21
455.502882
 31
0.0
  0
LINE
  5
430
330
1F
100
AcDbEntity
  8
LC-001-100-D00-0
 62
     7
370
    50
100
AcDbLine
 10
204.823213
 20
406.502881
 30
0.0
 11
217.823214
 21
406.502883
 31
0.0
  0
ARC
  5
431
330
1F
100
AcDbEntity
  8
LC-001-100-D00-0
 62
     7
370
    50
100
AcDbCircle
 10
197.841093
 20
407.002881
 30
0.0
 40
7.000000000000227
100
AcDbArc
 50
270.0
 51
355.903956
  0
LINE
  5
432
330
1F
100
AcDbEntity
  8
LC-001-100-D00-0
 62
     7
370
    50
100
AcDbLine
 10
197.841093
 20
400.002881
 30
0.0
 11
89.805333
 21
400.002881
 31
0.0
  0
ARC
  5
433
330
1F
100
AcDbEntity
  8
LC-001-100-D00-0
 62
     7
370
    50
100
AcDbCircle
 10
89.805333
 20
407.002881
 30
0.0
 40
7.000000000000186
100
AcDbArc
 50
184.096044
 51
270.0
  0
LINE
  5
434
330
1F
100
AcDbEntity
  8
LC-001-100-D00-0
 62
     7
370
    50
100
AcDbLine
 10
82.323213
 20
406.502881
 30
0.0
 11
82.823213
 21
406.502881
 31
0.0
  0
ARC
  5
435
330
1F
100
AcDbEntity
  8
LC-001-100-D00-0
 62
     7
370
    50
100
AcDbCircle
 10
82.323213
 20
419.002881
 30
0.0
 40
12.5
100
AcDbArc
 50
180.0
 51
270.0
  0
LINE
  5
436
330
1F
100
AcDbEntity
  8
LC-001-100-D00-0
 62
     7
370
    50
100
AcDbLine
 10
69.823213
 20
419.002881
 30
0.0
 11
69.823212
 21
459.25288
 31
0.0
  0
LINE
  5
437
330
1F
100
AcDbEntity
  8
LC-001-100-D00-0
 62
     7
370
    50
100
AcDbLine
 10
69.823212
 20
459.25288
 30
0.0
 11
72.823213
 21
459.252881
 31
0.0
  0
LINE
  5
438
330
1F
100
AcDbEntity
  8
LC-001-100-D00-0
 62
     7
370
    50
100
AcDbLine
 10
72.823213
 20
419.002881
 30
0.0
 11
72.823213
 21
459.252881
 31
0.0
  0
ARC
  5
439
330
1F
100
AcDbEntity
  8
LC-001-100-D00-0
 62
     7
370
    50
100
AcDbCircle
 10
82.323213
 20
419.002881
 30
0.0
 40
9.5
100
AcDbArc
 50
180.0
 51
270.0
  0
LINE
  5
43A
330
1F
100
AcDbEntity
  8
LC-001-100-D00-0
 62
     7
370
    50
100
AcDbLine
 10
82.323213
 20
409.502881
 30
0.0
 11
84.823213
 21
409.502881
 31
0.0
  0
ARC
  5
43B
330
1F
100
AcDbEntity
  8
LC-001-100-D00-0
 62
     7
370
    50
100
AcDbCircle
 10
84.823213
 20
408.502881
 30
0.0
 40
1.000000000000114
100
AcDbArc
 50
0.0
 51
90.0
  0
LINE
  5
43C
330
1F
100
AcDbEntity
  8
LC-001-100-D00-0
 62
     7
370
    50
100
AcDbLine
 10
85.823213
 20
408.502881
 30
0.0
 11
85.823213
 21
407.002881
 31
0.0
  0
ARC
  5
43D
330
1F
100
AcDbEntity
  8
LC-001-100-D00-0
 62
     7
370
    50
100
AcDbCircle
 10
89.823213
 20
407.002881
 30
0.0
 40
4.000000000000227
100
AcDbArc
 50
180.0
 51
270.0
  0
LINE
  5
43E
330
1F
100
AcDbEntity
  8
LC-001-100-D00-0
 62
     7
370
    50
100
AcDbLine
 10
197.823213
 20
403.002881
 30
0.0
 11
89.823213
 21
403.002881
 31
0.0
  0
ARC
  5
43F
330
1F
100
AcDbEntity
  8
LC-001-100-D00-0
 62
     7
370
    50
100
AcDbCircle
 10
197.823213
 20
407.002881
 30
0.0
 40
4.000000000000227
100
AcDbArc
 50
270.0
 51
0.0
  0
LINE
  5
440
330
1F
100
AcDbEntity
  8
LC-001-100-D00-0
 62
     7
370
    50
100
AcDbLine
 10
201.823213
 20
407.002881
 30
0.0
 11
201.823213
 21
408.502881
 31
0.0
  0
ARC
  5
441
330
1F
100
AcDbEntity
  8
LC-001-100-D00-0
 62
     7
370
    50
100
AcDbCircle
 10
202.823213
 20
408.502881
 30
0.0
 40
1.000000000000227
100
AcDbArc
 50
90.0
 51
180.0
  0
LINE
  5
442
330
1F
100
AcDbEntity
  8
LC-001-100-D00-0
 62
     7
370
    50
100
AcDbLine
 10
202.823213
 20
409.502881
 30
0.0
 11
217.823214
 21
409.502882
 31
0.0
  0
LINE
  5
443
330
1F
100
AcDbEntity
  8
LC-001-100-D00-0
 62
     7
370
    50
100
AcDbLine
 10
262.320399
 20
408.002366
 30
0.0
 11
256.720399
 21
409.502881
 31
0.0
  0
LINE
  5
444
330
1F
100
AcDbEntity
  8
LC-001-100-D00-0
 62
     7
370
    50
100
AcDbLine
 10
262.320399
 20
407.568626
 30
0.0
 11
262.320399
 21
408.002366
 31
0.0
  0
ARC
  5
445
330
1F
100
AcDbEntity
  8
LC-001-100-D00-0
 62
     7
370
    50
100
AcDbCircle
 10
261.820441
 20
407.568626
 30
0.0
 40
0.4999578796799692
100
AcDbArc
 50
301.198872
 51
0.0
  0
ARC
  5
446
330
1F
100
AcDbEntity
  8
LC-001-100-D00-0
 62
     7
370
    50
100
AcDbCircle
 10
246.721716
 20
432.500691
 30
0.0
 40
29.64750216706084
100
AcDbArc
 50
292.382556
 51
301.198872
  0
ARC
  5
447
330
1F
100
AcDbEntity
  8
LC-001-100-D00-0
 62
     7
370
    50
100
AcDbCircle
 10
257.820777
 20
405.549064
 30
0.0
 40
0.4999578796800961
100
AcDbArc
 50
180.0
 51
292.382556
  0
LINE
  5
448
330
1F
100
AcDbEntity
  8
LC-001-100-D00-0
 62
     7
370
    50
100
AcDbLine
 10
257.320819
 20
406.852923
 30
0.0
 11
257.320819
 21
405.549064
 31
0.0
  0
ARC
  5
449
330
1F
100
AcDbEntity
  8
LC-001-100-D00-0
 62
     7
370
    50
100
AcDbCircle
 10
256.820861
 20
406.852923
 30
0.0
 40
0.4999578796798687
100
AcDbArc
 50
0.0
 51
90.0
  0
LINE
  5
44A
330
1F
100
AcDbEntity
  8
LC-001-100-D00-0
 62
     7
370
    50
100
AcDbLine
 10
253.321156
 20
407.352881
 30
0.0
 11
256.820861
 21
407.352881
 31
0.0
  0
ARC
  5
44B
330
1F
100
AcDbEntity
  8
LC-001-100-D00-0
 62
     7
370
    50
100
AcDbCircle
 10
253.321156
 20
406.852923
 30
0.0
 40
0.4999578796798687
100
AcDbArc
 50
90.0
 51
180.0
  0
LINE
  5
44C
330
1F
100
AcDbEntity
  8
LC-001-100-D00-0
 62
     7
370
    50
100
AcDbLine
 10
252.821198
 20
403.896062
 30
0.0
 11
252.821198
 21
406.852923
 31
0.0
  0
ARC
  5
44D
330
1F
100
AcDbEntity
  8
LC-001-100-D00-0
 62
     7
370
    50
100
AcDbCircle
 10
252.32124
 20
403.896062
 30
0.0
 40
0.4999578796801155
100
AcDbArc
 50
281.075925
 51
0.0
  0
ARC
  5
44E
330
1F
100
AcDbEntity
  8
LC-001-100-D00-0
 62
     7
370
    50
100
AcDbCircle
 10
246.721716
 20
432.500691
 30
0.0
 40
29.64750432250012
100
AcDbArc
 50
241.270296
 51
281.075925
  0
LINE
  5
44F
330
1F
100
AcDbEntity
  8
LC-001-100-D00-0
 62
     7
370
    50
100
AcDbLine
 10
231.32301
 20
406.502883
 30
0.0
 11
232.470808
 21
406.502881
 31
0.0
  0
LINE
  5
450
330
1F
100
AcDbEntity
  8
LC-001-100-D00-0
 62
     7
370
    50
100
AcDbLine
 10
231.32301
 20
405.00288
 30
0.0
 11
231.32301
 21
406.502883
 31
0.0
  0
LINE
  5
451
330
1F
100
AcDbEntity
  8
LC-001-100-D00-0
 62
     7
370
    50
100
AcDbLine
 10
228.823214
 20
405.00288
 30
0.0
 11
231.32301
 21
405.00288
 31
0.0
  0
LINE
  5
452
330
1F
100
AcDbEntity
  8
LC-001-100-D00-0
 62
     7
370
    50
100
AcDbLine
 10
228.823214
 20
406.502883
 30
0.0
 11
228.823214
 21
405.00288
 31
0.0
  0
ARC
  5
453
330
1F
100
AcDbEntity
  8
LC-001-100-D00-0
 62
     7
370
    50
100
AcDbCircle
 10
246.721716
 20
432.505071
 30
0.0
 40
29.64750216706056
100
AcDbArc
 50
58.801128
 51
67.617444
  0
ARC
  5
454
330
1F
100
AcDbEntity
  8
LC-001-100-D00-0
 62
     7
370
    50
100
AcDbCircle
 10
261.820441
 20
457.437136
 30
0.0
 40
0.4999578796798687
100
AcDbArc
 50
0.0
 51
58.801128
  0
ARC
  5
455
330
1F
100
AcDbEntity
  8
LC-001-100-D00-0
 62
     7
370
    50
100
AcDbCircle
 10
256.820861
 20
458.152839
 30
0.0
 40
0.4999578796798687
100
AcDbArc
 50
270.0
 51
0.0
  0
LINE
  5
456
330
1F
100
AcDbEntity
  8
LC-001-100-D00-0
 62
     7
370
    50
100
AcDbLine
 10
257.320819
 20
459.456698
 30
0.0
 11
257.320819
 21
458.152839
 31
0.0
  0
ARC
  5
457
330
1F
100
AcDbEntity
  8
LC-001-100-D00-0
 62
     7
370
    50
100
AcDbCircle
 10
257.820777
 20
459.456698
 30
0.0
 40
0.4999578796801971
100
AcDbArc
 50
67.617444
 51
180.0
  0
LINE
  5
458
330
1F
100
AcDbEntity
  8
LC-001-100-D00-0
 62
     7
370
    50
100
AcDbLine
 10
262.320399
 20
457.003397
 30
0.0
 11
262.320399
 21
457.437136
 31
0.0
  0
LINE
  5
459
330
1F
100
AcDbEntity
  8
LC-001-100-D00-0
 62
     7
370
    50
100
AcDbLine
 10
256.720399
 20
455.502881
 30
0.0
 11
262.320399
 21
457.003397
 31
0.0
  0
LINE
  5
45A
330
1F
100
AcDbEntity
  8
LC-001-100-D00-0
 62
     7
370
    50
100
AcDbLine
 10
214.823213
 20
459.252881
 30
0.0
 11
217.823214
 21
459.25288
 31
0.0
  0
LINE
  5
45B
330
1F
100
AcDbEntity
  8
LC-001-100-D00-0
 62
     7
370
    50
100
AcDbLine
 10
228.823214
 20
460.002882
 30
0.0
 11
228.823214
 21
458.502881
 31
0.0
  0
LINE
  5
45C
330
1F
100
AcDbEntity
  8
LC-001-100-D00-0
 62
     7
370
    50
100
AcDbLine
 10
231.32301
 20
460.002881
 30
0.0
 11
228.823214
 21
460.002882
 31
0.0
  0
ARC
  5
45D
330
1F
100
AcDbEntity
  8
LC-001-100-D00-0
 62
     7
370
    50
100
AcDbCircle
 10
246.685301
 20
432.502881
 30
0.0
 40
31.5000000000002
100
AcDbArc
 50
105.394857
 51
119.188982
  0
LINE
  5
45E
330
1F
100
AcDbEntity
  8
LC-001-100-D00-0
 62
     7
370
    50
100
AcDbLine
 10
238.32301
 20
462.872637
 30
0.0
 11
238.32301
 21
460.938084
 31
0.0
  0
ARC
  5
45F
330
1F
100
AcDbEntity
  8
LC-001-100-D00-0
 62
     7
370
    50
100
AcDbCircle
 10
246.721716
 20
432.505071
 30
0.0
 40
29.64750432250008
100
AcDbArc
 50
78.924075
 51
106.456389
  0
ARC
  5
460
330
1F
100
AcDbEntity
  8
LC-001-100-D00-0
 62
     7
370
    50
100
AcDbCircle
 10
252.32124
 20
461.1097
 30
0.0
 40
0.4999578796799824
100
AcDbArc
 50
0.0
 51
78.924075
  0
LINE
  5
461
330
1F
100
AcDbEntity
  8
LC-001-100-D00-0
 62
     7
370
    50
100
AcDbLine
 10
252.821198
 20
458.152839
 30
0.0
 11
252.821198
 21
461.1097
 31
0.0
  0
ARC
  5
462
330
1F
100
AcDbEntity
  8
LC-001-100-D00-0
 62
     7
370
    50
100
AcDbCircle
 10
253.321156
 20
458.152839
 30
0.0
 40
0.4999578796798687
100
AcDbArc
 50
180.0
 51
270.0
  0
LINE
  5
463
330
1F
100
AcDbEntity
  8
LC-001-100-D00-0
 62
     7
370
    50
100
AcDbLine
 10
256.820861
 20
457.652881
 30
0.0
 11
253.321156
 21
457.652881
 31
0.0
  0
LINE
  5
464
330
1F
100
AcDbEntity
  8
LC-001-100-D00-0
 62
     7
370
    50
100
AcDbLine
 10
262.320399
 20
457.003397
 30
0.0
 11
262.320399
 21
408.002366
 31
0.0
  0
LINE
  5
465
330
1F
100
AcDbEntity
  8
LC-001-100-D00-0
 62
     7
370
    50
100
AcDbLine
 10
188.256833
 20
409.502881
 30
0.0
 11
202.823213
 21
409.502881
 31
0.0
  0
LINE
  5
466
330
1F
100
AcDbEntity
  8
LC-001-100-D00-0
 62
     7
370
    50
100
AcDbLine
 10
84.823213
 20
409.502881
 30
0.0
 11
99.389593
 21
409.502881
 31
0.0
  0
LINE
  5
467
330
1F
100
AcDbEntity
  8
LC-001-100-D00-0
 62
     7
370
    50
100
AcDbLine
 10
75.823213
 20
459.252881
 30
0.0
 11
72.823213
 21
459.252881
 31
0.0
  0
LINE
  5
468
330
1F
100
AcDbEntity
  8
LC-001-100-D00-0
 62
     7
370
    50
100
AcDbLine
 10
185.812338
 20
409.502881
 30
0.0
 11
188.256833
 21
409.502881
 31
0.0
  0
LINE
  5
469
330
1F
100
AcDbEntity
  8
LC-001-100-D00-0
 62
     7
370
    50
100
AcDbLine
 10
99.389593
 20
409.502881
 30
0.0
 11
101.834088
 21
409.502881
 31
0.0
  0
LINE
  5
46A
330
1F
100
AcDbEntity
  8
LC-001-100-D00-0
 62
     7
370
    50
100
AcDbLine
 10
101.834088
 20
409.502881
 30
0.0
 11
102.823212
 21
409.502882
 31
0.0
  0
LINE
  5
46B
330
1F
100
AcDbEntity
  8
LC-001-100-D00-0
 62
     7
370
    50
100
AcDbLine
 10
184.823214
 20
409.502882
 30
0.0
 11
185.812338
 21
409.502881
 31
0.0
  0
CIRCLE
  5
46C
330
1F
100
AcDbEntity
  8
LC-001-100-D00-0
 62
     7
370
    50
100
AcDbCircle
 10
198.073213
 20
460.752881
 30
0.0
 40
1.75
  0
CIRCLE
  5
46D
330
1F
100
AcDbEntity
  8
LC-001-100-D00-0
 62
     7
370
    50
100
AcDbCircle
 10
89.573213
 20
460.752881
 30
0.0
 40
1.75
  0
LINE
  5
46E
330
1F
100
AcDbEntity
  8
LC-001-100-D00-0
 62
     7
370
    50
100
AcDbLine
 10
198.323212
 20
462.502881
 30
0.0
 11
198.323212
 21
464.00288
 31
0.0
  0
LINE
  5
46F
330
1F
100
AcDbEntity
  8
LC-001-100-D00-0
 62
     7
370
    50
100
AcDbLine
 10
196.323211
 20
462.502881
 30
0.0
 11
198.323212
 21
462.502881
 31
0.0
  0
LINE
  5
470
330
1F
100
AcDbEntity
  8
LC-001-100-D00-0
 62
     7
370
    50
100
AcDbLine
 10
196.323211
 20
462.502881
 30
0.0
 11
196.323211
 21
459.002882
 31
0.0
  0
LINE
  5
471
330
1F
100
AcDbEntity
  8
LC-001-100-D00-0
 62
     7
370
    50
100
AcDbLine
 10
196.323211
 20
459.002882
 30
0.0
 11
198.323212
 21
459.002882
 31
0.0
  0
LINE
  5
472
330
1F
100
AcDbEntity
  8
LC-001-100-D00-0
 62
     7
370
    50
100
AcDbLine
 10
198.323212
 20
459.002882
 30
0.0
 11
198.323212
 21
458.00288
 31
0.0
  0
LINE
  5
473
330
1F
100
AcDbEntity
  8
LC-001-100-D00-0
 62
     7
370
    50
100
AcDbLine
 10
182.823213
 20
458.002881
 30
0.0
 11
198.323212
 21
458.00288
 31
0.0
  0
ARC
  5
474
330
1F
100
AcDbEntity
  8
LC-001-100-D00-0
 62
     7
370
    50
100
AcDbCircle
 10
182.823213
 20
448.002881
 30
0.0
 40
10.0
100
AcDbArc
 50
90.0
 51
180.0
  0
LINE
  5
475
330
1F
100
AcDbEntity
  8
LC-001-100-D00-0
 62
     7
370
    50
100
AcDbLine
 10
172.823213
 20
448.002881
 30
0.0
 11
172.823212
 21
418.502878
 31
0.0
  0
LINE
  5
476
330
1F
100
AcDbEntity
  8
LC-001-100-D00-0
 62
     7
370
    50
100
AcDbLine
 10
171.323213
 20
418.502881
 30
0.0
 11
172.823212
 21
418.502878
 31
0.0
  0
LINE
  5
477
330
1F
100
AcDbEntity
  8
LC-001-100-D00-0
 62
     7
370
    50
100
AcDbLine
 10
171.323213
 20
462.002881
 30
0.0
 11
171.323213
 21
418.502881
 31
0.0
  0
ARC
  5
478
330
1F
100
AcDbEntity
  8
LC-001-100-D00-0
 62
     7
370
    50
100
AcDbCircle
 10
173.323213
 20
462.002881
 30
0.0
 40
2.0
100
AcDbArc
 50
90.0
 51
180.0
  0
LINE
  5
479
330
1F
100
AcDbEntity
  8
LC-001-100-D00-0
 62
     7
370
    50
100
AcDbLine
 10
173.323213
 20
464.002881
 30
0.0
 11
198.323212
 21
464.00288
 31
0.0
  0
LINE
  5
47A
330
1F
100
AcDbEntity
  8
LC-001-100-D00-0
 62
     7
370
    50
100
AcDbLine
 10
155.323213
 20
464.002881
 30
0.0
 11
173.323213
 21
464.002881
 31
0.0
  0
LINE
  5
47B
330
1F
100
AcDbEntity
  8
LC-001-100-D00-0
 62
     7
370
    50
100
AcDbLine
 10
155.323213
 20
418.502881
 30
0.0
 11
171.323213
 21
418.502881
 31
0.0
  0
LINE
  5
47C
330
1F
100
AcDbEntity
  8
LC-001-100-D00-0
 62
     7
370
    50
100
AcDbLine
 10
114.823214
 20
418.502878
 30
0.0
 11
114.823213
 21
448.002881
 31
0.0
  0
ARC
  5
47D
330
1F
100
AcDbEntity
  8
LC-001-100-D00-0
 62
     7
370
    50
100
AcDbCircle
 10
114.323213
 20
462.002881
 30
0.0
 40
2.0
100
AcDbArc
 50
0.0
 51
90.0
  0
LINE
  5
47E
330
1F
100
AcDbEntity
  8
LC-001-100-D00-0
 62
     7
370
    50
100
AcDbLine
 10
114.323213
 20
464.002881
 30
0.0
 11
132.323213
 21
464.002881
 31
0.0
  0
LINE
  5
47F
330
1F
100
AcDbEntity
  8
LC-001-100-D00-0
 62
     7
370
    50
100
AcDbLine
 10
116.323213
 20
418.502881
 30
0.0
 11
116.323213
 21
462.002881
 31
0.0
  0
LINE
  5
480
330
1F
100
AcDbEntity
  8
LC-001-100-D00-0
 62
     7
370
    50
100
AcDbLine
 10
116.323213
 20
418.502881
 30
0.0
 11
132.323213
 21
418.502881
 31
0.0
  0
ARC
  5
481
330
1F
100
AcDbEntity
  8
LC-001-100-D00-0
 62
     7
370
    50
100
AcDbCircle
 10
104.823213
 20
448.002881
 30
0.0
 40
10.0
100
AcDbArc
 50
0.0
 51
90.0
  0
LINE
  5
482
330
1F
100
AcDbEntity
  8
LC-001-100-D00-0
 62
     7
370
    50
100
AcDbLine
 10
89.323214
 20
458.00288
 30
0.0
 11
89.323214
 21
459.002882
 31
0.0
  0
LINE
  5
483
330
1F
100
AcDbEntity
  8
LC-001-100-D00-0
 62
     7
370
    50
100
AcDbLine
 10
91.323214
 20
459.002882
 30
0.0
 11
91.323214
 21
462.502881
 31
0.0
  0
LINE
  5
484
330
1F
100
AcDbEntity
  8
LC-001-100-D00-0
 62
     7
370
    50
100
AcDbLine
 10
89.323214
 20
464.00288
 30
0.0
 11
89.323214
 21
462.502881
 31
0.0
  0
LINE
  5
485
330
1F
100
AcDbEntity
  8
LC-001-100-D00-0
 62
     7
370
    50
100
AcDbLine
 10
114.823214
 20
418.502878
 30
0.0
 11
116.323213
 21
418.502881
 31
0.0
  0
LINE
  5
486
330
1F
100
AcDbEntity
  8
LC-001-100-D00-0
 62
     7
370
    50
100
AcDbLine
 10
89.323214
 20
459.002882
 30
0.0
 11
91.323214
 21
459.002882
 31
0.0
  0
LINE
  5
487
330
1F
100
AcDbEntity
  8
LC-001-100-D00-0
 62
     7
370
    50
100
AcDbLine
 10
89.323214
 20
462.502881
 30
0.0
 11
91.323214
 21
462.502881
 31
0.0
  0
LINE
  5
488
330
1F
100
AcDbEntity
  8
LC-001-100-D00-0
 62
     7
370
    50
100
AcDbLine
 10
89.323214
 20
464.00288
 30
0.0
 11
114.323213
 21
464.002881
 31
0.0
  0
LINE
  5
489
330
1F
100
AcDbEntity
  8
LC-001-100-D00-0
 62
     7
370
    50
100
AcDbLine
 10
89.323214
 20
458.00288
 30
0.0
 11
104.823213
 21
458.002881
 31
0.0
  0
LINE
  5
48A
330
1F
100
AcDbEntity
  8
LC-001-100-D00-0
 62
     7
370
    50
100
AcDbLine
 10
132.323213
 20
418.502881
 30
0.0
 11
155.323213
 21
418.502881
 31
0.0
  0
LINE
  5
48B
330
1F
100
AcDbEntity
  8
LC-001-100-D00-0
 62
     7
370
    50
100
AcDbLine
 10
132.323213
 20
464.002881
 30
0.0
 11
155.323213
 21
464.002881
 31
0.0
  0
LINE
  5
48C
330
1F
100
AcDbEntity
  8
LC-001-100-D00-0
 62
     7
370
    50
100
AcDbLine
 10
184.823214
 20
448.502883
 30
0.0
 11
194.758898
 21
455.808532
 31
0.0
  0
LINE
  5
48D
330
1F
100
AcDbEntity
  8
LC-001-100-D00-0
 62
     7
370
    50
100
AcDbLine
 10
184.823214
 20
448.502883
 30
0.0
 11
184.823213
 21
407.502881
 31
0.0
  0
ARC
  5
48E
330
1F
100
AcDbEntity
  8
LC-001-100-D00-0
 62
     7
370
    50
100
AcDbCircle
 10
179.823213
 20
407.502881
 30
0.0
 40
5.0
100
AcDbArc
 50
270.0
 51
0.0
  0
LINE
  5
48F
330
1F
100
AcDbEntity
  8
LC-001-100-D00-0
 62
     7
370
    50
100
AcDbLine
 10
179.823213
 20
402.502881
 30
0.0
 11
107.823213
 21
402.502881
 31
0.0
  0
ARC
  5
490
330
1F
100
AcDbEntity
  8
LC-001-100-D00-0
 62
     7
370
    50
100
AcDbCircle
 10
107.823213
 20
407.502881
 30
0.0
 40
5.0
100
AcDbArc
 50
180.0
 51
270.0
  0
LINE
  5
491
330
1F
100
AcDbEntity
  8
LC-001-100-D00-0
 62
     7
370
    50
100
AcDbLine
 10
102.823213
 20
407.502881
 30
0.0
 11
102.823212
 21
448.502883
 31
0.0
  0
LINE
  5
492
330
1F
100
AcDbEntity
  8
LC-001-100-D00-0
 62
     7
370
    50
100
AcDbLine
 10
102.823212
 20
448.502883
 30
0.0
 11
92.887527
 21
455.808532
 31
0.0
  0
ARC
  5
493
330
1F
100
AcDbEntity
  8
LC-001-100-D00-0
 62
     7
370
    50
100
AcDbCircle
 10
92.295137
 20
455.002881
 30
0.0
 40
0.9999999999997635
100
AcDbArc
 50
53.673174
 51
90.0
  0
LINE
  5
494
330
1F
100
AcDbEntity
  8
LC-001-100-D00-0
 62
     7
370
    50
100
AcDbLine
 10
88.723213
 20
456.002881
 30
0.0
 11
92.295137
 21
456.002881
 31
0.0
  0
LINE
  5
495
330
1F
100
AcDbEntity
  8
LC-001-100-D00-0
 62
     7
370
    50
100
AcDbLine
 10
88.723213
 20
456.002881
 30
0.0
 11
88.723213
 21
458.002881
 31
0.0
  0
LINE
  5
496
330
1F
100
AcDbEntity
  8
LC-001-100-D00-0
 62
     7
370
    50
100
AcDbLine
 10
88.723213
 20
458.002881
 30
0.0
 11
92.295137
 21
458.002881
 31
0.0
  0
ARC
  5
497
330
1F
100
AcDbEntity
  8
LC-001-100-D00-0
 62
     7
370
    50
100
AcDbCircle
 10
92.295137
 20
455.002881
 30
0.0
 40
2.999999999999908
100
AcDbArc
 50
53.673174
 51
90.0
  0
LINE
  5
498
330
1F
100
AcDbEntity
  8
LC-001-100-D00-0
 62
     7
370
    50
100
AcDbLine
 10
94.072308
 20
457.419834
 30
0.0
 11
103.915603
 21
450.182117
 31
0.0
  0
ARC
  5
499
330
1F
100
AcDbEntity
  8
LC-001-100-D00-0
 62
     7
370
    50
100
AcDbCircle
 10
103.323213
 20
449.376466
 30
0.0
 40
1.0
100
AcDbArc
 50
0.0
 51
53.673174
  0
LINE
  5
49A
330
1F
100
AcDbEntity
  8
LC-001-100-D00-0
 62
     7
370
    50
100
AcDbLine
 10
104.323213
 20
407.502881
 30
0.0
 11
104.323213
 21
449.376466
 31
0.0
  0
ARC
  5
49B
330
1F
100
AcDbEntity
  8
LC-001-100-D00-0
 62
     7
370
    50
100
AcDbCircle
 10
107.823213
 20
407.502881
 30
0.0
 40
3.5
100
AcDbArc
 50
180.0
 51
270.0
  0
LINE
  5
49C
330
1F
100
AcDbEntity
  8
LC-001-100-D00-0
 62
     7
370
    50
100
AcDbLine
 10
179.823213
 20
404.002881
 30
0.0
 11
107.823213
 21
404.002881
 31
0.0
  0
ARC
  5
49D
330
1F
100
AcDbEntity
  8
LC-001-100-D00-0
 62
     7
370
    50
100
AcDbCircle
 10
179.823213
 20
407.502881
 30
0.0
 40
3.500000000000227
100
AcDbArc
 50
270.0
 51
0.0
  0
LINE
  5
49E
330
1F
100
AcDbEntity
  8
LC-001-100-D00-0
 62
     7
370
    50
100
AcDbLine
 10
183.323213
 20
449.376466
 30
0.0
 11
183.323213
 21
407.502881
 31
0.0
  0
ARC
  5
49F
330
1F
100
AcDbEntity
  8
LC-001-100-D00-0
 62
     7
370
    50
100
AcDbCircle
 10
184.323213
 20
449.376466
 30
0.0
 40
0.9999999999999467
100
AcDbArc
 50
126.326826
 51
180.0
  0
LINE
  5
4A0
330
1F
100
AcDbEntity
  8
LC-001-100-D00-0
 62
     7
370
    50
100
AcDbLine
 10
193.574117
 20
457.419834
 30
0.0
 11
183.730822
 21
450.182117
 31
0.0
  0
ARC
  5
4A1
330
1F
100
AcDbEntity
  8
LC-001-100-D00-0
 62
     7
370
    50
100
AcDbCircle
 10
195.351289
 20
455.002881
 30
0.0
 40
2.999999999999773
100
AcDbArc
 50
90.0
 51
126.326826
  0
LINE
  5
4A2
330
1F
100
AcDbEntity
  8
LC-001-100-D00-0
 62
     7
370
    50
100
AcDbLine
 10
195.351289
 20
458.002881
 30
0.0
 11
198.923213
 21
458.002881
 31
0.0
  0
LINE
  5
4A3
330
1F
100
AcDbEntity
  8
LC-001-100-D00-0
 62
     7
370
    50
100
AcDbLine
 10
198.923213
 20
458.002881
 30
0.0
 11
198.923213
 21
456.002881
 31
0.0
  0
LINE
  5
4A4
330
1F
100
AcDbEntity
  8
LC-001-100-D00-0
 62
     7
370
    50
100
AcDbLine
 10
195.351289
 20
456.002881
 30
0.0
 11
198.923213
 21
456.002881
 31
0.0
  0
ARC
  5
4A5
330
1F
100
AcDbEntity
  8
LC-001-100-D00-0
 62
     7
370
    50
100
AcDbCircle
 10
195.351289
 20
455.002881
 30
0.0
 40
0.9999999999997726
100
AcDbArc
 50
90.0
 51
126.326826
  0
ARC
  5
4A6
330
1F
100
AcDbEntity
  8
LC-001-100-D00-0
 62
     7
370
    50
100
AcDbCircle
 10
184.316465
 20
449.37104
 30
0.0
 40
1.000373573445844
100
AcDbArc
 50
126.325165
 51
180.0
  0
LINE
  5
4A7
330
1F
100
AcDbEntity
  8
LC-001-100-D00-0
 62
     7
370
    50
100
AcDbLine
 10
183.723877
 20
450.177009
 30
0.0
 11
183.730822
 21
450.182117
 31
0.0
  0
LINE
  5
4A8
330
1F
100
AcDbEntity
  8
LC-001-100-D00-0
 62
     7
370
    50
100
AcDbLine
 10
183.316092
 20
448.502881
 30
0.0
 11
178.902608
 21
448.502881
 31
0.0
  0
LINE
  5
4A9
330
1F
100
AcDbEntity
  8
LC-001-100-D00-0
 62
     7
370
    50
100
AcDbLine
 10
183.316092
 20
449.371099
 30
0.0
 11
183.316092
 21
448.502881
 31
0.0
  0
LINE
  5
4AA
330
1F
100
AcDbEntity
  8
LC-001-100-D00-0
 62
     7
370
    50
100
AcDbLine
 10
104.330334
 20
449.371099
 30
0.0
 11
104.330334
 21
448.502881
 31
0.0
  0
LINE
  5
4AB
330
1F
100
AcDbEntity
  8
LC-001-100-D00-0
 62
     7
370
    50
100
AcDbLine
 10
108.743817
 20
448.502881
 30
0.0
 11
104.330334
 21
448.502881
 31
0.0
  0
ARC
  5
4AC
330
1F
100
AcDbEntity
  8
LC-001-100-D00-0
 62
     7
370
    50
100
AcDbCircle
 10
103.329987
 20
449.371054
 30
0.0
 40
1.000347039121721
100
AcDbArc
 50
0.0
 51
53.675603
  0
LINE
  5
4AD
330
1F
100
AcDbEntity
  8
LC-001-100-D00-0
 62
     7
370
    50
100
AcDbLine
 10
176.775648
 20
455.966986
 30
0.0
 11
176.775648
 21
448.502883
 31
0.0
  0
LINE
  5
4AE
330
1F
100
AcDbEntity
  8
LC-001-100-D00-0
 62
     7
370
    50
100
AcDbLine
 10
176.775646
 20
456.002881
 30
0.0
 11
183.537628
 21
456.002881
 31
0.0
  0
LINE
  5
4AF
330
1F
100
AcDbEntity
  8
LC-001-100-D00-0
 62
     7
370
    50
100
AcDbLine
 10
187.911079
 20
456.002881
 30
0.0
 11
191.647061
 21
456.002881
 31
0.0
  0
LINE
  5
4B0
330
1F
100
AcDbEntity
  8
LC-001-100-D00-0
 62
     7
370
    50
100
AcDbLine
 10
110.870778
 20
455.966986
 30
0.0
 11
110.870778
 21
448.502883
 31
0.0
  0
LINE
  5
4B1
330
1F
100
AcDbEntity
  8
LC-001-100-D00-0
 62
     7
370
    50
100
AcDbLine
 10
95.999364
 20
456.002881
 30
0.0
 11
99.735346
 21
456.002881
 31
0.0
  0
LINE
  5
4B2
330
1F
100
AcDbEntity
  8
LC-001-100-D00-0
 62
     7
370
    50
100
AcDbLine
 10
104.108798
 20
456.002881
 30
0.0
 11
110.870779
 21
456.002881
 31
0.0
  0
LINE
  5
4B3
330
1F
100
AcDbEntity
  8
LC-001-100-D00-0
 62
     7
370
    50
100
AcDbLine
 10
178.902608
 20
448.502881
 30
0.0
 11
172.835721
 21
448.502881
 31
0.0
  0
LINE
  5
4B4
330
1F
100
AcDbEntity
  8
LC-001-100-D00-0
 62
     7
370
    50
100
AcDbLine
 10
114.810705
 20
448.502881
 30
0.0
 11
108.743817
 21
448.502881
 31
0.0
  0
ARC
  5
4B5
330
1F
100
AcDbEntity
  8
LC-001-100-D00-0
 62
     7
370
    50
100
AcDbCircle
 10
246.82301
 20
432.502881
 30
0.0
 40
31.99999999999976
100
AcDbArc
 50
51.375167
 51
90.0
  0
LINE
  5
4B6
330
1F
100
AcDbEntity
  8
LC-001-100-D00-0
 62
     7
370
    50
100
AcDbLine
 10
266.797994
 20
457.502881
 30
0.0
 11
349.823004
 21
457.502882
 31
0.0
  0
LINE
  5
4B7
330
1F
100
AcDbEntity
  8
LC-001-100-D00-0
 62
     7
370
    50
100
AcDbLine
 10
349.823004
 20
457.502882
 30
0.0
 11
353.323004
 21
456.565059
 31
0.0
  0
LINE
  5
4B8
330
1F
100
AcDbEntity
  8
LC-001-100-D00-0
 62
     7
370
    50
100
AcDbLine
 10
353.323004
 20
456.565059
 30
0.0
 11
353.32301
 21
455.252881
 31
0.0
  0
LINE
  5
4B9
330
1F
100
AcDbEntity
  8
LC-001-100-D00-0
 62
     7
370
    50
100
AcDbLine
 10
353.32301
 20
455.252881
 30
0.0
 11
265.602986
 21
455.252881
 31
0.0
  0
ARC
  5
4BA
330
1F
100
AcDbEntity
  8
LC-001-100-D00-0
 62
     7
370
    50
100
AcDbCircle
 10
246.82301
 20
432.502881
 30
0.0
 40
29.49999999999979
100
AcDbArc
 50
50.46055
 51
104.235124
  0
ARC
  5
4BB
330
1F
100
AcDbEntity
  8
LC-001-100-D00-0
 62
     7
370
    50
100
AcDbCircle
 10
239.32301
 20
462.066372
 30
0.0
 40
1.000000000000114
100
AcDbArc
 50
180.0
 51
284.235124
  0
LINE
  5
4BC
330
1F
100
AcDbEntity
  8
LC-001-100-D00-0
 62
     7
370
    50
100
AcDbLine
 10
238.32301
 20
462.066372
 30
0.0
 11
238.323009
 21
464.502881
 31
0.0
  0
LINE
  5
4BD
330
1F
100
AcDbEntity
  8
LC-001-100-D00-0
 62
     7
370
    50
100
AcDbLine
 10
238.323009
 20
464.502881
 30
0.0
 11
246.82301
 21
464.502881
 31
0.0
  0
LINE
  5
4BE
330
1F
100
AcDbEntity
  8
LC-001-100-D00-0
 62
     7
370
    50
100
AcDbLine
 10
238.323009
 20
400.502878
 30
0.0
 11
238.32301
 21
402.93939
 31
0.0
  0
ARC
  5
4BF
330
1F
100
AcDbEntity
  8
LC-001-100-D00-0
 62
     7
370
    50
100
AcDbCircle
 10
239.32301
 20
402.93939
 30
0.0
 40
0.9999999999998629
100
AcDbArc
 50
75.764876
 51
180.0
  0
ARC
  5
4C0
330
1F
100
AcDbEntity
  8
LC-001-100-D00-0
 62
     7
370
    50
100
AcDbCircle
 10
246.82301
 20
432.502881
 30
0.0
 40
29.50000000000025
100
AcDbArc
 50
255.764876
 51
309.53945
  0
LINE
  5
4C1
330
1F
100
AcDbEntity
  8
LC-001-100-D00-0
 62
     7
370
    50
100
AcDbLine
 10
265.602986
 20
409.752881
 30
0.0
 11
353.32301
 21
409.752881
 31
0.0
  0
LINE
  5
4C2
330
1F
100
AcDbEntity
  8
LC-001-100-D00-0
 62
     7
370
    50
100
AcDbLine
 10
353.32301
 20
409.752881
 30
0.0
 11
353.323004
 21
408.440705
 31
0.0
  0
LINE
  5
4C3
330
1F
100
AcDbEntity
  8
LC-001-100-D00-0
 62
     7
370
    50
100
AcDbLine
 10
353.323004
 20
408.440705
 30
0.0
 11
349.823004
 21
407.502878
 31
0.0
  0
LINE
  5
4C4
330
1F
100
AcDbEntity
  8
LC-001-100-D00-0
 62
     7
370
    50
100
AcDbLine
 10
349.823004
 20
407.502878
 30
0.0
 11
266.797994
 21
407.502881
 31
0.0
  0
ARC
  5
4C5
330
1F
100
AcDbEntity
  8
LC-001-100-D00-0
 62
     7
370
    50
100
AcDbCircle
 10
246.82301
 20
432.502881
 30
0.0
 40
32.00000000000023
100
AcDbArc
 50
270.0
 51
308.624833
  0
LINE
  5
4C6
330
1F
100
AcDbEntity
  8
LC-001-100-D00-0
 62
     7
370
    50
100
AcDbLine
 10
246.82301
 20
400.502881
 30
0.0
 11
238.323009
 21
400.502878
 31
0.0
  0
LINE
  5
4C7
330
1F
100
AcDbEntity
  8
LC-001-100-D00-0
 62
     7
370
    50
100
AcDbLine
 10
353.32301
 20
455.252881
 30
0.0
 11
353.32301
 21
409.752881
 31
0.0
  0
LINE
  5
4C8
330
1F
100
AcDbEntity
  8
LC-001-100-D00-0
 62
     7
370
    50
100
AcDbLine
 10
265.602986
 20
455.252881
 30
0.0
 11
265.602986
 21
409.752881
 31
0.0
  0
LINE
  5
4C9
330
1F
100
AcDbEntity
  8
LC-001-100-D00-0
 62
     7
370
    50
100
AcDbLine
 10
238.32301
 20
404.067678
 30
0.0
 11
238.32301
 21
402.93939
 31
0.0
  0
CIRCLE
  5
4CA
330
1F
100
AcDbEntity
  8
LC-001-100-D00-0
 62
     7
370
    50
100
AcDbCircle
 10
255.071009
 20
459.502881
 30
0.0
 40
2.000000000000114
  0
CIRCLE
  5
4CB
330
1F
100
AcDbEntity
  8
LC-001-100-D00-0
 62
     7
370
    50
100
AcDbCircle
 10
255.071009
 20
405.502881
 30
0.0
 40
2.0
  0
LINE
  5
4CC
330
1F
100
AcDbEntity
  8
LC-001-100-D00-0
 62
     7
370
    50
100
AcDbLine
 10
237.165551
 20
467.917696
 30
0.0
 11
219.331879
 21
463.139178
 31
0.0
  0
ARC
  5
4CD
330
1F
100
AcDbEntity
  8
LC-001-100-D00-0
 62
     7
370
    50
100
AcDbCircle
 10
218.296603
 20
467.002881
 30
0.0
 40
4.0
100
AcDbArc
 50
270.0
 51
285.0
  0
LINE
  5
4CE
330
1F
100
AcDbEntity
  8
LC-001-100-D00-0
 62
     7
370
    50
100
AcDbLine
 10
218.296603
 20
463.002881
 30
0.0
 11
201.623213
 21
463.002881
 31
0.0
  0
ARC
  5
4CF
330
1F
100
AcDbEntity
  8
LC-001-100-D00-0
 62
     7
370
    50
100
AcDbCircle
 10
201.623213
 20
462.002881
 30
0.0
 40
1.0
100
AcDbArc
 50
90.0
 51
180.0
  0
LINE
  5
4D0
330
1F
100
AcDbEntity
  8
LC-001-100-D00-0
 62
     7
370
    50
100
AcDbLine
 10
200.623213
 20
462.002881
 30
0.0
 11
200.623213
 21
458.00288
 31
0.0
  0
LINE
  5
4D1
330
1F
100
AcDbEntity
  8
LC-001-100-D00-0
 62
     7
370
    50
100
AcDbLine
 10
200.623213
 20
458.00288
 30
0.0
 11
199.123213
 21
458.002881
 31
0.0
  0
LINE
  5
4D2
330
1F
100
AcDbEntity
  8
LC-001-100-D00-0
 62
     7
370
    50
100
AcDbLine
 10
199.123213
 20
462.002881
 30
0.0
 11
199.123213
 21
458.002881
 31
0.0
  0
ARC
  5
4D3
330
1F
100
AcDbEntity
  8
LC-001-100-D00-0
 62
     7
370
    50
100
AcDbCircle
 10
201.623213
 20
462.002881
 30
0.0
 40
2.5
100
AcDbArc
 50
90.0
 51
180.0
  0
LINE
  5
4D4
330
1F
100
AcDbEntity
  8
LC-001-100-D00-0
 62
     7
370
    50
100
AcDbLine
 10
218.296603
 20
464.502881
 30
0.0
 11
201.623213
 21
464.502881
 31
0.0
  0
ARC
  5
4D5
330
1F
100
AcDbEntity
  8
LC-001-100-D00-0
 62
     7
370
    50
100
AcDbCircle
 10
218.296603
 20
467.002881
 30
0.0
 40
2.5
100
AcDbArc
 50
270.0
 51
285.0
  0
LINE
  5
4D6
330
1F
100
AcDbEntity
  8
LC-001-100-D00-0
 62
     7
370
    50
100
AcDbLine
 10
236.777322
 20
469.366584
 30
0.0
 11
218.94365
 21
464.588066
 31
0.0
  0
ARC
  5
4D7
330
1F
100
AcDbEntity
  8
LC-001-100-D00-0
 62
     7
370
    50
100
AcDbCircle
 10
237.812598
 20
465.502881
 30
0.0
 40
4.0
100
AcDbArc
 50
90.0
 51
105.0
  0
LINE
  5
4D8
330
1F
100
AcDbEntity
  8
LC-001-100-D00-0
 62
     7
370
    50
100
AcDbLine
 10
237.812598
 20
469.502881
 30
0.0
 11
239.323213
 21
469.50288
 31
0.0
  0
LINE
  5
4D9
330
1F
100
AcDbEntity
  8
LC-001-100-D00-0
 62
     7
370
    50
100
AcDbLine
 10
239.323213
 20
469.50288
 30
0.0
 11
239.323213
 21
470.902882
 31
0.0
  0
LINE
  5
4DA
330
1F
100
AcDbEntity
  8
LC-001-100-D00-0
 62
     7
370
    50
100
AcDbLine
 10
239.823213
 20
470.902881
 30
0.0
 11
239.323213
 21
470.902882
 31
0.0
  0
ARC
  5
4DB
330
1F
100
AcDbEntity
  8
LC-001-100-D00-0
 62
     7
370
    50
100
AcDbCircle
 10
238.823213
 20
472.402881
 30
0.0
 40
1.802775637732184
100
AcDbArc
 50
303.690068
 51
56.309932
  0
LINE
  5
4DC
330
1F
100
AcDbEntity
  8
LC-001-100-D00-0
 62
     7
370
    50
100
AcDbLine
 10
239.823214
 20
488.502881
 30
0.0
 11
239.823213
 21
473.902881
 31
0.0
  0
LINE
  5
4DD
330
1F
100
AcDbEntity
  8
LC-001-100-D00-0
 62
     7
370
    50
100
AcDbLine
 10
240.823216
 20
489.502881
 30
0.0
 11
239.823214
 21
488.502881
 31
0.0
  0
LINE
  5
4DE
330
1F
100
AcDbEntity
  8
LC-001-100-D00-0
 62
     7
370
    50
100
AcDbLine
 10
246.823213
 20
489.502881
 30
0.0
 11
240.823216
 21
489.502881
 31
0.0
  0
LINE
  5
4DF
330
1F
100
AcDbEntity
  8
LC-001-100-D00-0
 62
     7
370
    50
100
AcDbLine
 10
247.823215
 20
488.502881
 30
0.0
 11
246.823213
 21
489.502881
 31
0.0
  0
LINE
  5
4E0
330
1F
100
AcDbEntity
  8
LC-001-100-D00-0
 62
     7
370
    50
100
AcDbLine
 10
247.823213
 20
473.902881
 30
0.0
 11
247.823215
 21
488.502881
 31
0.0
  0
ARC
  5
4E1
330
1F
100
AcDbEntity
  8
LC-001-100-D00-0
 62
     7
370
    50
100
AcDbCircle
 10
248.823213
 20
472.402881
 30
0.0
 40
1.802775637732121
100
AcDbArc
 50
123.690068
 51
236.309932
  0
LINE
  5
4E2
330
1F
100
AcDbEntity
  8
LC-001-100-D00-0
 62
     7
370
    50
100
AcDbLine
 10
248.323216
 20
470.902882
 30
0.0
 11
247.823213
 21
470.902881
 31
0.0
  0
LINE
  5
4E3
330
1F
100
AcDbEntity
  8
LC-001-100-D00-0
 62
     7
370
    50
100
AcDbLine
 10
248.323216
 20
470.902882
 30
0.0
 11
248.323216
 21
469.50288
 31
0.0
  0
LINE
  5
4E4
330
1F
100
AcDbEntity
  8
LC-001-100-D00-0
 62
     7
370
    50
100
AcDbLine
 10
248.323216
 20
469.50288
 30
0.0
 11
349.32322
 21
469.50288
 31
0.0
  0
LINE
  5
4E5
330
1F
100
AcDbEntity
  8
LC-001-100-D00-0
 62
     7
370
    50
100
AcDbLine
 10
349.32322
 20
469.50288
 30
0.0
 11
349.32322
 21
470.902882
 31
0.0
  0
LINE
  5
4E6
330
1F
100
AcDbEntity
  8
LC-001-100-D00-0
 62
     7
370
    50
100
AcDbLine
 10
349.823213
 20
470.902881
 30
0.0
 11
349.32322
 21
470.902882
 31
0.0
  0
ARC
  5
4E7
330
1F
100
AcDbEntity
  8
LC-001-100-D00-0
 62
     7
370
    50
100
AcDbCircle
 10
348.823213
 20
472.402881
 30
0.0
 40
1.802775637732184
100
AcDbArc
 50
303.690068
 51
56.309932
  0
LINE
  5
4E8
330
1F
100
AcDbEntity
  8
LC-001-100-D00-0
 62
     7
370
    50
100
AcDbLine
 10
349.823213
 20
488.502881
 30
0.0
 11
349.823213
 21
473.902881
 31
0.0
  0
LINE
  5
4E9
330
1F
100
AcDbEntity
  8
LC-001-100-D00-0
 62
     7
370
    50
100
AcDbLine
 10
350.823215
 20
489.502881
 30
0.0
 11
349.823213
 21
488.502881
 31
0.0
  0
LINE
  5
4EA
330
1F
100
AcDbEntity
  8
LC-001-100-D00-0
 62
     7
370
    50
100
AcDbLine
 10
356.823212
 20
489.502881
 30
0.0
 11
350.823215
 21
489.502881
 31
0.0
  0
LINE
  5
4EB
330
1F
100
AcDbEntity
  8
LC-001-100-D00-0
 62
     7
370
    50
100
AcDbLine
 10
357.823214
 20
488.502881
 30
0.0
 11
356.823212
 21
489.502881
 31
0.0
  0
LINE
  5
4EC
330
1F
100
AcDbEntity
  8
LC-001-100-D00-0
 62
     7
370
    50
100
AcDbLine
 10
357.823213
 20
473.902881
 30
0.0
 11
357.823214
 21
488.502881
 31
0.0
  0
ARC
  5
4ED
330
1F
100
AcDbEntity
  8
LC-001-100-D00-0
 62
     7
370
    50
100
AcDbCircle
 10
358.823213
 20
472.402881
 30
0.0
 40
1.802775637732121
100
AcDbArc
 50
123.690068
 51
236.309932
  0
LINE
  5
4EE
330
1F
100
AcDbEntity
  8
LC-001-100-D00-0
 62
     7
370
    50
100
AcDbLine
 10
358.323208
 20
470.902882
 30
0.0
 11
357.823213
 21
470.902881
 31
0.0
  0
LINE
  5
4EF
330
1F
100
AcDbEntity
  8
LC-001-100-D00-0
 62
     7
370
    50
100
AcDbLine
 10
358.323208
 20
470.902882
 30
0.0
 11
358.323208
 21
469.50288
 31
0.0
  0
LINE
  5
4F0
330
1F
100
AcDbEntity
  8
LC-001-100-D00-0
 62
     7
370
    50
100
AcDbLine
 10
358.323208
 20
469.50288
 30
0.0
 11
459.323204
 21
469.50288
 31
0.0
  0
LINE
  5
4F1
330
1F
100
AcDbEntity
  8
LC-001-100-D00-0
 62
     7
370
    50
100
AcDbLine
 10
459.323204
 20
469.50288
 30
0.0
 11
459.323204
 21
470.902882
 31
0.0
  0
LINE
  5
4F2
330
1F
100
AcDbEntity
  8
LC-001-100-D00-0
 62
     7
370
    50
100
AcDbLine
 10
459.823213
 20
470.902881
 30
0.0
 11
459.323204
 21
470.902882
 31
0.0
  0
ARC
  5
4F3
330
1F
100
AcDbEntity
  8
LC-001-100-D00-0
 62
     7
370
    50
100
AcDbCircle
 10
458.823213
 20
472.402881
 30
0.0
 40
1.802775637731868
100
AcDbArc
 50
303.690068
 51
56.309932
  0
LINE
  5
4F4
330
1F
100
AcDbEntity
  8
LC-001-100-D00-0
 62
     7
370
    50
100
AcDbLine
 10
459.823227
 20
488.502881
 30
0.0
 11
459.823213
 21
473.902881
 31
0.0
  0
LINE
  5
4F5
330
1F
100
AcDbEntity
  8
LC-001-100-D00-0
 62
     7
370
    50
100
AcDbLine
 10
460.823215
 20
489.502881
 30
0.0
 11
459.823227
 21
488.502881
 31
0.0
  0
LINE
  5
4F6
330
1F
100
AcDbEntity
  8
LC-001-100-D00-0
 62
     7
370
    50
100
AcDbLine
 10
466.823227
 20
489.502881
 30
0.0
 11
460.823215
 21
489.502881
 31
0.0
  0
LINE
  5
4F7
330
1F
100
AcDbEntity
  8
LC-001-100-D00-0
 62
     7
370
    50
100
AcDbLine
 10
467.823214
 20
488.502881
 30
0.0
 11
466.823227
 21
489.502881
 31
0.0
  0
LINE
  5
4F8
330
1F
100
AcDbEntity
  8
LC-001-100-D00-0
 62
     7
370
    50
100
AcDbLine
 10
467.823213
 20
473.902881
 30
0.0
 11
467.823214
 21
488.502881
 31
0.0
  0
ARC
  5
4F9
330
1F
100
AcDbEntity
  8
LC-001-100-D00-0
 62
     7
370
    50
100
AcDbCircle
 10
468.823213
 20
472.402881
 30
0.0
 40
1.802775637731679
100
AcDbArc
 50
123.690068
 51
236.309932
  0
LINE
  5
4FA
330
1F
100
AcDbEntity
  8
LC-001-100-D00-0
 62
     7
370
    50
100
AcDbLine
 10
468.323207
 20
470.902882
 30
0.0
 11
467.823213
 21
470.902881
 31
0.0
  0
LINE
  5
4FB
330
1F
100
AcDbEntity
  8
LC-001-100-D00-0
 62
     7
370
    50
100
AcDbLine
 10
468.323207
 20
470.902882
 30
0.0
 11
468.323207
 21
469.50288
 31
0.0
  0
LINE
  5
4FC
330
1F
100
AcDbEntity
  8
LC-001-100-D00-0
 62
     7
370
    50
100
AcDbLine
 10
468.323207
 20
469.50288
 30
0.0
 11
485.823213
 21
469.502881
 31
0.0
  0
ARC
  5
4FD
330
1F
100
AcDbEntity
  8
LC-001-100-D00-0
 62
     7
370
    50
100
AcDbCircle
 10
485.823213
 20
477.502881
 30
0.0
 40
8.0
100
AcDbArc
 50
270.0
 51
0.0
  0
LINE
  5
4FE
330
1F
100
AcDbEntity
  8
LC-001-100-D00-0
 62
     7
370
    50
100
AcDbLine
 10
493.823213
 20
477.502881
 30
0.0
 11
493.823213
 21
487.002881
 31
0.0
  0
ARC
  5
4FF
330
1F
100
AcDbEntity
  8
LC-001-100-D00-0
 62
     7
370
    50
100
AcDbCircle
 10
496.823213
 20
487.002881
 30
0.0
 40
3.0
100
AcDbArc
 50
90.0
 51
180.0
  0
LINE
  5
500
330
1F
100
AcDbEntity
  8
LC-001-100-D00-0
 62
     7
370
    50
100
AcDbLine
 10
543.823213
 20
490.002881
 30
0.0
 11
496.823213
 21
490.002881
 31
0.0
  0
LINE
  5
501
330
1F
100
AcDbEntity
  8
LC-001-100-D00-0
 62
     7
370
    50
100
AcDbLine
 10
543.823219
 20
488.502881
 30
0.0
 11
543.823213
 21
490.002881
 31
0.0
  0
LINE
  5
502
330
1F
100
AcDbEntity
  8
LC-001-100-D00-0
 62
     7
370
    50
100
AcDbLine
 10
543.823219
 20
488.502881
 30
0.0
 11
496.823213
 21
488.502881
 31
0.0
  0
ARC
  5
503
330
1F
100
AcDbEntity
  8
LC-001-100-D00-0
 62
     7
370
    50
100
AcDbCircle
 10
496.823213
 20
487.002881
 30
0.0
 40
1.499999999999773
100
AcDbArc
 50
90.0
 51
180.0
  0
LINE
  5
504
330
1F
100
AcDbEntity
  8
LC-001-100-D00-0
 62
     7
370
    50
100
AcDbLine
 10
495.323213
 20
477.502881
 30
0.0
 11
495.323213
 21
487.002881
 31
0.0
  0
ARC
  5
505
330
1F
100
AcDbEntity
  8
LC-001-100-D00-0
 62
     7
370
    50
100
AcDbCircle
 10
485.823213
 20
477.502881
 30
0.0
 40
9.5
100
AcDbArc
 50
270.0
 51
0.0
  0
LINE
  5
506
330
1F
100
AcDbEntity
  8
LC-001-100-D00-0
 62
     7
370
    50
100
AcDbLine
 10
237.812598
 20
468.002881
 30
0.0
 11
485.823213
 21
468.002881
 31
0.0
  0
ARC
  5
507
330
1F
100
AcDbEntity
  8
LC-001-100-D00-0
 62
     7
370
    50
100
AcDbCircle
 10
237.812598
 20
465.502881
 30
0.0
 40
2.5
100
AcDbArc
 50
90.0
 51
105.0
  0
LINE
  5
508
330
1F
100
AcDbEntity
  8
LC-001-100-D00-0
 62
     7
370
    50
100
AcDbLine
 10
188.217096
 20
464.502881
 30
0.0
 11
201.623213
 21
464.502881
 31
0.0
  0
LINE
  5
509
330
1F
100
AcDbEntity
  8
LC-001-100-D00-0
 62
     7
370
    50
100
AcDbLine
 10
199.123213
 20
458.002881
 30
0.0
 11
198.923213
 21
458.002881
 31
0.0
  0
LINE
  5
50A
330
1F
100
AcDbEntity
  8
LC-001-100-D00-0
 62
     7
370
    50
100
AcDbLine
 10
87.023212
 20
458.00288
 30
0.0
 11
87.023213
 21
462.002881
 31
0.0
  0
LINE
  5
50B
330
1F
100
AcDbEntity
  8
LC-001-100-D00-0
 62
     7
370
    50
100
AcDbLine
 10
88.723213
 20
458.002881
 30
0.0
 11
88.523213
 21
458.002881
 31
0.0
  0
LINE
  5
50C
330
1F
100
AcDbEntity
  8
LC-001-100-D00-0
 62
     7
370
    50
100
AcDbLine
 10
88.523213
 20
458.002881
 30
0.0
 11
88.523213
 21
462.002881
 31
0.0
  0
LINE
  5
50D
330
1F
100
AcDbEntity
  8
LC-001-100-D00-0
 62
     7
370
    50
100
AcDbLine
 10
99.429329
 20
464.502881
 30
0.0
 11
86.023213
 21
464.502881
 31
0.0
  0
ARC
  5
50E
330
1F
100
AcDbEntity
  8
LC-001-100-D00-0
 62
     7
370
    50
100
AcDbCircle
 10
86.023213
 20
462.002881
 30
0.0
 40
2.5
100
AcDbArc
 50
0.0
 51
90.0
  0
ARC
  5
50F
330
1F
100
AcDbEntity
  8
LC-001-100-D00-0
 62
     7
370
    50
100
AcDbCircle
 10
86.023213
 20
462.002881
 30
0.0
 40
1.000000000000114
100
AcDbArc
 50
0.0
 51
90.0
  0
LINE
  5
510
330
1F
100
AcDbEntity
  8
LC-001-100-D00-0
 62
     7
370
    50
100
AcDbLine
 10
-171.676778
 20
470.902882
 30
0.0
 11
-172.176787
 21
470.902881
 31
0.0
  0
LINE
  5
511
330
1F
100
AcDbEntity
  8
LC-001-100-D00-0
 62
     7
370
    50
100
AcDbLine
 10
-171.676778
 20
470.902882
 30
0.0
 11
-171.676778
 21
469.50288
 31
0.0
  0
LINE
  5
512
330
1F
100
AcDbEntity
  8
LC-001-100-D00-0
 62
     7
370
    50
100
AcDbLine
 10
-171.676778
 20
469.50288
 30
0.0
 11
-70.676782
 21
469.50288
 31
0.0
  0
LINE
  5
513
330
1F
100
AcDbEntity
  8
LC-001-100-D00-0
 62
     7
370
    50
100
AcDbLine
 10
-70.676782
 20
469.50288
 30
0.0
 11
-70.676782
 21
470.902882
 31
0.0
  0
LINE
  5
514
330
1F
100
AcDbEntity
  8
LC-001-100-D00-0
 62
     7
370
    50
100
AcDbLine
 10
-70.176787
 20
470.902881
 30
0.0
 11
-70.676782
 21
470.902882
 31
0.0
  0
ARC
  5
515
330
1F
100
AcDbEntity
  8
LC-001-100-D00-0
 62
     7
370
    50
100
AcDbCircle
 10
-71.176787
 20
472.402881
 30
0.0
 40
1.802775637732184
100
AcDbArc
 50
303.690068
 51
56.309932
  0
LINE
  5
516
330
1F
100
AcDbEntity
  8
LC-001-100-D00-0
 62
     7
370
    50
100
AcDbLine
 10
-70.176789
 20
488.502881
 30
0.0
 11
-70.176787
 21
473.902881
 31
0.0
  0
LINE
  5
517
330
1F
100
AcDbEntity
  8
LC-001-100-D00-0
 62
     7
370
    50
100
AcDbLine
 10
-69.176787
 20
489.502881
 30
0.0
 11
-70.176789
 21
488.502881
 31
0.0
  0
LINE
  5
518
330
1F
100
AcDbEntity
  8
LC-001-100-D00-0
 62
     7
370
    50
100
AcDbLine
 10
-63.176789
 20
489.502881
 30
0.0
 11
-69.176787
 21
489.502881
 31
0.0
  0
LINE
  5
519
330
1F
100
AcDbEntity
  8
LC-001-100-D00-0
 62
     7
370
    50
100
AcDbLine
 10
-62.176787
 20
488.502881
 30
0.0
 11
-63.176789
 21
489.502881
 31
0.0
  0
LINE
  5
51A
330
1F
100
AcDbEntity
  8
LC-001-100-D00-0
 62
     7
370
    50
100
AcDbLine
 10
-62.176787
 20
473.902881
 30
0.0
 11
-62.176787
 21
488.502881
 31
0.0
  0
ARC
  5
51B
330
1F
100
AcDbEntity
  8
LC-001-100-D00-0
 62
     7
370
    50
100
AcDbCircle
 10
-61.176787
 20
472.402881
 30
0.0
 40
1.802775637732152
100
AcDbArc
 50
123.690068
 51
236.309932
  0
LINE
  5
51C
330
1F
100
AcDbEntity
  8
LC-001-100-D00-0
 62
     7
370
    50
100
AcDbLine
 10
-61.676794
 20
470.902882
 30
0.0
 11
-62.176787
 21
470.902881
 31
0.0
  0
LINE
  5
51D
330
1F
100
AcDbEntity
  8
LC-001-100-D00-0
 62
     7
370
    50
100
AcDbLine
 10
-61.676794
 20
470.902882
 30
0.0
 11
-61.676794
 21
469.50288
 31
0.0
  0
LINE
  5
51E
330
1F
100
AcDbEntity
  8
LC-001-100-D00-0
 62
     7
370
    50
100
AcDbLine
 10
-61.676794
 20
469.50288
 30
0.0
 11
39.32321
 21
469.50288
 31
0.0
  0
LINE
  5
51F
330
1F
100
AcDbEntity
  8
LC-001-100-D00-0
 62
     7
370
    50
100
AcDbLine
 10
39.32321
 20
469.50288
 30
0.0
 11
39.32321
 21
470.902882
 31
0.0
  0
LINE
  5
520
330
1F
100
AcDbEntity
  8
LC-001-100-D00-0
 62
     7
370
    50
100
AcDbLine
 10
39.823213
 20
470.902881
 30
0.0
 11
39.32321
 21
470.902882
 31
0.0
  0
ARC
  5
521
330
1F
100
AcDbEntity
  8
LC-001-100-D00-0
 62
     7
370
    50
100
AcDbCircle
 10
38.823213
 20
472.402881
 30
0.0
 40
1.802775637732184
100
AcDbArc
 50
303.690068
 51
56.309932
  0
LINE
  5
522
330
1F
100
AcDbEntity
  8
LC-001-100-D00-0
 62
     7
370
    50
100
AcDbLine
 10
39.823211
 20
488.502881
 30
0.0
 11
39.823213
 21
473.902881
 31
0.0
  0
LINE
  5
523
330
1F
100
AcDbEntity
  8
LC-001-100-D00-0
 62
     7
370
    50
100
AcDbLine
 10
40.823213
 20
489.502881
 30
0.0
 11
39.823211
 21
488.502881
 31
0.0
  0
LINE
  5
524
330
1F
100
AcDbEntity
  8
LC-001-100-D00-0
 62
     7
370
    50
100
AcDbLine
 10
46.82321
 20
489.502881
 30
0.0
 11
40.823213
 21
489.502881
 31
0.0
  0
LINE
  5
525
330
1F
100
AcDbEntity
  8
LC-001-100-D00-0
 62
     7
370
    50
100
AcDbLine
 10
47.823212
 20
488.502881
 30
0.0
 11
46.82321
 21
489.502881
 31
0.0
  0
LINE
  5
526
330
1F
100
AcDbEntity
  8
LC-001-100-D00-0
 62
     7
370
    50
100
AcDbLine
 10
47.823213
 20
473.902881
 30
0.0
 11
47.823212
 21
488.502881
 31
0.0
  0
ARC
  5
527
330
1F
100
AcDbEntity
  8
LC-001-100-D00-0
 62
     7
370
    50
100
AcDbCircle
 10
48.823213
 20
472.402881
 30
0.0
 40
1.802775637732121
100
AcDbArc
 50
123.690068
 51
236.309932
  0
LINE
  5
528
330
1F
100
AcDbEntity
  8
LC-001-100-D00-0
 62
     7
370
    50
100
AcDbLine
 10
48.323213
 20
470.902882
 30
0.0
 11
47.823213
 21
470.902881
 31
0.0
  0
LINE
  5
529
330
1F
100
AcDbEntity
  8
LC-001-100-D00-0
 62
     7
370
    50
100
AcDbLine
 10
48.323213
 20
470.902882
 30
0.0
 11
48.323213
 21
469.50288
 31
0.0
  0
LINE
  5
52A
330
1F
100
AcDbEntity
  8
LC-001-100-D00-0
 62
     7
370
    50
100
AcDbLine
 10
48.323213
 20
469.50288
 30
0.0
 11
49.833828
 21
469.502881
 31
0.0
  0
ARC
  5
52B
330
1F
100
AcDbEntity
  8
LC-001-100-D00-0
 62
     7
370
    50
100
AcDbCircle
 10
49.833828
 20
465.502881
 30
0.0
 40
4.000000000000092
100
AcDbArc
 50
75.0
 51
90.0
  0
LINE
  5
52C
330
1F
100
AcDbEntity
  8
LC-001-100-D00-0
 62
     7
370
    50
100
AcDbLine
 10
68.702775
 20
464.588066
 30
0.0
 11
50.869104
 21
469.366584
 31
0.0
  0
ARC
  5
52D
330
1F
100
AcDbEntity
  8
LC-001-100-D00-0
 62
     7
370
    50
100
AcDbCircle
 10
69.349823
 20
467.002881
 30
0.0
 40
2.500000000000062
100
AcDbArc
 50
255.0
 51
270.0
  0
LINE
  5
52E
330
1F
100
AcDbEntity
  8
LC-001-100-D00-0
 62
     7
370
    50
100
AcDbLine
 10
74.746004
 20
464.502881
 30
0.0
 11
69.349823
 21
464.502881
 31
0.0
  0
LINE
  5
52F
330
1F
100
AcDbEntity
  8
LC-001-100-D00-0
 62
     7
370
    50
100
AcDbLine
 10
74.746004
 20
464.402882
 30
0.0
 11
74.746004
 21
464.502881
 31
0.0
  0
LINE
  5
530
330
1F
100
AcDbEntity
  8
LC-001-100-D00-0
 62
     7
370
    50
100
AcDbLine
 10
75.26984
 20
464.402882
 30
0.0
 11
74.746004
 21
464.402882
 31
0.0
  0
LINE
  5
531
330
1F
100
AcDbEntity
  8
LC-001-100-D00-0
 62
     7
370
    50
100
AcDbLine
 10
75.26984
 20
464.502881
 30
0.0
 11
75.26984
 21
464.402882
 31
0.0
  0
LINE
  5
532
330
1F
100
AcDbEntity
  8
LC-001-100-D00-0
 62
     7
370
    50
100
AcDbLine
 10
75.964085
 20
464.502881
 30
0.0
 11
75.26984
 21
464.502881
 31
0.0
  0
LINE
  5
533
330
1F
100
AcDbEntity
  8
LC-001-100-D00-0
 62
     7
370
    50
100
AcDbLine
 10
75.964085
 20
464.402882
 30
0.0
 11
75.964085
 21
464.502881
 31
0.0
  0
LINE
  5
534
330
1F
100
AcDbEntity
  8
LC-001-100-D00-0
 62
     7
370
    50
100
AcDbLine
 10
76.488434
 20
464.402882
 30
0.0
 11
75.964085
 21
464.402882
 31
0.0
  0
LINE
  5
535
330
1F
100
AcDbEntity
  8
LC-001-100-D00-0
 62
     7
370
    50
100
AcDbLine
 10
76.488434
 20
464.502881
 30
0.0
 11
76.488434
 21
464.402882
 31
0.0
  0
LINE
  5
536
330
1F
100
AcDbEntity
  8
LC-001-100-D00-0
 62
     7
370
    50
100
AcDbLine
 10
86.023213
 20
464.502881
 30
0.0
 11
76.488434
 21
464.502881
 31
0.0
  0
LINE
  5
537
330
1F
100
AcDbEntity
  8
LC-001-100-D00-0
 62
     7
370
    50
100
AcDbLine
 10
88.523213
 20
458.002881
 30
0.0
 11
87.023212
 21
458.00288
 31
0.0
  0
LINE
  5
538
330
1F
100
AcDbEntity
  8
LC-001-100-D00-0
 62
     7
370
    50
100
AcDbLine
 10
86.023213
 20
463.002881
 30
0.0
 11
69.349823
 21
463.002881
 31
0.0
  0
ARC
  5
539
330
1F
100
AcDbEntity
  8
LC-001-100-D00-0
 62
     7
370
    50
100
AcDbCircle
 10
69.349823
 20
467.002881
 30
0.0
 40
4.000000000000122
100
AcDbArc
 50
255.0
 51
270.0
  0
LINE
  5
53A
330
1F
100
AcDbEntity
  8
LC-001-100-D00-0
 62
     7
370
    50
100
AcDbLine
 10
68.314547
 20
463.139178
 30
0.0
 11
50.480875
 21
467.917696
 31
0.0
  0
ARC
  5
53B
330
1F
100
AcDbEntity
  8
LC-001-100-D00-0
 62
     7
370
    50
100
AcDbCircle
 10
49.833828
 20
465.502881
 30
0.0
 40
2.500000000000062
100
AcDbArc
 50
75.0
 51
90.0
  0
LINE
  5
53C
330
1F
100
AcDbEntity
  8
LC-001-100-D00-0
 62
     7
370
    50
100
AcDbLine
 10
-198.176787
 20
468.002881
 30
0.0
 11
49.833828
 21
468.002881
 31
0.0
  0
ARC
  5
53D
330
1F
100
AcDbEntity
  8
LC-001-100-D00-0
 62
     7
370
    50
100
AcDbCircle
 10
-198.176787
 20
477.502881
 30
0.0
 40
9.500000000000171
100
AcDbArc
 50
180.0
 51
270.0
  0
LINE
  5
53E
330
1F
100
AcDbEntity
  8
LC-001-100-D00-0
 62
     7
370
    50
100
AcDbLine
 10
-207.676787
 20
487.002881
 30
0.0
 11
-207.676787
 21
477.502881
 31
0.0
  0
ARC
  5
53F
330
1F
100
AcDbEntity
  8
LC-001-100-D00-0
 62
     7
370
    50
100
AcDbCircle
 10
-209.176787
 20
487.002881
 30
0.0
 40
1.5
100
AcDbArc
 50
0.0
 51
90.0
  0
LINE
  5
540
330
1F
100
AcDbEntity
  8
LC-001-100-D00-0
 62
     7
370
    50
100
AcDbLine
 10
-256.176787
 20
490.002881
 30
0.0
 11
-256.176793
 21
488.502881
 31
0.0
  0
ARC
  5
541
330
1F
100
AcDbEntity
  8
LC-001-100-D00-0
 62
     7
370
    50
100
AcDbCircle
 10
-209.176787
 20
487.002881
 30
0.0
 40
3.000000000000057
100
AcDbArc
 50
0.0
 51
90.0
  0
LINE
  5
542
330
1F
100
AcDbEntity
  8
LC-001-100-D00-0
 62
     7
370
    50
100
AcDbLine
 10
-206.176787
 20
487.002881
 30
0.0
 11
-206.176787
 21
477.502881
 31
0.0
  0
ARC
  5
543
330
1F
100
AcDbEntity
  8
LC-001-100-D00-0
 62
     7
370
    50
100
AcDbCircle
 10
-198.176787
 20
477.502881
 30
0.0
 40
8.000000000000114
100
AcDbArc
 50
180.0
 51
270.0
  0
LINE
  5
544
330
1F
100
AcDbEntity
  8
LC-001-100-D00-0
 62
     7
370
    50
100
AcDbLine
 10
-198.176787
 20
469.502881
 30
0.0
 11
-180.676782
 21
469.50288
 31
0.0
  0
LINE
  5
545
330
1F
100
AcDbEntity
  8
LC-001-100-D00-0
 62
     7
370
    50
100
AcDbLine
 10
-180.676782
 20
469.50288
 30
0.0
 11
-180.676782
 21
470.902882
 31
0.0
  0
LINE
  5
546
330
1F
100
AcDbEntity
  8
LC-001-100-D00-0
 62
     7
370
    50
100
AcDbLine
 10
-180.176787
 20
470.902881
 30
0.0
 11
-180.676782
 21
470.902882
 31
0.0
  0
ARC
  5
547
330
1F
100
AcDbEntity
  8
LC-001-100-D00-0
 62
     7
370
    50
100
AcDbCircle
 10
-181.176787
 20
472.402881
 30
0.0
 40
1.802775637731868
100
AcDbArc
 50
303.690068
 51
56.309932
  0
LINE
  5
548
330
1F
100
AcDbEntity
  8
LC-001-100-D00-0
 62
     7
370
    50
100
AcDbLine
 10
-180.176788
 20
488.502881
 30
0.0
 11
-180.176787
 21
473.902881
 31
0.0
  0
LINE
  5
549
330
1F
100
AcDbEntity
  8
LC-001-100-D00-0
 62
     7
370
    50
100
AcDbLine
 10
-179.176801
 20
489.502881
 30
0.0
 11
-180.176788
 21
488.502881
 31
0.0
  0
LINE
  5
54A
330
1F
100
AcDbEntity
  8
LC-001-100-D00-0
 62
     7
370
    50
100
AcDbLine
 10
-173.176789
 20
489.502881
 30
0.0
 11
-179.176801
 21
489.502881
 31
0.0
  0
LINE
  5
54B
330
1F
100
AcDbEntity
  8
LC-001-100-D00-0
 62
     7
370
    50
100
AcDbLine
 10
-172.176802
 20
488.502881
 30
0.0
 11
-173.176789
 21
489.502881
 31
0.0
  0
LINE
  5
54C
330
1F
100
AcDbEntity
  8
LC-001-100-D00-0
 62
     7
370
    50
100
AcDbLine
 10
-172.176787
 20
473.902881
 30
0.0
 11
-172.176802
 21
488.502881
 31
0.0
  0
ARC
  5
54D
330
1F
100
AcDbEntity
  8
LC-001-100-D00-0
 62
     7
370
    50
100
AcDbCircle
 10
-171.176787
 20
472.402881
 30
0.0
 40
1.802775637731837
100
AcDbArc
 50
123.690068
 51
236.309932
  0
LINE
  5
54E
330
1F
100
AcDbEntity
  8
LC-001-100-D00-0
 62
     7
370
    50
100
AcDbLine
 10
-209.176787
 20
490.002881
 30
0.0
 11
-256.176787
 21
490.002881
 31
0.0
  0
LINE
  5
54F
330
1F
100
AcDbEntity
  8
LC-001-100-D00-0
 62
     7
370
    50
100
AcDbLine
 10
-209.176787
 20
488.502881
 30
0.0
 11
-256.176793
 21
488.502881
 31
0.0
  0
LINE
  5
550
330
1F
100
AcDbEntity
  8
LC-001-100-D00-0
 62
     7
370
    50
100
AcDbLine
 10
75.964085
 20
464.502881
 30
0.0
 11
76.488434
 21
464.502881
 31
0.0
  0
LINE
  5
551
330
1F
100
AcDbEntity
  8
LC-001-100-D00-0
 62
     7
370
    50
100
AcDbLine
 10
74.746004
 20
464.502881
 30
0.0
 11
75.26984
 21
464.502881
 31
0.0
  0
ELLIPSE
  5
552
330
1F
100
AcDbEntity
  8
LC-001-100-D00-0
 62
     7
370
    50
100
AcDbEllipse
 10
348.84503
 20
465.502881
 30
0.0
 11
0.0
 21
-2.500000122070309
 31
0.0
210
0.0
220
0.0
230
1.0
 40
0.027578
 41
0.0
 42
0.3217505543986861
  0
ELLIPSE
  5
553
330
1F
100
AcDbEntity
  8
LC-001-100-D00-0
 62
     7
370
    50
100
AcDbEllipse
 10
-61.198604
 20
465.502881
 30
0.0
 11
0.0
 21
-2.500000000238419
 31
0.0
210
0.0
220
0.0
230
1.0
 40
0.027578
 41
5.961434752782523
 42
6.283185307179586
  0
LINE
  5
554
330
1F
100
AcDbEntity
  8
LC-001-100-D00-0
 62
     7
370
    50
100
AcDbLine
 10
348.823211
 20
467.874228
 30
0.0
 11
348.823211
 21
463.20884
 31
0.0
  0
LINE
  5
555
330
1F
100
AcDbEntity
  8
LC-001-100-D00-0
 62
     7
370
    50
100
AcDbLine
 10
-61.176785
 20
467.874228
 30
0.0
 11
-61.176785
 21
463.20884
 31
0.0
  0
INSERT
  5
55F
330
1F
100
AcDbEntity
  8
LC-001-100-D00-0
 62
     7
370
    50
100
AcDbBlockReference
  2
KLON14
 10
0.0
 20
0.0
 30
0.0
  0
INSERT
  5
569
330
1F
100
AcDbEntity
  8
LC-001-100-D00-0
 62
     7
370
    50
100
AcDbBlockReference
  2
KLON15
 10
0.0
 20
0.0
 30
0.0
  0
LINE
  5
56A
330
1F
100
AcDbEntity
  8
LC-001-100-D00-0
 62
     7
370
    50
100
AcDbLine
 10
348.823196
 20
463.00288
 30
0.0
 11
348.823181
 21
463.208148
 31
0.0
  0
LINE
  5
56B
330
1F
100
AcDbEntity
  8
LC-001-100-D00-0
 62
     7
370
    50
100
AcDbLine
 10
348.823211
 20
463.00288
 30
0.0
 11
476.73089
 21
467.671045
 31
0.0
  0
LINE
  5
56C
330
1F
100
AcDbEntity
  8
LC-001-100-D00-0
 62
     7
370
    50
100
AcDbLine
 10
348.823196
 20
463.00288
 30
0.0
 11
348.823196
 21
463.00288
 31
0.0
  0
LINE
  5
56D
330
1F
100
AcDbEntity
  8
LC-001-100-D00-0
 62
     7
370
    50
100
AcDbLine
 10
-61.17677
 20
463.00288
 30
0.0
 11
-61.176756
 21
463.208148
 31
0.0
  0
LINE
  5
56E
330
1F
100
AcDbEntity
  8
LC-001-100-D00-0
 62
     7
370
    50
100
AcDbLine
 10
-61.176785
 20
463.00288
 30
0.0
 11
-189.084464
 21
467.671045
 31
0.0
  0
LINE
  5
56F
330
1F
100
AcDbEntity
  8
LC-001-100-D00-0
 62
     7
370
    50
100
AcDbLine
 10
-61.17677
 20
463.00288
 30
0.0
 11
-61.17677
 21
463.00288
 31
0.0
  0
LINE
  5
570
330
1F
100
AcDbEntity
  8
LC-001-100-D00-0
 62
     7
370
    50
100
AcDbLine
 10
185.609369
 20
456.002881
 30
0.0
 11
187.911079
 21
456.002881
 31
0.0
  0
LINE
  5
571
330
1F
100
AcDbEntity
  8
LC-001-100-D00-0
 62
     7
370
    50
100
AcDbLine
 10
188.973128
 20
454.502881
 30
0.0
 11
189.068715
 21
454.510941
 31
0.0
  0
LINE
  5
572
330
1F
100
AcDbEntity
  8
LC-001-100-D00-0
 62
     7
370
    50
100
AcDbLine
 10
188.973128
 20
454.502881
 30
0.0
 11
185.609369
 21
454.502881
 31
0.0
  0
LINE
  5
573
330
1F
100
AcDbEntity
  8
LC-001-100-D00-0
 62
     7
370
    50
100
AcDbLine
 10
98.577711
 20
454.510941
 30
0.0
 11
98.673298
 21
454.502881
 31
0.0
  0
LINE
  5
574
330
1F
100
AcDbEntity
  8
LC-001-100-D00-0
 62
     7
370
    50
100
AcDbLine
 10
102.037056
 20
454.502881
 30
0.0
 11
98.673298
 21
454.502881
 31
0.0
  0
LINE
  5
575
330
1F
100
AcDbEntity
  8
LC-001-100-D00-0
 62
     7
370
    50
100
AcDbLine
 10
99.735346
 20
456.002881
 30
0.0
 11
102.037056
 21
456.002881
 31
0.0
  0
LINE
  5
576
330
1F
100
AcDbEntity
  8
LC-001-100-D00-0
 62
     7
370
    50
100
AcDbLine
 10
185.609369
 20
456.002881
 30
0.0
 11
184.832441
 21
456.002881
 31
0.0
  0
LINE
  5
577
330
1F
100
AcDbEntity
  8
LC-001-100-D00-0
 62
     7
370
    50
100
AcDbLine
 10
185.609369
 20
454.502881
 30
0.0
 11
184.832441
 21
454.502881
 31
0.0
  0
LINE
  5
578
330
1F
100
AcDbEntity
  8
LC-001-100-D00-0
 62
     7
370
    50
100
AcDbLine
 10
102.037056
 20
454.502881
 30
0.0
 11
102.813985
 21
454.502881
 31
0.0
  0
LINE
  5
579
330
1F
100
AcDbEntity
  8
LC-001-100-D00-0
 62
     7
370
    50
100
AcDbLine
 10
102.037056
 20
456.002881
 30
0.0
 11
102.813985
 21
456.002881
 31
0.0
  0
LINE
  5
57A
330
1F
100
AcDbEntity
  8
LC-001-100-D00-0
 62
     7
370
    50
100
AcDbLine
 10
218.296603
 20
463.002881
 30
0.0
 11
220.397203
 21
463.00288
 31
0.0
  0
LINE
  5
57B
330
1F
100
AcDbEntity
  8
LC-001-100-D00-0
 62
     7
370
    50
100
AcDbLine
 10
69.349823
 20
463.002881
 30
0.0
 11
67.249223
 21
463.00288
 31
0.0
  0
LINE
  5
57C
330
1F
100
AcDbEntity
  8
LC-001-100-D00-0
 62
     7
370
    50
100
AcDbLine
 10
183.562014
 20
456.002881
 30
0.0
 11
184.832441
 21
456.002881
 31
0.0
  0
LINE
  5
57D
330
1F
100
AcDbEntity
  8
LC-001-100-D00-0
 62
     7
370
    50
100
AcDbLine
 10
184.832441
 20
454.502881
 30
0.0
 11
183.537628
 21
454.502881
 31
0.0
  0
LINE
  5
57E
330
1F
100
AcDbEntity
  8
LC-001-100-D00-0
 62
     7
370
    50
100
AcDbLine
 10
104.108798
 20
454.502881
 30
0.0
 11
102.813985
 21
454.502881
 31
0.0
  0
LINE
  5
57F
330
1F
100
AcDbEntity
  8
LC-001-100-D00-0
 62
     7
370
    50
100
AcDbLine
 10
102.813985
 20
456.002881
 30
0.0
 11
104.084411
 21
456.002881
 31
0.0
  0
LINE
  5
580
330
1F
100
AcDbEntity
  8
LC-001-100-D00-0
 62
     7
370
    50
100
AcDbLine
 10
220.397203
 20
463.00288
 30
0.0
 11
238.323009
 21
463.00288
 31
0.0
  0
LINE
  5
581
330
1F
100
AcDbEntity
  8
LC-001-100-D00-0
 62
     7
370
    50
100
AcDbLine
 10
256.505466
 20
463.00288
 30
0.0
 11
348.823196
 21
463.00288
 31
0.0
  0
LINE
  5
582
330
1F
100
AcDbEntity
  8
LC-001-100-D00-0
 62
     7
370
    50
100
AcDbLine
 10
67.249223
 20
463.00288
 30
0.0
 11
-61.17677
 21
463.00288
 31
0.0
  0
ARC
  5
583
330
1F
100
AcDbEntity
  8
LC-001-100-D00-0
 62
     7
370
    50
100
AcDbCircle
 10
188.33884
 20
455.937032
 30
0.0
 40
1.602014939990397
100
AcDbArc
 50
297.103406
 51
2.355668
  0
INSERT
  5
58C
330
1F
100
AcDbEntity
  8
LC-001-100-D00-0
 62
     7
370
    50
100
AcDbBlockReference
  2
KLON16
 10
0.0
 20
0.0
 30
0.0
  0
INSERT
  5
599
330
1F
100
AcDbEntity
  8
LC-001-100-D00-0
 62
     7
370
    50
100
AcDbBlockReference
  2
KLON17
 10
0.0
 20
0.0
 30
0.0
  0
INSERT
  5
5A6
330
1F
100
AcDbEntity
  8
LC-001-100-D00-0
 62
     7
370
    50
100
AcDbBlockReference
  2
KLON18
 10
0.0
 20
0.0
 30
0.0
  0
LINE
  5
5A7
330
1F
100
AcDbEntity
  8
LC-001-100-D00-0
 62
     7
370
    50
100
AcDbLine
 10
491.323213
 20
490.002881
 30
0.0
 11
496.823213
 21
490.002881
 31
0.0
  0
LINE
  5
5A8
330
1F
100
AcDbEntity
  8
LC-001-100-D00-0
 62
     7
370
    50
100
AcDbLine
 10
-203.676787
 20
490.002881
 30
0.0
 11
-209.176787
 21
490.002881
 31
0.0
  0
LINE
  5
5A9
330
1F
100
AcDbEntity
  8
LC-001-100-D00-0
 62
     7
370
    50
100
AcDbLine
 10
491.323213
 20
490.002881
 30
0.0
 11
481.073213
 21
490.002881
 31
0.0
  0
LINE
  5
5AA
330
1F
100
AcDbEntity
  8
LC-001-100-D00-0
 62
     7
370
    50
100
AcDbLine
 10
446.573213
 20
490.002881
 30
0.0
 11
371.073213
 21
490.002881
 31
0.0
  0
LINE
  5
5AB
330
1F
100
AcDbEntity
  8
LC-001-100-D00-0
 62
     7
370
    50
100
AcDbLine
 10
336.573213
 20
490.002881
 30
0.0
 11
261.073213
 21
490.002881
 31
0.0
  0
LINE
  5
5AC
330
1F
100
AcDbEntity
  8
LC-001-100-D00-0
 62
     7
370
    50
100
AcDbLine
 10
226.573213
 20
490.002881
 30
0.0
 11
61.073213
 21
490.002881
 31
0.0
  0
LINE
  5
5AD
330
1F
100
AcDbEntity
  8
LC-001-100-D00-0
 62
     7
370
    50
100
AcDbLine
 10
26.573213
 20
490.002881
 30
0.0
 11
-48.926787
 21
490.002881
 31
0.0
  0
LINE
  5
5AE
330
1F
100
AcDbEntity
  8
LC-001-100-D00-0
 62
     7
370
    50
100
AcDbLine
 10
-83.426787
 20
490.002881
 30
0.0
 11
-158.926787
 21
490.002881
 31
0.0
  0
LINE
  5
5AF
330
1F
100
AcDbEntity
  8
LC-001-100-D00-0
 62
     7
370
    50
100
AcDbLine
 10
-193.426787
 20
490.002881
 30
0.0
 11
-203.676787
 21
490.002881
 31
0.0
  0
LINE
  5
5B0
330
1F
100
AcDbEntity
  8
LC-001-100-D00-0
 62
     7
370
    50
100
AcDbLine
 10
-256.176787
 20
490.002881
 30
0.0
 11
-256.176787
 21
491.502881
 31
0.0
  0
LINE
  5
5B1
330
1F
100
AcDbEntity
  8
LC-001-100-D00-0
 62
     7
370
    50
100
AcDbLine
 10
543.823213
 20
491.502881
 30
0.0
 11
543.823213
 21
490.002881
 31
0.0
  0
ARC
  5
5B2
330
1F
100
AcDbEntity
  8
LC-001-100-D00-0
 62
     7
370
    50
100
AcDbCircle
 10
-251.176787
 20
530.002881
 30
0.0
 40
5.0
100
AcDbArc
 50
90.0
 51
180.0
  0
LINE
  5
5B3
330
1F
100
AcDbEntity
  8
LC-001-100-D00-0
 62
     7
370
    50
100
AcDbLine
 10
-251.176787
 20
535.002881
 30
0.0
 11
538.823213
 21
535.002881
 31
0.0
  0
ARC
  5
5B4
330
1F
100
AcDbEntity
  8
LC-001-100-D00-0
 62
     7
370
    50
100
AcDbCircle
 10
538.823213
 20
530.002881
 30
0.0
 40
5.0
100
AcDbArc
 50
0.0
 51
90.0
  0
LINE
  5
5B5
330
1F
100
AcDbEntity
  8
LC-001-100-D00-0
 62
     7
370
    50
100
AcDbLine
 10
-256.176787
 20
530.002881
 30
0.0
 11
-256.176787
 21
491.502881
 31
0.0
  0
LINE
  5
5B6
330
1F
100
AcDbEntity
  8
LC-001-100-D00-0
 62
     7
370
    50
100
AcDbLine
 10
543.823213
 20
530.002881
 30
0.0
 11
543.823213
 21
491.502881
 31
0.0
  0
DIMENSION
  5
5B7
330
1F
100
AcDbEntity
  8
LC-001-100-D00-0
 62
     7
370
    25
100
AcDbDimension
  2
*D23
 10
-312.178087
 20
535.002881
 30
0.0
 11
-367.178087
 21
552.782502
 31
0.0
 70
   160
  1
46
 71
     5
 42
45.0
 53
90.0
  3
LC-DIM-L-0100-02-02
100
AcDbAlignedDimension
 13
-256.176787
 23
490.002881
 33
0.0
 14
-251.176787
 24
535.002881
 34
0.0
 50
90.0
100
AcDbRotatedDimension
  0
DIMENSION
  5
5C5
330
1F
100
AcDbEntity
  8
LC-001-100-D00-0
 62
     7
370
    25
100
AcDbDimension
  2
*D24
 10
543.823213
 20
630.002502
 30
0.0
 11
142.139999
 21
685.002502
 31
0.0
 70
   160
  1
800
 71
     5
 42
800.0
  3
LC-DIM-L-0100-02-02
100
AcDbAlignedDimension
 13
-256.176787
 23
530.002881
 33
0.0
 14
543.823213
 24
530.002881
 34
0.0
100
AcDbRotatedDimension
  0
DIMENSION
  5
5D2
330
1F
100
AcDbEntity
  8
LC-001-100-D00-0
 62
     7
370
    25
100
AcDbDimension
  2
*D25
 10
493.823213
 20
562.562285
 30
0.0
 11
138.088537
 21
617.562285
 31
0.0
 70
   160
  1
700
 71
     5
 42
700.0
  3
LC-DIM-L-0100-02-02
100
AcDbAlignedDimension
 13
-206.176787
 23
487.002881
 33
0.0
 14
493.823213
 24
487.002881
 34
0.0
100
AcDbRotatedDimension
  0
DIMENSION
  5
5DF
330
1F
100
AcDbEntity
  8
LC-001-100-D00-0
 62
     7
370
    25
100
AcDbDimension
  2
*D26
 10
353.32301
 20
293.452502
 30
0.0
 11
237.435988
 21
348.452502
 31
0.0
 70
   160
  1
284
 71
     5
 42
283.499797
  3
LC-DIM-L-0100-02-02
100
AcDbAlignedDimension
 13
69.823213
 23
419.002881
 33
0.0
 14
353.32301
 24
408.440703
 34
0.0
100
AcDbRotatedDimension
  0
DIMENSION
  5
5EC
330
1F
100
AcDbEntity
  8
LC-001-100-D00-0
 62
     7
370
    25
100
AcDbDimension
  2
*D27
 10
4.73648
 20
448.502881
 30
0.0
 11
-50.26352
 21
354.337502
 31
0.0
 70
   160
  1
30
 71
     5
 42
30.0
 53
90.0
  3
LC-DIM-L-0100-02-02
100
AcDbAlignedDimension
 13
114.823213
 23
418.502881
 33
0.0
 14
104.330334
 24
448.502881
 34
0.0
 50
90.0
100
AcDbRotatedDimension
  0
DIMENSION
  5
5FA
330
1F
100
AcDbEntity
  8
LC-001-100-D00-0
 62
     7
370
    25
100
AcDbDimension
  2
*D28
 10
638.565616
 20
407.502881
 30
0.0
 11
583.565616
 21
490.957502
 31
0.0
 70
   160
  1
DN50
 71
     5
 42
50.0
 53
90.0
  3
LC-DIM-L-0100-02-02
100
AcDbAlignedDimension
 13
349.82301
 23
457.502881
 33
0.0
 14
349.82301
 24
407.502881
 34
0.0
 50
90.0
100
AcDbRotatedDimension
  0
DIMENSION
  5
608
330
1F
100
AcDbEntity
  8
LC-001-100-D00-0
 62
     7
370
    25
100
AcDbDimension
  2
*D29
 10
740.510162
 20
432.502881
 30
0.0
 11
685.510162
 21
501.352502
 31
0.0
 70
   160
  1
57.5
 71
     5
 42
57.5
 53
90.0
  3
LC-DIM-L-0100-02-02
100
AcDbAlignedDimension
 13
543.823213
 23
490.002881
 33
0.0
 14
359.82301
 24
432.502881
 34
0.0
 50
90.0
100
AcDbRotatedDimension
  0
DIMENSION
  5
616
330
1F
100
AcDbEntity
  8
LC-001-100-D00-0
 62
     7
370
    25
100
AcDbDimension
  2
*D30
 10
826.941408
 20
400.002881
 30
0.0
 11
771.941408
 21
450.862502
 31
0.0
 70
   160
  1
90
 71
     5
 42
90.0
 53
90.0
  3
LC-DIM-L-0100-02-02
100
AcDbAlignedDimension
 13
543.823213
 23
490.002881
 33
0.0
 14
197.841093
 24
400.002881
 34
0.0
 50
90.0
100
AcDbRotatedDimension
  0
LINE
  5
625
330
1F
100
AcDbEntity
  8
LC-001-100-D00-0
 62
     7
370
    25
100
AcDbLine
 10
-75.926787
 20
485.598444
 30
0.0
 11
-71.522351
 21
490.002881
 31
0.0
  0
INSERT
  5
62B
330
1F
100
AcDbEntity
  8
LC-001-100-D00-0
 62
     7
370
    25
100
AcDbBlockReference
  2
KLON19
 10
0.0
 20
0.0
 30
0.0
  0
LINE
  5
62C
330
1F
100
AcDbEntity
  8
LC-001-100-D00-0
 62
     7
370
    50
100
AcDbLine
 10
-62.776787
 20
476.297804
 30
0.0
 11
-60.07171
 21
479.002881
 31
0.0
  0
LINE
  5
62D
330
1F
100
AcDbEntity
  8
LC-001-100-D00-0
 62
     7
370
    25
100
AcDbLine
 10
-186.785569
 20
486.99286
 30
0.0
 11
-183.775548
 21
490.002881
 31
0.0
  0
INSERT
  5
633
330
1F
100
AcDbEntity
  8
LC-001-100-D00-0
 62
     7
370
    25
100
AcDbBlockReference
  2
KLON20
 10
0.0
 20
0.0
 30
0.0
  0
LINE
  5
634
330
1F
100
AcDbEntity
  8
LC-001-100-D00-0
 62
     7
370
    25
100
AcDbLine
 10
344.073213
 20
479.036293
 30
0.0
 11
349.923213
 21
484.886294
 31
0.0
  0
INSERT
  5
63A
330
1F
100
AcDbEntity
  8
LC-001-100-D00-0
 62
     7
370
    25
100
AcDbBlockReference
  2
KLON21
 10
0.0
 20
0.0
 30
0.0
  0
LINE
  5
63B
330
1F
100
AcDbEntity
  8
LC-001-100-D00-0
 62
     7
370
    50
100
AcDbLine
 10
358.49044
 20
471.002881
 30
0.0
 11
360.174066
 21
472.686506
 31
0.0
  0
LINE
  5
63C
330
1F
100
AcDbEntity
  8
LC-001-100-D00-0
 62
     7
370
    25
100
AcDbLine
 10
234.073213
 20
481.289491
 30
0.0
 11
239.923213
 21
487.139491
 31
0.0
  0
INSERT
  5
642
330
1F
100
AcDbEntity
  8
LC-001-100-D00-0
 62
     7
370
    25
100
AcDbBlockReference
  2
KLON22
 10
0.0
 20
0.0
 30
0.0
  0
LINE
  5
643
330
1F
100
AcDbEntity
  8
LC-001-100-D00-0
 62
     7
370
    50
100
AcDbLine
 10
247.230228
 20
471.995866
 30
0.0
 11
249.023213
 21
473.788851
 31
0.0
  0
LINE
  5
644
330
1F
100
AcDbEntity
  8
LC-001-100-D00-0
 62
     7
370
    25
100
AcDbLine
 10
34.073213
 20
483.345247
 30
0.0
 11
39.923213
 21
489.195247
 31
0.0
  0
INSERT
  5
64A
330
1F
100
AcDbEntity
  8
LC-001-100-D00-0
 62
     7
370
    25
100
AcDbBlockReference
  2
KLON23
 10
0.0
 20
0.0
 30
0.0
  0
LINE
  5
64B
330
1F
100
AcDbEntity
  8
LC-001-100-D00-0
 62
     7
370
    50
100
AcDbLine
 10
47.223213
 20
474.044606
 30
0.0
 11
49.023213
 21
475.844606
 31
0.0
  0
LINE
  5
64C
330
1F
100
AcDbEntity
  8
LC-001-100-D00-0
 62
     7
370
    25
100
AcDbLine
 10
454.073213
 20
476.783096
 30
0.0
 11
459.923213
 21
482.633096
 31
0.0
  0
LINE
  5
64D
330
1F
100
AcDbEntity
  8
LC-001-100-D00-0
 62
     7
370
    25
100
AcDbLine
 10
470.743638
 20
471.002881
 30
0.0
 11
473.573213
 21
473.832456
 31
0.0
  0
INSERT
  5
654
330
1F
100
AcDbEntity
  8
LC-001-100-D00-0
 62
     7
370
    25
100
AcDbBlockReference
  2
KLON24
 10
0.0
 20
0.0
 30
0.0
  0
INSERT
  5
65B
330
1F
100
AcDbEntity
  8
LC-001-100-D00-0
 62
     7
370
    25
100
AcDbBlockReference
  2
KLON25
 10
0.0
 20
0.0
 30
0.0
  0
INSERT
  5
668
330
1F
100
AcDbEntity
  8
LC-001-100-D00-0
 62
     7
370
    25
100
AcDbBlockReference
  2
KLON26
 10
0.0
 20
0.0
 30
0.0
  0
INSERT
  5
670
330
1F
100
AcDbEntity
  8
LC-001-100-D00-0
 62
     7
370
    25
100
AcDbBlockReference
  2
KLON27
 10
0.0
 20
0.0
 30
0.0
  0
INSERT
  5
677
330
1F
100
AcDbEntity
  8
LC-001-100-D00-0
 62
     7
370
    25
100
AcDbBlockReference
  2
KLON28
 10
0.0
 20
0.0
 30
0.0
  0
INSERT
  5
68C
330
1F
100
AcDbEntity
  8
LC-001-100-D00-0
 62
     7
370
    25
100
AcDbBlockReference
  2
KLON29
 10
0.0
 20
0.0
 30
0.0
  0
INSERT
  5
6A3
330
1F
100
AcDbEntity
  8
LC-001-100-D00-0
 62
     7
370
    25
100
AcDbBlockReference
  2
KLON30
 10
0.0
 20
0.0
 30
0.0
  0
INSERT
  5
6B2
330
1F
100
AcDbEntity
  8
LC-001-100-D00-0
 62
     7
370
    25
100
AcDbBlockReference
  2
KLON31
 10
0.0
 20
0.0
 30
0.0
  0
INSERT
  5
6B9
330
1F
100
AcDbEntity
  8
LC-001-100-D00-0
 62
     7
370
    25
100
AcDbBlockReference
  2
KLON32
 10
0.0
 20
0.0
 30
0.0
  0
LINE
  5
6BA
330
1F
100
AcDbEntity
  8
LC-001-100-D00-0
 62
     7
370
    25
100
AcDbLine
 10
78.823213
 20
460.743326
 30
0.0
 11
81.082767
 21
463.002881
 31
0.0
  0
INSERT
  5
6C0
330
1F
100
AcDbEntity
  8
LC-001-100-D00-0
 62
     7
370
    25
100
AcDbBlockReference
  2
KLON33
 10
0.0
 20
0.0
 30
0.0
  0
LINE
  5
6C1
330
1F
100
AcDbEntity
  8
LC-001-100-D00-0
 62
     7
370
    25
100
AcDbLine
 10
75.823213
 20
457.743326
 30
0.0
 11
78.823213
 21
460.743326
 31
0.0
  0
LINE
  5
6C2
330
1F
100
AcDbEntity
  8
LC-001-100-D00-0
  6
DASHDOT
 62
     7
370
    25
100
AcDbLine
 10
359.82301
 20
432.502881
 30
0.0
 11
256.797994
 21
432.502881
 31
0.0
  0
LINE
  5
6C3
330
1F
100
AcDbEntity
  8
LC-001-100-D00-0
  6
DASHDOT
 62
     7
370
    25
100
AcDbLine
 10
143.823213
 20
535.002881
 30
0.0
 11
143.823213
 21
397.502881
 31
0.0
  0
LINE
  5
6C4
330
1F
100
AcDbEntity
  8
LC-001-100-D00-0
  6
DASHDOT
 62
     7
370
    25
100
AcDbLine
 10
43.823213
 20
462.002881
 30
0.0
 11
43.823213
 21
496.002881
 31
0.0
  0
LINE
  5
6C5
330
1F
100
AcDbEntity
  8
LC-001-100-D00-0
  6
DASHDOT
 62
     7
370
    25
100
AcDbLine
 10
-66.176787
 20
462.002881
 30
0.0
 11
-66.176787
 21
496.002881
 31
0.0
  0
LINE
  5
6C6
330
1F
100
AcDbEntity
  8
LC-001-100-D00-0
  6
DASHDOT
 62
     7
370
    25
100
AcDbLine
 10
243.823213
 20
462.002881
 30
0.0
 11
243.823213
 21
496.002881
 31
0.0
  0
LINE
  5
6C7
330
1F
100
AcDbEntity
  8
LC-001-100-D00-0
  6
DASHDOT
 62
     7
370
    25
100
AcDbLine
 10
353.823213
 20
462.002881
 30
0.0
 11
353.823213
 21
496.002881
 31
0.0
  0
LINE
  5
6C8
330
1F
100
AcDbEntity
  8
LC-001-100-D00-0
  6
DASHDOT
 62
     7
370
    25
100
AcDbLine
 10
463.823213
 20
462.002881
 30
0.0
 11
463.823213
 21
496.002881
 31
0.0
  0
LINE
  5
6C9
330
1F
100
AcDbEntity
  8
LC-001-100-D00-0
  6
DASHDOT
 62
     7
370
    25
100
AcDbLine
 10
-176.176787
 20
462.002881
 30
0.0
 11
-176.176787
 21
496.002881
 31
0.0
  0
ENDSEC
  0
SECTION
  2
OBJECTS
  0
DICTIONARY
  5
C
330
0
100
AcDbDictionary
281
     1
  3
ACAD_GROUP
350
D
  3
ACAD_LAYOUT
350
1A
  3
ACAD_MLINESTYLE
350
17
  3
ACAD_PLOTSETTINGS
350
19
  3
ACAD_PLOTSTYLENAME
350
E
  0
DICTIONARY
  5
D
102
{ACAD_REACTORS
330
C
102
}
330
C
100
AcDbDictionary
281
     1
  0
DICTIONARY
  5
1A
102
{ACAD_REACTORS
330
C
102
}
330
C
100
AcDbDictionary
281
     1
  3
Layout1
350
1E
  3
Layout2
350
26
  3
Model
350
22
  0
DICTIONARY
  5
17
102
{ACAD_REACTORS
330
C
102
}
330
C
100
AcDbDictionary
281
     1
  3
Standard
350
18
  0
DICTIONARY
  5
19
102
{ACAD_REACTORS
330
C
102
}
330
C
100
AcDbDictionary
281
     1
  0
ACDBDICTIONARYWDFLT
  5
E
102
{ACAD_REACTORS
330
C
102
}
330
C
100
AcDbDictionary
281
     1
  3
Normal
350
F
100
AcDbDictionaryWithDefault
340
F
  0
LAYOUT
  5
1E
102
{ACAD_REACTORS
330
1A
102
}
330
1A
100
AcDbPlotSettings
  1

  2

  4

  6

 40
0.0
 41
0.0
 42
0.0
 43
0.0
 44
0.0
 45
0.0
 46
0.0
 47
0.0
 48
0.0
 49
0.0
140
0.0
141
0.0
142
1.0
143
1.0
 70
   688
 72
     0
 73
     0
 74
     5
  7

 75
    16
147
1.0
148
0.0
149
0.0
100
AcDbLayout
  1
Layout1
 70
     1
 71
     1
 10
-854.671542
 20
-591.607498
 11
1245.328458
 21
893.392502
 12
0.0
 22
0.0
 32
0.0
 14
-854.671542
 24
-591.607498
 34
0.0
 15
1245.328458
 25
893.392502
 35
0.0
146
0.0
 13
0.0
 23
0.0
 33
0.0
 16
1.0
 26
0.0
 36
0.0
 17
0.0
 27
1.0
 37
0.0
 76
     0
330
1B
  0
LAYOUT
  5
26
102
{ACAD_REACTORS
330
1A
102
}
330
1A
100
AcDbPlotSettings
  1

  2

  4

  6

 40
0.0
 41
0.0
 42
0.0
 43
0.0
 44
0.0
 45
0.0
 46
0.0
 47
0.0
 48
0.0
 49
0.0
140
0.0
141
0.0
142
1.0
143
1.0
 70
   688
 72
     0
 73
     0
 74
     5
  7

 75
    16
147
1.0
148
0.0
149
0.0
100
AcDbLayout
  1
Layout2
 70
     1
 71
     2
 10
0.0
 20
0.0
 11
0.0
 21
0.0
 12
0.0
 22
0.0
 32
0.0
 14
0.0
 24
0.0
 34
0.0
 15
0.0
 25
0.0
 35
0.0
146
0.0
 13
0.0
 23
0.0
 33
0.0
 16
1.0
 26
0.0
 36
0.0
 17
0.0
 27
1.0
 37
0.0
 76
     0
330
23
  0
LAYOUT
  5
22
102
{ACAD_REACTORS
330
1A
102
}
330
1A
100
AcDbPlotSettings
  1

  2

  4

  6

 40
0.0
 41
0.0
 42
0.0
 43
0.0
 44
0.0
 45
0.0
 46
0.0
 47
0.0
 48
0.0
 49
0.0
140
0.0
141
0.0
142
1.0
143
1.0
 70
  1776
 72
     0
 73
     0
 74
     0
  7

 75
     0
147
1.0
148
0.0
149
0.0
100
AcDbLayout
  1
Model
 70
     1
 71
     0
 10
-854.671542
 20
-591.607498
 11
1245.328458
 21
893.392502
 12
0.0
 22
0.0
 32
0.0
 14
-854.671542
 24
-591.607498
 34
0.0
 15
1245.328458
 25
893.392502
 35
0.0
146
0.0
 13
0.0
 23
0.0
 33
0.0
 16
1.0
 26
0.0
 36
0.0
 17
0.0
 27
1.0
 37
0.0
 76
     0
330
1F
  0
MLINESTYLE
  5
18
102
{ACAD_REACTORS
330
17
102
}
330
17
100
AcDbMlineStyle
  2
Standard
 70
     0
  3

 62
   256
 51
90.0
 52
90.0
 71
     2
 49
0.5
 62
   256
  6
BYLAYER
 49
-0.5
 62
   256
  6
BYLAYER
  0
ACDBPLACEHOLDER
  5
F
102
{ACAD_REACTORS
330
E
102
}
330
E
  0
ENDSEC
  0
EOF
