  0
SECTION
  2
HEADER
  9
$ACADVER
  1
AC1009
  9
$INSBASE
 10
0.0
 20
0.0
 30
0.0
  9
$EXTMIN
 10
0.0
 20
0.0
 30
0.0
  9
$EXTMAX
 10
840.0
 20
594.0
 30
0.0
  9
$LIMMIN
 10
0.0
 20
0.0
  9
$LIMMAX
 10
840.0
 20
594.0
  9
$ORTHOMODE
 70
     0
  9
$REGENMODE
 70
     1
  9
$FILLMODE
 70
     1
  9
$QTEXTMODE
 70
     0
  9
$MIRRTEXT
 70
     1
  9
$DRAGMODE
 70
     2
  9
$LTSCALE
 40
2.0
  9
$OSMODE
 70
     0
  9
$ATTMODE
 70
     1
  9
$TEXTSIZE
 40
0.2
  9
$TRACEWID
 40
0.05
  9
$TEXTSTYLE
  7
STANDARD
  9
$CLAYER
  8
0
  9
$CELTYPE
  6
BYLAYER
  9
$CECOLOR
 62
     7
  9
$DIMSCALE
 40
2.0
  9
$DIMASZ
 40
3.5
  9
$DIMEXO
 40
0.0625
  9
$DIMDLI
 40
0.38
  9
$DIMRND
 40
0.0
  9
$DIMDLE
 40
0.0
  9
$DIMEXE
 40
0.18
  9
$DIMTP
 40
0.0
  9
$DIMTM
 40
0.0
  9
$DIMTXT
 40
3.5
  9
$DIMCEN
 40
0.09
  9
$DIMTSZ
 40
0.0
  9
$DIMTOL
 70
     0
  9
$DIMLIM
 70
     0
  9
$DIMTIH
 70
     1
  9
$DIMTOH
 70
     1
  9
$DIMSE1
 70
     0
  9
$DIMSE2
 70
     0
  9
$DIMTAD
 70
     1
  9
$DIMZIN
 70
     0
  9
$DIMBLK
  1

  9
$DIMASO
 70
     1
  9
$DIMSHO
 70
     1
  9
$DIMPOST
  1

  9
$DIMAPOST
  1

  9
$DIMALT
 70
     0
  9
$DIMALTD
 70
     2
  9
$DIMALTF
 40
25.4
  9
$DIMLFAC
 40
1.0
  9
$DIMTOFL
 70
     0
  9
$DIMTVP
 40
0.0
  9
$DIMTIX
 70
     0
  9
$DIMSOXD
 70
     0
  9
$DIMSAH
 70
     0
  9
$DIMBLK1
  1

  9
$DIMBLK2
  1

  9
$DIMSTYLE
  2
STANDARD
  9
$DIMCLRD
 70
     0
  9
$DIMCLRE
 70
     0
  9
$DIMCLRT
 70
     0
  9
$DIMTFAC
 40
1.0
  9
$DIMGAP
 40
0.09
  9
$LUNITS
 70
     2
  9
$LUPREC
 70
     2
  9
$AXISMODE
 70
     0
  9
$AXISUNIT
 10
0.0
 20
0.0
  9
$SKETCHINC
 40
0.1
  9
$FILLETRAD
 40
0.0
  9
$AUNITS
 70
     0
  9
$AUPREC
 70
     0
  9
$MENU
  1
acad
  9
$ELEVATION
 40
0.0
  9
$PELEVATION
 40
0.0
  9
$THICKNESS
 40
0.0
  9
$LIMCHECK
 70
     0
  9
$BLIPMODE
 70
     1
  9
$CHAMFERA
 40
0.0
  9
$CHAMFERB
 40
0.0
  9
$SKPOLY
 70
     0
  9
$TDCREATE
 40
0.000000000
  9
$TDUPDATE
 40
0.000000000
  9
$TDINDWG
 40
0.0000000000
  9
$TDUSRTIMER
 40
0.0000000000
  9
$USRTIMER
 70
     1
  9
$ANGBASE
 50
0.0
  9
$ANGDIR
 70
     0
  9
$PDMODE
 70
     0
  9
$PDSIZE
 40
0.0
  9
$PLINEWID
 40
0.0
  9
$COORDS
 70
     0
  9
$SPLFRAME
 70
     0
  9
$SPLINETYPE
 70
     6
  9
$SPLINESEGS
 70
     8
  9
$ATTDIA
 70
     0
  9
$ATTREQ
 70
     1
  9
$HANDLING
 70
     1
  9
$HANDSEED
  5
8A4
  9
$SURFTAB1
 70
     6
  9
$SURFTAB2
 70
     6
  9
$SURFTYPE
 70
     6
  9
$SURFU
 70
     6
  9
$SURFV
 70
     6
  9
$UCSNAME
  2

  9
$UCSORG
 10
0.0
 20
0.0
 30
0.0
  9
$UCSXDIR
 10
1.0
 20
0.0
 30
0.0
  9
$UCSYDIR
 10
0.0
 20
1.0
 30
0.0
  9
$PUCSNAME
  2

  9
$PUCSORG
 10
0.0
 20
0.0
 30
0.0
  9
$PUCSXDIR
 10
1.0
 20
0.0
 30
0.0
  9
$PUCSYDIR
 10
0.0
 20
1.0
 30
0.0
  9
$USERI1
 70
     0
  9
$USERI2
 70
     0
  9
$USERI3
 70
     0
  9
$USERI4
 70
     0
  9
$USERI5
 70
     0
  9
$USERR1
 40
0.0
  9
$USERR2
 40
0.0
  9
$USERR3
 40
0.0
  9
$USERR4
 40
0.0
  9
$USERR5
 40
0.0
  9
$WORLDVIEW
 70
     1
  9
$SHADEDGE
 70
     3
  9
$SHADEDIF
 70
    70
  9
$TILEMODE
 70
     1
  9
$MAXACTVP
 70
    16
  9
$PINSBASE
 10
0.0
 20
0.0
 30
0.0
  9
$PLIMCHECK
 70
     0
  9
$PEXTMIN
 10
1.000000E+20
 20
1.000000E+20
 30
1.000000E+20
  9
$PEXTMAX
 10
-1.000000E+20
 20
-1.000000E+20
 30
-1.000000E+20
  9
$PLIMMIN
 10
0.0
 20
0.0
  9
$PLIMMAX
 10
840.0
 20
594.0
  9
$UNITMODE
 70
     0
  9
$VISRETAIN
 70
     0
  9
$PLINEGEN
 70
     1
  9
$PSLTSCALE
 70
     0
  9
$TREEDEPTH
 70
  3020
  9
$DWGCODEPAGE
  3
dos850
  0
ENDSEC
  0
SECTION
  2
TABLES
  0
TABLE
  2
VPORT
 70
     1
  0
VPORT
  2
*ACTIVE
 70
     0
 10
0.0
 20
0.0
 11
1.0
 21
1.0
 12
420.0
 22
297.0
 13
0.0
 23
0.0
 14
1.0
 24
1.0
 15
0.0
 25
0.0
 16
0.0
 26
0.0
 36
1.0
 17
0.0
 27
0.0
 37
0.0
 40
594.0
 41
1.604229
 42
50.0
 43
0.0
 44
0.0
 50
0.0
 51
0.0
 71
     0
 72
   100
 73
     1
 74
     1
 75
     0
 76
     0
 77
     0
 78
     0
  0
ENDTAB
  0
TABLE
  2
LTYPE
 70
     3
  0
LTYPE
  2
CONTINUOUS
 70
    64
  3
Solid line
 72
    65
 73
     0
 40
0.0
  0
LTYPE
  2
DASHED
 70
    64
  3
__ __ __ __ __
 72
    65
 73
     2
 40
6.25
 49
5.0
 49
-1.25
  0
LTYPE
  2
DASHDOT
 70
    64
  3
__ . __ . __ . __ . __
 72
    65
 73
     4
 40
7.5
 49
5.0
 49
-1.25
 49
0.0
 49
-1.25
  0
ENDTAB
  0
TABLE
  2
LAYER
 70
    19
  0
LAYER
  2
0
 70
     0
 62
     7
  6
CONTINUOUS
  0
LAYER
  2
LC-INFO-1-2-MM-A3-0
 70
     1
 62
    -1
  6
CONTINUOUS
  0
LAYER
  2
LC-006-005-----0
 70
     0
 62
     2
  6
CONTINUOUS
  0
LAYER
  2
LC-014-003-MTH-0
 70
     0
 62
     2
  6
CONTINUOUS
  0
LAYER
  2
LC-013-003-----0
 70
     0
 62
     2
  6
CONTINUOUS
  0
LAYER
  2
LC-015-003-MTG-0
 70
     0
 62
     2
  6
CONTINUOUS
  0
LAYER
  2
LC-002-000-----0
 70
     0
 62
     7
  6
CONTINUOUS
  0
LAYER
  2
LC-011-000-----0
 70
     0
 62
     7
  6
CONTINUOUS
  0
LAYER
  2
LC-001-205-----0
 70
     0
 62
     1
  6
CONTINUOUS
  0
LAYER
  2
LC-003-002-----0
 70
     0
 62
     1
  6
CONTINUOUS
  0
LAYER
  2
LC-004-205-RND-0
 70
     0
 62
     1
  6
CONTINUOUS
  0
LAYER
  2
LC-005-002-RND-0
 70
     0
 62
     1
  6
CONTINUOUS
  0
LAYER
  2
LC-007-209-----0
 70
     0
 62
     2
  6
DASHED
  0
LAYER
  2
LC-008-208-----0
 70
     0
 62
     2
  6
DASHED
  0
LAYER
  2
LC-009-207-----0
 70
     0
 62
     1
  6
CONTINUOUS
  0
LAYER
  2
LC-010-207-RND-0
 70
     0
 62
     1
  6
CONTINUOUS
  0
LAYER
  2
LC-012-206-----0
 70
     0
 62
     1
  6
CONTINUOUS
  0
LAYER
  2
LC-016-001-----0
 70
     0
 62
     1
  6
CONTINUOUS
  0
LAYER
  2
LC-000
 70
     0
 62
     7
  6
CONTINUOUS
  0
ENDTAB
  0
TABLE
  2
STYLE
 70
     4
  0
STYLE
  2
STANDARD
 70
     0
 40
0.0
 41
1.0
 50
0.0
 71
     0
 42
0.0
  3
txt
  4

  0
STYLE
  2
LC-STANDARD
 70
    64
 40
0.0
 41
1.0
 50
0.0
 71
     0
 42
3.5
  3
MONOTXT
  4

  0
STYLE
  2
LC-TXTSTYLE-150-400-0-0-A2
 70
    64
 40
0.0
 41
1.0
 50
15.0
 71
     0
 42
3.5
  3
MONOTXT
  4

  0
STYLE
  2
LC-TXTSTYLE-150-400-0-0-D3
 70
    64
 40
0.0
 41
1.0
 50
15.0
 71
     0
 42
3.5
  3
LC-STANDARD
  4

  0
ENDTAB
  0
TABLE
  2
VIEW
 70
     0
  0
ENDTAB
  0
TABLE
  2
UCS
 70
     0
  0
ENDTAB
  0
TABLE
  2
APPID
 70
     1
  0
APPID
  2
ACAD
 70
     0
  0
ENDTAB
  0
TABLE
  2
DIMSTYLE
 70
     4
  0
DIMSTYLE
  2
STANDARD
 70
     0
  3

  4

  5

  6

  7

 40
1.0
 41
0.18
 42
0.0625
 43
0.38
 44
0.18
 45
0.0
 46
0.0
 47
0.0
 48
0.0
 71
     0
 72
     0
 73
     1
 74
     1
 75
     0
 76
     0
 77
     0
 78
     0
140
0.18
141
0.09
142
0.0
143
25.4
144
1.0
145
0.0
146
1.0
147
0.09
170
     0
171
     2
172
     0
173
     0
174
     0
175
     0
176
     0
177
     0
178
     0
  0
DIMSTYLE
  2
LC-STANDARD
 70
     0
  3

  4

  5

  6

  7

 40
1.0
 41
3.5
 42
0.0
 43
7.5
 44
1.8
 45
0.0
 46
0.0
 47
0.0
 48
0.0
 71
     0
 72
     0
 73
     0
 74
     0
 75
     0
 76
     0
 77
     1
 78
     8
140
3.5
141
0.0
142
0.0
143
25.4
144
1.0
145
0.0
146
0.71
147
1.5
170
     0
171
     2
172
     1
173
     0
174
     0
175
     0
176
     0
177
     0
178
     3
  0
DIMSTYLE
  2
LC-DIM-L-0140-02-02
 70
     0
  3

  4

  5

  6

  7

 40
2.0
 41
3.5
 42
0.0
 43
7.5
 44
1.8
 45
0.0
 46
0.0
 47
0.0
 48
0.0
 71
     0
 72
     0
 73
     0
 74
     0
 75
     0
 76
     0
 77
     1
 78
     8
140
14.0
141
0.0
142
0.0
143
25.4
144
1.0
145
0.0
146
0.71
147
1.5
170
     0
171
     2
172
     0
173
     0
174
     0
175
     0
176
     2
177
     2
178
     8
  0
DIMSTYLE
  2
LC-DIM-W-0140-02-02
 70
     0
  3

  4

  5

  6

  7

 40
2.0
 41
3.5
 42
0.0
 43
7.5
 44
1.8
 45
0.0
 46
0.0
 47
0.0
 48
0.0
 71
     0
 72
     0
 73
     0
 74
     0
 75
     0
 76
     0
 77
     1
 78
     8
140
14.0
141
0.0
142
0.0
143
25.4
144
1.0
145
0.0
146
0.71
147
1.5
170
     0
171
     2
172
     0
173
     0
174
     0
175
     0
176
     2
177
     2
178
     8
  0
ENDTAB
  0
ENDSEC
  0
SECTION
  2
BLOCKS
  0
BLOCK
  8
0
  5
24
  2
BLK1
 70
    64
 10
0.0
 20
0.0
 30
0.0
  3
BLK1
  0
ENDBLK
  8
0
  5
25
  0
BLOCK
  8
0
  5
27
  2
*X1
 70
    65
 10
226.510091
 20
246.852788
 30
0.0
  3
*X1
  0
LINE
  8
LC-006-005-----0
  6
CONTINUOUS
  5
29
 10
226.798038
 20
248.377719
 30
0.0
 11
228.035023
 21
247.140734
 31
0.0
  0
LINE
  8
LC-006-005-----0
  6
CONTINUOUS
  5
2A
 10
226.545752
 20
250.044219
 30
0.0
 11
229.737183
 21
246.852788
 31
0.0
  0
LINE
  8
LC-006-005-----0
  6
CONTINUOUS
  5
2B
 10
226.934192
 20
251.069993
 30
0.0
 11
231.151396
 21
246.852788
 31
0.0
  0
LINE
  8
LC-006-005-----0
  6
CONTINUOUS
  5
2C
 10
227.613247
 20
251.805151
 30
0.0
 11
232.550259
 21
246.868139
 31
0.0
  0
LINE
  8
LC-006-005-----0
  6
CONTINUOUS
  5
2D
 10
228.568268
 20
252.264344
 30
0.0
 11
233.620027
 21
247.212584
 31
0.0
  0
LINE
  8
LC-006-005-----0
  6
CONTINUOUS
  5
2E
 10
229.894037
 20
252.352788
 30
0.0
 11
234.387109
 21
247.859716
 31
0.0
  0
LINE
  8
LC-006-005-----0
  6
CONTINUOUS
  5
2F
 10
231.308251
 20
252.352788
 30
0.0
 11
234.883383
 21
248.777656
 31
0.0
  0
LINE
  8
LC-006-005-----0
  6
CONTINUOUS
  5
30
 10
232.770187
 20
252.305065
 30
0.0
 11
234.962369
 21
250.112883
 31
0.0
  0
ENDBLK
  8
0
  5
31
  0
BLOCK
  8
0
  5
33
  2
*X2
 70
    65
 10
226.510091
 20
192.352788
 30
0.0
  3
*X2
  0
LINE
  8
LC-006-005-----0
  6
CONTINUOUS
  5
34
 10
226.516211
 20
194.919431
 30
0.0
 11
229.076734
 21
192.358907
 31
0.0
  0
LINE
  8
LC-006-005-----0
  6
CONTINUOUS
  5
35
 10
226.712228
 20
196.137627
 30
0.0
 11
230.497067
 21
192.352788
 31
0.0
  0
LINE
  8
LC-006-005-----0
  6
CONTINUOUS
  5
36
 10
227.26677
 20
196.997298
 30
0.0
 11
231.911281
 21
192.352788
 31
0.0
  0
LINE
  8
LC-006-005-----0
  6
CONTINUOUS
  5
37
 10
228.087853
 20
197.590429
 30
0.0
 11
233.170443
 21
192.507839
 31
0.0
  0
LINE
  8
LC-006-005-----0
  6
CONTINUOUS
  5
38
 10
229.239783
 20
197.852713
 30
0.0
 11
234.064738
 21
193.027758
 31
0.0
  0
LINE
  8
LC-006-005-----0
  6
CONTINUOUS
  5
39
 10
230.653922
 20
197.852788
 30
0.0
 11
234.690544
 21
193.816165
 31
0.0
  0
LINE
  8
LC-006-005-----0
  6
CONTINUOUS
  5
3A
 10
232.068135
 20
197.852788
 30
0.0
 11
235.003816
 21
194.917107
 31
0.0
  0
ENDBLK
  8
0
  5
3B
  0
BLOCK
  8
0
  5
3D
  2
*X3
 70
    65
 10
419.984722
 20
247.243137
 30
0.0
  3
*X3
  0
LINE
  8
LC-006-005-----0
  6
CONTINUOUS
  5
3E
 10
419.984722
 20
247.524079
 30
0.0
 11
420.265664
 21
247.243137
 31
0.0
  0
LINE
  8
LC-006-005-----0
  6
CONTINUOUS
  5
3F
 10
419.984722
 20
247.806922
 30
0.0
 11
420.548507
 21
247.243137
 31
0.0
  0
LINE
  8
LC-006-005-----0
  6
CONTINUOUS
  5
40
 10
419.984722
 20
248.089764
 30
0.0
 11
420.83135
 21
247.243137
 31
0.0
  0
LINE
  8
LC-006-005-----0
  6
CONTINUOUS
  5
41
 10
419.984722
 20
248.372607
 30
0.0
 11
421.114192
 21
247.243137
 31
0.0
  0
LINE
  8
LC-006-005-----0
  6
CONTINUOUS
  5
42
 10
420.207035
 20
248.433137
 30
0.0
 11
421.397035
 21
247.243137
 31
0.0
  0
LINE
  8
LC-006-005-----0
  6
CONTINUOUS
  5
43
 10
420.489878
 20
248.433137
 30
0.0
 11
421.679878
 21
247.243137
 31
0.0
  0
LINE
  8
LC-006-005-----0
  6
CONTINUOUS
  5
44
 10
420.772721
 20
248.433137
 30
0.0
 11
421.962721
 21
247.243137
 31
0.0
  0
LINE
  8
LC-006-005-----0
  6
CONTINUOUS
  5
45
 10
421.055563
 20
248.433137
 30
0.0
 11
422.245563
 21
247.243137
 31
0.0
  0
LINE
  8
LC-006-005-----0
  6
CONTINUOUS
  5
46
 10
421.338406
 20
248.433137
 30
0.0
 11
422.528406
 21
247.243137
 31
0.0
  0
LINE
  8
LC-006-005-----0
  6
CONTINUOUS
  5
47
 10
421.621249
 20
248.433137
 30
0.0
 11
422.811249
 21
247.243137
 31
0.0
  0
LINE
  8
LC-006-005-----0
  6
CONTINUOUS
  5
48
 10
421.904091
 20
248.433137
 30
0.0
 11
423.094091
 21
247.243137
 31
0.0
  0
LINE
  8
LC-006-005-----0
  6
CONTINUOUS
  5
49
 10
422.186934
 20
248.433137
 30
0.0
 11
423.376934
 21
247.243137
 31
0.0
  0
LINE
  8
LC-006-005-----0
  6
CONTINUOUS
  5
4A
 10
422.469777
 20
248.433137
 30
0.0
 11
423.659777
 21
247.243137
 31
0.0
  0
LINE
  8
LC-006-005-----0
  6
CONTINUOUS
  5
4B
 10
422.75262
 20
248.433137
 30
0.0
 11
423.94262
 21
247.243137
 31
0.0
  0
LINE
  8
LC-006-005-----0
  6
CONTINUOUS
  5
4C
 10
423.035462
 20
248.433137
 30
0.0
 11
424.134722
 21
247.333877
 31
0.0
  0
LINE
  8
LC-006-005-----0
  6
CONTINUOUS
  5
4D
 10
423.318305
 20
248.433137
 30
0.0
 11
424.134722
 21
247.61672
 31
0.0
  0
LINE
  8
LC-006-005-----0
  6
CONTINUOUS
  5
4E
 10
423.601148
 20
248.433137
 30
0.0
 11
424.134722
 21
247.899562
 31
0.0
  0
LINE
  8
LC-006-005-----0
  6
CONTINUOUS
  5
4F
 10
423.88399
 20
248.433137
 30
0.0
 11
424.134722
 21
248.182405
 31
0.0
  0
ENDBLK
  8
0
  5
50
  0
BLOCK
  8
0
  5
52
  2
*X4
 70
    65
 10
458.834722
 20
247.243137
 30
0.0
  3
*X4
  0
LINE
  8
LC-006-005-----0
  6
CONTINUOUS
  5
53
 10
458.834722
 20
247.423531
 30
0.0
 11
459.015116
 21
247.243137
 31
0.0
  0
LINE
  8
LC-006-005-----0
  6
CONTINUOUS
  5
54
 10
458.834722
 20
247.706373
 30
0.0
 11
459.297959
 21
247.243137
 31
0.0
  0
LINE
  8
LC-006-005-----0
  6
CONTINUOUS
  5
55
 10
458.834722
 20
247.989216
 30
0.0
 11
459.580801
 21
247.243137
 31
0.0
  0
LINE
  8
LC-006-005-----0
  6
CONTINUOUS
  5
56
 10
458.834722
 20
248.272059
 30
0.0
 11
459.863644
 21
247.243137
 31
0.0
  0
LINE
  8
LC-006-005-----0
  6
CONTINUOUS
  5
57
 10
458.956487
 20
248.433137
 30
0.0
 11
460.146487
 21
247.243137
 31
0.0
  0
LINE
  8
LC-006-005-----0
  6
CONTINUOUS
  5
58
 10
459.239329
 20
248.433137
 30
0.0
 11
460.429329
 21
247.243137
 31
0.0
  0
LINE
  8
LC-006-005-----0
  6
CONTINUOUS
  5
59
 10
459.522172
 20
248.433137
 30
0.0
 11
460.712172
 21
247.243137
 31
0.0
  0
LINE
  8
LC-006-005-----0
  6
CONTINUOUS
  5
5A
 10
459.805015
 20
248.433137
 30
0.0
 11
460.995015
 21
247.243137
 31
0.0
  0
LINE
  8
LC-006-005-----0
  6
CONTINUOUS
  5
5B
 10
460.087858
 20
248.433137
 30
0.0
 11
461.277858
 21
247.243137
 31
0.0
  0
LINE
  8
LC-006-005-----0
  6
CONTINUOUS
  5
5C
 10
460.3707
 20
248.433137
 30
0.0
 11
461.5607
 21
247.243137
 31
0.0
  0
LINE
  8
LC-006-005-----0
  6
CONTINUOUS
  5
5D
 10
460.653543
 20
248.433137
 30
0.0
 11
461.843543
 21
247.243137
 31
0.0
  0
LINE
  8
LC-006-005-----0
  6
CONTINUOUS
  5
5E
 10
460.936386
 20
248.433137
 30
0.0
 11
462.126386
 21
247.243137
 31
0.0
  0
LINE
  8
LC-006-005-----0
  6
CONTINUOUS
  5
5F
 10
461.219228
 20
248.433137
 30
0.0
 11
462.409228
 21
247.243137
 31
0.0
  0
LINE
  8
LC-006-005-----0
  6
CONTINUOUS
  5
60
 10
461.502071
 20
248.433137
 30
0.0
 11
462.692071
 21
247.243137
 31
0.0
  0
LINE
  8
LC-006-005-----0
  6
CONTINUOUS
  5
61
 10
461.784914
 20
248.433137
 30
0.0
 11
462.974914
 21
247.243137
 31
0.0
  0
LINE
  8
LC-006-005-----0
  6
CONTINUOUS
  5
62
 10
462.067757
 20
248.433137
 30
0.0
 11
462.984722
 21
247.516171
 31
0.0
  0
LINE
  8
LC-006-005-----0
  6
CONTINUOUS
  5
63
 10
462.350599
 20
248.433137
 30
0.0
 11
462.984722
 21
247.799014
 31
0.0
  0
LINE
  8
LC-006-005-----0
  6
CONTINUOUS
  5
64
 10
462.633442
 20
248.433137
 30
0.0
 11
462.984722
 21
248.081857
 31
0.0
  0
LINE
  8
LC-006-005-----0
  6
CONTINUOUS
  5
65
 10
462.916285
 20
248.433137
 30
0.0
 11
462.984722
 21
248.364699
 31
0.0
  0
ENDBLK
  8
0
  5
66
  0
BLOCK
  8
0
  5
68
  2
BLK2
 70
    64
 10
0.0
 20
0.0
 30
0.0
  3
BLK2
  0
ENDBLK
  8
0
  5
69
  0
BLOCK
  8
0
  5
6B
  2
*X6
 70
    65
 10
479.067149
 20
221.600069
 30
0.0
  3
*X6
  0
LINE
  8
LC-006-005-----0
  6
CONTINUOUS
  5
6C
 10
479.139126
 20
223.725015
 30
0.0
 11
481.192094
 21
221.672046
 31
0.0
  0
LINE
  8
LC-006-005-----0
  6
CONTINUOUS
  5
6D
 10
479.067149
 20
225.211205
 30
0.0
 11
482.572511
 21
221.705844
 31
0.0
  0
LINE
  8
LC-006-005-----0
  6
CONTINUOUS
  5
6E
 10
479.072414
 20
226.620154
 30
0.0
 11
483.509831
 21
222.182737
 31
0.0
  0
LINE
  8
LC-006-005-----0
  6
CONTINUOUS
  5
6F
 10
479.380968
 20
227.725813
 30
0.0
 11
484.173874
 21
222.932907
 31
0.0
  0
LINE
  8
LC-006-005-----0
  6
CONTINUOUS
  5
70
 10
480.003638
 20
228.517357
 30
0.0
 11
484.541998
 21
223.978997
 31
0.0
  0
LINE
  8
LC-006-005-----0
  6
CONTINUOUS
  5
71
 10
480.894527
 20
229.040681
 30
0.0
 11
484.567149
 21
225.36806
 31
0.0
  0
LINE
  8
LC-006-005-----0
  6
CONTINUOUS
  5
72
 10
482.172395
 20
229.177027
 30
0.0
 11
484.544107
 21
226.805315
 31
0.0
  0
ENDBLK
  8
0
  5
73
  0
BLOCK
  8
0
  5
75
  2
*X7
 70
    65
 10
393.524722
 20
241.933137
 30
0.0
  3
*X7
  0
LINE
  8
LC-006-005-----0
  6
CONTINUOUS
  5
76
 10
421.584722
 20
243.095652
 30
0.0
 11
422.747237
 21
241.933137
 31
0.0
  0
LINE
  8
LC-006-005-----0
  6
CONTINUOUS
  5
77
 10
422.271754
 20
245.237047
 30
0.0
 11
425.575664
 21
241.933137
 31
0.0
  0
LINE
  8
LC-006-005-----0
  6
CONTINUOUS
  5
78
 10
419.984722
 20
250.352506
 30
0.0
 11
421.904091
 21
248.433137
 31
0.0
  0
LINE
  8
LC-006-005-----0
  6
CONTINUOUS
  5
79
 10
424.134722
 20
246.202506
 30
0.0
 11
426.134722
 21
244.202506
 31
0.0
  0
LINE
  8
LC-006-005-----0
  6
CONTINUOUS
  5
7A
 10
421.732519
 20
251.433137
 30
0.0
 11
426.134722
 21
247.030933
 31
0.0
  0
LINE
  8
LC-006-005-----0
  6
CONTINUOUS
  5
7B
 10
424.560946
 20
251.433137
 30
0.0
 11
426.934689
 21
249.059393
 31
0.0
  0
LINE
  8
LC-006-005-----0
  6
CONTINUOUS
  5
7C
 10
428.008206
 20
250.814303
 30
0.0
 11
430.823487
 21
247.999023
 31
0.0
  0
LINE
  8
LC-006-005-----0
  6
CONTINUOUS
  5
7D
 10
431.831553
 20
249.819384
 30
0.0
 11
434.312584
 21
247.338353
 31
0.0
  0
LINE
  8
LC-006-005-----0
  6
CONTINUOUS
  5
7E
 10
435.261871
 20
249.217494
 30
0.0
 11
437.515815
 21
246.96355
 31
0.0
  0
LINE
  8
LC-006-005-----0
  6
CONTINUOUS
  5
7F
 10
438.410564
 20
248.897227
 30
0.0
 11
440.498608
 21
246.809184
 31
0.0
  0
LINE
  8
LC-006-005-----0
  6
CONTINUOUS
  5
80
 10
441.341685
 20
248.794533
 30
0.0
 11
441.484722
 21
248.651496
 31
0.0
  0
ENDBLK
  8
0
  5
81
  0
BLOCK
  8
0
  5
83
  2
*X8
 70
    65
 10
393.524722
 20
241.933137
 30
0.0
  3
*X8
  0
LINE
  8
LC-006-005-----0
  6
CONTINUOUS
  5
84
 10
441.484722
 20
248.651496
 30
0.0
 11
443.302705
 21
246.833514
 31
0.0
  0
LINE
  8
LC-006-005-----0
  6
CONTINUOUS
  5
85
 10
444.096095
 20
248.86855
 30
0.0
 11
445.956657
 21
247.007988
 31
0.0
  0
LINE
  8
LC-006-005-----0
  6
CONTINUOUS
  5
86
 10
446.701736
 20
249.091337
 30
0.0
 11
448.480987
 21
247.312086
 31
0.0
  0
LINE
  8
LC-006-005-----0
  6
CONTINUOUS
  5
87
 10
449.178676
 20
249.442824
 30
0.0
 11
450.890996
 21
247.730504
 31
0.0
  0
LINE
  8
LC-006-005-----0
  6
CONTINUOUS
  5
88
 10
451.541865
 20
249.908062
 30
0.0
 11
453.198418
 21
248.251509
 31
0.0
  0
LINE
  8
LC-006-005-----0
  6
CONTINUOUS
  5
89
 10
456.834722
 20
244.615204
 30
0.0
 11
459.51679
 21
241.933137
 31
0.0
  0
LINE
  8
LC-006-005-----0
  6
CONTINUOUS
  5
8A
 10
453.802749
 20
250.475605
 30
0.0
 11
455.412447
 21
248.865907
 31
0.0
  0
LINE
  8
LC-006-005-----0
  6
CONTINUOUS
  5
8B
 10
456.834722
 20
247.443632
 30
0.0
 11
458.834722
 21
245.443632
 31
0.0
  0
LINE
  8
LC-006-005-----0
  6
CONTINUOUS
  5
8C
 10
459.041307
 20
245.237047
 30
0.0
 11
461.384722
 21
242.893632
 31
0.0
  0
LINE
  8
LC-006-005-----0
  6
CONTINUOUS
  5
8D
 10
455.970272
 20
251.136509
 30
0.0
 11
458.834722
 21
248.272059
 31
0.0
  0
LINE
  8
LC-006-005-----0
  6
CONTINUOUS
  5
8E
 10
458.502071
 20
251.433137
 30
0.0
 11
461.502071
 21
248.433137
 31
0.0
  0
LINE
  8
LC-006-005-----0
  6
CONTINUOUS
  5
8F
 10
461.330498
 20
251.433137
 30
0.0
 11
462.984722
 21
249.778913
 31
0.0
  0
ENDBLK
  8
0
  5
90
  0
BLOCK
  8
0
  5
92
  2
*X9
 70
    65
 10
356.587022
 20
170.370768
 30
0.0
  3
*X9
  0
LINE
  8
LC-006-005-----0
  6
CONTINUOUS
  5
93
 10
359.875385
 20
170.370768
 30
0.0
 11
360.386839
 21
170.882222
 31
0.0
  0
LINE
  8
LC-006-005-----0
  6
CONTINUOUS
  5
94
 10
359.386848
 20
172.710658
 30
0.0
 11
360.386841
 21
173.710651
 31
0.0
  0
LINE
  8
LC-006-005-----0
  6
CONTINUOUS
  5
95
 10
359.38685
 20
175.539087
 30
0.0
 11
360.386843
 21
176.539079
 31
0.0
  0
LINE
  8
LC-006-005-----0
  6
CONTINUOUS
  5
96
 10
359.386852
 20
178.367516
 30
0.0
 11
360.386844
 21
179.367508
 31
0.0
  0
LINE
  8
LC-006-005-----0
  6
CONTINUOUS
  5
97
 10
359.386853
 20
181.195945
 30
0.0
 11
360.386846
 21
182.195937
 31
0.0
  0
LINE
  8
LC-006-005-----0
  6
CONTINUOUS
  5
98
 10
359.386855
 20
184.024374
 30
0.0
 11
360.386848
 21
185.024366
 31
0.0
  0
LINE
  8
LC-006-005-----0
  6
CONTINUOUS
  5
99
 10
359.386857
 20
186.852803
 30
0.0
 11
360.386851
 21
187.852796
 31
0.0
  0
LINE
  8
LC-006-005-----0
  6
CONTINUOUS
  5
9A
 10
359.386859
 20
189.681232
 30
0.0
 11
360.386853
 21
190.681226
 31
0.0
  0
LINE
  8
LC-006-005-----0
  6
CONTINUOUS
  5
9B
 10
359.386861
 20
192.509661
 30
0.0
 11
360.386856
 21
193.509655
 31
0.0
  0
LINE
  8
LC-006-005-----0
  6
CONTINUOUS
  5
9C
 10
359.386863
 20
195.33809
 30
0.0
 11
360.386858
 21
196.338085
 31
0.0
  0
LINE
  8
LC-006-005-----0
  6
CONTINUOUS
  5
9D
 10
359.386865
 20
198.166518
 30
0.0
 11
360.386861
 21
199.166515
 31
0.0
  0
LINE
  8
LC-006-005-----0
  6
CONTINUOUS
  5
9E
 10
359.386866
 20
200.994947
 30
0.0
 11
360.386863
 21
201.994944
 31
0.0
  0
LINE
  8
LC-006-005-----0
  6
CONTINUOUS
  5
9F
 10
359.386868
 20
203.823376
 30
0.0
 11
360.386866
 21
204.823374
 31
0.0
  0
LINE
  8
LC-006-005-----0
  6
CONTINUOUS
  5
A0
 10
359.38687
 20
206.651805
 30
0.0
 11
360.386868
 21
207.651803
 31
0.0
  0
LINE
  8
LC-006-005-----0
  6
CONTINUOUS
  5
A1
 10
359.386872
 20
209.480234
 30
0.0
 11
360.386871
 21
210.480233
 31
0.0
  0
LINE
  8
LC-006-005-----0
  6
CONTINUOUS
  5
A2
 10
359.386874
 20
212.308663
 30
0.0
 11
360.386873
 21
213.308663
 31
0.0
  0
LINE
  8
LC-006-005-----0
  6
CONTINUOUS
  5
A3
 10
359.386876
 20
215.137092
 30
0.0
 11
360.386875
 21
216.137092
 31
0.0
  0
LINE
  8
LC-006-005-----0
  6
CONTINUOUS
  5
A4
 10
359.386878
 20
217.965521
 30
0.0
 11
360.386878
 21
218.965522
 31
0.0
  0
LINE
  8
LC-006-005-----0
  6
CONTINUOUS
  5
A5
 10
361.913945
 20
220.492589
 30
0.0
 11
363.594685
 21
222.173328
 31
0.0
  0
LINE
  8
LC-006-005-----0
  6
CONTINUOUS
  5
A6
 10
358.983696
 20
220.390767
 30
0.0
 11
360.193159
 21
221.60023
 31
0.0
  0
LINE
  8
LC-006-005-----0
  6
CONTINUOUS
  5
A7
 10
361.687191
 20
223.094262
 30
0.0
 11
363.697611
 21
225.104682
 31
0.0
  0
LINE
  8
LC-006-005-----0
  6
CONTINUOUS
  5
A8
 10
356.587022
 20
220.82252
 30
0.0
 11
357.364732
 21
221.60023
 31
0.0
  0
LINE
  8
LC-006-005-----0
  6
CONTINUOUS
  5
A9
 10
361.687119
 20
225.922617
 30
0.0
 11
363.691961
 21
227.927459
 31
0.0
  0
LINE
  8
LC-006-005-----0
  6
CONTINUOUS
  5
AA
 10
361.684681
 20
228.748606
 30
0.0
 11
363.336304
 21
230.40023
 31
0.0
  0
LINE
  8
LC-006-005-----0
  6
CONTINUOUS
  5
AB
 10
359.307877
 20
229.20023
 30
0.0
 11
360.507877
 21
230.40023
 31
0.0
  0
LINE
  8
LC-006-005-----0
  6
CONTINUOUS
  5
AC
 10
356.683799
 20
229.404579
 30
0.0
 11
357.67945
 21
230.40023
 31
0.0
  0
ENDBLK
  8
0
  5
AD
  0
BLOCK
  8
0
  5
AF
  2
*X10
 70
    65
 10
406.216547
 20
170.370768
 30
0.0
  3
*X10
  0
LINE
  8
LC-006-005-----0
  6
CONTINUOUS
  5
B0
 10
407.958646
 20
170.370768
 30
0.0
 11
408.259473
 21
170.671594
 31
0.0
  0
LINE
  8
LC-006-005-----0
  6
CONTINUOUS
  5
B1
 10
406.344908
 20
171.585457
 30
0.0
 11
408.593681
 21
173.834229
 31
0.0
  0
LINE
  8
LC-006-005-----0
  6
CONTINUOUS
  5
B2
 10
406.679116
 20
174.748092
 30
0.0
 11
408.927889
 21
176.996865
 31
0.0
  0
LINE
  8
LC-006-005-----0
  6
CONTINUOUS
  5
B3
 10
407.013324
 20
177.910727
 30
0.0
 11
409.262097
 21
180.1595
 31
0.0
  0
LINE
  8
LC-006-005-----0
  6
CONTINUOUS
  5
B4
 10
407.347532
 20
181.073362
 30
0.0
 11
409.596305
 21
183.322135
 31
0.0
  0
LINE
  8
LC-006-005-----0
  6
CONTINUOUS
  5
B5
 10
407.68174
 20
184.235998
 30
0.0
 11
409.930513
 21
186.48477
 31
0.0
  0
LINE
  8
LC-006-005-----0
  6
CONTINUOUS
  5
B6
 10
408.015949
 20
187.398633
 30
0.0
 11
410.264721
 21
189.647405
 31
0.0
  0
LINE
  8
LC-006-005-----0
  6
CONTINUOUS
  5
B7
 10
408.350157
 20
190.561268
 30
0.0
 11
410.598929
 21
192.810041
 31
0.0
  0
LINE
  8
LC-006-005-----0
  6
CONTINUOUS
  5
B8
 10
408.684365
 20
193.723903
 30
0.0
 11
410.933137
 21
195.972676
 31
0.0
  0
LINE
  8
LC-006-005-----0
  6
CONTINUOUS
  5
B9
 10
409.018573
 20
196.886539
 30
0.0
 11
411.267346
 21
199.135311
 31
0.0
  0
LINE
  8
LC-006-005-----0
  6
CONTINUOUS
  5
BA
 10
409.352781
 20
200.049174
 30
0.0
 11
411.601554
 21
202.297946
 31
0.0
  0
LINE
  8
LC-006-005-----0
  6
CONTINUOUS
  5
BB
 10
409.686989
 20
203.211809
 30
0.0
 11
411.935762
 21
205.460582
 31
0.0
  0
LINE
  8
LC-006-005-----0
  6
CONTINUOUS
  5
BC
 10
410.021197
 20
206.374444
 30
0.0
 11
412.26997
 21
208.623217
 31
0.0
  0
LINE
  8
LC-006-005-----0
  6
CONTINUOUS
  5
BD
 10
410.355405
 20
209.53708
 30
0.0
 11
412.604178
 21
211.785852
 31
0.0
  0
LINE
  8
LC-006-005-----0
  6
CONTINUOUS
  5
BE
 10
410.689613
 20
212.699715
 30
0.0
 11
412.938386
 21
214.948487
 31
0.0
  0
LINE
  8
LC-006-005-----0
  6
CONTINUOUS
  5
BF
 10
411.023822
 20
215.86235
 30
0.0
 11
413.272594
 21
218.111123
 31
0.0
  0
LINE
  8
LC-006-005-----0
  6
CONTINUOUS
  5
C0
 10
414.721619
 20
219.560148
 30
0.0
 11
415.889186
 21
220.727715
 31
0.0
  0
LINE
  8
LC-006-005-----0
  6
CONTINUOUS
  5
C1
 10
411.35803
 20
219.024985
 30
0.0
 11
415.889186
 21
223.556142
 31
0.0
  0
LINE
  8
LC-006-005-----0
  6
CONTINUOUS
  5
C2
 10
411.692238
 20
222.18762
 30
0.0
 11
415.889186
 21
226.384569
 31
0.0
  0
LINE
  8
LC-006-005-----0
  6
CONTINUOUS
  5
C3
 10
412.026446
 20
225.350256
 30
0.0
 11
415.889186
 21
229.212996
 31
0.0
  0
LINE
  8
LC-006-005-----0
  6
CONTINUOUS
  5
C4
 10
412.360654
 20
228.512891
 30
0.0
 11
415.889186
 21
232.041423
 31
0.0
  0
LINE
  8
LC-006-005-----0
  6
CONTINUOUS
  5
C5
 10
412.694862
 20
231.675526
 30
0.0
 11
415.889186
 21
234.86985
 31
0.0
  0
LINE
  8
LC-006-005-----0
  6
CONTINUOUS
  5
C6
 10
413.02907
 20
234.838161
 30
0.0
 11
415.889186
 21
237.698278
 31
0.0
  0
LINE
  8
LC-006-005-----0
  6
CONTINUOUS
  5
C7
 10
413.363278
 20
238.000797
 30
0.0
 11
415.889186
 21
240.526705
 31
0.0
  0
LINE
  8
LC-006-005-----0
  6
CONTINUOUS
  5
C8
 10
413.697487
 20
241.163432
 30
0.0
 11
415.995395
 21
243.46134
 31
0.0
  0
LINE
  8
LC-006-005-----0
  6
CONTINUOUS
  5
C9
 10
417.668242
 20
245.134188
 30
0.0
 11
419.777192
 21
247.243137
 31
0.0
  0
LINE
  8
LC-006-005-----0
  6
CONTINUOUS
  5
CA
 10
414.279755
 20
244.574127
 30
0.0
 11
416.555455
 21
246.849828
 31
0.0
  0
ENDBLK
  8
0
  5
CB
  0
BLOCK
  8
0
  5
CD
  2
*X11
 70
    65
 10
458.834722
 20
220.395914
 30
0.0
  3
*X11
  0
LINE
  8
LC-006-005-----0
  6
CONTINUOUS
  5
CE
 10
483.439636
 20
220.395914
 30
0.0
 11
484.185448
 21
221.141725
 31
0.0
  0
LINE
  8
LC-006-005-----0
  6
CONTINUOUS
  5
CF
 10
480.613519
 20
220.398223
 30
0.0
 11
481.815445
 21
221.600149
 31
0.0
  0
LINE
  8
LC-006-005-----0
  6
CONTINUOUS
  5
D0
 10
478.2043
 20
220.817432
 30
0.0
 11
479.187099
 21
221.80023
 31
0.0
  0
LINE
  8
LC-006-005-----0
  6
CONTINUOUS
  5
D1
 10
477.111388
 20
222.552946
 30
0.0
 11
479.087167
 21
224.528726
 31
0.0
  0
LINE
  8
LC-006-005-----0
  6
CONTINUOUS
  5
D2
 10
483.76462
 20
229.206179
 30
0.0
 11
484.181157
 21
229.622716
 31
0.0
  0
LINE
  8
LC-006-005-----0
  6
CONTINUOUS
  5
D3
 10
477.086889
 20
225.356875
 30
0.0
 11
479.087179
 21
227.357165
 31
0.0
  0
LINE
  8
LC-006-005-----0
  6
CONTINUOUS
  5
D4
 10
480.930165
 20
229.20015
 30
0.0
 11
482.13017
 21
230.400155
 31
0.0
  0
LINE
  8
LC-006-005-----0
  6
CONTINUOUS
  5
D5
 10
477.08689
 20
228.185303
 30
0.0
 11
480.422652
 21
231.521065
 31
0.0
  0
LINE
  8
LC-006-005-----0
  6
CONTINUOUS
  5
D6
 10
477.086891
 20
231.013731
 30
0.0
 11
480.167899
 21
234.094739
 31
0.0
  0
LINE
  8
LC-006-005-----0
  6
CONTINUOUS
  5
D7
 10
477.086891
 20
233.842159
 30
0.0
 11
479.913147
 21
236.668414
 31
0.0
  0
LINE
  8
LC-006-005-----0
  6
CONTINUOUS
  5
D8
 10
477.086892
 20
236.670586
 30
0.0
 11
479.657753
 21
239.241447
 31
0.0
  0
LINE
  8
LC-006-005-----0
  6
CONTINUOUS
  5
D9
 10
476.989362
 20
239.401484
 30
0.0
 11
479.099008
 21
241.511129
 31
0.0
  0
LINE
  8
LC-006-005-----0
  6
CONTINUOUS
  5
DA
 10
476.272821
 20
241.51337
 30
0.0
 11
478.118114
 21
243.358663
 31
0.0
  0
LINE
  8
LC-006-005-----0
  6
CONTINUOUS
  5
DB
 10
475.077063
 20
243.146039
 30
0.0
 11
476.801976
 21
244.870952
 31
0.0
  0
LINE
  8
LC-006-005-----0
  6
CONTINUOUS
  5
DC
 10
473.468598
 20
244.366001
 30
0.0
 11
475.166686
 21
246.064089
 31
0.0
  0
LINE
  8
LC-006-005-----0
  6
CONTINUOUS
  5
DD
 10
471.389038
 20
245.114868
 30
0.0
 11
473.174296
 21
246.900126
 31
0.0
  0
LINE
  8
LC-006-005-----0
  6
CONTINUOUS
  5
DE
 10
468.68279
 20
245.237047
 30
0.0
 11
470.68888
 21
247.243137
 31
0.0
  0
LINE
  8
LC-006-005-----0
  6
CONTINUOUS
  5
DF
 10
465.854363
 20
245.237047
 30
0.0
 11
467.860453
 21
247.243137
 31
0.0
  0
LINE
  8
LC-006-005-----0
  6
CONTINUOUS
  5
E0
 10
463.025936
 20
245.237047
 30
0.0
 11
465.032026
 21
247.243137
 31
0.0
  0
LINE
  8
LC-006-005-----0
  6
CONTINUOUS
  5
E1
 10
460.197509
 20
245.237047
 30
0.0
 11
462.203599
 21
247.243137
 31
0.0
  0
LINE
  8
LC-006-005-----0
  6
CONTINUOUS
  5
E2
 10
458.834722
 20
246.702688
 30
0.0
 11
459.375172
 21
247.243137
 31
0.0
  0
ENDBLK
  8
0
  5
E3
  0
BLOCK
  8
0
  5
E5
  2
*X12
 70
    65
 10
284.410091
 20
180.765085
 30
0.0
  3
*X12
  0
LINE
  8
LC-006-005-----0
  6
CONTINUOUS
  5
E6
 10
284.740324
 20
181.950152
 30
0.0
 11
285.595158
 21
181.095317
 31
0.0
  0
LINE
  8
LC-006-005-----0
  6
CONTINUOUS
  5
E7
 10
284.410091
 20
183.694598
 30
0.0
 11
287.290941
 21
180.813748
 31
0.0
  0
LINE
  8
LC-006-005-----0
  6
CONTINUOUS
  5
E8
 10
284.410091
 20
185.108811
 30
0.0
 11
288.263607
 21
181.255296
 31
0.0
  0
LINE
  8
LC-006-005-----0
  6
CONTINUOUS
  5
E9
 10
284.580306
 20
186.35281
 30
0.0
 11
288.917124
 21
182.015992
 31
0.0
  0
LINE
  8
LC-006-005-----0
  6
CONTINUOUS
  5
EA
 10
285.149495
 20
187.197834
 30
0.0
 11
289.209932
 21
183.137398
 31
0.0
  0
LINE
  8
LC-006-005-----0
  6
CONTINUOUS
  5
EB
 10
286.027602
 20
187.733941
 30
0.0
 11
289.210091
 21
184.551452
 31
0.0
  0
LINE
  8
LC-006-005-----0
  6
CONTINUOUS
  5
EC
 10
287.3791
 20
187.796657
 30
0.0
 11
289.141664
 21
186.034093
 31
0.0
  0
ENDBLK
  8
0
  5
ED
  0
BLOCK
  8
0
  5
EF
  2
*X13
 70
    65
 10
284.410091
 20
180.765085
 30
0.0
  3
*X13
  0
LINE
  8
LC-006-005-----0
  6
CONTINUOUS
  5
F0
 10
286.831195
 20
180.765178
 30
0.0
 11
289.209999
 21
183.143981
 31
0.0
  0
LINE
  8
LC-006-005-----0
  6
CONTINUOUS
  5
F1
 10
285.692814
 20
181.041011
 30
0.0
 11
289.210091
 21
184.558288
 31
0.0
  0
LINE
  8
LC-006-005-----0
  6
CONTINUOUS
  5
F2
 10
284.921597
 20
181.684007
 30
0.0
 11
289.165117
 21
185.927527
 31
0.0
  0
LINE
  8
LC-006-005-----0
  6
CONTINUOUS
  5
F3
 10
284.467349
 20
182.643973
 30
0.0
 11
288.729393
 21
186.906016
 31
0.0
  0
LINE
  8
LC-006-005-----0
  6
CONTINUOUS
  5
F4
 10
284.410091
 20
184.000928
 30
0.0
 11
287.973442
 21
187.564279
 31
0.0
  0
LINE
  8
LC-006-005-----0
  6
CONTINUOUS
  5
F5
 10
284.410091
 20
185.415142
 30
0.0
 11
286.859525
 21
187.864576
 31
0.0
  0
ENDBLK
  8
0
  5
F6
  0
BLOCK
  8
0
  5
F8
  2
*X14
 70
    65
 10
333.810091
 20
180.765085
 30
0.0
  3
*X14
  0
LINE
  8
LC-006-005-----0
  6
CONTINUOUS
  5
F9
 10
336.331657
 20
180.768166
 30
0.0
 11
338.607011
 21
183.043519
 31
0.0
  0
LINE
  8
LC-006-005-----0
  6
CONTINUOUS
  5
FA
 10
335.157501
 20
181.008223
 30
0.0
 11
338.610091
 21
184.460813
 31
0.0
  0
LINE
  8
LC-006-005-----0
  6
CONTINUOUS
  5
FB
 10
334.365155
 20
181.63009
 30
0.0
 11
338.579863
 21
185.844798
 31
0.0
  0
LINE
  8
LC-006-005-----0
  6
CONTINUOUS
  5
FC
 10
333.886226
 20
182.565375
 30
0.0
 11
338.170467
 21
186.849616
 31
0.0
  0
LINE
  8
LC-006-005-----0
  6
CONTINUOUS
  5
FD
 10
333.810091
 20
183.903454
 30
0.0
 11
337.435378
 21
187.52874
 31
0.0
  0
LINE
  8
LC-006-005-----0
  6
CONTINUOUS
  5
FE
 10
333.810091
 20
185.317667
 30
0.0
 11
336.353236
 21
187.860812
 31
0.0
  0
ENDBLK
  8
0
  5
FF
  0
BLOCK
  8
0
  5
101
  2
*X15
 70
    65
 10
333.810091
 20
180.765085
 30
0.0
  3
*X15
  0
LINE
  8
LC-006-005-----0
  6
CONTINUOUS
  5
102
 10
334.033042
 20
182.154908
 30
0.0
 11
335.199914
 21
180.988036
 31
0.0
  0
LINE
  8
LC-006-005-----0
  6
CONTINUOUS
  5
103
 10
333.810091
 20
183.792072
 30
0.0
 11
336.770688
 21
180.831476
 31
0.0
  0
LINE
  8
LC-006-005-----0
  6
CONTINUOUS
  5
104
 10
333.810091
 20
185.206286
 30
0.0
 11
337.718239
 21
181.298138
 31
0.0
  0
LINE
  8
LC-006-005-----0
  6
CONTINUOUS
  5
105
 10
334.008954
 20
186.421637
 30
0.0
 11
338.350723
 21
182.079868
 31
0.0
  0
LINE
  8
LC-006-005-----0
  6
CONTINUOUS
  5
106
 10
334.59997
 20
187.244835
 30
0.0
 11
338.610091
 21
183.234713
 31
0.0
  0
LINE
  8
LC-006-005-----0
  6
CONTINUOUS
  5
107
 10
335.501059
 20
187.757959
 30
0.0
 11
338.610091
 21
184.648927
 31
0.0
  0
LINE
  8
LC-006-005-----0
  6
CONTINUOUS
  5
108
 10
336.913559
 20
187.759673
 30
0.0
 11
338.504679
 21
186.168552
 31
0.0
  0
ENDBLK
  8
0
  5
109
  0
BLOCK
  8
0
  5
10B
  2
*X16
 70
    65
 10
348.839445
 20
148.399462
 30
0.0
  3
*X16
  0
LINE
  8
LC-006-005-----0
  6
CONTINUOUS
  5
10C
 10
536.826266
 20
169.13074
 30
0.0
 11
536.927497
 21
169.231971
 31
0.0
  0
LINE
  8
LC-006-005-----0
  6
CONTINUOUS
  5
10D
 10
530.410949
 20
165.543849
 30
0.0
 11
535.459692
 21
170.592593
 31
0.0
  0
LINE
  8
LC-006-005-----0
  6
CONTINUOUS
  5
10E
 10
529.929765
 20
167.891093
 30
0.0
 11
532.631265
 21
170.592593
 31
0.0
  0
LINE
  8
LC-006-005-----0
  6
CONTINUOUS
  5
10F
 10
522.799879
 20
163.589635
 30
0.0
 11
525.431223
 21
166.220978
 31
0.0
  0
LINE
  8
LC-006-005-----0
  6
CONTINUOUS
  5
110
 10
527.103485
 20
167.89324
 30
0.0
 11
529.802838
 21
170.592593
 31
0.0
  0
LINE
  8
LC-006-005-----0
  6
CONTINUOUS
  5
111
 10
519.770409
 20
163.388591
 30
0.0
 11
526.974411
 21
170.592593
 31
0.0
  0
LINE
  8
LC-006-005-----0
  6
CONTINUOUS
  5
112
 10
517.028976
 20
163.475585
 30
0.0
 11
524.145984
 21
170.592593
 31
0.0
  0
LINE
  8
LC-006-005-----0
  6
CONTINUOUS
  5
113
 10
514.507841
 20
163.782878
 30
0.0
 11
521.317557
 21
170.592593
 31
0.0
  0
LINE
  8
LC-006-005-----0
  6
CONTINUOUS
  5
114
 10
512.16607
 20
164.269534
 30
0.0
 11
518.48913
 21
170.592593
 31
0.0
  0
LINE
  8
LC-006-005-----0
  6
CONTINUOUS
  5
115
 10
509.976906
 20
164.908797
 30
0.0
 11
515.660702
 21
170.592593
 31
0.0
  0
LINE
  8
LC-006-005-----0
  6
CONTINUOUS
  5
116
 10
507.921966
 20
165.682283
 30
0.0
 11
512.832275
 21
170.592593
 31
0.0
  0
LINE
  8
LC-006-005-----0
  6
CONTINUOUS
  5
117
 10
505.988231
 20
166.576976
 30
0.0
 11
510.003848
 21
170.592593
 31
0.0
  0
LINE
  8
LC-006-005-----0
  6
CONTINUOUS
  5
118
 10
504.166365
 20
167.583537
 30
0.0
 11
507.175421
 21
170.592593
 31
0.0
  0
LINE
  8
LC-006-005-----0
  6
CONTINUOUS
  5
119
 10
501.647869
 20
167.893468
 30
0.0
 11
504.346994
 21
170.592593
 31
0.0
  0
LINE
  8
LC-006-005-----0
  6
CONTINUOUS
  5
11A
 10
482.325436
 20
151.399462
 30
0.0
 11
484.866376
 21
153.940403
 31
0.0
  0
LINE
  8
LC-006-005-----0
  6
CONTINUOUS
  5
11B
 10
498.819442
 20
167.893468
 30
0.0
 11
501.518567
 21
170.592593
 31
0.0
  0
LINE
  8
LC-006-005-----0
  6
CONTINUOUS
  5
11C
 10
481.866376
 20
153.76883
 30
0.0
 11
484.866376
 21
156.76883
 31
0.0
  0
LINE
  8
LC-006-005-----0
  6
CONTINUOUS
  5
11D
 10
495.991015
 20
167.893468
 30
0.0
 11
498.69014
 21
170.592593
 31
0.0
  0
LINE
  8
LC-006-005-----0
  6
CONTINUOUS
  5
11E
 10
481.866376
 20
156.597257
 30
0.0
 11
484.866376
 21
159.597257
 31
0.0
  0
LINE
  8
LC-006-005-----0
  6
CONTINUOUS
  5
11F
 10
493.162587
 20
167.893468
 30
0.0
 11
495.861713
 21
170.592593
 31
0.0
  0
LINE
  8
LC-006-005-----0
  6
CONTINUOUS
  5
120
 10
481.866376
 20
159.425684
 30
0.0
 11
484.866376
 21
162.425684
 31
0.0
  0
LINE
  8
LC-006-005-----0
  6
CONTINUOUS
  5
121
 10
490.33416
 20
167.893468
 30
0.0
 11
493.033286
 21
170.592593
 31
0.0
  0
LINE
  8
LC-006-005-----0
  6
CONTINUOUS
  5
122
 10
481.866376
 20
162.254111
 30
0.0
 11
484.866376
 21
165.254111
 31
0.0
  0
LINE
  8
LC-006-005-----0
  6
CONTINUOUS
  5
123
 10
487.505733
 20
167.893468
 30
0.0
 11
490.204858
 21
170.592593
 31
0.0
  0
LINE
  8
LC-006-005-----0
  6
CONTINUOUS
  5
124
 10
481.866376
 20
165.082538
 30
0.0
 11
487.376431
 21
170.592593
 31
0.0
  0
LINE
  8
LC-006-005-----0
  6
CONTINUOUS
  5
125
 10
481.395791
 20
167.44038
 30
0.0
 11
484.548004
 21
170.592593
 31
0.0
  0
LINE
  8
LC-006-005-----0
  6
CONTINUOUS
  5
126
 10
462.526446
 20
151.399462
 30
0.0
 11
464.866376
 21
153.739393
 31
0.0
  0
LINE
  8
LC-006-005-----0
  6
CONTINUOUS
  5
127
 10
479.297196
 20
168.170212
 30
0.0
 11
481.723387
 21
170.596403
 31
0.0
  0
LINE
  8
LC-006-005-----0
  6
CONTINUOUS
  5
128
 10
459.698019
 20
151.399462
 30
0.0
 11
462.698019
 21
154.399462
 31
0.0
  0
LINE
  8
LC-006-005-----0
  6
CONTINUOUS
  5
129
 10
462.866376
 20
154.56782
 30
0.0
 11
464.866376
 21
156.56782
 31
0.0
  0
LINE
  8
LC-006-005-----0
  6
CONTINUOUS
  5
12A
 10
476.553737
 20
168.25518
 30
0.0
 11
478.979928
 21
170.681371
 31
0.0
  0
LINE
  8
LC-006-005-----0
  6
CONTINUOUS
  5
12B
 10
456.869592
 20
151.399462
 30
0.0
 11
459.869592
 21
154.399462
 31
0.0
  0
LINE
  8
LC-006-005-----0
  6
CONTINUOUS
  5
12C
 10
462.866376
 20
157.396247
 30
0.0
 11
464.866376
 21
159.396247
 31
0.0
  0
LINE
  8
LC-006-005-----0
  6
CONTINUOUS
  5
12D
 10
473.810277
 20
168.340148
 30
0.0
 11
476.236468
 21
170.766339
 31
0.0
  0
LINE
  8
LC-006-005-----0
  6
CONTINUOUS
  5
12E
 10
454.041164
 20
151.399462
 30
0.0
 11
457.041164
 21
154.399462
 31
0.0
  0
LINE
  8
LC-006-005-----0
  6
CONTINUOUS
  5
12F
 10
462.866376
 20
160.224674
 30
0.0
 11
464.866376
 21
162.224674
 31
0.0
  0
LINE
  8
LC-006-005-----0
  6
CONTINUOUS
  5
130
 10
471.066818
 20
168.425116
 30
0.0
 11
473.493009
 21
170.851307
 31
0.0
  0
LINE
  8
LC-006-005-----0
  6
CONTINUOUS
  5
131
 10
451.212737
 20
151.399462
 30
0.0
 11
454.212737
 21
154.399462
 31
0.0
  0
LINE
  8
LC-006-005-----0
  6
CONTINUOUS
  5
132
 10
462.866376
 20
163.053101
 30
0.0
 11
464.866376
 21
165.053101
 31
0.0
  0
LINE
  8
LC-006-005-----0
  6
CONTINUOUS
  5
133
 10
468.323359
 20
168.510083
 30
0.0
 11
470.74955
 21
170.936274
 31
0.0
  0
LINE
  8
LC-006-005-----0
  6
CONTINUOUS
  5
134
 10
448.38431
 20
151.399462
 30
0.0
 11
451.38431
 21
154.399462
 31
0.0
  0
LINE
  8
LC-006-005-----0
  6
CONTINUOUS
  5
135
 10
462.866376
 20
165.881528
 30
0.0
 11
464.866376
 21
167.881528
 31
0.0
  0
LINE
  8
LC-006-005-----0
  6
CONTINUOUS
  5
136
 10
465.579899
 20
168.595051
 30
0.0
 11
468.00609
 21
171.021242
 31
0.0
  0
LINE
  8
LC-006-005-----0
  6
CONTINUOUS
  5
137
 10
445.555883
 20
151.399462
 30
0.0
 11
448.555883
 21
154.399462
 31
0.0
  0
LINE
  8
LC-006-005-----0
  6
CONTINUOUS
  5
138
 10
462.866376
 20
168.709955
 30
0.0
 11
465.262631
 21
171.10621
 31
0.0
  0
LINE
  8
LC-006-005-----0
  6
CONTINUOUS
  5
139
 10
442.727456
 20
151.399462
 30
0.0
 11
445.727456
 21
154.399462
 31
0.0
  0
LINE
  8
LC-006-005-----0
  6
CONTINUOUS
  5
13A
 10
462.866376
 20
171.538383
 30
0.0
 11
464.866376
 21
173.538383
 31
0.0
  0
LINE
  8
LC-006-005-----0
  6
CONTINUOUS
  5
13B
 10
439.899029
 20
151.399462
 30
0.0
 11
442.899029
 21
154.399462
 31
0.0
  0
LINE
  8
LC-006-005-----0
  6
CONTINUOUS
  5
13C
 10
462.866376
 20
174.36681
 30
0.0
 11
464.866376
 21
176.36681
 31
0.0
  0
LINE
  8
LC-006-005-----0
  6
CONTINUOUS
  5
13D
 10
437.070602
 20
151.399462
 30
0.0
 11
440.070602
 21
154.399462
 31
0.0
  0
LINE
  8
LC-006-005-----0
  6
CONTINUOUS
  5
13E
 10
462.866376
 20
177.195237
 30
0.0
 11
464.866376
 21
179.195237
 31
0.0
  0
LINE
  8
LC-006-005-----0
  6
CONTINUOUS
  5
13F
 10
434.242175
 20
151.399462
 30
0.0
 11
437.242175
 21
154.399462
 31
0.0
  0
LINE
  8
LC-006-005-----0
  6
CONTINUOUS
  5
140
 10
462.866376
 20
180.023664
 30
0.0
 11
464.866376
 21
182.023664
 31
0.0
  0
LINE
  8
LC-006-005-----0
  6
CONTINUOUS
  5
141
 10
431.413747
 20
151.399462
 30
0.0
 11
434.413747
 21
154.399462
 31
0.0
  0
LINE
  8
LC-006-005-----0
  6
CONTINUOUS
  5
142
 10
462.866376
 20
182.852091
 30
0.0
 11
464.866376
 21
184.852091
 31
0.0
  0
LINE
  8
LC-006-005-----0
  6
CONTINUOUS
  5
143
 10
428.58532
 20
151.399462
 30
0.0
 11
431.58532
 21
154.399462
 31
0.0
  0
LINE
  8
LC-006-005-----0
  6
CONTINUOUS
  5
144
 10
462.866376
 20
185.680518
 30
0.0
 11
464.866376
 21
187.680518
 31
0.0
  0
LINE
  8
LC-006-005-----0
  6
CONTINUOUS
  5
145
 10
425.756893
 20
151.399462
 30
0.0
 11
428.756893
 21
154.399462
 31
0.0
  0
LINE
  8
LC-006-005-----0
  6
CONTINUOUS
  5
146
 10
462.866376
 20
188.508945
 30
0.0
 11
464.866376
 21
190.508945
 31
0.0
  0
LINE
  8
LC-006-005-----0
  6
CONTINUOUS
  5
147
 10
422.928466
 20
151.399462
 30
0.0
 11
425.928466
 21
154.399462
 31
0.0
  0
LINE
  8
LC-006-005-----0
  6
CONTINUOUS
  5
148
 10
462.866376
 20
191.337372
 30
0.0
 11
464.866376
 21
193.337372
 31
0.0
  0
LINE
  8
LC-006-005-----0
  6
CONTINUOUS
  5
149
 10
420.100039
 20
151.399462
 30
0.0
 11
423.100039
 21
154.399462
 31
0.0
  0
LINE
  8
LC-006-005-----0
  6
CONTINUOUS
  5
14A
 10
462.866376
 20
194.1658
 30
0.0
 11
464.866376
 21
196.1658
 31
0.0
  0
LINE
  8
LC-006-005-----0
  6
CONTINUOUS
  5
14B
 10
417.271612
 20
151.399462
 30
0.0
 11
420.271612
 21
154.399462
 31
0.0
  0
LINE
  8
LC-006-005-----0
  6
CONTINUOUS
  5
14C
 10
462.866376
 20
196.994227
 30
0.0
 11
464.866376
 21
198.994227
 31
0.0
  0
LINE
  8
LC-006-005-----0
  6
CONTINUOUS
  5
14D
 10
414.443185
 20
151.399462
 30
0.0
 11
417.443185
 21
154.399462
 31
0.0
  0
LINE
  8
LC-006-005-----0
  6
CONTINUOUS
  5
14E
 10
462.866376
 20
199.822654
 30
0.0
 11
464.866376
 21
201.822654
 31
0.0
  0
LINE
  8
LC-006-005-----0
  6
CONTINUOUS
  5
14F
 10
411.614758
 20
151.399462
 30
0.0
 11
414.614758
 21
154.399462
 31
0.0
  0
LINE
  8
LC-006-005-----0
  6
CONTINUOUS
  5
150
 10
462.866376
 20
202.651081
 30
0.0
 11
464.866376
 21
204.651081
 31
0.0
  0
LINE
  8
LC-006-005-----0
  6
CONTINUOUS
  5
151
 10
408.78633
 20
151.399462
 30
0.0
 11
411.78633
 21
154.399462
 31
0.0
  0
LINE
  8
LC-006-005-----0
  6
CONTINUOUS
  5
152
 10
462.866376
 20
205.479508
 30
0.0
 11
464.866376
 21
207.479508
 31
0.0
  0
LINE
  8
LC-006-005-----0
  6
CONTINUOUS
  5
153
 10
405.957903
 20
151.399462
 30
0.0
 11
408.957903
 21
154.399462
 31
0.0
  0
LINE
  8
LC-006-005-----0
  6
CONTINUOUS
  5
154
 10
462.866376
 20
208.307935
 30
0.0
 11
464.866376
 21
210.307935
 31
0.0
  0
LINE
  8
LC-006-005-----0
  6
CONTINUOUS
  5
155
 10
403.129476
 20
151.399462
 30
0.0
 11
406.129476
 21
154.399462
 31
0.0
  0
LINE
  8
LC-006-005-----0
  6
CONTINUOUS
  5
156
 10
462.866376
 20
211.136362
 30
0.0
 11
464.866376
 21
213.136362
 31
0.0
  0
LINE
  8
LC-006-005-----0
  6
CONTINUOUS
  5
157
 10
400.301049
 20
151.399462
 30
0.0
 11
403.301049
 21
154.399462
 31
0.0
  0
LINE
  8
LC-006-005-----0
  6
CONTINUOUS
  5
158
 10
462.866376
 20
213.964789
 30
0.0
 11
464.866376
 21
215.964789
 31
0.0
  0
LINE
  8
LC-006-005-----0
  6
CONTINUOUS
  5
159
 10
397.472622
 20
151.399462
 30
0.0
 11
400.472622
 21
154.399462
 31
0.0
  0
LINE
  8
LC-006-005-----0
  6
CONTINUOUS
  5
15A
 10
462.866376
 20
216.793217
 30
0.0
 11
464.866376
 21
218.793217
 31
0.0
  0
LINE
  8
LC-006-005-----0
  6
CONTINUOUS
  5
15B
 10
394.644195
 20
151.399462
 30
0.0
 11
397.644195
 21
154.399462
 31
0.0
  0
LINE
  8
LC-006-005-----0
  6
CONTINUOUS
  5
15C
 10
462.866376
 20
219.621644
 30
0.0
 11
463.640646
 21
220.395914
 31
0.0
  0
LINE
  8
LC-006-005-----0
  6
CONTINUOUS
  5
15D
 10
391.815768
 20
151.399462
 30
0.0
 11
394.815768
 21
154.399462
 31
0.0
  0
LINE
  8
LC-006-005-----0
  6
CONTINUOUS
  5
15E
 10
388.987341
 20
151.399462
 30
0.0
 11
392.105771
 21
154.517892
 31
0.0
  0
LINE
  8
LC-006-005-----0
  6
CONTINUOUS
  5
15F
 10
386.158913
 20
151.399462
 30
0.0
 11
392.105771
 21
157.34632
 31
0.0
  0
LINE
  8
LC-006-005-----0
  6
CONTINUOUS
  5
160
 10
383.330486
 20
151.399462
 30
0.0
 11
386.54086
 21
154.609836
 31
0.0
  0
LINE
  8
LC-006-005-----0
  6
CONTINUOUS
  5
161
 10
389.895397
 20
157.964373
 30
0.0
 11
392.105771
 21
160.174747
 31
0.0
  0
LINE
  8
LC-006-005-----0
  6
CONTINUOUS
  5
162
 10
380.502059
 20
151.399462
 30
0.0
 11
383.502059
 21
154.399462
 31
0.0
  0
LINE
  8
LC-006-005-----0
  6
CONTINUOUS
  5
163
 10
390.105771
 20
161.003174
 30
0.0
 11
392.105771
 21
163.003174
 31
0.0
  0
LINE
  8
LC-006-005-----0
  6
CONTINUOUS
  5
164
 10
377.673632
 20
151.399462
 30
0.0
 11
380.673632
 21
154.399462
 31
0.0
  0
LINE
  8
LC-006-005-----0
  6
CONTINUOUS
  5
165
 10
390.105771
 20
163.831601
 30
0.0
 11
392.105771
 21
165.831601
 31
0.0
  0
LINE
  8
LC-006-005-----0
  6
CONTINUOUS
  5
166
 10
374.845205
 20
151.399462
 30
0.0
 11
377.845205
 21
154.399462
 31
0.0
  0
LINE
  8
LC-006-005-----0
  6
CONTINUOUS
  5
167
 10
390.105771
 20
166.660028
 30
0.0
 11
392.105771
 21
168.660028
 31
0.0
  0
LINE
  8
LC-006-005-----0
  6
CONTINUOUS
  5
168
 10
372.016778
 20
151.399462
 30
0.0
 11
375.016778
 21
154.399462
 31
0.0
  0
LINE
  8
LC-006-005-----0
  6
CONTINUOUS
  5
169
 10
390.105771
 20
169.488455
 30
0.0
 11
391.928946
 21
171.31163
 31
0.0
  0
LINE
  8
LC-006-005-----0
  6
CONTINUOUS
  5
16A
 10
369.188351
 20
151.399462
 30
0.0
 11
372.188351
 21
154.399462
 31
0.0
  0
LINE
  8
LC-006-005-----0
  6
CONTINUOUS
  5
16B
 10
366.359924
 20
151.399462
 30
0.0
 11
369.359924
 21
154.399462
 31
0.0
  0
LINE
  8
LC-006-005-----0
  6
CONTINUOUS
  5
16C
 10
363.531496
 20
151.399462
 30
0.0
 11
366.531496
 21
154.399462
 31
0.0
  0
LINE
  8
LC-006-005-----0
  6
CONTINUOUS
  5
16D
 10
360.703069
 20
151.399462
 30
0.0
 11
363.703069
 21
154.399462
 31
0.0
  0
LINE
  8
LC-006-005-----0
  6
CONTINUOUS
  5
16E
 10
357.874642
 20
151.399462
 30
0.0
 11
360.874642
 21
154.399462
 31
0.0
  0
LINE
  8
LC-006-005-----0
  6
CONTINUOUS
  5
16F
 10
355.046215
 20
151.399462
 30
0.0
 11
358.046215
 21
154.399462
 31
0.0
  0
LINE
  8
LC-006-005-----0
  6
CONTINUOUS
  5
170
 10
349.217788
 20
148.399462
 30
0.0
 11
350.089445
 21
149.271119
 31
0.0
  0
LINE
  8
LC-006-005-----0
  6
CONTINUOUS
  5
171
 10
352.217788
 20
151.399462
 30
0.0
 11
355.217788
 21
154.399462
 31
0.0
  0
LINE
  8
LC-006-005-----0
  6
CONTINUOUS
  5
172
 10
348.839445
 20
150.849546
 30
0.0
 11
352.389361
 21
154.399462
 31
0.0
  0
LINE
  8
LC-006-005-----0
  6
CONTINUOUS
  5
173
 10
348.839445
 20
153.677974
 30
0.0
 11
349.560934
 21
154.399462
 31
0.0
  0
ENDBLK
  8
0
  5
174
  0
BLOCK
  8
0
  5
176
  2
*X17
 70
    65
 10
481.846402
 20
163.385368
 30
0.0
  3
*X17
  0
LINE
  8
LC-006-005-----0
  6
CONTINUOUS
  5
177
 10
534.790408
 20
215.178143
 30
0.0
 11
536.493639
 21
216.881374
 31
0.0
  0
LINE
  8
LC-006-005-----0
  6
CONTINUOUS
  5
178
 10
531.961981
 20
215.178143
 30
0.0
 11
534.79392
 21
218.010082
 31
0.0
  0
LINE
  8
LC-006-005-----0
  6
CONTINUOUS
  5
179
 10
529.133554
 20
215.178143
 30
0.0
 11
532.989888
 21
219.034477
 31
0.0
  0
LINE
  8
LC-006-005-----0
  6
CONTINUOUS
  5
17A
 10
526.305127
 20
215.178143
 30
0.0
 11
529.004849
 21
217.877865
 31
0.0
  0
LINE
  8
LC-006-005-----0
  6
CONTINUOUS
  5
17B
 10
529.929765
 20
218.802781
 30
0.0
 11
531.075256
 21
219.948272
 31
0.0
  0
LINE
  8
LC-006-005-----0
  6
CONTINUOUS
  5
17C
 10
523.476699
 20
215.178143
 30
0.0
 11
526.175872
 21
217.877316
 31
0.0
  0
LINE
  8
LC-006-005-----0
  6
CONTINUOUS
  5
17D
 10
520.648272
 20
215.178143
 30
0.0
 11
525.431223
 21
219.961093
 31
0.0
  0
LINE
  8
LC-006-005-----0
  6
CONTINUOUS
  5
17E
 10
568.343322
 20
262.873193
 30
0.0
 11
571.366376
 21
265.896247
 31
0.0
  0
LINE
  8
LC-006-005-----0
  6
CONTINUOUS
  5
17F
 10
517.819845
 20
215.178143
 30
0.0
 11
524.560459
 21
221.918756
 31
0.0
  0
LINE
  8
LC-006-005-----0
  6
CONTINUOUS
  5
180
 10
565.304242
 20
262.66254
 30
0.0
 11
568.535407
 21
265.893705
 31
0.0
  0
LINE
  8
LC-006-005-----0
  6
CONTINUOUS
  5
181
 10
514.991418
 20
215.178143
 30
0.0
 11
522.071394
 21
222.258119
 31
0.0
  0
LINE
  8
LC-006-005-----0
  6
CONTINUOUS
  5
182
 10
562.265162
 20
262.451887
 30
0.0
 11
565.496327
 21
265.683052
 31
0.0
  0
LINE
  8
LC-006-005-----0
  6
CONTINUOUS
  5
183
 10
512.162991
 20
215.178143
 30
0.0
 11
519.370194
 21
222.385346
 31
0.0
  0
LINE
  8
LC-006-005-----0
  6
CONTINUOUS
  5
184
 10
559.226082
 20
262.241234
 30
0.0
 11
562.457247
 21
265.472399
 31
0.0
  0
LINE
  8
LC-006-005-----0
  6
CONTINUOUS
  5
185
 10
509.334564
 20
215.178143
 30
0.0
 11
516.394987
 21
222.238566
 31
0.0
  0
LINE
  8
LC-006-005-----0
  6
CONTINUOUS
  5
186
 10
556.187002
 20
262.030581
 30
0.0
 11
559.418167
 21
265.261746
 31
0.0
  0
LINE
  8
LC-006-005-----0
  6
CONTINUOUS
  5
187
 10
506.506137
 20
215.178143
 30
0.0
 11
513.03237
 21
221.704376
 31
0.0
  0
LINE
  8
LC-006-005-----0
  6
CONTINUOUS
  5
188
 10
553.147922
 20
261.819928
 30
0.0
 11
556.379087
 21
265.051093
 31
0.0
  0
LINE
  8
LC-006-005-----0
  6
CONTINUOUS
  5
189
 10
503.67771
 20
215.178143
 30
0.0
 11
509.024838
 21
220.525272
 31
0.0
  0
LINE
  8
LC-006-005-----0
  6
CONTINUOUS
  5
18A
 10
550.108842
 20
261.609275
 30
0.0
 11
553.340007
 21
264.84044
 31
0.0
  0
LINE
  8
LC-006-005-----0
  6
CONTINUOUS
  5
18B
 10
500.849282
 20
215.178143
 30
0.0
 11
503.548408
 21
217.877268
 31
0.0
  0
LINE
  8
LC-006-005-----0
  6
CONTINUOUS
  5
18C
 10
547.069762
 20
261.398622
 30
0.0
 11
550.300927
 21
264.629787
 31
0.0
  0
LINE
  8
LC-006-005-----0
  6
CONTINUOUS
  5
18D
 10
498.020855
 20
215.178143
 30
0.0
 11
500.719981
 21
217.877268
 31
0.0
  0
LINE
  8
LC-006-005-----0
  6
CONTINUOUS
  5
18E
 10
544.030682
 20
261.187969
 30
0.0
 11
547.261847
 21
264.419135
 31
0.0
  0
LINE
  8
LC-006-005-----0
  6
CONTINUOUS
  5
18F
 10
495.192428
 20
215.178143
 30
0.0
 11
497.891553
 21
217.877268
 31
0.0
  0
LINE
  8
LC-006-005-----0
  6
CONTINUOUS
  5
190
 10
540.991601
 20
260.977316
 30
0.0
 11
544.222767
 21
264.208482
 31
0.0
  0
LINE
  8
LC-006-005-----0
  6
CONTINUOUS
  5
191
 10
492.364001
 20
215.178143
 30
0.0
 11
495.063126
 21
217.877268
 31
0.0
  0
LINE
  8
LC-006-005-----0
  6
CONTINUOUS
  5
192
 10
537.420017
 20
260.234158
 30
0.0
 11
541.183687
 21
263.997829
 31
0.0
  0
LINE
  8
LC-006-005-----0
  6
CONTINUOUS
  5
193
 10
489.535574
 20
215.178143
 30
0.0
 11
492.234699
 21
217.877268
 31
0.0
  0
LINE
  8
LC-006-005-----0
  6
CONTINUOUS
  5
194
 10
502.046406
 20
227.688975
 30
0.0
 11
504.257465
 21
229.900034
 31
0.0
  0
LINE
  8
LC-006-005-----0
  6
CONTINUOUS
  5
195
 10
533.236318
 20
258.878887
 30
0.0
 11
538.144607
 21
263.787176
 31
0.0
  0
LINE
  8
LC-006-005-----0
  6
CONTINUOUS
  5
196
 10
486.707147
 20
215.178143
 30
0.0
 11
489.406272
 21
217.877268
 31
0.0
  0
LINE
  8
LC-006-005-----0
  6
CONTINUOUS
  5
197
 10
499.116329
 20
227.587325
 30
0.0
 11
506.723437
 21
235.194433
 31
0.0
  0
LINE
  8
LC-006-005-----0
  6
CONTINUOUS
  5
198
 10
529.684534
 20
258.15553
 30
0.0
 11
535.105527
 21
263.576523
 31
0.0
  0
LINE
  8
LC-006-005-----0
  6
CONTINUOUS
  5
199
 10
483.87872
 20
215.178143
 30
0.0
 11
486.577845
 21
217.877268
 31
0.0
  0
LINE
  8
LC-006-005-----0
  6
CONTINUOUS
  5
19A
 10
496.287901
 20
227.587325
 30
0.0
 11
509.189408
 21
240.488831
 31
0.0
  0
LINE
  8
LC-006-005-----0
  6
CONTINUOUS
  5
19B
 10
526.643454
 20
257.942877
 30
0.0
 11
532.066447
 21
263.36587
 31
0.0
  0
LINE
  8
LC-006-005-----0
  6
CONTINUOUS
  5
19C
 10
481.846404
 20
215.974254
 30
0.0
 11
487.866376
 21
221.994227
 31
0.0
  0
LINE
  8
LC-006-005-----0
  6
CONTINUOUS
  5
19D
 10
493.459474
 20
227.587325
 30
0.0
 11
496.468945
 21
230.596796
 31
0.0
  0
LINE
  8
LC-006-005-----0
  6
CONTINUOUS
  5
19E
 10
498.207788
 20
232.335639
 30
0.0
 11
505.158016
 21
239.285867
 31
0.0
  0
LINE
  8
LC-006-005-----0
  6
CONTINUOUS
  5
19F
 10
507.11567
 20
241.24352
 30
0.0
 11
509.366376
 21
243.494227
 31
0.0
  0
LINE
  8
LC-006-005-----0
  6
CONTINUOUS
  5
1A0
 10
523.602374
 20
257.730224
 30
0.0
 11
527.32286
 21
261.45071
 31
0.0
  0
LINE
  8
LC-006-005-----0
  6
CONTINUOUS
  5
1A1
 10
481.846402
 20
218.80268
 30
0.0
 11
483.439636
 21
220.395914
 31
0.0
  0
LINE
  8
LC-006-005-----0
  6
CONTINUOUS
  5
1A2
 10
484.545371
 20
221.501648
 30
0.0
 11
493.635399
 21
230.591676
 31
0.0
  0
LINE
  8
LC-006-005-----0
  6
CONTINUOUS
  5
1A3
 10
497.222905
 20
234.179182
 30
0.0
 11
498.030415
 21
234.986693
 31
0.0
  0
LINE
  8
LC-006-005-----0
  6
CONTINUOUS
  5
1A4
 10
498.222905
 20
235.179182
 30
0.0
 11
502.329589
 21
239.285867
 31
0.0
  0
LINE
  8
LC-006-005-----0
  6
CONTINUOUS
  5
1A5
 10
507.11567
 20
244.071947
 30
0.0
 11
509.366376
 21
246.322654
 31
0.0
  0
LINE
  8
LC-006-005-----0
  6
CONTINUOUS
  5
1A6
 10
511.206458
 20
248.162736
 30
0.0
 11
515.493322
 21
252.4496
 31
0.0
  0
LINE
  8
LC-006-005-----0
  6
CONTINUOUS
  5
1A7
 10
520.561294
 20
257.517572
 30
0.0
 11
523.828809
 21
260.785086
 31
0.0
  0
LINE
  8
LC-006-005-----0
  6
CONTINUOUS
  5
1A8
 10
484.545371
 20
224.330075
 30
0.0
 11
490.806971
 21
230.591676
 31
0.0
  0
LINE
  8
LC-006-005-----0
  6
CONTINUOUS
  5
1A9
 10
497.26029
 20
237.044994
 30
0.0
 11
499.501162
 21
239.285867
 31
0.0
  0
LINE
  8
LC-006-005-----0
  6
CONTINUOUS
  5
1AA
 10
507.11567
 20
246.900374
 30
0.0
 11
511.519023
 21
251.303727
 31
0.0
  0
LINE
  8
LC-006-005-----0
  6
CONTINUOUS
  5
1AB
 10
512.166725
 20
251.951429
 30
0.0
 11
514.747204
 21
254.531908
 31
0.0
  0
LINE
  8
LC-006-005-----0
  6
CONTINUOUS
  5
1AC
 10
517.520214
 20
257.304919
 30
0.0
 11
520.778735
 21
260.563439
 31
0.0
  0
LINE
  8
LC-006-005-----0
  6
CONTINUOUS
  5
1AD
 10
484.545371
 20
227.158502
 30
0.0
 11
487.978544
 21
230.591676
 31
0.0
  0
LINE
  8
LC-006-005-----0
  6
CONTINUOUS
  5
1AE
 10
507.11567
 20
249.728801
 30
0.0
 11
509.11567
 21
251.728801
 31
0.0
  0
LINE
  8
LC-006-005-----0
  6
CONTINUOUS
  5
1AF
 10
512.214288
 20
254.827419
 30
0.0
 11
517.728661
 21
260.341792
 31
0.0
  0
LINE
  8
LC-006-005-----0
  6
CONTINUOUS
  5
1B0
 10
507.11567
 20
252.557228
 30
0.0
 11
509.11567
 21
254.557228
 31
0.0
  0
LINE
  8
LC-006-005-----0
  6
CONTINUOUS
  5
1B1
 10
512.214288
 20
257.655846
 30
0.0
 11
514.678587
 21
260.120145
 31
0.0
  0
LINE
  8
LC-006-005-----0
  6
CONTINUOUS
  5
1B2
 10
507.614216
 20
255.884202
 30
0.0
 11
509.11567
 21
257.385655
 31
0.0
  0
ENDBLK
  8
0
  5
1B3
  0
BLOCK
  8
0
  5
1B5
  2
BLK3
 70
    64
 10
0.0
 20
0.0
 30
0.0
  3
BLK3
  0
ENDBLK
  8
0
  5
1B6
  0
BLOCK
  8
0
  5
1B8
  2
BLK4
 70
    64
 10
0.0
 20
0.0
 30
0.0
  3
BLK4
  0
ENDBLK
  8
0
  5
1B9
  0
BLOCK
  8
0
  5
1BB
  2
*X20
 70
    65
 10
489.866376
 20
240.103056
 30
0.0
  3
*X20
  0
LINE
  8
LC-006-005-----0
  6
CONTINUOUS
  5
1BC
 10
489.866376
 20
242.696249
 30
0.0
 11
492.459569
 21
240.103056
 31
0.0
  0
LINE
  8
LC-006-005-----0
  6
CONTINUOUS
  5
1BD
 10
492.287996
 20
243.103056
 30
0.0
 11
495.287996
 21
240.103056
 31
0.0
  0
LINE
  8
LC-006-005-----0
  6
CONTINUOUS
  5
1BE
 10
492.616376
 20
245.603103
 30
0.0
 11
498.116423
 21
240.103056
 31
0.0
  0
LINE
  8
LC-006-005-----0
  6
CONTINUOUS
  5
1BF
 10
492.616376
 20
248.43153
 30
0.0
 11
499.366376
 21
241.68153
 31
0.0
  0
LINE
  8
LC-006-005-----0
  6
CONTINUOUS
  5
1C0
 10
492.616376
 20
251.259957
 30
0.0
 11
499.366376
 21
244.509957
 31
0.0
  0
LINE
  8
LC-006-005-----0
  6
CONTINUOUS
  5
1C1
 10
492.616376
 20
254.088385
 30
0.0
 11
499.366376
 21
247.338385
 31
0.0
  0
LINE
  8
LC-006-005-----0
  6
CONTINUOUS
  5
1C2
 10
492.616376
 20
256.916812
 30
0.0
 11
499.366376
 21
250.166812
 31
0.0
  0
LINE
  8
LC-006-005-----0
  6
CONTINUOUS
  5
1C3
 10
493.556775
 20
258.80484
 30
0.0
 11
499.366376
 21
252.995239
 31
0.0
  0
LINE
  8
LC-006-005-----0
  6
CONTINUOUS
  5
1C4
 10
496.200345
 20
258.989697
 30
0.0
 11
499.366376
 21
255.823666
 31
0.0
  0
LINE
  8
LC-006-005-----0
  6
CONTINUOUS
  5
1C5
 10
498.843916
 20
259.174553
 30
0.0
 11
501.18623
 21
256.832239
 31
0.0
  0
LINE
  8
LC-006-005-----0
  6
CONTINUOUS
  5
1C6
 10
501.487487
 20
259.35941
 30
0.0
 11
503.829801
 21
257.017096
 31
0.0
  0
LINE
  8
LC-006-005-----0
  6
CONTINUOUS
  5
1C7
 10
504.131057
 20
259.544266
 30
0.0
 11
506.473372
 21
257.201952
 31
0.0
  0
LINE
  8
LC-006-005-----0
  6
CONTINUOUS
  5
1C8
 10
509.366162
 20
254.309162
 30
0.0
 11
510.572267
 21
253.103056
 31
0.0
  0
LINE
  8
LC-006-005-----0
  6
CONTINUOUS
  5
1C9
 10
506.774628
 20
259.729123
 30
0.0
 11
509.116942
 21
257.386809
 31
0.0
  0
LINE
  8
LC-006-005-----0
  6
CONTINUOUS
  5
1CA
 10
509.366162
 20
257.137589
 30
0.0
 11
511.401931
 21
255.10182
 31
0.0
  0
LINE
  8
LC-006-005-----0
  6
CONTINUOUS
  5
1CB
 10
509.418199
 20
259.913979
 30
0.0
 11
511.755502
 21
257.576676
 31
0.0
  0
LINE
  8
LC-006-005-----0
  6
CONTINUOUS
  5
1CC
 10
512.061769
 20
260.098836
 30
0.0
 11
512.109073
 21
260.051532
 31
0.0
  0
ENDBLK
  8
0
  5
1CD
  0
BLOCK
  8
0
  5
1CF
  2
*X21
 70
    65
 10
328.616376
 20
240.103056
 30
0.0
  3
*X21
  0
LINE
  8
LC-006-005-----0
  6
CONTINUOUS
  5
1D0
 10
341.366376
 20
241.289611
 30
0.0
 11
342.552931
 21
240.103056
 31
0.0
  0
LINE
  8
LC-006-005-----0
  6
CONTINUOUS
  5
1D1
 10
329.155515
 20
256.3289
 30
0.0
 11
331.366591
 21
254.117824
 31
0.0
  0
LINE
  8
LC-006-005-----0
  6
CONTINUOUS
  5
1D2
 10
341.366376
 20
244.118038
 30
0.0
 11
345.381359
 21
240.103056
 31
0.0
  0
LINE
  8
LC-006-005-----0
  6
CONTINUOUS
  5
1D3
 10
328.684079
 20
259.628763
 30
0.0
 11
331.366591
 21
256.946251
 31
0.0
  0
LINE
  8
LC-006-005-----0
  6
CONTINUOUS
  5
1D4
 10
341.366376
 20
246.946466
 30
0.0
 11
348.209786
 21
240.103056
 31
0.0
  0
LINE
  8
LC-006-005-----0
  6
CONTINUOUS
  5
1D5
 10
331.220729
 20
259.92054
 30
0.0
 11
333.915253
 21
257.226016
 31
0.0
  0
LINE
  8
LC-006-005-----0
  6
CONTINUOUS
  5
1D6
 10
341.366376
 20
249.774893
 30
0.0
 11
350.866376
 21
240.274893
 31
0.0
  0
LINE
  8
LC-006-005-----0
  6
CONTINUOUS
  5
1D7
 10
334.261809
 20
259.707887
 30
0.0
 11
336.956333
 21
257.013363
 31
0.0
  0
LINE
  8
LC-006-005-----0
  6
CONTINUOUS
  5
1D8
 10
341.366376
 20
252.60332
 30
0.0
 11
348.116376
 21
245.85332
 31
0.0
  0
LINE
  8
LC-006-005-----0
  6
CONTINUOUS
  5
1D9
 10
337.302889
 20
259.495234
 30
0.0
 11
339.997414
 21
256.80071
 31
0.0
  0
LINE
  8
LC-006-005-----0
  6
CONTINUOUS
  5
1DA
 10
341.366376
 20
255.431747
 30
0.0
 11
348.116376
 21
248.681747
 31
0.0
  0
LINE
  8
LC-006-005-----0
  6
CONTINUOUS
  5
1DB
 10
340.343969
 20
259.282581
 30
0.0
 11
348.116376
 21
251.510174
 31
0.0
  0
LINE
  8
LC-006-005-----0
  6
CONTINUOUS
  5
1DC
 10
343.38505
 20
259.069928
 30
0.0
 11
348.116376
 21
254.338601
 31
0.0
  0
LINE
  8
LC-006-005-----0
  6
CONTINUOUS
  5
1DD
 10
346.42613
 20
258.857275
 30
0.0
 11
348.116376
 21
257.167028
 31
0.0
  0
ENDBLK
  8
0
  5
1DE
  0
BLOCK
  8
0
  5
1E0
  2
*X22
 70
    65
 10
526.264335
 20
160.085368
 30
0.0
  3
*X22
  0
LINE
  8
LC-006-005-----0
  6
CONTINUOUS
  5
1E1
 10
551.404995
 20
223.584038
 30
0.0
 11
553.145268
 21
221.843764
 31
0.0
  0
LINE
  8
LC-006-005-----0
  6
CONTINUOUS
  5
1E2
 10
554.660518
 20
225.985368
 30
0.0
 11
558.180438
 21
222.465449
 31
0.0
  0
LINE
  8
LC-006-005-----0
  6
CONTINUOUS
  5
1E3
 10
560.317373
 20
225.985368
 30
0.0
 11
564.240017
 21
222.062723
 31
0.0
  0
LINE
  8
LC-006-005-----0
  6
CONTINUOUS
  5
1E4
 10
566.729746
 20
225.229849
 30
0.0
 11
572.723491
 21
219.236104
 31
0.0
  0
LINE
  8
LC-006-005-----0
  6
CONTINUOUS
  5
1E5
 10
576.220523
 20
221.395926
 30
0.0
 11
581.961081
 21
215.655368
 31
0.0
  0
LINE
  8
LC-006-005-----0
  6
CONTINUOUS
  5
1E6
 10
585.287935
 20
217.985368
 30
0.0
 11
587.617935
 21
215.655368
 31
0.0
  0
LINE
  8
LC-006-005-----0
  6
CONTINUOUS
  5
1E7
 10
590.94479
 20
217.985368
 30
0.0
 11
594.724332
 21
214.205825
 31
0.0
  0
LINE
  8
LC-006-005-----0
  6
CONTINUOUS
  5
1E8
 10
596.601644
 20
217.985368
 30
0.0
 11
602.260053
 21
212.326959
 31
0.0
  0
LINE
  8
LC-006-005-----0
  6
CONTINUOUS
  5
1E9
 10
600.276896
 20
219.96697
 30
0.0
 11
602.385202
 21
217.858664
 31
0.0
  0
LINE
  8
LC-006-005-----0
  6
CONTINUOUS
  5
1EA
 10
605.873098
 20
214.370768
 30
0.0
 11
609.795773
 21
210.448093
 31
0.0
  0
LINE
  8
LC-006-005-----0
  6
CONTINUOUS
  5
1EB
 10
603.863198
 20
222.037522
 30
0.0
 11
605.971504
 21
219.929216
 31
0.0
  0
LINE
  8
LC-006-005-----0
  6
CONTINUOUS
  5
1EC
 10
613.600505
 20
212.300216
 30
0.0
 11
617.331494
 21
208.569227
 31
0.0
  0
LINE
  8
LC-006-005-----0
  6
CONTINUOUS
  5
1ED
 10
607.4495
 20
224.108075
 30
0.0
 11
609.557806
 21
221.999769
 31
0.0
  0
LINE
  8
LC-006-005-----0
  6
CONTINUOUS
  5
1EE
 10
621.327911
 20
210.229663
 30
0.0
 11
624.867214
 21
206.690361
 31
0.0
  0
LINE
  8
LC-006-005-----0
  6
CONTINUOUS
  5
1EF
 10
611.306938
 20
225.907491
 30
0.0
 11
615.379219
 21
221.835209
 31
0.0
  0
LINE
  8
LC-006-005-----0
  6
CONTINUOUS
  5
1F0
 10
629.055318
 20
208.159111
 30
0.0
 11
632.402934
 21
204.811495
 31
0.0
  0
LINE
  8
LC-006-005-----0
  6
CONTINUOUS
  5
1F1
 10
619.034344
 20
223.836939
 30
0.0
 11
622.91494
 21
219.956343
 31
0.0
  0
LINE
  8
LC-006-005-----0
  6
CONTINUOUS
  5
1F2
 10
636.782725
 20
206.088559
 30
0.0
 11
639.938655
 21
202.932629
 31
0.0
  0
LINE
  8
LC-006-005-----0
  6
CONTINUOUS
  5
1F3
 10
626.761751
 20
221.766386
 30
0.0
 11
630.45066
 21
218.077477
 31
0.0
  0
LINE
  8
LC-006-005-----0
  6
CONTINUOUS
  5
1F4
 10
644.510131
 20
204.018006
 30
0.0
 11
647.474375
 21
201.053762
 31
0.0
  0
LINE
  8
LC-006-005-----0
  6
CONTINUOUS
  5
1F5
 10
634.489158
 20
219.695834
 30
0.0
 11
637.986381
 21
216.198611
 31
0.0
  0
LINE
  8
LC-006-005-----0
  6
CONTINUOUS
  5
1F6
 10
652.237538
 20
201.947454
 30
0.0
 11
655.010095
 21
199.174896
 31
0.0
  0
LINE
  8
LC-006-005-----0
  6
CONTINUOUS
  5
1F7
 10
642.216564
 20
217.625282
 30
0.0
 11
645.522101
 21
214.319745
 31
0.0
  0
LINE
  8
LC-006-005-----0
  6
CONTINUOUS
  5
1F8
 10
649.943971
 20
215.554729
 30
0.0
 11
653.057821
 21
212.440879
 31
0.0
  0
LINE
  8
LC-006-005-----0
  6
CONTINUOUS
  5
1F9
 10
657.671377
 20
213.484177
 30
0.0
 11
660.593542
 21
210.562013
 31
0.0
  0
ENDBLK
  8
0
  5
1FA
  0
BLOCK
  8
0
  5
1FC
  2
BLK5
 70
    64
 10
0.0
 20
0.0
 30
0.0
  3
BLK5
  0
ENDBLK
  8
0
  5
1FD
  0
BLOCK
  8
0
  5
1FF
  2
*X24
 70
    65
 10
526.264335
 20
139.939912
 30
0.0
  3
*X24
  0
LINE
  8
LC-006-005-----0
  6
CONTINUOUS
  5
200
 10
643.39994
 20
139.939912
 30
0.0
 11
644.66836
 21
141.208332
 31
0.0
  0
LINE
  8
LC-006-005-----0
  6
CONTINUOUS
  5
201
 10
640.78713
 20
140.155529
 30
0.0
 11
642.470235
 21
141.838634
 31
0.0
  0
LINE
  8
LC-006-005-----0
  6
CONTINUOUS
  5
202
 10
638.55642
 20
140.753246
 30
0.0
 11
640.27211
 21
142.468936
 31
0.0
  0
LINE
  8
LC-006-005-----0
  6
CONTINUOUS
  5
203
 10
636.32571
 20
141.350963
 30
0.0
 11
638.073985
 21
143.099238
 31
0.0
  0
LINE
  8
LC-006-005-----0
  6
CONTINUOUS
  5
204
 10
646.988731
 20
152.013984
 30
0.0
 11
648.098755
 21
153.124008
 31
0.0
  0
LINE
  8
LC-006-005-----0
  6
CONTINUOUS
  5
205
 10
634.094999
 20
141.94868
 30
0.0
 11
635.87586
 21
143.729541
 31
0.0
  0
LINE
  8
LC-006-005-----0
  6
CONTINUOUS
  5
206
 10
644.342031
 20
152.195712
 30
0.0
 11
645.90063
 21
153.754311
 31
0.0
  0
LINE
  8
LC-006-005-----0
  6
CONTINUOUS
  5
207
 10
631.864289
 20
142.546397
 30
0.0
 11
633.677735
 21
144.359843
 31
0.0
  0
LINE
  8
LC-006-005-----0
  6
CONTINUOUS
  5
208
 10
642.111321
 20
152.793429
 30
0.0
 11
643.702505
 21
154.384613
 31
0.0
  0
LINE
  8
LC-006-005-----0
  6
CONTINUOUS
  5
209
 10
629.633579
 20
143.144114
 30
0.0
 11
631.47961
 21
144.990145
 31
0.0
  0
LINE
  8
LC-006-005-----0
  6
CONTINUOUS
  5
20A
 10
639.880611
 20
153.391146
 30
0.0
 11
641.50438
 21
155.014915
 31
0.0
  0
LINE
  8
LC-006-005-----0
  6
CONTINUOUS
  5
20B
 10
627.402869
 20
143.741831
 30
0.0
 11
629.281486
 21
145.620447
 31
0.0
  0
LINE
  8
LC-006-005-----0
  6
CONTINUOUS
  5
20C
 10
637.649901
 20
153.988863
 30
0.0
 11
639.306255
 21
155.645217
 31
0.0
  0
LINE
  8
LC-006-005-----0
  6
CONTINUOUS
  5
20D
 10
625.172159
 20
144.339548
 30
0.0
 11
627.083361
 21
146.250749
 31
0.0
  0
LINE
  8
LC-006-005-----0
  6
CONTINUOUS
  5
20E
 10
635.419191
 20
154.58658
 30
0.0
 11
637.10813
 21
156.275519
 31
0.0
  0
LINE
  8
LC-006-005-----0
  6
CONTINUOUS
  5
20F
 10
622.941449
 20
144.937265
 30
0.0
 11
624.885236
 21
146.881052
 31
0.0
  0
LINE
  8
LC-006-005-----0
  6
CONTINUOUS
  5
210
 10
633.188481
 20
155.184297
 30
0.0
 11
634.910006
 21
156.905821
 31
0.0
  0
LINE
  8
LC-006-005-----0
  6
CONTINUOUS
  5
211
 10
620.710739
 20
145.534982
 30
0.0
 11
622.687111
 21
147.511354
 31
0.0
  0
LINE
  8
LC-006-005-----0
  6
CONTINUOUS
  5
212
 10
630.957771
 20
155.782014
 30
0.0
 11
632.711881
 21
157.536124
 31
0.0
  0
LINE
  8
LC-006-005-----0
  6
CONTINUOUS
  5
213
 10
618.480028
 20
146.132699
 30
0.0
 11
620.488986
 21
148.141656
 31
0.0
  0
LINE
  8
LC-006-005-----0
  6
CONTINUOUS
  5
214
 10
628.72706
 20
156.379731
 30
0.0
 11
630.513756
 21
158.166426
 31
0.0
  0
LINE
  8
LC-006-005-----0
  6
CONTINUOUS
  5
215
 10
616.249318
 20
146.730416
 30
0.0
 11
618.290861
 21
148.771958
 31
0.0
  0
LINE
  8
LC-006-005-----0
  6
CONTINUOUS
  5
216
 10
626.49635
 20
156.977448
 30
0.0
 11
628.315631
 21
158.796728
 31
0.0
  0
LINE
  8
LC-006-005-----0
  6
CONTINUOUS
  5
217
 10
614.018608
 20
147.328133
 30
0.0
 11
616.092736
 21
149.40226
 31
0.0
  0
LINE
  8
LC-006-005-----0
  6
CONTINUOUS
  5
218
 10
624.26564
 20
157.575165
 30
0.0
 11
626.117506
 21
159.42703
 31
0.0
  0
LINE
  8
LC-006-005-----0
  6
CONTINUOUS
  5
219
 10
611.787898
 20
147.925849
 30
0.0
 11
613.894611
 21
150.032562
 31
0.0
  0
LINE
  8
LC-006-005-----0
  6
CONTINUOUS
  5
21A
 10
622.03493
 20
158.172882
 30
0.0
 11
623.919381
 21
160.057332
 31
0.0
  0
LINE
  8
LC-006-005-----0
  6
CONTINUOUS
  5
21B
 10
609.557188
 20
148.523566
 30
0.0
 11
611.696486
 21
150.662865
 31
0.0
  0
LINE
  8
LC-006-005-----0
  6
CONTINUOUS
  5
21C
 10
619.80422
 20
158.770599
 30
0.0
 11
621.721256
 21
160.687635
 31
0.0
  0
LINE
  8
LC-006-005-----0
  6
CONTINUOUS
  5
21D
 10
607.326478
 20
149.121283
 30
0.0
 11
609.498361
 21
151.293167
 31
0.0
  0
LINE
  8
LC-006-005-----0
  6
CONTINUOUS
  5
21E
 10
617.57351
 20
159.368316
 30
0.0
 11
619.523131
 21
161.317937
 31
0.0
  0
LINE
  8
LC-006-005-----0
  6
CONTINUOUS
  5
21F
 10
605.095768
 20
149.719
 30
0.0
 11
607.300236
 21
151.923469
 31
0.0
  0
LINE
  8
LC-006-005-----0
  6
CONTINUOUS
  5
220
 10
615.3428
 20
159.966033
 30
0.0
 11
617.325006
 21
161.948239
 31
0.0
  0
LINE
  8
LC-006-005-----0
  6
CONTINUOUS
  5
221
 10
602.865057
 20
150.316717
 30
0.0
 11
605.102111
 21
152.553771
 31
0.0
  0
LINE
  8
LC-006-005-----0
  6
CONTINUOUS
  5
222
 10
613.112089
 20
160.56375
 30
0.0
 11
615.126881
 21
162.578541
 31
0.0
  0
LINE
  8
LC-006-005-----0
  6
CONTINUOUS
  5
223
 10
600.634347
 20
150.914434
 30
0.0
 11
602.903986
 21
153.184073
 31
0.0
  0
LINE
  8
LC-006-005-----0
  6
CONTINUOUS
  5
224
 10
610.881379
 20
161.161466
 30
0.0
 11
612.928756
 21
163.208843
 31
0.0
  0
LINE
  8
LC-006-005-----0
  6
CONTINUOUS
  5
225
 10
598.403637
 20
151.512151
 30
0.0
 11
600.705861
 21
153.814376
 31
0.0
  0
LINE
  8
LC-006-005-----0
  6
CONTINUOUS
  5
226
 10
608.650669
 20
161.759183
 30
0.0
 11
610.730631
 21
163.839145
 31
0.0
  0
LINE
  8
LC-006-005-----0
  6
CONTINUOUS
  5
227
 10
596.172927
 20
152.109868
 30
0.0
 11
598.507736
 21
154.444678
 31
0.0
  0
LINE
  8
LC-006-005-----0
  6
CONTINUOUS
  5
228
 10
606.419959
 20
162.3569
 30
0.0
 11
608.532506
 21
164.469448
 31
0.0
  0
LINE
  8
LC-006-005-----0
  6
CONTINUOUS
  5
229
 10
593.942217
 20
152.707585
 30
0.0
 11
596.309611
 21
155.07498
 31
0.0
  0
LINE
  8
LC-006-005-----0
  6
CONTINUOUS
  5
22A
 10
604.189249
 20
162.954617
 30
0.0
 11
606.334381
 21
165.09975
 31
0.0
  0
LINE
  8
LC-006-005-----0
  6
CONTINUOUS
  5
22B
 10
591.711507
 20
153.305302
 30
0.0
 11
594.111486
 21
155.705282
 31
0.0
  0
LINE
  8
LC-006-005-----0
  6
CONTINUOUS
  5
22C
 10
601.958539
 20
163.552334
 30
0.0
 11
604.136256
 21
165.730052
 31
0.0
  0
LINE
  8
LC-006-005-----0
  6
CONTINUOUS
  5
22D
 10
590.475961
 20
154.898184
 30
0.0
 11
592.584267
 21
157.00649
 31
0.0
  0
LINE
  8
LC-006-005-----0
  6
CONTINUOUS
  5
22E
 10
599.727829
 20
164.150051
 30
0.0
 11
601.938131
 21
166.360354
 31
0.0
  0
LINE
  8
LC-006-005-----0
  6
CONTINUOUS
  5
22F
 10
589.440685
 20
156.691335
 30
0.0
 11
591.548991
 21
158.799641
 31
0.0
  0
LINE
  8
LC-006-005-----0
  6
CONTINUOUS
  5
230
 10
597.497118
 20
164.747768
 30
0.0
 11
599.740006
 21
166.990656
 31
0.0
  0
LINE
  8
LC-006-005-----0
  6
CONTINUOUS
  5
231
 10
588.405409
 20
158.484486
 30
0.0
 11
590.513715
 21
160.592792
 31
0.0
  0
LINE
  8
LC-006-005-----0
  6
CONTINUOUS
  5
232
 10
595.266408
 20
165.345485
 30
0.0
 11
597.541882
 21
167.620959
 31
0.0
  0
LINE
  8
LC-006-005-----0
  6
CONTINUOUS
  5
233
 10
587.370133
 20
160.277637
 30
0.0
 11
589.478439
 21
162.385943
 31
0.0
  0
LINE
  8
LC-006-005-----0
  6
CONTINUOUS
  5
234
 10
593.035698
 20
165.943202
 30
0.0
 11
595.343757
 21
168.251261
 31
0.0
  0
LINE
  8
LC-006-005-----0
  6
CONTINUOUS
  5
235
 10
586.334856
 20
162.070788
 30
0.0
 11
588.443163
 21
164.179094
 31
0.0
  0
LINE
  8
LC-006-005-----0
  6
CONTINUOUS
  5
236
 10
590.804988
 20
166.540919
 30
0.0
 11
593.145632
 21
168.881563
 31
0.0
  0
LINE
  8
LC-006-005-----0
  6
CONTINUOUS
  5
237
 10
585.29958
 20
163.863939
 30
0.0
 11
587.407886
 21
165.972245
 31
0.0
  0
LINE
  8
LC-006-005-----0
  6
CONTINUOUS
  5
238
 10
588.574278
 20
167.138636
 30
0.0
 11
590.947507
 21
169.511865
 31
0.0
  0
LINE
  8
LC-006-005-----0
  6
CONTINUOUS
  5
239
 10
584.264304
 20
165.65709
 30
0.0
 11
588.749382
 21
170.142167
 31
0.0
  0
LINE
  8
LC-006-005-----0
  6
CONTINUOUS
  5
23A
 10
583.229028
 20
167.45024
 30
0.0
 11
586.094155
 21
170.315368
 31
0.0
  0
LINE
  8
LC-006-005-----0
  6
CONTINUOUS
  5
23B
 10
580.935728
 20
167.985368
 30
0.0
 11
583.265728
 21
170.315368
 31
0.0
  0
LINE
  8
LC-006-005-----0
  6
CONTINUOUS
  5
23C
 10
573.003276
 20
162.881343
 30
0.0
 11
580.437301
 21
170.315368
 31
0.0
  0
LINE
  8
LC-006-005-----0
  6
CONTINUOUS
  5
23D
 10
568.496627
 20
161.203121
 30
0.0
 11
575.953633
 21
168.660127
 31
0.0
  0
LINE
  8
LC-006-005-----0
  6
CONTINUOUS
  5
23E
 10
564.821768
 20
160.356689
 30
0.0
 11
569.956188
 21
165.491109
 31
0.0
  0
LINE
  8
LC-006-005-----0
  6
CONTINUOUS
  5
23F
 10
561.628835
 20
159.992183
 30
0.0
 11
565.871433
 21
164.234781
 31
0.0
  0
LINE
  8
LC-006-005-----0
  6
CONTINUOUS
  5
240
 10
558.800408
 20
159.992183
 30
0.0
 11
562.468074
 21
163.659849
 31
0.0
  0
LINE
  8
LC-006-005-----0
  6
CONTINUOUS
  5
241
 10
555.97198
 20
159.992183
 30
0.0
 11
559.465854
 21
163.486056
 31
0.0
  0
LINE
  8
LC-006-005-----0
  6
CONTINUOUS
  5
242
 10
553.143553
 20
159.992183
 30
0.0
 11
556.744551
 21
163.593181
 31
0.0
  0
LINE
  8
LC-006-005-----0
  6
CONTINUOUS
  5
243
 10
551.404995
 20
161.082051
 30
0.0
 11
554.239423
 21
163.91648
 31
0.0
  0
ENDBLK
  8
0
  5
244
  0
BLOCK
  8
0
  5
246
  2
*X25
 70
    65
 10
486.334335
 20
159.885368
 30
0.0
  3
*X25
  0
LINE
  8
LC-006-005-----0
  6
CONTINUOUS
  5
247
 10
576.774227
 20
215.185368
 30
0.0
 11
572.930841
 21
219.028754
 31
0.0
  0
LINE
  8
LC-006-005-----0
  6
CONTINUOUS
  5
248
 10
571.117373
 20
215.185368
 30
0.0
 11
568.416876
 21
217.885864
 31
0.0
  0
LINE
  8
LC-006-005-----0
  6
CONTINUOUS
  5
249
 10
565.363199
 20
220.939542
 30
0.0
 11
564.360975
 21
221.941766
 31
0.0
  0
LINE
  8
LC-006-005-----0
  6
CONTINUOUS
  5
24A
 10
565.460518
 20
215.185368
 30
0.0
 11
558.277044
 21
222.368842
 31
0.0
  0
LINE
  8
LC-006-005-----0
  6
CONTINUOUS
  5
24B
 10
559.803664
 20
215.185368
 30
0.0
 11
553.227876
 21
221.761156
 31
0.0
  0
LINE
  8
LC-006-005-----0
  6
CONTINUOUS
  5
24C
 10
554.14681
 20
215.185368
 30
0.0
 11
548.847268
 21
220.48491
 31
0.0
  0
LINE
  8
LC-006-005-----0
  6
CONTINUOUS
  5
24D
 10
548.489956
 20
215.185368
 30
0.0
 11
544.979327
 21
218.695997
 31
0.0
  0
LINE
  8
LC-006-005-----0
  6
CONTINUOUS
  5
24E
 10
542.833101
 20
215.185368
 30
0.0
 11
537.74838
 21
220.270089
 31
0.0
  0
LINE
  8
LC-006-005-----0
  6
CONTINUOUS
  5
24F
 10
533.72359
 20
218.638025
 30
0.0
 11
527.503328
 21
224.858287
 31
0.0
  0
LINE
  8
LC-006-005-----0
  6
CONTINUOUS
  5
250
 10
524.837179
 20
221.867582
 30
0.0
 11
520.854421
 21
225.850339
 31
0.0
  0
LINE
  8
LC-006-005-----0
  6
CONTINUOUS
  5
251
 10
518.670019
 20
222.377887
 30
0.0
 11
515.162539
 21
225.885368
 31
0.0
  0
LINE
  8
LC-006-005-----0
  6
CONTINUOUS
  5
252
 10
513.573623
 20
221.81743
 30
0.0
 11
511.474995
 21
223.916058
 31
0.0
  0
ENDBLK
  8
0
  5
253
  0
BLOCK
  8
0
  5
255
  2
*X26
 70
    65
 10
486.334335
 20
159.885368
 30
0.0
  3
*X26
  0
LINE
  8
LC-006-005-----0
  6
CONTINUOUS
  5
256
 10
576.863199
 20
169.841562
 30
0.0
 11
576.119393
 21
170.585368
 31
0.0
  0
LINE
  8
LC-006-005-----0
  6
CONTINUOUS
  5
257
 10
573.820961
 20
167.226946
 30
0.0
 11
570.462539
 21
170.585368
 31
0.0
  0
LINE
  8
LC-006-005-----0
  6
CONTINUOUS
  5
258
 10
569.987677
 20
165.403375
 30
0.0
 11
569.863199
 21
165.527853
 31
0.0
  0
LINE
  8
LC-006-005-----0
  6
CONTINUOUS
  5
259
 10
567.506004
 20
167.885049
 30
0.0
 11
564.805684
 21
170.585368
 31
0.0
  0
LINE
  8
LC-006-005-----0
  6
CONTINUOUS
  5
25A
 10
565.363199
 20
164.370999
 30
0.0
 11
559.14883
 21
170.585368
 31
0.0
  0
LINE
  8
LC-006-005-----0
  6
CONTINUOUS
  5
25B
 10
560.65899
 20
163.418354
 30
0.0
 11
553.491976
 21
170.585368
 31
0.0
  0
LINE
  8
LC-006-005-----0
  6
CONTINUOUS
  5
25C
 10
554.67613
 20
163.74436
 30
0.0
 11
547.835122
 21
170.585368
 31
0.0
  0
LINE
  8
LC-006-005-----0
  6
CONTINUOUS
  5
25D
 10
546.449485
 20
166.31415
 30
0.0
 11
542.178267
 21
170.585368
 31
0.0
  0
LINE
  8
LC-006-005-----0
  6
CONTINUOUS
  5
25E
 10
539.971936
 20
167.134845
 30
0.0
 11
537.480278
 21
169.626504
 31
0.0
  0
LINE
  8
LC-006-005-----0
  6
CONTINUOUS
  5
25F
 10
536.654138
 20
164.795789
 30
0.0
 11
534.102064
 21
167.347863
 31
0.0
  0
LINE
  8
LC-006-005-----0
  6
CONTINUOUS
  5
260
 10
532.962299
 20
162.830774
 30
0.0
 11
530.29565
 21
165.497422
 31
0.0
  0
LINE
  8
LC-006-005-----0
  6
CONTINUOUS
  5
261
 10
528.849342
 20
161.286877
 30
0.0
 11
525.990189
 21
164.146029
 31
0.0
  0
LINE
  8
LC-006-005-----0
  6
CONTINUOUS
  5
262
 10
524.228984
 20
160.25038
 30
0.0
 11
521.04439
 21
163.434974
 31
0.0
  0
LINE
  8
LC-006-005-----0
  6
CONTINUOUS
  5
263
 10
518.937142
 20
159.885368
 30
0.0
 11
515.137013
 21
163.685497
 31
0.0
  0
LINE
  8
LC-006-005-----0
  6
CONTINUOUS
  5
264
 10
513.280288
 20
159.885368
 30
0.0
 11
511.474995
 21
161.690661
 31
0.0
  0
ENDBLK
  8
0
  5
265
  0
BLOCK
  8
0
  5
267
  2
BLK6
 70
    64
 10
0.0
 20
0.0
 30
0.0
  3
BLK6
  0
ENDBLK
  8
0
  5
268
  0
BLOCK
  8
0
  5
26A
  2
BLK7
 70
    64
 10
0.0
 20
0.0
 30
0.0
  3
BLK7
  0
ENDBLK
  8
0
  5
26B
  0
BLOCK
  8
0
  5
26D
  2
BLK8
 70
    64
 10
0.0
 20
0.0
 30
0.0
  3
BLK8
  0
ENDBLK
  8
0
  5
26E
  0
BLOCK
  8
0
  5
270
  2
*X30
 70
    65
 10
525.680494
 20
217.877608
 30
0.0
  3
*X30
  0
LINE
  8
LC-006-005-----0
  6
DASHED
  5
272
 10
529.34706
 20
218.771915
 30
0.0
 11
526.574801
 21
221.544174
 31
0.0
  0
LINE
  8
LC-006-005-----0
  6
DASHED
  5
273
 10
528.602138
 20
218.102623
 30
0.0
 11
525.905509
 21
220.799252
 31
0.0
  0
ENDBLK
  8
0
  5
274
  0
BLOCK
  8
0
  5
276
  2
*X31
 70
    65
 10
525.680494
 20
163.893128
 30
0.0
  3
*X31
  0
LINE
  8
LC-006-005-----0
  6
CONTINUOUS
  5
277
 10
529.666866
 20
166.126207
 30
0.0
 11
527.913572
 21
167.8795
 31
0.0
  0
LINE
  8
LC-006-005-----0
  6
DASHED
  5
278
 10
528.757051
 20
164.207594
 30
0.0
 11
525.99496
 21
166.969685
 31
0.0
  0
LINE
  8
LC-006-005-----0
  6
DASHED
  5
279
 10
527.657168
 20
163.893264
 30
0.0
 11
525.68063
 21
165.869802
 31
0.0
  0
ENDBLK
  8
0
  5
27A
  0
BLOCK
  8
0
  5
27C
  2
*X32
 70
    65
 10
565.613199
 20
217.885708
 30
0.0
  3
*X32
  0
LINE
  8
LC-006-005-----0
  6
CONTINUOUS
  5
27D
 10
569.584289
 20
219.546879
 30
0.0
 11
567.27437
 21
221.856798
 31
0.0
  0
LINE
  8
LC-006-005-----0
  6
DASHED
  5
27E
 10
568.296637
 20
218.006104
 30
0.0
 11
565.733595
 21
220.569146
 31
0.0
  0
LINE
  8
LC-006-005-----0
  6
DASHED
  5
27F
 10
566.852508
 20
218.036019
 30
0.0
 11
565.76351
 21
219.125017
 31
0.0
  0
ENDBLK
  8
0
  5
280
  0
BLOCK
  8
0
  5
282
  2
*X33
 70
    65
 10
565.613199
 20
163.885028
 30
0.0
  3
*X33
  0
LINE
  8
LC-006-005-----0
  6
CONTINUOUS
  5
283
 10
569.61047
 20
165.780583
 30
0.0
 11
567.508754
 21
167.882299
 31
0.0
  0
LINE
  8
LC-006-005-----0
  6
DASHED
  5
284
 10
568.48
 20
164.082625
 30
0.0
 11
565.810796
 21
166.751829
 31
0.0
  0
LINE
  8
LC-006-005-----0
  6
DASHED
  5
285
 10
567.225433
 20
163.922979
 30
0.0
 11
565.65115
 21
165.497262
 31
0.0
  0
ENDBLK
  8
0
  5
286
  0
BLOCK
  8
0
  5
288
  2
BLK9
 70
    64
 10
0.0
 20
0.0
 30
0.0
  3
BLK9
  0
ENDBLK
  8
0
  5
289
  0
BLOCK
  8
0
  5
28B
  2
*X35
 70
    65
 10
216.510091
 20
191.352788
 30
0.0
  3
*X35
  0
LINE
  8
LC-006-005-----0
  6
CONTINUOUS
  5
28C
 10
243.375371
 20
198.120537
 30
0.0
 11
243.510091
 21
198.255257
 31
0.0
  0
LINE
  8
LC-006-005-----0
  6
CONTINUOUS
  5
28D
 10
239.779195
 20
197.352788
 30
0.0
 11
243.510091
 21
201.083685
 31
0.0
  0
LINE
  8
LC-006-005-----0
  6
CONTINUOUS
  5
28E
 10
236.950767
 20
197.352788
 30
0.0
 11
238.950767
 21
199.352788
 31
0.0
  0
LINE
  8
LC-006-005-----0
  6
CONTINUOUS
  5
28F
 10
241.510091
 20
201.912112
 30
0.0
 11
243.510091
 21
203.912112
 31
0.0
  0
LINE
  8
LC-006-005-----0
  6
CONTINUOUS
  5
290
 10
234.12234
 20
197.352788
 30
0.0
 11
236.12234
 21
199.352788
 31
0.0
  0
LINE
  8
LC-006-005-----0
  6
CONTINUOUS
  5
291
 10
241.510091
 20
204.740539
 30
0.0
 11
243.510091
 21
206.740539
 31
0.0
  0
LINE
  8
LC-006-005-----0
  6
CONTINUOUS
  5
292
 10
231.293913
 20
197.352788
 30
0.0
 11
233.293913
 21
199.352788
 31
0.0
  0
LINE
  8
LC-006-005-----0
  6
CONTINUOUS
  5
293
 10
241.510091
 20
207.568966
 30
0.0
 11
243.510091
 21
209.568966
 31
0.0
  0
LINE
  8
LC-006-005-----0
  6
CONTINUOUS
  5
294
 10
228.465486
 20
197.352788
 30
0.0
 11
230.465486
 21
199.352788
 31
0.0
  0
LINE
  8
LC-006-005-----0
  6
CONTINUOUS
  5
295
 10
241.510091
 20
210.397393
 30
0.0
 11
243.510091
 21
212.397393
 31
0.0
  0
LINE
  8
LC-006-005-----0
  6
CONTINUOUS
  5
296
 10
225.637059
 20
197.352788
 30
0.0
 11
227.637059
 21
199.352788
 31
0.0
  0
LINE
  8
LC-006-005-----0
  6
CONTINUOUS
  5
297
 10
241.510091
 20
213.22582
 30
0.0
 11
243.510091
 21
215.22582
 31
0.0
  0
LINE
  8
LC-006-005-----0
  6
CONTINUOUS
  5
298
 10
216.808632
 20
191.352788
 30
0.0
 11
218.510091
 21
193.054247
 31
0.0
  0
LINE
  8
LC-006-005-----0
  6
CONTINUOUS
  5
299
 10
222.808632
 20
197.352788
 30
0.0
 11
224.808632
 21
199.352788
 31
0.0
  0
LINE
  8
LC-006-005-----0
  6
CONTINUOUS
  5
29A
 10
241.510091
 20
216.054247
 30
0.0
 11
243.510091
 21
218.054247
 31
0.0
  0
LINE
  8
LC-006-005-----0
  6
CONTINUOUS
  5
29B
 10
216.510091
 20
193.882674
 30
0.0
 11
218.510091
 21
195.882674
 31
0.0
  0
LINE
  8
LC-006-005-----0
  6
CONTINUOUS
  5
29C
 10
219.980205
 20
197.352788
 30
0.0
 11
221.980205
 21
199.352788
 31
0.0
  0
LINE
  8
LC-006-005-----0
  6
CONTINUOUS
  5
29D
 10
241.510091
 20
218.882674
 30
0.0
 11
243.510091
 21
220.882674
 31
0.0
  0
LINE
  8
LC-006-005-----0
  6
CONTINUOUS
  5
29E
 10
216.510091
 20
196.711102
 30
0.0
 11
219.151778
 21
199.352788
 31
0.0
  0
LINE
  8
LC-006-005-----0
  6
CONTINUOUS
  5
29F
 10
241.510091
 20
221.711102
 30
0.0
 11
243.510091
 21
223.711102
 31
0.0
  0
LINE
  8
LC-006-005-----0
  6
CONTINUOUS
  5
2A0
 10
241.510091
 20
224.539529
 30
0.0
 11
243.510091
 21
226.539529
 31
0.0
  0
LINE
  8
LC-006-005-----0
  6
CONTINUOUS
  5
2A1
 10
241.510091
 20
227.367956
 30
0.0
 11
243.510091
 21
229.367956
 31
0.0
  0
LINE
  8
LC-006-005-----0
  6
CONTINUOUS
  5
2A2
 10
241.510091
 20
230.196383
 30
0.0
 11
243.510091
 21
232.196383
 31
0.0
  0
LINE
  8
LC-006-005-----0
  6
CONTINUOUS
  5
2A3
 10
241.510091
 20
233.02481
 30
0.0
 11
243.510091
 21
235.02481
 31
0.0
  0
LINE
  8
LC-006-005-----0
  6
CONTINUOUS
  5
2A4
 10
241.510091
 20
235.853237
 30
0.0
 11
243.510091
 21
237.853237
 31
0.0
  0
LINE
  8
LC-006-005-----0
  6
CONTINUOUS
  5
2A5
 10
241.510091
 20
238.681664
 30
0.0
 11
243.510091
 21
240.681664
 31
0.0
  0
LINE
  8
LC-006-005-----0
  6
CONTINUOUS
  5
2A6
 10
241.510091
 20
241.510091
 30
0.0
 11
243.510091
 21
243.510091
 31
0.0
  0
LINE
  8
LC-006-005-----0
  6
CONTINUOUS
  5
2A7
 10
241.510091
 20
244.338519
 30
0.0
 11
243.510091
 21
246.338519
 31
0.0
  0
LINE
  8
LC-006-005-----0
  6
CONTINUOUS
  5
2A8
 10
239.695933
 20
245.352788
 30
0.0
 11
241.445336
 21
247.10219
 31
0.0
  0
LINE
  8
LC-006-005-----0
  6
CONTINUOUS
  5
2A9
 10
236.867506
 20
245.352788
 30
0.0
 11
238.867506
 21
247.352788
 31
0.0
  0
LINE
  8
LC-006-005-----0
  6
CONTINUOUS
  5
2AA
 10
234.039079
 20
245.352788
 30
0.0
 11
236.039079
 21
247.352788
 31
0.0
  0
LINE
  8
LC-006-005-----0
  6
CONTINUOUS
  5
2AB
 10
231.210652
 20
245.352788
 30
0.0
 11
233.210652
 21
247.352788
 31
0.0
  0
LINE
  8
LC-006-005-----0
  6
CONTINUOUS
  5
2AC
 10
228.382225
 20
245.352788
 30
0.0
 11
230.382225
 21
247.352788
 31
0.0
  0
LINE
  8
LC-006-005-----0
  6
CONTINUOUS
  5
2AD
 10
225.553798
 20
245.352788
 30
0.0
 11
227.553798
 21
247.352788
 31
0.0
  0
LINE
  8
LC-006-005-----0
  6
CONTINUOUS
  5
2AE
 10
222.725371
 20
245.352788
 30
0.0
 11
224.725371
 21
247.352788
 31
0.0
  0
LINE
  8
LC-006-005-----0
  6
CONTINUOUS
  5
2AF
 10
219.896944
 20
245.352788
 30
0.0
 11
221.896944
 21
247.352788
 31
0.0
  0
LINE
  8
LC-006-005-----0
  6
CONTINUOUS
  5
2B0
 10
217.068516
 20
245.352788
 30
0.0
 11
219.068516
 21
247.352788
 31
0.0
  0
LINE
  8
LC-006-005-----0
  6
CONTINUOUS
  5
2B1
 10
216.510091
 20
247.62279
 30
0.0
 11
218.510091
 21
249.62279
 31
0.0
  0
LINE
  8
LC-006-005-----0
  6
CONTINUOUS
  5
2B2
 10
216.510091
 20
250.451217
 30
0.0
 11
218.510091
 21
252.451217
 31
0.0
  0
LINE
  8
LC-006-005-----0
  6
CONTINUOUS
  5
2B3
 10
216.510091
 20
253.279644
 30
0.0
 11
216.583235
 21
253.352788
 31
0.0
  0
ENDBLK
  8
0
  5
2B4
  0
BLOCK
  8
0
  5
2B6
  2
*X36
 70
    65
 10
218.510091
 20
145.102788
 30
0.0
  3
*X36
  0
LINE
  8
LC-006-005-----0
  6
CONTINUOUS
  5
2B7
 10
331.510091
 20
175.9466
 30
0.0
 11
333.810091
 21
178.2466
 31
0.0
  0
LINE
  8
LC-006-005-----0
  6
CONTINUOUS
  5
2B8
 10
333.927361
 20
178.363869
 30
0.0
 11
336.427361
 21
180.863869
 31
0.0
  0
LINE
  8
LC-006-005-----0
  6
CONTINUOUS
  5
2B9
 10
331.510091
 20
178.775027
 30
0.0
 11
333.810091
 21
181.075027
 31
0.0
  0
LINE
  8
LC-006-005-----0
  6
CONTINUOUS
  5
2BA
 10
331.510091
 20
181.603454
 30
0.0
 11
333.810091
 21
183.903454
 31
0.0
  0
LINE
  8
LC-006-005-----0
  6
CONTINUOUS
  5
2BB
 10
337.770574
 20
187.863936
 30
0.0
 11
338.460091
 21
188.553454
 31
0.0
  0
LINE
  8
LC-006-005-----0
  6
CONTINUOUS
  5
2BC
 10
331.510091
 20
184.431881
 30
0.0
 11
333.810091
 21
186.731881
 31
0.0
  0
LINE
  8
LC-006-005-----0
  6
CONTINUOUS
  5
2BD
 10
334.942147
 20
187.863936
 30
0.0
 11
337.442147
 21
190.363936
 31
0.0
  0
LINE
  8
LC-006-005-----0
  6
CONTINUOUS
  5
2BE
 10
331.510091
 20
187.260308
 30
0.0
 11
334.730302
 21
190.480519
 31
0.0
  0
LINE
  8
LC-006-005-----0
  6
CONTINUOUS
  5
2BF
 10
338.902571
 20
194.652788
 30
0.0
 11
340.610091
 21
196.360308
 31
0.0
  0
LINE
  8
LC-006-005-----0
  6
CONTINUOUS
  5
2C0
 10
331.510091
 20
190.088735
 30
0.0
 11
333.810091
 21
192.388735
 31
0.0
  0
LINE
  8
LC-006-005-----0
  6
CONTINUOUS
  5
2C1
 10
336.074144
 20
194.652788
 30
0.0
 11
338.574144
 21
197.152788
 31
0.0
  0
LINE
  8
LC-006-005-----0
  6
CONTINUOUS
  5
2C2
 10
331.510091
 20
192.917162
 30
0.0
 11
335.745717
 21
197.152788
 31
0.0
  0
LINE
  8
LC-006-005-----0
  6
CONTINUOUS
  5
2C3
 10
331.510091
 20
195.745589
 30
0.0
 11
333.952843
 21
198.188341
 31
0.0
  0
LINE
  8
LC-006-005-----0
  6
CONTINUOUS
  5
2C4
 10
331.500837
 20
198.564762
 30
0.0
 11
333.851494
 21
200.91542
 31
0.0
  0
LINE
  8
LC-006-005-----0
  6
CONTINUOUS
  5
2C5
 10
331.375578
 20
201.26793
 30
0.0
 11
333.622199
 21
203.514552
 31
0.0
  0
LINE
  8
LC-006-005-----0
  6
CONTINUOUS
  5
2C6
 10
331.119502
 20
203.840282
 30
0.0
 11
333.280066
 21
206.000846
 31
0.0
  0
LINE
  8
LC-006-005-----0
  6
CONTINUOUS
  5
2C7
 10
330.748306
 20
206.297512
 30
0.0
 11
332.836774
 21
208.38598
 31
0.0
  0
LINE
  8
LC-006-005-----0
  6
CONTINUOUS
  5
2C8
 10
330.274035
 20
208.651669
 30
0.0
 11
332.301542
 21
210.679175
 31
0.0
  0
LINE
  8
LC-006-005-----0
  6
CONTINUOUS
  5
2C9
 10
329.706143
 20
210.912204
 30
0.0
 11
331.681773
 21
212.887834
 31
0.0
  0
LINE
  8
LC-006-005-----0
  6
CONTINUOUS
  5
2CA
 10
290.829381
 20
174.863869
 30
0.0
 11
291.510091
 21
175.544579
 31
0.0
  0
LINE
  8
LC-006-005-----0
  6
CONTINUOUS
  5
2CB
 10
329.052174
 20
213.086662
 30
0.0
 11
330.983487
 21
215.017975
 31
0.0
  0
LINE
  8
LC-006-005-----0
  6
CONTINUOUS
  5
2CC
 10
289.234032
 20
176.096947
 30
0.0
 11
291.510091
 21
178.373006
 31
0.0
  0
LINE
  8
LC-006-005-----0
  6
CONTINUOUS
  5
2CD
 10
328.318226
 20
215.181141
 30
0.0
 11
330.211628
 21
217.074543
 31
0.0
  0
LINE
  8
LC-006-005-----0
  6
CONTINUOUS
  5
2CE
 10
288.672527
 20
178.363869
 30
0.0
 11
291.510091
 21
181.201434
 31
0.0
  0
LINE
  8
LC-006-005-----0
  6
CONTINUOUS
  5
2CF
 10
327.509276
 20
217.200619
 30
0.0
 11
329.370284
 21
219.061626
 31
0.0
  0
LINE
  8
LC-006-005-----0
  6
CONTINUOUS
  5
2D0
 10
286.677095
 20
179.196865
 30
0.0
 11
288.344099
 21
180.863869
 31
0.0
  0
LINE
  8
LC-006-005-----0
  6
CONTINUOUS
  5
2D1
 10
289.210091
 20
181.729861
 30
0.0
 11
291.510091
 21
184.029861
 31
0.0
  0
LINE
  8
LC-006-005-----0
  6
CONTINUOUS
  5
2D2
 10
326.629411
 20
219.14918
 30
0.0
 11
328.462848
 21
220.982617
 31
0.0
  0
LINE
  8
LC-006-005-----0
  6
CONTINUOUS
  5
2D3
 10
289.210091
 20
184.558288
 30
0.0
 11
291.510091
 21
186.858288
 31
0.0
  0
LINE
  8
LC-006-005-----0
  6
CONTINUOUS
  5
2D4
 10
325.681993
 20
221.030189
 30
0.0
 11
327.49214
 21
222.840336
 31
0.0
  0
LINE
  8
LC-006-005-----0
  6
CONTINUOUS
  5
2D5
 10
288.948702
 20
187.125326
 30
0.0
 11
291.510091
 21
189.686715
 31
0.0
  0
LINE
  8
LC-006-005-----0
  6
CONTINUOUS
  5
2D6
 10
324.669788
 20
222.846412
 30
0.0
 11
326.460496
 21
224.63712
 31
0.0
  0
LINE
  8
LC-006-005-----0
  6
CONTINUOUS
  5
2D7
 10
286.858886
 20
187.863936
 30
0.0
 11
291.510091
 21
192.515142
 31
0.0
  0
LINE
  8
LC-006-005-----0
  6
CONTINUOUS
  5
2D8
 10
323.59506
 20
224.60011
 30
0.0
 11
325.369842
 21
226.374892
 31
0.0
  0
LINE
  8
LC-006-005-----0
  6
CONTINUOUS
  5
2D9
 10
284.560091
 20
188.393569
 30
0.0
 11
286.530459
 21
190.363936
 31
0.0
  0
LINE
  8
LC-006-005-----0
  6
CONTINUOUS
  5
2DA
 10
289.210091
 20
193.043569
 30
0.0
 11
291.501753
 21
195.33523
 31
0.0
  0
LINE
  8
LC-006-005-----0
  6
CONTINUOUS
  5
2DB
 10
322.459636
 20
226.293114
 30
0.0
 11
324.221742
 21
228.05522
 31
0.0
  0
LINE
  8
LC-006-005-----0
  6
CONTINUOUS
  5
2DC
 10
287.990883
 20
194.652788
 30
0.0
 11
290.319693
 21
196.981598
 31
0.0
  0
LINE
  8
LC-006-005-----0
  6
CONTINUOUS
  5
2DD
 10
321.264965
 20
227.92687
 30
0.0
 11
323.017441
 21
229.679346
 31
0.0
  0
LINE
  8
LC-006-005-----0
  6
CONTINUOUS
  5
2DE
 10
285.162456
 20
194.652788
 30
0.0
 11
287.612456
 21
197.102788
 31
0.0
  0
LINE
  8
LC-006-005-----0
  6
CONTINUOUS
  5
2DF
 10
320.012157
 20
229.502489
 30
0.0
 11
321.757898
 21
231.24823
 31
0.0
  0
LINE
  8
LC-006-005-----0
  6
CONTINUOUS
  5
2E0
 10
282.334029
 20
194.652788
 30
0.0
 11
284.784029
 21
197.102788
 31
0.0
  0
LINE
  8
LC-006-005-----0
  6
CONTINUOUS
  5
2E1
 10
318.702008
 20
231.020767
 30
0.0
 11
320.443803
 21
232.762562
 31
0.0
  0
LINE
  8
LC-006-005-----0
  6
CONTINUOUS
  5
2E2
 10
279.505601
 20
194.652788
 30
0.0
 11
281.955601
 21
197.102788
 31
0.0
  0
LINE
  8
LC-006-005-----0
  6
CONTINUOUS
  5
2E3
 10
317.335025
 20
232.482211
 30
0.0
 11
319.075597
 21
234.222783
 31
0.0
  0
LINE
  8
LC-006-005-----0
  6
CONTINUOUS
  5
2E4
 10
276.677174
 20
194.652788
 30
0.0
 11
279.127174
 21
197.102788
 31
0.0
  0
LINE
  8
LC-006-005-----0
  6
CONTINUOUS
  5
2E5
 10
315.911435
 20
233.887048
 30
0.0
 11
317.653482
 21
235.629096
 31
0.0
  0
LINE
  8
LC-006-005-----0
  6
CONTINUOUS
  5
2E6
 10
273.848747
 20
194.652788
 30
0.0
 11
276.298747
 21
197.102788
 31
0.0
  0
LINE
  8
LC-006-005-----0
  6
CONTINUOUS
  5
2E7
 10
314.431194
 20
235.235234
 30
0.0
 11
316.177424
 21
236.981465
 31
0.0
  0
LINE
  8
LC-006-005-----0
  6
CONTINUOUS
  5
2E8
 10
271.02032
 20
194.652788
 30
0.0
 11
273.47032
 21
197.102788
 31
0.0
  0
LINE
  8
LC-006-005-----0
  6
CONTINUOUS
  5
2E9
 10
312.893982
 20
236.526449
 30
0.0
 11
314.647152
 21
238.279619
 31
0.0
  0
LINE
  8
LC-006-005-----0
  6
CONTINUOUS
  5
2EA
 10
268.191893
 20
194.652788
 30
0.0
 11
270.641893
 21
197.102788
 31
0.0
  0
LINE
  8
LC-006-005-----0
  6
CONTINUOUS
  5
2EB
 10
311.299198
 20
237.760093
 30
0.0
 11
313.062151
 21
239.523046
 31
0.0
  0
LINE
  8
LC-006-005-----0
  6
CONTINUOUS
  5
2EC
 10
265.363466
 20
194.652788
 30
0.0
 11
267.813466
 21
197.102788
 31
0.0
  0
LINE
  8
LC-006-005-----0
  6
CONTINUOUS
  5
2ED
 10
309.645944
 20
238.935266
 30
0.0
 11
311.421655
 21
240.710977
 31
0.0
  0
LINE
  8
LC-006-005-----0
  6
CONTINUOUS
  5
2EE
 10
262.535039
 20
194.652788
 30
0.0
 11
264.985039
 21
197.102788
 31
0.0
  0
LINE
  8
LC-006-005-----0
  6
CONTINUOUS
  5
2EF
 10
307.933003
 20
240.050752
 30
0.0
 11
309.724625
 21
241.842374
 31
0.0
  0
LINE
  8
LC-006-005-----0
  6
CONTINUOUS
  5
2F0
 10
259.706612
 20
194.652788
 30
0.0
 11
262.156612
 21
197.102788
 31
0.0
  0
LINE
  8
LC-006-005-----0
  6
CONTINUOUS
  5
2F1
 10
306.158806
 20
241.104982
 30
0.0
 11
307.969724
 21
242.9159
 31
0.0
  0
LINE
  8
LC-006-005-----0
  6
CONTINUOUS
  5
2F2
 10
256.878184
 20
194.652788
 30
0.0
 11
259.328184
 21
197.102788
 31
0.0
  0
LINE
  8
LC-006-005-----0
  6
CONTINUOUS
  5
2F3
 10
304.321385
 20
242.095988
 30
0.0
 11
306.155288
 21
243.929891
 31
0.0
  0
LINE
  8
LC-006-005-----0
  6
CONTINUOUS
  5
2F4
 10
254.049757
 20
194.652788
 30
0.0
 11
256.499757
 21
197.102788
 31
0.0
  0
LINE
  8
LC-006-005-----0
  6
CONTINUOUS
  5
2F5
 10
302.418321
 20
243.021351
 30
0.0
 11
304.279277
 21
244.882307
 31
0.0
  0
LINE
  8
LC-006-005-----0
  6
CONTINUOUS
  5
2F6
 10
251.22133
 20
194.652788
 30
0.0
 11
253.67133
 21
197.102788
 31
0.0
  0
LINE
  8
LC-006-005-----0
  6
CONTINUOUS
  5
2F7
 10
300.446662
 20
243.878119
 30
0.0
 11
302.33922
 21
245.770678
 31
0.0
  0
LINE
  8
LC-006-005-----0
  6
CONTINUOUS
  5
2F8
 10
248.392903
 20
194.652788
 30
0.0
 11
250.842903
 21
197.102788
 31
0.0
  0
LINE
  8
LC-006-005-----0
  6
CONTINUOUS
  5
2F9
 10
298.40282
 20
244.662704
 30
0.0
 11
300.332141
 21
246.592025
 31
0.0
  0
LINE
  8
LC-006-005-----0
  6
CONTINUOUS
  5
2FA
 10
245.564476
 20
194.652788
 30
0.0
 11
248.014476
 21
197.102788
 31
0.0
  0
LINE
  8
LC-006-005-----0
  6
CONTINUOUS
  5
2FB
 10
296.282435
 20
245.370746
 30
0.0
 11
298.254455
 21
247.342767
 31
0.0
  0
LINE
  8
LC-006-005-----0
  6
CONTINUOUS
  5
2FC
 10
242.736049
 20
194.652788
 30
0.0
 11
245.186049
 21
197.102788
 31
0.0
  0
LINE
  8
LC-006-005-----0
  6
CONTINUOUS
  5
2FD
 10
294.080188
 20
245.996927
 30
0.0
 11
296.101844
 21
248.018583
 31
0.0
  0
LINE
  8
LC-006-005-----0
  6
CONTINUOUS
  5
2FE
 10
235.107622
 20
189.852788
 30
0.0
 11
237.010091
 21
191.755257
 31
0.0
  0
LINE
  8
LC-006-005-----0
  6
CONTINUOUS
  5
2FF
 10
239.907622
 20
194.652788
 30
0.0
 11
242.357622
 21
197.102788
 31
0.0
  0
LINE
  8
LC-006-005-----0
  6
CONTINUOUS
  5
300
 10
291.789543
 20
246.534709
 30
0.0
 11
293.869074
 21
248.61424
 31
0.0
  0
LINE
  8
LC-006-005-----0
  6
CONTINUOUS
  5
301
 10
232.279195
 20
189.852788
 30
0.0
 11
239.529195
 21
197.102788
 31
0.0
  0
LINE
  8
LC-006-005-----0
  6
CONTINUOUS
  5
302
 10
289.402383
 20
246.975976
 30
0.0
 11
291.549756
 21
249.123349
 31
0.0
  0
LINE
  8
LC-006-005-----0
  6
CONTINUOUS
  5
303
 10
229.450767
 20
189.852788
 30
0.0
 11
231.950767
 21
192.352788
 31
0.0
  0
LINE
  8
LC-006-005-----0
  6
CONTINUOUS
  5
304
 10
235.010091
 20
195.412112
 30
0.0
 11
236.700767
 21
197.102788
 31
0.0
  0
LINE
  8
LC-006-005-----0
  6
CONTINUOUS
  5
305
 10
286.908486
 20
247.310507
 30
0.0
 11
289.136007
 21
249.538028
 31
0.0
  0
LINE
  8
LC-006-005-----0
  6
CONTINUOUS
  5
306
 10
226.62234
 20
189.852788
 30
0.0
 11
229.12234
 21
192.352788
 31
0.0
  0
LINE
  8
LC-006-005-----0
  6
CONTINUOUS
  5
307
 10
284.294738
 20
247.525185
 30
0.0
 11
286.617964
 21
249.848412
 31
0.0
  0
LINE
  8
LC-006-005-----0
  6
CONTINUOUS
  5
308
 10
225.010091
 20
191.068966
 30
0.0
 11
226.877002
 21
192.935877
 31
0.0
  0
LINE
  8
LC-006-005-----0
  6
CONTINUOUS
  5
309
 10
281.543902
 20
247.602776
 30
0.0
 11
283.983064
 21
250.041938
 31
0.0
  0
LINE
  8
LC-006-005-----0
  6
CONTINUOUS
  5
30A
 10
224.112789
 20
193.00009
 30
0.0
 11
225.462789
 21
194.35009
 31
0.0
  0
LINE
  8
LC-006-005-----0
  6
CONTINUOUS
  5
30B
 10
278.715486
 20
247.602788
 30
0.0
 11
281.215486
 21
250.102788
 31
0.0
  0
LINE
  8
LC-006-005-----0
  6
CONTINUOUS
  5
30C
 10
222.698575
 20
194.414304
 30
0.0
 11
224.048575
 21
195.764304
 31
0.0
  0
LINE
  8
LC-006-005-----0
  6
CONTINUOUS
  5
30D
 10
275.887059
 20
247.602788
 30
0.0
 11
278.387059
 21
250.102788
 31
0.0
  0
LINE
  8
LC-006-005-----0
  6
CONTINUOUS
  5
30E
 10
220.058632
 20
194.602788
 30
0.0
 11
222.558632
 21
197.102788
 31
0.0
  0
LINE
  8
LC-006-005-----0
  6
CONTINUOUS
  5
30F
 10
273.058632
 20
247.602788
 30
0.0
 11
275.558632
 21
250.102788
 31
0.0
  0
LINE
  8
LC-006-005-----0
  6
CONTINUOUS
  5
310
 10
218.510091
 20
195.882674
 30
0.0
 11
219.730205
 21
197.102788
 31
0.0
  0
LINE
  8
LC-006-005-----0
  6
CONTINUOUS
  5
311
 10
270.230205
 20
247.602788
 30
0.0
 11
272.730205
 21
250.102788
 31
0.0
  0
LINE
  8
LC-006-005-----0
  6
CONTINUOUS
  5
312
 10
267.401778
 20
247.602788
 30
0.0
 11
269.901778
 21
250.102788
 31
0.0
  0
LINE
  8
LC-006-005-----0
  6
CONTINUOUS
  5
313
 10
264.57335
 20
247.602788
 30
0.0
 11
267.07335
 21
250.102788
 31
0.0
  0
LINE
  8
LC-006-005-----0
  6
CONTINUOUS
  5
314
 10
261.744923
 20
247.602788
 30
0.0
 11
264.244923
 21
250.102788
 31
0.0
  0
LINE
  8
LC-006-005-----0
  6
CONTINUOUS
  5
315
 10
258.916496
 20
247.602788
 30
0.0
 11
261.416496
 21
250.102788
 31
0.0
  0
LINE
  8
LC-006-005-----0
  6
CONTINUOUS
  5
316
 10
256.088069
 20
247.602788
 30
0.0
 11
258.588069
 21
250.102788
 31
0.0
  0
LINE
  8
LC-006-005-----0
  6
CONTINUOUS
  5
317
 10
253.259642
 20
247.602788
 30
0.0
 11
255.759642
 21
250.102788
 31
0.0
  0
LINE
  8
LC-006-005-----0
  6
CONTINUOUS
  5
318
 10
250.431215
 20
247.602788
 30
0.0
 11
252.931215
 21
250.102788
 31
0.0
  0
LINE
  8
LC-006-005-----0
  6
CONTINUOUS
  5
319
 10
247.602788
 20
247.602788
 30
0.0
 11
250.102788
 21
250.102788
 31
0.0
  0
LINE
  8
LC-006-005-----0
  6
CONTINUOUS
  5
31A
 10
244.774361
 20
247.602788
 30
0.0
 11
247.274361
 21
250.102788
 31
0.0
  0
LINE
  8
LC-006-005-----0
  6
CONTINUOUS
  5
31B
 10
241.945933
 20
247.602788
 30
0.0
 11
244.445933
 21
250.102788
 31
0.0
  0
LINE
  8
LC-006-005-----0
  6
CONTINUOUS
  5
31C
 10
239.117506
 20
247.602788
 30
0.0
 11
241.617506
 21
250.102788
 31
0.0
  0
LINE
  8
LC-006-005-----0
  6
CONTINUOUS
  5
31D
 10
236.289079
 20
247.602788
 30
0.0
 11
238.789079
 21
250.102788
 31
0.0
  0
LINE
  8
LC-006-005-----0
  6
CONTINUOUS
  5
31E
 10
235.010091
 20
249.152227
 30
0.0
 11
237.010091
 21
251.152227
 31
0.0
  0
LINE
  8
LC-006-005-----0
  6
CONTINUOUS
  5
31F
 10
234.996789
 20
251.967352
 30
0.0
 11
237.002796
 21
253.973359
 31
0.0
  0
LINE
  8
LC-006-005-----0
  6
CONTINUOUS
  5
320
 10
232.553798
 20
252.352788
 30
0.0
 11
235.053798
 21
254.852788
 31
0.0
  0
LINE
  8
LC-006-005-----0
  6
CONTINUOUS
  5
321
 10
229.725371
 20
252.352788
 30
0.0
 11
232.225371
 21
254.852788
 31
0.0
  0
LINE
  8
LC-006-005-----0
  6
CONTINUOUS
  5
322
 10
222.146944
 20
247.602788
 30
0.0
 11
229.396944
 21
254.852788
 31
0.0
  0
LINE
  8
LC-006-005-----0
  6
CONTINUOUS
  5
323
 10
219.318516
 20
247.602788
 30
0.0
 11
221.818516
 21
250.102788
 31
0.0
  0
LINE
  8
LC-006-005-----0
  6
CONTINUOUS
  5
324
 10
225.010091
 20
253.294363
 30
0.0
 11
226.568516
 21
254.852788
 31
0.0
  0
LINE
  8
LC-006-005-----0
  6
CONTINUOUS
  5
325
 10
218.510091
 20
249.62279
 30
0.0
 11
218.990089
 21
250.102788
 31
0.0
  0
ENDBLK
  8
0
  5
326
  0
BLOCK
  8
0
  5
328
  2
*X37
 70
    65
 10
282.055229
 20
149.754667
 30
0.0
  3
*X37
  0
LINE
  8
LC-006-005-----0
  6
CONTINUOUS
  5
329
 10
347.888461
 20
149.898562
 30
0.0
 11
348.839445
 21
150.849546
 31
0.0
  0
LINE
  8
LC-006-005-----0
  6
CONTINUOUS
  5
32A
 10
346.902719
 20
151.741247
 30
0.0
 11
348.839445
 21
153.677974
 31
0.0
  0
LINE
  8
LC-006-005-----0
  6
CONTINUOUS
  5
32B
 10
348.916101
 20
153.754629
 30
0.0
 11
349.171706
 21
154.010234
 31
0.0
  0
LINE
  8
LC-006-005-----0
  6
CONTINUOUS
  5
32C
 10
344.087711
 20
151.754667
 30
0.0
 11
347.087655
 21
154.754611
 31
0.0
  0
LINE
  8
LC-006-005-----0
  6
CONTINUOUS
  5
32D
 10
341.259284
 20
151.754667
 30
0.0
 11
344.259228
 21
154.754611
 31
0.0
  0
LINE
  8
LC-006-005-----0
  6
CONTINUOUS
  5
32E
 10
338.430857
 20
151.754667
 30
0.0
 11
341.430801
 21
154.754611
 31
0.0
  0
LINE
  8
LC-006-005-----0
  6
CONTINUOUS
  5
32F
 10
335.60243
 20
151.754667
 30
0.0
 11
338.602374
 21
154.754611
 31
0.0
  0
LINE
  8
LC-006-005-----0
  6
CONTINUOUS
  5
330
 10
332.774003
 20
151.754667
 30
0.0
 11
335.773947
 21
154.754611
 31
0.0
  0
LINE
  8
LC-006-005-----0
  6
CONTINUOUS
  5
331
 10
329.945575
 20
151.754667
 30
0.0
 11
332.94552
 21
154.754611
 31
0.0
  0
LINE
  8
LC-006-005-----0
  6
CONTINUOUS
  5
332
 10
327.117148
 20
151.754667
 30
0.0
 11
330.117093
 21
154.754611
 31
0.0
  0
LINE
  8
LC-006-005-----0
  6
CONTINUOUS
  5
333
 10
324.288721
 20
151.754667
 30
0.0
 11
327.288665
 21
154.754611
 31
0.0
  0
LINE
  8
LC-006-005-----0
  6
CONTINUOUS
  5
334
 10
321.460294
 20
151.754667
 30
0.0
 11
324.460238
 21
154.754611
 31
0.0
  0
LINE
  8
LC-006-005-----0
  6
CONTINUOUS
  5
335
 10
318.631867
 20
151.754667
 30
0.0
 11
321.631811
 21
154.754611
 31
0.0
  0
LINE
  8
LC-006-005-----0
  6
CONTINUOUS
  5
336
 10
315.80344
 20
151.754667
 30
0.0
 11
318.803384
 21
154.754611
 31
0.0
  0
LINE
  8
LC-006-005-----0
  6
CONTINUOUS
  5
337
 10
312.975013
 20
151.754667
 30
0.0
 11
315.974957
 21
154.754611
 31
0.0
  0
LINE
  8
LC-006-005-----0
  6
CONTINUOUS
  5
338
 10
310.146586
 20
151.754667
 30
0.0
 11
313.14653
 21
154.754611
 31
0.0
  0
LINE
  8
LC-006-005-----0
  6
CONTINUOUS
  5
339
 10
307.318158
 20
151.754667
 30
0.0
 11
310.318103
 21
154.754611
 31
0.0
  0
LINE
  8
LC-006-005-----0
  6
CONTINUOUS
  5
33A
 10
304.489731
 20
151.754667
 30
0.0
 11
307.489676
 21
154.754611
 31
0.0
  0
LINE
  8
LC-006-005-----0
  6
CONTINUOUS
  5
33B
 10
301.661304
 20
151.754667
 30
0.0
 11
304.661248
 21
154.754611
 31
0.0
  0
LINE
  8
LC-006-005-----0
  6
CONTINUOUS
  5
33C
 10
298.832877
 20
151.754667
 30
0.0
 11
301.832821
 21
154.754611
 31
0.0
  0
LINE
  8
LC-006-005-----0
  6
CONTINUOUS
  5
33D
 10
296.019506
 20
151.769723
 30
0.0
 11
299.004394
 21
154.754611
 31
0.0
  0
LINE
  8
LC-006-005-----0
  6
CONTINUOUS
  5
33E
 10
293.689682
 20
152.268326
 30
0.0
 11
296.186452
 21
154.765096
 31
0.0
  0
LINE
  8
LC-006-005-----0
  6
CONTINUOUS
  5
33F
 10
291.847097
 20
153.254168
 30
0.0
 11
294.014735
 21
155.421806
 31
0.0
  0
LINE
  8
LC-006-005-----0
  6
CONTINUOUS
  5
340
 10
290.379515
 20
154.615013
 30
0.0
 11
292.513961
 21
156.749459
 31
0.0
  0
LINE
  8
LC-006-005-----0
  6
CONTINUOUS
  5
341
 10
289.27565
 20
156.339575
 30
0.0
 11
291.624984
 21
158.688909
 31
0.0
  0
LINE
  8
LC-006-005-----0
  6
CONTINUOUS
  5
342
 10
288.608893
 20
158.501245
 30
0.0
 11
291.510091
 21
161.402444
 31
0.0
  0
LINE
  8
LC-006-005-----0
  6
CONTINUOUS
  5
343
 10
288.510091
 20
161.230871
 30
0.0
 11
291.510091
 21
164.230871
 31
0.0
  0
LINE
  8
LC-006-005-----0
  6
CONTINUOUS
  5
344
 10
288.510091
 20
164.059298
 30
0.0
 11
291.510091
 21
167.059298
 31
0.0
  0
LINE
  8
LC-006-005-----0
  6
CONTINUOUS
  5
345
 10
288.510091
 20
166.887725
 30
0.0
 11
291.510091
 21
169.887725
 31
0.0
  0
LINE
  8
LC-006-005-----0
  6
CONTINUOUS
  5
346
 10
288.509466
 20
169.715527
 30
0.0
 11
291.510091
 21
172.716152
 31
0.0
  0
LINE
  8
LC-006-005-----0
  6
CONTINUOUS
  5
347
 10
287.685552
 20
171.72004
 30
0.0
 11
290.3183
 21
174.352788
 31
0.0
  0
LINE
  8
LC-006-005-----0
  6
CONTINUOUS
  5
348
 10
285.779263
 20
172.642178
 30
0.0
 11
289.110091
 21
175.973006
 31
0.0
  0
LINE
  8
LC-006-005-----0
  6
CONTINUOUS
  5
349
 10
283.169673
 20
172.861015
 30
0.0
 11
286.43365
 21
176.124992
 31
0.0
  0
LINE
  8
LC-006-005-----0
  6
CONTINUOUS
  5
34A
 10
282.056742
 20
174.576511
 30
0.0
 11
284.410595
 21
176.930365
 31
0.0
  0
LINE
  8
LC-006-005-----0
  6
CONTINUOUS
  5
34B
 10
282.103758
 20
177.451955
 30
0.0
 11
284.410595
 21
179.758792
 31
0.0
  0
LINE
  8
LC-006-005-----0
  6
CONTINUOUS
  5
34C
 10
282.154006
 20
180.330629
 30
0.0
 11
284.410595
 21
182.587219
 31
0.0
  0
LINE
  8
LC-006-005-----0
  6
CONTINUOUS
  5
34D
 10
282.204253
 20
183.209304
 30
0.0
 11
284.410595
 21
185.415646
 31
0.0
  0
LINE
  8
LC-006-005-----0
  6
CONTINUOUS
  5
34E
 10
282.254501
 20
186.087978
 30
0.0
 11
284.410595
 21
188.244073
 31
0.0
  0
LINE
  8
LC-006-005-----0
  6
CONTINUOUS
  5
34F
 10
282.304748
 20
188.966653
 30
0.0
 11
285.700748
 21
192.362653
 31
0.0
  0
LINE
  8
LC-006-005-----0
  6
CONTINUOUS
  5
350
 10
282.354995
 20
191.845327
 30
0.0
 11
284.286535
 21
193.776867
 31
0.0
  0
ENDBLK
  8
0
  5
351
  0
BLOCK
  8
0
  5
353
  2
*X38
 70
    65
 10
331.510091
 20
169.744332
 30
0.0
  3
*X38
  0
LINE
  8
LC-006-005-----0
  6
CONTINUOUS
  5
354
 10
346.106795
 20
170.744313
 30
0.0
 11
348.839445
 21
173.476963
 31
0.0
  0
LINE
  8
LC-006-005-----0
  6
CONTINUOUS
  5
355
 10
343.278368
 20
170.744313
 30
0.0
 11
346.278312
 21
173.744258
 31
0.0
  0
LINE
  8
LC-006-005-----0
  6
CONTINUOUS
  5
356
 10
347.739445
 20
175.205391
 30
0.0
 11
348.278275
 21
175.74422
 31
0.0
  0
LINE
  8
LC-006-005-----0
  6
CONTINUOUS
  5
357
 10
340.449941
 20
170.744313
 30
0.0
 11
343.449885
 21
173.744258
 31
0.0
  0
LINE
  8
LC-006-005-----0
  6
CONTINUOUS
  5
358
 10
337.621514
 20
170.744313
 30
0.0
 11
340.990064
 21
174.112864
 31
0.0
  0
LINE
  8
LC-006-005-----0
  6
CONTINUOUS
  5
359
 10
334.793087
 20
170.744313
 30
0.0
 11
340.926449
 21
176.877675
 31
0.0
  0
LINE
  8
LC-006-005-----0
  6
CONTINUOUS
  5
35A
 10
331.964659
 20
170.744313
 30
0.0
 11
337.345339
 21
176.124992
 31
0.0
  0
LINE
  8
LC-006-005-----0
  6
CONTINUOUS
  5
35B
 10
338.609587
 20
177.389241
 30
0.0
 11
340.877925
 21
179.657579
 31
0.0
  0
LINE
  8
LC-006-005-----0
  6
CONTINUOUS
  5
35C
 10
331.510091
 20
173.118172
 30
0.0
 11
332.744707
 21
174.352788
 31
0.0
  0
LINE
  8
LC-006-005-----0
  6
CONTINUOUS
  5
35D
 10
333.910091
 20
175.518172
 30
0.0
 11
334.516911
 21
176.124992
 31
0.0
  0
LINE
  8
LC-006-005-----0
  6
CONTINUOUS
  5
35E
 10
338.609587
 20
180.217668
 30
0.0
 11
340.829402
 21
182.437483
 31
0.0
  0
LINE
  8
LC-006-005-----0
  6
CONTINUOUS
  5
35F
 10
338.609587
 20
183.046095
 30
0.0
 11
340.780878
 21
185.217387
 31
0.0
  0
LINE
  8
LC-006-005-----0
  6
CONTINUOUS
  5
360
 10
338.609587
 20
185.874523
 30
0.0
 11
340.732355
 21
187.99729
 31
0.0
  0
LINE
  8
LC-006-005-----0
  6
CONTINUOUS
  5
361
 10
338.609587
 20
188.70295
 30
0.0
 11
340.683832
 21
190.777194
 31
0.0
  0
LINE
  8
LC-006-005-----0
  6
CONTINUOUS
  5
362
 10
337.985656
 20
190.907445
 30
0.0
 11
340.635308
 21
193.557098
 31
0.0
  0
ENDBLK
  8
0
  5
363
  0
BLOCK
  8
0
  5
365
  2
BLK10
 70
    64
 10
0.0
 20
0.0
 30
0.0
  3
BLK10
  0
ENDBLK
  8
0
  5
366
  0
BLOCK
  8
0
  5
368
  2
*D40
 70
    65
 10
0.0
 20
0.0
 30
0.0
  3
*D40
  0
LINE
  8
LC-014-003-MTH-0
  6
CONTINUOUS
  5
36A
 10
218.510091
 20
222.352788
 30
0.0
 11
179.2
 21
222.352788
 31
0.0
  0
LINE
  8
LC-014-003-MTH-0
  6
CONTINUOUS
  5
36B
 10
269.366376
 20
263.082735
 30
0.0
 11
179.2
 21
263.082735
 31
0.0
  0
LINE
  8
LC-013-003-----0
  6
CONTINUOUS
  5
36D
 10
199.654733
 20
194.592332
 30
0.0
 11
196.0
 21
222.352788
 31
0.0
  0
LINE
  8
LC-013-003-----0
  6
CONTINUOUS
  5
36E
 10
196.0
 20
222.352788
 30
0.0
 11
192.345267
 21
194.592332
 31
0.0
  0
LINE
  8
LC-013-003-----0
  6
CONTINUOUS
  5
36F
 10
192.345267
 20
194.592332
 30
0.0
 11
199.654733
 21
194.592332
 31
0.0
  0
LINE
  8
LC-013-003-----0
  6
CONTINUOUS
  5
370
 10
198.704503
 20
194.53005
 30
0.0
 11
196.0
 21
215.072788
 31
0.0
  0
LINE
  8
LC-013-003-----0
  6
CONTINUOUS
  5
371
 10
196.0
 20
215.072788
 30
0.0
 11
193.295497
 21
194.53005
 31
0.0
  0
LINE
  8
LC-013-003-----0
  6
CONTINUOUS
  5
372
 10
197.754272
 20
194.467769
 30
0.0
 11
196.0
 21
207.792788
 31
0.0
  0
LINE
  8
LC-013-003-----0
  6
CONTINUOUS
  5
373
 10
196.0
 20
207.792788
 30
0.0
 11
194.245728
 21
194.467769
 31
0.0
  0
LINE
  8
LC-013-003-----0
  6
CONTINUOUS
  5
374
 10
196.804041
 20
194.405487
 30
0.0
 11
196.0
 21
200.512788
 31
0.0
  0
LINE
  8
LC-013-003-----0
  6
CONTINUOUS
  5
375
 10
196.0
 20
200.512788
 30
0.0
 11
195.195959
 21
194.405487
 31
0.0
  0
LINE
  8
LC-013-003-----0
  6
CONTINUOUS
  5
376
 10
192.345267
 20
290.843191
 30
0.0
 11
196.0
 21
263.082735
 31
0.0
  0
LINE
  8
LC-013-003-----0
  6
CONTINUOUS
  5
377
 10
196.0
 20
263.082735
 30
0.0
 11
199.654733
 21
290.843191
 31
0.0
  0
LINE
  8
LC-013-003-----0
  6
CONTINUOUS
  5
378
 10
199.654733
 20
290.843191
 30
0.0
 11
192.345267
 21
290.843191
 31
0.0
  0
LINE
  8
LC-013-003-----0
  6
CONTINUOUS
  5
379
 10
193.295497
 20
290.905472
 30
0.0
 11
196.0
 21
270.362735
 31
0.0
  0
LINE
  8
LC-013-003-----0
  6
CONTINUOUS
  5
37A
 10
196.0
 20
270.362735
 30
0.0
 11
198.704503
 21
290.905472
 31
0.0
  0
LINE
  8
LC-013-003-----0
  6
CONTINUOUS
  5
37B
 10
194.245728
 20
290.967754
 30
0.0
 11
196.0
 21
277.642735
 31
0.0
  0
LINE
  8
LC-013-003-----0
  6
CONTINUOUS
  5
37C
 10
196.0
 20
277.642735
 30
0.0
 11
197.754272
 21
290.967754
 31
0.0
  0
LINE
  8
LC-013-003-----0
  6
CONTINUOUS
  5
37D
 10
195.195959
 20
291.030035
 30
0.0
 11
196.0
 21
284.922735
 31
0.0
  0
LINE
  8
LC-013-003-----0
  6
CONTINUOUS
  5
37E
 10
196.0
 20
284.922735
 30
0.0
 11
196.804041
 21
291.030035
 31
0.0
  0
LINE
  8
LC-015-003-MTG-0
  6
CONTINUOUS
  5
380
 10
196.0
 20
183.152788
 30
0.0
 11
196.0
 21
346.447135
 31
0.0
  0
TEXT
  8
LC-013-003-----0
  6
CONTINUOUS
 62
     8
  5
382
 10
188.172446
 20
305.510895
 30
0.0
 40
28.0
  1
40
 50
90.0
 41
0.9
 51
15.0
  7
LC-TXTSTYLE-150-400-0-0-D0
  0
ENDBLK
  8
0
  5
383
  0
BLOCK
  8
0
  5
385
  2
*D41
 70
    65
 10
0.0
 20
0.0
 30
0.0
  3
*D41
  0
LINE
  8
LC-014-003-MTH-0
  6
CONTINUOUS
  5
386
 10
296.510091
 20
151.754667
 30
0.0
 11
146.798369
 21
151.754667
 31
0.0
  0
LINE
  8
LC-014-003-MTH-0
  6
CONTINUOUS
  5
387
 10
119.798369
 20
151.754667
 30
0.0
 11
61.6
 21
151.754667
 31
0.0
  0
LINE
  8
LC-014-003-MTH-0
  6
CONTINUOUS
  5
388
 10
269.366376
 20
263.082735
 30
0.0
 11
61.6
 21
263.082735
 31
0.0
  0
LINE
  8
LC-015-003-MTG-0
  6
CONTINUOUS
  5
389
 10
78.4
 20
151.754667
 30
0.0
 11
78.4
 21
263.082735
 31
0.0
  0
LINE
  8
LC-013-003-----0
  6
CONTINUOUS
  5
38A
 10
74.745267
 20
179.515123
 30
0.0
 11
78.4
 21
151.754667
 31
0.0
  0
LINE
  8
LC-013-003-----0
  6
CONTINUOUS
  5
38B
 10
78.4
 20
151.754667
 30
0.0
 11
82.054733
 21
179.515123
 31
0.0
  0
LINE
  8
LC-013-003-----0
  6
CONTINUOUS
  5
38C
 10
82.054733
 20
179.515123
 30
0.0
 11
74.745267
 21
179.515123
 31
0.0
  0
LINE
  8
LC-013-003-----0
  6
CONTINUOUS
  5
38D
 10
75.695497
 20
179.577404
 30
0.0
 11
78.4
 21
159.034667
 31
0.0
  0
LINE
  8
LC-013-003-----0
  6
CONTINUOUS
  5
38E
 10
78.4
 20
159.034667
 30
0.0
 11
81.104503
 21
179.577404
 31
0.0
  0
LINE
  8
LC-013-003-----0
  6
CONTINUOUS
  5
38F
 10
76.645728
 20
179.639686
 30
0.0
 11
78.4
 21
166.314667
 31
0.0
  0
LINE
  8
LC-013-003-----0
  6
CONTINUOUS
  5
390
 10
78.4
 20
166.314667
 30
0.0
 11
80.154272
 21
179.639686
 31
0.0
  0
LINE
  8
LC-013-003-----0
  6
CONTINUOUS
  5
391
 10
77.595959
 20
179.701967
 30
0.0
 11
78.4
 21
173.594667
 31
0.0
  0
LINE
  8
LC-013-003-----0
  6
CONTINUOUS
  5
392
 10
78.4
 20
173.594667
 30
0.0
 11
79.204041
 21
179.701967
 31
0.0
  0
LINE
  8
LC-013-003-----0
  6
CONTINUOUS
  5
393
 10
82.054733
 20
235.322279
 30
0.0
 11
78.4
 21
263.082735
 31
0.0
  0
LINE
  8
LC-013-003-----0
  6
CONTINUOUS
  5
394
 10
78.4
 20
263.082735
 30
0.0
 11
74.745267
 21
235.322279
 31
0.0
  0
LINE
  8
LC-013-003-----0
  6
CONTINUOUS
  5
395
 10
74.745267
 20
235.322279
 30
0.0
 11
82.054733
 21
235.322279
 31
0.0
  0
LINE
  8
LC-013-003-----0
  6
CONTINUOUS
  5
396
 10
81.104503
 20
235.259997
 30
0.0
 11
78.4
 21
255.802735
 31
0.0
  0
LINE
  8
LC-013-003-----0
  6
CONTINUOUS
  5
397
 10
78.4
 20
255.802735
 30
0.0
 11
75.695497
 21
235.259997
 31
0.0
  0
LINE
  8
LC-013-003-----0
  6
CONTINUOUS
  5
398
 10
80.154272
 20
235.197716
 30
0.0
 11
78.4
 21
248.522735
 31
0.0
  0
LINE
  8
LC-013-003-----0
  6
CONTINUOUS
  5
399
 10
78.4
 20
248.522735
 30
0.0
 11
76.645728
 21
235.197716
 31
0.0
  0
LINE
  8
LC-013-003-----0
  6
CONTINUOUS
  5
39A
 10
79.204041
 20
235.135434
 30
0.0
 11
78.4
 21
241.242735
 31
0.0
  0
LINE
  8
LC-013-003-----0
  6
CONTINUOUS
  5
39B
 10
78.4
 20
241.242735
 30
0.0
 11
77.595959
 21
235.135434
 31
0.0
  0
TEXT
  8
LC-013-003-----0
  6
CONTINUOUS
 62
     8
  5
39C
 10
70.572446
 20
182.003081
 30
0.0
 40
28.0
  1
110
 50
90.0
 51
15.0
  7
LC-TXTSTYLE-150-400-0-0-D0
 72
     1
 11
70.572446
 21
211.766861
 31
0.0
  0
ENDBLK
  8
0
  5
39D
  0
BLOCK
  8
0
  5
39F
  2
*D42
 70
    65
 10
0.0
 20
0.0
 30
0.0
  3
*D42
  0
LINE
  8
LC-014-003-MTH-0
  6
CONTINUOUS
  5
3A0
 10
269.366376
 20
266.089933
 30
0.0
 11
269.366376
 21
448.0
 31
0.0
  0
LINE
  8
LC-014-003-MTH-0
  6
CONTINUOUS
  5
3A1
 10
571.366376
 20
266.089933
 30
0.0
 11
571.366376
 21
448.0
 31
0.0
  0
LINE
  8
LC-015-003-MTG-0
  6
CONTINUOUS
  5
3A2
 10
269.366376
 20
431.2
 30
0.0
 11
571.366376
 21
431.2
 31
0.0
  0
LINE
  8
LC-013-003-----0
  6
CONTINUOUS
  5
3A3
 10
297.126833
 20
434.854733
 30
0.0
 11
269.366376
 21
431.2
 31
0.0
  0
LINE
  8
LC-013-003-----0
  6
CONTINUOUS
  5
3A4
 10
269.366376
 20
431.2
 30
0.0
 11
297.126833
 21
427.545267
 31
0.0
  0
LINE
  8
LC-013-003-----0
  6
CONTINUOUS
  5
3A5
 10
297.126833
 20
427.545267
 30
0.0
 11
297.126833
 21
434.854733
 31
0.0
  0
LINE
  8
LC-013-003-----0
  6
CONTINUOUS
  5
3A6
 10
297.189114
 20
433.904503
 30
0.0
 11
276.646376
 21
431.2
 31
0.0
  0
LINE
  8
LC-013-003-----0
  6
CONTINUOUS
  5
3A7
 10
276.646376
 20
431.2
 30
0.0
 11
297.189114
 21
428.495497
 31
0.0
  0
LINE
  8
LC-013-003-----0
  6
CONTINUOUS
  5
3A8
 10
297.251395
 20
432.954272
 30
0.0
 11
283.926376
 21
431.2
 31
0.0
  0
LINE
  8
LC-013-003-----0
  6
CONTINUOUS
  5
3A9
 10
283.926376
 20
431.2
 30
0.0
 11
297.251395
 21
429.445728
 31
0.0
  0
LINE
  8
LC-013-003-----0
  6
CONTINUOUS
  5
3AA
 10
297.313677
 20
432.004041
 30
0.0
 11
291.206376
 21
431.2
 31
0.0
  0
LINE
  8
LC-013-003-----0
  6
CONTINUOUS
  5
3AB
 10
291.206376
 20
431.2
 30
0.0
 11
297.313677
 21
430.395959
 31
0.0
  0
LINE
  8
LC-013-003-----0
  6
CONTINUOUS
  5
3AC
 10
543.60592
 20
427.545267
 30
0.0
 11
571.366376
 21
431.2
 31
0.0
  0
LINE
  8
LC-013-003-----0
  6
CONTINUOUS
  5
3AD
 10
571.366376
 20
431.2
 30
0.0
 11
543.60592
 21
434.854733
 31
0.0
  0
LINE
  8
LC-013-003-----0
  6
CONTINUOUS
  5
3AE
 10
543.60592
 20
434.854733
 30
0.0
 11
543.60592
 21
427.545267
 31
0.0
  0
LINE
  8
LC-013-003-----0
  6
CONTINUOUS
  5
3AF
 10
543.543639
 20
428.495497
 30
0.0
 11
564.086376
 21
431.2
 31
0.0
  0
LINE
  8
LC-013-003-----0
  6
CONTINUOUS
  5
3B0
 10
564.086376
 20
431.2
 30
0.0
 11
543.543639
 21
433.904503
 31
0.0
  0
LINE
  8
LC-013-003-----0
  6
CONTINUOUS
  5
3B1
 10
543.481357
 20
429.445728
 30
0.0
 11
556.806376
 21
431.2
 31
0.0
  0
LINE
  8
LC-013-003-----0
  6
CONTINUOUS
  5
3B2
 10
556.806376
 20
431.2
 30
0.0
 11
543.481357
 21
432.954272
 31
0.0
  0
LINE
  8
LC-013-003-----0
  6
CONTINUOUS
  5
3B3
 10
543.419076
 20
430.395959
 30
0.0
 11
549.526376
 21
431.2
 31
0.0
  0
LINE
  8
LC-013-003-----0
  6
CONTINUOUS
  5
3B4
 10
549.526376
 20
431.2
 30
0.0
 11
543.419076
 21
432.004041
 31
0.0
  0
TEXT
  8
LC-013-003-----0
  6
CONTINUOUS
 62
     8
  5
3B5
 10
386.616899
 20
439.027554
 30
0.0
 40
28.0
  1
Ø300
 51
15.0
  7
LC-TXTSTYLE-150-400-0-0-D0
 72
     1
 11
424.714536
 21
439.027554
 31
0.0
  0
ENDBLK
  8
0
  5
3B6
  0
BLOCK
  8
0
  5
3B8
  2
*D43
 70
    65
 10
0.0
 20
0.0
 30
0.0
  3
*D43
  0
LINE
  8
LC-014-003-MTH-0
  6
CONTINUOUS
  5
3B9
 10
218.510091
 20
191.352788
 30
0.0
 11
218.510091
 21
100.8
 31
0.0
  0
LINE
  8
LC-014-003-MTH-0
  6
CONTINUOUS
  5
3BA
 10
420.366376
 20
151.399462
 30
0.0
 11
420.366376
 21
100.8
 31
0.0
  0
LINE
  8
LC-015-003-MTG-0
  6
CONTINUOUS
  5
3BB
 10
218.510091
 20
117.6
 30
0.0
 11
420.366376
 21
117.6
 31
0.0
  0
LINE
  8
LC-013-003-----0
  6
CONTINUOUS
  5
3BC
 10
246.270548
 20
121.254733
 30
0.0
 11
218.510091
 21
117.6
 31
0.0
  0
LINE
  8
LC-013-003-----0
  6
CONTINUOUS
  5
3BD
 10
218.510091
 20
117.6
 30
0.0
 11
246.270548
 21
113.945267
 31
0.0
  0
LINE
  8
LC-013-003-----0
  6
CONTINUOUS
  5
3BE
 10
246.270548
 20
113.945267
 30
0.0
 11
246.270548
 21
121.254733
 31
0.0
  0
LINE
  8
LC-013-003-----0
  6
CONTINUOUS
  5
3BF
 10
246.332829
 20
120.304503
 30
0.0
 11
225.790091
 21
117.6
 31
0.0
  0
LINE
  8
LC-013-003-----0
  6
CONTINUOUS
  5
3C0
 10
225.790091
 20
117.6
 30
0.0
 11
246.332829
 21
114.895497
 31
0.0
  0
LINE
  8
LC-013-003-----0
  6
CONTINUOUS
  5
3C1
 10
246.39511
 20
119.354272
 30
0.0
 11
233.070091
 21
117.6
 31
0.0
  0
LINE
  8
LC-013-003-----0
  6
CONTINUOUS
  5
3C2
 10
233.070091
 20
117.6
 30
0.0
 11
246.39511
 21
115.845728
 31
0.0
  0
LINE
  8
LC-013-003-----0
  6
CONTINUOUS
  5
3C3
 10
246.457392
 20
118.404041
 30
0.0
 11
240.350091
 21
117.6
 31
0.0
  0
LINE
  8
LC-013-003-----0
  6
CONTINUOUS
  5
3C4
 10
240.350091
 20
117.6
 30
0.0
 11
246.457392
 21
116.795959
 31
0.0
  0
LINE
  8
LC-013-003-----0
  6
CONTINUOUS
  5
3C5
 10
392.60592
 20
113.945267
 30
0.0
 11
420.366376
 21
117.6
 31
0.0
  0
LINE
  8
LC-013-003-----0
  6
CONTINUOUS
  5
3C6
 10
420.366376
 20
117.6
 30
0.0
 11
392.60592
 21
121.254733
 31
0.0
  0
LINE
  8
LC-013-003-----0
  6
CONTINUOUS
  5
3C7
 10
392.60592
 20
121.254733
 30
0.0
 11
392.60592
 21
113.945267
 31
0.0
  0
LINE
  8
LC-013-003-----0
  6
CONTINUOUS
  5
3C8
 10
392.543639
 20
114.895497
 30
0.0
 11
413.086376
 21
117.6
 31
0.0
  0
LINE
  8
LC-013-003-----0
  6
CONTINUOUS
  5
3C9
 10
413.086376
 20
117.6
 30
0.0
 11
392.543639
 21
120.304503
 31
0.0
  0
LINE
  8
LC-013-003-----0
  6
CONTINUOUS
  5
3CA
 10
392.481357
 20
115.845728
 30
0.0
 11
405.806376
 21
117.6
 31
0.0
  0
LINE
  8
LC-013-003-----0
  6
CONTINUOUS
  5
3CB
 10
405.806376
 20
117.6
 30
0.0
 11
392.481357
 21
119.354272
 31
0.0
  0
LINE
  8
LC-013-003-----0
  6
CONTINUOUS
  5
3CC
 10
392.419076
 20
116.795959
 30
0.0
 11
398.526376
 21
117.6
 31
0.0
  0
LINE
  8
LC-013-003-----0
  6
CONTINUOUS
  5
3CD
 10
398.526376
 20
117.6
 30
0.0
 11
392.419076
 21
118.404041
 31
0.0
  0
TEXT
  8
LC-013-003-----0
  6
CONTINUOUS
 62
     8
  5
3CE
 10
294.022614
 20
119.827554
 30
0.0
 40
28.0
  1
200
 51
15.0
  7
LC-TXTSTYLE-150-400-0-0-D0
 72
     1
 11
323.786394
 21
119.827554
 31
0.0
  0
ENDBLK
  8
0
  5
3CF
  0
BLOCK
  8
0
  5
3D1
  2
*D44
 70
    65
 10
0.0
 20
0.0
 30
0.0
  3
*D44
  0
LINE
  8
LC-014-003-MTH-0
  6
CONTINUOUS
  5
3D2
 10
218.510091
 20
191.352788
 30
0.0
 11
218.510091
 21
61.6
 31
0.0
  0
LINE
  8
LC-014-003-MTH-0
  6
CONTINUOUS
  5
3D3
 10
655.064649
 20
175.256263
 30
0.0
 11
655.064649
 21
61.6
 31
0.0
  0
LINE
  8
LC-015-003-MTG-0
  6
CONTINUOUS
  5
3D4
 10
218.510091
 20
78.4
 30
0.0
 11
655.064649
 21
78.4
 31
0.0
  0
LINE
  8
LC-013-003-----0
  6
CONTINUOUS
  5
3D5
 10
246.270548
 20
82.054733
 30
0.0
 11
218.510091
 21
78.4
 31
0.0
  0
LINE
  8
LC-013-003-----0
  6
CONTINUOUS
  5
3D6
 10
218.510091
 20
78.4
 30
0.0
 11
246.270548
 21
74.745267
 31
0.0
  0
LINE
  8
LC-013-003-----0
  6
CONTINUOUS
  5
3D7
 10
246.270548
 20
74.745267
 30
0.0
 11
246.270548
 21
82.054733
 31
0.0
  0
LINE
  8
LC-013-003-----0
  6
CONTINUOUS
  5
3D8
 10
246.332829
 20
81.104503
 30
0.0
 11
225.790091
 21
78.4
 31
0.0
  0
LINE
  8
LC-013-003-----0
  6
CONTINUOUS
  5
3D9
 10
225.790091
 20
78.4
 30
0.0
 11
246.332829
 21
75.695497
 31
0.0
  0
LINE
  8
LC-013-003-----0
  6
CONTINUOUS
  5
3DA
 10
246.39511
 20
80.154272
 30
0.0
 11
233.070091
 21
78.4
 31
0.0
  0
LINE
  8
LC-013-003-----0
  6
CONTINUOUS
  5
3DB
 10
233.070091
 20
78.4
 30
0.0
 11
246.39511
 21
76.645728
 31
0.0
  0
LINE
  8
LC-013-003-----0
  6
CONTINUOUS
  5
3DC
 10
246.457392
 20
79.204041
 30
0.0
 11
240.350091
 21
78.4
 31
0.0
  0
LINE
  8
LC-013-003-----0
  6
CONTINUOUS
  5
3DD
 10
240.350091
 20
78.4
 30
0.0
 11
246.457392
 21
77.595959
 31
0.0
  0
LINE
  8
LC-013-003-----0
  6
CONTINUOUS
  5
3DE
 10
627.304193
 20
74.745267
 30
0.0
 11
655.064649
 21
78.4
 31
0.0
  0
LINE
  8
LC-013-003-----0
  6
CONTINUOUS
  5
3DF
 10
655.064649
 20
78.4
 30
0.0
 11
627.304193
 21
82.054733
 31
0.0
  0
LINE
  8
LC-013-003-----0
  6
CONTINUOUS
  5
3E0
 10
627.304193
 20
82.054733
 30
0.0
 11
627.304193
 21
74.745267
 31
0.0
  0
LINE
  8
LC-013-003-----0
  6
CONTINUOUS
  5
3E1
 10
627.241911
 20
75.695497
 30
0.0
 11
647.784649
 21
78.4
 31
0.0
  0
LINE
  8
LC-013-003-----0
  6
CONTINUOUS
  5
3E2
 10
647.784649
 20
78.4
 30
0.0
 11
627.241911
 21
81.104503
 31
0.0
  0
LINE
  8
LC-013-003-----0
  6
CONTINUOUS
  5
3E3
 10
627.17963
 20
76.645728
 30
0.0
 11
640.504649
 21
78.4
 31
0.0
  0
LINE
  8
LC-013-003-----0
  6
CONTINUOUS
  5
3E4
 10
640.504649
 20
78.4
 30
0.0
 11
627.17963
 21
80.154272
 31
0.0
  0
LINE
  8
LC-013-003-----0
  6
CONTINUOUS
  5
3E5
 10
627.117348
 20
77.595959
 30
0.0
 11
633.224649
 21
78.4
 31
0.0
  0
LINE
  8
LC-013-003-----0
  6
CONTINUOUS
  5
3E6
 10
633.224649
 20
78.4
 30
0.0
 11
627.117348
 21
79.204041
 31
0.0
  0
TEXT
  8
LC-013-003-----0
  6
CONTINUOUS
 62
     8
  5
3E7
 10
411.37175
 20
86.227554
 30
0.0
 40
28.0
  1
435
 51
15.0
  7
LC-TXTSTYLE-150-400-0-0-D0
 72
     1
 11
441.13553
 21
86.227554
 31
0.0
  0
ENDBLK
  8
0
  5
3E8
  0
BLOCK
  8
0
  5
3EA
  2
BLK11
 70
    64
 10
0.0
 20
0.0
 30
0.0
  3
BLK11
  0
ENDBLK
  8
0
  5
3EB
  0
BLOCK
  8
0
  5
3ED
  2
*D46
 70
    65
 10
0.0
 20
0.0
 30
0.0
  3
*D46
  0
LINE
  8
LC-014-003-MTH-0
  6
CONTINUOUS
  5
3EE
 10
408.227683
 20
170.370768
 30
0.0
 11
464.8
 21
170.370768
 31
0.0
  0
LINE
  8
LC-014-003-MTH-0
  6
CONTINUOUS
  5
3EF
 10
462.866376
 20
220.395914
 30
0.0
 11
431.2
 21
220.395914
 31
0.0
  0
LINE
  8
LC-013-003-----0
  6
CONTINUOUS
  5
3F0
 10
451.654733
 20
142.610312
 30
0.0
 11
448.0
 21
170.370768
 31
0.0
  0
LINE
  8
LC-013-003-----0
  6
CONTINUOUS
  5
3F1
 10
448.0
 20
170.370768
 30
0.0
 11
444.345267
 21
142.610312
 31
0.0
  0
LINE
  8
LC-013-003-----0
  6
CONTINUOUS
  5
3F2
 10
444.345267
 20
142.610312
 30
0.0
 11
451.654733
 21
142.610312
 31
0.0
  0
LINE
  8
LC-013-003-----0
  6
CONTINUOUS
  5
3F3
 10
450.704503
 20
142.54803
 30
0.0
 11
448.0
 21
163.090768
 31
0.0
  0
LINE
  8
LC-013-003-----0
  6
CONTINUOUS
  5
3F4
 10
448.0
 20
163.090768
 30
0.0
 11
445.295497
 21
142.54803
 31
0.0
  0
LINE
  8
LC-013-003-----0
  6
CONTINUOUS
  5
3F5
 10
449.754272
 20
142.485749
 30
0.0
 11
448.0
 21
155.810768
 31
0.0
  0
LINE
  8
LC-013-003-----0
  6
CONTINUOUS
  5
3F6
 10
448.0
 20
155.810768
 30
0.0
 11
446.245728
 21
142.485749
 31
0.0
  0
LINE
  8
LC-013-003-----0
  6
CONTINUOUS
  5
3F7
 10
448.804041
 20
142.423467
 30
0.0
 11
448.0
 21
148.530768
 31
0.0
  0
LINE
  8
LC-013-003-----0
  6
CONTINUOUS
  5
3F8
 10
448.0
 20
148.530768
 30
0.0
 11
447.195959
 21
142.423467
 31
0.0
  0
LINE
  8
LC-013-003-----0
  6
CONTINUOUS
  5
3F9
 10
444.345267
 20
248.15637
 30
0.0
 11
448.0
 21
220.395914
 31
0.0
  0
LINE
  8
LC-013-003-----0
  6
CONTINUOUS
  5
3FA
 10
448.0
 20
220.395914
 30
0.0
 11
451.654733
 21
248.15637
 31
0.0
  0
LINE
  8
LC-013-003-----0
  6
CONTINUOUS
  5
3FB
 10
451.654733
 20
248.15637
 30
0.0
 11
444.345267
 21
248.15637
 31
0.0
  0
LINE
  8
LC-013-003-----0
  6
CONTINUOUS
  5
3FC
 10
445.295497
 20
248.218651
 30
0.0
 11
448.0
 21
227.675914
 31
0.0
  0
LINE
  8
LC-013-003-----0
  6
CONTINUOUS
  5
3FD
 10
448.0
 20
227.675914
 30
0.0
 11
450.704503
 21
248.218651
 31
0.0
  0
LINE
  8
LC-013-003-----0
  6
CONTINUOUS
  5
3FE
 10
446.245728
 20
248.280933
 30
0.0
 11
448.0
 21
234.955914
 31
0.0
  0
LINE
  8
LC-013-003-----0
  6
CONTINUOUS
  5
3FF
 10
448.0
 20
234.955914
 30
0.0
 11
449.754272
 21
248.280933
 31
0.0
  0
LINE
  8
LC-013-003-----0
  6
CONTINUOUS
  5
400
 10
447.195959
 20
248.343214
 30
0.0
 11
448.0
 21
242.235914
 31
0.0
  0
LINE
  8
LC-013-003-----0
  6
CONTINUOUS
  5
401
 10
448.0
 20
242.235914
 30
0.0
 11
448.804041
 21
248.343214
 31
0.0
  0
LINE
  8
LC-015-003-MTG-0
  6
CONTINUOUS
  5
402
 10
448.0
 20
131.170768
 30
0.0
 11
448.0
 21
259.595914
 31
0.0
  0
TEXT
  8
LC-013-003-----0
  6
CONTINUOUS
 62
     8
  5
403
 10
445.772446
 20
183.328351
 30
0.0
 40
28.0
  1
50
 50
90.0
 51
15.0
  7
LC-TXTSTYLE-150-400-0-0-D0
 72
     1
 11
445.772446
 21
199.731501
 31
0.0
  0
ENDBLK
  8
0
  5
404
  0
BLOCK
  8
0
  5
406
  2
*D47
 70
    65
 10
0.0
 20
0.0
 30
0.0
  3
*D47
  0
LINE
  8
LC-014-003-MTH-0
  6
CONTINUOUS
  5
407
 10
641.591824
 20
139.939912
 30
0.0
 11
737.884005
 21
114.138499
 31
0.0
  0
LINE
  8
LC-014-003-MTH-0
  6
CONTINUOUS
  5
408
 10
661.055016
 20
212.577534
 30
0.0
 11
757.347197
 21
186.776122
 31
0.0
  0
LINE
  8
LC-013-003-----0
  6
CONTINUOUS
  5
409
 10
718.001718
 20
90.726203
 30
0.0
 11
721.656451
 21
118.486659
 31
0.0
  0
LINE
  8
LC-013-003-----0
  6
CONTINUOUS
  5
40A
 10
721.656451
 20
118.486659
 30
0.0
 11
710.941315
 21
92.618032
 31
0.0
  0
LINE
  8
LC-013-003-----0
  6
CONTINUOUS
  5
40B
 10
710.941315
 20
92.618032
 30
0.0
 11
718.001718
 21
90.726203
 31
0.0
  0
LINE
  8
LC-013-003-----0
  6
CONTINUOUS
  5
40C
 10
717.067746
 20
90.911982
 30
0.0
 11
719.772249
 21
111.454719
 31
0.0
  0
LINE
  8
LC-013-003-----0
  6
CONTINUOUS
  5
40D
 10
719.772249
 20
111.454719
 30
0.0
 11
711.843048
 21
92.311935
 31
0.0
  0
LINE
  8
LC-013-003-----0
  6
CONTINUOUS
  5
40E
 10
716.133774
 20
91.09776
 30
0.0
 11
717.888046
 21
104.422779
 31
0.0
  0
LINE
  8
LC-013-003-----0
  6
CONTINUOUS
  5
40F
 10
717.888046
 20
104.422779
 30
0.0
 11
712.744781
 21
92.005838
 31
0.0
  0
LINE
  8
LC-013-003-----0
  6
CONTINUOUS
  5
410
 10
715.199802
 20
91.283539
 30
0.0
 11
716.003843
 21
97.390839
 31
0.0
  0
LINE
  8
LC-013-003-----0
  6
CONTINUOUS
  5
411
 10
716.003843
 20
97.390839
 30
0.0
 11
713.646513
 21
91.699741
 31
0.0
  0
LINE
  8
LC-013-003-----0
  6
CONTINUOUS
  5
412
 10
744.774377
 20
218.884738
 30
0.0
 11
741.119644
 21
191.124281
 31
0.0
  0
LINE
  8
LC-013-003-----0
  6
CONTINUOUS
  5
413
 10
741.119644
 20
191.124281
 30
0.0
 11
751.83478
 21
216.992908
 31
0.0
  0
LINE
  8
LC-013-003-----0
  6
CONTINUOUS
  5
414
 10
751.83478
 20
216.992908
 30
0.0
 11
744.774377
 21
218.884738
 31
0.0
  0
LINE
  8
LC-013-003-----0
  6
CONTINUOUS
  5
415
 10
745.708349
 20
218.698959
 30
0.0
 11
743.003846
 21
198.156222
 31
0.0
  0
LINE
  8
LC-013-003-----0
  6
CONTINUOUS
  5
416
 10
743.003846
 20
198.156222
 30
0.0
 11
750.933047
 21
217.299005
 31
0.0
  0
LINE
  8
LC-013-003-----0
  6
CONTINUOUS
  5
417
 10
746.642321
 20
218.51318
 30
0.0
 11
744.888049
 21
205.188162
 31
0.0
  0
LINE
  8
LC-013-003-----0
  6
CONTINUOUS
  5
418
 10
744.888049
 20
205.188162
 30
0.0
 11
750.031314
 21
217.605102
 31
0.0
  0
LINE
  8
LC-013-003-----0
  6
CONTINUOUS
  5
419
 10
747.576293
 20
218.327402
 30
0.0
 11
746.772251
 21
212.220102
 31
0.0
  0
LINE
  8
LC-013-003-----0
  6
CONTINUOUS
  5
41A
 10
746.772251
 20
212.220102
 30
0.0
 11
749.129581
 21
217.911199
 31
0.0
  0
LINE
  8
LC-015-003-MTG-0
  6
CONTINUOUS
  5
41B
 10
711.510745
 20
80.622367
 30
0.0
 11
774.499562
 21
315.699832
 31
0.0
  0
TEXT
  8
LC-013-003-----0
  6
CONTINUOUS
 62
     8
  5
41C
 10
744.540023
 20
234.132657
 30
0.0
 40
28.0
  1
DN70
 50
75.0
 51
15.0
  7
LC-TXTSTYLE-150-400-0-0-D0
  0
ENDBLK
  8
0
  5
41D
  0
BLOCK
  8
0
  5
41F
  2
*D48
 70
    65
 10
0.0
 20
0.0
 30
0.0
  3
*D48
  0
LINE
  8
LC-014-003-MTH-0
  6
CONTINUOUS
  5
420
 10
645.020247
 20
152.013984
 30
0.0
 11
703.267892
 21
136.406575
 31
0.0
  0
LINE
  8
LC-014-003-MTH-0
  6
CONTINUOUS
  5
421
 10
657.987081
 20
200.406868
 30
0.0
 11
716.234726
 21
184.799459
 31
0.0
  0
LINE
  8
LC-013-003-----0
  6
CONTINUOUS
  5
422
 10
683.385605
 20
112.994279
 30
0.0
 11
687.040338
 21
140.754735
 31
0.0
  0
LINE
  8
LC-013-003-----0
  6
CONTINUOUS
  5
423
 10
687.040338
 20
140.754735
 30
0.0
 11
676.325202
 21
114.886108
 31
0.0
  0
LINE
  8
LC-013-003-----0
  6
CONTINUOUS
  5
424
 10
676.325202
 20
114.886108
 30
0.0
 11
683.385605
 21
112.994279
 31
0.0
  0
LINE
  8
LC-013-003-----0
  6
CONTINUOUS
  5
425
 10
682.451633
 20
113.180057
 30
0.0
 11
685.156135
 21
133.722795
 31
0.0
  0
LINE
  8
LC-013-003-----0
  6
CONTINUOUS
  5
426
 10
685.156135
 20
133.722795
 30
0.0
 11
677.226935
 21
114.580011
 31
0.0
  0
LINE
  8
LC-013-003-----0
  6
CONTINUOUS
  5
427
 10
681.517661
 20
113.365836
 30
0.0
 11
683.271933
 21
126.690855
 31
0.0
  0
LINE
  8
LC-013-003-----0
  6
CONTINUOUS
  5
428
 10
683.271933
 20
126.690855
 30
0.0
 11
678.128667
 21
114.273914
 31
0.0
  0
LINE
  8
LC-013-003-----0
  6
CONTINUOUS
  5
429
 10
680.583689
 20
113.551615
 30
0.0
 11
681.38773
 21
119.658915
 31
0.0
  0
LINE
  8
LC-013-003-----0
  6
CONTINUOUS
  5
42A
 10
681.38773
 20
119.658915
 30
0.0
 11
679.0304
 21
113.967817
 31
0.0
  0
LINE
  8
LC-013-003-----0
  6
CONTINUOUS
  5
42B
 10
703.661905
 20
216.908075
 30
0.0
 11
700.007172
 21
189.147619
 31
0.0
  0
LINE
  8
LC-013-003-----0
  6
CONTINUOUS
  5
42C
 10
700.007172
 20
189.147619
 30
0.0
 11
710.722308
 21
215.016246
 31
0.0
  0
LINE
  8
LC-013-003-----0
  6
CONTINUOUS
  5
42D
 10
710.722308
 20
215.016246
 30
0.0
 11
703.661905
 21
216.908075
 31
0.0
  0
LINE
  8
LC-013-003-----0
  6
CONTINUOUS
  5
42E
 10
704.595877
 20
216.722296
 30
0.0
 11
701.891375
 21
196.179559
 31
0.0
  0
LINE
  8
LC-013-003-----0
  6
CONTINUOUS
  5
42F
 10
701.891375
 20
196.179559
 30
0.0
 11
709.820575
 21
215.322343
 31
0.0
  0
LINE
  8
LC-013-003-----0
  6
CONTINUOUS
  5
430
 10
705.529849
 20
216.536518
 30
0.0
 11
703.775577
 21
203.211499
 31
0.0
  0
LINE
  8
LC-013-003-----0
  6
CONTINUOUS
  5
431
 10
703.775577
 20
203.211499
 30
0.0
 11
708.918843
 21
215.62844
 31
0.0
  0
LINE
  8
LC-013-003-----0
  6
CONTINUOUS
  5
432
 10
706.463821
 20
216.350739
 30
0.0
 11
705.65978
 21
210.243439
 31
0.0
  0
LINE
  8
LC-013-003-----0
  6
CONTINUOUS
  5
433
 10
705.65978
 20
210.243439
 30
0.0
 11
708.01711
 21
215.934537
 31
0.0
  0
LINE
  8
LC-015-003-MTG-0
  6
CONTINUOUS
  5
434
 10
676.894631
 20
102.890443
 30
0.0
 11
736.538917
 21
325.485948
 31
0.0
  0
TEXT
  8
LC-013-003-----0
  6
CONTINUOUS
 62
     8
  5
435
 10
706.579379
 20
243.918773
 30
0.0
 40
28.0
  1
DN50
 50
75.0
 51
15.0
  7
LC-TXTSTYLE-150-400-0-0-D0
  0
ENDBLK
  8
0
  5
436
  0
BLOCK
  8
0
  5
438
  2
*D49
 70
    65
 10
0.0
 20
0.0
 30
0.0
  3
*D49
  0
TEXT
  8
LC-013-003-----0
  6
CONTINUOUS
 62
     8
  5
439
 10
674.70499
 20
19.107978
 30
0.0
 40
28.0
  1
 55Ý
 50
42.7
 51
15.0
  7
LC-TXTSTYLE-150-400-0-0-D0
 72
     1
 11
700.807768
 21
43.194928
 31
0.0
  0
ARC
  8
LC-015-003-MTG-0
  6
CONTINUOUS
  5
43A
 10
556.648883
 20
192.885368
 30
0.0
 40
224.0
 50
305.0
 51
360.0
  0
LINE
  8
LC-013-003-----0
  6
CONTINUOUS
  5
43B
 10
704.553588
 20
29.56272
 30
0.0
 11
685.130005
 21
9.39531
 31
0.0
  0
LINE
  8
LC-013-003-----0
  6
CONTINUOUS
  5
43C
 10
685.130005
 20
9.39531
 30
0.0
 11
709.111455
 21
23.848339
 31
0.0
  0
LINE
  8
LC-013-003-----0
  6
CONTINUOUS
  5
43D
 10
709.111455
 20
23.848339
 30
0.0
 11
704.553588
 21
29.56272
 31
0.0
  0
LINE
  8
LC-013-003-----0
  6
CONTINUOUS
  5
43E
 10
705.194801
 20
28.858687
 30
0.0
 11
690.82135
 21
13.934803
 31
0.0
  0
LINE
  8
LC-013-003-----0
  6
CONTINUOUS
  5
43F
 10
690.82135
 20
13.934803
 30
0.0
 11
708.567623
 21
24.630045
 31
0.0
  0
LINE
  8
LC-013-003-----0
  6
CONTINUOUS
  5
440
 10
705.836014
 20
28.154653
 30
0.0
 11
696.512694
 21
18.474296
 31
0.0
  0
LINE
  8
LC-013-003-----0
  6
CONTINUOUS
  5
441
 10
696.512694
 20
18.474296
 30
0.0
 11
708.02379
 21
25.41175
 31
0.0
  0
LINE
  8
LC-013-003-----0
  6
CONTINUOUS
  5
442
 10
706.477227
 20
27.45062
 30
0.0
 11
702.204039
 21
23.013789
 31
0.0
  0
LINE
  8
LC-013-003-----0
  6
CONTINUOUS
  5
443
 10
702.204039
 20
23.013789
 30
0.0
 11
707.479958
 21
26.193456
 31
0.0
  0
LINE
  8
LC-013-003-----0
  6
CONTINUOUS
  5
444
 10
782.56485
 20
164.950997
 30
0.0
 11
780.648883
 21
192.885368
 31
0.0
  0
LINE
  8
LC-013-003-----0
  6
CONTINUOUS
  5
445
 10
780.648883
 20
192.885368
 30
0.0
 11
775.269618
 21
165.406949
 31
0.0
  0
LINE
  8
LC-013-003-----0
  6
CONTINUOUS
  5
446
 10
775.269618
 20
165.406949
 30
0.0
 11
782.56485
 21
164.950997
 31
0.0
  0
LINE
  8
LC-013-003-----0
  6
CONTINUOUS
  5
447
 10
781.612585
 20
164.948111
 30
0.0
 11
780.194769
 21
185.619545
 31
0.0
  0
LINE
  8
LC-013-003-----0
  6
CONTINUOUS
  5
448
 10
780.194769
 20
185.619545
 30
0.0
 11
776.214113
 21
165.285515
 31
0.0
  0
LINE
  8
LC-013-003-----0
  6
CONTINUOUS
  5
449
 10
780.660319
 20
164.945225
 30
0.0
 11
779.740655
 21
178.353723
 31
0.0
  0
LINE
  8
LC-013-003-----0
  6
CONTINUOUS
  5
44A
 10
779.740655
 20
178.353723
 30
0.0
 11
777.158608
 21
165.164082
 31
0.0
  0
LINE
  8
LC-013-003-----0
  6
CONTINUOUS
  5
44B
 10
779.708054
 20
164.942338
 30
0.0
 11
779.286542
 21
171.0879
 31
0.0
  0
LINE
  8
LC-013-003-----0
  6
CONTINUOUS
  5
44C
 10
779.286542
 20
171.0879
 30
0.0
 11
778.103103
 21
165.042648
 31
0.0
  0
LINE
  8
LC-014-003-MTH-0
  6
CONTINUOUS
  5
44D
 10
618.774891
 20
104.160234
 30
0.0
 11
687.424311
 21
6.118702
 31
0.0
  0
LINE
  8
LC-014-003-MTH-0
  6
CONTINUOUS
  5
44E
 10
576.863199
 20
192.885368
 30
0.0
 11
784.648883
 21
192.885368
 31
0.0
  0
ENDBLK
  8
0
  5
44F
  0
BLOCK
  8
0
  5
451
  2
*X50
 70
    65
 10
348.366562
 20
243.103056
 30
0.0
  3
*X50
  0
LINE
  8
LC-006-005-----0
  6
CONTINUOUS
  5
452
 10
373.866618
 20
333.240163
 30
0.0
 11
371.503518
 21
335.603264
 31
0.0
  0
LINE
  8
LC-006-005-----0
  6
CONTINUOUS
  5
453
 10
375.366615
 20
328.911739
 30
0.0
 11
374.675093
 21
329.603262
 31
0.0
  0
LINE
  8
LC-006-005-----0
  6
CONTINUOUS
  5
454
 10
373.866616
 20
330.411738
 30
0.0
 11
370.366618
 21
333.911736
 31
0.0
  0
LINE
  8
LC-006-005-----0
  6
CONTINUOUS
  5
455
 10
375.366613
 20
326.083314
 30
0.0
 11
370.366617
 21
331.08331
 31
0.0
  0
LINE
  8
LC-006-005-----0
  6
CONTINUOUS
  5
456
 10
375.366612
 20
323.254888
 30
0.0
 11
372.366613
 21
326.254886
 31
0.0
  0
LINE
  8
LC-006-005-----0
  6
CONTINUOUS
  5
457
 10
372.018237
 20
326.603263
 30
0.0
 11
370.366615
 21
328.254885
 31
0.0
  0
LINE
  8
LC-006-005-----0
  6
CONTINUOUS
  5
458
 10
375.36661
 20
320.426463
 30
0.0
 11
372.366612
 21
323.426461
 31
0.0
  0
LINE
  8
LC-006-005-----0
  6
CONTINUOUS
  5
459
 10
375.361385
 20
317.603261
 30
0.0
 11
372.361383
 21
320.603263
 31
0.0
  0
LINE
  8
LC-006-005-----0
  6
CONTINUOUS
  5
45A
 10
372.532956
 20
317.603263
 30
0.0
 11
369.532954
 21
320.603265
 31
0.0
  0
LINE
  8
LC-006-005-----0
  6
CONTINUOUS
  5
45B
 10
369.704527
 20
317.603265
 30
0.0
 11
366.704525
 21
320.603267
 31
0.0
  0
LINE
  8
LC-006-005-----0
  6
CONTINUOUS
  5
45C
 10
366.876098
 20
317.603267
 30
0.0
 11
363.876096
 21
320.603269
 31
0.0
  0
LINE
  8
LC-006-005-----0
  6
CONTINUOUS
  5
45D
 10
364.047669
 20
317.603268
 30
0.0
 11
361.047667
 21
320.60327
 31
0.0
  0
LINE
  8
LC-006-005-----0
  6
CONTINUOUS
  5
45E
 10
361.21924
 20
317.60327
 30
0.0
 11
358.220308
 21
320.602202
 31
0.0
  0
LINE
  8
LC-006-005-----0
  6
CONTINUOUS
  5
45F
 10
358.390811
 20
317.603272
 30
0.0
 11
355.741515
 21
320.252568
 31
0.0
  0
LINE
  8
LC-006-005-----0
  6
CONTINUOUS
  5
460
 10
355.981319
 20
317.184337
 30
0.0
 11
353.711801
 21
319.453855
 31
0.0
  0
LINE
  8
LC-006-005-----0
  6
CONTINUOUS
  5
461
 10
354.147976
 20
316.189253
 30
0.0
 11
352.012341
 21
318.324888
 31
0.0
  0
LINE
  8
LC-006-005-----0
  6
CONTINUOUS
  5
462
 10
352.740526
 20
314.768276
 30
0.0
 11
350.602837
 21
316.905965
 31
0.0
  0
LINE
  8
LC-006-005-----0
  6
CONTINUOUS
  5
463
 10
351.760906
 20
312.919468
 30
0.0
 11
349.483897
 21
315.196477
 31
0.0
  0
LINE
  8
LC-006-005-----0
  6
CONTINUOUS
  5
464
 10
351.366603
 20
310.485344
 30
0.0
 11
348.697502
 21
313.154445
 31
0.0
  0
LINE
  8
LC-006-005-----0
  6
CONTINUOUS
  5
465
 10
351.366601
 20
307.656919
 30
0.0
 11
348.366746
 21
310.656774
 31
0.0
  0
LINE
  8
LC-006-005-----0
  6
CONTINUOUS
  5
466
 10
351.366599
 20
304.828493
 30
0.0
 11
348.366601
 21
307.828492
 31
0.0
  0
LINE
  8
LC-006-005-----0
  6
CONTINUOUS
  5
467
 10
351.366598
 20
302.000068
 30
0.0
 11
348.3666
 21
305.000066
 31
0.0
  0
LINE
  8
LC-006-005-----0
  6
CONTINUOUS
  5
468
 10
351.366596
 20
299.171643
 30
0.0
 11
348.366598
 21
302.171641
 31
0.0
  0
LINE
  8
LC-006-005-----0
  6
CONTINUOUS
  5
469
 10
351.366594
 20
296.343218
 30
0.0
 11
348.366596
 21
299.343216
 31
0.0
  0
LINE
  8
LC-006-005-----0
  6
CONTINUOUS
  5
46A
 10
351.366592
 20
293.514792
 30
0.0
 11
348.366594
 21
296.51479
 31
0.0
  0
LINE
  8
LC-006-005-----0
  6
CONTINUOUS
  5
46B
 10
351.36659
 20
290.686367
 30
0.0
 11
348.366592
 21
293.686365
 31
0.0
  0
LINE
  8
LC-006-005-----0
  6
CONTINUOUS
  5
46C
 10
351.366588
 20
287.857942
 30
0.0
 11
348.36659
 21
290.85794
 31
0.0
  0
LINE
  8
LC-006-005-----0
  6
CONTINUOUS
  5
46D
 10
351.366587
 20
285.029517
 30
0.0
 11
348.366588
 21
288.029515
 31
0.0
  0
LINE
  8
LC-006-005-----0
  6
CONTINUOUS
  5
46E
 10
351.366585
 20
282.201091
 30
0.0
 11
348.366587
 21
285.201089
 31
0.0
  0
LINE
  8
LC-006-005-----0
  6
CONTINUOUS
  5
46F
 10
351.366583
 20
279.372666
 30
0.0
 11
348.366585
 21
282.372664
 31
0.0
  0
LINE
  8
LC-006-005-----0
  6
CONTINUOUS
  5
470
 10
351.366581
 20
276.544241
 30
0.0
 11
348.366583
 21
279.544239
 31
0.0
  0
LINE
  8
LC-006-005-----0
  6
CONTINUOUS
  5
471
 10
351.366579
 20
273.715815
 30
0.0
 11
348.366581
 21
276.715813
 31
0.0
  0
LINE
  8
LC-006-005-----0
  6
CONTINUOUS
  5
472
 10
351.366577
 20
270.88739
 30
0.0
 11
348.366579
 21
273.887388
 31
0.0
  0
LINE
  8
LC-006-005-----0
  6
CONTINUOUS
  5
473
 10
351.366575
 20
268.058965
 30
0.0
 11
348.366577
 21
271.058963
 31
0.0
  0
LINE
  8
LC-006-005-----0
  6
CONTINUOUS
  5
474
 10
351.366574
 20
265.23054
 30
0.0
 11
348.366576
 21
268.230538
 31
0.0
  0
LINE
  8
LC-006-005-----0
  6
CONTINUOUS
  5
475
 10
351.366572
 20
262.402114
 30
0.0
 11
348.366574
 21
265.402112
 31
0.0
  0
LINE
  8
LC-006-005-----0
  6
CONTINUOUS
  5
476
 10
351.36657
 20
259.573689
 30
0.0
 11
348.366572
 21
262.573687
 31
0.0
  0
LINE
  8
LC-006-005-----0
  6
CONTINUOUS
  5
477
 10
351.366568
 20
256.745264
 30
0.0
 11
348.36657
 21
259.745262
 31
0.0
  0
LINE
  8
LC-006-005-----0
  6
CONTINUOUS
  5
478
 10
351.366566
 20
253.916838
 30
0.0
 11
348.366568
 21
256.916837
 31
0.0
  0
LINE
  8
LC-006-005-----0
  6
CONTINUOUS
  5
479
 10
351.366564
 20
251.088413
 30
0.0
 11
348.366566
 21
254.088411
 31
0.0
  0
LINE
  8
LC-006-005-----0
  6
CONTINUOUS
  5
47A
 10
351.366562
 20
248.259988
 30
0.0
 11
348.366564
 21
251.259986
 31
0.0
  0
LINE
  8
LC-006-005-----0
  6
CONTINUOUS
  5
47B
 10
351.366561
 20
245.431563
 30
0.0
 11
348.366563
 21
248.431561
 31
0.0
  0
LINE
  8
LC-006-005-----0
  6
CONTINUOUS
  5
47C
 10
350.86664
 20
243.103056
 30
0.0
 11
349.281598
 21
244.688099
 31
0.0
  0
ENDBLK
  8
0
  5
47D
  0
BLOCK
  8
0
  5
47F
  2
*X51
 70
    65
 10
465.366137
 20
243.103056
 30
0.0
  3
*X51
  0
LINE
  8
LC-006-005-----0
  6
CONTINUOUS
  5
480
 10
491.55635
 20
314.545381
 30
0.0
 11
486.308258
 21
319.793472
 31
0.0
  0
LINE
  8
LC-006-005-----0
  6
CONTINUOUS
  5
481
 10
492.361385
 20
310.911918
 30
0.0
 11
482.674796
 21
320.598508
 31
0.0
  0
LINE
  8
LC-006-005-----0
  6
CONTINUOUS
  5
482
 10
470.366135
 20
332.907168
 30
0.0
 11
467.670041
 21
335.603263
 31
0.0
  0
LINE
  8
LC-006-005-----0
  6
CONTINUOUS
  5
483
 10
492.366151
 20
308.078725
 30
0.0
 11
489.34878
 21
311.096097
 31
0.0
  0
LINE
  8
LC-006-005-----0
  6
CONTINUOUS
  5
484
 10
482.858974
 20
317.585902
 30
0.0
 11
479.841606
 21
320.603271
 31
0.0
  0
LINE
  8
LC-006-005-----0
  6
CONTINUOUS
  5
485
 10
470.366137
 20
330.078739
 30
0.0
 11
466.866135
 21
333.578742
 31
0.0
  0
LINE
  8
LC-006-005-----0
  6
CONTINUOUS
  5
486
 10
492.366153
 20
305.250296
 30
0.0
 11
489.366151
 21
308.250298
 31
0.0
  0
LINE
  8
LC-006-005-----0
  6
CONTINUOUS
  5
487
 10
480.013179
 20
317.603271
 30
0.0
 11
477.013181
 21
320.603269
 31
0.0
  0
LINE
  8
LC-006-005-----0
  6
CONTINUOUS
  5
488
 10
470.366139
 20
327.25031
 30
0.0
 11
466.866136
 21
330.750313
 31
0.0
  0
LINE
  8
LC-006-005-----0
  6
CONTINUOUS
  5
489
 10
492.366155
 20
302.421867
 30
0.0
 11
489.366153
 21
305.421869
 31
0.0
  0
LINE
  8
LC-006-005-----0
  6
CONTINUOUS
  5
48A
 10
477.184753
 20
317.603269
 30
0.0
 11
474.184755
 21
320.603267
 31
0.0
  0
LINE
  8
LC-006-005-----0
  6
CONTINUOUS
  5
48B
 10
468.366139
 20
326.421883
 30
0.0
 11
465.366137
 21
329.421885
 31
0.0
  0
LINE
  8
LC-006-005-----0
  6
CONTINUOUS
  5
48C
 10
492.366157
 20
299.593438
 30
0.0
 11
489.366155
 21
302.59344
 31
0.0
  0
LINE
  8
LC-006-005-----0
  6
CONTINUOUS
  5
48D
 10
474.356328
 20
317.603267
 30
0.0
 11
471.35633
 21
320.603265
 31
0.0
  0
LINE
  8
LC-006-005-----0
  6
CONTINUOUS
  5
48E
 10
468.366141
 20
323.593454
 30
0.0
 11
465.366139
 21
326.593456
 31
0.0
  0
LINE
  8
LC-006-005-----0
  6
CONTINUOUS
  5
48F
 10
492.366159
 20
296.765009
 30
0.0
 11
489.366157
 21
299.765011
 31
0.0
  0
LINE
  8
LC-006-005-----0
  6
CONTINUOUS
  5
490
 10
471.527903
 20
317.603265
 30
0.0
 11
468.527905
 21
320.603263
 31
0.0
  0
LINE
  8
LC-006-005-----0
  6
CONTINUOUS
  5
491
 10
468.366143
 20
320.765025
 30
0.0
 11
465.366141
 21
323.765027
 31
0.0
  0
LINE
  8
LC-006-005-----0
  6
CONTINUOUS
  5
492
 10
492.36616
 20
293.93658
 30
0.0
 11
489.366159
 21
296.936582
 31
0.0
  0
LINE
  8
LC-006-005-----0
  6
CONTINUOUS
  5
493
 10
468.699477
 20
317.603263
 30
0.0
 11
465.366143
 21
320.936598
 31
0.0
  0
LINE
  8
LC-006-005-----0
  6
CONTINUOUS
  5
494
 10
492.366162
 20
291.108151
 30
0.0
 11
489.36616
 21
294.108153
 31
0.0
  0
LINE
  8
LC-006-005-----0
  6
CONTINUOUS
  5
495
 10
465.871052
 20
317.603261
 30
0.0
 11
465.366145
 21
318.108169
 31
0.0
  0
LINE
  8
LC-006-005-----0
  6
CONTINUOUS
  5
496
 10
492.366164
 20
288.279722
 30
0.0
 11
489.366162
 21
291.279724
 31
0.0
  0
LINE
  8
LC-006-005-----0
  6
CONTINUOUS
  5
497
 10
492.366166
 20
285.451293
 30
0.0
 11
489.366164
 21
288.451295
 31
0.0
  0
LINE
  8
LC-006-005-----0
  6
CONTINUOUS
  5
498
 10
492.366168
 20
282.622864
 30
0.0
 11
489.366166
 21
285.622866
 31
0.0
  0
LINE
  8
LC-006-005-----0
  6
CONTINUOUS
  5
499
 10
492.36617
 20
279.794435
 30
0.0
 11
489.366168
 21
282.794437
 31
0.0
  0
LINE
  8
LC-006-005-----0
  6
CONTINUOUS
  5
49A
 10
492.366172
 20
276.966006
 30
0.0
 11
489.36617
 21
279.966008
 31
0.0
  0
LINE
  8
LC-006-005-----0
  6
CONTINUOUS
  5
49B
 10
492.366173
 20
274.137577
 30
0.0
 11
489.366171
 21
277.137579
 31
0.0
  0
LINE
  8
LC-006-005-----0
  6
CONTINUOUS
  5
49C
 10
492.366175
 20
271.309148
 30
0.0
 11
489.366173
 21
274.30915
 31
0.0
  0
LINE
  8
LC-006-005-----0
  6
CONTINUOUS
  5
49D
 10
492.366177
 20
268.480719
 30
0.0
 11
489.366175
 21
271.480721
 31
0.0
  0
LINE
  8
LC-006-005-----0
  6
CONTINUOUS
  5
49E
 10
492.366179
 20
265.65229
 30
0.0
 11
489.366177
 21
268.652292
 31
0.0
  0
LINE
  8
LC-006-005-----0
  6
CONTINUOUS
  5
49F
 10
492.366181
 20
262.823861
 30
0.0
 11
489.366179
 21
265.823863
 31
0.0
  0
LINE
  8
LC-006-005-----0
  6
CONTINUOUS
  5
4A0
 10
492.366183
 20
259.995433
 30
0.0
 11
489.366181
 21
262.995434
 31
0.0
  0
LINE
  8
LC-006-005-----0
  6
CONTINUOUS
  5
4A1
 10
492.366185
 20
257.167004
 30
0.0
 11
489.366183
 21
260.167005
 31
0.0
  0
LINE
  8
LC-006-005-----0
  6
CONTINUOUS
  5
4A2
 10
492.366186
 20
254.338575
 30
0.0
 11
489.366184
 21
257.338577
 31
0.0
  0
LINE
  8
LC-006-005-----0
  6
CONTINUOUS
  5
4A3
 10
492.366188
 20
251.510146
 30
0.0
 11
489.366186
 21
254.510148
 31
0.0
  0
LINE
  8
LC-006-005-----0
  6
CONTINUOUS
  5
4A4
 10
492.36619
 20
248.681717
 30
0.0
 11
489.366188
 21
251.681719
 31
0.0
  0
LINE
  8
LC-006-005-----0
  6
CONTINUOUS
  5
4A5
 10
491.890759
 20
246.328721
 30
0.0
 11
489.36619
 21
248.85329
 31
0.0
  0
LINE
  8
LC-006-005-----0
  6
CONTINUOUS
  5
4A6
 10
491.293042
 20
244.098011
 30
0.0
 11
489.366192
 21
246.024861
 31
0.0
  0
LINE
  8
LC-006-005-----0
  6
CONTINUOUS
  5
4A7
 10
489.459569
 20
243.103056
 30
0.0
 11
489.366194
 21
243.196432
 31
0.0
  0
ENDBLK
  8
0
  5
4A8
  0
BLOCK
  8
0
  5
4AA
  2
*X52
 70
    65
 10
420.366376
 20
329.603056
 30
0.0
  3
*X52
  0
LINE
  8
LC-006-005-----0
  6
CONTINUOUS
  5
4AB
 10
420.366376
 20
334.823666
 30
0.0
 11
420.586986
 21
334.603056
 31
0.0
  0
LINE
  8
LC-006-005-----0
  6
CONTINUOUS
  5
4AC
 10
423.829627
 20
335.603056
 30
0.0
 11
424.829627
 21
334.603056
 31
0.0
  0
LINE
  8
LC-006-005-----0
  6
CONTINUOUS
  5
4AD
 10
428.366376
 20
331.066307
 30
0.0
 11
428.829627
 21
330.603056
 31
0.0
  0
LINE
  8
LC-006-005-----0
  6
CONTINUOUS
  5
4AE
 10
428.307571
 20
335.367752
 30
0.0
 11
429.131072
 21
334.544251
 31
0.0
  0
LINE
  8
LC-006-005-----0
  6
CONTINUOUS
  5
4AF
 10
435.366376
 20
332.551588
 30
0.0
 11
436.366376
 21
331.551588
 31
0.0
  0
LINE
  8
LC-006-005-----0
  6
CONTINUOUS
  5
4B0
 10
436.679279
 20
335.481326
 30
0.0
 11
437.557549
 21
334.603056
 31
0.0
  0
LINE
  8
LC-006-005-----0
  6
CONTINUOUS
  5
4B1
 10
440.366376
 20
331.794229
 30
0.0
 11
441.366376
 21
330.794229
 31
0.0
  0
LINE
  8
LC-006-005-----0
  6
CONTINUOUS
  5
4B2
 10
447.366376
 20
333.27951
 30
0.0
 11
448.366376
 21
332.27951
 31
0.0
  0
LINE
  8
LC-006-005-----0
  6
CONTINUOUS
  5
4B3
 10
449.287045
 20
335.601482
 30
0.0
 11
450.285471
 21
334.603056
 31
0.0
  0
LINE
  8
LC-006-005-----0
  6
CONTINUOUS
  5
4B4
 10
452.366376
 20
332.522151
 30
0.0
 11
453.366376
 21
331.522151
 31
0.0
  0
LINE
  8
LC-006-005-----0
  6
CONTINUOUS
  5
4B5
 10
459.400876
 20
333.972932
 30
0.0
 11
460.366376
 21
333.007432
 31
0.0
  0
LINE
  8
LC-006-005-----0
  6
CONTINUOUS
  5
4B6
 10
462.013393
 20
335.603056
 30
0.0
 11
463.013393
 21
334.603056
 31
0.0
  0
LINE
  8
LC-006-005-----0
  6
CONTINUOUS
  5
4B7
 10
464.366376
 20
333.250073
 30
0.0
 11
465.366376
 21
332.250073
 31
0.0
  0
ENDBLK
  8
0
  5
4B8
  0
BLOCK
  8
0
  5
4BA
  2
BLK12
 70
    64
 10
0.0
 20
0.0
 30
0.0
  3
BLK12
  0
ENDBLK
  8
0
  5
4BB
  0
BLOCK
  8
0
  5
4BD
  2
*X54
 70
    65
 10
375.366616
 20
329.60326
 30
0.0
  3
*X54
  0
LINE
  8
LC-006-005-----0
  6
CONTINUOUS
  5
4BE
 10
375.366618
 20
333.154377
 30
0.0
 11
376.366617
 21
332.154377
 31
0.0
  0
LINE
  8
LC-006-005-----0
  6
CONTINUOUS
  5
4BF
 10
377.170058
 20
335.593577
 30
0.0
 11
378.160376
 21
334.603259
 31
0.0
  0
LINE
  8
LC-006-005-----0
  6
CONTINUOUS
  5
4C0
 10
380.366617
 20
332.397018
 30
0.0
 11
381.366617
 21
331.397019
 31
0.0
  0
LINE
  8
LC-006-005-----0
  6
CONTINUOUS
  5
4C1
 10
387.383832
 20
333.865085
 30
0.0
 11
388.366618
 21
332.882299
 31
0.0
  0
LINE
  8
LC-006-005-----0
  6
CONTINUOUS
  5
4C2
 10
389.888306
 20
335.603252
 30
0.0
 11
390.888307
 21
334.603251
 31
0.0
  0
LINE
  8
LC-006-005-----0
  6
CONTINUOUS
  5
4C3
 10
392.366618
 20
333.12494
 30
0.0
 11
393.366617
 21
332.12494
 31
0.0
  0
LINE
  8
LC-006-005-----0
  6
CONTINUOUS
  5
4C4
 10
399.545918
 20
334.430921
 30
0.0
 11
400.366642
 21
333.610196
 31
0.0
  0
LINE
  8
LC-006-005-----0
  6
CONTINUOUS
  5
4C5
 10
402.616236
 20
335.603243
 30
0.0
 11
403.660348
 21
334.559131
 31
0.0
  0
LINE
  8
LC-006-005-----0
  6
CONTINUOUS
  5
4C6
 10
404.322507
 20
333.896973
 30
0.0
 11
405.366618
 21
332.852862
 31
0.0
  0
LINE
  8
LC-006-005-----0
  6
CONTINUOUS
  5
4C7
 10
411.366617
 20
331.095504
 30
0.0
 11
411.858883
 21
330.603237
 31
0.0
  0
LINE
  8
LC-006-005-----0
  6
CONTINUOUS
  5
4C8
 10
411.826083
 20
334.878678
 30
0.0
 11
412.539499
 21
334.165262
 31
0.0
  0
LINE
  8
LC-006-005-----0
  6
CONTINUOUS
  5
4C9
 10
415.344167
 20
335.603235
 30
0.0
 11
416.344167
 21
334.603234
 31
0.0
  0
LINE
  8
LC-006-005-----0
  6
CONTINUOUS
  5
4CA
 10
419.58681
 20
335.603232
 30
0.0
 11
420.366619
 21
334.823423
 31
0.0
  0
ENDBLK
  8
0
  5
4CB
  0
BLOCK
  8
0
  5
4CD
  2
BLK13
 70
    64
 10
0.0
 20
0.0
 30
0.0
  3
BLK13
  0
ENDBLK
  8
0
  5
4CE
  0
BLOCK
  8
0
  5
4D0
  2
BLK14
 70
    64
 10
0.0
 20
0.0
 30
0.0
  3
BLK14
  0
ENDBLK
  8
0
  5
4D1
  0
BLOCK
  8
0
  5
4D3
  2
*D57
 70
    65
 10
0.0
 20
0.0
 30
0.0
  3
*D57
  0
LINE
  8
LC-014-003-MTH-0
  6
CONTINUOUS
  5
4D4
 10
370.36662
 20
335.603264
 30
0.0
 11
370.36669
 21
369.599229
 31
0.0
  0
LINE
  8
LC-014-003-MTH-0
  6
CONTINUOUS
  5
4D5
 10
470.366376
 20
335.603056
 30
0.0
 11
470.366447
 21
369.599021
 31
0.0
  0
LINE
  8
LC-015-003-MTG-0
  6
CONTINUOUS
  5
4D6
 10
370.366655
 20
352.799229
 30
0.0
 11
470.366412
 21
352.799021
 31
0.0
  0
LINE
  8
LC-013-003-----0
  6
CONTINUOUS
  5
4D7
 10
398.127119
 20
356.453905
 30
0.0
 11
370.366655
 21
352.799229
 31
0.0
  0
LINE
  8
LC-013-003-----0
  6
CONTINUOUS
  5
4D8
 10
370.366655
 20
352.799229
 30
0.0
 11
398.127104
 21
349.144438
 31
0.0
  0
LINE
  8
LC-013-003-----0
  6
CONTINUOUS
  5
4D9
 10
398.127104
 20
349.144438
 30
0.0
 11
398.127119
 21
356.453905
 31
0.0
  0
LINE
  8
LC-013-003-----0
  6
CONTINUOUS
  5
4DA
 10
398.189399
 20
355.503674
 30
0.0
 11
377.646655
 21
352.799214
 31
0.0
  0
LINE
  8
LC-013-003-----0
  6
CONTINUOUS
  5
4DB
 10
377.646655
 20
352.799214
 30
0.0
 11
398.189387
 21
350.094669
 31
0.0
  0
LINE
  8
LC-013-003-----0
  6
CONTINUOUS
  5
4DC
 10
398.251678
 20
354.553443
 30
0.0
 11
384.926655
 21
352.799199
 31
0.0
  0
LINE
  8
LC-013-003-----0
  6
CONTINUOUS
  5
4DD
 10
384.926655
 20
352.799199
 30
0.0
 11
398.251671
 21
351.044899
 31
0.0
  0
LINE
  8
LC-013-003-----0
  6
CONTINUOUS
  5
4DE
 10
398.313957
 20
353.603213
 30
0.0
 11
392.206655
 21
352.799184
 31
0.0
  0
LINE
  8
LC-013-003-----0
  6
CONTINUOUS
  5
4DF
 10
392.206655
 20
352.799184
 30
0.0
 11
398.313954
 21
351.99513
 31
0.0
  0
LINE
  8
LC-013-003-----0
  6
CONTINUOUS
  5
4E0
 10
442.605948
 20
349.144346
 30
0.0
 11
470.366412
 21
352.799021
 31
0.0
  0
LINE
  8
LC-013-003-----0
  6
CONTINUOUS
  5
4E1
 10
470.366412
 20
352.799021
 30
0.0
 11
442.605964
 21
356.453813
 31
0.0
  0
LINE
  8
LC-013-003-----0
  6
CONTINUOUS
  5
4E2
 10
442.605964
 20
356.453813
 30
0.0
 11
442.605948
 21
349.144346
 31
0.0
  0
LINE
  8
LC-013-003-----0
  6
CONTINUOUS
  5
4E3
 10
442.543669
 20
350.094577
 30
0.0
 11
463.086412
 21
352.799037
 31
0.0
  0
LINE
  8
LC-013-003-----0
  6
CONTINUOUS
  5
4E4
 10
463.086412
 20
352.799037
 30
0.0
 11
442.54368
 21
355.503582
 31
0.0
  0
LINE
  8
LC-013-003-----0
  6
CONTINUOUS
  5
4E5
 10
442.48139
 20
351.044807
 30
0.0
 11
455.806412
 21
352.799052
 31
0.0
  0
LINE
  8
LC-013-003-----0
  6
CONTINUOUS
  5
4E6
 10
455.806412
 20
352.799052
 30
0.0
 11
442.481397
 21
354.553351
 31
0.0
  0
LINE
  8
LC-013-003-----0
  6
CONTINUOUS
  5
4E7
 10
442.41911
 20
351.995038
 30
0.0
 11
448.526412
 21
352.799067
 31
0.0
  0
LINE
  8
LC-013-003-----0
  6
CONTINUOUS
  5
4E8
 10
448.526412
 20
352.799067
 30
0.0
 11
442.419114
 21
353.603121
 31
0.0
  0
TEXT
  8
LC-013-003-----0
  6
CONTINUOUS
 62
     8
  5
4E9
 10
394.950897
 20
360.626679
 30
0.0
 40
28.0
  1
100
 50
360.0
 51
15.0
  7
LC-TXTSTYLE-150-400-0-0-D0
 72
     1
 11
424.714676
 21
360.626679
 31
0.0
  0
ENDBLK
  8
0
  5
4EA
  0
BLOCK
  8
0
  5
4EC
  2
*D58
 70
    65
 10
0.0
 20
0.0
 30
0.0
  3
*D58
  0
LINE
  8
LC-014-003-MTH-0
  6
CONTINUOUS
  5
4ED
 10
571.366376
 20
266.089933
 30
0.0
 11
543.2
 21
266.089933
 31
0.0
  0
LINE
  8
LC-014-003-MTH-0
  6
CONTINUOUS
  5
4EE
 10
470.366376
 20
335.603056
 30
0.0
 11
576.8
 21
335.603056
 31
0.0
  0
LINE
  8
LC-015-003-MTG-0
  6
CONTINUOUS
  5
4EF
 10
560.0
 20
266.089933
 30
0.0
 11
560.0
 21
335.603056
 31
0.0
  0
LINE
  8
LC-013-003-----0
  6
CONTINUOUS
  5
4F0
 10
556.345267
 20
293.850389
 30
0.0
 11
560.0
 21
266.089933
 31
0.0
  0
LINE
  8
LC-013-003-----0
  6
CONTINUOUS
  5
4F1
 10
560.0
 20
266.089933
 30
0.0
 11
563.654733
 21
293.850389
 31
0.0
  0
LINE
  8
LC-013-003-----0
  6
CONTINUOUS
  5
4F2
 10
563.654733
 20
293.850389
 30
0.0
 11
556.345267
 21
293.850389
 31
0.0
  0
LINE
  8
LC-013-003-----0
  6
CONTINUOUS
  5
4F3
 10
557.295497
 20
293.91267
 30
0.0
 11
560.0
 21
273.369933
 31
0.0
  0
LINE
  8
LC-013-003-----0
  6
CONTINUOUS
  5
4F4
 10
560.0
 20
273.369933
 30
0.0
 11
562.704503
 21
293.91267
 31
0.0
  0
LINE
  8
LC-013-003-----0
  6
CONTINUOUS
  5
4F5
 10
558.245728
 20
293.974952
 30
0.0
 11
560.0
 21
280.649933
 31
0.0
  0
LINE
  8
LC-013-003-----0
  6
CONTINUOUS
  5
4F6
 10
560.0
 20
280.649933
 30
0.0
 11
561.754272
 21
293.974952
 31
0.0
  0
LINE
  8
LC-013-003-----0
  6
CONTINUOUS
  5
4F7
 10
559.195959
 20
294.037233
 30
0.0
 11
560.0
 21
287.929933
 31
0.0
  0
LINE
  8
LC-013-003-----0
  6
CONTINUOUS
  5
4F8
 10
560.0
 20
287.929933
 30
0.0
 11
560.804041
 21
294.037233
 31
0.0
  0
LINE
  8
LC-013-003-----0
  6
CONTINUOUS
  5
4F9
 10
563.654733
 20
307.8426
 30
0.0
 11
560.0
 21
335.603056
 31
0.0
  0
LINE
  8
LC-013-003-----0
  6
CONTINUOUS
  5
4FA
 10
560.0
 20
335.603056
 30
0.0
 11
556.345267
 21
307.8426
 31
0.0
  0
LINE
  8
LC-013-003-----0
  6
CONTINUOUS
  5
4FB
 10
556.345267
 20
307.8426
 30
0.0
 11
563.654733
 21
307.8426
 31
0.0
  0
LINE
  8
LC-013-003-----0
  6
CONTINUOUS
  5
4FC
 10
562.704503
 20
307.780319
 30
0.0
 11
560.0
 21
328.323056
 31
0.0
  0
LINE
  8
LC-013-003-----0
  6
CONTINUOUS
  5
4FD
 10
560.0
 20
328.323056
 30
0.0
 11
557.295497
 21
307.780319
 31
0.0
  0
LINE
  8
LC-013-003-----0
  6
CONTINUOUS
  5
4FE
 10
561.754272
 20
307.718037
 30
0.0
 11
560.0
 21
321.043056
 31
0.0
  0
LINE
  8
LC-013-003-----0
  6
CONTINUOUS
  5
4FF
 10
560.0
 20
321.043056
 30
0.0
 11
558.245728
 21
307.718037
 31
0.0
  0
LINE
  8
LC-013-003-----0
  6
CONTINUOUS
  5
500
 10
560.804041
 20
307.655756
 30
0.0
 11
560.0
 21
313.763056
 31
0.0
  0
LINE
  8
LC-013-003-----0
  6
CONTINUOUS
  5
501
 10
560.0
 20
313.763056
 30
0.0
 11
559.195959
 21
307.655756
 31
0.0
  0
TEXT
  8
LC-013-003-----0
  6
CONTINUOUS
 62
     8
  5
502
 10
552.172446
 20
272.245048
 30
0.0
 40
28.0
  1
8-69
 50
90.0
 51
15.0
  7
LC-TXTSTYLE-150-400-0-0-D0
 72
     1
 11
552.172446
 21
305.194655
 31
0.0
  0
ENDBLK
  8
0
  5
503
  0
BLOCK
  8
0
  5
505
  2
*D59
 70
    65
 10
0.0
 20
0.0
 30
0.0
  3
*D59
  0
LINE
  8
LC-014-003-MTH-0
  6
CONTINUOUS
  5
506
 10
325.116376
 20
253.662736
 30
0.0
 11
325.521322
 21
407.947021
 31
0.0
  0
LINE
  8
LC-014-003-MTH-0
  6
CONTINUOUS
  5
507
 10
515.616376
 20
253.162736
 30
0.0
 11
516.021322
 21
407.447021
 31
0.0
  0
LINE
  8
LC-015-003-MTG-0
  6
CONTINUOUS
  5
508
 10
325.477228
 20
391.147079
 30
0.0
 11
515.977228
 21
390.647079
 31
0.0
  0
LINE
  8
LC-013-003-----0
  6
CONTINUOUS
  5
509
 10
353.247181
 20
394.728938
 30
0.0
 11
325.477228
 21
391.147079
 31
0.0
  0
LINE
  8
LC-013-003-----0
  6
CONTINUOUS
  5
50A
 10
325.477228
 20
391.147079
 30
0.0
 11
353.227996
 21
387.419497
 31
0.0
  0
LINE
  8
LC-013-003-----0
  6
CONTINUOUS
  5
50B
 10
353.227996
 20
387.419497
 30
0.0
 11
353.247181
 21
394.728938
 31
0.0
  0
LINE
  8
LC-013-003-----0
  6
CONTINUOUS
  5
50C
 10
353.306968
 20
393.778547
 30
0.0
 11
332.757203
 21
391.127972
 31
0.0
  0
LINE
  8
LC-013-003-----0
  6
CONTINUOUS
  5
50D
 10
332.757203
 20
391.127972
 30
0.0
 11
353.292771
 21
388.369561
 31
0.0
  0
LINE
  8
LC-013-003-----0
  6
CONTINUOUS
  5
50E
 10
353.366755
 20
392.828156
 30
0.0
 11
340.037178
 21
391.108864
 31
0.0
  0
LINE
  8
LC-013-003-----0
  6
CONTINUOUS
  5
50F
 10
340.037178
 20
391.108864
 30
0.0
 11
353.357546
 21
389.319625
 31
0.0
  0
LINE
  8
LC-013-003-----0
  6
CONTINUOUS
  5
510
 10
353.426542
 20
391.877766
 30
0.0
 11
347.317152
 21
391.089757
 31
0.0
  0
LINE
  8
LC-013-003-----0
  6
CONTINUOUS
  5
511
 10
347.317152
 20
391.089757
 30
0.0
 11
353.422321
 21
390.269688
 31
0.0
  0
LINE
  8
LC-013-003-----0
  6
CONTINUOUS
  5
512
 10
488.207275
 20
387.06522
 30
0.0
 11
515.977228
 21
390.647079
 31
0.0
  0
LINE
  8
LC-013-003-----0
  6
CONTINUOUS
  5
513
 10
515.977228
 20
390.647079
 30
0.0
 11
488.22646
 21
394.374662
 31
0.0
  0
LINE
  8
LC-013-003-----0
  6
CONTINUOUS
  5
514
 10
488.22646
 20
394.374662
 30
0.0
 11
488.207275
 21
387.06522
 31
0.0
  0
LINE
  8
LC-013-003-----0
  6
CONTINUOUS
  5
515
 10
488.147488
 20
388.015611
 30
0.0
 11
508.697253
 21
390.666187
 31
0.0
  0
LINE
  8
LC-013-003-----0
  6
CONTINUOUS
  5
516
 10
508.697253
 20
390.666187
 30
0.0
 11
488.161684
 21
393.424598
 31
0.0
  0
LINE
  8
LC-013-003-----0
  6
CONTINUOUS
  5
517
 10
488.0877
 20
388.966002
 30
0.0
 11
501.417278
 21
390.685294
 31
0.0
  0
LINE
  8
LC-013-003-----0
  6
CONTINUOUS
  5
518
 10
501.417278
 20
390.685294
 30
0.0
 11
488.096909
 21
392.474534
 31
0.0
  0
LINE
  8
LC-013-003-----0
  6
CONTINUOUS
  5
519
 10
488.027913
 20
389.916393
 30
0.0
 11
494.137303
 21
390.704402
 31
0.0
  0
LINE
  8
LC-013-003-----0
  6
CONTINUOUS
  5
51A
 10
494.137303
 20
390.704402
 30
0.0
 11
488.032134
 21
391.52447
 31
0.0
  0
TEXT
  8
LC-013-003-----0
  6
CONTINUOUS
 62
     8
  5
51B
 10
387.012553
 20
398.842371
 30
0.0
 40
28.0
  1
Ø190
 50
359.8
 51
15.0
  7
LC-TXTSTYLE-150-400-0-0-D0
 72
     1
 11
425.109959
 21
398.709385
 31
0.0
  0
ENDBLK
  8
0
  5
51C
  0
BLOCK
  8
0
  5
51E
  2
*D60
 70
    65
 10
0.0
 20
0.0
 30
0.0
  3
*D60
  0
LINE
  8
LC-014-003-MTH-0
  6
CONTINUOUS
  5
51F
 10
576.863199
 20
192.885368
 30
0.0
 11
683.2
 21
192.885368
 31
0.0
  0
LINE
  8
LC-014-003-MTH-0
  6
CONTINUOUS
  5
520
 10
571.366376
 20
263.082735
 30
0.0
 11
683.2
 21
263.082735
 31
0.0
  0
LINE
  8
LC-015-003-MTG-0
  6
CONTINUOUS
  5
521
 10
666.4
 20
192.885368
 30
0.0
 11
666.4
 21
263.082735
 31
0.0
  0
LINE
  8
LC-013-003-----0
  6
CONTINUOUS
  5
522
 10
662.745267
 20
220.645824
 30
0.0
 11
666.4
 21
192.885368
 31
0.0
  0
LINE
  8
LC-013-003-----0
  6
CONTINUOUS
  5
523
 10
666.4
 20
192.885368
 30
0.0
 11
670.054733
 21
220.645824
 31
0.0
  0
LINE
  8
LC-013-003-----0
  6
CONTINUOUS
  5
524
 10
670.054733
 20
220.645824
 30
0.0
 11
662.745267
 21
220.645824
 31
0.0
  0
LINE
  8
LC-013-003-----0
  6
CONTINUOUS
  5
525
 10
663.695497
 20
220.708106
 30
0.0
 11
666.4
 21
200.165368
 31
0.0
  0
LINE
  8
LC-013-003-----0
  6
CONTINUOUS
  5
526
 10
666.4
 20
200.165368
 30
0.0
 11
669.104503
 21
220.708106
 31
0.0
  0
LINE
  8
LC-013-003-----0
  6
CONTINUOUS
  5
527
 10
664.645728
 20
220.770387
 30
0.0
 11
666.4
 21
207.445368
 31
0.0
  0
LINE
  8
LC-013-003-----0
  6
CONTINUOUS
  5
528
 10
666.4
 20
207.445368
 30
0.0
 11
668.154272
 21
220.770387
 31
0.0
  0
LINE
  8
LC-013-003-----0
  6
CONTINUOUS
  5
529
 10
665.595959
 20
220.832668
 30
0.0
 11
666.4
 21
214.725368
 31
0.0
  0
LINE
  8
LC-013-003-----0
  6
CONTINUOUS
  5
52A
 10
666.4
 20
214.725368
 30
0.0
 11
667.204041
 21
220.832668
 31
0.0
  0
LINE
  8
LC-013-003-----0
  6
CONTINUOUS
  5
52B
 10
670.054733
 20
235.322279
 30
0.0
 11
666.4
 21
263.082735
 31
0.0
  0
LINE
  8
LC-013-003-----0
  6
CONTINUOUS
  5
52C
 10
666.4
 20
263.082735
 30
0.0
 11
662.745267
 21
235.322279
 31
0.0
  0
LINE
  8
LC-013-003-----0
  6
CONTINUOUS
  5
52D
 10
662.745267
 20
235.322279
 30
0.0
 11
670.054733
 21
235.322279
 31
0.0
  0
LINE
  8
LC-013-003-----0
  6
CONTINUOUS
  5
52E
 10
669.104503
 20
235.259997
 30
0.0
 11
666.4
 21
255.802735
 31
0.0
  0
LINE
  8
LC-013-003-----0
  6
CONTINUOUS
  5
52F
 10
666.4
 20
255.802735
 30
0.0
 11
663.695497
 21
235.259997
 31
0.0
  0
LINE
  8
LC-013-003-----0
  6
CONTINUOUS
  5
530
 10
668.154272
 20
235.197716
 30
0.0
 11
666.4
 21
248.522735
 31
0.0
  0
LINE
  8
LC-013-003-----0
  6
CONTINUOUS
  5
531
 10
666.4
 20
248.522735
 30
0.0
 11
664.645728
 21
235.197716
 31
0.0
  0
LINE
  8
LC-013-003-----0
  6
CONTINUOUS
  5
532
 10
667.204041
 20
235.135434
 30
0.0
 11
666.4
 21
241.242735
 31
0.0
  0
LINE
  8
LC-013-003-----0
  6
CONTINUOUS
  5
533
 10
666.4
 20
241.242735
 30
0.0
 11
665.595959
 21
235.135434
 31
0.0
  0
TEXT
  8
LC-013-003-----0
  6
CONTINUOUS
 62
     8
  5
534
 10
658.572446
 20
220.524617
 30
0.0
 40
28.0
  1
70
 50
90.0
 51
15.0
  7
LC-TXTSTYLE-150-400-0-0-D0
 72
     1
 11
658.572446
 21
238.97816
 31
0.0
  0
ENDBLK
  8
0
  5
535
  0
BLOCK
  8
0
  5
537
  2
*D61
 70
    65
 10
0.0
 20
0.0
 30
0.0
  3
*D61
  0
LINE
  8
LC-014-003-MTH-0
  6
CONTINUOUS
  5
538
 10
218.510091
 20
195.852788
 30
0.0
 11
146.798369
 21
195.852788
 31
0.0
  0
LINE
  8
LC-014-003-MTH-0
  6
CONTINUOUS
  5
539
 10
218.510091
 20
247.602788
 30
0.0
 11
140.0
 21
247.602788
 31
0.0
  0
LINE
  8
LC-013-003-----0
  6
CONTINUOUS
  5
53A
 10
160.454733
 20
168.092332
 30
0.0
 11
156.8
 21
195.852788
 31
0.0
  0
LINE
  8
LC-013-003-----0
  6
CONTINUOUS
  5
53B
 10
156.8
 20
195.852788
 30
0.0
 11
153.145267
 21
168.092332
 31
0.0
  0
LINE
  8
LC-013-003-----0
  6
CONTINUOUS
  5
53C
 10
153.145267
 20
168.092332
 30
0.0
 11
160.454733
 21
168.092332
 31
0.0
  0
LINE
  8
LC-013-003-----0
  6
CONTINUOUS
  5
53D
 10
159.504503
 20
168.03005
 30
0.0
 11
156.8
 21
188.572788
 31
0.0
  0
LINE
  8
LC-013-003-----0
  6
CONTINUOUS
  5
53E
 10
156.8
 20
188.572788
 30
0.0
 11
154.095497
 21
168.03005
 31
0.0
  0
LINE
  8
LC-013-003-----0
  6
CONTINUOUS
  5
53F
 10
158.554272
 20
167.967769
 30
0.0
 11
156.8
 21
181.292788
 31
0.0
  0
LINE
  8
LC-013-003-----0
  6
CONTINUOUS
  5
540
 10
156.8
 20
181.292788
 30
0.0
 11
155.045728
 21
167.967769
 31
0.0
  0
LINE
  8
LC-013-003-----0
  6
CONTINUOUS
  5
541
 10
157.604041
 20
167.905487
 30
0.0
 11
156.8
 21
174.012788
 31
0.0
  0
LINE
  8
LC-013-003-----0
  6
CONTINUOUS
  5
542
 10
156.8
 20
174.012788
 30
0.0
 11
155.995959
 21
167.905487
 31
0.0
  0
LINE
  8
LC-013-003-----0
  6
CONTINUOUS
  5
543
 10
153.145267
 20
275.363244
 30
0.0
 11
156.8
 21
247.602788
 31
0.0
  0
LINE
  8
LC-013-003-----0
  6
CONTINUOUS
  5
544
 10
156.8
 20
247.602788
 30
0.0
 11
160.454733
 21
275.363244
 31
0.0
  0
LINE
  8
LC-013-003-----0
  6
CONTINUOUS
  5
545
 10
160.454733
 20
275.363244
 30
0.0
 11
153.145267
 21
275.363244
 31
0.0
  0
LINE
  8
LC-013-003-----0
  6
CONTINUOUS
  5
546
 10
154.095497
 20
275.425525
 30
0.0
 11
156.8
 21
254.882788
 31
0.0
  0
LINE
  8
LC-013-003-----0
  6
CONTINUOUS
  5
547
 10
156.8
 20
254.882788
 30
0.0
 11
159.504503
 21
275.425525
 31
0.0
  0
LINE
  8
LC-013-003-----0
  6
CONTINUOUS
  5
548
 10
155.045728
 20
275.487807
 30
0.0
 11
156.8
 21
262.162788
 31
0.0
  0
LINE
  8
LC-013-003-----0
  6
CONTINUOUS
  5
549
 10
156.8
 20
262.162788
 30
0.0
 11
158.554272
 21
275.487807
 31
0.0
  0
LINE
  8
LC-013-003-----0
  6
CONTINUOUS
  5
54A
 10
155.995959
 20
275.550088
 30
0.0
 11
156.8
 21
269.442788
 31
0.0
  0
LINE
  8
LC-013-003-----0
  6
CONTINUOUS
  5
54B
 10
156.8
 20
269.442788
 30
0.0
 11
157.604041
 21
275.550088
 31
0.0
  0
LINE
  8
LC-015-003-MTG-0
  6
CONTINUOUS
  5
54C
 10
156.8
 20
156.652788
 30
0.0
 11
156.8
 21
376.572888
 31
0.0
  0
TEXT
  8
LC-013-003-----0
  6
CONTINUOUS
 62
     8
  5
54D
 10
148.972446
 20
290.030948
 30
0.0
 40
28.0
  1
DN50
 50
90.0
 51
15.0
  7
LC-TXTSTYLE-150-400-0-0-D0
  0
ENDBLK
  8
0
  5
54E
  0
ENDSEC
  0
SECTION
  2
ENTITIES
  0
VIEWPORT
  8
LC-000
  5
892
 67
     1
 68
     1
 10
420.0
 20
297.0
 30
0.0
 40
840.0
 41
594.0
 69
     1
1001
ACAD
1000
MVIEW
1002
{
1070
    16
1010
0.0
1020
0.0
1030
0.0
1010
0.0
1020
0.0
1030
1.0
1040
0.0
1040
594.0
1040
420.0
1040
297.0
1040
50.0
1040
0.0
1040
0.0
1070
     0
1070
   100
1070
     1
1070
     1
1070
     0
1070
     0
1070
     0
1070
     0
1040
0.0
1040
0.0
1040
0.0
1040
1.0
1040
1.0
1040
0.0
1040
0.0
1070
     0
1002
{
1002
}
1002
}
  0
VIEWPORT
  8
0
  5
893
 67
     1
 68
     1
 10
0.0
 20
0.0
 30
0.0
 40
0.0
 41
0.0
 69
     1
1001
ACAD
1000
MVIEW
1002
{
1070
    16
1010
0.0
1020
0.0
1030
0.0
1010
0.0
1020
0.0
1030
1.0
1040
0.0
1040
594.0
1040
0.0
1040
0.0
1040
50.0
1040
0.0
1040
0.0
1070
     0
1070
   100
1070
     0
1070
     1
1070
     0
1070
     0
1070
     0
1070
     0
1040
0.0
1040
0.0
1040
0.0
1040
0.5
1040
0.5
1040
0.5
1040
0.5
1070
     0
1002
{
1002
}
1002
}
  0
INSERT
  8
0
  5
550
  2
BLK1
 10
0.0
 20
0.0
 30
0.0
  0
INSERT
  8
0
  5
551
  2
*X1
 10
226.510091
 20
246.852788
 30
0.0
  0
INSERT
  8
0
  5
552
  2
*X2
 10
226.510091
 20
192.352788
 30
0.0
  0
INSERT
  8
0
  5
553
  2
*X3
 10
419.984722
 20
247.243137
 30
0.0
  0
INSERT
  8
0
  5
554
  2
*X4
 10
458.834722
 20
247.243137
 30
0.0
  0
INSERT
  8
0
  5
555
  2
BLK2
 10
0.0
 20
0.0
 30
0.0
  0
INSERT
  8
0
  5
556
  2
*X6
 10
479.067149
 20
221.600069
 30
0.0
  0
INSERT
  8
0
  5
557
  2
*X7
 10
393.524722
 20
241.933137
 30
0.0
  0
INSERT
  8
0
  5
558
  2
*X8
 10
393.524722
 20
241.933137
 30
0.0
  0
INSERT
  8
0
  5
559
  2
*X9
 10
356.587022
 20
170.370768
 30
0.0
  0
INSERT
  8
0
  5
55A
  2
*X10
 10
406.216547
 20
170.370768
 30
0.0
  0
INSERT
  8
0
  5
55B
  2
*X11
 10
458.834722
 20
220.395914
 30
0.0
  0
INSERT
  8
0
  5
55C
  2
*X12
 10
284.410091
 20
180.765085
 30
0.0
  0
INSERT
  8
0
  5
55D
  2
*X13
 10
284.410091
 20
180.765085
 30
0.0
  0
INSERT
  8
0
  5
55E
  2
*X14
 10
333.810091
 20
180.765085
 30
0.0
  0
INSERT
  8
0
  5
55F
  2
*X15
 10
333.810091
 20
180.765085
 30
0.0
  0
INSERT
  8
0
  5
560
  2
*X16
 10
348.839445
 20
148.399462
 30
0.0
  0
INSERT
  8
0
  5
561
  2
*X17
 10
481.846402
 20
163.385368
 30
0.0
  0
INSERT
  8
0
  5
563
  2
BLK3
 10
0.0
 20
0.0
 30
0.0
  0
INSERT
  8
0
  5
564
  2
BLK4
 10
0.0
 20
0.0
 30
0.0
  0
INSERT
  8
0
  5
565
  2
*X20
 10
489.866376
 20
240.103056
 30
0.0
  0
INSERT
  8
0
  5
566
  2
*X21
 10
328.616376
 20
240.103056
 30
0.0
  0
INSERT
  8
0
  5
567
  2
*X22
 10
526.264335
 20
160.085368
 30
0.0
  0
INSERT
  8
0
  5
568
  2
BLK5
 10
0.0
 20
0.0
 30
0.0
  0
INSERT
  8
0
  5
569
  2
*X24
 10
526.264335
 20
139.939912
 30
0.0
  0
INSERT
  8
0
  5
56A
  2
*X25
 10
486.334335
 20
159.885368
 30
0.0
  0
INSERT
  8
0
  5
56B
  2
*X26
 10
486.334335
 20
159.885368
 30
0.0
  0
INSERT
  8
0
  5
56C
  2
BLK6
 10
0.0
 20
0.0
 30
0.0
  0
INSERT
  8
0
  5
56D
  2
BLK7
 10
0.0
 20
0.0
 30
0.0
  0
INSERT
  8
0
  5
56E
  2
BLK8
 10
0.0
 20
0.0
 30
0.0
  0
INSERT
  8
0
  5
56F
  2
*X30
 10
525.680494
 20
217.877608
 30
0.0
  0
INSERT
  8
0
  5
570
  2
*X31
 10
525.680494
 20
163.893128
 30
0.0
  0
INSERT
  8
0
  5
571
  2
*X32
 10
565.613199
 20
217.885708
 30
0.0
  0
INSERT
  8
0
  5
572
  2
*X33
 10
565.613199
 20
163.885028
 30
0.0
  0
INSERT
  8
0
  5
573
  2
BLK9
 10
0.0
 20
0.0
 30
0.0
  0
INSERT
  8
0
  5
574
  2
*X35
 10
216.510091
 20
191.352788
 30
0.0
  0
INSERT
  8
0
  5
575
  2
*X36
 10
218.510091
 20
145.102788
 30
0.0
  0
INSERT
  8
0
  5
576
  2
*X37
 10
282.055229
 20
149.754667
 30
0.0
  0
INSERT
  8
0
  5
577
  2
*X38
 10
331.510091
 20
169.744332
 30
0.0
  0
INSERT
  8
0
  5
578
  2
BLK10
 10
0.0
 20
0.0
 30
0.0
  0
DIMENSION
  8
0
  5
579
  2
*D40
 10
196.0
 20
242.717761
 30
0.0
 11
196.0
 21
242.717761
 31
0.0
  1
40
 13
269.366376
 23
263.082735
 33
0.0
 14
218.510091
 24
222.352788
 34
0.0
 50
90.0
  3
LC-DIM-L-0140-02-02
  0
DIMENSION
  8
0
  5
57A
  2
*D41
 10
78.4
 20
207.418701
 30
0.0
 11
78.4
 21
207.418701
 31
0.0
  1
110
 13
269.366376
 23
263.082735
 33
0.0
 14
296.510091
 24
151.754667
 34
0.0
 50
90.0
  3
LC-DIM-L-0140-02-02
  0
DIMENSION
  8
0
  5
57B
  2
*D42
 10
420.366376
 20
431.2
 30
0.0
 11
420.366376
 21
431.2
 31
0.0
  1
%%c300
 13
269.366376
 23
266.089933
 33
0.0
 14
571.366376
 24
266.089933
 34
0.0
  3
LC-DIM-L-0140-02-02
  0
DIMENSION
  8
0
  5
57C
  2
*D43
 10
319.438234
 20
117.6
 30
0.0
 11
319.438234
 21
117.6
 31
0.0
  1
200
 13
420.366376
 23
151.399462
 33
0.0
 14
218.510091
 24
191.352788
 34
0.0
  3
LC-DIM-L-0140-02-02
  0
DIMENSION
  8
0
  5
57D
  2
*D44
 10
436.78737
 20
78.4
 30
0.0
 11
436.78737
 21
78.4
 31
0.0
  1
435
 13
218.510091
 23
191.352788
 33
0.0
 14
655.064649
 24
175.256263
 34
0.0
  3
LC-DIM-L-0140-02-02
  0
INSERT
  8
0
  5
57E
  2
BLK11
 10
0.0
 20
0.0
 30
0.0
  0
DIMENSION
  8
0
  5
57F
  2
*D46
 10
448.0
 20
195.383341
 30
0.0
 11
448.0
 21
195.383341
 31
0.0
  1
50
 13
462.866376
 23
220.395914
 33
0.0
 14
408.227683
 24
170.370768
 34
0.0
 50
90.0
  3
LC-DIM-L-0140-02-02
  0
DIMENSION
  8
0
  5
580
  2
*D47
 10
752.943662
 20
235.252118
 30
0.0
 11
752.943662
 21
235.252118
 31
0.0
 70
     1
  1
DN70
 13
661.055016
 23
212.577534
 33
0.0
 14
641.591824
 24
139.939912
 34
0.0
  3
LC-DIM-L-0140-02-02
  0
DIMENSION
  8
0
  5
581
  2
*D48
 10
723.472425
 20
276.721134
 30
0.0
 11
723.472425
 21
276.721134
 31
0.0
 70
     1
  1
DN50
 13
657.987081
 23
200.406868
 33
0.0
 14
645.020247
 24
152.013984
 34
0.0
  3
LC-DIM-L-0140-02-02
  0
DIMENSION
  8
0
  5
582
  2
*D49
 10
755.33931
 20
89.453679
 30
0.0
 11
708.617114
 21
28.320315
 31
0.0
 70
   133
 13
618.774891
 23
104.160234
 33
0.0
 14
576.863199
 24
192.885368
 34
0.0
 15
556.648883
 25
192.885368
 35
0.0
  3
LC-DIM-W-0140-02-02
  0
INSERT
  8
0
  5
583
  2
*X50
 10
348.366562
 20
243.103056
 30
0.0
  0
INSERT
  8
0
  5
584
  2
*X51
 10
465.366137
 20
243.103056
 30
0.0
  0
INSERT
  8
0
  5
585
  2
*X52
 10
420.366376
 20
329.603056
 30
0.0
  0
INSERT
  8
0
  5
586
  2
BLK12
 10
0.0
 20
0.0
 30
0.0
  0
INSERT
  8
0
  5
587
  2
*X54
 10
375.366616
 20
329.60326
 30
0.0
  0
INSERT
  8
0
  5
588
  2
BLK13
 10
0.0
 20
0.0
 30
0.0
  0
INSERT
  8
0
  5
589
  2
BLK14
 10
0.0
 20
0.0
 30
0.0
  0
DIMENSION
  8
0
  5
58A
  2
*D57
 10
420.366534
 20
352.799125
 30
0.0
 11
420.366534
 21
352.799125
 31
0.0
 70
     1
 13
370.36662
 23
335.603264
 33
0.0
 14
470.366376
 24
335.603056
 34
0.0
  3
LC-DIM-L-0140-02-02
  0
DIMENSION
  8
0
  5
58B
  2
*D58
 10
560.0
 20
300.846495
 30
0.0
 11
560.0
 21
300.846495
 31
0.0
  1
8-69
 13
571.366376
 23
266.089933
 33
0.0
 14
470.366376
 24
335.603056
 34
0.0
 50
90.0
  3
LC-DIM-L-0140-02-02
  0
DIMENSION
  8
0
  5
58C
  2
*D59
 10
420.727228
 20
390.897079
 30
0.0
 11
420.727228
 21
390.897079
 31
0.0
 70
     1
  1
%%c190
 13
325.116376
 23
253.662736
 33
0.0
 14
515.616376
 24
253.162736
 34
0.0
  3
LC-DIM-L-0140-02-02
  0
DIMENSION
  8
0
  5
58D
  2
*D60
 10
666.4
 20
234.63
 30
0.0
 11
666.4
 21
234.63
 31
0.0
  1
70
 13
571.366376
 23
263.082735
 33
0.0
 14
576.863199
 24
192.885368
 34
0.0
 50
90.0
  3
LC-DIM-L-0140-02-02
  0
DIMENSION
  8
0
  5
58E
  2
*D61
 10
156.8
 20
221.727788
 30
0.0
 11
156.8
 21
221.727788
 31
0.0
  1
DN50
 13
218.510091
 23
247.602788
 33
0.0
 14
218.510091
 24
195.852788
 34
0.0
 50
90.0
  3
LC-DIM-L-0140-02-02
  0
LINE
  8
LC-001-205-----0
  6
CONTINUOUS
  5
590
 10
363.687022
 20
230.40023
 30
0.0
 11
412.560097
 21
230.40023
 31
0.0
  0
LINE
  8
LC-001-205-----0
  6
CONTINUOUS
  5
591
 10
356.587022
 20
230.40023
 30
0.0
 11
363.687022
 21
230.40023
 31
0.0
  0
LINE
  8
LC-001-205-----0
  6
CONTINUOUS
  5
592
 10
363.687044
 20
222.900237
 30
0.0
 11
363.687022
 21
230.394962
 31
0.0
  0
LINE
  8
LC-001-205-----0
  6
CONTINUOUS
  5
593
 10
359.386846
 20
170.370768
 30
0.0
 11
380.366376
 21
170.370768
 31
0.0
  0
LINE
  8
LC-001-205-----0
  6
CONTINUOUS
  5
594
 10
360.386839
 20
170.370768
 30
0.0
 11
360.386848
 21
184.70584
 31
0.0
  0
LINE
  8
LC-001-205-----0
  6
CONTINUOUS
  5
595
 10
360.386856
 20
184.70584
 30
0.0
 11
360.386879
 21
219.90023
 31
0.0
  0
LINE
  8
LC-003-002-----0
  6
CONTINUOUS
  5
597
 10
413.914104
 20
243.213296
 30
0.0
 11
406.216547
 21
170.370768
 31
0.0
  0
LINE
  8
LC-003-002-----0
  6
CONTINUOUS
  5
598
 10
415.889186
 20
242.740396
 30
0.0
 11
415.889186
 21
219.560148
 31
0.0
  0
ARC
  8
LC-004-205-RND-0
  6
CONTINUOUS
  5
59A
 10
418.389186
 20
242.740396
 30
0.0
 40
2.5
 50
92.0
 51
180.0
  0
ARC
  8
LC-004-205-RND-0
  6
CONTINUOUS
  5
59B
 10
418.389186
 20
242.740396
 30
0.0
 40
4.5
 50
88.0
 51
173.967717
  0
LINE
  8
LC-003-002-----0
  6
CONTINUOUS
  5
59C
 10
458.834722
 20
245.237047
 30
0.0
 11
470.086892
 21
245.237047
 31
0.0
  0
LINE
  8
LC-003-002-----0
  6
DASHDOT
 62
     2
  5
59E
 10
441.484722
 20
251.369665
 30
0.0
 11
441.484722
 21
241.933137
 31
0.0
  0
ARC
  8
LC-005-002-RND-0
  6
CONTINUOUS
  5
5A0
 10
470.086892
 20
238.237047
 30
0.0
 40
7.0
 50
359.999987
 51
90.0
  0
LINE
  8
LC-003-002-----0
  6
CONTINUOUS
  5
5A1
 10
418.546234
 20
247.243137
 30
0.0
 11
423.934722
 21
247.243137
 31
0.0
  0
LINE
  8
LC-003-002-----0
  6
CONTINUOUS
  5
5A2
 10
423.934722
 20
247.243137
 30
0.0
 11
424.134722
 21
247.243137
 31
0.0
  0
LINE
  8
LC-001-205-----0
  6
CONTINUOUS
  5
5A3
 10
477.086889
 20
224.49464
 30
0.0
 11
477.086892
 21
238.237046
 31
0.0
  0
LINE
  8
LC-003-002-----0
  6
CONTINUOUS
  5
5A4
 10
484.187192
 20
230.400155
 30
0.0
 11
484.187192
 21
229.700145
 31
0.0
  0
ARC
  8
LC-005-002-RND-0
  6
CONTINUOUS
  5
5A5
 10
470.713292
 20
238.243137
 30
0.0
 40
9.0
 50
5.652944
 51
90.0
  0
LINE
  8
LC-001-205-----0
  6
CONTINUOUS
  5
5A6
 10
479.669523
 20
239.12966
 30
0.0
 11
480.533596
 21
230.40023
 31
0.0
  0
ARC
  8
LC-001-205-----0
  6
CONTINUOUS
  5
5A7
 10
479.587161
 20
222.900146
 30
0.0
 40
2.5
 50
179.999761
 51
270.0
  0
ARC
  8
LC-001-205-----0
  6
CONTINUOUS
  5
5A8
 10
483.68718
 20
221.100147
 30
0.0
 40
0.5
 50
359.999925
 51
89.999925
  0
LINE
  8
LC-001-205-----0
  6
CONTINUOUS
  5
5A9
 10
477.087161
 20
222.900157
 30
0.0
 11
477.087192
 21
230.394887
 31
0.0
  0
ARC
  8
LC-001-205-----0
  6
CONTINUOUS
  5
5AA
 10
479.587157
 20
222.100152
 30
0.0
 40
0.5
 50
179.999761
 51
269.999925
  0
LINE
  8
LC-001-205-----0
  6
CONTINUOUS
  5
5AB
 10
483.68718
 20
221.600147
 30
0.0
 11
479.587157
 21
221.600152
 31
0.0
  0
ARC
  8
LC-001-205-----0
  6
CONTINUOUS
  5
5AC
 10
479.587185
 20
228.700152
 30
0.0
 40
0.5
 50
89.999925
 51
179.999761
  0
ARC
  8
LC-001-205-----0
  6
CONTINUOUS
  5
5AD
 10
483.687189
 20
229.700147
 30
0.0
 40
0.5
 50
269.999925
 51
359.999761
  0
LINE
  8
LC-001-205-----0
  6
CONTINUOUS
  5
5AE
 10
483.687188
 20
229.200147
 30
0.0
 11
479.587185
 21
229.200152
 31
0.0
  0
LINE
  8
LC-001-205-----0
  6
CONTINUOUS
  5
5AF
 10
480.533596
 20
230.400155
 30
0.0
 11
484.187192
 21
230.400155
 31
0.0
  0
LINE
  8
LC-003-002-----0
  6
CONTINUOUS
  5
5B0
 10
418.371843
 20
245.237047
 30
0.0
 11
424.134722
 21
245.237047
 31
0.0
  0
LINE
  8
LC-003-002-----0
  6
CONTINUOUS
  5
5B1
 10
424.134722
 20
245.237047
 30
0.0
 11
421.584722
 21
245.237047
 31
0.0
  0
ARC
  8
LC-001-205-----0
  6
CONTINUOUS
  5
5B2
 10
361.187044
 20
222.90023
 30
0.0
 40
2.5
 50
270.0
 51
0.000164
  0
ARC
  8
LC-001-205-----0
  6
CONTINUOUS
  5
5B3
 10
361.187046
 20
222.10023
 30
0.0
 40
0.5
 50
270.0
 51
0.000164
  0
ARC
  8
LC-001-205-----0
  6
CONTINUOUS
  5
5B4
 10
360.886879
 20
219.90023
 30
0.0
 40
0.5
 50
90.0
 51
179.999963
  0
LINE
  8
LC-001-205-----0
  6
CONTINUOUS
  5
5B5
 10
360.886879
 20
220.40023
 30
0.0
 11
361.187044
 21
220.40023
 31
0.0
  0
LINE
  8
LC-001-205-----0
  6
CONTINUOUS
  5
5B6
 10
357.087022
 20
221.60023
 30
0.0
 11
361.187046
 21
221.60023
 31
0.0
  0
ARC
  8
LC-001-205-----0
  6
CONTINUOUS
  5
5B7
 10
361.187027
 20
228.70023
 30
0.0
 40
0.5
 50
0.000164
 51
90.0
  0
LINE
  8
LC-001-205-----0
  6
CONTINUOUS
  5
5B8
 10
357.087024
 20
229.20023
 30
0.0
 11
361.187027
 21
229.20023
 31
0.0
  0
ARC
  8
LC-001-205-----0
  6
CONTINUOUS
  5
5B9
 10
357.087022
 20
221.10023
 30
0.0
 40
0.5
 50
90.0
 51
180.0
  0
ARC
  8
LC-001-205-----0
  6
CONTINUOUS
  5
5BA
 10
357.087024
 20
229.70023
 30
0.0
 40
0.5
 50
180.000164
 51
270.0
  0
LINE
  8
LC-001-205-----0
  6
CONTINUOUS
  5
5BB
 10
359.386846
 20
170.370768
 30
0.0
 11
359.386879
 21
219.900229
 31
0.0
  0
ARC
  8
LC-001-205-----0
  6
CONTINUOUS
  5
5BC
 10
358.886879
 20
219.90023
 30
0.0
 40
0.5
 50
359.999963
 51
85.018931
  0
LINE
  8
LC-001-205-----0
  6
CONTINUOUS
  5
5BD
 10
356.587022
 20
220.395914
 30
0.0
 11
356.587022
 21
221.10023
 31
0.0
  0
LINE
  8
LC-001-205-----0
  6
CONTINUOUS
  5
5BE
 10
356.587024
 20
229.700228
 30
0.0
 11
356.587022
 21
230.394962
 31
0.0
  0
LINE
  8
LC-003-002-----0
  6
CONTINUOUS
  5
5BF
 10
413.425718
 20
219.560148
 30
0.0
 11
408.227683
 21
170.370768
 31
0.0
  0
LINE
  8
LC-001-205-----0
  6
CONTINUOUS
  5
5C0
 10
484.187179
 20
220.400146
 30
0.0
 11
484.18718
 21
221.100146
 31
0.0
  0
LINE
  8
LC-003-002-----0
  6
CONTINUOUS
  5
5C1
 10
413.425718
 20
219.560148
 30
0.0
 11
415.889186
 21
219.560148
 31
0.0
  0
LINE
  8
LC-003-002-----0
  6
CONTINUOUS
  5
5C2
 10
229.260091
 20
197.852788
 30
0.0
 11
232.260091
 21
197.852788
 31
0.0
  0
LINE
  8
LC-003-002-----0
  6
CONTINUOUS
  5
5C3
 10
419.984722
 20
251.433137
 30
0.0
 11
462.984722
 21
251.433137
 31
0.0
  0
LINE
  8
LC-003-002-----0
  6
CONTINUOUS
  5
5C4
 10
419.984722
 20
251.433137
 30
0.0
 11
419.984722
 21
247.240396
 31
0.0
  0
LINE
  8
LC-003-002-----0
  6
CONTINUOUS
  5
5C5
 10
462.984722
 20
251.433137
 30
0.0
 11
462.984722
 21
247.243137
 31
0.0
  0
LINE
  8
LC-003-002-----0
  6
CONTINUOUS
  5
5C6
 10
458.834722
 20
248.433137
 30
0.0
 11
458.834722
 21
245.233137
 31
0.0
  0
LINE
  8
LC-003-002-----0
  6
CONTINUOUS
  5
5C7
 10
424.134722
 20
248.433137
 30
0.0
 11
424.134722
 21
245.233137
 31
0.0
  0
LINE
  8
LC-003-002-----0
  6
CONTINUOUS
  5
5C8
 10
461.384722
 20
245.233137
 30
0.0
 11
461.384722
 21
241.933137
 31
0.0
  0
LINE
  8
LC-003-002-----0
  6
CONTINUOUS
  5
5C9
 10
461.384722
 20
241.933137
 30
0.0
 11
421.584722
 21
241.933137
 31
0.0
  0
LINE
  8
LC-003-002-----0
  6
CONTINUOUS
  5
5CA
 10
421.584722
 20
245.233137
 30
0.0
 11
421.584722
 21
241.933137
 31
0.0
  0
LINE
  8
LC-003-002-----0
  6
CONTINUOUS
  5
5CB
 10
419.984722
 20
248.433137
 30
0.0
 11
424.134722
 21
248.433137
 31
0.0
  0
LINE
  8
LC-003-002-----0
  6
CONTINUOUS
  5
5CC
 10
458.834722
 20
248.433137
 30
0.0
 11
462.984722
 21
248.433137
 31
0.0
  0
ARC
  8
LC-003-002-----0
  6
CONTINUOUS
  5
5CD
 10
229.260091
 20
249.602788
 30
0.0
 40
2.75
 50
90.0
 51
270.0
  0
ARC
  8
LC-003-002-----0
  6
CONTINUOUS
  5
5CE
 10
232.260091
 20
249.602788
 30
0.0
 40
2.75
 50
270.0
 51
90.0
  0
LINE
  8
LC-003-002-----0
  6
CONTINUOUS
  5
5CF
 10
229.260091
 20
246.852788
 30
0.0
 11
232.260091
 21
246.852788
 31
0.0
  0
ARC
  8
LC-003-002-----0
  6
CONTINUOUS
  5
5D0
 10
229.260091
 20
195.102788
 30
0.0
 40
2.75
 50
90.0
 51
270.0
  0
ARC
  8
LC-003-002-----0
  6
CONTINUOUS
  5
5D1
 10
232.260091
 20
195.102788
 30
0.0
 40
2.75
 50
270.0
 51
90.0
  0
LINE
  8
LC-001-205-----0
  6
CONTINUOUS
  5
5D2
 10
361.687046
 20
222.100231
 30
0.0
 11
361.68704
 21
224.35023
 31
0.0
  0
LINE
  8
LC-003-002-----0
  6
CONTINUOUS
  5
5D3
 10
458.834722
 20
247.243137
 30
0.0
 11
470.713292
 21
247.243137
 31
0.0
  0
ARC
  8
LC-005-002-RND-0
  6
DASHDOT
 62
     2
  5
5D4
 10
281.510091
 20
192.352788
 30
0.0
 40
30.0
 50
0.0
 51
90.0
  0
ARC
  8
LC-003-002-----0
  6
CONTINUOUS
  5
5D5
 10
358.937373
 20
226.45023
 30
0.0
 40
2.75
 50
0.000164
 51
176.699173
  0
ARC
  8
LC-003-002-----0
  6
CONTINUOUS
  5
5D6
 10
358.937373
 20
224.35023
 30
0.0
 40
2.75
 50
180.0
 51
0.0
  0
LINE
  8
LC-001-205-----0
  6
CONTINUOUS
  5
5D7
 10
361.687034
 20
226.450237
 30
0.0
 11
361.687027
 21
228.700231
 31
0.0
  0
LINE
  8
LC-003-002-----0
  6
CONTINUOUS
  5
5D8
 10
361.687373
 20
226.450237
 30
0.0
 11
361.687373
 21
224.35023
 31
0.0
  0
LINE
  8
LC-006-005-----0
  6
CONTINUOUS
  5
5D9
 10
356.243588
 20
223.797041
 30
0.0
 11
358.384185
 21
221.656444
 31
0.0
  0
LINE
  8
LC-006-005-----0
  6
CONTINUOUS
  5
5DA
 10
356.187373
 20
225.267468
 30
0.0
 11
359.736072
 21
221.71877
 31
0.0
  0
LINE
  8
LC-006-005-----0
  6
CONTINUOUS
  5
5DB
 10
356.196385
 20
226.672671
 30
0.0
 11
360.661349
 21
222.207706
 31
0.0
  0
LINE
  8
LC-006-005-----0
  6
CONTINUOUS
  5
5DC
 10
356.520706
 20
227.762563
 30
0.0
 11
361.314944
 21
222.968325
 31
0.0
  0
LINE
  8
LC-006-005-----0
  6
CONTINUOUS
  5
5DD
 10
357.153952
 20
228.54353
 30
0.0
 11
361.668541
 21
224.028942
 31
0.0
  0
LINE
  8
LC-006-005-----0
  6
CONTINUOUS
  5
5DE
 10
358.056398
 20
229.055298
 30
0.0
 11
361.687373
 21
225.424323
 31
0.0
  0
LINE
  8
LC-006-005-----0
  6
CONTINUOUS
  5
5DF
 10
359.358046
 20
229.167864
 30
0.0
 11
361.655007
 21
226.870902
 31
0.0
  0
ARC
  8
LC-003-002-----0
  6
CONTINUOUS
  5
5E0
 10
481.817149
 20
226.450069
 30
0.0
 40
2.75
 50
352.068577
 51
179.999761
  0
LINE
  8
LC-003-002-----0
  6
CONTINUOUS
  5
5E1
 10
456.834722
 20
249.321845
 30
0.0
 11
456.834722
 21
241.933137
 31
0.0
  0
LINE
  8
LC-003-002-----0
  6
CONTINUOUS
  5
5E2
 10
426.134722
 20
249.321845
 30
0.0
 11
426.134722
 21
241.933137
 31
0.0
  0
ARC
  8
LC-003-002-----0
  6
CONTINUOUS
  5
5E3
 10
441.484722
 20
294.759045
 30
0.0
 40
45.964734
 50
250.491197
 51
289.440613
  0
ARC
  8
LC-003-002-----0
  6
CONTINUOUS
  5
5E4
 10
441.484722
 20
294.759045
 30
0.0
 40
47.96
 50
251.333544
 51
288.666456
  0
LINE
  8
LC-003-002-----0
  6
CONTINUOUS
  5
5E5
 10
479.087185
 20
228.700154
 30
0.0
 11
479.087185
 21
222.100154
 31
0.0
  0
ARC
  8
LC-003-002-----0
  6
CONTINUOUS
  5
5E6
 10
481.817157
 20
224.350149
 30
0.0
 40
2.75
 50
180.0
 51
0.0
  0
ARC
  8
LC-007-209-----0
  5
5E8
 10
519.360196
 20
193.148209
 30
0.0
 40
33.0
 50
28.721796
 51
65.538402
  0
ARC
  8
LC-003-002-----0
  6
DASHED
 62
     2
  5
5E9
 10
519.325994
 20
193.054239
 30
0.0
 40
29.5
 50
28.811089
 51
82.996787
  0
LINE
  8
LC-003-002-----0
  6
DASHED
 62
     2
  5
5EA
 10
543.961399
 20
209.300493
 30
0.0
 11
527.686515
 21
164.585616
 31
0.0
  0
LINE
  8
LC-003-002-----0
  6
DASHED
 62
     2
  5
5EB
 10
529.920192
 20
165.360685
 30
0.0
 11
545.174291
 21
207.270975
 31
0.0
  0
ARC
  8
LC-007-209-----0
  5
5EC
 10
519.223388
 20
192.772332
 30
0.0
 40
33.0
 50
254.461598
 51
291.278204
  0
LINE
  8
LC-003-002-----0
  6
DASHED
 62
     2
  5
5ED
 10
500.585561
 20
164.544497
 30
0.0
 11
510.38321
 21
160.978445
 31
0.0
  0
LINE
  8
LC-003-002-----0
  6
DASHED
 62
     2
  5
5EE
 10
500.585561
 20
164.544497
 30
0.0
 11
501.707842
 21
167.627937
 31
0.0
  0
LINE
  8
LC-008-208-----0
  5
5F0
 10
565.724192
 20
152.329094
 30
0.0
 11
529.920192
 21
165.360685
 31
0.0
  0
LINE
  8
LC-008-208-----0
  5
5F1
 10
580.97829
 20
194.239385
 30
0.0
 11
545.174291
 21
207.270975
 31
0.0
  0
LINE
  8
LC-008-208-----0
  5
5F2
 10
548.299989
 20
209.006594
 30
0.0
 11
550.648204
 21
208.151914
 31
0.0
  0
ARC
  8
LC-003-002-----0
  6
DASHED
 62
     2
  5
5F3
 10
556.813719
 20
179.303406
 30
0.0
 40
29.5
 50
62.1854
 51
102.063786
  0
ARC
  8
LC-003-002-----0
  6
DASHED
 62
     2
  5
5F4
 10
556.783642
 20
179.320771
 30
0.0
 40
29.5
 50
10.217104
 51
63.4332
  0
ARC
  8
LC-007-209-----0
  5
5F5
 10
556.847921
 20
179.397375
 30
0.0
 40
33.0
 50
8.985433
 51
45.538402
  0
LINE
  8
LC-003-002-----0
  6
DASHED
 62
     2
  5
5F6
 10
571.975029
 20
209.652124
 30
0.0
 11
579.962145
 21
202.950137
 31
0.0
  0
LINE
  8
LC-003-002-----0
  6
DASHED
 62
     2
  5
5F7
 10
571.975029
 20
209.652124
 30
0.0
 11
569.865832
 21
207.138481
 31
0.0
  0
ARC
  8
LC-005-002-RND-0
  6
DASHED
 62
     2
  5
5F8
 10
570.631876
 20
206.495693
 30
0.0
 40
1.0
 50
140.0
 51
242.996787
  0
LINE
  8
LC-003-002-----0
  6
DASHED
 62
     2
  5
5F9
 10
529.551047
 20
159.093191
 30
0.0
 11
537.538163
 21
152.391204
 31
0.0
  0
LINE
  8
LC-003-002-----0
  6
DASHED
 62
     2
  5
5FA
 10
529.551047
 20
159.093191
 30
0.0
 11
531.660244
 21
161.606834
 31
0.0
  0
ARC
  8
LC-005-002-RND-0
  6
DASHED
 62
     2
  5
5FB
 10
532.426288
 20
160.964047
 30
0.0
 40
1.0
 50
37.003213
 51
140.0
  0
ARC
  8
LC-007-209-----0
  5
5FC
 10
556.719363
 20
179.244166
 30
0.0
 40
33.0
 50
234.461598
 51
271.014567
  0
LINE
  8
LC-007-209-----0
  5
5FD
 10
558.835297
 20
144.964045
 30
0.0
 11
557.303546
 21
146.249337
 31
0.0
  0
LINE
  8
LC-007-209-----0
  5
5FE
 10
555.911851
 20
128.384359
 30
0.0
 11
558.835297
 21
144.964045
 31
0.0
  0
LINE
  8
LC-003-002-----0
  6
DASHED
 62
     2
  5
5FF
 10
555.911851
 20
128.384359
 30
0.0
 11
585.753195
 21
85.766504
 31
0.0
  0
LINE
  8
LC-007-209-----0
  5
600
 10
589.613078
 20
83.740913
 30
0.0
 11
558.957873
 21
129.189124
 31
0.0
  0
LINE
  8
LC-007-209-----0
  5
601
 10
558.973973
 20
129.165255
 30
0.0
 11
561.329965
 21
142.526749
 31
0.0
  0
LINE
  8
LC-003-002-----0
  6
DASHED
 62
     2
  5
602
 10
561.329965
 20
142.526749
 30
0.0
 11
596.140584
 21
92.812032
 31
0.0
  0
LINE
  8
LC-007-209-----0
  5
603
 10
599.771806
 20
90.854131
 30
0.0
 11
564.335794
 21
143.390179
 31
0.0
  0
LINE
  8
LC-003-002-----0
  6
DASHED
 62
     2
  5
604
 10
594.065942
 20
177.630789
 30
0.0
 11
564.335794
 21
143.390179
 31
0.0
  0
LINE
  8
LC-003-002-----0
  6
DASHED
 62
     2
  5
605
 10
585.815852
 20
184.553437
 30
0.0
 11
556.671861
 21
149.820982
 31
0.0
  0
LINE
  8
LC-003-002-----0
  6
DASHED
 62
     2
  5
606
 10
581.448744
 20
195.531946
 30
0.0
 11
565.264509
 21
151.066127
 31
0.0
  0
LINE
  8
LC-007-209-----0
  5
607
 10
601.641532
 20
174.315714
 30
0.0
 11
589.354435
 21
184.625813
 31
0.0
  0
LINE
  8
LC-007-209-----0
  5
608
 10
617.512085
 20
171.517307
 30
0.0
 11
601.641532
 21
174.315714
 31
0.0
  0
LINE
  8
LC-007-209-----0
  5
609
 10
615.730976
 20
168.906936
 30
0.0
 11
602.369482
 21
171.262928
 31
0.0
  0
LINE
  8
LC-003-002-----0
  6
DASHED
 62
     2
  5
60A
 10
602.369482
 20
171.262928
 30
0.0
 11
637.180101
 21
121.548212
 31
0.0
  0
LINE
  8
LC-007-209-----0
  5
60B
 10
637.777976
 20
117.466337
 30
0.0
 11
594.065942
 21
177.630789
 31
0.0
  0
LINE
  8
LC-003-002-----0
  6
DASHED
 62
     2
  5
60C
 10
617.512085
 20
171.517307
 30
0.0
 11
647.353429
 21
128.899452
 31
0.0
  0
LINE
  8
LC-007-209-----0
  5
60D
 10
647.936704
 20
124.579555
 30
0.0
 11
615.730976
 21
168.906936
 31
0.0
  0
LINE
  8
LC-007-209-----0
  5
60E
 10
647.353429
 20
128.899452
 30
0.0
 11
648.724874
 21
125.131438
 31
0.0
  0
LINE
  8
LC-007-209-----0
  5
60F
 10
637.180101
 20
121.548212
 30
0.0
 11
638.485473
 21
117.961732
 31
0.0
  0
LINE
  8
LC-007-209-----0
  5
610
 10
585.753195
 20
85.766504
 30
0.0
 11
588.824908
 21
83.18903
 31
0.0
  0
LINE
  8
LC-007-209-----0
  5
611
 10
596.140584
 20
92.812032
 30
0.0
 11
599.064309
 21
90.358736
 31
0.0
  0
LINE
  8
LC-007-209-----0
  5
612
 10
588.877706
 20
83.226
 30
0.0
 11
648.724874
 21
125.131438
 31
0.0
  0
LINE
  8
LC-007-209-----0
  6
DASHDOT
  5
613
 10
579.484905
 20
160.272149
 30
0.0
 11
618.774891
 21
104.160234
 31
0.0
  0
LINE
  8
LC-007-209-----0
  6
DASHDOT
  5
614
 10
547.117311
 20
182.83261
 30
0.0
 11
584.66094
 21
169.167846
 31
0.0
  0
LINE
  8
LC-003-002-----0
  6
DASHDOT
 62
     2
  5
615
 10
547.117311
 20
182.83261
 30
0.0
 11
519.308362
 21
192.954239
 31
0.0
  0
LINE
  8
LC-003-002-----0
  6
DASHED
 62
     2
  5
616
 10
523.227295
 20
226.752149
 30
0.0
 11
522.105014
 21
223.668709
 31
0.0
  0
ARC
  8
LC-005-002-RND-0
  6
DASHED
 62
     2
  5
617
 10
523.044707
 20
223.326688
 30
0.0
 40
1.0
 50
160.0
 51
262.996787
  0
LINE
  8
LC-003-002-----0
  6
DASHED
 62
     2
  5
618
 10
523.227295
 20
226.752149
 30
0.0
 11
533.024944
 21
223.186096
 31
0.0
  0
LINE
  8
LC-003-002-----0
  6
DASHED
 62
     2
  5
619
 10
585.815852
 20
184.553437
 30
0.0
 11
594.065942
 21
177.630789
 31
0.0
  0
LINE
  8
LC-003-002-----0
  6
DASHED
 62
     2
  5
61A
 10
556.783642
 20
149.820771
 30
0.0
 11
564.335794
 21
143.390179
 31
0.0
  0
ARC
  8
LC-003-002-----0
  6
CONTINUOUS
  5
61B
 10
286.810091
 20
185.465085
 30
0.0
 40
2.4
 50
0.0
 51
176.454881
  0
ARC
  8
LC-003-002-----0
  6
CONTINUOUS
  5
61C
 10
286.810091
 20
183.165085
 30
0.0
 40
2.4
 50
180.0
 51
0.0
  0
ARC
  8
LC-003-002-----0
  6
CONTINUOUS
  5
61D
 10
336.210091
 20
185.465085
 30
0.0
 40
2.4
 50
3.545119
 51
180.0
  0
ARC
  8
LC-003-002-----0
  6
CONTINUOUS
  5
61E
 10
336.210091
 20
183.165085
 30
0.0
 40
2.4
 50
180.0
 51
360.0
  0
ARC
  8
LC-003-002-----0
  6
DASHED
 62
     2
  5
61F
 10
556.783642
 20
179.320771
 30
0.0
 40
29.5
 50
236.634136
 51
286.707567
  0
LINE
  8
LC-008-208-----0
  5
620
 10
531.198982
 20
162.021963
 30
0.0
 11
533.547197
 21
161.167283
 31
0.0
  0
ARC
  8
LC-003-002-----0
  6
DASHED
 62
     2
  5
621
 10
556.813719
 20
179.303406
 30
0.0
 40
29.5
 50
216.941149
 51
236.5668
  0
LINE
  8
LC-003-002-----0
  6
CONTINUOUS
  5
622
 10
392.105771
 20
154.399462
 30
0.0
 11
392.105771
 21
171.279653
 31
0.0
  0
LINE
  8
LC-003-002-----0
  6
CONTINUOUS
  5
623
 10
390.105771
 20
159.399462
 30
0.0
 11
390.105771
 21
171.279653
 31
0.0
  0
LINE
  8
LC-009-207-----0
  6
CONTINUOUS
  5
625
 10
392.105771
 20
154.399462
 30
0.0
 11
462.866376
 21
154.399462
 31
0.0
  0
ARC
  8
LC-010-207-RND-0
  6
CONTINUOUS
  5
627
 10
385.105771
 20
159.399462
 30
0.0
 40
5.0
 50
270.0
 51
0.0
  0
LINE
  8
LC-003-002-----0
  6
CONTINUOUS
  5
628
 10
464.866376
 20
168.61715
 30
0.0
 11
464.866376
 21
151.399462
 31
0.0
  0
LINE
  8
LC-003-002-----0
  6
CONTINUOUS
  5
629
 10
380.366376
 20
154.399462
 30
0.0
 11
380.366376
 21
171.279653
 31
0.0
  0
LINE
  8
LC-003-002-----0
  6
CONTINUOUS
  5
62A
 10
380.366376
 20
171.31163
 30
0.0
 11
390.105771
 21
171.31163
 31
0.0
  0
LINE
  8
LC-003-002-----0
  6
CONTINUOUS
  5
62B
 10
481.846404
 20
170.592593
 30
0.0
 11
464.866376
 21
171.118482
 31
0.0
  0
LINE
  8
LC-003-002-----0
  6
CONTINUOUS
  5
62C
 10
484.866376
 20
218.087325
 30
0.0
 11
484.866376
 21
217.877268
 31
0.0
  0
LINE
  8
LC-003-002-----0
  6
CONTINUOUS
  5
62D
 10
358.866376
 20
174.401446
 30
0.0
 11
359.386849
 21
174.384449
 31
0.0
  0
ARC
  8
LC-003-002-----0
  6
CONTINUOUS
  5
62E
 10
479.866376
 20
166.151625
 30
0.0
 40
2.0
 50
0.0
 51
88.226057
  0
LINE
  8
LC-003-002-----0
  6
CONTINUOUS
  5
62F
 10
359.386847
 20
171.88396
 30
0.0
 11
358.886316
 21
171.899462
 31
0.0
  0
ARC
  8
LC-005-002-RND-0
  6
CONTINUOUS
  5
630
 10
501.268132
 20
230.587325
 30
0.0
 40
3.0
 50
270.0
 51
335.025313
  0
LINE
  8
LC-003-002-----0
  6
CONTINUOUS
  5
631
 10
479.928289
 20
168.150667
 30
0.0
 11
464.866376
 21
168.61715
 31
0.0
  0
LINE
  8
LC-003-002-----0
  6
CONTINUOUS
  5
632
 10
481.866376
 20
220.395914
 30
0.0
 11
481.866376
 21
215.178143
 31
0.0
  0
LINE
  8
LC-003-002-----0
  6
CONTINUOUS
  5
633
 10
358.866376
 20
220.395914
 30
0.0
 11
358.866376
 21
174.401446
 31
0.0
  0
LINE
  8
LC-003-002-----0
  6
CONTINUOUS
  5
634
 10
355.866376
 20
218.087325
 30
0.0
 11
355.866376
 21
176.099462
 31
0.0
  0
ARC
  8
LC-005-002-RND-0
  6
CONTINUOUS
  5
635
 10
353.866376
 20
176.099462
 30
0.0
 40
2.0
 50
270.0
 51
0.0
  0
LINE
  8
LC-003-002-----0
  6
CONTINUOUS
  5
636
 10
348.839445
 20
171.899462
 30
0.0
 11
348.839445
 21
154.399462
 31
0.0
  0
LINE
  8
LC-003-002-----0
  6
CONTINUOUS
  5
637
 10
390.105771
 20
171.31163
 30
0.0
 11
392.105771
 21
171.31163
 31
0.0
  0
LINE
  8
LC-003-002-----0
  6
CONTINUOUS
  5
638
 10
348.839445
 20
154.399462
 30
0.0
 11
348.839445
 21
148.399462
 31
0.0
  0
ARC
  8
LC-005-002-RND-0
  6
CONTINUOUS
  5
639
 10
325.616376
 20
256.635605
 30
0.0
 40
0.5
 50
0.0
 51
86.000003
  0
LINE
  8
LC-003-002-----0
  6
CONTINUOUS
  5
63A
 10
336.741623
 20
229.32078
 30
0.0
 11
331.366376
 21
240.868779
 31
0.0
  0
LINE
  8
LC-003-002-----0
  6
CONTINUOUS
  5
63B
 10
503.987615
 20
229.320671
 30
0.0
 11
509.366376
 21
240.868779
 31
0.0
  0
ARC
  8
LC-005-002-RND-0
  6
CONTINUOUS
  5
63C
 10
355.866376
 20
221.087325
 30
0.0
 40
3.0
 50
180.0
 51
270.0
  0
LINE
  8
LC-003-002-----0
  6
CONTINUOUS
  5
63D
 10
481.846402
 20
220.395914
 30
0.0
 11
484.54536
 21
220.395914
 31
0.0
  0
LINE
  8
LC-003-002-----0
  6
CONTINUOUS
  5
63E
 10
354.687859
 20
230.591676
 30
0.0
 11
344.5092
 21
230.591676
 31
0.0
  0
ARC
  8
LC-005-002-RND-0
  6
CONTINUOUS
  5
63F
 10
344.5092
 20
232.581031
 30
0.0
 40
1.999352
 50
180.0
 51
270.0
  0
LINE
  8
LC-003-002-----0
  6
CONTINUOUS
  5
640
 10
342.509848
 20
236.486693
 30
0.0
 11
342.509848
 21
234.986693
 31
0.0
  0
LINE
  8
LC-003-002-----0
  6
CONTINUOUS
  5
641
 10
339.460537
 20
227.587325
 30
0.0
 11
349.366376
 21
227.587325
 31
0.0
  0
ARC
  8
LC-005-002-RND-0
  6
CONTINUOUS
  5
642
 10
339.460537
 20
230.586353
 30
0.0
 40
2.999028
 50
204.960562
 51
270.0
  0
LINE
  8
LC-003-002-----0
  6
CONTINUOUS
  5
643
 10
412.580318
 20
230.59159
 30
0.0
 11
354.703905
 21
230.59159
 31
0.0
  0
LINE
  8
LC-003-002-----0
  6
CONTINUOUS
  5
644
 10
498.022905
 20
238.486693
 30
0.0
 11
498.222905
 21
238.486693
 31
0.0
  0
LINE
  8
LC-003-002-----0
  6
CONTINUOUS
  5
645
 10
356.487276
 20
220.395914
 30
0.0
 11
358.886351
 21
220.395914
 31
0.0
  0
LINE
  8
LC-003-002-----0
  6
CONTINUOUS
  5
646
 10
356.187373
 20
220.695816
 30
0.0
 11
356.187373
 21
224.37349
 31
0.0
  0
LINE
  8
LC-003-002-----0
  6
CONTINUOUS
  5
647
 10
269.366376
 20
266.089933
 30
0.0
 11
269.366376
 21
263.082735
 31
0.0
  0
LINE
  8
LC-003-002-----0
  6
CONTINUOUS
  5
648
 10
498.222905
 20
236.486693
 30
0.0
 11
498.022905
 21
236.486693
 31
0.0
  0
LINE
  8
LC-003-002-----0
  6
CONTINUOUS
  5
649
 10
498.222905
 20
234.986693
 30
0.0
 11
498.022905
 21
234.986693
 31
0.0
  0
LINE
  8
LC-003-002-----0
  6
CONTINUOUS
  5
64A
 10
503.660952
 20
217.877268
 30
0.0
 11
484.866376
 21
217.877268
 31
0.0
  0
ARC
  8
LC-003-002-----0
  6
CONTINUOUS
  5
64B
 10
356.487276
 20
220.695816
 30
0.0
 40
0.299903
 50
180.0
 51
270.0
  0
LINE
  8
LC-003-002-----0
  6
CONTINUOUS
  5
64C
 10
498.222905
 20
232.986693
 30
0.0
 11
498.022905
 21
232.986693
 31
0.0
  0
ARC
  8
LC-003-002-----0
  6
CONTINUOUS
  5
64D
 10
354.687859
 20
229.092162
 30
0.0
 40
1.499514
 50
0.0
 51
90.0
  0
LINE
  8
LC-003-002-----0
  6
CONTINUOUS
  5
64E
 10
480.514655
 20
230.59159
 30
0.0
 11
486.028847
 21
230.59159
 31
0.0
  0
LINE
  8
LC-003-002-----0
  6
CONTINUOUS
  5
64F
 10
356.187373
 20
226.608833
 30
0.0
 11
356.187373
 21
229.092162
 31
0.0
  0
LINE
  8
LC-003-002-----0
  6
CONTINUOUS
  5
650
 10
525.431223
 20
217.877171
 30
0.0
 11
529.929765
 21
217.878045
 31
0.0
  0
LINE
  8
LC-003-002-----0
  6
CONTINUOUS
  5
651
 10
536.927497
 20
216.56512
 30
0.0
 11
536.927497
 21
215.178143
 31
0.0
  0
LINE
  8
LC-003-002-----0
  6
CONTINUOUS
  5
652
 10
529.929765
 20
220.416929
 30
0.0
 11
529.929765
 21
217.878045
 31
0.0
  0
LINE
  8
LC-003-002-----0
  6
CONTINUOUS
  5
653
 10
525.431223
 20
221.748458
 30
0.0
 11
525.431223
 21
217.877171
 31
0.0
  0
LINE
  8
LC-003-002-----0
  6
CONTINUOUS
  5
654
 10
536.927497
 20
215.178143
 30
0.0
 11
481.846404
 21
215.178143
 31
0.0
  0
LINE
  8
LC-003-002-----0
  6
CONTINUOUS
  5
655
 10
326.116376
 20
250.930685
 30
0.0
 11
326.116376
 21
250.662736
 31
0.0
  0
ARC
  8
LC-003-002-----0
  6
CONTINUOUS
  5
656
 10
499.207125
 20
194.907042
 30
0.0
 40
26.689176
 50
130.577646
 51
245.647084
  0
LINE
  8
LC-003-002-----0
  6
CONTINUOUS
  5
657
 10
503.660952
 20
167.893468
 30
0.0
 11
486.866376
 21
167.893468
 31
0.0
  0
LINE
  8
LC-003-002-----0
  6
CONTINUOUS
  5
658
 10
536.927497
 20
170.592593
 30
0.0
 11
481.846404
 21
170.592593
 31
0.0
  0
ARC
  8
LC-005-002-RND-0
  6
CONTINUOUS
  5
659
 10
342.709848
 20
237.286693
 30
0.0
 40
0.8
 50
270.0
 51
0.0
  0
LINE
  8
LC-003-002-----0
  6
CONTINUOUS
  5
65A
 10
352.866376
 20
224.087325
 30
0.0
 11
352.866376
 21
221.087325
 31
0.0
  0
LINE
  8
LC-003-002-----0
  6
CONTINUOUS
  5
65B
 10
309.366376
 20
258.273136
 30
0.0
 11
325.651255
 21
257.134387
 31
0.0
  0
ARC
  8
LC-005-002-RND-0
  6
CONTINUOUS
  5
65C
 10
328.616376
 20
250.662736
 30
0.0
 40
2.5
 50
180.0
 51
270.0
  0
ARC
  8
LC-005-002-RND-0
  6
CONTINUOUS
  5
65D
 10
515.116376
 20
256.635605
 30
0.0
 40
0.5
 50
93.999997
 51
180.0
  0
LINE
  8
LC-003-002-----0
  6
CONTINUOUS
  5
65E
 10
326.116376
 20
256.635605
 30
0.0
 11
326.116376
 21
254.662736
 31
0.0
  0
LINE
  8
LC-003-002-----0
  6
CONTINUOUS
  5
65F
 10
328.616376
 20
248.162736
 30
0.0
 11
330.366376
 21
248.162736
 31
0.0
  0
ARC
  8
LC-003-002-----0
  6
CONTINUOUS
  5
660
 10
320.106051
 20
283.831982
 30
0.0
 40
23.361504
 50
241.241457
 51
259.497843
  0
LINE
  8
LC-003-002-----0
  6
CONTINUOUS
  5
661
 10
269.366376
 20
266.089933
 30
0.0
 11
308.866376
 21
263.352002
 31
0.0
  0
LINE
  8
LC-003-002-----0
  6
CONTINUOUS
  5
662
 10
328.518465
 20
259.941066
 30
0.0
 11
315.84789
 21
260.861829
 31
0.0
  0
LINE
  8
LC-003-002-----0
  6
CONTINUOUS
  5
663
 10
269.366376
 20
263.082735
 30
0.0
 11
301.366376
 21
260.864664
 31
0.0
  0
LINE
  8
LC-003-002-----0
  6
CONTINUOUS
  5
664
 10
571.366376
 20
263.082735
 30
0.0
 11
539.366376
 21
260.864664
 31
0.0
  0
LINE
  8
LC-003-002-----0
  6
CONTINUOUS
  5
665
 10
571.366376
 20
266.089933
 30
0.0
 11
531.866376
 21
263.352002
 31
0.0
  0
LINE
  8
LC-003-002-----0
  6
CONTINUOUS
  5
666
 10
571.366376
 20
266.089933
 30
0.0
 11
571.366376
 21
263.082735
 31
0.0
  0
ARC
  8
LC-003-002-----0
  6
CONTINUOUS
  5
667
 10
520.626702
 20
283.831982
 30
0.0
 40
23.361504
 50
280.502157
 51
298.758543
  0
LINE
  8
LC-003-002-----0
  6
CONTINUOUS
  5
668
 10
512.214288
 20
259.941066
 30
0.0
 11
524.884863
 21
260.861829
 31
0.0
  0
LINE
  8
LC-003-002-----0
  6
CONTINUOUS
  5
669
 10
539.366376
 20
260.864664
 30
0.0
 11
531.366376
 21
258.273136
 31
0.0
  0
LINE
  8
LC-003-002-----0
  6
CONTINUOUS
  5
66A
 10
531.366376
 20
258.273136
 30
0.0
 11
515.081498
 21
257.134387
 31
0.0
  0
LINE
  8
LC-003-002-----0
  6
CONTINUOUS
  5
66B
 10
512.214288
 20
259.941066
 30
0.0
 11
512.214288
 21
252.256164
 31
0.0
  0
LINE
  8
LC-003-002-----0
  6
CONTINUOUS
  5
66C
 10
509.11567
 20
251.106973
 30
0.0
 11
509.11567
 21
257.38672
 31
0.0
  0
LINE
  8
LC-003-002-----0
  6
CONTINUOUS
  5
66D
 10
333.117083
 20
257.38672
 30
0.0
 11
333.117083
 21
255.88672
 31
0.0
  0
LINE
  8
LC-003-002-----0
  6
CONTINUOUS
  5
66E
 10
536.927497
 20
216.56512
 30
0.0
 11
536.927497
 21
169.205616
 31
0.0
  0
LINE
  8
LC-003-002-----0
  6
CONTINUOUS
  5
66F
 10
525.431223
 20
164.022278
 30
0.0
 11
525.431223
 21
167.893565
 31
0.0
  0
LINE
  8
LC-003-002-----0
  6
CONTINUOUS
  5
670
 10
525.431223
 20
167.893565
 30
0.0
 11
529.929765
 21
167.892691
 31
0.0
  0
LINE
  8
LC-003-002-----0
  6
CONTINUOUS
  5
671
 10
529.929765
 20
165.353807
 30
0.0
 11
529.929765
 21
167.892691
 31
0.0
  0
ARC
  8
LC-005-002-RND-0
  6
CONTINUOUS
  5
672
 10
329.518465
 20
252.256164
 30
0.0
 40
1.0
 50
180.0
 51
266.0
  0
LINE
  8
LC-003-002-----0
  6
CONTINUOUS
  5
673
 10
356.187373
 20
226.608833
 30
0.0
 11
356.187373
 21
224.373403
 31
0.0
  0
LINE
  8
LC-003-002-----0
  6
CONTINUOUS
  5
674
 10
484.545371
 20
229.086839
 30
0.0
 11
484.545371
 21
220.395914
 31
0.0
  0
LINE
  8
LC-003-002-----0
  6
CONTINUOUS
  5
675
 10
333.117083
 20
255.88672
 30
0.0
 11
333.617083
 21
255.020694
 31
0.0
  0
LINE
  8
LC-003-002-----0
  6
CONTINUOUS
  5
676
 10
331.617083
 20
257.38672
 30
0.0
 11
333.117083
 21
257.38672
 31
0.0
  0
LINE
  8
LC-003-002-----0
  6
CONTINUOUS
  5
677
 10
507.11567
 20
255.020694
 30
0.0
 11
507.11567
 21
240.785867
 31
0.0
  0
LINE
  8
LC-003-002-----0
  6
CONTINUOUS
  5
678
 10
341.709848
 20
239.285867
 30
0.0
 11
413.499077
 21
239.285867
 31
0.0
  0
ARC
  8
LC-005-002-RND-0
  6
CONTINUOUS
  5
679
 10
505.61567
 20
240.785867
 30
0.0
 40
1.5
 50
270.0
 51
0.0
  0
LINE
  8
LC-003-002-----0
  6
CONTINUOUS
  5
67A
 10
331.617083
 20
251.106973
 30
0.0
 11
331.617083
 21
257.38672
 31
0.0
  0
LINE
  8
LC-003-002-----0
  6
CONTINUOUS
  5
67B
 10
505.61567
 20
239.285867
 30
0.0
 11
499.022905
 21
239.285867
 31
0.0
  0
ARC
  8
LC-005-002-RND-0
  6
CONTINUOUS
  5
67C
 10
342.709848
 20
237.686693
 30
0.0
 40
0.8
 50
0.0
 51
90.0
  0
LINE
  8
LC-003-002-----0
  6
CONTINUOUS
  5
67D
 10
343.509848
 20
237.286693
 30
0.0
 11
343.509848
 21
237.686693
 31
0.0
  0
ARC
  8
LC-005-002-RND-0
  6
CONTINUOUS
  5
67E
 10
342.709848
 20
234.186693
 30
0.0
 40
0.8
 50
0.0
 51
90.0
  0
LINE
  8
LC-003-002-----0
  6
CONTINUOUS
  5
67F
 10
343.509848
 20
233.786693
 30
0.0
 11
343.509848
 21
234.186693
 31
0.0
  0
ARC
  8
LC-005-002-RND-0
  6
CONTINUOUS
  5
680
 10
342.709848
 20
233.786693
 30
0.0
 40
0.8
 50
270.0
 51
0.0
  0
LINE
  8
LC-003-002-----0
  6
CONTINUOUS
  5
681
 10
342.509848
 20
234.986693
 30
0.0
 11
342.709848
 21
234.986693
 31
0.0
  0
LINE
  8
LC-003-002-----0
  6
CONTINUOUS
  5
682
 10
342.509848
 20
232.986693
 30
0.0
 11
342.709848
 21
232.986693
 31
0.0
  0
LINE
  8
LC-003-002-----0
  6
CONTINUOUS
  5
683
 10
342.509848
 20
232.986693
 30
0.0
 11
342.509848
 21
232.581031
 31
0.0
  0
LINE
  8
LC-003-002-----0
  6
CONTINUOUS
  5
684
 10
509.366376
 20
247.162736
 30
0.0
 11
509.366376
 21
240.868779
 31
0.0
  0
LINE
  8
LC-003-002-----0
  6
CONTINUOUS
  5
685
 10
512.116376
 20
248.162736
 30
0.0
 11
510.366376
 21
248.162736
 31
0.0
  0
ARC
  8
LC-005-002-RND-0
  6
CONTINUOUS
  5
686
 10
512.116376
 20
250.662736
 30
0.0
 40
2.5
 50
270.0
 51
0.0
  0
ARC
  8
LC-005-002-RND-0
  6
CONTINUOUS
  5
687
 10
510.366376
 20
247.162736
 30
0.0
 40
1.0
 50
90.0
 51
180.0
  0
ARC
  8
LC-005-002-RND-0
  6
CONTINUOUS
  5
688
 10
330.366376
 20
247.162736
 30
0.0
 40
1.0
 50
0.0
 51
90.0
  0
LINE
  8
LC-003-002-----0
  6
CONTINUOUS
  5
689
 10
515.616376
 20
252.662736
 30
0.0
 11
514.616376
 21
250.930685
 31
0.0
  0
LINE
  8
LC-003-002-----0
  6
CONTINUOUS
  5
68A
 10
515.616376
 20
253.662736
 30
0.0
 11
515.616376
 21
252.662736
 31
0.0
  0
LINE
  8
LC-003-002-----0
  6
CONTINUOUS
  5
68B
 10
514.616376
 20
256.635605
 30
0.0
 11
514.616376
 21
254.662736
 31
0.0
  0
LINE
  8
LC-003-002-----0
  6
CONTINUOUS
  5
68C
 10
328.518465
 20
259.941066
 30
0.0
 11
328.518465
 21
252.256164
 31
0.0
  0
LINE
  8
LC-003-002-----0
  6
CONTINUOUS
  5
68D
 10
333.617083
 20
255.020694
 30
0.0
 11
333.617083
 21
240.785867
 31
0.0
  0
LINE
  8
LC-003-002-----0
  6
CONTINUOUS
  5
68E
 10
335.117083
 20
239.285867
 30
0.0
 11
341.709848
 21
239.285867
 31
0.0
  0
ARC
  8
LC-005-002-RND-0
  6
CONTINUOUS
  5
68F
 10
335.117083
 20
240.785867
 30
0.0
 40
1.5
 50
180.0
 51
270.0
  0
LINE
  8
LC-003-002-----0
  6
CONTINUOUS
  5
690
 10
331.617083
 20
251.106973
 30
0.0
 11
329.448709
 21
251.2586
 31
0.0
  0
ARC
  8
LC-005-002-RND-0
  6
CONTINUOUS
  5
691
 10
341.709848
 20
238.485867
 30
0.0
 40
0.8
 50
0.059159
 51
90.0
  0
LINE
  8
LC-003-002-----0
  6
CONTINUOUS
  5
692
 10
342.709848
 20
238.486693
 30
0.0
 11
342.509848
 21
238.486693
 31
0.0
  0
LINE
  8
LC-003-002-----0
  6
CONTINUOUS
  5
693
 10
342.709848
 20
236.486693
 30
0.0
 11
342.509848
 21
236.486693
 31
0.0
  0
ARC
  8
LC-003-002-----0
  6
CONTINUOUS
  5
694
 10
515.615729
 20
256.169952
 30
0.0
 40
0.999352
 50
180.0
 51
180.236759
  0
LINE
  8
LC-003-002-----0
  6
CONTINUOUS
  5
695
 10
514.616376
 20
254.662736
 30
0.0
 11
515.616376
 21
253.662736
 31
0.0
  0
LINE
  8
LC-003-002-----0
  6
CONTINUOUS
  5
696
 10
509.11567
 20
251.106973
 30
0.0
 11
511.284044
 21
251.2586
 31
0.0
  0
LINE
  8
LC-003-002-----0
  6
CONTINUOUS
  5
697
 10
501.268132
 20
227.587325
 30
0.0
 11
491.366376
 21
227.587325
 31
0.0
  0
ARC
  8
LC-003-002-----0
  6
CONTINUOUS
  5
698
 10
486.044893
 20
229.092162
 30
0.0
 40
1.499514
 50
90.0
 51
180.0
  0
LINE
  8
LC-003-002-----0
  6
CONTINUOUS
  5
699
 10
486.044893
 20
230.591676
 30
0.0
 11
496.223553
 21
230.591676
 31
0.0
  0
LINE
  8
LC-003-002-----0
  6
CONTINUOUS
  5
69A
 10
491.366376
 20
227.587325
 30
0.0
 11
487.866376
 21
224.087325
 31
0.0
  0
LINE
  8
LC-003-002-----0
  6
CONTINUOUS
  5
69B
 10
487.866376
 20
224.087325
 30
0.0
 11
487.866376
 21
221.087325
 31
0.0
  0
ARC
  8
LC-005-002-RND-0
  6
CONTINUOUS
  5
69C
 10
484.866376
 20
221.087325
 30
0.0
 40
3.0
 50
270.0
 51
0.0
  0
ARC
  8
LC-003-002-----0
  6
CONTINUOUS
  5
69D
 10
519.334335
 20
192.885368
 30
0.0
 40
29.5
 50
78.07248
 51
122.093408
  0
ARC
  8
LC-003-002-----0
  6
CONTINUOUS
  5
69E
 10
519.334335
 20
192.885368
 30
0.0
 40
29.5
 50
291.049054
 51
306.610955
  0
ARC
  8
LC-003-002-----0
  6
CONTINUOUS
  5
69F
 10
519.334335
 20
192.885368
 30
0.0
 40
29.5
 50
237.906592
 51
281.92752
  0
ARC
  8
LC-003-002-----0
  6
CONTINUOUS
  5
6A0
 10
519.334335
 20
192.885368
 30
0.0
 40
29.5
 50
53.389045
 51
68.950946
  0
LINE
  8
LC-003-002-----0
  6
CONTINUOUS
  5
6A1
 10
415.889186
 20
220.395914
 30
0.0
 11
481.846402
 21
220.395914
 31
0.0
  0
ARC
  8
LC-005-002-RND-0
  6
CONTINUOUS
  5
6A2
 10
511.214288
 20
252.256164
 30
0.0
 40
1.0
 50
274.0
 51
0.0
  0
LINE
  8
LC-003-002-----0
  6
CONTINUOUS
  5
6A3
 10
464.866376
 20
220.395914
 30
0.0
 11
464.866376
 21
171.118482
 31
0.0
  0
LINE
  8
LC-003-002-----0
  6
CONTINUOUS
  5
6A4
 10
481.866376
 20
166.151625
 30
0.0
 11
481.866376
 21
151.399462
 31
0.0
  0
LINE
  8
LC-003-002-----0
  6
CONTINUOUS
  5
6A5
 10
484.866376
 20
165.893468
 30
0.0
 11
484.866376
 21
152.399462
 31
0.0
  0
LINE
  8
LC-003-002-----0
  6
CONTINUOUS
  5
6A6
 10
462.866376
 20
220.395914
 30
0.0
 11
462.866376
 21
154.399462
 31
0.0
  0
LINE
  8
LC-003-002-----0
  6
CONTINUOUS
  5
6A7
 10
514.616376
 20
250.930685
 30
0.0
 11
514.616376
 21
250.662736
 31
0.0
  0
ARC
  8
LC-005-002-RND-0
  6
CONTINUOUS
  5
6A8
 10
486.866376
 20
165.893468
 30
0.0
 40
2.0
 50
90.0
 51
180.0
  0
LINE
  8
LC-009-207-----0
  6
CONTINUOUS
  5
6A9
 10
464.866376
 20
151.399462
 30
0.0
 11
483.866376
 21
151.399462
 31
0.0
  0
LINE
  8
LC-003-002-----0
  6
CONTINUOUS
  5
6AA
 10
301.366376
 20
260.864664
 30
0.0
 11
309.366376
 21
258.273136
 31
0.0
  0
LINE
  8
LC-003-002-----0
  6
CONTINUOUS
  5
6AB
 10
331.366376
 20
247.162736
 30
0.0
 11
331.366376
 21
240.868779
 31
0.0
  0
LINE
  8
LC-003-002-----0
  6
CONTINUOUS
  5
6AC
 10
509.11567
 20
257.38672
 30
0.0
 11
507.11567
 21
257.38672
 31
0.0
  0
LINE
  8
LC-003-002-----0
  6
CONTINUOUS
  5
6AD
 10
325.116376
 20
253.662736
 30
0.0
 11
325.116376
 21
252.662736
 31
0.0
  0
LINE
  8
LC-003-002-----0
  6
CONTINUOUS
  5
6AE
 10
326.116376
 20
254.662736
 30
0.0
 11
325.116376
 21
253.662736
 31
0.0
  0
LINE
  8
LC-003-002-----0
  6
CONTINUOUS
  5
6AF
 10
507.61567
 20
257.38672
 30
0.0
 11
507.61567
 21
255.88672
 31
0.0
  0
LINE
  8
LC-003-002-----0
  6
CONTINUOUS
  5
6B0
 10
349.366376
 20
227.587325
 30
0.0
 11
352.866376
 21
224.087325
 31
0.0
  0
LINE
  8
LC-003-002-----0
  6
CONTINUOUS
  5
6B1
 10
325.116376
 20
252.662736
 30
0.0
 11
326.116376
 21
250.930685
 31
0.0
  0
LINE
  8
LC-003-002-----0
  6
CONTINUOUS
  5
6B2
 10
507.61567
 20
255.88672
 30
0.0
 11
507.11567
 21
255.020694
 31
0.0
  0
ARC
  8
LC-005-002-RND-0
  6
CONTINUOUS
  5
6B3
 10
496.223553
 20
232.581031
 30
0.0
 40
1.999352
 50
270.0
 51
0.0
  0
LINE
  8
LC-003-002-----0
  6
CONTINUOUS
  5
6B4
 10
498.222905
 20
232.986693
 30
0.0
 11
498.222905
 21
232.581031
 31
0.0
  0
ARC
  8
LC-005-002-RND-0
  6
CONTINUOUS
  5
6B5
 10
498.022905
 20
233.786693
 30
0.0
 40
0.8
 50
180.0
 51
270.0
  0
LINE
  8
LC-003-002-----0
  6
CONTINUOUS
  5
6B6
 10
497.222905
 20
233.786693
 30
0.0
 11
497.222905
 21
234.186693
 31
0.0
  0
ARC
  8
LC-005-002-RND-0
  6
CONTINUOUS
  5
6B7
 10
498.022905
 20
234.186693
 30
0.0
 40
0.8
 50
90.0
 51
180.0
  0
LINE
  8
LC-003-002-----0
  6
CONTINUOUS
  5
6B8
 10
498.222905
 20
236.486693
 30
0.0
 11
498.222905
 21
234.986693
 31
0.0
  0
ARC
  8
LC-005-002-RND-0
  6
CONTINUOUS
  5
6B9
 10
498.022905
 20
237.286693
 30
0.0
 40
0.8
 50
180.0
 51
270.0
  0
LINE
  8
LC-003-002-----0
  6
CONTINUOUS
  5
6BA
 10
497.222905
 20
237.286693
 30
0.0
 11
497.222905
 21
237.686693
 31
0.0
  0
ARC
  8
LC-005-002-RND-0
  6
CONTINUOUS
  5
6BB
 10
498.022905
 20
237.686693
 30
0.0
 40
0.8
 50
90.0
 51
180.0
  0
ARC
  8
LC-005-002-RND-0
  6
CONTINUOUS
  5
6BC
 10
499.022905
 20
238.485867
 30
0.0
 40
0.8
 50
90.0
 51
179.940841
  0
ARC
  8
LC-010-207-RND-0
  6
CONTINUOUS
  5
6BD
 10
483.866376
 20
152.399462
 30
0.0
 40
1.0
 50
270.0
 51
0.0
  0
LINE
  8
LC-003-002-----0
  6
CONTINUOUS
  5
6BE
 10
350.089445
 20
174.099462
 30
0.0
 11
353.866376
 21
174.099462
 31
0.0
  0
LINE
  8
LC-003-002-----0
  6
CONTINUOUS
  5
6BF
 10
350.089445
 20
148.399462
 30
0.0
 11
348.839445
 21
148.399462
 31
0.0
  0
LINE
  8
LC-003-002-----0
  6
CONTINUOUS
  5
6C0
 10
350.089445
 20
148.399462
 30
0.0
 11
350.089445
 21
151.399462
 31
0.0
  0
LINE
  8
LC-003-002-----0
  6
CONTINUOUS
  5
6C1
 10
350.089445
 20
148.399462
 30
0.0
 11
349.589445
 21
148.399462
 31
0.0
  0
LINE
  8
LC-003-002-----0
  6
CONTINUOUS
  5
6C2
 10
350.089445
 20
177.099462
 30
0.0
 11
348.839445
 21
177.099462
 31
0.0
  0
LINE
  8
LC-003-002-----0
  6
CONTINUOUS
  5
6C3
 10
350.089445
 20
174.099462
 30
0.0
 11
350.089445
 21
177.099462
 31
0.0
  0
LINE
  8
LC-009-207-----0
  6
CONTINUOUS
  5
6C4
 10
350.089445
 20
151.399462
 30
0.0
 11
464.866376
 21
151.399462
 31
0.0
  0
LINE
  8
LC-009-207-----0
  6
CONTINUOUS
  5
6C5
 10
348.839445
 20
154.399462
 30
0.0
 11
385.105771
 21
154.399462
 31
0.0
  0
LINE
  8
LC-003-002-----0
  6
CONTINUOUS
  5
6C6
 10
348.839445
 20
171.899462
 30
0.0
 11
358.886316
 21
171.899462
 31
0.0
  0
LINE
  8
LC-003-002-----0
  6
CONTINUOUS
  5
6C7
 10
348.839445
 20
177.099462
 30
0.0
 11
348.839445
 21
171.899462
 31
0.0
  0
LINE
  8
LC-003-002-----0
  6
CONTINUOUS
  5
6C8
 10
512.116376
 20
260.102654
 30
0.0
 11
493.366376
 21
258.791526
 31
0.0
  0
LINE
  8
LC-003-002-----0
  6
CONTINUOUS
  5
6C9
 10
331.366591
 20
257.404236
 30
0.0
 11
341.366376
 21
256.704983
 31
0.0
  0
LINE
  8
LC-003-002-----0
  6
CONTINUOUS
  5
6CA
 10
489.613037
 20
240.103056
 30
0.0
 11
489.613037
 21
243.103056
 31
0.0
  0
LINE
  8
LC-003-002-----0
  6
CONTINUOUS
  5
6CB
 10
483.953656
 20
240.103056
 30
0.0
 11
483.953656
 21
243.103056
 31
0.0
  0
LINE
  8
LC-003-002-----0
  6
CONTINUOUS
  5
6CC
 10
493.366376
 20
258.791526
 30
0.0
 11
492.616376
 21
258.041526
 31
0.0
  0
LINE
  8
LC-003-002-----0
  6
CONTINUOUS
  5
6CD
 10
489.866376
 20
240.103056
 30
0.0
 11
489.866376
 21
243.103056
 31
0.0
  0
LINE
  8
LC-003-002-----0
  6
CONTINUOUS
  5
6CE
 10
492.616376
 20
243.103056
 30
0.0
 11
492.616376
 21
258.041526
 31
0.0
  0
LINE
  8
LC-003-002-----0
  6
CONTINUOUS
  5
6CF
 10
351.119716
 20
240.103056
 30
0.0
 11
351.119716
 21
243.103056
 31
0.0
  0
LINE
  8
LC-003-002-----0
  6
CONTINUOUS
  5
6D0
 10
356.779097
 20
240.103056
 30
0.0
 11
356.779097
 21
243.103056
 31
0.0
  0
LINE
  8
LC-003-002-----0
  6
CONTINUOUS
  5
6D1
 10
363.598522
 20
240.103056
 30
0.0
 11
363.598522
 21
243.103056
 31
0.0
  0
LINE
  8
LC-003-002-----0
  6
CONTINUOUS
  5
6D2
 10
379.324117
 20
240.103056
 30
0.0
 11
379.324117
 21
243.103056
 31
0.0
  0
LINE
  8
LC-003-002-----0
  6
CONTINUOUS
  5
6D3
 10
347.366376
 20
258.791526
 30
0.0
 11
348.116376
 21
258.041526
 31
0.0
  0
LINE
  8
LC-003-002-----0
  6
CONTINUOUS
  5
6D4
 10
376.056671
 20
240.103056
 30
0.0
 11
376.056671
 21
243.103056
 31
0.0
  0
LINE
  8
LC-003-002-----0
  6
CONTINUOUS
  5
6D5
 10
391.689517
 20
240.103056
 30
0.0
 11
391.689517
 21
243.103056
 31
0.0
  0
LINE
  8
LC-003-002-----0
  6
CONTINUOUS
  5
6D6
 10
350.866376
 20
240.103056
 30
0.0
 11
350.866376
 21
243.103056
 31
0.0
  0
LINE
  8
LC-003-002-----0
  6
CONTINUOUS
  5
6D7
 10
348.116376
 20
243.103056
 30
0.0
 11
348.116376
 21
258.041526
 31
0.0
  0
ARC
  8
LC-005-002-RND-0
  6
CONTINUOUS
  5
6D8
 10
498.366376
 20
241.103056
 30
0.0
 40
1.0
 50
270.0
 51
0.0
  0
LINE
  8
LC-003-002-----0
  6
CONTINUOUS
  5
6D9
 10
328.616376
 20
260.102654
 30
0.0
 11
329.616376
 21
253.103056
 31
0.0
  0
LINE
  8
LC-003-002-----0
  6
CONTINUOUS
  5
6DA
 10
330.789241
 20
253.103056
 30
0.0
 11
329.616376
 21
253.103056
 31
0.0
  0
LINE
  8
LC-003-002-----0
  6
CONTINUOUS
  5
6DB
 10
331.366591
 20
254.103056
 30
0.0
 11
330.789241
 21
253.103056
 31
0.0
  0
LINE
  8
LC-003-002-----0
  6
CONTINUOUS
  5
6DC
 10
331.366591
 20
254.103056
 30
0.0
 11
331.366591
 21
257.404236
 31
0.0
  0
ARC
  8
LC-005-002-RND-0
  6
CONTINUOUS
  5
6DD
 10
342.366376
 20
241.103056
 30
0.0
 40
1.0
 50
180.0
 51
270.0
  0
LINE
  8
LC-003-002-----0
  6
CONTINUOUS
  5
6DE
 10
342.366376
 20
240.103056
 30
0.0
 11
413.585432
 21
240.103056
 31
0.0
  0
LINE
  8
LC-003-002-----0
  6
CONTINUOUS
  5
6DF
 10
509.366162
 20
254.103056
 30
0.0
 11
509.943512
 21
253.103056
 31
0.0
  0
LINE
  8
LC-003-002-----0
  6
CONTINUOUS
  5
6E0
 10
341.366376
 20
241.103056
 30
0.0
 11
341.366376
 21
256.704983
 31
0.0
  0
LINE
  8
LC-003-002-----0
  6
CONTINUOUS
  5
6E1
 10
509.366162
 20
254.103056
 30
0.0
 11
509.366162
 21
257.404236
 31
0.0
  0
LINE
  8
LC-003-002-----0
  6
CONTINUOUS
  5
6E2
 10
498.366376
 20
240.103056
 30
0.0
 11
489.866376
 21
240.103056
 31
0.0
  0
LINE
  8
LC-003-002-----0
  6
CONTINUOUS
  5
6E3
 10
499.366376
 20
241.103056
 30
0.0
 11
499.366376
 21
256.704983
 31
0.0
  0
LINE
  8
LC-003-002-----0
  6
CONTINUOUS
  5
6E4
 10
509.540512
 20
253.103056
 30
0.0
 11
511.116376
 21
253.103056
 31
0.0
  0
LINE
  8
LC-003-002-----0
  6
CONTINUOUS
  5
6E5
 10
489.866376
 20
240.103056
 30
0.0
 11
479.519012
 21
240.103056
 31
0.0
  0
LINE
  8
LC-003-002-----0
  6
CONTINUOUS
  5
6E6
 10
489.866376
 20
243.103056
 30
0.0
 11
492.616376
 21
243.103056
 31
0.0
  0
LINE
  8
LC-003-002-----0
  6
CONTINUOUS
  5
6E7
 10
478.288329
 20
243.103056
 30
0.0
 11
489.866376
 21
243.103056
 31
0.0
  0
LINE
  8
LC-003-002-----0
  6
CONTINUOUS
  5
6E8
 10
391.689517
 20
243.103056
 30
0.0
 11
376.056671
 21
243.103056
 31
0.0
  0
LINE
  8
LC-003-002-----0
  6
CONTINUOUS
  5
6E9
 10
509.366162
 20
257.404236
 30
0.0
 11
499.366376
 21
256.704983
 31
0.0
  0
LINE
  8
LC-003-002-----0
  6
CONTINUOUS
  5
6EA
 10
363.598522
 20
243.103056
 30
0.0
 11
348.116376
 21
243.103056
 31
0.0
  0
LINE
  8
LC-003-002-----0
  6
CONTINUOUS
  5
6EB
 10
512.116376
 20
260.102654
 30
0.0
 11
511.116376
 21
253.103056
 31
0.0
  0
LINE
  8
LC-003-002-----0
  6
CONTINUOUS
  5
6EC
 10
328.616376
 20
260.102654
 30
0.0
 11
347.366376
 21
258.791526
 31
0.0
  0
LINE
  8
LC-003-002-----0
  6
CONTINUOUS
  5
6ED
 10
610.800991
 20
226.043059
 30
0.0
 11
661.055016
 21
212.577534
 31
0.0
  0
LINE
  8
LC-003-002-----0
  6
CONTINUOUS
  5
6EE
 10
578.140805
 20
215.655368
 30
0.0
 11
578.140805
 21
170.315368
 31
0.0
  0
LINE
  8
LC-003-002-----0
  6
CONTINUOUS
  5
6EF
 10
591.337799
 20
153.405437
 30
0.0
 11
641.591824
 21
139.939912
 31
0.0
  0
LINE
  8
LC-003-002-----0
  6
CONTINUOUS
  5
6F0
 10
599.364596
 20
216.114716
 30
0.0
 11
657.987081
 21
200.406868
 31
0.0
  0
LINE
  8
LC-003-002-----0
  6
CONTINUOUS
  5
6F1
 10
586.397762
 20
167.721832
 30
0.0
 11
645.020247
 21
152.013984
 31
0.0
  0
LINE
  8
LC-007-209-----0
  6
CONTINUOUS
 62
     1
  5
6F2
 10
578.140805
 20
215.655368
 30
0.0
 11
588.910533
 21
215.655368
 31
0.0
  0
LINE
  8
LC-007-209-----0
  6
CONTINUOUS
 62
     1
  5
6F3
 10
578.140805
 20
170.315368
 30
0.0
 11
588.145359
 21
170.315368
 31
0.0
  0
LINE
  8
LC-007-209-----0
  6
CONTINUOUS
 62
     1
  5
6F4
 10
582.920072
 20
167.985368
 30
0.0
 11
580.920512
 21
167.985368
 31
0.0
  0
LINE
  8
LC-007-209-----0
  6
CONTINUOUS
 62
     1
  5
6F5
 10
593.18157
 20
155.971931
 30
0.0
 11
586.397762
 21
167.721832
 31
0.0
  0
LINE
  8
LC-007-209-----0
  6
CONTINUOUS
 62
     1
  5
6F6
 10
641.591824
 20
139.939912
 30
0.0
 11
645.601661
 21
139.939912
 31
0.0
  0
ARC
  8
LC-007-209-----0
  6
CONTINUOUS
 62
     1
  5
6F7
 10
559.264335
 20
192.885368
 30
0.0
 40
33.0
 50
274.461598
 51
311.014567
  0
LINE
  8
LC-003-002-----0
  6
CONTINUOUS
  5
6F8
 10
588.910533
 20
215.655368
 30
0.0
 11
588.145359
 21
170.315368
 31
0.0
  0
LINE
  8
LC-007-209-----0
  6
CONTINUOUS
 62
     1
  5
6F9
 10
661.055016
 20
212.577534
 30
0.0
 11
664.527637
 21
210.572615
 31
0.0
  0
LINE
  8
LC-007-209-----0
  6
CONTINUOUS
 62
     1
  5
6FA
 10
610.800991
 20
226.043059
 30
0.0
 11
596.844661
 21
217.985368
 31
0.0
  0
LINE
  8
LC-007-209-----0
  6
CONTINUOUS
 62
     1
  5
6FB
 10
591.337799
 20
153.405437
 30
0.0
 11
582.920072
 21
167.985368
 31
0.0
  0
LINE
  8
LC-007-209-----0
  6
CONTINUOUS
 62
     1
  5
6FC
 10
664.278607
 20
209.643223
 30
0.0
 11
611.114497
 21
222.898524
 31
0.0
  0
LINE
  8
LC-007-209-----0
  6
CONTINUOUS
 62
     1
  5
6FD
 10
657.987081
 20
200.406868
 30
0.0
 11
661.292399
 21
198.498542
 31
0.0
  0
LINE
  8
LC-007-209-----0
  6
CONTINUOUS
 62
     1
  5
6FE
 10
645.020247
 20
152.013984
 30
0.0
 11
648.836899
 21
152.013984
 31
0.0
  0
LINE
  8
LC-007-209-----0
  6
CONTINUOUS
 62
     1
  5
6FF
 10
649.060439
 20
152.84825
 30
0.0
 11
588.145359
 21
170.315368
 31
0.0
  0
LINE
  8
LC-007-209-----0
  6
CONTINUOUS
 62
     1
  5
700
 10
596.844661
 20
217.985368
 30
0.0
 11
580.804995
 21
217.985368
 31
0.0
  0
LINE
  8
LC-007-209-----0
  6
CONTINUOUS
 62
     1
  5
701
 10
645.850691
 20
140.869304
 30
0.0
 11
593.153894
 21
155.979867
 31
0.0
  0
LINE
  8
LC-007-209-----0
  6
CONTINUOUS
 62
     1
  5
702
 10
661.068858
 20
197.664277
 30
0.0
 11
588.910533
 21
215.655368
 31
0.0
  0
LINE
  8
LC-007-209-----0
  6
CONTINUOUS
 62
     1
  5
703
 10
645.618343
 20
140.002169
 30
0.0
 11
648.836899
 21
152.013984
 31
0.0
  0
LINE
  8
LC-007-209-----0
  6
CONTINUOUS
 62
     1
  5
704
 10
611.114497
 20
222.898524
 30
0.0
 11
599.364596
 21
216.114716
 31
0.0
  0
LINE
  8
LC-003-002-----0
  6
CONTINUOUS
  5
705
 10
611.114497
 20
222.898524
 30
0.0
 11
608.61851
 21
213.583373
 31
0.0
  0
LINE
  8
LC-003-002-----0
  6
CONTINUOUS
  5
706
 10
595.677557
 20
165.287082
 30
0.0
 11
593.18157
 21
155.971931
 31
0.0
  0
LINE
  8
LC-003-002-----0
  6
CONTINUOUS
  5
707
 10
551.404995
 20
225.985368
 30
0.0
 11
561.831435
 21
225.985368
 31
0.0
  0
ARC
  8
LC-007-209-----0
  6
CONTINUOUS
 62
     1
  5
708
 10
559.264335
 20
193.085368
 30
0.0
 40
33.0
 50
48.985433
 51
85.538402
  0
LINE
  8
LC-003-002-----0
  6
CONTINUOUS
  5
709
 10
551.404995
 20
225.985368
 30
0.0
 11
551.404995
 21
222.70404
 31
0.0
  0
ARC
  8
LC-003-002-----0
  6
CONTINUOUS
  5
70A
 10
559.264335
 20
192.985368
 30
0.0
 40
29.5
 50
50.217104
 51
102.996787
  0
ARC
  8
LC-003-002-----0
  6
CONTINUOUS
  5
70B
 10
559.264335
 20
192.985368
 30
0.0
 40
29.5
 50
257.003213
 51
309.782896
  0
ARC
  8
LC-005-002-RND-0
  6
CONTINUOUS
  5
70C
 10
552.404995
 20
222.70404
 30
0.0
 40
1.0
 50
180.0
 51
282.996787
  0
ARC
  8
LC-005-002-RND-0
  6
CONTINUOUS
  5
70D
 10
552.404995
 20
163.266696
 30
0.0
 40
1.0
 50
77.003213
 51
180.0
  0
LINE
  8
LC-003-002-----0
  6
CONTINUOUS
  5
70E
 10
551.404995
 20
159.992183
 30
0.0
 11
551.404995
 21
163.266696
 31
0.0
  0
LINE
  8
LC-003-002-----0
  6
CONTINUOUS
  5
70F
 10
551.404995
 20
159.992183
 30
0.0
 11
561.831435
 21
159.992183
 31
0.0
  0
LINE
  8
LC-007-209-----0
  6
CONTINUOUS
 62
     1
  5
710
 10
648.836899
 20
152.013984
 30
0.0
 11
655.064649
 21
175.256263
 31
0.0
  0
LINE
  8
LC-007-209-----0
  6
CONTINUOUS
 62
     1
  5
711
 10
655.064649
 20
175.256263
 30
0.0
 11
664.527637
 21
210.572615
 31
0.0
  0
LINE
  8
LC-003-002-----0
  6
CONTINUOUS
  5
712
 10
551.404995
 20
192.988775
 30
0.0
 11
551.404995
 21
192.985368
 31
0.0
  0
LINE
  8
LC-003-002-----0
  6
CONTINUOUS
  5
713
 10
511.474995
 20
225.885368
 30
0.0
 11
511.474995
 21
222.70404
 31
0.0
  0
LINE
  8
LC-008-208-----0
  6
CONTINUOUS
 62
     1
  5
714
 10
540.874995
 20
217.885368
 30
0.0
 11
543.603876
 21
217.885368
 31
0.0
  0
LINE
  8
LC-008-208-----0
  6
CONTINUOUS
 62
     1
  5
715
 10
565.363199
 20
221.748041
 30
0.0
 11
565.363199
 21
217.885271
 31
0.0
  0
LINE
  8
LC-008-208-----0
  6
CONTINUOUS
 62
     1
  5
716
 10
565.363199
 20
217.885271
 30
0.0
 11
569.863199
 21
217.886145
 31
0.0
  0
LINE
  8
LC-008-208-----0
  6
CONTINUOUS
 62
     1
  5
717
 10
569.863199
 20
220.415608
 30
0.0
 11
569.863199
 21
217.886145
 31
0.0
  0
LINE
  8
LC-008-208-----0
  6
CONTINUOUS
 62
     1
  5
718
 10
576.863199
 20
216.560883
 30
0.0
 11
576.863199
 21
215.185368
 31
0.0
  0
LINE
  8
LC-008-208-----0
  6
CONTINUOUS
 62
     1
  5
719
 10
576.863199
 20
215.185368
 30
0.0
 11
538.646508
 21
215.185368
 31
0.0
  0
LINE
  8
LC-003-002-----0
  6
CONTINUOUS
  5
71A
 10
511.474995
 20
159.885368
 30
0.0
 11
519.334335
 21
159.885368
 31
0.0
  0
LINE
  8
LC-003-002-----0
  6
CONTINUOUS
  5
71B
 10
511.474995
 20
225.885368
 30
0.0
 11
519.334335
 21
225.885368
 31
0.0
  0
ARC
  8
LC-003-002-----0
  6
CONTINUOUS
  5
71C
 10
519.334335
 20
192.885368
 30
0.0
 40
33.0
 50
270.0
 51
310.749054
  0
LINE
  8
LC-003-002-----0
  6
CONTINUOUS
  5
71D
 10
511.474995
 20
159.885368
 30
0.0
 11
511.474995
 21
163.066696
 31
0.0
  0
LINE
  8
LC-003-002-----0
  6
CONTINUOUS
  5
71E
 10
576.863199
 20
216.560883
 30
0.0
 11
576.863199
 21
192.885368
 31
0.0
  0
ARC
  8
LC-003-002-----0
  6
CONTINUOUS
  5
71F
 10
519.334335
 20
192.885368
 30
0.0
 40
29.5
 50
257.003213
 51
310.89311
  0
LINE
  8
LC-008-208-----0
  6
CONTINUOUS
 62
     1
  5
720
 10
540.874995
 20
167.885368
 30
0.0
 11
543.603876
 21
167.885368
 31
0.0
  0
ARC
  8
LC-003-002-----0
  6
CONTINUOUS
  5
721
 10
559.264335
 20
192.885368
 30
0.0
 40
29.5
 50
78.068557
 51
122.063786
  0
LINE
  8
LC-008-208-----0
  6
CONTINUOUS
 62
     1
  5
722
 10
576.863199
 20
170.585368
 30
0.0
 11
538.646508
 21
170.585368
 31
0.0
  0
ARC
  8
LC-003-002-----0
  6
CONTINUOUS
  5
723
 10
559.264335
 20
192.885368
 30
0.0
 40
29.5
 50
237.936214
 51
281.931443
  0
LINE
  8
LC-008-208-----0
  6
CONTINUOUS
 62
     1
  5
724
 10
565.363199
 20
164.022696
 30
0.0
 11
565.363199
 21
167.885465
 31
0.0
  0
LINE
  8
LC-008-208-----0
  6
CONTINUOUS
 62
     1
  5
725
 10
565.363199
 20
167.885465
 30
0.0
 11
569.863199
 21
167.884591
 31
0.0
  0
LINE
  8
LC-008-208-----0
  6
CONTINUOUS
 62
     1
  5
726
 10
569.863199
 20
165.355129
 30
0.0
 11
569.863199
 21
167.884591
 31
0.0
  0
ARC
  8
LC-003-002-----0
  6
CONTINUOUS
  5
727
 10
559.264335
 20
192.885368
 30
0.0
 40
29.5
 50
53.375247
 51
68.943799
  0
ARC
  8
LC-003-002-----0
  6
CONTINUOUS
  5
728
 10
559.264335
 20
192.885368
 30
0.0
 40
29.5
 50
291.056201
 51
306.624753
  0
ARC
  8
LC-003-002-----0
  6
CONTINUOUS
  5
729
 10
519.334335
 20
192.885368
 30
0.0
 40
33.0
 50
49.250946
 51
90.0
  0
LINE
  8
LC-003-002-----0
  6
CONTINUOUS
  5
72A
 10
576.863199
 20
169.209853
 30
0.0
 11
576.863199
 21
192.885368
 31
0.0
  0
ARC
  8
LC-005-002-RND-0
  6
CONTINUOUS
  5
72B
 10
512.474995
 20
222.60404
 30
0.0
 40
1.0
 50
180.0
 51
282.996787
  0
ARC
  8
LC-005-002-RND-0
  6
CONTINUOUS
  5
72C
 10
512.474995
 20
163.166696
 30
0.0
 40
1.0
 50
77.003213
 51
180.0
  0
ARC
  8
LC-003-002-----0
  6
CONTINUOUS
  5
72D
 10
519.334335
 20
192.885368
 30
0.0
 40
29.5
 50
49.10689
 51
102.996787
  0
LINE
  8
LC-003-002-----0
  6
CONTINUOUS
  5
72E
 10
538.646508
 20
170.585368
 30
0.0
 11
538.646508
 21
215.185368
 31
0.0
  0
CIRCLE
  8
LC-003-002-----0
  6
CONTINUOUS
  5
72F
 10
567.613199
 20
219.885708
 30
0.0
 40
2.0
  0
CIRCLE
  8
LC-003-002-----0
  6
CONTINUOUS
  5
730
 10
527.680494
 20
165.893128
 30
0.0
 40
2.0
  0
CIRCLE
  8
LC-003-002-----0
  6
CONTINUOUS
  5
731
 10
527.680494
 20
219.877608
 30
0.0
 40
2.0
  0
CIRCLE
  8
LC-003-002-----0
  6
CONTINUOUS
  5
732
 10
567.613199
 20
165.885028
 30
0.0
 40
2.0
  0
LINE
  8
LC-003-002-----0
  6
CONTINUOUS
  5
733
 10
216.510091
 20
253.352788
 30
0.0
 11
216.510091
 21
191.352788
 31
0.0
  0
LINE
  8
LC-003-002-----0
  6
CONTINUOUS
  5
734
 10
216.510091
 20
191.352788
 30
0.0
 11
218.510091
 21
191.352788
 31
0.0
  0
LINE
  8
LC-003-002-----0
  6
CONTINUOUS
  5
735
 10
218.510091
 20
191.352788
 30
0.0
 11
218.510091
 21
197.352788
 31
0.0
  0
LINE
  8
LC-003-002-----0
  6
CONTINUOUS
  5
736
 10
218.510091
 20
197.352788
 30
0.0
 11
240.510091
 21
197.352788
 31
0.0
  0
LINE
  8
LC-003-002-----0
  6
CONTINUOUS
  5
737
 10
243.510091
 20
198.156635
 30
0.0
 11
243.510091
 21
246.54894
 31
0.0
  0
LINE
  8
LC-003-002-----0
  6
CONTINUOUS
  5
738
 10
240.510091
 20
247.352788
 30
0.0
 11
218.510091
 21
247.352788
 31
0.0
  0
LINE
  8
LC-003-002-----0
  6
CONTINUOUS
  5
739
 10
218.510091
 20
247.352788
 30
0.0
 11
218.510091
 21
253.352788
 31
0.0
  0
LINE
  8
LC-003-002-----0
  6
CONTINUOUS
  5
73A
 10
218.510091
 20
253.352788
 30
0.0
 11
216.510091
 21
253.352788
 31
0.0
  0
LINE
  8
LC-003-002-----0
  6
CONTINUOUS
  5
73B
 10
241.510091
 20
200.352788
 30
0.0
 11
241.510091
 21
244.352788
 31
0.0
  0
LINE
  8
LC-003-002-----0
  6
CONTINUOUS
  5
73C
 10
240.510091
 20
245.352788
 30
0.0
 11
216.510091
 21
245.352788
 31
0.0
  0
LINE
  8
LC-003-002-----0
  6
CONTINUOUS
  5
73D
 10
216.510091
 20
199.352788
 30
0.0
 11
240.510091
 21
199.352788
 31
0.0
  0
LINE
  8
LC-003-002-----0
  6
CONTINUOUS
  5
73E
 10
243.510091
 20
246.54894
 30
0.0
 11
240.510091
 21
247.352788
 31
0.0
  0
LINE
  8
LC-003-002-----0
  6
CONTINUOUS
  5
73F
 10
243.510091
 20
198.156635
 30
0.0
 11
240.510091
 21
197.352788
 31
0.0
  0
ARC
  8
LC-005-002-RND-0
  6
CONTINUOUS
  5
740
 10
240.510091
 20
244.352788
 30
0.0
 40
1.0
 50
0.0
 51
90.0
  0
ARC
  8
LC-005-002-RND-0
  6
CONTINUOUS
  5
741
 10
240.510091
 20
200.352788
 30
0.0
 40
1.0
 50
270.0
 51
0.0
  0
LINE
  8
LC-012-206-----0
  6
CONTINUOUS
  5
743
 10
340.610091
 20
197.152788
 30
0.0
 11
340.610091
 21
194.652788
 31
0.0
  0
LINE
  8
LC-012-206-----0
  6
CONTINUOUS
  5
744
 10
281.510091
 20
247.602788
 30
0.0
 11
235.010091
 21
247.602788
 31
0.0
  0
LINE
  8
LC-012-206-----0
  6
CONTINUOUS
  5
745
 10
291.510091
 20
174.863869
 30
0.0
 11
331.510091
 21
174.863869
 31
0.0
  0
LINE
  8
LC-012-206-----0
  6
CONTINUOUS
  5
746
 10
289.210091
 20
176.363869
 30
0.0
 11
289.210091
 21
178.363869
 31
0.0
  0
LINE
  8
LC-012-206-----0
  6
CONTINUOUS
  5
747
 10
218.510091
 20
250.102788
 30
0.0
 11
218.510091
 21
247.602788
 31
0.0
  0
LINE
  8
LC-012-206-----0
  6
CONTINUOUS
  5
748
 10
287.710091
 20
190.363936
 30
0.0
 11
285.060091
 21
190.363936
 31
0.0
  0
LINE
  8
LC-012-206-----0
  6
CONTINUOUS
  5
749
 10
225.010091
 20
252.602788
 30
0.0
 11
222.510091
 21
250.102788
 31
0.0
  0
LINE
  8
LC-012-206-----0
  6
CONTINUOUS
  5
74A
 10
222.510091
 20
250.102788
 30
0.0
 11
218.510091
 21
250.102788
 31
0.0
  0
LINE
  8
LC-012-206-----0
  6
CONTINUOUS
  5
74B
 10
289.210091
 20
193.652788
 30
0.0
 11
289.210091
 21
191.863936
 31
0.0
  0
ARC
  8
LC-012-206-----0
  6
CONTINUOUS
  5
74C
 10
289.510091
 20
195.152788
 30
0.0
 40
2.0
 50
0.0
 51
90.0
  0
ARC
  8
LC-012-206-----0
  6
CONTINUOUS
  5
74D
 10
288.210091
 20
193.652788
 30
0.0
 40
1.0
 50
0.0
 51
90.0
  0
ARC
  8
LC-012-206-----0
  6
CONTINUOUS
  5
74E
 10
287.710091
 20
191.863936
 30
0.0
 40
1.5
 50
270.0
 51
0.0
  0
LINE
  8
LC-012-206-----0
  6
CONTINUOUS
  5
74F
 10
291.510091
 20
195.152788
 30
0.0
 11
291.510091
 21
174.863869
 31
0.0
  0
LINE
  8
LC-012-206-----0
  6
CONTINUOUS
  5
750
 10
288.210091
 20
194.652788
 30
0.0
 11
237.510091
 21
194.652788
 31
0.0
  0
LINE
  8
LC-012-206-----0
  6
CONTINUOUS
  5
751
 10
334.456085
 20
197.152788
 30
0.0
 11
340.610091
 21
197.152788
 31
0.0
  0
LINE
  8
LC-012-206-----0
  6
CONTINUOUS
  5
752
 10
334.310091
 20
194.652788
 30
0.0
 11
340.610091
 21
194.652788
 31
0.0
  0
LINE
  8
LC-012-206-----0
  6
CONTINUOUS
  5
753
 10
285.060091
 20
187.863936
 30
0.0
 11
288.210091
 21
187.863936
 31
0.0
  0
ARC
  8
LC-012-206-----0
  6
CONTINUOUS
  5
754
 10
334.456085
 20
197.652788
 30
0.0
 40
0.5
 50
180.054053
 51
270.0
  0
ARC
  8
LC-012-206-----0
  6
CONTINUOUS
  5
755
 10
290.710091
 20
176.363869
 30
0.0
 40
1.5
 50
180.0
 51
270.0
  0
LINE
  8
LC-012-206-----0
  6
CONTINUOUS
  5
756
 10
222.510091
 20
194.602788
 30
0.0
 11
225.010091
 21
192.102788
 31
0.0
  0
LINE
  8
LC-003-002-----0
  6
CONTINUOUS
  5
757
 10
227.313645
 20
192.499234
 30
0.0
 11
222.710091
 21
197.102788
 31
0.0
  0
ARC
  8
LC-012-206-----0
  6
CONTINUOUS
  5
758
 10
281.456108
 20
197.602788
 30
0.0
 40
52.5
 50
0.054053
 51
17.036286
  0
ARC
  8
LC-012-206-----0
  6
CONTINUOUS
  5
759
 10
332.310091
 20
176.363869
 30
0.0
 40
1.5
 50
270.0
 51
0.0
  0
LINE
  8
LC-012-206-----0
  6
CONTINUOUS
  5
75A
 10
331.510091
 20
174.863869
 30
0.0
 11
332.310091
 21
174.863869
 31
0.0
  0
LINE
  8
LC-012-206-----0
  6
CONTINUOUS
  5
75B
 10
333.810091
 20
176.363869
 30
0.0
 11
333.810091
 21
178.363869
 31
0.0
  0
LINE
  8
LC-012-206-----0
  6
CONTINUOUS
  5
75C
 10
331.510091
 20
197.602788
 30
0.0
 11
331.510091
 21
174.863869
 31
0.0
  0
LINE
  8
LC-012-206-----0
  6
CONTINUOUS
  5
75D
 10
337.960091
 20
187.863936
 30
0.0
 11
334.810091
 21
187.863936
 31
0.0
  0
LINE
  8
LC-003-002-----0
  6
CONTINUOUS
  5
75E
 10
227.313645
 20
252.206341
 30
0.0
 11
222.710091
 21
247.602788
 31
0.0
  0
ARC
  8
LC-012-206-----0
  6
CONTINUOUS
  5
75F
 10
337.960091
 20
188.363936
 30
0.0
 40
0.5
 50
270.0
 51
0.0
  0
ARC
  8
LC-012-206-----0
  6
CONTINUOUS
  5
760
 10
337.960091
 20
189.863936
 30
0.0
 40
0.5
 50
0.0
 51
90.0
  0
LINE
  8
LC-012-206-----0
  6
CONTINUOUS
  5
761
 10
335.310091
 20
190.363936
 30
0.0
 11
337.960091
 21
190.363936
 31
0.0
  0
ARC
  8
LC-012-206-----0
  6
CONTINUOUS
  5
762
 10
281.456108
 20
197.602788
 30
0.0
 40
52.5
 50
17.036286
 51
90.0
  0
ARC
  8
LC-012-206-----0
  6
CONTINUOUS
  5
763
 10
335.310091
 20
191.863936
 30
0.0
 40
1.5
 50
180.0
 51
270.0
  0
ARC
  8
LC-012-206-----0
  6
CONTINUOUS
  5
764
 10
281.510091
 20
197.602788
 30
0.0
 40
50.0
 50
0.0
 51
90.0
  0
LINE
  8
LC-012-206-----0
  6
CONTINUOUS
  5
765
 10
338.460091
 20
189.863936
 30
0.0
 11
338.460091
 21
188.363936
 31
0.0
  0
LINE
  8
LC-012-206-----0
  6
CONTINUOUS
  5
766
 10
291.510091
 20
174.863869
 30
0.0
 11
290.710091
 21
174.863869
 31
0.0
  0
ARC
  8
LC-012-206-----0
  6
CONTINUOUS
  5
767
 10
285.060091
 20
188.363936
 30
0.0
 40
0.5
 50
180.0
 51
270.0
  0
ARC
  8
LC-012-206-----0
  6
CONTINUOUS
  5
768
 10
285.060091
 20
189.863936
 30
0.0
 40
0.5
 50
90.0
 51
180.0
  0
LINE
  8
LC-012-206-----0
  6
CONTINUOUS
  5
769
 10
284.560091
 20
189.863936
 30
0.0
 11
284.560091
 21
188.363936
 31
0.0
  0
ARC
  8
LC-012-206-----0
  6
CONTINUOUS
  5
76A
 10
334.310091
 20
194.152788
 30
0.0
 40
0.5
 50
90.0
 51
180.0
  0
LINE
  8
LC-012-206-----0
  6
CONTINUOUS
  5
76B
 10
333.810091
 20
194.152788
 30
0.0
 11
333.810091
 21
191.863936
 31
0.0
  0
ARC
  8
LC-012-206-----0
  6
CONTINUOUS
  5
76C
 10
227.667198
 20
251.852788
 30
0.0
 40
0.5
 50
90.0
 51
135.0
  0
LINE
  8
LC-012-206-----0
  6
CONTINUOUS
  5
76D
 10
234.510091
 20
252.352788
 30
0.0
 11
227.667198
 21
252.352788
 31
0.0
  0
LINE
  8
LC-012-206-----0
  6
CONTINUOUS
  5
76E
 10
236.010091
 20
254.852788
 30
0.0
 11
226.010091
 21
254.852788
 31
0.0
  0
LINE
  8
LC-012-206-----0
  6
CONTINUOUS
  5
76F
 10
222.710091
 20
247.602788
 30
0.0
 11
218.510091
 21
247.602788
 31
0.0
  0
LINE
  8
LC-012-206-----0
  6
CONTINUOUS
  5
770
 10
237.510091
 20
250.102788
 30
0.0
 11
281.456108
 21
250.102788
 31
0.0
  0
ARC
  8
LC-012-206-----0
  6
CONTINUOUS
  5
771
 10
226.010091
 20
253.852788
 30
0.0
 40
1.0
 50
90.0
 51
180.0
  0
ARC
  8
LC-012-206-----0
  6
CONTINUOUS
  5
772
 10
236.010091
 20
253.852788
 30
0.0
 40
1.0
 50
0.0
 51
90.0
  0
ARC
  8
LC-012-206-----0
  6
CONTINUOUS
  5
773
 10
237.510091
 20
250.602788
 30
0.0
 40
0.5
 50
180.0
 51
270.0
  0
ARC
  8
LC-012-206-----0
  6
CONTINUOUS
  5
774
 10
234.510091
 20
251.852788
 30
0.0
 40
0.5
 50
0.0
 51
90.0
  0
LINE
  8
LC-012-206-----0
  6
CONTINUOUS
  5
775
 10
235.010091
 20
251.852788
 30
0.0
 11
235.010091
 21
247.602788
 31
0.0
  0
LINE
  8
LC-012-206-----0
  6
CONTINUOUS
  5
776
 10
237.010091
 20
253.852788
 30
0.0
 11
237.010091
 21
250.602788
 31
0.0
  0
LINE
  8
LC-012-206-----0
  6
CONTINUOUS
  5
777
 10
225.010091
 20
253.852788
 30
0.0
 11
225.010091
 21
252.602788
 31
0.0
  0
LINE
  8
LC-012-206-----0
  6
CONTINUOUS
  5
778
 10
289.510091
 20
197.102788
 30
0.0
 11
235.010091
 21
197.102788
 31
0.0
  0
LINE
  8
LC-012-206-----0
  6
CONTINUOUS
  5
779
 10
218.510091
 20
194.602788
 30
0.0
 11
218.510091
 21
197.102788
 31
0.0
  0
LINE
  8
LC-012-206-----0
  6
CONTINUOUS
  5
77A
 10
218.510091
 20
194.602788
 30
0.0
 11
222.510091
 21
194.602788
 31
0.0
  0
ARC
  8
LC-012-206-----0
  6
CONTINUOUS
  5
77B
 10
227.667198
 20
192.852788
 30
0.0
 40
0.5
 50
225.0
 51
270.0
  0
LINE
  8
LC-012-206-----0
  6
CONTINUOUS
  5
77C
 10
234.510091
 20
192.352788
 30
0.0
 11
227.667198
 21
192.352788
 31
0.0
  0
LINE
  8
LC-012-206-----0
  6
CONTINUOUS
  5
77D
 10
236.010091
 20
189.852788
 30
0.0
 11
226.010091
 21
189.852788
 31
0.0
  0
LINE
  8
LC-012-206-----0
  6
CONTINUOUS
  5
77E
 10
222.710091
 20
197.102788
 30
0.0
 11
218.510091
 21
197.102788
 31
0.0
  0
LINE
  8
LC-003-002-----0
  6
CONTINUOUS
  5
77F
 10
286.510091
 20
179.363869
 30
0.0
 11
287.510091
 21
178.363869
 31
0.0
  0
ARC
  8
LC-012-206-----0
  6
CONTINUOUS
  5
780
 10
226.010091
 20
190.852788
 30
0.0
 40
1.0
 50
180.0
 51
270.0
  0
ARC
  8
LC-012-206-----0
  6
CONTINUOUS
  5
781
 10
236.010091
 20
190.852788
 30
0.0
 40
1.0
 50
270.0
 51
0.0
  0
ARC
  8
LC-012-206-----0
  6
CONTINUOUS
  5
782
 10
237.510091
 20
194.152788
 30
0.0
 40
0.5
 50
90.0
 51
180.0
  0
ARC
  8
LC-012-206-----0
  6
CONTINUOUS
  5
783
 10
234.510091
 20
192.852788
 30
0.0
 40
0.5
 50
270.0
 51
0.0
  0
LINE
  8
LC-012-206-----0
  6
CONTINUOUS
  5
784
 10
235.010091
 20
192.852788
 30
0.0
 11
235.010091
 21
197.102788
 31
0.0
  0
LINE
  8
LC-012-206-----0
  6
CONTINUOUS
  5
785
 10
237.010091
 20
190.852788
 30
0.0
 11
237.010091
 21
194.152788
 31
0.0
  0
LINE
  8
LC-012-206-----0
  6
CONTINUOUS
  5
786
 10
225.010091
 20
192.102788
 30
0.0
 11
225.010091
 21
190.852788
 31
0.0
  0
LINE
  8
LC-003-002-----0
  6
CONTINUOUS
  5
787
 10
336.510091
 20
179.363869
 30
0.0
 11
335.510091
 21
178.363869
 31
0.0
  0
LINE
  8
LC-003-002-----0
  6
CONTINUOUS
  5
788
 10
287.510091
 20
178.363869
 30
0.0
 11
289.210091
 21
178.363869
 31
0.0
  0
LINE
  8
LC-003-002-----0
  6
CONTINUOUS
  5
789
 10
286.510091
 20
180.863869
 30
0.0
 11
286.510091
 21
179.363869
 31
0.0
  0
LINE
  8
LC-003-002-----0
  6
CONTINUOUS
  5
78A
 10
286.510091
 20
180.863869
 30
0.0
 11
289.210091
 21
180.863869
 31
0.0
  0
LINE
  8
LC-003-002-----0
  6
CONTINUOUS
  5
78B
 10
335.510091
 20
178.363869
 30
0.0
 11
333.810091
 21
178.363869
 31
0.0
  0
LINE
  8
LC-003-002-----0
  6
CONTINUOUS
  5
78C
 10
336.510091
 20
180.863869
 30
0.0
 11
336.510091
 21
179.363869
 31
0.0
  0
LINE
  8
LC-003-002-----0
  6
CONTINUOUS
  5
78D
 10
336.510091
 20
180.863869
 30
0.0
 11
333.810091
 21
180.863869
 31
0.0
  0
LINE
  8
LC-012-206-----0
  6
CONTINUOUS
  5
78E
 10
333.810091
 20
186.863936
 30
0.0
 11
333.810091
 21
180.863869
 31
0.0
  0
LINE
  8
LC-012-206-----0
  6
CONTINUOUS
  5
78F
 10
289.210091
 20
186.863936
 30
0.0
 11
289.210091
 21
180.863869
 31
0.0
  0
LINE
  8
LC-012-206-----0
  6
CONTINUOUS
  5
790
 10
288.210091
 20
187.863936
 30
0.0
 11
289.210091
 21
186.863936
 31
0.0
  0
LINE
  8
LC-012-206-----0
  6
CONTINUOUS
  5
791
 10
334.810091
 20
187.863936
 30
0.0
 11
333.810091
 21
186.863936
 31
0.0
  0
LINE
  8
LC-003-002-----0
  6
CONTINUOUS
  5
792
 10
296.510091
 20
154.754611
 30
0.0
 11
348.839445
 21
154.754611
 31
0.0
  0
LINE
  8
LC-003-002-----0
  6
CONTINUOUS
  5
793
 10
296.510091
 20
151.754667
 30
0.0
 11
311.510091
 21
151.754667
 31
0.0
  0
LINE
  8
LC-003-002-----0
  6
CONTINUOUS
  5
794
 10
282.395277
 20
194.153065
 30
0.0
 11
282.055534
 21
174.689183
 31
0.0
  0
LINE
  8
LC-003-002-----0
  6
CONTINUOUS
  5
795
 10
285.910568
 20
190.98359
 30
0.0
 11
285.910568
 21
192.152834
 31
0.0
  0
LINE
  8
LC-003-002-----0
  6
CONTINUOUS
  5
796
 10
338.609587
 20
176.124992
 30
0.0
 11
338.609587
 21
190.852858
 31
0.0
  0
LINE
  8
LC-003-002-----0
  6
CONTINUOUS
  5
797
 10
284.410595
 20
190.852858
 30
0.0
 11
285.90486
 21
190.98359
 31
0.0
  0
LINE
  8
LC-003-002-----0
  6
CONTINUOUS
  5
798
 10
283.410614
 20
194.652788
 30
0.0
 11
282.910623
 21
194.652788
 31
0.0
  0
LINE
  8
LC-003-002-----0
  6
CONTINUOUS
  5
799
 10
337.109615
 20
192.152834
 30
0.0
 11
339.609569
 21
194.652788
 31
0.0
  0
LINE
  8
LC-003-002-----0
  6
CONTINUOUS
  5
79A
 10
337.109615
 20
190.984089
 30
0.0
 11
337.109615
 21
192.152834
 31
0.0
  0
LINE
  8
LC-003-002-----0
  6
CONTINUOUS
  5
79B
 10
338.609587
 20
190.852858
 30
0.0
 11
337.109615
 21
190.984089
 31
0.0
  0
LINE
  8
LC-003-002-----0
  6
CONTINUOUS
  5
79C
 10
340.624758
 20
194.161514
 30
0.0
 11
340.972567
 21
174.235531
 31
0.0
  0
ARC
  8
LC-003-002-----0
  6
CONTINUOUS
  5
79D
 10
282.910623
 20
194.152797
 30
0.0
 40
0.499991
 50
90.0
 51
180.0
  0
LINE
  8
LC-003-002-----0
  6
CONTINUOUS
  5
79E
 10
284.410595
 20
176.124992
 30
0.0
 11
284.410595
 21
190.852858
 31
0.0
  0
LINE
  8
LC-003-002-----0
  6
CONTINUOUS
  5
79F
 10
339.609569
 20
194.652788
 30
0.0
 11
340.124834
 21
194.652788
 31
0.0
  0
LINE
  8
LC-003-002-----0
  6
CONTINUOUS
  5
7A0
 10
311.510091
 20
151.754667
 30
0.0
 11
346.739445
 21
151.754667
 31
0.0
  0
LINE
  8
LC-003-002-----0
  6
CONTINUOUS
  5
7A1
 10
285.910568
 20
192.152834
 30
0.0
 11
283.410614
 21
194.652788
 31
0.0
  0
LINE
  8
LC-003-002-----0
  6
CONTINUOUS
  5
7A2
 10
348.839445
 20
149.754667
 30
0.0
 11
348.839445
 21
175.74422
 31
0.0
  0
LINE
  8
LC-003-002-----0
  6
CONTINUOUS
  5
7A3
 10
331.510091
 20
170.744313
 30
0.0
 11
348.839445
 21
170.744313
 31
0.0
  0
LINE
  8
LC-003-002-----0
  6
CONTINUOUS
  5
7A4
 10
348.839445
 20
174.741242
 30
0.0
 11
348.839445
 21
175.185014
 31
0.0
  0
LINE
  8
LC-003-002-----0
  6
CONTINUOUS
  5
7A5
 10
284.055229
 20
172.654278
 30
0.0
 11
285.510091
 21
172.654278
 31
0.0
  0
LINE
  8
LC-003-002-----0
  6
CONTINUOUS
  5
7A6
 10
348.839445
 20
154.754629
 30
0.0
 11
348.839445
 21
170.744313
 31
0.0
  0
LINE
  8
LC-003-002-----0
  6
CONTINUOUS
  5
7A7
 10
348.239445
 20
175.74422
 30
0.0
 11
348.839445
 21
175.74422
 31
0.0
  0
LINE
  8
LC-003-002-----0
  6
CONTINUOUS
  5
7A8
 10
291.510091
 20
174.352788
 30
0.0
 11
291.510091
 21
159.754611
 31
0.0
  0
LINE
  8
LC-003-002-----0
  6
CONTINUOUS
  5
7A9
 10
289.110091
 20
174.352788
 30
0.0
 11
333.910091
 21
174.352788
 31
0.0
  0
LINE
  8
LC-003-002-----0
  6
CONTINUOUS
  5
7AA
 10
333.910091
 20
176.124992
 30
0.0
 11
333.910091
 21
174.352788
 31
0.0
  0
LINE
  8
LC-003-002-----0
  6
CONTINUOUS
  5
7AB
 10
333.910091
 20
176.124992
 30
0.0
 11
338.609587
 21
176.124992
 31
0.0
  0
LINE
  8
LC-003-002-----0
  6
CONTINUOUS
  5
7AC
 10
331.510091
 20
174.352788
 30
0.0
 11
331.510091
 21
170.744313
 31
0.0
  0
LINE
  8
LC-003-002-----0
  6
CONTINUOUS
  5
7AD
 10
347.739445
 20
174.744258
 30
0.0
 11
347.739445
 21
175.24422
 31
0.0
  0
LINE
  8
LC-003-002-----0
  6
CONTINUOUS
  5
7AE
 10
289.110091
 20
176.124992
 30
0.0
 11
289.110091
 21
174.352788
 31
0.0
  0
LINE
  8
LC-003-002-----0
  6
CONTINUOUS
  5
7AF
 10
288.510091
 20
169.654278
 30
0.0
 11
288.510091
 21
159.754667
 31
0.0
  0
LINE
  8
LC-003-002-----0
  6
CONTINUOUS
  5
7B0
 10
289.110091
 20
176.124992
 30
0.0
 11
284.410595
 21
176.124992
 31
0.0
  0
ARC
  8
LC-005-002-RND-0
  6
CONTINUOUS
  5
7B1
 10
284.055229
 20
174.654278
 30
0.0
 40
2.0
 50
179.0
 51
270.0
  0
ARC
  8
LC-005-002-RND-0
  6
CONTINUOUS
  5
7B2
 10
285.510091
 20
169.654278
 30
0.0
 40
3.0
 50
0.0
 51
90.0
  0
ARC
  8
LC-005-002-RND-0
  6
CONTINUOUS
  5
7B3
 10
296.510091
 20
159.754611
 30
0.0
 40
5.0
 50
180.0
 51
270.0
  0
ARC
  8
LC-005-002-RND-0
  6
CONTINUOUS
  5
7B4
 10
296.510091
 20
159.754667
 30
0.0
 40
8.0
 50
180.0
 51
270.0
  0
LINE
  8
LC-003-002-----0
  6
CONTINUOUS
  5
7B5
 10
347.739445
 20
150.754667
 30
0.0
 11
347.739445
 21
150.254667
 31
0.0
  0
LINE
  8
LC-003-002-----0
  6
CONTINUOUS
  5
7B6
 10
348.239445
 20
149.754667
 30
0.0
 11
348.839445
 21
149.754667
 31
0.0
  0
ARC
  8
LC-005-002-RND-0
  6
CONTINUOUS
  5
7B7
 10
346.739445
 20
150.754667
 30
0.0
 40
1.0
 50
0.0
 51
90.0
  0
ARC
  8
LC-005-002-RND-0
  6
CONTINUOUS
  5
7B8
 10
348.239445
 20
150.254667
 30
0.0
 40
0.5
 50
180.0
 51
270.0
  0
ARC
  8
LC-005-002-RND-0
  6
CONTINUOUS
  5
7B9
 10
340.124834
 20
194.152788
 30
0.0
 40
0.5
 50
1.0
 51
90.0
  0
LINE
  8
LC-003-002-----0
  6
CONTINUOUS
  5
7BA
 10
341.472491
 20
173.744258
 30
0.0
 11
346.739445
 21
173.744258
 31
0.0
  0
ARC
  8
LC-005-002-RND-0
  6
CONTINUOUS
  5
7BB
 10
348.239445
 20
175.24422
 30
0.0
 40
0.5
 50
90.0
 51
180.0
  0
ARC
  8
LC-005-002-RND-0
  6
CONTINUOUS
  5
7BC
 10
346.739445
 20
174.744258
 30
0.0
 40
1.0
 50
270.0
 51
0.0
  0
ARC
  8
LC-005-002-RND-0
  6
CONTINUOUS
  5
7BD
 10
341.472491
 20
174.244258
 30
0.0
 40
0.5
 50
181.0
 51
270.0
  0
LINE
  8
LC-003-002-----0
  6
DASHDOT
 62
     2
  5
7BE
 10
311.510091
 20
192.352788
 30
0.0
 11
311.510091
 21
174.863869
 31
0.0
  0
LINE
  8
LC-003-002-----0
  6
DASHDOT
 62
     2
  5
7BF
 10
281.510091
 20
222.352788
 30
0.0
 11
218.510091
 21
222.352788
 31
0.0
  0
LINE
  8
LC-001-205-----0
  6
CONTINUOUS
  5
7C0
 10
392.105771
 20
170.370768
 30
0.0
 11
408.227683
 21
170.370768
 31
0.0
  0
LINE
  8
LC-006-005-----0
  6
CONTINUOUS
  5
7C1
 10
355.875664
 20
171.899462
 30
0.0
 11
358.866376
 21
174.890174
 31
0.0
  0
LINE
  8
LC-006-005-----0
  6
CONTINUOUS
  5
7C2
 10
353.047237
 20
171.899462
 30
0.0
 11
358.866376
 21
177.718601
 31
0.0
  0
LINE
  8
LC-006-005-----0
  6
CONTINUOUS
  5
7C3
 10
350.21881
 20
171.899462
 30
0.0
 11
352.41881
 21
174.099462
 31
0.0
  0
LINE
  8
LC-006-005-----0
  6
CONTINUOUS
  5
7C4
 10
355.866376
 20
177.547028
 30
0.0
 11
358.866376
 21
180.547028
 31
0.0
  0
LINE
  8
LC-006-005-----0
  6
CONTINUOUS
  5
7C5
 10
348.839445
 20
173.348524
 30
0.0
 11
350.089445
 21
174.598524
 31
0.0
  0
LINE
  8
LC-006-005-----0
  6
CONTINUOUS
  5
7C6
 10
355.866376
 20
180.375455
 30
0.0
 11
358.866376
 21
183.375455
 31
0.0
  0
LINE
  8
LC-006-005-----0
  6
CONTINUOUS
  5
7C7
 10
348.839445
 20
176.176951
 30
0.0
 11
349.761956
 21
177.099462
 31
0.0
  0
LINE
  8
LC-006-005-----0
  6
CONTINUOUS
  5
7C8
 10
355.866376
 20
183.203883
 30
0.0
 11
358.866376
 21
186.203883
 31
0.0
  0
LINE
  8
LC-006-005-----0
  6
CONTINUOUS
  5
7C9
 10
355.866376
 20
186.03231
 30
0.0
 11
358.866376
 21
189.03231
 31
0.0
  0
LINE
  8
LC-006-005-----0
  6
CONTINUOUS
  5
7CA
 10
355.866376
 20
188.860737
 30
0.0
 11
358.866376
 21
191.860737
 31
0.0
  0
LINE
  8
LC-006-005-----0
  6
CONTINUOUS
  5
7CB
 10
355.866376
 20
191.689164
 30
0.0
 11
358.866376
 21
194.689164
 31
0.0
  0
LINE
  8
LC-006-005-----0
  6
CONTINUOUS
  5
7CC
 10
355.866376
 20
194.517591
 30
0.0
 11
358.866376
 21
197.517591
 31
0.0
  0
LINE
  8
LC-006-005-----0
  6
CONTINUOUS
  5
7CD
 10
355.866376
 20
197.346018
 30
0.0
 11
358.866376
 21
200.346018
 31
0.0
  0
LINE
  8
LC-006-005-----0
  6
CONTINUOUS
  5
7CE
 10
355.866376
 20
200.174445
 30
0.0
 11
358.866376
 21
203.174445
 31
0.0
  0
LINE
  8
LC-006-005-----0
  6
CONTINUOUS
  5
7CF
 10
355.866376
 20
203.002872
 30
0.0
 11
358.866376
 21
206.002872
 31
0.0
  0
LINE
  8
LC-006-005-----0
  6
CONTINUOUS
  5
7D0
 10
355.866376
 20
205.8313
 30
0.0
 11
358.866376
 21
208.8313
 31
0.0
  0
LINE
  8
LC-006-005-----0
  6
CONTINUOUS
  5
7D1
 10
355.866376
 20
208.659727
 30
0.0
 11
358.866376
 21
211.659727
 31
0.0
  0
LINE
  8
LC-006-005-----0
  6
CONTINUOUS
  5
7D2
 10
355.866376
 20
211.488154
 30
0.0
 11
358.866376
 21
214.488154
 31
0.0
  0
LINE
  8
LC-006-005-----0
  6
CONTINUOUS
  5
7D3
 10
355.866376
 20
214.316581
 30
0.0
 11
358.866376
 21
217.316581
 31
0.0
  0
LINE
  8
LC-006-005-----0
  6
CONTINUOUS
  5
7D4
 10
355.866376
 20
217.145008
 30
0.0
 11
358.866376
 21
220.145008
 31
0.0
  0
LINE
  8
LC-006-005-----0
  6
CONTINUOUS
  5
7D5
 10
354.376418
 20
218.483477
 30
0.0
 11
356.332114
 21
220.439172
 31
0.0
  0
LINE
  8
LC-006-005-----0
  6
CONTINUOUS
  5
7D6
 10
353.068724
 20
220.004209
 30
0.0
 11
356.187373
 21
223.122859
 31
0.0
  0
LINE
  8
LC-006-005-----0
  6
CONTINUOUS
  5
7D7
 10
352.866376
 20
222.630289
 30
0.0
 11
356.187373
 21
225.951287
 31
0.0
  0
LINE
  8
LC-006-005-----0
  6
CONTINUOUS
  5
7D8
 10
352.18068
 20
224.773021
 30
0.0
 11
356.187373
 21
228.779714
 31
0.0
  0
LINE
  8
LC-006-005-----0
  6
CONTINUOUS
  5
7D9
 10
350.766467
 20
226.187234
 30
0.0
 11
355.110203
 21
230.53097
 31
0.0
  0
LINE
  8
LC-006-005-----0
  6
CONTINUOUS
  5
7DA
 10
349.33813
 20
227.587325
 30
0.0
 11
352.342482
 21
230.591676
 31
0.0
  0
LINE
  8
LC-006-005-----0
  6
CONTINUOUS
  5
7DB
 10
346.509703
 20
227.587325
 30
0.0
 11
349.514054
 21
230.591676
 31
0.0
  0
LINE
  8
LC-006-005-----0
  6
CONTINUOUS
  5
7DC
 10
343.681276
 20
227.587325
 30
0.0
 11
346.685627
 21
230.591676
 31
0.0
  0
LINE
  8
LC-006-005-----0
  6
CONTINUOUS
  5
7DD
 10
340.852849
 20
227.587325
 30
0.0
 11
343.932256
 21
230.666731
 31
0.0
  0
LINE
  8
LC-006-005-----0
  6
CONTINUOUS
  5
7DE
 10
338.270595
 20
227.833498
 30
0.0
 11
342.562465
 21
232.125368
 31
0.0
  0
LINE
  8
LC-006-005-----0
  6
CONTINUOUS
  5
7DF
 10
336.803748
 20
229.195079
 30
0.0
 11
342.595363
 21
234.986693
 31
0.0
  0
LINE
  8
LC-006-005-----0
  6
CONTINUOUS
  5
7E0
 10
335.904897
 20
231.124654
 30
0.0
 11
343.140885
 21
238.360642
 31
0.0
  0
LINE
  8
LC-006-005-----0
  6
CONTINUOUS
  5
7E1
 10
335.006122
 20
233.054307
 30
0.0
 11
341.237682
 21
239.285867
 31
0.0
  0
LINE
  8
LC-006-005-----0
  6
CONTINUOUS
  5
7E2
 10
334.107348
 20
234.98396
 30
0.0
 11
338.409255
 21
239.285867
 31
0.0
  0
LINE
  8
LC-006-005-----0
  6
CONTINUOUS
  5
7E3
 10
333.208574
 20
236.913613
 30
0.0
 11
335.580828
 21
239.285867
 31
0.0
  0
LINE
  8
LC-006-005-----0
  6
CONTINUOUS
  5
7E4
 10
332.3098
 20
238.843265
 30
0.0
 11
333.716196
 21
240.249662
 31
0.0
  0
LINE
  8
LC-006-005-----0
  6
CONTINUOUS
  5
7E5
 10
331.411025
 20
240.772918
 30
0.0
 11
333.617083
 21
242.978976
 31
0.0
  0
LINE
  8
LC-006-005-----0
  6
CONTINUOUS
  5
7E6
 10
331.366376
 20
243.556696
 30
0.0
 11
333.617083
 21
245.807403
 31
0.0
  0
LINE
  8
LC-006-005-----0
  6
CONTINUOUS
  5
7E7
 10
331.366376
 20
246.385123
 30
0.0
 11
333.617083
 21
248.63583
 31
0.0
  0
LINE
  8
LC-006-005-----0
  6
CONTINUOUS
  5
7E8
 10
330.315561
 20
248.162736
 30
0.0
 11
333.617083
 21
251.464258
 31
0.0
  0
LINE
  8
LC-006-005-----0
  6
CONTINUOUS
  5
7E9
 10
327.67226
 20
248.347861
 30
0.0
 11
330.508866
 21
251.184467
 31
0.0
  0
LINE
  8
LC-006-005-----0
  6
CONTINUOUS
  5
7EA
 10
331.617083
 20
252.292685
 30
0.0
 11
333.617083
 21
254.292685
 31
0.0
  0
LINE
  8
LC-006-005-----0
  6
CONTINUOUS
  5
7EB
 10
326.277014
 20
249.781042
 30
0.0
 11
328.541007
 21
252.045035
 31
0.0
  0
LINE
  8
LC-006-005-----0
  6
CONTINUOUS
  5
7EC
 10
331.617083
 20
255.121112
 30
0.0
 11
333.117083
 21
256.621112
 31
0.0
  0
LINE
  8
LC-006-005-----0
  6
CONTINUOUS
  5
7ED
 10
325.560696
 20
251.893152
 30
0.0
 11
328.518465
 21
254.850921
 31
0.0
  0
LINE
  8
LC-006-005-----0
  6
CONTINUOUS
  5
7EE
 10
326.116376
 20
255.277259
 30
0.0
 11
328.518465
 21
257.679348
 31
0.0
  0
LINE
  8
LC-006-005-----0
  6
CONTINUOUS
  5
7EF
 10
325.178159
 20
257.167469
 30
0.0
 11
327.990149
 21
259.979459
 31
0.0
  0
LINE
  8
LC-006-005-----0
  6
CONTINUOUS
  5
7F0
 10
322.534589
 20
257.352326
 30
0.0
 11
325.353337
 21
260.171074
 31
0.0
  0
LINE
  8
LC-006-005-----0
  6
CONTINUOUS
  5
7F1
 10
319.891018
 20
257.537182
 30
0.0
 11
322.716525
 21
260.36269
 31
0.0
  0
LINE
  8
LC-006-005-----0
  6
CONTINUOUS
  5
7F2
 10
317.247447
 20
257.722038
 30
0.0
 11
320.079714
 21
260.554305
 31
0.0
  0
LINE
  8
LC-006-005-----0
  6
CONTINUOUS
  5
7F3
 10
314.603876
 20
257.906894
 30
0.0
 11
317.442902
 21
260.74592
 31
0.0
  0
LINE
  8
LC-006-005-----0
  6
CONTINUOUS
  5
7F4
 10
311.960305
 20
258.091751
 30
0.0
 11
314.921575
 21
261.053021
 31
0.0
  0
LINE
  8
LC-006-005-----0
  6
CONTINUOUS
  5
7F5
 10
309.326259
 20
258.286132
 30
0.0
 11
312.711705
 21
261.671578
 31
0.0
  0
LINE
  8
LC-006-005-----0
  6
CONTINUOUS
  5
7F6
 10
307.18989
 20
258.978189
 30
0.0
 11
310.671842
 21
262.460142
 31
0.0
  0
LINE
  8
LC-006-005-----0
  6
CONTINUOUS
  5
7F7
 10
305.05352
 20
259.670247
 30
0.0
 11
308.743773
 21
263.3605
 31
0.0
  0
LINE
  8
LC-006-005-----0
  6
CONTINUOUS
  5
7F8
 10
302.917151
 20
260.362305
 30
0.0
 11
306.098689
 21
263.543843
 31
0.0
  0
LINE
  8
LC-006-005-----0
  6
CONTINUOUS
  5
7F9
 10
300.641339
 20
260.91492
 30
0.0
 11
303.453606
 21
263.727187
 31
0.0
  0
LINE
  8
LC-006-005-----0
  6
CONTINUOUS
  5
7FA
 10
297.996255
 20
261.098263
 30
0.0
 11
300.808522
 21
263.91053
 31
0.0
  0
LINE
  8
LC-006-005-----0
  6
CONTINUOUS
  5
7FB
 10
295.351171
 20
261.281606
 30
0.0
 11
298.163438
 21
264.093873
 31
0.0
  0
LINE
  8
LC-006-005-----0
  6
CONTINUOUS
  5
7FC
 10
292.706087
 20
261.46495
 30
0.0
 11
295.518354
 21
264.277216
 31
0.0
  0
LINE
  8
LC-006-005-----0
  6
CONTINUOUS
  5
7FD
 10
290.061003
 20
261.648293
 30
0.0
 11
292.87327
 21
264.460559
 31
0.0
  0
LINE
  8
LC-006-005-----0
  6
CONTINUOUS
  5
7FE
 10
287.415919
 20
261.831636
 30
0.0
 11
290.228186
 21
264.643903
 31
0.0
  0
LINE
  8
LC-006-005-----0
  6
CONTINUOUS
  5
7FF
 10
284.770835
 20
262.014979
 30
0.0
 11
287.583102
 21
264.827246
 31
0.0
  0
LINE
  8
LC-006-005-----0
  6
CONTINUOUS
  5
800
 10
282.125751
 20
262.198322
 30
0.0
 11
284.938018
 21
265.010589
 31
0.0
  0
LINE
  8
LC-006-005-----0
  6
CONTINUOUS
  5
801
 10
279.480668
 20
262.381666
 30
0.0
 11
282.292934
 21
265.193932
 31
0.0
  0
LINE
  8
LC-006-005-----0
  6
CONTINUOUS
  5
802
 10
276.835584
 20
262.565009
 30
0.0
 11
279.64785
 21
265.377276
 31
0.0
  0
LINE
  8
LC-006-005-----0
  6
CONTINUOUS
  5
803
 10
274.1905
 20
262.748352
 30
0.0
 11
277.002766
 21
265.560619
 31
0.0
  0
LINE
  8
LC-006-005-----0
  6
CONTINUOUS
  5
804
 10
271.545416
 20
262.931695
 30
0.0
 11
274.357683
 21
265.743962
 31
0.0
  0
LINE
  8
LC-006-005-----0
  6
CONTINUOUS
  5
805
 10
269.366376
 20
263.581083
 30
0.0
 11
271.712599
 21
265.927305
 31
0.0
  0
LINE
  8
LC-003-002-----0
  6
CONTINUOUS
  5
806
 10
479.669523
 20
239.285867
 30
0.0
 11
499.022905
 21
239.285867
 31
0.0
  0
LINE
  8
LC-003-002-----0
  6
DASHDOT
 62
     2
  5
807
 10
420.366376
 20
243.103056
 30
0.0
 11
420.366376
 21
216.81
 31
0.0
  0
LINE
  8
LC-003-002-----0
  6
DASHDOT
 62
     2
  5
808
 10
472.594629
 20
192.885368
 30
0.0
 11
576.863199
 21
192.885368
 31
0.0
  0
LINE
  8
LC-003-002-----0
  6
DASHDOT
 62
     2
  5
809
 10
655.064649
 20
175.256263
 30
0.0
 11
588.886013
 21
192.988775
 31
0.0
  0
LINE
  8
LC-003-002-----0
  6
DASHDOT
 62
     2
  5
80A
 10
420.366376
 20
182.952
 30
0.0
 11
420.366376
 21
151.399462
 31
0.0
  0
LINE
  8
LC-003-002-----0
  6
DASHDOT
 62
     2
  5
80B
 10
420.366376
 20
335.603056
 30
0.0
 11
420.366376
 21
243.103056
 31
0.0
  0
LINE
  8
LC-003-002-----0
  6
CONTINUOUS
  5
80C
 10
470.366376
 20
335.603056
 30
0.0
 11
470.366376
 21
326.603056
 31
0.0
  0
LINE
  8
LC-003-002-----0
  6
CONTINUOUS
  5
80D
 10
470.366376
 20
326.603056
 30
0.0
 11
468.366376
 21
326.603056
 31
0.0
  0
LINE
  8
LC-003-002-----0
  6
CONTINUOUS
  5
80E
 10
468.366376
 20
326.603056
 30
0.0
 11
468.366376
 21
320.603056
 31
0.0
  0
LINE
  8
LC-003-002-----0
  6
CONTINUOUS
  5
80F
 10
466.866376
 20
335.603056
 30
0.0
 11
466.866376
 21
329.603056
 31
0.0
  0
LINE
  8
LC-003-002-----0
  6
CONTINUOUS
  5
810
 10
466.866376
 20
329.603056
 30
0.0
 11
420.366376
 21
329.603056
 31
0.0
  0
LINE
  8
LC-003-002-----0
  6
CONTINUOUS
  5
811
 10
465.366376
 20
329.603056
 30
0.0
 11
465.366376
 21
317.603056
 31
0.0
  0
LINE
  8
LC-003-002-----0
  6
CONTINUOUS
  5
812
 10
492.36619
 20
248.103056
 30
0.0
 11
491.026444
 21
243.103056
 31
0.0
  0
LINE
  8
LC-003-002-----0
  6
CONTINUOUS
  5
813
 10
468.366376
 20
320.603056
 30
0.0
 11
482.366376
 21
320.603056
 31
0.0
  0
ARC
  8
LC-003-002-----0
  6
CONTINUOUS
  5
814
 10
482.366376
 20
310.603056
 30
0.0
 40
10.0
 50
0.0
 51
90.0
  0
LINE
  8
LC-003-002-----0
  6
CONTINUOUS
  5
815
 10
492.366376
 20
310.603056
 30
0.0
 11
492.366376
 21
248.10375
 31
0.0
  0
LINE
  8
LC-016-001-----0
  6
CONTINUOUS
  5
817
 10
420.366376
 20
317.603056
 30
0.0
 11
482.366376
 21
317.603056
 31
0.0
  0
ARC
  8
LC-016-001-----0
  6
CONTINUOUS
  5
818
 10
482.366376
 20
310.603056
 30
0.0
 40
7.0
 50
0.0
 51
90.0
  0
LINE
  8
LC-003-002-----0
  6
CONTINUOUS
  5
819
 10
489.366376
 20
310.603056
 30
0.0
 11
489.366376
 21
243.103056
 31
0.0
  0
LINE
  8
LC-003-002-----0
  6
CONTINUOUS
  5
81A
 10
349.706308
 20
243.103056
 30
0.0
 11
413.902454
 21
243.103056
 31
0.0
  0
LINE
  8
LC-003-002-----0
  6
CONTINUOUS
  5
81B
 10
348.366562
 20
248.103056
 30
0.0
 11
349.706308
 21
243.103056
 31
0.0
  0
LINE
  8
LC-003-002-----0
  6
CONTINUOUS
  5
81C
 10
428.366376
 20
330.603056
 30
0.0
 11
435.366376
 21
330.603056
 31
0.0
  0
LINE
  8
LC-003-002-----0
  6
CONTINUOUS
  5
81D
 10
435.366376
 20
330.603056
 30
0.0
 11
436.366376
 21
330.603056
 31
0.0
  0
LINE
  8
LC-003-002-----0
  6
CONTINUOUS
  5
81E
 10
440.366376
 20
330.603056
 30
0.0
 11
447.366376
 21
330.603056
 31
0.0
  0
LINE
  8
LC-003-002-----0
  6
CONTINUOUS
  5
81F
 10
447.366376
 20
330.603056
 30
0.0
 11
448.366376
 21
330.603056
 31
0.0
  0
LINE
  8
LC-003-002-----0
  6
CONTINUOUS
  5
820
 10
452.366376
 20
330.603056
 30
0.0
 11
459.366376
 21
330.603056
 31
0.0
  0
LINE
  8
LC-003-002-----0
  6
CONTINUOUS
  5
821
 10
459.366376
 20
330.603056
 30
0.0
 11
460.366376
 21
330.603056
 31
0.0
  0
LINE
  8
LC-003-002-----0
  6
CONTINUOUS
  5
822
 10
466.866376
 20
335.603056
 30
0.0
 11
470.366376
 21
335.603056
 31
0.0
  0
LINE
  8
LC-003-002-----0
  6
CONTINUOUS
  5
823
 10
420.366376
 20
335.603056
 30
0.0
 11
437.366376
 21
335.603056
 31
0.0
  0
ARC
  8
LC-003-002-----0
  6
CONTINUOUS
  5
824
 10
427.366376
 20
333.603056
 30
0.0
 40
2.0
 50
0.0
 51
90.0
  0
LINE
  8
LC-003-002-----0
  6
CONTINUOUS
  5
825
 10
429.366376
 20
330.603056
 30
0.0
 11
429.366376
 21
333.603056
 31
0.0
  0
ARC
  8
LC-003-002-----0
  6
CONTINUOUS
  5
826
 10
437.366376
 20
333.603056
 30
0.0
 40
2.0
 50
90.0
 51
179.999848
  0
LINE
  8
LC-003-002-----0
  6
CONTINUOUS
  5
827
 10
435.366376
 20
333.603056
 30
0.0
 11
435.366376
 21
330.603056
 31
0.0
  0
LINE
  8
LC-003-002-----0
  6
CONTINUOUS
  5
828
 10
441.366376
 20
330.603056
 30
0.0
 11
441.366376
 21
333.603056
 31
0.0
  0
ARC
  8
LC-003-002-----0
  6
CONTINUOUS
  5
829
 10
439.366376
 20
333.603056
 30
0.0
 40
2.0
 50
0.0
 51
89.999981
  0
LINE
  8
LC-003-002-----0
  6
CONTINUOUS
  5
82A
 10
437.366376
 20
335.603056
 30
0.0
 11
449.366376
 21
335.603056
 31
0.0
  0
ARC
  8
LC-003-002-----0
  6
CONTINUOUS
  5
82B
 10
449.366376
 20
333.603056
 30
0.0
 40
2.0
 50
90.0
 51
179.999848
  0
LINE
  8
LC-003-002-----0
  6
CONTINUOUS
  5
82C
 10
447.366376
 20
333.603056
 30
0.0
 11
447.366376
 21
330.603056
 31
0.0
  0
LINE
  8
LC-003-002-----0
  6
CONTINUOUS
  5
82D
 10
449.366376
 20
335.603056
 30
0.0
 11
461.366376
 21
335.603056
 31
0.0
  0
ARC
  8
LC-003-002-----0
  6
CONTINUOUS
  5
82E
 10
451.366376
 20
333.603056
 30
0.0
 40
2.0
 50
0.0
 51
90.0
  0
LINE
  8
LC-003-002-----0
  6
CONTINUOUS
  5
82F
 10
453.366376
 20
330.603056
 30
0.0
 11
453.366376
 21
333.603056
 31
0.0
  0
LINE
  8
LC-003-002-----0
  6
CONTINUOUS
  5
830
 10
459.366376
 20
333.603056
 30
0.0
 11
459.366376
 21
330.603056
 31
0.0
  0
ARC
  8
LC-003-002-----0
  6
CONTINUOUS
  5
831
 10
461.366376
 20
333.603056
 30
0.0
 40
2.0
 50
89.999981
 51
180.0
  0
LINE
  8
LC-003-002-----0
  6
CONTINUOUS
  5
832
 10
461.366376
 20
335.603056
 30
0.0
 11
463.366376
 21
335.603056
 31
0.0
  0
ARC
  8
LC-003-002-----0
  6
CONTINUOUS
  5
833
 10
463.366376
 20
333.603056
 30
0.0
 40
2.0
 50
0.0
 51
90.0
  0
LINE
  8
LC-003-002-----0
  6
CONTINUOUS
  5
834
 10
465.366376
 20
329.603056
 30
0.0
 11
465.366376
 21
333.603056
 31
0.0
  0
LINE
  8
LC-003-002-----0
  6
CONTINUOUS
  5
835
 10
420.366376
 20
334.603056
 30
0.0
 11
427.366376
 21
334.603056
 31
0.0
  0
ARC
  8
LC-003-002-----0
  6
CONTINUOUS
  5
836
 10
427.366376
 20
333.603056
 30
0.0
 40
1.0
 50
0.0
 51
90.0
  0
LINE
  8
LC-003-002-----0
  6
CONTINUOUS
  5
837
 10
428.366376
 20
333.603056
 30
0.0
 11
428.366376
 21
330.603056
 31
0.0
  0
ARC
  8
LC-003-002-----0
  6
CONTINUOUS
  5
838
 10
437.366376
 20
333.603056
 30
0.0
 40
1.0
 50
90.0
 51
179.999848
  0
LINE
  8
LC-003-002-----0
  6
CONTINUOUS
  5
839
 10
436.366376
 20
330.603056
 30
0.0
 11
436.366376
 21
333.603056
 31
0.0
  0
LINE
  8
LC-003-002-----0
  6
CONTINUOUS
  5
83A
 10
440.366376
 20
333.603056
 30
0.0
 11
440.366376
 21
330.603056
 31
0.0
  0
ARC
  8
LC-003-002-----0
  6
CONTINUOUS
  5
83B
 10
439.366376
 20
333.603056
 30
0.0
 40
1.0
 50
0.0
 51
89.999981
  0
LINE
  8
LC-003-002-----0
  6
CONTINUOUS
  5
83C
 10
437.366376
 20
334.603056
 30
0.0
 11
439.366376
 21
334.603056
 31
0.0
  0
LINE
  8
LC-003-002-----0
  6
CONTINUOUS
  5
83D
 10
448.366376
 20
330.603056
 30
0.0
 11
448.366376
 21
333.603056
 31
0.0
  0
ARC
  8
LC-003-002-----0
  6
CONTINUOUS
  5
83E
 10
449.366376
 20
333.603056
 30
0.0
 40
1.0
 50
89.999981
 51
180.0
  0
LINE
  8
LC-003-002-----0
  6
CONTINUOUS
  5
83F
 10
449.366376
 20
334.603056
 30
0.0
 11
451.366376
 21
334.603056
 31
0.0
  0
ARC
  8
LC-003-002-----0
  6
CONTINUOUS
  5
840
 10
451.366376
 20
333.603056
 30
0.0
 40
1.0
 50
0.0
 51
90.0
  0
LINE
  8
LC-003-002-----0
  6
CONTINUOUS
  5
841
 10
452.366376
 20
333.603056
 30
0.0
 11
452.366376
 21
330.603056
 31
0.0
  0
ARC
  8
LC-003-002-----0
  6
CONTINUOUS
  5
842
 10
461.366376
 20
333.603056
 30
0.0
 40
1.0
 50
90.0
 51
179.999848
  0
LINE
  8
LC-003-002-----0
  6
CONTINUOUS
  5
843
 10
460.366376
 20
330.603056
 30
0.0
 11
460.366376
 21
333.603056
 31
0.0
  0
LINE
  8
LC-003-002-----0
  6
CONTINUOUS
  5
844
 10
464.366376
 20
333.603056
 30
0.0
 11
464.366376
 21
329.603056
 31
0.0
  0
ARC
  8
LC-003-002-----0
  6
CONTINUOUS
  5
845
 10
463.366376
 20
333.603056
 30
0.0
 40
1.0
 50
0.0
 51
89.999981
  0
LINE
  8
LC-003-002-----0
  6
CONTINUOUS
  5
846
 10
461.366376
 20
334.603056
 30
0.0
 11
463.366376
 21
334.603056
 31
0.0
  0
LINE
  8
LC-003-002-----0
  6
CONTINUOUS
  5
847
 10
370.36662
 20
335.603264
 30
0.0
 11
370.366614
 21
326.603264
 31
0.0
  0
LINE
  8
LC-003-002-----0
  6
CONTINUOUS
  5
848
 10
370.366614
 20
326.603264
 30
0.0
 11
372.366614
 21
326.603263
 31
0.0
  0
LINE
  8
LC-003-002-----0
  6
CONTINUOUS
  5
849
 10
372.366614
 20
326.603263
 30
0.0
 11
372.36661
 21
320.603263
 31
0.0
  0
LINE
  8
LC-003-002-----0
  6
CONTINUOUS
  5
84A
 10
373.86662
 20
335.603262
 30
0.0
 11
373.866616
 21
329.603262
 31
0.0
  0
LINE
  8
LC-003-002-----0
  6
CONTINUOUS
  5
84B
 10
373.866616
 20
329.603262
 30
0.0
 11
420.366616
 21
329.603232
 31
0.0
  0
LINE
  8
LC-003-002-----0
  6
CONTINUOUS
  5
84C
 10
375.366616
 20
329.603261
 30
0.0
 11
375.366608
 21
317.603261
 31
0.0
  0
LINE
  8
LC-003-002-----0
  6
CONTINUOUS
  5
84D
 10
372.36661
 20
320.603263
 30
0.0
 11
358.36661
 21
320.603272
 31
0.0
  0
ARC
  8
LC-003-002-----0
  6
CONTINUOUS
  5
84E
 10
358.366603
 20
310.603272
 30
0.0
 40
10.0
 50
89.999963
 51
179.999944
  0
LINE
  8
LC-003-002-----0
  6
CONTINUOUS
  5
84F
 10
348.366603
 20
310.603279
 30
0.0
 11
348.366562
 21
248.103056
 31
0.0
  0
LINE
  8
LC-016-001-----0
  6
CONTINUOUS
  5
850
 10
420.366608
 20
317.603232
 30
0.0
 11
358.366608
 21
317.603272
 31
0.0
  0
ARC
  8
LC-016-001-----0
  6
CONTINUOUS
  5
851
 10
358.366603
 20
310.603272
 30
0.0
 40
7.0
 50
89.999963
 51
179.999944
  0
LINE
  8
LC-003-002-----0
  6
CONTINUOUS
  5
852
 10
351.366603
 20
310.603277
 30
0.0
 11
351.366559
 21
243.103056
 31
0.0
  0
LINE
  8
LC-003-002-----0
  6
CONTINUOUS
  5
853
 10
412.366616
 20
330.603237
 30
0.0
 11
405.366616
 21
330.603241
 31
0.0
  0
LINE
  8
LC-003-002-----0
  6
CONTINUOUS
  5
854
 10
405.366616
 20
330.603241
 30
0.0
 11
404.366616
 21
330.603242
 31
0.0
  0
LINE
  8
LC-003-002-----0
  6
CONTINUOUS
  5
855
 10
400.366616
 20
330.603245
 30
0.0
 11
393.366616
 21
330.603249
 31
0.0
  0
LINE
  8
LC-003-002-----0
  6
CONTINUOUS
  5
856
 10
393.366616
 20
330.603249
 30
0.0
 11
392.366616
 21
330.60325
 31
0.0
  0
LINE
  8
LC-003-002-----0
  6
CONTINUOUS
  5
857
 10
388.366616
 20
330.603253
 30
0.0
 11
381.366616
 21
330.603257
 31
0.0
  0
LINE
  8
LC-003-002-----0
  6
CONTINUOUS
  5
858
 10
381.366616
 20
330.603257
 30
0.0
 11
380.366616
 21
330.603258
 31
0.0
  0
LINE
  8
LC-003-002-----0
  6
CONTINUOUS
  5
859
 10
373.86662
 20
335.603262
 30
0.0
 11
370.36662
 21
335.603264
 31
0.0
  0
LINE
  8
LC-003-002-----0
  6
CONTINUOUS
  5
85A
 10
420.36662
 20
335.603232
 30
0.0
 11
403.36662
 21
335.603243
 31
0.0
  0
ARC
  8
LC-003-002-----0
  6
CONTINUOUS
  5
85B
 10
413.366618
 20
333.603236
 30
0.0
 40
2.0
 50
89.999963
 51
179.999944
  0
LINE
  8
LC-003-002-----0
  6
CONTINUOUS
  5
85C
 10
411.366616
 20
330.603238
 30
0.0
 11
411.366618
 21
333.603238
 31
0.0
  0
ARC
  8
LC-003-002-----0
  6
CONTINUOUS
  5
85D
 10
403.366618
 20
333.603243
 30
0.0
 40
2.0
 50
0.000096
 51
89.999963
  0
LINE
  8
LC-003-002-----0
  6
CONTINUOUS
  5
85E
 10
405.366618
 20
333.603241
 30
0.0
 11
405.366616
 21
330.603241
 31
0.0
  0
LINE
  8
LC-003-002-----0
  6
CONTINUOUS
  5
85F
 10
399.366616
 20
330.603245
 30
0.0
 11
399.366618
 21
333.603245
 31
0.0
  0
ARC
  8
LC-003-002-----0
  6
CONTINUOUS
  5
860
 10
401.366618
 20
333.603244
 30
0.0
 40
2.0
 50
89.999963
 51
179.999963
  0
LINE
  8
LC-003-002-----0
  6
CONTINUOUS
  5
861
 10
403.36662
 20
335.603243
 30
0.0
 11
391.36662
 21
335.603251
 31
0.0
  0
ARC
  8
LC-003-002-----0
  6
CONTINUOUS
  5
862
 10
391.366618
 20
333.603251
 30
0.0
 40
2.0
 50
0.000096
 51
89.999963
  0
LINE
  8
LC-003-002-----0
  6
CONTINUOUS
  5
863
 10
393.366618
 20
333.603249
 30
0.0
 11
393.366616
 21
330.603249
 31
0.0
  0
LINE
  8
LC-003-002-----0
  6
CONTINUOUS
  5
864
 10
391.36662
 20
335.603251
 30
0.0
 11
379.36662
 21
335.603258
 31
0.0
  0
ARC
  8
LC-003-002-----0
  6
CONTINUOUS
  5
865
 10
389.366618
 20
333.603252
 30
0.0
 40
2.0
 50
89.999963
 51
179.999944
  0
LINE
  8
LC-003-002-----0
  6
CONTINUOUS
  5
866
 10
387.366616
 20
330.603253
 30
0.0
 11
387.366618
 21
333.603253
 31
0.0
  0
LINE
  8
LC-003-002-----0
  6
CONTINUOUS
  5
867
 10
381.366618
 20
333.603257
 30
0.0
 11
381.366616
 21
330.603257
 31
0.0
  0
ARC
  8
LC-003-002-----0
  6
CONTINUOUS
  5
868
 10
379.366618
 20
333.603258
 30
0.0
 40
2.0
 50
359.999963
 51
89.999888
  0
LINE
  8
LC-003-002-----0
  6
CONTINUOUS
  5
869
 10
379.36662
 20
335.603258
 30
0.0
 11
377.36662
 21
335.60326
 31
0.0
  0
ARC
  8
LC-003-002-----0
  6
CONTINUOUS
  5
86A
 10
377.366618
 20
333.60326
 30
0.0
 40
2.0
 50
89.999963
 51
179.999944
  0
LINE
  8
LC-003-002-----0
  6
CONTINUOUS
  5
86B
 10
375.366616
 20
329.603261
 30
0.0
 11
375.366618
 21
333.603261
 31
0.0
  0
LINE
  8
LC-003-002-----0
  6
CONTINUOUS
  5
86C
 10
420.366619
 20
334.603232
 30
0.0
 11
413.366619
 21
334.603236
 31
0.0
  0
ARC
  8
LC-003-002-----0
  6
CONTINUOUS
  5
86D
 10
413.366618
 20
333.603236
 30
0.0
 40
1.0
 50
89.999963
 51
179.999944
  0
LINE
  8
LC-003-002-----0
  6
CONTINUOUS
  5
86E
 10
412.366618
 20
333.603237
 30
0.0
 11
412.366616
 21
330.603237
 31
0.0
  0
ARC
  8
LC-003-002-----0
  6
CONTINUOUS
  5
86F
 10
403.366618
 20
333.603243
 30
0.0
 40
1.0
 50
0.000096
 51
89.999963
  0
LINE
  8
LC-003-002-----0
  6
CONTINUOUS
  5
870
 10
404.366616
 20
330.603242
 30
0.0
 11
404.366618
 21
333.603242
 31
0.0
  0
LINE
  8
LC-003-002-----0
  6
CONTINUOUS
  5
871
 10
400.366618
 20
333.603245
 30
0.0
 11
400.366616
 21
330.603245
 31
0.0
  0
ARC
  8
LC-003-002-----0
  6
CONTINUOUS
  5
872
 10
401.366618
 20
333.603244
 30
0.0
 40
1.0
 50
89.999963
 51
179.999963
  0
LINE
  8
LC-003-002-----0
  6
CONTINUOUS
  5
873
 10
403.366619
 20
334.603243
 30
0.0
 11
401.366619
 21
334.603244
 31
0.0
  0
LINE
  8
LC-003-002-----0
  6
CONTINUOUS
  5
874
 10
392.366616
 20
330.60325
 30
0.0
 11
392.366618
 21
333.60325
 31
0.0
  0
ARC
  8
LC-003-002-----0
  6
CONTINUOUS
  5
875
 10
391.366618
 20
333.603251
 30
0.0
 40
1.0
 50
359.999963
 51
89.999888
  0
LINE
  8
LC-003-002-----0
  6
CONTINUOUS
  5
876
 10
391.366619
 20
334.603251
 30
0.0
 11
389.366619
 21
334.603252
 31
0.0
  0
ARC
  8
LC-003-002-----0
  6
CONTINUOUS
  5
877
 10
389.366618
 20
333.603252
 30
0.0
 40
1.0
 50
89.999963
 51
179.999944
  0
LINE
  8
LC-003-002-----0
  6
CONTINUOUS
  5
878
 10
388.366618
 20
333.603253
 30
0.0
 11
388.366616
 21
330.603253
 31
0.0
  0
ARC
  8
LC-003-002-----0
  6
CONTINUOUS
  5
879
 10
379.366618
 20
333.603258
 30
0.0
 40
1.0
 50
0.000096
 51
89.999963
  0
LINE
  8
LC-003-002-----0
  6
CONTINUOUS
  5
87A
 10
380.366616
 20
330.603258
 30
0.0
 11
380.366618
 21
333.603258
 31
0.0
  0
LINE
  8
LC-003-002-----0
  6
CONTINUOUS
  5
87B
 10
376.366618
 20
333.60326
 30
0.0
 11
376.366616
 21
329.60326
 31
0.0
  0
ARC
  8
LC-003-002-----0
  6
CONTINUOUS
  5
87C
 10
377.366618
 20
333.60326
 30
0.0
 40
1.0
 50
89.999963
 51
179.999963
  0
LINE
  8
LC-003-002-----0
  6
CONTINUOUS
  5
87D
 10
379.366619
 20
334.603258
 30
0.0
 11
377.366619
 21
334.60326
 31
0.0
  0
LINE
  8
LC-003-002-----0
  6
CONTINUOUS
  5
87E
 10
450.371068
 20
317.603232
 30
0.0
 11
468.43819
 21
304.603232
 31
0.0
  0
LINE
  8
LC-003-002-----0
  6
CONTINUOUS
  5
87F
 10
465.366376
 20
317.603056
 30
0.0
 11
489.366376
 21
304.858134
 31
0.0
  0
LINE
  8
LC-003-002-----0
  6
CONTINUOUS
  5
880
 10
390.361685
 20
317.603232
 30
0.0
 11
372.294563
 21
304.603232
 31
0.0
  0
LINE
  8
LC-003-002-----0
  6
CONTINUOUS
  5
881
 10
370.173242
 20
304.603232
 30
0.0
 11
388.211103
 21
317.603232
 31
0.0
  0
LINE
  8
LC-003-002-----0
  6
CONTINUOUS
  5
882
 10
372.294563
 20
304.603232
 30
0.0
 11
370.173242
 21
304.603232
 31
0.0
  0
LINE
  8
LC-003-002-----0
  6
CONTINUOUS
  5
883
 10
370.173242
 20
304.603232
 30
0.0
 11
370.173242
 21
310.603232
 31
0.0
  0
ARC
  8
LC-005-002-RND-0
  6
CONTINUOUS
  5
884
 10
377.173242
 20
310.603232
 30
0.0
 40
7.0
 50
136.406436
 51
180.0
  0
LINE
  8
LC-003-002-----0
  6
CONTINUOUS
  5
885
 10
470.559511
 20
304.603232
 30
0.0
 11
452.52165
 21
317.603232
 31
0.0
  0
LINE
  8
LC-003-002-----0
  6
CONTINUOUS
  5
886
 10
468.43819
 20
304.603232
 30
0.0
 11
470.559511
 21
304.603232
 31
0.0
  0
LINE
  8
LC-003-002-----0
  6
CONTINUOUS
  5
887
 10
470.559511
 20
304.603232
 30
0.0
 11
470.559511
 21
310.603232
 31
0.0
  0
ARC
  8
LC-005-002-RND-0
  6
CONTINUOUS
  5
888
 10
463.559511
 20
310.603232
 30
0.0
 40
7.0
 50
0.0
 51
55.00113
  0
LINE
  8
LC-003-002-----0
  6
CONTINUOUS
  5
889
 10
375.366608
 20
317.603261
 30
0.0
 11
351.366599
 21
304.858247
 31
0.0
  0
LINE
  8
LC-003-002-----0
  6
CONTINUOUS
 62
     2
  5
88A
 10
397.438511
 20
377.34
 30
0.0
 11
382.438511
 21
377.34
 31
0.0
  0
LINE
  8
LC-003-002-----0
  6
CONTINUOUS
 62
     2
  5
88B
 10
397.438511
 20
362.34
 30
0.0
 11
397.438511
 21
377.34
 31
0.0
  0
LINE
  8
LC-003-002-----0
  6
CONTINUOUS
 62
     2
  5
88C
 10
382.438511
 20
362.34
 30
0.0
 11
382.438511
 21
377.34
 31
0.0
  0
LINE
  8
LC-003-002-----0
  6
CONTINUOUS
 62
     2
  5
88D
 10
397.438511
 20
362.34
 30
0.0
 11
382.438511
 21
362.34
 31
0.0
  0
LINE
  8
LC-003-002-----0
  6
CONTINUOUS
  5
88E
 10
478.288329
 20
243.103056
 30
0.0
 11
491.026444
 21
243.103056
 31
0.0
  0
LINE
  8
LC-003-002-----0
  6
CONTINUOUS
  5
88F
 10
269.366376
 20
266.089933
 30
0.0
 11
348.366574
 21
266.089881
 31
0.0
  0
LINE
  8
LC-003-002-----0
  6
CONTINUOUS
  5
890
 10
571.366376
 20
266.089933
 30
0.0
 11
492.366376
 21
266.089933
 31
0.0
  0
ENDSEC
  0
EOF
