  0
SECTION
  2
HEADER
  9
$ACADVER
  1
AC1009
  9
$INSBASE
 10
0.0
 20
0.0
 30
0.0
  9
$EXTMIN
 10
-210.0
 20
-148.5
 30
0.0
  9
$EXTMAX
 10
630.0
 20
445.5
 30
0.0
  9
$LIMMIN
 10
-210.0
 20
-148.5
  9
$LIMMAX
 10
630.0
 20
445.5
  9
$ORTHOMODE
 70
     0
  9
$REGENMODE
 70
     1
  9
$FILLMODE
 70
     1
  9
$QTEXTMODE
 70
     0
  9
$MIRRTEXT
 70
     1
  9
$DRAGMODE
 70
     2
  9
$LTSCALE
 40
2.0
  9
$OSMODE
 70
     0
  9
$ATTMODE
 70
     1
  9
$TEXTSIZE
 40
0.2
  9
$TRACEWID
 40
0.05
  9
$TEXTSTYLE
  7
STANDARD
  9
$CLAYER
  8
0
  9
$CELTYPE
  6
BYLAYER
  9
$CECOLOR
 62
     7
  9
$DIMSCALE
 40
2.0
  9
$DIMASZ
 40
3.5
  9
$DIMEXO
 40
0.0625
  9
$DIMDLI
 40
0.38
  9
$DIMRND
 40
0.0
  9
$DIMDLE
 40
0.0
  9
$DIMEXE
 40
0.18
  9
$DIMTP
 40
0.0
  9
$DIMTM
 40
0.0
  9
$DIMTXT
 40
3.5
  9
$DIMCEN
 40
0.09
  9
$DIMTSZ
 40
0.0
  9
$DIMTOL
 70
     0
  9
$DIMLIM
 70
     0
  9
$DIMTIH
 70
     1
  9
$DIMTOH
 70
     1
  9
$DIMSE1
 70
     0
  9
$DIMSE2
 70
     0
  9
$DIMTAD
 70
     1
  9
$DIMZIN
 70
     0
  9
$DIMBLK
  1

  9
$DIMASO
 70
     1
  9
$DIMSHO
 70
     1
  9
$DIMPOST
  1

  9
$DIMAPOST
  1

  9
$DIMALT
 70
     0
  9
$DIMALTD
 70
     2
  9
$DIMALTF
 40
25.4
  9
$DIMLFAC
 40
1.0
  9
$DIMTOFL
 70
     0
  9
$DIMTVP
 40
0.0
  9
$DIMTIX
 70
     0
  9
$DIMSOXD
 70
     0
  9
$DIMSAH
 70
     0
  9
$DIMBLK1
  1

  9
$DIMBLK2
  1

  9
$DIMSTYLE
  2
STANDARD
  9
$DIMCLRD
 70
     0
  9
$DIMCLRE
 70
     0
  9
$DIMCLRT
 70
     0
  9
$DIMTFAC
 40
1.0
  9
$DIMGAP
 40
0.09
  9
$LUNITS
 70
     2
  9
$LUPREC
 70
     2
  9
$AXISMODE
 70
     0
  9
$AXISUNIT
 10
0.0
 20
0.0
  9
$SKETCHINC
 40
0.1
  9
$FILLETRAD
 40
0.0
  9
$AUNITS
 70
     0
  9
$AUPREC
 70
     0
  9
$MENU
  1
acad
  9
$ELEVATION
 40
0.0
  9
$PELEVATION
 40
0.0
  9
$THICKNESS
 40
0.0
  9
$LIMCHECK
 70
     0
  9
$BLIPMODE
 70
     1
  9
$CHAMFERA
 40
0.0
  9
$CHAMFERB
 40
0.0
  9
$SKPOLY
 70
     0
  9
$TDCREATE
 40
0.000000000
  9
$TDUPDATE
 40
0.000000000
  9
$TDINDWG
 40
0.0000000000
  9
$TDUSRTIMER
 40
0.0000000000
  9
$USRTIMER
 70
     1
  9
$ANGBASE
 50
0.0
  9
$ANGDIR
 70
     0
  9
$PDMODE
 70
     0
  9
$PDSIZE
 40
0.0
  9
$PLINEWID
 40
0.0
  9
$COORDS
 70
     0
  9
$SPLFRAME
 70
     0
  9
$SPLINETYPE
 70
     6
  9
$SPLINESEGS
 70
     8
  9
$ATTDIA
 70
     0
  9
$ATTREQ
 70
     1
  9
$HANDLING
 70
     1
  9
$HANDSEED
  5
B4
  9
$SURFTAB1
 70
     6
  9
$SURFTAB2
 70
     6
  9
$SURFTYPE
 70
     6
  9
$SURFU
 70
     6
  9
$SURFV
 70
     6
  9
$UCSNAME
  2

  9
$UCSORG
 10
0.0
 20
0.0
 30
0.0
  9
$UCSXDIR
 10
1.0
 20
0.0
 30
0.0
  9
$UCSYDIR
 10
0.0
 20
1.0
 30
0.0
  9
$PUCSNAME
  2

  9
$PUCSORG
 10
0.0
 20
0.0
 30
0.0
  9
$PUCSXDIR
 10
1.0
 20
0.0
 30
0.0
  9
$PUCSYDIR
 10
0.0
 20
1.0
 30
0.0
  9
$USERI1
 70
     0
  9
$USERI2
 70
     0
  9
$USERI3
 70
     0
  9
$USERI4
 70
     0
  9
$USERI5
 70
     0
  9
$USERR1
 40
0.0
  9
$USERR2
 40
0.0
  9
$USERR3
 40
0.0
  9
$USERR4
 40
0.0
  9
$USERR5
 40
0.0
  9
$WORLDVIEW
 70
     1
  9
$SHADEDGE
 70
     3
  9
$SHADEDIF
 70
    70
  9
$TILEMODE
 70
     1
  9
$MAXACTVP
 70
    16
  9
$PINSBASE
 10
0.0
 20
0.0
 30
0.0
  9
$PLIMCHECK
 70
     0
  9
$PEXTMIN
 10
1.000000E+20
 20
1.000000E+20
 30
1.000000E+20
  9
$PEXTMAX
 10
-1.000000E+20
 20
-1.000000E+20
 30
-1.000000E+20
  9
$PLIMMIN
 10
-210.0
 20
-148.5
  9
$PLIMMAX
 10
630.0
 20
445.5
  9
$UNITMODE
 70
     0
  9
$VISRETAIN
 70
     0
  9
$PLINEGEN
 70
     1
  9
$PSLTSCALE
 70
     0
  9
$TREEDEPTH
 70
  3020
  9
$DWGCODEPAGE
  3
dos850
  0
ENDSEC
  0
SECTION
  2
TABLES
  0
TABLE
  2
VPORT
 70
     1
  0
VPORT
  2
*ACTIVE
 70
     0
 10
0.0
 20
0.0
 11
1.0
 21
1.0
 12
420.0
 22
297.0
 13
0.0
 23
0.0
 14
1.0
 24
1.0
 15
0.0
 25
0.0
 16
0.0
 26
0.0
 36
1.0
 17
-210.0
 27
-148.5
 37
0.0
 40
594.0
 41
1.604229
 42
50.0
 43
0.0
 44
0.0
 50
0.0
 51
0.0
 71
     0
 72
   100
 73
     1
 74
     1
 75
     0
 76
     0
 77
     0
 78
     0
  0
ENDTAB
  0
TABLE
  2
LTYPE
 70
     4
  0
LTYPE
  2
CONTINUOUS
 70
    64
  3
Solid line
 72
    65
 73
     0
 40
0.0
  0
LTYPE
  2
DASHDOT
 70
    64
  3
__ . __ . __ . __ . __
 72
    65
 73
     4
 40
7.5
 49
5.0
 49
-1.25
 49
0.0
 49
-1.25
  0
LTYPE
  2
CENTER
 70
    64
  3
__ . __ . __ . __ . __
 72
    65
 73
     4
 40
7.5
 49
5.0
 49
-1.25
 49
0.0
 49
-1.25
  0
LTYPE
  2
DASHED
 70
    64
  3
__ __ __ __ __
 72
    65
 73
     2
 40
6.25
 49
5.0
 49
-1.25
  0
ENDTAB
  0
TABLE
  2
LAYER
 70
    10
  0
LAYER
  2
0
 70
     0
 62
     7
  6
CONTINUOUS
  0
LAYER
  2
LC-INFO-1-2-MM-A3-0
 70
     1
 62
    -1
  6
CONTINUOUS
  0
LAYER
  2
LC-004-003-MTH-0
 70
     0
 62
     2
  6
CONTINUOUS
  0
LAYER
  2
LC-005-003-MTG-0
 70
     0
 62
     2
  6
CONTINUOUS
  0
LAYER
  2
LC-003-003-----0
 70
     0
 62
     2
  6
CONTINUOUS
  0
LAYER
  2
LC-007-000-----0
 70
     0
 62
     7
  6
CONTINUOUS
  0
LAYER
  2
LC-001-002-----0
 70
     0
 62
     1
  6
CONTINUOUS
  0
LAYER
  2
LC-002-002-RND-0
 70
     0
 62
     1
  6
CONTINUOUS
  0
LAYER
  2
LC-006-006-MLN-0
 70
     0
 62
     2
  6
CENTER
  0
LAYER
  2
LC-000
 70
     0
 62
     7
  6
CONTINUOUS
  0
ENDTAB
  0
TABLE
  2
STYLE
 70
     4
  0
STYLE
  2
STANDARD
 70
     0
 40
0.0
 41
1.0
 50
0.0
 71
     0
 42
0.0
  3
txt
  4

  0
STYLE
  2
LC-STANDARD
 70
    64
 40
0.0
 41
1.0
 50
0.0
 71
     0
 42
3.5
  3
MONOTXT
  4

  0
STYLE
  2
LC-TXTSTYLE-150-400-0-0-D2
 70
    64
 40
0.0
 41
1.0
 50
15.0
 71
     0
 42
3.5
  3
MONOTXT
  4

  0
STYLE
  2
LC-TXTSTYLE-150-400-0-0-D3
 70
    64
 40
0.0
 41
1.0
 50
15.0
 71
     0
 42
3.5
  3
LC-STANDARD
  4

  0
ENDTAB
  0
TABLE
  2
VIEW
 70
     0
  0
ENDTAB
  0
TABLE
  2
UCS
 70
     0
  0
ENDTAB
  0
TABLE
  2
APPID
 70
     1
  0
APPID
  2
ACAD
 70
     0
  0
ENDTAB
  0
TABLE
  2
DIMSTYLE
 70
     3
  0
DIMSTYLE
  2
STANDARD
 70
     0
  3

  4

  5

  6

  7

 40
1.0
 41
0.18
 42
0.0625
 43
0.38
 44
0.18
 45
0.0
 46
0.0
 47
0.0
 48
0.0
 71
     0
 72
     0
 73
     1
 74
     1
 75
     0
 76
     0
 77
     0
 78
     0
140
0.18
141
0.09
142
0.0
143
25.4
144
1.0
145
0.0
146
1.0
147
0.09
170
     0
171
     2
172
     0
173
     0
174
     0
175
     0
176
     0
177
     0
178
     0
  0
DIMSTYLE
  2
LC-STANDARD
 70
     0
  3

  4

  5

  6

  7

 40
1.0
 41
3.5
 42
0.0
 43
7.5
 44
1.8
 45
0.0
 46
0.0
 47
0.0
 48
0.0
 71
     0
 72
     0
 73
     0
 74
     0
 75
     0
 76
     0
 77
     1
 78
     8
140
3.5
141
0.0
142
0.0
143
25.4
144
1.0
145
0.0
146
0.71
147
1.5
170
     0
171
     2
172
     1
173
     0
174
     0
175
     0
176
     0
177
     0
178
     3
  0
DIMSTYLE
  2
LC-DIM-L-0100-02-02
 70
     0
  3

  4

  5

  6

  7

 40
2.0
 41
3.5
 42
0.0
 43
7.5
 44
1.8
 45
0.0
 46
0.0
 47
0.0
 48
0.0
 71
     0
 72
     0
 73
     0
 74
     0
 75
     0
 76
     0
 77
     1
 78
     8
140
10.0
141
0.0
142
0.0
143
25.4
144
1.0
145
0.0
146
0.71
147
1.5
170
     0
171
     2
172
     0
173
     0
174
     0
175
     0
176
     2
177
     2
178
     6
  0
ENDTAB
  0
ENDSEC
  0
SECTION
  2
BLOCKS
  0
BLOCK
  8
0
  5
23
  2
*D0
 70
    65
 10
0.0
 20
0.0
 30
0.0
  3
*D0
  0
LINE
  8
LC-004-003-MTH-0
  6
CONTINUOUS
  5
25
 10
43.358107
 20
185.081644
 30
0.0
 11
43.358107
 21
264.0
 31
0.0
  0
LINE
  8
LC-004-003-MTH-0
  6
CONTINUOUS
  5
26
 10
126.358107
 20
185.081644
 30
0.0
 11
126.358107
 21
264.0
 31
0.0
  0
LINE
  8
LC-005-003-MTG-0
  6
CONTINUOUS
  5
28
 10
43.358107
 20
252.0
 30
0.0
 11
126.358107
 21
252.0
 31
0.0
  0
LINE
  8
LC-003-003-----0
  6
CONTINUOUS
  5
2A
 10
63.187005
 20
254.610524
 30
0.0
 11
43.358107
 21
252.0
 31
0.0
  0
LINE
  8
LC-003-003-----0
  6
CONTINUOUS
  5
2B
 10
43.358107
 20
252.0
 30
0.0
 11
63.187005
 21
249.389476
 31
0.0
  0
LINE
  8
LC-003-003-----0
  6
CONTINUOUS
  5
2C
 10
63.187005
 20
249.389476
 30
0.0
 11
63.187005
 21
254.610524
 31
0.0
  0
LINE
  8
LC-003-003-----0
  6
CONTINUOUS
  5
2D
 10
63.231491
 20
253.931788
 30
0.0
 11
48.558107
 21
252.0
 31
0.0
  0
LINE
  8
LC-003-003-----0
  6
CONTINUOUS
  5
2E
 10
48.558107
 20
252.0
 30
0.0
 11
63.231491
 21
250.068212
 31
0.0
  0
LINE
  8
LC-003-003-----0
  6
CONTINUOUS
  5
2F
 10
63.275978
 20
253.253051
 30
0.0
 11
53.758107
 21
252.0
 31
0.0
  0
LINE
  8
LC-003-003-----0
  6
CONTINUOUS
  5
30
 10
53.758107
 20
252.0
 30
0.0
 11
63.275978
 21
250.746949
 31
0.0
  0
LINE
  8
LC-003-003-----0
  6
CONTINUOUS
  5
31
 10
63.320465
 20
252.574315
 30
0.0
 11
58.958107
 21
252.0
 31
0.0
  0
LINE
  8
LC-003-003-----0
  6
CONTINUOUS
  5
32
 10
58.958107
 20
252.0
 30
0.0
 11
63.320465
 21
251.425685
 31
0.0
  0
LINE
  8
LC-003-003-----0
  6
CONTINUOUS
  5
33
 10
106.52921
 20
249.389476
 30
0.0
 11
126.358107
 21
252.0
 31
0.0
  0
LINE
  8
LC-003-003-----0
  6
CONTINUOUS
  5
34
 10
126.358107
 20
252.0
 30
0.0
 11
106.52921
 21
254.610524
 31
0.0
  0
LINE
  8
LC-003-003-----0
  6
CONTINUOUS
  5
35
 10
106.52921
 20
254.610524
 30
0.0
 11
106.52921
 21
249.389476
 31
0.0
  0
LINE
  8
LC-003-003-----0
  6
CONTINUOUS
  5
36
 10
106.484723
 20
250.068212
 30
0.0
 11
121.158107
 21
252.0
 31
0.0
  0
LINE
  8
LC-003-003-----0
  6
CONTINUOUS
  5
37
 10
121.158107
 20
252.0
 30
0.0
 11
106.484723
 21
253.931788
 31
0.0
  0
LINE
  8
LC-003-003-----0
  6
CONTINUOUS
  5
38
 10
106.440237
 20
250.746949
 30
0.0
 11
115.958107
 21
252.0
 31
0.0
  0
LINE
  8
LC-003-003-----0
  6
CONTINUOUS
  5
39
 10
115.958107
 20
252.0
 30
0.0
 11
106.440237
 21
253.253051
 31
0.0
  0
LINE
  8
LC-003-003-----0
  6
CONTINUOUS
  5
3A
 10
106.39575
 20
251.425685
 30
0.0
 11
110.758107
 21
252.0
 31
0.0
  0
LINE
  8
LC-003-003-----0
  6
CONTINUOUS
  5
3B
 10
110.758107
 20
252.0
 30
0.0
 11
106.39575
 21
252.574315
 31
0.0
  0
TEXT
  8
LC-003-003-----0
  6
CONTINUOUS
 62
     6
  5
3D
 10
74.782834
 20
263.59111
 30
0.0
 40
20.0
  1
83
 41
0.9
 51
15.0
  7
LC-TXTSTYLE-150-400-0-0-D0
 72
     1
 11
87.963936
 21
263.59111
 31
0.0
  0
ENDBLK
  8
0
  5
3E
  0
BLOCK
  8
0
  5
40
  2
*D1
 70
    65
 10
0.0
 20
0.0
 30
0.0
  3
*D1
  0
LINE
  8
LC-004-003-MTH-0
  6
CONTINUOUS
  5
41
 10
182.546365
 20
144.581474
 30
0.0
 11
182.546365
 21
68.0
 31
0.0
  0
LINE
  8
LC-004-003-MTH-0
  6
CONTINUOUS
  5
42
 10
254.546371
 20
155.581426
 30
0.0
 11
254.546371
 21
68.0
 31
0.0
  0
LINE
  8
LC-005-003-MTG-0
  6
CONTINUOUS
  5
43
 10
182.546365
 20
80.0
 30
0.0
 11
254.546371
 21
80.0
 31
0.0
  0
LINE
  8
LC-003-003-----0
  6
CONTINUOUS
  5
44
 10
202.375262
 20
82.610524
 30
0.0
 11
182.546365
 21
80.0
 31
0.0
  0
LINE
  8
LC-003-003-----0
  6
CONTINUOUS
  5
45
 10
182.546365
 20
80.0
 30
0.0
 11
202.375262
 21
77.389476
 31
0.0
  0
LINE
  8
LC-003-003-----0
  6
CONTINUOUS
  5
46
 10
202.375262
 20
77.389476
 30
0.0
 11
202.375262
 21
82.610524
 31
0.0
  0
LINE
  8
LC-003-003-----0
  6
CONTINUOUS
  5
47
 10
202.419749
 20
81.931788
 30
0.0
 11
187.746365
 21
80.0
 31
0.0
  0
LINE
  8
LC-003-003-----0
  6
CONTINUOUS
  5
48
 10
187.746365
 20
80.0
 30
0.0
 11
202.419749
 21
78.068212
 31
0.0
  0
LINE
  8
LC-003-003-----0
  6
CONTINUOUS
  5
49
 10
202.464235
 20
81.253051
 30
0.0
 11
192.946365
 21
80.0
 31
0.0
  0
LINE
  8
LC-003-003-----0
  6
CONTINUOUS
  5
4A
 10
192.946365
 20
80.0
 30
0.0
 11
202.464235
 21
78.746949
 31
0.0
  0
LINE
  8
LC-003-003-----0
  6
CONTINUOUS
  5
4B
 10
202.508722
 20
80.574315
 30
0.0
 11
198.146365
 21
80.0
 31
0.0
  0
LINE
  8
LC-003-003-----0
  6
CONTINUOUS
  5
4C
 10
198.146365
 20
80.0
 30
0.0
 11
202.508722
 21
79.425685
 31
0.0
  0
LINE
  8
LC-003-003-----0
  6
CONTINUOUS
  5
4D
 10
234.717474
 20
77.389476
 30
0.0
 11
254.546371
 21
80.0
 31
0.0
  0
LINE
  8
LC-003-003-----0
  6
CONTINUOUS
  5
4E
 10
254.546371
 20
80.0
 30
0.0
 11
234.717474
 21
82.610524
 31
0.0
  0
LINE
  8
LC-003-003-----0
  6
CONTINUOUS
  5
4F
 10
234.717474
 20
82.610524
 30
0.0
 11
234.717474
 21
77.389476
 31
0.0
  0
LINE
  8
LC-003-003-----0
  6
CONTINUOUS
  5
50
 10
234.672987
 20
78.068212
 30
0.0
 11
249.346371
 21
80.0
 31
0.0
  0
LINE
  8
LC-003-003-----0
  6
CONTINUOUS
  5
51
 10
249.346371
 20
80.0
 30
0.0
 11
234.672987
 21
81.931788
 31
0.0
  0
LINE
  8
LC-003-003-----0
  6
CONTINUOUS
  5
52
 10
234.6285
 20
78.746949
 30
0.0
 11
244.146371
 21
80.0
 31
0.0
  0
LINE
  8
LC-003-003-----0
  6
CONTINUOUS
  5
53
 10
244.146371
 20
80.0
 30
0.0
 11
234.6285
 21
81.253051
 31
0.0
  0
LINE
  8
LC-003-003-----0
  6
CONTINUOUS
  5
54
 10
234.584014
 20
79.425685
 30
0.0
 11
238.946371
 21
80.0
 31
0.0
  0
LINE
  8
LC-003-003-----0
  6
CONTINUOUS
  5
55
 10
238.946371
 20
80.0
 30
0.0
 11
234.584014
 21
80.574315
 31
0.0
  0
TEXT
  8
LC-003-003-----0
  6
CONTINUOUS
 62
     6
  5
56
 10
203.5785
 20
91.59111
 30
0.0
 40
20.0
  1
72
 51
15.0
  7
LC-TXTSTYLE-150-400-0-0-D0
 72
     1
 11
216.759603
 21
91.59111
 31
0.0
  0
ENDBLK
  8
0
  5
57
  0
BLOCK
  8
0
  5
59
  2
BLK1
 70
    64
 10
0.0
 20
0.0
 30
0.0
  3
BLK1
  0
ENDBLK
  8
0
  5
5A
  0
ENDSEC
  0
SECTION
  2
ENTITIES
  0
VIEWPORT
  8
LC-000
  5
AF
 67
     1
 68
     1
 10
420.0
 20
297.0
 30
0.0
 40
840.0
 41
594.0
 69
     1
1001
ACAD
1000
MVIEW
1002
{
1070
    16
1010
0.0
1020
0.0
1030
0.0
1010
0.0
1020
0.0
1030
1.0
1040
0.0
1040
594.0
1040
420.0
1040
297.0
1040
50.0
1040
0.0
1040
0.0
1070
     0
1070
   100
1070
     1
1070
     1
1070
     0
1070
     0
1070
     0
1070
     0
1040
0.0
1040
0.0
1040
0.0
1040
1.0
1040
1.0
1040
0.0
1040
0.0
1070
     0
1002
{
1002
}
1002
}
  0
VIEWPORT
  8
0
  5
B0
 67
     1
 68
     1
 10
0.0
 20
0.0
 30
0.0
 40
0.0
 41
0.0
 69
     1
1001
ACAD
1000
MVIEW
1002
{
1070
    16
1010
0.0
1020
0.0
1030
0.0
1010
0.0
1020
0.0
1030
1.0
1040
0.0
1040
594.0
1040
0.0
1040
0.0
1040
50.0
1040
0.0
1040
0.0
1070
     0
1070
   100
1070
     0
1070
     1
1070
     0
1070
     0
1070
     0
1070
     0
1040
0.0
1040
0.0
1040
0.0
1040
0.5
1040
0.5
1040
0.5
1040
0.5
1070
     0
1002
{
1002
}
1002
}
  0
DIMENSION
  8
0
  5
5B
  2
*D0
 10
84.858107
 20
252.0
 30
0.0
 11
84.858107
 21
252.0
 31
0.0
 13
43.358107
 23
185.081644
 33
0.0
 14
126.358107
 24
185.081644
 34
0.0
  3
LC-DIM-L-0100-02-02
  0
DIMENSION
  8
0
  5
5C
  2
*D1
 10
213.653774
 20
80.0
 30
0.0
 11
213.653774
 21
80.0
 31
0.0
 13
182.546365
 23
144.581474
 33
0.0
 14
254.546371
 24
155.581426
 34
0.0
  3
LC-DIM-L-0100-02-02
  0
INSERT
  8
0
  5
5E
  2
BLK1
 10
0.0
 20
0.0
 30
0.0
  0
LINE
  8
LC-001-002-----0
  6
CONTINUOUS
  5
60
 10
242.5462
 20
226.581644
 30
0.0
 11
182.546197
 21
226.58164
 31
0.0
  0
LINE
  8
LC-001-002-----0
  6
CONTINUOUS
  5
61
 10
242.5462
 20
225.581644
 30
0.0
 11
182.546365
 21
225.581474
 31
0.0
  0
LINE
  8
LC-001-002-----0
  6
CONTINUOUS
  5
62
 10
182.546365
 20
225.581474
 30
0.0
 11
182.546197
 21
226.58164
 31
0.0
  0
LINE
  8
LC-001-002-----0
  6
CONTINUOUS
  5
63
 10
182.546365
 20
225.581474
 30
0.0
 11
182.546365
 21
144.581309
 31
0.0
  0
ARC
  8
LC-001-002-----0
  6
CONTINUOUS
  5
64
 10
242.5462
 20
215.581644
 30
0.0
 40
10.0
 50
4.313709
 51
89.999848
  0
ARC
  8
LC-002-002-RND-0
  6
CONTINUOUS
  5
66
 10
242.5462
 20
214.581644
 30
0.0
 40
12.0
 50
0.0
 51
90.0
  0
LINE
  8
LC-001-002-----0
  6
CONTINUOUS
  5
67
 10
254.546371
 20
155.581426
 30
0.0
 11
254.546392
 21
185.081644
 31
0.0
  0
LINE
  8
LC-001-002-----0
  6
CONTINUOUS
  5
68
 10
252.546371
 20
154.581427
 30
0.0
 11
252.546371
 21
183.638269
 31
0.0
  0
LINE
  8
LC-001-002-----0
  6
CONTINUOUS
  5
69
 10
254.5462
 20
214.581644
 30
0.0
 11
254.5462
 21
185.081644
 31
0.0
  0
ARC
  8
LC-002-002-RND-0
  6
CONTINUOUS
  5
6A
 10
255.5462
 20
180.331646
 30
0.0
 40
9.0
 50
270.000006
 51
0.000006
  0
ARC
  8
LC-001-002-----0
  6
CONTINUOUS
  5
6B
 10
242.546371
 20
154.581434
 30
0.0
 40
10.0
 50
270.000096
 51
359.999963
  0
ARC
  8
LC-001-002-----0
  6
CONTINUOUS
  5
6C
 10
242.546371
 20
155.581434
 30
0.0
 40
12.0
 50
270.000096
 51
359.999963
  0
LINE
  8
LC-001-002-----0
  6
CONTINUOUS
  5
6D
 10
242.546363
 20
143.581435
 30
0.0
 11
182.546363
 21
143.581474
 31
0.0
  0
LINE
  8
LC-001-002-----0
  6
CONTINUOUS
  5
6E
 10
242.546365
 20
144.581435
 30
0.0
 11
182.546529
 21
144.581309
 31
0.0
  0
LINE
  8
LC-001-002-----0
  6
CONTINUOUS
  5
6F
 10
182.546529
 20
144.581309
 30
0.0
 11
182.546363
 21
143.581474
 31
0.0
  0
LINE
  8
LC-001-002-----0
  6
CONTINUOUS
  5
70
 10
232.0462
 20
216.339359
 30
0.0
 11
252.555221
 21
216.333807
 31
0.0
  0
LINE
  8
LC-001-002-----0
  6
CONTINUOUS
  5
71
 10
224.0462
 20
183.645983
 30
0.0
 11
224.0462
 21
211.901533
 31
0.0
  0
LINE
  8
LC-001-002-----0
  6
CONTINUOUS
  5
72
 10
227.5462
 20
212.839355
 30
0.0
 11
224.0462
 21
211.901533
 31
0.0
  0
LINE
  8
LC-001-002-----0
  6
CONTINUOUS
  5
73
 10
230.631988
 20
212.839355
 30
0.0
 11
227.5462
 21
212.839355
 31
0.0
  0
ARC
  8
LC-001-002-----0
  6
CONTINUOUS
  5
74
 10
231.339093
 20
213.089358
 30
0.0
 40
0.75
 50
199.471622
 51
340.528779
  0
LINE
  8
LC-001-002-----0
  6
CONTINUOUS
  5
75
 10
232.0462
 20
216.339359
 30
0.0
 11
232.0462
 21
212.839358
 31
0.0
  0
LINE
  8
LC-006-006-MLN-0
  6
DASHDOT
  5
79
 10
170.546197
 20
185.08164
 30
0.0
 11
274.5462
 21
185.081645
 31
0.0
  0
ARC
  8
LC-001-002-----0
  6
DASHED
 62
     2
  5
7B
 10
84.858107
 20
196.831643
 30
0.0
 40
2.0
 50
180.0
 51
270.0
  0
CIRCLE
  8
LC-001-002-----0
  6
CONTINUOUS
  5
7C
 10
84.858107
 20
185.081644
 30
0.0
 40
41.5
  0
LINE
  8
LC-001-002-----0
  6
CONTINUOUS
  5
7D
 10
260.5462
 20
180.331646
 30
0.0
 11
260.5462
 21
185.081645
 31
0.0
  0
LINE
  8
LC-001-002-----0
  6
CONTINUOUS
  5
7E
 10
254.546201
 20
175.331646
 30
0.0
 11
255.546201
 21
175.331646
 31
0.0
  0
ARC
  8
LC-001-002-----0
  6
CONTINUOUS
  5
7F
 10
255.5462
 20
180.331646
 30
0.0
 40
5.0
 50
270.000005
 51
0.000006
  0
ARC
  8
LC-002-002-RND-0
  6
CONTINUOUS
  5
80
 10
255.5462
 20
189.831643
 30
0.0
 40
9.0
 50
360.0
 51
90.000001
  0
LINE
  8
LC-001-002-----0
  6
CONTINUOUS
  5
81
 10
260.5462
 20
189.831643
 30
0.0
 11
260.5462
 21
185.081644
 31
0.0
  0
LINE
  8
LC-001-002-----0
  6
CONTINUOUS
  5
82
 10
254.5462
 20
194.831643
 30
0.0
 11
255.5462
 21
194.831643
 31
0.0
  0
LINE
  8
LC-001-002-----0
  6
CONTINUOUS
  5
83
 10
264.5462
 20
180.331647
 30
0.0
 11
264.5462
 21
185.081645
 31
0.0
  0
LINE
  8
LC-006-006-MLN-0
  6
DASHDOT
  5
84
 10
136.358107
 20
185.081644
 30
0.0
 11
33.358107
 21
185.081644
 31
0.0
  0
CIRCLE
  8
LC-001-002-----0
  6
CONTINUOUS
  5
85
 10
338.180932
 20
185.081644
 30
0.0
 40
41.5
  0
LINE
  8
LC-006-006-MLN-0
  6
DASHDOT
  5
86
 10
84.858107
 20
236.581644
 30
0.0
 11
84.858107
 21
133.581644
 31
0.0
  0
CIRCLE
  8
LC-001-002-----0
  6
CONTINUOUS
  5
87
 10
338.180932
 20
185.081644
 30
0.0
 40
40.5
  0
LINE
  8
LC-001-002-----0
  6
CONTINUOUS
  5
88
 10
254.546201
 20
171.331646
 30
0.0
 11
255.546201
 21
171.331646
 31
0.0
  0
LINE
  8
LC-006-006-MLN-0
  6
DASHDOT
  5
89
 10
389.680932
 20
185.081644
 30
0.0
 11
286.680932
 21
185.081644
 31
0.0
  0
LINE
  8
LC-006-006-MLN-0
  6
DASHDOT
  5
8A
 10
338.180932
 20
236.581644
 30
0.0
 11
338.180932
 21
133.581644
 31
0.0
  0
ARC
  8
LC-001-002-----0
  6
CONTINUOUS
  5
8B
 10
255.5462
 20
189.831643
 30
0.0
 40
5.0
 50
0.0
 51
90.000001
  0
LINE
  8
LC-001-002-----0
  6
CONTINUOUS
  5
8C
 10
264.5462
 20
189.831643
 30
0.0
 11
264.5462
 21
185.081644
 31
0.0
  0
LINE
  8
LC-001-002-----0
  6
CONTINUOUS
  5
8D
 10
254.5462
 20
198.831643
 30
0.0
 11
255.5462
 21
198.831643
 31
0.0
  0
LINE
  8
LC-001-002-----0
  6
CONTINUOUS
  5
8E
 10
339.430932
 20
216.339359
 30
0.0
 11
339.430932
 21
185.803332
 31
0.0
  0
LINE
  8
LC-001-002-----0
  6
CONTINUOUS
  5
8F
 10
86.858107
 20
196.831643
 30
0.0
 11
86.858107
 21
173.331646
 31
0.0
  0
LINE
  8
LC-001-002-----0
  6
CONTINUOUS
  5
90
 10
82.858107
 20
196.831643
 30
0.0
 11
82.858107
 21
173.331646
 31
0.0
  0
ARC
  8
LC-001-002-----0
  6
CONTINUOUS
  5
91
 10
84.858107
 20
196.831643
 30
0.0
 40
2.0
 50
0.0
 51
180.0
  0
LINE
  8
LC-001-002-----0
  6
CONTINUOUS
  5
92
 10
336.930932
 20
216.339359
 30
0.0
 11
339.430932
 21
216.339359
 31
0.0
  0
LINE
  8
LC-001-002-----0
  6
CONTINUOUS
  5
93
 10
224.0462
 20
183.645983
 30
0.0
 11
252.546371
 21
183.638269
 31
0.0
  0
LINE
  8
LC-001-002-----0
  6
CONTINUOUS
  5
94
 10
336.930932
 20
216.339359
 30
0.0
 11
336.930932
 21
185.803332
 31
0.0
  0
LINE
  8
LC-001-002-----0
  6
CONTINUOUS
  5
95
 10
336.930932
 20
212.839355
 30
0.0
 11
339.430932
 21
212.839355
 31
0.0
  0
LINE
  8
LC-001-002-----0
  6
CONTINUOUS
  5
96
 10
336.930932
 20
211.901533
 30
0.0
 11
339.430932
 21
211.901533
 31
0.0
  0
LINE
  8
LC-001-002-----0
  6
DASHED
 62
     2
  5
97
 10
336.930932
 20
212.339358
 30
0.0
 11
339.430932
 21
212.339358
 31
0.0
  0
LINE
  8
LC-001-002-----0
  6
CONTINUOUS
  5
98
 10
310.485957
 20
170.535319
 30
0.0
 11
336.930932
 21
185.803332
 31
0.0
  0
LINE
  8
LC-001-002-----0
  6
CONTINUOUS
  5
99
 10
311.735957
 20
168.370255
 30
0.0
 11
310.485957
 21
170.535319
 31
0.0
  0
LINE
  8
LC-001-002-----0
  6
CONTINUOUS
  5
9A
 10
311.735957
 20
168.370255
 30
0.0
 11
338.180932
 21
183.638268
 31
0.0
  0
LINE
  8
LC-001-002-----0
  6
CONTINUOUS
  5
9B
 10
314.767049
 20
170.120257
 30
0.0
 11
313.517049
 21
172.285321
 31
0.0
  0
LINE
  8
LC-001-002-----0
  6
CONTINUOUS
  5
9C
 10
315.579227
 20
170.589168
 30
0.0
 11
314.329227
 21
172.754232
 31
0.0
  0
LINE
  8
LC-001-002-----0
  6
DASHED
 62
     2
  5
9D
 10
315.200059
 20
170.370255
 30
0.0
 11
313.950059
 21
172.535319
 31
0.0
  0
LINE
  8
LC-001-002-----0
  6
CONTINUOUS
  5
9E
 10
364.625906
 20
168.370255
 30
0.0
 11
338.180932
 21
183.638268
 31
0.0
  0
LINE
  8
LC-001-002-----0
  6
CONTINUOUS
  5
9F
 10
365.875906
 20
170.535319
 30
0.0
 11
364.625906
 21
168.370255
 31
0.0
  0
LINE
  8
LC-001-002-----0
  6
CONTINUOUS
  5
A0
 10
365.875906
 20
170.535319
 30
0.0
 11
339.430932
 21
185.803332
 31
0.0
  0
LINE
  8
LC-001-002-----0
  6
CONTINUOUS
  5
A1
 10
362.844814
 20
172.285321
 30
0.0
 11
361.594814
 21
170.120257
 31
0.0
  0
LINE
  8
LC-001-002-----0
  6
CONTINUOUS
  5
A2
 10
362.032637
 20
172.754232
 30
0.0
 11
360.782637
 21
170.589168
 31
0.0
  0
LINE
  8
LC-001-002-----0
  6
DASHED
 62
     2
  5
A3
 10
362.411805
 20
172.535319
 30
0.0
 11
361.161805
 21
170.370255
 31
0.0
  0
ARC
  8
LC-001-002-----0
  6
DASHED
 62
     2
  5
A4
 10
84.858107
 20
196.831643
 30
0.0
 40
2.0
 50
270.0
 51
0.0
  0
ARC
  8
LC-001-002-----0
  6
CONTINUOUS
  5
A5
 10
84.858107
 20
173.331646
 30
0.0
 40
2.0
 50
180.0
 51
0.0
  0
ARC
  8
LC-001-002-----0
  6
DASHED
 62
     2
  5
A6
 10
84.858107
 20
173.331646
 30
0.0
 40
2.0
 50
0.0
 51
90.0
  0
ARC
  8
LC-001-002-----0
  6
DASHED
 62
     2
  5
A7
 10
84.858107
 20
173.331646
 30
0.0
 40
2.0
 50
90.0
 51
180.0
  0
LINE
  8
LC-001-002-----0
  6
CONTINUOUS
  5
A8
 10
224.0462
 20
183.638268
 30
0.0
 11
224.0462
 21
170.589168
 31
0.0
  0
LINE
  8
LC-001-002-----0
  6
CONTINUOUS
  5
A9
 10
224.0462
 20
170.589168
 30
0.0
 11
227.5462
 21
170.120257
 31
0.0
  0
LINE
  8
LC-001-002-----0
  6
CONTINUOUS
  5
AA
 10
227.5462
 20
170.120257
 30
0.0
 11
230.631988
 21
170.120257
 31
0.0
  0
LINE
  8
LC-001-002-----0
  6
CONTINUOUS
  5
AB
 10
232.0462
 20
170.120257
 30
0.0
 11
232.0462
 21
168.370255
 31
0.0
  0
LINE
  8
LC-001-002-----0
  6
CONTINUOUS
  5
AC
 10
232.0462
 20
168.370255
 30
0.0
 11
252.546371
 21
168.370255
 31
0.0
  0
ARC
  8
LC-001-002-----0
  6
CONTINUOUS
  5
AD
 10
231.339094
 20
169.821563
 30
0.0
 40
0.767605
 50
22.900021
 51
157.099979
  0
ENDSEC
  0
EOF
