  0
SECTION
  2
HEADER
  9
$ACADVER
  1
AC1009
  9
$DWGCODEPAGE
  3
dos850
  9
$INSBASE
 10
0.0
 20
0.0
 30
0.0
  9
$EXTMIN
 10
-210.0
 20
0.0
 30
0.0
  9
$EXTMAX
 10
630.0
 20
594.0
 30
0.0
  9
$LIMMIN
 10
-210.0
 20
0.0
  9
$LIMMAX
 10
630.0
 20
594.0
  9
$ORTHOMODE
 70
     0
  9
$REGENMODE
 70
     1
  9
$FILLMODE
 70
     1
  9
$QTEXTMODE
 70
     0
  9
$MIRRTEXT
 70
     1
  9
$DRAGMODE
 70
     2
  9
$LTSCALE
 40
2.0
  9
$OSMODE
 70
     0
  9
$ATTMODE
 70
     1
  9
$TEXTSIZE
 40
0.2
  9
$TRACEWID
 40
0.05
  9
$TEXTSTYLE
  7
STANDARD
  9
$CLAYER
  8
0
  9
$CELTYPE
  6
BYBLOCK
  9
$CECOLOR
 62
     7
  9
$DIMSCALE
 40
2.0
  9
$DIMASZ
 40
3.5
  9
$DIMEXO
 40
0.0625
  9
$DIMDLI
 40
0.38
  9
$DIMRND
 40
0.0
  9
$DIMDLE
 40
0.0
  9
$DIMEXE
 40
0.18
  9
$DIMTP
 40
0.0
  9
$DIMTM
 40
0.0
  9
$DIMTXT
 40
3.5
  9
$DIMCEN
 40
0.09
  9
$DIMTSZ
 40
0.0
  9
$DIMTOL
 70
     0
  9
$DIMLIM
 70
     0
  9
$DIMTIH
 70
     1
  9
$DIMTOH
 70
     1
  9
$DIMSE1
 70
     0
  9
$DIMSE2
 70
     0
  9
$DIMTAD
 70
     1
  9
$DIMZIN
 70
     0
  9
$DIMBLK
  1

  9
$DIMASO
 70
     1
  9
$DIMSHO
 70
     1
  9
$DIMPOST
  1

  9
$DIMAPOST
  1

  9
$DIMALT
 70
     0
  9
$DIMALTD
 70
     2
  9
$DIMALTF
 40
25.4
  9
$DIMLFAC
 40
1.0
  9
$DIMTOFL
 70
     0
  9
$DIMTVP
 40
0.0
  9
$DIMTIX
 70
     0
  9
$DIMSOXD
 70
     0
  9
$DIMSAH
 70
     0
  9
$DIMBLK1
  1

  9
$DIMBLK2
  1

  9
$DIMSTYLE
  2
STANDARD
  9
$DIMCLRD
 70
     0
  9
$DIMCLRE
 70
     0
  9
$DIMCLRT
 70
     0
  9
$DIMTFAC
 40
1.0
  9
$DIMGAP
 40
0.09
  9
$LUNITS
 70
     2
  9
$LUPREC
 70
     6
  9
$AXISMODE
 70
     0
  9
$AXISUNIT
 10
0.0
 20
0.0
  9
$SKETCHINC
 40
0.1
  9
$FILLETRAD
 40
0.0
  9
$AUNITS
 70
     0
  9
$AUPREC
 70
     0
  9
$MENU
  1
acad
  9
$ELEVATION
 40
0.0
  9
$PELEVATION
 40
0.0
  9
$THICKNESS
 40
0.0
  9
$LIMCHECK
 70
     0
  9
$BLIPMODE
 70
     1
  9
$CHAMFERA
 40
0.0
  9
$CHAMFERB
 40
0.0
  9
$SKPOLY
 70
     0
  9
$TDCREATE
 40
0.000000000
  9
$TDUPDATE
 40
0.000000000
  9
$TDINDWG
 40
0.0000000000
  9
$TDUSRTIMER
 40
0.0000000000
  9
$USRTIMER
 70
     1
  9
$ANGBASE
 50
0.0
  9
$ANGDIR
 70
     0
  9
$PDMODE
 70
     0
  9
$PDSIZE
 40
0.0
  9
$PLINEWID
 40
0.0
  9
$COORDS
 70
     0
  9
$SPLFRAME
 70
     0
  9
$SPLINETYPE
 70
     6
  9
$SPLINESEGS
 70
     8
  9
$ATTDIA
 70
     0
  9
$ATTREQ
 70
     1
  9
$HANDLING
 70
     1
  9
$HANDSEED
  5
3A4
  9
$SURFTAB1
 70
     6
  9
$SURFTAB2
 70
     6
  9
$SURFTYPE
 70
     6
  9
$SURFU
 70
     6
  9
$SURFV
 70
     6
  9
$UCSNAME
  2

  9
$UCSORG
 10
0.0
 20
0.0
 30
0.0
  9
$UCSXDIR
 10
1.0
 20
0.0
 30
0.0
  9
$UCSYDIR
 10
0.0
 20
1.0
 30
0.0
  9
$PUCSNAME
  2

  9
$PUCSORG
 10
0.0
 20
0.0
 30
0.0
  9
$PUCSXDIR
 10
1.0
 20
0.0
 30
0.0
  9
$PUCSYDIR
 10
0.0
 20
1.0
 30
0.0
  9
$USERI1
 70
     0
  9
$USERI2
 70
     0
  9
$USERI3
 70
     0
  9
$USERI4
 70
     0
  9
$USERI5
 70
     0
  9
$USERR1
 40
0.0
  9
$USERR2
 40
0.0
  9
$USERR3
 40
0.0
  9
$USERR4
 40
0.0
  9
$USERR5
 40
0.0
  9
$WORLDVIEW
 70
     1
  9
$SHADEDGE
 70
     3
  9
$SHADEDIF
 70
    70
  9
$TILEMODE
 70
     1
  9
$MAXACTVP
 70
    16
  9
$PINSBASE
 10
0.0
 20
0.0
 30
0.0
  9
$PLIMCHECK
 70
     0
  9
$PEXTMIN
 10
-210.0
 20
0.0
 30
0.0
  9
$PEXTMAX
 10
630.0
 20
594.0
 30
0.0
  9
$PLIMMIN
 10
-210.0
 20
0.0
  9
$PLIMMAX
 10
630.0
 20
594.0
  9
$UNITMODE
 70
     0
  9
$VISRETAIN
 70
     0
  9
$PLINEGEN
 70
     1
  9
$PSLTSCALE
 70
     0
  9
$TREEDEPTH
 70
  3020
  0
ENDSEC
  0
SECTION
  2
TABLES
  0
TABLE
  2
VPORT
 70
     1
  0
VPORT
  2
*ACTIVE
 70
     0
 10
0.0
 20
0.0
 11
1.0
 21
1.0
 12
420.0
 22
297.0
 13
0.0
 23
0.0
 14
1.0
 24
1.0
 15
0.0
 25
0.0
 16
0.0
 26
0.0
 36
1.0
 17
-210.0
 27
0.0
 37
0.0
 40
594.0
 41
1.604229
 42
50.0
 43
0.0
 44
0.0
 50
0.0
 51
0.0
 71
     0
 72
   100
 73
     1
 74
     1
 75
     0
 76
     0
 77
     0
 78
     0
  0
ENDTAB
  0
TABLE
  2
LTYPE
 70
     3
  0
LTYPE
  2
CONTINUOUS
 70
    64
  3
Solid line
 72
    65
 73
     0
 40
0.0
  0
LTYPE
  2
DASHED
 70
    64
  3
__ __ __ __ __
 72
    65
 73
     2
 40
6.25
 49
5.0
 49
-1.25
  0
LTYPE
  2
DASHDOT
 70
    64
  3
__ . __ . __ . __ . __
 72
    65
 73
     4
 40
7.5
 49
5.0
 49
-1.25
 49
0.0
 49
-1.25
  0
ENDTAB
  0
TABLE
  2
LAYER
 70
    13
  0
LAYER
  2
0
 70
     0
 62
     7
  6
CONTINUOUS
  0
LAYER
  2
LC-INFO-1-2-MM-A3-0
 70
     1
 62
   255
  6
BYBLOCK
  0
LAYER
  2
LC-3D-HIDDEN
 70
     0
 62
     9
  6
DASHED
  0
LAYER
  2
LC-CUT-HIDDEN
 70
     0
 62
     9
  6
DASHED
  0
LAYER
  2
LC-VIEWPORT
 70
     0
 62
     7
  6
BYBLOCK
  0
LAYER
  2
LC-001-002-----0
 70
     0
 62
     1
  6
BYBLOCK
  0
LAYER
  2
LC-002-002-RND-0
 70
     0
 62
     1
  6
BYBLOCK
  0
LAYER
  2
LC-003-001-RND-0
 70
     0
 62
     1
  6
BYBLOCK
  0
LAYER
  2
LC-004-001-----0
 70
     0
 62
     1
  6
BYBLOCK
  0
LAYER
  2
LC-005-005-----0
 70
     0
 62
     2
  6
BYBLOCK
  0
LAYER
  2
LC-006-003-MTH-0
 70
     0
 62
     2
  6
BYBLOCK
  0
LAYER
  2
LC-007-003-----0
 70
     0
 62
     2
  6
BYBLOCK
  0
LAYER
  2
LC-008-003-MTG-0
 70
     0
 62
     2
  6
BYBLOCK
  0
ENDTAB
  0
TABLE
  2
STYLE
 70
     4
  0
STYLE
  2
STANDARD
 70
     0
 40
0.0
 41
1.0
 50
0.0
 71
     0
 42
0.0
  3
txt
  4

  0
STYLE
  2
LCTX15-400-0-0-ARIAL
 70
    64
 40
3.5
 41
1.0
 50
0.0
 71
     0
 42
0.0
  3
Arial
  4

  0
STYLE
  2
LCTX0-500-0-0-DIN-SCHRIFT
 70
    64
 40
3.5
 41
1.0
 50
0.0
 71
     0
 42
0.0
  3
MONOTXT
  4

  0
STYLE
  2
LCTX15-400-0-0-DIN-SCHRIFT__P_
 70
    64
 40
0.0
 41
1.0
 50
1.5
 71
     0
 42
3.5
  3
STANDARD
  4

  0
ENDTAB
  0
TABLE
  2
VIEW
 70
     0
  0
ENDTAB
  0
TABLE
  2
UCS
 70
     0
  0
ENDTAB
  0
TABLE
  2
APPID
 70
     1
  0
APPID
  2
ACAD
 70
     0
  0
ENDTAB
  0
TABLE
  2
DIMSTYLE
 70
     2
  0
DIMSTYLE
  2
STANDARD
 70
     0
  3

  4

  5

  6

  7

 40
1.0
 41
0.18
 42
0.0625
 43
0.38
 44
0.18
 45
0.0
 46
0.0
 47
0.0
 48
0.0
 71
     0
 72
     0
 73
     1
 74
     1
 75
     0
 76
     0
 77
     0
 78
     0
140
0.18
141
0.09
142
0.0
143
25.4
144
1.0
145
0.0
146
1.0
147
0.09
170
     0
171
     2
172
     0
173
     0
174
     0
175
     0
176
     0
177
     0
178
     0
  0
DIMSTYLE
  2
LC-DIM-L-0140-02-02
 70
     0
  3

  4

  5

  6

  7

 40
2.0
 41
3.5
 42
0.0
 43
7.5
 44
1.8
 45
0.0
 46
0.0
 47
0.0
 48
0.0
 71
     0
 72
     0
 73
     0
 74
     0
 75
     0
 76
     0
 77
     1
 78
     8
140
14.0
141
0.0
142
0.0
143
25.4
144
1.0
145
0.0
146
0.71
147
1.5
170
     0
171
     2
172
     0
173
     0
174
     0
175
     0
176
     2
177
     2
178
     2
  0
ENDTAB
  0
ENDSEC
  0
SECTION
  2
BLOCKS
  0
BLOCK
  8
0
  5
AF
  2
*X0
 70
    65
 10
0.0
 20
0.0
 30
0.0
  3
*X0
  0
LINE
  8
LC-005-005-----0
 62
     2
  5
B1
 10
207.335962
 20
317.64462
 30
0.0
 11
208.22409
 21
318.532748
 31
0.0
  0
LINE
  8
LC-005-005-----0
 62
     2
  5
B2
 10
205.811549
 20
318.948634
 30
0.0
 11
208.22409
 21
321.361175
 31
0.0
  0
LINE
  8
LC-005-005-----0
 62
     2
  5
B3
 10
205.22409
 20
321.189602
 30
0.0
 11
208.22409
 21
324.189602
 31
0.0
  0
LINE
  8
LC-005-005-----0
 62
     2
  5
B4
 10
205.22409
 20
324.01803
 30
0.0
 11
208.22409
 21
327.01803
 31
0.0
  0
LINE
  8
LC-005-005-----0
 62
     2
  5
B5
 10
205.22409
 20
326.846457
 30
0.0
 11
208.22409
 21
329.846457
 31
0.0
  0
LINE
  8
LC-005-005-----0
 62
     2
  5
B6
 10
205.22409
 20
329.674884
 30
0.0
 11
208.22409
 21
332.674884
 31
0.0
  0
LINE
  8
LC-005-005-----0
 62
     2
  5
B7
 10
205.22409
 20
332.503311
 30
0.0
 11
208.22409
 21
335.503311
 31
0.0
  0
LINE
  8
LC-005-005-----0
 62
     2
  5
B8
 10
205.22409
 20
335.331738
 30
0.0
 11
208.22409
 21
338.331738
 31
0.0
  0
LINE
  8
LC-005-005-----0
 62
     2
  5
B9
 10
205.22409
 20
338.160165
 30
0.0
 11
208.22409
 21
341.160165
 31
0.0
  0
LINE
  8
LC-005-005-----0
 62
     2
  5
BA
 10
205.22409
 20
340.988592
 30
0.0
 11
208.22409
 21
343.988592
 31
0.0
  0
LINE
  8
LC-005-005-----0
 62
     2
  5
BB
 10
205.22409
 20
343.817019
 30
0.0
 11
208.22409
 21
346.817019
 31
0.0
  0
LINE
  8
LC-005-005-----0
 62
     2
  5
BC
 10
205.22409
 20
346.645447
 30
0.0
 11
208.22409
 21
349.645447
 31
0.0
  0
LINE
  8
LC-005-005-----0
 62
     2
  5
BD
 10
205.180325
 20
349.430108
 30
0.0
 11
207.651024
 21
351.900807
 31
0.0
  0
LINE
  8
LC-005-005-----0
 62
     2
  5
BE
 10
203.161299
 20
350.239509
 30
0.0
 11
205.966057
 21
353.044267
 31
0.0
  0
LINE
  8
LC-005-005-----0
 62
     2
  5
BF
 10
202.126022
 20
352.032659
 30
0.0
 11
203.716786
 21
353.623424
 31
0.0
  0
LINE
  8
LC-005-005-----0
 62
     2
  5
C0
 10
197.402185
 20
350.13725
 30
0.0
 11
202.705584
 21
355.440649
 31
0.0
  0
LINE
  8
LC-005-005-----0
 62
     2
  5
C1
 10
194.573351
 20
350.136843
 30
0.0
 11
197.757695
 21
353.321187
 31
0.0
  0
LINE
  8
LC-005-005-----0
 62
     2
  5
C2
 10
199.540411
 20
355.103903
 30
0.0
 11
202.679535
 21
358.243027
 31
0.0
  0
LINE
  8
LC-005-005-----0
 62
     2
  5
C3
 10
191.745325
 20
350.137244
 30
0.0
 11
194.745589
 21
353.137508
 31
0.0
  0
LINE
  8
LC-005-005-----0
 62
     2
  5
C4
 10
199.72409
 20
358.116009
 30
0.0
 11
202.655065
 21
361.046984
 31
0.0
  0
LINE
  8
LC-005-005-----0
 62
     2
  5
C5
 10
188.917158
 20
350.137504
 30
0.0
 11
189.474364
 21
350.69471
 31
0.0
  0
LINE
  8
LC-005-005-----0
 62
     2
  5
C6
 10
190.412599
 20
351.632945
 30
0.0
 11
191.917161
 21
353.137508
 31
0.0
  0
LINE
  8
LC-005-005-----0
 62
     2
  5
C7
 10
199.72409
 20
360.944436
 30
0.0
 11
202.630596
 21
363.850942
 31
0.0
  0
LINE
  8
LC-005-005-----0
 62
     2
  5
C8
 10
186.088731
 20
350.137504
 30
0.0
 11
189.088734
 21
353.137508
 31
0.0
  0
LINE
  8
LC-005-005-----0
 62
     2
  5
C9
 10
189.474348
 20
353.523121
 30
0.0
 11
189.813937
 21
353.86271
 31
0.0
  0
LINE
  8
LC-005-005-----0
 62
     2
  5
CA
 10
199.72409
 20
363.772864
 30
0.0
 11
202.606126
 21
366.654899
 31
0.0
  0
LINE
  8
LC-005-005-----0
 62
     2
  5
CB
 10
183.260304
 20
350.137505
 30
0.0
 11
186.260307
 21
353.137508
 31
0.0
  0
LINE
  8
LC-005-005-----0
 62
     2
  5
CC
 10
199.72409
 20
366.601291
 30
0.0
 11
202.581656
 21
369.458856
 31
0.0
  0
LINE
  8
LC-005-005-----0
 62
     2
  5
CD
 10
180.431878
 20
350.137505
 30
0.0
 11
183.43188
 21
353.137508
 31
0.0
  0
LINE
  8
LC-005-005-----0
 62
     2
  5
CE
 10
199.72409
 20
369.429718
 30
0.0
 11
202.557186
 21
372.262814
 31
0.0
  0
LINE
  8
LC-005-005-----0
 62
     2
  5
CF
 10
177.603451
 20
350.137506
 30
0.0
 11
180.603453
 21
353.137508
 31
0.0
  0
LINE
  8
LC-005-005-----0
 62
     2
  5
D0
 10
199.72409
 20
372.258145
 30
0.0
 11
202.532717
 21
375.066771
 31
0.0
  0
LINE
  8
LC-005-005-----0
 62
     2
  5
D1
 10
174.775024
 20
350.137506
 30
0.0
 11
177.775026
 21
353.137508
 31
0.0
  0
LINE
  8
LC-005-005-----0
 62
     2
  5
D2
 10
199.72409
 20
375.086572
 30
0.0
 11
202.508247
 21
377.870729
 31
0.0
  0
LINE
  8
LC-005-005-----0
 62
     2
  5
D3
 10
171.946597
 20
350.137506
 30
0.0
 11
174.946599
 21
353.137508
 31
0.0
  0
LINE
  8
LC-005-005-----0
 62
     2
  5
D4
 10
199.72409
 20
377.914999
 30
0.0
 11
202.483777
 21
380.674686
 31
0.0
  0
LINE
  8
LC-005-005-----0
 62
     2
  5
D5
 10
169.118171
 20
350.137507
 30
0.0
 11
172.118172
 21
353.137508
 31
0.0
  0
LINE
  8
LC-005-005-----0
 62
     2
  5
D6
 10
199.72409
 20
380.743426
 30
0.0
 11
202.459307
 21
383.478643
 31
0.0
  0
LINE
  8
LC-005-005-----0
 62
     2
  5
D7
 10
166.289744
 20
350.137507
 30
0.0
 11
169.289744
 21
353.137508
 31
0.0
  0
LINE
  8
LC-005-005-----0
 62
     2
  5
D8
 10
199.72409
 20
383.571853
 30
0.0
 11
202.434838
 21
386.282601
 31
0.0
  0
LINE
  8
LC-005-005-----0
 62
     2
  5
D9
 10
163.461317
 20
350.137507
 30
0.0
 11
166.461317
 21
353.137508
 31
0.0
  0
LINE
  8
LC-005-005-----0
 62
     2
  5
DA
 10
199.72409
 20
386.400281
 30
0.0
 11
202.410368
 21
389.086558
 31
0.0
  0
LINE
  8
LC-005-005-----0
 62
     2
  5
DB
 10
160.679422
 20
350.184039
 30
0.0
 11
163.63289
 21
353.137508
 31
0.0
  0
LINE
  8
LC-005-005-----0
 62
     2
  5
DC
 10
199.72409
 20
389.228708
 30
0.0
 11
202.385898
 21
391.890515
 31
0.0
  0
LINE
  8
LC-005-005-----0
 62
     2
  5
DD
 10
158.311073
 20
350.644118
 30
0.0
 11
160.847339
 21
353.180384
 31
0.0
  0
LINE
  8
LC-005-005-----0
 62
     2
  5
DE
 10
199.72409
 20
392.057135
 30
0.0
 11
202.361428
 21
394.694473
 31
0.0
  0
LINE
  8
LC-005-005-----0
 62
     2
  5
DF
 10
156.301908
 20
351.46338
 30
0.0
 11
158.553338
 21
353.714809
 31
0.0
  0
LINE
  8
LC-005-005-----0
 62
     2
  5
E0
 10
199.72409
 20
394.885562
 30
0.0
 11
202.336958
 21
397.49843
 31
0.0
  0
LINE
  8
LC-005-005-----0
 62
     2
  5
E1
 10
154.573726
 20
352.563625
 30
0.0
 11
156.688604
 21
354.678503
 31
0.0
  0
LINE
  8
LC-005-005-----0
 62
     2
  5
E2
 10
199.72409
 20
397.713989
 30
0.0
 11
202.312489
 21
400.302387
 31
0.0
  0
LINE
  8
LC-005-005-----0
 62
     2
  5
E3
 10
153.094587
 20
353.912913
 30
0.0
 11
155.161261
 21
355.979587
 31
0.0
  0
LINE
  8
LC-005-005-----0
 62
     2
  5
E4
 10
199.72409
 20
400.542416
 30
0.0
 11
202.288019
 21
403.106345
 31
0.0
  0
LINE
  8
LC-005-005-----0
 62
     2
  5
E5
 10
151.858517
 20
355.50527
 30
0.0
 11
153.952677
 21
357.59943
 31
0.0
  0
LINE
  8
LC-005-005-----0
 62
     2
  5
E6
 10
199.72409
 20
403.370843
 30
0.0
 11
202.263549
 21
405.910302
 31
0.0
  0
LINE
  8
LC-005-005-----0
 62
     2
  5
E7
 10
150.8824
 20
357.35758
 30
0.0
 11
153.097884
 21
359.573064
 31
0.0
  0
LINE
  8
LC-005-005-----0
 62
     2
  5
E8
 10
199.72409
 20
406.19927
 30
0.0
 11
202.239079
 21
408.71426
 31
0.0
  0
LINE
  8
LC-005-005-----0
 62
     2
  5
E9
 10
150.215301
 20
359.518908
 30
0.0
 11
152.725451
 21
362.029058
 31
0.0
  0
LINE
  8
LC-005-005-----0
 62
     2
  5
EA
 10
199.72409
 20
409.027698
 30
0.0
 11
202.21461
 21
411.518217
 31
0.0
  0
LINE
  8
LC-005-005-----0
 62
     2
  5
EB
 10
149.97409
 20
362.106125
 30
0.0
 11
152.724797
 21
364.856832
 31
0.0
  0
LINE
  8
LC-005-005-----0
 62
     2
  5
EC
 10
199.72409
 20
411.856125
 30
0.0
 11
202.19014
 21
414.322174
 31
0.0
  0
LINE
  8
LC-005-005-----0
 62
     2
  5
ED
 10
149.97409
 20
364.934552
 30
0.0
 11
152.724797
 21
367.685259
 31
0.0
  0
LINE
  8
LC-005-005-----0
 62
     2
  5
EE
 10
199.72409
 20
414.684552
 30
0.0
 11
202.16567
 21
417.126132
 31
0.0
  0
LINE
  8
LC-005-005-----0
 62
     2
  5
EF
 10
149.97409
 20
367.762979
 30
0.0
 11
152.724797
 21
370.513686
 31
0.0
  0
LINE
  8
LC-005-005-----0
 62
     2
  5
F0
 10
199.72409
 20
417.512979
 30
0.0
 11
202.1412
 21
419.930089
 31
0.0
  0
LINE
  8
LC-005-005-----0
 62
     2
  5
F1
 10
149.97409
 20
370.591406
 30
0.0
 11
152.724797
 21
373.342113
 31
0.0
  0
LINE
  8
LC-005-005-----0
 62
     2
  5
F2
 10
199.72409
 20
420.341406
 30
0.0
 11
202.116731
 21
422.734046
 31
0.0
  0
LINE
  8
LC-005-005-----0
 62
     2
  5
F3
 10
149.97409
 20
373.419833
 30
0.0
 11
152.724797
 21
376.17054
 31
0.0
  0
LINE
  8
LC-005-005-----0
 62
     2
  5
F4
 10
199.72409
 20
423.169833
 30
0.0
 11
202.092261
 21
425.538004
 31
0.0
  0
LINE
  8
LC-005-005-----0
 62
     2
  5
F5
 10
149.97409
 20
376.24826
 30
0.0
 11
152.724797
 21
378.998967
 31
0.0
  0
LINE
  8
LC-005-005-----0
 62
     2
  5
F6
 10
199.72409
 20
425.99826
 30
0.0
 11
201.863338
 21
428.137508
 31
0.0
  0
LINE
  8
LC-005-005-----0
 62
     2
  5
F7
 10
149.97409
 20
379.076687
 30
0.0
 11
152.724797
 21
381.827394
 31
0.0
  0
LINE
  8
LC-005-005-----0
 62
     2
  5
F8
 10
149.97409
 20
381.905115
 30
0.0
 11
152.724797
 21
384.655822
 31
0.0
  0
LINE
  8
LC-005-005-----0
 62
     2
  5
F9
 10
149.97409
 20
384.733542
 30
0.0
 11
152.724797
 21
387.484249
 31
0.0
  0
LINE
  8
LC-005-005-----0
 62
     2
  5
FA
 10
149.97409
 20
387.561969
 30
0.0
 11
152.724797
 21
390.312676
 31
0.0
  0
LINE
  8
LC-005-005-----0
 62
     2
  5
FB
 10
149.97409
 20
390.390396
 30
0.0
 11
152.724797
 21
393.141103
 31
0.0
  0
LINE
  8
LC-005-005-----0
 62
     2
  5
FC
 10
149.97409
 20
393.218823
 30
0.0
 11
152.724797
 21
395.96953
 31
0.0
  0
LINE
  8
LC-005-005-----0
 62
     2
  5
FD
 10
149.97409
 20
396.04725
 30
0.0
 11
152.724797
 21
398.797957
 31
0.0
  0
LINE
  8
LC-005-005-----0
 62
     2
  5
FE
 10
149.97409
 20
398.875677
 30
0.0
 11
152.724797
 21
401.626384
 31
0.0
  0
LINE
  8
LC-005-005-----0
 62
     2
  5
FF
 10
149.97409
 20
401.704104
 30
0.0
 11
152.724797
 21
404.454811
 31
0.0
  0
LINE
  8
LC-005-005-----0
 62
     2
  5
100
 10
149.97409
 20
404.532532
 30
0.0
 11
152.724797
 21
407.283239
 31
0.0
  0
LINE
  8
LC-005-005-----0
 62
     2
  5
101
 10
149.97409
 20
407.360959
 30
0.0
 11
152.724797
 21
410.111666
 31
0.0
  0
LINE
  8
LC-005-005-----0
 62
     2
  5
102
 10
149.97409
 20
410.189386
 30
0.0
 11
152.724797
 21
412.940093
 31
0.0
  0
LINE
  8
LC-005-005-----0
 62
     2
  5
103
 10
149.97409
 20
413.017813
 30
0.0
 11
152.724797
 21
415.76852
 31
0.0
  0
LINE
  8
LC-005-005-----0
 62
     2
  5
104
 10
149.97409
 20
415.84624
 30
0.0
 11
152.724797
 21
418.596947
 31
0.0
  0
LINE
  8
LC-005-005-----0
 62
     2
  5
105
 10
149.97409
 20
418.674667
 30
0.0
 11
152.724797
 21
421.425374
 31
0.0
  0
LINE
  8
LC-005-005-----0
 62
     2
  5
106
 10
149.97409
 20
421.503094
 30
0.0
 11
152.724797
 21
424.253801
 31
0.0
  0
LINE
  8
LC-005-005-----0
 62
     2
  5
107
 10
149.97409
 20
424.331521
 30
0.0
 11
152.724797
 21
427.082228
 31
0.0
  0
LINE
  8
LC-005-005-----0
 62
     2
  5
108
 10
148.910811
 20
426.096669
 30
0.0
 11
152.174797
 21
429.360656
 31
0.0
  0
LINE
  8
LC-005-005-----0
 62
     2
  5
109
 10
147.745961
 20
427.760246
 30
0.0
 11
152.467798
 21
432.482083
 31
0.0
  0
LINE
  8
LC-005-005-----0
 62
     2
  5
10A
 10
146.581112
 20
429.423824
 30
0.0
 11
152.925283
 21
435.767995
 31
0.0
  0
LINE
  8
LC-005-005-----0
 62
     2
  5
10B
 10
145.416262
 20
431.087402
 30
0.0
 11
151.116368
 21
436.787508
 31
0.0
  0
LINE
  8
LC-005-005-----0
 62
     2
  5
10C
 10
144.251412
 20
432.750979
 30
0.0
 11
148.287941
 21
436.787508
 31
0.0
  0
LINE
  8
LC-005-005-----0
 62
     2
  5
10D
 10
143.086563
 20
434.414557
 30
0.0
 11
145.459514
 21
436.787508
 31
0.0
  0
LINE
  8
LC-005-005-----0
 62
     2
  5
10E
 10
141.921713
 20
436.078134
 30
0.0
 11
143.476179
 21
437.6326
 31
0.0
  0
LINE
  8
LC-005-005-----0
 62
     2
  5
10F
 10
140.756864
 20
437.741712
 30
0.0
 11
143.476179
 21
440.461027
 31
0.0
  0
LINE
  8
LC-005-005-----0
 62
     2
  5
110
 10
140.724797
 20
440.538073
 30
0.0
 11
143.476179
 21
443.289454
 31
0.0
  0
LINE
  8
LC-005-005-----0
 62
     2
  5
111
 10
140.724797
 20
443.3665
 30
0.0
 11
143.476179
 21
446.117881
 31
0.0
  0
LINE
  8
LC-005-005-----0
 62
     2
  5
112
 10
139.920553
 20
445.390682
 30
0.0
 11
143.476179
 21
448.946309
 31
0.0
  0
LINE
  8
LC-005-005-----0
 62
     2
  5
113
 10
137.60887
 20
445.907427
 30
0.0
 11
139.988951
 21
448.287508
 31
0.0
  0
LINE
  8
LC-005-005-----0
 62
     2
  5
114
 10
141.474797
 20
449.773354
 30
0.0
 11
143.476179
 21
451.774736
 31
0.0
  0
LINE
  8
LC-005-005-----0
 62
     2
  5
115
 10
135.970155
 20
447.097139
 30
0.0
 11
138.409349
 21
449.536333
 31
0.0
  0
LINE
  8
LC-005-005-----0
 62
     2
  5
116
 10
141.474797
 20
452.601781
 30
0.0
 11
143.164091
 21
454.291075
 31
0.0
  0
LINE
  8
LC-005-005-----0
 62
     2
  5
117
 10
135.413981
 20
449.369392
 30
0.0
 11
138.268499
 21
452.22391
 31
0.0
  0
LINE
  8
LC-005-005-----0
 62
     2
  5
118
 10
135.273131
 20
452.056969
 30
0.0
 11
138.127649
 21
454.911487
 31
0.0
  0
LINE
  8
LC-005-005-----0
 62
     2
  5
119
 10
134.697918
 20
454.310183
 30
0.0
 11
137.792877
 21
457.405143
 31
0.0
  0
LINE
  8
LC-005-005-----0
 62
     2
  5
11A
 10
132.33853
 20
454.779222
 30
0.0
 11
135.149307
 21
457.589999
 31
0.0
  0
LINE
  8
LC-005-005-----0
 62
     2
  5
11B
 10
129.694959
 20
454.964078
 30
0.0
 11
132.505736
 21
457.774855
 31
0.0
  0
LINE
  8
LC-005-005-----0
 62
     2
  5
11C
 10
127.051388
 20
455.148934
 30
0.0
 11
129.862165
 21
457.959712
 31
0.0
  0
LINE
  8
LC-005-005-----0
 62
     2
  5
11D
 10
124.407817
 20
455.333791
 30
0.0
 11
127.218594
 21
458.144568
 31
0.0
  0
LINE
  8
LC-005-005-----0
 62
     2
  5
11E
 10
121.764246
 20
455.518647
 30
0.0
 11
124.575023
 21
458.329424
 31
0.0
  0
LINE
  8
LC-005-005-----0
 62
     2
  5
11F
 10
119.871063
 20
456.453891
 30
0.0
 11
122.023724
 21
458.606552
 31
0.0
  0
LINE
  8
LC-005-005-----0
 62
     2
  5
120
 10
117.905624
 20
457.316879
 30
0.0
 11
120.497619
 21
459.908874
 31
0.0
  0
LINE
  8
LC-005-005-----0
 62
     2
  5
121
 10
115.125721
 20
457.365403
 30
0.0
 11
118.074703
 21
460.314385
 31
0.0
  0
LINE
  8
LC-005-005-----0
 62
     2
  5
122
 10
112.345817
 20
457.413926
 30
0.0
 11
115.294799
 21
460.362908
 31
0.0
  0
LINE
  8
LC-005-005-----0
 62
     2
  5
123
 10
109.565913
 20
457.46245
 30
0.0
 11
112.514895
 21
460.411432
 31
0.0
  0
LINE
  8
LC-005-005-----0
 62
     2
  5
124
 10
106.786009
 20
457.510973
 30
0.0
 11
109.734992
 21
460.459955
 31
0.0
  0
LINE
  8
LC-005-005-----0
 62
     2
  5
125
 10
104.006106
 20
457.559496
 30
0.0
 11
106.955088
 21
460.508479
 31
0.0
  0
LINE
  8
LC-005-005-----0
 62
     2
  5
126
 10
101.226202
 20
457.60802
 30
0.0
 11
104.175184
 21
460.557002
 31
0.0
  0
LINE
  8
LC-005-005-----0
 62
     2
  5
127
 10
98.446298
 20
457.656543
 30
0.0
 11
101.395281
 21
460.605525
 31
0.0
  0
LINE
  8
LC-005-005-----0
 62
     2
  5
128
 10
95.666395
 20
457.705067
 30
0.0
 11
98.615377
 21
460.654049
 31
0.0
  0
LINE
  8
LC-005-005-----0
 62
     2
  5
129
 10
92.886491
 20
457.75359
 30
0.0
 11
95.835473
 21
460.702572
 31
0.0
  0
LINE
  8
LC-005-005-----0
 62
     2
  5
12A
 10
90.106587
 20
457.802113
 30
0.0
 11
93.055569
 21
460.751096
 31
0.0
  0
LINE
  8
LC-005-005-----0
 62
     2
  5
12B
 10
87.326683
 20
457.850637
 30
0.0
 11
90.275666
 21
460.799619
 31
0.0
  0
LINE
  8
LC-005-005-----0
 62
     2
  5
12C
 10
84.54678
 20
457.89916
 30
0.0
 11
87.495762
 21
460.848142
 31
0.0
  0
LINE
  8
LC-005-005-----0
 62
     2
  5
12D
 10
81.766876
 20
457.947684
 30
0.0
 11
84.715858
 21
460.896666
 31
0.0
  0
LINE
  8
LC-005-005-----0
 62
     2
  5
12E
 10
79.472347
 20
458.481582
 30
0.0
 11
81.935955
 21
460.945189
 31
0.0
  0
ENDBLK
  8
0
  5
12F
  0
BLOCK
  8
0
  5
132
  2
*X1
 70
    65
 10
0.0
 20
0.0
 30
0.0
  3
*X1
  0
LINE
  8
LC-005-005-----0
 62
     2
  5
133
 10
302.774634
 20
350.857895
 30
0.0
 11
309.75385
 21
357.837111
 31
0.0
  0
LINE
  8
LC-005-005-----0
 62
     2
  5
134
 10
299.237174
 20
350.148863
 30
0.0
 11
303.78201
 21
354.693698
 31
0.0
  0
LINE
  8
LC-005-005-----0
 62
     2
  5
135
 10
306.167193
 20
357.078881
 30
0.0
 11
310.462883
 21
361.374571
 31
0.0
  0
LINE
  8
LC-005-005-----0
 62
     2
  5
136
 10
296.397541
 20
350.137656
 30
0.0
 11
299.424763
 21
353.164879
 31
0.0
  0
LINE
  8
LC-005-005-----0
 62
     2
  5
137
 10
307.696012
 20
361.436128
 30
0.0
 11
310.47409
 21
364.214206
 31
0.0
  0
LINE
  8
LC-005-005-----0
 62
     2
  5
138
 10
293.569115
 20
350.137657
 30
0.0
 11
296.568965
 21
353.137508
 31
0.0
  0
LINE
  8
LC-005-005-----0
 62
     2
  5
139
 10
307.723383
 20
364.291926
 30
0.0
 11
310.47409
 21
367.042633
 31
0.0
  0
LINE
  8
LC-005-005-----0
 62
     2
  5
13A
 10
290.740689
 20
350.137658
 30
0.0
 11
293.740538
 21
353.137508
 31
0.0
  0
LINE
  8
LC-005-005-----0
 62
     2
  5
13B
 10
307.723383
 20
367.120353
 30
0.0
 11
310.47409
 21
369.87106
 31
0.0
  0
LINE
  8
LC-005-005-----0
 62
     2
  5
13C
 10
287.912263
 20
350.13766
 30
0.0
 11
290.912111
 21
353.137508
 31
0.0
  0
LINE
  8
LC-005-005-----0
 62
     2
  5
13D
 10
307.723383
 20
369.94878
 30
0.0
 11
310.47409
 21
372.699487
 31
0.0
  0
LINE
  8
LC-005-005-----0
 62
     2
  5
13E
 10
254.080972
 20
319.134796
 30
0.0
 11
254.467529
 21
319.521353
 31
0.0
  0
LINE
  8
LC-005-005-----0
 62
     2
  5
13F
 10
285.083837
 20
350.137661
 30
0.0
 11
288.083684
 21
353.137508
 31
0.0
  0
LINE
  8
LC-005-005-----0
 62
     2
  5
140
 10
307.723383
 20
372.777207
 30
0.0
 11
310.47409
 21
375.527914
 31
0.0
  0
LINE
  8
LC-005-005-----0
 62
     2
  5
141
 10
252.224216
 20
320.106467
 30
0.0
 11
255.22409
 21
323.106341
 31
0.0
  0
LINE
  8
LC-005-005-----0
 62
     2
  5
142
 10
282.255411
 20
350.137662
 30
0.0
 11
285.255257
 21
353.137508
 31
0.0
  0
LINE
  8
LC-005-005-----0
 62
     2
  5
143
 10
307.723383
 20
375.605634
 30
0.0
 11
310.47409
 21
378.356341
 31
0.0
  0
LINE
  8
LC-005-005-----0
 62
     2
  5
144
 10
252.22422
 20
322.934899
 30
0.0
 11
255.22409
 21
325.934769
 31
0.0
  0
LINE
  8
LC-005-005-----0
 62
     2
  5
145
 10
279.426985
 20
350.137663
 30
0.0
 11
282.426829
 21
353.137508
 31
0.0
  0
LINE
  8
LC-005-005-----0
 62
     2
  5
146
 10
307.723383
 20
378.434062
 30
0.0
 11
310.47409
 21
381.184769
 31
0.0
  0
LINE
  8
LC-005-005-----0
 62
     2
  5
147
 10
252.224225
 20
325.76333
 30
0.0
 11
255.22409
 21
328.763196
 31
0.0
  0
LINE
  8
LC-005-005-----0
 62
     2
  5
148
 10
276.598559
 20
350.137665
 30
0.0
 11
279.598402
 21
353.137508
 31
0.0
  0
LINE
  8
LC-005-005-----0
 62
     2
  5
149
 10
307.723383
 20
381.262489
 30
0.0
 11
310.47409
 21
384.013196
 31
0.0
  0
LINE
  8
LC-005-005-----0
 62
     2
  5
14A
 10
252.224229
 20
328.591762
 30
0.0
 11
255.22409
 21
331.591623
 31
0.0
  0
LINE
  8
LC-005-005-----0
 62
     2
  5
14B
 10
273.770133
 20
350.137666
 30
0.0
 11
276.769975
 21
353.137508
 31
0.0
  0
LINE
  8
LC-005-005-----0
 62
     2
  5
14C
 10
307.723383
 20
384.090916
 30
0.0
 11
310.47409
 21
386.841623
 31
0.0
  0
LINE
  8
LC-005-005-----0
 62
     2
  5
14D
 10
252.224234
 20
331.420193
 30
0.0
 11
255.22409
 21
334.42005
 31
0.0
  0
LINE
  8
LC-005-005-----0
 62
     2
  5
14E
 10
270.974603
 20
350.170562
 30
0.0
 11
273.941548
 21
353.137508
 31
0.0
  0
LINE
  8
LC-005-005-----0
 62
     2
  5
14F
 10
307.723383
 20
386.919343
 30
0.0
 11
310.47409
 21
389.67005
 31
0.0
  0
LINE
  8
LC-005-005-----0
 62
     2
  5
150
 10
378.752838
 20
457.948797
 30
0.0
 11
380.983548
 21
460.179507
 31
0.0
  0
LINE
  8
LC-005-005-----0
 62
     2
  5
151
 10
252.224238
 20
334.248625
 30
0.0
 11
255.22409
 21
337.248477
 31
0.0
  0
LINE
  8
LC-005-005-----0
 62
     2
  5
152
 10
268.103028
 20
350.127415
 30
0.0
 11
270.676197
 21
352.700584
 31
0.0
  0
LINE
  8
LC-005-005-----0
 62
     2
  5
153
 10
270.974586
 20
352.998973
 30
0.0
 11
271.113121
 21
353.137508
 31
0.0
  0
LINE
  8
LC-005-005-----0
 62
     2
  5
154
 10
307.723383
 20
389.74777
 30
0.0
 11
310.47409
 21
392.498477
 31
0.0
  0
LINE
  8
LC-005-005-----0
 62
     2
  5
155
 10
375.874163
 20
457.89855
 30
0.0
 11
378.927924
 21
460.952311
 31
0.0
  0
LINE
  8
LC-005-005-----0
 62
     2
  5
156
 10
252.224241
 20
337.077054
 30
0.0
 11
255.22409
 21
340.076904
 31
0.0
  0
LINE
  8
LC-005-005-----0
 62
     2
  5
157
 10
265.284771
 20
350.137584
 30
0.0
 11
268.284694
 21
353.137508
 31
0.0
  0
LINE
  8
LC-005-005-----0
 62
     2
  5
158
 10
307.723383
 20
392.576197
 30
0.0
 11
310.47409
 21
395.326904
 31
0.0
  0
LINE
  8
LC-005-005-----0
 62
     2
  5
159
 10
372.995489
 20
457.848303
 30
0.0
 11
376.049249
 21
460.902063
 31
0.0
  0
LINE
  8
LC-005-005-----0
 62
     2
  5
15A
 10
252.224243
 20
339.905483
 30
0.0
 11
255.22409
 21
342.905331
 31
0.0
  0
LINE
  8
LC-005-005-----0
 62
     2
  5
15B
 10
262.45641
 20
350.137651
 30
0.0
 11
265.456267
 21
353.137508
 31
0.0
  0
LINE
  8
LC-005-005-----0
 62
     2
  5
15C
 10
307.723383
 20
395.404624
 30
0.0
 11
310.47409
 21
398.155331
 31
0.0
  0
LINE
  8
LC-005-005-----0
 62
     2
  5
15D
 10
370.116814
 20
457.798055
 30
0.0
 11
373.170575
 21
460.851816
 31
0.0
  0
LINE
  8
LC-005-005-----0
 62
     2
  5
15E
 10
252.224244
 20
342.733912
 30
0.0
 11
255.22409
 21
345.733758
 31
0.0
  0
LINE
  8
LC-005-005-----0
 62
     2
  5
15F
 10
260.657227
 20
351.166895
 30
0.0
 11
262.780197
 21
353.289865
 31
0.0
  0
LINE
  8
LC-005-005-----0
 62
     2
  5
160
 10
307.723383
 20
398.233051
 30
0.0
 11
310.47409
 21
400.983758
 31
0.0
  0
LINE
  8
LC-005-005-----0
 62
     2
  5
161
 10
367.23814
 20
457.747808
 30
0.0
 11
370.2919
 21
460.801568
 31
0.0
  0
LINE
  8
LC-005-005-----0
 62
     2
  5
162
 10
252.224246
 20
345.562341
 30
0.0
 11
255.22409
 21
348.562186
 31
0.0
  0
LINE
  8
LC-005-005-----0
 62
     2
  5
163
 10
255.33734
 20
348.675435
 30
0.0
 11
257.813443
 21
351.151538
 31
0.0
  0
LINE
  8
LC-005-005-----0
 62
     2
  5
164
 10
259.282975
 20
352.62107
 30
0.0
 11
261.191427
 21
354.529522
 31
0.0
  0
LINE
  8
LC-005-005-----0
 62
     2
  5
165
 10
307.723383
 20
401.061479
 30
0.0
 11
310.47409
 21
403.812186
 31
0.0
  0
LINE
  8
LC-005-005-----0
 62
     2
  5
166
 10
364.359465
 20
457.69756
 30
0.0
 11
367.413226
 21
460.751321
 31
0.0
  0
LINE
  8
LC-005-005-----0
 62
     2
  5
167
 10
252.224248
 20
348.39077
 30
0.0
 11
260.72409
 21
356.890613
 31
0.0
  0
LINE
  8
LC-005-005-----0
 62
     2
  5
168
 10
307.723383
 20
403.889906
 30
0.0
 11
310.47409
 21
406.640613
 31
0.0
  0
LINE
  8
LC-005-005-----0
 62
     2
  5
169
 10
361.480791
 20
457.647313
 30
0.0
 11
364.534551
 21
460.701073
 31
0.0
  0
LINE
  8
LC-005-005-----0
 62
     2
  5
16A
 10
252.604655
 20
351.599605
 30
0.0
 11
253.762152
 21
352.757101
 31
0.0
  0
LINE
  8
LC-005-005-----0
 62
     2
  5
16B
 10
257.762327
 20
356.757277
 30
0.0
 11
260.72409
 21
359.71904
 31
0.0
  0
LINE
  8
LC-005-005-----0
 62
     2
  5
16C
 10
307.723383
 20
406.718333
 30
0.0
 11
310.47409
 21
409.46904
 31
0.0
  0
LINE
  8
LC-005-005-----0
 62
     2
  5
16D
 10
358.602116
 20
457.597065
 30
0.0
 11
361.655877
 21
460.650826
 31
0.0
  0
LINE
  8
LC-005-005-----0
 62
     2
  5
16E
 10
257.792524
 20
359.615901
 30
0.0
 11
260.72409
 21
362.547467
 31
0.0
  0
LINE
  8
LC-005-005-----0
 62
     2
  5
16F
 10
307.723383
 20
409.54676
 30
0.0
 11
310.47409
 21
412.297467
 31
0.0
  0
LINE
  8
LC-005-005-----0
 62
     2
  5
170
 10
355.723441
 20
457.546818
 30
0.0
 11
358.777202
 21
460.600578
 31
0.0
  0
LINE
  8
LC-005-005-----0
 62
     2
  5
171
 10
257.822721
 20
362.474524
 30
0.0
 11
260.72409
 21
365.375894
 31
0.0
  0
LINE
  8
LC-005-005-----0
 62
     2
  5
172
 10
307.723383
 20
412.375187
 30
0.0
 11
310.47409
 21
415.125894
 31
0.0
  0
LINE
  8
LC-005-005-----0
 62
     2
  5
173
 10
352.844767
 20
457.49657
 30
0.0
 11
355.898527
 21
460.550331
 31
0.0
  0
LINE
  8
LC-005-005-----0
 62
     2
  5
174
 10
257.852918
 20
365.333148
 30
0.0
 11
260.72409
 21
368.204321
 31
0.0
  0
LINE
  8
LC-005-005-----0
 62
     2
  5
175
 10
307.723383
 20
415.203614
 30
0.0
 11
310.47409
 21
417.954321
 31
0.0
  0
LINE
  8
LC-005-005-----0
 62
     2
  5
176
 10
349.966092
 20
457.446323
 30
0.0
 11
353.019853
 21
460.500084
 31
0.0
  0
LINE
  8
LC-005-005-----0
 62
     2
  5
177
 10
257.883114
 20
368.191772
 30
0.0
 11
260.72409
 21
371.032748
 31
0.0
  0
LINE
  8
LC-005-005-----0
 62
     2
  5
178
 10
307.723383
 20
418.032041
 30
0.0
 11
310.47409
 21
420.782748
 31
0.0
  0
LINE
  8
LC-005-005-----0
 62
     2
  5
179
 10
347.087418
 20
457.396076
 30
0.0
 11
350.141178
 21
460.449836
 31
0.0
  0
LINE
  8
LC-005-005-----0
 62
     2
  5
17A
 10
257.913311
 20
371.050396
 30
0.0
 11
260.72409
 21
373.861175
 31
0.0
  0
LINE
  8
LC-005-005-----0
 62
     2
  5
17B
 10
307.723383
 20
420.860468
 30
0.0
 11
310.47409
 21
423.611175
 31
0.0
  0
LINE
  8
LC-005-005-----0
 62
     2
  5
17C
 10
344.208743
 20
457.345828
 30
0.0
 11
347.262504
 21
460.399589
 31
0.0
  0
LINE
  8
LC-005-005-----0
 62
     2
  5
17D
 10
257.943508
 20
373.90902
 30
0.0
 11
260.72409
 21
376.689602
 31
0.0
  0
LINE
  8
LC-005-005-----0
 62
     2
  5
17E
 10
307.723383
 20
423.688896
 30
0.0
 11
314.847512
 21
430.813024
 31
0.0
  0
LINE
  8
LC-005-005-----0
 62
     2
  5
17F
 10
339.617905
 20
455.583417
 30
0.0
 11
344.383829
 21
460.349341
 31
0.0
  0
LINE
  8
LC-005-005-----0
 62
     2
  5
180
 10
257.973704
 20
376.767644
 30
0.0
 11
260.72409
 21
379.51803
 31
0.0
  0
LINE
  8
LC-005-005-----0
 62
     2
  5
181
 10
307.723383
 20
426.517323
 30
0.0
 11
319.731098
 21
438.525037
 31
0.0
  0
LINE
  8
LC-005-005-----0
 62
     2
  5
182
 10
336.576825
 20
455.370764
 30
0.0
 11
341.505154
 21
460.299094
 31
0.0
  0
LINE
  8
LC-005-005-----0
 62
     2
  5
183
 10
258.003901
 20
379.626268
 30
0.0
 11
260.72409
 21
382.346457
 31
0.0
  0
LINE
  8
LC-005-005-----0
 62
     2
  5
184
 10
308.281098
 20
429.903464
 30
0.0
 11
315.165141
 21
436.787508
 31
0.0
  0
LINE
  8
LC-005-005-----0
 62
     2
  5
185
 10
316.981098
 20
438.603464
 30
0.0
 11
319.731098
 21
441.353464
 31
0.0
  0
LINE
  8
LC-005-005-----0
 62
     2
  5
186
 10
333.535745
 20
455.158111
 30
0.0
 11
336.769174
 21
458.39154
 31
0.0
  0
LINE
  8
LC-005-005-----0
 62
     2
  5
187
 10
258.034098
 20
382.484891
 30
0.0
 11
260.72409
 21
385.174884
 31
0.0
  0
LINE
  8
LC-005-005-----0
 62
     2
  5
188
 10
307.282404
 20
431.733197
 30
0.0
 11
308.035408
 21
432.486202
 31
0.0
  0
LINE
  8
LC-005-005-----0
 62
     2
  5
189
 10
308.281098
 20
432.731891
 30
0.0
 11
312.336714
 21
436.787508
 31
0.0
  0
LINE
  8
LC-005-005-----0
 62
     2
  5
18A
 10
316.981098
 20
441.431891
 30
0.0
 11
319.78109
 21
444.231884
 31
0.0
  0
LINE
  8
LC-005-005-----0
 62
     2
  5
18B
 10
321.286722
 20
445.737515
 30
0.0
 11
325.048734
 21
449.499528
 31
0.0
  0
LINE
  8
LC-005-005-----0
 62
     2
  5
18C
 10
330.494665
 20
454.945459
 30
0.0
 11
333.728094
 21
458.178887
 31
0.0
  0
LINE
  8
LC-005-005-----0
 62
     2
  5
18D
 10
258.064295
 20
385.343515
 30
0.0
 11
260.72409
 21
388.003311
 31
0.0
  0
LINE
  8
LC-005-005-----0
 62
     2
  5
18E
 10
307.306869
 20
434.586089
 30
0.0
 11
309.508287
 21
436.787508
 31
0.0
  0
LINE
  8
LC-005-005-----0
 62
     2
  5
18F
 10
322.0349
 20
449.314121
 30
0.0
 11
325.205164
 21
452.484385
 31
0.0
  0
LINE
  8
LC-005-005-----0
 62
     2
  5
190
 10
327.453585
 20
454.732806
 30
0.0
 11
330.687014
 21
457.966235
 31
0.0
  0
LINE
  8
LC-005-005-----0
 62
     2
  5
191
 10
258.094491
 20
388.202139
 30
0.0
 11
260.72409
 21
390.831738
 31
0.0
  0
LINE
  8
LC-005-005-----0
 62
     2
  5
192
 10
316.981098
 20
447.088746
 30
0.0
 11
318.979716
 21
449.087364
 31
0.0
  0
LINE
  8
LC-005-005-----0
 62
     2
  5
193
 10
322.19133
 20
452.298978
 30
0.0
 11
327.645934
 21
457.753582
 31
0.0
  0
LINE
  8
LC-005-005-----0
 62
     2
  5
194
 10
258.124688
 20
391.060763
 30
0.0
 11
260.72409
 21
393.660165
 31
0.0
  0
LINE
  8
LC-005-005-----0
 62
     2
  5
195
 10
316.981098
 20
449.917173
 30
0.0
 11
318.979716
 21
451.915791
 31
0.0
  0
LINE
  8
LC-005-005-----0
 62
     2
  5
196
 10
322.34776
 20
455.283835
 30
0.0
 11
324.604854
 21
457.540929
 31
0.0
  0
LINE
  8
LC-005-005-----0
 62
     2
  5
197
 10
258.154885
 20
393.919387
 30
0.0
 11
260.72409
 21
396.488592
 31
0.0
  0
LINE
  8
LC-005-005-----0
 62
     2
  5
198
 10
316.981098
 20
452.7456
 30
0.0
 11
318.523006
 21
454.287508
 31
0.0
  0
LINE
  8
LC-005-005-----0
 62
     2
  5
199
 10
258.185082
 20
396.778011
 30
0.0
 11
260.72409
 21
399.317019
 31
0.0
  0
LINE
  8
LC-005-005-----0
 62
     2
  5
19A
 10
258.215278
 20
399.636635
 30
0.0
 11
260.72409
 21
402.145447
 31
0.0
  0
LINE
  8
LC-005-005-----0
 62
     2
  5
19B
 10
258.245475
 20
402.495258
 30
0.0
 11
260.72409
 21
404.973874
 31
0.0
  0
LINE
  8
LC-005-005-----0
 62
     2
  5
19C
 10
258.275672
 20
405.353882
 30
0.0
 11
260.72409
 21
407.802301
 31
0.0
  0
LINE
  8
LC-005-005-----0
 62
     2
  5
19D
 10
258.305869
 20
408.212506
 30
0.0
 11
260.72409
 21
410.630728
 31
0.0
  0
LINE
  8
LC-005-005-----0
 62
     2
  5
19E
 10
258.336065
 20
411.07113
 30
0.0
 11
260.72409
 21
413.459155
 31
0.0
  0
LINE
  8
LC-005-005-----0
 62
     2
  5
19F
 10
258.366262
 20
413.929754
 30
0.0
 11
260.72409
 21
416.287582
 31
0.0
  0
LINE
  8
LC-005-005-----0
 62
     2
  5
1A0
 10
258.396459
 20
416.788378
 30
0.0
 11
260.72409
 21
419.116009
 31
0.0
  0
LINE
  8
LC-005-005-----0
 62
     2
  5
1A1
 10
258.426655
 20
419.647002
 30
0.0
 11
260.72409
 21
421.944436
 31
0.0
  0
LINE
  8
LC-005-005-----0
 62
     2
  5
1A2
 10
258.456852
 20
422.505625
 30
0.0
 11
260.72409
 21
424.772864
 31
0.0
  0
LINE
  8
LC-005-005-----0
 62
     2
  5
1A3
 10
258.487049
 20
425.364249
 30
0.0
 11
260.72409
 21
427.601291
 31
0.0
  0
LINE
  8
LC-005-005-----0
 62
     2
  5
1A4
 10
257.756033
 20
427.46166
 30
0.0
 11
258.43188
 21
428.137508
 31
0.0
  0
ENDBLK
  8
0
  5
1A5
  0
BLOCK
  8
0
  5
1AD
  2
*X2
 70
    65
 10
0.0
 20
0.0
 30
0.0
  3
*X2
  0
LINE
  8
LC-005-005-----0
 62
     2
  5
1AE
 10
258.6079
 20
250.122619
 30
0.0
 11
259.224068
 21
250.738786
 31
0.0
  0
LINE
  8
LC-005-005-----0
 62
     2
  5
1AF
 10
255.779473
 20
250.122619
 30
0.0
 11
259.224068
 21
253.567214
 31
0.0
  0
LINE
  8
LC-005-005-----0
 62
     2
  5
1B0
 10
255.224068
 20
252.395641
 30
0.0
 11
259.224068
 21
256.395641
 31
0.0
  0
LINE
  8
LC-005-005-----0
 62
     2
  5
1B1
 10
255.224068
 20
255.224068
 30
0.0
 11
259.224068
 21
259.224068
 31
0.0
  0
LINE
  8
LC-005-005-----0
 62
     2
  5
1B2
 10
255.224068
 20
258.052495
 30
0.0
 11
259.224068
 21
262.052495
 31
0.0
  0
LINE
  8
LC-005-005-----0
 62
     2
  5
1B3
 10
255.224068
 20
260.880922
 30
0.0
 11
259.224068
 21
264.880922
 31
0.0
  0
LINE
  8
LC-005-005-----0
 62
     2
  5
1B4
 10
255.224068
 20
263.709349
 30
0.0
 11
259.224068
 21
267.709349
 31
0.0
  0
LINE
  8
LC-005-005-----0
 62
     2
  5
1B5
 10
255.224068
 20
266.537776
 30
0.0
 11
259.224068
 21
270.537776
 31
0.0
  0
LINE
  8
LC-005-005-----0
 62
     2
  5
1B6
 10
255.224068
 20
269.366203
 30
0.0
 11
259.224068
 21
273.366203
 31
0.0
  0
LINE
  8
LC-005-005-----0
 62
     2
  5
1B7
 10
255.224068
 20
272.194631
 30
0.0
 11
259.224068
 21
276.194631
 31
0.0
  0
LINE
  8
LC-005-005-----0
 62
     2
  5
1B8
 10
255.224068
 20
275.023058
 30
0.0
 11
259.224068
 21
279.023058
 31
0.0
  0
LINE
  8
LC-005-005-----0
 62
     2
  5
1B9
 10
255.224068
 20
277.851485
 30
0.0
 11
259.224068
 21
281.851485
 31
0.0
  0
LINE
  8
LC-005-005-----0
 62
     2
  5
1BA
 10
255.224068
 20
280.679912
 30
0.0
 11
259.224068
 21
284.679912
 31
0.0
  0
LINE
  8
LC-005-005-----0
 62
     2
  5
1BB
 10
255.224068
 20
283.508339
 30
0.0
 11
259.224068
 21
287.508339
 31
0.0
  0
LINE
  8
LC-005-005-----0
 62
     2
  5
1BC
 10
255.224068
 20
286.336766
 30
0.0
 11
259.224068
 21
290.336766
 31
0.0
  0
LINE
  8
LC-005-005-----0
 62
     2
  5
1BD
 10
255.224068
 20
289.165193
 30
0.0
 11
259.224068
 21
293.165193
 31
0.0
  0
LINE
  8
LC-005-005-----0
 62
     2
  5
1BE
 10
255.224068
 20
291.99362
 30
0.0
 11
259.224068
 21
295.99362
 31
0.0
  0
LINE
  8
LC-005-005-----0
 62
     2
  5
1BF
 10
255.224068
 20
294.822048
 30
0.0
 11
259.224068
 21
298.822048
 31
0.0
  0
LINE
  8
LC-005-005-----0
 62
     2
  5
1C0
 10
255.224068
 20
297.650475
 30
0.0
 11
259.224068
 21
301.650475
 31
0.0
  0
LINE
  8
LC-005-005-----0
 62
     2
  5
1C1
 10
204.867785
 20
250.122619
 30
0.0
 11
205.224068
 21
250.478902
 31
0.0
  0
LINE
  8
LC-005-005-----0
 62
     2
  5
1C2
 10
255.224068
 20
300.478902
 30
0.0
 11
259.224068
 21
304.478902
 31
0.0
  0
LINE
  8
LC-005-005-----0
 62
     2
  5
1C3
 10
202.039358
 20
250.122619
 30
0.0
 11
205.224068
 21
253.307329
 31
0.0
  0
LINE
  8
LC-005-005-----0
 62
     2
  5
1C4
 10
255.224068
 20
303.307329
 30
0.0
 11
259.224068
 21
307.307329
 31
0.0
  0
LINE
  8
LC-005-005-----0
 62
     2
  5
1C5
 10
201.224068
 20
252.135756
 30
0.0
 11
205.224068
 21
256.135756
 31
0.0
  0
LINE
  8
LC-005-005-----0
 62
     2
  5
1C6
 10
255.224068
 20
306.135756
 30
0.0
 11
259.224068
 21
310.135756
 31
0.0
  0
LINE
  8
LC-005-005-----0
 62
     2
  5
1C7
 10
201.224068
 20
254.964183
 30
0.0
 11
205.224068
 21
258.964183
 31
0.0
  0
LINE
  8
LC-005-005-----0
 62
     2
  5
1C8
 10
255.224068
 20
308.964183
 30
0.0
 11
259.224068
 21
312.964183
 31
0.0
  0
LINE
  8
LC-005-005-----0
 62
     2
  5
1C9
 10
201.224068
 20
257.79261
 30
0.0
 11
205.224068
 21
261.79261
 31
0.0
  0
LINE
  8
LC-005-005-----0
 62
     2
  5
1CA
 10
255.224068
 20
311.79261
 30
0.0
 11
259.224068
 21
315.79261
 31
0.0
  0
LINE
  8
LC-005-005-----0
 62
     2
  5
1CB
 10
201.224068
 20
260.621037
 30
0.0
 11
205.224068
 21
264.621037
 31
0.0
  0
LINE
  8
LC-005-005-----0
 62
     2
  5
1CC
 10
255.224068
 20
314.621037
 30
0.0
 11
259.224068
 21
318.621037
 31
0.0
  0
LINE
  8
LC-005-005-----0
 62
     2
  5
1CD
 10
201.224068
 20
263.449465
 30
0.0
 11
205.224068
 21
267.449465
 31
0.0
  0
LINE
  8
LC-005-005-----0
 62
     2
  5
1CE
 10
255.224068
 20
317.449465
 30
0.0
 11
259.224068
 21
321.449465
 31
0.0
  0
LINE
  8
LC-005-005-----0
 62
     2
  5
1CF
 10
201.224068
 20
266.277892
 30
0.0
 11
205.224068
 21
270.277892
 31
0.0
  0
LINE
  8
LC-005-005-----0
 62
     2
  5
1D0
 10
255.224068
 20
320.277892
 30
0.0
 11
259.224068
 21
324.277892
 31
0.0
  0
LINE
  8
LC-005-005-----0
 62
     2
  5
1D1
 10
201.224068
 20
269.106319
 30
0.0
 11
205.224068
 21
273.106319
 31
0.0
  0
LINE
  8
LC-005-005-----0
 62
     2
  5
1D2
 10
255.224068
 20
323.106319
 30
0.0
 11
259.224068
 21
327.106319
 31
0.0
  0
LINE
  8
LC-005-005-----0
 62
     2
  5
1D3
 10
201.224068
 20
271.934746
 30
0.0
 11
205.224068
 21
275.934746
 31
0.0
  0
LINE
  8
LC-005-005-----0
 62
     2
  5
1D4
 10
255.224068
 20
325.934746
 30
0.0
 11
259.224068
 21
329.934746
 31
0.0
  0
LINE
  8
LC-005-005-----0
 62
     2
  5
1D5
 10
201.224068
 20
274.763173
 30
0.0
 11
205.224068
 21
278.763173
 31
0.0
  0
LINE
  8
LC-005-005-----0
 62
     2
  5
1D6
 10
255.224068
 20
328.763173
 30
0.0
 11
259.224068
 21
332.763173
 31
0.0
  0
LINE
  8
LC-005-005-----0
 62
     2
  5
1D7
 10
201.224068
 20
277.5916
 30
0.0
 11
205.224068
 21
281.5916
 31
0.0
  0
LINE
  8
LC-005-005-----0
 62
     2
  5
1D8
 10
255.224068
 20
331.5916
 30
0.0
 11
259.224068
 21
335.5916
 31
0.0
  0
LINE
  8
LC-005-005-----0
 62
     2
  5
1D9
 10
201.224068
 20
280.420027
 30
0.0
 11
205.224068
 21
284.420027
 31
0.0
  0
LINE
  8
LC-005-005-----0
 62
     2
  5
1DA
 10
255.224068
 20
334.420027
 30
0.0
 11
259.224068
 21
338.420027
 31
0.0
  0
LINE
  8
LC-005-005-----0
 62
     2
  5
1DB
 10
201.224068
 20
283.248454
 30
0.0
 11
205.224068
 21
287.248454
 31
0.0
  0
LINE
  8
LC-005-005-----0
 62
     2
  5
1DC
 10
255.224068
 20
337.248454
 30
0.0
 11
259.224068
 21
341.248454
 31
0.0
  0
LINE
  8
LC-005-005-----0
 62
     2
  5
1DD
 10
201.224068
 20
286.076882
 30
0.0
 11
205.224068
 21
290.076882
 31
0.0
  0
LINE
  8
LC-005-005-----0
 62
     2
  5
1DE
 10
255.224068
 20
340.076882
 30
0.0
 11
259.224068
 21
344.076882
 31
0.0
  0
LINE
  8
LC-005-005-----0
 62
     2
  5
1DF
 10
201.224068
 20
288.905309
 30
0.0
 11
205.224068
 21
292.905309
 31
0.0
  0
LINE
  8
LC-005-005-----0
 62
     2
  5
1E0
 10
255.224068
 20
342.905309
 30
0.0
 11
259.224068
 21
346.905309
 31
0.0
  0
LINE
  8
LC-005-005-----0
 62
     2
  5
1E1
 10
201.224068
 20
291.733736
 30
0.0
 11
205.224068
 21
295.733736
 31
0.0
  0
LINE
  8
LC-005-005-----0
 62
     2
  5
1E2
 10
255.224068
 20
345.733736
 30
0.0
 11
259.224068
 21
349.733736
 31
0.0
  0
LINE
  8
LC-005-005-----0
 62
     2
  5
1E3
 10
201.224068
 20
294.562163
 30
0.0
 11
205.224068
 21
298.562163
 31
0.0
  0
LINE
  8
LC-005-005-----0
 62
     2
  5
1E4
 10
255.224068
 20
348.562163
 30
0.0
 11
256.784524
 21
350.122619
 31
0.0
  0
LINE
  8
LC-005-005-----0
 62
     2
  5
1E5
 10
201.224068
 20
297.39059
 30
0.0
 11
205.224068
 21
301.39059
 31
0.0
  0
LINE
  8
LC-005-005-----0
 62
     2
  5
1E6
 10
201.224068
 20
300.219017
 30
0.0
 11
205.224068
 21
304.219017
 31
0.0
  0
LINE
  8
LC-005-005-----0
 62
     2
  5
1E7
 10
201.224068
 20
303.047444
 30
0.0
 11
205.224068
 21
307.047444
 31
0.0
  0
LINE
  8
LC-005-005-----0
 62
     2
  5
1E8
 10
201.224068
 20
305.875871
 30
0.0
 11
205.224068
 21
309.875871
 31
0.0
  0
LINE
  8
LC-005-005-----0
 62
     2
  5
1E9
 10
201.224068
 20
308.704299
 30
0.0
 11
205.224068
 21
312.704299
 31
0.0
  0
LINE
  8
LC-005-005-----0
 62
     2
  5
1EA
 10
201.224068
 20
311.532726
 30
0.0
 11
205.224068
 21
315.532726
 31
0.0
  0
LINE
  8
LC-005-005-----0
 62
     2
  5
1EB
 10
201.224068
 20
314.361153
 30
0.0
 11
205.224068
 21
318.361153
 31
0.0
  0
LINE
  8
LC-005-005-----0
 62
     2
  5
1EC
 10
201.224068
 20
317.18958
 30
0.0
 11
205.224068
 21
321.18958
 31
0.0
  0
LINE
  8
LC-005-005-----0
 62
     2
  5
1ED
 10
201.224068
 20
320.018007
 30
0.0
 11
205.224068
 21
324.018007
 31
0.0
  0
LINE
  8
LC-005-005-----0
 62
     2
  5
1EE
 10
201.224068
 20
322.846434
 30
0.0
 11
205.224068
 21
326.846434
 31
0.0
  0
LINE
  8
LC-005-005-----0
 62
     2
  5
1EF
 10
201.224068
 20
325.674861
 30
0.0
 11
205.224068
 21
329.674861
 31
0.0
  0
LINE
  8
LC-005-005-----0
 62
     2
  5
1F0
 10
201.224068
 20
328.503288
 30
0.0
 11
205.224068
 21
332.503288
 31
0.0
  0
LINE
  8
LC-005-005-----0
 62
     2
  5
1F1
 10
201.224068
 20
331.331716
 30
0.0
 11
205.224068
 21
335.331716
 31
0.0
  0
LINE
  8
LC-005-005-----0
 62
     2
  5
1F2
 10
201.224068
 20
334.160143
 30
0.0
 11
205.224068
 21
338.160143
 31
0.0
  0
LINE
  8
LC-005-005-----0
 62
     2
  5
1F3
 10
201.224068
 20
336.98857
 30
0.0
 11
205.224068
 21
340.98857
 31
0.0
  0
LINE
  8
LC-005-005-----0
 62
     2
  5
1F4
 10
201.224068
 20
339.816997
 30
0.0
 11
205.224068
 21
343.816997
 31
0.0
  0
LINE
  8
LC-005-005-----0
 62
     2
  5
1F5
 10
201.224068
 20
342.645424
 30
0.0
 11
205.224068
 21
346.645424
 31
0.0
  0
LINE
  8
LC-005-005-----0
 62
     2
  5
1F6
 10
201.224068
 20
345.473851
 30
0.0
 11
205.224068
 21
349.473851
 31
0.0
  0
LINE
  8
LC-005-005-----0
 62
     2
  5
1F7
 10
201.224068
 20
348.302278
 30
0.0
 11
203.044409
 21
350.122619
 31
0.0
  0
ENDBLK
  8
0
  5
1F8
  0
BLOCK
  8
0
  5
21B
  2
*X3
 70
    65
 10
0.0
 20
0.0
 30
0.0
  3
*X3
  0
LINE
  8
LC-005-005-----0
 62
     2
  5
21C
 10
271.157529
 20
378.63776
 30
0.0
 11
271.693117
 21
379.173348
 31
0.0
  0
LINE
  8
LC-005-005-----0
 62
     2
  5
21D
 10
270.693276
 20
381.001934
 30
0.0
 11
271.693119
 21
382.001777
 31
0.0
  0
LINE
  8
LC-005-005-----0
 62
     2
  5
21E
 10
270.693271
 20
383.830356
 30
0.0
 11
271.693121
 21
384.830206
 31
0.0
  0
LINE
  8
LC-005-005-----0
 62
     2
  5
21F
 10
270.693265
 20
386.658777
 30
0.0
 11
271.693122
 21
387.658635
 31
0.0
  0
LINE
  8
LC-005-005-----0
 62
     2
  5
220
 10
270.693259
 20
389.487198
 30
0.0
 11
271.693124
 21
390.487064
 31
0.0
  0
LINE
  8
LC-005-005-----0
 62
     2
  5
221
 10
270.693253
 20
392.315619
 30
0.0
 11
271.693126
 21
393.315493
 31
0.0
  0
LINE
  8
LC-005-005-----0
 62
     2
  5
222
 10
270.693247
 20
395.144041
 30
0.0
 11
271.693128
 21
396.143922
 31
0.0
  0
LINE
  8
LC-005-005-----0
 62
     2
  5
223
 10
270.693241
 20
397.972462
 30
0.0
 11
271.69313
 21
398.97235
 31
0.0
  0
LINE
  8
LC-005-005-----0
 62
     2
  5
224
 10
270.693235
 20
400.800883
 30
0.0
 11
271.693132
 21
401.800779
 31
0.0
  0
LINE
  8
LC-005-005-----0
 62
     2
  5
225
 10
270.69323
 20
403.629304
 30
0.0
 11
271.693134
 21
404.629208
 31
0.0
  0
LINE
  8
LC-005-005-----0
 62
     2
  5
226
 10
270.693224
 20
406.457726
 30
0.0
 11
271.693135
 21
407.457637
 31
0.0
  0
LINE
  8
LC-005-005-----0
 62
     2
  5
227
 10
270.693218
 20
409.286147
 30
0.0
 11
271.693137
 21
410.286066
 31
0.0
  0
LINE
  8
LC-005-005-----0
 62
     2
  5
228
 10
270.693212
 20
412.114568
 30
0.0
 11
271.693139
 21
413.114495
 31
0.0
  0
LINE
  8
LC-005-005-----0
 62
     2
  5
229
 10
270.693206
 20
414.94299
 30
0.0
 11
271.693141
 21
415.942924
 31
0.0
  0
LINE
  8
LC-005-005-----0
 62
     2
  5
22A
 10
270.6932
 20
417.771411
 30
0.0
 11
271.693143
 21
418.771353
 31
0.0
  0
LINE
  8
LC-005-005-----0
 62
     2
  5
22B
 10
270.693194
 20
420.599832
 30
0.0
 11
271.693145
 21
421.599782
 31
0.0
  0
LINE
  8
LC-005-005-----0
 62
     2
  5
22C
 10
270.693189
 20
423.428253
 30
0.0
 11
271.693147
 21
424.428211
 31
0.0
  0
LINE
  8
LC-005-005-----0
 62
     2
  5
22D
 10
270.693183
 20
426.256675
 30
0.0
 11
271.693148
 21
427.25664
 31
0.0
  0
LINE
  8
LC-005-005-----0
 62
     2
  5
22E
 10
270.693177
 20
429.085096
 30
0.0
 11
271.69315
 21
430.085069
 31
0.0
  0
LINE
  8
LC-005-005-----0
 62
     2
  5
22F
 10
270.693171
 20
431.913517
 30
0.0
 11
271.693152
 21
432.913498
 31
0.0
  0
LINE
  8
LC-005-005-----0
 62
     2
  5
230
 10
270.693165
 20
434.741938
 30
0.0
 11
271.693154
 21
435.741927
 31
0.0
  0
LINE
  8
LC-005-005-----0
 62
     2
  5
231
 10
270.693159
 20
437.57036
 30
0.0
 11
271.693156
 21
438.570356
 31
0.0
  0
LINE
  8
LC-005-005-----0
 62
     2
  5
232
 10
270.559791
 20
440.265418
 30
0.0
 11
271.430238
 21
441.135865
 31
0.0
  0
LINE
  8
LC-005-005-----0
 62
     2
  5
233
 10
269.931515
 20
442.465569
 30
0.0
 11
270.755011
 21
443.289065
 31
0.0
  0
LINE
  8
LC-005-005-----0
 62
     2
  5
234
 10
268.93639
 20
444.298872
 30
0.0
 11
269.778286
 21
445.140768
 31
0.0
  0
LINE
  8
LC-005-005-----0
 62
     2
  5
235
 10
267.639958
 20
445.830867
 30
0.0
 11
268.546874
 21
446.737783
 31
0.0
  0
LINE
  8
LC-005-005-----0
 62
     2
  5
236
 10
266.057661
 20
447.076997
 30
0.0
 11
267.077376
 21
448.096712
 31
0.0
  0
LINE
  8
LC-005-005-----0
 62
     2
  5
237
 10
264.167105
 20
448.014868
 30
0.0
 11
265.364932
 21
449.212695
 31
0.0
  0
LINE
  8
LC-005-005-----0
 62
     2
  5
238
 10
261.889651
 20
448.565841
 30
0.0
 11
263.38082
 21
450.057011
 31
0.0
  0
LINE
  8
LC-005-005-----0
 62
     2
  5
239
 10
189.132961
 20
378.637579
 30
0.0
 11
189.693115
 21
379.197732
 31
0.0
  0
LINE
  8
LC-005-005-----0
 62
     2
  5
23A
 10
230.63289
 20
420.137508
 30
0.0
 11
231.628877
 21
421.133495
 31
0.0
  0
LINE
  8
LC-005-005-----0
 62
     2
  5
23B
 10
259.133062
 20
448.637679
 30
0.0
 11
261.055481
 21
450.560098
 31
0.0
  0
LINE
  8
LC-005-005-----0
 62
     2
  5
23C
 10
188.69311
 20
381.026154
 30
0.0
 11
189.693107
 21
382.026151
 31
0.0
  0
LINE
  8
LC-005-005-----0
 62
     2
  5
23D
 10
227.804463
 20
420.137508
 30
0.0
 11
231.629643
 21
423.962688
 31
0.0
  0
LINE
  8
LC-005-005-----0
 62
     2
  5
23E
 10
256.304634
 20
448.637679
 30
0.0
 11
258.304635
 21
450.63768
 31
0.0
  0
LINE
  8
LC-005-005-----0
 62
     2
  5
23F
 10
188.693102
 20
383.854573
 30
0.0
 11
189.693099
 21
384.854571
 31
0.0
  0
LINE
  8
LC-005-005-----0
 62
     2
  5
240
 10
224.976036
 20
420.137508
 30
0.0
 11
231.630409
 21
426.791881
 31
0.0
  0
LINE
  8
LC-005-005-----0
 62
     2
  5
241
 10
253.476207
 20
448.637679
 30
0.0
 11
255.47621
 21
450.637682
 31
0.0
  0
LINE
  8
LC-005-005-----0
 62
     2
  5
242
 10
188.693094
 20
386.682993
 30
0.0
 11
189.693091
 21
387.68299
 31
0.0
  0
LINE
  8
LC-005-005-----0
 62
     2
  5
243
 10
222.147609
 20
420.137508
 30
0.0
 11
231.631175
 21
429.621074
 31
0.0
  0
LINE
  8
LC-005-005-----0
 62
     2
  5
244
 10
250.64778
 20
448.637679
 30
0.0
 11
252.647785
 21
450.637684
 31
0.0
  0
LINE
  8
LC-005-005-----0
 62
     2
  5
245
 10
188.693086
 20
389.511412
 30
0.0
 11
189.693083
 21
390.511409
 31
0.0
  0
LINE
  8
LC-005-005-----0
 62
     2
  5
246
 10
219.319182
 20
420.137508
 30
0.0
 11
231.631941
 21
432.450266
 31
0.0
  0
LINE
  8
LC-005-005-----0
 62
     2
  5
247
 10
247.819353
 20
448.637679
 30
0.0
 11
249.81936
 21
450.637686
 31
0.0
  0
LINE
  8
LC-005-005-----0
 62
     2
  5
248
 10
188.693078
 20
392.339831
 30
0.0
 11
189.693075
 21
393.339828
 31
0.0
  0
LINE
  8
LC-005-005-----0
 62
     2
  5
249
 10
216.490755
 20
420.137508
 30
0.0
 11
231.632706
 21
435.279459
 31
0.0
  0
LINE
  8
LC-005-005-----0
 62
     2
  5
24A
 10
244.990926
 20
448.637679
 30
0.0
 11
246.990935
 21
450.637688
 31
0.0
  0
LINE
  8
LC-005-005-----0
 62
     2
  5
24B
 10
188.69307
 20
395.16825
 30
0.0
 11
189.693067
 21
396.168247
 31
0.0
  0
LINE
  8
LC-005-005-----0
 62
     2
  5
24C
 10
213.662327
 20
420.137508
 30
0.0
 11
231.633472
 21
438.108652
 31
0.0
  0
LINE
  8
LC-005-005-----0
 62
     2
  5
24D
 10
242.162499
 20
448.637679
 30
0.0
 11
244.16251
 21
450.63769
 31
0.0
  0
LINE
  8
LC-005-005-----0
 62
     2
  5
24E
 10
188.693062
 20
397.996669
 30
0.0
 11
189.693059
 21
398.996666
 31
0.0
  0
LINE
  8
LC-005-005-----0
 62
     2
  5
24F
 10
210.8339
 20
420.137508
 30
0.0
 11
231.634238
 21
440.937845
 31
0.0
  0
LINE
  8
LC-005-005-----0
 62
     2
  5
250
 10
239.334072
 20
448.637679
 30
0.0
 11
243.819489
 21
453.123096
 31
0.0
  0
LINE
  8
LC-005-005-----0
 62
     2
  5
251
 10
188.693054
 20
400.825088
 30
0.0
 11
189.693051
 21
401.825085
 31
0.0
  0
LINE
  8
LC-005-005-----0
 62
     2
  5
252
 10
208.005473
 20
420.137508
 30
0.0
 11
231.635004
 21
443.767038
 31
0.0
  0
LINE
  8
LC-005-005-----0
 62
     2
  5
253
 10
236.505645
 20
448.637679
 30
0.0
 11
238.505659
 21
450.637694
 31
0.0
  0
LINE
  8
LC-005-005-----0
 62
     2
  5
254
 10
239.925289
 20
452.057324
 30
0.0
 11
243.165239
 21
455.297273
 31
0.0
  0
LINE
  8
LC-005-005-----0
 62
     2
  5
255
 10
188.693046
 20
403.653507
 30
0.0
 11
189.693043
 21
404.653504
 31
0.0
  0
LINE
  8
LC-005-005-----0
 62
     2
  5
256
 10
205.177046
 20
420.137508
 30
0.0
 11
231.63577
 21
446.596231
 31
0.0
  0
LINE
  8
LC-005-005-----0
 62
     2
  5
257
 10
233.677217
 20
448.637679
 30
0.0
 11
235.677234
 21
450.637696
 31
0.0
  0
LINE
  8
LC-005-005-----0
 62
     2
  5
258
 10
239.237564
 20
454.198025
 30
0.0
 11
242.114615
 21
457.075076
 31
0.0
  0
LINE
  8
LC-005-005-----0
 62
     2
  5
259
 10
188.693038
 20
406.481926
 30
0.0
 11
189.693035
 21
407.481923
 31
0.0
  0
LINE
  8
LC-005-005-----0
 62
     2
  5
25A
 10
203.156569
 20
420.945457
 30
0.0
 11
232.848809
 21
450.637698
 31
0.0
  0
LINE
  8
LC-005-005-----0
 62
     2
  5
25B
 10
237.88872
 20
455.677608
 30
0.0
 11
240.736178
 21
458.525066
 31
0.0
  0
LINE
  8
LC-005-005-----0
 62
     2
  5
25C
 10
188.69303
 20
409.310345
 30
0.0
 11
189.693027
 21
410.310343
 31
0.0
  0
LINE
  8
LC-005-005-----0
 62
     2
  5
25D
 10
202.558852
 20
423.176167
 30
0.0
 11
230.020192
 21
450.637508
 31
0.0
  0
LINE
  8
LC-005-005-----0
 62
     2
  5
25E
 10
235.923167
 20
456.540483
 30
0.0
 11
239.035741
 21
459.653057
 31
0.0
  0
LINE
  8
LC-005-005-----0
 62
     2
  5
25F
 10
188.693022
 20
412.138765
 30
0.0
 11
189.693019
 21
413.138762
 31
0.0
  0
LINE
  8
LC-005-005-----0
 62
     2
  5
260
 10
202.435236
 20
425.880979
 30
0.0
 11
227.191765
 21
450.637508
 31
0.0
  0
LINE
  8
LC-005-005-----0
 62
     2
  5
261
 10
233.191765
 20
456.637508
 30
0.0
 11
236.962297
 21
460.408039
 31
0.0
  0
LINE
  8
LC-005-005-----0
 62
     2
  5
262
 10
188.693014
 20
414.967184
 30
0.0
 11
189.693011
 21
415.967181
 31
0.0
  0
LINE
  8
LC-005-005-----0
 62
     2
  5
263
 10
201.863338
 20
428.137508
 30
0.0
 11
224.363338
 21
450.637508
 31
0.0
  0
LINE
  8
LC-005-005-----0
 62
     2
  5
264
 10
230.363338
 20
456.637508
 30
0.0
 11
234.363338
 21
460.637508
 31
0.0
  0
LINE
  8
LC-005-005-----0
 62
     2
  5
265
 10
188.693006
 20
417.795603
 30
0.0
 11
189.693003
 21
418.7956
 31
0.0
  0
LINE
  8
LC-005-005-----0
 62
     2
  5
266
 10
199.03491
 20
428.137508
 30
0.0
 11
221.53491
 21
450.637508
 31
0.0
  0
LINE
  8
LC-005-005-----0
 62
     2
  5
267
 10
227.53491
 20
456.637508
 30
0.0
 11
231.534911
 21
460.637508
 31
0.0
  0
LINE
  8
LC-005-005-----0
 62
     2
  5
268
 10
188.692998
 20
420.624022
 30
0.0
 11
189.692995
 21
421.624019
 31
0.0
  0
LINE
  8
LC-005-005-----0
 62
     2
  5
269
 10
198.935971
 20
430.866995
 30
0.0
 11
220.507533
 21
452.438558
 31
0.0
  0
LINE
  8
LC-005-005-----0
 62
     2
  5
26A
 10
224.641898
 20
456.572922
 30
0.0
 11
228.706483
 21
460.637508
 31
0.0
  0
LINE
  8
LC-005-005-----0
 62
     2
  5
26B
 10
188.69299
 20
423.452441
 30
0.0
 11
189.692987
 21
424.452438
 31
0.0
  0
LINE
  8
LC-005-005-----0
 62
     2
  5
26C
 10
198.936737
 20
433.696188
 30
0.0
 11
215.878056
 21
450.637508
 31
0.0
  0
LINE
  8
LC-005-005-----0
 62
     2
  5
26D
 10
216.442948
 20
451.202399
 30
0.0
 11
225.878056
 21
460.637508
 31
0.0
  0
LINE
  8
LC-005-005-----0
 62
     2
  5
26E
 10
188.692982
 20
426.28086
 30
0.0
 11
189.692979
 21
427.280857
 31
0.0
  0
LINE
  8
LC-005-005-----0
 62
     2
  5
26F
 10
198.937503
 20
436.525381
 30
0.0
 11
213.049629
 21
450.637508
 31
0.0
  0
LINE
  8
LC-005-005-----0
 62
     2
  5
270
 10
216.909377
 20
454.497255
 30
0.0
 11
222.583201
 21
460.171079
 31
0.0
  0
LINE
  8
LC-005-005-----0
 62
     2
  5
271
 10
188.692974
 20
429.109279
 30
0.0
 11
189.692971
 21
430.109276
 31
0.0
  0
LINE
  8
LC-005-005-----0
 62
     2
  5
272
 10
198.938268
 20
439.354574
 30
0.0
 11
210.221202
 21
450.637508
 31
0.0
  0
LINE
  8
LC-005-005-----0
 62
     2
  5
273
 10
188.692966
 20
431.937698
 30
0.0
 11
189.692963
 21
432.937695
 31
0.0
  0
LINE
  8
LC-005-005-----0
 62
     2
  5
274
 10
198.939034
 20
442.183767
 30
0.0
 11
207.392775
 21
450.637508
 31
0.0
  0
LINE
  8
LC-005-005-----0
 62
     2
  5
275
 10
188.692958
 20
434.766117
 30
0.0
 11
189.692955
 21
435.766115
 31
0.0
  0
LINE
  8
LC-005-005-----0
 62
     2
  5
276
 10
198.9398
 20
445.01296
 30
0.0
 11
204.564348
 21
450.637508
 31
0.0
  0
LINE
  8
LC-005-005-----0
 62
     2
  5
277
 10
188.69295
 20
437.594537
 30
0.0
 11
189.692947
 21
438.594534
 31
0.0
  0
LINE
  8
LC-005-005-----0
 62
     2
  5
278
 10
198.940566
 20
447.842153
 30
0.0
 11
201.735921
 21
450.637508
 31
0.0
  0
LINE
  8
LC-005-005-----0
 62
     2
  5
279
 10
188.85145
 20
440.581465
 30
0.0
 11
190.278127
 21
442.008141
 31
0.0
  0
LINE
  8
LC-005-005-----0
 62
     2
  5
27A
 10
196.322313
 20
448.052327
 30
0.0
 11
198.74899
 21
450.479004
 31
0.0
  0
LINE
  8
LC-005-005-----0
 62
     2
  5
27B
 10
190.655473
 20
445.213914
 30
0.0
 11
194.11654
 21
448.674981
 31
0.0
  0
ENDBLK
  8
0
  5
27C
  0
BLOCK
  8
0
  5
2C7
  2
*X4
 70
    65
 10
0.0
 20
0.0
 30
0.0
  3
*X4
  0
LINE
  8
LC-005-005-----0
 62
     2
  5
2C8
 10
306.901942
 20
437.009589
 30
0.0
 11
309.192947
 21
439.300594
 31
0.0
  0
LINE
  8
LC-005-005-----0
 62
     2
  5
2C9
 10
319.901942
 20
450.009589
 30
0.0
 11
321.116459
 21
451.224107
 31
0.0
  0
LINE
  8
LC-005-005-----0
 62
     2
  5
2CA
 10
304.073515
 20
437.009589
 30
0.0
 11
309.192947
 21
442.129021
 31
0.0
  0
LINE
  8
LC-005-005-----0
 62
     2
  5
2CB
 10
319.192732
 20
452.128807
 30
0.0
 11
321.587895
 21
454.52397
 31
0.0
  0
LINE
  8
LC-005-005-----0
 62
     2
  5
2CC
 10
301.245087
 20
437.009589
 30
0.0
 11
309.192947
 21
444.957449
 31
0.0
  0
LINE
  8
LC-005-005-----0
 62
     2
  5
2CD
 10
318.497663
 20
454.262165
 30
0.0
 11
321.192187
 21
456.956689
 31
0.0
  0
LINE
  8
LC-005-005-----0
 62
     2
  5
2CE
 10
299.692947
 20
438.285876
 30
0.0
 11
301.41666
 21
440.009589
 31
0.0
  0
LINE
  8
LC-005-005-----0
 62
     2
  5
2CF
 10
302.442947
 20
441.035876
 30
0.0
 11
309.192947
 21
447.785876
 31
0.0
  0
LINE
  8
LC-005-005-----0
 62
     2
  5
2D0
 10
315.456583
 20
454.049512
 30
0.0
 11
318.151107
 21
456.744036
 31
0.0
  0
LINE
  8
LC-005-005-----0
 62
     2
  5
2D1
 10
302.442947
 20
443.864303
 30
0.0
 11
309.192947
 21
450.614303
 31
0.0
  0
LINE
  8
LC-005-005-----0
 62
     2
  5
2D2
 10
312.415503
 20
453.836859
 30
0.0
 11
315.110027
 21
456.531383
 31
0.0
  0
LINE
  8
LC-005-005-----0
 62
     2
  5
2D3
 10
302.442947
 20
446.69273
 30
0.0
 11
309.192947
 21
453.44273
 31
0.0
  0
LINE
  8
LC-005-005-----0
 62
     2
  5
2D4
 10
309.374422
 20
453.624206
 30
0.0
 11
312.068947
 21
456.31873
 31
0.0
  0
LINE
  8
LC-005-005-----0
 62
     2
  5
2D5
 10
302.442947
 20
449.521157
 30
0.0
 11
309.027866
 21
456.106077
 31
0.0
  0
LINE
  8
LC-005-005-----0
 62
     2
  5
2D6
 10
302.442947
 20
452.349584
 30
0.0
 11
305.986786
 21
455.893424
 31
0.0
  0
ENDBLK
  8
0
  5
2D7
  0
BLOCK
  8
0
  5
2DA
  2
*X5
 70
    65
 10
0.0
 20
0.0
 30
0.0
  3
*X5
  0
LINE
  8
LC-005-005-----0
 62
     2
  5
2DB
 10
159.823731
 20
437.009589
 30
0.0
 11
160.692947
 21
437.878805
 31
0.0
  0
LINE
  8
LC-005-005-----0
 62
     2
  5
2DC
 10
156.995304
 20
437.009589
 30
0.0
 11
159.995304
 21
440.009589
 31
0.0
  0
LINE
  8
LC-005-005-----0
 62
     2
  5
2DD
 10
154.166877
 20
437.009589
 30
0.0
 11
157.942947
 21
440.785659
 31
0.0
  0
LINE
  8
LC-005-005-----0
 62
     2
  5
2DE
 10
151.562344
 20
437.233484
 30
0.0
 11
157.942947
 21
443.614086
 31
0.0
  0
LINE
  8
LC-005-005-----0
 62
     2
  5
2DF
 10
151.192947
 20
439.692513
 30
0.0
 11
157.942947
 21
446.442513
 31
0.0
  0
LINE
  8
LC-005-005-----0
 62
     2
  5
2E0
 10
151.192947
 20
442.52094
 30
0.0
 11
157.942947
 21
449.27094
 31
0.0
  0
LINE
  8
LC-005-005-----0
 62
     2
  5
2E1
 10
151.192947
 20
445.349368
 30
0.0
 11
157.942947
 21
452.099368
 31
0.0
  0
LINE
  8
LC-005-005-----0
 62
     2
  5
2E2
 10
151.192947
 20
448.177795
 30
0.0
 11
157.942947
 21
454.927795
 31
0.0
  0
LINE
  8
LC-005-005-----0
 62
     2
  5
2E3
 10
151.192947
 20
451.006222
 30
0.0
 11
155.970281
 21
455.783557
 31
0.0
  0
LINE
  8
LC-005-005-----0
 62
     2
  5
2E4
 10
150.984397
 20
453.626099
 30
0.0
 11
153.326711
 21
455.968413
 31
0.0
  0
LINE
  8
LC-005-005-----0
 62
     2
  5
2E5
 10
148.340826
 20
453.810955
 30
0.0
 11
150.68314
 21
456.15327
 31
0.0
  0
LINE
  8
LC-005-005-----0
 62
     2
  5
2E6
 10
145.697255
 20
453.995812
 30
0.0
 11
148.039569
 21
456.338126
 31
0.0
  0
LINE
  8
LC-005-005-----0
 62
     2
  5
2E7
 10
139.3729
 20
450.499884
 30
0.0
 11
141.193161
 21
452.320145
 31
0.0
  0
LINE
  8
LC-005-005-----0
 62
     2
  5
2E8
 10
143.053685
 20
454.180668
 30
0.0
 11
145.395999
 21
456.522983
 31
0.0
  0
LINE
  8
LC-005-005-----0
 62
     2
  5
2E9
 10
139.019329
 20
452.97474
 30
0.0
 11
142.752428
 21
456.707839
 31
0.0
  0
LINE
  8
LC-005-005-----0
 62
     2
  5
2EA
 10
138.665758
 20
455.449596
 30
0.0
 11
140.108858
 21
456.892695
 31
0.0
  0
ENDBLK
  8
0
  5
2EB
  0
BLOCK
  8
0
  5
2F0
  2
*D6
 70
    65
 10
0.0
 20
0.0
 30
0.0
  3
*D6
  0
LINE
  8
LC-006-003-MTH-0
 62
     2
  5
2F2
 10
201.224068
 20
250.122619
 30
0.0
 11
201.224061
 21
216.048031
 31
0.0
  0
LINE
  8
LC-006-003-MTH-0
 62
     2
  5
2F3
 10
259.22403
 20
250.122607
 30
0.0
 11
259.224023
 21
216.048019
 31
0.0
  0
LINE
  8
LC-007-003-----0
 62
     2
  5
2F5
 10
173.463607
 20
229.193304
 30
0.0
 11
201.224064
 21
232.848031
 31
0.0
  0
LINE
  8
LC-007-003-----0
 62
     2
  5
2F6
 10
201.224064
 20
232.848031
 30
0.0
 11
173.463609
 21
236.50277
 31
0.0
  0
LINE
  8
LC-007-003-----0
 62
     2
  5
2F7
 10
173.463609
 20
236.50277
 30
0.0
 11
173.463607
 21
229.193304
 31
0.0
  0
LINE
  8
LC-007-003-----0
 62
     2
  5
2F8
 10
173.401326
 20
230.143534
 30
0.0
 11
193.944064
 21
232.848033
 31
0.0
  0
LINE
  8
LC-007-003-----0
 62
     2
  5
2F9
 10
193.944064
 20
232.848033
 30
0.0
 11
173.401327
 21
235.55254
 31
0.0
  0
LINE
  8
LC-007-003-----0
 62
     2
  5
2FA
 10
173.339045
 20
231.093765
 30
0.0
 11
186.664064
 21
232.848034
 31
0.0
  0
LINE
  8
LC-007-003-----0
 62
     2
  5
2FB
 10
186.664064
 20
232.848034
 30
0.0
 11
173.339046
 21
234.602309
 31
0.0
  0
LINE
  8
LC-007-003-----0
 62
     2
  5
2FC
 10
173.276764
 20
232.043996
 30
0.0
 11
179.384064
 21
232.848036
 31
0.0
  0
LINE
  8
LC-007-003-----0
 62
     2
  5
2FD
 10
179.384064
 20
232.848036
 30
0.0
 11
173.276764
 21
233.652078
 31
0.0
  0
LINE
  8
LC-007-003-----0
 62
     2
  5
2FE
 10
286.984483
 20
236.502746
 30
0.0
 11
259.224026
 21
232.848019
 31
0.0
  0
LINE
  8
LC-007-003-----0
 62
     2
  5
2FF
 10
259.224026
 20
232.848019
 30
0.0
 11
286.984482
 21
229.193279
 31
0.0
  0
LINE
  8
LC-007-003-----0
 62
     2
  5
300
 10
286.984482
 20
229.193279
 30
0.0
 11
286.984483
 21
236.502746
 31
0.0
  0
LINE
  8
LC-007-003-----0
 62
     2
  5
301
 10
287.046764
 20
235.552515
 30
0.0
 11
266.504026
 21
232.848017
 31
0.0
  0
LINE
  8
LC-007-003-----0
 62
     2
  5
302
 10
266.504026
 20
232.848017
 30
0.0
 11
287.046763
 21
230.14351
 31
0.0
  0
LINE
  8
LC-007-003-----0
 62
     2
  5
303
 10
287.109046
 20
234.602285
 30
0.0
 11
273.784026
 21
232.848016
 31
0.0
  0
LINE
  8
LC-007-003-----0
 62
     2
  5
304
 10
273.784026
 20
232.848016
 30
0.0
 11
287.109045
 21
231.093741
 31
0.0
  0
LINE
  8
LC-007-003-----0
 62
     2
  5
305
 10
287.171327
 20
233.652054
 30
0.0
 11
281.064026
 21
232.848014
 31
0.0
  0
LINE
  8
LC-007-003-----0
 62
     2
  5
306
 10
281.064026
 20
232.848014
 30
0.0
 11
287.171327
 21
232.043971
 31
0.0
  0
LINE
  8
LC-008-003-MTG-0
 62
     2
  5
308
 10
162.024064
 20
232.848039
 30
0.0
 11
467.624026
 21
232.847974
 31
0.0
  0
TEXT
  8
LC-007-003-----0
 62
     8
  5
309
 10
301.3228
 20
235.26638
 30
0.0
 40
28.0
  1
DN50(SML)
 50
359.999988
 41
0.9
 51
15.0
  7
LCTX15-400-0-0-ARIAL
  0
ENDBLK
  8
0
  5
30A
  0
BLOCK
  8
0
  5
30D
  2
*D7
 70
    65
 10
0.0
 20
0.0
 30
0.0
  3
*D7
  0
LINE
  8
LC-006-003-MTH-0
 62
     2
  5
30E
 10
149.97409
 20
361.887508
 30
0.0
 11
149.974047
 21
158.430015
 31
0.0
  0
LINE
  8
LC-006-003-MTH-0
 62
     2
  5
30F
 10
310.474055
 20
361.887473
 30
0.0
 11
310.474012
 21
158.42998
 31
0.0
  0
LINE
  8
LC-008-003-MTG-0
 62
     2
  5
310
 10
149.974051
 20
175.230015
 30
0.0
 11
310.474015
 21
175.22998
 31
0.0
  0
LINE
  8
LC-007-003-----0
 62
     2
  5
311
 10
177.734507
 20
178.884742
 30
0.0
 11
149.974051
 21
175.230015
 31
0.0
  0
LINE
  8
LC-007-003-----0
 62
     2
  5
312
 10
149.974051
 20
175.230015
 30
0.0
 11
177.734506
 21
171.575275
 31
0.0
  0
LINE
  8
LC-007-003-----0
 62
     2
  5
313
 10
177.734506
 20
171.575275
 30
0.0
 11
177.734507
 21
178.884742
 31
0.0
  0
LINE
  8
LC-007-003-----0
 62
     2
  5
314
 10
177.796789
 20
177.934511
 30
0.0
 11
157.254051
 21
175.230013
 31
0.0
  0
LINE
  8
LC-007-003-----0
 62
     2
  5
315
 10
157.254051
 20
175.230013
 30
0.0
 11
177.796787
 21
172.525506
 31
0.0
  0
LINE
  8
LC-007-003-----0
 62
     2
  5
316
 10
177.85907
 20
176.984281
 30
0.0
 11
164.534051
 21
175.230011
 31
0.0
  0
LINE
  8
LC-007-003-----0
 62
     2
  5
317
 10
164.534051
 20
175.230011
 30
0.0
 11
177.859069
 21
173.475737
 31
0.0
  0
LINE
  8
LC-007-003-----0
 62
     2
  5
318
 10
177.921351
 20
176.03405
 30
0.0
 11
171.814051
 21
175.23001
 31
0.0
  0
LINE
  8
LC-007-003-----0
 62
     2
  5
319
 10
171.814051
 20
175.23001
 30
0.0
 11
177.921351
 21
174.425967
 31
0.0
  0
LINE
  8
LC-007-003-----0
 62
     2
  5
31A
 10
282.713558
 20
171.575253
 30
0.0
 11
310.474015
 21
175.22998
 31
0.0
  0
LINE
  8
LC-007-003-----0
 62
     2
  5
31B
 10
310.474015
 20
175.22998
 30
0.0
 11
282.71356
 21
178.88472
 31
0.0
  0
LINE
  8
LC-007-003-----0
 62
     2
  5
31C
 10
282.71356
 20
178.88472
 30
0.0
 11
282.713558
 21
171.575253
 31
0.0
  0
LINE
  8
LC-007-003-----0
 62
     2
  5
31D
 10
282.651277
 20
172.525484
 30
0.0
 11
303.194015
 21
175.229982
 31
0.0
  0
LINE
  8
LC-007-003-----0
 62
     2
  5
31E
 10
303.194015
 20
175.229982
 30
0.0
 11
282.651278
 21
177.934489
 31
0.0
  0
LINE
  8
LC-007-003-----0
 62
     2
  5
31F
 10
282.588996
 20
173.475714
 30
0.0
 11
295.914015
 21
175.229983
 31
0.0
  0
LINE
  8
LC-007-003-----0
 62
     2
  5
320
 10
295.914015
 20
175.229983
 30
0.0
 11
282.588997
 21
176.984258
 31
0.0
  0
LINE
  8
LC-007-003-----0
 62
     2
  5
321
 10
282.526715
 20
174.425945
 30
0.0
 11
288.634015
 21
175.229985
 31
0.0
  0
LINE
  8
LC-007-003-----0
 62
     2
  5
322
 10
288.634015
 20
175.229985
 30
0.0
 11
282.526715
 21
176.034028
 31
0.0
  0
TEXT
  8
LC-007-003-----0
 62
     8
  5
323
 10
163.922807
 20
177.648382
 30
0.0
 40
28.0
  1
%%c160
 50
359.999988
 41
0.9
 51
15.0
  7
LCTX15-400-0-0-ARIAL
 72
     1
 11
233.122807
 21
177.648367
 31
0.0
  0
ENDBLK
  8
0
  5
324
  0
BLOCK
  8
0
  5
327
  2
*D8
 70
    65
 10
0.0
 20
0.0
 30
0.0
  3
*D8
  0
LINE
  8
LC-006-003-MTH-0
 62
     2
  5
328
 10
79.472347
 20
460.988192
 30
0.0
 11
79.472347
 21
553.776
 31
0.0
  0
LINE
  8
LC-006-003-MTH-0
 62
     2
  5
329
 10
380.983548
 20
460.988192
 30
0.0
 11
380.983548
 21
553.776
 31
0.0
  0
LINE
  8
LC-008-003-MTG-0
 62
     2
  5
32A
 10
79.472347
 20
536.976
 30
0.0
 11
186.651414
 21
536.976
 31
0.0
  0
LINE
  8
LC-008-003-MTG-0
 62
     2
  5
32B
 10
288.298347
 20
536.976
 30
0.0
 11
380.983548
 21
536.976
 31
0.0
  0
LINE
  8
LC-007-003-----0
 62
     2
  5
32C
 10
107.232804
 20
540.630733
 30
0.0
 11
79.472347
 21
536.976
 31
0.0
  0
LINE
  8
LC-007-003-----0
 62
     2
  5
32D
 10
79.472347
 20
536.976
 30
0.0
 11
107.232804
 21
533.321267
 31
0.0
  0
LINE
  8
LC-007-003-----0
 62
     2
  5
32E
 10
107.232804
 20
533.321267
 30
0.0
 11
107.232804
 21
540.630733
 31
0.0
  0
LINE
  8
LC-007-003-----0
 62
     2
  5
32F
 10
107.295085
 20
539.680503
 30
0.0
 11
86.752347
 21
536.976
 31
0.0
  0
LINE
  8
LC-007-003-----0
 62
     2
  5
330
 10
86.752347
 20
536.976
 30
0.0
 11
107.295085
 21
534.271497
 31
0.0
  0
LINE
  8
LC-007-003-----0
 62
     2
  5
331
 10
107.357366
 20
538.730272
 30
0.0
 11
94.032347
 21
536.976
 31
0.0
  0
LINE
  8
LC-007-003-----0
 62
     2
  5
332
 10
94.032347
 20
536.976
 30
0.0
 11
107.357366
 21
535.221728
 31
0.0
  0
LINE
  8
LC-007-003-----0
 62
     2
  5
333
 10
107.419648
 20
537.780041
 30
0.0
 11
101.312347
 21
536.976
 31
0.0
  0
LINE
  8
LC-007-003-----0
 62
     2
  5
334
 10
101.312347
 20
536.976
 30
0.0
 11
107.419648
 21
536.171959
 31
0.0
  0
LINE
  8
LC-007-003-----0
 62
     2
  5
335
 10
353.223092
 20
533.321267
 30
0.0
 11
380.983548
 21
536.976
 31
0.0
  0
LINE
  8
LC-007-003-----0
 62
     2
  5
336
 10
380.983548
 20
536.976
 30
0.0
 11
353.223092
 21
540.630733
 31
0.0
  0
LINE
  8
LC-007-003-----0
 62
     2
  5
337
 10
353.223092
 20
540.630733
 30
0.0
 11
353.223092
 21
533.321267
 31
0.0
  0
LINE
  8
LC-007-003-----0
 62
     2
  5
338
 10
353.16081
 20
534.271497
 30
0.0
 11
373.703548
 21
536.976
 31
0.0
  0
LINE
  8
LC-007-003-----0
 62
     2
  5
339
 10
373.703548
 20
536.976
 30
0.0
 11
353.16081
 21
539.680503
 31
0.0
  0
LINE
  8
LC-007-003-----0
 62
     2
  5
33A
 10
353.098529
 20
535.221728
 30
0.0
 11
366.423548
 21
536.976
 31
0.0
  0
LINE
  8
LC-007-003-----0
 62
     2
  5
33B
 10
366.423548
 20
536.976
 30
0.0
 11
353.098529
 21
538.730272
 31
0.0
  0
LINE
  8
LC-007-003-----0
 62
     2
  5
33C
 10
353.036247
 20
536.171959
 30
0.0
 11
359.143548
 21
536.976
 31
0.0
  0
LINE
  8
LC-007-003-----0
 62
     2
  5
33D
 10
359.143548
 20
536.976
 30
0.0
 11
353.036247
 21
537.780041
 31
0.0
  0
TEXT
  8
LC-007-003-----0
 62
     8
  5
33E
 10
163.926721
 20
539.394369
 30
0.0
 40
28.0
  1
%%c300
 41
0.9
 51
15.0
  7
LCTX15-400-0-0-ARIAL
 72
     1
 11
233.126721
 21
539.394369
 31
0.0
  0
ENDBLK
  8
0
  5
33F
  0
BLOCK
  8
0
  5
345
  2
*D9
 70
    65
 10
0.0
 20
0.0
 30
0.0
  3
*D9
  0
LINE
  8
LC-006-003-MTH-0
 62
     2
  5
346
 10
161.72409
 20
350.137508
 30
0.0
 11
20.350798
 21
350.137508
 31
0.0
  0
LINE
  8
LC-006-003-MTH-0
 62
     2
  5
347
 10
79.472347
 20
457.987735
 30
0.0
 11
20.350798
 21
457.987735
 31
0.0
  0
LINE
  8
LC-008-003-MTG-0
 62
     2
  5
348
 10
37.150798
 20
350.137508
 30
0.0
 11
37.150798
 21
372.486088
 31
0.0
  0
LINE
  8
LC-008-003-MTG-0
 62
     2
  5
349
 10
37.150798
 20
450.133021
 30
0.0
 11
37.150798
 21
457.987735
 31
0.0
  0
LINE
  8
LC-007-003-----0
 62
     2
  5
34A
 10
34.208551
 20
372.486088
 30
0.0
 11
37.150798
 21
350.137508
 31
0.0
  0
LINE
  8
LC-007-003-----0
 62
     2
  5
34B
 10
37.150798
 20
350.137508
 30
0.0
 11
40.093044
 21
372.486088
 31
0.0
  0
LINE
  8
LC-007-003-----0
 62
     2
  5
34C
 10
35.166981
 20
372.486088
 30
0.0
 11
37.150798
 21
357.417508
 31
0.0
  0
LINE
  8
LC-007-003-----0
 62
     2
  5
34D
 10
37.150798
 20
357.417508
 30
0.0
 11
39.134614
 21
372.486088
 31
0.0
  0
LINE
  8
LC-007-003-----0
 62
     2
  5
34E
 10
36.125412
 20
372.486088
 30
0.0
 11
37.150798
 21
364.697508
 31
0.0
  0
LINE
  8
LC-007-003-----0
 62
     2
  5
34F
 10
37.150798
 20
364.697508
 30
0.0
 11
38.176184
 21
372.486088
 31
0.0
  0
LINE
  8
LC-007-003-----0
 62
     2
  5
350
 10
37.083842
 20
372.486088
 30
0.0
 11
37.150798
 21
371.977508
 31
0.0
  0
LINE
  8
LC-007-003-----0
 62
     2
  5
351
 10
37.150798
 20
371.977508
 30
0.0
 11
37.217754
 21
372.486088
 31
0.0
  0
LINE
  8
LC-007-003-----0
 62
     2
  5
352
 10
38.18489
 20
450.133021
 30
0.0
 11
37.150798
 21
457.987735
 31
0.0
  0
LINE
  8
LC-007-003-----0
 62
     2
  5
353
 10
37.150798
 20
457.987735
 30
0.0
 11
36.116705
 21
450.133021
 31
0.0
  0
LINE
  8
LC-007-003-----0
 62
     2
  5
354
 10
37.22646
 20
450.133021
 30
0.0
 11
37.150798
 21
450.707735
 31
0.0
  0
LINE
  8
LC-007-003-----0
 62
     2
  5
355
 10
37.150798
 20
450.707735
 30
0.0
 11
37.075135
 21
450.133021
 31
0.0
  0
TEXT
  8
LC-007-003-----0
 62
     8
  5
356
 10
29.323244
 20
373.210781
 30
0.0
 40
28.0
  1
110
 50
90.0
 41
0.9
 51
15.0
  7
LCTX15-400-0-0-ARIAL
 72
     1
 11
29.323244
 21
408.410781
 31
0.0
  0
ENDBLK
  8
0
  5
357
  0
BLOCK
  8
0
  5
35A
  2
*D10
 70
    65
 10
0.0
 20
0.0
 30
0.0
  3
*D10
  0
LINE
  8
LC-006-003-MTH-0
 62
     2
  5
35B
 10
201.224068
 20
250.122619
 30
0.0
 11
20.350798
 21
250.122619
 31
0.0
  0
LINE
  8
LC-006-003-MTH-0
 62
     2
  5
35C
 10
161.72409
 20
350.137508
 30
0.0
 11
20.350798
 21
350.137508
 31
0.0
  0
LINE
  8
LC-008-003-MTG-0
 62
     2
  5
35D
 10
37.150798
 20
250.122619
 30
0.0
 11
37.150798
 21
268.55353
 31
0.0
  0
LINE
  8
LC-008-003-MTG-0
 62
     2
  5
35E
 10
37.150798
 20
346.200463
 30
0.0
 11
37.150798
 21
350.137508
 31
0.0
  0
LINE
  8
LC-007-003-----0
 62
     2
  5
35F
 10
34.724322
 20
268.55353
 30
0.0
 11
37.150798
 21
250.122619
 31
0.0
  0
LINE
  8
LC-007-003-----0
 62
     2
  5
360
 10
37.150798
 20
250.122619
 30
0.0
 11
39.577273
 21
268.55353
 31
0.0
  0
LINE
  8
LC-007-003-----0
 62
     2
  5
361
 10
35.682752
 20
268.55353
 30
0.0
 11
37.150798
 21
257.402619
 31
0.0
  0
LINE
  8
LC-007-003-----0
 62
     2
  5
362
 10
37.150798
 20
257.402619
 30
0.0
 11
38.618843
 21
268.55353
 31
0.0
  0
LINE
  8
LC-007-003-----0
 62
     2
  5
363
 10
36.641183
 20
268.55353
 30
0.0
 11
37.150798
 21
264.682619
 31
0.0
  0
LINE
  8
LC-007-003-----0
 62
     2
  5
364
 10
37.150798
 20
264.682619
 30
0.0
 11
37.660413
 21
268.55353
 31
0.0
  0
LINE
  8
LC-007-003-----0
 62
     2
  5
365
 10
37.669119
 20
346.200463
 30
0.0
 11
37.150798
 21
350.137508
 31
0.0
  0
LINE
  8
LC-007-003-----0
 62
     2
  5
366
 10
37.150798
 20
350.137508
 30
0.0
 11
36.632476
 21
346.200463
 31
0.0
  0
TEXT
  8
LC-007-003-----0
 62
     8
  5
367
 10
29.323244
 20
269.278223
 30
0.0
 40
28.0
  1
100
 50
90.0
 41
0.9
 51
15.0
  7
LCTX15-400-0-0-ARIAL
 72
     1
 11
29.323244
 21
304.478223
 31
0.0
  0
ENDBLK
  8
0
  5
368
  0
BLOCK
  8
0
  5
36B
  2
*D11
 70
    65
 10
0.0
 20
0.0
 30
0.0
  3
*D11
  0
LINE
  8
LC-006-003-MTH-0
 62
     2
  5
36C
 10
135.452705
 20
448.6305
 30
0.0
 11
135.452705
 21
505.068
 31
0.0
  0
LINE
  8
LC-006-003-MTH-0
 62
     2
  5
36D
 10
325.124365
 20
450.942647
 30
0.0
 11
325.124365
 21
505.068
 31
0.0
  0
LINE
  8
LC-008-003-MTG-0
 62
     2
  5
36E
 10
135.452705
 20
488.268
 30
0.0
 11
186.712001
 21
488.268
 31
0.0
  0
LINE
  8
LC-008-003-MTG-0
 62
     2
  5
36F
 10
288.358935
 20
488.268
 30
0.0
 11
325.124365
 21
488.268
 31
0.0
  0
LINE
  8
LC-007-003-----0
 62
     2
  5
370
 10
163.213161
 20
491.922733
 30
0.0
 11
135.452705
 21
488.268
 31
0.0
  0
LINE
  8
LC-007-003-----0
 62
     2
  5
371
 10
135.452705
 20
488.268
 30
0.0
 11
163.213161
 21
484.613267
 31
0.0
  0
LINE
  8
LC-007-003-----0
 62
     2
  5
372
 10
163.213161
 20
484.613267
 30
0.0
 11
163.213161
 21
491.922733
 31
0.0
  0
LINE
  8
LC-007-003-----0
 62
     2
  5
373
 10
163.275442
 20
490.972503
 30
0.0
 11
142.732705
 21
488.268
 31
0.0
  0
LINE
  8
LC-007-003-----0
 62
     2
  5
374
 10
142.732705
 20
488.268
 30
0.0
 11
163.275442
 21
485.563497
 31
0.0
  0
LINE
  8
LC-007-003-----0
 62
     2
  5
375
 10
163.337724
 20
490.022272
 30
0.0
 11
150.012705
 21
488.268
 31
0.0
  0
LINE
  8
LC-007-003-----0
 62
     2
  5
376
 10
150.012705
 20
488.268
 30
0.0
 11
163.337724
 21
486.513728
 31
0.0
  0
LINE
  8
LC-007-003-----0
 62
     2
  5
377
 10
163.400005
 20
489.072041
 30
0.0
 11
157.292705
 21
488.268
 31
0.0
  0
LINE
  8
LC-007-003-----0
 62
     2
  5
378
 10
157.292705
 20
488.268
 30
0.0
 11
163.400005
 21
487.463959
 31
0.0
  0
LINE
  8
LC-007-003-----0
 62
     2
  5
379
 10
297.363909
 20
484.613267
 30
0.0
 11
325.124365
 21
488.268
 31
0.0
  0
LINE
  8
LC-007-003-----0
 62
     2
  5
37A
 10
325.124365
 20
488.268
 30
0.0
 11
297.363909
 21
491.922733
 31
0.0
  0
LINE
  8
LC-007-003-----0
 62
     2
  5
37B
 10
297.363909
 20
491.922733
 30
0.0
 11
297.363909
 21
484.613267
 31
0.0
  0
LINE
  8
LC-007-003-----0
 62
     2
  5
37C
 10
297.301627
 20
485.563497
 30
0.0
 11
317.844365
 21
488.268
 31
0.0
  0
LINE
  8
LC-007-003-----0
 62
     2
  5
37D
 10
317.844365
 20
488.268
 30
0.0
 11
297.301627
 21
490.972503
 31
0.0
  0
LINE
  8
LC-007-003-----0
 62
     2
  5
37E
 10
297.239346
 20
486.513728
 30
0.0
 11
310.564365
 21
488.268
 31
0.0
  0
LINE
  8
LC-007-003-----0
 62
     2
  5
37F
 10
310.564365
 20
488.268
 30
0.0
 11
297.239346
 21
490.022272
 31
0.0
  0
LINE
  8
LC-007-003-----0
 62
     2
  5
380
 10
297.177065
 20
487.463959
 30
0.0
 11
303.284365
 21
488.268
 31
0.0
  0
LINE
  8
LC-007-003-----0
 62
     2
  5
381
 10
303.284365
 20
488.268
 30
0.0
 11
297.177065
 21
489.072041
 31
0.0
  0
TEXT
  8
LC-007-003-----0
 62
     8
  5
382
 10
163.987308
 20
490.686369
 30
0.0
 40
28.0
  1
%%c190
 41
0.9
 51
15.0
  7
LCTX15-400-0-0-ARIAL
 72
     1
 11
233.187308
 21
490.686369
 31
0.0
  0
ENDBLK
  8
0
  5
383
  0
BLOCK
  8
0
  5
386
  2
*D12
 70
    65
 10
0.0
 20
0.0
 30
0.0
  3
*D12
  0
LINE
  8
LC-006-003-MTH-0
 62
     2
  5
387
 10
188.692951
 20
378.637505
 30
0.0
 11
97.172665
 21
378.637505
 31
0.0
  0
LINE
  8
LC-006-003-MTH-0
 62
     2
  5
388
 10
198.935232
 20
428.137508
 30
0.0
 11
119.572665
 21
428.137508
 31
0.0
  0
LINE
  8
LC-007-003-----0
 62
     2
  5
389
 10
117.627399
 20
350.877049
 30
0.0
 11
113.972665
 21
378.637505
 31
0.0
  0
LINE
  8
LC-007-003-----0
 62
     2
  5
38A
 10
113.972665
 20
378.637505
 30
0.0
 11
110.317932
 21
350.877049
 31
0.0
  0
LINE
  8
LC-007-003-----0
 62
     2
  5
38B
 10
110.317932
 20
350.877049
 30
0.0
 11
117.627399
 21
350.877049
 31
0.0
  0
LINE
  8
LC-007-003-----0
 62
     2
  5
38C
 10
116.677168
 20
350.814767
 30
0.0
 11
113.972665
 21
371.357505
 31
0.0
  0
LINE
  8
LC-007-003-----0
 62
     2
  5
38D
 10
113.972665
 20
371.357505
 30
0.0
 11
111.268163
 21
350.814767
 31
0.0
  0
LINE
  8
LC-007-003-----0
 62
     2
  5
38E
 10
115.726937
 20
350.752486
 30
0.0
 11
113.972665
 21
364.077505
 31
0.0
  0
LINE
  8
LC-007-003-----0
 62
     2
  5
38F
 10
113.972665
 20
364.077505
 30
0.0
 11
112.218393
 21
350.752486
 31
0.0
  0
LINE
  8
LC-007-003-----0
 62
     2
  5
390
 10
114.776707
 20
350.690205
 30
0.0
 11
113.972665
 21
356.797505
 31
0.0
  0
LINE
  8
LC-007-003-----0
 62
     2
  5
391
 10
113.972665
 20
356.797505
 30
0.0
 11
113.168624
 21
350.690205
 31
0.0
  0
LINE
  8
LC-007-003-----0
 62
     2
  5
392
 10
110.317932
 20
455.897964
 30
0.0
 11
113.008917
 21
435.457906
 31
0.0
  0
LINE
  8
LC-007-003-----0
 62
     2
  5
393
 10
114.936414
 20
435.457906
 30
0.0
 11
117.627399
 21
455.897964
 31
0.0
  0
LINE
  8
LC-007-003-----0
 62
     2
  5
394
 10
117.627399
 20
455.897964
 30
0.0
 11
110.317932
 21
455.897964
 31
0.0
  0
LINE
  8
LC-007-003-----0
 62
     2
  5
395
 10
111.268163
 20
455.960245
 30
0.0
 11
113.967347
 21
435.457906
 31
0.0
  0
LINE
  8
LC-007-003-----0
 62
     2
  5
396
 10
113.977984
 20
435.457906
 30
0.0
 11
116.677168
 21
455.960245
 31
0.0
  0
LINE
  8
LC-007-003-----0
 62
     2
  5
397
 10
112.218393
 20
456.022527
 30
0.0
 11
113.972665
 21
442.697508
 31
0.0
  0
LINE
  8
LC-007-003-----0
 62
     2
  5
398
 10
113.972665
 20
442.697508
 30
0.0
 11
115.726937
 21
456.022527
 31
0.0
  0
LINE
  8
LC-007-003-----0
 62
     2
  5
399
 10
113.168624
 20
456.084808
 30
0.0
 11
113.972665
 21
449.977508
 31
0.0
  0
LINE
  8
LC-007-003-----0
 62
     2
  5
39A
 10
113.972665
 20
449.977508
 30
0.0
 11
114.776707
 21
456.084808
 31
0.0
  0
LINE
  8
LC-008-003-MTG-0
 62
     2
  5
39B
 10
113.972665
 20
339.437505
 30
0.0
 11
113.972665
 21
385.810973
 31
0.0
  0
LINE
  8
LC-008-003-MTG-0
 62
     2
  5
39C
 10
113.972665
 20
435.457906
 30
0.0
 11
113.972665
 21
467.337508
 31
0.0
  0
TEXT
  8
LC-007-003-----0
 62
     8
  5
39D
 10
106.145111
 20
386.535666
 30
0.0
 40
28.0
  1
50
 50
90.0
 41
0.6
 51
15.0
  7
LCTX15-400-0-0-ARIAL
 72
     1
 11
106.145111
 21
407.735666
 31
0.0
  0
ENDBLK
  8
0
  5
39E
  0
ENDSEC
  0
SECTION
  2
ENTITIES
  0
VIEWPORT
  8
LC-VIEWPORT
  5
3A0
 67
     1
 68
     1
 10
420.0
 20
297.0
 30
0.0
 40
840.0
 41
594.0
 69
     1
1001
ACAD
1000
MVIEW
1002
{
1070
    16
1010
0.0
1020
0.0
1030
0.0
1010
0.0
1020
0.0
1030
1.0
1040
0.0
1040
594.0
1040
420.0
1040
297.0
1040
50.0
1040
0.0
1040
0.0
1070
     0
1070
   100
1070
     1
1070
     1
1070
     0
1070
     0
1070
     0
1070
     0
1040
0.0
1040
0.0
1040
0.0
1040
1.0
1040
1.0
1040
0.0
1040
0.0
1070
     0
1002
{
1002
}
1002
}
  0
LINE
  8
LC-001-002-----0
 62
     1
  5
26
 10
246.029335
 20
428.137508
 30
0.0
 11
246.029335
 21
448.637679
 31
0.0
  0
LINE
  8
LC-001-002-----0
  6
DASHDOT
 62
     2
  5
28
 10
230.224049
 20
250.122619
 30
0.0
 11
230.224049
 21
460.988192
 31
0.0
  0
LINE
  8
LC-001-002-----0
 62
     1
  5
29
 10
79.472347
 20
460.988192
 30
0.0
 11
120.127948
 21
460.278546
 31
0.0
  0
LINE
  8
LC-001-002-----0
 62
     1
  5
2A
 10
79.472347
 20
457.987735
 30
0.0
 11
119.027661
 21
457.297294
 31
0.0
  0
LINE
  8
LC-001-002-----0
 62
     1
  5
2B
 10
380.983548
 20
460.988192
 30
0.0
 11
340.327948
 21
460.278546
 31
0.0
  0
LINE
  8
LC-001-002-----0
 62
     1
  5
2C
 10
199.72409
 20
428.137508
 30
0.0
 11
202.224091
 21
428.137508
 31
0.0
  0
LINE
  8
LC-001-002-----0
 62
     1
  5
2D
 10
258.22409
 20
427.137508
 30
0.0
 11
244.743499
 21
427.137508
 31
0.0
  0
LINE
  8
LC-001-002-----0
 62
     1
  5
2E
 10
79.472347
 20
460.988192
 30
0.0
 11
380.983548
 21
460.988192
 31
0.0
  0
LINE
  8
LC-001-002-----0
 62
     1
  5
2F
 10
201.224068
 20
350.137502
 30
0.0
 11
161.72409
 21
350.137508
 31
0.0
  0
ARC
  8
LC-002-002-RND-0
 62
     1
  5
31
 10
122.774723
 20
460.460197
 30
0.0
 40
2.0
 50
225.0
 51
266.000003
  0
LINE
  8
LC-001-002-----0
 62
     1
  5
32
 10
380.983548
 20
457.987735
 30
0.0
 11
341.428234
 21
457.297294
 31
0.0
  0
ARC
  8
LC-002-002-RND-0
 62
     1
  5
33
 10
337.681172
 20
460.460197
 30
0.0
 40
2.0
 50
273.999997
 51
315.0
  0
LINE
  8
LC-001-002-----0
 62
     1
  5
34
 10
316.979716
 20
447.791075
 30
0.0
 11
316.979716
 21
454.291075
 31
0.0
  0
LINE
  8
LC-001-002-----0
 62
     1
  5
35
 10
318.979716
 20
454.291075
 30
0.0
 11
316.981098
 21
454.291075
 31
0.0
  0
LINE
  8
LC-001-002-----0
 62
     1
  5
36
 10
318.979716
 20
448.291075
 30
0.0
 11
318.979716
 21
454.291075
 31
0.0
  0
LINE
  8
LC-001-002-----0
 62
     1
  5
37
 10
320.979716
 20
448.291075
 30
0.0
 11
318.979716
 21
448.291075
 31
0.0
  0
LINE
  8
LC-001-002-----0
 62
     1
  5
38
 10
308.281098
 20
435.987508
 30
0.0
 11
308.081098
 21
435.987508
 31
0.0
  0
LINE
  8
LC-001-002-----0
 62
     1
  5
39
 10
316.981098
 20
437.287508
 30
0.0
 11
316.981098
 21
454.287508
 31
0.0
  0
LINE
  8
LC-001-002-----0
 62
     1
  5
3A
 10
316.979716
 20
448.07214
 30
0.0
 11
316.979716
 21
448.07214
 31
0.0
  0
LINE
  8
LC-001-002-----0
 62
     1
  5
3B
 10
308.281098
 20
432.487508
 30
0.0
 11
308.281098
 21
433.987508
 31
0.0
  0
LINE
  8
LC-001-002-----0
 62
     1
  5
3C
 10
308.281098
 20
429.037508
 30
0.0
 11
308.281098
 21
429.537508
 31
0.0
  0
LINE
  8
LC-001-002-----0
 62
     1
  5
3D
 10
308.281098
 20
427.537508
 30
0.0
 11
308.281098
 21
430.487508
 31
0.0
  0
LINE
  8
LC-001-002-----0
 62
     1
  5
3E
 10
308.281098
 20
427.537508
 30
0.0
 11
307.723383
 21
427.537508
 31
0.0
  0
LINE
  8
LC-001-002-----0
 62
     1
  5
3F
 10
308.281098
 20
430.487508
 30
0.0
 11
308.081098
 21
430.487508
 31
0.0
  0
ARC
  8
LC-002-002-RND-0
 62
     1
  5
40
 10
308.081098
 20
435.187508
 30
0.0
 40
0.8
 50
90.0
 51
180.0
  0
ARC
  8
LC-002-002-RND-0
 62
     1
  5
41
 10
308.081098
 20
431.687508
 30
0.0
 40
0.8
 50
90.0
 51
180.0
  0
LINE
  8
LC-001-002-----0
 62
     1
  5
42
 10
307.281098
 20
431.287508
 30
0.0
 11
307.281098
 21
431.687508
 31
0.0
  0
LINE
  8
LC-001-002-----0
 62
     1
  5
43
 10
307.281098
 20
434.787508
 30
0.0
 11
307.281098
 21
435.187508
 31
0.0
  0
ARC
  8
LC-002-002-RND-0
 62
     1
  5
44
 10
308.081098
 20
431.287508
 30
0.0
 40
0.8
 50
180.0
 51
270.0
  0
ARC
  8
LC-002-002-RND-0
 62
     1
  5
45
 10
308.081098
 20
434.787508
 30
0.0
 40
0.8
 50
180.0
 51
270.0
  0
LINE
  8
LC-001-002-----0
 62
     1
  5
46
 10
308.281098
 20
433.987508
 30
0.0
 11
308.081098
 21
433.987508
 31
0.0
  0
ARC
  8
LC-002-002-RND-0
 62
     1
  5
47
 10
316.481098
 20
437.287508
 30
0.0
 40
0.5
 50
270.0
 51
0.0
  0
LINE
  8
LC-001-002-----0
 62
     1
  5
48
 10
337.820685
 20
458.465069
 30
0.0
 11
322.458182
 21
457.390819
 31
0.0
  0
ARC
  8
LC-002-002-RND-0
 62
     1
  5
49
 10
321.032133
 20
449.287508
 30
0.0
 40
1.0
 50
270.0
 51
357.0
  0
LINE
  8
LC-001-002-----0
 62
     1
  5
4A
 10
322.458182
 20
457.390819
 30
0.0
 11
322.030763
 21
449.235172
 31
0.0
  0
LINE
  8
LC-001-002-----0
 62
     1
  5
4B
 10
380.983548
 20
460.988192
 30
0.0
 11
380.983548
 21
457.987735
 31
0.0
  0
LINE
  8
LC-001-002-----0
 62
     1
  5
4C
 10
325.245539
 20
453.254795
 30
0.0
 11
325.00319
 21
448.6305
 31
0.0
  0
LINE
  8
LC-001-002-----0
 62
     1
  5
4D
 10
341.428234
 20
457.297294
 30
0.0
 11
339.721609
 21
455.590669
 31
0.0
  0
LINE
  8
LC-001-002-----0
 62
     1
  5
4E
 10
308.281098
 20
432.487508
 30
0.0
 11
308.081098
 21
432.487508
 31
0.0
  0
ARC
  8
LC-003-001-RND-0
 62
     1
  5
50
 10
326.717352
 20
453.17766
 30
0.0
 40
1.5
 50
93.999997
 51
177.0
  0
LINE
  8
LC-001-002-----0
 62
     1
  5
51
 10
319.731098
 20
437.787508
 30
0.0
 11
310.47409
 21
424.567131
 31
0.0
  0
LINE
  8
LC-001-002-----0
 62
     1
  5
52
 10
322.007302
 20
445.787508
 30
0.0
 11
321.731098
 21
445.787508
 31
0.0
  0
LINE
  8
LC-001-002-----0
 62
     1
  5
53
 10
143.476179
 20
437.324655
 30
0.0
 11
143.476179
 21
454.291075
 31
0.0
  0
LINE
  8
LC-004-001-----0
 62
     1
  5
55
 10
339.721609
 20
455.590669
 30
0.0
 11
326.612717
 21
454.674007
 31
0.0
  0
ARC
  8
LC-002-002-RND-0
 62
     1
  5
56
 10
322.007302
 20
448.787508
 30
0.0
 40
3.0
 50
270.0
 51
357.0
  0
LINE
  8
LC-001-002-----0
 62
     1
  5
57
 10
141.474797
 20
454.291075
 30
0.0
 11
143.476179
 21
454.291075
 31
0.0
  0
ARC
  8
LC-002-002-RND-0
 62
     1
  5
58
 10
321.731098
 20
443.787508
 30
0.0
 40
2.0
 50
90.0
 51
180.0
  0
LINE
  8
LC-001-002-----0
 62
     1
  5
59
 10
319.731098
 20
437.787508
 30
0.0
 11
319.731098
 21
443.787508
 31
0.0
  0
LINE
  8
LC-001-002-----0
 62
     1
  5
5A
 10
308.281098
 20
429.037508
 30
0.0
 11
308.281098
 21
429.037508
 31
0.0
  0
LINE
  8
LC-001-002-----0
 62
     1
  5
5B
 10
316.481098
 20
436.787508
 30
0.0
 11
271.693155
 21
436.787508
 31
0.0
  0
LINE
  8
LC-001-002-----0
 62
     1
  5
5C
 10
316.981098
 20
438.287508
 30
0.0
 11
316.981098
 21
439.58689
 31
0.0
  0
LINE
  8
LC-001-002-----0
 62
     1
  5
5D
 10
318.981098
 20
454.287508
 30
0.0
 11
316.981098
 21
454.287508
 31
0.0
  0
LINE
  8
LC-001-002-----0
 62
     1
  5
5E
 10
308.281098
 20
428.787508
 30
0.0
 11
308.281098
 21
429.287508
 31
0.0
  0
LINE
  8
LC-001-002-----0
 62
     1
  5
5F
 10
308.281098
 20
428.987508
 30
0.0
 11
308.281098
 21
429.487508
 31
0.0
  0
LINE
  8
LC-001-002-----0
 62
     1
  5
60
 10
340.327948
 20
460.278546
 30
0.0
 11
339.095386
 21
459.045984
 31
0.0
  0
LINE
  8
LC-001-002-----0
 62
     1
  5
61
 10
308.281098
 20
429.037508
 30
0.0
 11
308.281098
 21
429.037508
 31
0.0
  0
ARC
  8
LC-002-002-RND-0
 62
     1
  5
62
 10
309.081098
 20
435.987508
 30
0.0
 40
0.8
 50
90.0
 51
180.0
  0
LINE
  8
LC-001-002-----0
 62
     1
  5
63
 10
308.281098
 20
435.987508
 30
0.0
 11
308.281098
 21
435.987508
 31
0.0
  0
LINE
  8
LC-001-002-----0
 62
     1
  5
64
 10
152.724797
 20
362.137508
 30
0.0
 11
152.724797
 21
427.537508
 31
0.0
  0
LINE
  8
LC-001-002-----0
 62
     1
  5
65
 10
252.224239
 20
335.137685
 30
0.0
 11
252.224249
 21
350.13751
 31
0.0
  0
LINE
  8
LC-001-002-----0
 62
     1
  5
66
 10
208.22409
 20
335.137508
 30
0.0
 11
208.22409
 21
350.137508
 31
0.0
  0
LINE
  8
LC-001-002-----0
 62
     1
  5
67
 10
252.224215
 20
319.134797
 30
0.0
 11
252.224239
 21
335.137685
 31
0.0
  0
LINE
  8
LC-001-002-----0
 62
     1
  5
68
 10
255.22409
 20
319.134795
 30
0.0
 11
230.22409
 21
319.134812
 31
0.0
  0
LINE
  8
LC-001-002-----0
 62
     1
  5
69
 10
152.174797
 20
435.987508
 30
0.0
 11
152.374797
 21
435.987508
 31
0.0
  0
LINE
  8
LC-001-002-----0
 62
     1
  5
6A
 10
143.476179
 20
448.07214
 30
0.0
 11
143.476179
 21
448.07214
 31
0.0
  0
LINE
  8
LC-001-002-----0
 62
     1
  5
6B
 10
152.174797
 20
432.487508
 30
0.0
 11
152.174797
 21
433.987508
 31
0.0
  0
LINE
  8
LC-001-002-----0
 62
     1
  5
6C
 10
152.174797
 20
429.037508
 30
0.0
 11
152.174797
 21
429.537508
 31
0.0
  0
LINE
  8
LC-001-002-----0
 62
     1
  5
6D
 10
152.174797
 20
427.537508
 30
0.0
 11
152.174797
 21
430.487508
 31
0.0
  0
LINE
  8
LC-001-002-----0
 62
     1
  5
6E
 10
152.174797
 20
427.537508
 30
0.0
 11
152.724797
 21
427.537508
 31
0.0
  0
LINE
  8
LC-001-002-----0
 62
     1
  5
6F
 10
152.174797
 20
430.487508
 30
0.0
 11
152.374797
 21
430.487508
 31
0.0
  0
ARC
  8
LC-002-002-RND-0
 62
     1
  5
70
 10
152.374797
 20
435.187508
 30
0.0
 40
0.8
 50
0.0
 51
90.0
  0
ARC
  8
LC-002-002-RND-0
 62
     1
  5
71
 10
152.374797
 20
431.687508
 30
0.0
 40
0.8
 50
0.0
 51
90.0
  0
LINE
  8
LC-001-002-----0
 62
     1
  5
72
 10
153.174797
 20
431.287508
 30
0.0
 11
153.174797
 21
431.687508
 31
0.0
  0
LINE
  8
LC-001-002-----0
 62
     1
  5
73
 10
153.174797
 20
434.787508
 30
0.0
 11
153.174797
 21
435.187508
 31
0.0
  0
ARC
  8
LC-002-002-RND-0
 62
     1
  5
74
 10
152.374797
 20
431.287508
 30
0.0
 40
0.8
 50
270.0
 51
0.0
  0
ARC
  8
LC-002-002-RND-0
 62
     1
  5
75
 10
152.374797
 20
434.787508
 30
0.0
 40
0.8
 50
270.0
 51
0.0
  0
LINE
  8
LC-001-002-----0
 62
     1
  5
76
 10
152.174797
 20
433.987508
 30
0.0
 11
152.374797
 21
433.987508
 31
0.0
  0
ARC
  8
LC-002-002-RND-0
 62
     1
  5
77
 10
143.974797
 20
437.287508
 30
0.0
 40
0.5
 50
180.0
 51
270.0
  0
LINE
  8
LC-001-002-----0
 62
     1
  5
78
 10
122.63521
 20
458.465069
 30
0.0
 11
137.997713
 21
457.390819
 31
0.0
  0
LINE
  8
LC-001-002-----0
 62
     1
  5
79
 10
139.423762
 20
448.287508
 30
0.0
 11
141.474797
 21
448.287508
 31
0.0
  0
ARC
  8
LC-002-002-RND-0
 62
     1
  5
7A
 10
139.423762
 20
449.287508
 30
0.0
 40
1.0
 50
183.0
 51
270.0
  0
LINE
  8
LC-001-002-----0
 62
     1
  5
7B
 10
307.723383
 20
362.137508
 30
0.0
 11
307.723383
 21
427.537508
 31
0.0
  0
LINE
  8
LC-001-002-----0
 62
     1
  5
7C
 10
141.474797
 20
448.287508
 30
0.0
 11
141.474797
 21
454.291075
 31
0.0
  0
LINE
  8
LC-001-002-----0
 62
     1
  5
7D
 10
137.997713
 20
457.390819
 30
0.0
 11
138.425132
 21
449.235172
 31
0.0
  0
LINE
  8
LC-001-002-----0
 62
     1
  5
7E
 10
79.472347
 20
460.988192
 30
0.0
 11
79.472347
 21
457.987735
 31
0.0
  0
ARC
  8
LC-001-002-----0
 62
     1
  5
7F
 10
202.22409
 20
427.637508
 30
0.0
 40
0.5
 50
270.000117
 51
89.999981
  0
LINE
  8
LC-001-002-----0
 62
     1
  5
80
 10
135.210188
 20
453.258003
 30
0.0
 11
135.452705
 21
448.6305
 31
0.0
  0
LINE
  8
LC-001-002-----0
 62
     1
  5
81
 10
119.027661
 20
457.297294
 30
0.0
 11
120.734286
 21
455.590669
 31
0.0
  0
LINE
  8
LC-001-002-----0
 62
     1
  5
82
 10
199.72409
 20
356.137508
 30
0.0
 11
199.72409
 21
428.137508
 31
0.0
  0
LINE
  8
LC-001-002-----0
 62
     1
  5
83
 10
208.22409
 20
319.13462
 30
0.0
 11
208.22409
 21
335.137508
 31
0.0
  0
LINE
  8
LC-001-002-----0
 62
     1
  5
84
 10
152.174797
 20
432.487508
 30
0.0
 11
152.374797
 21
432.487508
 31
0.0
  0
LINE
  8
LC-001-002-----0
 62
     1
  5
85
 10
205.22409
 20
319.13462
 30
0.0
 11
230.22409
 21
319.13462
 31
0.0
  0
ARC
  8
LC-002-002-RND-0
 62
     1
  5
86
 10
161.724797
 20
362.137508
 30
0.0
 40
9.0
 50
180.0
 51
270.0
  0
ARC
  8
LC-002-002-RND-0
 62
     1
  5
87
 10
298.723383
 20
362.137508
 30
0.0
 40
9.0
 50
270.0
 51
0.0
  0
LINE
  8
LC-001-002-----0
 62
     1
  5
88
 10
140.724797
 20
437.787508
 30
0.0
 11
149.97409
 21
424.578148
 31
0.0
  0
LINE
  8
LC-001-002-----0
 62
     1
  5
89
 10
138.448593
 20
445.787508
 30
0.0
 11
138.724797
 21
445.787508
 31
0.0
  0
LINE
  8
LC-004-001-----0
 62
     1
  5
8A
 10
120.734286
 20
455.590669
 30
0.0
 11
133.816878
 21
454.675846
 31
0.0
  0
ARC
  8
LC-002-002-RND-0
 62
     1
  5
8B
 10
138.448593
 20
448.787508
 30
0.0
 40
3.0
 50
183.0
 51
270.0
  0
ARC
  8
LC-002-002-RND-0
 62
     1
  5
8C
 10
138.724797
 20
443.787508
 30
0.0
 40
2.0
 50
0.0
 51
90.0
  0
LINE
  8
LC-001-002-----0
 62
     1
  5
8D
 10
140.724797
 20
437.787508
 30
0.0
 11
140.724797
 21
443.787508
 31
0.0
  0
LINE
  8
LC-001-002-----0
 62
     1
  5
8E
 10
152.174797
 20
429.037508
 30
0.0
 11
152.174797
 21
429.037508
 31
0.0
  0
LINE
  8
LC-001-002-----0
 62
     1
  5
8F
 10
143.974797
 20
436.787508
 30
0.0
 11
188.692952
 21
436.787508
 31
0.0
  0
LINE
  8
LC-001-002-----0
 62
     1
  5
90
 10
152.174797
 20
428.787508
 30
0.0
 11
152.174797
 21
429.287508
 31
0.0
  0
LINE
  8
LC-001-002-----0
 62
     1
  5
91
 10
152.174797
 20
428.987508
 30
0.0
 11
152.174797
 21
429.487508
 31
0.0
  0
LINE
  8
LC-001-002-----0
 62
     1
  5
92
 10
120.127948
 20
460.278546
 30
0.0
 11
121.36051
 21
459.045984
 31
0.0
  0
LINE
  8
LC-001-002-----0
 62
     1
  5
93
 10
152.174797
 20
429.037508
 30
0.0
 11
152.174797
 21
429.037508
 31
0.0
  0
ARC
  8
LC-002-002-RND-0
 62
     1
  5
94
 10
151.374797
 20
435.987508
 30
0.0
 40
0.8
 50
0.0
 51
90.0
  0
LINE
  8
LC-001-002-----0
 62
     1
  5
95
 10
152.174797
 20
435.987508
 30
0.0
 11
152.174797
 21
435.987508
 31
0.0
  0
LINE
  8
LC-001-002-----0
 62
     1
  5
96
 10
298.724083
 20
350.137655
 30
0.0
 11
259.224068
 21
350.137672
 31
0.0
  0
ARC
  8
LC-002-002-RND-0
 62
     1
  5
97
 10
263.72409
 20
356.137508
 30
0.0
 40
3.0
 50
180.0
 51
270.0
  0
LINE
  8
LC-001-002-----0
 62
     1
  5
98
 10
202.703778
 20
355.465027
 30
0.0
 11
202.078302
 21
427.137508
 31
0.0
  0
ARC
  8
LC-002-002-RND-0
 62
     1
  5
99
 10
196.72409
 20
356.137508
 30
0.0
 40
3.0
 50
270.0
 51
0.0
  0
LINE
  8
LC-001-002-----0
 62
     1
  5
9A
 10
161.724797
 20
353.137508
 30
0.0
 11
196.72409
 21
353.137508
 31
0.0
  0
LINE
  8
LC-001-002-----0
 62
     1
  5
9B
 10
260.72409
 20
356.137508
 30
0.0
 11
260.72409
 21
428.137508
 31
0.0
  0
LINE
  8
LC-001-002-----0
 62
     1
  5
9C
 10
258.224089
 20
427.137508
 30
0.0
 11
258.505781
 21
427.137508
 31
0.0
  0
ARC
  8
LC-001-002-----0
 62
     1
  5
9D
 10
258.22409
 20
427.637508
 30
0.0
 40
0.5
 50
90.000019
 51
269.999883
  0
LINE
  8
LC-001-002-----0
 62
     1
  5
9E
 10
298.723383
 20
353.137508
 30
0.0
 11
263.72409
 21
353.137508
 31
0.0
  0
LINE
  8
LC-001-002-----0
 62
     1
  5
9F
 10
205.197821
 20
353.137508
 30
0.0
 11
255.224249
 21
353.137508
 31
0.0
  0
LINE
  8
LC-001-002-----0
 62
     1
  5
A0
 10
257.75022
 20
355.611101
 30
0.0
 11
258.505781
 21
427.137508
 31
0.0
  0
LINE
  8
LC-001-002-----0
 62
     1
  5
A1
 10
260.72409
 20
428.137508
 30
0.0
 11
258.22409
 21
428.137508
 31
0.0
  0
LINE
  8
LC-001-002-----0
 62
     1
  5
A2
 10
310.47409
 20
424.567131
 30
0.0
 11
310.47409
 21
361.887655
 31
0.0
  0
LINE
  8
LC-001-002-----0
 62
     1
  5
A3
 10
149.97409
 20
424.578148
 30
0.0
 11
149.97409
 21
361.887508
 31
0.0
  0
ARC
  8
LC-002-002-RND-0
 62
     1
  5
A4
 10
298.72409
 20
361.887655
 30
0.0
 40
11.75
 50
269.999963
 51
0.0
  0
ARC
  8
LC-002-002-RND-0
 62
     1
  5
A5
 10
161.72409
 20
361.887508
 30
0.0
 40
11.75
 50
180.0
 51
270.0
  0
LINE
  8
LC-001-002-----0
 62
     1
  5
A6
 10
307.723383
 20
427.537508
 30
0.0
 11
271.693149
 21
427.537508
 31
0.0
  0
LINE
  8
LC-001-002-----0
 62
     1
  5
A7
 10
255.224249
 20
353.137508
 30
0.0
 11
255.250359
 21
353.137508
 31
0.0
  0
ARC
  8
LC-002-002-RND-0
 62
     1
  5
A8
 10
255.224249
 20
350.137508
 30
0.0
 40
3.0
 50
90.0
 51
179.999963
  0
ARC
  8
LC-002-002-RND-0
 62
     1
  5
A9
 10
255.250359
 20
355.637508
 30
0.0
 40
2.5
 50
270.0
 51
359.394785
  0
ARC
  8
LC-002-002-RND-0
 62
     1
  5
AA
 10
205.197821
 20
355.637508
 30
0.0
 40
2.5
 50
183.956111
 51
270.0
  0
ARC
  8
LC-002-002-RND-0
 62
     1
  5
AB
 10
205.223932
 20
350.137508
 30
0.0
 40
3.0
 50
0.000037
 51
90.0
  0
LINE
  8
LC-001-002-----0
 62
     1
  5
AC
 10
152.724797
 20
427.537508
 30
0.0
 11
188.692978
 21
427.537508
 31
0.0
  0
ARC
  8
LC-003-001-RND-0
 62
     1
  5
AD
 10
133.712243
 20
453.1795
 30
0.0
 40
1.5
 50
3.0
 51
86.000003
  0
INSERT
  8
LC-005-005-----0
 62
     2
  5
130
  2
*X0
 10
0.0
 20
0.0
 30
0.0
  0
INSERT
  8
LC-005-005-----0
 62
     2
  5
1A6
  2
*X1
 10
0.0
 20
0.0
 30
0.0
  0
LINE
  8
LC-001-002-----0
 62
     1
  5
1A7
 10
201.224068
 20
350.122619
 30
0.0
 11
201.224068
 21
250.122619
 31
0.0
  0
LINE
  8
LC-001-002-----0
 62
     1
  5
1A8
 10
259.224068
 20
350.122619
 30
0.0
 11
259.224068
 21
250.122619
 31
0.0
  0
LINE
  8
LC-001-002-----0
 62
     1
  5
1A9
 10
205.224068
 20
319.13462
 30
0.0
 11
205.224068
 21
250.122619
 31
0.0
  0
LINE
  8
LC-001-002-----0
 62
     1
  5
1AA
 10
255.224068
 20
319.134795
 30
0.0
 11
255.224068
 21
250.122619
 31
0.0
  0
LINE
  8
LC-001-002-----0
 62
     1
  5
1AB
 10
201.224068
 20
250.122619
 30
0.0
 11
259.224068
 21
250.122619
 31
0.0
  0
INSERT
  8
LC-005-005-----0
 62
     2
  5
1F9
  2
*X2
 10
0.0
 20
0.0
 30
0.0
  0
LINE
  8
LC-001-002-----0
 62
     1
  5
1FA
 10
188.692947
 20
438.637508
 30
0.0
 11
188.693117
 21
378.637672
 31
0.0
  0
LINE
  8
LC-001-002-----0
 62
     1
  5
1FB
 10
189.692947
 20
438.637508
 30
0.0
 11
189.693117
 21
378.637672
 31
0.0
  0
LINE
  8
LC-001-002-----0
 62
     1
  5
1FC
 10
199.72409
 20
378.639351
 30
0.0
 11
188.692951
 21
378.637505
 31
0.0
  0
ARC
  8
LC-001-002-----0
 62
     1
  5
1FD
 10
199.692947
 20
438.637508
 30
0.0
 40
10.0
 50
94.313709
 51
179.999848
  0
ARC
  8
LC-002-002-RND-0
 62
     1
  5
1FE
 10
200.692947
 20
438.637508
 30
0.0
 40
12.0
 50
90.0
 51
180.0
  0
LINE
  8
LC-001-002-----0
 62
     1
  5
1FF
 10
259.693165
 20
450.637679
 30
0.0
 11
243.942945
 21
450.63769
 31
0.0
  0
LINE
  8
LC-001-002-----0
 62
     1
  5
200
 10
260.693164
 20
448.637679
 30
0.0
 11
231.636322
 21
448.637679
 31
0.0
  0
LINE
  8
LC-001-002-----0
 62
     1
  5
201
 10
200.692947
 20
450.637508
 30
0.0
 11
216.442948
 21
450.637508
 31
0.0
  0
ARC
  8
LC-002-002-RND-0
 62
     1
  5
202
 10
234.942945
 20
451.637508
 30
0.0
 40
9.0
 50
0.000006
 51
90.000006
  0
ARC
  8
LC-001-002-----0
 62
     1
  5
203
 10
260.693157
 20
438.637679
 30
0.0
 40
10.0
 50
0.000096
 51
89.999963
  0
ARC
  8
LC-001-002-----0
 62
     1
  5
204
 10
259.693157
 20
438.637679
 30
0.0
 40
12.0
 50
0.000096
 51
89.999963
  0
LINE
  8
LC-001-002-----0
 62
     1
  5
205
 10
271.693156
 20
438.637671
 30
0.0
 11
271.693117
 21
378.637671
 31
0.0
  0
LINE
  8
LC-001-002-----0
 62
     1
  5
206
 10
270.693156
 20
438.637672
 30
0.0
 11
270.693281
 21
378.637837
 31
0.0
  0
LINE
  8
LC-001-002-----0
 62
     1
  5
207
 10
260.72409
 20
378.639493
 30
0.0
 11
271.693117
 21
378.637671
 31
0.0
  0
LINE
  8
LC-001-002-----0
 62
     1
  5
208
 10
198.935232
 20
428.137508
 30
0.0
 11
198.940784
 21
448.646529
 31
0.0
  0
LINE
  8
LC-001-002-----0
 62
     1
  5
209
 10
231.628608
 20
420.137508
 30
0.0
 11
203.373058
 21
420.137508
 31
0.0
  0
LINE
  8
LC-001-002-----0
 62
     1
  5
20A
 10
202.435236
 20
423.637508
 30
0.0
 11
203.373058
 21
420.137508
 31
0.0
  0
LINE
  8
LC-001-002-----0
 62
     1
  5
20B
 10
202.435236
 20
426.723295
 30
0.0
 11
202.435236
 21
423.637508
 31
0.0
  0
ARC
  8
LC-001-002-----0
 62
     1
  5
20C
 10
202.185232
 20
427.430401
 30
0.0
 40
0.75
 50
289.471622
 51
70.528779
  0
LINE
  8
LC-001-002-----0
 62
     1
  5
20D
 10
199.810667
 20
428.137508
 30
0.0
 11
202.435232
 21
428.137508
 31
0.0
  0
LINE
  8
LC-001-002-----0
 62
     1
  5
20E
 10
234.942944
 20
456.637508
 30
0.0
 11
230.192946
 21
456.637508
 31
0.0
  0
LINE
  8
LC-001-002-----0
 62
     1
  5
20F
 10
239.942945
 20
450.637509
 30
0.0
 11
239.942945
 21
451.637509
 31
0.0
  0
ARC
  8
LC-001-002-----0
 62
     1
  5
210
 10
234.942945
 20
451.637508
 30
0.0
 40
5.0
 50
0.000005
 51
90.000006
  0
ARC
  8
LC-002-002-RND-0
 62
     1
  5
211
 10
225.442948
 20
451.637508
 30
0.0
 40
9.0
 50
90.0
 51
180.000001
  0
LINE
  8
LC-001-002-----0
 62
     1
  5
212
 10
225.442948
 20
456.637508
 30
0.0
 11
230.192947
 21
456.637508
 31
0.0
  0
LINE
  8
LC-001-002-----0
 62
     1
  5
213
 10
220.442948
 20
450.637508
 30
0.0
 11
220.442948
 21
451.637507
 31
0.0
  0
LINE
  8
LC-001-002-----0
 62
     1
  5
214
 10
234.942944
 20
460.637508
 30
0.0
 11
230.192946
 21
460.637508
 31
0.0
  0
LINE
  8
LC-001-002-----0
 62
     1
  5
215
 10
243.942945
 20
450.637509
 30
0.0
 11
243.942945
 21
451.637509
 31
0.0
  0
ARC
  8
LC-001-002-----0
 62
     1
  5
216
 10
225.442948
 20
451.637508
 30
0.0
 40
5.0
 50
90.0
 51
180.000001
  0
LINE
  8
LC-001-002-----0
 62
     1
  5
217
 10
225.442948
 20
460.637508
 30
0.0
 11
230.192947
 21
460.637508
 31
0.0
  0
LINE
  8
LC-001-002-----0
 62
     1
  5
218
 10
216.442948
 20
450.637508
 30
0.0
 11
216.442948
 21
451.637507
 31
0.0
  0
LINE
  8
LC-001-002-----0
 62
     1
  5
219
 10
231.628608
 20
420.137508
 30
0.0
 11
231.636322
 21
448.637679
 31
0.0
  0
INSERT
  8
LC-005-005-----0
 62
     2
  5
27D
  2
*X3
 10
0.0
 20
0.0
 30
0.0
  0
LINE
  8
LC-001-002-----0
 62
     1
  5
27E
 10
220.442948
 20
450.637508
 30
0.0
 11
230.192947
 21
450.637508
 31
0.0
  0
LINE
  8
LC-001-002-----0
 62
     1
  5
27F
 10
239.942945
 20
450.637693
 30
0.0
 11
230.192947
 21
450.6377
 31
0.0
  0
LINE
  8
LC-001-002-----0
 62
     1
  5
280
 10
231.628608
 20
420.137508
 30
0.0
 11
244.685423
 21
420.137508
 31
0.0
  0
LINE
  8
LC-001-002-----0
 62
     1
  5
281
 10
244.685423
 20
420.137508
 30
0.0
 11
245.154334
 21
423.637508
 31
0.0
  0
LINE
  8
LC-001-002-----0
 62
     1
  5
282
 10
245.154334
 20
423.637508
 30
0.0
 11
245.154334
 21
426.723295
 31
0.0
  0
LINE
  8
LC-001-002-----0
 62
     1
  5
283
 10
245.154334
 20
428.137508
 30
0.0
 11
246.904336
 21
428.137508
 31
0.0
  0
ARC
  8
LC-001-002-----0
 62
     1
  5
284
 10
245.453027
 20
427.430401
 30
0.0
 40
0.767605
 50
112.900021
 51
247.099979
  0
LINE
  8
LC-001-002-----0
 62
     1
  5
285
 10
198.935232
 20
428.137508
 30
0.0
 11
202.435232
 21
428.137508
 31
0.0
  0
LINE
  8
LC-001-002-----0
 62
     1
  5
286
 10
260.567601
 20
378.637672
 30
0.0
 11
260.575197
 21
378.637672
 31
0.0
  0
LINE
  8
LC-001-002-----0
 62
     1
  5
287
 10
245.154334
 20
428.137508
 30
0.0
 11
260.567601
 21
428.137508
 31
0.0
  0
LINE
  8
LC-001-002-----0
 62
     1
  5
288
 10
270.692747
 20
378.637672
 30
0.0
 11
270.693281
 21
378.637672
 31
0.0
  0
LINE
  8
LC-001-002-----0
 62
     1
  5
289
 10
321.942947
 20
457.009187
 30
0.0
 11
303.192947
 21
455.69806
 31
0.0
  0
LINE
  8
LC-001-002-----0
 62
     1
  5
28A
 10
141.193161
 20
454.310769
 30
0.0
 11
151.192947
 21
453.611516
 31
0.0
  0
LINE
  8
LC-001-002-----0
 62
     1
  5
28B
 10
321.942947
 20
457.009187
 30
0.0
 11
242.164099
 21
457.009187
 31
0.0
  0
LINE
  8
LC-001-002-----0
 62
     1
  5
28C
 10
299.439607
 20
437.009589
 30
0.0
 11
299.439607
 21
440.009589
 31
0.0
  0
LINE
  8
LC-001-002-----0
 62
     1
  5
28D
 10
293.780226
 20
437.009589
 30
0.0
 11
293.780226
 21
440.009589
 31
0.0
  0
LINE
  8
LC-001-002-----0
 62
     1
  5
28E
 10
286.960801
 20
437.009589
 30
0.0
 11
286.960801
 21
440.009589
 31
0.0
  0
LINE
  8
LC-001-002-----0
 62
     1
  5
28F
 10
293.010877
 20
455.69806
 30
0.0
 11
292.260877
 21
454.94806
 31
0.0
  0
LINE
  8
LC-001-002-----0
 62
     1
  5
290
 10
292.260877
 20
454.94806
 30
0.0
 11
292.260877
 21
440.009589
 31
0.0
  0
LINE
  8
LC-001-002-----0
 62
     1
  5
291
 10
138.442947
 20
457.009187
 30
0.0
 11
218.221795
 21
457.009187
 31
0.0
  0
LINE
  8
LC-001-002-----0
 62
     1
  5
292
 10
292.260877
 20
454.94806
 30
0.0
 11
297.805185
 21
454.94806
 31
0.0
  0
LINE
  8
LC-001-002-----0
 62
     1
  5
293
 10
297.805185
 20
454.94806
 30
0.0
 11
297.805185
 21
440.009589
 31
0.0
  0
LINE
  8
LC-001-002-----0
 62
     1
  5
294
 10
303.192947
 20
455.69806
 30
0.0
 11
302.442947
 21
454.94806
 31
0.0
  0
LINE
  8
LC-001-002-----0
 62
     1
  5
295
 10
297.459307
 20
455.69806
 30
0.0
 11
297.805185
 21
454.94806
 31
0.0
  0
LINE
  8
LC-001-002-----0
 62
     1
  5
296
 10
274.502652
 20
437.009589
 30
0.0
 11
274.502652
 21
440.009589
 31
0.0
  0
LINE
  8
LC-001-002-----0
 62
     1
  5
297
 10
299.692947
 20
437.009589
 30
0.0
 11
299.692947
 21
440.009589
 31
0.0
  0
LINE
  8
LC-001-002-----0
 62
     1
  5
298
 10
302.442947
 20
440.009589
 30
0.0
 11
302.442947
 21
454.94806
 31
0.0
  0
LINE
  8
LC-001-002-----0
 62
     1
  5
299
 10
265.192947
 20
455.69806
 30
0.0
 11
264.442947
 21
454.94806
 31
0.0
  0
LINE
  8
LC-001-002-----0
 62
     1
  5
29A
 10
264.442947
 20
454.94806
 30
0.0
 11
264.442947
 21
449.657638
 31
0.0
  0
LINE
  8
LC-001-002-----0
 62
     1
  5
29B
 10
160.946286
 20
437.009589
 30
0.0
 11
160.946286
 21
440.009589
 31
0.0
  0
LINE
  8
LC-001-002-----0
 62
     1
  5
29C
 10
166.605667
 20
437.009589
 30
0.0
 11
166.605667
 21
440.009589
 31
0.0
  0
LINE
  8
LC-001-002-----0
 62
     1
  5
29D
 10
270.760911
 20
455.69806
 30
0.0
 11
271.393295
 21
454.94806
 31
0.0
  0
LINE
  8
LC-001-002-----0
 62
     1
  5
29E
 10
271.393295
 20
454.94806
 30
0.0
 11
271.393295
 21
441.303531
 31
0.0
  0
LINE
  8
LC-001-002-----0
 62
     1
  5
29F
 10
271.393295
 20
454.94806
 30
0.0
 11
264.442947
 21
454.94806
 31
0.0
  0
LINE
  8
LC-001-002-----0
 62
     1
  5
2A0
 10
173.425092
 20
437.009589
 30
0.0
 11
173.425092
 21
440.009589
 31
0.0
  0
LINE
  8
LC-001-002-----0
 62
     1
  5
2A1
 10
167.375016
 20
455.69806
 30
0.0
 11
168.125016
 21
454.94806
 31
0.0
  0
LINE
  8
LC-001-002-----0
 62
     1
  5
2A2
 10
168.125016
 20
454.94806
 30
0.0
 11
168.125016
 21
440.009589
 31
0.0
  0
LINE
  8
LC-001-002-----0
 62
     1
  5
2A3
 10
168.125016
 20
454.94806
 30
0.0
 11
162.580708
 21
454.94806
 31
0.0
  0
LINE
  8
LC-001-002-----0
 62
     1
  5
2A4
 10
162.580708
 20
454.94806
 30
0.0
 11
162.580708
 21
440.009589
 31
0.0
  0
LINE
  8
LC-001-002-----0
 62
     1
  5
2A5
 10
157.192947
 20
455.69806
 30
0.0
 11
157.942947
 21
454.94806
 31
0.0
  0
LINE
  8
LC-001-002-----0
 62
     1
  5
2A6
 10
162.926586
 20
455.69806
 30
0.0
 11
162.580708
 21
454.94806
 31
0.0
  0
LINE
  8
LC-001-002-----0
 62
     1
  5
2A7
 10
185.883242
 20
437.009589
 30
0.0
 11
185.883242
 21
440.009589
 31
0.0
  0
LINE
  8
LC-001-002-----0
 62
     1
  5
2A8
 10
160.692947
 20
437.009589
 30
0.0
 11
160.692947
 21
440.009589
 31
0.0
  0
LINE
  8
LC-001-002-----0
 62
     1
  5
2A9
 10
157.942947
 20
440.009589
 30
0.0
 11
157.942947
 21
454.94806
 31
0.0
  0
LINE
  8
LC-001-002-----0
 62
     1
  5
2AA
 10
195.192947
 20
455.69806
 30
0.0
 11
195.942947
 21
454.94806
 31
0.0
  0
LINE
  8
LC-001-002-----0
 62
     1
  5
2AB
 10
195.942947
 20
454.94806
 30
0.0
 11
195.942947
 21
449.657376
 31
0.0
  0
LINE
  8
LC-001-002-----0
 62
     1
  5
2AC
 10
189.624982
 20
455.69806
 30
0.0
 11
188.992598
 21
454.94806
 31
0.0
  0
LINE
  8
LC-001-002-----0
 62
     1
  5
2AD
 10
188.992598
 20
454.94806
 30
0.0
 11
188.992598
 21
441.302436
 31
0.0
  0
LINE
  8
LC-001-002-----0
 62
     1
  5
2AE
 10
188.992598
 20
454.94806
 30
0.0
 11
195.942947
 21
454.94806
 31
0.0
  0
ARC
  8
LC-002-002-RND-0
 62
     1
  5
2AF
 10
308.192947
 20
438.009589
 30
0.0
 40
1.0
 50
270.0
 51
0.0
  0
LINE
  8
LC-001-002-----0
 62
     1
  5
2B0
 10
138.442947
 20
457.009187
 30
0.0
 11
139.442947
 21
450.009589
 31
0.0
  0
LINE
  8
LC-001-002-----0
 62
     1
  5
2B1
 10
140.615811
 20
450.009589
 30
0.0
 11
139.442947
 21
450.009589
 31
0.0
  0
LINE
  8
LC-001-002-----0
 62
     1
  5
2B2
 10
141.193161
 20
451.009589
 30
0.0
 11
140.615811
 21
450.009589
 31
0.0
  0
LINE
  8
LC-001-002-----0
 62
     1
  5
2B3
 10
141.193161
 20
451.009589
 30
0.0
 11
141.193161
 21
454.310769
 31
0.0
  0
ARC
  8
LC-002-002-RND-0
 62
     1
  5
2B4
 10
152.192947
 20
438.009589
 30
0.0
 40
1.0
 50
180.0
 51
270.0
  0
LINE
  8
LC-001-002-----0
 62
     1
  5
2B5
 10
152.192947
 20
437.009589
 30
0.0
 11
188.692951
 21
437.009589
 31
0.0
  0
LINE
  8
LC-001-002-----0
 62
     1
  5
2B6
 10
319.192732
 20
451.009589
 30
0.0
 11
319.770082
 21
450.009589
 31
0.0
  0
LINE
  8
LC-001-002-----0
 62
     1
  5
2B7
 10
151.192947
 20
438.009589
 30
0.0
 11
151.192947
 21
453.611516
 31
0.0
  0
LINE
  8
LC-001-002-----0
 62
     1
  5
2B8
 10
319.192732
 20
451.009589
 30
0.0
 11
319.192732
 21
454.310769
 31
0.0
  0
LINE
  8
LC-001-002-----0
 62
     1
  5
2B9
 10
308.192947
 20
437.009589
 30
0.0
 11
299.692947
 21
437.009589
 31
0.0
  0
LINE
  8
LC-001-002-----0
 62
     1
  5
2BA
 10
309.192947
 20
438.009589
 30
0.0
 11
309.192947
 21
453.611516
 31
0.0
  0
LINE
  8
LC-001-002-----0
 62
     1
  5
2BB
 10
319.367082
 20
450.009589
 30
0.0
 11
320.942947
 21
450.009589
 31
0.0
  0
LINE
  8
LC-001-002-----0
 62
     1
  5
2BC
 10
299.692947
 20
437.009589
 30
0.0
 11
271.693155
 21
437.009589
 31
0.0
  0
LINE
  8
LC-001-002-----0
 62
     1
  5
2BD
 10
299.692947
 20
440.009589
 30
0.0
 11
302.442947
 21
440.009589
 31
0.0
  0
LINE
  8
LC-001-002-----0
 62
     1
  5
2BE
 10
286.960801
 20
440.009589
 30
0.0
 11
299.692947
 21
440.009589
 31
0.0
  0
LINE
  8
LC-001-002-----0
 62
     1
  5
2BF
 10
271.614477
 20
440.009589
 30
0.0
 11
274.502652
 21
440.009589
 31
0.0
  0
LINE
  8
LC-001-002-----0
 62
     1
  5
2C0
 10
188.771647
 20
440.009589
 30
0.0
 11
185.883242
 21
440.009589
 31
0.0
  0
LINE
  8
LC-001-002-----0
 62
     1
  5
2C1
 10
319.192732
 20
454.310769
 30
0.0
 11
309.192947
 21
453.611516
 31
0.0
  0
LINE
  8
LC-001-002-----0
 62
     1
  5
2C2
 10
173.425092
 20
440.009589
 30
0.0
 11
157.942947
 21
440.009589
 31
0.0
  0
LINE
  8
LC-001-002-----0
 62
     1
  5
2C3
 10
297.459307
 20
455.69806
 30
0.0
 11
293.010877
 21
455.69806
 31
0.0
  0
LINE
  8
LC-001-002-----0
 62
     1
  5
2C4
 10
321.942947
 20
457.009187
 30
0.0
 11
320.942947
 21
450.009589
 31
0.0
  0
LINE
  8
LC-001-002-----0
 62
     1
  5
2C5
 10
138.442947
 20
457.009187
 30
0.0
 11
157.192947
 21
455.69806
 31
0.0
  0
INSERT
  8
LC-005-005-----0
 62
     2
  5
2D8
  2
*X4
 10
0.0
 20
0.0
 30
0.0
  0
INSERT
  8
LC-005-005-----0
 62
     2
  5
2EC
  2
*X5
 10
0.0
 20
0.0
 30
0.0
  0
DIMENSION
  8
LC-007-003-----0
 62
     2
  5
30B
  2
*D6
 10
346.459897
 20
232.848
 30
0.0
 11
346.459897
 21
232.848
 31
0.0
 70
     1
  1
DN50(SML)
 13
201.224068
 23
250.122619
 33
0.0
 14
259.22403
 24
250.122607
 34
0.0
  3
LC-DIM-L-0140-02-02
  0
DIMENSION
  8
LC-007-003-----0
 62
     2
  5
325
  2
*D7
 10
230.224033
 20
175.229997
 30
0.0
 11
230.224033
 21
175.229997
 31
0.0
 70
     1
  1
%%c160
 13
149.97409
 23
361.887508
 33
0.0
 14
310.474055
 24
361.887473
 34
0.0
  3
LC-DIM-L-0140-02-02
  0
DIMENSION
  8
LC-007-003-----0
 62
     2
  5
340
  2
*D8
 10
230.227948
 20
536.976
 30
0.0
 11
230.227948
 21
536.976
 31
0.0
  1
%%c300
 13
79.472347
 23
460.988192
 33
0.0
 14
380.983548
 24
460.988192
 34
0.0
  3
LC-DIM-L-0140-02-02
  0
LINE
  8
LC-001-002-----0
 62
     1
  5
341
 10
167.375016
 20
455.69806
 30
0.0
 11
162.926586
 21
455.69806
 31
0.0
  0
LINE
  8
LC-001-002-----0
 62
     1
  5
342
 10
195.192947
 20
455.69806
 30
0.0
 11
189.624982
 21
455.69806
 31
0.0
  0
LINE
  8
LC-001-002-----0
 62
     1
  5
343
 10
270.760911
 20
455.69806
 30
0.0
 11
265.192947
 21
455.69806
 31
0.0
  0
DIMENSION
  8
LC-007-003-----0
 62
     2
  5
358
  2
*D9
 10
37.150798
 20
404.062621
 30
0.0
 11
37.150798
 21
404.062621
 31
0.0
  1
110
 13
79.472347
 23
457.987735
 33
0.0
 14
161.72409
 24
350.137508
 34
0.0
 50
90.0
  3
LC-DIM-L-0140-02-02
  0
DIMENSION
  8
LC-007-003-----0
 62
     2
  5
369
  2
*D10
 10
37.150798
 20
300.130063
 30
0.0
 11
37.150798
 21
300.130063
 31
0.0
  1
100
 13
161.72409
 23
350.137508
 33
0.0
 14
201.224068
 24
250.122619
 34
0.0
 50
90.0
  3
LC-DIM-L-0140-02-02
  0
DIMENSION
  8
LC-007-003-----0
 62
     2
  5
384
  2
*D11
 10
230.288535
 20
488.268
 30
0.0
 11
230.288535
 21
488.268
 31
0.0
  1
%%c190
 13
135.452705
 23
448.6305
 33
0.0
 14
325.124365
 24
450.942647
 34
0.0
  3
LC-DIM-L-0140-02-02
  0
DIMENSION
  8
LC-007-003-----0
 62
     2
  5
39F
  2
*D12
 10
113.972665
 20
403.387506
 30
0.0
 11
113.972665
 21
403.387506
 31
0.0
  1
50
 13
188.692951
 23
378.637505
 33
0.0
 14
198.935232
 24
428.137508
 34
0.0
 50
90.0
  3
LC-DIM-L-0140-02-02
  0
ENDSEC
  0
EOF
