  0
SECTION
  2
HEADER
  9
$ACADVER
  1
AC1009
  9
$DWGCODEPAGE
  3
dos850
  9
$INSBASE
 10
0.0
 20
0.0
 30
0.0
  9
$EXTMIN
 10
-213.194529
 20
-32.94
 30
0.0
  9
$EXTMAX
 10
626.805471
 20
561.06
 30
0.0
  9
$LIMMIN
 10
-213.194529
 20
-32.94
  9
$LIMMAX
 10
626.805471
 20
561.06
  9
$ORTHOMODE
 70
     0
  9
$REGENMODE
 70
     1
  9
$FILLMODE
 70
     1
  9
$QTEXTMODE
 70
     0
  9
$MIRRTEXT
 70
     1
  9
$DRAGMODE
 70
     2
  9
$LTSCALE
 40
2.0
  9
$OSMODE
 70
     0
  9
$ATTMODE
 70
     1
  9
$TEXTSIZE
 40
0.2
  9
$TRACEWID
 40
0.05
  9
$TEXTSTYLE
  7
STANDARD
  9
$CLAYER
  8
0
  9
$CELTYPE
  6
BYBLOCK
  9
$CECOLOR
 62
     7
  9
$DIMSCALE
 40
2.0
  9
$DIMASZ
 40
3.5
  9
$DIMEXO
 40
0.0625
  9
$DIMDLI
 40
0.38
  9
$DIMRND
 40
0.0
  9
$DIMDLE
 40
0.0
  9
$DIMEXE
 40
0.18
  9
$DIMTP
 40
0.0
  9
$DIMTM
 40
0.0
  9
$DIMTXT
 40
3.5
  9
$DIMCEN
 40
0.09
  9
$DIMTSZ
 40
0.0
  9
$DIMTOL
 70
     0
  9
$DIMLIM
 70
     0
  9
$DIMTIH
 70
     1
  9
$DIMTOH
 70
     1
  9
$DIMSE1
 70
     0
  9
$DIMSE2
 70
     0
  9
$DIMTAD
 70
     1
  9
$DIMZIN
 70
     0
  9
$DIMBLK
  1

  9
$DIMASO
 70
     1
  9
$DIMSHO
 70
     1
  9
$DIMPOST
  1

  9
$DIMAPOST
  1

  9
$DIMALT
 70
     0
  9
$DIMALTD
 70
     2
  9
$DIMALTF
 40
25.4
  9
$DIMLFAC
 40
1.0
  9
$DIMTOFL
 70
     0
  9
$DIMTVP
 40
0.0
  9
$DIMTIX
 70
     0
  9
$DIMSOXD
 70
     0
  9
$DIMSAH
 70
     0
  9
$DIMBLK1
  1

  9
$DIMBLK2
  1

  9
$DIMSTYLE
  2
STANDARD
  9
$DIMCLRD
 70
     0
  9
$DIMCLRE
 70
     0
  9
$DIMCLRT
 70
     0
  9
$DIMTFAC
 40
1.0
  9
$DIMGAP
 40
0.09
  9
$LUNITS
 70
     2
  9
$LUPREC
 70
     6
  9
$AXISMODE
 70
     0
  9
$AXISUNIT
 10
0.0
 20
0.0
  9
$SKETCHINC
 40
0.1
  9
$FILLETRAD
 40
0.0
  9
$AUNITS
 70
     0
  9
$AUPREC
 70
     0
  9
$MENU
  1
acad
  9
$ELEVATION
 40
0.0
  9
$PELEVATION
 40
0.0
  9
$THICKNESS
 40
0.0
  9
$LIMCHECK
 70
     0
  9
$BLIPMODE
 70
     1
  9
$CHAMFERA
 40
0.0
  9
$CHAMFERB
 40
0.0
  9
$SKPOLY
 70
     0
  9
$TDCREATE
 40
0.000000000
  9
$TDUPDATE
 40
0.000000000
  9
$TDINDWG
 40
0.0000000000
  9
$TDUSRTIMER
 40
0.0000000000
  9
$USRTIMER
 70
     1
  9
$ANGBASE
 50
0.0
  9
$ANGDIR
 70
     0
  9
$PDMODE
 70
     0
  9
$PDSIZE
 40
0.0
  9
$PLINEWID
 40
0.0
  9
$COORDS
 70
     0
  9
$SPLFRAME
 70
     0
  9
$SPLINETYPE
 70
     6
  9
$SPLINESEGS
 70
     8
  9
$ATTDIA
 70
     0
  9
$ATTREQ
 70
     1
  9
$HANDLING
 70
     1
  9
$HANDSEED
  5
5C1
  9
$SURFTAB1
 70
     6
  9
$SURFTAB2
 70
     6
  9
$SURFTYPE
 70
     6
  9
$SURFU
 70
     6
  9
$SURFV
 70
     6
  9
$UCSNAME
  2

  9
$UCSORG
 10
0.0
 20
0.0
 30
0.0
  9
$UCSXDIR
 10
1.0
 20
0.0
 30
0.0
  9
$UCSYDIR
 10
0.0
 20
1.0
 30
0.0
  9
$PUCSNAME
  2

  9
$PUCSORG
 10
0.0
 20
0.0
 30
0.0
  9
$PUCSXDIR
 10
1.0
 20
0.0
 30
0.0
  9
$PUCSYDIR
 10
0.0
 20
1.0
 30
0.0
  9
$USERI1
 70
     0
  9
$USERI2
 70
     0
  9
$USERI3
 70
     0
  9
$USERI4
 70
     0
  9
$USERI5
 70
     0
  9
$USERR1
 40
0.0
  9
$USERR2
 40
0.0
  9
$USERR3
 40
0.0
  9
$USERR4
 40
0.0
  9
$USERR5
 40
0.0
  9
$WORLDVIEW
 70
     1
  9
$SHADEDGE
 70
     3
  9
$SHADEDIF
 70
    70
  9
$TILEMODE
 70
     1
  9
$MAXACTVP
 70
    16
  9
$PINSBASE
 10
0.0
 20
0.0
 30
0.0
  9
$PLIMCHECK
 70
     0
  9
$PEXTMIN
 10
-213.194529
 20
-32.94
 30
0.0
  9
$PEXTMAX
 10
626.805471
 20
561.06
 30
0.0
  9
$PLIMMIN
 10
-213.194529
 20
-32.94
  9
$PLIMMAX
 10
626.805471
 20
561.06
  9
$UNITMODE
 70
     0
  9
$VISRETAIN
 70
     0
  9
$PLINEGEN
 70
     1
  9
$PSLTSCALE
 70
     0
  9
$TREEDEPTH
 70
  3020
  0
ENDSEC
  0
SECTION
  2
TABLES
  0
TABLE
  2
VPORT
 70
     1
  0
VPORT
  2
*ACTIVE
 70
     0
 10
0.0
 20
0.0
 11
1.0
 21
1.0
 12
420.0
 22
297.0
 13
0.0
 23
0.0
 14
1.0
 24
1.0
 15
0.0
 25
0.0
 16
0.0
 26
0.0
 36
1.0
 17
-213.194529
 27
-32.94
 37
0.0
 40
594.0
 41
1.604229
 42
50.0
 43
0.0
 44
0.0
 50
0.0
 51
0.0
 71
     0
 72
   100
 73
     1
 74
     1
 75
     0
 76
     0
 77
     0
 78
     0
  0
ENDTAB
  0
TABLE
  2
LTYPE
 70
     4
  0
LTYPE
  2
CONTINUOUS
 70
    64
  3
Solid line
 72
    65
 73
     0
 40
0.0
  0
LTYPE
  2
DASHED
 70
    64
  3
__ __ __ __ __
 72
    65
 73
     2
 40
6.25
 49
5.0
 49
-1.25
  0
LTYPE
  2
DASHDOT
 70
    64
  3
__ . __ . __ . __ . __
 72
    65
 73
     4
 40
7.5
 49
5.0
 49
-1.25
 49
0.0
 49
-1.25
  0
LTYPE
  2
CENTER
 70
    64
  3
__ . __ . __ . __ . __
 72
    65
 73
     4
 40
7.5
 49
5.0
 49
-1.25
 49
0.0
 49
-1.25
  0
ENDTAB
  0
TABLE
  2
LAYER
 70
    12
  0
LAYER
  2
0
 70
     0
 62
     7
  6
CONTINUOUS
  0
LAYER
  2
LC-INFO-1-2-MM-A3-0
 70
     1
 62
   255
  6
BYBLOCK
  0
LAYER
  2
LC-3D-HIDDEN
 70
     0
 62
     9
  6
DASHED
  0
LAYER
  2
LC-CUT-HIDDEN
 70
     0
 62
     9
  6
DASHED
  0
LAYER
  2
LC-VIEWPORT
 70
     0
 62
     7
  6
BYBLOCK
  0
LAYER
  2
LC-001-002-----0
 70
     0
 62
     1
  6
BYBLOCK
  0
LAYER
  2
LC-002-002-RND-0
 70
     0
 62
     1
  6
BYBLOCK
  0
LAYER
  2
LC-003-003-MTH-0
 70
     0
 62
     2
  6
BYBLOCK
  0
LAYER
  2
LC-004-003-----0
 70
     0
 62
     2
  6
BYBLOCK
  0
LAYER
  2
LC-005-003-MTG-0
 70
     0
 62
     2
  6
BYBLOCK
  0
LAYER
  2
LC-006-005-----0
 70
     0
 62
     2
  6
BYBLOCK
  0
LAYER
  2
LC-007-006-MLN-0
 70
     0
 62
     2
  6
CENTER
  0
ENDTAB
  0
TABLE
  2
STYLE
 70
     3
  0
STYLE
  2
STANDARD
 70
     0
 40
0.0
 41
1.0
 50
0.0
 71
     0
 42
0.0
  3
txt
  4

  0
STYLE
  2
LCTX15-400-0-0-ARIAL
 70
    64
 40
3.5
 41
1.0
 50
0.0
 71
     0
 42
0.0
  3
Arial
  4

  0
STYLE
  2
LCTX15-400-0-0-DIN-SCHRIFTP
 70
    64
 40
0.0
 41
1.0
 50
1.5
 71
     0
 42
3.5
  3
STANDARD
  4

  0
ENDTAB
  0
TABLE
  2
VIEW
 70
     0
  0
ENDTAB
  0
TABLE
  2
UCS
 70
     0
  0
ENDTAB
  0
TABLE
  2
APPID
 70
     1
  0
APPID
  2
ACAD
 70
     0
  0
ENDTAB
  0
TABLE
  2
DIMSTYLE
 70
     3
  0
DIMSTYLE
  2
STANDARD
 70
     0
  3

  4

  5

  6

  7

 40
1.0
 41
0.18
 42
0.0625
 43
0.38
 44
0.18
 45
0.0
 46
0.0
 47
0.0
 48
0.0
 71
     0
 72
     0
 73
     1
 74
     1
 75
     0
 76
     0
 77
     0
 78
     0
140
0.18
141
0.09
142
0.0
143
25.4
144
1.0
145
0.0
146
1.0
147
0.09
170
     0
171
     2
172
     0
173
     0
174
     0
175
     0
176
     0
177
     0
178
     0
  0
DIMSTYLE
  2
LC-DIM-L-0140-02-02
 70
     0
  3

  4

  5

  6

  7

 40
2.0
 41
3.5
 42
0.0
 43
7.5
 44
1.8
 45
0.0
 46
0.0
 47
0.0
 48
0.0
 71
     0
 72
     0
 73
     0
 74
     0
 75
     0
 76
     0
 77
     1
 78
     8
140
14.0
141
0.0
142
0.0
143
25.4
144
1.0
145
0.0
146
0.71
147
1.5
170
     0
171
     2
172
     0
173
     0
174
     0
175
     0
176
     2
177
     2
178
     2
  0
DIMSTYLE
  2
LC-DIM-L-0140-01-02
 70
     0
  3

  4

  5

  6

  7

 40
2.0
 41
3.5
 42
0.0
 43
7.5
 44
1.8
 45
0.0
 46
0.0
 47
0.0
 48
0.0
 71
     0
 72
     0
 73
     0
 74
     0
 75
     0
 76
     0
 77
     1
 78
     8
140
14.0
141
0.0
142
0.0
143
25.4
144
1.0
145
0.0
146
0.71
147
1.5
170
     0
171
     2
172
     0
173
     0
174
     0
175
     0
176
     2
177
     2
178
     2
  0
ENDTAB
  0
ENDSEC
  0
SECTION
  2
BLOCKS
  0
BLOCK
  8
0
  5
4B
  2
*D0
 70
    65
 10
0.0
 20
0.0
 30
0.0
  3
*D0
  0
LINE
  8
LC-003-003-MTH-0
 62
     2
  5
4D
 10
-23.995179
 20
145.950875
 30
0.0
 11
-23.995179
 21
100.8
 31
0.0
  0
LINE
  8
LC-003-003-MTH-0
 62
     2
  5
4E
 10
51.004821
 20
145.950875
 30
0.0
 11
51.004821
 21
100.8
 31
0.0
  0
LINE
  8
LC-004-003-----0
 62
     2
  5
50
 10
-51.755635
 20
113.945267
 30
0.0
 11
-23.995179
 21
117.6
 31
0.0
  0
LINE
  8
LC-004-003-----0
 62
     2
  5
51
 10
-23.995179
 20
117.6
 30
0.0
 11
-51.755635
 21
121.254733
 31
0.0
  0
LINE
  8
LC-004-003-----0
 62
     2
  5
52
 10
-51.755635
 20
121.254733
 30
0.0
 11
-51.755635
 21
113.945267
 31
0.0
  0
LINE
  8
LC-004-003-----0
 62
     2
  5
53
 10
-51.817916
 20
114.895497
 30
0.0
 11
-31.275179
 21
117.6
 31
0.0
  0
LINE
  8
LC-004-003-----0
 62
     2
  5
54
 10
-31.275179
 20
117.6
 30
0.0
 11
-51.817916
 21
120.304503
 31
0.0
  0
LINE
  8
LC-004-003-----0
 62
     2
  5
55
 10
-51.880198
 20
115.845728
 30
0.0
 11
-38.555179
 21
117.6
 31
0.0
  0
LINE
  8
LC-004-003-----0
 62
     2
  5
56
 10
-38.555179
 20
117.6
 30
0.0
 11
-51.880198
 21
119.354272
 31
0.0
  0
LINE
  8
LC-004-003-----0
 62
     2
  5
57
 10
-51.942479
 20
116.795959
 30
0.0
 11
-45.835179
 21
117.6
 31
0.0
  0
LINE
  8
LC-004-003-----0
 62
     2
  5
58
 10
-45.835179
 20
117.6
 30
0.0
 11
-51.942479
 21
118.404041
 31
0.0
  0
LINE
  8
LC-004-003-----0
 62
     2
  5
59
 10
78.765277
 20
121.254733
 30
0.0
 11
51.004821
 21
117.6
 31
0.0
  0
LINE
  8
LC-004-003-----0
 62
     2
  5
5A
 10
51.004821
 20
117.6
 30
0.0
 11
78.765277
 21
113.945267
 31
0.0
  0
LINE
  8
LC-004-003-----0
 62
     2
  5
5B
 10
78.765277
 20
113.945267
 30
0.0
 11
78.765277
 21
121.254733
 31
0.0
  0
LINE
  8
LC-004-003-----0
 62
     2
  5
5C
 10
78.827559
 20
120.304503
 30
0.0
 11
58.284821
 21
117.6
 31
0.0
  0
LINE
  8
LC-004-003-----0
 62
     2
  5
5D
 10
58.284821
 20
117.6
 30
0.0
 11
78.827559
 21
114.895497
 31
0.0
  0
LINE
  8
LC-004-003-----0
 62
     2
  5
5E
 10
78.88984
 20
119.354272
 30
0.0
 11
65.564821
 21
117.6
 31
0.0
  0
LINE
  8
LC-004-003-----0
 62
     2
  5
5F
 10
65.564821
 20
117.6
 30
0.0
 11
78.88984
 21
115.845728
 31
0.0
  0
LINE
  8
LC-004-003-----0
 62
     2
  5
60
 10
78.952122
 20
118.404041
 30
0.0
 11
72.844821
 21
117.6
 31
0.0
  0
LINE
  8
LC-004-003-----0
 62
     2
  5
61
 10
72.844821
 20
117.6
 30
0.0
 11
78.952122
 21
116.795959
 31
0.0
  0
LINE
  8
LC-005-003-MTG-0
 62
     2
  5
63
 10
-63.195179
 20
117.6
 30
0.0
 11
210.039116
 21
117.6
 31
0.0
  0
TEXT
  8
LC-004-003-----0
 62
     7
  5
64
 10
121.539276
 20
125.427554
 30
0.0
 40
28.0
  1
DN70
 41
0.9
 51
15.0
  7
LCTX15-400-0-0-ARIAL
  0
ENDBLK
  8
0
  5
65
  0
BLOCK
  8
0
  5
73
  2
*X1
 70
    65
 10
0.0
 20
0.0
 30
0.0
  3
*X1
  0
LINE
  8
LC-006-005-----0
 62
     2
  5
75
 10
-59.983296
 20
268.114251
 30
0.0
 11
-57.494836
 21
270.60271
 31
0.0
  0
LINE
  8
LC-006-005-----0
 62
     2
  5
76
 10
-61.891636
 20
269.034338
 30
0.0
 11
-60.803266
 21
270.122708
 31
0.0
  0
LINE
  8
LC-006-005-----0
 62
     2
  5
77
 10
-60.403293
 20
270.522681
 30
0.0
 11
-57.49484
 21
273.431134
 31
0.0
  0
LINE
  8
LC-006-005-----0
 62
     2
  5
78
 10
-60.39484
 20
273.359561
 30
0.0
 11
-57.494844
 21
276.259557
 31
0.0
  0
LINE
  8
LC-006-005-----0
 62
     2
  5
79
 10
-60.394844
 20
276.187984
 30
0.0
 11
-57.494848
 21
279.08798
 31
0.0
  0
LINE
  8
LC-006-005-----0
 62
     2
  5
7A
 10
-60.394848
 20
279.016407
 30
0.0
 11
-57.494852
 21
281.916403
 31
0.0
  0
LINE
  8
LC-006-005-----0
 62
     2
  5
7B
 10
-60.394851
 20
281.844831
 30
0.0
 11
-57.494855
 21
284.744827
 31
0.0
  0
LINE
  8
LC-006-005-----0
 62
     2
  5
7C
 10
-60.394855
 20
284.673254
 30
0.0
 11
-57.494859
 21
287.57325
 31
0.0
  0
LINE
  8
LC-006-005-----0
 62
     2
  5
7D
 10
-60.394859
 20
287.501677
 30
0.0
 11
-56.994864
 21
290.901672
 31
0.0
  0
LINE
  8
LC-006-005-----0
 62
     2
  5
7E
 10
-60.394863
 20
290.3301
 30
0.0
 11
-56.994868
 21
293.730096
 31
0.0
  0
LINE
  8
LC-006-005-----0
 62
     2
  5
7F
 10
-60.394867
 20
293.158524
 30
0.0
 11
-56.994872
 21
296.558519
 31
0.0
  0
LINE
  8
LC-006-005-----0
 62
     2
  5
80
 10
-60.394871
 20
295.986947
 30
0.0
 11
-59.267567
 21
297.114251
 31
0.0
  0
ENDBLK
  8
0
  5
81
  0
BLOCK
  8
0
  5
8E
  2
*X2
 70
    65
 10
0.0
 20
0.0
 30
0.0
  3
*X2
  0
LINE
  8
LC-006-005-----0
 62
     2
  5
8F
 10
87.095117
 20
268.114453
 30
0.0
 11
88.700543
 21
269.719879
 31
0.0
  0
LINE
  8
LC-006-005-----0
 62
     2
  5
90
 10
84.504641
 20
268.352404
 30
0.0
 11
87.404637
 21
271.2524
 31
0.0
  0
LINE
  8
LC-006-005-----0
 62
     2
  5
91
 10
84.504637
 20
271.180827
 30
0.0
 11
87.404633
 21
274.080823
 31
0.0
  0
LINE
  8
LC-006-005-----0
 62
     2
  5
92
 10
84.504633
 20
274.00925
 30
0.0
 11
87.404629
 21
276.909246
 31
0.0
  0
LINE
  8
LC-006-005-----0
 62
     2
  5
93
 10
84.504629
 20
276.837674
 30
0.0
 11
87.404625
 21
279.73767
 31
0.0
  0
LINE
  8
LC-006-005-----0
 62
     2
  5
94
 10
84.504625
 20
279.666097
 30
0.0
 11
87.404621
 21
282.566093
 31
0.0
  0
LINE
  8
LC-006-005-----0
 62
     2
  5
95
 10
84.504621
 20
282.49452
 30
0.0
 11
87.404617
 21
285.394516
 31
0.0
  0
LINE
  8
LC-006-005-----0
 62
     2
  5
96
 10
84.504618
 20
285.322943
 30
0.0
 11
87.404614
 21
288.222939
 31
0.0
  0
LINE
  8
LC-006-005-----0
 62
     2
  5
97
 10
84.504614
 20
288.151367
 30
0.0
 11
87.40461
 21
291.051363
 31
0.0
  0
LINE
  8
LC-006-005-----0
 62
     2
  5
98
 10
84.004611
 20
290.479791
 30
0.0
 11
87.404606
 21
293.879786
 31
0.0
  0
LINE
  8
LC-006-005-----0
 62
     2
  5
99
 10
84.004607
 20
293.308214
 30
0.0
 11
87.404602
 21
296.708209
 31
0.0
  0
LINE
  8
LC-006-005-----0
 62
     2
  5
9A
 10
84.004603
 20
296.136637
 30
0.0
 11
84.982413
 21
297.114447
 31
0.0
  0
ENDBLK
  8
0
  5
9B
  0
BLOCK
  8
0
  5
B3
  2
*X3
 70
    65
 10
0.0
 20
0.0
 30
0.0
  3
*X3
  0
LINE
  8
LC-006-005-----0
 62
     2
  5
B4
 10
-44.364275
 20
331.816533
 30
0.0
 11
-42.690842
 21
333.489965
 31
0.0
  0
LINE
  8
LC-006-005-----0
 62
     2
  5
B5
 10
-42.745698
 20
336.263537
 30
0.0
 11
-42.690842
 21
336.318393
 31
0.0
  0
LINE
  8
LC-006-005-----0
 62
     2
  5
B6
 10
-31.16379
 20
367.644435
 30
0.0
 11
-27.95377
 21
370.854455
 31
0.0
  0
LINE
  8
LC-006-005-----0
 62
     2
  5
B7
 10
-29.79708
 20
371.839572
 30
0.0
 11
-29.522395
 21
372.114257
 31
0.0
  0
ENDBLK
  8
0
  5
B8
  0
BLOCK
  8
0
  5
F5
  2
*X4
 70
    65
 10
0.0
 20
0.0
 30
0.0
  3
*X4
  0
LINE
  8
LC-006-005-----0
 62
     2
  5
F6
 10
69.700473
 20
332.744196
 30
0.0
 11
70.679853
 21
333.723576
 31
0.0
  0
LINE
  8
LC-006-005-----0
 62
     2
  5
F7
 10
69.700466
 20
335.572615
 30
0.0
 11
69.925094
 21
335.797244
 31
0.0
  0
LINE
  8
LC-006-005-----0
 62
     2
  5
F8
 10
56.765761
 20
367.892745
 30
0.0
 11
57.848939
 21
368.975923
 31
0.0
  0
LINE
  8
LC-006-005-----0
 62
     2
  5
F9
 10
55.479877
 20
369.435288
 30
0.0
 11
57.094179
 21
371.04959
 31
0.0
  0
LINE
  8
LC-006-005-----0
 62
     2
  5
FA
 10
54.725117
 20
371.508955
 30
0.0
 11
55.330536
 21
372.114374
 31
0.0
  0
ENDBLK
  8
0
  5
FB
  0
BLOCK
  8
0
  5
109
  2
*X5
 70
    65
 10
0.0
 20
0.0
 30
0.0
  3
*X5
  0
LINE
  8
LC-006-005-----0
 62
     2
  5
10A
 10
88.966934
 20
261.500988
 30
0.0
 11
90.754821
 21
263.288876
 31
0.0
  0
LINE
  8
LC-006-005-----0
 62
     2
  5
10B
 10
86.754821
 20
262.117303
 30
0.0
 11
90.638507
 21
266.000988
 31
0.0
  0
LINE
  8
LC-006-005-----0
 62
     2
  5
10C
 10
80.810079
 20
259.000988
 30
0.0
 11
82.254821
 21
260.44573
 31
0.0
  0
LINE
  8
LC-006-005-----0
 62
     2
  5
10D
 10
85.310079
 20
263.500988
 30
0.0
 11
88.810079
 21
267.000988
 31
0.0
  0
LINE
  8
LC-006-005-----0
 62
     2
  5
10E
 10
78.293845
 20
259.313181
 30
0.0
 11
82.254821
 21
263.274157
 31
0.0
  0
LINE
  8
LC-006-005-----0
 62
     2
  5
10F
 10
82.481652
 20
263.500988
 30
0.0
 11
85.981652
 21
267.000988
 31
0.0
  0
LINE
  8
LC-006-005-----0
 62
     2
  5
110
 10
78.697906
 20
262.54567
 30
0.0
 11
83.153225
 21
267.000988
 31
0.0
  0
LINE
  8
LC-006-005-----0
 62
     2
  5
111
 10
79.101967
 20
265.778158
 30
0.0
 11
80.324798
 21
267.000988
 31
0.0
  0
LINE
  8
LC-006-005-----0
 62
     2
  5
112
 10
-52.125995
 20
259.000988
 30
0.0
 11
-51.343047
 21
259.783936
 31
0.0
  0
LINE
  8
LC-006-005-----0
 62
     2
  5
113
 10
-54.954423
 20
259.000988
 30
0.0
 11
-51.657317
 21
262.298094
 31
0.0
  0
LINE
  8
LC-006-005-----0
 62
     2
  5
114
 10
-55.245179
 20
261.538659
 30
0.0
 11
-51.971587
 21
264.812251
 31
0.0
  0
LINE
  8
LC-006-005-----0
 62
     2
  5
115
 10
-56.111277
 20
263.500988
 30
0.0
 11
-52.611277
 21
267.000988
 31
0.0
  0
LINE
  8
LC-006-005-----0
 62
     2
  5
116
 10
-60.939704
 20
261.500988
 30
0.0
 11
-59.745179
 21
262.695513
 31
0.0
  0
LINE
  8
LC-006-005-----0
 62
     2
  5
117
 10
-58.939704
 20
263.500988
 30
0.0
 11
-55.439704
 21
267.000988
 31
0.0
  0
LINE
  8
LC-006-005-----0
 62
     2
  5
118
 10
-63.256655
 20
262.012464
 30
0.0
 11
-58.268131
 21
267.000988
 31
0.0
  0
LINE
  8
LC-006-005-----0
 62
     2
  5
119
 10
-63.745179
 20
264.352368
 30
0.0
 11
-61.096558
 21
267.000988
 31
0.0
  0
ENDBLK
  8
0
  5
11A
  0
BLOCK
  8
0
  5
11E
  2
*X6
 70
    65
 10
0.0
 20
0.0
 30
0.0
  3
*X6
  0
LINE
  8
LC-006-005-----0
 62
     2
  5
11F
 10
-28.151722
 20
200.950875
 30
0.0
 11
-23.995179
 21
205.107418
 31
0.0
  0
LINE
  8
LC-006-005-----0
 62
     2
  5
120
 10
-36.637004
 20
200.950875
 30
0.0
 11
-29.137004
 21
208.450875
 31
0.0
  0
LINE
  8
LC-006-005-----0
 62
     2
  5
121
 10
-45.122285
 20
200.950875
 30
0.0
 11
-37.622285
 21
208.450875
 31
0.0
  0
LINE
  8
LC-006-005-----0
 62
     2
  5
122
 10
-53.607567
 20
200.950875
 30
0.0
 11
-46.107567
 21
208.450875
 31
0.0
  0
LINE
  8
LC-006-005-----0
 62
     2
  5
123
 10
-61.036339
 20
202.007384
 30
0.0
 11
-54.244472
 21
208.799251
 31
0.0
  0
LINE
  8
LC-006-005-----0
 62
     2
  5
124
 10
-61.495179
 20
210.033825
 30
0.0
 11
-54.244472
 21
217.284532
 31
0.0
  0
LINE
  8
LC-006-005-----0
 62
     2
  5
125
 10
-62.563411
 20
217.450875
 30
0.0
 11
-54.244472
 21
225.769814
 31
0.0
  0
LINE
  8
LC-006-005-----0
 62
     2
  5
126
 10
-63.994472
 20
224.505095
 30
0.0
 11
-54.244472
 21
234.255095
 31
0.0
  0
LINE
  8
LC-006-005-----0
 62
     2
  5
127
 10
-63.994472
 20
232.990376
 30
0.0
 11
-54.419169
 21
242.565679
 31
0.0
  0
LINE
  8
LC-006-005-----0
 62
     2
  5
128
 10
-63.994472
 20
241.475658
 30
0.0
 11
-59.544472
 21
245.925658
 31
0.0
  0
LINE
  8
LC-006-005-----0
 62
     2
  5
129
 10
-63.994472
 20
249.960939
 30
0.0
 11
-59.544472
 21
254.410939
 31
0.0
  0
ENDBLK
  8
0
  5
12A
  0
BLOCK
  8
0
  5
136
  2
*X7
 70
    65
 10
0.0
 20
0.0
 30
0.0
  3
*X7
  0
LINE
  8
LC-006-005-----0
 62
     2
  5
137
 10
-59.544472
 20
254.705943
 30
0.0
 11
-61.739517
 21
256.900988
 31
0.0
  0
LINE
  8
LC-006-005-----0
 62
     2
  5
138
 10
-54.244472
 20
240.920662
 30
0.0
 11
-56.324798
 21
243.000988
 31
0.0
  0
LINE
  8
LC-006-005-----0
 62
     2
  5
139
 10
-59.544472
 20
246.220662
 30
0.0
 11
-63.994472
 21
250.670662
 31
0.0
  0
LINE
  8
LC-006-005-----0
 62
     2
  5
13A
 10
-23.995179
 20
202.186088
 30
0.0
 11
-30.259966
 21
208.450875
 31
0.0
  0
LINE
  8
LC-006-005-----0
 62
     2
  5
13B
 10
-54.244472
 20
232.435381
 30
0.0
 11
-63.994472
 21
242.185381
 31
0.0
  0
LINE
  8
LC-006-005-----0
 62
     2
  5
13C
 10
-31.245247
 20
200.950875
 30
0.0
 11
-38.745247
 21
208.450875
 31
0.0
  0
LINE
  8
LC-006-005-----0
 62
     2
  5
13D
 10
-54.244472
 20
223.950099
 30
0.0
 11
-63.994472
 21
233.700099
 31
0.0
  0
LINE
  8
LC-006-005-----0
 62
     2
  5
13E
 10
-39.730529
 20
200.950875
 30
0.0
 11
-47.230529
 21
208.450875
 31
0.0
  0
LINE
  8
LC-006-005-----0
 62
     2
  5
13F
 10
-54.244472
 20
215.464818
 30
0.0
 11
-63.994472
 21
225.214818
 31
0.0
  0
LINE
  8
LC-006-005-----0
 62
     2
  5
140
 10
-48.21581
 20
200.950875
 30
0.0
 11
-61.495179
 21
214.230243
 31
0.0
  0
LINE
  8
LC-006-005-----0
 62
     2
  5
141
 10
-56.701091
 20
200.950875
 30
0.0
 11
-61.495179
 21
205.744962
 31
0.0
  0
ENDBLK
  8
0
  5
142
  0
BLOCK
  8
0
  5
148
  2
*D8
 70
    65
 10
0.0
 20
0.0
 30
0.0
  3
*D8
  0
LINE
  8
LC-003-003-MTH-0
 62
     2
  5
149
 10
-66.495179
 20
210.850191
 30
0.0
 11
-66.495179
 21
55.2
 31
0.0
  0
LINE
  8
LC-003-003-MTH-0
 62
     2
  5
14A
 10
93.504821
 20
208.450875
 30
0.0
 11
93.504821
 21
55.2
 31
0.0
  0
LINE
  8
LC-005-003-MTG-0
 62
     2
  5
14B
 10
-66.495179
 20
72.0
 30
0.0
 11
93.504821
 21
72.0
 31
0.0
  0
LINE
  8
LC-004-003-----0
 62
     2
  5
14C
 10
-38.734723
 20
75.654733
 30
0.0
 11
-66.495179
 21
72.0
 31
0.0
  0
LINE
  8
LC-004-003-----0
 62
     2
  5
14D
 10
-66.495179
 20
72.0
 30
0.0
 11
-38.734723
 21
68.345267
 31
0.0
  0
LINE
  8
LC-004-003-----0
 62
     2
  5
14E
 10
-38.734723
 20
68.345267
 30
0.0
 11
-38.734723
 21
75.654733
 31
0.0
  0
LINE
  8
LC-004-003-----0
 62
     2
  5
14F
 10
-38.672441
 20
74.704503
 30
0.0
 11
-59.215179
 21
72.0
 31
0.0
  0
LINE
  8
LC-004-003-----0
 62
     2
  5
150
 10
-59.215179
 20
72.0
 30
0.0
 11
-38.672441
 21
69.295497
 31
0.0
  0
LINE
  8
LC-004-003-----0
 62
     2
  5
151
 10
-38.61016
 20
73.754272
 30
0.0
 11
-51.935179
 21
72.0
 31
0.0
  0
LINE
  8
LC-004-003-----0
 62
     2
  5
152
 10
-51.935179
 20
72.0
 30
0.0
 11
-38.61016
 21
70.245728
 31
0.0
  0
LINE
  8
LC-004-003-----0
 62
     2
  5
153
 10
-38.547878
 20
72.804041
 30
0.0
 11
-44.655179
 21
72.0
 31
0.0
  0
LINE
  8
LC-004-003-----0
 62
     2
  5
154
 10
-44.655179
 20
72.0
 30
0.0
 11
-38.547878
 21
71.195959
 31
0.0
  0
LINE
  8
LC-004-003-----0
 62
     2
  5
155
 10
65.744365
 20
68.345267
 30
0.0
 11
93.504821
 21
72.0
 31
0.0
  0
LINE
  8
LC-004-003-----0
 62
     2
  5
156
 10
93.504821
 20
72.0
 30
0.0
 11
65.744365
 21
75.654733
 31
0.0
  0
LINE
  8
LC-004-003-----0
 62
     2
  5
157
 10
65.744365
 20
75.654733
 30
0.0
 11
65.744365
 21
68.345267
 31
0.0
  0
LINE
  8
LC-004-003-----0
 62
     2
  5
158
 10
65.682084
 20
69.295497
 30
0.0
 11
86.224821
 21
72.0
 31
0.0
  0
LINE
  8
LC-004-003-----0
 62
     2
  5
159
 10
86.224821
 20
72.0
 30
0.0
 11
65.682084
 21
74.704503
 31
0.0
  0
LINE
  8
LC-004-003-----0
 62
     2
  5
15A
 10
65.619802
 20
70.245728
 30
0.0
 11
78.944821
 21
72.0
 31
0.0
  0
LINE
  8
LC-004-003-----0
 62
     2
  5
15B
 10
78.944821
 20
72.0
 30
0.0
 11
65.619802
 21
73.754272
 31
0.0
  0
LINE
  8
LC-004-003-----0
 62
     2
  5
15C
 10
65.557521
 20
71.195959
 30
0.0
 11
71.664821
 21
72.0
 31
0.0
  0
LINE
  8
LC-004-003-----0
 62
     2
  5
15D
 10
71.664821
 20
72.0
 30
0.0
 11
65.557521
 21
72.804041
 31
0.0
  0
TEXT
  8
LC-004-003-----0
 62
     7
  5
15E
 10
-45.147019
 20
79.827554
 30
0.0
 40
28.0
  1
%%c160
 41
0.9
 51
15.0
  7
LCTX15-400-0-0-ARIAL
 72
     1
 11
17.852981
 21
79.827554
 31
0.0
  0
ENDBLK
  8
0
  5
15F
  0
BLOCK
  8
0
  5
18A
  2
*X9
 70
    65
 10
0.0
 20
0.0
 30
0.0
  3
*X9
  0
LINE
  8
LC-006-005-----0
 62
     2
  5
18B
 10
103.993751
 20
297.642901
 30
0.0
 11
102.993751
 21
298.642901
 31
0.0
  0
LINE
  8
LC-006-005-----0
 62
     2
  5
18C
 10
102.579537
 20
297.642901
 30
0.0
 11
101.846066
 21
298.376372
 31
0.0
  0
LINE
  8
LC-006-005-----0
 62
     2
  5
18D
 10
101.845555
 20
296.962669
 30
0.0
 11
101.138448
 21
297.669776
 31
0.0
  0
LINE
  8
LC-006-005-----0
 62
     2
  5
18E
 10
101.115093
 20
296.278918
 30
0.0
 11
100.25108
 21
297.142931
 31
0.0
  0
LINE
  8
LC-006-005-----0
 62
     2
  5
18F
 10
99.836897
 20
296.1429
 30
0.0
 11
98.836872
 21
297.142925
 31
0.0
  0
LINE
  8
LC-006-005-----0
 62
     2
  5
190
 10
98.422684
 20
296.1429
 30
0.0
 11
97.422665
 21
297.142919
 31
0.0
  0
LINE
  8
LC-006-005-----0
 62
     2
  5
191
 10
97.008471
 20
296.142899
 30
0.0
 11
96.008457
 21
297.142913
 31
0.0
  0
LINE
  8
LC-006-005-----0
 62
     2
  5
192
 10
95.594258
 20
296.142899
 30
0.0
 11
94.703239
 21
297.033917
 31
0.0
  0
LINE
  8
LC-006-005-----0
 62
     2
  5
193
 10
94.469003
 20
295.853941
 30
0.0
 11
93.748025
 21
296.574918
 31
0.0
  0
LINE
  8
LC-006-005-----0
 62
     2
  5
194
 10
93.770056
 20
295.138674
 30
0.0
 11
93.046262
 21
295.862467
 31
0.0
  0
LINE
  8
LC-006-005-----0
 62
     2
  5
195
 10
93.50454
 20
293.989976
 30
0.0
 11
92.600172
 21
294.894344
 31
0.0
  0
LINE
  8
LC-006-005-----0
 62
     2
  5
196
 10
93.504543
 20
292.57576
 30
0.0
 11
92.504541
 21
293.575762
 31
0.0
  0
LINE
  8
LC-006-005-----0
 62
     2
  5
197
 10
93.504545
 20
291.161544
 30
0.0
 11
92.504543
 21
292.161546
 31
0.0
  0
LINE
  8
LC-006-005-----0
 62
     2
  5
198
 10
93.504548
 20
289.747327
 30
0.0
 11
92.504546
 21
290.747329
 31
0.0
  0
LINE
  8
LC-006-005-----0
 62
     2
  5
199
 10
93.504551
 20
288.333111
 30
0.0
 11
92.504549
 21
289.333113
 31
0.0
  0
LINE
  8
LC-006-005-----0
 62
     2
  5
19A
 10
93.504554
 20
286.918894
 30
0.0
 11
92.504552
 21
287.918896
 31
0.0
  0
LINE
  8
LC-006-005-----0
 62
     2
  5
19B
 10
93.504557
 20
285.504678
 30
0.0
 11
92.504555
 21
286.50468
 31
0.0
  0
LINE
  8
LC-006-005-----0
 62
     2
  5
19C
 10
93.50456
 20
284.090461
 30
0.0
 11
92.504558
 21
285.090463
 31
0.0
  0
LINE
  8
LC-006-005-----0
 62
     2
  5
19D
 10
93.504563
 20
282.676245
 30
0.0
 11
92.504561
 21
283.676247
 31
0.0
  0
LINE
  8
LC-006-005-----0
 62
     2
  5
19E
 10
93.504565
 20
281.262029
 30
0.0
 11
92.504563
 21
282.262031
 31
0.0
  0
LINE
  8
LC-006-005-----0
 62
     2
  5
19F
 10
93.504568
 20
279.847812
 30
0.0
 11
92.504566
 21
280.847814
 31
0.0
  0
LINE
  8
LC-006-005-----0
 62
     2
  5
1A0
 10
93.504571
 20
278.433596
 30
0.0
 11
92.504569
 21
279.433598
 31
0.0
  0
LINE
  8
LC-006-005-----0
 62
     2
  5
1A1
 10
93.345368
 20
277.178585
 30
0.0
 11
92.500973
 21
278.02298
 31
0.0
  0
LINE
  8
LC-006-005-----0
 62
     2
  5
1A2
 10
92.844403
 20
276.265337
 30
0.0
 11
92.130905
 21
276.978835
 31
0.0
  0
LINE
  8
LC-006-005-----0
 62
     2
  5
1A3
 10
92.09584
 20
275.599686
 30
0.0
 11
91.36031
 21
276.335216
 31
0.0
  0
LINE
  8
LC-006-005-----0
 62
     2
  5
1A4
 10
91.082278
 20
275.199035
 30
0.0
 11
90.138416
 21
276.142897
 31
0.0
  0
LINE
  8
LC-006-005-----0
 62
     2
  5
1A5
 10
89.778451
 20
275.088648
 30
0.0
 11
89.059589
 21
275.807511
 31
0.0
  0
LINE
  8
LC-006-005-----0
 62
     2
  5
1A6
 10
89.504936
 20
273.94795
 30
0.0
 11
88.531089
 21
274.921797
 31
0.0
  0
LINE
  8
LC-006-005-----0
 62
     2
  5
1A7
 10
89.504942
 20
272.53373
 30
0.0
 11
88.504937
 21
273.533735
 31
0.0
  0
ENDBLK
  8
0
  5
1A8
  0
BLOCK
  8
0
  5
1AB
  2
*X10
 70
    65
 10
0.0
 20
0.0
 30
0.0
  3
*X10
  0
LINE
  8
LC-006-005-----0
 62
     2
  5
1AC
 10
137.834752
 20
301.985666
 30
0.0
 11
137.469229
 21
302.351189
 31
0.0
  0
LINE
  8
LC-006-005-----0
 62
     2
  5
1AD
 10
137.21384
 20
301.192365
 30
0.0
 11
136.505539
 21
301.900665
 31
0.0
  0
LINE
  8
LC-006-005-----0
 62
     2
  5
1AE
 10
136.349364
 20
300.642627
 30
0.0
 11
135.549577
 21
301.442413
 31
0.0
  0
LINE
  8
LC-006-005-----0
 62
     2
  5
1AF
 10
135.2264
 20
300.351377
 30
0.0
 11
134.383274
 21
301.194503
 31
0.0
  0
LINE
  8
LC-006-005-----0
 62
     2
  5
1B0
 10
134.060097
 20
300.103466
 30
0.0
 11
133.216971
 21
300.946592
 31
0.0
  0
LINE
  8
LC-006-005-----0
 62
     2
  5
1B1
 10
132.893794
 20
299.855556
 30
0.0
 11
132.050669
 21
300.698682
 31
0.0
  0
LINE
  8
LC-006-005-----0
 62
     2
  5
1B2
 10
131.727491
 20
299.607645
 30
0.0
 11
130.884366
 21
300.450771
 31
0.0
  0
LINE
  8
LC-006-005-----0
 62
     2
  5
1B3
 10
130.561188
 20
299.359735
 30
0.0
 11
129.718063
 21
300.20286
 31
0.0
  0
LINE
  8
LC-006-005-----0
 62
     2
  5
1B4
 10
129.394886
 20
299.111824
 30
0.0
 11
128.55176
 21
299.95495
 31
0.0
  0
LINE
  8
LC-006-005-----0
 62
     2
  5
1B5
 10
128.228583
 20
298.863913
 30
0.0
 11
127.385457
 21
299.707039
 31
0.0
  0
LINE
  8
LC-006-005-----0
 62
     2
  5
1B6
 10
127.06228
 20
298.616003
 30
0.0
 11
126.219154
 21
299.459128
 31
0.0
  0
LINE
  8
LC-006-005-----0
 62
     2
  5
1B7
 10
125.895977
 20
298.368092
 30
0.0
 11
125.052851
 21
299.211218
 31
0.0
  0
LINE
  8
LC-006-005-----0
 62
     2
  5
1B8
 10
124.729674
 20
298.120181
 30
0.0
 11
123.886548
 21
298.963307
 31
0.0
  0
LINE
  8
LC-006-005-----0
 62
     2
  5
1B9
 10
123.563371
 20
297.872271
 30
0.0
 11
122.720245
 21
298.715397
 31
0.0
  0
LINE
  8
LC-006-005-----0
 62
     2
  5
1BA
 10
122.397068
 20
297.62436
 30
0.0
 11
121.553942
 21
298.467486
 31
0.0
  0
LINE
  8
LC-006-005-----0
 62
     2
  5
1BB
 10
121.230765
 20
297.37645
 30
0.0
 11
120.387639
 21
298.219575
 31
0.0
  0
LINE
  8
LC-006-005-----0
 62
     2
  5
1BC
 10
120.064462
 20
297.128539
 30
0.0
 11
119.221336
 21
297.971665
 31
0.0
  0
LINE
  8
LC-006-005-----0
 62
     2
  5
1BD
 10
118.898159
 20
296.880628
 30
0.0
 11
118.055033
 21
297.723754
 31
0.0
  0
LINE
  8
LC-006-005-----0
 62
     2
  5
1BE
 10
117.731856
 20
296.632718
 30
0.0
 11
116.88873
 21
297.475844
 31
0.0
  0
LINE
  8
LC-006-005-----0
 62
     2
  5
1BF
 10
116.565553
 20
296.384807
 30
0.0
 11
115.722427
 21
297.227933
 31
0.0
  0
LINE
  8
LC-006-005-----0
 62
     2
  5
1C0
 10
115.393254
 20
296.142893
 30
0.0
 11
113.134299
 21
298.401848
 31
0.0
  0
LINE
  8
LC-006-005-----0
 62
     2
  5
1C1
 10
112.479032
 20
297.642902
 30
0.0
 11
111.479032
 21
298.642901
 31
0.0
  0
LINE
  8
LC-006-005-----0
 62
     2
  5
1C2
 10
111.064818
 20
297.642901
 30
0.0
 11
111.004466
 21
297.703253
 31
0.0
  0
ENDBLK
  8
0
  5
1C3
  0
BLOCK
  8
0
  5
1D7
  2
*X11
 70
    65
 10
0.0
 20
0.0
 30
0.0
  3
*X11
  0
LINE
  8
LC-006-005-----0
 62
     2
  5
1D8
 10
82.156935
 20
200.950875
 30
0.0
 11
88.504821
 21
207.298761
 31
0.0
  0
LINE
  8
LC-006-005-----0
 62
     2
  5
1D9
 10
73.671654
 20
200.950875
 30
0.0
 11
81.171654
 21
208.450875
 31
0.0
  0
LINE
  8
LC-006-005-----0
 62
     2
  5
1DA
 10
81.254114
 20
208.533335
 30
0.0
 11
88.504821
 21
215.784042
 31
0.0
  0
LINE
  8
LC-006-005-----0
 62
     2
  5
1DB
 10
88.671654
 20
215.950875
 30
0.0
 11
88.804821
 21
216.084042
 31
0.0
  0
LINE
  8
LC-006-005-----0
 62
     2
  5
1DC
 10
90.171654
 20
217.450875
 30
0.0
 11
91.004114
 21
218.283335
 31
0.0
  0
LINE
  8
LC-006-005-----0
 62
     2
  5
1DD
 10
65.186373
 20
200.950875
 30
0.0
 11
72.686373
 21
208.450875
 31
0.0
  0
LINE
  8
LC-006-005-----0
 62
     2
  5
1DE
 10
81.254114
 20
217.018616
 30
0.0
 11
91.004114
 21
226.768616
 31
0.0
  0
LINE
  8
LC-006-005-----0
 62
     2
  5
1DF
 10
56.701091
 20
200.950875
 30
0.0
 11
64.201091
 21
208.450875
 31
0.0
  0
LINE
  8
LC-006-005-----0
 62
     2
  5
1E0
 10
81.254114
 20
225.503898
 30
0.0
 11
91.004114
 21
235.253898
 31
0.0
  0
LINE
  8
LC-006-005-----0
 62
     2
  5
1E1
 10
51.004821
 20
203.739886
 30
0.0
 11
55.71581
 21
208.450875
 31
0.0
  0
LINE
  8
LC-006-005-----0
 62
     2
  5
1E2
 10
81.254114
 20
233.989179
 30
0.0
 11
91.004114
 21
243.739179
 31
0.0
  0
LINE
  8
LC-006-005-----0
 62
     2
  5
1E3
 10
86.554114
 20
247.77446
 30
0.0
 11
91.004114
 21
252.22446
 31
0.0
  0
LINE
  8
LC-006-005-----0
 62
     2
  5
1E4
 10
86.678658
 20
256.384286
 30
0.0
 11
87.070817
 21
256.776445
 31
0.0
  0
ENDBLK
  8
0
  5
1E5
  0
BLOCK
  8
0
  5
208
  2
*X12
 70
    65
 10
0.0
 20
0.0
 30
0.0
  3
*X12
  0
LINE
  8
LC-006-005-----0
 62
     2
  5
209
 10
-65.536218
 20
294.638816
 30
0.0
 11
-67.998629
 21
297.101226
 31
0.0
  0
LINE
  8
LC-006-005-----0
 62
     2
  5
20A
 10
-65.494886
 20
293.18327
 30
0.0
 11
-66.495312
 21
294.183695
 31
0.0
  0
LINE
  8
LC-006-005-----0
 62
     2
  5
20B
 10
-68.453737
 20
296.142121
 30
0.0
 11
-69.454173
 21
297.142556
 31
0.0
  0
LINE
  8
LC-006-005-----0
 62
     2
  5
20C
 10
-65.494883
 20
291.769053
 30
0.0
 11
-66.494885
 21
292.769055
 31
0.0
  0
LINE
  8
LC-006-005-----0
 62
     2
  5
20D
 10
-69.868369
 20
296.142539
 30
0.0
 11
-70.868386
 21
297.142556
 31
0.0
  0
LINE
  8
LC-006-005-----0
 62
     2
  5
20E
 10
-65.494879
 20
290.354836
 30
0.0
 11
-66.494882
 21
291.354838
 31
0.0
  0
LINE
  8
LC-006-005-----0
 62
     2
  5
20F
 10
-71.282577
 20
296.142533
 30
0.0
 11
-72.2826
 21
297.142556
 31
0.0
  0
LINE
  8
LC-006-005-----0
 62
     2
  5
210
 10
-65.494876
 20
288.940619
 30
0.0
 11
-66.494879
 21
289.940621
 31
0.0
  0
LINE
  8
LC-006-005-----0
 62
     2
  5
211
 10
-72.696785
 20
296.142528
 30
0.0
 11
-75.111042
 21
298.556784
 31
0.0
  0
LINE
  8
LC-006-005-----0
 62
     2
  5
212
 10
-65.494873
 20
287.526402
 30
0.0
 11
-66.494875
 21
288.526405
 31
0.0
  0
LINE
  8
LC-006-005-----0
 62
     2
  5
213
 10
-75.610986
 20
297.642515
 30
0.0
 11
-76.610982
 21
298.642511
 31
0.0
  0
LINE
  8
LC-006-005-----0
 62
     2
  5
214
 10
-65.49487
 20
286.112185
 30
0.0
 11
-66.494872
 21
287.112188
 31
0.0
  0
LINE
  8
LC-006-005-----0
 62
     2
  5
215
 10
-65.494866
 20
284.697969
 30
0.0
 11
-66.494869
 21
285.697971
 31
0.0
  0
LINE
  8
LC-006-005-----0
 62
     2
  5
216
 10
-65.494863
 20
283.283752
 30
0.0
 11
-66.494865
 21
284.283754
 31
0.0
  0
LINE
  8
LC-006-005-----0
 62
     2
  5
217
 10
-65.49486
 20
281.869535
 30
0.0
 11
-66.494862
 21
282.869537
 31
0.0
  0
LINE
  8
LC-006-005-----0
 62
     2
  5
218
 10
-65.494857
 20
280.455318
 30
0.0
 11
-66.494859
 21
281.45532
 31
0.0
  0
LINE
  8
LC-006-005-----0
 62
     2
  5
219
 10
-61.572931
 20
275.119179
 30
0.0
 11
-62.518584
 21
276.064832
 31
0.0
  0
LINE
  8
LC-006-005-----0
 62
     2
  5
21A
 10
-65.494853
 20
279.041101
 30
0.0
 11
-66.494856
 21
280.041104
 31
0.0
  0
LINE
  8
LC-006-005-----0
 62
     2
  5
21B
 10
-61.495197
 20
273.627231
 30
0.0
 11
-62.495197
 21
274.627231
 31
0.0
  0
LINE
  8
LC-006-005-----0
 62
     2
  5
21C
 10
-63.010518
 20
275.142552
 30
0.0
 11
-64.106285
 21
276.238319
 31
0.0
  0
LINE
  8
LC-006-005-----0
 62
     2
  5
21D
 10
-65.399096
 20
277.531131
 30
0.0
 11
-66.494852
 21
278.626887
 31
0.0
  0
LINE
  8
LC-006-005-----0
 62
     2
  5
21E
 10
-61.495197
 20
272.213018
 30
0.0
 11
-62.495197
 21
273.213018
 31
0.0
  0
LINE
  8
LC-006-005-----0
 62
     2
  5
21F
 10
-64.66041
 20
275.378231
 30
0.0
 11
-66.259173
 21
276.976993
 31
0.0
  0
ENDBLK
  8
0
  5
220
  0
BLOCK
  8
0
  5
223
  2
*X13
 70
    65
 10
0.0
 20
0.0
 30
0.0
  3
*X13
  0
LINE
  8
LC-006-005-----0
 62
     2
  5
224
 10
-84.096231
 20
297.642479
 30
0.0
 11
-85.096227
 21
298.642475
 31
0.0
  0
LINE
  8
LC-006-005-----0
 62
     2
  5
225
 10
-85.491974
 20
297.624009
 30
0.0
 11
-86.199813
 21
298.331848
 31
0.0
  0
LINE
  8
LC-006-005-----0
 62
     2
  5
226
 10
-86.199078
 20
296.916899
 30
0.0
 11
-86.934965
 21
297.652786
 31
0.0
  0
LINE
  8
LC-006-005-----0
 62
     2
  5
227
 10
-86.943127
 20
296.246734
 30
0.0
 11
-87.838853
 21
297.14246
 31
0.0
  0
LINE
  8
LC-006-005-----0
 62
     2
  5
228
 10
-88.25306
 20
296.142454
 30
0.0
 11
-89.506888
 21
297.396281
 31
0.0
  0
LINE
  8
LC-006-005-----0
 62
     2
  5
229
 10
-90.00454
 20
296.47972
 30
0.0
 11
-91.302843
 21
297.778024
 31
0.0
  0
LINE
  8
LC-006-005-----0
 62
     2
  5
22A
 10
-91.800496
 20
296.861462
 30
0.0
 11
-93.098799
 21
298.159766
 31
0.0
  0
LINE
  8
LC-006-005-----0
 62
     2
  5
22B
 10
-93.596451
 20
297.243204
 30
0.0
 11
-94.894755
 21
298.541508
 31
0.0
  0
LINE
  8
LC-006-005-----0
 62
     2
  5
22C
 10
-95.392407
 20
297.624947
 30
0.0
 11
-96.690711
 21
298.92325
 31
0.0
  0
LINE
  8
LC-006-005-----0
 62
     2
  5
22D
 10
-97.188363
 20
298.006689
 30
0.0
 11
-98.486666
 21
299.304992
 31
0.0
  0
LINE
  8
LC-006-005-----0
 62
     2
  5
22E
 10
-98.984319
 20
298.388431
 30
0.0
 11
-100.282622
 21
299.686734
 31
0.0
  0
LINE
  8
LC-006-005-----0
 62
     2
  5
22F
 10
-100.780274
 20
298.770173
 30
0.0
 11
-102.078578
 21
300.068477
 31
0.0
  0
LINE
  8
LC-006-005-----0
 62
     2
  5
230
 10
-102.57623
 20
299.151915
 30
0.0
 11
-103.874534
 21
300.450219
 31
0.0
  0
LINE
  8
LC-006-005-----0
 62
     2
  5
231
 10
-104.372186
 20
299.533657
 30
0.0
 11
-105.670489
 21
300.831961
 31
0.0
  0
LINE
  8
LC-006-005-----0
 62
     2
  5
232
 10
-106.168142
 20
299.9154
 30
0.0
 11
-107.466445
 21
301.213703
 31
0.0
  0
LINE
  8
LC-006-005-----0
 62
     2
  5
233
 10
-107.964097
 20
300.297142
 30
0.0
 11
-110.011575
 21
302.344619
 31
0.0
  0
ENDBLK
  8
0
  5
234
  0
BLOCK
  8
0
  5
238
  2
*X14
 70
    65
 10
0.0
 20
0.0
 30
0.0
  3
*X14
  0
LINE
  8
LC-006-005-----0
 62
     2
  5
239
 10
91.004114
 20
248.407141
 30
0.0
 11
86.554114
 21
252.857141
 31
0.0
  0
LINE
  8
LC-006-005-----0
 62
     2
  5
23A
 10
91.004114
 20
239.921859
 30
0.0
 11
86.369022
 21
244.556952
 31
0.0
  0
LINE
  8
LC-006-005-----0
 62
     2
  5
23B
 10
91.004114
 20
231.436578
 30
0.0
 11
81.254114
 21
241.186578
 31
0.0
  0
LINE
  8
LC-006-005-----0
 62
     2
  5
23C
 10
91.004114
 20
222.951296
 30
0.0
 11
81.254114
 21
232.701296
 31
0.0
  0
LINE
  8
LC-006-005-----0
 62
     2
  5
23D
 10
88.804821
 20
216.665308
 30
0.0
 11
81.254114
 21
224.216015
 31
0.0
  0
LINE
  8
LC-006-005-----0
 62
     2
  5
23E
 10
88.504821
 20
208.480027
 30
0.0
 11
81.254114
 21
215.730734
 31
0.0
  0
LINE
  8
LC-006-005-----0
 62
     2
  5
23F
 10
87.228654
 20
201.270913
 30
0.0
 11
80.048692
 21
208.450875
 31
0.0
  0
LINE
  8
LC-006-005-----0
 62
     2
  5
240
 10
79.063411
 20
200.950875
 30
0.0
 11
71.563411
 21
208.450875
 31
0.0
  0
LINE
  8
LC-006-005-----0
 62
     2
  5
241
 10
70.578129
 20
200.950875
 30
0.0
 11
63.078129
 21
208.450875
 31
0.0
  0
LINE
  8
LC-006-005-----0
 62
     2
  5
242
 10
62.092848
 20
200.950875
 30
0.0
 11
54.592848
 21
208.450875
 31
0.0
  0
LINE
  8
LC-006-005-----0
 62
     2
  5
243
 10
53.607567
 20
200.950875
 30
0.0
 11
51.004821
 21
203.55362
 31
0.0
  0
ENDBLK
  8
0
  5
244
  0
BLOCK
  8
0
  5
254
  2
*X15
 70
    65
 10
0.0
 20
0.0
 30
0.0
  3
*X15
  0
LINE
  8
LC-006-005-----0
 62
     2
  5
255
 10
-24.994868
 20
198.450875
 30
0.0
 11
-23.995179
 21
199.450564
 31
0.0
  0
LINE
  8
LC-006-005-----0
 62
     2
  5
256
 10
-27.823295
 20
198.450875
 30
0.0
 11
-25.323295
 21
200.950875
 31
0.0
  0
LINE
  8
LC-006-005-----0
 62
     2
  5
257
 10
-30.651722
 20
198.450875
 30
0.0
 11
-28.151722
 21
200.950875
 31
0.0
  0
LINE
  8
LC-006-005-----0
 62
     2
  5
258
 10
-33.48015
 20
198.450875
 30
0.0
 11
-30.98015
 21
200.950875
 31
0.0
  0
LINE
  8
LC-006-005-----0
 62
     2
  5
259
 10
-36.308577
 20
198.450875
 30
0.0
 11
-33.808577
 21
200.950875
 31
0.0
  0
LINE
  8
LC-006-005-----0
 62
     2
  5
25A
 10
-39.137004
 20
198.450875
 30
0.0
 11
-36.637004
 21
200.950875
 31
0.0
  0
LINE
  8
LC-006-005-----0
 62
     2
  5
25B
 10
-44.465431
 20
195.950875
 30
0.0
 11
-43.986482
 21
196.429823
 31
0.0
  0
LINE
  8
LC-006-005-----0
 62
     2
  5
25C
 10
-41.965431
 20
198.450875
 30
0.0
 11
-39.465431
 21
200.950875
 31
0.0
  0
LINE
  8
LC-006-005-----0
 62
     2
  5
25D
 10
-47.293858
 20
195.950875
 30
0.0
 11
-42.293858
 21
200.950875
 31
0.0
  0
LINE
  8
LC-006-005-----0
 62
     2
  5
25E
 10
-50.122285
 20
195.950875
 30
0.0
 11
-45.122285
 21
200.950875
 31
0.0
  0
LINE
  8
LC-006-005-----0
 62
     2
  5
25F
 10
-52.950712
 20
195.950875
 30
0.0
 11
-47.950712
 21
200.950875
 31
0.0
  0
LINE
  8
LC-006-005-----0
 62
     2
  5
260
 10
-53.987771
 20
197.742243
 30
0.0
 11
-50.779139
 21
200.950875
 31
0.0
  0
LINE
  8
LC-006-005-----0
 62
     2
  5
261
 10
-56.107567
 20
198.450875
 30
0.0
 11
-53.607567
 21
200.950875
 31
0.0
  0
LINE
  8
LC-006-005-----0
 62
     2
  5
262
 10
-58.935994
 20
198.450875
 30
0.0
 11
-56.435994
 21
200.950875
 31
0.0
  0
LINE
  8
LC-006-005-----0
 62
     2
  5
263
 10
-61.395754
 20
198.819542
 30
0.0
 11
-59.25127
 21
200.964026
 31
0.0
  0
LINE
  8
LC-006-005-----0
 62
     2
  5
264
 10
-63.32187
 20
199.721852
 30
0.0
 11
-61.036339
 21
202.007384
 31
0.0
  0
LINE
  8
LC-006-005-----0
 62
     2
  5
265
 10
-64.861068
 20
201.011082
 30
0.0
 11
-61.495179
 21
204.376971
 31
0.0
  0
LINE
  8
LC-006-005-----0
 62
     2
  5
266
 10
-66.040191
 20
202.660386
 30
0.0
 11
-61.495179
 21
207.205398
 31
0.0
  0
LINE
  8
LC-006-005-----0
 62
     2
  5
267
 10
-66.80629
 20
204.722714
 30
0.0
 11
-61.495179
 21
210.033825
 31
0.0
  0
LINE
  8
LC-006-005-----0
 62
     2
  5
268
 10
-66.995179
 20
207.362252
 30
0.0
 11
-65.906556
 21
208.450875
 31
0.0
  0
LINE
  8
LC-006-005-----0
 62
     2
  5
269
 10
-63.995179
 20
210.362252
 30
0.0
 11
-61.495179
 21
212.862252
 31
0.0
  0
LINE
  8
LC-006-005-----0
 62
     2
  5
26A
 10
-63.995179
 20
213.190679
 30
0.0
 11
-61.495179
 21
215.690679
 31
0.0
  0
LINE
  8
LC-006-005-----0
 62
     2
  5
26B
 10
-63.995179
 20
216.019107
 30
0.0
 11
-62.563411
 21
217.450875
 31
0.0
  0
ENDBLK
  8
0
  5
26C
  0
BLOCK
  8
0
  5
26F
  2
*X16
 70
    65
 10
0.0
 20
0.0
 30
0.0
  3
*X16
  0
LINE
  8
LC-006-005-----0
 62
     2
  5
270
 10
88.561885
 20
198.870543
 30
0.0
 11
93.585153
 21
203.89381
 31
0.0
  0
LINE
  8
LC-006-005-----0
 62
     2
  5
271
 10
85.31379
 20
198.450875
 30
0.0
 11
94.004821
 21
207.141906
 31
0.0
  0
LINE
  8
LC-006-005-----0
 62
     2
  5
272
 10
79.985363
 20
195.950875
 30
0.0
 11
80.997413
 21
196.962926
 31
0.0
  0
LINE
  8
LC-006-005-----0
 62
     2
  5
273
 10
82.485363
 20
198.450875
 30
0.0
 11
84.985363
 21
200.950875
 31
0.0
  0
LINE
  8
LC-006-005-----0
 62
     2
  5
274
 10
88.504821
 20
204.470333
 30
0.0
 11
92.485363
 21
208.450875
 31
0.0
  0
LINE
  8
LC-006-005-----0
 62
     2
  5
275
 10
77.156935
 20
195.950875
 30
0.0
 11
82.156935
 21
200.950875
 31
0.0
  0
LINE
  8
LC-006-005-----0
 62
     2
  5
276
 10
88.504821
 20
207.298761
 30
0.0
 11
91.004821
 21
209.798761
 31
0.0
  0
LINE
  8
LC-006-005-----0
 62
     2
  5
277
 10
74.328508
 20
195.950875
 30
0.0
 11
79.328508
 21
200.950875
 31
0.0
  0
LINE
  8
LC-006-005-----0
 62
     2
  5
278
 10
88.504821
 20
210.127188
 30
0.0
 11
91.004821
 21
212.627188
 31
0.0
  0
LINE
  8
LC-006-005-----0
 62
     2
  5
279
 10
71.500081
 20
195.950875
 30
0.0
 11
76.500081
 21
200.950875
 31
0.0
  0
LINE
  8
LC-006-005-----0
 62
     2
  5
27A
 10
88.504821
 20
212.955615
 30
0.0
 11
91.004821
 21
215.455615
 31
0.0
  0
LINE
  8
LC-006-005-----0
 62
     2
  5
27B
 10
70.996125
 20
198.275346
 30
0.0
 11
73.671654
 21
200.950875
 31
0.0
  0
LINE
  8
LC-006-005-----0
 62
     2
  5
27C
 10
88.504821
 20
215.784042
 30
0.0
 11
88.671654
 21
215.950875
 31
0.0
  0
LINE
  8
LC-006-005-----0
 62
     2
  5
27D
 10
88.804821
 20
216.084042
 30
0.0
 11
90.171654
 21
217.450875
 31
0.0
  0
LINE
  8
LC-006-005-----0
 62
     2
  5
27E
 10
68.343227
 20
198.450875
 30
0.0
 11
70.843227
 21
200.950875
 31
0.0
  0
LINE
  8
LC-006-005-----0
 62
     2
  5
27F
 10
65.5148
 20
198.450875
 30
0.0
 11
68.0148
 21
200.950875
 31
0.0
  0
LINE
  8
LC-006-005-----0
 62
     2
  5
280
 10
62.686373
 20
198.450875
 30
0.0
 11
65.186373
 21
200.950875
 31
0.0
  0
LINE
  8
LC-006-005-----0
 62
     2
  5
281
 10
59.857946
 20
198.450875
 30
0.0
 11
62.357946
 21
200.950875
 31
0.0
  0
LINE
  8
LC-006-005-----0
 62
     2
  5
282
 10
57.029518
 20
198.450875
 30
0.0
 11
59.529518
 21
200.950875
 31
0.0
  0
LINE
  8
LC-006-005-----0
 62
     2
  5
283
 10
54.201091
 20
198.450875
 30
0.0
 11
56.701091
 21
200.950875
 31
0.0
  0
LINE
  8
LC-006-005-----0
 62
     2
  5
284
 10
51.372664
 20
198.450875
 30
0.0
 11
53.872664
 21
200.950875
 31
0.0
  0
LINE
  8
LC-006-005-----0
 62
     2
  5
285
 10
51.004821
 20
200.911459
 30
0.0
 11
51.044237
 21
200.950875
 31
0.0
  0
ENDBLK
  8
0
  5
286
  0
BLOCK
  8
0
  5
28D
  2
*X17
 70
    65
 10
0.0
 20
0.0
 30
0.0
  3
*X17
  0
LINE
  8
LC-006-005-----0
 62
     2
  5
28E
 10
-68.695354
 20
270.715901
 30
0.0
 11
-67.99512
 21
271.416135
 31
0.0
  0
LINE
  8
LC-006-005-----0
 62
     2
  5
28F
 10
-70.109571
 20
270.715898
 30
0.0
 11
-69.109569
 21
271.7159
 31
0.0
  0
LINE
  8
LC-006-005-----0
 62
     2
  5
290
 10
-71.523519
 20
270.716163
 30
0.0
 11
-70.523785
 21
271.715897
 31
0.0
  0
LINE
  8
LC-006-005-----0
 62
     2
  5
291
 10
-72.526838
 20
271.127058
 30
0.0
 11
-71.81896
 21
271.834935
 31
0.0
  0
LINE
  8
LC-006-005-----0
 62
     2
  5
292
 10
-72.988885
 20
272.079225
 30
0.0
 11
-71.995124
 21
273.072985
 31
0.0
  0
LINE
  8
LC-006-005-----0
 62
     2
  5
293
 10
-72.995124
 20
273.487199
 30
0.0
 11
-72.141191
 21
274.341132
 31
0.0
  0
LINE
  8
LC-006-005-----0
 62
     2
  5
294
 10
-73.701055
 20
274.195481
 30
0.0
 11
-72.847882
 21
275.048654
 31
0.0
  0
LINE
  8
LC-006-005-----0
 62
     2
  5
295
 10
-75.115269
 20
274.195481
 30
0.0
 11
-74.115269
 21
275.195481
 31
0.0
  0
LINE
  8
LC-006-005-----0
 62
     2
  5
296
 10
-76.529186
 20
274.195777
 30
0.0
 11
-75.529482
 21
275.195481
 31
0.0
  0
LINE
  8
LC-006-005-----0
 62
     2
  5
297
 10
-76.995132
 20
275.144045
 30
0.0
 11
-76.943696
 21
275.195481
 31
0.0
  0
LINE
  8
LC-006-005-----0
 62
     2
  5
298
 10
-85.014764
 20
274.195481
 30
0.0
 11
-84.014764
 21
275.195481
 31
0.0
  0
LINE
  8
LC-006-005-----0
 62
     2
  5
299
 10
-86.428977
 20
274.195481
 30
0.0
 11
-85.428977
 21
275.195481
 31
0.0
  0
LINE
  8
LC-006-005-----0
 62
     2
  5
29A
 10
-87.477101
 20
274.561571
 30
0.0
 11
-86.764459
 21
275.274213
 31
0.0
  0
LINE
  8
LC-006-005-----0
 62
     2
  5
29B
 10
-87.978723
 20
275.474163
 30
0.0
 11
-86.99514
 21
276.457746
 31
0.0
  0
LINE
  8
LC-006-005-----0
 62
     2
  5
29C
 10
-87.99514
 20
276.871959
 30
0.0
 11
-86.99514
 21
277.871959
 31
0.0
  0
LINE
  8
LC-006-005-----0
 62
     2
  5
29D
 10
-87.99514
 20
278.286173
 30
0.0
 11
-86.99514
 21
279.286173
 31
0.0
  0
LINE
  8
LC-006-005-----0
 62
     2
  5
29E
 10
-87.99514
 20
279.700386
 30
0.0
 11
-86.99514
 21
280.700386
 31
0.0
  0
LINE
  8
LC-006-005-----0
 62
     2
  5
29F
 10
-87.99514
 20
281.1146
 30
0.0
 11
-86.99514
 21
282.1146
 31
0.0
  0
LINE
  8
LC-006-005-----0
 62
     2
  5
2A0
 10
-87.99514
 20
282.528813
 30
0.0
 11
-86.99514
 21
283.528813
 31
0.0
  0
LINE
  8
LC-006-005-----0
 62
     2
  5
2A1
 10
-87.99514
 20
283.943027
 30
0.0
 11
-86.99514
 21
284.943027
 31
0.0
  0
LINE
  8
LC-006-005-----0
 62
     2
  5
2A2
 10
-87.99514
 20
285.357241
 30
0.0
 11
-86.99514
 21
286.357241
 31
0.0
  0
LINE
  8
LC-006-005-----0
 62
     2
  5
2A3
 10
-87.99514
 20
286.771454
 30
0.0
 11
-87.055773
 21
287.710821
 31
0.0
  0
LINE
  8
LC-006-005-----0
 62
     2
  5
2A4
 10
-88.396109
 20
287.784699
 30
0.0
 11
-87.651727
 21
288.52908
 31
0.0
  0
LINE
  8
LC-006-005-----0
 62
     2
  5
2A5
 10
-89.432945
 20
288.162077
 30
0.0
 11
-88.652739
 21
288.942283
 31
0.0
  0
LINE
  8
LC-006-005-----0
 62
     2
  5
2A6
 10
-90.469781
 20
288.539454
 30
0.0
 11
-89.689575
 21
289.31966
 31
0.0
  0
LINE
  8
LC-006-005-----0
 62
     2
  5
2A7
 10
-91.506617
 20
288.916831
 30
0.0
 11
-90.726411
 21
289.697037
 31
0.0
  0
LINE
  8
LC-006-005-----0
 62
     2
  5
2A8
 10
-92.543453
 20
289.294209
 30
0.0
 11
-91.763247
 21
290.074415
 31
0.0
  0
LINE
  8
LC-006-005-----0
 62
     2
  5
2A9
 10
-93.580289
 20
289.671586
 30
0.0
 11
-92.800083
 21
290.451792
 31
0.0
  0
LINE
  8
LC-006-005-----0
 62
     2
  5
2AA
 10
-94.617125
 20
290.048964
 30
0.0
 11
-93.836919
 21
290.82917
 31
0.0
  0
LINE
  8
LC-006-005-----0
 62
     2
  5
2AB
 10
-95.653961
 20
290.426341
 30
0.0
 11
-94.873755
 21
291.206547
 31
0.0
  0
LINE
  8
LC-006-005-----0
 62
     2
  5
2AC
 10
-96.690797
 20
290.803719
 30
0.0
 11
-95.910591
 21
291.583925
 31
0.0
  0
LINE
  8
LC-006-005-----0
 62
     2
  5
2AD
 10
-97.727633
 20
291.181096
 30
0.0
 11
-96.947427
 21
291.961302
 31
0.0
  0
LINE
  8
LC-006-005-----0
 62
     2
  5
2AE
 10
-98.764469
 20
291.558474
 30
0.0
 11
-97.984263
 21
292.33868
 31
0.0
  0
LINE
  8
LC-006-005-----0
 62
     2
  5
2AF
 10
-99.801306
 20
291.935851
 30
0.0
 11
-99.0211
 21
292.716057
 31
0.0
  0
LINE
  8
LC-006-005-----0
 62
     2
  5
2B0
 10
-100.838142
 20
292.313229
 30
0.0
 11
-100.057936
 21
293.093435
 31
0.0
  0
LINE
  8
LC-006-005-----0
 62
     2
  5
2B1
 10
-101.874978
 20
292.690606
 30
0.0
 11
-101.094772
 21
293.470812
 31
0.0
  0
LINE
  8
LC-006-005-----0
 62
     2
  5
2B2
 10
-102.911814
 20
293.067984
 30
0.0
 11
-102.131608
 21
293.84819
 31
0.0
  0
LINE
  8
LC-006-005-----0
 62
     2
  5
2B3
 10
-103.94865
 20
293.445361
 30
0.0
 11
-103.168444
 21
294.225567
 31
0.0
  0
LINE
  8
LC-006-005-----0
 62
     2
  5
2B4
 10
-104.985486
 20
293.822739
 30
0.0
 11
-104.20528
 21
294.602945
 31
0.0
  0
LINE
  8
LC-006-005-----0
 62
     2
  5
2B5
 10
-106.022322
 20
294.200116
 30
0.0
 11
-105.242116
 21
294.980322
 31
0.0
  0
LINE
  8
LC-006-005-----0
 62
     2
  5
2B6
 10
-107.059158
 20
294.577494
 30
0.0
 11
-106.278952
 21
295.3577
 31
0.0
  0
LINE
  8
LC-006-005-----0
 62
     2
  5
2B7
 10
-108.095994
 20
294.954871
 30
0.0
 11
-107.315788
 21
295.735077
 31
0.0
  0
LINE
  8
LC-006-005-----0
 62
     2
  5
2B8
 10
-109.13283
 20
295.332249
 30
0.0
 11
-108.352624
 21
296.112455
 31
0.0
  0
LINE
  8
LC-006-005-----0
 62
     2
  5
2B9
 10
-110.169666
 20
295.709626
 30
0.0
 11
-109.38946
 21
296.489832
 31
0.0
  0
LINE
  8
LC-006-005-----0
 62
     2
  5
2BA
 10
-111.206503
 20
296.087003
 30
0.0
 11
-110.426296
 21
296.867209
 31
0.0
  0
ENDBLK
  8
0
  5
2BB
  0
BLOCK
  8
0
  5
2E7
  2
*X18
 70
    65
 10
0.0
 20
0.0
 30
0.0
  3
*X18
  0
LINE
  8
LC-006-005-----0
 62
     2
  5
2E8
 10
137.39815
 20
295.790069
 30
0.0
 11
138.316974
 21
296.708893
 31
0.0
  0
LINE
  8
LC-006-005-----0
 62
     2
  5
2E9
 10
135.174624
 20
294.980756
 30
0.0
 11
136.847803
 21
296.653936
 31
0.0
  0
LINE
  8
LC-006-005-----0
 62
     2
  5
2EA
 10
112.975758
 20
274.196104
 30
0.0
 11
115.004869
 21
276.225215
 31
0.0
  0
LINE
  8
LC-006-005-----0
 62
     2
  5
2EB
 10
132.951097
 20
294.171443
 30
0.0
 11
134.624276
 21
295.844622
 31
0.0
  0
LINE
  8
LC-006-005-----0
 62
     2
  5
2EC
 10
111.561536
 20
274.196095
 30
0.0
 11
112.561542
 21
275.196102
 31
0.0
  0
LINE
  8
LC-006-005-----0
 62
     2
  5
2ED
 10
114.004854
 20
276.639413
 30
0.0
 11
115.004859
 21
277.639419
 31
0.0
  0
LINE
  8
LC-006-005-----0
 62
     2
  5
2EE
 10
130.72757
 20
293.362129
 30
0.0
 11
132.400749
 21
295.035309
 31
0.0
  0
LINE
  8
LC-006-005-----0
 62
     2
  5
2EF
 10
111.004869
 20
275.053642
 30
0.0
 11
111.14732
 21
275.196093
 31
0.0
  0
LINE
  8
LC-006-005-----0
 62
     2
  5
2F0
 10
114.004844
 20
278.053617
 30
0.0
 11
115.00485
 21
279.053623
 31
0.0
  0
LINE
  8
LC-006-005-----0
 62
     2
  5
2F1
 10
128.504043
 20
292.552816
 30
0.0
 11
130.177222
 21
294.225996
 31
0.0
  0
LINE
  8
LC-006-005-----0
 62
     2
  5
2F2
 10
114.004834
 20
279.467821
 30
0.0
 11
115.00484
 21
280.467827
 31
0.0
  0
LINE
  8
LC-006-005-----0
 62
     2
  5
2F3
 10
126.280516
 20
291.743502
 30
0.0
 11
127.953695
 21
293.416682
 31
0.0
  0
LINE
  8
LC-006-005-----0
 62
     2
  5
2F4
 10
114.004825
 20
280.882025
 30
0.0
 11
115.00483
 21
281.882031
 31
0.0
  0
LINE
  8
LC-006-005-----0
 62
     2
  5
2F5
 10
124.056989
 20
290.934189
 30
0.0
 11
125.730168
 21
292.607369
 31
0.0
  0
LINE
  8
LC-006-005-----0
 62
     2
  5
2F6
 10
114.004815
 20
282.296229
 30
0.0
 11
115.004821
 21
283.296234
 31
0.0
  0
LINE
  8
LC-006-005-----0
 62
     2
  5
2F7
 10
121.833462
 20
290.124876
 30
0.0
 11
123.506641
 21
291.798055
 31
0.0
  0
LINE
  8
LC-006-005-----0
 62
     2
  5
2F8
 10
114.004805
 20
283.710433
 30
0.0
 11
115.004811
 21
284.710438
 31
0.0
  0
LINE
  8
LC-006-005-----0
 62
     2
  5
2F9
 10
119.609935
 20
289.315562
 30
0.0
 11
121.283114
 21
290.988742
 31
0.0
  0
LINE
  8
LC-006-005-----0
 62
     2
  5
2FA
 10
103.076201
 20
274.196042
 30
0.0
 11
104.004868
 21
275.124709
 31
0.0
  0
LINE
  8
LC-006-005-----0
 62
     2
  5
2FB
 10
114.004795
 20
285.124637
 30
0.0
 11
115.004801
 21
286.124642
 31
0.0
  0
LINE
  8
LC-006-005-----0
 62
     2
  5
2FC
 10
117.386408
 20
288.506249
 30
0.0
 11
119.059587
 21
290.179428
 31
0.0
  0
LINE
  8
LC-006-005-----0
 62
     2
  5
2FD
 10
98.182371
 20
270.716426
 30
0.0
 11
100.004871
 21
272.538926
 31
0.0
  0
LINE
  8
LC-006-005-----0
 62
     2
  5
2FE
 10
101.661979
 20
274.196033
 30
0.0
 11
102.661985
 21
275.19604
 31
0.0
  0
LINE
  8
LC-006-005-----0
 62
     2
  5
2FF
 10
114.004786
 20
286.53884
 30
0.0
 11
116.83606
 21
289.370115
 31
0.0
  0
LINE
  8
LC-006-005-----0
 62
     2
  5
300
 10
96.768151
 20
270.716419
 30
0.0
 11
97.768156
 21
271.716424
 31
0.0
  0
LINE
  8
LC-006-005-----0
 62
     2
  5
301
 10
99.00487
 20
272.953138
 30
0.0
 11
101.247763
 21
275.196031
 31
0.0
  0
LINE
  8
LC-006-005-----0
 62
     2
  5
302
 10
95.353931
 20
270.716412
 30
0.0
 11
96.353935
 21
271.716417
 31
0.0
  0
ENDBLK
  8
0
  5
303
  0
BLOCK
  8
0
  5
328
  2
*X19
 70
    65
 10
0.0
 20
0.0
 30
0.0
  3
*X19
  0
LINE
  8
LC-006-005-----0
 62
     2
  5
329
 10
-75.02068
 20
300.587743
 30
0.0
 11
-75.122212
 21
300.689275
 31
0.0
  0
LINE
  8
LC-006-005-----0
 62
     2
  5
32A
 10
-75.126874
 20
299.986831
 30
0.0
 11
-75.586141
 21
300.446097
 31
0.0
  0
LINE
  8
LC-006-005-----0
 62
     2
  5
32B
 10
-75.590804
 20
299.743653
 30
0.0
 11
-76.05007
 21
300.20292
 31
0.0
  0
LINE
  8
LC-006-005-----0
 62
     2
  5
32C
 10
-76.054733
 20
299.500476
 30
0.0
 11
-76.596752
 21
300.042495
 31
0.0
  0
LINE
  8
LC-006-005-----0
 62
     2
  5
32D
 10
-76.603859
 20
299.342495
 30
0.0
 11
-77.301054
 21
300.03969
 31
0.0
  0
LINE
  8
LC-006-005-----0
 62
     2
  5
32E
 10
-83.701054
 20
299.368622
 30
0.0
 11
-84.374926
 21
300.042495
 31
0.0
  0
LINE
  8
LC-006-005-----0
 62
     2
  5
32F
 10
-84.382033
 20
299.342495
 30
0.0
 11
-84.932073
 21
299.892534
 31
0.0
  0
LINE
  8
LC-006-005-----0
 62
     2
  5
330
 10
-84.936735
 20
299.19009
 30
0.0
 11
-85.396002
 21
299.649357
 31
0.0
  0
LINE
  8
LC-006-005-----0
 62
     2
  5
331
 10
-85.400665
 20
298.946913
 30
0.0
 11
-85.859931
 21
299.406179
 31
0.0
  0
LINE
  8
LC-006-005-----0
 62
     2
  5
332
 10
-85.864594
 20
298.703735
 30
0.0
 11
-85.981428
 21
298.820569
 31
0.0
  0
ENDBLK
  8
0
  5
333
  0
BLOCK
  8
0
  5
34F
  2
*X20
 70
    65
 10
0.0
 20
0.0
 30
0.0
  3
*X20
  0
LINE
  8
LC-006-005-----0
 62
     2
  5
350
 10
112.991157
 20
299.252096
 30
0.0
 11
112.801177
 21
299.442076
 31
0.0
  0
LINE
  8
LC-006-005-----0
 62
     2
  5
351
 10
112.786242
 20
298.749905
 30
0.0
 11
111.493652
 21
300.042495
 31
0.0
  0
LINE
  8
LC-006-005-----0
 62
     2
  5
352
 10
111.486545
 20
299.342495
 30
0.0
 11
110.786545
 21
300.042495
 31
0.0
  0
LINE
  8
LC-006-005-----0
 62
     2
  5
353
 10
110.779438
 20
299.342495
 30
0.0
 11
110.710783
 21
299.41115
 31
0.0
  0
LINE
  8
LC-006-005-----0
 62
     2
  5
354
 10
104.310783
 20
299.447189
 30
0.0
 11
103.715477
 21
300.042495
 31
0.0
  0
LINE
  8
LC-006-005-----0
 62
     2
  5
355
 10
103.708371
 20
299.342495
 30
0.0
 11
102.61457
 21
300.436296
 31
0.0
  0
LINE
  8
LC-006-005-----0
 62
     2
  5
356
 10
102.599634
 20
299.744125
 30
0.0
 11
102.030409
 21
300.313349
 31
0.0
  0
ENDBLK
  8
0
  5
357
  0
BLOCK
  8
0
  5
450
  2
*X21
 70
    65
 10
0.0
 20
0.0
 30
0.0
  3
*X21
  0
LINE
  8
LC-004-003-----0
 62
     2
  5
451
 10
-23.873113
 20
145.495479
 30
0.0
 11
-21.495226
 21
143.117592
 31
0.0
  0
LINE
  8
LC-004-003-----0
 62
     2
  5
452
 10
-23.995135
 20
148.445929
 30
0.0
 11
-21.495609
 21
145.946402
 31
0.0
  0
LINE
  8
LC-004-003-----0
 62
     2
  5
453
 10
-23.995135
 20
151.274356
 30
0.0
 11
-21.495992
 21
148.775212
 31
0.0
  0
LINE
  8
LC-004-003-----0
 62
     2
  5
454
 10
-23.995135
 20
154.102783
 30
0.0
 11
-21.496375
 21
151.604023
 31
0.0
  0
LINE
  8
LC-004-003-----0
 62
     2
  5
455
 10
-23.995135
 20
156.93121
 30
0.0
 11
-21.496758
 21
154.432833
 31
0.0
  0
LINE
  8
LC-004-003-----0
 62
     2
  5
456
 10
-23.995135
 20
159.759637
 30
0.0
 11
-21.497141
 21
157.261643
 31
0.0
  0
LINE
  8
LC-004-003-----0
 62
     2
  5
457
 10
-163.495135
 20
302.088064
 30
0.0
 11
-160.778721
 21
299.37165
 31
0.0
  0
LINE
  8
LC-004-003-----0
 62
     2
  5
458
 10
-23.995135
 20
162.588065
 30
0.0
 11
-21.497524
 21
160.090453
 31
0.0
  0
LINE
  8
LC-004-003-----0
 62
     2
  5
459
 10
-160.950294
 20
302.37165
 30
0.0
 11
-157.950305
 21
299.371661
 31
0.0
  0
LINE
  8
LC-004-003-----0
 62
     2
  5
45A
 10
-23.995135
 20
165.416492
 30
0.0
 11
-21.497907
 21
162.919263
 31
0.0
  0
LINE
  8
LC-004-003-----0
 62
     2
  5
45B
 10
-158.121877
 20
302.37166
 30
0.0
 11
-155.121888
 21
299.371671
 31
0.0
  0
LINE
  8
LC-004-003-----0
 62
     2
  5
45C
 10
-66.495135
 20
210.744919
 30
0.0
 11
-64.201091
 21
208.450875
 31
0.0
  0
LINE
  8
LC-004-003-----0
 62
     2
  5
45D
 10
-23.995135
 20
168.244919
 30
0.0
 11
-21.49829
 21
165.748073
 31
0.0
  0
LINE
  8
LC-004-003-----0
 62
     2
  5
45E
 10
-155.29346
 20
302.371671
 30
0.0
 11
-152.293471
 21
299.371682
 31
0.0
  0
LINE
  8
LC-004-003-----0
 62
     2
  5
45F
 10
-66.495135
 20
213.573346
 30
0.0
 11
-63.994429
 21
211.072639
 31
0.0
  0
LINE
  8
LC-004-003-----0
 62
     2
  5
460
 10
-23.995135
 20
171.073346
 30
0.0
 11
-21.498673
 21
168.576884
 31
0.0
  0
LINE
  8
LC-004-003-----0
 62
     2
  5
461
 10
-152.465044
 20
302.371681
 30
0.0
 11
-149.465055
 21
299.371692
 31
0.0
  0
LINE
  8
LC-004-003-----0
 62
     2
  5
462
 10
-66.495135
 20
216.401773
 30
0.0
 11
-63.994429
 21
213.901066
 31
0.0
  0
LINE
  8
LC-004-003-----0
 62
     2
  5
463
 10
-23.995135
 20
173.901773
 30
0.0
 11
-21.499056
 21
171.405694
 31
0.0
  0
LINE
  8
LC-004-003-----0
 62
     2
  5
464
 10
-149.636627
 20
302.371692
 30
0.0
 11
-146.636638
 21
299.371703
 31
0.0
  0
LINE
  8
LC-004-003-----0
 62
     2
  5
465
 10
-66.495135
 20
219.2302
 30
0.0
 11
-63.994429
 21
216.729493
 31
0.0
  0
LINE
  8
LC-004-003-----0
 62
     2
  5
466
 10
-23.995135
 20
176.7302
 30
0.0
 11
-21.499439
 21
174.234504
 31
0.0
  0
LINE
  8
LC-004-003-----0
 62
     2
  5
467
 10
-146.80821
 20
302.371702
 30
0.0
 11
-143.808221
 21
299.371713
 31
0.0
  0
LINE
  8
LC-004-003-----0
 62
     2
  5
468
 10
-66.495135
 20
222.058627
 30
0.0
 11
-63.994429
 21
219.55792
 31
0.0
  0
LINE
  8
LC-004-003-----0
 62
     2
  5
469
 10
-54.244429
 20
209.80792
 30
0.0
 11
-52.887383
 21
208.450875
 31
0.0
  0
LINE
  8
LC-004-003-----0
 62
     2
  5
46A
 10
-23.995135
 20
179.558627
 30
0.0
 11
-21.499822
 21
177.063314
 31
0.0
  0
LINE
  8
LC-004-003-----0
 62
     2
  5
46B
 10
-143.979794
 20
302.371713
 30
0.0
 11
-140.979805
 21
299.371724
 31
0.0
  0
LINE
  8
LC-004-003-----0
 62
     2
  5
46C
 10
-66.495135
 20
224.887054
 30
0.0
 11
-63.994429
 21
222.386348
 31
0.0
  0
LINE
  8
LC-004-003-----0
 62
     2
  5
46D
 10
-54.244429
 20
212.636348
 30
0.0
 11
-50.058956
 21
208.450875
 31
0.0
  0
LINE
  8
LC-004-003-----0
 62
     2
  5
46E
 10
-23.995135
 20
182.387054
 30
0.0
 11
-21.500205
 21
179.892124
 31
0.0
  0
LINE
  8
LC-004-003-----0
 62
     2
  5
46F
 10
-141.151377
 20
302.371723
 30
0.0
 11
-138.151388
 21
299.371734
 31
0.0
  0
LINE
  8
LC-004-003-----0
 62
     2
  5
470
 10
-66.495135
 20
227.715482
 30
0.0
 11
-63.994429
 21
225.214775
 31
0.0
  0
LINE
  8
LC-004-003-----0
 62
     2
  5
471
 10
-54.244429
 20
215.464775
 30
0.0
 11
-47.230529
 21
208.450875
 31
0.0
  0
LINE
  8
LC-004-003-----0
 62
     2
  5
472
 10
-23.995135
 20
185.215482
 30
0.0
 11
-21.500588
 21
182.720934
 31
0.0
  0
LINE
  8
LC-004-003-----0
 62
     2
  5
473
 10
-138.32296
 20
302.371733
 30
0.0
 11
-135.322971
 21
299.371744
 31
0.0
  0
LINE
  8
LC-004-003-----0
 62
     2
  5
474
 10
-66.495135
 20
230.543909
 30
0.0
 11
-63.994429
 21
228.043202
 31
0.0
  0
LINE
  8
LC-004-003-----0
 62
     2
  5
475
 10
-54.244429
 20
218.293202
 30
0.0
 11
-50.995135
 21
215.043909
 31
0.0
  0
LINE
  8
LC-004-003-----0
 62
     2
  5
476
 10
-49.868293
 20
213.917067
 30
0.0
 11
-44.402101
 21
208.450875
 31
0.0
  0
LINE
  8
LC-004-003-----0
 62
     2
  5
477
 10
-23.995135
 20
188.043909
 30
0.0
 11
-21.500971
 21
185.549745
 31
0.0
  0
LINE
  8
LC-004-003-----0
 62
     2
  5
478
 10
-135.494543
 20
302.371744
 30
0.0
 11
-132.494554
 21
299.371755
 31
0.0
  0
LINE
  8
LC-004-003-----0
 62
     2
  5
479
 10
-66.495135
 20
233.372336
 30
0.0
 11
-63.994429
 21
230.871629
 31
0.0
  0
LINE
  8
LC-004-003-----0
 62
     2
  5
47A
 10
-54.244429
 20
221.121629
 30
0.0
 11
-50.995135
 21
217.872336
 31
0.0
  0
LINE
  8
LC-004-003-----0
 62
     2
  5
47B
 10
-46.646783
 20
213.523983
 30
0.0
 11
-41.573674
 21
208.450875
 31
0.0
  0
LINE
  8
LC-004-003-----0
 62
     2
  5
47C
 10
-23.995135
 20
190.872336
 30
0.0
 11
-21.501354
 21
188.378555
 31
0.0
  0
LINE
  8
LC-004-003-----0
 62
     2
  5
47D
 10
-132.666127
 20
302.371754
 30
0.0
 11
-129.666138
 21
299.371765
 31
0.0
  0
LINE
  8
LC-004-003-----0
 62
     2
  5
47E
 10
-66.495135
 20
236.200763
 30
0.0
 11
-63.994429
 21
233.700056
 31
0.0
  0
LINE
  8
LC-004-003-----0
 62
     2
  5
47F
 10
-54.244429
 20
223.950056
 30
0.0
 11
-50.995135
 21
220.700763
 31
0.0
  0
LINE
  8
LC-004-003-----0
 62
     2
  5
480
 10
-43.425272
 20
213.130899
 30
0.0
 11
-38.745247
 21
208.450875
 31
0.0
  0
LINE
  8
LC-004-003-----0
 62
     2
  5
481
 10
-23.995135
 20
193.700763
 30
0.0
 11
-21.501737
 21
191.207365
 31
0.0
  0
LINE
  8
LC-004-003-----0
 62
     2
  5
482
 10
-129.83771
 20
302.371765
 30
0.0
 11
-126.837721
 21
299.371776
 31
0.0
  0
LINE
  8
LC-004-003-----0
 62
     2
  5
483
 10
-66.495135
 20
239.02919
 30
0.0
 11
-63.994429
 21
236.528483
 31
0.0
  0
LINE
  8
LC-004-003-----0
 62
     2
  5
484
 10
-54.244429
 20
226.778483
 30
0.0
 11
-50.995135
 21
223.52919
 31
0.0
  0
LINE
  8
LC-004-003-----0
 62
     2
  5
485
 10
-40.203761
 20
212.737815
 30
0.0
 11
-35.91682
 21
208.450875
 31
0.0
  0
LINE
  8
LC-004-003-----0
 62
     2
  5
486
 10
-23.995135
 20
196.52919
 30
0.0
 11
-21.50212
 21
194.036175
 31
0.0
  0
LINE
  8
LC-004-003-----0
 62
     2
  5
487
 10
-127.009293
 20
302.371775
 30
0.0
 11
-124.009304
 21
299.371786
 31
0.0
  0
LINE
  8
LC-004-003-----0
 62
     2
  5
488
 10
-66.495135
 20
241.857617
 30
0.0
 11
-63.994429
 21
239.35691
 31
0.0
  0
LINE
  8
LC-004-003-----0
 62
     2
  5
489
 10
-54.244429
 20
229.60691
 30
0.0
 11
-50.995135
 21
226.357617
 31
0.0
  0
LINE
  8
LC-004-003-----0
 62
     2
  5
48A
 10
-36.98225
 20
212.344732
 30
0.0
 11
-33.088393
 21
208.450875
 31
0.0
  0
LINE
  8
LC-004-003-----0
 62
     2
  5
48B
 10
-23.995135
 20
199.357617
 30
0.0
 11
-21.502503
 21
196.864985
 31
0.0
  0
LINE
  8
LC-004-003-----0
 62
     2
  5
48C
 10
-124.180877
 20
302.371786
 30
0.0
 11
-121.180888
 21
299.371797
 31
0.0
  0
LINE
  8
LC-004-003-----0
 62
     2
  5
48D
 10
-66.495135
 20
244.686044
 30
0.0
 11
-63.994429
 21
242.185337
 31
0.0
  0
LINE
  8
LC-004-003-----0
 62
     2
  5
48E
 10
-54.244429
 20
232.435337
 30
0.0
 11
-50.995135
 21
229.186044
 31
0.0
  0
LINE
  8
LC-004-003-----0
 62
     2
  5
48F
 10
-33.760739
 20
211.951648
 30
0.0
 11
-30.259966
 21
208.450875
 31
0.0
  0
LINE
  8
LC-004-003-----0
 62
     2
  5
490
 10
-23.995135
 20
202.186044
 30
0.0
 11
-21.502886
 21
199.693795
 31
0.0
  0
LINE
  8
LC-004-003-----0
 62
     2
  5
491
 10
-121.35246
 20
302.371796
 30
0.0
 11
-118.352471
 21
299.371807
 31
0.0
  0
LINE
  8
LC-004-003-----0
 62
     2
  5
492
 10
-66.495135
 20
247.514471
 30
0.0
 11
-63.994429
 21
245.013765
 31
0.0
  0
LINE
  8
LC-004-003-----0
 62
     2
  5
493
 10
-54.244429
 20
235.263765
 30
0.0
 11
-50.995135
 21
232.014471
 31
0.0
  0
LINE
  8
LC-004-003-----0
 62
     2
  5
494
 10
-30.539228
 20
211.558564
 30
0.0
 11
-27.431539
 21
208.450875
 31
0.0
  0
LINE
  8
LC-004-003-----0
 62
     2
  5
495
 10
-23.995135
 20
205.014471
 30
0.0
 11
-21.50327
 21
202.522606
 31
0.0
  0
LINE
  8
LC-004-003-----0
 62
     2
  5
496
 10
-118.524043
 20
302.371807
 30
0.0
 11
-115.524054
 21
299.371817
 31
0.0
  0
LINE
  8
LC-004-003-----0
 62
     2
  5
497
 10
-66.495135
 20
250.342899
 30
0.0
 11
-63.994429
 21
247.842192
 31
0.0
  0
LINE
  8
LC-004-003-----0
 62
     2
  5
498
 10
-54.244429
 20
238.092192
 30
0.0
 11
-50.995135
 21
234.842899
 31
0.0
  0
LINE
  8
LC-004-003-----0
 62
     2
  5
499
 10
-27.317717
 20
211.16548
 30
0.0
 11
-24.410962
 21
208.258725
 31
0.0
  0
LINE
  8
LC-004-003-----0
 62
     2
  5
49A
 10
-23.995135
 20
207.842899
 30
0.0
 11
-21.503653
 21
205.351416
 31
0.0
  0
LINE
  8
LC-004-003-----0
 62
     2
  5
49B
 10
-115.695627
 20
302.371817
 30
0.0
 11
-111.783176
 21
298.459366
 31
0.0
  0
LINE
  8
LC-004-003-----0
 62
     2
  5
49C
 10
-66.495135
 20
253.171326
 30
0.0
 11
-63.994429
 21
250.670619
 31
0.0
  0
LINE
  8
LC-004-003-----0
 62
     2
  5
49D
 10
-59.544429
 20
246.220619
 30
0.0
 11
-56.324798
 21
243.000988
 31
0.0
  0
LINE
  8
LC-004-003-----0
 62
     2
  5
49E
 10
-54.244429
 20
240.920619
 30
0.0
 11
-50.995135
 21
237.671326
 31
0.0
  0
LINE
  8
LC-004-003-----0
 62
     2
  5
49F
 10
-24.096206
 20
210.772396
 30
0.0
 11
-21.504036
 21
208.180226
 31
0.0
  0
LINE
  8
LC-004-003-----0
 62
     2
  5
4A0
 10
-112.209834
 20
301.714451
 30
0.0
 11
-107.336206
 21
296.840823
 31
0.0
  0
LINE
  8
LC-004-003-----0
 62
     2
  5
4A1
 10
-86.448711
 20
275.953328
 30
0.0
 11
-85.69115
 21
275.195768
 31
0.0
  0
LINE
  8
LC-004-003-----0
 62
     2
  5
4A2
 10
-66.495135
 20
255.999753
 30
0.0
 11
-63.994429
 21
253.499046
 31
0.0
  0
LINE
  8
LC-004-003-----0
 62
     2
  5
4A3
 10
-59.544429
 20
249.049046
 30
0.0
 11
-50.995135
 21
240.499753
 31
0.0
  0
LINE
  8
LC-004-003-----0
 62
     2
  5
4A4
 10
-107.762864
 20
300.095908
 30
0.0
 11
-102.889236
 21
295.22228
 31
0.0
  0
LINE
  8
LC-004-003-----0
 62
     2
  5
4A5
 10
-86.448727
 20
278.781772
 30
0.0
 11
-83.498601
 21
275.831645
 31
0.0
  0
LINE
  8
LC-004-003-----0
 62
     2
  5
4A6
 10
-66.495135
 20
258.82818
 30
0.0
 11
-63.927538
 21
256.260582
 31
0.0
  0
LINE
  8
LC-004-003-----0
 62
     2
  5
4A7
 10
-59.544429
 20
251.877473
 30
0.0
 11
-56.995135
 21
249.32818
 31
0.0
  0
LINE
  8
LC-004-003-----0
 62
     2
  5
4A8
 10
-54.167944
 20
246.500988
 30
0.0
 11
-50.995135
 21
243.32818
 31
0.0
  0
LINE
  8
LC-004-003-----0
 62
     2
  5
4A9
 10
-103.315894
 20
298.477365
 30
0.0
 11
-98.442266
 21
293.603737
 31
0.0
  0
LINE
  8
LC-004-003-----0
 62
     2
  5
4AA
 10
-86.448744
 20
281.610215
 30
0.0
 11
-85.498601
 21
280.660072
 31
0.0
  0
LINE
  8
LC-004-003-----0
 62
     2
  5
4AB
 10
-66.495135
 20
261.656607
 30
0.0
 11
-61.739517
 21
256.900988
 31
0.0
  0
LINE
  8
LC-004-003-----0
 62
     2
  5
4AC
 10
-59.544429
 20
254.7059
 30
0.0
 11
-56.995135
 21
252.156607
 31
0.0
  0
LINE
  8
LC-004-003-----0
 62
     2
  5
4AD
 10
-98.868924
 20
296.858822
 30
0.0
 11
-93.995296
 21
291.985194
 31
0.0
  0
LINE
  8
LC-004-003-----0
 62
     2
  5
4AE
 10
-86.44876
 20
284.438659
 30
0.0
 11
-85.450037
 21
283.439936
 31
0.0
  0
LINE
  8
LC-004-003-----0
 62
     2
  5
4AF
 10
-77.498601
 20
275.488499
 30
0.0
 11
-77.205906
 21
275.195805
 31
0.0
  0
LINE
  8
LC-004-003-----0
 62
     2
  5
4B0
 10
-66.495135
 20
264.485034
 30
0.0
 11
-64.245135
 21
262.235034
 31
0.0
  0
LINE
  8
LC-004-003-----0
 62
     2
  5
4B1
 10
-63.51109
 20
261.500988
 30
0.0
 11
-56.995135
 21
254.985034
 31
0.0
  0
LINE
  8
LC-004-003-----0
 62
     2
  5
4B2
 10
-94.421953
 20
295.240279
 30
0.0
 11
-90.377524
 21
291.19585
 31
0.0
  0
LINE
  8
LC-004-003-----0
 62
     2
  5
4B3
 10
-86.448777
 20
287.267102
 30
0.0
 11
-84.231652
 21
285.049977
 31
0.0
  0
LINE
  8
LC-004-003-----0
 62
     2
  5
4B4
 10
-76.611227
 20
277.429553
 30
0.0
 11
-74.495113
 21
275.313439
 31
0.0
  0
LINE
  8
LC-004-003-----0
 62
     2
  5
4B5
 10
-66.495135
 20
267.313461
 30
0.0
 11
-64.245135
 21
265.063461
 31
0.0
  0
LINE
  8
LC-004-003-----0
 62
     2
  5
4B6
 10
-60.682662
 20
261.500988
 30
0.0
 11
-56.995135
 21
257.813461
 31
0.0
  0
LINE
  8
LC-004-003-----0
 62
     2
  5
4B7
 10
-90.049651
 20
293.696404
 30
0.0
 11
-87.547951
 21
291.194704
 31
0.0
  0
LINE
  8
LC-004-003-----0
 62
     2
  5
4B8
 10
-86.448793
 20
290.095546
 30
0.0
 11
-83.498601
 21
287.145354
 31
0.0
  0
LINE
  8
LC-004-003-----0
 62
     2
  5
4B9
 10
-75.506969
 20
279.153722
 30
0.0
 11
-74.495117
 21
278.14187
 31
0.0
  0
LINE
  8
LC-004-003-----0
 62
     2
  5
4BA
 10
-71.457335
 20
275.104088
 30
0.0
 11
-69.16937
 21
272.816123
 31
0.0
  0
LINE
  8
LC-004-003-----0
 62
     2
  5
4BB
 10
-66.495135
 20
270.141888
 30
0.0
 11
-64.245135
 21
267.891888
 31
0.0
  0
LINE
  8
LC-004-003-----0
 62
     2
  5
4BC
 10
-57.842521
 20
261.489274
 30
0.0
 11
-57.00685
 21
260.653603
 31
0.0
  0
LINE
  8
LC-004-003-----0
 62
     2
  5
4BD
 10
-87.220337
 20
293.695517
 30
0.0
 11
-83.498601
 21
289.973781
 31
0.0
  0
LINE
  8
LC-004-003-----0
 62
     2
  5
4BE
 10
-75.498601
 20
281.973781
 30
0.0
 11
-74.495121
 21
280.970301
 31
0.0
  0
LINE
  8
LC-004-003-----0
 62
     2
  5
4BF
 10
-71.457068
 20
277.932249
 30
0.0
 11
-64.245135
 21
270.720316
 31
0.0
  0
LINE
  8
LC-004-003-----0
 62
     2
  5
4C0
 10
-84.391023
 20
293.69463
 30
0.0
 11
-83.498601
 21
292.802208
 31
0.0
  0
LINE
  8
LC-004-003-----0
 62
     2
  5
4C1
 10
-77.498601
 20
286.802208
 30
0.0
 11
-74.495125
 21
283.798733
 31
0.0
  0
LINE
  8
LC-004-003-----0
 62
     2
  5
4C2
 10
-71.456802
 20
280.760409
 30
0.0
 11
-68.995137
 21
278.298744
 31
0.0
  0
LINE
  8
LC-004-003-----0
 62
     2
  5
4C3
 10
-77.498601
 20
289.630635
 30
0.0
 11
-74.49513
 21
286.627164
 31
0.0
  0
LINE
  8
LC-004-003-----0
 62
     2
  5
4C4
 10
-71.456536
 20
283.58857
 30
0.0
 11
-68.995137
 21
281.127171
 31
0.0
  0
LINE
  8
LC-004-003-----0
 62
     2
  5
4C5
 10
-77.498601
 20
292.459062
 30
0.0
 11
-74.495134
 21
289.455595
 31
0.0
  0
LINE
  8
LC-004-003-----0
 62
     2
  5
4C6
 10
-71.456269
 20
286.416731
 30
0.0
 11
-68.995137
 21
283.955598
 31
0.0
  0
LINE
  8
LC-004-003-----0
 62
     2
  5
4C7
 10
-75.906097
 20
293.694986
 30
0.0
 11
-73.40537
 21
291.194259
 31
0.0
  0
LINE
  8
LC-004-003-----0
 62
     2
  5
4C8
 10
-71.456003
 20
289.244892
 30
0.0
 11
-68.995137
 21
286.784025
 31
0.0
  0
LINE
  8
LC-004-003-----0
 62
     2
  5
4C9
 10
-73.077944
 20
293.69526
 30
0.0
 11
-68.995137
 21
289.612452
 31
0.0
  0
LINE
  8
LC-004-003-----0
 62
     2
  5
4CA
 10
-70.249792
 20
293.695535
 30
0.0
 11
-68.995137
 21
292.440879
 31
0.0
  0
ENDBLK
  8
0
  5
4CB
  0
BLOCK
  8
0
  5
4CE
  2
*X22
 70
    65
 10
0.0
 20
0.0
 30
0.0
  3
*X22
  0
LINE
  8
LC-004-003-----0
 62
     2
  5
4CF
 10
48.504868
 20
143.828177
 30
0.0
 11
49.88217
 21
142.450875
 31
0.0
  0
LINE
  8
LC-004-003-----0
 62
     2
  5
4D0
 10
48.504875
 20
146.656597
 30
0.0
 11
50.625691
 21
144.53578
 31
0.0
  0
LINE
  8
LC-004-003-----0
 62
     2
  5
4D1
 10
48.504881
 20
149.485017
 30
0.0
 11
51.004865
 21
146.985034
 31
0.0
  0
LINE
  8
LC-004-003-----0
 62
     2
  5
4D2
 10
48.504888
 20
152.313438
 30
0.0
 11
51.004865
 21
149.813461
 31
0.0
  0
LINE
  8
LC-004-003-----0
 62
     2
  5
4D3
 10
48.504895
 20
155.141858
 30
0.0
 11
51.004865
 21
152.641888
 31
0.0
  0
LINE
  8
LC-004-003-----0
 62
     2
  5
4D4
 10
48.504902
 20
157.970279
 30
0.0
 11
51.004865
 21
155.470316
 31
0.0
  0
LINE
  8
LC-004-003-----0
 62
     2
  5
4D5
 10
48.504908
 20
160.798699
 30
0.0
 11
51.004865
 21
158.298743
 31
0.0
  0
LINE
  8
LC-004-003-----0
 62
     2
  5
4D6
 10
48.504915
 20
163.627119
 30
0.0
 11
51.004865
 21
161.12717
 31
0.0
  0
LINE
  8
LC-004-003-----0
 62
     2
  5
4D7
 10
48.504922
 20
166.45554
 30
0.0
 11
51.004865
 21
163.955597
 31
0.0
  0
LINE
  8
LC-004-003-----0
 62
     2
  5
4D8
 10
48.504929
 20
169.28396
 30
0.0
 11
51.004865
 21
166.784024
 31
0.0
  0
LINE
  8
LC-004-003-----0
 62
     2
  5
4D9
 10
48.504935
 20
172.11238
 30
0.0
 11
51.004865
 21
169.612451
 31
0.0
  0
LINE
  8
LC-004-003-----0
 62
     2
  5
4DA
 10
48.504942
 20
174.940801
 30
0.0
 11
51.004865
 21
172.440878
 31
0.0
  0
LINE
  8
LC-004-003-----0
 62
     2
  5
4DB
 10
48.504949
 20
177.769221
 30
0.0
 11
51.004865
 21
175.269305
 31
0.0
  0
LINE
  8
LC-004-003-----0
 62
     2
  5
4DC
 10
48.504956
 20
180.597642
 30
0.0
 11
51.004865
 21
178.097733
 31
0.0
  0
LINE
  8
LC-004-003-----0
 62
     2
  5
4DD
 10
48.504962
 20
183.426062
 30
0.0
 11
51.004865
 21
180.92616
 31
0.0
  0
LINE
  8
LC-004-003-----0
 62
     2
  5
4DE
 10
48.504969
 20
186.254482
 30
0.0
 11
51.004865
 21
183.754587
 31
0.0
  0
LINE
  8
LC-004-003-----0
 62
     2
  5
4DF
 10
48.504976
 20
189.082903
 30
0.0
 11
51.004865
 21
186.583014
 31
0.0
  0
LINE
  8
LC-004-003-----0
 62
     2
  5
4E0
 10
48.504982
 20
191.911323
 30
0.0
 11
51.004865
 21
189.411441
 31
0.0
  0
LINE
  8
LC-004-003-----0
 62
     2
  5
4E1
 10
48.504989
 20
194.739743
 30
0.0
 11
51.004865
 21
192.239868
 31
0.0
  0
LINE
  8
LC-004-003-----0
 62
     2
  5
4E2
 10
48.504996
 20
197.568164
 30
0.0
 11
51.004865
 21
195.068295
 31
0.0
  0
LINE
  8
LC-004-003-----0
 62
     2
  5
4E3
 10
48.505003
 20
200.396584
 30
0.0
 11
51.004865
 21
197.896722
 31
0.0
  0
LINE
  8
LC-004-003-----0
 62
     2
  5
4E4
 10
48.505009
 20
203.225005
 30
0.0
 11
51.004865
 21
200.72515
 31
0.0
  0
LINE
  8
LC-004-003-----0
 62
     2
  5
4E5
 10
48.505016
 20
206.053425
 30
0.0
 11
51.004865
 21
203.553577
 31
0.0
  0
LINE
  8
LC-004-003-----0
 62
     2
  5
4E6
 10
48.505023
 20
208.881845
 30
0.0
 11
51.004865
 21
206.382004
 31
0.0
  0
LINE
  8
LC-004-003-----0
 62
     2
  5
4E7
 10
49.686772
 20
210.528523
 30
0.0
 11
51.894114
 21
208.321181
 31
0.0
  0
LINE
  8
LC-004-003-----0
 62
     2
  5
4E8
 10
52.201925
 20
210.841798
 30
0.0
 11
54.592848
 21
208.450875
 31
0.0
  0
LINE
  8
LC-004-003-----0
 62
     2
  5
4E9
 10
54.717078
 20
211.155072
 30
0.0
 11
57.421275
 21
208.450875
 31
0.0
  0
LINE
  8
LC-004-003-----0
 62
     2
  5
4EA
 10
57.232231
 20
211.468346
 30
0.0
 11
60.249702
 21
208.450875
 31
0.0
  0
LINE
  8
LC-004-003-----0
 62
     2
  5
4EB
 10
59.747384
 20
211.78162
 30
0.0
 11
63.078129
 21
208.450875
 31
0.0
  0
LINE
  8
LC-004-003-----0
 62
     2
  5
4EC
 10
62.262537
 20
212.094894
 30
0.0
 11
65.906556
 21
208.450875
 31
0.0
  0
LINE
  8
LC-004-003-----0
 62
     2
  5
4ED
 10
64.77769
 20
212.408169
 30
0.0
 11
68.734984
 21
208.450875
 31
0.0
  0
LINE
  8
LC-004-003-----0
 62
     2
  5
4EE
 10
67.292843
 20
212.721443
 30
0.0
 11
71.563411
 21
208.450875
 31
0.0
  0
LINE
  8
LC-004-003-----0
 62
     2
  5
4EF
 10
69.807995
 20
213.034717
 30
0.0
 11
74.391838
 21
208.450875
 31
0.0
  0
LINE
  8
LC-004-003-----0
 62
     2
  5
4F0
 10
72.323148
 20
213.347991
 30
0.0
 11
77.220265
 21
208.450875
 31
0.0
  0
LINE
  8
LC-004-003-----0
 62
     2
  5
4F1
 10
74.838301
 20
213.661265
 30
0.0
 11
80.048692
 21
208.450875
 31
0.0
  0
LINE
  8
LC-004-003-----0
 62
     2
  5
4F2
 10
77.353454
 20
213.97454
 30
0.0
 11
81.254158
 21
210.073836
 31
0.0
  0
LINE
  8
LC-004-003-----0
 62
     2
  5
4F3
 10
78.004865
 20
216.151556
 30
0.0
 11
81.254158
 21
212.902263
 31
0.0
  0
LINE
  8
LC-004-003-----0
 62
     2
  5
4F4
 10
78.004865
 20
218.979984
 30
0.0
 11
81.254158
 21
215.73069
 31
0.0
  0
LINE
  8
LC-004-003-----0
 62
     2
  5
4F5
 10
78.004865
 20
221.808411
 30
0.0
 11
81.254158
 21
218.559118
 31
0.0
  0
LINE
  8
LC-004-003-----0
 62
     2
  5
4F6
 10
91.004158
 20
208.809118
 30
0.0
 11
91.362401
 21
208.450875
 31
0.0
  0
LINE
  8
LC-004-003-----0
 62
     2
  5
4F7
 10
78.004865
 20
224.636838
 30
0.0
 11
81.254158
 21
221.387545
 31
0.0
  0
LINE
  8
LC-004-003-----0
 62
     2
  5
4F8
 10
91.004158
 20
211.637545
 30
0.0
 11
93.504865
 21
209.136838
 31
0.0
  0
LINE
  8
LC-004-003-----0
 62
     2
  5
4F9
 10
78.004865
 20
227.465265
 30
0.0
 11
81.254158
 21
224.215972
 31
0.0
  0
LINE
  8
LC-004-003-----0
 62
     2
  5
4FA
 10
91.004158
 20
214.465972
 30
0.0
 11
93.504865
 21
211.965265
 31
0.0
  0
LINE
  8
LC-004-003-----0
 62
     2
  5
4FB
 10
78.004865
 20
230.293692
 30
0.0
 11
81.254158
 21
227.044399
 31
0.0
  0
LINE
  8
LC-004-003-----0
 62
     2
  5
4FC
 10
91.004158
 20
217.294399
 30
0.0
 11
93.504865
 21
214.793692
 31
0.0
  0
LINE
  8
LC-004-003-----0
 62
     2
  5
4FD
 10
78.004865
 20
233.122119
 30
0.0
 11
81.254158
 21
229.872826
 31
0.0
  0
LINE
  8
LC-004-003-----0
 62
     2
  5
4FE
 10
91.004158
 20
220.122826
 30
0.0
 11
93.504865
 21
217.622119
 31
0.0
  0
LINE
  8
LC-004-003-----0
 62
     2
  5
4FF
 10
78.004865
 20
235.950546
 30
0.0
 11
81.254158
 21
232.701253
 31
0.0
  0
LINE
  8
LC-004-003-----0
 62
     2
  5
500
 10
91.004158
 20
222.951253
 30
0.0
 11
93.504865
 21
220.450546
 31
0.0
  0
LINE
  8
LC-004-003-----0
 62
     2
  5
501
 10
78.004865
 20
238.778973
 30
0.0
 11
81.254158
 21
235.52968
 31
0.0
  0
LINE
  8
LC-004-003-----0
 62
     2
  5
502
 10
91.004158
 20
225.77968
 30
0.0
 11
93.504865
 21
223.278973
 31
0.0
  0
LINE
  8
LC-004-003-----0
 62
     2
  5
503
 10
78.004865
 20
241.607401
 30
0.0
 11
81.254158
 21
238.358107
 31
0.0
  0
LINE
  8
LC-004-003-----0
 62
     2
  5
504
 10
91.004158
 20
228.608107
 30
0.0
 11
93.504865
 21
226.107401
 31
0.0
  0
LINE
  8
LC-004-003-----0
 62
     2
  5
505
 10
78.004865
 20
244.435828
 30
0.0
 11
81.254158
 21
241.186535
 31
0.0
  0
LINE
  8
LC-004-003-----0
 62
     2
  5
506
 10
91.004158
 20
231.436535
 30
0.0
 11
93.504865
 21
228.935828
 31
0.0
  0
LINE
  8
LC-004-003-----0
 62
     2
  5
507
 10
78.79122
 20
246.4779
 30
0.0
 11
82.318131
 21
242.950988
 31
0.0
  0
LINE
  8
LC-004-003-----0
 62
     2
  5
508
 10
91.004158
 20
234.264962
 30
0.0
 11
93.504865
 21
231.764255
 31
0.0
  0
LINE
  8
LC-004-003-----0
 62
     2
  5
509
 10
81.596558
 20
246.500988
 30
0.0
 11
84.971982
 21
243.125564
 31
0.0
  0
LINE
  8
LC-004-003-----0
 62
     2
  5
50A
 10
91.004158
 20
237.093389
 30
0.0
 11
93.504865
 21
234.592682
 31
0.0
  0
LINE
  8
LC-004-003-----0
 62
     2
  5
50B
 10
83.99931
 20
246.926664
 30
0.0
 11
86.383309
 21
244.542664
 31
0.0
  0
LINE
  8
LC-004-003-----0
 62
     2
  5
50C
 10
91.004158
 20
239.921816
 30
0.0
 11
93.504865
 21
237.421109
 31
0.0
  0
LINE
  8
LC-004-003-----0
 62
     2
  5
50D
 10
84.004865
 20
249.749536
 30
0.0
 11
86.554158
 21
247.200243
 31
0.0
  0
LINE
  8
LC-004-003-----0
 62
     2
  5
50E
 10
91.004158
 20
242.750243
 30
0.0
 11
93.504865
 21
240.249536
 31
0.0
  0
LINE
  8
LC-004-003-----0
 62
     2
  5
50F
 10
84.004865
 20
252.577963
 30
0.0
 11
86.554158
 21
250.02867
 31
0.0
  0
LINE
  8
LC-004-003-----0
 62
     2
  5
510
 10
91.004158
 20
245.57867
 30
0.0
 11
93.504865
 21
243.077963
 31
0.0
  0
LINE
  8
LC-004-003-----0
 62
     2
  5
511
 10
84.004865
 20
255.40639
 30
0.0
 11
86.554158
 21
252.857097
 31
0.0
  0
LINE
  8
LC-004-003-----0
 62
     2
  5
512
 10
91.004158
 20
248.407097
 30
0.0
 11
93.504865
 21
245.90639
 31
0.0
  0
LINE
  8
LC-004-003-----0
 62
     2
  5
513
 10
84.004865
 20
258.234818
 30
0.0
 11
86.554158
 21
255.685524
 31
0.0
  0
LINE
  8
LC-004-003-----0
 62
     2
  5
514
 10
91.004158
 20
251.235524
 30
0.0
 11
93.504865
 21
248.734818
 31
0.0
  0
LINE
  8
LC-004-003-----0
 62
     2
  5
515
 10
84.113613
 20
260.954497
 30
0.0
 11
88.167121
 21
256.900988
 31
0.0
  0
LINE
  8
LC-004-003-----0
 62
     2
  5
516
 10
91.004158
 20
254.063952
 30
0.0
 11
93.504865
 21
251.563245
 31
0.0
  0
LINE
  8
LC-004-003-----0
 62
     2
  5
517
 10
86.395548
 20
261.500988
 30
0.0
 11
93.504865
 21
254.391672
 31
0.0
  0
LINE
  8
LC-004-003-----0
 62
     2
  5
518
 10
89.223975
 20
261.500988
 30
0.0
 11
93.504865
 21
257.220099
 31
0.0
  0
LINE
  8
LC-004-003-----0
 62
     2
  5
519
 10
91.254865
 20
262.298526
 30
0.0
 11
93.504865
 21
260.048526
 31
0.0
  0
LINE
  8
LC-004-003-----0
 62
     2
  5
51A
 10
91.254865
 20
265.126953
 30
0.0
 11
93.504865
 21
262.876953
 31
0.0
  0
LINE
  8
LC-004-003-----0
 62
     2
  5
51B
 10
91.254865
 20
267.95538
 30
0.0
 11
93.504865
 21
265.70538
 31
0.0
  0
LINE
  8
LC-004-003-----0
 62
     2
  5
51C
 10
91.254865
 20
270.783807
 30
0.0
 11
93.504865
 21
268.533807
 31
0.0
  0
LINE
  8
LC-004-003-----0
 62
     2
  5
51D
 10
91.959883
 20
272.907216
 30
0.0
 11
93.504865
 21
271.362235
 31
0.0
  0
LINE
  8
LC-004-003-----0
 62
     2
  5
51E
 10
93.374097
 20
274.321429
 30
0.0
 11
94.879403
 21
272.816123
 31
0.0
  0
LINE
  8
LC-004-003-----0
 62
     2
  5
51F
 10
94.78831
 20
275.735643
 30
0.0
 11
97.70783
 21
272.816123
 31
0.0
  0
LINE
  8
LC-004-003-----0
 62
     2
  5
520
 10
96.004863
 20
277.347517
 30
0.0
 11
98.50514
 21
274.847241
 31
0.0
  0
LINE
  8
LC-004-003-----0
 62
     2
  5
521
 10
96.004863
 20
280.175944
 30
0.0
 11
98.504889
 21
277.675919
 31
0.0
  0
LINE
  8
LC-004-003-----0
 62
     2
  5
522
 10
96.004863
 20
283.004371
 30
0.0
 11
98.504638
 21
280.504596
 31
0.0
  0
LINE
  8
LC-004-003-----0
 62
     2
  5
523
 10
101.504874
 20
277.50436
 30
0.0
 11
103.813444
 21
275.19579
 31
0.0
  0
LINE
  8
LC-004-003-----0
 62
     2
  5
524
 10
96.004863
 20
285.832798
 30
0.0
 11
98.504388
 21
283.333274
 31
0.0
  0
LINE
  8
LC-004-003-----0
 62
     2
  5
525
 10
101.504872
 20
280.33279
 30
0.0
 11
102.50833
 21
279.329332
 31
0.0
  0
LINE
  8
LC-004-003-----0
 62
     2
  5
526
 10
96.004863
 20
288.661225
 30
0.0
 11
98.504137
 21
286.161952
 31
0.0
  0
LINE
  8
LC-004-003-----0
 62
     2
  5
527
 10
101.50487
 20
283.161219
 30
0.0
 11
102.50833
 21
282.157759
 31
0.0
  0
LINE
  8
LC-004-003-----0
 62
     2
  5
528
 10
96.004863
 20
291.489653
 30
0.0
 11
98.503887
 21
288.99063
 31
0.0
  0
LINE
  8
LC-004-003-----0
 62
     2
  5
529
 10
101.504868
 20
285.989648
 30
0.0
 11
103.010161
 21
284.484355
 31
0.0
  0
LINE
  8
LC-004-003-----0
 62
     2
  5
52A
 10
110.50833
 20
276.986186
 30
0.0
 11
112.298726
 21
275.19579
 31
0.0
  0
LINE
  8
LC-004-003-----0
 62
     2
  5
52B
 10
96.626988
 20
293.695956
 30
0.0
 11
99.128684
 21
291.194259
 31
0.0
  0
LINE
  8
LC-004-003-----0
 62
     2
  5
52C
 10
101.504865
 20
288.818078
 30
0.0
 11
104.50833
 21
285.814613
 31
0.0
  0
LINE
  8
LC-004-003-----0
 62
     2
  5
52D
 10
112.170409
 20
278.152534
 30
0.0
 11
113.458606
 21
276.864337
 31
0.0
  0
LINE
  8
LC-004-003-----0
 62
     2
  5
52E
 10
99.455677
 20
293.695693
 30
0.0
 11
104.50833
 21
288.643041
 31
0.0
  0
LINE
  8
LC-004-003-----0
 62
     2
  5
52F
 10
112.50833
 20
280.643041
 30
0.0
 11
113.458604
 21
279.692766
 31
0.0
  0
LINE
  8
LC-004-003-----0
 62
     2
  5
530
 10
102.284367
 20
293.695431
 30
0.0
 11
104.50833
 21
291.471468
 31
0.0
  0
LINE
  8
LC-004-003-----0
 62
     2
  5
531
 10
110.50833
 20
285.471468
 30
0.0
 11
110.852459
 21
285.127339
 31
0.0
  0
LINE
  8
LC-004-003-----0
 62
     2
  5
532
 10
112.439878
 20
283.539919
 30
0.0
 11
113.458602
 21
282.521196
 31
0.0
  0
LINE
  8
LC-004-003-----0
 62
     2
  5
533
 10
110.50833
 20
288.299895
 30
0.0
 11
113.4586
 21
285.349625
 31
0.0
  0
LINE
  8
LC-004-003-----0
 62
     2
  5
534
 10
110.50833
 20
291.128322
 30
0.0
 11
113.458597
 21
288.178054
 31
0.0
  0
LINE
  8
LC-004-003-----0
 62
     2
  5
535
 10
110.770388
 20
293.694691
 30
0.0
 11
113.458595
 21
291.006484
 31
0.0
  0
LINE
  8
LC-004-003-----0
 62
     2
  5
536
 10
113.598815
 20
293.694691
 30
0.0
 11
116.098815
 21
291.194691
 31
0.0
  0
LINE
  8
LC-004-003-----0
 62
     2
  5
537
 10
116.427242
 20
293.694691
 30
0.0
 11
118.898834
 21
291.223099
 31
0.0
  0
LINE
  8
LC-004-003-----0
 62
     2
  5
538
 10
118.69999
 20
294.25037
 30
0.0
 11
120.972678
 21
291.977682
 31
0.0
  0
LINE
  8
LC-004-003-----0
 62
     2
  5
539
 10
120.773828
 20
295.004959
 30
0.0
 11
123.046522
 21
292.732265
 31
0.0
  0
LINE
  8
LC-004-003-----0
 62
     2
  5
53A
 10
122.847666
 20
295.759548
 30
0.0
 11
125.120366
 21
293.486848
 31
0.0
  0
LINE
  8
LC-004-003-----0
 62
     2
  5
53B
 10
124.921504
 20
296.514138
 30
0.0
 11
127.19421
 21
294.241431
 31
0.0
  0
LINE
  8
LC-004-003-----0
 62
     2
  5
53C
 10
126.995342
 20
297.268727
 30
0.0
 11
129.268054
 21
294.996014
 31
0.0
  0
LINE
  8
LC-004-003-----0
 62
     2
  5
53D
 10
129.06918
 20
298.023316
 30
0.0
 11
131.341899
 21
295.750597
 31
0.0
  0
LINE
  8
LC-004-003-----0
 62
     2
  5
53E
 10
131.143018
 20
298.777905
 30
0.0
 11
133.415743
 21
296.50518
 31
0.0
  0
LINE
  8
LC-004-003-----0
 62
     2
  5
53F
 10
133.216855
 20
299.532495
 30
0.0
 11
135.489587
 21
297.259763
 31
0.0
  0
LINE
  8
LC-004-003-----0
 62
     2
  5
540
 10
135.290693
 20
300.287084
 30
0.0
 11
137.563431
 21
298.014346
 31
0.0
  0
LINE
  8
LC-004-003-----0
 62
     2
  5
541
 10
137.364531
 20
301.041673
 30
0.0
 11
139.637275
 21
298.768929
 31
0.0
  0
LINE
  8
LC-004-003-----0
 62
     2
  5
542
 10
139.438369
 20
301.796262
 30
0.0
 11
141.86145
 21
299.373181
 31
0.0
  0
LINE
  8
LC-004-003-----0
 62
     2
  5
543
 10
141.690707
 20
302.372352
 30
0.0
 11
144.689873
 21
299.373185
 31
0.0
  0
LINE
  8
LC-004-003-----0
 62
     2
  5
544
 10
144.519134
 20
302.372352
 30
0.0
 11
147.518296
 21
299.37319
 31
0.0
  0
LINE
  8
LC-004-003-----0
 62
     2
  5
545
 10
147.347561
 20
302.372352
 30
0.0
 11
150.346719
 21
299.373194
 31
0.0
  0
LINE
  8
LC-004-003-----0
 62
     2
  5
546
 10
150.175988
 20
302.372352
 30
0.0
 11
153.175142
 21
299.373198
 31
0.0
  0
LINE
  8
LC-004-003-----0
 62
     2
  5
547
 10
153.004415
 20
302.372352
 30
0.0
 11
156.003566
 21
299.373202
 31
0.0
  0
LINE
  8
LC-004-003-----0
 62
     2
  5
548
 10
155.832842
 20
302.372352
 30
0.0
 11
158.831989
 21
299.373206
 31
0.0
  0
LINE
  8
LC-004-003-----0
 62
     2
  5
549
 10
158.661269
 20
302.372352
 30
0.0
 11
161.660412
 21
299.37321
 31
0.0
  0
LINE
  8
LC-004-003-----0
 62
     2
  5
54A
 10
161.489696
 20
302.372352
 30
0.0
 11
164.488835
 21
299.373214
 31
0.0
  0
LINE
  8
LC-004-003-----0
 62
     2
  5
54B
 10
164.318124
 20
302.372352
 30
0.0
 11
167.317258
 21
299.373218
 31
0.0
  0
LINE
  8
LC-004-003-----0
 62
     2
  5
54C
 10
167.146551
 20
302.372352
 30
0.0
 11
170.145681
 21
299.373222
 31
0.0
  0
LINE
  8
LC-004-003-----0
 62
     2
  5
54D
 10
169.974978
 20
302.372352
 30
0.0
 11
172.974104
 21
299.373226
 31
0.0
  0
LINE
  8
LC-004-003-----0
 62
     2
  5
54E
 10
172.803405
 20
302.372352
 30
0.0
 11
175.802527
 21
299.37323
 31
0.0
  0
LINE
  8
LC-004-003-----0
 62
     2
  5
54F
 10
175.631832
 20
302.372352
 30
0.0
 11
178.63095
 21
299.373234
 31
0.0
  0
LINE
  8
LC-004-003-----0
 62
     2
  5
550
 10
178.460259
 20
302.372352
 30
0.0
 11
181.459374
 21
299.373238
 31
0.0
  0
LINE
  8
LC-004-003-----0
 62
     2
  5
551
 10
181.288686
 20
302.372352
 30
0.0
 11
184.287797
 21
299.373242
 31
0.0
  0
LINE
  8
LC-004-003-----0
 62
     2
  5
552
 10
184.117113
 20
302.372352
 30
0.0
 11
187.11622
 21
299.373246
 31
0.0
  0
LINE
  8
LC-004-003-----0
 62
     2
  5
553
 10
186.945541
 20
302.372352
 30
0.0
 11
189.944643
 21
299.37325
 31
0.0
  0
ENDBLK
  8
0
  5
554
  0
BLOCK
  8
0
  5
55F
  2
*D23
 70
    65
 10
0.0
 20
0.0
 30
0.0
  3
*D23
  0
LINE
  8
LC-003-003-MTH-0
 62
     2
  5
560
 10
-163.495124
 20
299.44375
 30
0.0
 11
-163.498058
 21
408.795612
 31
0.0
  0
LINE
  8
LC-003-003-MTH-0
 62
     2
  5
561
 10
190.50468
 20
299.45325
 30
0.0
 11
190.501745
 21
408.805113
 31
0.0
  0
LINE
  8
LC-005-003-MTG-0
 62
     2
  5
562
 10
-163.497607
 20
391.995612
 30
0.0
 11
190.502196
 21
392.005113
 31
0.0
  0
LINE
  8
LC-004-003-----0
 62
     2
  5
563
 10
-135.737249
 20
395.651091
 30
0.0
 11
-163.497607
 21
391.995612
 31
0.0
  0
LINE
  8
LC-004-003-----0
 62
     2
  5
564
 10
-163.497607
 20
391.995612
 30
0.0
 11
-135.737053
 21
388.341624
 31
0.0
  0
LINE
  8
LC-004-003-----0
 62
     2
  5
565
 10
-135.737053
 20
388.341624
 30
0.0
 11
-135.737249
 21
395.651091
 31
0.0
  0
LINE
  8
LC-004-003-----0
 62
     2
  5
566
 10
-135.674943
 20
394.700862
 30
0.0
 11
-156.217607
 21
391.995807
 31
0.0
  0
LINE
  8
LC-004-003-----0
 62
     2
  5
567
 10
-156.217607
 20
391.995807
 30
0.0
 11
-135.674797
 21
389.291856
 31
0.0
  0
LINE
  8
LC-004-003-----0
 62
     2
  5
568
 10
-135.612636
 20
393.750633
 30
0.0
 11
-148.937607
 21
391.996003
 31
0.0
  0
LINE
  8
LC-004-003-----0
 62
     2
  5
569
 10
-148.937607
 20
391.996003
 30
0.0
 11
-135.612541
 21
390.242088
 31
0.0
  0
LINE
  8
LC-004-003-----0
 62
     2
  5
56A
 10
-135.550329
 20
392.800404
 30
0.0
 11
-141.657607
 21
391.996198
 31
0.0
  0
LINE
  8
LC-004-003-----0
 62
     2
  5
56B
 10
-141.657607
 20
391.996198
 30
0.0
 11
-135.550286
 21
391.192321
 31
0.0
  0
LINE
  8
LC-004-003-----0
 62
     2
  5
56C
 10
162.741838
 20
388.349635
 30
0.0
 11
190.502196
 21
392.005113
 31
0.0
  0
LINE
  8
LC-004-003-----0
 62
     2
  5
56D
 10
190.502196
 20
392.005113
 30
0.0
 11
162.741642
 21
395.659101
 31
0.0
  0
LINE
  8
LC-004-003-----0
 62
     2
  5
56E
 10
162.741642
 20
395.659101
 30
0.0
 11
162.741838
 21
388.349635
 31
0.0
  0
LINE
  8
LC-004-003-----0
 62
     2
  5
56F
 10
162.679531
 20
389.299864
 30
0.0
 11
183.222196
 21
392.004918
 31
0.0
  0
LINE
  8
LC-004-003-----0
 62
     2
  5
570
 10
183.222196
 20
392.004918
 30
0.0
 11
162.679386
 21
394.708869
 31
0.0
  0
LINE
  8
LC-004-003-----0
 62
     2
  5
571
 10
162.617224
 20
390.250093
 30
0.0
 11
175.942196
 21
392.004722
 31
0.0
  0
LINE
  8
LC-004-003-----0
 62
     2
  5
572
 10
175.942196
 20
392.004722
 30
0.0
 11
162.61713
 21
393.758637
 31
0.0
  0
LINE
  8
LC-004-003-----0
 62
     2
  5
573
 10
162.554917
 20
391.200322
 30
0.0
 11
168.662196
 21
392.004527
 31
0.0
  0
LINE
  8
LC-004-003-----0
 62
     2
  5
574
 10
168.662196
 20
392.004527
 30
0.0
 11
162.554874
 21
392.808404
 31
0.0
  0
TEXT
  8
LC-004-003-----0
 62
     7
  5
575
 10
-45.149756
 20
399.826342
 30
0.0
 40
28.0
  1
%%c354
 50
0.001538
 41
0.9
 51
15.0
  7
LCTX15-400-0-0-ARIAL
 72
     1
 11
17.850244
 21
399.828033
 31
0.0
  0
ENDBLK
  8
0
  5
576
  0
BLOCK
  8
0
  5
579
  2
*D24
 70
    65
 10
0.0
 20
0.0
 30
0.0
  3
*D24
  0
LINE
  8
LC-003-003-MTH-0
 62
     2
  5
57A
 10
-58.995179
 20
198.450875
 30
0.0
 11
-170.8
 21
198.450875
 31
0.0
  0
LINE
  8
LC-003-003-MTH-0
 62
     2
  5
57B
 10
-163.495124
 20
299.44375
 30
0.0
 11
-137.2
 21
299.44375
 31
0.0
  0
LINE
  8
LC-005-003-MTG-0
 62
     2
  5
57C
 10
-154.0
 20
198.450875
 30
0.0
 11
-154.0
 21
299.44375
 31
0.0
  0
LINE
  8
LC-004-003-----0
 62
     2
  5
57D
 10
-157.654733
 20
226.211331
 30
0.0
 11
-154.0
 21
198.450875
 31
0.0
  0
LINE
  8
LC-004-003-----0
 62
     2
  5
57E
 10
-154.0
 20
198.450875
 30
0.0
 11
-150.345267
 21
226.211331
 31
0.0
  0
LINE
  8
LC-004-003-----0
 62
     2
  5
57F
 10
-150.345267
 20
226.211331
 30
0.0
 11
-157.654733
 21
226.211331
 31
0.0
  0
LINE
  8
LC-004-003-----0
 62
     2
  5
580
 10
-156.704503
 20
226.273612
 30
0.0
 11
-154.0
 21
205.730875
 31
0.0
  0
LINE
  8
LC-004-003-----0
 62
     2
  5
581
 10
-154.0
 20
205.730875
 30
0.0
 11
-151.295497
 21
226.273612
 31
0.0
  0
LINE
  8
LC-004-003-----0
 62
     2
  5
582
 10
-155.754272
 20
226.335894
 30
0.0
 11
-154.0
 21
213.010875
 31
0.0
  0
LINE
  8
LC-004-003-----0
 62
     2
  5
583
 10
-154.0
 20
213.010875
 30
0.0
 11
-152.245728
 21
226.335894
 31
0.0
  0
LINE
  8
LC-004-003-----0
 62
     2
  5
584
 10
-154.804041
 20
226.398175
 30
0.0
 11
-154.0
 21
220.290875
 31
0.0
  0
LINE
  8
LC-004-003-----0
 62
     2
  5
585
 10
-154.0
 20
220.290875
 30
0.0
 11
-153.195959
 21
226.398175
 31
0.0
  0
LINE
  8
LC-004-003-----0
 62
     2
  5
586
 10
-150.345267
 20
271.683294
 30
0.0
 11
-154.0
 21
299.44375
 31
0.0
  0
LINE
  8
LC-004-003-----0
 62
     2
  5
587
 10
-154.0
 20
299.44375
 30
0.0
 11
-157.654733
 21
271.683294
 31
0.0
  0
LINE
  8
LC-004-003-----0
 62
     2
  5
588
 10
-157.654733
 20
271.683294
 30
0.0
 11
-150.345267
 21
271.683294
 31
0.0
  0
LINE
  8
LC-004-003-----0
 62
     2
  5
589
 10
-151.295497
 20
271.621012
 30
0.0
 11
-154.0
 21
292.16375
 31
0.0
  0
LINE
  8
LC-004-003-----0
 62
     2
  5
58A
 10
-154.0
 20
292.16375
 30
0.0
 11
-156.704503
 21
271.621012
 31
0.0
  0
LINE
  8
LC-004-003-----0
 62
     2
  5
58B
 10
-152.245728
 20
271.558731
 30
0.0
 11
-154.0
 21
284.88375
 31
0.0
  0
LINE
  8
LC-004-003-----0
 62
     2
  5
58C
 10
-154.0
 20
284.88375
 30
0.0
 11
-155.754272
 21
271.558731
 31
0.0
  0
LINE
  8
LC-004-003-----0
 62
     2
  5
58D
 10
-153.195959
 20
271.496449
 30
0.0
 11
-154.0
 21
277.60375
 31
0.0
  0
LINE
  8
LC-004-003-----0
 62
     2
  5
58E
 10
-154.0
 20
277.60375
 30
0.0
 11
-154.804041
 21
271.496449
 31
0.0
  0
TEXT
  8
LC-004-003-----0
 62
     7
  5
58F
 10
-161.827554
 20
226.667472
 30
0.0
 40
28.0
  1
100
 50
90.0
 41
0.9
 51
15.0
  7
LCTX15-400-0-0-ARIAL
 72
     1
 11
-161.827554
 21
253.295472
 31
0.0
  0
ENDBLK
  8
0
  5
590
  0
BLOCK
  8
0
  5
593
  2
*D25
 70
    65
 10
0.0
 20
0.0
 30
0.0
  3
*D25
  0
LINE
  8
LC-003-003-MTH-0
 62
     2
  5
594
 10
-87.99514
 20
281.492068
 30
0.0
 11
-87.99514
 21
19.2
 31
0.0
  0
LINE
  8
LC-003-003-MTH-0
 62
     2
  5
595
 10
115.004833
 20
281.492704
 30
0.0
 11
115.004833
 21
19.2
 31
0.0
  0
LINE
  8
LC-005-003-MTG-0
 62
     2
  5
596
 10
-87.99514
 20
36.0
 30
0.0
 11
115.004833
 21
36.0
 31
0.0
  0
LINE
  8
LC-004-003-----0
 62
     2
  5
597
 10
-60.234684
 20
39.654733
 30
0.0
 11
-87.99514
 21
36.0
 31
0.0
  0
LINE
  8
LC-004-003-----0
 62
     2
  5
598
 10
-87.99514
 20
36.0
 30
0.0
 11
-60.234684
 21
32.345267
 31
0.0
  0
LINE
  8
LC-004-003-----0
 62
     2
  5
599
 10
-60.234684
 20
32.345267
 30
0.0
 11
-60.234684
 21
39.654733
 31
0.0
  0
LINE
  8
LC-004-003-----0
 62
     2
  5
59A
 10
-60.172402
 20
38.704503
 30
0.0
 11
-80.71514
 21
36.0
 31
0.0
  0
LINE
  8
LC-004-003-----0
 62
     2
  5
59B
 10
-80.71514
 20
36.0
 30
0.0
 11
-60.172402
 21
33.295497
 31
0.0
  0
LINE
  8
LC-004-003-----0
 62
     2
  5
59C
 10
-60.110121
 20
37.754272
 30
0.0
 11
-73.43514
 21
36.0
 31
0.0
  0
LINE
  8
LC-004-003-----0
 62
     2
  5
59D
 10
-73.43514
 20
36.0
 30
0.0
 11
-60.110121
 21
34.245728
 31
0.0
  0
LINE
  8
LC-004-003-----0
 62
     2
  5
59E
 10
-60.04784
 20
36.804041
 30
0.0
 11
-66.15514
 21
36.0
 31
0.0
  0
LINE
  8
LC-004-003-----0
 62
     2
  5
59F
 10
-66.15514
 20
36.0
 30
0.0
 11
-60.04784
 21
35.195959
 31
0.0
  0
LINE
  8
LC-004-003-----0
 62
     2
  5
5A0
 10
87.244377
 20
32.345267
 30
0.0
 11
115.004833
 21
36.0
 31
0.0
  0
LINE
  8
LC-004-003-----0
 62
     2
  5
5A1
 10
115.004833
 20
36.0
 30
0.0
 11
87.244377
 21
39.654733
 31
0.0
  0
LINE
  8
LC-004-003-----0
 62
     2
  5
5A2
 10
87.244377
 20
39.654733
 30
0.0
 11
87.244377
 21
32.345267
 31
0.0
  0
LINE
  8
LC-004-003-----0
 62
     2
  5
5A3
 10
87.182095
 20
33.295497
 30
0.0
 11
107.724833
 21
36.0
 31
0.0
  0
LINE
  8
LC-004-003-----0
 62
     2
  5
5A4
 10
107.724833
 20
36.0
 30
0.0
 11
87.182095
 21
38.704503
 31
0.0
  0
LINE
  8
LC-004-003-----0
 62
     2
  5
5A5
 10
87.119814
 20
34.245728
 30
0.0
 11
100.444833
 21
36.0
 31
0.0
  0
LINE
  8
LC-004-003-----0
 62
     2
  5
5A6
 10
100.444833
 20
36.0
 30
0.0
 11
87.119814
 21
37.754272
 31
0.0
  0
LINE
  8
LC-004-003-----0
 62
     2
  5
5A7
 10
87.057533
 20
35.195959
 30
0.0
 11
93.164833
 21
36.0
 31
0.0
  0
LINE
  8
LC-004-003-----0
 62
     2
  5
5A8
 10
93.164833
 20
36.0
 30
0.0
 11
87.057533
 21
36.804041
 31
0.0
  0
TEXT
  8
LC-004-003-----0
 62
     7
  5
5A9
 10
-45.146994
 20
43.827554
 30
0.0
 40
28.0
  1
%%c203
 41
0.9
 51
15.0
  7
LCTX15-400-0-0-ARIAL
 72
     1
 11
17.853006
 21
43.827554
 31
0.0
  0
ENDBLK
  8
0
  5
5AA
  0
ENDSEC
  0
SECTION
  2
ENTITIES
  0
VIEWPORT
  8
LC-VIEWPORT
  5
5AD
 67
     1
 68
     1
 10
420.0
 20
297.0
 30
0.0
 40
840.0
 41
594.0
 69
     1
1001
ACAD
1000
MVIEW
1002
{
1070
    16
1010
0.0
1020
0.0
1030
0.0
1010
0.0
1020
0.0
1030
1.0
1040
0.0
1040
594.0
1040
420.0
1040
297.0
1040
50.0
1040
0.0
1040
0.0
1070
     0
1070
   100
1070
     1
1070
     1
1070
     0
1070
     0
1070
     0
1070
     0
1040
0.0
1040
0.0
1040
0.0
1040
1.0
1040
1.0
1040
0.0
1040
0.0
1070
     0
1002
{
1002
}
1002
}
  0
LINE
  8
LC-001-002-----0
 62
     1
  5
25
 10
-77.498601
 20
275.195481
 30
0.0
 11
-73.495124
 21
275.195481
 31
0.0
  0
LINE
  8
LC-001-002-----0
 62
     1
  5
26
 10
-77.498601
 20
298.642495
 30
0.0
 11
-75.02068
 21
298.642495
 31
0.0
  0
LINE
  8
LC-001-002-----0
 62
     1
  5
27
 10
-83.994834
 20
298.642479
 30
0.0
 11
-85.473514
 21
298.642473
 31
0.0
  0
LINE
  8
LC-001-002-----0
 62
     1
  5
28
 10
-83.498644
 20
297.642482
 30
0.0
 11
-83.498601
 21
297.642482
 31
0.0
  0
LINE
  8
LC-001-002-----0
 62
     1
  5
29
 10
-75.52186
 20
300.74211
 30
0.0
 11
-77.498601
 21
300.742101
 31
0.0
  0
LINE
  8
LC-001-002-----0
 62
     1
  5
2A
 10
-83.498601
 20
300.742075
 30
0.0
 11
-85.479219
 21
300.742067
 31
0.0
  0
LINE
  8
LC-001-002-----0
 62
     1
  5
2B
 10
10.199448
 20
357.314312
 30
0.0
 11
10.199448
 21
372.114312
 31
0.0
  0
LINE
  8
LC-001-002-----0
 62
     1
  5
2C
 10
-74.498644
 20
300.742495
 30
0.0
 11
-77.498601
 21
300.742495
 31
0.0
  0
LINE
  8
LC-001-002-----0
 62
     1
  5
2D
 10
-83.498601
 20
300.742495
 30
0.0
 11
-86.498644
 21
300.742495
 31
0.0
  0
LINE
  8
LC-001-002-----0
 62
     1
  5
2E
 10
-75.498644
 20
309.742495
 30
0.0
 11
-77.498601
 21
309.742495
 31
0.0
  0
LINE
  8
LC-001-002-----0
 62
     1
  5
2F
 10
-83.498601
 20
309.742495
 30
0.0
 11
-85.498644
 21
309.742495
 31
0.0
  0
LINE
  8
LC-001-002-----0
 62
     1
  5
30
 10
-87.186544
 20
315.430321
 30
0.0
 11
-85.498644
 21
309.742495
 31
0.0
  0
LINE
  8
LC-001-002-----0
 62
     1
  5
31
 10
-74.498644
 20
300.742495
 30
0.0
 11
-75.498644
 21
309.742495
 31
0.0
  0
LINE
  8
LC-001-002-----0
 62
     1
  5
32
 10
-85.498644
 20
309.742495
 30
0.0
 11
-86.498644
 21
300.742495
 31
0.0
  0
LINE
  8
LC-001-002-----0
 62
     1
  5
33
 10
16.810116
 20
357.314321
 30
0.0
 11
16.810075
 21
372.114321
 31
0.0
  0
ARC
  8
LC-002-002-RND-0
 62
     1
  5
35
 10
-90.80211
 20
313.817504
 30
0.0
 40
3.925
 50
24.105895
 51
90.12741
  0
LINE
  8
LC-001-002-----0
 62
     1
  5
36
 10
71.397421
 20
331.752092
 30
0.0
 11
13.504817
 21
331.751933
 31
0.0
  0
LINE
  8
LC-001-002-----0
 62
     1
  5
37
 10
-73.810744
 20
315.430321
 30
0.0
 11
-75.498644
 21
309.742495
 31
0.0
  0
ARC
  8
LC-002-002-RND-0
 62
     1
  5
38
 10
-68.923166
 20
313.272996
 30
0.0
 40
3.925
 50
315.504186
 51
40.088251
  0
LINE
  8
LC-001-002-----0
 62
     1
  5
39
 10
-54.881227
 20
297.114251
 30
0.0
 11
-40.617153
 21
331.751933
 31
0.0
  0
LINE
  8
LC-001-002-----0
 62
     1
  5
3A
 10
-65.94376
 20
310.717852
 30
0.0
 11
-74.498644
 21
300.742495
 31
0.0
  0
LINE
  8
LC-001-002-----0
 62
     1
  5
3B
 10
-95.053528
 20
310.717852
 30
0.0
 11
-86.498644
 21
300.742495
 31
0.0
  0
ARC
  8
LC-002-002-RND-0
 62
     1
  5
3C
 10
-70.195178
 20
313.817504
 30
0.0
 40
3.925
 50
89.87259
 51
155.894105
  0
ARC
  8
LC-001-002-----0
 62
     1
  5
3D
 10
-70.186353
 20
312.209737
 30
0.0
 40
5.576109
 50
40.088251
 51
90.091384
  0
LINE
  8
LC-001-002-----0
 62
     1
  5
3E
 10
-83.498644
 20
300.742495
 30
0.0
 11
-83.498644
 21
300.742495
 31
0.0
  0
LINE
  8
LC-001-002-----0
 62
     1
  5
3F
 10
110.50833
 20
300.042495
 30
0.0
 11
110.710783
 21
300.042495
 31
0.0
  0
LINE
  8
LC-001-002-----0
 62
     1
  5
40
 10
104.50833
 20
299.342495
 30
0.0
 11
104.310783
 21
299.342495
 31
0.0
  0
LINE
  8
LC-001-002-----0
 62
     1
  5
41
 10
110.50833
 20
298.642482
 30
0.0
 11
112.483243
 21
298.642473
 31
0.0
  0
LINE
  8
LC-001-002-----0
 62
     1
  5
42
 10
104.50833
 20
298.642495
 30
0.0
 11
102.030409
 21
298.642495
 31
0.0
  0
LINE
  8
LC-001-002-----0
 62
     1
  5
43
 10
110.50833
 20
298.642901
 30
0.0
 11
112.483146
 21
298.642901
 31
0.0
  0
ARC
  8
LC-002-002-RND-0
 62
     1
  5
44
 10
-34.943823
 20
357.11425
 30
0.0
 40
15.0
 50
90.000079
 51
160.0
  0
LINE
  8
LC-001-002-----0
 62
     1
  5
45
 10
1.704904
 20
268.114251
 30
0.0
 11
13.469161
 21
268.114251
 31
0.0
  0
LINE
  8
LC-001-002-----0
 62
     1
  5
46
 10
104.50833
 20
274.196051
 30
0.0
 11
104.004874
 21
274.196048
 31
0.0
  0
LINE
  8
LC-001-002-----0
 62
     1
  5
47
 10
104.50833
 20
275.196051
 30
0.0
 11
100.50486
 21
275.196026
 31
0.0
  0
DIMENSION
  8
LC-004-003-----0
 62
     2
  5
66
  2
*D0
 10
158.015116
 20
117.6
 30
0.0
 11
158.015116
 21
117.6
 31
0.0
  1
DN70
 13
-23.995179
 23
145.950875
 33
0.0
 14
51.004821
 24
145.950875
 34
0.0
  3
LC-DIM-L-0140-02-02
  0
LINE
  8
LC-001-002-----0
 62
     1
  5
67
 10
-12.366777
 20
336.414251
 30
0.0
 11
-7.911571
 21
357.314287
 31
0.0
  0
LINE
  8
LC-001-002-----0
 62
     1
  5
68
 10
-34.943844
 20
372.11425
 30
0.0
 11
13.504762
 21
372.114316
 31
0.0
  0
LINE
  8
LC-001-002-----0
 62
     1
  5
69
 10
25.304876
 20
288.414285
 30
0.0
 11
25.304904
 21
268.114283
 31
0.0
  0
LINE
  8
LC-001-002-----0
 62
     1
  5
6A
 10
81.890956
 20
297.114439
 30
0.0
 11
67.626787
 21
331.752082
 31
0.0
  0
ARC
  8
LC-002-002-RND-0
 62
     1
  5
6B
 10
61.953388
 20
357.114383
 30
0.0
 40
15.0
 50
20.000157
 51
90.000079
  0
LINE
  8
LC-001-002-----0
 62
     1
  5
6C
 10
-56.994872
 20
297.114251
 30
0.0
 11
-29.697103
 21
372.114257
 31
0.0
  0
LINE
  8
LC-001-002-----0
 62
     1
  5
6D
 10
-28.982106
 20
368.029125
 30
0.0
 11
-27.495238
 21
372.11426
 31
0.0
  0
LINE
  8
LC-001-002-----0
 62
     1
  5
6E
 10
-31.334971
 20
367.614251
 30
0.0
 11
-28.982106
 21
368.029125
 31
0.0
  0
LINE
  8
LC-001-002-----0
 62
     1
  5
6F
 10
25.304904
 20
268.114283
 30
0.0
 11
13.540647
 21
268.114251
 31
0.0
  0
LINE
  8
LC-001-002-----0
 62
     1
  5
70
 10
39.376398
 20
336.414322
 30
0.0
 11
34.921135
 21
357.314346
 31
0.0
  0
LINE
  8
LC-001-002-----0
 62
     1
  5
71
 10
99.090428
 20
298.93881
 30
0.0
 11
96.165412
 21
306.975156
 31
0.0
  0
INSERT
  8
LC-006-005-----0
 62
     2
  5
82
  2
*X1
 10
0.0
 20
0.0
 30
0.0
  0
LINE
  8
LC-001-002-----0
 62
     1
  5
83
 10
84.004612
 20
289.414444
 30
0.0
 11
26.153957
 21
289.414286
 31
0.0
  0
LINE
  8
LC-001-002-----0
 62
     1
  5
84
 10
27.304876
 20
288.414287
 30
0.0
 11
27.304887
 21
280.414289
 31
0.0
  0
ARC
  8
LC-002-002-RND-0
 62
     1
  5
85
 10
26.304876
 20
288.414286
 30
0.0
 40
1.0
 50
90.000157
 51
180.000079
  0
LINE
  8
LC-001-002-----0
 62
     1
  5
86
 10
84.004601
 20
297.114444
 30
0.0
 11
56.706626
 21
372.114375
 31
0.0
  0
LINE
  8
LC-001-002-----0
 62
     1
  5
87
 10
-68.888137
 20
297.114251
 30
0.0
 11
-72.080704
 21
298.938575
 31
0.0
  0
LINE
  8
LC-001-002-----0
 62
     1
  5
88
 10
55.991641
 20
368.029241
 30
0.0
 11
54.504762
 21
372.114372
 31
0.0
  0
LINE
  8
LC-001-002-----0
 62
     1
  5
89
 10
58.344506
 20
367.614374
 30
0.0
 11
55.991641
 21
368.029241
 31
0.0
  0
LINE
  8
LC-001-002-----0
 62
     1
  5
8A
 10
92.950747
 20
315.807301
 30
0.0
 11
76.048763
 21
362.244723
 31
0.0
  0
LINE
  8
LC-001-002-----0
 62
     1
  5
8B
 10
81.295672
 20
297.114437
 30
0.0
 11
67.031503
 21
331.75208
 31
0.0
  0
LINE
  8
LC-001-002-----0
 62
     1
  5
8C
 10
59.46594
 20
336.414377
 30
0.0
 11
51.749245
 21
357.314369
 31
0.0
  0
INSERT
  8
LC-006-005-----0
 62
     2
  5
9C
  2
*X2
 10
0.0
 20
0.0
 30
0.0
  0
LINE
  8
LC-001-002-----0
 62
     1
  5
9D
 10
60.615939
 20
336.41438
 30
0.0
 11
52.899245
 21
357.31437
 31
0.0
  0
LINE
  8
LC-001-002-----0
 62
     1
  5
9E
 10
64.162172
 20
297.11439
 30
0.0
 11
53.720053
 21
331.752044
 31
0.0
  0
LINE
  8
LC-001-002-----0
 62
     1
  5
9F
 10
62.535826
 20
297.114385
 30
0.0
 11
52.075481
 21
331.752039
 31
0.0
  0
LINE
  8
LC-001-002-----0
 62
     1
  5
A0
 10
65.706794
 20
336.414394
 30
0.0
 11
57.099948
 21
357.314376
 31
0.0
  0
LINE
  8
LC-001-002-----0
 62
     1
  5
A1
 10
95.947684
 20
297.142945
 30
0.0
 11
99.090428
 21
298.93881
 31
0.0
  0
LINE
  8
LC-001-002-----0
 62
     1
  5
A2
 10
12.355125
 20
357.314315
 30
0.0
 11
12.355125
 21
336.414251
 31
0.0
  0
ARC
  8
LC-002-002-RND-0
 62
     1
  5
A3
 10
-60.894834
 20
269.114251
 30
0.0
 40
1.0
 50
90.0
 51
180.000079
  0
LINE
  8
LC-001-002-----0
 62
     1
  5
A4
 10
-42.690842
 20
336.414251
 30
0.0
 11
-42.690842
 21
332.051151
 31
0.0
  0
ARC
  8
LC-002-002-RND-0
 62
     1
  5
A5
 10
-60.894834
 20
269.114251
 30
0.0
 40
1.0
 50
180.000079
 51
270.0
  0
LINE
  8
LC-001-002-----0
 62
     1
  5
A6
 10
-60.994834
 20
268.114251
 30
0.0
 11
-59.494832
 21
268.114251
 31
0.0
  0
LINE
  8
LC-001-002-----0
 62
     1
  5
A7
 10
-64.394849
 20
280.414251
 30
0.0
 11
-60.394849
 21
280.414251
 31
0.0
  0
ARC
  8
LC-002-002-RND-0
 62
     1
  5
A8
 10
-60.894836
 20
270.614251
 30
0.0
 40
0.5
 50
270.0
 51
0.000079
  0
LINE
  8
LC-001-002-----0
 62
     1
  5
A9
 10
-60.894834
 20
268.114251
 30
0.0
 11
-57.494833
 21
268.114251
 31
0.0
  0
LINE
  8
LC-001-002-----0
 62
     1
  5
AA
 10
-23.657871
 20
336.414251
 30
0.0
 11
-17.346263
 21
357.314274
 31
0.0
  0
LINE
  8
LC-001-002-----0
 62
     1
  5
AB
 10
-44.387787
 20
331.751933
 30
0.0
 11
-42.690842
 21
332.051151
 31
0.0
  0
ARC
  8
LC-002-002-RND-0
 62
     1
  5
AC
 10
-64.394849
 20
280.914251
 30
0.0
 40
0.5
 50
180.000079
 51
270.0
  0
LINE
  8
LC-001-002-----0
 62
     1
  5
AD
 10
-25.304896
 20
336.414251
 30
0.0
 11
-19.004286
 21
357.314272
 31
0.0
  0
LINE
  8
LC-001-002-----0
 62
     1
  5
AE
 10
-57.494862
 20
289.414251
 30
0.0
 11
-57.494833
 21
268.114251
 31
0.0
  0
LINE
  8
LC-001-002-----0
 62
     1
  5
AF
 10
-57.494849
 20
280.414251
 30
0.0
 11
-0.295113
 21
280.414251
 31
0.0
  0
LINE
  8
LC-001-002-----0
 62
     1
  5
B0
 10
-64.894872
 20
297.114251
 30
0.0
 11
-64.894849
 21
280.91425
 31
0.0
  0
LINE
  8
LC-001-002-----0
 62
     1
  5
B1
 10
-35.083865
 20
357.31425
 30
0.0
 11
13.504782
 21
357.314316
 31
0.0
  0
INSERT
  8
LC-006-005-----0
 62
     2
  5
B9
  2
*X3
 10
0.0
 20
0.0
 30
0.0
  0
LINE
  8
LC-001-002-----0
 62
     1
  5
BA
 10
-14.358635
 20
336.414251
 30
0.0
 11
-9.903429
 21
357.314284
 31
0.0
  0
LINE
  8
LC-001-002-----0
 62
     1
  5
BB
 10
-42.690842
 20
336.414251
 30
0.0
 11
13.504811
 21
336.414251
 31
0.0
  0
LINE
  8
LC-001-002-----0
 62
     1
  5
BC
 10
-44.387787
 20
331.751933
 30
0.0
 11
13.504817
 21
331.751933
 31
0.0
  0
LINE
  8
LC-001-002-----0
 62
     1
  5
BD
 10
75.126271
 20
297.11442
 30
0.0
 11
62.337359
 21
331.752067
 31
0.0
  0
LINE
  8
LC-001-002-----0
 62
     1
  5
BE
 10
30.638104
 20
297.114298
 30
0.0
 11
26.815965
 21
331.75197
 31
0.0
  0
LINE
  8
LC-001-002-----0
 62
     1
  5
BF
 10
-1.513503
 20
336.414251
 30
0.0
 11
0.792682
 21
357.314299
 31
0.0
  0
LINE
  8
LC-001-002-----0
 62
     1
  5
C0
 10
1.704876
 20
288.414252
 30
0.0
 11
1.704904
 21
268.114251
 31
0.0
  0
LINE
  8
LC-001-002-----0
 62
     1
  5
C1
 10
-56.994862
 20
289.414251
 30
0.0
 11
0.855793
 21
289.414251
 31
0.0
  0
LINE
  8
LC-001-002-----0
 62
     1
  5
C2
 10
-0.295124
 20
288.41425
 30
0.0
 11
-0.295113
 21
280.414251
 31
0.0
  0
LINE
  8
LC-001-002-----0
 62
     1
  5
C3
 10
32.859734
 20
297.114304
 30
0.0
 11
29.037594
 21
331.751976
 31
0.0
  0
ARC
  8
LC-002-002-RND-0
 62
     1
  5
C4
 10
0.704876
 20
288.414251
 30
0.0
 40
1.0
 50
90.0
 51
180.000079
  0
LINE
  8
LC-001-002-----0
 62
     1
  5
C5
 10
49.745843
 20
297.11435
 30
0.0
 11
42.362123
 21
331.752013
 31
0.0
  0
ARC
  8
LC-002-002-RND-0
 62
     1
  5
C6
 10
0.704876
 20
288.414251
 30
0.0
 40
1.0
 50
0.000079
 51
90.0
  0
LINE
  8
LC-001-002-----0
 62
     1
  5
C7
 10
47.753985
 20
297.114345
 30
0.0
 11
40.370265
 21
331.752007
 31
0.0
  0
LINE
  8
LC-001-002-----0
 62
     1
  5
C8
 10
73.976271
 20
297.114417
 30
0.0
 11
61.187359
 21
331.752064
 31
0.0
  0
LINE
  8
LC-001-002-----0
 62
     1
  5
C9
 10
0.708126
 20
336.414251
 30
0.0
 11
3.014311
 21
357.314302
 31
0.0
  0
LINE
  8
LC-001-002-----0
 62
     1
  5
CA
 10
12.355125
 20
331.751933
 30
0.0
 11
12.355125
 21
297.114251
 31
0.0
  0
LINE
  8
LC-001-002-----0
 62
     1
  5
CB
 10
65.111511
 20
336.414393
 30
0.0
 11
56.504664
 21
357.314375
 31
0.0
  0
LINE
  8
LC-001-002-----0
 62
     1
  5
CC
 10
-57.494862
 20
289.414251
 30
0.0
 11
-56.994862
 21
289.414251
 31
0.0
  0
LINE
  8
LC-001-002-----0
 62
     1
  5
CD
 10
-0.033026
 20
289.414251
 30
0.0
 11
13.504892
 21
289.414251
 31
0.0
  0
LINE
  8
LC-001-002-----0
 62
     1
  5
CE
 10
-56.994872
 20
297.114251
 30
0.0
 11
-56.994862
 21
289.414251
 31
0.0
  0
LINE
  8
LC-001-002-----0
 62
     1
  5
CF
 10
-60.394872
 20
297.114251
 30
0.0
 11
-60.394836
 21
270.614252
 31
0.0
  0
LINE
  8
LC-001-002-----0
 62
     1
  5
D0
 10
-38.10189
 20
336.414251
 30
0.0
 11
-29.4951
 21
357.314257
 31
0.0
  0
LINE
  8
LC-001-002-----0
 62
     1
  5
D1
 10
-46.966542
 20
297.114251
 30
0.0
 11
-34.177725
 21
331.751933
 31
0.0
  0
LINE
  8
LC-001-002-----0
 62
     1
  5
D2
 10
-20.744256
 20
297.114251
 30
0.0
 11
-13.360631
 21
331.751933
 31
0.0
  0
LINE
  8
LC-001-002-----0
 62
     1
  5
D3
 10
-22.736114
 20
297.114251
 30
0.0
 11
-15.352489
 21
331.751933
 31
0.0
  0
LINE
  8
LC-001-002-----0
 62
     1
  5
D4
 10
-5.850005
 20
297.114251
 30
0.0
 11
-2.02796
 21
331.751933
 31
0.0
  0
LINE
  8
LC-001-002-----0
 62
     1
  5
D5
 10
-3.628375
 20
297.114251
 30
0.0
 11
0.193669
 21
331.751933
 31
0.0
  0
LINE
  8
LC-001-002-----0
 62
     1
  5
D6
 10
-48.116542
 20
297.114251
 30
0.0
 11
-35.327725
 21
331.751933
 31
0.0
  0
LINE
  8
LC-001-002-----0
 62
     1
  5
D7
 10
-38.697173
 20
336.414251
 30
0.0
 11
-30.090384
 21
357.314256
 31
0.0
  0
LINE
  8
LC-001-002-----0
 62
     1
  5
D8
 10
-35.526097
 20
297.114251
 30
0.0
 11
-25.065847
 21
331.751933
 31
0.0
  0
LINE
  8
LC-001-002-----0
 62
     1
  5
D9
 10
-37.152443
 20
297.114251
 30
0.0
 11
-26.710419
 21
331.751933
 31
0.0
  0
LINE
  8
LC-001-002-----0
 62
     1
  5
DA
 10
-33.606318
 20
336.414251
 30
0.0
 11
-25.889681
 21
357.314262
 31
0.0
  0
LINE
  8
LC-001-002-----0
 62
     1
  5
DB
 10
-32.456319
 20
336.414251
 30
0.0
 11
-24.739681
 21
357.314264
 31
0.0
  0
LINE
  8
LC-001-002-----0
 62
     1
  5
DC
 10
-54.285943
 20
297.114251
 30
0.0
 11
-40.021869
 21
331.751933
 31
0.0
  0
LINE
  8
LC-001-002-----0
 62
     1
  5
DD
 10
-65.940993
 20
315.807292
 30
0.0
 11
-49.039213
 21
362.244552
 31
0.0
  0
LINE
  8
LC-001-002-----0
 62
     1
  5
DE
 10
87.404601
 20
297.114454
 30
0.0
 11
87.404638
 21
270.614454
 31
0.0
  0
LINE
  8
LC-001-002-----0
 62
     1
  5
DF
 10
84.004601
 20
297.114444
 30
0.0
 11
84.004612
 21
289.414444
 31
0.0
  0
LINE
  8
LC-001-002-----0
 62
     1
  5
E0
 10
27.042776
 20
289.414288
 30
0.0
 11
13.504858
 21
289.414251
 31
0.0
  0
LINE
  8
LC-001-002-----0
 62
     1
  5
E1
 10
84.504612
 20
289.414446
 30
0.0
 11
84.004612
 21
289.414444
 31
0.0
  0
LINE
  8
LC-001-002-----0
 62
     1
  5
E2
 10
-72.080704
 20
298.938575
 30
0.0
 11
-69.155586
 21
306.975269
 31
0.0
  0
LINE
  8
LC-001-002-----0
 62
     1
  5
E3
 10
-68.494832
 20
297.142588
 30
0.0
 11
13.504851
 21
297.142766
 31
0.0
  0
ARC
  8
LC-002-002-RND-0
 62
     1
  5
E4
 10
26.304876
 20
288.414286
 30
0.0
 40
1.0
 50
0.000079
 51
90.000157
  0
LINE
  8
LC-001-002-----0
 62
     1
  5
E5
 10
14.654439
 20
357.314318
 30
0.0
 11
14.654496
 21
336.414254
 31
0.0
  0
ARC
  8
LC-002-002-RND-0
 62
     1
  5
E6
 10
87.90464
 20
269.114455
 30
0.0
 40
1.0
 50
0.000079
 51
90.000157
  0
LINE
  8
LC-001-002-----0
 62
     1
  5
E7
 10
69.700463
 20
336.414405
 30
0.0
 11
69.700475
 21
332.051305
 31
0.0
  0
ARC
  8
LC-002-002-RND-0
 62
     1
  5
E8
 10
87.90464
 20
269.114455
 30
0.0
 40
1.0
 50
270.000157
 51
0.000079
  0
LINE
  8
LC-001-002-----0
 62
     1
  5
E9
 10
88.004643
 20
268.114455
 30
0.0
 11
86.504641
 21
268.114451
 31
0.0
  0
LINE
  8
LC-001-002-----0
 62
     1
  5
EA
 10
91.404624
 20
280.414465
 30
0.0
 11
87.404624
 21
280.414454
 31
0.0
  0
ARC
  8
LC-002-002-RND-0
 62
     1
  5
EB
 10
87.904638
 20
270.614455
 30
0.0
 40
0.5
 50
180.000079
 51
270.000157
  0
LINE
  8
LC-001-002-----0
 62
     1
  5
EC
 10
87.904643
 20
268.114455
 30
0.0
 11
84.504641
 21
268.114446
 31
0.0
  0
LINE
  8
LC-001-002-----0
 62
     1
  5
ED
 10
50.667493
 20
336.414353
 30
0.0
 11
44.355827
 21
357.314359
 31
0.0
  0
LINE
  8
LC-001-002-----0
 62
     1
  5
EE
 10
71.397421
 20
331.752092
 30
0.0
 11
69.700475
 21
332.051305
 31
0.0
  0
ARC
  8
LC-002-002-RND-0
 62
     1
  5
EF
 10
91.404623
 20
280.914465
 30
0.0
 40
0.5
 50
270.000157
 51
0.000079
  0
LINE
  8
LC-001-002-----0
 62
     1
  5
F0
 10
52.314518
 20
336.414357
 30
0.0
 11
46.01385
 21
357.314361
 31
0.0
  0
LINE
  8
LC-001-002-----0
 62
     1
  5
F1
 10
84.504612
 20
289.414446
 30
0.0
 11
84.504641
 21
268.114446
 31
0.0
  0
LINE
  8
LC-001-002-----0
 62
     1
  5
F2
 10
91.904601
 20
297.114466
 30
0.0
 11
91.904623
 21
280.914465
 31
0.0
  0
LINE
  8
LC-001-002-----0
 62
     1
  5
F3
 10
61.953367
 20
372.114383
 30
0.0
 11
13.504762
 21
372.114316
 31
0.0
  0
INSERT
  8
LC-006-005-----0
 62
     2
  5
FC
  2
*X4
 10
0.0
 20
0.0
 30
0.0
  0
LINE
  8
LC-001-002-----0
 62
     1
  5
FD
 10
41.368256
 20
336.414327
 30
0.0
 11
36.912993
 21
357.314348
 31
0.0
  0
LINE
  8
LC-001-002-----0
 62
     1
  5
FE
 10
62.093429
 20
357.314383
 30
0.0
 11
13.504782
 21
357.314316
 31
0.0
  0
LINE
  8
LC-001-002-----0
 62
     1
  5
FF
 10
69.700463
 20
336.414405
 30
0.0
 11
13.504811
 21
336.414251
 31
0.0
  0
LINE
  8
LC-001-002-----0
 62
     1
  5
100
 10
14.654509
 20
331.751937
 30
0.0
 11
14.654604
 21
297.114254
 31
0.0
  0
LINE
  8
LC-001-002-----0
 62
     1
  5
101
 10
26.301495
 20
336.414286
 30
0.0
 11
23.995253
 21
357.314331
 31
0.0
  0
LINE
  8
LC-001-002-----0
 62
     1
  5
102
 10
28.523125
 20
336.414292
 30
0.0
 11
26.216882
 21
357.314334
 31
0.0
  0
LINE
  8
LC-001-002-----0
 62
     1
  5
103
 10
95.504561
 20
297.142813
 30
0.0
 11
13.504877
 21
297.142766
 31
0.0
  0
LINE
  8
LC-001-002-----0
 62
     1
  5
104
 10
89.754821
 20
267.000988
 30
0.0
 11
-62.745179
 21
267.000988
 31
0.0
  0
LINE
  8
LC-001-002-----0
 62
     1
  5
105
 10
-63.745179
 20
262.500988
 30
0.0
 11
-62.745179
 21
261.500988
 31
0.0
  0
LINE
  8
LC-001-002-----0
 62
     1
  5
106
 10
89.754821
 20
261.500988
 30
0.0
 11
90.754821
 21
262.500988
 31
0.0
  0
LINE
  8
LC-001-002-----0
 62
     1
  5
107
 10
-86.99514
 20
275.695481
 30
0.0
 11
-86.99514
 21
287.288655
 31
0.0
  0
INSERT
  8
LC-006-005-----0
 62
     2
  5
11B
  2
*X5
 10
0.0
 20
0.0
 30
0.0
  0
LINE
  8
LC-001-002-----0
 62
     1
  5
11C
 10
89.754821
 20
267.000988
 30
0.0
 11
89.754821
 21
266.000988
 31
0.0
  0
INSERT
  8
LC-006-005-----0
 62
     2
  5
12B
  2
*X6
 10
0.0
 20
0.0
 30
0.0
  0
LINE
  8
LC-001-002-----0
 62
     1
  5
12C
 10
89.754821
 20
266.000988
 30
0.0
 11
90.754821
 21
266.000988
 31
0.0
  0
LINE
  8
LC-001-002-----0
 62
     1
  5
12D
 10
90.754821
 20
262.500988
 30
0.0
 11
90.754821
 21
266.000988
 31
0.0
  0
LINE
  8
LC-001-002-----0
 62
     1
  5
12E
 10
-86.500825
 20
300.742495
 30
0.0
 11
-83.498601
 21
300.742495
 31
0.0
  0
LINE
  8
LC-001-002-----0
 62
     1
  5
12F
 10
-77.498601
 20
300.742495
 30
0.0
 11
-74.500825
 21
300.742495
 31
0.0
  0
LINE
  8
LC-001-002-----0
 62
     1
  5
130
 10
86.754821
 20
261.500988
 30
0.0
 11
89.754821
 21
261.500988
 31
0.0
  0
LINE
  8
LC-001-002-----0
 62
     1
  5
131
 10
86.754821
 20
261.500988
 30
0.0
 11
86.754821
 21
263.500988
 31
0.0
  0
LINE
  8
LC-001-002-----0
 62
     1
  5
132
 10
86.754821
 20
263.500988
 30
0.0
 11
82.254821
 21
263.500988
 31
0.0
  0
LINE
  8
LC-001-002-----0
 62
     1
  5
133
 10
79.254821
 20
267.000988
 30
0.0
 11
78.254821
 21
259.000988
 31
0.0
  0
LINE
  8
LC-001-002-----0
 62
     1
  5
134
 10
-63.995179
 20
208.450875
 30
0.0
 11
-63.995179
 21
217.450875
 31
0.0
  0
INSERT
  8
LC-006-005-----0
 62
     2
  5
143
  2
*X7
 10
0.0
 20
0.0
 30
0.0
  0
LINE
  8
LC-001-002-----0
 62
     1
  5
144
 10
79.254821
 20
259.000988
 30
0.0
 11
82.254821
 21
259.000988
 31
0.0
  0
LINE
  8
LC-001-002-----0
 62
     1
  5
145
 10
82.254821
 20
259.000988
 30
0.0
 11
82.254821
 21
263.500988
 31
0.0
  0
DIMENSION
  8
LC-004-003-----0
 62
     2
  5
160
  2
*D8
 10
13.504821
 20
72.0
 30
0.0
 11
13.504821
 21
72.0
 31
0.0
  1
%%c<>
 13
-66.495179
 23
210.850191
 33
0.0
 14
93.504821
 24
208.450875
 34
0.0
  3
LC-DIM-L-0140-01-02
  0
LINE
  8
LC-001-002-----0
 62
     1
  5
161
 10
-76.995132
 20
275.195481
 30
0.0
 11
-76.995132
 21
274.195777
 31
0.0
  0
ARC
  8
LC-002-002-RND-0
 62
     1
  5
162
 10
90.504572
 20
278.142885
 30
0.0
 40
3.0
 50
270.000248
 51
0.000111
  0
LINE
  8
LC-001-002-----0
 62
     1
  5
163
 10
93.504539
 20
294.142899
 30
0.0
 11
93.504572
 21
278.142891
 31
0.0
  0
ARC
  8
LC-002-002-RND-0
 62
     1
  5
164
 10
95.504539
 20
294.142899
 30
0.0
 40
2.0
 50
90.0
 51
180.0
  0
LINE
  8
LC-001-002-----0
 62
     1
  5
165
 10
100.611573
 20
296.142901
 30
0.0
 11
95.504539
 21
296.142899
 31
0.0
  0
LINE
  8
LC-001-002-----0
 62
     1
  5
166
 10
104.504466
 20
297.642901
 30
0.0
 11
102.525786
 21
297.642901
 31
0.0
  0
LINE
  8
LC-001-002-----0
 62
     1
  5
167
 10
115.427459
 20
296.142893
 30
0.0
 11
114.397347
 21
296.142904
 31
0.0
  0
LINE
  8
LC-001-002-----0
 62
     1
  5
168
 10
115.427459
 20
296.142893
 30
0.0
 11
135.819162
 21
300.477375
 31
0.0
  0
LINE
  8
LC-001-002-----0
 62
     1
  5
169
 10
104.504466
 20
297.642901
 30
0.0
 11
104.50833
 21
297.642901
 31
0.0
  0
LINE
  8
LC-001-002-----0
 62
     1
  5
16A
 10
111.004466
 20
298.642901
 30
0.0
 11
111.004466
 21
297.642901
 31
0.0
  0
LINE
  8
LC-001-002-----0
 62
     1
  5
16B
 10
104.004466
 20
298.642901
 30
0.0
 11
104.004466
 21
297.642901
 31
0.0
  0
ARC
  8
LC-002-002-RND-0
 62
     1
  5
16C
 10
100.611573
 20
297.142901
 30
0.0
 40
1.0
 50
270.00002
 51
315.0
  0
ARC
  8
LC-002-002-RND-0
 62
     1
  5
16D
 10
114.397357
 20
297.142904
 30
0.0
 40
1.0
 50
225.0
 51
269.999425
  0
ARC
  8
LC-002-002-RND-0
 62
     1
  5
16E
 10
117.514391
 20
295.556929
 30
0.0
 40
1.0
 50
101.228794
 51
108.020284
  0
LINE
  8
LC-001-002-----0
 62
     1
  5
16F
 10
112.483146
 20
297.642902
 30
0.0
 11
110.50833
 21
297.642901
 31
0.0
  0
LINE
  8
LC-001-002-----0
 62
     1
  5
170
 10
101.31868
 20
296.435794
 30
0.0
 11
102.525786
 21
297.642901
 31
0.0
  0
LINE
  8
LC-001-002-----0
 62
     1
  5
171
 10
112.483146
 20
297.642902
 30
0.0
 11
113.69025
 21
296.435797
 31
0.0
  0
LINE
  8
LC-001-002-----0
 62
     1
  5
172
 10
-62.745179
 20
267.000988
 30
0.0
 11
-62.745179
 21
266.000988
 31
0.0
  0
LINE
  8
LC-001-002-----0
 62
     1
  5
173
 10
-62.745179
 20
266.000988
 30
0.0
 11
-63.745179
 21
266.000988
 31
0.0
  0
LINE
  8
LC-001-002-----0
 62
     1
  5
174
 10
138.004384
 20
302.358397
 30
0.0
 11
136.886079
 21
302.343334
 31
0.0
  0
LINE
  8
LC-001-002-----0
 62
     1
  5
175
 10
90.504585
 20
275.142885
 30
0.0
 11
90.00493
 21
275.142883
 31
0.0
  0
LINE
  8
LC-001-002-----0
 62
     1
  5
176
 10
95.504526
 20
297.142911
 30
0.0
 11
100.611605
 21
297.142933
 31
0.0
  0
LINE
  8
LC-001-002-----0
 62
     1
  5
177
 10
88.504933
 20
274.642891
 30
0.0
 11
88.504943
 21
272.142892
 31
0.0
  0
ARC
  8
LC-002-002-RND-0
 62
     1
  5
178
 10
90.504572
 20
278.142897
 30
0.0
 40
2.0
 50
270.00002
 51
0.000111
  0
ARC
  8
LC-002-002-RND-0
 62
     1
  5
179
 10
95.504539
 20
294.142911
 30
0.0
 40
3.0
 50
90.000248
 51
180.000111
  0
ARC
  8
LC-001-002-----0
 62
     1
  5
17A
 10
135.195415
 20
303.411815
 30
0.0
 40
3.0
 50
282.000248
 51
339.442977
  0
ARC
  8
LC-001-002-----0
 62
     1
  5
17B
 10
135.195415
 20
303.411815
 30
0.0
 40
2.0
 50
282.000248
 51
327.70757
  0
ARC
  8
LC-002-002-RND-0
 62
     1
  5
17C
 10
90.004933
 20
274.642883
 30
0.0
 40
0.5
 50
90.000248
 51
180.000248
  0
ARC
  8
LC-002-002-RND-0
 62
     1
  5
17D
 10
90.004933
 20
274.642897
 30
0.0
 40
1.5
 50
90.00002
 51
180.000248
  0
LINE
  8
LC-001-002-----0
 62
     1
  5
17E
 10
89.504933
 20
274.642881
 30
0.0
 11
89.504943
 21
272.142897
 31
0.0
  0
LINE
  8
LC-001-002-----0
 62
     1
  5
17F
 10
89.504943
 20
272.142897
 30
0.0
 11
88.504943
 21
272.142892
 31
0.0
  0
LINE
  8
LC-001-002-----0
 62
     1
  5
180
 10
90.504572
 20
276.142897
 30
0.0
 11
90.004932
 21
276.142897
 31
0.0
  0
LINE
  8
LC-001-002-----0
 62
     1
  5
181
 10
92.504539
 20
294.142905
 30
0.0
 11
92.504572
 21
278.142901
 31
0.0
  0
LINE
  8
LC-001-002-----0
 62
     1
  5
182
 10
102.525787
 20
298.642901
 30
0.0
 11
104.50833
 21
298.642901
 31
0.0
  0
LINE
  8
LC-001-002-----0
 62
     1
  5
183
 10
100.611573
 20
297.142901
 30
0.0
 11
101.81868
 21
298.350008
 31
0.0
  0
LINE
  8
LC-001-002-----0
 62
     1
  5
184
 10
115.322357
 20
297.142894
 30
0.0
 11
114.397357
 21
297.142904
 31
0.0
  0
LINE
  8
LC-001-002-----0
 62
     1
  5
185
 10
113.190253
 20
298.350008
 30
0.0
 11
114.397357
 21
297.142904
 31
0.0
  0
LINE
  8
LC-001-002-----0
 62
     1
  5
186
 10
115.322357
 20
297.142894
 30
0.0
 11
135.611246
 21
301.455522
 31
0.0
  0
ARC
  8
LC-002-002-RND-0
 62
     1
  5
187
 10
102.525787
 20
297.642901
 30
0.0
 40
1.0
 50
90.0
 51
135.0
  0
ARC
  8
LC-002-002-RND-0
 62
     1
  5
188
 10
112.483146
 20
297.642901
 30
0.0
 40
1.0
 50
45.0
 51
90.0
  0
INSERT
  8
LC-006-005-----0
 62
     2
  5
1A9
  2
*X9
 10
0.0
 20
0.0
 30
0.0
  0
INSERT
  8
LC-006-005-----0
 62
     2
  5
1C4
  2
*X10
 10
0.0
 20
0.0
 30
0.0
  0
LINE
  8
LC-001-002-----0
 62
     1
  5
1C5
 10
-66.995179
 20
208.450875
 30
0.0
 11
-63.995179
 21
208.450875
 31
0.0
  0
ARC
  8
LC-002-002-RND-0
 62
     1
  5
1C6
 10
-58.995179
 20
203.450875
 30
0.0
 40
2.5
 50
180.0
 51
270.0
  0
LINE
  8
LC-001-002-----0
 62
     1
  5
1C7
 10
-66.995179
 20
206.450875
 30
0.0
 11
-66.995179
 21
208.450875
 31
0.0
  0
ARC
  8
LC-002-002-RND-0
 62
     1
  5
1C8
 10
-58.995179
 20
206.450875
 30
0.0
 40
8.0
 50
180.0
 51
270.0
  0
LINE
  8
LC-001-002-----0
 62
     1
  5
1C9
 10
-63.745179
 20
266.000988
 30
0.0
 11
-63.745179
 21
262.500988
 31
0.0
  0
LINE
  8
LC-001-002-----0
 62
     1
  5
1CA
 10
-62.745179
 20
261.500988
 30
0.0
 11
-59.745179
 21
261.500988
 31
0.0
  0
LINE
  8
LC-001-002-----0
 62
     1
  5
1CB
 10
-59.745179
 20
261.500988
 30
0.0
 11
-59.745179
 21
263.500988
 31
0.0
  0
ARC
  8
LC-002-002-RND-0
 62
     1
  5
1CC
 10
-63.494851
 20
278.142552
 30
0.0
 40
3.0
 50
180.000136
 51
270.0
  0
LINE
  8
LC-001-002-----0
 62
     1
  5
1CD
 10
-66.494888
 20
294.142553
 30
0.0
 11
-66.494851
 21
278.142545
 31
0.0
  0
ARC
  8
LC-002-002-RND-0
 62
     1
  5
1CE
 10
-68.494888
 20
294.142544
 30
0.0
 40
2.0
 50
0.000248
 51
90.000248
  0
LINE
  8
LC-001-002-----0
 62
     1
  5
1CF
 10
-73.601931
 20
296.142524
 30
0.0
 11
-68.494897
 21
296.142544
 31
0.0
  0
LINE
  8
LC-001-002-----0
 62
     1
  5
1D0
 10
-77.498601
 20
297.642508
 30
0.0
 11
-75.51615
 21
297.642516
 31
0.0
  0
LINE
  8
LC-001-002-----0
 62
     1
  5
1D1
 10
-88.417816
 20
296.142451
 30
0.0
 11
-87.387705
 21
296.142467
 31
0.0
  0
LINE
  8
LC-001-002-----0
 62
     1
  5
1D2
 10
-88.417816
 20
296.142451
 30
0.0
 11
-108.809539
 21
300.476846
 31
0.0
  0
LINE
  8
LC-001-002-----0
 62
     1
  5
1D3
 10
-59.745179
 20
263.500988
 30
0.0
 11
-55.245179
 21
263.500988
 31
0.0
  0
LINE
  8
LC-001-002-----0
 62
     1
  5
1D4
 10
-52.245179
 20
267.000988
 30
0.0
 11
-51.245179
 21
259.000988
 31
0.0
  0
LINE
  8
LC-001-002-----0
 62
     1
  5
1D5
 10
79.254821
 20
259.000988
 30
0.0
 11
-55.245179
 21
259.000988
 31
0.0
  0
INSERT
  8
LC-006-005-----0
 62
     2
  5
1E6
  2
*X11
 10
0.0
 20
0.0
 30
0.0
  0
LINE
  8
LC-001-002-----0
 62
     1
  5
1E7
 10
-77.49483
 20
297.642508
 30
0.0
 11
-77.498601
 21
297.642508
 31
0.0
  0
LINE
  8
LC-001-002-----0
 62
     1
  5
1E8
 10
-83.994834
 20
298.642479
 30
0.0
 11
-83.99483
 21
297.642479
 31
0.0
  0
LINE
  8
LC-001-002-----0
 62
     1
  5
1E9
 10
-76.994834
 20
298.64251
 30
0.0
 11
-76.99483
 21
297.64251
 31
0.0
  0
ARC
  8
LC-002-002-RND-0
 62
     1
  5
1EA
 10
-73.601935
 20
297.142524
 30
0.0
 40
1.0
 50
225.000248
 51
270.000228
  0
ARC
  8
LC-002-002-RND-0
 62
     1
  5
1EB
 10
-87.387719
 20
297.142467
 30
0.0
 40
1.0
 50
270.000823
 51
315.000248
  0
ARC
  8
LC-002-002-RND-0
 62
     1
  5
1EC
 10
-90.504746
 20
295.556479
 30
0.0
 40
1.0
 50
71.979964
 51
78.771454
  0
LINE
  8
LC-001-002-----0
 62
     1
  5
1ED
 10
-85.47351
 20
297.642474
 30
0.0
 11
-83.498601
 21
297.642482
 31
0.0
  0
LINE
  8
LC-001-002-----0
 62
     1
  5
1EE
 10
-74.309038
 20
296.435414
 30
0.0
 11
-75.51615
 21
297.642516
 31
0.0
  0
LINE
  8
LC-001-002-----0
 62
     1
  5
1EF
 10
-85.47351
 20
297.642474
 30
0.0
 11
-86.680609
 21
296.435364
 31
0.0
  0
LINE
  8
LC-001-002-----0
 62
     1
  5
1F0
 10
-55.245179
 20
259.000988
 30
0.0
 11
-55.245179
 21
263.500988
 31
0.0
  0
LINE
  8
LC-001-002-----0
 62
     1
  5
1F1
 10
86.754821
 20
261.500988
 30
0.0
 11
85.004821
 21
261.500988
 31
0.0
  0
LINE
  8
LC-001-002-----0
 62
     1
  5
1F2
 10
-110.994769
 20
302.357858
 30
0.0
 11
-109.876464
 21
302.3428
 31
0.0
  0
LINE
  8
LC-001-002-----0
 62
     1
  5
1F3
 10
-63.494851
 20
275.142552
 30
0.0
 11
-62.995197
 21
275.142552
 31
0.0
  0
LINE
  8
LC-001-002-----0
 62
     1
  5
1F4
 10
-68.494888
 20
297.142556
 30
0.0
 11
-73.601967
 21
297.142556
 31
0.0
  0
LINE
  8
LC-001-002-----0
 62
     1
  5
1F5
 10
-61.495197
 20
274.642566
 30
0.0
 11
-61.495197
 21
272.142568
 31
0.0
  0
ARC
  8
LC-002-002-RND-0
 62
     1
  5
1F6
 10
-63.494851
 20
278.142564
 30
0.0
 40
2.0
 50
180.000136
 51
270.000228
  0
ARC
  8
LC-002-002-RND-0
 62
     1
  5
1F7
 10
-68.494888
 20
294.142556
 30
0.0
 40
3.0
 50
0.000136
 51
90.0
  0
ARC
  8
LC-001-002-----0
 62
     1
  5
1F8
 10
-108.185804
 20
303.411289
 30
0.0
 40
3.0
 50
200.557271
 51
258.0
  0
ARC
  8
LC-001-002-----0
 62
     1
  5
1F9
 10
-108.185804
 20
303.411289
 30
0.0
 40
2.0
 50
212.292677
 51
258.0
  0
ARC
  8
LC-002-002-RND-0
 62
     1
  5
1FA
 10
-62.995197
 20
274.642552
 30
0.0
 40
0.5
 50
0.0
 51
90.0
  0
ARC
  8
LC-002-002-RND-0
 62
     1
  5
1FB
 10
-62.995197
 20
274.642566
 30
0.0
 40
1.5
 50
0.0
 51
90.000228
  0
LINE
  8
LC-001-002-----0
 62
     1
  5
1FC
 10
-62.495197
 20
274.642552
 30
0.0
 11
-62.495197
 21
272.142568
 31
0.0
  0
LINE
  8
LC-001-002-----0
 62
     1
  5
1FD
 10
-62.495197
 20
272.142568
 30
0.0
 11
-61.495197
 21
272.142568
 31
0.0
  0
LINE
  8
LC-001-002-----0
 62
     1
  5
1FE
 10
-63.494843
 20
276.142564
 30
0.0
 11
-62.995203
 21
276.142566
 31
0.0
  0
LINE
  8
LC-001-002-----0
 62
     1
  5
1FF
 10
-65.494888
 20
294.142563
 30
0.0
 11
-65.494851
 21
278.142559
 31
0.0
  0
LINE
  8
LC-001-002-----0
 62
     1
  5
200
 10
-75.516155
 20
298.642516
 30
0.0
 11
-76.994834
 21
298.64251
 31
0.0
  0
LINE
  8
LC-001-002-----0
 62
     1
  5
201
 10
-73.601935
 20
297.142524
 30
0.0
 11
-74.809047
 21
298.349626
 31
0.0
  0
LINE
  8
LC-001-002-----0
 62
     1
  5
202
 10
-88.312719
 20
297.142453
 30
0.0
 11
-87.387719
 21
297.142467
 31
0.0
  0
LINE
  8
LC-001-002-----0
 62
     1
  5
203
 10
-86.18062
 20
298.349577
 30
0.0
 11
-87.387719
 21
297.142467
 31
0.0
  0
LINE
  8
LC-001-002-----0
 62
     1
  5
204
 10
-88.312719
 20
297.142453
 30
0.0
 11
-108.601627
 21
301.454993
 31
0.0
  0
ARC
  8
LC-002-002-RND-0
 62
     1
  5
205
 10
-75.516151
 20
297.642516
 30
0.0
 40
1.0
 50
45.000248
 51
90.000248
  0
ARC
  8
LC-002-002-RND-0
 62
     1
  5
206
 10
-85.47351
 20
297.642473
 30
0.0
 40
1.0
 50
90.000248
 51
135.000248
  0
INSERT
  8
LC-006-005-----0
 62
     2
  5
221
  2
*X12
 10
0.0
 20
0.0
 30
0.0
  0
INSERT
  8
LC-006-005-----0
 62
     2
  5
235
  2
*X13
 10
0.0
 20
0.0
 30
0.0
  0
LINE
  8
LC-001-002-----0
 62
     1
  5
236
 10
-59.745179
 20
261.500988
 30
0.0
 11
-57.995179
 21
261.500988
 31
0.0
  0
INSERT
  8
LC-006-005-----0
 62
     2
  5
245
  2
*X14
 10
0.0
 20
0.0
 30
0.0
  0
LINE
  8
LC-001-002-----0
 62
     1
  5
246
 10
-61.795179
 20
215.950875
 30
0.0
 11
-61.795179
 21
217.450875
 31
0.0
  0
LINE
  8
LC-001-002-----0
 62
     1
  5
247
 10
-61.795179
 20
215.950875
 30
0.0
 11
-61.495179
 21
215.950875
 31
0.0
  0
LINE
  8
LC-001-002-----0
 62
     1
  5
248
 10
-61.495179
 20
203.450875
 30
0.0
 11
-61.495179
 21
215.950875
 31
0.0
  0
LINE
  8
LC-001-002-----0
 62
     1
  5
249
 10
-63.995179
 20
217.450875
 30
0.0
 11
-61.795179
 21
217.450875
 31
0.0
  0
LINE
  8
LC-001-002-----0
 62
     1
  5
24A
 10
91.004821
 20
217.450875
 30
0.0
 11
88.804821
 21
217.450875
 31
0.0
  0
LINE
  8
LC-001-002-----0
 62
     1
  5
24B
 10
94.004821
 20
206.450875
 30
0.0
 11
94.004821
 21
208.450875
 31
0.0
  0
ARC
  8
LC-002-002-RND-0
 62
     1
  5
24C
 10
86.004821
 20
206.450875
 30
0.0
 40
8.0
 50
270.0
 51
0.0
  0
LINE
  8
LC-001-002-----0
 62
     1
  5
24D
 10
94.004821
 20
208.450875
 30
0.0
 11
91.004821
 21
208.450875
 31
0.0
  0
LINE
  8
LC-001-002-----0
 62
     1
  5
24E
 10
91.004821
 20
208.450875
 30
0.0
 11
91.004821
 21
217.450875
 31
0.0
  0
ARC
  8
LC-002-002-RND-0
 62
     1
  5
24F
 10
86.004821
 20
203.450875
 30
0.0
 40
2.5
 50
270.0
 51
0.0
  0
LINE
  8
LC-001-002-----0
 62
     1
  5
250
 10
88.504821
 20
203.450875
 30
0.0
 11
88.504821
 21
215.950875
 31
0.0
  0
LINE
  8
LC-001-002-----0
 62
     1
  5
251
 10
88.804821
 20
215.950875
 30
0.0
 11
88.804821
 21
217.450875
 31
0.0
  0
LINE
  8
LC-001-002-----0
 62
     1
  5
252
 10
88.804821
 20
215.950875
 30
0.0
 11
88.504821
 21
215.950875
 31
0.0
  0
INSERT
  8
LC-006-005-----0
 62
     2
  5
26D
  2
*X15
 10
0.0
 20
0.0
 30
0.0
  0
INSERT
  8
LC-006-005-----0
 62
     2
  5
287
  2
*X16
 10
0.0
 20
0.0
 30
0.0
  0
LINE
  8
LC-001-002-----0
 62
     1
  5
288
 10
-86.49514
 20
274.195481
 30
0.0
 11
-84.834559
 21
274.195481
 31
0.0
  0
LINE
  8
LC-001-002-----0
 62
     1
  5
289
 10
-58.995179
 20
198.450875
 30
0.0
 11
-53.987771
 21
198.450875
 31
0.0
  0
LINE
  8
LC-001-002-----0
 62
     1
  5
28A
 10
-86.49514
 20
275.195481
 30
0.0
 11
-83.498601
 21
275.195481
 31
0.0
  0
ARC
  8
LC-002-002-RND-0
 62
     1
  5
28B
 10
-73.495124
 20
273.695481
 30
0.0
 40
1.5
 50
360.0
 51
90.0
  0
INSERT
  8
LC-006-005-----0
 62
     2
  5
2BC
  2
*X17
 10
0.0
 20
0.0
 30
0.0
  0
LINE
  8
LC-001-002-----0
 62
     1
  5
2BD
 10
-53.987771
 20
198.450875
 30
0.0
 11
-53.987771
 21
195.950875
 31
0.0
  0
LINE
  8
LC-001-002-----0
 62
     1
  5
2BE
 10
-53.987771
 20
195.950875
 30
0.0
 11
-43.986482
 21
195.950875
 31
0.0
  0
LINE
  8
LC-001-002-----0
 62
     1
  5
2BF
 10
-43.986482
 20
195.950875
 30
0.0
 11
-43.986482
 21
198.450875
 31
0.0
  0
LINE
  8
LC-001-002-----0
 62
     1
  5
2C0
 10
-43.986482
 20
198.450875
 30
0.0
 11
-23.995179
 21
198.450875
 31
0.0
  0
LINE
  8
LC-001-002-----0
 62
     1
  5
2C1
 10
-58.995179
 20
200.950875
 30
0.0
 11
-23.995179
 21
200.950875
 31
0.0
  0
ARC
  8
LC-002-002-RND-0
 62
     1
  5
2C2
 10
-71.495124
 20
272.215895
 30
0.0
 40
0.5
 50
180.0
 51
270.000111
  0
ARC
  8
LC-002-002-RND-0
 62
     1
  5
2C3
 10
115.504793
 20
287.289294
 30
0.0
 40
0.5
 50
110.000359
 51
180.000359
  0
LINE
  8
LC-001-002-----0
 62
     1
  5
2C4
 10
-71.995124
 20
272.215895
 30
0.0
 11
-71.995124
 21
273.695481
 31
0.0
  0
LINE
  8
LC-001-002-----0
 62
     1
  5
2C5
 10
70.996125
 20
198.450875
 30
0.0
 11
70.996125
 21
195.950875
 31
0.0
  0
LINE
  8
LC-001-002-----0
 62
     1
  5
2C6
 10
70.996125
 20
195.950875
 30
0.0
 11
80.997413
 21
195.950875
 31
0.0
  0
LINE
  8
LC-001-002-----0
 62
     1
  5
2C7
 10
80.997413
 20
195.950875
 30
0.0
 11
80.997413
 21
198.450875
 31
0.0
  0
LINE
  8
LC-001-002-----0
 62
     1
  5
2C8
 10
51.004821
 20
198.450875
 30
0.0
 11
70.996125
 21
198.450875
 31
0.0
  0
LINE
  8
LC-001-002-----0
 62
     1
  5
2C9
 10
80.997413
 20
198.450875
 30
0.0
 11
86.004821
 21
198.450875
 31
0.0
  0
LINE
  8
LC-001-002-----0
 62
     1
  5
2CA
 10
86.004821
 20
200.950875
 30
0.0
 11
51.004821
 21
200.950875
 31
0.0
  0
LINE
  8
LC-001-002-----0
 62
     1
  5
2CB
 10
138.504797
 20
296.192864
 30
0.0
 11
115.33378
 21
287.759139
 31
0.0
  0
LINE
  8
LC-001-002-----0
 62
     1
  5
2CC
 10
-67.99512
 20
271.715902
 30
0.0
 11
-67.99512
 21
270.715902
 31
0.0
  0
LINE
  8
LC-001-002-----0
 62
     1
  5
2CD
 10
-76.162644
 20
274.195481
 30
0.0
 11
-73.495124
 21
274.195481
 31
0.0
  0
LINE
  8
LC-001-002-----0
 62
     1
  5
2CE
 10
-111.153179
 20
297.131773
 30
0.0
 11
-87.98211
 21
288.698194
 31
0.0
  0
LINE
  8
LC-001-002-----0
  6
DASHDOT
 62
     2
  5
2D0
 10
13.504865
 20
372.114312
 30
0.0
 11
13.504865
 21
142.450875
 31
0.0
  0
ARC
  8
LC-002-002-RND-0
 62
     1
  5
2D1
 10
115.504781
 20
287.289289
 30
0.0
 40
1.5
 50
110.000359
 51
180.000359
  0
LINE
  8
LC-001-002-----0
 62
     2
  5
2D2
 10
114.991742
 20
288.698825
 30
0.0
 11
114.004774
 21
288.339591
 31
0.0
  0
LINE
  8
LC-001-002-----0
 62
     1
  5
2D3
 10
-85.500825
 20
309.742495
 30
0.0
 11
-83.498601
 21
309.742495
 31
0.0
  0
LINE
  8
LC-001-002-----0
 62
     1
  5
2D4
 10
-77.498601
 20
309.742495
 30
0.0
 11
-75.500825
 21
309.742495
 31
0.0
  0
LINE
  8
LC-001-002-----0
 62
     1
  5
2D5
 10
138.504797
 20
296.192864
 30
0.0
 11
138.162771
 21
297.132554
 31
0.0
  0
LINE
  8
LC-001-002-----0
 62
     1
  5
2D6
 10
-83.995132
 20
275.195481
 30
0.0
 11
-83.995132
 21
274.195777
 31
0.0
  0
LINE
  8
LC-001-002-----0
 62
     2
  5
2D7
 10
114.004781
 20
287.289289
 30
0.0
 11
114.004781
 21
288.339591
 31
0.0
  0
ARC
  8
LC-002-002-RND-0
 62
     1
  5
2D8
 10
-86.49514
 20
275.695481
 30
0.0
 40
0.5
 50
180.0
 51
270.0
  0
LINE
  8
LC-001-002-----0
 62
     1
  5
2D9
 10
-73.812925
 20
315.430321
 30
0.0
 11
-75.500825
 21
309.742495
 31
0.0
  0
LINE
  8
LC-001-002-----0
 62
     1
  5
2DA
 10
-111.4952
 20
296.192081
 30
0.0
 11
-111.153179
 21
297.131773
 31
0.0
  0
LINE
  8
LC-001-002-----0
 62
     1
  5
2DB
 10
114.00486
 20
275.696111
 30
0.0
 11
114.004781
 21
287.28928
 31
0.0
  0
LINE
  8
LC-001-002-----0
 62
     1
  5
2DC
 10
104.004868
 20
275.196048
 30
0.0
 11
104.004874
 21
274.196048
 31
0.0
  0
LINE
  8
LC-001-002-----0
 62
     1
  5
2DD
 10
113.504863
 20
275.196108
 30
0.0
 11
110.50833
 21
275.196089
 31
0.0
  0
ARC
  8
LC-002-002-RND-0
 62
     1
  5
2DE
 10
100.504869
 20
273.696026
 30
0.0
 40
1.5
 50
90.000359
 51
180.000359
  0
LINE
  8
LC-001-002-----0
 62
     1
  5
2DF
 10
-86.500825
 20
300.742495
 30
0.0
 11
-85.500825
 21
309.742495
 31
0.0
  0
ARC
  8
LC-002-002-RND-0
 62
     1
  5
2E0
 10
98.504871
 20
272.216427
 30
0.0
 40
0.5
 50
270.000247
 51
0.000359
  0
LINE
  8
LC-001-002-----0
 62
     1
  5
2E1
 10
-75.500825
 20
309.742495
 30
0.0
 11
-74.500825
 21
300.742495
 31
0.0
  0
LINE
  8
LC-001-002-----0
 62
     1
  5
2E2
 10
99.004871
 20
272.21643
 30
0.0
 11
99.004869
 21
273.696017
 31
0.0
  0
ARC
  8
LC-002-002-RND-0
 62
     1
  5
2E3
 10
-70.197358
 20
313.817504
 30
0.0
 40
3.925
 50
89.87259
 51
155.894105
  0
LINE
  8
LC-001-002-----0
 62
     1
  5
2E4
 10
98.504874
 20
271.716427
 30
0.0
 11
95.005491
 21
271.716408
 31
0.0
  0
LINE
  8
LC-001-002-----0
 62
     1
  5
2E5
 10
95.005491
 20
271.716408
 30
0.0
 11
95.005497
 21
270.716411
 31
0.0
  0
INSERT
  8
LC-006-005-----0
 62
     2
  5
304
  2
*X18
 10
0.0
 20
0.0
 30
0.0
  0
LINE
  8
LC-001-002-----0
 62
     2
  5
305
 10
-87.98211
 20
288.698194
 30
0.0
 11
-86.996857
 21
288.339591
 31
0.0
  0
LINE
  8
LC-001-002-----0
 62
     1
  5
306
 10
138.162771
 20
297.132554
 30
0.0
 11
114.991742
 21
288.698825
 31
0.0
  0
LINE
  8
LC-001-002-----0
 62
     2
  5
307
 10
-86.99514
 20
287.288655
 30
0.0
 11
-86.99514
 21
288.339591
 31
0.0
  0
LINE
  8
LC-001-002-----0
 62
     1
  5
308
 10
111.004868
 20
275.196092
 30
0.0
 11
111.004874
 21
274.196092
 31
0.0
  0
ARC
  8
LC-002-002-RND-0
 62
     1
  5
309
 10
113.50486
 20
275.696108
 30
0.0
 40
0.5
 50
270.000359
 51
0.000359
  0
ARC
  8
LC-001-002-----0
 62
     1
  5
30A
 10
-70.188534
 20
312.209737
 30
0.0
 40
5.576109
 50
40.088251
 51
90.091384
  0
LINE
  8
LC-001-002-----0
 62
     1
  5
30B
 10
115.004793
 20
287.289291
 30
0.0
 11
115.004873
 21
275.696117
 31
0.0
  0
ARC
  8
LC-002-002-RND-0
 62
     1
  5
30C
 10
-68.925347
 20
313.272996
 30
0.0
 40
3.925
 50
315.504186
 51
40.088251
  0
LINE
  8
LC-001-002-----0
 62
     1
  5
30D
 10
-71.495123
 20
271.715895
 30
0.0
 11
-67.99512
 21
271.715902
 31
0.0
  0
LINE
  8
LC-001-002-----0
 62
     1
  5
30E
 10
-87.188724
 20
315.430321
 30
0.0
 11
-85.500825
 21
309.742495
 31
0.0
  0
ARC
  8
LC-002-002-RND-0
 62
     1
  5
30F
 10
-92.076302
 20
313.272996
 30
0.0
 40
3.925
 50
139.911749
 51
224.495814
  0
ARC
  8
LC-001-002-----0
 62
     1
  5
310
 10
113.504873
 20
275.696108
 30
0.0
 40
1.5
 50
270.000359
 51
0.000359
  0
LINE
  8
LC-001-002-----0
 62
     1
  5
311
 10
113.504882
 20
274.196108
 30
0.0
 11
111.004874
 21
274.196092
 31
0.0
  0
LINE
  8
LC-001-002-----0
 62
     1
  5
312
 10
-95.055709
 20
310.717852
 30
0.0
 11
-86.500825
 21
300.742495
 31
0.0
  0
LINE
  8
LC-001-002-----0
 62
     1
  5
313
 10
-65.945941
 20
310.717852
 30
0.0
 11
-74.500825
 21
300.742495
 31
0.0
  0
LINE
  8
LC-001-002-----0
 62
     1
  5
314
 10
-111.4952
 20
296.192081
 30
0.0
 11
-88.32413
 21
287.758501
 31
0.0
  0
LINE
  8
LC-001-002-----0
 62
     1
  5
315
 10
111.004874
 20
274.196092
 30
0.0
 11
110.50833
 21
274.196089
 31
0.0
  0
LINE
  8
LC-001-002-----0
 62
     1
  5
316
 10
-87.99514
 20
287.288655
 30
0.0
 11
-87.99514
 21
275.695481
 31
0.0
  0
ARC
  8
LC-001-002-----0
 62
     1
  5
317
 10
-86.49514
 20
275.695481
 30
0.0
 40
1.5
 50
180.0
 51
270.0
  0
LINE
  8
LC-001-002-----0
 62
     1
  5
318
 10
104.004874
 20
274.196048
 30
0.0
 11
100.504866
 21
274.196026
 31
0.0
  0
ARC
  8
LC-001-002-----0
 62
     1
  5
319
 10
-73.495124
 20
273.695481
 30
0.0
 40
0.5
 50
0.0
 51
90.0
  0
LINE
  8
LC-001-002-----0
 62
     1
  5
31A
 10
-72.995124
 20
273.695481
 30
0.0
 11
-72.995124
 21
272.215895
 31
0.0
  0
ARC
  8
LC-001-002-----0
 62
     1
  5
31B
 10
-71.495124
 20
272.215895
 30
0.0
 40
1.5
 50
180.0
 51
270.000125
  0
LINE
  8
LC-001-002-----0
 62
     1
  5
31C
 10
-71.495121
 20
270.715895
 30
0.0
 11
-67.99512
 21
270.715902
 31
0.0
  0
ARC
  8
LC-001-002-----0
 62
     1
  5
31D
 10
100.504869
 20
273.696026
 30
0.0
 40
0.5
 50
90.000359
 51
180.000359
  0
ARC
  8
LC-001-002-----0
 62
     1
  5
31E
 10
98.504871
 20
272.216427
 30
0.0
 40
1.5
 50
270.000234
 51
0.000359
  0
LINE
  8
LC-001-002-----0
 62
     1
  5
31F
 10
100.004869
 20
273.696023
 30
0.0
 11
100.004871
 21
272.216437
 31
0.0
  0
LINE
  8
LC-001-002-----0
 62
     1
  5
320
 10
98.504878
 20
270.716427
 30
0.0
 11
95.005497
 21
270.716411
 31
0.0
  0
ARC
  8
LC-002-002-RND-0
 62
     1
  5
321
 10
-88.49514
 20
287.288655
 30
0.0
 40
1.5
 50
0.0
 51
70.0
  0
ARC
  8
LC-002-002-RND-0
 62
     1
  5
322
 10
-88.49514
 20
287.288655
 30
0.0
 40
0.5
 50
0.0
 51
70.0
  0
ARC
  8
LC-002-002-RND-0
 62
     1
  5
323
 10
-90.804291
 20
313.817504
 30
0.0
 40
3.925
 50
24.105895
 51
90.12741
  0
LINE
  8
LC-001-002-----0
 62
     1
  5
324
 10
-77.500825
 20
298.642495
 30
0.0
 11
-77.500825
 21
298.642495
 31
0.0
  0
LINE
  8
LC-001-002-----0
 62
     1
  5
325
 10
-77.498601
 20
300.042495
 30
0.0
 11
-76.356127
 21
300.042495
 31
0.0
  0
LINE
  8
LC-001-002-----0
 62
     1
  5
326
 10
-77.498601
 20
299.342495
 30
0.0
 11
-76.356127
 21
299.342495
 31
0.0
  0
INSERT
  8
LC-006-005-----0
 62
     2
  5
334
  2
*X19
 10
0.0
 20
0.0
 30
0.0
  0
LINE
  8
LC-001-002-----0
 62
     1
  5
335
 10
-85.981428
 20
298.642495
 30
0.0
 11
-83.498601
 21
298.642495
 31
0.0
  0
LINE
  8
LC-001-002-----0
 62
     1
  5
336
 10
-85.981428
 20
300.742495
 30
0.0
 11
-83.498601
 21
300.742495
 31
0.0
  0
LINE
  8
LC-001-002-----0
 62
     1
  5
337
 10
-77.498601
 20
300.742495
 30
0.0
 11
-75.02068
 21
300.742495
 31
0.0
  0
LINE
  8
LC-001-002-----0
 62
     1
  5
338
 10
-83.701054
 20
300.042495
 30
0.0
 11
-83.701054
 21
299.342495
 31
0.0
  0
LINE
  8
LC-001-002-----0
 62
     1
  5
339
 10
-77.301054
 20
299.342495
 30
0.0
 11
-77.301054
 21
300.042495
 31
0.0
  0
LINE
  8
LC-001-002-----0
 62
     1
  5
33A
 10
-85.981428
 20
298.642495
 30
0.0
 11
-84.645981
 21
299.342495
 31
0.0
  0
LINE
  8
LC-001-002-----0
 62
     1
  5
33B
 10
-85.981428
 20
300.042495
 30
0.0
 11
-85.313705
 21
299.692495
 31
0.0
  0
LINE
  8
LC-001-002-----0
 62
     1
  5
33C
 10
-85.981428
 20
300.042495
 30
0.0
 11
-85.981428
 21
300.742495
 31
0.0
  0
LINE
  8
LC-001-002-----0
 62
     1
  5
33D
 10
-85.981428
 20
300.742495
 30
0.0
 11
-84.645981
 21
300.042495
 31
0.0
  0
LINE
  8
LC-001-002-----0
 62
     1
  5
33E
 10
113.510554
 20
300.742495
 30
0.0
 11
110.50833
 21
300.742495
 31
0.0
  0
LINE
  8
LC-001-002-----0
 62
     1
  5
33F
 10
104.50833
 20
300.742495
 30
0.0
 11
101.510554
 21
300.742495
 31
0.0
  0
LINE
  8
LC-001-002-----0
 62
     1
  5
340
 10
-75.02068
 20
300.742495
 30
0.0
 11
-76.356127
 21
300.042495
 31
0.0
  0
LINE
  8
LC-001-002-----0
 62
     1
  5
341
 10
-75.02068
 20
300.042495
 30
0.0
 11
-76.356127
 21
299.342495
 31
0.0
  0
LINE
  8
LC-001-002-----0
 62
     1
  5
342
 10
-75.02068
 20
299.342495
 30
0.0
 11
-75.688404
 21
299.692495
 31
0.0
  0
LINE
  8
LC-001-002-----0
 62
     1
  5
343
 10
-75.02068
 20
298.642495
 30
0.0
 11
-76.356127
 21
299.342495
 31
0.0
  0
LINE
  8
LC-001-002-----0
 62
     1
  5
344
 10
-84.645981
 20
300.042495
 30
0.0
 11
-83.498601
 21
300.042495
 31
0.0
  0
LINE
  8
LC-001-002-----0
 62
     1
  5
345
 10
-84.645981
 20
299.342495
 30
0.0
 11
-83.498601
 21
299.342495
 31
0.0
  0
LINE
  8
LC-001-002-----0
 62
     1
  5
346
 10
-85.981428
 20
299.342495
 30
0.0
 11
-84.645981
 21
300.042495
 31
0.0
  0
LINE
  8
LC-001-002-----0
 62
     1
  5
347
 10
-85.981428
 20
299.342495
 30
0.0
 11
-85.981428
 21
298.642495
 31
0.0
  0
LINE
  8
LC-001-002-----0
 62
     1
  5
348
 10
-75.02068
 20
299.342495
 30
0.0
 11
-75.02068
 21
298.642495
 31
0.0
  0
LINE
  8
LC-001-002-----0
 62
     1
  5
349
 10
-75.02068
 20
300.042495
 30
0.0
 11
-75.02068
 21
300.742495
 31
0.0
  0
LINE
  8
LC-001-002-----0
 62
     1
  5
34A
 10
102.525884
 20
298.642516
 30
0.0
 11
104.50833
 21
298.642508
 31
0.0
  0
LINE
  8
LC-001-002-----0
 62
     1
  5
34B
 10
104.510554
 20
298.642495
 30
0.0
 11
104.510554
 21
298.642495
 31
0.0
  0
LINE
  8
LC-001-002-----0
 62
     1
  5
34C
 10
104.310783
 20
300.042495
 30
0.0
 11
103.365856
 21
300.042495
 31
0.0
  0
LINE
  8
LC-001-002-----0
 62
     1
  5
34D
 10
104.310783
 20
299.342495
 30
0.0
 11
103.365856
 21
299.342495
 31
0.0
  0
INSERT
  8
LC-006-005-----0
 62
     2
  5
358
  2
*X20
 10
0.0
 20
0.0
 30
0.0
  0
LINE
  8
LC-001-002-----0
 62
     1
  5
359
 10
112.991157
 20
298.642495
 30
0.0
 11
110.50833
 21
298.642495
 31
0.0
  0
LINE
  8
LC-001-002-----0
 62
     1
  5
35A
 10
112.991157
 20
300.742495
 30
0.0
 11
110.50833
 21
300.742495
 31
0.0
  0
LINE
  8
LC-001-002-----0
 62
     1
  5
35B
 10
104.50833
 20
300.742495
 30
0.0
 11
102.030409
 21
300.742495
 31
0.0
  0
LINE
  8
LC-001-002-----0
 62
     1
  5
35C
 10
110.710783
 20
300.042495
 30
0.0
 11
110.710783
 21
299.342495
 31
0.0
  0
LINE
  8
LC-001-002-----0
 62
     1
  5
35D
 10
110.710783
 20
299.342495
 30
0.0
 11
110.50833
 21
299.342495
 31
0.0
  0
LINE
  8
LC-001-002-----0
 62
     1
  5
35E
 10
104.310783
 20
299.342495
 30
0.0
 11
104.310783
 21
300.042495
 31
0.0
  0
LINE
  8
LC-001-002-----0
 62
     1
  5
35F
 10
104.310783
 20
300.042495
 30
0.0
 11
104.50833
 21
300.042495
 31
0.0
  0
LINE
  8
LC-001-002-----0
 62
     1
  5
360
 10
112.991157
 20
298.642495
 30
0.0
 11
111.65571
 21
299.342495
 31
0.0
  0
LINE
  8
LC-001-002-----0
 62
     1
  5
361
 10
112.991157
 20
300.042495
 30
0.0
 11
112.323434
 21
299.692495
 31
0.0
  0
LINE
  8
LC-001-002-----0
 62
     1
  5
362
 10
112.991157
 20
300.042495
 30
0.0
 11
112.991157
 21
300.742495
 31
0.0
  0
LINE
  8
LC-001-002-----0
 62
     1
  5
363
 10
112.991157
 20
300.742495
 30
0.0
 11
111.65571
 21
300.042495
 31
0.0
  0
LINE
  8
LC-001-002-----0
 62
     1
  5
364
 10
102.030409
 20
300.742495
 30
0.0
 11
103.365856
 21
300.042495
 31
0.0
  0
LINE
  8
LC-001-002-----0
 62
     1
  5
365
 10
102.030409
 20
300.042495
 30
0.0
 11
103.365856
 21
299.342495
 31
0.0
  0
LINE
  8
LC-001-002-----0
 62
     1
  5
366
 10
102.030409
 20
299.342495
 30
0.0
 11
102.698133
 21
299.692495
 31
0.0
  0
LINE
  8
LC-001-002-----0
 62
     1
  5
367
 10
102.030409
 20
298.642495
 30
0.0
 11
103.365856
 21
299.342495
 31
0.0
  0
LINE
  8
LC-001-002-----0
 62
     1
  5
368
 10
111.65571
 20
300.042495
 30
0.0
 11
110.710783
 21
300.042495
 31
0.0
  0
LINE
  8
LC-001-002-----0
 62
     1
  5
369
 10
111.65571
 20
299.342495
 30
0.0
 11
110.710783
 21
299.342495
 31
0.0
  0
LINE
  8
LC-001-002-----0
 62
     1
  5
36A
 10
112.991157
 20
299.342495
 30
0.0
 11
111.65571
 21
300.042495
 31
0.0
  0
LINE
  8
LC-001-002-----0
 62
     1
  5
36B
 10
112.991157
 20
299.342495
 30
0.0
 11
112.991157
 21
298.642495
 31
0.0
  0
LINE
  8
LC-001-002-----0
 62
     1
  5
36C
 10
102.030409
 20
299.342495
 30
0.0
 11
102.030409
 21
298.642495
 31
0.0
  0
LINE
  8
LC-001-002-----0
 62
     1
  5
36D
 10
102.030409
 20
300.042495
 30
0.0
 11
102.030409
 21
300.742495
 31
0.0
  0
LINE
  8
LC-001-002-----0
 62
     1
  5
36E
 10
113.510554
 20
300.742495
 30
0.0
 11
112.510554
 21
309.742495
 31
0.0
  0
LINE
  8
LC-001-002-----0
 62
     1
  5
36F
 10
122.065438
 20
310.717852
 30
0.0
 11
113.510554
 21
300.742495
 31
0.0
  0
ARC
  8
LC-002-002-RND-0
 62
     1
  5
370
 10
119.086031
 20
313.272996
 30
0.0
 40
3.925
 50
315.504186
 51
40.088251
  0
ARC
  8
LC-001-002-----0
 62
     1
  5
371
 10
117.822844
 20
312.209737
 30
0.0
 40
5.576109
 50
40.088251
 51
90.091384
  0
LINE
  8
LC-001-002-----0
 62
     1
  5
372
 10
114.198453
 20
315.430321
 30
0.0
 11
112.510554
 21
309.742495
 31
0.0
  0
LINE
  8
LC-001-002-----0
 62
     1
  5
373
 10
112.510554
 20
309.742495
 30
0.0
 11
110.50833
 21
309.742495
 31
0.0
  0
LINE
  8
LC-001-002-----0
 62
     1
  5
374
 10
104.50833
 20
309.742495
 30
0.0
 11
102.510554
 21
309.742495
 31
0.0
  0
LINE
  8
LC-001-002-----0
 62
     1
  5
375
 10
100.822654
 20
315.430321
 30
0.0
 11
102.510554
 21
309.742495
 31
0.0
  0
ARC
  8
LC-002-002-RND-0
 62
     1
  5
376
 10
97.207087
 20
313.817504
 30
0.0
 40
3.925
 50
24.105895
 51
90.12741
  0
ARC
  8
LC-001-002-----0
 62
     1
  5
377
 10
97.198263
 20
312.209737
 30
0.0
 40
5.576109
 50
89.908616
 51
139.911749
  0
ARC
  8
LC-002-002-RND-0
 62
     1
  5
378
 10
95.935076
 20
313.272996
 30
0.0
 40
3.925
 50
139.911749
 51
224.495814
  0
LINE
  8
LC-001-002-----0
 62
     1
  5
379
 10
92.95567
 20
310.717852
 30
0.0
 11
101.510554
 21
300.742495
 31
0.0
  0
LINE
  8
LC-001-002-----0
 62
     1
  5
37A
 10
102.510554
 20
309.742495
 30
0.0
 11
101.510554
 21
300.742495
 31
0.0
  0
ARC
  8
LC-002-002-RND-0
 62
     1
  5
37B
 10
117.816615
 20
313.815676
 30
0.0
 40
3.925
 50
89.862426
 51
155.883941
  0
ARC
  8
LC-001-002-----0
 62
     1
  5
37C
 10
-90.810848
 20
312.209737
 30
0.0
 40
5.576109
 50
89.908616
 51
139.911749
  0
LINE
  8
LC-001-002-----0
 62
     1
  5
37D
 10
-51.995135
 20
246.500988
 30
0.0
 11
79.004865
 21
246.500988
 31
0.0
  0
LINE
  8
LC-001-002-----0
 62
     1
  5
37E
 10
-84.828729
 20
268.995777
 30
0.0
 11
-76.168474
 21
268.995777
 31
0.0
  0
LINE
  8
LC-001-002-----0
 62
     1
  5
37F
 10
-84.828729
 20
274.195777
 30
0.0
 11
-76.168475
 21
274.195777
 31
0.0
  0
LINE
  8
LC-001-002-----0
 62
     1
  5
380
 10
-86.272103
 20
273.526649
 30
0.0
 11
-86.272103
 21
269.664906
 31
0.0
  0
LINE
  8
LC-001-002-----0
 62
     1
  5
381
 10
-74.725098
 20
273.526649
 30
0.0
 11
-74.725098
 21
269.664906
 31
0.0
  0
LINE
  8
LC-001-002-----0
 62
     1
  5
382
 10
-83.385352
 20
269.664854
 30
0.0
 11
-83.385352
 21
273.532377
 31
0.0
  0
LINE
  8
LC-001-002-----0
 62
     1
  5
383
 10
-77.611849
 20
269.664905
 30
0.0
 11
-77.611849
 21
273.526622
 31
0.0
  0
LINE
  8
LC-001-002-----0
 62
     1
  5
392
 10
-83.498601
 20
265.69579
 30
0.0
 11
-83.498601
 21
268.995777
 31
0.0
  0
LINE
  8
LC-001-002-----0
 62
     1
  5
393
 10
-83.498601
 20
274.195777
 30
0.0
 11
-83.498601
 21
277.19579
 31
0.0
  0
LINE
  8
LC-001-002-----0
 62
     1
  5
394
 10
-77.998601
 20
265.19579
 30
0.0
 11
-82.998601
 21
265.19579
 31
0.0
  0
LINE
  8
LC-001-002-----0
 62
     1
  5
395
 10
-77.498601
 20
265.69579
 30
0.0
 11
-77.498601
 21
268.995777
 31
0.0
  0
LINE
  8
LC-001-002-----0
 62
     1
  5
396
 10
-77.498601
 20
274.195777
 30
0.0
 11
-77.498601
 21
277.19579
 31
0.0
  0
LINE
  8
LC-001-002-----0
 62
     1
  5
397
 10
-82.998601
 20
315.19579
 30
0.0
 11
-77.998601
 21
315.19579
 31
0.0
  0
LINE
  8
LC-001-002-----0
 62
     1
  5
398
 10
-82.998601
 20
315.19579
 30
0.0
 11
-83.498601
 21
314.69579
 31
0.0
  0
LINE
  8
LC-001-002-----0
 62
     1
  5
399
 10
-77.998601
 20
315.19579
 30
0.0
 11
-77.498601
 21
314.69579
 31
0.0
  0
LINE
  8
LC-001-002-----0
 62
     1
  5
39A
 10
-83.498601
 20
314.69579
 30
0.0
 11
-77.498601
 21
314.69579
 31
0.0
  0
LINE
  8
LC-001-002-----0
 62
     1
  5
39B
 10
-77.998601
 20
265.19579
 30
0.0
 11
-77.498601
 21
265.69579
 31
0.0
  0
LINE
  8
LC-001-002-----0
 62
     1
  5
39C
 10
-82.998601
 20
265.19579
 30
0.0
 11
-83.498601
 21
265.69579
 31
0.0
  0
LINE
  8
LC-001-002-----0
 62
     1
  5
39D
 10
-77.498601
 20
265.69579
 30
0.0
 11
-83.498601
 21
265.69579
 31
0.0
  0
LINE
  8
LC-004-003-----0
 62
     2
  5
39E
 10
-82.998601
 20
265.19579
 30
0.0
 11
-82.998601
 21
268.995777
 31
0.0
  0
LINE
  8
LC-004-003-----0
 62
     2
  5
39F
 10
-82.998601
 20
274.195777
 30
0.0
 11
-82.998601
 21
277.19579
 31
0.0
  0
LINE
  8
LC-004-003-----0
 62
     2
  5
3A0
 10
-77.998601
 20
265.19579
 30
0.0
 11
-77.998601
 21
268.995777
 31
0.0
  0
LINE
  8
LC-004-003-----0
 62
     2
  5
3A1
 10
-77.998601
 20
274.195777
 30
0.0
 11
-77.998601
 21
277.19579
 31
0.0
  0
LINE
  8
LC-007-006-MLN-0
 62
     2
  5
3A4
 10
-80.498601
 20
325.19579
 30
0.0
 11
-80.498601
 21
255.19579
 31
0.0
  0
LINE
  8
LC-001-002-----0
 62
     1
  5
3A5
 10
-77.498601
 20
277.19579
 30
0.0
 11
-79.498601
 21
277.19579
 31
0.0
  0
LINE
  8
LC-001-002-----0
 62
     1
  5
3A6
 10
-75.498601
 20
283.19579
 30
0.0
 11
-75.498601
 21
279.19579
 31
0.0
  0
LINE
  8
LC-001-002-----0
 62
     1
  5
3A7
 10
-85.498601
 20
283.19579
 30
0.0
 11
-85.498601
 21
279.19579
 31
0.0
  0
LINE
  8
LC-001-002-----0
 62
     1
  5
3A8
 10
-77.498601
 20
285.19579
 30
0.0
 11
-79.498601
 21
285.19579
 31
0.0
  0
LINE
  8
LC-001-002-----0
 62
     1
  5
3A9
 10
-81.498601
 20
285.19579
 30
0.0
 11
-83.498601
 21
285.19579
 31
0.0
  0
LINE
  8
LC-001-002-----0
 62
     1
  5
3AA
 10
-81.498601
 20
277.19579
 30
0.0
 11
-83.498601
 21
277.19579
 31
0.0
  0
LINE
  8
LC-001-002-----0
 62
     1
  5
3AB
 10
-83.498601
 20
285.19579
 30
0.0
 11
-83.498601
 21
314.69579
 31
0.0
  0
LINE
  8
LC-001-002-----0
 62
     1
  5
3AC
 10
-77.498601
 20
285.19579
 30
0.0
 11
-77.498601
 21
314.69579
 31
0.0
  0
LINE
  8
LC-004-003-----0
 62
     2
  5
3AD
 10
-77.998601
 20
285.19579
 30
0.0
 11
-77.998601
 21
315.19579
 31
0.0
  0
LINE
  8
LC-004-003-----0
 62
     2
  5
3AE
 10
-82.998601
 20
285.19579
 30
0.0
 11
-82.998601
 21
315.19579
 31
0.0
  0
LINE
  8
LC-001-002-----0
 62
     1
  5
3AF
 10
-81.498601
 20
285.19579
 30
0.0
 11
-81.498601
 21
277.19579
 31
0.0
  0
LINE
  8
LC-001-002-----0
 62
     1
  5
3B0
 10
-79.498601
 20
285.19579
 30
0.0
 11
-79.498601
 21
277.19579
 31
0.0
  0
ARC
  8
LC-002-002-RND-0
 62
     1
  5
3B1
 10
-83.498601
 20
283.19579
 30
0.0
 40
2.0
 50
90.0
 51
180.0
  0
ARC
  8
LC-002-002-RND-0
 62
     1
  5
3B2
 10
-83.498601
 20
279.19579
 30
0.0
 40
2.0
 50
180.0
 51
270.0
  0
ARC
  8
LC-002-002-RND-0
 62
     1
  5
3B3
 10
-77.498601
 20
279.19579
 30
0.0
 40
2.0
 50
270.0
 51
0.0
  0
ARC
  8
LC-002-002-RND-0
 62
     1
  5
3B4
 10
-77.498601
 20
283.19579
 30
0.0
 40
2.0
 50
0.0
 51
90.0
  0
LINE
  8
LC-001-002-----0
 62
     1
  5
3B5
 10
27.304887
 20
280.414289
 30
0.0
 11
84.504624
 21
280.414367
 31
0.0
  0
LINE
  8
LC-001-002-----0
 62
     1
  5
3B6
 10
110.50833
 20
265.69579
 30
0.0
 11
110.50833
 21
268.995777
 31
0.0
  0
LINE
  8
LC-001-002-----0
 62
     1
  5
3B7
 10
110.50833
 20
274.195777
 30
0.0
 11
110.50833
 21
277.19579
 31
0.0
  0
LINE
  8
LC-001-002-----0
 62
     1
  5
3B8
 10
105.00833
 20
265.19579
 30
0.0
 11
110.00833
 21
265.19579
 31
0.0
  0
LINE
  8
LC-001-002-----0
 62
     1
  5
3B9
 10
104.50833
 20
265.69579
 30
0.0
 11
104.50833
 21
268.995777
 31
0.0
  0
LINE
  8
LC-001-002-----0
 62
     1
  5
3BA
 10
104.50833
 20
274.195777
 30
0.0
 11
104.50833
 21
277.19579
 31
0.0
  0
LINE
  8
LC-001-002-----0
 62
     1
  5
3BB
 10
110.00833
 20
315.19579
 30
0.0
 11
105.00833
 21
315.19579
 31
0.0
  0
LINE
  8
LC-001-002-----0
 62
     1
  5
3BC
 10
110.00833
 20
315.19579
 30
0.0
 11
110.50833
 21
314.69579
 31
0.0
  0
LINE
  8
LC-001-002-----0
 62
     1
  5
3BD
 10
105.00833
 20
315.19579
 30
0.0
 11
104.50833
 21
314.69579
 31
0.0
  0
LINE
  8
LC-001-002-----0
 62
     1
  5
3BE
 10
110.50833
 20
314.69579
 30
0.0
 11
104.50833
 21
314.69579
 31
0.0
  0
LINE
  8
LC-001-002-----0
 62
     1
  5
3BF
 10
105.00833
 20
265.19579
 30
0.0
 11
104.50833
 21
265.69579
 31
0.0
  0
LINE
  8
LC-001-002-----0
 62
     1
  5
3C0
 10
110.00833
 20
265.19579
 30
0.0
 11
110.50833
 21
265.69579
 31
0.0
  0
LINE
  8
LC-001-002-----0
 62
     1
  5
3C1
 10
104.50833
 20
265.69579
 30
0.0
 11
110.50833
 21
265.69579
 31
0.0
  0
LINE
  8
LC-004-003-----0
 62
     2
  5
3C2
 10
110.00833
 20
265.19579
 30
0.0
 11
110.00833
 21
268.995777
 31
0.0
  0
LINE
  8
LC-004-003-----0
 62
     2
  5
3C3
 10
110.00833
 20
274.195777
 30
0.0
 11
110.00833
 21
277.19579
 31
0.0
  0
LINE
  8
LC-004-003-----0
 62
     2
  5
3C4
 10
105.00833
 20
265.19579
 30
0.0
 11
105.00833
 21
268.995777
 31
0.0
  0
LINE
  8
LC-004-003-----0
 62
     2
  5
3C5
 10
105.00833
 20
274.195777
 30
0.0
 11
105.00833
 21
277.19579
 31
0.0
  0
LINE
  8
LC-007-006-MLN-0
 62
     2
  5
3C6
 10
107.50833
 20
325.19579
 30
0.0
 11
107.50833
 21
255.19579
 31
0.0
  0
LINE
  8
LC-001-002-----0
 62
     1
  5
3C7
 10
104.50833
 20
277.19579
 30
0.0
 11
106.50833
 21
277.19579
 31
0.0
  0
LINE
  8
LC-001-002-----0
 62
     1
  5
3C8
 10
102.50833
 20
283.19579
 30
0.0
 11
102.50833
 21
279.19579
 31
0.0
  0
LINE
  8
LC-001-002-----0
 62
     1
  5
3C9
 10
112.50833
 20
283.19579
 30
0.0
 11
112.50833
 21
279.19579
 31
0.0
  0
LINE
  8
LC-001-002-----0
 62
     1
  5
3CA
 10
104.50833
 20
285.19579
 30
0.0
 11
106.50833
 21
285.19579
 31
0.0
  0
LINE
  8
LC-001-002-----0
 62
     1
  5
3CB
 10
108.50833
 20
285.19579
 30
0.0
 11
110.50833
 21
285.19579
 31
0.0
  0
LINE
  8
LC-001-002-----0
 62
     1
  5
3CC
 10
108.50833
 20
277.19579
 30
0.0
 11
110.50833
 21
277.19579
 31
0.0
  0
LINE
  8
LC-001-002-----0
 62
     1
  5
3CD
 10
110.50833
 20
285.19579
 30
0.0
 11
110.50833
 21
314.69579
 31
0.0
  0
LINE
  8
LC-001-002-----0
 62
     1
  5
3CE
 10
104.50833
 20
285.19579
 30
0.0
 11
104.50833
 21
314.69579
 31
0.0
  0
LINE
  8
LC-004-003-----0
 62
     2
  5
3CF
 10
105.00833
 20
285.19579
 30
0.0
 11
105.00833
 21
315.19579
 31
0.0
  0
LINE
  8
LC-004-003-----0
 62
     2
  5
3D0
 10
110.00833
 20
285.19579
 30
0.0
 11
110.00833
 21
315.19579
 31
0.0
  0
LINE
  8
LC-001-002-----0
 62
     1
  5
3D1
 10
108.50833
 20
285.19579
 30
0.0
 11
108.50833
 21
277.19579
 31
0.0
  0
LINE
  8
LC-001-002-----0
 62
     1
  5
3D2
 10
106.50833
 20
285.19579
 30
0.0
 11
106.50833
 21
277.19579
 31
0.0
  0
ARC
  8
LC-002-002-RND-0
 62
     1
  5
3D3
 10
110.50833
 20
283.19579
 30
0.0
 40
2.0
 50
360.0
 51
90.0
  0
ARC
  8
LC-002-002-RND-0
 62
     1
  5
3D4
 10
110.50833
 20
279.19579
 30
0.0
 40
2.0
 50
270.0
 51
360.0
  0
ARC
  8
LC-002-002-RND-0
 62
     1
  5
3D5
 10
104.50833
 20
279.19579
 30
0.0
 40
2.0
 50
180.0
 51
270.0
  0
ARC
  8
LC-002-002-RND-0
 62
     1
  5
3D6
 10
104.50833
 20
283.19579
 30
0.0
 40
2.0
 50
90.0
 51
180.0
  0
LINE
  8
LC-001-002-----0
 62
     1
  5
3D7
 10
111.838458
 20
268.995777
 30
0.0
 11
103.178203
 21
268.995777
 31
0.0
  0
LINE
  8
LC-001-002-----0
 62
     1
  5
3D8
 10
111.838458
 20
274.195777
 30
0.0
 11
103.178204
 21
274.195777
 31
0.0
  0
LINE
  8
LC-001-002-----0
 62
     1
  5
3D9
 10
113.281832
 20
273.526649
 30
0.0
 11
113.281832
 21
269.664906
 31
0.0
  0
LINE
  8
LC-001-002-----0
 62
     1
  5
3DA
 10
101.734827
 20
273.526649
 30
0.0
 11
101.734827
 21
269.664906
 31
0.0
  0
LINE
  8
LC-001-002-----0
 62
     1
  5
3DB
 10
110.395081
 20
269.664854
 30
0.0
 11
110.395081
 21
273.532377
 31
0.0
  0
LINE
  8
LC-001-002-----0
 62
     1
  5
3DC
 10
104.621578
 20
269.664905
 30
0.0
 11
104.621578
 21
273.526622
 31
0.0
  0
LINE
  8
LC-001-002-----0
 62
     1
  5
3EB
 10
-63.745135
 20
261.500988
 30
0.0
 11
-57.995135
 21
261.500988
 31
0.0
  0
LINE
  8
LC-001-002-----0
 62
     1
  5
3EC
 10
-50.555696
 20
214.000942
 30
0.0
 11
-21.504344
 21
210.456141
 31
0.0
  0
LINE
  8
LC-001-002-----0
 62
     1
  5
3ED
 10
-57.995135
 20
261.500988
 30
0.0
 11
-55.245179
 21
261.500988
 31
0.0
  0
LINE
  8
LC-001-002-----0
 62
     1
  5
3EE
 10
-23.995135
 20
208.207459
 30
0.0
 11
-23.995135
 21
145.950875
 31
0.0
  0
LINE
  8
LC-001-002-----0
 62
     1
  5
3EF
 10
91.004158
 20
208.450875
 30
0.0
 11
93.504865
 21
208.450875
 31
0.0
  0
LINE
  8
LC-001-002-----0
 62
     1
  5
3F0
 10
52.979257
 20
208.450875
 30
0.0
 11
51.0051
 21
208.214928
 31
0.0
  0
LINE
  8
LC-001-002-----0
 62
     1
  5
3F1
 10
-51.995135
 20
246.500988
 30
0.0
 11
79.004865
 21
246.500988
 31
0.0
  0
LINE
  8
LC-001-002-----0
 62
     1
  5
3F2
 10
-66.495135
 20
208.450875
 30
0.0
 11
-63.994429
 21
208.450875
 31
0.0
  0
LINE
  8
LC-001-002-----0
 62
     1
  5
3F3
 10
-23.057313
 20
142.450875
 30
0.0
 11
13.504865
 21
142.450875
 31
0.0
  0
LINE
  8
LC-001-002-----0
 62
     1
  5
3F4
 10
13.504865
 20
142.450875
 30
0.0
 11
50.067042
 21
142.450875
 31
0.0
  0
LINE
  8
LC-001-002-----0
 62
     1
  5
3F5
 10
51.004865
 20
208.207459
 30
0.0
 11
51.004865
 21
145.950875
 31
0.0
  0
LINE
  8
LC-001-002-----0
 62
     1
  5
3F6
 10
-54.244429
 20
208.450875
 30
0.0
 11
-25.969528
 21
208.450875
 31
0.0
  0
LINE
  8
LC-001-002-----0
 62
     1
  5
3F7
 10
-50.995135
 20
214.497261
 30
0.0
 11
-50.995135
 21
245.500988
 31
0.0
  0
ARC
  8
LC-001-002-----0
 62
     1
  5
3F8
 10
-50.495135
 20
214.497261
 30
0.0
 40
0.5
 50
180.0
 51
263.0
  0
LINE
  8
LC-001-002-----0
 62
     1
  5
3F9
 10
-68.995137
 20
276.952196
 30
0.0
 11
-68.995137
 21
293.696013
 31
0.0
  0
LINE
  8
LC-001-002-----0
 62
     1
  5
3FA
 10
-63.745135
 20
261.500988
 30
0.0
 11
-57.995135
 21
261.500988
 31
0.0
  0
LINE
  8
LC-001-002-----0
 62
     1
  5
3FB
 10
96.004863
 20
293.696013
 30
0.0
 11
96.004863
 21
276.952196
 31
0.0
  0
LINE
  8
LC-001-002-----0
 62
     1
  5
3FC
 10
96.004863
 20
276.952196
 30
0.0
 11
93.258162
 21
276.952196
 31
0.0
  0
LINE
  8
LC-001-002-----0
 62
     1
  5
3FD
 10
90.754865
 20
261.500988
 30
0.0
 11
85.004865
 21
261.500988
 31
0.0
  0
LINE
  8
LC-001-002-----0
 62
     1
  5
3FE
 10
-56.995135
 20
247.000988
 30
0.0
 11
-56.995135
 21
260.500988
 31
0.0
  0
ARC
  8
LC-001-002-----0
 62
     1
  5
3FF
 10
-57.995135
 20
260.500988
 30
0.0
 40
1.0
 50
0.0
 51
90.0
  0
ARC
  8
LC-001-002-----0
 62
     1
  5
400
 10
-56.495135
 20
247.000988
 30
0.0
 40
0.5
 50
180.0
 51
270.0
  0
ARC
  8
LC-001-002-----0
 62
     1
  5
401
 10
-51.995135
 20
245.500988
 30
0.0
 40
1.0
 50
0.0
 51
90.0
  0
LINE
  8
LC-001-002-----0
 62
     1
  5
402
 10
81.254158
 20
208.450875
 30
0.0
 11
52.979257
 21
208.450875
 31
0.0
  0
LINE
  8
LC-001-002-----0
 62
     1
  5
403
 10
78.004865
 20
214.497261
 30
0.0
 11
78.004865
 21
245.500988
 31
0.0
  0
ARC
  8
LC-001-002-----0
 62
     1
  5
404
 10
77.504865
 20
214.497261
 30
0.0
 40
0.5
 50
277.0
 51
0.0
  0
LINE
  8
LC-001-002-----0
 62
     1
  5
405
 10
48.505027
 20
210.381331
 30
0.0
 11
77.565799
 21
214.000988
 31
0.0
  0
LINE
  8
LC-001-002-----0
 62
     1
  5
406
 10
-68.995137
 20
276.952196
 30
0.0
 11
-64.245137
 21
272.202196
 31
0.0
  0
LINE
  8
LC-001-002-----0
 62
     1
  5
407
 10
-71.45755
 20
272.816123
 30
0.0
 11
-67.49482
 21
272.816123
 31
0.0
  0
LINE
  8
LC-001-002-----0
 62
     1
  5
408
 10
96.004863
 20
276.952196
 30
0.0
 11
91.254863
 21
272.202196
 31
0.0
  0
LINE
  8
LC-001-002-----0
 62
     1
  5
409
 10
93.504865
 20
271.816416
 30
0.0
 11
94.504567
 21
272.816123
 31
0.0
  0
LINE
  8
LC-001-002-----0
 62
     1
  5
40A
 10
94.504567
 20
272.816123
 30
0.0
 11
98.50532
 21
272.816123
 31
0.0
  0
LINE
  8
LC-001-002-----0
 62
     1
  5
40B
 10
-163.495128
 20
300.451639
 30
0.0
 11
-163.495124
 21
299.44375
 31
0.0
  0
LINE
  8
LC-001-002-----0
 62
     1
  5
40C
 10
-114.235772
 20
302.451822
 30
0.0
 11
-90.180246
 21
293.696445
 31
0.0
  0
LINE
  8
LC-001-002-----0
 62
     1
  5
40D
 10
-114.50996
 20
299.451821
 30
0.0
 11
-91.828175
 21
291.196438
 31
0.0
  0
LINE
  8
LC-001-002-----0
 62
     1
  5
40E
 10
-83.498601
 20
293.694351
 30
0.0
 11
-90.180246
 21
293.696445
 31
0.0
  0
LINE
  8
LC-001-002-----0
 62
     1
  5
40F
 10
-86.448799
 20
291.194259
 30
0.0
 11
-91.828175
 21
291.196438
 31
0.0
  0
LINE
  8
LC-001-002-----0
 62
     1
  5
410
 10
-86.448799
 20
291.194259
 30
0.0
 11
-86.448706
 21
275.195765
 31
0.0
  0
LINE
  8
LC-001-002-----0
 62
     1
  5
411
 10
-86.448706
 20
275.195765
 30
0.0
 11
-83.498601
 21
275.195777
 31
0.0
  0
LINE
  8
LC-001-002-----0
 62
     1
  5
412
 10
-69.002056
 20
293.695656
 30
0.0
 11
-77.498601
 21
293.694831
 31
0.0
  0
LINE
  8
LC-001-002-----0
 62
     1
  5
413
 10
-71.45582
 20
291.194259
 30
0.0
 11
-71.45755
 21
272.816123
 31
0.0
  0
LINE
  8
LC-001-002-----0
 62
     1
  5
414
 10
-54.244429
 20
208.450875
 30
0.0
 11
-54.244429
 21
242.000988
 31
0.0
  0
LINE
  8
LC-001-002-----0
 62
     1
  5
415
 10
-77.498601
 20
275.195803
 30
0.0
 11
-74.495112
 21
275.195816
 31
0.0
  0
LINE
  8
LC-001-002-----0
 62
     1
  5
416
 10
-62.994429
 20
256.900988
 30
0.0
 11
-60.544429
 21
256.900988
 31
0.0
  0
LINE
  8
LC-001-002-----0
 62
     1
  5
417
 10
-161.495135
 20
302.451648
 30
0.0
 11
-87.96683
 21
302.451919
 31
0.0
  0
LINE
  8
LC-001-002-----0
 62
     1
  5
418
 10
91.254865
 20
272.202196
 30
0.0
 11
89.504943
 21
272.202196
 31
0.0
  0
LINE
  8
LC-001-002-----0
 62
     1
  5
419
 10
-68.995137
 20
293.696013
 30
0.0
 11
-66.494887
 21
293.696021
 31
0.0
  0
LINE
  8
LC-001-002-----0
 62
     1
  5
41A
 10
190.504863
 20
300.452352
 30
0.0
 11
190.504863
 21
299.45325
 31
0.0
  0
LINE
  8
LC-001-002-----0
 62
     1
  5
41B
 10
141.241501
 20
302.452352
 30
0.0
 11
117.172819
 21
293.694691
 31
0.0
  0
LINE
  8
LC-001-002-----0
 62
     1
  5
41C
 10
141.517826
 20
299.453181
 30
0.0
 11
118.820759
 21
291.194691
 31
0.0
  0
LINE
  8
LC-001-002-----0
 62
     1
  5
41D
 10
110.50833
 20
293.694691
 30
0.0
 11
117.172819
 21
293.694691
 31
0.0
  0
LINE
  8
LC-001-002-----0
 62
     1
  5
41E
 10
113.458595
 20
291.194691
 30
0.0
 11
118.820759
 21
291.194691
 31
0.0
  0
LINE
  8
LC-001-002-----0
 62
     1
  5
41F
 10
113.458595
 20
291.194691
 30
0.0
 11
113.458608
 21
275.19579
 31
0.0
  0
LINE
  8
LC-001-002-----0
 62
     1
  5
420
 10
113.458608
 20
275.19579
 30
0.0
 11
110.50833
 21
275.19579
 31
0.0
  0
LINE
  8
LC-001-002-----0
 62
     1
  5
421
 10
-59.544429
 20
245.500988
 30
0.0
 11
-59.544429
 21
255.900988
 31
0.0
  0
ARC
  8
LC-001-002-----0
 62
     1
  5
422
 10
-60.544429
 20
255.900988
 30
0.0
 40
1.0
 50
0.0
 51
90.0
  0
ARC
  8
LC-001-002-----0
 62
     1
  5
423
 10
-62.994429
 20
255.900988
 30
0.0
 40
1.0
 50
90.0
 51
180.0
  0
LINE
  8
LC-001-002-----0
 62
     1
  5
424
 10
90.754865
 20
261.500988
 30
0.0
 11
85.004865
 21
261.500988
 31
0.0
  0
ARC
  8
LC-001-002-----0
 62
     1
  5
425
 10
-63.745135
 20
262.000988
 30
0.0
 40
0.5
 50
180.0
 51
270.0
  0
LINE
  8
LC-001-002-----0
 62
     1
  5
426
 10
84.004865
 20
247.000988
 30
0.0
 11
84.004865
 21
260.500988
 31
0.0
  0
ARC
  8
LC-001-002-----0
 62
     1
  5
427
 10
85.004865
 20
260.500988
 30
0.0
 40
1.0
 50
90.0
 51
180.0
  0
ARC
  8
LC-001-002-----0
 62
     1
  5
428
 10
83.504865
 20
247.000988
 30
0.0
 40
0.5
 50
270.0
 51
0.0
  0
ARC
  8
LC-001-002-----0
 62
     1
  5
429
 10
79.004865
 20
245.500988
 30
0.0
 40
1.0
 50
90.0
 51
180.0
  0
LINE
  8
LC-001-002-----0
 62
     1
  5
42A
 10
81.254158
 20
208.450875
 30
0.0
 11
81.254158
 21
241.950988
 31
0.0
  0
LINE
  8
LC-001-002-----0
 62
     1
  5
42B
 10
90.004158
 20
256.900988
 30
0.0
 11
87.554158
 21
256.900988
 31
0.0
  0
LINE
  8
LC-001-002-----0
 62
     1
  5
42C
 10
86.554158
 20
245.450988
 30
0.0
 11
86.554158
 21
255.900988
 31
0.0
  0
ARC
  8
LC-001-002-----0
 62
     1
  5
42D
 10
87.554158
 20
255.900988
 30
0.0
 40
1.0
 50
90.0
 51
180.0
  0
ARC
  8
LC-001-002-----0
 62
     1
  5
42E
 10
90.004158
 20
255.900988
 30
0.0
 40
1.0
 50
0.0
 51
90.0
  0
ARC
  8
LC-001-002-----0
 62
     1
  5
42F
 10
90.754865
 20
262.000988
 30
0.0
 40
0.5
 50
270.0
 51
0.0
  0
LINE
  8
LC-001-002-----0
 62
     1
  5
430
 10
-64.245135
 20
262.000988
 30
0.0
 11
-64.245135
 21
272.202195
 31
0.0
  0
LINE
  8
LC-001-002-----0
 62
     1
  5
431
 10
91.254865
 20
262.000988
 30
0.0
 11
91.254865
 21
272.202197
 31
0.0
  0
LINE
  8
LC-001-002-----0
 62
     1
  5
432
 10
83.504865
 20
246.500988
 30
0.0
 11
79.004865
 21
246.500988
 31
0.0
  0
ARC
  8
LC-001-002-----0
 62
     1
  5
433
 10
84.054158
 20
245.450988
 30
0.0
 40
2.5
 50
270.0
 51
0.0
  0
ARC
  8
LC-001-002-----0
 62
     1
  5
434
 10
82.254158
 20
241.950988
 30
0.0
 40
1.0
 50
90.0
 51
180.0
  0
LINE
  8
LC-001-002-----0
 62
     1
  5
435
 10
84.054158
 20
242.950988
 30
0.0
 11
82.254158
 21
242.950988
 31
0.0
  0
LINE
  8
LC-001-002-----0
 62
     1
  5
436
 10
-56.495135
 20
246.500988
 30
0.0
 11
-51.995135
 21
246.500988
 31
0.0
  0
ARC
  8
LC-001-002-----0
 62
     1
  5
437
 10
-57.044429
 20
245.500988
 30
0.0
 40
2.5
 50
180.0
 51
270.0
  0
ARC
  8
LC-001-002-----0
 62
     1
  5
438
 10
-55.244429
 20
242.000988
 30
0.0
 40
1.0
 50
0.0
 51
90.0
  0
LINE
  8
LC-001-002-----0
 62
     1
  5
439
 10
-57.044429
 20
243.000988
 30
0.0
 11
-55.244429
 21
243.000988
 31
0.0
  0
LINE
  8
LC-001-002-----0
 62
     1
  5
43A
 10
-25.969528
 20
208.450875
 30
0.0
 11
-23.995135
 21
208.207459
 31
0.0
  0
LINE
  8
LC-001-002-----0
 62
     1
  5
43B
 10
96.011841
 20
293.696013
 30
0.0
 11
104.50833
 21
293.695225
 31
0.0
  0
LINE
  8
LC-001-002-----0
 62
     1
  5
43C
 10
91.004158
 20
208.450875
 30
0.0
 11
91.004158
 21
255.900988
 31
0.0
  0
LINE
  8
LC-001-002-----0
 62
     1
  5
43D
 10
93.504865
 20
271.816416
 30
0.0
 11
93.504865
 21
208.450875
 31
0.0
  0
LINE
  8
LC-001-002-----0
 62
     1
  5
43E
 10
98.503691
 20
291.194259
 30
0.0
 11
98.50532
 21
272.816123
 31
0.0
  0
LINE
  8
LC-001-002-----0
 62
     1
  5
43F
 10
-63.994429
 20
208.450875
 30
0.0
 11
-63.994429
 21
255.900988
 31
0.0
  0
LINE
  8
LC-001-002-----0
 62
     1
  5
440
 10
-21.504344
 20
210.456141
 30
0.0
 11
-21.495135
 21
142.450875
 31
0.0
  0
LINE
  8
LC-001-002-----0
 62
     1
  5
441
 10
48.505027
 20
210.381331
 30
0.0
 11
48.504865
 21
142.450875
 31
0.0
  0
LINE
  8
LC-001-002-----0
 62
     1
  5
442
 10
51.004865
 20
145.950875
 30
0.0
 11
50.067042
 21
142.450875
 31
0.0
  0
LINE
  8
LC-001-002-----0
 62
     1
  5
443
 10
-23.995135
 20
145.950875
 30
0.0
 11
-23.057313
 21
142.450875
 31
0.0
  0
LINE
  8
LC-001-002-----0
 62
     1
  5
444
 10
-66.495135
 20
271.816439
 30
0.0
 11
-66.495135
 21
208.450875
 31
0.0
  0
LINE
  8
LC-001-002-----0
 62
     1
  5
445
 10
104.50833
 20
275.19579
 30
0.0
 11
101.504876
 21
275.19579
 31
0.0
  0
LINE
  8
LC-001-002-----0
 62
     1
  5
446
 10
-67.49482
 20
272.816123
 30
0.0
 11
-66.495135
 21
271.816439
 31
0.0
  0
LINE
  8
LC-001-002-----0
 62
     1
  5
447
 10
-74.495112
 20
275.195816
 30
0.0
 11
-74.495137
 21
291.194259
 31
0.0
  0
LINE
  8
LC-001-002-----0
 62
     1
  5
448
 10
-74.495137
 20
291.194259
 30
0.0
 11
-71.45582
 21
291.194259
 31
0.0
  0
LINE
  8
LC-001-002-----0
 62
     1
  5
449
 10
101.504876
 20
275.19579
 30
0.0
 11
101.504863
 21
291.194259
 31
0.0
  0
LINE
  8
LC-001-002-----0
 62
     1
  5
44A
 10
101.504863
 20
291.194259
 30
0.0
 11
98.503691
 21
291.194259
 31
0.0
  0
LINE
  8
LC-001-002-----0
 62
     1
  5
44B
 10
-163.495122
 20
299.45164
 30
0.0
 11
-114.50996
 21
299.451821
 31
0.0
  0
LINE
  8
LC-001-002-----0
 62
     1
  5
44C
 10
96.004863
 20
293.696013
 30
0.0
 11
93.50454
 21
293.696021
 31
0.0
  0
LINE
  8
LC-001-002-----0
 62
     1
  5
44D
 10
190.50468
 20
299.45325
 30
0.0
 11
141.517826
 21
299.453181
 31
0.0
  0
LINE
  8
LC-001-002-----0
 62
     1
  5
44E
 10
97.811592
 20
302.452352
 30
0.0
 11
100.044177
 21
302.452352
 31
0.0
  0
INSERT
  8
LC-004-003-----0
 62
     2
  5
4CC
  2
*X21
 10
0.0
 20
0.0
 30
0.0
  0
INSERT
  8
LC-004-003-----0
 62
     2
  5
555
  2
*X22
 10
0.0
 20
0.0
 30
0.0
  0
LINE
  8
LC-001-002-----0
 62
     1
  5
556
 10
-21.504344
 20
210.456141
 30
0.0
 11
48.505027
 21
210.456141
 31
0.0
  0
ARC
  8
LC-001-002-----0
 62
     1
  5
557
 10
188.504863
 20
300.452352
 30
0.0
 40
2.0
 50
0.0
 51
90.0
  0
ARC
  8
LC-001-002-----0
 62
     1
  5
558
 10
-161.495128
 20
300.451648
 30
0.0
 40
2.0
 50
90.000212
 51
180.000248
  0
LINE
  8
LC-001-002-----0
 62
     1
  5
559
 10
-73.032591
 20
302.451975
 30
0.0
 11
-70.801928
 21
302.451983
 31
0.0
  0
LINE
  8
LC-001-002-----0
 62
     1
  5
55A
 10
114.97693
 20
302.452352
 30
0.0
 11
188.504863
 21
302.452352
 31
0.0
  0
LINE
  8
LC-001-002-----0
 62
     1
  5
55B
 10
-66.248586
 20
276.952196
 30
0.0
 11
-68.995137
 21
276.952196
 31
0.0
  0
LINE
  8
LC-001-002-----0
 62
     1
  5
55C
 10
82.254821
 20
261.500988
 30
0.0
 11
85.004865
 21
261.500988
 31
0.0
  0
LINE
  8
LC-001-002-----0
 62
     1
  5
55D
 10
-60.394838
 20
272.202196
 30
0.0
 11
-64.245135
 21
272.202196
 31
0.0
  0
DIMENSION
  8
LC-004-003-----0
 62
     2
  5
577
  2
*D23
 10
13.502294
 20
392.000363
 30
0.0
 11
13.502294
 21
392.000363
 31
0.0
 70
     1
  1
%%c<>
 13
-163.495124
 23
299.44375
 33
0.0
 14
190.50468
 24
299.45325
 34
0.0
  3
LC-DIM-L-0140-02-02
  0
DIMENSION
  8
LC-004-003-----0
 62
     2
  5
591
  2
*D24
 10
-154.0
 20
248.947312
 30
0.0
 11
-154.0
 21
248.947312
 31
0.0
  1
100
 13
-163.495124
 23
299.44375
 33
0.0
 14
-58.995179
 24
198.450875
 34
0.0
 50
90.0
  3
LC-DIM-L-0140-02-02
  0
DIMENSION
  8
LC-004-003-----0
 62
     2
  5
5AB
  2
*D25
 10
13.504847
 20
36.0
 30
0.0
 11
13.504847
 21
36.0
 31
0.0
  1
%%c<>
 13
-87.99514
 23
281.492068
 33
0.0
 14
115.004833
 24
281.492704
 34
0.0
  3
LC-DIM-L-0140-02-02
  0
LINE
  8
LC-001-002-----0
 62
     1
  5
5AC
 10
-50.495135
 20
214.497261
 30
0.0
 11
77.565799
 21
214.497261
 31
0.0
  0
ENDSEC
  0
EOF
