  0
SECTION
  2
HEADER
  9
$ACADVER
  1
AC1015
  9
$ACADMAINTVER
 70
     6
  9
$DWGCODEPAGE
  3
ANSI_1252
  9
$INSBASE
 10
19.512808
 20
11.753976
 30
0.0
  9
$EXTMIN
 10
19.512808
 20
11.753976
 30
0.0
  9
$EXTMAX
 10
859.512808
 20
605.753976
 30
0.0
  9
$LIMMIN
 10
19.512808
 20
11.753976
  9
$LIMMAX
 10
859.512808
 20
605.753976
  9
$ORTHOMODE
 70
     0
  9
$REGENMODE
 70
     1
  9
$FILLMODE
 70
     1
  9
$QTEXTMODE
 70
     0
  9
$MIRRTEXT
 70
     1
  9
$LTSCALE
 40
2.0
  9
$ATTMODE
 70
     1
  9
$TEXTSIZE
 40
2.5
  9
$TRACEWID
 40
1.0
  9
$TEXTSTYLE
  7
Standard
  9
$CLAYER
  8
0
  9
$CELTYPE
  6
ByLayer
  9
$CECOLOR
 62
     7
  9
$CELTSCALE
 40
1.0
  9
$DISPSILH
 70
     0
  9
$DIMSCALE
 40
2.0
  9
$DIMASZ
 40
3.5
  9
$DIMEXO
 40
0.625
  9
$DIMDLI
 40
3.75
  9
$DIMRND
 40
0.0
  9
$DIMDLE
 40
0.0
  9
$DIMEXE
 40
1.25
  9
$DIMTP
 40
0.0
  9
$DIMTM
 40
0.0
  9
$DIMTXT
 40
3.5
  9
$DIMCEN
 40
2.5
  9
$DIMTSZ
 40
0.0
  9
$DIMTOL
 70
     0
  9
$DIMLIM
 70
     0
  9
$DIMTIH
 70
     0
  9
$DIMTOH
 70
     0
  9
$DIMSE1
 70
     0
  9
$DIMSE2
 70
     0
  9
$DIMTAD
 70
     1
  9
$DIMZIN
 70
     8
  9
$DIMBLK
  1

  9
$DIMASO
 70
     1
  9
$DIMSHO
 70
     1
  9
$DIMPOST
  1

  9
$DIMAPOST
  1

  9
$DIMALT
 70
     0
  9
$DIMALTD
 70
     3
  9
$DIMALTF
 40
0.03937
  9
$DIMLFAC
 40
1.0
  9
$DIMTOFL
 70
     1
  9
$DIMTVP
 40
0.0
  9
$DIMTIX
 70
     0
  9
$DIMSOXD
 70
     0
  9
$DIMSAH
 70
     0
  9
$DIMBLK1
  1

  9
$DIMBLK2
  1

  9
$DIMSTYLE
  2
ISO-25
  9
$DIMCLRD
 70
     0
  9
$DIMCLRE
 70
     0
  9
$DIMCLRT
 70
     0
  9
$DIMTFAC
 40
1.0
  9
$DIMGAP
 40
0.625
  9
$DIMJUST
 70
     0
  9
$DIMSD1
 70
     0
  9
$DIMSD2
 70
     0
  9
$DIMTOLJ
 70
     0
  9
$DIMTZIN
 70
     8
  9
$DIMALTZ
 70
     0
  9
$DIMALTTZ
 70
     0
  9
$DIMUPT
 70
     0
  9
$DIMDEC
 70
     2
  9
$DIMTDEC
 70
     2
  9
$DIMALTU
 70
     2
  9
$DIMALTTD
 70
     3
  9
$DIMTXSTY
  7
Standard
  9
$DIMAUNIT
 70
     0
  9
$DIMADEC
 70
     0
  9
$DIMALTRND
 40
0.0
  9
$DIMAZIN
 70
     0
  9
$DIMDSEP
 70
    44
  9
$DIMATFIT
 70
     3
  9
$DIMFRAC
 70
     0
  9
$DIMLDRBLK
  1

  9
$DIMLUNIT
 70
     2
  9
$DIMLWD
 70
    -2
  9
$DIMLWE
 70
    -2
  9
$DIMTMOVE
 70
     0
  9
$LUNITS
 70
     2
  9
$LUPREC
 70
     4
  9
$SKETCHINC
 40
1.0
  9
$FILLETRAD
 40
10.0
  9
$AUNITS
 70
     0
  9
$AUPREC
 70
     0
  9
$MENU
  1
.
  9
$ELEVATION
 40
0.0
  9
$PELEVATION
 40
0.0
  9
$THICKNESS
 40
0.0
  9
$LIMCHECK
 70
     0
  9
$CHAMFERA
 40
10.0
  9
$CHAMFERB
 40
10.0
  9
$CHAMFERC
 40
20.0
  9
$CHAMFERD
 40
0.0
  9
$SKPOLY
 70
     0
  9
$TDCREATE
 40
2455565.34248934
  9
$TDUCREATE
 40
2455565.300822674
  9
$TDUPDATE
 40
2455565.342489352
  9
$TDUUPDATE
 40
2455565.300822685
  9
$TDINDWG
 40
0.0000000116
  9
$TDUSRTIMER
 40
0.0000000116
  9
$USRTIMER
 70
     1
  9
$ANGBASE
 50
0.0
  9
$ANGDIR
 70
     0
  9
$PDMODE
 70
     0
  9
$PDSIZE
 40
0.0
  9
$PLINEWID
 40
0.0
  9
$SPLFRAME
 70
     0
  9
$SPLINETYPE
 70
     6
  9
$SPLINESEGS
 70
     8
  9
$HANDSEED
  5
73C
  9
$SURFTAB1
 70
     6
  9
$SURFTAB2
 70
     6
  9
$SURFTYPE
 70
     6
  9
$SURFU
 70
     6
  9
$SURFV
 70
     6
  9
$UCSBASE
  2

  9
$UCSNAME
  2

  9
$UCSORG
 10
0.0
 20
0.0
 30
0.0
  9
$UCSXDIR
 10
1.0
 20
0.0
 30
0.0
  9
$UCSYDIR
 10
0.0
 20
1.0
 30
0.0
  9
$UCSORTHOREF
  2

  9
$UCSORTHOVIEW
 70
     0
  9
$UCSORGTOP
 10
0.0
 20
0.0
 30
0.0
  9
$UCSORGBOTTOM
 10
0.0
 20
0.0
 30
0.0
  9
$UCSORGLEFT
 10
0.0
 20
0.0
 30
0.0
  9
$UCSORGRIGHT
 10
0.0
 20
0.0
 30
0.0
  9
$UCSORGFRONT
 10
0.0
 20
0.0
 30
0.0
  9
$UCSORGBACK
 10
0.0
 20
0.0
 30
0.0
  9
$PUCSBASE
  2

  9
$PUCSNAME
  2

  9
$PUCSORG
 10
0.0
 20
0.0
 30
0.0
  9
$PUCSXDIR
 10
1.0
 20
0.0
 30
0.0
  9
$PUCSYDIR
 10
0.0
 20
1.0
 30
0.0
  9
$PUCSORTHOREF
  2

  9
$PUCSORTHOVIEW
 70
     0
  9
$PUCSORGTOP
 10
0.0
 20
0.0
 30
0.0
  9
$PUCSORGBOTTOM
 10
0.0
 20
0.0
 30
0.0
  9
$PUCSORGLEFT
 10
0.0
 20
0.0
 30
0.0
  9
$PUCSORGRIGHT
 10
0.0
 20
0.0
 30
0.0
  9
$PUCSORGFRONT
 10
0.0
 20
0.0
 30
0.0
  9
$PUCSORGBACK
 10
0.0
 20
0.0
 30
0.0
  9
$USERI1
 70
     0
  9
$USERI2
 70
     0
  9
$USERI3
 70
     0
  9
$USERI4
 70
     0
  9
$USERI5
 70
     0
  9
$USERR1
 40
0.0
  9
$USERR2
 40
0.0
  9
$USERR3
 40
0.0
  9
$USERR4
 40
0.0
  9
$USERR5
 40
0.0
  9
$WORLDVIEW
 70
     1
  9
$SHADEDGE
 70
     3
  9
$SHADEDIF
 70
    70
  9
$TILEMODE
 70
     1
  9
$MAXACTVP
 70
    64
  9
$PINSBASE
 10
0.0
 20
0.0
 30
0.0
  9
$PLIMCHECK
 70
     0
  9
$PEXTMIN
 10
19.512808
 20
11.753976
 30
0.0
  9
$PEXTMAX
 10
859.512808
 20
605.753976
 30
0.0
  9
$PLIMMIN
 10
19.512808
 20
11.753976
  9
$PLIMMAX
 10
859.512808
 20
605.753976
  9
$UNITMODE
 70
     0
  9
$VISRETAIN
 70
     1
  9
$PLINEGEN
 70
     0
  9
$PSLTSCALE
 70
     1
  9
$TREEDEPTH
 70
  3020
  9
$CMLSTYLE
  2
Standard
  9
$CMLJUST
 70
     0
  9
$CMLSCALE
 40
20.0
  9
$PROXYGRAPHICS
 70
     1
  9
$MEASUREMENT
 70
     1
  9
$CELWEIGHT
370
    -1
  9
$ENDCAPS
280
     0
  9
$JOINSTYLE
280
     0
  9
$LWDISPLAY
290
     0
  9
$INSUNITS
 70
     4
  9
$HYPERLINKBASE
  1

  9
$STYLESHEET
  1

  9
$XEDIT
290
     1
  9
$CEPSNTYPE
380
     0
  9
$PSTYLEMODE
290
     1
  9
$FINGERPRINTGUID
  2
{FAEB1C30-E019-11D5-929B-00C0DF256EC4}
  9
$VERSIONGUID
  2
{FAEB1C32-E019-11D5-929B-00C0DF256EC4}
  9
$EXTNAMES
290
     1
  9
$PSVPSCALE
 40
0.0
  9
$OLESTARTUP
290
     0
  0
ENDSEC
  0
SECTION
  2
CLASSES
  0
CLASS
  1
ACDBDICTIONARYWDFLT
  2
AcDbDictionaryWithDefault
  3
ObjectDBX Classes
 90
        0
280
     0
281
     0
  0
CLASS
  1
ACDBPLACEHOLDER
  2
AcDbPlaceHolder
  3
ObjectDBX Classes
 90
        0
280
     0
281
     0
  0
CLASS
  1
LAYOUT
  2
AcDbLayout
  3
ObjectDBX Classes
 90
        0
280
     0
281
     0
  0
ENDSEC
  0
SECTION
  2
TABLES
  0
TABLE
  2
VPORT
  5
8
330
0
100
AcDbSymbolTable
 70
     2
  0
VPORT
  5
29
330
8
100
AcDbSymbolTableRecord
100
AcDbViewportTableRecord
  2
*ACTIVE
 70
     0
 10
0.0
 20
0.0
 11
1.0
 21
1.0
 12
439.512808
 22
308.753976
 13
0.0
 23
0.0
 14
1.0
 24
1.0
 15
0.0
 25
0.0
 16
0.0
 26
0.0
 36
1.0
 17
0.0
 27
0.0
 37
0.0
 40
594.0
 41
1.414141
 42
50.0
 43
0.0
 44
0.0
 50
0.0
 51
0.0
 71
    16
 72
   100
 73
     1
 74
     0
 75
     0
 76
     0
 77
     0
 78
     0
281
     0
 65
     0
110
0.0
120
0.0
130
0.0
111
1.0
121
0.0
131
0.0
112
0.0
122
1.0
132
0.0
 79
     0
146
0.0
  0
ENDTAB
  0
TABLE
  2
LTYPE
  5
5
330
0
100
AcDbSymbolTable
 70
     3
  0
LTYPE
  5
14
330
5
100
AcDbSymbolTableRecord
100
AcDbLinetypeTableRecord
  2
ByBlock
 70
     0
  3

 72
    65
 73
     0
 40
0.0
  0
LTYPE
  5
15
330
5
100
AcDbSymbolTableRecord
100
AcDbLinetypeTableRecord
  2
ByLayer
 70
     0
  3

 72
    65
 73
     0
 40
0.0
  0
LTYPE
  5
16
330
5
100
AcDbSymbolTableRecord
100
AcDbLinetypeTableRecord
  2
Continuous
 70
     0
  3
Solid line
 72
    65
 73
     0
 40
0.0
  0
LTYPE
  5
2A
330
5
100
AcDbSymbolTableRecord
100
AcDbLinetypeTableRecord
  2
DASHED
 70
     0
  3
__ __ __ __ __
 72
    65
 73
     2
 40
6.25
 49
5.0
 74
     4
 75
     0
340
0
 46
1.0
 50
0.0
 44
0.0
 45
0.0
 49
-1.25
 74
     4
 75
     0
340
0
 46
1.0
 50
0.0
 44
0.0
 45
0.0
  0
LTYPE
  5
4FE
330
5
100
AcDbSymbolTableRecord
100
AcDbLinetypeTableRecord
  2
DASHDOT
 70
     0
  3
__ . __ . __ . __ . __
 72
    65
 73
     4
 40
7.5
 49
5.0
 74
     4
 75
     0
340
0
 46
1.0
 50
0.0
 44
0.0
 45
0.0
 49
-1.25
 74
     4
 75
     0
340
0
 46
1.0
 50
0.0
 44
0.0
 45
0.0
 49
0.0
 74
     4
 75
     0
340
0
 46
1.0
 50
0.0
 44
0.0
 45
0.0
 49
-1.25
 74
     4
 75
     0
340
0
 46
1.0
 50
0.0
 44
0.0
 45
0.0
  0
ENDTAB
  0
TABLE
  2
LAYER
  5
2
330
0
100
AcDbSymbolTable
 70
    11
  0
LAYER
  5
10
330
2
100
AcDbSymbolTableRecord
100
AcDbLayerTableRecord
  2
0
 70
     0
 62
     7
  6
Continuous
370
    -3
390
F
  0
LAYER
  5
2B
330
2
100
AcDbSymbolTableRecord
100
AcDbLayerTableRecord
  2
LC-INFO-1-2-mm-A3-0
 70
     1
 62
     7
  6
ByBlock
370
    -3
390
F
  0
LAYER
  5
2C
330
2
100
AcDbSymbolTableRecord
100
AcDbLayerTableRecord
  2
LC-CUT-HIDDEN
 70
     0
 62
     7
  6
DASHED
370
    -3
390
F
  0
LAYER
  5
2D
330
2
100
AcDbSymbolTableRecord
100
AcDbLayerTableRecord
  2
LC-VIEWPORT
 70
     0
 62
     7
  6
ByBlock
370
    -3
390
F
  0
LAYER
  5
2E
330
2
100
AcDbSymbolTableRecord
100
AcDbLayerTableRecord
  2
LC-3D-HIDDEN
 70
     0
 62
     9
  6
DASHED
370
    -3
390
F
  0
LAYER
  5
34
330
2
100
AcDbSymbolTableRecord
100
AcDbLayerTableRecord
  2
LC-001-100-D00-0
 70
     0
 62
     1
  6
ByBlock
370
    -3
390
F
  0
LAYER
  5
4FF
330
2
100
AcDbSymbolTableRecord
100
AcDbLayerTableRecord
  2
LC-002-102-D00-0
 70
     0
 62
     2
  6
DASHDOT
370
    -3
390
F
  0
LAYER
  5
506
330
2
100
AcDbSymbolTableRecord
100
AcDbLayerTableRecord
  2
LC-003-003-----0
 70
     0
 62
     2
  6
ByBlock
370
    -3
390
F
  0
LAYER
  5
508
330
2
100
AcDbSymbolTableRecord
100
AcDbLayerTableRecord
  2
Defpoints
 70
     0
 62
     7
  6
Continuous
290
     0
370
    -3
390
F
  0
LAYER
  5
53C
330
2
100
AcDbSymbolTableRecord
100
AcDbLayerTableRecord
  2
LC-004-002-----0
 70
     0
 62
     1
  6
ByBlock
370
    -3
390
F
  0
LAYER
  5
549
330
2
100
AcDbSymbolTableRecord
100
AcDbLayerTableRecord
  2
LC-005-005-----0
 70
     0
 62
     2
  6
ByBlock
370
    -3
390
F
  0
ENDTAB
  0
TABLE
  2
STYLE
  5
3
330
0
100
AcDbSymbolTable
 70
     4
  0
STYLE
  5
11
330
3
100
AcDbSymbolTableRecord
100
AcDbTextStyleTableRecord
  2
Standard
 70
     0
 40
0.0
 41
1.0
 50
0.0
 71
     0
 42
2.5
  3
txt
  4

  0
STYLE
  5
2F
330
3
100
AcDbSymbolTableRecord
100
AcDbTextStyleTableRecord
  2
LCTX0-400-0-0pDIN-Schrift
 70
     0
 40
0.0
 41
0.75
 50
0.0
 71
     0
 42
3.5
  3
TXT
  4

  0
STYLE
  5
30
330
3
100
AcDbSymbolTableRecord
100
AcDbTextStyleTableRecord
  2
LCTX15-400-0-0-Arial
 70
     0
 40
0.0
 41
0.8
 50
0.0
 71
     0
 42
3.5
  3

  4

1001
ACAD
1000
Arial
1071
 16777218
  0
STYLE
  5
504
330
3
100
AcDbSymbolTableRecord
100
AcDbTextStyleTableRecord
  2
LCTX15-400-0-0pDIN-Schrift
 70
     0
 40
2.5
 41
0.8
 50
15.0
 71
     0
 42
3.5
  3
STANDARD
  4

  0
ENDTAB
  0
TABLE
  2
VIEW
  5
6
330
0
100
AcDbSymbolTable
 70
     0
  0
ENDTAB
  0
TABLE
  2
UCS
  5
7
330
0
100
AcDbSymbolTable
 70
     0
  0
ENDTAB
  0
TABLE
  2
APPID
  5
9
330
0
100
AcDbSymbolTable
 70
     1
  0
APPID
  5
12
330
9
100
AcDbSymbolTableRecord
100
AcDbRegAppTableRecord
  2
ACAD
 70
     0
  0
ENDTAB
  0
TABLE
  2
DIMSTYLE
  5
A
330
0
100
AcDbSymbolTable
 70
     2
100
AcDbDimStyleTable
  0
DIMSTYLE
105
27
330
A
100
AcDbSymbolTableRecord
100
AcDbDimStyleTableRecord
  2
ISO-25
 70
     0
 41
2.5
 42
0.625
 43
3.75
 44
1.25
 73
     0
 74
     0
 77
     1
 78
     8
140
2.5
141
2.5
143
0.03937
147
0.625
171
     3
172
     1
271
     2
272
     2
274
     3
278
    44
283
     0
284
     8
340
11
  0
DIMSTYLE
105
505
102
{ACAD_REACTORS
330
507
330
515
330
522
330
52F
102
}
330
A
100
AcDbSymbolTableRecord
100
AcDbDimStyleTableRecord
  2
LC-DIM-L-0140-02-02
 70
     0
 40
2.0
 41
14.0
 42
0.0
 43
7.5
 44
1.8
 73
     0
 74
     0
 77
     1
 78
     8
 79
     2
140
14.0
141
0.0
146
0.71
147
1.5
176
     2
177
     2
178
     2
179
     2
271
     2
278
    44
289
     1
340
504
  0
ENDTAB
  0
TABLE
  2
BLOCK_RECORD
  5
1
330
0
100
AcDbSymbolTable
 70
    79
  0
BLOCK_RECORD
  5
1F
330
1
100
AcDbSymbolTableRecord
100
AcDbBlockTableRecord
  2
*Model_Space
340
22
  0
BLOCK_RECORD
  5
1B
330
1
100
AcDbSymbolTableRecord
100
AcDbBlockTableRecord
  2
*Paper_Space
340
1E
  0
BLOCK_RECORD
  5
23
330
1
100
AcDbSymbolTableRecord
100
AcDbBlockTableRecord
  2
*Paper_Space0
340
26
  0
BLOCK_RECORD
  5
31
330
1
100
AcDbSymbolTableRecord
100
AcDbBlockTableRecord
  2
POLY1
340
0
102
{BLKREFS
331
3D
102
}
  0
BLOCK_RECORD
  5
3E
330
1
100
AcDbSymbolTableRecord
100
AcDbBlockTableRecord
  2
POLY2
340
0
102
{BLKREFS
331
49
102
}
  0
BLOCK_RECORD
  5
4A
330
1
100
AcDbSymbolTableRecord
100
AcDbBlockTableRecord
  2
POLY3
340
0
102
{BLKREFS
331
55
102
}
  0
BLOCK_RECORD
  5
56
330
1
100
AcDbSymbolTableRecord
100
AcDbBlockTableRecord
  2
POLY4
340
0
102
{BLKREFS
331
61
102
}
  0
BLOCK_RECORD
  5
62
330
1
100
AcDbSymbolTableRecord
100
AcDbBlockTableRecord
  2
POLY5
340
0
102
{BLKREFS
331
6D
102
}
  0
BLOCK_RECORD
  5
6E
330
1
100
AcDbSymbolTableRecord
100
AcDbBlockTableRecord
  2
POLY6
340
0
102
{BLKREFS
331
79
102
}
  0
BLOCK_RECORD
  5
7A
330
1
100
AcDbSymbolTableRecord
100
AcDbBlockTableRecord
  2
POLY7
340
0
102
{BLKREFS
331
85
102
}
  0
BLOCK_RECORD
  5
86
330
1
100
AcDbSymbolTableRecord
100
AcDbBlockTableRecord
  2
POLY8
340
0
102
{BLKREFS
331
91
102
}
  0
BLOCK_RECORD
  5
92
330
1
100
AcDbSymbolTableRecord
100
AcDbBlockTableRecord
  2
POLY9
340
0
102
{BLKREFS
331
9D
102
}
  0
BLOCK_RECORD
  5
9E
330
1
100
AcDbSymbolTableRecord
100
AcDbBlockTableRecord
  2
POLY10
340
0
102
{BLKREFS
331
A9
102
}
  0
BLOCK_RECORD
  5
B3
330
1
100
AcDbSymbolTableRecord
100
AcDbBlockTableRecord
  2
POLY11
340
0
102
{BLKREFS
331
BE
102
}
  0
BLOCK_RECORD
  5
BF
330
1
100
AcDbSymbolTableRecord
100
AcDbBlockTableRecord
  2
KLON1
340
0
102
{BLKREFS
331
C4
102
}
  0
BLOCK_RECORD
  5
C5
330
1
100
AcDbSymbolTableRecord
100
AcDbBlockTableRecord
  2
POLY12
340
0
102
{BLKREFS
331
D0
102
}
  0
BLOCK_RECORD
  5
F8
330
1
100
AcDbSymbolTableRecord
100
AcDbBlockTableRecord
  2
KLON2
340
0
102
{BLKREFS
331
FE
102
}
  0
BLOCK_RECORD
  5
FF
330
1
100
AcDbSymbolTableRecord
100
AcDbBlockTableRecord
  2
KLON3
340
0
102
{BLKREFS
331
105
102
}
  0
BLOCK_RECORD
  5
106
330
1
100
AcDbSymbolTableRecord
100
AcDbBlockTableRecord
  2
POLY13
340
0
102
{BLKREFS
331
111
102
}
  0
BLOCK_RECORD
  5
113
330
1
100
AcDbSymbolTableRecord
100
AcDbBlockTableRecord
  2
KLON4
340
0
102
{BLKREFS
331
119
102
}
  0
BLOCK_RECORD
  5
11A
330
1
100
AcDbSymbolTableRecord
100
AcDbBlockTableRecord
  2
KLON5
340
0
102
{BLKREFS
331
120
102
}
  0
BLOCK_RECORD
  5
121
330
1
100
AcDbSymbolTableRecord
100
AcDbBlockTableRecord
  2
POLY14
340
0
102
{BLKREFS
331
12C
102
}
  0
BLOCK_RECORD
  5
12E
330
1
100
AcDbSymbolTableRecord
100
AcDbBlockTableRecord
  2
KLON6
340
0
102
{BLKREFS
331
134
102
}
  0
BLOCK_RECORD
  5
135
330
1
100
AcDbSymbolTableRecord
100
AcDbBlockTableRecord
  2
KLON7
340
0
102
{BLKREFS
331
13B
102
}
  0
BLOCK_RECORD
  5
13C
330
1
100
AcDbSymbolTableRecord
100
AcDbBlockTableRecord
  2
KLON8
340
0
102
{BLKREFS
331
142
102
}
  0
BLOCK_RECORD
  5
143
330
1
100
AcDbSymbolTableRecord
100
AcDbBlockTableRecord
  2
KLON9
340
0
102
{BLKREFS
331
149
102
}
  0
BLOCK_RECORD
  5
14A
330
1
100
AcDbSymbolTableRecord
100
AcDbBlockTableRecord
  2
POLY15
340
0
102
{BLKREFS
331
155
102
}
  0
BLOCK_RECORD
  5
157
330
1
100
AcDbSymbolTableRecord
100
AcDbBlockTableRecord
  2
KLON10
340
0
102
{BLKREFS
331
15D
102
}
  0
BLOCK_RECORD
  5
15E
330
1
100
AcDbSymbolTableRecord
100
AcDbBlockTableRecord
  2
KLON11
340
0
102
{BLKREFS
331
164
102
}
  0
BLOCK_RECORD
  5
165
330
1
100
AcDbSymbolTableRecord
100
AcDbBlockTableRecord
  2
POLY16
340
0
102
{BLKREFS
331
170
102
}
  0
BLOCK_RECORD
  5
171
330
1
100
AcDbSymbolTableRecord
100
AcDbBlockTableRecord
  2
KLON12
340
0
102
{BLKREFS
331
177
102
}
  0
BLOCK_RECORD
  5
178
330
1
100
AcDbSymbolTableRecord
100
AcDbBlockTableRecord
  2
KLON13
340
0
102
{BLKREFS
331
17E
102
}
  0
BLOCK_RECORD
  5
17F
330
1
100
AcDbSymbolTableRecord
100
AcDbBlockTableRecord
  2
KLON14
340
0
102
{BLKREFS
331
185
102
}
  0
BLOCK_RECORD
  5
186
330
1
100
AcDbSymbolTableRecord
100
AcDbBlockTableRecord
  2
KLON15
340
0
102
{BLKREFS
331
18C
102
}
  0
BLOCK_RECORD
  5
18D
330
1
100
AcDbSymbolTableRecord
100
AcDbBlockTableRecord
  2
KLON16
340
0
102
{BLKREFS
331
193
102
}
  0
BLOCK_RECORD
  5
194
330
1
100
AcDbSymbolTableRecord
100
AcDbBlockTableRecord
  2
KLON17
340
0
102
{BLKREFS
331
19A
102
}
  0
BLOCK_RECORD
  5
19B
330
1
100
AcDbSymbolTableRecord
100
AcDbBlockTableRecord
  2
KLON18
340
0
102
{BLKREFS
331
1A1
102
}
  0
BLOCK_RECORD
  5
1A2
330
1
100
AcDbSymbolTableRecord
100
AcDbBlockTableRecord
  2
KLON19
340
0
102
{BLKREFS
331
1A8
102
}
  0
BLOCK_RECORD
  5
1A9
330
1
100
AcDbSymbolTableRecord
100
AcDbBlockTableRecord
  2
KLON20
340
0
102
{BLKREFS
331
1AF
102
}
  0
BLOCK_RECORD
  5
1B0
330
1
100
AcDbSymbolTableRecord
100
AcDbBlockTableRecord
  2
KLON21
340
0
102
{BLKREFS
331
1B6
102
}
  0
BLOCK_RECORD
  5
1D9
330
1
100
AcDbSymbolTableRecord
100
AcDbBlockTableRecord
  2
POLY17
340
0
102
{BLKREFS
331
1E4
102
}
  0
BLOCK_RECORD
  5
1E6
330
1
100
AcDbSymbolTableRecord
100
AcDbBlockTableRecord
  2
POLY18
340
0
102
{BLKREFS
331
1F1
102
}
  0
BLOCK_RECORD
  5
336
330
1
100
AcDbSymbolTableRecord
100
AcDbBlockTableRecord
  2
POLY19
340
0
102
{BLKREFS
331
347
102
}
  0
BLOCK_RECORD
  5
349
330
1
100
AcDbSymbolTableRecord
100
AcDbBlockTableRecord
  2
POLY20
340
0
102
{BLKREFS
331
35A
102
}
  0
BLOCK_RECORD
  5
3A8
330
1
100
AcDbSymbolTableRecord
100
AcDbBlockTableRecord
  2
POLY21
340
0
102
{BLKREFS
331
3B9
102
}
  0
BLOCK_RECORD
  5
3BA
330
1
100
AcDbSymbolTableRecord
100
AcDbBlockTableRecord
  2
POLY22
340
0
102
{BLKREFS
331
3CB
102
}
  0
BLOCK_RECORD
  5
3CF
330
1
100
AcDbSymbolTableRecord
100
AcDbBlockTableRecord
  2
POLY23
340
0
102
{BLKREFS
331
3E0
102
}
  0
BLOCK_RECORD
  5
3E1
330
1
100
AcDbSymbolTableRecord
100
AcDbBlockTableRecord
  2
POLY24
340
0
102
{BLKREFS
331
3F2
102
}
  0
BLOCK_RECORD
  5
431
330
1
100
AcDbSymbolTableRecord
100
AcDbBlockTableRecord
  2
POLY25
340
0
102
{BLKREFS
331
442
102
}
  0
BLOCK_RECORD
  5
446
330
1
100
AcDbSymbolTableRecord
100
AcDbBlockTableRecord
  2
POLY26
340
0
102
{BLKREFS
331
457
102
}
  0
BLOCK_RECORD
  5
45D
330
1
100
AcDbSymbolTableRecord
100
AcDbBlockTableRecord
  2
POLY27
340
0
102
{BLKREFS
331
468
102
}
  0
BLOCK_RECORD
  5
46A
330
1
100
AcDbSymbolTableRecord
100
AcDbBlockTableRecord
  2
POLY28
340
0
102
{BLKREFS
331
475
102
}
  0
BLOCK_RECORD
  5
479
330
1
100
AcDbSymbolTableRecord
100
AcDbBlockTableRecord
  2
KLON22
340
0
102
{BLKREFS
331
49F
102
}
  0
BLOCK_RECORD
  5
4A0
330
1
100
AcDbSymbolTableRecord
100
AcDbBlockTableRecord
  2
KLON23
340
0
102
{BLKREFS
331
4C8
102
}
  0
BLOCK_RECORD
  5
4C9
330
1
100
AcDbSymbolTableRecord
100
AcDbBlockTableRecord
  2
KLON24
340
0
102
{BLKREFS
331
4CE
102
}
  0
BLOCK_RECORD
  5
4CF
330
1
100
AcDbSymbolTableRecord
100
AcDbBlockTableRecord
  2
KLON25
340
0
102
{BLKREFS
331
4D4
102
}
  0
BLOCK_RECORD
  5
4D5
330
1
100
AcDbSymbolTableRecord
100
AcDbBlockTableRecord
  2
KLON26
340
0
102
{BLKREFS
331
4E1
102
}
  0
BLOCK_RECORD
  5
4E2
330
1
100
AcDbSymbolTableRecord
100
AcDbBlockTableRecord
  2
KLON27
340
0
102
{BLKREFS
331
4E8
102
}
  0
BLOCK_RECORD
  5
4E9
330
1
100
AcDbSymbolTableRecord
100
AcDbBlockTableRecord
  2
KLON28
340
0
102
{BLKREFS
331
4EF
102
}
  0
BLOCK_RECORD
  5
4F0
330
1
100
AcDbSymbolTableRecord
100
AcDbBlockTableRecord
  2
KLON29
340
0
102
{BLKREFS
331
4F7
102
}
  0
BLOCK_RECORD
  5
4F8
330
1
100
AcDbSymbolTableRecord
100
AcDbBlockTableRecord
  2
KLON30
340
0
102
{BLKREFS
331
4FD
102
}
  0
BLOCK_RECORD
  5
509
330
1
100
AcDbSymbolTableRecord
100
AcDbBlockTableRecord
  2
*D59
340
0
  0
BLOCK_RECORD
  5
516
330
1
100
AcDbSymbolTableRecord
100
AcDbBlockTableRecord
  2
*D60
340
0
  0
BLOCK_RECORD
  5
523
330
1
100
AcDbSymbolTableRecord
100
AcDbBlockTableRecord
  2
*D61
340
0
  0
BLOCK_RECORD
  5
530
330
1
100
AcDbSymbolTableRecord
100
AcDbBlockTableRecord
  2
*D62
340
0
  0
BLOCK_RECORD
  5
546
330
1
100
AcDbSymbolTableRecord
100
AcDbBlockTableRecord
  2
*X163
340
0
102
{BLKREFS
331
564
102
}
  0
BLOCK_RECORD
  5
565
330
1
100
AcDbSymbolTableRecord
100
AcDbBlockTableRecord
  2
*X264
340
0
102
{BLKREFS
331
582
102
}
  0
BLOCK_RECORD
  5
583
330
1
100
AcDbSymbolTableRecord
100
AcDbBlockTableRecord
  2
*X365
340
0
102
{BLKREFS
331
5A0
102
}
  0
BLOCK_RECORD
  5
5A1
330
1
100
AcDbSymbolTableRecord
100
AcDbBlockTableRecord
  2
*X466
340
0
102
{BLKREFS
331
5BE
102
}
  0
BLOCK_RECORD
  5
5BF
330
1
100
AcDbSymbolTableRecord
100
AcDbBlockTableRecord
  2
*X567
340
0
102
{BLKREFS
331
5DC
102
}
  0
BLOCK_RECORD
  5
5DF
330
1
100
AcDbSymbolTableRecord
100
AcDbBlockTableRecord
  2
*X668
340
0
102
{BLKREFS
331
5FB
102
}
  0
BLOCK_RECORD
  5
5FD
330
1
100
AcDbSymbolTableRecord
100
AcDbBlockTableRecord
  2
*X769
340
0
102
{BLKREFS
331
61F
102
}
  0
BLOCK_RECORD
  5
622
330
1
100
AcDbSymbolTableRecord
100
AcDbBlockTableRecord
  2
*X870
340
0
102
{BLKREFS
331
644
102
}
  0
BLOCK_RECORD
  5
64F
330
1
100
AcDbSymbolTableRecord
100
AcDbBlockTableRecord
  2
*X971
340
0
102
{BLKREFS
331
66C
102
}
  0
BLOCK_RECORD
  5
66D
330
1
100
AcDbSymbolTableRecord
100
AcDbBlockTableRecord
  2
*X1072
340
0
102
{BLKREFS
331
68A
102
}
  0
BLOCK_RECORD
  5
68B
330
1
100
AcDbSymbolTableRecord
100
AcDbBlockTableRecord
  2
*X1173
340
0
102
{BLKREFS
331
6A8
102
}
  0
BLOCK_RECORD
  5
6A9
330
1
100
AcDbSymbolTableRecord
100
AcDbBlockTableRecord
  2
*X1274
340
0
102
{BLKREFS
331
6C6
102
}
  0
BLOCK_RECORD
  5
6C7
330
1
100
AcDbSymbolTableRecord
100
AcDbBlockTableRecord
  2
*X1375
340
0
102
{BLKREFS
331
6E3
102
}
  0
BLOCK_RECORD
  5
6E6
330
1
100
AcDbSymbolTableRecord
100
AcDbBlockTableRecord
  2
*X1476
340
0
102
{BLKREFS
331
703
102
}
  0
BLOCK_RECORD
  5
705
330
1
100
AcDbSymbolTableRecord
100
AcDbBlockTableRecord
  2
*X1577
340
0
102
{BLKREFS
331
71E
102
}
  0
BLOCK_RECORD
  5
721
330
1
100
AcDbSymbolTableRecord
100
AcDbBlockTableRecord
  2
*X1678
340
0
102
{BLKREFS
331
73A
102
}
  0
ENDTAB
  0
ENDSEC
  0
SECTION
  2
BLOCKS
  0
BLOCK
  5
20
330
1F
100
AcDbEntity
  8
0
100
AcDbBlockBegin
  2
*Model_Space
 70
     0
 71
     0
 10
0.0
 20
0.0
 30
0.0
  3
*Model_Space
  1

  0
ENDBLK
  5
21
330
1F
100
AcDbEntity
  8
0
100
AcDbBlockEnd
  0
BLOCK
  5
1C
330
1B
100
AcDbEntity
 67
     1
  8
0
100
AcDbBlockBegin
  2
*Paper_Space
 70
     0
 71
     0
 10
0.0
 20
0.0
 30
0.0
  3
*Paper_Space
  1

  0
ENDBLK
  5
1D
330
1B
100
AcDbEntity
 67
     1
  8
0
100
AcDbBlockEnd
  0
BLOCK
  5
24
330
23
100
AcDbEntity
  8
0
100
AcDbBlockBegin
  2
*Paper_Space0
 70
     0
 71
     0
 10
0.0
 20
0.0
 30
0.0
  3
*Paper_Space0
  1

  0
ENDBLK
  5
25
330
23
100
AcDbEntity
  8
0
100
AcDbBlockEnd
  0
BLOCK
  5
32
330
31
100
AcDbEntity
  8
0
100
AcDbBlockBegin
  2
POLY1
 70
     0
 71
     0
 10
0.0
 20
0.0
 30
0.0
  3
POLY1
  1

  4
POLY1
  0
LINE
  5
35
330
31
100
AcDbEntity
  8
LC-001-100-D00-0
 62
     7
370
    50
100
AcDbLine
 10
353.66558
 20
349.468069
 30
0.0
 11
353.66558
 21
349.468069
 31
0.0
  0
LINE
  5
36
330
31
100
AcDbEntity
  8
LC-001-100-D00-0
 62
     7
370
    50
100
AcDbLine
 10
353.66558
 20
349.468069
 30
0.0
 11
353.451783
 21
349.584703
 31
0.0
  0
LINE
  5
37
330
31
100
AcDbEntity
  8
LC-001-100-D00-0
 62
     7
370
    50
100
AcDbLine
 10
353.451783
 20
349.584703
 30
0.0
 11
353.451783
 21
349.584703
 31
0.0
  0
LINE
  5
38
330
31
100
AcDbEntity
  8
LC-001-100-D00-0
 62
     7
370
    50
100
AcDbLine
 10
353.451783
 20
349.584703
 30
0.0
 11
353.088547
 21
349.782862
 31
0.0
  0
LINE
  5
39
330
31
100
AcDbEntity
  8
LC-001-100-D00-0
 62
     7
370
    50
100
AcDbLine
 10
353.088547
 20
349.782862
 30
0.0
 11
353.088547
 21
349.782862
 31
0.0
  0
LINE
  5
3A
330
31
100
AcDbEntity
  8
LC-001-100-D00-0
 62
     7
370
    50
100
AcDbLine
 10
353.088547
 20
349.782862
 30
0.0
 11
352.735769
 21
349.983274
 31
0.0
  0
LINE
  5
3B
330
31
100
AcDbEntity
  8
LC-001-100-D00-0
 62
     7
370
    50
100
AcDbLine
 10
352.735769
 20
349.983274
 30
0.0
 11
352.735769
 21
349.983274
 31
0.0
  0
LINE
  5
3C
330
31
100
AcDbEntity
  8
LC-001-100-D00-0
 62
     7
370
    50
100
AcDbLine
 10
352.735769
 20
349.983274
 30
0.0
 11
352.590633
 21
350.065725
 31
0.0
  0
ENDBLK
  5
33
330
31
100
AcDbEntity
  8
0
100
AcDbBlockEnd
  0
BLOCK
  5
3F
330
3E
100
AcDbEntity
  8
0
100
AcDbBlockBegin
  2
POLY2
 70
     0
 71
     0
 10
0.0
 20
0.0
 30
0.0
  3
POLY2
  1

  4
POLY2
  0
LINE
  5
41
330
3E
100
AcDbEntity
  8
LC-001-100-D00-0
 62
     7
370
    50
100
AcDbLine
 10
353.66558
 20
346.46807
 30
0.0
 11
353.66558
 21
346.46807
 31
0.0
  0
LINE
  5
42
330
3E
100
AcDbEntity
  8
LC-001-100-D00-0
 62
     7
370
    50
100
AcDbLine
 10
353.66558
 20
346.46807
 30
0.0
 11
353.451783
 21
346.584705
 31
0.0
  0
LINE
  5
43
330
3E
100
AcDbEntity
  8
LC-001-100-D00-0
 62
     7
370
    50
100
AcDbLine
 10
353.451783
 20
346.584705
 30
0.0
 11
353.451783
 21
346.584705
 31
0.0
  0
LINE
  5
44
330
3E
100
AcDbEntity
  8
LC-001-100-D00-0
 62
     7
370
    50
100
AcDbLine
 10
353.451783
 20
346.584705
 30
0.0
 11
353.088547
 21
346.782863
 31
0.0
  0
LINE
  5
45
330
3E
100
AcDbEntity
  8
LC-001-100-D00-0
 62
     7
370
    50
100
AcDbLine
 10
353.088547
 20
346.782863
 30
0.0
 11
353.088547
 21
346.782863
 31
0.0
  0
LINE
  5
46
330
3E
100
AcDbEntity
  8
LC-001-100-D00-0
 62
     7
370
    50
100
AcDbLine
 10
353.088547
 20
346.782863
 30
0.0
 11
352.735769
 21
346.983275
 31
0.0
  0
LINE
  5
47
330
3E
100
AcDbEntity
  8
LC-001-100-D00-0
 62
     7
370
    50
100
AcDbLine
 10
352.735769
 20
346.983275
 30
0.0
 11
352.735769
 21
346.983275
 31
0.0
  0
LINE
  5
48
330
3E
100
AcDbEntity
  8
LC-001-100-D00-0
 62
     7
370
    50
100
AcDbLine
 10
352.735769
 20
346.983275
 30
0.0
 11
352.590633
 21
347.065726
 31
0.0
  0
ENDBLK
  5
40
330
3E
100
AcDbEntity
  8
0
100
AcDbBlockEnd
  0
BLOCK
  5
4B
330
4A
100
AcDbEntity
  8
0
100
AcDbBlockBegin
  2
POLY3
 70
     0
 71
     0
 10
0.0
 20
0.0
 30
0.0
  3
POLY3
  1

  4
POLY3
  0
LINE
  5
4D
330
4A
100
AcDbEntity
  8
LC-001-100-D00-0
 62
     7
370
    50
100
AcDbLine
 10
353.155364
 20
340.748617
 30
0.0
 11
353.155364
 21
340.748617
 31
0.0
  0
LINE
  5
4E
330
4A
100
AcDbEntity
  8
LC-001-100-D00-0
 62
     7
370
    50
100
AcDbLine
 10
353.155364
 20
340.748617
 30
0.0
 11
353.112755
 21
340.771975
 31
0.0
  0
LINE
  5
4F
330
4A
100
AcDbEntity
  8
LC-001-100-D00-0
 62
     7
370
    50
100
AcDbLine
 10
353.112755
 20
340.771975
 30
0.0
 11
353.112755
 21
340.771975
 31
0.0
  0
LINE
  5
50
330
4A
100
AcDbEntity
  8
LC-001-100-D00-0
 62
     7
370
    50
100
AcDbLine
 10
353.112755
 20
340.771975
 30
0.0
 11
352.921229
 21
340.876965
 31
0.0
  0
LINE
  5
51
330
4A
100
AcDbEntity
  8
LC-001-100-D00-0
 62
     7
370
    50
100
AcDbLine
 10
352.921229
 20
340.876965
 30
0.0
 11
352.921229
 21
340.876965
 31
0.0
  0
LINE
  5
52
330
4A
100
AcDbEntity
  8
LC-001-100-D00-0
 62
     7
370
    50
100
AcDbLine
 10
352.921229
 20
340.876965
 30
0.0
 11
352.735242
 21
340.98316
 31
0.0
  0
LINE
  5
53
330
4A
100
AcDbEntity
  8
LC-001-100-D00-0
 62
     7
370
    50
100
AcDbLine
 10
352.735242
 20
340.98316
 30
0.0
 11
352.735242
 21
340.98316
 31
0.0
  0
LINE
  5
54
330
4A
100
AcDbEntity
  8
LC-001-100-D00-0
 62
     7
370
    50
100
AcDbLine
 10
352.735242
 20
340.98316
 30
0.0
 11
352.590633
 21
341.065729
 31
0.0
  0
ENDBLK
  5
4C
330
4A
100
AcDbEntity
  8
0
100
AcDbBlockEnd
  0
BLOCK
  5
57
330
56
100
AcDbEntity
  8
0
100
AcDbBlockBegin
  2
POLY4
 70
     0
 71
     0
 10
0.0
 20
0.0
 30
0.0
  3
POLY4
  1

  4
POLY4
  0
LINE
  5
59
330
56
100
AcDbEntity
  8
LC-001-100-D00-0
 62
     7
370
    50
100
AcDbLine
 10
353.66558
 20
352.468075
 30
0.0
 11
353.66558
 21
352.468075
 31
0.0
  0
LINE
  5
5A
330
56
100
AcDbEntity
  8
LC-001-100-D00-0
 62
     7
370
    50
100
AcDbLine
 10
353.66558
 20
352.468075
 30
0.0
 11
353.451782
 21
352.584706
 31
0.0
  0
LINE
  5
5B
330
56
100
AcDbEntity
  8
LC-001-100-D00-0
 62
     7
370
    50
100
AcDbLine
 10
353.451782
 20
352.584706
 30
0.0
 11
353.451782
 21
352.584706
 31
0.0
  0
LINE
  5
5C
330
56
100
AcDbEntity
  8
LC-001-100-D00-0
 62
     7
370
    50
100
AcDbLine
 10
353.451782
 20
352.584706
 30
0.0
 11
353.088544
 21
352.782858
 31
0.0
  0
LINE
  5
5D
330
56
100
AcDbEntity
  8
LC-001-100-D00-0
 62
     7
370
    50
100
AcDbLine
 10
353.088544
 20
352.782858
 30
0.0
 11
353.088544
 21
352.782858
 31
0.0
  0
LINE
  5
5E
330
56
100
AcDbEntity
  8
LC-001-100-D00-0
 62
     7
370
    50
100
AcDbLine
 10
353.088544
 20
352.782858
 30
0.0
 11
352.735768
 21
352.983277
 31
0.0
  0
LINE
  5
5F
330
56
100
AcDbEntity
  8
LC-001-100-D00-0
 62
     7
370
    50
100
AcDbLine
 10
352.735768
 20
352.983277
 30
0.0
 11
352.735768
 21
352.983277
 31
0.0
  0
LINE
  5
60
330
56
100
AcDbEntity
  8
LC-001-100-D00-0
 62
     7
370
    50
100
AcDbLine
 10
352.735768
 20
352.983277
 30
0.0
 11
352.590633
 21
353.065731
 31
0.0
  0
ENDBLK
  5
58
330
56
100
AcDbEntity
  8
0
100
AcDbBlockEnd
  0
BLOCK
  5
63
330
62
100
AcDbEntity
  8
0
100
AcDbBlockBegin
  2
POLY5
 70
     0
 71
     0
 10
0.0
 20
0.0
 30
0.0
  3
POLY5
  1

  4
POLY5
  0
LINE
  5
65
330
62
100
AcDbEntity
  8
LC-001-100-D00-0
 62
     7
370
    50
100
AcDbLine
 10
353.66558
 20
343.468072
 30
0.0
 11
353.66558
 21
343.468072
 31
0.0
  0
LINE
  5
66
330
62
100
AcDbEntity
  8
LC-001-100-D00-0
 62
     7
370
    50
100
AcDbLine
 10
353.66558
 20
343.468072
 30
0.0
 11
353.451782
 21
343.584702
 31
0.0
  0
LINE
  5
67
330
62
100
AcDbEntity
  8
LC-001-100-D00-0
 62
     7
370
    50
100
AcDbLine
 10
353.451782
 20
343.584702
 30
0.0
 11
353.451782
 21
343.584702
 31
0.0
  0
LINE
  5
68
330
62
100
AcDbEntity
  8
LC-001-100-D00-0
 62
     7
370
    50
100
AcDbLine
 10
353.451782
 20
343.584702
 30
0.0
 11
353.088544
 21
343.782855
 31
0.0
  0
LINE
  5
69
330
62
100
AcDbEntity
  8
LC-001-100-D00-0
 62
     7
370
    50
100
AcDbLine
 10
353.088544
 20
343.782855
 30
0.0
 11
353.088544
 21
343.782855
 31
0.0
  0
LINE
  5
6A
330
62
100
AcDbEntity
  8
LC-001-100-D00-0
 62
     7
370
    50
100
AcDbLine
 10
353.088544
 20
343.782855
 30
0.0
 11
352.735768
 21
343.983273
 31
0.0
  0
LINE
  5
6B
330
62
100
AcDbEntity
  8
LC-001-100-D00-0
 62
     7
370
    50
100
AcDbLine
 10
352.735768
 20
343.983273
 30
0.0
 11
352.735768
 21
343.983273
 31
0.0
  0
LINE
  5
6C
330
62
100
AcDbEntity
  8
LC-001-100-D00-0
 62
     7
370
    50
100
AcDbLine
 10
352.735768
 20
343.983273
 30
0.0
 11
352.590633
 21
344.065728
 31
0.0
  0
ENDBLK
  5
64
330
62
100
AcDbEntity
  8
0
100
AcDbBlockEnd
  0
BLOCK
  5
6F
330
6E
100
AcDbEntity
  8
0
100
AcDbBlockBegin
  2
POLY6
 70
     0
 71
     0
 10
0.0
 20
0.0
 30
0.0
  3
POLY6
  1

  4
POLY6
  0
LINE
  5
71
330
6E
100
AcDbEntity
  8
LC-001-100-D00-0
 62
     7
370
    50
100
AcDbLine
 10
347.50021
 20
353.660913
 30
0.0
 11
347.50021
 21
353.660913
 31
0.0
  0
LINE
  5
72
330
6E
100
AcDbEntity
  8
LC-001-100-D00-0
 62
     7
370
    50
100
AcDbLine
 10
347.50021
 20
353.660913
 30
0.0
 11
347.740107
 21
353.534783
 31
0.0
  0
LINE
  5
73
330
6E
100
AcDbEntity
  8
LC-001-100-D00-0
 62
     7
370
    50
100
AcDbLine
 10
347.740107
 20
353.534783
 30
0.0
 11
347.740107
 21
353.534783
 31
0.0
  0
LINE
  5
74
330
6E
100
AcDbEntity
  8
LC-001-100-D00-0
 62
     7
370
    50
100
AcDbLine
 10
347.740107
 20
353.534783
 30
0.0
 11
348.103954
 21
353.343484
 31
0.0
  0
LINE
  5
75
330
6E
100
AcDbEntity
  8
LC-001-100-D00-0
 62
     7
370
    50
100
AcDbLine
 10
348.103954
 20
353.343484
 30
0.0
 11
348.103954
 21
353.343484
 31
0.0
  0
LINE
  5
76
330
6E
100
AcDbEntity
  8
LC-001-100-D00-0
 62
     7
370
    50
100
AcDbLine
 10
348.103954
 20
353.343484
 30
0.0
 11
348.466967
 21
353.138214
 31
0.0
  0
LINE
  5
77
330
6E
100
AcDbEntity
  8
LC-001-100-D00-0
 62
     7
370
    50
100
AcDbLine
 10
348.466967
 20
353.138214
 30
0.0
 11
348.466967
 21
353.138214
 31
0.0
  0
LINE
  5
78
330
6E
100
AcDbEntity
  8
LC-001-100-D00-0
 62
     7
370
    50
100
AcDbLine
 10
348.466967
 20
353.138214
 30
0.0
 11
348.590632
 21
353.068286
 31
0.0
  0
ENDBLK
  5
70
330
6E
100
AcDbEntity
  8
0
100
AcDbBlockEnd
  0
BLOCK
  5
7B
330
7A
100
AcDbEntity
  8
0
100
AcDbBlockBegin
  2
POLY7
 70
     0
 71
     0
 10
0.0
 20
0.0
 30
0.0
  3
POLY7
  1

  4
POLY7
  0
LINE
  5
7D
330
7A
100
AcDbEntity
  8
LC-001-100-D00-0
 62
     7
370
    50
100
AcDbLine
 10
347.50021
 20
350.660914
 30
0.0
 11
347.50021
 21
350.660914
 31
0.0
  0
LINE
  5
7E
330
7A
100
AcDbEntity
  8
LC-001-100-D00-0
 62
     7
370
    50
100
AcDbLine
 10
347.50021
 20
350.660914
 30
0.0
 11
347.740107
 21
350.534784
 31
0.0
  0
LINE
  5
7F
330
7A
100
AcDbEntity
  8
LC-001-100-D00-0
 62
     7
370
    50
100
AcDbLine
 10
347.740107
 20
350.534784
 30
0.0
 11
347.740107
 21
350.534784
 31
0.0
  0
LINE
  5
80
330
7A
100
AcDbEntity
  8
LC-001-100-D00-0
 62
     7
370
    50
100
AcDbLine
 10
347.740107
 20
350.534784
 30
0.0
 11
348.103954
 21
350.343486
 31
0.0
  0
LINE
  5
81
330
7A
100
AcDbEntity
  8
LC-001-100-D00-0
 62
     7
370
    50
100
AcDbLine
 10
348.103954
 20
350.343486
 30
0.0
 11
348.103954
 21
350.343486
 31
0.0
  0
LINE
  5
82
330
7A
100
AcDbEntity
  8
LC-001-100-D00-0
 62
     7
370
    50
100
AcDbLine
 10
348.103954
 20
350.343486
 30
0.0
 11
348.466967
 21
350.138216
 31
0.0
  0
LINE
  5
83
330
7A
100
AcDbEntity
  8
LC-001-100-D00-0
 62
     7
370
    50
100
AcDbLine
 10
348.466967
 20
350.138216
 30
0.0
 11
348.466967
 21
350.138216
 31
0.0
  0
LINE
  5
84
330
7A
100
AcDbEntity
  8
LC-001-100-D00-0
 62
     7
370
    50
100
AcDbLine
 10
348.466967
 20
350.138216
 30
0.0
 11
348.590632
 21
350.068288
 31
0.0
  0
ENDBLK
  5
7C
330
7A
100
AcDbEntity
  8
0
100
AcDbBlockEnd
  0
BLOCK
  5
87
330
86
100
AcDbEntity
  8
0
100
AcDbBlockBegin
  2
POLY8
 70
     0
 71
     0
 10
0.0
 20
0.0
 30
0.0
  3
POLY8
  1

  4
POLY8
  0
LINE
  5
89
330
86
100
AcDbEntity
  8
LC-001-100-D00-0
 62
     7
370
    50
100
AcDbLine
 10
347.50021
 20
344.660917
 30
0.0
 11
347.50021
 21
344.660917
 31
0.0
  0
LINE
  5
8A
330
86
100
AcDbEntity
  8
LC-001-100-D00-0
 62
     7
370
    50
100
AcDbLine
 10
347.50021
 20
344.660917
 30
0.0
 11
347.740106
 21
344.534783
 31
0.0
  0
LINE
  5
8B
330
86
100
AcDbEntity
  8
LC-001-100-D00-0
 62
     7
370
    50
100
AcDbLine
 10
347.740106
 20
344.534783
 30
0.0
 11
347.740106
 21
344.534783
 31
0.0
  0
LINE
  5
8C
330
86
100
AcDbEntity
  8
LC-001-100-D00-0
 62
     7
370
    50
100
AcDbLine
 10
347.740106
 20
344.534783
 30
0.0
 11
348.10395
 21
344.343479
 31
0.0
  0
LINE
  5
8D
330
86
100
AcDbEntity
  8
LC-001-100-D00-0
 62
     7
370
    50
100
AcDbLine
 10
348.10395
 20
344.343479
 30
0.0
 11
348.10395
 21
344.343479
 31
0.0
  0
LINE
  5
8E
330
86
100
AcDbEntity
  8
LC-001-100-D00-0
 62
     7
370
    50
100
AcDbLine
 10
348.10395
 20
344.343479
 30
0.0
 11
348.466967
 21
344.138215
 31
0.0
  0
LINE
  5
8F
330
86
100
AcDbEntity
  8
LC-001-100-D00-0
 62
     7
370
    50
100
AcDbLine
 10
348.466967
 20
344.138215
 30
0.0
 11
348.466967
 21
344.138215
 31
0.0
  0
LINE
  5
90
330
86
100
AcDbEntity
  8
LC-001-100-D00-0
 62
     7
370
    50
100
AcDbLine
 10
348.466967
 20
344.138215
 30
0.0
 11
348.590632
 21
344.068291
 31
0.0
  0
ENDBLK
  5
88
330
86
100
AcDbEntity
  8
0
100
AcDbBlockEnd
  0
BLOCK
  5
93
330
92
100
AcDbEntity
  8
0
100
AcDbBlockBegin
  2
POLY9
 70
     0
 71
     0
 10
0.0
 20
0.0
 30
0.0
  3
POLY9
  1

  4
POLY9
  0
LINE
  5
95
330
92
100
AcDbEntity
  8
LC-001-100-D00-0
 62
     7
370
    50
100
AcDbLine
 10
347.50021
 20
347.660916
 30
0.0
 11
347.50021
 21
347.660916
 31
0.0
  0
LINE
  5
96
330
92
100
AcDbEntity
  8
LC-001-100-D00-0
 62
     7
370
    50
100
AcDbLine
 10
347.50021
 20
347.660916
 30
0.0
 11
347.740106
 21
347.534781
 31
0.0
  0
LINE
  5
97
330
92
100
AcDbEntity
  8
LC-001-100-D00-0
 62
     7
370
    50
100
AcDbLine
 10
347.740106
 20
347.534781
 30
0.0
 11
347.740106
 21
347.534781
 31
0.0
  0
LINE
  5
98
330
92
100
AcDbEntity
  8
LC-001-100-D00-0
 62
     7
370
    50
100
AcDbLine
 10
347.740106
 20
347.534781
 30
0.0
 11
348.10395
 21
347.343477
 31
0.0
  0
LINE
  5
99
330
92
100
AcDbEntity
  8
LC-001-100-D00-0
 62
     7
370
    50
100
AcDbLine
 10
348.10395
 20
347.343477
 30
0.0
 11
348.10395
 21
347.343477
 31
0.0
  0
LINE
  5
9A
330
92
100
AcDbEntity
  8
LC-001-100-D00-0
 62
     7
370
    50
100
AcDbLine
 10
348.10395
 20
347.343477
 30
0.0
 11
348.466967
 21
347.138214
 31
0.0
  0
LINE
  5
9B
330
92
100
AcDbEntity
  8
LC-001-100-D00-0
 62
     7
370
    50
100
AcDbLine
 10
348.466967
 20
347.138214
 30
0.0
 11
348.466967
 21
347.138214
 31
0.0
  0
LINE
  5
9C
330
92
100
AcDbEntity
  8
LC-001-100-D00-0
 62
     7
370
    50
100
AcDbLine
 10
348.466967
 20
347.138214
 30
0.0
 11
348.590632
 21
347.068289
 31
0.0
  0
ENDBLK
  5
94
330
92
100
AcDbEntity
  8
0
100
AcDbBlockEnd
  0
BLOCK
  5
9F
330
9E
100
AcDbEntity
  8
0
100
AcDbBlockBegin
  2
POLY10
 70
     0
 71
     0
 10
0.0
 20
0.0
 30
0.0
  3
POLY10
  1

  4
POLY10
  0
LINE
  5
A1
330
9E
100
AcDbEntity
  8
LC-001-100-D00-0
 62
     7
370
    50
100
AcDbLine
 10
348.075678
 20
341.353336
 30
0.0
 11
348.075678
 21
341.353336
 31
0.0
  0
LINE
  5
A2
330
9E
100
AcDbEntity
  8
LC-001-100-D00-0
 62
     7
370
    50
100
AcDbLine
 10
348.075678
 20
341.353336
 30
0.0
 11
348.123642
 21
341.327878
 31
0.0
  0
LINE
  5
A3
330
9E
100
AcDbEntity
  8
LC-001-100-D00-0
 62
     7
370
    50
100
AcDbLine
 10
348.123642
 20
341.327878
 30
0.0
 11
348.123642
 21
341.327878
 31
0.0
  0
LINE
  5
A4
330
9E
100
AcDbEntity
  8
LC-001-100-D00-0
 62
     7
370
    50
100
AcDbLine
 10
348.123642
 20
341.327878
 30
0.0
 11
348.295519
 21
341.236649
 31
0.0
  0
LINE
  5
A5
330
9E
100
AcDbEntity
  8
LC-001-100-D00-0
 62
     7
370
    50
100
AcDbLine
 10
348.295519
 20
341.236649
 30
0.0
 11
348.295519
 21
341.236649
 31
0.0
  0
LINE
  5
A6
330
9E
100
AcDbEntity
  8
LC-001-100-D00-0
 62
     7
370
    50
100
AcDbLine
 10
348.295519
 20
341.236649
 30
0.0
 11
348.467003
 21
341.13882
 31
0.0
  0
LINE
  5
A7
330
9E
100
AcDbEntity
  8
LC-001-100-D00-0
 62
     7
370
    50
100
AcDbLine
 10
348.467003
 20
341.13882
 30
0.0
 11
348.467003
 21
341.13882
 31
0.0
  0
LINE
  5
A8
330
9E
100
AcDbEntity
  8
LC-001-100-D00-0
 62
     7
370
    50
100
AcDbLine
 10
348.467003
 20
341.13882
 30
0.0
 11
348.590632
 21
341.068292
 31
0.0
  0
ENDBLK
  5
A0
330
9E
100
AcDbEntity
  8
0
100
AcDbBlockEnd
  0
BLOCK
  5
B4
330
B3
100
AcDbEntity
  8
0
100
AcDbBlockBegin
  2
POLY11
 70
     0
 71
     0
 10
0.0
 20
0.0
 30
0.0
  3
POLY11
  1

  4
POLY11
  0
LINE
  5
B6
330
B3
100
AcDbEntity
  8
LC-001-100-D00-0
 62
     7
370
    50
100
AcDbLine
 10
443.069558
 20
254.579087
 30
0.0
 11
443.069558
 21
254.579087
 31
0.0
  0
LINE
  5
B7
330
B3
100
AcDbEntity
  8
LC-001-100-D00-0
 62
     7
370
    50
100
AcDbLine
 10
443.069558
 20
254.579087
 30
0.0
 11
443.946568
 21
254.590174
 31
0.0
  0
LINE
  5
B8
330
B3
100
AcDbEntity
  8
LC-001-100-D00-0
 62
     7
370
    50
100
AcDbLine
 10
443.946568
 20
254.590174
 30
0.0
 11
443.946568
 21
254.590174
 31
0.0
  0
LINE
  5
B9
330
B3
100
AcDbEntity
  8
LC-001-100-D00-0
 62
     7
370
    50
100
AcDbLine
 10
443.946568
 20
254.590174
 30
0.0
 11
444.946674
 21
254.602817
 31
0.0
  0
LINE
  5
BA
330
B3
100
AcDbEntity
  8
LC-001-100-D00-0
 62
     7
370
    50
100
AcDbLine
 10
444.946674
 20
254.602817
 30
0.0
 11
444.946674
 21
254.602817
 31
0.0
  0
LINE
  5
BB
330
B3
100
AcDbEntity
  8
LC-001-100-D00-0
 62
     7
370
    50
100
AcDbLine
 10
444.946674
 20
254.602817
 30
0.0
 11
445.946495
 21
254.581688
 31
0.0
  0
LINE
  5
BC
330
B3
100
AcDbEntity
  8
LC-001-100-D00-0
 62
     7
370
    50
100
AcDbLine
 10
445.946495
 20
254.581688
 30
0.0
 11
445.946495
 21
254.581688
 31
0.0
  0
LINE
  5
BD
330
B3
100
AcDbEntity
  8
LC-001-100-D00-0
 62
     7
370
    50
100
AcDbLine
 10
445.946495
 20
254.581688
 30
0.0
 11
446.069556
 21
254.579087
 31
0.0
  0
ENDBLK
  5
B5
330
B3
100
AcDbEntity
  8
0
100
AcDbBlockEnd
  0
BLOCK
  5
C0
330
BF
100
AcDbEntity
  8
0
100
AcDbBlockBegin
  2
KLON1
 70
     0
 71
     0
 10
0.0
 20
0.0
 30
0.0
  3
KLON1
  1

  4
KLON1
  0
LINE
  5
C2
330
BF
100
AcDbEntity
  8
LC-001-100-D00-0
 62
     7
370
    15
100
AcDbLine
 10
443.069558
 20
254.579087
 30
0.0
 11
443.068133
 21
250.079921
 31
0.0
  0
LINE
  5
C3
330
BF
100
AcDbEntity
  8
LC-001-100-D00-0
 62
     7
370
    15
100
AcDbLine
 10
443.068133
 20
250.079921
 30
0.0
 11
443.066874
 21
246.102699
 31
0.0
  0
ENDBLK
  5
C1
330
BF
100
AcDbEntity
  8
0
100
AcDbBlockEnd
  0
BLOCK
  5
C6
330
C5
100
AcDbEntity
  8
0
100
AcDbBlockBegin
  2
POLY12
 70
     0
 71
     0
 10
0.0
 20
0.0
 30
0.0
  3
POLY12
  1

  4
POLY12
  0
LINE
  5
C8
330
C5
100
AcDbEntity
  8
LC-001-100-D00-0
 62
     7
370
    50
100
AcDbLine
 10
511.190155
 20
254.579087
 30
0.0
 11
511.190155
 21
254.579087
 31
0.0
  0
LINE
  5
C9
330
C5
100
AcDbEntity
  8
LC-001-100-D00-0
 62
     7
370
    50
100
AcDbLine
 10
511.190155
 20
254.579087
 30
0.0
 11
511.190193
 21
254.581688
 31
0.0
  0
LINE
  5
CA
330
C5
100
AcDbEntity
  8
LC-001-100-D00-0
 62
     7
370
    50
100
AcDbLine
 10
511.190193
 20
254.581688
 30
0.0
 11
511.190193
 21
254.581688
 31
0.0
  0
LINE
  5
CB
330
C5
100
AcDbEntity
  8
LC-001-100-D00-0
 62
     7
370
    50
100
AcDbLine
 10
511.190193
 20
254.581688
 30
0.0
 11
511.190351
 21
254.592401
 31
0.0
  0
LINE
  5
CC
330
C5
100
AcDbEntity
  8
LC-001-100-D00-0
 62
     7
370
    50
100
AcDbLine
 10
511.190351
 20
254.592401
 30
0.0
 11
511.190351
 21
254.592401
 31
0.0
  0
LINE
  5
CD
330
C5
100
AcDbEntity
  8
LC-001-100-D00-0
 62
     7
370
    50
100
AcDbLine
 10
511.190351
 20
254.592401
 30
0.0
 11
511.190513
 21
254.594436
 31
0.0
  0
LINE
  5
CE
330
C5
100
AcDbEntity
  8
LC-001-100-D00-0
 62
     7
370
    50
100
AcDbLine
 10
511.190513
 20
254.594436
 30
0.0
 11
511.190513
 21
254.594436
 31
0.0
  0
LINE
  5
CF
330
C5
100
AcDbEntity
  8
LC-001-100-D00-0
 62
     7
370
    50
100
AcDbLine
 10
511.190513
 20
254.594436
 30
0.0
 11
511.190635
 21
254.595977
 31
0.0
  0
ENDBLK
  5
C7
330
C5
100
AcDbEntity
  8
0
100
AcDbBlockEnd
  0
BLOCK
  5
F9
330
F8
100
AcDbEntity
  8
0
100
AcDbBlockBegin
  2
KLON2
 70
     0
 71
     0
 10
0.0
 20
0.0
 30
0.0
  3
KLON2
  1

  4
KLON2
  0
LINE
  5
FB
330
F8
100
AcDbEntity
  8
LC-001-100-D00-0
 62
     7
370
    15
100
AcDbLine
 10
352.590633
 20
349.955441
 30
0.0
 11
352.941726
 21
349.772679
 31
0.0
  0
LINE
  5
FC
330
F8
100
AcDbEntity
  8
LC-001-100-D00-0
 62
     7
370
    15
100
AcDbLine
 10
352.941726
 20
349.772679
 30
0.0
 11
353.29282
 21
349.589908
 31
0.0
  0
LINE
  5
FD
330
F8
100
AcDbEntity
  8
LC-001-100-D00-0
 62
     7
370
    15
100
AcDbLine
 10
353.29282
 20
349.589908
 30
0.0
 11
353.840631
 21
349.304737
 31
0.0
  0
ENDBLK
  5
FA
330
F8
100
AcDbEntity
  8
0
100
AcDbBlockEnd
  0
BLOCK
  5
100
330
FF
100
AcDbEntity
  8
0
100
AcDbBlockBegin
  2
KLON3
 70
     0
 71
     0
 10
0.0
 20
0.0
 30
0.0
  3
KLON3
  1

  4
KLON3
  0
LINE
  5
102
330
FF
100
AcDbEntity
  8
LC-001-100-D00-0
 62
     7
370
    15
100
AcDbLine
 10
347.340633
 20
350.804733
 30
0.0
 11
347.691727
 21
350.987503
 31
0.0
  0
LINE
  5
103
330
FF
100
AcDbEntity
  8
LC-001-100-D00-0
 62
     7
370
    15
100
AcDbLine
 10
347.691727
 20
350.987503
 30
0.0
 11
348.042821
 21
351.170273
 31
0.0
  0
LINE
  5
104
330
FF
100
AcDbEntity
  8
LC-001-100-D00-0
 62
     7
370
    15
100
AcDbLine
 10
348.042821
 20
351.170273
 30
0.0
 11
348.590632
 21
351.455444
 31
0.0
  0
ENDBLK
  5
101
330
FF
100
AcDbEntity
  8
0
100
AcDbBlockEnd
  0
BLOCK
  5
107
330
106
100
AcDbEntity
  8
0
100
AcDbBlockBegin
  2
POLY13
 70
     0
 71
     0
 10
0.0
 20
0.0
 30
0.0
  3
POLY13
  1

  4
POLY13
  0
LINE
  5
109
330
106
100
AcDbEntity
  8
LC-001-100-D00-0
 62
     7
370
    50
100
AcDbLine
 10
347.340633
 20
350.804733
 30
0.0
 11
347.340633
 21
350.804733
 31
0.0
  0
LINE
  5
10A
330
106
100
AcDbEntity
  8
LC-001-100-D00-0
 62
     7
370
    50
100
AcDbLine
 10
347.340633
 20
350.804733
 30
0.0
 11
347.340639
 21
350.804
 31
0.0
  0
LINE
  5
10B
330
106
100
AcDbEntity
  8
LC-001-100-D00-0
 62
     7
370
    50
100
AcDbLine
 10
347.340639
 20
350.804
 30
0.0
 11
347.340639
 21
350.804
 31
0.0
  0
LINE
  5
10C
330
106
100
AcDbEntity
  8
LC-001-100-D00-0
 62
     7
370
    50
100
AcDbLine
 10
347.340639
 20
350.804
 30
0.0
 11
347.341024
 21
350.753093
 31
0.0
  0
LINE
  5
10D
330
106
100
AcDbEntity
  8
LC-001-100-D00-0
 62
     7
370
    50
100
AcDbLine
 10
347.341024
 20
350.753093
 30
0.0
 11
347.341024
 21
350.753093
 31
0.0
  0
LINE
  5
10E
330
106
100
AcDbEntity
  8
LC-001-100-D00-0
 62
     7
370
    50
100
AcDbLine
 10
347.341024
 20
350.753093
 30
0.0
 11
347.440867
 21
350.705709
 31
0.0
  0
LINE
  5
10F
330
106
100
AcDbEntity
  8
LC-001-100-D00-0
 62
     7
370
    50
100
AcDbLine
 10
347.440867
 20
350.705709
 30
0.0
 11
347.440867
 21
350.705709
 31
0.0
  0
LINE
  5
110
330
106
100
AcDbEntity
  8
LC-001-100-D00-0
 62
     7
370
    50
100
AcDbLine
 10
347.440867
 20
350.705709
 30
0.0
 11
347.539273
 21
350.659007
 31
0.0
  0
ENDBLK
  5
108
330
106
100
AcDbEntity
  8
0
100
AcDbBlockEnd
  0
BLOCK
  5
114
330
113
100
AcDbEntity
  8
0
100
AcDbBlockBegin
  2
KLON4
 70
     0
 71
     0
 10
0.0
 20
0.0
 30
0.0
  3
KLON4
  1

  4
KLON4
  0
LINE
  5
116
330
113
100
AcDbEntity
  8
LC-001-100-D00-0
 62
     7
370
    15
100
AcDbLine
 10
352.590633
 20
346.955443
 30
0.0
 11
352.941726
 21
346.772673
 31
0.0
  0
LINE
  5
117
330
113
100
AcDbEntity
  8
LC-001-100-D00-0
 62
     7
370
    15
100
AcDbLine
 10
352.941726
 20
346.772673
 30
0.0
 11
353.29282
 21
346.58991
 31
0.0
  0
LINE
  5
118
330
113
100
AcDbEntity
  8
LC-001-100-D00-0
 62
     7
370
    15
100
AcDbLine
 10
353.29282
 20
346.58991
 30
0.0
 11
353.840631
 21
346.304731
 31
0.0
  0
ENDBLK
  5
115
330
113
100
AcDbEntity
  8
0
100
AcDbBlockEnd
  0
BLOCK
  5
11B
330
11A
100
AcDbEntity
  8
0
100
AcDbBlockBegin
  2
KLON5
 70
     0
 71
     0
 10
0.0
 20
0.0
 30
0.0
  3
KLON5
  1

  4
KLON5
  0
LINE
  5
11D
330
11A
100
AcDbEntity
  8
LC-001-100-D00-0
 62
     7
370
    15
100
AcDbLine
 10
347.340633
 20
347.804734
 30
0.0
 11
347.691727
 21
347.987505
 31
0.0
  0
LINE
  5
11E
330
11A
100
AcDbEntity
  8
LC-001-100-D00-0
 62
     7
370
    15
100
AcDbLine
 10
347.691727
 20
347.987505
 30
0.0
 11
348.042821
 21
348.170275
 31
0.0
  0
LINE
  5
11F
330
11A
100
AcDbEntity
  8
LC-001-100-D00-0
 62
     7
370
    15
100
AcDbLine
 10
348.042821
 20
348.170275
 30
0.0
 11
348.590632
 21
348.455446
 31
0.0
  0
ENDBLK
  5
11C
330
11A
100
AcDbEntity
  8
0
100
AcDbBlockEnd
  0
BLOCK
  5
122
330
121
100
AcDbEntity
  8
0
100
AcDbBlockBegin
  2
POLY14
 70
     0
 71
     0
 10
0.0
 20
0.0
 30
0.0
  3
POLY14
  1

  4
POLY14
  0
LINE
  5
124
330
121
100
AcDbEntity
  8
LC-001-100-D00-0
 62
     7
370
    50
100
AcDbLine
 10
347.340633
 20
347.804734
 30
0.0
 11
347.340633
 21
347.804734
 31
0.0
  0
LINE
  5
125
330
121
100
AcDbEntity
  8
LC-001-100-D00-0
 62
     7
370
    50
100
AcDbLine
 10
347.340633
 20
347.804734
 30
0.0
 11
347.340639
 21
347.803999
 31
0.0
  0
LINE
  5
126
330
121
100
AcDbEntity
  8
LC-001-100-D00-0
 62
     7
370
    50
100
AcDbLine
 10
347.340639
 20
347.803999
 30
0.0
 11
347.340639
 21
347.803999
 31
0.0
  0
LINE
  5
127
330
121
100
AcDbEntity
  8
LC-001-100-D00-0
 62
     7
370
    50
100
AcDbLine
 10
347.340639
 20
347.803999
 30
0.0
 11
347.341024
 21
347.752922
 31
0.0
  0
LINE
  5
128
330
121
100
AcDbEntity
  8
LC-001-100-D00-0
 62
     7
370
    50
100
AcDbLine
 10
347.341024
 20
347.752922
 30
0.0
 11
347.341024
 21
347.752922
 31
0.0
  0
LINE
  5
129
330
121
100
AcDbEntity
  8
LC-001-100-D00-0
 62
     7
370
    50
100
AcDbLine
 10
347.341024
 20
347.752922
 30
0.0
 11
347.440867
 21
347.705625
 31
0.0
  0
LINE
  5
12A
330
121
100
AcDbEntity
  8
LC-001-100-D00-0
 62
     7
370
    50
100
AcDbLine
 10
347.440867
 20
347.705625
 30
0.0
 11
347.440867
 21
347.705625
 31
0.0
  0
LINE
  5
12B
330
121
100
AcDbEntity
  8
LC-001-100-D00-0
 62
     7
370
    50
100
AcDbLine
 10
347.440867
 20
347.705625
 30
0.0
 11
347.539273
 21
347.659008
 31
0.0
  0
ENDBLK
  5
123
330
121
100
AcDbEntity
  8
0
100
AcDbBlockEnd
  0
BLOCK
  5
12F
330
12E
100
AcDbEntity
  8
0
100
AcDbBlockBegin
  2
KLON6
 70
     0
 71
     0
 10
0.0
 20
0.0
 30
0.0
  3
KLON6
  1

  4
KLON6
  0
LINE
  5
131
330
12E
100
AcDbEntity
  8
LC-001-100-D00-0
 62
     7
370
    15
100
AcDbLine
 10
352.590633
 20
340.955445
 30
0.0
 11
352.941726
 21
340.772675
 31
0.0
  0
LINE
  5
132
330
12E
100
AcDbEntity
  8
LC-001-100-D00-0
 62
     7
370
    15
100
AcDbLine
 10
352.941726
 20
340.772675
 30
0.0
 11
353.29282
 21
340.589905
 31
0.0
  0
LINE
  5
133
330
12E
100
AcDbEntity
  8
LC-001-100-D00-0
 62
     7
370
    15
100
AcDbLine
 10
353.29282
 20
340.589905
 30
0.0
 11
353.840631
 21
340.304734
 31
0.0
  0
ENDBLK
  5
130
330
12E
100
AcDbEntity
  8
0
100
AcDbBlockEnd
  0
BLOCK
  5
136
330
135
100
AcDbEntity
  8
0
100
AcDbBlockBegin
  2
KLON7
 70
     0
 71
     0
 10
0.0
 20
0.0
 30
0.0
  3
KLON7
  1

  4
KLON7
  0
LINE
  5
138
330
135
100
AcDbEntity
  8
LC-001-100-D00-0
 62
     7
370
    15
100
AcDbLine
 10
347.340633
 20
341.804737
 30
0.0
 11
347.691727
 21
341.9875
 31
0.0
  0
LINE
  5
139
330
135
100
AcDbEntity
  8
LC-001-100-D00-0
 62
     7
370
    15
100
AcDbLine
 10
347.691727
 20
341.9875
 30
0.0
 11
348.042821
 21
342.17027
 31
0.0
  0
LINE
  5
13A
330
135
100
AcDbEntity
  8
LC-001-100-D00-0
 62
     7
370
    15
100
AcDbLine
 10
348.042821
 20
342.17027
 30
0.0
 11
348.590632
 21
342.455441
 31
0.0
  0
ENDBLK
  5
137
330
135
100
AcDbEntity
  8
0
100
AcDbBlockEnd
  0
BLOCK
  5
13D
330
13C
100
AcDbEntity
  8
0
100
AcDbBlockBegin
  2
KLON8
 70
     0
 71
     0
 10
0.0
 20
0.0
 30
0.0
  3
KLON8
  1

  4
KLON8
  0
LINE
  5
13F
330
13C
100
AcDbEntity
  8
LC-001-100-D00-0
 62
     7
370
    15
100
AcDbLine
 10
352.590633
 20
352.95544
 30
0.0
 11
352.941726
 21
352.772677
 31
0.0
  0
LINE
  5
140
330
13C
100
AcDbEntity
  8
LC-001-100-D00-0
 62
     7
370
    15
100
AcDbLine
 10
352.941726
 20
352.772677
 30
0.0
 11
353.29282
 21
352.589907
 31
0.0
  0
LINE
  5
141
330
13C
100
AcDbEntity
  8
LC-001-100-D00-0
 62
     7
370
    15
100
AcDbLine
 10
353.29282
 20
352.589907
 30
0.0
 11
353.840631
 21
352.304736
 31
0.0
  0
ENDBLK
  5
13E
330
13C
100
AcDbEntity
  8
0
100
AcDbBlockEnd
  0
BLOCK
  5
144
330
143
100
AcDbEntity
  8
0
100
AcDbBlockBegin
  2
KLON9
 70
     0
 71
     0
 10
0.0
 20
0.0
 30
0.0
  3
KLON9
  1

  4
KLON9
  0
LINE
  5
146
330
143
100
AcDbEntity
  8
LC-001-100-D00-0
 62
     7
370
    15
100
AcDbLine
 10
347.340633
 20
353.804732
 30
0.0
 11
347.691727
 21
353.987502
 31
0.0
  0
LINE
  5
147
330
143
100
AcDbEntity
  8
LC-001-100-D00-0
 62
     7
370
    15
100
AcDbLine
 10
347.691727
 20
353.987502
 30
0.0
 11
348.042821
 21
354.170272
 31
0.0
  0
LINE
  5
148
330
143
100
AcDbEntity
  8
LC-001-100-D00-0
 62
     7
370
    15
100
AcDbLine
 10
348.042821
 20
354.170272
 30
0.0
 11
348.590632
 21
354.455443
 31
0.0
  0
ENDBLK
  5
145
330
143
100
AcDbEntity
  8
0
100
AcDbBlockEnd
  0
BLOCK
  5
14B
330
14A
100
AcDbEntity
  8
0
100
AcDbBlockBegin
  2
POLY15
 70
     0
 71
     0
 10
0.0
 20
0.0
 30
0.0
  3
POLY15
  1

  4
POLY15
  0
LINE
  5
14D
330
14A
100
AcDbEntity
  8
LC-001-100-D00-0
 62
     7
370
    50
100
AcDbLine
 10
347.340633
 20
353.804732
 30
0.0
 11
347.340633
 21
353.804732
 31
0.0
  0
LINE
  5
14E
330
14A
100
AcDbEntity
  8
LC-001-100-D00-0
 62
     7
370
    50
100
AcDbLine
 10
347.340633
 20
353.804732
 30
0.0
 11
347.340639
 21
353.803999
 31
0.0
  0
LINE
  5
14F
330
14A
100
AcDbEntity
  8
LC-001-100-D00-0
 62
     7
370
    50
100
AcDbLine
 10
347.340639
 20
353.803999
 30
0.0
 11
347.340639
 21
353.803999
 31
0.0
  0
LINE
  5
150
330
14A
100
AcDbEntity
  8
LC-001-100-D00-0
 62
     7
370
    50
100
AcDbLine
 10
347.340639
 20
353.803999
 30
0.0
 11
347.341024
 21
353.753091
 31
0.0
  0
LINE
  5
151
330
14A
100
AcDbEntity
  8
LC-001-100-D00-0
 62
     7
370
    50
100
AcDbLine
 10
347.341024
 20
353.753091
 30
0.0
 11
347.341024
 21
353.753091
 31
0.0
  0
LINE
  5
152
330
14A
100
AcDbEntity
  8
LC-001-100-D00-0
 62
     7
370
    50
100
AcDbLine
 10
347.341024
 20
353.753091
 30
0.0
 11
347.440867
 21
353.705711
 31
0.0
  0
LINE
  5
153
330
14A
100
AcDbEntity
  8
LC-001-100-D00-0
 62
     7
370
    50
100
AcDbLine
 10
347.440867
 20
353.705711
 30
0.0
 11
347.440867
 21
353.705711
 31
0.0
  0
LINE
  5
154
330
14A
100
AcDbEntity
  8
LC-001-100-D00-0
 62
     7
370
    50
100
AcDbLine
 10
347.440867
 20
353.705711
 30
0.0
 11
347.539273
 21
353.659013
 31
0.0
  0
ENDBLK
  5
14C
330
14A
100
AcDbEntity
  8
0
100
AcDbBlockEnd
  0
BLOCK
  5
158
330
157
100
AcDbEntity
  8
0
100
AcDbBlockBegin
  2
KLON10
 70
     0
 71
     0
 10
0.0
 20
0.0
 30
0.0
  3
KLON10
  1

  4
KLON10
  0
LINE
  5
15A
330
157
100
AcDbEntity
  8
LC-001-100-D00-0
 62
     7
370
    15
100
AcDbLine
 10
352.590633
 20
343.955444
 30
0.0
 11
352.941726
 21
343.772674
 31
0.0
  0
LINE
  5
15B
330
157
100
AcDbEntity
  8
LC-001-100-D00-0
 62
     7
370
    15
100
AcDbLine
 10
352.941726
 20
343.772674
 30
0.0
 11
353.29282
 21
343.589904
 31
0.0
  0
LINE
  5
15C
330
157
100
AcDbEntity
  8
LC-001-100-D00-0
 62
     7
370
    15
100
AcDbLine
 10
353.29282
 20
343.589904
 30
0.0
 11
353.840631
 21
343.304733
 31
0.0
  0
ENDBLK
  5
159
330
157
100
AcDbEntity
  8
0
100
AcDbBlockEnd
  0
BLOCK
  5
15F
330
15E
100
AcDbEntity
  8
0
100
AcDbBlockBegin
  2
KLON11
 70
     0
 71
     0
 10
0.0
 20
0.0
 30
0.0
  3
KLON11
  1

  4
KLON11
  0
LINE
  5
161
330
15E
100
AcDbEntity
  8
LC-001-100-D00-0
 62
     7
370
    15
100
AcDbLine
 10
347.340633
 20
344.804736
 30
0.0
 11
347.691727
 21
344.987506
 31
0.0
  0
LINE
  5
162
330
15E
100
AcDbEntity
  8
LC-001-100-D00-0
 62
     7
370
    15
100
AcDbLine
 10
347.691727
 20
344.987506
 30
0.0
 11
348.042821
 21
345.170269
 31
0.0
  0
LINE
  5
163
330
15E
100
AcDbEntity
  8
LC-001-100-D00-0
 62
     7
370
    15
100
AcDbLine
 10
348.042821
 20
345.170269
 30
0.0
 11
348.590632
 21
345.455447
 31
0.0
  0
ENDBLK
  5
160
330
15E
100
AcDbEntity
  8
0
100
AcDbBlockEnd
  0
BLOCK
  5
166
330
165
100
AcDbEntity
  8
0
100
AcDbBlockBegin
  2
POLY16
 70
     0
 71
     0
 10
0.0
 20
0.0
 30
0.0
  3
POLY16
  1

  4
POLY16
  0
LINE
  5
168
330
165
100
AcDbEntity
  8
LC-001-100-D00-0
 62
     7
370
    50
100
AcDbLine
 10
347.340633
 20
344.804736
 30
0.0
 11
347.340633
 21
344.804736
 31
0.0
  0
LINE
  5
169
330
165
100
AcDbEntity
  8
LC-001-100-D00-0
 62
     7
370
    50
100
AcDbLine
 10
347.340633
 20
344.804736
 30
0.0
 11
347.340639
 21
344.804
 31
0.0
  0
LINE
  5
16A
330
165
100
AcDbEntity
  8
LC-001-100-D00-0
 62
     7
370
    50
100
AcDbLine
 10
347.340639
 20
344.804
 30
0.0
 11
347.340639
 21
344.804
 31
0.0
  0
LINE
  5
16B
330
165
100
AcDbEntity
  8
LC-001-100-D00-0
 62
     7
370
    50
100
AcDbLine
 10
347.340639
 20
344.804
 30
0.0
 11
347.341024
 21
344.752923
 31
0.0
  0
LINE
  5
16C
330
165
100
AcDbEntity
  8
LC-001-100-D00-0
 62
     7
370
    50
100
AcDbLine
 10
347.341024
 20
344.752923
 30
0.0
 11
347.341024
 21
344.752923
 31
0.0
  0
LINE
  5
16D
330
165
100
AcDbEntity
  8
LC-001-100-D00-0
 62
     7
370
    50
100
AcDbLine
 10
347.341024
 20
344.752923
 30
0.0
 11
347.440867
 21
344.705626
 31
0.0
  0
LINE
  5
16E
330
165
100
AcDbEntity
  8
LC-001-100-D00-0
 62
     7
370
    50
100
AcDbLine
 10
347.440867
 20
344.705626
 30
0.0
 11
347.440867
 21
344.705626
 31
0.0
  0
LINE
  5
16F
330
165
100
AcDbEntity
  8
LC-001-100-D00-0
 62
     7
370
    50
100
AcDbLine
 10
347.440867
 20
344.705626
 30
0.0
 11
347.539273
 21
344.65901
 31
0.0
  0
ENDBLK
  5
167
330
165
100
AcDbEntity
  8
0
100
AcDbBlockEnd
  0
BLOCK
  5
172
330
171
100
AcDbEntity
  8
0
100
AcDbBlockBegin
  2
KLON12
 70
     0
 71
     0
 10
0.0
 20
0.0
 30
0.0
  3
KLON12
  1

  4
KLON12
  0
LINE
  5
174
330
171
100
AcDbEntity
  8
LC-001-100-D00-0
 62
     7
370
    15
100
AcDbLine
 10
353.840631
 20
352.304736
 30
0.0
 11
353.489538
 21
352.121966
 31
0.0
  0
LINE
  5
175
330
171
100
AcDbEntity
  8
LC-001-100-D00-0
 62
     7
370
    15
100
AcDbLine
 10
353.489538
 20
352.121966
 30
0.0
 11
353.138444
 21
351.939196
 31
0.0
  0
LINE
  5
176
330
171
100
AcDbEntity
  8
LC-001-100-D00-0
 62
     7
370
    15
100
AcDbLine
 10
353.138444
 20
351.939196
 30
0.0
 11
352.590633
 21
351.654025
 31
0.0
  0
ENDBLK
  5
173
330
171
100
AcDbEntity
  8
0
100
AcDbBlockEnd
  0
BLOCK
  5
179
330
178
100
AcDbEntity
  8
0
100
AcDbBlockBegin
  2
KLON13
 70
     0
 71
     0
 10
0.0
 20
0.0
 30
0.0
  3
KLON13
  1

  4
KLON13
  0
LINE
  5
17B
330
178
100
AcDbEntity
  8
LC-001-100-D00-0
 62
     7
370
    15
100
AcDbLine
 10
348.590632
 20
353.154028
 30
0.0
 11
348.239538
 21
353.336798
 31
0.0
  0
LINE
  5
17C
330
178
100
AcDbEntity
  8
LC-001-100-D00-0
 62
     7
370
    15
100
AcDbLine
 10
348.239538
 20
353.336798
 30
0.0
 11
347.888445
 21
353.519561
 31
0.0
  0
LINE
  5
17D
330
178
100
AcDbEntity
  8
LC-001-100-D00-0
 62
     7
370
    15
100
AcDbLine
 10
347.888445
 20
353.519561
 30
0.0
 11
347.340633
 21
353.804732
 31
0.0
  0
ENDBLK
  5
17A
330
178
100
AcDbEntity
  8
0
100
AcDbBlockEnd
  0
BLOCK
  5
180
330
17F
100
AcDbEntity
  8
0
100
AcDbBlockBegin
  2
KLON14
 70
     0
 71
     0
 10
0.0
 20
0.0
 30
0.0
  3
KLON14
  1

  4
KLON14
  0
LINE
  5
182
330
17F
100
AcDbEntity
  8
LC-001-100-D00-0
 62
     7
370
    15
100
AcDbLine
 10
353.840631
 20
349.304737
 30
0.0
 11
353.489538
 21
349.121967
 31
0.0
  0
LINE
  5
183
330
17F
100
AcDbEntity
  8
LC-001-100-D00-0
 62
     7
370
    15
100
AcDbLine
 10
353.489538
 20
349.121967
 30
0.0
 11
353.138444
 21
348.939197
 31
0.0
  0
LINE
  5
184
330
17F
100
AcDbEntity
  8
LC-001-100-D00-0
 62
     7
370
    15
100
AcDbLine
 10
353.138444
 20
348.939197
 30
0.0
 11
352.590633
 21
348.654026
 31
0.0
  0
ENDBLK
  5
181
330
17F
100
AcDbEntity
  8
0
100
AcDbBlockEnd
  0
BLOCK
  5
187
330
186
100
AcDbEntity
  8
0
100
AcDbBlockBegin
  2
KLON15
 70
     0
 71
     0
 10
0.0
 20
0.0
 30
0.0
  3
KLON15
  1

  4
KLON15
  0
LINE
  5
189
330
186
100
AcDbEntity
  8
LC-001-100-D00-0
 62
     7
370
    15
100
AcDbLine
 10
348.590632
 20
350.154029
 30
0.0
 11
348.239538
 21
350.336792
 31
0.0
  0
LINE
  5
18A
330
186
100
AcDbEntity
  8
LC-001-100-D00-0
 62
     7
370
    15
100
AcDbLine
 10
348.239538
 20
350.336792
 30
0.0
 11
347.888445
 21
350.519562
 31
0.0
  0
LINE
  5
18B
330
186
100
AcDbEntity
  8
LC-001-100-D00-0
 62
     7
370
    15
100
AcDbLine
 10
347.888445
 20
350.519562
 30
0.0
 11
347.340633
 21
350.804733
 31
0.0
  0
ENDBLK
  5
188
330
186
100
AcDbEntity
  8
0
100
AcDbBlockEnd
  0
BLOCK
  5
18E
330
18D
100
AcDbEntity
  8
0
100
AcDbBlockBegin
  2
KLON16
 70
     0
 71
     0
 10
0.0
 20
0.0
 30
0.0
  3
KLON16
  1

  4
KLON16
  0
LINE
  5
190
330
18D
100
AcDbEntity
  8
LC-001-100-D00-0
 62
     7
370
    15
100
AcDbLine
 10
353.840631
 20
343.304733
 30
0.0
 11
353.489538
 21
343.121963
 31
0.0
  0
LINE
  5
191
330
18D
100
AcDbEntity
  8
LC-001-100-D00-0
 62
     7
370
    15
100
AcDbLine
 10
353.489538
 20
343.121963
 30
0.0
 11
353.138444
 21
342.9392
 31
0.0
  0
LINE
  5
192
330
18D
100
AcDbEntity
  8
LC-001-100-D00-0
 62
     7
370
    15
100
AcDbLine
 10
353.138444
 20
342.9392
 30
0.0
 11
352.590633
 21
342.654029
 31
0.0
  0
ENDBLK
  5
18F
330
18D
100
AcDbEntity
  8
0
100
AcDbBlockEnd
  0
BLOCK
  5
195
330
194
100
AcDbEntity
  8
0
100
AcDbBlockBegin
  2
KLON17
 70
     0
 71
     0
 10
0.0
 20
0.0
 30
0.0
  3
KLON17
  1

  4
KLON17
  0
LINE
  5
197
330
194
100
AcDbEntity
  8
LC-001-100-D00-0
 62
     7
370
    15
100
AcDbLine
 10
348.590632
 20
344.154024
 30
0.0
 11
348.239538
 21
344.336795
 31
0.0
  0
LINE
  5
198
330
194
100
AcDbEntity
  8
LC-001-100-D00-0
 62
     7
370
    15
100
AcDbLine
 10
348.239538
 20
344.336795
 30
0.0
 11
347.888445
 21
344.519565
 31
0.0
  0
LINE
  5
199
330
194
100
AcDbEntity
  8
LC-001-100-D00-0
 62
     7
370
    15
100
AcDbLine
 10
347.888445
 20
344.519565
 30
0.0
 11
347.340633
 21
344.804736
 31
0.0
  0
ENDBLK
  5
196
330
194
100
AcDbEntity
  8
0
100
AcDbBlockEnd
  0
BLOCK
  5
19C
330
19B
100
AcDbEntity
  8
0
100
AcDbBlockBegin
  2
KLON18
 70
     0
 71
     0
 10
0.0
 20
0.0
 30
0.0
  3
KLON18
  1

  4
KLON18
  0
LINE
  5
19E
330
19B
100
AcDbEntity
  8
LC-001-100-D00-0
 62
     7
370
    15
100
AcDbLine
 10
353.840631
 20
346.304731
 30
0.0
 11
353.489538
 21
346.121969
 31
0.0
  0
LINE
  5
19F
330
19B
100
AcDbEntity
  8
LC-001-100-D00-0
 62
     7
370
    15
100
AcDbLine
 10
353.489538
 20
346.121969
 30
0.0
 11
353.138444
 21
345.939198
 31
0.0
  0
LINE
  5
1A0
330
19B
100
AcDbEntity
  8
LC-001-100-D00-0
 62
     7
370
    15
100
AcDbLine
 10
353.138444
 20
345.939198
 30
0.0
 11
352.590633
 21
345.654027
 31
0.0
  0
ENDBLK
  5
19D
330
19B
100
AcDbEntity
  8
0
100
AcDbBlockEnd
  0
BLOCK
  5
1A3
330
1A2
100
AcDbEntity
  8
0
100
AcDbBlockBegin
  2
KLON19
 70
     0
 71
     0
 10
0.0
 20
0.0
 30
0.0
  3
KLON19
  1

  4
KLON19
  0
LINE
  5
1A5
330
1A2
100
AcDbEntity
  8
LC-001-100-D00-0
 62
     7
370
    15
100
AcDbLine
 10
348.590632
 20
347.154023
 30
0.0
 11
348.239538
 21
347.336793
 31
0.0
  0
LINE
  5
1A6
330
1A2
100
AcDbEntity
  8
LC-001-100-D00-0
 62
     7
370
    15
100
AcDbLine
 10
348.239538
 20
347.336793
 30
0.0
 11
347.888445
 21
347.519563
 31
0.0
  0
LINE
  5
1A7
330
1A2
100
AcDbEntity
  8
LC-001-100-D00-0
 62
     7
370
    15
100
AcDbLine
 10
347.888445
 20
347.519563
 30
0.0
 11
347.340633
 21
347.804734
 31
0.0
  0
ENDBLK
  5
1A4
330
1A2
100
AcDbEntity
  8
0
100
AcDbBlockEnd
  0
BLOCK
  5
1AA
330
1A9
100
AcDbEntity
  8
0
100
AcDbBlockBegin
  2
KLON20
 70
     0
 71
     0
 10
0.0
 20
0.0
 30
0.0
  3
KLON20
  1

  4
KLON20
  0
LINE
  5
1AC
330
1A9
100
AcDbEntity
  8
LC-001-100-D00-0
 62
     7
370
    15
100
AcDbLine
 10
353.840631
 20
340.304734
 30
0.0
 11
353.489538
 21
340.121964
 31
0.0
  0
LINE
  5
1AD
330
1A9
100
AcDbEntity
  8
LC-001-100-D00-0
 62
     7
370
    15
100
AcDbLine
 10
353.489538
 20
340.121964
 30
0.0
 11
353.138444
 21
339.939201
 31
0.0
  0
LINE
  5
1AE
330
1A9
100
AcDbEntity
  8
LC-001-100-D00-0
 62
     7
370
    15
100
AcDbLine
 10
353.138444
 20
339.939201
 30
0.0
 11
352.590633
 21
339.654023
 31
0.0
  0
ENDBLK
  5
1AB
330
1A9
100
AcDbEntity
  8
0
100
AcDbBlockEnd
  0
BLOCK
  5
1B1
330
1B0
100
AcDbEntity
  8
0
100
AcDbBlockBegin
  2
KLON21
 70
     0
 71
     0
 10
0.0
 20
0.0
 30
0.0
  3
KLON21
  1

  4
KLON21
  0
LINE
  5
1B3
330
1B0
100
AcDbEntity
  8
LC-001-100-D00-0
 62
     7
370
    15
100
AcDbLine
 10
348.590632
 20
341.154026
 30
0.0
 11
348.239538
 21
341.336796
 31
0.0
  0
LINE
  5
1B4
330
1B0
100
AcDbEntity
  8
LC-001-100-D00-0
 62
     7
370
    15
100
AcDbLine
 10
348.239538
 20
341.336796
 30
0.0
 11
347.888445
 21
341.519566
 31
0.0
  0
LINE
  5
1B5
330
1B0
100
AcDbEntity
  8
LC-001-100-D00-0
 62
     7
370
    15
100
AcDbLine
 10
347.888445
 20
341.519566
 30
0.0
 11
347.340633
 21
341.804737
 31
0.0
  0
ENDBLK
  5
1B2
330
1B0
100
AcDbEntity
  8
0
100
AcDbBlockEnd
  0
BLOCK
  5
1DA
330
1D9
100
AcDbEntity
  8
0
100
AcDbBlockBegin
  2
POLY17
 70
     0
 71
     0
 10
0.0
 20
0.0
 30
0.0
  3
POLY17
  1

  4
POLY17
  0
LINE
  5
1DC
330
1D9
100
AcDbEntity
  8
LC-001-100-D00-0
 62
     7
370
    50
100
AcDbLine
 10
353.591775
 20
358.438851
 30
0.0
 11
353.591775
 21
358.438851
 31
0.0
  0
LINE
  5
1DD
330
1D9
100
AcDbEntity
  8
LC-001-100-D00-0
 62
     7
370
    50
100
AcDbLine
 10
353.591775
 20
358.438851
 30
0.0
 11
353.570101
 21
358.447263
 31
0.0
  0
LINE
  5
1DE
330
1D9
100
AcDbEntity
  8
LC-001-100-D00-0
 62
     7
370
    50
100
AcDbLine
 10
353.570101
 20
358.447263
 30
0.0
 11
353.570101
 21
358.447263
 31
0.0
  0
LINE
  5
1DF
330
1D9
100
AcDbEntity
  8
LC-001-100-D00-0
 62
     7
370
    50
100
AcDbLine
 10
353.570101
 20
358.447263
 30
0.0
 11
353.540712
 21
358.45867
 31
0.0
  0
LINE
  5
1E0
330
1D9
100
AcDbEntity
  8
LC-001-100-D00-0
 62
     7
370
    50
100
AcDbLine
 10
353.540712
 20
358.45867
 30
0.0
 11
353.540712
 21
358.45867
 31
0.0
  0
LINE
  5
1E1
330
1D9
100
AcDbEntity
  8
LC-001-100-D00-0
 62
     7
370
    50
100
AcDbLine
 10
353.540712
 20
358.45867
 30
0.0
 11
353.509485
 21
358.459608
 31
0.0
  0
LINE
  5
1E2
330
1D9
100
AcDbEntity
  8
LC-001-100-D00-0
 62
     7
370
    50
100
AcDbLine
 10
353.509485
 20
358.459608
 30
0.0
 11
353.509485
 21
358.459608
 31
0.0
  0
LINE
  5
1E3
330
1D9
100
AcDbEntity
  8
LC-001-100-D00-0
 62
     7
370
    50
100
AcDbLine
 10
353.509485
 20
358.459608
 30
0.0
 11
353.501287
 21
358.459854
 31
0.0
  0
ENDBLK
  5
1DB
330
1D9
100
AcDbEntity
  8
0
100
AcDbBlockEnd
  0
BLOCK
  5
1E7
330
1E6
100
AcDbEntity
  8
0
100
AcDbBlockBegin
  2
POLY18
 70
     0
 71
     0
 10
0.0
 20
0.0
 30
0.0
  3
POLY18
  1

  4
POLY18
  0
LINE
  5
1E9
330
1E6
100
AcDbEntity
  8
LC-001-100-D00-0
 62
     7
370
    50
100
AcDbLine
 10
347.679977
 20
358.459854
 30
0.0
 11
347.679977
 21
358.459854
 31
0.0
  0
LINE
  5
1EA
330
1E6
100
AcDbEntity
  8
LC-001-100-D00-0
 62
     7
370
    50
100
AcDbLine
 10
347.679977
 20
358.459854
 30
0.0
 11
347.656812
 21
358.457862
 31
0.0
  0
LINE
  5
1EB
330
1E6
100
AcDbEntity
  8
LC-001-100-D00-0
 62
     7
370
    50
100
AcDbLine
 10
347.656812
 20
358.457862
 30
0.0
 11
347.656812
 21
358.457862
 31
0.0
  0
LINE
  5
1EC
330
1E6
100
AcDbEntity
  8
LC-001-100-D00-0
 62
     7
370
    50
100
AcDbLine
 10
347.656812
 20
358.457862
 30
0.0
 11
347.625402
 21
358.455161
 31
0.0
  0
LINE
  5
1ED
330
1E6
100
AcDbEntity
  8
LC-001-100-D00-0
 62
     7
370
    50
100
AcDbLine
 10
347.625402
 20
358.455161
 30
0.0
 11
347.625402
 21
358.455161
 31
0.0
  0
LINE
  5
1EE
330
1E6
100
AcDbEntity
  8
LC-001-100-D00-0
 62
     7
370
    50
100
AcDbLine
 10
347.625402
 20
358.455161
 30
0.0
 11
347.596957
 21
358.442242
 31
0.0
  0
LINE
  5
1EF
330
1E6
100
AcDbEntity
  8
LC-001-100-D00-0
 62
     7
370
    50
100
AcDbLine
 10
347.596957
 20
358.442242
 30
0.0
 11
347.596957
 21
358.442242
 31
0.0
  0
LINE
  5
1F0
330
1E6
100
AcDbEntity
  8
LC-001-100-D00-0
 62
     7
370
    50
100
AcDbLine
 10
347.596957
 20
358.442242
 30
0.0
 11
347.58949
 21
358.438851
 31
0.0
  0
ENDBLK
  5
1E8
330
1E6
100
AcDbEntity
  8
0
100
AcDbBlockEnd
  0
BLOCK
  5
337
330
336
100
AcDbEntity
  8
0
100
AcDbBlockBegin
  2
POLY19
 70
     0
 71
     0
 10
0.0
 20
0.0
 30
0.0
  3
POLY19
  1

  4
POLY19
  0
LINE
  5
339
330
336
100
AcDbEntity
  8
LC-001-100-D00-0
 62
     7
370
    50
100
AcDbLine
 10
514.427301
 20
345.759856
 30
0.0
 11
514.427301
 21
345.759856
 31
0.0
  0
LINE
  5
33A
330
336
100
AcDbEntity
  8
LC-001-100-D00-0
 62
     7
370
    50
100
AcDbLine
 10
514.427301
 20
345.759856
 30
0.0
 11
514.447965
 21
345.748572
 31
0.0
  0
LINE
  5
33B
330
336
100
AcDbEntity
  8
LC-001-100-D00-0
 62
     7
370
    50
100
AcDbLine
 10
514.447965
 20
345.748572
 30
0.0
 11
514.447965
 21
345.748572
 31
0.0
  0
LINE
  5
33C
330
336
100
AcDbEntity
  8
LC-001-100-D00-0
 62
     7
370
    50
100
AcDbLine
 10
514.447965
 20
345.748572
 30
0.0
 11
514.489299
 21
345.726003
 31
0.0
  0
LINE
  5
33D
330
336
100
AcDbEntity
  8
LC-001-100-D00-0
 62
     7
370
    50
100
AcDbLine
 10
514.489299
 20
345.726003
 30
0.0
 11
514.489299
 21
345.726003
 31
0.0
  0
LINE
  5
33E
330
336
100
AcDbEntity
  8
LC-001-100-D00-0
 62
     7
370
    50
100
AcDbLine
 10
514.489299
 20
345.726003
 30
0.0
 11
514.542394
 21
345.549473
 31
0.0
  0
LINE
  5
33F
330
336
100
AcDbEntity
  8
LC-001-100-D00-0
 62
     7
370
    50
100
AcDbLine
 10
514.542394
 20
345.549473
 30
0.0
 11
514.542394
 21
345.549473
 31
0.0
  0
LINE
  5
340
330
336
100
AcDbEntity
  8
LC-001-100-D00-0
 62
     7
370
    50
100
AcDbLine
 10
514.542394
 20
345.549473
 30
0.0
 11
514.581212
 21
345.290416
 31
0.0
  0
LINE
  5
341
330
336
100
AcDbEntity
  8
LC-001-100-D00-0
 62
     7
370
    50
100
AcDbLine
 10
514.581212
 20
345.290416
 30
0.0
 11
514.581212
 21
345.290416
 31
0.0
  0
LINE
  5
342
330
336
100
AcDbEntity
  8
LC-001-100-D00-0
 62
     7
370
    50
100
AcDbLine
 10
514.581212
 20
345.290416
 30
0.0
 11
514.600601
 21
345.010145
 31
0.0
  0
LINE
  5
343
330
336
100
AcDbEntity
  8
LC-001-100-D00-0
 62
     7
370
    50
100
AcDbLine
 10
514.600601
 20
345.010145
 30
0.0
 11
514.600601
 21
345.010145
 31
0.0
  0
LINE
  5
344
330
336
100
AcDbEntity
  8
LC-001-100-D00-0
 62
     7
370
    50
100
AcDbLine
 10
514.600601
 20
345.010145
 30
0.0
 11
514.602489
 21
344.828746
 31
0.0
  0
LINE
  5
345
330
336
100
AcDbEntity
  8
LC-001-100-D00-0
 62
     7
370
    50
100
AcDbLine
 10
514.602489
 20
344.828746
 30
0.0
 11
514.602489
 21
344.828746
 31
0.0
  0
LINE
  5
346
330
336
100
AcDbEntity
  8
LC-001-100-D00-0
 62
     7
370
    50
100
AcDbLine
 10
514.602489
 20
344.828746
 30
0.0
 11
514.603206
 21
344.759853
 31
0.0
  0
ENDBLK
  5
338
330
336
100
AcDbEntity
  8
0
100
AcDbBlockEnd
  0
BLOCK
  5
34A
330
349
100
AcDbEntity
  8
0
100
AcDbBlockBegin
  2
POLY20
 70
     0
 71
     0
 10
0.0
 20
0.0
 30
0.0
  3
POLY20
  1

  4
POLY20
  0
LINE
  5
34C
330
349
100
AcDbEntity
  8
LC-001-100-D00-0
 62
     7
370
    50
100
AcDbLine
 10
374.578078
 20
344.759853
 30
0.0
 11
374.578078
 21
344.759853
 31
0.0
  0
LINE
  5
34D
330
349
100
AcDbEntity
  8
LC-001-100-D00-0
 62
     7
370
    50
100
AcDbLine
 10
374.578078
 20
344.759853
 30
0.0
 11
374.579899
 21
344.871091
 31
0.0
  0
LINE
  5
34E
330
349
100
AcDbEntity
  8
LC-001-100-D00-0
 62
     7
370
    50
100
AcDbLine
 10
374.579899
 20
344.871091
 30
0.0
 11
374.579899
 21
344.871091
 31
0.0
  0
LINE
  5
34F
330
349
100
AcDbEntity
  8
LC-001-100-D00-0
 62
     7
370
    50
100
AcDbLine
 10
374.579899
 20
344.871091
 30
0.0
 11
374.583539
 21
345.093539
 31
0.0
  0
LINE
  5
350
330
349
100
AcDbEntity
  8
LC-001-100-D00-0
 62
     7
370
    50
100
AcDbLine
 10
374.583539
 20
345.093539
 30
0.0
 11
374.583539
 21
345.093539
 31
0.0
  0
LINE
  5
351
330
349
100
AcDbEntity
  8
LC-001-100-D00-0
 62
     7
370
    50
100
AcDbLine
 10
374.583539
 20
345.093539
 30
0.0
 11
374.61216
 21
345.390421
 31
0.0
  0
LINE
  5
352
330
349
100
AcDbEntity
  8
LC-001-100-D00-0
 62
     7
370
    50
100
AcDbLine
 10
374.61216
 20
345.390421
 30
0.0
 11
374.61216
 21
345.390421
 31
0.0
  0
LINE
  5
353
330
349
100
AcDbEntity
  8
LC-001-100-D00-0
 62
     7
370
    50
100
AcDbLine
 10
374.61216
 20
345.390421
 30
0.0
 11
374.655212
 21
345.616532
 31
0.0
  0
LINE
  5
354
330
349
100
AcDbEntity
  8
LC-001-100-D00-0
 62
     7
370
    50
100
AcDbLine
 10
374.655212
 20
345.616532
 30
0.0
 11
374.655212
 21
345.616532
 31
0.0
  0
LINE
  5
355
330
349
100
AcDbEntity
  8
LC-001-100-D00-0
 62
     7
370
    50
100
AcDbLine
 10
374.655212
 20
345.616532
 30
0.0
 11
374.705087
 21
345.741128
 31
0.0
  0
LINE
  5
356
330
349
100
AcDbEntity
  8
LC-001-100-D00-0
 62
     7
370
    50
100
AcDbLine
 10
374.705087
 20
345.741128
 30
0.0
 11
374.705087
 21
345.741128
 31
0.0
  0
LINE
  5
357
330
349
100
AcDbEntity
  8
LC-001-100-D00-0
 62
     7
370
    50
100
AcDbLine
 10
374.705087
 20
345.741128
 30
0.0
 11
374.73967
 21
345.754372
 31
0.0
  0
LINE
  5
358
330
349
100
AcDbEntity
  8
LC-001-100-D00-0
 62
     7
370
    50
100
AcDbLine
 10
374.73967
 20
345.754372
 30
0.0
 11
374.73967
 21
345.754372
 31
0.0
  0
LINE
  5
359
330
349
100
AcDbEntity
  8
LC-001-100-D00-0
 62
     7
370
    50
100
AcDbLine
 10
374.73967
 20
345.754372
 30
0.0
 11
374.753986
 21
345.759856
 31
0.0
  0
ENDBLK
  5
34B
330
349
100
AcDbEntity
  8
0
100
AcDbBlockEnd
  0
BLOCK
  5
3A9
330
3A8
100
AcDbEntity
  8
0
100
AcDbBlockBegin
  2
POLY21
 70
     0
 71
     0
 10
0.0
 20
0.0
 30
0.0
  3
POLY21
  1

  4
POLY21
  0
LINE
  5
3AB
330
3A8
100
AcDbEntity
  8
LC-001-100-D00-0
 62
     7
370
    50
100
AcDbLine
 10
374.753986
 20
345.759856
 30
0.0
 11
374.753986
 21
345.759856
 31
0.0
  0
LINE
  5
3AC
330
3A8
100
AcDbEntity
  8
LC-001-100-D00-0
 62
     7
370
    50
100
AcDbLine
 10
374.753986
 20
345.759856
 30
0.0
 11
374.775051
 21
345.7485
 31
0.0
  0
LINE
  5
3AD
330
3A8
100
AcDbEntity
  8
LC-001-100-D00-0
 62
     7
370
    50
100
AcDbLine
 10
374.775051
 20
345.7485
 30
0.0
 11
374.775051
 21
345.7485
 31
0.0
  0
LINE
  5
3AE
330
3A8
100
AcDbEntity
  8
LC-001-100-D00-0
 62
     7
370
    50
100
AcDbLine
 10
374.775051
 20
345.7485
 30
0.0
 11
374.817184
 21
345.725785
 31
0.0
  0
LINE
  5
3AF
330
3A8
100
AcDbEntity
  8
LC-001-100-D00-0
 62
     7
370
    50
100
AcDbLine
 10
374.817184
 20
345.725785
 30
0.0
 11
374.817184
 21
345.725785
 31
0.0
  0
LINE
  5
3B0
330
3A8
100
AcDbEntity
  8
LC-001-100-D00-0
 62
     7
370
    50
100
AcDbLine
 10
374.817184
 20
345.725785
 30
0.0
 11
374.875128
 21
345.548558
 31
0.0
  0
LINE
  5
3B1
330
3A8
100
AcDbEntity
  8
LC-001-100-D00-0
 62
     7
370
    50
100
AcDbLine
 10
374.875128
 20
345.548558
 30
0.0
 11
374.875128
 21
345.548558
 31
0.0
  0
LINE
  5
3B2
330
3A8
100
AcDbEntity
  8
LC-001-100-D00-0
 62
     7
370
    50
100
AcDbLine
 10
374.875128
 20
345.548558
 30
0.0
 11
374.919169
 21
345.288609
 31
0.0
  0
LINE
  5
3B3
330
3A8
100
AcDbEntity
  8
LC-001-100-D00-0
 62
     7
370
    50
100
AcDbLine
 10
374.919169
 20
345.288609
 30
0.0
 11
374.919169
 21
345.288609
 31
0.0
  0
LINE
  5
3B4
330
3A8
100
AcDbEntity
  8
LC-001-100-D00-0
 62
     7
370
    50
100
AcDbLine
 10
374.919169
 20
345.288609
 30
0.0
 11
374.941691
 21
345.008313
 31
0.0
  0
LINE
  5
3B5
330
3A8
100
AcDbEntity
  8
LC-001-100-D00-0
 62
     7
370
    50
100
AcDbLine
 10
374.941691
 20
345.008313
 30
0.0
 11
374.941691
 21
345.008313
 31
0.0
  0
LINE
  5
3B6
330
3A8
100
AcDbEntity
  8
LC-001-100-D00-0
 62
     7
370
    50
100
AcDbLine
 10
374.941691
 20
345.008313
 30
0.0
 11
374.943873
 21
344.827671
 31
0.0
  0
LINE
  5
3B7
330
3A8
100
AcDbEntity
  8
LC-001-100-D00-0
 62
     7
370
    50
100
AcDbLine
 10
374.943873
 20
344.827671
 30
0.0
 11
374.943873
 21
344.827671
 31
0.0
  0
LINE
  5
3B8
330
3A8
100
AcDbEntity
  8
LC-001-100-D00-0
 62
     7
370
    50
100
AcDbLine
 10
374.943873
 20
344.827671
 30
0.0
 11
374.944691
 21
344.759853
 31
0.0
  0
ENDBLK
  5
3AA
330
3A8
100
AcDbEntity
  8
0
100
AcDbBlockEnd
  0
BLOCK
  5
3BB
330
3BA
100
AcDbEntity
  8
0
100
AcDbBlockBegin
  2
POLY22
 70
     0
 71
     0
 10
0.0
 20
0.0
 30
0.0
  3
POLY22
  1

  4
POLY22
  0
LINE
  5
3BD
330
3BA
100
AcDbEntity
  8
LC-001-100-D00-0
 62
     7
370
    50
100
AcDbLine
 10
430.790649
 20
344.759853
 30
0.0
 11
430.790649
 21
344.759853
 31
0.0
  0
LINE
  5
3BE
330
3BA
100
AcDbEntity
  8
LC-001-100-D00-0
 62
     7
370
    50
100
AcDbLine
 10
430.790649
 20
344.759853
 30
0.0
 11
430.801416
 21
344.870718
 31
0.0
  0
LINE
  5
3BF
330
3BA
100
AcDbEntity
  8
LC-001-100-D00-0
 62
     7
370
    50
100
AcDbLine
 10
430.801416
 20
344.870718
 30
0.0
 11
430.801416
 21
344.870718
 31
0.0
  0
LINE
  5
3C0
330
3BA
100
AcDbEntity
  8
LC-001-100-D00-0
 62
     7
370
    50
100
AcDbLine
 10
430.801416
 20
344.870718
 30
0.0
 11
430.822946
 21
345.092412
 31
0.0
  0
LINE
  5
3C1
330
3BA
100
AcDbEntity
  8
LC-001-100-D00-0
 62
     7
370
    50
100
AcDbLine
 10
430.822946
 20
345.092412
 30
0.0
 11
430.822946
 21
345.092412
 31
0.0
  0
LINE
  5
3C2
330
3BA
100
AcDbEntity
  8
LC-001-100-D00-0
 62
     7
370
    50
100
AcDbLine
 10
430.822946
 20
345.092412
 30
0.0
 11
430.99045
 21
345.388497
 31
0.0
  0
LINE
  5
3C3
330
3BA
100
AcDbEntity
  8
LC-001-100-D00-0
 62
     7
370
    50
100
AcDbLine
 10
430.99045
 20
345.388497
 30
0.0
 11
430.99045
 21
345.388497
 31
0.0
  0
LINE
  5
3C4
330
3BA
100
AcDbEntity
  8
LC-001-100-D00-0
 62
     7
370
    50
100
AcDbLine
 10
430.99045
 20
345.388497
 30
0.0
 11
431.237956
 21
345.61485
 31
0.0
  0
LINE
  5
3C5
330
3BA
100
AcDbEntity
  8
LC-001-100-D00-0
 62
     7
370
    50
100
AcDbLine
 10
431.237956
 20
345.61485
 30
0.0
 11
431.237956
 21
345.61485
 31
0.0
  0
LINE
  5
3C6
330
3BA
100
AcDbEntity
  8
LC-001-100-D00-0
 62
     7
370
    50
100
AcDbLine
 10
431.237956
 20
345.61485
 30
0.0
 11
431.520091
 21
345.740742
 31
0.0
  0
LINE
  5
3C7
330
3BA
100
AcDbEntity
  8
LC-001-100-D00-0
 62
     7
370
    50
100
AcDbLine
 10
431.520091
 20
345.740742
 30
0.0
 11
431.520091
 21
345.740742
 31
0.0
  0
LINE
  5
3C8
330
3BA
100
AcDbEntity
  8
LC-001-100-D00-0
 62
     7
370
    50
100
AcDbLine
 10
431.520091
 20
345.740742
 30
0.0
 11
431.71117
 21
345.754241
 31
0.0
  0
LINE
  5
3C9
330
3BA
100
AcDbEntity
  8
LC-001-100-D00-0
 62
     7
370
    50
100
AcDbLine
 10
431.71117
 20
345.754241
 30
0.0
 11
431.71117
 21
345.754241
 31
0.0
  0
LINE
  5
3CA
330
3BA
100
AcDbEntity
  8
LC-001-100-D00-0
 62
     7
370
    50
100
AcDbLine
 10
431.71117
 20
345.754241
 30
0.0
 11
431.790651
 21
345.759856
 31
0.0
  0
ENDBLK
  5
3BC
330
3BA
100
AcDbEntity
  8
0
100
AcDbBlockEnd
  0
BLOCK
  5
3D0
330
3CF
100
AcDbEntity
  8
0
100
AcDbBlockBegin
  2
POLY23
 70
     0
 71
     0
 10
0.0
 20
0.0
 30
0.0
  3
POLY23
  1

  4
POLY23
  0
LINE
  5
3D2
330
3CF
100
AcDbEntity
  8
LC-001-100-D00-0
 62
     7
370
    50
100
AcDbLine
 10
514.2366
 20
344.759853
 30
0.0
 11
514.2366
 21
344.759853
 31
0.0
  0
LINE
  5
3D3
330
3CF
100
AcDbEntity
  8
LC-001-100-D00-0
 62
     7
370
    50
100
AcDbLine
 10
514.2366
 20
344.759853
 30
0.0
 11
514.238737
 21
344.870718
 31
0.0
  0
LINE
  5
3D4
330
3CF
100
AcDbEntity
  8
LC-001-100-D00-0
 62
     7
370
    50
100
AcDbLine
 10
514.238737
 20
344.870718
 30
0.0
 11
514.238737
 21
344.870718
 31
0.0
  0
LINE
  5
3D5
330
3CF
100
AcDbEntity
  8
LC-001-100-D00-0
 62
     7
370
    50
100
AcDbLine
 10
514.238737
 20
344.870718
 30
0.0
 11
514.243009
 21
345.092414
 31
0.0
  0
LINE
  5
3D6
330
3CF
100
AcDbEntity
  8
LC-001-100-D00-0
 62
     7
370
    50
100
AcDbLine
 10
514.243009
 20
345.092414
 30
0.0
 11
514.243009
 21
345.092414
 31
0.0
  0
LINE
  5
3D7
330
3CF
100
AcDbEntity
  8
LC-001-100-D00-0
 62
     7
370
    50
100
AcDbLine
 10
514.243009
 20
345.092414
 30
0.0
 11
514.276002
 21
345.388495
 31
0.0
  0
LINE
  5
3D8
330
3CF
100
AcDbEntity
  8
LC-001-100-D00-0
 62
     7
370
    50
100
AcDbLine
 10
514.276002
 20
345.388495
 30
0.0
 11
514.276002
 21
345.388495
 31
0.0
  0
LINE
  5
3D9
330
3CF
100
AcDbEntity
  8
LC-001-100-D00-0
 62
     7
370
    50
100
AcDbLine
 10
514.276002
 20
345.388495
 30
0.0
 11
514.323919
 21
345.614851
 31
0.0
  0
LINE
  5
3DA
330
3CF
100
AcDbEntity
  8
LC-001-100-D00-0
 62
     7
370
    50
100
AcDbLine
 10
514.323919
 20
345.614851
 30
0.0
 11
514.323919
 21
345.614851
 31
0.0
  0
LINE
  5
3DB
330
3CF
100
AcDbEntity
  8
LC-001-100-D00-0
 62
     7
370
    50
100
AcDbLine
 10
514.323919
 20
345.614851
 30
0.0
 11
514.377426
 21
345.740741
 31
0.0
  0
LINE
  5
3DC
330
3CF
100
AcDbEntity
  8
LC-001-100-D00-0
 62
     7
370
    50
100
AcDbLine
 10
514.377426
 20
345.740741
 30
0.0
 11
514.377426
 21
345.740741
 31
0.0
  0
LINE
  5
3DD
330
3CF
100
AcDbEntity
  8
LC-001-100-D00-0
 62
     7
370
    50
100
AcDbLine
 10
514.377426
 20
345.740741
 30
0.0
 11
514.41265
 21
345.75424
 31
0.0
  0
LINE
  5
3DE
330
3CF
100
AcDbEntity
  8
LC-001-100-D00-0
 62
     7
370
    50
100
AcDbLine
 10
514.41265
 20
345.75424
 30
0.0
 11
514.41265
 21
345.75424
 31
0.0
  0
LINE
  5
3DF
330
3CF
100
AcDbEntity
  8
LC-001-100-D00-0
 62
     7
370
    50
100
AcDbLine
 10
514.41265
 20
345.75424
 30
0.0
 11
514.427301
 21
345.759856
 31
0.0
  0
ENDBLK
  5
3D1
330
3CF
100
AcDbEntity
  8
0
100
AcDbBlockEnd
  0
BLOCK
  5
3E2
330
3E1
100
AcDbEntity
  8
0
100
AcDbBlockBegin
  2
POLY24
 70
     0
 71
     0
 10
0.0
 20
0.0
 30
0.0
  3
POLY24
  1

  4
POLY24
  0
LINE
  5
3E4
330
3E1
100
AcDbEntity
  8
LC-001-100-D00-0
 62
     7
370
    50
100
AcDbLine
 10
457.39073
 20
345.759856
 30
0.0
 11
457.39073
 21
345.759856
 31
0.0
  0
LINE
  5
3E5
330
3E1
100
AcDbEntity
  8
LC-001-100-D00-0
 62
     7
370
    50
100
AcDbLine
 10
457.39073
 20
345.759856
 30
0.0
 11
457.504716
 21
345.7485
 31
0.0
  0
LINE
  5
3E6
330
3E1
100
AcDbEntity
  8
LC-001-100-D00-0
 62
     7
370
    50
100
AcDbLine
 10
457.504716
 20
345.7485
 30
0.0
 11
457.504716
 21
345.7485
 31
0.0
  0
LINE
  5
3E7
330
3E1
100
AcDbEntity
  8
LC-001-100-D00-0
 62
     7
370
    50
100
AcDbLine
 10
457.504716
 20
345.7485
 30
0.0
 11
457.732712
 21
345.725785
 31
0.0
  0
LINE
  5
3E8
330
3E1
100
AcDbEntity
  8
LC-001-100-D00-0
 62
     7
370
    50
100
AcDbLine
 10
457.732712
 20
345.725785
 30
0.0
 11
457.732712
 21
345.725785
 31
0.0
  0
LINE
  5
3E9
330
3E1
100
AcDbEntity
  8
LC-001-100-D00-0
 62
     7
370
    50
100
AcDbLine
 10
457.732712
 20
345.725785
 30
0.0
 11
458.035724
 21
345.548558
 31
0.0
  0
LINE
  5
3EA
330
3E1
100
AcDbEntity
  8
LC-001-100-D00-0
 62
     7
370
    50
100
AcDbLine
 10
458.035724
 20
345.548558
 30
0.0
 11
458.035724
 21
345.548558
 31
0.0
  0
LINE
  5
3EB
330
3E1
100
AcDbEntity
  8
LC-001-100-D00-0
 62
     7
370
    50
100
AcDbLine
 10
458.035724
 20
345.548558
 30
0.0
 11
458.26171
 21
345.288609
 31
0.0
  0
LINE
  5
3EC
330
3E1
100
AcDbEntity
  8
LC-001-100-D00-0
 62
     7
370
    50
100
AcDbLine
 10
458.26171
 20
345.288609
 30
0.0
 11
458.26171
 21
345.288609
 31
0.0
  0
LINE
  5
3ED
330
3E1
100
AcDbEntity
  8
LC-001-100-D00-0
 62
     7
370
    50
100
AcDbLine
 10
458.26171
 20
345.288609
 30
0.0
 11
458.375614
 21
345.008313
 31
0.0
  0
LINE
  5
3EE
330
3E1
100
AcDbEntity
  8
LC-001-100-D00-0
 62
     7
370
    50
100
AcDbLine
 10
458.375614
 20
345.008313
 30
0.0
 11
458.375614
 21
345.008313
 31
0.0
  0
LINE
  5
3EF
330
3E1
100
AcDbEntity
  8
LC-001-100-D00-0
 62
     7
370
    50
100
AcDbLine
 10
458.375614
 20
345.008313
 30
0.0
 11
458.386604
 21
344.827671
 31
0.0
  0
LINE
  5
3F0
330
3E1
100
AcDbEntity
  8
LC-001-100-D00-0
 62
     7
370
    50
100
AcDbLine
 10
458.386604
 20
344.827671
 30
0.0
 11
458.386604
 21
344.827671
 31
0.0
  0
LINE
  5
3F1
330
3E1
100
AcDbEntity
  8
LC-001-100-D00-0
 62
     7
370
    50
100
AcDbLine
 10
458.386604
 20
344.827671
 30
0.0
 11
458.39073
 21
344.759853
 31
0.0
  0
ENDBLK
  5
3E3
330
3E1
100
AcDbEntity
  8
0
100
AcDbBlockEnd
  0
BLOCK
  5
432
330
431
100
AcDbEntity
  8
0
100
AcDbBlockBegin
  2
POLY25
 70
     0
 71
     0
 10
0.0
 20
0.0
 30
0.0
  3
POLY25
  1

  4
POLY25
  0
LINE
  5
434
330
431
100
AcDbEntity
  8
LC-001-100-D00-0
 62
     7
370
    50
100
AcDbLine
 10
456.39073
 20
344.759853
 30
0.0
 11
456.39073
 21
344.759853
 31
0.0
  0
LINE
  5
435
330
431
100
AcDbEntity
  8
LC-001-100-D00-0
 62
     7
370
    50
100
AcDbLine
 10
456.39073
 20
344.759853
 30
0.0
 11
456.401563
 21
344.871091
 31
0.0
  0
LINE
  5
436
330
431
100
AcDbEntity
  8
LC-001-100-D00-0
 62
     7
370
    50
100
AcDbLine
 10
456.401563
 20
344.871091
 30
0.0
 11
456.401563
 21
344.871091
 31
0.0
  0
LINE
  5
437
330
431
100
AcDbEntity
  8
LC-001-100-D00-0
 62
     7
370
    50
100
AcDbLine
 10
456.401563
 20
344.871091
 30
0.0
 11
456.423225
 21
345.09354
 31
0.0
  0
LINE
  5
438
330
431
100
AcDbEntity
  8
LC-001-100-D00-0
 62
     7
370
    50
100
AcDbLine
 10
456.423225
 20
345.09354
 30
0.0
 11
456.423225
 21
345.09354
 31
0.0
  0
LINE
  5
439
330
431
100
AcDbEntity
  8
LC-001-100-D00-0
 62
     7
370
    50
100
AcDbLine
 10
456.423225
 20
345.09354
 30
0.0
 11
456.591878
 21
345.390421
 31
0.0
  0
LINE
  5
43A
330
431
100
AcDbEntity
  8
LC-001-100-D00-0
 62
     7
370
    50
100
AcDbLine
 10
456.591878
 20
345.390421
 30
0.0
 11
456.591878
 21
345.390421
 31
0.0
  0
LINE
  5
43B
330
431
100
AcDbEntity
  8
LC-001-100-D00-0
 62
     7
370
    50
100
AcDbLine
 10
456.591878
 20
345.390421
 30
0.0
 11
456.840595
 21
345.616533
 31
0.0
  0
LINE
  5
43C
330
431
100
AcDbEntity
  8
LC-001-100-D00-0
 62
     7
370
    50
100
AcDbLine
 10
456.840595
 20
345.616533
 30
0.0
 11
456.840595
 21
345.616533
 31
0.0
  0
LINE
  5
43D
330
431
100
AcDbEntity
  8
LC-001-100-D00-0
 62
     7
370
    50
100
AcDbLine
 10
456.840595
 20
345.616533
 30
0.0
 11
457.122418
 21
345.741128
 31
0.0
  0
LINE
  5
43E
330
431
100
AcDbEntity
  8
LC-001-100-D00-0
 62
     7
370
    50
100
AcDbLine
 10
457.122418
 20
345.741128
 30
0.0
 11
457.122418
 21
345.741128
 31
0.0
  0
LINE
  5
43F
330
431
100
AcDbEntity
  8
LC-001-100-D00-0
 62
     7
370
    50
100
AcDbLine
 10
457.122418
 20
345.741128
 30
0.0
 11
457.312174
 21
345.754372
 31
0.0
  0
LINE
  5
440
330
431
100
AcDbEntity
  8
LC-001-100-D00-0
 62
     7
370
    50
100
AcDbLine
 10
457.312174
 20
345.754372
 30
0.0
 11
457.312174
 21
345.754372
 31
0.0
  0
LINE
  5
441
330
431
100
AcDbEntity
  8
LC-001-100-D00-0
 62
     7
370
    50
100
AcDbLine
 10
457.312174
 20
345.754372
 30
0.0
 11
457.39073
 21
345.759856
 31
0.0
  0
ENDBLK
  5
433
330
431
100
AcDbEntity
  8
0
100
AcDbBlockEnd
  0
BLOCK
  5
447
330
446
100
AcDbEntity
  8
0
100
AcDbBlockBegin
  2
POLY26
 70
     0
 71
     0
 10
0.0
 20
0.0
 30
0.0
  3
POLY26
  1

  4
POLY26
  0
LINE
  5
449
330
446
100
AcDbEntity
  8
LC-001-100-D00-0
 62
     7
370
    50
100
AcDbLine
 10
431.790651
 20
345.759856
 30
0.0
 11
431.790651
 21
345.759856
 31
0.0
  0
LINE
  5
44A
330
446
100
AcDbEntity
  8
LC-001-100-D00-0
 62
     7
370
    50
100
AcDbLine
 10
431.790651
 20
345.759856
 30
0.0
 11
431.904323
 21
345.748572
 31
0.0
  0
LINE
  5
44B
330
446
100
AcDbEntity
  8
LC-001-100-D00-0
 62
     7
370
    50
100
AcDbLine
 10
431.904323
 20
345.748572
 30
0.0
 11
431.904323
 21
345.748572
 31
0.0
  0
LINE
  5
44C
330
446
100
AcDbEntity
  8
LC-001-100-D00-0
 62
     7
370
    50
100
AcDbLine
 10
431.904323
 20
345.748572
 30
0.0
 11
432.131702
 21
345.726002
 31
0.0
  0
LINE
  5
44D
330
446
100
AcDbEntity
  8
LC-001-100-D00-0
 62
     7
370
    50
100
AcDbLine
 10
432.131702
 20
345.726002
 30
0.0
 11
432.131702
 21
345.726002
 31
0.0
  0
LINE
  5
44E
330
446
100
AcDbEntity
  8
LC-001-100-D00-0
 62
     7
370
    50
100
AcDbLine
 10
432.131702
 20
345.726002
 30
0.0
 11
432.434439
 21
345.549473
 31
0.0
  0
LINE
  5
44F
330
446
100
AcDbEntity
  8
LC-001-100-D00-0
 62
     7
370
    50
100
AcDbLine
 10
432.434439
 20
345.549473
 30
0.0
 11
432.434439
 21
345.549473
 31
0.0
  0
LINE
  5
450
330
446
100
AcDbEntity
  8
LC-001-100-D00-0
 62
     7
370
    50
100
AcDbLine
 10
432.434439
 20
345.549473
 30
0.0
 11
432.660393
 21
345.290416
 31
0.0
  0
LINE
  5
451
330
446
100
AcDbEntity
  8
LC-001-100-D00-0
 62
     7
370
    50
100
AcDbLine
 10
432.660393
 20
345.290416
 30
0.0
 11
432.660393
 21
345.290416
 31
0.0
  0
LINE
  5
452
330
446
100
AcDbEntity
  8
LC-001-100-D00-0
 62
     7
370
    50
100
AcDbLine
 10
432.660393
 20
345.290416
 30
0.0
 11
432.7752
 21
345.010145
 31
0.0
  0
LINE
  5
453
330
446
100
AcDbEntity
  8
LC-001-100-D00-0
 62
     7
370
    50
100
AcDbLine
 10
432.7752
 20
345.010145
 30
0.0
 11
432.7752
 21
345.010145
 31
0.0
  0
LINE
  5
454
330
446
100
AcDbEntity
  8
LC-001-100-D00-0
 62
     7
370
    50
100
AcDbLine
 10
432.7752
 20
345.010145
 30
0.0
 11
432.786397
 21
344.828746
 31
0.0
  0
LINE
  5
455
330
446
100
AcDbEntity
  8
LC-001-100-D00-0
 62
     7
370
    50
100
AcDbLine
 10
432.786397
 20
344.828746
 30
0.0
 11
432.786397
 21
344.828746
 31
0.0
  0
LINE
  5
456
330
446
100
AcDbEntity
  8
LC-001-100-D00-0
 62
     7
370
    50
100
AcDbLine
 10
432.786397
 20
344.828746
 30
0.0
 11
432.790649
 21
344.759853
 31
0.0
  0
ENDBLK
  5
448
330
446
100
AcDbEntity
  8
0
100
AcDbBlockEnd
  0
BLOCK
  5
45E
330
45D
100
AcDbEntity
  8
0
100
AcDbBlockBegin
  2
POLY27
 70
     0
 71
     0
 10
0.0
 20
0.0
 30
0.0
  3
POLY27
  1

  4
POLY27
  0
LINE
  5
460
330
45D
100
AcDbEntity
  8
LC-001-100-D00-0
 62
     7
370
    50
100
AcDbLine
 10
490.523075
 20
358.438851
 30
0.0
 11
490.523075
 21
358.438851
 31
0.0
  0
LINE
  5
461
330
45D
100
AcDbEntity
  8
LC-001-100-D00-0
 62
     7
370
    50
100
AcDbLine
 10
490.523075
 20
358.438851
 30
0.0
 11
490.533911
 21
358.447263
 31
0.0
  0
LINE
  5
462
330
45D
100
AcDbEntity
  8
LC-001-100-D00-0
 62
     7
370
    50
100
AcDbLine
 10
490.533911
 20
358.447263
 30
0.0
 11
490.533911
 21
358.447263
 31
0.0
  0
LINE
  5
463
330
45D
100
AcDbEntity
  8
LC-001-100-D00-0
 62
     7
370
    50
100
AcDbLine
 10
490.533911
 20
358.447263
 30
0.0
 11
490.548604
 21
358.458669
 31
0.0
  0
LINE
  5
464
330
45D
100
AcDbEntity
  8
LC-001-100-D00-0
 62
     7
370
    50
100
AcDbLine
 10
490.548604
 20
358.458669
 30
0.0
 11
490.548604
 21
358.458669
 31
0.0
  0
LINE
  5
465
330
45D
100
AcDbEntity
  8
LC-001-100-D00-0
 62
     7
370
    50
100
AcDbLine
 10
490.548604
 20
358.458669
 30
0.0
 11
490.56422
 21
358.459608
 31
0.0
  0
LINE
  5
466
330
45D
100
AcDbEntity
  8
LC-001-100-D00-0
 62
     7
370
    50
100
AcDbLine
 10
490.56422
 20
358.459608
 30
0.0
 11
490.56422
 21
358.459608
 31
0.0
  0
LINE
  5
467
330
45D
100
AcDbEntity
  8
LC-001-100-D00-0
 62
     7
370
    50
100
AcDbLine
 10
490.56422
 20
358.459608
 30
0.0
 11
490.568318
 21
358.459854
 31
0.0
  0
ENDBLK
  5
45F
330
45D
100
AcDbEntity
  8
0
100
AcDbBlockEnd
  0
BLOCK
  5
46B
330
46A
100
AcDbEntity
  8
0
100
AcDbBlockBegin
  2
POLY28
 70
     0
 71
     0
 10
0.0
 20
0.0
 30
0.0
  3
POLY28
  1

  4
POLY28
  0
LINE
  5
46D
330
46A
100
AcDbEntity
  8
LC-001-100-D00-0
 62
     7
370
    50
100
AcDbLine
 10
489.702293
 20
358.459854
 30
0.0
 11
489.702293
 21
358.459854
 31
0.0
  0
LINE
  5
46E
330
46A
100
AcDbEntity
  8
LC-001-100-D00-0
 62
     7
370
    50
100
AcDbLine
 10
489.702293
 20
358.459854
 30
0.0
 11
489.69071
 21
358.457862
 31
0.0
  0
LINE
  5
46F
330
46A
100
AcDbEntity
  8
LC-001-100-D00-0
 62
     7
370
    50
100
AcDbLine
 10
489.69071
 20
358.457862
 30
0.0
 11
489.69071
 21
358.457862
 31
0.0
  0
LINE
  5
470
330
46A
100
AcDbEntity
  8
LC-001-100-D00-0
 62
     7
370
    50
100
AcDbLine
 10
489.69071
 20
358.457862
 30
0.0
 11
489.675003
 21
358.45516
 31
0.0
  0
LINE
  5
471
330
46A
100
AcDbEntity
  8
LC-001-100-D00-0
 62
     7
370
    50
100
AcDbLine
 10
489.675003
 20
358.45516
 30
0.0
 11
489.675003
 21
358.45516
 31
0.0
  0
LINE
  5
472
330
46A
100
AcDbEntity
  8
LC-001-100-D00-0
 62
     7
370
    50
100
AcDbLine
 10
489.675003
 20
358.45516
 30
0.0
 11
489.660782
 21
358.442242
 31
0.0
  0
LINE
  5
473
330
46A
100
AcDbEntity
  8
LC-001-100-D00-0
 62
     7
370
    50
100
AcDbLine
 10
489.660782
 20
358.442242
 30
0.0
 11
489.660782
 21
358.442242
 31
0.0
  0
LINE
  5
474
330
46A
100
AcDbEntity
  8
LC-001-100-D00-0
 62
     7
370
    50
100
AcDbLine
 10
489.660782
 20
358.442242
 30
0.0
 11
489.657049
 21
358.438851
 31
0.0
  0
ENDBLK
  5
46C
330
46A
100
AcDbEntity
  8
0
100
AcDbBlockEnd
  0
BLOCK
  5
47A
330
479
100
AcDbEntity
  8
0
100
AcDbBlockBegin
  2
KLON22
 70
     0
 71
     0
 10
0.0
 20
0.0
 30
0.0
  3
KLON22
  1

  4
KLON22
  0
LINE
  5
47C
330
479
100
AcDbEntity
  8
LC-001-100-D00-0
 62
     7
370
    25
100
AcDbLine
 10
521.090633
 20
197.669399
 30
0.0
 11
524.590633
 21
201.169399
 31
0.0
  0
LINE
  5
47D
330
479
100
AcDbEntity
  8
LC-001-100-D00-0
 62
     7
370
    25
100
AcDbLine
 10
521.090633
 20
206.649655
 30
0.0
 11
524.590633
 21
210.149655
 31
0.0
  0
LINE
  5
47E
330
479
100
AcDbEntity
  8
LC-001-100-D00-0
 62
     7
370
    25
100
AcDbLine
 10
521.090633
 20
215.629911
 30
0.0
 11
524.590633
 21
219.129911
 31
0.0
  0
LINE
  5
47F
330
479
100
AcDbEntity
  8
LC-001-100-D00-0
 62
     7
370
    25
100
AcDbLine
 10
521.090633
 20
224.610167
 30
0.0
 11
524.590633
 21
228.110167
 31
0.0
  0
LINE
  5
480
330
479
100
AcDbEntity
  8
LC-001-100-D00-0
 62
     7
370
    25
100
AcDbLine
 10
521.090633
 20
233.590423
 30
0.0
 11
524.590633
 21
237.090423
 31
0.0
  0
LINE
  5
481
330
479
100
AcDbEntity
  8
LC-001-100-D00-0
 62
     7
370
    25
100
AcDbLine
 10
521.090633
 20
242.57068
 30
0.0
 11
524.590633
 21
246.07068
 31
0.0
  0
LINE
  5
482
330
479
100
AcDbEntity
  8
LC-001-100-D00-0
 62
     7
370
    25
100
AcDbLine
 10
521.090633
 20
251.550936
 30
0.0
 11
524.590633
 21
255.050936
 31
0.0
  0
LINE
  5
483
330
479
100
AcDbEntity
  8
LC-001-100-D00-0
 62
     7
370
    25
100
AcDbLine
 10
618.655675
 20
349.115977
 30
0.0
 11
621.036993
 21
351.497296
 31
0.0
  0
LINE
  5
484
330
479
100
AcDbEntity
  8
LC-001-100-D00-0
 62
     7
370
    25
100
AcDbLine
 10
521.090633
 20
260.531192
 30
0.0
 11
524.590633
 21
264.031192
 31
0.0
  0
LINE
  5
485
330
479
100
AcDbEntity
  8
LC-001-100-D00-0
 62
     7
370
    25
100
AcDbLine
 10
609.675418
 20
349.115977
 30
0.0
 11
612.675418
 21
352.115977
 31
0.0
  0
LINE
  5
486
330
479
100
AcDbEntity
  8
LC-001-100-D00-0
 62
     7
370
    25
100
AcDbLine
 10
509.775162
 20
258.195977
 30
0.0
 11
512.340633
 21
260.761448
 31
0.0
  0
LINE
  5
487
330
479
100
AcDbEntity
  8
LC-001-100-D00-0
 62
     7
370
    25
100
AcDbLine
 10
521.090633
 20
269.511448
 30
0.0
 11
524.590633
 21
273.011448
 31
0.0
  0
LINE
  5
488
330
479
100
AcDbEntity
  8
LC-001-100-D00-0
 62
     7
370
    25
100
AcDbLine
 10
600.695162
 20
349.115977
 30
0.0
 11
603.695162
 21
352.115977
 31
0.0
  0
LINE
  5
489
330
479
100
AcDbEntity
  8
LC-001-100-D00-0
 62
     7
370
    25
100
AcDbLine
 10
509.090633
 20
266.491704
 30
0.0
 11
512.340633
 21
269.741704
 31
0.0
  0
LINE
  5
48A
330
479
100
AcDbEntity
  8
LC-001-100-D00-0
 62
     7
370
    25
100
AcDbLine
 10
521.090633
 20
278.491704
 30
0.0
 11
524.590633
 21
281.991704
 31
0.0
  0
LINE
  5
48B
330
479
100
AcDbEntity
  8
LC-001-100-D00-0
 62
     7
370
    25
100
AcDbLine
 10
591.714906
 20
349.115977
 30
0.0
 11
594.714906
 21
352.115977
 31
0.0
  0
LINE
  5
48C
330
479
100
AcDbEntity
  8
LC-001-100-D00-0
 62
     7
370
    25
100
AcDbLine
 10
509.090633
 20
275.47196
 30
0.0
 11
512.340633
 21
278.72196
 31
0.0
  0
LINE
  5
48D
330
479
100
AcDbEntity
  8
LC-001-100-D00-0
 62
     7
370
    25
100
AcDbLine
 10
521.090633
 20
287.47196
 30
0.0
 11
524.590633
 21
290.97196
 31
0.0
  0
LINE
  5
48E
330
479
100
AcDbEntity
  8
LC-001-100-D00-0
 62
     7
370
    25
100
AcDbLine
 10
582.73465
 20
349.115977
 30
0.0
 11
585.73465
 21
352.115977
 31
0.0
  0
LINE
  5
48F
330
479
100
AcDbEntity
  8
LC-001-100-D00-0
 62
     7
370
    25
100
AcDbLine
 10
509.090633
 20
284.452216
 30
0.0
 11
512.340633
 21
287.702216
 31
0.0
  0
LINE
  5
490
330
479
100
AcDbEntity
  8
LC-001-100-D00-0
 62
     7
370
    25
100
AcDbLine
 10
521.090633
 20
296.452216
 30
0.0
 11
524.590633
 21
299.952216
 31
0.0
  0
LINE
  5
491
330
479
100
AcDbEntity
  8
LC-001-100-D00-0
 62
     7
370
    25
100
AcDbLine
 10
573.754394
 20
349.115977
 30
0.0
 11
576.754394
 21
352.115977
 31
0.0
  0
LINE
  5
492
330
479
100
AcDbEntity
  8
LC-001-100-D00-0
 62
     7
370
    25
100
AcDbLine
 10
509.090633
 20
293.432472
 30
0.0
 11
511.904138
 21
296.245977
 31
0.0
  0
LINE
  5
493
330
479
100
AcDbEntity
  8
LC-001-100-D00-0
 62
     7
370
    25
100
AcDbLine
 10
515.090633
 20
299.432472
 30
0.0
 11
517.640633
 21
301.982472
 31
0.0
  0
LINE
  5
494
330
479
100
AcDbEntity
  8
LC-001-100-D00-0
 62
     7
370
    25
100
AcDbLine
 10
521.090633
 20
305.432472
 30
0.0
 11
524.590633
 21
308.932472
 31
0.0
  0
LINE
  5
495
330
479
100
AcDbEntity
  8
LC-001-100-D00-0
 62
     7
370
    25
100
AcDbLine
 10
536.594138
 20
320.935977
 30
0.0
 11
544.565633
 21
328.907472
 31
0.0
  0
LINE
  5
496
330
479
100
AcDbEntity
  8
LC-001-100-D00-0
 62
     7
370
    25
100
AcDbLine
 10
560.4219
 20
344.763739
 30
0.0
 11
565.290787
 21
349.632626
 31
0.0
  0
LINE
  5
497
330
479
100
AcDbEntity
  8
LC-001-100-D00-0
 62
     7
370
    25
100
AcDbLine
 10
515.090633
 20
308.412728
 30
0.0
 11
517.923882
 21
311.245977
 31
0.0
  0
LINE
  5
498
330
479
100
AcDbEntity
  8
LC-001-100-D00-0
 62
     7
370
    25
100
AcDbLine
 10
522.090633
 20
315.412728
 30
0.0
 11
524.590633
 21
317.912728
 31
0.0
  0
LINE
  5
499
330
479
100
AcDbEntity
  8
LC-001-100-D00-0
 62
     7
370
    25
100
AcDbLine
 10
529.233882
 20
322.555977
 30
0.0
 11
529.590633
 21
322.912728
 31
0.0
  0
LINE
  5
49A
330
479
100
AcDbEntity
  8
LC-001-100-D00-0
 62
     7
370
    25
100
AcDbLine
 10
531.613882
 20
324.935977
 30
0.0
 11
535.840633
 21
329.162728
 31
0.0
  0
LINE
  5
49B
330
479
100
AcDbEntity
  8
LC-001-100-D00-0
 62
     7
370
    25
100
AcDbLine
 10
541.340633
 20
334.662728
 30
0.0
 11
544.565633
 21
337.887728
 31
0.0
  0
LINE
  5
49C
330
479
100
AcDbEntity
  8
LC-001-100-D00-0
 62
     7
370
    25
100
AcDbLine
 10
547.613882
 20
340.935977
 30
0.0
 11
551.171548
 21
344.493644
 31
0.0
  0
LINE
  5
49D
330
479
100
AcDbEntity
  8
LC-001-100-D00-0
 62
     7
370
    25
100
AcDbLine
 10
527.090633
 20
329.392985
 30
0.0
 11
535.840633
 21
338.142985
 31
0.0
  0
LINE
  5
49E
330
479
100
AcDbEntity
  8
LC-001-100-D00-0
 62
     7
370
    25
100
AcDbLine
 10
527.090633
 20
338.373241
 30
0.0
 11
532.153369
 21
343.435977
 31
0.0
  0
ENDBLK
  5
47B
330
479
100
AcDbEntity
  8
0
100
AcDbBlockEnd
  0
BLOCK
  5
4A1
330
4A0
100
AcDbEntity
  8
0
100
AcDbBlockBegin
  2
KLON23
 70
     0
 71
     0
 10
0.0
 20
0.0
 30
0.0
  3
KLON23
  1

  4
KLON23
  0
LINE
  5
4A3
330
4A0
100
AcDbEntity
  8
LC-001-100-D00-0
 62
     7
370
    25
100
AcDbLine
 10
365.512479
 20
194.755599
 30
0.0
 11
368.090633
 21
197.333753
 31
0.0
  0
LINE
  5
4A4
330
4A0
100
AcDbEntity
  8
LC-001-100-D00-0
 62
     7
370
    25
100
AcDbLine
 10
364.590633
 20
202.814009
 30
0.0
 11
368.090633
 21
206.314009
 31
0.0
  0
LINE
  5
4A5
330
4A0
100
AcDbEntity
  8
LC-001-100-D00-0
 62
     7
370
    25
100
AcDbLine
 10
364.590633
 20
211.794265
 30
0.0
 11
368.090633
 21
215.294265
 31
0.0
  0
LINE
  5
4A6
330
4A0
100
AcDbEntity
  8
LC-001-100-D00-0
 62
     7
370
    25
100
AcDbLine
 10
364.590633
 20
220.774521
 30
0.0
 11
368.090633
 21
224.274521
 31
0.0
  0
LINE
  5
4A7
330
4A0
100
AcDbEntity
  8
LC-001-100-D00-0
 62
     7
370
    25
100
AcDbLine
 10
364.590633
 20
229.754777
 30
0.0
 11
368.090633
 21
233.254777
 31
0.0
  0
LINE
  5
4A8
330
4A0
100
AcDbEntity
  8
LC-001-100-D00-0
 62
     7
370
    25
100
AcDbLine
 10
364.590633
 20
238.735034
 30
0.0
 11
368.090633
 21
242.235034
 31
0.0
  0
LINE
  5
4A9
330
4A0
100
AcDbEntity
  8
LC-001-100-D00-0
 62
     7
370
    25
100
AcDbLine
 10
364.590633
 20
247.71529
 30
0.0
 11
368.090633
 21
251.21529
 31
0.0
  0
LINE
  5
4AA
330
4A0
100
AcDbEntity
  8
LC-001-100-D00-0
 62
     7
370
    25
100
AcDbLine
 10
376.840633
 20
259.96529
 30
0.0
 11
380.090633
 21
263.21529
 31
0.0
  0
LINE
  5
4AB
330
4A0
100
AcDbEntity
  8
LC-001-100-D00-0
 62
     7
370
    25
100
AcDbLine
 10
364.590633
 20
256.695546
 30
0.0
 11
368.090633
 21
260.195546
 31
0.0
  0
LINE
  5
4AC
330
4A0
100
AcDbEntity
  8
LC-001-100-D00-0
 62
     7
370
    25
100
AcDbLine
 10
376.840633
 20
268.945546
 30
0.0
 11
380.090633
 21
272.195546
 31
0.0
  0
LINE
  5
4AD
330
4A0
100
AcDbEntity
  8
LC-001-100-D00-0
 62
     7
370
    25
100
AcDbLine
 10
364.590633
 20
265.675802
 30
0.0
 11
368.090633
 21
269.175802
 31
0.0
  0
LINE
  5
4AE
330
4A0
100
AcDbEntity
  8
LC-001-100-D00-0
 62
     7
370
    25
100
AcDbLine
 10
376.840633
 20
277.925802
 30
0.0
 11
380.090633
 21
281.175802
 31
0.0
  0
LINE
  5
4AF
330
4A0
100
AcDbEntity
  8
LC-001-100-D00-0
 62
     7
370
    25
100
AcDbLine
 10
364.590633
 20
274.656058
 30
0.0
 11
368.090633
 21
278.156058
 31
0.0
  0
LINE
  5
4B0
330
4A0
100
AcDbEntity
  8
LC-001-100-D00-0
 62
     7
370
    25
100
AcDbLine
 10
376.840633
 20
286.906058
 30
0.0
 11
380.090633
 21
290.156058
 31
0.0
  0
LINE
  5
4B1
330
4A0
100
AcDbEntity
  8
LC-001-100-D00-0
 62
     7
370
    25
100
AcDbLine
 10
364.590633
 20
283.636314
 30
0.0
 11
368.090633
 21
287.136314
 31
0.0
  0
LINE
  5
4B2
330
4A0
100
AcDbEntity
  8
LC-001-100-D00-0
 62
     7
370
    25
100
AcDbLine
 10
373.720835
 20
292.766516
 30
0.0
 11
377.200296
 21
296.245977
 31
0.0
  0
LINE
  5
4B3
330
4A0
100
AcDbEntity
  8
LC-001-100-D00-0
 62
     7
370
    25
100
AcDbLine
 10
364.590633
 20
292.61657
 30
0.0
 11
368.090633
 21
296.11657
 31
0.0
  0
LINE
  5
4B4
330
4A0
100
AcDbEntity
  8
LC-001-100-D00-0
 62
     7
370
    25
100
AcDbLine
 10
371.540633
 20
299.56657
 30
0.0
 11
374.090633
 21
302.11657
 31
0.0
  0
LINE
  5
4B5
330
4A0
100
AcDbEntity
  8
LC-001-100-D00-0
 62
     7
370
    25
100
AcDbLine
 10
364.590633
 20
301.596826
 30
0.0
 11
368.090633
 21
305.096826
 31
0.0
  0
LINE
  5
4B6
330
4A0
100
AcDbEntity
  8
LC-001-100-D00-0
 62
     7
370
    25
100
AcDbLine
 10
369.639784
 20
306.645977
 30
0.0
 11
373.868372
 21
310.874565
 31
0.0
  0
LINE
  5
4B7
330
4A0
100
AcDbEntity
  8
LC-001-100-D00-0
 62
     7
370
    25
100
AcDbLine
 10
364.590633
 20
310.577083
 30
0.0
 11
367.090633
 21
313.077083
 31
0.0
  0
LINE
  5
4B8
330
4A0
100
AcDbEntity
  8
LC-001-100-D00-0
 62
     7
370
    25
100
AcDbLine
 10
364.590633
 20
319.557339
 30
0.0
 11
366.909952
 21
321.876658
 31
0.0
  0
LINE
  5
4B9
330
4A0
100
AcDbEntity
  8
LC-001-100-D00-0
 62
     7
370
    25
100
AcDbLine
 10
359.590633
 20
323.537595
 30
0.0
 11
362.419824
 21
326.366786
 31
0.0
  0
LINE
  5
4BA
330
4A0
100
AcDbEntity
  8
LC-001-100-D00-0
 62
     7
370
    25
100
AcDbLine
 10
348.299696
 20
321.226914
 30
0.0
 11
362.090633
 21
335.017851
 31
0.0
  0
LINE
  5
4BB
330
4A0
100
AcDbEntity
  8
LC-001-100-D00-0
 62
     7
370
    25
100
AcDbLine
 10
344.615633
 20
326.523107
 30
0.0
 11
347.840633
 21
329.748107
 31
0.0
  0
LINE
  5
4BC
330
4A0
100
AcDbEntity
  8
LC-001-100-D00-0
 62
     7
370
    25
100
AcDbLine
 10
353.340633
 20
335.248107
 30
0.0
 11
361.528503
 21
343.435977
 31
0.0
  0
LINE
  5
4BD
330
4A0
100
AcDbEntity
  8
LC-001-100-D00-0
 62
     7
370
    25
100
AcDbLine
 10
344.615633
 20
335.503363
 30
0.0
 11
347.840633
 21
338.728363
 31
0.0
  0
LINE
  5
4BE
330
4A0
100
AcDbEntity
  8
LC-001-100-D00-0
 62
     7
370
    25
100
AcDbLine
 10
341.067991
 20
340.935977
 30
0.0
 11
343.567991
 21
343.435977
 31
0.0
  0
LINE
  5
4BF
330
4A0
100
AcDbEntity
  8
LC-001-100-D00-0
 62
     7
370
    25
100
AcDbLine
 10
334.005911
 20
342.854153
 30
0.0
 11
336.27631
 21
345.124553
 31
0.0
  0
LINE
  5
4C0
330
4A0
100
AcDbEntity
  8
LC-001-100-D00-0
 62
     7
370
    25
100
AcDbLine
 10
327.422002
 20
345.2505
 30
0.0
 11
329.692401
 21
347.520899
 31
0.0
  0
LINE
  5
4C1
330
4A0
100
AcDbEntity
  8
LC-001-100-D00-0
 62
     7
370
    25
100
AcDbLine
 10
320.838092
 20
347.646847
 30
0.0
 11
323.108492
 21
349.917246
 31
0.0
  0
LINE
  5
4C2
330
4A0
100
AcDbEntity
  8
LC-001-100-D00-0
 62
     7
370
    25
100
AcDbLine
 10
313.326966
 20
349.115977
 30
0.0
 11
316.326966
 21
352.115977
 31
0.0
  0
LINE
  5
4C3
330
4A0
100
AcDbEntity
  8
LC-001-100-D00-0
 62
     7
370
    25
100
AcDbLine
 10
304.34671
 20
349.115977
 30
0.0
 11
307.34671
 21
352.115977
 31
0.0
  0
LINE
  5
4C4
330
4A0
100
AcDbEntity
  8
LC-001-100-D00-0
 62
     7
370
    25
100
AcDbLine
 10
295.366454
 20
349.115977
 30
0.0
 11
298.366454
 21
352.115977
 31
0.0
  0
LINE
  5
4C5
330
4A0
100
AcDbEntity
  8
LC-001-100-D00-0
 62
     7
370
    25
100
AcDbLine
 10
286.386198
 20
349.115977
 30
0.0
 11
289.386198
 21
352.115977
 31
0.0
  0
LINE
  5
4C6
330
4A0
100
AcDbEntity
  8
LC-001-100-D00-0
 62
     7
370
    25
100
AcDbLine
 10
277.405942
 20
349.115977
 30
0.0
 11
280.405942
 21
352.115977
 31
0.0
  0
LINE
  5
4C7
330
4A0
100
AcDbEntity
  8
LC-001-100-D00-0
 62
     7
370
    25
100
AcDbLine
 10
268.425686
 20
349.115977
 30
0.0
 11
271.425686
 21
352.115977
 31
0.0
  0
ENDBLK
  5
4A2
330
4A0
100
AcDbEntity
  8
0
100
AcDbBlockEnd
  0
BLOCK
  5
4CA
330
4C9
100
AcDbEntity
  8
0
100
AcDbBlockBegin
  2
KLON24
 70
     0
 71
     0
 10
0.0
 20
0.0
 30
0.0
  3
KLON24
  1

  4
KLON24
  0
LINE
  5
4CC
330
4C9
100
AcDbEntity
  8
LC-001-100-D00-0
 62
     7
370
    25
100
AcDbLine
 10
521.840633
 20
313.311273
 30
0.0
 11
518.405929
 21
316.745977
 31
0.0
  0
LINE
  5
4CD
330
4C9
100
AcDbEntity
  8
LC-001-100-D00-0
 62
     7
370
    25
100
AcDbLine
 10
513.340633
 20
312.831017
 30
0.0
 11
510.238971
 21
315.932679
 31
0.0
  0
ENDBLK
  5
4CB
330
4C9
100
AcDbEntity
  8
0
100
AcDbBlockEnd
  0
BLOCK
  5
4D0
330
4CF
100
AcDbEntity
  8
0
100
AcDbBlockBegin
  2
KLON25
 70
     0
 71
     0
 10
0.0
 20
0.0
 30
0.0
  3
KLON25
  1

  4
KLON25
  0
LINE
  5
4D2
330
4CF
100
AcDbEntity
  8
LC-001-100-D00-0
 62
     7
370
    25
100
AcDbLine
 10
379.429033
 20
312.038775
 30
0.0
 11
374.721831
 21
316.745977
 31
0.0
  0
LINE
  5
4D3
330
4CF
100
AcDbEntity
  8
LC-001-100-D00-0
 62
     7
370
    25
100
AcDbLine
 10
371.241575
 20
311.245977
 30
0.0
 11
367.340633
 21
315.146919
 31
0.0
  0
ENDBLK
  5
4D1
330
4CF
100
AcDbEntity
  8
0
100
AcDbBlockEnd
  0
BLOCK
  5
4D6
330
4D5
100
AcDbEntity
  8
0
100
AcDbBlockBegin
  2
KLON26
 70
     0
 71
     0
 10
0.0
 20
0.0
 30
0.0
  3
KLON26
  1

  4
KLON26
  0
LINE
  5
4D8
330
4D5
100
AcDbEntity
  8
LC-001-100-D00-0
 62
     7
370
    25
100
AcDbLine
 10
568.77156
 20
356.182908
 30
0.0
 11
568.415872
 21
356.538595
 31
0.0
  0
LINE
  5
4D9
330
4D5
100
AcDbEntity
  8
LC-001-100-D00-0
 62
     7
370
    25
100
AcDbLine
 10
561.435801
 20
354.53841
 30
0.0
 11
560.980863
 21
354.993348
 31
0.0
  0
LINE
  5
4DA
330
4D5
100
AcDbEntity
  8
LC-001-100-D00-0
 62
     7
370
    25
100
AcDbLine
 10
553.309639
 20
353.684316
 30
0.0
 11
552.854701
 21
354.139254
 31
0.0
  0
LINE
  5
4DB
330
4D5
100
AcDbEntity
  8
LC-001-100-D00-0
 62
     7
370
    25
100
AcDbLine
 10
545.053846
 20
352.959853
 30
0.0
 11
544.553846
 21
353.459853
 31
0.0
  0
LINE
  5
4DC
330
4D5
100
AcDbEntity
  8
LC-001-100-D00-0
 62
     7
370
    25
100
AcDbLine
 10
536.073589
 20
352.959853
 30
0.0
 11
535.573589
 21
353.459853
 31
0.0
  0
LINE
  5
4DD
330
4D5
100
AcDbEntity
  8
LC-001-100-D00-0
 62
     7
370
    25
100
AcDbLine
 10
527.093333
 20
352.959853
 30
0.0
 11
526.602777
 21
353.450409
 31
0.0
  0
LINE
  5
4DE
330
4D5
100
AcDbEntity
  8
LC-001-100-D00-0
 62
     7
370
    25
100
AcDbLine
 10
524.340633
 20
346.732297
 30
0.0
 11
523.840633
 21
347.232297
 31
0.0
  0
LINE
  5
4DF
330
4D5
100
AcDbEntity
  8
LC-001-100-D00-0
 62
     7
370
    25
100
AcDbLine
 10
524.340633
 20
337.752041
 30
0.0
 11
523.840633
 21
338.252041
 31
0.0
  0
LINE
  5
4E0
330
4D5
100
AcDbEntity
  8
LC-001-100-D00-0
 62
     7
370
    25
100
AcDbLine
 10
522.391189
 20
330.721229
 30
0.0
 11
521.949595
 21
331.162824
 31
0.0
  0
ENDBLK
  5
4D7
330
4D5
100
AcDbEntity
  8
0
100
AcDbBlockEnd
  0
BLOCK
  5
4E3
330
4E2
100
AcDbEntity
  8
0
100
AcDbBlockBegin
  2
KLON27
 70
     0
 71
     0
 10
0.0
 20
0.0
 30
0.0
  3
KLON27
  1

  4
KLON27
  0
LINE
  5
4E5
330
4E2
100
AcDbEntity
  8
LC-001-100-D00-0
 62
     7
370
    25
100
AcDbLine
 10
365.340633
 20
344.087687
 30
0.0
 11
364.840633
 21
344.587687
 31
0.0
  0
LINE
  5
4E6
330
4E2
100
AcDbEntity
  8
LC-001-100-D00-0
 62
     7
370
    25
100
AcDbLine
 10
355.468467
 20
353.959853
 30
0.0
 11
354.968467
 21
354.459853
 31
0.0
  0
LINE
  5
4E7
330
4E2
100
AcDbEntity
  8
LC-001-100-D00-0
 62
     7
370
    25
100
AcDbLine
 10
365.340633
 20
335.107431
 30
0.0
 11
364.840633
 21
335.607431
 31
0.0
  0
ENDBLK
  5
4E4
330
4E2
100
AcDbEntity
  8
0
100
AcDbBlockEnd
  0
BLOCK
  5
4EA
330
4E9
100
AcDbEntity
  8
0
100
AcDbBlockBegin
  2
KLON28
 70
     0
 71
     0
 10
0.0
 20
0.0
 30
0.0
  3
KLON28
  1

  4
KLON28
  0
LINE
  5
4EC
330
4E9
100
AcDbEntity
  8
LC-001-100-D00-0
 62
     7
370
    25
100
AcDbLine
 10
346.488211
 20
353.959853
 30
0.0
 11
345.988211
 21
354.459853
 31
0.0
  0
LINE
  5
4ED
330
4E9
100
AcDbEntity
  8
LC-001-100-D00-0
 62
     7
370
    25
100
AcDbLine
 10
338.008038
 20
353.45977
 30
0.0
 11
337.446236
 21
354.021572
 31
0.0
  0
LINE
  5
4EE
330
4E9
100
AcDbEntity
  8
LC-001-100-D00-0
 62
     7
370
    25
100
AcDbLine
 10
327.973064
 20
354.514488
 30
0.0
 11
327.411262
 21
355.07629
 31
0.0
  0
ENDBLK
  5
4EB
330
4E9
100
AcDbEntity
  8
0
100
AcDbBlockEnd
  0
BLOCK
  5
4F1
330
4F0
100
AcDbEntity
  8
0
100
AcDbBlockBegin
  2
KLON29
 70
     0
 71
     0
 10
0.0
 20
0.0
 30
0.0
  3
KLON29
  1

  4
KLON29
  0
LINE
  5
4F3
330
4F0
100
AcDbEntity
  8
LC-001-100-D00-0
 62
     7
370
    25
100
AcDbLine
 10
380.340633
 20
257.245638
 30
0.0
 11
379.390294
 21
258.195977
 31
0.0
  0
LINE
  5
4F4
330
4F0
100
AcDbEntity
  8
LC-001-100-D00-0
 62
     7
370
    25
100
AcDbLine
 10
378.840633
 20
258.745638
 30
0.0
 11
376.340633
 21
261.245638
 31
0.0
  0
LINE
  5
4F5
330
4F0
100
AcDbEntity
  8
LC-001-100-D00-0
 62
     7
370
    25
100
AcDbLine
 10
377.414547
 20
251.191468
 30
0.0
 11
374.586122
 21
254.019893
 31
0.0
  0
LINE
  5
4F6
330
4F0
100
AcDbEntity
  8
LC-001-100-D00-0
 62
     7
370
    25
100
AcDbLine
 10
372.924419
 20
246.70134
 30
0.0
 11
370.095994
 21
249.529765
 31
0.0
  0
ENDBLK
  5
4F2
330
4F0
100
AcDbEntity
  8
0
100
AcDbBlockEnd
  0
BLOCK
  5
4F9
330
4F8
100
AcDbEntity
  8
0
100
AcDbBlockBegin
  2
KLON30
 70
     0
 71
     0
 10
0.0
 20
0.0
 30
0.0
  3
KLON30
  1

  4
KLON30
  0
LINE
  5
4FB
330
4F8
100
AcDbEntity
  8
LC-001-100-D00-0
 62
     7
370
    50
100
AcDbLine
 10
512.840633
 20
259.44948
 30
0.0
 11
510.340633
 21
261.94948
 31
0.0
  0
LINE
  5
4FC
330
4F8
100
AcDbEntity
  8
LC-001-100-D00-0
 62
     7
370
    50
100
AcDbLine
 10
518.43754
 20
244.872317
 30
0.0
 11
511.190636
 21
252.119221
 31
0.0
  0
ENDBLK
  5
4FA
330
4F8
100
AcDbEntity
  8
0
100
AcDbBlockEnd
  0
BLOCK
  5
513
330
509
100
AcDbEntity
  8
0
100
AcDbBlockBegin
  2
*D59
 70
     1
 71
     0
 10
0.0
 20
0.0
 30
0.0
  3
*D59
  1

  0
LINE
  5
50A
330
509
100
AcDbEntity
  8
LC-003-003-----0
 62
     2
370
    -2
100
AcDbLine
 10
194.590625
 20
352.115981
 30
0.0
 11
194.590625
 21
502.433976
 31
0.0
  0
LINE
  5
50B
330
509
100
AcDbEntity
  8
LC-003-003-----0
 62
     2
370
    -2
100
AcDbLine
 10
694.590625
 20
352.115981
 30
0.0
 11
694.590625
 21
502.433976
 31
0.0
  0
LINE
  5
50C
330
509
100
AcDbEntity
  8
LC-003-003-----0
 62
     2
370
    -2
100
AcDbLine
 10
222.590625
 20
498.833976
 30
0.0
 11
666.590625
 21
498.833976
 31
0.0
  0
SOLID
  5
50D
330
509
100
AcDbEntity
  8
LC-003-003-----0
 62
     2
100
AcDbTrace
 10
222.590625
 20
503.500642
 30
0.0
 11
222.590625
 21
494.167309
 31
0.0
 12
194.590625
 22
498.833976
 32
0.0
 13
194.590625
 23
498.833976
 33
0.0
  0
SOLID
  5
50E
330
509
100
AcDbEntity
  8
LC-003-003-----0
 62
     2
100
AcDbTrace
 10
666.590625
 20
494.167309
 30
0.0
 11
666.590625
 21
503.500642
 31
0.0
 12
694.590625
 22
498.833976
 32
0.0
 13
694.590625
 23
498.833976
 33
0.0
  0
MTEXT
  5
50F
330
509
100
AcDbEntity
  8
LC-003-003-----0
 62
     2
100
AcDbMText
 10
443.772324
 20
529.633976
 30
0.0
 40
28.0
 41
0.0
 71
     5
 72
     1
  1
\A1;500
  7
LCTX15-400-0-0pDIN-Schrift
 73
     1
 44
1.0
  0
POINT
  5
510
330
509
100
AcDbEntity
  8
Defpoints
 62
     0
100
AcDbPoint
 10
194.590625
 20
352.115981
 30
0.0
  0
POINT
  5
511
330
509
100
AcDbEntity
  8
Defpoints
 62
     0
100
AcDbPoint
 10
694.590625
 20
352.115981
 30
0.0
  0
POINT
  5
512
330
509
100
AcDbEntity
  8
Defpoints
 62
     0
100
AcDbPoint
 10
694.590625
 20
498.833976
 30
0.0
  0
ENDBLK
  5
514
330
509
100
AcDbEntity
  8
0
100
AcDbBlockEnd
  0
BLOCK
  5
520
330
516
100
AcDbEntity
  8
0
100
AcDbBlockBegin
  2
*D60
 70
     1
 71
     0
 10
0.0
 20
0.0
 30
0.0
  3
*D60
  1

  0
LINE
  5
517
330
516
100
AcDbEntity
  8
LC-003-003-----0
 62
     2
370
    -2
100
AcDbLine
 10
267.590624
 20
349.115975
 30
0.0
 11
267.590624
 21
450.755976
 31
0.0
  0
LINE
  5
518
330
516
100
AcDbEntity
  8
LC-003-003-----0
 62
     2
370
    -2
100
AcDbLine
 10
621.590626
 20
349.115975
 30
0.0
 11
621.590626
 21
450.755976
 31
0.0
  0
LINE
  5
519
330
516
100
AcDbEntity
  8
LC-003-003-----0
 62
     2
370
    -2
100
AcDbLine
 10
295.590624
 20
447.155976
 30
0.0
 11
593.590626
 21
447.155976
 31
0.0
  0
SOLID
  5
51A
330
516
100
AcDbEntity
  8
LC-003-003-----0
 62
     2
100
AcDbTrace
 10
295.590624
 20
451.822642
 30
0.0
 11
295.590624
 21
442.489309
 31
0.0
 12
267.590624
 22
447.155976
 32
0.0
 13
267.590624
 23
447.155976
 33
0.0
  0
SOLID
  5
51B
330
516
100
AcDbEntity
  8
LC-003-003-----0
 62
     2
100
AcDbTrace
 10
593.590626
 20
442.489309
 30
0.0
 11
593.590626
 21
451.822642
 31
0.0
 12
621.590626
 22
447.155976
 32
0.0
 13
621.590626
 23
447.155976
 33
0.0
  0
MTEXT
  5
51C
330
516
100
AcDbEntity
  8
LC-003-003-----0
 62
     2
100
AcDbMText
 10
437.383049
 20
477.955976
 30
0.0
 40
28.0
 41
0.0
 71
     5
 72
     1
  1
%%c\A1;354
  7
LCTX15-400-0-0pDIN-Schrift
 73
     1
 44
1.0
  0
POINT
  5
51D
330
516
100
AcDbEntity
  8
Defpoints
 62
     0
100
AcDbPoint
 10
267.590624
 20
349.115975
 30
0.0
  0
POINT
  5
51E
330
516
100
AcDbEntity
  8
Defpoints
 62
     0
100
AcDbPoint
 10
621.590626
 20
349.115975
 30
0.0
  0
POINT
  5
51F
330
516
100
AcDbEntity
  8
Defpoints
 62
     0
100
AcDbPoint
 10
621.590626
 20
447.155976
 30
0.0
  0
ENDBLK
  5
521
330
516
100
AcDbEntity
  8
0
100
AcDbBlockEnd
  0
BLOCK
  5
52D
330
523
100
AcDbEntity
  8
0
100
AcDbBlockBegin
  2
*D61
 70
     1
 71
     0
 10
0.0
 20
0.0
 30
0.0
  3
*D61
  1

  0
LINE
  5
524
330
523
100
AcDbEntity
  8
LC-003-003-----0
 62
     2
370
    -2
100
AcDbLine
 10
364.590627
 20
260.115973
 30
0.0
 11
364.590627
 21
135.269976
 31
0.0
  0
LINE
  5
525
330
523
100
AcDbEntity
  8
LC-003-003-----0
 62
     2
370
    -2
100
AcDbLine
 10
524.590624
 20
260.115973
 30
0.0
 11
524.590624
 21
135.269976
 31
0.0
  0
LINE
  5
526
330
523
100
AcDbEntity
  8
LC-003-003-----0
 62
     2
370
    -2
100
AcDbLine
 10
392.590627
 20
138.869976
 30
0.0
 11
496.590624
 21
138.869976
 31
0.0
  0
SOLID
  5
527
330
523
100
AcDbEntity
  8
LC-003-003-----0
 62
     2
100
AcDbTrace
 10
392.590627
 20
143.536642
 30
0.0
 11
392.590627
 21
134.203309
 31
0.0
 12
364.590627
 22
138.869976
 32
0.0
 13
364.590627
 23
138.869976
 33
0.0
  0
SOLID
  5
528
330
523
100
AcDbEntity
  8
LC-003-003-----0
 62
     2
100
AcDbTrace
 10
496.590624
 20
134.203309
 30
0.0
 11
496.590624
 21
143.536642
 31
0.0
 12
524.590624
 22
138.869976
 32
0.0
 13
524.590624
 23
138.869976
 33
0.0
  0
MTEXT
  5
529
330
523
100
AcDbEntity
  8
LC-003-003-----0
 62
     2
100
AcDbMText
 10
441.642566
 20
169.669976
 30
0.0
 40
28.0
 41
0.0
 71
     5
 72
     1
  1
\A1;DN150
  7
LCTX15-400-0-0pDIN-Schrift
 73
     1
 44
1.0
  0
POINT
  5
52A
330
523
100
AcDbEntity
  8
Defpoints
 62
     0
100
AcDbPoint
 10
364.590627
 20
260.115973
 30
0.0
  0
POINT
  5
52B
330
523
100
AcDbEntity
  8
Defpoints
 62
     0
100
AcDbPoint
 10
524.590624
 20
260.115973
 30
0.0
  0
POINT
  5
52C
330
523
100
AcDbEntity
  8
Defpoints
 62
     0
100
AcDbPoint
 10
524.590624
 20
138.869976
 30
0.0
  0
ENDBLK
  5
52E
330
523
100
AcDbEntity
  8
0
100
AcDbBlockEnd
  0
BLOCK
  5
53A
330
530
100
AcDbEntity
  8
0
100
AcDbBlockBegin
  2
*D62
 70
     1
 71
     0
 10
0.0
 20
0.0
 30
0.0
  3
*D62
  1

  0
LINE
  5
531
330
530
100
AcDbEntity
  8
LC-003-003-----0
 62
     2
370
    -2
100
AcDbLine
 10
194.590625
 20
352.115976
 30
0.0
 11
247.175062
 21
352.115976
 31
0.0
  0
LINE
  5
532
330
530
100
AcDbEntity
  8
LC-003-003-----0
 62
     2
370
    -2
100
AcDbLine
 10
368.090634
 20
192.195976
 30
0.0
 11
239.975062
 21
192.195976
 31
0.0
  0
LINE
  5
533
330
530
100
AcDbEntity
  8
LC-003-003-----0
 62
     2
370
    -2
100
AcDbLine
 10
243.575062
 20
324.115976
 30
0.0
 11
243.575062
 21
220.195976
 31
0.0
  0
SOLID
  5
534
330
530
100
AcDbEntity
  8
LC-003-003-----0
 62
     2
100
AcDbTrace
 10
248.241728
 20
324.115976
 30
0.0
 11
238.908395
 21
324.115976
 31
0.0
 12
243.575062
 22
352.115976
 32
0.0
 13
243.575062
 23
352.115976
 33
0.0
  0
SOLID
  5
535
330
530
100
AcDbEntity
  8
LC-003-003-----0
 62
     2
100
AcDbTrace
 10
238.908395
 20
220.195976
 30
0.0
 11
248.241728
 21
220.195976
 31
0.0
 12
243.575062
 22
192.195976
 32
0.0
 13
243.575062
 23
192.195976
 33
0.0
  0
MTEXT
  5
536
330
530
100
AcDbEntity
  8
LC-003-003-----0
 62
     2
100
AcDbMText
 10
212.775062
 20
274.895976
 30
0.0
 40
28.0
 41
0.0
 71
     5
 72
     1
  1
\A1;160
  7
LCTX15-400-0-0pDIN-Schrift
 11
6.123031769111886E-17
 21
1.0
 31
0.0
 73
     1
 44
1.0
  0
POINT
  5
537
330
530
100
AcDbEntity
  8
Defpoints
 62
     0
100
AcDbPoint
 10
194.590625
 20
352.115976
 30
0.0
  0
POINT
  5
538
330
530
100
AcDbEntity
  8
Defpoints
 62
     0
100
AcDbPoint
 10
368.090634
 20
192.195976
 30
0.0
  0
POINT
  5
539
330
530
100
AcDbEntity
  8
Defpoints
 62
     0
100
AcDbPoint
 10
243.575062
 20
192.195976
 30
0.0
  0
ENDBLK
  5
53B
330
530
100
AcDbEntity
  8
0
100
AcDbBlockEnd
  0
BLOCK
  5
547
330
546
100
AcDbEntity
  8
0
100
AcDbBlockBegin
  2
*X163
 70
     1
 71
     0
 10
0.0
 20
0.0
 30
0.0
  3
*X163
  1

  4
*X1
  0
LINE
  5
54A
330
546
100
AcDbEntity
  8
LC-005-005-----0
 62
     7
370
    25
100
AcDbLine
 10
204.47208
 20
352.115976
 30
0.0
 11
204.590625
 21
352.234521
 31
0.0
  0
LINE
  5
54B
330
546
100
AcDbEntity
  8
LC-005-005-----0
 62
     7
370
    25
100
AcDbLine
 10
203.906394
 20
352.115976
 30
0.0
 11
204.590625
 21
352.800207
 31
0.0
  0
LINE
  5
54C
330
546
100
AcDbEntity
  8
LC-005-005-----0
 62
     7
370
    25
100
AcDbLine
 10
203.340709
 20
352.115976
 30
0.0
 11
204.590625
 21
353.365892
 31
0.0
  0
LINE
  5
54D
330
546
100
AcDbEntity
  8
LC-005-005-----0
 62
     7
370
    25
100
AcDbLine
 10
202.775023
 20
352.115976
 30
0.0
 11
204.590625
 21
353.931577
 31
0.0
  0
LINE
  5
54E
330
546
100
AcDbEntity
  8
LC-005-005-----0
 62
     7
370
    25
100
AcDbLine
 10
202.209338
 20
352.115976
 30
0.0
 11
204.590625
 21
354.497263
 31
0.0
  0
LINE
  5
54F
330
546
100
AcDbEntity
  8
LC-005-005-----0
 62
     7
370
    25
100
AcDbLine
 10
201.643653
 20
352.115976
 30
0.0
 11
204.590625
 21
355.062948
 31
0.0
  0
LINE
  5
550
330
546
100
AcDbEntity
  8
LC-005-005-----0
 62
     7
370
    25
100
AcDbLine
 10
201.077967
 20
352.115976
 30
0.0
 11
204.590625
 21
355.628634
 31
0.0
  0
LINE
  5
551
330
546
100
AcDbEntity
  8
LC-005-005-----0
 62
     7
370
    25
100
AcDbLine
 10
200.512282
 20
352.115976
 30
0.0
 11
204.590625
 21
356.194319
 31
0.0
  0
LINE
  5
552
330
546
100
AcDbEntity
  8
LC-005-005-----0
 62
     7
370
    25
100
AcDbLine
 10
199.946596
 20
352.115976
 30
0.0
 11
204.590625
 21
356.760005
 31
0.0
  0
LINE
  5
553
330
546
100
AcDbEntity
  8
LC-005-005-----0
 62
     7
370
    25
100
AcDbLine
 10
199.380911
 20
352.115976
 30
0.0
 11
204.080911
 21
356.815976
 31
0.0
  0
LINE
  5
554
330
546
100
AcDbEntity
  8
LC-005-005-----0
 62
     7
370
    25
100
AcDbLine
 10
198.815225
 20
352.115976
 30
0.0
 11
203.515225
 21
356.815976
 31
0.0
  0
LINE
  5
555
330
546
100
AcDbEntity
  8
LC-005-005-----0
 62
     7
370
    25
100
AcDbLine
 10
198.24954
 20
352.115976
 30
0.0
 11
202.94954
 21
356.815976
 31
0.0
  0
LINE
  5
556
330
546
100
AcDbEntity
  8
LC-005-005-----0
 62
     7
370
    25
100
AcDbLine
 10
197.683855
 20
352.115976
 30
0.0
 11
202.383855
 21
356.815976
 31
0.0
  0
LINE
  5
557
330
546
100
AcDbEntity
  8
LC-005-005-----0
 62
     7
370
    25
100
AcDbLine
 10
197.118169
 20
352.115976
 30
0.0
 11
201.818169
 21
356.815976
 31
0.0
  0
LINE
  5
558
330
546
100
AcDbEntity
  8
LC-005-005-----0
 62
     7
370
    25
100
AcDbLine
 10
196.552484
 20
352.115976
 30
0.0
 11
201.252484
 21
356.815976
 31
0.0
  0
LINE
  5
559
330
546
100
AcDbEntity
  8
LC-005-005-----0
 62
     7
370
    25
100
AcDbLine
 10
195.986798
 20
352.115976
 30
0.0
 11
200.686798
 21
356.815976
 31
0.0
  0
LINE
  5
55A
330
546
100
AcDbEntity
  8
LC-005-005-----0
 62
     7
370
    25
100
AcDbLine
 10
195.421113
 20
352.115976
 30
0.0
 11
200.121113
 21
356.815976
 31
0.0
  0
LINE
  5
55B
330
546
100
AcDbEntity
  8
LC-005-005-----0
 62
     7
370
    25
100
AcDbLine
 10
194.855427
 20
352.115976
 30
0.0
 11
199.555427
 21
356.815976
 31
0.0
  0
LINE
  5
55C
330
546
100
AcDbEntity
  8
LC-005-005-----0
 62
     7
370
    25
100
AcDbLine
 10
194.590625
 20
352.416859
 30
0.0
 11
198.989742
 21
356.815976
 31
0.0
  0
LINE
  5
55D
330
546
100
AcDbEntity
  8
LC-005-005-----0
 62
     7
370
    25
100
AcDbLine
 10
194.590625
 20
352.982544
 30
0.0
 11
198.424057
 21
356.815976
 31
0.0
  0
LINE
  5
55E
330
546
100
AcDbEntity
  8
LC-005-005-----0
 62
     7
370
    25
100
AcDbLine
 10
194.590625
 20
353.54823
 30
0.0
 11
197.858371
 21
356.815976
 31
0.0
  0
LINE
  5
55F
330
546
100
AcDbEntity
  8
LC-005-005-----0
 62
     7
370
    25
100
AcDbLine
 10
194.590625
 20
354.113915
 30
0.0
 11
197.292686
 21
356.815976
 31
0.0
  0
LINE
  5
560
330
546
100
AcDbEntity
  8
LC-005-005-----0
 62
     7
370
    25
100
AcDbLine
 10
194.590625
 20
354.679601
 30
0.0
 11
196.727
 21
356.815976
 31
0.0
  0
LINE
  5
561
330
546
100
AcDbEntity
  8
LC-005-005-----0
 62
     7
370
    25
100
AcDbLine
 10
194.590625
 20
355.245286
 30
0.0
 11
196.161315
 21
356.815976
 31
0.0
  0
LINE
  5
562
330
546
100
AcDbEntity
  8
LC-005-005-----0
 62
     7
370
    25
100
AcDbLine
 10
194.590625
 20
355.810971
 30
0.0
 11
195.595629
 21
356.815976
 31
0.0
  0
LINE
  5
563
330
546
100
AcDbEntity
  8
LC-005-005-----0
 62
     7
370
    25
100
AcDbLine
 10
194.590625
 20
356.376657
 30
0.0
 11
195.029944
 21
356.815976
 31
0.0
  0
ENDBLK
  5
548
330
546
100
AcDbEntity
  8
0
100
AcDbBlockEnd
  0
BLOCK
  5
566
330
565
100
AcDbEntity
  8
0
100
AcDbBlockBegin
  2
*X264
 70
     1
 71
     0
 10
0.0
 20
0.0
 30
0.0
  3
*X264
  1

  4
*X2
  0
LINE
  5
568
330
565
100
AcDbEntity
  8
LC-005-005-----0
 62
     7
370
    25
100
AcDbLine
 10
224.27107
 20
352.115976
 30
0.0
 11
224.590625
 21
352.435531
 31
0.0
  0
LINE
  5
569
330
565
100
AcDbEntity
  8
LC-005-005-----0
 62
     7
370
    25
100
AcDbLine
 10
223.705384
 20
352.115976
 30
0.0
 11
224.590625
 21
353.001217
 31
0.0
  0
LINE
  5
56A
330
565
100
AcDbEntity
  8
LC-005-005-----0
 62
     7
370
    25
100
AcDbLine
 10
223.139699
 20
352.115976
 30
0.0
 11
224.590625
 21
353.566902
 31
0.0
  0
LINE
  5
56B
330
565
100
AcDbEntity
  8
LC-005-005-----0
 62
     7
370
    25
100
AcDbLine
 10
222.574013
 20
352.115976
 30
0.0
 11
224.590625
 21
354.132588
 31
0.0
  0
LINE
  5
56C
330
565
100
AcDbEntity
  8
LC-005-005-----0
 62
     7
370
    25
100
AcDbLine
 10
222.008328
 20
352.115976
 30
0.0
 11
224.590625
 21
354.698273
 31
0.0
  0
LINE
  5
56D
330
565
100
AcDbEntity
  8
LC-005-005-----0
 62
     7
370
    25
100
AcDbLine
 10
221.442642
 20
352.115976
 30
0.0
 11
224.590625
 21
355.263958
 31
0.0
  0
LINE
  5
56E
330
565
100
AcDbEntity
  8
LC-005-005-----0
 62
     7
370
    25
100
AcDbLine
 10
220.876957
 20
352.115976
 30
0.0
 11
224.590625
 21
355.829644
 31
0.0
  0
LINE
  5
56F
330
565
100
AcDbEntity
  8
LC-005-005-----0
 62
     7
370
    25
100
AcDbLine
 10
220.311272
 20
352.115976
 30
0.0
 11
224.590625
 21
356.395329
 31
0.0
  0
LINE
  5
570
330
565
100
AcDbEntity
  8
LC-005-005-----0
 62
     7
370
    25
100
AcDbLine
 10
219.745586
 20
352.115976
 30
0.0
 11
224.445586
 21
356.815976
 31
0.0
  0
LINE
  5
571
330
565
100
AcDbEntity
  8
LC-005-005-----0
 62
     7
370
    25
100
AcDbLine
 10
219.179901
 20
352.115976
 30
0.0
 11
223.879901
 21
356.815976
 31
0.0
  0
LINE
  5
572
330
565
100
AcDbEntity
  8
LC-005-005-----0
 62
     7
370
    25
100
AcDbLine
 10
218.614215
 20
352.115976
 30
0.0
 11
223.314215
 21
356.815976
 31
0.0
  0
LINE
  5
573
330
565
100
AcDbEntity
  8
LC-005-005-----0
 62
     7
370
    25
100
AcDbLine
 10
218.04853
 20
352.115976
 30
0.0
 11
222.74853
 21
356.815976
 31
0.0
  0
LINE
  5
574
330
565
100
AcDbEntity
  8
LC-005-005-----0
 62
     7
370
    25
100
AcDbLine
 10
217.482844
 20
352.115976
 30
0.0
 11
222.182844
 21
356.815976
 31
0.0
  0
LINE
  5
575
330
565
100
AcDbEntity
  8
LC-005-005-----0
 62
     7
370
    25
100
AcDbLine
 10
216.917159
 20
352.115976
 30
0.0
 11
221.617159
 21
356.815976
 31
0.0
  0
LINE
  5
576
330
565
100
AcDbEntity
  8
LC-005-005-----0
 62
     7
370
    25
100
AcDbLine
 10
216.351474
 20
352.115976
 30
0.0
 11
221.051474
 21
356.815976
 31
0.0
  0
LINE
  5
577
330
565
100
AcDbEntity
  8
LC-005-005-----0
 62
     7
370
    25
100
AcDbLine
 10
215.785788
 20
352.115976
 30
0.0
 11
220.485788
 21
356.815976
 31
0.0
  0
LINE
  5
578
330
565
100
AcDbEntity
  8
LC-005-005-----0
 62
     7
370
    25
100
AcDbLine
 10
215.220103
 20
352.115976
 30
0.0
 11
219.920103
 21
356.815976
 31
0.0
  0
LINE
  5
579
330
565
100
AcDbEntity
  8
LC-005-005-----0
 62
     7
370
    25
100
AcDbLine
 10
214.654417
 20
352.115976
 30
0.0
 11
219.354417
 21
356.815976
 31
0.0
  0
LINE
  5
57A
330
565
100
AcDbEntity
  8
LC-005-005-----0
 62
     7
370
    25
100
AcDbLine
 10
214.590625
 20
352.617869
 30
0.0
 11
218.788732
 21
356.815976
 31
0.0
  0
LINE
  5
57B
330
565
100
AcDbEntity
  8
LC-005-005-----0
 62
     7
370
    25
100
AcDbLine
 10
214.590625
 20
353.183554
 30
0.0
 11
218.223046
 21
356.815976
 31
0.0
  0
LINE
  5
57C
330
565
100
AcDbEntity
  8
LC-005-005-----0
 62
     7
370
    25
100
AcDbLine
 10
214.590625
 20
353.74924
 30
0.0
 11
217.657361
 21
356.815976
 31
0.0
  0
LINE
  5
57D
330
565
100
AcDbEntity
  8
LC-005-005-----0
 62
     7
370
    25
100
AcDbLine
 10
214.590625
 20
354.314925
 30
0.0
 11
217.091676
 21
356.815976
 31
0.0
  0
LINE
  5
57E
330
565
100
AcDbEntity
  8
LC-005-005-----0
 62
     7
370
    25
100
AcDbLine
 10
214.590625
 20
354.880611
 30
0.0
 11
216.52599
 21
356.815976
 31
0.0
  0
LINE
  5
57F
330
565
100
AcDbEntity
  8
LC-005-005-----0
 62
     7
370
    25
100
AcDbLine
 10
214.590625
 20
355.446296
 30
0.0
 11
215.960305
 21
356.815976
 31
0.0
  0
LINE
  5
580
330
565
100
AcDbEntity
  8
LC-005-005-----0
 62
     7
370
    25
100
AcDbLine
 10
214.590625
 20
356.011982
 30
0.0
 11
215.394619
 21
356.815976
 31
0.0
  0
LINE
  5
581
330
565
100
AcDbEntity
  8
LC-005-005-----0
 62
     7
370
    25
100
AcDbLine
 10
214.590625
 20
356.577667
 30
0.0
 11
214.828934
 21
356.815976
 31
0.0
  0
ENDBLK
  5
567
330
565
100
AcDbEntity
  8
0
100
AcDbBlockEnd
  0
BLOCK
  5
584
330
583
100
AcDbEntity
  8
0
100
AcDbBlockBegin
  2
*X365
 70
     1
 71
     0
 10
0.0
 20
0.0
 30
0.0
  3
*X365
  1

  4
*X3
  0
LINE
  5
586
330
583
100
AcDbEntity
  8
LC-005-005-----0
 62
     7
370
    25
100
AcDbLine
 10
244.070059
 20
352.115976
 30
0.0
 11
244.590625
 21
352.636541
 31
0.0
  0
LINE
  5
587
330
583
100
AcDbEntity
  8
LC-005-005-----0
 62
     7
370
    25
100
AcDbLine
 10
243.504374
 20
352.115976
 30
0.0
 11
244.590625
 21
353.202227
 31
0.0
  0
LINE
  5
588
330
583
100
AcDbEntity
  8
LC-005-005-----0
 62
     7
370
    25
100
AcDbLine
 10
242.938689
 20
352.115976
 30
0.0
 11
244.590625
 21
353.767912
 31
0.0
  0
LINE
  5
589
330
583
100
AcDbEntity
  8
LC-005-005-----0
 62
     7
370
    25
100
AcDbLine
 10
242.373003
 20
352.115976
 30
0.0
 11
244.590625
 21
354.333598
 31
0.0
  0
LINE
  5
58A
330
583
100
AcDbEntity
  8
LC-005-005-----0
 62
     7
370
    25
100
AcDbLine
 10
241.807318
 20
352.115976
 30
0.0
 11
244.590625
 21
354.899283
 31
0.0
  0
LINE
  5
58B
330
583
100
AcDbEntity
  8
LC-005-005-----0
 62
     7
370
    25
100
AcDbLine
 10
241.241632
 20
352.115976
 30
0.0
 11
244.590625
 21
355.464969
 31
0.0
  0
LINE
  5
58C
330
583
100
AcDbEntity
  8
LC-005-005-----0
 62
     7
370
    25
100
AcDbLine
 10
240.675947
 20
352.115976
 30
0.0
 11
244.590625
 21
356.030654
 31
0.0
  0
LINE
  5
58D
330
583
100
AcDbEntity
  8
LC-005-005-----0
 62
     7
370
    25
100
AcDbLine
 10
240.110261
 20
352.115976
 30
0.0
 11
244.590625
 21
356.596339
 31
0.0
  0
LINE
  5
58E
330
583
100
AcDbEntity
  8
LC-005-005-----0
 62
     7
370
    25
100
AcDbLine
 10
239.544576
 20
352.115976
 30
0.0
 11
244.244576
 21
356.815976
 31
0.0
  0
LINE
  5
58F
330
583
100
AcDbEntity
  8
LC-005-005-----0
 62
     7
370
    25
100
AcDbLine
 10
238.978891
 20
352.115976
 30
0.0
 11
243.678891
 21
356.815976
 31
0.0
  0
LINE
  5
590
330
583
100
AcDbEntity
  8
LC-005-005-----0
 62
     7
370
    25
100
AcDbLine
 10
238.413205
 20
352.115976
 30
0.0
 11
243.113205
 21
356.815976
 31
0.0
  0
LINE
  5
591
330
583
100
AcDbEntity
  8
LC-005-005-----0
 62
     7
370
    25
100
AcDbLine
 10
237.84752
 20
352.115976
 30
0.0
 11
242.54752
 21
356.815976
 31
0.0
  0
LINE
  5
592
330
583
100
AcDbEntity
  8
LC-005-005-----0
 62
     7
370
    25
100
AcDbLine
 10
237.281834
 20
352.115976
 30
0.0
 11
241.981834
 21
356.815976
 31
0.0
  0
LINE
  5
593
330
583
100
AcDbEntity
  8
LC-005-005-----0
 62
     7
370
    25
100
AcDbLine
 10
236.716149
 20
352.115976
 30
0.0
 11
241.416149
 21
356.815976
 31
0.0
  0
LINE
  5
594
330
583
100
AcDbEntity
  8
LC-005-005-----0
 62
     7
370
    25
100
AcDbLine
 10
236.150463
 20
352.115976
 30
0.0
 11
240.850463
 21
356.815976
 31
0.0
  0
LINE
  5
595
330
583
100
AcDbEntity
  8
LC-005-005-----0
 62
     7
370
    25
100
AcDbLine
 10
235.584778
 20
352.115976
 30
0.0
 11
240.284778
 21
356.815976
 31
0.0
  0
LINE
  5
596
330
583
100
AcDbEntity
  8
LC-005-005-----0
 62
     7
370
    25
100
AcDbLine
 10
235.019093
 20
352.115976
 30
0.0
 11
239.719093
 21
356.815976
 31
0.0
  0
LINE
  5
597
330
583
100
AcDbEntity
  8
LC-005-005-----0
 62
     7
370
    25
100
AcDbLine
 10
234.590625
 20
352.253194
 30
0.0
 11
239.153407
 21
356.815976
 31
0.0
  0
LINE
  5
598
330
583
100
AcDbEntity
  8
LC-005-005-----0
 62
     7
370
    25
100
AcDbLine
 10
234.590625
 20
352.818879
 30
0.0
 11
238.587722
 21
356.815976
 31
0.0
  0
LINE
  5
599
330
583
100
AcDbEntity
  8
LC-005-005-----0
 62
     7
370
    25
100
AcDbLine
 10
234.590625
 20
353.384565
 30
0.0
 11
238.022036
 21
356.815976
 31
0.0
  0
LINE
  5
59A
330
583
100
AcDbEntity
  8
LC-005-005-----0
 62
     7
370
    25
100
AcDbLine
 10
234.590625
 20
353.95025
 30
0.0
 11
237.456351
 21
356.815976
 31
0.0
  0
LINE
  5
59B
330
583
100
AcDbEntity
  8
LC-005-005-----0
 62
     7
370
    25
100
AcDbLine
 10
234.590625
 20
354.515935
 30
0.0
 11
236.890666
 21
356.815976
 31
0.0
  0
LINE
  5
59C
330
583
100
AcDbEntity
  8
LC-005-005-----0
 62
     7
370
    25
100
AcDbLine
 10
234.590625
 20
355.081621
 30
0.0
 11
236.32498
 21
356.815976
 31
0.0
  0
LINE
  5
59D
330
583
100
AcDbEntity
  8
LC-005-005-----0
 62
     7
370
    25
100
AcDbLine
 10
234.590625
 20
355.647306
 30
0.0
 11
235.759295
 21
356.815976
 31
0.0
  0
LINE
  5
59E
330
583
100
AcDbEntity
  8
LC-005-005-----0
 62
     7
370
    25
100
AcDbLine
 10
234.590625
 20
356.212992
 30
0.0
 11
235.193609
 21
356.815976
 31
0.0
  0
LINE
  5
59F
330
583
100
AcDbEntity
  8
LC-005-005-----0
 62
     7
370
    25
100
AcDbLine
 10
234.590625
 20
356.778677
 30
0.0
 11
234.627924
 21
356.815976
 31
0.0
  0
ENDBLK
  5
585
330
583
100
AcDbEntity
  8
0
100
AcDbBlockEnd
  0
BLOCK
  5
5A2
330
5A1
100
AcDbEntity
  8
0
100
AcDbBlockBegin
  2
*X466
 70
     1
 71
     0
 10
0.0
 20
0.0
 30
0.0
  3
*X466
  1

  4
*X4
  0
LINE
  5
5A4
330
5A1
100
AcDbEntity
  8
LC-005-005-----0
 62
     7
370
    25
100
AcDbLine
 10
264.434735
 20
352.115976
 30
0.0
 11
264.590625
 21
352.271866
 31
0.0
  0
LINE
  5
5A5
330
5A1
100
AcDbEntity
  8
LC-005-005-----0
 62
     7
370
    25
100
AcDbLine
 10
263.869049
 20
352.115976
 30
0.0
 11
264.590625
 21
352.837552
 31
0.0
  0
LINE
  5
5A6
330
5A1
100
AcDbEntity
  8
LC-005-005-----0
 62
     7
370
    25
100
AcDbLine
 10
263.303364
 20
352.115976
 30
0.0
 11
264.590625
 21
353.403237
 31
0.0
  0
LINE
  5
5A7
330
5A1
100
AcDbEntity
  8
LC-005-005-----0
 62
     7
370
    25
100
AcDbLine
 10
262.737678
 20
352.115976
 30
0.0
 11
264.590625
 21
353.968922
 31
0.0
  0
LINE
  5
5A8
330
5A1
100
AcDbEntity
  8
LC-005-005-----0
 62
     7
370
    25
100
AcDbLine
 10
262.171993
 20
352.115976
 30
0.0
 11
264.590625
 21
354.534608
 31
0.0
  0
LINE
  5
5A9
330
5A1
100
AcDbEntity
  8
LC-005-005-----0
 62
     7
370
    25
100
AcDbLine
 10
261.606308
 20
352.115976
 30
0.0
 11
264.590625
 21
355.100293
 31
0.0
  0
LINE
  5
5AA
330
5A1
100
AcDbEntity
  8
LC-005-005-----0
 62
     7
370
    25
100
AcDbLine
 10
261.040622
 20
352.115976
 30
0.0
 11
264.590625
 21
355.665979
 31
0.0
  0
LINE
  5
5AB
330
5A1
100
AcDbEntity
  8
LC-005-005-----0
 62
     7
370
    25
100
AcDbLine
 10
260.474937
 20
352.115976
 30
0.0
 11
264.590625
 21
356.231664
 31
0.0
  0
LINE
  5
5AC
330
5A1
100
AcDbEntity
  8
LC-005-005-----0
 62
     7
370
    25
100
AcDbLine
 10
259.909251
 20
352.115976
 30
0.0
 11
264.590625
 21
356.79735
 31
0.0
  0
LINE
  5
5AD
330
5A1
100
AcDbEntity
  8
LC-005-005-----0
 62
     7
370
    25
100
AcDbLine
 10
259.343566
 20
352.115976
 30
0.0
 11
264.043566
 21
356.815976
 31
0.0
  0
LINE
  5
5AE
330
5A1
100
AcDbEntity
  8
LC-005-005-----0
 62
     7
370
    25
100
AcDbLine
 10
258.77788
 20
352.115976
 30
0.0
 11
263.47788
 21
356.815976
 31
0.0
  0
LINE
  5
5AF
330
5A1
100
AcDbEntity
  8
LC-005-005-----0
 62
     7
370
    25
100
AcDbLine
 10
258.212195
 20
352.115976
 30
0.0
 11
262.912195
 21
356.815976
 31
0.0
  0
LINE
  5
5B0
330
5A1
100
AcDbEntity
  8
LC-005-005-----0
 62
     7
370
    25
100
AcDbLine
 10
257.64651
 20
352.115976
 30
0.0
 11
262.34651
 21
356.815976
 31
0.0
  0
LINE
  5
5B1
330
5A1
100
AcDbEntity
  8
LC-005-005-----0
 62
     7
370
    25
100
AcDbLine
 10
257.080824
 20
352.115976
 30
0.0
 11
261.780824
 21
356.815976
 31
0.0
  0
LINE
  5
5B2
330
5A1
100
AcDbEntity
  8
LC-005-005-----0
 62
     7
370
    25
100
AcDbLine
 10
256.515139
 20
352.115976
 30
0.0
 11
261.215139
 21
356.815976
 31
0.0
  0
LINE
  5
5B3
330
5A1
100
AcDbEntity
  8
LC-005-005-----0
 62
     7
370
    25
100
AcDbLine
 10
255.949453
 20
352.115976
 30
0.0
 11
260.649453
 21
356.815976
 31
0.0
  0
LINE
  5
5B4
330
5A1
100
AcDbEntity
  8
LC-005-005-----0
 62
     7
370
    25
100
AcDbLine
 10
255.383768
 20
352.115976
 30
0.0
 11
260.083768
 21
356.815976
 31
0.0
  0
LINE
  5
5B5
330
5A1
100
AcDbEntity
  8
LC-005-005-----0
 62
     7
370
    25
100
AcDbLine
 10
254.818083
 20
352.115976
 30
0.0
 11
259.518083
 21
356.815976
 31
0.0
  0
LINE
  5
5B6
330
5A1
100
AcDbEntity
  8
LC-005-005-----0
 62
     7
370
    25
100
AcDbLine
 10
254.590625
 20
352.454204
 30
0.0
 11
258.952397
 21
356.815976
 31
0.0
  0
LINE
  5
5B7
330
5A1
100
AcDbEntity
  8
LC-005-005-----0
 62
     7
370
    25
100
AcDbLine
 10
254.590625
 20
353.019889
 30
0.0
 11
258.386712
 21
356.815976
 31
0.0
  0
LINE
  5
5B8
330
5A1
100
AcDbEntity
  8
LC-005-005-----0
 62
     7
370
    25
100
AcDbLine
 10
254.590625
 20
353.585575
 30
0.0
 11
257.821026
 21
356.815976
 31
0.0
  0
LINE
  5
5B9
330
5A1
100
AcDbEntity
  8
LC-005-005-----0
 62
     7
370
    25
100
AcDbLine
 10
254.590625
 20
354.15126
 30
0.0
 11
257.255341
 21
356.815976
 31
0.0
  0
LINE
  5
5BA
330
5A1
100
AcDbEntity
  8
LC-005-005-----0
 62
     7
370
    25
100
AcDbLine
 10
254.590625
 20
354.716946
 30
0.0
 11
256.689655
 21
356.815976
 31
0.0
  0
LINE
  5
5BB
330
5A1
100
AcDbEntity
  8
LC-005-005-----0
 62
     7
370
    25
100
AcDbLine
 10
254.590625
 20
355.282631
 30
0.0
 11
256.12397
 21
356.815976
 31
0.0
  0
LINE
  5
5BC
330
5A1
100
AcDbEntity
  8
LC-005-005-----0
 62
     7
370
    25
100
AcDbLine
 10
254.590625
 20
355.848316
 30
0.0
 11
255.558285
 21
356.815976
 31
0.0
  0
LINE
  5
5BD
330
5A1
100
AcDbEntity
  8
LC-005-005-----0
 62
     7
370
    25
100
AcDbLine
 10
254.590625
 20
356.414002
 30
0.0
 11
254.992599
 21
356.815976
 31
0.0
  0
ENDBLK
  5
5A3
330
5A1
100
AcDbEntity
  8
0
100
AcDbBlockEnd
  0
BLOCK
  5
5C0
330
5BF
100
AcDbEntity
  8
0
100
AcDbBlockBegin
  2
*X567
 70
     1
 71
     0
 10
0.0
 20
0.0
 30
0.0
  3
*X567
  1

  4
*X5
  0
LINE
  5
5C2
330
5BF
100
AcDbEntity
  8
LC-005-005-----0
 62
     7
370
    25
100
AcDbLine
 10
284.233725
 20
352.115976
 30
0.0
 11
284.590625
 21
352.472876
 31
0.0
  0
LINE
  5
5C3
330
5BF
100
AcDbEntity
  8
LC-005-005-----0
 62
     7
370
    25
100
AcDbLine
 10
283.668039
 20
352.115976
 30
0.0
 11
284.590625
 21
353.038562
 31
0.0
  0
LINE
  5
5C4
330
5BF
100
AcDbEntity
  8
LC-005-005-----0
 62
     7
370
    25
100
AcDbLine
 10
283.102354
 20
352.115976
 30
0.0
 11
284.590625
 21
353.604247
 31
0.0
  0
LINE
  5
5C5
330
5BF
100
AcDbEntity
  8
LC-005-005-----0
 62
     7
370
    25
100
AcDbLine
 10
282.536668
 20
352.115976
 30
0.0
 11
284.590625
 21
354.169933
 31
0.0
  0
LINE
  5
5C6
330
5BF
100
AcDbEntity
  8
LC-005-005-----0
 62
     7
370
    25
100
AcDbLine
 10
281.970983
 20
352.115976
 30
0.0
 11
284.590625
 21
354.735618
 31
0.0
  0
LINE
  5
5C7
330
5BF
100
AcDbEntity
  8
LC-005-005-----0
 62
     7
370
    25
100
AcDbLine
 10
281.405297
 20
352.115976
 30
0.0
 11
284.590625
 21
355.301303
 31
0.0
  0
LINE
  5
5C8
330
5BF
100
AcDbEntity
  8
LC-005-005-----0
 62
     7
370
    25
100
AcDbLine
 10
280.839612
 20
352.115976
 30
0.0
 11
284.590625
 21
355.866989
 31
0.0
  0
LINE
  5
5C9
330
5BF
100
AcDbEntity
  8
LC-005-005-----0
 62
     7
370
    25
100
AcDbLine
 10
280.273927
 20
352.115976
 30
0.0
 11
284.590625
 21
356.432674
 31
0.0
  0
LINE
  5
5CA
330
5BF
100
AcDbEntity
  8
LC-005-005-----0
 62
     7
370
    25
100
AcDbLine
 10
279.708241
 20
352.115976
 30
0.0
 11
284.408241
 21
356.815976
 31
0.0
  0
LINE
  5
5CB
330
5BF
100
AcDbEntity
  8
LC-005-005-----0
 62
     7
370
    25
100
AcDbLine
 10
279.142556
 20
352.115976
 30
0.0
 11
283.842556
 21
356.815976
 31
0.0
  0
LINE
  5
5CC
330
5BF
100
AcDbEntity
  8
LC-005-005-----0
 62
     7
370
    25
100
AcDbLine
 10
278.57687
 20
352.115976
 30
0.0
 11
283.27687
 21
356.815976
 31
0.0
  0
LINE
  5
5CD
330
5BF
100
AcDbEntity
  8
LC-005-005-----0
 62
     7
370
    25
100
AcDbLine
 10
278.011185
 20
352.115976
 30
0.0
 11
282.711185
 21
356.815976
 31
0.0
  0
LINE
  5
5CE
330
5BF
100
AcDbEntity
  8
LC-005-005-----0
 62
     7
370
    25
100
AcDbLine
 10
277.4455
 20
352.115976
 30
0.0
 11
282.1455
 21
356.815976
 31
0.0
  0
LINE
  5
5CF
330
5BF
100
AcDbEntity
  8
LC-005-005-----0
 62
     7
370
    25
100
AcDbLine
 10
276.879814
 20
352.115976
 30
0.0
 11
281.579814
 21
356.815976
 31
0.0
  0
LINE
  5
5D0
330
5BF
100
AcDbEntity
  8
LC-005-005-----0
 62
     7
370
    25
100
AcDbLine
 10
276.314129
 20
352.115976
 30
0.0
 11
281.014129
 21
356.815976
 31
0.0
  0
LINE
  5
5D1
330
5BF
100
AcDbEntity
  8
LC-005-005-----0
 62
     7
370
    25
100
AcDbLine
 10
275.748443
 20
352.115976
 30
0.0
 11
280.448443
 21
356.815976
 31
0.0
  0
LINE
  5
5D2
330
5BF
100
AcDbEntity
  8
LC-005-005-----0
 62
     7
370
    25
100
AcDbLine
 10
275.182758
 20
352.115976
 30
0.0
 11
279.882758
 21
356.815976
 31
0.0
  0
LINE
  5
5D3
330
5BF
100
AcDbEntity
  8
LC-005-005-----0
 62
     7
370
    25
100
AcDbLine
 10
274.617072
 20
352.115976
 30
0.0
 11
279.317072
 21
356.815976
 31
0.0
  0
LINE
  5
5D4
330
5BF
100
AcDbEntity
  8
LC-005-005-----0
 62
     7
370
    25
100
AcDbLine
 10
274.590625
 20
352.655214
 30
0.0
 11
278.751387
 21
356.815976
 31
0.0
  0
LINE
  5
5D5
330
5BF
100
AcDbEntity
  8
LC-005-005-----0
 62
     7
370
    25
100
AcDbLine
 10
274.590625
 20
353.220899
 30
0.0
 11
278.185702
 21
356.815976
 31
0.0
  0
LINE
  5
5D6
330
5BF
100
AcDbEntity
  8
LC-005-005-----0
 62
     7
370
    25
100
AcDbLine
 10
274.590625
 20
353.786585
 30
0.0
 11
277.620016
 21
356.815976
 31
0.0
  0
LINE
  5
5D7
330
5BF
100
AcDbEntity
  8
LC-005-005-----0
 62
     7
370
    25
100
AcDbLine
 10
274.590625
 20
354.35227
 30
0.0
 11
277.054331
 21
356.815976
 31
0.0
  0
LINE
  5
5D8
330
5BF
100
AcDbEntity
  8
LC-005-005-----0
 62
     7
370
    25
100
AcDbLine
 10
274.590625
 20
354.917956
 30
0.0
 11
276.488645
 21
356.815976
 31
0.0
  0
LINE
  5
5D9
330
5BF
100
AcDbEntity
  8
LC-005-005-----0
 62
     7
370
    25
100
AcDbLine
 10
274.590625
 20
355.483641
 30
0.0
 11
275.92296
 21
356.815976
 31
0.0
  0
LINE
  5
5DA
330
5BF
100
AcDbEntity
  8
LC-005-005-----0
 62
     7
370
    25
100
AcDbLine
 10
274.590625
 20
356.049326
 30
0.0
 11
275.357274
 21
356.815976
 31
0.0
  0
LINE
  5
5DB
330
5BF
100
AcDbEntity
  8
LC-005-005-----0
 62
     7
370
    25
100
AcDbLine
 10
274.590625
 20
356.615012
 30
0.0
 11
274.791589
 21
356.815976
 31
0.0
  0
ENDBLK
  5
5C1
330
5BF
100
AcDbEntity
  8
0
100
AcDbBlockEnd
  0
BLOCK
  5
5E0
330
5DF
100
AcDbEntity
  8
0
100
AcDbBlockBegin
  2
*X668
 70
     1
 71
     0
 10
0.0
 20
0.0
 30
0.0
  3
*X668
  1

  4
*X6
  0
LINE
  5
5E2
330
5DF
100
AcDbEntity
  8
LC-005-005-----0
 62
     7
370
    25
100
AcDbLine
 10
304.032714
 20
352.115976
 30
0.0
 11
304.590625
 21
352.673886
 31
0.0
  0
LINE
  5
5E3
330
5DF
100
AcDbEntity
  8
LC-005-005-----0
 62
     7
370
    25
100
AcDbLine
 10
303.467029
 20
352.115976
 30
0.0
 11
304.590625
 21
353.239572
 31
0.0
  0
LINE
  5
5E4
330
5DF
100
AcDbEntity
  8
LC-005-005-----0
 62
     7
370
    25
100
AcDbLine
 10
302.901344
 20
352.115976
 30
0.0
 11
304.590625
 21
353.805257
 31
0.0
  0
LINE
  5
5E5
330
5DF
100
AcDbEntity
  8
LC-005-005-----0
 62
     7
370
    25
100
AcDbLine
 10
302.335658
 20
352.115976
 30
0.0
 11
304.590625
 21
354.370943
 31
0.0
  0
LINE
  5
5E6
330
5DF
100
AcDbEntity
  8
LC-005-005-----0
 62
     7
370
    25
100
AcDbLine
 10
301.769973
 20
352.115976
 30
0.0
 11
304.590625
 21
354.936628
 31
0.0
  0
LINE
  5
5E7
330
5DF
100
AcDbEntity
  8
LC-005-005-----0
 62
     7
370
    25
100
AcDbLine
 10
301.204287
 20
352.115976
 30
0.0
 11
304.590625
 21
355.502314
 31
0.0
  0
LINE
  5
5E8
330
5DF
100
AcDbEntity
  8
LC-005-005-----0
 62
     7
370
    25
100
AcDbLine
 10
300.638602
 20
352.115976
 30
0.0
 11
304.590625
 21
356.067999
 31
0.0
  0
LINE
  5
5E9
330
5DF
100
AcDbEntity
  8
LC-005-005-----0
 62
     7
370
    25
100
AcDbLine
 10
300.072917
 20
352.115976
 30
0.0
 11
304.590625
 21
356.633684
 31
0.0
  0
LINE
  5
5EA
330
5DF
100
AcDbEntity
  8
LC-005-005-----0
 62
     7
370
    25
100
AcDbLine
 10
299.507231
 20
352.115976
 30
0.0
 11
304.207231
 21
356.815976
 31
0.0
  0
LINE
  5
5EB
330
5DF
100
AcDbEntity
  8
LC-005-005-----0
 62
     7
370
    25
100
AcDbLine
 10
298.941546
 20
352.115976
 30
0.0
 11
303.641546
 21
356.815976
 31
0.0
  0
LINE
  5
5EC
330
5DF
100
AcDbEntity
  8
LC-005-005-----0
 62
     7
370
    25
100
AcDbLine
 10
298.37586
 20
352.115976
 30
0.0
 11
303.07586
 21
356.815976
 31
0.0
  0
LINE
  5
5ED
330
5DF
100
AcDbEntity
  8
LC-005-005-----0
 62
     7
370
    25
100
AcDbLine
 10
297.810175
 20
352.115976
 30
0.0
 11
302.510175
 21
356.815976
 31
0.0
  0
LINE
  5
5EE
330
5DF
100
AcDbEntity
  8
LC-005-005-----0
 62
     7
370
    25
100
AcDbLine
 10
297.244489
 20
352.115976
 30
0.0
 11
301.944489
 21
356.815976
 31
0.0
  0
LINE
  5
5EF
330
5DF
100
AcDbEntity
  8
LC-005-005-----0
 62
     7
370
    25
100
AcDbLine
 10
296.678804
 20
352.115976
 30
0.0
 11
301.378804
 21
356.815976
 31
0.0
  0
LINE
  5
5F0
330
5DF
100
AcDbEntity
  8
LC-005-005-----0
 62
     7
370
    25
100
AcDbLine
 10
296.113119
 20
352.115976
 30
0.0
 11
300.813119
 21
356.815976
 31
0.0
  0
LINE
  5
5F1
330
5DF
100
AcDbEntity
  8
LC-005-005-----0
 62
     7
370
    25
100
AcDbLine
 10
295.547433
 20
352.115976
 30
0.0
 11
300.247433
 21
356.815976
 31
0.0
  0
LINE
  5
5F2
330
5DF
100
AcDbEntity
  8
LC-005-005-----0
 62
     7
370
    25
100
AcDbLine
 10
294.981748
 20
352.115976
 30
0.0
 11
299.681748
 21
356.815976
 31
0.0
  0
LINE
  5
5F3
330
5DF
100
AcDbEntity
  8
LC-005-005-----0
 62
     7
370
    25
100
AcDbLine
 10
294.590625
 20
352.290539
 30
0.0
 11
299.116062
 21
356.815976
 31
0.0
  0
LINE
  5
5F4
330
5DF
100
AcDbEntity
  8
LC-005-005-----0
 62
     7
370
    25
100
AcDbLine
 10
294.590625
 20
352.856224
 30
0.0
 11
298.550377
 21
356.815976
 31
0.0
  0
LINE
  5
5F5
330
5DF
100
AcDbEntity
  8
LC-005-005-----0
 62
     7
370
    25
100
AcDbLine
 10
294.590625
 20
353.42191
 30
0.0
 11
297.984691
 21
356.815976
 31
0.0
  0
LINE
  5
5F6
330
5DF
100
AcDbEntity
  8
LC-005-005-----0
 62
     7
370
    25
100
AcDbLine
 10
294.590625
 20
353.987595
 30
0.0
 11
297.419006
 21
356.815976
 31
0.0
  0
LINE
  5
5F7
330
5DF
100
AcDbEntity
  8
LC-005-005-----0
 62
     7
370
    25
100
AcDbLine
 10
294.590625
 20
354.55328
 30
0.0
 11
296.853321
 21
356.815976
 31
0.0
  0
LINE
  5
5F8
330
5DF
100
AcDbEntity
  8
LC-005-005-----0
 62
     7
370
    25
100
AcDbLine
 10
294.590625
 20
355.118966
 30
0.0
 11
296.287635
 21
356.815976
 31
0.0
  0
LINE
  5
5F9
330
5DF
100
AcDbEntity
  8
LC-005-005-----0
 62
     7
370
    25
100
AcDbLine
 10
294.590625
 20
355.684651
 30
0.0
 11
295.72195
 21
356.815976
 31
0.0
  0
LINE
  5
5FA
330
5DF
100
AcDbEntity
  8
LC-005-005-----0
 62
     7
370
    25
100
AcDbLine
 10
294.590625
 20
356.250337
 30
0.0
 11
295.156264
 21
356.815976
 31
0.0
  0
ENDBLK
  5
5E1
330
5DF
100
AcDbEntity
  8
0
100
AcDbBlockEnd
  0
BLOCK
  5
5FE
330
5FD
100
AcDbEntity
  8
0
100
AcDbBlockBegin
  2
*X769
 70
     1
 71
     0
 10
0.0
 20
0.0
 30
0.0
  3
*X769
  1

  4
*X7
  0
LINE
  5
600
330
5FD
100
AcDbEntity
  8
LC-005-005-----0
 62
     7
370
    25
100
AcDbLine
 10
324.515113
 20
349.405272
 30
0.0
 11
324.590625
 21
349.480784
 31
0.0
  0
LINE
  5
601
330
5FD
100
AcDbEntity
  8
LC-005-005-----0
 62
     7
370
    25
100
AcDbLine
 10
324.100379
 20
349.556223
 30
0.0
 11
324.590625
 21
350.046469
 31
0.0
  0
LINE
  5
602
330
5FD
100
AcDbEntity
  8
LC-005-005-----0
 62
     7
370
    25
100
AcDbLine
 10
323.685645
 20
349.707174
 30
0.0
 11
324.590625
 21
350.612155
 31
0.0
  0
LINE
  5
603
330
5FD
100
AcDbEntity
  8
LC-005-005-----0
 62
     7
370
    25
100
AcDbLine
 10
323.27091
 20
349.858125
 30
0.0
 11
324.590625
 21
351.17784
 31
0.0
  0
LINE
  5
604
330
5FD
100
AcDbEntity
  8
LC-005-005-----0
 62
     7
370
    25
100
AcDbLine
 10
322.856176
 20
350.009076
 30
0.0
 11
324.590625
 21
351.743526
 31
0.0
  0
LINE
  5
605
330
5FD
100
AcDbEntity
  8
LC-005-005-----0
 62
     7
370
    25
100
AcDbLine
 10
322.441441
 20
350.160027
 30
0.0
 11
324.590625
 21
352.309211
 31
0.0
  0
LINE
  5
606
330
5FD
100
AcDbEntity
  8
LC-005-005-----0
 62
     7
370
    25
100
AcDbLine
 10
322.026707
 20
350.310978
 30
0.0
 11
324.590625
 21
352.874897
 31
0.0
  0
LINE
  5
607
330
5FD
100
AcDbEntity
  8
LC-005-005-----0
 62
     7
370
    25
100
AcDbLine
 10
321.611972
 20
350.461929
 30
0.0
 11
324.590625
 21
353.440582
 31
0.0
  0
LINE
  5
608
330
5FD
100
AcDbEntity
  8
LC-005-005-----0
 62
     7
370
    25
100
AcDbLine
 10
321.197238
 20
350.61288
 30
0.0
 11
324.590625
 21
354.006267
 31
0.0
  0
LINE
  5
609
330
5FD
100
AcDbEntity
  8
LC-005-005-----0
 62
     7
370
    25
100
AcDbLine
 10
320.782503
 20
350.763831
 30
0.0
 11
324.393128
 21
354.374455
 31
0.0
  0
LINE
  5
60A
330
5FD
100
AcDbEntity
  8
LC-005-005-----0
 62
     7
370
    25
100
AcDbLine
 10
320.367769
 20
350.914782
 30
0.0
 11
323.881243
 21
354.428256
 31
0.0
  0
LINE
  5
60B
330
5FD
100
AcDbEntity
  8
LC-005-005-----0
 62
     7
370
    25
100
AcDbLine
 10
319.953034
 20
351.065733
 30
0.0
 11
323.369359
 21
354.482057
 31
0.0
  0
LINE
  5
60C
330
5FD
100
AcDbEntity
  8
LC-005-005-----0
 62
     7
370
    25
100
AcDbLine
 10
319.5383
 20
351.216684
 30
0.0
 11
322.857475
 21
354.535858
 31
0.0
  0
LINE
  5
60D
330
5FD
100
AcDbEntity
  8
LC-005-005-----0
 62
     7
370
    25
100
AcDbLine
 10
319.123566
 20
351.367635
 30
0.0
 11
322.346398
 21
354.590467
 31
0.0
  0
LINE
  5
60E
330
5FD
100
AcDbEntity
  8
LC-005-005-----0
 62
     7
370
    25
100
AcDbLine
 10
318.708831
 20
351.518586
 30
0.0
 11
321.879529
 21
354.689283
 31
0.0
  0
LINE
  5
60F
330
5FD
100
AcDbEntity
  8
LC-005-005-----0
 62
     7
370
    25
100
AcDbLine
 10
318.294097
 20
351.669537
 30
0.0
 11
321.469019
 21
354.844459
 31
0.0
  0
LINE
  5
610
330
5FD
100
AcDbEntity
  8
LC-005-005-----0
 62
     7
370
    25
100
AcDbLine
 10
317.879362
 20
351.820488
 30
0.0
 11
321.104436
 21
355.045561
 31
0.0
  0
LINE
  5
611
330
5FD
100
AcDbEntity
  8
LC-005-005-----0
 62
     7
370
    25
100
AcDbLine
 10
317.464628
 20
351.971439
 30
0.0
 11
320.780446
 21
355.287257
 31
0.0
  0
LINE
  5
612
330
5FD
100
AcDbEntity
  8
LC-005-005-----0
 62
     7
370
    25
100
AcDbLine
 10
317.043479
 20
352.115976
 30
0.0
 11
320.494683
 21
355.56718
 31
0.0
  0
LINE
  5
613
330
5FD
100
AcDbEntity
  8
LC-005-005-----0
 62
     7
370
    25
100
AcDbLine
 10
316.477794
 20
352.115976
 30
0.0
 11
320.246987
 21
355.885168
 31
0.0
  0
LINE
  5
614
330
5FD
100
AcDbEntity
  8
LC-005-005-----0
 62
     7
370
    25
100
AcDbLine
 10
315.912108
 20
352.115976
 30
0.0
 11
319.834839
 21
356.038706
 31
0.0
  0
LINE
  5
615
330
5FD
100
AcDbEntity
  8
LC-005-005-----0
 62
     7
370
    25
100
AcDbLine
 10
315.346423
 20
352.115976
 30
0.0
 11
319.420106
 21
356.189659
 31
0.0
  0
LINE
  5
616
330
5FD
100
AcDbEntity
  8
LC-005-005-----0
 62
     7
370
    25
100
AcDbLine
 10
314.780738
 20
352.115976
 30
0.0
 11
319.005373
 21
356.340611
 31
0.0
  0
LINE
  5
617
330
5FD
100
AcDbEntity
  8
LC-005-005-----0
 62
     7
370
    25
100
AcDbLine
 10
314.590625
 20
352.491549
 30
0.0
 11
318.590641
 21
356.491564
 31
0.0
  0
LINE
  5
618
330
5FD
100
AcDbEntity
  8
LC-005-005-----0
 62
     7
370
    25
100
AcDbLine
 10
314.590625
 20
353.057234
 30
0.0
 11
318.175908
 21
356.642517
 31
0.0
  0
LINE
  5
619
330
5FD
100
AcDbEntity
  8
LC-005-005-----0
 62
     7
370
    25
100
AcDbLine
 10
314.590625
 20
353.62292
 30
0.0
 11
317.761176
 21
356.79347
 31
0.0
  0
LINE
  5
61A
330
5FD
100
AcDbEntity
  8
LC-005-005-----0
 62
     7
370
    25
100
AcDbLine
 10
314.590625
 20
354.188605
 30
0.0
 11
317.217986
 21
356.815966
 31
0.0
  0
LINE
  5
61B
330
5FD
100
AcDbEntity
  8
LC-005-005-----0
 62
     7
370
    25
100
AcDbLine
 10
314.590625
 20
354.75429
 30
0.0
 11
316.652301
 21
356.815966
 31
0.0
  0
LINE
  5
61C
330
5FD
100
AcDbEntity
  8
LC-005-005-----0
 62
     7
370
    25
100
AcDbLine
 10
314.590625
 20
355.319976
 30
0.0
 11
316.086615
 21
356.815966
 31
0.0
  0
LINE
  5
61D
330
5FD
100
AcDbEntity
  8
LC-005-005-----0
 62
     7
370
    25
100
AcDbLine
 10
314.590625
 20
355.885661
 30
0.0
 11
315.52093
 21
356.815966
 31
0.0
  0
LINE
  5
61E
330
5FD
100
AcDbEntity
  8
LC-005-005-----0
 62
     7
370
    25
100
AcDbLine
 10
314.590625
 20
356.451347
 30
0.0
 11
314.955244
 21
356.815966
 31
0.0
  0
ENDBLK
  5
5FF
330
5FD
100
AcDbEntity
  8
0
100
AcDbBlockEnd
  0
BLOCK
  5
623
330
622
100
AcDbEntity
  8
0
100
AcDbBlockBegin
  2
*X870
 70
     1
 71
     0
 10
0.0
 20
0.0
 30
0.0
  3
*X870
  1

  4
*X8
  0
LINE
  5
625
330
622
100
AcDbEntity
  8
LC-005-005-----0
 62
     7
370
    25
100
AcDbLine
 10
344.567346
 20
343.435975
 30
0.0
 11
344.590625
 21
343.459254
 31
0.0
  0
LINE
  5
626
330
622
100
AcDbEntity
  8
LC-005-005-----0
 62
     7
370
    25
100
AcDbLine
 10
344.00166
 20
343.435975
 30
0.0
 11
344.590625
 21
344.02494
 31
0.0
  0
LINE
  5
627
330
622
100
AcDbEntity
  8
LC-005-005-----0
 62
     7
370
    25
100
AcDbLine
 10
343.435975
 20
343.435975
 30
0.0
 11
344.590625
 21
344.590625
 31
0.0
  0
LINE
  5
628
330
622
100
AcDbEntity
  8
LC-005-005-----0
 62
     7
370
    25
100
AcDbLine
 10
342.870289
 20
343.435975
 30
0.0
 11
344.590625
 21
345.156311
 31
0.0
  0
LINE
  5
629
330
622
100
AcDbEntity
  8
LC-005-005-----0
 62
     7
370
    25
100
AcDbLine
 10
342.304604
 20
343.435975
 30
0.0
 11
344.590625
 21
345.721996
 31
0.0
  0
LINE
  5
62A
330
622
100
AcDbEntity
  8
LC-005-005-----0
 62
     7
370
    25
100
AcDbLine
 10
341.738918
 20
343.435975
 30
0.0
 11
344.590625
 21
346.287682
 31
0.0
  0
LINE
  5
62B
330
622
100
AcDbEntity
  8
LC-005-005-----0
 62
     7
370
    25
100
AcDbLine
 10
341.173233
 20
343.435975
 30
0.0
 11
344.590625
 21
346.853367
 31
0.0
  0
LINE
  5
62C
330
622
100
AcDbEntity
  8
LC-005-005-----0
 62
     7
370
    25
100
AcDbLine
 10
340.689757
 20
343.518184
 30
0.0
 11
344.590625
 21
347.419052
 31
0.0
  0
LINE
  5
62D
330
622
100
AcDbEntity
  8
LC-005-005-----0
 62
     7
370
    25
100
AcDbLine
 10
340.275022
 20
343.669135
 30
0.0
 11
344.590625
 21
347.984738
 31
0.0
  0
LINE
  5
62E
330
622
100
AcDbEntity
  8
LC-005-005-----0
 62
     7
370
    25
100
AcDbLine
 10
339.860288
 20
343.820086
 30
0.0
 11
344.106176
 21
348.065974
 31
0.0
  0
LINE
  5
62F
330
622
100
AcDbEntity
  8
LC-005-005-----0
 62
     7
370
    25
100
AcDbLine
 10
339.445553
 20
343.971037
 30
0.0
 11
343.540491
 21
348.065974
 31
0.0
  0
LINE
  5
630
330
622
100
AcDbEntity
  8
LC-005-005-----0
 62
     7
370
    25
100
AcDbLine
 10
339.030819
 20
344.121988
 30
0.0
 11
342.974805
 21
348.065974
 31
0.0
  0
LINE
  5
631
330
622
100
AcDbEntity
  8
LC-005-005-----0
 62
     7
370
    25
100
AcDbLine
 10
338.616085
 20
344.272939
 30
0.0
 11
342.40912
 21
348.065974
 31
0.0
  0
LINE
  5
632
330
622
100
AcDbEntity
  8
LC-005-005-----0
 62
     7
370
    25
100
AcDbLine
 10
338.20135
 20
344.42389
 30
0.0
 11
341.843434
 21
348.065974
 31
0.0
  0
LINE
  5
633
330
622
100
AcDbEntity
  8
LC-005-005-----0
 62
     7
370
    25
100
AcDbLine
 10
337.786616
 20
344.574841
 30
0.0
 11
341.400934
 21
348.189159
 31
0.0
  0
LINE
  5
634
330
622
100
AcDbEntity
  8
LC-005-005-----0
 62
     7
370
    25
100
AcDbLine
 10
337.371881
 20
344.725792
 30
0.0
 11
340.986201
 21
348.340112
 31
0.0
  0
LINE
  5
635
330
622
100
AcDbEntity
  8
LC-005-005-----0
 62
     7
370
    25
100
AcDbLine
 10
336.957147
 20
344.876743
 30
0.0
 11
340.571469
 21
348.491065
 31
0.0
  0
LINE
  5
636
330
622
100
AcDbEntity
  8
LC-005-005-----0
 62
     7
370
    25
100
AcDbLine
 10
336.542412
 20
345.027694
 30
0.0
 11
340.156736
 21
348.642017
 31
0.0
  0
LINE
  5
637
330
622
100
AcDbEntity
  8
LC-005-005-----0
 62
     7
370
    25
100
AcDbLine
 10
336.127678
 20
345.178645
 30
0.0
 11
339.742004
 21
348.79297
 31
0.0
  0
LINE
  5
638
330
622
100
AcDbEntity
  8
LC-005-005-----0
 62
     7
370
    25
100
AcDbLine
 10
335.712943
 20
345.329596
 30
0.0
 11
339.327271
 21
348.943923
 31
0.0
  0
LINE
  5
639
330
622
100
AcDbEntity
  8
LC-005-005-----0
 62
     7
370
    25
100
AcDbLine
 10
335.298209
 20
345.480547
 30
0.0
 11
338.912538
 21
349.094876
 31
0.0
  0
LINE
  5
63A
330
622
100
AcDbEntity
  8
LC-005-005-----0
 62
     7
370
    25
100
AcDbLine
 10
334.883475
 20
345.631498
 30
0.0
 11
338.497806
 21
349.245829
 31
0.0
  0
LINE
  5
63B
330
622
100
AcDbEntity
  8
LC-005-005-----0
 62
     7
370
    25
100
AcDbLine
 10
334.590625
 20
345.904334
 30
0.0
 11
338.083073
 21
349.396782
 31
0.0
  0
LINE
  5
63C
330
622
100
AcDbEntity
  8
LC-005-005-----0
 62
     7
370
    25
100
AcDbLine
 10
334.590625
 20
346.470019
 30
0.0
 11
337.66834
 21
349.547734
 31
0.0
  0
LINE
  5
63D
330
622
100
AcDbEntity
  8
LC-005-005-----0
 62
     7
370
    25
100
AcDbLine
 10
334.590625
 20
347.035705
 30
0.0
 11
337.253608
 21
349.698687
 31
0.0
  0
LINE
  5
63E
330
622
100
AcDbEntity
  8
LC-005-005-----0
 62
     7
370
    25
100
AcDbLine
 10
334.590625
 20
347.60139
 30
0.0
 11
336.838875
 21
349.84964
 31
0.0
  0
LINE
  5
63F
330
622
100
AcDbEntity
  8
LC-005-005-----0
 62
     7
370
    25
100
AcDbLine
 10
334.590625
 20
348.167076
 30
0.0
 11
336.424143
 21
350.000593
 31
0.0
  0
LINE
  5
640
330
622
100
AcDbEntity
  8
LC-005-005-----0
 62
     7
370
    25
100
AcDbLine
 10
334.590625
 20
348.732761
 30
0.0
 11
336.00941
 21
350.151546
 31
0.0
  0
LINE
  5
641
330
622
100
AcDbEntity
  8
LC-005-005-----0
 62
     7
370
    25
100
AcDbLine
 10
334.590625
 20
349.298446
 30
0.0
 11
335.594677
 21
350.302499
 31
0.0
  0
LINE
  5
642
330
622
100
AcDbEntity
  8
LC-005-005-----0
 62
     7
370
    25
100
AcDbLine
 10
334.590625
 20
349.864132
 30
0.0
 11
335.179945
 21
350.453451
 31
0.0
  0
LINE
  5
643
330
622
100
AcDbEntity
  8
LC-005-005-----0
 62
     7
370
    25
100
AcDbLine
 10
334.590625
 20
350.429817
 30
0.0
 11
334.765212
 21
350.604404
 31
0.0
  0
ENDBLK
  5
624
330
622
100
AcDbEntity
  8
0
100
AcDbBlockEnd
  0
BLOCK
  5
650
330
64F
100
AcDbEntity
  8
0
100
AcDbBlockBegin
  2
*X971
 70
     1
 71
     0
 10
0.0
 20
0.0
 30
0.0
  3
*X971
  1

  4
*X9
  0
LINE
  5
652
330
64F
100
AcDbEntity
  8
LC-005-005-----0
 62
     7
370
    25
100
AcDbLine
 10
694.355658
 20
352.115976
 30
0.0
 11
694.590641
 21
352.350959
 31
0.0
  0
LINE
  5
653
330
64F
100
AcDbEntity
  8
LC-005-005-----0
 62
     7
370
    25
100
AcDbLine
 10
693.789972
 20
352.115976
 30
0.0
 11
694.590641
 21
352.916644
 31
0.0
  0
LINE
  5
654
330
64F
100
AcDbEntity
  8
LC-005-005-----0
 62
     7
370
    25
100
AcDbLine
 10
693.224287
 20
352.115976
 30
0.0
 11
694.590641
 21
353.48233
 31
0.0
  0
LINE
  5
655
330
64F
100
AcDbEntity
  8
LC-005-005-----0
 62
     7
370
    25
100
AcDbLine
 10
692.658601
 20
352.115976
 30
0.0
 11
694.590641
 21
354.048015
 31
0.0
  0
LINE
  5
656
330
64F
100
AcDbEntity
  8
LC-005-005-----0
 62
     7
370
    25
100
AcDbLine
 10
692.092916
 20
352.115976
 30
0.0
 11
694.590641
 21
354.6137
 31
0.0
  0
LINE
  5
657
330
64F
100
AcDbEntity
  8
LC-005-005-----0
 62
     7
370
    25
100
AcDbLine
 10
691.527231
 20
352.115976
 30
0.0
 11
694.590641
 21
355.179386
 31
0.0
  0
LINE
  5
658
330
64F
100
AcDbEntity
  8
LC-005-005-----0
 62
     7
370
    25
100
AcDbLine
 10
690.961545
 20
352.115976
 30
0.0
 11
694.590641
 21
355.745071
 31
0.0
  0
LINE
  5
659
330
64F
100
AcDbEntity
  8
LC-005-005-----0
 62
     7
370
    25
100
AcDbLine
 10
690.39586
 20
352.115976
 30
0.0
 11
694.590641
 21
356.310757
 31
0.0
  0
LINE
  5
65A
330
64F
100
AcDbEntity
  8
LC-005-005-----0
 62
     7
370
    25
100
AcDbLine
 10
689.830174
 20
352.115976
 30
0.0
 11
694.530174
 21
356.815976
 31
0.0
  0
LINE
  5
65B
330
64F
100
AcDbEntity
  8
LC-005-005-----0
 62
     7
370
    25
100
AcDbLine
 10
689.264489
 20
352.115976
 30
0.0
 11
693.964489
 21
356.815976
 31
0.0
  0
LINE
  5
65C
330
64F
100
AcDbEntity
  8
LC-005-005-----0
 62
     7
370
    25
100
AcDbLine
 10
688.698803
 20
352.115976
 30
0.0
 11
693.398803
 21
356.815976
 31
0.0
  0
LINE
  5
65D
330
64F
100
AcDbEntity
  8
LC-005-005-----0
 62
     7
370
    25
100
AcDbLine
 10
688.133118
 20
352.115976
 30
0.0
 11
692.833118
 21
356.815976
 31
0.0
  0
LINE
  5
65E
330
64F
100
AcDbEntity
  8
LC-005-005-----0
 62
     7
370
    25
100
AcDbLine
 10
687.567433
 20
352.115976
 30
0.0
 11
692.267433
 21
356.815976
 31
0.0
  0
LINE
  5
65F
330
64F
100
AcDbEntity
  8
LC-005-005-----0
 62
     7
370
    25
100
AcDbLine
 10
687.001747
 20
352.115976
 30
0.0
 11
691.701747
 21
356.815976
 31
0.0
  0
LINE
  5
660
330
64F
100
AcDbEntity
  8
LC-005-005-----0
 62
     7
370
    25
100
AcDbLine
 10
686.436062
 20
352.115976
 30
0.0
 11
691.136062
 21
356.815976
 31
0.0
  0
LINE
  5
661
330
64F
100
AcDbEntity
  8
LC-005-005-----0
 62
     7
370
    25
100
AcDbLine
 10
685.870376
 20
352.115976
 30
0.0
 11
690.570376
 21
356.815976
 31
0.0
  0
LINE
  5
662
330
64F
100
AcDbEntity
  8
LC-005-005-----0
 62
     7
370
    25
100
AcDbLine
 10
685.304691
 20
352.115976
 30
0.0
 11
690.004691
 21
356.815976
 31
0.0
  0
LINE
  5
663
330
64F
100
AcDbEntity
  8
LC-005-005-----0
 62
     7
370
    25
100
AcDbLine
 10
684.739005
 20
352.115976
 30
0.0
 11
689.439005
 21
356.815976
 31
0.0
  0
LINE
  5
664
330
64F
100
AcDbEntity
  8
LC-005-005-----0
 62
     7
370
    25
100
AcDbLine
 10
684.590641
 20
352.533296
 30
0.0
 11
688.87332
 21
356.815976
 31
0.0
  0
LINE
  5
665
330
64F
100
AcDbEntity
  8
LC-005-005-----0
 62
     7
370
    25
100
AcDbLine
 10
684.590641
 20
353.098982
 30
0.0
 11
688.307635
 21
356.815976
 31
0.0
  0
LINE
  5
666
330
64F
100
AcDbEntity
  8
LC-005-005-----0
 62
     7
370
    25
100
AcDbLine
 10
684.590641
 20
353.664667
 30
0.0
 11
687.741949
 21
356.815976
 31
0.0
  0
LINE
  5
667
330
64F
100
AcDbEntity
  8
LC-005-005-----0
 62
     7
370
    25
100
AcDbLine
 10
684.590641
 20
354.230353
 30
0.0
 11
687.176264
 21
356.815976
 31
0.0
  0
LINE
  5
668
330
64F
100
AcDbEntity
  8
LC-005-005-----0
 62
     7
370
    25
100
AcDbLine
 10
684.590641
 20
354.796038
 30
0.0
 11
686.610578
 21
356.815976
 31
0.0
  0
LINE
  5
669
330
64F
100
AcDbEntity
  8
LC-005-005-----0
 62
     7
370
    25
100
AcDbLine
 10
684.590641
 20
355.361723
 30
0.0
 11
686.044893
 21
356.815976
 31
0.0
  0
LINE
  5
66A
330
64F
100
AcDbEntity
  8
LC-005-005-----0
 62
     7
370
    25
100
AcDbLine
 10
684.590641
 20
355.927409
 30
0.0
 11
685.479208
 21
356.815976
 31
0.0
  0
LINE
  5
66B
330
64F
100
AcDbEntity
  8
LC-005-005-----0
 62
     7
370
    25
100
AcDbLine
 10
684.590641
 20
356.493094
 30
0.0
 11
684.913522
 21
356.815976
 31
0.0
  0
ENDBLK
  5
651
330
64F
100
AcDbEntity
  8
0
100
AcDbBlockEnd
  0
BLOCK
  5
66E
330
66D
100
AcDbEntity
  8
0
100
AcDbBlockBegin
  2
*X1072
 70
     1
 71
     0
 10
0.0
 20
0.0
 30
0.0
  3
*X1072
  1

  4
*X10
  0
LINE
  5
670
330
66D
100
AcDbEntity
  8
LC-005-005-----0
 62
     7
370
    25
100
AcDbLine
 10
674.556668
 20
352.115976
 30
0.0
 11
674.590641
 21
352.149949
 31
0.0
  0
LINE
  5
671
330
66D
100
AcDbEntity
  8
LC-005-005-----0
 62
     7
370
    25
100
AcDbLine
 10
673.990982
 20
352.115976
 30
0.0
 11
674.590641
 21
352.715634
 31
0.0
  0
LINE
  5
672
330
66D
100
AcDbEntity
  8
LC-005-005-----0
 62
     7
370
    25
100
AcDbLine
 10
673.425297
 20
352.115976
 30
0.0
 11
674.590641
 21
353.281319
 31
0.0
  0
LINE
  5
673
330
66D
100
AcDbEntity
  8
LC-005-005-----0
 62
     7
370
    25
100
AcDbLine
 10
672.859612
 20
352.115976
 30
0.0
 11
674.590641
 21
353.847005
 31
0.0
  0
LINE
  5
674
330
66D
100
AcDbEntity
  8
LC-005-005-----0
 62
     7
370
    25
100
AcDbLine
 10
672.293926
 20
352.115976
 30
0.0
 11
674.590641
 21
354.41269
 31
0.0
  0
LINE
  5
675
330
66D
100
AcDbEntity
  8
LC-005-005-----0
 62
     7
370
    25
100
AcDbLine
 10
671.728241
 20
352.115976
 30
0.0
 11
674.590641
 21
354.978376
 31
0.0
  0
LINE
  5
676
330
66D
100
AcDbEntity
  8
LC-005-005-----0
 62
     7
370
    25
100
AcDbLine
 10
671.162555
 20
352.115976
 30
0.0
 11
674.590641
 21
355.544061
 31
0.0
  0
LINE
  5
677
330
66D
100
AcDbEntity
  8
LC-005-005-----0
 62
     7
370
    25
100
AcDbLine
 10
670.59687
 20
352.115976
 30
0.0
 11
674.590641
 21
356.109747
 31
0.0
  0
LINE
  5
678
330
66D
100
AcDbEntity
  8
LC-005-005-----0
 62
     7
370
    25
100
AcDbLine
 10
670.031184
 20
352.115976
 30
0.0
 11
674.590641
 21
356.675432
 31
0.0
  0
LINE
  5
679
330
66D
100
AcDbEntity
  8
LC-005-005-----0
 62
     7
370
    25
100
AcDbLine
 10
669.465499
 20
352.115976
 30
0.0
 11
674.165499
 21
356.815976
 31
0.0
  0
LINE
  5
67A
330
66D
100
AcDbEntity
  8
LC-005-005-----0
 62
     7
370
    25
100
AcDbLine
 10
668.899814
 20
352.115976
 30
0.0
 11
673.599814
 21
356.815976
 31
0.0
  0
LINE
  5
67B
330
66D
100
AcDbEntity
  8
LC-005-005-----0
 62
     7
370
    25
100
AcDbLine
 10
668.334128
 20
352.115976
 30
0.0
 11
673.034128
 21
356.815976
 31
0.0
  0
LINE
  5
67C
330
66D
100
AcDbEntity
  8
LC-005-005-----0
 62
     7
370
    25
100
AcDbLine
 10
667.768443
 20
352.115976
 30
0.0
 11
672.468443
 21
356.815976
 31
0.0
  0
LINE
  5
67D
330
66D
100
AcDbEntity
  8
LC-005-005-----0
 62
     7
370
    25
100
AcDbLine
 10
667.202757
 20
352.115976
 30
0.0
 11
671.902757
 21
356.815976
 31
0.0
  0
LINE
  5
67E
330
66D
100
AcDbEntity
  8
LC-005-005-----0
 62
     7
370
    25
100
AcDbLine
 10
666.637072
 20
352.115976
 30
0.0
 11
671.337072
 21
356.815976
 31
0.0
  0
LINE
  5
67F
330
66D
100
AcDbEntity
  8
LC-005-005-----0
 62
     7
370
    25
100
AcDbLine
 10
666.071386
 20
352.115976
 30
0.0
 11
670.771386
 21
356.815976
 31
0.0
  0
LINE
  5
680
330
66D
100
AcDbEntity
  8
LC-005-005-----0
 62
     7
370
    25
100
AcDbLine
 10
665.505701
 20
352.115976
 30
0.0
 11
670.205701
 21
356.815976
 31
0.0
  0
LINE
  5
681
330
66D
100
AcDbEntity
  8
LC-005-005-----0
 62
     7
370
    25
100
AcDbLine
 10
664.940016
 20
352.115976
 30
0.0
 11
669.640016
 21
356.815976
 31
0.0
  0
LINE
  5
682
330
66D
100
AcDbEntity
  8
LC-005-005-----0
 62
     7
370
    25
100
AcDbLine
 10
664.590641
 20
352.332286
 30
0.0
 11
669.07433
 21
356.815976
 31
0.0
  0
LINE
  5
683
330
66D
100
AcDbEntity
  8
LC-005-005-----0
 62
     7
370
    25
100
AcDbLine
 10
664.590641
 20
352.897972
 30
0.0
 11
668.508645
 21
356.815976
 31
0.0
  0
LINE
  5
684
330
66D
100
AcDbEntity
  8
LC-005-005-----0
 62
     7
370
    25
100
AcDbLine
 10
664.590641
 20
353.463657
 30
0.0
 11
667.942959
 21
356.815976
 31
0.0
  0
LINE
  5
685
330
66D
100
AcDbEntity
  8
LC-005-005-----0
 62
     7
370
    25
100
AcDbLine
 10
664.590641
 20
354.029343
 30
0.0
 11
667.377274
 21
356.815976
 31
0.0
  0
LINE
  5
686
330
66D
100
AcDbEntity
  8
LC-005-005-----0
 62
     7
370
    25
100
AcDbLine
 10
664.590641
 20
354.595028
 30
0.0
 11
666.811588
 21
356.815976
 31
0.0
  0
LINE
  5
687
330
66D
100
AcDbEntity
  8
LC-005-005-----0
 62
     7
370
    25
100
AcDbLine
 10
664.590641
 20
355.160713
 30
0.0
 11
666.245903
 21
356.815976
 31
0.0
  0
LINE
  5
688
330
66D
100
AcDbEntity
  8
LC-005-005-----0
 62
     7
370
    25
100
AcDbLine
 10
664.590641
 20
355.726399
 30
0.0
 11
665.680218
 21
356.815976
 31
0.0
  0
LINE
  5
689
330
66D
100
AcDbEntity
  8
LC-005-005-----0
 62
     7
370
    25
100
AcDbLine
 10
664.590641
 20
356.292084
 30
0.0
 11
665.114532
 21
356.815976
 31
0.0
  0
ENDBLK
  5
66F
330
66D
100
AcDbEntity
  8
0
100
AcDbBlockEnd
  0
BLOCK
  5
68C
330
68B
100
AcDbEntity
  8
0
100
AcDbBlockBegin
  2
*X1173
 70
     1
 71
     0
 10
0.0
 20
0.0
 30
0.0
  3
*X1173
  1

  4
*X11
  0
LINE
  5
68E
330
68B
100
AcDbEntity
  8
LC-005-005-----0
 62
     7
370
    25
100
AcDbLine
 10
654.191993
 20
352.115976
 30
0.0
 11
654.590641
 21
352.514624
 31
0.0
  0
LINE
  5
68F
330
68B
100
AcDbEntity
  8
LC-005-005-----0
 62
     7
370
    25
100
AcDbLine
 10
653.626307
 20
352.115976
 30
0.0
 11
654.590641
 21
353.080309
 31
0.0
  0
LINE
  5
690
330
68B
100
AcDbEntity
  8
LC-005-005-----0
 62
     7
370
    25
100
AcDbLine
 10
653.060622
 20
352.115976
 30
0.0
 11
654.590641
 21
353.645995
 31
0.0
  0
LINE
  5
691
330
68B
100
AcDbEntity
  8
LC-005-005-----0
 62
     7
370
    25
100
AcDbLine
 10
652.494936
 20
352.115976
 30
0.0
 11
654.590641
 21
354.21168
 31
0.0
  0
LINE
  5
692
330
68B
100
AcDbEntity
  8
LC-005-005-----0
 62
     7
370
    25
100
AcDbLine
 10
651.929251
 20
352.115976
 30
0.0
 11
654.590641
 21
354.777366
 31
0.0
  0
LINE
  5
693
330
68B
100
AcDbEntity
  8
LC-005-005-----0
 62
     7
370
    25
100
AcDbLine
 10
651.363565
 20
352.115976
 30
0.0
 11
654.590641
 21
355.343051
 31
0.0
  0
LINE
  5
694
330
68B
100
AcDbEntity
  8
LC-005-005-----0
 62
     7
370
    25
100
AcDbLine
 10
650.79788
 20
352.115976
 30
0.0
 11
654.590641
 21
355.908736
 31
0.0
  0
LINE
  5
695
330
68B
100
AcDbEntity
  8
LC-005-005-----0
 62
     7
370
    25
100
AcDbLine
 10
650.232195
 20
352.115976
 30
0.0
 11
654.590641
 21
356.474422
 31
0.0
  0
LINE
  5
696
330
68B
100
AcDbEntity
  8
LC-005-005-----0
 62
     7
370
    25
100
AcDbLine
 10
649.666509
 20
352.115976
 30
0.0
 11
654.366509
 21
356.815976
 31
0.0
  0
LINE
  5
697
330
68B
100
AcDbEntity
  8
LC-005-005-----0
 62
     7
370
    25
100
AcDbLine
 10
649.100824
 20
352.115976
 30
0.0
 11
653.800824
 21
356.815976
 31
0.0
  0
LINE
  5
698
330
68B
100
AcDbEntity
  8
LC-005-005-----0
 62
     7
370
    25
100
AcDbLine
 10
648.535138
 20
352.115976
 30
0.0
 11
653.235138
 21
356.815976
 31
0.0
  0
LINE
  5
699
330
68B
100
AcDbEntity
  8
LC-005-005-----0
 62
     7
370
    25
100
AcDbLine
 10
647.969453
 20
352.115976
 30
0.0
 11
652.669453
 21
356.815976
 31
0.0
  0
LINE
  5
69A
330
68B
100
AcDbEntity
  8
LC-005-005-----0
 62
     7
370
    25
100
AcDbLine
 10
647.403767
 20
352.115976
 30
0.0
 11
652.103767
 21
356.815976
 31
0.0
  0
LINE
  5
69B
330
68B
100
AcDbEntity
  8
LC-005-005-----0
 62
     7
370
    25
100
AcDbLine
 10
646.838082
 20
352.115976
 30
0.0
 11
651.538082
 21
356.815976
 31
0.0
  0
LINE
  5
69C
330
68B
100
AcDbEntity
  8
LC-005-005-----0
 62
     7
370
    25
100
AcDbLine
 10
646.272397
 20
352.115976
 30
0.0
 11
650.972397
 21
356.815976
 31
0.0
  0
LINE
  5
69D
330
68B
100
AcDbEntity
  8
LC-005-005-----0
 62
     7
370
    25
100
AcDbLine
 10
645.706711
 20
352.115976
 30
0.0
 11
650.406711
 21
356.815976
 31
0.0
  0
LINE
  5
69E
330
68B
100
AcDbEntity
  8
LC-005-005-----0
 62
     7
370
    25
100
AcDbLine
 10
645.141026
 20
352.115976
 30
0.0
 11
649.841026
 21
356.815976
 31
0.0
  0
LINE
  5
69F
330
68B
100
AcDbEntity
  8
LC-005-005-----0
 62
     7
370
    25
100
AcDbLine
 10
644.590641
 20
352.131276
 30
0.0
 11
649.27534
 21
356.815976
 31
0.0
  0
LINE
  5
6A0
330
68B
100
AcDbEntity
  8
LC-005-005-----0
 62
     7
370
    25
100
AcDbLine
 10
644.590641
 20
352.696962
 30
0.0
 11
648.709655
 21
356.815976
 31
0.0
  0
LINE
  5
6A1
330
68B
100
AcDbEntity
  8
LC-005-005-----0
 62
     7
370
    25
100
AcDbLine
 10
644.590641
 20
353.262647
 30
0.0
 11
648.143969
 21
356.815976
 31
0.0
  0
LINE
  5
6A2
330
68B
100
AcDbEntity
  8
LC-005-005-----0
 62
     7
370
    25
100
AcDbLine
 10
644.590641
 20
353.828332
 30
0.0
 11
647.578284
 21
356.815976
 31
0.0
  0
LINE
  5
6A3
330
68B
100
AcDbEntity
  8
LC-005-005-----0
 62
     7
370
    25
100
AcDbLine
 10
644.590641
 20
354.394018
 30
0.0
 11
647.012599
 21
356.815976
 31
0.0
  0
LINE
  5
6A4
330
68B
100
AcDbEntity
  8
LC-005-005-----0
 62
     7
370
    25
100
AcDbLine
 10
644.590641
 20
354.959703
 30
0.0
 11
646.446913
 21
356.815976
 31
0.0
  0
LINE
  5
6A5
330
68B
100
AcDbEntity
  8
LC-005-005-----0
 62
     7
370
    25
100
AcDbLine
 10
644.590641
 20
355.525389
 30
0.0
 11
645.881228
 21
356.815976
 31
0.0
  0
LINE
  5
6A6
330
68B
100
AcDbEntity
  8
LC-005-005-----0
 62
     7
370
    25
100
AcDbLine
 10
644.590641
 20
356.091074
 30
0.0
 11
645.315542
 21
356.815976
 31
0.0
  0
LINE
  5
6A7
330
68B
100
AcDbEntity
  8
LC-005-005-----0
 62
     7
370
    25
100
AcDbLine
 10
644.590641
 20
356.65676
 30
0.0
 11
644.749857
 21
356.815976
 31
0.0
  0
ENDBLK
  5
68D
330
68B
100
AcDbEntity
  8
0
100
AcDbBlockEnd
  0
BLOCK
  5
6AA
330
6A9
100
AcDbEntity
  8
0
100
AcDbBlockBegin
  2
*X1274
 70
     1
 71
     0
 10
0.0
 20
0.0
 30
0.0
  3
*X1274
  1

  4
*X12
  0
LINE
  5
6AC
330
6A9
100
AcDbEntity
  8
LC-005-005-----0
 62
     7
370
    25
100
AcDbLine
 10
634.393003
 20
352.115976
 30
0.0
 11
634.590641
 21
352.313614
 31
0.0
  0
LINE
  5
6AD
330
6A9
100
AcDbEntity
  8
LC-005-005-----0
 62
     7
370
    25
100
AcDbLine
 10
633.827317
 20
352.115976
 30
0.0
 11
634.590641
 21
352.879299
 31
0.0
  0
LINE
  5
6AE
330
6A9
100
AcDbEntity
  8
LC-005-005-----0
 62
     7
370
    25
100
AcDbLine
 10
633.261632
 20
352.115976
 30
0.0
 11
634.590641
 21
353.444985
 31
0.0
  0
LINE
  5
6AF
330
6A9
100
AcDbEntity
  8
LC-005-005-----0
 62
     7
370
    25
100
AcDbLine
 10
632.695946
 20
352.115976
 30
0.0
 11
634.590641
 21
354.01067
 31
0.0
  0
LINE
  5
6B0
330
6A9
100
AcDbEntity
  8
LC-005-005-----0
 62
     7
370
    25
100
AcDbLine
 10
632.130261
 20
352.115976
 30
0.0
 11
634.590641
 21
354.576355
 31
0.0
  0
LINE
  5
6B1
330
6A9
100
AcDbEntity
  8
LC-005-005-----0
 62
     7
370
    25
100
AcDbLine
 10
631.564576
 20
352.115976
 30
0.0
 11
634.590641
 21
355.142041
 31
0.0
  0
LINE
  5
6B2
330
6A9
100
AcDbEntity
  8
LC-005-005-----0
 62
     7
370
    25
100
AcDbLine
 10
630.99889
 20
352.115976
 30
0.0
 11
634.590641
 21
355.707726
 31
0.0
  0
LINE
  5
6B3
330
6A9
100
AcDbEntity
  8
LC-005-005-----0
 62
     7
370
    25
100
AcDbLine
 10
630.433205
 20
352.115976
 30
0.0
 11
634.590641
 21
356.273412
 31
0.0
  0
LINE
  5
6B4
330
6A9
100
AcDbEntity
  8
LC-005-005-----0
 62
     7
370
    25
100
AcDbLine
 10
629.867519
 20
352.115976
 30
0.0
 11
634.567519
 21
356.815976
 31
0.0
  0
LINE
  5
6B5
330
6A9
100
AcDbEntity
  8
LC-005-005-----0
 62
     7
370
    25
100
AcDbLine
 10
629.301834
 20
352.115976
 30
0.0
 11
634.001834
 21
356.815976
 31
0.0
  0
LINE
  5
6B6
330
6A9
100
AcDbEntity
  8
LC-005-005-----0
 62
     7
370
    25
100
AcDbLine
 10
628.736148
 20
352.115976
 30
0.0
 11
633.436148
 21
356.815976
 31
0.0
  0
LINE
  5
6B7
330
6A9
100
AcDbEntity
  8
LC-005-005-----0
 62
     7
370
    25
100
AcDbLine
 10
628.170463
 20
352.115976
 30
0.0
 11
632.870463
 21
356.815976
 31
0.0
  0
LINE
  5
6B8
330
6A9
100
AcDbEntity
  8
LC-005-005-----0
 62
     7
370
    25
100
AcDbLine
 10
627.604778
 20
352.115976
 30
0.0
 11
632.304778
 21
356.815976
 31
0.0
  0
LINE
  5
6B9
330
6A9
100
AcDbEntity
  8
LC-005-005-----0
 62
     7
370
    25
100
AcDbLine
 10
627.039092
 20
352.115976
 30
0.0
 11
631.739092
 21
356.815976
 31
0.0
  0
LINE
  5
6BA
330
6A9
100
AcDbEntity
  8
LC-005-005-----0
 62
     7
370
    25
100
AcDbLine
 10
626.473407
 20
352.115976
 30
0.0
 11
631.173407
 21
356.815976
 31
0.0
  0
LINE
  5
6BB
330
6A9
100
AcDbEntity
  8
LC-005-005-----0
 62
     7
370
    25
100
AcDbLine
 10
625.907721
 20
352.115976
 30
0.0
 11
630.607721
 21
356.815976
 31
0.0
  0
LINE
  5
6BC
330
6A9
100
AcDbEntity
  8
LC-005-005-----0
 62
     7
370
    25
100
AcDbLine
 10
625.342036
 20
352.115976
 30
0.0
 11
630.042036
 21
356.815976
 31
0.0
  0
LINE
  5
6BD
330
6A9
100
AcDbEntity
  8
LC-005-005-----0
 62
     7
370
    25
100
AcDbLine
 10
624.77635
 20
352.115976
 30
0.0
 11
629.47635
 21
356.815976
 31
0.0
  0
LINE
  5
6BE
330
6A9
100
AcDbEntity
  8
LC-005-005-----0
 62
     7
370
    25
100
AcDbLine
 10
624.590641
 20
352.495951
 30
0.0
 11
628.910665
 21
356.815976
 31
0.0
  0
LINE
  5
6BF
330
6A9
100
AcDbEntity
  8
LC-005-005-----0
 62
     7
370
    25
100
AcDbLine
 10
624.590641
 20
353.061637
 30
0.0
 11
628.34498
 21
356.815976
 31
0.0
  0
LINE
  5
6C0
330
6A9
100
AcDbEntity
  8
LC-005-005-----0
 62
     7
370
    25
100
AcDbLine
 10
624.590641
 20
353.627322
 30
0.0
 11
627.779294
 21
356.815976
 31
0.0
  0
LINE
  5
6C1
330
6A9
100
AcDbEntity
  8
LC-005-005-----0
 62
     7
370
    25
100
AcDbLine
 10
624.590641
 20
354.193008
 30
0.0
 11
627.213609
 21
356.815976
 31
0.0
  0
LINE
  5
6C2
330
6A9
100
AcDbEntity
  8
LC-005-005-----0
 62
     7
370
    25
100
AcDbLine
 10
624.590641
 20
354.758693
 30
0.0
 11
626.647923
 21
356.815976
 31
0.0
  0
LINE
  5
6C3
330
6A9
100
AcDbEntity
  8
LC-005-005-----0
 62
     7
370
    25
100
AcDbLine
 10
624.590641
 20
355.324379
 30
0.0
 11
626.082238
 21
356.815976
 31
0.0
  0
LINE
  5
6C4
330
6A9
100
AcDbEntity
  8
LC-005-005-----0
 62
     7
370
    25
100
AcDbLine
 10
624.590641
 20
355.890064
 30
0.0
 11
625.516552
 21
356.815976
 31
0.0
  0
LINE
  5
6C5
330
6A9
100
AcDbEntity
  8
LC-005-005-----0
 62
     7
370
    25
100
AcDbLine
 10
624.590641
 20
356.455749
 30
0.0
 11
624.950867
 21
356.815976
 31
0.0
  0
ENDBLK
  5
6AB
330
6A9
100
AcDbEntity
  8
0
100
AcDbBlockEnd
  0
BLOCK
  5
6C8
330
6C7
100
AcDbEntity
  8
0
100
AcDbBlockBegin
  2
*X1375
 70
     1
 71
     0
 10
0.0
 20
0.0
 30
0.0
  3
*X1375
  1

  4
*X13
  0
LINE
  5
6CA
330
6C7
100
AcDbEntity
  8
LC-005-005-----0
 62
     7
370
    25
100
AcDbLine
 10
614.028327
 20
352.115976
 30
0.0
 11
614.590641
 21
352.678289
 31
0.0
  0
LINE
  5
6CB
330
6C7
100
AcDbEntity
  8
LC-005-005-----0
 62
     7
370
    25
100
AcDbLine
 10
613.462642
 20
352.115976
 30
0.0
 11
614.590641
 21
353.243974
 31
0.0
  0
LINE
  5
6CC
330
6C7
100
AcDbEntity
  8
LC-005-005-----0
 62
     7
370
    25
100
AcDbLine
 10
612.896957
 20
352.115976
 30
0.0
 11
614.590641
 21
353.80966
 31
0.0
  0
LINE
  5
6CD
330
6C7
100
AcDbEntity
  8
LC-005-005-----0
 62
     7
370
    25
100
AcDbLine
 10
612.331271
 20
352.115976
 30
0.0
 11
614.590641
 21
354.375345
 31
0.0
  0
LINE
  5
6CE
330
6C7
100
AcDbEntity
  8
LC-005-005-----0
 62
     7
370
    25
100
AcDbLine
 10
611.765586
 20
352.115976
 30
0.0
 11
614.590641
 21
354.941031
 31
0.0
  0
LINE
  5
6CF
330
6C7
100
AcDbEntity
  8
LC-005-005-----0
 62
     7
370
    25
100
AcDbLine
 10
611.1999
 20
352.115976
 30
0.0
 11
614.590641
 21
355.506716
 31
0.0
  0
LINE
  5
6D0
330
6C7
100
AcDbEntity
  8
LC-005-005-----0
 62
     7
370
    25
100
AcDbLine
 10
610.634215
 20
352.115976
 30
0.0
 11
614.590641
 21
356.072402
 31
0.0
  0
LINE
  5
6D1
330
6C7
100
AcDbEntity
  8
LC-005-005-----0
 62
     7
370
    25
100
AcDbLine
 10
610.068529
 20
352.115976
 30
0.0
 11
614.590641
 21
356.638087
 31
0.0
  0
LINE
  5
6D2
330
6C7
100
AcDbEntity
  8
LC-005-005-----0
 62
     7
370
    25
100
AcDbLine
 10
609.502844
 20
352.115976
 30
0.0
 11
614.202844
 21
356.815976
 31
0.0
  0
LINE
  5
6D3
330
6C7
100
AcDbEntity
  8
LC-005-005-----0
 62
     7
370
    25
100
AcDbLine
 10
608.937159
 20
352.115976
 30
0.0
 11
613.637159
 21
356.815976
 31
0.0
  0
LINE
  5
6D4
330
6C7
100
AcDbEntity
  8
LC-005-005-----0
 62
     7
370
    25
100
AcDbLine
 10
608.371473
 20
352.115976
 30
0.0
 11
613.071473
 21
356.815976
 31
0.0
  0
LINE
  5
6D5
330
6C7
100
AcDbEntity
  8
LC-005-005-----0
 62
     7
370
    25
100
AcDbLine
 10
607.805788
 20
352.115976
 30
0.0
 11
612.505788
 21
356.815976
 31
0.0
  0
LINE
  5
6D6
330
6C7
100
AcDbEntity
  8
LC-005-005-----0
 62
     7
370
    25
100
AcDbLine
 10
607.240102
 20
352.115976
 30
0.0
 11
611.940102
 21
356.815976
 31
0.0
  0
LINE
  5
6D7
330
6C7
100
AcDbEntity
  8
LC-005-005-----0
 62
     7
370
    25
100
AcDbLine
 10
606.674417
 20
352.115976
 30
0.0
 11
611.374417
 21
356.815976
 31
0.0
  0
LINE
  5
6D8
330
6C7
100
AcDbEntity
  8
LC-005-005-----0
 62
     7
370
    25
100
AcDbLine
 10
606.108731
 20
352.115976
 30
0.0
 11
610.808731
 21
356.815976
 31
0.0
  0
LINE
  5
6D9
330
6C7
100
AcDbEntity
  8
LC-005-005-----0
 62
     7
370
    25
100
AcDbLine
 10
605.543046
 20
352.115976
 30
0.0
 11
610.243046
 21
356.815976
 31
0.0
  0
LINE
  5
6DA
330
6C7
100
AcDbEntity
  8
LC-005-005-----0
 62
     7
370
    25
100
AcDbLine
 10
604.977361
 20
352.115976
 30
0.0
 11
609.677361
 21
356.815976
 31
0.0
  0
LINE
  5
6DB
330
6C7
100
AcDbEntity
  8
LC-005-005-----0
 62
     7
370
    25
100
AcDbLine
 10
604.590641
 20
352.294941
 30
0.0
 11
609.111675
 21
356.815976
 31
0.0
  0
LINE
  5
6DC
330
6C7
100
AcDbEntity
  8
LC-005-005-----0
 62
     7
370
    25
100
AcDbLine
 10
604.590641
 20
352.860627
 30
0.0
 11
608.54599
 21
356.815976
 31
0.0
  0
LINE
  5
6DD
330
6C7
100
AcDbEntity
  8
LC-005-005-----0
 62
     7
370
    25
100
AcDbLine
 10
604.590641
 20
353.426312
 30
0.0
 11
607.980304
 21
356.815976
 31
0.0
  0
LINE
  5
6DE
330
6C7
100
AcDbEntity
  8
LC-005-005-----0
 62
     7
370
    25
100
AcDbLine
 10
604.590641
 20
353.991998
 30
0.0
 11
607.414619
 21
356.815976
 31
0.0
  0
LINE
  5
6DF
330
6C7
100
AcDbEntity
  8
LC-005-005-----0
 62
     7
370
    25
100
AcDbLine
 10
604.590641
 20
354.557683
 30
0.0
 11
606.848933
 21
356.815976
 31
0.0
  0
LINE
  5
6E0
330
6C7
100
AcDbEntity
  8
LC-005-005-----0
 62
     7
370
    25
100
AcDbLine
 10
604.590641
 20
355.123368
 30
0.0
 11
606.283248
 21
356.815976
 31
0.0
  0
LINE
  5
6E1
330
6C7
100
AcDbEntity
  8
LC-005-005-----0
 62
     7
370
    25
100
AcDbLine
 10
604.590641
 20
355.689054
 30
0.0
 11
605.717563
 21
356.815976
 31
0.0
  0
LINE
  5
6E2
330
6C7
100
AcDbEntity
  8
LC-005-005-----0
 62
     7
370
    25
100
AcDbLine
 10
604.590641
 20
356.254739
 30
0.0
 11
605.151877
 21
356.815976
 31
0.0
  0
ENDBLK
  5
6C9
330
6C7
100
AcDbEntity
  8
0
100
AcDbBlockEnd
  0
BLOCK
  5
6E7
330
6E6
100
AcDbEntity
  8
0
100
AcDbBlockBegin
  2
*X1476
 70
     1
 71
     0
 10
0.0
 20
0.0
 30
0.0
  3
*X1476
  1

  4
*X14
  0
LINE
  5
6E9
330
6E6
100
AcDbEntity
  8
LC-005-005-----0
 62
     7
370
    25
100
AcDbLine
 10
594.229337
 20
352.115976
 30
0.0
 11
594.590641
 21
352.477279
 31
0.0
  0
LINE
  5
6EA
330
6E6
100
AcDbEntity
  8
LC-005-005-----0
 62
     7
370
    25
100
AcDbLine
 10
593.663652
 20
352.115976
 30
0.0
 11
594.590641
 21
353.042964
 31
0.0
  0
LINE
  5
6EB
330
6E6
100
AcDbEntity
  8
LC-005-005-----0
 62
     7
370
    25
100
AcDbLine
 10
593.097967
 20
352.115976
 30
0.0
 11
594.590641
 21
353.60865
 31
0.0
  0
LINE
  5
6EC
330
6E6
100
AcDbEntity
  8
LC-005-005-----0
 62
     7
370
    25
100
AcDbLine
 10
592.532281
 20
352.115976
 30
0.0
 11
594.590641
 21
354.174335
 31
0.0
  0
LINE
  5
6ED
330
6E6
100
AcDbEntity
  8
LC-005-005-----0
 62
     7
370
    25
100
AcDbLine
 10
591.966596
 20
352.115976
 30
0.0
 11
594.590641
 21
354.740021
 31
0.0
  0
LINE
  5
6EE
330
6E6
100
AcDbEntity
  8
LC-005-005-----0
 62
     7
370
    25
100
AcDbLine
 10
591.40091
 20
352.115976
 30
0.0
 11
594.590641
 21
355.305706
 31
0.0
  0
LINE
  5
6EF
330
6E6
100
AcDbEntity
  8
LC-005-005-----0
 62
     7
370
    25
100
AcDbLine
 10
590.835225
 20
352.115976
 30
0.0
 11
594.590641
 21
355.871391
 31
0.0
  0
LINE
  5
6F0
330
6E6
100
AcDbEntity
  8
LC-005-005-----0
 62
     7
370
    25
100
AcDbLine
 10
590.26954
 20
352.115976
 30
0.0
 11
594.590641
 21
356.437077
 31
0.0
  0
LINE
  5
6F1
330
6E6
100
AcDbEntity
  8
LC-005-005-----0
 62
     7
370
    25
100
AcDbLine
 10
589.703854
 20
352.115976
 30
0.0
 11
594.403854
 21
356.815976
 31
0.0
  0
LINE
  5
6F2
330
6E6
100
AcDbEntity
  8
LC-005-005-----0
 62
     7
370
    25
100
AcDbLine
 10
589.138169
 20
352.115976
 30
0.0
 11
593.838169
 21
356.815976
 31
0.0
  0
LINE
  5
6F3
330
6E6
100
AcDbEntity
  8
LC-005-005-----0
 62
     7
370
    25
100
AcDbLine
 10
588.572483
 20
352.115976
 30
0.0
 11
593.272483
 21
356.815976
 31
0.0
  0
LINE
  5
6F4
330
6E6
100
AcDbEntity
  8
LC-005-005-----0
 62
     7
370
    25
100
AcDbLine
 10
588.006798
 20
352.115976
 30
0.0
 11
592.706798
 21
356.815976
 31
0.0
  0
LINE
  5
6F5
330
6E6
100
AcDbEntity
  8
LC-005-005-----0
 62
     7
370
    25
100
AcDbLine
 10
587.441112
 20
352.115976
 30
0.0
 11
592.141112
 21
356.815976
 31
0.0
  0
LINE
  5
6F6
330
6E6
100
AcDbEntity
  8
LC-005-005-----0
 62
     7
370
    25
100
AcDbLine
 10
586.875427
 20
352.115976
 30
0.0
 11
591.575427
 21
356.815976
 31
0.0
  0
LINE
  5
6F7
330
6E6
100
AcDbEntity
  8
LC-005-005-----0
 62
     7
370
    25
100
AcDbLine
 10
586.309742
 20
352.115976
 30
0.0
 11
591.009742
 21
356.815976
 31
0.0
  0
LINE
  5
6F8
330
6E6
100
AcDbEntity
  8
LC-005-005-----0
 62
     7
370
    25
100
AcDbLine
 10
585.744056
 20
352.115976
 30
0.0
 11
590.444056
 21
356.815976
 31
0.0
  0
LINE
  5
6F9
330
6E6
100
AcDbEntity
  8
LC-005-005-----0
 62
     7
370
    25
100
AcDbLine
 10
585.178371
 20
352.115976
 30
0.0
 11
589.878371
 21
356.815976
 31
0.0
  0
LINE
  5
6FA
330
6E6
100
AcDbEntity
  8
LC-005-005-----0
 62
     7
370
    25
100
AcDbLine
 10
584.612685
 20
352.115976
 30
0.0
 11
589.312685
 21
356.815976
 31
0.0
  0
LINE
  5
6FB
330
6E6
100
AcDbEntity
  8
LC-005-005-----0
 62
     7
370
    25
100
AcDbLine
 10
584.590641
 20
352.659617
 30
0.0
 11
588.747
 21
356.815976
 31
0.0
  0
LINE
  5
6FC
330
6E6
100
AcDbEntity
  8
LC-005-005-----0
 62
     7
370
    25
100
AcDbLine
 10
584.590641
 20
353.225302
 30
0.0
 11
588.181314
 21
356.815976
 31
0.0
  0
LINE
  5
6FD
330
6E6
100
AcDbEntity
  8
LC-005-005-----0
 62
     7
370
    25
100
AcDbLine
 10
584.590641
 20
353.790987
 30
0.0
 11
587.615629
 21
356.815976
 31
0.0
  0
LINE
  5
6FE
330
6E6
100
AcDbEntity
  8
LC-005-005-----0
 62
     7
370
    25
100
AcDbLine
 10
584.590641
 20
354.356673
 30
0.0
 11
587.049944
 21
356.815976
 31
0.0
  0
LINE
  5
6FF
330
6E6
100
AcDbEntity
  8
LC-005-005-----0
 62
     7
370
    25
100
AcDbLine
 10
584.590641
 20
354.922358
 30
0.0
 11
586.484258
 21
356.815976
 31
0.0
  0
LINE
  5
700
330
6E6
100
AcDbEntity
  8
LC-005-005-----0
 62
     7
370
    25
100
AcDbLine
 10
584.590641
 20
355.488044
 30
0.0
 11
585.918573
 21
356.815976
 31
0.0
  0
LINE
  5
701
330
6E6
100
AcDbEntity
  8
LC-005-005-----0
 62
     7
370
    25
100
AcDbLine
 10
584.590641
 20
356.053729
 30
0.0
 11
585.352887
 21
356.815976
 31
0.0
  0
LINE
  5
702
330
6E6
100
AcDbEntity
  8
LC-005-005-----0
 62
     7
370
    25
100
AcDbLine
 10
584.590641
 20
356.619415
 30
0.0
 11
584.787202
 21
356.815976
 31
0.0
  0
ENDBLK
  5
6E8
330
6E6
100
AcDbEntity
  8
0
100
AcDbBlockEnd
  0
BLOCK
  5
706
330
705
100
AcDbEntity
  8
0
100
AcDbBlockBegin
  2
*X1577
 70
     1
 71
     0
 10
0.0
 20
0.0
 30
0.0
  3
*X1577
  1

  4
*X15
  0
LINE
  5
708
330
705
100
AcDbEntity
  8
LC-005-005-----0
 62
     7
370
    25
100
AcDbLine
 10
574.430348
 20
352.115976
 30
0.0
 11
574.590641
 21
352.276269
 31
0.0
  0
LINE
  5
709
330
705
100
AcDbEntity
  8
LC-005-005-----0
 62
     7
370
    25
100
AcDbLine
 10
573.864662
 20
352.115976
 30
0.0
 11
574.590641
 21
352.841954
 31
0.0
  0
LINE
  5
70A
330
705
100
AcDbEntity
  8
LC-005-005-----0
 62
     7
370
    25
100
AcDbLine
 10
573.298977
 20
352.115976
 30
0.0
 11
574.590641
 21
353.40764
 31
0.0
  0
LINE
  5
70B
330
705
100
AcDbEntity
  8
LC-005-005-----0
 62
     7
370
    25
100
AcDbLine
 10
572.733291
 20
352.115976
 30
0.0
 11
574.590641
 21
353.973325
 31
0.0
  0
LINE
  5
70C
330
705
100
AcDbEntity
  8
LC-005-005-----0
 62
     7
370
    25
100
AcDbLine
 10
572.167606
 20
352.115976
 30
0.0
 11
574.590641
 21
354.539011
 31
0.0
  0
LINE
  5
70D
330
705
100
AcDbEntity
  8
LC-005-005-----0
 62
     7
370
    25
100
AcDbLine
 10
571.309024
 20
351.823079
 30
0.0
 11
574.590641
 21
355.104696
 31
0.0
  0
LINE
  5
70E
330
705
100
AcDbEntity
  8
LC-005-005-----0
 62
     7
370
    25
100
AcDbLine
 10
570.419623
 20
351.499364
 30
0.0
 11
574.590641
 21
355.670381
 31
0.0
  0
LINE
  5
70F
330
705
100
AcDbEntity
  8
LC-005-005-----0
 62
     7
370
    25
100
AcDbLine
 10
569.530223
 20
351.175649
 30
0.0
 11
574.590641
 21
356.236067
 31
0.0
  0
LINE
  5
710
330
705
100
AcDbEntity
  8
LC-005-005-----0
 62
     7
370
    25
100
AcDbLine
 10
568.640822
 20
350.851933
 30
0.0
 11
574.590641
 21
356.801752
 31
0.0
  0
LINE
  5
711
330
705
100
AcDbEntity
  8
LC-005-005-----0
 62
     7
370
    25
100
AcDbLine
 10
567.751421
 20
350.528218
 30
0.0
 11
574.039169
 21
356.815966
 31
0.0
  0
LINE
  5
712
330
705
100
AcDbEntity
  8
LC-005-005-----0
 62
     7
370
    25
100
AcDbLine
 10
566.86202
 20
350.204502
 30
0.0
 11
573.473484
 21
356.815966
 31
0.0
  0
LINE
  5
713
330
705
100
AcDbEntity
  8
LC-005-005-----0
 62
     7
370
    25
100
AcDbLine
 10
565.972619
 20
349.880787
 30
0.0
 11
572.907798
 21
356.815966
 31
0.0
  0
LINE
  5
714
330
705
100
AcDbEntity
  8
LC-005-005-----0
 62
     7
370
    25
100
AcDbLine
 10
565.083219
 20
349.557072
 30
0.0
 11
572.342113
 21
356.815966
 31
0.0
  0
LINE
  5
715
330
705
100
AcDbEntity
  8
LC-005-005-----0
 62
     7
370
    25
100
AcDbLine
 10
564.590641
 20
349.630179
 30
0.0
 11
571.776427
 21
356.815966
 31
0.0
  0
LINE
  5
716
330
705
100
AcDbEntity
  8
LC-005-005-----0
 62
     7
370
    25
100
AcDbLine
 10
564.590641
 20
350.195865
 30
0.0
 11
571.055569
 21
356.660793
 31
0.0
  0
LINE
  5
717
330
705
100
AcDbEntity
  8
LC-005-005-----0
 62
     7
370
    25
100
AcDbLine
 10
564.590641
 20
350.76155
 30
0.0
 11
570.166159
 21
356.337069
 31
0.0
  0
LINE
  5
718
330
705
100
AcDbEntity
  8
LC-005-005-----0
 62
     7
370
    25
100
AcDbLine
 10
564.590641
 20
351.327236
 30
0.0
 11
569.27675
 21
356.013345
 31
0.0
  0
LINE
  5
719
330
705
100
AcDbEntity
  8
LC-005-005-----0
 62
     7
370
    25
100
AcDbLine
 10
564.590641
 20
351.892921
 30
0.0
 11
567.427221
 21
354.729501
 31
0.0
  0
LINE
  5
71A
330
705
100
AcDbEntity
  8
LC-005-005-----0
 62
     7
370
    25
100
AcDbLine
 10
564.590641
 20
352.458606
 30
0.0
 11
566.708307
 21
354.576272
 31
0.0
  0
LINE
  5
71B
330
705
100
AcDbEntity
  8
LC-005-005-----0
 62
     7
370
    25
100
AcDbLine
 10
564.590641
 20
353.024292
 30
0.0
 11
566.076183
 21
354.509834
 31
0.0
  0
LINE
  5
71C
330
705
100
AcDbEntity
  8
LC-005-005-----0
 62
     7
370
    25
100
AcDbLine
 10
564.590641
 20
353.589977
 30
0.0
 11
565.444059
 21
354.443395
 31
0.0
  0
LINE
  5
71D
330
705
100
AcDbEntity
  8
LC-005-005-----0
 62
     7
370
    25
100
AcDbLine
 10
564.590641
 20
354.155663
 30
0.0
 11
564.811935
 21
354.376956
 31
0.0
  0
ENDBLK
  5
707
330
705
100
AcDbEntity
  8
0
100
AcDbBlockEnd
  0
BLOCK
  5
722
330
721
100
AcDbEntity
  8
0
100
AcDbBlockBegin
  2
*X1678
 70
     1
 71
     0
 10
0.0
 20
0.0
 30
0.0
  3
*X1678
  1

  4
*X16
  0
LINE
  5
724
330
721
100
AcDbEntity
  8
LC-005-005-----0
 62
     7
370
    25
100
AcDbLine
 10
554.410409
 20
345.672487
 30
0.0
 11
554.590641
 21
345.852719
 31
0.0
  0
LINE
  5
725
330
721
100
AcDbEntity
  8
LC-005-005-----0
 62
     7
370
    25
100
AcDbLine
 10
553.521008
 20
345.348772
 30
0.0
 11
554.590641
 21
346.418404
 31
0.0
  0
LINE
  5
726
330
721
100
AcDbEntity
  8
LC-005-005-----0
 62
     7
370
    25
100
AcDbLine
 10
552.631607
 20
345.025056
 30
0.0
 11
554.590641
 21
346.98409
 31
0.0
  0
LINE
  5
727
330
721
100
AcDbEntity
  8
LC-005-005-----0
 62
     7
370
    25
100
AcDbLine
 10
551.742206
 20
344.701341
 30
0.0
 11
554.590641
 21
347.549775
 31
0.0
  0
LINE
  5
728
330
721
100
AcDbEntity
  8
LC-005-005-----0
 62
     7
370
    25
100
AcDbLine
 10
550.852806
 20
344.377625
 30
0.0
 11
554.590641
 21
348.115461
 31
0.0
  0
LINE
  5
729
330
721
100
AcDbEntity
  8
LC-005-005-----0
 62
     7
370
    25
100
AcDbLine
 10
549.963405
 20
344.05391
 30
0.0
 11
554.590641
 21
348.681146
 31
0.0
  0
LINE
  5
72A
330
721
100
AcDbEntity
  8
LC-005-005-----0
 62
     7
370
    25
100
AcDbLine
 10
549.074004
 20
343.730195
 30
0.0
 11
554.590641
 21
349.246832
 31
0.0
  0
LINE
  5
72B
330
721
100
AcDbEntity
  8
LC-005-005-----0
 62
     7
370
    25
100
AcDbLine
 10
548.214099
 20
343.435975
 30
0.0
 11
554.590641
 21
349.812517
 31
0.0
  0
LINE
  5
72C
330
721
100
AcDbEntity
  8
LC-005-005-----0
 62
     7
370
    25
100
AcDbLine
 10
547.648413
 20
343.435975
 30
0.0
 11
554.590641
 21
350.378202
 31
0.0
  0
LINE
  5
72D
330
721
100
AcDbEntity
  8
LC-005-005-----0
 62
     7
370
    25
100
AcDbLine
 10
547.082728
 20
343.435975
 30
0.0
 11
554.156792
 21
350.510039
 31
0.0
  0
LINE
  5
72E
330
721
100
AcDbEntity
  8
LC-005-005-----0
 62
     7
370
    25
100
AcDbLine
 10
546.517042
 20
343.435975
 30
0.0
 11
553.267383
 21
350.186315
 31
0.0
  0
LINE
  5
72F
330
721
100
AcDbEntity
  8
LC-005-005-----0
 62
     7
370
    25
100
AcDbLine
 10
545.951357
 20
343.435975
 30
0.0
 11
552.377973
 21
349.862591
 31
0.0
  0
LINE
  5
730
330
721
100
AcDbEntity
  8
LC-005-005-----0
 62
     7
370
    25
100
AcDbLine
 10
545.385671
 20
343.435975
 30
0.0
 11
551.488564
 21
349.538867
 31
0.0
  0
LINE
  5
731
330
721
100
AcDbEntity
  8
LC-005-005-----0
 62
     7
370
    25
100
AcDbLine
 10
544.819986
 20
343.435975
 30
0.0
 11
550.599155
 21
349.215144
 31
0.0
  0
LINE
  5
732
330
721
100
AcDbEntity
  8
LC-005-005-----0
 62
     7
370
    25
100
AcDbLine
 10
544.590641
 20
343.772315
 30
0.0
 11
549.709746
 21
348.89142
 31
0.0
  0
LINE
  5
733
330
721
100
AcDbEntity
  8
LC-005-005-----0
 62
     7
370
    25
100
AcDbLine
 10
544.590641
 20
344.338
 30
0.0
 11
548.820336
 21
348.567696
 31
0.0
  0
LINE
  5
734
330
721
100
AcDbEntity
  8
LC-005-005-----0
 62
     7
370
    25
100
AcDbLine
 10
544.590641
 20
344.903686
 30
0.0
 11
547.930927
 21
348.243972
 31
0.0
  0
LINE
  5
735
330
721
100
AcDbEntity
  8
LC-005-005-----0
 62
     7
370
    25
100
AcDbLine
 10
544.590641
 20
345.469371
 30
0.0
 11
547.187244
 21
348.065974
 31
0.0
  0
LINE
  5
736
330
721
100
AcDbEntity
  8
LC-005-005-----0
 62
     7
370
    25
100
AcDbLine
 10
544.590641
 20
346.035057
 30
0.0
 11
546.621558
 21
348.065974
 31
0.0
  0
LINE
  5
737
330
721
100
AcDbEntity
  8
LC-005-005-----0
 62
     7
370
    25
100
AcDbLine
 10
544.590641
 20
346.600742
 30
0.0
 11
546.055873
 21
348.065974
 31
0.0
  0
LINE
  5
738
330
721
100
AcDbEntity
  8
LC-005-005-----0
 62
     7
370
    25
100
AcDbLine
 10
544.590641
 20
347.166428
 30
0.0
 11
545.490187
 21
348.065974
 31
0.0
  0
LINE
  5
739
330
721
100
AcDbEntity
  8
LC-005-005-----0
 62
     7
370
    25
100
AcDbLine
 10
544.590641
 20
347.732113
 30
0.0
 11
544.924502
 21
348.065974
 31
0.0
  0
ENDBLK
  5
723
330
721
100
AcDbEntity
  8
0
100
AcDbBlockEnd
  0
ENDSEC
  0
SECTION
  2
ENTITIES
  0
INSERT
  5
3D
330
1F
100
AcDbEntity
  8
LC-001-100-D00-0
 62
     7
370
    50
100
AcDbBlockReference
  2
POLY1
 10
0.0
 20
0.0
 30
0.0
  0
INSERT
  5
49
330
1F
100
AcDbEntity
  8
LC-001-100-D00-0
 62
     7
370
    50
100
AcDbBlockReference
  2
POLY2
 10
0.0
 20
0.0
 30
0.0
  0
INSERT
  5
55
330
1F
100
AcDbEntity
  8
LC-001-100-D00-0
 62
     7
370
    50
100
AcDbBlockReference
  2
POLY3
 10
0.0
 20
0.0
 30
0.0
  0
INSERT
  5
61
330
1F
100
AcDbEntity
  8
LC-001-100-D00-0
 62
     7
370
    50
100
AcDbBlockReference
  2
POLY4
 10
0.0
 20
0.0
 30
0.0
  0
INSERT
  5
6D
330
1F
100
AcDbEntity
  8
LC-001-100-D00-0
 62
     7
370
    50
100
AcDbBlockReference
  2
POLY5
 10
0.0
 20
0.0
 30
0.0
  0
INSERT
  5
79
330
1F
100
AcDbEntity
  8
LC-001-100-D00-0
 62
     7
370
    50
100
AcDbBlockReference
  2
POLY6
 10
0.0
 20
0.0
 30
0.0
  0
INSERT
  5
85
330
1F
100
AcDbEntity
  8
LC-001-100-D00-0
 62
     7
370
    50
100
AcDbBlockReference
  2
POLY7
 10
0.0
 20
0.0
 30
0.0
  0
INSERT
  5
91
330
1F
100
AcDbEntity
  8
LC-001-100-D00-0
 62
     7
370
    50
100
AcDbBlockReference
  2
POLY8
 10
0.0
 20
0.0
 30
0.0
  0
INSERT
  5
9D
330
1F
100
AcDbEntity
  8
LC-001-100-D00-0
 62
     7
370
    50
100
AcDbBlockReference
  2
POLY9
 10
0.0
 20
0.0
 30
0.0
  0
INSERT
  5
A9
330
1F
100
AcDbEntity
  8
LC-001-100-D00-0
 62
     7
370
    50
100
AcDbBlockReference
  2
POLY10
 10
0.0
 20
0.0
 30
0.0
  0
LINE
  5
AA
330
1F
100
AcDbEntity
  8
LC-001-100-D00-0
 62
     7
370
    50
100
AcDbLine
 10
397.655372
 20
353.472354
 30
0.0
 11
397.655372
 21
353.459852
 31
0.0
  0
ARC
  5
AB
330
1F
100
AcDbEntity
  8
LC-001-100-D00-0
 62
     7
370
    50
100
AcDbCircle
 10
491.590633
 20
352.334853
 30
0.0
 40
6.820236432851901
100
AcDbArc
 50
116.493736
 51
123.008786
  0
ARC
  5
AC
330
1F
100
AcDbEntity
  8
LC-001-100-D00-0
 62
     7
370
    50
100
AcDbCircle
 10
488.637346
 20
358.259853
 30
0.0
 40
0.1999999999999318
100
AcDbArc
 50
90.0
 51
116.493736
  0
LINE
  5
AD
330
1F
100
AcDbEntity
  8
LC-001-100-D00-0
 62
     7
370
    50
100
AcDbLine
 10
521.090631
 20
244.695977
 30
0.0
 11
446.067319
 21
244.695977
 31
0.0
  0
LINE
  5
AE
330
1F
100
AcDbEntity
  8
LC-001-100-D00-0
 62
     7
370
    50
100
AcDbLine
 10
443.067319
 20
244.695977
 30
0.0
 11
368.090634
 21
244.695977
 31
0.0
  0
LINE
  5
AF
330
1F
100
AcDbEntity
  8
LC-001-100-D00-0
 62
     7
370
    50
100
AcDbLine
 10
521.090631
 20
244.695977
 30
0.0
 11
521.090631
 21
247.524404
 31
0.0
  0
LINE
  5
B0
330
1F
100
AcDbEntity
  8
LC-001-100-D00-0
 62
     7
370
    50
100
AcDbLine
 10
368.090634
 20
247.524404
 30
0.0
 11
368.090634
 21
244.695977
 31
0.0
  0
LINE
  5
B1
330
1F
100
AcDbEntity
  8
LC-001-100-D00-0
 62
     7
370
    50
100
AcDbLine
 10
376.340632
 20
255.774404
 30
0.0
 11
368.090634
 21
247.524404
 31
0.0
  0
LINE
  5
B2
330
1F
100
AcDbEntity
  8
LC-001-100-D00-0
 62
     7
370
    50
100
AcDbLine
 10
521.090631
 20
247.524404
 30
0.0
 11
512.840633
 21
255.774404
 31
0.0
  0
INSERT
  5
BE
330
1F
100
AcDbEntity
  8
LC-001-100-D00-0
 62
     7
370
    50
100
AcDbBlockReference
  2
POLY11
 10
0.0
 20
0.0
 30
0.0
  0
INSERT
  5
C4
330
1F
100
AcDbEntity
  8
LC-001-100-D00-0
 62
     7
370
    50
100
AcDbBlockReference
  2
KLON1
 10
0.0
 20
0.0
 30
0.0
  0
INSERT
  5
D0
330
1F
100
AcDbEntity
  8
LC-001-100-D00-0
 62
     7
370
    50
100
AcDbBlockReference
  2
POLY12
 10
0.0
 20
0.0
 30
0.0
  0
LINE
  5
D1
330
1F
100
AcDbEntity
  8
LC-001-100-D00-0
 62
     7
370
    50
100
AcDbLine
 10
519.675915
 20
246.110694
 30
0.0
 11
521.090631
 21
244.695977
 31
0.0
  0
LINE
  5
D2
330
1F
100
AcDbEntity
  8
LC-001-100-D00-0
 62
     7
370
    50
100
AcDbLine
 10
368.090634
 20
244.695977
 30
0.0
 11
369.50535
 21
246.110694
 31
0.0
  0
LINE
  5
D3
330
1F
100
AcDbEntity
  8
LC-001-100-D00-0
 62
     7
370
    50
100
AcDbLine
 10
369.512369
 20
246.103204
 30
0.0
 11
369.50535
 21
246.110694
 31
0.0
  0
LINE
  5
D4
330
1F
100
AcDbEntity
  8
LC-001-100-D00-0
 62
     7
370
    50
100
AcDbLine
 10
377.99063
 20
254.595977
 30
0.0
 11
380.340633
 21
256.945977
 31
0.0
  0
LINE
  5
D5
330
1F
100
AcDbEntity
  8
LC-001-100-D00-0
 62
     7
370
    50
100
AcDbLine
 10
508.840633
 20
256.945977
 30
0.0
 11
380.340633
 21
256.945977
 31
0.0
  0
LINE
  5
D6
330
1F
100
AcDbEntity
  8
LC-001-100-D00-0
 62
     7
370
    50
100
AcDbLine
 10
508.840633
 20
256.945977
 30
0.0
 11
511.190635
 21
254.595977
 31
0.0
  0
LINE
  5
D7
330
1F
100
AcDbEntity
  8
LC-001-100-D00-0
 62
     7
370
    50
100
AcDbLine
 10
512.840633
 20
255.774404
 30
0.0
 11
512.840633
 21
268.195977
 31
0.0
  0
LINE
  5
D8
330
1F
100
AcDbEntity
  8
LC-001-100-D00-0
 62
     7
370
    50
100
AcDbLine
 10
376.340632
 20
268.195977
 30
0.0
 11
376.340632
 21
255.774404
 31
0.0
  0
LINE
  5
D9
330
1F
100
AcDbEntity
  8
LC-001-100-D00-0
 62
     7
370
    50
100
AcDbLine
 10
512.590633
 20
268.195977
 30
0.0
 11
510.340632
 21
264.298863
 31
0.0
  0
LINE
  5
DA
330
1F
100
AcDbEntity
  8
LC-001-100-D00-0
 62
     7
370
    50
100
AcDbLine
 10
378.84063
 20
264.298863
 30
0.0
 11
376.590637
 21
268.195977
 31
0.0
  0
LINE
  5
DB
330
1F
100
AcDbEntity
  8
LC-001-100-D00-0
 62
     7
370
    50
100
AcDbLine
 10
512.590633
 20
268.195977
 30
0.0
 11
512.340632
 21
268.195977
 31
0.0
  0
LINE
  5
DC
330
1F
100
AcDbEntity
  8
LC-001-100-D00-0
 62
     7
370
    50
100
AcDbLine
 10
510.340632
 20
264.298863
 30
0.0
 11
510.340632
 21
258.195977
 31
0.0
  0
LINE
  5
DD
330
1F
100
AcDbEntity
  8
LC-001-100-D00-0
 62
     7
370
    50
100
AcDbLine
 10
378.84063
 20
258.195977
 30
0.0
 11
378.84063
 21
264.298863
 31
0.0
  0
LINE
  5
DE
330
1F
100
AcDbEntity
  8
LC-001-100-D00-0
 62
     7
370
    50
100
AcDbLine
 10
508.840633
 20
258.195977
 30
0.0
 11
508.840633
 21
256.945977
 31
0.0
  0
LINE
  5
DF
330
1F
100
AcDbEntity
  8
LC-001-100-D00-0
 62
     7
370
    50
100
AcDbLine
 10
380.340633
 20
256.945977
 30
0.0
 11
380.340633
 21
258.195977
 31
0.0
  0
LINE
  5
E0
330
1F
100
AcDbEntity
  8
LC-001-100-D00-0
 62
     7
370
    50
100
AcDbLine
 10
508.840633
 20
258.195977
 30
0.0
 11
380.340633
 21
258.195977
 31
0.0
  0
LINE
  5
E1
330
1F
100
AcDbEntity
  8
LC-001-100-D00-0
 62
     7
370
    50
100
AcDbLine
 10
377.99063
 20
254.595977
 30
0.0
 11
377.99063
 21
251.76755
 31
0.0
  0
LINE
  5
E2
330
1F
100
AcDbEntity
  8
LC-001-100-D00-0
 62
     7
370
    50
100
AcDbLine
 10
377.99063
 20
251.76755
 30
0.0
 11
370.91956
 21
244.696482
 31
0.0
  0
LINE
  5
E3
330
1F
100
AcDbEntity
  8
LC-001-100-D00-0
 62
     7
370
    50
100
AcDbLine
 10
370.91956
 20
244.696482
 30
0.0
 11
369.50535
 21
246.110694
 31
0.0
  0
LINE
  5
E4
330
1F
100
AcDbEntity
  8
LC-001-100-D00-0
 62
     7
370
    50
100
AcDbLine
 10
380.340633
 20
258.195977
 30
0.0
 11
378.84063
 21
258.195977
 31
0.0
  0
LINE
  5
E5
330
1F
100
AcDbEntity
  8
LC-001-100-D00-0
 62
     7
370
    50
100
AcDbLine
 10
376.590637
 20
268.195977
 30
0.0
 11
376.340632
 21
268.195977
 31
0.0
  0
LINE
  5
E6
330
1F
100
AcDbEntity
  8
LC-001-100-D00-0
 62
     7
370
    50
100
AcDbLine
 10
519.675915
 20
246.110694
 30
0.0
 11
518.261705
 21
244.696482
 31
0.0
  0
LINE
  5
E7
330
1F
100
AcDbEntity
  8
LC-001-100-D00-0
 62
     7
370
    50
100
AcDbLine
 10
518.261705
 20
244.696482
 30
0.0
 11
511.190635
 21
251.76755
 31
0.0
  0
LINE
  5
E8
330
1F
100
AcDbEntity
  8
LC-001-100-D00-0
 62
     7
370
    50
100
AcDbLine
 10
511.190635
 20
251.76755
 30
0.0
 11
511.190635
 21
254.595977
 31
0.0
  0
LINE
  5
E9
330
1F
100
AcDbEntity
  8
LC-001-100-D00-0
 62
     7
370
    50
100
AcDbLine
 10
510.340632
 20
258.195977
 30
0.0
 11
508.840633
 21
258.195977
 31
0.0
  0
LINE
  5
EA
330
1F
100
AcDbEntity
  8
LC-001-100-D00-0
 62
     7
370
    50
100
AcDbLine
 10
512.840633
 20
268.195977
 30
0.0
 11
512.590633
 21
268.195977
 31
0.0
  0
LINE
  5
EB
330
1F
100
AcDbEntity
  8
LC-001-100-D00-0
 62
     7
370
    50
100
AcDbLine
 10
511.190155
 20
251.76755
 30
0.0
 11
518.261221
 21
244.696482
 31
0.0
  0
LINE
  5
EC
330
1F
100
AcDbEntity
  8
LC-001-100-D00-0
 62
     7
370
    50
100
AcDbLine
 10
511.190635
 20
251.76755
 30
0.0
 11
511.190155
 21
251.76755
 31
0.0
  0
LINE
  5
ED
330
1F
100
AcDbEntity
  8
LC-001-100-D00-0
 62
     7
370
    50
100
AcDbLine
 10
518.261705
 20
244.696482
 30
0.0
 11
518.261221
 21
244.696482
 31
0.0
  0
LINE
  5
EE
330
1F
100
AcDbEntity
  8
LC-001-100-D00-0
 62
     7
370
    50
100
AcDbLine
 10
369.512369
 20
246.103204
 30
0.0
 11
370.919091
 21
244.696482
 31
0.0
  0
LINE
  5
EF
330
1F
100
AcDbEntity
  8
LC-001-100-D00-0
 62
     7
370
    50
100
AcDbLine
 10
370.91956
 20
244.696482
 30
0.0
 11
370.919091
 21
244.696482
 31
0.0
  0
LINE
  5
F0
330
1F
100
AcDbEntity
  8
LC-001-100-D00-0
 62
     7
370
    50
100
AcDbLine
 10
511.190155
 20
254.579087
 30
0.0
 11
511.190155
 21
251.76755
 31
0.0
  0
LINE
  5
F1
330
1F
100
AcDbEntity
  8
LC-001-100-D00-0
 62
     7
370
    50
100
AcDbLine
 10
446.069556
 20
251.76755
 30
0.0
 11
446.069556
 21
254.579087
 31
0.0
  0
LINE
  5
F2
330
1F
100
AcDbEntity
  8
LC-001-100-D00-0
 62
     7
370
    50
100
AcDbLine
 10
443.069558
 20
251.76755
 30
0.0
 11
446.069556
 21
251.76755
 31
0.0
  0
LINE
  5
F3
330
1F
100
AcDbEntity
  8
LC-001-100-D00-0
 62
     7
370
    50
100
AcDbLine
 10
443.069558
 20
251.76755
 30
0.0
 11
443.069558
 21
254.579087
 31
0.0
  0
LINE
  5
F4
330
1F
100
AcDbEntity
  8
LC-001-100-D00-0
 62
     7
370
    50
100
AcDbLine
 10
443.067319
 20
244.695977
 30
0.0
 11
446.067319
 21
244.695977
 31
0.0
  0
LINE
  5
F5
330
1F
100
AcDbEntity
  8
LC-001-100-D00-0
 62
     7
370
    50
100
AcDbLine
 10
443.067319
 20
244.695977
 30
0.0
 11
443.069558
 21
251.76755
 31
0.0
  0
LINE
  5
F6
330
1F
100
AcDbEntity
  8
LC-001-100-D00-0
 62
     7
370
    50
100
AcDbLine
 10
446.067319
 20
244.695977
 30
0.0
 11
446.069556
 21
251.76755
 31
0.0
  0
LINE
  5
F7
330
1F
100
AcDbEntity
  8
LC-001-100-D00-0
 62
     7
370
    50
100
AcDbLine
 10
443.066874
 20
246.102699
 30
0.0
 11
443.067319
 21
244.695977
 31
0.0
  0
INSERT
  5
FE
330
1F
100
AcDbEntity
  8
LC-001-100-D00-0
 62
     7
370
    50
100
AcDbBlockReference
  2
KLON2
 10
0.0
 20
0.0
 30
0.0
  0
INSERT
  5
105
330
1F
100
AcDbEntity
  8
LC-001-100-D00-0
 62
     7
370
    50
100
AcDbBlockReference
  2
KLON3
 10
0.0
 20
0.0
 30
0.0
  0
INSERT
  5
111
330
1F
100
AcDbEntity
  8
LC-001-100-D00-0
 62
     7
370
    50
100
AcDbBlockReference
  2
POLY13
 10
0.0
 20
0.0
 30
0.0
  0
LINE
  5
112
330
1F
100
AcDbEntity
  8
LC-001-100-D00-0
 62
     7
370
    50
100
AcDbLine
 10
353.629057
 20
349.469112
 30
0.0
 11
353.840631
 21
349.304737
 31
0.0
  0
INSERT
  5
119
330
1F
100
AcDbEntity
  8
LC-001-100-D00-0
 62
     7
370
    50
100
AcDbBlockReference
  2
KLON4
 10
0.0
 20
0.0
 30
0.0
  0
INSERT
  5
120
330
1F
100
AcDbEntity
  8
LC-001-100-D00-0
 62
     7
370
    50
100
AcDbBlockReference
  2
KLON5
 10
0.0
 20
0.0
 30
0.0
  0
INSERT
  5
12C
330
1F
100
AcDbEntity
  8
LC-001-100-D00-0
 62
     7
370
    50
100
AcDbBlockReference
  2
POLY14
 10
0.0
 20
0.0
 30
0.0
  0
LINE
  5
12D
330
1F
100
AcDbEntity
  8
LC-001-100-D00-0
 62
     7
370
    50
100
AcDbLine
 10
353.629057
 20
346.469114
 30
0.0
 11
353.840631
 21
346.304731
 31
0.0
  0
INSERT
  5
134
330
1F
100
AcDbEntity
  8
LC-001-100-D00-0
 62
     7
370
    50
100
AcDbBlockReference
  2
KLON6
 10
0.0
 20
0.0
 30
0.0
  0
INSERT
  5
13B
330
1F
100
AcDbEntity
  8
LC-001-100-D00-0
 62
     7
370
    50
100
AcDbBlockReference
  2
KLON7
 10
0.0
 20
0.0
 30
0.0
  0
INSERT
  5
142
330
1F
100
AcDbEntity
  8
LC-001-100-D00-0
 62
     7
370
    50
100
AcDbBlockReference
  2
KLON8
 10
0.0
 20
0.0
 30
0.0
  0
INSERT
  5
149
330
1F
100
AcDbEntity
  8
LC-001-100-D00-0
 62
     7
370
    50
100
AcDbBlockReference
  2
KLON9
 10
0.0
 20
0.0
 30
0.0
  0
INSERT
  5
155
330
1F
100
AcDbEntity
  8
LC-001-100-D00-0
 62
     7
370
    50
100
AcDbBlockReference
  2
POLY15
 10
0.0
 20
0.0
 30
0.0
  0
LINE
  5
156
330
1F
100
AcDbEntity
  8
LC-001-100-D00-0
 62
     7
370
    50
100
AcDbLine
 10
353.629057
 20
352.469111
 30
0.0
 11
353.840631
 21
352.304736
 31
0.0
  0
INSERT
  5
15D
330
1F
100
AcDbEntity
  8
LC-001-100-D00-0
 62
     7
370
    50
100
AcDbBlockReference
  2
KLON10
 10
0.0
 20
0.0
 30
0.0
  0
INSERT
  5
164
330
1F
100
AcDbEntity
  8
LC-001-100-D00-0
 62
     7
370
    50
100
AcDbBlockReference
  2
KLON11
 10
0.0
 20
0.0
 30
0.0
  0
INSERT
  5
170
330
1F
100
AcDbEntity
  8
LC-001-100-D00-0
 62
     7
370
    50
100
AcDbBlockReference
  2
POLY16
 10
0.0
 20
0.0
 30
0.0
  0
INSERT
  5
177
330
1F
100
AcDbEntity
  8
LC-001-100-D00-0
 62
     7
370
    50
100
AcDbBlockReference
  2
KLON12
 10
0.0
 20
0.0
 30
0.0
  0
INSERT
  5
17E
330
1F
100
AcDbEntity
  8
LC-001-100-D00-0
 62
     7
370
    50
100
AcDbBlockReference
  2
KLON13
 10
0.0
 20
0.0
 30
0.0
  0
INSERT
  5
185
330
1F
100
AcDbEntity
  8
LC-001-100-D00-0
 62
     7
370
    50
100
AcDbBlockReference
  2
KLON14
 10
0.0
 20
0.0
 30
0.0
  0
INSERT
  5
18C
330
1F
100
AcDbEntity
  8
LC-001-100-D00-0
 62
     7
370
    50
100
AcDbBlockReference
  2
KLON15
 10
0.0
 20
0.0
 30
0.0
  0
INSERT
  5
193
330
1F
100
AcDbEntity
  8
LC-001-100-D00-0
 62
     7
370
    50
100
AcDbBlockReference
  2
KLON16
 10
0.0
 20
0.0
 30
0.0
  0
INSERT
  5
19A
330
1F
100
AcDbEntity
  8
LC-001-100-D00-0
 62
     7
370
    50
100
AcDbBlockReference
  2
KLON17
 10
0.0
 20
0.0
 30
0.0
  0
INSERT
  5
1A1
330
1F
100
AcDbEntity
  8
LC-001-100-D00-0
 62
     7
370
    50
100
AcDbBlockReference
  2
KLON18
 10
0.0
 20
0.0
 30
0.0
  0
INSERT
  5
1A8
330
1F
100
AcDbEntity
  8
LC-001-100-D00-0
 62
     7
370
    50
100
AcDbBlockReference
  2
KLON19
 10
0.0
 20
0.0
 30
0.0
  0
INSERT
  5
1AF
330
1F
100
AcDbEntity
  8
LC-001-100-D00-0
 62
     7
370
    50
100
AcDbBlockReference
  2
KLON20
 10
0.0
 20
0.0
 30
0.0
  0
INSERT
  5
1B6
330
1F
100
AcDbEntity
  8
LC-001-100-D00-0
 62
     7
370
    50
100
AcDbBlockReference
  2
KLON21
 10
0.0
 20
0.0
 30
0.0
  0
LINE
  5
1B7
330
1F
100
AcDbEntity
  8
LC-001-100-D00-0
 62
     7
370
    50
100
AcDbLine
 10
352.590633
 20
349.955441
 30
0.0
 11
352.590633
 21
351.654025
 31
0.0
  0
LINE
  5
1B8
330
1F
100
AcDbEntity
  8
LC-001-100-D00-0
 62
     7
370
    50
100
AcDbLine
 10
348.590632
 20
353.154028
 30
0.0
 11
348.590632
 21
351.455444
 31
0.0
  0
LINE
  5
1B9
330
1F
100
AcDbEntity
  8
LC-001-100-D00-0
 62
     7
370
    50
100
AcDbLine
 10
352.364068
 20
356.45985
 30
0.0
 11
352.364068
 21
356.959851
 31
0.0
  0
LINE
  5
1BA
330
1F
100
AcDbEntity
  8
LC-001-100-D00-0
 62
     7
370
    50
100
AcDbLine
 10
354.340632
 20
356.959851
 30
0.0
 11
352.364068
 21
356.959851
 31
0.0
  0
LINE
  5
1BB
330
1F
100
AcDbEntity
  8
LC-001-100-D00-0
 62
     7
370
    50
100
AcDbLine
 10
354.340632
 20
356.959851
 30
0.0
 11
354.340632
 21
358.031617
 31
0.0
  0
ARC
  5
1BC
330
1F
100
AcDbEntity
  8
LC-001-100-D00-0
 62
     7
370
    50
100
AcDbCircle
 10
350.590633
 20
352.334853
 30
0.0
 40
6.82023643285201
100
AcDbArc
 50
48.715289
 51
56.644353
  0
LINE
  5
1BD
330
1F
100
AcDbEntity
  8
LC-001-100-D00-0
 62
     7
370
    50
100
AcDbLine
 10
355.640632
 20
357.459852
 30
0.0
 11
355.09063
 21
357.459852
 31
0.0
  0
ARC
  5
1BE
330
1F
100
AcDbEntity
  8
LC-001-100-D00-0
 62
     7
370
    50
100
AcDbCircle
 10
355.640633
 20
357.259853
 30
0.0
 40
0.2000000000000455
100
AcDbArc
 50
0.0
 51
90.0
  0
LINE
  5
1BF
330
1F
100
AcDbEntity
  8
LC-001-100-D00-0
 62
     7
370
    50
100
AcDbLine
 10
355.840635
 20
354.459854
 30
0.0
 11
355.840635
 21
357.259856
 31
0.0
  0
LINE
  5
1C0
330
1F
100
AcDbEntity
  8
LC-001-100-D00-0
 62
     7
370
    50
100
AcDbLine
 10
352.590633
 20
354.459854
 30
0.0
 11
355.840635
 21
354.459854
 31
0.0
  0
LINE
  5
1C1
330
1F
100
AcDbEntity
  8
LC-001-100-D00-0
 62
     7
370
    50
100
AcDbLine
 10
352.590633
 20
352.95544
 30
0.0
 11
352.590633
 21
354.459854
 31
0.0
  0
LINE
  5
1C2
330
1F
100
AcDbEntity
  8
LC-001-100-D00-0
 62
     7
370
    50
100
AcDbLine
 10
352.590633
 20
346.955443
 30
0.0
 11
352.590633
 21
348.654026
 31
0.0
  0
LINE
  5
1C3
330
1F
100
AcDbEntity
  8
LC-001-100-D00-0
 62
     7
370
    50
100
AcDbLine
 10
352.590633
 20
343.955444
 30
0.0
 11
352.590633
 21
345.654027
 31
0.0
  0
LINE
  5
1C4
330
1F
100
AcDbEntity
  8
LC-001-100-D00-0
 62
     7
370
    50
100
AcDbLine
 10
352.590633
 20
340.955445
 30
0.0
 11
352.590633
 21
342.654029
 31
0.0
  0
LINE
  5
1C5
330
1F
100
AcDbEntity
  8
LC-001-100-D00-0
 62
     7
370
    50
100
AcDbLine
 10
352.590633
 20
338.860268
 30
0.0
 11
352.590633
 21
339.654023
 31
0.0
  0
LINE
  5
1C6
330
1F
100
AcDbEntity
  8
LC-001-100-D00-0
 62
     7
370
    50
100
AcDbLine
 10
350.590636
 20
337.459857
 30
0.0
 11
352.590633
 21
338.860268
 31
0.0
  0
LINE
  5
1C7
330
1F
100
AcDbEntity
  8
LC-001-100-D00-0
 62
     7
370
    50
100
AcDbLine
 10
348.590632
 20
338.860268
 30
0.0
 11
350.590636
 21
337.459857
 31
0.0
  0
LINE
  5
1C8
330
1F
100
AcDbEntity
  8
LC-001-100-D00-0
 62
     7
370
    50
100
AcDbLine
 10
348.590632
 20
341.154026
 30
0.0
 11
348.590632
 21
338.860268
 31
0.0
  0
LINE
  5
1C9
330
1F
100
AcDbEntity
  8
LC-001-100-D00-0
 62
     7
370
    50
100
AcDbLine
 10
348.590632
 20
344.154024
 30
0.0
 11
348.590632
 21
342.455441
 31
0.0
  0
LINE
  5
1CA
330
1F
100
AcDbEntity
  8
LC-001-100-D00-0
 62
     7
370
    50
100
AcDbLine
 10
348.590632
 20
347.154023
 30
0.0
 11
348.590632
 21
345.455447
 31
0.0
  0
LINE
  5
1CB
330
1F
100
AcDbEntity
  8
LC-001-100-D00-0
 62
     7
370
    50
100
AcDbLine
 10
348.590632
 20
350.154029
 30
0.0
 11
348.590632
 21
348.455446
 31
0.0
  0
LINE
  5
1CC
330
1F
100
AcDbEntity
  8
LC-001-100-D00-0
 62
     7
370
    50
100
AcDbLine
 10
348.590632
 20
354.459854
 30
0.0
 11
348.590632
 21
354.455443
 31
0.0
  0
LINE
  5
1CD
330
1F
100
AcDbEntity
  8
LC-001-100-D00-0
 62
     7
370
    50
100
AcDbLine
 10
345.340637
 20
354.459854
 30
0.0
 11
348.590632
 21
354.459854
 31
0.0
  0
LINE
  5
1CE
330
1F
100
AcDbEntity
  8
LC-001-100-D00-0
 62
     7
370
    50
100
AcDbLine
 10
345.340637
 20
357.259856
 30
0.0
 11
345.340637
 21
354.459854
 31
0.0
  0
ARC
  5
1CF
330
1F
100
AcDbEntity
  8
LC-001-100-D00-0
 62
     7
370
    50
100
AcDbCircle
 10
345.540633
 20
357.259853
 30
0.0
 40
0.2000000000000455
100
AcDbArc
 50
90.0
 51
180.0
  0
LINE
  5
1D0
330
1F
100
AcDbEntity
  8
LC-001-100-D00-0
 62
     7
370
    50
100
AcDbLine
 10
346.090634
 20
357.459852
 30
0.0
 11
345.540632
 21
357.459852
 31
0.0
  0
ARC
  5
1D1
330
1F
100
AcDbEntity
  8
LC-001-100-D00-0
 62
     7
370
    50
100
AcDbCircle
 10
350.590633
 20
352.334853
 30
0.0
 40
6.820236432851915
100
AcDbArc
 50
123.355647
 51
131.284711
  0
LINE
  5
1D2
330
1F
100
AcDbEntity
  8
LC-001-100-D00-0
 62
     7
370
    50
100
AcDbLine
 10
346.840632
 20
358.031617
 30
0.0
 11
346.840632
 21
356.959851
 31
0.0
  0
LINE
  5
1D3
330
1F
100
AcDbEntity
  8
LC-001-100-D00-0
 62
     7
370
    50
100
AcDbLine
 10
348.817204
 20
356.959851
 30
0.0
 11
346.840632
 21
356.959851
 31
0.0
  0
LINE
  5
1D4
330
1F
100
AcDbEntity
  8
LC-001-100-D00-0
 62
     7
370
    50
100
AcDbLine
 10
348.817204
 20
356.45985
 30
0.0
 11
348.817204
 21
356.959851
 31
0.0
  0
LINE
  5
1D5
330
1F
100
AcDbEntity
  8
LC-001-100-D00-0
 62
     7
370
    50
100
AcDbLine
 10
352.364068
 20
356.45985
 30
0.0
 11
348.817204
 21
356.45985
 31
0.0
  0
ARC
  5
1D6
330
1F
100
AcDbEntity
  8
LC-001-100-D00-0
 62
     7
370
    50
100
AcDbCircle
 10
350.590633
 20
352.334853
 30
0.0
 40
6.801883930206413
100
AcDbArc
 50
56.54253
 51
63.818118
  0
ARC
  5
1D7
330
1F
100
AcDbEntity
  8
LC-001-100-D00-0
 62
     7
370
    50
100
AcDbCircle
 10
350.590633
 20
352.334853
 30
0.0
 40
6.80188393020646
100
AcDbArc
 50
116.181882
 51
123.45747
  0
LINE
  5
1D8
330
1F
100
AcDbEntity
  8
LC-001-100-D00-0
 62
     7
370
    50
100
AcDbLine
 10
353.501287
 20
358.459854
 30
0.0
 11
352.364068
 21
358.459854
 31
0.0
  0
INSERT
  5
1E4
330
1F
100
AcDbEntity
  8
LC-001-100-D00-0
 62
     7
370
    50
100
AcDbBlockReference
  2
POLY17
 10
0.0
 20
0.0
 30
0.0
  0
LINE
  5
1E5
330
1F
100
AcDbEntity
  8
LC-001-100-D00-0
 62
     7
370
    50
100
AcDbLine
 10
352.364068
 20
358.459854
 30
0.0
 11
352.364068
 21
356.959851
 31
0.0
  0
INSERT
  5
1F1
330
1F
100
AcDbEntity
  8
LC-001-100-D00-0
 62
     7
370
    50
100
AcDbBlockReference
  2
POLY18
 10
0.0
 20
0.0
 30
0.0
  0
LINE
  5
1F2
330
1F
100
AcDbEntity
  8
LC-001-100-D00-0
 62
     7
370
    50
100
AcDbLine
 10
348.817204
 20
358.459854
 30
0.0
 11
347.679977
 21
358.459854
 31
0.0
  0
LINE
  5
1F3
330
1F
100
AcDbEntity
  8
LC-001-100-D00-0
 62
     7
370
    50
100
AcDbLine
 10
348.817204
 20
358.459854
 30
0.0
 11
348.817204
 21
356.959851
 31
0.0
  0
LINE
  5
1F4
330
1F
100
AcDbEntity
  8
LC-001-100-D00-0
 62
     7
370
    50
100
AcDbLine
 10
349.921082
 20
358.459854
 30
0.0
 11
351.260182
 21
358.459854
 31
0.0
  0
LINE
  5
1F5
330
1F
100
AcDbEntity
  8
LC-001-100-D00-0
 62
     7
370
    50
100
AcDbLine
 10
351.563294
 20
358.459854
 30
0.0
 11
351.260182
 21
358.459854
 31
0.0
  0
LINE
  5
1F6
330
1F
100
AcDbEntity
  8
LC-001-100-D00-0
 62
     7
370
    50
100
AcDbLine
 10
349.61797
 20
358.459854
 30
0.0
 11
349.921082
 21
358.459854
 31
0.0
  0
LINE
  5
1F7
330
1F
100
AcDbEntity
  8
LC-001-100-D00-0
 62
     7
370
    50
100
AcDbLine
 10
351.563294
 20
358.459854
 30
0.0
 11
352.364068
 21
358.459854
 31
0.0
  0
LINE
  5
1F8
330
1F
100
AcDbEntity
  8
LC-001-100-D00-0
 62
     7
370
    50
100
AcDbLine
 10
349.61797
 20
358.459854
 30
0.0
 11
348.817204
 21
358.459854
 31
0.0
  0
LINE
  5
1F9
330
1F
100
AcDbEntity
  8
LC-001-100-D00-0
 62
     7
370
    50
100
AcDbLine
 10
548.270632
 20
343.365977
 30
0.0
 11
572.310631
 21
352.115976
 31
0.0
  0
LINE
  5
1FA
330
1F
100
AcDbEntity
  8
LC-001-100-D00-0
 62
     7
370
    50
100
AcDbLine
 10
316.870627
 20
352.115976
 30
0.0
 11
340.910633
 21
343.365977
 31
0.0
  0
LINE
  5
1FB
330
1F
100
AcDbEntity
  8
LC-001-100-D00-0
 62
     7
370
    50
100
AcDbLine
 10
571.481881
 20
356.815981
 30
0.0
 11
547.441882
 21
348.065974
 31
0.0
  0
LINE
  5
1FC
330
1F
100
AcDbEntity
  8
LC-001-100-D00-0
 62
     7
370
    50
100
AcDbLine
 10
341.739383
 20
348.065974
 30
0.0
 11
317.699385
 21
356.815981
 31
0.0
  0
LINE
  5
1FD
330
1F
100
AcDbEntity
  8
LC-001-100-D00-0
 62
     7
370
    50
100
AcDbLine
 10
317.699385
 20
356.815981
 30
0.0
 11
345.340637
 21
356.815981
 31
0.0
  0
LINE
  5
1FE
330
1F
100
AcDbEntity
  8
LC-001-100-D00-0
 62
     7
370
    50
100
AcDbLine
 10
355.840635
 20
356.815981
 30
0.0
 11
359.5627
 21
356.815981
 31
0.0
  0
LINE
  5
1FF
330
1F
100
AcDbEntity
  8
LC-001-100-D00-0
 62
     7
370
    50
100
AcDbLine
 10
396.416795
 20
356.815981
 30
0.0
 11
401.08074
 21
356.815981
 31
0.0
  0
LINE
  5
200
330
1F
100
AcDbEntity
  8
LC-001-100-D00-0
 62
     7
370
    50
100
AcDbLine
 10
410.947514
 20
356.815981
 30
0.0
 11
421.472968
 21
356.815981
 31
0.0
  0
LINE
  5
201
330
1F
100
AcDbEntity
  8
LC-001-100-D00-0
 62
     7
370
    50
100
AcDbLine
 10
427.770955
 20
356.815981
 30
0.0
 11
443.440634
 21
356.815981
 31
0.0
  0
LINE
  5
202
330
1F
100
AcDbEntity
  8
LC-001-100-D00-0
 62
     7
370
    50
100
AcDbLine
 10
445.740634
 20
356.815981
 30
0.0
 11
461.41031
 21
356.815981
 31
0.0
  0
LINE
  5
203
330
1F
100
AcDbEntity
  8
LC-001-100-D00-0
 62
     7
370
    50
100
AcDbLine
 10
467.708297
 20
356.815981
 30
0.0
 11
478.233754
 21
356.815981
 31
0.0
  0
LINE
  5
204
330
1F
100
AcDbEntity
  8
LC-001-100-D00-0
 62
     7
370
    50
100
AcDbLine
 10
529.618566
 20
356.815981
 30
0.0
 11
571.481881
 21
356.815981
 31
0.0
  0
LINE
  5
205
330
1F
100
AcDbEntity
  8
LC-001-100-D00-0
 62
     7
370
    50
100
AcDbLine
 10
194.590625
 20
356.815981
 30
0.0
 11
194.590625
 21
352.115976
 31
0.0
  0
LINE
  5
206
330
1F
100
AcDbEntity
  8
LC-001-100-D00-0
 62
     7
370
    50
100
AcDbLine
 10
346.590635
 20
348.065974
 30
0.0
 11
346.590635
 21
343.365977
 31
0.0
  0
LINE
  5
207
330
1F
100
AcDbEntity
  8
LC-001-100-D00-0
 62
     7
370
    50
100
AcDbLine
 10
346.590635
 20
348.065974
 30
0.0
 11
341.739383
 21
348.065974
 31
0.0
  0
LINE
  5
208
330
1F
100
AcDbEntity
  8
LC-001-100-D00-0
 62
     7
370
    50
100
AcDbLine
 10
340.910633
 20
343.365977
 30
0.0
 11
346.590635
 21
343.365977
 31
0.0
  0
LINE
  5
209
330
1F
100
AcDbEntity
  8
LC-001-100-D00-0
 62
     7
370
    50
100
AcDbLine
 10
317.699385
 20
356.815981
 30
0.0
 11
194.590625
 21
356.815981
 31
0.0
  0
LINE
  5
20A
330
1F
100
AcDbEntity
  8
LC-001-100-D00-0
 62
     7
370
    50
100
AcDbLine
 10
194.590625
 20
352.115976
 30
0.0
 11
316.870627
 21
352.115976
 31
0.0
  0
LINE
  5
20B
330
1F
100
AcDbEntity
  8
LC-001-100-D00-0
 62
     7
370
    50
100
AcDbLine
 10
542.59063
 20
343.365977
 30
0.0
 11
542.59063
 21
348.065974
 31
0.0
  0
LINE
  5
20C
330
1F
100
AcDbEntity
  8
LC-001-100-D00-0
 62
     7
370
    50
100
AcDbLine
 10
694.59064
 20
352.115976
 30
0.0
 11
694.59064
 21
356.815981
 31
0.0
  0
LINE
  5
20D
330
1F
100
AcDbEntity
  8
LC-001-100-D00-0
 62
     7
370
    50
100
AcDbLine
 10
547.441882
 20
348.065974
 30
0.0
 11
542.59063
 21
348.065974
 31
0.0
  0
LINE
  5
20E
330
1F
100
AcDbEntity
  8
LC-001-100-D00-0
 62
     7
370
    50
100
AcDbLine
 10
542.59063
 20
343.365977
 30
0.0
 11
548.270632
 21
343.365977
 31
0.0
  0
LINE
  5
20F
330
1F
100
AcDbEntity
  8
LC-001-100-D00-0
 62
     7
370
    50
100
AcDbLine
 10
694.59064
 20
356.815981
 30
0.0
 11
571.481881
 21
356.815981
 31
0.0
  0
LINE
  5
210
330
1F
100
AcDbEntity
  8
LC-001-100-D00-0
 62
     7
370
    50
100
AcDbLine
 10
572.310631
 20
352.115976
 30
0.0
 11
694.59064
 21
352.115976
 31
0.0
  0
LINE
  5
211
330
1F
100
AcDbEntity
  8
LC-001-100-D00-0
 62
     7
370
    50
100
AcDbLine
 10
347.833593
 20
348.065974
 30
0.0
 11
346.590635
 21
348.065974
 31
0.0
  0
LINE
  5
212
330
1F
100
AcDbEntity
  8
LC-001-100-D00-0
 62
     7
370
    50
100
AcDbLine
 10
538.505529
 20
343.435975
 30
0.0
 11
538.505529
 21
348.065974
 31
0.0
  0
LINE
  5
213
330
1F
100
AcDbEntity
  8
LC-001-100-D00-0
 62
     7
370
    50
100
AcDbLine
 10
542.59063
 20
348.065974
 30
0.0
 11
538.505529
 21
348.065974
 31
0.0
  0
LINE
  5
214
330
1F
100
AcDbEntity
  8
LC-001-100-D00-0
 62
     7
370
    50
100
AcDbLine
 10
526.993652
 20
343.365977
 30
0.0
 11
526.993652
 21
348.065974
 31
0.0
  0
LINE
  5
215
330
1F
100
AcDbEntity
  8
LC-001-100-D00-0
 62
     7
370
    50
100
AcDbLine
 10
538.505529
 20
348.065974
 30
0.0
 11
526.993652
 21
348.065974
 31
0.0
  0
LINE
  5
216
330
1F
100
AcDbEntity
  8
LC-001-100-D00-0
 62
     7
370
    50
100
AcDbLine
 10
524.340634
 20
348.065974
 30
0.0
 11
526.993652
 21
348.065974
 31
0.0
  0
LINE
  5
217
330
1F
100
AcDbEntity
  8
LC-001-100-D00-0
 62
     7
370
    50
100
AcDbLine
 10
524.340634
 20
343.365977
 30
0.0
 11
526.993652
 21
343.365977
 31
0.0
  0
LINE
  5
218
330
1F
100
AcDbEntity
  8
LC-001-100-D00-0
 62
     7
370
    50
100
AcDbLine
 10
362.187614
 20
348.065974
 30
0.0
 11
362.187614
 21
343.365977
 31
0.0
  0
LINE
  5
219
330
1F
100
AcDbEntity
  8
LC-001-100-D00-0
 62
     7
370
    50
100
AcDbLine
 10
362.187614
 20
348.065974
 30
0.0
 11
364.840631
 21
348.065974
 31
0.0
  0
LINE
  5
21A
330
1F
100
AcDbEntity
  8
LC-001-100-D00-0
 62
     7
370
    50
100
AcDbLine
 10
362.187614
 20
343.365977
 30
0.0
 11
364.840631
 21
343.365977
 31
0.0
  0
LINE
  5
21B
330
1F
100
AcDbEntity
  8
LC-001-100-D00-0
 62
     7
370
    50
100
AcDbLine
 10
362.187614
 20
348.065974
 30
0.0
 11
352.590633
 21
348.065974
 31
0.0
  0
ARC
  5
21C
330
1F
100
AcDbEntity
  8
LC-001-100-D00-0
 62
     7
370
    50
100
AcDbCircle
 10
566.449056
 20
358.081849
 30
0.0
 40
2.500000000000018
100
AcDbArc
 50
276.0
 51
325.333525
  0
ARC
  5
21D
330
1F
100
AcDbEntity
  8
LC-001-100-D00-0
 62
     7
370
    50
100
AcDbCircle
 10
322.73221
 20
358.081849
 30
0.0
 40
2.499999999999987
100
AcDbArc
 50
214.666475
 51
264.0
  0
LINE
  5
21E
330
1F
100
AcDbEntity
  8
LC-001-100-D00-0
 62
     7
370
    50
100
AcDbLine
 10
568.505247
 20
356.659854
 30
0.0
 11
529.675391
 21
356.659854
 31
0.0
  0
LINE
  5
21F
330
1F
100
AcDbEntity
  8
LC-001-100-D00-0
 62
     7
370
    50
100
AcDbLine
 10
478.262166
 20
356.659854
 30
0.0
 11
467.723004
 21
356.659854
 31
0.0
  0
LINE
  5
220
330
1F
100
AcDbEntity
  8
LC-001-100-D00-0
 62
     7
370
    50
100
AcDbLine
 10
461.425017
 20
356.659854
 30
0.0
 11
445.740634
 21
356.659854
 31
0.0
  0
LINE
  5
221
330
1F
100
AcDbEntity
  8
LC-001-100-D00-0
 62
     7
370
    50
100
AcDbLine
 10
443.440634
 20
356.659854
 30
0.0
 11
427.756251
 21
356.659854
 31
0.0
  0
LINE
  5
222
330
1F
100
AcDbEntity
  8
LC-001-100-D00-0
 62
     7
370
    50
100
AcDbLine
 10
421.458264
 20
356.659854
 30
0.0
 11
410.919101
 21
356.659854
 31
0.0
  0
LINE
  5
223
330
1F
100
AcDbEntity
  8
LC-001-100-D00-0
 62
     7
370
    50
100
AcDbLine
 10
401.052323
 20
356.659854
 30
0.0
 11
396.376614
 21
356.659854
 31
0.0
  0
LINE
  5
224
330
1F
100
AcDbEntity
  8
LC-001-100-D00-0
 62
     7
370
    50
100
AcDbLine
 10
359.505874
 20
356.659854
 30
0.0
 11
355.840635
 21
356.659854
 31
0.0
  0
LINE
  5
225
330
1F
100
AcDbEntity
  8
LC-001-100-D00-0
 62
     7
370
    50
100
AcDbLine
 10
345.340637
 20
356.659854
 30
0.0
 11
320.676011
 21
356.659854
 31
0.0
  0
ARC
  5
226
330
1F
100
AcDbEntity
  8
LC-001-100-D00-0
 62
     7
370
    50
100
AcDbCircle
 10
566.449056
 20
358.081849
 30
0.0
 40
3.000000000000016
100
AcDbArc
 50
276.0
 51
331.705828
  0
ARC
  5
227
330
1F
100
AcDbEntity
  8
LC-001-100-D00-0
 62
     7
370
    50
100
AcDbCircle
 10
322.73221
 20
358.081849
 30
0.0
 40
2.999999999999982
100
AcDbArc
 50
208.294172
 51
264.0
  0
LINE
  5
228
330
1F
100
AcDbEntity
  8
LC-001-100-D00-0
 62
     7
370
    50
100
AcDbLine
 10
566.762638
 20
355.098287
 30
0.0
 11
546.416839
 21
352.959851
 31
0.0
  0
LINE
  5
229
330
1F
100
AcDbEntity
  8
LC-001-100-D00-0
 62
     7
370
    50
100
AcDbLine
 10
342.764427
 20
352.959851
 30
0.0
 11
322.418627
 21
355.098287
 31
0.0
  0
LINE
  5
22A
330
1F
100
AcDbEntity
  8
LC-001-100-D00-0
 62
     7
370
    50
100
AcDbLine
 10
546.390635
 20
353.459852
 30
0.0
 11
566.71038
 21
355.595546
 31
0.0
  0
LINE
  5
22B
330
1F
100
AcDbEntity
  8
LC-001-100-D00-0
 62
     7
370
    50
100
AcDbLine
 10
322.470886
 20
355.595546
 30
0.0
 11
342.790631
 21
353.459852
 31
0.0
  0
ARC
  5
22C
330
1F
100
AcDbEntity
  8
LC-001-100-D00-0
 62
     7
370
    50
100
AcDbCircle
 10
526.840633
 20
350.459853
 30
0.0
 40
2.500000000000114
100
AcDbArc
 50
90.0
 51
180.0
  0
ARC
  5
22D
330
1F
100
AcDbEntity
  8
LC-001-100-D00-0
 62
     7
370
    50
100
AcDbCircle
 10
362.340633
 20
350.459853
 30
0.0
 40
2.500000000000114
100
AcDbArc
 50
0.0
 51
90.0
  0
ARC
  5
22E
330
1F
100
AcDbEntity
  8
LC-001-100-D00-0
 62
     7
370
    50
100
AcDbCircle
 10
526.840633
 20
350.459853
 30
0.0
 40
3.000000000000114
100
AcDbArc
 50
90.0
 51
180.0
  0
ARC
  5
22F
330
1F
100
AcDbEntity
  8
LC-001-100-D00-0
 62
     7
370
    50
100
AcDbCircle
 10
362.340633
 20
350.459853
 30
0.0
 40
3.0
100
AcDbArc
 50
0.0
 51
90.0
  0
LINE
  5
230
330
1F
100
AcDbEntity
  8
LC-001-100-D00-0
 62
     7
370
    50
100
AcDbLine
 10
524.340634
 20
350.459853
 30
0.0
 11
524.340634
 21
333.159851
 31
0.0
  0
LINE
  5
231
330
1F
100
AcDbEntity
  8
LC-001-100-D00-0
 62
     7
370
    50
100
AcDbLine
 10
364.840631
 20
333.159851
 30
0.0
 11
364.840631
 21
350.459853
 31
0.0
  0
ARC
  5
232
330
1F
100
AcDbEntity
  8
LC-001-100-D00-0
 62
     7
370
    50
100
AcDbCircle
 10
521.840633
 20
333.159853
 30
0.0
 40
2.0
100
AcDbArc
 50
270.0
 51
0.0
  0
ARC
  5
233
330
1F
100
AcDbEntity
  8
LC-001-100-D00-0
 62
     7
370
    50
100
AcDbCircle
 10
367.340633
 20
333.159853
 30
0.0
 40
2.0
100
AcDbArc
 50
180.0
 51
270.0
  0
LINE
  5
234
330
1F
100
AcDbEntity
  8
LC-001-100-D00-0
 62
     7
370
    50
100
AcDbLine
 10
523.840633
 20
333.159851
 30
0.0
 11
523.840633
 21
350.459853
 31
0.0
  0
LINE
  5
235
330
1F
100
AcDbEntity
  8
LC-001-100-D00-0
 62
     7
370
    50
100
AcDbLine
 10
365.340632
 20
350.459853
 30
0.0
 11
365.340632
 21
333.159851
 31
0.0
  0
ARC
  5
236
330
1F
100
AcDbEntity
  8
LC-001-100-D00-0
 62
     7
370
    50
100
AcDbCircle
 10
521.840633
 20
333.159853
 30
0.0
 40
2.500000000000114
100
AcDbArc
 50
270.0
 51
0.0
  0
ARC
  5
237
330
1F
100
AcDbEntity
  8
LC-001-100-D00-0
 62
     7
370
    50
100
AcDbCircle
 10
367.340633
 20
333.159853
 30
0.0
 40
2.5
100
AcDbArc
 50
180.0
 51
270.0
  0
ARC
  5
238
330
1F
100
AcDbEntity
  8
LC-001-100-D00-0
 62
     7
370
    50
100
AcDbCircle
 10
521.090633
 20
329.659853
 30
0.0
 40
1.0
100
AcDbArc
 50
90.0
 51
180.0
  0
ARC
  5
239
330
1F
100
AcDbEntity
  8
LC-001-100-D00-0
 62
     7
370
    50
100
AcDbCircle
 10
368.090633
 20
329.659853
 30
0.0
 40
1.0
100
AcDbArc
 50
0.0
 51
90.0
  0
ARC
  5
23A
330
1F
100
AcDbEntity
  8
LC-001-100-D00-0
 62
     7
370
    50
100
AcDbCircle
 10
521.090633
 20
329.659853
 30
0.0
 40
1.500000000000114
100
AcDbArc
 50
90.0
 51
180.0
  0
ARC
  5
23B
330
1F
100
AcDbEntity
  8
LC-001-100-D00-0
 62
     7
370
    50
100
AcDbCircle
 10
368.090633
 20
329.659853
 30
0.0
 40
1.5
100
AcDbArc
 50
0.0
 51
90.0
  0
LINE
  5
23C
330
1F
100
AcDbEntity
  8
LC-001-100-D00-0
 62
     7
370
    50
100
AcDbLine
 10
521.090631
 20
331.159854
 30
0.0
 11
518.490632
 21
331.159854
 31
0.0
  0
LINE
  5
23D
330
1F
100
AcDbEntity
  8
LC-001-100-D00-0
 62
     7
370
    50
100
AcDbLine
 10
514.603206
 20
331.159854
 30
0.0
 11
456.39073
 21
331.159854
 31
0.0
  0
LINE
  5
23E
330
1F
100
AcDbEntity
  8
LC-001-100-D00-0
 62
     7
370
    50
100
AcDbLine
 10
432.790649
 20
331.159854
 30
0.0
 11
374.578078
 21
331.159854
 31
0.0
  0
LINE
  5
23F
330
1F
100
AcDbEntity
  8
LC-001-100-D00-0
 62
     7
370
    50
100
AcDbLine
 10
370.690633
 20
331.159854
 30
0.0
 11
368.090634
 21
331.159854
 31
0.0
  0
LINE
  5
240
330
1F
100
AcDbEntity
  8
LC-001-100-D00-0
 62
     7
370
    50
100
AcDbLine
 10
520.090633
 20
329.659851
 30
0.0
 11
520.090633
 21
325.659851
 31
0.0
  0
LINE
  5
241
330
1F
100
AcDbEntity
  8
LC-001-100-D00-0
 62
     7
370
    50
100
AcDbLine
 10
369.090636
 20
325.659851
 30
0.0
 11
369.090636
 21
329.659851
 31
0.0
  0
LINE
  5
242
330
1F
100
AcDbEntity
  8
LC-001-100-D00-0
 62
     7
370
    50
100
AcDbLine
 10
519.590632
 20
325.659851
 30
0.0
 11
519.590632
 21
329.659851
 31
0.0
  0
LINE
  5
243
330
1F
100
AcDbEntity
  8
LC-001-100-D00-0
 62
     7
370
    50
100
AcDbLine
 10
369.59063
 20
329.659851
 30
0.0
 11
369.59063
 21
325.659851
 31
0.0
  0
LINE
  5
244
330
1F
100
AcDbEntity
  8
LC-001-100-D00-0
 62
     7
370
    50
100
AcDbLine
 10
514.603206
 20
325.659851
 30
0.0
 11
456.39073
 21
325.659851
 31
0.0
  0
LINE
  5
245
330
1F
100
AcDbEntity
  8
LC-001-100-D00-0
 62
     7
370
    50
100
AcDbLine
 10
432.790649
 20
325.659851
 30
0.0
 11
374.578078
 21
325.659851
 31
0.0
  0
LINE
  5
246
330
1F
100
AcDbEntity
  8
LC-001-100-D00-0
 62
     7
370
    50
100
AcDbLine
 10
520.090633
 20
325.659851
 30
0.0
 11
519.590632
 21
325.659851
 31
0.0
  0
LINE
  5
247
330
1F
100
AcDbEntity
  8
LC-001-100-D00-0
 62
     7
370
    50
100
AcDbLine
 10
521.090631
 20
331.159854
 30
0.0
 11
521.840633
 21
331.159854
 31
0.0
  0
LINE
  5
248
330
1F
100
AcDbEntity
  8
LC-001-100-D00-0
 62
     7
370
    50
100
AcDbLine
 10
521.840633
 20
330.659853
 30
0.0
 11
521.090631
 21
330.659853
 31
0.0
  0
LINE
  5
249
330
1F
100
AcDbEntity
  8
LC-001-100-D00-0
 62
     7
370
    50
100
AcDbLine
 10
526.840632
 20
353.459852
 30
0.0
 11
546.390635
 21
353.459852
 31
0.0
  0
LINE
  5
24A
330
1F
100
AcDbEntity
  8
LC-001-100-D00-0
 62
     7
370
    50
100
AcDbLine
 10
546.416839
 20
352.959851
 30
0.0
 11
526.840632
 21
352.959851
 31
0.0
  0
LINE
  5
24B
330
1F
100
AcDbEntity
  8
LC-001-100-D00-0
 62
     7
370
    50
100
AcDbLine
 10
568.505247
 20
356.659854
 30
0.0
 11
569.090632
 21
356.659854
 31
0.0
  0
ARC
  5
24C
330
1F
100
AcDbEntity
  8
LC-001-100-D00-0
 62
     7
370
    50
100
AcDbCircle
 10
343.483526
 20
353.959853
 30
0.0
 40
1.0
100
AcDbArc
 50
270.0
 51
315.0
  0
LINE
  5
24D
330
1F
100
AcDbEntity
  8
LC-001-100-D00-0
 62
     7
370
    50
100
AcDbLine
 10
343.690631
 20
353.459852
 30
0.0
 11
344.397743
 21
354.166957
 31
0.0
  0
ARC
  5
24E
330
1F
100
AcDbEntity
  8
LC-001-100-D00-0
 62
     7
370
    50
100
AcDbCircle
 10
345.104847
 20
353.459853
 30
0.0
 40
1.0
100
AcDbArc
 50
90.0
 51
135.0
  0
LINE
  5
24F
330
1F
100
AcDbEntity
  8
LC-001-100-D00-0
 62
     7
370
    50
100
AcDbLine
 10
345.104848
 20
354.459854
 30
0.0
 11
346.840632
 21
354.459854
 31
0.0
  0
LINE
  5
250
330
1F
100
AcDbEntity
  8
LC-001-100-D00-0
 62
     7
370
    50
100
AcDbLine
 10
346.840632
 20
354.459854
 30
0.0
 11
346.840632
 21
353.959853
 31
0.0
  0
LINE
  5
251
330
1F
100
AcDbEntity
  8
LC-001-100-D00-0
 62
     7
370
    50
100
AcDbLine
 10
346.840632
 20
353.959853
 30
0.0
 11
344.897737
 21
353.959853
 31
0.0
  0
LINE
  5
252
330
1F
100
AcDbEntity
  8
LC-001-100-D00-0
 62
     7
370
    50
100
AcDbLine
 10
344.897737
 20
353.959853
 30
0.0
 11
344.190632
 21
353.252748
 31
0.0
  0
LINE
  5
253
330
1F
100
AcDbEntity
  8
LC-001-100-D00-0
 62
     7
370
    50
100
AcDbLine
 10
342.790631
 20
353.459852
 30
0.0
 11
343.690631
 21
353.459852
 31
0.0
  0
LINE
  5
254
330
1F
100
AcDbEntity
  8
LC-001-100-D00-0
 62
     7
370
    50
100
AcDbLine
 10
343.483527
 20
352.959851
 30
0.0
 11
342.764427
 21
352.959851
 31
0.0
  0
LINE
  5
255
330
1F
100
AcDbEntity
  8
LC-001-100-D00-0
 62
     7
370
    50
100
AcDbLine
 10
320.090634
 20
356.659854
 30
0.0
 11
320.676011
 21
356.659854
 31
0.0
  0
ARC
  5
256
330
1F
100
AcDbEntity
  8
LC-001-100-D00-0
 62
     7
370
    50
100
AcDbCircle
 10
357.69774
 20
353.959853
 30
0.0
 40
1.000000000000048
100
AcDbArc
 50
225.0
 51
270.0
  0
LINE
  5
257
330
1F
100
AcDbEntity
  8
LC-001-100-D00-0
 62
     7
370
    50
100
AcDbLine
 10
356.990633
 20
353.252748
 30
0.0
 11
356.283528
 21
353.959853
 31
0.0
  0
LINE
  5
258
330
1F
100
AcDbEntity
  8
LC-001-100-D00-0
 62
     7
370
    50
100
AcDbLine
 10
356.283528
 20
353.959853
 30
0.0
 11
354.340632
 21
353.959853
 31
0.0
  0
LINE
  5
259
330
1F
100
AcDbEntity
  8
LC-001-100-D00-0
 62
     7
370
    50
100
AcDbLine
 10
354.340632
 20
353.959853
 30
0.0
 11
354.340632
 21
354.459854
 31
0.0
  0
LINE
  5
25A
330
1F
100
AcDbEntity
  8
LC-001-100-D00-0
 62
     7
370
    50
100
AcDbLine
 10
354.340632
 20
354.459854
 30
0.0
 11
356.076417
 21
354.459854
 31
0.0
  0
ARC
  5
25B
330
1F
100
AcDbEntity
  8
LC-001-100-D00-0
 62
     7
370
    50
100
AcDbCircle
 10
356.07642
 20
353.459853
 30
0.0
 40
1.000000000000008
100
AcDbArc
 50
45.0
 51
90.0
  0
LINE
  5
25C
330
1F
100
AcDbEntity
  8
LC-001-100-D00-0
 62
     7
370
    50
100
AcDbLine
 10
356.783529
 20
354.166957
 30
0.0
 11
357.490634
 21
353.459852
 31
0.0
  0
LINE
  5
25D
330
1F
100
AcDbEntity
  8
LC-001-100-D00-0
 62
     7
370
    50
100
AcDbLine
 10
369.59063
 20
325.659851
 30
0.0
 11
369.090636
 21
325.659851
 31
0.0
  0
LINE
  5
25E
330
1F
100
AcDbEntity
  8
LC-001-100-D00-0
 62
     7
370
    50
100
AcDbLine
 10
367.340636
 20
331.159854
 30
0.0
 11
368.090634
 21
331.159854
 31
0.0
  0
LINE
  5
25F
330
1F
100
AcDbEntity
  8
LC-001-100-D00-0
 62
     7
370
    50
100
AcDbLine
 10
368.090634
 20
330.659853
 30
0.0
 11
367.340636
 21
330.659853
 31
0.0
  0
LINE
  5
260
330
1F
100
AcDbEntity
  8
LC-001-100-D00-0
 62
     7
370
    50
100
AcDbLine
 10
357.490634
 20
353.459852
 30
0.0
 11
362.340634
 21
353.459852
 31
0.0
  0
LINE
  5
261
330
1F
100
AcDbEntity
  8
LC-001-100-D00-0
 62
     7
370
    50
100
AcDbLine
 10
362.340634
 20
352.959851
 30
0.0
 11
357.697737
 21
352.959851
 31
0.0
  0
LINE
  5
262
330
1F
100
AcDbEntity
  8
LC-001-100-D00-0
 62
     7
370
    50
100
AcDbLine
 10
354.340632
 20
353.959853
 30
0.0
 11
352.590633
 21
353.959853
 31
0.0
  0
LINE
  5
263
330
1F
100
AcDbEntity
  8
LC-001-100-D00-0
 62
     7
370
    50
100
AcDbLine
 10
347.593819
 20
353.959853
 30
0.0
 11
346.840632
 21
353.959853
 31
0.0
  0
LINE
  5
264
330
1F
100
AcDbEntity
  8
LC-001-100-D00-0
 62
     7
370
    50
100
AcDbLine
 10
357.697737
 20
352.959851
 30
0.0
 11
352.79229
 21
352.959851
 31
0.0
  0
LINE
  5
265
330
1F
100
AcDbEntity
  8
LC-001-100-D00-0
 62
     7
370
    50
100
AcDbLine
 10
348.590632
 20
352.959851
 30
0.0
 11
343.483527
 21
352.959851
 31
0.0
  0
LINE
  5
266
330
1F
100
AcDbEntity
  8
LC-001-100-D00-0
 62
     7
370
    50
100
AcDbLine
 10
487.658012
 20
354.459854
 30
0.0
 11
493.37086
 21
354.459854
 31
0.0
  0
LINE
  5
267
330
1F
100
AcDbEntity
  8
LC-001-100-D00-0
 62
     7
370
    50
100
AcDbLine
 10
513.340634
 20
308.745978
 30
0.0
 11
513.340634
 21
313.245976
 31
0.0
  0
LINE
  5
268
330
1F
100
AcDbEntity
  8
LC-001-100-D00-0
 62
     7
370
    50
100
AcDbLine
 10
375.840631
 20
313.245976
 30
0.0
 11
375.840631
 21
308.745978
 31
0.0
  0
LINE
  5
269
330
1F
100
AcDbEntity
  8
LC-001-100-D00-0
 62
     7
370
    50
100
AcDbLine
 10
520.840635
 20
316.745976
 30
0.0
 11
510.340632
 21
316.745976
 31
0.0
  0
LINE
  5
26A
330
1F
100
AcDbEntity
  8
LC-001-100-D00-0
 62
     7
370
    50
100
AcDbLine
 10
520.840635
 20
315.745974
 30
0.0
 11
520.840635
 21
316.745976
 31
0.0
  0
LINE
  5
26B
330
1F
100
AcDbEntity
  8
LC-001-100-D00-0
 62
     7
370
    50
100
AcDbLine
 10
521.840633
 20
315.745974
 30
0.0
 11
520.840635
 21
315.745974
 31
0.0
  0
LINE
  5
26C
330
1F
100
AcDbEntity
  8
LC-001-100-D00-0
 62
     7
370
    50
100
AcDbLine
 10
521.840633
 20
312.245974
 30
0.0
 11
521.840633
 21
315.745974
 31
0.0
  0
LINE
  5
26D
330
1F
100
AcDbEntity
  8
LC-001-100-D00-0
 62
     7
370
    50
100
AcDbLine
 10
520.840635
 20
311.245976
 30
0.0
 11
521.840633
 21
312.245974
 31
0.0
  0
LINE
  5
26E
330
1F
100
AcDbEntity
  8
LC-001-100-D00-0
 62
     7
370
    50
100
AcDbLine
 10
517.840632
 20
311.245976
 30
0.0
 11
520.840635
 21
311.245976
 31
0.0
  0
LINE
  5
26F
330
1F
100
AcDbEntity
  8
LC-001-100-D00-0
 62
     7
370
    50
100
AcDbLine
 10
517.840632
 20
313.245976
 30
0.0
 11
517.840632
 21
311.245976
 31
0.0
  0
LINE
  5
270
330
1F
100
AcDbEntity
  8
LC-001-100-D00-0
 62
     7
370
    50
100
AcDbLine
 10
513.340634
 20
313.245976
 30
0.0
 11
517.840632
 21
313.245976
 31
0.0
  0
LINE
  5
271
330
1F
100
AcDbEntity
  8
LC-001-100-D00-0
 62
     7
370
    50
100
AcDbLine
 10
509.340634
 20
308.745978
 30
0.0
 11
513.340634
 21
308.745978
 31
0.0
  0
LINE
  5
272
330
1F
100
AcDbEntity
  8
LC-001-100-D00-0
 62
     7
370
    50
100
AcDbLine
 10
510.340632
 20
316.745976
 30
0.0
 11
509.340634
 21
308.745978
 31
0.0
  0
LINE
  5
273
330
1F
100
AcDbEntity
  8
LC-001-100-D00-0
 62
     7
370
    50
100
AcDbLine
 10
371.34063
 20
313.245976
 30
0.0
 11
375.840631
 21
313.245976
 31
0.0
  0
LINE
  5
274
330
1F
100
AcDbEntity
  8
LC-001-100-D00-0
 62
     7
370
    50
100
AcDbLine
 10
371.34063
 20
311.245976
 30
0.0
 11
371.34063
 21
313.245976
 31
0.0
  0
LINE
  5
275
330
1F
100
AcDbEntity
  8
LC-001-100-D00-0
 62
     7
370
    50
100
AcDbLine
 10
368.340631
 20
311.245976
 30
0.0
 11
371.34063
 21
311.245976
 31
0.0
  0
LINE
  5
276
330
1F
100
AcDbEntity
  8
LC-001-100-D00-0
 62
     7
370
    50
100
AcDbLine
 10
367.340636
 20
312.245974
 30
0.0
 11
368.340631
 21
311.245976
 31
0.0
  0
LINE
  5
277
330
1F
100
AcDbEntity
  8
LC-001-100-D00-0
 62
     7
370
    50
100
AcDbLine
 10
367.340636
 20
315.745974
 30
0.0
 11
367.340636
 21
312.245974
 31
0.0
  0
LINE
  5
278
330
1F
100
AcDbEntity
  8
LC-001-100-D00-0
 62
     7
370
    50
100
AcDbLine
 10
368.340631
 20
315.745974
 30
0.0
 11
367.340636
 21
315.745974
 31
0.0
  0
LINE
  5
279
330
1F
100
AcDbEntity
  8
LC-001-100-D00-0
 62
     7
370
    50
100
AcDbLine
 10
368.340631
 20
316.745976
 30
0.0
 11
368.340631
 21
315.745974
 31
0.0
  0
LINE
  5
27A
330
1F
100
AcDbEntity
  8
LC-001-100-D00-0
 62
     7
370
    50
100
AcDbLine
 10
378.84063
 20
316.745976
 30
0.0
 11
368.340631
 21
316.745976
 31
0.0
  0
LINE
  5
27B
330
1F
100
AcDbEntity
  8
LC-001-100-D00-0
 62
     7
370
    50
100
AcDbLine
 10
379.840632
 20
308.745978
 30
0.0
 11
378.84063
 21
316.745976
 31
0.0
  0
LINE
  5
27C
330
1F
100
AcDbEntity
  8
LC-001-100-D00-0
 62
     7
370
    50
100
AcDbLine
 10
375.840631
 20
308.745978
 30
0.0
 11
379.840632
 21
308.745978
 31
0.0
  0
LINE
  5
27D
330
1F
100
AcDbEntity
  8
LC-001-100-D00-0
 62
     7
370
    50
100
AcDbLine
 10
510.340632
 20
316.745976
 30
0.0
 11
378.84063
 21
316.745976
 31
0.0
  0
LINE
  5
27E
330
1F
100
AcDbEntity
  8
LC-001-100-D00-0
 62
     7
370
    50
100
AcDbLine
 10
509.340634
 20
308.745978
 30
0.0
 11
379.840632
 21
308.745978
 31
0.0
  0
LINE
  5
27F
330
1F
100
AcDbEntity
  8
LC-001-100-D00-0
 62
     7
370
    50
100
AcDbLine
 10
353.090634
 20
324.935974
 30
0.0
 11
353.090634
 21
321.435975
 31
0.0
  0
LINE
  5
280
330
1F
100
AcDbEntity
  8
LC-001-100-D00-0
 62
     7
370
    50
100
AcDbLine
 10
352.590633
 20
320.935974
 30
0.0
 11
353.090634
 21
321.435975
 31
0.0
  0
LINE
  5
281
330
1F
100
AcDbEntity
  8
LC-001-100-D00-0
 62
     7
370
    50
100
AcDbLine
 10
348.590632
 20
320.935974
 30
0.0
 11
352.590633
 21
320.935974
 31
0.0
  0
LINE
  5
282
330
1F
100
AcDbEntity
  8
LC-001-100-D00-0
 62
     7
370
    50
100
AcDbLine
 10
348.090631
 20
321.435975
 30
0.0
 11
348.590632
 21
320.935974
 31
0.0
  0
LINE
  5
283
330
1F
100
AcDbEntity
  8
LC-001-100-D00-0
 62
     7
370
    50
100
AcDbLine
 10
348.090631
 20
321.435975
 30
0.0
 11
348.090631
 21
324.935974
 31
0.0
  0
LINE
  5
284
330
1F
100
AcDbEntity
  8
LC-001-100-D00-0
 62
     7
370
    50
100
AcDbLine
 10
345.115636
 20
324.935974
 30
0.0
 11
348.090631
 21
324.935974
 31
0.0
  0
ARC
  5
285
330
1F
100
AcDbEntity
  8
LC-001-100-D00-0
 62
     7
370
    50
100
AcDbCircle
 10
345.115633
 20
325.435977
 30
0.0
 40
0.5
100
AcDbArc
 50
180.0
 51
270.0
  0
LINE
  5
286
330
1F
100
AcDbEntity
  8
LC-001-100-D00-0
 62
     7
370
    50
100
AcDbLine
 10
344.615635
 20
325.435975
 30
0.0
 11
344.615635
 21
340.935977
 31
0.0
  0
LINE
  5
287
330
1F
100
AcDbEntity
  8
LC-001-100-D00-0
 62
     7
370
    50
100
AcDbLine
 10
339.276058
 20
340.935977
 30
0.0
 11
344.615635
 21
340.935977
 31
0.0
  0
LINE
  5
288
330
1F
100
AcDbEntity
  8
LC-001-100-D00-0
 62
     7
370
    50
100
AcDbLine
 10
316.801694
 20
349.115977
 30
0.0
 11
339.276058
 21
340.935977
 31
0.0
  0
LINE
  5
289
330
1F
100
AcDbEntity
  8
LC-001-100-D00-0
 62
     7
370
    50
100
AcDbLine
 10
267.590639
 20
349.115977
 30
0.0
 11
316.801694
 21
349.115977
 31
0.0
  0
LINE
  5
28A
330
1F
100
AcDbEntity
  8
LC-001-100-D00-0
 62
     7
370
    50
100
AcDbLine
 10
267.590639
 20
350.115979
 30
0.0
 11
267.590639
 21
349.115977
 31
0.0
  0
ARC
  5
28B
330
1F
100
AcDbEntity
  8
LC-001-100-D00-0
 62
     7
370
    50
100
AcDbCircle
 10
269.590633
 20
350.115977
 30
0.0
 40
2.0
100
AcDbArc
 50
90.0
 51
180.0
  0
LINE
  5
28C
330
1F
100
AcDbEntity
  8
LC-001-100-D00-0
 62
     7
370
    50
100
AcDbLine
 10
317.067531
 20
352.115976
 30
0.0
 11
269.590628
 21
352.115976
 31
0.0
  0
LINE
  5
28D
330
1F
100
AcDbEntity
  8
LC-001-100-D00-0
 62
     7
370
    50
100
AcDbLine
 10
340.915632
 20
343.435975
 30
0.0
 11
317.067531
 21
352.115976
 31
0.0
  0
LINE
  5
28E
330
1F
100
AcDbEntity
  8
LC-001-100-D00-0
 62
     7
370
    50
100
AcDbLine
 10
347.840634
 20
343.435975
 30
0.0
 11
340.915632
 21
343.435975
 31
0.0
  0
LINE
  5
28F
330
1F
100
AcDbEntity
  8
LC-001-100-D00-0
 62
     7
370
    50
100
AcDbLine
 10
347.840634
 20
343.435975
 30
0.0
 11
347.840634
 21
327.935981
 31
0.0
  0
LINE
  5
290
330
1F
100
AcDbEntity
  8
LC-001-100-D00-0
 62
     7
370
    50
100
AcDbLine
 10
353.34063
 20
327.935981
 30
0.0
 11
347.840634
 21
327.935981
 31
0.0
  0
LINE
  5
291
330
1F
100
AcDbEntity
  8
LC-001-100-D00-0
 62
     7
370
    50
100
AcDbLine
 10
353.34063
 20
327.935981
 30
0.0
 11
353.34063
 21
343.435975
 31
0.0
  0
LINE
  5
292
330
1F
100
AcDbEntity
  8
LC-001-100-D00-0
 62
     7
370
    50
100
AcDbLine
 10
362.090629
 20
343.435975
 30
0.0
 11
353.34063
 21
343.435975
 31
0.0
  0
LINE
  5
293
330
1F
100
AcDbEntity
  8
LC-001-100-D00-0
 62
     7
370
    50
100
AcDbLine
 10
362.090629
 20
326.69598
 30
0.0
 11
362.090629
 21
343.435975
 31
0.0
  0
LINE
  5
294
330
1F
100
AcDbEntity
  8
LC-001-100-D00-0
 62
     7
370
    50
100
AcDbLine
 10
367.090632
 20
321.695978
 30
0.0
 11
362.090629
 21
326.69598
 31
0.0
  0
LINE
  5
295
330
1F
100
AcDbEntity
  8
LC-001-100-D00-0
 62
     7
370
    50
100
AcDbLine
 10
367.090632
 20
312.245974
 30
0.0
 11
367.090632
 21
321.695978
 31
0.0
  0
ARC
  5
296
330
1F
100
AcDbEntity
  8
LC-001-100-D00-0
 62
     7
370
    50
100
AcDbCircle
 10
368.090633
 20
312.245977
 30
0.0
 40
1.0
100
AcDbArc
 50
180.0
 51
270.0
  0
LINE
  5
297
330
1F
100
AcDbEntity
  8
LC-001-100-D00-0
 62
     7
370
    50
100
AcDbLine
 10
373.090629
 20
311.245976
 30
0.0
 11
368.090634
 21
311.245976
 31
0.0
  0
ARC
  5
298
330
1F
100
AcDbEntity
  8
LC-001-100-D00-0
 62
     7
370
    50
100
AcDbCircle
 10
373.090633
 20
310.245977
 30
0.0
 40
1.0
100
AcDbArc
 50
0.0
 51
90.0
  0
LINE
  5
299
330
1F
100
AcDbEntity
  8
LC-001-100-D00-0
 62
     7
370
    50
100
AcDbLine
 10
374.090631
 20
296.245975
 30
0.0
 11
374.090631
 21
310.245978
 31
0.0
  0
LINE
  5
29A
330
1F
100
AcDbEntity
  8
LC-001-100-D00-0
 62
     7
370
    50
100
AcDbLine
 10
379.090634
 20
296.245975
 30
0.0
 11
374.090631
 21
296.245975
 31
0.0
  0
ARC
  5
29B
330
1F
100
AcDbEntity
  8
LC-001-100-D00-0
 62
     7
370
    50
100
AcDbCircle
 10
379.090633
 20
295.245977
 30
0.0
 40
1.0
100
AcDbArc
 50
0.0
 51
90.0
  0
LINE
  5
29C
330
1F
100
AcDbEntity
  8
LC-001-100-D00-0
 62
     7
370
    50
100
AcDbLine
 10
380.090636
 20
258.195977
 30
0.0
 11
380.090636
 21
295.245977
 31
0.0
  0
LINE
  5
29D
330
1F
100
AcDbEntity
  8
LC-001-100-D00-0
 62
     7
370
    50
100
AcDbLine
 10
376.840633
 20
258.195977
 30
0.0
 11
380.090636
 21
258.195977
 31
0.0
  0
LINE
  5
29E
330
1F
100
AcDbEntity
  8
LC-001-100-D00-0
 62
     7
370
    50
100
AcDbLine
 10
376.840633
 20
291.745977
 30
0.0
 11
376.840633
 21
258.195977
 31
0.0
  0
ARC
  5
29F
330
1F
100
AcDbEntity
  8
LC-001-100-D00-0
 62
     7
370
    50
100
AcDbCircle
 10
375.840633
 20
291.745977
 30
0.0
 40
1.0
100
AcDbArc
 50
0.0
 51
90.0
  0
LINE
  5
2A0
330
1F
100
AcDbEntity
  8
LC-001-100-D00-0
 62
     7
370
    50
100
AcDbLine
 10
374.040631
 20
292.745976
 30
0.0
 11
375.840631
 21
292.745976
 31
0.0
  0
ARC
  5
2A1
330
1F
100
AcDbEntity
  8
LC-001-100-D00-0
 62
     7
370
    50
100
AcDbCircle
 10
374.040633
 20
295.245977
 30
0.0
 40
2.500000000000057
100
AcDbArc
 50
180.0
 51
270.0
  0
LINE
  5
2A2
330
1F
100
AcDbEntity
  8
LC-001-100-D00-0
 62
     7
370
    50
100
AcDbLine
 10
371.540633
 20
305.645978
 30
0.0
 11
371.540633
 21
295.245977
 31
0.0
  0
ARC
  5
2A3
330
1F
100
AcDbEntity
  8
LC-001-100-D00-0
 62
     7
370
    50
100
AcDbCircle
 10
370.540633
 20
305.645977
 30
0.0
 40
1.0
100
AcDbArc
 50
0.0
 51
90.0
  0
LINE
  5
2A4
330
1F
100
AcDbEntity
  8
LC-001-100-D00-0
 62
     7
370
    50
100
AcDbLine
 10
369.090636
 20
306.645976
 30
0.0
 11
370.540631
 21
306.645976
 31
0.0
  0
ARC
  5
2A5
330
1F
100
AcDbEntity
  8
LC-001-100-D00-0
 62
     7
370
    50
100
AcDbCircle
 10
369.090633
 20
305.645977
 30
0.0
 40
1.0
100
AcDbArc
 50
90.0
 51
180.0
  0
LINE
  5
2A6
330
1F
100
AcDbEntity
  8
LC-001-100-D00-0
 62
     7
370
    50
100
AcDbLine
 10
368.090634
 20
192.195976
 30
0.0
 11
368.090634
 21
305.645978
 31
0.0
  0
LINE
  5
2A7
330
1F
100
AcDbEntity
  8
LC-001-100-D00-0
 62
     7
370
    50
100
AcDbLine
 10
366.198328
 20
192.195976
 30
0.0
 11
368.090634
 21
192.195976
 31
0.0
  0
LINE
  5
2A8
330
1F
100
AcDbEntity
  8
LC-001-100-D00-0
 62
     7
370
    50
100
AcDbLine
 10
364.590635
 20
198.195977
 30
0.0
 11
366.198328
 21
192.195976
 31
0.0
  0
LINE
  5
2A9
330
1F
100
AcDbEntity
  8
LC-001-100-D00-0
 62
     7
370
    50
100
AcDbLine
 10
363.590633
 20
322.555976
 30
0.0
 11
364.590635
 21
321.555974
 31
0.0
  0
LINE
  5
2AA
330
1F
100
AcDbEntity
  8
LC-001-100-D00-0
 62
     7
370
    50
100
AcDbLine
 10
359.590632
 20
322.555976
 30
0.0
 11
363.590633
 21
322.555976
 31
0.0
  0
LINE
  5
2AB
330
1F
100
AcDbEntity
  8
LC-001-100-D00-0
 62
     7
370
    50
100
AcDbLine
 10
359.590632
 20
324.935974
 30
0.0
 11
359.590632
 21
322.555976
 31
0.0
  0
LINE
  5
2AC
330
1F
100
AcDbEntity
  8
LC-001-100-D00-0
 62
     7
370
    50
100
AcDbLine
 10
353.090634
 20
324.935974
 30
0.0
 11
359.590632
 21
324.935974
 31
0.0
  0
LINE
  5
2AD
330
1F
100
AcDbEntity
  8
LC-001-100-D00-0
 62
     7
370
    50
100
AcDbLine
 10
524.590635
 20
321.555974
 30
0.0
 11
525.590633
 21
322.555976
 31
0.0
  0
LINE
  5
2AE
330
1F
100
AcDbEntity
  8
LC-001-100-D00-0
 62
     7
370
    50
100
AcDbLine
 10
524.590635
 20
198.195977
 30
0.0
 11
524.590635
 21
321.555974
 31
0.0
  0
LINE
  5
2AF
330
1F
100
AcDbEntity
  8
LC-001-100-D00-0
 62
     7
370
    50
100
AcDbLine
 10
522.982937
 20
192.195976
 30
0.0
 11
524.590635
 21
198.195977
 31
0.0
  0
LINE
  5
2B0
330
1F
100
AcDbEntity
  8
LC-001-100-D00-0
 62
     7
370
    50
100
AcDbLine
 10
521.090631
 20
192.195976
 30
0.0
 11
522.982937
 21
192.195976
 31
0.0
  0
LINE
  5
2B1
330
1F
100
AcDbEntity
  8
LC-001-100-D00-0
 62
     7
370
    50
100
AcDbLine
 10
521.090631
 20
305.645978
 30
0.0
 11
521.090631
 21
192.195976
 31
0.0
  0
ARC
  5
2B2
330
1F
100
AcDbEntity
  8
LC-001-100-D00-0
 62
     7
370
    50
100
AcDbCircle
 10
520.090633
 20
305.645977
 30
0.0
 40
1.0
100
AcDbArc
 50
0.0
 51
90.0
  0
LINE
  5
2B3
330
1F
100
AcDbEntity
  8
LC-001-100-D00-0
 62
     7
370
    50
100
AcDbLine
 10
518.640635
 20
306.645976
 30
0.0
 11
520.090633
 21
306.645976
 31
0.0
  0
ARC
  5
2B4
330
1F
100
AcDbEntity
  8
LC-001-100-D00-0
 62
     7
370
    50
100
AcDbCircle
 10
518.640633
 20
305.645977
 30
0.0
 40
1.0
100
AcDbArc
 50
90.0
 51
180.0
  0
LINE
  5
2B5
330
1F
100
AcDbEntity
  8
LC-001-100-D00-0
 62
     7
370
    50
100
AcDbLine
 10
517.640633
 20
295.245977
 30
0.0
 11
517.640633
 21
305.645978
 31
0.0
  0
ARC
  5
2B6
330
1F
100
AcDbEntity
  8
LC-001-100-D00-0
 62
     7
370
    50
100
AcDbCircle
 10
515.140633
 20
295.245977
 30
0.0
 40
2.5
100
AcDbArc
 50
270.0
 51
0.0
  0
LINE
  5
2B7
330
1F
100
AcDbEntity
  8
LC-001-100-D00-0
 62
     7
370
    50
100
AcDbLine
 10
513.340634
 20
292.745976
 30
0.0
 11
515.140635
 21
292.745976
 31
0.0
  0
ARC
  5
2B8
330
1F
100
AcDbEntity
  8
LC-001-100-D00-0
 62
     7
370
    50
100
AcDbCircle
 10
513.340633
 20
291.745977
 30
0.0
 40
1.0
100
AcDbArc
 50
90.0
 51
180.0
  0
LINE
  5
2B9
330
1F
100
AcDbEntity
  8
LC-001-100-D00-0
 62
     7
370
    50
100
AcDbLine
 10
512.340632
 20
258.195977
 30
0.0
 11
512.340632
 21
291.745977
 31
0.0
  0
LINE
  5
2BA
330
1F
100
AcDbEntity
  8
LC-001-100-D00-0
 62
     7
370
    50
100
AcDbLine
 10
509.090633
 20
258.195977
 30
0.0
 11
512.340632
 21
258.195977
 31
0.0
  0
LINE
  5
2BB
330
1F
100
AcDbEntity
  8
LC-001-100-D00-0
 62
     7
370
    50
100
AcDbLine
 10
509.090633
 20
295.245977
 30
0.0
 11
509.090633
 21
258.195977
 31
0.0
  0
ARC
  5
2BC
330
1F
100
AcDbEntity
  8
LC-001-100-D00-0
 62
     7
370
    50
100
AcDbCircle
 10
510.090633
 20
295.245977
 30
0.0
 40
1.0
100
AcDbArc
 50
90.0
 51
180.0
  0
LINE
  5
2BD
330
1F
100
AcDbEntity
  8
LC-001-100-D00-0
 62
     7
370
    50
100
AcDbLine
 10
515.090634
 20
296.245975
 30
0.0
 11
510.090631
 21
296.245975
 31
0.0
  0
LINE
  5
2BE
330
1F
100
AcDbEntity
  8
LC-001-100-D00-0
 62
     7
370
    50
100
AcDbLine
 10
515.090634
 20
310.245978
 30
0.0
 11
515.090634
 21
296.245975
 31
0.0
  0
ARC
  5
2BF
330
1F
100
AcDbEntity
  8
LC-001-100-D00-0
 62
     7
370
    50
100
AcDbCircle
 10
516.090633
 20
310.245977
 30
0.0
 40
1.0
100
AcDbArc
 50
90.0
 51
180.0
  0
LINE
  5
2C0
330
1F
100
AcDbEntity
  8
LC-001-100-D00-0
 62
     7
370
    50
100
AcDbLine
 10
521.090631
 20
311.245976
 30
0.0
 11
516.090632
 21
311.245976
 31
0.0
  0
ARC
  5
2C1
330
1F
100
AcDbEntity
  8
LC-001-100-D00-0
 62
     7
370
    50
100
AcDbCircle
 10
521.090633
 20
312.245977
 30
0.0
 40
1.0
100
AcDbArc
 50
270.0
 51
0.0
  0
LINE
  5
2C2
330
1F
100
AcDbEntity
  8
LC-001-100-D00-0
 62
     7
370
    50
100
AcDbLine
 10
522.090633
 20
321.695978
 30
0.0
 11
522.090633
 21
312.245974
 31
0.0
  0
LINE
  5
2C3
330
1F
100
AcDbEntity
  8
LC-001-100-D00-0
 62
     7
370
    50
100
AcDbLine
 10
527.090636
 20
326.69598
 30
0.0
 11
522.090633
 21
321.695978
 31
0.0
  0
LINE
  5
2C4
330
1F
100
AcDbEntity
  8
LC-001-100-D00-0
 62
     7
370
    50
100
AcDbLine
 10
527.090636
 20
343.435975
 30
0.0
 11
527.090636
 21
326.69598
 31
0.0
  0
LINE
  5
2C5
330
1F
100
AcDbEntity
  8
LC-001-100-D00-0
 62
     7
370
    50
100
AcDbLine
 10
535.840635
 20
343.435975
 30
0.0
 11
527.090636
 21
343.435975
 31
0.0
  0
LINE
  5
2C6
330
1F
100
AcDbEntity
  8
LC-001-100-D00-0
 62
     7
370
    50
100
AcDbLine
 10
535.840635
 20
343.435975
 30
0.0
 11
535.840635
 21
327.935981
 31
0.0
  0
LINE
  5
2C7
330
1F
100
AcDbEntity
  8
LC-001-100-D00-0
 62
     7
370
    50
100
AcDbLine
 10
541.340631
 20
327.935981
 30
0.0
 11
535.840635
 21
327.935981
 31
0.0
  0
LINE
  5
2C8
330
1F
100
AcDbEntity
  8
LC-001-100-D00-0
 62
     7
370
    50
100
AcDbLine
 10
541.340631
 20
327.935981
 30
0.0
 11
541.340631
 21
343.435975
 31
0.0
  0
LINE
  5
2C9
330
1F
100
AcDbEntity
  8
LC-001-100-D00-0
 62
     7
370
    50
100
AcDbLine
 10
548.265633
 20
343.435975
 30
0.0
 11
541.340631
 21
343.435975
 31
0.0
  0
LINE
  5
2CA
330
1F
100
AcDbEntity
  8
LC-001-100-D00-0
 62
     7
370
    50
100
AcDbLine
 10
572.113735
 20
352.115976
 30
0.0
 11
548.265633
 21
343.435975
 31
0.0
  0
LINE
  5
2CB
330
1F
100
AcDbEntity
  8
LC-001-100-D00-0
 62
     7
370
    50
100
AcDbLine
 10
619.590637
 20
352.115976
 30
0.0
 11
572.113735
 21
352.115976
 31
0.0
  0
ARC
  5
2CC
330
1F
100
AcDbEntity
  8
LC-001-100-D00-0
 62
     7
370
    50
100
AcDbCircle
 10
619.590633
 20
350.115977
 30
0.0
 40
2.0
100
AcDbArc
 50
0.0
 51
90.0
  0
LINE
  5
2CD
330
1F
100
AcDbEntity
  8
LC-001-100-D00-0
 62
     7
370
    50
100
AcDbLine
 10
621.590626
 20
349.115977
 30
0.0
 11
621.590626
 21
350.115979
 31
0.0
  0
LINE
  5
2CE
330
1F
100
AcDbEntity
  8
LC-001-100-D00-0
 62
     7
370
    50
100
AcDbLine
 10
572.379579
 20
349.115977
 30
0.0
 11
621.590626
 21
349.115977
 31
0.0
  0
LINE
  5
2CF
330
1F
100
AcDbEntity
  8
LC-001-100-D00-0
 62
     7
370
    50
100
AcDbLine
 10
549.905208
 20
340.935977
 30
0.0
 11
572.379579
 21
349.115977
 31
0.0
  0
LINE
  5
2D0
330
1F
100
AcDbEntity
  8
LC-001-100-D00-0
 62
     7
370
    50
100
AcDbLine
 10
544.56563
 20
340.935977
 30
0.0
 11
549.905208
 21
340.935977
 31
0.0
  0
LINE
  5
2D1
330
1F
100
AcDbEntity
  8
LC-001-100-D00-0
 62
     7
370
    50
100
AcDbLine
 10
544.56563
 20
340.935977
 30
0.0
 11
544.56563
 21
325.435975
 31
0.0
  0
ARC
  5
2D2
330
1F
100
AcDbEntity
  8
LC-001-100-D00-0
 62
     7
370
    50
100
AcDbCircle
 10
544.065633
 20
325.435977
 30
0.0
 40
0.5000000000001137
100
AcDbArc
 50
270.0
 51
0.0
  0
LINE
  5
2D3
330
1F
100
AcDbEntity
  8
LC-001-100-D00-0
 62
     7
370
    50
100
AcDbLine
 10
541.090635
 20
324.935974
 30
0.0
 11
544.065637
 21
324.935974
 31
0.0
  0
LINE
  5
2D4
330
1F
100
AcDbEntity
  8
LC-001-100-D00-0
 62
     7
370
    50
100
AcDbLine
 10
541.090635
 20
324.935974
 30
0.0
 11
541.090635
 21
321.435975
 31
0.0
  0
LINE
  5
2D5
330
1F
100
AcDbEntity
  8
LC-001-100-D00-0
 62
     7
370
    50
100
AcDbLine
 10
540.590634
 20
320.935974
 30
0.0
 11
541.090635
 21
321.435975
 31
0.0
  0
LINE
  5
2D6
330
1F
100
AcDbEntity
  8
LC-001-100-D00-0
 62
     7
370
    50
100
AcDbLine
 10
536.590633
 20
320.935974
 30
0.0
 11
540.590634
 21
320.935974
 31
0.0
  0
LINE
  5
2D7
330
1F
100
AcDbEntity
  8
LC-001-100-D00-0
 62
     7
370
    50
100
AcDbLine
 10
536.090632
 20
321.435975
 30
0.0
 11
536.590633
 21
320.935974
 31
0.0
  0
LINE
  5
2D8
330
1F
100
AcDbEntity
  8
LC-001-100-D00-0
 62
     7
370
    50
100
AcDbLine
 10
536.090632
 20
321.435975
 30
0.0
 11
536.090632
 21
324.935974
 31
0.0
  0
LINE
  5
2D9
330
1F
100
AcDbEntity
  8
LC-001-100-D00-0
 62
     7
370
    50
100
AcDbLine
 10
529.590634
 20
324.935974
 30
0.0
 11
536.090632
 21
324.935974
 31
0.0
  0
LINE
  5
2DA
330
1F
100
AcDbEntity
  8
LC-001-100-D00-0
 62
     7
370
    50
100
AcDbLine
 10
529.590634
 20
322.555976
 30
0.0
 11
529.590634
 21
324.935974
 31
0.0
  0
LINE
  5
2DB
330
1F
100
AcDbEntity
  8
LC-001-100-D00-0
 62
     7
370
    50
100
AcDbLine
 10
525.590633
 20
322.555976
 30
0.0
 11
529.590634
 21
322.555976
 31
0.0
  0
LINE
  5
2DC
330
1F
100
AcDbEntity
  8
LC-001-100-D00-0
 62
     7
370
    50
100
AcDbLine
 10
368.090634
 20
192.195976
 30
0.0
 11
521.090631
 21
192.195976
 31
0.0
  0
LINE
  5
2DD
330
1F
100
AcDbEntity
  8
LC-001-100-D00-0
 62
     7
370
    50
100
AcDbLine
 10
379.090634
 20
296.245975
 30
0.0
 11
510.090631
 21
296.245975
 31
0.0
  0
LINE
  5
2DE
330
1F
100
AcDbEntity
  8
LC-001-100-D00-0
 62
     7
370
    50
100
AcDbLine
 10
373.090629
 20
311.245976
 30
0.0
 11
375.840631
 21
311.245976
 31
0.0
  0
LINE
  5
2DF
330
1F
100
AcDbEntity
  8
LC-001-100-D00-0
 62
     7
370
    50
100
AcDbLine
 10
513.340634
 20
311.245976
 30
0.0
 11
516.090632
 21
311.245976
 31
0.0
  0
LINE
  5
2E0
330
1F
100
AcDbEntity
  8
LC-001-100-D00-0
 62
     7
370
    50
100
AcDbLine
 10
362.090629
 20
326.69598
 30
0.0
 11
369.090636
 21
326.69598
 31
0.0
  0
LINE
  5
2E1
330
1F
100
AcDbEntity
  8
LC-001-100-D00-0
 62
     7
370
    50
100
AcDbLine
 10
520.090633
 20
326.69598
 30
0.0
 11
527.090636
 21
326.69598
 31
0.0
  0
LINE
  5
2E2
330
1F
100
AcDbEntity
  8
LC-001-100-D00-0
 62
     7
370
    50
100
AcDbLine
 10
362.090629
 20
343.435975
 30
0.0
 11
364.840631
 21
343.435975
 31
0.0
  0
LINE
  5
2E3
330
1F
100
AcDbEntity
  8
LC-001-100-D00-0
 62
     7
370
    50
100
AcDbLine
 10
524.340634
 20
343.435975
 30
0.0
 11
527.090636
 21
343.435975
 31
0.0
  0
LINE
  5
2E4
330
1F
100
AcDbEntity
  8
LC-001-100-D00-0
 62
     7
370
    50
100
AcDbLine
 10
367.090632
 20
321.695978
 30
0.0
 11
522.090633
 21
321.695978
 31
0.0
  0
LINE
  5
2E5
330
1F
100
AcDbEntity
  8
LC-001-100-D00-0
 62
     7
370
    50
100
AcDbLine
 10
348.590632
 20
343.435975
 30
0.0
 11
347.840634
 21
343.435975
 31
0.0
  0
LINE
  5
2E6
330
1F
100
AcDbEntity
  8
LC-001-100-D00-0
 62
     7
370
    50
100
AcDbLine
 10
541.340631
 20
343.435975
 30
0.0
 11
535.840635
 21
343.435975
 31
0.0
  0
ARC
  5
2E7
330
1F
100
AcDbEntity
  8
LC-001-100-D00-0
 62
     7
370
    50
100
AcDbCircle
 10
518.990633
 20
325.459853
 30
0.0
 40
1.0
100
AcDbArc
 50
270.0
 51
0.0
  0
ARC
  5
2E8
330
1F
100
AcDbEntity
  8
LC-001-100-D00-0
 62
     7
370
    50
100
AcDbCircle
 10
370.190633
 20
325.459853
 30
0.0
 40
1.0
100
AcDbArc
 50
180.0
 51
270.0
  0
ARC
  5
2E9
330
1F
100
AcDbEntity
  8
LC-001-100-D00-0
 62
     7
370
    50
100
AcDbCircle
 10
518.990633
 20
325.459853
 30
0.0
 40
1.0
100
AcDbArc
 50
0.0
 51
90.0
  0
LINE
  5
2EA
330
1F
100
AcDbEntity
  8
LC-001-100-D00-0
 62
     7
370
    50
100
AcDbLine
 10
500.790634
 20
392.747762
 30
0.0
 11
493.039216
 21
414.04462
 31
0.0
  0
LINE
  5
2EB
330
1F
100
AcDbEntity
  8
LC-001-100-D00-0
 62
     7
370
    50
100
AcDbLine
 10
493.039216
 20
414.04462
 30
0.0
 11
493.039216
 21
413.659858
 31
0.0
  0
LINE
  5
2EC
330
1F
100
AcDbEntity
  8
LC-001-100-D00-0
 62
     7
370
    50
100
AcDbLine
 10
493.039216
 20
413.659858
 30
0.0
 11
396.142048
 21
413.659858
 31
0.0
  0
LINE
  5
2ED
330
1F
100
AcDbEntity
  8
LC-001-100-D00-0
 62
     7
370
    50
100
AcDbLine
 10
396.142048
 20
413.659858
 30
0.0
 11
396.142048
 21
414.04462
 31
0.0
  0
LINE
  5
2EE
330
1F
100
AcDbEntity
  8
LC-001-100-D00-0
 62
     7
370
    50
100
AcDbLine
 10
396.142048
 20
414.04462
 30
0.0
 11
388.390635
 21
392.747762
 31
0.0
  0
LINE
  5
2EF
330
1F
100
AcDbEntity
  8
LC-001-100-D00-0
 62
     7
370
    50
100
AcDbLine
 10
388.390635
 20
392.747762
 30
0.0
 11
388.390635
 21
388.059916
 31
0.0
  0
LINE
  5
2F0
330
1F
100
AcDbEntity
  8
LC-001-100-D00-0
 62
     7
370
    50
100
AcDbLine
 10
388.390635
 20
388.059916
 30
0.0
 11
386.6844
 21
388.059916
 31
0.0
  0
LINE
  5
2F1
330
1F
100
AcDbEntity
  8
LC-001-100-D00-0
 62
     7
370
    50
100
AcDbLine
 10
386.6844
 20
388.059916
 30
0.0
 11
374.091004
 21
353.459852
 31
0.0
  0
LINE
  5
2F2
330
1F
100
AcDbEntity
  8
LC-001-100-D00-0
 62
     7
370
    50
100
AcDbLine
 10
374.091004
 20
353.459852
 30
0.0
 11
374.090631
 21
353.459852
 31
0.0
  0
LINE
  5
2F3
330
1F
100
AcDbEntity
  8
LC-001-100-D00-0
 62
     7
370
    50
100
AcDbLine
 10
374.090631
 20
345.759856
 30
0.0
 11
374.090631
 21
353.459852
 31
0.0
  0
LINE
  5
2F4
330
1F
100
AcDbEntity
  8
LC-001-100-D00-0
 62
     7
370
    50
100
AcDbLine
 10
373.59063
 20
345.759856
 30
0.0
 11
374.090631
 21
345.759856
 31
0.0
  0
LINE
  5
2F5
330
1F
100
AcDbEntity
  8
LC-001-100-D00-0
 62
     7
370
    50
100
AcDbLine
 10
373.59063
 20
324.459853
 30
0.0
 11
373.59063
 21
345.759856
 31
0.0
  0
ARC
  5
2F6
330
1F
100
AcDbEntity
  8
LC-001-100-D00-0
 62
     7
370
    50
100
AcDbCircle
 10
370.190633
 20
325.459853
 30
0.0
 40
1.0
100
AcDbArc
 50
90.0
 51
180.0
  0
LINE
  5
2F7
330
1F
100
AcDbEntity
  8
LC-001-100-D00-0
 62
     7
370
    50
100
AcDbLine
 10
370.190632
 20
326.459857
 30
0.0
 11
370.690633
 21
326.459857
 31
0.0
  0
LINE
  5
2F8
330
1F
100
AcDbEntity
  8
LC-001-100-D00-0
 62
     7
370
    50
100
AcDbLine
 10
370.690633
 20
326.459857
 30
0.0
 11
370.690633
 21
353.459852
 31
0.0
  0
LINE
  5
2F9
330
1F
100
AcDbEntity
  8
LC-001-100-D00-0
 62
     7
370
    50
100
AcDbLine
 10
370.690633
 20
353.459852
 30
0.0
 11
362.197732
 21
353.459852
 31
0.0
  0
LINE
  5
2FA
330
1F
100
AcDbEntity
  8
LC-001-100-D00-0
 62
     7
370
    50
100
AcDbLine
 10
359.005165
 20
355.284179
 30
0.0
 11
362.197732
 21
353.459852
 31
0.0
  0
LINE
  5
2FB
330
1F
100
AcDbEntity
  8
LC-001-100-D00-0
 62
     7
370
    50
100
AcDbLine
 10
382.046659
 20
418.59016
 30
0.0
 11
359.005165
 21
355.284179
 31
0.0
  0
ARC
  5
2FC
330
1F
100
AcDbEntity
  8
LC-001-100-D00-0
 62
     7
370
    50
100
AcDbCircle
 10
396.142051
 20
413.459859
 30
0.0
 40
15.0
100
AcDbArc
 50
90.0
 51
160.0
  0
LINE
  5
2FD
330
1F
100
AcDbEntity
  8
LC-001-100-D00-0
 62
     7
370
    50
100
AcDbLine
 10
396.142048
 20
428.459855
 30
0.0
 11
456.392897
 21
428.459855
 31
0.0
  0
LINE
  5
2FE
330
1F
100
AcDbEntity
  8
LC-001-100-D00-0
 62
     7
370
    50
100
AcDbLine
 10
456.392897
 20
428.459855
 30
0.0
 11
456.392897
 21
428.559856
 31
0.0
  0
LINE
  5
2FF
330
1F
100
AcDbEntity
  8
LC-001-100-D00-0
 62
     7
370
    50
100
AcDbLine
 10
457.218951
 20
428.559856
 30
0.0
 11
456.392897
 21
428.559856
 31
0.0
  0
LINE
  5
300
330
1F
100
AcDbEntity
  8
LC-001-100-D00-0
 62
     7
370
    50
100
AcDbLine
 10
457.218951
 20
428.459855
 30
0.0
 11
457.218951
 21
428.559856
 31
0.0
  0
LINE
  5
301
330
1F
100
AcDbEntity
  8
LC-001-100-D00-0
 62
     7
370
    50
100
AcDbLine
 10
457.218951
 20
428.459855
 30
0.0
 11
457.796574
 21
428.459855
 31
0.0
  0
LINE
  5
302
330
1F
100
AcDbEntity
  8
LC-001-100-D00-0
 62
     7
370
    50
100
AcDbLine
 10
457.796574
 20
428.559856
 30
0.0
 11
457.796574
 21
428.459855
 31
0.0
  0
LINE
  5
303
330
1F
100
AcDbEntity
  8
LC-001-100-D00-0
 62
     7
370
    50
100
AcDbLine
 10
458.535676
 20
428.559856
 30
0.0
 11
457.796574
 21
428.559856
 31
0.0
  0
LINE
  5
304
330
1F
100
AcDbEntity
  8
LC-001-100-D00-0
 62
     7
370
    50
100
AcDbLine
 10
458.535676
 20
428.559856
 30
0.0
 11
458.535676
 21
428.459855
 31
0.0
  0
LINE
  5
305
330
1F
100
AcDbEntity
  8
LC-001-100-D00-0
 62
     7
370
    50
100
AcDbLine
 10
458.535676
 20
428.459855
 30
0.0
 11
458.914539
 21
428.459855
 31
0.0
  0
LINE
  5
306
330
1F
100
AcDbEntity
  8
LC-001-100-D00-0
 62
     7
370
    50
100
AcDbLine
 10
458.914539
 20
428.459855
 30
0.0
 11
458.914539
 21
428.559856
 31
0.0
  0
LINE
  5
307
330
1F
100
AcDbEntity
  8
LC-001-100-D00-0
 62
     7
370
    50
100
AcDbLine
 10
461.262272
 20
428.559856
 30
0.0
 11
458.914539
 21
428.559856
 31
0.0
  0
LINE
  5
308
330
1F
100
AcDbEntity
  8
LC-001-100-D00-0
 62
     7
370
    50
100
AcDbLine
 10
461.262272
 20
428.559856
 30
0.0
 11
461.262272
 21
428.459855
 31
0.0
  0
LINE
  5
309
330
1F
100
AcDbEntity
  8
LC-001-100-D00-0
 62
     7
370
    50
100
AcDbLine
 10
461.262272
 20
428.459855
 30
0.0
 11
461.697039
 21
428.459855
 31
0.0
  0
LINE
  5
30A
330
1F
100
AcDbEntity
  8
LC-001-100-D00-0
 62
     7
370
    50
100
AcDbLine
 10
461.697039
 20
428.459855
 30
0.0
 11
461.697039
 21
428.559856
 31
0.0
  0
LINE
  5
30B
330
1F
100
AcDbEntity
  8
LC-001-100-D00-0
 62
     7
370
    50
100
AcDbLine
 10
461.697039
 20
428.559856
 30
0.0
 11
462.479617
 21
428.559856
 31
0.0
  0
LINE
  5
30C
330
1F
100
AcDbEntity
  8
LC-001-100-D00-0
 62
     7
370
    50
100
AcDbLine
 10
462.479617
 20
428.559856
 30
0.0
 11
462.479617
 21
428.459855
 31
0.0
  0
LINE
  5
30D
330
1F
100
AcDbEntity
  8
LC-001-100-D00-0
 62
     7
370
    50
100
AcDbLine
 10
462.479617
 20
428.459855
 30
0.0
 11
463.566531
 21
428.459855
 31
0.0
  0
LINE
  5
30E
330
1F
100
AcDbEntity
  8
LC-001-100-D00-0
 62
     7
370
    50
100
AcDbLine
 10
463.566531
 20
428.459855
 30
0.0
 11
463.566531
 21
428.559856
 31
0.0
  0
LINE
  5
30F
330
1F
100
AcDbEntity
  8
LC-001-100-D00-0
 62
     7
370
    50
100
AcDbLine
 10
463.566531
 20
428.559856
 30
0.0
 11
464.34911
 21
428.559856
 31
0.0
  0
LINE
  5
310
330
1F
100
AcDbEntity
  8
LC-001-100-D00-0
 62
     7
370
    50
100
AcDbLine
 10
464.34911
 20
428.559856
 30
0.0
 11
464.34911
 21
428.459855
 31
0.0
  0
LINE
  5
311
330
1F
100
AcDbEntity
  8
LC-001-100-D00-0
 62
     7
370
    50
100
AcDbLine
 10
464.34911
 20
428.459855
 30
0.0
 11
465.436024
 21
428.459855
 31
0.0
  0
LINE
  5
312
330
1F
100
AcDbEntity
  8
LC-001-100-D00-0
 62
     7
370
    50
100
AcDbLine
 10
465.436024
 20
428.459855
 30
0.0
 11
465.436024
 21
428.559856
 31
0.0
  0
LINE
  5
313
330
1F
100
AcDbEntity
  8
LC-001-100-D00-0
 62
     7
370
    50
100
AcDbLine
 10
466.218602
 20
428.559856
 30
0.0
 11
465.436024
 21
428.559856
 31
0.0
  0
LINE
  5
314
330
1F
100
AcDbEntity
  8
LC-001-100-D00-0
 62
     7
370
    50
100
AcDbLine
 10
466.218602
 20
428.559856
 30
0.0
 11
466.218602
 21
428.459855
 31
0.0
  0
LINE
  5
315
330
1F
100
AcDbEntity
  8
LC-001-100-D00-0
 62
     7
370
    50
100
AcDbLine
 10
466.218602
 20
428.459855
 30
0.0
 11
466.783797
 21
428.459855
 31
0.0
  0
LINE
  5
316
330
1F
100
AcDbEntity
  8
LC-001-100-D00-0
 62
     7
370
    50
100
AcDbLine
 10
466.783797
 20
428.459855
 30
0.0
 11
466.783797
 21
428.559856
 31
0.0
  0
LINE
  5
317
330
1F
100
AcDbEntity
  8
LC-001-100-D00-0
 62
     7
370
    50
100
AcDbLine
 10
467.609852
 20
428.559856
 30
0.0
 11
466.783797
 21
428.559856
 31
0.0
  0
LINE
  5
318
330
1F
100
AcDbEntity
  8
LC-001-100-D00-0
 62
     7
370
    50
100
AcDbLine
 10
467.609852
 20
428.559856
 30
0.0
 11
467.609852
 21
428.459855
 31
0.0
  0
LINE
  5
319
330
1F
100
AcDbEntity
  8
LC-001-100-D00-0
 62
     7
370
    50
100
AcDbLine
 10
467.609852
 20
428.459855
 30
0.0
 11
468.175047
 21
428.459855
 31
0.0
  0
LINE
  5
31A
330
1F
100
AcDbEntity
  8
LC-001-100-D00-0
 62
     7
370
    50
100
AcDbLine
 10
468.175047
 20
428.459855
 30
0.0
 11
468.175047
 21
428.559856
 31
0.0
  0
LINE
  5
31B
330
1F
100
AcDbEntity
  8
LC-001-100-D00-0
 62
     7
370
    50
100
AcDbLine
 10
468.957625
 20
428.559856
 30
0.0
 11
468.175047
 21
428.559856
 31
0.0
  0
LINE
  5
31C
330
1F
100
AcDbEntity
  8
LC-001-100-D00-0
 62
     7
370
    50
100
AcDbLine
 10
468.957625
 20
428.559856
 30
0.0
 11
468.957625
 21
428.459855
 31
0.0
  0
LINE
  5
31D
330
1F
100
AcDbEntity
  8
LC-001-100-D00-0
 62
     7
370
    50
100
AcDbLine
 10
468.957625
 20
428.459855
 30
0.0
 11
469.305439
 21
428.459855
 31
0.0
  0
LINE
  5
31E
330
1F
100
AcDbEntity
  8
LC-001-100-D00-0
 62
     7
370
    50
100
AcDbLine
 10
469.305439
 20
428.459855
 30
0.0
 11
469.305439
 21
428.559856
 31
0.0
  0
LINE
  5
31F
330
1F
100
AcDbEntity
  8
LC-001-100-D00-0
 62
     7
370
    50
100
AcDbLine
 10
469.305439
 20
428.559856
 30
0.0
 11
471.218408
 21
428.559856
 31
0.0
  0
LINE
  5
320
330
1F
100
AcDbEntity
  8
LC-001-100-D00-0
 62
     7
370
    50
100
AcDbLine
 10
471.218408
 20
428.559856
 30
0.0
 11
471.218408
 21
428.459855
 31
0.0
  0
LINE
  5
321
330
1F
100
AcDbEntity
  8
LC-001-100-D00-0
 62
     7
370
    50
100
AcDbLine
 10
471.218408
 20
428.459855
 30
0.0
 11
471.696649
 21
428.459855
 31
0.0
  0
LINE
  5
322
330
1F
100
AcDbEntity
  8
LC-001-100-D00-0
 62
     7
370
    50
100
AcDbLine
 10
471.696649
 20
428.459855
 30
0.0
 11
471.696649
 21
428.559856
 31
0.0
  0
LINE
  5
323
330
1F
100
AcDbEntity
  8
LC-001-100-D00-0
 62
     7
370
    50
100
AcDbLine
 10
474.019716
 20
428.559856
 30
0.0
 11
471.696649
 21
428.559856
 31
0.0
  0
LINE
  5
324
330
1F
100
AcDbEntity
  8
LC-001-100-D00-0
 62
     7
370
    50
100
AcDbLine
 10
474.019716
 20
428.559856
 30
0.0
 11
474.019716
 21
428.459855
 31
0.0
  0
LINE
  5
325
330
1F
100
AcDbEntity
  8
LC-001-100-D00-0
 62
     7
370
    50
100
AcDbLine
 10
474.019716
 20
428.459855
 30
0.0
 11
493.039216
 21
428.459855
 31
0.0
  0
ARC
  5
326
330
1F
100
AcDbEntity
  8
LC-001-100-D00-0
 62
     7
370
    50
100
AcDbCircle
 10
493.039215
 20
413.459859
 30
0.0
 40
14.99999999999998
100
AcDbArc
 50
20.0
 51
90.0
  0
LINE
  5
327
330
1F
100
AcDbEntity
  8
LC-001-100-D00-0
 62
     7
370
    50
100
AcDbLine
 10
530.1761
 20
355.284179
 30
0.0
 11
507.134606
 21
418.59016
 31
0.0
  0
LINE
  5
328
330
1F
100
AcDbEntity
  8
LC-001-100-D00-0
 62
     7
370
    50
100
AcDbLine
 10
526.983534
 20
353.459852
 30
0.0
 11
530.1761
 21
355.284179
 31
0.0
  0
LINE
  5
329
330
1F
100
AcDbEntity
  8
LC-001-100-D00-0
 62
     7
370
    50
100
AcDbLine
 10
526.983534
 20
353.459852
 30
0.0
 11
518.490632
 21
353.459852
 31
0.0
  0
LINE
  5
32A
330
1F
100
AcDbEntity
  8
LC-001-100-D00-0
 62
     7
370
    50
100
AcDbLine
 10
518.490632
 20
353.459852
 30
0.0
 11
518.490632
 21
326.459857
 31
0.0
  0
LINE
  5
32B
330
1F
100
AcDbEntity
  8
LC-001-100-D00-0
 62
     7
370
    50
100
AcDbLine
 10
518.490632
 20
326.459857
 30
0.0
 11
518.990633
 21
326.459857
 31
0.0
  0
LINE
  5
32C
330
1F
100
AcDbEntity
  8
LC-001-100-D00-0
 62
     7
370
    50
100
AcDbLine
 10
515.590631
 20
324.459853
 30
0.0
 11
518.990633
 21
324.459853
 31
0.0
  0
LINE
  5
32D
330
1F
100
AcDbEntity
  8
LC-001-100-D00-0
 62
     7
370
    50
100
AcDbLine
 10
515.590631
 20
345.759856
 30
0.0
 11
515.590631
 21
324.459853
 31
0.0
  0
LINE
  5
32E
330
1F
100
AcDbEntity
  8
LC-001-100-D00-0
 62
     7
370
    50
100
AcDbLine
 10
515.090634
 20
345.759856
 30
0.0
 11
515.590631
 21
345.759856
 31
0.0
  0
LINE
  5
32F
330
1F
100
AcDbEntity
  8
LC-001-100-D00-0
 62
     7
370
    50
100
AcDbLine
 10
515.090634
 20
353.459852
 30
0.0
 11
515.090634
 21
345.759856
 31
0.0
  0
LINE
  5
330
330
1F
100
AcDbEntity
  8
LC-001-100-D00-0
 62
     7
370
    50
100
AcDbLine
 10
515.090634
 20
353.459852
 30
0.0
 11
515.090262
 21
353.459852
 31
0.0
  0
LINE
  5
331
330
1F
100
AcDbEntity
  8
LC-001-100-D00-0
 62
     7
370
    50
100
AcDbLine
 10
515.090262
 20
353.459852
 30
0.0
 11
502.496869
 21
388.059916
 31
0.0
  0
LINE
  5
332
330
1F
100
AcDbEntity
  8
LC-001-100-D00-0
 62
     7
370
    50
100
AcDbLine
 10
502.496869
 20
388.059916
 30
0.0
 11
500.790634
 21
388.059916
 31
0.0
  0
LINE
  5
333
330
1F
100
AcDbEntity
  8
LC-001-100-D00-0
 62
     7
370
    50
100
AcDbLine
 10
500.790634
 20
388.059916
 30
0.0
 11
500.790634
 21
392.747762
 31
0.0
  0
LINE
  5
334
330
1F
100
AcDbEntity
  8
LC-001-100-D00-0
 62
     7
370
    50
100
AcDbLine
 10
370.190632
 20
324.459853
 30
0.0
 11
373.59063
 21
324.459853
 31
0.0
  0
LINE
  5
335
330
1F
100
AcDbEntity
  8
LC-001-100-D00-0
 62
     7
370
    50
100
AcDbLine
 10
514.603206
 20
324.459853
 30
0.0
 11
514.603206
 21
344.759853
 31
0.0
  0
INSERT
  5
347
330
1F
100
AcDbEntity
  8
LC-001-100-D00-0
 62
     7
370
    50
100
AcDbBlockReference
  2
POLY19
 10
0.0
 20
0.0
 30
0.0
  0
LINE
  5
348
330
1F
100
AcDbEntity
  8
LC-001-100-D00-0
 62
     7
370
    50
100
AcDbLine
 10
514.603206
 20
324.459853
 30
0.0
 11
515.590631
 21
324.459853
 31
0.0
  0
INSERT
  5
35A
330
1F
100
AcDbEntity
  8
LC-001-100-D00-0
 62
     7
370
    50
100
AcDbBlockReference
  2
POLY20
 10
0.0
 20
0.0
 30
0.0
  0
LINE
  5
35B
330
1F
100
AcDbEntity
  8
LC-001-100-D00-0
 62
     7
370
    50
100
AcDbLine
 10
374.578078
 20
344.759853
 30
0.0
 11
374.578078
 21
324.459853
 31
0.0
  0
LINE
  5
35C
330
1F
100
AcDbEntity
  8
LC-001-100-D00-0
 62
     7
370
    50
100
AcDbLine
 10
373.59063
 20
324.459853
 30
0.0
 11
374.578078
 21
324.459853
 31
0.0
  0
LINE
  5
35D
330
1F
100
AcDbEntity
  8
LC-001-100-D00-0
 62
     7
370
    50
100
AcDbLine
 10
374.091004
 20
353.459852
 30
0.0
 11
376.433966
 21
353.459852
 31
0.0
  0
LINE
  5
35E
330
1F
100
AcDbEntity
  8
LC-001-100-D00-0
 62
     7
370
    50
100
AcDbLine
 10
376.552482
 20
353.459852
 30
0.0
 11
383.421686
 21
353.459852
 31
0.0
  0
LINE
  5
35F
330
1F
100
AcDbEntity
  8
LC-001-100-D00-0
 62
     7
370
    50
100
AcDbLine
 10
383.650643
 20
353.459852
 30
0.0
 11
394.57797
 21
353.459852
 31
0.0
  0
LINE
  5
360
330
1F
100
AcDbEntity
  8
LC-001-100-D00-0
 62
     7
370
    50
100
AcDbLine
 10
394.901765
 20
353.459852
 30
0.0
 11
409.14254
 21
353.459852
 31
0.0
  0
LINE
  5
361
330
1F
100
AcDbEntity
  8
LC-001-100-D00-0
 62
     7
370
    50
100
AcDbLine
 10
409.539097
 20
353.459852
 30
0.0
 11
426.122834
 21
353.459852
 31
0.0
  0
LINE
  5
362
330
1F
100
AcDbEntity
  8
LC-001-100-D00-0
 62
     7
370
    50
100
AcDbLine
 10
426.565138
 20
353.459852
 30
0.0
 11
444.36168
 21
353.459852
 31
0.0
  0
LINE
  5
363
330
1F
100
AcDbEntity
  8
LC-001-100-D00-0
 62
     7
370
    50
100
AcDbLine
 10
444.819587
 20
353.459852
 30
0.0
 11
462.616128
 21
353.459852
 31
0.0
  0
LINE
  5
364
330
1F
100
AcDbEntity
  8
LC-001-100-D00-0
 62
     7
370
    50
100
AcDbLine
 10
463.058432
 20
353.459852
 30
0.0
 11
479.642168
 21
353.459852
 31
0.0
  0
LINE
  5
365
330
1F
100
AcDbEntity
  8
LC-001-100-D00-0
 62
     7
370
    50
100
AcDbLine
 10
480.038727
 20
353.459852
 30
0.0
 11
494.279503
 21
353.459852
 31
0.0
  0
LINE
  5
366
330
1F
100
AcDbEntity
  8
LC-001-100-D00-0
 62
     7
370
    50
100
AcDbLine
 10
494.603292
 20
353.459852
 30
0.0
 11
505.530626
 21
353.459852
 31
0.0
  0
LINE
  5
367
330
1F
100
AcDbEntity
  8
LC-001-100-D00-0
 62
     7
370
    50
100
AcDbLine
 10
505.759579
 20
353.459852
 30
0.0
 11
512.628787
 21
353.459852
 31
0.0
  0
LINE
  5
368
330
1F
100
AcDbEntity
  8
LC-001-100-D00-0
 62
     7
370
    50
100
AcDbLine
 10
512.747304
 20
353.459852
 30
0.0
 11
515.090262
 21
353.459852
 31
0.0
  0
LINE
  5
369
330
1F
100
AcDbEntity
  8
LC-001-100-D00-0
 62
     7
370
    50
100
AcDbLine
 10
374.090631
 20
345.759856
 30
0.0
 11
515.090634
 21
345.759856
 31
0.0
  0
LINE
  5
36A
330
1F
100
AcDbEntity
  8
LC-001-100-D00-0
 62
     7
370
    50
100
AcDbLine
 10
466.783797
 20
428.559856
 30
0.0
 11
466.783797
 21
428.459855
 31
0.0
  0
LINE
  5
36B
330
1F
100
AcDbEntity
  8
LC-001-100-D00-0
 62
     7
370
    50
100
AcDbLine
 10
466.783797
 20
428.559856
 30
0.0
 11
466.783797
 21
428.559856
 31
0.0
  0
LINE
  5
36C
330
1F
100
AcDbEntity
  8
LC-001-100-D00-0
 62
     7
370
    50
100
AcDbLine
 10
474.044384
 20
428.559856
 30
0.0
 11
474.044384
 21
428.459855
 31
0.0
  0
LINE
  5
36D
330
1F
100
AcDbEntity
  8
LC-001-100-D00-0
 62
     7
370
    50
100
AcDbLine
 10
474.019716
 20
428.559856
 30
0.0
 11
474.044384
 21
428.559856
 31
0.0
  0
LINE
  5
36E
330
1F
100
AcDbEntity
  8
LC-001-100-D00-0
 62
     7
370
    50
100
AcDbLine
 10
390.019325
 20
393.366622
 30
0.0
 11
388.615881
 21
393.366622
 31
0.0
  0
LINE
  5
36F
330
1F
100
AcDbEntity
  8
LC-001-100-D00-0
 62
     7
370
    50
100
AcDbLine
 10
390.019325
 20
393.366622
 30
0.0
 11
390.019325
 21
392.780097
 31
0.0
  0
ELLIPSE
  5
370
330
1F
100
AcDbEntity
  8
LC-001-100-D00-0
 62
     7
370
    50
100
AcDbEllipse
 10
444.590633
 20
547.156029
 30
0.0
 11
-54.69271162370517
 21
-154.3402810312504
 31
0.0
210
0.0
220
0.0
230
1.0
 40
0.083767
 41
3.150803750597226
 42
3.191731874073071
  0
LINE
  5
371
330
1F
100
AcDbEntity
  8
LC-001-100-D00-0
 62
     7
370
    50
100
AcDbLine
 10
395.355199
 20
393.366622
 30
0.0
 11
390.820813
 21
393.366622
 31
0.0
  0
LINE
  5
372
330
1F
100
AcDbEntity
  8
LC-001-100-D00-0
 62
     7
370
    50
100
AcDbLine
 10
395.355199
 20
393.366622
 30
0.0
 11
395.355199
 21
392.780097
 31
0.0
  0
ELLIPSE
  5
373
330
1F
100
AcDbEntity
  8
LC-001-100-D00-0
 62
     7
370
    50
100
AcDbEllipse
 10
444.590633
 20
547.156029
 30
0.0
 11
-50.10599910012325
 21
-154.1865670813498
 31
0.0
210
0.0
220
0.0
230
1.0
 40
0.165076
 41
3.174721918189718
 42
3.215650041665557
  0
LINE
  5
374
330
1F
100
AcDbEntity
  8
LC-001-100-D00-0
 62
     7
370
    50
100
AcDbLine
 10
404.04638
 20
393.366622
 30
0.0
 11
396.690075
 21
393.366622
 31
0.0
  0
LINE
  5
375
330
1F
100
AcDbEntity
  8
LC-001-100-D00-0
 62
     7
370
    50
100
AcDbLine
 10
404.04638
 20
393.366622
 30
0.0
 11
404.04638
 21
392.780097
 31
0.0
  0
ELLIPSE
  5
376
330
1F
100
AcDbEntity
  8
LC-001-100-D00-0
 62
     7
370
    50
100
AcDbEllipse
 10
444.590633
 20
547.156029
 30
0.0
 11
-42.26835833949257
 21
-154.0735723013288
 31
0.0
210
0.0
220
0.0
230
1.0
 40
0.240393
 41
3.186982284715608
 42
3.227910408191449
  0
LINE
  5
377
330
1F
100
AcDbEntity
  8
LC-001-100-D00-0
 62
     7
370
    50
100
AcDbLine
 10
415.500586
 20
393.366622
 30
0.0
 11
405.823679
 21
393.366622
 31
0.0
  0
LINE
  5
378
330
1F
100
AcDbEntity
  8
LC-001-100-D00-0
 62
     7
370
    50
100
AcDbLine
 10
415.500586
 20
393.366622
 30
0.0
 11
415.500586
 21
392.780097
 31
0.0
  0
ELLIPSE
  5
379
330
1F
100
AcDbEntity
  8
LC-001-100-D00-0
 62
     7
370
    50
100
AcDbEllipse
 10
444.590633
 20
547.156029
 30
0.0
 11
-31.02069845648411
 21
-154.1198904247401
 31
0.0
210
0.0
220
0.0
230
1.0
 40
0.30407
 41
3.182254375888675
 42
3.223182499364514
  0
LINE
  5
37A
330
1F
100
AcDbEntity
  8
LC-001-100-D00-0
 62
     7
370
    50
100
AcDbLine
 10
428.937235
 20
393.366622
 30
0.0
 11
417.492446
 21
393.366622
 31
0.0
  0
LINE
  5
37B
330
1F
100
AcDbEntity
  8
LC-001-100-D00-0
 62
     7
370
    50
100
AcDbLine
 10
428.937235
 20
393.366622
 30
0.0
 11
428.937235
 21
392.780097
 31
0.0
  0
ELLIPSE
  5
37C
330
1F
100
AcDbEntity
  8
LC-001-100-D00-0
 62
     7
370
    50
100
AcDbEllipse
 10
444.590633
 20
547.156029
 30
0.0
 11
-16.56207463459362
 21
-154.3006263193186
 31
0.0
210
0.0
220
0.0
230
1.0
 40
0.348049
 41
3.158469548149911
 42
3.199397671625754
  0
LINE
  5
37D
330
1F
100
AcDbEntity
  8
LC-001-100-D00-0
 62
     7
370
    50
100
AcDbLine
 10
443.440634
 20
393.366622
 30
0.0
 11
431.158864
 21
393.366622
 31
0.0
  0
ELLIPSE
  5
37E
330
1F
100
AcDbEntity
  8
LC-001-100-D00-0
 62
     7
370
    50
100
AcDbEllipse
 10
444.590633
 20
547.156029
 30
0.0
 11
0.0
 21
-154.4082631621091
 31
0.0
210
0.0
220
0.0
230
1.0
 40
0.36397
 41
3.121128591851878
 42
3.162056715327757
  0
LINE
  5
37F
330
1F
100
AcDbEntity
  8
LC-001-100-D00-0
 62
     7
370
    50
100
AcDbLine
 10
458.022403
 20
393.366622
 30
0.0
 11
445.740634
 21
393.366622
 31
0.0
  0
ELLIPSE
  5
380
330
1F
100
AcDbEntity
  8
LC-001-100-D00-0
 62
     7
370
    50
100
AcDbEllipse
 10
444.590633
 20
547.156029
 30
0.0
 11
16.56207463459329
 21
-154.3006263193115
 31
0.0
210
0.0
220
0.0
230
1.0
 40
0.348049
 41
3.083787635553869
 42
3.124715759029709
  0
LINE
  5
381
330
1F
100
AcDbEntity
  8
LC-001-100-D00-0
 62
     7
370
    50
100
AcDbLine
 10
460.244033
 20
393.366622
 30
0.0
 11
460.244033
 21
392.780097
 31
0.0
  0
LINE
  5
382
330
1F
100
AcDbEntity
  8
LC-001-100-D00-0
 62
     7
370
    50
100
AcDbLine
 10
471.68882
 20
393.366622
 30
0.0
 11
460.244033
 21
393.366622
 31
0.0
  0
ELLIPSE
  5
383
330
1F
100
AcDbEntity
  8
LC-001-100-D00-0
 62
     7
370
    50
100
AcDbEllipse
 10
444.590633
 20
547.156029
 30
0.0
 11
31.0206984564823
 21
-154.1198904247291
 31
0.0
210
0.0
220
0.0
230
1.0
 40
0.30407
 41
3.060002807815121
 42
3.100930931290962
  0
LINE
  5
384
330
1F
100
AcDbEntity
  8
LC-001-100-D00-0
 62
     7
370
    50
100
AcDbLine
 10
473.680679
 20
393.366622
 30
0.0
 11
473.680679
 21
392.780097
 31
0.0
  0
LINE
  5
385
330
1F
100
AcDbEntity
  8
LC-001-100-D00-0
 62
     7
370
    50
100
AcDbLine
 10
483.357589
 20
393.366622
 30
0.0
 11
473.680679
 21
393.366622
 31
0.0
  0
ELLIPSE
  5
386
330
1F
100
AcDbEntity
  8
LC-001-100-D00-0
 62
     7
370
    50
100
AcDbEllipse
 10
444.590633
 20
547.156029
 30
0.0
 11
42.26835833950038
 21
-154.0735723013566
 31
0.0
210
0.0
220
0.0
230
1.0
 40
0.240393
 41
3.055274898988157
 42
3.096203022463995
  0
LINE
  5
387
330
1F
100
AcDbEntity
  8
LC-001-100-D00-0
 62
     7
370
    50
100
AcDbLine
 10
485.134886
 20
393.366622
 30
0.0
 11
485.134886
 21
392.780097
 31
0.0
  0
LINE
  5
388
330
1F
100
AcDbEntity
  8
LC-001-100-D00-0
 62
     7
370
    50
100
AcDbLine
 10
492.491192
 20
393.366622
 30
0.0
 11
485.134886
 21
393.366622
 31
0.0
  0
ELLIPSE
  5
389
330
1F
100
AcDbEntity
  8
LC-001-100-D00-0
 62
     7
370
    50
100
AcDbEllipse
 10
444.590633
 20
547.156029
 30
0.0
 11
50.10599910008437
 21
-154.1865670812296
 31
0.0
210
0.0
220
0.0
230
1.0
 40
0.165076
 41
3.067535265514142
 42
3.10846338898998
  0
LINE
  5
38A
330
1F
100
AcDbEntity
  8
LC-001-100-D00-0
 62
     7
370
    50
100
AcDbLine
 10
493.82607
 20
393.366622
 30
0.0
 11
493.82607
 21
392.780097
 31
0.0
  0
LINE
  5
38B
330
1F
100
AcDbEntity
  8
LC-001-100-D00-0
 62
     7
370
    50
100
AcDbLine
 10
498.360452
 20
393.366622
 30
0.0
 11
493.82607
 21
393.366622
 31
0.0
  0
ELLIPSE
  5
38C
330
1F
100
AcDbEntity
  8
LC-001-100-D00-0
 62
     7
370
    50
100
AcDbEllipse
 10
444.590633
 20
547.156029
 30
0.0
 11
54.69271162372314
 21
-154.3402810313007
 31
0.0
210
0.0
220
0.0
230
1.0
 40
0.083767
 41
3.091453433105948
 42
3.13238155658179
  0
LINE
  5
38D
330
1F
100
AcDbEntity
  8
LC-001-100-D00-0
 62
     7
370
    50
100
AcDbLine
 10
499.161941
 20
393.366622
 30
0.0
 11
499.161941
 21
392.780097
 31
0.0
  0
LINE
  5
38E
330
1F
100
AcDbEntity
  8
LC-001-100-D00-0
 62
     7
370
    50
100
AcDbLine
 10
500.565388
 20
393.366622
 30
0.0
 11
499.161941
 21
393.366622
 31
0.0
  0
LINE
  5
38F
330
1F
100
AcDbEntity
  8
LC-001-100-D00-0
 62
     7
370
    50
100
AcDbLine
 10
500.790634
 20
388.059916
 30
0.0
 11
388.390635
 21
388.059916
 31
0.0
  0
LINE
  5
390
330
1F
100
AcDbEntity
  8
LC-001-100-D00-0
 62
     7
370
    50
100
AcDbLine
 10
457.796574
 20
428.559856
 30
0.0
 11
457.666145
 21
428.559856
 31
0.0
  0
LINE
  5
391
330
1F
100
AcDbEntity
  8
LC-001-100-D00-0
 62
     7
370
    50
100
AcDbLine
 10
467.609852
 20
428.559856
 30
0.0
 11
467.696805
 21
428.559856
 31
0.0
  0
LINE
  5
392
330
1F
100
AcDbEntity
  8
LC-001-100-D00-0
 62
     7
370
    50
100
AcDbLine
 10
466.696844
 20
428.559856
 30
0.0
 11
466.783797
 21
428.559856
 31
0.0
  0
LINE
  5
393
330
1F
100
AcDbEntity
  8
LC-001-100-D00-0
 62
     7
370
    50
100
AcDbLine
 10
466.218602
 20
428.559856
 30
0.0
 11
466.305555
 21
428.559856
 31
0.0
  0
LINE
  5
394
330
1F
100
AcDbEntity
  8
LC-001-100-D00-0
 62
     7
370
    50
100
AcDbLine
 10
468.088094
 20
428.559856
 30
0.0
 11
468.175047
 21
428.559856
 31
0.0
  0
LINE
  5
395
330
1F
100
AcDbEntity
  8
LC-001-100-D00-0
 62
     7
370
    50
100
AcDbLine
 10
457.666145
 20
428.559856
 30
0.0
 11
457.218951
 21
428.559856
 31
0.0
  0
LINE
  5
396
330
1F
100
AcDbEntity
  8
LC-001-100-D00-0
 62
     7
370
    50
100
AcDbLine
 10
466.305555
 20
428.559856
 30
0.0
 11
466.696844
 21
428.559856
 31
0.0
  0
LINE
  5
397
330
1F
100
AcDbEntity
  8
LC-001-100-D00-0
 62
     7
370
    50
100
AcDbLine
 10
467.696805
 20
428.559856
 30
0.0
 11
468.088094
 21
428.559856
 31
0.0
  0
LINE
  5
398
330
1F
100
AcDbEntity
  8
LC-001-100-D00-0
 62
     7
370
    50
100
AcDbLine
 10
485.134886
 20
392.780097
 30
0.0
 11
479.76115
 21
413.659858
 31
0.0
  0
LINE
  5
399
330
1F
100
AcDbEntity
  8
LC-001-100-D00-0
 62
     7
370
    50
100
AcDbLine
 10
503.664383
 20
353.459852
 30
0.0
 11
504.784723
 21
354.365224
 31
0.0
  0
LINE
  5
39A
330
1F
100
AcDbEntity
  8
LC-001-100-D00-0
 62
     7
370
    50
100
AcDbLine
 10
495.254572
 20
353.459852
 30
0.0
 11
486.349699
 21
388.059916
 31
0.0
  0
LINE
  5
39B
330
1F
100
AcDbEntity
  8
LC-001-100-D00-0
 62
     7
370
    50
100
AcDbLine
 10
385.516887
 20
353.459852
 30
0.0
 11
384.396543
 21
354.365224
 31
0.0
  0
LINE
  5
39C
330
1F
100
AcDbEntity
  8
LC-001-100-D00-0
 62
     7
370
    50
100
AcDbLine
 10
404.04638
 20
392.780097
 30
0.0
 11
409.420115
 21
413.659858
 31
0.0
  0
LINE
  5
39D
330
1F
100
AcDbEntity
  8
LC-001-100-D00-0
 62
     7
370
    50
100
AcDbLine
 10
393.926692
 20
353.459852
 30
0.0
 11
402.831566
 21
388.059916
 31
0.0
  0
LINE
  5
39E
330
1F
100
AcDbEntity
  8
LC-001-100-D00-0
 62
     7
370
    50
100
AcDbLine
 10
370.690633
 20
336.759852
 30
0.0
 11
368.572553
 21
336.759852
 31
0.0
  0
LINE
  5
39F
330
1F
100
AcDbEntity
  8
LC-001-100-D00-0
 62
     7
370
    50
100
AcDbLine
 10
368.572553
 20
336.759852
 30
0.0
 11
368.572553
 21
353.459852
 31
0.0
  0
LINE
  5
3A0
330
1F
100
AcDbEntity
  8
LC-001-100-D00-0
 62
     7
370
    50
100
AcDbLine
 10
390.019325
 20
392.780097
 30
0.0
 11
397.359987
 21
413.659858
 31
0.0
  0
LINE
  5
3A1
330
1F
100
AcDbEntity
  8
LC-001-100-D00-0
 62
     7
370
    50
100
AcDbLine
 10
376.195577
 20
353.459852
 30
0.0
 11
388.359864
 21
388.059916
 31
0.0
  0
LINE
  5
3A2
330
1F
100
AcDbEntity
  8
LC-001-100-D00-0
 62
     7
370
    50
100
AcDbLine
 10
499.161941
 20
392.780097
 30
0.0
 11
491.821281
 21
413.659858
 31
0.0
  0
LINE
  5
3A3
330
1F
100
AcDbEntity
  8
LC-001-100-D00-0
 62
     7
370
    50
100
AcDbLine
 10
520.608713
 20
336.759852
 30
0.0
 11
520.608713
 21
353.459852
 31
0.0
  0
LINE
  5
3A4
330
1F
100
AcDbEntity
  8
LC-001-100-D00-0
 62
     7
370
    50
100
AcDbLine
 10
520.608713
 20
336.759852
 30
0.0
 11
518.490632
 21
336.759852
 31
0.0
  0
LINE
  5
3A5
330
1F
100
AcDbEntity
  8
LC-001-100-D00-0
 62
     7
370
    50
100
AcDbLine
 10
512.985685
 20
353.459852
 30
0.0
 11
500.821405
 21
388.059916
 31
0.0
  0
LINE
  5
3A6
330
1F
100
AcDbEntity
  8
LC-001-100-D00-0
 62
     7
370
    50
100
AcDbLine
 10
498.566654
 20
392.780097
 30
0.0
 11
491.225996
 21
413.659858
 31
0.0
  0
LINE
  5
3A7
330
1F
100
AcDbEntity
  8
LC-001-100-D00-0
 62
     7
370
    50
100
AcDbLine
 10
390.614611
 20
392.780097
 30
0.0
 11
397.955273
 21
413.659858
 31
0.0
  0
INSERT
  5
3B9
330
1F
100
AcDbEntity
  8
LC-001-100-D00-0
 62
     7
370
    50
100
AcDbBlockReference
  2
POLY21
 10
0.0
 20
0.0
 30
0.0
  0
INSERT
  5
3CB
330
1F
100
AcDbEntity
  8
LC-001-100-D00-0
 62
     7
370
    50
100
AcDbBlockReference
  2
POLY22
 10
0.0
 20
0.0
 30
0.0
  0
LINE
  5
3CC
330
1F
100
AcDbEntity
  8
LC-001-100-D00-0
 62
     7
370
    50
100
AcDbLine
 10
430.790649
 20
344.759853
 30
0.0
 11
430.790649
 21
336.759852
 31
0.0
  0
LINE
  5
3CD
330
1F
100
AcDbEntity
  8
LC-001-100-D00-0
 62
     7
370
    50
100
AcDbLine
 10
374.944691
 20
336.759852
 30
0.0
 11
430.790649
 21
336.759852
 31
0.0
  0
LINE
  5
3CE
330
1F
100
AcDbEntity
  8
LC-001-100-D00-0
 62
     7
370
    50
100
AcDbLine
 10
374.944691
 20
336.759852
 30
0.0
 11
374.944691
 21
344.759853
 31
0.0
  0
INSERT
  5
3E0
330
1F
100
AcDbEntity
  8
LC-001-100-D00-0
 62
     7
370
    50
100
AcDbBlockReference
  2
POLY23
 10
0.0
 20
0.0
 30
0.0
  0
INSERT
  5
3F2
330
1F
100
AcDbEntity
  8
LC-001-100-D00-0
 62
     7
370
    50
100
AcDbBlockReference
  2
POLY24
 10
0.0
 20
0.0
 30
0.0
  0
LINE
  5
3F3
330
1F
100
AcDbEntity
  8
LC-001-100-D00-0
 62
     7
370
    50
100
AcDbLine
 10
514.2366
 20
344.759853
 30
0.0
 11
514.2366
 21
336.759852
 31
0.0
  0
LINE
  5
3F4
330
1F
100
AcDbEntity
  8
LC-001-100-D00-0
 62
     7
370
    50
100
AcDbLine
 10
458.39073
 20
336.759852
 30
0.0
 11
514.2366
 21
336.759852
 31
0.0
  0
LINE
  5
3F5
330
1F
100
AcDbEntity
  8
LC-001-100-D00-0
 62
     7
370
    50
100
AcDbLine
 10
458.39073
 20
336.759852
 30
0.0
 11
458.39073
 21
344.759853
 31
0.0
  0
LINE
  5
3F6
330
1F
100
AcDbEntity
  8
LC-001-100-D00-0
 62
     7
370
    50
100
AcDbLine
 10
514.2366
 20
336.759852
 30
0.0
 11
514.603206
 21
336.759852
 31
0.0
  0
LINE
  5
3F7
330
1F
100
AcDbEntity
  8
LC-001-100-D00-0
 62
     7
370
    50
100
AcDbLine
 10
374.578078
 20
336.759852
 30
0.0
 11
374.944691
 21
336.759852
 31
0.0
  0
LINE
  5
3F8
330
1F
100
AcDbEntity
  8
LC-001-100-D00-0
 62
     7
370
    50
100
AcDbLine
 10
512.628787
 20
353.459852
 30
0.0
 11
512.747304
 21
353.459852
 31
0.0
  0
LINE
  5
3F9
330
1F
100
AcDbEntity
  8
LC-001-100-D00-0
 62
     7
370
    50
100
AcDbLine
 10
512.390402
 20
353.459852
 30
0.0
 11
500.226122
 21
388.059916
 31
0.0
  0
LINE
  5
3FA
330
1F
100
AcDbEntity
  8
LC-001-100-D00-0
 62
     7
370
    50
100
AcDbLine
 10
376.433966
 20
353.459852
 30
0.0
 11
376.552482
 21
353.459852
 31
0.0
  0
LINE
  5
3FB
330
1F
100
AcDbEntity
  8
LC-001-100-D00-0
 62
     7
370
    50
100
AcDbLine
 10
376.790863
 20
353.459852
 30
0.0
 11
388.955143
 21
388.059916
 31
0.0
  0
LINE
  5
3FC
330
1F
100
AcDbEntity
  8
LC-001-100-D00-0
 62
     7
370
    50
100
AcDbLine
 10
493.82607
 20
392.780097
 30
0.0
 11
487.244614
 21
413.659858
 31
0.0
  0
LINE
  5
3FD
330
1F
100
AcDbEntity
  8
LC-001-100-D00-0
 62
     7
370
    50
100
AcDbLine
 10
506.220103
 20
353.459852
 30
0.0
 11
495.313904
 21
388.059916
 31
0.0
  0
LINE
  5
3FE
330
1F
100
AcDbEntity
  8
LC-001-100-D00-0
 62
     7
370
    50
100
AcDbLine
 10
395.355199
 20
392.780097
 30
0.0
 11
401.936655
 21
413.659858
 31
0.0
  0
LINE
  5
3FF
330
1F
100
AcDbEntity
  8
LC-001-100-D00-0
 62
     7
370
    50
100
AcDbLine
 10
382.961166
 20
353.459852
 30
0.0
 11
393.867363
 21
388.059916
 31
0.0
  0
LINE
  5
400
330
1F
100
AcDbEntity
  8
LC-001-100-D00-0
 62
     7
370
    50
100
AcDbLine
 10
492.676071
 20
392.780097
 30
0.0
 11
486.094614
 21
413.659858
 31
0.0
  0
LINE
  5
401
330
1F
100
AcDbEntity
  8
LC-001-100-D00-0
 62
     7
370
    50
100
AcDbLine
 10
396.505197
 20
392.780097
 30
0.0
 11
403.086652
 21
413.659858
 31
0.0
  0
LINE
  5
402
330
1F
100
AcDbEntity
  8
LC-001-100-D00-0
 62
     7
370
    50
100
AcDbLine
 10
505.530626
 20
353.459852
 30
0.0
 11
505.759579
 21
353.459852
 31
0.0
  0
LINE
  5
403
330
1F
100
AcDbEntity
  8
LC-001-100-D00-0
 62
     7
370
    50
100
AcDbLine
 10
505.070102
 20
353.459852
 30
0.0
 11
494.163905
 21
388.059916
 31
0.0
  0
LINE
  5
404
330
1F
100
AcDbEntity
  8
LC-001-100-D00-0
 62
     7
370
    50
100
AcDbLine
 10
383.421686
 20
353.459852
 30
0.0
 11
383.650643
 21
353.459852
 31
0.0
  0
LINE
  5
405
330
1F
100
AcDbEntity
  8
LC-001-100-D00-0
 62
     7
370
    50
100
AcDbLine
 10
384.111163
 20
353.459852
 30
0.0
 11
395.01736
 21
388.059916
 31
0.0
  0
LINE
  5
406
330
1F
100
AcDbEntity
  8
LC-001-100-D00-0
 62
     7
370
    50
100
AcDbLine
 10
483.508541
 20
392.780097
 30
0.0
 11
478.134804
 21
413.659858
 31
0.0
  0
LINE
  5
407
330
1F
100
AcDbEntity
  8
LC-001-100-D00-0
 62
     7
370
    50
100
AcDbLine
 10
405.672726
 20
392.780097
 30
0.0
 11
411.046461
 21
413.659858
 31
0.0
  0
LINE
  5
408
330
1F
100
AcDbEntity
  8
LC-001-100-D00-0
 62
     7
370
    50
100
AcDbLine
 10
473.680679
 20
392.780097
 30
0.0
 11
469.880873
 21
413.659858
 31
0.0
  0
LINE
  5
409
330
1F
100
AcDbEntity
  8
LC-001-100-D00-0
 62
     7
370
    50
100
AcDbLine
 10
488.379295
 20
355.284179
 30
0.0
 11
482.414599
 21
388.059916
 31
0.0
  0
LINE
  5
40A
330
1F
100
AcDbEntity
  8
LC-001-100-D00-0
 62
     7
370
    50
100
AcDbLine
 10
481.448856
 20
393.366622
 30
0.0
 11
477.75579
 21
413.659858
 31
0.0
  0
LINE
  5
40B
330
1F
100
AcDbEntity
  8
LC-001-100-D00-0
 62
     7
370
    50
100
AcDbLine
 10
486.783012
 20
353.459852
 30
0.0
 11
488.379295
 21
355.284179
 31
0.0
  0
LINE
  5
40C
330
1F
100
AcDbEntity
  8
LC-001-100-D00-0
 62
     7
370
    50
100
AcDbLine
 10
480.836376
 20
353.459852
 30
0.0
 11
474.53968
 21
388.059916
 31
0.0
  0
LINE
  5
40D
330
1F
100
AcDbEntity
  8
LC-001-100-D00-0
 62
     7
370
    50
100
AcDbLine
 10
402.398256
 20
353.459852
 30
0.0
 11
400.801969
 21
355.284179
 31
0.0
  0
LINE
  5
40E
330
1F
100
AcDbEntity
  8
LC-001-100-D00-0
 62
     7
370
    50
100
AcDbLine
 10
400.801969
 20
355.284179
 30
0.0
 11
406.766669
 21
388.059916
 31
0.0
  0
LINE
  5
40F
330
1F
100
AcDbEntity
  8
LC-001-100-D00-0
 62
     7
370
    50
100
AcDbLine
 10
407.732409
 20
393.366622
 30
0.0
 11
411.425476
 21
413.659858
 31
0.0
  0
LINE
  5
410
330
1F
100
AcDbEntity
  8
LC-001-100-D00-0
 62
     7
370
    50
100
AcDbLine
 10
415.500586
 20
392.780097
 30
0.0
 11
419.300393
 21
413.659858
 31
0.0
  0
LINE
  5
411
330
1F
100
AcDbEntity
  8
LC-001-100-D00-0
 62
     7
370
    50
100
AcDbLine
 10
408.344888
 20
353.459852
 30
0.0
 11
414.641586
 21
388.059916
 31
0.0
  0
LINE
  5
412
330
1F
100
AcDbEntity
  8
LC-001-100-D00-0
 62
     7
370
    50
100
AcDbLine
 10
471.68882
 20
392.780097
 30
0.0
 11
467.889015
 21
413.659858
 31
0.0
  0
LINE
  5
413
330
1F
100
AcDbEntity
  8
LC-001-100-D00-0
 62
     7
370
    50
100
AcDbLine
 10
417.492446
 20
392.780097
 30
0.0
 11
421.29225
 21
413.659858
 31
0.0
  0
LINE
  5
414
330
1F
100
AcDbEntity
  8
LC-001-100-D00-0
 62
     7
370
    50
100
AcDbLine
 10
494.279503
 20
353.459852
 30
0.0
 11
494.603292
 21
353.459852
 31
0.0
  0
LINE
  5
415
330
1F
100
AcDbEntity
  8
LC-001-100-D00-0
 62
     7
370
    50
100
AcDbLine
 10
493.628225
 20
353.459852
 30
0.0
 11
484.723353
 21
388.059916
 31
0.0
  0
LINE
  5
416
330
1F
100
AcDbEntity
  8
LC-001-100-D00-0
 62
     7
370
    50
100
AcDbLine
 10
394.57797
 20
353.459852
 30
0.0
 11
394.901765
 21
353.459852
 31
0.0
  0
LINE
  5
417
330
1F
100
AcDbEntity
  8
LC-001-100-D00-0
 62
     7
370
    50
100
AcDbLine
 10
395.553042
 20
353.459852
 30
0.0
 11
404.457913
 21
388.059916
 31
0.0
  0
LINE
  5
418
330
1F
100
AcDbEntity
  8
LC-001-100-D00-0
 62
     7
370
    50
100
AcDbLine
 10
460.244033
 20
392.780097
 30
0.0
 11
458.277109
 21
413.659858
 31
0.0
  0
LINE
  5
419
330
1F
100
AcDbEntity
  8
LC-001-100-D00-0
 62
     7
370
    50
100
AcDbLine
 10
467.852596
 20
355.284179
 30
0.0
 11
464.765042
 21
388.059916
 31
0.0
  0
LINE
  5
41A
330
1F
100
AcDbEntity
  8
LC-001-100-D00-0
 62
     7
370
    50
100
AcDbLine
 10
464.265137
 20
393.366622
 30
0.0
 11
462.353465
 21
413.659858
 31
0.0
  0
LINE
  5
41B
330
1F
100
AcDbEntity
  8
LC-001-100-D00-0
 62
     7
370
    50
100
AcDbLine
 10
467.026299
 20
353.459852
 30
0.0
 11
467.852596
 21
355.284179
 31
0.0
  0
LINE
  5
41C
330
1F
100
AcDbEntity
  8
LC-001-100-D00-0
 62
     7
370
    50
100
AcDbLine
 10
463.948094
 20
353.459852
 30
0.0
 11
460.688685
 21
388.059916
 31
0.0
  0
LINE
  5
41D
330
1F
100
AcDbEntity
  8
LC-001-100-D00-0
 62
     7
370
    50
100
AcDbLine
 10
422.154968
 20
353.459852
 30
0.0
 11
421.328668
 21
355.284179
 31
0.0
  0
LINE
  5
41E
330
1F
100
AcDbEntity
  8
LC-001-100-D00-0
 62
     7
370
    50
100
AcDbLine
 10
421.328668
 20
355.284179
 30
0.0
 11
424.416226
 21
388.059916
 31
0.0
  0
LINE
  5
41F
330
1F
100
AcDbEntity
  8
LC-001-100-D00-0
 62
     7
370
    50
100
AcDbLine
 10
424.91613
 20
393.366622
 30
0.0
 11
426.8278
 21
413.659858
 31
0.0
  0
LINE
  5
420
330
1F
100
AcDbEntity
  8
LC-001-100-D00-0
 62
     7
370
    50
100
AcDbLine
 10
428.937235
 20
392.780097
 30
0.0
 11
430.904158
 21
413.659858
 31
0.0
  0
LINE
  5
421
330
1F
100
AcDbEntity
  8
LC-001-100-D00-0
 62
     7
370
    50
100
AcDbLine
 10
425.233171
 20
353.459852
 30
0.0
 11
428.49258
 21
388.059916
 31
0.0
  0
LINE
  5
422
330
1F
100
AcDbEntity
  8
LC-001-100-D00-0
 62
     7
370
    50
100
AcDbLine
 10
458.022403
 20
392.780097
 30
0.0
 11
456.055479
 21
413.659858
 31
0.0
  0
LINE
  5
423
330
1F
100
AcDbEntity
  8
LC-001-100-D00-0
 62
     7
370
    50
100
AcDbLine
 10
431.158864
 20
392.780097
 30
0.0
 11
433.125787
 21
413.659858
 31
0.0
  0
LINE
  5
424
330
1F
100
AcDbEntity
  8
LC-001-100-D00-0
 62
     7
370
    50
100
AcDbLine
 10
443.440634
 20
392.780097
 30
0.0
 11
443.440634
 21
413.659858
 31
0.0
  0
LINE
  5
425
330
1F
100
AcDbEntity
  8
LC-001-100-D00-0
 62
     7
370
    50
100
AcDbLine
 10
445.740634
 20
392.780097
 30
0.0
 11
445.740634
 21
413.659858
 31
0.0
  0
LINE
  5
426
330
1F
100
AcDbEntity
  8
LC-001-100-D00-0
 62
     7
370
    50
100
AcDbLine
 10
479.642168
 20
353.459852
 30
0.0
 11
480.038727
 21
353.459852
 31
0.0
  0
LINE
  5
427
330
1F
100
AcDbEntity
  8
LC-001-100-D00-0
 62
     7
370
    50
100
AcDbLine
 10
478.844518
 20
353.459852
 30
0.0
 11
472.547823
 21
388.059916
 31
0.0
  0
LINE
  5
428
330
1F
100
AcDbEntity
  8
LC-001-100-D00-0
 62
     7
370
    50
100
AcDbLine
 10
409.14254
 20
353.459852
 30
0.0
 11
409.539097
 21
353.459852
 31
0.0
  0
LINE
  5
429
330
1F
100
AcDbEntity
  8
LC-001-100-D00-0
 62
     7
370
    50
100
AcDbLine
 10
410.336749
 20
353.459852
 30
0.0
 11
416.633443
 21
388.059916
 31
0.0
  0
LINE
  5
42A
330
1F
100
AcDbEntity
  8
LC-001-100-D00-0
 62
     7
370
    50
100
AcDbLine
 10
462.616128
 20
353.459852
 30
0.0
 11
463.058432
 21
353.459852
 31
0.0
  0
LINE
  5
42B
330
1F
100
AcDbEntity
  8
LC-001-100-D00-0
 62
     7
370
    50
100
AcDbLine
 10
461.726465
 20
353.459852
 30
0.0
 11
458.467055
 21
388.059916
 31
0.0
  0
LINE
  5
42C
330
1F
100
AcDbEntity
  8
LC-001-100-D00-0
 62
     7
370
    50
100
AcDbLine
 10
426.122834
 20
353.459852
 30
0.0
 11
426.565138
 21
353.459852
 31
0.0
  0
LINE
  5
42D
330
1F
100
AcDbEntity
  8
LC-001-100-D00-0
 62
     7
370
    50
100
AcDbLine
 10
427.4548
 20
353.459852
 30
0.0
 11
430.71421
 21
388.059916
 31
0.0
  0
LINE
  5
42E
330
1F
100
AcDbEntity
  8
LC-001-100-D00-0
 62
     7
370
    50
100
AcDbLine
 10
444.36168
 20
353.459852
 30
0.0
 11
444.819587
 21
353.459852
 31
0.0
  0
LINE
  5
42F
330
1F
100
AcDbEntity
  8
LC-001-100-D00-0
 62
     7
370
    50
100
AcDbLine
 10
443.440634
 20
353.459852
 30
0.0
 11
443.440634
 21
388.059916
 31
0.0
  0
LINE
  5
430
330
1F
100
AcDbEntity
  8
LC-001-100-D00-0
 62
     7
370
    50
100
AcDbLine
 10
445.740634
 20
353.459852
 30
0.0
 11
445.740634
 21
388.059916
 31
0.0
  0
INSERT
  5
442
330
1F
100
AcDbEntity
  8
LC-001-100-D00-0
 62
     7
370
    50
100
AcDbBlockReference
  2
POLY25
 10
0.0
 20
0.0
 30
0.0
  0
LINE
  5
443
330
1F
100
AcDbEntity
  8
LC-001-100-D00-0
 62
     7
370
    50
100
AcDbLine
 10
456.39073
 20
344.759853
 30
0.0
 11
456.39073
 21
324.459853
 31
0.0
  0
LINE
  5
444
330
1F
100
AcDbEntity
  8
LC-001-100-D00-0
 62
     7
370
    50
100
AcDbLine
 10
432.790649
 20
324.459853
 30
0.0
 11
456.39073
 21
324.459853
 31
0.0
  0
LINE
  5
445
330
1F
100
AcDbEntity
  8
LC-001-100-D00-0
 62
     7
370
    50
100
AcDbLine
 10
432.790649
 20
324.459853
 30
0.0
 11
432.790649
 21
344.759853
 31
0.0
  0
INSERT
  5
457
330
1F
100
AcDbEntity
  8
LC-001-100-D00-0
 62
     7
370
    50
100
AcDbBlockReference
  2
POLY26
 10
0.0
 20
0.0
 30
0.0
  0
LINE
  5
458
330
1F
100
AcDbEntity
  8
LC-001-100-D00-0
 62
     7
370
    50
100
AcDbLine
 10
487.983354
 20
357.459852
 30
0.0
 11
492.610491
 21
357.459852
 31
0.0
  0
ARC
  5
459
330
1F
100
AcDbEntity
  8
LC-001-100-D00-0
 62
     7
370
    50
100
AcDbCircle
 10
492.407793
 20
355.661324
 30
0.0
 40
3.909123549999746
100
AcDbArc
 50
134.722413
 51
143.07819
  0
ARC
  5
45A
330
1F
100
AcDbEntity
  8
LC-001-100-D00-0
 62
     7
370
    50
100
AcDbCircle
 10
489.715633
 20
353.756346
 30
0.0
 40
4.275269783586193
100
AcDbArc
 50
84.186935
 51
95.813065
  0
ARC
  5
45B
330
1F
100
AcDbEntity
  8
LC-001-100-D00-0
 62
     7
370
    50
100
AcDbCircle
 10
493.273651
 20
355.66147
 30
0.0
 40
3.908902739490787
100
AcDbArc
 50
134.722177
 51
143.078426
  0
LINE
  5
45C
330
1F
100
AcDbEntity
  8
LC-001-100-D00-0
 62
     7
370
    50
100
AcDbLine
 10
490.568318
 20
358.459854
 30
0.0
 11
492.361889
 21
358.459854
 31
0.0
  0
INSERT
  5
468
330
1F
100
AcDbEntity
  8
LC-001-100-D00-0
 62
     7
370
    50
100
AcDbBlockReference
  2
POLY27
 10
0.0
 20
0.0
 30
0.0
  0
LINE
  5
469
330
1F
100
AcDbEntity
  8
LC-001-100-D00-0
 62
     7
370
    50
100
AcDbLine
 10
490.270904
 20
358.16385
 30
0.0
 11
490.270904
 21
358.459854
 31
0.0
  0
INSERT
  5
475
330
1F
100
AcDbEntity
  8
LC-001-100-D00-0
 62
     7
370
    50
100
AcDbBlockReference
  2
POLY28
 10
0.0
 20
0.0
 30
0.0
  0
LINE
  5
476
330
1F
100
AcDbEntity
  8
LC-001-100-D00-0
 62
     7
370
    50
100
AcDbLine
 10
490.270904
 20
358.459854
 30
0.0
 11
489.702293
 21
358.459854
 31
0.0
  0
LINE
  5
477
330
1F
100
AcDbEntity
  8
LC-001-100-D00-0
 62
     7
370
    50
100
AcDbLine
 10
488.637346
 20
358.459854
 30
0.0
 11
489.702293
 21
358.459854
 31
0.0
  0
LINE
  5
478
330
1F
100
AcDbEntity
  8
LC-001-100-D00-0
 62
     7
370
    50
100
AcDbLine
 10
490.568318
 20
358.459854
 30
0.0
 11
490.270904
 21
358.459854
 31
0.0
  0
INSERT
  5
49F
330
1F
100
AcDbEntity
  8
LC-001-100-D00-0
 62
     7
370
    25
100
AcDbBlockReference
  2
KLON22
 10
0.0
 20
0.0
 30
0.0
  0
INSERT
  5
4C8
330
1F
100
AcDbEntity
  8
LC-001-100-D00-0
 62
     7
370
    25
100
AcDbBlockReference
  2
KLON23
 10
0.0
 20
0.0
 30
0.0
  0
INSERT
  5
4CE
330
1F
100
AcDbEntity
  8
LC-001-100-D00-0
 62
     7
370
    25
100
AcDbBlockReference
  2
KLON24
 10
0.0
 20
0.0
 30
0.0
  0
INSERT
  5
4D4
330
1F
100
AcDbEntity
  8
LC-001-100-D00-0
 62
     7
370
    25
100
AcDbBlockReference
  2
KLON25
 10
0.0
 20
0.0
 30
0.0
  0
INSERT
  5
4E1
330
1F
100
AcDbEntity
  8
LC-001-100-D00-0
 62
     7
370
    25
100
AcDbBlockReference
  2
KLON26
 10
0.0
 20
0.0
 30
0.0
  0
INSERT
  5
4E8
330
1F
100
AcDbEntity
  8
LC-001-100-D00-0
 62
     7
370
    25
100
AcDbBlockReference
  2
KLON27
 10
0.0
 20
0.0
 30
0.0
  0
INSERT
  5
4EF
330
1F
100
AcDbEntity
  8
LC-001-100-D00-0
 62
     7
370
    25
100
AcDbBlockReference
  2
KLON28
 10
0.0
 20
0.0
 30
0.0
  0
INSERT
  5
4F7
330
1F
100
AcDbEntity
  8
LC-001-100-D00-0
 62
     7
370
    25
100
AcDbBlockReference
  2
KLON29
 10
0.0
 20
0.0
 30
0.0
  0
INSERT
  5
4FD
330
1F
100
AcDbEntity
  8
LC-001-100-D00-0
 62
     7
370
    50
100
AcDbBlockReference
  2
KLON30
 10
0.0
 20
0.0
 30
0.0
  0
LINE
  5
500
330
1F
100
AcDbEntity
  8
LC-002-102-D00-0
 62
     7
370
    25
100
AcDbLine
 10
444.590633
 20
196.309206
 30
0.0
 11
444.590633
 21
430.229694
 31
0.0
  0
LINE
  5
501
330
1F
100
AcDbEntity
  8
LC-002-102-D00-0
 62
     7
370
    25
100
AcDbLine
 10
350.590633
 20
320.601905
 30
0.0
 11
350.590633
 21
360.277608
 31
0.0
  0
LINE
  5
502
330
1F
100
AcDbEntity
  8
LC-002-102-D00-0
 62
     7
370
    25
100
AcDbLine
 10
538.590633
 20
347.435977
 30
0.0
 11
538.590633
 21
323.935977
 31
0.0
  0
LINE
  5
503
330
1F
100
AcDbEntity
  8
LC-001-100-D00-0
 62
     7
370
    50
100
AcDbLine
 10
364.590631
 20
198.195977
 30
0.0
 11
364.590631
 21
321.555974
 31
0.0
  0
DIMENSION
  5
507
330
1F
100
AcDbEntity
  8
LC-003-003-----0
 62
     7
370
    25
100
AcDbDimension
  2
*D59
 10
694.590625
 20
498.833976
 30
0.0
 11
443.772324
 21
529.633976
 31
0.0
 70
   160
 71
     5
 42
500.0
  3
LC-DIM-L-0140-02-02
100
AcDbAlignedDimension
 13
194.590625
 23
352.115981
 33
0.0
 14
694.590625
 24
352.115981
 34
0.0
100
AcDbRotatedDimension
  0
DIMENSION
  5
515
330
1F
100
AcDbEntity
  8
LC-003-003-----0
 62
     7
370
    25
100
AcDbDimension
  2
*D60
 10
621.590626
 20
447.155976
 30
0.0
 11
437.383049
 21
477.955976
 31
0.0
 70
   160
  1
%%c<>
 71
     5
 42
354.000002
  3
LC-DIM-L-0140-02-02
100
AcDbAlignedDimension
 13
267.590624
 23
349.115975
 33
0.0
 14
621.590626
 24
349.115975
 34
0.0
100
AcDbRotatedDimension
  0
DIMENSION
  5
522
330
1F
100
AcDbEntity
  8
LC-003-003-----0
 62
     7
370
    25
100
AcDbDimension
  2
*D61
 10
524.590624
 20
138.869976
 30
0.0
 11
441.642566
 21
169.669976
 31
0.0
 70
   160
  1
DN150
 71
     5
 42
159.999996
  3
LC-DIM-L-0140-02-02
100
AcDbAlignedDimension
 13
364.590627
 23
260.115973
 33
0.0
 14
524.590624
 24
260.115973
 34
0.0
100
AcDbRotatedDimension
  0
DIMENSION
  5
52F
330
1F
100
AcDbEntity
  8
LC-003-003-----0
 62
     7
370
    25
100
AcDbDimension
  2
*D62
 10
243.575062
 20
192.195976
 30
0.0
 11
212.775062
 21
274.895976
 31
0.0
 70
   160
  1
160
 71
     5
 42
159.92
 53
90.0
  3
LC-DIM-L-0140-02-02
100
AcDbAlignedDimension
 13
194.590625
 23
352.115976
 33
0.0
 14
368.090634
 24
192.195976
 34
0.0
 50
90.0
100
AcDbRotatedDimension
  0
LINE
  5
53D
330
1F
100
AcDbEntity
  8
LC-004-002-----0
 62
     7
370
    50
100
AcDbLine
 10
204.590625
 20
356.815976
 30
0.0
 11
204.590625
 21
352.115976
 31
0.0
  0
LINE
  5
53E
330
1F
100
AcDbEntity
  8
LC-004-002-----0
 62
     7
370
    50
100
AcDbLine
 10
214.590625
 20
356.815976
 30
0.0
 11
214.590625
 21
352.115976
 31
0.0
  0
LINE
  5
53F
330
1F
100
AcDbEntity
  8
LC-004-002-----0
 62
     7
370
    50
100
AcDbLine
 10
224.590625
 20
356.815976
 30
0.0
 11
224.590625
 21
352.115976
 31
0.0
  0
LINE
  5
540
330
1F
100
AcDbEntity
  8
LC-004-002-----0
 62
     7
370
    50
100
AcDbLine
 10
234.590625
 20
356.815976
 30
0.0
 11
234.590625
 21
352.115976
 31
0.0
  0
LINE
  5
541
330
1F
100
AcDbEntity
  8
LC-004-002-----0
 62
     7
370
    50
100
AcDbLine
 10
244.590625
 20
356.815976
 30
0.0
 11
244.590625
 21
352.115976
 31
0.0
  0
LINE
  5
542
330
1F
100
AcDbEntity
  8
LC-004-002-----0
 62
     7
370
    50
100
AcDbLine
 10
254.590625
 20
356.815976
 30
0.0
 11
254.590625
 21
352.115976
 31
0.0
  0
LINE
  5
543
330
1F
100
AcDbEntity
  8
LC-004-002-----0
 62
     7
370
    50
100
AcDbLine
 10
264.590625
 20
356.815976
 30
0.0
 11
264.590625
 21
352.115976
 31
0.0
  0
LINE
  5
544
330
1F
100
AcDbEntity
  8
LC-004-002-----0
 62
     7
370
    50
100
AcDbLine
 10
274.590625
 20
356.815976
 30
0.0
 11
274.590625
 21
352.115976
 31
0.0
  0
LINE
  5
545
330
1F
100
AcDbEntity
  8
LC-004-002-----0
 62
     7
370
    50
100
AcDbLine
 10
284.590625
 20
356.815976
 30
0.0
 11
284.590625
 21
352.115976
 31
0.0
  0
INSERT
  5
564
330
1F
100
AcDbEntity
  8
LC-005-005-----0
 62
     7
370
    25
100
AcDbBlockReference
  2
*X163
 10
0.0
 20
0.0
 30
0.0
  0
INSERT
  5
582
330
1F
100
AcDbEntity
  8
LC-005-005-----0
 62
     7
370
    25
100
AcDbBlockReference
  2
*X264
 10
0.0
 20
0.0
 30
0.0
  0
INSERT
  5
5A0
330
1F
100
AcDbEntity
  8
LC-005-005-----0
 62
     7
370
    25
100
AcDbBlockReference
  2
*X365
 10
0.0
 20
0.0
 30
0.0
  0
INSERT
  5
5BE
330
1F
100
AcDbEntity
  8
LC-005-005-----0
 62
     7
370
    25
100
AcDbBlockReference
  2
*X466
 10
0.0
 20
0.0
 30
0.0
  0
INSERT
  5
5DC
330
1F
100
AcDbEntity
  8
LC-005-005-----0
 62
     7
370
    25
100
AcDbBlockReference
  2
*X567
 10
0.0
 20
0.0
 30
0.0
  0
LINE
  5
5DD
330
1F
100
AcDbEntity
  8
LC-004-002-----0
 62
     7
370
    50
100
AcDbLine
 10
294.590625
 20
356.815976
 30
0.0
 11
294.590625
 21
352.115976
 31
0.0
  0
LINE
  5
5DE
330
1F
100
AcDbEntity
  8
LC-004-002-----0
 62
     7
370
    50
100
AcDbLine
 10
304.590625
 20
356.815976
 30
0.0
 11
304.590625
 21
352.115976
 31
0.0
  0
INSERT
  5
5FB
330
1F
100
AcDbEntity
  8
LC-005-005-----0
 62
     7
370
    25
100
AcDbBlockReference
  2
*X668
 10
0.0
 20
0.0
 30
0.0
  0
LINE
  5
5FC
330
1F
100
AcDbEntity
  8
LC-004-002-----0
 62
     7
370
    50
100
AcDbLine
 10
314.590625
 20
356.815976
 30
0.0
 11
314.590625
 21
352.115976
 31
0.0
  0
INSERT
  5
61F
330
1F
100
AcDbEntity
  8
LC-005-005-----0
 62
     7
370
    25
100
AcDbBlockReference
  2
*X769
 10
0.0
 20
0.0
 30
0.0
  0
LINE
  5
620
330
1F
100
AcDbEntity
  8
LC-004-002-----0
 62
     7
370
    50
100
AcDbLine
 10
324.590625
 20
354.307712
 30
0.0
 11
324.590625
 21
349.377788
 31
0.0
  0
LINE
  5
621
330
1F
100
AcDbEntity
  8
LC-004-002-----0
 62
     7
370
    50
100
AcDbLine
 10
334.590625
 20
350.66795
 30
0.0
 11
334.590625
 21
345.738086
 31
0.0
  0
INSERT
  5
644
330
1F
100
AcDbEntity
  8
LC-005-005-----0
 62
     7
370
    25
100
AcDbBlockReference
  2
*X870
 10
0.0
 20
0.0
 30
0.0
  0
LINE
  5
645
330
1F
100
AcDbEntity
  8
LC-004-002-----0
 62
     7
370
    50
100
AcDbLine
 10
344.590625
 20
348.065974
 30
0.0
 11
344.590625
 21
343.435975
 31
0.0
  0
LINE
  5
646
330
1F
100
AcDbEntity
  8
LC-004-002-----0
 62
     7
370
    50
100
AcDbLine
 10
684.590641
 20
356.815976
 30
0.0
 11
684.590641
 21
352.115976
 31
0.0
  0
LINE
  5
647
330
1F
100
AcDbEntity
  8
LC-004-002-----0
 62
     7
370
    50
100
AcDbLine
 10
674.590641
 20
356.815976
 30
0.0
 11
674.590641
 21
352.115976
 31
0.0
  0
LINE
  5
648
330
1F
100
AcDbEntity
  8
LC-004-002-----0
 62
     7
370
    50
100
AcDbLine
 10
664.590641
 20
356.815976
 30
0.0
 11
664.590641
 21
352.115976
 31
0.0
  0
LINE
  5
649
330
1F
100
AcDbEntity
  8
LC-004-002-----0
 62
     7
370
    50
100
AcDbLine
 10
654.590641
 20
356.815976
 30
0.0
 11
654.590641
 21
352.115976
 31
0.0
  0
LINE
  5
64A
330
1F
100
AcDbEntity
  8
LC-004-002-----0
 62
     7
370
    50
100
AcDbLine
 10
644.590641
 20
356.815976
 30
0.0
 11
644.590641
 21
352.115976
 31
0.0
  0
LINE
  5
64B
330
1F
100
AcDbEntity
  8
LC-004-002-----0
 62
     7
370
    50
100
AcDbLine
 10
634.590641
 20
356.815976
 30
0.0
 11
634.590641
 21
352.115976
 31
0.0
  0
LINE
  5
64C
330
1F
100
AcDbEntity
  8
LC-004-002-----0
 62
     7
370
    50
100
AcDbLine
 10
624.590641
 20
356.815976
 30
0.0
 11
624.590641
 21
352.115976
 31
0.0
  0
LINE
  5
64D
330
1F
100
AcDbEntity
  8
LC-004-002-----0
 62
     7
370
    50
100
AcDbLine
 10
614.590641
 20
356.815976
 30
0.0
 11
614.590641
 21
352.115976
 31
0.0
  0
LINE
  5
64E
330
1F
100
AcDbEntity
  8
LC-004-002-----0
 62
     7
370
    50
100
AcDbLine
 10
604.590641
 20
356.815976
 30
0.0
 11
604.590641
 21
352.115976
 31
0.0
  0
INSERT
  5
66C
330
1F
100
AcDbEntity
  8
LC-005-005-----0
 62
     7
370
    25
100
AcDbBlockReference
  2
*X971
 10
0.0
 20
0.0
 30
0.0
  0
INSERT
  5
68A
330
1F
100
AcDbEntity
  8
LC-005-005-----0
 62
     7
370
    25
100
AcDbBlockReference
  2
*X1072
 10
0.0
 20
0.0
 30
0.0
  0
INSERT
  5
6A8
330
1F
100
AcDbEntity
  8
LC-005-005-----0
 62
     7
370
    25
100
AcDbBlockReference
  2
*X1173
 10
0.0
 20
0.0
 30
0.0
  0
INSERT
  5
6C6
330
1F
100
AcDbEntity
  8
LC-005-005-----0
 62
     7
370
    25
100
AcDbBlockReference
  2
*X1274
 10
0.0
 20
0.0
 30
0.0
  0
INSERT
  5
6E3
330
1F
100
AcDbEntity
  8
LC-005-005-----0
 62
     7
370
    25
100
AcDbBlockReference
  2
*X1375
 10
0.0
 20
0.0
 30
0.0
  0
LINE
  5
6E4
330
1F
100
AcDbEntity
  8
LC-004-002-----0
 62
     7
370
    50
100
AcDbLine
 10
594.590641
 20
356.815976
 30
0.0
 11
594.590641
 21
352.115976
 31
0.0
  0
LINE
  5
6E5
330
1F
100
AcDbEntity
  8
LC-004-002-----0
 62
     7
370
    50
100
AcDbLine
 10
584.590641
 20
356.815976
 30
0.0
 11
584.590641
 21
352.115976
 31
0.0
  0
INSERT
  5
703
330
1F
100
AcDbEntity
  8
LC-005-005-----0
 62
     7
370
    25
100
AcDbBlockReference
  2
*X1476
 10
0.0
 20
0.0
 30
0.0
  0
LINE
  5
704
330
1F
100
AcDbEntity
  8
LC-004-002-----0
 62
     7
370
    50
100
AcDbLine
 10
574.590641
 20
356.815976
 30
0.0
 11
574.590641
 21
352.115976
 31
0.0
  0
INSERT
  5
71E
330
1F
100
AcDbEntity
  8
LC-005-005-----0
 62
     7
370
    25
100
AcDbBlockReference
  2
*X1577
 10
0.0
 20
0.0
 30
0.0
  0
LINE
  5
71F
330
1F
100
AcDbEntity
  8
LC-004-002-----0
 62
     7
370
    50
100
AcDbLine
 10
564.590641
 20
354.307712
 30
0.0
 11
564.590641
 21
349.377788
 31
0.0
  0
LINE
  5
720
330
1F
100
AcDbEntity
  8
LC-004-002-----0
 62
     7
370
    50
100
AcDbLine
 10
554.590641
 20
350.66795
 30
0.0
 11
554.590641
 21
345.738086
 31
0.0
  0
INSERT
  5
73A
330
1F
100
AcDbEntity
  8
LC-005-005-----0
 62
     7
370
    25
100
AcDbBlockReference
  2
*X1678
 10
0.0
 20
0.0
 30
0.0
  0
LINE
  5
73B
330
1F
100
AcDbEntity
  8
LC-004-002-----0
 62
     7
370
    50
100
AcDbLine
 10
544.590641
 20
348.065974
 30
0.0
 11
544.590641
 21
343.435975
 31
0.0
  0
ENDSEC
  0
SECTION
  2
OBJECTS
  0
DICTIONARY
  5
C
330
0
100
AcDbDictionary
281
     1
  3
ACAD_GROUP
350
D
  3
ACAD_LAYOUT
350
1A
  3
ACAD_MLINESTYLE
350
17
  3
ACAD_PLOTSETTINGS
350
19
  3
ACAD_PLOTSTYLENAME
350
E
  0
DICTIONARY
  5
D
102
{ACAD_REACTORS
330
C
102
}
330
C
100
AcDbDictionary
281
     1
  0
DICTIONARY
  5
1A
102
{ACAD_REACTORS
330
C
102
}
330
C
100
AcDbDictionary
281
     1
  3
Layout1
350
1E
  3
Layout2
350
26
  3
Model
350
22
  0
DICTIONARY
  5
17
102
{ACAD_REACTORS
330
C
102
}
330
C
100
AcDbDictionary
281
     1
  3
Standard
350
18
  0
DICTIONARY
  5
19
102
{ACAD_REACTORS
330
C
102
}
330
C
100
AcDbDictionary
281
     1
  0
ACDBDICTIONARYWDFLT
  5
E
102
{ACAD_REACTORS
330
C
102
}
330
C
100
AcDbDictionary
281
     1
  3
Normal
350
F
100
AcDbDictionaryWithDefault
340
F
  0
LAYOUT
  5
1E
102
{ACAD_REACTORS
330
1A
102
}
330
1A
100
AcDbPlotSettings
  1

  2

  4

  6

 40
0.0
 41
0.0
 42
0.0
 43
0.0
 44
0.0
 45
0.0
 46
0.0
 47
0.0
 48
0.0
 49
0.0
140
0.0
141
0.0
142
1.0
143
1.0
 70
   688
 72
     0
 73
     0
 74
     5
  7

 75
    16
147
1.0
148
0.0
149
0.0
100
AcDbLayout
  1
Layout1
 70
     1
 71
     1
 10
19.512808
 20
11.753976
 11
859.512808
 21
605.753976
 12
0.0
 22
0.0
 32
0.0
 14
19.512808
 24
11.753976
 34
0.0
 15
859.512808
 25
605.753976
 35
0.0
146
0.0
 13
0.0
 23
0.0
 33
0.0
 16
1.0
 26
0.0
 36
0.0
 17
0.0
 27
1.0
 37
0.0
 76
     0
330
1B
  0
LAYOUT
  5
26
102
{ACAD_REACTORS
330
1A
102
}
330
1A
100
AcDbPlotSettings
  1

  2

  4

  6

 40
0.0
 41
0.0
 42
0.0
 43
0.0
 44
0.0
 45
0.0
 46
0.0
 47
0.0
 48
0.0
 49
0.0
140
0.0
141
0.0
142
1.0
143
1.0
 70
   688
 72
     0
 73
     0
 74
     5
  7

 75
    16
147
1.0
148
0.0
149
0.0
100
AcDbLayout
  1
Layout2
 70
     1
 71
     2
 10
0.0
 20
0.0
 11
0.0
 21
0.0
 12
0.0
 22
0.0
 32
0.0
 14
0.0
 24
0.0
 34
0.0
 15
0.0
 25
0.0
 35
0.0
146
0.0
 13
0.0
 23
0.0
 33
0.0
 16
1.0
 26
0.0
 36
0.0
 17
0.0
 27
1.0
 37
0.0
 76
     0
330
23
  0
LAYOUT
  5
22
102
{ACAD_REACTORS
330
1A
102
}
330
1A
100
AcDbPlotSettings
  1

  2

  4

  6

 40
0.0
 41
0.0
 42
0.0
 43
0.0
 44
0.0
 45
0.0
 46
0.0
 47
0.0
 48
0.0
 49
0.0
140
0.0
141
0.0
142
1.0
143
1.0
 70
  1776
 72
     0
 73
     0
 74
     0
  7

 75
     0
147
1.0
148
0.0
149
0.0
100
AcDbLayout
  1
Model
 70
     1
 71
     0
 10
19.512808
 20
11.753976
 11
859.512808
 21
605.753976
 12
19.512808
 22
11.753976
 32
0.0
 14
19.512808
 24
11.753976
 34
0.0
 15
859.512808
 25
605.753976
 35
0.0
146
0.0
 13
0.0
 23
0.0
 33
0.0
 16
1.0
 26
0.0
 36
0.0
 17
0.0
 27
1.0
 37
0.0
 76
     0
330
1F
  0
MLINESTYLE
  5
18
102
{ACAD_REACTORS
330
17
102
}
330
17
100
AcDbMlineStyle
  2
Standard
 70
     0
  3

 62
   256
 51
90.0
 52
90.0
 71
     2
 49
0.5
 62
   256
  6
BYLAYER
 49
-0.5
 62
   256
  6
BYLAYER
  0
ACDBPLACEHOLDER
  5
F
102
{ACAD_REACTORS
330
E
102
}
330
E
  0
ENDSEC
  0
EOF
