  0
SECTION
  2
HEADER
  9
$ACADVER
  1
AC1015
  9
$ACADMAINTVER
 70
     6
  9
$DWGCODEPAGE
  3
DOS850
  9
$INSBASE
 10
0.0
 20
0.0
 30
0.0
  9
$EXTMIN
 10
-210.0
 20
-148.5
 30
0.0
  9
$EXTMAX
 10
630.0
 20
445.5
 30
0.0
  9
$LIMMIN
 10
-210.0
 20
-148.5
  9
$LIMMAX
 10
630.0
 20
445.5
  9
$ORTHOMODE
 70
     0
  9
$REGENMODE
 70
     1
  9
$FILLMODE
 70
     1
  9
$QTEXTMODE
 70
     0
  9
$MIRRTEXT
 70
     1
  9
$LTSCALE
 40
2.0
  9
$ATTMODE
 70
     1
  9
$TEXTSIZE
 40
2.5
  9
$TRACEWID
 40
1.0
  9
$TEXTSTYLE
  7
Standard
  9
$CLAYER
  8
0
  9
$CELTYPE
  6
ByLayer
  9
$CECOLOR
 62
     7
  9
$CELTSCALE
 40
1.0
  9
$DISPSILH
 70
     0
  9
$DIMSCALE
 40
2.0
  9
$DIMASZ
 40
3.5
  9
$DIMEXO
 40
0.625
  9
$DIMDLI
 40
3.75
  9
$DIMRND
 40
0.0
  9
$DIMDLE
 40
0.0
  9
$DIMEXE
 40
1.25
  9
$DIMTP
 40
0.0
  9
$DIMTM
 40
0.0
  9
$DIMTXT
 40
3.5
  9
$DIMCEN
 40
2.5
  9
$DIMTSZ
 40
0.0
  9
$DIMTOL
 70
     0
  9
$DIMLIM
 70
     0
  9
$DIMTIH
 70
     0
  9
$DIMTOH
 70
     0
  9
$DIMSE1
 70
     0
  9
$DIMSE2
 70
     0
  9
$DIMTAD
 70
     1
  9
$DIMZIN
 70
     8
  9
$DIMBLK
  1

  9
$DIMASO
 70
     1
  9
$DIMSHO
 70
     1
  9
$DIMPOST
  1

  9
$DIMAPOST
  1

  9
$DIMALT
 70
     0
  9
$DIMALTD
 70
     3
  9
$DIMALTF
 40
0.03937
  9
$DIMLFAC
 40
1.0
  9
$DIMTOFL
 70
     1
  9
$DIMTVP
 40
0.0
  9
$DIMTIX
 70
     0
  9
$DIMSOXD
 70
     0
  9
$DIMSAH
 70
     0
  9
$DIMBLK1
  1

  9
$DIMBLK2
  1

  9
$DIMSTYLE
  2
ISO-25
  9
$DIMCLRD
 70
     0
  9
$DIMCLRE
 70
     0
  9
$DIMCLRT
 70
     0
  9
$DIMTFAC
 40
1.0
  9
$DIMGAP
 40
0.625
  9
$DIMJUST
 70
     0
  9
$DIMSD1
 70
     0
  9
$DIMSD2
 70
     0
  9
$DIMTOLJ
 70
     0
  9
$DIMTZIN
 70
     8
  9
$DIMALTZ
 70
     0
  9
$DIMALTTZ
 70
     0
  9
$DIMUPT
 70
     0
  9
$DIMDEC
 70
     2
  9
$DIMTDEC
 70
     2
  9
$DIMALTU
 70
     2
  9
$DIMALTTD
 70
     3
  9
$DIMTXSTY
  7
Standard
  9
$DIMAUNIT
 70
     0
  9
$DIMADEC
 70
     0
  9
$DIMALTRND
 40
0.0
  9
$DIMAZIN
 70
     0
  9
$DIMDSEP
 70
    44
  9
$DIMATFIT
 70
     3
  9
$DIMFRAC
 70
     0
  9
$DIMLDRBLK
  1

  9
$DIMLUNIT
 70
     2
  9
$DIMLWD
 70
    -2
  9
$DIMLWE
 70
    -2
  9
$DIMTMOVE
 70
     0
  9
$LUNITS
 70
     2
  9
$LUPREC
 70
     4
  9
$SKETCHINC
 40
1.0
  9
$FILLETRAD
 40
10.0
  9
$AUNITS
 70
     0
  9
$AUPREC
 70
     0
  9
$MENU
  1
.
  9
$ELEVATION
 40
0.0
  9
$PELEVATION
 40
0.0
  9
$THICKNESS
 40
0.0
  9
$LIMCHECK
 70
     0
  9
$CHAMFERA
 40
10.0
  9
$CHAMFERB
 40
10.0
  9
$CHAMFERC
 40
20.0
  9
$CHAMFERD
 40
0.0
  9
$SKPOLY
 70
     0
  9
$TDCREATE
 40
2453782.31306684
  9
$TDUCREATE
 40
2453782.271400174
  9
$TDUPDATE
 40
2453782.313066852
  9
$TDUUPDATE
 40
2453782.271400185
  9
$TDINDWG
 40
0.0000000116
  9
$TDUSRTIMER
 40
0.0000000116
  9
$USRTIMER
 70
     1
  9
$ANGBASE
 50
0.0
  9
$ANGDIR
 70
     0
  9
$PDMODE
 70
     0
  9
$PDSIZE
 40
0.0
  9
$PLINEWID
 40
0.0
  9
$SPLFRAME
 70
     0
  9
$SPLINETYPE
 70
     6
  9
$SPLINESEGS
 70
     8
  9
$HANDSEED
  5
584
  9
$SURFTAB1
 70
     6
  9
$SURFTAB2
 70
     6
  9
$SURFTYPE
 70
     6
  9
$SURFU
 70
     6
  9
$SURFV
 70
     6
  9
$UCSBASE
  2

  9
$UCSNAME
  2

  9
$UCSORG
 10
0.0
 20
0.0
 30
0.0
  9
$UCSXDIR
 10
1.0
 20
0.0
 30
0.0
  9
$UCSYDIR
 10
0.0
 20
1.0
 30
0.0
  9
$UCSORTHOREF
  2

  9
$UCSORTHOVIEW
 70
     0
  9
$UCSORGTOP
 10
0.0
 20
0.0
 30
0.0
  9
$UCSORGBOTTOM
 10
0.0
 20
0.0
 30
0.0
  9
$UCSORGLEFT
 10
0.0
 20
0.0
 30
0.0
  9
$UCSORGRIGHT
 10
0.0
 20
0.0
 30
0.0
  9
$UCSORGFRONT
 10
0.0
 20
0.0
 30
0.0
  9
$UCSORGBACK
 10
0.0
 20
0.0
 30
0.0
  9
$PUCSBASE
  2

  9
$PUCSNAME
  2

  9
$PUCSORG
 10
0.0
 20
0.0
 30
0.0
  9
$PUCSXDIR
 10
1.0
 20
0.0
 30
0.0
  9
$PUCSYDIR
 10
0.0
 20
1.0
 30
0.0
  9
$PUCSORTHOREF
  2

  9
$PUCSORTHOVIEW
 70
     0
  9
$PUCSORGTOP
 10
0.0
 20
0.0
 30
0.0
  9
$PUCSORGBOTTOM
 10
0.0
 20
0.0
 30
0.0
  9
$PUCSORGLEFT
 10
0.0
 20
0.0
 30
0.0
  9
$PUCSORGRIGHT
 10
0.0
 20
0.0
 30
0.0
  9
$PUCSORGFRONT
 10
0.0
 20
0.0
 30
0.0
  9
$PUCSORGBACK
 10
0.0
 20
0.0
 30
0.0
  9
$USERI1
 70
     0
  9
$USERI2
 70
     0
  9
$USERI3
 70
     0
  9
$USERI4
 70
     0
  9
$USERI5
 70
     0
  9
$USERR1
 40
0.0
  9
$USERR2
 40
0.0
  9
$USERR3
 40
0.0
  9
$USERR4
 40
0.0
  9
$USERR5
 40
0.0
  9
$WORLDVIEW
 70
     1
  9
$SHADEDGE
 70
     3
  9
$SHADEDIF
 70
    70
  9
$TILEMODE
 70
     1
  9
$MAXACTVP
 70
    64
  9
$PINSBASE
 10
0.0
 20
0.0
 30
0.0
  9
$PLIMCHECK
 70
     0
  9
$PEXTMIN
 10
-210.0
 20
-148.5
 30
0.0
  9
$PEXTMAX
 10
630.0
 20
445.5
 30
0.0
  9
$PLIMMIN
 10
-210.0
 20
-148.5
  9
$PLIMMAX
 10
630.0
 20
445.5
  9
$UNITMODE
 70
     0
  9
$VISRETAIN
 70
     1
  9
$PLINEGEN
 70
     0
  9
$PSLTSCALE
 70
     1
  9
$TREEDEPTH
 70
  3020
  9
$CMLSTYLE
  2
Standard
  9
$CMLJUST
 70
     0
  9
$CMLSCALE
 40
20.0
  9
$PROXYGRAPHICS
 70
     1
  9
$MEASUREMENT
 70
     1
  9
$CELWEIGHT
370
    -1
  9
$ENDCAPS
280
     0
  9
$JOINSTYLE
280
     0
  9
$LWDISPLAY
290
     0
  9
$INSUNITS
 70
     4
  9
$HYPERLINKBASE
  1

  9
$STYLESHEET
  1

  9
$XEDIT
290
     1
  9
$CEPSNTYPE
380
     0
  9
$PSTYLEMODE
290
     1
  9
$FINGERPRINTGUID
  2
{FAEB1C30-E019-11D5-929B-00C0DF256EC4}
  9
$VERSIONGUID
  2
{FAEB1C32-E019-11D5-929B-00C0DF256EC4}
  9
$EXTNAMES
290
     1
  9
$PSVPSCALE
 40
0.0
  9
$OLESTARTUP
290
     0
  0
ENDSEC
  0
SECTION
  2
CLASSES
  0
CLASS
  1
ACDBDICTIONARYWDFLT
  2
AcDbDictionaryWithDefault
  3
ObjectDBX Classes
 90
        0
280
     0
281
     0
  0
CLASS
  1
ACDBPLACEHOLDER
  2
AcDbPlaceHolder
  3
ObjectDBX Classes
 90
        0
280
     0
281
     0
  0
CLASS
  1
LAYOUT
  2
AcDbLayout
  3
ObjectDBX Classes
 90
        0
280
     0
281
     0
  0
ENDSEC
  0
SECTION
  2
TABLES
  0
TABLE
  2
VPORT
  5
8
330
0
100
AcDbSymbolTable
 70
     2
  0
VPORT
  5
29
330
8
100
AcDbSymbolTableRecord
100
AcDbViewportTableRecord
  2
*ACTIVE
 70
     0
 10
0.0
 20
0.0
 11
1.0
 21
1.0
 12
210.0
 22
148.5
 13
0.0
 23
0.0
 14
1.0
 24
1.0
 15
0.0
 25
0.0
 16
0.0
 26
0.0
 36
1.0
 17
0.0
 27
0.0
 37
0.0
 40
594.0
 41
1.414141
 42
50.0
 43
0.0
 44
0.0
 50
0.0
 51
0.0
 71
    16
 72
   100
 73
     1
 74
     0
 75
     0
 76
     0
 77
     0
 78
     0
281
     0
 65
     0
110
0.0
120
0.0
130
0.0
111
1.0
121
0.0
131
0.0
112
0.0
122
1.0
132
0.0
 79
     0
146
0.0
  0
ENDTAB
  0
TABLE
  2
LTYPE
  5
5
330
0
100
AcDbSymbolTable
 70
     4
  0
LTYPE
  5
14
330
5
100
AcDbSymbolTableRecord
100
AcDbLinetypeTableRecord
  2
ByBlock
 70
     0
  3

 72
    65
 73
     0
 40
0.0
  0
LTYPE
  5
15
330
5
100
AcDbSymbolTableRecord
100
AcDbLinetypeTableRecord
  2
ByLayer
 70
     0
  3

 72
    65
 73
     0
 40
0.0
  0
LTYPE
  5
16
330
5
100
AcDbSymbolTableRecord
100
AcDbLinetypeTableRecord
  2
Continuous
 70
     0
  3
Solid line
 72
    65
 73
     0
 40
0.0
  0
LTYPE
  5
2A
330
5
100
AcDbSymbolTableRecord
100
AcDbLinetypeTableRecord
  2
DASHED
 70
     0
  3
__ __ __ __ __
 72
    65
 73
     2
 40
6.25
 49
5.0
 74
     4
 75
     0
340
0
 46
1.0
 50
0.0
 44
0.0
 45
0.0
 49
-1.25
 74
     4
 75
     0
340
0
 46
1.0
 50
0.0
 44
0.0
 45
0.0
  0
LTYPE
  5
30
330
5
100
AcDbSymbolTableRecord
100
AcDbLinetypeTableRecord
  2
DASHDOT
 70
     0
  3
__ . __ . __ . __ . __
 72
    65
 73
     4
 40
7.5
 49
5.0
 74
     4
 75
     0
340
0
 46
1.0
 50
0.0
 44
0.0
 45
0.0
 49
-1.25
 74
     4
 75
     0
340
0
 46
1.0
 50
0.0
 44
0.0
 45
0.0
 49
0.0
 74
     4
 75
     0
340
0
 46
1.0
 50
0.0
 44
0.0
 45
0.0
 49
-1.25
 74
     4
 75
     0
340
0
 46
1.0
 50
0.0
 44
0.0
 45
0.0
  0
LTYPE
  5
15E
330
5
100
AcDbSymbolTableRecord
100
AcDbLinetypeTableRecord
  2
CENTER
 70
     0
  3
__ . __ . __ . __ . __
 72
    65
 73
     4
 40
7.5
 49
5.0
 74
     4
 75
     0
340
0
 46
1.0
 50
0.0
 44
0.0
 45
0.0
 49
-1.25
 74
     4
 75
     0
340
0
 46
1.0
 50
0.0
 44
0.0
 45
0.0
 49
0.0
 74
     4
 75
     0
340
0
 46
1.0
 50
0.0
 44
0.0
 45
0.0
 49
-1.25
 74
     4
 75
     0
340
0
 46
1.0
 50
0.0
 44
0.0
 45
0.0
  0
ENDTAB
  0
TABLE
  2
LAYER
  5
2
330
0
100
AcDbSymbolTable
 70
    14
  0
LAYER
  5
10
330
2
100
AcDbSymbolTableRecord
100
AcDbLayerTableRecord
  2
0
 70
     0
 62
     7
  6
Continuous
370
    -3
390
F
  0
LAYER
  5
2B
330
2
100
AcDbSymbolTableRecord
100
AcDbLayerTableRecord
  2
LC-INFO-1-2-mm-A3-0
 70
     1
 62
     7
  6
ByBlock
370
    -3
390
F
  0
LAYER
  5
2C
330
2
100
AcDbSymbolTableRecord
100
AcDbLayerTableRecord
  2
LC-CUT-HIDDEN
 70
     0
 62
     7
  6
DASHED
370
    -3
390
F
  0
LAYER
  5
2D
330
2
100
AcDbSymbolTableRecord
100
AcDbLayerTableRecord
  2
LC-VIEWPORT
 70
     0
 62
     7
  6
ByBlock
370
    -3
390
F
  0
LAYER
  5
2E
330
2
100
AcDbSymbolTableRecord
100
AcDbLayerTableRecord
  2
LC-3D-HIDDEN
 70
     0
 62
     9
  6
DASHED
370
    -3
390
F
  0
LAYER
  5
31
330
2
100
AcDbSymbolTableRecord
100
AcDbLayerTableRecord
  2
LC-001-002-----0
 70
     0
 62
     2
  6
DASHDOT
370
    -3
390
F
  0
LAYER
  5
41
330
2
100
AcDbSymbolTableRecord
100
AcDbLayerTableRecord
  2
LC-002-002-RND-0
 70
     0
 62
     1
  6
ByBlock
370
    -3
390
F
  0
LAYER
  5
51
330
2
100
AcDbSymbolTableRecord
100
AcDbLayerTableRecord
  2
LC-003-005-----0
 70
     0
 62
     2
  6
ByBlock
370
    -3
390
F
  0
LAYER
  5
B0
330
2
100
AcDbSymbolTableRecord
100
AcDbLayerTableRecord
  2
LC-004-002-___-0
 70
     0
 62
     2
  6
DASHED
370
    -3
390
F
  0
LAYER
  5
12F
330
2
100
AcDbSymbolTableRecord
100
AcDbLayerTableRecord
  2
LC-005-003-----0
 70
     0
 62
     2
  6
ByBlock
370
    -3
390
F
  0
LAYER
  5
131
330
2
100
AcDbSymbolTableRecord
100
AcDbLayerTableRecord
  2
Defpoints
 70
     0
 62
     7
  6
Continuous
290
     0
370
    -3
390
F
  0
LAYER
  5
15F
330
2
100
AcDbSymbolTableRecord
100
AcDbLayerTableRecord
  2
LC-006-006-MLN-0
 70
     0
 62
     2
  6
CENTER
370
    -3
390
F
  0
LAYER
  5
3EB
330
2
100
AcDbSymbolTableRecord
100
AcDbLayerTableRecord
  2
LC-007-003-MTH-0
 70
     0
 62
     2
  6
ByBlock
370
    -3
390
F
  0
LAYER
  5
3EE
330
2
100
AcDbSymbolTableRecord
100
AcDbLayerTableRecord
  2
LC-008-003-MTG-0
 70
     0
 62
     2
  6
ByBlock
370
    -3
390
F
  0
ENDTAB
  0
TABLE
  2
STYLE
  5
3
330
0
100
AcDbSymbolTable
 70
     3
  0
STYLE
  5
11
330
3
100
AcDbSymbolTableRecord
100
AcDbTextStyleTableRecord
  2
Standard
 70
     0
 40
0.0
 41
1.0
 50
0.0
 71
     0
 42
2.5
  3
txt
  4

  0
STYLE
  5
2F
330
3
100
AcDbSymbolTableRecord
100
AcDbTextStyleTableRecord
  2
LCTX15-400-0-0-Arial
 70
     0
 40
0.0
 41
0.9
 50
0.0
 71
     0
 42
3.5
  3
ARIAL.TTF
  4

1001
ACAD
1000
Arial
1071
 16777218
  0
STYLE
  5
12D
330
3
100
AcDbSymbolTableRecord
100
AcDbTextStyleTableRecord
  2
LCTX15-400-0-0pDIN-Schrift
 70
     0
 40
2.5
 41
0.8
 50
15.0
 71
     0
 42
3.5
  3
STANDARD
  4

  0
ENDTAB
  0
TABLE
  2
VIEW
  5
6
330
0
100
AcDbSymbolTable
 70
     0
  0
ENDTAB
  0
TABLE
  2
UCS
  5
7
330
0
100
AcDbSymbolTable
 70
     0
  0
ENDTAB
  0
TABLE
  2
APPID
  5
9
330
0
100
AcDbSymbolTable
 70
     1
  0
APPID
  5
12
330
9
100
AcDbSymbolTableRecord
100
AcDbRegAppTableRecord
  2
ACAD
 70
     0
  0
ENDTAB
  0
TABLE
  2
DIMSTYLE
  5
A
330
0
100
AcDbSymbolTable
 70
     2
100
AcDbDimStyleTable
  0
DIMSTYLE
105
27
330
A
100
AcDbSymbolTableRecord
100
AcDbDimStyleTableRecord
  2
ISO-25
 70
     0
 41
2.5
 42
0.625
 43
3.75
 44
1.25
 73
     0
 74
     0
 77
     1
 78
     8
140
2.5
141
2.5
143
0.03937
147
0.625
171
     3
172
     1
271
     2
272
     2
274
     3
278
    44
283
     0
284
     8
340
11
  0
DIMSTYLE
105
12E
102
{ACAD_REACTORS
330
130
330
20C
330
219
330
3D1
330
3DE
330
403
102
}
330
A
100
AcDbSymbolTableRecord
100
AcDbDimStyleTableRecord
  2
LC-DIM-L-0140-02-02
 70
     0
 40
2.0
 41
14.0
 42
0.0
 43
7.5
 44
1.8
 73
     0
 74
     0
 77
     1
 78
     8
 79
     2
140
14.0
141
0.0
146
0.71
147
1.5
176
     2
177
     2
178
     2
179
     2
271
     2
278
    44
289
     1
340
12D
  0
ENDTAB
  0
TABLE
  2
BLOCK_RECORD
  5
1
330
0
100
AcDbSymbolTable
 70
    19
  0
BLOCK_RECORD
  5
1F
330
1
100
AcDbSymbolTableRecord
100
AcDbBlockTableRecord
  2
*Model_Space
340
22
  0
BLOCK_RECORD
  5
1B
330
1
100
AcDbSymbolTableRecord
100
AcDbBlockTableRecord
  2
*Paper_Space
340
1E
  0
BLOCK_RECORD
  5
23
330
1
100
AcDbSymbolTableRecord
100
AcDbBlockTableRecord
  2
*Paper_Space0
340
26
  0
BLOCK_RECORD
  5
4E
330
1
100
AcDbSymbolTableRecord
100
AcDbBlockTableRecord
  2
*X11
340
0
102
{BLKREFS
331
5E
102
}
  0
BLOCK_RECORD
  5
7F
330
1
100
AcDbSymbolTableRecord
100
AcDbBlockTableRecord
  2
*X22
340
0
102
{BLKREFS
331
88
102
}
  0
BLOCK_RECORD
  5
9F
330
1
100
AcDbSymbolTableRecord
100
AcDbBlockTableRecord
  2
*X33
340
0
102
{BLKREFS
331
AE
102
}
  0
BLOCK_RECORD
  5
D2
330
1
100
AcDbSymbolTableRecord
100
AcDbBlockTableRecord
  2
*X44
340
0
102
{BLKREFS
331
D7
102
}
  0
BLOCK_RECORD
  5
FD
330
1
100
AcDbSymbolTableRecord
100
AcDbBlockTableRecord
  2
*X55
340
0
102
{BLKREFS
331
104
102
}
  0
BLOCK_RECORD
  5
124
330
1
100
AcDbSymbolTableRecord
100
AcDbBlockTableRecord
  2
*X66
340
0
102
{BLKREFS
331
12C
102
}
  0
BLOCK_RECORD
  5
132
330
1
100
AcDbSymbolTableRecord
100
AcDbBlockTableRecord
  2
*D7
340
0
  0
BLOCK_RECORD
  5
168
330
1
100
AcDbSymbolTableRecord
100
AcDbBlockTableRecord
  2
*X78
340
0
102
{BLKREFS
331
183
102
}
  0
BLOCK_RECORD
  5
184
330
1
100
AcDbSymbolTableRecord
100
AcDbBlockTableRecord
  2
*X89
340
0
102
{BLKREFS
331
190
102
}
  0
BLOCK_RECORD
  5
1B6
330
1
100
AcDbSymbolTableRecord
100
AcDbBlockTableRecord
  2
*X910
340
0
102
{BLKREFS
331
1D2
102
}
  0
BLOCK_RECORD
  5
1D3
330
1
100
AcDbSymbolTableRecord
100
AcDbBlockTableRecord
  2
*X1011
340
0
102
{BLKREFS
331
1E3
102
}
  0
BLOCK_RECORD
  5
20D
330
1
100
AcDbSymbolTableRecord
100
AcDbBlockTableRecord
  2
*D12
340
0
  0
BLOCK_RECORD
  5
21A
330
1
100
AcDbSymbolTableRecord
100
AcDbBlockTableRecord
  2
*D13
340
0
  0
BLOCK_RECORD
  5
269
330
1
100
AcDbSymbolTableRecord
100
AcDbBlockTableRecord
  2
*X1114
340
0
102
{BLKREFS
331
2A7
102
}
  0
BLOCK_RECORD
  5
2FA
330
1
100
AcDbSymbolTableRecord
100
AcDbBlockTableRecord
  2
*X1215
340
0
102
{BLKREFS
331
339
102
}
  0
BLOCK_RECORD
  5
3D2
330
1
100
AcDbSymbolTableRecord
100
AcDbBlockTableRecord
  2
*D16
340
0
  0
BLOCK_RECORD
  5
3DF
330
1
100
AcDbSymbolTableRecord
100
AcDbBlockTableRecord
  2
*D17
340
0
  0
BLOCK_RECORD
  5
404
330
1
100
AcDbSymbolTableRecord
100
AcDbBlockTableRecord
  2
*D18
340
0
  0
ENDTAB
  0
ENDSEC
  0
SECTION
  2
BLOCKS
  0
BLOCK
  5
20
330
1F
100
AcDbEntity
  8
0
100
AcDbBlockBegin
  2
*Model_Space
 70
     0
 71
     0
 10
0.0
 20
0.0
 30
0.0
  3
*Model_Space
  1

  0
ENDBLK
  5
21
330
1F
100
AcDbEntity
  8
0
100
AcDbBlockEnd
  0
BLOCK
  5
1C
330
1B
100
AcDbEntity
 67
     1
  8
0
100
AcDbBlockBegin
  2
*Paper_Space
 70
     0
 71
     0
 10
0.0
 20
0.0
 30
0.0
  3
*Paper_Space
  1

  0
ENDBLK
  5
1D
330
1B
100
AcDbEntity
 67
     1
  8
0
100
AcDbBlockEnd
  0
BLOCK
  5
24
330
23
100
AcDbEntity
  8
0
100
AcDbBlockBegin
  2
*Paper_Space0
 70
     0
 71
     0
 10
0.0
 20
0.0
 30
0.0
  3
*Paper_Space0
  1

  0
ENDBLK
  5
25
330
23
100
AcDbEntity
  8
0
100
AcDbBlockEnd
  0
BLOCK
  5
4F
330
4E
100
AcDbEntity
  8
0
100
AcDbBlockBegin
  2
*X11
 70
     1
 71
     0
 10
0.0
 20
0.0
 30
0.0
  3
*X11
  1

  4
*X1
  0
LINE
  5
52
330
4E
100
AcDbEntity
  8
LC-003-005-----0
 62
     7
370
    25
100
AcDbLine
 10
205.915308
 20
268.140705
 30
0.0
 11
207.691576
 21
269.916973
 31
0.0
  0
LINE
  5
53
330
4E
100
AcDbEntity
  8
LC-003-005-----0
 62
     7
370
    25
100
AcDbLine
 10
203.661172
 20
268.714996
 30
0.0
 11
206.561176
 21
271.615
 31
0.0
  0
LINE
  5
54
330
4E
100
AcDbEntity
  8
LC-003-005-----0
 62
     7
370
    25
100
AcDbLine
 10
203.661176
 20
271.543427
 30
0.0
 11
206.56118
 21
274.443431
 31
0.0
  0
LINE
  5
55
330
4E
100
AcDbEntity
  8
LC-003-005-----0
 62
     7
370
    25
100
AcDbLine
 10
203.66118
 20
274.371858
 30
0.0
 11
206.561184
 21
277.271862
 31
0.0
  0
LINE
  5
56
330
4E
100
AcDbEntity
  8
LC-003-005-----0
 62
     7
370
    25
100
AcDbLine
 10
203.661184
 20
277.200289
 30
0.0
 11
206.561188
 21
280.100293
 31
0.0
  0
LINE
  5
57
330
4E
100
AcDbEntity
  8
LC-003-005-----0
 62
     7
370
    25
100
AcDbLine
 10
203.661188
 20
280.02872
 30
0.0
 11
206.561192
 21
282.928724
 31
0.0
  0
LINE
  5
58
330
4E
100
AcDbEntity
  8
LC-003-005-----0
 62
     7
370
    25
100
AcDbLine
 10
203.661191
 20
282.857151
 30
0.0
 11
206.561195
 21
285.757155
 31
0.0
  0
LINE
  5
59
330
4E
100
AcDbEntity
  8
LC-003-005-----0
 62
     7
370
    25
100
AcDbLine
 10
203.661195
 20
285.685582
 30
0.0
 11
206.561199
 21
288.585586
 31
0.0
  0
LINE
  5
5A
330
4E
100
AcDbEntity
  8
LC-003-005-----0
 62
     7
370
    25
100
AcDbLine
 10
203.661199
 20
288.514013
 30
0.0
 11
206.561203
 21
291.414017
 31
0.0
  0
LINE
  5
5B
330
4E
100
AcDbEntity
  8
LC-003-005-----0
 62
     7
370
    25
100
AcDbLine
 10
203.161202
 20
290.842443
 30
0.0
 11
206.561207
 21
294.242448
 31
0.0
  0
LINE
  5
5C
330
4E
100
AcDbEntity
  8
LC-003-005-----0
 62
     7
370
    25
100
AcDbLine
 10
203.161206
 20
293.670874
 30
0.0
 11
206.561211
 21
297.070879
 31
0.0
  0
LINE
  5
5D
330
4E
100
AcDbEntity
  8
LC-003-005-----0
 62
     7
370
    25
100
AcDbLine
 10
203.16121
 20
296.499305
 30
0.0
 11
203.80261
 21
297.140705
 31
0.0
  0
ENDBLK
  5
50
330
4E
100
AcDbEntity
  8
0
100
AcDbBlockEnd
  0
BLOCK
  5
80
330
7F
100
AcDbEntity
  8
0
100
AcDbBlockBegin
  2
*X22
 70
     1
 71
     0
 10
0.0
 20
0.0
 30
0.0
  3
*X22
  1

  4
*X2
  0
LINE
  5
82
330
7F
100
AcDbEntity
  8
LC-003-005-----0
 62
     7
370
    25
100
AcDbLine
 10
190.386575
 20
331.807931
 30
0.0
 11
190.501532
 21
331.922888
 31
0.0
  0
LINE
  5
83
330
7F
100
AcDbEntity
  8
LC-003-005-----0
 62
     7
370
    25
100
AcDbLine
 10
188.857181
 20
333.106964
 30
0.0
 11
189.746777
 21
333.99656
 31
0.0
  0
LINE
  5
84
330
7F
100
AcDbEntity
  8
LC-003-005-----0
 62
     7
370
    25
100
AcDbLine
 10
188.857181
 20
335.935391
 30
0.0
 11
188.992022
 21
336.070232
 31
0.0
  0
LINE
  5
85
330
7F
100
AcDbEntity
  8
LC-003-005-----0
 62
     7
370
    25
100
AcDbLine
 10
175.63648
 20
367.969525
 30
0.0
 11
176.915943
 21
369.248987
 31
0.0
  0
LINE
  5
86
330
7F
100
AcDbEntity
  8
LC-003-005-----0
 62
     7
370
    25
100
AcDbLine
 10
174.546883
 20
369.708355
 30
0.0
 11
176.161188
 21
371.322659
 31
0.0
  0
LINE
  5
87
330
7F
100
AcDbEntity
  8
LC-003-005-----0
 62
     7
370
    25
100
AcDbLine
 10
173.792128
 20
371.782027
 30
0.0
 11
174.150814
 21
372.140713
 31
0.0
  0
ENDBLK
  5
81
330
7F
100
AcDbEntity
  8
0
100
AcDbBlockEnd
  0
BLOCK
  5
A0
330
9F
100
AcDbEntity
  8
0
100
AcDbBlockBegin
  2
*X33
 70
     1
 71
     0
 10
0.0
 20
0.0
 30
0.0
  3
*X33
  1

  4
*X3
  0
LINE
  5
A2
330
9F
100
AcDbEntity
  8
LC-003-005-----0
 62
     7
370
    25
100
AcDbLine
 10
58.837098
 20
268.140705
 30
0.0
 11
61.661773
 21
270.96538
 31
0.0
  0
LINE
  5
A3
330
9F
100
AcDbEntity
  8
LC-003-005-----0
 62
     7
370
    25
100
AcDbLine
 10
57.307455
 20
269.439489
 30
0.0
 11
57.962991
 21
270.095025
 31
0.0
  0
LINE
  5
A4
330
9F
100
AcDbEntity
  8
LC-003-005-----0
 62
     7
370
    25
100
AcDbLine
 10
58.761773
 20
270.893808
 30
0.0
 11
61.661769
 21
273.793804
 31
0.0
  0
LINE
  5
A5
330
9F
100
AcDbEntity
  8
LC-003-005-----0
 62
     7
370
    25
100
AcDbLine
 10
58.761769
 20
273.722231
 30
0.0
 11
61.661765
 21
276.622227
 31
0.0
  0
LINE
  5
A6
330
9F
100
AcDbEntity
  8
LC-003-005-----0
 62
     7
370
    25
100
AcDbLine
 10
58.761765
 20
276.550654
 30
0.0
 11
61.661761
 21
279.45065
 31
0.0
  0
LINE
  5
A7
330
9F
100
AcDbEntity
  8
LC-003-005-----0
 62
     7
370
    25
100
AcDbLine
 10
58.761762
 20
279.379077
 30
0.0
 11
61.661758
 21
282.279073
 31
0.0
  0
LINE
  5
A8
330
9F
100
AcDbEntity
  8
LC-003-005-----0
 62
     7
370
    25
100
AcDbLine
 10
58.761758
 20
282.207501
 30
0.0
 11
61.661754
 21
285.107497
 31
0.0
  0
LINE
  5
A9
330
9F
100
AcDbEntity
  8
LC-003-005-----0
 62
     7
370
    25
100
AcDbLine
 10
58.761754
 20
285.035924
 30
0.0
 11
61.66175
 21
287.93592
 31
0.0
  0
LINE
  5
AA
330
9F
100
AcDbEntity
  8
LC-003-005-----0
 62
     7
370
    25
100
AcDbLine
 10
58.76175
 20
287.864347
 30
0.0
 11
62.161745
 21
291.264342
 31
0.0
  0
LINE
  5
AB
330
9F
100
AcDbEntity
  8
LC-003-005-----0
 62
     7
370
    25
100
AcDbLine
 10
58.761746
 20
290.69277
 30
0.0
 11
62.161741
 21
294.092766
 31
0.0
  0
LINE
  5
AC
330
9F
100
AcDbEntity
  8
LC-003-005-----0
 62
     7
370
    25
100
AcDbLine
 10
58.761742
 20
293.521194
 30
0.0
 11
62.161738
 21
296.921189
 31
0.0
  0
LINE
  5
AD
330
9F
100
AcDbEntity
  8
LC-003-005-----0
 62
     7
370
    25
100
AcDbLine
 10
58.761738
 20
296.349617
 30
0.0
 11
59.552826
 21
297.140705
 31
0.0
  0
ENDBLK
  5
A1
330
9F
100
AcDbEntity
  8
0
100
AcDbBlockEnd
  0
BLOCK
  5
D3
330
D2
100
AcDbEntity
  8
0
100
AcDbBlockBegin
  2
*X44
 70
     1
 71
     0
 10
0.0
 20
0.0
 30
0.0
  3
*X44
  1

  4
*X4
  0
LINE
  5
D5
330
D2
100
AcDbEntity
  8
LC-003-005-----0
 62
     7
370
    25
100
AcDbLine
 10
74.984736
 20
332.371604
 30
0.0
 11
76.465767
 21
333.852636
 31
0.0
  0
LINE
  5
D6
330
D2
100
AcDbEntity
  8
LC-003-005-----0
 62
     7
370
    25
100
AcDbLine
 10
87.933354
 20
367.947639
 30
0.0
 11
91.395241
 21
371.409526
 31
0.0
  0
ENDBLK
  5
D4
330
D2
100
AcDbEntity
  8
0
100
AcDbBlockEnd
  0
BLOCK
  5
FE
330
FD
100
AcDbEntity
  8
0
100
AcDbBlockBegin
  2
*X55
 70
     1
 71
     0
 10
0.0
 20
0.0
 30
0.0
  3
*X55
  1

  4
*X5
  0
LINE
  5
100
330
FD
100
AcDbEntity
  8
LC-003-005-----0
  6
DASHED
 62
     7
370
    25
100
AcDbLine
 10
31.411472
 20
291.02922
 30
0.0
 11
27.799987
 21
294.640705
 31
0.0
  0
LINE
  5
101
330
FD
100
AcDbEntity
  8
LC-003-005-----0
  6
DASHED
 62
     7
370
    25
100
AcDbLine
 10
27.536968
 20
294.903724
 30
0.0
 11
27.363486
 21
295.077206
 31
0.0
  0
LINE
  5
102
330
FD
100
AcDbEntity
  8
LC-003-005-----0
  6
DASHED
 62
     7
370
    25
100
AcDbLine
 10
30.971099
 20
288.641166
 30
0.0
 11
24.97156
 21
294.640705
 31
0.0
  0
LINE
  5
103
330
FD
100
AcDbEntity
  8
LC-003-005-----0
 62
     7
370
    25
100
AcDbLine
 10
27.049491
 20
286.90592
 30
0.0
 11
23.411472
 21
290.543939
 31
0.0
  0
ENDBLK
  5
FF
330
FD
100
AcDbEntity
  8
0
100
AcDbBlockEnd
  0
BLOCK
  5
125
330
124
100
AcDbEntity
  8
0
100
AcDbBlockBegin
  2
*X66
 70
     1
 71
     0
 10
0.0
 20
0.0
 30
0.0
  3
*X66
  1

  4
*X6
  0
LINE
  5
127
330
124
100
AcDbEntity
  8
LC-003-005-----0
  6
DASHED
 62
     7
370
    25
100
AcDbLine
 10
241.911472
 20
289.832827
 30
0.0
 11
236.805961
 21
294.938339
 31
0.0
  0
LINE
  5
128
330
124
100
AcDbEntity
  8
LC-003-005-----0
  6
DASHED
 62
     7
370
    25
100
AcDbLine
 10
240.803285
 20
288.112588
 30
0.0
 11
234.290118
 21
294.625754
 31
0.0
  0
LINE
  5
129
330
124
100
AcDbEntity
  8
LC-003-005-----0
 62
     7
370
    25
100
AcDbLine
 10
236.973259
 20
286.285759
 30
0.0
 11
235.773227
 21
287.485791
 31
0.0
  0
LINE
  5
12A
330
124
100
AcDbEntity
  8
LC-003-005-----0
 62
     7
370
    25
100
AcDbLine
 10
234.617852
 20
288.641166
 30
0.0
 11
233.911472
 21
289.347546
 31
0.0
  0
LINE
  5
12B
330
124
100
AcDbEntity
  8
LC-003-005-----0
 62
     7
370
    25
100
AcDbLine
 10
235.058246
 20
285.372345
 30
0.0
 11
234.389604
 21
286.040987
 31
0.0
  0
ENDBLK
  5
126
330
124
100
AcDbEntity
  8
0
100
AcDbBlockEnd
  0
BLOCK
  5
13C
330
132
100
AcDbEntity
  8
0
100
AcDbBlockBegin
  2
*D7
 70
     1
 71
     0
 10
0.0
 20
0.0
 30
0.0
  3
*D7
  1

  0
LINE
  5
133
330
132
100
AcDbEntity
  8
LC-005-003-----0
 62
     2
370
    -2
100
AcDbLine
 10
-44.338516
 20
290.966581
 30
0.0
 11
-44.341135
 21
388.56118
 31
0.0
  0
LINE
  5
134
330
132
100
AcDbEntity
  8
LC-005-003-----0
 62
     2
370
    -2
100
AcDbLine
 10
309.661471
 20
290.976082
 30
0.0
 11
309.658852
 21
388.570681
 31
0.0
  0
LINE
  5
135
330
132
100
AcDbEntity
  8
LC-005-003-----0
 62
     2
370
    -2
100
AcDbLine
 10
-16.341039
 20
384.961932
 30
0.0
 11
281.658948
 21
384.96993
 31
0.0
  0
SOLID
  5
136
330
132
100
AcDbEntity
  8
LC-005-003-----0
 62
     2
100
AcDbTrace
 10
-16.341164
 20
389.628599
 30
0.0
 11
-16.340913
 21
380.295265
 31
0.0
 12
-44.341039
 22
384.96118
 32
0.0
 13
-44.341039
 23
384.96118
 33
0.0
  0
SOLID
  5
137
330
132
100
AcDbEntity
  8
LC-005-003-----0
 62
     2
100
AcDbTrace
 10
281.659074
 20
380.303263
 30
0.0
 11
281.658823
 21
389.636597
 31
0.0
 12
309.658948
 22
384.970681
 32
0.0
 13
309.658948
 23
384.970681
 33
0.0
  0
MTEXT
  5
138
330
132
100
AcDbEntity
  8
LC-005-003-----0
 62
     2
100
AcDbMText
 10
132.658128
 20
415.765931
 30
0.0
 40
28.0
 41
0.0
 71
     5
 72
     1
  1
%%c\A1;354
  7
LCTX15-400-0-0pDIN-Schrift
 11
0.9999999996398464
 21
2.683853862805206E-5
 31
0.0
 73
     1
 44
1.0
  0
POINT
  5
139
330
132
100
AcDbEntity
  8
Defpoints
 62
     0
100
AcDbPoint
 10
-44.338516
 20
290.966581
 30
0.0
  0
POINT
  5
13A
330
132
100
AcDbEntity
  8
Defpoints
 62
     0
100
AcDbPoint
 10
309.661471
 20
290.976082
 30
0.0
  0
POINT
  5
13B
330
132
100
AcDbEntity
  8
Defpoints
 62
     0
100
AcDbPoint
 10
309.658948
 20
384.970681
 30
0.0
  0
ENDBLK
  5
13D
330
132
100
AcDbEntity
  8
0
100
AcDbBlockEnd
  0
BLOCK
  5
169
330
168
100
AcDbEntity
  8
0
100
AcDbBlockBegin
  2
*X78
 70
     1
 71
     0
 10
0.0
 20
0.0
 30
0.0
  3
*X78
  1

  4
*X7
  0
LINE
  5
16B
330
168
100
AcDbEntity
  8
LC-003-005-----0
 62
     7
370
    25
100
AcDbLine
 10
32.411472
 20
298.514502
 30
0.0
 11
31.785269
 21
299.140705
 31
0.0
  0
LINE
  5
16C
330
168
100
AcDbEntity
  8
LC-003-005-----0
 62
     7
370
    25
100
AcDbLine
 10
34.661472
 20
292.021861
 30
0.0
 11
27.542628
 21
299.140705
 31
0.0
  0
LINE
  5
16D
330
168
100
AcDbEntity
  8
LC-003-005-----0
 62
     7
370
    25
100
AcDbLine
 10
34.661472
 20
287.77922
 30
0.0
 11
30.913324
 21
291.527368
 31
0.0
  0
LINE
  5
16E
330
168
100
AcDbEntity
  8
LC-003-005-----0
 62
     7
370
    25
100
AcDbLine
 10
27.299987
 20
295.140705
 30
0.0
 11
23.299987
 21
299.140705
 31
0.0
  0
LINE
  5
16F
330
168
100
AcDbEntity
  8
LC-003-005-----0
 62
     7
370
    25
100
AcDbLine
 10
32.057347
 20
286.140705
 30
0.0
 11
31.597621
 21
286.60043
 31
0.0
  0
LINE
  5
170
330
168
100
AcDbEntity
  8
LC-003-005-----0
 62
     7
370
    25
100
AcDbLine
 10
23.161472
 20
295.036579
 30
0.0
 11
19.057347
 21
299.140705
 31
0.0
  0
LINE
  5
171
330
168
100
AcDbEntity
  8
LC-003-005-----0
 62
     7
370
    25
100
AcDbLine
 10
23.161472
 20
290.793939
 30
0.0
 11
20.661472
 21
293.293939
 31
0.0
  0
LINE
  5
172
330
168
100
AcDbEntity
  8
LC-003-005-----0
 62
     7
370
    25
100
AcDbLine
 10
18.814706
 20
295.140705
 30
0.0
 11
14.814706
 21
299.140705
 31
0.0
  0
LINE
  5
173
330
168
100
AcDbEntity
  8
LC-003-005-----0
 62
     7
370
    25
100
AcDbLine
 10
21.589824
 20
288.122947
 30
0.0
 11
20.661472
 21
289.051298
 31
0.0
  0
LINE
  5
174
330
168
100
AcDbEntity
  8
LC-003-005-----0
 62
     7
370
    25
100
AcDbLine
 10
14.572065
 20
295.140705
 30
0.0
 11
10.572065
 21
299.140705
 31
0.0
  0
LINE
  5
175
330
168
100
AcDbEntity
  8
LC-003-005-----0
 62
     7
370
    25
100
AcDbLine
 10
12.661472
 20
292.808657
 30
0.0
 11
10.661472
 21
294.808657
 31
0.0
  0
LINE
  5
176
330
168
100
AcDbEntity
  8
LC-003-005-----0
 62
     7
370
    25
100
AcDbLine
 10
10.329425
 20
295.140705
 30
0.0
 11
6.329425
 21
299.140705
 31
0.0
  0
LINE
  5
177
330
168
100
AcDbEntity
  8
LC-003-005-----0
 62
     7
370
    25
100
AcDbLine
 10
6.086784
 20
295.140705
 30
0.0
 11
2.086784
 21
299.140705
 31
0.0
  0
LINE
  5
178
330
168
100
AcDbEntity
  8
LC-003-005-----0
 62
     7
370
    25
100
AcDbLine
 10
0.344143
 20
296.640705
 30
0.0
 11
-2.155857
 21
299.140705
 31
0.0
  0
LINE
  5
179
330
168
100
AcDbEntity
  8
LC-003-005-----0
 62
     7
370
    25
100
AcDbLine
 10
-3.898497
 20
296.640705
 30
0.0
 11
-6.398497
 21
299.140705
 31
0.0
  0
LINE
  5
17A
330
168
100
AcDbEntity
  8
LC-003-005-----0
 62
     7
370
    25
100
AcDbLine
 10
-8.141138
 20
296.640705
 30
0.0
 11
-10.641138
 21
299.140705
 31
0.0
  0
LINE
  5
17B
330
168
100
AcDbEntity
  8
LC-003-005-----0
 62
     7
370
    25
100
AcDbLine
 10
-12.383779
 20
296.640705
 30
0.0
 11
-14.883779
 21
299.140705
 31
0.0
  0
LINE
  5
17C
330
168
100
AcDbEntity
  8
LC-003-005-----0
 62
     7
370
    25
100
AcDbLine
 10
-16.626419
 20
296.640705
 30
0.0
 11
-19.126419
 21
299.140705
 31
0.0
  0
LINE
  5
17D
330
168
100
AcDbEntity
  8
LC-003-005-----0
 62
     7
370
    25
100
AcDbLine
 10
-20.86906
 20
296.640705
 30
0.0
 11
-23.36906
 21
299.140705
 31
0.0
  0
LINE
  5
17E
330
168
100
AcDbEntity
  8
LC-003-005-----0
 62
     7
370
    25
100
AcDbLine
 10
-25.111701
 20
296.640705
 30
0.0
 11
-27.611701
 21
299.140705
 31
0.0
  0
LINE
  5
17F
330
168
100
AcDbEntity
  8
LC-003-005-----0
 62
     7
370
    25
100
AcDbLine
 10
-29.354341
 20
296.640705
 30
0.0
 11
-31.854341
 21
299.140705
 31
0.0
  0
LINE
  5
180
330
168
100
AcDbEntity
  8
LC-003-005-----0
 62
     7
370
    25
100
AcDbLine
 10
-33.596982
 20
296.640705
 30
0.0
 11
-36.096982
 21
299.140705
 31
0.0
  0
LINE
  5
181
330
168
100
AcDbEntity
  8
LC-003-005-----0
 62
     7
370
    25
100
AcDbLine
 10
-37.839623
 20
296.640705
 30
0.0
 11
-40.339623
 21
299.140705
 31
0.0
  0
LINE
  5
182
330
168
100
AcDbEntity
  8
LC-003-005-----0
 62
     7
370
    25
100
AcDbLine
 10
-42.082264
 20
296.640705
 30
0.0
 11
-43.869349
 21
298.42779
 31
0.0
  0
ENDBLK
  5
16A
330
168
100
AcDbEntity
  8
0
100
AcDbBlockEnd
  0
BLOCK
  5
185
330
184
100
AcDbEntity
  8
0
100
AcDbBlockBegin
  2
*X89
 70
     1
 71
     0
 10
0.0
 20
0.0
 30
0.0
  3
*X89
  1

  4
*X8
  0
LINE
  5
187
330
184
100
AcDbEntity
  8
LC-003-005-----0
 62
     7
370
    25
100
AcDbLine
 10
53.661472
 20
294.235064
 30
0.0
 11
50.755832
 21
297.140705
 31
0.0
  0
LINE
  5
188
330
184
100
AcDbEntity
  8
LC-003-005-----0
 62
     7
370
    25
100
AcDbLine
 10
53.661472
 20
289.992424
 30
0.0
 11
51.161472
 21
292.492424
 31
0.0
  0
LINE
  5
189
330
184
100
AcDbEntity
  8
LC-003-005-----0
 62
     7
370
    25
100
AcDbLine
 10
49.774737
 20
293.879159
 30
0.0
 11
44.911472
 21
298.742424
 31
0.0
  0
LINE
  5
18A
330
184
100
AcDbEntity
  8
LC-003-005-----0
 62
     7
370
    25
100
AcDbLine
 10
53.661472
 20
285.749783
 30
0.0
 11
51.161472
 21
288.249783
 31
0.0
  0
LINE
  5
18B
330
184
100
AcDbEntity
  8
LC-003-005-----0
 62
     7
370
    25
100
AcDbLine
 10
46.589408
 20
292.821847
 30
0.0
 11
43.27055
 21
296.140705
 31
0.0
  0
LINE
  5
18C
330
184
100
AcDbEntity
  8
LC-003-005-----0
 62
     7
370
    25
100
AcDbLine
 10
53.661472
 20
281.507142
 30
0.0
 11
51.161472
 21
284.007142
 31
0.0
  0
LINE
  5
18D
330
184
100
AcDbEntity
  8
LC-003-005-----0
 62
     7
370
    25
100
AcDbLine
 10
46.072013
 20
289.096601
 30
0.0
 11
42.661472
 21
292.507142
 31
0.0
  0
LINE
  5
18E
330
184
100
AcDbEntity
  8
LC-003-005-----0
 62
     7
370
    25
100
AcDbLine
 10
53.661472
 20
277.264502
 30
0.0
 11
51.161472
 21
279.764502
 31
0.0
  0
LINE
  5
18F
330
184
100
AcDbEntity
  8
LC-003-005-----0
 62
     7
370
    25
100
AcDbLine
 10
44.785269
 20
286.140705
 30
0.0
 11
42.661472
 21
288.264502
 31
0.0
  0
ENDBLK
  5
186
330
184
100
AcDbEntity
  8
0
100
AcDbBlockEnd
  0
BLOCK
  5
1B7
330
1B6
100
AcDbEntity
  8
0
100
AcDbBlockBegin
  2
*X910
 70
     1
 71
     0
 10
0.0
 20
0.0
 30
0.0
  3
*X910
  1

  4
*X9
  0
LINE
  5
1B9
330
1B6
100
AcDbEntity
  8
LC-003-005-----0
 62
     7
370
    25
100
AcDbLine
 10
309.661472
 20
297.036146
 30
0.0
 11
307.556913
 21
299.140705
 31
0.0
  0
LINE
  5
1BA
330
1B6
100
AcDbEntity
  8
LC-003-005-----0
 62
     7
370
    25
100
AcDbLine
 10
305.814273
 20
296.640705
 30
0.0
 11
303.314273
 21
299.140705
 31
0.0
  0
LINE
  5
1BB
330
1B6
100
AcDbEntity
  8
LC-003-005-----0
 62
     7
370
    25
100
AcDbLine
 10
301.571632
 20
296.640705
 30
0.0
 11
299.071632
 21
299.140705
 31
0.0
  0
LINE
  5
1BC
330
1B6
100
AcDbEntity
  8
LC-003-005-----0
 62
     7
370
    25
100
AcDbLine
 10
297.328991
 20
296.640705
 30
0.0
 11
294.828991
 21
299.140705
 31
0.0
  0
LINE
  5
1BD
330
1B6
100
AcDbEntity
  8
LC-003-005-----0
 62
     7
370
    25
100
AcDbLine
 10
293.086351
 20
296.640705
 30
0.0
 11
290.586351
 21
299.140705
 31
0.0
  0
LINE
  5
1BE
330
1B6
100
AcDbEntity
  8
LC-003-005-----0
 62
     7
370
    25
100
AcDbLine
 10
288.84371
 20
296.640705
 30
0.0
 11
286.34371
 21
299.140705
 31
0.0
  0
LINE
  5
1BF
330
1B6
100
AcDbEntity
  8
LC-003-005-----0
 62
     7
370
    25
100
AcDbLine
 10
284.601069
 20
296.640705
 30
0.0
 11
282.101069
 21
299.140705
 31
0.0
  0
LINE
  5
1C0
330
1B6
100
AcDbEntity
  8
LC-003-005-----0
 62
     7
370
    25
100
AcDbLine
 10
280.358429
 20
296.640705
 30
0.0
 11
277.858429
 21
299.140705
 31
0.0
  0
LINE
  5
1C1
330
1B6
100
AcDbEntity
  8
LC-003-005-----0
 62
     7
370
    25
100
AcDbLine
 10
276.115788
 20
296.640705
 30
0.0
 11
273.615788
 21
299.140705
 31
0.0
  0
LINE
  5
1C2
330
1B6
100
AcDbEntity
  8
LC-003-005-----0
 62
     7
370
    25
100
AcDbLine
 10
271.873147
 20
296.640705
 30
0.0
 11
269.373147
 21
299.140705
 31
0.0
  0
LINE
  5
1C3
330
1B6
100
AcDbEntity
  8
LC-003-005-----0
 62
     7
370
    25
100
AcDbLine
 10
267.630507
 20
296.640705
 30
0.0
 11
265.130507
 21
299.140705
 31
0.0
  0
LINE
  5
1C4
330
1B6
100
AcDbEntity
  8
LC-003-005-----0
 62
     7
370
    25
100
AcDbLine
 10
263.387866
 20
296.640705
 30
0.0
 11
260.887866
 21
299.140705
 31
0.0
  0
LINE
  5
1C5
330
1B6
100
AcDbEntity
  8
LC-003-005-----0
 62
     7
370
    25
100
AcDbLine
 10
260.236474
 20
295.549456
 30
0.0
 11
256.645225
 21
299.140705
 31
0.0
  0
LINE
  5
1C6
330
1B6
100
AcDbEntity
  8
LC-003-005-----0
 62
     7
370
    25
100
AcDbLine
 10
256.402585
 20
295.140705
 30
0.0
 11
252.402585
 21
299.140705
 31
0.0
  0
LINE
  5
1C7
330
1B6
100
AcDbEntity
  8
LC-003-005-----0
 62
     7
370
    25
100
AcDbLine
 10
254.384556
 20
292.916093
 30
0.0
 11
252.661472
 21
294.639177
 31
0.0
  0
LINE
  5
1C8
330
1B6
100
AcDbEntity
  8
LC-003-005-----0
 62
     7
370
    25
100
AcDbLine
 10
252.159944
 20
295.140705
 30
0.0
 11
248.159944
 21
299.140705
 31
0.0
  0
LINE
  5
1C9
330
1B6
100
AcDbEntity
  8
LC-003-005-----0
 62
     7
370
    25
100
AcDbLine
 10
247.917303
 20
295.140705
 30
0.0
 11
243.917303
 21
299.140705
 31
0.0
  0
LINE
  5
1CA
330
1B6
100
AcDbEntity
  8
LC-003-005-----0
 62
     7
370
    25
100
AcDbLine
 10
244.661472
 20
294.153895
 30
0.0
 11
239.674663
 21
299.140705
 31
0.0
  0
LINE
  5
1CB
330
1B6
100
AcDbEntity
  8
LC-003-005-----0
 62
     7
370
    25
100
AcDbLine
 10
244.661472
 20
289.911255
 30
0.0
 11
242.161472
 21
292.411255
 31
0.0
  0
LINE
  5
1CC
330
1B6
100
AcDbEntity
  8
LC-003-005-----0
 62
     7
370
    25
100
AcDbLine
 10
239.432022
 20
295.140705
 30
0.0
 11
235.432022
 21
299.140705
 31
0.0
  0
LINE
  5
1CD
330
1B6
100
AcDbEntity
  8
LC-003-005-----0
 62
     7
370
    25
100
AcDbLine
 10
242.68072
 20
287.649366
 30
0.0
 11
242.161472
 21
288.168614
 31
0.0
  0
LINE
  5
1CE
330
1B6
100
AcDbEntity
  8
LC-003-005-----0
 62
     7
370
    25
100
AcDbLine
 10
235.189381
 20
295.140705
 30
0.0
 11
232.922422
 21
297.407663
 31
0.0
  0
LINE
  5
1CF
330
1B6
100
AcDbEntity
  8
LC-003-005-----0
 62
     7
370
    25
100
AcDbLine
 10
234.427968
 20
291.659477
 30
0.0
 11
230.661472
 21
295.425973
 31
0.0
  0
LINE
  5
1D0
330
1B6
100
AcDbEntity
  8
LC-003-005-----0
 62
     7
370
    25
100
AcDbLine
 10
233.910573
 20
287.934232
 30
0.0
 11
230.661472
 21
291.183332
 31
0.0
  0
LINE
  5
1D1
330
1B6
100
AcDbEntity
  8
LC-003-005-----0
 62
     7
370
    25
100
AcDbLine
 10
231.461459
 20
286.140705
 30
0.0
 11
230.661472
 21
286.940692
 31
0.0
  0
ENDBLK
  5
1B8
330
1B6
100
AcDbEntity
  8
0
100
AcDbBlockEnd
  0
BLOCK
  5
1D4
330
1D3
100
AcDbEntity
  8
0
100
AcDbBlockBegin
  2
*X1011
 70
     1
 71
     0
 10
0.0
 20
0.0
 30
0.0
  3
*X1011
  1

  4
*X10
  0
LINE
  5
1D6
330
1D3
100
AcDbEntity
  8
LC-003-005-----0
 62
     7
370
    25
100
AcDbLine
 10
222.661472
 20
294.940692
 30
0.0
 11
221.465249
 21
296.136915
 31
0.0
  0
LINE
  5
1D7
330
1D3
100
AcDbEntity
  8
LC-003-005-----0
 62
     7
370
    25
100
AcDbLine
 10
220.411472
 20
297.190692
 30
0.0
 11
218.534669
 21
299.067495
 31
0.0
  0
LINE
  5
1D8
330
1D3
100
AcDbEntity
  8
LC-003-005-----0
 62
     7
370
    25
100
AcDbLine
 10
222.661472
 20
290.698051
 30
0.0
 11
218.442545
 21
294.916978
 31
0.0
  0
LINE
  5
1D9
330
1D3
100
AcDbEntity
  8
LC-003-005-----0
 62
     7
370
    25
100
AcDbLine
 10
218.218818
 20
295.140705
 30
0.0
 11
215.844942
 21
297.514581
 31
0.0
  0
LINE
  5
1DA
330
1D3
100
AcDbEntity
  8
LC-003-005-----0
 62
     7
370
    25
100
AcDbLine
 10
222.661472
 20
286.45541
 30
0.0
 11
219.126842
 21
289.99004
 31
0.0
  0
LINE
  5
1DB
330
1D3
100
AcDbEntity
  8
LC-003-005-----0
 62
     7
370
    25
100
AcDbLine
 10
215.351368
 20
293.765514
 30
0.0
 11
211.976178
 21
297.140705
 31
0.0
  0
LINE
  5
1DC
330
1D3
100
AcDbEntity
  8
LC-003-005-----0
 62
     7
370
    25
100
AcDbLine
 10
214.161472
 20
290.71277
 30
0.0
 11
211.661472
 21
293.21277
 31
0.0
  0
LINE
  5
1DD
330
1D3
100
AcDbEntity
  8
LC-003-005-----0
 62
     7
370
    25
100
AcDbLine
 10
214.161472
 20
286.470129
 30
0.0
 11
211.661472
 21
288.970129
 31
0.0
  0
LINE
  5
1DE
330
1D3
100
AcDbEntity
  8
LC-003-005-----0
 62
     7
370
    25
100
AcDbLine
 10
214.161472
 20
282.227488
 30
0.0
 11
211.661472
 21
284.727488
 31
0.0
  0
LINE
  5
1DF
330
1D3
100
AcDbEntity
  8
LC-003-005-----0
 62
     7
370
    25
100
AcDbLine
 10
214.161472
 20
277.984848
 30
0.0
 11
211.661472
 21
280.484848
 31
0.0
  0
LINE
  5
1E0
330
1D3
100
AcDbEntity
  8
LC-003-005-----0
 62
     7
370
    25
100
AcDbLine
 10
212.962223
 20
274.941456
 30
0.0
 11
211.194456
 21
276.709223
 31
0.0
  0
LINE
  5
1E1
330
1D3
100
AcDbEntity
  8
LC-003-005-----0
 62
     7
370
    25
100
AcDbLine
 10
210.840903
 20
272.820136
 30
0.0
 11
209.073136
 21
274.587902
 31
0.0
  0
LINE
  5
1E2
330
1D3
100
AcDbEntity
  8
LC-003-005-----0
 62
     7
370
    25
100
AcDbLine
 10
208.277693
 20
271.140705
 30
0.0
 11
206.951816
 21
272.466582
 31
0.0
  0
ENDBLK
  5
1D5
330
1D3
100
AcDbEntity
  8
0
100
AcDbBlockEnd
  0
BLOCK
  5
217
330
20D
100
AcDbEntity
  8
0
100
AcDbBlockBegin
  2
*D12
 70
     1
 71
     0
 10
0.0
 20
0.0
 30
0.0
  3
*D12
  1

  0
LINE
  5
20E
330
20D
100
AcDbEntity
  8
LC-005-003-----0
 62
     2
370
    -2
100
AcDbLine
 10
157.661472
 20
-50.944962
 30
0.0
 11
303.394249
 21
-50.944962
 31
0.0
  0
LINE
  5
20F
330
20D
100
AcDbEntity
  8
LC-005-003-----0
 62
     2
370
    -2
100
AcDbLine
 10
213.411472
 20
250.10383
 30
0.0
 11
303.394249
 21
250.10383
 31
0.0
  0
LINE
  5
210
330
20D
100
AcDbEntity
  8
LC-005-003-----0
 62
     2
370
    -2
100
AcDbLine
 10
299.794249
 20
-22.944962
 30
0.0
 11
299.794249
 21
222.10383
 31
0.0
  0
SOLID
  5
211
330
20D
100
AcDbEntity
  8
LC-005-003-----0
 62
     2
100
AcDbTrace
 10
295.127583
 20
-22.944962
 30
0.0
 11
304.460916
 21
-22.944962
 31
0.0
 12
299.794249
 22
-50.944962
 32
0.0
 13
299.794249
 23
-50.944962
 33
0.0
  0
SOLID
  5
212
330
20D
100
AcDbEntity
  8
LC-005-003-----0
 62
     2
100
AcDbTrace
 10
304.460916
 20
222.10383
 30
0.0
 11
295.127583
 21
222.10383
 31
0.0
 12
299.794249
 22
250.10383
 32
0.0
 13
299.794249
 23
250.10383
 33
0.0
  0
MTEXT
  5
213
330
20D
100
AcDbEntity
  8
LC-005-003-----0
 62
     2
100
AcDbMText
 10
268.994249
 20
75.438
 30
0.0
 40
28.0
 41
0.0
 71
     5
 72
     1
  1
\A1;301
  7
LCTX15-400-0-0pDIN-Schrift
 11
6.123031769111886E-17
 21
1.0
 31
0.0
 73
     1
 44
1.0
  0
POINT
  5
214
330
20D
100
AcDbEntity
  8
Defpoints
 62
     0
100
AcDbPoint
 10
157.661472
 20
-50.944962
 30
0.0
  0
POINT
  5
215
330
20D
100
AcDbEntity
  8
Defpoints
 62
     0
100
AcDbPoint
 10
213.411472
 20
250.10383
 30
0.0
  0
POINT
  5
216
330
20D
100
AcDbEntity
  8
Defpoints
 62
     0
100
AcDbPoint
 10
299.794249
 20
250.10383
 30
0.0
  0
ENDBLK
  5
218
330
20D
100
AcDbEntity
  8
0
100
AcDbBlockEnd
  0
BLOCK
  5
224
330
21A
100
AcDbEntity
  8
0
100
AcDbBlockBegin
  2
*D13
 70
     1
 71
     0
 10
0.0
 20
0.0
 30
0.0
  3
*D13
  1

  0
LINE
  5
21B
330
21A
100
AcDbEntity
  8
LC-005-003-----0
 62
     2
370
    -2
100
AcDbLine
 10
176.455701
 20
-50.944962
 30
0.0
 11
347.008599
 21
-50.944962
 31
0.0
  0
LINE
  5
21C
330
21A
100
AcDbEntity
  8
LC-005-003-----0
 62
     2
370
    -2
100
AcDbLine
 10
305.160872
 20
299.140705
 30
0.0
 11
347.008599
 21
299.140705
 31
0.0
  0
LINE
  5
21D
330
21A
100
AcDbEntity
  8
LC-005-003-----0
 62
     2
370
    -2
100
AcDbLine
 10
343.408599
 20
-22.944962
 30
0.0
 11
343.408599
 21
271.140705
 31
0.0
  0
SOLID
  5
21E
330
21A
100
AcDbEntity
  8
LC-005-003-----0
 62
     2
100
AcDbTrace
 10
338.741932
 20
-22.944962
 30
0.0
 11
348.075266
 21
-22.944962
 31
0.0
 12
343.408599
 22
-50.944962
 32
0.0
 13
343.408599
 23
-50.944962
 33
0.0
  0
SOLID
  5
21F
330
21A
100
AcDbEntity
  8
LC-005-003-----0
 62
     2
100
AcDbTrace
 10
348.075266
 20
271.140705
 30
0.0
 11
338.741932
 21
271.140705
 31
0.0
 12
343.408599
 22
299.140705
 32
0.0
 13
343.408599
 23
299.140705
 33
0.0
  0
MTEXT
  5
220
330
21A
100
AcDbEntity
  8
LC-005-003-----0
 62
     2
100
AcDbMText
 10
312.608599
 20
119.394
 30
0.0
 40
28.0
 41
0.0
 71
     5
 72
     1
  1
\A1;350
  7
LCTX15-400-0-0pDIN-Schrift
 11
6.123031769111886E-17
 21
1.0
 31
0.0
 73
     1
 44
1.0
  0
POINT
  5
221
330
21A
100
AcDbEntity
  8
Defpoints
 62
     0
100
AcDbPoint
 10
176.455701
 20
-50.944962
 30
0.0
  0
POINT
  5
222
330
21A
100
AcDbEntity
  8
Defpoints
 62
     0
100
AcDbPoint
 10
305.160872
 20
299.140705
 30
0.0
  0
POINT
  5
223
330
21A
100
AcDbEntity
  8
Defpoints
 62
     0
100
AcDbPoint
 10
343.408599
 20
299.140705
 30
0.0
  0
ENDBLK
  5
225
330
21A
100
AcDbEntity
  8
0
100
AcDbBlockEnd
  0
BLOCK
  5
26A
330
269
100
AcDbEntity
  8
0
100
AcDbBlockBegin
  2
*X1114
 70
     1
 71
     0
 10
0.0
 20
0.0
 30
0.0
  3
*X1114
  1

  4
*X11
  0
LINE
  5
26C
330
269
100
AcDbEntity
  8
LC-003-005-----0
 62
     7
370
    25
100
AcDbLine
 10
70.159883
 20
184.398558
 30
0.0
 11
69.503236
 21
185.055205
 31
0.0
  0
LINE
  5
26D
330
269
100
AcDbEntity
  8
LC-003-005-----0
  6
DASHED
 62
     7
370
    25
100
AcDbLine
 10
70.159883
 20
173.084849
 30
0.0
 11
69.159883
 21
174.084849
 31
0.0
  0
LINE
  5
26E
330
269
100
AcDbEntity
  8
LC-003-005-----0
  6
DASHED
 62
     7
370
    25
100
AcDbLine
 10
60.017009
 20
183.227724
 30
0.0
 11
58.189528
 21
185.055205
 31
0.0
  0
LINE
  5
26F
330
269
100
AcDbEntity
  8
LC-003-005-----0
  6
DASHED
 62
     7
370
    25
100
AcDbLine
 10
70.159883
 20
167.427995
 30
0.0
 11
69.159883
 21
168.427995
 31
0.0
  0
LINE
  5
270
330
269
100
AcDbEntity
  8
LC-003-005-----0
  6
DASHED
 62
     7
370
    25
100
AcDbLine
 10
67.268626
 20
170.319252
 30
0.0
 11
64.862839
 21
172.725039
 31
0.0
  0
LINE
  5
271
330
269
100
AcDbEntity
  8
LC-003-005-----0
  6
DASHED
 62
     7
370
    25
100
AcDbLine
 10
53.869934
 20
183.717945
 30
0.0
 11
53.160948
 21
184.42693
 31
0.0
  0
LINE
  5
272
330
269
100
AcDbEntity
  8
LC-003-005-----0
 62
     7
370
    25
100
AcDbLine
 10
70.159883
 20
156.114287
 30
0.0
 11
69.134309
 21
157.139861
 31
0.0
  0
LINE
  5
273
330
269
100
AcDbEntity
  8
LC-003-005-----0
 62
     7
370
    25
100
AcDbLine
 10
68.384592
 20
157.889578
 30
0.0
 11
65.879296
 21
160.394874
 31
0.0
  0
LINE
  5
274
330
269
100
AcDbEntity
  8
LC-003-005-----0
 62
     7
370
    25
100
AcDbLine
 10
54.974476
 20
171.299693
 30
0.0
 11
53.591654
 21
172.682516
 31
0.0
  0
LINE
  5
275
330
269
100
AcDbEntity
  8
LC-003-005-----0
 62
     7
370
    25
100
AcDbLine
 10
70.159883
 20
150.457432
 30
0.0
 11
69.159883
 21
151.457432
 31
0.0
  0
LINE
  5
276
330
269
100
AcDbEntity
  8
LC-003-005-----0
 62
     7
370
    25
100
AcDbLine
 10
62.226094
 20
158.391221
 30
0.0
 11
60.222442
 21
160.394874
 31
0.0
  0
LINE
  5
277
330
269
100
AcDbEntity
  8
LC-003-005-----0
  6
DASHED
 62
     7
370
    25
100
AcDbLine
 10
70.159883
 20
139.143724
 30
0.0
 11
69.159883
 21
140.143724
 31
0.0
  0
LINE
  5
278
330
269
100
AcDbEntity
  8
LC-003-005-----0
  6
DASHED
 62
     7
370
    25
100
AcDbLine
 10
63.330637
 20
145.97297
 30
0.0
 11
61.238899
 21
148.064708
 31
0.0
  0
LINE
  5
279
330
269
100
AcDbEntity
  8
LC-003-005-----0
  6
DASHED
 62
     7
370
    25
100
AcDbLine
 10
70.159883
 20
133.48687
 30
0.0
 11
67.912211
 21
135.734542
 31
0.0
  0
LINE
  5
27A
330
269
100
AcDbEntity
  8
LC-003-005-----0
  6
DASHED
 62
     7
370
    25
100
AcDbLine
 10
57.183562
 20
146.463191
 30
0.0
 11
55.582045
 21
148.064708
 31
0.0
  0
LINE
  5
27B
330
269
100
AcDbEntity
  8
LC-003-005-----0
 62
     7
370
    25
100
AcDbLine
 10
70.159883
 20
122.173161
 30
0.0
 11
68.878394
 21
123.454651
 31
0.0
  0
LINE
  5
27C
330
269
100
AcDbEntity
  8
LC-003-005-----0
 62
     7
370
    25
100
AcDbLine
 10
58.288105
 20
134.044939
 30
0.0
 11
56.598502
 21
135.734542
 31
0.0
  0
LINE
  5
27D
330
269
100
AcDbEntity
  8
LC-003-005-----0
 62
     7
370
    25
100
AcDbLine
 10
70.159883
 20
116.516307
 30
0.0
 11
69.159883
 21
117.516307
 31
0.0
  0
LINE
  5
27E
330
269
100
AcDbEntity
  8
LC-003-005-----0
 62
     7
370
    25
100
AcDbLine
 10
65.539723
 20
121.136467
 30
0.0
 11
63.271814
 21
123.404377
 31
0.0
  0
LINE
  5
27F
330
269
100
AcDbEntity
  8
LC-003-005-----0
  6
DASHED
 62
     7
370
    25
100
AcDbLine
 10
70.159883
 20
105.202598
 30
0.0
 11
69.159883
 21
106.202598
 31
0.0
  0
LINE
  5
280
330
269
100
AcDbEntity
  8
LC-003-005-----0
  6
DASHED
 62
     7
370
    25
100
AcDbLine
 10
66.644266
 20
108.718216
 30
0.0
 11
64.288271
 21
111.074211
 31
0.0
  0
LINE
  5
281
330
269
100
AcDbEntity
  8
LC-003-005-----0
  6
DASHED
 62
     7
370
    25
100
AcDbLine
 10
70.159883
 20
99.545744
 30
0.0
 11
69.159883
 21
100.545744
 31
0.0
  0
LINE
  5
282
330
269
100
AcDbEntity
  8
LC-003-005-----0
  6
DASHED
 62
     7
370
    25
100
AcDbLine
 10
60.497191
 20
109.208436
 30
0.0
 11
58.631416
 21
111.074211
 31
0.0
  0
LINE
  5
283
330
269
100
AcDbEntity
  8
LC-003-005-----0
 62
     7
370
    25
100
AcDbLine
 10
70.159883
 20
88.232036
 30
0.0
 11
69.159883
 21
89.232036
 31
0.0
  0
LINE
  5
284
330
269
100
AcDbEntity
  8
LC-003-005-----0
 62
     7
370
    25
100
AcDbLine
 10
61.601734
 20
96.790185
 30
0.0
 11
59.647874
 21
98.744045
 31
0.0
  0
LINE
  5
285
330
269
100
AcDbEntity
  8
LC-003-005-----0
 62
     7
370
    25
100
AcDbLine
 10
70.159883
 20
82.575181
 30
0.0
 11
66.321185
 21
86.41388
 31
0.0
  0
LINE
  5
286
330
269
100
AcDbEntity
  8
LC-003-005-----0
 62
     7
370
    25
100
AcDbLine
 10
55.454659
 20
97.280406
 30
0.0
 11
53.991019
 21
98.744045
 31
0.0
  0
LINE
  5
287
330
269
100
AcDbEntity
  8
LC-003-005-----0
  6
DASHED
 62
     7
370
    25
100
AcDbLine
 10
70.159883
 20
71.261473
 30
0.0
 11
67.337642
 21
74.083714
 31
0.0
  0
LINE
  5
288
330
269
100
AcDbEntity
  8
LC-003-005-----0
  6
DASHED
 62
     7
370
    25
100
AcDbLine
 10
56.559202
 20
84.862154
 30
0.0
 11
55.007477
 21
86.41388
 31
0.0
  0
LINE
  5
289
330
269
100
AcDbEntity
  8
LC-003-005-----0
  6
DASHED
 62
     7
370
    25
100
AcDbLine
 10
70.159883
 20
65.604619
 30
0.0
 11
69.159883
 21
66.604619
 31
0.0
  0
LINE
  5
28A
330
269
100
AcDbEntity
  8
LC-003-005-----0
  6
DASHED
 62
     7
370
    25
100
AcDbLine
 10
63.81082
 20
71.953682
 30
0.0
 11
61.680788
 21
74.083714
 31
0.0
  0
LINE
  5
28B
330
269
100
AcDbEntity
  8
LC-003-005-----0
 62
     7
370
    25
100
AcDbLine
 10
70.159883
 20
54.29091
 30
0.0
 11
69.159883
 21
55.29091
 31
0.0
  0
LINE
  5
28C
330
269
100
AcDbEntity
  8
LC-003-005-----0
 62
     7
370
    25
100
AcDbLine
 10
64.915363
 20
59.535431
 30
0.0
 11
62.697245
 21
61.753548
 31
0.0
  0
LINE
  5
28D
330
269
100
AcDbEntity
  8
LC-003-005-----0
 62
     7
370
    25
100
AcDbLine
 10
70.159883
 20
48.634056
 30
0.0
 11
69.102717
 21
49.691222
 31
0.0
  0
LINE
  5
28E
330
269
100
AcDbEntity
  8
LC-003-005-----0
 62
     7
370
    25
100
AcDbLine
 10
58.768288
 20
60.025651
 30
0.0
 11
57.040391
 21
61.753548
 31
0.0
  0
LINE
  5
28F
330
269
100
AcDbEntity
  8
LC-003-005-----0
  6
DASHED
 62
     7
370
    25
100
AcDbLine
 10
70.159883
 20
37.320347
 30
0.0
 11
69.159883
 21
38.320347
 31
0.0
  0
LINE
  5
290
330
269
100
AcDbEntity
  8
LC-003-005-----0
  6
DASHED
 62
     7
370
    25
100
AcDbLine
 10
59.872831
 20
47.6074
 30
0.0
 11
58.056848
 21
49.423383
 31
0.0
  0
LINE
  5
291
330
269
100
AcDbEntity
  8
LC-003-005-----0
  6
DASHED
 62
     7
370
    25
100
AcDbLine
 10
70.159883
 20
31.663493
 30
0.0
 11
69.159883
 21
32.663493
 31
0.0
  0
LINE
  5
292
330
269
100
AcDbEntity
  8
LC-003-005-----0
  6
DASHED
 62
     7
370
    25
100
AcDbLine
 10
67.124449
 20
34.698928
 30
0.0
 11
64.730159
 21
37.093217
 31
0.0
  0
LINE
  5
293
330
269
100
AcDbEntity
  8
LC-003-005-----0
  6
DASHED
 62
     7
370
    25
100
AcDbLine
 10
53.724005
 20
48.099372
 30
0.0
 11
53.16771
 21
48.655666
 31
0.0
  0
LINE
  5
294
330
269
100
AcDbEntity
  8
LC-003-005-----0
 62
     7
370
    25
100
AcDbLine
 10
70.159883
 20
20.349785
 30
0.0
 11
69.157512
 21
21.352156
 31
0.0
  0
LINE
  5
295
330
269
100
AcDbEntity
  8
LC-003-005-----0
 62
     7
370
    25
100
AcDbLine
 10
68.228992
 20
22.280676
 30
0.0
 11
65.746617
 21
24.763051
 31
0.0
  0
LINE
  5
296
330
269
100
AcDbEntity
  8
LC-003-005-----0
 62
     7
370
    25
100
AcDbLine
 10
54.830299
 20
35.679369
 30
0.0
 11
53.501022
 21
37.008646
 31
0.0
  0
LINE
  5
297
330
269
100
AcDbEntity
  8
LC-003-005-----0
 62
     7
370
    25
100
AcDbLine
 10
70.159883
 20
14.69293
 30
0.0
 11
69.159883
 21
15.69293
 31
0.0
  0
LINE
  5
298
330
269
100
AcDbEntity
  8
LC-003-005-----0
 62
     7
370
    25
100
AcDbLine
 10
62.081917
 20
22.770897
 30
0.0
 11
60.089762
 21
24.763051
 31
0.0
  0
LINE
  5
299
330
269
100
AcDbEntity
  8
LC-003-005-----0
  6
DASHED
 62
     7
370
    25
100
AcDbLine
 10
70.159883
 20
3.379222
 30
0.0
 11
69.159883
 21
4.379222
 31
0.0
  0
LINE
  5
29A
330
269
100
AcDbEntity
  8
LC-003-005-----0
  6
DASHED
 62
     7
370
    25
100
AcDbLine
 10
63.18646
 20
10.352646
 30
0.0
 11
61.106219
 21
12.432886
 31
0.0
  0
LINE
  5
29B
330
269
100
AcDbEntity
  8
LC-003-005-----0
  6
DASHED
 62
     7
370
    25
100
AcDbLine
 10
70.159883
 20
-2.277632
 30
0.0
 11
67.779531
 21
0.10272
 31
0.0
  0
LINE
  5
29C
330
269
100
AcDbEntity
  8
LC-003-005-----0
  6
DASHED
 62
     7
370
    25
100
AcDbLine
 10
57.039385
 20
10.842866
 30
0.0
 11
55.449365
 21
12.432886
 31
0.0
  0
LINE
  5
29D
330
269
100
AcDbEntity
  8
LC-003-005-----0
 62
     7
370
    25
100
AcDbLine
 10
70.159883
 20
-13.591341
 30
0.0
 11
68.781078
 21
-12.212535
 31
0.0
  0
LINE
  5
29E
330
269
100
AcDbEntity
  8
LC-003-005-----0
 62
     7
370
    25
100
AcDbLine
 10
58.143928
 20
-1.575385
 30
0.0
 11
56.465822
 21
0.10272
 31
0.0
  0
LINE
  5
29F
330
269
100
AcDbEntity
  8
LC-003-005-----0
 62
     7
370
    25
100
AcDbLine
 10
70.159883
 20
-19.248195
 30
0.0
 11
69.159883
 21
-18.248195
 31
0.0
  0
LINE
  5
2A0
330
269
100
AcDbEntity
  8
LC-003-005-----0
 62
     7
370
    25
100
AcDbLine
 10
65.395546
 20
-14.483857
 30
0.0
 11
63.139134
 21
-12.227446
 31
0.0
  0
LINE
  5
2A1
330
269
100
AcDbEntity
  8
LC-003-005-----0
  6
DASHED
 62
     7
370
    25
100
AcDbLine
 10
70.159883
 20
-30.561904
 30
0.0
 11
69.159883
 21
-29.561904
 31
0.0
  0
LINE
  5
2A2
330
269
100
AcDbEntity
  8
LC-003-005-----0
  6
DASHED
 62
     7
370
    25
100
AcDbLine
 10
66.500088
 20
-26.902109
 30
0.0
 11
64.155591
 21
-24.557611
 31
0.0
  0
LINE
  5
2A3
330
269
100
AcDbEntity
  8
LC-003-005-----0
  6
DASHED
 62
     7
370
    25
100
AcDbLine
 10
70.159883
 20
-36.218758
 30
0.0
 11
69.159883
 21
-35.218758
 31
0.0
  0
LINE
  5
2A4
330
269
100
AcDbEntity
  8
LC-003-005-----0
  6
DASHED
 62
     7
370
    25
100
AcDbLine
 10
60.353013
 20
-26.411888
 30
0.0
 11
58.498737
 21
-24.557611
 31
0.0
  0
LINE
  5
2A5
330
269
100
AcDbEntity
  8
LC-003-005-----0
 62
     7
370
    25
100
AcDbLine
 10
61.457556
 20
-38.830139
 30
0.0
 11
59.515194
 21
-36.887777
 31
0.0
  0
LINE
  5
2A6
330
269
100
AcDbEntity
  8
LC-003-005-----0
 62
     7
370
    25
100
AcDbLine
 10
55.310481
 20
-38.339919
 30
0.0
 11
53.85834
 21
-36.887777
 31
0.0
  0
ENDBLK
  5
26B
330
269
100
AcDbEntity
  8
0
100
AcDbBlockEnd
  0
BLOCK
  5
2FB
330
2FA
100
AcDbEntity
  8
0
100
AcDbBlockBegin
  2
*X1215
 70
     1
 71
     0
 10
0.0
 20
0.0
 30
0.0
  3
*X1215
  1

  4
*X12
  0
LINE
  5
2FD
330
2FA
100
AcDbEntity
  8
LC-003-005-----0
 62
     7
370
    25
100
AcDbLine
 10
212.010633
 20
183.969165
 30
0.0
 11
210.924592
 21
185.055205
 31
0.0
  0
LINE
  5
2FE
330
2FA
100
AcDbEntity
  8
LC-003-005-----0
  6
DASHED
 62
     7
370
    25
100
AcDbLine
 10
201.723783
 20
182.942306
 30
0.0
 11
199.610884
 21
185.055205
 31
0.0
  0
LINE
  5
2FF
330
2FA
100
AcDbEntity
  8
LC-003-005-----0
  6
DASHED
 62
     7
370
    25
100
AcDbLine
 10
207.904214
 20
171.105021
 30
0.0
 11
206.284195
 21
172.725039
 31
0.0
  0
LINE
  5
300
330
2FA
100
AcDbEntity
  8
LC-003-005-----0
  6
DASHED
 62
     7
370
    25
100
AcDbLine
 10
196.603096
 20
182.406139
 30
0.0
 11
195.159883
 21
183.849351
 31
0.0
  0
LINE
  5
301
330
2FA
100
AcDbEntity
  8
LC-003-005-----0
 62
     7
370
    25
100
AcDbLine
 10
208.845597
 20
158.849929
 30
0.0
 11
207.300653
 21
160.394874
 31
0.0
  0
LINE
  5
302
330
2FA
100
AcDbEntity
  8
LC-003-005-----0
 62
     7
370
    25
100
AcDbLine
 10
197.426119
 20
170.269407
 30
0.0
 11
195.159883
 21
172.535643
 31
0.0
  0
LINE
  5
303
330
2FA
100
AcDbEntity
  8
LC-003-005-----0
 62
     7
370
    25
100
AcDbLine
 10
203.606549
 20
158.432123
 30
0.0
 11
201.643798
 21
160.394874
 31
0.0
  0
LINE
  5
304
330
2FA
100
AcDbEntity
  8
LC-003-005-----0
 62
     7
370
    25
100
AcDbLine
 10
196.159883
 20
165.878789
 30
0.0
 11
195.159883
 21
166.878789
 31
0.0
  0
LINE
  5
305
330
2FA
100
AcDbEntity
  8
LC-003-005-----0
  6
DASHED
 62
     7
370
    25
100
AcDbLine
 10
204.547933
 20
146.177031
 30
0.0
 11
202.660255
 21
148.064708
 31
0.0
  0
LINE
  5
306
330
2FA
100
AcDbEntity
  8
LC-003-005-----0
  6
DASHED
 62
     7
370
    25
100
AcDbLine
 10
196.159883
 20
154.56508
 30
0.0
 11
195.159883
 21
155.56508
 31
0.0
  0
LINE
  5
307
330
2FA
100
AcDbEntity
  8
LC-003-005-----0
  6
DASHED
 62
     7
370
    25
100
AcDbLine
 10
210.728363
 20
134.339746
 30
0.0
 11
209.333567
 21
135.734542
 31
0.0
  0
LINE
  5
308
330
2FA
100
AcDbEntity
  8
LC-003-005-----0
  6
DASHED
 62
     7
370
    25
100
AcDbLine
 10
199.308885
 20
145.759224
 30
0.0
 11
197.003401
 21
148.064708
 31
0.0
  0
LINE
  5
309
330
2FA
100
AcDbEntity
  8
LC-003-005-----0
  6
DASHED
 62
     7
370
    25
100
AcDbLine
 10
196.159883
 20
148.908226
 30
0.0
 11
195.159883
 21
149.908226
 31
0.0
  0
LINE
  5
30A
330
2FA
100
AcDbEntity
  8
LC-003-005-----0
 62
     7
370
    25
100
AcDbLine
 10
211.66066
 20
122.093741
 30
0.0
 11
210.350024
 21
123.404377
 31
0.0
  0
LINE
  5
30B
330
2FA
100
AcDbEntity
  8
LC-003-005-----0
 62
     7
370
    25
100
AcDbLine
 10
200.250268
 20
133.504132
 30
0.0
 11
198.019858
 21
135.734542
 31
0.0
  0
LINE
  5
30C
330
2FA
100
AcDbEntity
  8
LC-003-005-----0
 62
     7
370
    25
100
AcDbLine
 10
196.159883
 20
137.594517
 30
0.0
 11
195.159883
 21
138.594517
 31
0.0
  0
LINE
  5
30D
330
2FA
100
AcDbEntity
  8
LC-003-005-----0
 62
     7
370
    25
100
AcDbLine
 10
206.430699
 20
121.666848
 30
0.0
 11
204.69317
 21
123.404377
 31
0.0
  0
LINE
  5
30E
330
2FA
100
AcDbEntity
  8
LC-003-005-----0
 62
     7
370
    25
100
AcDbLine
 10
196.159883
 20
131.937663
 30
0.0
 11
195.159883
 21
132.937663
 31
0.0
  0
LINE
  5
30F
330
2FA
100
AcDbEntity
  8
LC-003-005-----0
  6
DASHED
 62
     7
370
    25
100
AcDbLine
 10
207.372082
 20
109.411756
 30
0.0
 11
205.709627
 21
111.074211
 31
0.0
  0
LINE
  5
310
330
2FA
100
AcDbEntity
  8
LC-003-005-----0
  6
DASHED
 62
     7
370
    25
100
AcDbLine
 10
196.318596
 20
120.465242
 30
0.0
 11
195.159883
 21
121.623955
 31
0.0
  0
LINE
  5
311
330
2FA
100
AcDbEntity
  8
LC-003-005-----0
  6
DASHED
 62
     7
370
    25
100
AcDbLine
 10
202.133035
 20
108.993949
 30
0.0
 11
200.052773
 21
111.074211
 31
0.0
  0
LINE
  5
312
330
2FA
100
AcDbEntity
  8
LC-003-005-----0
  6
DASHED
 62
     7
370
    25
100
AcDbLine
 10
196.159883
 20
114.9671
 30
0.0
 11
195.159883
 21
115.9671
 31
0.0
  0
LINE
  5
313
330
2FA
100
AcDbEntity
  8
LC-003-005-----0
 62
     7
370
    25
100
AcDbLine
 10
203.074418
 20
96.738858
 30
0.0
 11
201.06923
 21
98.744045
 31
0.0
  0
LINE
  5
314
330
2FA
100
AcDbEntity
  8
LC-003-005-----0
 62
     7
370
    25
100
AcDbLine
 10
196.159883
 20
103.653392
 30
0.0
 11
195.159883
 21
104.653392
 31
0.0
  0
LINE
  5
315
330
2FA
100
AcDbEntity
  8
LC-003-005-----0
 62
     7
370
    25
100
AcDbLine
 10
209.254848
 20
84.901573
 30
0.0
 11
207.742541
 21
86.41388
 31
0.0
  0
LINE
  5
316
330
2FA
100
AcDbEntity
  8
LC-003-005-----0
 62
     7
370
    25
100
AcDbLine
 10
197.83537
 20
96.321051
 30
0.0
 11
195.159883
 21
98.996538
 31
0.0
  0
LINE
  5
317
330
2FA
100
AcDbEntity
  8
LC-003-005-----0
  6
DASHED
 62
     7
370
    25
100
AcDbLine
 10
210.196231
 20
72.646481
 30
0.0
 11
208.758998
 21
74.083714
 31
0.0
  0
LINE
  5
318
330
2FA
100
AcDbEntity
  8
LC-003-005-----0
  6
DASHED
 62
     7
370
    25
100
AcDbLine
 10
198.776753
 20
84.065959
 30
0.0
 11
195.159883
 21
87.682829
 31
0.0
  0
LINE
  5
319
330
2FA
100
AcDbEntity
  8
LC-003-005-----0
  6
DASHED
 62
     7
370
    25
100
AcDbLine
 10
204.957184
 20
72.228674
 30
0.0
 11
203.102144
 21
74.083714
 31
0.0
  0
LINE
  5
31A
330
2FA
100
AcDbEntity
  8
LC-003-005-----0
  6
DASHED
 62
     7
370
    25
100
AcDbLine
 10
196.159883
 20
81.025975
 30
0.0
 11
195.159883
 21
82.025975
 31
0.0
  0
LINE
  5
31B
330
2FA
100
AcDbEntity
  8
LC-003-005-----0
 62
     7
370
    25
100
AcDbLine
 10
205.898567
 20
59.973583
 30
0.0
 11
204.118601
 21
61.753548
 31
0.0
  0
LINE
  5
31C
330
2FA
100
AcDbEntity
  8
LC-003-005-----0
 62
     7
370
    25
100
AcDbLine
 10
196.159883
 20
69.712266
 30
0.0
 11
195.159883
 21
70.712266
 31
0.0
  0
LINE
  5
31D
330
2FA
100
AcDbEntity
  8
LC-003-005-----0
 62
     7
370
    25
100
AcDbLine
 10
211.946427
 20
48.268868
 30
0.0
 11
210.791913
 21
49.423383
 31
0.0
  0
LINE
  5
31E
330
2FA
100
AcDbEntity
  8
LC-003-005-----0
 62
     7
370
    25
100
AcDbLine
 10
200.65952
 20
59.555776
 30
0.0
 11
198.461747
 21
61.753548
 31
0.0
  0
LINE
  5
31F
330
2FA
100
AcDbEntity
  8
LC-003-005-----0
 62
     7
370
    25
100
AcDbLine
 10
196.159883
 20
64.055412
 30
0.0
 11
195.159883
 21
65.055412
 31
0.0
  0
LINE
  5
320
330
2FA
100
AcDbEntity
  8
LC-003-005-----0
  6
DASHED
 62
     7
370
    25
100
AcDbLine
 10
201.600903
 20
47.300684
 30
0.0
 11
199.478204
 21
49.423383
 31
0.0
  0
LINE
  5
321
330
2FA
100
AcDbEntity
  8
LC-003-005-----0
  6
DASHED
 62
     7
370
    25
100
AcDbLine
 10
196.159883
 20
52.741704
 30
0.0
 11
195.159883
 21
53.741704
 31
0.0
  0
LINE
  5
322
330
2FA
100
AcDbEntity
  8
LC-003-005-----0
  6
DASHED
 62
     7
370
    25
100
AcDbLine
 10
207.781334
 20
35.463399
 30
0.0
 11
206.151516
 21
37.093217
 31
0.0
  0
LINE
  5
323
330
2FA
100
AcDbEntity
  8
LC-003-005-----0
  6
DASHED
 62
     7
370
    25
100
AcDbLine
 10
196.526903
 20
46.717829
 30
0.0
 11
195.159883
 21
48.084849
 31
0.0
  0
LINE
  5
324
330
2FA
100
AcDbEntity
  8
LC-003-005-----0
 62
     7
370
    25
100
AcDbLine
 10
208.722717
 20
23.208308
 30
0.0
 11
207.167973
 21
24.763051
 31
0.0
  0
LINE
  5
325
330
2FA
100
AcDbEntity
  8
LC-003-005-----0
 62
     7
370
    25
100
AcDbLine
 10
197.303239
 20
34.627786
 30
0.0
 11
195.159883
 21
36.771141
 31
0.0
  0
LINE
  5
326
330
2FA
100
AcDbEntity
  8
LC-003-005-----0
 62
     7
370
    25
100
AcDbLine
 10
203.483669
 20
22.790501
 30
0.0
 11
201.511119
 21
24.763051
 31
0.0
  0
LINE
  5
327
330
2FA
100
AcDbEntity
  8
LC-003-005-----0
 62
     7
370
    25
100
AcDbLine
 10
196.159883
 20
30.114287
 30
0.0
 11
195.159883
 21
31.114287
 31
0.0
  0
LINE
  5
328
330
2FA
100
AcDbEntity
  8
LC-003-005-----0
  6
DASHED
 62
     7
370
    25
100
AcDbLine
 10
204.425052
 20
10.535409
 30
0.0
 11
202.527576
 21
12.432886
 31
0.0
  0
LINE
  5
329
330
2FA
100
AcDbEntity
  8
LC-003-005-----0
  6
DASHED
 62
     7
370
    25
100
AcDbLine
 10
196.159883
 20
18.800578
 30
0.0
 11
195.159883
 21
19.800578
 31
0.0
  0
LINE
  5
32A
330
2FA
100
AcDbEntity
  8
LC-003-005-----0
  6
DASHED
 62
     7
370
    25
100
AcDbLine
 10
210.605483
 20
-1.301876
 30
0.0
 11
209.200887
 21
0.10272
 31
0.0
  0
LINE
  5
32B
330
2FA
100
AcDbEntity
  8
LC-003-005-----0
  6
DASHED
 62
     7
370
    25
100
AcDbLine
 10
199.186005
 20
10.117602
 30
0.0
 11
196.870721
 21
12.432886
 31
0.0
  0
LINE
  5
32C
330
2FA
100
AcDbEntity
  8
LC-003-005-----0
  6
DASHED
 62
     7
370
    25
100
AcDbLine
 10
196.159883
 20
13.143724
 30
0.0
 11
195.159883
 21
14.143724
 31
0.0
  0
LINE
  5
32D
330
2FA
100
AcDbEntity
  8
LC-003-005-----0
 62
     7
370
    25
100
AcDbLine
 10
211.546866
 20
-13.556967
 30
0.0
 11
210.217344
 21
-12.227446
 31
0.0
  0
LINE
  5
32E
330
2FA
100
AcDbEntity
  8
LC-003-005-----0
 62
     7
370
    25
100
AcDbLine
 10
200.127388
 20
-2.137489
 30
0.0
 11
197.887179
 21
0.10272
 31
0.0
  0
LINE
  5
32F
330
2FA
100
AcDbEntity
  8
LC-003-005-----0
 62
     7
370
    25
100
AcDbLine
 10
196.159883
 20
1.830015
 30
0.0
 11
195.159883
 21
2.830015
 31
0.0
  0
LINE
  5
330
330
2FA
100
AcDbEntity
  8
LC-003-005-----0
 62
     7
370
    25
100
AcDbLine
 10
206.307819
 20
-13.974774
 30
0.0
 11
204.56049
 21
-12.227446
 31
0.0
  0
LINE
  5
331
330
2FA
100
AcDbEntity
  8
LC-003-005-----0
 62
     7
370
    25
100
AcDbLine
 10
196.159883
 20
-3.826839
 30
0.0
 11
195.159883
 21
-2.826839
 31
0.0
  0
LINE
  5
332
330
2FA
100
AcDbEntity
  8
LC-003-005-----0
  6
DASHED
 62
     7
370
    25
100
AcDbLine
 10
207.249202
 20
-26.229866
 30
0.0
 11
205.576947
 21
-24.557611
 31
0.0
  0
LINE
  5
333
330
2FA
100
AcDbEntity
  8
LC-003-005-----0
  6
DASHED
 62
     7
370
    25
100
AcDbLine
 10
196.270107
 20
-15.250771
 30
0.0
 11
195.159883
 21
-14.140547
 31
0.0
  0
LINE
  5
334
330
2FA
100
AcDbEntity
  8
LC-003-005-----0
  6
DASHED
 62
     7
370
    25
100
AcDbLine
 10
202.010154
 20
-26.647673
 30
0.0
 11
199.920093
 21
-24.557611
 31
0.0
  0
LINE
  5
335
330
2FA
100
AcDbEntity
  8
LC-003-005-----0
  6
DASHED
 62
     7
370
    25
100
AcDbLine
 10
196.159883
 20
-20.797402
 30
0.0
 11
195.159883
 21
-19.797402
 31
0.0
  0
LINE
  5
336
330
2FA
100
AcDbEntity
  8
LC-003-005-----0
 62
     7
370
    25
100
AcDbLine
 10
202.951538
 20
-38.902764
 30
0.0
 11
200.93655
 21
-36.887777
 31
0.0
  0
LINE
  5
337
330
2FA
100
AcDbEntity
  8
LC-003-005-----0
 62
     7
370
    25
100
AcDbLine
 10
196.159883
 20
-32.11111
 30
0.0
 11
195.159883
 21
-31.11111
 31
0.0
  0
LINE
  5
338
330
2FA
100
AcDbEntity
  8
LC-003-005-----0
 62
     7
370
    25
100
AcDbLine
 10
197.71249
 20
-39.320571
 30
0.0
 11
195.159883
 21
-36.767964
 31
0.0
  0
ENDBLK
  5
2FC
330
2FA
100
AcDbEntity
  8
0
100
AcDbBlockEnd
  0
BLOCK
  5
3DC
330
3D2
100
AcDbEntity
  8
0
100
AcDbBlockBegin
  2
*D16
 70
     1
 71
     0
 10
0.0
 20
0.0
 30
0.0
  3
*D16
  1

  0
LINE
  5
3D3
330
3D2
100
AcDbEntity
  8
LC-005-003-----0
 62
     2
370
    -2
100
AcDbLine
 10
70.161582
 20
-45.943563
 30
0.0
 11
70.161582
 21
-100.185968
 31
0.0
  0
LINE
  5
3D4
330
3D2
100
AcDbEntity
  8
LC-005-003-----0
 62
     2
370
    -2
100
AcDbLine
 10
195.161582
 20
-45.946322
 30
0.0
 11
195.161582
 21
-100.185968
 31
0.0
  0
LINE
  5
3D5
330
3D2
100
AcDbEntity
  8
LC-005-003-----0
 62
     2
370
    -2
100
AcDbLine
 10
98.161582
 20
-96.585968
 30
0.0
 11
167.161582
 21
-96.585968
 31
0.0
  0
SOLID
  5
3D6
330
3D2
100
AcDbEntity
  8
LC-005-003-----0
 62
     2
100
AcDbTrace
 10
98.161582
 20
-91.919301
 30
0.0
 11
98.161582
 21
-101.252634
 31
0.0
 12
70.161582
 22
-96.585968
 32
0.0
 13
70.161582
 23
-96.585968
 33
0.0
  0
SOLID
  5
3D7
330
3D2
100
AcDbEntity
  8
LC-005-003-----0
 62
     2
100
AcDbTrace
 10
167.161582
 20
-101.252634
 30
0.0
 11
167.161582
 21
-91.919301
 31
0.0
 12
195.161582
 22
-96.585968
 32
0.0
 13
195.161582
 23
-96.585968
 33
0.0
  0
MTEXT
  5
3D8
330
3D2
100
AcDbEntity
  8
LC-005-003-----0
 62
     2
100
AcDbMText
 10
132.661582
 20
-65.785968
 30
0.0
 40
28.0
 41
0.0
 71
     5
 72
     1
  1
%%c\A1;125
  7
LCTX15-400-0-0pDIN-Schrift
 73
     1
 44
1.0
  0
POINT
  5
3D9
330
3D2
100
AcDbEntity
  8
Defpoints
 62
     0
100
AcDbPoint
 10
70.161582
 20
-45.943563
 30
0.0
  0
POINT
  5
3DA
330
3D2
100
AcDbEntity
  8
Defpoints
 62
     0
100
AcDbPoint
 10
195.161582
 20
-45.946322
 30
0.0
  0
POINT
  5
3DB
330
3D2
100
AcDbEntity
  8
Defpoints
 62
     0
100
AcDbPoint
 10
195.161582
 20
-96.585968
 30
0.0
  0
ENDBLK
  5
3DD
330
3D2
100
AcDbEntity
  8
0
100
AcDbBlockEnd
  0
BLOCK
  5
3E9
330
3DF
100
AcDbEntity
  8
0
100
AcDbBlockBegin
  2
*D17
 70
     1
 71
     0
 10
0.0
 20
0.0
 30
0.0
  3
*D17
  1

  0
LINE
  5
3E0
330
3DF
100
AcDbEntity
  8
LC-005-003-----0
 62
     2
370
    -2
100
AcDbLine
 10
53.160796
 20
-37.518844
 30
0.0
 11
53.160796
 21
-139.385968
 31
0.0
  0
LINE
  5
3E1
330
3DF
100
AcDbEntity
  8
LC-005-003-----0
 62
     2
370
    -2
100
AcDbLine
 10
212.159883
 20
-37.553696
 30
0.0
 11
212.159883
 21
-139.385968
 31
0.0
  0
LINE
  5
3E2
330
3DF
100
AcDbEntity
  8
LC-005-003-----0
 62
     2
370
    -2
100
AcDbLine
 10
81.160796
 20
-135.785968
 30
0.0
 11
184.159883
 21
-135.785968
 31
0.0
  0
SOLID
  5
3E3
330
3DF
100
AcDbEntity
  8
LC-005-003-----0
 62
     2
100
AcDbTrace
 10
81.160796
 20
-131.119301
 30
0.0
 11
81.160796
 21
-140.452634
 31
0.0
 12
53.160796
 22
-135.785968
 32
0.0
 13
53.160796
 23
-135.785968
 33
0.0
  0
SOLID
  5
3E4
330
3DF
100
AcDbEntity
  8
LC-005-003-----0
 62
     2
100
AcDbTrace
 10
184.159883
 20
-140.452634
 30
0.0
 11
184.159883
 21
-131.119301
 31
0.0
 12
212.159883
 22
-135.785968
 32
0.0
 13
212.159883
 23
-135.785968
 33
0.0
  0
MTEXT
  5
3E5
330
3DF
100
AcDbEntity
  8
LC-005-003-----0
 62
     2
100
AcDbMText
 10
132.66034
 20
-104.985968
 30
0.0
 40
28.0
 41
0.0
 71
     5
 72
     1
  1
\A1;%%c159
  7
LCTX15-400-0-0pDIN-Schrift
 73
     1
 44
1.0
  0
POINT
  5
3E6
330
3DF
100
AcDbEntity
  8
Defpoints
 62
     0
100
AcDbPoint
 10
53.160796
 20
-37.518844
 30
0.0
  0
POINT
  5
3E7
330
3DF
100
AcDbEntity
  8
Defpoints
 62
     0
100
AcDbPoint
 10
212.159883
 20
-37.553696
 30
0.0
  0
POINT
  5
3E8
330
3DF
100
AcDbEntity
  8
Defpoints
 62
     0
100
AcDbPoint
 10
212.159883
 20
-135.785968
 30
0.0
  0
ENDBLK
  5
3EA
330
3DF
100
AcDbEntity
  8
0
100
AcDbBlockEnd
  0
BLOCK
  5
40E
330
404
100
AcDbEntity
  8
0
100
AcDbBlockBegin
  2
*D18
 70
     1
 71
     0
 10
0.0
 20
0.0
 30
0.0
  3
*D18
  1

  0
LINE
  5
405
330
404
100
AcDbEntity
  8
LC-005-003-----0
 62
     2
370
    -2
100
AcDbLine
 10
62.668119
 20
250.105395
 30
0.0
 11
62.666948
 21
196.491463
 31
0.0
  0
LINE
  5
406
330
404
100
AcDbEntity
  8
LC-005-003-----0
 62
     2
370
    -2
100
AcDbLine
 10
202.668119
 20
250.102304
 30
0.0
 11
202.666948
 21
196.488405
 31
0.0
  0
LINE
  5
407
330
404
100
AcDbEntity
  8
LC-005-003-----0
 62
     2
370
    -2
100
AcDbLine
 10
90.667027
 20
200.090851
 30
0.0
 11
174.667027
 21
200.089017
 31
0.0
  0
SOLID
  5
408
330
404
100
AcDbEntity
  8
LC-005-003-----0
 62
     2
100
AcDbTrace
 10
90.667129
 20
204.757518
 30
0.0
 11
90.666925
 21
195.424184
 31
0.0
 12
62.667027
 22
200.091463
 32
0.0
 13
62.667027
 23
200.091463
 33
0.0
  0
SOLID
  5
409
330
404
100
AcDbEntity
  8
LC-005-003-----0
 62
     2
100
AcDbTrace
 10
174.666925
 20
195.42235
 30
0.0
 11
174.667129
 21
204.755683
 31
0.0
 12
202.667027
 22
200.088405
 32
0.0
 13
202.667027
 23
200.088405
 33
0.0
  0
MTEXT
  5
40A
330
404
100
AcDbEntity
  8
LC-005-003-----0
 62
     2
100
AcDbMText
 10
125.192142
 20
230.890097
 30
0.0
 40
28.0
 41
0.0
 71
     5
 72
     1
  1
%%c\A1;140
  7
LCTX15-400-0-0pDIN-Schrift
 11
0.9999999997615526
 21
-2.183792093674830E-5
 31
0.0
 73
     1
 44
1.0
  0
POINT
  5
40B
330
404
100
AcDbEntity
  8
Defpoints
 62
     0
100
AcDbPoint
 10
62.668119
 20
250.105395
 30
0.0
  0
POINT
  5
40C
330
404
100
AcDbEntity
  8
Defpoints
 62
     0
100
AcDbPoint
 10
202.668119
 20
250.102304
 30
0.0
  0
POINT
  5
40D
330
404
100
AcDbEntity
  8
Defpoints
 62
     0
100
AcDbPoint
 10
202.667027
 20
200.088405
 30
0.0
  0
ENDBLK
  5
40F
330
404
100
AcDbEntity
  8
0
100
AcDbBlockEnd
  0
ENDSEC
  0
SECTION
  2
ENTITIES
  0
LINE
  5
32
330
1F
100
AcDbEntity
  8
LC-001-002-----0
 62
     7
370
    25
100
AcDbLine
 10
132.661472
 20
-50.944962
 30
0.0
 11
132.661472
 21
194.489934
 31
0.0
  0
LINE
  5
33
330
1F
100
AcDbEntity
  8
LC-001-002-----0
 62
     7
370
    25
100
AcDbLine
 10
132.661472
 20
244.889934
 30
0.0
 11
132.661472
 21
372.14077
 31
0.0
  0
LINE
  5
34
330
1F
100
AcDbEntity
  8
LC-001-002-----0
  6
ByBlock
 62
     7
370
    50
100
AcDbLine
 10
35.914683
 20
271.55508
 30
0.0
 11
41.414683
 21
271.55508
 31
0.0
  0
LINE
  5
35
330
1F
100
AcDbEntity
  8
LC-001-002-----0
  6
ByBlock
 62
     7
370
    50
100
AcDbLine
 10
223.922502
 20
271.55508
 30
0.0
 11
229.422502
 21
271.55508
 31
0.0
  0
LINE
  5
36
330
1F
100
AcDbEntity
  8
LC-001-002-----0
  6
ByBlock
 62
     7
370
    50
100
AcDbLine
 10
32.662883
 20
267.796239
 30
0.0
 11
32.662883
 21
281.299772
 31
0.0
  0
LINE
  5
37
330
1F
100
AcDbEntity
  8
LC-001-002-----0
  6
ByBlock
 62
     7
370
    25
100
AcDbLine
 10
38.678955
 20
259.296271
 30
0.0
 11
41.664524
 21
262.281839
 31
0.0
  0
LINE
  5
38
330
1F
100
AcDbEntity
  8
LC-001-002-----0
  6
ByBlock
 62
     7
370
    50
100
AcDbLine
 10
215.168897
 20
285.297485
 30
0.0
 11
223.521899
 21
285.297124
 31
0.0
  0
LINE
  5
39
330
1F
100
AcDbEntity
  8
LC-001-002-----0
  6
ByBlock
 62
     7
370
    50
100
AcDbLine
 10
236.354006
 20
285.297017
 30
0.0
 11
229.821899
 21
285.297299
 31
0.0
  0
LINE
  5
3A
330
1F
100
AcDbEntity
  8
LC-001-002-----0
  6
ByBlock
 62
     7
370
    50
100
AcDbLine
 10
232.660062
 20
267.796239
 30
0.0
 11
232.660062
 21
281.294611
 31
0.0
  0
LINE
  5
3B
330
1F
100
AcDbEntity
  8
LC-001-002-----0
  6
ByBlock
 62
     7
370
    25
100
AcDbLine
 10
225.355151
 20
259.296276
 30
0.0
 11
229.658426
 21
263.599552
 31
0.0
  0
LINE
  5
3C
330
1F
100
AcDbEntity
  8
LC-001-002-----0
  6
ByBlock
 62
     7
370
    25
100
AcDbLine
 10
228.183566
 20
259.296264
 30
0.0
 11
229.658414
 21
260.771112
 31
0.0
  0
LINE
  5
3D
102
{ACAD_REACTORS
330
582
102
}
330
1F
100
AcDbEntity
  8
LC-001-002-----0
  6
ByBlock
 62
     7
370
    50
100
AcDbLine
 10
135.96689
 20
357.340765
 30
0.0
 11
135.96689
 21
372.140765
 31
0.0
  0
LINE
  5
3E
102
{ACAD_REACTORS
330
582
102
}
330
1F
100
AcDbEntity
  8
LC-001-002-----0
  6
ByBlock
 62
     7
370
    50
100
AcDbLine
 10
168.902453
 20
297.140705
 30
0.0
 11
161.518828
 21
331.778387
 31
0.0
  0
LINE
  5
3F
102
{ACAD_REACTORS
330
582
102
}
330
1F
100
AcDbEntity
  8
LC-001-002-----0
  6
ByBlock
 62
     7
370
    50
100
AcDbLine
 10
149.794714
 20
297.140705
 30
0.0
 11
145.972669
 21
331.778387
 31
0.0
  0
LINE
  5
40
102
{ACAD_REACTORS
330
582
102
}
330
1F
100
AcDbEntity
  8
LC-001-002-----0
  6
ByBlock
 62
     7
370
    50
100
AcDbLine
 10
201.047566
 20
297.140705
 30
0.0
 11
186.783491
 21
331.778387
 31
0.0
  0
ARC
  5
42
102
{ACAD_REACTORS
330
582
102
}
330
1F
100
AcDbEntity
  8
LC-002-002-RND-0
 62
     7
370
    50
100
AcDbCircle
 10
181.110162
 20
357.140704
 30
0.0
 40
15.00000000000005
100
AcDbArc
 50
20.0
 51
89.999921
  0
LINE
  5
43
102
{ACAD_REACTORS
330
582
102
}
330
1F
100
AcDbEntity
  8
LC-001-002-----0
  6
ByBlock
 62
     7
370
    50
100
AcDbLine
 10
158.533116
 20
336.440705
 30
0.0
 11
154.07791
 21
357.340741
 31
0.0
  0
LINE
  5
44
102
{ACAD_REACTORS
330
582
102
}
330
1F
100
AcDbEntity
  8
LC-001-002-----0
  6
ByBlock
 62
     7
370
    50
100
AcDbLine
 10
190.554126
 20
331.778387
 30
0.0
 11
132.661474
 21
331.778387
 31
0.0
  0
LINE
  5
45
102
{ACAD_REACTORS
330
582
102
}
330
1F
100
AcDbEntity
  8
LC-001-002-----0
  6
ByBlock
 62
     7
370
    50
100
AcDbLine
 10
212.012967
 20
316.093011
 30
0.0
 11
195.205551
 21
362.271006
 31
0.0
  0
LINE
  5
46
102
{ACAD_REACTORS
330
582
102
}
330
1F
100
AcDbEntity
  8
LC-001-002-----0
  6
ByBlock
 62
     7
370
    50
100
AcDbLine
 10
181.110182
 20
372.140704
 30
0.0
 11
131.536513
 21
372.140772
 31
0.0
  0
LINE
  5
47
102
{ACAD_REACTORS
330
582
102
}
330
1F
100
AcDbEntity
  8
LC-001-002-----0
  6
ByBlock
 62
     7
370
    50
100
AcDbLine
 10
200.452282
 20
297.140705
 30
0.0
 11
186.188208
 21
331.778387
 31
0.0
  0
LINE
  5
48
102
{ACAD_REACTORS
330
582
102
}
330
1F
100
AcDbEntity
  8
LC-001-002-----0
  6
ByBlock
 62
     7
370
    50
100
AcDbLine
 10
203.161211
 20
297.140705
 30
0.0
 11
175.863441
 21
372.140711
 31
0.0
  0
LINE
  5
49
102
{ACAD_REACTORS
330
582
102
}
330
1F
100
AcDbEntity
  8
LC-001-002-----0
  6
ByBlock
 62
     7
370
    50
100
AcDbLine
 10
175.148445
 20
368.055578
 30
0.0
 11
173.661577
 21
372.140714
 31
0.0
  0
LINE
  5
4A
102
{ACAD_REACTORS
330
582
102
}
330
1F
100
AcDbEntity
  8
LC-001-002-----0
  6
ByBlock
 62
     7
370
    50
100
AcDbLine
 10
177.50131
 20
367.640705
 30
0.0
 11
175.148445
 21
368.055578
 31
0.0
  0
LINE
  5
4B
102
{ACAD_REACTORS
330
582
102
}
330
1F
100
AcDbEntity
  8
LC-001-002-----0
  6
ByBlock
 62
     7
370
    50
100
AcDbLine
 10
183.318782
 20
297.140705
 30
0.0
 11
172.876757
 21
331.778387
 31
0.0
  0
LINE
  5
4C
102
{ACAD_REACTORS
330
582
102
}
330
1F
100
AcDbEntity
  8
LC-001-002-----0
  6
ByBlock
 62
     7
370
    50
100
AcDbLine
 10
194.282881
 20
297.140705
 30
0.0
 11
181.494063
 21
331.778387
 31
0.0
  0
LINE
  5
4D
102
{ACAD_REACTORS
330
582
102
}
330
1F
100
AcDbEntity
  8
LC-001-002-----0
  6
ByBlock
 62
     7
370
    50
100
AcDbLine
 10
146.461462
 20
288.440703
 30
0.0
 11
146.461451
 21
280.440705
 31
0.0
  0
INSERT
  5
5E
102
{ACAD_REACTORS
330
582
102
}
330
1F
100
AcDbEntity
  8
LC-003-005-----0
 62
     7
370
    25
100
AcDbBlockReference
  2
*X11
 10
0.0
 20
0.0
 30
0.0
  0
LINE
  5
5F
102
{ACAD_REACTORS
330
582
102
}
330
1F
100
AcDbEntity
  8
LC-001-002-----0
  6
ByBlock
 62
     7
370
    50
100
AcDbLine
 10
206.561211
 20
297.140705
 30
0.0
 11
206.561175
 21
270.640705
 31
0.0
  0
LINE
  5
60
102
{ACAD_REACTORS
330
582
102
}
330
1F
100
AcDbEntity
  8
LC-001-002-----0
  6
ByBlock
 62
     7
370
    50
100
AcDbLine
 10
178.622657
 20
336.440705
 30
0.0
 11
170.906019
 21
357.340718
 31
0.0
  0
ARC
  5
61
102
{ACAD_REACTORS
330
582
102
}
330
1F
100
AcDbEntity
  8
LC-002-002-RND-0
 62
     7
370
    50
100
AcDbCircle
 10
145.461462
 20
288.440705
 30
0.0
 40
1.000000000000031
100
AcDbArc
 50
359.999921
 51
90.0
  0
LINE
  5
62
102
{ACAD_REACTORS
330
582
102
}
330
1F
100
AcDbEntity
  8
LC-001-002-----0
  6
ByBlock
 62
     7
370
    50
100
AcDbLine
 10
184.863512
 20
336.440705
 30
0.0
 11
176.256723
 21
357.34071
 31
0.0
  0
LINE
  5
63
102
{ACAD_REACTORS
330
582
102
}
330
1F
100
AcDbEntity
  8
LC-001-002-----0
  6
ByBlock
 62
     7
370
    50
100
AcDbLine
 10
215.054475
 20
297.140705
 30
0.0
 11
218.247042
 21
298.965029
 31
0.0
  0
ARC
  5
64
102
{ACAD_REACTORS
330
582
102
}
330
1F
100
AcDbEntity
  8
LC-002-002-RND-0
 62
     7
370
    50
100
AcDbCircle
 10
145.461462
 20
288.440705
 30
0.0
 40
1.0
100
AcDbArc
 50
90.0
 51
179.999921
  0
LINE
  5
65
102
{ACAD_REACTORS
330
582
102
}
330
1F
100
AcDbEntity
  8
LC-001-002-----0
  6
ByBlock
 62
     7
370
    50
100
AcDbLine
 10
181.692436
 20
297.140705
 30
0.0
 11
171.232186
 21
331.778387
 31
0.0
  0
LINE
  5
66
102
{ACAD_REACTORS
330
582
102
}
330
1F
100
AcDbEntity
  8
LC-001-002-----0
  6
ByBlock
 62
     7
370
    50
100
AcDbLine
 10
145.461462
 20
289.440705
 30
0.0
 11
145.310546
 21
289.440705
 31
0.0
  0
LINE
  5
67
102
{ACAD_REACTORS
330
582
102
}
330
1F
100
AcDbEntity
  8
LC-001-002-----0
  6
ByBlock
 62
     7
370
    50
100
AcDbLine
 10
179.772657
 20
336.440705
 30
0.0
 11
172.056019
 21
357.340716
 31
0.0
  0
LINE
  5
68
102
{ACAD_REACTORS
330
582
102
}
330
1F
100
AcDbEntity
  8
LC-001-002-----0
  6
ByBlock
 62
     7
370
    50
100
AcDbLine
 10
181.250203
 20
357.340703
 30
0.0
 11
132.661474
 21
357.34077
 31
0.0
  0
LINE
  5
69
102
{ACAD_REACTORS
330
582
102
}
330
1F
100
AcDbEntity
  8
LC-001-002-----0
  6
ByBlock
 62
     7
370
    50
100
AcDbLine
 10
145.458213
 20
336.440705
 30
0.0
 11
143.152027
 21
357.340756
 31
0.0
  0
LINE
  5
6A
102
{ACAD_REACTORS
330
582
102
}
330
1F
100
AcDbEntity
  8
LC-001-002-----0
  6
ByBlock
 62
     7
370
    50
100
AcDbLine
 10
152.016343
 20
297.140705
 30
0.0
 11
148.194299
 21
331.778387
 31
0.0
  0
LINE
  5
6B
102
{ACAD_REACTORS
330
582
102
}
330
1F
100
AcDbEntity
  8
LC-001-002-----0
  6
ByBlock
 62
     7
370
    50
100
AcDbLine
 10
184.268228
 20
336.440705
 30
0.0
 11
175.661439
 21
357.340711
 31
0.0
  0
LINE
  5
6C
102
{ACAD_REACTORS
330
582
102
}
330
1F
100
AcDbEntity
  8
LC-001-002-----0
  6
ByBlock
 62
     7
370
    50
100
AcDbLine
 10
133.811213
 20
331.778387
 30
0.0
 11
133.811213
 21
297.140705
 31
0.0
  0
LINE
  5
6D
102
{ACAD_REACTORS
330
582
102
}
330
1F
100
AcDbEntity
  8
LC-001-002-----0
  6
ByBlock
 62
     7
370
    50
100
AcDbLine
 10
193.132881
 20
297.140705
 30
0.0
 11
180.344064
 21
331.778387
 31
0.0
  0
LINE
  5
6E
102
{ACAD_REACTORS
330
582
102
}
330
1F
100
AcDbEntity
  8
LC-001-002-----0
  6
ByBlock
 62
     7
370
    50
100
AcDbLine
 10
203.6612
 20
289.440705
 30
0.0
 11
203.1612
 21
289.440705
 31
0.0
  0
LINE
  5
6F
102
{ACAD_REACTORS
330
582
102
}
330
1F
100
AcDbEntity
  8
LC-001-002-----0
  6
ByBlock
 62
     7
370
    50
100
AcDbLine
 10
144.461462
 20
288.440706
 30
0.0
 11
144.461434
 21
268.140705
 31
0.0
  0
LINE
  5
70
102
{ACAD_REACTORS
330
582
102
}
330
1F
100
AcDbEntity
  8
LC-001-002-----0
  6
ByBlock
 62
     7
370
    50
100
AcDbLine
 10
133.811213
 20
357.340768
 30
0.0
 11
133.811213
 21
336.440705
 31
0.0
  0
ARC
  5
71
102
{ACAD_REACTORS
330
582
102
}
330
1F
100
AcDbEntity
  8
LC-002-002-RND-0
 62
     7
370
    50
100
AcDbCircle
 10
207.061173
 20
269.140705
 30
0.0
 40
1.000000000000031
100
AcDbArc
 50
359.999921
 51
90.0
  0
LINE
  5
72
102
{ACAD_REACTORS
330
582
102
}
330
1F
100
AcDbEntity
  8
LC-001-002-----0
  6
ByBlock
 62
     7
370
    50
100
AcDbLine
 10
188.857181
 20
336.440705
 30
0.0
 11
188.857181
 21
332.077604
 31
0.0
  0
ARC
  5
73
102
{ACAD_REACTORS
330
582
102
}
330
1F
100
AcDbEntity
  8
LC-002-002-RND-0
 62
     7
370
    50
100
AcDbCircle
 10
207.061173
 20
269.140705
 30
0.0
 40
1.0
100
AcDbArc
 50
270.0
 51
359.999921
  0
LINE
  5
74
102
{ACAD_REACTORS
330
582
102
}
330
1F
100
AcDbEntity
  8
LC-001-002-----0
  6
ByBlock
 62
     7
370
    50
100
AcDbLine
 10
207.161173
 20
268.140705
 30
0.0
 11
203.661171
 21
268.140705
 31
0.0
  0
LINE
  5
75
102
{ACAD_REACTORS
330
582
102
}
330
1F
100
AcDbEntity
  8
LC-001-002-----0
  6
ByBlock
 62
     7
370
    50
100
AcDbLine
 10
210.561188
 20
280.440705
 30
0.0
 11
206.561188
 21
280.440705
 31
0.0
  0
ARC
  5
76
102
{ACAD_REACTORS
330
582
102
}
330
1F
100
AcDbEntity
  8
LC-002-002-RND-0
 62
     7
370
    50
100
AcDbCircle
 10
207.061175
 20
270.640705
 30
0.0
 40
0.5000000000000155
100
AcDbArc
 50
179.999921
 51
270.0
  0
LINE
  5
77
102
{ACAD_REACTORS
330
582
102
}
330
1F
100
AcDbEntity
  8
LC-001-002-----0
  6
ByBlock
 62
     7
370
    50
100
AcDbLine
 10
169.82421
 20
336.440705
 30
0.0
 11
163.512602
 21
357.340728
 31
0.0
  0
LINE
  5
78
102
{ACAD_REACTORS
330
582
102
}
330
1F
100
AcDbEntity
  8
LC-001-002-----0
  6
ByBlock
 62
     7
370
    50
100
AcDbLine
 10
190.554126
 20
331.778387
 30
0.0
 11
188.857181
 21
332.077604
 31
0.0
  0
ARC
  5
79
102
{ACAD_REACTORS
330
582
102
}
330
1F
100
AcDbEntity
  8
LC-002-002-RND-0
 62
     7
370
    50
100
AcDbCircle
 10
210.561188
 20
280.940705
 30
0.0
 40
0.5
100
AcDbArc
 50
270.0
 51
359.999921
  0
LINE
  5
7A
102
{ACAD_REACTORS
330
582
102
}
330
1F
100
AcDbEntity
  8
LC-001-002-----0
  6
ByBlock
 62
     7
370
    50
100
AcDbLine
 10
171.471235
 20
336.440705
 30
0.0
 11
165.170625
 21
357.340725
 31
0.0
  0
LINE
  5
7B
102
{ACAD_REACTORS
330
582
102
}
330
1F
100
AcDbEntity
  8
LC-001-002-----0
  6
ByBlock
 62
     7
370
    50
100
AcDbLine
 10
203.6612
 20
289.440705
 30
0.0
 11
203.661171
 21
268.140705
 31
0.0
  0
LINE
  5
7C
102
{ACAD_REACTORS
330
582
102
}
330
1F
100
AcDbEntity
  8
LC-001-002-----0
  6
ByBlock
 62
     7
370
    50
100
AcDbLine
 10
203.661188
 20
280.440705
 30
0.0
 11
146.461451
 21
280.440705
 31
0.0
  0
LINE
  5
7D
102
{ACAD_REACTORS
330
582
102
}
330
1F
100
AcDbEntity
  8
LC-001-002-----0
  6
ByBlock
 62
     7
370
    50
100
AcDbLine
 10
211.06121
 20
297.140705
 30
0.0
 11
211.061188
 21
280.940704
 31
0.0
  0
LINE
  5
7E
102
{ACAD_REACTORS
330
582
102
}
330
1F
100
AcDbEntity
  8
LC-001-002-----0
  6
ByBlock
 62
     7
370
    50
100
AcDbLine
 10
147.679842
 20
336.440705
 30
0.0
 11
145.373657
 21
357.340753
 31
0.0
  0
INSERT
  5
88
102
{ACAD_REACTORS
330
582
102
}
330
1F
100
AcDbEntity
  8
LC-003-005-----0
 62
     7
370
    25
100
AcDbBlockReference
  2
*X22
 10
0.0
 20
0.0
 30
0.0
  0
LINE
  5
89
102
{ACAD_REACTORS
330
582
102
}
330
1F
100
AcDbEntity
  8
LC-001-002-----0
  6
ByBlock
 62
     7
370
    50
100
AcDbLine
 10
160.524974
 20
336.440705
 30
0.0
 11
156.069768
 21
357.340738
 31
0.0
  0
LINE
  5
8A
102
{ACAD_REACTORS
330
582
102
}
330
1F
100
AcDbEntity
  8
LC-001-002-----0
  6
ByBlock
 62
     7
370
    50
100
AcDbLine
 10
166.910594
 20
297.140705
 30
0.0
 11
159.52697
 21
331.778387
 31
0.0
  0
LINE
  5
8B
102
{ACAD_REACTORS
330
582
102
}
330
1F
100
AcDbEntity
  8
LC-001-002-----0
  6
ByBlock
 62
     7
370
    50
100
AcDbLine
 10
188.857181
 20
336.440705
 30
0.0
 11
132.661474
 21
336.440705
 31
0.0
  0
LINE
  5
8C
102
{ACAD_REACTORS
330
582
102
}
330
1F
100
AcDbEntity
  8
LC-001-002-----0
  6
ByBlock
 62
     7
370
    50
100
AcDbLine
 10
203.161211
 20
297.140705
 30
0.0
 11
203.1612
 21
289.440705
 31
0.0
  0
LINE
  5
8D
102
{ACAD_REACTORS
330
582
102
}
330
1F
100
AcDbEntity
  8
LC-001-002-----0
  6
ByBlock
 62
     7
370
    50
100
AcDbLine
 10
218.247042
 20
298.965029
 30
0.0
 11
212.012967
 21
316.093011
 31
0.0
  0
LINE
  5
8E
102
{ACAD_REACTORS
330
582
102
}
330
1F
100
AcDbEntity
  8
LC-001-002-----0
  6
ByBlock
 62
     7
370
    50
100
AcDbLine
 10
129.356058
 20
357.340765
 30
0.0
 11
129.356058
 21
372.140765
 31
0.0
  0
LINE
  5
8F
102
{ACAD_REACTORS
330
582
102
}
330
1F
100
AcDbEntity
  8
LC-001-002-----0
  6
ByBlock
 62
     7
370
    50
100
AcDbLine
 10
96.420496
 20
297.140705
 30
0.0
 11
103.80412
 21
331.778387
 31
0.0
  0
LINE
  5
90
102
{ACAD_REACTORS
330
582
102
}
330
1F
100
AcDbEntity
  8
LC-001-002-----0
  6
ByBlock
 62
     7
370
    50
100
AcDbLine
 10
115.528235
 20
297.140705
 30
0.0
 11
119.350279
 21
331.778387
 31
0.0
  0
LINE
  5
91
102
{ACAD_REACTORS
330
582
102
}
330
1F
100
AcDbEntity
  8
LC-001-002-----0
  6
ByBlock
 62
     7
370
    50
100
AcDbLine
 10
64.275383
 20
297.140705
 30
0.0
 11
78.539457
 21
331.778387
 31
0.0
  0
ARC
  5
92
102
{ACAD_REACTORS
330
582
102
}
330
1F
100
AcDbEntity
  8
LC-002-002-RND-0
 62
     7
370
    50
100
AcDbCircle
 10
84.212786
 20
357.140704
 30
0.0
 40
14.9999999999999
100
AcDbArc
 50
90.000079
 51
160.0
  0
LINE
  5
93
102
{ACAD_REACTORS
330
582
102
}
330
1F
100
AcDbEntity
  8
LC-001-002-----0
  6
ByBlock
 62
     7
370
    50
100
AcDbLine
 10
120.861514
 20
268.140705
 30
0.0
 11
144.461434
 21
268.140705
 31
0.0
  0
LINE
  5
94
102
{ACAD_REACTORS
330
582
102
}
330
1F
100
AcDbEntity
  8
LC-001-002-----0
  6
ByBlock
 62
     7
370
    50
100
AcDbLine
 10
106.789832
 20
336.440705
 30
0.0
 11
111.245039
 21
357.340741
 31
0.0
  0
LINE
  5
95
102
{ACAD_REACTORS
330
582
102
}
330
1F
100
AcDbEntity
  8
LC-001-002-----0
  6
ByBlock
 62
     7
370
    50
100
AcDbLine
 10
74.768823
 20
331.778387
 30
0.0
 11
132.661474
 21
331.778387
 31
0.0
  0
LINE
  5
96
102
{ACAD_REACTORS
330
582
102
}
330
1F
100
AcDbEntity
  8
LC-001-002-----0
  6
ByBlock
 62
     7
370
    50
100
AcDbLine
 10
117.643106
 20
336.440705
 30
0.0
 11
119.949291
 21
357.340753
 31
0.0
  0
LINE
  5
97
102
{ACAD_REACTORS
330
582
102
}
330
1F
100
AcDbEntity
  8
LC-001-002-----0
  6
ByBlock
 62
     7
370
    50
100
AcDbLine
 10
53.283571
 20
316.020448
 30
0.0
 11
70.117397
 21
362.271006
 31
0.0
  0
LINE
  5
98
102
{ACAD_REACTORS
330
582
102
}
330
1F
100
AcDbEntity
  8
LC-001-002-----0
  6
ByBlock
 62
     7
370
    50
100
AcDbLine
 10
64.870666
 20
297.140705
 30
0.0
 11
79.13474
 21
331.778387
 31
0.0
  0
LINE
  5
99
102
{ACAD_REACTORS
330
582
102
}
330
1F
100
AcDbEntity
  8
LC-001-002-----0
  6
ByBlock
 62
     7
370
    50
100
AcDbLine
 10
62.161737
 20
297.140705
 30
0.0
 11
89.459507
 21
372.140711
 31
0.0
  0
LINE
  5
9A
102
{ACAD_REACTORS
330
582
102
}
330
1F
100
AcDbEntity
  8
LC-001-002-----0
  6
ByBlock
 62
     7
370
    50
100
AcDbLine
 10
90.174504
 20
368.055578
 30
0.0
 11
91.661371
 21
372.140714
 31
0.0
  0
LINE
  5
9B
102
{ACAD_REACTORS
330
582
102
}
330
1F
100
AcDbEntity
  8
LC-001-002-----0
  6
ByBlock
 62
     7
370
    50
100
AcDbLine
 10
87.821639
 20
367.640705
 30
0.0
 11
90.174504
 21
368.055578
 31
0.0
  0
LINE
  5
9C
102
{ACAD_REACTORS
330
582
102
}
330
1F
100
AcDbEntity
  8
LC-001-002-----0
  6
ByBlock
 62
     7
370
    50
100
AcDbLine
 10
82.004167
 20
297.140705
 30
0.0
 11
92.446191
 21
331.778387
 31
0.0
  0
LINE
  5
9D
102
{ACAD_REACTORS
330
582
102
}
330
1F
100
AcDbEntity
  8
LC-001-002-----0
  6
ByBlock
 62
     7
370
    50
100
AcDbLine
 10
71.040067
 20
297.140705
 30
0.0
 11
83.828885
 21
331.778387
 31
0.0
  0
LINE
  5
9E
102
{ACAD_REACTORS
330
582
102
}
330
1F
100
AcDbEntity
  8
LC-001-002-----0
  6
ByBlock
 62
     7
370
    50
100
AcDbLine
 10
118.861486
 20
288.440703
 30
0.0
 11
118.861497
 21
280.440705
 31
0.0
  0
INSERT
  5
AE
102
{ACAD_REACTORS
330
582
102
}
330
1F
100
AcDbEntity
  8
LC-003-005-----0
 62
     7
370
    25
100
AcDbBlockReference
  2
*X33
 10
0.0
 20
0.0
 30
0.0
  0
LINE
  5
AF
102
{ACAD_REACTORS
330
582
102
}
330
1F
100
AcDbEntity
  8
LC-001-002-----0
  6
ByBlock
 62
     7
370
    50
100
AcDbLine
 10
58.761737
 20
297.140705
 30
0.0
 11
58.761774
 21
270.640705
 31
0.0
  0
LINE
  5
B1
102
{ACAD_REACTORS
330
582
102
}
330
1F
100
AcDbEntity
  8
LC-004-002-___-0
 62
     7
370
    25
100
AcDbLine
 10
63.679572
 20
280.440705
 30
0.0
 11
61.66176
 21
280.440705
 31
0.0
  0
LINE
  5
B2
102
{ACAD_REACTORS
330
582
102
}
330
1F
100
AcDbEntity
  8
LC-001-002-----0
  6
ByBlock
 62
     7
370
    50
100
AcDbLine
 10
86.700291
 20
336.440705
 30
0.0
 11
94.416929
 21
357.340718
 31
0.0
  0
ARC
  5
B3
102
{ACAD_REACTORS
330
582
102
}
330
1F
100
AcDbEntity
  8
LC-002-002-RND-0
 62
     7
370
    50
100
AcDbCircle
 10
119.861486
 20
288.440705
 30
0.0
 40
1.0
100
AcDbArc
 50
90.0
 51
180.000079
  0
LINE
  5
B4
102
{ACAD_REACTORS
330
582
102
}
330
1F
100
AcDbEntity
  8
LC-001-002-----0
  6
ByBlock
 62
     7
370
    50
100
AcDbLine
 10
80.459436
 20
336.440705
 30
0.0
 11
89.066226
 21
357.34071
 31
0.0
  0
LINE
  5
B5
102
{ACAD_REACTORS
330
582
102
}
330
1F
100
AcDbEntity
  8
LC-001-002-----0
  6
ByBlock
 62
     7
370
    50
100
AcDbLine
 10
50.268473
 20
297.140705
 30
0.0
 11
47.075906
 21
298.965029
 31
0.0
  0
ARC
  5
B6
102
{ACAD_REACTORS
330
582
102
}
330
1F
100
AcDbEntity
  8
LC-002-002-RND-0
 62
     7
370
    50
100
AcDbCircle
 10
119.861486
 20
288.440705
 30
0.0
 40
1.000000000000031
100
AcDbArc
 50
0.000079
 51
90.0
  0
LINE
  5
B7
102
{ACAD_REACTORS
330
582
102
}
330
1F
100
AcDbEntity
  8
LC-001-002-----0
  6
ByBlock
 62
     7
370
    50
100
AcDbLine
 10
83.630512
 20
297.140705
 30
0.0
 11
94.090763
 21
331.778387
 31
0.0
  0
LINE
  5
B8
102
{ACAD_REACTORS
330
582
102
}
330
1F
100
AcDbEntity
  8
LC-001-002-----0
  6
ByBlock
 62
     7
370
    50
100
AcDbLine
 10
119.861486
 20
289.440705
 30
0.0
 11
120.012402
 21
289.440705
 31
0.0
  0
LINE
  5
B9
102
{ACAD_REACTORS
330
582
102
}
330
1F
100
AcDbEntity
  8
LC-001-002-----0
  6
ByBlock
 62
     7
370
    50
100
AcDbLine
 10
85.550291
 20
336.440705
 30
0.0
 11
93.266929
 21
357.340716
 31
0.0
  0
LINE
  5
BA
102
{ACAD_REACTORS
330
582
102
}
330
1F
100
AcDbEntity
  8
LC-001-002-----0
  6
ByBlock
 62
     7
370
    50
100
AcDbLine
 10
84.072745
 20
357.340703
 30
0.0
 11
132.661474
 21
357.34077
 31
0.0
  0
LINE
  5
BB
102
{ACAD_REACTORS
330
582
102
}
330
1F
100
AcDbEntity
  8
LC-001-002-----0
  6
ByBlock
 62
     7
370
    50
100
AcDbLine
 10
119.864735
 20
336.440705
 30
0.0
 11
122.170921
 21
357.340756
 31
0.0
  0
LINE
  5
BC
102
{ACAD_REACTORS
330
582
102
}
330
1F
100
AcDbEntity
  8
LC-001-002-----0
  6
ByBlock
 62
     7
370
    50
100
AcDbLine
 10
113.306605
 20
297.140705
 30
0.0
 11
117.12865
 21
331.778387
 31
0.0
  0
LINE
  5
BD
102
{ACAD_REACTORS
330
582
102
}
330
1F
100
AcDbEntity
  8
LC-001-002-----0
  6
ByBlock
 62
     7
370
    50
100
AcDbLine
 10
81.05472
 20
336.440705
 30
0.0
 11
89.661509
 21
357.340711
 31
0.0
  0
LINE
  5
BE
102
{ACAD_REACTORS
330
582
102
}
330
1F
100
AcDbEntity
  8
LC-001-002-----0
  6
ByBlock
 62
     7
370
    50
100
AcDbLine
 10
131.511735
 20
331.778387
 30
0.0
 11
131.511735
 21
297.140705
 31
0.0
  0
LINE
  5
BF
102
{ACAD_REACTORS
330
582
102
}
330
1F
100
AcDbEntity
  8
LC-001-002-----0
  6
ByBlock
 62
     7
370
    50
100
AcDbLine
 10
72.190067
 20
297.140705
 30
0.0
 11
84.978885
 21
331.778387
 31
0.0
  0
LINE
  5
C0
102
{ACAD_REACTORS
330
582
102
}
330
1F
100
AcDbEntity
  8
LC-001-002-----0
  6
ByBlock
 62
     7
370
    50
100
AcDbLine
 10
61.661748
 20
289.440705
 30
0.0
 11
62.161748
 21
289.440705
 31
0.0
  0
LINE
  5
C1
102
{ACAD_REACTORS
330
582
102
}
330
1F
100
AcDbEntity
  8
LC-001-002-----0
  6
ByBlock
 62
     7
370
    50
100
AcDbLine
 10
120.861486
 20
288.440706
 30
0.0
 11
120.861514
 21
268.140705
 31
0.0
  0
LINE
  5
C2
102
{ACAD_REACTORS
330
582
102
}
330
1F
100
AcDbEntity
  8
LC-001-002-----0
  6
ByBlock
 62
     7
370
    50
100
AcDbLine
 10
131.511735
 20
357.340768
 30
0.0
 11
131.511735
 21
336.440705
 31
0.0
  0
ARC
  5
C3
102
{ACAD_REACTORS
330
582
102
}
330
1F
100
AcDbEntity
  8
LC-002-002-RND-0
 62
     7
370
    50
100
AcDbCircle
 10
58.261776
 20
269.140705
 30
0.0
 40
1.0
100
AcDbArc
 50
90.0
 51
180.000079
  0
LINE
  5
C4
102
{ACAD_REACTORS
330
582
102
}
330
1F
100
AcDbEntity
  8
LC-001-002-----0
  6
ByBlock
 62
     7
370
    50
100
AcDbLine
 10
76.465767
 20
336.440705
 30
0.0
 11
76.465767
 21
332.077604
 31
0.0
  0
ARC
  5
C5
102
{ACAD_REACTORS
330
582
102
}
330
1F
100
AcDbEntity
  8
LC-002-002-RND-0
 62
     7
370
    50
100
AcDbCircle
 10
58.261776
 20
269.140705
 30
0.0
 40
1.000000000000031
100
AcDbArc
 50
180.000079
 51
270.0
  0
LINE
  5
C6
102
{ACAD_REACTORS
330
582
102
}
330
1F
100
AcDbEntity
  8
LC-001-002-----0
  6
ByBlock
 62
     7
370
    50
100
AcDbLine
 10
58.161776
 20
268.140705
 30
0.0
 11
59.661778
 21
268.140705
 31
0.0
  0
LINE
  5
C7
102
{ACAD_REACTORS
330
582
102
}
330
1F
100
AcDbEntity
  8
LC-001-002-----0
  6
ByBlock
 62
     7
370
    50
100
AcDbLine
 10
54.76176
 20
280.440705
 30
0.0
 11
58.76176
 21
280.440705
 31
0.0
  0
ARC
  5
C8
102
{ACAD_REACTORS
330
582
102
}
330
1F
100
AcDbEntity
  8
LC-002-002-RND-0
 62
     7
370
    50
100
AcDbCircle
 10
58.261774
 20
270.640705
 30
0.0
 40
0.5
100
AcDbArc
 50
270.0
 51
0.000079
  0
LINE
  5
C9
102
{ACAD_REACTORS
330
582
102
}
330
1F
100
AcDbEntity
  8
LC-001-002-----0
  6
ByBlock
 62
     7
370
    50
100
AcDbLine
 10
58.261776
 20
268.140705
 30
0.0
 11
61.661777
 21
268.140705
 31
0.0
  0
LINE
  5
CA
102
{ACAD_REACTORS
330
582
102
}
330
1F
100
AcDbEntity
  8
LC-001-002-----0
  6
ByBlock
 62
     7
370
    50
100
AcDbLine
 10
95.498738
 20
336.440705
 30
0.0
 11
101.810346
 21
357.340728
 31
0.0
  0
LINE
  5
CB
102
{ACAD_REACTORS
330
582
102
}
330
1F
100
AcDbEntity
  8
LC-001-002-----0
  6
ByBlock
 62
     7
370
    50
100
AcDbLine
 10
74.768823
 20
331.778387
 30
0.0
 11
76.465767
 21
332.077604
 31
0.0
  0
ARC
  5
CC
102
{ACAD_REACTORS
330
582
102
}
330
1F
100
AcDbEntity
  8
LC-002-002-RND-0
 62
     7
370
    50
100
AcDbCircle
 10
54.76176
 20
280.940705
 30
0.0
 40
0.5000000000000155
100
AcDbArc
 50
180.000079
 51
270.0
  0
LINE
  5
CD
102
{ACAD_REACTORS
330
582
102
}
330
1F
100
AcDbEntity
  8
LC-001-002-----0
  6
ByBlock
 62
     7
370
    50
100
AcDbLine
 10
93.851713
 20
336.440705
 30
0.0
 11
100.152323
 21
357.340725
 31
0.0
  0
LINE
  5
CE
102
{ACAD_REACTORS
330
582
102
}
330
1F
100
AcDbEntity
  8
LC-001-002-----0
  6
ByBlock
 62
     7
370
    50
100
AcDbLine
 10
61.661748
 20
289.440705
 30
0.0
 11
61.661777
 21
268.140705
 31
0.0
  0
LINE
  5
CF
102
{ACAD_REACTORS
330
582
102
}
330
1F
100
AcDbEntity
  8
LC-001-002-----0
  6
ByBlock
 62
     7
370
    50
100
AcDbLine
 10
61.66176
 20
280.440705
 30
0.0
 11
118.861497
 21
280.440705
 31
0.0
  0
LINE
  5
D0
102
{ACAD_REACTORS
330
582
102
}
330
1F
100
AcDbEntity
  8
LC-001-002-----0
  6
ByBlock
 62
     7
370
    50
100
AcDbLine
 10
54.261738
 20
297.140705
 30
0.0
 11
54.26176
 21
280.940704
 31
0.0
  0
LINE
  5
D1
102
{ACAD_REACTORS
330
582
102
}
330
1F
100
AcDbEntity
  8
LC-001-002-----0
  6
ByBlock
 62
     7
370
    50
100
AcDbLine
 10
84.212766
 20
372.140704
 30
0.0
 11
132.661474
 21
372.14077
 31
0.0
  0
INSERT
  5
D7
102
{ACAD_REACTORS
330
582
102
}
330
1F
100
AcDbEntity
  8
LC-003-005-----0
 62
     7
370
    25
100
AcDbBlockReference
  2
*X44
 10
0.0
 20
0.0
 30
0.0
  0
LINE
  5
D8
102
{ACAD_REACTORS
330
582
102
}
330
1F
100
AcDbEntity
  8
LC-001-002-----0
  6
ByBlock
 62
     7
370
    50
100
AcDbLine
 10
104.797974
 20
336.440705
 30
0.0
 11
109.25318
 21
357.340738
 31
0.0
  0
LINE
  5
D9
102
{ACAD_REACTORS
330
582
102
}
330
1F
100
AcDbEntity
  8
LC-001-002-----0
  6
ByBlock
 62
     7
370
    50
100
AcDbLine
 10
98.412354
 20
297.140705
 30
0.0
 11
105.795978
 21
331.778387
 31
0.0
  0
LINE
  5
DA
102
{ACAD_REACTORS
330
582
102
}
330
1F
100
AcDbEntity
  8
LC-001-002-----0
  6
ByBlock
 62
     7
370
    50
100
AcDbLine
 10
76.465767
 20
336.440705
 30
0.0
 11
132.661474
 21
336.440705
 31
0.0
  0
LINE
  5
DB
102
{ACAD_REACTORS
330
582
102
}
330
1F
100
AcDbEntity
  8
LC-001-002-----0
  6
ByBlock
 62
     7
370
    50
100
AcDbLine
 10
62.161737
 20
297.140705
 30
0.0
 11
62.161748
 21
289.440705
 31
0.0
  0
LINE
  5
DC
102
{ACAD_REACTORS
330
582
102
}
330
1F
100
AcDbEntity
  8
LC-001-002-----0
  6
ByBlock
 62
     7
370
    50
100
AcDbLine
 10
47.075906
 20
298.965029
 30
0.0
 11
53.283571
 21
316.020448
 31
0.0
  0
LINE
  5
DD
102
{ACAD_REACTORS
330
582
102
}
330
1F
100
AcDbEntity
  8
LC-001-002-----0
  6
ByBlock
 62
     7
370
    50
100
AcDbLine
 10
50.268473
 20
297.140705
 30
0.0
 11
215.054475
 21
297.140705
 31
0.0
  0
LINE
  5
DE
102
{ACAD_REACTORS
330
580
102
}
330
1F
100
AcDbEntity
  8
LC-001-002-----0
  6
ByBlock
 62
     7
370
    50
100
AcDbLine
 10
23.911472
 20
294.640705
 30
0.0
 11
24.111472
 21
294.640705
 31
0.0
  0
LINE
  5
DF
102
{ACAD_REACTORS
330
580
102
}
330
1F
100
AcDbEntity
  8
LC-001-002-----0
  6
ByBlock
 62
     7
370
    50
100
AcDbLine
 10
23.411472
 20
294.140705
 30
0.0
 11
23.411472
 21
288.641166
 31
0.0
  0
LINE
  5
E0
102
{ACAD_REACTORS
330
580
102
}
330
1F
100
AcDbEntity
  8
LC-001-002-----0
  6
ByBlock
 62
     7
370
    50
100
AcDbLine
 10
31.411472
 20
294.140705
 30
0.0
 11
31.411472
 21
288.641166
 31
0.0
  0
ARC
  5
E1
102
{ACAD_REACTORS
330
580
102
}
330
1F
100
AcDbEntity
  8
LC-001-002-----0
  6
ByBlock
 62
     7
370
    50
100
AcDbCircle
 10
30.911472
 20
294.140705
 30
0.0
 40
0.5
100
AcDbArc
 50
360.0
 51
90.0
  0
ARC
  5
E2
102
{ACAD_REACTORS
330
580
102
}
330
1F
100
AcDbEntity
  8
LC-001-002-----0
  6
ByBlock
 62
     7
370
    50
100
AcDbCircle
 10
23.911472
 20
294.140705
 30
0.0
 40
0.5
100
AcDbArc
 50
90.0
 51
180.0
  0
LINE
  5
E3
102
{ACAD_REACTORS
330
580
102
}
330
1F
100
AcDbEntity
  8
LC-001-002-----0
  6
ByBlock
 62
     7
370
    50
100
AcDbLine
 10
23.411472
 20
288.641166
 30
0.0
 11
30.26873
 21
285.370422
 31
0.0
  0
LINE
  5
E4
102
{ACAD_REACTORS
330
580
102
}
330
1F
100
AcDbEntity
  8
LC-001-002-----0
  6
ByBlock
 62
     7
370
    50
100
AcDbLine
 10
24.111472
 20
294.640705
 30
0.0
 11
24.400147
 21
295.140705
 31
0.0
  0
LINE
  5
E5
102
{ACAD_REACTORS
330
580
102
}
330
1F
100
AcDbEntity
  8
LC-001-002-----0
  6
ByBlock
 62
     7
370
    50
100
AcDbLine
 10
24.400147
 20
295.140705
 30
0.0
 11
24.688822
 21
294.640705
 31
0.0
  0
LINE
  5
E6
102
{ACAD_REACTORS
330
580
102
}
330
1F
100
AcDbEntity
  8
LC-001-002-----0
  6
ByBlock
 62
     7
370
    50
100
AcDbLine
 10
25.400147
 20
295.140705
 30
0.0
 11
25.688822
 21
294.640705
 31
0.0
  0
LINE
  5
E7
102
{ACAD_REACTORS
330
580
102
}
330
1F
100
AcDbEntity
  8
LC-001-002-----0
  6
ByBlock
 62
     7
370
    50
100
AcDbLine
 10
25.111472
 20
294.640705
 30
0.0
 11
25.400147
 21
295.140705
 31
0.0
  0
LINE
  5
E8
102
{ACAD_REACTORS
330
580
102
}
330
1F
100
AcDbEntity
  8
LC-001-002-----0
  6
ByBlock
 62
     7
370
    50
100
AcDbLine
 10
26.400147
 20
295.140705
 30
0.0
 11
26.688822
 21
294.640705
 31
0.0
  0
LINE
  5
E9
102
{ACAD_REACTORS
330
580
102
}
330
1F
100
AcDbEntity
  8
LC-001-002-----0
  6
ByBlock
 62
     7
370
    50
100
AcDbLine
 10
26.111472
 20
294.640705
 30
0.0
 11
26.400147
 21
295.140705
 31
0.0
  0
LINE
  5
EA
102
{ACAD_REACTORS
330
580
102
}
330
1F
100
AcDbEntity
  8
LC-001-002-----0
  6
ByBlock
 62
     7
370
    50
100
AcDbLine
 10
27.400147
 20
295.140705
 30
0.0
 11
27.688822
 21
294.640705
 31
0.0
  0
LINE
  5
EB
102
{ACAD_REACTORS
330
580
102
}
330
1F
100
AcDbEntity
  8
LC-001-002-----0
  6
ByBlock
 62
     7
370
    50
100
AcDbLine
 10
27.111472
 20
294.640705
 30
0.0
 11
27.400147
 21
295.140705
 31
0.0
  0
LINE
  5
EC
102
{ACAD_REACTORS
330
580
102
}
330
1F
100
AcDbEntity
  8
LC-001-002-----0
  6
ByBlock
 62
     7
370
    50
100
AcDbLine
 10
28.400147
 20
295.140705
 30
0.0
 11
28.688822
 21
294.640705
 31
0.0
  0
LINE
  5
ED
102
{ACAD_REACTORS
330
580
102
}
330
1F
100
AcDbEntity
  8
LC-001-002-----0
  6
ByBlock
 62
     7
370
    50
100
AcDbLine
 10
28.111472
 20
294.640705
 30
0.0
 11
28.400147
 21
295.140705
 31
0.0
  0
LINE
  5
EE
102
{ACAD_REACTORS
330
580
102
}
330
1F
100
AcDbEntity
  8
LC-001-002-----0
  6
ByBlock
 62
     7
370
    50
100
AcDbLine
 10
29.400147
 20
295.140705
 30
0.0
 11
29.688822
 21
294.640705
 31
0.0
  0
LINE
  5
EF
102
{ACAD_REACTORS
330
580
102
}
330
1F
100
AcDbEntity
  8
LC-001-002-----0
  6
ByBlock
 62
     7
370
    50
100
AcDbLine
 10
29.111472
 20
294.640705
 30
0.0
 11
29.400147
 21
295.140705
 31
0.0
  0
LINE
  5
F0
102
{ACAD_REACTORS
330
580
102
}
330
1F
100
AcDbEntity
  8
LC-001-002-----0
  6
ByBlock
 62
     7
370
    50
100
AcDbLine
 10
30.400147
 20
295.140705
 30
0.0
 11
30.688822
 21
294.640705
 31
0.0
  0
LINE
  5
F1
102
{ACAD_REACTORS
330
580
102
}
330
1F
100
AcDbEntity
  8
LC-001-002-----0
  6
ByBlock
 62
     7
370
    50
100
AcDbLine
 10
30.111472
 20
294.640705
 30
0.0
 11
30.400147
 21
295.140705
 31
0.0
  0
LINE
  5
F2
102
{ACAD_REACTORS
330
580
102
}
330
1F
100
AcDbEntity
  8
LC-001-002-----0
  6
ByBlock
 62
     7
370
    50
100
AcDbLine
 10
30.688822
 20
294.640705
 30
0.0
 11
30.911472
 21
294.640705
 31
0.0
  0
LINE
  5
F3
102
{ACAD_REACTORS
330
580
102
}
330
1F
100
AcDbEntity
  8
LC-001-002-----0
  6
ByBlock
 62
     7
370
    50
100
AcDbLine
 10
29.688822
 20
294.640705
 30
0.0
 11
30.111472
 21
294.640705
 31
0.0
  0
LINE
  5
F4
102
{ACAD_REACTORS
330
580
102
}
330
1F
100
AcDbEntity
  8
LC-001-002-----0
  6
ByBlock
 62
     7
370
    50
100
AcDbLine
 10
28.688822
 20
294.640705
 30
0.0
 11
29.111472
 21
294.640705
 31
0.0
  0
LINE
  5
F5
102
{ACAD_REACTORS
330
580
102
}
330
1F
100
AcDbEntity
  8
LC-001-002-----0
  6
ByBlock
 62
     7
370
    50
100
AcDbLine
 10
27.688822
 20
294.640705
 30
0.0
 11
28.111472
 21
294.640705
 31
0.0
  0
LINE
  5
F6
102
{ACAD_REACTORS
330
580
102
}
330
1F
100
AcDbEntity
  8
LC-001-002-----0
  6
ByBlock
 62
     7
370
    50
100
AcDbLine
 10
26.688822
 20
294.640705
 30
0.0
 11
27.111472
 21
294.640705
 31
0.0
  0
LINE
  5
F7
102
{ACAD_REACTORS
330
580
102
}
330
1F
100
AcDbEntity
  8
LC-001-002-----0
  6
ByBlock
 62
     7
370
    50
100
AcDbLine
 10
25.688822
 20
294.640705
 30
0.0
 11
26.111472
 21
294.640705
 31
0.0
  0
LINE
  5
F8
102
{ACAD_REACTORS
330
580
102
}
330
1F
100
AcDbEntity
  8
LC-001-002-----0
  6
ByBlock
 62
     7
370
    50
100
AcDbLine
 10
24.688822
 20
294.640705
 30
0.0
 11
25.111472
 21
294.640705
 31
0.0
  0
ARC
  5
F9
102
{ACAD_REACTORS
330
580
102
}
330
1F
100
AcDbEntity
  8
LC-002-002-RND-0
 62
     7
370
    50
100
AcDbCircle
 10
30.483985
 20
285.821714
 30
0.0
 40
0.5000000000000253
100
AcDbArc
 50
244.5
 51
44.5
  0
LINE
  5
FA
102
{ACAD_REACTORS
330
580
102
}
330
1F
100
AcDbEntity
  8
LC-001-002-----0
  6
ByBlock
 62
     7
370
    50
100
AcDbLine
 10
30.840611
 20
286.172169
 30
0.0
 11
29.250074
 21
287.790711
 31
0.0
  0
ARC
  5
FB
102
{ACAD_REACTORS
330
580
102
}
330
1F
100
AcDbEntity
  8
LC-002-002-RND-0
 62
     7
370
    50
100
AcDbCircle
 10
29.606699
 20
288.141166
 30
0.0
 40
0.5
100
AcDbArc
 50
90.0
 51
224.5
  0
LINE
  5
FC
330
1F
100
AcDbEntity
  8
LC-001-002-----0
  6
ByBlock
 62
     7
370
    50
100
AcDbLine
 10
29.606699
 20
288.641166
 30
0.0
 11
31.411472
 21
288.641166
 31
0.0
  0
INSERT
  5
104
330
1F
100
AcDbEntity
  8
LC-003-005-----0
 62
     7
370
    25
100
AcDbBlockReference
  2
*X55
 10
0.0
 20
0.0
 30
0.0
  0
LINE
  5
105
102
{ACAD_REACTORS
330
583
102
}
330
1F
100
AcDbEntity
  8
LC-001-002-----0
  6
ByBlock
 62
     7
370
    50
100
AcDbLine
 10
241.411472
 20
294.640705
 30
0.0
 11
241.211472
 21
294.640705
 31
0.0
  0
LINE
  5
106
102
{ACAD_REACTORS
330
583
102
}
330
1F
100
AcDbEntity
  8
LC-001-002-----0
  6
ByBlock
 62
     7
370
    50
100
AcDbLine
 10
241.911472
 20
294.140705
 30
0.0
 11
241.911472
 21
288.641166
 31
0.0
  0
LINE
  5
107
102
{ACAD_REACTORS
330
583
102
}
330
1F
100
AcDbEntity
  8
LC-001-002-----0
  6
ByBlock
 62
     7
370
    50
100
AcDbLine
 10
233.911472
 20
294.140705
 30
0.0
 11
233.911472
 21
288.641166
 31
0.0
  0
ARC
  5
108
102
{ACAD_REACTORS
330
583
102
}
330
1F
100
AcDbEntity
  8
LC-001-002-----0
  6
ByBlock
 62
     7
370
    50
100
AcDbCircle
 10
234.411472
 20
294.140705
 30
0.0
 40
0.5
100
AcDbArc
 50
90.0
 51
180.0
  0
ARC
  5
109
102
{ACAD_REACTORS
330
583
102
}
330
1F
100
AcDbEntity
  8
LC-001-002-----0
  6
ByBlock
 62
     7
370
    50
100
AcDbCircle
 10
241.411472
 20
294.140705
 30
0.0
 40
0.5
100
AcDbArc
 50
360.0
 51
90.0
  0
LINE
  5
10A
102
{ACAD_REACTORS
330
583
102
}
330
1F
100
AcDbEntity
  8
LC-001-002-----0
  6
ByBlock
 62
     7
370
    50
100
AcDbLine
 10
241.911472
 20
288.641166
 30
0.0
 11
235.054214
 21
285.370422
 31
0.0
  0
LINE
  5
10B
102
{ACAD_REACTORS
330
583
102
}
330
1F
100
AcDbEntity
  8
LC-001-002-----0
  6
ByBlock
 62
     7
370
    50
100
AcDbLine
 10
241.211472
 20
294.640705
 30
0.0
 11
240.922797
 21
295.140705
 31
0.0
  0
LINE
  5
10C
102
{ACAD_REACTORS
330
583
102
}
330
1F
100
AcDbEntity
  8
LC-001-002-----0
  6
ByBlock
 62
     7
370
    50
100
AcDbLine
 10
240.922797
 20
295.140705
 30
0.0
 11
240.634122
 21
294.640705
 31
0.0
  0
LINE
  5
10D
102
{ACAD_REACTORS
330
583
102
}
330
1F
100
AcDbEntity
  8
LC-001-002-----0
  6
ByBlock
 62
     7
370
    50
100
AcDbLine
 10
239.922797
 20
295.140705
 30
0.0
 11
239.634122
 21
294.640705
 31
0.0
  0
LINE
  5
10E
102
{ACAD_REACTORS
330
583
102
}
330
1F
100
AcDbEntity
  8
LC-001-002-----0
  6
ByBlock
 62
     7
370
    50
100
AcDbLine
 10
240.211472
 20
294.640705
 30
0.0
 11
239.922797
 21
295.140705
 31
0.0
  0
LINE
  5
10F
102
{ACAD_REACTORS
330
583
102
}
330
1F
100
AcDbEntity
  8
LC-001-002-----0
  6
ByBlock
 62
     7
370
    50
100
AcDbLine
 10
238.922797
 20
295.140705
 30
0.0
 11
238.634122
 21
294.640705
 31
0.0
  0
LINE
  5
110
102
{ACAD_REACTORS
330
583
102
}
330
1F
100
AcDbEntity
  8
LC-001-002-----0
  6
ByBlock
 62
     7
370
    50
100
AcDbLine
 10
239.211472
 20
294.640705
 30
0.0
 11
238.922797
 21
295.140705
 31
0.0
  0
LINE
  5
111
102
{ACAD_REACTORS
330
583
102
}
330
1F
100
AcDbEntity
  8
LC-001-002-----0
  6
ByBlock
 62
     7
370
    50
100
AcDbLine
 10
237.922797
 20
295.140705
 30
0.0
 11
237.634122
 21
294.640705
 31
0.0
  0
LINE
  5
112
102
{ACAD_REACTORS
330
583
102
}
330
1F
100
AcDbEntity
  8
LC-001-002-----0
  6
ByBlock
 62
     7
370
    50
100
AcDbLine
 10
238.211472
 20
294.640705
 30
0.0
 11
237.922797
 21
295.140705
 31
0.0
  0
LINE
  5
113
102
{ACAD_REACTORS
330
583
102
}
330
1F
100
AcDbEntity
  8
LC-001-002-----0
  6
ByBlock
 62
     7
370
    50
100
AcDbLine
 10
236.922797
 20
295.140705
 30
0.0
 11
236.634122
 21
294.640705
 31
0.0
  0
LINE
  5
114
102
{ACAD_REACTORS
330
583
102
}
330
1F
100
AcDbEntity
  8
LC-001-002-----0
  6
ByBlock
 62
     7
370
    50
100
AcDbLine
 10
237.211472
 20
294.640705
 30
0.0
 11
236.922797
 21
295.140705
 31
0.0
  0
LINE
  5
115
102
{ACAD_REACTORS
330
583
102
}
330
1F
100
AcDbEntity
  8
LC-001-002-----0
  6
ByBlock
 62
     7
370
    50
100
AcDbLine
 10
235.922797
 20
295.140705
 30
0.0
 11
235.634122
 21
294.640705
 31
0.0
  0
LINE
  5
116
102
{ACAD_REACTORS
330
583
102
}
330
1F
100
AcDbEntity
  8
LC-001-002-----0
  6
ByBlock
 62
     7
370
    50
100
AcDbLine
 10
236.211472
 20
294.640705
 30
0.0
 11
235.922797
 21
295.140705
 31
0.0
  0
LINE
  5
117
102
{ACAD_REACTORS
330
583
102
}
330
1F
100
AcDbEntity
  8
LC-001-002-----0
  6
ByBlock
 62
     7
370
    50
100
AcDbLine
 10
234.922797
 20
295.140705
 30
0.0
 11
234.634122
 21
294.640705
 31
0.0
  0
LINE
  5
118
102
{ACAD_REACTORS
330
583
102
}
330
1F
100
AcDbEntity
  8
LC-001-002-----0
  6
ByBlock
 62
     7
370
    50
100
AcDbLine
 10
235.211472
 20
294.640705
 30
0.0
 11
234.922797
 21
295.140705
 31
0.0
  0
LINE
  5
119
102
{ACAD_REACTORS
330
583
102
}
330
1F
100
AcDbEntity
  8
LC-001-002-----0
  6
ByBlock
 62
     7
370
    50
100
AcDbLine
 10
234.634122
 20
294.640705
 30
0.0
 11
234.411472
 21
294.640705
 31
0.0
  0
LINE
  5
11A
102
{ACAD_REACTORS
330
583
102
}
330
1F
100
AcDbEntity
  8
LC-001-002-----0
  6
ByBlock
 62
     7
370
    50
100
AcDbLine
 10
235.634122
 20
294.640705
 30
0.0
 11
235.211472
 21
294.640705
 31
0.0
  0
LINE
  5
11B
102
{ACAD_REACTORS
330
583
102
}
330
1F
100
AcDbEntity
  8
LC-001-002-----0
  6
ByBlock
 62
     7
370
    50
100
AcDbLine
 10
236.634122
 20
294.640705
 30
0.0
 11
236.211472
 21
294.640705
 31
0.0
  0
LINE
  5
11C
102
{ACAD_REACTORS
330
583
102
}
330
1F
100
AcDbEntity
  8
LC-001-002-----0
  6
ByBlock
 62
     7
370
    50
100
AcDbLine
 10
237.634122
 20
294.640705
 30
0.0
 11
237.211472
 21
294.640705
 31
0.0
  0
LINE
  5
11D
102
{ACAD_REACTORS
330
583
102
}
330
1F
100
AcDbEntity
  8
LC-001-002-----0
  6
ByBlock
 62
     7
370
    50
100
AcDbLine
 10
238.634122
 20
294.640705
 30
0.0
 11
238.211472
 21
294.640705
 31
0.0
  0
LINE
  5
11E
102
{ACAD_REACTORS
330
583
102
}
330
1F
100
AcDbEntity
  8
LC-001-002-----0
  6
ByBlock
 62
     7
370
    50
100
AcDbLine
 10
239.634122
 20
294.640705
 30
0.0
 11
239.211472
 21
294.640705
 31
0.0
  0
LINE
  5
11F
102
{ACAD_REACTORS
330
583
102
}
330
1F
100
AcDbEntity
  8
LC-001-002-----0
  6
ByBlock
 62
     7
370
    50
100
AcDbLine
 10
240.634122
 20
294.640705
 30
0.0
 11
240.211472
 21
294.640705
 31
0.0
  0
ARC
  5
120
102
{ACAD_REACTORS
330
583
102
}
330
1F
100
AcDbEntity
  8
LC-002-002-RND-0
 62
     7
370
    50
100
AcDbCircle
 10
234.838959
 20
285.821714
 30
0.0
 40
0.4999999999999898
100
AcDbArc
 50
135.5
 51
295.5
  0
LINE
  5
121
102
{ACAD_REACTORS
330
583
102
}
330
1F
100
AcDbEntity
  8
LC-001-002-----0
  6
ByBlock
 62
     7
370
    50
100
AcDbLine
 10
234.482334
 20
286.172169
 30
0.0
 11
236.072871
 21
287.790711
 31
0.0
  0
ARC
  5
122
102
{ACAD_REACTORS
330
583
102
}
330
1F
100
AcDbEntity
  8
LC-002-002-RND-0
 62
     7
370
    50
100
AcDbCircle
 10
235.716245
 20
288.141166
 30
0.0
 40
0.5000000000000318
100
AcDbArc
 50
315.5
 51
90.0
  0
LINE
  5
123
330
1F
100
AcDbEntity
  8
LC-001-002-----0
  6
ByBlock
 62
     7
370
    50
100
AcDbLine
 10
235.716245
 20
288.641166
 30
0.0
 11
233.911472
 21
288.641166
 31
0.0
  0
INSERT
  5
12C
330
1F
100
AcDbEntity
  8
LC-003-005-----0
 62
     7
370
    25
100
AcDbBlockReference
  2
*X66
 10
0.0
 20
0.0
 30
0.0
  0
DIMENSION
  5
130
330
1F
100
AcDbEntity
  8
LC-005-003-----0
 62
     7
370
    25
100
AcDbDimension
  2
*D7
 10
309.658948
 20
384.970681
 30
0.0
 11
132.658128
 21
415.765931
 31
0.0
 70
   160
  1
%%c<>
 71
     5
 42
353.999987
 53
0.001538
  3
LC-DIM-L-0140-02-02
100
AcDbAlignedDimension
 13
-44.338516
 23
290.966581
 33
0.0
 14
309.661471
 24
290.976082
 34
0.0
 50
0.001538
100
AcDbRotatedDimension
  0
LINE
  5
13E
330
1F
100
AcDbEntity
  8
LC-001-002-----0
  6
ByBlock
 62
     7
370
    50
100
AcDbLine
 10
-44.338528
 20
296.640705
 30
0.0
 11
-44.338528
 21
297.140705
 31
0.0
  0
LINE
  5
13F
330
1F
100
AcDbEntity
  8
LC-001-002-----0
  6
ByBlock
 62
     7
370
    50
100
AcDbLine
 10
-42.338528
 20
299.140705
 30
0.0
 11
33.090535
 21
299.140705
 31
0.0
  0
LINE
  5
140
330
1F
100
AcDbEntity
  8
LC-001-002-----0
  6
ByBlock
 62
     7
370
    50
100
AcDbLine
 10
44.232368
 20
299.140705
 30
0.0
 11
47.139847
 21
299.140705
 31
0.0
  0
LINE
  5
141
330
1F
100
AcDbEntity
  8
LC-001-002-----0
  6
ByBlock
 62
     7
370
    50
100
AcDbLine
 10
-44.338528
 20
296.640705
 30
0.0
 11
2.661472
 21
296.640705
 31
0.0
  0
LINE
  5
142
330
1F
100
AcDbEntity
  8
LC-001-002-----0
  6
ByBlock
 62
     7
370
    50
100
AcDbLine
 10
5.994805
 20
295.140705
 30
0.0
 11
10.661472
 21
295.140705
 31
0.0
  0
LINE
  5
143
330
1F
100
AcDbEntity
  8
LC-001-002-----0
  6
ByBlock
 62
     7
370
    50
100
AcDbLine
 10
10.661472
 20
293.040705
 30
0.0
 11
10.661472
 21
295.140705
 31
0.0
  0
LINE
  5
144
330
1F
100
AcDbEntity
  8
LC-001-002-----0
  6
ByBlock
 62
     7
370
    50
100
AcDbLine
 10
12.661472
 20
292.140705
 30
0.0
 11
12.661472
 21
295.140705
 31
0.0
  0
LINE
  5
145
330
1F
100
AcDbEntity
  8
LC-001-002-----0
  6
ByBlock
 62
     7
370
    50
100
AcDbLine
 10
12.661472
 20
295.140705
 30
0.0
 11
20.661472
 21
295.140705
 31
0.0
  0
LINE
  5
146
330
1F
100
AcDbEntity
  8
LC-001-002-----0
  6
ByBlock
 62
     7
370
    50
100
AcDbLine
 10
20.661472
 20
288.540705
 30
0.0
 11
20.661472
 21
295.140705
 31
0.0
  0
LINE
  5
147
330
1F
100
AcDbEntity
  8
LC-001-002-----0
  6
ByBlock
 62
     7
370
    50
100
AcDbLine
 10
23.161472
 20
287.415705
 30
0.0
 11
23.161472
 21
295.140705
 31
0.0
  0
LINE
  5
148
330
1F
100
AcDbEntity
  8
LC-001-002-----0
  6
ByBlock
 62
     7
370
    50
100
AcDbLine
 10
2.661472
 20
296.640705
 30
0.0
 11
5.994805
 21
295.140705
 31
0.0
  0
LINE
  5
149
330
1F
100
AcDbEntity
  8
LC-001-002-----0
  6
ByBlock
 62
     7
370
    50
100
AcDbLine
 10
20.661472
 20
288.540705
 30
0.0
 11
23.161472
 21
287.415705
 31
0.0
  0
LINE
  5
14A
330
1F
100
AcDbEntity
  8
LC-001-002-----0
  6
ByBlock
 62
     7
370
    50
100
AcDbLine
 10
10.661472
 20
293.040705
 30
0.0
 11
12.661472
 21
292.140705
 31
0.0
  0
LINE
  5
14B
330
1F
100
AcDbEntity
  8
LC-001-002-----0
  6
ByBlock
 62
     7
370
    50
100
AcDbLine
 10
23.161472
 20
295.140705
 30
0.0
 11
30.411472
 21
295.140705
 31
0.0
  0
LINE
  5
14C
330
1F
100
AcDbEntity
  8
LC-001-002-----0
  6
ByBlock
 62
     7
370
    50
100
AcDbLine
 10
31.661472
 20
286.140705
 30
0.0
 11
35.511458
 21
286.140705
 31
0.0
  0
LINE
  5
14D
330
1F
100
AcDbEntity
  8
LC-001-002-----0
  6
ByBlock
 62
     7
370
    50
100
AcDbLine
 10
41.811458
 20
286.140705
 30
0.0
 11
51.161472
 21
286.140705
 31
0.0
  0
LINE
  5
14E
330
1F
100
AcDbEntity
  8
LC-001-002-----0
  6
ByBlock
 62
     7
370
    50
100
AcDbLine
 10
34.661472
 20
286.140705
 30
0.0
 11
34.661472
 21
296.140705
 31
0.0
  0
LINE
  5
14F
330
1F
100
AcDbEntity
  8
LC-001-002-----0
  6
ByBlock
 62
     7
370
    50
100
AcDbLine
 10
34.661472
 20
296.140705
 30
0.0
 11
34.661472
 21
296.140798
 31
0.0
  0
LINE
  5
150
330
1F
100
AcDbEntity
  8
LC-001-002-----0
  6
ByBlock
 62
     7
370
    50
100
AcDbLine
 10
51.161472
 20
276.140705
 30
0.0
 11
51.161472
 21
293.078527
 31
0.0
  0
LINE
  5
151
330
1F
100
AcDbEntity
  8
LC-001-002-----0
  6
ByBlock
 62
     7
370
    50
100
AcDbLine
 10
56.161472
 20
271.140705
 30
0.0
 11
58.761773
 21
271.140705
 31
0.0
  0
LINE
  5
152
330
1F
100
AcDbEntity
  8
LC-001-002-----0
  6
ByBlock
 62
     7
370
    50
100
AcDbLine
 10
51.161472
 20
276.140705
 30
0.0
 11
56.161472
 21
271.140705
 31
0.0
  0
LINE
  5
153
330
1F
100
AcDbEntity
  8
LC-001-002-----0
  6
ByBlock
 62
     7
370
    50
100
AcDbLine
 10
58.661472
 20
272.176239
 30
0.0
 11
58.661472
 21
271.140705
 31
0.0
  0
LINE
  5
154
330
1F
100
AcDbEntity
  8
LC-001-002-----0
  6
ByBlock
 62
     7
370
    50
100
AcDbLine
 10
53.661472
 20
277.176239
 30
0.0
 11
58.661472
 21
272.176239
 31
0.0
  0
LINE
  5
155
330
1F
100
AcDbEntity
  8
LC-001-002-----0
  6
ByBlock
 62
     7
370
    50
100
AcDbLine
 10
53.661472
 20
277.176239
 30
0.0
 11
53.661472
 21
297.140705
 31
0.0
  0
LINE
  5
156
330
1F
100
AcDbEntity
  8
LC-001-002-----0
  6
ByBlock
 62
     7
370
    50
100
AcDbLine
 10
50.125574
 20
297.140705
 30
0.0
 11
132.661472
 21
297.140705
 31
0.0
  0
LINE
  5
157
330
1F
100
AcDbEntity
  8
LC-001-002-----0
  6
ByBlock
 62
     7
370
    50
100
AcDbLine
 10
46.661472
 20
299.140705
 30
0.0
 11
50.125574
 21
297.140705
 31
0.0
  0
LINE
  5
158
330
1F
100
AcDbEntity
  8
LC-001-002-----0
  6
ByBlock
 62
     7
370
    50
100
AcDbLine
 10
47.589675
 20
295.140705
 30
0.0
 11
51.161472
 21
293.078527
 31
0.0
  0
LINE
  5
159
330
1F
100
AcDbEntity
  8
LC-001-002-----0
  6
ByBlock
 62
     7
370
    50
100
AcDbLine
 10
23.161472
 20
287.415705
 30
0.0
 11
25.980705
 21
287.415705
 31
0.0
  0
LINE
  5
15A
330
1F
100
AcDbEntity
  8
LC-001-002-----0
  6
ByBlock
 62
     7
370
    50
100
AcDbLine
 10
12.661472
 20
292.140705
 30
0.0
 11
20.661472
 21
292.140705
 31
0.0
  0
ARC
  5
15B
330
1F
100
AcDbEntity
  8
LC-002-002-RND-0
 62
     7
370
    50
100
AcDbCircle
 10
-42.338528
 20
297.140705
 30
0.0
 40
2.0
100
AcDbArc
 50
90.0
 51
180.0
  0
LINE
  5
15C
330
1F
100
AcDbEntity
  8
LC-001-002-----0
  6
ByBlock
 62
     7
370
    50
100
AcDbLine
 10
42.661472
 20
296.140705
 30
0.0
 11
42.661472
 21
286.140705
 31
0.0
  0
LINE
  5
15D
330
1F
100
AcDbEntity
  8
LC-001-002-----0
  6
ByBlock
 62
     7
370
    50
100
AcDbLine
 10
46.911472
 20
295.140705
 30
0.0
 11
47.589675
 21
295.140705
 31
0.0
  0
LINE
  5
160
330
1F
100
AcDbEntity
  8
LC-006-006-MLN-0
 62
     7
370
    25
100
AcDbLine
 10
38.661472
 20
310.690814
 30
0.0
 11
38.661472
 21
250.414469
 31
0.0
  0
LINE
  5
161
330
1F
100
AcDbEntity
  8
LC-001-002-----0
  6
ByBlock
 62
     7
370
    50
100
AcDbLine
 10
32.411472
 20
296.140705
 30
0.0
 11
35.511468
 21
296.140705
 31
0.0
  0
LINE
  5
162
330
1F
100
AcDbEntity
  8
LC-001-002-----0
  6
ByBlock
 62
     7
370
    50
100
AcDbLine
 10
41.811468
 20
296.140705
 30
0.0
 11
44.911472
 21
296.140705
 31
0.0
  0
LINE
  5
163
330
1F
100
AcDbEntity
  8
LC-001-002-----0
  6
ByBlock
 62
     7
370
    50
100
AcDbLine
 10
32.411472
 20
299.140705
 30
0.0
 11
32.411472
 21
297.675389
 31
0.0
  0
LINE
  5
164
330
1F
100
AcDbEntity
  8
LC-001-002-----0
  6
ByBlock
 62
     7
370
    50
100
AcDbLine
 10
32.411472
 20
296.140788
 30
0.0
 11
32.411472
 21
296.140705
 31
0.0
  0
LINE
  5
165
330
1F
100
AcDbEntity
  8
LC-001-002-----0
  6
ByBlock
 62
     7
370
    50
100
AcDbLine
 10
44.911472
 20
299.140705
 30
0.0
 11
44.911472
 21
296.140705
 31
0.0
  0
LINE
  5
166
330
1F
100
AcDbEntity
  8
LC-001-002-----0
  6
ByBlock
 62
     7
370
    50
100
AcDbLine
 10
31.661472
 20
286.140705
 30
0.0
 11
30.411472
 21
295.140705
 31
0.0
  0
LINE
  5
167
330
1F
100
AcDbEntity
  8
LC-001-002-----0
  6
ByBlock
 62
     7
370
    50
100
AcDbLine
 10
45.661472
 20
286.140705
 30
0.0
 11
46.911472
 21
295.140705
 31
0.0
  0
INSERT
  5
183
330
1F
100
AcDbEntity
  8
LC-003-005-----0
 62
     7
370
    25
100
AcDbBlockReference
  2
*X78
 10
0.0
 20
0.0
 30
0.0
  0
INSERT
  5
190
330
1F
100
AcDbEntity
  8
LC-003-005-----0
 62
     7
370
    25
100
AcDbBlockReference
  2
*X89
 10
0.0
 20
0.0
 30
0.0
  0
LINE
  5
191
330
1F
100
AcDbEntity
  8
LC-001-002-----0
  6
ByBlock
 62
     7
370
    50
100
AcDbLine
 10
309.661472
 20
296.640705
 30
0.0
 11
309.661472
 21
297.140705
 31
0.0
  0
LINE
  5
192
330
1F
100
AcDbEntity
  8
LC-001-002-----0
  6
ByBlock
 62
     7
370
    50
100
AcDbLine
 10
307.661472
 20
299.140705
 30
0.0
 11
232.237681
 21
299.140705
 31
0.0
  0
LINE
  5
193
330
1F
100
AcDbEntity
  8
LC-001-002-----0
  6
ByBlock
 62
     7
370
    50
100
AcDbLine
 10
221.106708
 20
299.140705
 30
0.0
 11
218.247042
 21
299.140705
 31
0.0
  0
LINE
  5
194
330
1F
100
AcDbEntity
  8
LC-001-002-----0
  6
ByBlock
 62
     7
370
    50
100
AcDbLine
 10
309.661472
 20
296.640705
 30
0.0
 11
262.661472
 21
296.640705
 31
0.0
  0
LINE
  5
195
330
1F
100
AcDbEntity
  8
LC-001-002-----0
  6
ByBlock
 62
     7
370
    50
100
AcDbLine
 10
259.328139
 20
295.140705
 30
0.0
 11
254.661472
 21
295.140705
 31
0.0
  0
LINE
  5
196
330
1F
100
AcDbEntity
  8
LC-001-002-----0
  6
ByBlock
 62
     7
370
    50
100
AcDbLine
 10
254.661472
 20
293.040705
 30
0.0
 11
254.661472
 21
295.140705
 31
0.0
  0
LINE
  5
197
330
1F
100
AcDbEntity
  8
LC-001-002-----0
  6
ByBlock
 62
     7
370
    50
100
AcDbLine
 10
252.661472
 20
292.140705
 30
0.0
 11
252.661472
 21
295.140705
 31
0.0
  0
LINE
  5
198
330
1F
100
AcDbEntity
  8
LC-001-002-----0
  6
ByBlock
 62
     7
370
    50
100
AcDbLine
 10
252.661472
 20
295.140705
 30
0.0
 11
244.661472
 21
295.140705
 31
0.0
  0
LINE
  5
199
330
1F
100
AcDbEntity
  8
LC-001-002-----0
  6
ByBlock
 62
     7
370
    50
100
AcDbLine
 10
244.661472
 20
288.540705
 30
0.0
 11
244.661472
 21
295.140705
 31
0.0
  0
LINE
  5
19A
330
1F
100
AcDbEntity
  8
LC-001-002-----0
  6
ByBlock
 62
     7
370
    50
100
AcDbLine
 10
242.161472
 20
287.415705
 30
0.0
 11
242.161472
 21
295.140705
 31
0.0
  0
LINE
  5
19B
330
1F
100
AcDbEntity
  8
LC-001-002-----0
  6
ByBlock
 62
     7
370
    50
100
AcDbLine
 10
262.661472
 20
296.640705
 30
0.0
 11
259.328139
 21
295.140705
 31
0.0
  0
LINE
  5
19C
330
1F
100
AcDbEntity
  8
LC-001-002-----0
  6
ByBlock
 62
     7
370
    50
100
AcDbLine
 10
244.661472
 20
288.540705
 30
0.0
 11
242.161472
 21
287.415705
 31
0.0
  0
LINE
  5
19D
330
1F
100
AcDbEntity
  8
LC-001-002-----0
  6
ByBlock
 62
     7
370
    50
100
AcDbLine
 10
254.661472
 20
293.040705
 30
0.0
 11
252.661472
 21
292.140705
 31
0.0
  0
LINE
  5
19E
330
1F
100
AcDbEntity
  8
LC-001-002-----0
  6
ByBlock
 62
     7
370
    50
100
AcDbLine
 10
242.161472
 20
295.140705
 30
0.0
 11
234.911472
 21
295.140705
 31
0.0
  0
LINE
  5
19F
330
1F
100
AcDbEntity
  8
LC-001-002-----0
  6
ByBlock
 62
     7
370
    50
100
AcDbLine
 10
233.661472
 20
286.140705
 30
0.0
 11
229.821935
 21
286.140705
 31
0.0
  0
LINE
  5
1A0
330
1F
100
AcDbEntity
  8
LC-001-002-----0
  6
ByBlock
 62
     7
370
    50
100
AcDbLine
 10
223.521935
 20
286.140705
 30
0.0
 11
214.161472
 21
286.140705
 31
0.0
  0
LINE
  5
1A1
330
1F
100
AcDbEntity
  8
LC-001-002-----0
  6
ByBlock
 62
     7
370
    50
100
AcDbLine
 10
230.661472
 20
286.140705
 30
0.0
 11
230.661472
 21
296.136471
 31
0.0
  0
LINE
  5
1A2
330
1F
100
AcDbEntity
  8
LC-001-002-----0
  6
ByBlock
 62
     7
370
    50
100
AcDbLine
 10
214.161472
 20
276.140705
 30
0.0
 11
214.161472
 21
293.078527
 31
0.0
  0
LINE
  5
1A3
330
1F
100
AcDbEntity
  8
LC-001-002-----0
  6
ByBlock
 62
     7
370
    50
100
AcDbLine
 10
209.161472
 20
271.140705
 30
0.0
 11
206.561175
 21
271.140705
 31
0.0
  0
LINE
  5
1A4
330
1F
100
AcDbEntity
  8
LC-001-002-----0
  6
ByBlock
 62
     7
370
    50
100
AcDbLine
 10
214.161472
 20
276.140705
 30
0.0
 11
209.161472
 21
271.140705
 31
0.0
  0
LINE
  5
1A5
330
1F
100
AcDbEntity
  8
LC-001-002-----0
  6
ByBlock
 62
     7
370
    50
100
AcDbLine
 10
206.661472
 20
272.176239
 30
0.0
 11
206.661472
 21
271.140705
 31
0.0
  0
LINE
  5
1A6
330
1F
100
AcDbEntity
  8
LC-001-002-----0
  6
ByBlock
 62
     7
370
    50
100
AcDbLine
 10
211.661472
 20
277.176239
 30
0.0
 11
206.661472
 21
272.176239
 31
0.0
  0
LINE
  5
1A7
330
1F
100
AcDbEntity
  8
LC-001-002-----0
  6
ByBlock
 62
     7
370
    50
100
AcDbLine
 10
211.661472
 20
277.176239
 30
0.0
 11
211.661472
 21
297.140705
 31
0.0
  0
LINE
  5
1A8
330
1F
100
AcDbEntity
  8
LC-001-002-----0
  6
ByBlock
 62
     7
370
    50
100
AcDbLine
 10
215.19737
 20
297.140705
 30
0.0
 11
132.661472
 21
297.140705
 31
0.0
  0
LINE
  5
1A9
330
1F
100
AcDbEntity
  8
LC-001-002-----0
  6
ByBlock
 62
     7
370
    50
100
AcDbLine
 10
218.661472
 20
299.140705
 30
0.0
 11
215.19737
 21
297.140705
 31
0.0
  0
LINE
  5
1AA
330
1F
100
AcDbEntity
  8
LC-001-002-----0
  6
ByBlock
 62
     7
370
    50
100
AcDbLine
 10
217.733269
 20
295.140705
 30
0.0
 11
214.161472
 21
293.078527
 31
0.0
  0
LINE
  5
1AB
330
1F
100
AcDbEntity
  8
LC-001-002-----0
  6
ByBlock
 62
     7
370
    50
100
AcDbLine
 10
242.161472
 20
287.415705
 30
0.0
 11
239.342239
 21
287.415705
 31
0.0
  0
LINE
  5
1AC
330
1F
100
AcDbEntity
  8
LC-001-002-----0
  6
ByBlock
 62
     7
370
    50
100
AcDbLine
 10
252.661472
 20
292.140705
 30
0.0
 11
244.661472
 21
292.140705
 31
0.0
  0
ARC
  5
1AD
330
1F
100
AcDbEntity
  8
LC-002-002-RND-0
 62
     7
370
    50
100
AcDbCircle
 10
307.661472
 20
297.140705
 30
0.0
 40
2.0
100
AcDbArc
 50
0.0
 51
90.0
  0
LINE
  5
1AE
330
1F
100
AcDbEntity
  8
LC-001-002-----0
  6
ByBlock
 62
     7
370
    50
100
AcDbLine
 10
222.661472
 20
296.136857
 30
0.0
 11
222.661472
 21
286.140705
 31
0.0
  0
LINE
  5
1AF
330
1F
100
AcDbEntity
  8
LC-001-002-----0
  6
ByBlock
 62
     7
370
    50
100
AcDbLine
 10
218.411472
 20
295.140705
 30
0.0
 11
217.733269
 21
295.140705
 31
0.0
  0
LINE
  5
1B0
330
1F
100
AcDbEntity
  8
LC-006-006-MLN-0
 62
     7
370
    25
100
AcDbLine
 10
226.661472
 20
309.140705
 30
0.0
 11
226.661472
 21
266.13655
 31
0.0
  0
LINE
  5
1B1
330
1F
100
AcDbEntity
  8
LC-001-002-----0
  6
ByBlock
 62
     7
370
    50
100
AcDbLine
 10
220.422367
 20
296.140705
 30
0.0
 11
220.411472
 21
296.140705
 31
0.0
  0
LINE
  5
1B2
330
1F
100
AcDbEntity
  8
LC-001-002-----0
  6
ByBlock
 62
     7
370
    50
100
AcDbLine
 10
232.911472
 20
299.140705
 30
0.0
 11
232.911472
 21
297.729982
 31
0.0
  0
LINE
  5
1B3
330
1F
100
AcDbEntity
  8
LC-001-002-----0
  6
ByBlock
 62
     7
370
    50
100
AcDbLine
 10
220.411472
 20
299.140705
 30
0.0
 11
220.411472
 21
296.140705
 31
0.0
  0
LINE
  5
1B4
330
1F
100
AcDbEntity
  8
LC-001-002-----0
  6
ByBlock
 62
     7
370
    50
100
AcDbLine
 10
233.661472
 20
286.140705
 30
0.0
 11
234.911472
 21
295.140705
 31
0.0
  0
LINE
  5
1B5
330
1F
100
AcDbEntity
  8
LC-001-002-----0
  6
ByBlock
 62
     7
370
    50
100
AcDbLine
 10
219.661472
 20
286.140705
 30
0.0
 11
218.411472
 21
295.140705
 31
0.0
  0
INSERT
  5
1D2
330
1F
100
AcDbEntity
  8
LC-003-005-----0
 62
     7
370
    25
100
AcDbBlockReference
  2
*X910
 10
0.0
 20
0.0
 30
0.0
  0
INSERT
  5
1E3
330
1F
100
AcDbEntity
  8
LC-003-005-----0
 62
     7
370
    25
100
AcDbBlockReference
  2
*X1011
 10
0.0
 20
0.0
 30
0.0
  0
LINE
  5
1E4
102
{ACAD_REACTORS
330
57F
102
}
330
1F
100
AcDbEntity
  8
LC-001-002-----0
  6
ByBlock
 62
     7
370
    50
100
AcDbLine
 10
229.822135
 20
290.508995
 30
0.0
 11
223.521974
 21
286.871966
 31
0.0
  0
LINE
  5
1E5
102
{ACAD_REACTORS
330
57F
102
}
330
1F
100
AcDbEntity
  8
LC-001-002-----0
  6
ByBlock
 62
     7
370
    50
100
AcDbLine
 10
229.822014
 20
287.544845
 30
0.0
 11
223.521854
 21
283.907816
 31
0.0
  0
LINE
  5
1E6
102
{ACAD_REACTORS
330
57F
102
}
330
1F
100
AcDbEntity
  8
LC-001-002-----0
  6
ByBlock
 62
     7
370
    50
100
AcDbLine
 10
222.922366
 20
296.136852
 30
0.0
 11
220.67237
 21
296.136966
 31
0.0
  0
LINE
  5
1E7
102
{ACAD_REACTORS
330
57F
102
}
330
1F
100
AcDbEntity
  8
LC-001-002-----0
  6
ByBlock
 62
     7
370
    50
100
AcDbLine
 10
230.422366
 20
296.136474
 30
0.0
 11
231.651192
 21
296.136412
 31
0.0
  0
ARC
  5
1E8
102
{ACAD_REACTORS
330
57F
102
}
330
1F
100
AcDbEntity
  8
LC-002-002-RND-0
 62
     7
370
    50
100
AcDbCircle
 10
230.922434
 20
297.671029
 30
0.0
 40
2.000000000000069
100
AcDbArc
 50
359.99747
 51
63.121961
  0
LINE
  5
1E9
102
{ACAD_REACTORS
330
57F
102
}
330
1F
100
AcDbEntity
  8
LC-001-002-----0
  6
ByBlock
 62
     7
370
    50
100
AcDbLine
 10
232.922366
 20
296.136361
 30
0.0
 11
220.422366
 21
296.136965
 31
0.0
  0
LINE
  5
1EA
102
{ACAD_REACTORS
330
57F
102
}
330
1F
100
AcDbEntity
  8
LC-001-002-----0
  6
ByBlock
 62
     7
370
    50
100
AcDbLine
 10
220.422366
 20
296.136965
 30
0.0
 11
220.422434
 21
297.671467
 31
0.0
  0
LINE
  5
1EB
102
{ACAD_REACTORS
330
57F
102
}
330
1F
100
AcDbEntity
  8
LC-001-002-----0
  6
ByBlock
 62
     7
370
    50
100
AcDbLine
 10
229.821739
 20
281.592371
 30
0.0
 11
226.671498
 21
276.13655
 31
0.0
  0
LINE
  5
1EC
102
{ACAD_REACTORS
330
57F
102
}
330
1F
100
AcDbEntity
  8
LC-001-002-----0
  6
ByBlock
 62
     7
370
    50
100
AcDbLine
 10
224.172943
 20
280.464615
 30
0.0
 11
223.521739
 21
281.592649
 31
0.0
  0
LINE
  5
1ED
102
{ACAD_REACTORS
330
57F
102
}
330
1F
100
AcDbEntity
  8
LC-001-002-----0
  6
ByBlock
 62
     7
370
    50
100
AcDbLine
 10
232.922366
 20
296.136361
 30
0.0
 11
232.922434
 21
297.670941
 31
0.0
  0
LINE
  5
1EE
102
{ACAD_REACTORS
330
57F
102
}
330
1F
100
AcDbEntity
  8
LC-001-002-----0
  6
ByBlock
 62
     7
370
    50
100
AcDbLine
 10
223.522286
 20
294.318143
 30
0.0
 11
226.672378
 21
296.136663
 31
0.0
  0
LINE
  5
1EF
102
{ACAD_REACTORS
330
57F
102
}
330
1F
100
AcDbEntity
  8
LC-001-002-----0
  6
ByBlock
 62
     7
370
    50
100
AcDbLine
 10
226.671498
 20
276.13655
 30
0.0
 11
224.172943
 21
280.464615
 31
0.0
  0
LINE
  5
1F0
102
{ACAD_REACTORS
330
57F
102
}
330
1F
100
AcDbEntity
  8
LC-001-002-----0
  6
ByBlock
 62
     7
370
    50
100
AcDbLine
 10
229.821739
 20
281.592371
 30
0.0
 11
229.822366
 21
296.136511
 31
0.0
  0
LINE
  5
1F1
102
{ACAD_REACTORS
330
57F
102
}
330
1F
100
AcDbEntity
  8
LC-001-002-----0
  6
ByBlock
 62
     7
370
    50
100
AcDbLine
 10
229.821826
 20
283.562753
 30
0.0
 11
224.243483
 21
280.342423
 31
0.0
  0
LINE
  5
1F2
102
{ACAD_REACTORS
330
57F
102
}
330
1F
100
AcDbEntity
  8
LC-001-002-----0
  6
ByBlock
 62
     7
370
    50
100
AcDbLine
 10
228.528041
 20
279.351848
 30
0.0
 11
225.743368
 21
277.744281
 31
0.0
  0
LINE
  5
1F3
102
{ACAD_REACTORS
330
57F
102
}
330
1F
100
AcDbEntity
  8
LC-001-002-----0
  6
ByBlock
 62
     7
370
    50
100
AcDbLine
 10
229.822294
 20
294.491069
 30
0.0
 11
223.522133
 21
290.854041
 31
0.0
  0
LINE
  5
1F4
102
{ACAD_REACTORS
330
57F
102
}
330
1F
100
AcDbEntity
  8
LC-001-002-----0
  6
ByBlock
 62
     7
370
    50
100
AcDbLine
 10
223.521739
 20
281.592649
 30
0.0
 11
223.522366
 21
296.136816
 31
0.0
  0
ARC
  5
1F5
102
{ACAD_REACTORS
330
57F
102
}
330
1F
100
AcDbEntity
  8
LC-001-002-----0
  6
ByBlock
 62
     7
370
    50
100
AcDbCircle
 10
226.672089
 20
289.285176
 30
0.0
 40
11.40148749780557
100
AcDbArc
 50
63.121961
 51
116.87332
  0
ARC
  5
1F6
102
{ACAD_REACTORS
330
57F
102
}
330
1F
100
AcDbEntity
  8
LC-002-002-RND-0
 62
     7
370
    50
100
AcDbCircle
 10
222.422434
 20
297.671379
 30
0.0
 40
1.999999999999974
100
AcDbArc
 50
116.87332
 51
179.99747
  0
LINE
  5
1F7
102
{ACAD_REACTORS
330
581
102
}
330
1F
100
AcDbEntity
  8
LC-001-002-----0
  6
ByBlock
 62
     7
370
    50
100
AcDbLine
 10
35.511451
 20
290.513285
 30
0.0
 11
41.811451
 21
286.875978
 31
0.0
  0
LINE
  5
1F8
102
{ACAD_REACTORS
330
581
102
}
330
1F
100
AcDbEntity
  8
LC-001-002-----0
  6
ByBlock
 62
     7
370
    50
100
AcDbLine
 10
35.511441
 20
287.549135
 30
0.0
 11
41.811441
 21
283.911828
 31
0.0
  0
LINE
  5
1F9
102
{ACAD_REACTORS
330
581
102
}
330
1F
100
AcDbEntity
  8
LC-001-002-----0
  6
ByBlock
 62
     7
370
    50
100
AcDbLine
 10
42.411469
 20
296.140838
 30
0.0
 11
44.661464
 21
296.140852
 31
0.0
  0
LINE
  5
1FA
102
{ACAD_REACTORS
330
581
102
}
330
1F
100
AcDbEntity
  8
LC-001-002-----0
  6
ByBlock
 62
     7
370
    50
100
AcDbLine
 10
34.911469
 20
296.140791
 30
0.0
 11
33.682642
 21
296.140783
 31
0.0
  0
ARC
  5
1FB
102
{ACAD_REACTORS
330
581
102
}
330
1F
100
AcDbEntity
  8
LC-002-002-RND-0
 62
     7
370
    50
100
AcDbCircle
 10
34.411468
 20
297.675368
 30
0.0
 40
2.000000000000036
100
AcDbArc
 50
116.875509
 51
180.0
  0
LINE
  5
1FC
102
{ACAD_REACTORS
330
581
102
}
330
1F
100
AcDbEntity
  8
LC-001-002-----0
  6
ByBlock
 62
     7
370
    50
100
AcDbLine
 10
32.411468
 20
296.140788
 30
0.0
 11
44.911468
 21
296.14084
 31
0.0
  0
LINE
  5
1FD
102
{ACAD_REACTORS
330
581
102
}
330
1F
100
AcDbEntity
  8
LC-001-002-----0
  6
ByBlock
 62
     7
370
    50
100
AcDbLine
 10
44.911468
 20
296.14084
 30
0.0
 11
44.911468
 21
297.675342
 31
0.0
  0
LINE
  5
1FE
102
{ACAD_REACTORS
330
581
102
}
330
1F
100
AcDbEntity
  8
LC-001-002-----0
  6
ByBlock
 62
     7
370
    50
100
AcDbLine
 10
35.511454
 20
281.596661
 30
0.0
 11
38.661454
 21
276.140701
 31
0.0
  0
LINE
  5
1FF
102
{ACAD_REACTORS
330
581
102
}
330
1F
100
AcDbEntity
  8
LC-001-002-----0
  6
ByBlock
 62
     7
370
    50
100
AcDbLine
 10
41.160199
 20
280.468655
 30
0.0
 11
41.811454
 21
281.596661
 31
0.0
  0
LINE
  5
200
102
{ACAD_REACTORS
330
581
102
}
330
1F
100
AcDbEntity
  8
LC-001-002-----0
  6
ByBlock
 62
     7
370
    50
100
AcDbLine
 10
32.411468
 20
296.140788
 30
0.0
 11
32.411468
 21
297.675368
 31
0.0
  0
LINE
  5
201
102
{ACAD_REACTORS
330
581
102
}
330
1F
100
AcDbEntity
  8
LC-001-002-----0
  6
ByBlock
 62
     7
370
    50
100
AcDbLine
 10
41.811468
 20
294.322155
 30
0.0
 11
38.661457
 21
296.140814
 31
0.0
  0
LINE
  5
202
102
{ACAD_REACTORS
330
581
102
}
330
1F
100
AcDbEntity
  8
LC-001-002-----0
  6
ByBlock
 62
     7
370
    50
100
AcDbLine
 10
38.661454
 20
276.140701
 30
0.0
 11
41.160199
 21
280.468655
 31
0.0
  0
LINE
  5
203
102
{ACAD_REACTORS
330
581
102
}
330
1F
100
AcDbEntity
  8
LC-001-002-----0
  6
ByBlock
 62
     7
370
    50
100
AcDbLine
 10
35.511454
 20
281.596661
 30
0.0
 11
35.511468
 21
296.140801
 31
0.0
  0
LINE
  5
204
102
{ACAD_REACTORS
330
581
102
}
330
1F
100
AcDbEntity
  8
LC-001-002-----0
  6
ByBlock
 62
     7
370
    50
100
AcDbLine
 10
35.511454
 20
283.567043
 30
0.0
 11
41.089654
 21
280.346467
 31
0.0
  0
LINE
  5
205
102
{ACAD_REACTORS
330
581
102
}
330
1F
100
AcDbEntity
  8
LC-001-002-----0
  6
ByBlock
 62
     7
370
    50
100
AcDbLine
 10
36.805053
 20
279.356081
 30
0.0
 11
39.589654
 21
277.748391
 31
0.0
  0
LINE
  5
206
102
{ACAD_REACTORS
330
581
102
}
330
1F
100
AcDbEntity
  8
LC-001-002-----0
  6
ByBlock
 62
     7
370
    50
100
AcDbLine
 10
35.511468
 20
294.49536
 30
0.0
 11
41.811468
 21
290.858053
 31
0.0
  0
LINE
  5
207
102
{ACAD_REACTORS
330
581
102
}
330
1F
100
AcDbEntity
  8
LC-001-002-----0
  6
ByBlock
 62
     7
370
    50
100
AcDbLine
 10
41.811454
 20
281.596661
 30
0.0
 11
41.811468
 21
296.140828
 31
0.0
  0
ARC
  5
208
102
{ACAD_REACTORS
330
581
102
}
330
1F
100
AcDbEntity
  8
LC-001-002-----0
  6
ByBlock
 62
     7
370
    50
100
AcDbCircle
 10
38.661443
 20
289.289327
 30
0.0
 40
11.4014874978057
100
AcDbArc
 50
63.12415
 51
116.875509
  0
ARC
  5
209
102
{ACAD_REACTORS
330
581
102
}
330
1F
100
AcDbEntity
  8
LC-002-002-RND-0
 62
     7
370
    50
100
AcDbCircle
 10
42.911468
 20
297.675342
 30
0.0
 40
2.0
100
AcDbArc
 50
360.0
 51
63.12415
  0
LINE
  5
20A
330
1F
100
AcDbEntity
  8
LC-001-002-----0
  6
ByBlock
 62
     7
370
    50
100
AcDbLine
 10
29.618592
 20
287.415705
 30
0.0
 11
31.484389
 21
287.415705
 31
0.0
  0
LINE
  5
20B
330
1F
100
AcDbEntity
  8
LC-001-002-----0
  6
ByBlock
 62
     7
370
    50
100
AcDbLine
 10
235.704353
 20
287.415705
 30
0.0
 11
233.838555
 21
287.415705
 31
0.0
  0
DIMENSION
  5
20C
330
1F
100
AcDbEntity
  8
LC-005-003-----0
 62
     7
370
    25
100
AcDbDimension
  2
*D12
 10
299.794249
 20
250.10383
 30
0.0
 11
268.994249
 21
75.438
 31
0.0
 70
   160
  1
301
 71
     5
 42
301.048792
 53
90.0
  3
LC-DIM-L-0140-02-02
100
AcDbAlignedDimension
 13
157.661472
 23
-50.944962
 33
0.0
 14
213.411472
 24
250.10383
 34
0.0
 50
90.0
100
AcDbRotatedDimension
  0
DIMENSION
  5
219
330
1F
100
AcDbEntity
  8
LC-005-003-----0
 62
     7
370
    25
100
AcDbDimension
  2
*D13
 10
343.408599
 20
299.140705
 30
0.0
 11
312.608599
 21
119.394
 31
0.0
 70
   160
  1
350
 71
     5
 42
350.085667
 53
90.0
  3
LC-DIM-L-0140-02-02
100
AcDbAlignedDimension
 13
176.455701
 23
-50.944962
 33
0.0
 14
305.160872
 24
299.140705
 34
0.0
 50
90.0
100
AcDbRotatedDimension
  0
LINE
  5
226
102
{ACAD_REACTORS
330
57B
102
}
330
1F
100
AcDbEntity
  8
LC-001-002-----0
  6
ByBlock
 62
     7
370
    50
100
AcDbLine
 10
70.167953
 20
242.60523
 30
0.0
 11
70.161582
 21
-45.943563
 31
0.0
  0
LINE
  5
227
102
{ACAD_REACTORS
330
57B
102
}
330
1F
100
AcDbEntity
  8
LC-001-002-----0
  6
ByBlock
 62
     7
370
    50
100
AcDbLine
 10
195.167953
 20
242.60247
 30
0.0
 11
195.161582
 21
-45.946322
 31
0.0
  0
LINE
  5
228
102
{ACAD_REACTORS
330
57B
102
}
330
1F
100
AcDbEntity
  8
LC-001-002-----0
  6
ByBlock
 62
     7
370
    50
100
AcDbLine
 10
193.821726
 20
-50.946293
 30
0.0
 11
192.161472
 21
-50.946256
 31
0.0
  0
LINE
  5
229
102
{ACAD_REACTORS
330
57B
102
}
330
1F
100
AcDbEntity
  8
LC-001-002-----0
  6
ByBlock
 62
     7
370
    50
100
AcDbLine
 10
210.418421
 20
263.795981
 30
0.0
 11
132.668421
 21
263.797698
 31
0.0
  0
LINE
  5
22A
102
{ACAD_REACTORS
330
57B
102
}
330
1F
100
AcDbEntity
  8
LC-001-002-----0
  6
ByBlock
 62
     7
370
    50
100
AcDbLine
 10
215.168527
 20
268.545878
 30
0.0
 11
207.865146
 21
268.546039
 31
0.0
  0
LINE
  5
22B
102
{ACAD_REACTORS
330
57B
102
}
330
1F
100
AcDbEntity
  8
LC-001-002-----0
  6
ByBlock
 62
     7
370
    50
100
AcDbLine
 10
71.501218
 20
-50.943592
 30
0.0
 11
73.161472
 21
-50.943629
 31
0.0
  0
LINE
  5
22C
102
{ACAD_REACTORS
330
57B
102
}
330
1F
100
AcDbEntity
  8
LC-001-002-----0
  6
ByBlock
 62
     7
370
    50
100
AcDbLine
 10
218.168461
 20
265.55317
 30
0.0
 11
217.168439
 21
264.553192
 31
0.0
  0
LINE
  5
22D
102
{ACAD_REACTORS
330
57B
102
}
330
1F
100
AcDbEntity
  8
LC-001-002-----0
  6
ByBlock
 62
     7
370
    50
100
AcDbLine
 10
215.418438
 20
264.55323
 30
0.0
 11
213.418394
 21
262.553275
 31
0.0
  0
LINE
  5
22E
102
{ACAD_REACTORS
330
57B
102
}
330
1F
100
AcDbEntity
  8
LC-001-002-----0
  6
ByBlock
 62
     7
370
    50
100
AcDbLine
 10
215.168527
 20
268.545878
 30
0.0
 11
210.418421
 21
263.795981
 31
0.0
  0
LINE
  5
22F
102
{ACAD_REACTORS
330
57B
102
}
330
1F
100
AcDbEntity
  8
LC-001-002-----0
  6
ByBlock
 62
     7
370
    50
100
AcDbLine
 10
54.918421
 20
263.799415
 30
0.0
 11
132.668421
 21
263.797698
 31
0.0
  0
LINE
  5
230
102
{ACAD_REACTORS
330
57B
102
}
330
1F
100
AcDbEntity
  8
LC-001-002-----0
  6
ByBlock
 62
     7
370
    50
100
AcDbLine
 10
50.168525
 20
268.549521
 30
0.0
 11
57.455357
 21
268.54936
 31
0.0
  0
LINE
  5
231
102
{ACAD_REACTORS
330
57B
102
}
330
1F
100
AcDbEntity
  8
LC-001-002-----0
  6
ByBlock
 62
     7
370
    50
100
AcDbLine
 10
47.168459
 20
265.556945
 30
0.0
 11
48.168437
 21
264.556923
 31
0.0
  0
LINE
  5
232
102
{ACAD_REACTORS
330
57B
102
}
330
1F
100
AcDbEntity
  8
LC-001-002-----0
  6
ByBlock
 62
     7
370
    50
100
AcDbLine
 10
49.918438
 20
264.556884
 30
0.0
 11
51.918394
 21
262.55684
 31
0.0
  0
LINE
  5
233
102
{ACAD_REACTORS
330
57B
102
}
330
1F
100
AcDbEntity
  8
LC-001-002-----0
  6
ByBlock
 62
     7
370
    50
100
AcDbLine
 10
50.168525
 20
268.549521
 30
0.0
 11
54.918421
 21
263.799415
 31
0.0
  0
LINE
  5
234
102
{ACAD_REACTORS
330
57B
102
}
330
1F
100
AcDbEntity
  8
LC-001-002-----0
  6
ByBlock
 62
     7
370
    50
100
AcDbLine
 10
48.168437
 20
264.556923
 30
0.0
 11
49.918438
 21
264.556884
 31
0.0
  0
LINE
  5
235
102
{ACAD_REACTORS
330
57B
102
}
330
1F
100
AcDbEntity
  8
LC-001-002-----0
  6
ByBlock
 62
     7
370
    50
100
AcDbLine
 10
50.168525
 20
268.549521
 30
0.0
 11
50.168895
 21
285.301272
 31
0.0
  0
LINE
  5
236
102
{ACAD_REACTORS
330
57B
102
}
330
1F
100
AcDbEntity
  8
LC-001-002-----0
  6
ByBlock
 62
     7
370
    50
100
AcDbLine
 10
31.663735
 20
282.298952
 30
0.0
 11
28.4627
 21
282.298712
 31
0.0
  0
LINE
  5
237
102
{ACAD_REACTORS
330
57B
102
}
330
1F
100
AcDbEntity
  8
LC-001-002-----0
  6
ByBlock
 62
     7
370
    50
100
AcDbLine
 10
47.167384
 20
267.057006
 30
0.0
 11
47.168492
 21
267.057006
 31
0.0
  0
LINE
  5
238
102
{ACAD_REACTORS
330
57B
102
}
330
1F
100
AcDbEntity
  8
LC-001-002-----0
  6
ByBlock
 62
     7
370
    50
100
AcDbLine
 10
54.918185
 20
253.105566
 30
0.0
 11
54.918421
 21
263.799415
 31
0.0
  0
LINE
  5
239
102
{ACAD_REACTORS
330
57B
102
}
330
1F
100
AcDbEntity
  8
LC-001-002-----0
  6
ByBlock
 62
     7
370
    50
100
AcDbLine
 10
63.910826
 20
253.105368
 30
0.0
 11
54.918185
 21
253.105566
 31
0.0
  0
LINE
  5
23A
102
{ACAD_REACTORS
330
57B
102
}
330
1F
100
AcDbEntity
  8
LC-001-002-----0
  6
ByBlock
 62
     7
370
    50
100
AcDbLine
 10
73.161472
 20
-50.943629
 30
0.0
 11
73.167981
 21
243.847804
 31
0.0
  0
LINE
  5
23B
102
{ACAD_REACTORS
330
57B
102
}
330
1F
100
AcDbEntity
  8
LC-001-002-----0
  6
ByBlock
 62
     7
370
    50
100
AcDbLine
 10
51.918394
 20
262.55684
 30
0.0
 11
51.918185
 21
253.105632
 31
0.0
  0
LINE
  5
23C
102
{ACAD_REACTORS
330
57B
102
}
330
1F
100
AcDbEntity
  8
LC-001-002-----0
  6
ByBlock
 62
     7
370
    50
100
AcDbLine
 10
47.168492
 20
267.057241
 30
0.0
 11
47.168459
 21
265.556945
 31
0.0
  0
LINE
  5
23D
102
{ACAD_REACTORS
330
57B
102
}
330
1F
100
AcDbEntity
  8
LC-001-002-----0
  6
ByBlock
 62
     7
370
    50
100
AcDbLine
 10
217.168439
 20
264.553192
 30
0.0
 11
215.418438
 21
264.55323
 31
0.0
  0
LINE
  5
23E
102
{ACAD_REACTORS
330
57B
102
}
330
1F
100
AcDbEntity
  8
LC-001-002-----0
  6
ByBlock
 62
     7
370
    50
100
AcDbLine
 10
215.168527
 20
268.545878
 30
0.0
 11
215.168897
 21
285.297485
 31
0.0
  0
ARC
  5
23F
102
{ACAD_REACTORS
330
57B
102
}
330
1F
100
AcDbEntity
  8
LC-002-002-RND-0
 62
     7
370
    50
100
AcDbCircle
 10
210.418185
 20
253.102133
 30
0.0
 40
2.999999999999983
100
AcDbArc
 50
269.998735
 51
359.998735
  0
LINE
  5
240
102
{ACAD_REACTORS
330
57B
102
}
330
1F
100
AcDbEntity
  8
LC-001-002-----0
  6
ByBlock
 62
     7
370
    50
100
AcDbLine
 10
62.668119
 20
250.105395
 30
0.0
 11
54.918119
 21
250.105566
 31
0.0
  0
LINE
  5
241
102
{ACAD_REACTORS
330
57B
102
}
330
1F
100
AcDbEntity
  8
LC-001-002-----0
  6
ByBlock
 62
     7
370
    50
100
AcDbLine
 10
233.673924
 20
282.294492
 30
0.0
 11
236.874959
 21
282.29411
 31
0.0
  0
LINE
  5
242
102
{ACAD_REACTORS
330
57B
102
}
330
1F
100
AcDbEntity
  8
LC-001-002-----0
  6
ByBlock
 62
     7
370
    50
100
AcDbLine
 10
41.413995
 20
280.908242
 30
0.0
 11
41.414683
 21
271.55508
 31
0.0
  0
LINE
  5
243
102
{ACAD_REACTORS
330
57B
102
}
330
1F
100
AcDbEntity
  8
LC-001-002-----0
  6
ByBlock
 62
     7
370
    50
100
AcDbLine
 10
210.418185
 20
253.102133
 30
0.0
 11
210.418421
 21
263.795981
 31
0.0
  0
LINE
  5
244
102
{ACAD_REACTORS
330
57B
102
}
330
1F
100
AcDbEntity
  8
LC-001-002-----0
  6
ByBlock
 62
     7
370
    50
100
AcDbLine
 10
35.913996
 20
280.899438
 30
0.0
 11
35.914683
 21
271.55508
 31
0.0
  0
LINE
  5
245
102
{ACAD_REACTORS
330
57B
102
}
330
1F
100
AcDbEntity
  8
LC-001-002-----0
  6
ByBlock
 62
     7
370
    50
100
AcDbLine
 10
63.910826
 20
253.105368
 30
0.0
 11
132.668185
 21
253.10385
 31
0.0
  0
LINE
  5
246
102
{ACAD_REACTORS
330
57B
102
}
330
1F
100
AcDbEntity
  8
LC-001-002-----0
  6
ByBlock
 62
     7
370
    50
100
AcDbLine
 10
201.425544
 20
253.102331
 30
0.0
 11
210.418185
 21
253.102133
 31
0.0
  0
LINE
  5
247
102
{ACAD_REACTORS
330
57B
102
}
330
1F
100
AcDbEntity
  8
LC-001-002-----0
  6
ByBlock
 62
     7
370
    50
100
AcDbLine
 10
73.161472
 20
-50.943629
 30
0.0
 11
132.661472
 21
-50.944943
 31
0.0
  0
LINE
  5
248
102
{ACAD_REACTORS
330
57B
102
}
330
1F
100
AcDbEntity
  8
LC-001-002-----0
  6
ByBlock
 62
     7
370
    50
100
AcDbLine
 10
62.668119
 20
250.105395
 30
0.0
 11
70.167953
 21
242.60523
 31
0.0
  0
LINE
  5
249
102
{ACAD_REACTORS
330
57B
102
}
330
1F
100
AcDbEntity
  8
LC-001-002-----0
  6
ByBlock
 62
     7
370
    50
100
AcDbLine
 10
192.161472
 20
-50.946256
 30
0.0
 11
192.167981
 21
243.845177
 31
0.0
  0
LINE
  5
24A
102
{ACAD_REACTORS
330
57B
102
}
330
1F
100
AcDbEntity
  8
LC-001-002-----0
  6
ByBlock
 62
     7
370
    50
100
AcDbLine
 10
63.910826
 20
253.105368
 30
0.0
 11
73.167981
 21
243.847804
 31
0.0
  0
LINE
  5
24B
102
{ACAD_REACTORS
330
57B
102
}
330
1F
100
AcDbEntity
  8
LC-001-002-----0
  6
ByBlock
 62
     7
370
    50
100
AcDbLine
 10
73.167981
 20
243.847804
 30
0.0
 11
132.667981
 21
243.84649
 31
0.0
  0
LINE
  5
24C
102
{ACAD_REACTORS
330
57B
102
}
330
1F
100
AcDbEntity
  8
LC-001-002-----0
  6
ByBlock
 62
     7
370
    50
100
AcDbLine
 10
213.418394
 20
262.553275
 30
0.0
 11
213.418185
 21
253.102067
 31
0.0
  0
LINE
  5
24D
102
{ACAD_REACTORS
330
57B
102
}
330
1F
100
AcDbEntity
  8
LC-001-002-----0
  6
ByBlock
 62
     7
370
    50
100
AcDbLine
 10
70.161582
 20
-45.943563
 30
0.0
 11
71.501218
 21
-50.943592
 31
0.0
  0
ARC
  5
24E
102
{ACAD_REACTORS
330
57B
102
}
330
1F
100
AcDbEntity
  8
LC-002-002-RND-0
 62
     7
370
    50
100
AcDbCircle
 10
54.918185
 20
253.105566
 30
0.0
 40
2.999999999999983
100
AcDbArc
 50
179.998735
 51
269.998735
  0
LINE
  5
24F
102
{ACAD_REACTORS
330
57B
102
}
330
1F
100
AcDbEntity
  8
LC-001-002-----0
  6
ByBlock
 62
     7
370
    50
100
AcDbLine
 10
202.668119
 20
250.102304
 30
0.0
 11
210.418119
 21
250.102133
 31
0.0
  0
LINE
  5
250
102
{ACAD_REACTORS
330
57B
102
}
330
1F
100
AcDbEntity
  8
LC-001-002-----0
  6
ByBlock
 62
     7
370
    50
100
AcDbLine
 10
260.410752
 20
294.052237
 30
0.0
 11
236.354006
 21
285.297017
 31
0.0
  0
LINE
  5
251
102
{ACAD_REACTORS
330
57B
102
}
330
1F
100
AcDbEntity
  8
LC-001-002-----0
  6
ByBlock
 62
     7
370
    50
100
AcDbLine
 10
223.923602
 20
280.89653
 30
0.0
 11
223.922502
 21
271.55508
 31
0.0
  0
LINE
  5
252
102
{ACAD_REACTORS
330
57B
102
}
330
1F
100
AcDbEntity
  8
LC-001-002-----0
  6
ByBlock
 62
     7
370
    50
100
AcDbLine
 10
229.423603
 20
280.902849
 30
0.0
 11
229.422502
 21
271.55508
 31
0.0
  0
LINE
  5
253
102
{ACAD_REACTORS
330
57B
102
}
330
1F
100
AcDbEntity
  8
LC-001-002-----0
  6
ByBlock
 62
     7
370
    50
100
AcDbLine
 10
201.425544
 20
253.102331
 30
0.0
 11
132.668185
 21
253.10385
 31
0.0
  0
LINE
  5
254
102
{ACAD_REACTORS
330
57B
102
}
330
1F
100
AcDbEntity
  8
LC-001-002-----0
  6
ByBlock
 62
     7
370
    50
100
AcDbLine
 10
192.161472
 20
-50.946256
 30
0.0
 11
132.661472
 21
-50.944943
 31
0.0
  0
LINE
  5
255
102
{ACAD_REACTORS
330
57B
102
}
330
1F
100
AcDbEntity
  8
LC-001-002-----0
  6
ByBlock
 62
     7
370
    50
100
AcDbLine
 10
202.668119
 20
250.102304
 30
0.0
 11
195.167953
 21
242.60247
 31
0.0
  0
LINE
  5
256
102
{ACAD_REACTORS
330
57B
102
}
330
1F
100
AcDbEntity
  8
LC-001-002-----0
  6
ByBlock
 62
     7
370
    50
100
AcDbLine
 10
201.425544
 20
253.102331
 30
0.0
 11
192.167981
 21
243.845177
 31
0.0
  0
LINE
  5
257
102
{ACAD_REACTORS
330
57B
102
}
330
1F
100
AcDbEntity
  8
LC-001-002-----0
  6
ByBlock
 62
     7
370
    50
100
AcDbLine
 10
192.167981
 20
243.845177
 30
0.0
 11
132.667981
 21
243.84649
 31
0.0
  0
LINE
  5
258
102
{ACAD_REACTORS
330
57B
102
}
330
1F
100
AcDbEntity
  8
LC-001-002-----0
  6
ByBlock
 62
     7
370
    50
100
AcDbLine
 10
195.161582
 20
-45.946322
 30
0.0
 11
193.821726
 21
-50.946293
 31
0.0
  0
LINE
  5
259
102
{ACAD_REACTORS
330
57B
102
}
330
1F
100
AcDbEntity
  8
LC-001-002-----0
  6
ByBlock
 62
     7
370
    50
100
AcDbLine
 10
260.410752
 20
294.052237
 30
0.0
 11
307.669089
 21
294.051194
 31
0.0
  0
LINE
  5
25A
102
{ACAD_REACTORS
330
57B
102
}
330
1F
100
AcDbEntity
  8
LC-001-002-----0
  6
ByBlock
 62
     7
370
    50
100
AcDbLine
 10
309.669045
 20
292.051149
 30
0.0
 11
309.669023
 21
291.051149
 31
0.0
  0
LINE
  5
25B
102
{ACAD_REACTORS
330
57B
102
}
330
1F
100
AcDbEntity
  8
LC-001-002-----0
  6
ByBlock
 62
     7
370
    50
100
AcDbLine
 10
260.93966
 20
291.052225
 30
0.0
 11
309.669023
 21
291.051149
 31
0.0
  0
LINE
  5
25C
102
{ACAD_REACTORS
330
57B
102
}
330
1F
100
AcDbEntity
  8
LC-001-002-----0
  6
ByBlock
 62
     7
370
    50
100
AcDbLine
 10
260.93966
 20
291.052225
 30
0.0
 11
236.874959
 21
282.29411
 31
0.0
  0
LINE
  5
25D
102
{ACAD_REACTORS
330
57B
102
}
330
1F
100
AcDbEntity
  8
LC-001-002-----0
  6
ByBlock
 62
     7
370
    50
100
AcDbLine
 10
4.927426
 20
294.057878
 30
0.0
 11
-42.330911
 21
294.058921
 31
0.0
  0
LINE
  5
25E
102
{ACAD_REACTORS
330
57B
102
}
330
1F
100
AcDbEntity
  8
LC-001-002-----0
  6
ByBlock
 62
     7
370
    50
100
AcDbLine
 10
4.398386
 20
291.057889
 30
0.0
 11
-44.330977
 21
291.058965
 31
0.0
  0
LINE
  5
25F
102
{ACAD_REACTORS
330
57B
102
}
330
1F
100
AcDbEntity
  8
LC-001-002-----0
  6
ByBlock
 62
     7
370
    50
100
AcDbLine
 10
4.398386
 20
291.057889
 30
0.0
 11
28.4627
 21
282.298712
 31
0.0
  0
LINE
  5
260
102
{ACAD_REACTORS
330
57B
102
}
330
1F
100
AcDbEntity
  8
LC-001-002-----0
  6
ByBlock
 62
     7
370
    50
100
AcDbLine
 10
4.927426
 20
294.057878
 30
0.0
 11
28.983786
 21
285.301595
 31
0.0
  0
LINE
  5
261
102
{ACAD_REACTORS
330
57B
102
}
330
1F
100
AcDbEntity
  8
LC-001-002-----0
  6
ByBlock
 62
     7
370
    50
100
AcDbLine
 10
-44.330955
 20
292.058965
 30
0.0
 11
-44.330977
 21
291.058965
 31
0.0
  0
ARC
  5
262
102
{ACAD_REACTORS
330
57B
102
}
330
1F
100
AcDbEntity
  8
LC-002-002-RND-0
 62
     7
370
    50
100
AcDbCircle
 10
-42.330955
 20
292.058921
 30
0.0
 40
1.999999999999989
100
AcDbArc
 50
89.998735
 51
179.998735
  0
ARC
  5
263
102
{ACAD_REACTORS
330
57B
102
}
330
1F
100
AcDbEntity
  8
LC-002-002-RND-0
 62
     7
370
    50
100
AcDbCircle
 10
307.669045
 20
292.051194
 30
0.0
 40
1.999999999999989
100
AcDbArc
 50
359.998735
 51
89.998735
  0
LINE
  5
264
102
{ACAD_REACTORS
330
57B
102
}
330
1F
100
AcDbEntity
  8
LC-001-002-----0
  6
ByBlock
 62
     7
370
    50
100
AcDbLine
 10
28.983786
 20
285.301595
 30
0.0
 11
35.511457
 21
285.301451
 31
0.0
  0
LINE
  5
265
102
{ACAD_REACTORS
330
57B
102
}
330
1F
100
AcDbEntity
  8
LC-001-002-----0
  6
ByBlock
 62
     7
370
    50
100
AcDbLine
 10
232.673987
 20
281.294611
 30
0.0
 11
233.673924
 21
282.294492
 31
0.0
  0
LINE
  5
266
102
{ACAD_REACTORS
330
57B
102
}
330
1F
100
AcDbEntity
  8
LC-001-002-----0
  6
ByBlock
 62
     7
370
    50
100
AcDbLine
 10
32.662883
 20
281.299772
 30
0.0
 11
31.663735
 21
282.298952
 31
0.0
  0
LINE
  5
267
102
{ACAD_REACTORS
330
57B
102
}
330
1F
100
AcDbEntity
  8
LC-001-002-----0
  6
ByBlock
 62
     7
370
    50
100
AcDbLine
 10
41.811457
 20
285.301312
 30
0.0
 11
50.168895
 21
285.301128
 31
0.0
  0
ARC
  5
268
102
{ACAD_REACTORS
330
57E
102
}
330
1F
100
AcDbEntity
  8
LC-001-002-----0
  6
ByBlock
 62
     7
370
    50
100
AcDbCircle
 10
53.825802
 20
184.389286
 30
0.0
 40
0.665918772243856
100
AcDbArc
 50
90.0
 51
264.0
  0
INSERT
  5
2A7
102
{ACAD_REACTORS
330
57E
102
}
330
1F
100
AcDbEntity
  8
LC-003-005-----0
 62
     7
370
    25
100
AcDbBlockReference
  2
*X1114
 10
0.0
 20
0.0
 30
0.0
  0
ARC
  5
2A8
102
{ACAD_REACTORS
330
57E
102
}
330
1F
100
AcDbEntity
  8
LC-002-002-RND-0
 62
     7
370
    50
100
AcDbCircle
 10
68.159883
 20
181.575483
 30
0.0
 40
1.0
100
AcDbArc
 50
360.0
 51
84.0
  0
ARC
  5
2A9
102
{ACAD_REACTORS
330
57E
102
}
330
1F
100
AcDbEntity
  8
LC-002-002-RND-0
 62
     7
370
    50
100
AcDbCircle
 10
197.159883
 20
181.575483
 30
0.0
 40
1.000000000000048
100
AcDbArc
 50
96.0
 51
180.0
  0
ARC
  5
2AA
102
{ACAD_REACTORS
330
57E
102
}
330
1F
100
AcDbEntity
  8
LC-002-002-RND-0
 62
     7
370
    50
100
AcDbCircle
 10
68.659883
 20
173.225039
 30
0.0
 40
0.5
100
AcDbArc
 50
270.0
 51
360.0
  0
LINE
  5
2AB
102
{ACAD_REACTORS
330
57E
102
}
330
1F
100
AcDbEntity
  8
LC-001-002-----0
  6
ByBlock
 62
     7
370
    50
100
AcDbLine
 10
69.159883
 20
-40.367499
 30
0.0
 11
69.159883
 21
-40.444943
 31
0.0
  0
ARC
  5
2AC
102
{ACAD_REACTORS
330
57E
102
}
330
1F
100
AcDbEntity
  8
LC-001-002-----0
  6
ByBlock
 62
     7
370
    50
100
AcDbCircle
 10
53.825802
 20
159.728955
 30
0.0
 40
0.665918772243856
100
AcDbArc
 50
90.0
 51
264.0
  0
ARC
  5
2AD
102
{ACAD_REACTORS
330
57E
102
}
330
1F
100
AcDbEntity
  8
LC-001-002-----0
  6
ByBlock
 62
     7
370
    50
100
AcDbCircle
 10
53.825802
 20
172.059121
 30
0.0
 40
0.665918772243856
100
AcDbArc
 50
90.0
 51
264.0
  0
LINE
  5
2AE
102
{ACAD_REACTORS
330
57E
102
}
330
1F
100
AcDbEntity
  8
LC-001-002-----0
  6
ByBlock
 62
     7
370
    50
100
AcDbLine
 10
196.159883
 20
-40.367499
 30
0.0
 11
196.159883
 21
-40.444943
 31
0.0
  0
ARC
  5
2AF
102
{ACAD_REACTORS
330
57E
102
}
330
1F
100
AcDbEntity
  8
LC-002-002-RND-0
 62
     7
370
    50
100
AcDbCircle
 10
68.159883
 20
169.245318
 30
0.0
 40
1.0
100
AcDbArc
 50
360.0
 51
84.0
  0
LINE
  5
2B0
102
{ACAD_REACTORS
330
57E
102
}
330
1F
100
AcDbEntity
  8
LC-001-002-----0
  6
ByBlock
 62
     7
370
    50
100
AcDbLine
 10
211.493965
 20
185.055205
 30
0.0
 11
195.159883
 21
185.055205
 31
0.0
  0
LINE
  5
2B1
102
{ACAD_REACTORS
330
57E
102
}
330
1F
100
AcDbEntity
  8
LC-001-002-----0
  6
ByBlock
 62
     7
370
    50
100
AcDbLine
 10
53.825802
 20
172.725039
 30
0.0
 11
68.659883
 21
172.725039
 31
0.0
  0
LINE
  5
2B2
102
{ACAD_REACTORS
330
57E
102
}
330
1F
100
AcDbEntity
  8
LC-001-002-----0
  6
ByBlock
 62
     7
370
    50
100
AcDbLine
 10
53.756195
 20
171.39685
 30
0.0
 11
68.264412
 21
170.23984
 31
0.0
  0
LINE
  5
2B3
102
{ACAD_REACTORS
330
57E
102
}
330
1F
100
AcDbEntity
  8
LC-001-002-----0
  6
ByBlock
 62
     7
370
    50
100
AcDbLine
 10
196.159883
 20
136.234542
 30
0.0
 11
196.159883
 21
144.584986
 31
0.0
  0
ARC
  5
2B4
102
{ACAD_REACTORS
330
57E
102
}
330
1F
100
AcDbEntity
  8
LC-002-002-RND-0
 62
     7
370
    50
100
AcDbCircle
 10
68.159883
 20
156.915152
 30
0.0
 40
1.0
100
AcDbArc
 50
360.0
 51
84.0
  0
LINE
  5
2B5
102
{ACAD_REACTORS
330
57E
102
}
330
1F
100
AcDbEntity
  8
LC-001-002-----0
  6
ByBlock
 62
     7
370
    50
100
AcDbLine
 10
53.825802
 20
160.394874
 30
0.0
 11
68.659883
 21
160.394874
 31
0.0
  0
LINE
  5
2B6
102
{ACAD_REACTORS
330
57E
102
}
330
1F
100
AcDbEntity
  8
LC-001-002-----0
  6
ByBlock
 62
     7
370
    50
100
AcDbLine
 10
53.756195
 20
159.066684
 30
0.0
 11
68.264412
 21
157.909674
 31
0.0
  0
ARC
  5
2B7
102
{ACAD_REACTORS
330
57E
102
}
330
1F
100
AcDbEntity
  8
LC-002-002-RND-0
 62
     7
370
    50
100
AcDbCircle
 10
197.159883
 20
-40.367499
 30
0.0
 40
0.9999999999999999
100
AcDbArc
 50
96.0
 51
180.0
  0
ARC
  5
2B8
102
{ACAD_REACTORS
330
57E
102
}
330
1F
100
AcDbEntity
  8
LC-001-002-----0
  6
ByBlock
 62
     7
370
    50
100
AcDbCircle
 10
53.825802
 20
147.398789
 30
0.0
 40
0.665918772243856
100
AcDbArc
 50
90.0
 51
264.0
  0
ARC
  5
2B9
102
{ACAD_REACTORS
330
57E
102
}
330
1F
100
AcDbEntity
  8
LC-002-002-RND-0
 62
     7
370
    50
100
AcDbCircle
 10
68.159883
 20
144.584986
 30
0.0
 40
1.0
100
AcDbArc
 50
360.0
 51
84.0
  0
LINE
  5
2BA
102
{ACAD_REACTORS
330
57E
102
}
330
1F
100
AcDbEntity
  8
LC-001-002-----0
  6
ByBlock
 62
     7
370
    50
100
AcDbLine
 10
53.825802
 20
148.064708
 30
0.0
 11
68.659883
 21
148.064708
 31
0.0
  0
LINE
  5
2BB
102
{ACAD_REACTORS
330
57E
102
}
330
1F
100
AcDbEntity
  8
LC-001-002-----0
  6
ByBlock
 62
     7
370
    50
100
AcDbLine
 10
53.756195
 20
146.736518
 30
0.0
 11
68.264412
 21
145.579508
 31
0.0
  0
LINE
  5
2BC
102
{ACAD_REACTORS
330
57E
102
}
330
1F
100
AcDbEntity
  8
LC-001-002-----0
  6
ByBlock
 62
     7
370
    50
100
AcDbLine
 10
196.159883
 20
160.894874
 30
0.0
 11
196.159883
 21
169.245318
 31
0.0
  0
ARC
  5
2BD
102
{ACAD_REACTORS
330
57E
102
}
330
1F
100
AcDbEntity
  8
LC-001-002-----0
  6
ByBlock
 62
     7
370
    50
100
AcDbCircle
 10
53.825802
 20
135.068624
 30
0.0
 40
0.665918772243856
100
AcDbArc
 50
90.0
 51
264.0
  0
ARC
  5
2BE
102
{ACAD_REACTORS
330
57E
102
}
330
1F
100
AcDbEntity
  8
LC-002-002-RND-0
 62
     7
370
    50
100
AcDbCircle
 10
68.159883
 20
132.254821
 30
0.0
 40
1.0
100
AcDbArc
 50
360.0
 51
84.0
  0
LINE
  5
2BF
102
{ACAD_REACTORS
330
57E
102
}
330
1F
100
AcDbEntity
  8
LC-001-002-----0
  6
ByBlock
 62
     7
370
    50
100
AcDbLine
 10
53.825802
 20
135.734542
 30
0.0
 11
68.659883
 21
135.734542
 31
0.0
  0
LINE
  5
2C0
102
{ACAD_REACTORS
330
57E
102
}
330
1F
100
AcDbEntity
  8
LC-001-002-----0
  6
ByBlock
 62
     7
370
    50
100
AcDbLine
 10
53.756195
 20
134.406353
 30
0.0
 11
68.264412
 21
133.249343
 31
0.0
  0
LINE
  5
2C1
102
{ACAD_REACTORS
330
57E
102
}
330
1F
100
AcDbEntity
  8
LC-001-002-----0
  6
ByBlock
 62
     7
370
    50
100
AcDbLine
 10
196.159883
 20
111.574211
 30
0.0
 11
196.159883
 21
119.924655
 31
0.0
  0
LINE
  5
2C2
102
{ACAD_REACTORS
330
57E
102
}
330
1F
100
AcDbEntity
  8
LC-001-002-----0
  6
ByBlock
 62
     7
370
    50
100
AcDbLine
 10
196.159883
 20
86.91388
 30
0.0
 11
196.159883
 21
95.264324
 31
0.0
  0
LINE
  5
2C3
102
{ACAD_REACTORS
330
57E
102
}
330
1F
100
AcDbEntity
  8
LC-001-002-----0
  6
ByBlock
 62
     7
370
    50
100
AcDbLine
 10
196.159883
 20
173.225039
 30
0.0
 11
196.159883
 21
181.575483
 31
0.0
  0
ARC
  5
2C4
102
{ACAD_REACTORS
330
57E
102
}
330
1F
100
AcDbEntity
  8
LC-001-002-----0
  6
ByBlock
 62
     7
370
    50
100
AcDbCircle
 10
53.825802
 20
122.738458
 30
0.0
 40
0.665918772243856
100
AcDbArc
 50
90.0
 51
264.0
  0
ARC
  5
2C5
102
{ACAD_REACTORS
330
57E
102
}
330
1F
100
AcDbEntity
  8
LC-002-002-RND-0
 62
     7
370
    50
100
AcDbCircle
 10
68.159883
 20
119.924655
 30
0.0
 40
1.0
100
AcDbArc
 50
360.0
 51
84.0
  0
LINE
  5
2C6
102
{ACAD_REACTORS
330
57E
102
}
330
1F
100
AcDbEntity
  8
LC-001-002-----0
  6
ByBlock
 62
     7
370
    50
100
AcDbLine
 10
53.825802
 20
123.404377
 30
0.0
 11
68.659883
 21
123.404377
 31
0.0
  0
LINE
  5
2C7
102
{ACAD_REACTORS
330
57E
102
}
330
1F
100
AcDbEntity
  8
LC-001-002-----0
  6
ByBlock
 62
     7
370
    50
100
AcDbLine
 10
53.756195
 20
122.076187
 30
0.0
 11
68.264412
 21
120.919177
 31
0.0
  0
LINE
  5
2C8
102
{ACAD_REACTORS
330
57E
102
}
330
1F
100
AcDbEntity
  8
LC-001-002-----0
  6
ByBlock
 62
     7
370
    50
100
AcDbLine
 10
196.159883
 20
148.564708
 30
0.0
 11
196.159883
 21
156.915152
 31
0.0
  0
ARC
  5
2C9
102
{ACAD_REACTORS
330
57E
102
}
330
1F
100
AcDbEntity
  8
LC-001-002-----0
  6
ByBlock
 62
     7
370
    50
100
AcDbCircle
 10
53.825802
 20
110.408292
 30
0.0
 40
0.665918772243856
100
AcDbArc
 50
90.0
 51
264.0
  0
ARC
  5
2CA
102
{ACAD_REACTORS
330
57E
102
}
330
1F
100
AcDbEntity
  8
LC-002-002-RND-0
 62
     7
370
    50
100
AcDbCircle
 10
68.159883
 20
107.594489
 30
0.0
 40
1.0
100
AcDbArc
 50
360.0
 51
84.0
  0
LINE
  5
2CB
102
{ACAD_REACTORS
330
57E
102
}
330
1F
100
AcDbEntity
  8
LC-001-002-----0
  6
ByBlock
 62
     7
370
    50
100
AcDbLine
 10
53.825802
 20
111.074211
 30
0.0
 11
68.659883
 21
111.074211
 31
0.0
  0
LINE
  5
2CC
102
{ACAD_REACTORS
330
57E
102
}
330
1F
100
AcDbEntity
  8
LC-001-002-----0
  6
ByBlock
 62
     7
370
    50
100
AcDbLine
 10
53.756195
 20
109.746021
 30
0.0
 11
68.264412
 21
108.589011
 31
0.0
  0
LINE
  5
2CD
102
{ACAD_REACTORS
330
57E
102
}
330
1F
100
AcDbEntity
  8
LC-001-002-----0
  6
ByBlock
 62
     7
370
    50
100
AcDbLine
 10
196.159883
 20
123.904377
 30
0.0
 11
196.159883
 21
132.254821
 31
0.0
  0
ARC
  5
2CE
102
{ACAD_REACTORS
330
57E
102
}
330
1F
100
AcDbEntity
  8
LC-001-002-----0
  6
ByBlock
 62
     7
370
    50
100
AcDbCircle
 10
53.825802
 20
98.078127
 30
0.0
 40
0.665918772243856
100
AcDbArc
 50
90.0
 51
264.0
  0
ARC
  5
2CF
102
{ACAD_REACTORS
330
57E
102
}
330
1F
100
AcDbEntity
  8
LC-002-002-RND-0
 62
     7
370
    50
100
AcDbCircle
 10
68.159883
 20
95.264324
 30
0.0
 40
1.0
100
AcDbArc
 50
360.0
 51
84.0
  0
LINE
  5
2D0
102
{ACAD_REACTORS
330
57E
102
}
330
1F
100
AcDbEntity
  8
LC-001-002-----0
  6
ByBlock
 62
     7
370
    50
100
AcDbLine
 10
53.825802
 20
98.744045
 30
0.0
 11
68.659883
 21
98.744045
 31
0.0
  0
LINE
  5
2D1
102
{ACAD_REACTORS
330
57E
102
}
330
1F
100
AcDbEntity
  8
LC-001-002-----0
  6
ByBlock
 62
     7
370
    50
100
AcDbLine
 10
53.756195
 20
97.415856
 30
0.0
 11
68.264412
 21
96.258846
 31
0.0
  0
LINE
  5
2D2
102
{ACAD_REACTORS
330
57E
102
}
330
1F
100
AcDbEntity
  8
LC-001-002-----0
  6
ByBlock
 62
     7
370
    50
100
AcDbLine
 10
196.159883
 20
99.244045
 30
0.0
 11
196.159883
 21
107.594489
 31
0.0
  0
ARC
  5
2D3
102
{ACAD_REACTORS
330
57E
102
}
330
1F
100
AcDbEntity
  8
LC-001-002-----0
  6
ByBlock
 62
     7
370
    50
100
AcDbCircle
 10
53.825802
 20
85.747961
 30
0.0
 40
0.665918772243856
100
AcDbArc
 50
90.0
 51
264.0
  0
ARC
  5
2D4
102
{ACAD_REACTORS
330
57E
102
}
330
1F
100
AcDbEntity
  8
LC-002-002-RND-0
 62
     7
370
    50
100
AcDbCircle
 10
68.159883
 20
82.934158
 30
0.0
 40
1.0
100
AcDbArc
 50
360.0
 51
84.0
  0
LINE
  5
2D5
102
{ACAD_REACTORS
330
57E
102
}
330
1F
100
AcDbEntity
  8
LC-001-002-----0
  6
ByBlock
 62
     7
370
    50
100
AcDbLine
 10
53.825802
 20
185.055205
 30
0.0
 11
70.159883
 21
185.055205
 31
0.0
  0
LINE
  5
2D6
102
{ACAD_REACTORS
330
57E
102
}
330
1F
100
AcDbEntity
  8
LC-001-002-----0
  6
ByBlock
 62
     7
370
    50
100
AcDbLine
 10
53.825802
 20
86.41388
 30
0.0
 11
68.659883
 21
86.41388
 31
0.0
  0
LINE
  5
2D7
102
{ACAD_REACTORS
330
57E
102
}
330
1F
100
AcDbEntity
  8
LC-001-002-----0
  6
ByBlock
 62
     7
370
    50
100
AcDbLine
 10
196.159883
 20
74.583714
 30
0.0
 11
196.159883
 21
82.934158
 31
0.0
  0
LINE
  5
2D8
102
{ACAD_REACTORS
330
57E
102
}
330
1F
100
AcDbEntity
  8
LC-001-002-----0
  6
ByBlock
 62
     7
370
    50
100
AcDbLine
 10
53.756195
 20
85.08569
 30
0.0
 11
68.264412
 21
83.92868
 31
0.0
  0
LINE
  5
2D9
102
{ACAD_REACTORS
330
57E
102
}
330
1F
100
AcDbEntity
  8
LC-001-002-----0
  6
ByBlock
 62
     7
370
    50
100
AcDbLine
 10
196.159883
 20
62.253548
 30
0.0
 11
196.159883
 21
70.603992
 31
0.0
  0
ARC
  5
2DA
102
{ACAD_REACTORS
330
57E
102
}
330
1F
100
AcDbEntity
  8
LC-001-002-----0
  6
ByBlock
 62
     7
370
    50
100
AcDbCircle
 10
53.825802
 20
73.417795
 30
0.0
 40
0.665918772243856
100
AcDbArc
 50
90.0
 51
264.0
  0
ARC
  5
2DB
102
{ACAD_REACTORS
330
57E
102
}
330
1F
100
AcDbEntity
  8
LC-002-002-RND-0
 62
     7
370
    50
100
AcDbCircle
 10
68.159883
 20
70.603992
 30
0.0
 40
1.0
100
AcDbArc
 50
360.0
 51
84.0
  0
LINE
  5
2DC
102
{ACAD_REACTORS
330
57E
102
}
330
1F
100
AcDbEntity
  8
LC-001-002-----0
  6
ByBlock
 62
     7
370
    50
100
AcDbLine
 10
53.825802
 20
74.083714
 30
0.0
 11
68.659883
 21
74.083714
 31
0.0
  0
LINE
  5
2DD
102
{ACAD_REACTORS
330
57E
102
}
330
1F
100
AcDbEntity
  8
LC-001-002-----0
  6
ByBlock
 62
     7
370
    50
100
AcDbLine
 10
53.756195
 20
72.755524
 30
0.0
 11
68.264412
 21
71.598514
 31
0.0
  0
LINE
  5
2DE
102
{ACAD_REACTORS
330
57E
102
}
330
1F
100
AcDbEntity
  8
LC-001-002-----0
  6
ByBlock
 62
     7
370
    50
100
AcDbLine
 10
196.159883
 20
49.923383
 30
0.0
 11
196.159883
 21
58.273827
 31
0.0
  0
ARC
  5
2DF
102
{ACAD_REACTORS
330
57E
102
}
330
1F
100
AcDbEntity
  8
LC-001-002-----0
  6
ByBlock
 62
     7
370
    50
100
AcDbCircle
 10
53.825802
 20
61.08763
 30
0.0
 40
0.665918772243856
100
AcDbArc
 50
90.0
 51
264.0
  0
ARC
  5
2E0
102
{ACAD_REACTORS
330
57E
102
}
330
1F
100
AcDbEntity
  8
LC-002-002-RND-0
 62
     7
370
    50
100
AcDbCircle
 10
68.159883
 20
58.273827
 30
0.0
 40
1.0
100
AcDbArc
 50
360.0
 51
84.0
  0
LINE
  5
2E1
102
{ACAD_REACTORS
330
57E
102
}
330
1F
100
AcDbEntity
  8
LC-001-002-----0
  6
ByBlock
 62
     7
370
    50
100
AcDbLine
 10
53.825802
 20
61.753548
 30
0.0
 11
68.659883
 21
61.753548
 31
0.0
  0
LINE
  5
2E2
102
{ACAD_REACTORS
330
57E
102
}
330
1F
100
AcDbEntity
  8
LC-001-002-----0
  6
ByBlock
 62
     7
370
    50
100
AcDbLine
 10
53.756195
 20
60.425359
 30
0.0
 11
68.264412
 21
59.268349
 31
0.0
  0
LINE
  5
2E3
102
{ACAD_REACTORS
330
57E
102
}
330
1F
100
AcDbEntity
  8
LC-001-002-----0
  6
ByBlock
 62
     7
370
    50
100
AcDbLine
 10
196.159883
 20
37.593217
 30
0.0
 11
196.159883
 21
45.943661
 31
0.0
  0
LINE
  5
2E4
102
{ACAD_REACTORS
330
57E
102
}
330
1F
100
AcDbEntity
  8
LC-001-002-----0
  6
ByBlock
 62
     7
370
    50
100
AcDbLine
 10
69.159883
 20
136.234542
 30
0.0
 11
69.159883
 21
144.584986
 31
0.0
  0
ARC
  5
2E5
102
{ACAD_REACTORS
330
57E
102
}
330
1F
100
AcDbEntity
  8
LC-002-002-RND-0
 62
     7
370
    50
100
AcDbCircle
 10
68.159883
 20
-40.367499
 30
0.0
 40
1.0
100
AcDbArc
 50
360.0
 51
84.0
  0
LINE
  5
2E6
102
{ACAD_REACTORS
330
57E
102
}
330
1F
100
AcDbEntity
  8
LC-001-002-----0
  6
ByBlock
 62
     7
370
    50
100
AcDbLine
 10
69.159883
 20
160.894874
 30
0.0
 11
69.159883
 21
169.245318
 31
0.0
  0
LINE
  5
2E7
102
{ACAD_REACTORS
330
57E
102
}
330
1F
100
AcDbEntity
  8
LC-001-002-----0
  6
ByBlock
 62
     7
370
    50
100
AcDbLine
 10
196.159883
 20
25.263051
 30
0.0
 11
196.159883
 21
33.613495
 31
0.0
  0
LINE
  5
2E8
102
{ACAD_REACTORS
330
57E
102
}
330
1F
100
AcDbEntity
  8
LC-001-002-----0
  6
ByBlock
 62
     7
370
    50
100
AcDbLine
 10
196.159883
 20
12.932886
 30
0.0
 11
196.159883
 21
21.28333
 31
0.0
  0
ARC
  5
2E9
102
{ACAD_REACTORS
330
57E
102
}
330
1F
100
AcDbEntity
  8
LC-001-002-----0
  6
ByBlock
 62
     7
370
    50
100
AcDbCircle
 10
53.825802
 20
48.757464
 30
0.0
 40
0.665918772243856
100
AcDbArc
 50
90.0
 51
264.0
  0
LINE
  5
2EA
102
{ACAD_REACTORS
330
57E
102
}
330
1F
100
AcDbEntity
  8
LC-001-002-----0
  6
ByBlock
 62
     7
370
    50
100
AcDbLine
 10
196.159883
 20
0.60272
 30
0.0
 11
196.159883
 21
8.953164
 31
0.0
  0
ARC
  5
2EB
102
{ACAD_REACTORS
330
57E
102
}
330
1F
100
AcDbEntity
  8
LC-002-002-RND-0
 62
     7
370
    50
100
AcDbCircle
 10
68.159883
 20
45.943661
 30
0.0
 40
1.0
100
AcDbArc
 50
360.0
 51
84.0
  0
LINE
  5
2EC
102
{ACAD_REACTORS
330
57E
102
}
330
1F
100
AcDbEntity
  8
LC-001-002-----0
  6
ByBlock
 62
     7
370
    50
100
AcDbLine
 10
196.159883
 20
-11.727446
 30
0.0
 11
196.159883
 21
-3.377002
 31
0.0
  0
LINE
  5
2ED
102
{ACAD_REACTORS
330
57E
102
}
330
1F
100
AcDbEntity
  8
LC-001-002-----0
  6
ByBlock
 62
     7
370
    50
100
AcDbLine
 10
196.159883
 20
-24.057611
 30
0.0
 11
196.159883
 21
-15.707167
 31
0.0
  0
ARC
  5
2EE
102
{ACAD_REACTORS
330
57E
102
}
330
1F
100
AcDbEntity
  8
LC-002-002-RND-0
 62
     7
370
    50
100
AcDbCircle
 10
196.659883
 20
160.894874
 30
0.0
 40
0.5
100
AcDbArc
 50
180.0
 51
270.0
  0
ARC
  5
2EF
102
{ACAD_REACTORS
330
57E
102
}
330
1F
100
AcDbEntity
  8
LC-002-002-RND-0
 62
     7
370
    50
100
AcDbCircle
 10
196.659883
 20
123.904377
 30
0.0
 40
0.5
100
AcDbArc
 50
180.0
 51
270.0
  0
ARC
  5
2F0
102
{ACAD_REACTORS
330
57E
102
}
330
1F
100
AcDbEntity
  8
LC-002-002-RND-0
 62
     7
370
    50
100
AcDbCircle
 10
196.659883
 20
111.574211
 30
0.0
 40
0.5
100
AcDbArc
 50
180.0
 51
270.0
  0
LINE
  5
2F1
102
{ACAD_REACTORS
330
57E
102
}
330
1F
100
AcDbEntity
  8
LC-001-002-----0
  6
ByBlock
 62
     7
370
    50
100
AcDbLine
 10
196.159883
 20
-36.387777
 30
0.0
 11
196.159883
 21
-28.037333
 31
0.0
  0
LINE
  5
2F2
102
{ACAD_REACTORS
330
57E
102
}
330
1F
100
AcDbEntity
  8
LC-001-002-----0
  6
ByBlock
 62
     7
370
    50
100
AcDbLine
 10
195.659883
 20
-40.944943
 30
0.0
 11
195.159883
 21
-40.944943
 31
0.0
  0
LINE
  5
2F3
102
{ACAD_REACTORS
330
57E
102
}
330
1F
100
AcDbEntity
  8
LC-001-002-----0
  6
ByBlock
 62
     7
370
    50
100
AcDbLine
 10
196.159883
 20
-40.444943
 30
0.0
 11
195.659883
 21
-40.944943
 31
0.0
  0
LINE
  5
2F4
102
{ACAD_REACTORS
330
57E
102
}
330
1F
100
AcDbEntity
  8
LC-001-002-----0
  6
ByBlock
 62
     7
370
    50
100
AcDbLine
 10
53.825802
 20
49.423383
 30
0.0
 11
68.659883
 21
49.423383
 31
0.0
  0
LINE
  5
2F5
102
{ACAD_REACTORS
330
57E
102
}
330
1F
100
AcDbEntity
  8
LC-001-002-----0
  6
ByBlock
 62
     7
370
    50
100
AcDbLine
 10
53.756195
 20
48.095193
 30
0.0
 11
68.264412
 21
46.938183
 31
0.0
  0
LINE
  5
2F6
102
{ACAD_REACTORS
330
57E
102
}
330
1F
100
AcDbEntity
  8
LC-001-002-----0
  6
ByBlock
 62
     7
370
    50
100
AcDbLine
 10
195.159883
 20
-40.944943
 30
0.0
 11
195.159883
 21
185.055205
 31
0.0
  0
ARC
  5
2F7
102
{ACAD_REACTORS
330
57E
102
}
330
1F
100
AcDbEntity
  8
LC-001-002-----0
  6
ByBlock
 62
     7
370
    50
100
AcDbCircle
 10
53.825802
 20
36.427298
 30
0.0
 40
0.665918772243856
100
AcDbArc
 50
90.0
 51
264.0
  0
LINE
  5
2F8
102
{ACAD_REACTORS
330
57E
102
}
330
1F
100
AcDbEntity
  8
LC-001-002-----0
  6
ByBlock
 62
     7
370
    50
100
AcDbLine
 10
211.563572
 20
183.727015
 30
0.0
 11
197.055355
 21
182.570005
 31
0.0
  0
ARC
  5
2F9
102
{ACAD_REACTORS
330
57E
102
}
330
1F
100
AcDbEntity
  8
LC-001-002-----0
  6
ByBlock
 62
     7
370
    50
100
AcDbCircle
 10
211.493965
 20
184.389286
 30
0.0
 40
0.6659187722437627
100
AcDbArc
 50
276.0
 51
90.0
  0
INSERT
  5
339
102
{ACAD_REACTORS
330
57E
102
}
330
1F
100
AcDbEntity
  8
LC-003-005-----0
 62
     7
370
    25
100
AcDbBlockReference
  2
*X1215
 10
0.0
 20
0.0
 30
0.0
  0
ARC
  5
33A
102
{ACAD_REACTORS
330
57E
102
}
330
1F
100
AcDbEntity
  8
LC-002-002-RND-0
 62
     7
370
    50
100
AcDbCircle
 10
196.659883
 20
173.225039
 30
0.0
 40
0.5
100
AcDbArc
 50
180.0
 51
270.0
  0
ARC
  5
33B
102
{ACAD_REACTORS
330
57E
102
}
330
1F
100
AcDbEntity
  8
LC-002-002-RND-0
 62
     7
370
    50
100
AcDbCircle
 10
68.159883
 20
33.613495
 30
0.0
 40
1.0
100
AcDbArc
 50
360.0
 51
84.0
  0
ARC
  5
33C
102
{ACAD_REACTORS
330
57E
102
}
330
1F
100
AcDbEntity
  8
LC-001-002-----0
  6
ByBlock
 62
     7
370
    50
100
AcDbCircle
 10
211.493965
 20
159.728955
 30
0.0
 40
0.6659187722437568
100
AcDbArc
 50
276.0
 51
90.0
  0
LINE
  5
33D
102
{ACAD_REACTORS
330
57E
102
}
330
1F
100
AcDbEntity
  8
LC-001-002-----0
  6
ByBlock
 62
     7
370
    50
100
AcDbLine
 10
53.825802
 20
37.093217
 30
0.0
 11
68.659883
 21
37.093217
 31
0.0
  0
ARC
  5
33E
102
{ACAD_REACTORS
330
57E
102
}
330
1F
100
AcDbEntity
  8
LC-001-002-----0
  6
ByBlock
 62
     7
370
    50
100
AcDbCircle
 10
211.493965
 20
172.059121
 30
0.0
 40
0.6659187722437627
100
AcDbArc
 50
276.0
 51
90.0
  0
ARC
  5
33F
102
{ACAD_REACTORS
330
57E
102
}
330
1F
100
AcDbEntity
  8
LC-002-002-RND-0
 62
     7
370
    50
100
AcDbCircle
 10
197.159883
 20
169.245318
 30
0.0
 40
1.000000000000048
100
AcDbArc
 50
96.0
 51
180.0
  0
LINE
  5
340
102
{ACAD_REACTORS
330
57E
102
}
330
1F
100
AcDbEntity
  8
LC-001-002-----0
  6
ByBlock
 62
     7
370
    50
100
AcDbLine
 10
211.493965
 20
172.725039
 30
0.0
 11
196.659883
 21
172.725039
 31
0.0
  0
LINE
  5
341
102
{ACAD_REACTORS
330
57E
102
}
330
1F
100
AcDbEntity
  8
LC-001-002-----0
  6
ByBlock
 62
     7
370
    50
100
AcDbLine
 10
211.563572
 20
171.39685
 30
0.0
 11
197.055355
 21
170.23984
 31
0.0
  0
ARC
  5
342
102
{ACAD_REACTORS
330
57E
102
}
330
1F
100
AcDbEntity
  8
LC-002-002-RND-0
 62
     7
370
    50
100
AcDbCircle
 10
197.159883
 20
156.915152
 30
0.0
 40
1.000000000000042
100
AcDbArc
 50
96.0
 51
180.0
  0
LINE
  5
343
102
{ACAD_REACTORS
330
57E
102
}
330
1F
100
AcDbEntity
  8
LC-001-002-----0
  6
ByBlock
 62
     7
370
    50
100
AcDbLine
 10
211.493965
 20
160.394874
 30
0.0
 11
196.659883
 21
160.394874
 31
0.0
  0
LINE
  5
344
102
{ACAD_REACTORS
330
57E
102
}
330
1F
100
AcDbEntity
  8
LC-001-002-----0
  6
ByBlock
 62
     7
370
    50
100
AcDbLine
 10
211.563572
 20
159.066684
 30
0.0
 11
197.055355
 21
157.909674
 31
0.0
  0
ARC
  5
345
102
{ACAD_REACTORS
330
57E
102
}
330
1F
100
AcDbEntity
  8
LC-001-002-----0
  6
ByBlock
 62
     7
370
    50
100
AcDbCircle
 10
211.493965
 20
147.398789
 30
0.0
 40
0.6659187722437627
100
AcDbArc
 50
276.0
 51
90.0
  0
ARC
  5
346
102
{ACAD_REACTORS
330
57E
102
}
330
1F
100
AcDbEntity
  8
LC-002-002-RND-0
 62
     7
370
    50
100
AcDbCircle
 10
197.159883
 20
144.584986
 30
0.0
 40
1.000000000000042
100
AcDbArc
 50
96.0
 51
180.0
  0
LINE
  5
347
102
{ACAD_REACTORS
330
57E
102
}
330
1F
100
AcDbEntity
  8
LC-001-002-----0
  6
ByBlock
 62
     7
370
    50
100
AcDbLine
 10
211.493965
 20
148.064708
 30
0.0
 11
196.659883
 21
148.064708
 31
0.0
  0
LINE
  5
348
102
{ACAD_REACTORS
330
57E
102
}
330
1F
100
AcDbEntity
  8
LC-001-002-----0
  6
ByBlock
 62
     7
370
    50
100
AcDbLine
 10
211.563572
 20
146.736518
 30
0.0
 11
197.055355
 21
145.579508
 31
0.0
  0
ARC
  5
349
102
{ACAD_REACTORS
330
57E
102
}
330
1F
100
AcDbEntity
  8
LC-001-002-----0
  6
ByBlock
 62
     7
370
    50
100
AcDbCircle
 10
211.493965
 20
135.068624
 30
0.0
 40
0.6659187722437627
100
AcDbArc
 50
276.0
 51
90.0
  0
ARC
  5
34A
102
{ACAD_REACTORS
330
57E
102
}
330
1F
100
AcDbEntity
  8
LC-002-002-RND-0
 62
     7
370
    50
100
AcDbCircle
 10
197.159883
 20
132.254821
 30
0.0
 40
1.000000000000048
100
AcDbArc
 50
96.0
 51
180.0
  0
LINE
  5
34B
102
{ACAD_REACTORS
330
57E
102
}
330
1F
100
AcDbEntity
  8
LC-001-002-----0
  6
ByBlock
 62
     7
370
    50
100
AcDbLine
 10
211.493965
 20
135.734542
 30
0.0
 11
196.659883
 21
135.734542
 31
0.0
  0
LINE
  5
34C
102
{ACAD_REACTORS
330
57E
102
}
330
1F
100
AcDbEntity
  8
LC-001-002-----0
  6
ByBlock
 62
     7
370
    50
100
AcDbLine
 10
211.563572
 20
134.406353
 30
0.0
 11
197.055355
 21
133.249343
 31
0.0
  0
ARC
  5
34D
102
{ACAD_REACTORS
330
57E
102
}
330
1F
100
AcDbEntity
  8
LC-001-002-----0
  6
ByBlock
 62
     7
370
    50
100
AcDbCircle
 10
211.493965
 20
122.738458
 30
0.0
 40
0.6659187722437568
100
AcDbArc
 50
276.0
 51
90.0
  0
ARC
  5
34E
102
{ACAD_REACTORS
330
57E
102
}
330
1F
100
AcDbEntity
  8
LC-002-002-RND-0
 62
     7
370
    50
100
AcDbCircle
 10
197.159883
 20
119.924655
 30
0.0
 40
0.9999999999999857
100
AcDbArc
 50
96.0
 51
180.0
  0
LINE
  5
34F
102
{ACAD_REACTORS
330
57E
102
}
330
1F
100
AcDbEntity
  8
LC-001-002-----0
  6
ByBlock
 62
     7
370
    50
100
AcDbLine
 10
211.493965
 20
123.404377
 30
0.0
 11
196.659883
 21
123.404377
 31
0.0
  0
LINE
  5
350
102
{ACAD_REACTORS
330
57E
102
}
330
1F
100
AcDbEntity
  8
LC-001-002-----0
  6
ByBlock
 62
     7
370
    50
100
AcDbLine
 10
211.563572
 20
122.076187
 30
0.0
 11
197.055355
 21
120.919177
 31
0.0
  0
LINE
  5
351
102
{ACAD_REACTORS
330
57E
102
}
330
1F
100
AcDbEntity
  8
LC-001-002-----0
  6
ByBlock
 62
     7
370
    50
100
AcDbLine
 10
53.756195
 20
35.765028
 30
0.0
 11
68.264412
 21
34.608017
 31
0.0
  0
ARC
  5
352
102
{ACAD_REACTORS
330
57E
102
}
330
1F
100
AcDbEntity
  8
LC-001-002-----0
  6
ByBlock
 62
     7
370
    50
100
AcDbCircle
 10
211.493965
 20
110.408292
 30
0.0
 40
0.6659187722437627
100
AcDbArc
 50
276.0
 51
90.0
  0
ARC
  5
353
102
{ACAD_REACTORS
330
57E
102
}
330
1F
100
AcDbEntity
  8
LC-002-002-RND-0
 62
     7
370
    50
100
AcDbCircle
 10
197.159883
 20
107.594489
 30
0.0
 40
0.9999999999999857
100
AcDbArc
 50
96.0
 51
180.0
  0
LINE
  5
354
102
{ACAD_REACTORS
330
57E
102
}
330
1F
100
AcDbEntity
  8
LC-001-002-----0
  6
ByBlock
 62
     7
370
    50
100
AcDbLine
 10
69.159883
 20
111.574211
 30
0.0
 11
69.159883
 21
119.924655
 31
0.0
  0
LINE
  5
355
102
{ACAD_REACTORS
330
57E
102
}
330
1F
100
AcDbEntity
  8
LC-001-002-----0
  6
ByBlock
 62
     7
370
    50
100
AcDbLine
 10
211.493965
 20
111.074211
 30
0.0
 11
196.659883
 21
111.074211
 31
0.0
  0
LINE
  5
356
102
{ACAD_REACTORS
330
57E
102
}
330
1F
100
AcDbEntity
  8
LC-001-002-----0
  6
ByBlock
 62
     7
370
    50
100
AcDbLine
 10
69.159883
 20
86.91388
 30
0.0
 11
69.159883
 21
95.264324
 31
0.0
  0
ARC
  5
357
102
{ACAD_REACTORS
330
57E
102
}
330
1F
100
AcDbEntity
  8
LC-001-002-----0
  6
ByBlock
 62
     7
370
    50
100
AcDbCircle
 10
53.825802
 20
24.097133
 30
0.0
 40
0.665918772243856
100
AcDbArc
 50
90.0
 51
264.0
  0
ARC
  5
358
102
{ACAD_REACTORS
330
57E
102
}
330
1F
100
AcDbEntity
  8
LC-002-002-RND-0
 62
     7
370
    50
100
AcDbCircle
 10
68.159883
 20
21.28333
 30
0.0
 40
1.0
100
AcDbArc
 50
360.0
 51
84.0
  0
LINE
  5
359
102
{ACAD_REACTORS
330
57E
102
}
330
1F
100
AcDbEntity
  8
LC-001-002-----0
  6
ByBlock
 62
     7
370
    50
100
AcDbLine
 10
53.825802
 20
24.763051
 30
0.0
 11
68.659883
 21
24.763051
 31
0.0
  0
LINE
  5
35A
102
{ACAD_REACTORS
330
57E
102
}
330
1F
100
AcDbEntity
  8
LC-001-002-----0
  6
ByBlock
 62
     7
370
    50
100
AcDbLine
 10
53.756195
 20
23.434862
 30
0.0
 11
68.264412
 21
22.277852
 31
0.0
  0
LINE
  5
35B
102
{ACAD_REACTORS
330
57E
102
}
330
1F
100
AcDbEntity
  8
LC-001-002-----0
  6
ByBlock
 62
     7
370
    50
100
AcDbLine
 10
211.563572
 20
109.746021
 30
0.0
 11
197.055355
 21
108.589011
 31
0.0
  0
ARC
  5
35C
102
{ACAD_REACTORS
330
57E
102
}
330
1F
100
AcDbEntity
  8
LC-001-002-----0
  6
ByBlock
 62
     7
370
    50
100
AcDbCircle
 10
53.825802
 20
11.766967
 30
0.0
 40
0.665918772243856
100
AcDbArc
 50
90.0
 51
264.0
  0
ARC
  5
35D
102
{ACAD_REACTORS
330
57E
102
}
330
1F
100
AcDbEntity
  8
LC-002-002-RND-0
 62
     7
370
    50
100
AcDbCircle
 10
68.159883
 20
8.953164
 30
0.0
 40
1.0
100
AcDbArc
 50
360.0
 51
84.0
  0
LINE
  5
35E
102
{ACAD_REACTORS
330
57E
102
}
330
1F
100
AcDbEntity
  8
LC-001-002-----0
  6
ByBlock
 62
     7
370
    50
100
AcDbLine
 10
53.825802
 20
12.432886
 30
0.0
 11
68.659883
 21
12.432886
 31
0.0
  0
LINE
  5
35F
102
{ACAD_REACTORS
330
57E
102
}
330
1F
100
AcDbEntity
  8
LC-001-002-----0
  6
ByBlock
 62
     7
370
    50
100
AcDbLine
 10
53.756195
 20
11.104696
 30
0.0
 11
68.264412
 21
9.947686
 31
0.0
  0
ARC
  5
360
102
{ACAD_REACTORS
330
57E
102
}
330
1F
100
AcDbEntity
  8
LC-001-002-----0
  6
ByBlock
 62
     7
370
    50
100
AcDbCircle
 10
211.493965
 20
98.078127
 30
0.0
 40
0.6659187722436497
100
AcDbArc
 50
276.0
 51
90.0
  0
ARC
  5
361
102
{ACAD_REACTORS
330
57E
102
}
330
1F
100
AcDbEntity
  8
LC-001-002-----0
  6
ByBlock
 62
     7
370
    50
100
AcDbCircle
 10
53.825802
 20
-0.563199
 30
0.0
 40
0.665918772243856
100
AcDbArc
 50
90.0
 51
264.0
  0
ARC
  5
362
102
{ACAD_REACTORS
330
57E
102
}
330
1F
100
AcDbEntity
  8
LC-002-002-RND-0
 62
     7
370
    50
100
AcDbCircle
 10
68.159883
 20
-3.377002
 30
0.0
 40
1.0
100
AcDbArc
 50
360.0
 51
84.0
  0
LINE
  5
363
102
{ACAD_REACTORS
330
57E
102
}
330
1F
100
AcDbEntity
  8
LC-001-002-----0
  6
ByBlock
 62
     7
370
    50
100
AcDbLine
 10
53.825802
 20
0.10272
 30
0.0
 11
68.659883
 21
0.10272
 31
0.0
  0
LINE
  5
364
102
{ACAD_REACTORS
330
57E
102
}
330
1F
100
AcDbEntity
  8
LC-001-002-----0
  6
ByBlock
 62
     7
370
    50
100
AcDbLine
 10
53.756195
 20
-1.225469
 30
0.0
 11
68.264412
 21
-2.38248
 31
0.0
  0
ARC
  5
365
102
{ACAD_REACTORS
330
57E
102
}
330
1F
100
AcDbEntity
  8
LC-002-002-RND-0
 62
     7
370
    50
100
AcDbCircle
 10
197.159883
 20
95.264324
 30
0.0
 40
0.9999999999999917
100
AcDbArc
 50
96.0
 51
180.0
  0
ARC
  5
366
102
{ACAD_REACTORS
330
57E
102
}
330
1F
100
AcDbEntity
  8
LC-001-002-----0
  6
ByBlock
 62
     7
370
    50
100
AcDbCircle
 10
53.825802
 20
-12.893364
 30
0.0
 40
0.665918772243856
100
AcDbArc
 50
90.0
 51
264.0
  0
ARC
  5
367
102
{ACAD_REACTORS
330
57E
102
}
330
1F
100
AcDbEntity
  8
LC-002-002-RND-0
 62
     7
370
    50
100
AcDbCircle
 10
68.159883
 20
-15.707167
 30
0.0
 40
1.0
100
AcDbArc
 50
360.0
 51
84.0
  0
LINE
  5
368
102
{ACAD_REACTORS
330
57E
102
}
330
1F
100
AcDbEntity
  8
LC-001-002-----0
  6
ByBlock
 62
     7
370
    50
100
AcDbLine
 10
53.825802
 20
-12.227446
 30
0.0
 11
68.659883
 21
-12.227446
 31
0.0
  0
LINE
  5
369
102
{ACAD_REACTORS
330
57E
102
}
330
1F
100
AcDbEntity
  8
LC-001-002-----0
  6
ByBlock
 62
     7
370
    50
100
AcDbLine
 10
53.756195
 20
-13.555635
 30
0.0
 11
68.264412
 21
-14.712645
 31
0.0
  0
LINE
  5
36A
102
{ACAD_REACTORS
330
57E
102
}
330
1F
100
AcDbEntity
  8
LC-001-002-----0
  6
ByBlock
 62
     7
370
    50
100
AcDbLine
 10
211.493965
 20
98.744045
 30
0.0
 11
196.659883
 21
98.744045
 31
0.0
  0
ARC
  5
36B
102
{ACAD_REACTORS
330
57E
102
}
330
1F
100
AcDbEntity
  8
LC-001-002-----0
  6
ByBlock
 62
     7
370
    50
100
AcDbCircle
 10
53.825802
 20
-25.22353
 30
0.0
 40
0.665918772243856
100
AcDbArc
 50
90.0
 51
264.0
  0
ARC
  5
36C
102
{ACAD_REACTORS
330
57E
102
}
330
1F
100
AcDbEntity
  8
LC-002-002-RND-0
 62
     7
370
    50
100
AcDbCircle
 10
68.159883
 20
-28.037333
 30
0.0
 40
1.0
100
AcDbArc
 50
360.0
 51
84.0
  0
LINE
  5
36D
102
{ACAD_REACTORS
330
57E
102
}
330
1F
100
AcDbEntity
  8
LC-001-002-----0
  6
ByBlock
 62
     7
370
    50
100
AcDbLine
 10
53.825802
 20
-24.557611
 30
0.0
 11
68.659883
 21
-24.557611
 31
0.0
  0
LINE
  5
36E
102
{ACAD_REACTORS
330
57E
102
}
330
1F
100
AcDbEntity
  8
LC-001-002-----0
  6
ByBlock
 62
     7
370
    50
100
AcDbLine
 10
53.756195
 20
-25.885801
 30
0.0
 11
68.264412
 21
-27.042811
 31
0.0
  0
LINE
  5
36F
102
{ACAD_REACTORS
330
57E
102
}
330
1F
100
AcDbEntity
  8
LC-001-002-----0
  6
ByBlock
 62
     7
370
    50
100
AcDbLine
 10
211.563572
 20
97.415856
 30
0.0
 11
197.055355
 21
96.258846
 31
0.0
  0
ARC
  5
370
102
{ACAD_REACTORS
330
57E
102
}
330
1F
100
AcDbEntity
  8
LC-001-002-----0
  6
ByBlock
 62
     7
370
    50
100
AcDbCircle
 10
53.825802
 20
-37.553696
 30
0.0
 40
0.665918772243856
100
AcDbArc
 50
90.0
 51
264.0
  0
ARC
  5
371
102
{ACAD_REACTORS
330
57E
102
}
330
1F
100
AcDbEntity
  8
LC-002-002-RND-0
 62
     7
370
    50
100
AcDbCircle
 10
68.159883
 20
-40.367499
 30
0.0
 40
1.0
100
AcDbArc
 50
360.0
 51
84.0
  0
LINE
  5
372
102
{ACAD_REACTORS
330
57E
102
}
330
1F
100
AcDbEntity
  8
LC-001-002-----0
  6
ByBlock
 62
     7
370
    50
100
AcDbLine
 10
53.825802
 20
-36.887777
 30
0.0
 11
68.659883
 21
-36.887777
 31
0.0
  0
LINE
  5
373
102
{ACAD_REACTORS
330
57E
102
}
330
1F
100
AcDbEntity
  8
LC-001-002-----0
  6
ByBlock
 62
     7
370
    50
100
AcDbLine
 10
53.756195
 20
-38.215966
 30
0.0
 11
68.264412
 21
-39.372977
 31
0.0
  0
ARC
  5
374
102
{ACAD_REACTORS
330
57E
102
}
330
1F
100
AcDbEntity
  8
LC-001-002-----0
  6
ByBlock
 62
     7
370
    50
100
AcDbCircle
 10
211.493965
 20
85.747961
 30
0.0
 40
0.6659187722437003
100
AcDbArc
 50
276.0
 51
90.0
  0
LINE
  5
375
102
{ACAD_REACTORS
330
57E
102
}
330
1F
100
AcDbEntity
  8
LC-001-002-----0
  6
ByBlock
 62
     7
370
    50
100
AcDbLine
 10
69.159883
 20
173.225039
 30
0.0
 11
69.159883
 21
181.575483
 31
0.0
  0
LINE
  5
376
102
{ACAD_REACTORS
330
57E
102
}
330
1F
100
AcDbEntity
  8
LC-001-002-----0
  6
ByBlock
 62
     7
370
    50
100
AcDbLine
 10
69.159883
 20
148.564708
 30
0.0
 11
69.159883
 21
156.915152
 31
0.0
  0
LINE
  5
377
102
{ACAD_REACTORS
330
57E
102
}
330
1F
100
AcDbEntity
  8
LC-001-002-----0
  6
ByBlock
 62
     7
370
    50
100
AcDbLine
 10
69.159883
 20
123.904377
 30
0.0
 11
69.159883
 21
132.254821
 31
0.0
  0
LINE
  5
378
102
{ACAD_REACTORS
330
57E
102
}
330
1F
100
AcDbEntity
  8
LC-001-002-----0
  6
ByBlock
 62
     7
370
    50
100
AcDbLine
 10
69.159883
 20
99.244045
 30
0.0
 11
69.159883
 21
107.594489
 31
0.0
  0
LINE
  5
379
102
{ACAD_REACTORS
330
57E
102
}
330
1F
100
AcDbEntity
  8
LC-001-002-----0
  6
ByBlock
 62
     7
370
    50
100
AcDbLine
 10
69.159883
 20
74.583714
 30
0.0
 11
69.159883
 21
82.934158
 31
0.0
  0
LINE
  5
37A
102
{ACAD_REACTORS
330
57E
102
}
330
1F
100
AcDbEntity
  8
LC-001-002-----0
  6
ByBlock
 62
     7
370
    50
100
AcDbLine
 10
69.159883
 20
62.253548
 30
0.0
 11
69.159883
 21
70.603992
 31
0.0
  0
LINE
  5
37B
102
{ACAD_REACTORS
330
57E
102
}
330
1F
100
AcDbEntity
  8
LC-001-002-----0
  6
ByBlock
 62
     7
370
    50
100
AcDbLine
 10
69.159883
 20
49.923383
 30
0.0
 11
69.159883
 21
58.273827
 31
0.0
  0
LINE
  5
37C
102
{ACAD_REACTORS
330
57E
102
}
330
1F
100
AcDbEntity
  8
LC-001-002-----0
  6
ByBlock
 62
     7
370
    50
100
AcDbLine
 10
69.159883
 20
37.593217
 30
0.0
 11
69.159883
 21
45.943661
 31
0.0
  0
LINE
  5
37D
102
{ACAD_REACTORS
330
57E
102
}
330
1F
100
AcDbEntity
  8
LC-001-002-----0
  6
ByBlock
 62
     7
370
    50
100
AcDbLine
 10
69.159883
 20
25.263051
 30
0.0
 11
69.159883
 21
33.613495
 31
0.0
  0
LINE
  5
37E
102
{ACAD_REACTORS
330
57E
102
}
330
1F
100
AcDbEntity
  8
LC-001-002-----0
  6
ByBlock
 62
     7
370
    50
100
AcDbLine
 10
69.159883
 20
12.932886
 30
0.0
 11
69.159883
 21
21.28333
 31
0.0
  0
LINE
  5
37F
102
{ACAD_REACTORS
330
57E
102
}
330
1F
100
AcDbEntity
  8
LC-001-002-----0
  6
ByBlock
 62
     7
370
    50
100
AcDbLine
 10
69.159883
 20
0.60272
 30
0.0
 11
69.159883
 21
8.953164
 31
0.0
  0
LINE
  5
380
102
{ACAD_REACTORS
330
57E
102
}
330
1F
100
AcDbEntity
  8
LC-001-002-----0
  6
ByBlock
 62
     7
370
    50
100
AcDbLine
 10
69.159883
 20
-11.727446
 30
0.0
 11
69.159883
 21
-3.377002
 31
0.0
  0
LINE
  5
381
102
{ACAD_REACTORS
330
57E
102
}
330
1F
100
AcDbEntity
  8
LC-001-002-----0
  6
ByBlock
 62
     7
370
    50
100
AcDbLine
 10
69.159883
 20
-24.057611
 30
0.0
 11
69.159883
 21
-15.707167
 31
0.0
  0
ARC
  5
382
102
{ACAD_REACTORS
330
57E
102
}
330
1F
100
AcDbEntity
  8
LC-002-002-RND-0
 62
     7
370
    50
100
AcDbCircle
 10
68.659883
 20
160.894874
 30
0.0
 40
0.5
100
AcDbArc
 50
270.0
 51
360.0
  0
ARC
  5
383
102
{ACAD_REACTORS
330
57E
102
}
330
1F
100
AcDbEntity
  8
LC-002-002-RND-0
 62
     7
370
    50
100
AcDbCircle
 10
68.659883
 20
148.564708
 30
0.0
 40
0.5
100
AcDbArc
 50
270.0
 51
360.0
  0
ARC
  5
384
102
{ACAD_REACTORS
330
57E
102
}
330
1F
100
AcDbEntity
  8
LC-002-002-RND-0
 62
     7
370
    50
100
AcDbCircle
 10
68.659883
 20
136.234542
 30
0.0
 40
0.5
100
AcDbArc
 50
270.0
 51
360.0
  0
ARC
  5
385
102
{ACAD_REACTORS
330
57E
102
}
330
1F
100
AcDbEntity
  8
LC-002-002-RND-0
 62
     7
370
    50
100
AcDbCircle
 10
68.659883
 20
123.904377
 30
0.0
 40
0.5
100
AcDbArc
 50
270.0
 51
360.0
  0
ARC
  5
386
102
{ACAD_REACTORS
330
57E
102
}
330
1F
100
AcDbEntity
  8
LC-002-002-RND-0
 62
     7
370
    50
100
AcDbCircle
 10
197.159883
 20
82.934158
 30
0.0
 40
0.9999999999999857
100
AcDbArc
 50
96.0
 51
180.0
  0
ARC
  5
387
102
{ACAD_REACTORS
330
57E
102
}
330
1F
100
AcDbEntity
  8
LC-002-002-RND-0
 62
     7
370
    50
100
AcDbCircle
 10
68.659883
 20
111.574211
 30
0.0
 40
0.5
100
AcDbArc
 50
270.0
 51
360.0
  0
LINE
  5
388
102
{ACAD_REACTORS
330
57E
102
}
330
1F
100
AcDbEntity
  8
LC-001-002-----0
  6
ByBlock
 62
     7
370
    50
100
AcDbLine
 10
211.493965
 20
86.41388
 30
0.0
 11
196.659883
 21
86.41388
 31
0.0
  0
ARC
  5
389
102
{ACAD_REACTORS
330
57E
102
}
330
1F
100
AcDbEntity
  8
LC-002-002-RND-0
 62
     7
370
    50
100
AcDbCircle
 10
68.659883
 20
99.244045
 30
0.0
 40
0.5
100
AcDbArc
 50
270.0
 51
360.0
  0
ARC
  5
38A
102
{ACAD_REACTORS
330
57E
102
}
330
1F
100
AcDbEntity
  8
LC-002-002-RND-0
 62
     7
370
    50
100
AcDbCircle
 10
68.659883
 20
86.91388
 30
0.0
 40
0.5
100
AcDbArc
 50
270.0
 51
360.0
  0
LINE
  5
38B
102
{ACAD_REACTORS
330
57E
102
}
330
1F
100
AcDbEntity
  8
LC-001-002-----0
  6
ByBlock
 62
     7
370
    50
100
AcDbLine
 10
211.563572
 20
85.08569
 30
0.0
 11
197.055355
 21
83.92868
 31
0.0
  0
ARC
  5
38C
102
{ACAD_REACTORS
330
57E
102
}
330
1F
100
AcDbEntity
  8
LC-002-002-RND-0
 62
     7
370
    50
100
AcDbCircle
 10
68.659883
 20
74.583714
 30
0.0
 40
0.5
100
AcDbArc
 50
270.0
 51
360.0
  0
ARC
  5
38D
102
{ACAD_REACTORS
330
57E
102
}
330
1F
100
AcDbEntity
  8
LC-001-002-----0
  6
ByBlock
 62
     7
370
    50
100
AcDbCircle
 10
211.493965
 20
73.417795
 30
0.0
 40
0.6659187722437062
100
AcDbArc
 50
276.0
 51
90.0
  0
ARC
  5
38E
102
{ACAD_REACTORS
330
57E
102
}
330
1F
100
AcDbEntity
  8
LC-002-002-RND-0
 62
     7
370
    50
100
AcDbCircle
 10
68.659883
 20
62.253548
 30
0.0
 40
0.5
100
AcDbArc
 50
270.0
 51
360.0
  0
ARC
  5
38F
102
{ACAD_REACTORS
330
57E
102
}
330
1F
100
AcDbEntity
  8
LC-002-002-RND-0
 62
     7
370
    50
100
AcDbCircle
 10
197.159883
 20
70.603992
 30
0.0
 40
0.9999999999999857
100
AcDbArc
 50
96.0
 51
180.0
  0
LINE
  5
390
102
{ACAD_REACTORS
330
57E
102
}
330
1F
100
AcDbEntity
  8
LC-001-002-----0
  6
ByBlock
 62
     7
370
    50
100
AcDbLine
 10
211.493965
 20
74.083714
 30
0.0
 11
196.659883
 21
74.083714
 31
0.0
  0
ARC
  5
391
102
{ACAD_REACTORS
330
57E
102
}
330
1F
100
AcDbEntity
  8
LC-002-002-RND-0
 62
     7
370
    50
100
AcDbCircle
 10
68.659883
 20
49.923383
 30
0.0
 40
0.5
100
AcDbArc
 50
270.0
 51
360.0
  0
LINE
  5
392
102
{ACAD_REACTORS
330
57E
102
}
330
1F
100
AcDbEntity
  8
LC-001-002-----0
  6
ByBlock
 62
     7
370
    50
100
AcDbLine
 10
211.563572
 20
72.755524
 30
0.0
 11
197.055355
 21
71.598514
 31
0.0
  0
ARC
  5
393
102
{ACAD_REACTORS
330
57E
102
}
330
1F
100
AcDbEntity
  8
LC-001-002-----0
  6
ByBlock
 62
     7
370
    50
100
AcDbCircle
 10
211.493965
 20
61.08763
 30
0.0
 40
0.6659187722437062
100
AcDbArc
 50
276.0
 51
90.0
  0
ARC
  5
394
102
{ACAD_REACTORS
330
57E
102
}
330
1F
100
AcDbEntity
  8
LC-002-002-RND-0
 62
     7
370
    50
100
AcDbCircle
 10
68.659883
 20
37.593217
 30
0.0
 40
0.5
100
AcDbArc
 50
270.0
 51
360.0
  0
ARC
  5
395
102
{ACAD_REACTORS
330
57E
102
}
330
1F
100
AcDbEntity
  8
LC-002-002-RND-0
 62
     7
370
    50
100
AcDbCircle
 10
68.659883
 20
25.263051
 30
0.0
 40
0.5
100
AcDbArc
 50
270.0
 51
360.0
  0
ARC
  5
396
102
{ACAD_REACTORS
330
57E
102
}
330
1F
100
AcDbEntity
  8
LC-002-002-RND-0
 62
     7
370
    50
100
AcDbCircle
 10
68.659883
 20
12.932886
 30
0.0
 40
0.5
100
AcDbArc
 50
270.0
 51
360.0
  0
ARC
  5
397
102
{ACAD_REACTORS
330
57E
102
}
330
1F
100
AcDbEntity
  8
LC-002-002-RND-0
 62
     7
370
    50
100
AcDbCircle
 10
197.159883
 20
58.273827
 30
0.0
 40
0.9999999999999917
100
AcDbArc
 50
96.0
 51
180.0
  0
ARC
  5
398
102
{ACAD_REACTORS
330
57E
102
}
330
1F
100
AcDbEntity
  8
LC-002-002-RND-0
 62
     7
370
    50
100
AcDbCircle
 10
68.659883
 20
0.60272
 30
0.0
 40
0.5
100
AcDbArc
 50
270.0
 51
360.0
  0
ARC
  5
399
102
{ACAD_REACTORS
330
57E
102
}
330
1F
100
AcDbEntity
  8
LC-002-002-RND-0
 62
     7
370
    50
100
AcDbCircle
 10
68.659883
 20
-11.727446
 30
0.0
 40
0.5
100
AcDbArc
 50
270.0
 51
360.0
  0
ARC
  5
39A
102
{ACAD_REACTORS
330
57E
102
}
330
1F
100
AcDbEntity
  8
LC-002-002-RND-0
 62
     7
370
    50
100
AcDbCircle
 10
68.659883
 20
-24.057611
 30
0.0
 40
0.5
100
AcDbArc
 50
270.0
 51
360.0
  0
ARC
  5
39B
102
{ACAD_REACTORS
330
57E
102
}
330
1F
100
AcDbEntity
  8
LC-002-002-RND-0
 62
     7
370
    50
100
AcDbCircle
 10
68.659883
 20
-36.387777
 30
0.0
 40
0.5
100
AcDbArc
 50
270.0
 51
360.0
  0
LINE
  5
39C
102
{ACAD_REACTORS
330
57E
102
}
330
1F
100
AcDbEntity
  8
LC-001-002-----0
  6
ByBlock
 62
     7
370
    50
100
AcDbLine
 10
211.493965
 20
61.753548
 30
0.0
 11
196.659883
 21
61.753548
 31
0.0
  0
LINE
  5
39D
102
{ACAD_REACTORS
330
57E
102
}
330
1F
100
AcDbEntity
  8
LC-001-002-----0
  6
ByBlock
 62
     7
370
    50
100
AcDbLine
 10
211.563572
 20
60.425359
 30
0.0
 11
197.055355
 21
59.268349
 31
0.0
  0
ARC
  5
39E
102
{ACAD_REACTORS
330
57E
102
}
330
1F
100
AcDbEntity
  8
LC-001-002-----0
  6
ByBlock
 62
     7
370
    50
100
AcDbCircle
 10
211.493965
 20
48.757464
 30
0.0
 40
0.6659187722437062
100
AcDbArc
 50
276.0
 51
90.0
  0
ARC
  5
39F
102
{ACAD_REACTORS
330
57E
102
}
330
1F
100
AcDbEntity
  8
LC-002-002-RND-0
 62
     7
370
    50
100
AcDbCircle
 10
197.159883
 20
45.943661
 30
0.0
 40
0.9999999999999857
100
AcDbArc
 50
96.0
 51
180.0
  0
LINE
  5
3A0
102
{ACAD_REACTORS
330
57E
102
}
330
1F
100
AcDbEntity
  8
LC-001-002-----0
  6
ByBlock
 62
     7
370
    50
100
AcDbLine
 10
211.493965
 20
49.423383
 30
0.0
 11
196.659883
 21
49.423383
 31
0.0
  0
LINE
  5
3A1
102
{ACAD_REACTORS
330
57E
102
}
330
1F
100
AcDbEntity
  8
LC-001-002-----0
  6
ByBlock
 62
     7
370
    50
100
AcDbLine
 10
211.563572
 20
48.095193
 30
0.0
 11
197.055355
 21
46.938183
 31
0.0
  0
ARC
  5
3A2
102
{ACAD_REACTORS
330
57E
102
}
330
1F
100
AcDbEntity
  8
LC-001-002-----0
  6
ByBlock
 62
     7
370
    50
100
AcDbCircle
 10
211.493965
 20
36.427298
 30
0.0
 40
0.6659187722437062
100
AcDbArc
 50
276.0
 51
90.0
  0
ARC
  5
3A3
102
{ACAD_REACTORS
330
57E
102
}
330
1F
100
AcDbEntity
  8
LC-002-002-RND-0
 62
     7
370
    50
100
AcDbCircle
 10
197.159883
 20
33.613495
 30
0.0
 40
0.9999999999999857
100
AcDbArc
 50
96.0
 51
180.0
  0
LINE
  5
3A4
102
{ACAD_REACTORS
330
57E
102
}
330
1F
100
AcDbEntity
  8
LC-001-002-----0
  6
ByBlock
 62
     7
370
    50
100
AcDbLine
 10
211.493965
 20
37.093217
 30
0.0
 11
196.659883
 21
37.093217
 31
0.0
  0
LINE
  5
3A5
102
{ACAD_REACTORS
330
57E
102
}
330
1F
100
AcDbEntity
  8
LC-001-002-----0
  6
ByBlock
 62
     7
370
    50
100
AcDbLine
 10
211.563572
 20
35.765028
 30
0.0
 11
197.055355
 21
34.608017
 31
0.0
  0
ARC
  5
3A6
102
{ACAD_REACTORS
330
57E
102
}
330
1F
100
AcDbEntity
  8
LC-001-002-----0
  6
ByBlock
 62
     7
370
    50
100
AcDbCircle
 10
211.493965
 20
24.097133
 30
0.0
 40
0.6659187722437062
100
AcDbArc
 50
276.0
 51
90.0
  0
ARC
  5
3A7
102
{ACAD_REACTORS
330
57E
102
}
330
1F
100
AcDbEntity
  8
LC-002-002-RND-0
 62
     7
370
    50
100
AcDbCircle
 10
197.159883
 20
21.28333
 30
0.0
 40
0.9999999999999917
100
AcDbArc
 50
96.0
 51
180.0
  0
LINE
  5
3A8
102
{ACAD_REACTORS
330
57E
102
}
330
1F
100
AcDbEntity
  8
LC-001-002-----0
  6
ByBlock
 62
     7
370
    50
100
AcDbLine
 10
211.493965
 20
24.763051
 30
0.0
 11
196.659883
 21
24.763051
 31
0.0
  0
LINE
  5
3A9
102
{ACAD_REACTORS
330
57E
102
}
330
1F
100
AcDbEntity
  8
LC-001-002-----0
  6
ByBlock
 62
     7
370
    50
100
AcDbLine
 10
211.563572
 20
23.434862
 30
0.0
 11
197.055355
 21
22.277852
 31
0.0
  0
ARC
  5
3AA
102
{ACAD_REACTORS
330
57E
102
}
330
1F
100
AcDbEntity
  8
LC-001-002-----0
  6
ByBlock
 62
     7
370
    50
100
AcDbCircle
 10
211.493965
 20
11.766967
 30
0.0
 40
0.6659187722437062
100
AcDbArc
 50
276.0
 51
90.0
  0
ARC
  5
3AB
102
{ACAD_REACTORS
330
57E
102
}
330
1F
100
AcDbEntity
  8
LC-002-002-RND-0
 62
     7
370
    50
100
AcDbCircle
 10
197.159883
 20
8.953164
 30
0.0
 40
0.9999999999999857
100
AcDbArc
 50
96.0
 51
180.0
  0
LINE
  5
3AC
102
{ACAD_REACTORS
330
57E
102
}
330
1F
100
AcDbEntity
  8
LC-001-002-----0
  6
ByBlock
 62
     7
370
    50
100
AcDbLine
 10
211.493965
 20
12.432886
 30
0.0
 11
196.659883
 21
12.432886
 31
0.0
  0
LINE
  5
3AD
102
{ACAD_REACTORS
330
57E
102
}
330
1F
100
AcDbEntity
  8
LC-001-002-----0
  6
ByBlock
 62
     7
370
    50
100
AcDbLine
 10
211.563572
 20
11.104696
 30
0.0
 11
197.055355
 21
9.947686
 31
0.0
  0
ARC
  5
3AE
102
{ACAD_REACTORS
330
57E
102
}
330
1F
100
AcDbEntity
  8
LC-001-002-----0
  6
ByBlock
 62
     7
370
    50
100
AcDbCircle
 10
211.493965
 20
-0.563199
 30
0.0
 40
0.6659187722437003
100
AcDbArc
 50
276.0
 51
90.0
  0
ARC
  5
3AF
102
{ACAD_REACTORS
330
57E
102
}
330
1F
100
AcDbEntity
  8
LC-002-002-RND-0
 62
     7
370
    50
100
AcDbCircle
 10
197.159883
 20
-3.377002
 30
0.0
 40
0.9999999999999857
100
AcDbArc
 50
96.0
 51
180.0
  0
LINE
  5
3B0
102
{ACAD_REACTORS
330
57E
102
}
330
1F
100
AcDbEntity
  8
LC-001-002-----0
  6
ByBlock
 62
     7
370
    50
100
AcDbLine
 10
211.493965
 20
0.10272
 30
0.0
 11
196.659883
 21
0.10272
 31
0.0
  0
LINE
  5
3B1
102
{ACAD_REACTORS
330
57E
102
}
330
1F
100
AcDbEntity
  8
LC-001-002-----0
  6
ByBlock
 62
     7
370
    50
100
AcDbLine
 10
211.563572
 20
-1.225469
 30
0.0
 11
197.055355
 21
-2.38248
 31
0.0
  0
ARC
  5
3B2
102
{ACAD_REACTORS
330
57E
102
}
330
1F
100
AcDbEntity
  8
LC-001-002-----0
  6
ByBlock
 62
     7
370
    50
100
AcDbCircle
 10
211.493965
 20
-12.893364
 30
0.0
 40
0.6659187722437062
100
AcDbArc
 50
276.0
 51
90.0
  0
ARC
  5
3B3
102
{ACAD_REACTORS
330
57E
102
}
330
1F
100
AcDbEntity
  8
LC-002-002-RND-0
 62
     7
370
    50
100
AcDbCircle
 10
197.159883
 20
-15.707167
 30
0.0
 40
1.00000000000002
100
AcDbArc
 50
96.0
 51
180.0
  0
LINE
  5
3B4
102
{ACAD_REACTORS
330
57E
102
}
330
1F
100
AcDbEntity
  8
LC-001-002-----0
  6
ByBlock
 62
     7
370
    50
100
AcDbLine
 10
211.493965
 20
-12.227446
 30
0.0
 11
196.659883
 21
-12.227446
 31
0.0
  0
LINE
  5
3B5
102
{ACAD_REACTORS
330
57E
102
}
330
1F
100
AcDbEntity
  8
LC-001-002-----0
  6
ByBlock
 62
     7
370
    50
100
AcDbLine
 10
211.563572
 20
-13.555635
 30
0.0
 11
197.055355
 21
-14.712645
 31
0.0
  0
ARC
  5
3B6
102
{ACAD_REACTORS
330
57E
102
}
330
1F
100
AcDbEntity
  8
LC-001-002-----0
  6
ByBlock
 62
     7
370
    50
100
AcDbCircle
 10
211.493965
 20
-25.22353
 30
0.0
 40
0.6659187722437062
100
AcDbArc
 50
276.0
 51
90.0
  0
ARC
  5
3B7
102
{ACAD_REACTORS
330
57E
102
}
330
1F
100
AcDbEntity
  8
LC-002-002-RND-0
 62
     7
370
    50
100
AcDbCircle
 10
197.159883
 20
-28.037333
 30
0.0
 40
1.000000000000014
100
AcDbArc
 50
96.0
 51
180.0
  0
LINE
  5
3B8
102
{ACAD_REACTORS
330
57E
102
}
330
1F
100
AcDbEntity
  8
LC-001-002-----0
  6
ByBlock
 62
     7
370
    50
100
AcDbLine
 10
211.493965
 20
-24.557611
 30
0.0
 11
196.659883
 21
-24.557611
 31
0.0
  0
LINE
  5
3B9
102
{ACAD_REACTORS
330
57E
102
}
330
1F
100
AcDbEntity
  8
LC-001-002-----0
  6
ByBlock
 62
     7
370
    50
100
AcDbLine
 10
211.563572
 20
-25.885801
 30
0.0
 11
197.055355
 21
-27.042811
 31
0.0
  0
ARC
  5
3BA
102
{ACAD_REACTORS
330
57E
102
}
330
1F
100
AcDbEntity
  8
LC-001-002-----0
  6
ByBlock
 62
     7
370
    50
100
AcDbCircle
 10
211.493965
 20
-37.553696
 30
0.0
 40
0.6659187722437003
100
AcDbArc
 50
276.0
 51
90.0
  0
ARC
  5
3BB
102
{ACAD_REACTORS
330
57E
102
}
330
1F
100
AcDbEntity
  8
LC-002-002-RND-0
 62
     7
370
    50
100
AcDbCircle
 10
197.159883
 20
-40.367499
 30
0.0
 40
0.9999999999999999
100
AcDbArc
 50
96.0
 51
180.0
  0
LINE
  5
3BC
102
{ACAD_REACTORS
330
57E
102
}
330
1F
100
AcDbEntity
  8
LC-001-002-----0
  6
ByBlock
 62
     7
370
    50
100
AcDbLine
 10
211.493965
 20
-36.887777
 30
0.0
 11
196.659883
 21
-36.887777
 31
0.0
  0
LINE
  5
3BD
102
{ACAD_REACTORS
330
57E
102
}
330
1F
100
AcDbEntity
  8
LC-001-002-----0
  6
ByBlock
 62
     7
370
    50
100
AcDbLine
 10
211.563572
 20
-38.215966
 30
0.0
 11
197.055355
 21
-39.372977
 31
0.0
  0
ARC
  5
3BE
102
{ACAD_REACTORS
330
57E
102
}
330
1F
100
AcDbEntity
  8
LC-002-002-RND-0
 62
     7
370
    50
100
AcDbCircle
 10
196.659883
 20
148.564708
 30
0.0
 40
0.5
100
AcDbArc
 50
180.0
 51
270.0
  0
ARC
  5
3BF
102
{ACAD_REACTORS
330
57E
102
}
330
1F
100
AcDbEntity
  8
LC-002-002-RND-0
 62
     7
370
    50
100
AcDbCircle
 10
196.659883
 20
136.234542
 30
0.0
 40
0.5
100
AcDbArc
 50
180.0
 51
270.0
  0
ARC
  5
3C0
102
{ACAD_REACTORS
330
57E
102
}
330
1F
100
AcDbEntity
  8
LC-002-002-RND-0
 62
     7
370
    50
100
AcDbCircle
 10
196.659883
 20
99.244045
 30
0.0
 40
0.5
100
AcDbArc
 50
180.0
 51
270.0
  0
ARC
  5
3C1
102
{ACAD_REACTORS
330
57E
102
}
330
1F
100
AcDbEntity
  8
LC-002-002-RND-0
 62
     7
370
    50
100
AcDbCircle
 10
196.659883
 20
86.91388
 30
0.0
 40
0.5
100
AcDbArc
 50
180.0
 51
270.0
  0
ARC
  5
3C2
102
{ACAD_REACTORS
330
57E
102
}
330
1F
100
AcDbEntity
  8
LC-002-002-RND-0
 62
     7
370
    50
100
AcDbCircle
 10
196.659883
 20
74.583714
 30
0.0
 40
0.5
100
AcDbArc
 50
180.0
 51
270.0
  0
ARC
  5
3C3
102
{ACAD_REACTORS
330
57E
102
}
330
1F
100
AcDbEntity
  8
LC-002-002-RND-0
 62
     7
370
    50
100
AcDbCircle
 10
196.659883
 20
62.253548
 30
0.0
 40
0.5
100
AcDbArc
 50
180.0
 51
270.0
  0
ARC
  5
3C4
102
{ACAD_REACTORS
330
57E
102
}
330
1F
100
AcDbEntity
  8
LC-002-002-RND-0
 62
     7
370
    50
100
AcDbCircle
 10
196.659883
 20
49.923383
 30
0.0
 40
0.5
100
AcDbArc
 50
180.0
 51
270.0
  0
ARC
  5
3C5
102
{ACAD_REACTORS
330
57E
102
}
330
1F
100
AcDbEntity
  8
LC-002-002-RND-0
 62
     7
370
    50
100
AcDbCircle
 10
196.659883
 20
37.593217
 30
0.0
 40
0.5
100
AcDbArc
 50
180.0
 51
270.0
  0
ARC
  5
3C6
102
{ACAD_REACTORS
330
57E
102
}
330
1F
100
AcDbEntity
  8
LC-002-002-RND-0
 62
     7
370
    50
100
AcDbCircle
 10
196.659883
 20
25.263051
 30
0.0
 40
0.5
100
AcDbArc
 50
180.0
 51
270.0
  0
ARC
  5
3C7
102
{ACAD_REACTORS
330
57E
102
}
330
1F
100
AcDbEntity
  8
LC-002-002-RND-0
 62
     7
370
    50
100
AcDbCircle
 10
196.659883
 20
12.932886
 30
0.0
 40
0.5
100
AcDbArc
 50
180.0
 51
270.0
  0
ARC
  5
3C8
102
{ACAD_REACTORS
330
57E
102
}
330
1F
100
AcDbEntity
  8
LC-002-002-RND-0
 62
     7
370
    50
100
AcDbCircle
 10
196.659883
 20
0.60272
 30
0.0
 40
0.5
100
AcDbArc
 50
180.0
 51
270.0
  0
ARC
  5
3C9
102
{ACAD_REACTORS
330
57E
102
}
330
1F
100
AcDbEntity
  8
LC-002-002-RND-0
 62
     7
370
    50
100
AcDbCircle
 10
196.659883
 20
-11.727446
 30
0.0
 40
0.5
100
AcDbArc
 50
180.0
 51
270.0
  0
ARC
  5
3CA
102
{ACAD_REACTORS
330
57E
102
}
330
1F
100
AcDbEntity
  8
LC-002-002-RND-0
 62
     7
370
    50
100
AcDbCircle
 10
196.659883
 20
-24.057611
 30
0.0
 40
0.5
100
AcDbArc
 50
180.0
 51
270.0
  0
ARC
  5
3CB
102
{ACAD_REACTORS
330
57E
102
}
330
1F
100
AcDbEntity
  8
LC-002-002-RND-0
 62
     7
370
    50
100
AcDbCircle
 10
196.659883
 20
-36.387777
 30
0.0
 40
0.5
100
AcDbArc
 50
180.0
 51
270.0
  0
LINE
  5
3CC
102
{ACAD_REACTORS
330
57E
102
}
330
1F
100
AcDbEntity
  8
LC-001-002-----0
  6
ByBlock
 62
     7
370
    50
100
AcDbLine
 10
69.159883
 20
-36.387777
 30
0.0
 11
69.159883
 21
-28.037333
 31
0.0
  0
LINE
  5
3CD
102
{ACAD_REACTORS
330
57E
102
}
330
1F
100
AcDbEntity
  8
LC-001-002-----0
  6
ByBlock
 62
     7
370
    50
100
AcDbLine
 10
69.659883
 20
-40.944943
 30
0.0
 11
70.159883
 21
-40.944943
 31
0.0
  0
LINE
  5
3CE
102
{ACAD_REACTORS
330
57E
102
}
330
1F
100
AcDbEntity
  8
LC-001-002-----0
  6
ByBlock
 62
     7
370
    50
100
AcDbLine
 10
69.159883
 20
-40.444943
 30
0.0
 11
69.659883
 21
-40.944943
 31
0.0
  0
LINE
  5
3CF
102
{ACAD_REACTORS
330
57E
102
}
330
1F
100
AcDbEntity
  8
LC-001-002-----0
  6
ByBlock
 62
     7
370
    50
100
AcDbLine
 10
70.159883
 20
-40.944943
 30
0.0
 11
70.159883
 21
185.055205
 31
0.0
  0
LINE
  5
3D0
102
{ACAD_REACTORS
330
57E
102
}
330
1F
100
AcDbEntity
  8
LC-001-002-----0
  6
ByBlock
 62
     7
370
    50
100
AcDbLine
 10
53.756195
 20
183.727015
 30
0.0
 11
68.264412
 21
182.570005
 31
0.0
  0
DIMENSION
  5
3D1
330
1F
100
AcDbEntity
  8
LC-005-003-----0
 62
     7
370
    25
100
AcDbDimension
  2
*D16
 10
195.161582
 20
-96.585968
 30
0.0
 11
132.661582
 21
-65.785968
 31
0.0
 70
   160
  1
%%c<>
 71
     5
 42
125.0
  3
LC-DIM-L-0140-02-02
100
AcDbAlignedDimension
 13
70.161582
 23
-45.943563
 33
0.0
 14
195.161582
 24
-45.946322
 34
0.0
100
AcDbRotatedDimension
  0
DIMENSION
  5
3DE
330
1F
100
AcDbEntity
  8
LC-005-003-----0
 62
     7
370
    25
100
AcDbDimension
  2
*D17
 10
212.159883
 20
-135.785968
 30
0.0
 11
132.66034
 21
-104.985968
 31
0.0
 70
   160
  1
%%c159
 71
     5
 42
158.999087
  3
LC-DIM-L-0140-02-02
100
AcDbAlignedDimension
 13
53.160796
 23
-37.518844
 33
0.0
 14
212.159883
 24
-37.553696
 34
0.0
100
AcDbRotatedDimension
  0
LINE
  5
3EC
102
{ACAD_REACTORS
330
57A
102
}
330
1F
100
AcDbEntity
  8
LC-007-003-MTH-0
 62
     7
370
    25
100
AcDbLine
 10
157.661472
 20
-50.944962
 30
0.0
 11
272.9799
 21
-50.944962
 31
0.0
  0
LINE
  5
3ED
102
{ACAD_REACTORS
330
57A
102
}
330
1F
100
AcDbEntity
  8
LC-007-003-MTH-0
 62
     7
370
    25
100
AcDbLine
 10
211.493965
 20
185.055185
 30
0.0
 11
272.9799
 21
185.055185
 31
0.0
  0
LINE
  5
3EF
102
{ACAD_REACTORS
330
57A
102
}
330
1F
100
AcDbEntity
  8
LC-008-003-MTG-0
 62
     7
370
    25
100
AcDbLine
 10
256.1799
 20
-50.944962
 30
0.0
 11
256.1799
 21
185.055185
 31
0.0
  0
LINE
  5
3F0
102
{ACAD_REACTORS
330
57A
102
}
330
1F
100
AcDbEntity
  8
LC-005-003-----0
 62
     7
370
    25
100
AcDbLine
 10
252.525166
 20
-23.184506
 30
0.0
 11
256.1799
 21
-50.944962
 31
0.0
  0
LINE
  5
3F1
102
{ACAD_REACTORS
330
57A
102
}
330
1F
100
AcDbEntity
  8
LC-005-003-----0
 62
     7
370
    25
100
AcDbLine
 10
256.1799
 20
-50.944962
 30
0.0
 11
259.834633
 21
-23.184506
 31
0.0
  0
LINE
  5
3F2
102
{ACAD_REACTORS
330
57A
102
}
330
1F
100
AcDbEntity
  8
LC-005-003-----0
 62
     7
370
    25
100
AcDbLine
 10
259.834633
 20
-23.184506
 30
0.0
 11
252.525166
 21
-23.184506
 31
0.0
  0
LINE
  5
3F3
102
{ACAD_REACTORS
330
57A
102
}
330
1F
100
AcDbEntity
  8
LC-005-003-----0
 62
     7
370
    25
100
AcDbLine
 10
253.475397
 20
-23.122224
 30
0.0
 11
256.1799
 21
-43.664962
 31
0.0
  0
LINE
  5
3F4
102
{ACAD_REACTORS
330
57A
102
}
330
1F
100
AcDbEntity
  8
LC-005-003-----0
 62
     7
370
    25
100
AcDbLine
 10
256.1799
 20
-43.664962
 30
0.0
 11
258.884402
 21
-23.122224
 31
0.0
  0
LINE
  5
3F5
102
{ACAD_REACTORS
330
57A
102
}
330
1F
100
AcDbEntity
  8
LC-005-003-----0
 62
     7
370
    25
100
AcDbLine
 10
254.425628
 20
-23.059943
 30
0.0
 11
256.1799
 21
-36.384962
 31
0.0
  0
LINE
  5
3F6
102
{ACAD_REACTORS
330
57A
102
}
330
1F
100
AcDbEntity
  8
LC-005-003-----0
 62
     7
370
    25
100
AcDbLine
 10
256.1799
 20
-36.384962
 30
0.0
 11
257.934172
 21
-23.059943
 31
0.0
  0
LINE
  5
3F7
102
{ACAD_REACTORS
330
57A
102
}
330
1F
100
AcDbEntity
  8
LC-005-003-----0
 62
     7
370
    25
100
AcDbLine
 10
255.375858
 20
-22.997662
 30
0.0
 11
256.1799
 21
-29.104962
 31
0.0
  0
LINE
  5
3F8
102
{ACAD_REACTORS
330
57A
102
}
330
1F
100
AcDbEntity
  8
LC-005-003-----0
 62
     7
370
    25
100
AcDbLine
 10
256.1799
 20
-29.104962
 30
0.0
 11
256.983941
 21
-22.997662
 31
0.0
  0
LINE
  5
3F9
102
{ACAD_REACTORS
330
57A
102
}
330
1F
100
AcDbEntity
  8
LC-005-003-----0
 62
     7
370
    25
100
AcDbLine
 10
259.834633
 20
157.294729
 30
0.0
 11
256.1799
 21
185.055185
 31
0.0
  0
LINE
  5
3FA
102
{ACAD_REACTORS
330
57A
102
}
330
1F
100
AcDbEntity
  8
LC-005-003-----0
 62
     7
370
    25
100
AcDbLine
 10
256.1799
 20
185.055185
 30
0.0
 11
252.525166
 21
157.294729
 31
0.0
  0
LINE
  5
3FB
102
{ACAD_REACTORS
330
57A
102
}
330
1F
100
AcDbEntity
  8
LC-005-003-----0
 62
     7
370
    25
100
AcDbLine
 10
252.525166
 20
157.294729
 30
0.0
 11
259.834633
 21
157.294729
 31
0.0
  0
LINE
  5
3FC
102
{ACAD_REACTORS
330
57A
102
}
330
1F
100
AcDbEntity
  8
LC-005-003-----0
 62
     7
370
    25
100
AcDbLine
 10
258.884402
 20
157.232447
 30
0.0
 11
256.1799
 21
177.775185
 31
0.0
  0
LINE
  5
3FD
102
{ACAD_REACTORS
330
57A
102
}
330
1F
100
AcDbEntity
  8
LC-005-003-----0
 62
     7
370
    25
100
AcDbLine
 10
256.1799
 20
177.775185
 30
0.0
 11
253.475397
 21
157.232447
 31
0.0
  0
LINE
  5
3FE
102
{ACAD_REACTORS
330
57A
102
}
330
1F
100
AcDbEntity
  8
LC-005-003-----0
 62
     7
370
    25
100
AcDbLine
 10
257.934172
 20
157.170166
 30
0.0
 11
256.1799
 21
170.495185
 31
0.0
  0
LINE
  5
3FF
102
{ACAD_REACTORS
330
57A
102
}
330
1F
100
AcDbEntity
  8
LC-005-003-----0
 62
     7
370
    25
100
AcDbLine
 10
256.1799
 20
170.495185
 30
0.0
 11
254.425628
 21
157.170166
 31
0.0
  0
LINE
  5
400
102
{ACAD_REACTORS
330
57A
102
}
330
1F
100
AcDbEntity
  8
LC-005-003-----0
 62
     7
370
    25
100
AcDbLine
 10
256.983941
 20
157.107885
 30
0.0
 11
256.1799
 21
163.215185
 31
0.0
  0
LINE
  5
401
102
{ACAD_REACTORS
330
57A
102
}
330
1F
100
AcDbEntity
  8
LC-005-003-----0
 62
     7
370
    25
100
AcDbLine
 10
256.1799
 20
163.215185
 30
0.0
 11
255.375858
 21
157.107885
 31
0.0
  0
TEXT
  5
402
102
{ACAD_REACTORS
330
57A
102
}
330
1F
100
AcDbEntity
  8
LC-005-003-----0
 62
     7
370
   140
100
AcDbText
 10
248.352346
 20
40.90256
 30
0.0
 40
28.0
  1
236
 50
90.0
 41
0.9
 51
15.0
  7
LCTX15-400-0-0-Arial
 72
     1
 11
248.352346
 21
71.47016
 31
0.0
100
AcDbText
  0
DIMENSION
  5
403
330
1F
100
AcDbEntity
  8
LC-005-003-----0
 62
     7
370
    25
100
AcDbDimension
  2
*D18
 10
202.667027
 20
200.088405
 30
0.0
 11
125.192142
 21
230.890097
 31
0.0
 70
   160
  1
%%c<>
 71
     5
 42
140.0
 53
359.998749
  3
LC-DIM-L-0140-02-02
100
AcDbAlignedDimension
 13
62.668119
 23
250.105395
 33
0.0
 14
202.668119
 24
250.102304
 34
0.0
 50
359.998749
100
AcDbRotatedDimension
  0
ARC
  5
410
330
1F
100
AcDbEntity
  8
LC-002-002-RND-0
 62
     7
370
    50
100
AcDbCircle
 10
33.162883
 20
267.796242
 30
0.0
 40
0.5000000000000742
100
AcDbArc
 50
180.000334
 51
268.660533
  0
LINE
  5
411
330
1F
100
AcDbEntity
  8
LC-001-002-----0
  6
ByBlock
 62
     7
370
    50
100
AcDbLine
 10
33.151195
 20
267.296242
 30
0.0
 11
34.664502
 21
267.296251
 31
0.0
  0
LINE
  5
412
330
1F
100
AcDbEntity
  8
LC-001-002-----0
  6
ByBlock
 62
     7
370
    50
100
AcDbLine
 10
41.164536
 20
259.296282
 30
0.0
 11
36.164537
 21
259.29626
 31
0.0
  0
LINE
  5
413
330
1F
100
AcDbEntity
  8
LC-001-002-----0
  6
ByBlock
 62
     7
370
    50
100
AcDbLine
 10
35.664534
 20
259.796258
 30
0.0
 11
35.664506
 21
266.296259
 31
0.0
  0
LINE
  5
414
330
1F
100
AcDbEntity
  8
LC-001-002-----0
  6
ByBlock
 62
     7
370
    50
100
AcDbLine
 10
41.664506
 20
266.296295
 30
0.0
 11
41.664534
 21
259.796284
 31
0.0
  0
LINE
  5
415
330
1F
100
AcDbEntity
  8
LC-001-002-----0
  6
ByBlock
 62
     7
370
    50
100
AcDbLine
 10
34.664502
 20
267.296251
 30
0.0
 11
35.664506
 21
266.296259
 31
0.0
  0
LINE
  5
416
330
1F
100
AcDbEntity
  8
LC-001-002-----0
  6
ByBlock
 62
     7
370
    50
100
AcDbLine
 10
41.664506
 20
266.296295
 30
0.0
 11
42.664546
 21
267.296343
 31
0.0
  0
LINE
  5
417
330
1F
100
AcDbEntity
  8
LC-001-002-----0
  6
ByBlock
 62
     7
370
    50
100
AcDbLine
 10
36.164537
 20
259.29626
 30
0.0
 11
35.664534
 21
259.796258
 31
0.0
  0
LINE
  5
418
330
1F
100
AcDbEntity
  8
LC-001-002-----0
  6
ByBlock
 62
     7
370
    50
100
AcDbLine
 10
41.664534
 20
259.796284
 30
0.0
 11
41.164536
 21
259.296282
 31
0.0
  0
ARC
  5
419
330
1F
100
AcDbEntity
  8
LC-002-002-RND-0
 62
     7
370
    50
100
AcDbCircle
 10
44.166024
 20
267.796416
 30
0.0
 40
0.5000000000000278
100
AcDbArc
 50
270.002776
 51
0.010765
  0
LINE
  5
41A
330
1F
100
AcDbEntity
  8
LC-001-002-----0
  6
ByBlock
 62
     7
370
    50
100
AcDbLine
 10
44.663487
 20
281.299316
 30
0.0
 11
45.664644
 21
282.300849
 31
0.0
  0
LINE
  5
41B
330
1F
100
AcDbEntity
  8
LC-001-002-----0
  6
ByBlock
 62
     7
370
    50
100
AcDbLine
 10
47.16772
 20
282.300114
 30
0.0
 11
45.663797
 21
282.300002
 31
0.0
  0
LINE
  5
41C
330
1F
100
AcDbEntity
  8
LC-001-002-----0
  6
ByBlock
 62
     7
370
    50
100
AcDbLine
 10
44.666024
 20
267.79651
 30
0.0
 11
44.663487
 21
281.299316
 31
0.0
  0
LINE
  5
41D
330
1F
100
AcDbEntity
  8
LC-001-002-----0
  6
ByBlock
 62
     7
370
    50
100
AcDbLine
 10
47.16772
 20
282.300114
 30
0.0
 11
47.16735
 21
265.556945
 31
0.0
  0
LINE
  5
41E
330
1F
100
AcDbEntity
  8
LC-001-002-----0
  6
ByBlock
 62
     7
370
    50
100
AcDbLine
 10
42.664546
 20
267.296343
 30
0.0
 11
47.167389
 21
267.296561
 31
0.0
  0
LINE
  5
41F
102
{ACAD_REACTORS
330
579
102
}
330
1F
100
AcDbEntity
  8
LC-003-005-----0
 62
     7
370
    25
100
AcDbLine
 10
308.021749
 20
291.051186
 30
0.0
 11
309.587392
 21
292.61683
 31
0.0
  0
LINE
  5
420
102
{ACAD_REACTORS
330
579
102
}
330
1F
100
AcDbEntity
  8
LC-003-005-----0
 62
     7
370
    25
100
AcDbLine
 10
305.193384
 20
291.051248
 30
0.0
 11
308.137655
 21
293.99552
 31
0.0
  0
LINE
  5
421
102
{ACAD_REACTORS
330
579
102
}
330
1F
100
AcDbEntity
  8
LC-003-005-----0
 62
     7
370
    25
100
AcDbLine
 10
302.365019
 20
291.051311
 30
0.0
 11
305.364953
 21
294.051244
 31
0.0
  0
LINE
  5
422
102
{ACAD_REACTORS
330
579
102
}
330
1F
100
AcDbEntity
  8
LC-003-005-----0
 62
     7
370
    25
100
AcDbLine
 10
299.536654
 20
291.051373
 30
0.0
 11
302.536588
 21
294.051307
 31
0.0
  0
LINE
  5
423
102
{ACAD_REACTORS
330
579
102
}
330
1F
100
AcDbEntity
  8
LC-003-005-----0
 62
     7
370
    25
100
AcDbLine
 10
296.70829
 20
291.051436
 30
0.0
 11
299.708224
 21
294.051369
 31
0.0
  0
LINE
  5
424
102
{ACAD_REACTORS
330
579
102
}
330
1F
100
AcDbEntity
  8
LC-003-005-----0
 62
     7
370
    25
100
AcDbLine
 10
293.879925
 20
291.051498
 30
0.0
 11
296.879859
 21
294.051432
 31
0.0
  0
LINE
  5
425
102
{ACAD_REACTORS
330
579
102
}
330
1F
100
AcDbEntity
  8
LC-003-005-----0
 62
     7
370
    25
100
AcDbLine
 10
291.05156
 20
291.05156
 30
0.0
 11
294.051494
 21
294.051494
 31
0.0
  0
LINE
  5
426
102
{ACAD_REACTORS
330
579
102
}
330
1F
100
AcDbEntity
  8
LC-003-005-----0
 62
     7
370
    25
100
AcDbLine
 10
288.223196
 20
291.051623
 30
0.0
 11
291.22313
 21
294.051557
 31
0.0
  0
LINE
  5
427
102
{ACAD_REACTORS
330
579
102
}
330
1F
100
AcDbEntity
  8
LC-003-005-----0
 62
     7
370
    25
100
AcDbLine
 10
285.394831
 20
291.051685
 30
0.0
 11
288.394765
 21
294.051619
 31
0.0
  0
LINE
  5
428
102
{ACAD_REACTORS
330
579
102
}
330
1F
100
AcDbEntity
  8
LC-003-005-----0
 62
     7
370
    25
100
AcDbLine
 10
282.566466
 20
291.051748
 30
0.0
 11
285.5664
 21
294.051682
 31
0.0
  0
LINE
  5
429
102
{ACAD_REACTORS
330
579
102
}
330
1F
100
AcDbEntity
  8
LC-003-005-----0
 62
     7
370
    25
100
AcDbLine
 10
279.738102
 20
291.05181
 30
0.0
 11
282.738036
 21
294.051744
 31
0.0
  0
LINE
  5
42A
102
{ACAD_REACTORS
330
579
102
}
330
1F
100
AcDbEntity
  8
LC-003-005-----0
 62
     7
370
    25
100
AcDbLine
 10
276.909737
 20
291.051873
 30
0.0
 11
279.909671
 21
294.051806
 31
0.0
  0
LINE
  5
42B
102
{ACAD_REACTORS
330
579
102
}
330
1F
100
AcDbEntity
  8
LC-003-005-----0
 62
     7
370
    25
100
AcDbLine
 10
274.081372
 20
291.051935
 30
0.0
 11
277.081306
 21
294.051869
 31
0.0
  0
LINE
  5
42C
102
{ACAD_REACTORS
330
579
102
}
330
1F
100
AcDbEntity
  8
LC-003-005-----0
 62
     7
370
    25
100
AcDbLine
 10
271.253008
 20
291.051998
 30
0.0
 11
274.252941
 21
294.051931
 31
0.0
  0
LINE
  5
42D
102
{ACAD_REACTORS
330
579
102
}
330
1F
100
AcDbEntity
  8
LC-003-005-----0
 62
     7
370
    25
100
AcDbLine
 10
268.424643
 20
291.05206
 30
0.0
 11
271.424577
 21
294.051994
 31
0.0
  0
LINE
  5
42E
102
{ACAD_REACTORS
330
579
102
}
330
1F
100
AcDbEntity
  8
LC-003-005-----0
 62
     7
370
    25
100
AcDbLine
 10
265.596278
 20
291.052122
 30
0.0
 11
268.596212
 21
294.052056
 31
0.0
  0
LINE
  5
42F
102
{ACAD_REACTORS
330
579
102
}
330
1F
100
AcDbEntity
  8
LC-003-005-----0
 62
     7
370
    25
100
AcDbLine
 10
262.767914
 20
291.052185
 30
0.0
 11
265.767847
 21
294.052119
 31
0.0
  0
LINE
  5
430
102
{ACAD_REACTORS
330
579
102
}
330
1F
100
AcDbEntity
  8
LC-003-005-----0
 62
     7
370
    25
100
AcDbLine
 10
259.367271
 20
290.47997
 30
0.0
 11
262.939483
 21
294.052181
 31
0.0
  0
LINE
  5
431
102
{ACAD_REACTORS
330
579
102
}
330
1F
100
AcDbEntity
  8
LC-003-005-----0
 62
     7
370
    25
100
AcDbLine
 10
254.920476
 20
288.861601
 30
0.0
 11
259.939663
 21
293.880789
 31
0.0
  0
LINE
  5
432
102
{ACAD_REACTORS
330
579
102
}
330
1F
100
AcDbEntity
  8
LC-003-005-----0
 62
     7
370
    25
100
AcDbLine
 10
223.658413
 20
260.427965
 30
0.0
 11
232.660062
 21
269.429614
 31
0.0
  0
LINE
  5
433
102
{ACAD_REACTORS
330
579
102
}
330
1F
100
AcDbEntity
  8
LC-003-005-----0
 62
     7
370
    25
100
AcDbLine
 10
250.473681
 20
287.243233
 30
0.0
 11
255.492868
 21
292.262421
 31
0.0
  0
LINE
  5
434
102
{ACAD_REACTORS
330
579
102
}
330
1F
100
AcDbEntity
  8
LC-003-005-----0
 62
     7
370
    25
100
AcDbLine
 10
223.658425
 20
263.256405
 30
0.0
 11
232.660062
 21
272.258041
 31
0.0
  0
LINE
  5
435
102
{ACAD_REACTORS
330
579
102
}
330
1F
100
AcDbEntity
  8
LC-003-005-----0
 62
     7
370
    25
100
AcDbLine
 10
246.026885
 20
285.624865
 30
0.0
 11
251.046073
 21
290.644052
 31
0.0
  0
LINE
  5
436
102
{ACAD_REACTORS
330
579
102
}
330
1F
100
AcDbEntity
  8
LC-003-005-----0
 62
     7
370
    25
100
AcDbLine
 10
223.658437
 20
266.084844
 30
0.0
 11
229.128674
 21
271.55508
 31
0.0
  0
LINE
  5
437
102
{ACAD_REACTORS
330
579
102
}
330
1F
100
AcDbEntity
  8
LC-003-005-----0
 62
     7
370
    25
100
AcDbLine
 10
241.58009
 20
284.006497
 30
0.0
 11
246.599277
 21
289.025684
 31
0.0
  0
LINE
  5
438
102
{ACAD_REACTORS
330
579
102
}
330
1F
100
AcDbEntity
  8
LC-003-005-----0
 62
     7
370
    25
100
AcDbLine
 10
229.42287
 20
274.677704
 30
0.0
 11
232.660062
 21
277.914896
 31
0.0
  0
LINE
  5
439
102
{ACAD_REACTORS
330
579
102
}
330
1F
100
AcDbEntity
  8
LC-003-005-----0
 62
     7
370
    25
100
AcDbLine
 10
237.133295
 20
282.388129
 30
0.0
 11
242.152482
 21
287.407316
 31
0.0
  0
LINE
  5
43A
102
{ACAD_REACTORS
330
579
102
}
330
1F
100
AcDbEntity
  8
LC-003-005-----0
 62
     7
370
    25
100
AcDbLine
 10
229.423203
 20
277.506464
 30
0.0
 11
232.660062
 21
280.743323
 31
0.0
  0
LINE
  5
43B
102
{ACAD_REACTORS
330
579
102
}
330
1F
100
AcDbEntity
  8
LC-003-005-----0
 62
     7
370
    25
100
AcDbLine
 10
234.211166
 20
282.294427
 30
0.0
 11
237.705687
 21
285.788948
 31
0.0
  0
LINE
  5
43C
102
{ACAD_REACTORS
330
579
102
}
330
1F
100
AcDbEntity
  8
LC-003-005-----0
 62
     7
370
    25
100
AcDbLine
 10
229.423536
 20
280.335224
 30
0.0
 11
234.384755
 21
285.296443
 31
0.0
  0
LINE
  5
43D
102
{ACAD_REACTORS
330
579
102
}
330
1F
100
AcDbEntity
  8
LC-003-005-----0
 62
     7
370
    25
100
AcDbLine
 10
229.821824
 20
283.561939
 30
0.0
 11
231.555503
 21
285.295619
 31
0.0
  0
LINE
  5
43E
102
{ACAD_REACTORS
330
579
102
}
330
1F
100
AcDbEntity
  8
LC-003-005-----0
 62
     7
370
    25
100
AcDbLine
 10
35.014867
 20
266.945891
 30
0.0
 11
39.624056
 21
271.55508
 31
0.0
  0
LINE
  5
43F
102
{ACAD_REACTORS
330
579
102
}
330
1F
100
AcDbEntity
  8
LC-003-005-----0
 62
     7
370
    25
100
AcDbLine
 10
32.75195
 20
267.511401
 30
0.0
 11
36.795629
 21
271.55508
 31
0.0
  0
LINE
  5
440
102
{ACAD_REACTORS
330
579
102
}
330
1F
100
AcDbEntity
  8
LC-003-005-----0
 62
     7
370
    25
100
AcDbLine
 10
32.663449
 20
270.251328
 30
0.0
 11
35.91454
 21
273.502418
 31
0.0
  0
LINE
  5
441
102
{ACAD_REACTORS
330
579
102
}
330
1F
100
AcDbEntity
  8
LC-003-005-----0
 62
     7
370
    25
100
AcDbLine
 10
32.663495
 20
273.079801
 30
0.0
 11
35.914332
 21
276.330637
 31
0.0
  0
LINE
  5
442
102
{ACAD_REACTORS
330
579
102
}
330
1F
100
AcDbEntity
  8
LC-003-005-----0
 62
     7
370
    25
100
AcDbLine
 10
32.663541
 20
275.908274
 30
0.0
 11
35.914124
 21
279.158856
 31
0.0
  0
LINE
  5
443
102
{ACAD_REACTORS
330
579
102
}
330
1F
100
AcDbEntity
  8
LC-003-005-----0
 62
     7
370
    25
100
AcDbLine
 10
32.663587
 20
278.736746
 30
0.0
 11
35.515863
 21
281.589023
 31
0.0
  0
LINE
  5
444
102
{ACAD_REACTORS
330
579
102
}
330
1F
100
AcDbEntity
  8
LC-003-005-----0
 62
     7
370
    25
100
AcDbLine
 10
32.530536
 20
281.432123
 30
0.0
 11
35.511456
 21
284.413043
 31
0.0
  0
LINE
  5
445
102
{ACAD_REACTORS
330
579
102
}
330
1F
100
AcDbEntity
  8
LC-003-005-----0
 62
     7
370
    25
100
AcDbLine
 10
30.568855
 20
282.29887
 30
0.0
 11
33.570043
 21
285.300057
 31
0.0
  0
LINE
  5
446
102
{ACAD_REACTORS
330
579
102
}
330
1F
100
AcDbEntity
  8
LC-003-005-----0
 62
     7
370
    25
100
AcDbLine
 10
27.933056
 20
282.491497
 30
0.0
 11
30.742564
 21
285.301005
 31
0.0
  0
LINE
  5
447
102
{ACAD_REACTORS
330
579
102
}
330
1F
100
AcDbEntity
  8
LC-003-005-----0
 62
     7
370
    25
100
AcDbLine
 10
25.859414
 20
283.246282
 30
0.0
 11
28.200013
 21
285.586881
 31
0.0
  0
LINE
  5
448
102
{ACAD_REACTORS
330
579
102
}
330
1F
100
AcDbEntity
  8
LC-003-005-----0
 62
     7
370
    25
100
AcDbLine
 10
23.785773
 20
284.001068
 30
0.0
 11
26.126371
 21
286.341667
 31
0.0
  0
LINE
  5
449
102
{ACAD_REACTORS
330
579
102
}
330
1F
100
AcDbEntity
  8
LC-003-005-----0
 62
     7
370
    25
100
AcDbLine
 10
21.712131
 20
284.755854
 30
0.0
 11
24.05273
 21
287.096452
 31
0.0
  0
LINE
  5
44A
102
{ACAD_REACTORS
330
579
102
}
330
1F
100
AcDbEntity
  8
LC-003-005-----0
 62
     7
370
    25
100
AcDbLine
 10
19.638489
 20
285.510639
 30
0.0
 11
21.979088
 21
287.851238
 31
0.0
  0
LINE
  5
44B
102
{ACAD_REACTORS
330
579
102
}
330
1F
100
AcDbEntity
  8
LC-003-005-----0
 62
     7
370
    25
100
AcDbLine
 10
17.564848
 20
286.265425
 30
0.0
 11
19.905446
 21
288.606023
 31
0.0
  0
LINE
  5
44C
102
{ACAD_REACTORS
330
579
102
}
330
1F
100
AcDbEntity
  8
LC-003-005-----0
 62
     7
370
    25
100
AcDbLine
 10
15.491206
 20
287.02021
 30
0.0
 11
17.831805
 21
289.360809
 31
0.0
  0
LINE
  5
44D
102
{ACAD_REACTORS
330
579
102
}
330
1F
100
AcDbEntity
  8
LC-003-005-----0
 62
     7
370
    25
100
AcDbLine
 10
13.417564
 20
287.774996
 30
0.0
 11
15.758163
 21
290.115594
 31
0.0
  0
LINE
  5
44E
102
{ACAD_REACTORS
330
579
102
}
330
1F
100
AcDbEntity
  8
LC-003-005-----0
 62
     7
370
    25
100
AcDbLine
 10
11.343923
 20
288.529781
 30
0.0
 11
13.684522
 21
290.87038
 31
0.0
  0
LINE
  5
44F
102
{ACAD_REACTORS
330
579
102
}
330
1F
100
AcDbEntity
  8
LC-003-005-----0
 62
     7
370
    25
100
AcDbLine
 10
9.270281
 20
289.284567
 30
0.0
 11
11.61088
 21
291.625165
 31
0.0
  0
LINE
  5
450
102
{ACAD_REACTORS
330
579
102
}
330
1F
100
AcDbEntity
  8
LC-003-005-----0
 62
     7
370
    25
100
AcDbLine
 10
7.19664
 20
290.039352
 30
0.0
 11
9.537238
 21
292.379951
 31
0.0
  0
LINE
  5
451
102
{ACAD_REACTORS
330
579
102
}
330
1F
100
AcDbEntity
  8
LC-003-005-----0
 62
     7
370
    25
100
AcDbLine
 10
5.122998
 20
290.794138
 30
0.0
 11
7.463597
 21
293.134736
 31
0.0
  0
LINE
  5
452
102
{ACAD_REACTORS
330
579
102
}
330
1F
100
AcDbEntity
  8
LC-003-005-----0
 62
     7
370
    25
100
AcDbLine
 10
2.558363
 20
291.05793
 30
0.0
 11
5.389955
 21
293.889522
 31
0.0
  0
LINE
  5
453
102
{ACAD_REACTORS
330
579
102
}
330
1F
100
AcDbEntity
  8
LC-003-005-----0
 62
     7
370
    25
100
AcDbLine
 10
-0.270001
 20
291.057993
 30
0.0
 11
2.729932
 21
294.057926
 31
0.0
  0
LINE
  5
454
102
{ACAD_REACTORS
330
579
102
}
330
1F
100
AcDbEntity
  8
LC-003-005-----0
 62
     7
370
    25
100
AcDbLine
 10
-3.098366
 20
291.058055
 30
0.0
 11
-0.098432
 21
294.057989
 31
0.0
  0
LINE
  5
455
102
{ACAD_REACTORS
330
579
102
}
330
1F
100
AcDbEntity
  8
LC-003-005-----0
 62
     7
370
    25
100
AcDbLine
 10
-5.926731
 20
291.058117
 30
0.0
 11
-2.926797
 21
294.058051
 31
0.0
  0
LINE
  5
456
102
{ACAD_REACTORS
330
579
102
}
330
1F
100
AcDbEntity
  8
LC-003-005-----0
 62
     7
370
    25
100
AcDbLine
 10
-8.755095
 20
291.05818
 30
0.0
 11
-5.755162
 21
294.058114
 31
0.0
  0
LINE
  5
457
102
{ACAD_REACTORS
330
579
102
}
330
1F
100
AcDbEntity
  8
LC-003-005-----0
 62
     7
370
    25
100
AcDbLine
 10
-11.58346
 20
291.058242
 30
0.0
 11
-8.583526
 21
294.058176
 31
0.0
  0
LINE
  5
458
102
{ACAD_REACTORS
330
579
102
}
330
1F
100
AcDbEntity
  8
LC-003-005-----0
 62
     7
370
    25
100
AcDbLine
 10
-14.411825
 20
291.058305
 30
0.0
 11
-11.411891
 21
294.058239
 31
0.0
  0
LINE
  5
459
102
{ACAD_REACTORS
330
579
102
}
330
1F
100
AcDbEntity
  8
LC-003-005-----0
 62
     7
370
    25
100
AcDbLine
 10
-17.240189
 20
291.058367
 30
0.0
 11
-14.240256
 21
294.058301
 31
0.0
  0
LINE
  5
45A
102
{ACAD_REACTORS
330
579
102
}
330
1F
100
AcDbEntity
  8
LC-003-005-----0
 62
     7
370
    25
100
AcDbLine
 10
-20.068554
 20
291.05843
 30
0.0
 11
-17.06862
 21
294.058363
 31
0.0
  0
LINE
  5
45B
102
{ACAD_REACTORS
330
579
102
}
330
1F
100
AcDbEntity
  8
LC-003-005-----0
 62
     7
370
    25
100
AcDbLine
 10
-22.896919
 20
291.058492
 30
0.0
 11
-19.896985
 21
294.058426
 31
0.0
  0
LINE
  5
45C
102
{ACAD_REACTORS
330
579
102
}
330
1F
100
AcDbEntity
  8
LC-003-005-----0
 62
     7
370
    25
100
AcDbLine
 10
-25.725283
 20
291.058555
 30
0.0
 11
-22.72535
 21
294.058488
 31
0.0
  0
LINE
  5
45D
102
{ACAD_REACTORS
330
579
102
}
330
1F
100
AcDbEntity
  8
LC-003-005-----0
 62
     7
370
    25
100
AcDbLine
 10
-28.553648
 20
291.058617
 30
0.0
 11
-25.553714
 21
294.058551
 31
0.0
  0
LINE
  5
45E
102
{ACAD_REACTORS
330
579
102
}
330
1F
100
AcDbEntity
  8
LC-003-005-----0
 62
     7
370
    25
100
AcDbLine
 10
-31.382013
 20
291.058679
 30
0.0
 11
-28.382079
 21
294.058613
 31
0.0
  0
LINE
  5
45F
102
{ACAD_REACTORS
330
579
102
}
330
1F
100
AcDbEntity
  8
LC-003-005-----0
 62
     7
370
    25
100
AcDbLine
 10
-34.210377
 20
291.058742
 30
0.0
 11
-31.210444
 21
294.058676
 31
0.0
  0
LINE
  5
460
102
{ACAD_REACTORS
330
579
102
}
330
1F
100
AcDbEntity
  8
LC-003-005-----0
 62
     7
370
    25
100
AcDbLine
 10
-37.038742
 20
291.058804
 30
0.0
 11
-34.038808
 21
294.058738
 31
0.0
  0
LINE
  5
461
102
{ACAD_REACTORS
330
579
102
}
330
1F
100
AcDbEntity
  8
LC-003-005-----0
 62
     7
370
    25
100
AcDbLine
 10
-39.867107
 20
291.058867
 30
0.0
 11
-36.867173
 21
294.058801
 31
0.0
  0
LINE
  5
462
102
{ACAD_REACTORS
330
579
102
}
330
1F
100
AcDbEntity
  8
LC-003-005-----0
 62
     7
370
    25
100
AcDbLine
 10
-42.695471
 20
291.058929
 30
0.0
 11
-39.695538
 21
294.058863
 31
0.0
  0
LINE
  5
463
102
{ACAD_REACTORS
330
579
102
}
330
1F
100
AcDbEntity
  8
LC-003-005-----0
 62
     7
370
    25
100
AcDbLine
 10
-44.320594
 20
292.262234
 30
0.0
 11
-42.534268
 21
294.04856
 31
0.0
  0
LINE
  5
464
102
{ACAD_REACTORS
330
57D
102
}
330
1F
100
AcDbEntity
  8
LC-003-005-----0
 62
     7
370
    25
100
AcDbLine
 10
71.327427
 20
-50.294939
 30
0.0
 11
73.161527
 21
-48.460839
 31
0.0
  0
LINE
  5
465
102
{ACAD_REACTORS
330
57D
102
}
330
1F
100
AcDbEntity
  8
LC-003-005-----0
 62
     7
370
    25
100
AcDbLine
 10
70.729752
 20
-48.064187
 30
0.0
 11
73.161589
 21
-45.63235
 31
0.0
  0
LINE
  5
466
102
{ACAD_REACTORS
330
57D
102
}
330
1F
100
AcDbEntity
  8
LC-003-005-----0
 62
     7
370
    25
100
AcDbLine
 10
70.161586
 20
-45.803927
 30
0.0
 11
73.161652
 21
-42.80386
 31
0.0
  0
LINE
  5
467
102
{ACAD_REACTORS
330
57D
102
}
330
1F
100
AcDbEntity
  8
LC-003-005-----0
 62
     7
370
    25
100
AcDbLine
 10
70.161648
 20
-42.975437
 30
0.0
 11
73.161714
 21
-39.975371
 31
0.0
  0
LINE
  5
468
102
{ACAD_REACTORS
330
57D
102
}
330
1F
100
AcDbEntity
  8
LC-003-005-----0
 62
     7
370
    25
100
AcDbLine
 10
70.16171
 20
-40.146947
 30
0.0
 11
73.161777
 21
-37.146881
 31
0.0
  0
LINE
  5
469
102
{ACAD_REACTORS
330
57D
102
}
330
1F
100
AcDbEntity
  8
LC-003-005-----0
 62
     7
370
    25
100
AcDbLine
 10
70.161773
 20
-37.318458
 30
0.0
 11
73.161839
 21
-34.318392
 31
0.0
  0
LINE
  5
46A
102
{ACAD_REACTORS
330
57D
102
}
330
1F
100
AcDbEntity
  8
LC-003-005-----0
 62
     7
370
    25
100
AcDbLine
 10
70.161835
 20
-34.489968
 30
0.0
 11
73.161902
 21
-31.489902
 31
0.0
  0
LINE
  5
46B
102
{ACAD_REACTORS
330
57D
102
}
330
1F
100
AcDbEntity
  8
LC-003-005-----0
 62
     7
370
    25
100
AcDbLine
 10
70.161898
 20
-31.661479
 30
0.0
 11
73.161964
 21
-28.661412
 31
0.0
  0
LINE
  5
46C
102
{ACAD_REACTORS
330
57D
102
}
330
1F
100
AcDbEntity
  8
LC-003-005-----0
 62
     7
370
    25
100
AcDbLine
 10
70.16196
 20
-28.832989
 30
0.0
 11
73.162026
 21
-25.832923
 31
0.0
  0
LINE
  5
46D
102
{ACAD_REACTORS
330
57D
102
}
330
1F
100
AcDbEntity
  8
LC-003-005-----0
 62
     7
370
    25
100
AcDbLine
 10
70.162023
 20
-26.0045
 30
0.0
 11
73.162089
 21
-23.004433
 31
0.0
  0
LINE
  5
46E
102
{ACAD_REACTORS
330
57D
102
}
330
1F
100
AcDbEntity
  8
LC-003-005-----0
 62
     7
370
    25
100
AcDbLine
 10
70.162085
 20
-23.17601
 30
0.0
 11
73.162151
 21
-20.175944
 31
0.0
  0
LINE
  5
46F
102
{ACAD_REACTORS
330
57D
102
}
330
1F
100
AcDbEntity
  8
LC-003-005-----0
 62
     7
370
    25
100
AcDbLine
 10
70.162148
 20
-20.34752
 30
0.0
 11
73.162214
 21
-17.347454
 31
0.0
  0
LINE
  5
470
102
{ACAD_REACTORS
330
57D
102
}
330
1F
100
AcDbEntity
  8
LC-003-005-----0
 62
     7
370
    25
100
AcDbLine
 10
70.16221
 20
-17.519031
 30
0.0
 11
73.162276
 21
-14.518965
 31
0.0
  0
LINE
  5
471
102
{ACAD_REACTORS
330
57D
102
}
330
1F
100
AcDbEntity
  8
LC-003-005-----0
 62
     7
370
    25
100
AcDbLine
 10
70.162273
 20
-14.690541
 30
0.0
 11
73.162339
 21
-11.690475
 31
0.0
  0
LINE
  5
472
102
{ACAD_REACTORS
330
57D
102
}
330
1F
100
AcDbEntity
  8
LC-003-005-----0
 62
     7
370
    25
100
AcDbLine
 10
70.162335
 20
-11.862052
 30
0.0
 11
73.162401
 21
-8.861985
 31
0.0
  0
LINE
  5
473
102
{ACAD_REACTORS
330
57D
102
}
330
1F
100
AcDbEntity
  8
LC-003-005-----0
 62
     7
370
    25
100
AcDbLine
 10
70.162397
 20
-9.033562
 30
0.0
 11
73.162464
 21
-6.033496
 31
0.0
  0
LINE
  5
474
102
{ACAD_REACTORS
330
57D
102
}
330
1F
100
AcDbEntity
  8
LC-003-005-----0
 62
     7
370
    25
100
AcDbLine
 10
70.16246
 20
-6.205073
 30
0.0
 11
73.162526
 21
-3.205006
 31
0.0
  0
LINE
  5
475
102
{ACAD_REACTORS
330
57D
102
}
330
1F
100
AcDbEntity
  8
LC-003-005-----0
 62
     7
370
    25
100
AcDbLine
 10
70.162522
 20
-3.376583
 30
0.0
 11
73.162589
 21
-0.376517
 31
0.0
  0
LINE
  5
476
102
{ACAD_REACTORS
330
57D
102
}
330
1F
100
AcDbEntity
  8
LC-003-005-----0
 62
     7
370
    25
100
AcDbLine
 10
70.162585
 20
-0.548093
 30
0.0
 11
73.162651
 21
2.451973
 31
0.0
  0
LINE
  5
477
102
{ACAD_REACTORS
330
57D
102
}
330
1F
100
AcDbEntity
  8
LC-003-005-----0
 62
     7
370
    25
100
AcDbLine
 10
70.162647
 20
2.280396
 30
0.0
 11
73.162713
 21
5.280462
 31
0.0
  0
LINE
  5
478
102
{ACAD_REACTORS
330
57D
102
}
330
1F
100
AcDbEntity
  8
LC-003-005-----0
 62
     7
370
    25
100
AcDbLine
 10
70.16271
 20
5.108886
 30
0.0
 11
73.162776
 21
8.108952
 31
0.0
  0
LINE
  5
479
102
{ACAD_REACTORS
330
57D
102
}
330
1F
100
AcDbEntity
  8
LC-003-005-----0
 62
     7
370
    25
100
AcDbLine
 10
70.162772
 20
7.937375
 30
0.0
 11
73.162838
 21
10.937442
 31
0.0
  0
LINE
  5
47A
102
{ACAD_REACTORS
330
57D
102
}
330
1F
100
AcDbEntity
  8
LC-003-005-----0
 62
     7
370
    25
100
AcDbLine
 10
70.162835
 20
10.765865
 30
0.0
 11
73.162901
 21
13.765931
 31
0.0
  0
LINE
  5
47B
102
{ACAD_REACTORS
330
57D
102
}
330
1F
100
AcDbEntity
  8
LC-003-005-----0
 62
     7
370
    25
100
AcDbLine
 10
70.162897
 20
13.594355
 30
0.0
 11
73.162963
 21
16.594421
 31
0.0
  0
LINE
  5
47C
102
{ACAD_REACTORS
330
57D
102
}
330
1F
100
AcDbEntity
  8
LC-003-005-----0
 62
     7
370
    25
100
AcDbLine
 10
70.162959
 20
16.422844
 30
0.0
 11
73.163026
 21
19.42291
 31
0.0
  0
LINE
  5
47D
102
{ACAD_REACTORS
330
57D
102
}
330
1F
100
AcDbEntity
  8
LC-003-005-----0
 62
     7
370
    25
100
AcDbLine
 10
70.163022
 20
19.251334
 30
0.0
 11
73.163088
 21
22.2514
 31
0.0
  0
LINE
  5
47E
102
{ACAD_REACTORS
330
57D
102
}
330
1F
100
AcDbEntity
  8
LC-003-005-----0
 62
     7
370
    25
100
AcDbLine
 10
70.163084
 20
22.079823
 30
0.0
 11
73.163151
 21
25.079889
 31
0.0
  0
LINE
  5
47F
102
{ACAD_REACTORS
330
57D
102
}
330
1F
100
AcDbEntity
  8
LC-003-005-----0
 62
     7
370
    25
100
AcDbLine
 10
70.163147
 20
24.908313
 30
0.0
 11
73.163213
 21
27.908379
 31
0.0
  0
LINE
  5
480
102
{ACAD_REACTORS
330
57D
102
}
330
1F
100
AcDbEntity
  8
LC-003-005-----0
 62
     7
370
    25
100
AcDbLine
 10
70.163209
 20
27.736802
 30
0.0
 11
73.163275
 21
30.736869
 31
0.0
  0
LINE
  5
481
102
{ACAD_REACTORS
330
57D
102
}
330
1F
100
AcDbEntity
  8
LC-003-005-----0
 62
     7
370
    25
100
AcDbLine
 10
70.163272
 20
30.565292
 30
0.0
 11
73.163338
 21
33.565358
 31
0.0
  0
LINE
  5
482
102
{ACAD_REACTORS
330
57D
102
}
330
1F
100
AcDbEntity
  8
LC-003-005-----0
 62
     7
370
    25
100
AcDbLine
 10
70.163334
 20
33.393782
 30
0.0
 11
73.1634
 21
36.393848
 31
0.0
  0
LINE
  5
483
102
{ACAD_REACTORS
330
57D
102
}
330
1F
100
AcDbEntity
  8
LC-003-005-----0
 62
     7
370
    25
100
AcDbLine
 10
70.163397
 20
36.222271
 30
0.0
 11
73.163463
 21
39.222337
 31
0.0
  0
LINE
  5
484
102
{ACAD_REACTORS
330
57D
102
}
330
1F
100
AcDbEntity
  8
LC-003-005-----0
 62
     7
370
    25
100
AcDbLine
 10
70.163459
 20
39.050761
 30
0.0
 11
73.163525
 21
42.050827
 31
0.0
  0
LINE
  5
485
102
{ACAD_REACTORS
330
57D
102
}
330
1F
100
AcDbEntity
  8
LC-003-005-----0
 62
     7
370
    25
100
AcDbLine
 10
70.163522
 20
41.87925
 30
0.0
 11
73.163588
 21
44.879316
 31
0.0
  0
LINE
  5
486
102
{ACAD_REACTORS
330
57D
102
}
330
1F
100
AcDbEntity
  8
LC-003-005-----0
 62
     7
370
    25
100
AcDbLine
 10
70.163584
 20
44.70774
 30
0.0
 11
73.16365
 21
47.707806
 31
0.0
  0
LINE
  5
487
102
{ACAD_REACTORS
330
57D
102
}
330
1F
100
AcDbEntity
  8
LC-003-005-----0
 62
     7
370
    25
100
AcDbLine
 10
70.163646
 20
47.536229
 30
0.0
 11
73.163713
 21
50.536296
 31
0.0
  0
LINE
  5
488
102
{ACAD_REACTORS
330
57D
102
}
330
1F
100
AcDbEntity
  8
LC-003-005-----0
 62
     7
370
    25
100
AcDbLine
 10
70.163709
 20
50.364719
 30
0.0
 11
73.163775
 21
53.364785
 31
0.0
  0
LINE
  5
489
102
{ACAD_REACTORS
330
57D
102
}
330
1F
100
AcDbEntity
  8
LC-003-005-----0
 62
     7
370
    25
100
AcDbLine
 10
70.163771
 20
53.193209
 30
0.0
 11
73.163838
 21
56.193275
 31
0.0
  0
LINE
  5
48A
102
{ACAD_REACTORS
330
57D
102
}
330
1F
100
AcDbEntity
  8
LC-003-005-----0
 62
     7
370
    25
100
AcDbLine
 10
70.163834
 20
56.021698
 30
0.0
 11
73.1639
 21
59.021764
 31
0.0
  0
LINE
  5
48B
102
{ACAD_REACTORS
330
57D
102
}
330
1F
100
AcDbEntity
  8
LC-003-005-----0
 62
     7
370
    25
100
AcDbLine
 10
70.163896
 20
58.850188
 30
0.0
 11
73.163962
 21
61.850254
 31
0.0
  0
LINE
  5
48C
102
{ACAD_REACTORS
330
57D
102
}
330
1F
100
AcDbEntity
  8
LC-003-005-----0
 62
     7
370
    25
100
AcDbLine
 10
70.163959
 20
61.678677
 30
0.0
 11
73.164025
 21
64.678744
 31
0.0
  0
LINE
  5
48D
102
{ACAD_REACTORS
330
57D
102
}
330
1F
100
AcDbEntity
  8
LC-003-005-----0
 62
     7
370
    25
100
AcDbLine
 10
70.164021
 20
64.507167
 30
0.0
 11
73.164087
 21
67.507233
 31
0.0
  0
LINE
  5
48E
102
{ACAD_REACTORS
330
57D
102
}
330
1F
100
AcDbEntity
  8
LC-003-005-----0
 62
     7
370
    25
100
AcDbLine
 10
70.164084
 20
67.335656
 30
0.0
 11
73.16415
 21
70.335723
 31
0.0
  0
LINE
  5
48F
102
{ACAD_REACTORS
330
57D
102
}
330
1F
100
AcDbEntity
  8
LC-003-005-----0
 62
     7
370
    25
100
AcDbLine
 10
70.164146
 20
70.164146
 30
0.0
 11
73.164212
 21
73.164212
 31
0.0
  0
LINE
  5
490
102
{ACAD_REACTORS
330
57D
102
}
330
1F
100
AcDbEntity
  8
LC-003-005-----0
 62
     7
370
    25
100
AcDbLine
 10
70.164208
 20
72.992636
 30
0.0
 11
73.164275
 21
75.992702
 31
0.0
  0
LINE
  5
491
102
{ACAD_REACTORS
330
57D
102
}
330
1F
100
AcDbEntity
  8
LC-003-005-----0
 62
     7
370
    25
100
AcDbLine
 10
70.164271
 20
75.821125
 30
0.0
 11
73.164337
 21
78.821191
 31
0.0
  0
LINE
  5
492
102
{ACAD_REACTORS
330
57D
102
}
330
1F
100
AcDbEntity
  8
LC-003-005-----0
 62
     7
370
    25
100
AcDbLine
 10
70.164333
 20
78.649615
 30
0.0
 11
73.1644
 21
81.649681
 31
0.0
  0
LINE
  5
493
102
{ACAD_REACTORS
330
57D
102
}
330
1F
100
AcDbEntity
  8
LC-003-005-----0
 62
     7
370
    25
100
AcDbLine
 10
70.164396
 20
81.478104
 30
0.0
 11
73.164462
 21
84.478171
 31
0.0
  0
LINE
  5
494
102
{ACAD_REACTORS
330
57D
102
}
330
1F
100
AcDbEntity
  8
LC-003-005-----0
 62
     7
370
    25
100
AcDbLine
 10
70.164458
 20
84.306594
 30
0.0
 11
73.164524
 21
87.30666
 31
0.0
  0
LINE
  5
495
102
{ACAD_REACTORS
330
57D
102
}
330
1F
100
AcDbEntity
  8
LC-003-005-----0
 62
     7
370
    25
100
AcDbLine
 10
70.164521
 20
87.135083
 30
0.0
 11
73.164587
 21
90.13515
 31
0.0
  0
LINE
  5
496
102
{ACAD_REACTORS
330
57D
102
}
330
1F
100
AcDbEntity
  8
LC-003-005-----0
 62
     7
370
    25
100
AcDbLine
 10
70.164583
 20
89.963573
 30
0.0
 11
73.164649
 21
92.963639
 31
0.0
  0
LINE
  5
497
102
{ACAD_REACTORS
330
57D
102
}
330
1F
100
AcDbEntity
  8
LC-003-005-----0
 62
     7
370
    25
100
AcDbLine
 10
70.164646
 20
92.792063
 30
0.0
 11
73.164712
 21
95.792129
 31
0.0
  0
LINE
  5
498
102
{ACAD_REACTORS
330
57D
102
}
330
1F
100
AcDbEntity
  8
LC-003-005-----0
 62
     7
370
    25
100
AcDbLine
 10
70.164708
 20
95.620552
 30
0.0
 11
73.164774
 21
98.620618
 31
0.0
  0
LINE
  5
499
102
{ACAD_REACTORS
330
57D
102
}
330
1F
100
AcDbEntity
  8
LC-003-005-----0
 62
     7
370
    25
100
AcDbLine
 10
70.164771
 20
98.449042
 30
0.0
 11
73.164837
 21
101.449108
 31
0.0
  0
LINE
  5
49A
102
{ACAD_REACTORS
330
57D
102
}
330
1F
100
AcDbEntity
  8
LC-003-005-----0
 62
     7
370
    25
100
AcDbLine
 10
70.164833
 20
101.277531
 30
0.0
 11
73.164899
 21
104.277598
 31
0.0
  0
LINE
  5
49B
102
{ACAD_REACTORS
330
57D
102
}
330
1F
100
AcDbEntity
  8
LC-003-005-----0
 62
     7
370
    25
100
AcDbLine
 10
70.164895
 20
104.106021
 30
0.0
 11
73.164962
 21
107.106087
 31
0.0
  0
LINE
  5
49C
102
{ACAD_REACTORS
330
57D
102
}
330
1F
100
AcDbEntity
  8
LC-003-005-----0
 62
     7
370
    25
100
AcDbLine
 10
70.164958
 20
106.93451
 30
0.0
 11
73.165024
 21
109.934577
 31
0.0
  0
LINE
  5
49D
102
{ACAD_REACTORS
330
57D
102
}
330
1F
100
AcDbEntity
  8
LC-003-005-----0
 62
     7
370
    25
100
AcDbLine
 10
70.16502
 20
109.763
 30
0.0
 11
73.165087
 21
112.763066
 31
0.0
  0
LINE
  5
49E
102
{ACAD_REACTORS
330
57D
102
}
330
1F
100
AcDbEntity
  8
LC-003-005-----0
 62
     7
370
    25
100
AcDbLine
 10
70.165083
 20
112.59149
 30
0.0
 11
73.165149
 21
115.591556
 31
0.0
  0
LINE
  5
49F
102
{ACAD_REACTORS
330
57D
102
}
330
1F
100
AcDbEntity
  8
LC-003-005-----0
 62
     7
370
    25
100
AcDbLine
 10
70.165145
 20
115.419979
 30
0.0
 11
73.165211
 21
118.420045
 31
0.0
  0
LINE
  5
4A0
102
{ACAD_REACTORS
330
57D
102
}
330
1F
100
AcDbEntity
  8
LC-003-005-----0
 62
     7
370
    25
100
AcDbLine
 10
70.165208
 20
118.248469
 30
0.0
 11
73.165274
 21
121.248535
 31
0.0
  0
LINE
  5
4A1
102
{ACAD_REACTORS
330
57D
102
}
330
1F
100
AcDbEntity
  8
LC-003-005-----0
 62
     7
370
    25
100
AcDbLine
 10
70.16527
 20
121.076958
 30
0.0
 11
73.165336
 21
124.077025
 31
0.0
  0
LINE
  5
4A2
102
{ACAD_REACTORS
330
57D
102
}
330
1F
100
AcDbEntity
  8
LC-003-005-----0
 62
     7
370
    25
100
AcDbLine
 10
70.165333
 20
123.905448
 30
0.0
 11
73.165399
 21
126.905514
 31
0.0
  0
LINE
  5
4A3
102
{ACAD_REACTORS
330
57D
102
}
330
1F
100
AcDbEntity
  8
LC-003-005-----0
 62
     7
370
    25
100
AcDbLine
 10
70.165395
 20
126.733938
 30
0.0
 11
73.165461
 21
129.734004
 31
0.0
  0
LINE
  5
4A4
102
{ACAD_REACTORS
330
57D
102
}
330
1F
100
AcDbEntity
  8
LC-003-005-----0
 62
     7
370
    25
100
AcDbLine
 10
70.165457
 20
129.562427
 30
0.0
 11
73.165524
 21
132.562493
 31
0.0
  0
LINE
  5
4A5
102
{ACAD_REACTORS
330
57D
102
}
330
1F
100
AcDbEntity
  8
LC-003-005-----0
 62
     7
370
    25
100
AcDbLine
 10
70.16552
 20
132.390917
 30
0.0
 11
73.165586
 21
135.390983
 31
0.0
  0
LINE
  5
4A6
102
{ACAD_REACTORS
330
57D
102
}
330
1F
100
AcDbEntity
  8
LC-003-005-----0
 62
     7
370
    25
100
AcDbLine
 10
70.165582
 20
135.219406
 30
0.0
 11
73.165649
 21
138.219472
 31
0.0
  0
LINE
  5
4A7
102
{ACAD_REACTORS
330
57D
102
}
330
1F
100
AcDbEntity
  8
LC-003-005-----0
 62
     7
370
    25
100
AcDbLine
 10
70.165645
 20
138.047896
 30
0.0
 11
73.165711
 21
141.047962
 31
0.0
  0
LINE
  5
4A8
102
{ACAD_REACTORS
330
57D
102
}
330
1F
100
AcDbEntity
  8
LC-003-005-----0
 62
     7
370
    25
100
AcDbLine
 10
70.165707
 20
140.876385
 30
0.0
 11
73.165773
 21
143.876452
 31
0.0
  0
LINE
  5
4A9
102
{ACAD_REACTORS
330
57D
102
}
330
1F
100
AcDbEntity
  8
LC-003-005-----0
 62
     7
370
    25
100
AcDbLine
 10
70.16577
 20
143.704875
 30
0.0
 11
73.165836
 21
146.704941
 31
0.0
  0
LINE
  5
4AA
102
{ACAD_REACTORS
330
57D
102
}
330
1F
100
AcDbEntity
  8
LC-003-005-----0
 62
     7
370
    25
100
AcDbLine
 10
70.165832
 20
146.533365
 30
0.0
 11
73.165898
 21
149.533431
 31
0.0
  0
LINE
  5
4AB
102
{ACAD_REACTORS
330
57D
102
}
330
1F
100
AcDbEntity
  8
LC-003-005-----0
 62
     7
370
    25
100
AcDbLine
 10
70.165895
 20
149.361854
 30
0.0
 11
73.165961
 21
152.36192
 31
0.0
  0
LINE
  5
4AC
102
{ACAD_REACTORS
330
57D
102
}
330
1F
100
AcDbEntity
  8
LC-003-005-----0
 62
     7
370
    25
100
AcDbLine
 10
70.165957
 20
152.190344
 30
0.0
 11
73.166023
 21
155.19041
 31
0.0
  0
LINE
  5
4AD
102
{ACAD_REACTORS
330
57D
102
}
330
1F
100
AcDbEntity
  8
LC-003-005-----0
 62
     7
370
    25
100
AcDbLine
 10
70.16602
 20
155.018833
 30
0.0
 11
73.166086
 21
158.018899
 31
0.0
  0
LINE
  5
4AE
102
{ACAD_REACTORS
330
57D
102
}
330
1F
100
AcDbEntity
  8
LC-003-005-----0
 62
     7
370
    25
100
AcDbLine
 10
70.166082
 20
157.847323
 30
0.0
 11
73.166148
 21
160.847389
 31
0.0
  0
LINE
  5
4AF
102
{ACAD_REACTORS
330
57D
102
}
330
1F
100
AcDbEntity
  8
LC-003-005-----0
 62
     7
370
    25
100
AcDbLine
 10
70.166144
 20
160.675812
 30
0.0
 11
73.166211
 21
163.675879
 31
0.0
  0
LINE
  5
4B0
102
{ACAD_REACTORS
330
57D
102
}
330
1F
100
AcDbEntity
  8
LC-003-005-----0
 62
     7
370
    25
100
AcDbLine
 10
70.166207
 20
163.504302
 30
0.0
 11
73.166273
 21
166.504368
 31
0.0
  0
LINE
  5
4B1
102
{ACAD_REACTORS
330
57D
102
}
330
1F
100
AcDbEntity
  8
LC-003-005-----0
 62
     7
370
    25
100
AcDbLine
 10
70.166269
 20
166.332792
 30
0.0
 11
73.166336
 21
169.332858
 31
0.0
  0
LINE
  5
4B2
102
{ACAD_REACTORS
330
57D
102
}
330
1F
100
AcDbEntity
  8
LC-003-005-----0
 62
     7
370
    25
100
AcDbLine
 10
70.166332
 20
169.161281
 30
0.0
 11
73.166398
 21
172.161347
 31
0.0
  0
LINE
  5
4B3
102
{ACAD_REACTORS
330
57D
102
}
330
1F
100
AcDbEntity
  8
LC-003-005-----0
 62
     7
370
    25
100
AcDbLine
 10
70.166394
 20
171.989771
 30
0.0
 11
73.16646
 21
174.989837
 31
0.0
  0
LINE
  5
4B4
102
{ACAD_REACTORS
330
57D
102
}
330
1F
100
AcDbEntity
  8
LC-003-005-----0
 62
     7
370
    25
100
AcDbLine
 10
70.166457
 20
174.81826
 30
0.0
 11
73.166523
 21
177.818327
 31
0.0
  0
LINE
  5
4B5
102
{ACAD_REACTORS
330
57D
102
}
330
1F
100
AcDbEntity
  8
LC-003-005-----0
 62
     7
370
    25
100
AcDbLine
 10
70.166519
 20
177.64675
 30
0.0
 11
73.166585
 21
180.646816
 31
0.0
  0
LINE
  5
4B6
102
{ACAD_REACTORS
330
57D
102
}
330
1F
100
AcDbEntity
  8
LC-003-005-----0
 62
     7
370
    25
100
AcDbLine
 10
70.166582
 20
180.475239
 30
0.0
 11
73.166648
 21
183.475306
 31
0.0
  0
LINE
  5
4B7
102
{ACAD_REACTORS
330
57D
102
}
330
1F
100
AcDbEntity
  8
LC-003-005-----0
 62
     7
370
    25
100
AcDbLine
 10
70.166644
 20
183.303729
 30
0.0
 11
73.16671
 21
186.303795
 31
0.0
  0
LINE
  5
4B8
102
{ACAD_REACTORS
330
57D
102
}
330
1F
100
AcDbEntity
  8
LC-003-005-----0
 62
     7
370
    25
100
AcDbLine
 10
70.166706
 20
186.132219
 30
0.0
 11
73.166773
 21
189.132285
 31
0.0
  0
LINE
  5
4B9
102
{ACAD_REACTORS
330
57D
102
}
330
1F
100
AcDbEntity
  8
LC-003-005-----0
 62
     7
370
    25
100
AcDbLine
 10
70.166769
 20
188.960708
 30
0.0
 11
73.166835
 21
191.960774
 31
0.0
  0
LINE
  5
4BA
102
{ACAD_REACTORS
330
57D
102
}
330
1F
100
AcDbEntity
  8
LC-003-005-----0
 62
     7
370
    25
100
AcDbLine
 10
70.166831
 20
191.789198
 30
0.0
 11
73.166898
 21
194.789264
 31
0.0
  0
LINE
  5
4BB
102
{ACAD_REACTORS
330
57D
102
}
330
1F
100
AcDbEntity
  8
LC-003-005-----0
 62
     7
370
    25
100
AcDbLine
 10
70.166894
 20
194.617687
 30
0.0
 11
73.16696
 21
197.617754
 31
0.0
  0
LINE
  5
4BC
102
{ACAD_REACTORS
330
57D
102
}
330
1F
100
AcDbEntity
  8
LC-003-005-----0
 62
     7
370
    25
100
AcDbLine
 10
70.166956
 20
197.446177
 30
0.0
 11
73.167022
 21
200.446243
 31
0.0
  0
LINE
  5
4BD
102
{ACAD_REACTORS
330
57D
102
}
330
1F
100
AcDbEntity
  8
LC-003-005-----0
 62
     7
370
    25
100
AcDbLine
 10
70.167019
 20
200.274666
 30
0.0
 11
73.167085
 21
203.274733
 31
0.0
  0
LINE
  5
4BE
102
{ACAD_REACTORS
330
57D
102
}
330
1F
100
AcDbEntity
  8
LC-003-005-----0
 62
     7
370
    25
100
AcDbLine
 10
70.167081
 20
203.103156
 30
0.0
 11
73.167147
 21
206.103222
 31
0.0
  0
LINE
  5
4BF
102
{ACAD_REACTORS
330
57D
102
}
330
1F
100
AcDbEntity
  8
LC-003-005-----0
 62
     7
370
    25
100
AcDbLine
 10
70.167144
 20
205.931646
 30
0.0
 11
73.16721
 21
208.931712
 31
0.0
  0
LINE
  5
4C0
102
{ACAD_REACTORS
330
57D
102
}
330
1F
100
AcDbEntity
  8
LC-003-005-----0
 62
     7
370
    25
100
AcDbLine
 10
70.167206
 20
208.760135
 30
0.0
 11
73.167272
 21
211.760201
 31
0.0
  0
LINE
  5
4C1
102
{ACAD_REACTORS
330
57D
102
}
330
1F
100
AcDbEntity
  8
LC-003-005-----0
 62
     7
370
    25
100
AcDbLine
 10
70.167269
 20
211.588625
 30
0.0
 11
73.167335
 21
214.588691
 31
0.0
  0
LINE
  5
4C2
102
{ACAD_REACTORS
330
57D
102
}
330
1F
100
AcDbEntity
  8
LC-003-005-----0
 62
     7
370
    25
100
AcDbLine
 10
70.167331
 20
214.417114
 30
0.0
 11
73.167397
 21
217.417181
 31
0.0
  0
LINE
  5
4C3
102
{ACAD_REACTORS
330
57D
102
}
330
1F
100
AcDbEntity
  8
LC-003-005-----0
 62
     7
370
    25
100
AcDbLine
 10
70.167393
 20
217.245604
 30
0.0
 11
73.16746
 21
220.24567
 31
0.0
  0
LINE
  5
4C4
102
{ACAD_REACTORS
330
57D
102
}
330
1F
100
AcDbEntity
  8
LC-003-005-----0
 62
     7
370
    25
100
AcDbLine
 10
70.167456
 20
220.074093
 30
0.0
 11
73.167522
 21
223.07416
 31
0.0
  0
LINE
  5
4C5
102
{ACAD_REACTORS
330
57D
102
}
330
1F
100
AcDbEntity
  8
LC-003-005-----0
 62
     7
370
    25
100
AcDbLine
 10
70.167518
 20
222.902583
 30
0.0
 11
73.167585
 21
225.902649
 31
0.0
  0
LINE
  5
4C6
102
{ACAD_REACTORS
330
57D
102
}
330
1F
100
AcDbEntity
  8
LC-003-005-----0
 62
     7
370
    25
100
AcDbLine
 10
70.167581
 20
225.731073
 30
0.0
 11
73.167647
 21
228.731139
 31
0.0
  0
LINE
  5
4C7
102
{ACAD_REACTORS
330
57D
102
}
330
1F
100
AcDbEntity
  8
LC-003-005-----0
 62
     7
370
    25
100
AcDbLine
 10
70.167643
 20
228.559562
 30
0.0
 11
73.167709
 21
231.559628
 31
0.0
  0
LINE
  5
4C8
102
{ACAD_REACTORS
330
57D
102
}
330
1F
100
AcDbEntity
  8
LC-003-005-----0
 62
     7
370
    25
100
AcDbLine
 10
70.167706
 20
231.388052
 30
0.0
 11
73.167772
 21
234.388118
 31
0.0
  0
LINE
  5
4C9
102
{ACAD_REACTORS
330
57D
102
}
330
1F
100
AcDbEntity
  8
LC-003-005-----0
 62
     7
370
    25
100
AcDbLine
 10
70.167768
 20
234.216541
 30
0.0
 11
73.167834
 21
237.216608
 31
0.0
  0
LINE
  5
4CA
102
{ACAD_REACTORS
330
57D
102
}
330
1F
100
AcDbEntity
  8
LC-003-005-----0
 62
     7
370
    25
100
AcDbLine
 10
70.167831
 20
237.045031
 30
0.0
 11
73.167897
 21
240.045097
 31
0.0
  0
LINE
  5
4CB
102
{ACAD_REACTORS
330
57D
102
}
330
1F
100
AcDbEntity
  8
LC-003-005-----0
 62
     7
370
    25
100
AcDbLine
 10
70.167893
 20
239.87352
 30
0.0
 11
73.167959
 21
242.873587
 31
0.0
  0
LINE
  5
4CC
102
{ACAD_REACTORS
330
57D
102
}
330
1F
100
AcDbEntity
  8
LC-003-005-----0
 62
     7
370
    25
100
AcDbLine
 10
70.119565
 20
242.65362
 30
0.0
 11
72.240886
 21
244.77494
 31
0.0
  0
LINE
  5
4CD
102
{ACAD_REACTORS
330
57D
102
}
330
1F
100
AcDbEntity
  8
LC-003-005-----0
 62
     7
370
    25
100
AcDbLine
 10
68.705383
 20
244.067865
 30
0.0
 11
70.826703
 21
246.189185
 31
0.0
  0
LINE
  5
4CE
102
{ACAD_REACTORS
330
57D
102
}
330
1F
100
AcDbEntity
  8
LC-003-005-----0
 62
     7
370
    25
100
AcDbLine
 10
67.291201
 20
245.482109
 30
0.0
 11
69.412521
 21
247.60343
 31
0.0
  0
LINE
  5
4CF
102
{ACAD_REACTORS
330
57D
102
}
330
1F
100
AcDbEntity
  8
LC-003-005-----0
 62
     7
370
    25
100
AcDbLine
 10
65.877018
 20
246.896354
 30
0.0
 11
67.998339
 21
249.017674
 31
0.0
  0
LINE
  5
4D0
102
{ACAD_REACTORS
330
57D
102
}
330
1F
100
AcDbEntity
  8
LC-003-005-----0
 62
     7
370
    25
100
AcDbLine
 10
64.462836
 20
248.310599
 30
0.0
 11
66.584156
 21
250.431919
 31
0.0
  0
LINE
  5
4D1
102
{ACAD_REACTORS
330
57D
102
}
330
1F
100
AcDbEntity
  8
LC-003-005-----0
 62
     7
370
    25
100
AcDbLine
 10
63.048653
 20
249.724844
 30
0.0
 11
65.169974
 21
251.846164
 31
0.0
  0
LINE
  5
4D2
102
{ACAD_REACTORS
330
57D
102
}
330
1F
100
AcDbEntity
  8
LC-003-005-----0
 62
     7
370
    25
100
AcDbLine
 10
60.600823
 20
250.105441
 30
0.0
 11
63.600757
 21
253.105375
 31
0.0
  0
LINE
  5
4D3
102
{ACAD_REACTORS
330
57D
102
}
330
1F
100
AcDbEntity
  8
LC-003-005-----0
 62
     7
370
    25
100
AcDbLine
 10
57.772459
 20
250.105503
 30
0.0
 11
60.772392
 21
253.105437
 31
0.0
  0
LINE
  5
4D4
102
{ACAD_REACTORS
330
57D
102
}
330
1F
100
AcDbEntity
  8
LC-003-005-----0
 62
     7
370
    25
100
AcDbLine
 10
54.944094
 20
250.105566
 30
0.0
 11
57.944028
 21
253.105499
 31
0.0
  0
LINE
  5
4D5
102
{ACAD_REACTORS
330
57D
102
}
330
1F
100
AcDbEntity
  8
LC-003-005-----0
 62
     7
370
    25
100
AcDbLine
 10
52.897905
 20
250.887804
 30
0.0
 11
55.115663
 21
253.105562
 31
0.0
  0
LINE
  5
4D6
102
{ACAD_REACTORS
330
57D
102
}
330
1F
100
AcDbEntity
  8
LC-003-005-----0
 62
     7
370
    25
100
AcDbLine
 10
51.938522
 20
252.756847
 30
0.0
 11
54.918243
 21
255.736569
 31
0.0
  0
LINE
  5
4D7
102
{ACAD_REACTORS
330
57D
102
}
330
1F
100
AcDbEntity
  8
LC-003-005-----0
 62
     7
370
    25
100
AcDbLine
 10
51.918239
 20
255.564992
 30
0.0
 11
54.918306
 21
258.565059
 31
0.0
  0
LINE
  5
4D8
102
{ACAD_REACTORS
330
57D
102
}
330
1F
100
AcDbEntity
  8
LC-003-005-----0
 62
     7
370
    25
100
AcDbLine
 10
51.918302
 20
258.393482
 30
0.0
 11
54.918368
 21
261.393548
 31
0.0
  0
LINE
  5
4D9
102
{ACAD_REACTORS
330
57D
102
}
330
1F
100
AcDbEntity
  8
LC-003-005-----0
 62
     7
370
    25
100
AcDbLine
 10
51.918364
 20
261.221972
 30
0.0
 11
54.707119
 21
264.010726
 31
0.0
  0
LINE
  5
4DA
102
{ACAD_REACTORS
330
57D
102
}
330
1F
100
AcDbEntity
  8
LC-003-005-----0
 62
     7
370
    25
100
AcDbLine
 10
51.171616
 20
263.303651
 30
0.0
 11
53.292937
 21
265.424971
 31
0.0
  0
LINE
  5
4DB
102
{ACAD_REACTORS
330
57D
102
}
330
1F
100
AcDbEntity
  8
LC-003-005-----0
 62
     7
370
    25
100
AcDbLine
 10
49.59643
 20
264.556892
 30
0.0
 11
51.878754
 21
266.839216
 31
0.0
  0
LINE
  5
4DC
102
{ACAD_REACTORS
330
57D
102
}
330
1F
100
AcDbEntity
  8
LC-003-005-----0
 62
     7
370
    25
100
AcDbLine
 10
47.468251
 20
265.25714
 30
0.0
 11
50.464572
 21
268.253461
 31
0.0
  0
LINE
  5
4DD
102
{ACAD_REACTORS
330
57D
102
}
330
1F
100
AcDbEntity
  8
LC-003-005-----0
 62
     7
370
    25
100
AcDbLine
 10
47.1674
 20
267.784715
 30
0.0
 11
50.168574
 21
270.78589
 31
0.0
  0
LINE
  5
4DE
102
{ACAD_REACTORS
330
57D
102
}
330
1F
100
AcDbEntity
  8
LC-003-005-----0
 62
     7
370
    25
100
AcDbLine
 10
36.007526
 20
259.453269
 30
0.0
 11
41.664511
 21
265.110254
 31
0.0
  0
LINE
  5
4DF
102
{ACAD_REACTORS
330
57D
102
}
330
1F
100
AcDbEntity
  8
LC-003-005-----0
 62
     7
370
    25
100
AcDbLine
 10
35.664525
 20
261.938695
 30
0.0
 11
44.665434
 21
270.939604
 31
0.0
  0
LINE
  5
4E0
102
{ACAD_REACTORS
330
57D
102
}
330
1F
100
AcDbEntity
  8
LC-003-005-----0
 62
     7
370
    25
100
AcDbLine
 10
35.664513
 20
264.76711
 30
0.0
 11
44.664903
 21
273.7675
 31
0.0
  0
LINE
  5
4E1
102
{ACAD_REACTORS
330
57D
102
}
330
1F
100
AcDbEntity
  8
LC-003-005-----0
 62
     7
370
    25
100
AcDbLine
 10
41.414552
 20
273.345576
 30
0.0
 11
44.664371
 21
276.595395
 31
0.0
  0
LINE
  5
4E2
102
{ACAD_REACTORS
330
57D
102
}
330
1F
100
AcDbEntity
  8
LC-003-005-----0
 62
     7
370
    25
100
AcDbLine
 10
41.414343
 20
276.173795
 30
0.0
 11
44.66384
 21
279.423291
 31
0.0
  0
LINE
  5
4E3
102
{ACAD_REACTORS
330
57D
102
}
330
1F
100
AcDbEntity
  8
LC-003-005-----0
 62
     7
370
    25
100
AcDbLine
 10
41.414135
 20
279.002014
 30
0.0
 11
47.712277
 21
285.300155
 31
0.0
  0
LINE
  5
4E4
102
{ACAD_REACTORS
330
57D
102
}
330
1F
100
AcDbEntity
  8
LC-003-005-----0
 62
     7
370
    25
100
AcDbLine
 10
41.811454
 20
282.22776
 30
0.0
 11
44.883637
 21
285.299943
 31
0.0
  0
LINE
  5
4E5
102
{ACAD_REACTORS
330
57D
102
}
330
1F
100
AcDbEntity
  8
LC-003-005-----0
 62
     7
370
    25
100
AcDbLine
 10
41.811457
 20
285.05619
 30
0.0
 11
42.054998
 21
285.299731
 31
0.0
  0
LINE
  5
4E6
102
{ACAD_REACTORS
330
57D
102
}
330
1F
100
AcDbEntity
  8
LC-003-005-----0
 62
     7
370
    25
100
AcDbLine
 10
47.167712
 20
281.927163
 30
0.0
 11
50.168887
 21
284.928338
 31
0.0
  0
LINE
  5
4E7
102
{ACAD_REACTORS
330
57D
102
}
330
1F
100
AcDbEntity
  8
LC-003-005-----0
 62
     7
370
    25
100
AcDbLine
 10
47.167649
 20
279.098674
 30
0.0
 11
50.168824
 21
282.099849
 31
0.0
  0
LINE
  5
4E8
102
{ACAD_REACTORS
330
57D
102
}
330
1F
100
AcDbEntity
  8
LC-003-005-----0
 62
     7
370
    25
100
AcDbLine
 10
47.167587
 20
276.270184
 30
0.0
 11
50.168762
 21
279.271359
 31
0.0
  0
LINE
  5
4E9
102
{ACAD_REACTORS
330
57D
102
}
330
1F
100
AcDbEntity
  8
LC-003-005-----0
 62
     7
370
    25
100
AcDbLine
 10
47.167525
 20
273.441695
 30
0.0
 11
50.168699
 21
276.442869
 31
0.0
  0
LINE
  5
4EA
102
{ACAD_REACTORS
330
57D
102
}
330
1F
100
AcDbEntity
  8
LC-003-005-----0
 62
     7
370
    25
100
AcDbLine
 10
47.167462
 20
270.613205
 30
0.0
 11
50.168637
 21
273.61438
 31
0.0
  0
LINE
  5
4EB
102
{ACAD_REACTORS
330
57D
102
}
330
1F
100
AcDbEntity
  8
LC-003-005-----0
 62
     7
370
    25
100
AcDbLine
 10
43.850658
 20
267.296401
 30
0.0
 11
44.665965
 21
268.111708
 31
0.0
  0
LINE
  5
4EC
330
1F
100
AcDbEntity
  8
LC-001-002-----0
  6
ByBlock
 62
     7
370
    50
100
AcDbLine
 10
220.659457
 20
281.299316
 30
0.0
 11
219.6583
 21
282.300849
 31
0.0
  0
LINE
  5
4ED
330
1F
100
AcDbEntity
  8
LC-001-002-----0
  6
ByBlock
 62
     7
370
    50
100
AcDbLine
 10
218.155224
 20
282.300114
 30
0.0
 11
219.659148
 21
282.300002
 31
0.0
  0
LINE
  5
4EE
330
1F
100
AcDbEntity
  8
LC-001-002-----0
  6
ByBlock
 62
     7
370
    50
100
AcDbLine
 10
218.155224
 20
282.300114
 30
0.0
 11
218.155594
 21
265.556945
 31
0.0
  0
LINE
  5
4EF
330
1F
100
AcDbEntity
  8
LC-001-002-----0
  6
ByBlock
 62
     7
370
    50
100
AcDbLine
 10
220.65692
 20
267.79651
 30
0.0
 11
220.659457
 21
281.299316
 31
0.0
  0
ARC
  5
4F0
330
1F
100
AcDbEntity
  8
LC-002-002-RND-0
 62
     7
370
    50
100
AcDbCircle
 10
221.15692
 20
267.796416
 30
0.0
 40
0.5000000000000197
100
AcDbArc
 50
179.989235
 51
269.997224
  0
LINE
  5
4F1
330
1F
100
AcDbEntity
  8
LC-001-002-----0
  6
ByBlock
 62
     7
370
    50
100
AcDbLine
 10
222.658398
 20
267.296343
 30
0.0
 11
218.155555
 21
267.296561
 31
0.0
  0
LINE
  5
4F2
330
1F
100
AcDbEntity
  8
LC-001-002-----0
  6
ByBlock
 62
     7
370
    50
100
AcDbLine
 10
223.658438
 20
266.296295
 30
0.0
 11
222.658398
 21
267.296343
 31
0.0
  0
LINE
  5
4F3
330
1F
100
AcDbEntity
  8
LC-001-002-----0
  6
ByBlock
 62
     7
370
    50
100
AcDbLine
 10
223.658438
 20
266.296295
 30
0.0
 11
223.65841
 21
259.796284
 31
0.0
  0
LINE
  5
4F4
330
1F
100
AcDbEntity
  8
LC-001-002-----0
  6
ByBlock
 62
     7
370
    50
100
AcDbLine
 10
223.65841
 20
259.796284
 30
0.0
 11
224.158408
 21
259.296282
 31
0.0
  0
LINE
  5
4F5
330
1F
100
AcDbEntity
  8
LC-001-002-----0
  6
ByBlock
 62
     7
370
    50
100
AcDbLine
 10
224.158408
 20
259.296282
 30
0.0
 11
229.158408
 21
259.29626
 31
0.0
  0
LINE
  5
4F6
330
1F
100
AcDbEntity
  8
LC-001-002-----0
  6
ByBlock
 62
     7
370
    50
100
AcDbLine
 10
229.158408
 20
259.29626
 30
0.0
 11
229.65841
 21
259.796258
 31
0.0
  0
LINE
  5
4F7
330
1F
100
AcDbEntity
  8
LC-001-002-----0
  6
ByBlock
 62
     7
370
    50
100
AcDbLine
 10
229.65841
 20
259.796258
 30
0.0
 11
229.658438
 21
266.296259
 31
0.0
  0
LINE
  5
4F8
330
1F
100
AcDbEntity
  8
LC-001-002-----0
  6
ByBlock
 62
     7
370
    50
100
AcDbLine
 10
230.658442
 20
267.296251
 30
0.0
 11
229.658438
 21
266.296259
 31
0.0
  0
LINE
  5
4F9
330
1F
100
AcDbEntity
  8
LC-001-002-----0
  6
ByBlock
 62
     7
370
    50
100
AcDbLine
 10
232.17175
 20
267.296242
 30
0.0
 11
230.658442
 21
267.296251
 31
0.0
  0
ARC
  5
4FA
330
1F
100
AcDbEntity
  8
LC-002-002-RND-0
 62
     7
370
    50
100
AcDbCircle
 10
232.160062
 20
267.796242
 30
0.0
 40
0.5000000000000517
100
AcDbArc
 50
271.339467
 51
359.999666
  0
LINE
  5
4FB
102
{ACAD_REACTORS
330
57C
102
}
330
1F
100
AcDbEntity
  8
LC-003-005-----0
 62
     7
370
    25
100
AcDbLine
 10
192.298473
 20
-50.946259
 30
0.0
 11
194.379355
 21
-48.865378
 31
0.0
  0
LINE
  5
4FC
102
{ACAD_REACTORS
330
57C
102
}
330
1F
100
AcDbEntity
  8
LC-003-005-----0
 62
     7
370
    25
100
AcDbLine
 10
192.161531
 20
-48.254774
 30
0.0
 11
195.161598
 21
-45.254708
 31
0.0
  0
LINE
  5
4FD
102
{ACAD_REACTORS
330
57C
102
}
330
1F
100
AcDbEntity
  8
LC-003-005-----0
 62
     7
370
    25
100
AcDbLine
 10
192.161594
 20
-45.426285
 30
0.0
 11
195.16166
 21
-42.426218
 31
0.0
  0
LINE
  5
4FE
102
{ACAD_REACTORS
330
57C
102
}
330
1F
100
AcDbEntity
  8
LC-003-005-----0
 62
     7
370
    25
100
AcDbLine
 10
192.161656
 20
-42.597795
 30
0.0
 11
195.161723
 21
-39.597729
 31
0.0
  0
LINE
  5
4FF
102
{ACAD_REACTORS
330
57C
102
}
330
1F
100
AcDbEntity
  8
LC-003-005-----0
 62
     7
370
    25
100
AcDbLine
 10
192.161719
 20
-39.769305
 30
0.0
 11
195.161785
 21
-36.769239
 31
0.0
  0
LINE
  5
500
102
{ACAD_REACTORS
330
57C
102
}
330
1F
100
AcDbEntity
  8
LC-003-005-----0
 62
     7
370
    25
100
AcDbLine
 10
192.161781
 20
-36.940816
 30
0.0
 11
195.161848
 21
-33.94075
 31
0.0
  0
LINE
  5
501
102
{ACAD_REACTORS
330
57C
102
}
330
1F
100
AcDbEntity
  8
LC-003-005-----0
 62
     7
370
    25
100
AcDbLine
 10
192.161844
 20
-34.112326
 30
0.0
 11
195.16191
 21
-31.11226
 31
0.0
  0
LINE
  5
502
102
{ACAD_REACTORS
330
57C
102
}
330
1F
100
AcDbEntity
  8
LC-003-005-----0
 62
     7
370
    25
100
AcDbLine
 10
192.161906
 20
-31.283837
 30
0.0
 11
195.161972
 21
-28.28377
 31
0.0
  0
LINE
  5
503
102
{ACAD_REACTORS
330
57C
102
}
330
1F
100
AcDbEntity
  8
LC-003-005-----0
 62
     7
370
    25
100
AcDbLine
 10
192.161969
 20
-28.455347
 30
0.0
 11
195.162035
 21
-25.455281
 31
0.0
  0
LINE
  5
504
102
{ACAD_REACTORS
330
57C
102
}
330
1F
100
AcDbEntity
  8
LC-003-005-----0
 62
     7
370
    25
100
AcDbLine
 10
192.162031
 20
-25.626858
 30
0.0
 11
195.162097
 21
-22.626791
 31
0.0
  0
LINE
  5
505
102
{ACAD_REACTORS
330
57C
102
}
330
1F
100
AcDbEntity
  8
LC-003-005-----0
 62
     7
370
    25
100
AcDbLine
 10
192.162094
 20
-22.798368
 30
0.0
 11
195.16216
 21
-19.798302
 31
0.0
  0
LINE
  5
506
102
{ACAD_REACTORS
330
57C
102
}
330
1F
100
AcDbEntity
  8
LC-003-005-----0
 62
     7
370
    25
100
AcDbLine
 10
192.162156
 20
-19.969878
 30
0.0
 11
195.162222
 21
-16.969812
 31
0.0
  0
LINE
  5
507
102
{ACAD_REACTORS
330
57C
102
}
330
1F
100
AcDbEntity
  8
LC-003-005-----0
 62
     7
370
    25
100
AcDbLine
 10
192.162218
 20
-17.141389
 30
0.0
 11
195.162285
 21
-14.141323
 31
0.0
  0
LINE
  5
508
102
{ACAD_REACTORS
330
57C
102
}
330
1F
100
AcDbEntity
  8
LC-003-005-----0
 62
     7
370
    25
100
AcDbLine
 10
192.162281
 20
-14.312899
 30
0.0
 11
195.162347
 21
-11.312833
 31
0.0
  0
LINE
  5
509
102
{ACAD_REACTORS
330
57C
102
}
330
1F
100
AcDbEntity
  8
LC-003-005-----0
 62
     7
370
    25
100
AcDbLine
 10
192.162343
 20
-11.48441
 30
0.0
 11
195.16241
 21
-8.484343
 31
0.0
  0
LINE
  5
50A
102
{ACAD_REACTORS
330
57C
102
}
330
1F
100
AcDbEntity
  8
LC-003-005-----0
 62
     7
370
    25
100
AcDbLine
 10
192.162406
 20
-8.65592
 30
0.0
 11
195.162472
 21
-5.655854
 31
0.0
  0
LINE
  5
50B
102
{ACAD_REACTORS
330
57C
102
}
330
1F
100
AcDbEntity
  8
LC-003-005-----0
 62
     7
370
    25
100
AcDbLine
 10
192.162468
 20
-5.827431
 30
0.0
 11
195.162534
 21
-2.827364
 31
0.0
  0
LINE
  5
50C
102
{ACAD_REACTORS
330
57C
102
}
330
1F
100
AcDbEntity
  8
LC-003-005-----0
 62
     7
370
    25
100
AcDbLine
 10
192.162531
 20
-2.998941
 30
0.0
 11
195.162597
 21
0.001125
 31
0.0
  0
LINE
  5
50D
102
{ACAD_REACTORS
330
57C
102
}
330
1F
100
AcDbEntity
  8
LC-003-005-----0
 62
     7
370
    25
100
AcDbLine
 10
192.162593
 20
-0.170451
 30
0.0
 11
195.162659
 21
2.829615
 31
0.0
  0
LINE
  5
50E
102
{ACAD_REACTORS
330
57C
102
}
330
1F
100
AcDbEntity
  8
LC-003-005-----0
 62
     7
370
    25
100
AcDbLine
 10
192.162656
 20
2.658038
 30
0.0
 11
195.162722
 21
5.658104
 31
0.0
  0
LINE
  5
50F
102
{ACAD_REACTORS
330
57C
102
}
330
1F
100
AcDbEntity
  8
LC-003-005-----0
 62
     7
370
    25
100
AcDbLine
 10
192.162718
 20
5.486528
 30
0.0
 11
195.162784
 21
8.486594
 31
0.0
  0
LINE
  5
510
102
{ACAD_REACTORS
330
57C
102
}
330
1F
100
AcDbEntity
  8
LC-003-005-----0
 62
     7
370
    25
100
AcDbLine
 10
192.16278
 20
8.315017
 30
0.0
 11
195.162847
 21
11.315084
 31
0.0
  0
LINE
  5
511
102
{ACAD_REACTORS
330
57C
102
}
330
1F
100
AcDbEntity
  8
LC-003-005-----0
 62
     7
370
    25
100
AcDbLine
 10
192.162843
 20
11.143507
 30
0.0
 11
195.162909
 21
14.143573
 31
0.0
  0
LINE
  5
512
102
{ACAD_REACTORS
330
57C
102
}
330
1F
100
AcDbEntity
  8
LC-003-005-----0
 62
     7
370
    25
100
AcDbLine
 10
192.162905
 20
13.971997
 30
0.0
 11
195.162972
 21
16.972063
 31
0.0
  0
LINE
  5
513
102
{ACAD_REACTORS
330
57C
102
}
330
1F
100
AcDbEntity
  8
LC-003-005-----0
 62
     7
370
    25
100
AcDbLine
 10
192.162968
 20
16.800486
 30
0.0
 11
195.163034
 21
19.800552
 31
0.0
  0
LINE
  5
514
102
{ACAD_REACTORS
330
57C
102
}
330
1F
100
AcDbEntity
  8
LC-003-005-----0
 62
     7
370
    25
100
AcDbLine
 10
192.16303
 20
19.628976
 30
0.0
 11
195.163097
 21
22.629042
 31
0.0
  0
LINE
  5
515
102
{ACAD_REACTORS
330
57C
102
}
330
1F
100
AcDbEntity
  8
LC-003-005-----0
 62
     7
370
    25
100
AcDbLine
 10
192.163093
 20
22.457465
 30
0.0
 11
195.163159
 21
25.457531
 31
0.0
  0
LINE
  5
516
102
{ACAD_REACTORS
330
57C
102
}
330
1F
100
AcDbEntity
  8
LC-003-005-----0
 62
     7
370
    25
100
AcDbLine
 10
192.163155
 20
25.285955
 30
0.0
 11
195.163221
 21
28.286021
 31
0.0
  0
LINE
  5
517
102
{ACAD_REACTORS
330
57C
102
}
330
1F
100
AcDbEntity
  8
LC-003-005-----0
 62
     7
370
    25
100
AcDbLine
 10
192.163218
 20
28.114444
 30
0.0
 11
195.163284
 21
31.114511
 31
0.0
  0
LINE
  5
518
102
{ACAD_REACTORS
330
57C
102
}
330
1F
100
AcDbEntity
  8
LC-003-005-----0
 62
     7
370
    25
100
AcDbLine
 10
192.16328
 20
30.942934
 30
0.0
 11
195.163346
 21
33.943
 31
0.0
  0
LINE
  5
519
102
{ACAD_REACTORS
330
57C
102
}
330
1F
100
AcDbEntity
  8
LC-003-005-----0
 62
     7
370
    25
100
AcDbLine
 10
192.163343
 20
33.771424
 30
0.0
 11
195.163409
 21
36.77149
 31
0.0
  0
LINE
  5
51A
102
{ACAD_REACTORS
330
57C
102
}
330
1F
100
AcDbEntity
  8
LC-003-005-----0
 62
     7
370
    25
100
AcDbLine
 10
192.163405
 20
36.599913
 30
0.0
 11
195.163471
 21
39.599979
 31
0.0
  0
LINE
  5
51B
102
{ACAD_REACTORS
330
57C
102
}
330
1F
100
AcDbEntity
  8
LC-003-005-----0
 62
     7
370
    25
100
AcDbLine
 10
192.163467
 20
39.428403
 30
0.0
 11
195.163534
 21
42.428469
 31
0.0
  0
LINE
  5
51C
102
{ACAD_REACTORS
330
57C
102
}
330
1F
100
AcDbEntity
  8
LC-003-005-----0
 62
     7
370
    25
100
AcDbLine
 10
192.16353
 20
42.256892
 30
0.0
 11
195.163596
 21
45.256959
 31
0.0
  0
LINE
  5
51D
102
{ACAD_REACTORS
330
57C
102
}
330
1F
100
AcDbEntity
  8
LC-003-005-----0
 62
     7
370
    25
100
AcDbLine
 10
192.163592
 20
45.085382
 30
0.0
 11
195.163659
 21
48.085448
 31
0.0
  0
LINE
  5
51E
102
{ACAD_REACTORS
330
57C
102
}
330
1F
100
AcDbEntity
  8
LC-003-005-----0
 62
     7
370
    25
100
AcDbLine
 10
192.163655
 20
47.913871
 30
0.0
 11
195.163721
 21
50.913938
 31
0.0
  0
LINE
  5
51F
102
{ACAD_REACTORS
330
57C
102
}
330
1F
100
AcDbEntity
  8
LC-003-005-----0
 62
     7
370
    25
100
AcDbLine
 10
192.163717
 20
50.742361
 30
0.0
 11
195.163783
 21
53.742427
 31
0.0
  0
LINE
  5
520
102
{ACAD_REACTORS
330
57C
102
}
330
1F
100
AcDbEntity
  8
LC-003-005-----0
 62
     7
370
    25
100
AcDbLine
 10
192.16378
 20
53.570851
 30
0.0
 11
195.163846
 21
56.570917
 31
0.0
  0
LINE
  5
521
102
{ACAD_REACTORS
330
57C
102
}
330
1F
100
AcDbEntity
  8
LC-003-005-----0
 62
     7
370
    25
100
AcDbLine
 10
192.163842
 20
56.39934
 30
0.0
 11
195.163908
 21
59.399406
 31
0.0
  0
LINE
  5
522
102
{ACAD_REACTORS
330
57C
102
}
330
1F
100
AcDbEntity
  8
LC-003-005-----0
 62
     7
370
    25
100
AcDbLine
 10
192.163905
 20
59.22783
 30
0.0
 11
195.163971
 21
62.227896
 31
0.0
  0
LINE
  5
523
102
{ACAD_REACTORS
330
57C
102
}
330
1F
100
AcDbEntity
  8
LC-003-005-----0
 62
     7
370
    25
100
AcDbLine
 10
192.163967
 20
62.056319
 30
0.0
 11
195.164033
 21
65.056386
 31
0.0
  0
LINE
  5
524
102
{ACAD_REACTORS
330
57C
102
}
330
1F
100
AcDbEntity
  8
LC-003-005-----0
 62
     7
370
    25
100
AcDbLine
 10
192.164029
 20
64.884809
 30
0.0
 11
195.164096
 21
67.884875
 31
0.0
  0
LINE
  5
525
102
{ACAD_REACTORS
330
57C
102
}
330
1F
100
AcDbEntity
  8
LC-003-005-----0
 62
     7
370
    25
100
AcDbLine
 10
192.164092
 20
67.713298
 30
0.0
 11
195.164158
 21
70.713365
 31
0.0
  0
LINE
  5
526
102
{ACAD_REACTORS
330
57C
102
}
330
1F
100
AcDbEntity
  8
LC-003-005-----0
 62
     7
370
    25
100
AcDbLine
 10
192.164154
 20
70.541788
 30
0.0
 11
195.164221
 21
73.541854
 31
0.0
  0
LINE
  5
527
102
{ACAD_REACTORS
330
57C
102
}
330
1F
100
AcDbEntity
  8
LC-003-005-----0
 62
     7
370
    25
100
AcDbLine
 10
192.164217
 20
73.370278
 30
0.0
 11
195.164283
 21
76.370344
 31
0.0
  0
LINE
  5
528
102
{ACAD_REACTORS
330
57C
102
}
330
1F
100
AcDbEntity
  8
LC-003-005-----0
 62
     7
370
    25
100
AcDbLine
 10
192.164279
 20
76.198767
 30
0.0
 11
195.164346
 21
79.198833
 31
0.0
  0
LINE
  5
529
102
{ACAD_REACTORS
330
57C
102
}
330
1F
100
AcDbEntity
  8
LC-003-005-----0
 62
     7
370
    25
100
AcDbLine
 10
192.164342
 20
79.027257
 30
0.0
 11
195.164408
 21
82.027323
 31
0.0
  0
LINE
  5
52A
102
{ACAD_REACTORS
330
57C
102
}
330
1F
100
AcDbEntity
  8
LC-003-005-----0
 62
     7
370
    25
100
AcDbLine
 10
192.164404
 20
81.855746
 30
0.0
 11
195.16447
 21
84.855813
 31
0.0
  0
LINE
  5
52B
102
{ACAD_REACTORS
330
57C
102
}
330
1F
100
AcDbEntity
  8
LC-003-005-----0
 62
     7
370
    25
100
AcDbLine
 10
192.164467
 20
84.684236
 30
0.0
 11
195.164533
 21
87.684302
 31
0.0
  0
LINE
  5
52C
102
{ACAD_REACTORS
330
57C
102
}
330
1F
100
AcDbEntity
  8
LC-003-005-----0
 62
     7
370
    25
100
AcDbLine
 10
192.164529
 20
87.512725
 30
0.0
 11
195.164595
 21
90.512792
 31
0.0
  0
LINE
  5
52D
102
{ACAD_REACTORS
330
57C
102
}
330
1F
100
AcDbEntity
  8
LC-003-005-----0
 62
     7
370
    25
100
AcDbLine
 10
192.164592
 20
90.341215
 30
0.0
 11
195.164658
 21
93.341281
 31
0.0
  0
LINE
  5
52E
102
{ACAD_REACTORS
330
57C
102
}
330
1F
100
AcDbEntity
  8
LC-003-005-----0
 62
     7
370
    25
100
AcDbLine
 10
192.164654
 20
93.169705
 30
0.0
 11
195.16472
 21
96.169771
 31
0.0
  0
LINE
  5
52F
102
{ACAD_REACTORS
330
57C
102
}
330
1F
100
AcDbEntity
  8
LC-003-005-----0
 62
     7
370
    25
100
AcDbLine
 10
192.164716
 20
95.998194
 30
0.0
 11
195.164783
 21
98.99826
 31
0.0
  0
LINE
  5
530
102
{ACAD_REACTORS
330
57C
102
}
330
1F
100
AcDbEntity
  8
LC-003-005-----0
 62
     7
370
    25
100
AcDbLine
 10
192.164779
 20
98.826684
 30
0.0
 11
195.164845
 21
101.82675
 31
0.0
  0
LINE
  5
531
102
{ACAD_REACTORS
330
57C
102
}
330
1F
100
AcDbEntity
  8
LC-003-005-----0
 62
     7
370
    25
100
AcDbLine
 10
192.164841
 20
101.655173
 30
0.0
 11
195.164908
 21
104.65524
 31
0.0
  0
LINE
  5
532
102
{ACAD_REACTORS
330
57C
102
}
330
1F
100
AcDbEntity
  8
LC-003-005-----0
 62
     7
370
    25
100
AcDbLine
 10
192.164904
 20
104.483663
 30
0.0
 11
195.16497
 21
107.483729
 31
0.0
  0
LINE
  5
533
102
{ACAD_REACTORS
330
57C
102
}
330
1F
100
AcDbEntity
  8
LC-003-005-----0
 62
     7
370
    25
100
AcDbLine
 10
192.164966
 20
107.312152
 30
0.0
 11
195.165032
 21
110.312219
 31
0.0
  0
LINE
  5
534
102
{ACAD_REACTORS
330
57C
102
}
330
1F
100
AcDbEntity
  8
LC-003-005-----0
 62
     7
370
    25
100
AcDbLine
 10
192.165029
 20
110.140642
 30
0.0
 11
195.165095
 21
113.140708
 31
0.0
  0
LINE
  5
535
102
{ACAD_REACTORS
330
57C
102
}
330
1F
100
AcDbEntity
  8
LC-003-005-----0
 62
     7
370
    25
100
AcDbLine
 10
192.165091
 20
112.969132
 30
0.0
 11
195.165157
 21
115.969198
 31
0.0
  0
LINE
  5
536
102
{ACAD_REACTORS
330
57C
102
}
330
1F
100
AcDbEntity
  8
LC-003-005-----0
 62
     7
370
    25
100
AcDbLine
 10
192.165154
 20
115.797621
 30
0.0
 11
195.16522
 21
118.797687
 31
0.0
  0
LINE
  5
537
102
{ACAD_REACTORS
330
57C
102
}
330
1F
100
AcDbEntity
  8
LC-003-005-----0
 62
     7
370
    25
100
AcDbLine
 10
192.165216
 20
118.626111
 30
0.0
 11
195.165282
 21
121.626177
 31
0.0
  0
LINE
  5
538
102
{ACAD_REACTORS
330
57C
102
}
330
1F
100
AcDbEntity
  8
LC-003-005-----0
 62
     7
370
    25
100
AcDbLine
 10
192.165278
 20
121.4546
 30
0.0
 11
195.165345
 21
124.454667
 31
0.0
  0
LINE
  5
539
102
{ACAD_REACTORS
330
57C
102
}
330
1F
100
AcDbEntity
  8
LC-003-005-----0
 62
     7
370
    25
100
AcDbLine
 10
192.165341
 20
124.28309
 30
0.0
 11
195.165407
 21
127.283156
 31
0.0
  0
LINE
  5
53A
102
{ACAD_REACTORS
330
57C
102
}
330
1F
100
AcDbEntity
  8
LC-003-005-----0
 62
     7
370
    25
100
AcDbLine
 10
192.165403
 20
127.11158
 30
0.0
 11
195.16547
 21
130.111646
 31
0.0
  0
LINE
  5
53B
102
{ACAD_REACTORS
330
57C
102
}
330
1F
100
AcDbEntity
  8
LC-003-005-----0
 62
     7
370
    25
100
AcDbLine
 10
192.165466
 20
129.940069
 30
0.0
 11
195.165532
 21
132.940135
 31
0.0
  0
LINE
  5
53C
102
{ACAD_REACTORS
330
57C
102
}
330
1F
100
AcDbEntity
  8
LC-003-005-----0
 62
     7
370
    25
100
AcDbLine
 10
192.165528
 20
132.768559
 30
0.0
 11
195.165595
 21
135.768625
 31
0.0
  0
LINE
  5
53D
102
{ACAD_REACTORS
330
57C
102
}
330
1F
100
AcDbEntity
  8
LC-003-005-----0
 62
     7
370
    25
100
AcDbLine
 10
192.165591
 20
135.597048
 30
0.0
 11
195.165657
 21
138.597114
 31
0.0
  0
LINE
  5
53E
102
{ACAD_REACTORS
330
57C
102
}
330
1F
100
AcDbEntity
  8
LC-003-005-----0
 62
     7
370
    25
100
AcDbLine
 10
192.165653
 20
138.425538
 30
0.0
 11
195.165719
 21
141.425604
 31
0.0
  0
LINE
  5
53F
102
{ACAD_REACTORS
330
57C
102
}
330
1F
100
AcDbEntity
  8
LC-003-005-----0
 62
     7
370
    25
100
AcDbLine
 10
192.165716
 20
141.254027
 30
0.0
 11
195.165782
 21
144.254094
 31
0.0
  0
LINE
  5
540
102
{ACAD_REACTORS
330
57C
102
}
330
1F
100
AcDbEntity
  8
LC-003-005-----0
 62
     7
370
    25
100
AcDbLine
 10
192.165778
 20
144.082517
 30
0.0
 11
195.165844
 21
147.082583
 31
0.0
  0
LINE
  5
541
102
{ACAD_REACTORS
330
57C
102
}
330
1F
100
AcDbEntity
  8
LC-003-005-----0
 62
     7
370
    25
100
AcDbLine
 10
192.165841
 20
146.911007
 30
0.0
 11
195.165907
 21
149.911073
 31
0.0
  0
LINE
  5
542
102
{ACAD_REACTORS
330
57C
102
}
330
1F
100
AcDbEntity
  8
LC-003-005-----0
 62
     7
370
    25
100
AcDbLine
 10
192.165903
 20
149.739496
 30
0.0
 11
195.165969
 21
152.739562
 31
0.0
  0
LINE
  5
543
102
{ACAD_REACTORS
330
57C
102
}
330
1F
100
AcDbEntity
  8
LC-003-005-----0
 62
     7
370
    25
100
AcDbLine
 10
192.165965
 20
152.567986
 30
0.0
 11
195.166032
 21
155.568052
 31
0.0
  0
LINE
  5
544
102
{ACAD_REACTORS
330
57C
102
}
330
1F
100
AcDbEntity
  8
LC-003-005-----0
 62
     7
370
    25
100
AcDbLine
 10
192.166028
 20
155.396475
 30
0.0
 11
195.166094
 21
158.396541
 31
0.0
  0
LINE
  5
545
102
{ACAD_REACTORS
330
57C
102
}
330
1F
100
AcDbEntity
  8
LC-003-005-----0
 62
     7
370
    25
100
AcDbLine
 10
192.16609
 20
158.224965
 30
0.0
 11
195.166157
 21
161.225031
 31
0.0
  0
LINE
  5
546
102
{ACAD_REACTORS
330
57C
102
}
330
1F
100
AcDbEntity
  8
LC-003-005-----0
 62
     7
370
    25
100
AcDbLine
 10
192.166153
 20
161.053454
 30
0.0
 11
195.166219
 21
164.053521
 31
0.0
  0
LINE
  5
547
102
{ACAD_REACTORS
330
57C
102
}
330
1F
100
AcDbEntity
  8
LC-003-005-----0
 62
     7
370
    25
100
AcDbLine
 10
192.166215
 20
163.881944
 30
0.0
 11
195.166281
 21
166.88201
 31
0.0
  0
LINE
  5
548
102
{ACAD_REACTORS
330
57C
102
}
330
1F
100
AcDbEntity
  8
LC-003-005-----0
 62
     7
370
    25
100
AcDbLine
 10
192.166278
 20
166.710434
 30
0.0
 11
195.166344
 21
169.7105
 31
0.0
  0
LINE
  5
549
102
{ACAD_REACTORS
330
57C
102
}
330
1F
100
AcDbEntity
  8
LC-003-005-----0
 62
     7
370
    25
100
AcDbLine
 10
192.16634
 20
169.538923
 30
0.0
 11
195.166406
 21
172.538989
 31
0.0
  0
LINE
  5
54A
102
{ACAD_REACTORS
330
57C
102
}
330
1F
100
AcDbEntity
  8
LC-003-005-----0
 62
     7
370
    25
100
AcDbLine
 10
192.166403
 20
172.367413
 30
0.0
 11
195.166469
 21
175.367479
 31
0.0
  0
LINE
  5
54B
102
{ACAD_REACTORS
330
57C
102
}
330
1F
100
AcDbEntity
  8
LC-003-005-----0
 62
     7
370
    25
100
AcDbLine
 10
192.166465
 20
175.195902
 30
0.0
 11
195.166531
 21
178.195969
 31
0.0
  0
LINE
  5
54C
102
{ACAD_REACTORS
330
57C
102
}
330
1F
100
AcDbEntity
  8
LC-003-005-----0
 62
     7
370
    25
100
AcDbLine
 10
192.166527
 20
178.024392
 30
0.0
 11
195.166594
 21
181.024458
 31
0.0
  0
LINE
  5
54D
102
{ACAD_REACTORS
330
57C
102
}
330
1F
100
AcDbEntity
  8
LC-003-005-----0
 62
     7
370
    25
100
AcDbLine
 10
192.16659
 20
180.852881
 30
0.0
 11
195.166656
 21
183.852948
 31
0.0
  0
LINE
  5
54E
102
{ACAD_REACTORS
330
57C
102
}
330
1F
100
AcDbEntity
  8
LC-003-005-----0
 62
     7
370
    25
100
AcDbLine
 10
192.166652
 20
183.681371
 30
0.0
 11
195.166719
 21
186.681437
 31
0.0
  0
LINE
  5
54F
102
{ACAD_REACTORS
330
57C
102
}
330
1F
100
AcDbEntity
  8
LC-003-005-----0
 62
     7
370
    25
100
AcDbLine
 10
192.166715
 20
186.509861
 30
0.0
 11
195.166781
 21
189.509927
 31
0.0
  0
LINE
  5
550
102
{ACAD_REACTORS
330
57C
102
}
330
1F
100
AcDbEntity
  8
LC-003-005-----0
 62
     7
370
    25
100
AcDbLine
 10
192.166777
 20
189.33835
 30
0.0
 11
195.166844
 21
192.338416
 31
0.0
  0
LINE
  5
551
102
{ACAD_REACTORS
330
57C
102
}
330
1F
100
AcDbEntity
  8
LC-003-005-----0
 62
     7
370
    25
100
AcDbLine
 10
192.16684
 20
192.16684
 30
0.0
 11
195.166906
 21
195.166906
 31
0.0
  0
LINE
  5
552
102
{ACAD_REACTORS
330
57C
102
}
330
1F
100
AcDbEntity
  8
LC-003-005-----0
 62
     7
370
    25
100
AcDbLine
 10
192.166902
 20
194.995329
 30
0.0
 11
195.166968
 21
197.995396
 31
0.0
  0
LINE
  5
553
102
{ACAD_REACTORS
330
57C
102
}
330
1F
100
AcDbEntity
  8
LC-003-005-----0
 62
     7
370
    25
100
AcDbLine
 10
192.166965
 20
197.823819
 30
0.0
 11
195.167031
 21
200.823885
 31
0.0
  0
LINE
  5
554
102
{ACAD_REACTORS
330
57C
102
}
330
1F
100
AcDbEntity
  8
LC-003-005-----0
 62
     7
370
    25
100
AcDbLine
 10
192.167027
 20
200.652308
 30
0.0
 11
195.167093
 21
203.652375
 31
0.0
  0
LINE
  5
555
102
{ACAD_REACTORS
330
57C
102
}
330
1F
100
AcDbEntity
  8
LC-003-005-----0
 62
     7
370
    25
100
AcDbLine
 10
192.16709
 20
203.480798
 30
0.0
 11
195.167156
 21
206.480864
 31
0.0
  0
LINE
  5
556
102
{ACAD_REACTORS
330
57C
102
}
330
1F
100
AcDbEntity
  8
LC-003-005-----0
 62
     7
370
    25
100
AcDbLine
 10
192.167152
 20
206.309288
 30
0.0
 11
195.167218
 21
209.309354
 31
0.0
  0
LINE
  5
557
102
{ACAD_REACTORS
330
57C
102
}
330
1F
100
AcDbEntity
  8
LC-003-005-----0
 62
     7
370
    25
100
AcDbLine
 10
192.167214
 20
209.137777
 30
0.0
 11
195.167281
 21
212.137843
 31
0.0
  0
LINE
  5
558
102
{ACAD_REACTORS
330
57C
102
}
330
1F
100
AcDbEntity
  8
LC-003-005-----0
 62
     7
370
    25
100
AcDbLine
 10
192.167277
 20
211.966267
 30
0.0
 11
195.167343
 21
214.966333
 31
0.0
  0
LINE
  5
559
102
{ACAD_REACTORS
330
57C
102
}
330
1F
100
AcDbEntity
  8
LC-003-005-----0
 62
     7
370
    25
100
AcDbLine
 10
192.167339
 20
214.794756
 30
0.0
 11
195.167406
 21
217.794823
 31
0.0
  0
LINE
  5
55A
102
{ACAD_REACTORS
330
57C
102
}
330
1F
100
AcDbEntity
  8
LC-003-005-----0
 62
     7
370
    25
100
AcDbLine
 10
192.167402
 20
217.623246
 30
0.0
 11
195.167468
 21
220.623312
 31
0.0
  0
LINE
  5
55B
102
{ACAD_REACTORS
330
57C
102
}
330
1F
100
AcDbEntity
  8
LC-003-005-----0
 62
     7
370
    25
100
AcDbLine
 10
192.167464
 20
220.451735
 30
0.0
 11
195.16753
 21
223.451802
 31
0.0
  0
LINE
  5
55C
102
{ACAD_REACTORS
330
57C
102
}
330
1F
100
AcDbEntity
  8
LC-003-005-----0
 62
     7
370
    25
100
AcDbLine
 10
192.167527
 20
223.280225
 30
0.0
 11
195.167593
 21
226.280291
 31
0.0
  0
LINE
  5
55D
102
{ACAD_REACTORS
330
57C
102
}
330
1F
100
AcDbEntity
  8
LC-003-005-----0
 62
     7
370
    25
100
AcDbLine
 10
192.167589
 20
226.108715
 30
0.0
 11
195.167655
 21
229.108781
 31
0.0
  0
LINE
  5
55E
102
{ACAD_REACTORS
330
57C
102
}
330
1F
100
AcDbEntity
  8
LC-003-005-----0
 62
     7
370
    25
100
AcDbLine
 10
192.167652
 20
228.937204
 30
0.0
 11
195.167718
 21
231.93727
 31
0.0
  0
LINE
  5
55F
102
{ACAD_REACTORS
330
57C
102
}
330
1F
100
AcDbEntity
  8
LC-003-005-----0
 62
     7
370
    25
100
AcDbLine
 10
192.167714
 20
231.765694
 30
0.0
 11
195.16778
 21
234.76576
 31
0.0
  0
LINE
  5
560
102
{ACAD_REACTORS
330
57C
102
}
330
1F
100
AcDbEntity
  8
LC-003-005-----0
 62
     7
370
    25
100
AcDbLine
 10
210.505422
 20
250.103402
 30
0.0
 11
213.416916
 21
253.014896
 31
0.0
  0
LINE
  5
561
102
{ACAD_REACTORS
330
57C
102
}
330
1F
100
AcDbEntity
  8
LC-003-005-----0
 62
     7
370
    25
100
AcDbLine
 10
192.167776
 20
234.594183
 30
0.0
 11
195.167843
 21
237.59425
 31
0.0
  0
LINE
  5
562
102
{ACAD_REACTORS
330
57C
102
}
330
1F
100
AcDbEntity
  8
LC-003-005-----0
 62
     7
370
    25
100
AcDbLine
 10
207.675787
 20
250.102193
 30
0.0
 11
213.418246
 21
255.844653
 31
0.0
  0
LINE
  5
563
102
{ACAD_REACTORS
330
57C
102
}
330
1F
100
AcDbEntity
  8
LC-003-005-----0
 62
     7
370
    25
100
AcDbLine
 10
192.167839
 20
237.422673
 30
0.0
 11
195.167905
 21
240.422739
 31
0.0
  0
LINE
  5
564
102
{ACAD_REACTORS
330
57C
102
}
330
1F
100
AcDbEntity
  8
LC-003-005-----0
 62
     7
370
    25
100
AcDbLine
 10
204.847422
 20
250.102256
 30
0.0
 11
207.847356
 21
253.10219
 31
0.0
  0
LINE
  5
565
102
{ACAD_REACTORS
330
57C
102
}
330
1F
100
AcDbEntity
  8
LC-003-005-----0
 62
     7
370
    25
100
AcDbLine
 10
210.418242
 20
255.673076
 30
0.0
 11
213.418308
 21
258.673142
 31
0.0
  0
LINE
  5
566
102
{ACAD_REACTORS
330
57C
102
}
330
1F
100
AcDbEntity
  8
LC-003-005-----0
 62
     7
370
    25
100
AcDbLine
 10
222.041539
 20
267.296373
 30
0.0
 11
226.300247
 21
271.55508
 31
0.0
  0
LINE
  5
567
102
{ACAD_REACTORS
330
57C
102
}
330
1F
100
AcDbEntity
  8
LC-003-005-----0
 62
     7
370
    25
100
AcDbLine
 10
192.167901
 20
240.251162
 30
0.0
 11
205.018991
 21
253.102252
 31
0.0
  0
LINE
  5
568
102
{ACAD_REACTORS
330
57C
102
}
330
1F
100
AcDbEntity
  8
LC-003-005-----0
 62
     7
370
    25
100
AcDbLine
 10
210.418304
 20
258.501565
 30
0.0
 11
213.418371
 21
261.501632
 31
0.0
  0
LINE
  5
569
102
{ACAD_REACTORS
330
57C
102
}
330
1F
100
AcDbEntity
  8
LC-003-005-----0
 62
     7
370
    25
100
AcDbLine
 10
216.469946
 20
264.553207
 30
0.0
 11
218.168476
 21
266.251738
 31
0.0
  0
LINE
  5
56A
102
{ACAD_REACTORS
330
57C
102
}
330
1F
100
AcDbEntity
  8
LC-003-005-----0
 62
     7
370
    25
100
AcDbLine
 10
220.657097
 20
268.740358
 30
0.0
 11
223.922555
 21
272.005816
 31
0.0
  0
LINE
  5
56B
102
{ACAD_REACTORS
330
57C
102
}
330
1F
100
AcDbEntity
  8
LC-003-005-----0
 62
     7
370
    25
100
AcDbLine
 10
192.167964
 20
243.079652
 30
0.0
 11
202.190626
 21
253.102315
 31
0.0
  0
LINE
  5
56C
102
{ACAD_REACTORS
330
57C
102
}
330
1F
100
AcDbEntity
  8
LC-003-005-----0
 62
     7
370
    25
100
AcDbLine
 10
210.418367
 20
261.330055
 30
0.0
 11
218.155516
 21
269.067204
 31
0.0
  0
LINE
  5
56D
102
{ACAD_REACTORS
330
57C
102
}
330
1F
100
AcDbEntity
  8
LC-003-005-----0
 62
     7
370
    25
100
AcDbLine
 10
215.168535
 20
268.908651
 30
0.0
 11
218.155454
 21
271.895569
 31
0.0
  0
LINE
  5
56E
102
{ACAD_REACTORS
330
57C
102
}
330
1F
100
AcDbEntity
  8
LC-003-005-----0
 62
     7
370
    25
100
AcDbLine
 10
215.168598
 20
271.73714
 30
0.0
 11
218.155391
 21
274.723934
 31
0.0
  0
LINE
  5
56F
102
{ACAD_REACTORS
330
57C
102
}
330
1F
100
AcDbEntity
  8
LC-003-005-----0
 62
     7
370
    25
100
AcDbLine
 10
215.16866
 20
274.56563
 30
0.0
 11
218.155329
 21
277.552298
 31
0.0
  0
LINE
  5
570
102
{ACAD_REACTORS
330
57C
102
}
330
1F
100
AcDbEntity
  8
LC-003-005-----0
 62
     7
370
    25
100
AcDbLine
 10
215.168722
 20
277.394119
 30
0.0
 11
218.155266
 21
280.380663
 31
0.0
  0
LINE
  5
571
102
{ACAD_REACTORS
330
57C
102
}
330
1F
100
AcDbEntity
  8
LC-003-005-----0
 62
     7
370
    25
100
AcDbLine
 10
215.168785
 20
280.222609
 30
0.0
 11
220.242268
 21
285.296092
 31
0.0
  0
LINE
  5
572
102
{ACAD_REACTORS
330
57C
102
}
330
1F
100
AcDbEntity
  8
LC-003-005-----0
 62
     7
370
    25
100
AcDbLine
 10
215.168847
 20
283.051098
 30
0.0
 11
217.414178
 21
285.296429
 31
0.0
  0
LINE
  5
573
102
{ACAD_REACTORS
330
57C
102
}
330
1F
100
AcDbEntity
  8
LC-003-005-----0
 62
     7
370
    25
100
AcDbLine
 10
219.866837
 20
282.092234
 30
0.0
 11
223.070358
 21
285.295755
 31
0.0
  0
LINE
  5
574
102
{ACAD_REACTORS
330
57C
102
}
330
1F
100
AcDbEntity
  8
LC-003-005-----0
 62
     7
370
    25
100
AcDbLine
 10
220.659223
 20
280.056193
 30
0.0
 11
223.521796
 21
282.918766
 31
0.0
  0
LINE
  5
575
102
{ACAD_REACTORS
330
57C
102
}
330
1F
100
AcDbEntity
  8
LC-003-005-----0
 62
     7
370
    25
100
AcDbLine
 10
220.658692
 20
277.227234
 30
0.0
 11
223.923555
 21
280.492097
 31
0.0
  0
LINE
  5
576
102
{ACAD_REACTORS
330
57C
102
}
330
1F
100
AcDbEntity
  8
LC-003-005-----0
 62
     7
370
    25
100
AcDbLine
 10
220.65816
 20
274.398275
 30
0.0
 11
223.923221
 21
277.663337
 31
0.0
  0
LINE
  5
577
102
{ACAD_REACTORS
330
57C
102
}
330
1F
100
AcDbEntity
  8
LC-003-005-----0
 62
     7
370
    25
100
AcDbLine
 10
220.657629
 20
271.569317
 30
0.0
 11
223.922888
 21
274.834577
 31
0.0
  0
LINE
  5
578
102
{ACAD_REACTORS
330
579
102
}
330
1F
100
AcDbEntity
  8
LC-003-005-----0
 62
     7
370
    25
100
AcDbLine
 10
229.422537
 20
271.848944
 30
0.0
 11
232.660062
 21
275.086469
 31
0.0
  0
ENDSEC
  0
SECTION
  2
OBJECTS
  0
DICTIONARY
  5
C
330
0
100
AcDbDictionary
281
     1
  3
ACAD_GROUP
350
D
  3
ACAD_LAYOUT
350
1A
  3
ACAD_MLINESTYLE
350
17
  3
ACAD_PLOTSETTINGS
350
19
  3
ACAD_PLOTSTYLENAME
350
E
  0
DICTIONARY
  5
D
102
{ACAD_REACTORS
330
C
102
}
330
C
100
AcDbDictionary
281
     1
  3
LCGROUP13
350
57A
  3
LCGROUP15
350
579
  3
LCGROUP1580
350
582
  3
LCGROUP16
350
57D
  3
LCGROUP1717
350
580
  3
LCGROUP1869
350
583
  3
LCGROUP21
350
57C
  3
LCGROUP2805
350
57F
  3
LCGROUP2838
350
581
  3
LCGROUP3266
350
57B
  3
LCGROUP3346
350
57E
  0
DICTIONARY
  5
1A
102
{ACAD_REACTORS
330
C
102
}
330
C
100
AcDbDictionary
281
     1
  3
Layout1
350
1E
  3
Layout2
350
26
  3
Model
350
22
  0
DICTIONARY
  5
17
102
{ACAD_REACTORS
330
C
102
}
330
C
100
AcDbDictionary
281
     1
  3
Standard
350
18
  0
DICTIONARY
  5
19
102
{ACAD_REACTORS
330
C
102
}
330
C
100
AcDbDictionary
281
     1
  0
ACDBDICTIONARYWDFLT
  5
E
102
{ACAD_REACTORS
330
C
102
}
330
C
100
AcDbDictionary
281
     1
  3
Normal
350
F
100
AcDbDictionaryWithDefault
340
F
  0
GROUP
  5
57A
102
{ACAD_REACTORS
330
D
102
}
330
D
100
AcDbGroup
300
GRP13
 70
     1
 71
     1
340
3EC
340
3ED
340
3EF
340
3F0
340
3F1
340
3F2
340
3F3
340
3F4
340
3F5
340
3F6
340
3F7
340
3F8
340
3F9
340
3FA
340
3FB
340
3FC
340
3FD
340
3FE
340
3FF
340
400
340
401
340
402
  0
GROUP
  5
579
102
{ACAD_REACTORS
330
D
102
}
330
D
100
AcDbGroup
300
GRP15-LCMaster-LCGROUP3266
 70
     1
 71
     1
340
41F
340
420
340
421
340
422
340
423
340
424
340
425
340
426
340
427
340
428
340
429
340
42A
340
42B
340
42C
340
42D
340
42E
340
42F
340
430
340
431
340
432
340
433
340
434
340
435
340
436
340
437
340
438
340
439
340
43A
340
43B
340
43C
340
43D
340
43E
340
43F
340
440
340
441
340
442
340
443
340
444
340
445
340
446
340
447
340
448
340
449
340
44A
340
44B
340
44C
340
44D
340
44E
340
44F
340
450
340
451
340
452
340
453
340
454
340
455
340
456
340
457
340
458
340
459
340
45A
340
45B
340
45C
340
45D
340
45E
340
45F
340
460
340
461
340
462
340
463
340
578
  0
GROUP
  5
582
102
{ACAD_REACTORS
330
D
102
}
330
D
100
AcDbGroup
300
GRP1580
 70
     1
 71
     1
340
3D
340
3E
340
3F
340
40
340
42
340
43
340
44
340
45
340
46
340
47
340
48
340
49
340
4A
340
4B
340
4C
340
4D
340
5E
340
5F
340
60
340
61
340
62
340
63
340
64
340
65
340
66
340
67
340
68
340
69
340
6A
340
6B
340
6C
340
6D
340
6E
340
6F
340
70
340
71
340
72
340
73
340
74
340
75
340
76
340
77
340
78
340
79
340
7A
340
7B
340
7C
340
7D
340
7E
340
88
340
89
340
8A
340
8B
340
8C
340
8D
340
8E
340
8F
340
90
340
91
340
92
340
93
340
94
340
95
340
96
340
97
340
98
340
99
340
9A
340
9B
340
9C
340
9D
340
9E
340
AE
340
AF
340
B1
340
B2
340
B3
340
B4
340
B5
340
B6
340
B7
340
B8
340
B9
340
BA
340
BB
340
BC
340
BD
340
BE
340
BF
340
C0
340
C1
340
C2
340
C3
340
C4
340
C5
340
C6
340
C7
340
C8
340
C9
340
CA
340
CB
340
CC
340
CD
340
CE
340
CF
340
D0
340
D1
340
D7
340
D8
340
D9
340
DA
340
DB
340
DC
340
DD
  0
GROUP
  5
57D
102
{ACAD_REACTORS
330
D
102
}
330
D
100
AcDbGroup
300
GRP16-LCMaster-LCGROUP3266
 70
     1
 71
     1
340
464
340
465
340
466
340
467
340
468
340
469
340
46A
340
46B
340
46C
340
46D
340
46E
340
46F
340
470
340
471
340
472
340
473
340
474
340
475
340
476
340
477
340
478
340
479
340
47A
340
47B
340
47C
340
47D
340
47E
340
47F
340
480
340
481
340
482
340
483
340
484
340
485
340
486
340
487
340
488
340
489
340
48A
340
48B
340
48C
340
48D
340
48E
340
48F
340
490
340
491
340
492
340
493
340
494
340
495
340
496
340
497
340
498
340
499
340
49A
340
49B
340
49C
340
49D
340
49E
340
49F
340
4A0
340
4A1
340
4A2
340
4A3
340
4A4
340
4A5
340
4A6
340
4A7
340
4A8
340
4A9
340
4AA
340
4AB
340
4AC
340
4AD
340
4AE
340
4AF
340
4B0
340
4B1
340
4B2
340
4B3
340
4B4
340
4B5
340
4B6
340
4B7
340
4B8
340
4B9
340
4BA
340
4BB
340
4BC
340
4BD
340
4BE
340
4BF
340
4C0
340
4C1
340
4C2
340
4C3
340
4C4
340
4C5
340
4C6
340
4C7
340
4C8
340
4C9
340
4CA
340
4CB
340
4CC
340
4CD
340
4CE
340
4CF
340
4D0
340
4D1
340
4D2
340
4D3
340
4D4
340
4D5
340
4D6
340
4D7
340
4D8
340
4D9
340
4DA
340
4DB
340
4DC
340
4DD
340
4DE
340
4DF
340
4E0
340
4E1
340
4E2
340
4E3
340
4E4
340
4E5
340
4E6
340
4E7
340
4E8
340
4E9
340
4EA
340
4EB
  0
GROUP
  5
580
102
{ACAD_REACTORS
330
D
102
}
330
D
100
AcDbGroup
300
GRP1717
 70
     1
 71
     1
340
DE
340
DF
340
E0
340
E1
340
E2
340
E3
340
E4
340
E5
340
E6
340
E7
340
E8
340
E9
340
EA
340
EB
340
EC
340
ED
340
EE
340
EF
340
F0
340
F1
340
F2
340
F3
340
F4
340
F5
340
F6
340
F7
340
F8
340
F9
340
FA
340
FB
  0
GROUP
  5
583
102
{ACAD_REACTORS
330
D
102
}
330
D
100
AcDbGroup
300
GRP1869
 70
     1
 71
     1
340
105
340
106
340
107
340
108
340
109
340
10A
340
10B
340
10C
340
10D
340
10E
340
10F
340
110
340
111
340
112
340
113
340
114
340
115
340
116
340
117
340
118
340
119
340
11A
340
11B
340
11C
340
11D
340
11E
340
11F
340
120
340
121
340
122
  0
GROUP
  5
57C
102
{ACAD_REACTORS
330
D
102
}
330
D
100
AcDbGroup
300
GRP21-LCMaster-LCGROUP3266
 70
     1
 71
     1
340
4FB
340
4FC
340
4FD
340
4FE
340
4FF
340
500
340
501
340
502
340
503
340
504
340
505
340
506
340
507
340
508
340
509
340
50A
340
50B
340
50C
340
50D
340
50E
340
50F
340
510
340
511
340
512
340
513
340
514
340
515
340
516
340
517
340
518
340
519
340
51A
340
51B
340
51C
340
51D
340
51E
340
51F
340
520
340
521
340
522
340
523
340
524
340
525
340
526
340
527
340
528
340
529
340
52A
340
52B
340
52C
340
52D
340
52E
340
52F
340
530
340
531
340
532
340
533
340
534
340
535
340
536
340
537
340
538
340
539
340
53A
340
53B
340
53C
340
53D
340
53E
340
53F
340
540
340
541
340
542
340
543
340
544
340
545
340
546
340
547
340
548
340
549
340
54A
340
54B
340
54C
340
54D
340
54E
340
54F
340
550
340
551
340
552
340
553
340
554
340
555
340
556
340
557
340
558
340
559
340
55A
340
55B
340
55C
340
55D
340
55E
340
55F
340
560
340
561
340
562
340
563
340
564
340
565
340
566
340
567
340
568
340
569
340
56A
340
56B
340
56C
340
56D
340
56E
340
56F
340
570
340
571
340
572
340
573
340
574
340
575
340
576
340
577
  0
GROUP
  5
57F
102
{ACAD_REACTORS
330
D
102
}
330
D
100
AcDbGroup
300
schraub
 70
     1
 71
     1
340
1E4
340
1E5
340
1E6
340
1E7
340
1E8
340
1E9
340
1EA
340
1EB
340
1EC
340
1ED
340
1EE
340
1EF
340
1F0
340
1F1
340
1F2
340
1F3
340
1F4
340
1F5
340
1F6
  0
GROUP
  5
581
102
{ACAD_REACTORS
330
D
102
}
330
D
100
AcDbGroup
300
schraub
 70
     1
 71
     1
340
1F7
340
1F8
340
1F9
340
1FA
340
1FB
340
1FC
340
1FD
340
1FE
340
1FF
340
200
340
201
340
202
340
203
340
204
340
205
340
206
340
207
340
208
340
209
  0
GROUP
  5
57B
102
{ACAD_REACTORS
330
D
102
}
330
D
100
AcDbGroup
300
GRP3266
 70
     1
 71
     1
340
226
340
227
340
228
340
229
340
22A
340
22B
340
22C
340
22D
340
22E
340
22F
340
230
340
231
340
232
340
233
340
234
340
235
340
236
340
237
340
238
340
239
340
23A
340
23B
340
23C
340
23D
340
23E
340
23F
340
240
340
241
340
242
340
243
340
244
340
245
340
246
340
247
340
248
340
249
340
24A
340
24B
340
24C
340
24D
340
24E
340
24F
340
250
340
251
340
252
340
253
340
254
340
255
340
256
340
257
340
258
340
259
340
25A
340
25B
340
25C
340
25D
340
25E
340
25F
340
260
340
261
340
262
340
263
340
264
340
265
340
266
340
267
  0
GROUP
  5
57E
102
{ACAD_REACTORS
330
D
102
}
330
D
100
AcDbGroup
300
GehõuseDS
 70
     1
 71
     1
340
268
340
2A7
340
2A8
340
2A9
340
2AA
340
2AB
340
2AC
340
2AD
340
2AE
340
2AF
340
2B0
340
2B1
340
2B2
340
2B3
340
2B4
340
2B5
340
2B6
340
2B7
340
2B8
340
2B9
340
2BA
340
2BB
340
2BC
340
2BD
340
2BE
340
2BF
340
2C0
340
2C1
340
2C2
340
2C3
340
2C4
340
2C5
340
2C6
340
2C7
340
2C8
340
2C9
340
2CA
340
2CB
340
2CC
340
2CD
340
2CE
340
2CF
340
2D0
340
2D1
340
2D2
340
2D3
340
2D4
340
2D5
340
2D6
340
2D7
340
2D8
340
2D9
340
2DA
340
2DB
340
2DC
340
2DD
340
2DE
340
2DF
340
2E0
340
2E1
340
2E2
340
2E3
340
2E4
340
2E5
340
2E6
340
2E7
340
2E8
340
2E9
340
2EA
340
2EB
340
2EC
340
2ED
340
2EE
340
2EF
340
2F0
340
2F1
340
2F2
340
2F3
340
2F4
340
2F5
340
2F6
340
2F7
340
2F8
340
2F9
340
339
340
33A
340
33B
340
33C
340
33D
340
33E
340
33F
340
340
340
341
340
342
340
343
340
344
340
345
340
346
340
347
340
348
340
349
340
34A
340
34B
340
34C
340
34D
340
34E
340
34F
340
350
340
351
340
352
340
353
340
354
340
355
340
356
340
357
340
358
340
359
340
35A
340
35B
340
35C
340
35D
340
35E
340
35F
340
360
340
361
340
362
340
363
340
364
340
365
340
366
340
367
340
368
340
369
340
36A
340
36B
340
36C
340
36D
340
36E
340
36F
340
370
340
371
340
372
340
373
340
374
340
375
340
376
340
377
340
378
340
379
340
37A
340
37B
340
37C
340
37D
340
37E
340
37F
340
380
340
381
340
382
340
383
340
384
340
385
340
386
340
387
340
388
340
389
340
38A
340
38B
340
38C
340
38D
340
38E
340
38F
340
390
340
391
340
392
340
393
340
394
340
395
340
396
340
397
340
398
340
399
340
39A
340
39B
340
39C
340
39D
340
39E
340
39F
340
3A0
340
3A1
340
3A2
340
3A3
340
3A4
340
3A5
340
3A6
340
3A7
340
3A8
340
3A9
340
3AA
340
3AB
340
3AC
340
3AD
340
3AE
340
3AF
340
3B0
340
3B1
340
3B2
340
3B3
340
3B4
340
3B5
340
3B6
340
3B7
340
3B8
340
3B9
340
3BA
340
3BB
340
3BC
340
3BD
340
3BE
340
3BF
340
3C0
340
3C1
340
3C2
340
3C3
340
3C4
340
3C5
340
3C6
340
3C7
340
3C8
340
3C9
340
3CA
340
3CB
340
3CC
340
3CD
340
3CE
340
3CF
340
3D0
  0
LAYOUT
  5
1E
102
{ACAD_REACTORS
330
1A
102
}
330
1A
100
AcDbPlotSettings
  1

  2

  4

  6

 40
0.0
 41
0.0
 42
0.0
 43
0.0
 44
0.0
 45
0.0
 46
0.0
 47
0.0
 48
0.0
 49
0.0
140
0.0
141
0.0
142
1.0
143
1.0
 70
   688
 72
     0
 73
     0
 74
     5
  7

 75
    16
147
1.0
148
0.0
149
0.0
100
AcDbLayout
  1
Layout1
 70
     1
 71
     1
 10
-210.0
 20
-148.5
 11
630.0
 21
445.5
 12
0.0
 22
0.0
 32
0.0
 14
-210.0
 24
-148.5
 34
0.0
 15
630.0
 25
445.5
 35
0.0
146
0.0
 13
0.0
 23
0.0
 33
0.0
 16
1.0
 26
0.0
 36
0.0
 17
0.0
 27
1.0
 37
0.0
 76
     0
330
1B
  0
LAYOUT
  5
26
102
{ACAD_REACTORS
330
1A
102
}
330
1A
100
AcDbPlotSettings
  1

  2

  4

  6

 40
0.0
 41
0.0
 42
0.0
 43
0.0
 44
0.0
 45
0.0
 46
0.0
 47
0.0
 48
0.0
 49
0.0
140
0.0
141
0.0
142
1.0
143
1.0
 70
   688
 72
     0
 73
     0
 74
     5
  7

 75
    16
147
1.0
148
0.0
149
0.0
100
AcDbLayout
  1
Layout2
 70
     1
 71
     2
 10
0.0
 20
0.0
 11
0.0
 21
0.0
 12
0.0
 22
0.0
 32
0.0
 14
0.0
 24
0.0
 34
0.0
 15
0.0
 25
0.0
 35
0.0
146
0.0
 13
0.0
 23
0.0
 33
0.0
 16
1.0
 26
0.0
 36
0.0
 17
0.0
 27
1.0
 37
0.0
 76
     0
330
23
  0
LAYOUT
  5
22
102
{ACAD_REACTORS
330
1A
102
}
330
1A
100
AcDbPlotSettings
  1

  2

  4

  6

 40
0.0
 41
0.0
 42
0.0
 43
0.0
 44
0.0
 45
0.0
 46
0.0
 47
0.0
 48
0.0
 49
0.0
140
0.0
141
0.0
142
1.0
143
1.0
 70
  1776
 72
     0
 73
     0
 74
     0
  7

 75
     0
147
1.0
148
0.0
149
0.0
100
AcDbLayout
  1
Model
 70
     1
 71
     0
 10
-210.0
 20
-148.5
 11
630.0
 21
445.5
 12
0.0
 22
0.0
 32
0.0
 14
-210.0
 24
-148.5
 34
0.0
 15
630.0
 25
445.5
 35
0.0
146
0.0
 13
0.0
 23
0.0
 33
0.0
 16
1.0
 26
0.0
 36
0.0
 17
0.0
 27
1.0
 37
0.0
 76
     0
330
1F
  0
MLINESTYLE
  5
18
102
{ACAD_REACTORS
330
17
102
}
330
17
100
AcDbMlineStyle
  2
Standard
 70
     0
  3

 62
   256
 51
90.0
 52
90.0
 71
     2
 49
0.5
 62
   256
  6
BYLAYER
 49
-0.5
 62
   256
  6
BYLAYER
  0
ACDBPLACEHOLDER
  5
F
102
{ACAD_REACTORS
330
E
102
}
330
E
  0
ENDSEC
  0
EOF
