  0
SECTION
  2
HEADER
  9
$ACADVER
  1
AC1015
  9
$ACADMAINTVER
 70
     6
  9
$DWGCODEPAGE
  3
DOS850
  9
$INSBASE
 10
0.0
 20
0.0
 30
0.0
  9
$EXTMIN
 10
-416.048018
 20
-310.32
 30
0.0
  9
$EXTMAX
 10
771.951982
 20
529.68
 30
0.0
  9
$LIMMIN
 10
-416.048018
 20
-310.32
  9
$LIMMAX
 10
771.951982
 20
529.68
  9
$ORTHOMODE
 70
     0
  9
$REGENMODE
 70
     1
  9
$FILLMODE
 70
     1
  9
$QTEXTMODE
 70
     0
  9
$MIRRTEXT
 70
     1
  9
$LTSCALE
 40
2.0
  9
$ATTMODE
 70
     1
  9
$TEXTSIZE
 40
2.5
  9
$TRACEWID
 40
1.0
  9
$TEXTSTYLE
  7
Standard
  9
$CLAYER
  8
0
  9
$CELTYPE
  6
ByLayer
  9
$CECOLOR
 62
     7
  9
$CELTSCALE
 40
1.0
  9
$DISPSILH
 70
     0
  9
$DIMSCALE
 40
2.0
  9
$DIMASZ
 40
3.5
  9
$DIMEXO
 40
0.625
  9
$DIMDLI
 40
3.75
  9
$DIMRND
 40
0.0
  9
$DIMDLE
 40
0.0
  9
$DIMEXE
 40
1.25
  9
$DIMTP
 40
0.0
  9
$DIMTM
 40
0.0
  9
$DIMTXT
 40
3.5
  9
$DIMCEN
 40
2.5
  9
$DIMTSZ
 40
0.0
  9
$DIMTOL
 70
     0
  9
$DIMLIM
 70
     0
  9
$DIMTIH
 70
     0
  9
$DIMTOH
 70
     0
  9
$DIMSE1
 70
     0
  9
$DIMSE2
 70
     0
  9
$DIMTAD
 70
     1
  9
$DIMZIN
 70
     8
  9
$DIMBLK
  1

  9
$DIMASO
 70
     1
  9
$DIMSHO
 70
     1
  9
$DIMPOST
  1

  9
$DIMAPOST
  1

  9
$DIMALT
 70
     0
  9
$DIMALTD
 70
     3
  9
$DIMALTF
 40
0.03937
  9
$DIMLFAC
 40
1.0
  9
$DIMTOFL
 70
     1
  9
$DIMTVP
 40
0.0
  9
$DIMTIX
 70
     0
  9
$DIMSOXD
 70
     0
  9
$DIMSAH
 70
     0
  9
$DIMBLK1
  1

  9
$DIMBLK2
  1

  9
$DIMSTYLE
  2
ISO-25
  9
$DIMCLRD
 70
     0
  9
$DIMCLRE
 70
     0
  9
$DIMCLRT
 70
     0
  9
$DIMTFAC
 40
1.0
  9
$DIMGAP
 40
0.625
  9
$DIMJUST
 70
     0
  9
$DIMSD1
 70
     0
  9
$DIMSD2
 70
     0
  9
$DIMTOLJ
 70
     0
  9
$DIMTZIN
 70
     8
  9
$DIMALTZ
 70
     0
  9
$DIMALTTZ
 70
     0
  9
$DIMUPT
 70
     0
  9
$DIMDEC
 70
     2
  9
$DIMTDEC
 70
     2
  9
$DIMALTU
 70
     2
  9
$DIMALTTD
 70
     3
  9
$DIMTXSTY
  7
Standard
  9
$DIMAUNIT
 70
     0
  9
$DIMADEC
 70
     0
  9
$DIMALTRND
 40
0.0
  9
$DIMAZIN
 70
     0
  9
$DIMDSEP
 70
    44
  9
$DIMATFIT
 70
     3
  9
$DIMFRAC
 70
     0
  9
$DIMLDRBLK
  1

  9
$DIMLUNIT
 70
     2
  9
$DIMLWD
 70
    -2
  9
$DIMLWE
 70
    -2
  9
$DIMTMOVE
 70
     0
  9
$LUNITS
 70
     2
  9
$LUPREC
 70
     4
  9
$SKETCHINC
 40
1.0
  9
$FILLETRAD
 40
10.0
  9
$AUNITS
 70
     0
  9
$AUPREC
 70
     0
  9
$MENU
  1
.
  9
$ELEVATION
 40
0.0
  9
$PELEVATION
 40
0.0
  9
$THICKNESS
 40
0.0
  9
$LIMCHECK
 70
     0
  9
$CHAMFERA
 40
10.0
  9
$CHAMFERB
 40
10.0
  9
$CHAMFERC
 40
20.0
  9
$CHAMFERD
 40
0.0
  9
$SKPOLY
 70
     0
  9
$TDCREATE
 40
2453780.34710809
  9
$TDUCREATE
 40
2453780.305441424
  9
$TDUPDATE
 40
2453780.347108102
  9
$TDUUPDATE
 40
2453780.305441435
  9
$TDINDWG
 40
0.0000000116
  9
$TDUSRTIMER
 40
0.0000000116
  9
$USRTIMER
 70
     1
  9
$ANGBASE
 50
0.0
  9
$ANGDIR
 70
     0
  9
$PDMODE
 70
     0
  9
$PDSIZE
 40
0.0
  9
$PLINEWID
 40
0.0
  9
$SPLFRAME
 70
     0
  9
$SPLINETYPE
 70
     6
  9
$SPLINESEGS
 70
     8
  9
$HANDSEED
  5
480
  9
$SURFTAB1
 70
     6
  9
$SURFTAB2
 70
     6
  9
$SURFTYPE
 70
     6
  9
$SURFU
 70
     6
  9
$SURFV
 70
     6
  9
$UCSBASE
  2

  9
$UCSNAME
  2

  9
$UCSORG
 10
0.0
 20
0.0
 30
0.0
  9
$UCSXDIR
 10
1.0
 20
0.0
 30
0.0
  9
$UCSYDIR
 10
0.0
 20
1.0
 30
0.0
  9
$UCSORTHOREF
  2

  9
$UCSORTHOVIEW
 70
     0
  9
$UCSORGTOP
 10
0.0
 20
0.0
 30
0.0
  9
$UCSORGBOTTOM
 10
0.0
 20
0.0
 30
0.0
  9
$UCSORGLEFT
 10
0.0
 20
0.0
 30
0.0
  9
$UCSORGRIGHT
 10
0.0
 20
0.0
 30
0.0
  9
$UCSORGFRONT
 10
0.0
 20
0.0
 30
0.0
  9
$UCSORGBACK
 10
0.0
 20
0.0
 30
0.0
  9
$PUCSBASE
  2

  9
$PUCSNAME
  2

  9
$PUCSORG
 10
0.0
 20
0.0
 30
0.0
  9
$PUCSXDIR
 10
1.0
 20
0.0
 30
0.0
  9
$PUCSYDIR
 10
0.0
 20
1.0
 30
0.0
  9
$PUCSORTHOREF
  2

  9
$PUCSORTHOVIEW
 70
     0
  9
$PUCSORGTOP
 10
0.0
 20
0.0
 30
0.0
  9
$PUCSORGBOTTOM
 10
0.0
 20
0.0
 30
0.0
  9
$PUCSORGLEFT
 10
0.0
 20
0.0
 30
0.0
  9
$PUCSORGRIGHT
 10
0.0
 20
0.0
 30
0.0
  9
$PUCSORGFRONT
 10
0.0
 20
0.0
 30
0.0
  9
$PUCSORGBACK
 10
0.0
 20
0.0
 30
0.0
  9
$USERI1
 70
     0
  9
$USERI2
 70
     0
  9
$USERI3
 70
     0
  9
$USERI4
 70
     0
  9
$USERI5
 70
     0
  9
$USERR1
 40
0.0
  9
$USERR2
 40
0.0
  9
$USERR3
 40
0.0
  9
$USERR4
 40
0.0
  9
$USERR5
 40
0.0
  9
$WORLDVIEW
 70
     1
  9
$SHADEDGE
 70
     3
  9
$SHADEDIF
 70
    70
  9
$TILEMODE
 70
     1
  9
$MAXACTVP
 70
    64
  9
$PINSBASE
 10
0.0
 20
0.0
 30
0.0
  9
$PLIMCHECK
 70
     0
  9
$PEXTMIN
 10
-416.048018
 20
-310.32
 30
0.0
  9
$PEXTMAX
 10
771.951982
 20
529.68
 30
0.0
  9
$PLIMMIN
 10
-416.048018
 20
-310.32
  9
$PLIMMAX
 10
771.951982
 20
529.68
  9
$UNITMODE
 70
     0
  9
$VISRETAIN
 70
     1
  9
$PLINEGEN
 70
     0
  9
$PSLTSCALE
 70
     1
  9
$TREEDEPTH
 70
  3020
  9
$CMLSTYLE
  2
Standard
  9
$CMLJUST
 70
     0
  9
$CMLSCALE
 40
20.0
  9
$PROXYGRAPHICS
 70
     1
  9
$MEASUREMENT
 70
     1
  9
$CELWEIGHT
370
    -1
  9
$ENDCAPS
280
     0
  9
$JOINSTYLE
280
     0
  9
$LWDISPLAY
290
     0
  9
$INSUNITS
 70
     4
  9
$HYPERLINKBASE
  1

  9
$STYLESHEET
  1

  9
$XEDIT
290
     1
  9
$CEPSNTYPE
380
     0
  9
$PSTYLEMODE
290
     1
  9
$FINGERPRINTGUID
  2
{FAEB1C30-E019-11D5-929B-00C0DF256EC4}
  9
$VERSIONGUID
  2
{FAEB1C32-E019-11D5-929B-00C0DF256EC4}
  9
$EXTNAMES
290
     1
  9
$PSVPSCALE
 40
0.0
  9
$OLESTARTUP
290
     0
  0
ENDSEC
  0
SECTION
  2
CLASSES
  0
CLASS
  1
ACDBDICTIONARYWDFLT
  2
AcDbDictionaryWithDefault
  3
ObjectDBX Classes
 90
        0
280
     0
281
     0
  0
CLASS
  1
ACDBPLACEHOLDER
  2
AcDbPlaceHolder
  3
ObjectDBX Classes
 90
        0
280
     0
281
     0
  0
CLASS
  1
LAYOUT
  2
AcDbLayout
  3
ObjectDBX Classes
 90
        0
280
     0
281
     0
  0
ENDSEC
  0
SECTION
  2
TABLES
  0
TABLE
  2
VPORT
  5
8
330
0
100
AcDbSymbolTable
 70
     2
  0
VPORT
  5
29
330
8
100
AcDbSymbolTableRecord
100
AcDbViewportTableRecord
  2
*ACTIVE
 70
     0
 10
0.0
 20
0.0
 11
1.0
 21
1.0
 12
177.951982
 22
109.68
 13
0.0
 23
0.0
 14
1.0
 24
1.0
 15
0.0
 25
0.0
 16
0.0
 26
0.0
 36
1.0
 17
0.0
 27
0.0
 37
0.0
 40
840.0
 41
1.414286
 42
50.0
 43
0.0
 44
0.0
 50
0.0
 51
0.0
 71
    16
 72
   100
 73
     1
 74
     0
 75
     0
 76
     0
 77
     0
 78
     0
281
     0
 65
     0
110
0.0
120
0.0
130
0.0
111
1.0
121
0.0
131
0.0
112
0.0
122
1.0
132
0.0
 79
     0
146
0.0
  0
ENDTAB
  0
TABLE
  2
LTYPE
  5
5
330
0
100
AcDbSymbolTable
 70
     4
  0
LTYPE
  5
14
330
5
100
AcDbSymbolTableRecord
100
AcDbLinetypeTableRecord
  2
ByBlock
 70
     0
  3

 72
    65
 73
     0
 40
0.0
  0
LTYPE
  5
15
330
5
100
AcDbSymbolTableRecord
100
AcDbLinetypeTableRecord
  2
ByLayer
 70
     0
  3

 72
    65
 73
     0
 40
0.0
  0
LTYPE
  5
16
330
5
100
AcDbSymbolTableRecord
100
AcDbLinetypeTableRecord
  2
Continuous
 70
     0
  3
Solid line
 72
    65
 73
     0
 40
0.0
  0
LTYPE
  5
2A
330
5
100
AcDbSymbolTableRecord
100
AcDbLinetypeTableRecord
  2
DASHED
 70
     0
  3
__ __ __ __ __
 72
    65
 73
     2
 40
6.25
 49
5.0
 74
     4
 75
     0
340
0
 46
1.0
 50
0.0
 44
0.0
 45
0.0
 49
-1.25
 74
     4
 75
     0
340
0
 46
1.0
 50
0.0
 44
0.0
 45
0.0
  0
LTYPE
  5
4C
330
5
100
AcDbSymbolTableRecord
100
AcDbLinetypeTableRecord
  2
CENTER
 70
     0
  3
__ . __ . __ . __ . __
 72
    65
 73
     4
 40
7.5
 49
5.0
 74
     4
 75
     0
340
0
 46
1.0
 50
0.0
 44
0.0
 45
0.0
 49
-1.25
 74
     4
 75
     0
340
0
 46
1.0
 50
0.0
 44
0.0
 45
0.0
 49
0.0
 74
     4
 75
     0
340
0
 46
1.0
 50
0.0
 44
0.0
 45
0.0
 49
-1.25
 74
     4
 75
     0
340
0
 46
1.0
 50
0.0
 44
0.0
 45
0.0
  0
LTYPE
  5
12E
330
5
100
AcDbSymbolTableRecord
100
AcDbLinetypeTableRecord
  2
DASHDOT
 70
     0
  3
__ . __ . __ . __ . __
 72
    65
 73
     4
 40
7.5
 49
5.0
 74
     4
 75
     0
340
0
 46
1.0
 50
0.0
 44
0.0
 45
0.0
 49
-1.25
 74
     4
 75
     0
340
0
 46
1.0
 50
0.0
 44
0.0
 45
0.0
 49
0.0
 74
     4
 75
     0
340
0
 46
1.0
 50
0.0
 44
0.0
 45
0.0
 49
-1.25
 74
     4
 75
     0
340
0
 46
1.0
 50
0.0
 44
0.0
 45
0.0
  0
ENDTAB
  0
TABLE
  2
LAYER
  5
2
330
0
100
AcDbSymbolTable
 70
    11
  0
LAYER
  5
10
330
2
100
AcDbSymbolTableRecord
100
AcDbLayerTableRecord
  2
0
 70
     0
 62
     7
  6
Continuous
370
    -3
390
F
  0
LAYER
  5
2B
330
2
100
AcDbSymbolTableRecord
100
AcDbLayerTableRecord
  2
LC-INFO-1-2-mm-A2-0
 70
     1
 62
     7
  6
ByBlock
370
    -3
390
F
  0
LAYER
  5
2C
330
2
100
AcDbSymbolTableRecord
100
AcDbLayerTableRecord
  2
LC-CUT-HIDDEN
 70
     0
 62
     7
  6
DASHED
370
    -3
390
F
  0
LAYER
  5
2D
330
2
100
AcDbSymbolTableRecord
100
AcDbLayerTableRecord
  2
LC-VIEWPORT
 70
     0
 62
     7
  6
ByBlock
370
    -3
390
F
  0
LAYER
  5
2E
330
2
100
AcDbSymbolTableRecord
100
AcDbLayerTableRecord
  2
LC-3D-HIDDEN
 70
     0
 62
     9
  6
DASHED
370
    -3
390
F
  0
LAYER
  5
30
330
2
100
AcDbSymbolTableRecord
100
AcDbLayerTableRecord
  2
LC-001-002-----0
 70
     0
 62
     1
  6
ByBlock
370
    -3
390
F
  0
LAYER
  5
38
330
2
100
AcDbSymbolTableRecord
100
AcDbLayerTableRecord
  2
LC-002-002-RND-0
 70
     0
 62
     1
  6
ByBlock
370
    -3
390
F
  0
LAYER
  5
4D
330
2
100
AcDbSymbolTableRecord
100
AcDbLayerTableRecord
  2
LC-003-006-MLN-0
 70
     0
 62
     2
  6
CENTER
370
    -3
390
F
  0
LAYER
  5
5D
330
2
100
AcDbSymbolTableRecord
100
AcDbLayerTableRecord
  2
LC-004-005-----0
 70
     0
 62
     2
  6
ByBlock
370
    -3
390
F
  0
LAYER
  5
133
330
2
100
AcDbSymbolTableRecord
100
AcDbLayerTableRecord
  2
LC-005-003-----0
 70
     0
 62
     2
  6
ByBlock
370
    -3
390
F
  0
LAYER
  5
135
330
2
100
AcDbSymbolTableRecord
100
AcDbLayerTableRecord
  2
Defpoints
 70
     0
 62
     7
  6
Continuous
290
     0
370
    -3
390
F
  0
ENDTAB
  0
TABLE
  2
STYLE
  5
3
330
0
100
AcDbSymbolTable
 70
     3
  0
STYLE
  5
11
330
3
100
AcDbSymbolTableRecord
100
AcDbTextStyleTableRecord
  2
Standard
 70
     0
 40
0.0
 41
1.0
 50
0.0
 71
     0
 42
2.5
  3
txt
  4

  0
STYLE
  5
2F
330
3
100
AcDbSymbolTableRecord
100
AcDbTextStyleTableRecord
  2
LCTX15-400-0-0-Arial
 70
     0
 40
0.0
 41
0.9
 50
0.0
 71
     0
 42
3.5
  3

  4

1001
ACAD
1000
Arial
1071
 16777218
  0
STYLE
  5
131
330
3
100
AcDbSymbolTableRecord
100
AcDbTextStyleTableRecord
  2
LCTX15-400-0-0pDIN-Schrift
 70
     0
 40
2.5
 41
0.8
 50
15.0
 71
     0
 42
3.5
  3
STANDARD
  4

  0
ENDTAB
  0
TABLE
  2
VIEW
  5
6
330
0
100
AcDbSymbolTable
 70
     0
  0
ENDTAB
  0
TABLE
  2
UCS
  5
7
330
0
100
AcDbSymbolTable
 70
     0
  0
ENDTAB
  0
TABLE
  2
APPID
  5
9
330
0
100
AcDbSymbolTable
 70
     1
  0
APPID
  5
12
330
9
100
AcDbSymbolTableRecord
100
AcDbRegAppTableRecord
  2
ACAD
 70
     0
  0
ENDTAB
  0
TABLE
  2
DIMSTYLE
  5
A
330
0
100
AcDbSymbolTable
 70
     3
100
AcDbDimStyleTable
  0
DIMSTYLE
105
27
330
A
100
AcDbSymbolTableRecord
100
AcDbDimStyleTableRecord
  2
ISO-25
 70
     0
 41
2.5
 42
0.625
 43
3.75
 44
1.25
 73
     0
 74
     0
 77
     1
 78
     8
140
2.5
141
2.5
143
0.03937
147
0.625
171
     3
172
     1
271
     2
272
     2
274
     3
278
    44
283
     0
284
     8
340
11
  0
DIMSTYLE
105
132
102
{ACAD_REACTORS
330
134
330
28C
330
374
330
381
330
38E
330
39B
330
3A8
330
3BA
102
}
330
A
100
AcDbSymbolTableRecord
100
AcDbDimStyleTableRecord
  2
LC-DIM-L-0140-02-02
 70
     0
 40
2.0
 41
14.0
 42
0.0
 43
7.5
 44
1.8
 73
     0
 74
     0
 77
     1
 78
     8
 79
     2
140
14.0
141
0.0
146
0.71
147
1.5
176
     2
177
     2
178
     2
179
     2
271
     2
278
    44
289
     1
340
131
  0
DIMSTYLE
105
142
102
{ACAD_REACTORS
330
143
102
}
330
A
100
AcDbSymbolTableRecord
100
AcDbDimStyleTableRecord
  2
LC-DIM-L-0140-01-02
 70
     0
 40
2.0
 41
14.0
 42
0.0
 43
7.5
 44
1.8
 73
     0
 74
     0
 77
     1
 78
     8
 79
     2
140
14.0
141
0.0
146
0.71
147
1.5
176
     2
177
     2
178
     2
179
     1
271
     1
278
    44
289
     1
340
131
  0
ENDTAB
  0
TABLE
  2
BLOCK_RECORD
  5
1
330
0
100
AcDbSymbolTable
 70
    16
  0
BLOCK_RECORD
  5
1F
330
1
100
AcDbSymbolTableRecord
100
AcDbBlockTableRecord
  2
*Model_Space
340
22
  0
BLOCK_RECORD
  5
1B
330
1
100
AcDbSymbolTableRecord
100
AcDbBlockTableRecord
  2
*Paper_Space
340
1E
  0
BLOCK_RECORD
  5
23
330
1
100
AcDbSymbolTableRecord
100
AcDbBlockTableRecord
  2
*Paper_Space0
340
26
  0
BLOCK_RECORD
  5
5A
330
1
100
AcDbSymbolTableRecord
100
AcDbBlockTableRecord
  2
*X11
340
0
102
{BLKREFS
331
12A
102
}
  0
BLOCK_RECORD
  5
136
330
1
100
AcDbSymbolTableRecord
100
AcDbBlockTableRecord
  2
*D2
340
0
  0
BLOCK_RECORD
  5
144
330
1
100
AcDbSymbolTableRecord
100
AcDbBlockTableRecord
  2
*D3
340
0
  0
BLOCK_RECORD
  5
1F0
330
1
100
AcDbSymbolTableRecord
100
AcDbBlockTableRecord
  2
*X24
340
0
102
{BLKREFS
331
28B
102
}
  0
BLOCK_RECORD
  5
28D
330
1
100
AcDbSymbolTableRecord
100
AcDbBlockTableRecord
  2
*D5
340
0
  0
BLOCK_RECORD
  5
2A3
330
1
100
AcDbSymbolTableRecord
100
AcDbBlockTableRecord
  2
*X36
340
0
102
{BLKREFS
331
363
102
}
  0
BLOCK_RECORD
  5
364
330
1
100
AcDbSymbolTableRecord
100
AcDbBlockTableRecord
  2
*X47
340
0
102
{BLKREFS
331
36B
102
}
  0
BLOCK_RECORD
  5
36C
330
1
100
AcDbSymbolTableRecord
100
AcDbBlockTableRecord
  2
*X58
340
0
102
{BLKREFS
331
373
102
}
  0
BLOCK_RECORD
  5
375
330
1
100
AcDbSymbolTableRecord
100
AcDbBlockTableRecord
  2
*D9
340
0
  0
BLOCK_RECORD
  5
382
330
1
100
AcDbSymbolTableRecord
100
AcDbBlockTableRecord
  2
*D10
340
0
  0
BLOCK_RECORD
  5
38F
330
1
100
AcDbSymbolTableRecord
100
AcDbBlockTableRecord
  2
*D11
340
0
  0
BLOCK_RECORD
  5
39C
330
1
100
AcDbSymbolTableRecord
100
AcDbBlockTableRecord
  2
*D12
340
0
  0
BLOCK_RECORD
  5
3A9
330
1
100
AcDbSymbolTableRecord
100
AcDbBlockTableRecord
  2
*D13
340
0
  0
BLOCK_RECORD
  5
3BB
330
1
100
AcDbSymbolTableRecord
100
AcDbBlockTableRecord
  2
*D14
340
0
  0
BLOCK_RECORD
  5
40D
330
1
100
AcDbSymbolTableRecord
100
AcDbBlockTableRecord
  2
*X615
340
0
102
{BLKREFS
331
47C
102
}
  0
ENDTAB
  0
ENDSEC
  0
SECTION
  2
BLOCKS
  0
BLOCK
  5
20
330
1F
100
AcDbEntity
  8
0
100
AcDbBlockBegin
  2
*Model_Space
 70
     0
 71
     0
 10
0.0
 20
0.0
 30
0.0
  3
*Model_Space
  1

  0
ENDBLK
  5
21
330
1F
100
AcDbEntity
  8
0
100
AcDbBlockEnd
  0
BLOCK
  5
1C
330
1B
100
AcDbEntity
 67
     1
  8
0
100
AcDbBlockBegin
  2
*Paper_Space
 70
     0
 71
     0
 10
0.0
 20
0.0
 30
0.0
  3
*Paper_Space
  1

  0
ENDBLK
  5
1D
330
1B
100
AcDbEntity
 67
     1
  8
0
100
AcDbBlockEnd
  0
BLOCK
  5
24
330
23
100
AcDbEntity
  8
0
100
AcDbBlockBegin
  2
*Paper_Space0
 70
     0
 71
     0
 10
0.0
 20
0.0
 30
0.0
  3
*Paper_Space0
  1

  0
ENDBLK
  5
25
330
23
100
AcDbEntity
  8
0
100
AcDbBlockEnd
  0
BLOCK
  5
5B
330
5A
100
AcDbEntity
  8
0
100
AcDbBlockBegin
  2
*X11
 70
     1
 71
     0
 10
0.0
 20
0.0
 30
0.0
  3
*X11
  1

  4
*X1
  0
LINE
  5
5E
330
5A
100
AcDbEntity
  8
LC-004-005-----0
 62
     7
370
    25
100
AcDbLine
 10
228.462512
 20
340.05134
 30
0.0
 11
225.462512
 21
343.05134
 31
0.0
  0
LINE
  5
5F
330
5A
100
AcDbEntity
  8
LC-004-005-----0
 62
     7
370
    25
100
AcDbLine
 10
225.634085
 20
340.05134
 30
0.0
 11
222.634085
 21
343.05134
 31
0.0
  0
LINE
  5
60
330
5A
100
AcDbEntity
  8
LC-004-005-----0
 62
     7
370
    25
100
AcDbLine
 10
222.805658
 20
340.05134
 30
0.0
 11
219.805658
 21
343.05134
 31
0.0
  0
LINE
  5
61
330
5A
100
AcDbEntity
  8
LC-004-005-----0
 62
     7
370
    25
100
AcDbLine
 10
219.977231
 20
340.05134
 30
0.0
 11
216.977231
 21
343.05134
 31
0.0
  0
LINE
  5
62
330
5A
100
AcDbEntity
  8
LC-004-005-----0
 62
     7
370
    25
100
AcDbLine
 10
217.148804
 20
340.05134
 30
0.0
 11
214.148804
 21
343.05134
 31
0.0
  0
LINE
  5
63
330
5A
100
AcDbEntity
  8
LC-004-005-----0
 62
     7
370
    25
100
AcDbLine
 10
214.320377
 20
340.05134
 30
0.0
 11
211.320377
 21
343.05134
 31
0.0
  0
LINE
  5
64
330
5A
100
AcDbEntity
  8
LC-004-005-----0
 62
     7
370
    25
100
AcDbLine
 10
211.49195
 20
340.05134
 30
0.0
 11
208.49195
 21
343.05134
 31
0.0
  0
LINE
  5
65
330
5A
100
AcDbEntity
  8
LC-004-005-----0
 62
     7
370
    25
100
AcDbLine
 10
208.663523
 20
340.05134
 30
0.0
 11
205.663523
 21
343.05134
 31
0.0
  0
LINE
  5
66
330
5A
100
AcDbEntity
  8
LC-004-005-----0
 62
     7
370
    25
100
AcDbLine
 10
205.835095
 20
340.05134
 30
0.0
 11
202.835095
 21
343.05134
 31
0.0
  0
LINE
  5
67
330
5A
100
AcDbEntity
  8
LC-004-005-----0
 62
     7
370
    25
100
AcDbLine
 10
203.006668
 20
340.05134
 30
0.0
 11
200.006668
 21
343.05134
 31
0.0
  0
LINE
  5
68
330
5A
100
AcDbEntity
  8
LC-004-005-----0
 62
     7
370
    25
100
AcDbLine
 10
200.178241
 20
340.05134
 30
0.0
 11
197.178241
 21
343.05134
 31
0.0
  0
LINE
  5
69
330
5A
100
AcDbEntity
  8
LC-004-005-----0
 62
     7
370
    25
100
AcDbLine
 10
197.349814
 20
340.05134
 30
0.0
 11
194.349814
 21
343.05134
 31
0.0
  0
LINE
  5
6A
330
5A
100
AcDbEntity
  8
LC-004-005-----0
 62
     7
370
    25
100
AcDbLine
 10
194.521387
 20
340.05134
 30
0.0
 11
191.521387
 21
343.05134
 31
0.0
  0
LINE
  5
6B
330
5A
100
AcDbEntity
  8
LC-004-005-----0
 62
     7
370
    25
100
AcDbLine
 10
191.69296
 20
340.05134
 30
0.0
 11
188.69296
 21
343.05134
 31
0.0
  0
LINE
  5
6C
330
5A
100
AcDbEntity
  8
LC-004-005-----0
 62
     7
370
    25
100
AcDbLine
 10
188.864533
 20
340.05134
 30
0.0
 11
185.864533
 21
343.05134
 31
0.0
  0
LINE
  5
6D
330
5A
100
AcDbEntity
  8
LC-004-005-----0
 62
     7
370
    25
100
AcDbLine
 10
186.036106
 20
340.05134
 30
0.0
 11
183.036106
 21
343.05134
 31
0.0
  0
LINE
  5
6E
330
5A
100
AcDbEntity
  8
LC-004-005-----0
 62
     7
370
    25
100
AcDbLine
 10
183.207678
 20
340.05134
 30
0.0
 11
180.207678
 21
343.05134
 31
0.0
  0
LINE
  5
6F
330
5A
100
AcDbEntity
  8
LC-004-005-----0
 62
     7
370
    25
100
AcDbLine
 10
180.379251
 20
340.05134
 30
0.0
 11
177.379251
 21
343.05134
 31
0.0
  0
LINE
  5
70
330
5A
100
AcDbEntity
  8
LC-004-005-----0
 62
     7
370
    25
100
AcDbLine
 10
177.550824
 20
340.05134
 30
0.0
 11
174.550824
 21
343.05134
 31
0.0
  0
LINE
  5
71
330
5A
100
AcDbEntity
  8
LC-004-005-----0
 62
     7
370
    25
100
AcDbLine
 10
174.722397
 20
340.05134
 30
0.0
 11
171.722397
 21
343.05134
 31
0.0
  0
LINE
  5
72
330
5A
100
AcDbEntity
  8
LC-004-005-----0
 62
     7
370
    25
100
AcDbLine
 10
171.89397
 20
340.05134
 30
0.0
 11
168.89397
 21
343.05134
 31
0.0
  0
LINE
  5
73
330
5A
100
AcDbEntity
  8
LC-004-005-----0
 62
     7
370
    25
100
AcDbLine
 10
169.065543
 20
340.05134
 30
0.0
 11
166.065543
 21
343.05134
 31
0.0
  0
LINE
  5
74
330
5A
100
AcDbEntity
  8
LC-004-005-----0
 62
     7
370
    25
100
AcDbLine
 10
166.237116
 20
340.05134
 30
0.0
 11
163.237116
 21
343.05134
 31
0.0
  0
LINE
  5
75
330
5A
100
AcDbEntity
  8
LC-004-005-----0
 62
     7
370
    25
100
AcDbLine
 10
163.408689
 20
340.05134
 30
0.0
 11
160.408689
 21
343.05134
 31
0.0
  0
LINE
  5
76
330
5A
100
AcDbEntity
  8
LC-004-005-----0
 62
     7
370
    25
100
AcDbLine
 10
160.580261
 20
340.05134
 30
0.0
 11
157.580261
 21
343.05134
 31
0.0
  0
LINE
  5
77
330
5A
100
AcDbEntity
  8
LC-004-005-----0
 62
     7
370
    25
100
AcDbLine
 10
157.751834
 20
340.05134
 30
0.0
 11
154.751834
 21
343.05134
 31
0.0
  0
LINE
  5
78
330
5A
100
AcDbEntity
  8
LC-004-005-----0
 62
     7
370
    25
100
AcDbLine
 10
154.923407
 20
340.05134
 30
0.0
 11
151.923407
 21
343.05134
 31
0.0
  0
LINE
  5
79
330
5A
100
AcDbEntity
  8
LC-004-005-----0
 62
     7
370
    25
100
AcDbLine
 10
152.09498
 20
340.05134
 30
0.0
 11
149.09498
 21
343.05134
 31
0.0
  0
LINE
  5
7A
330
5A
100
AcDbEntity
  8
LC-004-005-----0
 62
     7
370
    25
100
AcDbLine
 10
149.266553
 20
340.05134
 30
0.0
 11
146.266553
 21
343.05134
 31
0.0
  0
LINE
  5
7B
330
5A
100
AcDbEntity
  8
LC-004-005-----0
 62
     7
370
    25
100
AcDbLine
 10
146.438126
 20
340.05134
 30
0.0
 11
143.438126
 21
343.05134
 31
0.0
  0
LINE
  5
7C
330
5A
100
AcDbEntity
  8
LC-004-005-----0
 62
     7
370
    25
100
AcDbLine
 10
143.609699
 20
340.05134
 30
0.0
 11
140.609699
 21
343.05134
 31
0.0
  0
LINE
  5
7D
330
5A
100
AcDbEntity
  8
LC-004-005-----0
 62
     7
370
    25
100
AcDbLine
 10
140.781272
 20
340.05134
 30
0.0
 11
137.781272
 21
343.05134
 31
0.0
  0
LINE
  5
7E
330
5A
100
AcDbEntity
  8
LC-004-005-----0
 62
     7
370
    25
100
AcDbLine
 10
137.952844
 20
340.05134
 30
0.0
 11
134.952844
 21
343.05134
 31
0.0
  0
LINE
  5
7F
330
5A
100
AcDbEntity
  8
LC-004-005-----0
 62
     7
370
    25
100
AcDbLine
 10
136.504413
 20
338.671344
 30
0.0
 11
133.635435
 21
341.540322
 31
0.0
  0
LINE
  5
80
330
5A
100
AcDbEntity
  8
LC-004-005-----0
 62
     7
370
    25
100
AcDbLine
 10
136.504413
 20
335.842917
 30
0.0
 11
133.504413
 21
338.842917
 31
0.0
  0
LINE
  5
81
330
5A
100
AcDbEntity
  8
LC-004-005-----0
 62
     7
370
    25
100
AcDbLine
 10
136.504413
 20
333.01449
 30
0.0
 11
133.504413
 21
336.01449
 31
0.0
  0
LINE
  5
82
330
5A
100
AcDbEntity
  8
LC-004-005-----0
 62
     7
370
    25
100
AcDbLine
 10
136.504413
 20
330.186063
 30
0.0
 11
133.504413
 21
333.186063
 31
0.0
  0
LINE
  5
83
330
5A
100
AcDbEntity
  8
LC-004-005-----0
 62
     7
370
    25
100
AcDbLine
 10
136.504413
 20
327.357636
 30
0.0
 11
133.504413
 21
330.357636
 31
0.0
  0
LINE
  5
84
330
5A
100
AcDbEntity
  8
LC-004-005-----0
 62
     7
370
    25
100
AcDbLine
 10
136.504413
 20
324.529208
 30
0.0
 11
133.504413
 21
327.529208
 31
0.0
  0
LINE
  5
85
330
5A
100
AcDbEntity
  8
LC-004-005-----0
 62
     7
370
    25
100
AcDbLine
 10
136.504413
 20
321.700781
 30
0.0
 11
133.504413
 21
324.700781
 31
0.0
  0
LINE
  5
86
330
5A
100
AcDbEntity
  8
LC-004-005-----0
 62
     7
370
    25
100
AcDbLine
 10
136.504413
 20
318.872354
 30
0.0
 11
133.504413
 21
321.872354
 31
0.0
  0
LINE
  5
87
330
5A
100
AcDbEntity
  8
LC-004-005-----0
 62
     7
370
    25
100
AcDbLine
 10
136.504413
 20
316.043927
 30
0.0
 11
133.504413
 21
319.043927
 31
0.0
  0
LINE
  5
88
330
5A
100
AcDbEntity
  8
LC-004-005-----0
 62
     7
370
    25
100
AcDbLine
 10
136.504413
 20
313.2155
 30
0.0
 11
133.504413
 21
316.2155
 31
0.0
  0
LINE
  5
89
330
5A
100
AcDbEntity
  8
LC-004-005-----0
 62
     7
370
    25
100
AcDbLine
 10
136.504413
 20
310.387073
 30
0.0
 11
133.504413
 21
313.387073
 31
0.0
  0
LINE
  5
8A
330
5A
100
AcDbEntity
  8
LC-004-005-----0
 62
     7
370
    25
100
AcDbLine
 10
136.469472
 20
307.593586
 30
0.0
 11
133.504413
 21
310.558646
 31
0.0
  0
LINE
  5
8B
330
5A
100
AcDbEntity
  8
LC-004-005-----0
 62
     7
370
    25
100
AcDbLine
 10
135.459743
 20
305.774888
 30
0.0
 11
133.184511
 21
308.050121
 31
0.0
  0
LINE
  5
8C
330
5A
100
AcDbEntity
  8
LC-004-005-----0
 62
     7
370
    25
100
AcDbLine
 10
133.356083
 20
305.050121
 30
0.0
 11
130.356083
 21
308.050121
 31
0.0
  0
LINE
  5
8D
330
5A
100
AcDbEntity
  8
LC-004-005-----0
 62
     7
370
    25
100
AcDbLine
 10
131.504413
 20
304.073364
 30
0.0
 11
128.504413
 21
307.073364
 31
0.0
  0
LINE
  5
8E
330
5A
100
AcDbEntity
  8
LC-004-005-----0
 62
     7
370
    25
100
AcDbLine
 10
131.504413
 20
301.244937
 30
0.0
 11
128.504413
 21
304.244937
 31
0.0
  0
LINE
  5
8F
330
5A
100
AcDbEntity
  8
LC-004-005-----0
 62
     7
370
    25
100
AcDbLine
 10
131.504413
 20
298.41651
 30
0.0
 11
128.504413
 21
301.41651
 31
0.0
  0
LINE
  5
90
330
5A
100
AcDbEntity
  8
LC-004-005-----0
 62
     7
370
    25
100
AcDbLine
 10
131.504413
 20
295.588083
 30
0.0
 11
128.504413
 21
298.588083
 31
0.0
  0
LINE
  5
91
330
5A
100
AcDbEntity
  8
LC-004-005-----0
 62
     7
370
    25
100
AcDbLine
 10
131.504413
 20
292.759656
 30
0.0
 11
128.504413
 21
295.759656
 31
0.0
  0
LINE
  5
92
330
5A
100
AcDbEntity
  8
LC-004-005-----0
 62
     7
370
    25
100
AcDbLine
 10
131.504413
 20
289.931229
 30
0.0
 11
128.504413
 21
292.931229
 31
0.0
  0
LINE
  5
93
330
5A
100
AcDbEntity
  8
LC-004-005-----0
 62
     7
370
    25
100
AcDbLine
 10
131.504413
 20
287.102802
 30
0.0
 11
128.504413
 21
290.102802
 31
0.0
  0
LINE
  5
94
330
5A
100
AcDbEntity
  8
LC-004-005-----0
 62
     7
370
    25
100
AcDbLine
 10
131.504413
 20
284.274374
 30
0.0
 11
128.504413
 21
287.274374
 31
0.0
  0
LINE
  5
95
330
5A
100
AcDbEntity
  8
LC-004-005-----0
 62
     7
370
    25
100
AcDbLine
 10
131.504413
 20
281.445947
 30
0.0
 11
128.504413
 21
284.445947
 31
0.0
  0
LINE
  5
96
330
5A
100
AcDbEntity
  8
LC-004-005-----0
 62
     7
370
    25
100
AcDbLine
 10
131.504413
 20
278.61752
 30
0.0
 11
128.504413
 21
281.61752
 31
0.0
  0
LINE
  5
97
330
5A
100
AcDbEntity
  8
LC-004-005-----0
 62
     7
370
    25
100
AcDbLine
 10
130.609642
 20
276.683864
 30
0.0
 11
128.443141
 21
278.850365
 31
0.0
  0
LINE
  5
98
330
5A
100
AcDbEntity
  8
LC-004-005-----0
 62
     7
370
    25
100
AcDbLine
 10
129.488856
 20
274.976223
 30
0.0
 11
127.322355
 21
277.142724
 31
0.0
  0
LINE
  5
99
330
5A
100
AcDbEntity
  8
LC-004-005-----0
 62
     7
370
    25
100
AcDbLine
 10
128.368069
 20
273.268582
 30
0.0
 11
126.201569
 21
275.435083
 31
0.0
  0
LINE
  5
9A
330
5A
100
AcDbEntity
  8
LC-004-005-----0
 62
     7
370
    25
100
AcDbLine
 10
127.247283
 20
271.560941
 30
0.0
 11
125.080783
 21
273.727442
 31
0.0
  0
LINE
  5
9B
330
5A
100
AcDbEntity
  8
LC-004-005-----0
 62
     7
370
    25
100
AcDbLine
 10
126.126497
 20
269.853301
 30
0.0
 11
123.959996
 21
272.019801
 31
0.0
  0
LINE
  5
9C
330
5A
100
AcDbEntity
  8
LC-004-005-----0
 62
     7
370
    25
100
AcDbLine
 10
125.005711
 20
268.14566
 30
0.0
 11
122.83921
 21
270.31216
 31
0.0
  0
LINE
  5
9D
330
5A
100
AcDbEntity
  8
LC-004-005-----0
 62
     7
370
    25
100
AcDbLine
 10
123.884924
 20
266.438019
 30
0.0
 11
121.718424
 21
268.604519
 31
0.0
  0
LINE
  5
9E
330
5A
100
AcDbEntity
  8
LC-004-005-----0
 62
     7
370
    25
100
AcDbLine
 10
122.764138
 20
264.730378
 30
0.0
 11
120.597638
 21
266.896878
 31
0.0
  0
LINE
  5
9F
330
5A
100
AcDbEntity
  8
LC-004-005-----0
 62
     7
370
    25
100
AcDbLine
 10
121.643352
 20
263.022737
 30
0.0
 11
119.476852
 21
265.189237
 31
0.0
  0
LINE
  5
A0
330
5A
100
AcDbEntity
  8
LC-004-005-----0
 62
     7
370
    25
100
AcDbLine
 10
120.522566
 20
261.315096
 30
0.0
 11
118.356065
 21
263.481596
 31
0.0
  0
LINE
  5
A1
330
5A
100
AcDbEntity
  8
LC-004-005-----0
 62
     7
370
    25
100
AcDbLine
 10
119.40178
 20
259.607455
 30
0.0
 11
117.235279
 21
261.773956
 31
0.0
  0
LINE
  5
A2
330
5A
100
AcDbEntity
  8
LC-004-005-----0
 62
     7
370
    25
100
AcDbLine
 10
118.280993
 20
257.899814
 30
0.0
 11
116.114493
 21
260.066315
 31
0.0
  0
LINE
  5
A3
330
5A
100
AcDbEntity
  8
LC-004-005-----0
 62
     7
370
    25
100
AcDbLine
 10
117.160207
 20
256.192173
 30
0.0
 11
114.993707
 21
258.358674
 31
0.0
  0
LINE
  5
A4
330
5A
100
AcDbEntity
  8
LC-004-005-----0
 62
     7
370
    25
100
AcDbLine
 10
116.039421
 20
254.484532
 30
0.0
 11
113.872921
 21
256.651033
 31
0.0
  0
LINE
  5
A5
330
5A
100
AcDbEntity
  8
LC-004-005-----0
 62
     7
370
    25
100
AcDbLine
 10
114.918635
 20
252.776891
 30
0.0
 11
112.752134
 21
254.943392
 31
0.0
  0
LINE
  5
A6
330
5A
100
AcDbEntity
  8
LC-004-005-----0
 62
     7
370
    25
100
AcDbLine
 10
113.797849
 20
251.069251
 30
0.0
 11
111.631348
 21
253.235751
 31
0.0
  0
LINE
  5
A7
330
5A
100
AcDbEntity
  8
LC-004-005-----0
 62
     7
370
    25
100
AcDbLine
 10
112.677062
 20
249.36161
 30
0.0
 11
110.510562
 21
251.52811
 31
0.0
  0
LINE
  5
A8
330
5A
100
AcDbEntity
  8
LC-004-005-----0
 62
     7
370
    25
100
AcDbLine
 10
111.556276
 20
247.653969
 30
0.0
 11
109.389776
 21
249.820469
 31
0.0
  0
LINE
  5
A9
330
5A
100
AcDbEntity
  8
LC-004-005-----0
 62
     7
370
    25
100
AcDbLine
 10
110.504413
 20
245.877405
 30
0.0
 11
108.268989
 21
248.112828
 31
0.0
  0
LINE
  5
AA
330
5A
100
AcDbEntity
  8
LC-004-005-----0
 62
     7
370
    25
100
AcDbLine
 10
110.504413
 20
243.048978
 30
0.0
 11
107.504413
 21
246.048978
 31
0.0
  0
LINE
  5
AB
330
5A
100
AcDbEntity
  8
LC-004-005-----0
 62
     7
370
    25
100
AcDbLine
 10
110.504413
 20
240.220551
 30
0.0
 11
107.504413
 21
243.220551
 31
0.0
  0
LINE
  5
AC
330
5A
100
AcDbEntity
  8
LC-004-005-----0
 62
     7
370
    25
100
AcDbLine
 10
110.504413
 20
237.392123
 30
0.0
 11
107.504413
 21
240.392123
 31
0.0
  0
LINE
  5
AD
330
5A
100
AcDbEntity
  8
LC-004-005-----0
 62
     7
370
    25
100
AcDbLine
 10
110.504413
 20
234.563696
 30
0.0
 11
107.504413
 21
237.563696
 31
0.0
  0
LINE
  5
AE
330
5A
100
AcDbEntity
  8
LC-004-005-----0
 62
     7
370
    25
100
AcDbLine
 10
110.504413
 20
231.735269
 30
0.0
 11
107.504413
 21
234.735269
 31
0.0
  0
LINE
  5
AF
330
5A
100
AcDbEntity
  8
LC-004-005-----0
 62
     7
370
    25
100
AcDbLine
 10
110.504413
 20
228.906842
 30
0.0
 11
107.504413
 21
231.906842
 31
0.0
  0
LINE
  5
B0
330
5A
100
AcDbEntity
  8
LC-004-005-----0
 62
     7
370
    25
100
AcDbLine
 10
110.504413
 20
226.078415
 30
0.0
 11
107.504413
 21
229.078415
 31
0.0
  0
LINE
  5
B1
330
5A
100
AcDbEntity
  8
LC-004-005-----0
 62
     7
370
    25
100
AcDbLine
 10
110.504413
 20
223.249988
 30
0.0
 11
107.504413
 21
226.249988
 31
0.0
  0
LINE
  5
B2
330
5A
100
AcDbEntity
  8
LC-004-005-----0
 62
     7
370
    25
100
AcDbLine
 10
110.504413
 20
220.421561
 30
0.0
 11
107.504413
 21
223.421561
 31
0.0
  0
LINE
  5
B3
330
5A
100
AcDbEntity
  8
LC-004-005-----0
 62
     7
370
    25
100
AcDbLine
 10
110.504413
 20
217.593134
 30
0.0
 11
107.504413
 21
220.593134
 31
0.0
  0
LINE
  5
B4
330
5A
100
AcDbEntity
  8
LC-004-005-----0
 62
     7
370
    25
100
AcDbLine
 10
110.504413
 20
214.764706
 30
0.0
 11
107.504413
 21
217.764706
 31
0.0
  0
LINE
  5
B5
330
5A
100
AcDbEntity
  8
LC-004-005-----0
 62
     7
370
    25
100
AcDbLine
 10
110.504413
 20
211.936279
 30
0.0
 11
107.504413
 21
214.936279
 31
0.0
  0
LINE
  5
B6
330
5A
100
AcDbEntity
  8
LC-004-005-----0
 62
     7
370
    25
100
AcDbLine
 10
110.504413
 20
209.107852
 30
0.0
 11
107.504413
 21
212.107852
 31
0.0
  0
LINE
  5
B7
330
5A
100
AcDbEntity
  8
LC-004-005-----0
 62
     7
370
    25
100
AcDbLine
 10
110.504413
 20
206.279425
 30
0.0
 11
107.504413
 21
209.279425
 31
0.0
  0
LINE
  5
B8
330
5A
100
AcDbEntity
  8
LC-004-005-----0
 62
     7
370
    25
100
AcDbLine
 10
110.504413
 20
203.450998
 30
0.0
 11
107.504413
 21
206.450998
 31
0.0
  0
LINE
  5
B9
330
5A
100
AcDbEntity
  8
LC-004-005-----0
 62
     7
370
    25
100
AcDbLine
 10
110.504413
 20
200.622571
 30
0.0
 11
107.504413
 21
203.622571
 31
0.0
  0
LINE
  5
BA
330
5A
100
AcDbEntity
  8
LC-004-005-----0
 62
     7
370
    25
100
AcDbLine
 10
110.504413
 20
197.794144
 30
0.0
 11
107.504413
 21
200.794144
 31
0.0
  0
LINE
  5
BB
330
5A
100
AcDbEntity
  8
LC-004-005-----0
 62
     7
370
    25
100
AcDbLine
 10
110.504413
 20
194.965717
 30
0.0
 11
107.504413
 21
197.965717
 31
0.0
  0
LINE
  5
BC
330
5A
100
AcDbEntity
  8
LC-004-005-----0
 62
     7
370
    25
100
AcDbLine
 10
110.504413
 20
192.137289
 30
0.0
 11
107.504413
 21
195.137289
 31
0.0
  0
LINE
  5
BD
330
5A
100
AcDbEntity
  8
LC-004-005-----0
 62
     7
370
    25
100
AcDbLine
 10
110.504413
 20
189.308862
 30
0.0
 11
107.504413
 21
192.308862
 31
0.0
  0
LINE
  5
BE
330
5A
100
AcDbEntity
  8
LC-004-005-----0
 62
     7
370
    25
100
AcDbLine
 10
110.504413
 20
186.480435
 30
0.0
 11
107.504413
 21
189.480435
 31
0.0
  0
LINE
  5
BF
330
5A
100
AcDbEntity
  8
LC-004-005-----0
 62
     7
370
    25
100
AcDbLine
 10
110.504413
 20
183.652008
 30
0.0
 11
107.504413
 21
186.652008
 31
0.0
  0
LINE
  5
C0
330
5A
100
AcDbEntity
  8
LC-004-005-----0
 62
     7
370
    25
100
AcDbLine
 10
110.504413
 20
180.823581
 30
0.0
 11
107.504413
 21
183.823581
 31
0.0
  0
LINE
  5
C1
330
5A
100
AcDbEntity
  8
LC-004-005-----0
 62
     7
370
    25
100
AcDbLine
 10
110.504413
 20
177.995154
 30
0.0
 11
107.504413
 21
180.995154
 31
0.0
  0
LINE
  5
C2
330
5A
100
AcDbEntity
  8
LC-004-005-----0
 62
     7
370
    25
100
AcDbLine
 10
110.504413
 20
175.166727
 30
0.0
 11
107.504413
 21
178.166727
 31
0.0
  0
LINE
  5
C3
330
5A
100
AcDbEntity
  8
LC-004-005-----0
 62
     7
370
    25
100
AcDbLine
 10
110.504413
 20
172.3383
 30
0.0
 11
107.504413
 21
175.3383
 31
0.0
  0
LINE
  5
C4
330
5A
100
AcDbEntity
  8
LC-004-005-----0
 62
     7
370
    25
100
AcDbLine
 10
110.504413
 20
169.509872
 30
0.0
 11
107.504413
 21
172.509872
 31
0.0
  0
LINE
  5
C5
330
5A
100
AcDbEntity
  8
LC-004-005-----0
 62
     7
370
    25
100
AcDbLine
 10
110.504413
 20
166.681445
 30
0.0
 11
107.504413
 21
169.681445
 31
0.0
  0
LINE
  5
C6
330
5A
100
AcDbEntity
  8
LC-004-005-----0
 62
     7
370
    25
100
AcDbLine
 10
110.504413
 20
163.853018
 30
0.0
 11
107.504413
 21
166.853018
 31
0.0
  0
LINE
  5
C7
330
5A
100
AcDbEntity
  8
LC-004-005-----0
 62
     7
370
    25
100
AcDbLine
 10
110.504413
 20
161.024591
 30
0.0
 11
107.504413
 21
164.024591
 31
0.0
  0
LINE
  5
C8
330
5A
100
AcDbEntity
  8
LC-004-005-----0
 62
     7
370
    25
100
AcDbLine
 10
110.504413
 20
158.196164
 30
0.0
 11
107.504413
 21
161.196164
 31
0.0
  0
LINE
  5
C9
330
5A
100
AcDbEntity
  8
LC-004-005-----0
 62
     7
370
    25
100
AcDbLine
 10
110.504413
 20
155.367737
 30
0.0
 11
107.504413
 21
158.367737
 31
0.0
  0
LINE
  5
CA
330
5A
100
AcDbEntity
  8
LC-004-005-----0
 62
     7
370
    25
100
AcDbLine
 10
110.504413
 20
152.53931
 30
0.0
 11
107.504413
 21
155.53931
 31
0.0
  0
LINE
  5
CB
330
5A
100
AcDbEntity
  8
LC-004-005-----0
 62
     7
370
    25
100
AcDbLine
 10
110.504413
 20
149.710883
 30
0.0
 11
107.504413
 21
152.710883
 31
0.0
  0
LINE
  5
CC
330
5A
100
AcDbEntity
  8
LC-004-005-----0
 62
     7
370
    25
100
AcDbLine
 10
110.504413
 20
146.882455
 30
0.0
 11
107.504413
 21
149.882455
 31
0.0
  0
LINE
  5
CD
330
5A
100
AcDbEntity
  8
LC-004-005-----0
 62
     7
370
    25
100
AcDbLine
 10
110.504413
 20
144.054028
 30
0.0
 11
107.504413
 21
147.054028
 31
0.0
  0
LINE
  5
CE
330
5A
100
AcDbEntity
  8
LC-004-005-----0
 62
     7
370
    25
100
AcDbLine
 10
110.504413
 20
141.225601
 30
0.0
 11
107.504413
 21
144.225601
 31
0.0
  0
LINE
  5
CF
330
5A
100
AcDbEntity
  8
LC-004-005-----0
 62
     7
370
    25
100
AcDbLine
 10
110.504413
 20
138.397174
 30
0.0
 11
107.504413
 21
141.397174
 31
0.0
  0
LINE
  5
D0
330
5A
100
AcDbEntity
  8
LC-004-005-----0
 62
     7
370
    25
100
AcDbLine
 10
110.504413
 20
135.568747
 30
0.0
 11
107.504413
 21
138.568747
 31
0.0
  0
LINE
  5
D1
330
5A
100
AcDbEntity
  8
LC-004-005-----0
 62
     7
370
    25
100
AcDbLine
 10
110.504413
 20
132.74032
 30
0.0
 11
107.504413
 21
135.74032
 31
0.0
  0
LINE
  5
D2
330
5A
100
AcDbEntity
  8
LC-004-005-----0
 62
     7
370
    25
100
AcDbLine
 10
110.504413
 20
129.911893
 30
0.0
 11
107.504413
 21
132.911893
 31
0.0
  0
LINE
  5
D3
330
5A
100
AcDbEntity
  8
LC-004-005-----0
 62
     7
370
    25
100
AcDbLine
 10
110.504413
 20
127.083466
 30
0.0
 11
107.504413
 21
130.083466
 31
0.0
  0
LINE
  5
D4
330
5A
100
AcDbEntity
  8
LC-004-005-----0
 62
     7
370
    25
100
AcDbLine
 10
110.504413
 20
124.255038
 30
0.0
 11
107.504413
 21
127.255038
 31
0.0
  0
LINE
  5
D5
330
5A
100
AcDbEntity
  8
LC-004-005-----0
 62
     7
370
    25
100
AcDbLine
 10
110.504413
 20
121.426611
 30
0.0
 11
107.504413
 21
124.426611
 31
0.0
  0
LINE
  5
D6
330
5A
100
AcDbEntity
  8
LC-004-005-----0
 62
     7
370
    25
100
AcDbLine
 10
110.504413
 20
118.598184
 30
0.0
 11
107.504413
 21
121.598184
 31
0.0
  0
LINE
  5
D7
330
5A
100
AcDbEntity
  8
LC-004-005-----0
 62
     7
370
    25
100
AcDbLine
 10
110.504413
 20
115.769757
 30
0.0
 11
107.504413
 21
118.769757
 31
0.0
  0
LINE
  5
D8
330
5A
100
AcDbEntity
  8
LC-004-005-----0
 62
     7
370
    25
100
AcDbLine
 10
110.504413
 20
112.94133
 30
0.0
 11
107.504413
 21
115.94133
 31
0.0
  0
LINE
  5
D9
330
5A
100
AcDbEntity
  8
LC-004-005-----0
 62
     7
370
    25
100
AcDbLine
 10
110.504413
 20
110.112903
 30
0.0
 11
107.504413
 21
113.112903
 31
0.0
  0
LINE
  5
DA
330
5A
100
AcDbEntity
  8
LC-004-005-----0
 62
     7
370
    25
100
AcDbLine
 10
110.504413
 20
107.284476
 30
0.0
 11
107.504413
 21
110.284476
 31
0.0
  0
LINE
  5
DB
330
5A
100
AcDbEntity
  8
LC-004-005-----0
 62
     7
370
    25
100
AcDbLine
 10
110.504413
 20
104.456049
 30
0.0
 11
107.504413
 21
107.456049
 31
0.0
  0
LINE
  5
DC
330
5A
100
AcDbEntity
  8
LC-004-005-----0
 62
     7
370
    25
100
AcDbLine
 10
110.504413
 20
101.627621
 30
0.0
 11
107.504413
 21
104.627621
 31
0.0
  0
LINE
  5
DD
330
5A
100
AcDbEntity
  8
LC-004-005-----0
 62
     7
370
    25
100
AcDbLine
 10
110.504413
 20
98.799194
 30
0.0
 11
107.504413
 21
101.799194
 31
0.0
  0
LINE
  5
DE
330
5A
100
AcDbEntity
  8
LC-004-005-----0
 62
     7
370
    25
100
AcDbLine
 10
110.504413
 20
95.970767
 30
0.0
 11
107.504413
 21
98.970767
 31
0.0
  0
LINE
  5
DF
330
5A
100
AcDbEntity
  8
LC-004-005-----0
 62
     7
370
    25
100
AcDbLine
 10
110.504413
 20
93.14234
 30
0.0
 11
107.504413
 21
96.14234
 31
0.0
  0
LINE
  5
E0
330
5A
100
AcDbEntity
  8
LC-004-005-----0
 62
     7
370
    25
100
AcDbLine
 10
110.504413
 20
90.313913
 30
0.0
 11
107.504413
 21
93.313913
 31
0.0
  0
LINE
  5
E1
330
5A
100
AcDbEntity
  8
LC-004-005-----0
 62
     7
370
    25
100
AcDbLine
 10
110.504413
 20
87.485486
 30
0.0
 11
107.504413
 21
90.485486
 31
0.0
  0
LINE
  5
E2
330
5A
100
AcDbEntity
  8
LC-004-005-----0
 62
     7
370
    25
100
AcDbLine
 10
110.504413
 20
84.657059
 30
0.0
 11
107.504413
 21
87.657059
 31
0.0
  0
LINE
  5
E3
330
5A
100
AcDbEntity
  8
LC-004-005-----0
 62
     7
370
    25
100
AcDbLine
 10
110.504413
 20
81.828632
 30
0.0
 11
107.504413
 21
84.828632
 31
0.0
  0
LINE
  5
E4
330
5A
100
AcDbEntity
  8
LC-004-005-----0
 62
     7
370
    25
100
AcDbLine
 10
110.504413
 20
79.000204
 30
0.0
 11
107.504413
 21
82.000204
 31
0.0
  0
LINE
  5
E5
330
5A
100
AcDbEntity
  8
LC-004-005-----0
 62
     7
370
    25
100
AcDbLine
 10
110.504413
 20
76.171777
 30
0.0
 11
107.504413
 21
79.171777
 31
0.0
  0
LINE
  5
E6
330
5A
100
AcDbEntity
  8
LC-004-005-----0
 62
     7
370
    25
100
AcDbLine
 10
110.504413
 20
73.34335
 30
0.0
 11
107.504413
 21
76.34335
 31
0.0
  0
LINE
  5
E7
330
5A
100
AcDbEntity
  8
LC-004-005-----0
 62
     7
370
    25
100
AcDbLine
 10
110.504413
 20
70.514923
 30
0.0
 11
107.504413
 21
73.514923
 31
0.0
  0
LINE
  5
E8
330
5A
100
AcDbEntity
  8
LC-004-005-----0
 62
     7
370
    25
100
AcDbLine
 10
110.504413
 20
67.686496
 30
0.0
 11
107.504413
 21
70.686496
 31
0.0
  0
LINE
  5
E9
330
5A
100
AcDbEntity
  8
LC-004-005-----0
 62
     7
370
    25
100
AcDbLine
 10
110.504413
 20
64.858069
 30
0.0
 11
107.504413
 21
67.858069
 31
0.0
  0
LINE
  5
EA
330
5A
100
AcDbEntity
  8
LC-004-005-----0
 62
     7
370
    25
100
AcDbLine
 10
110.504413
 20
62.029642
 30
0.0
 11
107.504413
 21
65.029642
 31
0.0
  0
LINE
  5
EB
330
5A
100
AcDbEntity
  8
LC-004-005-----0
 62
     7
370
    25
100
AcDbLine
 10
110.504413
 20
59.201215
 30
0.0
 11
107.504413
 21
62.201215
 31
0.0
  0
LINE
  5
EC
330
5A
100
AcDbEntity
  8
LC-004-005-----0
 62
     7
370
    25
100
AcDbLine
 10
110.504413
 20
56.372787
 30
0.0
 11
107.504413
 21
59.372787
 31
0.0
  0
LINE
  5
ED
330
5A
100
AcDbEntity
  8
LC-004-005-----0
 62
     7
370
    25
100
AcDbLine
 10
110.504413
 20
53.54436
 30
0.0
 11
107.504413
 21
56.54436
 31
0.0
  0
LINE
  5
EE
330
5A
100
AcDbEntity
  8
LC-004-005-----0
 62
     7
370
    25
100
AcDbLine
 10
110.504413
 20
50.715933
 30
0.0
 11
107.504413
 21
53.715933
 31
0.0
  0
LINE
  5
EF
330
5A
100
AcDbEntity
  8
LC-004-005-----0
 62
     7
370
    25
100
AcDbLine
 10
110.504413
 20
47.887506
 30
0.0
 11
107.504413
 21
50.887506
 31
0.0
  0
LINE
  5
F0
330
5A
100
AcDbEntity
  8
LC-004-005-----0
 62
     7
370
    25
100
AcDbLine
 10
110.504413
 20
45.059079
 30
0.0
 11
107.504413
 21
48.059079
 31
0.0
  0
LINE
  5
F1
330
5A
100
AcDbEntity
  8
LC-004-005-----0
 62
     7
370
    25
100
AcDbLine
 10
110.504413
 20
42.230652
 30
0.0
 11
107.504413
 21
45.230652
 31
0.0
  0
LINE
  5
F2
330
5A
100
AcDbEntity
  8
LC-004-005-----0
 62
     7
370
    25
100
AcDbLine
 10
110.504413
 20
39.402225
 30
0.0
 11
107.504413
 21
42.402225
 31
0.0
  0
LINE
  5
F3
330
5A
100
AcDbEntity
  8
LC-004-005-----0
 62
     7
370
    25
100
AcDbLine
 10
110.504413
 20
36.573798
 30
0.0
 11
107.504413
 21
39.573798
 31
0.0
  0
LINE
  5
F4
330
5A
100
AcDbEntity
  8
LC-004-005-----0
 62
     7
370
    25
100
AcDbLine
 10
110.504413
 20
33.74537
 30
0.0
 11
107.504413
 21
36.74537
 31
0.0
  0
LINE
  5
F5
330
5A
100
AcDbEntity
  8
LC-004-005-----0
 62
     7
370
    25
100
AcDbLine
 10
110.504413
 20
30.916943
 30
0.0
 11
107.504413
 21
33.916943
 31
0.0
  0
LINE
  5
F6
330
5A
100
AcDbEntity
  8
LC-004-005-----0
 62
     7
370
    25
100
AcDbLine
 10
110.504413
 20
28.088516
 30
0.0
 11
107.504413
 21
31.088516
 31
0.0
  0
LINE
  5
F7
330
5A
100
AcDbEntity
  8
LC-004-005-----0
 62
     7
370
    25
100
AcDbLine
 10
110.504413
 20
25.260089
 30
0.0
 11
107.504413
 21
28.260089
 31
0.0
  0
LINE
  5
F8
330
5A
100
AcDbEntity
  8
LC-004-005-----0
 62
     7
370
    25
100
AcDbLine
 10
110.504413
 20
22.431662
 30
0.0
 11
107.504413
 21
25.431662
 31
0.0
  0
LINE
  5
F9
330
5A
100
AcDbEntity
  8
LC-004-005-----0
 62
     7
370
    25
100
AcDbLine
 10
110.504413
 20
19.603235
 30
0.0
 11
107.504413
 21
22.603235
 31
0.0
  0
LINE
  5
FA
330
5A
100
AcDbEntity
  8
LC-004-005-----0
 62
     7
370
    25
100
AcDbLine
 10
110.504413
 20
16.774808
 30
0.0
 11
107.504413
 21
19.774808
 31
0.0
  0
LINE
  5
FB
330
5A
100
AcDbEntity
  8
LC-004-005-----0
 62
     7
370
    25
100
AcDbLine
 10
110.504413
 20
13.946381
 30
0.0
 11
107.504413
 21
16.946381
 31
0.0
  0
LINE
  5
FC
330
5A
100
AcDbEntity
  8
LC-004-005-----0
 62
     7
370
    25
100
AcDbLine
 10
110.504413
 20
11.117953
 30
0.0
 11
107.504413
 21
14.117953
 31
0.0
  0
LINE
  5
FD
330
5A
100
AcDbEntity
  8
LC-004-005-----0
 62
     7
370
    25
100
AcDbLine
 10
110.504413
 20
8.289526
 30
0.0
 11
107.504413
 21
11.289526
 31
0.0
  0
LINE
  5
FE
330
5A
100
AcDbEntity
  8
LC-004-005-----0
 62
     7
370
    25
100
AcDbLine
 10
110.504413
 20
5.461099
 30
0.0
 11
107.504413
 21
8.461099
 31
0.0
  0
LINE
  5
FF
330
5A
100
AcDbEntity
  8
LC-004-005-----0
 62
     7
370
    25
100
AcDbLine
 10
110.504413
 20
2.632672
 30
0.0
 11
107.504413
 21
5.632672
 31
0.0
  0
LINE
  5
100
330
5A
100
AcDbEntity
  8
LC-004-005-----0
 62
     7
370
    25
100
AcDbLine
 10
110.504413
 20
-0.195755
 30
0.0
 11
107.504413
 21
2.804245
 31
0.0
  0
LINE
  5
101
330
5A
100
AcDbEntity
  8
LC-004-005-----0
 62
     7
370
    25
100
AcDbLine
 10
110.504413
 20
-3.024182
 30
0.0
 11
107.504413
 21
-0.024182
 31
0.0
  0
LINE
  5
102
330
5A
100
AcDbEntity
  8
LC-004-005-----0
 62
     7
370
    25
100
AcDbLine
 10
110.504413
 20
-5.852609
 30
0.0
 11
107.504413
 21
-2.852609
 31
0.0
  0
LINE
  5
103
330
5A
100
AcDbEntity
  8
LC-004-005-----0
 62
     7
370
    25
100
AcDbLine
 10
110.504413
 20
-8.681036
 30
0.0
 11
107.504413
 21
-5.681036
 31
0.0
  0
LINE
  5
104
330
5A
100
AcDbEntity
  8
LC-004-005-----0
 62
     7
370
    25
100
AcDbLine
 10
110.504413
 20
-11.509464
 30
0.0
 11
107.504413
 21
-8.509464
 31
0.0
  0
LINE
  5
105
330
5A
100
AcDbEntity
  8
LC-004-005-----0
 62
     7
370
    25
100
AcDbLine
 10
110.504413
 20
-14.337891
 30
0.0
 11
107.504413
 21
-11.337891
 31
0.0
  0
LINE
  5
106
330
5A
100
AcDbEntity
  8
LC-004-005-----0
 62
     7
370
    25
100
AcDbLine
 10
110.504413
 20
-17.166318
 30
0.0
 11
107.504413
 21
-14.166318
 31
0.0
  0
LINE
  5
107
330
5A
100
AcDbEntity
  8
LC-004-005-----0
 62
     7
370
    25
100
AcDbLine
 10
110.504413
 20
-19.994745
 30
0.0
 11
107.504413
 21
-16.994745
 31
0.0
  0
LINE
  5
108
330
5A
100
AcDbEntity
  8
LC-004-005-----0
 62
     7
370
    25
100
AcDbLine
 10
110.504413
 20
-22.823172
 30
0.0
 11
107.504413
 21
-19.823172
 31
0.0
  0
LINE
  5
109
330
5A
100
AcDbEntity
  8
LC-004-005-----0
 62
     7
370
    25
100
AcDbLine
 10
110.504413
 20
-25.651599
 30
0.0
 11
107.504413
 21
-22.651599
 31
0.0
  0
LINE
  5
10A
330
5A
100
AcDbEntity
  8
LC-004-005-----0
 62
     7
370
    25
100
AcDbLine
 10
110.504413
 20
-28.480026
 30
0.0
 11
107.504413
 21
-25.480026
 31
0.0
  0
LINE
  5
10B
330
5A
100
AcDbEntity
  8
LC-004-005-----0
 62
     7
370
    25
100
AcDbLine
 10
110.504413
 20
-31.308453
 30
0.0
 11
107.504413
 21
-28.308453
 31
0.0
  0
LINE
  5
10C
330
5A
100
AcDbEntity
  8
LC-004-005-----0
 62
     7
370
    25
100
AcDbLine
 10
110.504413
 20
-34.136881
 30
0.0
 11
107.504413
 21
-31.136881
 31
0.0
  0
LINE
  5
10D
330
5A
100
AcDbEntity
  8
LC-004-005-----0
 62
     7
370
    25
100
AcDbLine
 10
110.504413
 20
-36.965308
 30
0.0
 11
107.504413
 21
-33.965308
 31
0.0
  0
LINE
  5
10E
330
5A
100
AcDbEntity
  8
LC-004-005-----0
 62
     7
370
    25
100
AcDbLine
 10
110.504413
 20
-39.793735
 30
0.0
 11
107.504413
 21
-36.793735
 31
0.0
  0
LINE
  5
10F
330
5A
100
AcDbEntity
  8
LC-004-005-----0
 62
     7
370
    25
100
AcDbLine
 10
110.504413
 20
-42.622162
 30
0.0
 11
107.504413
 21
-39.622162
 31
0.0
  0
LINE
  5
110
330
5A
100
AcDbEntity
  8
LC-004-005-----0
 62
     7
370
    25
100
AcDbLine
 10
110.504413
 20
-45.450589
 30
0.0
 11
107.504413
 21
-42.450589
 31
0.0
  0
LINE
  5
111
330
5A
100
AcDbEntity
  8
LC-004-005-----0
 62
     7
370
    25
100
AcDbLine
 10
110.504413
 20
-48.279016
 30
0.0
 11
107.504413
 21
-45.279016
 31
0.0
  0
LINE
  5
112
330
5A
100
AcDbEntity
  8
LC-004-005-----0
 62
     7
370
    25
100
AcDbLine
 10
110.504413
 20
-51.107443
 30
0.0
 11
107.504413
 21
-48.107443
 31
0.0
  0
LINE
  5
113
330
5A
100
AcDbEntity
  8
LC-004-005-----0
 62
     7
370
    25
100
AcDbLine
 10
110.504413
 20
-53.93587
 30
0.0
 11
107.504413
 21
-50.93587
 31
0.0
  0
LINE
  5
114
330
5A
100
AcDbEntity
  8
LC-004-005-----0
 62
     7
370
    25
100
AcDbLine
 10
110.504413
 20
-56.764298
 30
0.0
 11
107.504413
 21
-53.764298
 31
0.0
  0
LINE
  5
115
330
5A
100
AcDbEntity
  8
LC-004-005-----0
 62
     7
370
    25
100
AcDbLine
 10
110.504413
 20
-59.592725
 30
0.0
 11
107.504413
 21
-56.592725
 31
0.0
  0
LINE
  5
116
330
5A
100
AcDbEntity
  8
LC-004-005-----0
 62
     7
370
    25
100
AcDbLine
 10
110.504413
 20
-62.421152
 30
0.0
 11
107.504413
 21
-59.421152
 31
0.0
  0
LINE
  5
117
330
5A
100
AcDbEntity
  8
LC-004-005-----0
 62
     7
370
    25
100
AcDbLine
 10
110.504413
 20
-65.249579
 30
0.0
 11
107.504413
 21
-62.249579
 31
0.0
  0
LINE
  5
118
330
5A
100
AcDbEntity
  8
LC-004-005-----0
 62
     7
370
    25
100
AcDbLine
 10
110.504413
 20
-68.078006
 30
0.0
 11
107.504413
 21
-65.078006
 31
0.0
  0
LINE
  5
119
330
5A
100
AcDbEntity
  8
LC-004-005-----0
 62
     7
370
    25
100
AcDbLine
 10
110.504413
 20
-70.906433
 30
0.0
 11
107.504413
 21
-67.906433
 31
0.0
  0
LINE
  5
11A
330
5A
100
AcDbEntity
  8
LC-004-005-----0
 62
     7
370
    25
100
AcDbLine
 10
110.504413
 20
-73.73486
 30
0.0
 11
107.504413
 21
-70.73486
 31
0.0
  0
LINE
  5
11B
330
5A
100
AcDbEntity
  8
LC-004-005-----0
 62
     7
370
    25
100
AcDbLine
 10
110.504413
 20
-76.563287
 30
0.0
 11
107.504413
 21
-73.563287
 31
0.0
  0
LINE
  5
11C
330
5A
100
AcDbEntity
  8
LC-004-005-----0
 62
     7
370
    25
100
AcDbLine
 10
110.504413
 20
-79.391715
 30
0.0
 11
107.504413
 21
-76.391715
 31
0.0
  0
LINE
  5
11D
330
5A
100
AcDbEntity
  8
LC-004-005-----0
 62
     7
370
    25
100
AcDbLine
 10
110.504413
 20
-82.220142
 30
0.0
 11
107.504413
 21
-79.220142
 31
0.0
  0
LINE
  5
11E
330
5A
100
AcDbEntity
  8
LC-004-005-----0
 62
     7
370
    25
100
AcDbLine
 10
110.504413
 20
-85.048569
 30
0.0
 11
107.504413
 21
-82.048569
 31
0.0
  0
LINE
  5
11F
330
5A
100
AcDbEntity
  8
LC-004-005-----0
 62
     7
370
    25
100
AcDbLine
 10
110.504413
 20
-87.876996
 30
0.0
 11
107.504413
 21
-84.876996
 31
0.0
  0
LINE
  5
120
330
5A
100
AcDbEntity
  8
LC-004-005-----0
 62
     7
370
    25
100
AcDbLine
 10
110.504413
 20
-90.705423
 30
0.0
 11
107.504413
 21
-87.705423
 31
0.0
  0
LINE
  5
121
330
5A
100
AcDbEntity
  8
LC-004-005-----0
 62
     7
370
    25
100
AcDbLine
 10
110.504413
 20
-93.53385
 30
0.0
 11
107.504413
 21
-90.53385
 31
0.0
  0
LINE
  5
122
330
5A
100
AcDbEntity
  8
LC-004-005-----0
 62
     7
370
    25
100
AcDbLine
 10
110.504413
 20
-96.362277
 30
0.0
 11
107.504413
 21
-93.362277
 31
0.0
  0
LINE
  5
123
330
5A
100
AcDbEntity
  8
LC-004-005-----0
 62
     7
370
    25
100
AcDbLine
 10
110.504413
 20
-99.190704
 30
0.0
 11
107.504413
 21
-96.190704
 31
0.0
  0
LINE
  5
124
330
5A
100
AcDbEntity
  8
LC-004-005-----0
 62
     7
370
    25
100
AcDbLine
 10
110.504413
 20
-102.019132
 30
0.0
 11
107.504413
 21
-99.019132
 31
0.0
  0
LINE
  5
125
330
5A
100
AcDbEntity
  8
LC-004-005-----0
 62
     7
370
    25
100
AcDbLine
 10
110.504413
 20
-104.847559
 30
0.0
 11
107.504413
 21
-101.847559
 31
0.0
  0
LINE
  5
126
330
5A
100
AcDbEntity
  8
LC-004-005-----0
 62
     7
370
    25
100
AcDbLine
 10
110.504413
 20
-107.675986
 30
0.0
 11
107.504413
 21
-104.675986
 31
0.0
  0
LINE
  5
127
330
5A
100
AcDbEntity
  8
LC-004-005-----0
 62
     7
370
    25
100
AcDbLine
 10
110.504413
 20
-110.504413
 30
0.0
 11
107.504413
 21
-107.504413
 31
0.0
  0
LINE
  5
128
330
5A
100
AcDbEntity
  8
LC-004-005-----0
 62
     7
370
    25
100
AcDbLine
 10
110.106239
 20
-112.934666
 30
0.0
 11
107.504413
 21
-110.33284
 31
0.0
  0
LINE
  5
129
330
5A
100
AcDbEntity
  8
LC-004-005-----0
 62
     7
370
    25
100
AcDbLine
 10
109.508522
 20
-115.165376
 30
0.0
 11
107.504413
 21
-113.161267
 31
0.0
  0
ENDBLK
  5
5C
330
5A
100
AcDbEntity
  8
0
100
AcDbBlockEnd
  0
BLOCK
  5
140
330
136
100
AcDbEntity
  8
0
100
AcDbBlockBegin
  2
*D2
 70
     1
 71
     0
 10
0.0
 20
0.0
 30
0.0
  3
*D2
  1

  0
LINE
  5
137
330
136
100
AcDbEntity
  8
LC-005-003-----0
 62
     2
370
    -2
100
AcDbLine
 10
20.504413
 20
-111.44866
 30
0.0
 11
20.504413
 21
-177.0
 31
0.0
  0
LINE
  5
138
330
136
100
AcDbEntity
  8
LC-005-003-----0
 62
     2
370
    -2
100
AcDbLine
 10
110.504413
 20
-111.44866
 30
0.0
 11
110.504413
 21
-177.0
 31
0.0
  0
LINE
  5
139
330
136
100
AcDbEntity
  8
LC-005-003-----0
 62
     2
370
    -2
100
AcDbLine
 10
48.504413
 20
-173.4
 30
0.0
 11
82.504413
 21
-173.4
 31
0.0
  0
SOLID
  5
13A
330
136
100
AcDbEntity
  8
LC-005-003-----0
 62
     2
100
AcDbTrace
 10
48.504413
 20
-168.733333
 30
0.0
 11
48.504413
 21
-178.066667
 31
0.0
 12
20.504413
 22
-173.4
 32
0.0
 13
20.504413
 23
-173.4
 33
0.0
  0
SOLID
  5
13B
330
136
100
AcDbEntity
  8
LC-005-003-----0
 62
     2
100
AcDbTrace
 10
82.504413
 20
-178.066667
 30
0.0
 11
82.504413
 21
-168.733333
 31
0.0
 12
110.504413
 22
-173.4
 32
0.0
 13
110.504413
 23
-173.4
 33
0.0
  0
MTEXT
  5
13C
330
136
100
AcDbEntity
  8
LC-005-003-----0
 62
     2
100
AcDbMText
 10
62.620778
 20
-142.6
 30
0.0
 40
28.0
 41
0.0
 71
     5
 72
     1
  1
%%c\A1;90
  7
LCTX15-400-0-0pDIN-Schrift
 73
     1
 44
1.0
  0
POINT
  5
13D
330
136
100
AcDbEntity
  8
Defpoints
 62
     0
100
AcDbPoint
 10
20.504413
 20
-111.44866
 30
0.0
  0
POINT
  5
13E
330
136
100
AcDbEntity
  8
Defpoints
 62
     0
100
AcDbPoint
 10
110.504413
 20
-111.44866
 30
0.0
  0
POINT
  5
13F
330
136
100
AcDbEntity
  8
Defpoints
 62
     0
100
AcDbPoint
 10
110.504413
 20
-173.4
 30
0.0
  0
ENDBLK
  5
141
330
136
100
AcDbEntity
  8
0
100
AcDbBlockEnd
  0
BLOCK
  5
14E
330
144
100
AcDbEntity
  8
0
100
AcDbBlockBegin
  2
*D3
 70
     1
 71
     0
 10
0.0
 20
0.0
 30
0.0
  3
*D3
  1

  0
LINE
  5
145
330
144
100
AcDbEntity
  8
LC-005-003-----0
 62
     2
370
    -2
100
AcDbLine
 10
109.298642
 20
-115.94866
 30
0.0
 11
184.059182
 21
-115.94866
 31
0.0
  0
LINE
  5
146
330
144
100
AcDbEntity
  8
LC-005-003-----0
 62
     2
370
    -2
100
AcDbLine
 10
118.961524
 20
194.03131
 30
0.0
 11
184.059182
 21
194.03131
 31
0.0
  0
LINE
  5
147
330
144
100
AcDbEntity
  8
LC-005-003-----0
 62
     2
370
    -2
100
AcDbLine
 10
180.459182
 20
-87.94866
 30
0.0
 11
180.459182
 21
166.03131
 31
0.0
  0
SOLID
  5
148
330
144
100
AcDbEntity
  8
LC-005-003-----0
 62
     2
100
AcDbTrace
 10
175.792515
 20
-87.94866
 30
0.0
 11
185.125849
 21
-87.94866
 31
0.0
 12
180.459182
 22
-115.94866
 32
0.0
 13
180.459182
 23
-115.94866
 33
0.0
  0
SOLID
  5
149
330
144
100
AcDbEntity
  8
LC-005-003-----0
 62
     2
100
AcDbTrace
 10
185.125849
 20
166.03131
 30
0.0
 11
175.792515
 21
166.03131
 31
0.0
 12
180.459182
 22
194.03131
 32
0.0
 13
180.459182
 23
194.03131
 33
0.0
  0
MTEXT
  5
14A
330
144
100
AcDbEntity
  8
LC-005-003-----0
 62
     2
100
AcDbMText
 10
149.659182
 20
39.041325
 30
0.0
 40
28.0
 41
0.0
 71
     5
 72
     1
  1
\A1;310
  7
LCTX15-400-0-0pDIN-Schrift
 11
6.123031769111886E-17
 21
1.0
 31
0.0
 73
     1
 44
1.0
  0
POINT
  5
14B
330
144
100
AcDbEntity
  8
Defpoints
 62
     0
100
AcDbPoint
 10
109.298642
 20
-115.94866
 30
0.0
  0
POINT
  5
14C
330
144
100
AcDbEntity
  8
Defpoints
 62
     0
100
AcDbPoint
 10
118.961524
 20
194.03131
 30
0.0
  0
POINT
  5
14D
330
144
100
AcDbEntity
  8
Defpoints
 62
     0
100
AcDbPoint
 10
180.459182
 20
194.03131
 30
0.0
  0
ENDBLK
  5
14F
330
144
100
AcDbEntity
  8
0
100
AcDbBlockEnd
  0
BLOCK
  5
1F1
330
1F0
100
AcDbEntity
  8
0
100
AcDbBlockBegin
  2
*X24
 70
     1
 71
     0
 10
0.0
 20
0.0
 30
0.0
  3
*X24
  1

  4
*X2
  0
LINE
  5
1F3
330
1F0
100
AcDbEntity
  8
LC-004-005-----0
  6
DASHED
 62
     7
370
    25
100
AcDbLine
 10
121.456266
 20
192.499145
 30
0.0
 11
119.92293
 21
194.032481
 31
0.0
  0
LINE
  5
1F4
330
1F0
100
AcDbEntity
  8
LC-004-005-----0
  6
DASHED
 62
     7
370
    25
100
AcDbLine
 10
117.617134
 20
192.095636
 30
0.0
 11
115.680289
 21
194.032481
 31
0.0
  0
LINE
  5
1F5
330
1F0
100
AcDbEntity
  8
LC-004-005-----0
 62
     7
370
    25
100
AcDbLine
 10
111.504413
 20
189.723076
 30
0.0
 11
110.504413
 21
190.723076
 31
0.0
  0
LINE
  5
1F6
330
1F0
100
AcDbEntity
  8
LC-004-005-----0
 62
     7
370
    25
100
AcDbLine
 10
111.504413
 20
185.480435
 30
0.0
 11
110.504413
 21
186.480435
 31
0.0
  0
LINE
  5
1F7
330
1F0
100
AcDbEntity
  8
LC-004-005-----0
  6
DASHED
 62
     7
370
    25
100
AcDbLine
 10
120.736412
 20
167.763154
 30
0.0
 11
119.127417
 21
169.37215
 31
0.0
  0
LINE
  5
1F8
330
1F0
100
AcDbEntity
  8
LC-004-005-----0
  6
DASHED
 62
     7
370
    25
100
AcDbLine
 10
111.504413
 20
176.995154
 30
0.0
 11
110.504413
 21
177.995154
 31
0.0
  0
LINE
  5
1F9
330
1F0
100
AcDbEntity
  8
LC-004-005-----0
  6
DASHED
 62
     7
370
    25
100
AcDbLine
 10
116.897281
 20
167.359645
 30
0.0
 11
114.884776
 21
169.37215
 31
0.0
  0
LINE
  5
1FA
330
1F0
100
AcDbEntity
  8
LC-004-005-----0
  6
DASHED
 62
     7
370
    25
100
AcDbLine
 10
111.504413
 20
172.752513
 30
0.0
 11
110.504413
 21
173.752513
 31
0.0
  0
LINE
  5
1FB
330
1F0
100
AcDbEntity
  8
LC-004-005-----0
 62
     7
370
    25
100
AcDbLine
 10
111.504413
 20
164.267232
 30
0.0
 11
110.504413
 21
165.267232
 31
0.0
  0
LINE
  5
1FC
330
1F0
100
AcDbEntity
  8
LC-004-005-----0
 62
     7
370
    25
100
AcDbLine
 10
111.504413
 20
160.024591
 30
0.0
 11
110.504413
 21
161.024591
 31
0.0
  0
LINE
  5
1FD
330
1F0
100
AcDbEntity
  8
LC-004-005-----0
  6
DASHED
 62
     7
370
    25
100
AcDbLine
 10
120.016559
 20
143.027163
 30
0.0
 11
118.331904
 21
144.711818
 31
0.0
  0
LINE
  5
1FE
330
1F0
100
AcDbEntity
  8
LC-004-005-----0
  6
DASHED
 62
     7
370
    25
100
AcDbLine
 10
111.504413
 20
151.53931
 30
0.0
 11
110.504413
 21
152.53931
 31
0.0
  0
LINE
  5
1FF
330
1F0
100
AcDbEntity
  8
LC-004-005-----0
  6
DASHED
 62
     7
370
    25
100
AcDbLine
 10
116.177427
 20
142.623654
 30
0.0
 11
114.089263
 21
144.711818
 31
0.0
  0
LINE
  5
200
330
1F0
100
AcDbEntity
  8
LC-004-005-----0
  6
DASHED
 62
     7
370
    25
100
AcDbLine
 10
111.504413
 20
147.296669
 30
0.0
 11
110.504413
 21
148.296669
 31
0.0
  0
LINE
  5
201
330
1F0
100
AcDbEntity
  8
LC-004-005-----0
 62
     7
370
    25
100
AcDbLine
 10
111.504413
 20
138.811388
 30
0.0
 11
110.504413
 21
139.811388
 31
0.0
  0
LINE
  5
202
330
1F0
100
AcDbEntity
  8
LC-004-005-----0
 62
     7
370
    25
100
AcDbLine
 10
126.866491
 20
119.206669
 30
0.0
 11
126.021673
 21
120.051487
 31
0.0
  0
LINE
  5
203
330
1F0
100
AcDbEntity
  8
LC-004-005-----0
 62
     7
370
    25
100
AcDbLine
 10
111.504413
 20
134.568747
 30
0.0
 11
110.504413
 21
135.568747
 31
0.0
  0
LINE
  5
204
330
1F0
100
AcDbEntity
  8
LC-004-005-----0
  6
DASHED
 62
     7
370
    25
100
AcDbLine
 10
119.296706
 20
118.291172
 30
0.0
 11
117.536391
 21
120.051487
 31
0.0
  0
LINE
  5
205
330
1F0
100
AcDbEntity
  8
LC-004-005-----0
  6
DASHED
 62
     7
370
    25
100
AcDbLine
 10
111.504413
 20
126.083466
 30
0.0
 11
110.504413
 21
127.083466
 31
0.0
  0
LINE
  5
206
330
1F0
100
AcDbEntity
  8
LC-004-005-----0
  6
DASHED
 62
     7
370
    25
100
AcDbLine
 10
115.457574
 20
117.887663
 30
0.0
 11
113.293751
 21
120.051487
 31
0.0
  0
LINE
  5
207
330
1F0
100
AcDbEntity
  8
LC-004-005-----0
  6
DASHED
 62
     7
370
    25
100
AcDbLine
 10
111.504413
 20
121.840825
 30
0.0
 11
110.504413
 21
122.840825
 31
0.0
  0
LINE
  5
208
330
1F0
100
AcDbEntity
  8
LC-004-005-----0
 62
     7
370
    25
100
AcDbLine
 10
111.504413
 20
113.355543
 30
0.0
 11
110.504413
 21
114.355543
 31
0.0
  0
LINE
  5
209
330
1F0
100
AcDbEntity
  8
LC-004-005-----0
 62
     7
370
    25
100
AcDbLine
 10
126.255116
 20
94.3622
 30
0.0
 11
125.22616
 21
95.391156
 31
0.0
  0
LINE
  5
20A
330
1F0
100
AcDbEntity
  8
LC-004-005-----0
 62
     7
370
    25
100
AcDbLine
 10
111.504413
 20
109.112903
 30
0.0
 11
110.504413
 21
110.112903
 31
0.0
  0
LINE
  5
20B
330
1F0
100
AcDbEntity
  8
LC-004-005-----0
  6
DASHED
 62
     7
370
    25
100
AcDbLine
 10
118.576853
 20
93.555182
 30
0.0
 11
116.740879
 21
95.391156
 31
0.0
  0
LINE
  5
20C
330
1F0
100
AcDbEntity
  8
LC-004-005-----0
  6
DASHED
 62
     7
370
    25
100
AcDbLine
 10
111.504413
 20
100.627621
 30
0.0
 11
110.504413
 21
101.627621
 31
0.0
  0
LINE
  5
20D
330
1F0
100
AcDbEntity
  8
LC-004-005-----0
  6
DASHED
 62
     7
370
    25
100
AcDbLine
 10
20.504413
 20
191.627621
 30
0.0
 11
18.099553
 21
194.032481
 31
0.0
  0
LINE
  5
20E
330
1F0
100
AcDbEntity
  8
LC-004-005-----0
  6
DASHED
 62
     7
370
    25
100
AcDbLine
 10
114.737721
 20
93.151673
 30
0.0
 11
112.498238
 21
95.391156
 31
0.0
  0
LINE
  5
20F
330
1F0
100
AcDbEntity
  8
LC-004-005-----0
  6
DASHED
 62
     7
370
    25
100
AcDbLine
 10
111.504413
 20
96.384981
 30
0.0
 11
110.504413
 21
97.384981
 31
0.0
  0
LINE
  5
210
330
1F0
100
AcDbEntity
  8
LC-004-005-----0
  6
DASHED
 62
     7
370
    25
100
AcDbLine
 10
20.504413
 20
187.384981
 30
0.0
 11
19.504413
 21
188.384981
 31
0.0
  0
LINE
  5
211
330
1F0
100
AcDbEntity
  8
LC-004-005-----0
  6
DASHED
 62
     7
370
    25
100
AcDbLine
 10
16.075877
 20
191.813517
 30
0.0
 11
13.856913
 21
194.032481
 31
0.0
  0
LINE
  5
212
330
1F0
100
AcDbEntity
  8
LC-004-005-----0
 62
     7
370
    25
100
AcDbLine
 10
111.504413
 20
87.899699
 30
0.0
 11
110.504413
 21
88.899699
 31
0.0
  0
LINE
  5
213
330
1F0
100
AcDbEntity
  8
LC-004-005-----0
 62
     7
370
    25
100
AcDbLine
 10
20.504413
 20
178.899699
 30
0.0
 11
19.504413
 21
179.899699
 31
0.0
  0
LINE
  5
214
330
1F0
100
AcDbEntity
  8
LC-004-005-----0
 62
     7
370
    25
100
AcDbLine
 10
6.594011
 20
192.810101
 30
0.0
 11
5.371631
 21
194.032481
 31
0.0
  0
LINE
  5
215
330
1F0
100
AcDbEntity
  8
LC-004-005-----0
 62
     7
370
    25
100
AcDbLine
 10
125.535263
 20
69.626209
 30
0.0
 11
124.430647
 21
70.730825
 31
0.0
  0
LINE
  5
216
330
1F0
100
AcDbEntity
  8
LC-004-005-----0
 62
     7
370
    25
100
AcDbLine
 10
111.504413
 20
83.657059
 30
0.0
 11
110.504413
 21
84.657059
 31
0.0
  0
LINE
  5
217
330
1F0
100
AcDbEntity
  8
LC-004-005-----0
 62
     7
370
    25
100
AcDbLine
 10
20.504413
 20
174.657059
 30
0.0
 11
19.504413
 21
175.657059
 31
0.0
  0
LINE
  5
218
330
1F0
100
AcDbEntity
  8
LC-004-005-----0
  6
DASHED
 62
     7
370
    25
100
AcDbLine
 10
117.857
 20
68.819191
 30
0.0
 11
115.945366
 21
70.730825
 31
0.0
  0
LINE
  5
219
330
1F0
100
AcDbEntity
  8
LC-004-005-----0
  6
DASHED
 62
     7
370
    25
100
AcDbLine
 10
111.504413
 20
75.171777
 30
0.0
 11
110.504413
 21
76.171777
 31
0.0
  0
LINE
  5
21A
330
1F0
100
AcDbEntity
  8
LC-004-005-----0
  6
DASHED
 62
     7
370
    25
100
AcDbLine
 10
20.504413
 20
166.171777
 30
0.0
 11
17.30404
 21
169.37215
 31
0.0
  0
LINE
  5
21B
330
1F0
100
AcDbEntity
  8
LC-004-005-----0
  6
DASHED
 62
     7
370
    25
100
AcDbLine
 10
114.017868
 20
68.415682
 30
0.0
 11
110.504413
 21
71.929137
 31
0.0
  0
LINE
  5
21C
330
1F0
100
AcDbEntity
  8
LC-004-005-----0
  6
DASHED
 62
     7
370
    25
100
AcDbLine
 10
20.504413
 20
161.929137
 30
0.0
 11
19.504413
 21
162.929137
 31
0.0
  0
LINE
  5
21D
330
1F0
100
AcDbEntity
  8
LC-004-005-----0
  6
DASHED
 62
     7
370
    25
100
AcDbLine
 10
15.186932
 20
167.246618
 30
0.0
 11
13.0614
 21
169.37215
 31
0.0
  0
LINE
  5
21E
330
1F0
100
AcDbEntity
  8
LC-004-005-----0
 62
     7
370
    25
100
AcDbLine
 10
111.504413
 20
62.443855
 30
0.0
 11
110.504413
 21
63.443855
 31
0.0
  0
LINE
  5
21F
330
1F0
100
AcDbEntity
  8
LC-004-005-----0
 62
     7
370
    25
100
AcDbLine
 10
20.504413
 20
153.443855
 30
0.0
 11
19.504413
 21
154.443855
 31
0.0
  0
LINE
  5
220
330
1F0
100
AcDbEntity
  8
LC-004-005-----0
 62
     7
370
    25
100
AcDbLine
 10
5.705066
 20
168.243202
 30
0.0
 11
4.576118
 21
169.37215
 31
0.0
  0
LINE
  5
221
330
1F0
100
AcDbEntity
  8
LC-004-005-----0
 62
     7
370
    25
100
AcDbLine
 10
124.81541
 20
44.890218
 30
0.0
 11
123.635134
 21
46.070493
 31
0.0
  0
LINE
  5
222
330
1F0
100
AcDbEntity
  8
LC-004-005-----0
 62
     7
370
    25
100
AcDbLine
 10
111.504413
 20
58.201215
 30
0.0
 11
110.504413
 21
59.201215
 31
0.0
  0
LINE
  5
223
330
1F0
100
AcDbEntity
  8
LC-004-005-----0
 62
     7
370
    25
100
AcDbLine
 10
20.504413
 20
149.201215
 30
0.0
 11
19.504413
 21
150.201215
 31
0.0
  0
LINE
  5
224
330
1F0
100
AcDbEntity
  8
LC-004-005-----0
  6
DASHED
 62
     7
370
    25
100
AcDbLine
 10
117.137146
 20
44.0832
 30
0.0
 11
115.149853
 21
46.070493
 31
0.0
  0
LINE
  5
225
330
1F0
100
AcDbEntity
  8
LC-004-005-----0
  6
DASHED
 62
     7
370
    25
100
AcDbLine
 10
111.504413
 20
49.715933
 30
0.0
 11
110.504413
 21
50.715933
 31
0.0
  0
LINE
  5
226
330
1F0
100
AcDbEntity
  8
LC-004-005-----0
  6
DASHED
 62
     7
370
    25
100
AcDbLine
 10
20.504413
 20
140.715933
 30
0.0
 11
16.508528
 21
144.711818
 31
0.0
  0
LINE
  5
227
330
1F0
100
AcDbEntity
  8
LC-004-005-----0
  6
DASHED
 62
     7
370
    25
100
AcDbLine
 10
113.298015
 20
43.679691
 30
0.0
 11
110.504413
 21
46.473292
 31
0.0
  0
LINE
  5
228
330
1F0
100
AcDbEntity
  8
LC-004-005-----0
  6
DASHED
 62
     7
370
    25
100
AcDbLine
 10
20.504413
 20
136.473292
 30
0.0
 11
19.504413
 21
137.473292
 31
0.0
  0
LINE
  5
229
330
1F0
100
AcDbEntity
  8
LC-004-005-----0
  6
DASHED
 62
     7
370
    25
100
AcDbLine
 10
14.297987
 20
142.679718
 30
0.0
 11
12.265887
 21
144.711818
 31
0.0
  0
LINE
  5
22A
330
1F0
100
AcDbEntity
  8
LC-004-005-----0
 62
     7
370
    25
100
AcDbLine
 10
111.504413
 20
36.988011
 30
0.0
 11
110.504413
 21
37.988011
 31
0.0
  0
LINE
  5
22B
330
1F0
100
AcDbEntity
  8
LC-004-005-----0
 62
     7
370
    25
100
AcDbLine
 10
20.504413
 20
127.988011
 30
0.0
 11
19.504413
 21
128.988011
 31
0.0
  0
LINE
  5
22C
330
1F0
100
AcDbEntity
  8
LC-004-005-----0
 62
     7
370
    25
100
AcDbLine
 10
4.816122
 20
143.676302
 30
0.0
 11
4.057133
 21
144.435292
 31
0.0
  0
LINE
  5
22D
330
1F0
100
AcDbEntity
  8
LC-004-005-----0
 62
     7
370
    25
100
AcDbLine
 10
124.095557
 20
20.154227
 30
0.0
 11
122.839621
 21
21.410162
 31
0.0
  0
LINE
  5
22E
330
1F0
100
AcDbEntity
  8
LC-004-005-----0
 62
     7
370
    25
100
AcDbLine
 10
111.504413
 20
32.74537
 30
0.0
 11
110.504413
 21
33.74537
 31
0.0
  0
LINE
  5
22F
330
1F0
100
AcDbEntity
  8
LC-004-005-----0
 62
     7
370
    25
100
AcDbLine
 10
20.504413
 20
123.74537
 30
0.0
 11
19.504413
 21
124.74537
 31
0.0
  0
LINE
  5
230
330
1F0
100
AcDbEntity
  8
LC-004-005-----0
  6
DASHED
 62
     7
370
    25
100
AcDbLine
 10
116.417293
 20
19.347209
 30
0.0
 11
114.35434
 21
21.410162
 31
0.0
  0
LINE
  5
231
330
1F0
100
AcDbEntity
  8
LC-004-005-----0
  6
DASHED
 62
     7
370
    25
100
AcDbLine
 10
111.504413
 20
24.260089
 30
0.0
 11
110.504413
 21
25.260089
 31
0.0
  0
LINE
  5
232
330
1F0
100
AcDbEntity
  8
LC-004-005-----0
  6
DASHED
 62
     7
370
    25
100
AcDbLine
 10
20.504413
 20
115.260089
 30
0.0
 11
19.504413
 21
116.260089
 31
0.0
  0
LINE
  5
233
330
1F0
100
AcDbEntity
  8
LC-004-005-----0
  6
DASHED
 62
     7
370
    25
100
AcDbLine
 10
18.149975
 20
117.614527
 30
0.0
 11
15.713015
 21
120.051487
 31
0.0
  0
LINE
  5
234
330
1F0
100
AcDbEntity
  8
LC-004-005-----0
  6
DASHED
 62
     7
370
    25
100
AcDbLine
 10
112.578162
 20
18.9437
 30
0.0
 11
110.504413
 21
21.017448
 31
0.0
  0
LINE
  5
235
330
1F0
100
AcDbEntity
  8
LC-004-005-----0
  6
DASHED
 62
     7
370
    25
100
AcDbLine
 10
20.504413
 20
111.017448
 30
0.0
 11
19.504413
 21
112.017448
 31
0.0
  0
LINE
  5
236
330
1F0
100
AcDbEntity
  8
LC-004-005-----0
  6
DASHED
 62
     7
370
    25
100
AcDbLine
 10
13.409043
 20
118.112819
 30
0.0
 11
11.470374
 21
120.051487
 31
0.0
  0
LINE
  5
237
330
1F0
100
AcDbEntity
  8
LC-004-005-----0
 62
     7
370
    25
100
AcDbLine
 10
126.969729
 20
-3.933149
 30
0.0
 11
126.286749
 21
-3.250169
 31
0.0
  0
LINE
  5
238
330
1F0
100
AcDbEntity
  8
LC-004-005-----0
 62
     7
370
    25
100
AcDbLine
 10
111.504413
 20
11.532167
 30
0.0
 11
110.504413
 21
12.532167
 31
0.0
  0
LINE
  5
239
330
1F0
100
AcDbEntity
  8
LC-004-005-----0
 62
     7
370
    25
100
AcDbLine
 10
20.504413
 20
102.532167
 30
0.0
 11
19.504413
 21
103.532167
 31
0.0
  0
LINE
  5
23A
330
1F0
100
AcDbEntity
  8
LC-004-005-----0
 62
     7
370
    25
100
AcDbLine
 10
123.375703
 20
-4.581764
 30
0.0
 11
122.044109
 21
-3.250169
 31
0.0
  0
LINE
  5
23B
330
1F0
100
AcDbEntity
  8
LC-004-005-----0
 62
     7
370
    25
100
AcDbLine
 10
111.504413
 20
7.289526
 30
0.0
 11
110.504413
 21
8.289526
 31
0.0
  0
LINE
  5
23C
330
1F0
100
AcDbEntity
  8
LC-004-005-----0
 62
     7
370
    25
100
AcDbLine
 10
20.504413
 20
98.289526
 30
0.0
 11
19.504413
 21
99.289526
 31
0.0
  0
LINE
  5
23D
330
1F0
100
AcDbEntity
  8
LC-004-005-----0
  6
DASHED
 62
     7
370
    25
100
AcDbLine
 10
115.69744
 20
-5.388782
 30
0.0
 11
113.558827
 21
-3.250169
 31
0.0
  0
LINE
  5
23E
330
1F0
100
AcDbEntity
  8
LC-004-005-----0
  6
DASHED
 62
     7
370
    25
100
AcDbLine
 10
111.504413
 20
-1.195755
 30
0.0
 11
110.504413
 21
-0.195755
 31
0.0
  0
LINE
  5
23F
330
1F0
100
AcDbEntity
  8
LC-004-005-----0
  6
DASHED
 62
     7
370
    25
100
AcDbLine
 10
20.504413
 20
89.804245
 30
0.0
 11
19.504413
 21
90.804245
 31
0.0
  0
LINE
  5
240
330
1F0
100
AcDbEntity
  8
LC-004-005-----0
  6
DASHED
 62
     7
370
    25
100
AcDbLine
 10
17.261031
 20
93.047627
 30
0.0
 11
14.917502
 21
95.391156
 31
0.0
  0
LINE
  5
241
330
1F0
100
AcDbEntity
  8
LC-004-005-----0
  6
DASHED
 62
     7
370
    25
100
AcDbLine
 10
111.958238
 20
-5.89222
 30
0.0
 11
110.504413
 21
-4.438396
 31
0.0
  0
LINE
  5
242
330
1F0
100
AcDbEntity
  8
LC-004-005-----0
  6
DASHED
 62
     7
370
    25
100
AcDbLine
 10
20.504413
 20
85.561604
 30
0.0
 11
19.504413
 21
86.561604
 31
0.0
  0
LINE
  5
243
330
1F0
100
AcDbEntity
  8
LC-004-005-----0
  6
DASHED
 62
     7
370
    25
100
AcDbLine
 10
12.520098
 20
93.545919
 30
0.0
 11
10.674861
 21
95.391156
 31
0.0
  0
LINE
  5
244
330
1F0
100
AcDbEntity
  8
LC-004-005-----0
 62
     7
370
    25
100
AcDbLine
 10
126.494982
 20
-28.914246
 30
0.0
 11
125.491237
 21
-27.910501
 31
0.0
  0
LINE
  5
245
330
1F0
100
AcDbEntity
  8
LC-004-005-----0
 62
     7
370
    25
100
AcDbLine
 10
111.504413
 20
-13.923677
 30
0.0
 11
110.504413
 21
-12.923677
 31
0.0
  0
LINE
  5
246
330
1F0
100
AcDbEntity
  8
LC-004-005-----0
 62
     7
370
    25
100
AcDbLine
 10
20.504413
 20
77.076323
 30
0.0
 11
19.504413
 21
78.076323
 31
0.0
  0
LINE
  5
247
330
1F0
100
AcDbEntity
  8
LC-004-005-----0
 62
     7
370
    25
100
AcDbLine
 10
122.65585
 20
-29.317755
 30
0.0
 11
121.248596
 21
-27.910501
 31
0.0
  0
LINE
  5
248
330
1F0
100
AcDbEntity
  8
LC-004-005-----0
 62
     7
370
    25
100
AcDbLine
 10
111.504413
 20
-18.166318
 30
0.0
 11
110.504413
 21
-17.166318
 31
0.0
  0
LINE
  5
249
330
1F0
100
AcDbEntity
  8
LC-004-005-----0
 62
     7
370
    25
100
AcDbLine
 10
20.504413
 20
72.833682
 30
0.0
 11
19.504413
 21
73.833682
 31
0.0
  0
LINE
  5
24A
330
1F0
100
AcDbEntity
  8
LC-004-005-----0
  6
DASHED
 62
     7
370
    25
100
AcDbLine
 10
114.977587
 20
-30.124773
 30
0.0
 11
112.763315
 21
-27.910501
 31
0.0
  0
LINE
  5
24B
330
1F0
100
AcDbEntity
  8
LC-004-005-----0
  6
DASHED
 62
     7
370
    25
100
AcDbLine
 10
111.504413
 20
-26.651599
 30
0.0
 11
110.504413
 21
-25.651599
 31
0.0
  0
LINE
  5
24C
330
1F0
100
AcDbEntity
  8
LC-004-005-----0
  6
DASHED
 62
     7
370
    25
100
AcDbLine
 10
20.504413
 20
64.348401
 30
0.0
 11
19.504413
 21
65.348401
 31
0.0
  0
LINE
  5
24D
330
1F0
100
AcDbEntity
  8
LC-004-005-----0
  6
DASHED
 62
     7
370
    25
100
AcDbLine
 10
16.372086
 20
68.480728
 30
0.0
 11
14.121989
 21
70.730825
 31
0.0
  0
LINE
  5
24E
330
1F0
100
AcDbEntity
  8
LC-004-005-----0
  6
DASHED
 62
     7
370
    25
100
AcDbLine
 10
111.591729
 20
-30.981556
 30
0.0
 11
110.504413
 21
-29.89424
 31
0.0
  0
LINE
  5
24F
330
1F0
100
AcDbEntity
  8
LC-004-005-----0
  6
DASHED
 62
     7
370
    25
100
AcDbLine
 10
20.504413
 20
60.10576
 30
0.0
 11
19.504413
 21
61.10576
 31
0.0
  0
LINE
  5
250
330
1F0
100
AcDbEntity
  8
LC-004-005-----0
  6
DASHED
 62
     7
370
    25
100
AcDbLine
 10
11.631153
 20
68.97902
 30
0.0
 11
9.879349
 21
70.730825
 31
0.0
  0
LINE
  5
251
330
1F0
100
AcDbEntity
  8
LC-004-005-----0
 62
     7
370
    25
100
AcDbLine
 10
125.775129
 20
-53.650237
 30
0.0
 11
124.695724
 21
-52.570832
 31
0.0
  0
LINE
  5
252
330
1F0
100
AcDbEntity
  8
LC-004-005-----0
 62
     7
370
    25
100
AcDbLine
 10
111.504413
 20
-39.379521
 30
0.0
 11
110.504413
 21
-38.379521
 31
0.0
  0
LINE
  5
253
330
1F0
100
AcDbEntity
  8
LC-004-005-----0
 62
     7
370
    25
100
AcDbLine
 10
20.504413
 20
51.620479
 30
0.0
 11
19.504413
 21
52.620479
 31
0.0
  0
LINE
  5
254
330
1F0
100
AcDbEntity
  8
LC-004-005-----0
 62
     7
370
    25
100
AcDbLine
 10
121.935997
 20
-54.053746
 30
0.0
 11
120.453083
 21
-52.570832
 31
0.0
  0
LINE
  5
255
330
1F0
100
AcDbEntity
  8
LC-004-005-----0
 62
     7
370
    25
100
AcDbLine
 10
111.504413
 20
-43.622162
 30
0.0
 11
110.504413
 21
-42.622162
 31
0.0
  0
LINE
  5
256
330
1F0
100
AcDbEntity
  8
LC-004-005-----0
 62
     7
370
    25
100
AcDbLine
 10
20.504413
 20
47.377838
 30
0.0
 11
19.504413
 21
48.377838
 31
0.0
  0
LINE
  5
257
330
1F0
100
AcDbEntity
  8
LC-004-005-----0
  6
DASHED
 62
     7
370
    25
100
AcDbLine
 10
114.257734
 20
-54.860764
 30
0.0
 11
111.966351
 21
-52.569381
 31
0.0
  0
LINE
  5
258
330
1F0
100
AcDbEntity
  8
LC-004-005-----0
  6
DASHED
 62
     7
370
    25
100
AcDbLine
 10
111.505864
 20
-52.108894
 30
0.0
 11
110.504413
 21
-51.107443
 31
0.0
  0
LINE
  5
259
330
1F0
100
AcDbEntity
  8
LC-004-005-----0
  6
DASHED
 62
     7
370
    25
100
AcDbLine
 10
20.504413
 20
38.892557
 30
0.0
 11
19.504413
 21
39.892557
 31
0.0
  0
LINE
  5
25A
330
1F0
100
AcDbEntity
  8
LC-004-005-----0
  6
DASHED
 62
     7
370
    25
100
AcDbLine
 10
15.483141
 20
43.913828
 30
0.0
 11
13.326476
 21
46.070493
 31
0.0
  0
LINE
  5
25B
330
1F0
100
AcDbEntity
  8
LC-004-005-----0
  6
DASHED
 62
     7
370
    25
100
AcDbLine
 10
111.504413
 20
-56.350084
 30
0.0
 11
110.504413
 21
-55.350084
 31
0.0
  0
LINE
  5
25C
330
1F0
100
AcDbEntity
  8
LC-004-005-----0
  6
DASHED
 62
     7
370
    25
100
AcDbLine
 10
20.504413
 20
34.649916
 30
0.0
 11
19.504413
 21
35.649916
 31
0.0
  0
LINE
  5
25D
330
1F0
100
AcDbEntity
  8
LC-004-005-----0
  6
DASHED
 62
     7
370
    25
100
AcDbLine
 10
10.742209
 20
44.41212
 30
0.0
 11
9.083836
 21
46.070493
 31
0.0
  0
LINE
  5
25E
330
1F0
100
AcDbEntity
  8
LC-004-005-----0
 62
     7
370
    25
100
AcDbLine
 10
125.055276
 20
-78.386228
 30
0.0
 11
123.900211
 21
-77.231163
 31
0.0
  0
LINE
  5
25F
330
1F0
100
AcDbEntity
  8
LC-004-005-----0
 62
     7
370
    25
100
AcDbLine
 10
111.504413
 20
-64.835365
 30
0.0
 11
110.504413
 21
-63.835365
 31
0.0
  0
LINE
  5
260
330
1F0
100
AcDbEntity
  8
LC-004-005-----0
 62
     7
370
    25
100
AcDbLine
 10
20.504413
 20
26.164635
 30
0.0
 11
19.504413
 21
27.164635
 31
0.0
  0
LINE
  5
261
330
1F0
100
AcDbEntity
  8
LC-004-005-----0
 62
     7
370
    25
100
AcDbLine
 10
121.216144
 20
-78.789737
 30
0.0
 11
119.65757
 21
-77.231163
 31
0.0
  0
LINE
  5
262
330
1F0
100
AcDbEntity
  8
LC-004-005-----0
 62
     7
370
    25
100
AcDbLine
 10
111.504413
 20
-69.078006
 30
0.0
 11
110.504413
 21
-68.078006
 31
0.0
  0
LINE
  5
263
330
1F0
100
AcDbEntity
  8
LC-004-005-----0
 62
     7
370
    25
100
AcDbLine
 10
20.504413
 20
21.921994
 30
0.0
 11
19.504413
 21
22.921994
 31
0.0
  0
LINE
  5
264
330
1F0
100
AcDbEntity
  8
LC-004-005-----0
  6
DASHED
 62
     7
370
    25
100
AcDbLine
 10
113.537881
 20
-79.596755
 30
0.0
 11
110.504413
 21
-76.563287
 31
0.0
  0
LINE
  5
265
330
1F0
100
AcDbEntity
  8
LC-004-005-----0
  6
DASHED
 62
     7
370
    25
100
AcDbLine
 10
20.504413
 20
13.436713
 30
0.0
 11
19.504413
 21
14.436713
 31
0.0
  0
LINE
  5
266
330
1F0
100
AcDbEntity
  8
LC-004-005-----0
  6
DASHED
 62
     7
370
    25
100
AcDbLine
 10
14.594197
 20
19.346929
 30
0.0
 11
12.530964
 21
21.410162
 31
0.0
  0
LINE
  5
267
330
1F0
100
AcDbEntity
  8
LC-004-005-----0
  6
DASHED
 62
     7
370
    25
100
AcDbLine
 10
111.504413
 20
-81.805928
 30
0.0
 11
110.504413
 21
-80.805928
 31
0.0
  0
LINE
  5
268
330
1F0
100
AcDbEntity
  8
LC-004-005-----0
  6
DASHED
 62
     7
370
    25
100
AcDbLine
 10
20.504413
 20
9.194072
 30
0.0
 11
19.504413
 21
10.194072
 31
0.0
  0
LINE
  5
269
330
1F0
100
AcDbEntity
  8
LC-004-005-----0
  6
DASHED
 62
     7
370
    25
100
AcDbLine
 10
9.853264
 20
19.845221
 30
0.0
 11
8.288323
 21
21.410162
 31
0.0
  0
LINE
  5
26A
330
1F0
100
AcDbEntity
  8
LC-004-005-----0
 62
     7
370
    25
100
AcDbLine
 10
124.335422
 20
-103.122219
 30
0.0
 11
123.104698
 21
-101.891495
 31
0.0
  0
LINE
  5
26B
330
1F0
100
AcDbEntity
  8
LC-004-005-----0
 62
     7
370
    25
100
AcDbLine
 10
111.504413
 20
-90.291209
 30
0.0
 11
110.504413
 21
-89.291209
 31
0.0
  0
LINE
  5
26C
330
1F0
100
AcDbEntity
  8
LC-004-005-----0
 62
     7
370
    25
100
AcDbLine
 10
20.504413
 20
0.708791
 30
0.0
 11
19.504413
 21
1.708791
 31
0.0
  0
LINE
  5
26D
330
1F0
100
AcDbEntity
  8
LC-004-005-----0
 62
     7
370
    25
100
AcDbLine
 10
120.496291
 20
-103.525728
 30
0.0
 11
118.862057
 21
-101.891495
 31
0.0
  0
LINE
  5
26E
330
1F0
100
AcDbEntity
  8
LC-004-005-----0
 62
     7
370
    25
100
AcDbLine
 10
111.504413
 20
-94.53385
 30
0.0
 11
110.504413
 21
-93.53385
 31
0.0
  0
LINE
  5
26F
330
1F0
100
AcDbEntity
  8
LC-004-005-----0
 62
     7
370
    25
100
AcDbLine
 10
20.504413
 20
-3.53385
 30
0.0
 11
19.504413
 21
-2.53385
 31
0.0
  0
LINE
  5
270
330
1F0
100
AcDbEntity
  8
LC-004-005-----0
  6
DASHED
 62
     7
370
    25
100
AcDbLine
 10
112.818027
 20
-104.332746
 30
0.0
 11
110.504413
 21
-102.019132
 31
0.0
  0
LINE
  5
271
330
1F0
100
AcDbEntity
  8
LC-004-005-----0
  6
DASHED
 62
     7
370
    25
100
AcDbLine
 10
20.504413
 20
-12.019132
 30
0.0
 11
19.504413
 21
-11.019132
 31
0.0
  0
LINE
  5
272
330
1F0
100
AcDbEntity
  8
LC-004-005-----0
  6
DASHED
 62
     7
370
    25
100
AcDbLine
 10
13.705252
 20
-5.219971
 30
0.0
 11
11.735451
 21
-3.250169
 31
0.0
  0
LINE
  5
273
330
1F0
100
AcDbEntity
  8
LC-004-005-----0
  6
DASHED
 62
     7
370
    25
100
AcDbLine
 10
20.504413
 20
-16.261772
 30
0.0
 11
19.504413
 21
-15.261772
 31
0.0
  0
LINE
  5
274
330
1F0
100
AcDbEntity
  8
LC-004-005-----0
  6
DASHED
 62
     7
370
    25
100
AcDbLine
 10
8.964319
 20
-4.721679
 30
0.0
 11
7.49281
 21
-3.250169
 31
0.0
  0
LINE
  5
275
330
1F0
100
AcDbEntity
  8
LC-004-005-----0
 62
     7
370
    25
100
AcDbLine
 10
20.504413
 20
-24.747054
 30
0.0
 11
19.504413
 21
-23.747054
 31
0.0
  0
LINE
  5
276
330
1F0
100
AcDbEntity
  8
LC-004-005-----0
 62
     7
370
    25
100
AcDbLine
 10
20.504413
 20
-28.989694
 30
0.0
 11
19.316145
 21
-27.801427
 31
0.0
  0
LINE
  5
277
330
1F0
100
AcDbEntity
  8
LC-004-005-----0
  6
DASHED
 62
     7
370
    25
100
AcDbLine
 10
20.504413
 20
-37.474976
 30
0.0
 11
19.504413
 21
-36.474976
 31
0.0
  0
LINE
  5
278
330
1F0
100
AcDbEntity
  8
LC-004-005-----0
  6
DASHED
 62
     7
370
    25
100
AcDbLine
 10
12.816307
 20
-29.78687
 30
0.0
 11
10.939938
 21
-27.910501
 31
0.0
  0
LINE
  5
279
330
1F0
100
AcDbEntity
  8
LC-004-005-----0
  6
DASHED
 62
     7
370
    25
100
AcDbLine
 10
20.504413
 20
-41.717616
 30
0.0
 11
19.504413
 21
-40.717616
 31
0.0
  0
LINE
  5
27A
330
1F0
100
AcDbEntity
  8
LC-004-005-----0
  6
DASHED
 62
     7
370
    25
100
AcDbLine
 10
8.075375
 20
-29.288578
 30
0.0
 11
6.697297
 21
-27.910501
 31
0.0
  0
LINE
  5
27B
330
1F0
100
AcDbEntity
  8
LC-004-005-----0
 62
     7
370
    25
100
AcDbLine
 10
20.504413
 20
-50.202898
 30
0.0
 11
19.504413
 21
-49.202898
 31
0.0
  0
LINE
  5
27C
330
1F0
100
AcDbEntity
  8
LC-004-005-----0
 62
     7
370
    25
100
AcDbLine
 10
20.504413
 20
-54.445538
 30
0.0
 11
18.629707
 21
-52.570832
 31
0.0
  0
LINE
  5
27D
330
1F0
100
AcDbEntity
  8
LC-004-005-----0
  6
DASHED
 62
     7
370
    25
100
AcDbLine
 10
20.504413
 20
-62.93082
 30
0.0
 11
19.504413
 21
-61.93082
 31
0.0
  0
LINE
  5
27E
330
1F0
100
AcDbEntity
  8
LC-004-005-----0
  6
DASHED
 62
     7
370
    25
100
AcDbLine
 10
11.927363
 20
-54.35377
 30
0.0
 11
10.144425
 21
-52.570832
 31
0.0
  0
LINE
  5
27F
330
1F0
100
AcDbEntity
  8
LC-004-005-----0
  6
DASHED
 62
     7
370
    25
100
AcDbLine
 10
20.504413
 20
-67.17346
 30
0.0
 11
19.504413
 21
-66.17346
 31
0.0
  0
LINE
  5
280
330
1F0
100
AcDbEntity
  8
LC-004-005-----0
  6
DASHED
 62
     7
370
    25
100
AcDbLine
 10
7.18643
 20
-53.855478
 30
0.0
 11
5.901785
 21
-52.570832
 31
0.0
  0
LINE
  5
281
330
1F0
100
AcDbEntity
  8
LC-004-005-----0
 62
     7
370
    25
100
AcDbLine
 10
20.504413
 20
-75.658742
 30
0.0
 11
19.504413
 21
-74.658742
 31
0.0
  0
LINE
  5
282
330
1F0
100
AcDbEntity
  8
LC-004-005-----0
 62
     7
370
    25
100
AcDbLine
 10
20.504413
 20
-79.901383
 30
0.0
 11
17.834194
 21
-77.231163
 31
0.0
  0
LINE
  5
283
330
1F0
100
AcDbEntity
  8
LC-004-005-----0
  6
DASHED
 62
     7
370
    25
100
AcDbLine
 10
20.504413
 20
-88.386664
 30
0.0
 11
19.504413
 21
-87.386664
 31
0.0
  0
LINE
  5
284
330
1F0
100
AcDbEntity
  8
LC-004-005-----0
  6
DASHED
 62
     7
370
    25
100
AcDbLine
 10
11.038418
 20
-78.920669
 30
0.0
 11
9.348912
 21
-77.231163
 31
0.0
  0
LINE
  5
285
330
1F0
100
AcDbEntity
  8
LC-004-005-----0
  6
DASHED
 62
     7
370
    25
100
AcDbLine
 10
20.504413
 20
-92.629305
 30
0.0
 11
19.504413
 21
-91.629305
 31
0.0
  0
LINE
  5
286
330
1F0
100
AcDbEntity
  8
LC-004-005-----0
  6
DASHED
 62
     7
370
    25
100
AcDbLine
 10
6.297485
 20
-78.422377
 30
0.0
 11
5.106272
 21
-77.231163
 31
0.0
  0
LINE
  5
287
330
1F0
100
AcDbEntity
  8
LC-004-005-----0
 62
     7
370
    25
100
AcDbLine
 10
20.504413
 20
-101.114586
 30
0.0
 11
19.504413
 21
-100.114586
 31
0.0
  0
LINE
  5
288
330
1F0
100
AcDbEntity
  8
LC-004-005-----0
 62
     7
370
    25
100
AcDbLine
 10
20.504413
 20
-105.357227
 30
0.0
 11
17.038681
 21
-101.891495
 31
0.0
  0
LINE
  5
289
330
1F0
100
AcDbEntity
  8
LC-004-005-----0
  6
DASHED
 62
     7
370
    25
100
AcDbLine
 10
10.149474
 20
-103.487569
 30
0.0
 11
8.5534
 21
-101.891495
 31
0.0
  0
LINE
  5
28A
330
1F0
100
AcDbEntity
  8
LC-004-005-----0
  6
DASHED
 62
     7
370
    25
100
AcDbLine
 10
5.408541
 20
-102.989277
 30
0.0
 11
4.338936
 21
-101.919671
 31
0.0
  0
ENDBLK
  5
1F2
330
1F0
100
AcDbEntity
  8
0
100
AcDbBlockEnd
  0
BLOCK
  5
297
330
28D
100
AcDbEntity
  8
0
100
AcDbBlockBegin
  2
*D5
 70
     1
 71
     0
 10
0.0
 20
0.0
 30
0.0
  3
*D5
  1

  0
LINE
  5
28E
330
28D
100
AcDbEntity
  8
LC-005-003-----0
 62
     2
370
    -2
100
AcDbLine
 10
127.004413
 20
-102.391495
 30
0.0
 11
127.004413
 21
-223.2
 31
0.0
  0
LINE
  5
28F
330
28D
100
AcDbEntity
  8
LC-005-003-----0
 62
     2
370
    -2
100
AcDbLine
 10
4.004413
 20
-102.391495
 30
0.0
 11
4.004413
 21
-223.2
 31
0.0
  0
LINE
  5
290
330
28D
100
AcDbEntity
  8
LC-005-003-----0
 62
     2
370
    -2
100
AcDbLine
 10
99.004413
 20
-219.6
 30
0.0
 11
32.004413
 21
-219.6
 31
0.0
  0
SOLID
  5
291
330
28D
100
AcDbEntity
  8
LC-005-003-----0
 62
     2
100
AcDbTrace
 10
99.004413
 20
-224.266667
 30
0.0
 11
99.004413
 21
-214.933333
 31
0.0
 12
127.004413
 22
-219.6
 32
0.0
 13
127.004413
 23
-219.6
 33
0.0
  0
SOLID
  5
292
330
28D
100
AcDbEntity
  8
LC-005-003-----0
 62
     2
100
AcDbTrace
 10
32.004413
 20
-214.933333
 30
0.0
 11
32.004413
 21
-224.266667
 31
0.0
 12
4.004413
 22
-219.6
 32
0.0
 13
4.004413
 23
-219.6
 33
0.0
  0
MTEXT
  5
293
330
28D
100
AcDbEntity
  8
LC-005-003-----0
 62
     2
100
AcDbMText
 10
60.113578
 20
-188.8
 30
0.0
 40
28.0
 41
0.0
 71
     5
 72
     1
  1
%%c\A1;123
  7
LCTX15-400-0-0pDIN-Schrift
 73
     1
 44
1.0
  0
POINT
  5
294
330
28D
100
AcDbEntity
  8
Defpoints
 62
     0
100
AcDbPoint
 10
127.004413
 20
-102.391495
 30
0.0
  0
POINT
  5
295
330
28D
100
AcDbEntity
  8
Defpoints
 62
     0
100
AcDbPoint
 10
4.004413
 20
-102.391495
 30
0.0
  0
POINT
  5
296
330
28D
100
AcDbEntity
  8
Defpoints
 62
     0
100
AcDbPoint
 10
4.004413
 20
-219.6
 30
0.0
  0
ENDBLK
  5
298
330
28D
100
AcDbEntity
  8
0
100
AcDbBlockEnd
  0
BLOCK
  5
2A4
330
2A3
100
AcDbEntity
  8
0
100
AcDbBlockBegin
  2
*X36
 70
     1
 71
     0
 10
0.0
 20
0.0
 30
0.0
  3
*X36
  1

  4
*X3
  0
LINE
  5
2A6
330
2A3
100
AcDbEntity
  8
LC-004-005-----0
 62
     7
370
    25
100
AcDbLine
 10
-2.808723
 20
342.219978
 30
0.0
 11
-3.640085
 21
343.05134
 31
0.0
  0
LINE
  5
2A7
330
2A3
100
AcDbEntity
  8
LC-004-005-----0
 62
     7
370
    25
100
AcDbLine
 10
-2.495587
 20
339.078415
 30
0.0
 11
-6.468512
 21
343.05134
 31
0.0
  0
LINE
  5
2A8
330
2A3
100
AcDbEntity
  8
LC-004-005-----0
 62
     7
370
    25
100
AcDbLine
 10
-2.495587
 20
336.249988
 30
0.0
 11
-5.495587
 21
339.249988
 31
0.0
  0
LINE
  5
2A9
330
2A3
100
AcDbEntity
  8
LC-004-005-----0
 62
     7
370
    25
100
AcDbLine
 10
-6.296939
 20
340.05134
 30
0.0
 11
-9.296939
 21
343.05134
 31
0.0
  0
LINE
  5
2AA
330
2A3
100
AcDbEntity
  8
LC-004-005-----0
 62
     7
370
    25
100
AcDbLine
 10
-2.495587
 20
333.421561
 30
0.0
 11
-5.495587
 21
336.421561
 31
0.0
  0
LINE
  5
2AB
330
2A3
100
AcDbEntity
  8
LC-004-005-----0
 62
     7
370
    25
100
AcDbLine
 10
-9.125366
 20
340.05134
 30
0.0
 11
-12.125366
 21
343.05134
 31
0.0
  0
LINE
  5
2AC
330
2A3
100
AcDbEntity
  8
LC-004-005-----0
 62
     7
370
    25
100
AcDbLine
 10
-2.495587
 20
330.593134
 30
0.0
 11
-5.495587
 21
333.593134
 31
0.0
  0
LINE
  5
2AD
330
2A3
100
AcDbEntity
  8
LC-004-005-----0
 62
     7
370
    25
100
AcDbLine
 10
-11.953793
 20
340.05134
 30
0.0
 11
-14.953793
 21
343.05134
 31
0.0
  0
LINE
  5
2AE
330
2A3
100
AcDbEntity
  8
LC-004-005-----0
 62
     7
370
    25
100
AcDbLine
 10
-2.495587
 20
327.764706
 30
0.0
 11
-5.495587
 21
330.764706
 31
0.0
  0
LINE
  5
2AF
330
2A3
100
AcDbEntity
  8
LC-004-005-----0
 62
     7
370
    25
100
AcDbLine
 10
-14.78222
 20
340.05134
 30
0.0
 11
-17.78222
 21
343.05134
 31
0.0
  0
LINE
  5
2B0
330
2A3
100
AcDbEntity
  8
LC-004-005-----0
 62
     7
370
    25
100
AcDbLine
 10
-2.495587
 20
324.936279
 30
0.0
 11
-5.495587
 21
327.936279
 31
0.0
  0
LINE
  5
2B1
330
2A3
100
AcDbEntity
  8
LC-004-005-----0
 62
     7
370
    25
100
AcDbLine
 10
-17.610647
 20
340.05134
 30
0.0
 11
-20.610647
 21
343.05134
 31
0.0
  0
LINE
  5
2B2
330
2A3
100
AcDbEntity
  8
LC-004-005-----0
 62
     7
370
    25
100
AcDbLine
 10
-2.495587
 20
322.107852
 30
0.0
 11
-5.495587
 21
325.107852
 31
0.0
  0
LINE
  5
2B3
330
2A3
100
AcDbEntity
  8
LC-004-005-----0
 62
     7
370
    25
100
AcDbLine
 10
-20.439074
 20
340.05134
 30
0.0
 11
-23.439074
 21
343.05134
 31
0.0
  0
LINE
  5
2B4
330
2A3
100
AcDbEntity
  8
LC-004-005-----0
 62
     7
370
    25
100
AcDbLine
 10
-2.495587
 20
319.279425
 30
0.0
 11
-5.495587
 21
322.279425
 31
0.0
  0
LINE
  5
2B5
330
2A3
100
AcDbEntity
  8
LC-004-005-----0
 62
     7
370
    25
100
AcDbLine
 10
-23.267502
 20
340.05134
 30
0.0
 11
-26.267502
 21
343.05134
 31
0.0
  0
LINE
  5
2B6
330
2A3
100
AcDbEntity
  8
LC-004-005-----0
 62
     7
370
    25
100
AcDbLine
 10
-2.495587
 20
316.450998
 30
0.0
 11
-5.495587
 21
319.450998
 31
0.0
  0
LINE
  5
2B7
330
2A3
100
AcDbEntity
  8
LC-004-005-----0
 62
     7
370
    25
100
AcDbLine
 10
-26.095929
 20
340.05134
 30
0.0
 11
-29.095929
 21
343.05134
 31
0.0
  0
LINE
  5
2B8
330
2A3
100
AcDbEntity
  8
LC-004-005-----0
 62
     7
370
    25
100
AcDbLine
 10
-2.495587
 20
313.622571
 30
0.0
 11
-5.495587
 21
316.622571
 31
0.0
  0
LINE
  5
2B9
330
2A3
100
AcDbEntity
  8
LC-004-005-----0
 62
     7
370
    25
100
AcDbLine
 10
-28.924356
 20
340.05134
 30
0.0
 11
-31.924356
 21
343.05134
 31
0.0
  0
LINE
  5
2BA
330
2A3
100
AcDbEntity
  8
LC-004-005-----0
 62
     7
370
    25
100
AcDbLine
 10
2.504413
 20
305.794144
 30
0.0
 11
0.248436
 21
308.050121
 31
0.0
  0
LINE
  5
2BB
330
2A3
100
AcDbEntity
  8
LC-004-005-----0
 62
     7
370
    25
100
AcDbLine
 10
-2.495587
 20
310.794144
 30
0.0
 11
-5.495587
 21
313.794144
 31
0.0
  0
LINE
  5
2BC
330
2A3
100
AcDbEntity
  8
LC-004-005-----0
 62
     7
370
    25
100
AcDbLine
 10
-31.752783
 20
340.05134
 30
0.0
 11
-34.752783
 21
343.05134
 31
0.0
  0
LINE
  5
2BD
330
2A3
100
AcDbEntity
  8
LC-004-005-----0
 62
     7
370
    25
100
AcDbLine
 10
2.504413
 20
302.965717
 30
0.0
 11
-5.495587
 21
310.965717
 31
0.0
  0
LINE
  5
2BE
330
2A3
100
AcDbEntity
  8
LC-004-005-----0
 62
     7
370
    25
100
AcDbLine
 10
-34.58121
 20
340.05134
 30
0.0
 11
-37.58121
 21
343.05134
 31
0.0
  0
LINE
  5
2BF
330
2A3
100
AcDbEntity
  8
LC-004-005-----0
 62
     7
370
    25
100
AcDbLine
 10
2.504413
 20
300.137289
 30
0.0
 11
-0.495587
 21
303.137289
 31
0.0
  0
LINE
  5
2C0
330
2A3
100
AcDbEntity
  8
LC-004-005-----0
 62
     7
370
    25
100
AcDbLine
 10
-2.408419
 20
305.050121
 30
0.0
 11
-5.495587
 21
308.137289
 31
0.0
  0
LINE
  5
2C1
330
2A3
100
AcDbEntity
  8
LC-004-005-----0
 62
     7
370
    25
100
AcDbLine
 10
-37.409637
 20
340.05134
 30
0.0
 11
-40.409637
 21
343.05134
 31
0.0
  0
LINE
  5
2C2
330
2A3
100
AcDbEntity
  8
LC-004-005-----0
 62
     7
370
    25
100
AcDbLine
 10
2.504413
 20
297.308862
 30
0.0
 11
-0.495587
 21
300.308862
 31
0.0
  0
LINE
  5
2C3
330
2A3
100
AcDbEntity
  8
LC-004-005-----0
 62
     7
370
    25
100
AcDbLine
 10
-40.238064
 20
340.05134
 30
0.0
 11
-43.238064
 21
343.05134
 31
0.0
  0
LINE
  5
2C4
330
2A3
100
AcDbEntity
  8
LC-004-005-----0
 62
     7
370
    25
100
AcDbLine
 10
2.504413
 20
294.480435
 30
0.0
 11
-0.495587
 21
297.480435
 31
0.0
  0
LINE
  5
2C5
330
2A3
100
AcDbEntity
  8
LC-004-005-----0
 62
     7
370
    25
100
AcDbLine
 10
-43.066491
 20
340.05134
 30
0.0
 11
-46.066491
 21
343.05134
 31
0.0
  0
LINE
  5
2C6
330
2A3
100
AcDbEntity
  8
LC-004-005-----0
 62
     7
370
    25
100
AcDbLine
 10
2.504413
 20
291.652008
 30
0.0
 11
-0.495587
 21
294.652008
 31
0.0
  0
LINE
  5
2C7
330
2A3
100
AcDbEntity
  8
LC-004-005-----0
 62
     7
370
    25
100
AcDbLine
 10
-45.894919
 20
340.05134
 30
0.0
 11
-48.894919
 21
343.05134
 31
0.0
  0
LINE
  5
2C8
330
2A3
100
AcDbEntity
  8
LC-004-005-----0
 62
     7
370
    25
100
AcDbLine
 10
2.504413
 20
288.823581
 30
0.0
 11
-0.495587
 21
291.823581
 31
0.0
  0
LINE
  5
2C9
330
2A3
100
AcDbEntity
  8
LC-004-005-----0
 62
     7
370
    25
100
AcDbLine
 10
-48.723346
 20
340.05134
 30
0.0
 11
-51.723346
 21
343.05134
 31
0.0
  0
LINE
  5
2CA
330
2A3
100
AcDbEntity
  8
LC-004-005-----0
 62
     7
370
    25
100
AcDbLine
 10
2.504413
 20
285.995154
 30
0.0
 11
-0.495587
 21
288.995154
 31
0.0
  0
LINE
  5
2CB
330
2A3
100
AcDbEntity
  8
LC-004-005-----0
 62
     7
370
    25
100
AcDbLine
 10
-51.551773
 20
340.05134
 30
0.0
 11
-54.551773
 21
343.05134
 31
0.0
  0
LINE
  5
2CC
330
2A3
100
AcDbEntity
  8
LC-004-005-----0
 62
     7
370
    25
100
AcDbLine
 10
2.504413
 20
283.166727
 30
0.0
 11
-0.495587
 21
286.166727
 31
0.0
  0
LINE
  5
2CD
330
2A3
100
AcDbEntity
  8
LC-004-005-----0
 62
     7
370
    25
100
AcDbLine
 10
-54.3802
 20
340.05134
 30
0.0
 11
-57.3802
 21
343.05134
 31
0.0
  0
LINE
  5
2CE
330
2A3
100
AcDbEntity
  8
LC-004-005-----0
 62
     7
370
    25
100
AcDbLine
 10
2.504413
 20
280.3383
 30
0.0
 11
-0.495587
 21
283.3383
 31
0.0
  0
LINE
  5
2CF
330
2A3
100
AcDbEntity
  8
LC-004-005-----0
 62
     7
370
    25
100
AcDbLine
 10
-57.208627
 20
340.05134
 30
0.0
 11
-60.208627
 21
343.05134
 31
0.0
  0
LINE
  5
2D0
330
2A3
100
AcDbEntity
  8
LC-004-005-----0
 62
     7
370
    25
100
AcDbLine
 10
5.2428
 20
274.771486
 30
0.0
 11
-0.495587
 21
280.509872
 31
0.0
  0
LINE
  5
2D1
330
2A3
100
AcDbEntity
  8
LC-004-005-----0
 62
     7
370
    25
100
AcDbLine
 10
-60.037054
 20
340.05134
 30
0.0
 11
-63.037054
 21
343.05134
 31
0.0
  0
LINE
  5
2D2
330
2A3
100
AcDbEntity
  8
LC-004-005-----0
 62
     7
370
    25
100
AcDbLine
 10
10.644583
 20
266.541275
 30
0.0
 11
0.202836
 21
276.983023
 31
0.0
  0
LINE
  5
2D3
330
2A3
100
AcDbEntity
  8
LC-004-005-----0
 62
     7
370
    25
100
AcDbLine
 10
-62.865481
 20
340.05134
 30
0.0
 11
-65.865481
 21
343.05134
 31
0.0
  0
LINE
  5
2D4
330
2A3
100
AcDbEntity
  8
LC-004-005-----0
 62
     7
370
    25
100
AcDbLine
 10
16.046367
 20
258.311064
 30
0.0
 11
5.604619
 21
268.752812
 31
0.0
  0
LINE
  5
2D5
330
2A3
100
AcDbEntity
  8
LC-004-005-----0
 62
     7
370
    25
100
AcDbLine
 10
-65.693908
 20
340.05134
 30
0.0
 11
-68.693908
 21
343.05134
 31
0.0
  0
LINE
  5
2D6
330
2A3
100
AcDbEntity
  8
LC-004-005-----0
 62
     7
370
    25
100
AcDbLine
 10
21.448151
 20
250.080853
 30
0.0
 11
11.006403
 21
260.522601
 31
0.0
  0
LINE
  5
2D7
330
2A3
100
AcDbEntity
  8
LC-004-005-----0
 62
     7
370
    25
100
AcDbLine
 10
-68.522336
 20
340.05134
 30
0.0
 11
-71.522336
 21
343.05134
 31
0.0
  0
LINE
  5
2D8
330
2A3
100
AcDbEntity
  8
LC-004-005-----0
 62
     7
370
    25
100
AcDbLine
 10
23.504413
 20
245.196164
 30
0.0
 11
16.408187
 21
252.29239
 31
0.0
  0
LINE
  5
2D9
330
2A3
100
AcDbEntity
  8
LC-004-005-----0
 62
     7
370
    25
100
AcDbLine
 10
-71.350763
 20
340.05134
 30
0.0
 11
-74.350763
 21
343.05134
 31
0.0
  0
LINE
  5
2DA
330
2A3
100
AcDbEntity
  8
LC-004-005-----0
 62
     7
370
    25
100
AcDbLine
 10
23.504413
 20
242.367737
 30
0.0
 11
20.504413
 21
245.367737
 31
0.0
  0
LINE
  5
2DB
330
2A3
100
AcDbEntity
  8
LC-004-005-----0
 62
     7
370
    25
100
AcDbLine
 10
-74.17919
 20
340.05134
 30
0.0
 11
-77.17919
 21
343.05134
 31
0.0
  0
LINE
  5
2DC
330
2A3
100
AcDbEntity
  8
LC-004-005-----0
 62
     7
370
    25
100
AcDbLine
 10
23.504413
 20
239.53931
 30
0.0
 11
20.504413
 21
242.53931
 31
0.0
  0
LINE
  5
2DD
330
2A3
100
AcDbEntity
  8
LC-004-005-----0
 62
     7
370
    25
100
AcDbLine
 10
-77.007617
 20
340.05134
 30
0.0
 11
-80.007617
 21
343.05134
 31
0.0
  0
LINE
  5
2DE
330
2A3
100
AcDbEntity
  8
LC-004-005-----0
 62
     7
370
    25
100
AcDbLine
 10
23.504413
 20
236.710883
 30
0.0
 11
20.504413
 21
239.710883
 31
0.0
  0
LINE
  5
2DF
330
2A3
100
AcDbEntity
  8
LC-004-005-----0
 62
     7
370
    25
100
AcDbLine
 10
-79.836044
 20
340.05134
 30
0.0
 11
-82.836044
 21
343.05134
 31
0.0
  0
LINE
  5
2E0
330
2A3
100
AcDbEntity
  8
LC-004-005-----0
 62
     7
370
    25
100
AcDbLine
 10
23.504413
 20
233.882455
 30
0.0
 11
20.504413
 21
236.882455
 31
0.0
  0
LINE
  5
2E1
330
2A3
100
AcDbEntity
  8
LC-004-005-----0
 62
     7
370
    25
100
AcDbLine
 10
-82.664471
 20
340.05134
 30
0.0
 11
-85.664471
 21
343.05134
 31
0.0
  0
LINE
  5
2E2
330
2A3
100
AcDbEntity
  8
LC-004-005-----0
 62
     7
370
    25
100
AcDbLine
 10
23.504413
 20
231.054028
 30
0.0
 11
20.504413
 21
234.054028
 31
0.0
  0
LINE
  5
2E3
330
2A3
100
AcDbEntity
  8
LC-004-005-----0
 62
     7
370
    25
100
AcDbLine
 10
-85.492898
 20
340.05134
 30
0.0
 11
-88.492898
 21
343.05134
 31
0.0
  0
LINE
  5
2E4
330
2A3
100
AcDbEntity
  8
LC-004-005-----0
 62
     7
370
    25
100
AcDbLine
 10
23.504413
 20
228.225601
 30
0.0
 11
20.504413
 21
231.225601
 31
0.0
  0
LINE
  5
2E5
330
2A3
100
AcDbEntity
  8
LC-004-005-----0
 62
     7
370
    25
100
AcDbLine
 10
-88.321325
 20
340.05134
 30
0.0
 11
-91.321325
 21
343.05134
 31
0.0
  0
LINE
  5
2E6
330
2A3
100
AcDbEntity
  8
LC-004-005-----0
 62
     7
370
    25
100
AcDbLine
 10
23.504413
 20
225.397174
 30
0.0
 11
20.504413
 21
228.397174
 31
0.0
  0
LINE
  5
2E7
330
2A3
100
AcDbEntity
  8
LC-004-005-----0
 62
     7
370
    25
100
AcDbLine
 10
-91.149753
 20
340.05134
 30
0.0
 11
-94.149753
 21
343.05134
 31
0.0
  0
LINE
  5
2E8
330
2A3
100
AcDbEntity
  8
LC-004-005-----0
 62
     7
370
    25
100
AcDbLine
 10
23.504413
 20
222.568747
 30
0.0
 11
20.504413
 21
225.568747
 31
0.0
  0
LINE
  5
2E9
330
2A3
100
AcDbEntity
  8
LC-004-005-----0
 62
     7
370
    25
100
AcDbLine
 10
-93.97818
 20
340.05134
 30
0.0
 11
-96.97818
 21
343.05134
 31
0.0
  0
LINE
  5
2EA
330
2A3
100
AcDbEntity
  8
LC-004-005-----0
 62
     7
370
    25
100
AcDbLine
 10
23.504413
 20
219.74032
 30
0.0
 11
20.504413
 21
222.74032
 31
0.0
  0
LINE
  5
2EB
330
2A3
100
AcDbEntity
  8
LC-004-005-----0
 62
     7
370
    25
100
AcDbLine
 10
-96.806607
 20
340.05134
 30
0.0
 11
-98.401097
 21
341.64583
 31
0.0
  0
LINE
  5
2EC
330
2A3
100
AcDbEntity
  8
LC-004-005-----0
 62
     7
370
    25
100
AcDbLine
 10
23.504413
 20
216.911893
 30
0.0
 11
20.504413
 21
219.911893
 31
0.0
  0
LINE
  5
2ED
330
2A3
100
AcDbEntity
  8
LC-004-005-----0
 62
     7
370
    25
100
AcDbLine
 10
23.504413
 20
214.083466
 30
0.0
 11
20.504413
 21
217.083466
 31
0.0
  0
LINE
  5
2EE
330
2A3
100
AcDbEntity
  8
LC-004-005-----0
 62
     7
370
    25
100
AcDbLine
 10
23.504413
 20
211.255038
 30
0.0
 11
20.504413
 21
214.255038
 31
0.0
  0
LINE
  5
2EF
330
2A3
100
AcDbEntity
  8
LC-004-005-----0
 62
     7
370
    25
100
AcDbLine
 10
23.504413
 20
208.426611
 30
0.0
 11
20.504413
 21
211.426611
 31
0.0
  0
LINE
  5
2F0
330
2A3
100
AcDbEntity
  8
LC-004-005-----0
 62
     7
370
    25
100
AcDbLine
 10
23.504413
 20
205.598184
 30
0.0
 11
20.504413
 21
208.598184
 31
0.0
  0
LINE
  5
2F1
330
2A3
100
AcDbEntity
  8
LC-004-005-----0
 62
     7
370
    25
100
AcDbLine
 10
23.504413
 20
202.769757
 30
0.0
 11
20.504413
 21
205.769757
 31
0.0
  0
LINE
  5
2F2
330
2A3
100
AcDbEntity
  8
LC-004-005-----0
 62
     7
370
    25
100
AcDbLine
 10
23.504413
 20
199.94133
 30
0.0
 11
20.504413
 21
202.94133
 31
0.0
  0
LINE
  5
2F3
330
2A3
100
AcDbEntity
  8
LC-004-005-----0
 62
     7
370
    25
100
AcDbLine
 10
23.504413
 20
197.112903
 30
0.0
 11
20.504413
 21
200.112903
 31
0.0
  0
LINE
  5
2F4
330
2A3
100
AcDbEntity
  8
LC-004-005-----0
 62
     7
370
    25
100
AcDbLine
 10
23.504413
 20
194.284476
 30
0.0
 11
20.504413
 21
197.284476
 31
0.0
  0
LINE
  5
2F5
330
2A3
100
AcDbEntity
  8
LC-004-005-----0
 62
     7
370
    25
100
AcDbLine
 10
23.504413
 20
191.456049
 30
0.0
 11
20.504413
 21
194.456049
 31
0.0
  0
LINE
  5
2F6
330
2A3
100
AcDbEntity
  8
LC-004-005-----0
 62
     7
370
    25
100
AcDbLine
 10
23.504413
 20
188.627621
 30
0.0
 11
20.504413
 21
191.627621
 31
0.0
  0
LINE
  5
2F7
330
2A3
100
AcDbEntity
  8
LC-004-005-----0
 62
     7
370
    25
100
AcDbLine
 10
23.504413
 20
185.799194
 30
0.0
 11
20.504413
 21
188.799194
 31
0.0
  0
LINE
  5
2F8
330
2A3
100
AcDbEntity
  8
LC-004-005-----0
 62
     7
370
    25
100
AcDbLine
 10
23.504413
 20
182.970767
 30
0.0
 11
20.504413
 21
185.970767
 31
0.0
  0
LINE
  5
2F9
330
2A3
100
AcDbEntity
  8
LC-004-005-----0
 62
     7
370
    25
100
AcDbLine
 10
23.504413
 20
180.14234
 30
0.0
 11
20.504413
 21
183.14234
 31
0.0
  0
LINE
  5
2FA
330
2A3
100
AcDbEntity
  8
LC-004-005-----0
 62
     7
370
    25
100
AcDbLine
 10
23.504413
 20
177.313913
 30
0.0
 11
20.504413
 21
180.313913
 31
0.0
  0
LINE
  5
2FB
330
2A3
100
AcDbEntity
  8
LC-004-005-----0
 62
     7
370
    25
100
AcDbLine
 10
23.504413
 20
174.485486
 30
0.0
 11
20.504413
 21
177.485486
 31
0.0
  0
LINE
  5
2FC
330
2A3
100
AcDbEntity
  8
LC-004-005-----0
 62
     7
370
    25
100
AcDbLine
 10
23.504413
 20
171.657059
 30
0.0
 11
20.504413
 21
174.657059
 31
0.0
  0
LINE
  5
2FD
330
2A3
100
AcDbEntity
  8
LC-004-005-----0
 62
     7
370
    25
100
AcDbLine
 10
23.504413
 20
168.828632
 30
0.0
 11
20.504413
 21
171.828632
 31
0.0
  0
LINE
  5
2FE
330
2A3
100
AcDbEntity
  8
LC-004-005-----0
 62
     7
370
    25
100
AcDbLine
 10
23.504413
 20
166.000204
 30
0.0
 11
20.504413
 21
169.000204
 31
0.0
  0
LINE
  5
2FF
330
2A3
100
AcDbEntity
  8
LC-004-005-----0
 62
     7
370
    25
100
AcDbLine
 10
23.504413
 20
163.171777
 30
0.0
 11
20.504413
 21
166.171777
 31
0.0
  0
LINE
  5
300
330
2A3
100
AcDbEntity
  8
LC-004-005-----0
 62
     7
370
    25
100
AcDbLine
 10
23.504413
 20
160.34335
 30
0.0
 11
20.504413
 21
163.34335
 31
0.0
  0
LINE
  5
301
330
2A3
100
AcDbEntity
  8
LC-004-005-----0
 62
     7
370
    25
100
AcDbLine
 10
23.504413
 20
157.514923
 30
0.0
 11
20.504413
 21
160.514923
 31
0.0
  0
LINE
  5
302
330
2A3
100
AcDbEntity
  8
LC-004-005-----0
 62
     7
370
    25
100
AcDbLine
 10
23.504413
 20
154.686496
 30
0.0
 11
20.504413
 21
157.686496
 31
0.0
  0
LINE
  5
303
330
2A3
100
AcDbEntity
  8
LC-004-005-----0
 62
     7
370
    25
100
AcDbLine
 10
23.504413
 20
151.858069
 30
0.0
 11
20.504413
 21
154.858069
 31
0.0
  0
LINE
  5
304
330
2A3
100
AcDbEntity
  8
LC-004-005-----0
 62
     7
370
    25
100
AcDbLine
 10
23.504413
 20
149.029642
 30
0.0
 11
20.504413
 21
152.029642
 31
0.0
  0
LINE
  5
305
330
2A3
100
AcDbEntity
  8
LC-004-005-----0
 62
     7
370
    25
100
AcDbLine
 10
23.504413
 20
146.201215
 30
0.0
 11
20.504413
 21
149.201215
 31
0.0
  0
LINE
  5
306
330
2A3
100
AcDbEntity
  8
LC-004-005-----0
 62
     7
370
    25
100
AcDbLine
 10
23.504413
 20
143.372787
 30
0.0
 11
20.504413
 21
146.372787
 31
0.0
  0
LINE
  5
307
330
2A3
100
AcDbEntity
  8
LC-004-005-----0
 62
     7
370
    25
100
AcDbLine
 10
23.504413
 20
140.54436
 30
0.0
 11
20.504413
 21
143.54436
 31
0.0
  0
LINE
  5
308
330
2A3
100
AcDbEntity
  8
LC-004-005-----0
 62
     7
370
    25
100
AcDbLine
 10
23.504413
 20
137.715933
 30
0.0
 11
20.504413
 21
140.715933
 31
0.0
  0
LINE
  5
309
330
2A3
100
AcDbEntity
  8
LC-004-005-----0
 62
     7
370
    25
100
AcDbLine
 10
23.504413
 20
134.887506
 30
0.0
 11
20.504413
 21
137.887506
 31
0.0
  0
LINE
  5
30A
330
2A3
100
AcDbEntity
  8
LC-004-005-----0
 62
     7
370
    25
100
AcDbLine
 10
23.504413
 20
132.059079
 30
0.0
 11
20.504413
 21
135.059079
 31
0.0
  0
LINE
  5
30B
330
2A3
100
AcDbEntity
  8
LC-004-005-----0
 62
     7
370
    25
100
AcDbLine
 10
23.504413
 20
129.230652
 30
0.0
 11
20.504413
 21
132.230652
 31
0.0
  0
LINE
  5
30C
330
2A3
100
AcDbEntity
  8
LC-004-005-----0
 62
     7
370
    25
100
AcDbLine
 10
23.504413
 20
126.402225
 30
0.0
 11
20.504413
 21
129.402225
 31
0.0
  0
LINE
  5
30D
330
2A3
100
AcDbEntity
  8
LC-004-005-----0
 62
     7
370
    25
100
AcDbLine
 10
23.504413
 20
123.573798
 30
0.0
 11
20.504413
 21
126.573798
 31
0.0
  0
LINE
  5
30E
330
2A3
100
AcDbEntity
  8
LC-004-005-----0
 62
     7
370
    25
100
AcDbLine
 10
23.504413
 20
120.74537
 30
0.0
 11
20.504413
 21
123.74537
 31
0.0
  0
LINE
  5
30F
330
2A3
100
AcDbEntity
  8
LC-004-005-----0
 62
     7
370
    25
100
AcDbLine
 10
23.504413
 20
117.916943
 30
0.0
 11
20.504413
 21
120.916943
 31
0.0
  0
LINE
  5
310
330
2A3
100
AcDbEntity
  8
LC-004-005-----0
 62
     7
370
    25
100
AcDbLine
 10
23.504413
 20
115.088516
 30
0.0
 11
20.504413
 21
118.088516
 31
0.0
  0
LINE
  5
311
330
2A3
100
AcDbEntity
  8
LC-004-005-----0
 62
     7
370
    25
100
AcDbLine
 10
23.504413
 20
112.260089
 30
0.0
 11
20.504413
 21
115.260089
 31
0.0
  0
LINE
  5
312
330
2A3
100
AcDbEntity
  8
LC-004-005-----0
 62
     7
370
    25
100
AcDbLine
 10
23.504413
 20
109.431662
 30
0.0
 11
20.504413
 21
112.431662
 31
0.0
  0
LINE
  5
313
330
2A3
100
AcDbEntity
  8
LC-004-005-----0
 62
     7
370
    25
100
AcDbLine
 10
23.504413
 20
106.603235
 30
0.0
 11
20.504413
 21
109.603235
 31
0.0
  0
LINE
  5
314
330
2A3
100
AcDbEntity
  8
LC-004-005-----0
 62
     7
370
    25
100
AcDbLine
 10
23.504413
 20
103.774808
 30
0.0
 11
20.504413
 21
106.774808
 31
0.0
  0
LINE
  5
315
330
2A3
100
AcDbEntity
  8
LC-004-005-----0
 62
     7
370
    25
100
AcDbLine
 10
23.504413
 20
100.946381
 30
0.0
 11
20.504413
 21
103.946381
 31
0.0
  0
LINE
  5
316
330
2A3
100
AcDbEntity
  8
LC-004-005-----0
 62
     7
370
    25
100
AcDbLine
 10
23.504413
 20
98.117953
 30
0.0
 11
20.504413
 21
101.117953
 31
0.0
  0
LINE
  5
317
330
2A3
100
AcDbEntity
  8
LC-004-005-----0
 62
     7
370
    25
100
AcDbLine
 10
23.504413
 20
95.289526
 30
0.0
 11
20.504413
 21
98.289526
 31
0.0
  0
LINE
  5
318
330
2A3
100
AcDbEntity
  8
LC-004-005-----0
 62
     7
370
    25
100
AcDbLine
 10
23.504413
 20
92.461099
 30
0.0
 11
20.504413
 21
95.461099
 31
0.0
  0
LINE
  5
319
330
2A3
100
AcDbEntity
  8
LC-004-005-----0
 62
     7
370
    25
100
AcDbLine
 10
23.504413
 20
89.632672
 30
0.0
 11
20.504413
 21
92.632672
 31
0.0
  0
LINE
  5
31A
330
2A3
100
AcDbEntity
  8
LC-004-005-----0
 62
     7
370
    25
100
AcDbLine
 10
23.504413
 20
86.804245
 30
0.0
 11
20.504413
 21
89.804245
 31
0.0
  0
LINE
  5
31B
330
2A3
100
AcDbEntity
  8
LC-004-005-----0
 62
     7
370
    25
100
AcDbLine
 10
23.504413
 20
83.975818
 30
0.0
 11
20.504413
 21
86.975818
 31
0.0
  0
LINE
  5
31C
330
2A3
100
AcDbEntity
  8
LC-004-005-----0
 62
     7
370
    25
100
AcDbLine
 10
23.504413
 20
81.147391
 30
0.0
 11
20.504413
 21
84.147391
 31
0.0
  0
LINE
  5
31D
330
2A3
100
AcDbEntity
  8
LC-004-005-----0
 62
     7
370
    25
100
AcDbLine
 10
23.504413
 20
78.318964
 30
0.0
 11
20.504413
 21
81.318964
 31
0.0
  0
LINE
  5
31E
330
2A3
100
AcDbEntity
  8
LC-004-005-----0
 62
     7
370
    25
100
AcDbLine
 10
23.504413
 20
75.490536
 30
0.0
 11
20.504413
 21
78.490536
 31
0.0
  0
LINE
  5
31F
330
2A3
100
AcDbEntity
  8
LC-004-005-----0
 62
     7
370
    25
100
AcDbLine
 10
23.504413
 20
72.662109
 30
0.0
 11
20.504413
 21
75.662109
 31
0.0
  0
LINE
  5
320
330
2A3
100
AcDbEntity
  8
LC-004-005-----0
 62
     7
370
    25
100
AcDbLine
 10
23.504413
 20
69.833682
 30
0.0
 11
20.504413
 21
72.833682
 31
0.0
  0
LINE
  5
321
330
2A3
100
AcDbEntity
  8
LC-004-005-----0
 62
     7
370
    25
100
AcDbLine
 10
23.504413
 20
67.005255
 30
0.0
 11
20.504413
 21
70.005255
 31
0.0
  0
LINE
  5
322
330
2A3
100
AcDbEntity
  8
LC-004-005-----0
 62
     7
370
    25
100
AcDbLine
 10
23.504413
 20
64.176828
 30
0.0
 11
20.504413
 21
67.176828
 31
0.0
  0
LINE
  5
323
330
2A3
100
AcDbEntity
  8
LC-004-005-----0
 62
     7
370
    25
100
AcDbLine
 10
23.504413
 20
61.348401
 30
0.0
 11
20.504413
 21
64.348401
 31
0.0
  0
LINE
  5
324
330
2A3
100
AcDbEntity
  8
LC-004-005-----0
 62
     7
370
    25
100
AcDbLine
 10
23.504413
 20
58.519974
 30
0.0
 11
20.504413
 21
61.519974
 31
0.0
  0
LINE
  5
325
330
2A3
100
AcDbEntity
  8
LC-004-005-----0
 62
     7
370
    25
100
AcDbLine
 10
23.504413
 20
55.691547
 30
0.0
 11
20.504413
 21
58.691547
 31
0.0
  0
LINE
  5
326
330
2A3
100
AcDbEntity
  8
LC-004-005-----0
 62
     7
370
    25
100
AcDbLine
 10
23.504413
 20
52.863119
 30
0.0
 11
20.504413
 21
55.863119
 31
0.0
  0
LINE
  5
327
330
2A3
100
AcDbEntity
  8
LC-004-005-----0
 62
     7
370
    25
100
AcDbLine
 10
23.504413
 20
50.034692
 30
0.0
 11
20.504413
 21
53.034692
 31
0.0
  0
LINE
  5
328
330
2A3
100
AcDbEntity
  8
LC-004-005-----0
 62
     7
370
    25
100
AcDbLine
 10
23.504413
 20
47.206265
 30
0.0
 11
20.504413
 21
50.206265
 31
0.0
  0
LINE
  5
329
330
2A3
100
AcDbEntity
  8
LC-004-005-----0
 62
     7
370
    25
100
AcDbLine
 10
23.504413
 20
44.377838
 30
0.0
 11
20.504413
 21
47.377838
 31
0.0
  0
LINE
  5
32A
330
2A3
100
AcDbEntity
  8
LC-004-005-----0
 62
     7
370
    25
100
AcDbLine
 10
23.504413
 20
41.549411
 30
0.0
 11
20.504413
 21
44.549411
 31
0.0
  0
LINE
  5
32B
330
2A3
100
AcDbEntity
  8
LC-004-005-----0
 62
     7
370
    25
100
AcDbLine
 10
23.504413
 20
38.720984
 30
0.0
 11
20.504413
 21
41.720984
 31
0.0
  0
LINE
  5
32C
330
2A3
100
AcDbEntity
  8
LC-004-005-----0
 62
     7
370
    25
100
AcDbLine
 10
23.504413
 20
35.892557
 30
0.0
 11
20.504413
 21
38.892557
 31
0.0
  0
LINE
  5
32D
330
2A3
100
AcDbEntity
  8
LC-004-005-----0
 62
     7
370
    25
100
AcDbLine
 10
23.504413
 20
33.06413
 30
0.0
 11
20.504413
 21
36.06413
 31
0.0
  0
LINE
  5
32E
330
2A3
100
AcDbEntity
  8
LC-004-005-----0
 62
     7
370
    25
100
AcDbLine
 10
23.504413
 20
30.235702
 30
0.0
 11
20.504413
 21
33.235702
 31
0.0
  0
LINE
  5
32F
330
2A3
100
AcDbEntity
  8
LC-004-005-----0
 62
     7
370
    25
100
AcDbLine
 10
23.504413
 20
27.407275
 30
0.0
 11
20.504413
 21
30.407275
 31
0.0
  0
LINE
  5
330
330
2A3
100
AcDbEntity
  8
LC-004-005-----0
 62
     7
370
    25
100
AcDbLine
 10
23.504413
 20
24.578848
 30
0.0
 11
20.504413
 21
27.578848
 31
0.0
  0
LINE
  5
331
330
2A3
100
AcDbEntity
  8
LC-004-005-----0
 62
     7
370
    25
100
AcDbLine
 10
23.504413
 20
21.750421
 30
0.0
 11
20.504413
 21
24.750421
 31
0.0
  0
LINE
  5
332
330
2A3
100
AcDbEntity
  8
LC-004-005-----0
 62
     7
370
    25
100
AcDbLine
 10
23.504413
 20
18.921994
 30
0.0
 11
20.504413
 21
21.921994
 31
0.0
  0
LINE
  5
333
330
2A3
100
AcDbEntity
  8
LC-004-005-----0
 62
     7
370
    25
100
AcDbLine
 10
23.504413
 20
16.093567
 30
0.0
 11
20.504413
 21
19.093567
 31
0.0
  0
LINE
  5
334
330
2A3
100
AcDbEntity
  8
LC-004-005-----0
 62
     7
370
    25
100
AcDbLine
 10
23.504413
 20
13.26514
 30
0.0
 11
20.504413
 21
16.26514
 31
0.0
  0
LINE
  5
335
330
2A3
100
AcDbEntity
  8
LC-004-005-----0
 62
     7
370
    25
100
AcDbLine
 10
23.504413
 20
10.436713
 30
0.0
 11
20.504413
 21
13.436713
 31
0.0
  0
LINE
  5
336
330
2A3
100
AcDbEntity
  8
LC-004-005-----0
 62
     7
370
    25
100
AcDbLine
 10
23.504413
 20
7.608285
 30
0.0
 11
20.504413
 21
10.608285
 31
0.0
  0
LINE
  5
337
330
2A3
100
AcDbEntity
  8
LC-004-005-----0
 62
     7
370
    25
100
AcDbLine
 10
23.504413
 20
4.779858
 30
0.0
 11
20.504413
 21
7.779858
 31
0.0
  0
LINE
  5
338
330
2A3
100
AcDbEntity
  8
LC-004-005-----0
 62
     7
370
    25
100
AcDbLine
 10
23.504413
 20
1.951431
 30
0.0
 11
20.504413
 21
4.951431
 31
0.0
  0
LINE
  5
339
330
2A3
100
AcDbEntity
  8
LC-004-005-----0
 62
     7
370
    25
100
AcDbLine
 10
23.504413
 20
-0.876996
 30
0.0
 11
20.504413
 21
2.123004
 31
0.0
  0
LINE
  5
33A
330
2A3
100
AcDbEntity
  8
LC-004-005-----0
 62
     7
370
    25
100
AcDbLine
 10
23.504413
 20
-3.705423
 30
0.0
 11
20.504413
 21
-0.705423
 31
0.0
  0
LINE
  5
33B
330
2A3
100
AcDbEntity
  8
LC-004-005-----0
 62
     7
370
    25
100
AcDbLine
 10
23.504413
 20
-6.53385
 30
0.0
 11
20.504413
 21
-3.53385
 31
0.0
  0
LINE
  5
33C
330
2A3
100
AcDbEntity
  8
LC-004-005-----0
 62
     7
370
    25
100
AcDbLine
 10
23.504413
 20
-9.362277
 30
0.0
 11
20.504413
 21
-6.362277
 31
0.0
  0
LINE
  5
33D
330
2A3
100
AcDbEntity
  8
LC-004-005-----0
 62
     7
370
    25
100
AcDbLine
 10
23.504413
 20
-12.190704
 30
0.0
 11
20.504413
 21
-9.190704
 31
0.0
  0
LINE
  5
33E
330
2A3
100
AcDbEntity
  8
LC-004-005-----0
 62
     7
370
    25
100
AcDbLine
 10
23.504413
 20
-15.019132
 30
0.0
 11
20.504413
 21
-12.019132
 31
0.0
  0
LINE
  5
33F
330
2A3
100
AcDbEntity
  8
LC-004-005-----0
 62
     7
370
    25
100
AcDbLine
 10
23.504413
 20
-17.847559
 30
0.0
 11
20.504413
 21
-14.847559
 31
0.0
  0
LINE
  5
340
330
2A3
100
AcDbEntity
  8
LC-004-005-----0
 62
     7
370
    25
100
AcDbLine
 10
23.504413
 20
-20.675986
 30
0.0
 11
20.504413
 21
-17.675986
 31
0.0
  0
LINE
  5
341
330
2A3
100
AcDbEntity
  8
LC-004-005-----0
 62
     7
370
    25
100
AcDbLine
 10
23.504413
 20
-23.504413
 30
0.0
 11
20.504413
 21
-20.504413
 31
0.0
  0
LINE
  5
342
330
2A3
100
AcDbEntity
  8
LC-004-005-----0
 62
     7
370
    25
100
AcDbLine
 10
23.504413
 20
-26.33284
 30
0.0
 11
20.504413
 21
-23.33284
 31
0.0
  0
LINE
  5
343
330
2A3
100
AcDbEntity
  8
LC-004-005-----0
 62
     7
370
    25
100
AcDbLine
 10
23.504413
 20
-29.161267
 30
0.0
 11
20.504413
 21
-26.161267
 31
0.0
  0
LINE
  5
344
330
2A3
100
AcDbEntity
  8
LC-004-005-----0
 62
     7
370
    25
100
AcDbLine
 10
23.504413
 20
-31.989694
 30
0.0
 11
20.504413
 21
-28.989694
 31
0.0
  0
LINE
  5
345
330
2A3
100
AcDbEntity
  8
LC-004-005-----0
 62
     7
370
    25
100
AcDbLine
 10
23.504413
 20
-34.818121
 30
0.0
 11
20.504413
 21
-31.818121
 31
0.0
  0
LINE
  5
346
330
2A3
100
AcDbEntity
  8
LC-004-005-----0
 62
     7
370
    25
100
AcDbLine
 10
23.504413
 20
-37.646549
 30
0.0
 11
20.504413
 21
-34.646549
 31
0.0
  0
LINE
  5
347
330
2A3
100
AcDbEntity
  8
LC-004-005-----0
 62
     7
370
    25
100
AcDbLine
 10
23.504413
 20
-40.474976
 30
0.0
 11
20.504413
 21
-37.474976
 31
0.0
  0
LINE
  5
348
330
2A3
100
AcDbEntity
  8
LC-004-005-----0
 62
     7
370
    25
100
AcDbLine
 10
23.504413
 20
-43.303403
 30
0.0
 11
20.504413
 21
-40.303403
 31
0.0
  0
LINE
  5
349
330
2A3
100
AcDbEntity
  8
LC-004-005-----0
 62
     7
370
    25
100
AcDbLine
 10
23.504413
 20
-46.13183
 30
0.0
 11
20.504413
 21
-43.13183
 31
0.0
  0
LINE
  5
34A
330
2A3
100
AcDbEntity
  8
LC-004-005-----0
 62
     7
370
    25
100
AcDbLine
 10
23.504413
 20
-48.960257
 30
0.0
 11
20.504413
 21
-45.960257
 31
0.0
  0
LINE
  5
34B
330
2A3
100
AcDbEntity
  8
LC-004-005-----0
 62
     7
370
    25
100
AcDbLine
 10
23.504413
 20
-51.788684
 30
0.0
 11
20.504413
 21
-48.788684
 31
0.0
  0
LINE
  5
34C
330
2A3
100
AcDbEntity
  8
LC-004-005-----0
 62
     7
370
    25
100
AcDbLine
 10
23.504413
 20
-54.617111
 30
0.0
 11
20.504413
 21
-51.617111
 31
0.0
  0
LINE
  5
34D
330
2A3
100
AcDbEntity
  8
LC-004-005-----0
 62
     7
370
    25
100
AcDbLine
 10
23.504413
 20
-57.445538
 30
0.0
 11
20.504413
 21
-54.445538
 31
0.0
  0
LINE
  5
34E
330
2A3
100
AcDbEntity
  8
LC-004-005-----0
 62
     7
370
    25
100
AcDbLine
 10
23.504413
 20
-60.273966
 30
0.0
 11
20.504413
 21
-57.273966
 31
0.0
  0
LINE
  5
34F
330
2A3
100
AcDbEntity
  8
LC-004-005-----0
 62
     7
370
    25
100
AcDbLine
 10
23.504413
 20
-63.102393
 30
0.0
 11
20.504413
 21
-60.102393
 31
0.0
  0
LINE
  5
350
330
2A3
100
AcDbEntity
  8
LC-004-005-----0
 62
     7
370
    25
100
AcDbLine
 10
23.504413
 20
-65.93082
 30
0.0
 11
20.504413
 21
-62.93082
 31
0.0
  0
LINE
  5
351
330
2A3
100
AcDbEntity
  8
LC-004-005-----0
 62
     7
370
    25
100
AcDbLine
 10
23.504413
 20
-68.759247
 30
0.0
 11
20.504413
 21
-65.759247
 31
0.0
  0
LINE
  5
352
330
2A3
100
AcDbEntity
  8
LC-004-005-----0
 62
     7
370
    25
100
AcDbLine
 10
23.504413
 20
-71.587674
 30
0.0
 11
20.504413
 21
-68.587674
 31
0.0
  0
LINE
  5
353
330
2A3
100
AcDbEntity
  8
LC-004-005-----0
 62
     7
370
    25
100
AcDbLine
 10
23.504413
 20
-74.416101
 30
0.0
 11
20.504413
 21
-71.416101
 31
0.0
  0
LINE
  5
354
330
2A3
100
AcDbEntity
  8
LC-004-005-----0
 62
     7
370
    25
100
AcDbLine
 10
23.504413
 20
-77.244528
 30
0.0
 11
20.504413
 21
-74.244528
 31
0.0
  0
LINE
  5
355
330
2A3
100
AcDbEntity
  8
LC-004-005-----0
 62
     7
370
    25
100
AcDbLine
 10
23.504413
 20
-80.072955
 30
0.0
 11
20.504413
 21
-77.072955
 31
0.0
  0
LINE
  5
356
330
2A3
100
AcDbEntity
  8
LC-004-005-----0
 62
     7
370
    25
100
AcDbLine
 10
23.504413
 20
-82.901383
 30
0.0
 11
20.504413
 21
-79.901383
 31
0.0
  0
LINE
  5
357
330
2A3
100
AcDbEntity
  8
LC-004-005-----0
 62
     7
370
    25
100
AcDbLine
 10
23.504413
 20
-85.72981
 30
0.0
 11
20.504413
 21
-82.72981
 31
0.0
  0
LINE
  5
358
330
2A3
100
AcDbEntity
  8
LC-004-005-----0
 62
     7
370
    25
100
AcDbLine
 10
23.504413
 20
-88.558237
 30
0.0
 11
20.504413
 21
-85.558237
 31
0.0
  0
LINE
  5
359
330
2A3
100
AcDbEntity
  8
LC-004-005-----0
 62
     7
370
    25
100
AcDbLine
 10
23.504413
 20
-91.386664
 30
0.0
 11
20.504413
 21
-88.386664
 31
0.0
  0
LINE
  5
35A
330
2A3
100
AcDbEntity
  8
LC-004-005-----0
 62
     7
370
    25
100
AcDbLine
 10
23.504413
 20
-94.215091
 30
0.0
 11
20.504413
 21
-91.215091
 31
0.0
  0
LINE
  5
35B
330
2A3
100
AcDbEntity
  8
LC-004-005-----0
 62
     7
370
    25
100
AcDbLine
 10
23.504413
 20
-97.043518
 30
0.0
 11
20.504413
 21
-94.043518
 31
0.0
  0
LINE
  5
35C
330
2A3
100
AcDbEntity
  8
LC-004-005-----0
 62
     7
370
    25
100
AcDbLine
 10
23.504413
 20
-99.871945
 30
0.0
 11
20.504413
 21
-96.871945
 31
0.0
  0
LINE
  5
35D
330
2A3
100
AcDbEntity
  8
LC-004-005-----0
 62
     7
370
    25
100
AcDbLine
 10
23.504413
 20
-102.700372
 30
0.0
 11
20.504413
 21
-99.700372
 31
0.0
  0
LINE
  5
35E
330
2A3
100
AcDbEntity
  8
LC-004-005-----0
 62
     7
370
    25
100
AcDbLine
 10
23.504413
 20
-105.5288
 30
0.0
 11
20.504413
 21
-102.5288
 31
0.0
  0
LINE
  5
35F
330
2A3
100
AcDbEntity
  8
LC-004-005-----0
 62
     7
370
    25
100
AcDbLine
 10
23.504413
 20
-108.357227
 30
0.0
 11
20.504413
 21
-105.357227
 31
0.0
  0
LINE
  5
360
330
2A3
100
AcDbEntity
  8
LC-004-005-----0
 62
     7
370
    25
100
AcDbLine
 10
23.504413
 20
-111.185654
 30
0.0
 11
20.504413
 21
-108.185654
 31
0.0
  0
LINE
  5
361
330
2A3
100
AcDbEntity
  8
LC-004-005-----0
 62
     7
370
    25
100
AcDbLine
 10
23.504413
 20
-114.014081
 30
0.0
 11
20.504413
 21
-111.014081
 31
0.0
  0
LINE
  5
362
330
2A3
100
AcDbEntity
  8
LC-004-005-----0
 62
     7
370
    25
100
AcDbLine
 10
22.610565
 20
-115.94866
 30
0.0
 11
21.380622
 21
-114.718717
 31
0.0
  0
ENDBLK
  5
2A5
330
2A3
100
AcDbEntity
  8
0
100
AcDbBlockEnd
  0
BLOCK
  5
365
330
364
100
AcDbEntity
  8
0
100
AcDbBlockBegin
  2
*X47
 70
     1
 71
     0
 10
0.0
 20
0.0
 30
0.0
  3
*X47
  1

  4
*X4
  0
LINE
  5
367
330
364
100
AcDbEntity
  8
LC-004-005-----0
 62
     7
370
    25
100
AcDbLine
 10
-102.995587
 20
340.583465
 30
0.0
 11
-105.463461
 21
343.05134
 31
0.0
  0
LINE
  5
368
330
364
100
AcDbEntity
  8
LC-004-005-----0
 62
     7
370
    25
100
AcDbLine
 10
-105.291888
 20
340.05134
 30
0.0
 11
-108.291888
 21
343.05134
 31
0.0
  0
LINE
  5
369
330
364
100
AcDbEntity
  8
LC-004-005-----0
 62
     7
370
    25
100
AcDbLine
 10
-108.120315
 20
340.05134
 30
0.0
 11
-110.709662
 21
342.640686
 31
0.0
  0
LINE
  5
36A
330
364
100
AcDbEntity
  8
LC-004-005-----0
 62
     7
370
    25
100
AcDbLine
 10
-110.948742
 20
340.05134
 30
0.0
 11
-111.495587
 21
340.598184
 31
0.0
  0
ENDBLK
  5
366
330
364
100
AcDbEntity
  8
0
100
AcDbBlockEnd
  0
BLOCK
  5
36D
330
36C
100
AcDbEntity
  8
0
100
AcDbBlockBegin
  2
*X58
 70
     1
 71
     0
 10
0.0
 20
0.0
 30
0.0
  3
*X58
  1

  4
*X5
  0
LINE
  5
36F
330
36C
100
AcDbEntity
  8
LC-004-005-----0
 62
     7
370
    25
100
AcDbLine
 10
242.504413
 20
340.151575
 30
0.0
 11
239.604648
 21
343.05134
 31
0.0
  0
LINE
  5
370
330
36C
100
AcDbEntity
  8
LC-004-005-----0
 62
     7
370
    25
100
AcDbLine
 10
239.776221
 20
340.05134
 30
0.0
 11
236.776221
 21
343.05134
 31
0.0
  0
LINE
  5
371
330
36C
100
AcDbEntity
  8
LC-004-005-----0
 62
     7
370
    25
100
AcDbLine
 10
236.947794
 20
340.05134
 30
0.0
 11
234.976103
 21
342.02303
 31
0.0
  0
LINE
  5
372
330
36C
100
AcDbEntity
  8
LC-004-005-----0
 62
     7
370
    25
100
AcDbLine
 10
234.119367
 20
340.05134
 30
0.0
 11
234.004413
 21
340.166293
 31
0.0
  0
ENDBLK
  5
36E
330
36C
100
AcDbEntity
  8
0
100
AcDbBlockEnd
  0
BLOCK
  5
37F
330
375
100
AcDbEntity
  8
0
100
AcDbBlockBegin
  2
*D9
 70
     1
 71
     0
 10
0.0
 20
0.0
 30
0.0
  3
*D9
  1

  0
LINE
  5
376
330
375
100
AcDbEntity
  8
LC-005-003-----0
 62
     2
370
    -2
100
AcDbLine
 10
107.504413
 20
-115.94866
 30
0.0
 11
347.027188
 21
-115.94866
 31
0.0
  0
LINE
  5
377
330
375
100
AcDbEntity
  8
LC-005-003-----0
 62
     2
370
    -2
100
AcDbLine
 10
240.504413
 20
343.05134
 30
0.0
 11
347.027188
 21
343.05134
 31
0.0
  0
LINE
  5
378
330
375
100
AcDbEntity
  8
LC-005-003-----0
 62
     2
370
    -2
100
AcDbLine
 10
343.427188
 20
-87.94866
 30
0.0
 11
343.427188
 21
315.05134
 31
0.0
  0
SOLID
  5
379
330
375
100
AcDbEntity
  8
LC-005-003-----0
 62
     2
100
AcDbTrace
 10
338.760521
 20
-87.94866
 30
0.0
 11
348.093854
 21
-87.94866
 31
0.0
 12
343.427188
 22
-115.94866
 32
0.0
 13
343.427188
 23
-115.94866
 33
0.0
  0
SOLID
  5
37A
330
375
100
AcDbEntity
  8
LC-005-003-----0
 62
     2
100
AcDbTrace
 10
348.093854
 20
315.05134
 30
0.0
 11
338.760521
 21
315.05134
 31
0.0
 12
343.427188
 22
343.05134
 32
0.0
 13
343.427188
 23
343.05134
 33
0.0
  0
MTEXT
  5
37B
330
375
100
AcDbEntity
  8
LC-005-003-----0
 62
     2
100
AcDbMText
 10
312.627188
 20
113.55134
 30
0.0
 40
28.0
 41
0.0
 71
     5
 72
     1
  1
\A1;460
  7
LCTX15-400-0-0pDIN-Schrift
 11
6.123031769111886E-17
 21
1.0
 31
0.0
 73
     1
 44
1.0
  0
POINT
  5
37C
330
375
100
AcDbEntity
  8
Defpoints
 62
     0
100
AcDbPoint
 10
107.504413
 20
-115.94866
 30
0.0
  0
POINT
  5
37D
330
375
100
AcDbEntity
  8
Defpoints
 62
     0
100
AcDbPoint
 10
240.504413
 20
343.05134
 30
0.0
  0
POINT
  5
37E
330
375
100
AcDbEntity
  8
Defpoints
 62
     0
100
AcDbPoint
 10
343.427188
 20
343.05134
 30
0.0
  0
ENDBLK
  5
380
330
375
100
AcDbEntity
  8
0
100
AcDbBlockEnd
  0
BLOCK
  5
38C
330
382
100
AcDbEntity
  8
0
100
AcDbBlockBegin
  2
*D10
 70
     1
 71
     0
 10
0.0
 20
0.0
 30
0.0
  3
*D10
  1

  0
LINE
  5
383
330
382
100
AcDbEntity
  8
LC-005-003-----0
 62
     2
370
    -2
100
AcDbLine
 10
110.504413
 20
246.05134
 30
0.0
 11
235.456784
 21
246.05134
 31
0.0
  0
LINE
  5
384
330
382
100
AcDbEntity
  8
LC-005-003-----0
 62
     2
370
    -2
100
AcDbLine
 10
107.504413
 20
-115.94866
 30
0.0
 11
235.456784
 21
-115.94866
 31
0.0
  0
LINE
  5
385
330
382
100
AcDbEntity
  8
LC-005-003-----0
 62
     2
370
    -2
100
AcDbLine
 10
231.856784
 20
218.05134
 30
0.0
 11
231.856784
 21
-87.94866
 31
0.0
  0
SOLID
  5
386
330
382
100
AcDbEntity
  8
LC-005-003-----0
 62
     2
100
AcDbTrace
 10
236.52345
 20
218.05134
 30
0.0
 11
227.190117
 21
218.05134
 31
0.0
 12
231.856784
 22
246.05134
 32
0.0
 13
231.856784
 23
246.05134
 33
0.0
  0
SOLID
  5
387
330
382
100
AcDbEntity
  8
LC-005-003-----0
 62
     2
100
AcDbTrace
 10
227.190117
 20
-87.94866
 30
0.0
 11
236.52345
 21
-87.94866
 31
0.0
 12
231.856784
 22
-115.94866
 32
0.0
 13
231.856784
 23
-115.94866
 33
0.0
  0
MTEXT
  5
388
330
382
100
AcDbEntity
  8
LC-005-003-----0
 62
     2
100
AcDbMText
 10
201.056784
 20
65.05134
 30
0.0
 40
28.0
 41
0.0
 71
     5
 72
     1
  1
\A1;362
  7
LCTX15-400-0-0pDIN-Schrift
 11
6.123031769111886E-17
 21
1.0
 31
0.0
 73
     1
 44
1.0
  0
POINT
  5
389
330
382
100
AcDbEntity
  8
Defpoints
 62
     0
100
AcDbPoint
 10
110.504413
 20
246.05134
 30
0.0
  0
POINT
  5
38A
330
382
100
AcDbEntity
  8
Defpoints
 62
     0
100
AcDbPoint
 10
107.504413
 20
-115.94866
 30
0.0
  0
POINT
  5
38B
330
382
100
AcDbEntity
  8
Defpoints
 62
     0
100
AcDbPoint
 10
231.856784
 20
-115.94866
 30
0.0
  0
ENDBLK
  5
38D
330
382
100
AcDbEntity
  8
0
100
AcDbBlockEnd
  0
BLOCK
  5
399
330
38F
100
AcDbEntity
  8
0
100
AcDbBlockBegin
  2
*D11
 70
     1
 71
     0
 10
0.0
 20
0.0
 30
0.0
  3
*D11
  1

  0
LINE
  5
390
330
38F
100
AcDbEntity
  8
LC-005-003-----0
 62
     2
370
    -2
100
AcDbLine
 10
107.504413
 20
-115.94866
 30
0.0
 11
296.883186
 21
-115.94866
 31
0.0
  0
LINE
  5
391
330
38F
100
AcDbEntity
  8
LC-005-003-----0
 62
     2
370
    -2
100
AcDbLine
 10
131.504413
 20
305.050121
 30
0.0
 11
296.883186
 21
305.050121
 31
0.0
  0
LINE
  5
392
330
38F
100
AcDbEntity
  8
LC-005-003-----0
 62
     2
370
    -2
100
AcDbLine
 10
293.283186
 20
-87.94866
 30
0.0
 11
293.283186
 21
277.050121
 31
0.0
  0
SOLID
  5
393
330
38F
100
AcDbEntity
  8
LC-005-003-----0
 62
     2
100
AcDbTrace
 10
288.616519
 20
-87.94866
 30
0.0
 11
297.949853
 21
-87.94866
 31
0.0
 12
293.283186
 22
-115.94866
 32
0.0
 13
293.283186
 23
-115.94866
 33
0.0
  0
SOLID
  5
394
330
38F
100
AcDbEntity
  8
LC-005-003-----0
 62
     2
100
AcDbTrace
 10
297.949853
 20
277.050121
 30
0.0
 11
288.616519
 21
277.050121
 31
0.0
 12
293.283186
 22
305.050121
 32
0.0
 13
293.283186
 23
305.050121
 33
0.0
  0
MTEXT
  5
395
330
38F
100
AcDbEntity
  8
LC-005-003-----0
 62
     2
100
AcDbMText
 10
262.483186
 20
94.55073
 30
0.0
 40
28.0
 41
0.0
 71
     5
 72
     1
  1
\A1;421
  7
LCTX15-400-0-0pDIN-Schrift
 11
6.123031769111886E-17
 21
1.0
 31
0.0
 73
     1
 44
1.0
  0
POINT
  5
396
330
38F
100
AcDbEntity
  8
Defpoints
 62
     0
100
AcDbPoint
 10
107.504413
 20
-115.94866
 30
0.0
  0
POINT
  5
397
330
38F
100
AcDbEntity
  8
Defpoints
 62
     0
100
AcDbPoint
 10
131.504413
 20
305.050121
 30
0.0
  0
POINT
  5
398
330
38F
100
AcDbEntity
  8
Defpoints
 62
     0
100
AcDbPoint
 10
293.283186
 20
305.050121
 30
0.0
  0
ENDBLK
  5
39A
330
38F
100
AcDbEntity
  8
0
100
AcDbBlockEnd
  0
BLOCK
  5
3A6
330
39C
100
AcDbEntity
  8
0
100
AcDbBlockBegin
  2
*D12
 70
     1
 71
     0
 10
0.0
 20
0.0
 30
0.0
  3
*D12
  1

  0
LINE
  5
39D
330
39C
100
AcDbEntity
  8
LC-005-003-----0
 62
     2
370
    -2
100
AcDbLine
 10
-111.495587
 20
340.05134
 30
0.0
 11
-111.495587
 21
456.84
 31
0.0
  0
LINE
  5
39E
330
39C
100
AcDbEntity
  8
LC-005-003-----0
 62
     2
370
    -2
100
AcDbLine
 10
242.504413
 20
340.05134
 30
0.0
 11
242.504413
 21
456.84
 31
0.0
  0
LINE
  5
39F
330
39C
100
AcDbEntity
  8
LC-005-003-----0
 62
     2
370
    -2
100
AcDbLine
 10
-83.495587
 20
453.24
 30
0.0
 11
214.504413
 21
453.24
 31
0.0
  0
SOLID
  5
3A0
330
39C
100
AcDbEntity
  8
LC-005-003-----0
 62
     2
100
AcDbTrace
 10
-83.495587
 20
457.906667
 30
0.0
 11
-83.495587
 21
448.573333
 31
0.0
 12
-111.495587
 22
453.24
 32
0.0
 13
-111.495587
 23
453.24
 33
0.0
  0
SOLID
  5
3A1
330
39C
100
AcDbEntity
  8
LC-005-003-----0
 62
     2
100
AcDbTrace
 10
214.504413
 20
448.573333
 30
0.0
 11
214.504413
 21
457.906667
 31
0.0
 12
242.504413
 22
453.24
 32
0.0
 13
242.504413
 23
453.24
 33
0.0
  0
MTEXT
  5
3A2
330
39C
100
AcDbEntity
  8
LC-005-003-----0
 62
     2
100
AcDbMText
 10
65.504413
 20
484.04
 30
0.0
 40
28.0
 41
0.0
 71
     5
 72
     1
  1
%%c\A1;354
  7
LCTX15-400-0-0pDIN-Schrift
 73
     1
 44
1.0
  0
POINT
  5
3A3
330
39C
100
AcDbEntity
  8
Defpoints
 62
     0
100
AcDbPoint
 10
-111.495587
 20
340.05134
 30
0.0
  0
POINT
  5
3A4
330
39C
100
AcDbEntity
  8
Defpoints
 62
     0
100
AcDbPoint
 10
242.504413
 20
340.05134
 30
0.0
  0
POINT
  5
3A5
330
39C
100
AcDbEntity
  8
Defpoints
 62
     0
100
AcDbPoint
 10
242.504413
 20
453.24
 30
0.0
  0
ENDBLK
  5
3A7
330
39C
100
AcDbEntity
  8
0
100
AcDbBlockEnd
  0
BLOCK
  5
3B4
330
3A9
100
AcDbEntity
  8
0
100
AcDbBlockBegin
  2
*D13
 70
     1
 71
     0
 10
0.0
 20
0.0
 30
0.0
  3
*D13
  1

  0
LINE
  5
3AA
330
3A9
100
AcDbEntity
  8
LC-005-003-----0
 62
     2
370
    -2
100
AcDbLine
 10
-5.495587
 20
308.050121
 30
0.0
 11
-5.495587
 21
261.48
 31
0.0
  0
LINE
  5
3AB
330
3A9
100
AcDbEntity
  8
LC-005-003-----0
 62
     2
370
    -2
100
AcDbLine
 10
136.504413
 20
308.050121
 30
0.0
 11
136.504413
 21
261.48
 31
0.0
  0
LINE
  5
3AC
330
3A9
100
AcDbEntity
  8
LC-005-003-----0
 62
     2
370
    -2
100
AcDbLine
 10
22.504413
 20
265.08
 30
0.0
 11
108.504413
 21
265.08
 31
0.0
  0
LINE
  5
3AD
330
3A9
100
AcDbEntity
  8
LC-005-003-----0
 62
     2
370
    -2
100
AcDbLine
 10
-5.495587
 20
265.08
 30
0.0
 11
-78.986383
 21
265.08
 31
0.0
  0
SOLID
  5
3AE
330
3A9
100
AcDbEntity
  8
LC-005-003-----0
 62
     2
100
AcDbTrace
 10
22.504413
 20
269.746667
 30
0.0
 11
22.504413
 21
260.413333
 31
0.0
 12
-5.495587
 22
265.08
 32
0.0
 13
-5.495587
 23
265.08
 33
0.0
  0
SOLID
  5
3AF
330
3A9
100
AcDbEntity
  8
LC-005-003-----0
 62
     2
100
AcDbTrace
 10
108.504413
 20
260.413333
 30
0.0
 11
108.504413
 21
269.746667
 31
0.0
 12
136.504413
 22
265.08
 32
0.0
 13
136.504413
 23
265.08
 33
0.0
  0
MTEXT
  5
3B0
330
3A9
100
AcDbEntity
  8
LC-005-003-----0
 62
     2
100
AcDbMText
 10
-48.949626
 20
295.88
 30
0.0
 40
28.0
 41
0.0
 71
     5
 72
     1
  1
%%c\A1;142
  7
LCTX15-400-0-0pDIN-Schrift
 73
     1
 44
1.0
  0
POINT
  5
3B1
330
3A9
100
AcDbEntity
  8
Defpoints
 62
     0
100
AcDbPoint
 10
-5.495587
 20
308.050121
 30
0.0
  0
POINT
  5
3B2
330
3A9
100
AcDbEntity
  8
Defpoints
 62
     0
100
AcDbPoint
 10
136.504413
 20
308.050121
 30
0.0
  0
POINT
  5
3B3
330
3A9
100
AcDbEntity
  8
Defpoints
 62
     0
100
AcDbPoint
 10
136.504413
 20
265.08
 30
0.0
  0
ENDBLK
  5
3B5
330
3A9
100
AcDbEntity
  8
0
100
AcDbBlockEnd
  0
BLOCK
  5
3C6
330
3BB
100
AcDbEntity
  8
0
100
AcDbBlockBegin
  2
*D14
 70
     1
 71
     0
 10
0.0
 20
0.0
 30
0.0
  3
*D14
  1

  0
LINE
  5
3BC
330
3BB
100
AcDbEntity
  8
LC-005-003-----0
 62
     2
370
    -2
100
AcDbLine
 10
-0.470954
 20
278.047146
 30
0.0
 11
-0.470954
 21
207.72
 31
0.0
  0
LINE
  5
3BD
330
3BB
100
AcDbEntity
  8
LC-005-003-----0
 62
     2
370
    -2
100
AcDbLine
 10
131.529046
 20
278.047146
 30
0.0
 11
131.529046
 21
207.72
 31
0.0
  0
LINE
  5
3BE
330
3BB
100
AcDbEntity
  8
LC-005-003-----0
 62
     2
370
    -2
100
AcDbLine
 10
27.529046
 20
211.32
 30
0.0
 11
103.529046
 21
211.32
 31
0.0
  0
LINE
  5
3BF
330
3BB
100
AcDbEntity
  8
LC-005-003-----0
 62
     2
370
    -2
100
AcDbLine
 10
-0.470954
 20
211.32
 30
0.0
 11
-63.918549
 21
211.32
 31
0.0
  0
SOLID
  5
3C0
330
3BB
100
AcDbEntity
  8
LC-005-003-----0
 62
     2
100
AcDbTrace
 10
27.529046
 20
215.986667
 30
0.0
 11
27.529046
 21
206.653333
 31
0.0
 12
-0.470954
 22
211.32
 32
0.0
 13
-0.470954
 23
211.32
 33
0.0
  0
SOLID
  5
3C1
330
3BB
100
AcDbEntity
  8
LC-005-003-----0
 62
     2
100
AcDbTrace
 10
103.529046
 20
206.653333
 30
0.0
 11
103.529046
 21
215.986667
 31
0.0
 12
131.529046
 22
211.32
 32
0.0
 13
131.529046
 23
211.32
 33
0.0
  0
MTEXT
  5
3C2
330
3BB
100
AcDbEntity
  8
LC-005-003-----0
 62
     2
100
AcDbMText
 10
-33.881792
 20
242.12
 30
0.0
 40
28.0
 41
0.0
 71
     5
 72
     1
  1
%%c\A1;132
  7
LCTX15-400-0-0pDIN-Schrift
 73
     1
 44
1.0
  0
POINT
  5
3C3
330
3BB
100
AcDbEntity
  8
Defpoints
 62
     0
100
AcDbPoint
 10
-0.470954
 20
278.047146
 30
0.0
  0
POINT
  5
3C4
330
3BB
100
AcDbEntity
  8
Defpoints
 62
     0
100
AcDbPoint
 10
131.529046
 20
278.047146
 30
0.0
  0
POINT
  5
3C5
330
3BB
100
AcDbEntity
  8
Defpoints
 62
     0
100
AcDbPoint
 10
131.529046
 20
211.32
 30
0.0
  0
ENDBLK
  5
3C7
330
3BB
100
AcDbEntity
  8
0
100
AcDbBlockEnd
  0
BLOCK
  5
40E
330
40D
100
AcDbEntity
  8
0
100
AcDbBlockBegin
  2
*X615
 70
     1
 71
     0
 10
0.0
 20
0.0
 30
0.0
  3
*X615
  1

  4
*X6
  0
LINE
  5
410
330
40D
100
AcDbEntity
  8
LC-004-005-----0
 62
     7
370
    25
100
AcDbLine
 10
170.517285
 20
343.05134
 30
0.0
 11
170.672555
 21
343.20661
 31
0.0
  0
LINE
  5
411
330
40D
100
AcDbEntity
  8
LC-004-005-----0
 62
     7
370
    25
100
AcDbLine
 10
167.688858
 20
343.05134
 30
0.0
 11
169.9178
 21
345.280282
 31
0.0
  0
LINE
  5
412
330
40D
100
AcDbEntity
  8
LC-004-005-----0
 62
     7
370
    25
100
AcDbLine
 10
164.860431
 20
343.05134
 30
0.0
 11
169.163045
 21
347.353954
 31
0.0
  0
LINE
  5
413
330
40D
100
AcDbEntity
  8
LC-004-005-----0
 62
     7
370
    25
100
AcDbLine
 10
162.032004
 20
343.05134
 30
0.0
 11
168.40829
 21
349.427626
 31
0.0
  0
LINE
  5
414
330
40D
100
AcDbEntity
  8
LC-004-005-----0
 62
     7
370
    25
100
AcDbLine
 10
159.203576
 20
343.05134
 30
0.0
 11
167.653535
 21
351.501299
 31
0.0
  0
LINE
  5
415
330
40D
100
AcDbEntity
  8
LC-004-005-----0
 62
     7
370
    25
100
AcDbLine
 10
156.375149
 20
343.05134
 30
0.0
 11
166.89878
 21
353.574971
 31
0.0
  0
LINE
  5
416
330
40D
100
AcDbEntity
  8
LC-004-005-----0
 62
     7
370
    25
100
AcDbLine
 10
154.596977
 20
344.101594
 30
0.0
 11
166.144026
 21
355.648643
 31
0.0
  0
LINE
  5
417
330
40D
100
AcDbEntity
  8
LC-004-005-----0
 62
     7
370
    25
100
AcDbLine
 10
153.842222
 20
346.175266
 30
0.0
 11
165.389271
 21
357.722315
 31
0.0
  0
LINE
  5
418
330
40D
100
AcDbEntity
  8
LC-004-005-----0
 62
     7
370
    25
100
AcDbLine
 10
153.087467
 20
348.248938
 30
0.0
 11
164.634516
 21
359.795987
 31
0.0
  0
LINE
  5
419
330
40D
100
AcDbEntity
  8
LC-004-005-----0
 62
     7
370
    25
100
AcDbLine
 10
152.332712
 20
350.32261
 30
0.0
 11
163.879761
 21
361.869659
 31
0.0
  0
LINE
  5
41A
330
40D
100
AcDbEntity
  8
LC-004-005-----0
 62
     7
370
    25
100
AcDbLine
 10
151.577957
 20
352.396283
 30
0.0
 11
163.125006
 21
363.943332
 31
0.0
  0
LINE
  5
41B
330
40D
100
AcDbEntity
  8
LC-004-005-----0
 62
     7
370
    25
100
AcDbLine
 10
150.823202
 20
354.469955
 30
0.0
 11
162.370251
 21
366.017004
 31
0.0
  0
LINE
  5
41C
330
40D
100
AcDbEntity
  8
LC-004-005-----0
 62
     7
370
    25
100
AcDbLine
 10
150.068447
 20
356.543627
 30
0.0
 11
161.615496
 21
368.090676
 31
0.0
  0
LINE
  5
41D
330
40D
100
AcDbEntity
  8
LC-004-005-----0
 62
     7
370
    25
100
AcDbLine
 10
149.313692
 20
358.617299
 30
0.0
 11
160.860741
 21
370.164348
 31
0.0
  0
LINE
  5
41E
330
40D
100
AcDbEntity
  8
LC-004-005-----0
 62
     7
370
    25
100
AcDbLine
 10
148.558937
 20
360.690971
 30
0.0
 11
160.105986
 21
372.23802
 31
0.0
  0
LINE
  5
41F
330
40D
100
AcDbEntity
  8
LC-004-005-----0
 62
     7
370
    25
100
AcDbLine
 10
147.804182
 20
362.764644
 30
0.0
 11
159.351231
 21
374.311692
 31
0.0
  0
LINE
  5
420
330
40D
100
AcDbEntity
  8
LC-004-005-----0
 62
     7
370
    25
100
AcDbLine
 10
147.049427
 20
364.838316
 30
0.0
 11
158.596476
 21
376.385365
 31
0.0
  0
LINE
  5
421
330
40D
100
AcDbEntity
  8
LC-004-005-----0
 62
     7
370
    25
100
AcDbLine
 10
146.294672
 20
366.911988
 30
0.0
 11
157.841721
 21
378.459037
 31
0.0
  0
LINE
  5
422
330
40D
100
AcDbEntity
  8
LC-004-005-----0
 62
     7
370
    25
100
AcDbLine
 10
145.539917
 20
368.98566
 30
0.0
 11
157.086966
 21
380.532709
 31
0.0
  0
LINE
  5
423
330
40D
100
AcDbEntity
  8
LC-004-005-----0
 62
     7
370
    25
100
AcDbLine
 10
144.785162
 20
371.059332
 30
0.0
 11
156.332211
 21
382.606381
 31
0.0
  0
LINE
  5
424
330
40D
100
AcDbEntity
  8
LC-004-005-----0
 62
     7
370
    25
100
AcDbLine
 10
144.030407
 20
373.133004
 30
0.0
 11
155.577456
 21
384.680053
 31
0.0
  0
LINE
  5
425
330
40D
100
AcDbEntity
  8
LC-004-005-----0
 62
     7
370
    25
100
AcDbLine
 10
143.275652
 20
375.206677
 30
0.0
 11
154.822701
 21
386.753726
 31
0.0
  0
LINE
  5
426
330
40D
100
AcDbEntity
  8
LC-004-005-----0
 62
     7
370
    25
100
AcDbLine
 10
142.520897
 20
377.280349
 30
0.0
 11
154.067946
 21
388.827398
 31
0.0
  0
LINE
  5
427
330
40D
100
AcDbEntity
  8
LC-004-005-----0
 62
     7
370
    25
100
AcDbLine
 10
141.766142
 20
379.354021
 30
0.0
 11
153.313191
 21
390.90107
 31
0.0
  0
LINE
  5
428
330
40D
100
AcDbEntity
  8
LC-004-005-----0
 62
     7
370
    25
100
AcDbLine
 10
141.011388
 20
381.427693
 30
0.0
 11
152.558436
 21
392.974742
 31
0.0
  0
LINE
  5
429
330
40D
100
AcDbEntity
  8
LC-004-005-----0
 62
     7
370
    25
100
AcDbLine
 10
140.256633
 20
383.501365
 30
0.0
 11
151.803682
 21
395.048414
 31
0.0
  0
LINE
  5
42A
330
40D
100
AcDbEntity
  8
LC-004-005-----0
 62
     7
370
    25
100
AcDbLine
 10
139.501878
 20
385.575037
 30
0.0
 11
151.048927
 21
397.122086
 31
0.0
  0
LINE
  5
42B
330
40D
100
AcDbEntity
  8
LC-004-005-----0
 62
     7
370
    25
100
AcDbLine
 10
138.747123
 20
387.64871
 30
0.0
 11
150.294172
 21
399.195759
 31
0.0
  0
LINE
  5
42C
330
40D
100
AcDbEntity
  8
LC-004-005-----0
 62
     7
370
    25
100
AcDbLine
 10
137.992368
 20
389.722382
 30
0.0
 11
149.539417
 21
401.269431
 31
0.0
  0
LINE
  5
42D
330
40D
100
AcDbEntity
  8
LC-004-005-----0
 62
     7
370
    25
100
AcDbLine
 10
137.237613
 20
391.796054
 30
0.0
 11
148.784662
 21
403.343103
 31
0.0
  0
LINE
  5
42E
330
40D
100
AcDbEntity
  8
LC-004-005-----0
 62
     7
370
    25
100
AcDbLine
 10
136.482858
 20
393.869726
 30
0.0
 11
148.029907
 21
405.416775
 31
0.0
  0
LINE
  5
42F
330
40D
100
AcDbEntity
  8
LC-004-005-----0
 62
     7
370
    25
100
AcDbLine
 10
135.728103
 20
395.943398
 30
0.0
 11
147.275152
 21
407.490447
 31
0.0
  0
LINE
  5
430
330
40D
100
AcDbEntity
  8
LC-004-005-----0
 62
     7
370
    25
100
AcDbLine
 10
134.973348
 20
398.017071
 30
0.0
 11
146.466422
 21
409.510144
 31
0.0
  0
LINE
  5
431
330
40D
100
AcDbEntity
  8
LC-004-005-----0
 62
     7
370
    25
100
AcDbLine
 10
134.218593
 20
400.090743
 30
0.0
 11
145.445135
 21
411.317285
 31
0.0
  0
LINE
  5
432
330
40D
100
AcDbEntity
  8
LC-004-005-----0
 62
     7
370
    25
100
AcDbLine
 10
133.463838
 20
402.164415
 30
0.0
 11
144.222193
 21
412.92277
 31
0.0
  0
LINE
  5
433
330
40D
100
AcDbEntity
  8
LC-004-005-----0
 62
     7
370
    25
100
AcDbLine
 10
132.709083
 20
404.238087
 30
0.0
 11
142.808536
 21
414.33754
 31
0.0
  0
LINE
  5
434
330
40D
100
AcDbEntity
  8
LC-004-005-----0
 62
     7
370
    25
100
AcDbLine
 10
131.954328
 20
406.311759
 30
0.0
 11
141.204193
 21
415.561624
 31
0.0
  0
LINE
  5
435
330
40D
100
AcDbEntity
  8
LC-004-005-----0
 62
     7
370
    25
100
AcDbLine
 10
130.865489
 20
408.051347
 30
0.0
 11
139.398297
 21
416.584155
 31
0.0
  0
LINE
  5
436
330
40D
100
AcDbEntity
  8
LC-004-005-----0
 62
     7
370
    25
100
AcDbLine
 10
128.037066
 20
408.051351
 30
0.0
 11
137.365639
 21
417.379924
 31
0.0
  0
LINE
  5
437
330
40D
100
AcDbEntity
  8
LC-004-005-----0
 62
     7
370
    25
100
AcDbLine
 10
125.208642
 20
408.051355
 30
0.0
 11
135.0568
 21
417.899513
 31
0.0
  0
LINE
  5
438
330
40D
100
AcDbEntity
  8
LC-004-005-----0
 62
     7
370
    25
100
AcDbLine
 10
122.380219
 20
408.051359
 30
0.0
 11
132.380357
 21
418.051497
 31
0.0
  0
LINE
  5
439
330
40D
100
AcDbEntity
  8
LC-004-005-----0
 62
     7
370
    25
100
AcDbLine
 10
119.551796
 20
408.051363
 30
0.0
 11
129.551926
 21
418.051493
 31
0.0
  0
LINE
  5
43A
330
40D
100
AcDbEntity
  8
LC-004-005-----0
 62
     7
370
    25
100
AcDbLine
 10
116.723373
 20
408.051367
 30
0.0
 11
126.723495
 21
418.051489
 31
0.0
  0
LINE
  5
43B
330
40D
100
AcDbEntity
  8
LC-004-005-----0
 62
     7
370
    25
100
AcDbLine
 10
113.89495
 20
408.051371
 30
0.0
 11
123.895064
 21
418.051485
 31
0.0
  0
LINE
  5
43C
330
40D
100
AcDbEntity
  8
LC-004-005-----0
 62
     7
370
    25
100
AcDbLine
 10
111.066526
 20
408.051374
 30
0.0
 11
121.066633
 21
418.051481
 31
0.0
  0
LINE
  5
43D
330
40D
100
AcDbEntity
  8
LC-004-005-----0
 62
     7
370
    25
100
AcDbLine
 10
108.238103
 20
408.051378
 30
0.0
 11
118.238202
 21
418.051477
 31
0.0
  0
LINE
  5
43E
330
40D
100
AcDbEntity
  8
LC-004-005-----0
 62
     7
370
    25
100
AcDbLine
 10
105.40968
 20
408.051382
 30
0.0
 11
115.409771
 21
418.051473
 31
0.0
  0
LINE
  5
43F
330
40D
100
AcDbEntity
  8
LC-004-005-----0
 62
     7
370
    25
100
AcDbLine
 10
102.581257
 20
408.051386
 30
0.0
 11
112.58134
 21
418.051469
 31
0.0
  0
LINE
  5
440
330
40D
100
AcDbEntity
  8
LC-004-005-----0
 62
     7
370
    25
100
AcDbLine
 10
99.752834
 20
408.05139
 30
0.0
 11
109.752909
 21
418.051466
 31
0.0
  0
LINE
  5
441
330
40D
100
AcDbEntity
  8
LC-004-005-----0
 62
     7
370
    25
100
AcDbLine
 10
96.92441
 20
408.051394
 30
0.0
 11
106.924478
 21
418.051462
 31
0.0
  0
LINE
  5
442
330
40D
100
AcDbEntity
  8
LC-004-005-----0
 62
     7
370
    25
100
AcDbLine
 10
94.095987
 20
408.051398
 30
0.0
 11
104.096047
 21
418.051458
 31
0.0
  0
LINE
  5
443
330
40D
100
AcDbEntity
  8
LC-004-005-----0
 62
     7
370
    25
100
AcDbLine
 10
91.267564
 20
408.051402
 30
0.0
 11
101.267616
 21
418.051454
 31
0.0
  0
LINE
  5
444
330
40D
100
AcDbEntity
  8
LC-004-005-----0
 62
     7
370
    25
100
AcDbLine
 10
88.439141
 20
408.051406
 30
0.0
 11
98.439185
 21
418.05145
 31
0.0
  0
LINE
  5
445
330
40D
100
AcDbEntity
  8
LC-004-005-----0
 62
     7
370
    25
100
AcDbLine
 10
85.610717
 20
408.05141
 30
0.0
 11
95.610754
 21
418.051446
 31
0.0
  0
LINE
  5
446
330
40D
100
AcDbEntity
  8
LC-004-005-----0
 62
     7
370
    25
100
AcDbLine
 10
82.782294
 20
408.051414
 30
0.0
 11
92.782323
 21
418.051442
 31
0.0
  0
LINE
  5
447
330
40D
100
AcDbEntity
  8
LC-004-005-----0
 62
     7
370
    25
100
AcDbLine
 10
79.953871
 20
408.051417
 30
0.0
 11
89.953892
 21
418.051438
 31
0.0
  0
LINE
  5
448
330
40D
100
AcDbEntity
  8
LC-004-005-----0
 62
     7
370
    25
100
AcDbLine
 10
77.125448
 20
408.051421
 30
0.0
 11
87.125461
 21
418.051434
 31
0.0
  0
LINE
  5
449
330
40D
100
AcDbEntity
  8
LC-004-005-----0
 62
     7
370
    25
100
AcDbLine
 10
74.297025
 20
408.051425
 30
0.0
 11
84.29703
 21
418.051431
 31
0.0
  0
LINE
  5
44A
330
40D
100
AcDbEntity
  8
LC-004-005-----0
 62
     7
370
    25
100
AcDbLine
 10
71.468601
 20
408.051429
 30
0.0
 11
81.468599
 21
418.051427
 31
0.0
  0
LINE
  5
44B
330
40D
100
AcDbEntity
  8
LC-004-005-----0
 62
     7
370
    25
100
AcDbLine
 10
70.004031
 20
409.415286
 30
0.0
 11
78.640168
 21
418.051423
 31
0.0
  0
LINE
  5
44C
330
40D
100
AcDbEntity
  8
LC-004-005-----0
 62
     7
370
    25
100
AcDbLine
 10
70.004024
 20
412.243706
 30
0.0
 11
75.811737
 21
418.051419
 31
0.0
  0
LINE
  5
44D
330
40D
100
AcDbEntity
  8
LC-004-005-----0
 62
     7
370
    25
100
AcDbLine
 10
69.983299
 20
415.051408
 30
0.0
 11
72.983306
 21
418.051415
 31
0.0
  0
LINE
  5
44E
330
40D
100
AcDbEntity
  8
LC-004-005-----0
 62
     7
370
    25
100
AcDbLine
 10
60.154908
 20
408.051445
 30
0.0
 11
61.004574
 21
408.90111
 31
0.0
  0
LINE
  5
44F
330
40D
100
AcDbEntity
  8
LC-004-005-----0
 62
     7
370
    25
100
AcDbLine
 10
67.154868
 20
415.051404
 30
0.0
 11
70.154875
 21
418.051411
 31
0.0
  0
LINE
  5
450
330
40D
100
AcDbEntity
  8
LC-004-005-----0
 62
     7
370
    25
100
AcDbLine
 10
57.326485
 20
408.051449
 30
0.0
 11
61.004574
 21
411.729537
 31
0.0
  0
LINE
  5
451
330
40D
100
AcDbEntity
  8
LC-004-005-----0
 62
     7
370
    25
100
AcDbLine
 10
64.326437
 20
415.0514
 30
0.0
 11
67.326444
 21
418.051407
 31
0.0
  0
LINE
  5
452
330
40D
100
AcDbEntity
  8
LC-004-005-----0
 62
     7
370
    25
100
AcDbLine
 10
54.498062
 20
408.051453
 30
0.0
 11
61.004574
 21
414.557965
 31
0.0
  0
LINE
  5
453
330
40D
100
AcDbEntity
  8
LC-004-005-----0
 62
     7
370
    25
100
AcDbLine
 10
61.498006
 20
415.051396
 30
0.0
 11
64.498013
 21
418.051403
 31
0.0
  0
LINE
  5
454
330
40D
100
AcDbEntity
  8
LC-004-005-----0
 62
     7
370
    25
100
AcDbLine
 10
51.669639
 20
408.051457
 30
0.0
 11
61.669582
 21
418.0514
 31
0.0
  0
LINE
  5
455
330
40D
100
AcDbEntity
  8
LC-004-005-----0
 62
     7
370
    25
100
AcDbLine
 10
48.841216
 20
408.05146
 30
0.0
 11
58.841151
 21
418.051396
 31
0.0
  0
LINE
  5
456
330
40D
100
AcDbEntity
  8
LC-004-005-----0
 62
     7
370
    25
100
AcDbLine
 10
46.012792
 20
408.051464
 30
0.0
 11
56.01272
 21
418.051392
 31
0.0
  0
LINE
  5
457
330
40D
100
AcDbEntity
  8
LC-004-005-----0
 62
     7
370
    25
100
AcDbLine
 10
43.184369
 20
408.051468
 30
0.0
 11
53.184289
 21
418.051388
 31
0.0
  0
LINE
  5
458
330
40D
100
AcDbEntity
  8
LC-004-005-----0
 62
     7
370
    25
100
AcDbLine
 10
-24.644187
 20
343.05134
 30
0.0
 11
-23.585226
 21
344.1103
 31
0.0
  0
LINE
  5
459
330
40D
100
AcDbEntity
  8
LC-004-005-----0
 62
     7
370
    25
100
AcDbLine
 10
40.355946
 20
408.051472
 30
0.0
 11
50.355858
 21
418.051384
 31
0.0
  0
LINE
  5
45A
330
40D
100
AcDbEntity
  8
LC-004-005-----0
 62
     7
370
    25
100
AcDbLine
 10
-27.472614
 20
343.05134
 30
0.0
 11
-21.966649
 21
348.557304
 31
0.0
  0
LINE
  5
45B
330
40D
100
AcDbEntity
  8
LC-004-005-----0
 62
     7
370
    25
100
AcDbLine
 10
37.527523
 20
408.051476
 30
0.0
 11
47.527427
 21
418.05138
 31
0.0
  0
LINE
  5
45C
330
40D
100
AcDbEntity
  8
LC-004-005-----0
 62
     7
370
    25
100
AcDbLine
 10
-30.301041
 20
343.05134
 30
0.0
 11
-20.348072
 21
353.004309
 31
0.0
  0
LINE
  5
45D
330
40D
100
AcDbEntity
  8
LC-004-005-----0
 62
     7
370
    25
100
AcDbLine
 10
34.6991
 20
408.05148
 30
0.0
 11
44.698996
 21
418.051376
 31
0.0
  0
LINE
  5
45E
330
40D
100
AcDbEntity
  8
LC-004-005-----0
 62
     7
370
    25
100
AcDbLine
 10
-33.129468
 20
343.05134
 30
0.0
 11
-18.729495
 21
357.451313
 31
0.0
  0
LINE
  5
45F
330
40D
100
AcDbEntity
  8
LC-004-005-----0
 62
     7
370
    25
100
AcDbLine
 10
31.870676
 20
408.051484
 30
0.0
 11
41.870565
 21
418.051372
 31
0.0
  0
LINE
  5
460
330
40D
100
AcDbEntity
  8
LC-004-005-----0
 62
     7
370
    25
100
AcDbLine
 10
-35.957895
 20
343.05134
 30
0.0
 11
-17.110917
 21
361.898317
 31
0.0
  0
LINE
  5
461
330
40D
100
AcDbEntity
  8
LC-004-005-----0
 62
     7
370
    25
100
AcDbLine
 10
29.042253
 20
408.051488
 30
0.0
 11
39.042134
 21
418.051369
 31
0.0
  0
LINE
  5
462
330
40D
100
AcDbEntity
  8
LC-004-005-----0
 62
     7
370
    25
100
AcDbLine
 10
-38.786322
 20
343.05134
 30
0.0
 11
-15.49234
 21
366.345322
 31
0.0
  0
LINE
  5
463
330
40D
100
AcDbEntity
  8
LC-004-005-----0
 62
     7
370
    25
100
AcDbLine
 10
26.21383
 20
408.051492
 30
0.0
 11
36.213703
 21
418.051365
 31
0.0
  0
LINE
  5
464
330
40D
100
AcDbEntity
  8
LC-004-005-----0
 62
     7
370
    25
100
AcDbLine
 10
-38.636489
 20
346.0296
 30
0.0
 11
-13.873763
 21
370.792326
 31
0.0
  0
LINE
  5
465
330
40D
100
AcDbEntity
  8
LC-004-005-----0
 62
     7
370
    25
100
AcDbLine
 10
23.385407
 20
408.051496
 30
0.0
 11
33.385272
 21
418.051361
 31
0.0
  0
LINE
  5
466
330
40D
100
AcDbEntity
  8
LC-004-005-----0
 62
     7
370
    25
100
AcDbLine
 10
-37.017912
 20
350.476604
 30
0.0
 11
-12.255186
 21
375.23933
 31
0.0
  0
LINE
  5
467
330
40D
100
AcDbEntity
  8
LC-004-005-----0
 62
     7
370
    25
100
AcDbLine
 10
20.556983
 20
408.0515
 30
0.0
 11
30.556841
 21
418.051357
 31
0.0
  0
LINE
  5
468
330
40D
100
AcDbEntity
  8
LC-004-005-----0
 62
     7
370
    25
100
AcDbLine
 10
-35.399335
 20
354.923608
 30
0.0
 11
-10.636609
 21
379.686335
 31
0.0
  0
LINE
  5
469
330
40D
100
AcDbEntity
  8
LC-004-005-----0
 62
     7
370
    25
100
AcDbLine
 10
17.72856
 20
408.051503
 30
0.0
 11
27.72841
 21
418.051353
 31
0.0
  0
LINE
  5
46A
330
40D
100
AcDbEntity
  8
LC-004-005-----0
 62
     7
370
    25
100
AcDbLine
 10
-33.780758
 20
359.370613
 30
0.0
 11
-9.018031
 21
384.133339
 31
0.0
  0
LINE
  5
46B
330
40D
100
AcDbEntity
  8
LC-004-005-----0
 62
     7
370
    25
100
AcDbLine
 10
14.900137
 20
408.051507
 30
0.0
 11
24.899979
 21
418.051349
 31
0.0
  0
LINE
  5
46C
330
40D
100
AcDbEntity
  8
LC-004-005-----0
 62
     7
370
    25
100
AcDbLine
 10
-32.162181
 20
363.817617
 30
0.0
 11
-7.399454
 21
388.580343
 31
0.0
  0
LINE
  5
46D
330
40D
100
AcDbEntity
  8
LC-004-005-----0
 62
     7
370
    25
100
AcDbLine
 10
12.071714
 20
408.051511
 30
0.0
 11
22.071548
 21
418.051345
 31
0.0
  0
LINE
  5
46E
330
40D
100
AcDbEntity
  8
LC-004-005-----0
 62
     7
370
    25
100
AcDbLine
 10
-30.543603
 20
368.264621
 30
0.0
 11
-5.780877
 21
393.027348
 31
0.0
  0
LINE
  5
46F
330
40D
100
AcDbEntity
  8
LC-004-005-----0
 62
     7
370
    25
100
AcDbLine
 10
9.243291
 20
408.051515
 30
0.0
 11
19.243117
 21
418.051341
 31
0.0
  0
LINE
  5
470
330
40D
100
AcDbEntity
  8
LC-004-005-----0
 62
     7
370
    25
100
AcDbLine
 10
-28.925026
 20
372.711626
 30
0.0
 11
-4.1623
 21
397.474352
 31
0.0
  0
LINE
  5
471
330
40D
100
AcDbEntity
  8
LC-004-005-----0
 62
     7
370
    25
100
AcDbLine
 10
6.414867
 20
408.051519
 30
0.0
 11
16.414686
 21
418.051337
 31
0.0
  0
LINE
  5
472
330
40D
100
AcDbEntity
  8
LC-004-005-----0
 62
     7
370
    25
100
AcDbLine
 10
-27.306449
 20
377.15863
 30
0.0
 11
-2.543723
 21
401.921356
 31
0.0
  0
LINE
  5
473
330
40D
100
AcDbEntity
  8
LC-004-005-----0
 62
     7
370
    25
100
AcDbLine
 10
3.586444
 20
408.051523
 30
0.0
 11
13.586255
 21
418.051334
 31
0.0
  0
LINE
  5
474
330
40D
100
AcDbEntity
  8
LC-004-005-----0
 62
     7
370
    25
100
AcDbLine
 10
-25.687872
 20
381.605634
 30
0.0
 11
-0.925145
 21
406.368361
 31
0.0
  0
LINE
  5
475
330
40D
100
AcDbEntity
  8
LC-004-005-----0
 62
     7
370
    25
100
AcDbLine
 10
0.758021
 20
408.051527
 30
0.0
 11
10.757824
 21
418.05133
 31
0.0
  0
LINE
  5
476
330
40D
100
AcDbEntity
  8
LC-004-005-----0
 62
     7
370
    25
100
AcDbLine
 10
-24.069294
 20
386.052639
 30
0.0
 11
7.929393
 21
418.051326
 31
0.0
  0
LINE
  5
477
330
40D
100
AcDbEntity
  8
LC-004-005-----0
 62
     7
370
    25
100
AcDbLine
 10
-22.450717
 20
390.499643
 30
0.0
 11
5.100962
 21
418.051322
 31
0.0
  0
LINE
  5
478
330
40D
100
AcDbEntity
  8
LC-004-005-----0
 62
     7
370
    25
100
AcDbLine
 10
-20.83214
 20
394.946647
 30
0.0
 11
2.272531
 21
418.051318
 31
0.0
  0
LINE
  5
479
330
40D
100
AcDbEntity
  8
LC-004-005-----0
 62
     7
370
    25
100
AcDbLine
 10
-19.213563
 20
399.393652
 30
0.0
 11
-0.5559
 21
418.051314
 31
0.0
  0
LINE
  5
47A
330
40D
100
AcDbEntity
  8
LC-004-005-----0
 62
     7
370
    25
100
AcDbLine
 10
-17.594986
 20
403.840656
 30
0.0
 11
-3.46405
 21
417.971591
 31
0.0
  0
LINE
  5
47B
330
40D
100
AcDbEntity
  8
LC-004-005-----0
 62
     7
370
    25
100
AcDbLine
 10
-15.975686
 20
408.288382
 30
0.0
 11
-7.156687
 21
417.107382
 31
0.0
  0
ENDBLK
  5
40F
330
40D
100
AcDbEntity
  8
0
100
AcDbBlockEnd
  0
ENDSEC
  0
SECTION
  2
ENTITIES
  0
LINE
  5
31
102
{ACAD_REACTORS
330
47D
102
}
330
1F
100
AcDbEntity
  8
LC-001-002-----0
 62
     7
370
    50
100
AcDbLine
 10
131.504413
 20
278.047146
 30
0.0
 11
110.504413
 21
246.05134
 31
0.0
  0
LINE
  5
32
102
{ACAD_REACTORS
330
47D
102
}
330
1F
100
AcDbEntity
  8
LC-001-002-----0
 62
     7
370
    50
100
AcDbLine
 10
2.565271
 20
278.850994
 30
0.0
 11
128.443554
 21
278.850994
 31
0.0
  0
LINE
  5
33
102
{ACAD_REACTORS
330
47D
102
}
330
1F
100
AcDbEntity
  8
LC-001-002-----0
 62
     7
370
    50
100
AcDbLine
 10
2.504413
 20
278.943719
 30
0.0
 11
23.504413
 21
246.947912
 31
0.0
  0
LINE
  5
34
102
{ACAD_REACTORS
330
47D
102
}
330
1F
100
AcDbEntity
  8
LC-001-002-----0
 62
     7
370
    50
100
AcDbLine
 10
23.504413
 20
246.947912
 30
0.0
 11
107.504413
 21
246.947912
 31
0.0
  0
LINE
  5
35
102
{ACAD_REACTORS
330
47D
102
}
330
1F
100
AcDbEntity
  8
LC-001-002-----0
 62
     7
370
    50
100
AcDbLine
 10
133.504413
 20
308.050121
 30
0.0
 11
128.504413
 21
308.050121
 31
0.0
  0
LINE
  5
36
102
{ACAD_REACTORS
330
47D
102
}
330
1F
100
AcDbEntity
  8
LC-001-002-----0
 62
     7
370
    50
100
AcDbLine
 10
-2.495587
 20
305.050121
 30
0.0
 11
-0.495587
 21
305.050121
 31
0.0
  0
LINE
  5
37
102
{ACAD_REACTORS
330
47D
102
}
330
1F
100
AcDbEntity
  8
LC-001-002-----0
 62
     7
370
    50
100
AcDbLine
 10
-2.495587
 20
308.050121
 30
0.0
 11
128.504413
 21
308.050121
 31
0.0
  0
ARC
  5
39
102
{ACAD_REACTORS
330
47D
102
}
330
1F
100
AcDbEntity
  8
LC-002-002-RND-0
 62
     7
370
    50
100
AcDbCircle
 10
-2.495587
 20
308.050121
 30
0.0
 40
3.0
100
AcDbArc
 50
180.0
 51
270.0
  0
ARC
  5
3A
102
{ACAD_REACTORS
330
47D
102
}
330
1F
100
AcDbEntity
  8
LC-002-002-RND-0
 62
     7
370
    50
100
AcDbCircle
 10
133.504413
 20
308.050121
 30
0.0
 40
3.0
100
AcDbArc
 50
270.0
 51
0.0
  0
LINE
  5
3B
102
{ACAD_REACTORS
330
47D
102
}
330
1F
100
AcDbEntity
  8
LC-001-002-----0
 62
     7
370
    50
100
AcDbLine
 10
-5.495587
 20
340.05134
 30
0.0
 11
-5.495587
 21
308.050121
 31
0.0
  0
LINE
  5
3C
102
{ACAD_REACTORS
330
47D
102
}
330
1F
100
AcDbEntity
  8
LC-001-002-----0
 62
     7
370
    50
100
AcDbLine
 10
-0.495587
 20
305.050121
 30
0.0
 11
-0.495587
 21
278.047146
 31
0.0
  0
LINE
  5
3D
102
{ACAD_REACTORS
330
47D
102
}
330
1F
100
AcDbEntity
  8
LC-001-002-----0
 62
     7
370
    50
100
AcDbLine
 10
2.504413
 20
308.050121
 30
0.0
 11
2.504413
 21
278.943719
 31
0.0
  0
LINE
  5
3E
102
{ACAD_REACTORS
330
47D
102
}
330
1F
100
AcDbEntity
  8
LC-001-002-----0
 62
     7
370
    50
100
AcDbLine
 10
20.504413
 20
246.05134
 30
0.0
 11
20.504413
 21
-111.44866
 31
0.0
  0
LINE
  5
3F
102
{ACAD_REACTORS
330
47D
102
}
330
1F
100
AcDbEntity
  8
LC-001-002-----0
 62
     7
370
    50
100
AcDbLine
 10
23.504413
 20
246.947912
 30
0.0
 11
23.504413
 21
-115.94866
 31
0.0
  0
LINE
  5
40
102
{ACAD_REACTORS
330
47D
102
}
330
1F
100
AcDbEntity
  8
LC-001-002-----0
 62
     7
370
    50
100
AcDbLine
 10
21.710184
 20
-115.94866
 30
0.0
 11
20.504413
 21
-111.44866
 31
0.0
  0
LINE
  5
41
102
{ACAD_REACTORS
330
47D
102
}
330
1F
100
AcDbEntity
  8
LC-001-002-----0
 62
     7
370
    50
100
AcDbLine
 10
65.504413
 20
-115.94866
 30
0.0
 11
21.710184
 21
-115.94866
 31
0.0
  0
LINE
  5
42
102
{ACAD_REACTORS
330
47D
102
}
330
1F
100
AcDbEntity
  8
LC-001-002-----0
 62
     7
370
    50
100
AcDbLine
 10
-111.495587
 20
340.05134
 30
0.0
 11
-111.495587
 21
341.05134
 31
0.0
  0
LINE
  5
43
102
{ACAD_REACTORS
330
47D
102
}
330
1F
100
AcDbEntity
  8
LC-001-002-----0
 62
     7
370
    50
100
AcDbLine
 10
-111.495587
 20
340.05134
 30
0.0
 11
-5.495587
 21
340.05134
 31
0.0
  0
ARC
  5
44
102
{ACAD_REACTORS
330
47D
102
}
330
1F
100
AcDbEntity
  8
LC-002-002-RND-0
 62
     7
370
    50
100
AcDbCircle
 10
-109.495587
 20
341.05134
 30
0.0
 40
2.0
100
AcDbArc
 50
90.0
 51
180.0
  0
LINE
  5
45
102
{ACAD_REACTORS
330
47D
102
}
330
1F
100
AcDbEntity
  8
LC-001-002-----0
 62
     7
370
    50
100
AcDbLine
 10
-2.495587
 20
339.050017
 30
0.0
 11
-2.495587
 21
339.05134
 31
0.0
  0
LINE
  5
46
102
{ACAD_REACTORS
330
47D
102
}
330
1F
100
AcDbEntity
  8
LC-001-002-----0
 62
     7
370
    50
100
AcDbLine
 10
-3.031485
 20
343.05134
 30
0.0
 11
-109.495587
 21
343.05134
 31
0.0
  0
LINE
  5
47
102
{ACAD_REACTORS
330
47D
102
}
330
1F
100
AcDbEntity
  8
LC-001-002-----0
 62
     7
370
    50
100
AcDbLine
 10
133.504413
 20
305.050121
 30
0.0
 11
131.504413
 21
305.050121
 31
0.0
  0
LINE
  5
48
102
{ACAD_REACTORS
330
47D
102
}
330
1F
100
AcDbEntity
  8
LC-001-002-----0
 62
     7
370
    50
100
AcDbLine
 10
136.504413
 20
340.05134
 30
0.0
 11
136.504413
 21
308.050121
 31
0.0
  0
LINE
  5
49
102
{ACAD_REACTORS
330
47D
102
}
330
1F
100
AcDbEntity
  8
LC-001-002-----0
 62
     7
370
    50
100
AcDbLine
 10
131.504413
 20
305.050121
 30
0.0
 11
131.504413
 21
278.047146
 31
0.0
  0
LINE
  5
4A
102
{ACAD_REACTORS
330
47D
102
}
330
1F
100
AcDbEntity
  8
LC-001-002-----0
 62
     7
370
    50
100
AcDbLine
 10
128.504413
 20
308.050121
 30
0.0
 11
128.504413
 21
278.943719
 31
0.0
  0
LINE
  5
4B
102
{ACAD_REACTORS
330
47D
102
}
330
1F
100
AcDbEntity
  8
LC-001-002-----0
 62
     7
370
    50
100
AcDbLine
 10
110.504413
 20
246.05134
 30
0.0
 11
110.504413
 21
-111.44866
 31
0.0
  0
LINE
  5
4E
102
{ACAD_REACTORS
330
47D
102
}
330
1F
100
AcDbEntity
  8
LC-003-006-MLN-0
 62
     7
370
    25
100
AcDbLine
 10
65.504413
 20
353.05134
 30
0.0
 11
65.504413
 21
-125.94866
 31
0.0
  0
LINE
  5
4F
102
{ACAD_REACTORS
330
47D
102
}
330
1F
100
AcDbEntity
  8
LC-001-002-----0
 62
     7
370
    50
100
AcDbLine
 10
107.504413
 20
246.947912
 30
0.0
 11
107.504413
 21
-115.94866
 31
0.0
  0
LINE
  5
50
102
{ACAD_REACTORS
330
47D
102
}
330
1F
100
AcDbEntity
  8
LC-001-002-----0
 62
     7
370
    50
100
AcDbLine
 10
109.298642
 20
-115.94866
 30
0.0
 11
110.504413
 21
-111.44866
 31
0.0
  0
LINE
  5
51
102
{ACAD_REACTORS
330
47D
102
}
330
1F
100
AcDbEntity
  8
LC-001-002-----0
 62
     7
370
    50
100
AcDbLine
 10
65.504413
 20
-115.94866
 30
0.0
 11
109.298642
 21
-115.94866
 31
0.0
  0
LINE
  5
52
102
{ACAD_REACTORS
330
47D
102
}
330
1F
100
AcDbEntity
  8
LC-001-002-----0
 62
     7
370
    50
100
AcDbLine
 10
242.504413
 20
340.05134
 30
0.0
 11
242.504413
 21
341.05134
 31
0.0
  0
LINE
  5
53
102
{ACAD_REACTORS
330
47D
102
}
330
1F
100
AcDbEntity
  8
LC-001-002-----0
 62
     7
370
    50
100
AcDbLine
 10
242.504413
 20
340.05134
 30
0.0
 11
136.504413
 21
340.05134
 31
0.0
  0
ARC
  5
54
102
{ACAD_REACTORS
330
47D
102
}
330
1F
100
AcDbEntity
  8
LC-002-002-RND-0
 62
     7
370
    50
100
AcDbCircle
 10
240.504413
 20
341.05134
 30
0.0
 40
2.0
100
AcDbArc
 50
360.0
 51
90.0
  0
LINE
  5
55
102
{ACAD_REACTORS
330
47D
102
}
330
1F
100
AcDbEntity
  8
LC-001-002-----0
 62
     7
370
    50
100
AcDbLine
 10
134.040311
 20
343.05134
 30
0.0
 11
240.504413
 21
343.05134
 31
0.0
  0
LINE
  5
56
102
{ACAD_REACTORS
330
47D
102
}
330
1F
100
AcDbEntity
  8
LC-001-002-----0
 62
     7
370
    50
100
AcDbLine
 10
-2.495587
 20
308.050121
 30
0.0
 11
-2.495587
 21
341.05134
 31
0.0
  0
LINE
  5
57
102
{ACAD_REACTORS
330
47D
102
}
330
1F
100
AcDbEntity
  8
LC-001-002-----0
 62
     7
370
    50
100
AcDbLine
 10
133.504413
 20
308.050121
 30
0.0
 11
133.504413
 21
341.05134
 31
0.0
  0
LINE
  5
58
102
{ACAD_REACTORS
330
47D
102
}
330
1F
100
AcDbEntity
  8
LC-001-002-----0
 62
     7
370
    50
100
AcDbLine
 10
-0.495587
 20
278.047146
 30
0.0
 11
20.504413
 21
246.05134
 31
0.0
  0
LINE
  5
59
102
{ACAD_REACTORS
330
47D
102
}
330
1F
100
AcDbEntity
  8
LC-001-002-----0
 62
     7
370
    50
100
AcDbLine
 10
128.504413
 20
278.943719
 30
0.0
 11
107.504413
 21
246.947912
 31
0.0
  0
INSERT
  5
12A
102
{ACAD_REACTORS
330
47D
102
}
330
1F
100
AcDbEntity
  8
LC-004-005-----0
 62
     7
370
    25
100
AcDbBlockReference
  2
*X11
 10
0.0
 20
0.0
 30
0.0
  0
LINE
  5
12B
330
1F
100
AcDbEntity
  8
LC-001-002-----0
 62
     7
370
    50
100
AcDbLine
 10
-2.495587
 20
341.05134
 30
0.0
 11
133.504413
 21
341.05134
 31
0.0
  0
LINE
  5
12C
102
{ACAD_REACTORS
330
47D
102
}
330
1F
100
AcDbEntity
  8
LC-001-002-----0
 62
     7
370
    50
100
AcDbLine
 10
133.504413
 20
341.05134
 30
0.0
 11
134.040311
 21
343.05134
 31
0.0
  0
LINE
  5
12D
102
{ACAD_REACTORS
330
47D
102
}
330
1F
100
AcDbEntity
  8
LC-001-002-----0
 62
     7
370
    50
100
AcDbLine
 10
-2.495587
 20
341.05134
 30
0.0
 11
-3.031485
 21
343.05134
 31
0.0
  0
LINE
  5
12F
330
1F
100
AcDbEntity
  8
LC-001-002-----0
  6
DASHDOT
 62
     7
370
    25
100
AcDbLine
 10
-100.995587
 20
340.05134
 30
0.0
 11
-100.995587
 21
343.05134
 31
0.0
  0
LINE
  5
130
330
1F
100
AcDbEntity
  8
LC-001-002-----0
  6
DASHDOT
 62
     7
370
    25
100
AcDbLine
 10
232.004413
 20
340.05134
 30
0.0
 11
232.004413
 21
343.05134
 31
0.0
  0
DIMENSION
  5
134
330
1F
100
AcDbEntity
  8
LC-005-003-----0
 62
     7
370
    25
100
AcDbDimension
  2
*D2
 10
110.504413
 20
-173.4
 30
0.0
 11
62.620778
 21
-142.6
 31
0.0
 70
   160
  1
%%c<>
 71
     5
 42
90.0
 53
360.0
  3
LC-DIM-L-0140-02-02
100
AcDbAlignedDimension
 13
20.504413
 23
-111.44866
 33
0.0
 14
110.504413
 24
-111.44866
 34
0.0
 50
360.0
100
AcDbRotatedDimension
  0
DIMENSION
  5
143
330
1F
100
AcDbEntity
  8
LC-005-003-----0
 62
     7
370
    25
100
AcDbDimension
  2
*D3
 10
180.459182
 20
194.03131
 30
0.0
 11
149.659182
 21
39.041325
 31
0.0
 70
   160
 71
     5
 42
309.97997
 53
90.0
  3
LC-DIM-L-0140-01-02
100
AcDbAlignedDimension
 13
109.298642
 23
-115.94866
 33
0.0
 14
118.961524
 24
194.03131
 34
0.0
 50
90.0
100
AcDbRotatedDimension
  0
ARC
  5
150
102
{ACAD_REACTORS
330
47E
102
}
330
1F
100
AcDbEntity
  8
LC-002-002-RND-0
 62
     7
370
    50
100
AcDbCircle
 10
19.004413
 20
169.87215
 30
0.0
 40
0.5
100
AcDbArc
 50
270.0
 51
360.0
  0
ARC
  5
151
102
{ACAD_REACTORS
330
47E
102
}
330
1F
100
AcDbEntity
  8
LC-002-002-RND-0
 62
     7
370
    50
100
AcDbCircle
 10
19.004413
 20
120.551487
 30
0.0
 40
0.5
100
AcDbArc
 50
270.0
 51
360.0
  0
ARC
  5
152
102
{ACAD_REACTORS
330
47E
102
}
330
1F
100
AcDbEntity
  8
LC-002-002-RND-0
 62
     7
370
    50
100
AcDbCircle
 10
19.004413
 20
145.211818
 30
0.0
 40
0.5
100
AcDbArc
 50
270.0
 51
360.0
  0
ARC
  5
153
102
{ACAD_REACTORS
330
47E
102
}
330
1F
100
AcDbEntity
  8
LC-002-002-RND-0
 62
     7
370
    50
100
AcDbCircle
 10
18.504413
 20
116.571765
 30
0.0
 40
1.0
100
AcDbArc
 50
360.0
 51
84.0
  0
LINE
  5
154
102
{ACAD_REACTORS
330
47E
102
}
330
1F
100
AcDbEntity
  8
LC-001-002-----0
 62
     7
370
    50
100
AcDbLine
 10
19.504413
 20
-105.371216
 30
0.0
 11
19.504413
 21
-105.44866
 31
0.0
  0
LINE
  5
155
102
{ACAD_REACTORS
330
47E
102
}
330
1F
100
AcDbEntity
  8
LC-001-002-----0
 62
     7
370
    50
100
AcDbLine
 10
4.452149
 20
69.733564
 30
0.0
 11
18.608941
 21
68.245625
 31
0.0
  0
ARC
  5
156
102
{ACAD_REACTORS
330
47E
102
}
330
1F
100
AcDbEntity
  8
LC-002-002-RND-0
 62
     7
370
    50
100
AcDbCircle
 10
4.504413
 20
119.551487
 30
0.0
 40
0.5
100
AcDbArc
 50
90.0
 51
264.0
  0
ARC
  5
157
102
{ACAD_REACTORS
330
47E
102
}
330
1F
100
AcDbEntity
  8
LC-002-002-RND-0
 62
     7
370
    50
100
AcDbCircle
 10
18.504413
 20
67.251103
 30
0.0
 40
1.0
100
AcDbArc
 50
360.0
 51
84.0
  0
LINE
  5
158
102
{ACAD_REACTORS
330
47E
102
}
330
1F
100
AcDbEntity
  8
LC-001-002-----0
 62
     7
370
    50
100
AcDbLine
 10
4.452149
 20
94.393895
 30
0.0
 11
18.608941
 21
92.905956
 31
0.0
  0
ARC
  5
159
102
{ACAD_REACTORS
330
47E
102
}
330
1F
100
AcDbEntity
  8
LC-002-002-RND-0
 62
     7
370
    50
100
AcDbCircle
 10
18.504413
 20
91.911434
 30
0.0
 40
1.0
100
AcDbArc
 50
360.0
 51
84.0
  0
ARC
  5
15A
102
{ACAD_REACTORS
330
47E
102
}
330
1F
100
AcDbEntity
  8
LC-002-002-RND-0
 62
     7
370
    50
100
AcDbCircle
 10
4.504413
 20
70.230825
 30
0.0
 40
0.499999999928832
100
AcDbArc
 50
90.0
 51
264.0
  0
ARC
  5
15B
102
{ACAD_REACTORS
330
47E
102
}
330
1F
100
AcDbEntity
  8
LC-002-002-RND-0
 62
     7
370
    50
100
AcDbCircle
 10
4.504413
 20
94.891156
 30
0.0
 40
0.499999999928832
100
AcDbArc
 50
90.0
 51
264.0
  0
LINE
  5
15C
102
{ACAD_REACTORS
330
47E
102
}
330
1F
100
AcDbEntity
  8
LC-001-002-----0
 62
     7
370
    50
100
AcDbLine
 10
4.452149
 20
45.073232
 30
0.0
 11
18.608941
 21
43.585293
 31
0.0
  0
ARC
  5
15D
102
{ACAD_REACTORS
330
47E
102
}
330
1F
100
AcDbEntity
  8
LC-002-002-RND-0
 62
     7
370
    50
100
AcDbCircle
 10
18.504413
 20
42.590771
 30
0.0
 40
1.0
100
AcDbArc
 50
360.0
 51
84.0
  0
ARC
  5
15E
102
{ACAD_REACTORS
330
47E
102
}
330
1F
100
AcDbEntity
  8
LC-002-002-RND-0
 62
     7
370
    50
100
AcDbCircle
 10
4.504413
 20
45.570493
 30
0.0
 40
0.499999999928832
100
AcDbArc
 50
90.0
 51
264.0
  0
LINE
  5
15F
102
{ACAD_REACTORS
330
47E
102
}
330
1F
100
AcDbEntity
  8
LC-001-002-----0
 62
     7
370
    50
100
AcDbLine
 10
4.452149
 20
20.412901
 30
0.0
 11
18.608941
 21
18.924962
 31
0.0
  0
ARC
  5
160
102
{ACAD_REACTORS
330
47E
102
}
330
1F
100
AcDbEntity
  8
LC-002-002-RND-0
 62
     7
370
    50
100
AcDbCircle
 10
18.504413
 20
17.93044
 30
0.0
 40
1.0
100
AcDbArc
 50
360.0
 51
84.0
  0
ARC
  5
161
102
{ACAD_REACTORS
330
47E
102
}
330
1F
100
AcDbEntity
  8
LC-002-002-RND-0
 62
     7
370
    50
100
AcDbCircle
 10
4.504413
 20
20.910162
 30
0.0
 40
0.499999999928832
100
AcDbArc
 50
90.0
 51
264.0
  0
LINE
  5
162
102
{ACAD_REACTORS
330
47E
102
}
330
1F
100
AcDbEntity
  8
LC-001-002-----0
 62
     7
370
    50
100
AcDbLine
 10
4.504413
 20
95.391156
 30
0.0
 11
19.004413
 21
95.391156
 31
0.0
  0
LINE
  5
163
102
{ACAD_REACTORS
330
47E
102
}
330
1F
100
AcDbEntity
  8
LC-001-002-----0
 62
     7
370
    50
100
AcDbLine
 10
4.452149
 20
-4.24743
 30
0.0
 11
18.608941
 21
-5.735369
 31
0.0
  0
LINE
  5
164
102
{ACAD_REACTORS
330
47E
102
}
330
1F
100
AcDbEntity
  8
LC-001-002-----0
 62
     7
370
    50
100
AcDbLine
 10
4.504413
 20
120.051487
 30
0.0
 11
19.004413
 21
120.051487
 31
0.0
  0
ARC
  5
165
102
{ACAD_REACTORS
330
47E
102
}
330
1F
100
AcDbEntity
  8
LC-002-002-RND-0
 62
     7
370
    50
100
AcDbCircle
 10
4.504413
 20
-3.750169
 30
0.0
 40
0.499999999928832
100
AcDbArc
 50
90.0
 51
264.0
  0
ARC
  5
166
102
{ACAD_REACTORS
330
47E
102
}
330
1F
100
AcDbEntity
  8
LC-002-002-RND-0
 62
     7
370
    50
100
AcDbCircle
 10
18.504413
 20
-6.729891
 30
0.0
 40
1.0
100
AcDbArc
 50
360.0
 51
84.0
  0
LINE
  5
167
102
{ACAD_REACTORS
330
47E
102
}
330
1F
100
AcDbEntity
  8
LC-001-002-----0
 62
     7
370
    50
100
AcDbLine
 10
4.452149
 20
-28.907762
 30
0.0
 11
18.608941
 21
-30.395701
 31
0.0
  0
ARC
  5
168
102
{ACAD_REACTORS
330
47E
102
}
330
1F
100
AcDbEntity
  8
LC-002-002-RND-0
 62
     7
370
    50
100
AcDbCircle
 10
18.504413
 20
-31.390222
 30
0.0
 40
1.0
100
AcDbArc
 50
360.0
 51
84.0
  0
ARC
  5
169
102
{ACAD_REACTORS
330
47E
102
}
330
1F
100
AcDbEntity
  8
LC-002-002-RND-0
 62
     7
370
    50
100
AcDbCircle
 10
4.504413
 20
-28.410501
 30
0.0
 40
0.499999999928832
100
AcDbArc
 50
90.0
 51
264.0
  0
LINE
  5
16A
102
{ACAD_REACTORS
330
47E
102
}
330
1F
100
AcDbEntity
  8
LC-001-002-----0
 62
     7
370
    50
100
AcDbLine
 10
4.452149
 20
-53.568093
 30
0.0
 11
18.608941
 21
-55.056032
 31
0.0
  0
ARC
  5
16B
102
{ACAD_REACTORS
330
47E
102
}
330
1F
100
AcDbEntity
  8
LC-002-002-RND-0
 62
     7
370
    50
100
AcDbCircle
 10
18.504413
 20
-56.050554
 30
0.0
 40
1.0
100
AcDbArc
 50
360.0
 51
84.0
  0
ARC
  5
16C
102
{ACAD_REACTORS
330
47E
102
}
330
1F
100
AcDbEntity
  8
LC-002-002-RND-0
 62
     7
370
    50
100
AcDbCircle
 10
4.504413
 20
-53.070832
 30
0.0
 40
0.499999999928832
100
AcDbArc
 50
90.0
 51
264.0
  0
LINE
  5
16D
102
{ACAD_REACTORS
330
47E
102
}
330
1F
100
AcDbEntity
  8
LC-001-002-----0
 62
     7
370
    50
100
AcDbLine
 10
4.452149
 20
-78.228424
 30
0.0
 11
18.608941
 21
-79.716363
 31
0.0
  0
ARC
  5
16E
102
{ACAD_REACTORS
330
47E
102
}
330
1F
100
AcDbEntity
  8
LC-002-002-RND-0
 62
     7
370
    50
100
AcDbCircle
 10
18.504413
 20
-80.710885
 30
0.0
 40
1.0
100
AcDbArc
 50
360.0
 51
84.0
  0
ARC
  5
16F
102
{ACAD_REACTORS
330
47E
102
}
330
1F
100
AcDbEntity
  8
LC-002-002-RND-0
 62
     7
370
    50
100
AcDbCircle
 10
4.504413
 20
-77.731163
 30
0.0
 40
0.499999999928832
100
AcDbArc
 50
90.0
 51
264.0
  0
LINE
  5
170
102
{ACAD_REACTORS
330
47E
102
}
330
1F
100
AcDbEntity
  8
LC-001-002-----0
 62
     7
370
    50
100
AcDbLine
 10
4.452149
 20
-102.888756
 30
0.0
 11
18.608941
 21
-104.376695
 31
0.0
  0
LINE
  5
171
102
{ACAD_REACTORS
330
47E
102
}
330
1F
100
AcDbEntity
  8
LC-001-002-----0
 62
     7
370
    50
100
AcDbLine
 10
19.504413
 20
71.230825
 30
0.0
 11
19.504413
 21
91.911434
 31
0.0
  0
ARC
  5
172
102
{ACAD_REACTORS
330
47E
102
}
330
1F
100
AcDbEntity
  8
LC-002-002-RND-0
 62
     7
370
    50
100
AcDbCircle
 10
18.504413
 20
-105.371216
 30
0.0
 40
1.0
100
AcDbArc
 50
360.0
 51
84.0
  0
LINE
  5
173
102
{ACAD_REACTORS
330
47E
102
}
330
1F
100
AcDbEntity
  8
LC-001-002-----0
 62
     7
370
    50
100
AcDbLine
 10
19.504413
 20
95.891156
 30
0.0
 11
19.504413
 21
116.571765
 31
0.0
  0
ARC
  5
174
102
{ACAD_REACTORS
330
47E
102
}
330
1F
100
AcDbEntity
  8
LC-002-002-RND-0
 62
     7
370
    50
100
AcDbCircle
 10
4.504413
 20
-102.391495
 30
0.0
 40
0.499999999928832
100
AcDbArc
 50
90.0
 51
264.0
  0
ARC
  5
175
102
{ACAD_REACTORS
330
47E
102
}
330
1F
100
AcDbEntity
  8
LC-002-002-RND-0
 62
     7
370
    50
100
AcDbCircle
 10
19.004413
 20
71.230825
 30
0.0
 40
0.5
100
AcDbArc
 50
270.0
 51
360.0
  0
ARC
  5
176
102
{ACAD_REACTORS
330
47E
102
}
330
1F
100
AcDbEntity
  8
LC-002-002-RND-0
 62
     7
370
    50
100
AcDbCircle
 10
19.004413
 20
95.891156
 30
0.0
 40
0.5
100
AcDbArc
 50
270.0
 51
360.0
  0
LINE
  5
177
102
{ACAD_REACTORS
330
47E
102
}
330
1F
100
AcDbEntity
  8
LC-001-002-----0
 62
     7
370
    50
100
AcDbLine
 10
19.504413
 20
-101.391495
 30
0.0
 11
19.504413
 21
-80.710885
 31
0.0
  0
LINE
  5
178
102
{ACAD_REACTORS
330
47E
102
}
330
1F
100
AcDbEntity
  8
LC-001-002-----0
 62
     7
370
    50
100
AcDbLine
 10
19.004413
 20
-101.891495
 30
0.0
 11
4.504413
 21
-101.891495
 31
0.0
  0
LINE
  5
179
102
{ACAD_REACTORS
330
47E
102
}
330
1F
100
AcDbEntity
  8
LC-001-002-----0
 62
     7
370
    50
100
AcDbLine
 10
19.504413
 20
46.570493
 30
0.0
 11
19.504413
 21
67.251103
 31
0.0
  0
LINE
  5
17A
102
{ACAD_REACTORS
330
47E
102
}
330
1F
100
AcDbEntity
  8
LC-001-002-----0
 62
     7
370
    50
100
AcDbLine
 10
19.504413
 20
21.910162
 30
0.0
 11
19.504413
 21
42.590771
 31
0.0
  0
LINE
  5
17B
102
{ACAD_REACTORS
330
47E
102
}
330
1F
100
AcDbEntity
  8
LC-001-002-----0
 62
     7
370
    50
100
AcDbLine
 10
19.004413
 20
-77.231163
 30
0.0
 11
4.504413
 21
-77.231163
 31
0.0
  0
LINE
  5
17C
102
{ACAD_REACTORS
330
47E
102
}
330
1F
100
AcDbEntity
  8
LC-001-002-----0
 62
     7
370
    50
100
AcDbLine
 10
19.004413
 20
-52.570832
 30
0.0
 11
4.504413
 21
-52.570832
 31
0.0
  0
LINE
  5
17D
102
{ACAD_REACTORS
330
47E
102
}
330
1F
100
AcDbEntity
  8
LC-001-002-----0
 62
     7
370
    50
100
AcDbLine
 10
19.004413
 20
-27.910501
 30
0.0
 11
4.504413
 21
-27.910501
 31
0.0
  0
LINE
  5
17E
102
{ACAD_REACTORS
330
47E
102
}
330
1F
100
AcDbEntity
  8
LC-001-002-----0
 62
     7
370
    50
100
AcDbLine
 10
19.504413
 20
-2.750169
 30
0.0
 11
19.504413
 21
17.93044
 31
0.0
  0
LINE
  5
17F
102
{ACAD_REACTORS
330
47E
102
}
330
1F
100
AcDbEntity
  8
LC-001-002-----0
 62
     7
370
    50
100
AcDbLine
 10
19.004413
 20
-3.250169
 30
0.0
 11
4.504413
 21
-3.250169
 31
0.0
  0
LINE
  5
180
102
{ACAD_REACTORS
330
47E
102
}
330
1F
100
AcDbEntity
  8
LC-001-002-----0
 62
     7
370
    50
100
AcDbLine
 10
19.504413
 20
-27.410501
 30
0.0
 11
19.504413
 21
-6.729891
 31
0.0
  0
LINE
  5
181
102
{ACAD_REACTORS
330
47E
102
}
330
1F
100
AcDbEntity
  8
LC-001-002-----0
 62
     7
370
    50
100
AcDbLine
 10
19.504413
 20
-52.070832
 30
0.0
 11
19.504413
 21
-31.390222
 31
0.0
  0
LINE
  5
182
102
{ACAD_REACTORS
330
47E
102
}
330
1F
100
AcDbEntity
  8
LC-001-002-----0
 62
     7
370
    50
100
AcDbLine
 10
19.504413
 20
-76.731163
 30
0.0
 11
19.504413
 21
-56.050554
 31
0.0
  0
LINE
  5
183
102
{ACAD_REACTORS
330
47E
102
}
330
1F
100
AcDbEntity
  8
LC-001-002-----0
 62
     7
370
    50
100
AcDbLine
 10
20.004413
 20
-105.94866
 30
0.0
 11
20.504413
 21
-105.94866
 31
0.0
  0
LINE
  5
184
102
{ACAD_REACTORS
330
47E
102
}
330
1F
100
AcDbEntity
  8
LC-001-002-----0
 62
     7
370
    50
100
AcDbLine
 10
19.504413
 20
-105.44866
 30
0.0
 11
20.004413
 21
-105.94866
 31
0.0
  0
LINE
  5
185
102
{ACAD_REACTORS
330
47E
102
}
330
1F
100
AcDbEntity
  8
LC-001-002-----0
 62
     7
370
    50
100
AcDbLine
 10
19.004413
 20
21.410162
 30
0.0
 11
4.504413
 21
21.410162
 31
0.0
  0
LINE
  5
186
102
{ACAD_REACTORS
330
47E
102
}
330
1F
100
AcDbEntity
  8
LC-001-002-----0
 62
     7
370
    50
100
AcDbLine
 10
19.004413
 20
46.070493
 30
0.0
 11
4.504413
 21
46.070493
 31
0.0
  0
ARC
  5
187
102
{ACAD_REACTORS
330
47E
102
}
330
1F
100
AcDbEntity
  8
LC-002-002-RND-0
 62
     7
370
    50
100
AcDbCircle
 10
19.004413
 20
-101.391495
 30
0.0
 40
0.5
100
AcDbArc
 50
270.0
 51
360.0
  0
ARC
  5
188
102
{ACAD_REACTORS
330
47E
102
}
330
1F
100
AcDbEntity
  8
LC-002-002-RND-0
 62
     7
370
    50
100
AcDbCircle
 10
19.004413
 20
-76.731163
 30
0.0
 40
0.5
100
AcDbArc
 50
270.0
 51
360.0
  0
ARC
  5
189
102
{ACAD_REACTORS
330
47E
102
}
330
1F
100
AcDbEntity
  8
LC-002-002-RND-0
 62
     7
370
    50
100
AcDbCircle
 10
19.004413
 20
-52.070832
 30
0.0
 40
0.5
100
AcDbArc
 50
270.0
 51
360.0
  0
ARC
  5
18A
102
{ACAD_REACTORS
330
47E
102
}
330
1F
100
AcDbEntity
  8
LC-002-002-RND-0
 62
     7
370
    50
100
AcDbCircle
 10
19.004413
 20
-27.410501
 30
0.0
 40
0.5
100
AcDbArc
 50
270.0
 51
360.0
  0
ARC
  5
18B
102
{ACAD_REACTORS
330
47E
102
}
330
1F
100
AcDbEntity
  8
LC-002-002-RND-0
 62
     7
370
    50
100
AcDbCircle
 10
19.004413
 20
-2.750169
 30
0.0
 40
0.5
100
AcDbArc
 50
270.0
 51
360.0
  0
ARC
  5
18C
102
{ACAD_REACTORS
330
47E
102
}
330
1F
100
AcDbEntity
  8
LC-002-002-RND-0
 62
     7
370
    50
100
AcDbCircle
 10
19.004413
 20
21.910162
 30
0.0
 40
0.5
100
AcDbArc
 50
270.0
 51
360.0
  0
ARC
  5
18D
102
{ACAD_REACTORS
330
47E
102
}
330
1F
100
AcDbEntity
  8
LC-002-002-RND-0
 62
     7
370
    50
100
AcDbCircle
 10
19.004413
 20
46.570493
 30
0.0
 40
0.5
100
AcDbArc
 50
270.0
 51
360.0
  0
LINE
  5
18E
102
{ACAD_REACTORS
330
47E
102
}
330
1F
100
AcDbEntity
  8
LC-001-002-----0
 62
     7
370
    50
100
AcDbLine
 10
20.504413
 20
-105.94866
 30
0.0
 11
20.504413
 21
194.032481
 31
0.0
  0
LINE
  5
18F
102
{ACAD_REACTORS
330
47E
102
}
330
1F
100
AcDbEntity
  8
LC-001-002-----0
 62
     7
370
    50
100
AcDbLine
 10
4.452149
 20
119.054226
 30
0.0
 11
18.608941
 21
117.566287
 31
0.0
  0
LINE
  5
190
102
{ACAD_REACTORS
330
47E
102
}
330
1F
100
AcDbEntity
  8
LC-001-002-----0
 62
     7
370
    50
100
AcDbLine
 10
4.504413
 20
70.730825
 30
0.0
 11
19.004413
 21
70.730825
 31
0.0
  0
LINE
  5
191
102
{ACAD_REACTORS
330
47E
102
}
330
1F
100
AcDbEntity
  8
LC-001-002-----0
 62
     7
370
    50
100
AcDbLine
 10
4.504413
 20
144.711818
 30
0.0
 11
19.004413
 21
144.711818
 31
0.0
  0
LINE
  5
192
102
{ACAD_REACTORS
330
47E
102
}
330
1F
100
AcDbEntity
  8
LC-001-002-----0
 62
     7
370
    50
100
AcDbLine
 10
4.452149
 20
143.714558
 30
0.0
 11
18.608941
 21
142.226619
 31
0.0
  0
ARC
  5
193
102
{ACAD_REACTORS
330
47E
102
}
330
1F
100
AcDbEntity
  8
LC-002-002-RND-0
 62
     7
370
    50
100
AcDbCircle
 10
4.504413
 20
144.211818
 30
0.0
 40
0.5
100
AcDbArc
 50
90.0
 51
264.0
  0
LINE
  5
194
102
{ACAD_REACTORS
330
47E
102
}
330
1F
100
AcDbEntity
  8
LC-001-002-----0
 62
     7
370
    50
100
AcDbLine
 10
19.504413
 20
120.551487
 30
0.0
 11
19.504413
 21
141.232097
 31
0.0
  0
ARC
  5
195
102
{ACAD_REACTORS
330
47E
102
}
330
1F
100
AcDbEntity
  8
LC-002-002-RND-0
 62
     7
370
    50
100
AcDbCircle
 10
18.504413
 20
141.232097
 30
0.0
 40
1.0
100
AcDbArc
 50
360.0
 51
84.0
  0
LINE
  5
196
102
{ACAD_REACTORS
330
47E
102
}
330
1F
100
AcDbEntity
  8
LC-001-002-----0
 62
     7
370
    50
100
AcDbLine
 10
4.504413
 20
169.37215
 30
0.0
 11
19.004413
 21
169.37215
 31
0.0
  0
LINE
  5
197
102
{ACAD_REACTORS
330
47E
102
}
330
1F
100
AcDbEntity
  8
LC-001-002-----0
 62
     7
370
    50
100
AcDbLine
 10
4.452149
 20
168.374889
 30
0.0
 11
18.608941
 21
166.88695
 31
0.0
  0
ARC
  5
198
102
{ACAD_REACTORS
330
47E
102
}
330
1F
100
AcDbEntity
  8
LC-002-002-RND-0
 62
     7
370
    50
100
AcDbCircle
 10
4.504413
 20
168.87215
 30
0.0
 40
0.5
100
AcDbArc
 50
90.0
 51
264.0
  0
ARC
  5
199
102
{ACAD_REACTORS
330
47E
102
}
330
1F
100
AcDbEntity
  8
LC-002-002-RND-0
 62
     7
370
    50
100
AcDbCircle
 10
18.504413
 20
165.892428
 30
0.0
 40
1.0
100
AcDbArc
 50
360.0
 51
84.0
  0
LINE
  5
19A
102
{ACAD_REACTORS
330
47E
102
}
330
1F
100
AcDbEntity
  8
LC-001-002-----0
 62
     7
370
    50
100
AcDbLine
 10
4.504413
 20
194.032481
 30
0.0
 11
20.504413
 21
194.032481
 31
0.0
  0
LINE
  5
19B
102
{ACAD_REACTORS
330
47E
102
}
330
1F
100
AcDbEntity
  8
LC-001-002-----0
 62
     7
370
    50
100
AcDbLine
 10
4.452149
 20
193.03522
 30
0.0
 11
18.608941
 21
191.547281
 31
0.0
  0
ARC
  5
19C
102
{ACAD_REACTORS
330
47E
102
}
330
1F
100
AcDbEntity
  8
LC-002-002-RND-0
 62
     7
370
    50
100
AcDbCircle
 10
4.504413
 20
193.532481
 30
0.0
 40
0.5
100
AcDbArc
 50
90.0
 51
264.0
  0
ARC
  5
19D
102
{ACAD_REACTORS
330
47E
102
}
330
1F
100
AcDbEntity
  8
LC-002-002-RND-0
 62
     7
370
    50
100
AcDbCircle
 10
18.504413
 20
190.552759
 30
0.0
 40
1.0
100
AcDbArc
 50
360.0
 51
84.0
  0
LINE
  5
19E
102
{ACAD_REACTORS
330
47E
102
}
330
1F
100
AcDbEntity
  8
LC-001-002-----0
 62
     7
370
    50
100
AcDbLine
 10
19.504413
 20
169.87215
 30
0.0
 11
19.504413
 21
190.552759
 31
0.0
  0
ARC
  5
19F
102
{ACAD_REACTORS
330
47E
102
}
330
1F
100
AcDbEntity
  8
LC-002-002-RND-0
 62
     7
370
    50
100
AcDbCircle
 10
112.004413
 20
169.87215
 30
0.0
 40
0.5
100
AcDbArc
 50
180.0
 51
270.0
  0
ARC
  5
1A0
102
{ACAD_REACTORS
330
47E
102
}
330
1F
100
AcDbEntity
  8
LC-002-002-RND-0
 62
     7
370
    50
100
AcDbCircle
 10
112.004413
 20
120.551487
 30
0.0
 40
0.5
100
AcDbArc
 50
180.0
 51
270.0
  0
ARC
  5
1A1
102
{ACAD_REACTORS
330
47E
102
}
330
1F
100
AcDbEntity
  8
LC-002-002-RND-0
 62
     7
370
    50
100
AcDbCircle
 10
112.004413
 20
145.211818
 30
0.0
 40
0.5
100
AcDbArc
 50
180.0
 51
270.0
  0
ARC
  5
1A2
102
{ACAD_REACTORS
330
47E
102
}
330
1F
100
AcDbEntity
  8
LC-002-002-RND-0
 62
     7
370
    50
100
AcDbCircle
 10
112.504413
 20
116.571765
 30
0.0
 40
1.000000000000099
100
AcDbArc
 50
96.0
 51
180.0
  0
LINE
  5
1A3
102
{ACAD_REACTORS
330
47E
102
}
330
1F
100
AcDbEntity
  8
LC-001-002-----0
 62
     7
370
    50
100
AcDbLine
 10
111.504413
 20
-105.371216
 30
0.0
 11
111.504413
 21
-105.44866
 31
0.0
  0
LINE
  5
1A4
102
{ACAD_REACTORS
330
47E
102
}
330
1F
100
AcDbEntity
  8
LC-001-002-----0
 62
     7
370
    50
100
AcDbLine
 10
126.556677
 20
69.733564
 30
0.0
 11
112.399884
 21
68.245625
 31
0.0
  0
ARC
  5
1A5
102
{ACAD_REACTORS
330
47E
102
}
330
1F
100
AcDbEntity
  8
LC-002-002-RND-0
 62
     7
370
    50
100
AcDbCircle
 10
126.504413
 20
119.551487
 30
0.0
 40
0.499999999999975
100
AcDbArc
 50
276.0
 51
90.0
  0
ARC
  5
1A6
102
{ACAD_REACTORS
330
47E
102
}
330
1F
100
AcDbEntity
  8
LC-002-002-RND-0
 62
     7
370
    50
100
AcDbCircle
 10
112.504413
 20
67.251103
 30
0.0
 40
0.9999999999999857
100
AcDbArc
 50
96.0
 51
180.0
  0
LINE
  5
1A7
102
{ACAD_REACTORS
330
47E
102
}
330
1F
100
AcDbEntity
  8
LC-001-002-----0
 62
     7
370
    50
100
AcDbLine
 10
126.556677
 20
94.393895
 30
0.0
 11
112.399884
 21
92.905956
 31
0.0
  0
ARC
  5
1A8
102
{ACAD_REACTORS
330
47E
102
}
330
1F
100
AcDbEntity
  8
LC-002-002-RND-0
 62
     7
370
    50
100
AcDbCircle
 10
112.504413
 20
91.911434
 30
0.0
 40
0.9999999999999857
100
AcDbArc
 50
96.0
 51
180.0
  0
ARC
  5
1A9
102
{ACAD_REACTORS
330
47E
102
}
330
1F
100
AcDbEntity
  8
LC-002-002-RND-0
 62
     7
370
    50
100
AcDbCircle
 10
126.504413
 20
70.230825
 30
0.0
 40
0.4999999999288768
100
AcDbArc
 50
276.0
 51
90.0
  0
ARC
  5
1AA
102
{ACAD_REACTORS
330
47E
102
}
330
1F
100
AcDbEntity
  8
LC-002-002-RND-0
 62
     7
370
    50
100
AcDbCircle
 10
126.504413
 20
94.891156
 30
0.0
 40
0.4999999999288768
100
AcDbArc
 50
276.0
 51
90.0
  0
LINE
  5
1AB
102
{ACAD_REACTORS
330
47E
102
}
330
1F
100
AcDbEntity
  8
LC-001-002-----0
 62
     7
370
    50
100
AcDbLine
 10
126.556677
 20
45.073232
 30
0.0
 11
112.399884
 21
43.585293
 31
0.0
  0
ARC
  5
1AC
102
{ACAD_REACTORS
330
47E
102
}
330
1F
100
AcDbEntity
  8
LC-002-002-RND-0
 62
     7
370
    50
100
AcDbCircle
 10
112.504413
 20
42.590771
 30
0.0
 40
0.9999999999999857
100
AcDbArc
 50
96.0
 51
180.0
  0
ARC
  5
1AD
102
{ACAD_REACTORS
330
47E
102
}
330
1F
100
AcDbEntity
  8
LC-002-002-RND-0
 62
     7
370
    50
100
AcDbCircle
 10
126.504413
 20
45.570493
 30
0.0
 40
0.4999999999288768
100
AcDbArc
 50
276.0
 51
90.0
  0
LINE
  5
1AE
102
{ACAD_REACTORS
330
47E
102
}
330
1F
100
AcDbEntity
  8
LC-001-002-----0
 62
     7
370
    50
100
AcDbLine
 10
126.556677
 20
20.412901
 30
0.0
 11
112.399884
 21
18.924962
 31
0.0
  0
ARC
  5
1AF
102
{ACAD_REACTORS
330
47E
102
}
330
1F
100
AcDbEntity
  8
LC-002-002-RND-0
 62
     7
370
    50
100
AcDbCircle
 10
112.504413
 20
17.93044
 30
0.0
 40
0.9999999999999857
100
AcDbArc
 50
96.0
 51
180.0
  0
ARC
  5
1B0
102
{ACAD_REACTORS
330
47E
102
}
330
1F
100
AcDbEntity
  8
LC-002-002-RND-0
 62
     7
370
    50
100
AcDbCircle
 10
126.504413
 20
20.910162
 30
0.0
 40
0.4999999999288768
100
AcDbArc
 50
276.0
 51
90.0
  0
LINE
  5
1B1
102
{ACAD_REACTORS
330
47E
102
}
330
1F
100
AcDbEntity
  8
LC-001-002-----0
 62
     7
370
    50
100
AcDbLine
 10
126.504413
 20
95.391156
 30
0.0
 11
112.004413
 21
95.391156
 31
0.0
  0
LINE
  5
1B2
102
{ACAD_REACTORS
330
47E
102
}
330
1F
100
AcDbEntity
  8
LC-001-002-----0
 62
     7
370
    50
100
AcDbLine
 10
126.556677
 20
-4.24743
 30
0.0
 11
112.399884
 21
-5.735369
 31
0.0
  0
LINE
  5
1B3
102
{ACAD_REACTORS
330
47E
102
}
330
1F
100
AcDbEntity
  8
LC-001-002-----0
 62
     7
370
    50
100
AcDbLine
 10
126.504413
 20
120.051487
 30
0.0
 11
112.004413
 21
120.051487
 31
0.0
  0
ARC
  5
1B4
102
{ACAD_REACTORS
330
47E
102
}
330
1F
100
AcDbEntity
  8
LC-002-002-RND-0
 62
     7
370
    50
100
AcDbCircle
 10
126.504413
 20
-3.750169
 30
0.0
 40
0.4999999999288768
100
AcDbArc
 50
276.0
 51
90.0
  0
ARC
  5
1B5
102
{ACAD_REACTORS
330
47E
102
}
330
1F
100
AcDbEntity
  8
LC-002-002-RND-0
 62
     7
370
    50
100
AcDbCircle
 10
112.504413
 20
-6.729891
 30
0.0
 40
0.9999999999999857
100
AcDbArc
 50
96.0
 51
180.0
  0
LINE
  5
1B6
102
{ACAD_REACTORS
330
47E
102
}
330
1F
100
AcDbEntity
  8
LC-001-002-----0
 62
     7
370
    50
100
AcDbLine
 10
126.556677
 20
-28.907762
 30
0.0
 11
112.399884
 21
-30.395701
 31
0.0
  0
ARC
  5
1B7
102
{ACAD_REACTORS
330
47E
102
}
330
1F
100
AcDbEntity
  8
LC-002-002-RND-0
 62
     7
370
    50
100
AcDbCircle
 10
112.504413
 20
-31.390222
 30
0.0
 40
0.9999999999999857
100
AcDbArc
 50
96.0
 51
180.0
  0
ARC
  5
1B8
102
{ACAD_REACTORS
330
47E
102
}
330
1F
100
AcDbEntity
  8
LC-002-002-RND-0
 62
     7
370
    50
100
AcDbCircle
 10
126.504413
 20
-28.410501
 30
0.0
 40
0.4999999999287756
100
AcDbArc
 50
276.0
 51
90.0
  0
LINE
  5
1B9
102
{ACAD_REACTORS
330
47E
102
}
330
1F
100
AcDbEntity
  8
LC-001-002-----0
 62
     7
370
    50
100
AcDbLine
 10
126.556677
 20
-53.568093
 30
0.0
 11
112.399884
 21
-55.056032
 31
0.0
  0
ARC
  5
1BA
102
{ACAD_REACTORS
330
47E
102
}
330
1F
100
AcDbEntity
  8
LC-002-002-RND-0
 62
     7
370
    50
100
AcDbCircle
 10
112.504413
 20
-56.050554
 30
0.0
 40
0.9999999999999857
100
AcDbArc
 50
96.0
 51
180.0
  0
ARC
  5
1BB
102
{ACAD_REACTORS
330
47E
102
}
330
1F
100
AcDbEntity
  8
LC-002-002-RND-0
 62
     7
370
    50
100
AcDbCircle
 10
126.504413
 20
-53.070832
 30
0.0
 40
0.4999999999288887
100
AcDbArc
 50
276.0
 51
90.0
  0
LINE
  5
1BC
102
{ACAD_REACTORS
330
47E
102
}
330
1F
100
AcDbEntity
  8
LC-001-002-----0
 62
     7
370
    50
100
AcDbLine
 10
126.556677
 20
-78.228424
 30
0.0
 11
112.399884
 21
-79.716363
 31
0.0
  0
ARC
  5
1BD
102
{ACAD_REACTORS
330
47E
102
}
330
1F
100
AcDbEntity
  8
LC-002-002-RND-0
 62
     7
370
    50
100
AcDbCircle
 10
112.504413
 20
-80.710885
 30
0.0
 40
0.9999999999999857
100
AcDbArc
 50
96.0
 51
180.0
  0
ARC
  5
1BE
102
{ACAD_REACTORS
330
47E
102
}
330
1F
100
AcDbEntity
  8
LC-002-002-RND-0
 62
     7
370
    50
100
AcDbCircle
 10
126.504413
 20
-77.731163
 30
0.0
 40
0.4999999999287756
100
AcDbArc
 50
276.0
 51
90.0
  0
LINE
  5
1BF
102
{ACAD_REACTORS
330
47E
102
}
330
1F
100
AcDbEntity
  8
LC-001-002-----0
 62
     7
370
    50
100
AcDbLine
 10
126.556677
 20
-102.888756
 30
0.0
 11
112.399884
 21
-104.376695
 31
0.0
  0
LINE
  5
1C0
102
{ACAD_REACTORS
330
47E
102
}
330
1F
100
AcDbEntity
  8
LC-001-002-----0
 62
     7
370
    50
100
AcDbLine
 10
111.504413
 20
71.230825
 30
0.0
 11
111.504413
 21
91.911434
 31
0.0
  0
ARC
  5
1C1
102
{ACAD_REACTORS
330
47E
102
}
330
1F
100
AcDbEntity
  8
LC-002-002-RND-0
 62
     7
370
    50
100
AcDbCircle
 10
112.504413
 20
-105.371216
 30
0.0
 40
0.9999999999999857
100
AcDbArc
 50
96.0
 51
180.0
  0
LINE
  5
1C2
102
{ACAD_REACTORS
330
47E
102
}
330
1F
100
AcDbEntity
  8
LC-001-002-----0
 62
     7
370
    50
100
AcDbLine
 10
111.504413
 20
95.891156
 30
0.0
 11
111.504413
 21
116.571765
 31
0.0
  0
ARC
  5
1C3
102
{ACAD_REACTORS
330
47E
102
}
330
1F
100
AcDbEntity
  8
LC-002-002-RND-0
 62
     7
370
    50
100
AcDbCircle
 10
126.504413
 20
-102.391495
 30
0.0
 40
0.4999999999288887
100
AcDbArc
 50
276.0
 51
90.0
  0
ARC
  5
1C4
102
{ACAD_REACTORS
330
47E
102
}
330
1F
100
AcDbEntity
  8
LC-002-002-RND-0
 62
     7
370
    50
100
AcDbCircle
 10
112.004413
 20
71.230825
 30
0.0
 40
0.5
100
AcDbArc
 50
180.0
 51
270.0
  0
ARC
  5
1C5
102
{ACAD_REACTORS
330
47E
102
}
330
1F
100
AcDbEntity
  8
LC-002-002-RND-0
 62
     7
370
    50
100
AcDbCircle
 10
112.004413
 20
95.891156
 30
0.0
 40
0.5
100
AcDbArc
 50
180.0
 51
270.0
  0
LINE
  5
1C6
102
{ACAD_REACTORS
330
47E
102
}
330
1F
100
AcDbEntity
  8
LC-001-002-----0
 62
     7
370
    50
100
AcDbLine
 10
111.504413
 20
-101.391495
 30
0.0
 11
111.504413
 21
-80.710885
 31
0.0
  0
LINE
  5
1C7
102
{ACAD_REACTORS
330
47E
102
}
330
1F
100
AcDbEntity
  8
LC-001-002-----0
 62
     7
370
    50
100
AcDbLine
 10
112.004413
 20
-101.891495
 30
0.0
 11
126.504413
 21
-101.891495
 31
0.0
  0
LINE
  5
1C8
102
{ACAD_REACTORS
330
47E
102
}
330
1F
100
AcDbEntity
  8
LC-001-002-----0
 62
     7
370
    50
100
AcDbLine
 10
111.504413
 20
46.570493
 30
0.0
 11
111.504413
 21
67.251103
 31
0.0
  0
LINE
  5
1C9
102
{ACAD_REACTORS
330
47E
102
}
330
1F
100
AcDbEntity
  8
LC-001-002-----0
 62
     7
370
    50
100
AcDbLine
 10
111.504413
 20
21.910162
 30
0.0
 11
111.504413
 21
42.590771
 31
0.0
  0
LINE
  5
1CA
102
{ACAD_REACTORS
330
47E
102
}
330
1F
100
AcDbEntity
  8
LC-001-002-----0
 62
     7
370
    50
100
AcDbLine
 10
112.004413
 20
-77.231163
 30
0.0
 11
126.504413
 21
-77.231163
 31
0.0
  0
LINE
  5
1CB
102
{ACAD_REACTORS
330
47E
102
}
330
1F
100
AcDbEntity
  8
LC-001-002-----0
 62
     7
370
    50
100
AcDbLine
 10
112.004413
 20
-52.570832
 30
0.0
 11
126.504413
 21
-52.570832
 31
0.0
  0
LINE
  5
1CC
102
{ACAD_REACTORS
330
47E
102
}
330
1F
100
AcDbEntity
  8
LC-001-002-----0
 62
     7
370
    50
100
AcDbLine
 10
112.004413
 20
-27.910501
 30
0.0
 11
126.504413
 21
-27.910501
 31
0.0
  0
LINE
  5
1CD
102
{ACAD_REACTORS
330
47E
102
}
330
1F
100
AcDbEntity
  8
LC-001-002-----0
 62
     7
370
    50
100
AcDbLine
 10
111.504413
 20
-2.750169
 30
0.0
 11
111.504413
 21
17.93044
 31
0.0
  0
LINE
  5
1CE
102
{ACAD_REACTORS
330
47E
102
}
330
1F
100
AcDbEntity
  8
LC-001-002-----0
 62
     7
370
    50
100
AcDbLine
 10
112.004413
 20
-3.250169
 30
0.0
 11
126.504413
 21
-3.250169
 31
0.0
  0
LINE
  5
1CF
102
{ACAD_REACTORS
330
47E
102
}
330
1F
100
AcDbEntity
  8
LC-001-002-----0
 62
     7
370
    50
100
AcDbLine
 10
111.504413
 20
-27.410501
 30
0.0
 11
111.504413
 21
-6.729891
 31
0.0
  0
LINE
  5
1D0
102
{ACAD_REACTORS
330
47E
102
}
330
1F
100
AcDbEntity
  8
LC-001-002-----0
 62
     7
370
    50
100
AcDbLine
 10
111.504413
 20
-52.070832
 30
0.0
 11
111.504413
 21
-31.390222
 31
0.0
  0
LINE
  5
1D1
102
{ACAD_REACTORS
330
47E
102
}
330
1F
100
AcDbEntity
  8
LC-001-002-----0
 62
     7
370
    50
100
AcDbLine
 10
111.504413
 20
-76.731163
 30
0.0
 11
111.504413
 21
-56.050554
 31
0.0
  0
LINE
  5
1D2
102
{ACAD_REACTORS
330
47E
102
}
330
1F
100
AcDbEntity
  8
LC-001-002-----0
 62
     7
370
    50
100
AcDbLine
 10
111.004413
 20
-105.94866
 30
0.0
 11
110.504413
 21
-105.94866
 31
0.0
  0
LINE
  5
1D3
102
{ACAD_REACTORS
330
47E
102
}
330
1F
100
AcDbEntity
  8
LC-001-002-----0
 62
     7
370
    50
100
AcDbLine
 10
111.504413
 20
-105.44866
 30
0.0
 11
111.004413
 21
-105.94866
 31
0.0
  0
LINE
  5
1D4
102
{ACAD_REACTORS
330
47E
102
}
330
1F
100
AcDbEntity
  8
LC-001-002-----0
 62
     7
370
    50
100
AcDbLine
 10
112.004413
 20
21.410162
 30
0.0
 11
126.504413
 21
21.410162
 31
0.0
  0
LINE
  5
1D5
102
{ACAD_REACTORS
330
47E
102
}
330
1F
100
AcDbEntity
  8
LC-001-002-----0
 62
     7
370
    50
100
AcDbLine
 10
112.004413
 20
46.070493
 30
0.0
 11
126.504413
 21
46.070493
 31
0.0
  0
ARC
  5
1D6
102
{ACAD_REACTORS
330
47E
102
}
330
1F
100
AcDbEntity
  8
LC-002-002-RND-0
 62
     7
370
    50
100
AcDbCircle
 10
112.004413
 20
-101.391495
 30
0.0
 40
0.5
100
AcDbArc
 50
180.0
 51
270.0
  0
ARC
  5
1D7
102
{ACAD_REACTORS
330
47E
102
}
330
1F
100
AcDbEntity
  8
LC-002-002-RND-0
 62
     7
370
    50
100
AcDbCircle
 10
112.004413
 20
-76.731163
 30
0.0
 40
0.5
100
AcDbArc
 50
180.0
 51
270.0
  0
ARC
  5
1D8
102
{ACAD_REACTORS
330
47E
102
}
330
1F
100
AcDbEntity
  8
LC-002-002-RND-0
 62
     7
370
    50
100
AcDbCircle
 10
112.004413
 20
-52.070832
 30
0.0
 40
0.5
100
AcDbArc
 50
180.0
 51
270.0
  0
ARC
  5
1D9
102
{ACAD_REACTORS
330
47E
102
}
330
1F
100
AcDbEntity
  8
LC-002-002-RND-0
 62
     7
370
    50
100
AcDbCircle
 10
112.004413
 20
-27.410501
 30
0.0
 40
0.5
100
AcDbArc
 50
180.0
 51
270.0
  0
ARC
  5
1DA
102
{ACAD_REACTORS
330
47E
102
}
330
1F
100
AcDbEntity
  8
LC-002-002-RND-0
 62
     7
370
    50
100
AcDbCircle
 10
112.004413
 20
-2.750169
 30
0.0
 40
0.5
100
AcDbArc
 50
180.0
 51
270.0
  0
ARC
  5
1DB
102
{ACAD_REACTORS
330
47E
102
}
330
1F
100
AcDbEntity
  8
LC-002-002-RND-0
 62
     7
370
    50
100
AcDbCircle
 10
112.004413
 20
21.910162
 30
0.0
 40
0.5
100
AcDbArc
 50
180.0
 51
270.0
  0
ARC
  5
1DC
102
{ACAD_REACTORS
330
47E
102
}
330
1F
100
AcDbEntity
  8
LC-002-002-RND-0
 62
     7
370
    50
100
AcDbCircle
 10
112.004413
 20
46.570493
 30
0.0
 40
0.5
100
AcDbArc
 50
180.0
 51
270.0
  0
LINE
  5
1DD
102
{ACAD_REACTORS
330
47E
102
}
330
1F
100
AcDbEntity
  8
LC-001-002-----0
 62
     7
370
    50
100
AcDbLine
 10
110.504413
 20
-105.94866
 30
0.0
 11
110.504413
 21
194.032481
 31
0.0
  0
LINE
  5
1DE
102
{ACAD_REACTORS
330
47E
102
}
330
1F
100
AcDbEntity
  8
LC-001-002-----0
 62
     7
370
    50
100
AcDbLine
 10
126.556677
 20
119.054226
 30
0.0
 11
112.399884
 21
117.566287
 31
0.0
  0
LINE
  5
1DF
102
{ACAD_REACTORS
330
47E
102
}
330
1F
100
AcDbEntity
  8
LC-001-002-----0
 62
     7
370
    50
100
AcDbLine
 10
126.504413
 20
70.730825
 30
0.0
 11
112.004413
 21
70.730825
 31
0.0
  0
LINE
  5
1E0
102
{ACAD_REACTORS
330
47E
102
}
330
1F
100
AcDbEntity
  8
LC-001-002-----0
 62
     7
370
    50
100
AcDbLine
 10
126.504413
 20
144.711818
 30
0.0
 11
112.004413
 21
144.711818
 31
0.0
  0
LINE
  5
1E1
102
{ACAD_REACTORS
330
47E
102
}
330
1F
100
AcDbEntity
  8
LC-001-002-----0
 62
     7
370
    50
100
AcDbLine
 10
126.556677
 20
143.714558
 30
0.0
 11
112.399884
 21
142.226619
 31
0.0
  0
ARC
  5
1E2
102
{ACAD_REACTORS
330
47E
102
}
330
1F
100
AcDbEntity
  8
LC-002-002-RND-0
 62
     7
370
    50
100
AcDbCircle
 10
126.504413
 20
144.211818
 30
0.0
 40
0.499999999999975
100
AcDbArc
 50
276.0
 51
90.0
  0
LINE
  5
1E3
102
{ACAD_REACTORS
330
47E
102
}
330
1F
100
AcDbEntity
  8
LC-001-002-----0
 62
     7
370
    50
100
AcDbLine
 10
111.504413
 20
120.551487
 30
0.0
 11
111.504413
 21
141.232097
 31
0.0
  0
ARC
  5
1E4
102
{ACAD_REACTORS
330
47E
102
}
330
1F
100
AcDbEntity
  8
LC-002-002-RND-0
 62
     7
370
    50
100
AcDbCircle
 10
112.504413
 20
141.232097
 30
0.0
 40
0.9999999999999857
100
AcDbArc
 50
96.0
 51
180.0
  0
LINE
  5
1E5
102
{ACAD_REACTORS
330
47E
102
}
330
1F
100
AcDbEntity
  8
LC-001-002-----0
 62
     7
370
    50
100
AcDbLine
 10
126.504413
 20
169.37215
 30
0.0
 11
112.004413
 21
169.37215
 31
0.0
  0
LINE
  5
1E6
102
{ACAD_REACTORS
330
47E
102
}
330
1F
100
AcDbEntity
  8
LC-001-002-----0
 62
     7
370
    50
100
AcDbLine
 10
126.556677
 20
168.374889
 30
0.0
 11
112.399884
 21
166.88695
 31
0.0
  0
ARC
  5
1E7
102
{ACAD_REACTORS
330
47E
102
}
330
1F
100
AcDbEntity
  8
LC-002-002-RND-0
 62
     7
370
    50
100
AcDbCircle
 10
126.504413
 20
168.87215
 30
0.0
 40
0.499999999999975
100
AcDbArc
 50
276.0
 51
90.0
  0
ARC
  5
1E8
102
{ACAD_REACTORS
330
47E
102
}
330
1F
100
AcDbEntity
  8
LC-002-002-RND-0
 62
     7
370
    50
100
AcDbCircle
 10
112.504413
 20
165.892428
 30
0.0
 40
1.000000000000042
100
AcDbArc
 50
96.0
 51
180.0
  0
LINE
  5
1E9
102
{ACAD_REACTORS
330
47E
102
}
330
1F
100
AcDbEntity
  8
LC-001-002-----0
 62
     7
370
    50
100
AcDbLine
 10
126.504413
 20
194.032481
 30
0.0
 11
110.504413
 21
194.032481
 31
0.0
  0
LINE
  5
1EA
102
{ACAD_REACTORS
330
47E
102
}
330
1F
100
AcDbEntity
  8
LC-001-002-----0
 62
     7
370
    50
100
AcDbLine
 10
126.556677
 20
193.03522
 30
0.0
 11
112.399884
 21
191.547281
 31
0.0
  0
ARC
  5
1EB
102
{ACAD_REACTORS
330
47E
102
}
330
1F
100
AcDbEntity
  8
LC-002-002-RND-0
 62
     7
370
    50
100
AcDbCircle
 10
126.504413
 20
193.532481
 30
0.0
 40
0.5000000000000315
100
AcDbArc
 50
276.0
 51
90.0
  0
ARC
  5
1EC
102
{ACAD_REACTORS
330
47E
102
}
330
1F
100
AcDbEntity
  8
LC-002-002-RND-0
 62
     7
370
    50
100
AcDbCircle
 10
112.504413
 20
190.552759
 30
0.0
 40
0.9999999999999857
100
AcDbArc
 50
96.0
 51
180.0
  0
LINE
  5
1ED
102
{ACAD_REACTORS
330
47E
102
}
330
1F
100
AcDbEntity
  8
LC-001-002-----0
 62
     7
370
    50
100
AcDbLine
 10
111.504413
 20
169.87215
 30
0.0
 11
111.504413
 21
190.552759
 31
0.0
  0
LINE
  5
1EE
102
{ACAD_REACTORS
330
47E
102
}
330
1F
100
AcDbEntity
  8
LC-001-002-----0
 62
     7
370
    50
100
AcDbLine
 10
19.504413
 20
145.211818
 30
0.0
 11
19.504413
 21
165.892428
 31
0.0
  0
LINE
  5
1EF
102
{ACAD_REACTORS
330
47E
102
}
330
1F
100
AcDbEntity
  8
LC-001-002-----0
 62
     7
370
    50
100
AcDbLine
 10
111.504413
 20
145.211818
 30
0.0
 11
111.504413
 21
165.892428
 31
0.0
  0
INSERT
  5
28B
102
{ACAD_REACTORS
330
47E
102
}
330
1F
100
AcDbEntity
  8
LC-004-005-----0
 62
     7
370
    25
100
AcDbBlockReference
  2
*X24
 10
0.0
 20
0.0
 30
0.0
  0
DIMENSION
  5
28C
330
1F
100
AcDbEntity
  8
LC-005-003-----0
 62
     7
370
    25
100
AcDbDimension
  2
*D5
 10
4.004413
 20
-219.6
 30
0.0
 11
60.113578
 21
-188.8
 31
0.0
 70
   160
  1
%%c<>
 71
     5
 42
123.0
 53
360.0
  3
LC-DIM-L-0140-02-02
100
AcDbAlignedDimension
 13
127.004413
 23
-102.391495
 33
0.0
 14
4.004413
 24
-102.391495
 34
0.0
 50
360.0
100
AcDbRotatedDimension
  0
LINE
  5
299
102
{ACAD_REACTORS
330
47D
102
}
330
1F
100
AcDbEntity
  8
LC-001-002-----0
 62
     7
370
    50
100
AcDbLine
 10
234.004413
 20
341.05134
 30
0.0
 11
234.004413
 21
340.05134
 31
0.0
  0
LINE
  5
29A
102
{ACAD_REACTORS
330
47D
102
}
330
1F
100
AcDbEntity
  8
LC-001-002-----0
 62
     7
370
    50
100
AcDbLine
 10
234.004413
 20
341.05134
 30
0.0
 11
230.004413
 21
341.05134
 31
0.0
  0
LINE
  5
29B
102
{ACAD_REACTORS
330
47D
102
}
330
1F
100
AcDbEntity
  8
LC-001-002-----0
 62
     7
370
    50
100
AcDbLine
 10
230.004413
 20
341.05134
 30
0.0
 11
230.004413
 21
340.05134
 31
0.0
  0
LINE
  5
29C
102
{ACAD_REACTORS
330
47D
102
}
330
1F
100
AcDbEntity
  8
LC-001-002-----0
 62
     7
370
    50
100
AcDbLine
 10
236.004413
 20
343.05134
 30
0.0
 11
234.004413
 21
341.05134
 31
0.0
  0
LINE
  5
29D
102
{ACAD_REACTORS
330
47D
102
}
330
1F
100
AcDbEntity
  8
LC-001-002-----0
 62
     7
370
    50
100
AcDbLine
 10
228.004413
 20
343.05134
 30
0.0
 11
230.004413
 21
341.05134
 31
0.0
  0
LINE
  5
29E
102
{ACAD_REACTORS
330
47D
102
}
330
1F
100
AcDbEntity
  8
LC-001-002-----0
 62
     7
370
    50
100
AcDbLine
 10
-102.995587
 20
341.05134
 30
0.0
 11
-102.995587
 21
340.05134
 31
0.0
  0
LINE
  5
29F
102
{ACAD_REACTORS
330
47D
102
}
330
1F
100
AcDbEntity
  8
LC-001-002-----0
 62
     7
370
    50
100
AcDbLine
 10
-102.995587
 20
341.05134
 30
0.0
 11
-98.995587
 21
341.05134
 31
0.0
  0
LINE
  5
2A0
102
{ACAD_REACTORS
330
47D
102
}
330
1F
100
AcDbEntity
  8
LC-001-002-----0
 62
     7
370
    50
100
AcDbLine
 10
-98.995587
 20
341.05134
 30
0.0
 11
-98.995587
 21
340.05134
 31
0.0
  0
LINE
  5
2A1
102
{ACAD_REACTORS
330
47D
102
}
330
1F
100
AcDbEntity
  8
LC-001-002-----0
 62
     7
370
    50
100
AcDbLine
 10
-104.995587
 20
343.05134
 30
0.0
 11
-102.995587
 21
341.05134
 31
0.0
  0
LINE
  5
2A2
102
{ACAD_REACTORS
330
47D
102
}
330
1F
100
AcDbEntity
  8
LC-001-002-----0
 62
     7
370
    50
100
AcDbLine
 10
-96.995587
 20
343.05134
 30
0.0
 11
-98.995587
 21
341.05134
 31
0.0
  0
INSERT
  5
363
330
1F
100
AcDbEntity
  8
LC-004-005-----0
 62
     7
370
    25
100
AcDbBlockReference
  2
*X36
 10
0.0
 20
0.0
 30
0.0
  0
INSERT
  5
36B
330
1F
100
AcDbEntity
  8
LC-004-005-----0
 62
     7
370
    25
100
AcDbBlockReference
  2
*X47
 10
0.0
 20
0.0
 30
0.0
  0
INSERT
  5
373
330
1F
100
AcDbEntity
  8
LC-004-005-----0
 62
     7
370
    25
100
AcDbBlockReference
  2
*X58
 10
0.0
 20
0.0
 30
0.0
  0
DIMENSION
  5
374
330
1F
100
AcDbEntity
  8
LC-005-003-----0
 62
     7
370
    25
100
AcDbDimension
  2
*D9
 10
343.427188
 20
343.05134
 30
0.0
 11
312.627188
 21
113.55134
 31
0.0
 70
   160
  1
460
 71
     5
 42
459.0
 53
90.0
  3
LC-DIM-L-0140-02-02
100
AcDbAlignedDimension
 13
107.504413
 23
-115.94866
 33
0.0
 14
240.504413
 24
343.05134
 34
0.0
 50
90.0
100
AcDbRotatedDimension
  0
DIMENSION
  5
381
330
1F
100
AcDbEntity
  8
LC-005-003-----0
 62
     7
370
    25
100
AcDbDimension
  2
*D10
 10
231.856784
 20
-115.94866
 30
0.0
 11
201.056784
 21
65.05134
 31
0.0
 70
   160
 71
     5
 42
362.0
 53
90.0
  3
LC-DIM-L-0140-02-02
100
AcDbAlignedDimension
 13
110.504413
 23
246.05134
 33
0.0
 14
107.504413
 24
-115.94866
 34
0.0
 50
90.0
100
AcDbRotatedDimension
  0
DIMENSION
  5
38E
330
1F
100
AcDbEntity
  8
LC-005-003-----0
 62
     7
370
    25
100
AcDbDimension
  2
*D11
 10
293.283186
 20
305.050121
 30
0.0
 11
262.483186
 21
94.55073
 31
0.0
 70
   160
 71
     5
 42
420.998781
 53
90.0
  3
LC-DIM-L-0140-02-02
100
AcDbAlignedDimension
 13
107.504413
 23
-115.94866
 33
0.0
 14
131.504413
 24
305.050121
 34
0.0
 50
90.0
100
AcDbRotatedDimension
  0
DIMENSION
  5
39B
330
1F
100
AcDbEntity
  8
LC-005-003-----0
 62
     7
370
    25
100
AcDbDimension
  2
*D12
 10
242.504413
 20
453.24
 30
0.0
 11
65.504413
 21
484.04
 31
0.0
 70
   160
  1
%%c<>
 71
     5
 42
354.0
  3
LC-DIM-L-0140-02-02
100
AcDbAlignedDimension
 13
-111.495587
 23
340.05134
 33
0.0
 14
242.504413
 24
340.05134
 34
0.0
100
AcDbRotatedDimension
  0
DIMENSION
  5
3A8
330
1F
100
AcDbEntity
  8
LC-005-003-----0
 62
     7
370
    25
100
AcDbDimension
  2
*D13
 10
136.504413
 20
265.08
 30
0.0
 11
-48.949626
 21
295.88
 31
0.0
 70
   160
  1
%%c<>
 71
     5
 42
142.0
  3
LC-DIM-L-0140-02-02
100
AcDbAlignedDimension
 13
-5.495587
 23
308.050121
 33
0.0
 14
136.504413
 24
308.050121
 34
0.0
100
AcDbRotatedDimension
  0
LINE
  5
3B6
330
1F
100
AcDbEntity
  8
LC-001-002-----0
 62
     7
370
    50
100
AcDbLine
 10
-52.995587
 20
343.05134
 30
0.0
 11
134.040311
 21
343.05134
 31
0.0
  0
LINE
  5
3B7
330
1F
100
AcDbEntity
  8
LC-001-002-----0
 62
     7
370
    50
100
AcDbLine
 10
134.040311
 20
343.05134
 30
0.0
 11
184.004413
 21
343.05134
 31
0.0
  0
LINE
  5
3B8
330
1F
100
AcDbEntity
  8
LC-001-002-----0
 62
     7
370
    50
100
AcDbLine
 10
120.004413
 20
278.850994
 30
0.0
 11
2.504413
 21
278.850994
 31
0.0
  0
LINE
  5
3B9
330
1F
100
AcDbEntity
  8
LC-001-002-----0
 62
     7
370
    50
100
AcDbLine
 10
2.504413
 20
308.050121
 30
0.0
 11
2.504413
 21
278.850994
 31
0.0
  0
DIMENSION
  5
3BA
330
1F
100
AcDbEntity
  8
LC-005-003-----0
 62
     7
370
    25
100
AcDbDimension
  2
*D14
 10
131.529046
 20
211.32
 30
0.0
 11
-33.881792
 21
242.12
 31
0.0
 70
   160
  1
%%c<>
 71
     5
 42
132.0
  3
LC-DIM-L-0140-02-02
100
AcDbAlignedDimension
 13
-0.470954
 23
278.047146
 33
0.0
 14
131.529046
 24
278.047146
 34
0.0
100
AcDbRotatedDimension
  0
LINE
  5
3C8
102
{ACAD_REACTORS
330
47F
102
}
330
1F
100
AcDbEntity
  8
LC-001-002-----0
 62
     7
370
    50
100
AcDbLine
 10
100.713705
 20
345.05134
 30
0.0
 11
91.938717
 21
408.051401
 31
0.0
  0
LINE
  5
3C9
102
{ACAD_REACTORS
330
47F
102
}
330
1F
100
AcDbEntity
  8
LC-001-002-----0
 62
     7
370
    50
100
AcDbLine
 10
-16.015006
 20
408.181614
 30
0.0
 11
-39.720487
 21
343.05134
 31
0.0
  0
LINE
  5
3CA
102
{ACAD_REACTORS
330
47F
102
}
330
1F
100
AcDbEntity
  8
LC-001-002-----0
 62
     7
370
    50
100
AcDbLine
 10
12.549612
 20
345.05134
 30
0.0
 11
26.508621
 21
408.051491
 31
0.0
  0
LINE
  5
3CB
102
{ACAD_REACTORS
330
47F
102
}
330
1F
100
AcDbEntity
  8
LC-001-002-----0
 62
     7
370
    50
100
AcDbLine
 10
131.321169
 20
408.051349
 30
0.0
 11
154.979238
 21
343.05134
 31
0.0
  0
LINE
  5
3CC
102
{ACAD_REACTORS
330
47F
102
}
330
1F
100
AcDbEntity
  8
LC-001-002-----0
 62
     7
370
    50
100
AcDbLine
 10
77.489468
 20
408.051421
 30
0.0
 11
80.482453
 21
345.05134
 31
0.0
  0
LINE
  5
3CD
102
{ACAD_REACTORS
330
47F
102
}
330
1F
100
AcDbEntity
  8
LC-001-002-----0
 62
     7
370
    50
100
AcDbLine
 10
120.601266
 20
345.05134
 30
0.0
 11
106.642282
 21
408.051381
 31
0.0
  0
LINE
  5
3CE
102
{ACAD_REACTORS
330
47F
102
}
330
1F
100
AcDbEntity
  8
LC-001-002-----0
 62
     7
370
    50
100
AcDbLine
 10
61.004574
 20
408.051397
 30
0.0
 11
61.004574
 21
415.051396
 31
0.0
  0
LINE
  5
3CF
102
{ACAD_REACTORS
330
47F
102
}
330
1F
100
AcDbEntity
  8
LC-001-002-----0
 62
     7
370
    50
100
AcDbLine
 10
7.830273
 20
408.051517
 30
0.0
 11
-12.027854
 21
345.05134
 31
0.0
  0
LINE
  5
3D0
102
{ACAD_REACTORS
330
47F
102
}
330
1F
100
AcDbEntity
  8
LC-001-002-----0
 62
     7
370
    50
100
AcDbLine
 10
-30.492766
 20
343.05134
 30
0.0
 11
65.504413
 21
343.05134
 31
0.0
  0
LINE
  5
3D1
102
{ACAD_REACTORS
330
47F
102
}
330
1F
100
AcDbEntity
  8
LC-001-002-----0
 62
     7
370
    50
100
AcDbLine
 10
0.07434
 20
408.051528
 30
0.0
 11
-22.659682
 21
345.05134
 31
0.0
  0
LINE
  5
3D2
102
{ACAD_REACTORS
330
47F
102
}
330
1F
100
AcDbEntity
  8
LC-001-002-----0
 62
     7
370
    50
100
AcDbLine
 10
12.466496
 20
408.051511
 30
0.0
 11
-5.725245
 21
345.05134
 31
0.0
  0
LINE
  5
3D3
102
{ACAD_REACTORS
330
47F
102
}
330
1F
100
AcDbEntity
  8
LC-001-002-----0
 62
     7
370
    50
100
AcDbLine
 10
43.838966
 20
345.05134
 30
0.0
 11
49.773731
 21
408.051459
 31
0.0
  0
LINE
  5
3D4
102
{ACAD_REACTORS
330
47F
102
}
330
1F
100
AcDbEntity
  8
LC-001-002-----0
 62
     7
370
    50
100
AcDbLine
 10
-39.720487
 20
343.05134
 30
0.0
 11
-30.492766
 21
343.05134
 31
0.0
  0
LINE
  5
3D5
102
{ACAD_REACTORS
330
47F
102
}
330
1F
100
AcDbEntity
  8
LC-001-002-----0
 62
     7
370
    50
100
AcDbLine
 10
47.165731
 20
408.051463
 30
0.0
 11
41.230967
 21
345.05134
 31
0.0
  0
LINE
  5
3D6
102
{ACAD_REACTORS
330
47F
102
}
330
1F
100
AcDbEntity
  8
LC-001-002-----0
 62
     7
370
    50
100
AcDbLine
 10
128.729342
 20
408.05135
 30
0.0
 11
150.878146
 21
345.05134
 31
0.0
  0
LINE
  5
3D7
102
{ACAD_REACTORS
330
47F
102
}
330
1F
100
AcDbEntity
  8
LC-001-002-----0
 62
     7
370
    50
100
AcDbLine
 10
61.004574
 20
415.051396
 30
0.0
 11
70.004016
 21
415.051408
 31
0.0
  0
LINE
  5
3D8
102
{ACAD_REACTORS
330
47F
102
}
330
1F
100
AcDbEntity
  8
LC-001-002-----0
 62
     7
370
    50
100
AcDbLine
 10
100.321548
 20
391.139138
 30
0.0
 11
106.740904
 21
345.05134
 31
0.0
  0
LINE
  5
3D9
102
{ACAD_REACTORS
330
47F
102
}
330
1F
100
AcDbEntity
  8
LC-001-002-----0
 62
     7
370
    50
100
AcDbLine
 10
148.012687
 20
345.05134
 30
0.0
 11
126.828009
 21
408.051353
 31
0.0
  0
LINE
  5
3DA
102
{ACAD_REACTORS
330
47F
102
}
330
1F
100
AcDbEntity
  8
LC-001-002-----0
 62
     7
370
    50
100
AcDbLine
 10
4.18087
 20
408.051522
 30
0.0
 11
-17.003865
 21
345.05134
 31
0.0
  0
LINE
  5
3DB
102
{ACAD_REACTORS
330
47F
102
}
330
1F
100
AcDbEntity
  8
LC-001-002-----0
 62
     7
370
    50
100
AcDbLine
 10
170.729069
 20
343.05134
 30
0.0
 11
147.023588
 21
408.181614
 31
0.0
  0
LINE
  5
3DC
102
{ACAD_REACTORS
330
47F
102
}
330
1F
100
AcDbEntity
  8
LC-001-002-----0
 62
     7
370
    50
100
AcDbLine
 10
31.426804
 20
408.051485
 30
0.0
 11
19.961715
 21
345.05134
 31
0.0
  0
LINE
  5
3DD
102
{ACAD_REACTORS
330
47F
102
}
330
1F
100
AcDbEntity
  8
LC-001-002-----0
 62
     7
370
    50
100
AcDbLine
 10
87.919456
 20
408.051406
 30
0.0
 11
93.854215
 21
345.05134
 31
0.0
  0
LINE
  5
3DE
102
{ACAD_REACTORS
330
47F
102
}
330
1F
100
AcDbEntity
  8
LC-001-002-----0
 62
     7
370
    50
100
AcDbLine
 10
55.259039
 20
345.05134
 30
0.0
 11
58.252026
 21
408.051447
 31
0.0
  0
LINE
  5
3DF
102
{ACAD_REACTORS
330
47F
102
}
330
1F
100
AcDbEntity
  8
LC-001-002-----0
 62
     7
370
    50
100
AcDbLine
 10
24.366568
 20
408.051494
 30
0.0
 11
10.407558
 21
345.05134
 31
0.0
  0
LINE
  5
3E0
102
{ACAD_REACTORS
330
47F
102
}
330
1F
100
AcDbEntity
  8
LC-001-002-----0
 62
     7
370
    50
100
AcDbLine
 10
78.426688
 20
345.05134
 30
0.0
 11
75.433702
 21
408.051424
 31
0.0
  0
LINE
  5
3E1
102
{ACAD_REACTORS
330
47F
102
}
330
1F
100
AcDbEntity
  8
LC-001-002-----0
 62
     7
370
    50
100
AcDbLine
 10
136.734068
 20
345.05134
 30
0.0
 11
118.54237
 21
408.051364
 31
0.0
  0
LINE
  5
3E2
102
{ACAD_REACTORS
330
47F
102
}
330
1F
100
AcDbEntity
  8
LC-001-002-----0
 62
     7
370
    50
100
AcDbLine
 10
143.036677
 20
345.05134
 30
0.0
 11
123.178601
 21
408.051358
 31
0.0
  0
LINE
  5
3E3
102
{ACAD_REACTORS
330
47F
102
}
330
1F
100
AcDbEntity
  8
LC-001-002-----0
 62
     7
370
    50
100
AcDbLine
 10
104.500227
 20
408.051384
 30
0.0
 11
118.459212
 21
345.05134
 31
0.0
  0
LINE
  5
3E4
102
{ACAD_REACTORS
330
47F
102
}
330
1F
100
AcDbEntity
  8
LC-001-002-----0
 62
     7
370
    50
100
AcDbLine
 10
153.668502
 20
345.05134
 30
0.0
 11
130.934545
 21
408.051347
 31
0.0
  0
ARC
  5
3E5
102
{ACAD_REACTORS
330
47F
102
}
330
1F
100
AcDbEntity
  8
LC-001-002-----0
 62
     7
370
    50
100
AcDbCircle
 10
-1.919617
 20
403.051312
 30
0.0
 40
14.99999999999979
100
AcDbArc
 50
90.000079
 51
160.0
  0
LINE
  5
3E6
102
{ACAD_REACTORS
330
47F
102
}
330
1F
100
AcDbEntity
  8
LC-001-002-----0
 62
     7
370
    50
100
AcDbLine
 10
39.070118
 20
408.051474
 30
0.0
 11
30.295121
 21
345.05134
 31
0.0
  0
LINE
  5
3E7
102
{ACAD_REACTORS
330
47F
102
}
330
1F
100
AcDbEntity
  8
LC-001-002-----0
 62
     7
370
    50
100
AcDbLine
 10
81.235099
 20
408.051416
 30
0.0
 11
87.169859
 21
345.05134
 31
0.0
  0
LINE
  5
3E8
102
{ACAD_REACTORS
330
47F
102
}
330
1F
100
AcDbEntity
  8
LC-001-002-----0
 62
     7
370
    50
100
AcDbLine
 10
89.777859
 20
345.05134
 30
0.0
 11
83.843099
 21
408.051412
 31
0.0
  0
LINE
  5
3E9
102
{ACAD_REACTORS
330
47F
102
}
330
1F
100
AcDbEntity
  8
LC-001-002-----0
 62
     7
370
    50
100
AcDbLine
 10
132.928219
 20
418.051497
 30
0.0
 11
-1.919637
 21
418.051312
 31
0.0
  0
LINE
  5
3EA
102
{ACAD_REACTORS
330
47F
102
}
330
1F
100
AcDbEntity
  8
LC-001-002-----0
 62
     7
370
    50
100
AcDbLine
 10
70.004016
 20
415.051408
 30
0.0
 11
70.004035
 21
408.051409
 31
0.0
  0
LINE
  5
3EB
102
{ACAD_REACTORS
330
47F
102
}
330
1F
100
AcDbEntity
  8
LC-001-002-----0
 62
     7
370
    50
100
AcDbLine
 10
111.04711
 20
345.05134
 30
0.0
 11
99.582038
 21
408.05139
 31
0.0
  0
LINE
  5
3EC
102
{ACAD_REACTORS
330
47F
102
}
330
1F
100
AcDbEntity
  8
LC-001-002-----0
 62
     7
370
    50
100
AcDbLine
 10
66.854413
 20
345.05134
 30
0.0
 11
66.854413
 21
408.051436
 31
0.0
  0
LINE
  5
3ED
102
{ACAD_REACTORS
330
47F
102
}
330
1F
100
AcDbEntity
  8
LC-001-002-----0
 62
     7
370
    50
100
AcDbLine
 10
-15.970619
 20
345.05134
 30
0.0
 11
5.214114
 21
408.051521
 31
0.0
  0
LINE
  5
3EE
102
{ACAD_REACTORS
330
47F
102
}
330
1F
100
AcDbEntity
  8
LC-001-002-----0
 62
     7
370
    50
100
AcDbLine
 10
111.089457
 20
408.051374
 30
0.0
 11
127.303512
 21
345.05134
 31
0.0
  0
LINE
  5
3EF
102
{ACAD_REACTORS
330
47F
102
}
330
1F
100
AcDbEntity
  8
LC-001-002-----0
 62
     7
370
    50
100
AcDbLine
 10
22.299984
 20
345.05134
 30
0.0
 11
33.765072
 21
408.051481
 31
0.0
  0
LINE
  5
3F0
102
{ACAD_REACTORS
330
47F
102
}
330
1F
100
AcDbEntity
  8
LC-001-002-----0
 62
     7
370
    50
100
AcDbLine
 10
131.32117
 20
408.051347
 30
0.0
 11
65.504305
 21
408.051437
 31
0.0
  0
LINE
  5
3F1
102
{ACAD_REACTORS
330
47F
102
}
330
1F
100
AcDbEntity
  8
LC-001-002-----0
 62
     7
370
    50
100
AcDbLine
 10
55.575125
 20
408.051451
 30
0.0
 11
52.582138
 21
345.05134
 31
0.0
  0
LINE
  5
3F2
102
{ACAD_REACTORS
330
47F
102
}
330
1F
100
AcDbEntity
  8
LC-001-002-----0
 62
     7
370
    50
100
AcDbLine
 10
-19.869324
 20
345.05134
 30
0.0
 11
2.27954
 21
408.051525
 31
0.0
  0
LINE
  5
3F3
102
{ACAD_REACTORS
330
47F
102
}
330
1F
100
AcDbEntity
  8
LC-001-002-----0
 62
     7
370
    50
100
AcDbLine
 10
65.504413
 20
343.05134
 30
0.0
 11
170.729069
 21
343.05134
 31
0.0
  0
LINE
  5
3F4
102
{ACAD_REACTORS
330
47F
102
}
330
1F
100
AcDbEntity
  8
LC-001-002-----0
 62
     7
370
    50
100
AcDbLine
 10
1.580729
 20
408.051526
 30
0.0
 11
-20.568136
 21
345.05134
 31
0.0
  0
LINE
  5
3F5
102
{ACAD_REACTORS
330
47F
102
}
330
1F
100
AcDbEntity
  8
LC-001-002-----0
 62
     7
370
    50
100
AcDbLine
 10
32.789595
 20
345.05134
 30
0.0
 11
41.564592
 21
408.05147
 31
0.0
  0
LINE
  5
3F6
102
{ACAD_REACTORS
330
47F
102
}
330
1F
100
AcDbEntity
  8
LC-001-002-----0
 62
     7
370
    50
100
AcDbLine
 10
89.444242
 20
408.051404
 30
0.0
 11
98.21923
 21
345.05134
 31
0.0
  0
LINE
  5
3F7
102
{ACAD_REACTORS
330
47F
102
}
330
1F
100
AcDbEntity
  8
LC-001-002-----0
 62
     7
370
    50
100
AcDbLine
 10
97.243769
 20
408.051394
 30
0.0
 11
108.708841
 21
345.05134
 31
0.0
  0
LINE
  5
3F8
102
{ACAD_REACTORS
330
47F
102
}
330
1F
100
AcDbEntity
  8
LC-001-002-----0
 62
     7
370
    50
100
AcDbLine
 10
125.794764
 20
408.051354
 30
0.0
 11
146.979441
 21
345.05134
 31
0.0
  0
LINE
  5
3F9
102
{ACAD_REACTORS
330
47F
102
}
330
1F
100
AcDbEntity
  8
LC-001-002-----0
 62
     7
370
    50
100
AcDbLine
 10
64.154413
 20
408.051439
 30
0.0
 11
64.154413
 21
345.05134
 31
0.0
  0
LINE
  5
3FA
102
{ACAD_REACTORS
330
47F
102
}
330
1F
100
AcDbEntity
  8
LC-001-002-----0
 62
     7
370
    50
100
AcDbLine
 10
37.15461
 20
345.05134
 30
0.0
 11
43.089376
 21
408.051468
 31
0.0
  0
LINE
  5
3FB
102
{ACAD_REACTORS
330
47F
102
}
330
1F
100
AcDbEntity
  8
LC-001-002-----0
 62
     7
370
    50
100
AcDbLine
 10
129.212701
 20
345.05134
 30
0.0
 11
112.998646
 21
408.051372
 31
0.0
  0
LINE
  5
3FC
102
{ACAD_REACTORS
330
47F
102
}
330
1F
100
AcDbEntity
  8
LC-001-002-----0
 62
     7
370
    50
100
AcDbLine
 10
24.267921
 20
345.05134
 30
0.0
 11
30.687279
 21
391.139146
 31
0.0
  0
LINE
  5
3FD
102
{ACAD_REACTORS
330
47F
102
}
330
1F
100
AcDbEntity
  8
LC-001-002-----0
 62
     7
370
    50
100
AcDbLine
 10
-23.970656
 20
343.05134
 30
0.0
 11
-0.312588
 21
408.051349
 31
0.0
  0
LINE
  5
3FE
102
{ACAD_REACTORS
330
47F
102
}
330
1F
100
AcDbEntity
  8
LC-001-002-----0
 62
     7
370
    50
100
AcDbLine
 10
18.010212
 20
408.051503
 30
0.0
 11
1.796123
 21
345.05134
 31
0.0
  0
LINE
  5
3FF
102
{ACAD_REACTORS
330
47F
102
}
330
1F
100
AcDbEntity
  8
LC-001-002-----0
 62
     7
370
    50
100
AcDbLine
 10
-22.307261
 20
345.05134
 30
0.0
 11
0.426761
 21
408.051527
 31
0.0
  0
LINE
  5
400
102
{ACAD_REACTORS
330
47F
102
}
330
1F
100
AcDbEntity
  8
LC-001-002-----0
 62
     7
370
    50
100
AcDbLine
 10
116.898714
 20
408.051366
 30
0.0
 11
135.090412
 21
345.05134
 31
0.0
  0
LINE
  5
401
102
{ACAD_REACTORS
330
47F
102
}
330
1F
100
AcDbEntity
  8
LC-001-002-----0
 62
     7
370
    50
100
AcDbLine
 10
-4.081589
 20
345.05134
 30
0.0
 11
14.110151
 21
408.051508
 31
0.0
  0
ARC
  5
402
102
{ACAD_REACTORS
330
47F
102
}
330
1F
100
AcDbEntity
  8
LC-001-002-----0
 62
     7
370
    50
100
AcDbCircle
 10
132.928198
 20
403.051312
 30
0.0
 40
14.99999999999988
100
AcDbArc
 50
20.0
 51
89.999921
  0
LINE
  5
403
102
{ACAD_REACTORS
330
47F
102
}
330
1F
100
AcDbEntity
  8
LC-001-002-----0
 62
     7
370
    50
100
AcDbLine
 10
121.8286
 20
408.05136
 30
0.0
 11
141.686677
 21
345.05134
 31
0.0
  0
LINE
  5
404
102
{ACAD_REACTORS
330
47F
102
}
330
1F
100
AcDbEntity
  8
LC-001-002-----0
 62
     7
370
    50
100
AcDbLine
 10
-23.242716
 20
345.05134
 30
0.0
 11
154.251297
 21
345.05134
 31
0.0
  0
LINE
  5
405
102
{ACAD_REACTORS
330
47F
102
}
330
1F
100
AcDbEntity
  8
LC-001-002-----0
 62
     7
370
    50
100
AcDbLine
 10
3.705312
 20
345.05134
 30
0.0
 11
19.9194
 21
408.0515
 31
0.0
  0
LINE
  5
406
102
{ACAD_REACTORS
330
47F
102
}
330
1F
100
AcDbEntity
  8
LC-001-002-----0
 62
     7
370
    50
100
AcDbLine
 10
-10.677854
 20
345.05134
 30
0.0
 11
9.180272
 21
408.051515
 31
0.0
  0
LINE
  5
407
102
{ACAD_REACTORS
330
47F
102
}
330
1F
100
AcDbEntity
  8
LC-001-002-----0
 62
     7
370
    50
100
AcDbLine
 10
72.756801
 20
408.051427
 30
0.0
 11
75.749787
 21
345.05134
 31
0.0
  0
LINE
  5
408
102
{ACAD_REACTORS
330
47F
102
}
330
1F
100
AcDbEntity
  8
LC-001-002-----0
 62
     7
370
    50
100
AcDbLine
 10
50.526372
 20
345.05134
 30
0.0
 11
53.51936
 21
408.051454
 31
0.0
  0
LINE
  5
409
102
{ACAD_REACTORS
330
47F
102
}
330
1F
100
AcDbEntity
  8
LC-001-002-----0
 62
     7
370
    50
100
AcDbLine
 10
130.582124
 20
408.051348
 30
0.0
 11
153.316082
 21
345.05134
 31
0.0
  0
LINE
  5
40A
102
{ACAD_REACTORS
330
47F
102
}
330
1F
100
AcDbEntity
  8
LC-001-002-----0
 62
     7
370
    50
100
AcDbLine
 10
151.576957
 20
345.05134
 30
0.0
 11
129.428154
 21
408.051349
 31
0.0
  0
LINE
  5
40B
102
{ACAD_REACTORS
330
47F
102
}
330
1F
100
AcDbEntity
  8
LC-001-002-----0
 62
     7
370
    50
100
AcDbLine
 10
3.327104
 20
418.05132
 30
0.0
 11
-1.919637
 21
418.051312
 31
0.0
  0
LINE
  5
40C
102
{ACAD_REACTORS
330
47F
102
}
330
1F
100
AcDbEntity
  8
LC-001-002-----0
 62
     7
370
    50
100
AcDbLine
 10
65.504305
 20
408.051437
 30
0.0
 11
-0.312522
 21
408.051528
 31
0.0
  0
INSERT
  5
47C
330
1F
100
AcDbEntity
  8
LC-004-005-----0
 62
     7
370
    25
100
AcDbBlockReference
  2
*X615
 10
0.0
 20
0.0
 30
0.0
  0
ENDSEC
  0
SECTION
  2
OBJECTS
  0
DICTIONARY
  5
C
330
0
100
AcDbDictionary
281
     1
  3
ACAD_GROUP
350
D
  3
ACAD_LAYOUT
350
1A
  3
ACAD_MLINESTYLE
350
17
  3
ACAD_PLOTSETTINGS
350
19
  3
ACAD_PLOTSTYLENAME
350
E
  0
DICTIONARY
  5
D
102
{ACAD_REACTORS
330
C
102
}
330
C
100
AcDbDictionary
281
     1
  3
LCGROUP10
350
47D
  3
LCGROUP1233
350
47F
  3
LCGROUP656
350
47E
  0
DICTIONARY
  5
1A
102
{ACAD_REACTORS
330
C
102
}
330
C
100
AcDbDictionary
281
     1
  3
Layout1
350
1E
  3
Layout2
350
26
  3
Model
350
22
  0
DICTIONARY
  5
17
102
{ACAD_REACTORS
330
C
102
}
330
C
100
AcDbDictionary
281
     1
  3
Standard
350
18
  0
DICTIONARY
  5
19
102
{ACAD_REACTORS
330
C
102
}
330
C
100
AcDbDictionary
281
     1
  0
ACDBDICTIONARYWDFLT
  5
E
102
{ACAD_REACTORS
330
C
102
}
330
C
100
AcDbDictionary
281
     1
  3
Normal
350
F
100
AcDbDictionaryWithDefault
340
F
  0
GROUP
  5
47D
102
{ACAD_REACTORS
330
D
102
}
330
D
100
AcDbGroup
300
GRP10
 70
     1
 71
     1
340
31
340
32
340
33
340
34
340
35
340
36
340
37
340
39
340
3A
340
3B
340
3C
340
3D
340
3E
340
3F
340
40
340
41
340
42
340
43
340
44
340
45
340
46
340
47
340
48
340
49
340
4A
340
4B
340
4E
340
4F
340
50
340
51
340
52
340
53
340
54
340
55
340
56
340
57
340
58
340
59
340
12A
340
12C
340
12D
340
299
340
29A
340
29B
340
29C
340
29D
340
29E
340
29F
340
2A0
340
2A1
340
2A2
  0
GROUP
  5
47F
102
{ACAD_REACTORS
330
D
102
}
330
D
100
AcDbGroup
300
GRP1233
 70
     1
 71
     1
340
3C8
340
3C9
340
3CA
340
3CB
340
3CC
340
3CD
340
3CE
340
3CF
340
3D0
340
3D1
340
3D2
340
3D3
340
3D4
340
3D5
340
3D6
340
3D7
340
3D8
340
3D9
340
3DA
340
3DB
340
3DC
340
3DD
340
3DE
340
3DF
340
3E0
340
3E1
340
3E2
340
3E3
340
3E4
340
3E5
340
3E6
340
3E7
340
3E8
340
3E9
340
3EA
340
3EB
340
3EC
340
3ED
340
3EE
340
3EF
340
3F0
340
3F1
340
3F2
340
3F3
340
3F4
340
3F5
340
3F6
340
3F7
340
3F8
340
3F9
340
3FA
340
3FB
340
3FC
340
3FD
340
3FE
340
3FF
340
400
340
401
340
402
340
403
340
404
340
405
340
406
340
407
340
408
340
409
340
40A
340
40B
340
40C
  0
GROUP
  5
47E
102
{ACAD_REACTORS
330
D
102
}
330
D
100
AcDbGroup
300
GRP656
 70
     1
 71
     1
340
150
340
151
340
152
340
153
340
154
340
155
340
156
340
157
340
158
340
159
340
15A
340
15B
340
15C
340
15D
340
15E
340
15F
340
160
340
161
340
162
340
163
340
164
340
165
340
166
340
167
340
168
340
169
340
16A
340
16B
340
16C
340
16D
340
16E
340
16F
340
170
340
171
340
172
340
173
340
174
340
175
340
176
340
177
340
178
340
179
340
17A
340
17B
340
17C
340
17D
340
17E
340
17F
340
180
340
181
340
182
340
183
340
184
340
185
340
186
340
187
340
188
340
189
340
18A
340
18B
340
18C
340
18D
340
18E
340
18F
340
190
340
191
340
192
340
193
340
194
340
195
340
196
340
197
340
198
340
199
340
19A
340
19B
340
19C
340
19D
340
19E
340
19F
340
1A0
340
1A1
340
1A2
340
1A3
340
1A4
340
1A5
340
1A6
340
1A7
340
1A8
340
1A9
340
1AA
340
1AB
340
1AC
340
1AD
340
1AE
340
1AF
340
1B0
340
1B1
340
1B2
340
1B3
340
1B4
340
1B5
340
1B6
340
1B7
340
1B8
340
1B9
340
1BA
340
1BB
340
1BC
340
1BD
340
1BE
340
1BF
340
1C0
340
1C1
340
1C2
340
1C3
340
1C4
340
1C5
340
1C6
340
1C7
340
1C8
340
1C9
340
1CA
340
1CB
340
1CC
340
1CD
340
1CE
340
1CF
340
1D0
340
1D1
340
1D2
340
1D3
340
1D4
340
1D5
340
1D6
340
1D7
340
1D8
340
1D9
340
1DA
340
1DB
340
1DC
340
1DD
340
1DE
340
1DF
340
1E0
340
1E1
340
1E2
340
1E3
340
1E4
340
1E5
340
1E6
340
1E7
340
1E8
340
1E9
340
1EA
340
1EB
340
1EC
340
1ED
340
1EE
340
1EF
340
28B
  0
LAYOUT
  5
1E
102
{ACAD_REACTORS
330
1A
102
}
330
1A
100
AcDbPlotSettings
  1

  2

  4

  6

 40
0.0
 41
0.0
 42
0.0
 43
0.0
 44
0.0
 45
0.0
 46
0.0
 47
0.0
 48
0.0
 49
0.0
140
0.0
141
0.0
142
1.0
143
1.0
 70
   688
 72
     0
 73
     0
 74
     5
  7

 75
    16
147
1.0
148
0.0
149
0.0
100
AcDbLayout
  1
Layout1
 70
     1
 71
     1
 10
-416.048018
 20
-310.32
 11
771.951982
 21
529.68
 12
0.0
 22
0.0
 32
0.0
 14
-416.048018
 24
-310.32
 34
0.0
 15
771.951982
 25
529.68
 35
0.0
146
0.0
 13
0.0
 23
0.0
 33
0.0
 16
1.0
 26
0.0
 36
0.0
 17
0.0
 27
1.0
 37
0.0
 76
     0
330
1B
  0
LAYOUT
  5
26
102
{ACAD_REACTORS
330
1A
102
}
330
1A
100
AcDbPlotSettings
  1

  2

  4

  6

 40
0.0
 41
0.0
 42
0.0
 43
0.0
 44
0.0
 45
0.0
 46
0.0
 47
0.0
 48
0.0
 49
0.0
140
0.0
141
0.0
142
1.0
143
1.0
 70
   688
 72
     0
 73
     0
 74
     5
  7

 75
    16
147
1.0
148
0.0
149
0.0
100
AcDbLayout
  1
Layout2
 70
     1
 71
     2
 10
0.0
 20
0.0
 11
0.0
 21
0.0
 12
0.0
 22
0.0
 32
0.0
 14
0.0
 24
0.0
 34
0.0
 15
0.0
 25
0.0
 35
0.0
146
0.0
 13
0.0
 23
0.0
 33
0.0
 16
1.0
 26
0.0
 36
0.0
 17
0.0
 27
1.0
 37
0.0
 76
     0
330
23
  0
LAYOUT
  5
22
102
{ACAD_REACTORS
330
1A
102
}
330
1A
100
AcDbPlotSettings
  1

  2

  4

  6

 40
0.0
 41
0.0
 42
0.0
 43
0.0
 44
0.0
 45
0.0
 46
0.0
 47
0.0
 48
0.0
 49
0.0
140
0.0
141
0.0
142
1.0
143
1.0
 70
  1776
 72
     0
 73
     0
 74
     0
  7

 75
     0
147
1.0
148
0.0
149
0.0
100
AcDbLayout
  1
Model
 70
     1
 71
     0
 10
-416.048018
 20
-310.32
 11
771.951982
 21
529.68
 12
0.0
 22
0.0
 32
0.0
 14
-416.048018
 24
-310.32
 34
0.0
 15
771.951982
 25
529.68
 35
0.0
146
0.0
 13
0.0
 23
0.0
 33
0.0
 16
1.0
 26
0.0
 36
0.0
 17
0.0
 27
1.0
 37
0.0
 76
     0
330
1F
  0
MLINESTYLE
  5
18
102
{ACAD_REACTORS
330
17
102
}
330
17
100
AcDbMlineStyle
  2
Standard
 70
     0
  3

 62
   256
 51
90.0
 52
90.0
 71
     2
 49
0.5
 62
   256
  6
BYLAYER
 49
-0.5
 62
   256
  6
BYLAYER
  0
ACDBPLACEHOLDER
  5
F
102
{ACAD_REACTORS
330
E
102
}
330
E
  0
ENDSEC
  0
EOF
