  0
SECTION
  2
HEADER
  9
$ACADVER
  1
AC1009
  9
$INSBASE
 10
0.0
 20
0.0
 30
0.0
  9
$EXTMIN
 10
-210.0
 20
-148.5
 30
0.0
  9
$EXTMAX
 10
630.0
 20
445.5
 30
0.0
  9
$LIMMIN
 10
-210.0
 20
-148.5
  9
$LIMMAX
 10
630.0
 20
445.5
  9
$ORTHOMODE
 70
     0
  9
$REGENMODE
 70
     1
  9
$FILLMODE
 70
     1
  9
$QTEXTMODE
 70
     0
  9
$MIRRTEXT
 70
     1
  9
$DRAGMODE
 70
     2
  9
$LTSCALE
 40
2.0
  9
$OSMODE
 70
     0
  9
$ATTMODE
 70
     1
  9
$TEXTSIZE
 40
0.2
  9
$TRACEWID
 40
0.05
  9
$TEXTSTYLE
  7
STANDARD
  9
$CLAYER
  8
0
  9
$CELTYPE
  6
BYLAYER
  9
$CECOLOR
 62
     7
  9
$DIMSCALE
 40
2.0
  9
$DIMASZ
 40
3.5
  9
$DIMEXO
 40
0.0625
  9
$DIMDLI
 40
0.38
  9
$DIMRND
 40
0.0
  9
$DIMDLE
 40
0.0
  9
$DIMEXE
 40
0.18
  9
$DIMTP
 40
0.0
  9
$DIMTM
 40
0.0
  9
$DIMTXT
 40
3.5
  9
$DIMCEN
 40
0.09
  9
$DIMTSZ
 40
0.0
  9
$DIMTOL
 70
     0
  9
$DIMLIM
 70
     0
  9
$DIMTIH
 70
     1
  9
$DIMTOH
 70
     1
  9
$DIMSE1
 70
     0
  9
$DIMSE2
 70
     0
  9
$DIMTAD
 70
     1
  9
$DIMZIN
 70
     0
  9
$DIMBLK
  1

  9
$DIMASO
 70
     1
  9
$DIMSHO
 70
     1
  9
$DIMPOST
  1

  9
$DIMAPOST
  1

  9
$DIMALT
 70
     0
  9
$DIMALTD
 70
     2
  9
$DIMALTF
 40
25.4
  9
$DIMLFAC
 40
1.0
  9
$DIMTOFL
 70
     0
  9
$DIMTVP
 40
0.0
  9
$DIMTIX
 70
     0
  9
$DIMSOXD
 70
     0
  9
$DIMSAH
 70
     0
  9
$DIMBLK1
  1

  9
$DIMBLK2
  1

  9
$DIMSTYLE
  2
STANDARD
  9
$DIMCLRD
 70
     0
  9
$DIMCLRE
 70
     0
  9
$DIMCLRT
 70
     0
  9
$DIMTFAC
 40
1.0
  9
$DIMGAP
 40
0.09
  9
$LUNITS
 70
     2
  9
$LUPREC
 70
     2
  9
$AXISMODE
 70
     0
  9
$AXISUNIT
 10
0.0
 20
0.0
  9
$SKETCHINC
 40
0.1
  9
$FILLETRAD
 40
0.0
  9
$AUNITS
 70
     0
  9
$AUPREC
 70
     0
  9
$MENU
  1
acad
  9
$ELEVATION
 40
0.0
  9
$PELEVATION
 40
0.0
  9
$THICKNESS
 40
0.0
  9
$LIMCHECK
 70
     0
  9
$BLIPMODE
 70
     1
  9
$CHAMFERA
 40
0.0
  9
$CHAMFERB
 40
0.0
  9
$SKPOLY
 70
     0
  9
$TDCREATE
 40
0.000000000
  9
$TDUPDATE
 40
0.000000000
  9
$TDINDWG
 40
0.0000000000
  9
$TDUSRTIMER
 40
0.0000000000
  9
$USRTIMER
 70
     1
  9
$ANGBASE
 50
0.0
  9
$ANGDIR
 70
     0
  9
$PDMODE
 70
     0
  9
$PDSIZE
 40
0.0
  9
$PLINEWID
 40
0.0
  9
$COORDS
 70
     0
  9
$SPLFRAME
 70
     0
  9
$SPLINETYPE
 70
     6
  9
$SPLINESEGS
 70
     8
  9
$ATTDIA
 70
     0
  9
$ATTREQ
 70
     1
  9
$HANDLING
 70
     1
  9
$HANDSEED
  5
4B8
  9
$SURFTAB1
 70
     6
  9
$SURFTAB2
 70
     6
  9
$SURFTYPE
 70
     6
  9
$SURFU
 70
     6
  9
$SURFV
 70
     6
  9
$UCSNAME
  2

  9
$UCSORG
 10
0.0
 20
0.0
 30
0.0
  9
$UCSXDIR
 10
1.0
 20
0.0
 30
0.0
  9
$UCSYDIR
 10
0.0
 20
1.0
 30
0.0
  9
$PUCSNAME
  2

  9
$PUCSORG
 10
0.0
 20
0.0
 30
0.0
  9
$PUCSXDIR
 10
1.0
 20
0.0
 30
0.0
  9
$PUCSYDIR
 10
0.0
 20
1.0
 30
0.0
  9
$USERI1
 70
     0
  9
$USERI2
 70
     0
  9
$USERI3
 70
     0
  9
$USERI4
 70
     0
  9
$USERI5
 70
     0
  9
$USERR1
 40
0.0
  9
$USERR2
 40
0.0
  9
$USERR3
 40
0.0
  9
$USERR4
 40
0.0
  9
$USERR5
 40
0.0
  9
$WORLDVIEW
 70
     1
  9
$SHADEDGE
 70
     3
  9
$SHADEDIF
 70
    70
  9
$TILEMODE
 70
     1
  9
$MAXACTVP
 70
    16
  9
$PINSBASE
 10
0.0
 20
0.0
 30
0.0
  9
$PLIMCHECK
 70
     0
  9
$PEXTMIN
 10
1.000000E+20
 20
1.000000E+20
 30
1.000000E+20
  9
$PEXTMAX
 10
-1.000000E+20
 20
-1.000000E+20
 30
-1.000000E+20
  9
$PLIMMIN
 10
-210.0
 20
-148.5
  9
$PLIMMAX
 10
630.0
 20
445.5
  9
$UNITMODE
 70
     0
  9
$VISRETAIN
 70
     0
  9
$PLINEGEN
 70
     1
  9
$PSLTSCALE
 70
     0
  9
$TREEDEPTH
 70
  3020
  9
$DWGCODEPAGE
  3
dos850
  0
ENDSEC
  0
SECTION
  2
TABLES
  0
TABLE
  2
VPORT
 70
     1
  0
VPORT
  2
*ACTIVE
 70
     0
 10
0.0
 20
0.0
 11
1.0
 21
1.0
 12
420.0
 22
297.0
 13
0.0
 23
0.0
 14
1.0
 24
1.0
 15
0.0
 25
0.0
 16
0.0
 26
0.0
 36
1.0
 17
-210.0
 27
-148.5
 37
0.0
 40
594.0
 41
1.604229
 42
50.0
 43
0.0
 44
0.0
 50
0.0
 51
0.0
 71
     0
 72
   100
 73
     1
 74
     1
 75
     0
 76
     0
 77
     0
 78
     0
  0
ENDTAB
  0
TABLE
  2
LTYPE
 70
     5
  0
LTYPE
  2
CONTINUOUS
 70
    64
  3
Solid line
 72
    65
 73
     0
 40
0.0
  0
LTYPE
  2
DASHED
 70
    64
  3
__ __ __ __ __
 72
    65
 73
     2
 40
6.25
 49
5.0
 49
-1.25
  0
LTYPE
  2
DASHDOT
 70
    64
  3
__ . __ . __ . __ . __
 72
    65
 73
     4
 40
7.5
 49
5.0
 49
-1.25
 49
0.0
 49
-1.25
  0
LTYPE
  2
CENTER
 70
    64
  3
__ . __ . __ . __ . __
 72
    65
 73
     4
 40
7.5
 49
5.0
 49
-1.25
 49
0.0
 49
-1.25
  0
LTYPE
  2
LC-LINIENTYP-012
 70
    64
  3
Solid line
 72
    65
 73
     0
 40
0.0
  0
ENDTAB
  0
TABLE
  2
LAYER
 70
    13
  0
LAYER
  2
0
 70
     0
 62
     7
  6
CONTINUOUS
  0
LAYER
  2
LC-INFO-1-2-MM-A3-0
 70
     1
 62
    -1
  6
CONTINUOUS
  0
LAYER
  2
LC-007-005-----0
 70
     0
 62
     2
  6
CONTINUOUS
  0
LAYER
  2
LC-009-003-MTH-0
 70
     0
 62
     2
  6
CONTINUOUS
  0
LAYER
  2
LC-010-003-MTG-0
 70
     0
 62
     2
  6
CONTINUOUS
  0
LAYER
  2
LC-008-003-----0
 70
     0
 62
     2
  6
CONTINUOUS
  0
LAYER
  2
LC-001-000-----0
 70
     0
 62
     7
  6
CONTINUOUS
  0
LAYER
  2
LC-002-002-----0
 70
     0
 62
     1
  6
CONTINUOUS
  0
LAYER
  2
LC-003-002-RND-0
 70
     0
 62
     1
  6
CONTINUOUS
  0
LAYER
  2
LC-004-100-D03-0
 70
     0
 62
     1
  6
CONTINUOUS
  0
LAYER
  2
LC-005-100-D01-0
 70
     0
 62
     1
  6
CONTINUOUS
  0
LAYER
  2
LC-006-006-MLN-0
 70
     0
 62
     2
  6
CENTER
  0
LAYER
  2
LC-000
 70
     0
 62
     7
  6
CONTINUOUS
  0
ENDTAB
  0
TABLE
  2
STYLE
 70
     3
  0
STYLE
  2
STANDARD
 70
     0
 40
0.0
 41
1.0
 50
0.0
 71
     0
 42
0.0
  3
txt
  4

  0
STYLE
  2
LC-TXTSTYLE-150-400-0-0-A1
 70
    64
 40
0.0
 41
1.0
 50
15.0
 71
     0
 42
3.5
  3
Arial
  4

  0
STYLE
  2
LC-STANDARD
 70
    64
 40
0.0
 41
1.0
 50
0.0
 71
     0
 42
3.5
  3
MONOTXT
  4

  0
ENDTAB
  0
TABLE
  2
VIEW
 70
     0
  0
ENDTAB
  0
TABLE
  2
UCS
 70
     0
  0
ENDTAB
  0
TABLE
  2
APPID
 70
     1
  0
APPID
  2
ACAD
 70
     0
  0
ENDTAB
  0
TABLE
  2
DIMSTYLE
 70
     4
  0
DIMSTYLE
  2
STANDARD
 70
     0
  3

  4

  5

  6

  7

 40
1.0
 41
0.18
 42
0.0625
 43
0.38
 44
0.18
 45
0.0
 46
0.0
 47
0.0
 48
0.0
 71
     0
 72
     0
 73
     1
 74
     1
 75
     0
 76
     0
 77
     0
 78
     0
140
0.18
141
0.09
142
0.0
143
25.4
144
1.0
145
0.0
146
1.0
147
0.09
170
     0
171
     2
172
     0
173
     0
174
     0
175
     0
176
     0
177
     0
178
     0
  0
DIMSTYLE
  2
LC-STANDARD
 70
     0
  3

  4

  5

  6

  7

 40
1.0
 41
3.5
 42
0.0
 43
7.5
 44
1.8
 45
0.0
 46
0.0
 47
0.0
 48
0.0
 71
     0
 72
     0
 73
     0
 74
     0
 75
     0
 76
     0
 77
     1
 78
     8
140
3.5
141
0.0
142
0.0
143
25.4
144
1.0
145
0.0
146
0.71
147
1.5
170
     0
171
     2
172
     1
173
     0
174
     0
175
     0
176
     0
177
     0
178
     3
  0
DIMSTYLE
  2
LC-DIM-L-0140-02-02
 70
     0
  3

  4

  5

  6

  7

 40
2.0
 41
3.5
 42
0.0
 43
7.5
 44
1.8
 45
0.0
 46
0.0
 47
0.0
 48
0.0
 71
     0
 72
     0
 73
     0
 74
     0
 75
     0
 76
     0
 77
     1
 78
     8
140
14.0
141
0.0
142
0.0
143
25.4
144
1.0
145
0.0
146
0.71
147
1.5
170
     0
171
     2
172
     0
173
     0
174
     0
175
     0
176
     2
177
     2
178
     8
  0
DIMSTYLE
  2
LC-DIM-L-0140-01-02
 70
     0
  3

  4

  5

  6

  7

 40
2.0
 41
3.5
 42
0.0
 43
7.5
 44
1.8
 45
0.0
 46
0.0
 47
0.0
 48
0.0
 71
     0
 72
     0
 73
     0
 74
     0
 75
     0
 76
     0
 77
     1
 78
     8
140
14.0
141
0.0
142
0.0
143
25.4
144
1.0
145
0.0
146
0.71
147
1.5
170
     0
171
     2
172
     0
173
     0
174
     0
175
     0
176
     2
177
     2
178
     8
  0
ENDTAB
  0
ENDSEC
  0
SECTION
  2
BLOCKS
  0
BLOCK
  8
0
  5
24
  2
BLK1
 70
    64
 10
0.0
 20
0.0
 30
0.0
  3
BLK1
  0
ENDBLK
  8
0
  5
25
  0
BLOCK
  8
0
  5
27
  2
*X1
 70
    65
 10
117.357659
 20
178.235617
 30
0.0
  3
*X1
  0
LINE
  8
LC-007-005-----0
  6
CONTINUOUS
  5
29
 10
181.064045
 20
178.235618
 30
0.0
 11
181.122525
 21
178.294098
 31
0.0
  0
LINE
  8
LC-007-005-----0
  6
CONTINUOUS
  5
2A
 10
178.618745
 20
178.618745
 30
0.0
 11
181.074001
 21
181.074001
 31
0.0
  0
LINE
  8
LC-007-005-----0
  6
CONTINUOUS
  5
2B
 10
177.105081
 20
179.933508
 30
0.0
 11
181.025478
 21
183.853905
 31
0.0
  0
LINE
  8
LC-007-005-----0
  6
CONTINUOUS
  5
2C
 10
174.87437
 20
180.531225
 30
0.0
 11
180.976955
 21
186.633809
 31
0.0
  0
LINE
  8
LC-007-005-----0
  6
CONTINUOUS
  5
2D
 10
172.64366
 20
181.128941
 30
0.0
 11
180.928431
 21
189.413713
 31
0.0
  0
LINE
  8
LC-007-005-----0
  6
CONTINUOUS
  5
2E
 10
169.821909
 20
181.135617
 30
0.0
 11
174.068356
 21
185.382064
 31
0.0
  0
LINE
  8
LC-007-005-----0
  6
CONTINUOUS
  5
2F
 10
175.970737
 20
187.284445
 30
0.0
 11
180.879908
 21
192.193616
 31
0.0
  0
LINE
  8
LC-007-005-----0
  6
CONTINUOUS
  5
30
 10
166.993482
 20
181.135618
 30
0.0
 11
171.239929
 21
185.382064
 31
0.0
  0
LINE
  8
LC-007-005-----0
  6
CONTINUOUS
  5
31
 10
175.922213
 20
190.064349
 30
0.0
 11
179.885901
 21
194.028037
 31
0.0
  0
LINE
  8
LC-007-005-----0
  6
CONTINUOUS
  5
32
 10
164.165055
 20
181.135618
 30
0.0
 11
168.411502
 21
185.382065
 31
0.0
  0
LINE
  8
LC-007-005-----0
  6
CONTINUOUS
  5
33
 10
175.87369
 20
192.844252
 30
0.0
 11
179.658795
 21
196.629358
 31
0.0
  0
LINE
  8
LC-007-005-----0
  6
CONTINUOUS
  5
34
 10
161.336628
 20
181.135618
 30
0.0
 11
165.583075
 21
185.382065
 31
0.0
  0
LINE
  8
LC-007-005-----0
  6
CONTINUOUS
  5
35
 10
175.825166
 20
195.624156
 30
0.0
 11
180.734338
 21
200.533327
 31
0.0
  0
LINE
  8
LC-007-005-----0
  6
CONTINUOUS
  5
36
 10
158.508201
 20
181.135618
 30
0.0
 11
162.754648
 21
185.382065
 31
0.0
  0
LINE
  8
LC-007-005-----0
  6
CONTINUOUS
  5
37
 10
175.776643
 20
198.40406
 30
0.0
 11
180.685814
 21
203.313231
 31
0.0
  0
LINE
  8
LC-007-005-----0
  6
CONTINUOUS
  5
38
 10
155.679774
 20
181.135618
 30
0.0
 11
162.00483
 21
187.460674
 31
0.0
  0
LINE
  8
LC-007-005-----0
  6
CONTINUOUS
  5
39
 10
175.728119
 20
201.183963
 30
0.0
 11
180.637291
 21
206.093135
 31
0.0
  0
LINE
  8
LC-007-005-----0
  6
CONTINUOUS
  5
3A
 10
152.851347
 20
181.135618
 30
0.0
 11
157.097794
 21
185.382065
 31
0.0
  0
LINE
  8
LC-007-005-----0
  6
CONTINUOUS
  5
3B
 10
159.290387
 20
187.574658
 30
0.0
 11
159.928325
 21
188.212596
 31
0.0
  0
LINE
  8
LC-007-005-----0
  6
CONTINUOUS
  5
3C
 10
175.679596
 20
203.963867
 30
0.0
 11
180.588767
 21
208.873039
 31
0.0
  0
LINE
  8
LC-007-005-----0
  6
CONTINUOUS
  5
3D
 10
150.02292
 20
181.135619
 30
0.0
 11
154.269367
 21
185.382065
 31
0.0
  0
LINE
  8
LC-007-005-----0
  6
CONTINUOUS
  5
3E
 10
175.631072
 20
206.743771
 30
0.0
 11
180.540244
 21
211.652942
 31
0.0
  0
LINE
  8
LC-007-005-----0
  6
CONTINUOUS
  5
3F
 10
147.194493
 20
181.135619
 30
0.0
 11
151.44094
 21
185.382065
 31
0.0
  0
LINE
  8
LC-007-005-----0
  6
CONTINUOUS
  5
40
 10
175.582549
 20
209.523674
 30
0.0
 11
180.491721
 21
214.432846
 31
0.0
  0
LINE
  8
LC-007-005-----0
  6
CONTINUOUS
  5
41
 10
144.366066
 20
181.135619
 30
0.0
 11
148.612513
 21
185.382065
 31
0.0
  0
LINE
  8
LC-007-005-----0
  6
CONTINUOUS
  5
42
 10
175.534025
 20
212.303578
 30
0.0
 11
180.443197
 21
217.21275
 31
0.0
  0
LINE
  8
LC-007-005-----0
  6
CONTINUOUS
  5
43
 10
141.537639
 20
181.135619
 30
0.0
 11
145.784086
 21
185.382065
 31
0.0
  0
LINE
  8
LC-007-005-----0
  6
CONTINUOUS
  5
44
 10
175.485502
 20
215.083482
 30
0.0
 11
180.394674
 21
219.992654
 31
0.0
  0
LINE
  8
LC-007-005-----0
  6
CONTINUOUS
  5
45
 10
138.709212
 20
181.135619
 30
0.0
 11
142.955658
 21
185.382065
 31
0.0
  0
LINE
  8
LC-007-005-----0
  6
CONTINUOUS
  5
46
 10
175.436979
 20
217.863385
 30
0.0
 11
180.34615
 21
222.772557
 31
0.0
  0
LINE
  8
LC-007-005-----0
  6
CONTINUOUS
  5
47
 10
136.357265
 20
181.612099
 30
0.0
 11
140.757204
 21
186.012038
 31
0.0
  0
LINE
  8
LC-007-005-----0
  6
CONTINUOUS
  5
48
 10
175.388455
 20
220.643289
 30
0.0
 11
180.297627
 21
225.552461
 31
0.0
  0
LINE
  8
LC-007-005-----0
  6
CONTINUOUS
  5
49
 10
136.357265
 20
184.440526
 30
0.0
 11
139.721928
 21
187.805189
 31
0.0
  0
LINE
  8
LC-007-005-----0
  6
CONTINUOUS
  5
4A
 10
175.339932
 20
223.423193
 30
0.0
 11
180.249104
 21
228.332365
 31
0.0
  0
LINE
  8
LC-007-005-----0
  6
CONTINUOUS
  5
4B
 10
135.959629
 20
186.871317
 30
0.0
 11
138.686652
 21
189.59834
 31
0.0
  0
LINE
  8
LC-007-005-----0
  6
CONTINUOUS
  5
4C
 10
175.291408
 20
226.203096
 30
0.0
 11
179.930737
 21
230.842425
 31
0.0
  0
LINE
  8
LC-007-005-----0
  6
CONTINUOUS
  5
4D
 10
133.545505
 20
187.28562
 30
0.0
 11
137.641129
 21
191.381244
 31
0.0
  0
LINE
  8
LC-007-005-----0
  6
CONTINUOUS
  5
4E
 10
175.242885
 20
228.983
 30
0.0
 11
179.835299
 21
233.575414
 31
0.0
  0
LINE
  8
LC-007-005-----0
  6
CONTINUOUS
  5
4F
 10
130.717078
 20
187.28562
 30
0.0
 11
134.656272
 21
191.224815
 31
0.0
  0
LINE
  8
LC-007-005-----0
  6
CONTINUOUS
  5
50
 10
176.33066
 20
232.899203
 30
0.0
 11
179.739861
 21
236.308403
 31
0.0
  0
LINE
  8
LC-007-005-----0
  6
CONTINUOUS
  5
51
 10
127.371949
 20
186.768918
 30
0.0
 11
131.671416
 21
191.068386
 31
0.0
  0
LINE
  8
LC-007-005-----0
  6
CONTINUOUS
  5
52
 10
176.48709
 20
235.88406
 30
0.0
 11
179.644422
 21
239.041392
 31
0.0
  0
LINE
  8
LC-007-005-----0
  6
CONTINUOUS
  5
53
 10
120.060323
 20
182.285719
 30
0.0
 11
128.68656
 21
190.911957
 31
0.0
  0
LINE
  8
LC-007-005-----0
  6
CONTINUOUS
  5
54
 10
117.357659
 20
182.411483
 30
0.0
 11
120.345939
 21
185.399763
 31
0.0
  0
LINE
  8
LC-007-005-----0
  6
CONTINUOUS
  5
55
 10
120.859315
 20
185.913139
 30
0.0
 11
125.701703
 21
190.755527
 31
0.0
  0
ENDBLK
  8
0
  5
56
  0
BLOCK
  8
0
  5
58
  2
BLK2
 70
    64
 10
0.0
 20
0.0
 30
0.0
  3
BLK2
  0
ENDBLK
  8
0
  5
59
  0
BLOCK
  8
0
  5
5B
  2
*X3
 70
    65
 10
127.457265
 20
63.98562
 30
0.0
  3
*X3
  0
LINE
  8
LC-007-005-----0
  6
CONTINUOUS
  5
5C
 10
135.306252
 20
64.595574
 30
0.0
 11
136.156242
 21
65.445564
 31
0.0
  0
LINE
  8
LC-007-005-----0
  6
CONTINUOUS
  5
5D
 10
132.467871
 20
64.58562
 30
0.0
 11
135.763105
 21
67.880854
 31
0.0
  0
LINE
  8
LC-007-005-----0
  6
CONTINUOUS
  5
5E
 10
129.494524
 20
64.4407
 30
0.0
 11
133.047314
 21
67.99349
 31
0.0
  0
LINE
  8
LC-007-005-----0
  6
CONTINUOUS
  5
5F
 10
127.931177
 20
65.705781
 30
0.0
 11
133.503671
 21
71.278274
 31
0.0
  0
ENDBLK
  8
0
  5
60
  0
BLOCK
  8
0
  5
62
  2
*X4
 70
    65
 10
127.457265
 20
180.38562
 30
0.0
  3
*X4
  0
LINE
  8
LC-007-005-----0
  6
CONTINUOUS
  5
63
 10
132.554507
 20
180.637768
 30
0.0
 11
133.423012
 21
181.506273
 31
0.0
  0
LINE
  8
LC-007-005-----0
  6
CONTINUOUS
  5
64
 10
135.900072
 20
183.983333
 30
0.0
 11
136.355429
 21
184.43869
 31
0.0
  0
LINE
  8
LC-007-005-----0
  6
CONTINUOUS
  5
65
 10
130.761356
 20
181.673044
 30
0.0
 11
133.158306
 21
184.069994
 31
0.0
  0
LINE
  8
LC-007-005-----0
  6
CONTINUOUS
  5
66
 10
133.467698
 20
184.379387
 30
0.0
 11
135.969107
 21
186.880795
 31
0.0
  0
LINE
  8
LC-007-005-----0
  6
CONTINUOUS
  5
67
 10
128.968205
 20
182.70832
 30
0.0
 11
133.545505
 21
187.28562
 31
0.0
  0
LINE
  8
LC-007-005-----0
  6
CONTINUOUS
  5
68
 10
127.523738
 20
184.092281
 30
0.0
 11
130.717078
 21
187.28562
 31
0.0
  0
LINE
  8
LC-007-005-----0
  6
CONTINUOUS
  5
69
 10
131.277849
 20
187.846392
 30
0.0
 11
131.296493
 21
187.865036
 31
0.0
  0
ENDBLK
  8
0
  5
6A
  0
BLOCK
  8
0
  5
6C
  2
BLK3
 70
    64
 10
0.0
 20
0.0
 30
0.0
  3
BLK3
  0
ENDBLK
  8
0
  5
6D
  0
BLOCK
  8
0
  5
6F
  2
BLK4
 70
    64
 10
0.0
 20
0.0
 30
0.0
  3
BLK4
  0
ENDBLK
  8
0
  5
70
  0
BLOCK
  8
0
  5
72
  2
BLK5
 70
    64
 10
0.0
 20
0.0
 30
0.0
  3
BLK5
  0
ENDBLK
  8
0
  5
73
  0
BLOCK
  8
0
  5
75
  2
BLK6
 70
    64
 10
0.0
 20
0.0
 30
0.0
  3
BLK6
  0
ENDBLK
  8
0
  5
76
  0
BLOCK
  8
0
  5
78
  2
*X9
 70
    65
 10
179.301456
 20
192.025852
 30
0.0
  3
*X9
  0
LINE
  8
LC-007-005-----0
  6
CONTINUOUS
  5
79
 10
205.224679
 20
202.068826
 30
0.0
 11
204.405571
 21
202.887935
 31
0.0
  0
LINE
  8
LC-007-005-----0
  6
DASHED
  5
7B
 10
202.397019
 20
199.239633
 30
0.0
 11
198.845763
 21
202.790888
 31
0.0
  0
LINE
  8
LC-007-005-----0
  6
DASHED
  5
7C
 10
200.630202
 20
198.178022
 30
0.0
 11
196.527682
 21
202.280542
 31
0.0
  0
LINE
  8
LC-007-005-----0
  6
CONTINUOUS
  5
7D
 10
197.096569
 20
196.054801
 30
0.0
 11
192.994049
 21
200.157321
 31
0.0
  0
LINE
  8
LC-007-005-----0
  6
CONTINUOUS
  5
7E
 10
194.451239
 20
195.871704
 30
0.0
 11
190.920879
 21
199.402064
 31
0.0
  0
LINE
  8
LC-007-005-----0
  6
CONTINUOUS
  5
7F
 10
187.704711
 20
202.618233
 30
0.0
 11
186.743154
 21
203.579789
 31
0.0
  0
LINE
  8
LC-007-005-----0
  6
DASHED
  5
80
 10
191.796119
 20
192.869969
 30
0.0
 11
185.361072
 21
199.305017
 31
0.0
  0
LINE
  8
LC-007-005-----0
  6
DASHED
  5
81
 10
184.751445
 20
199.914644
 30
0.0
 11
181.436027
 21
203.230062
 31
0.0
  0
LINE
  8
LC-007-005-----0
  6
DASHED
  5
82
 10
189.658726
 20
192.178936
 30
0.0
 11
180.730012
 21
201.10765
 31
0.0
  0
LINE
  8
LC-007-005-----0
  6
CONTINUOUS
  5
83
 10
184.098918
 20
192.08189
 30
0.0
 11
180.695273
 21
195.485534
 31
0.0
  0
LINE
  8
LC-007-005-----0
  6
CONTINUOUS
  5
84
 10
181.319014
 20
192.033366
 30
0.0
 11
180.880754
 21
192.471626
 31
0.0
  0
ENDBLK
  8
0
  5
85
  0
BLOCK
  8
0
  5
87
  2
*X10
 70
    65
 10
181.589466
 20
57.013873
 30
0.0
  3
*X10
  0
LINE
  8
LC-007-005-----0
  6
CONTINUOUS
  5
88
 10
205.070258
 20
58.377526
 30
0.0
 11
202.449855
 21
60.997929
 31
0.0
  0
LINE
  8
LC-007-005-----0
  6
DASHED
  5
89
 10
201.893225
 20
58.322071
 30
0.0
 11
195.343591
 21
64.871704
 31
0.0
  0
LINE
  8
LC-007-005-----0
  6
DASHED
  5
8A
 10
200.304708
 20
58.294343
 30
0.0
 11
191.570719
 21
67.028333
 31
0.0
  0
LINE
  8
LC-007-005-----0
  6
CONTINUOUS
  5
8B
 10
193.932945
 20
61.433619
 30
0.0
 11
186.855387
 21
68.511176
 31
0.0
  0
LINE
  8
LC-007-005-----0
  6
CONTINUOUS
  5
8C
 10
192.344428
 20
61.405891
 30
0.0
 11
185.266871
 21
68.483448
 31
0.0
  0
LINE
  8
LC-007-005-----0
  6
DASHED
  5
8D
 10
189.167395
 20
61.350436
 30
0.0
 11
183.062929
 21
67.454902
 31
0.0
  0
LINE
  8
LC-007-005-----0
  6
DASHED
  5
8E
 10
190.217083
 20
58.684504
 30
0.0
 11
189.544867
 21
59.35672
 31
0.0
  0
LINE
  8
LC-007-005-----0
  6
DASHED
  5
8F
 10
187.578879
 20
61.322708
 30
0.0
 11
182.350478
 21
66.551109
 31
0.0
  0
LINE
  8
LC-007-005-----0
  6
CONTINUOUS
  5
90
 10
188.579571
 20
57.089528
 30
0.0
 11
181.909058
 21
63.760041
 31
0.0
  0
LINE
  8
LC-007-005-----0
  6
CONTINUOUS
  5
91
 10
186.991055
 20
57.0618
 30
0.0
 11
183.17778
 21
60.875074
 31
0.0
  0
ENDBLK
  8
0
  5
92
  0
BLOCK
  8
0
  5
94
  2
BLK7
 70
    64
 10
0.0
 20
0.0
 30
0.0
  3
BLK7
  0
ENDBLK
  8
0
  5
95
  0
BLOCK
  8
0
  5
97
  2
*X12
 70
    65
 10
180.644095
 20
199.299142
 30
0.0
  3
*X12
  0
LINE
  8
LC-007-005-----0
  6
CONTINUOUS
  5
98
 10
205.22468
 20
204.493192
 30
0.0
 11
203.102117
 21
206.615755
 31
0.0
  0
LINE
  8
LC-007-005-----0
  6
CONTINUOUS
  5
99
 10
189.662961
 20
220.054911
 30
0.0
 11
188.523123
 21
221.194749
 31
0.0
  0
LINE
  8
LC-007-005-----0
  6
CONTINUOUS
  5
9A
 10
204.405571
 20
202.887935
 30
0.0
 11
200.719343
 21
206.574163
 31
0.0
  0
LINE
  8
LC-007-005-----0
  6
CONTINUOUS
  5
9B
 10
189.490751
 20
217.802755
 30
0.0
 11
186.140349
 21
221.153157
 31
0.0
  0
LINE
  8
LC-007-005-----0
  6
CONTINUOUS
  5
9C
 10
202.022796
 20
202.846344
 30
0.0
 11
198.336568
 21
206.532572
 31
0.0
  0
LINE
  8
LC-007-005-----0
  6
CONTINUOUS
  5
9D
 10
187.198054
 20
217.671086
 30
0.0
 11
183.757574
 21
221.111566
 31
0.0
  0
LINE
  8
LC-007-005-----0
  6
CONTINUOUS
  5
9E
 10
199.640021
 20
202.804752
 30
0.0
 11
195.953794
 21
206.49098
 31
0.0
  0
LINE
  8
LC-007-005-----0
  6
CONTINUOUS
  5
9F
 10
184.815279
 20
217.629495
 30
0.0
 11
181.3748
 21
221.069974
 31
0.0
  0
LINE
  8
LC-007-005-----0
  6
CONTINUOUS
  5
A0
 10
197.28489
 20
202.735518
 30
0.0
 11
193.571019
 21
206.449389
 31
0.0
  0
LINE
  8
LC-007-005-----0
  6
CONTINUOUS
  5
A1
 10
184.542053
 20
215.478354
 30
0.0
 11
180.673957
 21
219.346451
 31
0.0
  0
LINE
  8
LC-007-005-----0
  6
CONTINUOUS
  5
A2
 10
195.68385
 20
201.912192
 30
0.0
 11
191.188244
 21
206.407797
 31
0.0
  0
LINE
  8
LC-007-005-----0
  6
CONTINUOUS
  5
A3
 10
184.585123
 20
213.010919
 30
0.0
 11
180.717026
 21
216.879016
 31
0.0
  0
LINE
  8
LC-007-005-----0
  6
CONTINUOUS
  5
A4
 10
194.169436
 20
201.00224
 30
0.0
 11
188.80547
 21
206.366206
 31
0.0
  0
LINE
  8
LC-007-005-----0
  6
CONTINUOUS
  5
A5
 10
184.628192
 20
210.543484
 30
0.0
 11
180.760095
 21
214.41158
 31
0.0
  0
LINE
  8
LC-007-005-----0
  6
CONTINUOUS
  5
A6
 10
192.655022
 20
200.092288
 30
0.0
 11
186.422695
 21
206.324614
 31
0.0
  0
LINE
  8
LC-007-005-----0
  6
CONTINUOUS
  5
A7
 10
184.671261
 20
208.076048
 30
0.0
 11
180.803164
 21
211.944145
 31
0.0
  0
LINE
  8
LC-007-005-----0
  6
CONTINUOUS
  5
A8
 10
190.920879
 20
199.402064
 30
0.0
 11
187.971675
 21
202.351268
 31
0.0
  0
LINE
  8
LC-007-005-----0
  6
CONTINUOUS
  5
A9
 10
186.743154
 20
203.579789
 30
0.0
 11
180.846234
 21
209.47671
 31
0.0
  0
LINE
  8
LC-007-005-----0
  6
CONTINUOUS
  5
AA
 10
188.538105
 20
199.360473
 30
0.0
 11
186.572116
 21
201.326461
 31
0.0
  0
LINE
  8
LC-007-005-----0
  6
CONTINUOUS
  5
AB
 10
184.36038
 20
203.538198
 30
0.0
 11
180.889303
 21
207.009274
 31
0.0
  0
LINE
  8
LC-007-005-----0
  6
CONTINUOUS
  5
AC
 10
186.15533
 20
199.318881
 30
0.0
 11
185.004053
 21
200.470158
 31
0.0
  0
LINE
  8
LC-007-005-----0
  6
CONTINUOUS
  5
AD
 10
181.977605
 20
203.496606
 30
0.0
 11
180.932372
 21
204.541839
 31
0.0
  0
ENDBLK
  8
0
  5
AE
  0
BLOCK
  8
0
  5
B0
  2
*X13
 70
    65
 10
183.507707
 20
54.086048
 30
0.0
  3
*X13
  0
LINE
  8
LC-007-005-----0
  6
CONTINUOUS
  5
B1
 10
205.224679
 20
56.60686
 30
0.0
 11
203.481741
 21
58.349798
 31
0.0
  0
LINE
  8
LC-007-005-----0
  6
CONTINUOUS
  5
B2
 10
204.528635
 20
54.878538
 30
0.0
 11
201.098967
 21
58.308207
 31
0.0
  0
LINE
  8
LC-007-005-----0
  6
CONTINUOUS
  5
B3
 10
202.599019
 20
54.383789
 30
0.0
 11
197.560222
 21
59.422585
 31
0.0
  0
LINE
  8
LC-007-005-----0
  6
CONTINUOUS
  5
B4
 10
200.216244
 20
54.342197
 30
0.0
 11
193.138686
 21
61.419755
 31
0.0
  0
LINE
  8
LC-007-005-----0
  6
CONTINUOUS
  5
B5
 10
197.833469
 20
54.300606
 30
0.0
 11
190.755912
 21
61.378163
 31
0.0
  0
LINE
  8
LC-007-005-----0
  6
CONTINUOUS
  5
B6
 10
195.450695
 20
54.259014
 30
0.0
 11
190.469691
 21
59.240018
 31
0.0
  0
LINE
  8
LC-007-005-----0
  6
CONTINUOUS
  5
B7
 10
190.339125
 20
59.370584
 30
0.0
 11
188.373137
 21
61.336572
 31
0.0
  0
LINE
  8
LC-007-005-----0
  6
CONTINUOUS
  5
B8
 10
193.06792
 20
54.217423
 30
0.0
 11
190.168088
 21
57.117255
 31
0.0
  0
LINE
  8
LC-007-005-----0
  6
CONTINUOUS
  5
B9
 10
187.956351
 20
59.328992
 30
0.0
 11
187.459
 21
59.826343
 31
0.0
  0
LINE
  8
LC-007-005-----0
  6
CONTINUOUS
  5
BA
 10
190.685146
 20
54.175831
 30
0.0
 11
187.785313
 21
57.075664
 31
0.0
  0
LINE
  8
LC-007-005-----0
  6
CONTINUOUS
  5
BB
 10
188.302371
 20
54.13424
 30
0.0
 11
185.402538
 21
57.034072
 31
0.0
  0
LINE
  8
LC-007-005-----0
  6
CONTINUOUS
  5
BC
 10
185.919596
 20
54.092648
 30
0.0
 11
183.516527
 21
56.495718
 31
0.0
  0
ENDBLK
  8
0
  5
BD
  0
BLOCK
  8
0
  5
BF
  2
BLK8
 70
    64
 10
0.0
 20
0.0
 30
0.0
  3
BLK8
  0
ENDBLK
  8
0
  5
C0
  0
BLOCK
  8
0
  5
C2
  2
*X15
 70
    65
 10
-60.37255
 20
-10.073123
 30
0.0
  3
*X15
  0
LINE
  8
LC-007-005-----0
  6
CONTINUOUS
  5
C3
 10
202.494482
 20
219.345221
 30
0.0
 11
201.202063
 21
220.637639
 31
0.0
  0
LINE
  8
LC-007-005-----0
  6
CONTINUOUS
  5
C4
 10
203.23589
 20
217.795691
 30
0.0
 11
199.661096
 21
221.370485
 31
0.0
  0
LINE
  8
LC-007-005-----0
  6
CONTINUOUS
  5
C5
 10
203.645763
 20
216.577695
 30
0.0
 11
201.996647
 21
218.226812
 31
0.0
  0
LINE
  8
LC-007-005-----0
  6
CONTINUOUS
  5
C6
 10
200.083654
 20
220.139804
 30
0.0
 11
198.670576
 21
221.552883
 31
0.0
  0
LINE
  8
LC-007-005-----0
  6
CONTINUOUS
  5
C7
 10
204.055637
 20
215.3597
 30
0.0
 11
202.465393
 21
216.949943
 31
0.0
  0
LINE
  8
LC-007-005-----0
  6
CONTINUOUS
  5
C8
 10
198.897199
 20
220.518137
 30
0.0
 11
197.856928
 21
221.558409
 31
0.0
  0
LINE
  8
LC-007-005-----0
  6
CONTINUOUS
  5
C9
 10
204.465511
 20
214.141704
 30
0.0
 11
202.875267
 21
215.731947
 31
0.0
  0
LINE
  8
LC-007-005-----0
  6
CONTINUOUS
  5
CA
 10
198.039755
 20
220.567459
 30
0.0
 11
197.148838
 21
221.458376
 31
0.0
  0
LINE
  8
LC-007-005-----0
  6
CONTINUOUS
  5
CB
 10
204.875384
 20
212.923708
 30
0.0
 11
203.285141
 21
214.513952
 31
0.0
  0
LINE
  8
LC-007-005-----0
  6
CONTINUOUS
  5
CC
 10
197.325598
 20
220.473495
 30
0.0
 11
196.517098
 21
221.281994
 31
0.0
  0
LINE
  8
LC-007-005-----0
  6
CONTINUOUS
  5
CD
 10
205.285258
 20
211.705712
 30
0.0
 11
203.695014
 21
213.295956
 31
0.0
  0
LINE
  8
LC-007-005-----0
  6
CONTINUOUS
  5
CE
 10
196.705246
 20
220.285725
 30
0.0
 11
195.946678
 21
221.044292
 31
0.0
  0
LINE
  8
LC-007-005-----0
  6
CONTINUOUS
  5
CF
 10
205.695132
 20
210.487717
 30
0.0
 11
204.104888
 21
212.07796
 31
0.0
  0
LINE
  8
LC-007-005-----0
  6
CONTINUOUS
  5
D0
 10
196.157356
 20
220.025493
 30
0.0
 11
195.429045
 21
220.753803
 31
0.0
  0
LINE
  8
LC-007-005-----0
  6
CONTINUOUS
  5
D1
 10
206.105005
 20
209.269721
 30
0.0
 11
204.514762
 21
210.859965
 31
0.0
  0
LINE
  8
LC-007-005-----0
  6
CONTINUOUS
  5
D2
 10
195.67129
 20
219.703436
 30
0.0
 11
194.959277
 21
220.415449
 31
0.0
  0
LINE
  8
LC-007-005-----0
  6
CONTINUOUS
  5
D3
 10
206.514879
 20
208.051725
 30
0.0
 11
204.924635
 21
209.641969
 31
0.0
  0
LINE
  8
LC-007-005-----0
  6
CONTINUOUS
  5
D4
 10
195.241922
 20
219.324682
 30
0.0
 11
194.534807
 21
220.031798
 31
0.0
  0
LINE
  8
LC-007-005-----0
  6
CONTINUOUS
  5
D5
 10
206.76734
 20
206.991142
 30
0.0
 11
205.334509
 21
208.423973
 31
0.0
  0
LINE
  8
LC-007-005-----0
  6
CONTINUOUS
  5
D6
 10
194.867789
 20
218.890693
 30
0.0
 11
194.154875
 21
219.603607
 31
0.0
  0
LINE
  8
LC-007-005-----0
  6
CONTINUOUS
  5
D7
 10
206.76734
 20
206.18302
 30
0.0
 11
205.744383
 21
207.205977
 31
0.0
  0
LINE
  8
LC-007-005-----0
  6
CONTINUOUS
  5
D8
 10
194.550627
 20
218.399734
 30
0.0
 11
193.820381
 21
219.129979
 31
0.0
  0
LINE
  8
LC-007-005-----0
  6
CONTINUOUS
  5
D9
 10
206.76734
 20
205.374898
 30
0.0
 11
205.76734
 21
206.374898
 31
0.0
  0
LINE
  8
LC-007-005-----0
  6
CONTINUOUS
  5
DA
 10
194.295924
 20
217.846315
 30
0.0
 11
193.534062
 21
218.608177
 31
0.0
  0
LINE
  8
LC-007-005-----0
  6
CONTINUOUS
  5
DB
 10
206.76734
 20
204.566776
 30
0.0
 11
205.76734
 21
205.566776
 31
0.0
  0
LINE
  8
LC-007-005-----0
  6
CONTINUOUS
  5
DC
 10
194.114937
 20
217.219179
 30
0.0
 11
193.301076
 21
218.03304
 31
0.0
  0
LINE
  8
LC-007-005-----0
  6
CONTINUOUS
  5
DD
 10
206.76734
 20
203.758654
 30
0.0
 11
205.76734
 21
204.758654
 31
0.0
  0
LINE
  8
LC-007-005-----0
  6
CONTINUOUS
  5
DE
 10
194.030375
 20
216.495619
 30
0.0
 11
193.130355
 21
217.395639
 31
0.0
  0
LINE
  8
LC-007-005-----0
  6
CONTINUOUS
  5
DF
 10
206.76734
 20
202.950532
 30
0.0
 11
205.76734
 21
203.950532
 31
0.0
  0
LINE
  8
LC-007-005-----0
  6
CONTINUOUS
  5
E0
 10
194.028547
 20
215.689325
 30
0.0
 11
193.037704
 21
216.680168
 31
0.0
  0
LINE
  8
LC-007-005-----0
  6
CONTINUOUS
  5
E1
 10
206.76734
 20
202.14241
 30
0.0
 11
205.76734
 21
203.14241
 31
0.0
  0
LINE
  8
LC-007-005-----0
  6
CONTINUOUS
  5
E2
 10
194.028547
 20
214.881203
 30
0.0
 11
193.028547
 21
215.881203
 31
0.0
  0
LINE
  8
LC-007-005-----0
  6
CONTINUOUS
  5
E3
 10
206.76734
 20
201.334288
 30
0.0
 11
205.76734
 21
202.334288
 31
0.0
  0
LINE
  8
LC-007-005-----0
  6
CONTINUOUS
  5
E4
 10
194.028547
 20
214.073081
 30
0.0
 11
193.028547
 21
215.073081
 31
0.0
  0
LINE
  8
LC-007-005-----0
  6
CONTINUOUS
  5
E5
 10
206.76734
 20
200.526166
 30
0.0
 11
205.76734
 21
201.526166
 31
0.0
  0
LINE
  8
LC-007-005-----0
  6
CONTINUOUS
  5
E6
 10
194.028547
 20
213.264959
 30
0.0
 11
193.028547
 21
214.264959
 31
0.0
  0
LINE
  8
LC-007-005-----0
  6
CONTINUOUS
  5
E7
 10
206.76734
 20
199.718044
 30
0.0
 11
205.76734
 21
200.718044
 31
0.0
  0
LINE
  8
LC-007-005-----0
  6
CONTINUOUS
  5
E8
 10
194.028547
 20
212.456837
 30
0.0
 11
193.028547
 21
213.456837
 31
0.0
  0
LINE
  8
LC-007-005-----0
  6
CONTINUOUS
  5
E9
 10
206.76734
 20
198.909922
 30
0.0
 11
205.76734
 21
199.909922
 31
0.0
  0
LINE
  8
LC-007-005-----0
  6
CONTINUOUS
  5
EA
 10
194.028547
 20
211.648715
 30
0.0
 11
193.028547
 21
212.648715
 31
0.0
  0
LINE
  8
LC-007-005-----0
  6
CONTINUOUS
  5
EB
 10
206.76734
 20
198.1018
 30
0.0
 11
205.76734
 21
199.1018
 31
0.0
  0
LINE
  8
LC-007-005-----0
  6
CONTINUOUS
  5
EC
 10
194.028547
 20
210.840593
 30
0.0
 11
193.028547
 21
211.840593
 31
0.0
  0
LINE
  8
LC-007-005-----0
  6
CONTINUOUS
  5
ED
 10
206.76734
 20
197.293678
 30
0.0
 11
205.76734
 21
198.293678
 31
0.0
  0
LINE
  8
LC-007-005-----0
  6
CONTINUOUS
  5
EE
 10
194.028547
 20
210.032471
 30
0.0
 11
193.028547
 21
211.032471
 31
0.0
  0
LINE
  8
LC-007-005-----0
  6
CONTINUOUS
  5
EF
 10
206.735675
 20
196.517221
 30
0.0
 11
205.76734
 21
197.485556
 31
0.0
  0
LINE
  8
LC-007-005-----0
  6
CONTINUOUS
  5
F0
 10
194.028547
 20
209.224349
 30
0.0
 11
193.028547
 21
210.224349
 31
0.0
  0
LINE
  8
LC-007-005-----0
  6
CONTINUOUS
  5
F1
 10
206.525823
 20
195.918951
 30
0.0
 11
205.751324
 21
196.69345
 31
0.0
  0
LINE
  8
LC-007-005-----0
  6
CONTINUOUS
  5
F2
 10
193.413084
 20
209.031689
 30
0.0
 11
193.028547
 21
209.416227
 31
0.0
  0
LINE
  8
LC-007-005-----0
  6
CONTINUOUS
  5
F3
 10
206.180357
 20
195.456295
 30
0.0
 11
205.473249
 21
196.163402
 31
0.0
  0
LINE
  8
LC-007-005-----0
  6
CONTINUOUS
  5
F4
 10
205.716987
 20
195.111543
 30
0.0
 11
204.941536
 21
195.886994
 31
0.0
  0
LINE
  8
LC-007-005-----0
  6
CONTINUOUS
  5
F5
 10
205.117764
 20
194.902643
 30
0.0
 11
204.148703
 21
195.871704
 31
0.0
  0
LINE
  8
LC-007-005-----0
  6
CONTINUOUS
  5
F6
 10
204.340581
 20
194.871704
 30
0.0
 11
203.340581
 21
195.871704
 31
0.0
  0
LINE
  8
LC-007-005-----0
  6
CONTINUOUS
  5
F7
 10
203.532459
 20
194.871704
 30
0.0
 11
202.532459
 21
195.871704
 31
0.0
  0
LINE
  8
LC-007-005-----0
  6
CONTINUOUS
  5
F8
 10
202.724337
 20
194.871704
 30
0.0
 11
201.724337
 21
195.871704
 31
0.0
  0
LINE
  8
LC-007-005-----0
  6
CONTINUOUS
  5
F9
 10
209.695022
 20
187.092898
 30
0.0
 11
207.931638
 21
188.856281
 31
0.0
  0
LINE
  8
LC-007-005-----0
  6
CONTINUOUS
  5
FA
 10
201.916215
 20
194.871704
 30
0.0
 11
200.916215
 21
195.871704
 31
0.0
  0
LINE
  8
LC-007-005-----0
  6
CONTINUOUS
  5
FB
 10
209.990815
 20
185.988983
 30
0.0
 11
207.108093
 21
188.871704
 31
0.0
  0
LINE
  8
LC-007-005-----0
  6
CONTINUOUS
  5
FC
 10
201.108093
 20
194.871704
 30
0.0
 11
200.108093
 21
195.871704
 31
0.0
  0
LINE
  8
LC-007-005-----0
  6
CONTINUOUS
  5
FD
 10
210.286608
 20
184.885067
 30
0.0
 11
208.872394
 21
186.299281
 31
0.0
  0
LINE
  8
LC-007-005-----0
  6
CONTINUOUS
  5
FE
 10
207.299971
 20
187.871704
 30
0.0
 11
206.299971
 21
188.871704
 31
0.0
  0
LINE
  8
LC-007-005-----0
  6
CONTINUOUS
  5
FF
 10
200.299971
 20
194.871704
 30
0.0
 11
199.299971
 21
195.871704
 31
0.0
  0
LINE
  8
LC-007-005-----0
  6
CONTINUOUS
  5
100
 10
210.582401
 20
183.781152
 30
0.0
 11
209.168188
 21
185.195366
 31
0.0
  0
LINE
  8
LC-007-005-----0
  6
CONTINUOUS
  5
101
 10
206.491849
 20
187.871704
 30
0.0
 11
205.491849
 21
188.871704
 31
0.0
  0
LINE
  8
LC-007-005-----0
  6
CONTINUOUS
  5
102
 10
199.491849
 20
194.871704
 30
0.0
 11
198.491849
 21
195.871704
 31
0.0
  0
LINE
  8
LC-007-005-----0
  6
CONTINUOUS
  5
103
 10
210.878195
 20
182.677237
 30
0.0
 11
209.463981
 21
184.09145
 31
0.0
  0
LINE
  8
LC-007-005-----0
  6
CONTINUOUS
  5
104
 10
205.683727
 20
187.871704
 30
0.0
 11
204.683727
 21
188.871704
 31
0.0
  0
LINE
  8
LC-007-005-----0
  6
CONTINUOUS
  5
105
 10
198.683727
 20
194.871704
 30
0.0
 11
197.683727
 21
195.871704
 31
0.0
  0
LINE
  8
LC-007-005-----0
  6
CONTINUOUS
  5
106
 10
211.173988
 20
181.573322
 30
0.0
 11
209.759774
 21
182.987535
 31
0.0
  0
LINE
  8
LC-007-005-----0
  6
CONTINUOUS
  5
107
 10
204.875605
 20
187.871704
 30
0.0
 11
203.875605
 21
188.871704
 31
0.0
  0
LINE
  8
LC-007-005-----0
  6
CONTINUOUS
  5
108
 10
197.875605
 20
194.871704
 30
0.0
 11
196.875605
 21
195.871704
 31
0.0
  0
LINE
  8
LC-007-005-----0
  6
CONTINUOUS
  5
109
 10
211.469781
 20
180.469406
 30
0.0
 11
210.055567
 21
181.88362
 31
0.0
  0
LINE
  8
LC-007-005-----0
  6
CONTINUOUS
  5
10A
 10
204.067483
 20
187.871704
 30
0.0
 11
203.067483
 21
188.871704
 31
0.0
  0
LINE
  8
LC-007-005-----0
  6
CONTINUOUS
  5
10B
 10
197.067483
 20
194.871704
 30
0.0
 11
196.067483
 21
195.871704
 31
0.0
  0
LINE
  8
LC-007-005-----0
  6
CONTINUOUS
  5
10C
 10
211.765574
 20
179.365491
 30
0.0
 11
210.351361
 21
180.779705
 31
0.0
  0
LINE
  8
LC-007-005-----0
  6
CONTINUOUS
  5
10D
 10
203.259361
 20
187.871704
 30
0.0
 11
202.259361
 21
188.871704
 31
0.0
  0
LINE
  8
LC-007-005-----0
  6
CONTINUOUS
  5
10E
 10
196.259361
 20
194.871704
 30
0.0
 11
195.259361
 21
195.871704
 31
0.0
  0
LINE
  8
LC-007-005-----0
  6
CONTINUOUS
  5
10F
 10
212.061367
 20
178.261576
 30
0.0
 11
210.647154
 21
179.675789
 31
0.0
  0
LINE
  8
LC-007-005-----0
  6
CONTINUOUS
  5
110
 10
202.451239
 20
187.871704
 30
0.0
 11
201.451239
 21
188.871704
 31
0.0
  0
LINE
  8
LC-007-005-----0
  6
CONTINUOUS
  5
111
 10
195.451239
 20
194.871704
 30
0.0
 11
194.451239
 21
195.871704
 31
0.0
  0
LINE
  8
LC-007-005-----0
  6
CONTINUOUS
  5
112
 10
212.357161
 20
177.15766
 30
0.0
 11
210.942947
 21
178.571874
 31
0.0
  0
LINE
  8
LC-007-005-----0
  6
CONTINUOUS
  5
113
 10
201.643117
 20
187.871704
 30
0.0
 11
200.643117
 21
188.871704
 31
0.0
  0
LINE
  8
LC-007-005-----0
  6
CONTINUOUS
  5
114
 10
194.643117
 20
194.871704
 30
0.0
 11
193.75979
 21
195.755032
 31
0.0
  0
LINE
  8
LC-007-005-----0
  6
CONTINUOUS
  5
115
 10
212.652954
 20
176.053745
 30
0.0
 11
211.23874
 21
177.467959
 31
0.0
  0
LINE
  8
LC-007-005-----0
  6
CONTINUOUS
  5
116
 10
200.834995
 20
187.871704
 30
0.0
 11
199.834995
 21
188.871704
 31
0.0
  0
LINE
  8
LC-007-005-----0
  6
CONTINUOUS
  5
117
 10
194.228547
 20
194.478152
 30
0.0
 11
193.352595
 21
195.354104
 31
0.0
  0
LINE
  8
LC-007-005-----0
  6
CONTINUOUS
  5
118
 10
212.948747
 20
174.94983
 30
0.0
 11
211.534534
 21
176.364043
 31
0.0
  0
LINE
  8
LC-007-005-----0
  6
CONTINUOUS
  5
119
 10
200.026873
 20
187.871704
 30
0.0
 11
199.026873
 21
188.871704
 31
0.0
  0
LINE
  8
LC-007-005-----0
  6
CONTINUOUS
  5
11A
 10
194.228547
 20
193.67003
 30
0.0
 11
193.228547
 21
194.67003
 31
0.0
  0
LINE
  8
LC-007-005-----0
  6
CONTINUOUS
  5
11B
 10
213.24454
 20
173.845915
 30
0.0
 11
211.830327
 21
175.260128
 31
0.0
  0
LINE
  8
LC-007-005-----0
  6
CONTINUOUS
  5
11C
 10
199.218751
 20
187.871704
 30
0.0
 11
198.218751
 21
188.871704
 31
0.0
  0
LINE
  8
LC-007-005-----0
  6
CONTINUOUS
  5
11D
 10
194.228547
 20
192.861908
 30
0.0
 11
193.228547
 21
193.861908
 31
0.0
  0
LINE
  8
LC-007-005-----0
  6
CONTINUOUS
  5
11E
 10
213.540334
 20
172.741999
 30
0.0
 11
212.12612
 21
174.156213
 31
0.0
  0
LINE
  8
LC-007-005-----0
  6
CONTINUOUS
  5
11F
 10
198.410629
 20
187.871704
 30
0.0
 11
197.410629
 21
188.871704
 31
0.0
  0
LINE
  8
LC-007-005-----0
  6
CONTINUOUS
  5
120
 10
194.228547
 20
192.053786
 30
0.0
 11
193.228547
 21
193.053786
 31
0.0
  0
LINE
  8
LC-007-005-----0
  6
CONTINUOUS
  5
121
 10
213.836127
 20
171.638084
 30
0.0
 11
212.421913
 21
173.052298
 31
0.0
  0
LINE
  8
LC-007-005-----0
  6
CONTINUOUS
  5
122
 10
197.602507
 20
187.871704
 30
0.0
 11
196.602507
 21
188.871704
 31
0.0
  0
LINE
  8
LC-007-005-----0
  6
CONTINUOUS
  5
123
 10
194.228547
 20
191.245664
 30
0.0
 11
193.228547
 21
192.245664
 31
0.0
  0
LINE
  8
LC-007-005-----0
  6
CONTINUOUS
  5
124
 10
214.13192
 20
170.534169
 30
0.0
 11
212.717707
 21
171.948382
 31
0.0
  0
LINE
  8
LC-007-005-----0
  6
CONTINUOUS
  5
125
 10
196.794384
 20
187.871704
 30
0.0
 11
195.794384
 21
188.871704
 31
0.0
  0
LINE
  8
LC-007-005-----0
  6
CONTINUOUS
  5
126
 10
194.228547
 20
190.437542
 30
0.0
 11
193.228547
 21
191.437542
 31
0.0
  0
LINE
  8
LC-007-005-----0
  6
CONTINUOUS
  5
127
 10
216.479283
 20
167.378683
 30
0.0
 11
214.912256
 21
168.945711
 31
0.0
  0
LINE
  8
LC-007-005-----0
  6
CONTINUOUS
  5
128
 10
214.45417
 20
169.403797
 30
0.0
 11
213.0135
 21
170.844467
 31
0.0
  0
LINE
  8
LC-007-005-----0
  6
CONTINUOUS
  5
129
 10
195.986262
 20
187.871704
 30
0.0
 11
194.986262
 21
188.871704
 31
0.0
  0
LINE
  8
LC-007-005-----0
  6
CONTINUOUS
  5
12A
 10
194.228547
 20
189.62942
 30
0.0
 11
193.228547
 21
190.62942
 31
0.0
  0
LINE
  8
LC-007-005-----0
  6
CONTINUOUS
  5
12B
 10
216.330172
 20
166.719673
 30
0.0
 11
213.309293
 21
169.740552
 31
0.0
  0
LINE
  8
LC-007-005-----0
  6
CONTINUOUS
  5
12C
 10
195.17814
 20
187.871704
 30
0.0
 11
193.228547
 21
189.821298
 31
0.0
  0
LINE
  8
LC-007-005-----0
  6
CONTINUOUS
  5
12D
 10
215.983911
 20
166.257812
 30
0.0
 11
213.605086
 21
168.636636
 31
0.0
  0
LINE
  8
LC-007-005-----0
  6
CONTINUOUS
  5
12E
 10
194.370018
 20
187.871704
 30
0.0
 11
193.228547
 21
189.013176
 31
0.0
  0
LINE
  8
LC-007-005-----0
  6
CONTINUOUS
  5
12F
 10
215.476941
 20
165.956659
 30
0.0
 11
213.90088
 21
167.532721
 31
0.0
  0
LINE
  8
LC-007-005-----0
  6
CONTINUOUS
  5
130
 10
215.610887
 20
165.014592
 30
0.0
 11
214.196673
 21
166.428806
 31
0.0
  0
LINE
  8
LC-007-005-----0
  6
CONTINUOUS
  5
131
 10
215.90668
 20
163.910677
 30
0.0
 11
214.492466
 21
165.324891
 31
0.0
  0
LINE
  8
LC-007-005-----0
  6
CONTINUOUS
  5
132
 10
216.202473
 20
162.806762
 30
0.0
 11
214.788259
 21
164.220975
 31
0.0
  0
LINE
  8
LC-007-005-----0
  6
CONTINUOUS
  5
133
 10
216.498266
 20
161.702846
 30
0.0
 11
215.084053
 21
163.11706
 31
0.0
  0
LINE
  8
LC-007-005-----0
  6
CONTINUOUS
  5
134
 10
216.79406
 20
160.598931
 30
0.0
 11
215.379846
 21
162.013145
 31
0.0
  0
LINE
  8
LC-007-005-----0
  6
CONTINUOUS
  5
135
 10
217.089853
 20
159.495016
 30
0.0
 11
215.675639
 21
160.90923
 31
0.0
  0
LINE
  8
LC-007-005-----0
  6
CONTINUOUS
  5
136
 10
217.385646
 20
158.391101
 30
0.0
 11
215.971432
 21
159.805314
 31
0.0
  0
LINE
  8
LC-007-005-----0
  6
CONTINUOUS
  5
137
 10
217.681439
 20
157.287185
 30
0.0
 11
216.267226
 21
158.701399
 31
0.0
  0
LINE
  8
LC-007-005-----0
  6
CONTINUOUS
  5
138
 10
217.977232
 20
156.18327
 30
0.0
 11
216.563019
 21
157.597484
 31
0.0
  0
LINE
  8
LC-007-005-----0
  6
CONTINUOUS
  5
139
 10
218.273026
 20
155.079355
 30
0.0
 11
216.858812
 21
156.493568
 31
0.0
  0
LINE
  8
LC-007-005-----0
  6
CONTINUOUS
  5
13A
 10
218.568819
 20
153.975439
 30
0.0
 11
217.154605
 21
155.389653
 31
0.0
  0
LINE
  8
LC-007-005-----0
  6
CONTINUOUS
  5
13B
 10
218.864612
 20
152.871524
 30
0.0
 11
217.450399
 21
154.285738
 31
0.0
  0
LINE
  8
LC-007-005-----0
  6
CONTINUOUS
  5
13C
 10
219.160405
 20
151.767609
 30
0.0
 11
217.746192
 21
153.181823
 31
0.0
  0
LINE
  8
LC-007-005-----0
  6
CONTINUOUS
  5
13D
 10
219.456199
 20
150.663694
 30
0.0
 11
218.041985
 21
152.077907
 31
0.0
  0
LINE
  8
LC-007-005-----0
  6
CONTINUOUS
  5
13E
 10
219.751992
 20
149.559778
 30
0.0
 11
218.337778
 21
150.973992
 31
0.0
  0
LINE
  8
LC-007-005-----0
  6
CONTINUOUS
  5
13F
 10
220.047785
 20
148.455863
 30
0.0
 11
218.633572
 21
149.870077
 31
0.0
  0
LINE
  8
LC-007-005-----0
  6
CONTINUOUS
  5
140
 10
220.343578
 20
147.351948
 30
0.0
 11
218.929365
 21
148.766161
 31
0.0
  0
LINE
  8
LC-007-005-----0
  6
CONTINUOUS
  5
141
 10
220.639372
 20
146.248033
 30
0.0
 11
219.225158
 21
147.662246
 31
0.0
  0
LINE
  8
LC-007-005-----0
  6
CONTINUOUS
  5
142
 10
220.935165
 20
145.144117
 30
0.0
 11
219.520951
 21
146.558331
 31
0.0
  0
LINE
  8
LC-007-005-----0
  6
CONTINUOUS
  5
143
 10
221.133735
 20
144.137426
 30
0.0
 11
219.816745
 21
145.454416
 31
0.0
  0
LINE
  8
LC-007-005-----0
  6
CONTINUOUS
  5
144
 10
221.011575
 20
143.451463
 30
0.0
 11
220.110924
 21
144.352115
 31
0.0
  0
LINE
  8
LC-007-005-----0
  6
CONTINUOUS
  5
145
 10
220.725752
 20
142.929164
 30
0.0
 11
220.005359
 21
143.649557
 31
0.0
  0
LINE
  8
LC-007-005-----0
  6
CONTINUOUS
  5
146
 10
220.318427
 20
142.528367
 30
0.0
 11
219.596828
 21
143.249966
 31
0.0
  0
LINE
  8
LC-007-005-----0
  6
CONTINUOUS
  5
147
 10
219.851804
 20
142.186868
 30
0.0
 11
219.144416
 21
142.894256
 31
0.0
  0
LINE
  8
LC-007-005-----0
  6
CONTINUOUS
  5
148
 10
219.492234
 20
141.738316
 30
0.0
 11
218.769743
 21
142.460807
 31
0.0
  0
LINE
  8
LC-007-005-----0
  6
CONTINUOUS
  5
149
 10
219.263941
 20
141.158487
 30
0.0
 11
218.476266
 21
141.946162
 31
0.0
  0
LINE
  8
LC-007-005-----0
  6
CONTINUOUS
  5
14A
 10
219.236853
 20
140.377453
 30
0.0
 11
218.279106
 21
141.335199
 31
0.0
  0
LINE
  8
LC-007-005-----0
  6
CONTINUOUS
  5
14B
 10
219.299291
 20
139.506893
 30
0.0
 11
218.219493
 21
140.58669
 31
0.0
  0
LINE
  8
LC-007-005-----0
  6
CONTINUOUS
  5
14C
 10
219.355915
 20
138.642147
 30
0.0
 11
218.28234
 21
139.715722
 31
0.0
  0
LINE
  8
LC-007-005-----0
  6
CONTINUOUS
  5
14D
 10
219.406847
 20
137.783093
 30
0.0
 11
218.340799
 21
138.849141
 31
0.0
  0
LINE
  8
LC-007-005-----0
  6
CONTINUOUS
  5
14E
 10
219.452203
 20
136.929615
 30
0.0
 11
218.393487
 21
137.988331
 31
0.0
  0
LINE
  8
LC-007-005-----0
  6
CONTINUOUS
  5
14F
 10
219.492096
 20
136.0816
 30
0.0
 11
218.440523
 21
137.133173
 31
0.0
  0
LINE
  8
LC-007-005-----0
  6
CONTINUOUS
  5
150
 10
219.526635
 20
135.238939
 30
0.0
 11
218.482024
 21
136.28355
 31
0.0
  0
LINE
  8
LC-007-005-----0
  6
CONTINUOUS
  5
151
 10
219.555922
 20
134.401529
 30
0.0
 11
218.5181
 21
135.439352
 31
0.0
  0
LINE
  8
LC-007-005-----0
  6
CONTINUOUS
  5
152
 10
219.580059
 20
133.56927
 30
0.0
 11
218.548857
 21
134.600472
 31
0.0
  0
LINE
  8
LC-007-005-----0
  6
CONTINUOUS
  5
153
 10
219.599142
 20
132.742066
 30
0.0
 11
218.5744
 21
133.766808
 31
0.0
  0
LINE
  8
LC-007-005-----0
  6
CONTINUOUS
  5
154
 10
219.613264
 20
131.919822
 30
0.0
 11
218.594826
 21
132.93826
 31
0.0
  0
LINE
  8
LC-007-005-----0
  6
CONTINUOUS
  5
155
 10
219.622514
 20
131.10245
 30
0.0
 11
218.61023
 21
132.114733
 31
0.0
  0
LINE
  8
LC-007-005-----0
  6
CONTINUOUS
  5
156
 10
219.626979
 20
130.289863
 30
0.0
 11
218.620706
 21
131.296136
 31
0.0
  0
LINE
  8
LC-007-005-----0
  6
CONTINUOUS
  5
157
 10
219.626743
 20
129.481977
 30
0.0
 11
218.62634
 21
130.48238
 31
0.0
  0
LINE
  8
LC-007-005-----0
  6
CONTINUOUS
  5
158
 10
219.621885
 20
128.678712
 30
0.0
 11
218.627219
 21
129.673379
 31
0.0
  0
LINE
  8
LC-007-005-----0
  6
CONTINUOUS
  5
159
 10
219.612485
 20
127.87999
 30
0.0
 11
218.623425
 21
128.869051
 31
0.0
  0
LINE
  8
LC-007-005-----0
  6
CONTINUOUS
  5
15A
 10
219.598618
 20
127.085736
 30
0.0
 11
218.615037
 21
128.069316
 31
0.0
  0
LINE
  8
LC-007-005-----0
  6
CONTINUOUS
  5
15B
 10
219.580355
 20
126.295876
 30
0.0
 11
218.602134
 21
127.274098
 31
0.0
  0
LINE
  8
LC-007-005-----0
  6
CONTINUOUS
  5
15C
 10
219.557769
 20
125.510341
 30
0.0
 11
218.584788
 21
126.483321
 31
0.0
  0
LINE
  8
LC-007-005-----0
  6
CONTINUOUS
  5
15D
 10
219.530926
 20
124.729061
 30
0.0
 11
218.563073
 21
125.696914
 31
0.0
  0
LINE
  8
LC-007-005-----0
  6
CONTINUOUS
  5
15E
 10
219.499893
 20
123.951972
 30
0.0
 11
218.537058
 21
124.914807
 31
0.0
  0
LINE
  8
LC-007-005-----0
  6
CONTINUOUS
  5
15F
 10
219.464735
 20
123.179009
 30
0.0
 11
218.50681
 21
124.136934
 31
0.0
  0
LINE
  8
LC-007-005-----0
  6
CONTINUOUS
  5
160
 10
219.425512
 20
122.410109
 30
0.0
 11
218.472394
 21
123.363227
 31
0.0
  0
LINE
  8
LC-007-005-----0
  6
CONTINUOUS
  5
161
 10
219.382285
 20
121.645214
 30
0.0
 11
218.433874
 21
122.593625
 31
0.0
  0
LINE
  8
LC-007-005-----0
  6
CONTINUOUS
  5
162
 10
219.335113
 20
120.884264
 30
0.0
 11
218.391311
 21
121.828066
 31
0.0
  0
LINE
  8
LC-007-005-----0
  6
CONTINUOUS
  5
163
 10
219.284051
 20
120.127204
 30
0.0
 11
218.344765
 21
121.06649
 31
0.0
  0
LINE
  8
LC-007-005-----0
  6
CONTINUOUS
  5
164
 10
219.229156
 20
119.373977
 30
0.0
 11
218.294293
 21
120.30884
 31
0.0
  0
LINE
  8
LC-007-005-----0
  6
CONTINUOUS
  5
165
 10
219.170479
 20
118.624532
 30
0.0
 11
218.239951
 21
119.55506
 31
0.0
  0
LINE
  8
LC-007-005-----0
  6
CONTINUOUS
  5
166
 10
219.108073
 20
117.878816
 30
0.0
 11
218.181793
 21
118.805096
 31
0.0
  0
LINE
  8
LC-007-005-----0
  6
CONTINUOUS
  5
167
 10
219.041988
 20
117.136779
 30
0.0
 11
218.119872
 21
118.058895
 31
0.0
  0
LINE
  8
LC-007-005-----0
  6
CONTINUOUS
  5
168
 10
218.972272
 20
116.398373
 30
0.0
 11
218.054239
 21
117.316406
 31
0.0
  0
LINE
  8
LC-007-005-----0
  6
CONTINUOUS
  5
169
 10
218.898974
 20
115.663549
 30
0.0
 11
217.984944
 21
116.577579
 31
0.0
  0
LINE
  8
LC-007-005-----0
  6
CONTINUOUS
  5
16A
 10
218.822139
 20
114.932262
 30
0.0
 11
217.912035
 21
115.842366
 31
0.0
  0
LINE
  8
LC-007-005-----0
  6
CONTINUOUS
  5
16B
 10
218.741812
 20
114.204467
 30
0.0
 11
217.835559
 21
115.11072
 31
0.0
  0
LINE
  8
LC-007-005-----0
  6
CONTINUOUS
  5
16C
 10
218.658037
 20
113.48012
 30
0.0
 11
217.755562
 21
114.382595
 31
0.0
  0
LINE
  8
LC-007-005-----0
  6
CONTINUOUS
  5
16D
 10
218.570856
 20
112.759179
 30
0.0
 11
217.672087
 21
113.657947
 31
0.0
  0
LINE
  8
LC-007-005-----0
  6
CONTINUOUS
  5
16E
 10
218.48031
 20
112.041602
 30
0.0
 11
217.585179
 21
112.936734
 31
0.0
  0
LINE
  8
LC-007-005-----0
  6
CONTINUOUS
  5
16F
 10
218.386441
 20
111.32735
 30
0.0
 11
217.494879
 21
112.218912
 31
0.0
  0
LINE
  8
LC-007-005-----0
  6
CONTINUOUS
  5
170
 10
218.289286
 20
110.616383
 30
0.0
 11
217.401228
 21
111.504441
 31
0.0
  0
LINE
  8
LC-007-005-----0
  6
CONTINUOUS
  5
171
 10
218.188884
 20
109.908663
 30
0.0
 11
217.304265
 21
110.793281
 31
0.0
  0
LINE
  8
LC-007-005-----0
  6
CONTINUOUS
  5
172
 10
218.085272
 20
109.204152
 30
0.0
 11
217.204031
 21
110.085394
 31
0.0
  0
LINE
  8
LC-007-005-----0
  6
CONTINUOUS
  5
173
 10
217.978487
 20
108.502815
 30
0.0
 11
217.100561
 21
109.380741
 31
0.0
  0
LINE
  8
LC-007-005-----0
  6
CONTINUOUS
  5
174
 10
217.868564
 20
107.804617
 30
0.0
 11
216.993894
 21
108.679287
 31
0.0
  0
LINE
  8
LC-007-005-----0
  6
CONTINUOUS
  5
175
 10
217.755536
 20
107.109522
 30
0.0
 11
216.884064
 21
107.980994
 31
0.0
  0
LINE
  8
LC-007-005-----0
  6
CONTINUOUS
  5
176
 10
217.639439
 20
106.417498
 30
0.0
 11
216.771108
 21
107.285828
 31
0.0
  0
LINE
  8
LC-007-005-----0
  6
CONTINUOUS
  5
177
 10
217.520303
 20
105.728511
 30
0.0
 11
216.655058
 21
106.593756
 31
0.0
  0
LINE
  8
LC-007-005-----0
  6
CONTINUOUS
  5
178
 10
217.398162
 20
105.04253
 30
0.0
 11
216.535949
 21
105.904743
 31
0.0
  0
LINE
  8
LC-007-005-----0
  6
CONTINUOUS
  5
179
 10
217.273047
 20
104.359523
 30
0.0
 11
216.413812
 21
105.218758
 31
0.0
  0
LINE
  8
LC-007-005-----0
  6
CONTINUOUS
  5
17A
 10
217.144987
 20
103.679461
 30
0.0
 11
216.288679
 21
104.535769
 31
0.0
  0
LINE
  8
LC-007-005-----0
  6
CONTINUOUS
  5
17B
 10
217.014013
 20
103.002313
 30
0.0
 11
216.160582
 21
103.855745
 31
0.0
  0
LINE
  8
LC-007-005-----0
  6
CONTINUOUS
  5
17C
 10
216.880154
 20
102.32805
 30
0.0
 11
216.029549
 21
103.178655
 31
0.0
  0
LINE
  8
LC-007-005-----0
  6
CONTINUOUS
  5
17D
 10
216.743437
 20
101.656645
 30
0.0
 11
215.895611
 21
102.504471
 31
0.0
  0
LINE
  8
LC-007-005-----0
  6
CONTINUOUS
  5
17E
 10
216.603891
 20
100.988069
 30
0.0
 11
215.758796
 21
101.833164
 31
0.0
  0
LINE
  8
LC-007-005-----0
  6
CONTINUOUS
  5
17F
 10
216.461542
 20
100.322296
 30
0.0
 11
215.619132
 21
101.164706
 31
0.0
  0
LINE
  8
LC-007-005-----0
  6
CONTINUOUS
  5
180
 10
216.316417
 20
99.659299
 30
0.0
 11
215.476646
 21
100.49907
 31
0.0
  0
LINE
  8
LC-007-005-----0
  6
CONTINUOUS
  5
181
 10
216.168541
 20
98.999053
 30
0.0
 11
215.331366
 21
99.836228
 31
0.0
  0
LINE
  8
LC-007-005-----0
  6
CONTINUOUS
  5
182
 10
216.01794
 20
98.341532
 30
0.0
 11
215.183317
 21
99.176155
 31
0.0
  0
LINE
  8
LC-007-005-----0
  6
CONTINUOUS
  5
183
 10
215.864639
 20
97.686711
 30
0.0
 11
215.032525
 21
98.518825
 31
0.0
  0
LINE
  8
LC-007-005-----0
  6
CONTINUOUS
  5
184
 10
215.708661
 20
97.034567
 30
0.0
 11
214.879014
 21
97.864214
 31
0.0
  0
LINE
  8
LC-007-005-----0
  6
CONTINUOUS
  5
185
 10
215.550029
 20
96.385077
 30
0.0
 11
214.72281
 21
97.212296
 31
0.0
  0
LINE
  8
LC-007-005-----0
  6
CONTINUOUS
  5
186
 10
215.388768
 20
95.738216
 30
0.0
 11
214.563935
 21
96.563049
 31
0.0
  0
LINE
  8
LC-007-005-----0
  6
CONTINUOUS
  5
187
 10
215.224898
 20
95.093963
 30
0.0
 11
214.402413
 21
95.916448
 31
0.0
  0
LINE
  8
LC-007-005-----0
  6
CONTINUOUS
  5
188
 10
215.058444
 20
94.452296
 30
0.0
 11
214.238268
 21
95.272472
 31
0.0
  0
LINE
  8
LC-007-005-----0
  6
CONTINUOUS
  5
189
 10
214.889424
 20
93.813193
 30
0.0
 11
214.07152
 21
94.631098
 31
0.0
  0
LINE
  8
LC-007-005-----0
  6
CONTINUOUS
  5
18A
 10
214.717862
 20
93.176633
 30
0.0
 11
213.902192
 21
93.992303
 31
0.0
  0
LINE
  8
LC-007-005-----0
  6
CONTINUOUS
  5
18B
 10
214.543778
 20
92.542596
 30
0.0
 11
213.730306
 21
93.356068
 31
0.0
  0
LINE
  8
LC-007-005-----0
  6
CONTINUOUS
  5
18C
 10
214.36719
 20
91.911061
 30
0.0
 11
213.555881
 21
92.72237
 31
0.0
  0
LINE
  8
LC-007-005-----0
  6
CONTINUOUS
  5
18D
 10
214.188121
 20
91.282009
 30
0.0
 11
213.378939
 21
92.09119
 31
0.0
  0
LINE
  8
LC-007-005-----0
  6
CONTINUOUS
  5
18E
 10
214.006587
 20
90.65542
 30
0.0
 11
213.199499
 21
91.462508
 31
0.0
  0
LINE
  8
LC-007-005-----0
  6
CONTINUOUS
  5
18F
 10
213.82261
 20
90.031276
 30
0.0
 11
213.017581
 21
90.836304
 31
0.0
  0
LINE
  8
LC-007-005-----0
  6
CONTINUOUS
  5
190
 10
213.636206
 20
89.409557
 30
0.0
 11
212.833204
 21
90.212559
 31
0.0
  0
LINE
  8
LC-007-005-----0
  6
CONTINUOUS
  5
191
 10
213.447395
 20
88.790247
 30
0.0
 11
212.646387
 21
89.591255
 31
0.0
  0
LINE
  8
LC-007-005-----0
  6
CONTINUOUS
  5
192
 10
213.256193
 20
88.173326
 30
0.0
 11
212.457147
 21
88.972372
 31
0.0
  0
LINE
  8
LC-007-005-----0
  6
CONTINUOUS
  5
193
 10
213.062618
 20
87.558779
 30
0.0
 11
212.265504
 21
88.355893
 31
0.0
  0
LINE
  8
LC-007-005-----0
  6
CONTINUOUS
  5
194
 10
212.866688
 20
86.946587
 30
0.0
 11
212.071474
 21
87.741802
 31
0.0
  0
LINE
  8
LC-007-005-----0
  6
CONTINUOUS
  5
195
 10
212.668419
 20
86.336734
 30
0.0
 11
211.875074
 21
87.130079
 31
0.0
  0
LINE
  8
LC-007-005-----0
  6
CONTINUOUS
  5
196
 10
212.467827
 20
85.729205
 30
0.0
 11
211.676322
 21
86.520709
 31
0.0
  0
LINE
  8
LC-007-005-----0
  6
CONTINUOUS
  5
197
 10
212.264928
 20
85.123982
 30
0.0
 11
211.475234
 21
85.913675
 31
0.0
  0
LINE
  8
LC-007-005-----0
  6
CONTINUOUS
  5
198
 10
212.059737
 20
84.52105
 30
0.0
 11
211.271826
 21
85.308962
 31
0.0
  0
LINE
  8
LC-007-005-----0
  6
CONTINUOUS
  5
199
 10
211.852271
 20
83.920394
 30
0.0
 11
211.066113
 21
84.706552
 31
0.0
  0
LINE
  8
LC-007-005-----0
  6
CONTINUOUS
  5
19A
 10
211.642545
 20
83.321998
 30
0.0
 11
210.858112
 21
84.106431
 31
0.0
  0
LINE
  8
LC-007-005-----0
  6
CONTINUOUS
  5
19B
 10
211.430572
 20
82.725849
 30
0.0
 11
210.647838
 21
83.508583
 31
0.0
  0
LINE
  8
LC-007-005-----0
  6
CONTINUOUS
  5
19C
 10
211.216367
 20
82.131932
 30
0.0
 11
210.435305
 21
82.912994
 31
0.0
  0
LINE
  8
LC-007-005-----0
  6
CONTINUOUS
  5
19D
 10
210.999945
 20
81.540232
 30
0.0
 11
210.220527
 21
82.319649
 31
0.0
  0
LINE
  8
LC-007-005-----0
  6
CONTINUOUS
  5
19E
 10
210.781319
 20
80.950735
 30
0.0
 11
210.003521
 21
81.728534
 31
0.0
  0
LINE
  8
LC-007-005-----0
  6
CONTINUOUS
  5
19F
 10
210.560504
 20
80.363429
 30
0.0
 11
209.784298
 21
81.139635
 31
0.0
  0
LINE
  8
LC-007-005-----0
  6
CONTINUOUS
  5
1A0
 10
210.337511
 20
79.7783
 30
0.0
 11
209.562873
 21
80.552938
 31
0.0
  0
LINE
  8
LC-007-005-----0
  6
CONTINUOUS
  5
1A1
 10
210.112355
 20
79.195334
 30
0.0
 11
209.339259
 21
79.968429
 31
0.0
  0
LINE
  8
LC-007-005-----0
  6
CONTINUOUS
  5
1A2
 10
209.885048
 20
78.614519
 30
0.0
 11
209.11347
 21
79.386096
 31
0.0
  0
LINE
  8
LC-007-005-----0
  6
CONTINUOUS
  5
1A3
 10
209.655602
 20
78.035842
 30
0.0
 11
208.885519
 21
78.805926
 31
0.0
  0
LINE
  8
LC-007-005-----0
  6
CONTINUOUS
  5
1A4
 10
209.424031
 20
77.459292
 30
0.0
 11
208.655417
 21
78.227905
 31
0.0
  0
LINE
  8
LC-007-005-----0
  6
CONTINUOUS
  5
1A5
 10
209.190345
 20
76.884855
 30
0.0
 11
208.423178
 21
77.652022
 31
0.0
  0
LINE
  8
LC-007-005-----0
  6
CONTINUOUS
  5
1A6
 10
208.954558
 20
76.312521
 30
0.0
 11
208.188814
 21
77.078265
 31
0.0
  0
LINE
  8
LC-007-005-----0
  6
CONTINUOUS
  5
1A7
 10
208.716679
 20
75.742277
 30
0.0
 11
207.952336
 21
76.506621
 31
0.0
  0
LINE
  8
LC-007-005-----0
  6
CONTINUOUS
  5
1A8
 10
208.476721
 20
75.174113
 30
0.0
 11
207.713756
 21
75.937079
 31
0.0
  0
LINE
  8
LC-007-005-----0
  6
CONTINUOUS
  5
1A9
 10
208.234696
 20
74.608017
 30
0.0
 11
207.473085
 21
75.369627
 31
0.0
  0
LINE
  8
LC-007-005-----0
  6
CONTINUOUS
  5
1AA
 10
207.984551
 20
74.050039
 30
0.0
 11
207.230336
 21
74.804255
 31
0.0
  0
LINE
  8
LC-007-005-----0
  6
CONTINUOUS
  5
1AB
 10
207.678931
 20
73.547537
 30
0.0
 11
206.958679
 21
74.267789
 31
0.0
  0
LINE
  8
LC-007-005-----0
  6
CONTINUOUS
  5
1AC
 10
207.312796
 20
73.105551
 30
0.0
 11
206.605465
 21
73.812881
 31
0.0
  0
LINE
  8
LC-007-005-----0
  6
CONTINUOUS
  5
1AD
 10
206.888597
 20
72.721627
 30
0.0
 11
206.174474
 21
73.435751
 31
0.0
  0
LINE
  8
LC-007-005-----0
  6
CONTINUOUS
  5
1AE
 10
206.40505
 20
72.397052
 30
0.0
 11
205.662543
 21
73.139559
 31
0.0
  0
LINE
  8
LC-007-005-----0
  6
CONTINUOUS
  5
1AF
 10
205.856684
 20
72.137296
 30
0.0
 11
205.055036
 21
72.938944
 31
0.0
  0
LINE
  8
LC-007-005-----0
  6
CONTINUOUS
  5
1B0
 10
205.231652
 20
71.954207
 30
0.0
 11
204.314154
 21
72.871704
 31
0.0
  0
LINE
  8
LC-007-005-----0
  6
CONTINUOUS
  5
1B1
 10
204.505196
 20
71.87254
 30
0.0
 11
203.506032
 21
72.871704
 31
0.0
  0
LINE
  8
LC-007-005-----0
  6
CONTINUOUS
  5
1B2
 10
203.69791
 20
71.871704
 30
0.0
 11
202.69791
 21
72.871704
 31
0.0
  0
LINE
  8
LC-007-005-----0
  6
CONTINUOUS
  5
1B3
 10
202.889788
 20
71.871704
 30
0.0
 11
201.889788
 21
72.871704
 31
0.0
  0
LINE
  8
LC-007-005-----0
  6
CONTINUOUS
  5
1B4
 10
202.081666
 20
71.871704
 30
0.0
 11
201.081666
 21
72.871704
 31
0.0
  0
LINE
  8
LC-007-005-----0
  6
CONTINUOUS
  5
1B5
 10
201.273544
 20
71.871704
 30
0.0
 11
200.273544
 21
72.871704
 31
0.0
  0
LINE
  8
LC-007-005-----0
  6
CONTINUOUS
  5
1B6
 10
200.465422
 20
71.871704
 30
0.0
 11
199.465422
 21
72.871704
 31
0.0
  0
LINE
  8
LC-007-005-----0
  6
CONTINUOUS
  5
1B7
 10
199.657299
 20
71.871704
 30
0.0
 11
198.657299
 21
72.871704
 31
0.0
  0
LINE
  8
LC-007-005-----0
  6
CONTINUOUS
  5
1B8
 10
198.849177
 20
71.871704
 30
0.0
 11
197.849177
 21
72.871704
 31
0.0
  0
LINE
  8
LC-007-005-----0
  6
CONTINUOUS
  5
1B9
 10
198.041055
 20
71.871704
 30
0.0
 11
197.041055
 21
72.871704
 31
0.0
  0
LINE
  8
LC-007-005-----0
  6
CONTINUOUS
  5
1BA
 10
197.232933
 20
71.871704
 30
0.0
 11
196.232933
 21
72.871704
 31
0.0
  0
LINE
  8
LC-007-005-----0
  6
CONTINUOUS
  5
1BB
 10
196.424811
 20
71.871704
 30
0.0
 11
195.424811
 21
72.871704
 31
0.0
  0
LINE
  8
LC-007-005-----0
  6
CONTINUOUS
  5
1BC
 10
195.616689
 20
71.871704
 30
0.0
 11
194.616689
 21
72.871704
 31
0.0
  0
LINE
  8
LC-007-005-----0
  6
CONTINUOUS
  5
1BD
 10
194.808567
 20
71.871704
 30
0.0
 11
193.873659
 21
72.806613
 31
0.0
  0
LINE
  8
LC-007-005-----0
  6
CONTINUOUS
  5
1BE
 10
194.228547
 20
71.643603
 30
0.0
 11
193.416648
 21
72.455502
 31
0.0
  0
LINE
  8
LC-007-005-----0
  6
CONTINUOUS
  5
1BF
 10
194.228547
 20
70.835481
 30
0.0
 11
193.228547
 21
71.835481
 31
0.0
  0
LINE
  8
LC-007-005-----0
  6
CONTINUOUS
  5
1C0
 10
194.228547
 20
70.027359
 30
0.0
 11
193.228547
 21
71.027359
 31
0.0
  0
LINE
  8
LC-007-005-----0
  6
CONTINUOUS
  5
1C1
 10
194.228547
 20
69.219237
 30
0.0
 11
193.228547
 21
70.219237
 31
0.0
  0
LINE
  8
LC-007-005-----0
  6
CONTINUOUS
  5
1C2
 10
197.228547
 20
65.411115
 30
0.0
 11
196.767957
 21
65.871704
 31
0.0
  0
LINE
  8
LC-007-005-----0
  6
CONTINUOUS
  5
1C3
 10
194.228547
 20
68.411115
 30
0.0
 11
193.228547
 21
69.411115
 31
0.0
  0
LINE
  8
LC-007-005-----0
  6
CONTINUOUS
  5
1C4
 10
196.959835
 20
64.871704
 30
0.0
 11
195.959835
 21
65.871704
 31
0.0
  0
LINE
  8
LC-007-005-----0
  6
CONTINUOUS
  5
1C5
 10
194.228547
 20
67.602993
 30
0.0
 11
193.228547
 21
68.602993
 31
0.0
  0
LINE
  8
LC-007-005-----0
  6
CONTINUOUS
  5
1C6
 10
196.151713
 20
64.871704
 30
0.0
 11
195.151713
 21
65.871704
 31
0.0
  0
LINE
  8
LC-007-005-----0
  6
CONTINUOUS
  5
1C7
 10
194.228547
 20
66.794871
 30
0.0
 11
193.228547
 21
67.794871
 31
0.0
  0
LINE
  8
LC-007-005-----0
  6
CONTINUOUS
  5
1C8
 10
195.343591
 20
64.871704
 30
0.0
 11
194.343591
 21
65.871704
 31
0.0
  0
LINE
  8
LC-007-005-----0
  6
CONTINUOUS
  5
1C9
 10
194.228547
 20
65.986749
 30
0.0
 11
193.228547
 21
66.986749
 31
0.0
  0
LINE
  8
LC-007-005-----0
  6
CONTINUOUS
  5
1CA
 10
194.535469
 20
64.871704
 30
0.0
 11
193.228547
 21
66.178627
 31
0.0
  0
ENDBLK
  8
0
  5
1CB
  0
BLOCK
  8
0
  5
1CD
  2
*X16
 70
    65
 10
171.349532
 20
221.582077
 30
0.0
  3
*X16
  0
LINE
  8
LC-007-005-----0
  6
CONTINUOUS
  5
1CE
 10
241.082077
 20
241.082077
 30
0.0
 11
241.349532
 21
241.349532
 31
0.0
  0
LINE
  8
LC-007-005-----0
  6
CONTINUOUS
  5
1CF
 10
238.25365
 20
241.082077
 30
0.0
 11
241.349532
 21
244.177959
 31
0.0
  0
LINE
  8
LC-007-005-----0
  6
CONTINUOUS
  5
1D0
 10
235.425223
 20
241.082077
 30
0.0
 11
240.925223
 21
246.582077
 31
0.0
  0
LINE
  8
LC-007-005-----0
  6
CONTINUOUS
  5
1D1
 10
232.596796
 20
241.082077
 30
0.0
 11
238.096796
 21
246.582077
 31
0.0
  0
LINE
  8
LC-007-005-----0
  6
CONTINUOUS
  5
1D2
 10
229.768369
 20
241.082077
 30
0.0
 11
235.268369
 21
246.582077
 31
0.0
  0
LINE
  8
LC-007-005-----0
  6
CONTINUOUS
  5
1D3
 10
226.939941
 20
241.082077
 30
0.0
 11
232.439941
 21
246.582077
 31
0.0
  0
LINE
  8
LC-007-005-----0
  6
CONTINUOUS
  5
1D4
 10
224.111514
 20
241.082077
 30
0.0
 11
229.611514
 21
246.582077
 31
0.0
  0
LINE
  8
LC-007-005-----0
  6
CONTINUOUS
  5
1D5
 10
221.283087
 20
241.082077
 30
0.0
 11
226.783087
 21
246.582077
 31
0.0
  0
LINE
  8
LC-007-005-----0
  6
CONTINUOUS
  5
1D6
 10
218.45466
 20
241.082077
 30
0.0
 11
223.95466
 21
246.582077
 31
0.0
  0
LINE
  8
LC-007-005-----0
  6
CONTINUOUS
  5
1D7
 10
215.626233
 20
241.082077
 30
0.0
 11
221.126233
 21
246.582077
 31
0.0
  0
LINE
  8
LC-007-005-----0
  6
CONTINUOUS
  5
1D8
 10
212.797806
 20
241.082077
 30
0.0
 11
218.297806
 21
246.582077
 31
0.0
  0
LINE
  8
LC-007-005-----0
  6
CONTINUOUS
  5
1D9
 10
209.969379
 20
241.082077
 30
0.0
 11
215.469379
 21
246.582077
 31
0.0
  0
LINE
  8
LC-007-005-----0
  6
CONTINUOUS
  5
1DA
 10
207.140952
 20
241.082077
 30
0.0
 11
212.640952
 21
246.582077
 31
0.0
  0
LINE
  8
LC-007-005-----0
  6
CONTINUOUS
  5
1DB
 10
204.312524
 20
241.082077
 30
0.0
 11
209.812524
 21
246.582077
 31
0.0
  0
LINE
  8
LC-007-005-----0
  6
CONTINUOUS
  5
1DC
 10
182.866357
 20
222.464337
 30
0.0
 11
184.876924
 21
224.474904
 31
0.0
  0
LINE
  8
LC-007-005-----0
  6
CONTINUOUS
  5
1DD
 10
201.484097
 20
241.082077
 30
0.0
 11
206.984097
 21
246.582077
 31
0.0
  0
LINE
  8
LC-007-005-----0
  6
CONTINUOUS
  5
1DE
 10
182.770919
 20
225.197326
 30
0.0
 11
184.979269
 21
227.405676
 31
0.0
  0
LINE
  8
LC-007-005-----0
  6
CONTINUOUS
  5
1DF
 10
198.65567
 20
241.082077
 30
0.0
 11
204.15567
 21
246.582077
 31
0.0
  0
LINE
  8
LC-007-005-----0
  6
CONTINUOUS
  5
1E0
 10
182.675481
 20
227.930315
 30
0.0
 11
185.081614
 21
230.336448
 31
0.0
  0
LINE
  8
LC-007-005-----0
  6
CONTINUOUS
  5
1E1
 10
195.827243
 20
241.082077
 30
0.0
 11
201.327243
 21
246.582077
 31
0.0
  0
LINE
  8
LC-007-005-----0
  6
CONTINUOUS
  5
1E2
 10
182.580043
 20
230.663304
 30
0.0
 11
185.183959
 21
233.26722
 31
0.0
  0
LINE
  8
LC-007-005-----0
  6
CONTINUOUS
  5
1E3
 10
192.998816
 20
241.082077
 30
0.0
 11
198.498816
 21
246.582077
 31
0.0
  0
LINE
  8
LC-007-005-----0
  6
CONTINUOUS
  5
1E4
 10
182.484605
 20
233.396293
 30
0.0
 11
185.286304
 21
236.197992
 31
0.0
  0
LINE
  8
LC-007-005-----0
  6
CONTINUOUS
  5
1E5
 10
190.170389
 20
241.082077
 30
0.0
 11
195.670389
 21
246.582077
 31
0.0
  0
LINE
  8
LC-007-005-----0
  6
CONTINUOUS
  5
1E6
 10
182.389167
 20
236.129282
 30
0.0
 11
185.388648
 21
239.128764
 31
0.0
  0
LINE
  8
LC-007-005-----0
  6
CONTINUOUS
  5
1E7
 10
187.341962
 20
241.082077
 30
0.0
 11
192.841962
 21
246.582077
 31
0.0
  0
LINE
  8
LC-007-005-----0
  6
CONTINUOUS
  5
1E8
 10
174.013535
 20
230.582077
 30
0.0
 11
174.3617
 21
230.930242
 31
0.0
  0
LINE
  8
LC-007-005-----0
  6
CONTINUOUS
  5
1E9
 10
182.293729
 20
238.862271
 30
0.0
 11
190.013535
 21
246.582077
 31
0.0
  0
LINE
  8
LC-007-005-----0
  6
CONTINUOUS
  5
1EA
 10
171.355482
 20
230.752451
 30
0.0
 11
174.464141
 21
233.86111
 31
0.0
  0
LINE
  8
LC-007-005-----0
  6
CONTINUOUS
  5
1EB
 10
181.685107
 20
241.082077
 30
0.0
 11
187.185107
 21
246.582077
 31
0.0
  0
LINE
  8
LC-007-005-----0
  6
CONTINUOUS
  5
1EC
 10
171.457827
 20
233.683223
 30
0.0
 11
174.566581
 21
236.791978
 31
0.0
  0
LINE
  8
LC-007-005-----0
  6
CONTINUOUS
  5
1ED
 10
178.014531
 20
240.239928
 30
0.0
 11
184.35668
 21
246.582077
 31
0.0
  0
LINE
  8
LC-007-005-----0
  6
CONTINUOUS
  5
1EE
 10
171.560171
 20
236.613995
 30
0.0
 11
174.669022
 21
239.722846
 31
0.0
  0
LINE
  8
LC-007-005-----0
  6
CONTINUOUS
  5
1EF
 10
176.028253
 20
241.082077
 30
0.0
 11
181.528253
 21
246.582077
 31
0.0
  0
LINE
  8
LC-007-005-----0
  6
CONTINUOUS
  5
1F0
 10
171.662516
 20
239.544767
 30
0.0
 11
178.699826
 21
246.582077
 31
0.0
  0
LINE
  8
LC-007-005-----0
  6
CONTINUOUS
  5
1F1
 10
171.764861
 20
242.475539
 30
0.0
 11
175.871399
 21
246.582077
 31
0.0
  0
ENDBLK
  8
0
  5
1F2
  0
BLOCK
  8
0
  5
1F4
  2
*X17
 70
    65
 10
-758.650468
 20
-329.467755
 30
0.0
  3
*X17
  0
LINE
  8
LC-007-005-----0
  6
CONTINUOUS
  5
1F5
 10
227.620554
 20
55.0865
 30
0.0
 11
227.907224
 21
55.373169
 31
0.0
  0
LINE
  8
LC-007-005-----0
  6
CONTINUOUS
  5
1F6
 10
224.792143
 20
55.086515
 30
0.0
 11
228.764947
 21
59.05932
 31
0.0
  0
LINE
  8
LC-007-005-----0
  6
CONTINUOUS
  5
1F7
 10
221.963731
 20
55.086531
 30
0.0
 11
225.963797
 21
59.086596
 31
0.0
  0
LINE
  8
LC-007-005-----0
  6
CONTINUOUS
  5
1F8
 10
219.13532
 20
55.086547
 30
0.0
 11
223.135369
 21
59.086596
 31
0.0
  0
LINE
  8
LC-007-005-----0
  6
CONTINUOUS
  5
1F9
 10
216.306909
 20
55.086563
 30
0.0
 11
220.306942
 21
59.086596
 31
0.0
  0
LINE
  8
LC-007-005-----0
  6
CONTINUOUS
  5
1FA
 10
208.68429
 20
50.292371
 30
0.0
 11
209.585123
 21
51.193204
 31
0.0
  0
LINE
  8
LC-007-005-----0
  6
CONTINUOUS
  5
1FB
 10
213.478497
 20
55.086578
 30
0.0
 11
217.478515
 21
59.086596
 31
0.0
  0
LINE
  8
LC-007-005-----0
  6
CONTINUOUS
  5
1FC
 10
205.649843
 20
50.086351
 30
0.0
 11
209.791144
 21
54.227652
 31
0.0
  0
LINE
  8
LC-007-005-----0
  6
CONTINUOUS
  5
1FD
 10
210.650086
 20
55.086594
 30
0.0
 11
214.650088
 21
59.086596
 31
0.0
  0
LINE
  8
LC-007-005-----0
  6
CONTINUOUS
  5
1FE
 10
202.821416
 20
50.086351
 30
0.0
 11
211.821661
 21
59.086596
 31
0.0
  0
LINE
  8
LC-007-005-----0
  6
CONTINUOUS
  5
1FF
 10
199.992989
 20
50.086351
 30
0.0
 11
203.992989
 21
54.086351
 31
0.0
  0
LINE
  8
LC-007-005-----0
  6
CONTINUOUS
  5
200
 10
205.791144
 20
55.884506
 30
0.0
 11
208.993234
 21
59.086596
 31
0.0
  0
LINE
  8
LC-007-005-----0
  6
CONTINUOUS
  5
201
 10
197.164562
 20
50.086351
 30
0.0
 11
201.164562
 21
54.086351
 31
0.0
  0
LINE
  8
LC-007-005-----0
  6
CONTINUOUS
  5
202
 10
194.336135
 20
50.086351
 30
0.0
 11
198.336135
 21
54.086351
 31
0.0
  0
LINE
  8
LC-007-005-----0
  6
CONTINUOUS
  5
203
 10
191.507707
 20
50.086351
 30
0.0
 11
195.507707
 21
54.086351
 31
0.0
  0
LINE
  8
LC-007-005-----0
  6
CONTINUOUS
  5
204
 10
188.67928
 20
50.086351
 30
0.0
 11
192.67928
 21
54.086351
 31
0.0
  0
LINE
  8
LC-007-005-----0
  6
CONTINUOUS
  5
205
 10
185.850853
 20
50.086351
 30
0.0
 11
189.850853
 21
54.086351
 31
0.0
  0
LINE
  8
LC-007-005-----0
  6
CONTINUOUS
  5
206
 10
183.022426
 20
50.086351
 30
0.0
 11
187.022426
 21
54.086351
 31
0.0
  0
LINE
  8
LC-007-005-----0
  6
CONTINUOUS
  5
207
 10
180.348573
 20
50.240925
 30
0.0
 11
184.193999
 21
54.086351
 31
0.0
  0
LINE
  8
LC-007-005-----0
  6
CONTINUOUS
  5
208
 10
178.767255
 20
51.488035
 30
0.0
 11
183.257554
 21
55.978334
 31
0.0
  0
LINE
  8
LC-007-005-----0
  6
CONTINUOUS
  5
209
 10
178.299863
 20
53.849069
 30
0.0
 11
183.209031
 21
58.758237
 31
0.0
  0
LINE
  8
LC-007-005-----0
  6
CONTINUOUS
  5
20A
 10
178.251339
 20
56.628973
 30
0.0
 11
183.160507
 21
61.538141
 31
0.0
  0
LINE
  8
LC-007-005-----0
  6
CONTINUOUS
  5
20B
 10
178.202816
 20
59.408877
 30
0.0
 11
181.895995
 21
63.102056
 31
0.0
  0
LINE
  8
LC-007-005-----0
  6
CONTINUOUS
  5
20C
 10
178.154293
 20
62.18878
 30
0.0
 11
181.681549
 21
65.716037
 31
0.0
  0
LINE
  8
LC-007-005-----0
  6
CONTINUOUS
  5
20D
 10
182.76673
 20
66.801218
 30
0.0
 11
183.063461
 21
67.097949
 31
0.0
  0
LINE
  8
LC-007-005-----0
  6
CONTINUOUS
  5
20E
 10
178.105769
 20
64.968684
 30
0.0
 11
183.014937
 21
69.877852
 31
0.0
  0
LINE
  8
LC-007-005-----0
  6
CONTINUOUS
  5
20F
 10
176.797828
 20
66.48917
 30
0.0
 11
182.966414
 21
72.657756
 31
0.0
  0
LINE
  8
LC-007-005-----0
  6
CONTINUOUS
  5
210
 10
173.969401
 20
66.48917
 30
0.0
 11
181.115848
 21
73.635618
 31
0.0
  0
LINE
  8
LC-007-005-----0
  6
CONTINUOUS
  5
211
 10
171.140974
 20
66.48917
 30
0.0
 11
176.391124
 21
71.73932
 31
0.0
  0
LINE
  8
LC-007-005-----0
  6
CONTINUOUS
  5
212
 10
168.312546
 20
66.48917
 30
0.0
 11
172.558994
 21
70.735617
 31
0.0
  0
LINE
  8
LC-007-005-----0
  6
CONTINUOUS
  5
213
 10
165.484119
 20
66.48917
 30
0.0
 11
169.730566
 21
70.735617
 31
0.0
  0
LINE
  8
LC-007-005-----0
  6
CONTINUOUS
  5
214
 10
159.861903
 20
63.695381
 30
0.0
 11
162.120925
 21
65.954402
 31
0.0
  0
LINE
  8
LC-007-005-----0
  6
CONTINUOUS
  5
215
 10
162.655692
 20
66.48917
 30
0.0
 11
166.902139
 21
70.735617
 31
0.0
  0
LINE
  8
LC-007-005-----0
  6
CONTINUOUS
  5
216
 10
159.120925
 20
65.78283
 30
0.0
 11
164.073712
 21
70.735617
 31
0.0
  0
LINE
  8
LC-007-005-----0
  6
CONTINUOUS
  5
217
 10
156.998838
 20
66.48917
 30
0.0
 11
161.245285
 21
70.735617
 31
0.0
  0
LINE
  8
LC-007-005-----0
  6
CONTINUOUS
  5
218
 10
154.170411
 20
66.48917
 30
0.0
 11
158.416857
 21
70.735616
 31
0.0
  0
LINE
  8
LC-007-005-----0
  6
CONTINUOUS
  5
219
 10
151.341983
 20
66.48917
 30
0.0
 11
155.58843
 21
70.735616
 31
0.0
  0
LINE
  8
LC-007-005-----0
  6
CONTINUOUS
  5
21A
 10
148.513556
 20
66.48917
 30
0.0
 11
152.760003
 21
70.735616
 31
0.0
  0
LINE
  8
LC-007-005-----0
  6
CONTINUOUS
  5
21B
 10
145.685129
 20
66.489169
 30
0.0
 11
149.931576
 21
70.735616
 31
0.0
  0
LINE
  8
LC-007-005-----0
  6
CONTINUOUS
  5
21C
 10
136.889797
 20
60.522264
 30
0.0
 11
138.759497
 21
62.391964
 31
0.0
  0
LINE
  8
LC-007-005-----0
  6
CONTINUOUS
  5
21D
 10
142.856702
 20
66.489169
 30
0.0
 11
147.103148
 21
70.735616
 31
0.0
  0
LINE
  8
LC-007-005-----0
  6
CONTINUOUS
  5
21E
 10
134.202219
 20
60.663114
 30
0.0
 11
144.274721
 21
70.735616
 31
0.0
  0
LINE
  8
LC-007-005-----0
  6
CONTINUOUS
  5
21F
 10
131.514642
 20
60.803964
 30
0.0
 11
135.324296
 21
64.613618
 31
0.0
  0
LINE
  8
LC-007-005-----0
  6
CONTINUOUS
  5
220
 10
136.156242
 20
65.445564
 30
0.0
 11
141.446294
 21
70.735616
 31
0.0
  0
LINE
  8
LC-007-005-----0
  6
CONTINUOUS
  5
221
 10
128.827064
 20
60.944813
 30
0.0
 11
132.467871
 21
64.58562
 31
0.0
  0
LINE
  8
LC-007-005-----0
  6
CONTINUOUS
  5
222
 10
136.357265
 20
68.475014
 30
0.0
 11
138.617866
 21
70.735615
 31
0.0
  0
LINE
  8
LC-007-005-----0
  6
CONTINUOUS
  5
223
 10
126.139487
 20
61.085663
 30
0.0
 11
129.494524
 21
64.4407
 31
0.0
  0
LINE
  8
LC-007-005-----0
  6
CONTINUOUS
  5
224
 10
123.777108
 20
61.551712
 30
0.0
 11
127.323168
 21
65.097771
 31
0.0
  0
LINE
  8
LC-007-005-----0
  6
CONTINUOUS
  5
225
 10
122.141947
 20
62.744977
 30
0.0
 11
125.741373
 21
66.344403
 31
0.0
  0
LINE
  8
LC-007-005-----0
  6
CONTINUOUS
  5
226
 10
121.103622
 20
64.535079
 30
0.0
 11
124.327159
 21
67.758617
 31
0.0
  0
LINE
  8
LC-007-005-----0
  6
CONTINUOUS
  5
227
 10
120.220379
 20
66.480263
 30
0.0
 11
122.912946
 21
69.17283
 31
0.0
  0
LINE
  8
LC-007-005-----0
  6
CONTINUOUS
  5
228
 10
117.613991
 20
66.702303
 30
0.0
 11
120.473358
 21
69.56167
 31
0.0
  0
LINE
  8
LC-007-005-----0
  6
CONTINUOUS
  5
229
 10
117.357659
 20
69.274398
 30
0.0
 11
117.799279
 21
69.716018
 31
0.0
  0
ENDBLK
  8
0
  5
22A
  0
BLOCK
  8
0
  5
22C
  2
BLK9
 70
    64
 10
0.0
 20
0.0
 30
0.0
  3
BLK9
  0
ENDBLK
  8
0
  5
22D
  0
BLOCK
  8
0
  5
22F
  2
BLK10
 70
    64
 10
0.0
 20
0.0
 30
0.0
  3
BLK10
  0
ENDBLK
  8
0
  5
230
  0
BLOCK
  8
0
  5
232
  2
*D20
 70
    65
 10
0.0
 20
0.0
 30
0.0
  3
*D20
  0
LINE
  8
LC-009-003-MTH-0
  6
CONTINUOUS
  5
234
 10
127.457265
 20
70.735615
 30
0.0
 11
81.2
 21
70.735615
 31
0.0
  0
LINE
  8
LC-009-003-MTH-0
  6
CONTINUOUS
  5
235
 10
127.457265
 20
181.135619
 30
0.0
 11
81.2
 21
181.135619
 31
0.0
  0
LINE
  8
LC-010-003-MTG-0
  6
CONTINUOUS
  5
237
 10
98.0
 20
70.735615
 30
0.0
 11
98.0
 21
181.135619
 31
0.0
  0
LINE
  8
LC-008-003-----0
  6
CONTINUOUS
  5
239
 10
94.345267
 20
98.496071
 30
0.0
 11
98.0
 21
70.735615
 31
0.0
  0
LINE
  8
LC-008-003-----0
  6
CONTINUOUS
  5
23A
 10
98.0
 20
70.735615
 30
0.0
 11
101.654733
 21
98.496071
 31
0.0
  0
LINE
  8
LC-008-003-----0
  6
CONTINUOUS
  5
23B
 10
101.654733
 20
98.496071
 30
0.0
 11
94.345267
 21
98.496071
 31
0.0
  0
LINE
  8
LC-008-003-----0
  6
CONTINUOUS
  5
23C
 10
95.295497
 20
98.558353
 30
0.0
 11
98.0
 21
78.015615
 31
0.0
  0
LINE
  8
LC-008-003-----0
  6
CONTINUOUS
  5
23D
 10
98.0
 20
78.015615
 30
0.0
 11
100.704503
 21
98.558353
 31
0.0
  0
LINE
  8
LC-008-003-----0
  6
CONTINUOUS
  5
23E
 10
96.245728
 20
98.620634
 30
0.0
 11
98.0
 21
85.295615
 31
0.0
  0
LINE
  8
LC-008-003-----0
  6
CONTINUOUS
  5
23F
 10
98.0
 20
85.295615
 30
0.0
 11
99.754272
 21
98.620634
 31
0.0
  0
LINE
  8
LC-008-003-----0
  6
CONTINUOUS
  5
240
 10
97.195959
 20
98.682916
 30
0.0
 11
98.0
 21
92.575615
 31
0.0
  0
LINE
  8
LC-008-003-----0
  6
CONTINUOUS
  5
241
 10
98.0
 20
92.575615
 30
0.0
 11
98.804041
 21
98.682916
 31
0.0
  0
LINE
  8
LC-008-003-----0
  6
CONTINUOUS
  5
242
 10
101.654733
 20
153.375163
 30
0.0
 11
98.0
 21
181.135619
 31
0.0
  0
LINE
  8
LC-008-003-----0
  6
CONTINUOUS
  5
243
 10
98.0
 20
181.135619
 30
0.0
 11
94.345267
 21
153.375163
 31
0.0
  0
LINE
  8
LC-008-003-----0
  6
CONTINUOUS
  5
244
 10
94.345267
 20
153.375163
 30
0.0
 11
101.654733
 21
153.375163
 31
0.0
  0
LINE
  8
LC-008-003-----0
  6
CONTINUOUS
  5
245
 10
100.704503
 20
153.312882
 30
0.0
 11
98.0
 21
173.855619
 31
0.0
  0
LINE
  8
LC-008-003-----0
  6
CONTINUOUS
  5
246
 10
98.0
 20
173.855619
 30
0.0
 11
95.295497
 21
153.312882
 31
0.0
  0
LINE
  8
LC-008-003-----0
  6
CONTINUOUS
  5
247
 10
99.754272
 20
153.2506
 30
0.0
 11
98.0
 21
166.575619
 31
0.0
  0
LINE
  8
LC-008-003-----0
  6
CONTINUOUS
  5
248
 10
98.0
 20
166.575619
 30
0.0
 11
96.245728
 21
153.2506
 31
0.0
  0
LINE
  8
LC-008-003-----0
  6
CONTINUOUS
  5
249
 10
98.804041
 20
153.188319
 30
0.0
 11
98.0
 21
159.295619
 31
0.0
  0
LINE
  8
LC-008-003-----0
  6
CONTINUOUS
  5
24A
 10
98.0
 20
159.295619
 30
0.0
 11
97.195959
 21
153.188319
 31
0.0
  0
TEXT
  8
LC-008-003-----0
  6
CONTINUOUS
 62
     8
  5
24B
 10
90.172446
 20
88.090269
 30
0.0
 40
28.0
  1
DN100
 50
90.0
 41
0.8
 51
15.0
  7
LC-TXTSTYLE-150-400-0-0-A0
 72
     1
 11
90.172446
 21
131.829069
 31
0.0
  0
ENDBLK
  8
0
  5
24C
  0
BLOCK
  8
0
  5
24E
  2
*D21
 70
    65
 10
0.0
 20
0.0
 30
0.0
  3
*D21
  0
LINE
  8
LC-009-003-MTH-0
  6
CONTINUOUS
  5
24F
 10
207.802943
 20
50.086351
 30
0.0
 11
380.8
 21
50.086351
 31
0.0
  0
LINE
  8
LC-009-003-MTH-0
  6
CONTINUOUS
  5
250
 10
241.349532
 20
246.582077
 30
0.0
 11
380.8
 21
246.582077
 31
0.0
  0
LINE
  8
LC-010-003-MTG-0
  6
CONTINUOUS
  5
251
 10
364.0
 20
50.086351
 30
0.0
 11
364.0
 21
246.582077
 31
0.0
  0
LINE
  8
LC-008-003-----0
  6
CONTINUOUS
  5
252
 10
360.345267
 20
77.846807
 30
0.0
 11
364.0
 21
50.086351
 31
0.0
  0
LINE
  8
LC-008-003-----0
  6
CONTINUOUS
  5
253
 10
364.0
 20
50.086351
 30
0.0
 11
367.654733
 21
77.846807
 31
0.0
  0
LINE
  8
LC-008-003-----0
  6
CONTINUOUS
  5
254
 10
367.654733
 20
77.846807
 30
0.0
 11
360.345267
 21
77.846807
 31
0.0
  0
LINE
  8
LC-008-003-----0
  6
CONTINUOUS
  5
255
 10
361.295497
 20
77.909089
 30
0.0
 11
364.0
 21
57.366351
 31
0.0
  0
LINE
  8
LC-008-003-----0
  6
CONTINUOUS
  5
256
 10
364.0
 20
57.366351
 30
0.0
 11
366.704503
 21
77.909089
 31
0.0
  0
LINE
  8
LC-008-003-----0
  6
CONTINUOUS
  5
257
 10
362.245728
 20
77.97137
 30
0.0
 11
364.0
 21
64.646351
 31
0.0
  0
LINE
  8
LC-008-003-----0
  6
CONTINUOUS
  5
258
 10
364.0
 20
64.646351
 30
0.0
 11
365.754272
 21
77.97137
 31
0.0
  0
LINE
  8
LC-008-003-----0
  6
CONTINUOUS
  5
259
 10
363.195959
 20
78.033652
 30
0.0
 11
364.0
 21
71.926351
 31
0.0
  0
LINE
  8
LC-008-003-----0
  6
CONTINUOUS
  5
25A
 10
364.0
 20
71.926351
 30
0.0
 11
364.804041
 21
78.033652
 31
0.0
  0
LINE
  8
LC-008-003-----0
  6
CONTINUOUS
  5
25B
 10
367.654733
 20
218.821621
 30
0.0
 11
364.0
 21
246.582077
 31
0.0
  0
LINE
  8
LC-008-003-----0
  6
CONTINUOUS
  5
25C
 10
364.0
 20
246.582077
 30
0.0
 11
360.345267
 21
218.821621
 31
0.0
  0
LINE
  8
LC-008-003-----0
  6
CONTINUOUS
  5
25D
 10
360.345267
 20
218.821621
 30
0.0
 11
367.654733
 21
218.821621
 31
0.0
  0
LINE
  8
LC-008-003-----0
  6
CONTINUOUS
  5
25E
 10
366.704503
 20
218.759339
 30
0.0
 11
364.0
 21
239.302077
 31
0.0
  0
LINE
  8
LC-008-003-----0
  6
CONTINUOUS
  5
25F
 10
364.0
 20
239.302077
 30
0.0
 11
361.295497
 21
218.759339
 31
0.0
  0
LINE
  8
LC-008-003-----0
  6
CONTINUOUS
  5
260
 10
365.754272
 20
218.697058
 30
0.0
 11
364.0
 21
232.022077
 31
0.0
  0
LINE
  8
LC-008-003-----0
  6
CONTINUOUS
  5
261
 10
364.0
 20
232.022077
 30
0.0
 11
362.245728
 21
218.697058
 31
0.0
  0
LINE
  8
LC-008-003-----0
  6
CONTINUOUS
  5
262
 10
364.804041
 20
218.634777
 30
0.0
 11
364.0
 21
224.742077
 31
0.0
  0
LINE
  8
LC-008-003-----0
  6
CONTINUOUS
  5
263
 10
364.0
 20
224.742077
 30
0.0
 11
363.195959
 21
218.634777
 31
0.0
  0
TEXT
  8
LC-008-003-----0
  6
CONTINUOUS
 62
     8
  5
264
 10
356.172446
 20
113.077424
 30
0.0
 40
28.0
  1
196,5
 50
90.0
 41
0.9
 51
15.0
  7
LC-TXTSTYLE-150-400-0-0-A0
 72
     1
 11
356.172446
 21
152.682374
 31
0.0
  0
ENDBLK
  8
0
  5
265
  0
BLOCK
  8
0
  5
267
  2
*D22
 70
    65
 10
0.0
 20
0.0
 30
0.0
  3
*D22
  0
LINE
  8
LC-009-003-MTH-0
  6
CONTINUOUS
  5
268
 10
171.349532
 20
230.582077
 30
0.0
 11
171.349532
 21
291.2
 31
0.0
  0
LINE
  8
LC-009-003-MTH-0
  6
CONTINUOUS
  5
269
 10
241.349532
 20
246.582077
 30
0.0
 11
241.349532
 21
291.2
 31
0.0
  0
LINE
  8
LC-010-003-MTG-0
  6
CONTINUOUS
  5
26A
 10
171.349532
 20
274.4
 30
0.0
 11
241.349532
 21
274.4
 31
0.0
  0
LINE
  8
LC-008-003-----0
  6
CONTINUOUS
  5
26B
 10
199.109988
 20
278.054733
 30
0.0
 11
171.349532
 21
274.4
 31
0.0
  0
LINE
  8
LC-008-003-----0
  6
CONTINUOUS
  5
26C
 10
171.349532
 20
274.4
 30
0.0
 11
199.109988
 21
270.745267
 31
0.0
  0
LINE
  8
LC-008-003-----0
  6
CONTINUOUS
  5
26D
 10
199.109988
 20
270.745267
 30
0.0
 11
199.109988
 21
278.054733
 31
0.0
  0
LINE
  8
LC-008-003-----0
  6
CONTINUOUS
  5
26E
 10
199.17227
 20
277.104503
 30
0.0
 11
178.629532
 21
274.4
 31
0.0
  0
LINE
  8
LC-008-003-----0
  6
CONTINUOUS
  5
26F
 10
178.629532
 20
274.4
 30
0.0
 11
199.17227
 21
271.695497
 31
0.0
  0
LINE
  8
LC-008-003-----0
  6
CONTINUOUS
  5
270
 10
199.234551
 20
276.154272
 30
0.0
 11
185.909532
 21
274.4
 31
0.0
  0
LINE
  8
LC-008-003-----0
  6
CONTINUOUS
  5
271
 10
185.909532
 20
274.4
 30
0.0
 11
199.234551
 21
272.645728
 31
0.0
  0
LINE
  8
LC-008-003-----0
  6
CONTINUOUS
  5
272
 10
199.296832
 20
275.204041
 30
0.0
 11
193.189532
 21
274.4
 31
0.0
  0
LINE
  8
LC-008-003-----0
  6
CONTINUOUS
  5
273
 10
193.189532
 20
274.4
 30
0.0
 11
199.296832
 21
273.595959
 31
0.0
  0
LINE
  8
LC-008-003-----0
  6
CONTINUOUS
  5
274
 10
213.589076
 20
270.745267
 30
0.0
 11
241.349532
 21
274.4
 31
0.0
  0
LINE
  8
LC-008-003-----0
  6
CONTINUOUS
  5
275
 10
241.349532
 20
274.4
 30
0.0
 11
213.589076
 21
278.054733
 31
0.0
  0
LINE
  8
LC-008-003-----0
  6
CONTINUOUS
  5
276
 10
213.589076
 20
278.054733
 30
0.0
 11
213.589076
 21
270.745267
 31
0.0
  0
LINE
  8
LC-008-003-----0
  6
CONTINUOUS
  5
277
 10
213.526795
 20
271.695497
 30
0.0
 11
234.069532
 21
274.4
 31
0.0
  0
LINE
  8
LC-008-003-----0
  6
CONTINUOUS
  5
278
 10
234.069532
 20
274.4
 30
0.0
 11
213.526795
 21
277.104503
 31
0.0
  0
LINE
  8
LC-008-003-----0
  6
CONTINUOUS
  5
279
 10
213.464513
 20
272.645728
 30
0.0
 11
226.789532
 21
274.4
 31
0.0
  0
LINE
  8
LC-008-003-----0
  6
CONTINUOUS
  5
27A
 10
226.789532
 20
274.4
 30
0.0
 11
213.464513
 21
276.154272
 31
0.0
  0
LINE
  8
LC-008-003-----0
  6
CONTINUOUS
  5
27B
 10
213.402232
 20
273.595959
 30
0.0
 11
219.509532
 21
274.4
 31
0.0
  0
LINE
  8
LC-008-003-----0
  6
CONTINUOUS
  5
27C
 10
219.509532
 20
274.4
 30
0.0
 11
213.402232
 21
275.204041
 31
0.0
  0
TEXT
  8
LC-008-003-----0
  6
CONTINUOUS
 62
     8
  5
27D
 10
193.095492
 20
282.227554
 30
0.0
 40
28.0
  1
70
 41
0.9
 51
15.0
  7
LC-TXTSTYLE-150-400-0-0-A0
 72
     1
 11
210.697692
 21
282.227554
 31
0.0
  0
ENDBLK
  8
0
  5
27E
  0
BLOCK
  8
0
  5
280
  2
*D23
 70
    65
 10
0.0
 20
0.0
 30
0.0
  3
*D23
  0
LINE
  8
LC-009-003-MTH-0
  6
CONTINUOUS
  5
281
 10
117.357659
 20
182.129721
 30
0.0
 11
117.357659
 21
330.4
 31
0.0
  0
LINE
  8
LC-009-003-MTH-0
  6
CONTINUOUS
  5
282
 10
241.349532
 20
246.582077
 30
0.0
 11
241.349532
 21
330.4
 31
0.0
  0
LINE
  8
LC-010-003-MTG-0
  6
CONTINUOUS
  5
283
 10
117.357659
 20
313.6
 30
0.0
 11
241.349532
 21
313.6
 31
0.0
  0
LINE
  8
LC-008-003-----0
  6
CONTINUOUS
  5
284
 10
145.118115
 20
317.254733
 30
0.0
 11
117.357659
 21
313.6
 31
0.0
  0
LINE
  8
LC-008-003-----0
  6
CONTINUOUS
  5
285
 10
117.357659
 20
313.6
 30
0.0
 11
145.118115
 21
309.945267
 31
0.0
  0
LINE
  8
LC-008-003-----0
  6
CONTINUOUS
  5
286
 10
145.118115
 20
309.945267
 30
0.0
 11
145.118115
 21
317.254733
 31
0.0
  0
LINE
  8
LC-008-003-----0
  6
CONTINUOUS
  5
287
 10
145.180396
 20
316.304503
 30
0.0
 11
124.637659
 21
313.6
 31
0.0
  0
LINE
  8
LC-008-003-----0
  6
CONTINUOUS
  5
288
 10
124.637659
 20
313.6
 30
0.0
 11
145.180396
 21
310.895497
 31
0.0
  0
LINE
  8
LC-008-003-----0
  6
CONTINUOUS
  5
289
 10
145.242678
 20
315.354272
 30
0.0
 11
131.917659
 21
313.6
 31
0.0
  0
LINE
  8
LC-008-003-----0
  6
CONTINUOUS
  5
28A
 10
131.917659
 20
313.6
 30
0.0
 11
145.242678
 21
311.845728
 31
0.0
  0
LINE
  8
LC-008-003-----0
  6
CONTINUOUS
  5
28B
 10
145.304959
 20
314.404041
 30
0.0
 11
139.197659
 21
313.6
 31
0.0
  0
LINE
  8
LC-008-003-----0
  6
CONTINUOUS
  5
28C
 10
139.197659
 20
313.6
 30
0.0
 11
145.304959
 21
312.795959
 31
0.0
  0
LINE
  8
LC-008-003-----0
  6
CONTINUOUS
  5
28D
 10
213.589076
 20
309.945267
 30
0.0
 11
241.349532
 21
313.6
 31
0.0
  0
LINE
  8
LC-008-003-----0
  6
CONTINUOUS
  5
28E
 10
241.349532
 20
313.6
 30
0.0
 11
213.589076
 21
317.254733
 31
0.0
  0
LINE
  8
LC-008-003-----0
  6
CONTINUOUS
  5
28F
 10
213.589076
 20
317.254733
 30
0.0
 11
213.589076
 21
309.945267
 31
0.0
  0
LINE
  8
LC-008-003-----0
  6
CONTINUOUS
  5
290
 10
213.526795
 20
310.895497
 30
0.0
 11
234.069532
 21
313.6
 31
0.0
  0
LINE
  8
LC-008-003-----0
  6
CONTINUOUS
  5
291
 10
234.069532
 20
313.6
 30
0.0
 11
213.526795
 21
316.304503
 31
0.0
  0
LINE
  8
LC-008-003-----0
  6
CONTINUOUS
  5
292
 10
213.464513
 20
311.845728
 30
0.0
 11
226.789532
 21
313.6
 31
0.0
  0
LINE
  8
LC-008-003-----0
  6
CONTINUOUS
  5
293
 10
226.789532
 20
313.6
 30
0.0
 11
213.464513
 21
315.354272
 31
0.0
  0
LINE
  8
LC-008-003-----0
  6
CONTINUOUS
  5
294
 10
213.402232
 20
312.795959
 30
0.0
 11
219.509532
 21
313.6
 31
0.0
  0
LINE
  8
LC-008-003-----0
  6
CONTINUOUS
  5
295
 10
219.509532
 20
313.6
 30
0.0
 11
213.402232
 21
314.404041
 31
0.0
  0
TEXT
  8
LC-008-003-----0
  6
CONTINUOUS
 62
     8
  5
296
 10
157.298455
 20
321.427554
 30
0.0
 40
28.0
  1
124
 41
0.9
 51
15.0
  7
LC-TXTSTYLE-150-400-0-0-A0
 72
     1
 11
183.701755
 21
321.427554
 31
0.0
  0
ENDBLK
  8
0
  5
297
  0
BLOCK
  8
0
  5
299
  2
*D24
 70
    65
 10
0.0
 20
0.0
 30
0.0
  3
*D24
  0
LINE
  8
LC-009-003-MTH-0
  6
CONTINUOUS
  5
29A
 10
117.491167
 20
185.06592
 30
0.0
 11
117.491167
 21
369.6
 31
0.0
  0
LINE
  8
LC-009-003-MTH-0
  6
CONTINUOUS
  5
29B
 10
328.931396
 20
139.755679
 30
0.0
 11
328.931396
 21
369.6
 31
0.0
  0
LINE
  8
LC-010-003-MTG-0
  6
CONTINUOUS
  5
29C
 10
117.491167
 20
352.8
 30
0.0
 11
328.931396
 21
352.8
 31
0.0
  0
LINE
  8
LC-008-003-----0
  6
CONTINUOUS
  5
29D
 10
145.251623
 20
356.454733
 30
0.0
 11
117.491167
 21
352.8
 31
0.0
  0
LINE
  8
LC-008-003-----0
  6
CONTINUOUS
  5
29E
 10
117.491167
 20
352.8
 30
0.0
 11
145.251623
 21
349.145267
 31
0.0
  0
LINE
  8
LC-008-003-----0
  6
CONTINUOUS
  5
29F
 10
145.251623
 20
349.145267
 30
0.0
 11
145.251623
 21
356.454733
 31
0.0
  0
LINE
  8
LC-008-003-----0
  6
CONTINUOUS
  5
2A0
 10
145.313904
 20
355.504503
 30
0.0
 11
124.771167
 21
352.8
 31
0.0
  0
LINE
  8
LC-008-003-----0
  6
CONTINUOUS
  5
2A1
 10
124.771167
 20
352.8
 30
0.0
 11
145.313904
 21
350.095497
 31
0.0
  0
LINE
  8
LC-008-003-----0
  6
CONTINUOUS
  5
2A2
 10
145.376186
 20
354.554272
 30
0.0
 11
132.051167
 21
352.8
 31
0.0
  0
LINE
  8
LC-008-003-----0
  6
CONTINUOUS
  5
2A3
 10
132.051167
 20
352.8
 30
0.0
 11
145.376186
 21
351.045728
 31
0.0
  0
LINE
  8
LC-008-003-----0
  6
CONTINUOUS
  5
2A4
 10
145.438467
 20
353.604041
 30
0.0
 11
139.331167
 21
352.8
 31
0.0
  0
LINE
  8
LC-008-003-----0
  6
CONTINUOUS
  5
2A5
 10
139.331167
 20
352.8
 30
0.0
 11
145.438467
 21
351.995959
 31
0.0
  0
LINE
  8
LC-008-003-----0
  6
CONTINUOUS
  5
2A6
 10
301.170939
 20
349.145267
 30
0.0
 11
328.931396
 21
352.8
 31
0.0
  0
LINE
  8
LC-008-003-----0
  6
CONTINUOUS
  5
2A7
 10
328.931396
 20
352.8
 30
0.0
 11
301.170939
 21
356.454733
 31
0.0
  0
LINE
  8
LC-008-003-----0
  6
CONTINUOUS
  5
2A8
 10
301.170939
 20
356.454733
 30
0.0
 11
301.170939
 21
349.145267
 31
0.0
  0
LINE
  8
LC-008-003-----0
  6
CONTINUOUS
  5
2A9
 10
301.108658
 20
350.095497
 30
0.0
 11
321.651396
 21
352.8
 31
0.0
  0
LINE
  8
LC-008-003-----0
  6
CONTINUOUS
  5
2AA
 10
321.651396
 20
352.8
 30
0.0
 11
301.108658
 21
355.504503
 31
0.0
  0
LINE
  8
LC-008-003-----0
  6
CONTINUOUS
  5
2AB
 10
301.046377
 20
351.045728
 30
0.0
 11
314.371396
 21
352.8
 31
0.0
  0
LINE
  8
LC-008-003-----0
  6
CONTINUOUS
  5
2AC
 10
314.371396
 20
352.8
 30
0.0
 11
301.046377
 21
354.554272
 31
0.0
  0
LINE
  8
LC-008-003-----0
  6
CONTINUOUS
  5
2AD
 10
300.984095
 20
351.995959
 30
0.0
 11
307.091396
 21
352.8
 31
0.0
  0
LINE
  8
LC-008-003-----0
  6
CONTINUOUS
  5
2AE
 10
307.091396
 20
352.8
 30
0.0
 11
300.984095
 21
353.604041
 31
0.0
  0
TEXT
  8
LC-008-003-----0
  6
CONTINUOUS
 62
     8
  5
2AF
 10
187.954491
 20
360.627554
 30
0.0
 40
28.0
  1
211,5
 41
0.9
 51
15.0
  7
LC-TXTSTYLE-150-400-0-0-A0
 72
     1
 11
227.559441
 21
360.627554
 31
0.0
  0
ENDBLK
  8
0
  5
2B0
  0
ENDSEC
  0
SECTION
  2
ENTITIES
  0
VIEWPORT
  8
LC-000
  5
4AA
 67
     1
 68
     1
 10
420.0
 20
297.0
 30
0.0
 40
840.0
 41
594.0
 69
     1
1001
ACAD
1000
MVIEW
1002
{
1070
    16
1010
0.0
1020
0.0
1030
0.0
1010
0.0
1020
0.0
1030
1.0
1040
0.0
1040
594.0
1040
420.0
1040
297.0
1040
50.0
1040
0.0
1040
0.0
1070
     0
1070
   100
1070
     1
1070
     1
1070
     0
1070
     0
1070
     0
1070
     0
1040
0.0
1040
0.0
1040
0.0
1040
1.0
1040
1.0
1040
0.0
1040
0.0
1070
     0
1002
{
1002
}
1002
}
  0
VIEWPORT
  8
0
  5
4AB
 67
     1
 68
     1
 10
0.0
 20
0.0
 30
0.0
 40
0.0
 41
0.0
 69
     1
1001
ACAD
1000
MVIEW
1002
{
1070
    16
1010
0.0
1020
0.0
1030
0.0
1010
0.0
1020
0.0
1030
1.0
1040
0.0
1040
594.0
1040
0.0
1040
0.0
1040
50.0
1040
0.0
1040
0.0
1070
     0
1070
   100
1070
     0
1070
     1
1070
     0
1070
     0
1070
     0
1070
     0
1040
0.0
1040
0.0
1040
0.0
1040
0.5
1040
0.5
1040
0.5
1040
0.5
1070
     0
1002
{
1002
}
1002
}
  0
INSERT
  8
LC-001-000-----0
  5
2B2
  2
BLK1
 10
0.0
 20
0.0
 30
0.0
  0
INSERT
  8
LC-007-005-----0
  6
CONTINUOUS
  5
2B3
  2
*X1
 10
117.357659
 20
178.235617
 30
0.0
  0
INSERT
  8
LC-001-000-----0
  5
2B4
  2
BLK2
 10
0.0
 20
0.0
 30
0.0
  0
INSERT
  8
LC-007-005-----0
  6
CONTINUOUS
  5
2B5
  2
*X3
 10
127.457265
 20
63.98562
 30
0.0
  0
INSERT
  8
LC-007-005-----0
  6
CONTINUOUS
  5
2B6
  2
*X4
 10
127.457265
 20
180.38562
 30
0.0
  0
INSERT
  8
LC-001-000-----0
  5
2B7
  2
BLK3
 10
0.0
 20
0.0
 30
0.0
  0
INSERT
  8
LC-001-000-----0
  5
2B8
  2
BLK4
 10
0.0
 20
0.0
 30
0.0
  0
INSERT
  8
LC-001-000-----0
  5
2B9
  2
BLK5
 10
0.0
 20
0.0
 30
0.0
  0
INSERT
  8
LC-001-000-----0
  5
2BA
  2
BLK6
 10
0.0
 20
0.0
 30
0.0
  0
INSERT
  8
LC-007-005-----0
  6
CONTINUOUS
  5
2BB
  2
*X9
 10
179.301456
 20
192.025852
 30
0.0
  0
INSERT
  8
LC-007-005-----0
  6
CONTINUOUS
  5
2BC
  2
*X10
 10
181.589466
 20
57.013873
 30
0.0
  0
INSERT
  8
LC-001-000-----0
  5
2BD
  2
BLK7
 10
0.0
 20
0.0
 30
0.0
  0
INSERT
  8
LC-007-005-----0
  6
CONTINUOUS
  5
2BE
  2
*X12
 10
180.644095
 20
199.299142
 30
0.0
  0
INSERT
  8
LC-007-005-----0
  6
CONTINUOUS
  5
2BF
  2
*X13
 10
183.507707
 20
54.086048
 30
0.0
  0
INSERT
  8
LC-001-000-----0
  5
2C0
  2
BLK8
 10
0.0
 20
0.0
 30
0.0
  0
INSERT
  8
LC-007-005-----0
  6
CONTINUOUS
  5
2C1
  2
*X15
 10
-60.37255
 20
-10.073123
 30
0.0
  0
INSERT
  8
LC-007-005-----0
  6
CONTINUOUS
  5
2C2
  2
*X16
 10
171.349532
 20
221.582077
 30
0.0
  0
INSERT
  8
LC-007-005-----0
  6
CONTINUOUS
  5
2C3
  2
*X17
 10
-758.650468
 20
-329.467755
 30
0.0
  0
INSERT
  8
LC-007-005-----0
  6
CONTINUOUS
  5
2C4
  2
BLK9
 10
0.0
 20
0.0
 30
0.0
  0
INSERT
  8
LC-001-000-----0
  5
2C5
  2
BLK10
 10
0.0
 20
0.0
 30
0.0
  0
DIMENSION
  8
LC-008-003-----0
  6
CONTINUOUS
  5
2C6
  2
*D20
 10
98.0
 20
127.480909
 30
0.0
 11
98.0
 21
127.480909
 31
0.0
  1
DN100
 13
136.357265
 23
181.135619
 33
0.0
 14
136.357265
 24
70.735615
 34
0.0
 50
90.0
  3
LC-DIM-L-0140-02-02
  0
DIMENSION
  8
LC-008-003-----0
  6
CONTINUOUS
  5
2C7
  2
*D21
 10
364.0
 20
148.334214
 30
0.0
 11
364.0
 21
148.334214
 31
0.0
 13
207.802943
 23
50.086351
 33
0.0
 14
241.349532
 24
246.582077
 34
0.0
 50
90.0
  3
LC-DIM-L-0140-02-02
  0
DIMENSION
  8
LC-008-003-----0
  6
CONTINUOUS
  5
2C8
  2
*D22
 10
206.349532
 20
274.4
 30
0.0
 11
206.349532
 21
274.4
 31
0.0
 13
241.349532
 23
246.582077
 33
0.0
 14
171.349532
 24
230.582077
 34
0.0
  3
LC-DIM-L-0140-02-02
  0
DIMENSION
  8
LC-008-003-----0
  6
CONTINUOUS
  5
2C9
  2
*D23
 10
179.353595
 20
313.6
 30
0.0
 11
179.353595
 21
313.6
 31
0.0
 13
117.357659
 23
182.129721
 33
0.0
 14
241.349532
 24
234.082077
 34
0.0
  3
LC-DIM-L-0140-01-02
  0
DIMENSION
  8
LC-008-003-----0
  6
CONTINUOUS
  5
2CA
  2
*D24
 10
223.211281
 20
352.8
 30
0.0
 11
223.211281
 21
352.8
 31
0.0
  1
211,5
 13
117.491167
 23
185.06592
 33
0.0
 14
328.931396
 24
139.755679
 34
0.0
  3
LC-DIM-L-0140-02-02
  0
LINE
  8
LC-002-002-----0
  6
CONTINUOUS
  5
2CC
 10
208.797044
 20
229.082076
 30
0.0
 11
208.797044
 21
213.986374
 31
0.0
  0
LINE
  8
LC-002-002-----0
  6
CONTINUOUS
  5
2CD
 10
208.797044
 20
212.653215
 30
0.0
 11
208.797044
 21
198.802068
 31
0.0
  0
LINE
  8
LC-002-002-----0
  6
CONTINUOUS
  5
2CE
 10
208.797044
 20
197.647367
 30
0.0
 11
208.797044
 21
190.719164
 31
0.0
  0
LINE
  8
LC-002-002-----0
  6
CONTINUOUS
  5
2CF
 10
180.209835
 20
230.582077
 30
0.0
 11
180.777496
 21
198.060774
 31
0.0
  0
LINE
  8
LC-002-002-----0
  6
CONTINUOUS
  5
2D0
 10
180.813655
 20
195.989208
 30
0.0
 11
180.821127
 21
195.561155
 31
0.0
  0
LINE
  8
LC-002-002-----0
  6
CONTINUOUS
  5
2D1
 10
180.857286
 20
193.489589
 30
0.0
 11
182.949345
 21
73.635618
 31
0.0
  0
LINE
  8
LC-002-002-----0
  6
CONTINUOUS
  5
2D2
 10
205.797044
 20
229.082076
 30
0.0
 11
205.797044
 21
216.631337
 31
0.0
  0
LINE
  8
LC-002-002-----0
  6
CONTINUOUS
  5
2D3
 10
205.797044
 20
215.298177
 30
0.0
 11
205.797044
 21
210.184871
 31
0.0
  0
LINE
  8
LC-002-002-----0
  6
CONTINUOUS
  5
2D4
 10
205.797044
 20
193.262683
 30
0.0
 11
205.797044
 21
188.871704
 31
0.0
  0
LINE
  8
LC-002-002-----0
  6
CONTINUOUS
  5
2D5
 10
205.797044
 20
72.141113
 30
0.0
 11
205.797044
 21
59.086596
 31
0.0
  0
LINE
  8
LC-002-002-----0
  6
CONTINUOUS
  5
2D6
 10
231.047044
 20
229.082076
 30
0.0
 11
231.047044
 21
188.499917
 31
0.0
  0
LINE
  8
LC-002-002-----0
  6
CONTINUOUS
  5
2D7
 10
231.047044
 20
149.528401
 30
0.0
 11
231.047044
 21
97.206687
 31
0.0
  0
LINE
  8
LC-002-002-----0
  6
CONTINUOUS
  5
2D8
 10
234.047044
 20
229.082076
 30
0.0
 11
234.047044
 21
185.499917
 31
0.0
  0
LINE
  8
LC-002-002-----0
  6
CONTINUOUS
  5
2D9
 10
234.047044
 20
144.332248
 30
0.0
 11
234.047044
 21
97.206687
 31
0.0
  0
LINE
  8
LC-002-002-----0
  6
CONTINUOUS
  5
2DA
 10
210.288196
 20
55.086596
 30
0.0
 11
227.839285
 21
55.086498
 31
0.0
  0
LINE
  8
LC-002-002-----0
  6
CONTINUOUS
  5
2DB
 10
206.785244
 20
59.086596
 30
0.0
 11
228.771185
 21
59.086596
 31
0.0
  0
LINE
  8
LC-002-002-----0
  6
CONTINUOUS
  5
2DC
 10
122.657258
 20
182.435615
 30
0.0
 11
122.657258
 21
69.435615
 31
0.0
  0
ARC
  8
LC-002-002-----0
  6
CONTINUOUS
  5
2DD
 10
206.785244
 20
58.092496
 30
0.0
 40
0.9941
 50
90.0
 51
180.0
  0
ARC
  8
LC-002-002-----0
  6
CONTINUOUS
  5
2DE
 10
204.797044
 20
55.080451
 30
0.0
 40
0.9941
 50
270.0
 51
0.0
  0
ARC
  8
LC-002-002-----0
  6
CONTINUOUS
  5
2DF
 10
207.802943
 20
52.074551
 30
0.0
 40
1.9882
 50
270.0
 51
0.0
  0
ARC
  8
LC-002-002-----0
  6
CONTINUOUS
  5
2E0
 10
210.288194
 20
54.589546
 30
0.0
 40
0.49705
 50
89.999681
 51
180.0
  0
LINE
  8
LC-002-002-----0
  6
CONTINUOUS
  5
2E1
 10
209.791144
 20
52.074551
 30
0.0
 11
209.791144
 21
54.589546
 31
0.0
  0
LINE
  8
LC-002-002-----0
  6
CONTINUOUS
  5
2E2
 10
181.29624
 20
50.086351
 30
0.0
 11
207.802943
 21
50.086351
 31
0.0
  0
LINE
  8
LC-002-002-----0
  6
CONTINUOUS
  5
2E3
 10
205.791144
 20
58.092496
 30
0.0
 11
205.791144
 21
55.080451
 31
0.0
  0
LINE
  8
LC-002-002-----0
  6
CONTINUOUS
  5
2E4
 10
183.290579
 20
54.086351
 30
0.0
 11
204.797044
 21
54.086351
 31
0.0
  0
LINE
  8
LC-002-002-----0
  6
CONTINUOUS
  5
2E5
 10
234.047044
 20
97.206687
 30
0.0
 11
231.047044
 21
97.206687
 31
0.0
  0
LINE
  8
LC-002-002-----0
  6
CONTINUOUS
  5
2E6
 10
207.297044
 20
230.582076
 30
0.0
 11
207.297044
 21
230.582076
 31
0.0
  0
LINE
  8
LC-002-002-----0
  6
CONTINUOUS
  5
2E7
 10
176.209225
 20
230.582076
 30
0.0
 11
175.214973
 21
230.582076
 31
0.0
  0
ARC
  8
LC-002-002-----0
  6
CONTINUOUS
  5
2E8
 10
177.129173
 20
238.582076
 30
0.0
 40
0.5
 50
100.18855
 51
176.899915
  0
ARC
  8
LC-003-002-RND-0
  6
CONTINUOUS
  5
2EA
 10
207.297044
 20
229.082076
 30
0.0
 40
1.5
 50
90.0
 51
180.0
  0
LINE
  8
LC-002-002-----0
  6
CONTINUOUS
  5
2EB
 10
178.314394
 20
53.016603
 30
0.0
 11
178.079229
 21
66.48917
 31
0.0
  0
LINE
  8
LC-002-002-----0
  6
CONTINUOUS
  5
2EC
 10
117.737079
 20
66.654245
 30
0.0
 11
120.857665
 21
66.435615
 31
0.0
  0
ARC
  8
LC-003-002-RND-0
  6
CONTINUOUS
  5
2ED
 10
207.297044
 20
229.082076
 30
0.0
 40
1.5
 50
0.0
 51
90.0
  0
ARC
  8
LC-002-002-----0
  6
CONTINUOUS
  5
2EE
 10
181.29624
 20
53.068652
 30
0.0
 40
2.9823
 50
181.000001
 51
270.0
  0
LINE
  8
LC-002-002-----0
  6
CONTINUOUS
  5
2EF
 10
117.81997
 20
185.222792
 30
0.0
 11
120.857659
 21
185.435615
 31
0.0
  0
LINE
  8
LC-002-002-----0
  6
CONTINUOUS
  5
2F0
 10
122.649726
 20
69.43605
 30
0.0
 11
117.357664
 21
69.741507
 31
0.0
  0
LINE
  8
LC-002-002-----0
  6
CONTINUOUS
  5
2F1
 10
122.657258
 20
182.435615
 30
0.0
 11
117.357659
 21
182.129721
 31
0.0
  0
LINE
  8
LC-004-100-D03-0
  6
CONTINUOUS
  5
2F3
 10
159.120919
 20
185.382065
 30
0.0
 11
141.120919
 21
185.382065
 31
0.0
  0
LINE
  8
LC-002-002-----0
  6
CONTINUOUS
  5
2F4
 10
159.120919
 20
185.382065
 30
0.0
 11
159.120919
 21
186.882065
 31
0.0
  0
LINE
  8
LC-002-002-----0
  6
CONTINUOUS
  5
2F5
 10
162.120919
 20
185.382065
 30
0.0
 11
162.120919
 21
186.882065
 31
0.0
  0
LINE
  8
LC-002-002-----0
  6
CONTINUOUS
  5
2F6
 10
159.120925
 20
66.489168
 30
0.0
 11
159.120925
 21
64.989168
 31
0.0
  0
ARC
  8
LC-002-002-----0
  6
CONTINUOUS
  5
2F7
 10
160.620919
 20
186.882065
 30
0.0
 40
1.5
 50
0.0
 51
180.0
  0
LINE
  8
LC-002-002-----0
  6
CONTINUOUS
  5
2F8
 10
162.120925
 20
66.489168
 30
0.0
 11
162.120925
 21
64.989168
 31
0.0
  0
ARC
  8
LC-002-002-----0
  6
CONTINUOUS
  5
2F9
 10
160.620925
 20
64.989168
 30
0.0
 40
1.5
 50
180.000006
 51
0.000006
  0
LINE
  8
LC-004-100-D03-0
  6
CONTINUOUS
  5
2FA
 10
159.120925
 20
66.48917
 30
0.0
 11
141.120919
 21
66.489169
 31
0.0
  0
LINE
  8
LC-005-100-D01-0
  6
CONTINUOUS
  5
2FC
 10
136.357265
 20
70.735615
 30
0.0
 11
136.357265
 21
66.723816
 31
0.0
  0
ARC
  8
LC-004-100-D03-0
  6
CONTINUOUS
  5
2FD
 10
125.82816
 20
66.079301
 30
0.0
 40
4.970501
 50
180.0
 51
267.000005
  0
LINE
  8
LC-004-100-D03-0
  6
CONTINUOUS
  5
2FE
 10
137.656817
 20
60.482066
 30
0.0
 11
141.120919
 21
66.482067
 31
0.0
  0
LINE
  8
LC-004-100-D03-0
  6
CONTINUOUS
  5
2FF
 10
137.656817
 20
60.482066
 30
0.0
 11
125.568024
 21
61.115612
 31
0.0
  0
LINE
  8
LC-005-100-D01-0
  6
CONTINUOUS
  5
300
 10
136.357265
 20
133.685615
 30
0.0
 11
136.357265
 21
185.147419
 31
0.0
  0
LINE
  8
LC-005-100-D01-0
  6
CONTINUOUS
  5
301
 10
136.357265
 20
133.685615
 30
0.0
 11
136.357265
 21
70.735615
 31
0.0
  0
ARC
  8
LC-005-100-D01-0
  6
CONTINUOUS
  5
302
 10
134.369065
 20
66.716713
 30
0.0
 40
1.9882
 50
345.041358
 51
354.958642
  0
LINE
  8
LC-005-100-D01-0
  6
CONTINUOUS
  5
303
 10
128.218281
 20
65.05086
 30
0.0
 11
126.969469
 21
65.116307
 31
0.0
  0
LINE
  8
LC-005-100-D01-0
  6
CONTINUOUS
  5
304
 10
126.969469
 20
65.116307
 30
0.0
 11
122.649726
 21
69.43605
 31
0.0
  0
LINE
  8
LC-004-100-D03-0
  6
CONTINUOUS
  5
305
 10
117.357659
 20
67.137175
 30
0.0
 11
117.357659
 21
69.734411
 31
0.0
  0
ARC
  8
LC-004-100-D03-0
  6
CONTINUOUS
  5
306
 10
117.854709
 20
67.137175
 30
0.0
 40
0.49705
 50
180.0
 51
256.310779
  0
LINE
  8
LC-004-100-D03-0
  6
CONTINUOUS
  5
307
 10
120.857659
 20
66.079301
 30
0.0
 11
120.857659
 21
66.435615
 31
0.0
  0
ARC
  8
LC-005-100-D01-0
  6
CONTINUOUS
  5
308
 10
134.369065
 20
185.147419
 30
0.0
 40
1.9882
 50
5.471461
 51
14.528539
  0
LINE
  8
LC-004-100-D03-0
  6
CONTINUOUS
  5
309
 10
137.656817
 20
191.382066
 30
0.0
 11
125.564729
 21
190.748348
 31
0.0
  0
LINE
  8
LC-004-100-D03-0
  6
CONTINUOUS
  5
30A
 10
137.656817
 20
191.382066
 30
0.0
 11
141.120919
 21
185.382065
 31
0.0
  0
LINE
  8
LC-005-100-D01-0
  6
CONTINUOUS
  5
30B
 10
128.213751
 20
186.813035
 30
0.0
 11
126.969469
 21
186.747825
 31
0.0
  0
LINE
  8
LC-005-100-D01-0
  6
CONTINUOUS
  5
30C
 10
126.969469
 20
186.747825
 30
0.0
 11
122.657258
 21
182.435615
 31
0.0
  0
LINE
  8
LC-004-100-D03-0
  6
CONTINUOUS
  5
30D
 10
117.357659
 20
184.726957
 30
0.0
 11
117.357659
 21
182.129721
 31
0.0
  0
ARC
  8
LC-004-100-D03-0
  6
CONTINUOUS
  5
30E
 10
117.854709
 20
184.726957
 30
0.0
 40
0.49705
 50
94.007635
 51
180.0
  0
LINE
  8
LC-004-100-D03-0
  6
CONTINUOUS
  5
30F
 10
120.857659
 20
185.784832
 30
0.0
 11
120.857659
 21
185.435615
 31
0.0
  0
ARC
  8
LC-004-100-D03-0
  6
CONTINUOUS
  5
310
 10
125.82816
 20
185.784832
 30
0.0
 40
4.970501
 50
92.999995
 51
180.0
  0
LINE
  8
LC-004-100-D03-0
  6
CONTINUOUS
  5
311
 10
117.357659
 20
182.129721
 30
0.0
 11
117.357659
 21
69.741508
 31
0.0
  0
LINE
  8
LC-005-100-D01-0
  6
CONTINUOUS
  5
312
 10
172.618745
 20
181.135617
 30
0.0
 11
136.357265
 21
181.135619
 31
0.0
  0
LINE
  8
LC-002-002-----0
  6
CONTINUOUS
  5
313
 10
176.003943
 20
185.382064
 30
0.0
 11
175.214973
 21
230.582076
 31
0.0
  0
LINE
  8
LC-004-100-D03-0
  6
CONTINUOUS
  5
314
 10
176.009843
 20
185.382064
 30
0.0
 11
162.120919
 21
185.382065
 31
0.0
  0
LINE
  8
LC-004-100-D03-0
  6
CONTINUOUS
  5
315
 10
178.079229
 20
66.48917
 30
0.0
 11
162.120925
 21
66.48917
 31
0.0
  0
LINE
  8
LC-005-100-D01-0
  6
CONTINUOUS
  5
316
 10
172.64525
 20
70.735617
 30
0.0
 11
136.357265
 21
70.735615
 31
0.0
  0
LINE
  8
LC-002-002-----0
  6
CONTINUOUS
  5
317
 10
178.31437
 20
53.017981
 30
0.0
 11
138.671146
 21
62.238937
 31
0.0
  0
LINE
  8
LC-005-100-D01-0
  6
CONTINUOUS
  5
318
 10
172.64525
 20
70.735617
 30
0.0
 11
178.618745
 21
72.336209
 31
0.0
  0
LINE
  8
LC-005-100-D01-0
  6
CONTINUOUS
  5
319
 10
172.618745
 20
181.135617
 30
0.0
 11
172.618745
 21
70.735617
 31
0.0
  0
LINE
  8
LC-005-100-D01-0
  6
CONTINUOUS
  5
31A
 10
178.618745
 20
72.336209
 30
0.0
 11
178.618745
 21
73.635617
 31
0.0
  0
LINE
  8
LC-002-002-----0
  6
CONTINUOUS
  5
31B
 10
178.618745
 20
73.635617
 30
0.0
 11
182.949345
 21
73.635618
 31
0.0
  0
LINE
  8
LC-002-002-----0
  6
CONTINUOUS
  5
31C
 10
178.618745
 20
178.235617
 30
0.0
 11
181.129245
 21
178.235618
 31
0.0
  0
LINE
  8
LC-005-100-D01-0
  6
CONTINUOUS
  5
31D
 10
172.618745
 20
181.135617
 30
0.0
 11
178.618745
 21
179.527923
 31
0.0
  0
LINE
  8
LC-002-002-----0
  6
CONTINUOUS
  5
31E
 10
232.547044
 20
230.582076
 30
0.0
 11
232.547044
 21
230.582076
 31
0.0
  0
LINE
  8
LC-002-002-----0
  6
CONTINUOUS
  5
31F
 10
182.949345
 20
73.635618
 30
0.0
 11
183.065507
 21
66.980741
 31
0.0
  0
LINE
  8
LC-002-002-----0
  6
CONTINUOUS
  5
320
 10
183.101666
 20
64.909175
 30
0.0
 11
183.109138
 21
64.481122
 31
0.0
  0
LINE
  8
LC-002-002-----0
  6
CONTINUOUS
  5
321
 10
183.145297
 20
62.409556
 30
0.0
 11
183.290579
 21
54.086351
 31
0.0
  0
ARC
  8
LC-003-002-RND-0
  6
CONTINUOUS
  5
322
 10
232.547044
 20
229.082076
 30
0.0
 40
1.5
 50
90.0
 51
180.0
  0
ARC
  8
LC-003-002-RND-0
  6
CONTINUOUS
  5
323
 10
232.547044
 20
229.082076
 30
0.0
 40
1.5
 50
0.0
 51
90.0
  0
LINE
  8
LC-006-006-MLN-0
  6
DASHDOT
  5
327
 10
107.357659
 20
125.935621
 30
0.0
 11
249.356701
 21
125.935613
 31
0.0
  0
LINE
  8
LC-005-100-D01-0
  6
CONTINUOUS
  5
328
 10
178.618745
 20
73.635617
 30
0.0
 11
178.618745
 21
179.527923
 31
0.0
  0
ARC
  8
LC-003-002-RND-0
  6
CONTINUOUS
  5
329
 10
135.857265
 20
67.389743
 30
0.0
 40
0.5
 50
0.0
 51
100.0
  0
ARC
  8
LC-003-002-RND-0
  6
CONTINUOUS
  5
32A
 10
133.19185
 20
68.343146
 30
0.0
 40
0.3
 50
165.0
 51
210.0
  0
ARC
  8
LC-003-002-RND-0
  6
CONTINUOUS
  5
32B
 10
133.512041
 20
67.788559
 30
0.0
 40
0.3
 50
210.0
 51
280.0
  0
LINE
  8
LC-002-002-----0
  6
CONTINUOUS
  5
32C
 10
131.76141
 20
64.58562
 30
0.0
 11
132.55312
 21
64.58562
 31
0.0
  0
LINE
  8
LC-002-002-----0
  6
CONTINUOUS
  5
32D
 10
133.252234
 20
67.638559
 30
0.0
 11
132.932042
 21
68.193146
 31
0.0
  0
ARC
  8
LC-002-002-----0
  6
CONTINUOUS
  5
32E
 10
131.357265
 20
64.08562
 30
0.0
 40
0.1
 50
210.0
 51
330.0
  0
LINE
  8
LC-002-002-----0
  6
CONTINUOUS
  5
32F
 10
132.883121
 20
71.423198
 30
0.0
 11
128.308248
 21
68.781894
 31
0.0
  0
LINE
  8
LC-002-002-----0
  6
CONTINUOUS
  5
330
 10
133.566134
 20
70.899104
 30
0.0
 11
132.902072
 21
68.420792
 31
0.0
  0
ARC
  8
LC-002-002-----0
  6
CONTINUOUS
  5
331
 10
133.116084
 20
71.019694
 30
0.0
 40
0.465926
 50
345.0
 51
120.0
  0
LINE
  8
LC-002-002-----0
  6
CONTINUOUS
  5
332
 10
131.270662
 20
64.03562
 30
0.0
 11
130.95312
 21
64.58562
 31
0.0
  0
LINE
  8
LC-002-002-----0
  6
CONTINUOUS
  5
333
 10
128.099397
 20
65.2436
 30
0.0
 11
127.559906
 21
66.725841
 31
0.0
  0
ARC
  8
LC-002-002-----0
  6
CONTINUOUS
  5
334
 10
129.159231
 20
67.307948
 30
0.0
 40
1.701966
 50
120.0
 51
200.0
  0
LINE
  8
LC-002-002-----0
  6
CONTINUOUS
  5
335
 10
131.443867
 20
64.03562
 30
0.0
 11
131.76141
 21
64.58562
 31
0.0
  0
ARC
  8
LC-002-002-----0
  6
CONTINUOUS
  5
336
 10
132.957265
 20
64.08562
 30
0.0
 40
0.1
 50
210.0
 51
330.0
  0
LINE
  8
LC-002-002-----0
  6
CONTINUOUS
  5
337
 10
135.770441
 20
67.882147
 30
0.0
 11
133.564136
 21
67.493116
 31
0.0
  0
ARC
  8
LC-003-002-RND-0
  6
CONTINUOUS
  5
338
 10
135.857265
 20
184.481497
 30
0.0
 40
0.5
 50
260.0
 51
0.0
  0
ARC
  8
LC-003-002-RND-0
  6
CONTINUOUS
  5
339
 10
133.19185
 20
183.528094
 30
0.0
 40
0.3
 50
150.0
 51
195.0
  0
ARC
  8
LC-003-002-RND-0
  6
CONTINUOUS
  5
33A
 10
133.512041
 20
184.082682
 30
0.0
 40
0.3
 50
80.0
 51
150.0
  0
LINE
  8
LC-002-002-----0
  6
CONTINUOUS
  5
33B
 10
131.76141
 20
187.28562
 30
0.0
 11
132.55312
 21
187.28562
 31
0.0
  0
LINE
  8
LC-002-002-----0
  6
CONTINUOUS
  5
33C
 10
132.870662
 20
64.03562
 30
0.0
 11
132.55312
 21
64.58562
 31
0.0
  0
LINE
  8
LC-002-002-----0
  6
CONTINUOUS
  5
33D
 10
136.357265
 20
66.58562
 30
0.0
 11
136.150319
 21
65.411972
 31
0.0
  0
LINE
  8
LC-002-002-----0
  6
CONTINUOUS
  5
33E
 10
129.03909
 20
64.58562
 30
0.0
 11
129.410855
 21
64.58562
 31
0.0
  0
ARC
  8
LC-003-002-RND-0
  6
CONTINUOUS
  5
33F
 10
129.03909
 20
65.58562
 30
0.0
 40
1.0
 50
200.0
 51
270.0
  0
ARC
  8
LC-003-002-RND-0
  6
CONTINUOUS
  5
340
 10
135.165511
 20
65.58562
 30
0.0
 40
1.0
 50
270.0
 51
350.0
  0
LINE
  8
LC-002-002-----0
  6
CONTINUOUS
  5
341
 10
136.357265
 20
66.58562
 30
0.0
 11
136.357265
 21
67.389743
 31
0.0
  0
LINE
  8
LC-002-002-----0
  6
CONTINUOUS
  5
342
 10
133.043867
 20
64.03562
 30
0.0
 11
133.36141
 21
64.58562
 31
0.0
  0
ARC
  8
LC-002-002-----0
  6
CONTINUOUS
  5
343
 10
134.557265
 20
64.08562
 30
0.0
 40
0.1
 50
210.0
 51
330.0
  0
LINE
  8
LC-002-002-----0
  6
CONTINUOUS
  5
344
 10
134.470662
 20
64.03562
 30
0.0
 11
134.15312
 21
64.58562
 31
0.0
  0
LINE
  8
LC-002-002-----0
  6
CONTINUOUS
  5
345
 10
134.643867
 20
64.03562
 30
0.0
 11
134.96141
 21
64.58562
 31
0.0
  0
LINE
  8
LC-002-002-----0
  6
CONTINUOUS
  5
346
 10
133.36141
 20
64.58562
 30
0.0
 11
134.15312
 21
64.58562
 31
0.0
  0
LINE
  8
LC-002-002-----0
  6
CONTINUOUS
  5
347
 10
134.96141
 20
64.58562
 30
0.0
 11
135.165511
 21
64.58562
 31
0.0
  0
ARC
  8
LC-002-002-----0
  6
CONTINUOUS
  5
348
 10
129.757265
 20
64.18562
 30
0.0
 40
0.1
 50
210.0
 51
330.0
  0
LINE
  8
LC-002-002-----0
  6
CONTINUOUS
  5
349
 10
129.670662
 20
64.13562
 30
0.0
 11
129.410855
 21
64.58562
 31
0.0
  0
LINE
  8
LC-002-002-----0
  6
CONTINUOUS
  5
34A
 10
129.843867
 20
64.13562
 30
0.0
 11
130.103675
 21
64.58562
 31
0.0
  0
LINE
  8
LC-002-002-----0
  6
CONTINUOUS
  5
34B
 10
130.103675
 20
64.58562
 30
0.0
 11
130.95312
 21
64.58562
 31
0.0
  0
LINE
  8
LC-002-002-----0
  6
CONTINUOUS
  5
34C
 10
133.252234
 20
184.232682
 30
0.0
 11
132.932042
 21
183.678094
 31
0.0
  0
ARC
  8
LC-002-002-----0
  6
CONTINUOUS
  5
34D
 10
131.357265
 20
187.78562
 30
0.0
 40
0.1
 50
30.0
 51
150.0
  0
LINE
  8
LC-002-002-----0
  6
CONTINUOUS
  5
34E
 10
132.883121
 20
180.448042
 30
0.0
 11
128.308248
 21
183.089347
 31
0.0
  0
LINE
  8
LC-002-002-----0
  6
CONTINUOUS
  5
34F
 10
133.566134
 20
180.972137
 30
0.0
 11
132.902072
 21
183.450448
 31
0.0
  0
ARC
  8
LC-002-002-----0
  6
CONTINUOUS
  5
350
 10
133.116084
 20
180.851546
 30
0.0
 40
0.465926
 50
240.0
 51
15.0
  0
LINE
  8
LC-002-002-----0
  6
CONTINUOUS
  5
351
 10
131.270662
 20
187.83562
 30
0.0
 11
130.95312
 21
187.28562
 31
0.0
  0
LINE
  8
LC-002-002-----0
  6
CONTINUOUS
  5
352
 10
128.099397
 20
186.62764
 30
0.0
 11
127.559906
 21
185.145399
 31
0.0
  0
ARC
  8
LC-002-002-----0
  6
CONTINUOUS
  5
353
 10
129.159231
 20
184.563292
 30
0.0
 40
1.701966
 50
160.0
 51
240.0
  0
LINE
  8
LC-002-002-----0
  6
CONTINUOUS
  5
354
 10
131.443867
 20
187.83562
 30
0.0
 11
131.76141
 21
187.28562
 31
0.0
  0
ARC
  8
LC-002-002-----0
  6
CONTINUOUS
  5
355
 10
132.957265
 20
187.78562
 30
0.0
 40
0.1
 50
30.0
 51
150.0
  0
LINE
  8
LC-002-002-----0
  6
CONTINUOUS
  5
356
 10
135.770441
 20
183.989093
 30
0.0
 11
133.564136
 21
184.378124
 31
0.0
  0
LINE
  8
LC-002-002-----0
  6
CONTINUOUS
  5
357
 10
132.870662
 20
187.83562
 30
0.0
 11
132.55312
 21
187.28562
 31
0.0
  0
LINE
  8
LC-002-002-----0
  6
CONTINUOUS
  5
358
 10
136.357265
 20
185.28562
 30
0.0
 11
136.150319
 21
186.459268
 31
0.0
  0
LINE
  8
LC-002-002-----0
  6
CONTINUOUS
  5
359
 10
129.03909
 20
187.28562
 30
0.0
 11
129.410855
 21
187.28562
 31
0.0
  0
ARC
  8
LC-003-002-RND-0
  6
CONTINUOUS
  5
35A
 10
129.03909
 20
186.28562
 30
0.0
 40
1.0
 50
90.0
 51
160.0
  0
ARC
  8
LC-003-002-RND-0
  6
CONTINUOUS
  5
35B
 10
135.165511
 20
186.28562
 30
0.0
 40
1.0
 50
10.0
 51
90.0
  0
LINE
  8
LC-002-002-----0
  6
CONTINUOUS
  5
35C
 10
136.357265
 20
185.28562
 30
0.0
 11
136.357265
 21
184.481497
 31
0.0
  0
LINE
  8
LC-002-002-----0
  6
CONTINUOUS
  5
35D
 10
133.043867
 20
187.83562
 30
0.0
 11
133.36141
 21
187.28562
 31
0.0
  0
ARC
  8
LC-002-002-----0
  6
CONTINUOUS
  5
35E
 10
134.557265
 20
187.78562
 30
0.0
 40
0.1
 50
30.0
 51
150.0
  0
LINE
  8
LC-002-002-----0
  6
CONTINUOUS
  5
35F
 10
134.470662
 20
187.83562
 30
0.0
 11
134.15312
 21
187.28562
 31
0.0
  0
LINE
  8
LC-002-002-----0
  6
CONTINUOUS
  5
360
 10
134.643867
 20
187.83562
 30
0.0
 11
134.96141
 21
187.28562
 31
0.0
  0
LINE
  8
LC-002-002-----0
  6
CONTINUOUS
  5
361
 10
133.36141
 20
187.28562
 30
0.0
 11
134.15312
 21
187.28562
 31
0.0
  0
LINE
  8
LC-002-002-----0
  6
CONTINUOUS
  5
362
 10
134.96141
 20
187.28562
 30
0.0
 11
135.165511
 21
187.28562
 31
0.0
  0
ARC
  8
LC-002-002-----0
  6
CONTINUOUS
  5
363
 10
129.757265
 20
187.68562
 30
0.0
 40
0.1
 50
30.0
 51
150.0
  0
LINE
  8
LC-002-002-----0
  6
CONTINUOUS
  5
364
 10
129.670662
 20
187.73562
 30
0.0
 11
129.410855
 21
187.28562
 31
0.0
  0
LINE
  8
LC-002-002-----0
  6
CONTINUOUS
  5
365
 10
129.843867
 20
187.73562
 30
0.0
 11
130.103675
 21
187.28562
 31
0.0
  0
LINE
  8
LC-002-002-----0
  6
CONTINUOUS
  5
366
 10
130.103675
 20
187.28562
 30
0.0
 11
130.95312
 21
187.28562
 31
0.0
  0
LINE
  8
LC-002-002-----0
  6
CONTINUOUS
  5
367
 10
127.457265
 20
67.307948
 30
0.0
 11
127.457265
 21
184.563292
 31
0.0
  0
LINE
  8
LC-002-002-----0
  6
CONTINUOUS
  5
368
 10
136.357265
 20
67.389743
 30
0.0
 11
136.357265
 21
184.481497
 31
0.0
  0
LINE
  8
LC-002-002-----0
  6
CONTINUOUS
  5
369
 10
133.58201
 20
180.851546
 30
0.0
 11
133.58201
 21
71.019694
 31
0.0
  0
LINE
  8
LC-002-002-----0
  6
CONTINUOUS
  5
36A
 10
241.349532
 20
234.082077
 30
0.0
 11
185.212414
 21
234.082077
 31
0.0
  0
LINE
  8
LC-002-002-----0
  6
CONTINUOUS
  5
36B
 10
171.349532
 20
230.582077
 30
0.0
 11
171.790307
 21
243.204225
 31
0.0
  0
ARC
  8
LC-002-002-----0
  6
CONTINUOUS
  5
36C
 10
175.288175
 20
243.082077
 30
0.0
 40
3.5
 50
90.0
 51
178.0
  0
LINE
  8
LC-002-002-----0
  6
CONTINUOUS
  5
36D
 10
174.349531
 20
230.582077
 30
0.0
 11
174.716531
 21
241.082077
 31
0.0
  0
LINE
  8
LC-002-002-----0
  6
CONTINUOUS
  5
36E
 10
177.724813
 20
241.082077
 30
0.0
 11
174.716531
 21
241.082077
 31
0.0
  0
ARC
  8
LC-002-002-----0
  6
CONTINUOUS
  5
36F
 10
178.474813
 20
240.832077
 30
0.0
 40
0.75
 50
180.0
 51
0.0
  0
LINE
  8
LC-002-002-----0
  6
CONTINUOUS
  5
370
 10
177.724813
 20
241.082077
 30
0.0
 11
177.724813
 21
240.832077
 31
0.0
  0
LINE
  8
LC-002-002-----0
  6
CONTINUOUS
  5
371
 10
182.897166
 20
221.582077
 30
0.0
 11
182.582879
 21
230.582077
 31
0.0
  0
LINE
  8
LC-002-002-----0
  6
CONTINUOUS
  5
372
 10
241.349532
 20
246.582077
 30
0.0
 11
175.288175
 21
246.582077
 31
0.0
  0
LINE
  8
LC-002-002-----0
  6
CONTINUOUS
  5
373
 10
241.349532
 20
241.082077
 30
0.0
 11
185.45686
 21
241.082077
 31
0.0
  0
LINE
  8
LC-002-002-----0
  6
CONTINUOUS
  5
374
 10
184.775905
 20
221.582077
 30
0.0
 11
182.897166
 21
221.582077
 31
0.0
  0
LINE
  8
LC-002-002-----0
  6
CONTINUOUS
  5
375
 10
174.349531
 20
230.582077
 30
0.0
 11
171.349532
 21
230.582077
 31
0.0
  0
LINE
  8
LC-002-002-----0
  6
CONTINUOUS
  5
376
 10
185.45686
 20
241.082077
 30
0.0
 11
184.775905
 21
221.582077
 31
0.0
  0
LINE
  8
LC-002-002-----0
  6
CONTINUOUS
  5
377
 10
182.582879
 20
230.582077
 30
0.0
 11
182.216211
 21
241.082077
 31
0.0
  0
LINE
  8
LC-002-002-----0
  6
CONTINUOUS
  5
378
 10
179.224813
 20
241.082077
 30
0.0
 11
179.224813
 21
240.832077
 31
0.0
  0
LINE
  8
LC-002-002-----0
  6
CONTINUOUS
  5
379
 10
182.216211
 20
241.082077
 30
0.0
 11
179.224813
 21
241.082077
 31
0.0
  0
LINE
  8
LC-002-002-----0
  6
CONTINUOUS
  5
37A
 10
182.582879
 20
230.582077
 30
0.0
 11
179.939828
 21
230.582077
 31
0.0
  0
LINE
  8
LC-002-002-----0
  6
CONTINUOUS
  5
37B
 10
180.443306
 20
241.082077
 30
0.0
 11
179.224813
 21
241.082077
 31
0.0
  0
LINE
  8
LC-002-002-----0
  6
CONTINUOUS
  5
37C
 10
177.724813
 20
241.082077
 30
0.0
 11
176.50632
 21
241.082077
 31
0.0
  0
LINE
  8
LC-002-002-----0
  6
CONTINUOUS
  5
37D
 10
176.209225
 20
230.582077
 30
0.0
 11
176.654352
 21
239.075611
 31
0.0
  0
LINE
  8
LC-002-002-----0
  6
CONTINUOUS
  5
37E
 10
179.939828
 20
230.582077
 30
0.0
 11
179.643611
 21
239.064627
 31
0.0
  0
LINE
  8
LC-002-002-----0
  6
CONTINUOUS
  5
37F
 10
179.643002
 20
239.082077
 30
0.0
 11
176.654352
 21
239.075611
 31
0.0
  0
LINE
  8
LC-002-002-----0
  6
CONTINUOUS
  5
380
 10
176.209225
 20
230.582077
 30
0.0
 11
174.349531
 21
230.582077
 31
0.0
  0
LINE
  8
LC-002-002-----0
  6
CONTINUOUS
  5
381
 10
210.710394
 20
254.332045
 30
0.0
 11
213.710394
 21
254.332045
 31
0.0
  0
ARC
  8
LC-002-002-----0
  6
CONTINUOUS
  5
382
 10
210.710394
 20
255.332045
 30
0.0
 40
1.0
 50
180.0
 51
270.000058
  0
LINE
  8
LC-002-002-----0
  6
CONTINUOUS
  5
383
 10
209.710394
 20
258.332045
 30
0.0
 11
209.710394
 21
255.332045
 31
0.0
  0
ARC
  8
LC-002-002-----0
  6
CONTINUOUS
  5
384
 10
213.710394
 20
255.332045
 30
0.0
 40
1.0
 50
270.000058
 51
0.0
  0
LINE
  8
LC-002-002-----0
  6
CONTINUOUS
  5
385
 10
214.710394
 20
255.332045
 30
0.0
 11
214.710394
 21
258.332045
 31
0.0
  0
ARC
  8
LC-002-002-----0
  6
CONTINUOUS
  5
386
 10
213.710394
 20
258.332045
 30
0.0
 40
1.0
 50
0.0
 51
90.0
  0
LINE
  8
LC-002-002-----0
  6
CONTINUOUS
  5
387
 10
213.710394
 20
259.332045
 30
0.0
 11
210.710394
 21
259.332045
 31
0.0
  0
ARC
  8
LC-002-002-----0
  6
CONTINUOUS
  5
388
 10
210.710394
 20
258.332045
 30
0.0
 40
1.0
 50
90.0
 51
179.999848
  0
ARC
  8
LC-002-002-----0
  6
CONTINUOUS
  5
389
 10
207.710394
 20
257.698697
 30
0.0
 40
2.0
 50
0.0
 51
79.660109
  0
LINE
  8
LC-002-002-----0
  6
CONTINUOUS
  5
38A
 10
232.710394
 20
255.801813
 30
0.0
 11
232.710394
 21
257.862277
 31
0.0
  0
ARC
  8
LC-002-002-----0
  6
CONTINUOUS
  5
38B
 10
230.710394
 20
255.801813
 30
0.0
 40
2.0
 50
286.72686
 51
0.0
  0
ARC
  8
LC-002-002-----0
  6
CONTINUOUS
  5
38C
 10
212.210394
 20
317.360891
 30
0.0
 40
66.278846
 50
253.273047
 51
286.726801
  0
ARC
  8
LC-002-002-----0
  6
CONTINUOUS
  5
38D
 10
230.710611
 20
255.965554
 30
0.0
 40
2.0
 50
280.339912
 51
359.999963
  0
ARC
  8
LC-002-002-----0
  6
CONTINUOUS
  5
38E
 10
230.710394
 20
257.862277
 30
0.0
 40
2.0
 50
0.0
 51
73.273199
  0
ARC
  8
LC-002-002-----0
  6
CONTINUOUS
  5
38F
 10
212.210394
 20
196.303199
 30
0.0
 40
66.278846
 50
73.273199
 51
106.726782
  0
ARC
  8
LC-002-002-----0
  6
CONTINUOUS
  5
390
 10
230.710612
 20
257.698859
 30
0.0
 40
2.0
 50
359.999963
 51
79.659997
  0
ARC
  8
LC-002-002-----0
  6
CONTINUOUS
  5
391
 10
223.710636
 20
294.332211
 30
0.0
 40
41.0
 50
259.65992
 51
280.339853
  0
ARC
  8
LC-002-002-----0
  6
CONTINUOUS
  5
392
 10
216.710611
 20
255.965564
 30
0.0
 40
2.0
 50
179.999963
 51
259.659995
  0
ARC
  8
LC-002-002-----0
  6
CONTINUOUS
  5
393
 10
216.710612
 20
257.698868
 30
0.0
 40
2.0
 50
100.339835
 51
179.999963
  0
ARC
  8
LC-002-002-----0
  6
CONTINUOUS
  5
394
 10
223.710587
 20
219.332211
 30
0.0
 40
41.0
 50
79.660072
 51
100.339835
  0
LINE
  8
LC-002-002-----0
  6
CONTINUOUS
  5
395
 10
221.710605
 20
246.582077
 30
0.0
 11
221.710608
 21
251.766581
 31
0.0
  0
LINE
  8
LC-002-002-----0
  6
CONTINUOUS
  5
396
 10
191.710394
 20
255.801813
 30
0.0
 11
191.710394
 21
257.862277
 31
0.0
  0
ARC
  8
LC-002-002-----0
  6
CONTINUOUS
  5
397
 10
193.710394
 20
255.801813
 30
0.0
 40
2.0
 50
180.0
 51
253.273047
  0
ARC
  8
LC-002-002-----0
  6
CONTINUOUS
  5
398
 10
193.710394
 20
257.862277
 30
0.0
 40
2.0
 50
106.726782
 51
180.0
  0
ARC
  8
LC-002-002-----0
  6
CONTINUOUS
  5
399
 10
193.710394
 20
255.965393
 30
0.0
 40
2.0
 50
180.0
 51
259.659957
  0
ARC
  8
LC-002-002-----0
  6
CONTINUOUS
  5
39A
 10
200.710394
 20
294.332045
 30
0.0
 40
41.0
 50
259.660109
 51
280.339949
  0
ARC
  8
LC-002-002-----0
  6
CONTINUOUS
  5
39B
 10
193.710394
 20
257.698697
 30
0.0
 40
2.0
 50
100.339872
 51
180.0
  0
ARC
  8
LC-002-002-----0
  6
CONTINUOUS
  5
39C
 10
200.710394
 20
219.332045
 30
0.0
 40
41.0
 50
79.660109
 51
100.339891
  0
ARC
  8
LC-002-002-----0
  6
CONTINUOUS
  5
39D
 10
207.710394
 20
255.965393
 30
0.0
 40
2.0
 50
280.339949
 51
0.0
  0
LINE
  8
LC-002-002-----0
  6
CONTINUOUS
  5
39E
 10
202.710394
 20
246.582077
 30
0.0
 11
202.710394
 21
251.766414
 31
0.0
  0
LINE
  8
LC-006-006-MLN-0
  6
DASHDOT
  5
39F
 10
212.210394
 20
225.082045
 30
0.0
 11
212.210394
 21
272.582045
 31
0.0
  0
LINE
  8
LC-002-002-----0
  6
CONTINUOUS
  5
3A0
 10
205.224679
 20
200.938663
 30
0.0
 11
196.791845
 21
195.871704
 31
0.0
  0
LINE
  8
LC-002-002-----0
  6
CONTINUOUS
  5
3A1
 10
195.127566
 20
194.871704
 30
0.0
 11
194.228547
 21
194.331519
 31
0.0
  0
LINE
  8
LC-002-002-----0
  6
CONTINUOUS
  5
3A2
 10
193.228547
 20
193.730659
 30
0.0
 11
190.675587
 21
192.196686
 31
0.0
  0
LINE
  8
LC-002-002-----0
  6
CONTINUOUS
  5
3A3
 10
180.888535
 20
192.025852
 30
0.0
 11
190.675587
 21
192.196686
 31
0.0
  0
LINE
  8
LC-002-002-----0
  6
CONTINUOUS
  5
3A4
 10
187.726907
 20
201.346618
 30
0.0
 11
184.727364
 21
201.294261
 31
0.0
  0
LINE
  8
LC-002-002-----0
  6
CONTINUOUS
  5
3A5
 10
187.687639
 20
203.596275
 30
0.0
 11
181.688553
 21
203.491561
 31
0.0
  0
LINE
  8
LC-002-002-----0
  6
CONTINUOUS
  5
3A6
 10
187.687639
 20
203.596275
 30
0.0
 11
187.726907
 21
201.346618
 31
0.0
  0
LINE
  8
LC-002-002-----0
  6
CONTINUOUS
  5
3A7
 10
184.727364
 20
201.294261
 30
0.0
 11
184.762269
 21
199.294565
 31
0.0
  0
LINE
  8
LC-002-002-----0
  6
CONTINUOUS
  5
3A8
 10
191.761511
 20
199.416737
 30
0.0
 11
184.762269
 21
199.294565
 31
0.0
  0
LINE
  8
LC-002-002-----0
  6
CONTINUOUS
  5
3A9
 10
205.22468
 20
202.902233
 30
0.0
 11
197.333098
 21
202.764485
 31
0.0
  0
LINE
  8
LC-002-002-----0
  6
CONTINUOUS
  5
3AA
 10
180.706157
 20
202.474261
 30
0.0
 11
180.783136
 21
198.064163
 31
0.0
  0
LINE
  8
LC-002-002-----0
  6
CONTINUOUS
  5
3AB
 10
194.169943
 20
61.437755
 30
0.0
 11
187.170701
 21
61.315583
 31
0.0
  0
LINE
  8
LC-002-002-----0
  6
CONTINUOUS
  5
3AC
 10
187.205605
 20
59.315888
 30
0.0
 11
187.170701
 21
61.315583
 31
0.0
  0
LINE
  8
LC-002-002-----0
  6
CONTINUOUS
  5
3AD
 10
190.244416
 20
57.118588
 30
0.0
 11
190.205149
 21
59.368245
 31
0.0
  0
LINE
  8
LC-002-002-----0
  6
CONTINUOUS
  5
3AE
 10
190.244416
 20
57.118588
 30
0.0
 11
184.24533
 21
57.013873
 31
0.0
  0
LINE
  8
LC-002-002-----0
  6
CONTINUOUS
  5
3AF
 10
205.205651
 20
59.470366
 30
0.0
 11
195.461379
 21
64.871704
 31
0.0
  0
LINE
  8
LC-002-002-----0
  6
CONTINUOUS
  5
3B0
 10
193.228547
 20
66.109383
 30
0.0
 11
188.833314
 21
68.545701
 31
0.0
  0
LINE
  8
LC-002-002-----0
  6
CONTINUOUS
  5
3B1
 10
183.045653
 20
68.444677
 30
0.0
 11
188.833314
 21
68.545701
 31
0.0
  0
LINE
  8
LC-002-002-----0
  6
CONTINUOUS
  5
3B2
 10
190.205149
 20
59.368245
 30
0.0
 11
187.205605
 21
59.315888
 31
0.0
  0
LINE
  8
LC-002-002-----0
  6
CONTINUOUS
  5
3B3
 10
205.224679
 20
58.380221
 30
0.0
 11
199.854971
 21
58.286493
 31
0.0
  0
LINE
  8
LC-002-002-----0
  6
CONTINUOUS
  5
3B4
 10
199.854971
 20
58.286493
 30
0.0
 11
194.169943
 21
61.437755
 31
0.0
  0
LINE
  8
LC-002-002-----0
  6
CONTINUOUS
  5
3B5
 10
179.490575
 20
194.761679
 30
0.0
 11
180.826767
 21
195.564544
 31
0.0
  0
LINE
  8
LC-002-002-----0
  6
CONTINUOUS
  5
3B6
 10
179.499644
 20
194.242143
 30
0.0
 11
180.863041
 21
193.486399
 31
0.0
  0
LINE
  8
LC-002-002-----0
  6
CONTINUOUS
  5
3B7
 10
180.863041
 20
193.486399
 30
0.0
 11
183.071146
 21
66.98413
 31
0.0
  0
LINE
  8
LC-002-002-----0
  6
CONTINUOUS
  5
3B8
 10
179.446944
 20
197.261298
 30
0.0
 11
180.783136
 21
198.064163
 31
0.0
  0
LINE
  8
LC-002-002-----0
  6
CONTINUOUS
  5
3B9
 10
184.24533
 20
57.013873
 30
0.0
 11
183.22803
 21
57.996269
 31
0.0
  0
LINE
  8
LC-002-002-----0
  6
CONTINUOUS
  5
3BA
 10
181.744023
 20
65.661729
 30
0.0
 11
183.107421
 21
64.905986
 31
0.0
  0
LINE
  8
LC-002-002-----0
  6
CONTINUOUS
  5
3BB
 10
179.456013
 20
196.741762
 30
0.0
 11
180.81941
 21
195.986018
 31
0.0
  0
ARC
  8
LC-002-002-----0
  6
CONTINUOUS
  5
3BC
 10
179.601456
 20
197.004148
 30
0.0
 40
0.3
 50
121.0
 51
241.0
  0
LINE
  8
LC-002-002-----0
  6
CONTINUOUS
  5
3BD
 10
181.734955
 20
66.181265
 30
0.0
 11
183.071146
 21
66.98413
 31
0.0
  0
ARC
  8
LC-002-002-----0
  6
CONTINUOUS
  5
3BE
 10
179.645087
 20
194.504528
 30
0.0
 40
0.3
 50
121.0
 51
241.0
  0
LINE
  8
LC-002-002-----0
  6
CONTINUOUS
  5
3BF
 10
180.826767
 20
195.564544
 30
0.0
 11
180.81941
 21
195.986018
 31
0.0
  0
LINE
  8
LC-002-002-----0
  6
CONTINUOUS
  5
3C0
 10
181.688553
 20
203.491561
 30
0.0
 11
180.706157
 21
202.474261
 31
0.0
  0
LINE
  8
LC-002-002-----0
  6
CONTINUOUS
  5
3C1
 10
181.787654
 20
63.16211
 30
0.0
 11
183.151052
 21
62.406366
 31
0.0
  0
LINE
  8
LC-002-002-----0
  6
CONTINUOUS
  5
3C2
 10
181.778586
 20
63.681646
 30
0.0
 11
183.114778
 21
64.484511
 31
0.0
  0
ARC
  8
LC-002-002-----0
  6
CONTINUOUS
  5
3C3
 10
181.933097
 20
63.424496
 30
0.0
 40
0.3
 50
121.0
 51
241.0
  0
ARC
  8
LC-002-002-----0
  6
CONTINUOUS
  5
3C4
 10
181.889466
 20
65.924115
 30
0.0
 40
0.3
 50
121.0
 51
241.0
  0
LINE
  8
LC-002-002-----0
  6
CONTINUOUS
  5
3C5
 10
183.107421
 20
64.905986
 30
0.0
 11
183.114778
 21
64.484511
 31
0.0
  0
LINE
  8
LC-002-002-----0
  6
CONTINUOUS
  5
3C6
 10
183.22803
 20
57.996269
 30
0.0
 11
183.151052
 21
62.406366
 31
0.0
  0
LINE
  8
LC-002-002-----0
  6
CONTINUOUS
  5
3C7
 10
205.224679
 20
58.380221
 30
0.0
 11
205.224679
 21
72.028854
 31
0.0
  0
LINE
  8
LC-002-002-----0
  6
CONTINUOUS
  5
3C8
 10
205.224679
 20
188.871704
 30
0.0
 11
205.224679
 21
194.254047
 31
0.0
  0
LINE
  8
LC-002-002-----0
  6
CONTINUOUS
  5
3C9
 10
205.224679
 20
196.739563
 30
0.0
 11
205.224679
 21
202.902233
 31
0.0
  0
LINE
  8
LC-002-002-----0
  6
CONTINUOUS
  5
3CA
 10
197.333098
 20
202.764485
 30
0.0
 11
191.761511
 21
199.416737
 31
0.0
  0
ARC
  8
LC-002-002-----0
  6
CONTINUOUS
  5
3CB
 10
198.228547
 20
216.371704
 30
0.0
 40
6.339519
 50
129.057464
 51
214.890028
  0
ARC
  8
LC-002-002-----0
  6
CONTINUOUS
  5
3CC
 10
198.228547
 20
216.371704
 30
0.0
 40
6.339519
 50
228.508358
 51
244.890028
  0
ARC
  8
LC-002-002-----0
  6
CONTINUOUS
  5
3CD
 10
198.228547
 20
216.371704
 30
0.0
 40
6.339519
 50
258.508358
 51
271.0
  0
LINE
  8
LC-002-002-----0
  6
CONTINUOUS
  5
3CE
 10
198.339187
 20
210.033151
 30
0.0
 11
200.664282
 21
210.073735
 31
0.0
  0
LINE
  8
LC-002-002-----0
  6
CONTINUOUS
  5
3CF
 10
204.224832
 20
206.635352
 30
0.0
 11
200.664282
 21
210.073735
 31
0.0
  0
LINE
  8
LC-002-002-----0
  6
CONTINUOUS
  5
3D0
 10
203.259584
 20
54.395319
 30
0.0
 11
185.558887
 21
54.086352
 31
0.0
  0
LINE
  8
LC-002-002-----0
  6
CONTINUOUS
  5
3D1
 10
180.644095
 20
221.05722
 30
0.0
 11
180.963805
 21
202.741062
 31
0.0
  0
LINE
  8
LC-002-002-----0
  6
CONTINUOUS
  5
3D2
 10
183.494832
 20
57.738621
 30
0.0
 11
183.524287
 21
56.051143
 31
0.0
  0
ARC
  8
LC-002-002-----0
  6
CONTINUOUS
  5
3D3
 10
198.228547
 20
216.371704
 30
0.0
 40
7.0
 50
6.574225
 51
135.512384
  0
ARC
  8
LC-002-002-----0
  6
CONTINUOUS
  5
3D4
 10
198.228547
 20
216.371704
 30
0.0
 40
4.2
 50
1.0
 51
18.598852
  0
ARC
  8
LC-002-002-----0
  6
CONTINUOUS
  5
3D5
 10
198.228547
 20
216.371704
 30
0.0
 40
4.2
 50
210.0
 51
1.0
  0
LINE
  8
LC-002-002-----0
  6
CONTINUOUS
  5
3D6
 10
187.989131
 20
201.351195
 30
0.0
 11
184.989588
 21
201.298838
 31
0.0
  0
LINE
  8
LC-002-002-----0
  6
CONTINUOUS
  5
3D7
 10
187.949863
 20
203.600852
 30
0.0
 11
187.687639
 21
203.596275
 31
0.0
  0
LINE
  8
LC-002-002-----0
  6
CONTINUOUS
  5
3D8
 10
181.688553
 20
203.491561
 30
0.0
 11
180.95093
 21
203.478685
 31
0.0
  0
LINE
  8
LC-002-002-----0
  6
CONTINUOUS
  5
3D9
 10
187.949863
 20
203.600852
 30
0.0
 11
187.989131
 21
201.351195
 31
0.0
  0
LINE
  8
LC-002-002-----0
  6
CONTINUOUS
  5
3DA
 10
184.989588
 20
201.298838
 30
0.0
 11
185.024493
 21
199.299142
 31
0.0
  0
LINE
  8
LC-002-002-----0
  6
CONTINUOUS
  5
3DB
 10
191.523812
 20
199.412588
 30
0.0
 11
185.024493
 21
199.299142
 31
0.0
  0
LINE
  8
LC-002-002-----0
  6
CONTINUOUS
  5
3DC
 10
193.932244
 20
61.433606
 30
0.0
 11
187.432925
 21
61.32016
 31
0.0
  0
LINE
  8
LC-002-002-----0
  6
CONTINUOUS
  5
3DD
 10
187.46783
 20
59.320465
 30
0.0
 11
187.432925
 21
61.32016
 31
0.0
  0
LINE
  8
LC-002-002-----0
  6
CONTINUOUS
  5
3DE
 10
190.506641
 20
57.123165
 30
0.0
 11
190.467373
 21
59.372822
 31
0.0
  0
LINE
  8
LC-002-002-----0
  6
CONTINUOUS
  5
3DF
 10
190.506641
 20
57.123165
 30
0.0
 11
190.244416
 21
57.118588
 31
0.0
  0
LINE
  8
LC-002-002-----0
  6
CONTINUOUS
  5
3E0
 10
184.24533
 20
57.013873
 30
0.0
 11
183.515876
 21
57.001141
 31
0.0
  0
LINE
  8
LC-002-002-----0
  6
CONTINUOUS
  5
3E1
 10
190.467373
 20
59.372822
 30
0.0
 11
190.205149
 21
59.368245
 31
0.0
  0
LINE
  8
LC-002-002-----0
  6
CONTINUOUS
  5
3E2
 10
199.854971
 20
58.286493
 30
0.0
 11
199.617272
 21
58.282344
 31
0.0
  0
LINE
  8
LC-002-002-----0
  6
CONTINUOUS
  5
3E3
 10
199.617272
 20
58.282344
 30
0.0
 11
193.932244
 21
61.433606
 31
0.0
  0
LINE
  8
LC-002-002-----0
  6
CONTINUOUS
  5
3E4
 10
197.095399
 20
202.760336
 30
0.0
 11
191.523812
 21
199.412588
 31
0.0
  0
LINE
  8
LC-002-002-----0
  6
CONTINUOUS
  5
3E5
 10
205.22468
 20
215.802804
 30
0.0
 11
205.22468
 21
211.885728
 31
0.0
  0
LINE
  8
LC-002-002-----0
  6
CONTINUOUS
  5
3E6
 10
205.22468
 20
208.750346
 30
0.0
 11
205.22468
 21
196.739563
 31
0.0
  0
LINE
  8
LC-002-002-----0
  6
CONTINUOUS
  5
3E7
 10
205.22468
 20
194.254047
 30
0.0
 11
205.22468
 21
188.871704
 31
0.0
  0
LINE
  8
LC-002-002-----0
  6
CONTINUOUS
  5
3E8
 10
205.22468
 20
72.028854
 30
0.0
 11
205.224679
 21
56.395014
 31
0.0
  0
LINE
  8
LC-002-002-----0
  6
CONTINUOUS
  5
3E9
 10
197.333098
 20
202.764485
 30
0.0
 11
197.095399
 21
202.760336
 31
0.0
  0
LINE
  8
LC-002-002-----0
  6
CONTINUOUS
  5
3EA
 10
184.5046
 20
217.624072
 30
0.0
 11
184.702357
 21
206.294586
 31
0.0
  0
LINE
  8
LC-002-002-----0
  6
CONTINUOUS
  5
3EB
 10
205.22468
 20
206.652804
 30
0.0
 11
184.702357
 21
206.294586
 31
0.0
  0
LINE
  8
LC-002-002-----0
  6
CONTINUOUS
  5
3EC
 10
197.095399
 20
202.760336
 30
0.0
 11
197.097794
 21
202.6231
 31
0.0
  0
LINE
  8
LC-002-002-----0
  6
CONTINUOUS
  5
3ED
 10
199.614876
 20
58.41958
 30
0.0
 11
199.617272
 21
58.282344
 31
0.0
  0
ARC
  8
LC-002-002-----0
  6
CONTINUOUS
  5
3EE
 10
189.195158
 20
218.206022
 30
0.0
 40
0.5
 50
271.0
 51
1.0
  0
ARC
  8
LC-002-002-----0
  6
CONTINUOUS
  5
3EF
 10
189.151527
 20
220.705641
 30
0.0
 40
0.5
 50
1.0
 51
91.0
  0
LINE
  8
LC-002-002-----0
  6
CONTINUOUS
  5
3F0
 10
184.5046
 20
217.624072
 30
0.0
 11
189.203884
 21
217.706098
 31
0.0
  0
ARC
  8
LC-002-002-----0
  6
CONTINUOUS
  5
3F1
 10
185.523982
 20
56.086048
 30
0.0
 40
2.0
 50
181.0
 51
271.0
  0
ARC
  8
LC-002-002-----0
  6
CONTINUOUS
  5
3F2
 10
203.224679
 20
56.395014
 30
0.0
 40
2.0
 50
271.0
 51
360.0
  0
LINE
  8
LC-002-002-----0
  6
CONTINUOUS
  5
3F3
 10
189.651451
 20
220.714367
 30
0.0
 11
189.695082
 21
218.214748
 31
0.0
  0
LINE
  8
LC-002-002-----0
  6
CONTINUOUS
  5
3F4
 10
180.644095
 20
221.05722
 30
0.0
 11
194.234019
 21
221.294433
 31
0.0
  0
LINE
  8
LC-002-002-----0
  6
CONTINUOUS
  5
3F5
 10
205.76734
 20
196.871704
 30
0.0
 11
205.76734
 21
207.137757
 31
0.0
  0
LINE
  8
LC-002-002-----0
  6
CONTINUOUS
  5
3F6
 10
193.228547
 20
194.871704
 30
0.0
 11
193.228547
 21
188.871704
 31
0.0
  0
LINE
  8
LC-002-002-----0
  6
CONTINUOUS
  5
3F7
 10
194.228547
 20
195.871704
 30
0.0
 11
204.76734
 21
195.871704
 31
0.0
  0
ARC
  8
LC-002-002-----0
  6
CONTINUOUS
  5
3F8
 10
194.228547
 20
194.871704
 30
0.0
 40
1.0
 50
90.0
 51
180.0
  0
ARC
  8
LC-002-002-----0
  6
CONTINUOUS
  5
3F9
 10
204.76734
 20
196.871704
 30
0.0
 40
1.0
 50
270.0
 51
0.0
  0
LINE
  8
LC-002-002-----0
  6
CONTINUOUS
  5
3FA
 10
194.228547
 20
187.871704
 30
0.0
 11
207.683738
 21
187.871704
 31
0.0
  0
ARC
  8
LC-002-002-----0
  6
CONTINUOUS
  5
3FB
 10
194.228547
 20
188.871704
 30
0.0
 40
1.0
 50
180.0
 51
270.0
  0
LINE
  8
LC-002-002-----0
  6
CONTINUOUS
  5
3FC
 10
221.065588
 20
144.657373
 30
0.0
 11
215.367529
 21
165.922815
 31
0.0
  0
LINE
  8
LC-002-002-----0
  6
CONTINUOUS
  5
3FD
 10
220.099662
 20
144.398554
 30
0.0
 11
208.649664
 21
187.130523
 31
0.0
  0
ARC
  8
LC-002-002-----0
  6
CONTINUOUS
  5
3FE
 10
207.683738
 20
186.871704
 30
0.0
 40
1.0
 50
15.000001
 51
90.0
  0
LINE
  8
LC-002-002-----0
  6
CONTINUOUS
  5
3FF
 10
194.228547
 20
188.871704
 30
0.0
 11
207.683738
 21
188.871704
 31
0.0
  0
LINE
  8
LC-002-002-----0
  6
CONTINUOUS
  5
400
 10
194.228547
 20
194.871704
 30
0.0
 11
204.76734
 21
194.871704
 31
0.0
  0
LINE
  8
LC-002-002-----0
  6
CONTINUOUS
  5
401
 10
194.228547
 20
194.871704
 30
0.0
 11
194.228547
 21
188.871704
 31
0.0
  0
LINE
  8
LC-002-002-----0
  6
CONTINUOUS
  5
402
 10
206.76734
 20
196.871704
 30
0.0
 11
206.76734
 21
207.301503
 31
0.0
  0
ARC
  8
LC-002-002-----0
  6
CONTINUOUS
  5
403
 10
207.683738
 20
186.871704
 30
0.0
 40
2.0
 50
15.000001
 51
90.0
  0
ARC
  8
LC-002-002-----0
  6
CONTINUOUS
  5
404
 10
204.76734
 20
196.871704
 30
0.0
 40
2.0
 50
270.0
 51
0.0
  0
LINE
  8
LC-002-002-----0
  6
CONTINUOUS
  5
405
 10
194.228547
 20
71.871704
 30
0.0
 11
204.423437
 21
71.871704
 31
0.0
  0
LINE
  8
LC-002-002-----0
  6
CONTINUOUS
  5
406
 10
194.228547
 20
72.871704
 30
0.0
 11
204.423437
 21
72.871704
 31
0.0
  0
ARC
  8
LC-002-002-----0
  6
CONTINUOUS
  5
407
 10
194.228547
 20
71.871704
 30
0.0
 40
1.0
 50
90.0
 51
180.0
  0
LINE
  8
LC-002-002-----0
  6
CONTINUOUS
  5
408
 10
194.228547
 20
65.871704
 30
0.0
 11
194.228547
 21
71.871704
 31
0.0
  0
LINE
  8
LC-002-002-----0
  6
CONTINUOUS
  5
409
 10
193.228547
 20
65.871704
 30
0.0
 11
193.228547
 21
71.871704
 31
0.0
  0
ARC
  8
LC-002-002-----0
  6
CONTINUOUS
  5
40A
 10
194.228547
 20
65.871704
 30
0.0
 40
1.0
 50
180.0
 51
270.0
  0
LINE
  8
LC-002-002-----0
  6
CONTINUOUS
  5
40B
 10
194.228547
 20
64.871704
 30
0.0
 11
197.228547
 21
64.871704
 31
0.0
  0
LINE
  8
LC-002-002-----0
  6
CONTINUOUS
  5
40C
 10
194.228547
 20
65.871704
 30
0.0
 11
197.228547
 21
65.871704
 31
0.0
  0
LINE
  8
LC-002-002-----0
  6
CONTINUOUS
  5
40D
 10
197.228547
 20
64.871704
 30
0.0
 11
197.228547
 21
71.871704
 31
0.0
  0
ARC
  8
LC-002-002-----0
  6
CONTINUOUS
  5
40E
 10
198.228547
 20
216.371704
 30
0.0
 40
5.2
 50
18.598853
 51
180.0
  0
LINE
  8
LC-002-002-----0
  6
CONTINUOUS
  5
40F
 10
206.76734
 20
207.301503
 30
0.0
 11
203.156976
 21
218.030194
 31
0.0
  0
LINE
  8
LC-002-002-----0
  6
CONTINUOUS
  5
410
 10
193.028547
 20
216.371704
 30
0.0
 11
193.028547
 21
209.031689
 31
0.0
  0
LINE
  8
LC-002-002-----0
  6
CONTINUOUS
  5
411
 10
205.76734
 20
207.137757
 30
0.0
 11
202.209201
 21
217.711253
 31
0.0
  0
LINE
  8
LC-002-002-----0
  6
CONTINUOUS
  5
412
 10
194.028547
 20
216.371704
 30
0.0
 11
194.028547
 21
209.031689
 31
0.0
  0
LINE
  8
LC-002-002-----0
  6
CONTINUOUS
  5
413
 10
193.028547
 20
209.031689
 30
0.0
 11
194.028547
 21
209.031689
 31
0.0
  0
ARC
  8
LC-002-002-----0
  6
CONTINUOUS
  5
414
 10
79.62745
 20
129.926876
 30
0.0
 40
140.0
 50
336.580232
 51
4.361016
  0
ARC
  8
LC-002-002-----0
  6
CONTINUOUS
  5
415
 10
79.62745
 20
129.926876
 30
0.0
 40
139.0
 50
336.580232
 51
24.637088
  0
ARC
  8
LC-002-002-----0
  6
CONTINUOUS
  5
416
 10
204.423437
 20
75.871704
 30
0.0
 40
3.0
 50
270.0
 51
336.580232
  0
ARC
  8
LC-002-002-----0
  6
CONTINUOUS
  5
417
 10
204.423437
 20
75.871704
 30
0.0
 40
4.0
 50
270.0
 51
336.580232
  0
ARC
  8
LC-002-002-----0
  6
CONTINUOUS
  5
418
 10
219.133736
 20
144.139735
 30
0.0
 40
2.0
 50
301.375598
 51
15.000001
  0
ARC
  8
LC-002-002-----0
  6
CONTINUOUS
  5
419
 10
221.21632
 20
140.724644
 30
0.0
 40
2.0
 50
121.375598
 51
184.361016
  0
ARC
  8
LC-002-002-----0
  6
CONTINUOUS
  5
41A
 10
219.133736
 20
144.139735
 30
0.0
 40
1.0
 50
301.375598
 51
15.000001
  0
ARC
  8
LC-002-002-----0
  6
CONTINUOUS
  5
41B
 10
221.21632
 20
140.724644
 30
0.0
 40
3.0
 50
121.375598
 51
184.361016
  0
ARC
  8
LC-002-002-----0
  6
CONTINUOUS
  5
41C
 10
198.228547
 20
216.371704
 30
0.0
 40
4.2
 50
18.598853
 51
180.0
  0
LINE
  8
LC-002-002-----0
  6
CONTINUOUS
  5
41D
 10
193.228547
 20
188.871704
 30
0.0
 11
193.228547
 21
71.000926
 31
0.0
  0
ARC
  8
LC-002-002-----0
  6
CONTINUOUS
  5
41E
 10
214.9793
 20
167.371704
 30
0.0
 40
1.5
 50
285.000001
 51
81.421823
  0
LINE
  8
LC-002-002-----0
  6
CONTINUOUS
  5
41F
 10
214.386271
 20
169.584918
 30
0.0
 11
209.61559
 21
187.389343
 31
0.0
  0
ARC
  8
LC-002-002-----0
  6
CONTINUOUS
  5
420
 10
215.352197
 20
169.843737
 30
0.0
 40
1.0
 50
195.000001
 51
261.421823
  0
ARC
  8
LC-003-002-RND-0
  6
CONTINUOUS
  5
421
 10
176.50632
 20
239.082077
 30
0.0
 40
2.0
 50
90.0
 51
156.320983
  0
ARC
  8
LC-003-002-RND-0
  6
CONTINUOUS
  5
422
 10
180.443306
 20
239.082077
 30
0.0
 40
2.0
 50
24.954938
 51
90.0
  0
LINE
  8
LC-002-002-----0
  6
CONTINUOUS
  5
423
 10
241.349532
 20
234.082077
 30
0.0
 11
241.349532
 21
246.582077
 31
0.0
  0
ARC
  8
LC-002-002-----0
  6
CONTINUOUS
  5
424
 10
-258.650468
 20
170.532245
 30
0.0
 40
500.0
 50
346.650437
 51
355.809843
  0
LINE
  8
LC-002-002-----0
  6
CONTINUOUS
  5
425
 10
241.349532
 20
178.197429
 30
0.0
 11
241.349532
 21
234.082077
 31
0.0
  0
LINE
  8
LC-007-005-----0
  6
DASHED
  5
426
 10
181.923294
 20
239.994022
 30
0.0
 11
181.055252
 21
240.862065
 31
0.0
  0
LINE
  8
LC-007-005-----0
  6
CONTINUOUS
  5
427
 10
182.295422
 20
238.813772
 30
0.0
 11
180.027117
 21
241.082077
 31
0.0
  0
LINE
  8
LC-007-005-----0
  6
CONTINUOUS
  5
428
 10
182.310043
 20
238.39509
 30
0.0
 11
179.623056
 21
241.082077
 31
0.0
  0
LINE
  8
LC-007-005-----0
  6
DASHED
  5
429
 10
182.339284
 20
237.557727
 30
0.0
 11
179.198288
 21
240.698724
 31
0.0
  0
LINE
  8
LC-007-005-----0
  6
DASHED
  5
42A
 10
182.353905
 20
237.139045
 30
0.0
 11
179.079668
 21
240.413282
 31
0.0
  0
LINE
  8
LC-007-005-----0
  6
CONTINUOUS
  5
42B
 10
182.383146
 20
236.301682
 30
0.0
 11
179.644458
 21
239.04037
 31
0.0
  0
LINE
  8
LC-007-005-----0
  6
CONTINUOUS
  5
42C
 10
179.602838
 20
239.08199
 30
0.0
 11
178.581525
 21
240.103303
 31
0.0
  0
LINE
  8
LC-007-005-----0
  6
CONTINUOUS
  5
42D
 10
177.724813
 20
240.960015
 30
0.0
 11
177.602751
 21
241.082077
 31
0.0
  0
LINE
  8
LC-007-005-----0
  6
CONTINUOUS
  5
42E
 10
182.397767
 20
235.883
 30
0.0
 11
179.659079
 21
238.621688
 31
0.0
  0
LINE
  8
LC-007-005-----0
  6
CONTINUOUS
  5
42F
 10
179.199649
 20
239.081118
 30
0.0
 11
178.048566
 21
240.232201
 31
0.0
  0
LINE
  8
LC-007-005-----0
  6
CONTINUOUS
  5
430
 10
177.874937
 20
240.40583
 30
0.0
 11
177.19869
 21
241.082077
 31
0.0
  0
LINE
  8
LC-007-005-----0
  6
DASHED
  5
431
 10
182.427008
 20
235.045637
 30
0.0
 11
179.68832
 21
237.784325
 31
0.0
  0
LINE
  8
LC-007-005-----0
  6
DASHED
  5
432
 10
178.393272
 20
239.079373
 30
0.0
 11
176.411796
 21
241.060849
 31
0.0
  0
LINE
  8
LC-007-005-----0
  6
DASHED
  5
433
 10
182.441629
 20
234.626955
 30
0.0
 11
179.702941
 21
237.365643
 31
0.0
  0
LINE
  8
LC-007-005-----0
  6
DASHED
  5
434
 10
177.990083
 20
239.078501
 30
0.0
 11
176.07786
 21
240.990724
 31
0.0
  0
LINE
  8
LC-007-005-----0
  6
CONTINUOUS
  5
435
 10
182.47087
 20
233.789592
 30
0.0
 11
179.732182
 21
236.52828
 31
0.0
  0
LINE
  8
LC-007-005-----0
  6
CONTINUOUS
  5
436
 10
177.183705
 20
239.076757
 30
0.0
 11
175.530486
 21
240.729976
 31
0.0
  0
LINE
  8
LC-007-005-----0
  6
CONTINUOUS
  5
437
 10
182.485491
 20
233.37091
 30
0.0
 11
179.746803
 21
236.109598
 31
0.0
  0
LINE
  8
LC-007-005-----0
  6
CONTINUOUS
  5
438
 10
176.780517
 20
239.075884
 30
0.0
 11
175.304771
 21
240.55163
 31
0.0
  0
LINE
  8
LC-007-005-----0
  6
DASHED
  5
439
 10
182.514732
 20
232.533546
 30
0.0
 11
179.776044
 21
235.272235
 31
0.0
  0
LINE
  8
LC-007-005-----0
  6
DASHED
  5
43A
 10
176.620406
 20
238.427873
 30
0.0
 11
174.940984
 21
240.107295
 31
0.0
  0
LINE
  8
LC-007-005-----0
  6
DASHED
  5
43B
 10
182.529353
 20
232.114865
 30
0.0
 11
179.790665
 21
234.853553
 31
0.0
  0
LINE
  8
LC-007-005-----0
  6
DASHED
  5
43C
 10
176.600284
 20
238.043934
 30
0.0
 11
174.805612
 21
239.838606
 31
0.0
  0
LINE
  8
LC-007-005-----0
  6
CONTINUOUS
  5
43D
 10
182.573215
 20
230.85882
 30
0.0
 11
179.834527
 21
233.597508
 31
0.0
  0
LINE
  8
LC-007-005-----0
  6
CONTINUOUS
  5
43E
 10
176.53992
 20
236.892115
 30
0.0
 11
174.636607
 21
238.795428
 31
0.0
  0
LINE
  8
LC-007-005-----0
  6
DASHED
  5
43F
 10
182.041836
 20
230.582077
 30
0.0
 11
179.863768
 21
232.760144
 31
0.0
  0
LINE
  8
LC-007-005-----0
  6
DASHED
  5
440
 10
176.499677
 20
236.124236
 30
0.0
 11
174.609315
 21
238.014598
 31
0.0
  0
LINE
  8
LC-007-005-----0
  6
DASHED
  5
441
 10
181.637775
 20
230.582077
 30
0.0
 11
179.878389
 21
232.341463
 31
0.0
  0
LINE
  8
LC-007-005-----0
  6
DASHED
  5
442
 10
176.479556
 20
235.740296
 30
0.0
 11
174.595669
 21
237.624183
 31
0.0
  0
LINE
  8
LC-007-005-----0
  6
CONTINUOUS
  5
443
 10
180.829653
 20
230.582077
 30
0.0
 11
179.907631
 21
231.504099
 31
0.0
  0
LINE
  8
LC-007-005-----0
  6
CONTINUOUS
  5
444
 10
176.439313
 20
234.972417
 30
0.0
 11
174.568377
 21
236.843353
 31
0.0
  0
LINE
  8
LC-007-005-----0
  6
CONTINUOUS
  5
445
 10
180.425592
 20
230.582077
 30
0.0
 11
179.922251
 21
231.085418
 31
0.0
  0
LINE
  8
LC-007-005-----0
  6
CONTINUOUS
  5
446
 10
176.419191
 20
234.588477
 30
0.0
 11
174.554731
 21
236.452938
 31
0.0
  0
LINE
  8
LC-007-005-----0
  6
DASHED
  5
447
 10
176.378949
 20
233.820598
 30
0.0
 11
174.527439
 21
235.672107
 31
0.0
  0
LINE
  8
LC-007-005-----0
  6
DASHED
  5
448
 10
176.358827
 20
233.436659
 30
0.0
 11
174.513793
 21
235.281692
 31
0.0
  0
LINE
  8
LC-007-005-----0
  6
CONTINUOUS
  5
449
 10
176.318584
 20
232.668779
 30
0.0
 11
174.486501
 21
234.500862
 31
0.0
  0
LINE
  8
LC-007-005-----0
  6
CONTINUOUS
  5
44A
 10
176.298463
 20
232.28484
 30
0.0
 11
174.472856
 21
234.110447
 31
0.0
  0
LINE
  8
LC-007-005-----0
  6
DASHED
  5
44B
 10
176.25822
 20
231.516961
 30
0.0
 11
174.445564
 21
233.329617
 31
0.0
  0
LINE
  8
LC-007-005-----0
  6
DASHED
  5
44C
 10
176.238098
 20
231.133021
 30
0.0
 11
174.431918
 21
232.939202
 31
0.0
  0
LINE
  8
LC-007-005-----0
  6
CONTINUOUS
  5
44D
 10
175.980921
 20
230.582077
 30
0.0
 11
174.404626
 21
232.158372
 31
0.0
  0
LINE
  8
LC-007-005-----0
  6
CONTINUOUS
  5
44E
 10
175.57686
 20
230.582077
 30
0.0
 11
174.39098
 21
231.767957
 31
0.0
  0
LINE
  8
LC-007-005-----0
  6
DASHED
  5
44F
 10
174.768738
 20
230.582077
 30
0.0
 11
174.363688
 21
230.987127
 31
0.0
  0
LINE
  8
LC-007-005-----0
  6
DASHED
  5
450
 10
174.364677
 20
230.582077
 30
0.0
 11
174.350042
 21
230.596711
 31
0.0
  0
LINE
  8
LC-002-002-----0
  6
LC-LINIENTYP-012
  5
452
 10
214.507333
 20
203.253606
 30
0.0
 11
209.374307
 21
212.144268
 31
0.0
  0
LINE
  8
LC-002-002-----0
  6
LC-LINIENTYP-012
  5
453
 10
204.64842
 20
195.252158
 30
0.0
 11
207.64842
 21
190.056006
 31
0.0
  0
LINE
  8
LC-002-002-----0
  6
LC-LINIENTYP-012
  5
454
 10
205.014445
 20
196.618184
 30
0.0
 11
214.141308
 21
201.88758
 31
0.0
  0
ARC
  8
LC-002-002-----0
  6
LC-LINIENTYP-012
  5
455
 10
205.514445
 20
195.752158
 30
0.0
 40
1.0
 50
120.0
 51
210.0
  0
ARC
  8
LC-002-002-----0
  6
LC-LINIENTYP-012
  5
456
 10
213.641308
 20
202.753606
 30
0.0
 40
1.0
 50
300.0
 51
30.0
  0
LINE
  8
LC-002-002-----0
  6
LC-LINIENTYP-012
  5
457
 10
209.014445
 20
189.68998
 30
0.0
 11
220.666982
 21
196.417576
 31
0.0
  0
ARC
  8
LC-002-002-----0
  6
LC-LINIENTYP-012
  5
458
 10
208.514445
 20
190.556006
 30
0.0
 40
1.0
 50
210.0
 51
300.0
  0
LINE
  8
LC-002-002-----0
  6
LC-LINIENTYP-012
  5
459
 10
253.86317
 20
165.683793
 30
0.0
 11
238.295785
 21
181.251176
 31
0.0
  0
LINE
  8
LC-002-002-----0
  6
LC-LINIENTYP-012
  5
45A
 10
253.156063
 20
164.976686
 30
0.0
 11
221.874089
 21
196.258657
 31
0.0
  0
ARC
  8
LC-002-002-----0
  6
LC-LINIENTYP-012
  5
45B
 10
221.166982
 20
195.551551
 30
0.0
 40
1.0
 50
45.000001
 51
120.0
  0
LINE
  8
LC-002-002-----0
  6
LC-LINIENTYP-012
  5
45C
 10
208.514445
 20
190.556006
 30
0.0
 11
220.166982
 21
197.283601
 31
0.0
  0
LINE
  8
LC-002-002-----0
  6
LC-LINIENTYP-012
  5
45D
 10
205.514445
 20
195.752158
 30
0.0
 11
214.641308
 21
201.021555
 31
0.0
  0
LINE
  8
LC-002-002-----0
  6
LC-LINIENTYP-012
  5
45E
 10
205.514445
 20
195.752158
 30
0.0
 11
208.514445
 21
190.556006
 31
0.0
  0
LINE
  8
LC-002-002-----0
  6
LC-LINIENTYP-012
  5
45F
 10
215.373359
 20
203.753606
 30
0.0
 11
210.158459
 21
212.786077
 31
0.0
  0
ARC
  8
LC-002-002-----0
  6
LC-LINIENTYP-012
  5
460
 10
221.166982
 20
195.551551
 30
0.0
 40
2.0
 50
45.000001
 51
120.0
  0
ARC
  8
LC-002-002-----0
  6
LC-LINIENTYP-012
  5
461
 10
213.641308
 20
202.753606
 30
0.0
 40
2.0
 50
300.0
 51
30.0
  0
LINE
  8
LC-002-002-----0
  6
LC-LINIENTYP-012
  5
462
 10
267.014445
 20
89.231034
 30
0.0
 11
275.843479
 21
94.328479
 31
0.0
  0
LINE
  8
LC-002-002-----0
  6
LC-LINIENTYP-012
  5
463
 10
266.514445
 20
90.097059
 30
0.0
 11
275.343479
 21
95.194504
 31
0.0
  0
ARC
  8
LC-002-002-----0
  6
LC-LINIENTYP-012
  5
464
 10
267.014445
 20
89.231034
 30
0.0
 40
1.0
 50
120.0
 51
210.0
  0
LINE
  8
LC-002-002-----0
  6
LC-LINIENTYP-012
  5
465
 10
270.014445
 20
84.034881
 30
0.0
 11
267.014445
 21
89.231034
 31
0.0
  0
LINE
  8
LC-002-002-----0
  6
LC-LINIENTYP-012
  5
466
 10
269.14842
 20
83.534881
 30
0.0
 11
266.14842
 21
88.731034
 31
0.0
  0
ARC
  8
LC-002-002-----0
  6
LC-LINIENTYP-012
  5
467
 10
270.014445
 20
84.034881
 30
0.0
 40
1.0
 50
210.0
 51
300.0
  0
LINE
  8
LC-002-002-----0
  6
LC-LINIENTYP-012
  5
468
 10
270.514445
 20
83.168856
 30
0.0
 11
273.112521
 21
84.668856
 31
0.0
  0
LINE
  8
LC-002-002-----0
  6
LC-LINIENTYP-012
  5
469
 10
270.014445
 20
84.034881
 30
0.0
 11
272.612521
 21
85.534881
 31
0.0
  0
LINE
  8
LC-002-002-----0
  6
LC-LINIENTYP-012
  5
46A
 10
273.112521
 20
84.668856
 30
0.0
 11
269.612521
 21
90.731034
 31
0.0
  0
ARC
  8
LC-002-002-----0
  6
LC-LINIENTYP-012
  5
46B
 10
198.228547
 20
216.371704
 30
0.0
 40
5.2
 50
48.598853
 51
210.0
  0
LINE
  8
LC-002-002-----0
  6
LC-LINIENTYP-012
  5
46C
 10
210.158459
 20
212.786077
 30
0.0
 11
201.667447
 21
220.272213
 31
0.0
  0
LINE
  8
LC-002-002-----0
  6
LC-LINIENTYP-012
  5
46D
 10
193.725215
 20
213.771704
 30
0.0
 11
197.395222
 21
207.415065
 31
0.0
  0
LINE
  8
LC-002-002-----0
  6
LC-LINIENTYP-012
  5
46E
 10
209.374307
 20
212.144268
 30
0.0
 11
201.00612
 21
219.522115
 31
0.0
  0
LINE
  8
LC-002-002-----0
  6
LC-LINIENTYP-012
  5
46F
 10
194.59124
 20
214.271704
 30
0.0
 11
198.261248
 21
207.915065
 31
0.0
  0
LINE
  8
LC-002-002-----0
  6
LC-LINIENTYP-012
  5
470
 10
197.395222
 20
207.415065
 30
0.0
 11
198.261248
 21
207.915065
 31
0.0
  0
ARC
  8
LC-002-002-----0
  6
LC-LINIENTYP-012
  5
471
 10
138.739398
 20
82.207739
 30
0.0
 40
140.0
 50
6.580232
 51
34.361016
  0
ARC
  8
LC-002-002-----0
  6
LC-LINIENTYP-012
  5
472
 10
138.739398
 20
82.207739
 30
0.0
 40
139.0
 50
6.580232
 51
54.637088
  0
ARC
  8
LC-002-002-----0
  6
LC-LINIENTYP-012
  5
473
 10
273.843479
 20
97.79258
 30
0.0
 40
3.0
 50
300.0
 51
6.580232
  0
ARC
  8
LC-002-002-----0
  6
LC-LINIENTYP-012
  5
474
 10
273.843479
 20
97.79258
 30
0.0
 40
4.0
 50
300.0
 51
6.580232
  0
ARC
  8
LC-002-002-----0
  6
LC-LINIENTYP-012
  5
475
 10
252.448956
 20
164.269579
 30
0.0
 40
2.0
 50
331.375598
 51
45.000001
  0
ARC
  8
LC-002-002-----0
  6
LC-LINIENTYP-012
  5
476
 10
255.960072
 20
162.353315
 30
0.0
 40
2.0
 50
151.375598
 51
214.361016
  0
ARC
  8
LC-002-002-----0
  6
LC-LINIENTYP-012
  5
477
 10
252.448956
 20
164.269579
 30
0.0
 40
1.0
 50
331.375598
 51
45.000001
  0
ARC
  8
LC-002-002-----0
  6
LC-LINIENTYP-012
  5
478
 10
255.960072
 20
162.353315
 30
0.0
 40
3.0
 50
151.375598
 51
214.361016
  0
ARC
  8
LC-002-002-----0
  6
LC-LINIENTYP-012
  5
479
 10
198.228547
 20
216.371704
 30
0.0
 40
4.2
 50
48.598853
 51
210.0
  0
LINE
  8
LC-002-002-----0
  6
LC-LINIENTYP-012
  5
47A
 10
207.64842
 20
190.056006
 30
0.0
 11
266.583809
 21
87.976918
 31
0.0
  0
ARC
  8
LC-002-002-----0
  6
LC-LINIENTYP-012
  5
47B
 10
237.235124
 20
182.311836
 30
0.0
 40
1.5
 50
315.000001
 51
111.421823
  0
LINE
  8
LC-002-002-----0
  6
LC-LINIENTYP-012
  5
47C
 10
235.614939
 20
183.932021
 30
0.0
 11
222.581196
 21
196.965764
 31
0.0
  0
ARC
  8
LC-002-002-----0
  6
LC-LINIENTYP-012
  5
47D
 10
236.322046
 20
184.639128
 30
0.0
 40
1.0
 50
225.000001
 51
291.421823
  0
LINE
  8
LC-002-002-----0
  6
LC-LINIENTYP-012
  5
47E
 10
218.885439
 20
213.150491
 30
0.0
 11
209.994776
 21
218.283517
 31
0.0
  0
LINE
  8
LC-002-002-----0
  6
LC-LINIENTYP-012
  5
47F
 10
214.710573
 20
201.082299
 30
0.0
 11
219.544245
 21
198.291577
 31
0.0
  0
LINE
  8
LC-002-002-----0
  6
LC-LINIENTYP-012
  5
480
 10
213.982068
 20
202.657603
 30
0.0
 11
214.416752
 21
203.410497
 31
0.0
  0
LINE
  8
LC-002-002-----0
  6
LC-LINIENTYP-012
  5
481
 10
214.994102
 20
204.410497
 30
0.0
 11
219.251464
 21
211.784465
 31
0.0
  0
ARC
  8
LC-002-002-----0
  6
LC-LINIENTYP-012
  5
482
 10
214.848093
 20
202.157603
 30
0.0
 40
1.0
 50
150.0
 51
203.134088
  0
ARC
  8
LC-002-002-----0
  6
LC-LINIENTYP-012
  5
483
 10
218.385439
 20
212.284465
 30
0.0
 40
1.0
 50
330.0
 51
60.0
  0
LINE
  8
LC-002-002-----0
  6
LC-LINIENTYP-012
  5
484
 10
220.910271
 20
198.657603
 30
0.0
 11
227.637866
 21
210.31014
 31
0.0
  0
ARC
  8
LC-002-002-----0
  6
LC-LINIENTYP-012
  5
485
 10
220.044245
 20
199.157603
 30
0.0
 40
1.0
 50
240.0
 51
330.0
  0
LINE
  8
LC-002-002-----0
  6
LC-LINIENTYP-012
  5
486
 10
271.7535
 20
200.291997
 30
0.0
 11
250.488057
 21
205.990054
 31
0.0
  0
LINE
  8
LC-002-002-----0
  6
LC-LINIENTYP-012
  5
487
 10
271.494681
 20
199.326071
 30
0.0
 11
228.762711
 21
210.776066
 31
0.0
  0
ARC
  8
LC-002-002-----0
  6
LC-LINIENTYP-012
  5
488
 10
228.503892
 20
209.81014
 30
0.0
 40
1.0
 50
75.000001
 51
150.0
  0
LINE
  8
LC-002-002-----0
  6
LC-LINIENTYP-012
  5
489
 10
220.044245
 20
199.157603
 30
0.0
 11
226.771841
 21
210.81014
 31
0.0
  0
LINE
  8
LC-002-002-----0
  6
LC-LINIENTYP-012
  5
48A
 10
215.52005
 20
203.321466
 30
0.0
 11
220.11749
 21
211.284465
 31
0.0
  0
LINE
  8
LC-002-002-----0
  6
LC-LINIENTYP-012
  5
48B
 10
215.38239
 20
201.849126
 30
0.0
 11
220.044245
 21
199.157603
 31
0.0
  0
LINE
  8
LC-002-002-----0
  6
LC-LINIENTYP-012
  5
48C
 10
219.385439
 20
214.016516
 30
0.0
 11
210.352968
 21
219.231416
 31
0.0
  0
ARC
  8
LC-002-002-----0
  6
LC-LINIENTYP-012
  5
48D
 10
228.503892
 20
209.81014
 30
0.0
 40
2.0
 50
75.000001
 51
150.0
  0
ARC
  8
LC-002-002-----0
  6
LC-LINIENTYP-012
  5
48E
 10
218.385439
 20
212.284465
 30
0.0
 40
2.0
 50
330.0
 51
60.0
  0
LINE
  8
LC-002-002-----0
  6
LC-LINIENTYP-012
  5
48F
 10
321.369218
 20
140.657603
 30
0.0
 11
326.466663
 21
149.486637
 31
0.0
  0
LINE
  8
LC-002-002-----0
  6
LC-LINIENTYP-012
  5
490
 10
320.503192
 20
141.157603
 30
0.0
 11
325.600637
 21
149.986637
 31
0.0
  0
ARC
  8
LC-002-002-----0
  6
LC-LINIENTYP-012
  5
491
 10
321.369218
 20
140.657603
 30
0.0
 40
1.0
 50
150.0
 51
240.0
  0
LINE
  8
LC-002-002-----0
  6
LC-LINIENTYP-012
  5
492
 10
326.56537
 20
137.657603
 30
0.0
 11
321.369218
 21
140.657603
 31
0.0
  0
LINE
  8
LC-002-002-----0
  6
LC-LINIENTYP-012
  5
493
 10
326.06537
 20
136.791577
 30
0.0
 11
320.869218
 21
139.791577
 31
0.0
  0
ARC
  8
LC-002-002-----0
  6
LC-LINIENTYP-012
  5
494
 10
326.56537
 20
137.657603
 30
0.0
 40
1.0
 50
240.0
 51
330.0
  0
LINE
  8
LC-002-002-----0
  6
LC-LINIENTYP-012
  5
495
 10
327.431396
 20
137.157603
 30
0.0
 11
328.931396
 21
139.755679
 31
0.0
  0
LINE
  8
LC-002-002-----0
  6
LC-LINIENTYP-012
  5
496
 10
326.56537
 20
137.657603
 30
0.0
 11
328.06537
 21
140.255679
 31
0.0
  0
LINE
  8
LC-002-002-----0
  6
LC-LINIENTYP-012
  5
497
 10
328.931396
 20
139.755679
 30
0.0
 11
322.869218
 21
143.255679
 31
0.0
  0
LINE
  8
LC-002-002-----0
  6
LC-LINIENTYP-012
  5
498
 10
210.352968
 20
219.231416
 30
0.0
 11
203.66425
 21
220.580237
 31
0.0
  0
LINE
  8
LC-002-002-----0
  6
LC-LINIENTYP-012
  5
499
 10
209.994776
 20
218.283517
 30
0.0
 11
204.507086
 21
219.390144
 31
0.0
  0
ARC
  8
LC-002-002-----0
  6
LC-LINIENTYP-012
  5
49A
 10
213.791415
 20
70.437728
 30
0.0
 40
140.0
 50
36.580232
 51
64.361016
  0
ARC
  8
LC-002-002-----0
  6
LC-LINIENTYP-012
  5
49B
 10
213.791415
 20
70.437728
 30
0.0
 40
139.0
 50
36.580232
 51
84.637088
  0
ARC
  8
LC-002-002-----0
  6
LC-LINIENTYP-012
  5
49C
 10
323.002561
 20
151.486637
 30
0.0
 40
3.0
 50
330.0
 51
36.580232
  0
ARC
  8
LC-002-002-----0
  6
LC-LINIENTYP-012
  5
49D
 10
323.002561
 20
151.486637
 30
0.0
 40
4.0
 50
330.0
 51
36.580232
  0
ARC
  8
LC-002-002-----0
  6
LC-LINIENTYP-012
  5
49E
 10
271.235861
 20
198.360145
 30
0.0
 40
2.0
 50
1.375598
 51
75.000001
  0
ARC
  8
LC-002-002-----0
  6
LC-LINIENTYP-012
  5
49F
 10
275.234709
 20
198.45617
 30
0.0
 40
2.0
 50
181.375598
 51
244.361016
  0
ARC
  8
LC-002-002-----0
  6
LC-LINIENTYP-012
  5
4A0
 10
271.235861
 20
198.360145
 30
0.0
 40
1.0
 50
1.375598
 51
75.000001
  0
ARC
  8
LC-002-002-----0
  6
LC-LINIENTYP-012
  5
4A1
 10
275.234709
 20
198.45617
 30
0.0
 40
3.0
 50
181.375598
 51
244.361016
  0
LINE
  8
LC-002-002-----0
  6
LC-LINIENTYP-012
  5
4A2
 10
219.544245
 20
198.291577
 30
0.0
 11
220.893403
 21
197.512641
 31
0.0
  0
LINE
  8
LC-002-002-----0
  6
LC-LINIENTYP-012
  5
4A3
 10
223.59284
 20
195.95412
 30
0.0
 11
321.623334
 21
139.356188
 31
0.0
  0
ARC
  8
LC-002-002-----0
  6
LC-LINIENTYP-012
  5
4A4
 10
249.039168
 20
206.378282
 30
0.0
 40
1.5
 50
345.000001
 51
141.421823
  0
LINE
  8
LC-002-002-----0
  6
LC-LINIENTYP-012
  5
4A5
 10
246.825954
 20
206.971311
 30
0.0
 11
229.02153
 21
211.741992
 31
0.0
  0
ARC
  8
LC-002-002-----0
  6
LC-LINIENTYP-012
  5
4A6
 10
247.084773
 20
207.937237
 30
0.0
 40
1.0
 50
255.000001
 51
321.421823
  0
LINE
  8
LC-006-006-MLN-0
  6
DASHDOT
  5
4A7
 10
212.428547
 20
216.371704
 30
0.0
 11
184.028547
 21
216.371704
 31
0.0
  0
LINE
  8
LC-006-006-MLN-0
  6
DASHDOT
  5
4A8
 10
198.228547
 20
230.571704
 30
0.0
 11
198.228547
 21
202.171704
 31
0.0
  0
ENDSEC
  0
EOF
