  0
SECTION
  2
HEADER
  9
$ACADVER
  1
AC1009
  9
$INSBASE
 10
389.045064
 20
542.712773
 30
0.0
  9
$EXTMIN
 10
0.0
 20
0.0
 30
0.0
  9
$EXTMAX
 10
840.0
 20
594.0
 30
0.0
  9
$LIMMIN
 10
0.0
 20
0.0
  9
$LIMMAX
 10
840.0
 20
594.0
  9
$ORTHOMODE
 70
     0
  9
$REGENMODE
 70
     1
  9
$FILLMODE
 70
     1
  9
$QTEXTMODE
 70
     0
  9
$MIRRTEXT
 70
     1
  9
$DRAGMODE
 70
     2
  9
$LTSCALE
 40
2.0
  9
$OSMODE
 70
     0
  9
$ATTMODE
 70
     1
  9
$TEXTSIZE
 40
0.2
  9
$TRACEWID
 40
0.05
  9
$TEXTSTYLE
  7
STANDARD
  9
$CLAYER
  8
0
  9
$CELTYPE
  6
BYLAYER
  9
$CECOLOR
 62
     7
  9
$DIMSCALE
 40
2.0
  9
$DIMASZ
 40
3.5
  9
$DIMEXO
 40
0.0625
  9
$DIMDLI
 40
0.38
  9
$DIMRND
 40
0.0
  9
$DIMDLE
 40
0.0
  9
$DIMEXE
 40
0.18
  9
$DIMTP
 40
0.0
  9
$DIMTM
 40
0.0
  9
$DIMTXT
 40
3.5
  9
$DIMCEN
 40
0.09
  9
$DIMTSZ
 40
0.0
  9
$DIMTOL
 70
     0
  9
$DIMLIM
 70
     0
  9
$DIMTIH
 70
     1
  9
$DIMTOH
 70
     1
  9
$DIMSE1
 70
     0
  9
$DIMSE2
 70
     0
  9
$DIMTAD
 70
     1
  9
$DIMZIN
 70
     0
  9
$DIMBLK
  1

  9
$DIMASO
 70
     1
  9
$DIMSHO
 70
     1
  9
$DIMPOST
  1

  9
$DIMAPOST
  1

  9
$DIMALT
 70
     0
  9
$DIMALTD
 70
     2
  9
$DIMALTF
 40
25.4
  9
$DIMLFAC
 40
1.0
  9
$DIMTOFL
 70
     0
  9
$DIMTVP
 40
0.0
  9
$DIMTIX
 70
     0
  9
$DIMSOXD
 70
     0
  9
$DIMSAH
 70
     0
  9
$DIMBLK1
  1

  9
$DIMBLK2
  1

  9
$DIMSTYLE
  2
STANDARD
  9
$DIMCLRD
 70
     0
  9
$DIMCLRE
 70
     0
  9
$DIMCLRT
 70
     0
  9
$DIMTFAC
 40
1.0
  9
$DIMGAP
 40
0.09
  9
$LUNITS
 70
     2
  9
$LUPREC
 70
     2
  9
$AXISMODE
 70
     0
  9
$AXISUNIT
 10
0.0
 20
0.0
  9
$SKETCHINC
 40
0.1
  9
$FILLETRAD
 40
0.0
  9
$AUNITS
 70
     0
  9
$AUPREC
 70
     0
  9
$MENU
  1
acad
  9
$ELEVATION
 40
0.0
  9
$PELEVATION
 40
0.0
  9
$THICKNESS
 40
0.0
  9
$LIMCHECK
 70
     0
  9
$BLIPMODE
 70
     1
  9
$CHAMFERA
 40
0.0
  9
$CHAMFERB
 40
0.0
  9
$SKPOLY
 70
     0
  9
$TDCREATE
 40
0.000000000
  9
$TDUPDATE
 40
0.000000000
  9
$TDINDWG
 40
0.0000000000
  9
$TDUSRTIMER
 40
0.0000000000
  9
$USRTIMER
 70
     1
  9
$ANGBASE
 50
0.0
  9
$ANGDIR
 70
     0
  9
$PDMODE
 70
     0
  9
$PDSIZE
 40
0.0
  9
$PLINEWID
 40
0.0
  9
$COORDS
 70
     0
  9
$SPLFRAME
 70
     0
  9
$SPLINETYPE
 70
     6
  9
$SPLINESEGS
 70
     8
  9
$ATTDIA
 70
     0
  9
$ATTREQ
 70
     1
  9
$HANDLING
 70
     1
  9
$HANDSEED
  5
C8
  9
$SURFTAB1
 70
     6
  9
$SURFTAB2
 70
     6
  9
$SURFTYPE
 70
     6
  9
$SURFU
 70
     6
  9
$SURFV
 70
     6
  9
$UCSNAME
  2

  9
$UCSORG
 10
0.0
 20
0.0
 30
0.0
  9
$UCSXDIR
 10
1.0
 20
0.0
 30
0.0
  9
$UCSYDIR
 10
0.0
 20
1.0
 30
0.0
  9
$PUCSNAME
  2

  9
$PUCSORG
 10
0.0
 20
0.0
 30
0.0
  9
$PUCSXDIR
 10
1.0
 20
0.0
 30
0.0
  9
$PUCSYDIR
 10
0.0
 20
1.0
 30
0.0
  9
$USERI1
 70
     0
  9
$USERI2
 70
     0
  9
$USERI3
 70
     0
  9
$USERI4
 70
     0
  9
$USERI5
 70
     0
  9
$USERR1
 40
0.0
  9
$USERR2
 40
0.0
  9
$USERR3
 40
0.0
  9
$USERR4
 40
0.0
  9
$USERR5
 40
0.0
  9
$WORLDVIEW
 70
     1
  9
$SHADEDGE
 70
     3
  9
$SHADEDIF
 70
    70
  9
$TILEMODE
 70
     1
  9
$MAXACTVP
 70
    16
  9
$PINSBASE
 10
0.0
 20
0.0
 30
0.0
  9
$PLIMCHECK
 70
     0
  9
$PEXTMIN
 10
1.000000E+20
 20
1.000000E+20
 30
1.000000E+20
  9
$PEXTMAX
 10
-1.000000E+20
 20
-1.000000E+20
 30
-1.000000E+20
  9
$PLIMMIN
 10
0.0
 20
0.0
  9
$PLIMMAX
 10
840.0
 20
594.0
  9
$UNITMODE
 70
     0
  9
$VISRETAIN
 70
     0
  9
$PLINEGEN
 70
     1
  9
$PSLTSCALE
 70
     0
  9
$TREEDEPTH
 70
  3020
  9
$DWGCODEPAGE
  3
dos850
  0
ENDSEC
  0
SECTION
  2
TABLES
  0
TABLE
  2
VPORT
 70
     1
  0
VPORT
  2
*ACTIVE
 70
     0
 10
0.0
 20
0.0
 11
1.0
 21
1.0
 12
420.0
 22
297.0
 13
0.0
 23
0.0
 14
1.0
 24
1.0
 15
0.0
 25
0.0
 16
0.0
 26
0.0
 36
1.0
 17
0.0
 27
0.0
 37
0.0
 40
594.0
 41
1.604229
 42
50.0
 43
0.0
 44
0.0
 50
0.0
 51
0.0
 71
     0
 72
   100
 73
     1
 74
     1
 75
     0
 76
     0
 77
     0
 78
     0
  0
ENDTAB
  0
TABLE
  2
LTYPE
 70
     4
  0
LTYPE
  2
CONTINUOUS
 70
    64
  3
Solid line
 72
    65
 73
     0
 40
0.0
  0
LTYPE
  2
DASHDOT
 70
    64
  3
__ . __ . __ . __ . __
 72
    65
 73
     4
 40
7.5
 49
5.0
 49
-1.25
 49
0.0
 49
-1.25
  0
LTYPE
  2
CENTER
 70
    64
  3
__ . __ . __ . __ . __
 72
    65
 73
     4
 40
7.5
 49
5.0
 49
-1.25
 49
0.0
 49
-1.25
  0
LTYPE
  2
DASHED
 70
    64
  3
__ __ __ __ __
 72
    65
 73
     2
 40
6.25
 49
5.0
 49
-1.25
  0
ENDTAB
  0
TABLE
  2
LAYER
 70
    10
  0
LAYER
  2
0
 70
     0
 62
     7
  6
CONTINUOUS
  0
LAYER
  2
LC-INFO-1-2-MM-A3-0
 70
     1
 62
    -1
  6
CONTINUOUS
  0
LAYER
  2
LC-002-031-----0
 70
     0
 62
     1
  6
CONTINUOUS
  0
LAYER
  2
LC-006-003-MTH-0
 70
     0
 62
     2
  6
CONTINUOUS
  0
LAYER
  2
LC-007-003-MTG-0
 70
     0
 62
     2
  6
CONTINUOUS
  0
LAYER
  2
LC-005-003-----0
 70
     0
 62
     2
  6
CONTINUOUS
  0
LAYER
  2
LC-001-000-----0
 70
     0
 62
     7
  6
CONTINUOUS
  0
LAYER
  2
LC-003-002-----0
 70
     0
 62
     1
  6
CONTINUOUS
  0
LAYER
  2
LC-004-030-----0
 70
     0
 62
     2
  6
CENTER
  0
LAYER
  2
LC-000
 70
     0
 62
     7
  6
CONTINUOUS
  0
ENDTAB
  0
TABLE
  2
STYLE
 70
     4
  0
STYLE
  2
STANDARD
 70
     0
 40
0.0
 41
1.0
 50
0.0
 71
     0
 42
0.0
  3
txt
  4

  0
STYLE
  2
LC-STANDARD
 70
    64
 40
0.0
 41
1.0
 50
0.0
 71
     0
 42
3.5
  3
MONOTXT
  4

  0
STYLE
  2
LC-TXTSTYLE-150-400-0-0-D2
 70
    64
 40
0.0
 41
1.0
 50
15.0
 71
     0
 42
3.5
  3
MONOTXT
  4

  0
STYLE
  2
LC-TXTSTYLE-150-400-0-0-D3
 70
    64
 40
0.0
 41
1.0
 50
15.0
 71
     0
 42
3.5
  3
LC-STANDARD
  4

  0
ENDTAB
  0
TABLE
  2
VIEW
 70
     0
  0
ENDTAB
  0
TABLE
  2
UCS
 70
     0
  0
ENDTAB
  0
TABLE
  2
APPID
 70
     1
  0
APPID
  2
ACAD
 70
     0
  0
ENDTAB
  0
TABLE
  2
DIMSTYLE
 70
     3
  0
DIMSTYLE
  2
STANDARD
 70
     0
  3

  4

  5

  6

  7

 40
1.0
 41
0.18
 42
0.0625
 43
0.38
 44
0.18
 45
0.0
 46
0.0
 47
0.0
 48
0.0
 71
     0
 72
     0
 73
     1
 74
     1
 75
     0
 76
     0
 77
     0
 78
     0
140
0.18
141
0.09
142
0.0
143
25.4
144
1.0
145
0.0
146
1.0
147
0.09
170
     0
171
     2
172
     0
173
     0
174
     0
175
     0
176
     0
177
     0
178
     0
  0
DIMSTYLE
  2
LC-STANDARD
 70
     0
  3

  4

  5

  6

  7

 40
1.0
 41
3.5
 42
0.0
 43
7.5
 44
1.8
 45
0.0
 46
0.0
 47
0.0
 48
0.0
 71
     0
 72
     0
 73
     0
 74
     0
 75
     0
 76
     0
 77
     1
 78
     8
140
3.5
141
0.0
142
0.0
143
25.4
144
1.0
145
0.0
146
0.71
147
1.5
170
     0
171
     2
172
     1
173
     0
174
     0
175
     0
176
     0
177
     0
178
     3
  0
DIMSTYLE
  2
LC-DIM-L-0090-02-02
 70
     0
  3

  4

  5

  6

  7

 40
2.0
 41
3.5
 42
0.0
 43
7.5
 44
1.8
 45
0.0
 46
0.0
 47
0.0
 48
0.0
 71
     0
 72
     0
 73
     0
 74
     0
 75
     0
 76
     0
 77
     1
 78
     8
140
9.0
141
0.0
142
0.0
143
25.4
144
1.0
145
0.0
146
0.71
147
1.5
170
     0
171
     2
172
     0
173
     0
174
     0
175
     0
176
     2
177
     2
178
     6
  0
ENDTAB
  0
ENDSEC
  0
SECTION
  2
BLOCKS
  0
BLOCK
  8
0
  5
23
  2
BLK1
 70
    64
 10
0.0
 20
0.0
 30
0.0
  3
BLK1
  0
ENDBLK
  8
0
  5
24
  0
BLOCK
  8
0
  5
26
  2
BLK2
 70
    64
 10
0.0
 20
0.0
 30
0.0
  3
BLK2
  0
ENDBLK
  8
0
  5
27
  0
BLOCK
  8
0
  5
29
  2
BLK3
 70
    64
 10
0.0
 20
0.0
 30
0.0
  3
BLK3
  0
ENDBLK
  8
0
  5
2A
  0
BLOCK
  8
0
  5
2C
  2
BLK4
 70
    64
 10
0.0
 20
0.0
 30
0.0
  3
BLK4
  0
ENDBLK
  8
0
  5
2D
  0
BLOCK
  8
0
  5
2F
  2
*X4
 70
    65
 10
358.329176
 20
333.169533
 30
0.0
  3
*X4
  0
LINE
  8
LC-002-031-----0
  6
CONTINUOUS
 62
     2
  5
31
 10
358.329177
 20
337.46391
 30
0.0
 11
361.726367
 21
334.066724
 31
0.0
  0
LINE
  8
LC-002-031-----0
  6
CONTINUOUS
 62
     2
  5
32
 10
358.329179
 20
340.292333
 30
0.0
 11
363.140581
 21
335.480937
 31
0.0
  0
LINE
  8
LC-002-031-----0
  6
CONTINUOUS
 62
     2
  5
33
 10
358.329181
 20
343.120757
 30
0.0
 11
358.82918
 21
342.620758
 31
0.0
  0
LINE
  8
LC-002-031-----0
  6
CONTINUOUS
 62
     2
  5
34
 10
360.780408
 20
340.669533
 30
0.0
 11
364.554796
 21
336.89515
 31
0.0
  0
LINE
  8
LC-002-031-----0
  6
CONTINUOUS
 62
     2
  5
35
 10
358.969006
 20
345.309358
 30
0.0
 11
360.608833
 21
343.669533
 31
0.0
  0
LINE
  8
LC-002-031-----0
  6
CONTINUOUS
 62
     2
  5
36
 10
363.608838
 20
340.669531
 30
0.0
 11
365.829177
 21
338.449195
 31
0.0
  0
LINE
  8
LC-002-031-----0
  6
CONTINUOUS
 62
     2
  5
37
 10
360.38322
 20
346.72357
 30
0.0
 11
363.437263
 21
343.669531
 31
0.0
  0
LINE
  8
LC-002-031-----0
  6
CONTINUOUS
 62
     2
  5
38
 10
361.797435
 20
348.137783
 30
0.0
 11
365.87828
 21
344.056943
 31
0.0
  0
LINE
  8
LC-002-031-----0
  6
CONTINUOUS
 62
     2
  5
39
 10
364.594116
 20
348.16953
 30
0.0
 11
366.654119
 21
346.10953
 31
0.0
  0
LINE
  8
LC-002-031-----0
  6
CONTINUOUS
 62
     2
  5
3A
 10
367.422547
 20
348.169528
 30
0.0
 11
368.009207
 21
347.582869
 31
0.0
  0
ENDBLK
  8
0
  5
3B
  0
BLOCK
  8
0
  5
3D
  2
*D5
 70
    65
 10
0.0
 20
0.0
 30
0.0
  3
*D5
  0
LINE
  8
LC-006-003-MTH-0
  6
CONTINUOUS
  5
3F
 10
279.674136
 20
348.169354
 30
0.0
 11
279.674095
 21
370.800502
 31
0.0
  0
LINE
  8
LC-006-003-MTH-0
  6
CONTINUOUS
  5
40
 10
368.983985
 20
348.169515
 30
0.0
 11
368.983945
 21
370.800663
 31
0.0
  0
LINE
  8
LC-007-003-MTG-0
  6
CONTINUOUS
  5
42
 10
279.674115
 20
360.000502
 30
0.0
 11
368.983964
 21
360.000663
 31
0.0
  0
LINE
  8
LC-005-003-----0
  6
CONTINUOUS
  5
44
 10
297.520118
 20
362.350006
 30
0.0
 11
279.674115
 21
360.000502
 31
0.0
  0
LINE
  8
LC-005-003-----0
  6
CONTINUOUS
  5
45
 10
279.674115
 20
360.000502
 30
0.0
 11
297.520126
 21
357.651063
 31
0.0
  0
LINE
  8
LC-005-003-----0
  6
CONTINUOUS
  5
46
 10
297.520126
 20
357.651063
 30
0.0
 11
297.520118
 21
362.350006
 31
0.0
  0
LINE
  8
LC-005-003-----0
  6
CONTINUOUS
  5
47
 10
297.560157
 20
361.739143
 30
0.0
 11
284.354115
 21
360.000511
 31
0.0
  0
LINE
  8
LC-005-003-----0
  6
CONTINUOUS
  5
48
 10
284.354115
 20
360.000511
 30
0.0
 11
297.560163
 21
358.261926
 31
0.0
  0
LINE
  8
LC-005-003-----0
  6
CONTINUOUS
  5
49
 10
297.600196
 20
361.128281
 30
0.0
 11
289.034115
 21
360.000519
 31
0.0
  0
LINE
  8
LC-005-003-----0
  6
CONTINUOUS
  5
4A
 10
289.034115
 20
360.000519
 30
0.0
 11
297.6002
 21
358.872788
 31
0.0
  0
LINE
  8
LC-005-003-----0
  6
CONTINUOUS
  5
4B
 10
297.640235
 20
360.517418
 30
0.0
 11
293.714115
 21
360.000528
 31
0.0
  0
LINE
  8
LC-005-003-----0
  6
CONTINUOUS
  5
4C
 10
293.714115
 20
360.000528
 30
0.0
 11
297.640237
 21
359.483651
 31
0.0
  0
LINE
  8
LC-005-003-----0
  6
CONTINUOUS
  5
4D
 10
351.137961
 20
357.651159
 30
0.0
 11
368.983964
 21
360.000663
 31
0.0
  0
LINE
  8
LC-005-003-----0
  6
CONTINUOUS
  5
4E
 10
368.983964
 20
360.000663
 30
0.0
 11
351.137952
 21
362.350102
 31
0.0
  0
LINE
  8
LC-005-003-----0
  6
CONTINUOUS
  5
4F
 10
351.137952
 20
362.350102
 30
0.0
 11
351.137961
 21
357.651159
 31
0.0
  0
LINE
  8
LC-005-003-----0
  6
CONTINUOUS
  5
50
 10
351.097922
 20
358.262022
 30
0.0
 11
364.303964
 21
360.000654
 31
0.0
  0
LINE
  8
LC-005-003-----0
  6
CONTINUOUS
  5
51
 10
364.303964
 20
360.000654
 30
0.0
 11
351.097915
 21
361.73924
 31
0.0
  0
LINE
  8
LC-005-003-----0
  6
CONTINUOUS
  5
52
 10
351.057882
 20
358.872884
 30
0.0
 11
359.623964
 21
360.000646
 31
0.0
  0
LINE
  8
LC-005-003-----0
  6
CONTINUOUS
  5
53
 10
359.623964
 20
360.000646
 30
0.0
 11
351.057878
 21
361.128377
 31
0.0
  0
LINE
  8
LC-005-003-----0
  6
CONTINUOUS
  5
54
 10
351.017843
 20
359.483747
 30
0.0
 11
354.943964
 21
360.000638
 31
0.0
  0
LINE
  8
LC-005-003-----0
  6
CONTINUOUS
  5
55
 10
354.943964
 20
360.000638
 30
0.0
 11
351.017841
 21
360.517514
 31
0.0
  0
TEXT
  8
LC-005-003-----0
  6
CONTINUOUS
 62
     6
  5
57
 10
309.903812
 20
370.432581
 30
0.0
 40
18.0
  1
Ø90
 41
0.9
 51
15.0
  7
LC-TXTSTYLE-150-400-0-0-D0
 72
     1
 11
327.124285
 21
370.432581
 31
0.0
  0
ENDBLK
  8
0
  5
58
  0
BLOCK
  8
0
  5
5A
  2
*D6
 70
    65
 10
0.0
 20
0.0
 30
0.0
  3
*D6
  0
LINE
  8
LC-006-003-MTH-0
  6
CONTINUOUS
  5
5B
 10
360.829174
 20
333.169354
 30
0.0
 11
406.8
 21
333.169354
 31
0.0
  0
LINE
  8
LC-006-003-MTH-0
  6
CONTINUOUS
  5
5C
 10
368.983985
 20
348.169515
 30
0.0
 11
406.8
 21
348.169515
 31
0.0
  0
LINE
  8
LC-005-003-----0
  6
CONTINUOUS
  5
5D
 10
398.349471
 20
315.323347
 30
0.0
 11
396.0
 21
333.169354
 31
0.0
  0
LINE
  8
LC-005-003-----0
  6
CONTINUOUS
  5
5E
 10
396.0
 20
333.169354
 30
0.0
 11
393.650529
 21
315.323347
 31
0.0
  0
LINE
  8
LC-005-003-----0
  6
CONTINUOUS
  5
5F
 10
393.650529
 20
315.323347
 30
0.0
 11
398.349471
 21
315.323347
 31
0.0
  0
LINE
  8
LC-005-003-----0
  6
CONTINUOUS
  5
60
 10
397.738609
 20
315.283309
 30
0.0
 11
396.0
 21
328.489354
 31
0.0
  0
LINE
  8
LC-005-003-----0
  6
CONTINUOUS
  5
61
 10
396.0
 20
328.489354
 30
0.0
 11
394.261391
 21
315.283309
 31
0.0
  0
LINE
  8
LC-005-003-----0
  6
CONTINUOUS
  5
62
 10
397.127746
 20
315.243271
 30
0.0
 11
396.0
 21
323.809354
 31
0.0
  0
LINE
  8
LC-005-003-----0
  6
CONTINUOUS
  5
63
 10
396.0
 20
323.809354
 30
0.0
 11
394.872254
 21
315.243271
 31
0.0
  0
LINE
  8
LC-005-003-----0
  6
CONTINUOUS
  5
64
 10
396.516884
 20
315.203232
 30
0.0
 11
396.0
 21
319.129354
 31
0.0
  0
LINE
  8
LC-005-003-----0
  6
CONTINUOUS
  5
65
 10
396.0
 20
319.129354
 30
0.0
 11
395.483116
 21
315.203232
 31
0.0
  0
LINE
  8
LC-005-003-----0
  6
CONTINUOUS
  5
66
 10
393.650529
 20
366.015522
 30
0.0
 11
396.0
 21
348.169515
 31
0.0
  0
LINE
  8
LC-005-003-----0
  6
CONTINUOUS
  5
67
 10
396.0
 20
348.169515
 30
0.0
 11
398.349471
 21
366.015522
 31
0.0
  0
LINE
  8
LC-005-003-----0
  6
CONTINUOUS
  5
68
 10
398.349471
 20
366.015522
 30
0.0
 11
393.650529
 21
366.015522
 31
0.0
  0
LINE
  8
LC-005-003-----0
  6
CONTINUOUS
  5
69
 10
394.261391
 20
366.05556
 30
0.0
 11
396.0
 21
352.849515
 31
0.0
  0
LINE
  8
LC-005-003-----0
  6
CONTINUOUS
  5
6A
 10
396.0
 20
352.849515
 30
0.0
 11
397.738609
 21
366.05556
 31
0.0
  0
LINE
  8
LC-005-003-----0
  6
CONTINUOUS
  5
6B
 10
394.872254
 20
366.095598
 30
0.0
 11
396.0
 21
357.529515
 31
0.0
  0
LINE
  8
LC-005-003-----0
  6
CONTINUOUS
  5
6C
 10
396.0
 20
357.529515
 30
0.0
 11
397.127746
 21
366.095598
 31
0.0
  0
LINE
  8
LC-005-003-----0
  6
CONTINUOUS
  5
6D
 10
395.483116
 20
366.135636
 30
0.0
 11
396.0
 21
362.209515
 31
0.0
  0
LINE
  8
LC-005-003-----0
  6
CONTINUOUS
  5
6E
 10
396.0
 20
362.209515
 30
0.0
 11
396.516884
 21
366.135636
 31
0.0
  0
LINE
  8
LC-007-003-MTG-0
  6
CONTINUOUS
  5
6F
 10
396.0
 20
307.969354
 30
0.0
 11
396.0
 21
406.172034
 31
0.0
  0
TEXT
  8
LC-005-003-----0
  6
CONTINUOUS
 62
     6
  5
70
 10
385.568001
 20
375.44476
 30
0.0
 40
18.0
  1
15
 50
90.0
 51
15.0
  7
LC-TXTSTYLE-150-400-0-0-D0
  0
ENDBLK
  8
0
  5
71
  0
BLOCK
  8
0
  5
73
  2
*D7
 70
    65
 10
0.0
 20
0.0
 30
0.0
  3
*D7
  0
LINE
  8
LC-006-003-MTH-0
  6
CONTINUOUS
  5
74
 10
290.328928
 20
336.669354
 30
0.0
 11
290.329085
 21
277.200769
 31
0.0
  0
LINE
  8
LC-006-003-MTH-0
  6
CONTINUOUS
  5
75
 10
358.329176
 20
336.669534
 30
0.0
 11
358.329334
 21
277.200949
 31
0.0
  0
LINE
  8
LC-007-003-MTG-0
  6
CONTINUOUS
  5
76
 10
290.329057
 20
288.000769
 30
0.0
 11
358.329305
 21
288.000949
 31
0.0
  0
LINE
  8
LC-005-003-----0
  6
CONTINUOUS
  5
77
 10
308.175058
 20
290.350288
 30
0.0
 11
290.329057
 21
288.000769
 31
0.0
  0
LINE
  8
LC-005-003-----0
  6
CONTINUOUS
  5
78
 10
290.329057
 20
288.000769
 30
0.0
 11
308.175071
 21
285.651345
 31
0.0
  0
LINE
  8
LC-005-003-----0
  6
CONTINUOUS
  5
79
 10
308.175071
 20
285.651345
 30
0.0
 11
308.175058
 21
290.350288
 31
0.0
  0
LINE
  8
LC-005-003-----0
  6
CONTINUOUS
  5
7A
 10
308.215098
 20
289.739426
 30
0.0
 11
295.009057
 21
288.000782
 31
0.0
  0
LINE
  8
LC-005-003-----0
  6
CONTINUOUS
  5
7B
 10
295.009057
 20
288.000782
 30
0.0
 11
308.215107
 21
286.262208
 31
0.0
  0
LINE
  8
LC-005-003-----0
  6
CONTINUOUS
  5
7C
 10
308.255137
 20
289.128563
 30
0.0
 11
299.689057
 21
288.000794
 31
0.0
  0
LINE
  8
LC-005-003-----0
  6
CONTINUOUS
  5
7D
 10
299.689057
 20
288.000794
 30
0.0
 11
308.255143
 21
286.87307
 31
0.0
  0
LINE
  8
LC-005-003-----0
  6
CONTINUOUS
  5
7E
 10
308.295177
 20
288.517701
 30
0.0
 11
304.369057
 21
288.000806
 31
0.0
  0
LINE
  8
LC-005-003-----0
  6
CONTINUOUS
  5
7F
 10
304.369057
 20
288.000806
 30
0.0
 11
308.29518
 21
287.483933
 31
0.0
  0
LINE
  8
LC-005-003-----0
  6
CONTINUOUS
  5
80
 10
340.483304
 20
285.651431
 30
0.0
 11
358.329305
 21
288.000949
 31
0.0
  0
LINE
  8
LC-005-003-----0
  6
CONTINUOUS
  5
81
 10
358.329305
 20
288.000949
 30
0.0
 11
340.483292
 21
290.350374
 31
0.0
  0
LINE
  8
LC-005-003-----0
  6
CONTINUOUS
  5
82
 10
340.483292
 20
290.350374
 30
0.0
 11
340.483304
 21
285.651431
 31
0.0
  0
LINE
  8
LC-005-003-----0
  6
CONTINUOUS
  5
83
 10
340.443264
 20
286.262293
 30
0.0
 11
353.649305
 21
288.000937
 31
0.0
  0
LINE
  8
LC-005-003-----0
  6
CONTINUOUS
  5
84
 10
353.649305
 20
288.000937
 30
0.0
 11
340.443255
 21
289.739511
 31
0.0
  0
LINE
  8
LC-005-003-----0
  6
CONTINUOUS
  5
85
 10
340.403225
 20
286.873156
 30
0.0
 11
348.969305
 21
288.000925
 31
0.0
  0
LINE
  8
LC-005-003-----0
  6
CONTINUOUS
  5
86
 10
348.969305
 20
288.000925
 30
0.0
 11
340.403219
 21
289.128648
 31
0.0
  0
LINE
  8
LC-005-003-----0
  6
CONTINUOUS
  5
87
 10
340.363185
 20
287.484018
 30
0.0
 11
344.289305
 21
288.000912
 31
0.0
  0
LINE
  8
LC-005-003-----0
  6
CONTINUOUS
  5
88
 10
344.289305
 20
288.000912
 30
0.0
 11
340.363182
 21
288.517786
 31
0.0
  0
TEXT
  8
LC-005-003-----0
  6
CONTINUOUS
 62
     6
  5
89
 10
309.903954
 20
298.432858
 30
0.0
 40
18.0
  1
Ø68
 51
15.0
  7
LC-TXTSTYLE-150-400-0-0-D0
 72
     1
 11
327.124427
 21
298.432858
 31
0.0
  0
ENDBLK
  8
0
  5
8A
  0
ENDSEC
  0
SECTION
  2
ENTITIES
  0
VIEWPORT
  8
LC-000
  5
C0
 67
     1
 68
     1
 10
420.0
 20
297.0
 30
0.0
 40
840.0
 41
594.0
 69
     1
1001
ACAD
1000
MVIEW
1002
{
1070
    16
1010
0.0
1020
0.0
1030
0.0
1010
0.0
1020
0.0
1030
1.0
1040
0.0
1040
594.0
1040
420.0
1040
297.0
1040
50.0
1040
0.0
1040
0.0
1070
     0
1070
   100
1070
     1
1070
     1
1070
     0
1070
     0
1070
     0
1070
     0
1040
0.0
1040
0.0
1040
0.0
1040
1.0
1040
1.0
1040
0.0
1040
0.0
1070
     0
1002
{
1002
}
1002
}
  0
VIEWPORT
  8
0
  5
C1
 67
     1
 68
     1
 10
0.0
 20
0.0
 30
0.0
 40
0.0
 41
0.0
 69
     1
1001
ACAD
1000
MVIEW
1002
{
1070
    16
1010
0.0
1020
0.0
1030
0.0
1010
0.0
1020
0.0
1030
1.0
1040
0.0
1040
594.0
1040
0.0
1040
0.0
1040
50.0
1040
0.0
1040
0.0
1070
     0
1070
   100
1070
     0
1070
     1
1070
     0
1070
     0
1070
     0
1070
     0
1040
0.0
1040
0.0
1040
0.0
1040
0.5
1040
0.5
1040
0.5
1040
0.5
1070
     0
1002
{
1002
}
1002
}
  0
INSERT
  8
0
  5
8C
  2
BLK1
 10
0.0
 20
0.0
 30
0.0
  0
INSERT
  8
0
  5
8D
  2
BLK2
 10
0.0
 20
0.0
 30
0.0
  0
INSERT
  8
0
  5
8E
  2
BLK3
 10
0.0
 20
0.0
 30
0.0
  0
INSERT
  8
0
  5
8F
  2
BLK4
 10
0.0
 20
0.0
 30
0.0
  0
INSERT
  8
0
  5
90
  2
*X4
 10
358.329176
 20
333.169533
 30
0.0
  0
DIMENSION
  8
0
  5
91
  2
*D5
 10
324.329039
 20
360.000583
 30
0.0
 11
324.329039
 21
360.000583
 31
0.0
 70
     1
  1
%%c90
 13
279.674136
 23
348.169354
 33
0.0
 14
368.983985
 24
348.169515
 34
0.0
  3
LC-DIM-L-0090-02-02
  0
DIMENSION
  8
0
  5
92
  2
*D6
 10
396.0
 20
340.669434
 30
0.0
 11
396.0
 21
340.669434
 31
0.0
 13
368.983985
 23
348.169515
 33
0.0
 14
360.829174
 24
333.169354
 34
0.0
 50
90.0
  3
LC-DIM-L-0090-02-02
  0
DIMENSION
  8
0
  5
93
  2
*D7
 10
324.329181
 20
288.000859
 30
0.0
 11
324.329181
 21
288.000859
 31
0.0
 70
     1
  1
%%c<>
 13
290.328928
 23
336.669354
 33
0.0
 14
358.329176
 24
336.669534
 34
0.0
  3
LC-DIM-L-0090-02-02
  0
LINE
  8
LC-002-031-----0
  6
CONTINUOUS
  5
94
 10
289.828928
 20
343.669354
 30
0.0
 11
282.828912
 21
343.669354
 31
0.0
  0
LINE
  8
LC-002-031-----0
  6
CONTINUOUS
  5
95
 10
282.828928
 20
340.669354
 30
0.0
 11
289.828928
 21
340.669354
 31
0.0
  0
LINE
  8
LC-002-031-----0
  6
CONTINUOUS
  5
96
 10
289.828928
 20
340.669354
 30
0.0
 11
289.828928
 21
343.669354
 31
0.0
  0
LINE
  8
LC-002-031-----0
  6
CONTINUOUS
  5
97
 10
282.828928
 20
338.169354
 30
0.0
 11
282.828928
 21
340.669354
 31
0.0
  0
ARC
  8
LC-002-031-----0
  6
CONTINUOUS
  5
98
 10
277.328928
 20
343.169354
 30
0.0
 40
5.522665
 50
5.194444
 51
64.871484
  0
LINE
  8
LC-002-031-----0
  6
CONTINUOUS
  5
99
 10
282.828928
 20
338.169354
 30
0.0
 11
287.828928
 21
333.169354
 31
0.0
  0
LINE
  8
LC-002-031-----0
  6
CONTINUOUS
  5
9A
 10
287.828928
 20
333.169354
 30
0.0
 11
290.328928
 21
336.669354
 31
0.0
  0
LINE
  8
LC-002-031-----0
  6
CONTINUOUS
  5
9B
 10
290.328928
 20
336.669354
 30
0.0
 11
290.328928
 21
343.669354
 31
0.0
  0
LINE
  8
LC-002-031-----0
  6
CONTINUOUS
  5
9C
 10
290.328928
 20
343.669354
 30
0.0
 11
290.328928
 21
344.669354
 31
0.0
  0
LINE
  8
LC-002-031-----0
  6
CONTINUOUS
  5
9D
 10
290.328928
 20
344.669354
 30
0.0
 11
286.828928
 21
348.169354
 31
0.0
  0
LINE
  8
LC-002-031-----0
  6
CONTINUOUS
  5
9E
 10
286.828928
 20
348.169354
 30
0.0
 11
279.674136
 21
348.169354
 31
0.0
  0
LINE
  8
LC-002-031-----0
  6
CONTINUOUS
  5
9F
 10
365.829179
 20
340.669529
 30
0.0
 11
358.829179
 21
340.669534
 31
0.0
  0
LINE
  8
LC-002-031-----0
  6
CONTINUOUS
  5
A0
 10
358.829179
 20
340.669534
 30
0.0
 11
358.829181
 21
343.669534
 31
0.0
  0
LINE
  8
LC-002-031-----0
  6
CONTINUOUS
  5
A1
 10
365.829177
 20
338.169529
 30
0.0
 11
365.829179
 21
340.669529
 31
0.0
  0
LINE
  8
LC-002-031-----0
  6
CONTINUOUS
  5
A2
 10
365.829177
 20
338.169529
 30
0.0
 11
360.829174
 21
333.169533
 31
0.0
  0
LINE
  8
LC-002-031-----0
  6
CONTINUOUS
  5
A3
 10
358.329176
 20
336.669534
 30
0.0
 11
358.329181
 21
343.669534
 31
0.0
  0
LINE
  8
LC-002-031-----0
  6
CONTINUOUS
  5
A4
 10
360.829174
 20
333.169533
 30
0.0
 11
358.329176
 21
336.669534
 31
0.0
  0
LINE
  8
LC-002-031-----0
  6
CONTINUOUS
  5
A5
 10
358.829181
 20
343.669534
 30
0.0
 11
365.829196
 21
343.669529
 31
0.0
  0
ARC
  8
LC-002-031-----0
  6
CONTINUOUS
  5
A6
 10
371.32918
 20
343.169526
 30
0.0
 40
5.522665
 50
115.12846
 51
174.805519
  0
LINE
  8
LC-002-031-----0
  6
CONTINUOUS
  5
A7
 10
358.329182
 20
344.669534
 30
0.0
 11
361.829184
 21
348.169532
 31
0.0
  0
LINE
  8
LC-002-031-----0
  6
CONTINUOUS
  5
A8
 10
358.329181
 20
343.669534
 30
0.0
 11
358.329182
 21
344.669534
 31
0.0
  0
LINE
  8
LC-002-031-----0
  6
CONTINUOUS
 62
     2
  5
A9
 10
282.604619
 20
340.669354
 30
0.0
 11
288.777136
 21
334.496845
 31
0.0
  0
LINE
  8
LC-002-031-----0
  6
CONTINUOUS
 62
     2
  5
AA
 10
285.433048
 20
340.669354
 30
0.0
 11
289.955647
 21
336.146761
 31
0.0
  0
LINE
  8
LC-002-031-----0
  6
CONTINUOUS
 62
     2
  5
AB
 10
280.761467
 20
348.169354
 30
0.0
 11
285.261473
 21
343.669354
 31
0.0
  0
LINE
  8
LC-002-031-----0
  6
CONTINUOUS
 62
     2
  5
AC
 10
288.261477
 20
340.669354
 30
0.0
 11
290.328928
 21
338.601906
 31
0.0
  0
LINE
  8
LC-002-031-----0
  6
CONTINUOUS
 62
     2
  5
AD
 10
283.589896
 20
348.169354
 30
0.0
 11
288.089902
 21
343.669354
 31
0.0
  0
LINE
  8
LC-003-002-----0
  6
CONTINUOUS
  5
AF
 10
290.328928
 20
344.669354
 30
0.0
 11
358.329181
 21
344.669354
 31
0.0
  0
LINE
  8
LC-003-002-----0
  6
CONTINUOUS
  5
B0
 10
290.328928
 20
336.669354
 30
0.0
 11
358.329176
 21
336.669354
 31
0.0
  0
LINE
  8
LC-003-002-----0
  6
CONTINUOUS
  5
B1
 10
287.828928
 20
333.169354
 30
0.0
 11
360.829174
 21
333.169354
 31
0.0
  0
LINE
  8
LC-004-030-----0
  6
DASHDOT
  5
B5
 10
324.328928
 20
354.669354
 30
0.0
 11
324.328928
 21
323.169354
 31
0.0
  0
LINE
  8
LC-003-002-----0
  6
CONTINUOUS
  5
B6
 10
279.674136
 20
348.169354
 30
0.0
 11
368.983985
 21
348.169515
 31
0.0
  0
LINE
  8
LC-003-002-----0
  6
DASHDOT
 62
     2
  5
B7
 10
324.328928
 20
253.7428
 30
0.0
 11
324.328928
 21
164.4332
 31
0.0
  0
LINE
  8
LC-003-002-----0
  6
DASHDOT
 62
     2
  5
B8
 10
279.674128
 20
209.088
 30
0.0
 11
368.983728
 21
209.088
 31
0.0
  0
CIRCLE
  8
LC-003-002-----0
  6
CONTINUOUS
  5
B9
 10
324.328928
 20
209.088
 30
0.0
 40
37.5
  0
CIRCLE
  8
LC-003-002-----0
  6
CONTINUOUS
  5
BA
 10
324.328928
 20
209.088
 30
0.0
 40
44.6548
  0
CIRCLE
  8
LC-003-002-----0
  6
DASHED
 62
     3
  5
BC
 10
324.328928
 20
209.088
 30
0.0
 40
41.5
  0
CIRCLE
  8
LC-003-002-----0
  6
CONTINUOUS
  5
BD
 10
324.328928
 20
209.088
 30
0.0
 40
34.0
  0
CIRCLE
  8
LC-003-002-----0
  6
DASHED
 62
     3
  5
BE
 10
324.328928
 20
209.088
 30
0.0
 40
34.5
  0
ENDSEC
  0
EOF
