  0
SECTION
  2
HEADER
  9
$ACADVER
  1
AC1009
  9
$INSBASE
 10
0.0
 20
0.0
 30
0.0
  9
$EXTMIN
 10
0.0
 20
0.0
 30
0.0
  9
$EXTMAX
 10
840.0
 20
594.0
 30
0.0
  9
$LIMMIN
 10
0.0
 20
0.0
  9
$LIMMAX
 10
840.0
 20
594.0
  9
$ORTHOMODE
 70
     0
  9
$REGENMODE
 70
     1
  9
$FILLMODE
 70
     1
  9
$QTEXTMODE
 70
     0
  9
$MIRRTEXT
 70
     1
  9
$DRAGMODE
 70
     2
  9
$LTSCALE
 40
2.0
  9
$OSMODE
 70
     0
  9
$ATTMODE
 70
     1
  9
$TEXTSIZE
 40
0.2
  9
$TRACEWID
 40
0.05
  9
$TEXTSTYLE
  7
STANDARD
  9
$CLAYER
  8
0
  9
$CELTYPE
  6
BYLAYER
  9
$CECOLOR
 62
     7
  9
$DIMSCALE
 40
2.0
  9
$DIMASZ
 40
3.5
  9
$DIMEXO
 40
0.0625
  9
$DIMDLI
 40
0.38
  9
$DIMRND
 40
0.0
  9
$DIMDLE
 40
0.0
  9
$DIMEXE
 40
0.18
  9
$DIMTP
 40
0.0
  9
$DIMTM
 40
0.0
  9
$DIMTXT
 40
3.5
  9
$DIMCEN
 40
0.09
  9
$DIMTSZ
 40
0.0
  9
$DIMTOL
 70
     0
  9
$DIMLIM
 70
     0
  9
$DIMTIH
 70
     1
  9
$DIMTOH
 70
     1
  9
$DIMSE1
 70
     0
  9
$DIMSE2
 70
     0
  9
$DIMTAD
 70
     1
  9
$DIMZIN
 70
     0
  9
$DIMBLK
  1

  9
$DIMASO
 70
     1
  9
$DIMSHO
 70
     1
  9
$DIMPOST
  1

  9
$DIMAPOST
  1

  9
$DIMALT
 70
     0
  9
$DIMALTD
 70
     2
  9
$DIMALTF
 40
25.4
  9
$DIMLFAC
 40
1.0
  9
$DIMTOFL
 70
     0
  9
$DIMTVP
 40
0.0
  9
$DIMTIX
 70
     0
  9
$DIMSOXD
 70
     0
  9
$DIMSAH
 70
     0
  9
$DIMBLK1
  1

  9
$DIMBLK2
  1

  9
$DIMSTYLE
  2
STANDARD
  9
$DIMCLRD
 70
     0
  9
$DIMCLRE
 70
     0
  9
$DIMCLRT
 70
     0
  9
$DIMTFAC
 40
1.0
  9
$DIMGAP
 40
0.09
  9
$LUNITS
 70
     2
  9
$LUPREC
 70
     2
  9
$AXISMODE
 70
     0
  9
$AXISUNIT
 10
0.0
 20
0.0
  9
$SKETCHINC
 40
0.1
  9
$FILLETRAD
 40
0.0
  9
$AUNITS
 70
     0
  9
$AUPREC
 70
     0
  9
$MENU
  1
acad
  9
$ELEVATION
 40
0.0
  9
$PELEVATION
 40
0.0
  9
$THICKNESS
 40
0.0
  9
$LIMCHECK
 70
     0
  9
$BLIPMODE
 70
     1
  9
$CHAMFERA
 40
0.0
  9
$CHAMFERB
 40
0.0
  9
$SKPOLY
 70
     0
  9
$TDCREATE
 40
0.000000000
  9
$TDUPDATE
 40
0.000000000
  9
$TDINDWG
 40
0.0000000000
  9
$TDUSRTIMER
 40
0.0000000000
  9
$USRTIMER
 70
     1
  9
$ANGBASE
 50
0.0
  9
$ANGDIR
 70
     0
  9
$PDMODE
 70
     0
  9
$PDSIZE
 40
0.0
  9
$PLINEWID
 40
0.0
  9
$COORDS
 70
     0
  9
$SPLFRAME
 70
     0
  9
$SPLINETYPE
 70
     6
  9
$SPLINESEGS
 70
     8
  9
$ATTDIA
 70
     0
  9
$ATTREQ
 70
     1
  9
$HANDLING
 70
     1
  9
$HANDSEED
  5
6B6
  9
$SURFTAB1
 70
     6
  9
$SURFTAB2
 70
     6
  9
$SURFTYPE
 70
     6
  9
$SURFU
 70
     6
  9
$SURFV
 70
     6
  9
$UCSNAME
  2

  9
$UCSORG
 10
0.0
 20
0.0
 30
0.0
  9
$UCSXDIR
 10
1.0
 20
0.0
 30
0.0
  9
$UCSYDIR
 10
0.0
 20
1.0
 30
0.0
  9
$PUCSNAME
  2

  9
$PUCSORG
 10
0.0
 20
0.0
 30
0.0
  9
$PUCSXDIR
 10
1.0
 20
0.0
 30
0.0
  9
$PUCSYDIR
 10
0.0
 20
1.0
 30
0.0
  9
$USERI1
 70
     0
  9
$USERI2
 70
     0
  9
$USERI3
 70
     0
  9
$USERI4
 70
     0
  9
$USERI5
 70
     0
  9
$USERR1
 40
0.0
  9
$USERR2
 40
0.0
  9
$USERR3
 40
0.0
  9
$USERR4
 40
0.0
  9
$USERR5
 40
0.0
  9
$WORLDVIEW
 70
     1
  9
$SHADEDGE
 70
     3
  9
$SHADEDIF
 70
    70
  9
$TILEMODE
 70
     1
  9
$MAXACTVP
 70
    16
  9
$PINSBASE
 10
0.0
 20
0.0
 30
0.0
  9
$PLIMCHECK
 70
     0
  9
$PEXTMIN
 10
1.000000E+20
 20
1.000000E+20
 30
1.000000E+20
  9
$PEXTMAX
 10
-1.000000E+20
 20
-1.000000E+20
 30
-1.000000E+20
  9
$PLIMMIN
 10
0.0
 20
0.0
  9
$PLIMMAX
 10
840.0
 20
594.0
  9
$UNITMODE
 70
     0
  9
$VISRETAIN
 70
     0
  9
$PLINEGEN
 70
     1
  9
$PSLTSCALE
 70
     0
  9
$TREEDEPTH
 70
  3020
  9
$DWGCODEPAGE
  3
dos850
  0
ENDSEC
  0
SECTION
  2
TABLES
  0
TABLE
  2
VPORT
 70
     1
  0
VPORT
  2
*ACTIVE
 70
     0
 10
0.0
 20
0.0
 11
1.0
 21
1.0
 12
420.0
 22
297.0
 13
0.0
 23
0.0
 14
1.0
 24
1.0
 15
0.0
 25
0.0
 16
0.0
 26
0.0
 36
1.0
 17
0.0
 27
0.0
 37
0.0
 40
594.0
 41
1.604229
 42
50.0
 43
0.0
 44
0.0
 50
0.0
 51
0.0
 71
     0
 72
   100
 73
     1
 74
     1
 75
     0
 76
     0
 77
     0
 78
     0
  0
ENDTAB
  0
TABLE
  2
LTYPE
 70
     3
  0
LTYPE
  2
CONTINUOUS
 70
    64
  3
Solid line
 72
    65
 73
     0
 40
0.0
  0
LTYPE
  2
DASHDOT
 70
    64
  3
__ . __ . __ . __ . __
 72
    65
 73
     4
 40
7.5
 49
5.0
 49
-1.25
 49
0.0
 49
-1.25
  0
LTYPE
  2
CENTER
 70
    64
  3
__ . __ . __ . __ . __
 72
    65
 73
     4
 40
7.5
 49
5.0
 49
-1.25
 49
0.0
 49
-1.25
  0
ENDTAB
  0
TABLE
  2
LAYER
 70
    12
  0
LAYER
  2
0
 70
     0
 62
     7
  6
CONTINUOUS
  0
LAYER
  2
LC-INFO-1-2-MM-A3-0
 70
     1
 62
    -1
  6
CONTINUOUS
  0
LAYER
  2
LC-004-003-MTH-0
 70
     0
 62
     2
  6
CONTINUOUS
  0
LAYER
  2
LC-005-003-MTG-0
 70
     0
 62
     2
  6
CONTINUOUS
  0
LAYER
  2
LC-003-003-----0
 70
     0
 62
     2
  6
CONTINUOUS
  0
LAYER
  2
LC-009-005-----0
 70
     0
 62
     2
  6
CONTINUOUS
  0
LAYER
  2
LC-008-000-----0
 70
     0
 62
     7
  6
CONTINUOUS
  0
LAYER
  2
LC-001-002-----0
 70
     0
 62
     1
  6
CONTINUOUS
  0
LAYER
  2
LC-002-006-MLN-0
 70
     0
 62
     2
  6
CENTER
  0
LAYER
  2
LC-006-002-RND-0
 70
     0
 62
     1
  6
CONTINUOUS
  0
LAYER
  2
LC-007-004-----0
 70
     0
 62
     1
  6
CONTINUOUS
  0
LAYER
  2
LC-000
 70
     0
 62
     7
  6
CONTINUOUS
  0
ENDTAB
  0
TABLE
  2
STYLE
 70
     4
  0
STYLE
  2
STANDARD
 70
     0
 40
0.0
 41
1.0
 50
0.0
 71
     0
 42
0.0
  3
txt
  4

  0
STYLE
  2
LC-STANDARD
 70
    64
 40
0.0
 41
1.0
 50
0.0
 71
     0
 42
3.5
  3
MONOTXT
  4

  0
STYLE
  2
LC-TXTSTYLE-150-400-0-0-D2
 70
    64
 40
0.0
 41
1.0
 50
15.0
 71
     0
 42
3.5
  3
MONOTXT
  4

  0
STYLE
  2
LC-TXTSTYLE-150-400-0-0-D3
 70
    64
 40
0.0
 41
1.0
 50
15.0
 71
     0
 42
3.5
  3
LC-STANDARD
  4

  0
ENDTAB
  0
TABLE
  2
VIEW
 70
     0
  0
ENDTAB
  0
TABLE
  2
UCS
 70
     0
  0
ENDTAB
  0
TABLE
  2
APPID
 70
     1
  0
APPID
  2
ACAD
 70
     0
  0
ENDTAB
  0
TABLE
  2
DIMSTYLE
 70
     3
  0
DIMSTYLE
  2
STANDARD
 70
     0
  3

  4

  5

  6

  7

 40
1.0
 41
0.18
 42
0.0625
 43
0.38
 44
0.18
 45
0.0
 46
0.0
 47
0.0
 48
0.0
 71
     0
 72
     0
 73
     1
 74
     1
 75
     0
 76
     0
 77
     0
 78
     0
140
0.18
141
0.09
142
0.0
143
25.4
144
1.0
145
0.0
146
1.0
147
0.09
170
     0
171
     2
172
     0
173
     0
174
     0
175
     0
176
     0
177
     0
178
     0
  0
DIMSTYLE
  2
LC-STANDARD
 70
     0
  3

  4

  5

  6

  7

 40
1.0
 41
3.5
 42
0.0
 43
7.5
 44
1.8
 45
0.0
 46
0.0
 47
0.0
 48
0.0
 71
     0
 72
     0
 73
     0
 74
     0
 75
     0
 76
     0
 77
     1
 78
     8
140
3.5
141
0.0
142
0.0
143
25.4
144
1.0
145
0.0
146
0.71
147
1.5
170
     0
171
     2
172
     1
173
     0
174
     0
175
     0
176
     0
177
     0
178
     3
  0
DIMSTYLE
  2
LC-DIM-L-0090-02-02
 70
     0
  3

  4

  5

  6

  7

 40
2.0
 41
3.5
 42
0.0
 43
7.5
 44
1.8
 45
0.0
 46
0.0
 47
0.0
 48
0.0
 71
     0
 72
     0
 73
     0
 74
     0
 75
     0
 76
     0
 77
     1
 78
     8
140
9.0
141
0.0
142
0.0
143
25.4
144
1.0
145
0.0
146
0.71
147
1.5
170
     0
171
     2
172
     0
173
     0
174
     0
175
     0
176
     2
177
     2
178
     6
  0
ENDTAB
  0
ENDSEC
  0
SECTION
  2
BLOCKS
  0
BLOCK
  8
0
  5
23
  2
*D0
 70
    65
 10
0.0
 20
0.0
 30
0.0
  3
*D0
  0
LINE
  8
LC-004-003-MTH-0
  6
CONTINUOUS
  5
25
 10
434.735981
 20
128.166631
 30
0.0
 11
490.8
 21
128.166631
 31
0.0
  0
LINE
  8
LC-004-003-MTH-0
  6
CONTINUOUS
  5
26
 10
476.236503
 20
328.167319
 30
0.0
 11
490.8
 21
328.167319
 31
0.0
  0
LINE
  8
LC-005-003-MTG-0
  6
CONTINUOUS
  5
28
 10
480.0
 20
128.166631
 30
0.0
 11
480.0
 21
328.167319
 31
0.0
  0
LINE
  8
LC-003-003-----0
  6
CONTINUOUS
  5
2A
 10
477.650529
 20
146.012639
 30
0.0
 11
480.0
 21
128.166631
 31
0.0
  0
LINE
  8
LC-003-003-----0
  6
CONTINUOUS
  5
2B
 10
480.0
 20
128.166631
 30
0.0
 11
482.349471
 21
146.012639
 31
0.0
  0
LINE
  8
LC-003-003-----0
  6
CONTINUOUS
  5
2C
 10
482.349471
 20
146.012639
 30
0.0
 11
477.650529
 21
146.012639
 31
0.0
  0
LINE
  8
LC-003-003-----0
  6
CONTINUOUS
  5
2D
 10
478.261391
 20
146.052677
 30
0.0
 11
480.0
 21
132.846631
 31
0.0
  0
LINE
  8
LC-003-003-----0
  6
CONTINUOUS
  5
2E
 10
480.0
 20
132.846631
 30
0.0
 11
481.738609
 21
146.052677
 31
0.0
  0
LINE
  8
LC-003-003-----0
  6
CONTINUOUS
  5
2F
 10
478.872254
 20
146.092715
 30
0.0
 11
480.0
 21
137.526631
 31
0.0
  0
LINE
  8
LC-003-003-----0
  6
CONTINUOUS
  5
30
 10
480.0
 20
137.526631
 30
0.0
 11
481.127746
 21
146.092715
 31
0.0
  0
LINE
  8
LC-003-003-----0
  6
CONTINUOUS
  5
31
 10
479.483116
 20
146.132753
 30
0.0
 11
480.0
 21
142.206631
 31
0.0
  0
LINE
  8
LC-003-003-----0
  6
CONTINUOUS
  5
32
 10
480.0
 20
142.206631
 30
0.0
 11
480.516884
 21
146.132753
 31
0.0
  0
LINE
  8
LC-003-003-----0
  6
CONTINUOUS
  5
33
 10
482.349471
 20
310.321311
 30
0.0
 11
480.0
 21
328.167319
 31
0.0
  0
LINE
  8
LC-003-003-----0
  6
CONTINUOUS
  5
34
 10
480.0
 20
328.167319
 30
0.0
 11
477.650529
 21
310.321311
 31
0.0
  0
LINE
  8
LC-003-003-----0
  6
CONTINUOUS
  5
35
 10
477.650529
 20
310.321311
 30
0.0
 11
482.349471
 21
310.321311
 31
0.0
  0
LINE
  8
LC-003-003-----0
  6
CONTINUOUS
  5
36
 10
481.738609
 20
310.281273
 30
0.0
 11
480.0
 21
323.487319
 31
0.0
  0
LINE
  8
LC-003-003-----0
  6
CONTINUOUS
  5
37
 10
480.0
 20
323.487319
 30
0.0
 11
478.261391
 21
310.281273
 31
0.0
  0
LINE
  8
LC-003-003-----0
  6
CONTINUOUS
  5
38
 10
481.127746
 20
310.241235
 30
0.0
 11
480.0
 21
318.807319
 31
0.0
  0
LINE
  8
LC-003-003-----0
  6
CONTINUOUS
  5
39
 10
480.0
 20
318.807319
 30
0.0
 11
478.872254
 21
310.241235
 31
0.0
  0
LINE
  8
LC-003-003-----0
  6
CONTINUOUS
  5
3A
 10
480.516884
 20
310.201197
 30
0.0
 11
480.0
 21
314.127319
 31
0.0
  0
LINE
  8
LC-003-003-----0
  6
CONTINUOUS
  5
3B
 10
480.0
 20
314.127319
 30
0.0
 11
479.483116
 21
310.201197
 31
0.0
  0
TEXT
  8
LC-003-003-----0
  6
CONTINUOUS
 62
     6
  5
3D
 10
469.568001
 20
211.828362
 30
0.0
 40
18.0
  1
200
 50
90.0
 41
0.9
 51
15.0
  7
LC-TXTSTYLE-150-400-0-0-D0
 72
     1
 11
469.568001
 21
230.962221
 31
0.0
  0
ENDBLK
  8
0
  5
3E
  0
BLOCK
  8
0
  5
40
  2
*D1
 70
    65
 10
0.0
 20
0.0
 30
0.0
  3
*D1
  0
LINE
  8
LC-004-003-MTH-0
  6
CONTINUOUS
  5
41
 10
424.298159
 20
128.166631
 30
0.0
 11
528.8
 21
128.166631
 31
0.0
  0
LINE
  8
LC-004-003-MTH-0
  6
CONTINUOUS
  5
42
 10
515.235981
 20
344.643211
 30
0.0
 11
528.8
 21
344.643211
 31
0.0
  0
LINE
  8
LC-005-003-MTG-0
  6
CONTINUOUS
  5
43
 10
518.0
 20
128.166631
 30
0.0
 11
518.0
 21
344.643211
 31
0.0
  0
LINE
  8
LC-003-003-----0
  6
CONTINUOUS
  5
44
 10
515.650529
 20
146.012639
 30
0.0
 11
518.0
 21
128.166631
 31
0.0
  0
LINE
  8
LC-003-003-----0
  6
CONTINUOUS
  5
45
 10
518.0
 20
128.166631
 30
0.0
 11
520.349471
 21
146.012639
 31
0.0
  0
LINE
  8
LC-003-003-----0
  6
CONTINUOUS
  5
46
 10
520.349471
 20
146.012639
 30
0.0
 11
515.650529
 21
146.012639
 31
0.0
  0
LINE
  8
LC-003-003-----0
  6
CONTINUOUS
  5
47
 10
516.261391
 20
146.052677
 30
0.0
 11
518.0
 21
132.846631
 31
0.0
  0
LINE
  8
LC-003-003-----0
  6
CONTINUOUS
  5
48
 10
518.0
 20
132.846631
 30
0.0
 11
519.738609
 21
146.052677
 31
0.0
  0
LINE
  8
LC-003-003-----0
  6
CONTINUOUS
  5
49
 10
516.872254
 20
146.092715
 30
0.0
 11
518.0
 21
137.526631
 31
0.0
  0
LINE
  8
LC-003-003-----0
  6
CONTINUOUS
  5
4A
 10
518.0
 20
137.526631
 30
0.0
 11
519.127746
 21
146.092715
 31
0.0
  0
LINE
  8
LC-003-003-----0
  6
CONTINUOUS
  5
4B
 10
517.483116
 20
146.132753
 30
0.0
 11
518.0
 21
142.206631
 31
0.0
  0
LINE
  8
LC-003-003-----0
  6
CONTINUOUS
  5
4C
 10
518.0
 20
142.206631
 30
0.0
 11
518.516884
 21
146.132753
 31
0.0
  0
LINE
  8
LC-003-003-----0
  6
CONTINUOUS
  5
4D
 10
520.349471
 20
326.797203
 30
0.0
 11
518.0
 21
344.643211
 31
0.0
  0
LINE
  8
LC-003-003-----0
  6
CONTINUOUS
  5
4E
 10
518.0
 20
344.643211
 30
0.0
 11
515.650529
 21
326.797203
 31
0.0
  0
LINE
  8
LC-003-003-----0
  6
CONTINUOUS
  5
4F
 10
515.650529
 20
326.797203
 30
0.0
 11
520.349471
 21
326.797203
 31
0.0
  0
LINE
  8
LC-003-003-----0
  6
CONTINUOUS
  5
50
 10
519.738609
 20
326.757165
 30
0.0
 11
518.0
 21
339.963211
 31
0.0
  0
LINE
  8
LC-003-003-----0
  6
CONTINUOUS
  5
51
 10
518.0
 20
339.963211
 30
0.0
 11
516.261391
 21
326.757165
 31
0.0
  0
LINE
  8
LC-003-003-----0
  6
CONTINUOUS
  5
52
 10
519.127746
 20
326.717127
 30
0.0
 11
518.0
 21
335.283211
 31
0.0
  0
LINE
  8
LC-003-003-----0
  6
CONTINUOUS
  5
53
 10
518.0
 20
335.283211
 30
0.0
 11
516.872254
 21
326.717127
 31
0.0
  0
LINE
  8
LC-003-003-----0
  6
CONTINUOUS
  5
54
 10
518.516884
 20
326.677089
 30
0.0
 11
518.0
 21
330.603211
 31
0.0
  0
LINE
  8
LC-003-003-----0
  6
CONTINUOUS
  5
55
 10
518.0
 20
330.603211
 30
0.0
 11
517.483116
 21
326.677089
 31
0.0
  0
TEXT
  8
LC-003-003-----0
  6
CONTINUOUS
 62
     6
  5
56
 10
507.568001
 20
220.066308
 30
0.0
 40
18.0
  1
216
 50
90.0
 51
15.0
  7
LC-TXTSTYLE-150-400-0-0-D0
 72
     1
 11
507.568001
 21
239.200167
 31
0.0
  0
ENDBLK
  8
0
  5
57
  0
BLOCK
  8
0
  5
59
  2
BLK1
 70
    64
 10
0.0
 20
0.0
 30
0.0
  3
BLK1
  0
ENDBLK
  8
0
  5
5A
  0
BLOCK
  8
0
  5
5C
  2
*X3
 70
    65
 10
200.235981
 20
348.162313
 30
0.0
  3
*X3
  0
LINE
  8
LC-009-005-----0
  6
CONTINUOUS
  5
5E
 10
202.215473
 20
348.162313
 30
0.0
 11
202.485492
 21
348.432331
 31
0.0
  0
LINE
  8
LC-009-005-----0
  6
CONTINUOUS
  5
5F
 10
201.93263
 20
348.162313
 30
0.0
 11
202.485492
 21
348.715174
 31
0.0
  0
LINE
  8
LC-009-005-----0
  6
CONTINUOUS
  5
60
 10
201.649787
 20
348.162313
 30
0.0
 11
202.485492
 21
348.998017
 31
0.0
  0
LINE
  8
LC-009-005-----0
  6
CONTINUOUS
  5
61
 10
201.366945
 20
348.162313
 30
0.0
 11
202.485492
 21
349.280859
 31
0.0
  0
LINE
  8
LC-009-005-----0
  6
CONTINUOUS
  5
62
 10
201.084102
 20
348.162313
 30
0.0
 11
202.485492
 21
349.563702
 31
0.0
  0
LINE
  8
LC-009-005-----0
  6
CONTINUOUS
  5
63
 10
200.801259
 20
348.162313
 30
0.0
 11
202.485492
 21
349.846545
 31
0.0
  0
LINE
  8
LC-009-005-----0
  6
CONTINUOUS
  5
64
 10
200.518417
 20
348.162313
 30
0.0
 11
202.485492
 21
350.129387
 31
0.0
  0
LINE
  8
LC-009-005-----0
  6
CONTINUOUS
  5
65
 10
200.235981
 20
348.16272
 30
0.0
 11
202.485492
 21
350.41223
 31
0.0
  0
LINE
  8
LC-009-005-----0
  6
CONTINUOUS
  5
66
 10
200.235981
 20
348.445562
 30
0.0
 11
202.485492
 21
350.695073
 31
0.0
  0
LINE
  8
LC-009-005-----0
  6
CONTINUOUS
  5
67
 10
200.235981
 20
348.728405
 30
0.0
 11
202.485492
 21
350.977916
 31
0.0
  0
LINE
  8
LC-009-005-----0
  6
CONTINUOUS
  5
68
 10
200.235981
 20
349.011248
 30
0.0
 11
202.387046
 21
351.162313
 31
0.0
  0
LINE
  8
LC-009-005-----0
  6
CONTINUOUS
  5
69
 10
200.235981
 20
349.29409
 30
0.0
 11
202.104203
 21
351.162313
 31
0.0
  0
LINE
  8
LC-009-005-----0
  6
CONTINUOUS
  5
6A
 10
200.235981
 20
349.576933
 30
0.0
 11
201.82136
 21
351.162313
 31
0.0
  0
LINE
  8
LC-009-005-----0
  6
CONTINUOUS
  5
6B
 10
200.235981
 20
349.859776
 30
0.0
 11
201.538518
 21
351.162313
 31
0.0
  0
LINE
  8
LC-009-005-----0
  6
CONTINUOUS
  5
6C
 10
200.235981
 20
350.142619
 30
0.0
 11
201.255675
 21
351.162313
 31
0.0
  0
LINE
  8
LC-009-005-----0
  6
CONTINUOUS
  5
6D
 10
200.235981
 20
350.425461
 30
0.0
 11
200.972832
 21
351.162313
 31
0.0
  0
LINE
  8
LC-009-005-----0
  6
CONTINUOUS
  5
6E
 10
200.235981
 20
350.708304
 30
0.0
 11
200.689989
 21
351.162313
 31
0.0
  0
LINE
  8
LC-009-005-----0
  6
CONTINUOUS
  5
6F
 10
200.235981
 20
350.991147
 30
0.0
 11
200.407147
 21
351.162313
 31
0.0
  0
ENDBLK
  8
0
  5
70
  0
BLOCK
  8
0
  5
72
  2
*X4
 70
    65
 10
207.485492
 20
348.162313
 30
0.0
  3
*X4
  0
LINE
  8
LC-009-005-----0
  6
CONTINUOUS
  5
73
 10
212.397811
 20
348.162313
 30
0.0
 11
212.485492
 21
348.249994
 31
0.0
  0
LINE
  8
LC-009-005-----0
  6
CONTINUOUS
  5
74
 10
212.114968
 20
348.162313
 30
0.0
 11
212.485492
 21
348.532836
 31
0.0
  0
LINE
  8
LC-009-005-----0
  6
CONTINUOUS
  5
75
 10
211.832125
 20
348.162313
 30
0.0
 11
212.485492
 21
348.815679
 31
0.0
  0
LINE
  8
LC-009-005-----0
  6
CONTINUOUS
  5
76
 10
211.549282
 20
348.162313
 30
0.0
 11
212.485492
 21
349.098522
 31
0.0
  0
LINE
  8
LC-009-005-----0
  6
CONTINUOUS
  5
77
 10
211.26644
 20
348.162313
 30
0.0
 11
212.485492
 21
349.381364
 31
0.0
  0
LINE
  8
LC-009-005-----0
  6
CONTINUOUS
  5
78
 10
210.983597
 20
348.162313
 30
0.0
 11
212.485492
 21
349.664207
 31
0.0
  0
LINE
  8
LC-009-005-----0
  6
CONTINUOUS
  5
79
 10
210.700754
 20
348.162313
 30
0.0
 11
212.485492
 21
349.94705
 31
0.0
  0
LINE
  8
LC-009-005-----0
  6
CONTINUOUS
  5
7A
 10
210.417912
 20
348.162313
 30
0.0
 11
212.485492
 21
350.229892
 31
0.0
  0
LINE
  8
LC-009-005-----0
  6
CONTINUOUS
  5
7B
 10
210.135069
 20
348.162313
 30
0.0
 11
212.485492
 21
350.512735
 31
0.0
  0
LINE
  8
LC-009-005-----0
  6
CONTINUOUS
  5
7C
 10
209.852226
 20
348.162313
 30
0.0
 11
212.485492
 21
350.795578
 31
0.0
  0
LINE
  8
LC-009-005-----0
  6
CONTINUOUS
  5
7D
 10
209.569383
 20
348.162313
 30
0.0
 11
212.485492
 21
351.078421
 31
0.0
  0
LINE
  8
LC-009-005-----0
  6
CONTINUOUS
  5
7E
 10
209.286541
 20
348.162313
 30
0.0
 11
212.286541
 21
351.162313
 31
0.0
  0
LINE
  8
LC-009-005-----0
  6
CONTINUOUS
  5
7F
 10
209.003698
 20
348.162313
 30
0.0
 11
212.003698
 21
351.162313
 31
0.0
  0
LINE
  8
LC-009-005-----0
  6
CONTINUOUS
  5
80
 10
208.720855
 20
348.162313
 30
0.0
 11
211.720855
 21
351.162313
 31
0.0
  0
LINE
  8
LC-009-005-----0
  6
CONTINUOUS
  5
81
 10
208.438013
 20
348.162313
 30
0.0
 11
211.438013
 21
351.162313
 31
0.0
  0
LINE
  8
LC-009-005-----0
  6
CONTINUOUS
  5
82
 10
208.15517
 20
348.162313
 30
0.0
 11
211.15517
 21
351.162313
 31
0.0
  0
LINE
  8
LC-009-005-----0
  6
CONTINUOUS
  5
83
 10
207.872327
 20
348.162313
 30
0.0
 11
210.872327
 21
351.162313
 31
0.0
  0
LINE
  8
LC-009-005-----0
  6
CONTINUOUS
  5
84
 10
207.589484
 20
348.162313
 30
0.0
 11
210.589484
 21
351.162313
 31
0.0
  0
LINE
  8
LC-009-005-----0
  6
CONTINUOUS
  5
85
 10
207.485492
 20
348.341162
 30
0.0
 11
210.306642
 21
351.162313
 31
0.0
  0
LINE
  8
LC-009-005-----0
  6
CONTINUOUS
  5
86
 10
207.485492
 20
348.624005
 30
0.0
 11
210.023799
 21
351.162313
 31
0.0
  0
LINE
  8
LC-009-005-----0
  6
CONTINUOUS
  5
87
 10
207.485492
 20
348.906848
 30
0.0
 11
209.740956
 21
351.162313
 31
0.0
  0
LINE
  8
LC-009-005-----0
  6
CONTINUOUS
  5
88
 10
207.485492
 20
349.18969
 30
0.0
 11
209.458114
 21
351.162313
 31
0.0
  0
LINE
  8
LC-009-005-----0
  6
CONTINUOUS
  5
89
 10
207.485492
 20
349.472533
 30
0.0
 11
209.175271
 21
351.162313
 31
0.0
  0
LINE
  8
LC-009-005-----0
  6
CONTINUOUS
  5
8A
 10
207.485492
 20
349.755376
 30
0.0
 11
208.892428
 21
351.162313
 31
0.0
  0
LINE
  8
LC-009-005-----0
  6
CONTINUOUS
  5
8B
 10
207.485492
 20
350.038219
 30
0.0
 11
208.609585
 21
351.162313
 31
0.0
  0
LINE
  8
LC-009-005-----0
  6
CONTINUOUS
  5
8C
 10
207.485492
 20
350.321061
 30
0.0
 11
208.326743
 21
351.162313
 31
0.0
  0
LINE
  8
LC-009-005-----0
  6
CONTINUOUS
  5
8D
 10
207.485492
 20
350.603904
 30
0.0
 11
208.0439
 21
351.162313
 31
0.0
  0
LINE
  8
LC-009-005-----0
  6
CONTINUOUS
  5
8E
 10
207.485492
 20
350.886747
 30
0.0
 11
207.761057
 21
351.162313
 31
0.0
  0
ENDBLK
  8
0
  5
8F
  0
BLOCK
  8
0
  5
91
  2
*X5
 70
    65
 10
217.485492
 20
348.162313
 30
0.0
  3
*X5
  0
LINE
  8
LC-009-005-----0
  6
CONTINUOUS
  5
92
 10
222.297305
 20
348.162313
 30
0.0
 11
222.485492
 21
348.350499
 31
0.0
  0
LINE
  8
LC-009-005-----0
  6
CONTINUOUS
  5
93
 10
222.014463
 20
348.162313
 30
0.0
 11
222.485492
 21
348.633341
 31
0.0
  0
LINE
  8
LC-009-005-----0
  6
CONTINUOUS
  5
94
 10
221.73162
 20
348.162313
 30
0.0
 11
222.485492
 21
348.916184
 31
0.0
  0
LINE
  8
LC-009-005-----0
  6
CONTINUOUS
  5
95
 10
221.448777
 20
348.162313
 30
0.0
 11
222.485492
 21
349.199027
 31
0.0
  0
LINE
  8
LC-009-005-----0
  6
CONTINUOUS
  5
96
 10
221.165935
 20
348.162313
 30
0.0
 11
222.485492
 21
349.481869
 31
0.0
  0
LINE
  8
LC-009-005-----0
  6
CONTINUOUS
  5
97
 10
220.883092
 20
348.162313
 30
0.0
 11
222.485492
 21
349.764712
 31
0.0
  0
LINE
  8
LC-009-005-----0
  6
CONTINUOUS
  5
98
 10
220.600249
 20
348.162313
 30
0.0
 11
222.485492
 21
350.047555
 31
0.0
  0
LINE
  8
LC-009-005-----0
  6
CONTINUOUS
  5
99
 10
220.317406
 20
348.162313
 30
0.0
 11
222.485492
 21
350.330398
 31
0.0
  0
LINE
  8
LC-009-005-----0
  6
CONTINUOUS
  5
9A
 10
220.034564
 20
348.162313
 30
0.0
 11
222.485492
 21
350.61324
 31
0.0
  0
LINE
  8
LC-009-005-----0
  6
CONTINUOUS
  5
9B
 10
219.751721
 20
348.162313
 30
0.0
 11
222.485492
 21
350.896083
 31
0.0
  0
LINE
  8
LC-009-005-----0
  6
CONTINUOUS
  5
9C
 10
219.468878
 20
348.162313
 30
0.0
 11
222.468878
 21
351.162313
 31
0.0
  0
LINE
  8
LC-009-005-----0
  6
CONTINUOUS
  5
9D
 10
219.186036
 20
348.162313
 30
0.0
 11
222.186036
 21
351.162313
 31
0.0
  0
LINE
  8
LC-009-005-----0
  6
CONTINUOUS
  5
9E
 10
218.903193
 20
348.162313
 30
0.0
 11
221.903193
 21
351.162313
 31
0.0
  0
LINE
  8
LC-009-005-----0
  6
CONTINUOUS
  5
9F
 10
218.62035
 20
348.162313
 30
0.0
 11
221.62035
 21
351.162313
 31
0.0
  0
LINE
  8
LC-009-005-----0
  6
CONTINUOUS
  5
A0
 10
218.337507
 20
348.162313
 30
0.0
 11
221.337507
 21
351.162313
 31
0.0
  0
LINE
  8
LC-009-005-----0
  6
CONTINUOUS
  5
A1
 10
218.054665
 20
348.162313
 30
0.0
 11
221.054665
 21
351.162313
 31
0.0
  0
LINE
  8
LC-009-005-----0
  6
CONTINUOUS
  5
A2
 10
217.771822
 20
348.162313
 30
0.0
 11
220.771822
 21
351.162313
 31
0.0
  0
LINE
  8
LC-009-005-----0
  6
CONTINUOUS
  5
A3
 10
217.488979
 20
348.162313
 30
0.0
 11
220.488979
 21
351.162313
 31
0.0
  0
LINE
  8
LC-009-005-----0
  6
CONTINUOUS
  5
A4
 10
217.485492
 20
348.441667
 30
0.0
 11
220.206137
 21
351.162313
 31
0.0
  0
LINE
  8
LC-009-005-----0
  6
CONTINUOUS
  5
A5
 10
217.485492
 20
348.72451
 30
0.0
 11
219.923294
 21
351.162313
 31
0.0
  0
LINE
  8
LC-009-005-----0
  6
CONTINUOUS
  5
A6
 10
217.485492
 20
349.007353
 30
0.0
 11
219.640451
 21
351.162313
 31
0.0
  0
LINE
  8
LC-009-005-----0
  6
CONTINUOUS
  5
A7
 10
217.485492
 20
349.290196
 30
0.0
 11
219.357608
 21
351.162313
 31
0.0
  0
LINE
  8
LC-009-005-----0
  6
CONTINUOUS
  5
A8
 10
217.485492
 20
349.573038
 30
0.0
 11
219.074766
 21
351.162313
 31
0.0
  0
LINE
  8
LC-009-005-----0
  6
CONTINUOUS
  5
A9
 10
217.485492
 20
349.855881
 30
0.0
 11
218.791923
 21
351.162313
 31
0.0
  0
LINE
  8
LC-009-005-----0
  6
CONTINUOUS
  5
AA
 10
217.485492
 20
350.138724
 30
0.0
 11
218.50908
 21
351.162313
 31
0.0
  0
LINE
  8
LC-009-005-----0
  6
CONTINUOUS
  5
AB
 10
217.485492
 20
350.421566
 30
0.0
 11
218.226238
 21
351.162313
 31
0.0
  0
LINE
  8
LC-009-005-----0
  6
CONTINUOUS
  5
AC
 10
217.485492
 20
350.704409
 30
0.0
 11
217.943395
 21
351.162313
 31
0.0
  0
LINE
  8
LC-009-005-----0
  6
CONTINUOUS
  5
AD
 10
217.485492
 20
350.987252
 30
0.0
 11
217.660552
 21
351.162313
 31
0.0
  0
ENDBLK
  8
0
  5
AE
  0
BLOCK
  8
0
  5
B0
  2
*X6
 70
    65
 10
342.235988
 20
336.867976
 30
0.0
  3
*X6
  0
LINE
  8
LC-009-005-----0
  6
CONTINUOUS
  5
B1
 10
455.661915
 20
336.867976
 30
0.0
 11
456.735981
 21
337.942042
 31
0.0
  0
LINE
  8
LC-009-005-----0
  6
CONTINUOUS
  5
B2
 10
454.735981
 20
338.770469
 30
0.0
 11
456.735981
 21
340.770469
 31
0.0
  0
LINE
  8
LC-009-005-----0
  6
CONTINUOUS
  5
B3
 10
454.735981
 20
341.598896
 30
0.0
 11
457.005061
 21
343.867976
 31
0.0
  0
LINE
  8
LC-009-005-----0
  6
CONTINUOUS
  5
B4
 10
454.735981
 20
344.427323
 30
0.0
 11
456.735981
 21
346.427323
 31
0.0
  0
LINE
  8
LC-009-005-----0
  6
CONTINUOUS
  5
B5
 10
440.257197
 20
383.688655
 30
0.0
 11
441.438262
 21
384.86972
 31
0.0
  0
LINE
  8
LC-009-005-----0
  6
CONTINUOUS
  5
B6
 10
439.343421
 20
385.603305
 30
0.0
 11
440.82062
 21
387.080504
 31
0.0
  0
LINE
  8
LC-009-005-----0
  6
CONTINUOUS
  5
B7
 10
439.343421
 20
388.431732
 30
0.0
 11
440.202977
 21
389.291289
 31
0.0
  0
LINE
  8
LC-009-005-----0
  6
CONTINUOUS
  5
B8
 10
439.343421
 20
391.260159
 30
0.0
 11
439.585334
 21
391.502073
 31
0.0
  0
LINE
  8
LC-009-005-----0
  6
CONTINUOUS
  5
B9
 10
432.010111
 20
417.867976
 30
0.0
 11
432.235981
 21
418.093845
 31
0.0
  0
LINE
  8
LC-009-005-----0
  6
CONTINUOUS
  5
BA
 10
430.235981
 20
418.922272
 30
0.0
 11
432.235981
 21
420.922272
 31
0.0
  0
LINE
  8
LC-009-005-----0
  6
CONTINUOUS
  5
BB
 10
345.353257
 20
336.867976
 30
0.0
 11
345.735981
 21
337.2507
 31
0.0
  0
LINE
  8
LC-009-005-----0
  6
CONTINUOUS
  5
BC
 10
430.235981
 20
421.7507
 30
0.0
 11
430.353257
 21
421.867976
 31
0.0
  0
LINE
  8
LC-009-005-----0
  6
CONTINUOUS
  5
BD
 10
343.735981
 20
338.079127
 30
0.0
 11
345.735981
 21
340.079127
 31
0.0
  0
LINE
  8
LC-009-005-----0
  6
CONTINUOUS
  5
BE
 10
343.735981
 20
340.907554
 30
0.0
 11
345.735981
 21
342.907554
 31
0.0
  0
LINE
  8
LC-009-005-----0
  6
CONTINUOUS
  5
BF
 10
342.551982
 20
342.551982
 30
0.0
 11
345.735981
 21
345.735981
 31
0.0
  0
LINE
  8
LC-009-005-----0
  6
CONTINUOUS
  5
C0
 10
343.735981
 20
346.564408
 30
0.0
 11
344.039547
 21
346.867974
 31
0.0
  0
LINE
  8
LC-009-005-----0
  6
CONTINUOUS
  5
C1
 10
403.72584
 20
417.867976
 30
0.0
 11
405.235981
 21
419.378117
 31
0.0
  0
LINE
  8
LC-009-005-----0
  6
CONTINUOUS
  5
C2
 10
400.897413
 20
417.867976
 30
0.0
 11
404.897413
 21
421.867976
 31
0.0
  0
LINE
  8
LC-009-005-----0
  6
CONTINUOUS
  5
C3
 10
398.068986
 20
417.867976
 30
0.0
 11
402.068986
 21
421.867976
 31
0.0
  0
LINE
  8
LC-009-005-----0
  6
CONTINUOUS
  5
C4
 10
395.240559
 20
417.867976
 30
0.0
 11
399.240559
 21
421.867976
 31
0.0
  0
LINE
  8
LC-009-005-----0
  6
CONTINUOUS
  5
C5
 10
358.886309
 20
384.342153
 30
0.0
 11
361.128541
 21
386.584385
 31
0.0
  0
LINE
  8
LC-009-005-----0
  6
CONTINUOUS
  5
C6
 10
395.235981
 20
420.691825
 30
0.0
 11
396.412132
 21
421.867976
 31
0.0
  0
LINE
  8
LC-009-005-----0
  6
CONTINUOUS
  5
C7
 10
359.982858
 20
388.26713
 30
0.0
 11
361.128541
 21
389.412813
 31
0.0
  0
LINE
  8
LC-009-005-----0
  6
CONTINUOUS
  5
C8
 10
361.079407
 20
392.192106
 30
0.0
 11
361.128541
 21
392.24124
 31
0.0
  0
LINE
  8
LC-009-005-----0
  6
CONTINUOUS
  5
C9
 10
369.784715
 20
417.867976
 30
0.0
 11
370.235981
 21
418.319242
 31
0.0
  0
LINE
  8
LC-009-005-----0
  6
CONTINUOUS
  5
CA
 10
368.235981
 20
419.147669
 30
0.0
 11
370.235981
 21
421.147669
 31
0.0
  0
ENDBLK
  8
0
  5
CB
  0
BLOCK
  8
0
  5
CD
  2
BLK2
 70
    64
 10
0.0
 20
0.0
 30
0.0
  3
BLK2
  0
ENDBLK
  8
0
  5
CE
  0
BLOCK
  8
0
  5
D0
  2
*D8
 70
    65
 10
0.0
 20
0.0
 30
0.0
  3
*D8
  0
LINE
  8
LC-004-003-MTH-0
  6
CONTINUOUS
  5
D1
 10
375.235981
 20
131.666631
 30
0.0
 11
375.235981
 21
69.2
 31
0.0
  0
LINE
  8
LC-004-003-MTH-0
  6
CONTINUOUS
  5
D2
 10
425.235981
 20
131.666631
 30
0.0
 11
425.235981
 21
69.2
 31
0.0
  0
LINE
  8
LC-003-003-----0
  6
CONTINUOUS
  5
D3
 10
357.389973
 20
77.650529
 30
0.0
 11
375.235981
 21
80.0
 31
0.0
  0
LINE
  8
LC-003-003-----0
  6
CONTINUOUS
  5
D4
 10
375.235981
 20
80.0
 30
0.0
 11
357.389973
 21
82.349471
 31
0.0
  0
LINE
  8
LC-003-003-----0
  6
CONTINUOUS
  5
D5
 10
357.389973
 20
82.349471
 30
0.0
 11
357.389973
 21
77.650529
 31
0.0
  0
LINE
  8
LC-003-003-----0
  6
CONTINUOUS
  5
D6
 10
357.349935
 20
78.261391
 30
0.0
 11
370.555981
 21
80.0
 31
0.0
  0
LINE
  8
LC-003-003-----0
  6
CONTINUOUS
  5
D7
 10
370.555981
 20
80.0
 30
0.0
 11
357.349935
 21
81.738609
 31
0.0
  0
LINE
  8
LC-003-003-----0
  6
CONTINUOUS
  5
D8
 10
357.309897
 20
78.872254
 30
0.0
 11
365.875981
 21
80.0
 31
0.0
  0
LINE
  8
LC-003-003-----0
  6
CONTINUOUS
  5
D9
 10
365.875981
 20
80.0
 30
0.0
 11
357.309897
 21
81.127746
 31
0.0
  0
LINE
  8
LC-003-003-----0
  6
CONTINUOUS
  5
DA
 10
357.269859
 20
79.483116
 30
0.0
 11
361.195981
 21
80.0
 31
0.0
  0
LINE
  8
LC-003-003-----0
  6
CONTINUOUS
  5
DB
 10
361.195981
 20
80.0
 30
0.0
 11
357.269859
 21
80.516884
 31
0.0
  0
LINE
  8
LC-003-003-----0
  6
CONTINUOUS
  5
DC
 10
443.081988
 20
82.349471
 30
0.0
 11
425.235981
 21
80.0
 31
0.0
  0
LINE
  8
LC-003-003-----0
  6
CONTINUOUS
  5
DD
 10
425.235981
 20
80.0
 30
0.0
 11
443.081988
 21
77.650529
 31
0.0
  0
LINE
  8
LC-003-003-----0
  6
CONTINUOUS
  5
DE
 10
443.081988
 20
77.650529
 30
0.0
 11
443.081988
 21
82.349471
 31
0.0
  0
LINE
  8
LC-003-003-----0
  6
CONTINUOUS
  5
DF
 10
443.122026
 20
81.738609
 30
0.0
 11
429.915981
 21
80.0
 31
0.0
  0
LINE
  8
LC-003-003-----0
  6
CONTINUOUS
  5
E0
 10
429.915981
 20
80.0
 30
0.0
 11
443.122026
 21
78.261391
 31
0.0
  0
LINE
  8
LC-003-003-----0
  6
CONTINUOUS
  5
E1
 10
443.162065
 20
81.127746
 30
0.0
 11
434.595981
 21
80.0
 31
0.0
  0
LINE
  8
LC-003-003-----0
  6
CONTINUOUS
  5
E2
 10
434.595981
 20
80.0
 30
0.0
 11
443.162065
 21
78.872254
 31
0.0
  0
LINE
  8
LC-003-003-----0
  6
CONTINUOUS
  5
E3
 10
443.202103
 20
80.516884
 30
0.0
 11
439.275981
 21
80.0
 31
0.0
  0
LINE
  8
LC-003-003-----0
  6
CONTINUOUS
  5
E4
 10
439.275981
 20
80.0
 30
0.0
 11
443.202103
 21
79.483116
 31
0.0
  0
LINE
  8
LC-005-003-MTG-0
  6
CONTINUOUS
  5
E5
 10
350.035981
 20
80.0
 30
0.0
 11
515.638501
 21
80.0
 31
0.0
  0
TEXT
  8
LC-003-003-----0
  6
CONTINUOUS
 62
     6
  5
E6
 10
452.511227
 20
90.431999
 30
0.0
 40
18.0
  1
DN50
 51
15.0
  7
LC-TXTSTYLE-150-400-0-0-D0
  0
ENDBLK
  8
0
  5
E7
  0
BLOCK
  8
0
  5
E9
  2
BLK3
 70
    64
 10
0.0
 20
0.0
 30
0.0
  3
BLK3
  0
ENDBLK
  8
0
  5
EA
  0
BLOCK
  8
0
  5
EC
  2
*X10
 70
    65
 10
227.485492
 20
348.162313
 30
0.0
  3
*X10
  0
LINE
  8
LC-009-005-----0
  6
CONTINUOUS
  5
ED
 10
232.479643
 20
348.162313
 30
0.0
 11
232.485492
 21
348.168161
 31
0.0
  0
LINE
  8
LC-009-005-----0
  6
CONTINUOUS
  5
EE
 10
232.1968
 20
348.162313
 30
0.0
 11
232.485492
 21
348.451004
 31
0.0
  0
LINE
  8
LC-009-005-----0
  6
CONTINUOUS
  5
EF
 10
231.913958
 20
348.162313
 30
0.0
 11
232.485492
 21
348.733846
 31
0.0
  0
LINE
  8
LC-009-005-----0
  6
CONTINUOUS
  5
F0
 10
231.631115
 20
348.162313
 30
0.0
 11
232.485492
 21
349.016689
 31
0.0
  0
LINE
  8
LC-009-005-----0
  6
CONTINUOUS
  5
F1
 10
231.348272
 20
348.162313
 30
0.0
 11
232.485492
 21
349.299532
 31
0.0
  0
LINE
  8
LC-009-005-----0
  6
CONTINUOUS
  5
F2
 10
231.06543
 20
348.162313
 30
0.0
 11
232.485492
 21
349.582374
 31
0.0
  0
LINE
  8
LC-009-005-----0
  6
CONTINUOUS
  5
F3
 10
230.782587
 20
348.162313
 30
0.0
 11
232.485492
 21
349.865217
 31
0.0
  0
LINE
  8
LC-009-005-----0
  6
CONTINUOUS
  5
F4
 10
230.499744
 20
348.162313
 30
0.0
 11
232.485492
 21
350.14806
 31
0.0
  0
LINE
  8
LC-009-005-----0
  6
CONTINUOUS
  5
F5
 10
230.216901
 20
348.162313
 30
0.0
 11
232.485492
 21
350.430903
 31
0.0
  0
LINE
  8
LC-009-005-----0
  6
CONTINUOUS
  5
F6
 10
229.934059
 20
348.162313
 30
0.0
 11
232.485492
 21
350.713745
 31
0.0
  0
LINE
  8
LC-009-005-----0
  6
CONTINUOUS
  5
F7
 10
229.651216
 20
348.162313
 30
0.0
 11
232.485492
 21
350.996588
 31
0.0
  0
LINE
  8
LC-009-005-----0
  6
CONTINUOUS
  5
F8
 10
229.368373
 20
348.162313
 30
0.0
 11
232.368373
 21
351.162313
 31
0.0
  0
LINE
  8
LC-009-005-----0
  6
CONTINUOUS
  5
F9
 10
229.085531
 20
348.162313
 30
0.0
 11
232.085531
 21
351.162313
 31
0.0
  0
LINE
  8
LC-009-005-----0
  6
CONTINUOUS
  5
FA
 10
228.802688
 20
348.162313
 30
0.0
 11
231.802688
 21
351.162313
 31
0.0
  0
LINE
  8
LC-009-005-----0
  6
CONTINUOUS
  5
FB
 10
228.519845
 20
348.162313
 30
0.0
 11
231.519845
 21
351.162313
 31
0.0
  0
LINE
  8
LC-009-005-----0
  6
CONTINUOUS
  5
FC
 10
228.237002
 20
348.162313
 30
0.0
 11
231.237002
 21
351.162313
 31
0.0
  0
LINE
  8
LC-009-005-----0
  6
CONTINUOUS
  5
FD
 10
227.95416
 20
348.162313
 30
0.0
 11
230.95416
 21
351.162313
 31
0.0
  0
LINE
  8
LC-009-005-----0
  6
CONTINUOUS
  5
FE
 10
227.671317
 20
348.162313
 30
0.0
 11
230.671317
 21
351.162313
 31
0.0
  0
LINE
  8
LC-009-005-----0
  6
CONTINUOUS
  5
FF
 10
227.485492
 20
348.25933
 30
0.0
 11
230.388474
 21
351.162313
 31
0.0
  0
LINE
  8
LC-009-005-----0
  6
CONTINUOUS
  5
100
 10
227.485492
 20
348.542172
 30
0.0
 11
230.105632
 21
351.162313
 31
0.0
  0
LINE
  8
LC-009-005-----0
  6
CONTINUOUS
  5
101
 10
227.485492
 20
348.825015
 30
0.0
 11
229.822789
 21
351.162313
 31
0.0
  0
LINE
  8
LC-009-005-----0
  6
CONTINUOUS
  5
102
 10
227.485492
 20
349.107858
 30
0.0
 11
229.539946
 21
351.162313
 31
0.0
  0
LINE
  8
LC-009-005-----0
  6
CONTINUOUS
  5
103
 10
227.485492
 20
349.390701
 30
0.0
 11
229.257103
 21
351.162313
 31
0.0
  0
LINE
  8
LC-009-005-----0
  6
CONTINUOUS
  5
104
 10
227.485492
 20
349.673543
 30
0.0
 11
228.974261
 21
351.162313
 31
0.0
  0
LINE
  8
LC-009-005-----0
  6
CONTINUOUS
  5
105
 10
227.485492
 20
349.956386
 30
0.0
 11
228.691418
 21
351.162313
 31
0.0
  0
LINE
  8
LC-009-005-----0
  6
CONTINUOUS
  5
106
 10
227.485492
 20
350.239229
 30
0.0
 11
228.408575
 21
351.162313
 31
0.0
  0
LINE
  8
LC-009-005-----0
  6
CONTINUOUS
  5
107
 10
227.485492
 20
350.522071
 30
0.0
 11
228.125733
 21
351.162313
 31
0.0
  0
LINE
  8
LC-009-005-----0
  6
CONTINUOUS
  5
108
 10
227.485492
 20
350.804914
 30
0.0
 11
227.84289
 21
351.162313
 31
0.0
  0
LINE
  8
LC-009-005-----0
  6
CONTINUOUS
  5
109
 10
227.485492
 20
351.087757
 30
0.0
 11
227.560047
 21
351.162313
 31
0.0
  0
ENDBLK
  8
0
  5
10A
  0
BLOCK
  8
0
  5
10C
  2
*X11
 70
    65
 10
237.485492
 20
348.162313
 30
0.0
  3
*X11
  0
LINE
  8
LC-009-005-----0
  6
CONTINUOUS
  5
10D
 10
242.379138
 20
348.162313
 30
0.0
 11
242.485492
 21
348.268666
 31
0.0
  0
LINE
  8
LC-009-005-----0
  6
CONTINUOUS
  5
10E
 10
242.096295
 20
348.162313
 30
0.0
 11
242.485492
 21
348.551509
 31
0.0
  0
LINE
  8
LC-009-005-----0
  6
CONTINUOUS
  5
10F
 10
241.813453
 20
348.162313
 30
0.0
 11
242.485492
 21
348.834351
 31
0.0
  0
LINE
  8
LC-009-005-----0
  6
CONTINUOUS
  5
110
 10
241.53061
 20
348.162313
 30
0.0
 11
242.485492
 21
349.117194
 31
0.0
  0
LINE
  8
LC-009-005-----0
  6
CONTINUOUS
  5
111
 10
241.247767
 20
348.162313
 30
0.0
 11
242.485492
 21
349.400037
 31
0.0
  0
LINE
  8
LC-009-005-----0
  6
CONTINUOUS
  5
112
 10
240.964924
 20
348.162313
 30
0.0
 11
242.485492
 21
349.68288
 31
0.0
  0
LINE
  8
LC-009-005-----0
  6
CONTINUOUS
  5
113
 10
240.682082
 20
348.162313
 30
0.0
 11
242.485492
 21
349.965722
 31
0.0
  0
LINE
  8
LC-009-005-----0
  6
CONTINUOUS
  5
114
 10
240.399239
 20
348.162313
 30
0.0
 11
242.485492
 21
350.248565
 31
0.0
  0
LINE
  8
LC-009-005-----0
  6
CONTINUOUS
  5
115
 10
240.116396
 20
348.162313
 30
0.0
 11
242.485492
 21
350.531408
 31
0.0
  0
LINE
  8
LC-009-005-----0
  6
CONTINUOUS
  5
116
 10
239.833554
 20
348.162313
 30
0.0
 11
242.485492
 21
350.81425
 31
0.0
  0
LINE
  8
LC-009-005-----0
  6
CONTINUOUS
  5
117
 10
239.550711
 20
348.162313
 30
0.0
 11
242.485492
 21
351.097093
 31
0.0
  0
LINE
  8
LC-009-005-----0
  6
CONTINUOUS
  5
118
 10
239.267868
 20
348.162313
 30
0.0
 11
242.267868
 21
351.162313
 31
0.0
  0
LINE
  8
LC-009-005-----0
  6
CONTINUOUS
  5
119
 10
238.985025
 20
348.162313
 30
0.0
 11
241.985025
 21
351.162313
 31
0.0
  0
LINE
  8
LC-009-005-----0
  6
CONTINUOUS
  5
11A
 10
238.702183
 20
348.162313
 30
0.0
 11
241.702183
 21
351.162313
 31
0.0
  0
LINE
  8
LC-009-005-----0
  6
CONTINUOUS
  5
11B
 10
238.41934
 20
348.162313
 30
0.0
 11
241.41934
 21
351.162313
 31
0.0
  0
LINE
  8
LC-009-005-----0
  6
CONTINUOUS
  5
11C
 10
238.136497
 20
348.162313
 30
0.0
 11
241.136497
 21
351.162313
 31
0.0
  0
LINE
  8
LC-009-005-----0
  6
CONTINUOUS
  5
11D
 10
237.853655
 20
348.162313
 30
0.0
 11
240.853655
 21
351.162313
 31
0.0
  0
LINE
  8
LC-009-005-----0
  6
CONTINUOUS
  5
11E
 10
237.570812
 20
348.162313
 30
0.0
 11
240.570812
 21
351.162313
 31
0.0
  0
LINE
  8
LC-009-005-----0
  6
CONTINUOUS
  5
11F
 10
237.485492
 20
348.359835
 30
0.0
 11
240.287969
 21
351.162313
 31
0.0
  0
LINE
  8
LC-009-005-----0
  6
CONTINUOUS
  5
120
 10
237.485492
 20
348.642678
 30
0.0
 11
240.005126
 21
351.162313
 31
0.0
  0
LINE
  8
LC-009-005-----0
  6
CONTINUOUS
  5
121
 10
237.485492
 20
348.92552
 30
0.0
 11
239.722284
 21
351.162313
 31
0.0
  0
LINE
  8
LC-009-005-----0
  6
CONTINUOUS
  5
122
 10
237.485492
 20
349.208363
 30
0.0
 11
239.439441
 21
351.162313
 31
0.0
  0
LINE
  8
LC-009-005-----0
  6
CONTINUOUS
  5
123
 10
237.485492
 20
349.491206
 30
0.0
 11
239.156598
 21
351.162313
 31
0.0
  0
LINE
  8
LC-009-005-----0
  6
CONTINUOUS
  5
124
 10
237.485492
 20
349.774048
 30
0.0
 11
238.873756
 21
351.162313
 31
0.0
  0
LINE
  8
LC-009-005-----0
  6
CONTINUOUS
  5
125
 10
237.485492
 20
350.056891
 30
0.0
 11
238.590913
 21
351.162313
 31
0.0
  0
LINE
  8
LC-009-005-----0
  6
CONTINUOUS
  5
126
 10
237.485492
 20
350.339734
 30
0.0
 11
238.30807
 21
351.162313
 31
0.0
  0
LINE
  8
LC-009-005-----0
  6
CONTINUOUS
  5
127
 10
237.485492
 20
350.622577
 30
0.0
 11
238.025228
 21
351.162313
 31
0.0
  0
LINE
  8
LC-009-005-----0
  6
CONTINUOUS
  5
128
 10
237.485492
 20
350.905419
 30
0.0
 11
237.742385
 21
351.162313
 31
0.0
  0
ENDBLK
  8
0
  5
129
  0
BLOCK
  8
0
  5
12B
  2
*X12
 70
    65
 10
247.485492
 20
348.162313
 30
0.0
  3
*X12
  0
LINE
  8
LC-009-005-----0
  6
CONTINUOUS
  5
12C
 10
252.278633
 20
348.162313
 30
0.0
 11
252.485492
 21
348.369171
 31
0.0
  0
LINE
  8
LC-009-005-----0
  6
CONTINUOUS
  5
12D
 10
251.99579
 20
348.162313
 30
0.0
 11
252.485492
 21
348.652014
 31
0.0
  0
LINE
  8
LC-009-005-----0
  6
CONTINUOUS
  5
12E
 10
251.712948
 20
348.162313
 30
0.0
 11
252.485492
 21
348.934856
 31
0.0
  0
LINE
  8
LC-009-005-----0
  6
CONTINUOUS
  5
12F
 10
251.430105
 20
348.162313
 30
0.0
 11
252.485492
 21
349.217699
 31
0.0
  0
LINE
  8
LC-009-005-----0
  6
CONTINUOUS
  5
130
 10
251.147262
 20
348.162313
 30
0.0
 11
252.485492
 21
349.500542
 31
0.0
  0
LINE
  8
LC-009-005-----0
  6
CONTINUOUS
  5
131
 10
250.864419
 20
348.162313
 30
0.0
 11
252.485492
 21
349.783385
 31
0.0
  0
LINE
  8
LC-009-005-----0
  6
CONTINUOUS
  5
132
 10
250.581577
 20
348.162313
 30
0.0
 11
252.485492
 21
350.066227
 31
0.0
  0
LINE
  8
LC-009-005-----0
  6
CONTINUOUS
  5
133
 10
250.298734
 20
348.162313
 30
0.0
 11
252.485492
 21
350.34907
 31
0.0
  0
LINE
  8
LC-009-005-----0
  6
CONTINUOUS
  5
134
 10
250.015891
 20
348.162313
 30
0.0
 11
252.485492
 21
350.631913
 31
0.0
  0
LINE
  8
LC-009-005-----0
  6
CONTINUOUS
  5
135
 10
249.733049
 20
348.162313
 30
0.0
 11
252.485492
 21
350.914755
 31
0.0
  0
LINE
  8
LC-009-005-----0
  6
CONTINUOUS
  5
136
 10
249.450206
 20
348.162313
 30
0.0
 11
252.450206
 21
351.162313
 31
0.0
  0
LINE
  8
LC-009-005-----0
  6
CONTINUOUS
  5
137
 10
249.167363
 20
348.162313
 30
0.0
 11
252.167363
 21
351.162313
 31
0.0
  0
LINE
  8
LC-009-005-----0
  6
CONTINUOUS
  5
138
 10
248.88452
 20
348.162313
 30
0.0
 11
251.88452
 21
351.162313
 31
0.0
  0
LINE
  8
LC-009-005-----0
  6
CONTINUOUS
  5
139
 10
248.601678
 20
348.162313
 30
0.0
 11
251.601678
 21
351.162313
 31
0.0
  0
LINE
  8
LC-009-005-----0
  6
CONTINUOUS
  5
13A
 10
248.318835
 20
348.162313
 30
0.0
 11
251.318835
 21
351.162313
 31
0.0
  0
LINE
  8
LC-009-005-----0
  6
CONTINUOUS
  5
13B
 10
248.035992
 20
348.162313
 30
0.0
 11
251.035992
 21
351.162313
 31
0.0
  0
LINE
  8
LC-009-005-----0
  6
CONTINUOUS
  5
13C
 10
247.75315
 20
348.162313
 30
0.0
 11
250.75315
 21
351.162313
 31
0.0
  0
LINE
  8
LC-009-005-----0
  6
CONTINUOUS
  5
13D
 10
247.485492
 20
348.177497
 30
0.0
 11
250.470307
 21
351.162313
 31
0.0
  0
LINE
  8
LC-009-005-----0
  6
CONTINUOUS
  5
13E
 10
247.485492
 20
348.46034
 30
0.0
 11
250.187464
 21
351.162313
 31
0.0
  0
LINE
  8
LC-009-005-----0
  6
CONTINUOUS
  5
13F
 10
247.485492
 20
348.743183
 30
0.0
 11
249.904621
 21
351.162313
 31
0.0
  0
LINE
  8
LC-009-005-----0
  6
CONTINUOUS
  5
140
 10
247.485492
 20
349.026025
 30
0.0
 11
249.621779
 21
351.162313
 31
0.0
  0
LINE
  8
LC-009-005-----0
  6
CONTINUOUS
  5
141
 10
247.485492
 20
349.308868
 30
0.0
 11
249.338936
 21
351.162313
 31
0.0
  0
LINE
  8
LC-009-005-----0
  6
CONTINUOUS
  5
142
 10
247.485492
 20
349.591711
 30
0.0
 11
249.056093
 21
351.162313
 31
0.0
  0
LINE
  8
LC-009-005-----0
  6
CONTINUOUS
  5
143
 10
247.485492
 20
349.874553
 30
0.0
 11
248.773251
 21
351.162313
 31
0.0
  0
LINE
  8
LC-009-005-----0
  6
CONTINUOUS
  5
144
 10
247.485492
 20
350.157396
 30
0.0
 11
248.490408
 21
351.162313
 31
0.0
  0
LINE
  8
LC-009-005-----0
  6
CONTINUOUS
  5
145
 10
247.485492
 20
350.440239
 30
0.0
 11
248.207565
 21
351.162313
 31
0.0
  0
LINE
  8
LC-009-005-----0
  6
CONTINUOUS
  5
146
 10
247.485492
 20
350.723082
 30
0.0
 11
247.924722
 21
351.162313
 31
0.0
  0
LINE
  8
LC-009-005-----0
  6
CONTINUOUS
  5
147
 10
247.485492
 20
351.005924
 30
0.0
 11
247.64188
 21
351.162313
 31
0.0
  0
ENDBLK
  8
0
  5
148
  0
BLOCK
  8
0
  5
14A
  2
*X13
 70
    65
 10
257.485492
 20
348.162313
 30
0.0
  3
*X13
  0
LINE
  8
LC-009-005-----0
  6
CONTINUOUS
  5
14B
 10
262.460971
 20
348.162313
 30
0.0
 11
262.485492
 21
348.186833
 31
0.0
  0
LINE
  8
LC-009-005-----0
  6
CONTINUOUS
  5
14C
 10
262.178128
 20
348.162313
 30
0.0
 11
262.485492
 21
348.469676
 31
0.0
  0
LINE
  8
LC-009-005-----0
  6
CONTINUOUS
  5
14D
 10
261.895285
 20
348.162313
 30
0.0
 11
262.485492
 21
348.752519
 31
0.0
  0
LINE
  8
LC-009-005-----0
  6
CONTINUOUS
  5
14E
 10
261.612442
 20
348.162313
 30
0.0
 11
262.485492
 21
349.035362
 31
0.0
  0
LINE
  8
LC-009-005-----0
  6
CONTINUOUS
  5
14F
 10
261.3296
 20
348.162313
 30
0.0
 11
262.485492
 21
349.318204
 31
0.0
  0
LINE
  8
LC-009-005-----0
  6
CONTINUOUS
  5
150
 10
261.046757
 20
348.162313
 30
0.0
 11
262.485492
 21
349.601047
 31
0.0
  0
LINE
  8
LC-009-005-----0
  6
CONTINUOUS
  5
151
 10
260.763914
 20
348.162313
 30
0.0
 11
262.485492
 21
349.88389
 31
0.0
  0
LINE
  8
LC-009-005-----0
  6
CONTINUOUS
  5
152
 10
260.481072
 20
348.162313
 30
0.0
 11
262.485492
 21
350.166732
 31
0.0
  0
LINE
  8
LC-009-005-----0
  6
CONTINUOUS
  5
153
 10
260.198229
 20
348.162313
 30
0.0
 11
262.485492
 21
350.449575
 31
0.0
  0
LINE
  8
LC-009-005-----0
  6
CONTINUOUS
  5
154
 10
259.915386
 20
348.162313
 30
0.0
 11
262.485492
 21
350.732418
 31
0.0
  0
LINE
  8
LC-009-005-----0
  6
CONTINUOUS
  5
155
 10
259.632543
 20
348.162313
 30
0.0
 11
262.485492
 21
351.015261
 31
0.0
  0
LINE
  8
LC-009-005-----0
  6
CONTINUOUS
  5
156
 10
259.349701
 20
348.162313
 30
0.0
 11
262.349701
 21
351.162313
 31
0.0
  0
LINE
  8
LC-009-005-----0
  6
CONTINUOUS
  5
157
 10
259.066858
 20
348.162313
 30
0.0
 11
262.066858
 21
351.162313
 31
0.0
  0
LINE
  8
LC-009-005-----0
  6
CONTINUOUS
  5
158
 10
258.784015
 20
348.162313
 30
0.0
 11
261.784015
 21
351.162313
 31
0.0
  0
LINE
  8
LC-009-005-----0
  6
CONTINUOUS
  5
159
 10
258.501173
 20
348.162313
 30
0.0
 11
261.501173
 21
351.162313
 31
0.0
  0
LINE
  8
LC-009-005-----0
  6
CONTINUOUS
  5
15A
 10
258.21833
 20
348.162313
 30
0.0
 11
261.21833
 21
351.162313
 31
0.0
  0
LINE
  8
LC-009-005-----0
  6
CONTINUOUS
  5
15B
 10
257.935487
 20
348.162313
 30
0.0
 11
260.935487
 21
351.162313
 31
0.0
  0
LINE
  8
LC-009-005-----0
  6
CONTINUOUS
  5
15C
 10
257.652645
 20
348.162313
 30
0.0
 11
260.652645
 21
351.162313
 31
0.0
  0
LINE
  8
LC-009-005-----0
  6
CONTINUOUS
  5
15D
 10
257.485492
 20
348.278002
 30
0.0
 11
260.369802
 21
351.162313
 31
0.0
  0
LINE
  8
LC-009-005-----0
  6
CONTINUOUS
  5
15E
 10
257.485492
 20
348.560845
 30
0.0
 11
260.086959
 21
351.162313
 31
0.0
  0
LINE
  8
LC-009-005-----0
  6
CONTINUOUS
  5
15F
 10
257.485492
 20
348.843688
 30
0.0
 11
259.804116
 21
351.162313
 31
0.0
  0
LINE
  8
LC-009-005-----0
  6
CONTINUOUS
  5
160
 10
257.485492
 20
349.12653
 30
0.0
 11
259.521274
 21
351.162313
 31
0.0
  0
LINE
  8
LC-009-005-----0
  6
CONTINUOUS
  5
161
 10
257.485492
 20
349.409373
 30
0.0
 11
259.238431
 21
351.162313
 31
0.0
  0
LINE
  8
LC-009-005-----0
  6
CONTINUOUS
  5
162
 10
257.485492
 20
349.692216
 30
0.0
 11
258.955588
 21
351.162313
 31
0.0
  0
LINE
  8
LC-009-005-----0
  6
CONTINUOUS
  5
163
 10
257.485492
 20
349.975058
 30
0.0
 11
258.672746
 21
351.162313
 31
0.0
  0
LINE
  8
LC-009-005-----0
  6
CONTINUOUS
  5
164
 10
257.485492
 20
350.257901
 30
0.0
 11
258.389903
 21
351.162313
 31
0.0
  0
LINE
  8
LC-009-005-----0
  6
CONTINUOUS
  5
165
 10
257.485492
 20
350.540744
 30
0.0
 11
258.10706
 21
351.162313
 31
0.0
  0
LINE
  8
LC-009-005-----0
  6
CONTINUOUS
  5
166
 10
257.485492
 20
350.823587
 30
0.0
 11
257.824217
 21
351.162313
 31
0.0
  0
LINE
  8
LC-009-005-----0
  6
CONTINUOUS
  5
167
 10
257.485492
 20
351.106429
 30
0.0
 11
257.541375
 21
351.162313
 31
0.0
  0
ENDBLK
  8
0
  5
168
  0
BLOCK
  8
0
  5
16A
  2
*X14
 70
    65
 10
267.485492
 20
348.162313
 30
0.0
  3
*X14
  0
LINE
  8
LC-009-005-----0
  6
CONTINUOUS
  5
16B
 10
272.360466
 20
348.162313
 30
0.0
 11
272.485492
 21
348.287338
 31
0.0
  0
LINE
  8
LC-009-005-----0
  6
CONTINUOUS
  5
16C
 10
272.077623
 20
348.162313
 30
0.0
 11
272.485492
 21
348.570181
 31
0.0
  0
LINE
  8
LC-009-005-----0
  6
CONTINUOUS
  5
16D
 10
271.79478
 20
348.162313
 30
0.0
 11
272.485492
 21
348.853024
 31
0.0
  0
LINE
  8
LC-009-005-----0
  6
CONTINUOUS
  5
16E
 10
271.511937
 20
348.162313
 30
0.0
 11
272.485492
 21
349.135867
 31
0.0
  0
LINE
  8
LC-009-005-----0
  6
CONTINUOUS
  5
16F
 10
271.229095
 20
348.162313
 30
0.0
 11
272.485492
 21
349.418709
 31
0.0
  0
LINE
  8
LC-009-005-----0
  6
CONTINUOUS
  5
170
 10
270.946252
 20
348.162313
 30
0.0
 11
272.485492
 21
349.701552
 31
0.0
  0
LINE
  8
LC-009-005-----0
  6
CONTINUOUS
  5
171
 10
270.663409
 20
348.162313
 30
0.0
 11
272.485492
 21
349.984395
 31
0.0
  0
LINE
  8
LC-009-005-----0
  6
CONTINUOUS
  5
172
 10
270.380567
 20
348.162313
 30
0.0
 11
272.485492
 21
350.267237
 31
0.0
  0
LINE
  8
LC-009-005-----0
  6
CONTINUOUS
  5
173
 10
270.097724
 20
348.162313
 30
0.0
 11
272.485492
 21
350.55008
 31
0.0
  0
LINE
  8
LC-009-005-----0
  6
CONTINUOUS
  5
174
 10
269.814881
 20
348.162313
 30
0.0
 11
272.485492
 21
350.832923
 31
0.0
  0
LINE
  8
LC-009-005-----0
  6
CONTINUOUS
  5
175
 10
269.532038
 20
348.162313
 30
0.0
 11
272.485492
 21
351.115766
 31
0.0
  0
LINE
  8
LC-009-005-----0
  6
CONTINUOUS
  5
176
 10
269.249196
 20
348.162313
 30
0.0
 11
272.249196
 21
351.162313
 31
0.0
  0
LINE
  8
LC-009-005-----0
  6
CONTINUOUS
  5
177
 10
268.966353
 20
348.162313
 30
0.0
 11
271.966353
 21
351.162313
 31
0.0
  0
LINE
  8
LC-009-005-----0
  6
CONTINUOUS
  5
178
 10
268.68351
 20
348.162313
 30
0.0
 11
271.68351
 21
351.162313
 31
0.0
  0
LINE
  8
LC-009-005-----0
  6
CONTINUOUS
  5
179
 10
268.400668
 20
348.162313
 30
0.0
 11
271.400668
 21
351.162313
 31
0.0
  0
LINE
  8
LC-009-005-----0
  6
CONTINUOUS
  5
17A
 10
268.117825
 20
348.162313
 30
0.0
 11
271.117825
 21
351.162313
 31
0.0
  0
LINE
  8
LC-009-005-----0
  6
CONTINUOUS
  5
17B
 10
267.834982
 20
348.162313
 30
0.0
 11
270.834982
 21
351.162313
 31
0.0
  0
LINE
  8
LC-009-005-----0
  6
CONTINUOUS
  5
17C
 10
267.552139
 20
348.162313
 30
0.0
 11
270.552139
 21
351.162313
 31
0.0
  0
LINE
  8
LC-009-005-----0
  6
CONTINUOUS
  5
17D
 10
267.485492
 20
348.378507
 30
0.0
 11
270.269297
 21
351.162313
 31
0.0
  0
LINE
  8
LC-009-005-----0
  6
CONTINUOUS
  5
17E
 10
267.485492
 20
348.66135
 30
0.0
 11
269.986454
 21
351.162313
 31
0.0
  0
LINE
  8
LC-009-005-----0
  6
CONTINUOUS
  5
17F
 10
267.485492
 20
348.944193
 30
0.0
 11
269.703611
 21
351.162313
 31
0.0
  0
LINE
  8
LC-009-005-----0
  6
CONTINUOUS
  5
180
 10
267.485492
 20
349.227035
 30
0.0
 11
269.420769
 21
351.162313
 31
0.0
  0
LINE
  8
LC-009-005-----0
  6
CONTINUOUS
  5
181
 10
267.485492
 20
349.509878
 30
0.0
 11
269.137926
 21
351.162313
 31
0.0
  0
LINE
  8
LC-009-005-----0
  6
CONTINUOUS
  5
182
 10
267.485492
 20
349.792721
 30
0.0
 11
268.855083
 21
351.162313
 31
0.0
  0
LINE
  8
LC-009-005-----0
  6
CONTINUOUS
  5
183
 10
267.485492
 20
350.075564
 30
0.0
 11
268.57224
 21
351.162313
 31
0.0
  0
LINE
  8
LC-009-005-----0
  6
CONTINUOUS
  5
184
 10
267.485492
 20
350.358406
 30
0.0
 11
268.289398
 21
351.162313
 31
0.0
  0
LINE
  8
LC-009-005-----0
  6
CONTINUOUS
  5
185
 10
267.485492
 20
350.641249
 30
0.0
 11
268.006555
 21
351.162313
 31
0.0
  0
LINE
  8
LC-009-005-----0
  6
CONTINUOUS
  5
186
 10
267.485492
 20
350.924092
 30
0.0
 11
267.723712
 21
351.162313
 31
0.0
  0
ENDBLK
  8
0
  5
187
  0
BLOCK
  8
0
  5
189
  2
*X15
 70
    65
 10
277.485492
 20
348.162313
 30
0.0
  3
*X15
  0
LINE
  8
LC-009-005-----0
  6
CONTINUOUS
  5
18A
 10
282.25996
 20
348.162313
 30
0.0
 11
282.485492
 21
348.387844
 31
0.0
  0
LINE
  8
LC-009-005-----0
  6
CONTINUOUS
  5
18B
 10
281.977118
 20
348.162313
 30
0.0
 11
282.485492
 21
348.670686
 31
0.0
  0
LINE
  8
LC-009-005-----0
  6
CONTINUOUS
  5
18C
 10
281.694275
 20
348.162313
 30
0.0
 11
282.485492
 21
348.953529
 31
0.0
  0
LINE
  8
LC-009-005-----0
  6
CONTINUOUS
  5
18D
 10
281.411432
 20
348.162313
 30
0.0
 11
282.485492
 21
349.236372
 31
0.0
  0
LINE
  8
LC-009-005-----0
  6
CONTINUOUS
  5
18E
 10
281.12859
 20
348.162313
 30
0.0
 11
282.485492
 21
349.519214
 31
0.0
  0
LINE
  8
LC-009-005-----0
  6
CONTINUOUS
  5
18F
 10
280.845747
 20
348.162313
 30
0.0
 11
282.485492
 21
349.802057
 31
0.0
  0
LINE
  8
LC-009-005-----0
  6
CONTINUOUS
  5
190
 10
280.562904
 20
348.162313
 30
0.0
 11
282.485492
 21
350.0849
 31
0.0
  0
LINE
  8
LC-009-005-----0
  6
CONTINUOUS
  5
191
 10
280.280062
 20
348.162313
 30
0.0
 11
282.485492
 21
350.367743
 31
0.0
  0
LINE
  8
LC-009-005-----0
  6
CONTINUOUS
  5
192
 10
279.997219
 20
348.162313
 30
0.0
 11
282.485492
 21
350.650585
 31
0.0
  0
LINE
  8
LC-009-005-----0
  6
CONTINUOUS
  5
193
 10
279.714376
 20
348.162313
 30
0.0
 11
282.485492
 21
350.933428
 31
0.0
  0
LINE
  8
LC-009-005-----0
  6
CONTINUOUS
  5
194
 10
279.431533
 20
348.162313
 30
0.0
 11
282.431533
 21
351.162313
 31
0.0
  0
LINE
  8
LC-009-005-----0
  6
CONTINUOUS
  5
195
 10
279.148691
 20
348.162313
 30
0.0
 11
282.148691
 21
351.162313
 31
0.0
  0
LINE
  8
LC-009-005-----0
  6
CONTINUOUS
  5
196
 10
278.865848
 20
348.162313
 30
0.0
 11
281.865848
 21
351.162313
 31
0.0
  0
LINE
  8
LC-009-005-----0
  6
CONTINUOUS
  5
197
 10
278.583005
 20
348.162313
 30
0.0
 11
281.583005
 21
351.162313
 31
0.0
  0
LINE
  8
LC-009-005-----0
  6
CONTINUOUS
  5
198
 10
278.300163
 20
348.162313
 30
0.0
 11
281.300163
 21
351.162313
 31
0.0
  0
LINE
  8
LC-009-005-----0
  6
CONTINUOUS
  5
199
 10
278.01732
 20
348.162313
 30
0.0
 11
281.01732
 21
351.162313
 31
0.0
  0
LINE
  8
LC-009-005-----0
  6
CONTINUOUS
  5
19A
 10
277.734477
 20
348.162313
 30
0.0
 11
280.734477
 21
351.162313
 31
0.0
  0
LINE
  8
LC-009-005-----0
  6
CONTINUOUS
  5
19B
 10
277.485492
 20
348.19617
 30
0.0
 11
280.451634
 21
351.162313
 31
0.0
  0
LINE
  8
LC-009-005-----0
  6
CONTINUOUS
  5
19C
 10
277.485492
 20
348.479012
 30
0.0
 11
280.168792
 21
351.162313
 31
0.0
  0
LINE
  8
LC-009-005-----0
  6
CONTINUOUS
  5
19D
 10
277.485492
 20
348.761855
 30
0.0
 11
279.885949
 21
351.162313
 31
0.0
  0
LINE
  8
LC-009-005-----0
  6
CONTINUOUS
  5
19E
 10
277.485492
 20
349.044698
 30
0.0
 11
279.603106
 21
351.162313
 31
0.0
  0
LINE
  8
LC-009-005-----0
  6
CONTINUOUS
  5
19F
 10
277.485492
 20
349.32754
 30
0.0
 11
279.320264
 21
351.162313
 31
0.0
  0
LINE
  8
LC-009-005-----0
  6
CONTINUOUS
  5
1A0
 10
277.485492
 20
349.610383
 30
0.0
 11
279.037421
 21
351.162313
 31
0.0
  0
LINE
  8
LC-009-005-----0
  6
CONTINUOUS
  5
1A1
 10
277.485492
 20
349.893226
 30
0.0
 11
278.754578
 21
351.162313
 31
0.0
  0
LINE
  8
LC-009-005-----0
  6
CONTINUOUS
  5
1A2
 10
277.485492
 20
350.176069
 30
0.0
 11
278.471735
 21
351.162313
 31
0.0
  0
LINE
  8
LC-009-005-----0
  6
CONTINUOUS
  5
1A3
 10
277.485492
 20
350.458911
 30
0.0
 11
278.188893
 21
351.162313
 31
0.0
  0
LINE
  8
LC-009-005-----0
  6
CONTINUOUS
  5
1A4
 10
277.485492
 20
350.741754
 30
0.0
 11
277.90605
 21
351.162313
 31
0.0
  0
LINE
  8
LC-009-005-----0
  6
CONTINUOUS
  5
1A5
 10
277.485492
 20
351.024597
 30
0.0
 11
277.623207
 21
351.162313
 31
0.0
  0
ENDBLK
  8
0
  5
1A6
  0
BLOCK
  8
0
  5
1A8
  2
*X16
 70
    65
 10
297.485492
 20
345.566228
 30
0.0
  3
*X16
  0
LINE
  8
LC-009-005-----0
  6
CONTINUOUS
  5
1A9
 10
302.336764
 20
345.611699
 30
0.0
 11
302.485492
 21
345.760427
 31
0.0
  0
LINE
  8
LC-009-005-----0
  6
CONTINUOUS
  5
1AA
 10
302.120147
 20
345.677925
 30
0.0
 11
302.485492
 21
346.043269
 31
0.0
  0
LINE
  8
LC-009-005-----0
  6
CONTINUOUS
  5
1AB
 10
301.903531
 20
345.744151
 30
0.0
 11
302.485492
 21
346.326112
 31
0.0
  0
LINE
  8
LC-009-005-----0
  6
CONTINUOUS
  5
1AC
 10
301.686914
 20
345.810378
 30
0.0
 11
302.485492
 21
346.608955
 31
0.0
  0
LINE
  8
LC-009-005-----0
  6
CONTINUOUS
  5
1AD
 10
301.470298
 20
345.876604
 30
0.0
 11
302.485492
 21
346.891797
 31
0.0
  0
LINE
  8
LC-009-005-----0
  6
CONTINUOUS
  5
1AE
 10
301.253682
 20
345.94283
 30
0.0
 11
302.485492
 21
347.17464
 31
0.0
  0
LINE
  8
LC-009-005-----0
  6
CONTINUOUS
  5
1AF
 10
301.037065
 20
346.009056
 30
0.0
 11
302.485492
 21
347.457483
 31
0.0
  0
LINE
  8
LC-009-005-----0
  6
CONTINUOUS
  5
1B0
 10
300.820449
 20
346.075283
 30
0.0
 11
302.485492
 21
347.740326
 31
0.0
  0
LINE
  8
LC-009-005-----0
  6
CONTINUOUS
  5
1B1
 10
300.603832
 20
346.141509
 30
0.0
 11
302.485492
 21
348.023168
 31
0.0
  0
LINE
  8
LC-009-005-----0
  6
CONTINUOUS
  5
1B2
 10
300.387216
 20
346.207735
 30
0.0
 11
302.485492
 21
348.306011
 31
0.0
  0
LINE
  8
LC-009-005-----0
  6
CONTINUOUS
  5
1B3
 10
300.170599
 20
346.273962
 30
0.0
 11
302.485492
 21
348.588854
 31
0.0
  0
LINE
  8
LC-009-005-----0
  6
CONTINUOUS
  5
1B4
 10
299.953983
 20
346.340188
 30
0.0
 11
302.356527
 21
348.742732
 31
0.0
  0
LINE
  8
LC-009-005-----0
  6
CONTINUOUS
  5
1B5
 10
299.737367
 20
346.406414
 30
0.0
 11
302.13991
 21
348.808958
 31
0.0
  0
LINE
  8
LC-009-005-----0
  6
CONTINUOUS
  5
1B6
 10
299.52075
 20
346.47264
 30
0.0
 11
301.923294
 21
348.875184
 31
0.0
  0
LINE
  8
LC-009-005-----0
  6
CONTINUOUS
  5
1B7
 10
299.304134
 20
346.538867
 30
0.0
 11
301.706678
 21
348.941411
 31
0.0
  0
LINE
  8
LC-009-005-----0
  6
CONTINUOUS
  5
1B8
 10
299.087517
 20
346.605093
 30
0.0
 11
301.490061
 21
349.007637
 31
0.0
  0
LINE
  8
LC-009-005-----0
  6
CONTINUOUS
  5
1B9
 10
298.870901
 20
346.671319
 30
0.0
 11
301.273445
 21
349.073863
 31
0.0
  0
LINE
  8
LC-009-005-----0
  6
CONTINUOUS
  5
1BA
 10
298.654284
 20
346.737546
 30
0.0
 11
301.056828
 21
349.140089
 31
0.0
  0
LINE
  8
LC-009-005-----0
  6
CONTINUOUS
  5
1BB
 10
298.437668
 20
346.803772
 30
0.0
 11
300.840212
 21
349.206316
 31
0.0
  0
LINE
  8
LC-009-005-----0
  6
CONTINUOUS
  5
1BC
 10
298.221052
 20
346.869998
 30
0.0
 11
300.623595
 21
349.272542
 31
0.0
  0
LINE
  8
LC-009-005-----0
  6
CONTINUOUS
  5
1BD
 10
298.004435
 20
346.936224
 30
0.0
 11
300.406979
 21
349.338768
 31
0.0
  0
LINE
  8
LC-009-005-----0
  6
CONTINUOUS
  5
1BE
 10
297.787819
 20
347.002451
 30
0.0
 11
300.190363
 21
349.404995
 31
0.0
  0
LINE
  8
LC-009-005-----0
  6
CONTINUOUS
  5
1BF
 10
297.571202
 20
347.068677
 30
0.0
 11
299.973746
 21
349.471221
 31
0.0
  0
LINE
  8
LC-009-005-----0
  6
CONTINUOUS
  5
1C0
 10
297.485492
 20
347.265809
 30
0.0
 11
299.75713
 21
349.537447
 31
0.0
  0
LINE
  8
LC-009-005-----0
  6
CONTINUOUS
  5
1C1
 10
297.485492
 20
347.548652
 30
0.0
 11
299.540513
 21
349.603673
 31
0.0
  0
LINE
  8
LC-009-005-----0
  6
CONTINUOUS
  5
1C2
 10
297.485492
 20
347.831494
 30
0.0
 11
299.323897
 21
349.6699
 31
0.0
  0
LINE
  8
LC-009-005-----0
  6
CONTINUOUS
  5
1C3
 10
297.485492
 20
348.114337
 30
0.0
 11
299.10728
 21
349.736126
 31
0.0
  0
LINE
  8
LC-009-005-----0
  6
CONTINUOUS
  5
1C4
 10
297.485492
 20
348.39718
 30
0.0
 11
298.890664
 21
349.802352
 31
0.0
  0
LINE
  8
LC-009-005-----0
  6
CONTINUOUS
  5
1C5
 10
297.485492
 20
348.680022
 30
0.0
 11
298.674048
 21
349.868579
 31
0.0
  0
LINE
  8
LC-009-005-----0
  6
CONTINUOUS
  5
1C6
 10
297.485492
 20
348.962865
 30
0.0
 11
298.457431
 21
349.934805
 31
0.0
  0
LINE
  8
LC-009-005-----0
  6
CONTINUOUS
  5
1C7
 10
297.485492
 20
349.245708
 30
0.0
 11
298.240815
 21
350.001031
 31
0.0
  0
LINE
  8
LC-009-005-----0
  6
CONTINUOUS
  5
1C8
 10
297.485492
 20
349.528551
 30
0.0
 11
298.024198
 21
350.067257
 31
0.0
  0
LINE
  8
LC-009-005-----0
  6
CONTINUOUS
  5
1C9
 10
297.485492
 20
349.811393
 30
0.0
 11
297.807582
 21
350.133484
 31
0.0
  0
LINE
  8
LC-009-005-----0
  6
CONTINUOUS
  5
1CA
 10
297.485492
 20
350.094236
 30
0.0
 11
297.590966
 21
350.19971
 31
0.0
  0
ENDBLK
  8
0
  5
1CB
  0
BLOCK
  8
0
  5
1CD
  2
*X17
 70
    65
 10
307.485492
 20
342.508921
 30
0.0
  3
*X17
  0
LINE
  8
LC-009-005-----0
  6
CONTINUOUS
  5
1CE
 10
312.301119
 20
342.565289
 30
0.0
 11
312.485492
 21
342.749662
 31
0.0
  0
LINE
  8
LC-009-005-----0
  6
CONTINUOUS
  5
1CF
 10
312.084503
 20
342.631516
 30
0.0
 11
312.485492
 21
343.032504
 31
0.0
  0
LINE
  8
LC-009-005-----0
  6
CONTINUOUS
  5
1D0
 10
311.867886
 20
342.697742
 30
0.0
 11
312.485492
 21
343.315347
 31
0.0
  0
LINE
  8
LC-009-005-----0
  6
CONTINUOUS
  5
1D1
 10
311.65127
 20
342.763968
 30
0.0
 11
312.485492
 21
343.59819
 31
0.0
  0
LINE
  8
LC-009-005-----0
  6
CONTINUOUS
  5
1D2
 10
311.434654
 20
342.830195
 30
0.0
 11
312.485492
 21
343.881033
 31
0.0
  0
LINE
  8
LC-009-005-----0
  6
CONTINUOUS
  5
1D3
 10
311.218037
 20
342.896421
 30
0.0
 11
312.485492
 21
344.163875
 31
0.0
  0
LINE
  8
LC-009-005-----0
  6
CONTINUOUS
  5
1D4
 10
311.001421
 20
342.962647
 30
0.0
 11
312.485492
 21
344.446718
 31
0.0
  0
LINE
  8
LC-009-005-----0
  6
CONTINUOUS
  5
1D5
 10
310.784804
 20
343.028873
 30
0.0
 11
312.485492
 21
344.729561
 31
0.0
  0
LINE
  8
LC-009-005-----0
  6
CONTINUOUS
  5
1D6
 10
310.568188
 20
343.0951
 30
0.0
 11
312.485492
 21
345.012403
 31
0.0
  0
LINE
  8
LC-009-005-----0
  6
CONTINUOUS
  5
1D7
 10
310.351571
 20
343.161326
 30
0.0
 11
312.485492
 21
345.295246
 31
0.0
  0
LINE
  8
LC-009-005-----0
  6
CONTINUOUS
  5
1D8
 10
310.134955
 20
343.227552
 30
0.0
 11
312.485492
 21
345.578089
 31
0.0
  0
LINE
  8
LC-009-005-----0
  6
CONTINUOUS
  5
1D9
 10
309.918339
 20
343.293779
 30
0.0
 11
312.320882
 21
345.696323
 31
0.0
  0
LINE
  8
LC-009-005-----0
  6
CONTINUOUS
  5
1DA
 10
309.701722
 20
343.360005
 30
0.0
 11
312.104266
 21
345.762549
 31
0.0
  0
LINE
  8
LC-009-005-----0
  6
CONTINUOUS
  5
1DB
 10
309.485106
 20
343.426231
 30
0.0
 11
311.88765
 21
345.828775
 31
0.0
  0
LINE
  8
LC-009-005-----0
  6
CONTINUOUS
  5
1DC
 10
309.268489
 20
343.492457
 30
0.0
 11
311.671033
 21
345.895001
 31
0.0
  0
LINE
  8
LC-009-005-----0
  6
CONTINUOUS
  5
1DD
 10
309.051873
 20
343.558684
 30
0.0
 11
311.454417
 21
345.961228
 31
0.0
  0
LINE
  8
LC-009-005-----0
  6
CONTINUOUS
  5
1DE
 10
308.835256
 20
343.62491
 30
0.0
 11
311.2378
 21
346.027454
 31
0.0
  0
LINE
  8
LC-009-005-----0
  6
CONTINUOUS
  5
1DF
 10
308.61864
 20
343.691136
 30
0.0
 11
311.021184
 21
346.09368
 31
0.0
  0
LINE
  8
LC-009-005-----0
  6
CONTINUOUS
  5
1E0
 10
308.402024
 20
343.757363
 30
0.0
 11
310.804567
 21
346.159907
 31
0.0
  0
LINE
  8
LC-009-005-----0
  6
CONTINUOUS
  5
1E1
 10
308.185407
 20
343.823589
 30
0.0
 11
310.587951
 21
346.226133
 31
0.0
  0
LINE
  8
LC-009-005-----0
  6
CONTINUOUS
  5
1E2
 10
307.968791
 20
343.889815
 30
0.0
 11
310.371335
 21
346.292359
 31
0.0
  0
LINE
  8
LC-009-005-----0
  6
CONTINUOUS
  5
1E3
 10
307.752174
 20
343.956041
 30
0.0
 11
310.154718
 21
346.358585
 31
0.0
  0
LINE
  8
LC-009-005-----0
  6
CONTINUOUS
  5
1E4
 10
307.535558
 20
344.022268
 30
0.0
 11
309.938102
 21
346.424812
 31
0.0
  0
LINE
  8
LC-009-005-----0
  6
CONTINUOUS
  5
1E5
 10
307.485492
 20
344.255044
 30
0.0
 11
309.721485
 21
346.491038
 31
0.0
  0
LINE
  8
LC-009-005-----0
  6
CONTINUOUS
  5
1E6
 10
307.485492
 20
344.537887
 30
0.0
 11
309.504869
 21
346.557264
 31
0.0
  0
LINE
  8
LC-009-005-----0
  6
CONTINUOUS
  5
1E7
 10
307.485492
 20
344.82073
 30
0.0
 11
309.288252
 21
346.623491
 31
0.0
  0
LINE
  8
LC-009-005-----0
  6
CONTINUOUS
  5
1E8
 10
307.485492
 20
345.103572
 30
0.0
 11
309.071636
 21
346.689717
 31
0.0
  0
LINE
  8
LC-009-005-----0
  6
CONTINUOUS
  5
1E9
 10
307.485492
 20
345.386415
 30
0.0
 11
308.85502
 21
346.755943
 31
0.0
  0
LINE
  8
LC-009-005-----0
  6
CONTINUOUS
  5
1EA
 10
307.485492
 20
345.669258
 30
0.0
 11
308.638403
 21
346.822169
 31
0.0
  0
LINE
  8
LC-009-005-----0
  6
CONTINUOUS
  5
1EB
 10
307.485492
 20
345.9521
 30
0.0
 11
308.421787
 21
346.888396
 31
0.0
  0
LINE
  8
LC-009-005-----0
  6
CONTINUOUS
  5
1EC
 10
307.485492
 20
346.234943
 30
0.0
 11
308.20517
 21
346.954622
 31
0.0
  0
LINE
  8
LC-009-005-----0
  6
CONTINUOUS
  5
1ED
 10
307.485492
 20
346.517786
 30
0.0
 11
307.988554
 21
347.020848
 31
0.0
  0
LINE
  8
LC-009-005-----0
  6
CONTINUOUS
  5
1EE
 10
307.485492
 20
346.800629
 30
0.0
 11
307.771938
 21
347.087075
 31
0.0
  0
LINE
  8
LC-009-005-----0
  6
CONTINUOUS
  5
1EF
 10
307.485492
 20
347.083471
 30
0.0
 11
307.555321
 21
347.153301
 31
0.0
  0
ENDBLK
  8
0
  5
1F0
  0
BLOCK
  8
0
  5
1F2
  2
*X18
 70
    65
 10
317.485492
 20
341.668012
 30
0.0
  3
*X18
  0
LINE
  8
LC-009-005-----0
  6
CONTINUOUS
  5
1F3
 10
322.434708
 20
341.668012
 30
0.0
 11
322.485492
 21
341.718796
 31
0.0
  0
LINE
  8
LC-009-005-----0
  6
CONTINUOUS
  5
1F4
 10
322.151865
 20
341.668012
 30
0.0
 11
322.485492
 21
342.001639
 31
0.0
  0
LINE
  8
LC-009-005-----0
  6
CONTINUOUS
  5
1F5
 10
321.869022
 20
341.668012
 30
0.0
 11
322.485492
 21
342.284481
 31
0.0
  0
LINE
  8
LC-009-005-----0
  6
CONTINUOUS
  5
1F6
 10
321.58618
 20
341.668012
 30
0.0
 11
322.485492
 21
342.567324
 31
0.0
  0
LINE
  8
LC-009-005-----0
  6
CONTINUOUS
  5
1F7
 10
321.303337
 20
341.668012
 30
0.0
 11
322.485492
 21
342.850167
 31
0.0
  0
LINE
  8
LC-009-005-----0
  6
CONTINUOUS
  5
1F8
 10
321.020494
 20
341.668012
 30
0.0
 11
322.485492
 21
343.13301
 31
0.0
  0
LINE
  8
LC-009-005-----0
  6
CONTINUOUS
  5
1F9
 10
320.737651
 20
341.668012
 30
0.0
 11
322.485492
 21
343.415852
 31
0.0
  0
LINE
  8
LC-009-005-----0
  6
CONTINUOUS
  5
1FA
 10
320.454809
 20
341.668012
 30
0.0
 11
322.485492
 21
343.698695
 31
0.0
  0
LINE
  8
LC-009-005-----0
  6
CONTINUOUS
  5
1FB
 10
320.171966
 20
341.668012
 30
0.0
 11
322.485492
 21
343.981538
 31
0.0
  0
LINE
  8
LC-009-005-----0
  6
CONTINUOUS
  5
1FC
 10
319.889123
 20
341.668012
 30
0.0
 11
322.485492
 21
344.26438
 31
0.0
  0
LINE
  8
LC-009-005-----0
  6
CONTINUOUS
  5
1FD
 10
319.606281
 20
341.668012
 30
0.0
 11
322.485492
 21
344.547223
 31
0.0
  0
LINE
  8
LC-009-005-----0
  6
CONTINUOUS
  5
1FE
 10
319.323438
 20
341.668012
 30
0.0
 11
322.323438
 21
344.668012
 31
0.0
  0
LINE
  8
LC-009-005-----0
  6
CONTINUOUS
  5
1FF
 10
319.040595
 20
341.668012
 30
0.0
 11
322.040595
 21
344.668012
 31
0.0
  0
LINE
  8
LC-009-005-----0
  6
CONTINUOUS
  5
200
 10
318.757752
 20
341.668012
 30
0.0
 11
321.757752
 21
344.668012
 31
0.0
  0
LINE
  8
LC-009-005-----0
  6
CONTINUOUS
  5
201
 10
318.47491
 20
341.668012
 30
0.0
 11
321.47491
 21
344.668012
 31
0.0
  0
LINE
  8
LC-009-005-----0
  6
CONTINUOUS
  5
202
 10
318.192067
 20
341.668012
 30
0.0
 11
321.192067
 21
344.668012
 31
0.0
  0
LINE
  8
LC-009-005-----0
  6
CONTINUOUS
  5
203
 10
317.909224
 20
341.668012
 30
0.0
 11
320.909224
 21
344.668012
 31
0.0
  0
LINE
  8
LC-009-005-----0
  6
CONTINUOUS
  5
204
 10
317.626382
 20
341.668012
 30
0.0
 11
320.626382
 21
344.668012
 31
0.0
  0
LINE
  8
LC-009-005-----0
  6
CONTINUOUS
  5
205
 10
317.485492
 20
341.809965
 30
0.0
 11
320.343539
 21
344.668012
 31
0.0
  0
LINE
  8
LC-009-005-----0
  6
CONTINUOUS
  5
206
 10
317.485492
 20
342.092808
 30
0.0
 11
320.060696
 21
344.668012
 31
0.0
  0
LINE
  8
LC-009-005-----0
  6
CONTINUOUS
  5
207
 10
317.485492
 20
342.37565
 30
0.0
 11
319.777853
 21
344.668012
 31
0.0
  0
LINE
  8
LC-009-005-----0
  6
CONTINUOUS
  5
208
 10
317.485492
 20
342.658493
 30
0.0
 11
319.495011
 21
344.668012
 31
0.0
  0
LINE
  8
LC-009-005-----0
  6
CONTINUOUS
  5
209
 10
317.485492
 20
342.941336
 30
0.0
 11
319.212168
 21
344.668012
 31
0.0
  0
LINE
  8
LC-009-005-----0
  6
CONTINUOUS
  5
20A
 10
317.485492
 20
343.224178
 30
0.0
 11
318.929325
 21
344.668012
 31
0.0
  0
LINE
  8
LC-009-005-----0
  6
CONTINUOUS
  5
20B
 10
317.485492
 20
343.507021
 30
0.0
 11
318.646483
 21
344.668012
 31
0.0
  0
LINE
  8
LC-009-005-----0
  6
CONTINUOUS
  5
20C
 10
317.485492
 20
343.789864
 30
0.0
 11
318.36364
 21
344.668012
 31
0.0
  0
LINE
  8
LC-009-005-----0
  6
CONTINUOUS
  5
20D
 10
317.485492
 20
344.072706
 30
0.0
 11
318.080797
 21
344.668012
 31
0.0
  0
LINE
  8
LC-009-005-----0
  6
CONTINUOUS
  5
20E
 10
317.485492
 20
344.355549
 30
0.0
 11
317.797954
 21
344.668012
 31
0.0
  0
LINE
  8
LC-009-005-----0
  6
CONTINUOUS
  5
20F
 10
317.485492
 20
344.638392
 30
0.0
 11
317.515112
 21
344.668012
 31
0.0
  0
ENDBLK
  8
0
  5
210
  0
BLOCK
  8
0
  5
212
  2
*X19
 70
    65
 10
333.235492
 20
343.167322
 30
0.0
  3
*X19
  0
LINE
  8
LC-009-005-----0
  6
CONTINUOUS
  5
213
 10
335.247726
 20
343.167322
 30
0.0
 11
335.485869
 21
343.405465
 31
0.0
  0
LINE
  8
LC-009-005-----0
  6
CONTINUOUS
  5
214
 10
334.964883
 20
343.167322
 30
0.0
 11
335.485869
 21
343.688307
 31
0.0
  0
LINE
  8
LC-009-005-----0
  6
CONTINUOUS
  5
215
 10
334.68204
 20
343.167322
 30
0.0
 11
335.485869
 21
343.97115
 31
0.0
  0
LINE
  8
LC-009-005-----0
  6
CONTINUOUS
  5
216
 10
334.399198
 20
343.167322
 30
0.0
 11
335.485869
 21
344.253993
 31
0.0
  0
LINE
  8
LC-009-005-----0
  6
CONTINUOUS
  5
217
 10
334.116355
 20
343.167322
 30
0.0
 11
335.485869
 21
344.536836
 31
0.0
  0
LINE
  8
LC-009-005-----0
  6
CONTINUOUS
  5
218
 10
333.833512
 20
343.167322
 30
0.0
 11
335.485869
 21
344.819678
 31
0.0
  0
LINE
  8
LC-009-005-----0
  6
CONTINUOUS
  5
219
 10
333.55067
 20
343.167322
 30
0.0
 11
335.485869
 21
345.102521
 31
0.0
  0
LINE
  8
LC-009-005-----0
  6
CONTINUOUS
  5
21A
 10
333.267827
 20
343.167322
 30
0.0
 11
335.485869
 21
345.385364
 31
0.0
  0
LINE
  8
LC-009-005-----0
  6
CONTINUOUS
  5
21B
 10
333.235492
 20
343.417829
 30
0.0
 11
335.485869
 21
345.668206
 31
0.0
  0
LINE
  8
LC-009-005-----0
  6
CONTINUOUS
  5
21C
 10
333.235492
 20
343.700672
 30
0.0
 11
335.485869
 21
345.951049
 31
0.0
  0
LINE
  8
LC-009-005-----0
  6
CONTINUOUS
  5
21D
 10
333.235492
 20
343.983515
 30
0.0
 11
335.419299
 21
346.167322
 31
0.0
  0
LINE
  8
LC-009-005-----0
  6
CONTINUOUS
  5
21E
 10
333.235492
 20
344.266357
 30
0.0
 11
335.136456
 21
346.167322
 31
0.0
  0
LINE
  8
LC-009-005-----0
  6
CONTINUOUS
  5
21F
 10
333.235492
 20
344.5492
 30
0.0
 11
334.853613
 21
346.167322
 31
0.0
  0
LINE
  8
LC-009-005-----0
  6
CONTINUOUS
  5
220
 10
333.235492
 20
344.832043
 30
0.0
 11
334.570771
 21
346.167322
 31
0.0
  0
LINE
  8
LC-009-005-----0
  6
CONTINUOUS
  5
221
 10
333.235492
 20
345.114885
 30
0.0
 11
334.287928
 21
346.167322
 31
0.0
  0
LINE
  8
LC-009-005-----0
  6
CONTINUOUS
  5
222
 10
333.235492
 20
345.397728
 30
0.0
 11
334.005085
 21
346.167322
 31
0.0
  0
LINE
  8
LC-009-005-----0
  6
CONTINUOUS
  5
223
 10
333.235492
 20
345.680571
 30
0.0
 11
333.722242
 21
346.167322
 31
0.0
  0
LINE
  8
LC-009-005-----0
  6
CONTINUOUS
  5
224
 10
333.235492
 20
345.963414
 30
0.0
 11
333.4394
 21
346.167322
 31
0.0
  0
ENDBLK
  8
0
  5
225
  0
BLOCK
  8
0
  5
227
  2
*X20
 70
    65
 10
287.485492
 20
347.950284
 30
0.0
  3
*X20
  0
LINE
  8
LC-009-005-----0
  6
CONTINUOUS
  5
228
 10
292.238343
 20
347.958358
 30
0.0
 11
292.485492
 21
348.205506
 31
0.0
  0
LINE
  8
LC-009-005-----0
  6
CONTINUOUS
  5
229
 10
291.964448
 20
347.967305
 30
0.0
 11
292.485492
 21
348.488349
 31
0.0
  0
LINE
  8
LC-009-005-----0
  6
CONTINUOUS
  5
22A
 10
291.690553
 20
347.976253
 30
0.0
 11
292.485492
 21
348.771191
 31
0.0
  0
LINE
  8
LC-009-005-----0
  6
CONTINUOUS
  5
22B
 10
291.416658
 20
347.985201
 30
0.0
 11
292.485492
 21
349.054034
 31
0.0
  0
LINE
  8
LC-009-005-----0
  6
CONTINUOUS
  5
22C
 10
291.142763
 20
347.994148
 30
0.0
 11
292.485492
 21
349.336877
 31
0.0
  0
LINE
  8
LC-009-005-----0
  6
CONTINUOUS
  5
22D
 10
290.868868
 20
348.003096
 30
0.0
 11
292.485492
 21
349.619719
 31
0.0
  0
LINE
  8
LC-009-005-----0
  6
CONTINUOUS
  5
22E
 10
290.594973
 20
348.012044
 30
0.0
 11
292.485492
 21
349.902562
 31
0.0
  0
LINE
  8
LC-009-005-----0
  6
CONTINUOUS
  5
22F
 10
290.321078
 20
348.020992
 30
0.0
 11
292.485492
 21
350.185405
 31
0.0
  0
LINE
  8
LC-009-005-----0
  6
CONTINUOUS
  5
230
 10
290.047183
 20
348.029939
 30
0.0
 11
292.485492
 21
350.468248
 31
0.0
  0
LINE
  8
LC-009-005-----0
  6
CONTINUOUS
  5
231
 10
289.773288
 20
348.038887
 30
0.0
 11
292.485492
 21
350.75109
 31
0.0
  0
LINE
  8
LC-009-005-----0
  6
CONTINUOUS
  5
232
 10
289.499393
 20
348.047835
 30
0.0
 11
292.406038
 21
350.95448
 31
0.0
  0
LINE
  8
LC-009-005-----0
  6
CONTINUOUS
  5
233
 10
289.225498
 20
348.056782
 30
0.0
 11
292.132143
 21
350.963427
 31
0.0
  0
LINE
  8
LC-009-005-----0
  6
CONTINUOUS
  5
234
 10
288.951603
 20
348.06573
 30
0.0
 11
291.858248
 21
350.972375
 31
0.0
  0
LINE
  8
LC-009-005-----0
  6
CONTINUOUS
  5
235
 10
288.677708
 20
348.074678
 30
0.0
 11
291.584353
 21
350.981323
 31
0.0
  0
LINE
  8
LC-009-005-----0
  6
CONTINUOUS
  5
236
 10
288.403813
 20
348.083626
 30
0.0
 11
291.310458
 21
350.990271
 31
0.0
  0
LINE
  8
LC-009-005-----0
  6
CONTINUOUS
  5
237
 10
288.129918
 20
348.092573
 30
0.0
 11
291.036563
 21
350.999218
 31
0.0
  0
LINE
  8
LC-009-005-----0
  6
CONTINUOUS
  5
238
 10
287.856023
 20
348.101521
 30
0.0
 11
290.762668
 21
351.008166
 31
0.0
  0
LINE
  8
LC-009-005-----0
  6
CONTINUOUS
  5
239
 10
287.582128
 20
348.110469
 30
0.0
 11
290.488773
 21
351.017114
 31
0.0
  0
LINE
  8
LC-009-005-----0
  6
CONTINUOUS
  5
23A
 10
287.485492
 20
348.296675
 30
0.0
 11
290.214878
 21
351.026061
 31
0.0
  0
LINE
  8
LC-009-005-----0
  6
CONTINUOUS
  5
23B
 10
287.485492
 20
348.579517
 30
0.0
 11
289.940983
 21
351.035009
 31
0.0
  0
LINE
  8
LC-009-005-----0
  6
CONTINUOUS
  5
23C
 10
287.485492
 20
348.86236
 30
0.0
 11
289.667088
 21
351.043957
 31
0.0
  0
LINE
  8
LC-009-005-----0
  6
CONTINUOUS
  5
23D
 10
287.485492
 20
349.145203
 30
0.0
 11
289.393193
 21
351.052905
 31
0.0
  0
LINE
  8
LC-009-005-----0
  6
CONTINUOUS
  5
23E
 10
287.485492
 20
349.428046
 30
0.0
 11
289.119298
 21
351.061852
 31
0.0
  0
LINE
  8
LC-009-005-----0
  6
CONTINUOUS
  5
23F
 10
287.485492
 20
349.710888
 30
0.0
 11
288.845403
 21
351.0708
 31
0.0
  0
LINE
  8
LC-009-005-----0
  6
CONTINUOUS
  5
240
 10
287.485492
 20
349.993731
 30
0.0
 11
288.571508
 21
351.079748
 31
0.0
  0
LINE
  8
LC-009-005-----0
  6
CONTINUOUS
  5
241
 10
287.485492
 20
350.276574
 30
0.0
 11
288.297613
 21
351.088695
 31
0.0
  0
LINE
  8
LC-009-005-----0
  6
CONTINUOUS
  5
242
 10
287.485492
 20
350.559416
 30
0.0
 11
288.023718
 21
351.097643
 31
0.0
  0
LINE
  8
LC-009-005-----0
  6
CONTINUOUS
  5
243
 10
287.485492
 20
350.842259
 30
0.0
 11
287.749823
 21
351.106591
 31
0.0
  0
ENDBLK
  8
0
  5
244
  0
BLOCK
  8
0
  5
246
  2
BLK4
 70
    64
 10
0.0
 20
0.0
 30
0.0
  3
BLK4
  0
ENDBLK
  8
0
  5
247
  0
BLOCK
  8
0
  5
249
  2
*X22
 70
    65
 10
315.050645
 20
344.668001
 30
0.0
  3
*X22
  0
LINE
  8
LC-009-005-----0
  6
CONTINUOUS
  5
24A
 10
342.039549
 20
344.867976
 30
0.0
 11
343.219638
 21
346.048065
 31
0.0
  0
LINE
  8
LC-009-005-----0
  6
CONTINUOUS
  5
24B
 10
340.735988
 20
344.978629
 30
0.0
 11
341.325329
 21
345.56797
 31
0.0
  0
LINE
  8
LC-009-005-----0
  6
CONTINUOUS
  5
24C
 10
341.925333
 20
346.167974
 30
0.0
 11
342.568451
 21
346.811092
 31
0.0
  0
LINE
  8
LC-009-005-----0
  6
CONTINUOUS
  5
24D
 10
340.511111
 20
346.167965
 30
0.0
 11
341.211115
 21
346.867969
 31
0.0
  0
LINE
  8
LC-009-005-----0
  6
CONTINUOUS
  5
24E
 10
339.096888
 20
346.167956
 30
0.0
 11
339.796893
 21
346.86796
 31
0.0
  0
LINE
  8
LC-009-005-----0
  6
CONTINUOUS
  5
24F
 10
337.682666
 20
346.167947
 30
0.0
 11
338.38267
 21
346.867952
 31
0.0
  0
LINE
  8
LC-009-005-----0
  6
CONTINUOUS
  5
250
 10
336.678189
 20
346.577684
 30
0.0
 11
337.178189
 21
347.077684
 31
0.0
  0
LINE
  8
LC-009-005-----0
  6
CONTINUOUS
  5
251
 10
335.854227
 20
347.167936
 30
0.0
 11
336.501655
 21
347.815363
 31
0.0
  0
LINE
  8
LC-009-005-----0
  6
CONTINUOUS
  5
252
 10
334.440005
 20
347.167927
 30
0.0
 11
335.140009
 21
347.867931
 31
0.0
  0
LINE
  8
LC-009-005-----0
  6
CONTINUOUS
  5
253
 10
325.95467
 20
347.167874
 30
0.0
 11
326.485496
 21
347.698699
 31
0.0
  0
LINE
  8
LC-009-005-----0
  6
CONTINUOUS
  5
254
 10
322.040595
 20
344.668012
 30
0.0
 11
325.24026
 21
347.867677
 31
0.0
  0
LINE
  8
LC-009-005-----0
  6
CONTINUOUS
  5
255
 10
320.626378
 20
344.668008
 30
0.0
 11
321.326379
 21
345.36801
 31
0.0
  0
LINE
  8
LC-009-005-----0
  6
CONTINUOUS
  5
256
 10
319.212161
 20
344.668005
 30
0.0
 11
319.912163
 21
345.368007
 31
0.0
  0
LINE
  8
LC-009-005-----0
  6
CONTINUOUS
  5
257
 10
317.807789
 20
344.677847
 30
0.0
 11
318.497946
 21
345.368004
 31
0.0
  0
LINE
  8
LC-009-005-----0
  6
CONTINUOUS
  5
258
 10
316.703305
 20
344.987576
 30
0.0
 11
317.234392
 21
345.518663
 31
0.0
  0
LINE
  8
LC-009-005-----0
  6
CONTINUOUS
  5
259
 10
315.889148
 20
345.587633
 30
0.0
 11
316.387231
 21
346.085716
 31
0.0
  0
LINE
  8
LC-009-005-----0
  6
CONTINUOUS
  5
25A
 10
315.317782
 20
346.43048
 30
0.0
 11
315.555312
 21
346.66801
 31
0.0
  0
ENDBLK
  8
0
  5
25B
  0
BLOCK
  8
0
  5
25D
  2
BLK5
 70
    64
 10
0.0
 20
0.0
 30
0.0
  3
BLK5
  0
ENDBLK
  8
0
  5
25E
  0
BLOCK
  8
0
  5
260
  2
*X24
 70
    65
 10
597.98647
 20
348.162313
 30
0.0
  3
*X24
  0
LINE
  8
LC-009-005-----0
  6
CONTINUOUS
  5
261
 10
600.175169
 20
348.162313
 30
0.0
 11
600.235981
 21
348.223124
 31
0.0
  0
LINE
  8
LC-009-005-----0
  6
CONTINUOUS
  5
262
 10
599.892327
 20
348.162313
 30
0.0
 11
600.235981
 21
348.505967
 31
0.0
  0
LINE
  8
LC-009-005-----0
  6
CONTINUOUS
  5
263
 10
599.609484
 20
348.162313
 30
0.0
 11
600.235981
 21
348.78881
 31
0.0
  0
LINE
  8
LC-009-005-----0
  6
CONTINUOUS
  5
264
 10
599.326641
 20
348.162313
 30
0.0
 11
600.235981
 21
349.071652
 31
0.0
  0
LINE
  8
LC-009-005-----0
  6
CONTINUOUS
  5
265
 10
599.043798
 20
348.162313
 30
0.0
 11
600.235981
 21
349.354495
 31
0.0
  0
LINE
  8
LC-009-005-----0
  6
CONTINUOUS
  5
266
 10
598.760956
 20
348.162313
 30
0.0
 11
600.235981
 21
349.637338
 31
0.0
  0
LINE
  8
LC-009-005-----0
  6
CONTINUOUS
  5
267
 10
598.478113
 20
348.162313
 30
0.0
 11
600.235981
 21
349.92018
 31
0.0
  0
LINE
  8
LC-009-005-----0
  6
CONTINUOUS
  5
268
 10
598.19527
 20
348.162313
 30
0.0
 11
600.235981
 21
350.203023
 31
0.0
  0
LINE
  8
LC-009-005-----0
  6
CONTINUOUS
  5
269
 10
597.98647
 20
348.236355
 30
0.0
 11
600.235981
 21
350.485866
 31
0.0
  0
LINE
  8
LC-009-005-----0
  6
CONTINUOUS
  5
26A
 10
597.98647
 20
348.519198
 30
0.0
 11
600.235981
 21
350.768709
 31
0.0
  0
LINE
  8
LC-009-005-----0
  6
CONTINUOUS
  5
26B
 10
597.98647
 20
348.802041
 30
0.0
 11
600.235981
 21
351.051551
 31
0.0
  0
LINE
  8
LC-009-005-----0
  6
CONTINUOUS
  5
26C
 10
597.98647
 20
349.084883
 30
0.0
 11
600.063899
 21
351.162313
 31
0.0
  0
LINE
  8
LC-009-005-----0
  6
CONTINUOUS
  5
26D
 10
597.98647
 20
349.367726
 30
0.0
 11
599.781057
 21
351.162313
 31
0.0
  0
LINE
  8
LC-009-005-----0
  6
CONTINUOUS
  5
26E
 10
597.98647
 20
349.650569
 30
0.0
 11
599.498214
 21
351.162313
 31
0.0
  0
LINE
  8
LC-009-005-----0
  6
CONTINUOUS
  5
26F
 10
597.98647
 20
349.933412
 30
0.0
 11
599.215371
 21
351.162313
 31
0.0
  0
LINE
  8
LC-009-005-----0
  6
CONTINUOUS
  5
270
 10
597.98647
 20
350.216254
 30
0.0
 11
598.932529
 21
351.162313
 31
0.0
  0
LINE
  8
LC-009-005-----0
  6
CONTINUOUS
  5
271
 10
597.98647
 20
350.499097
 30
0.0
 11
598.649686
 21
351.162313
 31
0.0
  0
LINE
  8
LC-009-005-----0
  6
CONTINUOUS
  5
272
 10
597.98647
 20
350.78194
 30
0.0
 11
598.366843
 21
351.162313
 31
0.0
  0
LINE
  8
LC-009-005-----0
  6
CONTINUOUS
  5
273
 10
597.98647
 20
351.064782
 30
0.0
 11
598.084
 21
351.162313
 31
0.0
  0
ENDBLK
  8
0
  5
274
  0
BLOCK
  8
0
  5
276
  2
*X25
 70
    65
 10
587.98647
 20
348.162313
 30
0.0
  3
*X25
  0
LINE
  8
LC-009-005-----0
  6
CONTINUOUS
  5
277
 10
592.821259
 20
348.162313
 30
0.0
 11
592.98647
 21
348.327524
 31
0.0
  0
LINE
  8
LC-009-005-----0
  6
CONTINUOUS
  5
278
 10
592.538416
 20
348.162313
 30
0.0
 11
592.98647
 21
348.610367
 31
0.0
  0
LINE
  8
LC-009-005-----0
  6
CONTINUOUS
  5
279
 10
592.255573
 20
348.162313
 30
0.0
 11
592.98647
 21
348.893209
 31
0.0
  0
LINE
  8
LC-009-005-----0
  6
CONTINUOUS
  5
27A
 10
591.972731
 20
348.162313
 30
0.0
 11
592.98647
 21
349.176052
 31
0.0
  0
LINE
  8
LC-009-005-----0
  6
CONTINUOUS
  5
27B
 10
591.689888
 20
348.162313
 30
0.0
 11
592.98647
 21
349.458895
 31
0.0
  0
LINE
  8
LC-009-005-----0
  6
CONTINUOUS
  5
27C
 10
591.407045
 20
348.162313
 30
0.0
 11
592.98647
 21
349.741738
 31
0.0
  0
LINE
  8
LC-009-005-----0
  6
CONTINUOUS
  5
27D
 10
591.124203
 20
348.162313
 30
0.0
 11
592.98647
 21
350.02458
 31
0.0
  0
LINE
  8
LC-009-005-----0
  6
CONTINUOUS
  5
27E
 10
590.84136
 20
348.162313
 30
0.0
 11
592.98647
 21
350.307423
 31
0.0
  0
LINE
  8
LC-009-005-----0
  6
CONTINUOUS
  5
27F
 10
590.558517
 20
348.162313
 30
0.0
 11
592.98647
 21
350.590266
 31
0.0
  0
LINE
  8
LC-009-005-----0
  6
CONTINUOUS
  5
280
 10
590.275674
 20
348.162313
 30
0.0
 11
592.98647
 21
350.873108
 31
0.0
  0
LINE
  8
LC-009-005-----0
  6
CONTINUOUS
  5
281
 10
589.992832
 20
348.162313
 30
0.0
 11
592.98647
 21
351.155951
 31
0.0
  0
LINE
  8
LC-009-005-----0
  6
CONTINUOUS
  5
282
 10
589.709989
 20
348.162313
 30
0.0
 11
592.709989
 21
351.162313
 31
0.0
  0
LINE
  8
LC-009-005-----0
  6
CONTINUOUS
  5
283
 10
589.427146
 20
348.162313
 30
0.0
 11
592.427146
 21
351.162313
 31
0.0
  0
LINE
  8
LC-009-005-----0
  6
CONTINUOUS
  5
284
 10
589.144304
 20
348.162313
 30
0.0
 11
592.144304
 21
351.162313
 31
0.0
  0
LINE
  8
LC-009-005-----0
  6
CONTINUOUS
  5
285
 10
588.861461
 20
348.162313
 30
0.0
 11
591.861461
 21
351.162313
 31
0.0
  0
LINE
  8
LC-009-005-----0
  6
CONTINUOUS
  5
286
 10
588.578618
 20
348.162313
 30
0.0
 11
591.578618
 21
351.162313
 31
0.0
  0
LINE
  8
LC-009-005-----0
  6
CONTINUOUS
  5
287
 10
588.295775
 20
348.162313
 30
0.0
 11
591.295775
 21
351.162313
 31
0.0
  0
LINE
  8
LC-009-005-----0
  6
CONTINUOUS
  5
288
 10
588.012933
 20
348.162313
 30
0.0
 11
591.012933
 21
351.162313
 31
0.0
  0
LINE
  8
LC-009-005-----0
  6
CONTINUOUS
  5
289
 10
587.98647
 20
348.418693
 30
0.0
 11
590.73009
 21
351.162313
 31
0.0
  0
LINE
  8
LC-009-005-----0
  6
CONTINUOUS
  5
28A
 10
587.98647
 20
348.701536
 30
0.0
 11
590.447247
 21
351.162313
 31
0.0
  0
LINE
  8
LC-009-005-----0
  6
CONTINUOUS
  5
28B
 10
587.98647
 20
348.984378
 30
0.0
 11
590.164405
 21
351.162313
 31
0.0
  0
LINE
  8
LC-009-005-----0
  6
CONTINUOUS
  5
28C
 10
587.98647
 20
349.267221
 30
0.0
 11
589.881562
 21
351.162313
 31
0.0
  0
LINE
  8
LC-009-005-----0
  6
CONTINUOUS
  5
28D
 10
587.98647
 20
349.550064
 30
0.0
 11
589.598719
 21
351.162313
 31
0.0
  0
LINE
  8
LC-009-005-----0
  6
CONTINUOUS
  5
28E
 10
587.98647
 20
349.832906
 30
0.0
 11
589.315876
 21
351.162313
 31
0.0
  0
LINE
  8
LC-009-005-----0
  6
CONTINUOUS
  5
28F
 10
587.98647
 20
350.115749
 30
0.0
 11
589.033034
 21
351.162313
 31
0.0
  0
LINE
  8
LC-009-005-----0
  6
CONTINUOUS
  5
290
 10
587.98647
 20
350.398592
 30
0.0
 11
588.750191
 21
351.162313
 31
0.0
  0
LINE
  8
LC-009-005-----0
  6
CONTINUOUS
  5
291
 10
587.98647
 20
350.681435
 30
0.0
 11
588.467348
 21
351.162313
 31
0.0
  0
LINE
  8
LC-009-005-----0
  6
CONTINUOUS
  5
292
 10
587.98647
 20
350.964277
 30
0.0
 11
588.184506
 21
351.162313
 31
0.0
  0
ENDBLK
  8
0
  5
293
  0
BLOCK
  8
0
  5
295
  2
*X26
 70
    65
 10
577.98647
 20
348.162313
 30
0.0
  3
*X26
  0
LINE
  8
LC-009-005-----0
  6
CONTINUOUS
  5
296
 10
582.921764
 20
348.162313
 30
0.0
 11
582.98647
 21
348.227019
 31
0.0
  0
LINE
  8
LC-009-005-----0
  6
CONTINUOUS
  5
297
 10
582.638921
 20
348.162313
 30
0.0
 11
582.98647
 21
348.509862
 31
0.0
  0
LINE
  8
LC-009-005-----0
  6
CONTINUOUS
  5
298
 10
582.356078
 20
348.162313
 30
0.0
 11
582.98647
 21
348.792704
 31
0.0
  0
LINE
  8
LC-009-005-----0
  6
CONTINUOUS
  5
299
 10
582.073236
 20
348.162313
 30
0.0
 11
582.98647
 21
349.075547
 31
0.0
  0
LINE
  8
LC-009-005-----0
  6
CONTINUOUS
  5
29A
 10
581.790393
 20
348.162313
 30
0.0
 11
582.98647
 21
349.35839
 31
0.0
  0
LINE
  8
LC-009-005-----0
  6
CONTINUOUS
  5
29B
 10
581.50755
 20
348.162313
 30
0.0
 11
582.98647
 21
349.641233
 31
0.0
  0
LINE
  8
LC-009-005-----0
  6
CONTINUOUS
  5
29C
 10
581.224708
 20
348.162313
 30
0.0
 11
582.98647
 21
349.924075
 31
0.0
  0
LINE
  8
LC-009-005-----0
  6
CONTINUOUS
  5
29D
 10
580.941865
 20
348.162313
 30
0.0
 11
582.98647
 21
350.206918
 31
0.0
  0
LINE
  8
LC-009-005-----0
  6
CONTINUOUS
  5
29E
 10
580.659022
 20
348.162313
 30
0.0
 11
582.98647
 21
350.489761
 31
0.0
  0
LINE
  8
LC-009-005-----0
  6
CONTINUOUS
  5
29F
 10
580.376179
 20
348.162313
 30
0.0
 11
582.98647
 21
350.772603
 31
0.0
  0
LINE
  8
LC-009-005-----0
  6
CONTINUOUS
  5
2A0
 10
580.093337
 20
348.162313
 30
0.0
 11
582.98647
 21
351.055446
 31
0.0
  0
LINE
  8
LC-009-005-----0
  6
CONTINUOUS
  5
2A1
 10
579.810494
 20
348.162313
 30
0.0
 11
582.810494
 21
351.162313
 31
0.0
  0
LINE
  8
LC-009-005-----0
  6
CONTINUOUS
  5
2A2
 10
579.527651
 20
348.162313
 30
0.0
 11
582.527651
 21
351.162313
 31
0.0
  0
LINE
  8
LC-009-005-----0
  6
CONTINUOUS
  5
2A3
 10
579.244809
 20
348.162313
 30
0.0
 11
582.244809
 21
351.162313
 31
0.0
  0
LINE
  8
LC-009-005-----0
  6
CONTINUOUS
  5
2A4
 10
578.961966
 20
348.162313
 30
0.0
 11
581.961966
 21
351.162313
 31
0.0
  0
LINE
  8
LC-009-005-----0
  6
CONTINUOUS
  5
2A5
 10
578.679123
 20
348.162313
 30
0.0
 11
581.679123
 21
351.162313
 31
0.0
  0
LINE
  8
LC-009-005-----0
  6
CONTINUOUS
  5
2A6
 10
578.39628
 20
348.162313
 30
0.0
 11
581.39628
 21
351.162313
 31
0.0
  0
LINE
  8
LC-009-005-----0
  6
CONTINUOUS
  5
2A7
 10
578.113438
 20
348.162313
 30
0.0
 11
581.113438
 21
351.162313
 31
0.0
  0
LINE
  8
LC-009-005-----0
  6
CONTINUOUS
  5
2A8
 10
577.98647
 20
348.318188
 30
0.0
 11
580.830595
 21
351.162313
 31
0.0
  0
LINE
  8
LC-009-005-----0
  6
CONTINUOUS
  5
2A9
 10
577.98647
 20
348.601031
 30
0.0
 11
580.547752
 21
351.162313
 31
0.0
  0
LINE
  8
LC-009-005-----0
  6
CONTINUOUS
  5
2AA
 10
577.98647
 20
348.883873
 30
0.0
 11
580.26491
 21
351.162313
 31
0.0
  0
LINE
  8
LC-009-005-----0
  6
CONTINUOUS
  5
2AB
 10
577.98647
 20
349.166716
 30
0.0
 11
579.982067
 21
351.162313
 31
0.0
  0
LINE
  8
LC-009-005-----0
  6
CONTINUOUS
  5
2AC
 10
577.98647
 20
349.449559
 30
0.0
 11
579.699224
 21
351.162313
 31
0.0
  0
LINE
  8
LC-009-005-----0
  6
CONTINUOUS
  5
2AD
 10
577.98647
 20
349.732401
 30
0.0
 11
579.416381
 21
351.162313
 31
0.0
  0
LINE
  8
LC-009-005-----0
  6
CONTINUOUS
  5
2AE
 10
577.98647
 20
350.015244
 30
0.0
 11
579.133539
 21
351.162313
 31
0.0
  0
LINE
  8
LC-009-005-----0
  6
CONTINUOUS
  5
2AF
 10
577.98647
 20
350.298087
 30
0.0
 11
578.850696
 21
351.162313
 31
0.0
  0
LINE
  8
LC-009-005-----0
  6
CONTINUOUS
  5
2B0
 10
577.98647
 20
350.58093
 30
0.0
 11
578.567853
 21
351.162313
 31
0.0
  0
LINE
  8
LC-009-005-----0
  6
CONTINUOUS
  5
2B1
 10
577.98647
 20
350.863772
 30
0.0
 11
578.285011
 21
351.162313
 31
0.0
  0
LINE
  8
LC-009-005-----0
  6
CONTINUOUS
  5
2B2
 10
577.98647
 20
351.146615
 30
0.0
 11
578.002168
 21
351.162313
 31
0.0
  0
ENDBLK
  8
0
  5
2B3
  0
BLOCK
  8
0
  5
2B5
  2
*X27
 70
    65
 10
567.98647
 20
348.162313
 30
0.0
  3
*X27
  0
LINE
  8
LC-009-005-----0
  6
CONTINUOUS
  5
2B6
 10
572.739426
 20
348.162313
 30
0.0
 11
572.98647
 21
348.409357
 31
0.0
  0
LINE
  8
LC-009-005-----0
  6
CONTINUOUS
  5
2B7
 10
572.456583
 20
348.162313
 30
0.0
 11
572.98647
 21
348.692199
 31
0.0
  0
LINE
  8
LC-009-005-----0
  6
CONTINUOUS
  5
2B8
 10
572.173741
 20
348.162313
 30
0.0
 11
572.98647
 21
348.975042
 31
0.0
  0
LINE
  8
LC-009-005-----0
  6
CONTINUOUS
  5
2B9
 10
571.890898
 20
348.162313
 30
0.0
 11
572.98647
 21
349.257885
 31
0.0
  0
LINE
  8
LC-009-005-----0
  6
CONTINUOUS
  5
2BA
 10
571.608055
 20
348.162313
 30
0.0
 11
572.98647
 21
349.540728
 31
0.0
  0
LINE
  8
LC-009-005-----0
  6
CONTINUOUS
  5
2BB
 10
571.325213
 20
348.162313
 30
0.0
 11
572.98647
 21
349.82357
 31
0.0
  0
LINE
  8
LC-009-005-----0
  6
CONTINUOUS
  5
2BC
 10
571.04237
 20
348.162313
 30
0.0
 11
572.98647
 21
350.106413
 31
0.0
  0
LINE
  8
LC-009-005-----0
  6
CONTINUOUS
  5
2BD
 10
570.759527
 20
348.162313
 30
0.0
 11
572.98647
 21
350.389256
 31
0.0
  0
LINE
  8
LC-009-005-----0
  6
CONTINUOUS
  5
2BE
 10
570.476685
 20
348.162313
 30
0.0
 11
572.98647
 21
350.672098
 31
0.0
  0
LINE
  8
LC-009-005-----0
  6
CONTINUOUS
  5
2BF
 10
570.193842
 20
348.162313
 30
0.0
 11
572.98647
 21
350.954941
 31
0.0
  0
LINE
  8
LC-009-005-----0
  6
CONTINUOUS
  5
2C0
 10
569.910999
 20
348.162313
 30
0.0
 11
572.910999
 21
351.162313
 31
0.0
  0
LINE
  8
LC-009-005-----0
  6
CONTINUOUS
  5
2C1
 10
569.628156
 20
348.162313
 30
0.0
 11
572.628156
 21
351.162313
 31
0.0
  0
LINE
  8
LC-009-005-----0
  6
CONTINUOUS
  5
2C2
 10
569.345314
 20
348.162313
 30
0.0
 11
572.345314
 21
351.162313
 31
0.0
  0
LINE
  8
LC-009-005-----0
  6
CONTINUOUS
  5
2C3
 10
569.062471
 20
348.162313
 30
0.0
 11
572.062471
 21
351.162313
 31
0.0
  0
LINE
  8
LC-009-005-----0
  6
CONTINUOUS
  5
2C4
 10
568.779628
 20
348.162313
 30
0.0
 11
571.779628
 21
351.162313
 31
0.0
  0
LINE
  8
LC-009-005-----0
  6
CONTINUOUS
  5
2C5
 10
568.496786
 20
348.162313
 30
0.0
 11
571.496786
 21
351.162313
 31
0.0
  0
LINE
  8
LC-009-005-----0
  6
CONTINUOUS
  5
2C6
 10
568.213943
 20
348.162313
 30
0.0
 11
571.213943
 21
351.162313
 31
0.0
  0
LINE
  8
LC-009-005-----0
  6
CONTINUOUS
  5
2C7
 10
567.98647
 20
348.217683
 30
0.0
 11
570.9311
 21
351.162313
 31
0.0
  0
LINE
  8
LC-009-005-----0
  6
CONTINUOUS
  5
2C8
 10
567.98647
 20
348.500525
 30
0.0
 11
570.648257
 21
351.162313
 31
0.0
  0
LINE
  8
LC-009-005-----0
  6
CONTINUOUS
  5
2C9
 10
567.98647
 20
348.783368
 30
0.0
 11
570.365415
 21
351.162313
 31
0.0
  0
LINE
  8
LC-009-005-----0
  6
CONTINUOUS
  5
2CA
 10
567.98647
 20
349.066211
 30
0.0
 11
570.082572
 21
351.162313
 31
0.0
  0
LINE
  8
LC-009-005-----0
  6
CONTINUOUS
  5
2CB
 10
567.98647
 20
349.349054
 30
0.0
 11
569.799729
 21
351.162313
 31
0.0
  0
LINE
  8
LC-009-005-----0
  6
CONTINUOUS
  5
2CC
 10
567.98647
 20
349.631896
 30
0.0
 11
569.516887
 21
351.162313
 31
0.0
  0
LINE
  8
LC-009-005-----0
  6
CONTINUOUS
  5
2CD
 10
567.98647
 20
349.914739
 30
0.0
 11
569.234044
 21
351.162313
 31
0.0
  0
LINE
  8
LC-009-005-----0
  6
CONTINUOUS
  5
2CE
 10
567.98647
 20
350.197582
 30
0.0
 11
568.951201
 21
351.162313
 31
0.0
  0
LINE
  8
LC-009-005-----0
  6
CONTINUOUS
  5
2CF
 10
567.98647
 20
350.480424
 30
0.0
 11
568.668358
 21
351.162313
 31
0.0
  0
LINE
  8
LC-009-005-----0
  6
CONTINUOUS
  5
2D0
 10
567.98647
 20
350.763267
 30
0.0
 11
568.385516
 21
351.162313
 31
0.0
  0
LINE
  8
LC-009-005-----0
  6
CONTINUOUS
  5
2D1
 10
567.98647
 20
351.04611
 30
0.0
 11
568.102673
 21
351.162313
 31
0.0
  0
ENDBLK
  8
0
  5
2D2
  0
BLOCK
  8
0
  5
2D4
  2
*X28
 70
    65
 10
557.98647
 20
348.162313
 30
0.0
  3
*X28
  0
LINE
  8
LC-009-005-----0
  6
CONTINUOUS
  5
2D5
 10
562.839931
 20
348.162313
 30
0.0
 11
562.98647
 21
348.308852
 31
0.0
  0
LINE
  8
LC-009-005-----0
  6
CONTINUOUS
  5
2D6
 10
562.557089
 20
348.162313
 30
0.0
 11
562.98647
 21
348.591694
 31
0.0
  0
LINE
  8
LC-009-005-----0
  6
CONTINUOUS
  5
2D7
 10
562.274246
 20
348.162313
 30
0.0
 11
562.98647
 21
348.874537
 31
0.0
  0
LINE
  8
LC-009-005-----0
  6
CONTINUOUS
  5
2D8
 10
561.991403
 20
348.162313
 30
0.0
 11
562.98647
 21
349.15738
 31
0.0
  0
LINE
  8
LC-009-005-----0
  6
CONTINUOUS
  5
2D9
 10
561.70856
 20
348.162313
 30
0.0
 11
562.98647
 21
349.440222
 31
0.0
  0
LINE
  8
LC-009-005-----0
  6
CONTINUOUS
  5
2DA
 10
561.425718
 20
348.162313
 30
0.0
 11
562.98647
 21
349.723065
 31
0.0
  0
LINE
  8
LC-009-005-----0
  6
CONTINUOUS
  5
2DB
 10
561.142875
 20
348.162313
 30
0.0
 11
562.98647
 21
350.005908
 31
0.0
  0
LINE
  8
LC-009-005-----0
  6
CONTINUOUS
  5
2DC
 10
560.860032
 20
348.162313
 30
0.0
 11
562.98647
 21
350.288751
 31
0.0
  0
LINE
  8
LC-009-005-----0
  6
CONTINUOUS
  5
2DD
 10
560.57719
 20
348.162313
 30
0.0
 11
562.98647
 21
350.571593
 31
0.0
  0
LINE
  8
LC-009-005-----0
  6
CONTINUOUS
  5
2DE
 10
560.294347
 20
348.162313
 30
0.0
 11
562.98647
 21
350.854436
 31
0.0
  0
LINE
  8
LC-009-005-----0
  6
CONTINUOUS
  5
2DF
 10
560.011504
 20
348.162313
 30
0.0
 11
562.98647
 21
351.137279
 31
0.0
  0
LINE
  8
LC-009-005-----0
  6
CONTINUOUS
  5
2E0
 10
559.728661
 20
348.162313
 30
0.0
 11
562.728661
 21
351.162313
 31
0.0
  0
LINE
  8
LC-009-005-----0
  6
CONTINUOUS
  5
2E1
 10
559.445819
 20
348.162313
 30
0.0
 11
562.445819
 21
351.162313
 31
0.0
  0
LINE
  8
LC-009-005-----0
  6
CONTINUOUS
  5
2E2
 10
559.162976
 20
348.162313
 30
0.0
 11
562.162976
 21
351.162313
 31
0.0
  0
LINE
  8
LC-009-005-----0
  6
CONTINUOUS
  5
2E3
 10
558.880133
 20
348.162313
 30
0.0
 11
561.880133
 21
351.162313
 31
0.0
  0
LINE
  8
LC-009-005-----0
  6
CONTINUOUS
  5
2E4
 10
558.597291
 20
348.162313
 30
0.0
 11
561.597291
 21
351.162313
 31
0.0
  0
LINE
  8
LC-009-005-----0
  6
CONTINUOUS
  5
2E5
 10
558.314448
 20
348.162313
 30
0.0
 11
561.314448
 21
351.162313
 31
0.0
  0
LINE
  8
LC-009-005-----0
  6
CONTINUOUS
  5
2E6
 10
558.031605
 20
348.162313
 30
0.0
 11
561.031605
 21
351.162313
 31
0.0
  0
LINE
  8
LC-009-005-----0
  6
CONTINUOUS
  5
2E7
 10
557.98647
 20
348.40002
 30
0.0
 11
560.748762
 21
351.162313
 31
0.0
  0
LINE
  8
LC-009-005-----0
  6
CONTINUOUS
  5
2E8
 10
557.98647
 20
348.682863
 30
0.0
 11
560.46592
 21
351.162313
 31
0.0
  0
LINE
  8
LC-009-005-----0
  6
CONTINUOUS
  5
2E9
 10
557.98647
 20
348.965706
 30
0.0
 11
560.183077
 21
351.162313
 31
0.0
  0
LINE
  8
LC-009-005-----0
  6
CONTINUOUS
  5
2EA
 10
557.98647
 20
349.248549
 30
0.0
 11
559.900234
 21
351.162313
 31
0.0
  0
LINE
  8
LC-009-005-----0
  6
CONTINUOUS
  5
2EB
 10
557.98647
 20
349.531391
 30
0.0
 11
559.617392
 21
351.162313
 31
0.0
  0
LINE
  8
LC-009-005-----0
  6
CONTINUOUS
  5
2EC
 10
557.98647
 20
349.814234
 30
0.0
 11
559.334549
 21
351.162313
 31
0.0
  0
LINE
  8
LC-009-005-----0
  6
CONTINUOUS
  5
2ED
 10
557.98647
 20
350.097077
 30
0.0
 11
559.051706
 21
351.162313
 31
0.0
  0
LINE
  8
LC-009-005-----0
  6
CONTINUOUS
  5
2EE
 10
557.98647
 20
350.379919
 30
0.0
 11
558.768863
 21
351.162313
 31
0.0
  0
LINE
  8
LC-009-005-----0
  6
CONTINUOUS
  5
2EF
 10
557.98647
 20
350.662762
 30
0.0
 11
558.486021
 21
351.162313
 31
0.0
  0
LINE
  8
LC-009-005-----0
  6
CONTINUOUS
  5
2F0
 10
557.98647
 20
350.945605
 30
0.0
 11
558.203178
 21
351.162313
 31
0.0
  0
ENDBLK
  8
0
  5
2F1
  0
BLOCK
  8
0
  5
2F3
  2
*X29
 70
    65
 10
547.98647
 20
348.162313
 30
0.0
  3
*X29
  0
LINE
  8
LC-009-005-----0
  6
CONTINUOUS
  5
2F4
 10
552.940436
 20
348.162313
 30
0.0
 11
552.98647
 21
348.208347
 31
0.0
  0
LINE
  8
LC-009-005-----0
  6
CONTINUOUS
  5
2F5
 10
552.657594
 20
348.162313
 30
0.0
 11
552.98647
 21
348.491189
 31
0.0
  0
LINE
  8
LC-009-005-----0
  6
CONTINUOUS
  5
2F6
 10
552.374751
 20
348.162313
 30
0.0
 11
552.98647
 21
348.774032
 31
0.0
  0
LINE
  8
LC-009-005-----0
  6
CONTINUOUS
  5
2F7
 10
552.091908
 20
348.162313
 30
0.0
 11
552.98647
 21
349.056875
 31
0.0
  0
LINE
  8
LC-009-005-----0
  6
CONTINUOUS
  5
2F8
 10
551.809065
 20
348.162313
 30
0.0
 11
552.98647
 21
349.339717
 31
0.0
  0
LINE
  8
LC-009-005-----0
  6
CONTINUOUS
  5
2F9
 10
551.526223
 20
348.162313
 30
0.0
 11
552.98647
 21
349.62256
 31
0.0
  0
LINE
  8
LC-009-005-----0
  6
CONTINUOUS
  5
2FA
 10
551.24338
 20
348.162313
 30
0.0
 11
552.98647
 21
349.905403
 31
0.0
  0
LINE
  8
LC-009-005-----0
  6
CONTINUOUS
  5
2FB
 10
550.960537
 20
348.162313
 30
0.0
 11
552.98647
 21
350.188246
 31
0.0
  0
LINE
  8
LC-009-005-----0
  6
CONTINUOUS
  5
2FC
 10
550.677695
 20
348.162313
 30
0.0
 11
552.98647
 21
350.471088
 31
0.0
  0
LINE
  8
LC-009-005-----0
  6
CONTINUOUS
  5
2FD
 10
550.394852
 20
348.162313
 30
0.0
 11
552.98647
 21
350.753931
 31
0.0
  0
LINE
  8
LC-009-005-----0
  6
CONTINUOUS
  5
2FE
 10
550.112009
 20
348.162313
 30
0.0
 11
552.98647
 21
351.036774
 31
0.0
  0
LINE
  8
LC-009-005-----0
  6
CONTINUOUS
  5
2FF
 10
549.829166
 20
348.162313
 30
0.0
 11
552.829166
 21
351.162313
 31
0.0
  0
LINE
  8
LC-009-005-----0
  6
CONTINUOUS
  5
300
 10
549.546324
 20
348.162313
 30
0.0
 11
552.546324
 21
351.162313
 31
0.0
  0
LINE
  8
LC-009-005-----0
  6
CONTINUOUS
  5
301
 10
549.263481
 20
348.162313
 30
0.0
 11
552.263481
 21
351.162313
 31
0.0
  0
LINE
  8
LC-009-005-----0
  6
CONTINUOUS
  5
302
 10
548.980638
 20
348.162313
 30
0.0
 11
551.980638
 21
351.162313
 31
0.0
  0
LINE
  8
LC-009-005-----0
  6
CONTINUOUS
  5
303
 10
548.697796
 20
348.162313
 30
0.0
 11
551.697796
 21
351.162313
 31
0.0
  0
LINE
  8
LC-009-005-----0
  6
CONTINUOUS
  5
304
 10
548.414953
 20
348.162313
 30
0.0
 11
551.414953
 21
351.162313
 31
0.0
  0
LINE
  8
LC-009-005-----0
  6
CONTINUOUS
  5
305
 10
548.13211
 20
348.162313
 30
0.0
 11
551.13211
 21
351.162313
 31
0.0
  0
LINE
  8
LC-009-005-----0
  6
CONTINUOUS
  5
306
 10
547.98647
 20
348.299515
 30
0.0
 11
550.849268
 21
351.162313
 31
0.0
  0
LINE
  8
LC-009-005-----0
  6
CONTINUOUS
  5
307
 10
547.98647
 20
348.582358
 30
0.0
 11
550.566425
 21
351.162313
 31
0.0
  0
LINE
  8
LC-009-005-----0
  6
CONTINUOUS
  5
308
 10
547.98647
 20
348.865201
 30
0.0
 11
550.283582
 21
351.162313
 31
0.0
  0
LINE
  8
LC-009-005-----0
  6
CONTINUOUS
  5
309
 10
547.98647
 20
349.148043
 30
0.0
 11
550.000739
 21
351.162313
 31
0.0
  0
LINE
  8
LC-009-005-----0
  6
CONTINUOUS
  5
30A
 10
547.98647
 20
349.430886
 30
0.0
 11
549.717897
 21
351.162313
 31
0.0
  0
LINE
  8
LC-009-005-----0
  6
CONTINUOUS
  5
30B
 10
547.98647
 20
349.713729
 30
0.0
 11
549.435054
 21
351.162313
 31
0.0
  0
LINE
  8
LC-009-005-----0
  6
CONTINUOUS
  5
30C
 10
547.98647
 20
349.996572
 30
0.0
 11
549.152211
 21
351.162313
 31
0.0
  0
LINE
  8
LC-009-005-----0
  6
CONTINUOUS
  5
30D
 10
547.98647
 20
350.279414
 30
0.0
 11
548.869369
 21
351.162313
 31
0.0
  0
LINE
  8
LC-009-005-----0
  6
CONTINUOUS
  5
30E
 10
547.98647
 20
350.562257
 30
0.0
 11
548.586526
 21
351.162313
 31
0.0
  0
LINE
  8
LC-009-005-----0
  6
CONTINUOUS
  5
30F
 10
547.98647
 20
350.8451
 30
0.0
 11
548.303683
 21
351.162313
 31
0.0
  0
LINE
  8
LC-009-005-----0
  6
CONTINUOUS
  5
310
 10
547.98647
 20
351.127942
 30
0.0
 11
548.02084
 21
351.162313
 31
0.0
  0
ENDBLK
  8
0
  5
311
  0
BLOCK
  8
0
  5
313
  2
*X30
 70
    65
 10
537.98647
 20
348.162313
 30
0.0
  3
*X30
  0
LINE
  8
LC-009-005-----0
  6
CONTINUOUS
  5
314
 10
542.758099
 20
348.162313
 30
0.0
 11
542.98647
 21
348.390684
 31
0.0
  0
LINE
  8
LC-009-005-----0
  6
CONTINUOUS
  5
315
 10
542.475256
 20
348.162313
 30
0.0
 11
542.98647
 21
348.673527
 31
0.0
  0
LINE
  8
LC-009-005-----0
  6
CONTINUOUS
  5
316
 10
542.192413
 20
348.162313
 30
0.0
 11
542.98647
 21
348.95637
 31
0.0
  0
LINE
  8
LC-009-005-----0
  6
CONTINUOUS
  5
317
 10
541.909571
 20
348.162313
 30
0.0
 11
542.98647
 21
349.239212
 31
0.0
  0
LINE
  8
LC-009-005-----0
  6
CONTINUOUS
  5
318
 10
541.626728
 20
348.162313
 30
0.0
 11
542.98647
 21
349.522055
 31
0.0
  0
LINE
  8
LC-009-005-----0
  6
CONTINUOUS
  5
319
 10
541.343885
 20
348.162313
 30
0.0
 11
542.98647
 21
349.804898
 31
0.0
  0
LINE
  8
LC-009-005-----0
  6
CONTINUOUS
  5
31A
 10
541.061042
 20
348.162313
 30
0.0
 11
542.98647
 21
350.08774
 31
0.0
  0
LINE
  8
LC-009-005-----0
  6
CONTINUOUS
  5
31B
 10
540.7782
 20
348.162313
 30
0.0
 11
542.98647
 21
350.370583
 31
0.0
  0
LINE
  8
LC-009-005-----0
  6
CONTINUOUS
  5
31C
 10
540.495357
 20
348.162313
 30
0.0
 11
542.98647
 21
350.653426
 31
0.0
  0
LINE
  8
LC-009-005-----0
  6
CONTINUOUS
  5
31D
 10
540.212514
 20
348.162313
 30
0.0
 11
542.98647
 21
350.936269
 31
0.0
  0
LINE
  8
LC-009-005-----0
  6
CONTINUOUS
  5
31E
 10
539.929672
 20
348.162313
 30
0.0
 11
542.929672
 21
351.162313
 31
0.0
  0
LINE
  8
LC-009-005-----0
  6
CONTINUOUS
  5
31F
 10
539.646829
 20
348.162313
 30
0.0
 11
542.646829
 21
351.162313
 31
0.0
  0
LINE
  8
LC-009-005-----0
  6
CONTINUOUS
  5
320
 10
539.363986
 20
348.162313
 30
0.0
 11
542.363986
 21
351.162313
 31
0.0
  0
LINE
  8
LC-009-005-----0
  6
CONTINUOUS
  5
321
 10
539.081143
 20
348.162313
 30
0.0
 11
542.081143
 21
351.162313
 31
0.0
  0
LINE
  8
LC-009-005-----0
  6
CONTINUOUS
  5
322
 10
538.798301
 20
348.162313
 30
0.0
 11
541.798301
 21
351.162313
 31
0.0
  0
LINE
  8
LC-009-005-----0
  6
CONTINUOUS
  5
323
 10
538.515458
 20
348.162313
 30
0.0
 11
541.515458
 21
351.162313
 31
0.0
  0
LINE
  8
LC-009-005-----0
  6
CONTINUOUS
  5
324
 10
538.232615
 20
348.162313
 30
0.0
 11
541.232615
 21
351.162313
 31
0.0
  0
LINE
  8
LC-009-005-----0
  6
CONTINUOUS
  5
325
 10
537.98647
 20
348.19901
 30
0.0
 11
540.949773
 21
351.162313
 31
0.0
  0
LINE
  8
LC-009-005-----0
  6
CONTINUOUS
  5
326
 10
537.98647
 20
348.481853
 30
0.0
 11
540.66693
 21
351.162313
 31
0.0
  0
LINE
  8
LC-009-005-----0
  6
CONTINUOUS
  5
327
 10
537.98647
 20
348.764696
 30
0.0
 11
540.384087
 21
351.162313
 31
0.0
  0
LINE
  8
LC-009-005-----0
  6
CONTINUOUS
  5
328
 10
537.98647
 20
349.047538
 30
0.0
 11
540.101244
 21
351.162313
 31
0.0
  0
LINE
  8
LC-009-005-----0
  6
CONTINUOUS
  5
329
 10
537.98647
 20
349.330381
 30
0.0
 11
539.818402
 21
351.162313
 31
0.0
  0
LINE
  8
LC-009-005-----0
  6
CONTINUOUS
  5
32A
 10
537.98647
 20
349.613224
 30
0.0
 11
539.535559
 21
351.162313
 31
0.0
  0
LINE
  8
LC-009-005-----0
  6
CONTINUOUS
  5
32B
 10
537.98647
 20
349.896067
 30
0.0
 11
539.252716
 21
351.162313
 31
0.0
  0
LINE
  8
LC-009-005-----0
  6
CONTINUOUS
  5
32C
 10
537.98647
 20
350.178909
 30
0.0
 11
538.969874
 21
351.162313
 31
0.0
  0
LINE
  8
LC-009-005-----0
  6
CONTINUOUS
  5
32D
 10
537.98647
 20
350.461752
 30
0.0
 11
538.687031
 21
351.162313
 31
0.0
  0
LINE
  8
LC-009-005-----0
  6
CONTINUOUS
  5
32E
 10
537.98647
 20
350.744595
 30
0.0
 11
538.404188
 21
351.162313
 31
0.0
  0
LINE
  8
LC-009-005-----0
  6
CONTINUOUS
  5
32F
 10
537.98647
 20
351.027437
 30
0.0
 11
538.121345
 21
351.162313
 31
0.0
  0
ENDBLK
  8
0
  5
330
  0
BLOCK
  8
0
  5
332
  2
*X31
 70
    65
 10
527.98647
 20
348.162313
 30
0.0
  3
*X31
  0
LINE
  8
LC-009-005-----0
  6
CONTINUOUS
  5
333
 10
532.858604
 20
348.162313
 30
0.0
 11
532.98647
 21
348.290179
 31
0.0
  0
LINE
  8
LC-009-005-----0
  6
CONTINUOUS
  5
334
 10
532.575761
 20
348.162313
 30
0.0
 11
532.98647
 21
348.573022
 31
0.0
  0
LINE
  8
LC-009-005-----0
  6
CONTINUOUS
  5
335
 10
532.292918
 20
348.162313
 30
0.0
 11
532.98647
 21
348.855865
 31
0.0
  0
LINE
  8
LC-009-005-----0
  6
CONTINUOUS
  5
336
 10
532.010076
 20
348.162313
 30
0.0
 11
532.98647
 21
349.138707
 31
0.0
  0
LINE
  8
LC-009-005-----0
  6
CONTINUOUS
  5
337
 10
531.727233
 20
348.162313
 30
0.0
 11
532.98647
 21
349.42155
 31
0.0
  0
LINE
  8
LC-009-005-----0
  6
CONTINUOUS
  5
338
 10
531.44439
 20
348.162313
 30
0.0
 11
532.98647
 21
349.704393
 31
0.0
  0
LINE
  8
LC-009-005-----0
  6
CONTINUOUS
  5
339
 10
531.161547
 20
348.162313
 30
0.0
 11
532.98647
 21
349.987235
 31
0.0
  0
LINE
  8
LC-009-005-----0
  6
CONTINUOUS
  5
33A
 10
530.878705
 20
348.162313
 30
0.0
 11
532.98647
 21
350.270078
 31
0.0
  0
LINE
  8
LC-009-005-----0
  6
CONTINUOUS
  5
33B
 10
530.595862
 20
348.162313
 30
0.0
 11
532.98647
 21
350.552921
 31
0.0
  0
LINE
  8
LC-009-005-----0
  6
CONTINUOUS
  5
33C
 10
530.313019
 20
348.162313
 30
0.0
 11
532.98647
 21
350.835764
 31
0.0
  0
LINE
  8
LC-009-005-----0
  6
CONTINUOUS
  5
33D
 10
530.030177
 20
348.162313
 30
0.0
 11
532.98647
 21
351.118606
 31
0.0
  0
LINE
  8
LC-009-005-----0
  6
CONTINUOUS
  5
33E
 10
529.747334
 20
348.162313
 30
0.0
 11
532.747334
 21
351.162313
 31
0.0
  0
LINE
  8
LC-009-005-----0
  6
CONTINUOUS
  5
33F
 10
529.464491
 20
348.162313
 30
0.0
 11
532.464491
 21
351.162313
 31
0.0
  0
LINE
  8
LC-009-005-----0
  6
CONTINUOUS
  5
340
 10
529.181648
 20
348.162313
 30
0.0
 11
532.181648
 21
351.162313
 31
0.0
  0
LINE
  8
LC-009-005-----0
  6
CONTINUOUS
  5
341
 10
528.898806
 20
348.162313
 30
0.0
 11
531.898806
 21
351.162313
 31
0.0
  0
LINE
  8
LC-009-005-----0
  6
CONTINUOUS
  5
342
 10
528.615963
 20
348.162313
 30
0.0
 11
531.615963
 21
351.162313
 31
0.0
  0
LINE
  8
LC-009-005-----0
  6
CONTINUOUS
  5
343
 10
528.33312
 20
348.162313
 30
0.0
 11
531.33312
 21
351.162313
 31
0.0
  0
LINE
  8
LC-009-005-----0
  6
CONTINUOUS
  5
344
 10
528.050278
 20
348.162313
 30
0.0
 11
531.050278
 21
351.162313
 31
0.0
  0
LINE
  8
LC-009-005-----0
  6
CONTINUOUS
  5
345
 10
527.98647
 20
348.381348
 30
0.0
 11
530.767435
 21
351.162313
 31
0.0
  0
LINE
  8
LC-009-005-----0
  6
CONTINUOUS
  5
346
 10
527.98647
 20
348.664191
 30
0.0
 11
530.484592
 21
351.162313
 31
0.0
  0
LINE
  8
LC-009-005-----0
  6
CONTINUOUS
  5
347
 10
527.98647
 20
348.947033
 30
0.0
 11
530.201749
 21
351.162313
 31
0.0
  0
LINE
  8
LC-009-005-----0
  6
CONTINUOUS
  5
348
 10
527.98647
 20
349.229876
 30
0.0
 11
529.918907
 21
351.162313
 31
0.0
  0
LINE
  8
LC-009-005-----0
  6
CONTINUOUS
  5
349
 10
527.98647
 20
349.512719
 30
0.0
 11
529.636064
 21
351.162313
 31
0.0
  0
LINE
  8
LC-009-005-----0
  6
CONTINUOUS
  5
34A
 10
527.98647
 20
349.795561
 30
0.0
 11
529.353221
 21
351.162313
 31
0.0
  0
LINE
  8
LC-009-005-----0
  6
CONTINUOUS
  5
34B
 10
527.98647
 20
350.078404
 30
0.0
 11
529.070379
 21
351.162313
 31
0.0
  0
LINE
  8
LC-009-005-----0
  6
CONTINUOUS
  5
34C
 10
527.98647
 20
350.361247
 30
0.0
 11
528.787536
 21
351.162313
 31
0.0
  0
LINE
  8
LC-009-005-----0
  6
CONTINUOUS
  5
34D
 10
527.98647
 20
350.64409
 30
0.0
 11
528.504693
 21
351.162313
 31
0.0
  0
LINE
  8
LC-009-005-----0
  6
CONTINUOUS
  5
34E
 10
527.98647
 20
350.926932
 30
0.0
 11
528.221851
 21
351.162313
 31
0.0
  0
ENDBLK
  8
0
  5
34F
  0
BLOCK
  8
0
  5
351
  2
*X32
 70
    65
 10
517.98647
 20
348.162313
 30
0.0
  3
*X32
  0
LINE
  8
LC-009-005-----0
  6
CONTINUOUS
  5
352
 10
522.959109
 20
348.162313
 30
0.0
 11
522.98647
 21
348.189674
 31
0.0
  0
LINE
  8
LC-009-005-----0
  6
CONTINUOUS
  5
353
 10
522.676266
 20
348.162313
 30
0.0
 11
522.98647
 21
348.472517
 31
0.0
  0
LINE
  8
LC-009-005-----0
  6
CONTINUOUS
  5
354
 10
522.393423
 20
348.162313
 30
0.0
 11
522.98647
 21
348.755359
 31
0.0
  0
LINE
  8
LC-009-005-----0
  6
CONTINUOUS
  5
355
 10
522.110581
 20
348.162313
 30
0.0
 11
522.98647
 21
349.038202
 31
0.0
  0
LINE
  8
LC-009-005-----0
  6
CONTINUOUS
  5
356
 10
521.827738
 20
348.162313
 30
0.0
 11
522.98647
 21
349.321045
 31
0.0
  0
LINE
  8
LC-009-005-----0
  6
CONTINUOUS
  5
357
 10
521.544895
 20
348.162313
 30
0.0
 11
522.98647
 21
349.603888
 31
0.0
  0
LINE
  8
LC-009-005-----0
  6
CONTINUOUS
  5
358
 10
521.262053
 20
348.162313
 30
0.0
 11
522.98647
 21
349.88673
 31
0.0
  0
LINE
  8
LC-009-005-----0
  6
CONTINUOUS
  5
359
 10
520.97921
 20
348.162313
 30
0.0
 11
522.98647
 21
350.169573
 31
0.0
  0
LINE
  8
LC-009-005-----0
  6
CONTINUOUS
  5
35A
 10
520.696367
 20
348.162313
 30
0.0
 11
522.98647
 21
350.452416
 31
0.0
  0
LINE
  8
LC-009-005-----0
  6
CONTINUOUS
  5
35B
 10
520.413524
 20
348.162313
 30
0.0
 11
522.98647
 21
350.735258
 31
0.0
  0
LINE
  8
LC-009-005-----0
  6
CONTINUOUS
  5
35C
 10
520.130682
 20
348.162313
 30
0.0
 11
522.98647
 21
351.018101
 31
0.0
  0
LINE
  8
LC-009-005-----0
  6
CONTINUOUS
  5
35D
 10
519.847839
 20
348.162313
 30
0.0
 11
522.847839
 21
351.162313
 31
0.0
  0
LINE
  8
LC-009-005-----0
  6
CONTINUOUS
  5
35E
 10
519.564996
 20
348.162313
 30
0.0
 11
522.564996
 21
351.162313
 31
0.0
  0
LINE
  8
LC-009-005-----0
  6
CONTINUOUS
  5
35F
 10
519.282154
 20
348.162313
 30
0.0
 11
522.282154
 21
351.162313
 31
0.0
  0
LINE
  8
LC-009-005-----0
  6
CONTINUOUS
  5
360
 10
518.999311
 20
348.162313
 30
0.0
 11
521.999311
 21
351.162313
 31
0.0
  0
LINE
  8
LC-009-005-----0
  6
CONTINUOUS
  5
361
 10
518.716468
 20
348.162313
 30
0.0
 11
521.716468
 21
351.162313
 31
0.0
  0
LINE
  8
LC-009-005-----0
  6
CONTINUOUS
  5
362
 10
518.433625
 20
348.162313
 30
0.0
 11
521.433625
 21
351.162313
 31
0.0
  0
LINE
  8
LC-009-005-----0
  6
CONTINUOUS
  5
363
 10
518.150783
 20
348.162313
 30
0.0
 11
521.150783
 21
351.162313
 31
0.0
  0
LINE
  8
LC-009-005-----0
  6
CONTINUOUS
  5
364
 10
517.98647
 20
348.280843
 30
0.0
 11
520.86794
 21
351.162313
 31
0.0
  0
LINE
  8
LC-009-005-----0
  6
CONTINUOUS
  5
365
 10
517.98647
 20
348.563686
 30
0.0
 11
520.585097
 21
351.162313
 31
0.0
  0
LINE
  8
LC-009-005-----0
  6
CONTINUOUS
  5
366
 10
517.98647
 20
348.846528
 30
0.0
 11
520.302255
 21
351.162313
 31
0.0
  0
LINE
  8
LC-009-005-----0
  6
CONTINUOUS
  5
367
 10
517.98647
 20
349.129371
 30
0.0
 11
520.019412
 21
351.162313
 31
0.0
  0
LINE
  8
LC-009-005-----0
  6
CONTINUOUS
  5
368
 10
517.98647
 20
349.412214
 30
0.0
 11
519.736569
 21
351.162313
 31
0.0
  0
LINE
  8
LC-009-005-----0
  6
CONTINUOUS
  5
369
 10
517.98647
 20
349.695056
 30
0.0
 11
519.453726
 21
351.162313
 31
0.0
  0
LINE
  8
LC-009-005-----0
  6
CONTINUOUS
  5
36A
 10
517.98647
 20
349.977899
 30
0.0
 11
519.170884
 21
351.162313
 31
0.0
  0
LINE
  8
LC-009-005-----0
  6
CONTINUOUS
  5
36B
 10
517.98647
 20
350.260742
 30
0.0
 11
518.888041
 21
351.162313
 31
0.0
  0
LINE
  8
LC-009-005-----0
  6
CONTINUOUS
  5
36C
 10
517.98647
 20
350.543585
 30
0.0
 11
518.605198
 21
351.162313
 31
0.0
  0
LINE
  8
LC-009-005-----0
  6
CONTINUOUS
  5
36D
 10
517.98647
 20
350.826427
 30
0.0
 11
518.322356
 21
351.162313
 31
0.0
  0
LINE
  8
LC-009-005-----0
  6
CONTINUOUS
  5
36E
 10
517.98647
 20
351.10927
 30
0.0
 11
518.039513
 21
351.162313
 31
0.0
  0
ENDBLK
  8
0
  5
36F
  0
BLOCK
  8
0
  5
371
  2
*X33
 70
    65
 10
497.98647
 20
345.566228
 30
0.0
  3
*X33
  0
LINE
  8
LC-009-005-----0
  6
CONTINUOUS
  5
372
 10
502.921288
 20
347.074953
 30
0.0
 11
502.98647
 21
347.140136
 31
0.0
  0
LINE
  8
LC-009-005-----0
  6
CONTINUOUS
  5
373
 10
502.513891
 20
346.9504
 30
0.0
 11
502.98647
 21
347.422978
 31
0.0
  0
LINE
  8
LC-009-005-----0
  6
CONTINUOUS
  5
374
 10
502.106495
 20
346.825846
 30
0.0
 11
502.98647
 21
347.705821
 31
0.0
  0
LINE
  8
LC-009-005-----0
  6
CONTINUOUS
  5
375
 10
501.699099
 20
346.701292
 30
0.0
 11
502.98647
 21
347.988664
 31
0.0
  0
LINE
  8
LC-009-005-----0
  6
CONTINUOUS
  5
376
 10
501.291703
 20
346.576739
 30
0.0
 11
502.98647
 21
348.271507
 31
0.0
  0
LINE
  8
LC-009-005-----0
  6
CONTINUOUS
  5
377
 10
500.884306
 20
346.452185
 30
0.0
 11
502.98647
 21
348.554349
 31
0.0
  0
LINE
  8
LC-009-005-----0
  6
CONTINUOUS
  5
378
 10
500.47691
 20
346.327632
 30
0.0
 11
502.98647
 21
348.837192
 31
0.0
  0
LINE
  8
LC-009-005-----0
  6
CONTINUOUS
  5
379
 10
500.069514
 20
346.203078
 30
0.0
 11
502.98647
 21
349.120035
 31
0.0
  0
LINE
  8
LC-009-005-----0
  6
CONTINUOUS
  5
37A
 10
499.662118
 20
346.078525
 30
0.0
 11
502.98647
 21
349.402877
 31
0.0
  0
LINE
  8
LC-009-005-----0
  6
CONTINUOUS
  5
37B
 10
499.254721
 20
345.953971
 30
0.0
 11
502.98647
 21
349.68572
 31
0.0
  0
LINE
  8
LC-009-005-----0
  6
CONTINUOUS
  5
37C
 10
498.847325
 20
345.829418
 30
0.0
 11
502.98647
 21
349.968563
 31
0.0
  0
LINE
  8
LC-009-005-----0
  6
CONTINUOUS
  5
37D
 10
498.439929
 20
345.704864
 30
0.0
 11
502.958457
 21
350.223392
 31
0.0
  0
LINE
  8
LC-009-005-----0
  6
CONTINUOUS
  5
37E
 10
498.032533
 20
345.580311
 30
0.0
 11
502.551061
 21
350.098839
 31
0.0
  0
LINE
  8
LC-009-005-----0
  6
CONTINUOUS
  5
37F
 10
497.98647
 20
345.817091
 30
0.0
 11
502.143664
 21
349.974285
 31
0.0
  0
LINE
  8
LC-009-005-----0
  6
CONTINUOUS
  5
380
 10
497.98647
 20
346.099934
 30
0.0
 11
501.736268
 21
349.849731
 31
0.0
  0
LINE
  8
LC-009-005-----0
  6
CONTINUOUS
  5
381
 10
497.98647
 20
346.382776
 30
0.0
 11
501.328872
 21
349.725178
 31
0.0
  0
LINE
  8
LC-009-005-----0
  6
CONTINUOUS
  5
382
 10
497.98647
 20
346.665619
 30
0.0
 11
500.921476
 21
349.600624
 31
0.0
  0
LINE
  8
LC-009-005-----0
  6
CONTINUOUS
  5
383
 10
497.98647
 20
346.948462
 30
0.0
 11
500.514079
 21
349.476071
 31
0.0
  0
LINE
  8
LC-009-005-----0
  6
CONTINUOUS
  5
384
 10
497.98647
 20
347.231305
 30
0.0
 11
500.106683
 21
349.351517
 31
0.0
  0
LINE
  8
LC-009-005-----0
  6
CONTINUOUS
  5
385
 10
497.98647
 20
347.514147
 30
0.0
 11
499.699287
 21
349.226964
 31
0.0
  0
LINE
  8
LC-009-005-----0
  6
CONTINUOUS
  5
386
 10
497.98647
 20
347.79699
 30
0.0
 11
499.291891
 21
349.10241
 31
0.0
  0
LINE
  8
LC-009-005-----0
  6
CONTINUOUS
  5
387
 10
497.98647
 20
348.079833
 30
0.0
 11
498.884494
 21
348.977857
 31
0.0
  0
LINE
  8
LC-009-005-----0
  6
CONTINUOUS
  5
388
 10
497.98647
 20
348.362675
 30
0.0
 11
498.477098
 21
348.853303
 31
0.0
  0
LINE
  8
LC-009-005-----0
  6
CONTINUOUS
  5
389
 10
497.98647
 20
348.645518
 30
0.0
 11
498.069702
 21
348.72875
 31
0.0
  0
ENDBLK
  8
0
  5
38A
  0
BLOCK
  8
0
  5
38C
  2
*X34
 70
    65
 10
487.98647
 20
342.508921
 30
0.0
  3
*X34
  0
LINE
  8
LC-009-005-----0
  6
CONTINUOUS
  5
38D
 10
492.736382
 20
343.961115
 30
0.0
 11
492.98647
 21
344.211204
 31
0.0
  0
LINE
  8
LC-009-005-----0
  6
CONTINUOUS
  5
38E
 10
492.328985
 20
343.836561
 30
0.0
 11
492.98647
 21
344.494046
 31
0.0
  0
LINE
  8
LC-009-005-----0
  6
CONTINUOUS
  5
38F
 10
491.921589
 20
343.712008
 30
0.0
 11
492.98647
 21
344.776889
 31
0.0
  0
LINE
  8
LC-009-005-----0
  6
CONTINUOUS
  5
390
 10
491.514193
 20
343.587454
 30
0.0
 11
492.98647
 21
345.059732
 31
0.0
  0
LINE
  8
LC-009-005-----0
  6
CONTINUOUS
  5
391
 10
491.106797
 20
343.462901
 30
0.0
 11
492.98647
 21
345.342574
 31
0.0
  0
LINE
  8
LC-009-005-----0
  6
CONTINUOUS
  5
392
 10
490.6994
 20
343.338347
 30
0.0
 11
492.98647
 21
345.625417
 31
0.0
  0
LINE
  8
LC-009-005-----0
  6
CONTINUOUS
  5
393
 10
490.292004
 20
343.213794
 30
0.0
 11
492.98647
 21
345.90826
 31
0.0
  0
LINE
  8
LC-009-005-----0
  6
CONTINUOUS
  5
394
 10
489.884608
 20
343.08924
 30
0.0
 11
492.98647
 21
346.191103
 31
0.0
  0
LINE
  8
LC-009-005-----0
  6
CONTINUOUS
  5
395
 10
489.477212
 20
342.964687
 30
0.0
 11
492.98647
 21
346.473945
 31
0.0
  0
LINE
  8
LC-009-005-----0
  6
CONTINUOUS
  5
396
 10
489.069815
 20
342.840133
 30
0.0
 11
492.98647
 21
346.756788
 31
0.0
  0
LINE
  8
LC-009-005-----0
  6
CONTINUOUS
  5
397
 10
488.662419
 20
342.715579
 30
0.0
 11
492.98647
 21
347.039631
 31
0.0
  0
LINE
  8
LC-009-005-----0
  6
CONTINUOUS
  5
398
 10
488.255023
 20
342.591026
 30
0.0
 11
492.773551
 21
347.109554
 31
0.0
  0
LINE
  8
LC-009-005-----0
  6
CONTINUOUS
  5
399
 10
487.98647
 20
342.605316
 30
0.0
 11
492.366154
 21
346.985
 31
0.0
  0
LINE
  8
LC-009-005-----0
  6
CONTINUOUS
  5
39A
 10
487.98647
 20
342.888159
 30
0.0
 11
491.958758
 21
346.860447
 31
0.0
  0
LINE
  8
LC-009-005-----0
  6
CONTINUOUS
  5
39B
 10
487.98647
 20
343.171002
 30
0.0
 11
491.551362
 21
346.735893
 31
0.0
  0
LINE
  8
LC-009-005-----0
  6
CONTINUOUS
  5
39C
 10
487.98647
 20
343.453844
 30
0.0
 11
491.143966
 21
346.61134
 31
0.0
  0
LINE
  8
LC-009-005-----0
  6
CONTINUOUS
  5
39D
 10
487.98647
 20
343.736687
 30
0.0
 11
490.73657
 21
346.486786
 31
0.0
  0
LINE
  8
LC-009-005-----0
  6
CONTINUOUS
  5
39E
 10
487.98647
 20
344.01953
 30
0.0
 11
490.329173
 21
346.362233
 31
0.0
  0
LINE
  8
LC-009-005-----0
  6
CONTINUOUS
  5
39F
 10
487.98647
 20
344.302372
 30
0.0
 11
489.921777
 21
346.237679
 31
0.0
  0
LINE
  8
LC-009-005-----0
  6
CONTINUOUS
  5
3A0
 10
487.98647
 20
344.585215
 30
0.0
 11
489.514381
 21
346.113126
 31
0.0
  0
LINE
  8
LC-009-005-----0
  6
CONTINUOUS
  5
3A1
 10
487.98647
 20
344.868058
 30
0.0
 11
489.106985
 21
345.988572
 31
0.0
  0
LINE
  8
LC-009-005-----0
  6
CONTINUOUS
  5
3A2
 10
487.98647
 20
345.150901
 30
0.0
 11
488.699588
 21
345.864018
 31
0.0
  0
LINE
  8
LC-009-005-----0
  6
CONTINUOUS
  5
3A3
 10
487.98647
 20
345.433743
 30
0.0
 11
488.292192
 21
345.739465
 31
0.0
  0
ENDBLK
  8
0
  5
3A4
  0
BLOCK
  8
0
  5
3A6
  2
*X35
 70
    65
 10
477.98647
 20
341.668012
 30
0.0
  3
*X35
  0
LINE
  8
LC-009-005-----0
  6
CONTINUOUS
  5
3A7
 10
482.806526
 20
341.668012
 30
0.0
 11
482.98647
 21
341.847957
 31
0.0
  0
LINE
  8
LC-009-005-----0
  6
CONTINUOUS
  5
3A8
 10
482.523683
 20
341.668012
 30
0.0
 11
482.98647
 21
342.1308
 31
0.0
  0
LINE
  8
LC-009-005-----0
  6
CONTINUOUS
  5
3A9
 10
482.24084
 20
341.668012
 30
0.0
 11
482.98647
 21
342.413642
 31
0.0
  0
LINE
  8
LC-009-005-----0
  6
CONTINUOUS
  5
3AA
 10
481.957998
 20
341.668012
 30
0.0
 11
482.98647
 21
342.696485
 31
0.0
  0
LINE
  8
LC-009-005-----0
  6
CONTINUOUS
  5
3AB
 10
481.675155
 20
341.668012
 30
0.0
 11
482.98647
 21
342.979328
 31
0.0
  0
LINE
  8
LC-009-005-----0
  6
CONTINUOUS
  5
3AC
 10
481.392312
 20
341.668012
 30
0.0
 11
482.98647
 21
343.26217
 31
0.0
  0
LINE
  8
LC-009-005-----0
  6
CONTINUOUS
  5
3AD
 10
481.109469
 20
341.668012
 30
0.0
 11
482.98647
 21
343.545013
 31
0.0
  0
LINE
  8
LC-009-005-----0
  6
CONTINUOUS
  5
3AE
 10
480.826627
 20
341.668012
 30
0.0
 11
482.98647
 21
343.827856
 31
0.0
  0
LINE
  8
LC-009-005-----0
  6
CONTINUOUS
  5
3AF
 10
480.543784
 20
341.668012
 30
0.0
 11
482.98647
 21
344.110699
 31
0.0
  0
LINE
  8
LC-009-005-----0
  6
CONTINUOUS
  5
3B0
 10
480.260941
 20
341.668012
 30
0.0
 11
482.98647
 21
344.393541
 31
0.0
  0
LINE
  8
LC-009-005-----0
  6
CONTINUOUS
  5
3B1
 10
479.978099
 20
341.668012
 30
0.0
 11
482.978099
 21
344.668012
 31
0.0
  0
LINE
  8
LC-009-005-----0
  6
CONTINUOUS
  5
3B2
 10
479.695256
 20
341.668012
 30
0.0
 11
482.695256
 21
344.668012
 31
0.0
  0
LINE
  8
LC-009-005-----0
  6
CONTINUOUS
  5
3B3
 10
479.412413
 20
341.668012
 30
0.0
 11
482.412413
 21
344.668012
 31
0.0
  0
LINE
  8
LC-009-005-----0
  6
CONTINUOUS
  5
3B4
 10
479.12957
 20
341.668012
 30
0.0
 11
482.12957
 21
344.668012
 31
0.0
  0
LINE
  8
LC-009-005-----0
  6
CONTINUOUS
  5
3B5
 10
478.846728
 20
341.668012
 30
0.0
 11
481.846728
 21
344.668012
 31
0.0
  0
LINE
  8
LC-009-005-----0
  6
CONTINUOUS
  5
3B6
 10
478.563885
 20
341.668012
 30
0.0
 11
481.563885
 21
344.668012
 31
0.0
  0
LINE
  8
LC-009-005-----0
  6
CONTINUOUS
  5
3B7
 10
478.281042
 20
341.668012
 30
0.0
 11
481.281042
 21
344.668012
 31
0.0
  0
LINE
  8
LC-009-005-----0
  6
CONTINUOUS
  5
3B8
 10
477.9982
 20
341.668012
 30
0.0
 11
480.9982
 21
344.668012
 31
0.0
  0
LINE
  8
LC-009-005-----0
  6
CONTINUOUS
  5
3B9
 10
477.98647
 20
341.939126
 30
0.0
 11
480.715357
 21
344.668012
 31
0.0
  0
LINE
  8
LC-009-005-----0
  6
CONTINUOUS
  5
3BA
 10
477.98647
 20
342.221968
 30
0.0
 11
480.432514
 21
344.668012
 31
0.0
  0
LINE
  8
LC-009-005-----0
  6
CONTINUOUS
  5
3BB
 10
477.98647
 20
342.504811
 30
0.0
 11
480.149671
 21
344.668012
 31
0.0
  0
LINE
  8
LC-009-005-----0
  6
CONTINUOUS
  5
3BC
 10
477.98647
 20
342.787654
 30
0.0
 11
479.866829
 21
344.668012
 31
0.0
  0
LINE
  8
LC-009-005-----0
  6
CONTINUOUS
  5
3BD
 10
477.98647
 20
343.070497
 30
0.0
 11
479.583986
 21
344.668012
 31
0.0
  0
LINE
  8
LC-009-005-----0
  6
CONTINUOUS
  5
3BE
 10
477.98647
 20
343.353339
 30
0.0
 11
479.301143
 21
344.668012
 31
0.0
  0
LINE
  8
LC-009-005-----0
  6
CONTINUOUS
  5
3BF
 10
477.98647
 20
343.636182
 30
0.0
 11
479.018301
 21
344.668012
 31
0.0
  0
LINE
  8
LC-009-005-----0
  6
CONTINUOUS
  5
3C0
 10
477.98647
 20
343.919025
 30
0.0
 11
478.735458
 21
344.668012
 31
0.0
  0
LINE
  8
LC-009-005-----0
  6
CONTINUOUS
  5
3C1
 10
477.98647
 20
344.201867
 30
0.0
 11
478.452615
 21
344.668012
 31
0.0
  0
LINE
  8
LC-009-005-----0
  6
CONTINUOUS
  5
3C2
 10
477.98647
 20
344.48471
 30
0.0
 11
478.169772
 21
344.668012
 31
0.0
  0
ENDBLK
  8
0
  5
3C3
  0
BLOCK
  8
0
  5
3C5
  2
*X36
 70
    65
 10
464.986093
 20
343.167322
 30
0.0
  3
*X36
  0
LINE
  8
LC-009-005-----0
  6
CONTINUOUS
  5
3C6
 10
467.05243
 20
343.167322
 30
0.0
 11
467.23647
 21
343.351362
 31
0.0
  0
LINE
  8
LC-009-005-----0
  6
CONTINUOUS
  5
3C7
 10
466.769587
 20
343.167322
 30
0.0
 11
467.23647
 21
343.634205
 31
0.0
  0
LINE
  8
LC-009-005-----0
  6
CONTINUOUS
  5
3C8
 10
466.486744
 20
343.167322
 30
0.0
 11
467.23647
 21
343.917048
 31
0.0
  0
LINE
  8
LC-009-005-----0
  6
CONTINUOUS
  5
3C9
 10
466.203902
 20
343.167322
 30
0.0
 11
467.23647
 21
344.19989
 31
0.0
  0
LINE
  8
LC-009-005-----0
  6
CONTINUOUS
  5
3CA
 10
465.921059
 20
343.167322
 30
0.0
 11
467.23647
 21
344.482733
 31
0.0
  0
LINE
  8
LC-009-005-----0
  6
CONTINUOUS
  5
3CB
 10
465.638216
 20
343.167322
 30
0.0
 11
467.23647
 21
344.765576
 31
0.0
  0
LINE
  8
LC-009-005-----0
  6
CONTINUOUS
  5
3CC
 10
465.355374
 20
343.167322
 30
0.0
 11
467.23647
 21
345.048419
 31
0.0
  0
LINE
  8
LC-009-005-----0
  6
CONTINUOUS
  5
3CD
 10
465.072531
 20
343.167322
 30
0.0
 11
467.23647
 21
345.331261
 31
0.0
  0
LINE
  8
LC-009-005-----0
  6
CONTINUOUS
  5
3CE
 10
464.986093
 20
343.363727
 30
0.0
 11
467.23647
 21
345.614104
 31
0.0
  0
LINE
  8
LC-009-005-----0
  6
CONTINUOUS
  5
3CF
 10
464.986093
 20
343.646569
 30
0.0
 11
467.23647
 21
345.896947
 31
0.0
  0
LINE
  8
LC-009-005-----0
  6
CONTINUOUS
  5
3D0
 10
464.986093
 20
343.929412
 30
0.0
 11
467.224003
 21
346.167322
 31
0.0
  0
LINE
  8
LC-009-005-----0
  6
CONTINUOUS
  5
3D1
 10
464.986093
 20
344.212255
 30
0.0
 11
466.94116
 21
346.167322
 31
0.0
  0
LINE
  8
LC-009-005-----0
  6
CONTINUOUS
  5
3D2
 10
464.986093
 20
344.495098
 30
0.0
 11
466.658317
 21
346.167322
 31
0.0
  0
LINE
  8
LC-009-005-----0
  6
CONTINUOUS
  5
3D3
 10
464.986093
 20
344.77794
 30
0.0
 11
466.375475
 21
346.167322
 31
0.0
  0
LINE
  8
LC-009-005-----0
  6
CONTINUOUS
  5
3D4
 10
464.986093
 20
345.060783
 30
0.0
 11
466.092632
 21
346.167322
 31
0.0
  0
LINE
  8
LC-009-005-----0
  6
CONTINUOUS
  5
3D5
 10
464.986093
 20
345.343626
 30
0.0
 11
465.809789
 21
346.167322
 31
0.0
  0
LINE
  8
LC-009-005-----0
  6
CONTINUOUS
  5
3D6
 10
464.986093
 20
345.626468
 30
0.0
 11
465.526946
 21
346.167322
 31
0.0
  0
LINE
  8
LC-009-005-----0
  6
CONTINUOUS
  5
3D7
 10
464.986093
 20
345.909311
 30
0.0
 11
465.244104
 21
346.167322
 31
0.0
  0
ENDBLK
  8
0
  5
3D8
  0
BLOCK
  8
0
  5
3DA
  2
*X37
 70
    65
 10
507.98647
 20
347.950284
 30
0.0
  3
*X37
  0
LINE
  8
LC-009-005-----0
  6
CONTINUOUS
  5
3DB
 10
512.719358
 20
348.1049
 30
0.0
 11
512.98647
 21
348.372012
 31
0.0
  0
LINE
  8
LC-009-005-----0
  6
CONTINUOUS
  5
3DC
 10
512.426964
 20
348.095348
 30
0.0
 11
512.98647
 21
348.654854
 31
0.0
  0
LINE
  8
LC-009-005-----0
  6
CONTINUOUS
  5
3DD
 10
512.134569
 20
348.085796
 30
0.0
 11
512.98647
 21
348.937697
 31
0.0
  0
LINE
  8
LC-009-005-----0
  6
CONTINUOUS
  5
3DE
 10
511.842174
 20
348.076243
 30
0.0
 11
512.98647
 21
349.22054
 31
0.0
  0
LINE
  8
LC-009-005-----0
  6
CONTINUOUS
  5
3DF
 10
511.549779
 20
348.066691
 30
0.0
 11
512.98647
 21
349.503383
 31
0.0
  0
LINE
  8
LC-009-005-----0
  6
CONTINUOUS
  5
3E0
 10
511.257384
 20
348.057139
 30
0.0
 11
512.98647
 21
349.786225
 31
0.0
  0
LINE
  8
LC-009-005-----0
  6
CONTINUOUS
  5
3E1
 10
510.96499
 20
348.047587
 30
0.0
 11
512.98647
 21
350.069068
 31
0.0
  0
LINE
  8
LC-009-005-----0
  6
CONTINUOUS
  5
3E2
 10
510.672595
 20
348.038035
 30
0.0
 11
512.98647
 21
350.351911
 31
0.0
  0
LINE
  8
LC-009-005-----0
  6
CONTINUOUS
  5
3E3
 10
510.3802
 20
348.028483
 30
0.0
 11
512.98647
 21
350.634753
 31
0.0
  0
LINE
  8
LC-009-005-----0
  6
CONTINUOUS
  5
3E4
 10
510.087805
 20
348.018931
 30
0.0
 11
512.98647
 21
350.917596
 31
0.0
  0
LINE
  8
LC-009-005-----0
  6
CONTINUOUS
  5
3E5
 10
509.79541
 20
348.009379
 30
0.0
 11
512.89838
 21
351.112348
 31
0.0
  0
LINE
  8
LC-009-005-----0
  6
CONTINUOUS
  5
3E6
 10
509.503016
 20
347.999827
 30
0.0
 11
512.605985
 21
351.102796
 31
0.0
  0
LINE
  8
LC-009-005-----0
  6
CONTINUOUS
  5
3E7
 10
509.210621
 20
347.990275
 30
0.0
 11
512.31359
 21
351.093244
 31
0.0
  0
LINE
  8
LC-009-005-----0
  6
CONTINUOUS
  5
3E8
 10
508.918226
 20
347.980723
 30
0.0
 11
512.021196
 21
351.083692
 31
0.0
  0
LINE
  8
LC-009-005-----0
  6
CONTINUOUS
  5
3E9
 10
508.625831
 20
347.971171
 30
0.0
 11
511.728801
 21
351.07414
 31
0.0
  0
LINE
  8
LC-009-005-----0
  6
CONTINUOUS
  5
3EA
 10
508.333436
 20
347.961618
 30
0.0
 11
511.436406
 21
351.064588
 31
0.0
  0
LINE
  8
LC-009-005-----0
  6
CONTINUOUS
  5
3EB
 10
508.041042
 20
347.952066
 30
0.0
 11
511.144011
 21
351.055036
 31
0.0
  0
LINE
  8
LC-009-005-----0
  6
CONTINUOUS
  5
3EC
 10
507.98647
 20
348.180338
 30
0.0
 11
510.851616
 21
351.045484
 31
0.0
  0
LINE
  8
LC-009-005-----0
  6
CONTINUOUS
  5
3ED
 10
507.98647
 20
348.463181
 30
0.0
 11
510.559222
 21
351.035932
 31
0.0
  0
LINE
  8
LC-009-005-----0
  6
CONTINUOUS
  5
3EE
 10
507.98647
 20
348.746023
 30
0.0
 11
510.266827
 21
351.02638
 31
0.0
  0
LINE
  8
LC-009-005-----0
  6
CONTINUOUS
  5
3EF
 10
507.98647
 20
349.028866
 30
0.0
 11
509.974432
 21
351.016828
 31
0.0
  0
LINE
  8
LC-009-005-----0
  6
CONTINUOUS
  5
3F0
 10
507.98647
 20
349.311709
 30
0.0
 11
509.682037
 21
351.007276
 31
0.0
  0
LINE
  8
LC-009-005-----0
  6
CONTINUOUS
  5
3F1
 10
507.98647
 20
349.594551
 30
0.0
 11
509.389642
 21
350.997723
 31
0.0
  0
LINE
  8
LC-009-005-----0
  6
CONTINUOUS
  5
3F2
 10
507.98647
 20
349.877394
 30
0.0
 11
509.097248
 21
350.988171
 31
0.0
  0
LINE
  8
LC-009-005-----0
  6
CONTINUOUS
  5
3F3
 10
507.98647
 20
350.160237
 30
0.0
 11
508.804853
 21
350.978619
 31
0.0
  0
LINE
  8
LC-009-005-----0
  6
CONTINUOUS
  5
3F4
 10
507.98647
 20
350.44308
 30
0.0
 11
508.512458
 21
350.969067
 31
0.0
  0
LINE
  8
LC-009-005-----0
  6
CONTINUOUS
  5
3F5
 10
507.98647
 20
350.725922
 30
0.0
 11
508.220063
 21
350.959515
 31
0.0
  0
ENDBLK
  8
0
  5
3F6
  0
BLOCK
  8
0
  5
3F8
  2
BLK6
 70
    64
 10
0.0
 20
0.0
 30
0.0
  3
BLK6
  0
ENDBLK
  8
0
  5
3F9
  0
BLOCK
  8
0
  5
3FB
  2
*X39
 70
    65
 10
457.235974
 20
344.668001
 30
0.0
  3
*X39
  0
LINE
  8
LC-009-005-----0
  6
CONTINUOUS
  5
3FC
 10
483.438714
 20
344.845785
 30
0.0
 11
485.243533
 21
346.650604
 31
0.0
  0
LINE
  8
LC-009-005-----0
  6
CONTINUOUS
  5
3FD
 10
481.84672
 20
344.668004
 30
0.0
 11
482.550361
 21
345.371646
 31
0.0
  0
LINE
  8
LC-009-005-----0
  6
CONTINUOUS
  5
3FE
 10
480.432509
 20
344.668007
 30
0.0
 11
481.132508
 21
345.368006
 31
0.0
  0
LINE
  8
LC-009-005-----0
  6
CONTINUOUS
  5
3FF
 10
479.018299
 20
344.66801
 30
0.0
 11
479.718297
 21
345.368009
 31
0.0
  0
LINE
  8
LC-009-005-----0
  6
CONTINUOUS
  5
400
 10
477.700646
 20
344.764571
 30
0.0
 11
478.304087
 21
345.368012
 31
0.0
  0
LINE
  8
LC-009-005-----0
  6
CONTINUOUS
  5
401
 10
476.952509
 20
345.430648
 30
0.0
 11
477.447484
 21
345.925623
 31
0.0
  0
LINE
  8
LC-009-005-----0
  6
CONTINUOUS
  5
402
 10
476.245403
 20
346.137755
 30
0.0
 11
476.740377
 21
346.63273
 31
0.0
  0
LINE
  8
LC-009-005-----0
  6
CONTINUOUS
  5
403
 10
475.538296
 20
346.844862
 30
0.0
 11
476.03327
 21
347.339836
 31
0.0
  0
LINE
  8
LC-009-005-----0
  6
CONTINUOUS
  5
404
 10
474.447095
 20
347.167874
 30
0.0
 11
475.147091
 21
347.86787
 31
0.0
  0
LINE
  8
LC-009-005-----0
  6
CONTINUOUS
  5
405
 10
465.961867
 20
347.167927
 30
0.0
 11
466.486466
 21
347.692527
 31
0.0
  0
LINE
  8
LC-009-005-----0
  6
CONTINUOUS
  5
406
 10
464.547662
 20
347.167936
 30
0.0
 11
465.247658
 21
347.867932
 31
0.0
  0
LINE
  8
LC-009-005-----0
  6
CONTINUOUS
  5
407
 10
462.133463
 20
346.167951
 30
0.0
 11
462.833459
 21
346.867947
 31
0.0
  0
LINE
  8
LC-009-005-----0
  6
CONTINUOUS
  5
408
 10
459.419274
 20
344.867976
 30
0.0
 11
459.735974
 21
345.184675
 31
0.0
  0
LINE
  8
LC-009-005-----0
  6
CONTINUOUS
  5
409
 10
460.719259
 20
346.16796
 30
0.0
 11
461.419254
 21
346.867956
 31
0.0
  0
LINE
  8
LC-009-005-----0
  6
CONTINUOUS
  5
40A
 10
458.027115
 20
344.89003
 30
0.0
 11
458.705058
 21
345.567973
 31
0.0
  0
LINE
  8
LC-009-005-----0
  6
CONTINUOUS
  5
40B
 10
459.305054
 20
346.167969
 30
0.0
 11
460.00505
 21
346.867965
 31
0.0
  0
LINE
  8
LC-009-005-----0
  6
CONTINUOUS
  5
40C
 10
457.284163
 20
345.561291
 30
0.0
 11
458.590845
 21
346.867973
 31
0.0
  0
ENDBLK
  8
0
  5
40D
  0
BLOCK
  8
0
  5
40F
  2
BLK7
 70
    64
 10
0.0
 20
0.0
 30
0.0
  3
BLK7
  0
ENDBLK
  8
0
  5
410
  0
BLOCK
  8
0
  5
412
  2
BLK8
 70
    64
 10
0.0
 20
0.0
 30
0.0
  3
BLK8
  0
ENDBLK
  8
0
  5
413
  0
BLOCK
  8
0
  5
415
  2
BLK9
 70
    64
 10
0.0
 20
0.0
 30
0.0
  3
BLK9
  0
ENDBLK
  8
0
  5
416
  0
BLOCK
  8
0
  5
418
  2
BLK10
 70
    64
 10
0.0
 20
0.0
 30
0.0
  3
BLK10
  0
ENDBLK
  8
0
  5
419
  0
BLOCK
  8
0
  5
41B
  2
BLK11
 70
    64
 10
0.0
 20
0.0
 30
0.0
  3
BLK11
  0
ENDBLK
  8
0
  5
41C
  0
BLOCK
  8
0
  5
41E
  2
*D45
 70
    65
 10
0.0
 20
0.0
 30
0.0
  3
*D45
  0
LINE
  8
LC-004-003-MTH-0
  6
CONTINUOUS
  5
41F
 10
200.235981
 20
351.162313
 30
0.0
 11
200.235981
 21
444.8
 31
0.0
  0
LINE
  8
LC-004-003-MTH-0
  6
CONTINUOUS
  5
420
 10
600.235981
 20
351.162313
 30
0.0
 11
600.235981
 21
444.8
 31
0.0
  0
LINE
  8
LC-005-003-MTG-0
  6
CONTINUOUS
  5
421
 10
200.235981
 20
434.0
 30
0.0
 11
600.235981
 21
434.0
 31
0.0
  0
LINE
  8
LC-003-003-----0
  6
CONTINUOUS
  5
422
 10
218.081988
 20
436.349471
 30
0.0
 11
200.235981
 21
434.0
 31
0.0
  0
LINE
  8
LC-003-003-----0
  6
CONTINUOUS
  5
423
 10
200.235981
 20
434.0
 30
0.0
 11
218.081988
 21
431.650529
 31
0.0
  0
LINE
  8
LC-003-003-----0
  6
CONTINUOUS
  5
424
 10
218.081988
 20
431.650529
 30
0.0
 11
218.081988
 21
436.349471
 31
0.0
  0
LINE
  8
LC-003-003-----0
  6
CONTINUOUS
  5
425
 10
218.122026
 20
435.738609
 30
0.0
 11
204.915981
 21
434.0
 31
0.0
  0
LINE
  8
LC-003-003-----0
  6
CONTINUOUS
  5
426
 10
204.915981
 20
434.0
 30
0.0
 11
218.122026
 21
432.261391
 31
0.0
  0
LINE
  8
LC-003-003-----0
  6
CONTINUOUS
  5
427
 10
218.162065
 20
435.127746
 30
0.0
 11
209.595981
 21
434.0
 31
0.0
  0
LINE
  8
LC-003-003-----0
  6
CONTINUOUS
  5
428
 10
209.595981
 20
434.0
 30
0.0
 11
218.162065
 21
432.872254
 31
0.0
  0
LINE
  8
LC-003-003-----0
  6
CONTINUOUS
  5
429
 10
218.202103
 20
434.516884
 30
0.0
 11
214.275981
 21
434.0
 31
0.0
  0
LINE
  8
LC-003-003-----0
  6
CONTINUOUS
  5
42A
 10
214.275981
 20
434.0
 30
0.0
 11
218.202103
 21
433.483116
 31
0.0
  0
LINE
  8
LC-003-003-----0
  6
CONTINUOUS
  5
42B
 10
582.389973
 20
431.650529
 30
0.0
 11
600.235981
 21
434.0
 31
0.0
  0
LINE
  8
LC-003-003-----0
  6
CONTINUOUS
  5
42C
 10
600.235981
 20
434.0
 30
0.0
 11
582.389973
 21
436.349471
 31
0.0
  0
LINE
  8
LC-003-003-----0
  6
CONTINUOUS
  5
42D
 10
582.389973
 20
436.349471
 30
0.0
 11
582.389973
 21
431.650529
 31
0.0
  0
LINE
  8
LC-003-003-----0
  6
CONTINUOUS
  5
42E
 10
582.349935
 20
432.261391
 30
0.0
 11
595.555981
 21
434.0
 31
0.0
  0
LINE
  8
LC-003-003-----0
  6
CONTINUOUS
  5
42F
 10
595.555981
 20
434.0
 30
0.0
 11
582.349935
 21
435.738609
 31
0.0
  0
LINE
  8
LC-003-003-----0
  6
CONTINUOUS
  5
430
 10
582.309897
 20
432.872254
 30
0.0
 11
590.875981
 21
434.0
 31
0.0
  0
LINE
  8
LC-003-003-----0
  6
CONTINUOUS
  5
431
 10
590.875981
 20
434.0
 30
0.0
 11
582.309897
 21
435.127746
 31
0.0
  0
LINE
  8
LC-003-003-----0
  6
CONTINUOUS
  5
432
 10
582.269859
 20
433.483116
 30
0.0
 11
586.195981
 21
434.0
 31
0.0
  0
LINE
  8
LC-003-003-----0
  6
CONTINUOUS
  5
433
 10
586.195981
 20
434.0
 30
0.0
 11
582.269859
 21
434.516884
 31
0.0
  0
TEXT
  8
LC-003-003-----0
  6
CONTINUOUS
 62
     6
  5
434
 10
378.539888
 20
444.431999
 30
0.0
 40
18.0
  1
Ø420
 51
15.0
  7
LC-TXTSTYLE-150-400-0-0-D0
 72
     1
 11
403.031227
 21
444.431999
 31
0.0
  0
ENDBLK
  8
0
  5
435
  0
ENDSEC
  0
SECTION
  2
ENTITIES
  0
VIEWPORT
  8
LC-000
  5
6A7
 67
     1
 68
     1
 10
420.0
 20
297.0
 30
0.0
 40
840.0
 41
594.0
 69
     1
1001
ACAD
1000
MVIEW
1002
{
1070
    16
1010
0.0
1020
0.0
1030
0.0
1010
0.0
1020
0.0
1030
1.0
1040
0.0
1040
594.0
1040
420.0
1040
297.0
1040
50.0
1040
0.0
1040
0.0
1070
     0
1070
   100
1070
     1
1070
     1
1070
     0
1070
     0
1070
     0
1070
     0
1040
0.0
1040
0.0
1040
0.0
1040
1.0
1040
1.0
1040
0.0
1040
0.0
1070
     0
1002
{
1002
}
1002
}
  0
VIEWPORT
  8
0
  5
6A8
 67
     1
 68
     1
 10
0.0
 20
0.0
 30
0.0
 40
0.0
 41
0.0
 69
     1
1001
ACAD
1000
MVIEW
1002
{
1070
    16
1010
0.0
1020
0.0
1030
0.0
1010
0.0
1020
0.0
1030
1.0
1040
0.0
1040
594.0
1040
0.0
1040
0.0
1040
50.0
1040
0.0
1040
0.0
1070
     0
1070
   100
1070
     0
1070
     1
1070
     0
1070
     0
1070
     0
1070
     0
1040
0.0
1040
0.0
1040
0.0
1040
0.5
1040
0.5
1040
0.5
1040
0.5
1070
     0
1002
{
1002
}
1002
}
  0
DIMENSION
  8
0
  5
436
  2
*D0
 10
480.0
 20
228.166975
 30
0.0
 11
480.0
 21
228.166975
 31
0.0
 13
476.236503
 23
328.167319
 33
0.0
 14
434.735981
 24
128.166631
 34
0.0
 50
90.0
  3
LC-DIM-L-0090-02-02
  0
DIMENSION
  8
0
  5
437
  2
*D1
 10
518.0
 20
236.404921
 30
0.0
 11
518.0
 21
236.404921
 31
0.0
  1
216
 13
424.298159
 23
128.166631
 33
0.0
 14
515.235981
 24
344.643211
 34
0.0
 50
90.0
  3
LC-DIM-L-0090-02-02
  0
INSERT
  8
0
  5
439
  2
BLK1
 10
0.0
 20
0.0
 30
0.0
  0
INSERT
  8
0
  5
43A
  2
*X3
 10
200.235981
 20
348.162313
 30
0.0
  0
INSERT
  8
0
  5
43B
  2
*X4
 10
207.485492
 20
348.162313
 30
0.0
  0
INSERT
  8
0
  5
43C
  2
*X5
 10
217.485492
 20
348.162313
 30
0.0
  0
INSERT
  8
0
  5
43D
  2
*X6
 10
342.235988
 20
336.867976
 30
0.0
  0
INSERT
  8
0
  5
43E
  2
BLK2
 10
0.0
 20
0.0
 30
0.0
  0
DIMENSION
  8
0
  5
43F
  2
*D8
 10
469.876498
 20
80.0
 30
0.0
 11
469.876498
 21
80.0
 31
0.0
  1
DN50
 13
375.235981
 23
131.666631
 33
0.0
 14
425.235981
 24
131.666631
 34
0.0
  3
LC-DIM-L-0090-02-02
  0
INSERT
  8
0
  5
440
  2
BLK3
 10
0.0
 20
0.0
 30
0.0
  0
INSERT
  8
0
  5
441
  2
*X10
 10
227.485492
 20
348.162313
 30
0.0
  0
INSERT
  8
0
  5
442
  2
*X11
 10
237.485492
 20
348.162313
 30
0.0
  0
INSERT
  8
0
  5
443
  2
*X12
 10
247.485492
 20
348.162313
 30
0.0
  0
INSERT
  8
0
  5
444
  2
*X13
 10
257.485492
 20
348.162313
 30
0.0
  0
INSERT
  8
0
  5
445
  2
*X14
 10
267.485492
 20
348.162313
 30
0.0
  0
INSERT
  8
0
  5
446
  2
*X15
 10
277.485492
 20
348.162313
 30
0.0
  0
INSERT
  8
0
  5
447
  2
*X16
 10
297.485492
 20
345.566228
 30
0.0
  0
INSERT
  8
0
  5
448
  2
*X17
 10
307.485492
 20
342.508921
 30
0.0
  0
INSERT
  8
0
  5
449
  2
*X18
 10
317.485492
 20
341.668012
 30
0.0
  0
INSERT
  8
0
  5
44A
  2
*X19
 10
333.235492
 20
343.167322
 30
0.0
  0
INSERT
  8
0
  5
44B
  2
*X20
 10
287.485492
 20
347.950284
 30
0.0
  0
INSERT
  8
0
  5
44C
  2
BLK4
 10
0.0
 20
0.0
 30
0.0
  0
INSERT
  8
0
  5
44D
  2
*X22
 10
315.050645
 20
344.668001
 30
0.0
  0
INSERT
  8
0
  5
44E
  2
BLK5
 10
0.0
 20
0.0
 30
0.0
  0
INSERT
  8
0
  5
44F
  2
*X24
 10
597.98647
 20
348.162313
 30
0.0
  0
INSERT
  8
0
  5
450
  2
*X25
 10
587.98647
 20
348.162313
 30
0.0
  0
INSERT
  8
0
  5
451
  2
*X26
 10
577.98647
 20
348.162313
 30
0.0
  0
INSERT
  8
0
  5
452
  2
*X27
 10
567.98647
 20
348.162313
 30
0.0
  0
INSERT
  8
0
  5
453
  2
*X28
 10
557.98647
 20
348.162313
 30
0.0
  0
INSERT
  8
0
  5
454
  2
*X29
 10
547.98647
 20
348.162313
 30
0.0
  0
INSERT
  8
0
  5
455
  2
*X30
 10
537.98647
 20
348.162313
 30
0.0
  0
INSERT
  8
0
  5
456
  2
*X31
 10
527.98647
 20
348.162313
 30
0.0
  0
INSERT
  8
0
  5
457
  2
*X32
 10
517.98647
 20
348.162313
 30
0.0
  0
INSERT
  8
0
  5
458
  2
*X33
 10
497.98647
 20
345.566228
 30
0.0
  0
INSERT
  8
0
  5
459
  2
*X34
 10
487.98647
 20
342.508921
 30
0.0
  0
INSERT
  8
0
  5
45A
  2
*X35
 10
477.98647
 20
341.668012
 30
0.0
  0
INSERT
  8
0
  5
45B
  2
*X36
 10
464.986093
 20
343.167322
 30
0.0
  0
INSERT
  8
0
  5
45C
  2
*X37
 10
507.98647
 20
347.950284
 30
0.0
  0
INSERT
  8
0
  5
45D
  2
BLK6
 10
0.0
 20
0.0
 30
0.0
  0
INSERT
  8
0
  5
45E
  2
*X39
 10
457.235974
 20
344.668001
 30
0.0
  0
INSERT
  8
0
  5
45F
  2
BLK7
 10
0.0
 20
0.0
 30
0.0
  0
INSERT
  8
0
  5
460
  2
BLK8
 10
0.0
 20
0.0
 30
0.0
  0
INSERT
  8
0
  5
461
  2
BLK9
 10
0.0
 20
0.0
 30
0.0
  0
INSERT
  8
0
  5
462
  2
BLK10
 10
0.0
 20
0.0
 30
0.0
  0
INSERT
  8
0
  5
463
  2
BLK11
 10
0.0
 20
0.0
 30
0.0
  0
DIMENSION
  8
0
  5
464
  2
*D45
 10
400.235981
 20
434.0
 30
0.0
 11
400.235981
 21
434.0
 31
0.0
  1
%%c420
 13
200.235981
 23
351.162313
 33
0.0
 14
600.235981
 24
351.162313
 34
0.0
  3
LC-DIM-L-0090-02-02
  0
LINE
  8
LC-001-002-----0
  6
CONTINUOUS
  5
466
 10
422.23599
 20
330.605013
 30
0.0
 11
422.235981
 21
128.166631
 31
0.0
  0
LINE
  8
LC-001-002-----0
  6
CONTINUOUS
  5
467
 10
358.614146
 20
383.367976
 30
0.0
 11
441.857816
 21
383.367976
 31
0.0
  0
LINE
  8
LC-001-002-----0
  6
CONTINUOUS
  5
468
 10
348.416877
 20
346.867976
 30
0.0
 11
368.252661
 21
417.867976
 31
0.0
  0
LINE
  8
LC-001-002-----0
  6
DASHDOT
 62
     2
  5
46A
 10
330.236624
 20
351.367901
 30
0.0
 11
330.23342
 21
328.167322
 31
0.0
  0
LINE
  8
LC-001-002-----0
  6
CONTINUOUS
  5
46B
 10
285.995164
 20
351.162313
 30
0.0
 11
200.235981
 21
351.162313
 31
0.0
  0
LINE
  8
LC-001-002-----0
  6
CONTINUOUS
  5
46C
 10
467.73647
 20
335.035723
 30
0.0
 11
467.73647
 21
328.167322
 31
0.0
  0
LINE
  8
LC-001-002-----0
  6
DASHDOT
 62
     2
  5
46D
 10
470.235338
 20
351.367101
 30
0.0
 11
470.238542
 21
328.167322
 31
0.0
  0
LINE
  8
LC-001-002-----0
  6
CONTINUOUS
  5
46E
 10
467.237705
 20
343.167322
 30
0.0
 11
463.486205
 21
343.167322
 31
0.0
  0
LINE
  8
LC-001-002-----0
  6
CONTINUOUS
  5
46F
 10
472.73647
 20
335.034565
 30
0.0
 11
472.73647
 21
328.167322
 31
0.0
  0
LINE
  8
LC-001-002-----0
  6
CONTINUOUS
  5
470
 10
439.343421
 20
392.367976
 30
0.0
 11
361.128541
 21
392.367976
 31
0.0
  0
LINE
  8
LC-001-002-----0
  6
CONTINUOUS
  5
471
 10
472.73647
 20
328.167322
 30
0.0
 11
467.73647
 21
328.167322
 31
0.0
  0
LINE
  8
LC-001-002-----0
  6
CONTINUOUS
  5
472
 10
376.173803
 20
128.166631
 30
0.0
 11
375.235981
 21
131.666631
 31
0.0
  0
ARC
  8
LC-001-002-----0
  6
CONTINUOUS
  5
473
 10
470.23647
 20
337.167332
 30
0.0
 40
10.0
 50
244.157941
 51
295.841807
  0
LINE
  8
LC-001-002-----0
  6
CONTINUOUS
  5
474
 10
400.235981
 20
128.166631
 30
0.0
 11
376.173803
 21
128.166631
 31
0.0
  0
LINE
  8
LC-001-002-----0
  6
CONTINUOUS
  5
475
 10
476.236503
 20
328.167319
 30
0.0
 11
474.59535
 21
328.167322
 31
0.0
  0
LINE
  8
LC-001-002-----0
  6
CONTINUOUS
  5
476
 10
476.236503
 20
341.668012
 30
0.0
 11
476.236503
 21
338.168012
 31
0.0
  0
LINE
  8
LC-001-002-----0
  6
CONTINUOUS
  5
477
 10
476.236503
 20
335.668012
 30
0.0
 11
476.236503
 21
328.167319
 31
0.0
  0
LINE
  8
LC-002-006-MLN-0
  6
DASHDOT
  5
47A
 10
400.235981
 20
336.867976
 30
0.0
 11
400.235981
 21
431.867976
 31
0.0
  0
LINE
  8
LC-001-002-----0
  6
CONTINUOUS
  5
47B
 10
406.48075
 20
392.367976
 30
0.0
 11
405.402224
 21
417.867976
 31
0.0
  0
LINE
  8
LC-001-002-----0
  6
CONTINUOUS
  5
47C
 10
465.877552
 20
328.166631
 30
0.0
 11
452.21185
 21
328.166631
 31
0.0
  0
LINE
  8
LC-001-002-----0
  6
CONTINUOUS
  5
47D
 10
425.235981
 20
327.394837
 30
0.0
 11
425.235981
 21
131.666631
 31
0.0
  0
LINE
  8
LC-001-002-----0
  6
CONTINUOUS
  5
47E
 10
424.298159
 20
128.166631
 30
0.0
 11
425.235981
 21
131.666631
 31
0.0
  0
LINE
  8
LC-001-002-----0
  6
CONTINUOUS
  5
47F
 10
368.235981
 20
421.867976
 30
0.0
 11
368.094228
 21
421.867976
 31
0.0
  0
LINE
  8
LC-001-002-----0
  6
CONTINUOUS
  5
480
 10
295.447183
 20
350.85513
 30
0.0
 11
286.093117
 21
351.160713
 31
0.0
  0
LINE
  8
LC-001-002-----0
  6
CONTINUOUS
  5
481
 10
474.618017
 20
343.168012
 30
0.0
 11
476.118017
 21
341.668012
 31
0.0
  0
LINE
  8
LC-001-002-----0
  6
CONTINUOUS
  5
482
 10
485.235981
 20
341.668012
 30
0.0
 11
476.118017
 21
341.668012
 31
0.0
  0
LINE
  8
LC-001-002-----0
  6
CONTINUOUS
  5
483
 10
400.235981
 20
128.166631
 30
0.0
 11
424.298159
 21
128.166631
 31
0.0
  0
LINE
  8
LC-001-002-----0
  6
CONTINUOUS
  5
484
 10
348.235981
 20
331.168012
 30
0.0
 11
460.236007
 21
331.168012
 31
0.0
  0
LINE
  8
LC-001-002-----0
  6
CONTINUOUS
  5
485
 10
378.235971
 20
330.605013
 30
0.0
 11
378.235981
 21
128.166631
 31
0.0
  0
LINE
  8
LC-001-002-----0
  6
CONTINUOUS
  5
486
 10
505.519766
 20
347.869701
 30
0.0
 11
514.457039
 21
348.153551
 31
0.0
  0
LINE
  8
LC-001-002-----0
  6
CONTINUOUS
  5
487
 10
460.236007
 20
331.168012
 30
0.0
 11
452.235981
 21
331.168012
 31
0.0
  0
LINE
  8
LC-001-002-----0
  6
CONTINUOUS
  5
488
 10
375.235981
 20
327.394837
 30
0.0
 11
375.235981
 21
131.666631
 31
0.0
  0
LINE
  8
LC-001-002-----0
  6
CONTINUOUS
  5
489
 10
335.485869
 20
346.167322
 30
0.0
 11
335.485869
 21
343.167322
 31
0.0
  0
LINE
  8
LC-001-002-----0
  6
CONTINUOUS
  5
48A
 10
322.485492
 20
344.668012
 30
0.0
 11
322.485492
 21
341.668012
 31
0.0
  0
LINE
  8
LC-001-002-----0
  6
CONTINUOUS
  5
48B
 10
425.235981
 20
327.394837
 30
0.0
 11
452.21185
 21
328.166631
 31
0.0
  0
LINE
  8
LC-001-002-----0
  6
CONTINUOUS
  5
48C
 10
434.735939
 20
330.500269
 30
0.0
 11
452.335981
 21
331.168012
 31
0.0
  0
LINE
  8
LC-001-002-----0
  6
CONTINUOUS
 62
     2
  5
48D
 10
285.235981
 20
347.153267
 30
0.0
 11
285.235981
 21
346.124354
 31
0.0
  0
LINE
  8
LC-001-002-----0
  6
CONTINUOUS
  5
48E
 10
317.485492
 20
344.668012
 30
0.0
 11
317.485492
 21
341.668012
 31
0.0
  0
LINE
  8
LC-001-002-----0
  6
CONTINUOUS
  5
48F
 10
312.485492
 20
345.645996
 30
0.0
 11
312.485492
 21
342.508921
 31
0.0
  0
LINE
  8
LC-002-006-MLN-0
  6
DASHDOT
  5
490
 10
400.235981
 20
356.867976
 30
0.0
 11
400.235981
 21
118.166631
 31
0.0
  0
LINE
  8
LC-001-002-----0
  6
CONTINUOUS
  5
491
 10
485.235981
 20
341.668012
 30
0.0
 11
505.520911
 21
347.869738
 31
0.0
  0
LINE
  8
LC-001-002-----0
  6
CONTINUOUS
  5
492
 10
375.235981
 20
327.394837
 30
0.0
 11
348.234244
 21
328.167371
 31
0.0
  0
LINE
  8
LC-001-002-----0
  6
CONTINUOUS
  5
493
 10
365.735981
 20
330.709759
 30
0.0
 11
348.135981
 21
331.168012
 31
0.0
  0
ARC
  8
LC-006-002-RND-0
  6
CONTINUOUS
  5
495
 10
513.235981
 20
346.124354
 30
0.0
 40
2.0
 50
360.0
 51
91.898364
  0
LINE
  8
LC-001-002-----0
  6
CONTINUOUS
  5
496
 10
485.853125
 20
338.168012
 30
0.0
 11
505.861632
 21
344.286598
 31
0.0
  0
LINE
  8
LC-001-002-----0
  6
CONTINUOUS
  5
497
 10
365.735981
 20
330.709759
 30
0.0
 11
434.735939
 21
330.500269
 31
0.0
  0
LINE
  8
LC-001-002-----0
  6
CONTINUOUS
  5
498
 10
340.235869
 20
331.168012
 30
0.0
 11
348.135981
 21
331.168012
 31
0.0
  0
LINE
  8
LC-001-002-----0
  6
CONTINUOUS
  5
499
 10
307.485492
 20
347.17465
 30
0.0
 11
307.485492
 21
344.037575
 31
0.0
  0
LINE
  8
LC-001-002-----0
  6
CONTINUOUS
  5
49A
 10
302.485492
 20
348.703303
 30
0.0
 11
302.485492
 21
345.566228
 31
0.0
  0
LINE
  8
LC-001-002-----0
  6
CONTINUOUS
  5
49B
 10
285.235981
 20
346.124354
 30
0.0
 11
285.235981
 21
344.643211
 31
0.0
  0
LINE
  8
LC-001-002-----0
  6
CONTINUOUS
  5
49C
 10
285.995164
 20
348.162313
 30
0.0
 11
200.235981
 21
348.162313
 31
0.0
  0
LINE
  8
LC-001-002-----0
  6
CONTINUOUS
  5
49D
 10
370.235981
 20
421.867976
 30
0.0
 11
400.235981
 21
421.867976
 31
0.0
  0
LINE
  8
LC-001-002-----0
  6
CONTINUOUS
  5
49E
 10
297.485492
 20
350.231957
 30
0.0
 11
297.485492
 21
347.094881
 31
0.0
  0
LINE
  8
LC-001-002-----0
  6
CONTINUOUS
  5
49F
 10
200.235981
 20
351.162313
 30
0.0
 11
200.235981
 21
348.162313
 31
0.0
  0
LINE
  8
LC-001-002-----0
  6
CONTINUOUS
  5
4A0
 10
315.684334
 20
344.668012
 30
0.0
 11
295.447183
 21
350.85513
 31
0.0
  0
LINE
  8
LC-001-002-----0
  6
CONTINUOUS
  5
4A1
 10
324.610613
 20
346.167322
 30
0.0
 11
323.111304
 21
344.668012
 31
0.0
  0
LINE
  8
LC-001-002-----0
  6
CONTINUOUS
  5
4A2
 10
314.806854
 20
338.110517
 30
0.0
 11
294.61033
 21
344.286598
 31
0.0
  0
LINE
  8
LC-001-002-----0
  6
CONTINUOUS
  5
4A3
 10
327.235492
 20
346.167322
 30
0.0
 11
324.610613
 21
346.167322
 31
0.0
  0
LINE
  8
LC-001-002-----0
  6
CONTINUOUS
  5
4A4
 10
340.235869
 20
346.167322
 30
0.0
 11
333.235492
 21
346.167322
 31
0.0
  0
LINE
  8
LC-007-004-----0
  6
CONTINUOUS
  5
4A6
 10
330.233794
 20
330.870703
 30
0.0
 11
330.235475
 21
330.867901
 31
0.0
  0
LINE
  8
LC-001-002-----0
  6
CONTINUOUS
  5
4A7
 10
287.485492
 20
351.115226
 30
0.0
 11
287.485492
 21
348.113626
 31
0.0
  0
LINE
  8
LC-001-002-----0
  6
CONTINUOUS
  5
4A8
 10
315.235981
 20
341.668012
 30
0.0
 11
294.951051
 21
347.869738
 31
0.0
  0
LINE
  8
LC-001-002-----0
  6
CONTINUOUS
  5
4A9
 10
294.951051
 20
347.869738
 30
0.0
 11
286.014923
 21
348.153551
 31
0.0
  0
LINE
  8
LC-001-002-----0
  6
CONTINUOUS
  5
4AA
 10
325.853944
 20
343.168012
 30
0.0
 11
324.353944
 21
341.668012
 31
0.0
  0
LINE
  8
LC-001-002-----0
  6
CONTINUOUS
  5
4AB
 10
292.485492
 20
350.951884
 30
0.0
 11
292.485492
 21
347.950284
 31
0.0
  0
LINE
  8
LC-001-002-----0
  6
CONTINUOUS
  5
4AC
 10
348.235981
 20
331.168012
 30
0.0
 11
348.135981
 21
331.168012
 31
0.0
  0
LINE
  8
LC-001-002-----0
  6
CONTINUOUS
  5
4AD
 10
345.235981
 20
328.167322
 30
0.0
 11
345.235981
 21
328.167296
 31
0.0
  0
LINE
  8
LC-001-002-----0
  6
CONTINUOUS
  5
4AE
 10
282.485492
 20
351.162313
 30
0.0
 11
282.485492
 21
348.162313
 31
0.0
  0
LINE
  8
LC-001-002-----0
  6
CONTINUOUS
  5
4AF
 10
277.485492
 20
351.162313
 30
0.0
 11
277.485492
 21
348.162313
 31
0.0
  0
LINE
  8
LC-001-002-----0
  6
CONTINUOUS
  5
4B0
 10
272.485492
 20
351.162313
 30
0.0
 11
272.485492
 21
348.162313
 31
0.0
  0
LINE
  8
LC-001-002-----0
  6
CONTINUOUS
  5
4B1
 10
267.485492
 20
351.162313
 30
0.0
 11
267.485492
 21
348.162313
 31
0.0
  0
LINE
  8
LC-001-002-----0
  6
CONTINUOUS
  5
4B2
 10
262.485492
 20
351.162313
 30
0.0
 11
262.485492
 21
348.162313
 31
0.0
  0
LINE
  8
LC-001-002-----0
  6
CONTINUOUS
  5
4B3
 10
257.485492
 20
351.162313
 30
0.0
 11
257.485492
 21
348.162313
 31
0.0
  0
LINE
  8
LC-001-002-----0
  6
CONTINUOUS
  5
4B4
 10
252.485492
 20
351.162313
 30
0.0
 11
252.485492
 21
348.162313
 31
0.0
  0
LINE
  8
LC-001-002-----0
  6
CONTINUOUS
  5
4B5
 10
247.485492
 20
351.162313
 30
0.0
 11
247.485492
 21
348.162313
 31
0.0
  0
LINE
  8
LC-001-002-----0
  6
CONTINUOUS
  5
4B6
 10
455.235981
 20
328.167322
 30
0.0
 11
455.235981
 21
328.167322
 31
0.0
  0
LINE
  8
LC-001-002-----0
  6
CONTINUOUS
  5
4B7
 10
452.235981
 20
331.168012
 30
0.0
 11
452.335981
 21
331.168012
 31
0.0
  0
LINE
  8
LC-001-002-----0
  6
CONTINUOUS
  5
4B8
 10
404.878517
 20
383.367976
 30
0.0
 11
406.42229
 21
346.867976
 31
0.0
  0
LINE
  8
LC-001-002-----0
  6
CONTINUOUS
  5
4B9
 10
393.991212
 20
392.367976
 30
0.0
 11
395.069738
 21
417.867976
 31
0.0
  0
LINE
  8
LC-001-002-----0
  6
CONTINUOUS
  5
4BA
 10
395.593445
 20
383.367976
 30
0.0
 11
394.049672
 21
346.867976
 31
0.0
  0
LINE
  8
LC-001-002-----0
  6
CONTINUOUS
  5
4BB
 10
384.641865
 20
383.367976
 30
0.0
 11
380.115751
 21
346.867976
 31
0.0
  0
LINE
  8
LC-001-002-----0
  6
CONTINUOUS
  5
4BC
 10
242.485492
 20
351.162313
 30
0.0
 11
242.485492
 21
348.162313
 31
0.0
  0
LINE
  8
LC-001-002-----0
  6
CONTINUOUS
  5
4BD
 10
474.618017
 20
343.168012
 30
0.0
 11
473.236454
 21
343.168012
 31
0.0
  0
LINE
  8
LC-001-002-----0
  6
CONTINUOUS
  5
4BE
 10
370.235981
 20
417.867976
 30
0.0
 11
400.235981
 21
417.867976
 31
0.0
  0
ARC
  8
LC-006-002-RND-0
  6
CONTINUOUS
  5
4BF
 10
367.807417
 20
408.867976
 30
0.0
 40
13.0
 50
88.110819
 51
165.0
  0
LINE
  8
LC-001-002-----0
  6
CONTINUOUS
  5
4C0
 10
382.794106
 20
383.367976
 30
0.0
 11
378.267992
 21
346.867976
 31
0.0
  0
LINE
  8
LC-001-002-----0
  6
CONTINUOUS
  5
4C1
 10
460.236007
 20
343.167322
 30
0.0
 11
463.486205
 21
343.167322
 31
0.0
  0
LINE
  8
LC-001-002-----0
  6
CONTINUOUS
  5
4C2
 10
374.752997
 20
383.367976
 30
0.0
 11
367.552991
 21
346.867976
 31
0.0
  0
LINE
  8
LC-001-002-----0
  6
CONTINUOUS
  5
4C3
 10
237.485492
 20
351.162313
 30
0.0
 11
237.485492
 21
348.162313
 31
0.0
  0
LINE
  8
LC-001-002-----0
  6
CONTINUOUS
  5
4C4
 10
227.485492
 20
351.162313
 30
0.0
 11
227.485492
 21
348.162313
 31
0.0
  0
LINE
  8
LC-001-002-----0
  6
CONTINUOUS
  5
4C5
 10
222.485492
 20
351.162313
 30
0.0
 11
222.485492
 21
348.162313
 31
0.0
  0
LINE
  8
LC-001-002-----0
  6
CONTINUOUS
  5
4C6
 10
217.485492
 20
351.162313
 30
0.0
 11
217.485492
 21
348.162313
 31
0.0
  0
LINE
  8
LC-001-002-----0
  6
CONTINUOUS
  5
4C7
 10
212.485492
 20
351.162313
 30
0.0
 11
212.485492
 21
348.162313
 31
0.0
  0
LINE
  8
LC-001-002-----0
  6
CONTINUOUS
  5
4C8
 10
207.485492
 20
351.162313
 30
0.0
 11
207.485492
 21
348.162313
 31
0.0
  0
LINE
  8
LC-001-002-----0
  6
CONTINUOUS
  5
4C9
 10
202.485492
 20
351.162313
 30
0.0
 11
202.485492
 21
348.162313
 31
0.0
  0
LINE
  8
LC-001-002-----0
  6
CONTINUOUS
  5
4CA
 10
373.240306
 20
383.367976
 30
0.0
 11
365.966285
 21
346.867976
 31
0.0
  0
LINE
  8
LC-001-002-----0
  6
CONTINUOUS
  5
4CB
 10
365.383231
 20
383.367976
 30
0.0
 11
356.0
 21
346.867976
 31
0.0
  0
LINE
  8
LC-001-002-----0
  6
CONTINUOUS
  5
4CC
 10
366.600753
 20
383.367976
 30
0.0
 11
357.217523
 21
346.867976
 31
0.0
  0
LINE
  8
LC-001-002-----0
  6
CONTINUOUS
  5
4CD
 10
360.740695
 20
383.367976
 30
0.0
 11
349.813691
 21
346.867976
 31
0.0
  0
LINE
  8
LC-001-002-----0
  6
CONTINUOUS
  5
4CE
 10
439.731267
 20
383.367976
 30
0.0
 11
450.658271
 21
346.867976
 31
0.0
  0
LINE
  8
LC-001-002-----0
  6
CONTINUOUS
  5
4CF
 10
405.235981
 20
421.867976
 30
0.0
 11
405.235981
 21
417.867976
 31
0.0
  0
LINE
  8
LC-001-002-----0
  6
CONTINUOUS
  5
4D0
 10
355.250381
 20
412.232623
 30
0.0
 11
337.735981
 21
346.867991
 31
0.0
  0
LINE
  8
LC-001-002-----0
  6
CONTINUOUS
  5
4D1
 10
432.235981
 20
421.867976
 30
0.0
 11
432.377734
 21
421.867976
 31
0.0
  0
LINE
  8
LC-001-002-----0
  6
CONTINUOUS
  5
4D2
 10
430.235981
 20
421.867976
 30
0.0
 11
430.235981
 21
417.867976
 31
0.0
  0
LINE
  8
LC-001-002-----0
  6
CONTINUOUS
  5
4D3
 10
432.235981
 20
421.867976
 30
0.0
 11
430.235981
 21
421.867976
 31
0.0
  0
LINE
  8
LC-001-002-----0
  6
CONTINUOUS
  5
4D4
 10
432.235981
 20
417.808272
 30
0.0
 11
432.235981
 21
421.867976
 31
0.0
  0
LINE
  8
LC-001-002-----0
  6
CONTINUOUS
  5
4D5
 10
368.235981
 20
417.867976
 30
0.0
 11
368.235981
 21
421.867976
 31
0.0
  0
LINE
  8
LC-001-002-----0
  6
CONTINUOUS
  5
4D6
 10
368.235981
 20
421.867976
 30
0.0
 11
370.235981
 21
421.867976
 31
0.0
  0
LINE
  8
LC-001-002-----0
  6
CONTINUOUS
  5
4D7
 10
370.235981
 20
421.867976
 30
0.0
 11
370.235981
 21
417.867976
 31
0.0
  0
LINE
  8
LC-001-002-----0
  6
CONTINUOUS
  5
4D8
 10
395.235981
 20
421.867976
 30
0.0
 11
395.235981
 21
417.867976
 31
0.0
  0
LINE
  8
LC-001-002-----0
  6
CONTINUOUS
  5
4D9
 10
388.919972
 20
417.867976
 30
0.0
 11
385.757892
 21
392.367976
 31
0.0
  0
LINE
  8
LC-001-002-----0
  6
CONTINUOUS
  5
4DA
 10
387.072212
 20
417.867976
 30
0.0
 11
383.910133
 21
392.367976
 31
0.0
  0
LINE
  8
LC-001-002-----0
  6
CONTINUOUS
  5
4DB
 10
392.066782
 20
346.867976
 30
0.0
 11
393.610555
 21
383.367976
 31
0.0
  0
LINE
  8
LC-001-002-----0
  6
CONTINUOUS
  5
4DC
 10
397.052628
 20
417.867976
 30
0.0
 11
395.974101
 21
392.367976
 31
0.0
  0
LINE
  8
LC-001-002-----0
  6
CONTINUOUS
  5
4DD
 10
381.558483
 20
417.867976
 30
0.0
 11
376.528341
 21
392.367976
 31
0.0
  0
LINE
  8
LC-001-002-----0
  6
CONTINUOUS
  5
4DE
 10
380.115751
 20
417.867976
 30
0.0
 11
375.033901
 21
392.367976
 31
0.0
  0
LINE
  8
LC-001-002-----0
  6
CONTINUOUS
  5
4DF
 10
375.469835
 20
417.867976
 30
0.0
 11
368.914427
 21
392.367976
 31
0.0
  0
LINE
  8
LC-001-002-----0
  6
CONTINUOUS
  5
4E0
 10
374.252312
 20
417.867976
 30
0.0
 11
367.696904
 21
392.367976
 31
0.0
  0
LINE
  8
LC-001-002-----0
  6
CONTINUOUS
  5
4E1
 10
371.068958
 20
417.867976
 30
0.0
 11
363.435024
 21
392.367976
 31
0.0
  0
LINE
  8
LC-001-002-----0
  6
CONTINUOUS
  5
4E2
 10
349.048324
 20
346.867976
 30
0.0
 11
359.975328
 21
383.367976
 31
0.0
  0
LINE
  8
LC-001-002-----0
  6
CONTINUOUS
  5
4E3
 10
435.088731
 20
383.367976
 30
0.0
 11
444.471962
 21
346.867976
 31
0.0
  0
LINE
  8
LC-001-002-----0
  6
CONTINUOUS
  5
4E4
 10
452.055085
 20
346.867976
 30
0.0
 11
441.857816
 21
383.367976
 31
0.0
  0
LINE
  8
LC-001-002-----0
  6
CONTINUOUS
  5
4E5
 10
433.871208
 20
383.367976
 30
0.0
 11
443.254439
 21
346.867976
 31
0.0
  0
LINE
  8
LC-001-002-----0
  6
CONTINUOUS
  5
4E6
 10
427.231656
 20
383.367976
 30
0.0
 11
434.505677
 21
346.867976
 31
0.0
  0
LINE
  8
LC-001-002-----0
  6
CONTINUOUS
  5
4E7
 10
425.718964
 20
383.367976
 30
0.0
 11
432.918971
 21
346.867976
 31
0.0
  0
LINE
  8
LC-001-002-----0
  6
CONTINUOUS
  5
4E8
 10
432.664545
 20
421.867976
 30
0.0
 11
400.235981
 21
421.867976
 31
0.0
  0
LINE
  8
LC-001-002-----0
  6
CONTINUOUS
  5
4E9
 10
417.677856
 20
383.367976
 30
0.0
 11
422.203969
 21
346.867976
 31
0.0
  0
LINE
  8
LC-001-002-----0
  6
CONTINUOUS
  5
4EA
 10
415.830097
 20
383.367976
 30
0.0
 11
420.35621
 21
346.867976
 31
0.0
  0
LINE
  8
LC-001-002-----0
  6
CONTINUOUS
  5
4EB
 10
432.219301
 20
417.867976
 30
0.0
 11
400.235981
 21
417.867976
 31
0.0
  0
ARC
  8
LC-006-002-RND-0
  6
CONTINUOUS
  5
4EC
 10
432.664545
 20
408.867976
 30
0.0
 40
13.0
 50
15.0
 51
90.0
  0
LINE
  8
LC-001-002-----0
  6
CONTINUOUS
  5
4ED
 10
451.423638
 20
346.867976
 30
0.0
 11
440.496634
 21
383.367976
 31
0.0
  0
LINE
  8
LC-001-002-----0
  6
CONTINUOUS
  5
4EE
 10
429.403003
 20
417.867976
 30
0.0
 11
437.036937
 21
392.367976
 31
0.0
  0
LINE
  8
LC-001-002-----0
  6
CONTINUOUS
  5
4EF
 10
426.21965
 20
417.867976
 30
0.0
 11
432.775058
 21
392.367976
 31
0.0
  0
LINE
  8
LC-001-002-----0
  6
CONTINUOUS
  5
4F0
 10
425.002127
 20
417.867976
 30
0.0
 11
431.557535
 21
392.367976
 31
0.0
  0
LINE
  8
LC-001-002-----0
  6
CONTINUOUS
  5
4F1
 10
420.35621
 20
417.867976
 30
0.0
 11
425.438061
 21
392.367976
 31
0.0
  0
LINE
  8
LC-001-002-----0
  6
CONTINUOUS
  5
4F2
 10
418.913479
 20
417.867976
 30
0.0
 11
423.94362
 21
392.367976
 31
0.0
  0
LINE
  8
LC-001-002-----0
  6
CONTINUOUS
  5
4F3
 10
403.419334
 20
417.867976
 30
0.0
 11
404.497861
 21
392.367976
 31
0.0
  0
LINE
  8
LC-001-002-----0
  6
CONTINUOUS
  5
4F4
 10
408.405179
 20
346.867976
 30
0.0
 11
406.861407
 21
383.367976
 31
0.0
  0
LINE
  8
LC-001-002-----0
  6
CONTINUOUS
  5
4F5
 10
413.399749
 20
417.867976
 30
0.0
 11
416.561828
 21
392.367976
 31
0.0
  0
LINE
  8
LC-001-002-----0
  6
CONTINUOUS
  5
4F6
 10
411.55199
 20
417.867976
 30
0.0
 11
414.714069
 21
392.367976
 31
0.0
  0
LINE
  8
LC-001-002-----0
  6
CONTINUOUS
  5
4F7
 10
439.343421
 20
392.367976
 30
0.0
 11
439.343421
 21
385.367976
 31
0.0
  0
LINE
  8
LC-001-002-----0
  6
CONTINUOUS
  5
4F8
 10
441.343421
 20
383.367976
 30
0.0
 11
441.857816
 21
383.367976
 31
0.0
  0
LINE
  8
LC-001-002-----0
  6
CONTINUOUS
  5
4F9
 10
445.221581
 20
412.232623
 30
0.0
 11
462.735981
 21
346.867991
 31
0.0
  0
LINE
  8
LC-001-002-----0
  6
CONTINUOUS
  5
4FA
 10
437.802304
 20
392.367976
 30
0.0
 11
430.16837
 21
417.867976
 31
0.0
  0
ARC
  8
LC-006-002-RND-0
  6
CONTINUOUS
  5
4FB
 10
441.343421
 20
385.367976
 30
0.0
 40
2.0
 50
180.0
 51
270.0
  0
LINE
  8
LC-001-002-----0
  6
CONTINUOUS
  5
4FC
 10
370.235981
 20
417.867976
 30
0.0
 11
368.252661
 21
417.867976
 31
0.0
  0
LINE
  8
LC-001-002-----0
  6
CONTINUOUS
  5
4FD
 10
439.343421
 20
392.367976
 30
0.0
 11
432.235981
 21
417.808272
 31
0.0
  0
LINE
  8
LC-001-002-----0
  6
CONTINUOUS
  5
4FE
 10
439.343421
 20
392.367976
 30
0.0
 11
441.857816
 21
383.367976
 31
0.0
  0
LINE
  8
LC-001-002-----0
  6
CONTINUOUS
  5
4FF
 10
361.128541
 20
392.367976
 30
0.0
 11
361.128541
 21
385.367976
 31
0.0
  0
LINE
  8
LC-001-002-----0
  6
CONTINUOUS
  5
500
 10
359.128541
 20
383.367976
 30
0.0
 11
358.614146
 21
383.367976
 31
0.0
  0
ARC
  8
LC-006-002-RND-0
  6
CONTINUOUS
  5
501
 10
359.128541
 20
385.367976
 30
0.0
 40
2.0
 50
270.0
 51
0.0
  0
LINE
  8
LC-001-002-----0
  6
CONTINUOUS
  5
502
 10
361.128541
 20
392.367976
 30
0.0
 11
358.614146
 21
383.367976
 31
0.0
  0
LINE
  8
LC-001-002-----0
  6
CONTINUOUS
  5
503
 10
362.669658
 20
392.367976
 30
0.0
 11
370.303592
 21
417.867976
 31
0.0
  0
LINE
  8
LC-001-002-----0
  6
CONTINUOUS
  5
504
 10
345.735981
 20
346.867976
 30
0.0
 11
400.235981
 21
346.867976
 31
0.0
  0
LINE
  8
LC-001-002-----0
  6
CONTINUOUS
  5
505
 10
343.735981
 20
343.867976
 30
0.0
 11
343.735981
 21
346.867974
 31
0.0
  0
LINE
  8
LC-001-002-----0
  6
CONTINUOUS
  5
506
 10
345.735981
 20
336.867976
 30
0.0
 11
345.735981
 21
346.867976
 31
0.0
  0
LINE
  8
LC-001-002-----0
  6
CONTINUOUS
  5
507
 10
343.235988
 20
343.867976
 30
0.0
 11
343.735981
 21
343.867976
 31
0.0
  0
ARC
  8
LC-001-002-----0
  6
CONTINUOUS
  5
508
 10
343.235988
 20
342.867976
 30
0.0
 40
1.0
 50
90.0
 51
180.0
  0
LINE
  8
LC-001-002-----0
  6
CONTINUOUS
  5
509
 10
342.235988
 20
342.867976
 30
0.0
 11
343.735988
 21
341.367976
 31
0.0
  0
LINE
  8
LC-001-002-----0
  6
CONTINUOUS
  5
50A
 10
343.735981
 20
341.367976
 30
0.0
 11
343.735981
 21
336.867976
 31
0.0
  0
LINE
  8
LC-001-002-----0
  6
CONTINUOUS
  5
50B
 10
343.735981
 20
336.867976
 30
0.0
 11
345.735981
 21
336.867976
 31
0.0
  0
LINE
  8
LC-001-002-----0
  6
CONTINUOUS
  5
50C
 10
345.735981
 20
336.867976
 30
0.0
 11
454.735981
 21
336.867976
 31
0.0
  0
LINE
  8
LC-001-002-----0
  6
CONTINUOUS
  5
50D
 10
343.735981
 20
346.867974
 30
0.0
 11
337.735981
 21
346.867991
 31
0.0
  0
LINE
  8
LC-001-002-----0
  6
CONTINUOUS
  5
50E
 10
454.735981
 20
336.867976
 30
0.0
 11
454.735981
 21
346.867976
 31
0.0
  0
LINE
  8
LC-001-002-----0
  6
CONTINUOUS
  5
50F
 10
454.735981
 20
346.867976
 30
0.0
 11
400.235981
 21
346.867976
 31
0.0
  0
LINE
  8
LC-001-002-----0
  6
CONTINUOUS
  5
510
 10
456.735981
 20
341.367976
 30
0.0
 11
456.735981
 21
336.867976
 31
0.0
  0
LINE
  8
LC-001-002-----0
  6
CONTINUOUS
  5
511
 10
456.735981
 20
336.867976
 30
0.0
 11
454.735981
 21
336.867976
 31
0.0
  0
LINE
  8
LC-001-002-----0
  6
CONTINUOUS
  5
512
 10
458.235974
 20
342.867976
 30
0.0
 11
456.735974
 21
341.367976
 31
0.0
  0
ARC
  8
LC-001-002-----0
  6
CONTINUOUS
  5
513
 10
457.235974
 20
342.867976
 30
0.0
 40
1.0
 50
0.0
 51
90.0
  0
LINE
  8
LC-001-002-----0
  6
CONTINUOUS
  5
514
 10
457.235974
 20
343.867976
 30
0.0
 11
456.735981
 21
343.867976
 31
0.0
  0
LINE
  8
LC-001-002-----0
  6
CONTINUOUS
  5
515
 10
456.735981
 20
343.867976
 30
0.0
 11
456.735981
 21
346.867974
 31
0.0
  0
LINE
  8
LC-001-002-----0
  6
CONTINUOUS
  5
516
 10
456.735981
 20
346.867974
 30
0.0
 11
462.735981
 21
346.867991
 31
0.0
  0
LINE
  8
LC-001-002-----0
  6
CONTINUOUS
  5
517
 10
515.235981
 20
346.124354
 30
0.0
 11
515.235981
 21
344.643211
 31
0.0
  0
LINE
  8
LC-001-002-----0
  6
CONTINUOUS
 62
     2
  5
518
 10
434.735981
 20
128.166631
 30
0.0
 11
424.298159
 21
128.166631
 31
0.0
  0
ARC
  8
LC-006-002-RND-0
  6
CONTINUOUS
  5
519
 10
287.235981
 20
346.124354
 30
0.0
 40
2.0
 50
88.101636
 51
180.0
  0
LINE
  8
LC-009-005-----0
  6
CONTINUOUS
  5
51A
 10
377.068218
 20
128.166631
 30
0.0
 11
378.235981
 21
129.334394
 31
0.0
  0
LINE
  8
LC-009-005-----0
  6
CONTINUOUS
  5
51B
 10
375.765098
 20
129.691938
 30
0.0
 11
378.235981
 21
132.162821
 31
0.0
  0
LINE
  8
LC-009-005-----0
  6
CONTINUOUS
  5
51C
 10
375.235981
 20
131.991248
 30
0.0
 11
378.235981
 21
134.991248
 31
0.0
  0
LINE
  8
LC-009-005-----0
  6
CONTINUOUS
  5
51D
 10
375.235981
 20
134.819675
 30
0.0
 11
378.23598
 21
137.819675
 31
0.0
  0
LINE
  8
LC-009-005-----0
  6
CONTINUOUS
  5
51E
 10
375.235981
 20
137.648102
 30
0.0
 11
378.23598
 21
140.648102
 31
0.0
  0
LINE
  8
LC-009-005-----0
  6
CONTINUOUS
  5
51F
 10
375.235981
 20
140.47653
 30
0.0
 11
378.23598
 21
143.476529
 31
0.0
  0
LINE
  8
LC-009-005-----0
  6
CONTINUOUS
  5
520
 10
375.235981
 20
143.304957
 30
0.0
 11
378.23598
 21
146.304956
 31
0.0
  0
LINE
  8
LC-009-005-----0
  6
CONTINUOUS
  5
521
 10
375.235981
 20
146.133384
 30
0.0
 11
378.23598
 21
149.133383
 31
0.0
  0
LINE
  8
LC-009-005-----0
  6
CONTINUOUS
  5
522
 10
375.235981
 20
148.961811
 30
0.0
 11
378.23598
 21
151.96181
 31
0.0
  0
LINE
  8
LC-009-005-----0
  6
CONTINUOUS
  5
523
 10
375.235981
 20
151.790238
 30
0.0
 11
378.23598
 21
154.790237
 31
0.0
  0
LINE
  8
LC-009-005-----0
  6
CONTINUOUS
  5
524
 10
375.235981
 20
154.618665
 30
0.0
 11
378.23598
 21
157.618664
 31
0.0
  0
LINE
  8
LC-009-005-----0
  6
CONTINUOUS
  5
525
 10
375.235981
 20
157.447092
 30
0.0
 11
378.235979
 21
160.447091
 31
0.0
  0
LINE
  8
LC-009-005-----0
  6
CONTINUOUS
  5
526
 10
375.235981
 20
160.275519
 30
0.0
 11
378.235979
 21
163.275518
 31
0.0
  0
LINE
  8
LC-009-005-----0
  6
CONTINUOUS
  5
527
 10
375.235981
 20
163.103947
 30
0.0
 11
378.235979
 21
166.103945
 31
0.0
  0
LINE
  8
LC-009-005-----0
  6
CONTINUOUS
  5
528
 10
375.235981
 20
165.932374
 30
0.0
 11
378.235979
 21
168.932372
 31
0.0
  0
LINE
  8
LC-009-005-----0
  6
CONTINUOUS
  5
529
 10
375.235981
 20
168.760801
 30
0.0
 11
378.235979
 21
171.760799
 31
0.0
  0
LINE
  8
LC-009-005-----0
  6
CONTINUOUS
  5
52A
 10
375.235981
 20
171.589228
 30
0.0
 11
378.235979
 21
174.589226
 31
0.0
  0
LINE
  8
LC-009-005-----0
  6
CONTINUOUS
  5
52B
 10
375.235981
 20
174.417655
 30
0.0
 11
378.235979
 21
177.417653
 31
0.0
  0
LINE
  8
LC-001-002-----0
  6
CONTINUOUS
  5
52C
 10
294.61033
 20
344.286598
 30
0.0
 11
285.235981
 21
344.643211
 31
0.0
  0
LINE
  8
LC-001-002-----0
  6
CONTINUOUS
  5
52D
 10
505.861632
 20
344.286598
 30
0.0
 11
515.235981
 21
344.643211
 31
0.0
  0
LINE
  8
LC-009-005-----0
  6
CONTINUOUS
  5
52E
 10
375.235981
 20
177.246082
 30
0.0
 11
378.235978
 21
180.24608
 31
0.0
  0
LINE
  8
LC-009-005-----0
  6
CONTINUOUS
  5
52F
 10
375.235981
 20
180.074509
 30
0.0
 11
378.235978
 21
183.074507
 31
0.0
  0
LINE
  8
LC-009-005-----0
  6
CONTINUOUS
  5
530
 10
375.235981
 20
182.902936
 30
0.0
 11
378.235978
 21
185.902934
 31
0.0
  0
LINE
  8
LC-009-005-----0
  6
CONTINUOUS
  5
531
 10
375.235981
 20
185.731364
 30
0.0
 11
378.235978
 21
188.731361
 31
0.0
  0
LINE
  8
LC-009-005-----0
  6
CONTINUOUS
  5
532
 10
375.235981
 20
188.559791
 30
0.0
 11
378.235978
 21
191.559788
 31
0.0
  0
LINE
  8
LC-009-005-----0
  6
CONTINUOUS
  5
533
 10
375.235981
 20
191.388218
 30
0.0
 11
378.235978
 21
194.388215
 31
0.0
  0
LINE
  8
LC-009-005-----0
  6
CONTINUOUS
  5
534
 10
375.235981
 20
194.216645
 30
0.0
 11
378.235978
 21
197.216642
 31
0.0
  0
LINE
  8
LC-009-005-----0
  6
CONTINUOUS
  5
535
 10
375.235981
 20
197.045072
 30
0.0
 11
378.235978
 21
200.045069
 31
0.0
  0
LINE
  8
LC-009-005-----0
  6
CONTINUOUS
  5
536
 10
375.235981
 20
199.873499
 30
0.0
 11
378.235977
 21
202.873496
 31
0.0
  0
LINE
  8
LC-009-005-----0
  6
CONTINUOUS
  5
537
 10
375.235981
 20
202.701926
 30
0.0
 11
378.235977
 21
205.701923
 31
0.0
  0
LINE
  8
LC-009-005-----0
  6
CONTINUOUS
  5
538
 10
375.235981
 20
205.530353
 30
0.0
 11
378.235977
 21
208.53035
 31
0.0
  0
LINE
  8
LC-009-005-----0
  6
CONTINUOUS
  5
539
 10
375.235981
 20
208.358781
 30
0.0
 11
378.235977
 21
211.358777
 31
0.0
  0
LINE
  8
LC-009-005-----0
  6
CONTINUOUS
  5
53A
 10
375.235981
 20
211.187208
 30
0.0
 11
378.235977
 21
214.187204
 31
0.0
  0
LINE
  8
LC-009-005-----0
  6
CONTINUOUS
  5
53B
 10
375.235981
 20
214.015635
 30
0.0
 11
378.235977
 21
217.015631
 31
0.0
  0
LINE
  8
LC-009-005-----0
  6
CONTINUOUS
  5
53C
 10
375.235981
 20
216.844062
 30
0.0
 11
378.235977
 21
219.844058
 31
0.0
  0
LINE
  8
LC-009-005-----0
  6
CONTINUOUS
  5
53D
 10
375.235981
 20
219.672489
 30
0.0
 11
378.235977
 21
222.672485
 31
0.0
  0
LINE
  8
LC-009-005-----0
  6
CONTINUOUS
  5
53E
 10
375.235981
 20
222.500916
 30
0.0
 11
378.235976
 21
225.500912
 31
0.0
  0
LINE
  8
LC-009-005-----0
  6
CONTINUOUS
  5
53F
 10
375.235981
 20
225.329343
 30
0.0
 11
378.235976
 21
228.329339
 31
0.0
  0
LINE
  8
LC-009-005-----0
  6
CONTINUOUS
  5
540
 10
375.235981
 20
228.15777
 30
0.0
 11
378.235976
 21
231.157766
 31
0.0
  0
LINE
  8
LC-009-005-----0
  6
CONTINUOUS
  5
541
 10
375.235981
 20
230.986198
 30
0.0
 11
378.235976
 21
233.986193
 31
0.0
  0
LINE
  8
LC-009-005-----0
  6
CONTINUOUS
  5
542
 10
375.235981
 20
233.814625
 30
0.0
 11
378.235976
 21
236.81462
 31
0.0
  0
LINE
  8
LC-009-005-----0
  6
CONTINUOUS
  5
543
 10
375.235981
 20
236.643052
 30
0.0
 11
378.235976
 21
239.643047
 31
0.0
  0
LINE
  8
LC-009-005-----0
  6
CONTINUOUS
  5
544
 10
375.235981
 20
239.471479
 30
0.0
 11
378.235976
 21
242.471474
 31
0.0
  0
LINE
  8
LC-009-005-----0
  6
CONTINUOUS
  5
545
 10
375.235981
 20
242.299906
 30
0.0
 11
378.235975
 21
245.299901
 31
0.0
  0
LINE
  8
LC-009-005-----0
  6
CONTINUOUS
  5
546
 10
375.235981
 20
245.128333
 30
0.0
 11
378.235975
 21
248.128328
 31
0.0
  0
LINE
  8
LC-009-005-----0
  6
CONTINUOUS
  5
547
 10
375.235981
 20
247.95676
 30
0.0
 11
378.235975
 21
250.956755
 31
0.0
  0
LINE
  8
LC-009-005-----0
  6
CONTINUOUS
  5
548
 10
375.235981
 20
250.785187
 30
0.0
 11
378.235975
 21
253.785182
 31
0.0
  0
LINE
  8
LC-009-005-----0
  6
CONTINUOUS
  5
549
 10
375.235981
 20
253.613615
 30
0.0
 11
378.235975
 21
256.613609
 31
0.0
  0
LINE
  8
LC-009-005-----0
  6
CONTINUOUS
  5
54A
 10
375.235981
 20
256.442042
 30
0.0
 11
378.235975
 21
259.442036
 31
0.0
  0
LINE
  8
LC-009-005-----0
  6
CONTINUOUS
  5
54B
 10
375.235981
 20
259.270469
 30
0.0
 11
378.235975
 21
262.270463
 31
0.0
  0
LINE
  8
LC-009-005-----0
  6
CONTINUOUS
  5
54C
 10
375.235981
 20
262.098896
 30
0.0
 11
378.235975
 21
265.09889
 31
0.0
  0
LINE
  8
LC-009-005-----0
  6
CONTINUOUS
  5
54D
 10
375.235981
 20
264.927323
 30
0.0
 11
378.235974
 21
267.927317
 31
0.0
  0
LINE
  8
LC-009-005-----0
  6
CONTINUOUS
  5
54E
 10
375.235981
 20
267.75575
 30
0.0
 11
378.235974
 21
270.755744
 31
0.0
  0
LINE
  8
LC-009-005-----0
  6
CONTINUOUS
  5
54F
 10
375.235981
 20
270.584177
 30
0.0
 11
378.235974
 21
273.58417
 31
0.0
  0
LINE
  8
LC-009-005-----0
  6
CONTINUOUS
  5
550
 10
375.235981
 20
273.412604
 30
0.0
 11
378.235974
 21
276.412597
 31
0.0
  0
LINE
  8
LC-009-005-----0
  6
CONTINUOUS
  5
551
 10
375.235981
 20
276.241032
 30
0.0
 11
378.235974
 21
279.241024
 31
0.0
  0
LINE
  8
LC-009-005-----0
  6
CONTINUOUS
  5
552
 10
375.235981
 20
279.069459
 30
0.0
 11
378.235974
 21
282.069451
 31
0.0
  0
LINE
  8
LC-009-005-----0
  6
CONTINUOUS
  5
553
 10
375.235981
 20
281.897886
 30
0.0
 11
378.235974
 21
284.897878
 31
0.0
  0
LINE
  8
LC-009-005-----0
  6
CONTINUOUS
  5
554
 10
375.235981
 20
284.726313
 30
0.0
 11
378.235973
 21
287.726305
 31
0.0
  0
LINE
  8
LC-001-002-----0
  6
CONTINUOUS
  5
555
 10
474.618017
 20
343.168012
 30
0.0
 11
476.118017
 21
341.668012
 31
0.0
  0
LINE
  8
LC-001-002-----0
  6
CONTINUOUS
  5
556
 10
460.236007
 20
346.167322
 30
0.0
 11
460.236007
 21
331.168012
 31
0.0
  0
LINE
  8
LC-001-002-----0
  6
CONTINUOUS
  5
557
 10
327.735492
 20
328.167322
 30
0.0
 11
332.735492
 21
328.167322
 31
0.0
  0
LINE
  8
LC-001-002-----0
  6
CONTINUOUS
  5
558
 10
332.735492
 20
335.035723
 30
0.0
 11
332.735492
 21
328.167322
 31
0.0
  0
LINE
  8
LC-001-002-----0
  6
CONTINUOUS
  5
559
 10
327.735492
 20
335.034565
 30
0.0
 11
327.735492
 21
328.167322
 31
0.0
  0
LINE
  8
LC-001-002-----0
  6
CONTINUOUS
  5
55A
 10
324.235459
 20
334.621442
 30
0.0
 11
324.235459
 21
328.167319
 31
0.0
  0
LINE
  8
LC-001-002-----0
  6
CONTINUOUS
  5
55B
 10
324.235459
 20
328.167319
 30
0.0
 11
325.876612
 21
328.167322
 31
0.0
  0
LINE
  8
LC-001-002-----0
  6
CONTINUOUS
  5
55C
 10
324.235459
 20
335.668012
 30
0.0
 11
324.235459
 21
334.621442
 31
0.0
  0
LINE
  8
LC-001-002-----0
  6
CONTINUOUS
  5
55D
 10
340.235869
 20
343.167322
 30
0.0
 11
333.234257
 21
343.167322
 31
0.0
  0
LINE
  8
LC-001-002-----0
  6
CONTINUOUS
  5
55E
 10
514.476798
 20
351.162313
 30
0.0
 11
600.235981
 21
351.162313
 31
0.0
  0
LINE
  8
LC-001-002-----0
  6
CONTINUOUS
  5
55F
 10
327.235508
 20
343.167322
 30
0.0
 11
325.853944
 21
343.167322
 31
0.0
  0
LINE
  8
LC-009-005-----0
  6
CONTINUOUS
  5
560
 10
375.235981
 20
287.55474
 30
0.0
 11
378.235973
 21
290.554732
 31
0.0
  0
LINE
  8
LC-009-005-----0
  6
CONTINUOUS
  5
561
 10
375.235981
 20
290.383167
 30
0.0
 11
378.235973
 21
293.383159
 31
0.0
  0
LINE
  8
LC-009-005-----0
  6
CONTINUOUS
  5
562
 10
375.235981
 20
293.211594
 30
0.0
 11
378.235973
 21
296.211586
 31
0.0
  0
LINE
  8
LC-001-002-----0
  6
CONTINUOUS
  5
563
 10
338.485981
 20
343.168012
 30
0.0
 11
340.235869
 21
343.168012
 31
0.0
  0
LINE
  8
LC-001-002-----0
  6
CONTINUOUS
  5
564
 10
324.353944
 20
341.668012
 30
0.0
 11
324.235981
 21
341.668012
 31
0.0
  0
LINE
  8
LC-001-002-----0
  6
CONTINUOUS
  5
565
 10
340.235869
 20
346.167322
 30
0.0
 11
340.235869
 21
331.168012
 31
0.0
  0
ARC
  8
LC-001-002-----0
  6
CONTINUOUS
  5
566
 10
330.235492
 20
337.167332
 30
0.0
 40
10.0
 50
244.158193
 51
295.842059
  0
LINE
  8
LC-007-004-----0
  6
CONTINUOUS
  5
567
 10
330.235134
 20
330.868468
 30
0.0
 11
330.234249
 21
330.866992
 31
0.0
  0
LINE
  8
LC-001-002-----0
  6
CONTINUOUS
  5
568
 10
334.59441
 20
328.167342
 30
0.0
 11
348.234244
 21
328.167371
 31
0.0
  0
LINE
  8
LC-007-004-----0
  6
CONTINUOUS
  5
569
 10
324.235521
 20
347.867917
 30
0.0
 11
330.235521
 21
347.867901
 31
0.0
  0
LINE
  8
LC-007-004-----0
  6
CONTINUOUS
  5
56A
 10
327.23552
 20
347.801915
 30
0.0
 11
327.235488
 21
335.867909
 31
0.0
  0
LINE
  8
LC-007-004-----0
  6
CONTINUOUS
  5
56B
 10
327.235488
 20
335.867909
 30
0.0
 11
330.233794
 21
330.870703
 31
0.0
  0
LINE
  8
LC-007-004-----0
  6
CONTINUOUS
 62
     2
  5
56C
 10
328.235517
 20
346.367906
 30
0.0
 11
328.235484
 21
334.367906
 31
0.0
  0
LINE
  8
LC-007-004-----0
  6
CONTINUOUS
  5
56D
 10
329.43553
 20
351.367903
 30
0.0
 11
329.435526
 21
349.867903
 31
0.0
  0
LINE
  8
LC-007-004-----0
  6
CONTINUOUS
  5
56E
 10
329.435526
 20
349.867903
 30
0.0
 11
330.235526
 21
349.867901
 31
0.0
  0
LINE
  8
LC-007-004-----0
  6
CONTINUOUS
  5
56F
 10
327.235488
 20
335.867909
 30
0.0
 11
330.235488
 21
335.867901
 31
0.0
  0
LINE
  8
LC-007-004-----0
  6
CONTINUOUS
  5
570
 10
336.23426
 20
347.866988
 30
0.0
 11
330.23426
 21
347.866992
 31
0.0
  0
LINE
  8
LC-007-004-----0
  6
CONTINUOUS
  5
571
 10
333.23426
 20
347.867925
 30
0.0
 11
333.234252
 21
335.86699
 31
0.0
  0
LINE
  8
LC-007-004-----0
  6
CONTINUOUS
  5
572
 10
333.234252
 20
335.86699
 30
0.0
 11
330.233793
 21
330.866232
 31
0.0
  0
LINE
  8
LC-007-004-----0
  6
CONTINUOUS
 62
     2
  5
573
 10
333.234259
 20
346.36699
 30
0.0
 11
327.235517
 21
346.366994
 31
0.0
  0
LINE
  8
LC-007-004-----0
  6
CONTINUOUS
 62
     2
  5
574
 10
332.234259
 20
346.36699
 30
0.0
 11
332.234251
 21
334.366991
 31
0.0
  0
LINE
  8
LC-007-004-----0
  6
CONTINUOUS
  5
575
 10
331.034262
 20
351.366991
 30
0.0
 11
331.034261
 21
349.866991
 31
0.0
  0
LINE
  8
LC-007-004-----0
  6
CONTINUOUS
  5
576
 10
331.034261
 20
349.866991
 30
0.0
 11
330.234261
 21
349.866992
 31
0.0
  0
LINE
  8
LC-007-004-----0
  6
CONTINUOUS
  5
577
 10
333.234252
 20
335.86699
 30
0.0
 11
330.234252
 21
335.866992
 31
0.0
  0
LINE
  8
LC-007-004-----0
  6
CONTINUOUS
  5
578
 10
324.235527
 20
350.367917
 30
0.0
 11
324.235521
 21
347.867917
 31
0.0
  0
ARC
  8
LC-007-004-----0
  6
CONTINUOUS
  5
579
 10
325.235527
 20
350.367914
 30
0.0
 40
1.0
 50
89.99996
 51
179.999846
  0
LINE
  8
LC-007-004-----0
  6
CONTINUOUS
  5
57A
 10
329.43553
 20
351.367903
 30
0.0
 11
325.23553
 21
351.367914
 31
0.0
  0
LINE
  8
LC-001-002-----0
  6
CONTINUOUS
  5
57B
 10
315.684334
 20
344.667998
 30
0.0
 11
323.111305
 21
344.668014
 31
0.0
  0
LINE
  8
LC-007-004-----0
  6
CONTINUOUS
  5
57C
 10
336.234262
 20
350.366988
 30
0.0
 11
336.23426
 21
347.866988
 31
0.0
  0
ARC
  8
LC-007-004-----0
  6
CONTINUOUS
  5
57D
 10
335.234262
 20
350.366988
 30
0.0
 40
1.0
 50
359.999963
 51
90.000002
  0
LINE
  8
LC-007-004-----0
  6
CONTINUOUS
  5
57E
 10
331.034262
 20
351.366991
 30
0.0
 11
335.234262
 21
351.366988
 31
0.0
  0
ARC
  8
LC-006-002-RND-0
  6
CONTINUOUS
  5
57F
 10
325.256674
 20
347.16787
 30
0.0
 40
0.7
 50
90.000358
 51
135.0
  0
ARC
  8
LC-006-002-RND-0
  6
CONTINUOUS
  5
580
 10
336.235496
 20
347.167938
 30
0.0
 40
0.7
 50
36.870027
 51
90.000358
  0
LINE
  8
LC-001-002-----0
  6
CONTINUOUS
  5
581
 10
505.024779
 20
350.85513
 30
0.0
 11
514.378845
 21
351.160713
 31
0.0
  0
ARC
  8
LC-006-002-RND-0
  6
CONTINUOUS
  5
582
 10
337.335493
 20
346.867945
 30
0.0
 40
0.7
 50
216.870027
 51
270.000358
  0
LINE
  8
LC-001-002-----0
  6
CONTINUOUS
  5
583
 10
337.335493
 20
346.867945
 30
0.0
 11
336.795495
 21
347.587939
 31
0.0
  0
LINE
  8
LC-001-002-----0
  6
CONTINUOUS
  5
584
 10
337.335498
 20
346.167945
 30
0.0
 11
342.235986
 21
346.167976
 31
0.0
  0
LINE
  8
LC-001-002-----0
  6
CONTINUOUS
  5
585
 10
318.047526
 20
344.668003
 30
0.0
 11
322.342613
 21
344.668012
 31
0.0
  0
ARC
  8
LC-006-002-RND-0
  6
CONTINUOUS
  5
586
 10
322.342603
 20
345.668012
 30
0.0
 40
1.0
 50
270.000575
 51
315.0
  0
LINE
  8
LC-001-002-----0
  6
CONTINUOUS
  5
587
 10
325.256674
 20
347.16787
 30
0.0
 11
323.04971
 21
344.960905
 31
0.0
  0
ARC
  8
LC-001-002-----0
  6
CONTINUOUS
  5
588
 10
342.235988
 20
345.867976
 30
0.0
 40
1.0
 50
270.0
 51
90.001713
  0
ARC
  8
LC-001-002-----0
  6
CONTINUOUS
  5
589
 10
318.050645
 20
347.668001
 30
0.0
 40
3.0
 50
199.47104
 51
270.059811
  0
LINE
  8
LC-001-002-----0
  6
CONTINUOUS
  5
58A
 10
336.775494
 20
346.447944
 30
0.0
 11
336.235496
 21
347.167938
 31
0.0
  0
LINE
  8
LC-001-002-----0
  6
CONTINUOUS
  5
58B
 10
342.23599
 20
345.567976
 30
0.0
 11
340.735988
 21
345.567966
 31
0.0
  0
LINE
  8
LC-001-002-----0
  6
CONTINUOUS
  5
58C
 10
340.735988
 20
345.567966
 30
0.0
 11
340.735988
 21
344.867966
 31
0.0
  0
ARC
  8
LC-001-002-----0
  6
CONTINUOUS
  5
58D
 10
342.235988
 20
345.867976
 30
0.0
 40
0.3
 50
269.991704
 51
90.009012
  0
LINE
  8
LC-001-002-----0
  6
CONTINUOUS
  5
58E
 10
336.235496
 20
347.167938
 30
0.0
 11
333.985496
 21
347.167924
 31
0.0
  0
LINE
  8
LC-001-002-----0
  6
CONTINUOUS
  5
58F
 10
333.985496
 20
347.167924
 30
0.0
 11
333.985496
 21
347.867924
 31
0.0
  0
LINE
  8
LC-001-002-----0
  6
CONTINUOUS
  5
590
 10
333.985496
 20
347.867924
 30
0.0
 11
336.235491
 21
347.867938
 31
0.0
  0
LINE
  8
LC-001-002-----0
  6
CONTINUOUS
  5
591
 10
325.256674
 20
347.16787
 30
0.0
 11
326.485496
 21
347.167877
 31
0.0
  0
LINE
  8
LC-001-002-----0
  6
CONTINUOUS
  5
592
 10
326.485496
 20
347.167877
 30
0.0
 11
326.485496
 21
347.867877
 31
0.0
  0
LINE
  8
LC-001-002-----0
  6
CONTINUOUS
  5
593
 10
326.485496
 20
347.867877
 30
0.0
 11
325.25667
 21
347.86787
 31
0.0
  0
LINE
  8
LC-001-002-----0
  6
CONTINUOUS
  5
594
 10
515.235981
 20
347.153267
 30
0.0
 11
515.235981
 21
347.178291
 31
0.0
  0
LINE
  8
LC-009-005-----0
  6
CONTINUOUS
  5
595
 10
375.235981
 20
296.040021
 30
0.0
 11
378.235973
 21
299.040013
 31
0.0
  0
ARC
  8
LC-001-002-----0
  6
CONTINUOUS
  5
596
 10
318.050645
 20
347.654466
 30
0.0
 40
2.286465
 50
205.55853
 51
270.0
  0
LINE
  8
LC-001-002-----0
  6
CONTINUOUS
  5
597
 10
324.761699
 20
347.662844
 30
0.0
 11
322.554735
 21
345.45588
 31
0.0
  0
ARC
  8
LC-001-002-----0
  6
CONTINUOUS
  5
598
 10
322.342603
 20
345.668012
 30
0.0
 40
0.3
 50
270.000126
 51
315.0
  0
LINE
  8
LC-001-002-----0
  6
CONTINUOUS
  5
599
 10
322.342604
 20
345.368012
 30
0.0
 11
318.048061
 21
345.368003
 31
0.0
  0
LINE
  8
LC-001-002-----0
  6
CONTINUOUS
  5
59A
 10
342.235982
 20
346.867976
 30
0.0
 11
337.335493
 21
346.867945
 31
0.0
  0
LINE
  8
LC-001-002-----0
  6
CONTINUOUS
  5
59B
 10
315.222214
 20
346.66801
 30
0.0
 11
315.987922
 21
346.66801
 31
0.0
  0
LINE
  8
LC-001-002-----0
  6
CONTINUOUS
  5
59C
 10
342.235988
 20
344.867976
 30
0.0
 11
340.735988
 21
344.867976
 31
0.0
  0
LINE
  8
LC-001-002-----0
  6
CONTINUOUS
  5
59D
 10
464.986093
 20
346.167322
 30
0.0
 11
464.986093
 21
343.167322
 31
0.0
  0
LINE
  8
LC-001-002-----0
  6
CONTINUOUS
  5
59E
 10
477.98647
 20
344.668012
 30
0.0
 11
477.98647
 21
341.668012
 31
0.0
  0
LINE
  8
LC-001-002-----0
  6
CONTINUOUS
  5
59F
 10
482.98647
 20
344.668012
 30
0.0
 11
482.98647
 21
341.668012
 31
0.0
  0
LINE
  8
LC-001-002-----0
  6
CONTINUOUS
  5
5A0
 10
487.98647
 20
345.645996
 30
0.0
 11
487.98647
 21
342.508921
 31
0.0
  0
LINE
  8
LC-001-002-----0
  6
CONTINUOUS
  5
5A1
 10
492.98647
 20
347.17465
 30
0.0
 11
492.98647
 21
344.037575
 31
0.0
  0
LINE
  8
LC-001-002-----0
  6
CONTINUOUS
  5
5A2
 10
497.98647
 20
348.703303
 30
0.0
 11
497.98647
 21
345.566228
 31
0.0
  0
LINE
  8
LC-001-002-----0
  6
CONTINUOUS
  5
5A3
 10
514.476798
 20
348.162313
 30
0.0
 11
600.235981
 21
348.162313
 31
0.0
  0
LINE
  8
LC-001-002-----0
  6
CONTINUOUS
  5
5A4
 10
502.98647
 20
350.231957
 30
0.0
 11
502.98647
 21
347.094881
 31
0.0
  0
LINE
  8
LC-001-002-----0
  6
CONTINUOUS
  5
5A5
 10
600.235981
 20
351.162313
 30
0.0
 11
600.235981
 21
348.162313
 31
0.0
  0
LINE
  8
LC-001-002-----0
  6
CONTINUOUS
  5
5A6
 10
484.787628
 20
344.668012
 30
0.0
 11
505.024779
 21
350.85513
 31
0.0
  0
LINE
  8
LC-001-002-----0
  6
CONTINUOUS
  5
5A7
 10
475.861349
 20
346.167322
 30
0.0
 11
477.360658
 21
344.668012
 31
0.0
  0
LINE
  8
LC-001-002-----0
  6
CONTINUOUS
  5
5A8
 10
473.23647
 20
346.167322
 30
0.0
 11
475.861349
 21
346.167322
 31
0.0
  0
LINE
  8
LC-001-002-----0
  6
CONTINUOUS
  5
5A9
 10
460.236093
 20
346.167322
 30
0.0
 11
467.23647
 21
346.167322
 31
0.0
  0
LINE
  8
LC-001-002-----0
  6
CONTINUOUS
  5
5AA
 10
512.98647
 20
351.115226
 30
0.0
 11
512.98647
 21
348.113626
 31
0.0
  0
LINE
  8
LC-001-002-----0
  6
CONTINUOUS
  5
5AB
 10
507.98647
 20
350.951884
 30
0.0
 11
507.98647
 21
347.950284
 31
0.0
  0
LINE
  8
LC-001-002-----0
  6
CONTINUOUS
  5
5AC
 10
517.98647
 20
351.162313
 30
0.0
 11
517.98647
 21
348.162313
 31
0.0
  0
LINE
  8
LC-001-002-----0
  6
CONTINUOUS
  5
5AD
 10
522.98647
 20
351.162313
 30
0.0
 11
522.98647
 21
348.162313
 31
0.0
  0
LINE
  8
LC-001-002-----0
  6
CONTINUOUS
  5
5AE
 10
527.98647
 20
351.162313
 30
0.0
 11
527.98647
 21
348.162313
 31
0.0
  0
LINE
  8
LC-001-002-----0
  6
CONTINUOUS
  5
5AF
 10
532.98647
 20
351.162313
 30
0.0
 11
532.98647
 21
348.162313
 31
0.0
  0
LINE
  8
LC-001-002-----0
  6
CONTINUOUS
  5
5B0
 10
537.98647
 20
351.162313
 30
0.0
 11
537.98647
 21
348.162313
 31
0.0
  0
LINE
  8
LC-001-002-----0
  6
CONTINUOUS
  5
5B1
 10
542.98647
 20
351.162313
 30
0.0
 11
542.98647
 21
348.162313
 31
0.0
  0
LINE
  8
LC-001-002-----0
  6
CONTINUOUS
  5
5B2
 10
547.98647
 20
351.162313
 30
0.0
 11
547.98647
 21
348.162313
 31
0.0
  0
LINE
  8
LC-001-002-----0
  6
CONTINUOUS
  5
5B3
 10
552.98647
 20
351.162313
 30
0.0
 11
552.98647
 21
348.162313
 31
0.0
  0
LINE
  8
LC-001-002-----0
  6
CONTINUOUS
  5
5B4
 10
557.98647
 20
351.162313
 30
0.0
 11
557.98647
 21
348.162313
 31
0.0
  0
LINE
  8
LC-001-002-----0
  6
CONTINUOUS
  5
5B5
 10
562.98647
 20
351.162313
 30
0.0
 11
562.98647
 21
348.162313
 31
0.0
  0
LINE
  8
LC-001-002-----0
  6
CONTINUOUS
  5
5B6
 10
572.98647
 20
351.162313
 30
0.0
 11
572.98647
 21
348.162313
 31
0.0
  0
LINE
  8
LC-001-002-----0
  6
CONTINUOUS
  5
5B7
 10
577.98647
 20
351.162313
 30
0.0
 11
577.98647
 21
348.162313
 31
0.0
  0
LINE
  8
LC-001-002-----0
  6
CONTINUOUS
  5
5B8
 10
582.98647
 20
351.162313
 30
0.0
 11
582.98647
 21
348.162313
 31
0.0
  0
LINE
  8
LC-001-002-----0
  6
CONTINUOUS
  5
5B9
 10
587.98647
 20
351.162313
 30
0.0
 11
587.98647
 21
348.162313
 31
0.0
  0
LINE
  8
LC-001-002-----0
  6
CONTINUOUS
  5
5BA
 10
592.98647
 20
351.162313
 30
0.0
 11
592.98647
 21
348.162313
 31
0.0
  0
LINE
  8
LC-001-002-----0
  6
CONTINUOUS
  5
5BB
 10
597.98647
 20
351.162313
 30
0.0
 11
597.98647
 21
348.162313
 31
0.0
  0
LINE
  8
LC-007-004-----0
  6
CONTINUOUS
  5
5BC
 10
476.236441
 20
347.867917
 30
0.0
 11
470.236441
 21
347.867901
 31
0.0
  0
LINE
  8
LC-007-004-----0
  6
CONTINUOUS
  5
5BD
 10
473.236441
 20
347.867909
 30
0.0
 11
473.236474
 21
335.867909
 31
0.0
  0
LINE
  8
LC-007-004-----0
  6
CONTINUOUS
  5
5BE
 10
473.236474
 20
335.867909
 30
0.0
 11
470.236487
 21
330.867901
 31
0.0
  0
LINE
  8
LC-007-004-----0
  6
CONTINUOUS
 62
     2
  5
5BF
 10
472.236445
 20
346.367906
 30
0.0
 11
472.236478
 21
334.367906
 31
0.0
  0
LINE
  8
LC-007-004-----0
  6
CONTINUOUS
  5
5C0
 10
471.036432
 20
351.367903
 30
0.0
 11
471.036436
 21
349.867903
 31
0.0
  0
LINE
  8
LC-007-004-----0
  6
CONTINUOUS
  5
5C1
 10
471.036436
 20
349.867903
 30
0.0
 11
470.236436
 21
349.867901
 31
0.0
  0
LINE
  8
LC-007-004-----0
  6
CONTINUOUS
  5
5C2
 10
473.236474
 20
335.867909
 30
0.0
 11
470.236474
 21
335.867901
 31
0.0
  0
LINE
  8
LC-007-004-----0
  6
CONTINUOUS
  5
5C3
 10
464.237702
 20
347.866988
 30
0.0
 11
470.237702
 21
347.866992
 31
0.0
  0
LINE
  8
LC-007-004-----0
  6
CONTINUOUS
  5
5C4
 10
467.237702
 20
347.86699
 30
0.0
 11
467.23771
 21
335.86699
 31
0.0
  0
LINE
  8
LC-007-004-----0
  6
CONTINUOUS
  5
5C5
 10
467.23771
 20
335.86699
 30
0.0
 11
470.237713
 21
330.866992
 31
0.0
  0
LINE
  8
LC-007-004-----0
  6
CONTINUOUS
 62
     2
  5
5C6
 10
467.237703
 20
346.36699
 30
0.0
 11
473.236445
 21
346.366994
 31
0.0
  0
LINE
  8
LC-007-004-----0
  6
CONTINUOUS
 62
     2
  5
5C7
 10
468.237703
 20
346.36699
 30
0.0
 11
468.237711
 21
334.366991
 31
0.0
  0
LINE
  8
LC-007-004-----0
  6
CONTINUOUS
  5
5C8
 10
469.4377
 20
351.366991
 30
0.0
 11
469.437701
 21
349.866991
 31
0.0
  0
LINE
  8
LC-007-004-----0
  6
CONTINUOUS
  5
5C9
 10
469.437701
 20
349.866991
 30
0.0
 11
470.237701
 21
349.866992
 31
0.0
  0
LINE
  8
LC-007-004-----0
  6
CONTINUOUS
  5
5CA
 10
467.23771
 20
335.86699
 30
0.0
 11
470.23771
 21
335.866992
 31
0.0
  0
LINE
  8
LC-007-004-----0
  6
CONTINUOUS
  5
5CB
 10
476.236435
 20
350.367917
 30
0.0
 11
476.236441
 21
347.867917
 31
0.0
  0
ARC
  8
LC-007-004-----0
  6
CONTINUOUS
  5
5CC
 10
475.236435
 20
350.367914
 30
0.0
 40
1.0
 50
0.000154
 51
90.00004
  0
LINE
  8
LC-007-004-----0
  6
CONTINUOUS
  5
5CD
 10
471.036432
 20
351.367903
 30
0.0
 11
475.236432
 21
351.367914
 31
0.0
  0
LINE
  8
LC-001-002-----0
  6
CONTINUOUS
  5
5CE
 10
484.787628
 20
344.667998
 30
0.0
 11
477.360656
 21
344.668014
 31
0.0
  0
LINE
  8
LC-007-004-----0
  6
CONTINUOUS
  5
5CF
 10
464.2377
 20
350.366988
 30
0.0
 11
464.237702
 21
347.866988
 31
0.0
  0
ARC
  8
LC-007-004-----0
  6
CONTINUOUS
  5
5D0
 10
465.2377
 20
350.366988
 30
0.0
 40
1.0
 50
89.999998
 51
180.000037
  0
LINE
  8
LC-007-004-----0
  6
CONTINUOUS
  5
5D1
 10
469.4377
 20
351.366991
 30
0.0
 11
465.2377
 21
351.366988
 31
0.0
  0
ARC
  8
LC-006-002-RND-0
  6
CONTINUOUS
  5
5D2
 10
475.215288
 20
347.16787
 30
0.0
 40
0.7
 50
45.0
 51
89.999642
  0
ARC
  8
LC-006-002-RND-0
  6
CONTINUOUS
  5
5D3
 10
464.236466
 20
347.167938
 30
0.0
 40
0.7
 50
89.999642
 51
143.129973
  0
ARC
  8
LC-006-002-RND-0
  6
CONTINUOUS
  5
5D4
 10
463.136469
 20
346.867945
 30
0.0
 40
0.7
 50
269.999642
 51
323.129973
  0
LINE
  8
LC-001-002-----0
  6
CONTINUOUS
  5
5D5
 10
463.136469
 20
346.867945
 30
0.0
 11
463.676467
 21
347.587939
 31
0.0
  0
LINE
  8
LC-001-002-----0
  6
CONTINUOUS
  5
5D6
 10
463.136464
 20
346.167945
 30
0.0
 11
458.235976
 21
346.167976
 31
0.0
  0
LINE
  8
LC-001-002-----0
  6
CONTINUOUS
  5
5D7
 10
482.424436
 20
344.668003
 30
0.0
 11
478.129349
 21
344.668012
 31
0.0
  0
ARC
  8
LC-006-002-RND-0
  6
CONTINUOUS
  5
5D8
 10
478.129359
 20
345.668012
 30
0.0
 40
1.0
 50
225.0
 51
269.999425
  0
LINE
  8
LC-001-002-----0
  6
CONTINUOUS
  5
5D9
 10
475.215288
 20
347.16787
 30
0.0
 11
477.422252
 21
344.960905
 31
0.0
  0
ARC
  8
LC-001-002-----0
  6
CONTINUOUS
  5
5DA
 10
458.235974
 20
345.867976
 30
0.0
 40
1.0
 50
89.998287
 51
270.0
  0
ARC
  8
LC-001-002-----0
  6
CONTINUOUS
  5
5DB
 10
482.421317
 20
347.668001
 30
0.0
 40
3.0
 50
269.940189
 51
340.52896
  0
LINE
  8
LC-001-002-----0
  6
CONTINUOUS
  5
5DC
 10
463.696468
 20
346.447944
 30
0.0
 11
464.236466
 21
347.167938
 31
0.0
  0
LINE
  8
LC-001-002-----0
  6
CONTINUOUS
  5
5DD
 10
458.235972
 20
345.567976
 30
0.0
 11
459.735974
 21
345.567966
 31
0.0
  0
LINE
  8
LC-001-002-----0
  6
CONTINUOUS
  5
5DE
 10
459.735974
 20
345.567966
 30
0.0
 11
459.735974
 21
344.867966
 31
0.0
  0
ARC
  8
LC-001-002-----0
  6
CONTINUOUS
  5
5DF
 10
458.235974
 20
345.867976
 30
0.0
 40
0.3
 50
89.990988
 51
270.008296
  0
LINE
  8
LC-001-002-----0
  6
CONTINUOUS
  5
5E0
 10
464.236466
 20
347.167938
 30
0.0
 11
466.486466
 21
347.167924
 31
0.0
  0
LINE
  8
LC-001-002-----0
  6
CONTINUOUS
  5
5E1
 10
466.486466
 20
347.167924
 30
0.0
 11
466.486466
 21
347.867924
 31
0.0
  0
LINE
  8
LC-001-002-----0
  6
CONTINUOUS
  5
5E2
 10
466.486466
 20
347.867924
 30
0.0
 11
464.23647
 21
347.867938
 31
0.0
  0
LINE
  8
LC-001-002-----0
  6
CONTINUOUS
  5
5E3
 10
475.215288
 20
347.16787
 30
0.0
 11
473.986466
 21
347.167877
 31
0.0
  0
LINE
  8
LC-001-002-----0
  6
CONTINUOUS
  5
5E4
 10
473.986466
 20
347.167877
 30
0.0
 11
473.986466
 21
347.867877
 31
0.0
  0
LINE
  8
LC-001-002-----0
  6
CONTINUOUS
  5
5E5
 10
473.986466
 20
347.867877
 30
0.0
 11
475.215292
 21
347.86787
 31
0.0
  0
ARC
  8
LC-001-002-----0
  6
CONTINUOUS
  5
5E6
 10
482.421317
 20
347.654466
 30
0.0
 40
2.286465
 50
270.0
 51
334.44147
  0
LINE
  8
LC-001-002-----0
  6
CONTINUOUS
  5
5E7
 10
475.710262
 20
347.662844
 30
0.0
 11
477.917227
 21
345.45588
 31
0.0
  0
ARC
  8
LC-001-002-----0
  6
CONTINUOUS
  5
5E8
 10
478.129359
 20
345.668012
 30
0.0
 40
0.3
 50
225.0
 51
269.999874
  0
LINE
  8
LC-001-002-----0
  6
CONTINUOUS
  5
5E9
 10
478.129358
 20
345.368012
 30
0.0
 11
482.423901
 21
345.368003
 31
0.0
  0
LINE
  8
LC-001-002-----0
  6
CONTINUOUS
  5
5EA
 10
458.23598
 20
346.867976
 30
0.0
 11
463.136469
 21
346.867945
 31
0.0
  0
LINE
  8
LC-001-002-----0
  6
CONTINUOUS
  5
5EB
 10
485.249747
 20
346.66801
 30
0.0
 11
484.48404
 21
346.66801
 31
0.0
  0
LINE
  8
LC-001-002-----0
  6
CONTINUOUS
  5
5EC
 10
458.235974
 20
344.867976
 30
0.0
 11
459.735974
 21
344.867976
 31
0.0
  0
LINE
  8
LC-009-005-----0
  6
CONTINUOUS
  5
5ED
 10
375.235981
 20
298.868449
 30
0.0
 11
378.235973
 21
301.86844
 31
0.0
  0
LINE
  8
LC-009-005-----0
  6
CONTINUOUS
  5
5EE
 10
375.235981
 20
301.696876
 30
0.0
 11
378.235973
 21
304.696867
 31
0.0
  0
LINE
  8
LC-009-005-----0
  6
CONTINUOUS
  5
5EF
 10
375.235981
 20
304.525303
 30
0.0
 11
378.235973
 21
307.525294
 31
0.0
  0
LINE
  8
LC-009-005-----0
  6
CONTINUOUS
  5
5F0
 10
375.235981
 20
307.35373
 30
0.0
 11
378.235972
 21
310.353721
 31
0.0
  0
LINE
  8
LC-009-005-----0
  6
CONTINUOUS
  5
5F1
 10
375.235981
 20
310.182157
 30
0.0
 11
378.235972
 21
313.182148
 31
0.0
  0
LINE
  8
LC-009-005-----0
  6
CONTINUOUS
  5
5F2
 10
375.235981
 20
313.010584
 30
0.0
 11
378.235972
 21
316.010575
 31
0.0
  0
LINE
  8
LC-009-005-----0
  6
CONTINUOUS
  5
5F3
 10
375.235981
 20
315.839011
 30
0.0
 11
378.235972
 21
318.839002
 31
0.0
  0
LINE
  8
LC-009-005-----0
  6
CONTINUOUS
  5
5F4
 10
375.235981
 20
318.667438
 30
0.0
 11
378.235972
 21
321.667429
 31
0.0
  0
LINE
  8
LC-009-005-----0
  6
CONTINUOUS
  5
5F5
 10
375.235981
 20
321.495866
 30
0.0
 11
378.235972
 21
324.495856
 31
0.0
  0
LINE
  8
LC-009-005-----0
  6
CONTINUOUS
  5
5F6
 10
375.235981
 20
324.324293
 30
0.0
 11
378.235972
 21
327.324283
 31
0.0
  0
LINE
  8
LC-009-005-----0
  6
CONTINUOUS
  5
5F7
 10
375.235981
 20
327.15272
 30
0.0
 11
378.235971
 21
330.15271
 31
0.0
  0
LINE
  8
LC-009-005-----0
  6
CONTINUOUS
  5
5F8
 10
372.721609
 20
327.466775
 30
0.0
 11
375.703367
 21
330.448533
 31
0.0
  0
LINE
  8
LC-009-005-----0
  6
CONTINUOUS
  5
5F9
 10
369.971854
 20
327.545447
 30
0.0
 11
372.946881
 21
330.520474
 31
0.0
  0
LINE
  8
LC-009-005-----0
  6
CONTINUOUS
  5
5FA
 10
367.222098
 20
327.624119
 30
0.0
 11
370.190395
 21
330.592416
 31
0.0
  0
LINE
  8
LC-009-005-----0
  6
CONTINUOUS
  5
5FB
 10
364.472343
 20
327.702791
 30
0.0
 11
367.43391
 21
330.664357
 31
0.0
  0
LINE
  8
LC-009-005-----0
  6
CONTINUOUS
  5
5FC
 10
361.722588
 20
327.781463
 30
0.0
 11
364.677424
 21
330.736298
 31
0.0
  0
LINE
  8
LC-009-005-----0
  6
CONTINUOUS
  5
5FD
 10
358.972833
 20
327.860135
 30
0.0
 11
361.920938
 21
330.80824
 31
0.0
  0
LINE
  8
LC-001-002-----0
  6
CONTINUOUS
  5
5FE
 10
450.735556
 20
331.168012
 30
0.0
 11
458.735601
 21
331.168012
 31
0.0
  0
LINE
  8
LC-009-005-----0
  6
CONTINUOUS
  5
5FF
 10
356.223078
 20
327.938807
 30
0.0
 11
359.164452
 21
330.880181
 31
0.0
  0
LINE
  8
LC-001-002-----0
  6
CONTINUOUS
  5
600
 10
452.235543
 20
331.168012
 30
0.0
 11
460.235588
 21
331.168012
 31
0.0
  0
LINE
  8
LC-009-005-----0
  6
CONTINUOUS
  5
601
 10
353.473323
 20
328.017479
 30
0.0
 11
356.407966
 21
330.952122
 31
0.0
  0
LINE
  8
LC-001-002-----0
  6
CONTINUOUS
  5
602
 10
460.235588
 20
331.168012
 30
0.0
 11
460.235588
 21
341.167238
 31
0.0
  0
LINE
  8
LC-009-005-----0
  6
CONTINUOUS
  5
603
 10
350.723568
 20
328.096151
 30
0.0
 11
353.651481
 21
331.024064
 31
0.0
  0
LINE
  8
LC-009-005-----0
  6
CONTINUOUS
  5
604
 10
347.966361
 20
328.167371
 30
0.0
 11
350.894995
 21
331.096005
 31
0.0
  0
LINE
  8
LC-009-005-----0
  6
CONTINUOUS
  5
605
 10
345.137927
 20
328.167365
 30
0.0
 11
348.138509
 21
331.167946
 31
0.0
  0
LINE
  8
LC-009-005-----0
  6
CONTINUOUS
  5
606
 10
342.309494
 20
328.167358
 30
0.0
 11
345.310148
 21
331.168012
 31
0.0
  0
LINE
  8
LC-009-005-----0
  6
CONTINUOUS
  5
607
 10
339.481061
 20
328.167352
 30
0.0
 11
342.481721
 21
331.168012
 31
0.0
  0
LINE
  8
LC-009-005-----0
  6
CONTINUOUS
  5
608
 10
336.652627
 20
328.167346
 30
0.0
 11
340.235869
 21
331.750587
 31
0.0
  0
LINE
  8
LC-009-005-----0
  6
CONTINUOUS
  5
609
 10
333.360566
 20
327.703712
 30
0.0
 11
340.235869
 21
334.579015
 31
0.0
  0
LINE
  8
LC-009-005-----0
  6
CONTINUOUS
  5
60A
 10
330.033335
 20
327.204908
 30
0.0
 11
331.031282
 21
328.202855
 31
0.0
  0
LINE
  8
LC-009-005-----0
  6
CONTINUOUS
  5
60B
 10
332.735492
 20
329.907064
 30
0.0
 11
340.235869
 21
337.407442
 31
0.0
  0
LINE
  8
LC-009-005-----0
  6
CONTINUOUS
  5
60C
 10
327.565811
 20
327.565811
 30
0.0
 11
328.202855
 21
328.202855
 31
0.0
  0
LINE
  8
LC-009-005-----0
  6
CONTINUOUS
  5
60D
 10
332.735492
 20
332.735492
 30
0.0
 11
340.235869
 21
340.235869
 31
0.0
  0
LINE
  8
LC-009-005-----0
  6
CONTINUOUS
  5
60E
 10
325.338894
 20
328.167321
 30
0.0
 11
327.735492
 21
330.563919
 31
0.0
  0
LINE
  8
LC-009-005-----0
  6
CONTINUOUS
  5
60F
 10
333.234252
 20
336.062679
 30
0.0
 11
340.235869
 21
343.064296
 31
0.0
  0
LINE
  8
LC-009-005-----0
  6
CONTINUOUS
  5
610
 10
324.235459
 20
329.892313
 30
0.0
 11
327.735492
 21
333.392346
 31
0.0
  0
LINE
  8
LC-009-005-----0
  6
CONTINUOUS
  5
611
 10
333.234254
 20
338.891108
 30
0.0
 11
337.546691
 21
343.203545
 31
0.0
  0
LINE
  8
LC-009-005-----0
  6
CONTINUOUS
  5
612
 10
324.235459
 20
332.720741
 30
0.0
 11
327.30399
 21
335.789271
 31
0.0
  0
LINE
  8
LC-009-005-----0
  6
CONTINUOUS
  5
613
 10
333.234256
 20
341.719537
 30
0.0
 11
334.717573
 21
343.202855
 31
0.0
  0
LINE
  8
LC-009-005-----0
  6
CONTINUOUS
  5
614
 10
324.235459
 20
335.549168
 30
0.0
 11
327.235495
 21
338.549204
 31
0.0
  0
LINE
  8
LC-001-002-----0
  6
CONTINUOUS
  5
615
 10
397.236006
 20
331.168012
 30
0.0
 11
400.235981
 21
331.168012
 31
0.0
  0
LINE
  8
LC-009-005-----0
  6
CONTINUOUS
  5
616
 10
321.5621
 20
335.704235
 30
0.0
 11
324.0621
 21
338.204235
 31
0.0
  0
LINE
  8
LC-009-005-----0
  6
CONTINUOUS
  5
617
 10
324.235981
 20
338.378117
 30
0.0
 11
327.235503
 21
341.377639
 31
0.0
  0
LINE
  8
LC-001-002-----0
  6
CONTINUOUS
  5
618
 10
398.735994
 20
331.168012
 30
0.0
 11
401.735968
 21
331.168012
 31
0.0
  0
LINE
  8
LC-009-005-----0
  6
CONTINUOUS
  5
619
 10
318.733673
 20
335.704235
 30
0.0
 11
321.233673
 21
338.204235
 31
0.0
  0
LINE
  8
LC-009-005-----0
  6
CONTINUOUS
  5
61A
 10
324.235981
 20
341.206544
 30
0.0
 11
326.232292
 21
343.202855
 31
0.0
  0
LINE
  8
LC-009-005-----0
  6
CONTINUOUS
  5
61B
 10
316.570352
 20
336.369342
 30
0.0
 11
318.405245
 21
338.204235
 31
0.0
  0
LINE
  8
LC-001-002-----0
  6
CONTINUOUS
  5
61C
 10
452.235543
 20
331.168012
 30
0.0
 11
340.236374
 21
331.168012
 31
0.0
  0
LINE
  8
LC-001-002-----0
  6
CONTINUOUS
  5
61D
 10
340.236374
 20
331.168012
 30
0.0
 11
340.236374
 21
341.167238
 31
0.0
  0
LINE
  8
LC-009-005-----0
  6
CONTINUOUS
  5
61E
 10
315.156139
 20
337.783556
 30
0.0
 11
317.235459
 21
339.862876
 31
0.0
  0
LINE
  8
LC-009-005-----0
  6
CONTINUOUS
  5
61F
 10
313.185894
 20
338.641738
 30
0.0
 11
316.247701
 21
341.703545
 31
0.0
  0
LINE
  8
LC-009-005-----0
  6
CONTINUOUS
  5
620
 10
311.019843
 20
339.304114
 30
0.0
 11
313.844647
 21
342.128918
 31
0.0
  0
LINE
  8
LC-009-005-----0
  6
CONTINUOUS
  5
621
 10
308.853793
 20
339.966491
 30
0.0
 11
311.678483
 21
342.791181
 31
0.0
  0
LINE
  8
LC-001-002-----0
  6
CONTINUOUS
  5
622
 10
317.235459
 20
338.168012
 30
0.0
 11
317.235459
 21
341.668012
 31
0.0
  0
LINE
  8
LC-001-002-----0
  6
CONTINUOUS
  5
623
 10
324.235459
 20
338.168012
 30
0.0
 11
317.235459
 21
338.168012
 31
0.0
  0
LINE
  8
LC-001-002-----0
  6
CONTINUOUS
  5
624
 10
324.235981
 20
341.668012
 30
0.0
 11
324.235981
 21
338.168012
 31
0.0
  0
LINE
  8
LC-001-002-----0
  6
CONTINUOUS
  5
625
 10
317.235459
 20
335.668012
 30
0.0
 11
314.787827
 21
338.115645
 31
0.0
  0
LINE
  8
LC-001-002-----0
  6
CONTINUOUS
  5
626
 10
324.235459
 20
335.668012
 30
0.0
 11
317.235459
 21
335.668012
 31
0.0
  0
LINE
  8
LC-009-005-----0
  6
CONTINUOUS
  5
627
 10
306.687742
 20
340.628867
 30
0.0
 11
309.512319
 21
343.453444
 31
0.0
  0
LINE
  8
LC-009-005-----0
  6
CONTINUOUS
  5
628
 10
304.521691
 20
341.291244
 30
0.0
 11
307.346154
 21
344.115707
 31
0.0
  0
LINE
  8
LC-009-005-----0
  6
CONTINUOUS
  5
629
 10
302.355641
 20
341.953621
 30
0.0
 11
305.17999
 21
344.77797
 31
0.0
  0
LINE
  8
LC-009-005-----0
  6
CONTINUOUS
  5
62A
 10
300.18959
 20
342.615997
 30
0.0
 11
303.013826
 21
345.440233
 31
0.0
  0
LINE
  8
LC-001-002-----0
  6
CONTINUOUS
  5
62B
 10
476.236503
 20
338.168012
 30
0.0
 11
483.236503
 21
338.168012
 31
0.0
  0
LINE
  8
LC-001-002-----0
  6
CONTINUOUS
  5
62C
 10
483.236503
 20
338.168012
 30
0.0
 11
483.236503
 21
341.668012
 31
0.0
  0
LINE
  8
LC-001-002-----0
  6
CONTINUOUS
  5
62D
 10
483.236503
 20
335.668012
 30
0.0
 11
485.684135
 21
338.115645
 31
0.0
  0
LINE
  8
LC-001-002-----0
  6
CONTINUOUS
  5
62E
 10
476.236503
 20
335.668012
 30
0.0
 11
483.236503
 21
335.668012
 31
0.0
  0
LINE
  8
LC-001-002-----0
  6
CONTINUOUS
  5
62F
 10
319.235459
 20
341.668012
 30
0.0
 11
315.235981
 21
341.668012
 31
0.0
  0
LINE
  8
LC-001-002-----0
  6
CONTINUOUS
  5
630
 10
324.235981
 20
341.668012
 30
0.0
 11
319.235459
 21
341.668012
 31
0.0
  0
LINE
  8
LC-009-005-----0
  6
CONTINUOUS
  5
631
 10
298.02354
 20
343.278374
 30
0.0
 11
300.847662
 21
346.102496
 31
0.0
  0
LINE
  8
LC-009-005-----0
  6
CONTINUOUS
  5
632
 10
295.857489
 20
343.94075
 30
0.0
 11
298.681497
 21
346.764758
 31
0.0
  0
LINE
  8
LC-009-005-----0
  6
CONTINUOUS
  5
633
 10
293.420184
 20
344.331873
 30
0.0
 11
296.515333
 21
347.427021
 31
0.0
  0
LINE
  8
LC-009-005-----0
  6
CONTINUOUS
  5
634
 10
290.695411
 20
344.435527
 30
0.0
 11
294.189347
 21
347.929462
 31
0.0
  0
LINE
  8
LC-009-005-----0
  6
CONTINUOUS
  5
635
 10
287.970638
 20
344.539181
 30
0.0
 11
291.447986
 21
348.016529
 31
0.0
  0
LINE
  8
LC-009-005-----0
  6
CONTINUOUS
  5
636
 10
285.245865
 20
344.642835
 30
0.0
 11
288.706625
 21
348.103595
 31
0.0
  0
LINE
  8
LC-009-005-----0
  6
CONTINUOUS
  5
637
 10
422.323052
 20
128.166631
 30
0.0
 11
425.021098
 21
130.864677
 31
0.0
  0
LINE
  8
LC-009-005-----0
  6
CONTINUOUS
  5
638
 10
422.235981
 20
130.907987
 30
0.0
 11
425.235981
 21
133.907987
 31
0.0
  0
LINE
  8
LC-009-005-----0
  6
CONTINUOUS
  5
639
 10
422.235981
 20
133.736414
 30
0.0
 11
425.235981
 21
136.736414
 31
0.0
  0
LINE
  8
LC-009-005-----0
  6
CONTINUOUS
  5
63A
 10
422.235981
 20
136.564842
 30
0.0
 11
425.235981
 21
139.564841
 31
0.0
  0
LINE
  8
LC-009-005-----0
  6
CONTINUOUS
  5
63B
 10
422.235981
 20
139.393269
 30
0.0
 11
425.235981
 21
142.393268
 31
0.0
  0
LINE
  8
LC-009-005-----0
  6
CONTINUOUS
  5
63C
 10
422.235982
 20
142.221696
 30
0.0
 11
425.235981
 21
145.221696
 31
0.0
  0
LINE
  8
LC-009-005-----0
  6
CONTINUOUS
  5
63D
 10
422.235982
 20
145.050124
 30
0.0
 11
425.235981
 21
148.050123
 31
0.0
  0
LINE
  8
LC-009-005-----0
  6
CONTINUOUS
  5
63E
 10
422.235982
 20
147.878551
 30
0.0
 11
425.235981
 21
150.87855
 31
0.0
  0
LINE
  8
LC-009-005-----0
  6
CONTINUOUS
  5
63F
 10
422.235982
 20
150.706978
 30
0.0
 11
425.235981
 21
153.706977
 31
0.0
  0
LINE
  8
LC-009-005-----0
  6
CONTINUOUS
  5
640
 10
422.235982
 20
153.535405
 30
0.0
 11
425.235981
 21
156.535404
 31
0.0
  0
LINE
  8
LC-009-005-----0
  6
CONTINUOUS
  5
641
 10
422.235982
 20
156.363833
 30
0.0
 11
425.235981
 21
159.363831
 31
0.0
  0
LINE
  8
LC-009-005-----0
  6
CONTINUOUS
  5
642
 10
422.235982
 20
159.19226
 30
0.0
 11
425.235981
 21
162.192258
 31
0.0
  0
LINE
  8
LC-009-005-----0
  6
CONTINUOUS
  5
643
 10
422.235983
 20
162.020687
 30
0.0
 11
425.235981
 21
165.020685
 31
0.0
  0
LINE
  8
LC-009-005-----0
  6
CONTINUOUS
  5
644
 10
422.235983
 20
164.849114
 30
0.0
 11
425.235981
 21
167.849113
 31
0.0
  0
LINE
  8
LC-009-005-----0
  6
CONTINUOUS
  5
645
 10
422.235983
 20
167.677542
 30
0.0
 11
425.235981
 21
170.67754
 31
0.0
  0
LINE
  8
LC-009-005-----0
  6
CONTINUOUS
  5
646
 10
422.235983
 20
170.505969
 30
0.0
 11
425.235981
 21
173.505967
 31
0.0
  0
LINE
  8
LC-009-005-----0
  6
CONTINUOUS
  5
647
 10
422.235983
 20
173.334396
 30
0.0
 11
425.235981
 21
176.334394
 31
0.0
  0
LINE
  8
LC-009-005-----0
  6
CONTINUOUS
  5
648
 10
422.235983
 20
176.162823
 30
0.0
 11
425.235981
 21
179.162821
 31
0.0
  0
LINE
  8
LC-009-005-----0
  6
CONTINUOUS
  5
649
 10
422.235983
 20
178.991251
 30
0.0
 11
425.235981
 21
181.991248
 31
0.0
  0
LINE
  8
LC-009-005-----0
  6
CONTINUOUS
  5
64A
 10
422.235983
 20
181.819678
 30
0.0
 11
425.235981
 21
184.819675
 31
0.0
  0
LINE
  8
LC-009-005-----0
  6
CONTINUOUS
  5
64B
 10
422.235984
 20
184.648105
 30
0.0
 11
425.235981
 21
187.648102
 31
0.0
  0
LINE
  8
LC-009-005-----0
  6
CONTINUOUS
  5
64C
 10
422.235984
 20
187.476532
 30
0.0
 11
425.235981
 21
190.47653
 31
0.0
  0
LINE
  8
LC-009-005-----0
  6
CONTINUOUS
  5
64D
 10
422.235984
 20
190.30496
 30
0.0
 11
425.235981
 21
193.304957
 31
0.0
  0
LINE
  8
LC-009-005-----0
  6
CONTINUOUS
  5
64E
 10
422.235984
 20
193.133387
 30
0.0
 11
425.235981
 21
196.133384
 31
0.0
  0
LINE
  8
LC-009-005-----0
  6
CONTINUOUS
  5
64F
 10
422.235984
 20
195.961814
 30
0.0
 11
425.235981
 21
198.961811
 31
0.0
  0
LINE
  8
LC-009-005-----0
  6
CONTINUOUS
  5
650
 10
422.235984
 20
198.790241
 30
0.0
 11
425.235981
 21
201.790238
 31
0.0
  0
LINE
  8
LC-009-005-----0
  6
CONTINUOUS
  5
651
 10
422.235984
 20
201.618669
 30
0.0
 11
425.235981
 21
204.618665
 31
0.0
  0
LINE
  8
LC-009-005-----0
  6
CONTINUOUS
  5
652
 10
422.235985
 20
204.447096
 30
0.0
 11
425.235981
 21
207.447092
 31
0.0
  0
LINE
  8
LC-009-005-----0
  6
CONTINUOUS
  5
653
 10
422.235985
 20
207.275523
 30
0.0
 11
425.235981
 21
210.275519
 31
0.0
  0
LINE
  8
LC-009-005-----0
  6
CONTINUOUS
  5
654
 10
422.235985
 20
210.10395
 30
0.0
 11
425.235981
 21
213.103947
 31
0.0
  0
LINE
  8
LC-009-005-----0
  6
CONTINUOUS
  5
655
 10
422.235985
 20
212.932378
 30
0.0
 11
425.235981
 21
215.932374
 31
0.0
  0
LINE
  8
LC-009-005-----0
  6
CONTINUOUS
  5
656
 10
422.235985
 20
215.760805
 30
0.0
 11
425.235981
 21
218.760801
 31
0.0
  0
LINE
  8
LC-009-005-----0
  6
CONTINUOUS
  5
657
 10
422.235985
 20
218.589232
 30
0.0
 11
425.235981
 21
221.589228
 31
0.0
  0
LINE
  8
LC-009-005-----0
  6
CONTINUOUS
  5
658
 10
422.235985
 20
221.417659
 30
0.0
 11
425.235981
 21
224.417655
 31
0.0
  0
LINE
  8
LC-009-005-----0
  6
CONTINUOUS
  5
659
 10
422.235985
 20
224.246087
 30
0.0
 11
425.235981
 21
227.246082
 31
0.0
  0
LINE
  8
LC-009-005-----0
  6
CONTINUOUS
  5
65A
 10
422.235986
 20
227.074514
 30
0.0
 11
425.235981
 21
230.074509
 31
0.0
  0
LINE
  8
LC-009-005-----0
  6
CONTINUOUS
  5
65B
 10
422.235986
 20
229.902941
 30
0.0
 11
425.235981
 21
232.902936
 31
0.0
  0
LINE
  8
LC-009-005-----0
  6
CONTINUOUS
  5
65C
 10
422.235986
 20
232.731368
 30
0.0
 11
425.235981
 21
235.731364
 31
0.0
  0
LINE
  8
LC-009-005-----0
  6
CONTINUOUS
  5
65D
 10
422.235986
 20
235.559796
 30
0.0
 11
425.235981
 21
238.559791
 31
0.0
  0
LINE
  8
LC-009-005-----0
  6
CONTINUOUS
  5
65E
 10
422.235986
 20
238.388223
 30
0.0
 11
425.235981
 21
241.388218
 31
0.0
  0
LINE
  8
LC-009-005-----0
  6
CONTINUOUS
  5
65F
 10
422.235986
 20
241.21665
 30
0.0
 11
425.235981
 21
244.216645
 31
0.0
  0
LINE
  8
LC-009-005-----0
  6
CONTINUOUS
  5
660
 10
422.235986
 20
244.045078
 30
0.0
 11
425.235981
 21
247.045072
 31
0.0
  0
LINE
  8
LC-009-005-----0
  6
CONTINUOUS
  5
661
 10
422.235987
 20
246.873505
 30
0.0
 11
425.235981
 21
249.873499
 31
0.0
  0
LINE
  8
LC-009-005-----0
  6
CONTINUOUS
  5
662
 10
422.235987
 20
249.701932
 30
0.0
 11
425.235981
 21
252.701926
 31
0.0
  0
LINE
  8
LC-009-005-----0
  6
CONTINUOUS
  5
663
 10
422.235987
 20
252.530359
 30
0.0
 11
425.235981
 21
255.530353
 31
0.0
  0
LINE
  8
LC-009-005-----0
  6
CONTINUOUS
  5
664
 10
422.235987
 20
255.358787
 30
0.0
 11
425.235981
 21
258.358781
 31
0.0
  0
LINE
  8
LC-009-005-----0
  6
CONTINUOUS
  5
665
 10
511.373476
 20
344.496276
 30
0.0
 11
514.528115
 21
347.650915
 31
0.0
  0
LINE
  8
LC-009-005-----0
  6
CONTINUOUS
  5
666
 10
422.235987
 20
258.187214
 30
0.0
 11
425.235981
 21
261.187208
 31
0.0
  0
LINE
  8
LC-009-005-----0
  6
CONTINUOUS
  5
667
 10
508.433197
 20
344.384424
 30
0.0
 11
512.165064
 21
348.11629
 31
0.0
  0
LINE
  8
LC-009-005-----0
  6
CONTINUOUS
  5
668
 10
422.235987
 20
261.015641
 30
0.0
 11
425.235981
 21
264.015635
 31
0.0
  0
LINE
  8
LC-009-005-----0
  6
CONTINUOUS
  5
669
 10
505.401887
 20
344.181541
 30
0.0
 11
509.243858
 21
348.023512
 31
0.0
  0
LINE
  8
LC-009-005-----0
  6
CONTINUOUS
  5
66A
 10
422.235987
 20
263.844068
 30
0.0
 11
425.235981
 21
266.844062
 31
0.0
  0
LINE
  8
LC-009-005-----0
  6
CONTINUOUS
  5
66B
 10
501.327523
 20
342.935604
 30
0.0
 11
506.322653
 21
347.930734
 31
0.0
  0
LINE
  8
LC-009-005-----0
  6
CONTINUOUS
  5
66C
 10
422.235987
 20
266.672496
 30
0.0
 11
425.235981
 21
269.672489
 31
0.0
  0
LINE
  8
LC-009-005-----0
  6
CONTINUOUS
  5
66D
 10
497.253158
 20
341.689666
 30
0.0
 11
502.565071
 21
347.00158
 31
0.0
  0
LINE
  8
LC-009-005-----0
  6
CONTINUOUS
  5
66E
 10
422.235988
 20
269.500923
 30
0.0
 11
425.235981
 21
272.500916
 31
0.0
  0
LINE
  8
LC-009-005-----0
  6
CONTINUOUS
  5
66F
 10
493.178793
 20
340.443728
 30
0.0
 11
498.491109
 21
345.756044
 31
0.0
  0
LINE
  8
LC-009-005-----0
  6
CONTINUOUS
  5
670
 10
422.235988
 20
272.32935
 30
0.0
 11
425.235981
 21
275.329343
 31
0.0
  0
LINE
  8
LC-009-005-----0
  6
CONTINUOUS
  5
671
 10
489.104429
 20
339.197791
 30
0.0
 11
494.417147
 21
344.510509
 31
0.0
  0
LINE
  8
LC-009-005-----0
  6
CONTINUOUS
  5
672
 10
422.235988
 20
275.157777
 30
0.0
 11
425.235981
 21
278.15777
 31
0.0
  0
LINE
  8
LC-009-005-----0
  6
CONTINUOUS
  5
673
 10
475.245531
 20
328.167321
 30
0.0
 11
476.236503
 21
329.158292
 31
0.0
  0
LINE
  8
LC-009-005-----0
  6
CONTINUOUS
  5
674
 10
482.782446
 20
335.704235
 30
0.0
 11
490.343184
 21
343.264974
 31
0.0
  0
LINE
  8
LC-009-005-----0
  6
CONTINUOUS
  5
675
 10
422.235988
 20
277.986205
 30
0.0
 11
425.235981
 21
280.986198
 31
0.0
  0
LINE
  8
LC-009-005-----0
  6
CONTINUOUS
  5
676
 10
471.537665
 20
327.287881
 30
0.0
 11
472.452638
 21
328.202855
 31
0.0
  0
LINE
  8
LC-009-005-----0
  6
CONTINUOUS
  5
677
 10
472.73647
 20
328.486687
 30
0.0
 11
476.236503
 21
331.986719
 31
0.0
  0
LINE
  8
LC-009-005-----0
  6
CONTINUOUS
  5
678
 10
479.954019
 20
335.704235
 30
0.0
 11
482.454019
 21
338.204235
 31
0.0
  0
LINE
  8
LC-009-005-----0
  6
CONTINUOUS
  5
679
 10
483.236503
 20
338.986719
 30
0.0
 11
486.269222
 21
342.019438
 31
0.0
  0
LINE
  8
LC-009-005-----0
  6
CONTINUOUS
  5
67A
 10
422.235988
 20
280.814632
 30
0.0
 11
425.235981
 21
283.814625
 31
0.0
  0
LINE
  8
LC-009-005-----0
  6
CONTINUOUS
  5
67B
 10
468.737244
 20
327.315887
 30
0.0
 11
469.624211
 21
328.202855
 31
0.0
  0
LINE
  8
LC-009-005-----0
  6
CONTINUOUS
  5
67C
 10
472.73647
 20
331.315114
 30
0.0
 11
476.236503
 21
334.815146
 31
0.0
  0
LINE
  8
LC-009-005-----0
  6
CONTINUOUS
  5
67D
 10
477.125592
 20
335.704235
 30
0.0
 11
479.625592
 21
338.204235
 31
0.0
  0
LINE
  8
LC-009-005-----0
  6
CONTINUOUS
  5
67E
 10
422.235988
 20
283.643059
 30
0.0
 11
425.235981
 21
286.643052
 31
0.0
  0
LINE
  8
LC-009-005-----0
  6
CONTINUOUS
  5
67F
 10
466.514326
 20
327.921397
 30
0.0
 11
467.73647
 21
329.143541
 31
0.0
  0
LINE
  8
LC-009-005-----0
  6
CONTINUOUS
  5
680
 10
472.73647
 20
334.143541
 30
0.0
 11
476.797164
 21
338.204235
 31
0.0
  0
LINE
  8
LC-009-005-----0
  6
CONTINUOUS
  5
681
 10
422.235988
 20
286.471486
 30
0.0
 11
425.235981
 21
289.471479
 31
0.0
  0
LINE
  8
LC-009-005-----0
  6
CONTINUOUS
  5
682
 10
463.931848
 20
328.167346
 30
0.0
 11
467.73647
 21
331.971968
 31
0.0
  0
LINE
  8
LC-009-005-----0
  6
CONTINUOUS
  5
683
 10
473.236469
 20
337.471967
 30
0.0
 11
476.235981
 21
340.471479
 31
0.0
  0
LINE
  8
LC-009-005-----0
  6
CONTINUOUS
  5
684
 10
422.235989
 20
289.299914
 30
0.0
 11
425.235981
 21
292.299906
 31
0.0
  0
LINE
  8
LC-009-005-----0
  6
CONTINUOUS
  5
685
 10
461.103427
 20
328.167352
 30
0.0
 11
467.73647
 21
334.800395
 31
0.0
  0
LINE
  8
LC-009-005-----0
  6
CONTINUOUS
  5
686
 10
473.236462
 20
340.300387
 30
0.0
 11
475.378819
 21
342.442744
 31
0.0
  0
LINE
  8
LC-009-005-----0
  6
CONTINUOUS
  5
687
 10
422.235989
 20
292.128341
 30
0.0
 11
425.235981
 21
295.128333
 31
0.0
  0
LINE
  8
LC-009-005-----0
  6
CONTINUOUS
  5
688
 10
458.275006
 20
328.167358
 30
0.0
 11
467.237709
 21
337.130061
 31
0.0
  0
LINE
  8
LC-009-005-----0
  6
CONTINUOUS
  5
689
 10
473.236454
 20
343.128806
 30
0.0
 11
473.310502
 21
343.202855
 31
0.0
  0
LINE
  8
LC-009-005-----0
  6
CONTINUOUS
  5
68A
 10
422.235989
 20
294.956768
 30
0.0
 11
425.235981
 21
297.95676
 31
0.0
  0
LINE
  8
LC-009-005-----0
  6
CONTINUOUS
  5
68B
 10
455.446585
 20
328.167364
 30
0.0
 11
458.447233
 21
331.168012
 31
0.0
  0
LINE
  8
LC-009-005-----0
  6
CONTINUOUS
  5
68C
 10
460.236093
 20
332.956872
 30
0.0
 11
467.237707
 21
339.958486
 31
0.0
  0
LINE
  8
LC-009-005-----0
  6
CONTINUOUS
  5
68D
 10
422.235989
 20
297.785195
 30
0.0
 11
425.235981
 21
300.785187
 31
0.0
  0
LINE
  8
LC-009-005-----0
  6
CONTINUOUS
  5
68E
 10
452.618164
 20
328.167371
 30
0.0
 11
455.618806
 21
331.168012
 31
0.0
  0
LINE
  8
LC-009-005-----0
  6
CONTINUOUS
  5
68F
 10
460.236093
 20
335.7853
 30
0.0
 11
467.237705
 21
342.786912
 31
0.0
  0
LINE
  8
LC-009-005-----0
  6
CONTINUOUS
  5
690
 10
422.235989
 20
300.613623
 30
0.0
 11
425.235981
 21
303.613615
 31
0.0
  0
LINE
  8
LC-009-005-----0
  6
CONTINUOUS
  5
691
 10
449.717637
 20
328.095271
 30
0.0
 11
452.790379
 21
331.168012
 31
0.0
  0
LINE
  8
LC-009-005-----0
  6
CONTINUOUS
  5
692
 10
460.236093
 20
338.613727
 30
0.0
 11
464.825221
 21
343.202855
 31
0.0
  0
LINE
  8
LC-009-005-----0
  6
CONTINUOUS
  5
693
 10
422.235989
 20
303.44205
 30
0.0
 11
425.235981
 21
306.442042
 31
0.0
  0
LINE
  8
LC-009-005-----0
  6
CONTINUOUS
  5
694
 10
446.805904
 20
328.011964
 30
0.0
 11
449.898331
 21
331.104392
 31
0.0
  0
LINE
  8
LC-009-005-----0
  6
CONTINUOUS
  5
695
 10
460.236093
 20
341.442154
 30
0.0
 11
461.997484
 21
343.203545
 31
0.0
  0
LINE
  8
LC-009-005-----0
  6
CONTINUOUS
  5
696
 10
422.235989
 20
306.270477
 30
0.0
 11
425.235981
 21
309.270469
 31
0.0
  0
LINE
  8
LC-009-005-----0
  6
CONTINUOUS
  5
697
 10
443.89417
 20
327.928658
 30
0.0
 11
446.994107
 21
331.028595
 31
0.0
  0
LINE
  8
LC-009-005-----0
  6
CONTINUOUS
  5
698
 10
422.235989
 20
309.098904
 30
0.0
 11
425.235981
 21
312.098896
 31
0.0
  0
LINE
  8
LC-009-005-----0
  6
CONTINUOUS
  5
699
 10
440.982437
 20
327.845352
 30
0.0
 11
444.089883
 21
330.952798
 31
0.0
  0
LINE
  8
LC-009-005-----0
  6
CONTINUOUS
  5
69A
 10
422.23599
 20
311.927332
 30
0.0
 11
425.235981
 21
314.927323
 31
0.0
  0
LINE
  8
LC-009-005-----0
  6
CONTINUOUS
  5
69B
 10
438.070703
 20
327.762045
 30
0.0
 11
441.185659
 21
330.877001
 31
0.0
  0
LINE
  8
LC-009-005-----0
  6
CONTINUOUS
  5
69C
 10
422.23599
 20
314.755759
 30
0.0
 11
425.235981
 21
317.75575
 31
0.0
  0
LINE
  8
LC-009-005-----0
  6
CONTINUOUS
  5
69D
 10
435.15897
 20
327.678739
 30
0.0
 11
438.281434
 21
330.801204
 31
0.0
  0
LINE
  8
LC-009-005-----0
  6
CONTINUOUS
  5
69E
 10
422.23599
 20
317.584186
 30
0.0
 11
425.235981
 21
320.584177
 31
0.0
  0
LINE
  8
LC-009-005-----0
  6
CONTINUOUS
  5
69F
 10
432.247237
 20
327.595433
 30
0.0
 11
435.37721
 21
330.725406
 31
0.0
  0
LINE
  8
LC-009-005-----0
  6
CONTINUOUS
  5
6A0
 10
422.23599
 20
320.412613
 30
0.0
 11
425.235981
 21
323.412604
 31
0.0
  0
LINE
  8
LC-009-005-----0
  6
CONTINUOUS
  5
6A1
 10
429.335503
 20
327.512127
 30
0.0
 11
432.472986
 21
330.649609
 31
0.0
  0
LINE
  8
LC-009-005-----0
  6
CONTINUOUS
  5
6A2
 10
422.23599
 20
323.241041
 30
0.0
 11
425.235981
 21
326.241032
 31
0.0
  0
LINE
  8
LC-009-005-----0
  6
CONTINUOUS
  5
6A3
 10
426.42377
 20
327.42882
 30
0.0
 11
429.568762
 21
330.573812
 31
0.0
  0
LINE
  8
LC-009-005-----0
  6
CONTINUOUS
  5
6A4
 10
422.23599
 20
326.069468
 30
0.0
 11
426.664537
 21
330.498015
 31
0.0
  0
LINE
  8
LC-009-005-----0
  6
CONTINUOUS
  5
6A5
 10
422.23599
 20
328.897895
 30
0.0
 11
423.760313
 21
330.422218
 31
0.0
  0
ENDSEC
  0
EOF
