  0
SECTION
  2
HEADER
  9
$ACADVER
  1
AC1009
  9
$INSBASE
 10
68.004305
 20
158.64
 30
0.0
  9
$EXTMIN
 10
68.004305
 20
158.64
 30
0.0
  9
$EXTMAX
 10
908.004305
 20
752.64
 30
0.0
  9
$LIMMIN
 10
68.004305
 20
158.64
  9
$LIMMAX
 10
908.004305
 20
752.64
  9
$ORTHOMODE
 70
     0
  9
$REGENMODE
 70
     1
  9
$FILLMODE
 70
     1
  9
$QTEXTMODE
 70
     0
  9
$MIRRTEXT
 70
     1
  9
$DRAGMODE
 70
     2
  9
$LTSCALE
 40
2.0
  9
$OSMODE
 70
     0
  9
$ATTMODE
 70
     1
  9
$TEXTSIZE
 40
0.2
  9
$TRACEWID
 40
0.05
  9
$TEXTSTYLE
  7
STANDARD
  9
$CLAYER
  8
0
  9
$CELTYPE
  6
BYLAYER
  9
$CECOLOR
 62
     7
  9
$DIMSCALE
 40
2.0
  9
$DIMASZ
 40
3.5
  9
$DIMEXO
 40
0.0625
  9
$DIMDLI
 40
0.38
  9
$DIMRND
 40
0.0
  9
$DIMDLE
 40
0.0
  9
$DIMEXE
 40
0.18
  9
$DIMTP
 40
0.0
  9
$DIMTM
 40
0.0
  9
$DIMTXT
 40
3.5
  9
$DIMCEN
 40
0.09
  9
$DIMTSZ
 40
0.0
  9
$DIMTOL
 70
     0
  9
$DIMLIM
 70
     0
  9
$DIMTIH
 70
     1
  9
$DIMTOH
 70
     1
  9
$DIMSE1
 70
     0
  9
$DIMSE2
 70
     0
  9
$DIMTAD
 70
     1
  9
$DIMZIN
 70
     0
  9
$DIMBLK
  1

  9
$DIMASO
 70
     1
  9
$DIMSHO
 70
     1
  9
$DIMPOST
  1

  9
$DIMAPOST
  1

  9
$DIMALT
 70
     0
  9
$DIMALTD
 70
     2
  9
$DIMALTF
 40
25.4
  9
$DIMLFAC
 40
1.0
  9
$DIMTOFL
 70
     0
  9
$DIMTVP
 40
0.0
  9
$DIMTIX
 70
     0
  9
$DIMSOXD
 70
     0
  9
$DIMSAH
 70
     0
  9
$DIMBLK1
  1

  9
$DIMBLK2
  1

  9
$DIMSTYLE
  2
STANDARD
  9
$DIMCLRD
 70
     0
  9
$DIMCLRE
 70
     0
  9
$DIMCLRT
 70
     0
  9
$DIMTFAC
 40
1.0
  9
$DIMGAP
 40
0.09
  9
$LUNITS
 70
     2
  9
$LUPREC
 70
     2
  9
$AXISMODE
 70
     0
  9
$AXISUNIT
 10
0.0
 20
0.0
  9
$SKETCHINC
 40
0.1
  9
$FILLETRAD
 40
0.0
  9
$AUNITS
 70
     0
  9
$AUPREC
 70
     0
  9
$MENU
  1
acad
  9
$ELEVATION
 40
0.0
  9
$PELEVATION
 40
0.0
  9
$THICKNESS
 40
0.0
  9
$LIMCHECK
 70
     0
  9
$BLIPMODE
 70
     1
  9
$CHAMFERA
 40
0.0
  9
$CHAMFERB
 40
0.0
  9
$SKPOLY
 70
     0
  9
$TDCREATE
 40
0.000000000
  9
$TDUPDATE
 40
0.000000000
  9
$TDINDWG
 40
0.0000000000
  9
$TDUSRTIMER
 40
0.0000000000
  9
$USRTIMER
 70
     1
  9
$ANGBASE
 50
0.0
  9
$ANGDIR
 70
     0
  9
$PDMODE
 70
     0
  9
$PDSIZE
 40
0.0
  9
$PLINEWID
 40
0.0
  9
$COORDS
 70
     0
  9
$SPLFRAME
 70
     0
  9
$SPLINETYPE
 70
     6
  9
$SPLINESEGS
 70
     8
  9
$ATTDIA
 70
     0
  9
$ATTREQ
 70
     1
  9
$HANDLING
 70
     1
  9
$HANDSEED
  5
160
  9
$SURFTAB1
 70
     6
  9
$SURFTAB2
 70
     6
  9
$SURFTYPE
 70
     6
  9
$SURFU
 70
     6
  9
$SURFV
 70
     6
  9
$UCSNAME
  2

  9
$UCSORG
 10
0.0
 20
0.0
 30
0.0
  9
$UCSXDIR
 10
1.0
 20
0.0
 30
0.0
  9
$UCSYDIR
 10
0.0
 20
1.0
 30
0.0
  9
$PUCSNAME
  2

  9
$PUCSORG
 10
0.0
 20
0.0
 30
0.0
  9
$PUCSXDIR
 10
1.0
 20
0.0
 30
0.0
  9
$PUCSYDIR
 10
0.0
 20
1.0
 30
0.0
  9
$USERI1
 70
     0
  9
$USERI2
 70
     0
  9
$USERI3
 70
     0
  9
$USERI4
 70
     0
  9
$USERI5
 70
     0
  9
$USERR1
 40
0.0
  9
$USERR2
 40
0.0
  9
$USERR3
 40
0.0
  9
$USERR4
 40
0.0
  9
$USERR5
 40
0.0
  9
$WORLDVIEW
 70
     1
  9
$SHADEDGE
 70
     3
  9
$SHADEDIF
 70
    70
  9
$TILEMODE
 70
     1
  9
$MAXACTVP
 70
    16
  9
$PINSBASE
 10
0.0
 20
0.0
 30
0.0
  9
$PLIMCHECK
 70
     0
  9
$PEXTMIN
 10
1.000000E+20
 20
1.000000E+20
 30
1.000000E+20
  9
$PEXTMAX
 10
-1.000000E+20
 20
-1.000000E+20
 30
-1.000000E+20
  9
$PLIMMIN
 10
68.004305
 20
158.64
  9
$PLIMMAX
 10
908.004305
 20
752.64
  9
$UNITMODE
 70
     0
  9
$VISRETAIN
 70
     0
  9
$PLINEGEN
 70
     1
  9
$PSLTSCALE
 70
     0
  9
$TREEDEPTH
 70
  3020
  9
$DWGCODEPAGE
  3
dos850
  0
ENDSEC
  0
SECTION
  2
TABLES
  0
TABLE
  2
VPORT
 70
     1
  0
VPORT
  2
*ACTIVE
 70
     0
 10
0.0
 20
0.0
 11
1.0
 21
1.0
 12
420.0
 22
297.0
 13
0.0
 23
0.0
 14
1.0
 24
1.0
 15
0.0
 25
0.0
 16
0.0
 26
0.0
 36
1.0
 17
68.004305
 27
158.64
 37
0.0
 40
594.0
 41
1.604229
 42
50.0
 43
0.0
 44
0.0
 50
0.0
 51
0.0
 71
     0
 72
   100
 73
     1
 74
     1
 75
     0
 76
     0
 77
     0
 78
     0
  0
ENDTAB
  0
TABLE
  2
LTYPE
 70
     2
  0
LTYPE
  2
CONTINUOUS
 70
    64
  3
Solid line
 72
    65
 73
     0
 40
0.0
  0
LTYPE
  2
DASHDOT
 70
    64
  3
__ . __ . __ . __ . __
 72
    65
 73
     4
 40
7.5
 49
5.0
 49
-1.25
 49
0.0
 49
-1.25
  0
ENDTAB
  0
TABLE
  2
LAYER
 70
     9
  0
LAYER
  2
0
 70
     0
 62
     7
  6
CONTINUOUS
  0
LAYER
  2
LC-INFO-1-2-MM-A3-0
 70
     1
 62
    -1
  6
CONTINUOUS
  0
LAYER
  2
LC-003-005-----0
 70
     0
 62
     2
  6
CONTINUOUS
  0
LAYER
  2
LC-005-003-MTH-0
 70
     0
 62
     2
  6
CONTINUOUS
  0
LAYER
  2
LC-006-003-MTG-0
 70
     0
 62
     2
  6
CONTINUOUS
  0
LAYER
  2
LC-004-003-----0
 70
     0
 62
     2
  6
CONTINUOUS
  0
LAYER
  2
LC-001-002-----0
 70
     0
 62
     1
  6
CONTINUOUS
  0
LAYER
  2
LC-002-002-RND-0
 70
     0
 62
     1
  6
CONTINUOUS
  0
LAYER
  2
LC-000
 70
     0
 62
     7
  6
CONTINUOUS
  0
ENDTAB
  0
TABLE
  2
STYLE
 70
     3
  0
STYLE
  2
STANDARD
 70
     0
 40
0.0
 41
1.0
 50
0.0
 71
     0
 42
0.0
  3
txt
  4

  0
STYLE
  2
LC-TXTSTYLE-150-400-0-0-A1
 70
    64
 40
0.0
 41
1.0
 50
15.0
 71
     0
 42
3.5
  3
Arial
  4

  0
STYLE
  2
LC-STANDARD
 70
    64
 40
0.0
 41
1.0
 50
0.0
 71
     0
 42
3.5
  3
MONOTXT
  4

  0
ENDTAB
  0
TABLE
  2
VIEW
 70
     0
  0
ENDTAB
  0
TABLE
  2
UCS
 70
     0
  0
ENDTAB
  0
TABLE
  2
APPID
 70
     1
  0
APPID
  2
ACAD
 70
     0
  0
ENDTAB
  0
TABLE
  2
DIMSTYLE
 70
     3
  0
DIMSTYLE
  2
STANDARD
 70
     0
  3

  4

  5

  6

  7

 40
1.0
 41
0.18
 42
0.0625
 43
0.38
 44
0.18
 45
0.0
 46
0.0
 47
0.0
 48
0.0
 71
     0
 72
     0
 73
     1
 74
     1
 75
     0
 76
     0
 77
     0
 78
     0
140
0.18
141
0.09
142
0.0
143
25.4
144
1.0
145
0.0
146
1.0
147
0.09
170
     0
171
     2
172
     0
173
     0
174
     0
175
     0
176
     0
177
     0
178
     0
  0
DIMSTYLE
  2
LC-STANDARD
 70
     0
  3

  4

  5

  6

  7

 40
1.0
 41
3.5
 42
0.0
 43
7.5
 44
1.8
 45
0.0
 46
0.0
 47
0.0
 48
0.0
 71
     0
 72
     0
 73
     0
 74
     0
 75
     0
 76
     0
 77
     1
 78
     8
140
3.5
141
0.0
142
0.0
143
25.4
144
1.0
145
0.0
146
0.71
147
1.5
170
     0
171
     2
172
     1
173
     0
174
     0
175
     0
176
     0
177
     0
178
     3
  0
DIMSTYLE
  2
LC-DIM-L-0140-02-02
 70
     0
  3

  4

  5

  6

  7

 40
2.0
 41
3.5
 42
0.0
 43
7.5
 44
1.8
 45
0.0
 46
0.0
 47
0.0
 48
0.0
 71
     0
 72
     0
 73
     0
 74
     0
 75
     0
 76
     0
 77
     1
 78
     8
140
14.0
141
0.0
142
0.0
143
25.4
144
1.0
145
0.0
146
0.71
147
1.5
170
     0
171
     2
172
     0
173
     0
174
     0
175
     0
176
     2
177
     2
178
     8
  0
ENDTAB
  0
ENDSEC
  0
SECTION
  2
BLOCKS
  0
BLOCK
  8
0
  5
23
  2
*X0
 70
    65
 10
445.493824
 20
577.194179
 30
0.0
  3
*X0
  0
LINE
  8
LC-003-005-----0
  6
CONTINUOUS
  5
25
 10
469.713948
 20
577.194179
 30
0.0
 11
470.326943
 21
577.807174
 31
0.0
  0
LINE
  8
LC-003-005-----0
  6
CONTINUOUS
  5
26
 10
467.803692
 20
578.11235
 30
0.0
 11
470.16439
 21
580.473048
 31
0.0
  0
LINE
  8
LC-003-005-----0
  6
CONTINUOUS
  5
27
 10
467.641139
 20
580.778224
 30
0.0
 11
470.001837
 21
583.138922
 31
0.0
  0
LINE
  8
LC-003-005-----0
  6
CONTINUOUS
  5
28
 10
467.249999
 20
583.215511
 30
0.0
 11
469.557655
 21
585.523167
 31
0.0
  0
LINE
  8
LC-003-005-----0
  6
CONTINUOUS
  5
29
 10
464.649119
 20
583.443058
 30
0.0
 11
466.956775
 21
585.750714
 31
0.0
  0
LINE
  8
LC-003-005-----0
  6
CONTINUOUS
  5
2A
 10
462.04824
 20
583.670606
 30
0.0
 11
464.355895
 21
585.978262
 31
0.0
  0
LINE
  8
LC-003-005-----0
  6
CONTINUOUS
  5
2B
 10
459.44736
 20
583.898153
 30
0.0
 11
461.755016
 21
586.205809
 31
0.0
  0
LINE
  8
LC-003-005-----0
  6
CONTINUOUS
  5
2C
 10
456.84648
 20
584.125701
 30
0.0
 11
459.154136
 21
586.433357
 31
0.0
  0
LINE
  8
LC-003-005-----0
  6
CONTINUOUS
  5
2D
 10
454.245601
 20
584.353248
 30
0.0
 11
456.553256
 21
586.660904
 31
0.0
  0
LINE
  8
LC-003-005-----0
  6
CONTINUOUS
  5
2E
 10
451.644721
 20
584.580796
 30
0.0
 11
453.952377
 21
586.888452
 31
0.0
  0
LINE
  8
LC-003-005-----0
  6
CONTINUOUS
  5
2F
 10
449.043841
 20
584.808343
 30
0.0
 11
451.351497
 21
587.115999
 31
0.0
  0
LINE
  8
LC-003-005-----0
  6
CONTINUOUS
  5
30
 10
446.442962
 20
585.035891
 30
0.0
 11
448.750618
 21
587.343547
 31
0.0
  0
LINE
  8
LC-003-005-----0
  6
CONTINUOUS
  5
31
 10
445.493824
 20
586.915181
 30
0.0
 11
446.149738
 21
587.571094
 31
0.0
  0
ENDBLK
  8
0
  5
32
  0
BLOCK
  8
0
  5
34
  2
*X1
 70
    65
 10
469.749922
 20
529.519753
 30
0.0
  3
*X1
  0
LINE
  8
LC-003-005-----0
  6
CONTINUOUS
  5
35
 10
524.026177
 20
529.683031
 30
0.0
 11
525.493824
 21
531.150679
 31
0.0
  0
LINE
  8
LC-003-005-----0
  6
CONTINUOUS
  5
36
 10
521.480914
 20
529.966195
 30
0.0
 11
523.735571
 21
532.220853
 31
0.0
  0
LINE
  8
LC-003-005-----0
  6
CONTINUOUS
  5
37
 10
518.935651
 20
530.249359
 30
0.0
 11
521.190978
 21
532.504687
 31
0.0
  0
LINE
  8
LC-003-005-----0
  6
CONTINUOUS
  5
38
 10
516.390388
 20
530.532524
 30
0.0
 11
518.646386
 21
532.788521
 31
0.0
  0
LINE
  8
LC-003-005-----0
  6
CONTINUOUS
  5
39
 10
513.845125
 20
530.815688
 30
0.0
 11
516.101793
 21
533.072356
 31
0.0
  0
LINE
  8
LC-003-005-----0
  6
CONTINUOUS
  5
3A
 10
511.299862
 20
531.098852
 30
0.0
 11
513.5572
 21
533.35619
 31
0.0
  0
LINE
  8
LC-003-005-----0
  6
CONTINUOUS
  5
3B
 10
508.754599
 20
531.382016
 30
0.0
 11
511.012608
 21
533.640025
 31
0.0
  0
LINE
  8
LC-003-005-----0
  6
CONTINUOUS
  5
3C
 10
506.209336
 20
531.66518
 30
0.0
 11
508.468015
 21
533.923859
 31
0.0
  0
LINE
  8
LC-003-005-----0
  6
CONTINUOUS
  5
3D
 10
503.664073
 20
531.948344
 30
0.0
 11
505.923422
 21
534.207694
 31
0.0
  0
LINE
  8
LC-003-005-----0
  6
CONTINUOUS
  5
3E
 10
501.11881
 20
532.231508
 30
0.0
 11
503.37883
 21
534.491528
 31
0.0
  0
LINE
  8
LC-003-005-----0
  6
CONTINUOUS
  5
3F
 10
498.573547
 20
532.514672
 30
0.0
 11
500.834237
 21
534.775362
 31
0.0
  0
LINE
  8
LC-003-005-----0
  6
CONTINUOUS
  5
40
 10
496.028284
 20
532.797837
 30
0.0
 11
498.289644
 21
535.059197
 31
0.0
  0
LINE
  8
LC-003-005-----0
  6
CONTINUOUS
  5
41
 10
493.483021
 20
533.081001
 30
0.0
 11
495.745052
 21
535.343031
 31
0.0
  0
LINE
  8
LC-003-005-----0
  6
CONTINUOUS
  5
42
 10
490.937758
 20
533.364165
 30
0.0
 11
493.200459
 21
535.626866
 31
0.0
  0
LINE
  8
LC-003-005-----0
  6
CONTINUOUS
  5
43
 10
488.392495
 20
533.647329
 30
0.0
 11
490.655866
 21
535.9107
 31
0.0
  0
LINE
  8
LC-003-005-----0
  6
CONTINUOUS
  5
44
 10
485.847232
 20
533.930493
 30
0.0
 11
488.111273
 21
536.194535
 31
0.0
  0
LINE
  8
LC-003-005-----0
  6
CONTINUOUS
  5
45
 10
483.301969
 20
534.213657
 30
0.0
 11
485.566681
 21
536.478369
 31
0.0
  0
LINE
  8
LC-003-005-----0
  6
CONTINUOUS
  5
46
 10
480.756706
 20
534.496821
 30
0.0
 11
483.022088
 21
536.762203
 31
0.0
  0
LINE
  8
LC-003-005-----0
  6
CONTINUOUS
  5
47
 10
478.261616
 20
534.830158
 30
0.0
 11
480.477495
 21
537.046038
 31
0.0
  0
LINE
  8
LC-003-005-----0
  6
CONTINUOUS
  5
48
 10
476.23737
 20
535.63434
 30
0.0
 11
478.109443
 21
537.506412
 31
0.0
  0
LINE
  8
LC-003-005-----0
  6
CONTINUOUS
  5
49
 10
474.64301
 20
536.868407
 30
0.0
 11
476.424663
 21
538.65006
 31
0.0
  0
LINE
  8
LC-003-005-----0
  6
CONTINUOUS
  5
4A
 10
473.432768
 20
538.486592
 30
0.0
 11
475.330482
 21
540.384306
 31
0.0
  0
LINE
  8
LC-003-005-----0
  6
CONTINUOUS
  5
4B
 10
472.659055
 20
540.541306
 30
0.0
 11
474.963388
 21
542.845639
 31
0.0
  0
LINE
  8
LC-003-005-----0
  6
CONTINUOUS
  5
4C
 10
471.990984
 20
542.701662
 30
0.0
 11
473.869033
 21
544.579711
 31
0.0
  0
LINE
  8
LC-003-005-----0
  6
CONTINUOUS
  5
4D
 10
470.576771
 20
544.115876
 30
0.0
 11
472.454819
 21
545.993925
 31
0.0
  0
LINE
  8
LC-003-005-----0
  6
CONTINUOUS
  5
4E
 10
469.754331
 20
546.121864
 30
0.0
 11
469.826647
 21
546.194179
 31
0.0
  0
ENDBLK
  8
0
  5
4F
  0
BLOCK
  8
0
  5
51
  2
*X2
 70
    65
 10
529.493824
 20
527.628479
 30
0.0
  3
*X2
  0
LINE
  8
LC-003-005-----0
  6
CONTINUOUS
  5
52
 10
541.843018
 20
527.700882
 30
0.0
 11
542.493824
 21
528.351689
 31
0.0
  0
LINE
  8
LC-003-005-----0
  6
CONTINUOUS
  5
53
 10
539.297755
 20
527.984046
 30
0.0
 11
541.54772
 21
530.234012
 31
0.0
  0
LINE
  8
LC-003-005-----0
  6
CONTINUOUS
  5
54
 10
536.752492
 20
528.267211
 30
0.0
 11
539.003127
 21
530.517846
 31
0.0
  0
LINE
  8
LC-003-005-----0
  6
CONTINUOUS
  5
55
 10
534.207229
 20
528.550375
 30
0.0
 11
536.458535
 21
530.80168
 31
0.0
  0
LINE
  8
LC-003-005-----0
  6
CONTINUOUS
  5
56
 10
531.661966
 20
528.833539
 30
0.0
 11
533.913942
 21
531.085515
 31
0.0
  0
LINE
  8
LC-003-005-----0
  6
CONTINUOUS
  5
57
 10
529.493824
 20
529.493824
 30
0.0
 11
531.369349
 21
531.369349
 31
0.0
  0
ENDBLK
  8
0
  5
58
  0
BLOCK
  8
0
  5
5A
  2
*X3
 70
    65
 10
542.493824
 20
527.628479
 30
0.0
  3
*X3
  0
LINE
  8
LC-003-005-----0
  6
CONTINUOUS
  5
5B
 10
554.410017
 20
528.954172
 30
0.0
 11
555.493824
 21
530.03798
 31
0.0
  0
LINE
  8
LC-003-005-----0
  6
CONTINUOUS
  5
5C
 10
551.227534
 20
528.600117
 30
0.0
 11
554.044282
 21
531.416865
 31
0.0
  0
LINE
  8
LC-003-005-----0
  6
CONTINUOUS
  5
5D
 10
548.045051
 20
528.246061
 30
0.0
 11
550.860751
 21
531.061761
 31
0.0
  0
LINE
  8
LC-003-005-----0
  6
CONTINUOUS
  5
5E
 10
544.862568
 20
527.892005
 30
0.0
 11
547.677219
 21
530.706657
 31
0.0
  0
LINE
  8
LC-003-005-----0
  6
CONTINUOUS
  5
5F
 10
542.493824
 20
528.351689
 30
0.0
 11
544.493688
 21
530.351552
 31
0.0
  0
ENDBLK
  8
0
  5
60
  0
BLOCK
  8
0
  5
62
  2
*X4
 70
    65
 10
559.493824
 20
529.519753
 30
0.0
  3
*X4
  0
LINE
  8
LC-003-005-----0
  6
CONTINUOUS
  5
63
 10
605.329742
 20
534.619064
 30
0.0
 11
612.490343
 21
541.779665
 31
0.0
  0
LINE
  8
LC-003-005-----0
  6
CONTINUOUS
  5
64
 10
602.14726
 20
534.265009
 30
0.0
 11
604.980785
 21
537.098534
 31
0.0
  0
LINE
  8
LC-003-005-----0
  6
CONTINUOUS
  5
65
 10
609.978571
 20
542.09632
 30
0.0
 11
614.07643
 21
546.194179
 31
0.0
  0
LINE
  8
LC-003-005-----0
  6
CONTINUOUS
  5
66
 10
598.964777
 20
533.910953
 30
0.0
 11
601.797254
 21
536.74343
 31
0.0
  0
LINE
  8
LC-003-005-----0
  6
CONTINUOUS
  5
67
 10
595.782294
 20
533.556897
 30
0.0
 11
598.613722
 21
536.388326
 31
0.0
  0
LINE
  8
LC-003-005-----0
  6
CONTINUOUS
  5
68
 10
592.599811
 20
533.202841
 30
0.0
 11
595.430191
 21
536.033221
 31
0.0
  0
LINE
  8
LC-003-005-----0
  6
CONTINUOUS
  5
69
 10
589.417328
 20
532.848786
 30
0.0
 11
592.246659
 21
535.678117
 31
0.0
  0
LINE
  8
LC-003-005-----0
  6
CONTINUOUS
  5
6A
 10
586.234845
 20
532.49473
 30
0.0
 11
589.063128
 21
535.323013
 31
0.0
  0
LINE
  8
LC-003-005-----0
  6
CONTINUOUS
  5
6B
 10
583.052362
 20
532.140674
 30
0.0
 11
585.879597
 21
534.967908
 31
0.0
  0
LINE
  8
LC-003-005-----0
  6
CONTINUOUS
  5
6C
 10
579.86988
 20
531.786618
 30
0.0
 11
582.696065
 21
534.612804
 31
0.0
  0
LINE
  8
LC-003-005-----0
  6
CONTINUOUS
  5
6D
 10
576.687397
 20
531.432563
 30
0.0
 11
579.512534
 21
534.2577
 31
0.0
  0
LINE
  8
LC-003-005-----0
  6
CONTINUOUS
  5
6E
 10
573.504914
 20
531.078507
 30
0.0
 11
576.329002
 21
533.902595
 31
0.0
  0
LINE
  8
LC-003-005-----0
  6
CONTINUOUS
  5
6F
 10
570.322431
 20
530.724451
 30
0.0
 11
573.145471
 21
533.547491
 31
0.0
  0
LINE
  8
LC-003-005-----0
  6
CONTINUOUS
  5
70
 10
567.139948
 20
530.370395
 30
0.0
 11
569.961939
 21
533.192387
 31
0.0
  0
LINE
  8
LC-003-005-----0
  6
CONTINUOUS
  5
71
 10
563.957465
 20
530.01634
 30
0.0
 11
566.778408
 21
532.837282
 31
0.0
  0
LINE
  8
LC-003-005-----0
  6
CONTINUOUS
  5
72
 10
560.774982
 20
529.662284
 30
0.0
 11
563.594876
 21
532.482178
 31
0.0
  0
LINE
  8
LC-003-005-----0
  6
CONTINUOUS
  5
73
 10
559.493824
 20
531.209553
 30
0.0
 11
560.411345
 21
532.127074
 31
0.0
  0
ENDBLK
  8
0
  5
74
  0
BLOCK
  8
0
  5
76
  2
*X5
 70
    65
 10
614.623327
 20
577.194179
 30
0.0
  3
*X5
  0
LINE
  8
LC-003-005-----0
  6
CONTINUOUS
  5
77
 10
638.798184
 20
585.058069
 30
0.0
 11
639.493824
 21
585.753709
 31
0.0
  0
LINE
  8
LC-003-005-----0
  6
CONTINUOUS
  5
78
 10
635.698577
 20
584.786888
 30
0.0
 11
638.448734
 21
587.537046
 31
0.0
  0
LINE
  8
LC-003-005-----0
  6
CONTINUOUS
  5
79
 10
632.598969
 20
584.515708
 30
0.0
 11
635.349126
 21
587.265865
 31
0.0
  0
LINE
  8
LC-003-005-----0
  6
CONTINUOUS
  5
7A
 10
629.499361
 20
584.244527
 30
0.0
 11
632.249518
 21
586.994685
 31
0.0
  0
LINE
  8
LC-003-005-----0
  6
CONTINUOUS
  5
7B
 10
626.399754
 20
583.973347
 30
0.0
 11
629.149911
 21
586.723504
 31
0.0
  0
LINE
  8
LC-003-005-----0
  6
CONTINUOUS
  5
7C
 10
616.792159
 20
577.194179
 30
0.0
 11
617.149777
 21
577.551797
 31
0.0
  0
LINE
  8
LC-003-005-----0
  6
CONTINUOUS
  5
7D
 10
623.300146
 20
583.702166
 30
0.0
 11
626.050303
 21
586.452323
 31
0.0
  0
LINE
  8
LC-003-005-----0
  6
CONTINUOUS
  5
7E
 10
614.666158
 20
577.896606
 30
0.0
 11
617.333441
 21
580.563888
 31
0.0
  0
LINE
  8
LC-003-005-----0
  6
CONTINUOUS
  5
7F
 10
620.200538
 20
583.430986
 30
0.0
 11
622.950696
 21
586.181143
 31
0.0
  0
LINE
  8
LC-003-005-----0
  6
CONTINUOUS
  5
80
 10
614.849822
 20
580.908697
 30
0.0
 11
619.851088
 21
585.909962
 31
0.0
  0
LINE
  8
LC-003-005-----0
  6
CONTINUOUS
  5
81
 10
615.033486
 20
583.920788
 30
0.0
 11
616.75148
 21
585.638782
 31
0.0
  0
ENDBLK
  8
0
  5
82
  0
BLOCK
  8
0
  5
84
  2
*X6
 70
    65
 10
606.793318
 20
583.536161
 30
0.0
  3
*X6
  0
LINE
  8
LC-003-005-----0
  6
CONTINUOUS
  5
85
 10
616.944512
 20
585.831813
 30
0.0
 11
617.0628
 21
585.950102
 31
0.0
  0
LINE
  8
LC-003-005-----0
  6
CONTINUOUS
  5
86
 10
615.281805
 20
585.58332
 30
0.0
 11
617.160512
 21
587.462027
 31
0.0
  0
LINE
  8
LC-003-005-----0
  6
CONTINUOUS
  5
87
 10
612.456445
 20
584.172173
 30
0.0
 11
615.996636
 21
587.712365
 31
0.0
  0
LINE
  8
LC-003-005-----0
  6
CONTINUOUS
  5
88
 10
610.793738
 20
583.92368
 30
0.0
 11
614.333929
 21
587.463871
 31
0.0
  0
LINE
  8
LC-003-005-----0
  6
CONTINUOUS
  5
89
 10
609.131031
 20
583.675187
 30
0.0
 11
613.458275
 21
588.002431
 31
0.0
  0
LINE
  8
LC-003-005-----0
  6
CONTINUOUS
  5
8A
 10
607.842736
 20
583.801106
 30
0.0
 11
612.171169
 21
588.129539
 31
0.0
  0
LINE
  8
LC-003-005-----0
  6
CONTINUOUS
  5
8B
 10
607.075593
 20
584.448176
 30
0.0
 11
610.508462
 21
587.881045
 31
0.0
  0
LINE
  8
LC-003-005-----0
  6
CONTINUOUS
  5
8C
 10
606.891718
 20
585.678514
 30
0.0
 11
608.845756
 21
587.632552
 31
0.0
  0
ENDBLK
  8
0
  5
8D
  0
BLOCK
  8
0
  5
8F
  2
*D7
 70
    65
 10
0.0
 20
0.0
 30
0.0
  3
*D7
  0
LINE
  8
LC-005-003-MTH-0
  6
CONTINUOUS
  5
91
 10
445.493824
 20
587.628479
 30
0.0
 11
445.493824
 21
618.8
 31
0.0
  0
LINE
  8
LC-005-003-MTH-0
  6
CONTINUOUS
  5
92
 10
639.493824
 20
587.628479
 30
0.0
 11
639.493824
 21
618.8
 31
0.0
  0
LINE
  8
LC-006-003-MTG-0
  6
CONTINUOUS
  5
94
 10
445.493824
 20
602.0
 30
0.0
 11
639.493824
 21
602.0
 31
0.0
  0
LINE
  8
LC-004-003-----0
  6
CONTINUOUS
  5
96
 10
473.25428
 20
605.654733
 30
0.0
 11
445.493824
 21
602.0
 31
0.0
  0
LINE
  8
LC-004-003-----0
  6
CONTINUOUS
  5
97
 10
445.493824
 20
602.0
 30
0.0
 11
473.25428
 21
598.345267
 31
0.0
  0
LINE
  8
LC-004-003-----0
  6
CONTINUOUS
  5
98
 10
473.25428
 20
598.345267
 30
0.0
 11
473.25428
 21
605.654733
 31
0.0
  0
LINE
  8
LC-004-003-----0
  6
CONTINUOUS
  5
99
 10
473.316562
 20
604.704503
 30
0.0
 11
452.773824
 21
602.0
 31
0.0
  0
LINE
  8
LC-004-003-----0
  6
CONTINUOUS
  5
9A
 10
452.773824
 20
602.0
 30
0.0
 11
473.316562
 21
599.295497
 31
0.0
  0
LINE
  8
LC-004-003-----0
  6
CONTINUOUS
  5
9B
 10
473.378843
 20
603.754272
 30
0.0
 11
460.053824
 21
602.0
 31
0.0
  0
LINE
  8
LC-004-003-----0
  6
CONTINUOUS
  5
9C
 10
460.053824
 20
602.0
 30
0.0
 11
473.378843
 21
600.245728
 31
0.0
  0
LINE
  8
LC-004-003-----0
  6
CONTINUOUS
  5
9D
 10
473.441125
 20
602.804041
 30
0.0
 11
467.333824
 21
602.0
 31
0.0
  0
LINE
  8
LC-004-003-----0
  6
CONTINUOUS
  5
9E
 10
467.333824
 20
602.0
 30
0.0
 11
473.441125
 21
601.195959
 31
0.0
  0
LINE
  8
LC-004-003-----0
  6
CONTINUOUS
  5
9F
 10
611.733368
 20
598.345267
 30
0.0
 11
639.493824
 21
602.0
 31
0.0
  0
LINE
  8
LC-004-003-----0
  6
CONTINUOUS
  5
A0
 10
639.493824
 20
602.0
 30
0.0
 11
611.733368
 21
605.654733
 31
0.0
  0
LINE
  8
LC-004-003-----0
  6
CONTINUOUS
  5
A1
 10
611.733368
 20
605.654733
 30
0.0
 11
611.733368
 21
598.345267
 31
0.0
  0
LINE
  8
LC-004-003-----0
  6
CONTINUOUS
  5
A2
 10
611.671087
 20
599.295497
 30
0.0
 11
632.213824
 21
602.0
 31
0.0
  0
LINE
  8
LC-004-003-----0
  6
CONTINUOUS
  5
A3
 10
632.213824
 20
602.0
 30
0.0
 11
611.671087
 21
604.704503
 31
0.0
  0
LINE
  8
LC-004-003-----0
  6
CONTINUOUS
  5
A4
 10
611.608805
 20
600.245728
 30
0.0
 11
624.933824
 21
602.0
 31
0.0
  0
LINE
  8
LC-004-003-----0
  6
CONTINUOUS
  5
A5
 10
624.933824
 20
602.0
 30
0.0
 11
611.608805
 21
603.754272
 31
0.0
  0
LINE
  8
LC-004-003-----0
  6
CONTINUOUS
  5
A6
 10
611.546524
 20
601.195959
 30
0.0
 11
617.653824
 21
602.0
 31
0.0
  0
LINE
  8
LC-004-003-----0
  6
CONTINUOUS
  5
A7
 10
617.653824
 20
602.0
 30
0.0
 11
611.546524
 21
602.804041
 31
0.0
  0
TEXT
  8
LC-004-003-----0
  6
CONTINUOUS
 62
     8
  5
A8
 10
508.570534
 20
609.827554
 30
0.0
 40
28.0
  1
Ø194
 41
0.9
 51
15.0
  7
LC-TXTSTYLE-150-400-0-0-A0
 72
     1
 11
546.841984
 21
609.827554
 31
0.0
  0
ENDBLK
  8
0
  5
A9
  0
BLOCK
  8
0
  5
AB
  2
*D8
 70
    65
 10
0.0
 20
0.0
 30
0.0
  3
*D8
  0
LINE
  8
LC-005-003-MTH-0
  6
CONTINUOUS
  5
AC
 10
446.993824
 20
568.11893
 30
0.0
 11
403.2
 21
568.11893
 31
0.0
  0
LINE
  8
LC-005-003-MTH-0
  6
CONTINUOUS
  5
AD
 10
445.493824
 20
587.628479
 30
0.0
 11
403.2
 21
587.628479
 31
0.0
  0
LINE
  8
LC-004-003-----0
  6
CONTINUOUS
  5
AE
 10
423.654733
 20
540.358473
 30
0.0
 11
420.0
 21
568.11893
 31
0.0
  0
LINE
  8
LC-004-003-----0
  6
CONTINUOUS
  5
AF
 10
420.0
 20
568.11893
 30
0.0
 11
416.345267
 21
540.358473
 31
0.0
  0
LINE
  8
LC-004-003-----0
  6
CONTINUOUS
  5
B0
 10
416.345267
 20
540.358473
 30
0.0
 11
423.654733
 21
540.358473
 31
0.0
  0
LINE
  8
LC-004-003-----0
  6
CONTINUOUS
  5
B1
 10
422.704503
 20
540.296192
 30
0.0
 11
420.0
 21
560.83893
 31
0.0
  0
LINE
  8
LC-004-003-----0
  6
CONTINUOUS
  5
B2
 10
420.0
 20
560.83893
 30
0.0
 11
417.295497
 21
540.296192
 31
0.0
  0
LINE
  8
LC-004-003-----0
  6
CONTINUOUS
  5
B3
 10
421.754272
 20
540.233911
 30
0.0
 11
420.0
 21
553.55893
 31
0.0
  0
LINE
  8
LC-004-003-----0
  6
CONTINUOUS
  5
B4
 10
420.0
 20
553.55893
 30
0.0
 11
418.245728
 21
540.233911
 31
0.0
  0
LINE
  8
LC-004-003-----0
  6
CONTINUOUS
  5
B5
 10
420.804041
 20
540.171629
 30
0.0
 11
420.0
 21
546.27893
 31
0.0
  0
LINE
  8
LC-004-003-----0
  6
CONTINUOUS
  5
B6
 10
420.0
 20
546.27893
 30
0.0
 11
419.195959
 21
540.171629
 31
0.0
  0
LINE
  8
LC-004-003-----0
  6
CONTINUOUS
  5
B7
 10
416.345267
 20
615.388935
 30
0.0
 11
420.0
 21
587.628479
 31
0.0
  0
LINE
  8
LC-004-003-----0
  6
CONTINUOUS
  5
B8
 10
420.0
 20
587.628479
 30
0.0
 11
423.654733
 21
615.388935
 31
0.0
  0
LINE
  8
LC-004-003-----0
  6
CONTINUOUS
  5
B9
 10
423.654733
 20
615.388935
 30
0.0
 11
416.345267
 21
615.388935
 31
0.0
  0
LINE
  8
LC-004-003-----0
  6
CONTINUOUS
  5
BA
 10
417.295497
 20
615.451217
 30
0.0
 11
420.0
 21
594.908479
 31
0.0
  0
LINE
  8
LC-004-003-----0
  6
CONTINUOUS
  5
BB
 10
420.0
 20
594.908479
 30
0.0
 11
422.704503
 21
615.451217
 31
0.0
  0
LINE
  8
LC-004-003-----0
  6
CONTINUOUS
  5
BC
 10
418.245728
 20
615.513498
 30
0.0
 11
420.0
 21
602.188479
 31
0.0
  0
LINE
  8
LC-004-003-----0
  6
CONTINUOUS
  5
BD
 10
420.0
 20
602.188479
 30
0.0
 11
421.754272
 21
615.513498
 31
0.0
  0
LINE
  8
LC-004-003-----0
  6
CONTINUOUS
  5
BE
 10
419.195959
 20
615.575779
 30
0.0
 11
420.0
 21
609.468479
 31
0.0
  0
LINE
  8
LC-004-003-----0
  6
CONTINUOUS
  5
BF
 10
420.0
 20
609.468479
 30
0.0
 11
420.804041
 21
615.575779
 31
0.0
  0
LINE
  8
LC-006-003-MTG-0
  6
CONTINUOUS
  5
C0
 10
420.0
 20
528.91893
 30
0.0
 11
420.0
 21
697.396179
 31
0.0
  0
TEXT
  8
LC-004-003-----0
  6
CONTINUOUS
 62
     8
  5
C1
 10
412.172446
 20
630.056639
 30
0.0
 40
28.0
  1
19,5
 50
90.0
 41
0.9
 51
15.0
  7
LC-TXTSTYLE-150-400-0-0-A0
  0
ENDBLK
  8
0
  5
C2
  0
BLOCK
  8
0
  5
C4
  2
*D9
 70
    65
 10
0.0
 20
0.0
 30
0.0
  3
*D9
  0
LINE
  8
LC-005-003-MTH-0
  6
CONTINUOUS
  5
C5
 10
542.493824
 20
527.628479
 30
0.0
 11
375.2
 21
527.628479
 31
0.0
  0
LINE
  8
LC-005-003-MTH-0
  6
CONTINUOUS
  5
C6
 10
445.493824
 20
587.628479
 30
0.0
 11
375.2
 21
587.628479
 31
0.0
  0
LINE
  8
LC-004-003-----0
  6
CONTINUOUS
  5
C7
 10
395.654733
 20
499.868023
 30
0.0
 11
392.0
 21
527.628479
 31
0.0
  0
LINE
  8
LC-004-003-----0
  6
CONTINUOUS
  5
C8
 10
392.0
 20
527.628479
 30
0.0
 11
388.345267
 21
499.868023
 31
0.0
  0
LINE
  8
LC-004-003-----0
  6
CONTINUOUS
  5
C9
 10
388.345267
 20
499.868023
 30
0.0
 11
395.654733
 21
499.868023
 31
0.0
  0
LINE
  8
LC-004-003-----0
  6
CONTINUOUS
  5
CA
 10
394.704503
 20
499.805742
 30
0.0
 11
392.0
 21
520.348479
 31
0.0
  0
LINE
  8
LC-004-003-----0
  6
CONTINUOUS
  5
CB
 10
392.0
 20
520.348479
 30
0.0
 11
389.295497
 21
499.805742
 31
0.0
  0
LINE
  8
LC-004-003-----0
  6
CONTINUOUS
  5
CC
 10
393.754272
 20
499.74346
 30
0.0
 11
392.0
 21
513.068479
 31
0.0
  0
LINE
  8
LC-004-003-----0
  6
CONTINUOUS
  5
CD
 10
392.0
 20
513.068479
 30
0.0
 11
390.245728
 21
499.74346
 31
0.0
  0
LINE
  8
LC-004-003-----0
  6
CONTINUOUS
  5
CE
 10
392.804041
 20
499.681179
 30
0.0
 11
392.0
 21
505.788479
 31
0.0
  0
LINE
  8
LC-004-003-----0
  6
CONTINUOUS
  5
CF
 10
392.0
 20
505.788479
 30
0.0
 11
391.195959
 21
499.681179
 31
0.0
  0
LINE
  8
LC-004-003-----0
  6
CONTINUOUS
  5
D0
 10
388.345267
 20
615.388935
 30
0.0
 11
392.0
 21
587.628479
 31
0.0
  0
LINE
  8
LC-004-003-----0
  6
CONTINUOUS
  5
D1
 10
392.0
 20
587.628479
 30
0.0
 11
395.654733
 21
615.388935
 31
0.0
  0
LINE
  8
LC-004-003-----0
  6
CONTINUOUS
  5
D2
 10
395.654733
 20
615.388935
 30
0.0
 11
388.345267
 21
615.388935
 31
0.0
  0
LINE
  8
LC-004-003-----0
  6
CONTINUOUS
  5
D3
 10
389.295497
 20
615.451217
 30
0.0
 11
392.0
 21
594.908479
 31
0.0
  0
LINE
  8
LC-004-003-----0
  6
CONTINUOUS
  5
D4
 10
392.0
 20
594.908479
 30
0.0
 11
394.704503
 21
615.451217
 31
0.0
  0
LINE
  8
LC-004-003-----0
  6
CONTINUOUS
  5
D5
 10
390.245728
 20
615.513498
 30
0.0
 11
392.0
 21
602.188479
 31
0.0
  0
LINE
  8
LC-004-003-----0
  6
CONTINUOUS
  5
D6
 10
392.0
 20
602.188479
 30
0.0
 11
393.754272
 21
615.513498
 31
0.0
  0
LINE
  8
LC-004-003-----0
  6
CONTINUOUS
  5
D7
 10
391.195959
 20
615.575779
 30
0.0
 11
392.0
 21
609.468479
 31
0.0
  0
LINE
  8
LC-004-003-----0
  6
CONTINUOUS
  5
D8
 10
392.0
 20
609.468479
 30
0.0
 11
392.804041
 21
615.575779
 31
0.0
  0
LINE
  8
LC-006-003-MTG-0
  6
CONTINUOUS
  5
D9
 10
392.0
 20
488.428479
 30
0.0
 11
392.0
 21
626.828479
 31
0.0
  0
TEXT
  8
LC-004-003-----0
  6
CONTINUOUS
 62
     8
  5
DA
 10
384.172446
 20
544.374439
 30
0.0
 40
28.0
  1
60
 50
90.0
 41
0.9
 51
15.0
  7
LC-TXTSTYLE-150-400-0-0-A0
 72
     1
 11
384.172446
 21
561.976639
 31
0.0
  0
ENDBLK
  8
0
  5
DB
  0
ENDSEC
  0
SECTION
  2
ENTITIES
  0
VIEWPORT
  8
LC-000
  5
15C
 67
     1
 68
     1
 10
420.0
 20
297.0
 30
0.0
 40
840.0
 41
594.0
 69
     1
1001
ACAD
1000
MVIEW
1002
{
1070
    16
1010
0.0
1020
0.0
1030
0.0
1010
0.0
1020
0.0
1030
1.0
1040
0.0
1040
594.0
1040
420.0
1040
297.0
1040
50.0
1040
0.0
1040
0.0
1070
     0
1070
   100
1070
     1
1070
     1
1070
     0
1070
     0
1070
     0
1070
     0
1040
0.0
1040
0.0
1040
0.0
1040
1.0
1040
1.0
1040
0.0
1040
0.0
1070
     0
1002
{
1002
}
1002
}
  0
VIEWPORT
  8
0
  5
15D
 67
     1
 68
     1
 10
0.0
 20
0.0
 30
0.0
 40
0.0
 41
0.0
 69
     1
1001
ACAD
1000
MVIEW
1002
{
1070
    16
1010
0.0
1020
0.0
1030
0.0
1010
0.0
1020
0.0
1030
1.0
1040
0.0
1040
594.0
1040
0.0
1040
0.0
1040
50.0
1040
0.0
1040
0.0
1070
     0
1070
   100
1070
     0
1070
     1
1070
     0
1070
     0
1070
     0
1070
     0
1040
0.0
1040
0.0
1040
0.0
1040
0.5
1040
0.5
1040
0.5
1040
0.5
1070
     0
1002
{
1002
}
1002
}
  0
INSERT
  8
LC-003-005-----0
  6
CONTINUOUS
  5
DC
  2
*X0
 10
445.493824
 20
577.194179
 30
0.0
  0
INSERT
  8
LC-003-005-----0
  6
CONTINUOUS
  5
DD
  2
*X1
 10
469.749922
 20
529.519753
 30
0.0
  0
INSERT
  8
LC-003-005-----0
  6
CONTINUOUS
  5
DE
  2
*X2
 10
529.493824
 20
527.628479
 30
0.0
  0
INSERT
  8
LC-003-005-----0
  6
CONTINUOUS
  5
DF
  2
*X3
 10
542.493824
 20
527.628479
 30
0.0
  0
INSERT
  8
LC-003-005-----0
  6
CONTINUOUS
  5
E0
  2
*X4
 10
559.493824
 20
529.519753
 30
0.0
  0
INSERT
  8
LC-003-005-----0
  6
CONTINUOUS
  5
E1
  2
*X5
 10
614.623327
 20
577.194179
 30
0.0
  0
INSERT
  8
LC-003-005-----0
  6
CONTINUOUS
  5
E2
  2
*X6
 10
606.793318
 20
583.536161
 30
0.0
  0
DIMENSION
  8
LC-004-003-----0
  6
CONTINUOUS
  5
E3
  2
*D7
 10
542.493824
 20
602.0
 30
0.0
 11
542.493824
 21
602.0
 31
0.0
  1
%%c<>
 13
445.493824
 23
587.628479
 33
0.0
 14
639.493824
 24
587.628479
 34
0.0
  3
LC-DIM-L-0140-02-02
  0
DIMENSION
  8
LC-004-003-----0
  6
CONTINUOUS
  5
E4
  2
*D8
 10
420.0
 20
577.873704
 30
0.0
 11
420.0
 21
577.873704
 31
0.0
  1
19,5
 13
445.493824
 23
587.628479
 33
0.0
 14
446.993824
 24
568.11893
 34
0.0
 50
90.0
  3
LC-DIM-L-0140-02-02
  0
DIMENSION
  8
LC-004-003-----0
  6
CONTINUOUS
  5
E5
  2
*D9
 10
392.0
 20
557.628479
 30
0.0
 11
392.0
 21
557.628479
 31
0.0
 13
445.493824
 23
587.628479
 33
0.0
 14
542.493824
 24
527.628479
 34
0.0
 50
90.0
  3
LC-DIM-L-0140-02-02
  0
LINE
  8
LC-001-002-----0
  6
CONTINUOUS
  5
E7
 10
446.993824
 20
568.11893
 30
0.0
 11
451.045565
 21
568.11893
 31
0.0
  0
LINE
  8
LC-001-002-----0
  6
CONTINUOUS
  5
E8
 10
445.493824
 20
587.628479
 30
0.0
 11
542.493824
 21
587.628479
 31
0.0
  0
LINE
  8
LC-001-002-----0
  6
CONTINUOUS
  5
E9
 10
469.858059
 20
585.496885
 30
0.0
 11
594.555672
 21
585.496885
 31
0.0
  0
LINE
  8
LC-001-002-----0
  6
CONTINUOUS
  5
EA
 10
445.493824
 20
587.628479
 30
0.0
 11
469.858059
 21
585.496885
 31
0.0
  0
LINE
  8
LC-001-002-----0
  6
CONTINUOUS
  5
EB
 10
472.48919
 20
542.128479
 30
0.0
 11
472.48919
 21
542.194179
 31
0.0
  0
LINE
  8
LC-001-002-----0
  6
CONTINUOUS
  5
EC
 10
445.493824
 20
587.628479
 30
0.0
 11
445.493824
 21
569.61893
 31
0.0
  0
LINE
  8
LC-001-002-----0
  6
CONTINUOUS
  5
ED
 10
445.493824
 20
585.11893
 30
0.0
 11
467.493824
 21
583.194179
 31
0.0
  0
LINE
  8
LC-001-002-----0
  6
CONTINUOUS
  5
EE
 10
456.493824
 20
584.156554
 30
0.0
 11
452.494454
 21
569.230701
 31
0.0
  0
ARC
  8
LC-002-002-RND-0
  6
CONTINUOUS
  5
F0
 10
451.045565
 20
569.61893
 30
0.0
 40
1.5
 50
270.0
 51
345.0
  0
ARC
  8
LC-002-002-RND-0
  6
CONTINUOUS
  5
F1
 10
446.993824
 20
569.61893
 30
0.0
 40
1.5
 50
180.0
 51
270.0
  0
LINE
  8
LC-001-002-----0
  6
CONTINUOUS
  5
F2
 10
445.493824
 20
587.628479
 30
0.0
 11
445.493824
 21
569.61893
 31
0.0
  0
LINE
  8
LC-001-002-----0
  6
CONTINUOUS
  5
F3
 10
467.493824
 20
583.194179
 30
0.0
 11
469.831185
 21
544.861461
 31
0.0
  0
LINE
  8
LC-001-002-----0
  6
CONTINUOUS
  5
F4
 10
469.858059
 20
585.496885
 30
0.0
 11
472.254565
 21
546.194179
 31
0.0
  0
LINE
  8
LC-001-002-----0
  6
CONTINUOUS
  5
F5
 10
469.749922
 20
546.194179
 30
0.0
 11
472.254565
 21
546.194179
 31
0.0
  0
LINE
  8
LC-001-002-----0
  6
CONTINUOUS
  5
F6
 10
472.498467
 20
542.194179
 30
0.0
 11
469.831185
 21
544.861461
 31
0.0
  0
LINE
  8
LC-001-002-----0
  6
CONTINUOUS
  5
F7
 10
472.254565
 20
546.194179
 30
0.0
 11
474.921847
 21
543.526897
 31
0.0
  0
LINE
  8
LC-001-002-----0
  6
CONTINUOUS
  5
F8
 10
474.921847
 20
543.526897
 30
0.0
 11
475.025672
 21
541.824166
 31
0.0
  0
ARC
  8
LC-002-002-RND-0
  6
CONTINUOUS
  5
F9
 10
480.016403
 20
542.128479
 30
0.0
 40
5.0
 50
183.489325
 51
263.635301
  0
ARC
  8
LC-002-002-RND-0
  6
CONTINUOUS
  5
FA
 10
479.98919
 20
542.128479
 30
0.0
 40
7.5
 50
180.0
 51
263.651867
  0
LINE
  8
LC-001-002-----0
  6
CONTINUOUS
  5
FB
 10
479.46212
 20
537.159297
 30
0.0
 11
542.493824
 21
530.128479
 31
0.0
  0
LINE
  8
LC-001-002-----0
  6
CONTINUOUS
  5
FC
 10
479.15992
 20
534.674466
 30
0.0
 11
542.493824
 21
527.628479
 31
0.0
  0
LINE
  8
LC-001-002-----0
  6
CONTINUOUS
  5
FD
 10
525.493824
 20
532.02473
 30
0.0
 11
525.493824
 21
529.519753
 31
0.0
  0
LINE
  8
LC-001-002-----0
  6
CONTINUOUS
  5
FE
 10
529.493824
 20
531.578553
 30
0.0
 11
529.493824
 21
529.074748
 31
0.0
  0
LINE
  8
LC-001-002-----0
  6
CONTINUOUS
  5
FF
 10
474.493824
 20
577.194179
 30
0.0
 11
476.384068
 21
546.194179
 31
0.0
  0
LINE
  8
LC-001-002-----0
  6
CONTINUOUS
  5
100
 10
467.859678
 20
577.194179
 30
0.0
 11
470.364321
 21
577.194179
 31
0.0
  0
LINE
  8
LC-001-002-----0
  6
CONTINUOUS
  5
101
 10
482.493824
 20
577.194179
 30
0.0
 11
482.493824
 21
546.194179
 31
0.0
  0
LINE
  8
LC-001-002-----0
  6
CONTINUOUS
  5
102
 10
481.493824
 20
577.194179
 30
0.0
 11
481.493824
 21
546.194179
 31
0.0
  0
LINE
  8
LC-001-002-----0
  6
CONTINUOUS
  5
103
 10
476.384068
 20
546.194179
 30
0.0
 11
482.493824
 21
546.194179
 31
0.0
  0
LINE
  8
LC-001-002-----0
  6
CONTINUOUS
  5
104
 10
491.493824
 20
546.194179
 30
0.0
 11
501.493824
 21
546.194179
 31
0.0
  0
LINE
  8
LC-001-002-----0
  6
CONTINUOUS
  5
105
 10
491.493824
 20
577.194179
 30
0.0
 11
491.493824
 21
546.194179
 31
0.0
  0
LINE
  8
LC-001-002-----0
  6
CONTINUOUS
  5
106
 10
499.993824
 20
577.194179
 30
0.0
 11
499.993824
 21
546.194179
 31
0.0
  0
LINE
  8
LC-001-002-----0
  6
CONTINUOUS
  5
107
 10
501.493824
 20
577.194179
 30
0.0
 11
501.493824
 21
546.194179
 31
0.0
  0
LINE
  8
LC-001-002-----0
  6
CONTINUOUS
  5
108
 10
491.493824
 20
577.194179
 30
0.0
 11
501.493824
 21
577.194179
 31
0.0
  0
LINE
  8
LC-001-002-----0
  6
CONTINUOUS
  5
109
 10
511.493824
 20
577.194179
 30
0.0
 11
511.493824
 21
546.194179
 31
0.0
  0
LINE
  8
LC-001-002-----0
  6
CONTINUOUS
  5
10A
 10
511.493824
 20
577.194179
 30
0.0
 11
523.493824
 21
577.194179
 31
0.0
  0
LINE
  8
LC-001-002-----0
  6
CONTINUOUS
  5
10B
 10
521.493824
 20
577.194179
 30
0.0
 11
521.493824
 21
546.194179
 31
0.0
  0
LINE
  8
LC-001-002-----0
  6
CONTINUOUS
  5
10C
 10
523.493824
 20
577.194179
 30
0.0
 11
523.493824
 21
546.194179
 31
0.0
  0
LINE
  8
LC-001-002-----0
  6
CONTINUOUS
  5
10D
 10
511.493824
 20
546.194179
 30
0.0
 11
523.493824
 21
546.194179
 31
0.0
  0
LINE
  8
LC-001-002-----0
  6
CONTINUOUS
  5
10E
 10
535.493824
 20
577.194179
 30
0.0
 11
535.493824
 21
546.194179
 31
0.0
  0
LINE
  8
LC-001-002-----0
  6
CONTINUOUS
  5
10F
 10
535.493824
 20
546.194179
 30
0.0
 11
542.493824
 21
546.194179
 31
0.0
  0
LINE
  8
LC-001-002-----0
  6
CONTINUOUS
  5
110
 10
535.493824
 20
577.194179
 30
0.0
 11
542.493824
 21
577.194179
 31
0.0
  0
LINE
  8
LC-001-002-----0
  6
CONTINUOUS
  5
111
 10
474.493824
 20
577.194179
 30
0.0
 11
482.493824
 21
577.194179
 31
0.0
  0
LINE
  8
LC-001-002-----0
  6
CONTINUOUS
  5
112
 10
605.827728
 20
534.674466
 30
0.0
 11
542.493824
 21
527.628479
 31
0.0
  0
LINE
  8
LC-001-002-----0
  6
CONTINUOUS
  5
113
 10
605.525529
 20
537.159297
 30
0.0
 11
542.493824
 21
530.128479
 31
0.0
  0
LINE
  8
LC-001-002-----0
  6
CONTINUOUS
  5
114
 10
555.493824
 20
531.578553
 30
0.0
 11
555.493824
 21
529.074748
 31
0.0
  0
LINE
  8
LC-001-002-----0
  6
CONTINUOUS
  5
115
 10
559.493824
 20
532.02473
 30
0.0
 11
559.493824
 21
529.519753
 31
0.0
  0
ARC
  8
LC-002-002-RND-0
  6
CONTINUOUS
  5
116
 10
604.998459
 20
542.128479
 30
0.0
 40
7.5
 50
276.348133
 51
0.0
  0
ARC
  8
LC-002-002-RND-0
  6
CONTINUOUS
  5
117
 10
604.971245
 20
542.128479
 30
0.0
 40
5.0
 50
276.364699
 51
356.510675
  0
LINE
  8
LC-001-002-----0
  6
CONTINUOUS
  5
118
 10
612.498459
 20
542.203457
 30
0.0
 11
615.156463
 21
544.861461
 31
0.0
  0
LINE
  8
LC-001-002-----0
  6
CONTINUOUS
  5
119
 10
612.733083
 20
546.194179
 30
0.0
 11
610.065801
 21
543.526897
 31
0.0
  0
LINE
  8
LC-001-002-----0
  6
CONTINUOUS
  5
11A
 10
610.065801
 20
543.526897
 30
0.0
 11
609.961976
 21
541.824166
 31
0.0
  0
LINE
  8
LC-001-002-----0
  6
CONTINUOUS
  5
11B
 10
617.493824
 20
583.194179
 30
0.0
 11
615.156463
 21
544.861461
 31
0.0
  0
LINE
  8
LC-001-002-----0
  6
CONTINUOUS
  5
11C
 10
615.12959
 20
585.496885
 30
0.0
 11
612.733083
 21
546.194179
 31
0.0
  0
LINE
  8
LC-001-002-----0
  6
CONTINUOUS
  5
11D
 10
615.237727
 20
546.194179
 30
0.0
 11
612.733083
 21
546.194179
 31
0.0
  0
LINE
  8
LC-001-002-----0
  6
CONTINUOUS
  5
11E
 10
617.127971
 20
577.194179
 30
0.0
 11
614.623327
 21
577.194179
 31
0.0
  0
LINE
  8
LC-001-002-----0
  6
CONTINUOUS
  5
11F
 10
639.493824
 20
587.628479
 30
0.0
 11
616.935564
 21
587.628479
 31
0.0
  0
LINE
  8
LC-001-002-----0
  6
CONTINUOUS
  5
120
 10
639.493824
 20
587.628479
 30
0.0
 11
615.12959
 21
585.496885
 31
0.0
  0
LINE
  8
LC-001-002-----0
  6
CONTINUOUS
  5
121
 10
639.493824
 20
585.11893
 30
0.0
 11
617.493824
 21
583.194179
 31
0.0
  0
LINE
  8
LC-001-002-----0
  6
CONTINUOUS
  5
122
 10
639.493824
 20
587.628479
 30
0.0
 11
639.493824
 21
569.61893
 31
0.0
  0
LINE
  8
LC-001-002-----0
  6
CONTINUOUS
  5
123
 10
628.493824
 20
584.156554
 30
0.0
 11
632.493195
 21
569.230701
 31
0.0
  0
ARC
  8
LC-002-002-RND-0
  6
CONTINUOUS
  5
124
 10
633.942083
 20
569.61893
 30
0.0
 40
1.5
 50
195.0
 51
270.0
  0
LINE
  8
LC-001-002-----0
  6
CONTINUOUS
  5
125
 10
637.993824
 20
568.11893
 30
0.0
 11
633.942083
 21
568.11893
 31
0.0
  0
ARC
  8
LC-002-002-RND-0
  6
CONTINUOUS
  5
126
 10
637.993824
 20
569.61893
 30
0.0
 40
1.5
 50
270.0
 51
0.0
  0
LINE
  8
LC-001-002-----0
  6
CONTINUOUS
  5
127
 10
610.493824
 20
577.194179
 30
0.0
 11
602.493824
 21
577.194179
 31
0.0
  0
LINE
  8
LC-001-002-----0
  6
CONTINUOUS
  5
128
 10
610.493824
 20
577.194179
 30
0.0
 11
608.60358
 21
546.194179
 31
0.0
  0
LINE
  8
LC-001-002-----0
  6
CONTINUOUS
  5
129
 10
603.493824
 20
577.194179
 30
0.0
 11
603.493824
 21
546.194179
 31
0.0
  0
LINE
  8
LC-001-002-----0
  6
CONTINUOUS
  5
12A
 10
602.493824
 20
577.194179
 30
0.0
 11
602.493824
 21
546.194179
 31
0.0
  0
LINE
  8
LC-001-002-----0
  6
CONTINUOUS
  5
12B
 10
608.60358
 20
546.194179
 30
0.0
 11
602.493824
 21
546.194179
 31
0.0
  0
LINE
  8
LC-001-002-----0
  6
CONTINUOUS
  5
12C
 10
593.493824
 20
577.194179
 30
0.0
 11
593.493824
 21
546.194179
 31
0.0
  0
LINE
  8
LC-001-002-----0
  6
CONTINUOUS
  5
12D
 10
593.493824
 20
546.194179
 30
0.0
 11
583.493824
 21
546.194179
 31
0.0
  0
LINE
  8
LC-001-002-----0
  6
CONTINUOUS
  5
12E
 10
584.993824
 20
577.194179
 30
0.0
 11
584.993824
 21
546.194179
 31
0.0
  0
LINE
  8
LC-001-002-----0
  6
CONTINUOUS
  5
12F
 10
583.493824
 20
577.194179
 30
0.0
 11
583.493824
 21
546.194179
 31
0.0
  0
LINE
  8
LC-001-002-----0
  6
CONTINUOUS
  5
130
 10
593.493824
 20
577.194179
 30
0.0
 11
583.493824
 21
577.194179
 31
0.0
  0
LINE
  8
LC-001-002-----0
  6
CONTINUOUS
  5
131
 10
573.493824
 20
577.194179
 30
0.0
 11
573.493824
 21
546.194179
 31
0.0
  0
LINE
  8
LC-001-002-----0
  6
CONTINUOUS
  5
132
 10
573.493824
 20
577.194179
 30
0.0
 11
565.765594
 21
577.194179
 31
0.0
  0
LINE
  8
LC-001-002-----0
  6
CONTINUOUS
  5
133
 10
563.493824
 20
576.854661
 30
0.0
 11
563.493824
 21
546.194179
 31
0.0
  0
LINE
  8
LC-001-002-----0
  6
CONTINUOUS
  5
134
 10
561.493824
 20
576.555759
 30
0.0
 11
561.493824
 21
546.194179
 31
0.0
  0
LINE
  8
LC-001-002-----0
  6
CONTINUOUS
  5
135
 10
573.493824
 20
546.194179
 30
0.0
 11
561.493824
 21
546.194179
 31
0.0
  0
LINE
  8
LC-001-002-----0
  6
CONTINUOUS
  5
136
 10
549.493824
 20
546.194179
 30
0.0
 11
542.493824
 21
546.194179
 31
0.0
  0
LINE
  8
LC-001-002-----0
  6
CONTINUOUS
  5
137
 10
549.493824
 20
577.194179
 30
0.0
 11
549.493824
 21
546.194179
 31
0.0
  0
LINE
  8
LC-001-002-----0
  6
CONTINUOUS
  5
138
 10
549.493824
 20
577.194179
 30
0.0
 11
542.493824
 21
577.194179
 31
0.0
  0
LINE
  8
LC-001-002-----0
  6
CONTINUOUS
  5
139
 10
612.498459
 20
542.128479
 30
0.0
 11
612.498459
 21
542.203457
 31
0.0
  0
LINE
  8
LC-001-002-----0
  6
CONTINUOUS
  5
13A
 10
608.818502
 20
587.628479
 30
0.0
 11
542.493824
 21
587.628479
 31
0.0
  0
ARC
  8
LC-001-002-----0
  6
CONTINUOUS
  5
13B
 10
555.017795
 20
577.58791
 30
0.0
 40
2.0
 50
90.0
 51
287.0
  0
ARC
  8
LC-001-002-----0
  6
CONTINUOUS
  5
13C
 10
555.017795
 20
577.58791
 30
0.0
 40
4.0
 50
38.137308
 51
338.862692
  0
ARC
  8
LC-001-002-----0
  6
CONTINUOUS
  5
13D
 10
555.017795
 20
577.58791
 30
0.0
 40
4.5
 50
34.575977
 51
342.424023
  0
LINE
  8
LC-001-002-----0
  6
CONTINUOUS
  5
13E
 10
555.017795
 20
575.58791
 30
0.0
 11
613.68383
 21
584.355607
 31
0.0
  0
LINE
  8
LC-001-002-----0
  6
CONTINUOUS
  5
13F
 10
474.921847
 20
543.526897
 30
0.0
 11
610.065801
 21
543.526897
 31
0.0
  0
LINE
  8
LC-001-002-----0
  6
CONTINUOUS
  5
140
 10
614.210937
 20
587.44549
 30
0.0
 11
616.683477
 21
587.815014
 31
0.0
  0
LINE
  8
LC-001-002-----0
  6
CONTINUOUS
  5
141
 10
614.506556
 20
585.467458
 30
0.0
 11
616.979096
 21
585.836982
 31
0.0
  0
LINE
  8
LC-001-002-----0
  6
CONTINUOUS
  5
142
 10
614.210937
 20
587.44549
 30
0.0
 11
613.099086
 21
588.268217
 31
0.0
  0
LINE
  8
LC-001-002-----0
  6
CONTINUOUS
  5
143
 10
614.506556
 20
585.467458
 30
0.0
 11
613.68383
 21
584.355607
 31
0.0
  0
LINE
  8
LC-001-002-----0
  6
CONTINUOUS
  5
144
 10
607.088937
 20
584.358888
 30
0.0
 11
606.793318
 21
586.33692
 31
0.0
  0
LINE
  8
LC-001-002-----0
  6
CONTINUOUS
  5
145
 10
606.793318
 20
586.33692
 30
0.0
 11
607.616045
 21
587.448771
 31
0.0
  0
LINE
  8
LC-001-002-----0
  6
CONTINUOUS
  5
146
 10
607.088937
 20
584.358888
 30
0.0
 11
608.200788
 21
583.536161
 31
0.0
  0
LINE
  8
LC-001-002-----0
  6
CONTINUOUS
  5
147
 10
616.683477
 20
587.815014
 30
0.0
 11
617.820302
 21
586.973807
 31
0.0
  0
LINE
  8
LC-001-002-----0
  6
CONTINUOUS
  5
148
 10
616.979096
 20
585.836982
 30
0.0
 11
617.820302
 21
586.973807
 31
0.0
  0
LINE
  8
LC-001-002-----0
  6
DASHDOT
 62
     2
  5
14A
 10
542.493824
 20
587.628479
 30
0.0
 11
542.493824
 21
527.628479
 31
0.0
  0
LINE
  8
LC-001-002-----0
  6
CONTINUOUS
  5
14B
 10
555.017795
 20
579.58791
 30
0.0
 11
613.099086
 21
588.268217
 31
0.0
  0
LINE
  8
LC-001-002-----0
  6
DASHDOT
 62
     2
  5
14C
 10
445.493824
 20
361.2
 30
0.0
 11
639.493824
 21
361.2
 31
0.0
  0
CIRCLE
  8
LC-001-002-----0
  6
CONTINUOUS
  5
14D
 10
542.493824
 20
361.2
 30
0.0
 40
72.635766
  0
CIRCLE
  8
LC-001-002-----0
  6
CONTINUOUS
  5
14E
 10
542.493824
 20
361.2
 30
0.0
 40
97.0
  0
LINE
  8
LC-001-002-----0
  6
DASHDOT
 62
     2
  5
14F
 10
542.493824
 20
458.2
 30
0.0
 11
542.493824
 21
264.2
 31
0.0
  0
CIRCLE
  8
LC-001-002-----0
  6
DASHDOT
 62
     2
  5
150
 10
542.493824
 20
361.2
 30
0.0
 40
15.0
  0
CIRCLE
  8
LC-001-002-----0
  6
CONTINUOUS
  5
151
 10
527.493824
 20
361.2
 30
0.0
 40
2.0
  0
CIRCLE
  8
LC-001-002-----0
  6
CONTINUOUS
  5
152
 10
557.493824
 20
361.2
 30
0.0
 40
2.0
  0
CIRCLE
  8
LC-001-002-----0
  6
CONTINUOUS
  5
153
 10
542.493824
 20
346.2
 30
0.0
 40
2.0
  0
CIRCLE
  8
LC-001-002-----0
  6
CONTINUOUS
  5
154
 10
542.493824
 20
376.2
 30
0.0
 40
2.0
  0
CIRCLE
  8
LC-001-002-----0
  6
CONTINUOUS
  5
155
 10
531.887223
 20
371.806602
 30
0.0
 40
2.0
  0
CIRCLE
  8
LC-001-002-----0
  6
CONTINUOUS
  5
156
 10
531.887223
 20
350.593398
 30
0.0
 40
2.0
  0
CIRCLE
  8
LC-001-002-----0
  6
CONTINUOUS
  5
157
 10
553.100426
 20
350.593398
 30
0.0
 40
2.0
  0
CIRCLE
  8
LC-001-002-----0
  6
CONTINUOUS
  5
158
 10
553.100426
 20
371.806602
 30
0.0
 40
2.0
  0
CIRCLE
  8
LC-001-002-----0
  6
CONTINUOUS
  5
159
 10
542.493824
 20
361.2
 30
0.0
 40
67.571977
  0
CIRCLE
  8
LC-001-002-----0
  6
CONTINUOUS
  5
15A
 10
542.493824
 20
361.2
 30
0.0
 40
70.239259
  0
ENDSEC
  0
EOF
