  0
SECTION
  2
HEADER
  9
$ACADVER
  1
AC1015
  9
$ACADMAINTVER
 70
     6
  9
$DWGCODEPAGE
  3
DOS850
  9
$INSBASE
 10
0.0
 20
0.0
 30
0.0
  9
$EXTMIN
 10
-405.532291
 20
-235.160896
 30
0.0
  9
$EXTMAX
 10
434.467709
 20
358.839104
 30
0.0
  9
$LIMMIN
 10
-405.532291
 20
-235.160896
  9
$LIMMAX
 10
434.467709
 20
358.839104
  9
$ORTHOMODE
 70
     0
  9
$REGENMODE
 70
     1
  9
$FILLMODE
 70
     1
  9
$QTEXTMODE
 70
     0
  9
$MIRRTEXT
 70
     1
  9
$LTSCALE
 40
2.0
  9
$ATTMODE
 70
     1
  9
$TEXTSIZE
 40
2.5
  9
$TRACEWID
 40
1.0
  9
$TEXTSTYLE
  7
Standard
  9
$CLAYER
  8
0
  9
$CELTYPE
  6
ByLayer
  9
$CECOLOR
 62
     7
  9
$CELTSCALE
 40
1.0
  9
$DISPSILH
 70
     0
  9
$DIMSCALE
 40
2.0
  9
$DIMASZ
 40
3.5
  9
$DIMEXO
 40
0.625
  9
$DIMDLI
 40
3.75
  9
$DIMRND
 40
0.0
  9
$DIMDLE
 40
0.0
  9
$DIMEXE
 40
1.25
  9
$DIMTP
 40
0.0
  9
$DIMTM
 40
0.0
  9
$DIMTXT
 40
3.5
  9
$DIMCEN
 40
2.5
  9
$DIMTSZ
 40
0.0
  9
$DIMTOL
 70
     0
  9
$DIMLIM
 70
     0
  9
$DIMTIH
 70
     0
  9
$DIMTOH
 70
     0
  9
$DIMSE1
 70
     0
  9
$DIMSE2
 70
     0
  9
$DIMTAD
 70
     1
  9
$DIMZIN
 70
     8
  9
$DIMBLK
  1

  9
$DIMASO
 70
     1
  9
$DIMSHO
 70
     1
  9
$DIMPOST
  1

  9
$DIMAPOST
  1

  9
$DIMALT
 70
     0
  9
$DIMALTD
 70
     3
  9
$DIMALTF
 40
0.03937
  9
$DIMLFAC
 40
1.0
  9
$DIMTOFL
 70
     1
  9
$DIMTVP
 40
0.0
  9
$DIMTIX
 70
     0
  9
$DIMSOXD
 70
     0
  9
$DIMSAH
 70
     0
  9
$DIMBLK1
  1

  9
$DIMBLK2
  1

  9
$DIMSTYLE
  2
ISO-25
  9
$DIMCLRD
 70
     0
  9
$DIMCLRE
 70
     0
  9
$DIMCLRT
 70
     0
  9
$DIMTFAC
 40
1.0
  9
$DIMGAP
 40
0.625
  9
$DIMJUST
 70
     0
  9
$DIMSD1
 70
     0
  9
$DIMSD2
 70
     0
  9
$DIMTOLJ
 70
     0
  9
$DIMTZIN
 70
     8
  9
$DIMALTZ
 70
     0
  9
$DIMALTTZ
 70
     0
  9
$DIMUPT
 70
     0
  9
$DIMDEC
 70
     2
  9
$DIMTDEC
 70
     2
  9
$DIMALTU
 70
     2
  9
$DIMALTTD
 70
     3
  9
$DIMTXSTY
  7
Standard
  9
$DIMAUNIT
 70
     0
  9
$DIMADEC
 70
     0
  9
$DIMALTRND
 40
0.0
  9
$DIMAZIN
 70
     0
  9
$DIMDSEP
 70
    44
  9
$DIMATFIT
 70
     3
  9
$DIMFRAC
 70
     0
  9
$DIMLDRBLK
  1

  9
$DIMLUNIT
 70
     2
  9
$DIMLWD
 70
    -2
  9
$DIMLWE
 70
    -2
  9
$DIMTMOVE
 70
     0
  9
$LUNITS
 70
     2
  9
$LUPREC
 70
     4
  9
$SKETCHINC
 40
1.0
  9
$FILLETRAD
 40
10.0
  9
$AUNITS
 70
     0
  9
$AUPREC
 70
     0
  9
$MENU
  1
.
  9
$ELEVATION
 40
0.0
  9
$PELEVATION
 40
0.0
  9
$THICKNESS
 40
0.0
  9
$LIMCHECK
 70
     0
  9
$CHAMFERA
 40
10.0
  9
$CHAMFERB
 40
10.0
  9
$CHAMFERC
 40
20.0
  9
$CHAMFERD
 40
0.0
  9
$SKPOLY
 70
     0
  9
$TDCREATE
 40
2453663.410095185
  9
$TDUCREATE
 40
2453663.326761852
  9
$TDUPDATE
 40
2453663.410095197
  9
$TDUUPDATE
 40
2453663.326761863
  9
$TDINDWG
 40
0.0000000116
  9
$TDUSRTIMER
 40
0.0000000116
  9
$USRTIMER
 70
     1
  9
$ANGBASE
 50
0.0
  9
$ANGDIR
 70
     0
  9
$PDMODE
 70
     0
  9
$PDSIZE
 40
0.0
  9
$PLINEWID
 40
0.0
  9
$SPLFRAME
 70
     0
  9
$SPLINETYPE
 70
     6
  9
$SPLINESEGS
 70
     8
  9
$HANDSEED
  5
1CD
  9
$SURFTAB1
 70
     6
  9
$SURFTAB2
 70
     6
  9
$SURFTYPE
 70
     6
  9
$SURFU
 70
     6
  9
$SURFV
 70
     6
  9
$UCSBASE
  2

  9
$UCSNAME
  2

  9
$UCSORG
 10
0.0
 20
0.0
 30
0.0
  9
$UCSXDIR
 10
1.0
 20
0.0
 30
0.0
  9
$UCSYDIR
 10
0.0
 20
1.0
 30
0.0
  9
$UCSORTHOREF
  2

  9
$UCSORTHOVIEW
 70
     0
  9
$UCSORGTOP
 10
0.0
 20
0.0
 30
0.0
  9
$UCSORGBOTTOM
 10
0.0
 20
0.0
 30
0.0
  9
$UCSORGLEFT
 10
0.0
 20
0.0
 30
0.0
  9
$UCSORGRIGHT
 10
0.0
 20
0.0
 30
0.0
  9
$UCSORGFRONT
 10
0.0
 20
0.0
 30
0.0
  9
$UCSORGBACK
 10
0.0
 20
0.0
 30
0.0
  9
$PUCSBASE
  2

  9
$PUCSNAME
  2

  9
$PUCSORG
 10
0.0
 20
0.0
 30
0.0
  9
$PUCSXDIR
 10
1.0
 20
0.0
 30
0.0
  9
$PUCSYDIR
 10
0.0
 20
1.0
 30
0.0
  9
$PUCSORTHOREF
  2

  9
$PUCSORTHOVIEW
 70
     0
  9
$PUCSORGTOP
 10
0.0
 20
0.0
 30
0.0
  9
$PUCSORGBOTTOM
 10
0.0
 20
0.0
 30
0.0
  9
$PUCSORGLEFT
 10
0.0
 20
0.0
 30
0.0
  9
$PUCSORGRIGHT
 10
0.0
 20
0.0
 30
0.0
  9
$PUCSORGFRONT
 10
0.0
 20
0.0
 30
0.0
  9
$PUCSORGBACK
 10
0.0
 20
0.0
 30
0.0
  9
$USERI1
 70
     0
  9
$USERI2
 70
     0
  9
$USERI3
 70
     0
  9
$USERI4
 70
     0
  9
$USERI5
 70
     0
  9
$USERR1
 40
0.0
  9
$USERR2
 40
0.0
  9
$USERR3
 40
0.0
  9
$USERR4
 40
0.0
  9
$USERR5
 40
0.0
  9
$WORLDVIEW
 70
     1
  9
$SHADEDGE
 70
     3
  9
$SHADEDIF
 70
    70
  9
$TILEMODE
 70
     1
  9
$MAXACTVP
 70
    64
  9
$PINSBASE
 10
0.0
 20
0.0
 30
0.0
  9
$PLIMCHECK
 70
     0
  9
$PEXTMIN
 10
-405.532291
 20
-235.160896
 30
0.0
  9
$PEXTMAX
 10
434.467709
 20
358.839104
 30
0.0
  9
$PLIMMIN
 10
-405.532291
 20
-235.160896
  9
$PLIMMAX
 10
434.467709
 20
358.839104
  9
$UNITMODE
 70
     0
  9
$VISRETAIN
 70
     1
  9
$PLINEGEN
 70
     0
  9
$PSLTSCALE
 70
     1
  9
$TREEDEPTH
 70
  3020
  9
$CMLSTYLE
  2
Standard
  9
$CMLJUST
 70
     0
  9
$CMLSCALE
 40
20.0
  9
$PROXYGRAPHICS
 70
     1
  9
$MEASUREMENT
 70
     1
  9
$CELWEIGHT
370
    -1
  9
$ENDCAPS
280
     0
  9
$JOINSTYLE
280
     0
  9
$LWDISPLAY
290
     0
  9
$INSUNITS
 70
     4
  9
$HYPERLINKBASE
  1

  9
$STYLESHEET
  1

  9
$XEDIT
290
     1
  9
$CEPSNTYPE
380
     0
  9
$PSTYLEMODE
290
     1
  9
$FINGERPRINTGUID
  2
{FAEB1C30-E019-11D5-929B-00C0DF256EC4}
  9
$VERSIONGUID
  2
{FAEB1C32-E019-11D5-929B-00C0DF256EC4}
  9
$EXTNAMES
290
     1
  9
$PSVPSCALE
 40
0.0
  9
$OLESTARTUP
290
     0
  0
ENDSEC
  0
SECTION
  2
CLASSES
  0
CLASS
  1
ACDBDICTIONARYWDFLT
  2
AcDbDictionaryWithDefault
  3
ObjectDBX Classes
 90
        0
280
     0
281
     0
  0
CLASS
  1
ACDBPLACEHOLDER
  2
AcDbPlaceHolder
  3
ObjectDBX Classes
 90
        0
280
     0
281
     0
  0
CLASS
  1
LAYOUT
  2
AcDbLayout
  3
ObjectDBX Classes
 90
        0
280
     0
281
     0
  0
ENDSEC
  0
SECTION
  2
TABLES
  0
TABLE
  2
VPORT
  5
8
330
0
100
AcDbSymbolTable
 70
     2
  0
VPORT
  5
29
330
8
100
AcDbSymbolTableRecord
100
AcDbViewportTableRecord
  2
*ACTIVE
 70
     0
 10
0.0
 20
0.0
 11
1.0
 21
1.0
 12
14.467709
 22
61.839104
 13
0.0
 23
0.0
 14
1.0
 24
1.0
 15
0.0
 25
0.0
 16
0.0
 26
0.0
 36
1.0
 17
0.0
 27
0.0
 37
0.0
 40
594.0
 41
1.414141
 42
50.0
 43
0.0
 44
0.0
 50
0.0
 51
0.0
 71
    16
 72
   100
 73
     1
 74
     0
 75
     0
 76
     0
 77
     0
 78
     0
281
     0
 65
     0
110
0.0
120
0.0
130
0.0
111
1.0
121
0.0
131
0.0
112
0.0
122
1.0
132
0.0
 79
     0
146
0.0
  0
ENDTAB
  0
TABLE
  2
LTYPE
  5
5
330
0
100
AcDbSymbolTable
 70
     4
  0
LTYPE
  5
14
330
5
100
AcDbSymbolTableRecord
100
AcDbLinetypeTableRecord
  2
ByBlock
 70
     0
  3

 72
    65
 73
     0
 40
0.0
  0
LTYPE
  5
15
330
5
100
AcDbSymbolTableRecord
100
AcDbLinetypeTableRecord
  2
ByLayer
 70
     0
  3

 72
    65
 73
     0
 40
0.0
  0
LTYPE
  5
16
330
5
100
AcDbSymbolTableRecord
100
AcDbLinetypeTableRecord
  2
Continuous
 70
     0
  3
Solid line
 72
    65
 73
     0
 40
0.0
  0
LTYPE
  5
2A
330
5
100
AcDbSymbolTableRecord
100
AcDbLinetypeTableRecord
  2
DASHED
 70
     0
  3
__ __ __ __ __
 72
    65
 73
     2
 40
6.25
 49
5.0
 74
     4
 75
     0
340
0
 46
1.0
 50
0.0
 44
0.0
 45
0.0
 49
-1.25
 74
     4
 75
     0
340
0
 46
1.0
 50
0.0
 44
0.0
 45
0.0
  0
LTYPE
  5
B3
330
5
100
AcDbSymbolTableRecord
100
AcDbLinetypeTableRecord
  2
DASHDOT
 70
     0
  3
__ . __ . __ . __ . __
 72
    65
 73
     4
 40
7.5
 49
5.0
 74
     4
 75
     0
340
0
 46
1.0
 50
0.0
 44
0.0
 45
0.0
 49
-1.25
 74
     4
 75
     0
340
0
 46
1.0
 50
0.0
 44
0.0
 45
0.0
 49
0.0
 74
     4
 75
     0
340
0
 46
1.0
 50
0.0
 44
0.0
 45
0.0
 49
-1.25
 74
     4
 75
     0
340
0
 46
1.0
 50
0.0
 44
0.0
 45
0.0
  0
LTYPE
  5
16E
330
5
100
AcDbSymbolTableRecord
100
AcDbLinetypeTableRecord
  2
DIVIDE
 70
     0
  3
__ . . __ . . __ . . __
 72
    65
 73
     6
 40
8.75
 49
5.0
 74
     4
 75
     0
340
0
 46
1.0
 50
0.0
 44
0.0
 45
0.0
 49
-1.25
 74
     4
 75
     0
340
0
 46
1.0
 50
0.0
 44
0.0
 45
0.0
 49
0.0
 74
     4
 75
     0
340
0
 46
1.0
 50
0.0
 44
0.0
 45
0.0
 49
-1.25
 74
     4
 75
     0
340
0
 46
1.0
 50
0.0
 44
0.0
 45
0.0
 49
0.0
 74
     4
 75
     0
340
0
 46
1.0
 50
0.0
 44
0.0
 45
0.0
 49
-1.25
 74
     4
 75
     0
340
0
 46
1.0
 50
0.0
 44
0.0
 45
0.0
  0
ENDTAB
  0
TABLE
  2
LAYER
  5
2
330
0
100
AcDbSymbolTable
 70
     8
  0
LAYER
  5
10
330
2
100
AcDbSymbolTableRecord
100
AcDbLayerTableRecord
  2
0
 70
     0
 62
     7
  6
Continuous
370
    -3
390
F
  0
LAYER
  5
2B
330
2
100
AcDbSymbolTableRecord
100
AcDbLayerTableRecord
  2
LC-INFO-1-2-mm-A3-0
 70
     1
 62
     7
  6
ByBlock
370
    -3
390
F
  0
LAYER
  5
2C
330
2
100
AcDbSymbolTableRecord
100
AcDbLayerTableRecord
  2
LC-CUT-HIDDEN
 70
     0
 62
     7
  6
DASHED
370
    -3
390
F
  0
LAYER
  5
2D
330
2
100
AcDbSymbolTableRecord
100
AcDbLayerTableRecord
  2
LC-VIEWPORT
 70
     0
 62
     7
  6
ByBlock
370
    -3
390
F
  0
LAYER
  5
2E
330
2
100
AcDbSymbolTableRecord
100
AcDbLayerTableRecord
  2
LC-3D-HIDDEN
 70
     0
 62
     9
  6
DASHED
370
    -3
390
F
  0
LAYER
  5
32
330
2
100
AcDbSymbolTableRecord
100
AcDbLayerTableRecord
  2
LC-001-101-D00-0
 70
     0
 62
     2
  6
ByBlock
370
    -3
390
F
  0
LAYER
  5
34
330
2
100
AcDbSymbolTableRecord
100
AcDbLayerTableRecord
  2
Defpoints
 70
     0
 62
     7
  6
Continuous
290
     0
370
    -3
390
F
  0
LAYER
  5
82
330
2
100
AcDbSymbolTableRecord
100
AcDbLayerTableRecord
  2
LC-002-100-D00-0
 70
     0
 62
    44
  6
ByBlock
370
    -3
390
F
  0
ENDTAB
  0
TABLE
  2
STYLE
  5
3
330
0
100
AcDbSymbolTable
 70
     3
  0
STYLE
  5
11
330
3
100
AcDbSymbolTableRecord
100
AcDbTextStyleTableRecord
  2
Standard
 70
     0
 40
0.0
 41
1.0
 50
0.0
 71
     0
 42
2.5
  3
txt
  4

  0
STYLE
  5
2F
330
3
100
AcDbSymbolTableRecord
100
AcDbTextStyleTableRecord
  2
LCTX15-400-0-0-Arial
 70
     0
 40
0.0
 41
0.9
 50
0.0
 71
     0
 42
3.5
  3

  4

1001
ACAD
1000
Arial
1071
 16777218
  0
STYLE
  5
30
330
3
100
AcDbSymbolTableRecord
100
AcDbTextStyleTableRecord
  2
LCTX15-400-0-0pDIN-Schrift
 70
     0
 40
2.5
 41
0.8
 50
15.0
 71
     0
 42
3.5
  3
STANDARD
  4

  0
ENDTAB
  0
TABLE
  2
VIEW
  5
6
330
0
100
AcDbSymbolTable
 70
     0
  0
ENDTAB
  0
TABLE
  2
UCS
  5
7
330
0
100
AcDbSymbolTable
 70
     0
  0
ENDTAB
  0
TABLE
  2
APPID
  5
9
330
0
100
AcDbSymbolTable
 70
     1
  0
APPID
  5
12
330
9
100
AcDbSymbolTableRecord
100
AcDbRegAppTableRecord
  2
ACAD
 70
     0
  0
ENDTAB
  0
TABLE
  2
DIMSTYLE
  5
A
330
0
100
AcDbSymbolTable
 70
     2
100
AcDbDimStyleTable
  0
DIMSTYLE
105
27
330
A
100
AcDbSymbolTableRecord
100
AcDbDimStyleTableRecord
  2
ISO-25
 70
     0
 41
2.5
 42
0.625
 43
3.75
 44
1.25
 73
     0
 74
     0
 77
     1
 78
     8
140
2.5
141
2.5
143
0.03937
147
0.625
171
     3
172
     1
271
     2
272
     2
274
     3
278
    44
283
     0
284
     8
340
11
  0
DIMSTYLE
105
31
102
{ACAD_REACTORS
330
33
330
41
330
4E
330
5B
330
68
102
}
330
A
100
AcDbSymbolTableRecord
100
AcDbDimStyleTableRecord
  2
LC-DIM-L-0140-02-02
 70
     0
 40
2.0
 41
14.0
 42
0.0
 43
7.5
 44
1.8
 73
     0
 74
     0
 77
     1
 78
     8
 79
     2
140
14.0
141
0.0
146
0.71
147
1.5
176
     2
177
     2
178
     2
179
     2
271
     2
278
    44
289
     1
340
30
  0
ENDTAB
  0
TABLE
  2
BLOCK_RECORD
  5
1
330
0
100
AcDbSymbolTable
 70
    13
  0
BLOCK_RECORD
  5
1F
330
1
100
AcDbSymbolTableRecord
100
AcDbBlockTableRecord
  2
*Model_Space
340
22
  0
BLOCK_RECORD
  5
1B
330
1
100
AcDbSymbolTableRecord
100
AcDbBlockTableRecord
  2
*Paper_Space
340
1E
  0
BLOCK_RECORD
  5
23
330
1
100
AcDbSymbolTableRecord
100
AcDbBlockTableRecord
  2
*Paper_Space0
340
26
  0
BLOCK_RECORD
  5
35
330
1
100
AcDbSymbolTableRecord
100
AcDbBlockTableRecord
  2
*D1
340
0
  0
BLOCK_RECORD
  5
42
330
1
100
AcDbSymbolTableRecord
100
AcDbBlockTableRecord
  2
*D2
340
0
  0
BLOCK_RECORD
  5
4F
330
1
100
AcDbSymbolTableRecord
100
AcDbBlockTableRecord
  2
*D3
340
0
  0
BLOCK_RECORD
  5
5C
330
1
100
AcDbSymbolTableRecord
100
AcDbBlockTableRecord
  2
*D4
340
0
  0
BLOCK_RECORD
  5
69
330
1
100
AcDbSymbolTableRecord
100
AcDbBlockTableRecord
  2
*D5
340
0
  0
BLOCK_RECORD
  5
75
330
1
100
AcDbSymbolTableRecord
100
AcDbBlockTableRecord
  2
KLON1
340
0
102
{BLKREFS
331
78
102
}
  0
BLOCK_RECORD
  5
79
330
1
100
AcDbSymbolTableRecord
100
AcDbBlockTableRecord
  2
KLON2
340
0
102
{BLKREFS
331
172
102
}
  0
BLOCK_RECORD
  5
173
330
1
100
AcDbSymbolTableRecord
100
AcDbBlockTableRecord
  2
KLON3
340
0
102
{BLKREFS
331
1C4
102
}
  0
BLOCK_RECORD
  5
176
330
1
100
AcDbSymbolTableRecord
100
AcDbBlockTableRecord
  2
KLON4
340
0
102
{BLKREFS
331
19B
102
}
  0
BLOCK_RECORD
  5
19C
330
1
100
AcDbSymbolTableRecord
100
AcDbBlockTableRecord
  2
KLON5
340
0
102
{BLKREFS
331
1C1
102
}
  0
BLOCK_RECORD
  5
1C5
330
1
100
AcDbSymbolTableRecord
100
AcDbBlockTableRecord
  2
KLON6
340
0
102
{BLKREFS
331
1CC
102
}
  0
BLOCK_RECORD
  5
1C8
330
1
100
AcDbSymbolTableRecord
100
AcDbBlockTableRecord
  2
KLON7
340
0
102
{BLKREFS
331
1CB
102
}
  0
ENDTAB
  0
ENDSEC
  0
SECTION
  2
BLOCKS
  0
BLOCK
  5
20
330
1F
100
AcDbEntity
  8
0
100
AcDbBlockBegin
  2
*Model_Space
 70
     0
 71
     0
 10
0.0
 20
0.0
 30
0.0
  3
*Model_Space
  1

  0
ENDBLK
  5
21
330
1F
100
AcDbEntity
  8
0
100
AcDbBlockEnd
  0
BLOCK
  5
1C
330
1B
100
AcDbEntity
 67
     1
  8
0
100
AcDbBlockBegin
  2
*Paper_Space
 70
     0
 71
     0
 10
0.0
 20
0.0
 30
0.0
  3
*Paper_Space
  1

  0
ENDBLK
  5
1D
330
1B
100
AcDbEntity
 67
     1
  8
0
100
AcDbBlockEnd
  0
BLOCK
  5
24
330
23
100
AcDbEntity
  8
0
100
AcDbBlockBegin
  2
*Paper_Space0
 70
     0
 71
     0
 10
0.0
 20
0.0
 30
0.0
  3
*Paper_Space0
  1

  0
ENDBLK
  5
25
330
23
100
AcDbEntity
  8
0
100
AcDbBlockEnd
  0
BLOCK
  5
3F
330
35
100
AcDbEntity
  8
0
100
AcDbBlockBegin
  2
*D1
 70
     1
 71
     0
 10
0.0
 20
0.0
 30
0.0
  3
*D1
  1

  0
LINE
  5
36
330
35
100
AcDbEntity
  8
LC-001-101-D00-0
 62
     2
370
    -2
100
AcDbLine
 10
105.897095
 20
103.998599
 30
0.0
 11
193.380291
 21
103.998599
 31
0.0
  0
LINE
  5
37
330
35
100
AcDbEntity
  8
LC-001-101-D00-0
 62
     2
370
    -2
100
AcDbLine
 10
93.5
 20
0.0
 30
0.0
 11
193.380291
 21
0.0
 31
0.0
  0
LINE
  5
38
330
35
100
AcDbEntity
  8
LC-001-101-D00-0
 62
     2
370
    -2
100
AcDbLine
 10
189.780291
 20
75.998599
 30
0.0
 11
189.780291
 21
28.0
 31
0.0
  0
SOLID
  5
39
330
35
100
AcDbEntity
  8
LC-001-101-D00-0
 62
     2
100
AcDbTrace
 10
194.446958
 20
75.998599
 30
0.0
 11
185.113625
 21
75.998599
 31
0.0
 12
189.780291
 22
103.998599
 32
0.0
 13
189.780291
 23
103.998599
 33
0.0
  0
SOLID
  5
3A
330
35
100
AcDbEntity
  8
LC-001-101-D00-0
 62
     2
100
AcDbTrace
 10
185.113625
 20
28.0
 30
0.0
 11
194.446958
 21
28.0
 31
0.0
 12
189.780291
 22
0.0
 32
0.0
 13
189.780291
 23
0.0
 33
0.0
  0
MTEXT
  5
3B
330
35
100
AcDbEntity
  8
LC-001-101-D00-0
 62
     2
100
AcDbMText
 10
158.980291
 20
54.117104
 30
0.0
 40
28.0
 41
0.0
 71
     5
 72
     1
  1
\A1;104
  7
LCTX15-400-0-0pDIN-Schrift
 11
6.123031769111886E-17
 21
1.0
 31
0.0
 73
     1
 44
1.0
  0
POINT
  5
3C
330
35
100
AcDbEntity
  8
Defpoints
 62
     0
100
AcDbPoint
 10
105.897095
 20
103.998599
 30
0.0
  0
POINT
  5
3D
330
35
100
AcDbEntity
  8
Defpoints
 62
     0
100
AcDbPoint
 10
93.5
 20
0.0
 30
0.0
  0
POINT
  5
3E
330
35
100
AcDbEntity
  8
Defpoints
 62
     0
100
AcDbPoint
 10
189.780291
 20
0.0
 30
0.0
  0
ENDBLK
  5
40
330
35
100
AcDbEntity
  8
0
100
AcDbBlockEnd
  0
BLOCK
  5
4C
330
42
100
AcDbEntity
  8
0
100
AcDbBlockBegin
  2
*D2
 70
     1
 71
     0
 10
0.0
 20
0.0
 30
0.0
  3
*D2
  1

  0
LINE
  5
43
330
42
100
AcDbEntity
  8
LC-001-101-D00-0
 62
     2
370
    -2
100
AcDbLine
 10
102.753
 20
124.998599
 30
0.0
 11
242.125741
 21
124.998599
 31
0.0
  0
LINE
  5
44
330
42
100
AcDbEntity
  8
LC-001-101-D00-0
 62
     2
370
    -2
100
AcDbLine
 10
93.5
 20
0.0
 30
0.0
 11
242.125741
 21
0.0
 31
0.0
  0
LINE
  5
45
330
42
100
AcDbEntity
  8
LC-001-101-D00-0
 62
     2
370
    -2
100
AcDbLine
 10
238.525741
 20
96.998599
 30
0.0
 11
238.525741
 21
28.0
 31
0.0
  0
SOLID
  5
46
330
42
100
AcDbEntity
  8
LC-001-101-D00-0
 62
     2
100
AcDbTrace
 10
243.192408
 20
96.998599
 30
0.0
 11
233.859074
 21
96.998599
 31
0.0
 12
238.525741
 22
124.998599
 32
0.0
 13
238.525741
 23
124.998599
 33
0.0
  0
SOLID
  5
47
330
42
100
AcDbEntity
  8
LC-001-101-D00-0
 62
     2
100
AcDbTrace
 10
233.859074
 20
28.0
 30
0.0
 11
243.192408
 21
28.0
 31
0.0
 12
238.525741
 22
0.0
 32
0.0
 13
238.525741
 23
0.0
 33
0.0
  0
MTEXT
  5
48
330
42
100
AcDbEntity
  8
LC-001-101-D00-0
 62
     2
100
AcDbMText
 10
207.725741
 20
55.305104
 30
0.0
 40
28.0
 41
0.0
 71
     5
 72
     1
  1
\A1;125
  7
LCTX15-400-0-0pDIN-Schrift
 11
6.123031769111886E-17
 21
1.0
 31
0.0
 73
     1
 44
1.0
  0
POINT
  5
49
330
42
100
AcDbEntity
  8
Defpoints
 62
     0
100
AcDbPoint
 10
102.753
 20
124.998599
 30
0.0
  0
POINT
  5
4A
330
42
100
AcDbEntity
  8
Defpoints
 62
     0
100
AcDbPoint
 10
93.5
 20
0.0
 30
0.0
  0
POINT
  5
4B
330
42
100
AcDbEntity
  8
Defpoints
 62
     0
100
AcDbPoint
 10
238.525741
 20
0.0
 30
0.0
  0
ENDBLK
  5
4D
330
42
100
AcDbEntity
  8
0
100
AcDbBlockEnd
  0
BLOCK
  5
59
330
4F
100
AcDbEntity
  8
0
100
AcDbBlockBegin
  2
*D3
 70
     1
 71
     0
 10
0.0
 20
0.0
 30
0.0
  3
*D3
  1

  0
LINE
  5
50
330
4F
100
AcDbEntity
  8
LC-001-101-D00-0
 62
     2
370
    -2
100
AcDbLine
 10
99.5
 20
99.998599
 30
0.0
 11
147.200392
 21
99.998599
 31
0.0
  0
LINE
  5
51
330
4F
100
AcDbEntity
  8
LC-001-101-D00-0
 62
     2
370
    -2
100
AcDbLine
 10
93.5
 20
0.0
 30
0.0
 11
147.200392
 21
0.0
 31
0.0
  0
LINE
  5
52
330
4F
100
AcDbEntity
  8
LC-001-101-D00-0
 62
     2
370
    -2
100
AcDbLine
 10
143.600392
 20
71.998599
 30
0.0
 11
143.600392
 21
28.0
 31
0.0
  0
SOLID
  5
53
330
4F
100
AcDbEntity
  8
LC-001-101-D00-0
 62
     2
100
AcDbTrace
 10
148.267058
 20
71.998599
 30
0.0
 11
138.933725
 21
71.998599
 31
0.0
 12
143.600392
 22
99.998599
 32
0.0
 13
143.600392
 23
99.998599
 33
0.0
  0
SOLID
  5
54
330
4F
100
AcDbEntity
  8
LC-001-101-D00-0
 62
     2
100
AcDbTrace
 10
138.933725
 20
28.0
 30
0.0
 11
148.267058
 21
28.0
 31
0.0
 12
143.600392
 22
0.0
 32
0.0
 13
143.600392
 23
0.0
 33
0.0
  0
MTEXT
  5
55
330
4F
100
AcDbEntity
  8
LC-001-101-D00-0
 62
     2
100
AcDbMText
 10
112.800392
 20
46.989104
 30
0.0
 40
28.0
 41
0.0
 71
     5
 72
     1
  1
\A1;100
  7
LCTX15-400-0-0pDIN-Schrift
 11
6.123031769111886E-17
 21
1.0
 31
0.0
 73
     1
 44
1.0
  0
POINT
  5
56
330
4F
100
AcDbEntity
  8
Defpoints
 62
     0
100
AcDbPoint
 10
99.5
 20
99.998599
 30
0.0
  0
POINT
  5
57
330
4F
100
AcDbEntity
  8
Defpoints
 62
     0
100
AcDbPoint
 10
93.5
 20
0.0
 30
0.0
  0
POINT
  5
58
330
4F
100
AcDbEntity
  8
Defpoints
 62
     0
100
AcDbPoint
 10
143.600392
 20
0.0
 30
0.0
  0
ENDBLK
  5
5A
330
4F
100
AcDbEntity
  8
0
100
AcDbBlockEnd
  0
BLOCK
  5
66
330
5C
100
AcDbEntity
  8
0
100
AcDbBlockBegin
  2
*D4
 70
     1
 71
     0
 10
0.0
 20
0.0
 30
0.0
  3
*D4
  1

  0
LINE
  5
5D
330
5C
100
AcDbEntity
  8
LC-001-101-D00-0
 62
     2
370
    -2
100
AcDbLine
 10
97.5
 20
1.071797
 30
0.0
 11
97.5
 21
-60.560896
 31
0.0
  0
LINE
  5
5E
330
5C
100
AcDbEntity
  8
LC-001-101-D00-0
 62
     2
370
    -2
100
AcDbLine
 10
-97.5
 20
1.071797
 30
0.0
 11
-97.5
 21
-60.560896
 31
0.0
  0
LINE
  5
5F
330
5C
100
AcDbEntity
  8
LC-001-101-D00-0
 62
     2
370
    -2
100
AcDbLine
 10
69.5
 20
-56.960896
 30
0.0
 11
-69.5
 21
-56.960896
 31
0.0
  0
SOLID
  5
60
330
5C
100
AcDbEntity
  8
LC-001-101-D00-0
 62
     2
100
AcDbTrace
 10
69.5
 20
-61.627562
 30
0.0
 11
69.5
 21
-52.294229
 31
0.0
 12
97.5
 22
-56.960896
 32
0.0
 13
97.5
 23
-56.960896
 33
0.0
  0
SOLID
  5
61
330
5C
100
AcDbEntity
  8
LC-001-101-D00-0
 62
     2
100
AcDbTrace
 10
-69.5
 20
-52.294229
 30
0.0
 11
-69.5
 21
-61.627562
 31
0.0
 12
-97.5
 22
-56.960896
 32
0.0
 13
-97.5
 23
-56.960896
 33
0.0
  0
MTEXT
  5
62
330
5C
100
AcDbEntity
  8
LC-001-101-D00-0
 62
     2
100
AcDbMText
 10
-7.767057
 20
-26.160896
 30
0.0
 40
28.0
 41
0.0
 71
     5
 72
     1
  1
%%c\A1;195
  7
LCTX15-400-0-0pDIN-Schrift
 73
     1
 44
1.0
  0
POINT
  5
63
330
5C
100
AcDbEntity
  8
Defpoints
 62
     0
100
AcDbPoint
 10
97.5
 20
1.071797
 30
0.0
  0
POINT
  5
64
330
5C
100
AcDbEntity
  8
Defpoints
 62
     0
100
AcDbPoint
 10
-97.5
 20
1.071797
 30
0.0
  0
POINT
  5
65
330
5C
100
AcDbEntity
  8
Defpoints
 62
     0
100
AcDbPoint
 10
-97.5
 20
-56.960896
 30
0.0
  0
ENDBLK
  5
67
330
5C
100
AcDbEntity
  8
0
100
AcDbBlockEnd
  0
BLOCK
  5
73
330
69
100
AcDbEntity
  8
0
100
AcDbBlockBegin
  2
*D5
 70
     1
 71
     0
 10
0.0
 20
0.0
 30
0.0
  3
*D5
  1

  0
LINE
  5
6A
330
69
100
AcDbEntity
  8
LC-001-101-D00-0
 62
     2
370
    -2
100
AcDbLine
 10
97.5
 20
128.998599
 30
0.0
 11
97.5
 21
151.638416
 31
0.0
  0
LINE
  5
6B
330
69
100
AcDbEntity
  8
LC-001-101-D00-0
 62
     2
370
    -2
100
AcDbLine
 10
-97.5
 20
128.998599
 30
0.0
 11
-97.5
 21
151.638416
 31
0.0
  0
LINE
  5
6C
330
69
100
AcDbEntity
  8
LC-001-101-D00-0
 62
     2
370
    -2
100
AcDbLine
 10
69.5
 20
148.038416
 30
0.0
 11
-69.5
 21
148.038416
 31
0.0
  0
SOLID
  5
6D
330
69
100
AcDbEntity
  8
LC-001-101-D00-0
 62
     2
100
AcDbTrace
 10
69.5
 20
143.37175
 30
0.0
 11
69.5
 21
152.705083
 31
0.0
 12
97.5
 22
148.038416
 32
0.0
 13
97.5
 23
148.038416
 33
0.0
  0
SOLID
  5
6E
330
69
100
AcDbEntity
  8
LC-001-101-D00-0
 62
     2
100
AcDbTrace
 10
-69.5
 20
152.705083
 30
0.0
 11
-69.5
 21
143.37175
 31
0.0
 12
-97.5
 22
148.038416
 32
0.0
 13
-97.5
 23
148.038416
 33
0.0
  0
MTEXT
  5
6F
330
69
100
AcDbEntity
  8
LC-001-101-D00-0
 62
     2
100
AcDbMText
 10
-3.573238
 20
178.838416
 30
0.0
 40
28.0
 41
0.0
 71
     5
 72
     1
  1
%%c\A1;195
  7
LCTX15-400-0-0pDIN-Schrift
 73
     1
 44
1.0
  0
POINT
  5
70
330
69
100
AcDbEntity
  8
Defpoints
 62
     0
100
AcDbPoint
 10
97.5
 20
128.998599
 30
0.0
  0
POINT
  5
71
330
69
100
AcDbEntity
  8
Defpoints
 62
     0
100
AcDbPoint
 10
-97.5
 20
128.998599
 30
0.0
  0
POINT
  5
72
330
69
100
AcDbEntity
  8
Defpoints
 62
     0
100
AcDbPoint
 10
-97.5
 20
148.038416
 30
0.0
  0
ENDBLK
  5
74
330
69
100
AcDbEntity
  8
0
100
AcDbBlockEnd
  0
BLOCK
  5
76
330
75
100
AcDbEntity
  8
0
100
AcDbBlockBegin
  2
KLON1
 70
     0
 71
     0
 10
0.0
 20
0.0
 30
0.0
  3
KLON1
  1

  4
KLON1
  0
ENDBLK
  5
77
330
75
100
AcDbEntity
  8
0
100
AcDbBlockEnd
  0
BLOCK
  5
7A
330
79
100
AcDbEntity
  8
0
100
AcDbBlockBegin
  2
KLON2
 70
     0
 71
     0
 10
0.0
 20
0.0
 30
0.0
  3
KLON2
  1

  4
KLON2
  0
ARC
  5
7C
330
79
100
AcDbEntity
  8
LC-001-101-D00-0
  6
DASHED
 62
     7
370
    13
100
AcDbCircle
 10
92.5
 20
101.998599
 30
0.0
 40
2.0
100
AcDbArc
 50
90.0
 51
180.0
  0
ARC
  5
7D
330
79
100
AcDbEntity
  8
LC-001-101-D00-0
  6
DASHED
 62
     7
370
    13
100
AcDbCircle
 10
98.0
 20
104.998599
 30
0.0
 40
1.0
100
AcDbArc
 50
270.0
 51
0.0
  0
ARC
  5
7E
330
79
100
AcDbEntity
  8
LC-001-101-D00-0
 62
     7
370
    13
100
AcDbCircle
 10
-103.0
 20
119.998599
 30
0.0
 40
1.0
100
AcDbArc
 50
0.0
 51
90.0
  0
ARC
  5
7F
330
79
100
AcDbEntity
  8
LC-001-101-D00-0
 62
     7
370
    13
100
AcDbCircle
 10
-99.5
 20
102.498599
 30
0.0
 40
2.5
100
AcDbArc
 50
180.0
 51
270.0
  0
ARC
  5
80
330
79
100
AcDbEntity
  8
LC-001-101-D00-0
 62
     7
370
    13
100
AcDbCircle
 10
99.5
 20
102.498599
 30
0.0
 40
2.5
100
AcDbArc
 50
270.0
 51
0.0
  0
ARC
  5
81
330
79
100
AcDbEntity
  8
LC-001-101-D00-0
 62
     7
370
    13
100
AcDbCircle
 10
103.0
 20
119.998599
 30
0.0
 40
1.0
100
AcDbArc
 50
90.0
 51
180.0
  0
ARC
  5
83
330
79
100
AcDbEntity
  8
LC-002-100-D00-0
 62
     7
370
    13
100
AcDbCircle
 10
95.0
 20
89.066648
 30
0.0
 40
1.000000000000817
100
AcDbArc
 50
105.0
 51
180.0
  0
ARC
  5
84
330
79
100
AcDbEntity
  8
LC-002-100-D00-0
 62
     7
370
    13
100
AcDbCircle
 10
95.0
 20
94.976946
 30
0.0
 40
1.0
100
AcDbArc
 50
180.0
 51
255.0
  0
ARC
  5
85
330
79
100
AcDbEntity
  8
LC-002-100-D00-0
 62
     7
370
    13
100
AcDbCircle
 10
95.0
 20
98.998599
 30
0.0
 40
1.0
100
AcDbArc
 50
90.0
 51
180.0
  0
ARC
  5
86
330
79
100
AcDbEntity
  8
LC-002-100-D00-0
 62
     7
370
    13
100
AcDbCircle
 10
-95.0
 20
89.066648
 30
0.0
 40
1.0
100
AcDbArc
 50
0.0
 51
75.0
  0
ARC
  5
87
330
79
100
AcDbEntity
  8
LC-002-100-D00-0
 62
     7
370
    13
100
AcDbCircle
 10
-95.0
 20
94.976946
 30
0.0
 40
0.9999999999902745
100
AcDbArc
 50
285.0
 51
0.0
  0
ARC
  5
88
330
79
100
AcDbEntity
  8
LC-002-100-D00-0
 62
     7
370
    13
100
AcDbCircle
 10
-95.0
 20
98.998599
 30
0.0
 40
1.0
100
AcDbArc
 50
0.0
 51
90.0
  0
ARC
  5
89
330
79
100
AcDbEntity
  8
LC-002-100-D00-0
 62
     7
370
    13
100
AcDbCircle
 10
95.0
 20
94.976946
 30
0.0
 40
0.9999999999967906
100
AcDbArc
 50
178.759283
 51
255.0
  0
ARC
  5
8A
330
79
100
AcDbEntity
  8
LC-002-100-D00-0
 62
     7
370
    13
100
AcDbCircle
 10
95.0
 20
89.066648
 30
0.0
 40
1.000000000003641
100
AcDbArc
 50
105.0
 51
180.0
  0
ARC
  5
8B
330
79
100
AcDbEntity
  8
LC-002-100-D00-0
 62
     7
370
    13
100
AcDbCircle
 10
95.0
 20
84.976946
 30
0.0
 40
1.0
100
AcDbArc
 50
180.0
 51
255.0
  0
ARC
  5
8C
330
79
100
AcDbEntity
  8
LC-002-100-D00-0
 62
     7
370
    13
100
AcDbCircle
 10
95.0
 20
79.066648
 30
0.0
 40
1.000000000003641
100
AcDbArc
 50
105.0
 51
180.0
  0
ARC
  5
8D
330
79
100
AcDbEntity
  8
LC-002-100-D00-0
 62
     7
370
    13
100
AcDbCircle
 10
95.0
 20
74.976946
 30
0.0
 40
1.0
100
AcDbArc
 50
180.0
 51
255.0
  0
ARC
  5
8E
330
79
100
AcDbEntity
  8
LC-002-100-D00-0
 62
     7
370
    13
100
AcDbCircle
 10
95.0
 20
69.066648
 30
0.0
 40
1.000000000003641
100
AcDbArc
 50
105.0
 51
180.0
  0
ARC
  5
8F
330
79
100
AcDbEntity
  8
LC-002-100-D00-0
 62
     7
370
    13
100
AcDbCircle
 10
95.0
 20
64.976946
 30
0.0
 40
1.0
100
AcDbArc
 50
180.0
 51
255.0
  0
ARC
  5
90
330
79
100
AcDbEntity
  8
LC-002-100-D00-0
 62
     7
370
    13
100
AcDbCircle
 10
95.0
 20
59.066648
 30
0.0
 40
1.000000000003641
100
AcDbArc
 50
105.0
 51
180.0
  0
ARC
  5
91
330
79
100
AcDbEntity
  8
LC-002-100-D00-0
 62
     7
370
    13
100
AcDbCircle
 10
95.0
 20
54.976946
 30
0.0
 40
1.0
100
AcDbArc
 50
180.0
 51
255.0
  0
ARC
  5
92
330
79
100
AcDbEntity
  8
LC-002-100-D00-0
 62
     7
370
    13
100
AcDbCircle
 10
95.0
 20
49.066648
 30
0.0
 40
1.000000000003641
100
AcDbArc
 50
105.0
 51
180.0
  0
ARC
  5
93
330
79
100
AcDbEntity
  8
LC-002-100-D00-0
 62
     7
370
    13
100
AcDbCircle
 10
95.0
 20
44.976946
 30
0.0
 40
1.0
100
AcDbArc
 50
180.0
 51
255.0
  0
ARC
  5
94
330
79
100
AcDbEntity
  8
LC-002-100-D00-0
 62
     7
370
    13
100
AcDbCircle
 10
95.0
 20
39.066648
 30
0.0
 40
1.000000000003641
100
AcDbArc
 50
105.0
 51
180.0
  0
ARC
  5
95
330
79
100
AcDbEntity
  8
LC-002-100-D00-0
 62
     7
370
    13
100
AcDbCircle
 10
95.0
 20
34.976946
 30
0.0
 40
1.0
100
AcDbArc
 50
180.0
 51
255.0
  0
ARC
  5
96
330
79
100
AcDbEntity
  8
LC-002-100-D00-0
 62
     7
370
    13
100
AcDbCircle
 10
95.0
 20
5.176946
 30
0.0
 40
1.0
100
AcDbArc
 50
180.0
 51
255.0
  0
ARC
  5
97
330
79
100
AcDbEntity
  8
LC-002-100-D00-0
 62
     7
370
    13
100
AcDbCircle
 10
95.0
 20
9.066648
 30
0.0
 40
1.000000000003641
100
AcDbArc
 50
105.0
 51
180.0
  0
ARC
  5
98
330
79
100
AcDbEntity
  8
LC-002-100-D00-0
 62
     7
370
    13
100
AcDbCircle
 10
95.0
 20
14.976946
 30
0.0
 40
1.0
100
AcDbArc
 50
180.0
 51
255.0
  0
ARC
  5
99
330
79
100
AcDbEntity
  8
LC-002-100-D00-0
 62
     7
370
    13
100
AcDbCircle
 10
95.0
 20
19.066648
 30
0.0
 40
1.000000000003641
100
AcDbArc
 50
105.0
 51
180.0
  0
ARC
  5
9A
330
79
100
AcDbEntity
  8
LC-002-100-D00-0
 62
     7
370
    13
100
AcDbCircle
 10
95.0
 20
24.976946
 30
0.0
 40
1.0
100
AcDbArc
 50
180.0
 51
255.0
  0
ARC
  5
9B
330
79
100
AcDbEntity
  8
LC-002-100-D00-0
 62
     7
370
    13
100
AcDbCircle
 10
95.0
 20
29.066648
 30
0.0
 40
1.000000000003641
100
AcDbArc
 50
105.0
 51
180.0
  0
ARC
  5
9C
330
79
100
AcDbEntity
  8
LC-002-100-D00-0
 62
     7
370
    13
100
AcDbCircle
 10
-95.0
 20
29.066648
 30
0.0
 40
1.0
100
AcDbArc
 50
0.0
 51
75.0
  0
ARC
  5
9D
330
79
100
AcDbEntity
  8
LC-002-100-D00-0
 62
     7
370
    13
100
AcDbCircle
 10
-95.0
 20
24.976946
 30
0.0
 40
1.000000000000817
100
AcDbArc
 50
285.0
 51
0.0
  0
ARC
  5
9E
330
79
100
AcDbEntity
  8
LC-002-100-D00-0
 62
     7
370
    13
100
AcDbCircle
 10
-95.0
 20
19.066648
 30
0.0
 40
1.0
100
AcDbArc
 50
0.0
 51
75.0
  0
ARC
  5
9F
330
79
100
AcDbEntity
  8
LC-002-100-D00-0
 62
     7
370
    13
100
AcDbCircle
 10
-95.0
 20
14.976946
 30
0.0
 40
1.000000000000817
100
AcDbArc
 50
285.0
 51
0.0
  0
ARC
  5
A0
330
79
100
AcDbEntity
  8
LC-002-100-D00-0
 62
     7
370
    13
100
AcDbCircle
 10
-95.0
 20
9.066648
 30
0.0
 40
1.0
100
AcDbArc
 50
0.0
 51
75.0
  0
ARC
  5
A1
330
79
100
AcDbEntity
  8
LC-002-100-D00-0
 62
     7
370
    13
100
AcDbCircle
 10
-95.0
 20
5.176946
 30
0.0
 40
1.000000000007844
100
AcDbArc
 50
285.0
 51
0.0
  0
ARC
  5
A2
330
79
100
AcDbEntity
  8
LC-002-100-D00-0
 62
     7
370
    13
100
AcDbCircle
 10
-95.0
 20
34.976946
 30
0.0
 40
1.000000000000817
100
AcDbArc
 50
285.0
 51
0.0
  0
ARC
  5
A3
330
79
100
AcDbEntity
  8
LC-002-100-D00-0
 62
     7
370
    13
100
AcDbCircle
 10
-95.0
 20
39.066648
 30
0.0
 40
1.0
100
AcDbArc
 50
0.0
 51
75.0
  0
ARC
  5
A4
330
79
100
AcDbEntity
  8
LC-002-100-D00-0
 62
     7
370
    13
100
AcDbCircle
 10
-95.0
 20
44.976946
 30
0.0
 40
1.000000000000817
100
AcDbArc
 50
285.0
 51
0.0
  0
ARC
  5
A5
330
79
100
AcDbEntity
  8
LC-002-100-D00-0
 62
     7
370
    13
100
AcDbCircle
 10
-95.0
 20
49.066648
 30
0.0
 40
1.0
100
AcDbArc
 50
0.0
 51
75.0
  0
ARC
  5
A6
330
79
100
AcDbEntity
  8
LC-002-100-D00-0
 62
     7
370
    13
100
AcDbCircle
 10
-95.0
 20
54.976946
 30
0.0
 40
1.000000000000817
100
AcDbArc
 50
285.0
 51
0.0
  0
ARC
  5
A7
330
79
100
AcDbEntity
  8
LC-002-100-D00-0
 62
     7
370
    13
100
AcDbCircle
 10
-95.0
 20
59.066648
 30
0.0
 40
1.0
100
AcDbArc
 50
0.0
 51
75.0
  0
ARC
  5
A8
330
79
100
AcDbEntity
  8
LC-002-100-D00-0
 62
     7
370
    13
100
AcDbCircle
 10
-95.0
 20
64.976946
 30
0.0
 40
1.000000000000817
100
AcDbArc
 50
285.0
 51
0.0
  0
ARC
  5
A9
330
79
100
AcDbEntity
  8
LC-002-100-D00-0
 62
     7
370
    13
100
AcDbCircle
 10
-95.0
 20
69.066648
 30
0.0
 40
1.0
100
AcDbArc
 50
0.0
 51
75.0
  0
ARC
  5
AA
330
79
100
AcDbEntity
  8
LC-002-100-D00-0
 62
     7
370
    13
100
AcDbCircle
 10
-95.0
 20
74.976946
 30
0.0
 40
1.000000000000817
100
AcDbArc
 50
285.0
 51
0.0
  0
ARC
  5
AB
330
79
100
AcDbEntity
  8
LC-002-100-D00-0
 62
     7
370
    13
100
AcDbCircle
 10
-95.0
 20
79.066648
 30
0.0
 40
1.0
100
AcDbArc
 50
0.0
 51
75.0
  0
ARC
  5
AC
330
79
100
AcDbEntity
  8
LC-002-100-D00-0
 62
     7
370
    13
100
AcDbCircle
 10
-95.0
 20
84.976946
 30
0.0
 40
1.000000000000817
100
AcDbArc
 50
285.0
 51
0.0
  0
ARC
  5
AD
330
79
100
AcDbEntity
  8
LC-002-100-D00-0
 62
     7
370
    13
100
AcDbCircle
 10
-95.0
 20
89.066648
 30
0.0
 40
1.0
100
AcDbArc
 50
0.0
 51
75.0
  0
ARC
  5
AE
330
79
100
AcDbEntity
  8
LC-002-100-D00-0
 62
     7
370
    13
100
AcDbCircle
 10
-95.0
 20
94.976946
 30
0.0
 40
1.000000000000817
100
AcDbArc
 50
285.0
 51
1.240717
  0
LINE
  5
AF
330
79
100
AcDbEntity
  8
LC-001-101-D00-0
 62
     7
370
    13
100
AcDbLine
 10
90.5
 20
99.998599
 30
0.0
 11
94.741181
 21
99.998599
 31
0.0
  0
LINE
  5
B0
330
79
100
AcDbEntity
  8
LC-001-101-D00-0
  6
DASHED
 62
     7
370
    13
100
AcDbLine
 10
90.5
 20
101.998599
 30
0.0
 11
90.5
 21
99.998599
 31
0.0
  0
LINE
  5
B1
330
79
100
AcDbEntity
  8
LC-001-101-D00-0
  6
DASHED
 62
     7
370
    13
100
AcDbLine
 10
92.5
 20
103.998599
 30
0.0
 11
98.0
 21
103.998599
 31
0.0
  0
LINE
  5
B2
330
79
100
AcDbEntity
  8
LC-001-101-D00-0
  6
DASHED
 62
     7
370
    13
100
AcDbLine
 10
99.0
 20
124.998599
 30
0.0
 11
99.0
 21
104.998599
 31
0.0
  0
LINE
  5
B4
330
79
100
AcDbEntity
  8
LC-001-101-D00-0
  6
DASHDOT
 62
     7
370
    25
100
AcDbLine
 10
97.5
 20
128.998599
 30
0.0
 11
97.5
 21
126.998599
 31
0.0
  0
LINE
  5
B5
330
79
100
AcDbEntity
  8
LC-001-101-D00-0
  6
DASHDOT
 62
     7
370
    25
100
AcDbLine
 10
-97.5
 20
126.998599
 30
0.0
 11
-97.5
 21
128.998599
 31
0.0
  0
LINE
  5
B6
330
79
100
AcDbEntity
  8
LC-001-101-D00-0
 62
     7
370
    13
100
AcDbLine
 10
102.0
 20
102.498599
 30
0.0
 11
-102.0
 21
102.498599
 31
0.0
  0
LINE
  5
B7
330
79
100
AcDbEntity
  8
LC-001-101-D00-0
 62
     7
370
    13
100
AcDbLine
 10
-94.741181
 20
99.998599
 30
0.0
 11
90.5
 21
99.998599
 31
0.0
  0
LINE
  5
B8
330
79
100
AcDbEntity
  8
LC-001-101-D00-0
 62
     7
370
    13
100
AcDbLine
 10
94.000234
 20
98.998599
 30
0.0
 11
-94.000234
 21
98.998599
 31
0.0
  0
LINE
  5
B9
330
79
100
AcDbEntity
  8
LC-001-101-D00-0
 62
     7
370
    13
100
AcDbLine
 10
-102.0
 20
119.998599
 30
0.0
 11
102.0
 21
119.998599
 31
0.0
  0
LINE
  5
BA
330
79
100
AcDbEntity
  8
LC-001-101-D00-0
 62
     7
370
    13
100
AcDbLine
 10
103.0
 20
120.998599
 30
0.0
 11
-103.0
 21
120.998599
 31
0.0
  0
LINE
  5
BB
330
79
100
AcDbEntity
  8
LC-001-101-D00-0
 62
     7
370
    13
100
AcDbLine
 10
-102.75
 20
124.498599
 30
0.0
 11
102.753
 21
124.498599
 31
0.0
  0
LINE
  5
BC
330
79
100
AcDbEntity
  8
LC-001-101-D00-0
 62
     7
370
    13
100
AcDbLine
 10
102.0
 20
115.415534
 30
0.0
 11
102.0
 21
102.498599
 31
0.0
  0
LINE
  5
BD
330
79
100
AcDbEntity
  8
LC-001-101-D00-0
 62
     7
370
    13
100
AcDbLine
 10
-103.0
 20
120.998599
 30
0.0
 11
-105.25
 21
120.998599
 31
0.0
  0
LINE
  5
BE
330
79
100
AcDbEntity
  8
LC-001-101-D00-0
 62
     7
370
    13
100
AcDbLine
 10
-105.25
 20
121.998599
 30
0.0
 11
-102.75
 21
124.498599
 31
0.0
  0
LINE
  5
BF
330
79
100
AcDbEntity
  8
LC-001-101-D00-0
 62
     7
370
    13
100
AcDbLine
 10
-105.25
 20
120.998599
 30
0.0
 11
-105.25
 21
121.998599
 31
0.0
  0
LINE
  5
C0
330
79
100
AcDbEntity
  8
LC-001-101-D00-0
 62
     7
370
    13
100
AcDbLine
 10
-102.75
 20
124.998599
 30
0.0
 11
-102.75
 21
124.498599
 31
0.0
  0
LINE
  5
C1
330
79
100
AcDbEntity
  8
LC-001-101-D00-0
 62
     7
370
    13
100
AcDbLine
 10
-99.0
 20
124.998599
 30
0.0
 11
-102.75
 21
124.998599
 31
0.0
  0
LINE
  5
C2
330
79
100
AcDbEntity
  8
LC-001-101-D00-0
 62
     7
370
    13
100
AcDbLine
 10
99.0
 20
124.998599
 30
0.0
 11
-99.0
 21
124.998599
 31
0.0
  0
LINE
  5
C3
330
79
100
AcDbEntity
  8
LC-001-101-D00-0
 62
     7
370
    13
100
AcDbLine
 10
102.753
 20
124.998599
 30
0.0
 11
99.0
 21
124.998599
 31
0.0
  0
LINE
  5
C4
330
79
100
AcDbEntity
  8
LC-001-101-D00-0
 62
     7
370
    13
100
AcDbLine
 10
102.753
 20
124.498599
 30
0.0
 11
102.753
 21
124.998599
 31
0.0
  0
LINE
  5
C5
330
79
100
AcDbEntity
  8
LC-001-101-D00-0
 62
     7
370
    13
100
AcDbLine
 10
105.253
 20
121.998599
 30
0.0
 11
105.253
 21
120.998599
 31
0.0
  0
LINE
  5
C6
330
79
100
AcDbEntity
  8
LC-001-101-D00-0
 62
     7
370
    13
100
AcDbLine
 10
102.753
 20
124.498599
 30
0.0
 11
105.253
 21
121.998599
 31
0.0
  0
LINE
  5
C7
330
79
100
AcDbEntity
  8
LC-001-101-D00-0
 62
     7
370
    13
100
AcDbLine
 10
-102.0
 20
102.498599
 30
0.0
 11
-102.0
 21
119.998599
 31
0.0
  0
LINE
  5
C8
330
79
100
AcDbEntity
  8
LC-001-101-D00-0
 62
     7
370
    13
100
AcDbLine
 10
105.253
 20
120.998599
 30
0.0
 11
103.0
 21
120.998599
 31
0.0
  0
LINE
  5
C9
330
79
100
AcDbEntity
  8
LC-001-101-D00-0
 62
     7
370
    13
100
AcDbLine
 10
102.0
 20
119.998599
 30
0.0
 11
102.0
 21
115.415534
 31
0.0
  0
LINE
  5
CA
330
79
100
AcDbEntity
  8
LC-002-100-D00-0
 62
     7
370
    13
100
AcDbLine
 10
99.5
 20
99.998599
 30
0.0
 11
95.0
 21
99.998599
 31
0.0
  0
LINE
  5
CB
330
79
100
AcDbEntity
  8
LC-001-101-D00-0
 62
     7
370
    13
100
AcDbLine
 10
97.5
 20
90.771797
 30
0.0
 11
94.741181
 21
90.032573
 31
0.0
  0
LINE
  5
CC
330
79
100
AcDbEntity
  8
LC-001-101-D00-0
 62
     7
370
    13
100
AcDbLine
 10
97.5
 20
93.271797
 30
0.0
 11
97.5
 21
90.771797
 31
0.0
  0
LINE
  5
CD
330
79
100
AcDbEntity
  8
LC-001-101-D00-0
 62
     7
370
    13
100
AcDbLine
 10
94.0
 20
94.976946
 30
0.0
 11
94.0
 21
98.998599
 31
0.0
  0
LINE
  5
CE
330
79
100
AcDbEntity
  8
LC-001-101-D00-0
 62
     7
370
    13
100
AcDbLine
 10
94.741181
 20
94.01102
 30
0.0
 11
97.5
 21
93.271797
 31
0.0
  0
LINE
  5
CF
330
79
100
AcDbEntity
  8
LC-002-100-D00-0
 62
     7
370
    13
100
AcDbLine
 10
-95.0
 20
99.998599
 30
0.0
 11
-99.5
 21
99.998599
 31
0.0
  0
LINE
  5
D0
330
79
100
AcDbEntity
  8
LC-001-101-D00-0
 62
     7
370
    13
100
AcDbLine
 10
-94.741181
 20
90.032573
 30
0.0
 11
-97.5
 21
90.771797
 31
0.0
  0
LINE
  5
D1
330
79
100
AcDbEntity
  8
LC-001-101-D00-0
 62
     7
370
    13
100
AcDbLine
 10
-97.5
 20
90.771797
 30
0.0
 11
-97.5
 21
93.271797
 31
0.0
  0
LINE
  5
D2
330
79
100
AcDbEntity
  8
LC-001-101-D00-0
 62
     7
370
    13
100
AcDbLine
 10
-94.0
 20
98.998599
 30
0.0
 11
-94.0
 21
94.976946
 31
0.0
  0
LINE
  5
D3
330
79
100
AcDbEntity
  8
LC-001-101-D00-0
 62
     7
370
    13
100
AcDbLine
 10
-97.5
 20
93.271797
 30
0.0
 11
-94.741181
 21
94.01102
 31
0.0
  0
LINE
  5
D4
330
79
100
AcDbEntity
  8
LC-001-101-D00-0
 62
     7
370
    13
100
AcDbLine
 10
94.741181
 20
94.01102
 30
0.0
 11
97.5
 21
93.271797
 31
0.0
  0
LINE
  5
D5
330
79
100
AcDbEntity
  8
LC-001-101-D00-0
 62
     7
370
    13
100
AcDbLine
 10
97.5
 20
93.271797
 30
0.0
 11
97.5
 21
90.771797
 31
0.0
  0
LINE
  5
D6
330
79
100
AcDbEntity
  8
LC-001-101-D00-0
 62
     7
370
    13
100
AcDbLine
 10
94.741181
 20
84.01102
 30
0.0
 11
97.5
 21
83.271797
 31
0.0
  0
LINE
  5
D7
330
79
100
AcDbEntity
  8
LC-001-101-D00-0
 62
     7
370
    13
100
AcDbLine
 10
97.5
 20
90.771797
 30
0.0
 11
94.741181
 21
90.032573
 31
0.0
  0
LINE
  5
D8
330
79
100
AcDbEntity
  8
LC-001-101-D00-0
 62
     7
370
    13
100
AcDbLine
 10
94.0
 20
84.976946
 30
0.0
 11
94.0
 21
89.066648
 31
0.0
  0
LINE
  5
D9
330
79
100
AcDbEntity
  8
LC-001-101-D00-0
 62
     7
370
    13
100
AcDbLine
 10
97.5
 20
83.271797
 30
0.0
 11
97.5
 21
80.771797
 31
0.0
  0
LINE
  5
DA
330
79
100
AcDbEntity
  8
LC-001-101-D00-0
 62
     7
370
    13
100
AcDbLine
 10
94.741181
 20
74.01102
 30
0.0
 11
97.5
 21
73.271797
 31
0.0
  0
LINE
  5
DB
330
79
100
AcDbEntity
  8
LC-001-101-D00-0
 62
     7
370
    13
100
AcDbLine
 10
97.5
 20
80.771797
 30
0.0
 11
94.741181
 21
80.032573
 31
0.0
  0
LINE
  5
DC
330
79
100
AcDbEntity
  8
LC-001-101-D00-0
 62
     7
370
    13
100
AcDbLine
 10
94.0
 20
74.976946
 30
0.0
 11
94.0
 21
79.066648
 31
0.0
  0
LINE
  5
DD
330
79
100
AcDbEntity
  8
LC-001-101-D00-0
 62
     7
370
    13
100
AcDbLine
 10
97.5
 20
73.271797
 30
0.0
 11
97.5
 21
70.771797
 31
0.0
  0
LINE
  5
DE
330
79
100
AcDbEntity
  8
LC-001-101-D00-0
 62
     7
370
    13
100
AcDbLine
 10
94.741181
 20
64.01102
 30
0.0
 11
97.5
 21
63.271797
 31
0.0
  0
LINE
  5
DF
330
79
100
AcDbEntity
  8
LC-001-101-D00-0
 62
     7
370
    13
100
AcDbLine
 10
97.5
 20
70.771797
 30
0.0
 11
94.741181
 21
70.032573
 31
0.0
  0
LINE
  5
E0
330
79
100
AcDbEntity
  8
LC-001-101-D00-0
 62
     7
370
    13
100
AcDbLine
 10
94.0
 20
64.976946
 30
0.0
 11
94.0
 21
69.066648
 31
0.0
  0
LINE
  5
E1
330
79
100
AcDbEntity
  8
LC-001-101-D00-0
 62
     7
370
    13
100
AcDbLine
 10
97.5
 20
63.271797
 30
0.0
 11
97.5
 21
60.771797
 31
0.0
  0
LINE
  5
E2
330
79
100
AcDbEntity
  8
LC-001-101-D00-0
 62
     7
370
    13
100
AcDbLine
 10
94.741181
 20
54.01102
 30
0.0
 11
97.5
 21
53.271797
 31
0.0
  0
LINE
  5
E3
330
79
100
AcDbEntity
  8
LC-001-101-D00-0
 62
     7
370
    13
100
AcDbLine
 10
97.5
 20
60.771797
 30
0.0
 11
94.741181
 21
60.032573
 31
0.0
  0
LINE
  5
E4
330
79
100
AcDbEntity
  8
LC-001-101-D00-0
 62
     7
370
    13
100
AcDbLine
 10
94.0
 20
54.976946
 30
0.0
 11
94.0
 21
59.066648
 31
0.0
  0
LINE
  5
E5
330
79
100
AcDbEntity
  8
LC-001-101-D00-0
 62
     7
370
    13
100
AcDbLine
 10
97.5
 20
53.271797
 30
0.0
 11
97.5
 21
50.771797
 31
0.0
  0
LINE
  5
E6
330
79
100
AcDbEntity
  8
LC-001-101-D00-0
 62
     7
370
    13
100
AcDbLine
 10
94.741181
 20
44.01102
 30
0.0
 11
97.5
 21
43.271797
 31
0.0
  0
LINE
  5
E7
330
79
100
AcDbEntity
  8
LC-001-101-D00-0
 62
     7
370
    13
100
AcDbLine
 10
97.5
 20
50.771797
 30
0.0
 11
94.741181
 21
50.032573
 31
0.0
  0
LINE
  5
E8
330
79
100
AcDbEntity
  8
LC-001-101-D00-0
 62
     7
370
    13
100
AcDbLine
 10
94.0
 20
44.976946
 30
0.0
 11
94.0
 21
49.066648
 31
0.0
  0
LINE
  5
E9
330
79
100
AcDbEntity
  8
LC-001-101-D00-0
 62
     7
370
    13
100
AcDbLine
 10
97.5
 20
43.271797
 30
0.0
 11
97.5
 21
40.771797
 31
0.0
  0
LINE
  5
EA
330
79
100
AcDbEntity
  8
LC-001-101-D00-0
 62
     7
370
    13
100
AcDbLine
 10
94.741181
 20
34.01102
 30
0.0
 11
97.5
 21
33.271797
 31
0.0
  0
LINE
  5
EB
330
79
100
AcDbEntity
  8
LC-001-101-D00-0
 62
     7
370
    13
100
AcDbLine
 10
97.5
 20
40.771797
 30
0.0
 11
94.741181
 21
40.032573
 31
0.0
  0
LINE
  5
EC
330
79
100
AcDbEntity
  8
LC-001-101-D00-0
 62
     7
370
    13
100
AcDbLine
 10
94.0
 20
34.976946
 30
0.0
 11
94.0
 21
39.066648
 31
0.0
  0
LINE
  5
ED
330
79
100
AcDbEntity
  8
LC-001-101-D00-0
 62
     7
370
    13
100
AcDbLine
 10
97.5
 20
33.271797
 30
0.0
 11
97.5
 21
30.771797
 31
0.0
  0
LINE
  5
EE
330
79
100
AcDbEntity
  8
LC-001-101-D00-0
 62
     7
370
    13
100
AcDbLine
 10
-94.741181
 20
34.01102
 30
0.0
 11
94.741181
 21
34.01102
 31
0.0
  0
LINE
  5
EF
330
79
100
AcDbEntity
  8
LC-001-101-D00-0
 62
     7
370
    13
100
AcDbLine
 10
-94.0
 20
39.066648
 30
0.0
 11
94.0
 21
39.066648
 31
0.0
  0
LINE
  5
F0
330
79
100
AcDbEntity
  8
LC-001-101-D00-0
 62
     7
370
    13
100
AcDbLine
 10
-97.5
 20
40.771797
 30
0.0
 11
97.5
 21
40.771797
 31
0.0
  0
LINE
  5
F1
330
79
100
AcDbEntity
  8
LC-001-101-D00-0
 62
     7
370
    13
100
AcDbLine
 10
0.0
 20
43.271797
 30
0.0
 11
97.5
 21
43.271797
 31
0.0
  0
LINE
  5
F2
330
79
100
AcDbEntity
  8
LC-001-101-D00-0
 62
     7
370
    13
100
AcDbLine
 10
0.0
 20
44.01102
 30
0.0
 11
94.741181
 21
44.01102
 31
0.0
  0
LINE
  5
F3
330
79
100
AcDbEntity
  8
LC-001-101-D00-0
 62
     7
370
    13
100
AcDbLine
 10
0.0
 20
44.976946
 30
0.0
 11
94.0
 21
44.976946
 31
0.0
  0
LINE
  5
F4
330
79
100
AcDbEntity
  8
LC-001-101-D00-0
 62
     7
370
    13
100
AcDbLine
 10
0.0
 20
49.066648
 30
0.0
 11
94.0
 21
49.066648
 31
0.0
  0
LINE
  5
F5
330
79
100
AcDbEntity
  8
LC-001-101-D00-0
 62
     7
370
    13
100
AcDbLine
 10
0.0
 20
50.032573
 30
0.0
 11
94.741181
 21
50.032573
 31
0.0
  0
LINE
  5
F6
330
79
100
AcDbEntity
  8
LC-001-101-D00-0
 62
     7
370
    13
100
AcDbLine
 10
0.0
 20
50.771797
 30
0.0
 11
97.5
 21
50.771797
 31
0.0
  0
LINE
  5
F7
330
79
100
AcDbEntity
  8
LC-001-101-D00-0
 62
     7
370
    13
100
AcDbLine
 10
0.0
 20
53.271797
 30
0.0
 11
97.5
 21
53.271797
 31
0.0
  0
LINE
  5
F8
330
79
100
AcDbEntity
  8
LC-001-101-D00-0
 62
     7
370
    13
100
AcDbLine
 10
0.0
 20
54.01102
 30
0.0
 11
94.741181
 21
54.01102
 31
0.0
  0
LINE
  5
F9
330
79
100
AcDbEntity
  8
LC-001-101-D00-0
 62
     7
370
    13
100
AcDbLine
 10
0.0
 20
54.976946
 30
0.0
 11
94.0
 21
54.976946
 31
0.0
  0
LINE
  5
FA
330
79
100
AcDbEntity
  8
LC-001-101-D00-0
 62
     7
370
    13
100
AcDbLine
 10
0.0
 20
59.066648
 30
0.0
 11
94.0
 21
59.066648
 31
0.0
  0
LINE
  5
FB
330
79
100
AcDbEntity
  8
LC-001-101-D00-0
 62
     7
370
    13
100
AcDbLine
 10
0.0
 20
60.032573
 30
0.0
 11
94.741181
 21
60.032573
 31
0.0
  0
LINE
  5
FC
330
79
100
AcDbEntity
  8
LC-001-101-D00-0
 62
     7
370
    13
100
AcDbLine
 10
0.0
 20
60.771797
 30
0.0
 11
97.5
 21
60.771797
 31
0.0
  0
LINE
  5
FD
330
79
100
AcDbEntity
  8
LC-001-101-D00-0
 62
     7
370
    13
100
AcDbLine
 10
0.0
 20
63.271797
 30
0.0
 11
97.5
 21
63.271797
 31
0.0
  0
LINE
  5
FE
330
79
100
AcDbEntity
  8
LC-001-101-D00-0
 62
     7
370
    13
100
AcDbLine
 10
0.0
 20
64.01102
 30
0.0
 11
94.741181
 21
64.01102
 31
0.0
  0
LINE
  5
FF
330
79
100
AcDbEntity
  8
LC-001-101-D00-0
 62
     7
370
    13
100
AcDbLine
 10
0.0
 20
64.976946
 30
0.0
 11
94.0
 21
64.976946
 31
0.0
  0
LINE
  5
100
330
79
100
AcDbEntity
  8
LC-001-101-D00-0
 62
     7
370
    13
100
AcDbLine
 10
0.0
 20
69.066648
 30
0.0
 11
94.0
 21
69.066648
 31
0.0
  0
LINE
  5
101
330
79
100
AcDbEntity
  8
LC-001-101-D00-0
 62
     7
370
    13
100
AcDbLine
 10
0.0
 20
70.032573
 30
0.0
 11
94.741181
 21
70.032573
 31
0.0
  0
LINE
  5
102
330
79
100
AcDbEntity
  8
LC-001-101-D00-0
 62
     7
370
    13
100
AcDbLine
 10
0.0
 20
70.771797
 30
0.0
 11
97.5
 21
70.771797
 31
0.0
  0
LINE
  5
103
330
79
100
AcDbEntity
  8
LC-001-101-D00-0
 62
     7
370
    13
100
AcDbLine
 10
-94.741181
 20
74.01102
 30
0.0
 11
94.741181
 21
74.01102
 31
0.0
  0
LINE
  5
104
330
79
100
AcDbEntity
  8
LC-001-101-D00-0
 62
     7
370
    13
100
AcDbLine
 10
-94.0
 20
79.066648
 30
0.0
 11
94.0
 21
79.066648
 31
0.0
  0
LINE
  5
105
330
79
100
AcDbEntity
  8
LC-001-101-D00-0
 62
     7
370
    13
100
AcDbLine
 10
-94.741181
 20
80.032573
 30
0.0
 11
94.741181
 21
80.032573
 31
0.0
  0
LINE
  5
106
330
79
100
AcDbEntity
  8
LC-001-101-D00-0
 62
     7
370
    13
100
AcDbLine
 10
-97.5
 20
80.771797
 30
0.0
 11
97.5
 21
80.771797
 31
0.0
  0
LINE
  5
107
330
79
100
AcDbEntity
  8
LC-001-101-D00-0
 62
     7
370
    13
100
AcDbLine
 10
-94.0
 20
89.066648
 30
0.0
 11
94.0
 21
89.066648
 31
0.0
  0
LINE
  5
108
330
79
100
AcDbEntity
  8
LC-001-101-D00-0
 62
     7
370
    13
100
AcDbLine
 10
-97.5
 20
90.771797
 30
0.0
 11
97.5
 21
90.771797
 31
0.0
  0
LINE
  5
109
330
79
100
AcDbEntity
  8
LC-001-101-D00-0
 62
     7
370
    13
100
AcDbLine
 10
-97.5
 20
30.771797
 30
0.0
 11
97.5
 21
30.771797
 31
0.0
  0
LINE
  5
10A
330
79
100
AcDbEntity
  8
LC-001-101-D00-0
 62
     7
370
    13
100
AcDbLine
 10
-94.741181
 20
30.032573
 30
0.0
 11
94.741181
 21
30.032573
 31
0.0
  0
LINE
  5
10B
330
79
100
AcDbEntity
  8
LC-001-101-D00-0
 62
     7
370
    13
100
AcDbLine
 10
-94.0
 20
29.066648
 30
0.0
 11
94.0
 21
29.066648
 31
0.0
  0
LINE
  5
10C
330
79
100
AcDbEntity
  8
LC-001-101-D00-0
 62
     7
370
    13
100
AcDbLine
 10
-94.0
 20
24.976946
 30
0.0
 11
94.0
 21
24.976946
 31
0.0
  0
LINE
  5
10D
330
79
100
AcDbEntity
  8
LC-001-101-D00-0
 62
     7
370
    13
100
AcDbLine
 10
-94.741181
 20
24.01102
 30
0.0
 11
94.741181
 21
24.01102
 31
0.0
  0
LINE
  5
10E
330
79
100
AcDbEntity
  8
LC-001-101-D00-0
 62
     7
370
    13
100
AcDbLine
 10
-97.5
 20
20.771797
 30
0.0
 11
97.5
 21
20.771797
 31
0.0
  0
LINE
  5
10F
330
79
100
AcDbEntity
  8
LC-001-101-D00-0
 62
     7
370
    13
100
AcDbLine
 10
-94.741181
 20
14.01102
 30
0.0
 11
94.741181
 21
14.01102
 31
0.0
  0
LINE
  5
110
330
79
100
AcDbEntity
  8
LC-001-101-D00-0
 62
     7
370
    13
100
AcDbLine
 10
-94.741181
 20
20.032573
 30
0.0
 11
94.741181
 21
20.032573
 31
0.0
  0
LINE
  5
111
330
79
100
AcDbEntity
  8
LC-001-101-D00-0
 62
     7
370
    13
100
AcDbLine
 10
-97.5
 20
10.771797
 30
0.0
 11
97.5
 21
10.771797
 31
0.0
  0
LINE
  5
112
330
79
100
AcDbEntity
  8
LC-001-101-D00-0
 62
     7
370
    13
100
AcDbLine
 10
97.5
 20
13.271797
 30
0.0
 11
97.5
 21
10.771797
 31
0.0
  0
LINE
  5
113
330
79
100
AcDbEntity
  8
LC-001-101-D00-0
 62
     7
370
    13
100
AcDbLine
 10
-97.5
 20
1.071797
 30
0.0
 11
97.5
 21
1.071797
 31
0.0
  0
LINE
  5
114
330
79
100
AcDbEntity
  8
LC-001-101-D00-0
 62
     7
370
    13
100
AcDbLine
 10
-94.0
 20
9.066648
 30
0.0
 11
94.0
 21
9.066648
 31
0.0
  0
LINE
  5
115
330
79
100
AcDbEntity
  8
LC-001-101-D00-0
 62
     7
370
    13
100
AcDbLine
 10
-94.741181
 20
4.21102
 30
0.0
 11
94.741181
 21
4.21102
 31
0.0
  0
LINE
  5
116
330
79
100
AcDbEntity
  8
LC-001-101-D00-0
 62
     7
370
    13
100
AcDbLine
 10
94.0
 20
5.176946
 30
0.0
 11
94.0
 21
9.066648
 31
0.0
  0
LINE
  5
117
330
79
100
AcDbEntity
  8
LC-001-101-D00-0
 62
     7
370
    13
100
AcDbLine
 10
97.5
 20
10.771797
 30
0.0
 11
94.741181
 21
10.032573
 31
0.0
  0
LINE
  5
118
330
79
100
AcDbEntity
  8
LC-001-101-D00-0
 62
     7
370
    13
100
AcDbLine
 10
94.741181
 20
4.21102
 30
0.0
 11
97.5
 21
3.471797
 31
0.0
  0
LINE
  5
119
330
79
100
AcDbEntity
  8
LC-001-101-D00-0
 62
     7
370
    13
100
AcDbLine
 10
97.5
 20
3.471797
 30
0.0
 11
97.5
 21
1.071797
 31
0.0
  0
LINE
  5
11A
330
79
100
AcDbEntity
  8
LC-001-101-D00-0
 62
     7
370
    13
100
AcDbLine
 10
97.5
 20
1.071797
 30
0.0
 11
93.5
 21
0.0
 31
0.0
  0
LINE
  5
11B
330
79
100
AcDbEntity
  8
LC-001-101-D00-0
 62
     7
370
    13
100
AcDbLine
 10
94.0
 20
14.976946
 30
0.0
 11
94.0
 21
19.066648
 31
0.0
  0
LINE
  5
11C
330
79
100
AcDbEntity
  8
LC-001-101-D00-0
 62
     7
370
    13
100
AcDbLine
 10
97.5
 20
20.771797
 30
0.0
 11
94.741181
 21
20.032573
 31
0.0
  0
LINE
  5
11D
330
79
100
AcDbEntity
  8
LC-001-101-D00-0
 62
     7
370
    13
100
AcDbLine
 10
94.741181
 20
14.01102
 30
0.0
 11
97.5
 21
13.271797
 31
0.0
  0
LINE
  5
11E
330
79
100
AcDbEntity
  8
LC-001-101-D00-0
 62
     7
370
    13
100
AcDbLine
 10
97.5
 20
23.271797
 30
0.0
 11
97.5
 21
20.771797
 31
0.0
  0
LINE
  5
11F
330
79
100
AcDbEntity
  8
LC-001-101-D00-0
 62
     7
370
    13
100
AcDbLine
 10
94.0
 20
24.976946
 30
0.0
 11
94.0
 21
29.066648
 31
0.0
  0
LINE
  5
120
330
79
100
AcDbEntity
  8
LC-001-101-D00-0
 62
     7
370
    13
100
AcDbLine
 10
97.5
 20
30.771797
 30
0.0
 11
94.741181
 21
30.032573
 31
0.0
  0
LINE
  5
121
330
79
100
AcDbEntity
  8
LC-001-101-D00-0
 62
     7
370
    13
100
AcDbLine
 10
94.741181
 20
24.01102
 30
0.0
 11
97.5
 21
23.271797
 31
0.0
  0
LINE
  5
122
330
79
100
AcDbEntity
  8
LC-001-101-D00-0
 62
     7
370
    13
100
AcDbLine
 10
-93.5
 20
0.0
 30
0.0
 11
93.5
 21
0.0
 31
0.0
  0
LINE
  5
123
330
79
100
AcDbEntity
  8
LC-001-101-D00-0
 62
     7
370
    13
100
AcDbLine
 10
-97.5
 20
23.271797
 30
0.0
 11
-94.741181
 21
24.01102
 31
0.0
  0
LINE
  5
124
330
79
100
AcDbEntity
  8
LC-001-101-D00-0
 62
     7
370
    13
100
AcDbLine
 10
-94.741181
 20
30.032573
 30
0.0
 11
-97.5
 21
30.771797
 31
0.0
  0
LINE
  5
125
330
79
100
AcDbEntity
  8
LC-001-101-D00-0
 62
     7
370
    13
100
AcDbLine
 10
-94.0
 20
29.066648
 30
0.0
 11
-94.0
 21
24.976946
 31
0.0
  0
LINE
  5
126
330
79
100
AcDbEntity
  8
LC-001-101-D00-0
 62
     7
370
    13
100
AcDbLine
 10
-97.5
 20
20.771797
 30
0.0
 11
-97.5
 21
23.271797
 31
0.0
  0
LINE
  5
127
330
79
100
AcDbEntity
  8
LC-001-101-D00-0
 62
     7
370
    13
100
AcDbLine
 10
-97.5
 20
13.271797
 30
0.0
 11
-94.741181
 21
14.01102
 31
0.0
  0
LINE
  5
128
330
79
100
AcDbEntity
  8
LC-001-101-D00-0
 62
     7
370
    13
100
AcDbLine
 10
-94.741181
 20
20.032573
 30
0.0
 11
-97.5
 21
20.771797
 31
0.0
  0
LINE
  5
129
330
79
100
AcDbEntity
  8
LC-001-101-D00-0
 62
     7
370
    13
100
AcDbLine
 10
-94.0
 20
19.066648
 30
0.0
 11
-94.0
 21
14.976946
 31
0.0
  0
LINE
  5
12A
330
79
100
AcDbEntity
  8
LC-001-101-D00-0
 62
     7
370
    13
100
AcDbLine
 10
-93.5
 20
0.0
 30
0.0
 11
-97.5
 21
1.071797
 31
0.0
  0
LINE
  5
12B
330
79
100
AcDbEntity
  8
LC-001-101-D00-0
 62
     7
370
    13
100
AcDbLine
 10
-97.5
 20
1.071797
 30
0.0
 11
-97.5
 21
3.471797
 31
0.0
  0
LINE
  5
12C
330
79
100
AcDbEntity
  8
LC-001-101-D00-0
 62
     7
370
    13
100
AcDbLine
 10
-97.5
 20
3.471797
 30
0.0
 11
-94.741181
 21
4.21102
 31
0.0
  0
LINE
  5
12D
330
79
100
AcDbEntity
  8
LC-001-101-D00-0
 62
     7
370
    13
100
AcDbLine
 10
-94.741181
 20
10.032573
 30
0.0
 11
-97.5
 21
10.771797
 31
0.0
  0
LINE
  5
12E
330
79
100
AcDbEntity
  8
LC-001-101-D00-0
 62
     7
370
    13
100
AcDbLine
 10
-94.0
 20
9.066648
 30
0.0
 11
-94.0
 21
5.176946
 31
0.0
  0
LINE
  5
12F
330
79
100
AcDbEntity
  8
LC-001-101-D00-0
 62
     7
370
    13
100
AcDbLine
 10
-94.0
 20
5.176946
 30
0.0
 11
94.0
 21
5.176946
 31
0.0
  0
LINE
  5
130
330
79
100
AcDbEntity
  8
LC-001-101-D00-0
 62
     7
370
    13
100
AcDbLine
 10
-94.741181
 20
10.032573
 30
0.0
 11
94.741181
 21
10.032573
 31
0.0
  0
LINE
  5
131
330
79
100
AcDbEntity
  8
LC-001-101-D00-0
 62
     7
370
    13
100
AcDbLine
 10
-97.5
 20
3.471797
 30
0.0
 11
97.5
 21
3.471797
 31
0.0
  0
LINE
  5
132
330
79
100
AcDbEntity
  8
LC-001-101-D00-0
 62
     7
370
    13
100
AcDbLine
 10
-97.5
 20
10.771797
 30
0.0
 11
-97.5
 21
13.271797
 31
0.0
  0
LINE
  5
133
330
79
100
AcDbEntity
  8
LC-001-101-D00-0
 62
     7
370
    13
100
AcDbLine
 10
-97.5
 20
13.271797
 30
0.0
 11
97.5
 21
13.271797
 31
0.0
  0
LINE
  5
134
330
79
100
AcDbEntity
  8
LC-001-101-D00-0
 62
     7
370
    13
100
AcDbLine
 10
-94.0
 20
14.976946
 30
0.0
 11
94.0
 21
14.976946
 31
0.0
  0
LINE
  5
135
330
79
100
AcDbEntity
  8
LC-001-101-D00-0
 62
     7
370
    13
100
AcDbLine
 10
-94.0
 20
19.066648
 30
0.0
 11
94.0
 21
19.066648
 31
0.0
  0
LINE
  5
136
330
79
100
AcDbEntity
  8
LC-001-101-D00-0
 62
     7
370
    13
100
AcDbLine
 10
-97.5
 20
23.271797
 30
0.0
 11
97.5
 21
23.271797
 31
0.0
  0
LINE
  5
137
330
79
100
AcDbEntity
  8
LC-001-101-D00-0
 62
     7
370
    13
100
AcDbLine
 10
-94.741181
 20
94.01102
 30
0.0
 11
94.741181
 21
94.01102
 31
0.0
  0
LINE
  5
138
330
79
100
AcDbEntity
  8
LC-001-101-D00-0
 62
     7
370
    13
100
AcDbLine
 10
-97.5
 20
93.271797
 30
0.0
 11
97.5
 21
93.271797
 31
0.0
  0
LINE
  5
139
330
79
100
AcDbEntity
  8
LC-001-101-D00-0
 62
     7
370
    13
100
AcDbLine
 10
-94.741181
 20
90.032573
 30
0.0
 11
94.741181
 21
90.032573
 31
0.0
  0
LINE
  5
13A
330
79
100
AcDbEntity
  8
LC-001-101-D00-0
 62
     7
370
    13
100
AcDbLine
 10
-94.0
 20
84.976946
 30
0.0
 11
94.0
 21
84.976946
 31
0.0
  0
LINE
  5
13B
330
79
100
AcDbEntity
  8
LC-001-101-D00-0
 62
     7
370
    13
100
AcDbLine
 10
-97.5
 20
83.271797
 30
0.0
 11
97.5
 21
83.271797
 31
0.0
  0
LINE
  5
13C
330
79
100
AcDbEntity
  8
LC-001-101-D00-0
 62
     7
370
    13
100
AcDbLine
 10
-94.0
 20
74.976946
 30
0.0
 11
94.0
 21
74.976946
 31
0.0
  0
LINE
  5
13D
330
79
100
AcDbEntity
  8
LC-001-101-D00-0
 62
     7
370
    13
100
AcDbLine
 10
-97.5
 20
73.271797
 30
0.0
 11
97.5
 21
73.271797
 31
0.0
  0
LINE
  5
13E
330
79
100
AcDbEntity
  8
LC-001-101-D00-0
 62
     7
370
    13
100
AcDbLine
 10
-97.5
 20
70.771797
 30
0.0
 11
0.0
 21
70.771797
 31
0.0
  0
LINE
  5
13F
330
79
100
AcDbEntity
  8
LC-001-101-D00-0
 62
     7
370
    13
100
AcDbLine
 10
-94.741181
 20
70.032573
 30
0.0
 11
0.0
 21
70.032573
 31
0.0
  0
LINE
  5
140
330
79
100
AcDbEntity
  8
LC-001-101-D00-0
 62
     7
370
    13
100
AcDbLine
 10
-94.0
 20
69.066648
 30
0.0
 11
0.0
 21
69.066648
 31
0.0
  0
LINE
  5
141
330
79
100
AcDbEntity
  8
LC-001-101-D00-0
 62
     7
370
    13
100
AcDbLine
 10
-94.0
 20
64.976946
 30
0.0
 11
0.0
 21
64.976946
 31
0.0
  0
LINE
  5
142
330
79
100
AcDbEntity
  8
LC-001-101-D00-0
 62
     7
370
    13
100
AcDbLine
 10
-94.741181
 20
64.01102
 30
0.0
 11
0.0
 21
64.01102
 31
0.0
  0
LINE
  5
143
330
79
100
AcDbEntity
  8
LC-001-101-D00-0
 62
     7
370
    13
100
AcDbLine
 10
-97.5
 20
63.271797
 30
0.0
 11
0.0
 21
63.271797
 31
0.0
  0
LINE
  5
144
330
79
100
AcDbEntity
  8
LC-001-101-D00-0
 62
     7
370
    13
100
AcDbLine
 10
-97.5
 20
60.771797
 30
0.0
 11
0.0
 21
60.771797
 31
0.0
  0
LINE
  5
145
330
79
100
AcDbEntity
  8
LC-001-101-D00-0
 62
     7
370
    13
100
AcDbLine
 10
-94.741181
 20
60.032573
 30
0.0
 11
0.0
 21
60.032573
 31
0.0
  0
LINE
  5
146
330
79
100
AcDbEntity
  8
LC-001-101-D00-0
 62
     7
370
    13
100
AcDbLine
 10
-94.0
 20
59.066648
 30
0.0
 11
0.0
 21
59.066648
 31
0.0
  0
LINE
  5
147
330
79
100
AcDbEntity
  8
LC-001-101-D00-0
 62
     7
370
    13
100
AcDbLine
 10
-94.0
 20
54.976946
 30
0.0
 11
0.0
 21
54.976946
 31
0.0
  0
LINE
  5
148
330
79
100
AcDbEntity
  8
LC-001-101-D00-0
 62
     7
370
    13
100
AcDbLine
 10
-94.741181
 20
54.01102
 30
0.0
 11
0.0
 21
54.01102
 31
0.0
  0
LINE
  5
149
330
79
100
AcDbEntity
  8
LC-001-101-D00-0
 62
     7
370
    13
100
AcDbLine
 10
-97.5
 20
53.271797
 30
0.0
 11
0.0
 21
53.271797
 31
0.0
  0
LINE
  5
14A
330
79
100
AcDbEntity
  8
LC-001-101-D00-0
 62
     7
370
    13
100
AcDbLine
 10
-97.5
 20
50.771797
 30
0.0
 11
0.0
 21
50.771797
 31
0.0
  0
LINE
  5
14B
330
79
100
AcDbEntity
  8
LC-001-101-D00-0
 62
     7
370
    13
100
AcDbLine
 10
-94.741181
 20
50.032573
 30
0.0
 11
0.0
 21
50.032573
 31
0.0
  0
LINE
  5
14C
330
79
100
AcDbEntity
  8
LC-001-101-D00-0
 62
     7
370
    13
100
AcDbLine
 10
-94.0
 20
49.066648
 30
0.0
 11
0.0
 21
49.066648
 31
0.0
  0
LINE
  5
14D
330
79
100
AcDbEntity
  8
LC-001-101-D00-0
 62
     7
370
    13
100
AcDbLine
 10
-94.0
 20
44.976946
 30
0.0
 11
0.0
 21
44.976946
 31
0.0
  0
LINE
  5
14E
330
79
100
AcDbEntity
  8
LC-001-101-D00-0
 62
     7
370
    13
100
AcDbLine
 10
-94.741181
 20
44.01102
 30
0.0
 11
0.0
 21
44.01102
 31
0.0
  0
LINE
  5
14F
330
79
100
AcDbEntity
  8
LC-001-101-D00-0
 62
     7
370
    13
100
AcDbLine
 10
-97.5
 20
43.271797
 30
0.0
 11
0.0
 21
43.271797
 31
0.0
  0
LINE
  5
150
330
79
100
AcDbEntity
  8
LC-001-101-D00-0
 62
     7
370
    13
100
AcDbLine
 10
-94.741181
 20
40.032573
 30
0.0
 11
94.741181
 21
40.032573
 31
0.0
  0
LINE
  5
151
330
79
100
AcDbEntity
  8
LC-001-101-D00-0
 62
     7
370
    13
100
AcDbLine
 10
-94.0
 20
34.976946
 30
0.0
 11
94.0
 21
34.976946
 31
0.0
  0
LINE
  5
152
330
79
100
AcDbEntity
  8
LC-001-101-D00-0
 62
     7
370
    13
100
AcDbLine
 10
-97.5
 20
33.271797
 30
0.0
 11
97.5
 21
33.271797
 31
0.0
  0
LINE
  5
153
330
79
100
AcDbEntity
  8
LC-001-101-D00-0
 62
     7
370
    13
100
AcDbLine
 10
-97.5
 20
30.771797
 30
0.0
 11
-97.5
 21
33.271797
 31
0.0
  0
LINE
  5
154
330
79
100
AcDbEntity
  8
LC-001-101-D00-0
 62
     7
370
    13
100
AcDbLine
 10
-94.0
 20
39.066648
 30
0.0
 11
-94.0
 21
34.976946
 31
0.0
  0
LINE
  5
155
330
79
100
AcDbEntity
  8
LC-001-101-D00-0
 62
     7
370
    13
100
AcDbLine
 10
-94.741181
 20
40.032573
 30
0.0
 11
-97.5
 21
40.771797
 31
0.0
  0
LINE
  5
156
330
79
100
AcDbEntity
  8
LC-001-101-D00-0
 62
     7
370
    13
100
AcDbLine
 10
-97.5
 20
33.271797
 30
0.0
 11
-94.741181
 21
34.01102
 31
0.0
  0
LINE
  5
157
330
79
100
AcDbEntity
  8
LC-001-101-D00-0
 62
     7
370
    13
100
AcDbLine
 10
-97.5
 20
40.771797
 30
0.0
 11
-97.5
 21
43.271797
 31
0.0
  0
LINE
  5
158
330
79
100
AcDbEntity
  8
LC-001-101-D00-0
 62
     7
370
    13
100
AcDbLine
 10
-94.0
 20
49.066648
 30
0.0
 11
-94.0
 21
44.976946
 31
0.0
  0
LINE
  5
159
330
79
100
AcDbEntity
  8
LC-001-101-D00-0
 62
     7
370
    13
100
AcDbLine
 10
-94.741181
 20
50.032573
 30
0.0
 11
-97.5
 21
50.771797
 31
0.0
  0
LINE
  5
15A
330
79
100
AcDbEntity
  8
LC-001-101-D00-0
 62
     7
370
    13
100
AcDbLine
 10
-97.5
 20
43.271797
 30
0.0
 11
-94.741181
 21
44.01102
 31
0.0
  0
LINE
  5
15B
330
79
100
AcDbEntity
  8
LC-001-101-D00-0
 62
     7
370
    13
100
AcDbLine
 10
-97.5
 20
50.771797
 30
0.0
 11
-97.5
 21
53.271797
 31
0.0
  0
LINE
  5
15C
330
79
100
AcDbEntity
  8
LC-001-101-D00-0
 62
     7
370
    13
100
AcDbLine
 10
-94.0
 20
59.066648
 30
0.0
 11
-94.0
 21
54.976946
 31
0.0
  0
LINE
  5
15D
330
79
100
AcDbEntity
  8
LC-001-101-D00-0
 62
     7
370
    13
100
AcDbLine
 10
-94.741181
 20
60.032573
 30
0.0
 11
-97.5
 21
60.771797
 31
0.0
  0
LINE
  5
15E
330
79
100
AcDbEntity
  8
LC-001-101-D00-0
 62
     7
370
    13
100
AcDbLine
 10
-97.5
 20
53.271797
 30
0.0
 11
-94.741181
 21
54.01102
 31
0.0
  0
LINE
  5
15F
330
79
100
AcDbEntity
  8
LC-001-101-D00-0
 62
     7
370
    13
100
AcDbLine
 10
-97.5
 20
60.771797
 30
0.0
 11
-97.5
 21
63.271797
 31
0.0
  0
LINE
  5
160
330
79
100
AcDbEntity
  8
LC-001-101-D00-0
 62
     7
370
    13
100
AcDbLine
 10
-94.0
 20
69.066648
 30
0.0
 11
-94.0
 21
64.976946
 31
0.0
  0
LINE
  5
161
330
79
100
AcDbEntity
  8
LC-001-101-D00-0
 62
     7
370
    13
100
AcDbLine
 10
-94.741181
 20
70.032573
 30
0.0
 11
-97.5
 21
70.771797
 31
0.0
  0
LINE
  5
162
330
79
100
AcDbEntity
  8
LC-001-101-D00-0
 62
     7
370
    13
100
AcDbLine
 10
-97.5
 20
63.271797
 30
0.0
 11
-94.741181
 21
64.01102
 31
0.0
  0
LINE
  5
163
330
79
100
AcDbEntity
  8
LC-001-101-D00-0
 62
     7
370
    13
100
AcDbLine
 10
-97.5
 20
70.771797
 30
0.0
 11
-97.5
 21
73.271797
 31
0.0
  0
LINE
  5
164
330
79
100
AcDbEntity
  8
LC-001-101-D00-0
 62
     7
370
    13
100
AcDbLine
 10
-94.0
 20
79.066648
 30
0.0
 11
-94.0
 21
74.976946
 31
0.0
  0
LINE
  5
165
330
79
100
AcDbEntity
  8
LC-001-101-D00-0
 62
     7
370
    13
100
AcDbLine
 10
-94.741181
 20
80.032573
 30
0.0
 11
-97.5
 21
80.771797
 31
0.0
  0
LINE
  5
166
330
79
100
AcDbEntity
  8
LC-001-101-D00-0
 62
     7
370
    13
100
AcDbLine
 10
-97.5
 20
73.271797
 30
0.0
 11
-94.741181
 21
74.01102
 31
0.0
  0
LINE
  5
167
330
79
100
AcDbEntity
  8
LC-001-101-D00-0
 62
     7
370
    13
100
AcDbLine
 10
-97.5
 20
80.771797
 30
0.0
 11
-97.5
 21
83.271797
 31
0.0
  0
LINE
  5
168
330
79
100
AcDbEntity
  8
LC-001-101-D00-0
 62
     7
370
    13
100
AcDbLine
 10
-94.0
 20
89.066648
 30
0.0
 11
-94.0
 21
84.976946
 31
0.0
  0
LINE
  5
169
330
79
100
AcDbEntity
  8
LC-001-101-D00-0
 62
     7
370
    13
100
AcDbLine
 10
-94.741181
 20
90.032573
 30
0.0
 11
-97.5
 21
90.771797
 31
0.0
  0
LINE
  5
16A
330
79
100
AcDbEntity
  8
LC-001-101-D00-0
 62
     7
370
    13
100
AcDbLine
 10
-97.5
 20
83.271797
 30
0.0
 11
-94.741181
 21
84.01102
 31
0.0
  0
LINE
  5
16B
330
79
100
AcDbEntity
  8
LC-001-101-D00-0
 62
     7
370
    13
100
AcDbLine
 10
-97.5
 20
90.771797
 30
0.0
 11
-97.5
 21
93.271797
 31
0.0
  0
LINE
  5
16C
330
79
100
AcDbEntity
  8
LC-001-101-D00-0
 62
     7
370
    13
100
AcDbLine
 10
-97.5
 20
93.271797
 30
0.0
 11
-94.741181
 21
94.01102
 31
0.0
  0
LINE
  5
16D
330
79
100
AcDbEntity
  8
LC-001-101-D00-0
 62
     7
370
    13
100
AcDbLine
 10
-94.741181
 20
84.01102
 30
0.0
 11
94.741181
 21
84.01102
 31
0.0
  0
LINE
  5
16F
330
79
100
AcDbEntity
  8
LC-001-101-D00-0
  6
DIVIDE
 62
     7
370
    25
100
AcDbLine
 10
0.0
 20
129.352304
 30
0.0
 11
0.0
 21
-4.236067
 31
0.0
  0
LINE
  5
170
330
79
100
AcDbEntity
  8
LC-001-101-D00-0
 62
     7
370
    13
100
AcDbLine
 10
94.000234
 20
94.998599
 30
0.0
 11
-94.000234
 21
94.998599
 31
0.0
  0
LINE
  5
171
330
79
100
AcDbEntity
  8
LC-001-101-D00-0
  6
DASHDOT
 62
     7
370
    25
100
AcDbLine
 10
105.897095
 20
103.998599
 30
0.0
 11
98.0
 21
103.998599
 31
0.0
  0
ENDBLK
  5
7B
330
79
100
AcDbEntity
  8
0
100
AcDbBlockEnd
  0
BLOCK
  5
174
330
173
100
AcDbEntity
  8
0
100
AcDbBlockBegin
  2
KLON3
 70
     0
 71
     0
 10
0.0
 20
0.0
 30
0.0
  3
KLON3
  1

  4
KLON3
  0
INSERT
  5
19B
330
173
100
AcDbEntity
  8
LC-002-100-D00-0
 62
     7
370
    35
100
AcDbBlockReference
  2
KLON4
 10
0.0
 20
0.0
 30
0.0
  0
INSERT
  5
1C1
330
173
100
AcDbEntity
  8
LC-002-100-D00-0
 62
     7
370
    35
100
AcDbBlockReference
  2
KLON5
 10
0.0
 20
0.0
 30
0.0
  0
CIRCLE
  5
1C2
330
173
100
AcDbEntity
  8
LC-002-100-D00-0
 62
     7
370
    13
100
AcDbCircle
 10
96.247574
 20
7.191354
 30
0.0
 40
2.25
  0
CIRCLE
  5
1C3
330
173
100
AcDbEntity
  8
LC-002-100-D00-0
 62
     7
370
    13
100
AcDbCircle
 10
-96.252426
 20
7.191354
 30
0.0
 40
2.25
  0
ENDBLK
  5
175
330
173
100
AcDbEntity
  8
0
100
AcDbBlockEnd
  0
BLOCK
  5
177
330
176
100
AcDbEntity
  8
0
100
AcDbBlockBegin
  2
KLON4
 70
     0
 71
     0
 10
0.0
 20
0.0
 30
0.0
  3
KLON4
  1

  4
KLON4
  0
LINE
  5
179
330
176
100
AcDbEntity
  8
LC-002-100-D00-0
 62
     7
370
    35
100
AcDbLine
 10
95.49767
 20
5.07
 30
0.0
 11
96.997479
 21
5.07
 31
0.0
  0
LINE
  5
17A
330
176
100
AcDbEntity
  8
LC-002-100-D00-0
 62
     7
370
    35
100
AcDbLine
 10
95.200192
 20
5.2
 30
0.0
 11
97.294956
 21
5.2
 31
0.0
  0
LINE
  5
17B
330
176
100
AcDbEntity
  8
LC-002-100-D00-0
 62
     7
370
    35
100
AcDbLine
 10
94.983509
 20
5.33
 30
0.0
 11
97.511639
 21
5.33
 31
0.0
  0
LINE
  5
17C
330
176
100
AcDbEntity
  8
LC-002-100-D00-0
 62
     7
370
    35
100
AcDbLine
 10
94.810594
 20
5.46
 30
0.0
 11
97.684555
 21
5.46
 31
0.0
  0
LINE
  5
17D
330
176
100
AcDbEntity
  8
LC-002-100-D00-0
 62
     7
370
    35
100
AcDbLine
 10
94.667016
 20
5.59
 30
0.0
 11
97.828133
 21
5.59
 31
0.0
  0
LINE
  5
17E
330
176
100
AcDbEntity
  8
LC-002-100-D00-0
 62
     7
370
    35
100
AcDbLine
 10
94.545335
 20
5.72
 30
0.0
 11
97.949813
 21
5.72
 31
0.0
  0
LINE
  5
17F
330
176
100
AcDbEntity
  8
LC-002-100-D00-0
 62
     7
370
    35
100
AcDbLine
 10
94.441122
 20
5.85
 30
0.0
 11
98.054026
 21
5.85
 31
0.0
  0
LINE
  5
180
330
176
100
AcDbEntity
  8
LC-002-100-D00-0
 62
     7
370
    35
100
AcDbLine
 10
94.351494
 20
5.98
 30
0.0
 11
98.143655
 21
5.98
 31
0.0
  0
LINE
  5
181
330
176
100
AcDbEntity
  8
LC-002-100-D00-0
 62
     7
370
    35
100
AcDbLine
 10
94.274462
 20
6.11
 30
0.0
 11
98.220687
 21
6.11
 31
0.0
  0
LINE
  5
182
330
176
100
AcDbEntity
  8
LC-002-100-D00-0
 62
     7
370
    35
100
AcDbLine
 10
94.208598
 20
6.24
 30
0.0
 11
98.286551
 21
6.24
 31
0.0
  0
LINE
  5
183
330
176
100
AcDbEntity
  8
LC-002-100-D00-0
 62
     7
370
    35
100
AcDbLine
 10
94.152848
 20
6.37
 30
0.0
 11
98.3423
 21
6.37
 31
0.0
  0
LINE
  5
184
330
176
100
AcDbEntity
  8
LC-002-100-D00-0
 62
     7
370
    35
100
AcDbLine
 10
94.106423
 20
6.5
 30
0.0
 11
98.388726
 21
6.5
 31
0.0
  0
LINE
  5
185
330
176
100
AcDbEntity
  8
LC-002-100-D00-0
 62
     7
370
    35
100
AcDbLine
 10
94.068725
 20
6.63
 30
0.0
 11
98.426423
 21
6.63
 31
0.0
  0
LINE
  5
186
330
176
100
AcDbEntity
  8
LC-002-100-D00-0
 62
     7
370
    35
100
AcDbLine
 10
94.039309
 20
6.76
 30
0.0
 11
98.455839
 21
6.76
 31
0.0
  0
LINE
  5
187
330
176
100
AcDbEntity
  8
LC-002-100-D00-0
 62
     7
370
    35
100
AcDbLine
 10
94.017846
 20
6.89
 30
0.0
 11
98.477302
 21
6.89
 31
0.0
  0
LINE
  5
188
330
176
100
AcDbEntity
  8
LC-002-100-D00-0
 62
     7
370
    35
100
AcDbLine
 10
94.004109
 20
7.02
 30
0.0
 11
98.49104
 21
7.02
 31
0.0
  0
LINE
  5
189
330
176
100
AcDbEntity
  8
LC-002-100-D00-0
 62
     7
370
    35
100
AcDbLine
 10
93.997954
 20
7.15
 30
0.0
 11
98.497194
 21
7.15
 31
0.0
  0
LINE
  5
18A
330
176
100
AcDbEntity
  8
LC-002-100-D00-0
 62
     7
370
    35
100
AcDbLine
 10
93.999321
 20
7.28
 30
0.0
 11
98.495827
 21
7.28
 31
0.0
  0
LINE
  5
18B
330
176
100
AcDbEntity
  8
LC-002-100-D00-0
 62
     7
370
    35
100
AcDbLine
 10
94.008223
 20
7.41
 30
0.0
 11
98.486925
 21
7.41
 31
0.0
  0
LINE
  5
18C
330
176
100
AcDbEntity
  8
LC-002-100-D00-0
 62
     7
370
    35
100
AcDbLine
 10
94.02475
 20
7.54
 30
0.0
 11
98.470398
 21
7.54
 31
0.0
  0
LINE
  5
18D
330
176
100
AcDbEntity
  8
LC-002-100-D00-0
 62
     7
370
    35
100
AcDbLine
 10
94.049075
 20
7.67
 30
0.0
 11
98.446073
 21
7.67
 31
0.0
  0
LINE
  5
18E
330
176
100
AcDbEntity
  8
LC-002-100-D00-0
 62
     7
370
    35
100
AcDbLine
 10
94.08146
 20
7.8
 30
0.0
 11
98.413688
 21
7.8
 31
0.0
  0
LINE
  5
18F
330
176
100
AcDbEntity
  8
LC-002-100-D00-0
 62
     7
370
    35
100
AcDbLine
 10
94.122274
 20
7.93
 30
0.0
 11
98.372875
 21
7.93
 31
0.0
  0
LINE
  5
190
330
176
100
AcDbEntity
  8
LC-002-100-D00-0
 62
     7
370
    35
100
AcDbLine
 10
94.172013
 20
8.06
 30
0.0
 11
98.323135
 21
8.06
 31
0.0
  0
LINE
  5
191
330
176
100
AcDbEntity
  8
LC-002-100-D00-0
 62
     7
370
    35
100
AcDbLine
 10
94.231338
 20
8.19
 30
0.0
 11
98.26381
 21
8.19
 31
0.0
  0
LINE
  5
192
330
176
100
AcDbEntity
  8
LC-002-100-D00-0
 62
     7
370
    35
100
AcDbLine
 10
94.301126
 20
8.32
 30
0.0
 11
98.194022
 21
8.32
 31
0.0
  0
LINE
  5
193
330
176
100
AcDbEntity
  8
LC-002-100-D00-0
 62
     7
370
    35
100
AcDbLine
 10
94.382551
 20
8.45
 30
0.0
 11
98.112597
 21
8.45
 31
0.0
  0
LINE
  5
194
330
176
100
AcDbEntity
  8
LC-002-100-D00-0
 62
     7
370
    35
100
AcDbLine
 10
94.477217
 20
8.58
 30
0.0
 11
98.017931
 21
8.58
 31
0.0
  0
LINE
  5
195
330
176
100
AcDbEntity
  8
LC-002-100-D00-0
 62
     7
370
    35
100
AcDbLine
 10
94.587389
 20
8.71
 30
0.0
 11
97.907759
 21
8.71
 31
0.0
  0
LINE
  5
196
330
176
100
AcDbEntity
  8
LC-002-100-D00-0
 62
     7
370
    35
100
AcDbLine
 10
94.716409
 20
8.84
 30
0.0
 11
97.778739
 21
8.84
 31
0.0
  0
LINE
  5
197
330
176
100
AcDbEntity
  8
LC-002-100-D00-0
 62
     7
370
    35
100
AcDbLine
 10
94.869561
 20
8.97
 30
0.0
 11
97.625587
 21
8.97
 31
0.0
  0
LINE
  5
198
330
176
100
AcDbEntity
  8
LC-002-100-D00-0
 62
     7
370
    35
100
AcDbLine
 10
95.056117
 20
9.1
 30
0.0
 11
97.439032
 21
9.1
 31
0.0
  0
LINE
  5
199
330
176
100
AcDbEntity
  8
LC-002-100-D00-0
 62
     7
370
    35
100
AcDbLine
 10
95.295512
 20
9.23
 30
0.0
 11
97.199637
 21
9.23
 31
0.0
  0
LINE
  5
19A
330
176
100
AcDbEntity
  8
LC-002-100-D00-0
 62
     7
370
    35
100
AcDbLine
 10
95.648012
 20
9.36
 30
0.0
 11
96.847137
 21
9.36
 31
0.0
  0
ENDBLK
  5
178
330
176
100
AcDbEntity
  8
0
100
AcDbBlockEnd
  0
BLOCK
  5
19D
330
19C
100
AcDbEntity
  8
0
100
AcDbBlockBegin
  2
KLON5
 70
     0
 71
     0
 10
0.0
 20
0.0
 30
0.0
  3
KLON5
  1

  4
KLON5
  0
LINE
  5
19F
330
19C
100
AcDbEntity
  8
LC-002-100-D00-0
 62
     7
370
    35
100
AcDbLine
 10
-97.00233
 20
5.07
 30
0.0
 11
-95.502521
 21
5.07
 31
0.0
  0
LINE
  5
1A0
330
19C
100
AcDbEntity
  8
LC-002-100-D00-0
 62
     7
370
    35
100
AcDbLine
 10
-97.299808
 20
5.2
 30
0.0
 11
-95.205044
 21
5.2
 31
0.0
  0
LINE
  5
1A1
330
19C
100
AcDbEntity
  8
LC-002-100-D00-0
 62
     7
370
    35
100
AcDbLine
 10
-97.516491
 20
5.33
 30
0.0
 11
-94.988361
 21
5.33
 31
0.0
  0
LINE
  5
1A2
330
19C
100
AcDbEntity
  8
LC-002-100-D00-0
 62
     7
370
    35
100
AcDbLine
 10
-97.689406
 20
5.46
 30
0.0
 11
-94.815445
 21
5.46
 31
0.0
  0
LINE
  5
1A3
330
19C
100
AcDbEntity
  8
LC-002-100-D00-0
 62
     7
370
    35
100
AcDbLine
 10
-97.832984
 20
5.59
 30
0.0
 11
-94.671867
 21
5.59
 31
0.0
  0
LINE
  5
1A4
330
19C
100
AcDbEntity
  8
LC-002-100-D00-0
 62
     7
370
    35
100
AcDbLine
 10
-97.954665
 20
5.72
 30
0.0
 11
-94.550187
 21
5.72
 31
0.0
  0
LINE
  5
1A5
330
19C
100
AcDbEntity
  8
LC-002-100-D00-0
 62
     7
370
    35
100
AcDbLine
 10
-98.058878
 20
5.85
 30
0.0
 11
-94.445974
 21
5.85
 31
0.0
  0
LINE
  5
1A6
330
19C
100
AcDbEntity
  8
LC-002-100-D00-0
 62
     7
370
    35
100
AcDbLine
 10
-98.148506
 20
5.98
 30
0.0
 11
-94.356345
 21
5.98
 31
0.0
  0
LINE
  5
1A7
330
19C
100
AcDbEntity
  8
LC-002-100-D00-0
 62
     7
370
    35
100
AcDbLine
 10
-98.225538
 20
6.11
 30
0.0
 11
-94.279313
 21
6.11
 31
0.0
  0
LINE
  5
1A8
330
19C
100
AcDbEntity
  8
LC-002-100-D00-0
 62
     7
370
    35
100
AcDbLine
 10
-98.291402
 20
6.24
 30
0.0
 11
-94.213449
 21
6.24
 31
0.0
  0
LINE
  5
1A9
330
19C
100
AcDbEntity
  8
LC-002-100-D00-0
 62
     7
370
    35
100
AcDbLine
 10
-98.347152
 20
6.37
 30
0.0
 11
-94.1577
 21
6.37
 31
0.0
  0
LINE
  5
1AA
330
19C
100
AcDbEntity
  8
LC-002-100-D00-0
 62
     7
370
    35
100
AcDbLine
 10
-98.393577
 20
6.5
 30
0.0
 11
-94.111274
 21
6.5
 31
0.0
  0
LINE
  5
1AB
330
19C
100
AcDbEntity
  8
LC-002-100-D00-0
 62
     7
370
    35
100
AcDbLine
 10
-98.431275
 20
6.63
 30
0.0
 11
-94.073577
 21
6.63
 31
0.0
  0
LINE
  5
1AC
330
19C
100
AcDbEntity
  8
LC-002-100-D00-0
 62
     7
370
    35
100
AcDbLine
 10
-98.460691
 20
6.76
 30
0.0
 11
-94.044161
 21
6.76
 31
0.0
  0
LINE
  5
1AD
330
19C
100
AcDbEntity
  8
LC-002-100-D00-0
 62
     7
370
    35
100
AcDbLine
 10
-98.482154
 20
6.89
 30
0.0
 11
-94.022698
 21
6.89
 31
0.0
  0
LINE
  5
1AE
330
19C
100
AcDbEntity
  8
LC-002-100-D00-0
 62
     7
370
    35
100
AcDbLine
 10
-98.495891
 20
7.02
 30
0.0
 11
-94.00896
 21
7.02
 31
0.0
  0
LINE
  5
1AF
330
19C
100
AcDbEntity
  8
LC-002-100-D00-0
 62
     7
370
    35
100
AcDbLine
 10
-98.502046
 20
7.15
 30
0.0
 11
-94.002806
 21
7.15
 31
0.0
  0
LINE
  5
1B0
330
19C
100
AcDbEntity
  8
LC-002-100-D00-0
 62
     7
370
    35
100
AcDbLine
 10
-98.500679
 20
7.28
 30
0.0
 11
-94.004173
 21
7.28
 31
0.0
  0
LINE
  5
1B1
330
19C
100
AcDbEntity
  8
LC-002-100-D00-0
 62
     7
370
    35
100
AcDbLine
 10
-98.491777
 20
7.41
 30
0.0
 11
-94.013075
 21
7.41
 31
0.0
  0
LINE
  5
1B2
330
19C
100
AcDbEntity
  8
LC-002-100-D00-0
 62
     7
370
    35
100
AcDbLine
 10
-98.47525
 20
7.54
 30
0.0
 11
-94.029602
 21
7.54
 31
0.0
  0
LINE
  5
1B3
330
19C
100
AcDbEntity
  8
LC-002-100-D00-0
 62
     7
370
    35
100
AcDbLine
 10
-98.450925
 20
7.67
 30
0.0
 11
-94.053927
 21
7.67
 31
0.0
  0
LINE
  5
1B4
330
19C
100
AcDbEntity
  8
LC-002-100-D00-0
 62
     7
370
    35
100
AcDbLine
 10
-98.41854
 20
7.8
 30
0.0
 11
-94.086312
 21
7.8
 31
0.0
  0
LINE
  5
1B5
330
19C
100
AcDbEntity
  8
LC-002-100-D00-0
 62
     7
370
    35
100
AcDbLine
 10
-98.377726
 20
7.93
 30
0.0
 11
-94.127125
 21
7.93
 31
0.0
  0
LINE
  5
1B6
330
19C
100
AcDbEntity
  8
LC-002-100-D00-0
 62
     7
370
    35
100
AcDbLine
 10
-98.327987
 20
8.06
 30
0.0
 11
-94.176865
 21
8.06
 31
0.0
  0
LINE
  5
1B7
330
19C
100
AcDbEntity
  8
LC-002-100-D00-0
 62
     7
370
    35
100
AcDbLine
 10
-98.268662
 20
8.19
 30
0.0
 11
-94.23619
 21
8.19
 31
0.0
  0
LINE
  5
1B8
330
19C
100
AcDbEntity
  8
LC-002-100-D00-0
 62
     7
370
    35
100
AcDbLine
 10
-98.198874
 20
8.32
 30
0.0
 11
-94.305978
 21
8.32
 31
0.0
  0
LINE
  5
1B9
330
19C
100
AcDbEntity
  8
LC-002-100-D00-0
 62
     7
370
    35
100
AcDbLine
 10
-98.117449
 20
8.45
 30
0.0
 11
-94.387403
 21
8.45
 31
0.0
  0
LINE
  5
1BA
330
19C
100
AcDbEntity
  8
LC-002-100-D00-0
 62
     7
370
    35
100
AcDbLine
 10
-98.022783
 20
8.58
 30
0.0
 11
-94.482069
 21
8.58
 31
0.0
  0
LINE
  5
1BB
330
19C
100
AcDbEntity
  8
LC-002-100-D00-0
 62
     7
370
    35
100
AcDbLine
 10
-97.912611
 20
8.71
 30
0.0
 11
-94.592241
 21
8.71
 31
0.0
  0
LINE
  5
1BC
330
19C
100
AcDbEntity
  8
LC-002-100-D00-0
 62
     7
370
    35
100
AcDbLine
 10
-97.783591
 20
8.84
 30
0.0
 11
-94.721261
 21
8.84
 31
0.0
  0
LINE
  5
1BD
330
19C
100
AcDbEntity
  8
LC-002-100-D00-0
 62
     7
370
    35
100
AcDbLine
 10
-97.630439
 20
8.97
 30
0.0
 11
-94.874413
 21
8.97
 31
0.0
  0
LINE
  5
1BE
330
19C
100
AcDbEntity
  8
LC-002-100-D00-0
 62
     7
370
    35
100
AcDbLine
 10
-97.443883
 20
9.1
 30
0.0
 11
-95.060968
 21
9.1
 31
0.0
  0
LINE
  5
1BF
330
19C
100
AcDbEntity
  8
LC-002-100-D00-0
 62
     7
370
    35
100
AcDbLine
 10
-97.204488
 20
9.23
 30
0.0
 11
-95.300363
 21
9.23
 31
0.0
  0
LINE
  5
1C0
330
19C
100
AcDbEntity
  8
LC-002-100-D00-0
 62
     7
370
    35
100
AcDbLine
 10
-96.851988
 20
9.36
 30
0.0
 11
-95.652863
 21
9.36
 31
0.0
  0
ENDBLK
  5
19E
330
19C
100
AcDbEntity
  8
0
100
AcDbBlockEnd
  0
BLOCK
  5
1C6
330
1C5
100
AcDbEntity
  8
0
100
AcDbBlockBegin
  2
KLON6
 70
     0
 71
     0
 10
0.0
 20
0.0
 30
0.0
  3
KLON6
  1

  4
KLON6
  0
INSERT
  5
1CB
330
1C5
100
AcDbEntity
  8
LC-001-101-D00-0
 62
     7
370
    13
100
AcDbBlockReference
  2
KLON7
 10
0.0
 20
0.0
 30
0.0
  0
ENDBLK
  5
1C7
330
1C5
100
AcDbEntity
  8
0
100
AcDbBlockEnd
  0
BLOCK
  5
1C9
330
1C8
100
AcDbEntity
  8
0
100
AcDbBlockBegin
  2
KLON7
 70
     0
 71
     0
 10
0.0
 20
0.0
 30
0.0
  3
KLON7
  1

  4
KLON7
  0
ENDBLK
  5
1CA
330
1C8
100
AcDbEntity
  8
0
100
AcDbBlockEnd
  0
ENDSEC
  0
SECTION
  2
ENTITIES
  0
DIMENSION
  5
33
330
1F
100
AcDbEntity
  8
LC-001-101-D00-0
 62
     7
370
    25
100
AcDbDimension
  2
*D1
 10
189.780291
 20
0.0
 30
0.0
 11
158.980291
 21
54.117104
 31
0.0
 70
   160
 71
     5
 42
103.998599
 53
90.0
  3
LC-DIM-L-0140-02-02
100
AcDbAlignedDimension
 13
105.897095
 23
103.998599
 33
0.0
 14
93.5
 24
0.0
 34
0.0
 50
90.0
100
AcDbRotatedDimension
  0
DIMENSION
  5
41
330
1F
100
AcDbEntity
  8
LC-001-101-D00-0
 62
     7
370
    25
100
AcDbDimension
  2
*D2
 10
238.525741
 20
0.0
 30
0.0
 11
207.725741
 21
55.305104
 31
0.0
 70
   160
 71
     5
 42
124.998599
 53
90.0
  3
LC-DIM-L-0140-02-02
100
AcDbAlignedDimension
 13
102.753
 23
124.998599
 33
0.0
 14
93.5
 24
0.0
 34
0.0
 50
90.0
100
AcDbRotatedDimension
  0
DIMENSION
  5
4E
330
1F
100
AcDbEntity
  8
LC-001-101-D00-0
 62
     7
370
    25
100
AcDbDimension
  2
*D3
 10
143.600392
 20
0.0
 30
0.0
 11
112.800392
 21
46.989104
 31
0.0
 70
   160
 71
     5
 42
99.998599
 53
90.0
  3
LC-DIM-L-0140-02-02
100
AcDbAlignedDimension
 13
99.5
 23
99.998599
 33
0.0
 14
93.5
 24
0.0
 34
0.0
 50
90.0
100
AcDbRotatedDimension
  0
DIMENSION
  5
5B
330
1F
100
AcDbEntity
  8
LC-001-101-D00-0
 62
     7
370
    25
100
AcDbDimension
  2
*D4
 10
-97.5
 20
-56.960896
 30
0.0
 11
-7.767057
 21
-26.160896
 31
0.0
 70
   160
  1
%%c<>
 71
     5
 42
195.0
  3
LC-DIM-L-0140-02-02
100
AcDbAlignedDimension
 13
97.5
 23
1.071797
 33
0.0
 14
-97.5
 24
1.071797
 34
0.0
100
AcDbRotatedDimension
  0
DIMENSION
  5
68
330
1F
100
AcDbEntity
  8
LC-001-101-D00-0
 62
     7
370
    25
100
AcDbDimension
  2
*D5
 10
-97.5
 20
148.038416
 30
0.0
 11
-3.573238
 21
178.838416
 31
0.0
 70
   160
  1
%%c<>
 71
     5
 42
195.0
  3
LC-DIM-L-0140-02-02
100
AcDbAlignedDimension
 13
97.5
 23
128.998599
 33
0.0
 14
-97.5
 24
128.998599
 34
0.0
100
AcDbRotatedDimension
  0
INSERT
  5
78
330
1F
100
AcDbEntity
  8
LC-001-101-D00-0
 62
     7
370
    13
100
AcDbBlockReference
  2
KLON1
 10
0.0
 20
0.0
 30
0.0
  0
INSERT
  5
172
330
1F
100
AcDbEntity
  8
LC-001-101-D00-0
 62
     7
370
    50
100
AcDbBlockReference
  2
KLON2
 10
0.0
 20
0.0
 30
0.0
  0
INSERT
  5
1C4
330
1F
100
AcDbEntity
  8
LC-002-100-D00-0
 62
     7
370
    13
100
AcDbBlockReference
  2
KLON3
 10
0.0
 20
0.0
 30
0.0
  0
INSERT
  5
1CC
330
1F
100
AcDbEntity
  8
LC-002-100-D00-0
 62
     7
370
    13
100
AcDbBlockReference
  2
KLON6
 10
0.0
 20
0.0
 30
0.0
  0
ENDSEC
  0
SECTION
  2
OBJECTS
  0
DICTIONARY
  5
C
330
0
100
AcDbDictionary
281
     1
  3
ACAD_GROUP
350
D
  3
ACAD_LAYOUT
350
1A
  3
ACAD_MLINESTYLE
350
17
  3
ACAD_PLOTSETTINGS
350
19
  3
ACAD_PLOTSTYLENAME
350
E
  0
DICTIONARY
  5
D
102
{ACAD_REACTORS
330
C
102
}
330
C
100
AcDbDictionary
281
     1
  0
DICTIONARY
  5
1A
102
{ACAD_REACTORS
330
C
102
}
330
C
100
AcDbDictionary
281
     1
  3
Layout1
350
1E
  3
Layout2
350
26
  3
Model
350
22
  0
DICTIONARY
  5
17
102
{ACAD_REACTORS
330
C
102
}
330
C
100
AcDbDictionary
281
     1
  3
Standard
350
18
  0
DICTIONARY
  5
19
102
{ACAD_REACTORS
330
C
102
}
330
C
100
AcDbDictionary
281
     1
  0
ACDBDICTIONARYWDFLT
  5
E
102
{ACAD_REACTORS
330
C
102
}
330
C
100
AcDbDictionary
281
     1
  3
Normal
350
F
100
AcDbDictionaryWithDefault
340
F
  0
LAYOUT
  5
1E
102
{ACAD_REACTORS
330
1A
102
}
330
1A
100
AcDbPlotSettings
  1

  2

  4

  6

 40
0.0
 41
0.0
 42
0.0
 43
0.0
 44
0.0
 45
0.0
 46
0.0
 47
0.0
 48
0.0
 49
0.0
140
0.0
141
0.0
142
1.0
143
1.0
 70
   688
 72
     0
 73
     0
 74
     5
  7

 75
    16
147
1.0
148
0.0
149
0.0
100
AcDbLayout
  1
Layout1
 70
     1
 71
     1
 10
-405.532291
 20
-235.160896
 11
434.467709
 21
358.839104
 12
0.0
 22
0.0
 32
0.0
 14
-405.532291
 24
-235.160896
 34
0.0
 15
434.467709
 25
358.839104
 35
0.0
146
0.0
 13
0.0
 23
0.0
 33
0.0
 16
1.0
 26
0.0
 36
0.0
 17
0.0
 27
1.0
 37
0.0
 76
     0
330
1B
  0
LAYOUT
  5
26
102
{ACAD_REACTORS
330
1A
102
}
330
1A
100
AcDbPlotSettings
  1

  2

  4

  6

 40
0.0
 41
0.0
 42
0.0
 43
0.0
 44
0.0
 45
0.0
 46
0.0
 47
0.0
 48
0.0
 49
0.0
140
0.0
141
0.0
142
1.0
143
1.0
 70
   688
 72
     0
 73
     0
 74
     5
  7

 75
    16
147
1.0
148
0.0
149
0.0
100
AcDbLayout
  1
Layout2
 70
     1
 71
     2
 10
0.0
 20
0.0
 11
0.0
 21
0.0
 12
0.0
 22
0.0
 32
0.0
 14
0.0
 24
0.0
 34
0.0
 15
0.0
 25
0.0
 35
0.0
146
0.0
 13
0.0
 23
0.0
 33
0.0
 16
1.0
 26
0.0
 36
0.0
 17
0.0
 27
1.0
 37
0.0
 76
     0
330
23
  0
LAYOUT
  5
22
102
{ACAD_REACTORS
330
1A
102
}
330
1A
100
AcDbPlotSettings
  1

  2

  4

  6

 40
0.0
 41
0.0
 42
0.0
 43
0.0
 44
0.0
 45
0.0
 46
0.0
 47
0.0
 48
0.0
 49
0.0
140
0.0
141
0.0
142
1.0
143
1.0
 70
  1776
 72
     0
 73
     0
 74
     0
  7

 75
     0
147
1.0
148
0.0
149
0.0
100
AcDbLayout
  1
Model
 70
     1
 71
     0
 10
-405.532291
 20
-235.160896
 11
434.467709
 21
358.839104
 12
0.0
 22
0.0
 32
0.0
 14
-405.532291
 24
-235.160896
 34
0.0
 15
434.467709
 25
358.839104
 35
0.0
146
0.0
 13
0.0
 23
0.0
 33
0.0
 16
1.0
 26
0.0
 36
0.0
 17
0.0
 27
1.0
 37
0.0
 76
     0
330
1F
  0
MLINESTYLE
  5
18
102
{ACAD_REACTORS
330
17
102
}
330
17
100
AcDbMlineStyle
  2
Standard
 70
     0
  3

 62
   256
 51
90.0
 52
90.0
 71
     2
 49
0.5
 62
   256
  6
BYLAYER
 49
-0.5
 62
   256
  6
BYLAYER
  0
ACDBPLACEHOLDER
  5
F
102
{ACAD_REACTORS
330
E
102
}
330
E
  0
ENDSEC
  0
EOF
