  0
SECTION
  2
HEADER
  9
$ACADVER
  1
AC1015
  9
$ACADMAINTVER
 70
     6
  9
$DWGCODEPAGE
  3
ANSI_1252
  9
$INSBASE
 10
361.268593
 20
1140.669976
 30
0.0
  9
$EXTMIN
 10
361.268593
 20
1140.669976
 30
0.0
  9
$EXTMAX
 10
1201.268593
 20
1734.669976
 30
0.0
  9
$LIMMIN
 10
361.268593
 20
1140.669976
  9
$LIMMAX
 10
1201.268593
 20
1734.669976
  9
$ORTHOMODE
 70
     0
  9
$REGENMODE
 70
     1
  9
$FILLMODE
 70
     1
  9
$QTEXTMODE
 70
     0
  9
$MIRRTEXT
 70
     1
  9
$LTSCALE
 40
2.0
  9
$ATTMODE
 70
     1
  9
$TEXTSIZE
 40
2.5
  9
$TRACEWID
 40
1.0
  9
$TEXTSTYLE
  7
Standard
  9
$CLAYER
  8
0
  9
$CELTYPE
  6
ByLayer
  9
$CECOLOR
 62
     7
  9
$CELTSCALE
 40
1.0
  9
$DISPSILH
 70
     0
  9
$DIMSCALE
 40
2.0
  9
$DIMASZ
 40
3.5
  9
$DIMEXO
 40
0.625
  9
$DIMDLI
 40
3.75
  9
$DIMRND
 40
0.0
  9
$DIMDLE
 40
0.0
  9
$DIMEXE
 40
1.25
  9
$DIMTP
 40
0.0
  9
$DIMTM
 40
0.0
  9
$DIMTXT
 40
3.5
  9
$DIMCEN
 40
2.5
  9
$DIMTSZ
 40
0.0
  9
$DIMTOL
 70
     0
  9
$DIMLIM
 70
     0
  9
$DIMTIH
 70
     0
  9
$DIMTOH
 70
     0
  9
$DIMSE1
 70
     0
  9
$DIMSE2
 70
     0
  9
$DIMTAD
 70
     1
  9
$DIMZIN
 70
     8
  9
$DIMBLK
  1

  9
$DIMASO
 70
     1
  9
$DIMSHO
 70
     1
  9
$DIMPOST
  1

  9
$DIMAPOST
  1

  9
$DIMALT
 70
     0
  9
$DIMALTD
 70
     3
  9
$DIMALTF
 40
0.03937
  9
$DIMLFAC
 40
1.0
  9
$DIMTOFL
 70
     1
  9
$DIMTVP
 40
0.0
  9
$DIMTIX
 70
     0
  9
$DIMSOXD
 70
     0
  9
$DIMSAH
 70
     0
  9
$DIMBLK1
  1

  9
$DIMBLK2
  1

  9
$DIMSTYLE
  2
ISO-25
  9
$DIMCLRD
 70
     0
  9
$DIMCLRE
 70
     0
  9
$DIMCLRT
 70
     0
  9
$DIMTFAC
 40
1.0
  9
$DIMGAP
 40
0.625
  9
$DIMJUST
 70
     0
  9
$DIMSD1
 70
     0
  9
$DIMSD2
 70
     0
  9
$DIMTOLJ
 70
     0
  9
$DIMTZIN
 70
     8
  9
$DIMALTZ
 70
     0
  9
$DIMALTTZ
 70
     0
  9
$DIMUPT
 70
     0
  9
$DIMDEC
 70
     2
  9
$DIMTDEC
 70
     2
  9
$DIMALTU
 70
     2
  9
$DIMALTTD
 70
     3
  9
$DIMTXSTY
  7
Standard
  9
$DIMAUNIT
 70
     0
  9
$DIMADEC
 70
     0
  9
$DIMALTRND
 40
0.0
  9
$DIMAZIN
 70
     0
  9
$DIMDSEP
 70
    44
  9
$DIMATFIT
 70
     3
  9
$DIMFRAC
 70
     0
  9
$DIMLDRBLK
  1

  9
$DIMLUNIT
 70
     2
  9
$DIMLWD
 70
    -2
  9
$DIMLWE
 70
    -2
  9
$DIMTMOVE
 70
     0
  9
$LUNITS
 70
     2
  9
$LUPREC
 70
     4
  9
$SKETCHINC
 40
1.0
  9
$FILLETRAD
 40
10.0
  9
$AUNITS
 70
     0
  9
$AUPREC
 70
     0
  9
$MENU
  1
.
  9
$ELEVATION
 40
0.0
  9
$PELEVATION
 40
0.0
  9
$THICKNESS
 40
0.0
  9
$LIMCHECK
 70
     0
  9
$CHAMFERA
 40
10.0
  9
$CHAMFERB
 40
10.0
  9
$CHAMFERC
 40
20.0
  9
$CHAMFERD
 40
0.0
  9
$SKPOLY
 70
     0
  9
$TDCREATE
 40
2456129.376182222
  9
$TDUCREATE
 40
2456129.292848889
  9
$TDUPDATE
 40
2456129.376182234
  9
$TDUUPDATE
 40
2456129.2928489
  9
$TDINDWG
 40
0.0000000116
  9
$TDUSRTIMER
 40
0.0000000116
  9
$USRTIMER
 70
     1
  9
$ANGBASE
 50
0.0
  9
$ANGDIR
 70
     0
  9
$PDMODE
 70
     0
  9
$PDSIZE
 40
0.0
  9
$PLINEWID
 40
0.0
  9
$SPLFRAME
 70
     0
  9
$SPLINETYPE
 70
     6
  9
$SPLINESEGS
 70
     8
  9
$HANDSEED
  5
53C
  9
$SURFTAB1
 70
     6
  9
$SURFTAB2
 70
     6
  9
$SURFTYPE
 70
     6
  9
$SURFU
 70
     6
  9
$SURFV
 70
     6
  9
$UCSBASE
  2

  9
$UCSNAME
  2

  9
$UCSORG
 10
0.0
 20
0.0
 30
0.0
  9
$UCSXDIR
 10
1.0
 20
0.0
 30
0.0
  9
$UCSYDIR
 10
0.0
 20
1.0
 30
0.0
  9
$UCSORTHOREF
  2

  9
$UCSORTHOVIEW
 70
     0
  9
$UCSORGTOP
 10
0.0
 20
0.0
 30
0.0
  9
$UCSORGBOTTOM
 10
0.0
 20
0.0
 30
0.0
  9
$UCSORGLEFT
 10
0.0
 20
0.0
 30
0.0
  9
$UCSORGRIGHT
 10
0.0
 20
0.0
 30
0.0
  9
$UCSORGFRONT
 10
0.0
 20
0.0
 30
0.0
  9
$UCSORGBACK
 10
0.0
 20
0.0
 30
0.0
  9
$PUCSBASE
  2

  9
$PUCSNAME
  2

  9
$PUCSORG
 10
0.0
 20
0.0
 30
0.0
  9
$PUCSXDIR
 10
1.0
 20
0.0
 30
0.0
  9
$PUCSYDIR
 10
0.0
 20
1.0
 30
0.0
  9
$PUCSORTHOREF
  2

  9
$PUCSORTHOVIEW
 70
     0
  9
$PUCSORGTOP
 10
0.0
 20
0.0
 30
0.0
  9
$PUCSORGBOTTOM
 10
0.0
 20
0.0
 30
0.0
  9
$PUCSORGLEFT
 10
0.0
 20
0.0
 30
0.0
  9
$PUCSORGRIGHT
 10
0.0
 20
0.0
 30
0.0
  9
$PUCSORGFRONT
 10
0.0
 20
0.0
 30
0.0
  9
$PUCSORGBACK
 10
0.0
 20
0.0
 30
0.0
  9
$USERI1
 70
     0
  9
$USERI2
 70
     0
  9
$USERI3
 70
     0
  9
$USERI4
 70
     0
  9
$USERI5
 70
     0
  9
$USERR1
 40
0.0
  9
$USERR2
 40
0.0
  9
$USERR3
 40
0.0
  9
$USERR4
 40
0.0
  9
$USERR5
 40
0.0
  9
$WORLDVIEW
 70
     1
  9
$SHADEDGE
 70
     3
  9
$SHADEDIF
 70
    70
  9
$TILEMODE
 70
     1
  9
$MAXACTVP
 70
    64
  9
$PINSBASE
 10
0.0
 20
0.0
 30
0.0
  9
$PLIMCHECK
 70
     0
  9
$PEXTMIN
 10
361.268593
 20
1140.669976
 30
0.0
  9
$PEXTMAX
 10
1201.268593
 20
1734.669976
 30
0.0
  9
$PLIMMIN
 10
361.268593
 20
1140.669976
  9
$PLIMMAX
 10
1201.268593
 20
1734.669976
  9
$UNITMODE
 70
     0
  9
$VISRETAIN
 70
     1
  9
$PLINEGEN
 70
     0
  9
$PSLTSCALE
 70
     1
  9
$TREEDEPTH
 70
  3020
  9
$CMLSTYLE
  2
Standard
  9
$CMLJUST
 70
     0
  9
$CMLSCALE
 40
20.0
  9
$PROXYGRAPHICS
 70
     1
  9
$MEASUREMENT
 70
     1
  9
$CELWEIGHT
370
    -1
  9
$ENDCAPS
280
     0
  9
$JOINSTYLE
280
     0
  9
$LWDISPLAY
290
     0
  9
$INSUNITS
 70
     4
  9
$HYPERLINKBASE
  1

  9
$STYLESHEET
  1

  9
$XEDIT
290
     1
  9
$CEPSNTYPE
380
     0
  9
$PSTYLEMODE
290
     1
  9
$FINGERPRINTGUID
  2
{FAEB1C30-E019-11D5-929B-00C0DF256EC4}
  9
$VERSIONGUID
  2
{FAEB1C32-E019-11D5-929B-00C0DF256EC4}
  9
$EXTNAMES
290
     1
  9
$PSVPSCALE
 40
0.0
  9
$OLESTARTUP
290
     0
  0
ENDSEC
  0
SECTION
  2
CLASSES
  0
CLASS
  1
ACDBDICTIONARYWDFLT
  2
AcDbDictionaryWithDefault
  3
ObjectDBX Classes
 90
        0
280
     0
281
     0
  0
CLASS
  1
ACDBPLACEHOLDER
  2
AcDbPlaceHolder
  3
ObjectDBX Classes
 90
        0
280
     0
281
     0
  0
CLASS
  1
LAYOUT
  2
AcDbLayout
  3
ObjectDBX Classes
 90
        0
280
     0
281
     0
  0
ENDSEC
  0
SECTION
  2
TABLES
  0
TABLE
  2
VPORT
  5
8
330
0
100
AcDbSymbolTable
 70
     2
  0
VPORT
  5
29
330
8
100
AcDbSymbolTableRecord
100
AcDbViewportTableRecord
  2
*ACTIVE
 70
     0
 10
0.0
 20
0.0
 11
1.0
 21
1.0
 12
781.268593
 22
1437.669976
 13
0.0
 23
0.0
 14
1.0
 24
1.0
 15
0.0
 25
0.0
 16
0.0
 26
0.0
 36
1.0
 17
0.0
 27
0.0
 37
0.0
 40
594.0
 41
1.414141
 42
50.0
 43
0.0
 44
0.0
 50
0.0
 51
0.0
 71
    16
 72
   100
 73
     1
 74
     0
 75
     0
 76
     0
 77
     0
 78
     0
281
     0
 65
     0
110
0.0
120
0.0
130
0.0
111
1.0
121
0.0
131
0.0
112
0.0
122
1.0
132
0.0
 79
     0
146
0.0
  0
ENDTAB
  0
TABLE
  2
LTYPE
  5
5
330
0
100
AcDbSymbolTable
 70
     3
  0
LTYPE
  5
14
330
5
100
AcDbSymbolTableRecord
100
AcDbLinetypeTableRecord
  2
ByBlock
 70
     0
  3

 72
    65
 73
     0
 40
0.0
  0
LTYPE
  5
15
330
5
100
AcDbSymbolTableRecord
100
AcDbLinetypeTableRecord
  2
ByLayer
 70
     0
  3

 72
    65
 73
     0
 40
0.0
  0
LTYPE
  5
16
330
5
100
AcDbSymbolTableRecord
100
AcDbLinetypeTableRecord
  2
Continuous
 70
     0
  3
Solid line
 72
    65
 73
     0
 40
0.0
  0
LTYPE
  5
2A
330
5
100
AcDbSymbolTableRecord
100
AcDbLinetypeTableRecord
  2
DASHED
 70
     0
  3
__ __ __ __ __
 72
    65
 73
     2
 40
6.25
 49
5.0
 74
     4
 75
     0
340
0
 46
1.0
 50
0.0
 44
0.0
 45
0.0
 49
-1.25
 74
     4
 75
     0
340
0
 46
1.0
 50
0.0
 44
0.0
 45
0.0
  0
LTYPE
  5
9D
330
5
100
AcDbSymbolTableRecord
100
AcDbLinetypeTableRecord
  2
DASHDOT
 70
     0
  3
__ . __ . __ . __ . __
 72
    65
 73
     4
 40
7.5
 49
5.0
 74
     4
 75
     0
340
0
 46
1.0
 50
0.0
 44
0.0
 45
0.0
 49
-1.25
 74
     4
 75
     0
340
0
 46
1.0
 50
0.0
 44
0.0
 45
0.0
 49
0.0
 74
     4
 75
     0
340
0
 46
1.0
 50
0.0
 44
0.0
 45
0.0
 49
-1.25
 74
     4
 75
     0
340
0
 46
1.0
 50
0.0
 44
0.0
 45
0.0
  0
ENDTAB
  0
TABLE
  2
LAYER
  5
2
330
0
100
AcDbSymbolTable
 70
     9
  0
LAYER
  5
10
330
2
100
AcDbSymbolTableRecord
100
AcDbLayerTableRecord
  2
0
 70
     0
 62
     7
  6
Continuous
370
    -3
390
F
  0
LAYER
  5
2B
330
2
100
AcDbSymbolTableRecord
100
AcDbLayerTableRecord
  2
LC-INFO-1-2-mm-A3-0
 70
     1
 62
     7
  6
ByBlock
370
    -3
390
F
  0
LAYER
  5
2C
330
2
100
AcDbSymbolTableRecord
100
AcDbLayerTableRecord
  2
LC-CUT-HIDDEN
 70
     0
 62
     7
  6
DASHED
370
    -3
390
F
  0
LAYER
  5
2D
330
2
100
AcDbSymbolTableRecord
100
AcDbLayerTableRecord
  2
LC-VIEWPORT
 70
     0
 62
     7
  6
ByBlock
370
    -3
390
F
  0
LAYER
  5
2E
330
2
100
AcDbSymbolTableRecord
100
AcDbLayerTableRecord
  2
LC-3D-HIDDEN
 70
     0
 62
     9
  6
DASHED
370
    -3
390
F
  0
LAYER
  5
30
330
2
100
AcDbSymbolTableRecord
100
AcDbLayerTableRecord
  2
LC-001-100-D00-0
 70
     0
 62
     1
  6
ByBlock
370
    -3
390
F
  0
LAYER
  5
9E
330
2
100
AcDbSymbolTableRecord
100
AcDbLayerTableRecord
  2
LC-002-101-D00-0
 70
     0
 62
     2
  6
DASHDOT
370
    -3
390
F
  0
LAYER
  5
502
330
2
100
AcDbSymbolTableRecord
100
AcDbLayerTableRecord
  2
LC-003-003-----0
 70
     0
 62
     2
  6
ByBlock
370
    -3
390
F
  0
LAYER
  5
504
330
2
100
AcDbSymbolTableRecord
100
AcDbLayerTableRecord
  2
Defpoints
 70
     0
 62
     7
  6
Continuous
290
     0
370
    -3
390
F
  0
ENDTAB
  0
TABLE
  2
STYLE
  5
3
330
0
100
AcDbSymbolTable
 70
     3
  0
STYLE
  5
11
330
3
100
AcDbSymbolTableRecord
100
AcDbTextStyleTableRecord
  2
Standard
 70
     0
 40
0.0
 41
1.0
 50
0.0
 71
     0
 42
2.5
  3
txt
  4

  0
STYLE
  5
2F
330
3
100
AcDbSymbolTableRecord
100
AcDbTextStyleTableRecord
  2
LCTX15-400-0-0-Arial
 70
     0
 40
0.0
 41
0.8
 50
0.0
 71
     0
 42
3.5
  3

  4

1001
ACAD
1000
Arial
1071
 16777218
  0
STYLE
  5
500
330
3
100
AcDbSymbolTableRecord
100
AcDbTextStyleTableRecord
  2
LCTX15-400-0-0pDIN-Schrift
 70
     0
 40
2.5
 41
0.8
 50
15.0
 71
     0
 42
3.5
  3
STANDARD
  4

  0
ENDTAB
  0
TABLE
  2
VIEW
  5
6
330
0
100
AcDbSymbolTable
 70
     0
  0
ENDTAB
  0
TABLE
  2
UCS
  5
7
330
0
100
AcDbSymbolTable
 70
     0
  0
ENDTAB
  0
TABLE
  2
APPID
  5
9
330
0
100
AcDbSymbolTable
 70
     1
  0
APPID
  5
12
330
9
100
AcDbSymbolTableRecord
100
AcDbRegAppTableRecord
  2
ACAD
 70
     0
  0
ENDTAB
  0
TABLE
  2
DIMSTYLE
  5
A
330
0
100
AcDbSymbolTable
 70
     2
100
AcDbDimStyleTable
  0
DIMSTYLE
105
27
330
A
100
AcDbSymbolTableRecord
100
AcDbDimStyleTableRecord
  2
ISO-25
 70
     0
 41
2.5
 42
0.625
 43
3.75
 44
1.25
 73
     0
 74
     0
 77
     1
 78
     8
140
2.5
141
2.5
143
0.03937
147
0.625
171
     3
172
     1
271
     2
272
     2
274
     3
278
    44
283
     0
284
     8
340
11
  0
DIMSTYLE
105
501
102
{ACAD_REACTORS
330
503
330
511
330
51E
330
52D
102
}
330
A
100
AcDbSymbolTableRecord
100
AcDbDimStyleTableRecord
  2
LC-DIM-L-0140-02-02
 70
     0
 40
2.0
 41
14.0
 42
0.0
 43
7.5
 44
1.8
 73
     0
 74
     0
 77
     1
 78
     8
 79
     2
140
14.0
141
0.0
146
0.71
147
1.5
176
     2
177
     2
178
     2
179
     2
271
     2
278
    44
289
     1
340
500
  0
ENDTAB
  0
TABLE
  2
BLOCK_RECORD
  5
1
330
0
100
AcDbSymbolTable
 70
    76
  0
BLOCK_RECORD
  5
1F
330
1
100
AcDbSymbolTableRecord
100
AcDbBlockTableRecord
  2
*Model_Space
340
22
  0
BLOCK_RECORD
  5
1B
330
1
100
AcDbSymbolTableRecord
100
AcDbBlockTableRecord
  2
*Paper_Space
340
1E
  0
BLOCK_RECORD
  5
23
330
1
100
AcDbSymbolTableRecord
100
AcDbBlockTableRecord
  2
*Paper_Space0
340
26
  0
BLOCK_RECORD
  5
32
330
1
100
AcDbSymbolTableRecord
100
AcDbBlockTableRecord
  2
KLON1
340
0
102
{BLKREFS
331
45
102
}
  0
BLOCK_RECORD
  5
CA
330
1
100
AcDbSymbolTableRecord
100
AcDbBlockTableRecord
  2
POLY1
340
0
102
{BLKREFS
331
D9
102
}
  0
BLOCK_RECORD
  5
DA
330
1
100
AcDbSymbolTableRecord
100
AcDbBlockTableRecord
  2
POLY2
340
0
102
{BLKREFS
331
E9
102
}
  0
BLOCK_RECORD
  5
EA
330
1
100
AcDbSymbolTableRecord
100
AcDbBlockTableRecord
  2
POLY3
340
0
102
{BLKREFS
331
F9
102
}
  0
BLOCK_RECORD
  5
FA
330
1
100
AcDbSymbolTableRecord
100
AcDbBlockTableRecord
  2
POLY4
340
0
102
{BLKREFS
331
109
102
}
  0
BLOCK_RECORD
  5
10B
330
1
100
AcDbSymbolTableRecord
100
AcDbBlockTableRecord
  2
POLY5
340
0
102
{BLKREFS
331
116
102
}
  0
BLOCK_RECORD
  5
117
330
1
100
AcDbSymbolTableRecord
100
AcDbBlockTableRecord
  2
POLY6
340
0
102
{BLKREFS
331
122
102
}
  0
BLOCK_RECORD
  5
123
330
1
100
AcDbSymbolTableRecord
100
AcDbBlockTableRecord
  2
POLY7
340
0
102
{BLKREFS
331
12E
102
}
  0
BLOCK_RECORD
  5
12F
330
1
100
AcDbSymbolTableRecord
100
AcDbBlockTableRecord
  2
POLY8
340
0
102
{BLKREFS
331
13A
102
}
  0
BLOCK_RECORD
  5
13B
330
1
100
AcDbSymbolTableRecord
100
AcDbBlockTableRecord
  2
POLY9
340
0
102
{BLKREFS
331
146
102
}
  0
BLOCK_RECORD
  5
147
330
1
100
AcDbSymbolTableRecord
100
AcDbBlockTableRecord
  2
POLY10
340
0
102
{BLKREFS
331
152
102
}
  0
BLOCK_RECORD
  5
153
330
1
100
AcDbSymbolTableRecord
100
AcDbBlockTableRecord
  2
POLY11
340
0
102
{BLKREFS
331
15E
102
}
  0
BLOCK_RECORD
  5
15F
330
1
100
AcDbSymbolTableRecord
100
AcDbBlockTableRecord
  2
POLY12
340
0
102
{BLKREFS
331
16A
102
}
  0
BLOCK_RECORD
  5
16B
330
1
100
AcDbSymbolTableRecord
100
AcDbBlockTableRecord
  2
POLY13
340
0
102
{BLKREFS
331
176
102
}
  0
BLOCK_RECORD
  5
177
330
1
100
AcDbSymbolTableRecord
100
AcDbBlockTableRecord
  2
POLY14
340
0
102
{BLKREFS
331
182
102
}
  0
BLOCK_RECORD
  5
183
330
1
100
AcDbSymbolTableRecord
100
AcDbBlockTableRecord
  2
POLY15
340
0
102
{BLKREFS
331
18E
102
}
  0
BLOCK_RECORD
  5
18F
330
1
100
AcDbSymbolTableRecord
100
AcDbBlockTableRecord
  2
POLY16
340
0
102
{BLKREFS
331
19A
102
}
  0
BLOCK_RECORD
  5
19B
330
1
100
AcDbSymbolTableRecord
100
AcDbBlockTableRecord
  2
POLY17
340
0
102
{BLKREFS
331
1A6
102
}
  0
BLOCK_RECORD
  5
1A7
330
1
100
AcDbSymbolTableRecord
100
AcDbBlockTableRecord
  2
POLY18
340
0
102
{BLKREFS
331
1B0
102
}
  0
BLOCK_RECORD
  5
1B1
330
1
100
AcDbSymbolTableRecord
100
AcDbBlockTableRecord
  2
POLY19
340
0
102
{BLKREFS
331
1BC
102
}
  0
BLOCK_RECORD
  5
1BD
330
1
100
AcDbSymbolTableRecord
100
AcDbBlockTableRecord
  2
POLY20
340
0
102
{BLKREFS
331
1C8
102
}
  0
BLOCK_RECORD
  5
1C9
330
1
100
AcDbSymbolTableRecord
100
AcDbBlockTableRecord
  2
POLY21
340
0
102
{BLKREFS
331
1D4
102
}
  0
BLOCK_RECORD
  5
1D5
330
1
100
AcDbSymbolTableRecord
100
AcDbBlockTableRecord
  2
POLY22
340
0
102
{BLKREFS
331
1E0
102
}
  0
BLOCK_RECORD
  5
1E1
330
1
100
AcDbSymbolTableRecord
100
AcDbBlockTableRecord
  2
POLY23
340
0
102
{BLKREFS
331
1EC
102
}
  0
BLOCK_RECORD
  5
1ED
330
1
100
AcDbSymbolTableRecord
100
AcDbBlockTableRecord
  2
POLY24
340
0
102
{BLKREFS
331
1FA
102
}
  0
BLOCK_RECORD
  5
1FB
330
1
100
AcDbSymbolTableRecord
100
AcDbBlockTableRecord
  2
POLY25
340
0
102
{BLKREFS
331
206
102
}
  0
BLOCK_RECORD
  5
207
330
1
100
AcDbSymbolTableRecord
100
AcDbBlockTableRecord
  2
POLY26
340
0
102
{BLKREFS
331
210
102
}
  0
BLOCK_RECORD
  5
211
330
1
100
AcDbSymbolTableRecord
100
AcDbBlockTableRecord
  2
POLY27
340
0
102
{BLKREFS
331
21C
102
}
  0
BLOCK_RECORD
  5
21D
330
1
100
AcDbSymbolTableRecord
100
AcDbBlockTableRecord
  2
POLY28
340
0
102
{BLKREFS
331
228
102
}
  0
BLOCK_RECORD
  5
229
330
1
100
AcDbSymbolTableRecord
100
AcDbBlockTableRecord
  2
POLY29
340
0
102
{BLKREFS
331
234
102
}
  0
BLOCK_RECORD
  5
235
330
1
100
AcDbSymbolTableRecord
100
AcDbBlockTableRecord
  2
POLY30
340
0
102
{BLKREFS
331
240
102
}
  0
BLOCK_RECORD
  5
241
330
1
100
AcDbSymbolTableRecord
100
AcDbBlockTableRecord
  2
POLY31
340
0
102
{BLKREFS
331
24C
102
}
  0
BLOCK_RECORD
  5
24D
330
1
100
AcDbSymbolTableRecord
100
AcDbBlockTableRecord
  2
POLY32
340
0
102
{BLKREFS
331
258
102
}
  0
BLOCK_RECORD
  5
259
330
1
100
AcDbSymbolTableRecord
100
AcDbBlockTableRecord
  2
POLY33
340
0
102
{BLKREFS
331
268
102
}
  0
BLOCK_RECORD
  5
269
330
1
100
AcDbSymbolTableRecord
100
AcDbBlockTableRecord
  2
POLY34
340
0
102
{BLKREFS
331
278
102
}
  0
BLOCK_RECORD
  5
279
330
1
100
AcDbSymbolTableRecord
100
AcDbBlockTableRecord
  2
POLY35
340
0
102
{BLKREFS
331
288
102
}
  0
BLOCK_RECORD
  5
289
330
1
100
AcDbSymbolTableRecord
100
AcDbBlockTableRecord
  2
POLY36
340
0
102
{BLKREFS
331
298
102
}
  0
BLOCK_RECORD
  5
299
330
1
100
AcDbSymbolTableRecord
100
AcDbBlockTableRecord
  2
POLY37
340
0
102
{BLKREFS
331
2A4
102
}
  0
BLOCK_RECORD
  5
2A5
330
1
100
AcDbSymbolTableRecord
100
AcDbBlockTableRecord
  2
POLY38
340
0
102
{BLKREFS
331
2AE
102
}
  0
BLOCK_RECORD
  5
2AF
330
1
100
AcDbSymbolTableRecord
100
AcDbBlockTableRecord
  2
POLY39
340
0
102
{BLKREFS
331
2BA
102
}
  0
BLOCK_RECORD
  5
2BB
330
1
100
AcDbSymbolTableRecord
100
AcDbBlockTableRecord
  2
POLY40
340
0
102
{BLKREFS
331
2C6
102
}
  0
BLOCK_RECORD
  5
2C7
330
1
100
AcDbSymbolTableRecord
100
AcDbBlockTableRecord
  2
POLY41
340
0
102
{BLKREFS
331
2D2
102
}
  0
BLOCK_RECORD
  5
2D3
330
1
100
AcDbSymbolTableRecord
100
AcDbBlockTableRecord
  2
POLY42
340
0
102
{BLKREFS
331
2DE
102
}
  0
BLOCK_RECORD
  5
2DF
330
1
100
AcDbSymbolTableRecord
100
AcDbBlockTableRecord
  2
POLY43
340
0
102
{BLKREFS
331
2EA
102
}
  0
BLOCK_RECORD
  5
2EB
330
1
100
AcDbSymbolTableRecord
100
AcDbBlockTableRecord
  2
POLY44
340
0
102
{BLKREFS
331
2F6
102
}
  0
BLOCK_RECORD
  5
2F7
330
1
100
AcDbSymbolTableRecord
100
AcDbBlockTableRecord
  2
POLY45
340
0
102
{BLKREFS
331
302
102
}
  0
BLOCK_RECORD
  5
303
330
1
100
AcDbSymbolTableRecord
100
AcDbBlockTableRecord
  2
POLY46
340
0
102
{BLKREFS
331
30E
102
}
  0
BLOCK_RECORD
  5
30F
330
1
100
AcDbSymbolTableRecord
100
AcDbBlockTableRecord
  2
POLY47
340
0
102
{BLKREFS
331
31A
102
}
  0
BLOCK_RECORD
  5
31B
330
1
100
AcDbSymbolTableRecord
100
AcDbBlockTableRecord
  2
POLY48
340
0
102
{BLKREFS
331
326
102
}
  0
BLOCK_RECORD
  5
327
330
1
100
AcDbSymbolTableRecord
100
AcDbBlockTableRecord
  2
POLY49
340
0
102
{BLKREFS
331
332
102
}
  0
BLOCK_RECORD
  5
333
330
1
100
AcDbSymbolTableRecord
100
AcDbBlockTableRecord
  2
POLY50
340
0
102
{BLKREFS
331
33E
102
}
  0
BLOCK_RECORD
  5
33F
330
1
100
AcDbSymbolTableRecord
100
AcDbBlockTableRecord
  2
POLY51
340
0
102
{BLKREFS
331
348
102
}
  0
BLOCK_RECORD
  5
349
330
1
100
AcDbSymbolTableRecord
100
AcDbBlockTableRecord
  2
POLY52
340
0
102
{BLKREFS
331
354
102
}
  0
BLOCK_RECORD
  5
355
330
1
100
AcDbSymbolTableRecord
100
AcDbBlockTableRecord
  2
POLY53
340
0
102
{BLKREFS
331
360
102
}
  0
BLOCK_RECORD
  5
361
330
1
100
AcDbSymbolTableRecord
100
AcDbBlockTableRecord
  2
POLY54
340
0
102
{BLKREFS
331
36C
102
}
  0
BLOCK_RECORD
  5
36D
330
1
100
AcDbSymbolTableRecord
100
AcDbBlockTableRecord
  2
POLY55
340
0
102
{BLKREFS
331
378
102
}
  0
BLOCK_RECORD
  5
379
330
1
100
AcDbSymbolTableRecord
100
AcDbBlockTableRecord
  2
POLY56
340
0
102
{BLKREFS
331
384
102
}
  0
BLOCK_RECORD
  5
385
330
1
100
AcDbSymbolTableRecord
100
AcDbBlockTableRecord
  2
POLY57
340
0
102
{BLKREFS
331
390
102
}
  0
BLOCK_RECORD
  5
391
330
1
100
AcDbSymbolTableRecord
100
AcDbBlockTableRecord
  2
POLY58
340
0
102
{BLKREFS
331
39C
102
}
  0
BLOCK_RECORD
  5
39D
330
1
100
AcDbSymbolTableRecord
100
AcDbBlockTableRecord
  2
POLY59
340
0
102
{BLKREFS
331
3A8
102
}
  0
BLOCK_RECORD
  5
3A9
330
1
100
AcDbSymbolTableRecord
100
AcDbBlockTableRecord
  2
POLY60
340
0
102
{BLKREFS
331
3B4
102
}
  0
BLOCK_RECORD
  5
3B5
330
1
100
AcDbSymbolTableRecord
100
AcDbBlockTableRecord
  2
POLY61
340
0
102
{BLKREFS
331
3C0
102
}
  0
BLOCK_RECORD
  5
3C1
330
1
100
AcDbSymbolTableRecord
100
AcDbBlockTableRecord
  2
POLY62
340
0
102
{BLKREFS
331
3CC
102
}
  0
BLOCK_RECORD
  5
3CD
330
1
100
AcDbSymbolTableRecord
100
AcDbBlockTableRecord
  2
POLY63
340
0
102
{BLKREFS
331
3DA
102
}
  0
BLOCK_RECORD
  5
3DB
330
1
100
AcDbSymbolTableRecord
100
AcDbBlockTableRecord
  2
POLY64
340
0
102
{BLKREFS
331
3E8
102
}
  0
BLOCK_RECORD
  5
472
330
1
100
AcDbSymbolTableRecord
100
AcDbBlockTableRecord
  2
POLY65
340
0
102
{BLKREFS
331
485
102
}
  0
BLOCK_RECORD
  5
486
330
1
100
AcDbSymbolTableRecord
100
AcDbBlockTableRecord
  2
POLY66
340
0
102
{BLKREFS
331
49B
102
}
  0
BLOCK_RECORD
  5
49C
330
1
100
AcDbSymbolTableRecord
100
AcDbBlockTableRecord
  2
POLY67
340
0
102
{BLKREFS
331
4B1
102
}
  0
BLOCK_RECORD
  5
4B2
330
1
100
AcDbSymbolTableRecord
100
AcDbBlockTableRecord
  2
POLY68
340
0
102
{BLKREFS
331
4C5
102
}
  0
BLOCK_RECORD
  5
4C6
330
1
100
AcDbSymbolTableRecord
100
AcDbBlockTableRecord
  2
POLY69
340
0
102
{BLKREFS
331
4D1
102
}
  0
BLOCK_RECORD
  5
4D2
330
1
100
AcDbSymbolTableRecord
100
AcDbBlockTableRecord
  2
POLY70
340
0
102
{BLKREFS
331
4DD
102
}
  0
BLOCK_RECORD
  5
505
330
1
100
AcDbSymbolTableRecord
100
AcDbBlockTableRecord
  2
*D72
340
0
  0
BLOCK_RECORD
  5
512
330
1
100
AcDbSymbolTableRecord
100
AcDbBlockTableRecord
  2
*D73
340
0
  0
BLOCK_RECORD
  5
51F
330
1
100
AcDbSymbolTableRecord
100
AcDbBlockTableRecord
  2
*D74
340
0
  0
BLOCK_RECORD
  5
52E
330
1
100
AcDbSymbolTableRecord
100
AcDbBlockTableRecord
  2
*D75
340
0
  0
ENDTAB
  0
ENDSEC
  0
SECTION
  2
BLOCKS
  0
BLOCK
  5
20
330
1F
100
AcDbEntity
  8
0
100
AcDbBlockBegin
  2
*Model_Space
 70
     0
 71
     0
 10
0.0
 20
0.0
 30
0.0
  3
*Model_Space
  1

  0
ENDBLK
  5
21
330
1F
100
AcDbEntity
  8
0
100
AcDbBlockEnd
  0
BLOCK
  5
1C
330
1B
100
AcDbEntity
 67
     1
  8
0
100
AcDbBlockBegin
  2
*Paper_Space
 70
     0
 71
     0
 10
0.0
 20
0.0
 30
0.0
  3
*Paper_Space
  1

  0
ENDBLK
  5
1D
330
1B
100
AcDbEntity
 67
     1
  8
0
100
AcDbBlockEnd
  0
BLOCK
  5
24
330
23
100
AcDbEntity
  8
0
100
AcDbBlockBegin
  2
*Paper_Space0
 70
     0
 71
     0
 10
0.0
 20
0.0
 30
0.0
  3
*Paper_Space0
  1

  0
ENDBLK
  5
25
330
23
100
AcDbEntity
  8
0
100
AcDbBlockEnd
  0
BLOCK
  5
33
330
32
100
AcDbEntity
  8
0
100
AcDbBlockBegin
  2
KLON1
 70
     0
 71
     0
 10
0.0
 20
0.0
 30
0.0
  3
KLON1
  1

  4
KLON1
  0
LINE
  5
35
330
32
100
AcDbEntity
  8
LC-001-100-D00-0
 62
     7
370
    35
100
AcDbLine
 10
794.5
 20
1406.5
 30
0.0
 11
794.55
 21
1406.5
 31
0.0
  0
LINE
  5
36
330
32
100
AcDbEntity
  8
LC-001-100-D00-0
 62
     7
370
    13
100
AcDbLine
 10
795.0
 20
1469.5
 30
0.0
 11
795.0
 21
1406.5
 31
0.0
  0
LINE
  5
37
330
32
100
AcDbEntity
  8
LC-001-100-D00-0
 62
     7
370
    13
100
AcDbLine
 10
781.0
 20
1483.5
 30
0.0
 11
727.0
 21
1483.5
 31
0.0
  0
LINE
  5
38
330
32
100
AcDbEntity
  8
LC-001-100-D00-0
 62
     7
370
    35
100
AcDbLine
 10
727.0
 20
1483.0
 30
0.0
 11
727.0
 21
1483.05
 31
0.0
  0
LINE
  5
39
330
32
100
AcDbEntity
  8
LC-001-100-D00-0
 62
     7
370
    13
100
AcDbLine
 10
713.0
 20
1406.5
 30
0.0
 11
713.0
 21
1469.5
 31
0.0
  0
LINE
  5
3A
330
32
100
AcDbEntity
  8
LC-001-100-D00-0
 62
     7
370
    35
100
AcDbLine
 10
713.5
 20
1469.5
 30
0.0
 11
713.45
 21
1469.5
 31
0.0
  0
LINE
  5
3B
330
32
100
AcDbEntity
  8
LC-001-100-D00-0
 62
     7
370
    13
100
AcDbLine
 10
727.0
 20
1392.5
 30
0.0
 11
781.0
 21
1392.5
 31
0.0
  0
LINE
  5
3C
330
32
100
AcDbEntity
  8
LC-001-100-D00-0
 62
     7
370
    35
100
AcDbLine
 10
713.5
 20
1406.5
 30
0.0
 11
713.45
 21
1406.5
 31
0.0
  0
LINE
  5
3D
330
32
100
AcDbEntity
  8
LC-001-100-D00-0
 62
     7
370
    35
100
AcDbLine
 10
781.0
 20
1393.0
 30
0.0
 11
781.0
 21
1392.95
 31
0.0
  0
LINE
  5
3E
330
32
100
AcDbEntity
  8
LC-001-100-D00-0
 62
     7
370
    35
100
AcDbLine
 10
727.0
 20
1393.0
 30
0.0
 11
727.0
 21
1392.95
 31
0.0
  0
LINE
  5
3F
330
32
100
AcDbEntity
  8
LC-001-100-D00-0
 62
     7
370
    35
100
AcDbLine
 10
794.5
 20
1469.5
 30
0.0
 11
794.55
 21
1469.5
 31
0.0
  0
LINE
  5
40
330
32
100
AcDbEntity
  8
LC-001-100-D00-0
 62
     7
370
    35
100
AcDbLine
 10
781.0
 20
1483.0
 30
0.0
 11
781.0
 21
1483.05
 31
0.0
  0
ARC
  5
41
330
32
100
AcDbEntity
  8
LC-001-100-D00-0
 62
     7
370
    13
100
AcDbCircle
 10
727.0
 20
1469.5
 30
0.0
 40
14.0
100
AcDbArc
 50
90.0
 51
180.0
  0
ARC
  5
42
330
32
100
AcDbEntity
  8
LC-001-100-D00-0
 62
     7
370
    13
100
AcDbCircle
 10
781.0
 20
1406.5
 30
0.0
 40
14.0
100
AcDbArc
 50
270.0
 51
0.0
  0
ARC
  5
43
330
32
100
AcDbEntity
  8
LC-001-100-D00-0
 62
     7
370
    13
100
AcDbCircle
 10
727.0
 20
1406.5
 30
0.0
 40
14.0
100
AcDbArc
 50
180.0
 51
270.0
  0
ARC
  5
44
330
32
100
AcDbEntity
  8
LC-001-100-D00-0
 62
     7
370
    13
100
AcDbCircle
 10
781.0
 20
1469.5
 30
0.0
 40
14.0
100
AcDbArc
 50
0.0
 51
90.0
  0
ENDBLK
  5
34
330
32
100
AcDbEntity
  8
0
100
AcDbBlockEnd
  0
BLOCK
  5
CB
330
CA
100
AcDbEntity
  8
0
100
AcDbBlockBegin
  2
POLY1
 70
     0
 71
     0
 10
0.0
 20
0.0
 30
0.0
  3
POLY1
  1

  4
POLY1
  0
LINE
  5
CD
330
CA
100
AcDbEntity
  8
LC-001-100-D00-0
 62
     7
370
    50
100
AcDbLine
 10
735.482282
 20
1461.643157
 30
0.0
 11
735.482282
 21
1461.643157
 31
0.0
  0
LINE
  5
CE
330
CA
100
AcDbEntity
  8
LC-001-100-D00-0
 62
     7
370
    50
100
AcDbLine
 10
735.482282
 20
1461.643157
 30
0.0
 11
734.42268
 21
1463.008637
 31
0.0
  0
LINE
  5
CF
330
CA
100
AcDbEntity
  8
LC-001-100-D00-0
 62
     7
370
    50
100
AcDbLine
 10
734.42268
 20
1463.008637
 30
0.0
 11
734.42268
 21
1463.008637
 31
0.0
  0
LINE
  5
D0
330
CA
100
AcDbEntity
  8
LC-001-100-D00-0
 62
     7
370
    50
100
AcDbLine
 10
734.42268
 20
1463.008637
 30
0.0
 11
732.123678
 21
1465.522629
 31
0.0
  0
LINE
  5
D1
330
CA
100
AcDbEntity
  8
LC-001-100-D00-0
 62
     7
370
    50
100
AcDbLine
 10
732.123678
 20
1465.522629
 30
0.0
 11
732.123678
 21
1465.522629
 31
0.0
  0
LINE
  5
D2
330
CA
100
AcDbEntity
  8
LC-001-100-D00-0
 62
     7
370
    50
100
AcDbLine
 10
732.123678
 20
1465.522629
 30
0.0
 11
729.085785
 21
1468.637787
 31
0.0
  0
LINE
  5
D3
330
CA
100
AcDbEntity
  8
LC-001-100-D00-0
 62
     7
370
    50
100
AcDbLine
 10
729.085785
 20
1468.637787
 30
0.0
 11
729.085785
 21
1468.637787
 31
0.0
  0
LINE
  5
D4
330
CA
100
AcDbEntity
  8
LC-001-100-D00-0
 62
     7
370
    50
100
AcDbLine
 10
729.085785
 20
1468.637787
 30
0.0
 11
725.970628
 21
1471.67568
 31
0.0
  0
LINE
  5
D5
330
CA
100
AcDbEntity
  8
LC-001-100-D00-0
 62
     7
370
    50
100
AcDbLine
 10
725.970628
 20
1471.67568
 30
0.0
 11
725.970628
 21
1471.67568
 31
0.0
  0
LINE
  5
D6
330
CA
100
AcDbEntity
  8
LC-001-100-D00-0
 62
     7
370
    50
100
AcDbLine
 10
725.970628
 20
1471.67568
 30
0.0
 11
723.456636
 21
1473.974682
 31
0.0
  0
LINE
  5
D7
330
CA
100
AcDbEntity
  8
LC-001-100-D00-0
 62
     7
370
    50
100
AcDbLine
 10
723.456636
 20
1473.974682
 30
0.0
 11
723.456636
 21
1473.974682
 31
0.0
  0
LINE
  5
D8
330
CA
100
AcDbEntity
  8
LC-001-100-D00-0
 62
     7
370
    50
100
AcDbLine
 10
723.456636
 20
1473.974682
 30
0.0
 11
722.091156
 21
1475.034283
 31
0.0
  0
ENDBLK
  5
CC
330
CA
100
AcDbEntity
  8
0
100
AcDbBlockEnd
  0
BLOCK
  5
DB
330
DA
100
AcDbEntity
  8
0
100
AcDbBlockBegin
  2
POLY2
 70
     0
 71
     0
 10
0.0
 20
0.0
 30
0.0
  3
POLY2
  1

  4
POLY2
  0
LINE
  5
DD
330
DA
100
AcDbEntity
  8
LC-001-100-D00-0
 62
     7
370
    50
100
AcDbLine
 10
720.933717
 20
1473.876845
 30
0.0
 11
720.933717
 21
1473.876845
 31
0.0
  0
LINE
  5
DE
330
DA
100
AcDbEntity
  8
LC-001-100-D00-0
 62
     7
370
    50
100
AcDbLine
 10
720.933717
 20
1473.876845
 30
0.0
 11
721.993319
 21
1472.511364
 31
0.0
  0
LINE
  5
DF
330
DA
100
AcDbEntity
  8
LC-001-100-D00-0
 62
     7
370
    50
100
AcDbLine
 10
721.993319
 20
1472.511364
 30
0.0
 11
721.993319
 21
1472.511364
 31
0.0
  0
LINE
  5
E0
330
DA
100
AcDbEntity
  8
LC-001-100-D00-0
 62
     7
370
    50
100
AcDbLine
 10
721.993319
 20
1472.511364
 30
0.0
 11
724.292321
 21
1469.997373
 31
0.0
  0
LINE
  5
E1
330
DA
100
AcDbEntity
  8
LC-001-100-D00-0
 62
     7
370
    50
100
AcDbLine
 10
724.292321
 20
1469.997373
 30
0.0
 11
724.292321
 21
1469.997373
 31
0.0
  0
LINE
  5
E2
330
DA
100
AcDbEntity
  8
LC-001-100-D00-0
 62
     7
370
    50
100
AcDbLine
 10
724.292321
 20
1469.997373
 30
0.0
 11
727.330214
 21
1466.882215
 31
0.0
  0
LINE
  5
E3
330
DA
100
AcDbEntity
  8
LC-001-100-D00-0
 62
     7
370
    50
100
AcDbLine
 10
727.330214
 20
1466.882215
 30
0.0
 11
727.330214
 21
1466.882215
 31
0.0
  0
LINE
  5
E4
330
DA
100
AcDbEntity
  8
LC-001-100-D00-0
 62
     7
370
    50
100
AcDbLine
 10
727.330214
 20
1466.882215
 30
0.0
 11
730.445371
 21
1463.844322
 31
0.0
  0
LINE
  5
E5
330
DA
100
AcDbEntity
  8
LC-001-100-D00-0
 62
     7
370
    50
100
AcDbLine
 10
730.445371
 20
1463.844322
 30
0.0
 11
730.445371
 21
1463.844322
 31
0.0
  0
LINE
  5
E6
330
DA
100
AcDbEntity
  8
LC-001-100-D00-0
 62
     7
370
    50
100
AcDbLine
 10
730.445371
 20
1463.844322
 30
0.0
 11
732.959363
 21
1461.54532
 31
0.0
  0
LINE
  5
E7
330
DA
100
AcDbEntity
  8
LC-001-100-D00-0
 62
     7
370
    50
100
AcDbLine
 10
732.959363
 20
1461.54532
 30
0.0
 11
732.959363
 21
1461.54532
 31
0.0
  0
LINE
  5
E8
330
DA
100
AcDbEntity
  8
LC-001-100-D00-0
 62
     7
370
    50
100
AcDbLine
 10
732.959363
 20
1461.54532
 30
0.0
 11
734.324844
 21
1460.485718
 31
0.0
  0
ENDBLK
  5
DC
330
DA
100
AcDbEntity
  8
0
100
AcDbBlockEnd
  0
BLOCK
  5
EB
330
EA
100
AcDbEntity
  8
0
100
AcDbBlockBegin
  2
POLY3
 70
     0
 71
     0
 10
0.0
 20
0.0
 30
0.0
  3
POLY3
  1

  4
POLY3
  0
LINE
  5
ED
330
EA
100
AcDbEntity
  8
LC-001-100-D00-0
 62
     7
370
    50
100
AcDbLine
 10
720.186185
 20
1473.821861
 30
0.0
 11
720.186185
 21
1473.821861
 31
0.0
  0
LINE
  5
EE
330
EA
100
AcDbEntity
  8
LC-001-100-D00-0
 62
     7
370
    50
100
AcDbLine
 10
720.186185
 20
1473.821861
 30
0.0
 11
721.300586
 21
1472.385762
 31
0.0
  0
LINE
  5
EF
330
EA
100
AcDbEntity
  8
LC-001-100-D00-0
 62
     7
370
    50
100
AcDbLine
 10
721.300586
 20
1472.385762
 30
0.0
 11
721.300586
 21
1472.385762
 31
0.0
  0
LINE
  5
F0
330
EA
100
AcDbEntity
  8
LC-001-100-D00-0
 62
     7
370
    50
100
AcDbLine
 10
721.300586
 20
1472.385762
 30
0.0
 11
723.718485
 21
1469.741754
 31
0.0
  0
LINE
  5
F1
330
EA
100
AcDbEntity
  8
LC-001-100-D00-0
 62
     7
370
    50
100
AcDbLine
 10
723.718485
 20
1469.741754
 30
0.0
 11
723.718485
 21
1469.741754
 31
0.0
  0
LINE
  5
F2
330
EA
100
AcDbEntity
  8
LC-001-100-D00-0
 62
     7
370
    50
100
AcDbLine
 10
723.718485
 20
1469.741754
 30
0.0
 11
726.913489
 21
1466.46549
 31
0.0
  0
LINE
  5
F3
330
EA
100
AcDbEntity
  8
LC-001-100-D00-0
 62
     7
370
    50
100
AcDbLine
 10
726.913489
 20
1466.46549
 30
0.0
 11
726.913489
 21
1466.46549
 31
0.0
  0
LINE
  5
F4
330
EA
100
AcDbEntity
  8
LC-001-100-D00-0
 62
     7
370
    50
100
AcDbLine
 10
726.913489
 20
1466.46549
 30
0.0
 11
730.189753
 21
1463.270486
 31
0.0
  0
LINE
  5
F5
330
EA
100
AcDbEntity
  8
LC-001-100-D00-0
 62
     7
370
    50
100
AcDbLine
 10
730.189753
 20
1463.270486
 30
0.0
 11
730.189753
 21
1463.270486
 31
0.0
  0
LINE
  5
F6
330
EA
100
AcDbEntity
  8
LC-001-100-D00-0
 62
     7
370
    50
100
AcDbLine
 10
730.189753
 20
1463.270486
 30
0.0
 11
732.833761
 21
1460.852587
 31
0.0
  0
LINE
  5
F7
330
EA
100
AcDbEntity
  8
LC-001-100-D00-0
 62
     7
370
    50
100
AcDbLine
 10
732.833761
 20
1460.852587
 30
0.0
 11
732.833761
 21
1460.852587
 31
0.0
  0
LINE
  5
F8
330
EA
100
AcDbEntity
  8
LC-001-100-D00-0
 62
     7
370
    50
100
AcDbLine
 10
732.833761
 20
1460.852587
 30
0.0
 11
734.26986
 21
1459.738186
 31
0.0
  0
ENDBLK
  5
EC
330
EA
100
AcDbEntity
  8
0
100
AcDbBlockEnd
  0
BLOCK
  5
FB
330
FA
100
AcDbEntity
  8
0
100
AcDbBlockBegin
  2
POLY4
 70
     0
 71
     0
 10
0.0
 20
0.0
 30
0.0
  3
POLY4
  1

  4
POLY4
  0
LINE
  5
FD
330
FA
100
AcDbEntity
  8
LC-001-100-D00-0
 62
     7
370
    50
100
AcDbLine
 10
736.229815
 20
1461.69814
 30
0.0
 11
736.229815
 21
1461.69814
 31
0.0
  0
LINE
  5
FE
330
FA
100
AcDbEntity
  8
LC-001-100-D00-0
 62
     7
370
    50
100
AcDbLine
 10
736.229815
 20
1461.69814
 30
0.0
 11
735.115414
 21
1463.13424
 31
0.0
  0
LINE
  5
FF
330
FA
100
AcDbEntity
  8
LC-001-100-D00-0
 62
     7
370
    50
100
AcDbLine
 10
735.115414
 20
1463.13424
 30
0.0
 11
735.115414
 21
1463.13424
 31
0.0
  0
LINE
  5
100
330
FA
100
AcDbEntity
  8
LC-001-100-D00-0
 62
     7
370
    50
100
AcDbLine
 10
735.115414
 20
1463.13424
 30
0.0
 11
732.697514
 21
1465.778247
 31
0.0
  0
LINE
  5
101
330
FA
100
AcDbEntity
  8
LC-001-100-D00-0
 62
     7
370
    50
100
AcDbLine
 10
732.697514
 20
1465.778247
 30
0.0
 11
732.697514
 21
1465.778247
 31
0.0
  0
LINE
  5
102
330
FA
100
AcDbEntity
  8
LC-001-100-D00-0
 62
     7
370
    50
100
AcDbLine
 10
732.697514
 20
1465.778247
 30
0.0
 11
729.50251
 21
1469.054512
 31
0.0
  0
LINE
  5
103
330
FA
100
AcDbEntity
  8
LC-001-100-D00-0
 62
     7
370
    50
100
AcDbLine
 10
729.50251
 20
1469.054512
 30
0.0
 11
729.50251
 21
1469.054512
 31
0.0
  0
LINE
  5
104
330
FA
100
AcDbEntity
  8
LC-001-100-D00-0
 62
     7
370
    50
100
AcDbLine
 10
729.50251
 20
1469.054512
 30
0.0
 11
726.226246
 21
1472.249515
 31
0.0
  0
LINE
  5
105
330
FA
100
AcDbEntity
  8
LC-001-100-D00-0
 62
     7
370
    50
100
AcDbLine
 10
726.226246
 20
1472.249515
 30
0.0
 11
726.226246
 21
1472.249515
 31
0.0
  0
LINE
  5
106
330
FA
100
AcDbEntity
  8
LC-001-100-D00-0
 62
     7
370
    50
100
AcDbLine
 10
726.226246
 20
1472.249515
 30
0.0
 11
723.582238
 21
1474.667415
 31
0.0
  0
LINE
  5
107
330
FA
100
AcDbEntity
  8
LC-001-100-D00-0
 62
     7
370
    50
100
AcDbLine
 10
723.582238
 20
1474.667415
 30
0.0
 11
723.582238
 21
1474.667415
 31
0.0
  0
LINE
  5
108
330
FA
100
AcDbEntity
  8
LC-001-100-D00-0
 62
     7
370
    50
100
AcDbLine
 10
723.582238
 20
1474.667415
 30
0.0
 11
722.146139
 21
1475.781816
 31
0.0
  0
ENDBLK
  5
FC
330
FA
100
AcDbEntity
  8
0
100
AcDbBlockEnd
  0
BLOCK
  5
10C
330
10B
100
AcDbEntity
  8
0
100
AcDbBlockBegin
  2
POLY5
 70
     0
 71
     0
 10
0.0
 20
0.0
 30
0.0
  3
POLY5
  1

  4
POLY5
  0
LINE
  5
10E
330
10B
100
AcDbEntity
  8
LC-001-100-D00-0
 62
     7
370
    50
100
AcDbLine
 10
721.286786
 20
1474.229914
 30
0.0
 11
721.286786
 21
1474.229914
 31
0.0
  0
LINE
  5
10F
330
10B
100
AcDbEntity
  8
LC-001-100-D00-0
 62
     7
370
    50
100
AcDbLine
 10
721.286786
 20
1474.229914
 30
0.0
 11
721.105479
 21
1474.364281
 31
0.0
  0
LINE
  5
110
330
10B
100
AcDbEntity
  8
LC-001-100-D00-0
 62
     7
370
    50
100
AcDbLine
 10
721.105479
 20
1474.364281
 30
0.0
 11
721.105479
 21
1474.364281
 31
0.0
  0
LINE
  5
111
330
10B
100
AcDbEntity
  8
LC-001-100-D00-0
 62
     7
370
    50
100
AcDbLine
 10
721.105479
 20
1474.364281
 30
0.0
 11
720.893738
 21
1474.44187
 31
0.0
  0
LINE
  5
112
330
10B
100
AcDbEntity
  8
LC-001-100-D00-0
 62
     7
370
    50
100
AcDbLine
 10
720.893738
 20
1474.44187
 30
0.0
 11
720.893738
 21
1474.44187
 31
0.0
  0
LINE
  5
113
330
10B
100
AcDbEntity
  8
LC-001-100-D00-0
 62
     7
370
    50
100
AcDbLine
 10
720.893738
 20
1474.44187
 30
0.0
 11
720.685154
 21
1474.439093
 31
0.0
  0
LINE
  5
114
330
10B
100
AcDbEntity
  8
LC-001-100-D00-0
 62
     7
370
    50
100
AcDbLine
 10
720.685154
 20
1474.439093
 30
0.0
 11
720.685154
 21
1474.439093
 31
0.0
  0
LINE
  5
115
330
10B
100
AcDbEntity
  8
LC-001-100-D00-0
 62
     7
370
    50
100
AcDbLine
 10
720.685154
 20
1474.439093
 30
0.0
 11
720.513315
 21
1474.332366
 31
0.0
  0
ENDBLK
  5
10D
330
10B
100
AcDbEntity
  8
0
100
AcDbBlockEnd
  0
BLOCK
  5
118
330
117
100
AcDbEntity
  8
0
100
AcDbBlockBegin
  2
POLY6
 70
     0
 71
     0
 10
0.0
 20
0.0
 30
0.0
  3
POLY6
  1

  4
POLY6
  0
LINE
  5
11A
330
117
100
AcDbEntity
  8
LC-001-100-D00-0
 62
     7
370
    50
100
AcDbLine
 10
721.043416
 20
1473.986544
 30
0.0
 11
721.043416
 21
1473.986544
 31
0.0
  0
LINE
  5
11B
330
117
100
AcDbEntity
  8
LC-001-100-D00-0
 62
     7
370
    50
100
AcDbLine
 10
721.043416
 20
1473.986544
 30
0.0
 11
721.096172
 21
1474.0393
 31
0.0
  0
LINE
  5
11C
330
117
100
AcDbEntity
  8
LC-001-100-D00-0
 62
     7
370
    50
100
AcDbLine
 10
721.096172
 20
1474.0393
 30
0.0
 11
721.096172
 21
1474.0393
 31
0.0
  0
LINE
  5
11D
330
117
100
AcDbEntity
  8
LC-001-100-D00-0
 62
     7
370
    50
100
AcDbLine
 10
721.096172
 20
1474.0393
 30
0.0
 11
721.155774
 21
1474.098902
 31
0.0
  0
LINE
  5
11E
330
117
100
AcDbEntity
  8
LC-001-100-D00-0
 62
     7
370
    50
100
AcDbLine
 10
721.155774
 20
1474.098902
 30
0.0
 11
721.155774
 21
1474.098902
 31
0.0
  0
LINE
  5
11F
330
117
100
AcDbEntity
  8
LC-001-100-D00-0
 62
     7
370
    50
100
AcDbLine
 10
721.155774
 20
1474.098902
 30
0.0
 11
721.220082
 21
1474.16321
 31
0.0
  0
LINE
  5
120
330
117
100
AcDbEntity
  8
LC-001-100-D00-0
 62
     7
370
    50
100
AcDbLine
 10
721.220082
 20
1474.16321
 30
0.0
 11
721.220082
 21
1474.16321
 31
0.0
  0
LINE
  5
121
330
117
100
AcDbEntity
  8
LC-001-100-D00-0
 62
     7
370
    50
100
AcDbLine
 10
721.220082
 20
1474.16321
 30
0.0
 11
721.286786
 21
1474.229914
 31
0.0
  0
ENDBLK
  5
119
330
117
100
AcDbEntity
  8
0
100
AcDbBlockEnd
  0
BLOCK
  5
124
330
123
100
AcDbEntity
  8
0
100
AcDbBlockBegin
  2
POLY7
 70
     0
 71
     0
 10
0.0
 20
0.0
 30
0.0
  3
POLY7
  1

  4
POLY7
  0
LINE
  5
126
330
123
100
AcDbEntity
  8
LC-001-100-D00-0
 62
     7
370
    50
100
AcDbLine
 10
721.981457
 20
1474.924584
 30
0.0
 11
721.981457
 21
1474.924584
 31
0.0
  0
LINE
  5
127
330
123
100
AcDbEntity
  8
LC-001-100-D00-0
 62
     7
370
    50
100
AcDbLine
 10
721.981457
 20
1474.924584
 30
0.0
 11
722.025471
 21
1474.968599
 31
0.0
  0
LINE
  5
128
330
123
100
AcDbEntity
  8
LC-001-100-D00-0
 62
     7
370
    50
100
AcDbLine
 10
722.025471
 20
1474.968599
 30
0.0
 11
722.025471
 21
1474.968599
 31
0.0
  0
LINE
  5
129
330
123
100
AcDbEntity
  8
LC-001-100-D00-0
 62
     7
370
    50
100
AcDbLine
 10
722.025471
 20
1474.968599
 30
0.0
 11
722.059164
 21
1475.002291
 31
0.0
  0
LINE
  5
12A
330
123
100
AcDbEntity
  8
LC-001-100-D00-0
 62
     7
370
    50
100
AcDbLine
 10
722.059164
 20
1475.002291
 30
0.0
 11
722.059164
 21
1475.002291
 31
0.0
  0
LINE
  5
12B
330
123
100
AcDbEntity
  8
LC-001-100-D00-0
 62
     7
370
    50
100
AcDbLine
 10
722.059164
 20
1475.002291
 30
0.0
 11
722.087157
 21
1475.030284
 31
0.0
  0
LINE
  5
12C
330
123
100
AcDbEntity
  8
LC-001-100-D00-0
 62
     7
370
    50
100
AcDbLine
 10
722.087157
 20
1475.030284
 30
0.0
 11
722.087157
 21
1475.030284
 31
0.0
  0
LINE
  5
12D
330
123
100
AcDbEntity
  8
LC-001-100-D00-0
 62
     7
370
    50
100
AcDbLine
 10
722.087157
 20
1475.030284
 30
0.0
 11
722.091156
 21
1475.034283
 31
0.0
  0
ENDBLK
  5
125
330
123
100
AcDbEntity
  8
0
100
AcDbBlockEnd
  0
BLOCK
  5
130
330
12F
100
AcDbEntity
  8
0
100
AcDbBlockBegin
  2
POLY8
 70
     0
 71
     0
 10
0.0
 20
0.0
 30
0.0
  3
POLY8
  1

  4
POLY8
  0
LINE
  5
132
330
12F
100
AcDbEntity
  8
LC-001-100-D00-0
 62
     7
370
    50
100
AcDbLine
 10
721.834446
 20
1475.268437
 30
0.0
 11
721.834446
 21
1475.268437
 31
0.0
  0
LINE
  5
133
330
12F
100
AcDbEntity
  8
LC-001-100-D00-0
 62
     7
370
    50
100
AcDbLine
 10
721.834446
 20
1475.268437
 30
0.0
 11
721.787652
 21
1475.312571
 31
0.0
  0
LINE
  5
134
330
12F
100
AcDbEntity
  8
LC-001-100-D00-0
 62
     7
370
    50
100
AcDbLine
 10
721.787652
 20
1475.312571
 30
0.0
 11
721.787652
 21
1475.312571
 31
0.0
  0
LINE
  5
135
330
12F
100
AcDbEntity
  8
LC-001-100-D00-0
 62
     7
370
    50
100
AcDbLine
 10
721.787652
 20
1475.312571
 30
0.0
 11
721.736555
 21
1475.360732
 31
0.0
  0
LINE
  5
136
330
12F
100
AcDbEntity
  8
LC-001-100-D00-0
 62
     7
370
    50
100
AcDbLine
 10
721.736555
 20
1475.360732
 30
0.0
 11
721.736555
 21
1475.360732
 31
0.0
  0
LINE
  5
137
330
12F
100
AcDbEntity
  8
LC-001-100-D00-0
 62
     7
370
    50
100
AcDbLine
 10
721.736555
 20
1475.360732
 30
0.0
 11
721.685539
 21
1475.408455
 31
0.0
  0
LINE
  5
138
330
12F
100
AcDbEntity
  8
LC-001-100-D00-0
 62
     7
370
    50
100
AcDbLine
 10
721.685539
 20
1475.408455
 30
0.0
 11
721.685539
 21
1475.408455
 31
0.0
  0
LINE
  5
139
330
12F
100
AcDbEntity
  8
LC-001-100-D00-0
 62
     7
370
    50
100
AcDbLine
 10
721.685539
 20
1475.408455
 30
0.0
 11
721.635634
 21
1475.454686
 31
0.0
  0
ENDBLK
  5
131
330
12F
100
AcDbEntity
  8
0
100
AcDbBlockEnd
  0
BLOCK
  5
13C
330
13B
100
AcDbEntity
  8
0
100
AcDbBlockBegin
  2
POLY9
 70
     0
 71
     0
 10
0.0
 20
0.0
 30
0.0
  3
POLY9
  1

  4
POLY9
  0
LINE
  5
13E
330
13B
100
AcDbEntity
  8
LC-001-100-D00-0
 62
     7
370
    50
100
AcDbLine
 10
721.834446
 20
1475.268437
 30
0.0
 11
721.834446
 21
1475.268437
 31
0.0
  0
LINE
  5
13F
330
13B
100
AcDbEntity
  8
LC-001-100-D00-0
 62
     7
370
    50
100
AcDbLine
 10
721.834446
 20
1475.268437
 30
0.0
 11
721.83244
 21
1475.159225
 31
0.0
  0
LINE
  5
140
330
13B
100
AcDbEntity
  8
LC-001-100-D00-0
 62
     7
370
    50
100
AcDbLine
 10
721.83244
 20
1475.159225
 30
0.0
 11
721.83244
 21
1475.159225
 31
0.0
  0
LINE
  5
141
330
13B
100
AcDbEntity
  8
LC-001-100-D00-0
 62
     7
370
    50
100
AcDbLine
 10
721.83244
 20
1475.159225
 30
0.0
 11
721.857842
 21
1475.076117
 31
0.0
  0
LINE
  5
142
330
13B
100
AcDbEntity
  8
LC-001-100-D00-0
 62
     7
370
    50
100
AcDbLine
 10
721.857842
 20
1475.076117
 30
0.0
 11
721.857842
 21
1475.076117
 31
0.0
  0
LINE
  5
143
330
13B
100
AcDbEntity
  8
LC-001-100-D00-0
 62
     7
370
    50
100
AcDbLine
 10
721.857842
 20
1475.076117
 30
0.0
 11
721.914056
 21
1474.99639
 31
0.0
  0
LINE
  5
144
330
13B
100
AcDbEntity
  8
LC-001-100-D00-0
 62
     7
370
    50
100
AcDbLine
 10
721.914056
 20
1474.99639
 30
0.0
 11
721.914056
 21
1474.99639
 31
0.0
  0
LINE
  5
145
330
13B
100
AcDbEntity
  8
LC-001-100-D00-0
 62
     7
370
    50
100
AcDbLine
 10
721.914056
 20
1474.99639
 30
0.0
 11
721.981457
 21
1474.924584
 31
0.0
  0
ENDBLK
  5
13D
330
13B
100
AcDbEntity
  8
0
100
AcDbBlockEnd
  0
BLOCK
  5
148
330
147
100
AcDbEntity
  8
0
100
AcDbBlockBegin
  2
POLY10
 70
     0
 71
     0
 10
0.0
 20
0.0
 30
0.0
  3
POLY10
  1

  4
POLY10
  0
LINE
  5
14A
330
147
100
AcDbEntity
  8
LC-001-100-D00-0
 62
     7
370
    50
100
AcDbLine
 10
721.738087
 20
1474.681214
 30
0.0
 11
721.738087
 21
1474.681214
 31
0.0
  0
LINE
  5
14B
330
147
100
AcDbEntity
  8
LC-001-100-D00-0
 62
     7
370
    50
100
AcDbLine
 10
721.738087
 20
1474.681214
 30
0.0
 11
721.804791
 21
1474.747918
 31
0.0
  0
LINE
  5
14C
330
147
100
AcDbEntity
  8
LC-001-100-D00-0
 62
     7
370
    50
100
AcDbLine
 10
721.804791
 20
1474.747918
 30
0.0
 11
721.804791
 21
1474.747918
 31
0.0
  0
LINE
  5
14D
330
147
100
AcDbEntity
  8
LC-001-100-D00-0
 62
     7
370
    50
100
AcDbLine
 10
721.804791
 20
1474.747918
 30
0.0
 11
721.869099
 21
1474.812226
 31
0.0
  0
LINE
  5
14E
330
147
100
AcDbEntity
  8
LC-001-100-D00-0
 62
     7
370
    50
100
AcDbLine
 10
721.869099
 20
1474.812226
 30
0.0
 11
721.869099
 21
1474.812226
 31
0.0
  0
LINE
  5
14F
330
147
100
AcDbEntity
  8
LC-001-100-D00-0
 62
     7
370
    50
100
AcDbLine
 10
721.869099
 20
1474.812226
 30
0.0
 11
721.928701
 21
1474.871829
 31
0.0
  0
LINE
  5
150
330
147
100
AcDbEntity
  8
LC-001-100-D00-0
 62
     7
370
    50
100
AcDbLine
 10
721.928701
 20
1474.871829
 30
0.0
 11
721.928701
 21
1474.871829
 31
0.0
  0
LINE
  5
151
330
147
100
AcDbEntity
  8
LC-001-100-D00-0
 62
     7
370
    50
100
AcDbLine
 10
721.928701
 20
1474.871829
 30
0.0
 11
721.981457
 21
1474.924584
 31
0.0
  0
ENDBLK
  5
149
330
147
100
AcDbEntity
  8
0
100
AcDbBlockEnd
  0
BLOCK
  5
154
330
153
100
AcDbEntity
  8
0
100
AcDbBlockBegin
  2
POLY11
 70
     0
 71
     0
 10
0.0
 20
0.0
 30
0.0
  3
POLY11
  1

  4
POLY11
  0
LINE
  5
156
330
153
100
AcDbEntity
  8
LC-001-100-D00-0
 62
     7
370
    50
100
AcDbLine
 10
722.146139
 20
1475.781816
 30
0.0
 11
722.146139
 21
1475.781816
 31
0.0
  0
LINE
  5
157
330
153
100
AcDbEntity
  8
LC-001-100-D00-0
 62
     7
370
    50
100
AcDbLine
 10
722.146139
 20
1475.781816
 30
0.0
 11
722.080106
 21
1475.767319
 31
0.0
  0
LINE
  5
158
330
153
100
AcDbEntity
  8
LC-001-100-D00-0
 62
     7
370
    50
100
AcDbLine
 10
722.080106
 20
1475.767319
 30
0.0
 11
722.080106
 21
1475.767319
 31
0.0
  0
LINE
  5
159
330
153
100
AcDbEntity
  8
LC-001-100-D00-0
 62
     7
370
    50
100
AcDbLine
 10
722.080106
 20
1475.767319
 30
0.0
 11
721.958344
 21
1475.698539
 31
0.0
  0
LINE
  5
15A
330
153
100
AcDbEntity
  8
LC-001-100-D00-0
 62
     7
370
    50
100
AcDbLine
 10
721.958344
 20
1475.698539
 30
0.0
 11
721.958344
 21
1475.698539
 31
0.0
  0
LINE
  5
15B
330
153
100
AcDbEntity
  8
LC-001-100-D00-0
 62
     7
370
    50
100
AcDbLine
 10
721.958344
 20
1475.698539
 30
0.0
 11
721.803184
 21
1475.589442
 31
0.0
  0
LINE
  5
15C
330
153
100
AcDbEntity
  8
LC-001-100-D00-0
 62
     7
370
    50
100
AcDbLine
 10
721.803184
 20
1475.589442
 30
0.0
 11
721.803184
 21
1475.589442
 31
0.0
  0
LINE
  5
15D
330
153
100
AcDbEntity
  8
LC-001-100-D00-0
 62
     7
370
    50
100
AcDbLine
 10
721.803184
 20
1475.589442
 30
0.0
 11
721.635634
 21
1475.454686
 31
0.0
  0
ENDBLK
  5
155
330
153
100
AcDbEntity
  8
0
100
AcDbBlockEnd
  0
BLOCK
  5
160
330
15F
100
AcDbEntity
  8
0
100
AcDbBlockBegin
  2
POLY12
 70
     0
 71
     0
 10
0.0
 20
0.0
 30
0.0
  3
POLY12
  1

  4
POLY12
  0
LINE
  5
162
330
15F
100
AcDbEntity
  8
LC-001-100-D00-0
 62
     7
370
    50
100
AcDbLine
 10
721.635634
 20
1475.454686
 30
0.0
 11
721.635634
 21
1475.454686
 31
0.0
  0
LINE
  5
163
330
15F
100
AcDbEntity
  8
LC-001-100-D00-0
 62
     7
370
    50
100
AcDbLine
 10
721.635634
 20
1475.454686
 30
0.0
 11
721.528907
 21
1475.282847
 31
0.0
  0
LINE
  5
164
330
15F
100
AcDbEntity
  8
LC-001-100-D00-0
 62
     7
370
    50
100
AcDbLine
 10
721.528907
 20
1475.282847
 30
0.0
 11
721.528907
 21
1475.282847
 31
0.0
  0
LINE
  5
165
330
15F
100
AcDbEntity
  8
LC-001-100-D00-0
 62
     7
370
    50
100
AcDbLine
 10
721.528907
 20
1475.282847
 30
0.0
 11
721.526131
 21
1475.074262
 31
0.0
  0
LINE
  5
166
330
15F
100
AcDbEntity
  8
LC-001-100-D00-0
 62
     7
370
    50
100
AcDbLine
 10
721.526131
 20
1475.074262
 30
0.0
 11
721.526131
 21
1475.074262
 31
0.0
  0
LINE
  5
167
330
15F
100
AcDbEntity
  8
LC-001-100-D00-0
 62
     7
370
    50
100
AcDbLine
 10
721.526131
 20
1475.074262
 30
0.0
 11
721.603719
 21
1474.862522
 31
0.0
  0
LINE
  5
168
330
15F
100
AcDbEntity
  8
LC-001-100-D00-0
 62
     7
370
    50
100
AcDbLine
 10
721.603719
 20
1474.862522
 30
0.0
 11
721.603719
 21
1474.862522
 31
0.0
  0
LINE
  5
169
330
15F
100
AcDbEntity
  8
LC-001-100-D00-0
 62
     7
370
    50
100
AcDbLine
 10
721.603719
 20
1474.862522
 30
0.0
 11
721.738087
 21
1474.681214
 31
0.0
  0
ENDBLK
  5
161
330
15F
100
AcDbEntity
  8
0
100
AcDbBlockEnd
  0
BLOCK
  5
16C
330
16B
100
AcDbEntity
  8
0
100
AcDbBlockBegin
  2
POLY13
 70
     0
 71
     0
 10
0.0
 20
0.0
 30
0.0
  3
POLY13
  1

  4
POLY13
  0
LINE
  5
16E
330
16B
100
AcDbEntity
  8
LC-001-100-D00-0
 62
     7
370
    50
100
AcDbLine
 10
720.933717
 20
1473.876845
 30
0.0
 11
720.933717
 21
1473.876845
 31
0.0
  0
LINE
  5
16F
330
16B
100
AcDbEntity
  8
LC-001-100-D00-0
 62
     7
370
    50
100
AcDbLine
 10
720.933717
 20
1473.876845
 30
0.0
 11
720.937716
 21
1473.880844
 31
0.0
  0
LINE
  5
170
330
16B
100
AcDbEntity
  8
LC-001-100-D00-0
 62
     7
370
    50
100
AcDbLine
 10
720.937716
 20
1473.880844
 30
0.0
 11
720.937716
 21
1473.880844
 31
0.0
  0
LINE
  5
171
330
16B
100
AcDbEntity
  8
LC-001-100-D00-0
 62
     7
370
    50
100
AcDbLine
 10
720.937716
 20
1473.880844
 30
0.0
 11
720.965709
 21
1473.908837
 31
0.0
  0
LINE
  5
172
330
16B
100
AcDbEntity
  8
LC-001-100-D00-0
 62
     7
370
    50
100
AcDbLine
 10
720.965709
 20
1473.908837
 30
0.0
 11
720.965709
 21
1473.908837
 31
0.0
  0
LINE
  5
173
330
16B
100
AcDbEntity
  8
LC-001-100-D00-0
 62
     7
370
    50
100
AcDbLine
 10
720.965709
 20
1473.908837
 30
0.0
 11
720.999401
 21
1473.942529
 31
0.0
  0
LINE
  5
174
330
16B
100
AcDbEntity
  8
LC-001-100-D00-0
 62
     7
370
    50
100
AcDbLine
 10
720.999401
 20
1473.942529
 30
0.0
 11
720.999401
 21
1473.942529
 31
0.0
  0
LINE
  5
175
330
16B
100
AcDbEntity
  8
LC-001-100-D00-0
 62
     7
370
    50
100
AcDbLine
 10
720.999401
 20
1473.942529
 30
0.0
 11
721.043416
 21
1473.986544
 31
0.0
  0
ENDBLK
  5
16D
330
16B
100
AcDbEntity
  8
0
100
AcDbBlockEnd
  0
BLOCK
  5
178
330
177
100
AcDbEntity
  8
0
100
AcDbBlockBegin
  2
POLY14
 70
     0
 71
     0
 10
0.0
 20
0.0
 30
0.0
  3
POLY14
  1

  4
POLY14
  0
LINE
  5
17A
330
177
100
AcDbEntity
  8
LC-001-100-D00-0
 62
     7
370
    50
100
AcDbLine
 10
720.697915
 20
1474.108719
 30
0.0
 11
720.697915
 21
1474.108719
 31
0.0
  0
LINE
  5
17B
330
177
100
AcDbEntity
  8
LC-001-100-D00-0
 62
     7
370
    50
100
AcDbLine
 10
720.697915
 20
1474.108719
 30
0.0
 11
720.643436
 21
1474.06048
 31
0.0
  0
LINE
  5
17C
330
177
100
AcDbEntity
  8
LC-001-100-D00-0
 62
     7
370
    50
100
AcDbLine
 10
720.643436
 20
1474.06048
 30
0.0
 11
720.643436
 21
1474.06048
 31
0.0
  0
LINE
  5
17D
330
177
100
AcDbEntity
  8
LC-001-100-D00-0
 62
     7
370
    50
100
AcDbLine
 10
720.643436
 20
1474.06048
 30
0.0
 11
720.589204
 21
1474.028327
 31
0.0
  0
LINE
  5
17E
330
177
100
AcDbEntity
  8
LC-001-100-D00-0
 62
     7
370
    50
100
AcDbLine
 10
720.589204
 20
1474.028327
 30
0.0
 11
720.589204
 21
1474.028327
 31
0.0
  0
LINE
  5
17F
330
177
100
AcDbEntity
  8
LC-001-100-D00-0
 62
     7
370
    50
100
AcDbLine
 10
720.589204
 20
1474.028327
 30
0.0
 11
720.554286
 21
1474.018362
 31
0.0
  0
LINE
  5
180
330
177
100
AcDbEntity
  8
LC-001-100-D00-0
 62
     7
370
    50
100
AcDbLine
 10
720.554286
 20
1474.018362
 30
0.0
 11
720.554286
 21
1474.018362
 31
0.0
  0
LINE
  5
181
330
177
100
AcDbEntity
  8
LC-001-100-D00-0
 62
     7
370
    50
100
AcDbLine
 10
720.554286
 20
1474.018362
 30
0.0
 11
720.549297
 21
1474.016939
 31
0.0
  0
ENDBLK
  5
179
330
177
100
AcDbEntity
  8
0
100
AcDbBlockEnd
  0
BLOCK
  5
184
330
183
100
AcDbEntity
  8
0
100
AcDbBlockBegin
  2
POLY15
 70
     0
 71
     0
 10
0.0
 20
0.0
 30
0.0
  3
POLY15
  1

  4
POLY15
  0
LINE
  5
186
330
183
100
AcDbEntity
  8
LC-001-100-D00-0
 62
     7
370
    50
100
AcDbLine
 10
720.513315
 20
1474.332366
 30
0.0
 11
720.513315
 21
1474.332366
 31
0.0
  0
LINE
  5
187
330
183
100
AcDbEntity
  8
LC-001-100-D00-0
 62
     7
370
    50
100
AcDbLine
 10
720.513315
 20
1474.332366
 30
0.0
 11
720.378559
 21
1474.164816
 31
0.0
  0
LINE
  5
188
330
183
100
AcDbEntity
  8
LC-001-100-D00-0
 62
     7
370
    50
100
AcDbLine
 10
720.378559
 20
1474.164816
 30
0.0
 11
720.378559
 21
1474.164816
 31
0.0
  0
LINE
  5
189
330
183
100
AcDbEntity
  8
LC-001-100-D00-0
 62
     7
370
    50
100
AcDbLine
 10
720.378559
 20
1474.164816
 30
0.0
 11
720.269461
 21
1474.009657
 31
0.0
  0
LINE
  5
18A
330
183
100
AcDbEntity
  8
LC-001-100-D00-0
 62
     7
370
    50
100
AcDbLine
 10
720.269461
 20
1474.009657
 30
0.0
 11
720.269461
 21
1474.009657
 31
0.0
  0
LINE
  5
18B
330
183
100
AcDbEntity
  8
LC-001-100-D00-0
 62
     7
370
    50
100
AcDbLine
 10
720.269461
 20
1474.009657
 30
0.0
 11
720.200681
 21
1473.887895
 31
0.0
  0
LINE
  5
18C
330
183
100
AcDbEntity
  8
LC-001-100-D00-0
 62
     7
370
    50
100
AcDbLine
 10
720.200681
 20
1473.887895
 30
0.0
 11
720.200681
 21
1473.887895
 31
0.0
  0
LINE
  5
18D
330
183
100
AcDbEntity
  8
LC-001-100-D00-0
 62
     7
370
    50
100
AcDbLine
 10
720.200681
 20
1473.887895
 30
0.0
 11
720.186185
 21
1473.821861
 31
0.0
  0
ENDBLK
  5
185
330
183
100
AcDbEntity
  8
0
100
AcDbBlockEnd
  0
BLOCK
  5
190
330
18F
100
AcDbEntity
  8
0
100
AcDbBlockBegin
  2
POLY16
 70
     0
 71
     0
 10
0.0
 20
0.0
 30
0.0
  3
POLY16
  1

  4
POLY16
  0
LINE
  5
192
330
18F
100
AcDbEntity
  8
LC-001-100-D00-0
 62
     7
370
    50
100
AcDbLine
 10
720.697915
 20
1474.108719
 30
0.0
 11
720.697915
 21
1474.108719
 31
0.0
  0
LINE
  5
193
330
18F
100
AcDbEntity
  8
LC-001-100-D00-0
 62
     7
370
    50
100
AcDbLine
 10
720.697915
 20
1474.108719
 30
0.0
 11
720.651366
 21
1474.164499
 31
0.0
  0
LINE
  5
194
330
18F
100
AcDbEntity
  8
LC-001-100-D00-0
 62
     7
370
    50
100
AcDbLine
 10
720.651366
 20
1474.164499
 30
0.0
 11
720.651366
 21
1474.164499
 31
0.0
  0
LINE
  5
195
330
18F
100
AcDbEntity
  8
LC-001-100-D00-0
 62
     7
370
    50
100
AcDbLine
 10
720.651366
 20
1474.164499
 30
0.0
 11
720.610732
 21
1474.21543
 31
0.0
  0
LINE
  5
196
330
18F
100
AcDbEntity
  8
LC-001-100-D00-0
 62
     7
370
    50
100
AcDbLine
 10
720.610732
 20
1474.21543
 30
0.0
 11
720.610732
 21
1474.21543
 31
0.0
  0
LINE
  5
197
330
18F
100
AcDbEntity
  8
LC-001-100-D00-0
 62
     7
370
    50
100
AcDbLine
 10
720.610732
 20
1474.21543
 30
0.0
 11
720.562856
 21
1474.275236
 31
0.0
  0
LINE
  5
198
330
18F
100
AcDbEntity
  8
LC-001-100-D00-0
 62
     7
370
    50
100
AcDbLine
 10
720.562856
 20
1474.275236
 30
0.0
 11
720.562856
 21
1474.275236
 31
0.0
  0
LINE
  5
199
330
18F
100
AcDbEntity
  8
LC-001-100-D00-0
 62
     7
370
    50
100
AcDbLine
 10
720.562856
 20
1474.275236
 30
0.0
 11
720.513315
 21
1474.332366
 31
0.0
  0
ENDBLK
  5
191
330
18F
100
AcDbEntity
  8
0
100
AcDbBlockEnd
  0
BLOCK
  5
19C
330
19B
100
AcDbEntity
  8
0
100
AcDbBlockBegin
  2
POLY17
 70
     0
 71
     0
 10
0.0
 20
0.0
 30
0.0
  3
POLY17
  1

  4
POLY17
  0
LINE
  5
19E
330
19B
100
AcDbEntity
  8
LC-001-100-D00-0
 62
     7
370
    50
100
AcDbLine
 10
720.697915
 20
1474.108719
 30
0.0
 11
720.697915
 21
1474.108719
 31
0.0
  0
LINE
  5
19F
330
19B
100
AcDbEntity
  8
LC-001-100-D00-0
 62
     7
370
    50
100
AcDbLine
 10
720.697915
 20
1474.108719
 30
0.0
 11
720.784725
 21
1474.118743
 31
0.0
  0
LINE
  5
1A0
330
19B
100
AcDbEntity
  8
LC-001-100-D00-0
 62
     7
370
    50
100
AcDbLine
 10
720.784725
 20
1474.118743
 30
0.0
 11
720.784725
 21
1474.118743
 31
0.0
  0
LINE
  5
1A1
330
19B
100
AcDbEntity
  8
LC-001-100-D00-0
 62
     7
370
    50
100
AcDbLine
 10
720.784725
 20
1474.118743
 30
0.0
 11
720.868905
 21
1474.113587
 31
0.0
  0
LINE
  5
1A2
330
19B
100
AcDbEntity
  8
LC-001-100-D00-0
 62
     7
370
    50
100
AcDbLine
 10
720.868905
 20
1474.113587
 30
0.0
 11
720.868905
 21
1474.113587
 31
0.0
  0
LINE
  5
1A3
330
19B
100
AcDbEntity
  8
LC-001-100-D00-0
 62
     7
370
    50
100
AcDbLine
 10
720.868905
 20
1474.113587
 30
0.0
 11
720.937014
 21
1474.079455
 31
0.0
  0
LINE
  5
1A4
330
19B
100
AcDbEntity
  8
LC-001-100-D00-0
 62
     7
370
    50
100
AcDbLine
 10
720.937014
 20
1474.079455
 30
0.0
 11
720.937014
 21
1474.079455
 31
0.0
  0
LINE
  5
1A5
330
19B
100
AcDbEntity
  8
LC-001-100-D00-0
 62
     7
370
    50
100
AcDbLine
 10
720.937014
 20
1474.079455
 30
0.0
 11
721.043416
 21
1473.986544
 31
0.0
  0
ENDBLK
  5
19D
330
19B
100
AcDbEntity
  8
0
100
AcDbBlockEnd
  0
BLOCK
  5
1A8
330
1A7
100
AcDbEntity
  8
0
100
AcDbBlockBegin
  2
POLY18
 70
     0
 71
     0
 10
0.0
 20
0.0
 30
0.0
  3
POLY18
  1

  4
POLY18
  0
LINE
  5
1AA
330
1A7
100
AcDbEntity
  8
LC-001-100-D00-0
 62
     7
370
    50
100
AcDbLine
 10
721.834446
 20
1475.268437
 30
0.0
 11
721.834446
 21
1475.268437
 31
0.0
  0
LINE
  5
1AB
330
1A7
100
AcDbEntity
  8
LC-001-100-D00-0
 62
     7
370
    50
100
AcDbLine
 10
721.834446
 20
1475.268437
 30
0.0
 11
721.901631
 21
1475.346
 31
0.0
  0
LINE
  5
1AC
330
1A7
100
AcDbEntity
  8
LC-001-100-D00-0
 62
     7
370
    50
100
AcDbLine
 10
721.901631
 20
1475.346
 30
0.0
 11
721.901631
 21
1475.346
 31
0.0
  0
LINE
  5
1AD
330
1A7
100
AcDbEntity
  8
LC-001-100-D00-0
 62
     7
370
    50
100
AcDbLine
 10
721.901631
 20
1475.346
 30
0.0
 11
721.930529
 21
1475.396996
 31
0.0
  0
LINE
  5
1AE
330
1A7
100
AcDbEntity
  8
LC-001-100-D00-0
 62
     7
370
    50
100
AcDbLine
 10
721.930529
 20
1475.396996
 30
0.0
 11
721.930529
 21
1475.396996
 31
0.0
  0
LINE
  5
1AF
330
1A7
100
AcDbEntity
  8
LC-001-100-D00-0
 62
     7
370
    50
100
AcDbLine
 10
721.930529
 20
1475.396996
 30
0.0
 11
721.951062
 21
1475.418703
 31
0.0
  0
ENDBLK
  5
1A9
330
1A7
100
AcDbEntity
  8
0
100
AcDbBlockEnd
  0
BLOCK
  5
1B2
330
1B1
100
AcDbEntity
  8
0
100
AcDbBlockBegin
  2
POLY19
 70
     0
 71
     0
 10
0.0
 20
0.0
 30
0.0
  3
POLY19
  1

  4
POLY19
  0
LINE
  5
1B4
330
1B1
100
AcDbEntity
  8
LC-001-100-D00-0
 62
     7
370
    50
100
AcDbLine
 10
735.902685
 20
1461.187636
 30
0.0
 11
735.902685
 21
1461.187636
 31
0.0
  0
LINE
  5
1B5
330
1B1
100
AcDbEntity
  8
LC-001-100-D00-0
 62
     7
370
    50
100
AcDbLine
 10
735.902685
 20
1461.187636
 30
0.0
 11
736.037441
 21
1461.355185
 31
0.0
  0
LINE
  5
1B6
330
1B1
100
AcDbEntity
  8
LC-001-100-D00-0
 62
     7
370
    50
100
AcDbLine
 10
736.037441
 20
1461.355185
 30
0.0
 11
736.037441
 21
1461.355185
 31
0.0
  0
LINE
  5
1B7
330
1B1
100
AcDbEntity
  8
LC-001-100-D00-0
 62
     7
370
    50
100
AcDbLine
 10
736.037441
 20
1461.355185
 30
0.0
 11
736.146538
 21
1461.510345
 31
0.0
  0
LINE
  5
1B8
330
1B1
100
AcDbEntity
  8
LC-001-100-D00-0
 62
     7
370
    50
100
AcDbLine
 10
736.146538
 20
1461.510345
 30
0.0
 11
736.146538
 21
1461.510345
 31
0.0
  0
LINE
  5
1B9
330
1B1
100
AcDbEntity
  8
LC-001-100-D00-0
 62
     7
370
    50
100
AcDbLine
 10
736.146538
 20
1461.510345
 30
0.0
 11
736.215318
 21
1461.632107
 31
0.0
  0
LINE
  5
1BA
330
1B1
100
AcDbEntity
  8
LC-001-100-D00-0
 62
     7
370
    50
100
AcDbLine
 10
736.215318
 20
1461.632107
 30
0.0
 11
736.215318
 21
1461.632107
 31
0.0
  0
LINE
  5
1BB
330
1B1
100
AcDbEntity
  8
LC-001-100-D00-0
 62
     7
370
    50
100
AcDbLine
 10
736.215318
 20
1461.632107
 30
0.0
 11
736.229815
 21
1461.69814
 31
0.0
  0
ENDBLK
  5
1B3
330
1B1
100
AcDbEntity
  8
0
100
AcDbBlockEnd
  0
BLOCK
  5
1BE
330
1BD
100
AcDbEntity
  8
0
100
AcDbBlockBegin
  2
POLY20
 70
     0
 71
     0
 10
0.0
 20
0.0
 30
0.0
  3
POLY20
  1

  4
POLY20
  0
LINE
  5
1C0
330
1BD
100
AcDbEntity
  8
LC-001-100-D00-0
 62
     7
370
    50
100
AcDbLine
 10
734.26986
 20
1459.738186
 30
0.0
 11
734.26986
 21
1459.738186
 31
0.0
  0
LINE
  5
1C1
330
1BD
100
AcDbEntity
  8
LC-001-100-D00-0
 62
     7
370
    50
100
AcDbLine
 10
734.26986
 20
1459.738186
 30
0.0
 11
734.335894
 21
1459.752682
 31
0.0
  0
LINE
  5
1C2
330
1BD
100
AcDbEntity
  8
LC-001-100-D00-0
 62
     7
370
    50
100
AcDbLine
 10
734.335894
 20
1459.752682
 30
0.0
 11
734.335894
 21
1459.752682
 31
0.0
  0
LINE
  5
1C3
330
1BD
100
AcDbEntity
  8
LC-001-100-D00-0
 62
     7
370
    50
100
AcDbLine
 10
734.335894
 20
1459.752682
 30
0.0
 11
734.457656
 21
1459.821462
 31
0.0
  0
LINE
  5
1C4
330
1BD
100
AcDbEntity
  8
LC-001-100-D00-0
 62
     7
370
    50
100
AcDbLine
 10
734.457656
 20
1459.821462
 30
0.0
 11
734.457656
 21
1459.821462
 31
0.0
  0
LINE
  5
1C5
330
1BD
100
AcDbEntity
  8
LC-001-100-D00-0
 62
     7
370
    50
100
AcDbLine
 10
734.457656
 20
1459.821462
 30
0.0
 11
734.612815
 21
1459.93056
 31
0.0
  0
LINE
  5
1C6
330
1BD
100
AcDbEntity
  8
LC-001-100-D00-0
 62
     7
370
    50
100
AcDbLine
 10
734.612815
 20
1459.93056
 30
0.0
 11
734.612815
 21
1459.93056
 31
0.0
  0
LINE
  5
1C7
330
1BD
100
AcDbEntity
  8
LC-001-100-D00-0
 62
     7
370
    50
100
AcDbLine
 10
734.612815
 20
1459.93056
 30
0.0
 11
734.780365
 21
1460.065316
 31
0.0
  0
ENDBLK
  5
1BF
330
1BD
100
AcDbEntity
  8
0
100
AcDbBlockEnd
  0
BLOCK
  5
1CA
330
1C9
100
AcDbEntity
  8
0
100
AcDbBlockBegin
  2
POLY21
 70
     0
 71
     0
 10
0.0
 20
0.0
 30
0.0
  3
POLY21
  1

  4
POLY21
  0
LINE
  5
1CC
330
1C9
100
AcDbEntity
  8
LC-001-100-D00-0
 62
     7
370
    50
100
AcDbLine
 10
734.677913
 20
1460.838787
 30
0.0
 11
734.677913
 21
1460.838787
 31
0.0
  0
LINE
  5
1CD
330
1C9
100
AcDbEntity
  8
LC-001-100-D00-0
 62
     7
370
    50
100
AcDbLine
 10
734.677913
 20
1460.838787
 30
0.0
 11
734.611209
 21
1460.772083
 31
0.0
  0
LINE
  5
1CE
330
1C9
100
AcDbEntity
  8
LC-001-100-D00-0
 62
     7
370
    50
100
AcDbLine
 10
734.611209
 20
1460.772083
 30
0.0
 11
734.611209
 21
1460.772083
 31
0.0
  0
LINE
  5
1CF
330
1C9
100
AcDbEntity
  8
LC-001-100-D00-0
 62
     7
370
    50
100
AcDbLine
 10
734.611209
 20
1460.772083
 30
0.0
 11
734.546901
 21
1460.707775
 31
0.0
  0
LINE
  5
1D0
330
1C9
100
AcDbEntity
  8
LC-001-100-D00-0
 62
     7
370
    50
100
AcDbLine
 10
734.546901
 20
1460.707775
 30
0.0
 11
734.546901
 21
1460.707775
 31
0.0
  0
LINE
  5
1D1
330
1C9
100
AcDbEntity
  8
LC-001-100-D00-0
 62
     7
370
    50
100
AcDbLine
 10
734.546901
 20
1460.707775
 30
0.0
 11
734.470944
 21
1460.631819
 31
0.0
  0
LINE
  5
1D2
330
1C9
100
AcDbEntity
  8
LC-001-100-D00-0
 62
     7
370
    50
100
AcDbLine
 10
734.470944
 20
1460.631819
 30
0.0
 11
734.470944
 21
1460.631819
 31
0.0
  0
LINE
  5
1D3
330
1C9
100
AcDbEntity
  8
LC-001-100-D00-0
 62
     7
370
    50
100
AcDbLine
 10
734.470944
 20
1460.631819
 30
0.0
 11
734.450552
 21
1460.611427
 31
0.0
  0
ENDBLK
  5
1CB
330
1C9
100
AcDbEntity
  8
0
100
AcDbBlockEnd
  0
BLOCK
  5
1D6
330
1D5
100
AcDbEntity
  8
0
100
AcDbBlockBegin
  2
POLY22
 70
     0
 71
     0
 10
0.0
 20
0.0
 30
0.0
  3
POLY22
  1

  4
POLY22
  0
LINE
  5
1D8
330
1D5
100
AcDbEntity
  8
LC-001-100-D00-0
 62
     7
370
    50
100
AcDbLine
 10
734.581553
 20
1460.251564
 30
0.0
 11
734.581553
 21
1460.251564
 31
0.0
  0
LINE
  5
1D9
330
1D5
100
AcDbEntity
  8
LC-001-100-D00-0
 62
     7
370
    50
100
AcDbLine
 10
734.581553
 20
1460.251564
 30
0.0
 11
734.583559
 21
1460.360777
 31
0.0
  0
LINE
  5
1DA
330
1D5
100
AcDbEntity
  8
LC-001-100-D00-0
 62
     7
370
    50
100
AcDbLine
 10
734.583559
 20
1460.360777
 30
0.0
 11
734.583559
 21
1460.360777
 31
0.0
  0
LINE
  5
1DB
330
1D5
100
AcDbEntity
  8
LC-001-100-D00-0
 62
     7
370
    50
100
AcDbLine
 10
734.583559
 20
1460.360777
 30
0.0
 11
734.558157
 21
1460.443885
 31
0.0
  0
LINE
  5
1DC
330
1D5
100
AcDbEntity
  8
LC-001-100-D00-0
 62
     7
370
    50
100
AcDbLine
 10
734.558157
 20
1460.443885
 30
0.0
 11
734.558157
 21
1460.443885
 31
0.0
  0
LINE
  5
1DD
330
1D5
100
AcDbEntity
  8
LC-001-100-D00-0
 62
     7
370
    50
100
AcDbLine
 10
734.558157
 20
1460.443885
 30
0.0
 11
734.503944
 21
1460.525613
 31
0.0
  0
LINE
  5
1DE
330
1D5
100
AcDbEntity
  8
LC-001-100-D00-0
 62
     7
370
    50
100
AcDbLine
 10
734.503944
 20
1460.525613
 30
0.0
 11
734.503944
 21
1460.525613
 31
0.0
  0
LINE
  5
1DF
330
1D5
100
AcDbEntity
  8
LC-001-100-D00-0
 62
     7
370
    50
100
AcDbLine
 10
734.503944
 20
1460.525613
 30
0.0
 11
734.450552
 21
1460.611427
 31
0.0
  0
ENDBLK
  5
1D7
330
1D5
100
AcDbEntity
  8
0
100
AcDbBlockEnd
  0
BLOCK
  5
1E2
330
1E1
100
AcDbEntity
  8
0
100
AcDbBlockBegin
  2
POLY23
 70
     0
 71
     0
 10
0.0
 20
0.0
 30
0.0
  3
POLY23
  1

  4
POLY23
  0
LINE
  5
1E4
330
1E1
100
AcDbEntity
  8
LC-001-100-D00-0
 62
     7
370
    50
100
AcDbLine
 10
734.450552
 20
1460.611427
 30
0.0
 11
734.450552
 21
1460.611427
 31
0.0
  0
LINE
  5
1E5
330
1E1
100
AcDbEntity
  8
LC-001-100-D00-0
 62
     7
370
    50
100
AcDbLine
 10
734.450552
 20
1460.611427
 30
0.0
 11
734.412243
 21
1460.573118
 31
0.0
  0
LINE
  5
1E6
330
1E1
100
AcDbEntity
  8
LC-001-100-D00-0
 62
     7
370
    50
100
AcDbLine
 10
734.412243
 20
1460.573118
 30
0.0
 11
734.412243
 21
1460.573118
 31
0.0
  0
LINE
  5
1E7
330
1E1
100
AcDbEntity
  8
LC-001-100-D00-0
 62
     7
370
    50
100
AcDbLine
 10
734.412243
 20
1460.573118
 30
0.0
 11
734.356835
 21
1460.51771
 31
0.0
  0
LINE
  5
1E8
330
1E1
100
AcDbEntity
  8
LC-001-100-D00-0
 62
     7
370
    50
100
AcDbLine
 10
734.356835
 20
1460.51771
 30
0.0
 11
734.356835
 21
1460.51771
 31
0.0
  0
LINE
  5
1E9
330
1E1
100
AcDbEntity
  8
LC-001-100-D00-0
 62
     7
370
    50
100
AcDbLine
 10
734.356835
 20
1460.51771
 30
0.0
 11
734.328843
 21
1460.489717
 31
0.0
  0
LINE
  5
1EA
330
1E1
100
AcDbEntity
  8
LC-001-100-D00-0
 62
     7
370
    50
100
AcDbLine
 10
734.328843
 20
1460.489717
 30
0.0
 11
734.328843
 21
1460.489717
 31
0.0
  0
LINE
  5
1EB
330
1E1
100
AcDbEntity
  8
LC-001-100-D00-0
 62
     7
370
    50
100
AcDbLine
 10
734.328843
 20
1460.489717
 30
0.0
 11
734.324844
 21
1460.485718
 31
0.0
  0
ENDBLK
  5
1E3
330
1E1
100
AcDbEntity
  8
0
100
AcDbBlockEnd
  0
BLOCK
  5
1EE
330
1ED
100
AcDbEntity
  8
0
100
AcDbBlockBegin
  2
POLY24
 70
     0
 71
     0
 10
0.0
 20
0.0
 30
0.0
  3
POLY24
  1

  4
POLY24
  0
LINE
  5
1F0
330
1ED
100
AcDbEntity
  8
LC-001-100-D00-0
 62
     7
370
    50
100
AcDbLine
 10
734.780365
 20
1460.065316
 30
0.0
 11
734.780365
 21
1460.065316
 31
0.0
  0
LINE
  5
1F1
330
1ED
100
AcDbEntity
  8
LC-001-100-D00-0
 62
     7
370
    50
100
AcDbLine
 10
734.780365
 20
1460.065316
 30
0.0
 11
734.87953
 21
1460.211809
 31
0.0
  0
LINE
  5
1F2
330
1ED
100
AcDbEntity
  8
LC-001-100-D00-0
 62
     7
370
    50
100
AcDbLine
 10
734.87953
 20
1460.211809
 30
0.0
 11
734.87953
 21
1460.211809
 31
0.0
  0
LINE
  5
1F3
330
1ED
100
AcDbEntity
  8
LC-001-100-D00-0
 62
     7
370
    50
100
AcDbLine
 10
734.87953
 20
1460.211809
 30
0.0
 11
734.899975
 21
1460.354818
 31
0.0
  0
LINE
  5
1F4
330
1ED
100
AcDbEntity
  8
LC-001-100-D00-0
 62
     7
370
    50
100
AcDbLine
 10
734.899975
 20
1460.354818
 30
0.0
 11
734.899975
 21
1460.354818
 31
0.0
  0
LINE
  5
1F5
330
1ED
100
AcDbEntity
  8
LC-001-100-D00-0
 62
     7
370
    50
100
AcDbLine
 10
734.899975
 20
1460.354818
 30
0.0
 11
734.889868
 21
1460.445739
 31
0.0
  0
LINE
  5
1F6
330
1ED
100
AcDbEntity
  8
LC-001-100-D00-0
 62
     7
370
    50
100
AcDbLine
 10
734.889868
 20
1460.445739
 30
0.0
 11
734.889868
 21
1460.445739
 31
0.0
  0
LINE
  5
1F7
330
1ED
100
AcDbEntity
  8
LC-001-100-D00-0
 62
     7
370
    50
100
AcDbLine
 10
734.889868
 20
1460.445739
 30
0.0
 11
734.81228
 21
1460.65748
 31
0.0
  0
LINE
  5
1F8
330
1ED
100
AcDbEntity
  8
LC-001-100-D00-0
 62
     7
370
    50
100
AcDbLine
 10
734.81228
 20
1460.65748
 30
0.0
 11
734.81228
 21
1460.65748
 31
0.0
  0
LINE
  5
1F9
330
1ED
100
AcDbEntity
  8
LC-001-100-D00-0
 62
     7
370
    50
100
AcDbLine
 10
734.81228
 20
1460.65748
 30
0.0
 11
734.677913
 21
1460.838787
 31
0.0
  0
ENDBLK
  5
1EF
330
1ED
100
AcDbEntity
  8
0
100
AcDbBlockEnd
  0
BLOCK
  5
1FC
330
1FB
100
AcDbEntity
  8
0
100
AcDbBlockBegin
  2
POLY25
 70
     0
 71
     0
 10
0.0
 20
0.0
 30
0.0
  3
POLY25
  1

  4
POLY25
  0
LINE
  5
1FE
330
1FB
100
AcDbEntity
  8
LC-001-100-D00-0
 62
     7
370
    50
100
AcDbLine
 10
734.581553
 20
1460.251564
 30
0.0
 11
734.581553
 21
1460.251564
 31
0.0
  0
LINE
  5
1FF
330
1FB
100
AcDbEntity
  8
LC-001-100-D00-0
 62
     7
370
    50
100
AcDbLine
 10
734.581553
 20
1460.251564
 30
0.0
 11
734.628347
 21
1460.20743
 31
0.0
  0
LINE
  5
200
330
1FB
100
AcDbEntity
  8
LC-001-100-D00-0
 62
     7
370
    50
100
AcDbLine
 10
734.628347
 20
1460.20743
 30
0.0
 11
734.628347
 21
1460.20743
 31
0.0
  0
LINE
  5
201
330
1FB
100
AcDbEntity
  8
LC-001-100-D00-0
 62
     7
370
    50
100
AcDbLine
 10
734.628347
 20
1460.20743
 30
0.0
 11
734.679444
 21
1460.15927
 31
0.0
  0
LINE
  5
202
330
1FB
100
AcDbEntity
  8
LC-001-100-D00-0
 62
     7
370
    50
100
AcDbLine
 10
734.679444
 20
1460.15927
 30
0.0
 11
734.679444
 21
1460.15927
 31
0.0
  0
LINE
  5
203
330
1FB
100
AcDbEntity
  8
LC-001-100-D00-0
 62
     7
370
    50
100
AcDbLine
 10
734.679444
 20
1460.15927
 30
0.0
 11
734.73046
 21
1460.111547
 31
0.0
  0
LINE
  5
204
330
1FB
100
AcDbEntity
  8
LC-001-100-D00-0
 62
     7
370
    50
100
AcDbLine
 10
734.73046
 20
1460.111547
 30
0.0
 11
734.73046
 21
1460.111547
 31
0.0
  0
LINE
  5
205
330
1FB
100
AcDbEntity
  8
LC-001-100-D00-0
 62
     7
370
    50
100
AcDbLine
 10
734.73046
 20
1460.111547
 30
0.0
 11
734.780365
 21
1460.065316
 31
0.0
  0
ENDBLK
  5
1FD
330
1FB
100
AcDbEntity
  8
0
100
AcDbBlockEnd
  0
BLOCK
  5
208
330
207
100
AcDbEntity
  8
0
100
AcDbBlockBegin
  2
POLY26
 70
     0
 71
     0
 10
0.0
 20
0.0
 30
0.0
  3
POLY26
  1

  4
POLY26
  0
LINE
  5
20A
330
207
100
AcDbEntity
  8
LC-001-100-D00-0
 62
     7
370
    50
100
AcDbLine
 10
734.581553
 20
1460.251564
 30
0.0
 11
734.581553
 21
1460.251564
 31
0.0
  0
LINE
  5
20B
330
207
100
AcDbEntity
  8
LC-001-100-D00-0
 62
     7
370
    50
100
AcDbLine
 10
734.581553
 20
1460.251564
 30
0.0
 11
734.514369
 21
1460.174001
 31
0.0
  0
LINE
  5
20C
330
207
100
AcDbEntity
  8
LC-001-100-D00-0
 62
     7
370
    50
100
AcDbLine
 10
734.514369
 20
1460.174001
 30
0.0
 11
734.514369
 21
1460.174001
 31
0.0
  0
LINE
  5
20D
330
207
100
AcDbEntity
  8
LC-001-100-D00-0
 62
     7
370
    50
100
AcDbLine
 10
734.514369
 20
1460.174001
 30
0.0
 11
734.485471
 21
1460.123006
 31
0.0
  0
LINE
  5
20E
330
207
100
AcDbEntity
  8
LC-001-100-D00-0
 62
     7
370
    50
100
AcDbLine
 10
734.485471
 20
1460.123006
 30
0.0
 11
734.485471
 21
1460.123006
 31
0.0
  0
LINE
  5
20F
330
207
100
AcDbEntity
  8
LC-001-100-D00-0
 62
     7
370
    50
100
AcDbLine
 10
734.485471
 20
1460.123006
 30
0.0
 11
734.464937
 21
1460.101298
 31
0.0
  0
ENDBLK
  5
209
330
207
100
AcDbEntity
  8
0
100
AcDbBlockEnd
  0
BLOCK
  5
212
330
211
100
AcDbEntity
  8
0
100
AcDbBlockBegin
  2
POLY27
 70
     0
 71
     0
 10
0.0
 20
0.0
 30
0.0
  3
POLY27
  1

  4
POLY27
  0
LINE
  5
214
330
211
100
AcDbEntity
  8
LC-001-100-D00-0
 62
     7
370
    50
100
AcDbLine
 10
735.718085
 20
1461.411282
 30
0.0
 11
735.718085
 21
1461.411282
 31
0.0
  0
LINE
  5
215
330
211
100
AcDbEntity
  8
LC-001-100-D00-0
 62
     7
370
    50
100
AcDbLine
 10
735.718085
 20
1461.411282
 30
0.0
 11
735.772563
 21
1461.459521
 31
0.0
  0
LINE
  5
216
330
211
100
AcDbEntity
  8
LC-001-100-D00-0
 62
     7
370
    50
100
AcDbLine
 10
735.772563
 20
1461.459521
 30
0.0
 11
735.772563
 21
1461.459521
 31
0.0
  0
LINE
  5
217
330
211
100
AcDbEntity
  8
LC-001-100-D00-0
 62
     7
370
    50
100
AcDbLine
 10
735.772563
 20
1461.459521
 30
0.0
 11
735.826796
 21
1461.491675
 31
0.0
  0
LINE
  5
218
330
211
100
AcDbEntity
  8
LC-001-100-D00-0
 62
     7
370
    50
100
AcDbLine
 10
735.826796
 20
1461.491675
 30
0.0
 11
735.826796
 21
1461.491675
 31
0.0
  0
LINE
  5
219
330
211
100
AcDbEntity
  8
LC-001-100-D00-0
 62
     7
370
    50
100
AcDbLine
 10
735.826796
 20
1461.491675
 30
0.0
 11
735.861714
 21
1461.50164
 31
0.0
  0
LINE
  5
21A
330
211
100
AcDbEntity
  8
LC-001-100-D00-0
 62
     7
370
    50
100
AcDbLine
 10
735.861714
 20
1461.50164
 30
0.0
 11
735.861714
 21
1461.50164
 31
0.0
  0
LINE
  5
21B
330
211
100
AcDbEntity
  8
LC-001-100-D00-0
 62
     7
370
    50
100
AcDbLine
 10
735.861714
 20
1461.50164
 30
0.0
 11
735.866702
 21
1461.503063
 31
0.0
  0
ENDBLK
  5
213
330
211
100
AcDbEntity
  8
0
100
AcDbBlockEnd
  0
BLOCK
  5
21E
330
21D
100
AcDbEntity
  8
0
100
AcDbBlockBegin
  2
POLY28
 70
     0
 71
     0
 10
0.0
 20
0.0
 30
0.0
  3
POLY28
  1

  4
POLY28
  0
LINE
  5
220
330
21D
100
AcDbEntity
  8
LC-001-100-D00-0
 62
     7
370
    50
100
AcDbLine
 10
735.718085
 20
1461.411282
 30
0.0
 11
735.718085
 21
1461.411282
 31
0.0
  0
LINE
  5
221
330
21D
100
AcDbEntity
  8
LC-001-100-D00-0
 62
     7
370
    50
100
AcDbLine
 10
735.718085
 20
1461.411282
 30
0.0
 11
735.764634
 21
1461.355503
 31
0.0
  0
LINE
  5
222
330
21D
100
AcDbEntity
  8
LC-001-100-D00-0
 62
     7
370
    50
100
AcDbLine
 10
735.764634
 20
1461.355503
 30
0.0
 11
735.764634
 21
1461.355503
 31
0.0
  0
LINE
  5
223
330
21D
100
AcDbEntity
  8
LC-001-100-D00-0
 62
     7
370
    50
100
AcDbLine
 10
735.764634
 20
1461.355503
 30
0.0
 11
735.805267
 21
1461.304571
 31
0.0
  0
LINE
  5
224
330
21D
100
AcDbEntity
  8
LC-001-100-D00-0
 62
     7
370
    50
100
AcDbLine
 10
735.805267
 20
1461.304571
 30
0.0
 11
735.805267
 21
1461.304571
 31
0.0
  0
LINE
  5
225
330
21D
100
AcDbEntity
  8
LC-001-100-D00-0
 62
     7
370
    50
100
AcDbLine
 10
735.805267
 20
1461.304571
 30
0.0
 11
735.853143
 21
1461.244766
 31
0.0
  0
LINE
  5
226
330
21D
100
AcDbEntity
  8
LC-001-100-D00-0
 62
     7
370
    50
100
AcDbLine
 10
735.853143
 20
1461.244766
 30
0.0
 11
735.853143
 21
1461.244766
 31
0.0
  0
LINE
  5
227
330
21D
100
AcDbEntity
  8
LC-001-100-D00-0
 62
     7
370
    50
100
AcDbLine
 10
735.853143
 20
1461.244766
 30
0.0
 11
735.902685
 21
1461.187636
 31
0.0
  0
ENDBLK
  5
21F
330
21D
100
AcDbEntity
  8
0
100
AcDbBlockEnd
  0
BLOCK
  5
22A
330
229
100
AcDbEntity
  8
0
100
AcDbBlockBegin
  2
POLY29
 70
     0
 71
     0
 10
0.0
 20
0.0
 30
0.0
  3
POLY29
  1

  4
POLY29
  0
LINE
  5
22C
330
229
100
AcDbEntity
  8
LC-001-100-D00-0
 62
     7
370
    50
100
AcDbLine
 10
735.482282
 20
1461.643157
 30
0.0
 11
735.482282
 21
1461.643157
 31
0.0
  0
LINE
  5
22D
330
229
100
AcDbEntity
  8
LC-001-100-D00-0
 62
     7
370
    50
100
AcDbLine
 10
735.482282
 20
1461.643157
 30
0.0
 11
735.478283
 21
1461.639158
 31
0.0
  0
LINE
  5
22E
330
229
100
AcDbEntity
  8
LC-001-100-D00-0
 62
     7
370
    50
100
AcDbLine
 10
735.478283
 20
1461.639158
 30
0.0
 11
735.478283
 21
1461.639158
 31
0.0
  0
LINE
  5
22F
330
229
100
AcDbEntity
  8
LC-001-100-D00-0
 62
     7
370
    50
100
AcDbLine
 10
735.478283
 20
1461.639158
 30
0.0
 11
735.45029
 21
1461.611165
 31
0.0
  0
LINE
  5
230
330
229
100
AcDbEntity
  8
LC-001-100-D00-0
 62
     7
370
    50
100
AcDbLine
 10
735.45029
 20
1461.611165
 30
0.0
 11
735.45029
 21
1461.611165
 31
0.0
  0
LINE
  5
231
330
229
100
AcDbEntity
  8
LC-001-100-D00-0
 62
     7
370
    50
100
AcDbLine
 10
735.45029
 20
1461.611165
 30
0.0
 11
735.402764
 21
1461.563639
 31
0.0
  0
LINE
  5
232
330
229
100
AcDbEntity
  8
LC-001-100-D00-0
 62
     7
370
    50
100
AcDbLine
 10
735.402764
 20
1461.563639
 30
0.0
 11
735.402764
 21
1461.563639
 31
0.0
  0
LINE
  5
233
330
229
100
AcDbEntity
  8
LC-001-100-D00-0
 62
     7
370
    50
100
AcDbLine
 10
735.402764
 20
1461.563639
 30
0.0
 11
735.380809
 21
1461.541684
 31
0.0
  0
ENDBLK
  5
22B
330
229
100
AcDbEntity
  8
0
100
AcDbBlockEnd
  0
BLOCK
  5
236
330
235
100
AcDbEntity
  8
0
100
AcDbBlockBegin
  2
POLY30
 70
     0
 71
     0
 10
0.0
 20
0.0
 30
0.0
  3
POLY30
  1

  4
POLY30
  0
LINE
  5
238
330
235
100
AcDbEntity
  8
LC-001-100-D00-0
 62
     7
370
    50
100
AcDbLine
 10
735.718085
 20
1461.411282
 30
0.0
 11
735.718085
 21
1461.411282
 31
0.0
  0
LINE
  5
239
330
235
100
AcDbEntity
  8
LC-001-100-D00-0
 62
     7
370
    50
100
AcDbLine
 10
735.718085
 20
1461.411282
 30
0.0
 11
735.631274
 21
1461.401259
 31
0.0
  0
LINE
  5
23A
330
235
100
AcDbEntity
  8
LC-001-100-D00-0
 62
     7
370
    50
100
AcDbLine
 10
735.631274
 20
1461.401259
 30
0.0
 11
735.631274
 21
1461.401259
 31
0.0
  0
LINE
  5
23B
330
235
100
AcDbEntity
  8
LC-001-100-D00-0
 62
     7
370
    50
100
AcDbLine
 10
735.631274
 20
1461.401259
 30
0.0
 11
735.547094
 21
1461.406415
 31
0.0
  0
LINE
  5
23C
330
235
100
AcDbEntity
  8
LC-001-100-D00-0
 62
     7
370
    50
100
AcDbLine
 10
735.547094
 20
1461.406415
 30
0.0
 11
735.547094
 21
1461.406415
 31
0.0
  0
LINE
  5
23D
330
235
100
AcDbEntity
  8
LC-001-100-D00-0
 62
     7
370
    50
100
AcDbLine
 10
735.547094
 20
1461.406415
 30
0.0
 11
735.480014
 21
1461.441575
 31
0.0
  0
LINE
  5
23E
330
235
100
AcDbEntity
  8
LC-001-100-D00-0
 62
     7
370
    50
100
AcDbLine
 10
735.480014
 20
1461.441575
 30
0.0
 11
735.480014
 21
1461.441575
 31
0.0
  0
LINE
  5
23F
330
235
100
AcDbEntity
  8
LC-001-100-D00-0
 62
     7
370
    50
100
AcDbLine
 10
735.480014
 20
1461.441575
 30
0.0
 11
735.380809
 21
1461.541684
 31
0.0
  0
ENDBLK
  5
237
330
235
100
AcDbEntity
  8
0
100
AcDbBlockEnd
  0
BLOCK
  5
242
330
241
100
AcDbEntity
  8
0
100
AcDbBlockBegin
  2
POLY31
 70
     0
 71
     0
 10
0.0
 20
0.0
 30
0.0
  3
POLY31
  1

  4
POLY31
  0
LINE
  5
244
330
241
100
AcDbEntity
  8
LC-001-100-D00-0
 62
     7
370
    50
100
AcDbLine
 10
735.380809
 20
1461.541684
 30
0.0
 11
735.380809
 21
1461.541684
 31
0.0
  0
LINE
  5
245
330
241
100
AcDbEntity
  8
LC-001-100-D00-0
 62
     7
370
    50
100
AcDbLine
 10
735.380809
 20
1461.541684
 30
0.0
 11
735.338296
 21
1461.499171
 31
0.0
  0
LINE
  5
246
330
241
100
AcDbEntity
  8
LC-001-100-D00-0
 62
     7
370
    50
100
AcDbLine
 10
735.338296
 20
1461.499171
 30
0.0
 11
735.338296
 21
1461.499171
 31
0.0
  0
LINE
  5
247
330
241
100
AcDbEntity
  8
LC-001-100-D00-0
 62
     7
370
    50
100
AcDbLine
 10
735.338296
 20
1461.499171
 30
0.0
 11
735.260225
 21
1461.4211
 31
0.0
  0
LINE
  5
248
330
241
100
AcDbEntity
  8
LC-001-100-D00-0
 62
     7
370
    50
100
AcDbLine
 10
735.260225
 20
1461.4211
 30
0.0
 11
735.260225
 21
1461.4211
 31
0.0
  0
LINE
  5
249
330
241
100
AcDbEntity
  8
LC-001-100-D00-0
 62
     7
370
    50
100
AcDbLine
 10
735.260225
 20
1461.4211
 30
0.0
 11
735.195917
 21
1461.356792
 31
0.0
  0
LINE
  5
24A
330
241
100
AcDbEntity
  8
LC-001-100-D00-0
 62
     7
370
    50
100
AcDbLine
 10
735.195917
 20
1461.356792
 30
0.0
 11
735.195917
 21
1461.356792
 31
0.0
  0
LINE
  5
24B
330
241
100
AcDbEntity
  8
LC-001-100-D00-0
 62
     7
370
    50
100
AcDbLine
 10
735.195917
 20
1461.356792
 30
0.0
 11
735.129213
 21
1461.290088
 31
0.0
  0
ENDBLK
  5
243
330
241
100
AcDbEntity
  8
0
100
AcDbBlockEnd
  0
BLOCK
  5
24E
330
24D
100
AcDbEntity
  8
0
100
AcDbBlockBegin
  2
POLY32
 70
     0
 71
     0
 10
0.0
 20
0.0
 30
0.0
  3
POLY32
  1

  4
POLY32
  0
LINE
  5
250
330
24D
100
AcDbEntity
  8
LC-001-100-D00-0
 62
     7
370
    50
100
AcDbLine
 10
735.129213
 20
1461.290088
 30
0.0
 11
735.129213
 21
1461.290088
 31
0.0
  0
LINE
  5
251
330
24D
100
AcDbEntity
  8
LC-001-100-D00-0
 62
     7
370
    50
100
AcDbLine
 10
735.129213
 20
1461.290088
 30
0.0
 11
735.310521
 21
1461.155721
 31
0.0
  0
LINE
  5
252
330
24D
100
AcDbEntity
  8
LC-001-100-D00-0
 62
     7
370
    50
100
AcDbLine
 10
735.310521
 20
1461.155721
 30
0.0
 11
735.310521
 21
1461.155721
 31
0.0
  0
LINE
  5
253
330
24D
100
AcDbEntity
  8
LC-001-100-D00-0
 62
     7
370
    50
100
AcDbLine
 10
735.310521
 20
1461.155721
 30
0.0
 11
735.522261
 21
1461.078132
 31
0.0
  0
LINE
  5
254
330
24D
100
AcDbEntity
  8
LC-001-100-D00-0
 62
     7
370
    50
100
AcDbLine
 10
735.522261
 20
1461.078132
 30
0.0
 11
735.522261
 21
1461.078132
 31
0.0
  0
LINE
  5
255
330
24D
100
AcDbEntity
  8
LC-001-100-D00-0
 62
     7
370
    50
100
AcDbLine
 10
735.522261
 20
1461.078132
 30
0.0
 11
735.730845
 21
1461.080908
 31
0.0
  0
LINE
  5
256
330
24D
100
AcDbEntity
  8
LC-001-100-D00-0
 62
     7
370
    50
100
AcDbLine
 10
735.730845
 20
1461.080908
 30
0.0
 11
735.730845
 21
1461.080908
 31
0.0
  0
LINE
  5
257
330
24D
100
AcDbEntity
  8
LC-001-100-D00-0
 62
     7
370
    50
100
AcDbLine
 10
735.730845
 20
1461.080908
 30
0.0
 11
735.902685
 21
1461.187636
 31
0.0
  0
ENDBLK
  5
24F
330
24D
100
AcDbEntity
  8
0
100
AcDbBlockEnd
  0
BLOCK
  5
25A
330
259
100
AcDbEntity
  8
0
100
AcDbBlockBegin
  2
POLY33
 70
     0
 71
     0
 10
0.0
 20
0.0
 30
0.0
  3
POLY33
  1

  4
POLY33
  0
LINE
  5
25C
330
259
100
AcDbEntity
  8
LC-001-100-D00-0
 62
     7
370
    50
100
AcDbLine
 10
787.066282
 20
1402.123156
 30
0.0
 11
787.066282
 21
1402.123156
 31
0.0
  0
LINE
  5
25D
330
259
100
AcDbEntity
  8
LC-001-100-D00-0
 62
     7
370
    50
100
AcDbLine
 10
787.066282
 20
1402.123156
 30
0.0
 11
786.006681
 21
1403.488636
 31
0.0
  0
LINE
  5
25E
330
259
100
AcDbEntity
  8
LC-001-100-D00-0
 62
     7
370
    50
100
AcDbLine
 10
786.006681
 20
1403.488636
 30
0.0
 11
786.006681
 21
1403.488636
 31
0.0
  0
LINE
  5
25F
330
259
100
AcDbEntity
  8
LC-001-100-D00-0
 62
     7
370
    50
100
AcDbLine
 10
786.006681
 20
1403.488636
 30
0.0
 11
783.707679
 21
1406.002628
 31
0.0
  0
LINE
  5
260
330
259
100
AcDbEntity
  8
LC-001-100-D00-0
 62
     7
370
    50
100
AcDbLine
 10
783.707679
 20
1406.002628
 30
0.0
 11
783.707679
 21
1406.002628
 31
0.0
  0
LINE
  5
261
330
259
100
AcDbEntity
  8
LC-001-100-D00-0
 62
     7
370
    50
100
AcDbLine
 10
783.707679
 20
1406.002628
 30
0.0
 11
780.669786
 21
1409.117786
 31
0.0
  0
LINE
  5
262
330
259
100
AcDbEntity
  8
LC-001-100-D00-0
 62
     7
370
    50
100
AcDbLine
 10
780.669786
 20
1409.117786
 30
0.0
 11
780.669786
 21
1409.117786
 31
0.0
  0
LINE
  5
263
330
259
100
AcDbEntity
  8
LC-001-100-D00-0
 62
     7
370
    50
100
AcDbLine
 10
780.669786
 20
1409.117786
 30
0.0
 11
777.554628
 21
1412.155679
 31
0.0
  0
LINE
  5
264
330
259
100
AcDbEntity
  8
LC-001-100-D00-0
 62
     7
370
    50
100
AcDbLine
 10
777.554628
 20
1412.155679
 30
0.0
 11
777.554628
 21
1412.155679
 31
0.0
  0
LINE
  5
265
330
259
100
AcDbEntity
  8
LC-001-100-D00-0
 62
     7
370
    50
100
AcDbLine
 10
777.554628
 20
1412.155679
 30
0.0
 11
775.065249
 21
1414.433354
 31
0.0
  0
LINE
  5
266
330
259
100
AcDbEntity
  8
LC-001-100-D00-0
 62
     7
370
    50
100
AcDbLine
 10
775.065249
 20
1414.433354
 30
0.0
 11
775.065249
 21
1414.433354
 31
0.0
  0
LINE
  5
267
330
259
100
AcDbEntity
  8
LC-001-100-D00-0
 62
     7
370
    50
100
AcDbLine
 10
775.065249
 20
1414.433354
 30
0.0
 11
773.692303
 21
1415.505388
 31
0.0
  0
ENDBLK
  5
25B
330
259
100
AcDbEntity
  8
0
100
AcDbBlockEnd
  0
BLOCK
  5
26A
330
269
100
AcDbEntity
  8
0
100
AcDbBlockBegin
  2
POLY34
 70
     0
 71
     0
 10
0.0
 20
0.0
 30
0.0
  3
POLY34
  1

  4
POLY34
  0
LINE
  5
26C
330
269
100
AcDbEntity
  8
LC-001-100-D00-0
 62
     7
370
    50
100
AcDbLine
 10
771.770185
 20
1414.30186
 30
0.0
 11
771.770185
 21
1414.30186
 31
0.0
  0
LINE
  5
26D
330
269
100
AcDbEntity
  8
LC-001-100-D00-0
 62
     7
370
    50
100
AcDbLine
 10
771.770185
 20
1414.30186
 30
0.0
 11
772.884586
 21
1412.865761
 31
0.0
  0
LINE
  5
26E
330
269
100
AcDbEntity
  8
LC-001-100-D00-0
 62
     7
370
    50
100
AcDbLine
 10
772.884586
 20
1412.865761
 30
0.0
 11
772.884586
 21
1412.865761
 31
0.0
  0
LINE
  5
26F
330
269
100
AcDbEntity
  8
LC-001-100-D00-0
 62
     7
370
    50
100
AcDbLine
 10
772.884586
 20
1412.865761
 30
0.0
 11
775.302485
 21
1410.221753
 31
0.0
  0
LINE
  5
270
330
269
100
AcDbEntity
  8
LC-001-100-D00-0
 62
     7
370
    50
100
AcDbLine
 10
775.302485
 20
1410.221753
 30
0.0
 11
775.302485
 21
1410.221753
 31
0.0
  0
LINE
  5
271
330
269
100
AcDbEntity
  8
LC-001-100-D00-0
 62
     7
370
    50
100
AcDbLine
 10
775.302485
 20
1410.221753
 30
0.0
 11
778.497489
 21
1406.945489
 31
0.0
  0
LINE
  5
272
330
269
100
AcDbEntity
  8
LC-001-100-D00-0
 62
     7
370
    50
100
AcDbLine
 10
778.497489
 20
1406.945489
 30
0.0
 11
778.497489
 21
1406.945489
 31
0.0
  0
LINE
  5
273
330
269
100
AcDbEntity
  8
LC-001-100-D00-0
 62
     7
370
    50
100
AcDbLine
 10
778.497489
 20
1406.945489
 30
0.0
 11
781.773753
 21
1403.750485
 31
0.0
  0
LINE
  5
274
330
269
100
AcDbEntity
  8
LC-001-100-D00-0
 62
     7
370
    50
100
AcDbLine
 10
781.773753
 20
1403.750485
 30
0.0
 11
781.773753
 21
1403.750485
 31
0.0
  0
LINE
  5
275
330
269
100
AcDbEntity
  8
LC-001-100-D00-0
 62
     7
370
    50
100
AcDbLine
 10
781.773753
 20
1403.750485
 30
0.0
 11
784.417761
 21
1401.332586
 31
0.0
  0
LINE
  5
276
330
269
100
AcDbEntity
  8
LC-001-100-D00-0
 62
     7
370
    50
100
AcDbLine
 10
784.417761
 20
1401.332586
 30
0.0
 11
784.417761
 21
1401.332586
 31
0.0
  0
LINE
  5
277
330
269
100
AcDbEntity
  8
LC-001-100-D00-0
 62
     7
370
    50
100
AcDbLine
 10
784.417761
 20
1401.332586
 30
0.0
 11
785.85386
 21
1400.218185
 31
0.0
  0
ENDBLK
  5
26B
330
269
100
AcDbEntity
  8
0
100
AcDbBlockEnd
  0
BLOCK
  5
27A
330
279
100
AcDbEntity
  8
0
100
AcDbBlockBegin
  2
POLY35
 70
     0
 71
     0
 10
0.0
 20
0.0
 30
0.0
  3
POLY35
  1

  4
POLY35
  0
LINE
  5
27C
330
279
100
AcDbEntity
  8
LC-001-100-D00-0
 62
     7
370
    50
100
AcDbLine
 10
772.517718
 20
1414.356844
 30
0.0
 11
772.517718
 21
1414.356844
 31
0.0
  0
LINE
  5
27D
330
279
100
AcDbEntity
  8
LC-001-100-D00-0
 62
     7
370
    50
100
AcDbLine
 10
772.517718
 20
1414.356844
 30
0.0
 11
773.577319
 21
1412.991363
 31
0.0
  0
LINE
  5
27E
330
279
100
AcDbEntity
  8
LC-001-100-D00-0
 62
     7
370
    50
100
AcDbLine
 10
773.577319
 20
1412.991363
 30
0.0
 11
773.577319
 21
1412.991363
 31
0.0
  0
LINE
  5
27F
330
279
100
AcDbEntity
  8
LC-001-100-D00-0
 62
     7
370
    50
100
AcDbLine
 10
773.577319
 20
1412.991363
 30
0.0
 11
775.876321
 21
1410.477372
 31
0.0
  0
LINE
  5
280
330
279
100
AcDbEntity
  8
LC-001-100-D00-0
 62
     7
370
    50
100
AcDbLine
 10
775.876321
 20
1410.477372
 30
0.0
 11
775.876321
 21
1410.477372
 31
0.0
  0
LINE
  5
281
330
279
100
AcDbEntity
  8
LC-001-100-D00-0
 62
     7
370
    50
100
AcDbLine
 10
775.876321
 20
1410.477372
 30
0.0
 11
778.914214
 21
1407.362214
 31
0.0
  0
LINE
  5
282
330
279
100
AcDbEntity
  8
LC-001-100-D00-0
 62
     7
370
    50
100
AcDbLine
 10
778.914214
 20
1407.362214
 30
0.0
 11
778.914214
 21
1407.362214
 31
0.0
  0
LINE
  5
283
330
279
100
AcDbEntity
  8
LC-001-100-D00-0
 62
     7
370
    50
100
AcDbLine
 10
778.914214
 20
1407.362214
 30
0.0
 11
782.029372
 21
1404.324321
 31
0.0
  0
LINE
  5
284
330
279
100
AcDbEntity
  8
LC-001-100-D00-0
 62
     7
370
    50
100
AcDbLine
 10
782.029372
 20
1404.324321
 30
0.0
 11
782.029372
 21
1404.324321
 31
0.0
  0
LINE
  5
285
330
279
100
AcDbEntity
  8
LC-001-100-D00-0
 62
     7
370
    50
100
AcDbLine
 10
782.029372
 20
1404.324321
 30
0.0
 11
784.543363
 21
1402.025319
 31
0.0
  0
LINE
  5
286
330
279
100
AcDbEntity
  8
LC-001-100-D00-0
 62
     7
370
    50
100
AcDbLine
 10
784.543363
 20
1402.025319
 30
0.0
 11
784.543363
 21
1402.025319
 31
0.0
  0
LINE
  5
287
330
279
100
AcDbEntity
  8
LC-001-100-D00-0
 62
     7
370
    50
100
AcDbLine
 10
784.543363
 20
1402.025319
 30
0.0
 11
785.908844
 21
1400.965717
 31
0.0
  0
ENDBLK
  5
27B
330
279
100
AcDbEntity
  8
0
100
AcDbBlockEnd
  0
BLOCK
  5
28A
330
289
100
AcDbEntity
  8
0
100
AcDbBlockBegin
  2
POLY36
 70
     0
 71
     0
 10
0.0
 20
0.0
 30
0.0
  3
POLY36
  1

  4
POLY36
  0
LINE
  5
28C
330
289
100
AcDbEntity
  8
LC-001-100-D00-0
 62
     7
370
    50
100
AcDbLine
 10
787.813815
 20
1402.178139
 30
0.0
 11
787.813815
 21
1402.178139
 31
0.0
  0
LINE
  5
28D
330
289
100
AcDbEntity
  8
LC-001-100-D00-0
 62
     7
370
    50
100
AcDbLine
 10
787.813815
 20
1402.178139
 30
0.0
 11
786.699414
 21
1403.614239
 31
0.0
  0
LINE
  5
28E
330
289
100
AcDbEntity
  8
LC-001-100-D00-0
 62
     7
370
    50
100
AcDbLine
 10
786.699414
 20
1403.614239
 30
0.0
 11
786.699414
 21
1403.614239
 31
0.0
  0
LINE
  5
28F
330
289
100
AcDbEntity
  8
LC-001-100-D00-0
 62
     7
370
    50
100
AcDbLine
 10
786.699414
 20
1403.614239
 30
0.0
 11
784.281514
 21
1406.258246
 31
0.0
  0
LINE
  5
290
330
289
100
AcDbEntity
  8
LC-001-100-D00-0
 62
     7
370
    50
100
AcDbLine
 10
784.281514
 20
1406.258246
 30
0.0
 11
784.281514
 21
1406.258246
 31
0.0
  0
LINE
  5
291
330
289
100
AcDbEntity
  8
LC-001-100-D00-0
 62
     7
370
    50
100
AcDbLine
 10
784.281514
 20
1406.258246
 30
0.0
 11
781.086511
 21
1409.534511
 31
0.0
  0
LINE
  5
292
330
289
100
AcDbEntity
  8
LC-001-100-D00-0
 62
     7
370
    50
100
AcDbLine
 10
781.086511
 20
1409.534511
 30
0.0
 11
781.086511
 21
1409.534511
 31
0.0
  0
LINE
  5
293
330
289
100
AcDbEntity
  8
LC-001-100-D00-0
 62
     7
370
    50
100
AcDbLine
 10
781.086511
 20
1409.534511
 30
0.0
 11
777.810247
 21
1412.729514
 31
0.0
  0
LINE
  5
294
330
289
100
AcDbEntity
  8
LC-001-100-D00-0
 62
     7
370
    50
100
AcDbLine
 10
777.810247
 20
1412.729514
 30
0.0
 11
777.810247
 21
1412.729514
 31
0.0
  0
LINE
  5
295
330
289
100
AcDbEntity
  8
LC-001-100-D00-0
 62
     7
370
    50
100
AcDbLine
 10
777.810247
 20
1412.729514
 30
0.0
 11
775.166239
 21
1415.147414
 31
0.0
  0
LINE
  5
296
330
289
100
AcDbEntity
  8
LC-001-100-D00-0
 62
     7
370
    50
100
AcDbLine
 10
775.166239
 20
1415.147414
 30
0.0
 11
775.166239
 21
1415.147414
 31
0.0
  0
LINE
  5
297
330
289
100
AcDbEntity
  8
LC-001-100-D00-0
 62
     7
370
    50
100
AcDbLine
 10
775.166239
 20
1415.147414
 30
0.0
 11
773.73014
 21
1416.261815
 31
0.0
  0
ENDBLK
  5
28B
330
289
100
AcDbEntity
  8
0
100
AcDbBlockEnd
  0
BLOCK
  5
29A
330
299
100
AcDbEntity
  8
0
100
AcDbBlockBegin
  2
POLY37
 70
     0
 71
     0
 10
0.0
 20
0.0
 30
0.0
  3
POLY37
  1

  4
POLY37
  0
LINE
  5
29C
330
299
100
AcDbEntity
  8
LC-001-100-D00-0
 62
     7
370
    50
100
AcDbLine
 10
786.165553
 20
1400.731563
 30
0.0
 11
786.165553
 21
1400.731563
 31
0.0
  0
LINE
  5
29D
330
299
100
AcDbEntity
  8
LC-001-100-D00-0
 62
     7
370
    50
100
AcDbLine
 10
786.165553
 20
1400.731563
 30
0.0
 11
786.212348
 21
1400.687429
 31
0.0
  0
LINE
  5
29E
330
299
100
AcDbEntity
  8
LC-001-100-D00-0
 62
     7
370
    50
100
AcDbLine
 10
786.212348
 20
1400.687429
 30
0.0
 11
786.212348
 21
1400.687429
 31
0.0
  0
LINE
  5
29F
330
299
100
AcDbEntity
  8
LC-001-100-D00-0
 62
     7
370
    50
100
AcDbLine
 10
786.212348
 20
1400.687429
 30
0.0
 11
786.263444
 21
1400.639269
 31
0.0
  0
LINE
  5
2A0
330
299
100
AcDbEntity
  8
LC-001-100-D00-0
 62
     7
370
    50
100
AcDbLine
 10
786.263444
 20
1400.639269
 30
0.0
 11
786.263444
 21
1400.639269
 31
0.0
  0
LINE
  5
2A1
330
299
100
AcDbEntity
  8
LC-001-100-D00-0
 62
     7
370
    50
100
AcDbLine
 10
786.263444
 20
1400.639269
 30
0.0
 11
786.31446
 21
1400.591546
 31
0.0
  0
LINE
  5
2A2
330
299
100
AcDbEntity
  8
LC-001-100-D00-0
 62
     7
370
    50
100
AcDbLine
 10
786.31446
 20
1400.591546
 30
0.0
 11
786.31446
 21
1400.591546
 31
0.0
  0
LINE
  5
2A3
330
299
100
AcDbEntity
  8
LC-001-100-D00-0
 62
     7
370
    50
100
AcDbLine
 10
786.31446
 20
1400.591546
 30
0.0
 11
786.364365
 21
1400.545315
 31
0.0
  0
ENDBLK
  5
29B
330
299
100
AcDbEntity
  8
0
100
AcDbBlockEnd
  0
BLOCK
  5
2A6
330
2A5
100
AcDbEntity
  8
0
100
AcDbBlockBegin
  2
POLY38
 70
     0
 71
     0
 10
0.0
 20
0.0
 30
0.0
  3
POLY38
  1

  4
POLY38
  0
LINE
  5
2A8
330
2A5
100
AcDbEntity
  8
LC-001-100-D00-0
 62
     7
370
    50
100
AcDbLine
 10
786.165553
 20
1400.731563
 30
0.0
 11
786.165553
 21
1400.731563
 31
0.0
  0
LINE
  5
2A9
330
2A5
100
AcDbEntity
  8
LC-001-100-D00-0
 62
     7
370
    50
100
AcDbLine
 10
786.165553
 20
1400.731563
 30
0.0
 11
786.098369
 21
1400.654
 31
0.0
  0
LINE
  5
2AA
330
2A5
100
AcDbEntity
  8
LC-001-100-D00-0
 62
     7
370
    50
100
AcDbLine
 10
786.098369
 20
1400.654
 30
0.0
 11
786.098369
 21
1400.654
 31
0.0
  0
LINE
  5
2AB
330
2A5
100
AcDbEntity
  8
LC-001-100-D00-0
 62
     7
370
    50
100
AcDbLine
 10
786.098369
 20
1400.654
 30
0.0
 11
786.069471
 21
1400.603005
 31
0.0
  0
LINE
  5
2AC
330
2A5
100
AcDbEntity
  8
LC-001-100-D00-0
 62
     7
370
    50
100
AcDbLine
 10
786.069471
 20
1400.603005
 30
0.0
 11
786.069471
 21
1400.603005
 31
0.0
  0
LINE
  5
2AD
330
2A5
100
AcDbEntity
  8
LC-001-100-D00-0
 62
     7
370
    50
100
AcDbLine
 10
786.069471
 20
1400.603005
 30
0.0
 11
786.048938
 21
1400.581297
 31
0.0
  0
ENDBLK
  5
2A7
330
2A5
100
AcDbEntity
  8
0
100
AcDbBlockEnd
  0
BLOCK
  5
2B0
330
2AF
100
AcDbEntity
  8
0
100
AcDbBlockBegin
  2
POLY39
 70
     0
 71
     0
 10
0.0
 20
0.0
 30
0.0
  3
POLY39
  1

  4
POLY39
  0
LINE
  5
2B2
330
2AF
100
AcDbEntity
  8
LC-001-100-D00-0
 62
     7
370
    50
100
AcDbLine
 10
786.018543
 20
1401.075416
 30
0.0
 11
786.018543
 21
1401.075416
 31
0.0
  0
LINE
  5
2B3
330
2AF
100
AcDbEntity
  8
LC-001-100-D00-0
 62
     7
370
    50
100
AcDbLine
 10
786.018543
 20
1401.075416
 30
0.0
 11
785.982778
 21
1401.039652
 31
0.0
  0
LINE
  5
2B4
330
2AF
100
AcDbEntity
  8
LC-001-100-D00-0
 62
     7
370
    50
100
AcDbLine
 10
785.982778
 20
1401.039652
 30
0.0
 11
785.982778
 21
1401.039652
 31
0.0
  0
LINE
  5
2B5
330
2AF
100
AcDbEntity
  8
LC-001-100-D00-0
 62
     7
370
    50
100
AcDbLine
 10
785.982778
 20
1401.039652
 30
0.0
 11
785.940836
 21
1400.997709
 31
0.0
  0
LINE
  5
2B6
330
2AF
100
AcDbEntity
  8
LC-001-100-D00-0
 62
     7
370
    50
100
AcDbLine
 10
785.940836
 20
1400.997709
 30
0.0
 11
785.940836
 21
1400.997709
 31
0.0
  0
LINE
  5
2B7
330
2AF
100
AcDbEntity
  8
LC-001-100-D00-0
 62
     7
370
    50
100
AcDbLine
 10
785.940836
 20
1400.997709
 30
0.0
 11
785.912843
 21
1400.969716
 31
0.0
  0
LINE
  5
2B8
330
2AF
100
AcDbEntity
  8
LC-001-100-D00-0
 62
     7
370
    50
100
AcDbLine
 10
785.912843
 20
1400.969716
 30
0.0
 11
785.912843
 21
1400.969716
 31
0.0
  0
LINE
  5
2B9
330
2AF
100
AcDbEntity
  8
LC-001-100-D00-0
 62
     7
370
    50
100
AcDbLine
 10
785.912843
 20
1400.969716
 30
0.0
 11
785.908844
 21
1400.965717
 31
0.0
  0
ENDBLK
  5
2B1
330
2AF
100
AcDbEntity
  8
0
100
AcDbBlockEnd
  0
BLOCK
  5
2BC
330
2BB
100
AcDbEntity
  8
0
100
AcDbBlockBegin
  2
POLY40
 70
     0
 71
     0
 10
0.0
 20
0.0
 30
0.0
  3
POLY40
  1

  4
POLY40
  0
LINE
  5
2BE
330
2BB
100
AcDbEntity
  8
LC-001-100-D00-0
 62
     7
370
    50
100
AcDbLine
 10
786.165553
 20
1400.731563
 30
0.0
 11
786.165553
 21
1400.731563
 31
0.0
  0
LINE
  5
2BF
330
2BB
100
AcDbEntity
  8
LC-001-100-D00-0
 62
     7
370
    50
100
AcDbLine
 10
786.165553
 20
1400.731563
 30
0.0
 11
786.16756
 21
1400.840776
 31
0.0
  0
LINE
  5
2C0
330
2BB
100
AcDbEntity
  8
LC-001-100-D00-0
 62
     7
370
    50
100
AcDbLine
 10
786.16756
 20
1400.840776
 30
0.0
 11
786.16756
 21
1400.840776
 31
0.0
  0
LINE
  5
2C1
330
2BB
100
AcDbEntity
  8
LC-001-100-D00-0
 62
     7
370
    50
100
AcDbLine
 10
786.16756
 20
1400.840776
 30
0.0
 11
786.142158
 21
1400.923884
 31
0.0
  0
LINE
  5
2C2
330
2BB
100
AcDbEntity
  8
LC-001-100-D00-0
 62
     7
370
    50
100
AcDbLine
 10
786.142158
 20
1400.923884
 30
0.0
 11
786.142158
 21
1400.923884
 31
0.0
  0
LINE
  5
2C3
330
2BB
100
AcDbEntity
  8
LC-001-100-D00-0
 62
     7
370
    50
100
AcDbLine
 10
786.142158
 20
1400.923884
 30
0.0
 11
786.085943
 21
1401.003611
 31
0.0
  0
LINE
  5
2C4
330
2BB
100
AcDbEntity
  8
LC-001-100-D00-0
 62
     7
370
    50
100
AcDbLine
 10
786.085943
 20
1401.003611
 30
0.0
 11
786.085943
 21
1401.003611
 31
0.0
  0
LINE
  5
2C5
330
2BB
100
AcDbEntity
  8
LC-001-100-D00-0
 62
     7
370
    50
100
AcDbLine
 10
786.085943
 20
1401.003611
 30
0.0
 11
786.018543
 21
1401.075416
 31
0.0
  0
ENDBLK
  5
2BD
330
2BB
100
AcDbEntity
  8
0
100
AcDbBlockEnd
  0
BLOCK
  5
2C8
330
2C7
100
AcDbEntity
  8
0
100
AcDbBlockBegin
  2
POLY41
 70
     0
 71
     0
 10
0.0
 20
0.0
 30
0.0
  3
POLY41
  1

  4
POLY41
  0
LINE
  5
2CA
330
2C7
100
AcDbEntity
  8
LC-001-100-D00-0
 62
     7
370
    50
100
AcDbLine
 10
785.85386
 20
1400.218185
 30
0.0
 11
785.85386
 21
1400.218185
 31
0.0
  0
LINE
  5
2CB
330
2C7
100
AcDbEntity
  8
LC-001-100-D00-0
 62
     7
370
    50
100
AcDbLine
 10
785.85386
 20
1400.218185
 30
0.0
 11
785.919894
 21
1400.232681
 31
0.0
  0
LINE
  5
2CC
330
2C7
100
AcDbEntity
  8
LC-001-100-D00-0
 62
     7
370
    50
100
AcDbLine
 10
785.919894
 20
1400.232681
 30
0.0
 11
785.919894
 21
1400.232681
 31
0.0
  0
LINE
  5
2CD
330
2C7
100
AcDbEntity
  8
LC-001-100-D00-0
 62
     7
370
    50
100
AcDbLine
 10
785.919894
 20
1400.232681
 30
0.0
 11
786.041656
 21
1400.301461
 31
0.0
  0
LINE
  5
2CE
330
2C7
100
AcDbEntity
  8
LC-001-100-D00-0
 62
     7
370
    50
100
AcDbLine
 10
786.041656
 20
1400.301461
 30
0.0
 11
786.041656
 21
1400.301461
 31
0.0
  0
LINE
  5
2CF
330
2C7
100
AcDbEntity
  8
LC-001-100-D00-0
 62
     7
370
    50
100
AcDbLine
 10
786.041656
 20
1400.301461
 30
0.0
 11
786.196815
 21
1400.410559
 31
0.0
  0
LINE
  5
2D0
330
2C7
100
AcDbEntity
  8
LC-001-100-D00-0
 62
     7
370
    50
100
AcDbLine
 10
786.196815
 20
1400.410559
 30
0.0
 11
786.196815
 21
1400.410559
 31
0.0
  0
LINE
  5
2D1
330
2C7
100
AcDbEntity
  8
LC-001-100-D00-0
 62
     7
370
    50
100
AcDbLine
 10
786.196815
 20
1400.410559
 30
0.0
 11
786.364365
 21
1400.545315
 31
0.0
  0
ENDBLK
  5
2C9
330
2C7
100
AcDbEntity
  8
0
100
AcDbBlockEnd
  0
BLOCK
  5
2D4
330
2D3
100
AcDbEntity
  8
0
100
AcDbBlockBegin
  2
POLY42
 70
     0
 71
     0
 10
0.0
 20
0.0
 30
0.0
  3
POLY42
  1

  4
POLY42
  0
LINE
  5
2D6
330
2D3
100
AcDbEntity
  8
LC-001-100-D00-0
 62
     7
370
    50
100
AcDbLine
 10
787.066282
 20
1402.123156
 30
0.0
 11
787.066282
 21
1402.123156
 31
0.0
  0
LINE
  5
2D7
330
2D3
100
AcDbEntity
  8
LC-001-100-D00-0
 62
     7
370
    50
100
AcDbLine
 10
787.066282
 20
1402.123156
 30
0.0
 11
787.062283
 21
1402.119157
 31
0.0
  0
LINE
  5
2D8
330
2D3
100
AcDbEntity
  8
LC-001-100-D00-0
 62
     7
370
    50
100
AcDbLine
 10
787.062283
 20
1402.119157
 30
0.0
 11
787.062283
 21
1402.119157
 31
0.0
  0
LINE
  5
2D9
330
2D3
100
AcDbEntity
  8
LC-001-100-D00-0
 62
     7
370
    50
100
AcDbLine
 10
787.062283
 20
1402.119157
 30
0.0
 11
787.034291
 21
1402.091164
 31
0.0
  0
LINE
  5
2DA
330
2D3
100
AcDbEntity
  8
LC-001-100-D00-0
 62
     7
370
    50
100
AcDbLine
 10
787.034291
 20
1402.091164
 30
0.0
 11
787.034291
 21
1402.091164
 31
0.0
  0
LINE
  5
2DB
330
2D3
100
AcDbEntity
  8
LC-001-100-D00-0
 62
     7
370
    50
100
AcDbLine
 10
787.034291
 20
1402.091164
 30
0.0
 11
786.996637
 21
1402.053511
 31
0.0
  0
LINE
  5
2DC
330
2D3
100
AcDbEntity
  8
LC-001-100-D00-0
 62
     7
370
    50
100
AcDbLine
 10
786.996637
 20
1402.053511
 30
0.0
 11
786.996637
 21
1402.053511
 31
0.0
  0
LINE
  5
2DD
330
2D3
100
AcDbEntity
  8
LC-001-100-D00-0
 62
     7
370
    50
100
AcDbLine
 10
786.996637
 20
1402.053511
 30
0.0
 11
786.956584
 21
1402.013457
 31
0.0
  0
ENDBLK
  5
2D5
330
2D3
100
AcDbEntity
  8
0
100
AcDbBlockEnd
  0
BLOCK
  5
2E0
330
2DF
100
AcDbEntity
  8
0
100
AcDbBlockBegin
  2
POLY43
 70
     0
 71
     0
 10
0.0
 20
0.0
 30
0.0
  3
POLY43
  1

  4
POLY43
  0
LINE
  5
2E2
330
2DF
100
AcDbEntity
  8
LC-001-100-D00-0
 62
     7
370
    50
100
AcDbLine
 10
787.302085
 20
1401.891281
 30
0.0
 11
787.302085
 21
1401.891281
 31
0.0
  0
LINE
  5
2E3
330
2DF
100
AcDbEntity
  8
LC-001-100-D00-0
 62
     7
370
    50
100
AcDbLine
 10
787.302085
 20
1401.891281
 30
0.0
 11
787.215275
 21
1401.881258
 31
0.0
  0
LINE
  5
2E4
330
2DF
100
AcDbEntity
  8
LC-001-100-D00-0
 62
     7
370
    50
100
AcDbLine
 10
787.215275
 20
1401.881258
 30
0.0
 11
787.215275
 21
1401.881258
 31
0.0
  0
LINE
  5
2E5
330
2DF
100
AcDbEntity
  8
LC-001-100-D00-0
 62
     7
370
    50
100
AcDbLine
 10
787.215275
 20
1401.881258
 30
0.0
 11
787.131094
 21
1401.886414
 31
0.0
  0
LINE
  5
2E6
330
2DF
100
AcDbEntity
  8
LC-001-100-D00-0
 62
     7
370
    50
100
AcDbLine
 10
787.131094
 20
1401.886414
 30
0.0
 11
787.131094
 21
1401.886414
 31
0.0
  0
LINE
  5
2E7
330
2DF
100
AcDbEntity
  8
LC-001-100-D00-0
 62
     7
370
    50
100
AcDbLine
 10
787.131094
 20
1401.886414
 30
0.0
 11
787.062986
 21
1401.920546
 31
0.0
  0
LINE
  5
2E8
330
2DF
100
AcDbEntity
  8
LC-001-100-D00-0
 62
     7
370
    50
100
AcDbLine
 10
787.062986
 20
1401.920546
 30
0.0
 11
787.062986
 21
1401.920546
 31
0.0
  0
LINE
  5
2E9
330
2DF
100
AcDbEntity
  8
LC-001-100-D00-0
 62
     7
370
    50
100
AcDbLine
 10
787.062986
 20
1401.920546
 30
0.0
 11
786.956584
 21
1402.013457
 31
0.0
  0
ENDBLK
  5
2E1
330
2DF
100
AcDbEntity
  8
0
100
AcDbBlockEnd
  0
BLOCK
  5
2EC
330
2EB
100
AcDbEntity
  8
0
100
AcDbBlockBegin
  2
POLY44
 70
     0
 71
     0
 10
0.0
 20
0.0
 30
0.0
  3
POLY44
  1

  4
POLY44
  0
LINE
  5
2EE
330
2EB
100
AcDbEntity
  8
LC-001-100-D00-0
 62
     7
370
    50
100
AcDbLine
 10
786.956584
 20
1402.013457
 30
0.0
 11
786.956584
 21
1402.013457
 31
0.0
  0
LINE
  5
2EF
330
2EB
100
AcDbEntity
  8
LC-001-100-D00-0
 62
     7
370
    50
100
AcDbLine
 10
786.956584
 20
1402.013457
 30
0.0
 11
786.899113
 21
1401.955986
 31
0.0
  0
LINE
  5
2F0
330
2EB
100
AcDbEntity
  8
LC-001-100-D00-0
 62
     7
370
    50
100
AcDbLine
 10
786.899113
 20
1401.955986
 30
0.0
 11
786.899113
 21
1401.955986
 31
0.0
  0
LINE
  5
2F1
330
2EB
100
AcDbEntity
  8
LC-001-100-D00-0
 62
     7
370
    50
100
AcDbLine
 10
786.899113
 20
1401.955986
 30
0.0
 11
786.844225
 21
1401.901099
 31
0.0
  0
LINE
  5
2F2
330
2EB
100
AcDbEntity
  8
LC-001-100-D00-0
 62
     7
370
    50
100
AcDbLine
 10
786.844225
 20
1401.901099
 30
0.0
 11
786.844225
 21
1401.901099
 31
0.0
  0
LINE
  5
2F3
330
2EB
100
AcDbEntity
  8
LC-001-100-D00-0
 62
     7
370
    50
100
AcDbLine
 10
786.844225
 20
1401.901099
 30
0.0
 11
786.769168
 21
1401.826042
 31
0.0
  0
LINE
  5
2F4
330
2EB
100
AcDbEntity
  8
LC-001-100-D00-0
 62
     7
370
    50
100
AcDbLine
 10
786.769168
 20
1401.826042
 30
0.0
 11
786.769168
 21
1401.826042
 31
0.0
  0
LINE
  5
2F5
330
2EB
100
AcDbEntity
  8
LC-001-100-D00-0
 62
     7
370
    50
100
AcDbLine
 10
786.769168
 20
1401.826042
 30
0.0
 11
786.713213
 21
1401.770087
 31
0.0
  0
ENDBLK
  5
2ED
330
2EB
100
AcDbEntity
  8
0
100
AcDbBlockEnd
  0
BLOCK
  5
2F8
330
2F7
100
AcDbEntity
  8
0
100
AcDbBlockBegin
  2
POLY45
 70
     0
 71
     0
 10
0.0
 20
0.0
 30
0.0
  3
POLY45
  1

  4
POLY45
  0
LINE
  5
2FA
330
2F7
100
AcDbEntity
  8
LC-001-100-D00-0
 62
     7
370
    50
100
AcDbLine
 10
786.713213
 20
1401.770087
 30
0.0
 11
786.713213
 21
1401.770087
 31
0.0
  0
LINE
  5
2FB
330
2F7
100
AcDbEntity
  8
LC-001-100-D00-0
 62
     7
370
    50
100
AcDbLine
 10
786.713213
 20
1401.770087
 30
0.0
 11
786.894521
 21
1401.63572
 31
0.0
  0
LINE
  5
2FC
330
2F7
100
AcDbEntity
  8
LC-001-100-D00-0
 62
     7
370
    50
100
AcDbLine
 10
786.894521
 20
1401.63572
 30
0.0
 11
786.894521
 21
1401.63572
 31
0.0
  0
LINE
  5
2FD
330
2F7
100
AcDbEntity
  8
LC-001-100-D00-0
 62
     7
370
    50
100
AcDbLine
 10
786.894521
 20
1401.63572
 30
0.0
 11
787.106261
 21
1401.558131
 31
0.0
  0
LINE
  5
2FE
330
2F7
100
AcDbEntity
  8
LC-001-100-D00-0
 62
     7
370
    50
100
AcDbLine
 10
787.106261
 20
1401.558131
 30
0.0
 11
787.106261
 21
1401.558131
 31
0.0
  0
LINE
  5
2FF
330
2F7
100
AcDbEntity
  8
LC-001-100-D00-0
 62
     7
370
    50
100
AcDbLine
 10
787.106261
 20
1401.558131
 30
0.0
 11
787.314846
 21
1401.560907
 31
0.0
  0
LINE
  5
300
330
2F7
100
AcDbEntity
  8
LC-001-100-D00-0
 62
     7
370
    50
100
AcDbLine
 10
787.314846
 20
1401.560907
 30
0.0
 11
787.314846
 21
1401.560907
 31
0.0
  0
LINE
  5
301
330
2F7
100
AcDbEntity
  8
LC-001-100-D00-0
 62
     7
370
    50
100
AcDbLine
 10
787.314846
 20
1401.560907
 30
0.0
 11
787.486685
 21
1401.667635
 31
0.0
  0
ENDBLK
  5
2F9
330
2F7
100
AcDbEntity
  8
0
100
AcDbBlockEnd
  0
BLOCK
  5
304
330
303
100
AcDbEntity
  8
0
100
AcDbBlockBegin
  2
POLY46
 70
     0
 71
     0
 10
0.0
 20
0.0
 30
0.0
  3
POLY46
  1

  4
POLY46
  0
LINE
  5
306
330
303
100
AcDbEntity
  8
LC-001-100-D00-0
 62
     7
370
    50
100
AcDbLine
 10
786.364365
 20
1400.545315
 30
0.0
 11
786.364365
 21
1400.545315
 31
0.0
  0
LINE
  5
307
330
303
100
AcDbEntity
  8
LC-001-100-D00-0
 62
     7
370
    50
100
AcDbLine
 10
786.364365
 20
1400.545315
 30
0.0
 11
786.471092
 21
1400.717154
 31
0.0
  0
LINE
  5
308
330
303
100
AcDbEntity
  8
LC-001-100-D00-0
 62
     7
370
    50
100
AcDbLine
 10
786.471092
 20
1400.717154
 30
0.0
 11
786.471092
 21
1400.717154
 31
0.0
  0
LINE
  5
309
330
303
100
AcDbEntity
  8
LC-001-100-D00-0
 62
     7
370
    50
100
AcDbLine
 10
786.471092
 20
1400.717154
 30
0.0
 11
786.473869
 21
1400.925738
 31
0.0
  0
LINE
  5
30A
330
303
100
AcDbEntity
  8
LC-001-100-D00-0
 62
     7
370
    50
100
AcDbLine
 10
786.473869
 20
1400.925738
 30
0.0
 11
786.473869
 21
1400.925738
 31
0.0
  0
LINE
  5
30B
330
303
100
AcDbEntity
  8
LC-001-100-D00-0
 62
     7
370
    50
100
AcDbLine
 10
786.473869
 20
1400.925738
 30
0.0
 11
786.39628
 21
1401.137479
 31
0.0
  0
LINE
  5
30C
330
303
100
AcDbEntity
  8
LC-001-100-D00-0
 62
     7
370
    50
100
AcDbLine
 10
786.39628
 20
1401.137479
 30
0.0
 11
786.39628
 21
1401.137479
 31
0.0
  0
LINE
  5
30D
330
303
100
AcDbEntity
  8
LC-001-100-D00-0
 62
     7
370
    50
100
AcDbLine
 10
786.39628
 20
1401.137479
 30
0.0
 11
786.261913
 21
1401.318786
 31
0.0
  0
ENDBLK
  5
305
330
303
100
AcDbEntity
  8
0
100
AcDbBlockEnd
  0
BLOCK
  5
310
330
30F
100
AcDbEntity
  8
0
100
AcDbBlockBegin
  2
POLY47
 70
     0
 71
     0
 10
0.0
 20
0.0
 30
0.0
  3
POLY47
  1

  4
POLY47
  0
LINE
  5
312
330
30F
100
AcDbEntity
  8
LC-001-100-D00-0
 62
     7
370
    50
100
AcDbLine
 10
787.302085
 20
1401.891281
 30
0.0
 11
787.302085
 21
1401.891281
 31
0.0
  0
LINE
  5
313
330
30F
100
AcDbEntity
  8
LC-001-100-D00-0
 62
     7
370
    50
100
AcDbLine
 10
787.302085
 20
1401.891281
 30
0.0
 11
787.356564
 21
1401.93952
 31
0.0
  0
LINE
  5
314
330
30F
100
AcDbEntity
  8
LC-001-100-D00-0
 62
     7
370
    50
100
AcDbLine
 10
787.356564
 20
1401.93952
 30
0.0
 11
787.356564
 21
1401.93952
 31
0.0
  0
LINE
  5
315
330
30F
100
AcDbEntity
  8
LC-001-100-D00-0
 62
     7
370
    50
100
AcDbLine
 10
787.356564
 20
1401.93952
 30
0.0
 11
787.410796
 21
1401.971674
 31
0.0
  0
LINE
  5
316
330
30F
100
AcDbEntity
  8
LC-001-100-D00-0
 62
     7
370
    50
100
AcDbLine
 10
787.410796
 20
1401.971674
 30
0.0
 11
787.410796
 21
1401.971674
 31
0.0
  0
LINE
  5
317
330
30F
100
AcDbEntity
  8
LC-001-100-D00-0
 62
     7
370
    50
100
AcDbLine
 10
787.410796
 20
1401.971674
 30
0.0
 11
787.445714
 21
1401.981639
 31
0.0
  0
LINE
  5
318
330
30F
100
AcDbEntity
  8
LC-001-100-D00-0
 62
     7
370
    50
100
AcDbLine
 10
787.445714
 20
1401.981639
 30
0.0
 11
787.445714
 21
1401.981639
 31
0.0
  0
LINE
  5
319
330
30F
100
AcDbEntity
  8
LC-001-100-D00-0
 62
     7
370
    50
100
AcDbLine
 10
787.445714
 20
1401.981639
 30
0.0
 11
787.450702
 21
1401.983062
 31
0.0
  0
ENDBLK
  5
311
330
30F
100
AcDbEntity
  8
0
100
AcDbBlockEnd
  0
BLOCK
  5
31C
330
31B
100
AcDbEntity
  8
0
100
AcDbBlockBegin
  2
POLY48
 70
     0
 71
     0
 10
0.0
 20
0.0
 30
0.0
  3
POLY48
  1

  4
POLY48
  0
LINE
  5
31E
330
31B
100
AcDbEntity
  8
LC-001-100-D00-0
 62
     7
370
    50
100
AcDbLine
 10
787.302085
 20
1401.891281
 30
0.0
 11
787.302085
 21
1401.891281
 31
0.0
  0
LINE
  5
31F
330
31B
100
AcDbEntity
  8
LC-001-100-D00-0
 62
     7
370
    50
100
AcDbLine
 10
787.302085
 20
1401.891281
 30
0.0
 11
787.348634
 21
1401.835502
 31
0.0
  0
LINE
  5
320
330
31B
100
AcDbEntity
  8
LC-001-100-D00-0
 62
     7
370
    50
100
AcDbLine
 10
787.348634
 20
1401.835502
 30
0.0
 11
787.348634
 21
1401.835502
 31
0.0
  0
LINE
  5
321
330
31B
100
AcDbEntity
  8
LC-001-100-D00-0
 62
     7
370
    50
100
AcDbLine
 10
787.348634
 20
1401.835502
 30
0.0
 11
787.389268
 21
1401.78457
 31
0.0
  0
LINE
  5
322
330
31B
100
AcDbEntity
  8
LC-001-100-D00-0
 62
     7
370
    50
100
AcDbLine
 10
787.389268
 20
1401.78457
 30
0.0
 11
787.389268
 21
1401.78457
 31
0.0
  0
LINE
  5
323
330
31B
100
AcDbEntity
  8
LC-001-100-D00-0
 62
     7
370
    50
100
AcDbLine
 10
787.389268
 20
1401.78457
 30
0.0
 11
787.437143
 21
1401.724765
 31
0.0
  0
LINE
  5
324
330
31B
100
AcDbEntity
  8
LC-001-100-D00-0
 62
     7
370
    50
100
AcDbLine
 10
787.437143
 20
1401.724765
 30
0.0
 11
787.437143
 21
1401.724765
 31
0.0
  0
LINE
  5
325
330
31B
100
AcDbEntity
  8
LC-001-100-D00-0
 62
     7
370
    50
100
AcDbLine
 10
787.437143
 20
1401.724765
 30
0.0
 11
787.486685
 21
1401.667635
 31
0.0
  0
ENDBLK
  5
31D
330
31B
100
AcDbEntity
  8
0
100
AcDbBlockEnd
  0
BLOCK
  5
328
330
327
100
AcDbEntity
  8
0
100
AcDbBlockBegin
  2
POLY49
 70
     0
 71
     0
 10
0.0
 20
0.0
 30
0.0
  3
POLY49
  1

  4
POLY49
  0
LINE
  5
32A
330
327
100
AcDbEntity
  8
LC-001-100-D00-0
 62
     7
370
    50
100
AcDbLine
 10
787.486685
 20
1401.667635
 30
0.0
 11
787.486685
 21
1401.667635
 31
0.0
  0
LINE
  5
32B
330
327
100
AcDbEntity
  8
LC-001-100-D00-0
 62
     7
370
    50
100
AcDbLine
 10
787.486685
 20
1401.667635
 30
0.0
 11
787.621441
 21
1401.835184
 31
0.0
  0
LINE
  5
32C
330
327
100
AcDbEntity
  8
LC-001-100-D00-0
 62
     7
370
    50
100
AcDbLine
 10
787.621441
 20
1401.835184
 30
0.0
 11
787.621441
 21
1401.835184
 31
0.0
  0
LINE
  5
32D
330
327
100
AcDbEntity
  8
LC-001-100-D00-0
 62
     7
370
    50
100
AcDbLine
 10
787.621441
 20
1401.835184
 30
0.0
 11
787.730538
 21
1401.990344
 31
0.0
  0
LINE
  5
32E
330
327
100
AcDbEntity
  8
LC-001-100-D00-0
 62
     7
370
    50
100
AcDbLine
 10
787.730538
 20
1401.990344
 30
0.0
 11
787.730538
 21
1401.990344
 31
0.0
  0
LINE
  5
32F
330
327
100
AcDbEntity
  8
LC-001-100-D00-0
 62
     7
370
    50
100
AcDbLine
 10
787.730538
 20
1401.990344
 30
0.0
 11
787.799318
 21
1402.112106
 31
0.0
  0
LINE
  5
330
330
327
100
AcDbEntity
  8
LC-001-100-D00-0
 62
     7
370
    50
100
AcDbLine
 10
787.799318
 20
1402.112106
 30
0.0
 11
787.799318
 21
1402.112106
 31
0.0
  0
LINE
  5
331
330
327
100
AcDbEntity
  8
LC-001-100-D00-0
 62
     7
370
    50
100
AcDbLine
 10
787.799318
 20
1402.112106
 30
0.0
 11
787.813815
 21
1402.178139
 31
0.0
  0
ENDBLK
  5
329
330
327
100
AcDbEntity
  8
0
100
AcDbBlockEnd
  0
BLOCK
  5
334
330
333
100
AcDbEntity
  8
0
100
AcDbBlockBegin
  2
POLY50
 70
     0
 71
     0
 10
0.0
 20
0.0
 30
0.0
  3
POLY50
  1

  4
POLY50
  0
LINE
  5
336
330
333
100
AcDbEntity
  8
LC-001-100-D00-0
 62
     7
370
    50
100
AcDbLine
 10
786.261913
 20
1401.318786
 30
0.0
 11
786.261913
 21
1401.318786
 31
0.0
  0
LINE
  5
337
330
333
100
AcDbEntity
  8
LC-001-100-D00-0
 62
     7
370
    50
100
AcDbLine
 10
786.261913
 20
1401.318786
 30
0.0
 11
786.195209
 21
1401.252082
 31
0.0
  0
LINE
  5
338
330
333
100
AcDbEntity
  8
LC-001-100-D00-0
 62
     7
370
    50
100
AcDbLine
 10
786.195209
 20
1401.252082
 30
0.0
 11
786.195209
 21
1401.252082
 31
0.0
  0
LINE
  5
339
330
333
100
AcDbEntity
  8
LC-001-100-D00-0
 62
     7
370
    50
100
AcDbLine
 10
786.195209
 20
1401.252082
 30
0.0
 11
786.130901
 21
1401.187774
 31
0.0
  0
LINE
  5
33A
330
333
100
AcDbEntity
  8
LC-001-100-D00-0
 62
     7
370
    50
100
AcDbLine
 10
786.130901
 20
1401.187774
 30
0.0
 11
786.130901
 21
1401.187774
 31
0.0
  0
LINE
  5
33B
330
333
100
AcDbEntity
  8
LC-001-100-D00-0
 62
     7
370
    50
100
AcDbLine
 10
786.130901
 20
1401.187774
 30
0.0
 11
786.071172
 21
1401.128046
 31
0.0
  0
LINE
  5
33C
330
333
100
AcDbEntity
  8
LC-001-100-D00-0
 62
     7
370
    50
100
AcDbLine
 10
786.071172
 20
1401.128046
 30
0.0
 11
786.071172
 21
1401.128046
 31
0.0
  0
LINE
  5
33D
330
333
100
AcDbEntity
  8
LC-001-100-D00-0
 62
     7
370
    50
100
AcDbLine
 10
786.071172
 20
1401.128046
 30
0.0
 11
786.018543
 21
1401.075416
 31
0.0
  0
ENDBLK
  5
335
330
333
100
AcDbEntity
  8
0
100
AcDbBlockEnd
  0
BLOCK
  5
340
330
33F
100
AcDbEntity
  8
0
100
AcDbBlockBegin
  2
POLY51
 70
     0
 71
     0
 10
0.0
 20
0.0
 30
0.0
  3
POLY51
  1

  4
POLY51
  0
LINE
  5
342
330
33F
100
AcDbEntity
  8
LC-001-100-D00-0
 62
     7
370
    50
100
AcDbLine
 10
773.418447
 20
1415.748436
 30
0.0
 11
773.418447
 21
1415.748436
 31
0.0
  0
LINE
  5
343
330
33F
100
AcDbEntity
  8
LC-001-100-D00-0
 62
     7
370
    50
100
AcDbLine
 10
773.418447
 20
1415.748436
 30
0.0
 11
773.485631
 21
1415.825999
 31
0.0
  0
LINE
  5
344
330
33F
100
AcDbEntity
  8
LC-001-100-D00-0
 62
     7
370
    50
100
AcDbLine
 10
773.485631
 20
1415.825999
 30
0.0
 11
773.485631
 21
1415.825999
 31
0.0
  0
LINE
  5
345
330
33F
100
AcDbEntity
  8
LC-001-100-D00-0
 62
     7
370
    50
100
AcDbLine
 10
773.485631
 20
1415.825999
 30
0.0
 11
773.514529
 21
1415.876995
 31
0.0
  0
LINE
  5
346
330
33F
100
AcDbEntity
  8
LC-001-100-D00-0
 62
     7
370
    50
100
AcDbLine
 10
773.514529
 20
1415.876995
 30
0.0
 11
773.514529
 21
1415.876995
 31
0.0
  0
LINE
  5
347
330
33F
100
AcDbEntity
  8
LC-001-100-D00-0
 62
     7
370
    50
100
AcDbLine
 10
773.514529
 20
1415.876995
 30
0.0
 11
773.535062
 21
1415.898702
 31
0.0
  0
ENDBLK
  5
341
330
33F
100
AcDbEntity
  8
0
100
AcDbBlockEnd
  0
BLOCK
  5
34A
330
349
100
AcDbEntity
  8
0
100
AcDbBlockBegin
  2
POLY52
 70
     0
 71
     0
 10
0.0
 20
0.0
 30
0.0
  3
POLY52
  1

  4
POLY52
  0
LINE
  5
34C
330
349
100
AcDbEntity
  8
LC-001-100-D00-0
 62
     7
370
    50
100
AcDbLine
 10
773.418447
 20
1415.748436
 30
0.0
 11
773.418447
 21
1415.748436
 31
0.0
  0
LINE
  5
34D
330
349
100
AcDbEntity
  8
LC-001-100-D00-0
 62
     7
370
    50
100
AcDbLine
 10
773.418447
 20
1415.748436
 30
0.0
 11
773.41644
 21
1415.639224
 31
0.0
  0
LINE
  5
34E
330
349
100
AcDbEntity
  8
LC-001-100-D00-0
 62
     7
370
    50
100
AcDbLine
 10
773.41644
 20
1415.639224
 30
0.0
 11
773.41644
 21
1415.639224
 31
0.0
  0
LINE
  5
34F
330
349
100
AcDbEntity
  8
LC-001-100-D00-0
 62
     7
370
    50
100
AcDbLine
 10
773.41644
 20
1415.639224
 30
0.0
 11
773.441842
 21
1415.556116
 31
0.0
  0
LINE
  5
350
330
349
100
AcDbEntity
  8
LC-001-100-D00-0
 62
     7
370
    50
100
AcDbLine
 10
773.441842
 20
1415.556116
 30
0.0
 11
773.441842
 21
1415.556116
 31
0.0
  0
LINE
  5
351
330
349
100
AcDbEntity
  8
LC-001-100-D00-0
 62
     7
370
    50
100
AcDbLine
 10
773.441842
 20
1415.556116
 30
0.0
 11
773.498057
 21
1415.476389
 31
0.0
  0
LINE
  5
352
330
349
100
AcDbEntity
  8
LC-001-100-D00-0
 62
     7
370
    50
100
AcDbLine
 10
773.498057
 20
1415.476389
 30
0.0
 11
773.498057
 21
1415.476389
 31
0.0
  0
LINE
  5
353
330
349
100
AcDbEntity
  8
LC-001-100-D00-0
 62
     7
370
    50
100
AcDbLine
 10
773.498057
 20
1415.476389
 30
0.0
 11
773.565457
 21
1415.404583
 31
0.0
  0
ENDBLK
  5
34B
330
349
100
AcDbEntity
  8
0
100
AcDbBlockEnd
  0
BLOCK
  5
356
330
355
100
AcDbEntity
  8
0
100
AcDbBlockBegin
  2
POLY53
 70
     0
 71
     0
 10
0.0
 20
0.0
 30
0.0
  3
POLY53
  1

  4
POLY53
  0
LINE
  5
358
330
355
100
AcDbEntity
  8
LC-001-100-D00-0
 62
     7
370
    50
100
AcDbLine
 10
773.418447
 20
1415.748436
 30
0.0
 11
773.418447
 21
1415.748436
 31
0.0
  0
LINE
  5
359
330
355
100
AcDbEntity
  8
LC-001-100-D00-0
 62
     7
370
    50
100
AcDbLine
 10
773.418447
 20
1415.748436
 30
0.0
 11
773.371652
 21
1415.79257
 31
0.0
  0
LINE
  5
35A
330
355
100
AcDbEntity
  8
LC-001-100-D00-0
 62
     7
370
    50
100
AcDbLine
 10
773.371652
 20
1415.79257
 30
0.0
 11
773.371652
 21
1415.79257
 31
0.0
  0
LINE
  5
35B
330
355
100
AcDbEntity
  8
LC-001-100-D00-0
 62
     7
370
    50
100
AcDbLine
 10
773.371652
 20
1415.79257
 30
0.0
 11
773.320556
 21
1415.840731
 31
0.0
  0
LINE
  5
35C
330
355
100
AcDbEntity
  8
LC-001-100-D00-0
 62
     7
370
    50
100
AcDbLine
 10
773.320556
 20
1415.840731
 30
0.0
 11
773.320556
 21
1415.840731
 31
0.0
  0
LINE
  5
35D
330
355
100
AcDbEntity
  8
LC-001-100-D00-0
 62
     7
370
    50
100
AcDbLine
 10
773.320556
 20
1415.840731
 30
0.0
 11
773.269539
 21
1415.888454
 31
0.0
  0
LINE
  5
35E
330
355
100
AcDbEntity
  8
LC-001-100-D00-0
 62
     7
370
    50
100
AcDbLine
 10
773.269539
 20
1415.888454
 30
0.0
 11
773.269539
 21
1415.888454
 31
0.0
  0
LINE
  5
35F
330
355
100
AcDbEntity
  8
LC-001-100-D00-0
 62
     7
370
    50
100
AcDbLine
 10
773.269539
 20
1415.888454
 30
0.0
 11
773.219635
 21
1415.934685
 31
0.0
  0
ENDBLK
  5
357
330
355
100
AcDbEntity
  8
0
100
AcDbBlockEnd
  0
BLOCK
  5
362
330
361
100
AcDbEntity
  8
0
100
AcDbBlockBegin
  2
POLY54
 70
     0
 71
     0
 10
0.0
 20
0.0
 30
0.0
  3
POLY54
  1

  4
POLY54
  0
LINE
  5
364
330
361
100
AcDbEntity
  8
LC-001-100-D00-0
 62
     7
370
    50
100
AcDbLine
 10
773.565457
 20
1415.404583
 30
0.0
 11
773.565457
 21
1415.404583
 31
0.0
  0
LINE
  5
365
330
361
100
AcDbEntity
  8
LC-001-100-D00-0
 62
     7
370
    50
100
AcDbLine
 10
773.565457
 20
1415.404583
 30
0.0
 11
773.60169
 21
1415.440816
 31
0.0
  0
LINE
  5
366
330
361
100
AcDbEntity
  8
LC-001-100-D00-0
 62
     7
370
    50
100
AcDbLine
 10
773.60169
 20
1415.440816
 30
0.0
 11
773.60169
 21
1415.440816
 31
0.0
  0
LINE
  5
367
330
361
100
AcDbEntity
  8
LC-001-100-D00-0
 62
     7
370
    50
100
AcDbLine
 10
773.60169
 20
1415.440816
 30
0.0
 11
773.643164
 21
1415.48229
 31
0.0
  0
LINE
  5
368
330
361
100
AcDbEntity
  8
LC-001-100-D00-0
 62
     7
370
    50
100
AcDbLine
 10
773.643164
 20
1415.48229
 30
0.0
 11
773.643164
 21
1415.48229
 31
0.0
  0
LINE
  5
369
330
361
100
AcDbEntity
  8
LC-001-100-D00-0
 62
     7
370
    50
100
AcDbLine
 10
773.643164
 20
1415.48229
 30
0.0
 11
773.671157
 21
1415.510283
 31
0.0
  0
LINE
  5
36A
330
361
100
AcDbEntity
  8
LC-001-100-D00-0
 62
     7
370
    50
100
AcDbLine
 10
773.671157
 20
1415.510283
 30
0.0
 11
773.671157
 21
1415.510283
 31
0.0
  0
LINE
  5
36B
330
361
100
AcDbEntity
  8
LC-001-100-D00-0
 62
     7
370
    50
100
AcDbLine
 10
773.671157
 20
1415.510283
 30
0.0
 11
773.675156
 21
1415.514282
 31
0.0
  0
ENDBLK
  5
363
330
361
100
AcDbEntity
  8
0
100
AcDbBlockEnd
  0
BLOCK
  5
36E
330
36D
100
AcDbEntity
  8
0
100
AcDbBlockBegin
  2
POLY55
 70
     0
 71
     0
 10
0.0
 20
0.0
 30
0.0
  3
POLY55
  1

  4
POLY55
  0
LINE
  5
370
330
36D
100
AcDbEntity
  8
LC-001-100-D00-0
 62
     7
370
    50
100
AcDbLine
 10
773.322087
 20
1415.161213
 30
0.0
 11
773.322087
 21
1415.161213
 31
0.0
  0
LINE
  5
371
330
36D
100
AcDbEntity
  8
LC-001-100-D00-0
 62
     7
370
    50
100
AcDbLine
 10
773.322087
 20
1415.161213
 30
0.0
 11
773.388791
 21
1415.227917
 31
0.0
  0
LINE
  5
372
330
36D
100
AcDbEntity
  8
LC-001-100-D00-0
 62
     7
370
    50
100
AcDbLine
 10
773.388791
 20
1415.227917
 30
0.0
 11
773.388791
 21
1415.227917
 31
0.0
  0
LINE
  5
373
330
36D
100
AcDbEntity
  8
LC-001-100-D00-0
 62
     7
370
    50
100
AcDbLine
 10
773.388791
 20
1415.227917
 30
0.0
 11
773.453099
 21
1415.292225
 31
0.0
  0
LINE
  5
374
330
36D
100
AcDbEntity
  8
LC-001-100-D00-0
 62
     7
370
    50
100
AcDbLine
 10
773.453099
 20
1415.292225
 30
0.0
 11
773.453099
 21
1415.292225
 31
0.0
  0
LINE
  5
375
330
36D
100
AcDbEntity
  8
LC-001-100-D00-0
 62
     7
370
    50
100
AcDbLine
 10
773.453099
 20
1415.292225
 30
0.0
 11
773.505014
 21
1415.34414
 31
0.0
  0
LINE
  5
376
330
36D
100
AcDbEntity
  8
LC-001-100-D00-0
 62
     7
370
    50
100
AcDbLine
 10
773.505014
 20
1415.34414
 30
0.0
 11
773.505014
 21
1415.34414
 31
0.0
  0
LINE
  5
377
330
36D
100
AcDbEntity
  8
LC-001-100-D00-0
 62
     7
370
    50
100
AcDbLine
 10
773.505014
 20
1415.34414
 30
0.0
 11
773.565457
 21
1415.404583
 31
0.0
  0
ENDBLK
  5
36F
330
36D
100
AcDbEntity
  8
0
100
AcDbBlockEnd
  0
BLOCK
  5
37A
330
379
100
AcDbEntity
  8
0
100
AcDbBlockBegin
  2
POLY56
 70
     0
 71
     0
 10
0.0
 20
0.0
 30
0.0
  3
POLY56
  1

  4
POLY56
  0
LINE
  5
37C
330
379
100
AcDbEntity
  8
LC-001-100-D00-0
 62
     7
370
    50
100
AcDbLine
 10
773.73014
 20
1416.261815
 30
0.0
 11
773.73014
 21
1416.261815
 31
0.0
  0
LINE
  5
37D
330
379
100
AcDbEntity
  8
LC-001-100-D00-0
 62
     7
370
    50
100
AcDbLine
 10
773.73014
 20
1416.261815
 30
0.0
 11
773.664106
 21
1416.247318
 31
0.0
  0
LINE
  5
37E
330
379
100
AcDbEntity
  8
LC-001-100-D00-0
 62
     7
370
    50
100
AcDbLine
 10
773.664106
 20
1416.247318
 30
0.0
 11
773.664106
 21
1416.247318
 31
0.0
  0
LINE
  5
37F
330
379
100
AcDbEntity
  8
LC-001-100-D00-0
 62
     7
370
    50
100
AcDbLine
 10
773.664106
 20
1416.247318
 30
0.0
 11
773.542344
 21
1416.178538
 31
0.0
  0
LINE
  5
380
330
379
100
AcDbEntity
  8
LC-001-100-D00-0
 62
     7
370
    50
100
AcDbLine
 10
773.542344
 20
1416.178538
 30
0.0
 11
773.542344
 21
1416.178538
 31
0.0
  0
LINE
  5
381
330
379
100
AcDbEntity
  8
LC-001-100-D00-0
 62
     7
370
    50
100
AcDbLine
 10
773.542344
 20
1416.178538
 30
0.0
 11
773.387184
 21
1416.069441
 31
0.0
  0
LINE
  5
382
330
379
100
AcDbEntity
  8
LC-001-100-D00-0
 62
     7
370
    50
100
AcDbLine
 10
773.387184
 20
1416.069441
 30
0.0
 11
773.387184
 21
1416.069441
 31
0.0
  0
LINE
  5
383
330
379
100
AcDbEntity
  8
LC-001-100-D00-0
 62
     7
370
    50
100
AcDbLine
 10
773.387184
 20
1416.069441
 30
0.0
 11
773.219635
 21
1415.934685
 31
0.0
  0
ENDBLK
  5
37B
330
379
100
AcDbEntity
  8
0
100
AcDbBlockEnd
  0
BLOCK
  5
386
330
385
100
AcDbEntity
  8
0
100
AcDbBlockBegin
  2
POLY57
 70
     0
 71
     0
 10
0.0
 20
0.0
 30
0.0
  3
POLY57
  1

  4
POLY57
  0
LINE
  5
388
330
385
100
AcDbEntity
  8
LC-001-100-D00-0
 62
     7
370
    50
100
AcDbLine
 10
772.281915
 20
1414.588718
 30
0.0
 11
772.281915
 21
1414.588718
 31
0.0
  0
LINE
  5
389
330
385
100
AcDbEntity
  8
LC-001-100-D00-0
 62
     7
370
    50
100
AcDbLine
 10
772.281915
 20
1414.588718
 30
0.0
 11
772.227436
 21
1414.540479
 31
0.0
  0
LINE
  5
38A
330
385
100
AcDbEntity
  8
LC-001-100-D00-0
 62
     7
370
    50
100
AcDbLine
 10
772.227436
 20
1414.540479
 30
0.0
 11
772.227436
 21
1414.540479
 31
0.0
  0
LINE
  5
38B
330
385
100
AcDbEntity
  8
LC-001-100-D00-0
 62
     7
370
    50
100
AcDbLine
 10
772.227436
 20
1414.540479
 30
0.0
 11
772.173204
 21
1414.508326
 31
0.0
  0
LINE
  5
38C
330
385
100
AcDbEntity
  8
LC-001-100-D00-0
 62
     7
370
    50
100
AcDbLine
 10
772.173204
 20
1414.508326
 30
0.0
 11
772.173204
 21
1414.508326
 31
0.0
  0
LINE
  5
38D
330
385
100
AcDbEntity
  8
LC-001-100-D00-0
 62
     7
370
    50
100
AcDbLine
 10
772.173204
 20
1414.508326
 30
0.0
 11
772.138286
 21
1414.498361
 31
0.0
  0
LINE
  5
38E
330
385
100
AcDbEntity
  8
LC-001-100-D00-0
 62
     7
370
    50
100
AcDbLine
 10
772.138286
 20
1414.498361
 30
0.0
 11
772.138286
 21
1414.498361
 31
0.0
  0
LINE
  5
38F
330
385
100
AcDbEntity
  8
LC-001-100-D00-0
 62
     7
370
    50
100
AcDbLine
 10
772.138286
 20
1414.498361
 30
0.0
 11
772.133298
 21
1414.496938
 31
0.0
  0
ENDBLK
  5
387
330
385
100
AcDbEntity
  8
0
100
AcDbBlockEnd
  0
BLOCK
  5
392
330
391
100
AcDbEntity
  8
0
100
AcDbBlockBegin
  2
POLY58
 70
     0
 71
     0
 10
0.0
 20
0.0
 30
0.0
  3
POLY58
  1

  4
POLY58
  0
LINE
  5
394
330
391
100
AcDbEntity
  8
LC-001-100-D00-0
 62
     7
370
    50
100
AcDbLine
 10
772.281915
 20
1414.588718
 30
0.0
 11
772.281915
 21
1414.588718
 31
0.0
  0
LINE
  5
395
330
391
100
AcDbEntity
  8
LC-001-100-D00-0
 62
     7
370
    50
100
AcDbLine
 10
772.281915
 20
1414.588718
 30
0.0
 11
772.368725
 21
1414.598742
 31
0.0
  0
LINE
  5
396
330
391
100
AcDbEntity
  8
LC-001-100-D00-0
 62
     7
370
    50
100
AcDbLine
 10
772.368725
 20
1414.598742
 30
0.0
 11
772.368725
 21
1414.598742
 31
0.0
  0
LINE
  5
397
330
391
100
AcDbEntity
  8
LC-001-100-D00-0
 62
     7
370
    50
100
AcDbLine
 10
772.368725
 20
1414.598742
 30
0.0
 11
772.452906
 21
1414.593586
 31
0.0
  0
LINE
  5
398
330
391
100
AcDbEntity
  8
LC-001-100-D00-0
 62
     7
370
    50
100
AcDbLine
 10
772.452906
 20
1414.593586
 30
0.0
 11
772.452906
 21
1414.593586
 31
0.0
  0
LINE
  5
399
330
391
100
AcDbEntity
  8
LC-001-100-D00-0
 62
     7
370
    50
100
AcDbLine
 10
772.452906
 20
1414.593586
 30
0.0
 11
772.521014
 21
1414.559454
 31
0.0
  0
LINE
  5
39A
330
391
100
AcDbEntity
  8
LC-001-100-D00-0
 62
     7
370
    50
100
AcDbLine
 10
772.521014
 20
1414.559454
 30
0.0
 11
772.521014
 21
1414.559454
 31
0.0
  0
LINE
  5
39B
330
391
100
AcDbEntity
  8
LC-001-100-D00-0
 62
     7
370
    50
100
AcDbLine
 10
772.521014
 20
1414.559454
 30
0.0
 11
772.627416
 21
1414.466543
 31
0.0
  0
ENDBLK
  5
393
330
391
100
AcDbEntity
  8
0
100
AcDbBlockEnd
  0
BLOCK
  5
39E
330
39D
100
AcDbEntity
  8
0
100
AcDbBlockBegin
  2
POLY59
 70
     0
 71
     0
 10
0.0
 20
0.0
 30
0.0
  3
POLY59
  1

  4
POLY59
  0
LINE
  5
3A0
330
39D
100
AcDbEntity
  8
LC-001-100-D00-0
 62
     7
370
    50
100
AcDbLine
 10
772.627416
 20
1414.466543
 30
0.0
 11
772.627416
 21
1414.466543
 31
0.0
  0
LINE
  5
3A1
330
39D
100
AcDbEntity
  8
LC-001-100-D00-0
 62
     7
370
    50
100
AcDbLine
 10
772.627416
 20
1414.466543
 30
0.0
 11
772.685397
 21
1414.524524
 31
0.0
  0
LINE
  5
3A2
330
39D
100
AcDbEntity
  8
LC-001-100-D00-0
 62
     7
370
    50
100
AcDbLine
 10
772.685397
 20
1414.524524
 30
0.0
 11
772.685397
 21
1414.524524
 31
0.0
  0
LINE
  5
3A3
330
39D
100
AcDbEntity
  8
LC-001-100-D00-0
 62
     7
370
    50
100
AcDbLine
 10
772.685397
 20
1414.524524
 30
0.0
 11
772.739775
 21
1414.578901
 31
0.0
  0
LINE
  5
3A4
330
39D
100
AcDbEntity
  8
LC-001-100-D00-0
 62
     7
370
    50
100
AcDbLine
 10
772.739775
 20
1414.578901
 30
0.0
 11
772.739775
 21
1414.578901
 31
0.0
  0
LINE
  5
3A5
330
39D
100
AcDbEntity
  8
LC-001-100-D00-0
 62
     7
370
    50
100
AcDbLine
 10
772.739775
 20
1414.578901
 30
0.0
 11
772.814342
 21
1414.653469
 31
0.0
  0
LINE
  5
3A6
330
39D
100
AcDbEntity
  8
LC-001-100-D00-0
 62
     7
370
    50
100
AcDbLine
 10
772.814342
 20
1414.653469
 30
0.0
 11
772.814342
 21
1414.653469
 31
0.0
  0
LINE
  5
3A7
330
39D
100
AcDbEntity
  8
LC-001-100-D00-0
 62
     7
370
    50
100
AcDbLine
 10
772.814342
 20
1414.653469
 30
0.0
 11
772.870786
 21
1414.709913
 31
0.0
  0
ENDBLK
  5
39F
330
39D
100
AcDbEntity
  8
0
100
AcDbBlockEnd
  0
BLOCK
  5
3AA
330
3A9
100
AcDbEntity
  8
0
100
AcDbBlockBegin
  2
POLY60
 70
     0
 71
     0
 10
0.0
 20
0.0
 30
0.0
  3
POLY60
  1

  4
POLY60
  0
LINE
  5
3AC
330
3A9
100
AcDbEntity
  8
LC-001-100-D00-0
 62
     7
370
    50
100
AcDbLine
 10
772.281915
 20
1414.588718
 30
0.0
 11
772.281915
 21
1414.588718
 31
0.0
  0
LINE
  5
3AD
330
3A9
100
AcDbEntity
  8
LC-001-100-D00-0
 62
     7
370
    50
100
AcDbLine
 10
772.281915
 20
1414.588718
 30
0.0
 11
772.235366
 21
1414.644498
 31
0.0
  0
LINE
  5
3AE
330
3A9
100
AcDbEntity
  8
LC-001-100-D00-0
 62
     7
370
    50
100
AcDbLine
 10
772.235366
 20
1414.644498
 30
0.0
 11
772.235366
 21
1414.644498
 31
0.0
  0
LINE
  5
3AF
330
3A9
100
AcDbEntity
  8
LC-001-100-D00-0
 62
     7
370
    50
100
AcDbLine
 10
772.235366
 20
1414.644498
 30
0.0
 11
772.194732
 21
1414.695429
 31
0.0
  0
LINE
  5
3B0
330
3A9
100
AcDbEntity
  8
LC-001-100-D00-0
 62
     7
370
    50
100
AcDbLine
 10
772.194732
 20
1414.695429
 30
0.0
 11
772.194732
 21
1414.695429
 31
0.0
  0
LINE
  5
3B1
330
3A9
100
AcDbEntity
  8
LC-001-100-D00-0
 62
     7
370
    50
100
AcDbLine
 10
772.194732
 20
1414.695429
 30
0.0
 11
772.146857
 21
1414.755235
 31
0.0
  0
LINE
  5
3B2
330
3A9
100
AcDbEntity
  8
LC-001-100-D00-0
 62
     7
370
    50
100
AcDbLine
 10
772.146857
 20
1414.755235
 30
0.0
 11
772.146857
 21
1414.755235
 31
0.0
  0
LINE
  5
3B3
330
3A9
100
AcDbEntity
  8
LC-001-100-D00-0
 62
     7
370
    50
100
AcDbLine
 10
772.146857
 20
1414.755235
 30
0.0
 11
772.097315
 21
1414.812365
 31
0.0
  0
ENDBLK
  5
3AB
330
3A9
100
AcDbEntity
  8
0
100
AcDbBlockEnd
  0
BLOCK
  5
3B6
330
3B5
100
AcDbEntity
  8
0
100
AcDbBlockBegin
  2
POLY61
 70
     0
 71
     0
 10
0.0
 20
0.0
 30
0.0
  3
POLY61
  1

  4
POLY61
  0
LINE
  5
3B8
330
3B5
100
AcDbEntity
  8
LC-001-100-D00-0
 62
     7
370
    50
100
AcDbLine
 10
772.517718
 20
1414.356844
 30
0.0
 11
772.517718
 21
1414.356844
 31
0.0
  0
LINE
  5
3B9
330
3B5
100
AcDbEntity
  8
LC-001-100-D00-0
 62
     7
370
    50
100
AcDbLine
 10
772.517718
 20
1414.356844
 30
0.0
 11
772.521717
 21
1414.360843
 31
0.0
  0
LINE
  5
3BA
330
3B5
100
AcDbEntity
  8
LC-001-100-D00-0
 62
     7
370
    50
100
AcDbLine
 10
772.521717
 20
1414.360843
 30
0.0
 11
772.521717
 21
1414.360843
 31
0.0
  0
LINE
  5
3BB
330
3B5
100
AcDbEntity
  8
LC-001-100-D00-0
 62
     7
370
    50
100
AcDbLine
 10
772.521717
 20
1414.360843
 30
0.0
 11
772.549709
 21
1414.388836
 31
0.0
  0
LINE
  5
3BC
330
3B5
100
AcDbEntity
  8
LC-001-100-D00-0
 62
     7
370
    50
100
AcDbLine
 10
772.549709
 20
1414.388836
 30
0.0
 11
772.549709
 21
1414.388836
 31
0.0
  0
LINE
  5
3BD
330
3B5
100
AcDbEntity
  8
LC-001-100-D00-0
 62
     7
370
    50
100
AcDbLine
 10
772.549709
 20
1414.388836
 30
0.0
 11
772.588453
 21
1414.42758
 31
0.0
  0
LINE
  5
3BE
330
3B5
100
AcDbEntity
  8
LC-001-100-D00-0
 62
     7
370
    50
100
AcDbLine
 10
772.588453
 20
1414.42758
 30
0.0
 11
772.588453
 21
1414.42758
 31
0.0
  0
LINE
  5
3BF
330
3B5
100
AcDbEntity
  8
LC-001-100-D00-0
 62
     7
370
    50
100
AcDbLine
 10
772.588453
 20
1414.42758
 30
0.0
 11
772.627416
 21
1414.466543
 31
0.0
  0
ENDBLK
  5
3B7
330
3B5
100
AcDbEntity
  8
0
100
AcDbBlockEnd
  0
BLOCK
  5
3C2
330
3C1
100
AcDbEntity
  8
0
100
AcDbBlockBegin
  2
POLY62
 70
     0
 71
     0
 10
0.0
 20
0.0
 30
0.0
  3
POLY62
  1

  4
POLY62
  0
LINE
  5
3C4
330
3C1
100
AcDbEntity
  8
LC-001-100-D00-0
 62
     7
370
    50
100
AcDbLine
 10
772.097315
 20
1414.812365
 30
0.0
 11
772.097315
 21
1414.812365
 31
0.0
  0
LINE
  5
3C5
330
3C1
100
AcDbEntity
  8
LC-001-100-D00-0
 62
     7
370
    50
100
AcDbLine
 10
772.097315
 20
1414.812365
 30
0.0
 11
771.962559
 21
1414.644815
 31
0.0
  0
LINE
  5
3C6
330
3C1
100
AcDbEntity
  8
LC-001-100-D00-0
 62
     7
370
    50
100
AcDbLine
 10
771.962559
 20
1414.644815
 30
0.0
 11
771.962559
 21
1414.644815
 31
0.0
  0
LINE
  5
3C7
330
3C1
100
AcDbEntity
  8
LC-001-100-D00-0
 62
     7
370
    50
100
AcDbLine
 10
771.962559
 20
1414.644815
 30
0.0
 11
771.853461
 21
1414.489656
 31
0.0
  0
LINE
  5
3C8
330
3C1
100
AcDbEntity
  8
LC-001-100-D00-0
 62
     7
370
    50
100
AcDbLine
 10
771.853461
 20
1414.489656
 30
0.0
 11
771.853461
 21
1414.489656
 31
0.0
  0
LINE
  5
3C9
330
3C1
100
AcDbEntity
  8
LC-001-100-D00-0
 62
     7
370
    50
100
AcDbLine
 10
771.853461
 20
1414.489656
 30
0.0
 11
771.784681
 21
1414.367894
 31
0.0
  0
LINE
  5
3CA
330
3C1
100
AcDbEntity
  8
LC-001-100-D00-0
 62
     7
370
    50
100
AcDbLine
 10
771.784681
 20
1414.367894
 30
0.0
 11
771.784681
 21
1414.367894
 31
0.0
  0
LINE
  5
3CB
330
3C1
100
AcDbEntity
  8
LC-001-100-D00-0
 62
     7
370
    50
100
AcDbLine
 10
771.784681
 20
1414.367894
 30
0.0
 11
771.770185
 21
1414.30186
 31
0.0
  0
ENDBLK
  5
3C3
330
3C1
100
AcDbEntity
  8
0
100
AcDbBlockEnd
  0
BLOCK
  5
3CE
330
3CD
100
AcDbEntity
  8
0
100
AcDbBlockBegin
  2
POLY63
 70
     0
 71
     0
 10
0.0
 20
0.0
 30
0.0
  3
POLY63
  1

  4
POLY63
  0
LINE
  5
3D0
330
3CD
100
AcDbEntity
  8
LC-001-100-D00-0
 62
     7
370
    50
100
AcDbLine
 10
773.219635
 20
1415.934685
 30
0.0
 11
773.219635
 21
1415.934685
 31
0.0
  0
LINE
  5
3D1
330
3CD
100
AcDbEntity
  8
LC-001-100-D00-0
 62
     7
370
    50
100
AcDbLine
 10
773.219635
 20
1415.934685
 30
0.0
 11
773.120469
 21
1415.788191
 31
0.0
  0
LINE
  5
3D2
330
3CD
100
AcDbEntity
  8
LC-001-100-D00-0
 62
     7
370
    50
100
AcDbLine
 10
773.120469
 20
1415.788191
 30
0.0
 11
773.120469
 21
1415.788191
 31
0.0
  0
LINE
  5
3D3
330
3CD
100
AcDbEntity
  8
LC-001-100-D00-0
 62
     7
370
    50
100
AcDbLine
 10
773.120469
 20
1415.788191
 30
0.0
 11
773.100025
 21
1415.645182
 31
0.0
  0
LINE
  5
3D4
330
3CD
100
AcDbEntity
  8
LC-001-100-D00-0
 62
     7
370
    50
100
AcDbLine
 10
773.100025
 20
1415.645182
 30
0.0
 11
773.100025
 21
1415.645182
 31
0.0
  0
LINE
  5
3D5
330
3CD
100
AcDbEntity
  8
LC-001-100-D00-0
 62
     7
370
    50
100
AcDbLine
 10
773.100025
 20
1415.645182
 30
0.0
 11
773.110131
 21
1415.554261
 31
0.0
  0
LINE
  5
3D6
330
3CD
100
AcDbEntity
  8
LC-001-100-D00-0
 62
     7
370
    50
100
AcDbLine
 10
773.110131
 20
1415.554261
 30
0.0
 11
773.110131
 21
1415.554261
 31
0.0
  0
LINE
  5
3D7
330
3CD
100
AcDbEntity
  8
LC-001-100-D00-0
 62
     7
370
    50
100
AcDbLine
 10
773.110131
 20
1415.554261
 30
0.0
 11
773.18772
 21
1415.342521
 31
0.0
  0
LINE
  5
3D8
330
3CD
100
AcDbEntity
  8
LC-001-100-D00-0
 62
     7
370
    50
100
AcDbLine
 10
773.18772
 20
1415.342521
 30
0.0
 11
773.18772
 21
1415.342521
 31
0.0
  0
LINE
  5
3D9
330
3CD
100
AcDbEntity
  8
LC-001-100-D00-0
 62
     7
370
    50
100
AcDbLine
 10
773.18772
 20
1415.342521
 30
0.0
 11
773.322087
 21
1415.161213
 31
0.0
  0
ENDBLK
  5
3CF
330
3CD
100
AcDbEntity
  8
0
100
AcDbBlockEnd
  0
BLOCK
  5
3DC
330
3DB
100
AcDbEntity
  8
0
100
AcDbBlockBegin
  2
POLY64
 70
     0
 71
     0
 10
0.0
 20
0.0
 30
0.0
  3
POLY64
  1

  4
POLY64
  0
LINE
  5
3DE
330
3DB
100
AcDbEntity
  8
LC-001-100-D00-0
 62
     7
370
    50
100
AcDbLine
 10
772.870786
 20
1414.709913
 30
0.0
 11
772.870786
 21
1414.709913
 31
0.0
  0
LINE
  5
3DF
330
3DB
100
AcDbEntity
  8
LC-001-100-D00-0
 62
     7
370
    50
100
AcDbLine
 10
772.870786
 20
1414.709913
 30
0.0
 11
772.689479
 21
1414.84428
 31
0.0
  0
LINE
  5
3E0
330
3DB
100
AcDbEntity
  8
LC-001-100-D00-0
 62
     7
370
    50
100
AcDbLine
 10
772.689479
 20
1414.84428
 30
0.0
 11
772.689479
 21
1414.84428
 31
0.0
  0
LINE
  5
3E1
330
3DB
100
AcDbEntity
  8
LC-001-100-D00-0
 62
     7
370
    50
100
AcDbLine
 10
772.689479
 20
1414.84428
 30
0.0
 11
772.477738
 21
1414.921869
 31
0.0
  0
LINE
  5
3E2
330
3DB
100
AcDbEntity
  8
LC-001-100-D00-0
 62
     7
370
    50
100
AcDbLine
 10
772.477738
 20
1414.921869
 30
0.0
 11
772.477738
 21
1414.921869
 31
0.0
  0
LINE
  5
3E3
330
3DB
100
AcDbEntity
  8
LC-001-100-D00-0
 62
     7
370
    50
100
AcDbLine
 10
772.477738
 20
1414.921869
 30
0.0
 11
772.386817
 21
1414.931975
 31
0.0
  0
LINE
  5
3E4
330
3DB
100
AcDbEntity
  8
LC-001-100-D00-0
 62
     7
370
    50
100
AcDbLine
 10
772.386817
 20
1414.931975
 30
0.0
 11
772.386817
 21
1414.931975
 31
0.0
  0
LINE
  5
3E5
330
3DB
100
AcDbEntity
  8
LC-001-100-D00-0
 62
     7
370
    50
100
AcDbLine
 10
772.386817
 20
1414.931975
 30
0.0
 11
772.243809
 21
1414.91153
 31
0.0
  0
LINE
  5
3E6
330
3DB
100
AcDbEntity
  8
LC-001-100-D00-0
 62
     7
370
    50
100
AcDbLine
 10
772.243809
 20
1414.91153
 30
0.0
 11
772.243809
 21
1414.91153
 31
0.0
  0
LINE
  5
3E7
330
3DB
100
AcDbEntity
  8
LC-001-100-D00-0
 62
     7
370
    50
100
AcDbLine
 10
772.243809
 20
1414.91153
 30
0.0
 11
772.097315
 21
1414.812365
 31
0.0
  0
ENDBLK
  5
3DD
330
3DB
100
AcDbEntity
  8
0
100
AcDbBlockEnd
  0
BLOCK
  5
473
330
472
100
AcDbEntity
  8
0
100
AcDbBlockBegin
  2
POLY65
 70
     0
 71
     0
 10
0.0
 20
0.0
 30
0.0
  3
POLY65
  1

  4
POLY65
  0
LINE
  5
475
330
472
100
AcDbEntity
  8
LC-001-100-D00-0
 62
     7
370
    50
100
AcDbLine
 10
856.239932
 20
1455.105636
 30
0.0
 11
856.239932
 21
1455.105636
 31
0.0
  0
LINE
  5
476
330
472
100
AcDbEntity
  8
LC-001-100-D00-0
 62
     7
370
    50
100
AcDbLine
 10
856.239932
 20
1455.105636
 30
0.0
 11
856.239089
 21
1455.196538
 31
0.0
  0
LINE
  5
477
330
472
100
AcDbEntity
  8
LC-001-100-D00-0
 62
     7
370
    50
100
AcDbLine
 10
856.239089
 20
1455.196538
 30
0.0
 11
856.239089
 21
1455.196538
 31
0.0
  0
LINE
  5
478
330
472
100
AcDbEntity
  8
LC-001-100-D00-0
 62
     7
370
    50
100
AcDbLine
 10
856.239089
 20
1455.196538
 30
0.0
 11
856.239802
 21
1455.289501
 31
0.0
  0
LINE
  5
479
330
472
100
AcDbEntity
  8
LC-001-100-D00-0
 62
     7
370
    50
100
AcDbLine
 10
856.239802
 20
1455.289501
 30
0.0
 11
856.239802
 21
1455.289501
 31
0.0
  0
LINE
  5
47A
330
472
100
AcDbEntity
  8
LC-001-100-D00-0
 62
     7
370
    50
100
AcDbLine
 10
856.239802
 20
1455.289501
 30
0.0
 11
856.242299
 21
1455.37897
 31
0.0
  0
LINE
  5
47B
330
472
100
AcDbEntity
  8
LC-001-100-D00-0
 62
     7
370
    50
100
AcDbLine
 10
856.242299
 20
1455.37897
 30
0.0
 11
856.242299
 21
1455.37897
 31
0.0
  0
LINE
  5
47C
330
472
100
AcDbEntity
  8
LC-001-100-D00-0
 62
     7
370
    50
100
AcDbLine
 10
856.242299
 20
1455.37897
 30
0.0
 11
856.246554
 21
1455.458868
 31
0.0
  0
LINE
  5
47D
330
472
100
AcDbEntity
  8
LC-001-100-D00-0
 62
     7
370
    50
100
AcDbLine
 10
856.246554
 20
1455.458868
 30
0.0
 11
856.246554
 21
1455.458868
 31
0.0
  0
LINE
  5
47E
330
472
100
AcDbEntity
  8
LC-001-100-D00-0
 62
     7
370
    50
100
AcDbLine
 10
856.246554
 20
1455.458868
 30
0.0
 11
856.2524
 21
1455.523786
 31
0.0
  0
LINE
  5
47F
330
472
100
AcDbEntity
  8
LC-001-100-D00-0
 62
     7
370
    50
100
AcDbLine
 10
856.2524
 20
1455.523786
 30
0.0
 11
856.2524
 21
1455.523786
 31
0.0
  0
LINE
  5
480
330
472
100
AcDbEntity
  8
LC-001-100-D00-0
 62
     7
370
    50
100
AcDbLine
 10
856.2524
 20
1455.523786
 30
0.0
 11
856.259373
 21
1455.570241
 31
0.0
  0
LINE
  5
481
330
472
100
AcDbEntity
  8
LC-001-100-D00-0
 62
     7
370
    50
100
AcDbLine
 10
856.259373
 20
1455.570241
 30
0.0
 11
856.259373
 21
1455.570241
 31
0.0
  0
LINE
  5
482
330
472
100
AcDbEntity
  8
LC-001-100-D00-0
 62
     7
370
    50
100
AcDbLine
 10
856.259373
 20
1455.570241
 30
0.0
 11
856.261849
 21
1455.580627
 31
0.0
  0
LINE
  5
483
330
472
100
AcDbEntity
  8
LC-001-100-D00-0
 62
     7
370
    50
100
AcDbLine
 10
856.261849
 20
1455.580627
 30
0.0
 11
856.261849
 21
1455.580627
 31
0.0
  0
LINE
  5
484
330
472
100
AcDbEntity
  8
LC-001-100-D00-0
 62
     7
370
    50
100
AcDbLine
 10
856.261849
 20
1455.580627
 30
0.0
 11
856.264324
 21
1455.591013
 31
0.0
  0
ENDBLK
  5
474
330
472
100
AcDbEntity
  8
0
100
AcDbBlockEnd
  0
BLOCK
  5
487
330
486
100
AcDbEntity
  8
0
100
AcDbBlockBegin
  2
POLY66
 70
     0
 71
     0
 10
0.0
 20
0.0
 30
0.0
  3
POLY66
  1

  4
POLY66
  0
LINE
  5
489
330
486
100
AcDbEntity
  8
LC-001-100-D00-0
 62
     7
370
    50
100
AcDbLine
 10
856.239932
 20
1454.894364
 30
0.0
 11
856.239932
 21
1454.894364
 31
0.0
  0
LINE
  5
48A
330
486
100
AcDbEntity
  8
LC-001-100-D00-0
 62
     7
370
    50
100
AcDbLine
 10
856.239932
 20
1454.894364
 30
0.0
 11
855.990173
 21
1454.897634
 31
0.0
  0
LINE
  5
48B
330
486
100
AcDbEntity
  8
LC-001-100-D00-0
 62
     7
370
    50
100
AcDbLine
 10
855.990173
 20
1454.897634
 30
0.0
 11
855.990173
 21
1454.897634
 31
0.0
  0
LINE
  5
48C
330
486
100
AcDbEntity
  8
LC-001-100-D00-0
 62
     7
370
    50
100
AcDbLine
 10
855.990173
 20
1454.897634
 30
0.0
 11
855.747178
 21
1454.900815
 31
0.0
  0
LINE
  5
48D
330
486
100
AcDbEntity
  8
LC-001-100-D00-0
 62
     7
370
    50
100
AcDbLine
 10
855.747178
 20
1454.900815
 30
0.0
 11
855.747178
 21
1454.900815
 31
0.0
  0
LINE
  5
48E
330
486
100
AcDbEntity
  8
LC-001-100-D00-0
 62
     7
370
    50
100
AcDbLine
 10
855.747178
 20
1454.900815
 30
0.0
 11
855.310748
 21
1454.906528
 31
0.0
  0
LINE
  5
48F
330
486
100
AcDbEntity
  8
LC-001-100-D00-0
 62
     7
370
    50
100
AcDbLine
 10
855.310748
 20
1454.906528
 30
0.0
 11
855.310748
 21
1454.906528
 31
0.0
  0
LINE
  5
490
330
486
100
AcDbEntity
  8
LC-001-100-D00-0
 62
     7
370
    50
100
AcDbLine
 10
855.310748
 20
1454.906528
 30
0.0
 11
854.939903
 21
1454.911383
 31
0.0
  0
LINE
  5
491
330
486
100
AcDbEntity
  8
LC-001-100-D00-0
 62
     7
370
    50
100
AcDbLine
 10
854.939903
 20
1454.911383
 30
0.0
 11
854.939903
 21
1454.911383
 31
0.0
  0
LINE
  5
492
330
486
100
AcDbEntity
  8
LC-001-100-D00-0
 62
     7
370
    50
100
AcDbLine
 10
854.939903
 20
1454.911383
 30
0.0
 11
854.740434
 21
1454.913995
 31
0.0
  0
LINE
  5
493
330
486
100
AcDbEntity
  8
LC-001-100-D00-0
 62
     7
370
    50
100
AcDbLine
 10
854.740434
 20
1454.913995
 30
0.0
 11
854.740434
 21
1454.913995
 31
0.0
  0
LINE
  5
494
330
486
100
AcDbEntity
  8
LC-001-100-D00-0
 62
     7
370
    50
100
AcDbLine
 10
854.740434
 20
1454.913995
 30
0.0
 11
854.585621
 21
1454.916021
 31
0.0
  0
LINE
  5
495
330
486
100
AcDbEntity
  8
LC-001-100-D00-0
 62
     7
370
    50
100
AcDbLine
 10
854.585621
 20
1454.916021
 30
0.0
 11
854.585621
 21
1454.916021
 31
0.0
  0
LINE
  5
496
330
486
100
AcDbEntity
  8
LC-001-100-D00-0
 62
     7
370
    50
100
AcDbLine
 10
854.585621
 20
1454.916021
 30
0.0
 11
854.478543
 21
1454.917423
 31
0.0
  0
LINE
  5
497
330
486
100
AcDbEntity
  8
LC-001-100-D00-0
 62
     7
370
    50
100
AcDbLine
 10
854.478543
 20
1454.917423
 30
0.0
 11
854.478543
 21
1454.917423
 31
0.0
  0
LINE
  5
498
330
486
100
AcDbEntity
  8
LC-001-100-D00-0
 62
     7
370
    50
100
AcDbLine
 10
854.478543
 20
1454.917423
 30
0.0
 11
854.446394
 21
1454.917844
 31
0.0
  0
LINE
  5
499
330
486
100
AcDbEntity
  8
LC-001-100-D00-0
 62
     7
370
    50
100
AcDbLine
 10
854.446394
 20
1454.917844
 30
0.0
 11
854.446394
 21
1454.917844
 31
0.0
  0
LINE
  5
49A
330
486
100
AcDbEntity
  8
LC-001-100-D00-0
 62
     7
370
    50
100
AcDbLine
 10
854.446394
 20
1454.917844
 30
0.0
 11
854.414244
 21
1454.918265
 31
0.0
  0
ENDBLK
  5
488
330
486
100
AcDbEntity
  8
0
100
AcDbBlockEnd
  0
BLOCK
  5
49D
330
49C
100
AcDbEntity
  8
0
100
AcDbBlockBegin
  2
POLY67
 70
     0
 71
     0
 10
0.0
 20
0.0
 30
0.0
  3
POLY67
  1

  4
POLY67
  0
LINE
  5
49F
330
49C
100
AcDbEntity
  8
LC-001-100-D00-0
 62
     7
370
    50
100
AcDbLine
 10
856.239932
 20
1455.105636
 30
0.0
 11
856.239932
 21
1455.105636
 31
0.0
  0
LINE
  5
4A0
330
49C
100
AcDbEntity
  8
LC-001-100-D00-0
 62
     7
370
    50
100
AcDbLine
 10
856.239932
 20
1455.105636
 30
0.0
 11
855.989937
 21
1455.102364
 31
0.0
  0
LINE
  5
4A1
330
49C
100
AcDbEntity
  8
LC-001-100-D00-0
 62
     7
370
    50
100
AcDbLine
 10
855.989937
 20
1455.102364
 30
0.0
 11
855.989937
 21
1455.102364
 31
0.0
  0
LINE
  5
4A2
330
49C
100
AcDbEntity
  8
LC-001-100-D00-0
 62
     7
370
    50
100
AcDbLine
 10
855.989937
 20
1455.102364
 30
0.0
 11
855.746723
 21
1455.09918
 31
0.0
  0
LINE
  5
4A3
330
49C
100
AcDbEntity
  8
LC-001-100-D00-0
 62
     7
370
    50
100
AcDbLine
 10
855.746723
 20
1455.09918
 30
0.0
 11
855.746723
 21
1455.09918
 31
0.0
  0
LINE
  5
4A4
330
49C
100
AcDbEntity
  8
LC-001-100-D00-0
 62
     7
370
    50
100
AcDbLine
 10
855.746723
 20
1455.09918
 30
0.0
 11
855.311433
 21
1455.093481
 31
0.0
  0
LINE
  5
4A5
330
49C
100
AcDbEntity
  8
LC-001-100-D00-0
 62
     7
370
    50
100
AcDbLine
 10
855.311433
 20
1455.093481
 30
0.0
 11
855.311433
 21
1455.093481
 31
0.0
  0
LINE
  5
4A6
330
49C
100
AcDbEntity
  8
LC-001-100-D00-0
 62
     7
370
    50
100
AcDbLine
 10
855.311433
 20
1455.093481
 30
0.0
 11
854.94134
 21
1455.088636
 31
0.0
  0
LINE
  5
4A7
330
49C
100
AcDbEntity
  8
LC-001-100-D00-0
 62
     7
370
    50
100
AcDbLine
 10
854.94134
 20
1455.088636
 30
0.0
 11
854.94134
 21
1455.088636
 31
0.0
  0
LINE
  5
4A8
330
49C
100
AcDbEntity
  8
LC-001-100-D00-0
 62
     7
370
    50
100
AcDbLine
 10
854.94134
 20
1455.088636
 30
0.0
 11
854.741098
 21
1455.086015
 31
0.0
  0
LINE
  5
4A9
330
49C
100
AcDbEntity
  8
LC-001-100-D00-0
 62
     7
370
    50
100
AcDbLine
 10
854.741098
 20
1455.086015
 30
0.0
 11
854.741098
 21
1455.086015
 31
0.0
  0
LINE
  5
4AA
330
49C
100
AcDbEntity
  8
LC-001-100-D00-0
 62
     7
370
    50
100
AcDbLine
 10
854.741098
 20
1455.086015
 30
0.0
 11
854.585745
 21
1455.083981
 31
0.0
  0
LINE
  5
4AB
330
49C
100
AcDbEntity
  8
LC-001-100-D00-0
 62
     7
370
    50
100
AcDbLine
 10
854.585745
 20
1455.083981
 30
0.0
 11
854.585745
 21
1455.083981
 31
0.0
  0
LINE
  5
4AC
330
49C
100
AcDbEntity
  8
LC-001-100-D00-0
 62
     7
370
    50
100
AcDbLine
 10
854.585745
 20
1455.083981
 30
0.0
 11
854.478391
 21
1455.082576
 31
0.0
  0
LINE
  5
4AD
330
49C
100
AcDbEntity
  8
LC-001-100-D00-0
 62
     7
370
    50
100
AcDbLine
 10
854.478391
 20
1455.082576
 30
0.0
 11
854.478391
 21
1455.082576
 31
0.0
  0
LINE
  5
4AE
330
49C
100
AcDbEntity
  8
LC-001-100-D00-0
 62
     7
370
    50
100
AcDbLine
 10
854.478391
 20
1455.082576
 30
0.0
 11
854.446317
 21
1455.082156
 31
0.0
  0
LINE
  5
4AF
330
49C
100
AcDbEntity
  8
LC-001-100-D00-0
 62
     7
370
    50
100
AcDbLine
 10
854.446317
 20
1455.082156
 30
0.0
 11
854.446317
 21
1455.082156
 31
0.0
  0
LINE
  5
4B0
330
49C
100
AcDbEntity
  8
LC-001-100-D00-0
 62
     7
370
    50
100
AcDbLine
 10
854.446317
 20
1455.082156
 30
0.0
 11
854.414244
 21
1455.081736
 31
0.0
  0
ENDBLK
  5
49E
330
49C
100
AcDbEntity
  8
0
100
AcDbBlockEnd
  0
BLOCK
  5
4B3
330
4B2
100
AcDbEntity
  8
0
100
AcDbBlockBegin
  2
POLY68
 70
     0
 71
     0
 10
0.0
 20
0.0
 30
0.0
  3
POLY68
  1

  4
POLY68
  0
LINE
  5
4B5
330
4B2
100
AcDbEntity
  8
LC-001-100-D00-0
 62
     7
370
    50
100
AcDbLine
 10
856.239932
 20
1454.894364
 30
0.0
 11
856.239932
 21
1454.894364
 31
0.0
  0
LINE
  5
4B6
330
4B2
100
AcDbEntity
  8
LC-001-100-D00-0
 62
     7
370
    50
100
AcDbLine
 10
856.239932
 20
1454.894364
 30
0.0
 11
856.239089
 21
1454.803463
 31
0.0
  0
LINE
  5
4B7
330
4B2
100
AcDbEntity
  8
LC-001-100-D00-0
 62
     7
370
    50
100
AcDbLine
 10
856.239089
 20
1454.803463
 30
0.0
 11
856.239089
 21
1454.803463
 31
0.0
  0
LINE
  5
4B8
330
4B2
100
AcDbEntity
  8
LC-001-100-D00-0
 62
     7
370
    50
100
AcDbLine
 10
856.239089
 20
1454.803463
 30
0.0
 11
856.239802
 21
1454.7105
 31
0.0
  0
LINE
  5
4B9
330
4B2
100
AcDbEntity
  8
LC-001-100-D00-0
 62
     7
370
    50
100
AcDbLine
 10
856.239802
 20
1454.7105
 30
0.0
 11
856.239802
 21
1454.7105
 31
0.0
  0
LINE
  5
4BA
330
4B2
100
AcDbEntity
  8
LC-001-100-D00-0
 62
     7
370
    50
100
AcDbLine
 10
856.239802
 20
1454.7105
 30
0.0
 11
856.242299
 21
1454.621031
 31
0.0
  0
LINE
  5
4BB
330
4B2
100
AcDbEntity
  8
LC-001-100-D00-0
 62
     7
370
    50
100
AcDbLine
 10
856.242299
 20
1454.621031
 30
0.0
 11
856.242299
 21
1454.621031
 31
0.0
  0
LINE
  5
4BC
330
4B2
100
AcDbEntity
  8
LC-001-100-D00-0
 62
     7
370
    50
100
AcDbLine
 10
856.242299
 20
1454.621031
 30
0.0
 11
856.246554
 21
1454.541133
 31
0.0
  0
LINE
  5
4BD
330
4B2
100
AcDbEntity
  8
LC-001-100-D00-0
 62
     7
370
    50
100
AcDbLine
 10
856.246554
 20
1454.541133
 30
0.0
 11
856.246554
 21
1454.541133
 31
0.0
  0
LINE
  5
4BE
330
4B2
100
AcDbEntity
  8
LC-001-100-D00-0
 62
     7
370
    50
100
AcDbLine
 10
856.246554
 20
1454.541133
 30
0.0
 11
856.2524
 21
1454.476215
 31
0.0
  0
LINE
  5
4BF
330
4B2
100
AcDbEntity
  8
LC-001-100-D00-0
 62
     7
370
    50
100
AcDbLine
 10
856.2524
 20
1454.476215
 30
0.0
 11
856.2524
 21
1454.476215
 31
0.0
  0
LINE
  5
4C0
330
4B2
100
AcDbEntity
  8
LC-001-100-D00-0
 62
     7
370
    50
100
AcDbLine
 10
856.2524
 20
1454.476215
 30
0.0
 11
856.259374
 21
1454.429759
 31
0.0
  0
LINE
  5
4C1
330
4B2
100
AcDbEntity
  8
LC-001-100-D00-0
 62
     7
370
    50
100
AcDbLine
 10
856.259374
 20
1454.429759
 30
0.0
 11
856.259374
 21
1454.429759
 31
0.0
  0
LINE
  5
4C2
330
4B2
100
AcDbEntity
  8
LC-001-100-D00-0
 62
     7
370
    50
100
AcDbLine
 10
856.259374
 20
1454.429759
 30
0.0
 11
856.267079
 21
1454.4121
 31
0.0
  0
LINE
  5
4C3
330
4B2
100
AcDbEntity
  8
LC-001-100-D00-0
 62
     7
370
    50
100
AcDbLine
 10
856.267079
 20
1454.4121
 30
0.0
 11
856.267079
 21
1454.4121
 31
0.0
  0
LINE
  5
4C4
330
4B2
100
AcDbEntity
  8
LC-001-100-D00-0
 62
     7
370
    50
100
AcDbLine
 10
856.267079
 20
1454.4121
 30
0.0
 11
856.274784
 21
1454.39444
 31
0.0
  0
ENDBLK
  5
4B4
330
4B2
100
AcDbEntity
  8
0
100
AcDbBlockEnd
  0
BLOCK
  5
4C7
330
4C6
100
AcDbEntity
  8
0
100
AcDbBlockBegin
  2
POLY69
 70
     0
 71
     0
 10
0.0
 20
0.0
 30
0.0
  3
POLY69
  1

  4
POLY69
  0
LINE
  5
4C9
330
4C6
100
AcDbEntity
  8
LC-001-100-D00-0
 62
     7
370
    50
100
AcDbLine
 10
867.414244
 20
1454.707283
 30
0.0
 11
867.414244
 21
1454.707283
 31
0.0
  0
LINE
  5
4CA
330
4C6
100
AcDbEntity
  8
LC-001-100-D00-0
 62
     7
370
    50
100
AcDbLine
 10
867.414244
 20
1454.707283
 30
0.0
 11
867.348563
 21
1454.707283
 31
0.0
  0
LINE
  5
4CB
330
4C6
100
AcDbEntity
  8
LC-001-100-D00-0
 62
     7
370
    50
100
AcDbLine
 10
867.348563
 20
1454.707283
 30
0.0
 11
867.348563
 21
1454.707283
 31
0.0
  0
LINE
  5
4CC
330
4C6
100
AcDbEntity
  8
LC-001-100-D00-0
 62
     7
370
    50
100
AcDbLine
 10
867.348563
 20
1454.707283
 30
0.0
 11
867.282883
 21
1454.707283
 31
0.0
  0
LINE
  5
4CD
330
4C6
100
AcDbEntity
  8
LC-001-100-D00-0
 62
     7
370
    50
100
AcDbLine
 10
867.282883
 20
1454.707283
 30
0.0
 11
867.282883
 21
1454.707283
 31
0.0
  0
LINE
  5
4CE
330
4C6
100
AcDbEntity
  8
LC-001-100-D00-0
 62
     7
370
    50
100
AcDbLine
 10
867.282883
 20
1454.707283
 30
0.0
 11
867.135388
 21
1454.707283
 31
0.0
  0
LINE
  5
4CF
330
4C6
100
AcDbEntity
  8
LC-001-100-D00-0
 62
     7
370
    50
100
AcDbLine
 10
867.135388
 20
1454.707283
 30
0.0
 11
867.135388
 21
1454.707283
 31
0.0
  0
LINE
  5
4D0
330
4C6
100
AcDbEntity
  8
LC-001-100-D00-0
 62
     7
370
    50
100
AcDbLine
 10
867.135388
 20
1454.707283
 30
0.0
 11
866.957822
 21
1454.707283
 31
0.0
  0
ENDBLK
  5
4C8
330
4C6
100
AcDbEntity
  8
0
100
AcDbBlockEnd
  0
BLOCK
  5
4D3
330
4D2
100
AcDbEntity
  8
0
100
AcDbBlockBegin
  2
POLY70
 70
     0
 71
     0
 10
0.0
 20
0.0
 30
0.0
  3
POLY70
  1

  4
POLY70
  0
LINE
  5
4D5
330
4D2
100
AcDbEntity
  8
LC-001-100-D00-0
 62
     7
370
    50
100
AcDbLine
 10
866.957822
 20
1455.292718
 30
0.0
 11
866.957822
 21
1455.292718
 31
0.0
  0
LINE
  5
4D6
330
4D2
100
AcDbEntity
  8
LC-001-100-D00-0
 62
     7
370
    50
100
AcDbLine
 10
866.957822
 20
1455.292718
 30
0.0
 11
867.135388
 21
1455.292718
 31
0.0
  0
LINE
  5
4D7
330
4D2
100
AcDbEntity
  8
LC-001-100-D00-0
 62
     7
370
    50
100
AcDbLine
 10
867.135388
 20
1455.292718
 30
0.0
 11
867.135388
 21
1455.292718
 31
0.0
  0
LINE
  5
4D8
330
4D2
100
AcDbEntity
  8
LC-001-100-D00-0
 62
     7
370
    50
100
AcDbLine
 10
867.135388
 20
1455.292718
 30
0.0
 11
867.282883
 21
1455.292718
 31
0.0
  0
LINE
  5
4D9
330
4D2
100
AcDbEntity
  8
LC-001-100-D00-0
 62
     7
370
    50
100
AcDbLine
 10
867.282883
 20
1455.292718
 30
0.0
 11
867.282883
 21
1455.292718
 31
0.0
  0
LINE
  5
4DA
330
4D2
100
AcDbEntity
  8
LC-001-100-D00-0
 62
     7
370
    50
100
AcDbLine
 10
867.282883
 20
1455.292718
 30
0.0
 11
867.348563
 21
1455.292718
 31
0.0
  0
LINE
  5
4DB
330
4D2
100
AcDbEntity
  8
LC-001-100-D00-0
 62
     7
370
    50
100
AcDbLine
 10
867.348563
 20
1455.292718
 30
0.0
 11
867.348563
 21
1455.292718
 31
0.0
  0
LINE
  5
4DC
330
4D2
100
AcDbEntity
  8
LC-001-100-D00-0
 62
     7
370
    50
100
AcDbLine
 10
867.348563
 20
1455.292718
 30
0.0
 11
867.414244
 21
1455.292718
 31
0.0
  0
ENDBLK
  5
4D4
330
4D2
100
AcDbEntity
  8
0
100
AcDbBlockEnd
  0
BLOCK
  5
50F
330
505
100
AcDbEntity
  8
0
100
AcDbBlockBegin
  2
*D72
 70
     1
 71
     0
 10
0.0
 20
0.0
 30
0.0
  3
*D72
  1

  0
LINE
  5
506
330
505
100
AcDbEntity
  8
LC-003-003-----0
 62
     2
370
    -2
100
AcDbLine
 10
713.0
 20
1469.5
 30
0.0
 11
713.0
 21
1508.391976
 31
0.0
  0
LINE
  5
507
330
505
100
AcDbEntity
  8
LC-003-003-----0
 62
     2
370
    -2
100
AcDbLine
 10
795.0
 20
1469.5
 30
0.0
 11
795.0
 21
1508.391976
 31
0.0
  0
LINE
  5
508
330
505
100
AcDbEntity
  8
LC-003-003-----0
 62
     2
370
    -2
100
AcDbLine
 10
741.0
 20
1504.791976
 30
0.0
 11
767.0
 21
1504.791976
 31
0.0
  0
SOLID
  5
509
330
505
100
AcDbEntity
  8
LC-003-003-----0
 62
     2
100
AcDbTrace
 10
741.0
 20
1509.458643
 30
0.0
 11
741.0
 21
1500.12531
 31
0.0
 12
713.0
 22
1504.791976
 32
0.0
 13
713.0
 23
1504.791976
 33
0.0
  0
SOLID
  5
50A
330
505
100
AcDbEntity
  8
LC-003-003-----0
 62
     2
100
AcDbTrace
 10
767.0
 20
1500.12531
 30
0.0
 11
767.0
 21
1509.458643
 31
0.0
 12
795.0
 22
1504.791976
 32
0.0
 13
795.0
 23
1504.791976
 33
0.0
  0
MTEXT
  5
50B
330
505
100
AcDbEntity
  8
LC-003-003-----0
 62
     2
100
AcDbMText
 10
750.387101
 20
1535.591976
 30
0.0
 40
28.0
 41
0.0
 71
     5
 72
     1
  1
\A1;82
  7
LCTX15-400-0-0pDIN-Schrift
 73
     1
 44
1.0
  0
POINT
  5
50C
330
505
100
AcDbEntity
  8
Defpoints
 62
     0
100
AcDbPoint
 10
713.0
 20
1469.5
 30
0.0
  0
POINT
  5
50D
330
505
100
AcDbEntity
  8
Defpoints
 62
     0
100
AcDbPoint
 10
795.0
 20
1469.5
 30
0.0
  0
POINT
  5
50E
330
505
100
AcDbEntity
  8
Defpoints
 62
     0
100
AcDbPoint
 10
795.0
 20
1504.791976
 30
0.0
  0
ENDBLK
  5
510
330
505
100
AcDbEntity
  8
0
100
AcDbBlockEnd
  0
BLOCK
  5
51C
330
512
100
AcDbEntity
  8
0
100
AcDbBlockBegin
  2
*D73
 70
     1
 71
     0
 10
0.0
 20
0.0
 30
0.0
  3
*D73
  1

  0
LINE
  5
513
330
512
100
AcDbEntity
  8
LC-003-003-----0
 62
     2
370
    -2
100
AcDbLine
 10
727.0
 20
1483.0
 30
0.0
 11
683.959237
 21
1483.0
 31
0.0
  0
LINE
  5
514
330
512
100
AcDbEntity
  8
LC-003-003-----0
 62
     2
370
    -2
100
AcDbLine
 10
727.0
 20
1392.5
 30
0.0
 11
683.959237
 21
1392.5
 31
0.0
  0
LINE
  5
515
330
512
100
AcDbEntity
  8
LC-003-003-----0
 62
     2
370
    -2
100
AcDbLine
 10
687.559237
 20
1455.0
 30
0.0
 11
687.559237
 21
1420.5
 31
0.0
  0
SOLID
  5
516
330
512
100
AcDbEntity
  8
LC-003-003-----0
 62
     2
100
AcDbTrace
 10
692.225903
 20
1455.0
 30
0.0
 11
682.89257
 21
1455.0
 31
0.0
 12
687.559237
 22
1483.0
 32
0.0
 13
687.559237
 23
1483.0
 33
0.0
  0
SOLID
  5
517
330
512
100
AcDbEntity
  8
LC-003-003-----0
 62
     2
100
AcDbTrace
 10
682.89257
 20
1420.5
 30
0.0
 11
692.225903
 21
1420.5
 31
0.0
 12
687.559237
 22
1392.5
 32
0.0
 13
687.559237
 23
1392.5
 33
0.0
  0
MTEXT
  5
518
330
512
100
AcDbEntity
  8
LC-003-003-----0
 62
     2
100
AcDbMText
 10
656.759237
 20
1437.669976
 30
0.0
 40
28.0
 41
0.0
 71
     5
 72
     1
  1
\A1;90,5
  7
LCTX15-400-0-0pDIN-Schrift
 11
6.123031769111886E-17
 21
1.0
 31
0.0
 73
     1
 44
1.0
  0
POINT
  5
519
330
512
100
AcDbEntity
  8
Defpoints
 62
     0
100
AcDbPoint
 10
727.0
 20
1483.0
 30
0.0
  0
POINT
  5
51A
330
512
100
AcDbEntity
  8
Defpoints
 62
     0
100
AcDbPoint
 10
727.0
 20
1392.5
 30
0.0
  0
POINT
  5
51B
330
512
100
AcDbEntity
  8
Defpoints
 62
     0
100
AcDbPoint
 10
687.559237
 20
1392.5
 30
0.0
  0
ENDBLK
  5
51D
330
512
100
AcDbEntity
  8
0
100
AcDbBlockEnd
  0
BLOCK
  5
52B
330
51F
100
AcDbEntity
  8
0
100
AcDbBlockBegin
  2
*D74
 70
     1
 71
     0
 10
0.0
 20
0.0
 30
0.0
  3
*D74
  1

  0
LINE
  5
520
330
51F
100
AcDbEntity
  8
LC-003-003-----0
 62
     2
370
    -2
100
AcDbLine
 10
867.414244
 20
1483.0
 30
0.0
 11
867.414244
 21
1494.316197
 31
0.0
  0
LINE
  5
521
330
51F
100
AcDbEntity
  8
LC-003-003-----0
 62
     2
370
    -2
100
AcDbLine
 10
889.374244
 20
1483.0
 30
0.0
 11
889.374244
 21
1494.316197
 31
0.0
  0
LINE
  5
522
330
51F
100
AcDbEntity
  8
LC-003-003-----0
 62
     2
370
    -2
100
AcDbLine
 10
839.414244
 20
1490.716197
 30
0.0
 11
811.414244
 21
1490.716197
 31
0.0
  0
LINE
  5
523
330
51F
100
AcDbEntity
  8
LC-003-003-----0
 62
     2
370
    -2
100
AcDbLine
 10
917.374244
 20
1490.716197
 30
0.0
 11
945.374244
 21
1490.716197
 31
0.0
  0
LINE
  5
524
330
51F
100
AcDbEntity
  8
LC-003-003-----0
 62
     2
370
    -2
100
AcDbLine
 10
867.414244
 20
1490.716197
 30
0.0
 11
889.374244
 21
1490.716197
 31
0.0
  0
SOLID
  5
525
330
51F
100
AcDbEntity
  8
LC-003-003-----0
 62
     2
100
AcDbTrace
 10
839.414244
 20
1486.04953
 30
0.0
 11
839.414244
 21
1495.382864
 31
0.0
 12
867.414244
 22
1490.716197
 32
0.0
 13
867.414244
 23
1490.716197
 33
0.0
  0
SOLID
  5
526
330
51F
100
AcDbEntity
  8
LC-003-003-----0
 62
     2
100
AcDbTrace
 10
917.374244
 20
1495.382864
 30
0.0
 11
917.374244
 21
1486.04953
 31
0.0
 12
889.374244
 22
1490.716197
 32
0.0
 13
889.374244
 23
1490.716197
 33
0.0
  0
MTEXT
  5
527
330
51F
100
AcDbEntity
  8
LC-003-003-----0
 62
     2
100
AcDbMText
 10
880.248612
 20
1521.516197
 30
0.0
 40
28.0
 41
0.0
 71
     5
 72
     1
  1
\A1;22
  7
LCTX15-400-0-0pDIN-Schrift
 73
     1
 44
1.0
  0
POINT
  5
528
330
51F
100
AcDbEntity
  8
Defpoints
 62
     0
100
AcDbPoint
 10
867.414244
 20
1483.0
 30
0.0
  0
POINT
  5
529
330
51F
100
AcDbEntity
  8
Defpoints
 62
     0
100
AcDbPoint
 10
889.374244
 20
1483.0
 30
0.0
  0
POINT
  5
52A
330
51F
100
AcDbEntity
  8
Defpoints
 62
     0
100
AcDbPoint
 10
889.374244
 20
1490.716197
 30
0.0
  0
ENDBLK
  5
52C
330
51F
100
AcDbEntity
  8
0
100
AcDbBlockEnd
  0
BLOCK
  5
539
330
52E
100
AcDbEntity
  8
0
100
AcDbBlockBegin
  2
*D75
 70
     1
 71
     0
 10
0.0
 20
0.0
 30
0.0
  3
*D75
  1

  0
LINE
  5
52F
330
52E
100
AcDbEntity
  8
LC-003-003-----0
 62
     2
370
    -2
100
AcDbLine
 10
854.414244
 20
1462.232051
 30
0.0
 11
854.414244
 21
1544.031976
 31
0.0
  0
LINE
  5
530
330
52E
100
AcDbEntity
  8
LC-003-003-----0
 62
     2
370
    -2
100
AcDbLine
 10
889.374244
 20
1483.0
 30
0.0
 11
889.374244
 21
1544.031976
 31
0.0
  0
LINE
  5
531
330
52E
100
AcDbEntity
  8
LC-003-003-----0
 62
     2
370
    -2
100
AcDbLine
 10
826.414244
 20
1540.431976
 30
0.0
 11
798.414244
 21
1540.431976
 31
0.0
  0
LINE
  5
532
330
52E
100
AcDbEntity
  8
LC-003-003-----0
 62
     2
370
    -2
100
AcDbLine
 10
917.374244
 20
1540.431976
 30
0.0
 11
957.714601
 21
1540.431976
 31
0.0
  0
SOLID
  5
533
330
52E
100
AcDbEntity
  8
LC-003-003-----0
 62
     2
100
AcDbTrace
 10
826.414244
 20
1535.76531
 30
0.0
 11
826.414244
 21
1545.098643
 31
0.0
 12
854.414244
 22
1540.431976
 32
0.0
 13
854.414244
 23
1540.431976
 33
0.0
  0
SOLID
  5
534
330
52E
100
AcDbEntity
  8
LC-003-003-----0
 62
     2
100
AcDbTrace
 10
917.374244
 20
1545.098643
 30
0.0
 11
917.374244
 21
1535.76531
 31
0.0
 12
889.374244
 22
1540.431976
 32
0.0
 13
889.374244
 23
1540.431976
 33
0.0
  0
MTEXT
  5
535
330
52E
100
AcDbEntity
  8
LC-003-003-----0
 62
     2
100
AcDbMText
 10
934.611177
 20
1571.231976
 30
0.0
 40
28.0
 41
0.0
 71
     5
 72
     1
  1
\A1;35
  7
LCTX15-400-0-0pDIN-Schrift
 73
     1
 44
1.0
  0
POINT
  5
536
330
52E
100
AcDbEntity
  8
Defpoints
 62
     0
100
AcDbPoint
 10
854.414244
 20
1462.232051
 30
0.0
  0
POINT
  5
537
330
52E
100
AcDbEntity
  8
Defpoints
 62
     0
100
AcDbPoint
 10
889.374244
 20
1483.0
 30
0.0
  0
POINT
  5
538
330
52E
100
AcDbEntity
  8
Defpoints
 62
     0
100
AcDbPoint
 10
889.374244
 20
1540.431976
 30
0.0
  0
ENDBLK
  5
53A
330
52E
100
AcDbEntity
  8
0
100
AcDbBlockEnd
  0
ENDSEC
  0
SECTION
  2
ENTITIES
  0
LINE
  5
31
102
{ACAD_REACTORS
330
53B
102
}
330
1F
100
AcDbEntity
  8
LC-001-100-D00-0
 62
     7
370
    50
100
AcDbLine
 10
855.914244
 20
1445.5
 30
0.0
 11
856.868289
 21
1445.5
 31
0.0
  0
INSERT
  5
45
330
1F
100
AcDbEntity
  8
LC-001-100-D00-0
 62
     7
370
    50
100
AcDbBlockReference
  2
KLON1
 10
0.0
 20
0.0
 30
0.0
  0
LINE
  5
46
330
1F
100
AcDbEntity
  8
LC-001-100-D00-0
 62
     7
370
    50
100
AcDbLine
 10
854.414244
 20
1407.5
 30
0.0
 11
865.914244
 21
1407.5
 31
0.0
  0
LINE
  5
47
330
1F
100
AcDbEntity
  8
LC-001-100-D00-0
 62
     7
370
    50
100
AcDbLine
 10
889.374244
 20
1406.5
 30
0.0
 11
889.374244
 21
1483.0
 31
0.0
  0
LINE
  5
48
330
1F
100
AcDbEntity
  8
LC-001-100-D00-0
 62
     7
370
    50
100
AcDbLine
 10
854.414244
 20
1455.0
 30
0.0
 11
865.914244
 21
1455.0
 31
0.0
  0
LINE
  5
49
330
1F
100
AcDbEntity
  8
LC-001-100-D00-0
 62
     7
370
    50
100
AcDbLine
 10
861.868289
 20
1417.0
 30
0.0
 11
857.914244
 21
1417.0
 31
0.0
  0
LINE
  5
4A
330
1F
100
AcDbEntity
  8
LC-001-100-D00-0
 62
     7
370
    50
100
AcDbLine
 10
857.914244
 20
1417.0
 30
0.0
 11
857.914244
 21
1418.5
 31
0.0
  0
LINE
  5
4B
330
1F
100
AcDbEntity
  8
LC-001-100-D00-0
 62
     7
370
    50
100
AcDbLine
 10
857.914244
 20
1396.5
 30
0.0
 11
857.914244
 21
1398.0
 31
0.0
  0
LINE
  5
4C
330
1F
100
AcDbEntity
  8
LC-001-100-D00-0
 62
     7
370
    50
100
AcDbLine
 10
795.0
 20
1469.5
 30
0.0
 11
795.0
 21
1406.5
 31
0.0
  0
LINE
  5
4D
330
1F
100
AcDbEntity
  8
LC-001-100-D00-0
 62
     7
370
    50
100
AcDbLine
 10
781.0
 20
1483.5
 30
0.0
 11
727.0
 21
1483.5
 31
0.0
  0
LINE
  5
4E
330
1F
100
AcDbEntity
  8
LC-001-100-D00-0
 62
     7
370
    50
100
AcDbLine
 10
857.414244
 20
1418.5
 30
0.0
 11
857.414244
 21
1415.7
 31
0.0
  0
LINE
  5
4F
330
1F
100
AcDbEntity
  8
LC-001-100-D00-0
 62
     7
370
    50
100
AcDbLine
 10
857.914244
 20
1398.0
 30
0.0
 11
857.914244
 21
1417.0
 31
0.0
  0
LINE
  5
50
330
1F
100
AcDbEntity
  8
LC-001-100-D00-0
 62
     7
370
    50
100
AcDbLine
 10
856.868289
 20
1417.0
 30
0.0
 11
856.868289
 21
1398.0
 31
0.0
  0
LINE
  5
51
330
1F
100
AcDbEntity
  8
LC-001-100-D00-0
 62
     7
370
    50
100
AcDbLine
 10
857.414244
 20
1396.5
 30
0.0
 11
857.414244
 21
1415.7
 31
0.0
  0
LINE
  5
52
330
1F
100
AcDbEntity
  8
LC-001-100-D00-0
 62
     7
370
    50
100
AcDbLine
 10
856.868289
 20
1398.0
 30
0.0
 11
857.414244
 21
1396.5
 31
0.0
  0
LINE
  5
53
330
1F
100
AcDbEntity
  8
LC-001-100-D00-0
 62
     7
370
    50
100
AcDbLine
 10
713.0
 20
1406.5
 30
0.0
 11
713.0
 21
1469.5
 31
0.0
  0
LINE
  5
54
330
1F
100
AcDbEntity
  8
LC-001-100-D00-0
 62
     7
370
    50
100
AcDbLine
 10
720.933717
 20
1473.876845
 30
0.0
 11
734.324844
 21
1460.485718
 31
0.0
  0
LINE
  5
55
330
1F
100
AcDbEntity
  8
LC-001-100-D00-0
 62
     7
370
    50
100
AcDbLine
 10
721.286786
 20
1474.229914
 30
0.0
 11
734.677913
 21
1460.838787
 31
0.0
  0
LINE
  5
56
330
1F
100
AcDbEntity
  8
LC-001-100-D00-0
 62
     7
370
    50
100
AcDbLine
 10
735.129213
 20
1461.290088
 30
0.0
 11
721.738087
 21
1474.681214
 31
0.0
  0
LINE
  5
57
330
1F
100
AcDbEntity
  8
LC-001-100-D00-0
 62
     7
370
    50
100
AcDbLine
 10
735.482282
 20
1461.643157
 30
0.0
 11
722.091156
 21
1475.034283
 31
0.0
  0
LINE
  5
58
330
1F
100
AcDbEntity
  8
LC-001-100-D00-0
 62
     7
370
    50
100
AcDbLine
 10
857.414244
 20
1418.5
 30
0.0
 11
857.914244
 21
1418.5
 31
0.0
  0
LINE
  5
59
330
1F
100
AcDbEntity
  8
LC-001-100-D00-0
 62
     7
370
    50
100
AcDbLine
 10
855.914244
 20
1417.0
 30
0.0
 11
856.868289
 21
1417.0
 31
0.0
  0
LINE
  5
5A
330
1F
100
AcDbEntity
  8
LC-001-100-D00-0
 62
     7
370
    50
100
AcDbLine
 10
857.414244
 20
1396.5
 30
0.0
 11
857.914244
 21
1396.5
 31
0.0
  0
LINE
  5
5B
330
1F
100
AcDbEntity
  8
LC-001-100-D00-0
 62
     7
370
    50
100
AcDbLine
 10
855.914244
 20
1398.0
 30
0.0
 11
856.868289
 21
1398.0
 31
0.0
  0
LINE
  5
5C
330
1F
100
AcDbEntity
  8
LC-001-100-D00-0
 62
     7
370
    50
100
AcDbLine
 10
861.868289
 20
1398.0
 30
0.0
 11
857.914244
 21
1398.0
 31
0.0
  0
LINE
  5
5D
330
1F
100
AcDbEntity
  8
LC-001-100-D00-0
 62
     7
370
    50
100
AcDbLine
 10
855.414244
 20
1416.5
 30
0.0
 11
855.414244
 21
1415.0
 31
0.0
  0
LINE
  5
5E
330
1F
100
AcDbEntity
  8
LC-001-100-D00-0
 62
     7
370
    50
100
AcDbLine
 10
855.414244
 20
1400.0
 30
0.0
 11
855.414244
 21
1398.5
 31
0.0
  0
LINE
  5
5F
330
1F
100
AcDbEntity
  8
LC-001-100-D00-0
 62
     7
370
    50
100
AcDbLine
 10
855.414244
 20
1416.5
 30
0.0
 11
855.914244
 21
1417.0
 31
0.0
  0
LINE
  5
60
330
1F
100
AcDbEntity
  8
LC-001-100-D00-0
 62
     7
370
    50
100
AcDbLine
 10
855.414244
 20
1398.5
 30
0.0
 11
855.914244
 21
1398.0
 31
0.0
  0
LINE
  5
61
330
1F
100
AcDbEntity
  8
LC-001-100-D00-0
 62
     7
370
    50
100
AcDbLine
 10
855.414244
 20
1400.0
 30
0.0
 11
855.414244
 21
1415.0
 31
0.0
  0
LINE
  5
62
330
1F
100
AcDbEntity
  8
LC-001-100-D00-0
 62
     7
370
    50
100
AcDbLine
 10
855.914244
 20
1417.0
 30
0.0
 11
855.914244
 21
1398.0
 31
0.0
  0
LINE
  5
63
330
1F
100
AcDbEntity
  8
LC-001-100-D00-0
 62
     7
370
    50
100
AcDbLine
 10
866.414244
 20
1396.0
 30
0.0
 11
866.414244
 21
1397.5
 31
0.0
  0
LINE
  5
64
330
1F
100
AcDbEntity
  8
LC-001-100-D00-0
 62
     7
370
    50
100
AcDbLine
 10
866.414244
 20
1417.5
 30
0.0
 11
866.414244
 21
1419.0
 31
0.0
  0
LINE
  5
65
330
1F
100
AcDbEntity
  8
LC-001-100-D00-0
 62
     7
370
    50
100
AcDbLine
 10
862.914244
 20
1417.0
 30
0.0
 11
862.914244
 21
1418.5
 31
0.0
  0
LINE
  5
66
330
1F
100
AcDbEntity
  8
LC-001-100-D00-0
 62
     7
370
    50
100
AcDbLine
 10
866.914244
 20
1415.0
 30
0.0
 11
866.914244
 21
1419.5
 31
0.0
  0
LINE
  5
67
330
1F
100
AcDbEntity
  8
LC-001-100-D00-0
 62
     7
370
    50
100
AcDbLine
 10
866.914244
 20
1395.5
 30
0.0
 11
866.914244
 21
1400.0
 31
0.0
  0
LINE
  5
68
330
1F
100
AcDbEntity
  8
LC-001-100-D00-0
 62
     7
370
    50
100
AcDbLine
 10
866.914244
 20
1410.7
 30
0.0
 11
866.914244
 21
1415.0
 31
0.0
  0
LINE
  5
69
330
1F
100
AcDbEntity
  8
LC-001-100-D00-0
 62
     7
370
    50
100
AcDbLine
 10
866.414244
 20
1397.5
 30
0.0
 11
866.414244
 21
1417.5
 31
0.0
  0
LINE
  5
6A
330
1F
100
AcDbEntity
  8
LC-001-100-D00-0
 62
     7
370
    50
100
AcDbLine
 10
862.914244
 20
1396.5
 30
0.0
 11
862.914244
 21
1398.0
 31
0.0
  0
LINE
  5
6B
330
1F
100
AcDbEntity
  8
LC-001-100-D00-0
 62
     7
370
    50
100
AcDbLine
 10
866.914244
 20
1400.0
 30
0.0
 11
866.914244
 21
1410.7
 31
0.0
  0
LINE
  5
6C
330
1F
100
AcDbEntity
  8
LC-001-100-D00-0
 62
     7
370
    50
100
AcDbLine
 10
862.414244
 20
1396.5
 30
0.0
 11
862.414244
 21
1418.5
 31
0.0
  0
LINE
  5
6D
330
1F
100
AcDbEntity
  8
LC-001-100-D00-0
 62
     7
370
    50
100
AcDbLine
 10
867.414244
 20
1410.2
 30
0.0
 11
867.412833
 21
1410.274339
 31
0.0
  0
LINE
  5
6E
330
1F
100
AcDbEntity
  8
LC-001-100-D00-0
 62
     7
370
    50
100
AcDbLine
 10
867.414244
 20
1406.5
 30
0.0
 11
867.414244
 21
1410.2
 31
0.0
  0
LINE
  5
6F
330
1F
100
AcDbEntity
  8
LC-001-100-D00-0
 62
     7
370
    50
100
AcDbLine
 10
867.412833
 20
1410.274339
 30
0.0
 11
867.414244
 21
1415.0
 31
0.0
  0
LINE
  5
70
330
1F
100
AcDbEntity
  8
LC-001-100-D00-0
 62
     7
370
    50
100
AcDbLine
 10
867.414244
 20
1400.0
 30
0.0
 11
867.414244
 21
1406.5
 31
0.0
  0
LINE
  5
71
330
1F
100
AcDbEntity
  8
LC-001-100-D00-0
 62
     7
370
    50
100
AcDbLine
 10
866.914244
 20
1395.5
 30
0.0
 11
867.414244
 21
1395.5
 31
0.0
  0
LINE
  5
72
330
1F
100
AcDbEntity
  8
LC-001-100-D00-0
 62
     7
370
    50
100
AcDbLine
 10
862.414244
 20
1396.5
 30
0.0
 11
862.914244
 21
1396.5
 31
0.0
  0
LINE
  5
73
330
1F
100
AcDbEntity
  8
LC-001-100-D00-0
 62
     7
370
    50
100
AcDbLine
 10
866.414244
 20
1396.0
 30
0.0
 11
866.914244
 21
1395.5
 31
0.0
  0
LINE
  5
74
330
1F
100
AcDbEntity
  8
LC-001-100-D00-0
 62
     7
370
    50
100
AcDbLine
 10
862.914244
 20
1398.0
 30
0.0
 11
862.914244
 21
1417.0
 31
0.0
  0
LINE
  5
75
330
1F
100
AcDbEntity
  8
LC-001-100-D00-0
 62
     7
370
    50
100
AcDbLine
 10
861.868289
 20
1417.0
 30
0.0
 11
861.868289
 21
1398.0
 31
0.0
  0
LINE
  5
76
330
1F
100
AcDbEntity
  8
LC-001-100-D00-0
 62
     7
370
    50
100
AcDbLine
 10
865.914244
 20
1398.0
 30
0.0
 11
862.914244
 21
1398.0
 31
0.0
  0
LINE
  5
77
330
1F
100
AcDbEntity
  8
LC-001-100-D00-0
 62
     7
370
    50
100
AcDbLine
 10
865.914244
 20
1398.0
 30
0.0
 11
865.914244
 21
1417.0
 31
0.0
  0
LINE
  5
78
330
1F
100
AcDbEntity
  8
LC-001-100-D00-0
 62
     7
370
    50
100
AcDbLine
 10
866.914244
 20
1419.5
 30
0.0
 11
867.414244
 21
1419.5
 31
0.0
  0
LINE
  5
79
330
1F
100
AcDbEntity
  8
LC-001-100-D00-0
 62
     7
370
    50
100
AcDbLine
 10
865.914244
 20
1417.0
 30
0.0
 11
862.914244
 21
1417.0
 31
0.0
  0
LINE
  5
7A
330
1F
100
AcDbEntity
  8
LC-001-100-D00-0
 62
     7
370
    50
100
AcDbLine
 10
862.414244
 20
1418.5
 30
0.0
 11
862.914244
 21
1418.5
 31
0.0
  0
LINE
  5
7B
330
1F
100
AcDbEntity
  8
LC-001-100-D00-0
 62
     7
370
    50
100
AcDbLine
 10
866.414244
 20
1419.0
 30
0.0
 11
866.914244
 21
1419.5
 31
0.0
  0
LINE
  5
7C
330
1F
100
AcDbEntity
  8
LC-001-100-D00-0
 62
     7
370
    50
100
AcDbLine
 10
861.868289
 20
1398.0
 30
0.0
 11
862.414244
 21
1396.5
 31
0.0
  0
LINE
  5
7D
330
1F
100
AcDbEntity
  8
LC-001-100-D00-0
 62
     7
370
    50
100
AcDbLine
 10
856.868289
 20
1417.0
 30
0.0
 11
857.414244
 21
1418.5
 31
0.0
  0
LINE
  5
7E
330
1F
100
AcDbEntity
  8
LC-001-100-D00-0
 62
     7
370
    50
100
AcDbLine
 10
861.868289
 20
1417.0
 30
0.0
 11
862.414244
 21
1418.5
 31
0.0
  0
ARC
  5
7F
330
1F
100
AcDbEntity
  8
LC-001-100-D00-0
 62
     7
370
    50
100
AcDbCircle
 10
865.914244
 20
1397.5
 30
0.0
 40
0.5
100
AcDbArc
 50
0.0
 51
90.0
  0
ARC
  5
80
330
1F
100
AcDbEntity
  8
LC-001-100-D00-0
 62
     7
370
    50
100
AcDbCircle
 10
865.914244
 20
1417.5
 30
0.0
 40
0.5
100
AcDbArc
 50
270.0
 51
0.0
  0
LINE
  5
81
102
{ACAD_REACTORS
330
53B
102
}
330
1F
100
AcDbEntity
  8
LC-001-100-D00-0
 62
     7
370
    50
100
AcDbLine
 10
855.414244
 20
1446.0
 30
0.0
 11
855.914244
 21
1445.5
 31
0.0
  0
LINE
  5
82
102
{ACAD_REACTORS
330
53B
102
}
330
1F
100
AcDbEntity
  8
LC-001-100-D00-0
 62
     7
370
    50
100
AcDbLine
 10
855.914244
 20
1464.5
 30
0.0
 11
855.914244
 21
1456.652381
 31
0.0
  0
LINE
  5
83
102
{ACAD_REACTORS
330
53B
102
}
330
1F
100
AcDbEntity
  8
LC-001-100-D00-0
 62
     7
370
    50
100
AcDbLine
 10
855.914244
 20
1453.347619
 30
0.0
 11
855.914244
 21
1445.5
 31
0.0
  0
LINE
  5
84
102
{ACAD_REACTORS
330
53B
102
}
330
1F
100
AcDbEntity
  8
LC-001-100-D00-0
 62
     7
370
    50
100
AcDbLine
 10
855.414244
 20
1464.0
 30
0.0
 11
855.414244
 21
1462.5
 31
0.0
  0
LINE
  5
85
102
{ACAD_REACTORS
330
53B
102
}
330
1F
100
AcDbEntity
  8
LC-001-100-D00-0
 62
     7
370
    50
100
AcDbLine
 10
855.414244
 20
1447.5
 30
0.0
 11
855.414244
 21
1446.0
 31
0.0
  0
LINE
  5
86
102
{ACAD_REACTORS
330
53B
102
}
330
1F
100
AcDbEntity
  8
LC-001-100-D00-0
 62
     7
370
    50
100
AcDbLine
 10
855.414244
 20
1456.634921
 30
0.0
 11
855.414244
 21
1462.5
 31
0.0
  0
LINE
  5
87
102
{ACAD_REACTORS
330
53B
102
}
330
1F
100
AcDbEntity
  8
LC-001-100-D00-0
 62
     7
370
    50
100
AcDbLine
 10
855.414244
 20
1447.5
 30
0.0
 11
855.414244
 21
1453.36508
 31
0.0
  0
LINE
  5
88
102
{ACAD_REACTORS
330
53B
102
}
330
1F
100
AcDbEntity
  8
LC-001-100-D00-0
 62
     7
370
    50
100
AcDbLine
 10
855.914244
 20
1464.5
 30
0.0
 11
856.868289
 21
1464.5
 31
0.0
  0
LINE
  5
89
102
{ACAD_REACTORS
330
53B
102
}
330
1F
100
AcDbEntity
  8
LC-001-100-D00-0
 62
     7
370
    50
100
AcDbLine
 10
855.414244
 20
1464.0
 30
0.0
 11
855.914244
 21
1464.5
 31
0.0
  0
LINE
  5
8A
330
1F
100
AcDbEntity
  8
LC-001-100-D00-0
 62
     7
370
    50
100
AcDbLine
 10
720.643507
 20
1474.019293
 30
0.0
 11
720.549297
 21
1474.016939
 31
0.0
  0
LINE
  5
8B
330
1F
100
AcDbEntity
  8
LC-001-100-D00-0
 62
     7
370
    50
100
AcDbLine
 10
735.772492
 20
1461.500709
 30
0.0
 11
735.866702
 21
1461.503063
 31
0.0
  0
LINE
  5
8C
102
{ACAD_REACTORS
330
53B
102
}
330
1F
100
AcDbEntity
  8
LC-001-100-D00-0
 62
     7
370
    50
100
AcDbLine
 10
865.914244
 20
1464.5
 30
0.0
 11
862.914244
 21
1464.5
 31
0.0
  0
LINE
  5
8D
102
{ACAD_REACTORS
330
53B
102
}
330
1F
100
AcDbEntity
  8
LC-001-100-D00-0
 62
     7
370
    50
100
AcDbLine
 10
862.914244
 20
1464.5
 30
0.0
 11
862.914244
 21
1466.0
 31
0.0
  0
LINE
  5
8E
330
1F
100
AcDbEntity
  8
LC-001-100-D00-0
 62
     7
370
    50
100
AcDbLine
 10
787.066282
 20
1402.123156
 30
0.0
 11
773.675156
 21
1415.514282
 31
0.0
  0
LINE
  5
8F
330
1F
100
AcDbEntity
  8
LC-001-100-D00-0
 62
     7
370
    50
100
AcDbLine
 10
786.713213
 20
1401.770087
 30
0.0
 11
773.322087
 21
1415.161213
 31
0.0
  0
LINE
  5
90
330
1F
100
AcDbEntity
  8
LC-001-100-D00-0
 62
     7
370
    50
100
AcDbLine
 10
786.261913
 20
1401.318786
 30
0.0
 11
772.870786
 21
1414.709913
 31
0.0
  0
LINE
  5
91
330
1F
100
AcDbEntity
  8
LC-001-100-D00-0
 62
     7
370
    50
100
AcDbLine
 10
785.908844
 20
1400.965717
 30
0.0
 11
772.517718
 21
1414.356844
 31
0.0
  0
LINE
  5
92
330
1F
100
AcDbEntity
  8
LC-001-100-D00-0
 62
     7
370
    50
100
AcDbLine
 10
787.356493
 20
1401.980708
 30
0.0
 11
787.450702
 21
1401.983062
 31
0.0
  0
LINE
  5
93
102
{ACAD_REACTORS
330
53B
102
}
330
1F
100
AcDbEntity
  8
LC-001-100-D00-0
 62
     7
370
    50
100
AcDbLine
 10
865.914244
 20
1457.001589
 30
0.0
 11
865.914244
 21
1464.5
 31
0.0
  0
LINE
  5
94
330
1F
100
AcDbEntity
  8
LC-001-100-D00-0
 62
     7
370
    50
100
AcDbLine
 10
727.0
 20
1392.5
 30
0.0
 11
781.0
 21
1392.5
 31
0.0
  0
LINE
  5
95
102
{ACAD_REACTORS
330
53B
102
}
330
1F
100
AcDbEntity
  8
LC-001-100-D00-0
 62
     7
370
    50
100
AcDbLine
 10
866.914244
 20
1457.03651
 30
0.0
 11
866.914244
 21
1462.5
 31
0.0
  0
LINE
  5
96
102
{ACAD_REACTORS
330
53B
102
}
330
1F
100
AcDbEntity
  8
LC-001-100-D00-0
 62
     7
370
    50
100
AcDbLine
 10
867.414244
 20
1457.536815
 30
0.0
 11
867.414244
 21
1462.5
 31
0.0
  0
LINE
  5
97
330
1F
100
AcDbEntity
  8
LC-001-100-D00-0
 62
     7
370
    50
100
AcDbLine
 10
772.227507
 20
1414.499292
 30
0.0
 11
772.133298
 21
1414.496938
 31
0.0
  0
LINE
  5
98
102
{ACAD_REACTORS
330
53B
102
}
330
1F
100
AcDbEntity
  8
LC-001-100-D00-0
 62
     7
370
    50
100
AcDbLine
 10
867.414244
 20
1456.291349
 30
0.0
 11
867.414244
 21
1457.536815
 31
0.0
  0
LINE
  5
99
102
{ACAD_REACTORS
330
53B
102
}
330
1F
100
AcDbEntity
  8
LC-001-100-D00-0
 62
     7
370
    50
100
AcDbLine
 10
856.868289
 20
1464.5
 30
0.0
 11
856.868289
 21
1456.685697
 31
0.0
  0
LINE
  5
9A
102
{ACAD_REACTORS
330
53B
102
}
330
1F
100
AcDbEntity
  8
LC-001-100-D00-0
 62
     7
370
    50
100
AcDbLine
 10
861.868289
 20
1464.5
 30
0.0
 11
857.914244
 21
1464.5
 31
0.0
  0
LINE
  5
9B
102
{ACAD_REACTORS
330
53B
102
}
330
1F
100
AcDbEntity
  8
LC-001-100-D00-0
 62
     7
370
    50
100
AcDbLine
 10
857.914244
 20
1464.5
 30
0.0
 11
857.914244
 21
1466.0
 31
0.0
  0
LINE
  5
9C
102
{ACAD_REACTORS
330
53B
102
}
330
1F
100
AcDbEntity
  8
LC-001-100-D00-0
 62
     7
370
    50
100
AcDbLine
 10
861.868289
 20
1464.5
 30
0.0
 11
861.868289
 21
1456.860301
 31
0.0
  0
LINE
  5
9F
330
1F
100
AcDbEntity
  8
LC-002-101-D00-0
 62
     7
370
    25
100
AcDbLine
 10
754.0
 20
1392.5
 30
0.0
 11
754.0
 21
1483.5
 31
0.0
  0
LINE
  5
A0
330
1F
100
AcDbEntity
  8
LC-002-101-D00-0
 62
     7
370
    25
100
AcDbLine
 10
713.0
 20
1438.0
 30
0.0
 11
795.0
 21
1438.0
 31
0.0
  0
ARC
  5
A1
330
1F
100
AcDbEntity
  8
LC-001-100-D00-0
 62
     7
370
    50
100
AcDbCircle
 10
727.0
 20
1469.5
 30
0.0
 40
14.0
100
AcDbArc
 50
90.0
 51
180.0
  0
LINE
  5
A2
102
{ACAD_REACTORS
330
53B
102
}
330
1F
100
AcDbEntity
  8
LC-001-100-D00-0
 62
     7
370
    50
100
AcDbLine
 10
862.914244
 20
1456.896827
 30
0.0
 11
862.914244
 21
1464.5
 31
0.0
  0
LINE
  5
A3
102
{ACAD_REACTORS
330
53B
102
}
330
1F
100
AcDbEntity
  8
LC-001-100-D00-0
 62
     7
370
    50
100
AcDbLine
 10
857.414244
 20
1466.0
 30
0.0
 11
857.414244
 21
1462.5
 31
0.0
  0
LINE
  5
A4
102
{ACAD_REACTORS
330
53B
102
}
330
1F
100
AcDbEntity
  8
LC-001-100-D00-0
 62
     7
370
    50
100
AcDbLine
 10
857.414244
 20
1456.704763
 30
0.0
 11
857.414244
 21
1462.5
 31
0.0
  0
LINE
  5
A5
102
{ACAD_REACTORS
330
53B
102
}
330
1F
100
AcDbEntity
  8
LC-001-100-D00-0
 62
     7
370
    50
100
AcDbLine
 10
862.414244
 20
1456.879366
 30
0.0
 11
862.414244
 21
1466.0
 31
0.0
  0
LINE
  5
A6
102
{ACAD_REACTORS
330
53B
102
}
330
1F
100
AcDbEntity
  8
LC-001-100-D00-0
 62
     7
370
    50
100
AcDbLine
 10
857.914244
 20
1456.722223
 30
0.0
 11
857.914244
 21
1464.5
 31
0.0
  0
LINE
  5
A7
102
{ACAD_REACTORS
330
53B
102
}
330
1F
100
AcDbEntity
  8
LC-001-100-D00-0
 62
     7
370
    50
100
AcDbLine
 10
866.914244
 20
1462.5
 30
0.0
 11
866.914244
 21
1467.0
 31
0.0
  0
LINE
  5
A8
102
{ACAD_REACTORS
330
53B
102
}
330
1F
100
AcDbEntity
  8
LC-001-100-D00-0
 62
     7
370
    50
100
AcDbLine
 10
866.414244
 20
1465.0
 30
0.0
 11
866.414244
 21
1466.5
 31
0.0
  0
LINE
  5
A9
102
{ACAD_REACTORS
330
53B
102
}
330
1F
100
AcDbEntity
  8
LC-001-100-D00-0
 62
     7
370
    50
100
AcDbLine
 10
866.414244
 20
1457.01905
 30
0.0
 11
866.414244
 21
1465.0
 31
0.0
  0
ARC
  5
AA
330
1F
100
AcDbEntity
  8
LC-001-100-D00-0
 62
     7
370
    50
100
AcDbCircle
 10
722.445525
 20
1475.381163
 30
0.0
 40
0.4958857954399262
100
AcDbArc
 50
175.658317
 51
224.388076
  0
ARC
  5
AB
330
1F
100
AcDbEntity
  8
LC-001-100-D00-0
 62
     7
370
    50
100
AcDbCircle
 10
722.447137
 20
1475.386151
 30
0.0
 40
0.4971421427815448
100
AcDbArc
 50
127.26169
 51
176.245674
  0
ARC
  5
AC
330
1F
100
AcDbEntity
  8
LC-001-100-D00-0
 62
     7
370
    50
100
AcDbCircle
 10
720.58634
 20
1473.512504
 30
0.0
 40
0.5057924451234033
100
AcDbArc
 50
94.199942
 51
142.292694
  0
ARC
  5
AD
330
1F
100
AcDbEntity
  8
LC-001-100-D00-0
 62
     7
370
    50
100
AcDbCircle
 10
720.583586
 20
1473.513552
 30
0.0
 40
0.5045533009861508
100
AcDbArc
 50
46.056899
 51
93.896708
  0
ARC
  5
AE
330
1F
100
AcDbEntity
  8
LC-001-100-D00-0
 62
     7
370
    50
100
AcDbCircle
 10
728.208
 20
1467.760001
 30
0.0
 40
10.11949405849977
100
AcDbArc
 50
130.502081
 51
139.497919
  0
ARC
  5
AF
330
1F
100
AcDbEntity
  8
LC-001-100-D00-0
 62
     7
370
    50
100
AcDbCircle
 10
735.829659
 20
1462.007497
 30
0.0
 40
0.5057924451215142
100
AcDbArc
 50
274.199942
 51
322.292694
  0
ARC
  5
B0
330
1F
100
AcDbEntity
  8
LC-001-100-D00-0
 62
     7
370
    50
100
AcDbCircle
 10
733.960503
 20
1460.138341
 30
0.0
 40
0.5057924451238235
100
AcDbArc
 50
307.707306
 51
355.800058
  0
ARC
  5
B1
330
1F
100
AcDbEntity
  8
LC-001-100-D00-0
 62
     7
370
    50
100
AcDbCircle
 10
733.96155
 20
1460.135587
 30
0.0
 40
0.5045533009867622
100
AcDbArc
 50
356.103292
 51
43.943101
  0
ARC
  5
B2
330
1F
100
AcDbEntity
  8
LC-001-100-D00-0
 62
     7
370
    50
100
AcDbCircle
 10
735.832414
 20
1462.00645
 30
0.0
 40
0.5045533009851804
100
AcDbArc
 50
226.056899
 51
273.896708
  0
ARC
  5
B3
330
1F
100
AcDbEntity
  8
LC-001-100-D00-0
 62
     7
370
    50
100
AcDbCircle
 10
728.208
 20
1467.760001
 30
0.0
 40
10.11949405849891
100
AcDbArc
 50
310.502081
 51
319.497919
  0
ARC
  5
B4
330
1F
100
AcDbEntity
  8
LC-001-100-D00-0
 62
     7
370
    50
100
AcDbCircle
 10
781.0
 20
1406.5
 30
0.0
 40
14.0
100
AcDbArc
 50
270.0
 51
0.0
  0
LINE
  5
B5
102
{ACAD_REACTORS
330
53B
102
}
330
1F
100
AcDbEntity
  8
LC-001-100-D00-0
 62
     7
370
    50
100
AcDbLine
 10
857.414244
 20
1466.0
 30
0.0
 11
857.914244
 21
1466.0
 31
0.0
  0
ARC
  5
B6
330
1F
100
AcDbEntity
  8
LC-001-100-D00-0
 62
     7
370
    50
100
AcDbCircle
 10
785.554475
 20
1400.618838
 30
0.0
 40
0.4958857954350932
100
AcDbArc
 50
355.658317
 51
44.388076
  0
ARC
  5
B7
330
1F
100
AcDbEntity
  8
LC-001-100-D00-0
 62
     7
370
    50
100
AcDbCircle
 10
785.552862
 20
1400.61385
 30
0.0
 40
0.4971421427801759
100
AcDbArc
 50
307.26169
 51
356.245674
  0
ARC
  5
B8
330
1F
100
AcDbEntity
  8
LC-001-100-D00-0
 62
     7
370
    50
100
AcDbCircle
 10
787.413162
 20
1402.477525
 30
0.0
 40
0.495885795444771
100
AcDbArc
 50
225.611924
 51
274.341683
  0
ARC
  5
B9
330
1F
100
AcDbEntity
  8
LC-001-100-D00-0
 62
     7
370
    50
100
AcDbCircle
 10
787.41815
 20
1402.479137
 30
0.0
 40
0.4971421427836311
100
AcDbArc
 50
273.754326
 51
322.73831
  0
ARC
  5
BA
330
1F
100
AcDbEntity
  8
LC-001-100-D00-0
 62
     7
370
    50
100
AcDbCircle
 10
779.792
 20
1408.24
 30
0.0
 40
10.11949405849891
100
AcDbArc
 50
310.502081
 51
319.497919
  0
ARC
  5
BB
330
1F
100
AcDbEntity
  8
LC-001-100-D00-0
 62
     7
370
    50
100
AcDbCircle
 10
727.0
 20
1406.5
 30
0.0
 40
14.0
100
AcDbArc
 50
180.0
 51
270.0
  0
LINE
  5
BC
102
{ACAD_REACTORS
330
53B
102
}
330
1F
100
AcDbEntity
  8
LC-001-100-D00-0
 62
     7
370
    50
100
AcDbLine
 10
866.914244
 20
1467.0
 30
0.0
 11
867.414244
 21
1467.0
 31
0.0
  0
ARC
  5
BD
330
1F
100
AcDbEntity
  8
LC-001-100-D00-0
 62
     7
370
    50
100
AcDbCircle
 10
772.17034
 20
1413.992503
 30
0.0
 40
0.505792445127685
100
AcDbArc
 50
94.199942
 51
142.292694
  0
ARC
  5
BE
330
1F
100
AcDbEntity
  8
LC-001-100-D00-0
 62
     7
370
    50
100
AcDbCircle
 10
774.029525
 20
1415.861162
 30
0.0
 40
0.495885795445412
100
AcDbArc
 50
175.658317
 51
224.388076
  0
ARC
  5
BF
330
1F
100
AcDbEntity
  8
LC-001-100-D00-0
 62
     7
370
    50
100
AcDbCircle
 10
772.167586
 20
1413.993551
 30
0.0
 40
0.5045533009883402
100
AcDbArc
 50
46.056899
 51
93.896708
  0
ARC
  5
C0
330
1F
100
AcDbEntity
  8
LC-001-100-D00-0
 62
     7
370
    50
100
AcDbCircle
 10
779.792
 20
1408.24
 30
0.0
 40
10.11949405849977
100
AcDbArc
 50
130.502081
 51
139.497919
  0
ARC
  5
C1
330
1F
100
AcDbEntity
  8
LC-001-100-D00-0
 62
     7
370
    50
100
AcDbCircle
 10
774.031137
 20
1415.86615
 30
0.0
 40
0.4971421427834821
100
AcDbArc
 50
127.26169
 51
176.245674
  0
LINE
  5
C2
102
{ACAD_REACTORS
330
53B
102
}
330
1F
100
AcDbEntity
  8
LC-001-100-D00-0
 62
     7
370
    50
100
AcDbLine
 10
862.414244
 20
1466.0
 30
0.0
 11
862.914244
 21
1466.0
 31
0.0
  0
ARC
  5
C3
330
1F
100
AcDbEntity
  8
LC-001-100-D00-0
 62
     7
370
    50
100
AcDbCircle
 10
781.0
 20
1469.5
 30
0.0
 40
14.0
100
AcDbArc
 50
0.0
 51
90.0
  0
LINE
  5
C4
102
{ACAD_REACTORS
330
53B
102
}
330
1F
100
AcDbEntity
  8
LC-001-100-D00-0
 62
     7
370
    50
100
AcDbLine
 10
866.414244
 20
1466.5
 30
0.0
 11
866.914244
 21
1467.0
 31
0.0
  0
LINE
  5
C5
102
{ACAD_REACTORS
330
53B
102
}
330
1F
100
AcDbEntity
  8
LC-001-100-D00-0
 62
     7
370
    50
100
AcDbLine
 10
861.868289
 20
1445.5
 30
0.0
 11
857.914244
 21
1445.5
 31
0.0
  0
CIRCLE
  5
C6
330
1F
100
AcDbEntity
  8
LC-001-100-D00-0
 62
     7
370
    50
100
AcDbCircle
 10
728.208
 20
1467.760001
 30
0.0
 40
10.15682575372716
  0
CIRCLE
  5
C7
330
1F
100
AcDbEntity
  8
LC-001-100-D00-0
 62
     7
370
    50
100
AcDbCircle
 10
728.208
 20
1467.760001
 30
0.0
 40
10.65627627269487
  0
CIRCLE
  5
C8
330
1F
100
AcDbEntity
  8
LC-001-100-D00-0
 62
     7
370
    50
100
AcDbCircle
 10
779.792
 20
1408.24
 30
0.0
 40
10.15682575372728
  0
CIRCLE
  5
C9
330
1F
100
AcDbEntity
  8
LC-001-100-D00-0
 62
     7
370
    50
100
AcDbCircle
 10
779.792
 20
1408.24
 30
0.0
 40
10.65627627269498
  0
INSERT
  5
D9
330
1F
100
AcDbEntity
  8
LC-001-100-D00-0
 62
     7
370
    50
100
AcDbBlockReference
  2
POLY1
 10
0.0
 20
0.0
 30
0.0
  0
INSERT
  5
E9
330
1F
100
AcDbEntity
  8
LC-001-100-D00-0
 62
     7
370
    50
100
AcDbBlockReference
  2
POLY2
 10
0.0
 20
0.0
 30
0.0
  0
INSERT
  5
F9
330
1F
100
AcDbEntity
  8
LC-001-100-D00-0
 62
     7
370
    50
100
AcDbBlockReference
  2
POLY3
 10
0.0
 20
0.0
 30
0.0
  0
INSERT
  5
109
330
1F
100
AcDbEntity
  8
LC-001-100-D00-0
 62
     7
370
    50
100
AcDbBlockReference
  2
POLY4
 10
0.0
 20
0.0
 30
0.0
  0
LINE
  5
10A
102
{ACAD_REACTORS
330
53B
102
}
330
1F
100
AcDbEntity
  8
LC-001-100-D00-0
 62
     7
370
    50
100
AcDbLine
 10
857.414244
 20
1447.5
 30
0.0
 11
857.414244
 21
1453.295238
 31
0.0
  0
INSERT
  5
116
330
1F
100
AcDbEntity
  8
LC-001-100-D00-0
 62
     7
370
    50
100
AcDbBlockReference
  2
POLY5
 10
0.0
 20
0.0
 30
0.0
  0
INSERT
  5
122
330
1F
100
AcDbEntity
  8
LC-001-100-D00-0
 62
     7
370
    50
100
AcDbBlockReference
  2
POLY6
 10
0.0
 20
0.0
 30
0.0
  0
INSERT
  5
12E
330
1F
100
AcDbEntity
  8
LC-001-100-D00-0
 62
     7
370
    50
100
AcDbBlockReference
  2
POLY7
 10
0.0
 20
0.0
 30
0.0
  0
INSERT
  5
13A
330
1F
100
AcDbEntity
  8
LC-001-100-D00-0
 62
     7
370
    50
100
AcDbBlockReference
  2
POLY8
 10
0.0
 20
0.0
 30
0.0
  0
INSERT
  5
146
330
1F
100
AcDbEntity
  8
LC-001-100-D00-0
 62
     7
370
    50
100
AcDbBlockReference
  2
POLY9
 10
0.0
 20
0.0
 30
0.0
  0
INSERT
  5
152
330
1F
100
AcDbEntity
  8
LC-001-100-D00-0
 62
     7
370
    50
100
AcDbBlockReference
  2
POLY10
 10
0.0
 20
0.0
 30
0.0
  0
INSERT
  5
15E
330
1F
100
AcDbEntity
  8
LC-001-100-D00-0
 62
     7
370
    50
100
AcDbBlockReference
  2
POLY11
 10
0.0
 20
0.0
 30
0.0
  0
INSERT
  5
16A
330
1F
100
AcDbEntity
  8
LC-001-100-D00-0
 62
     7
370
    50
100
AcDbBlockReference
  2
POLY12
 10
0.0
 20
0.0
 30
0.0
  0
INSERT
  5
176
330
1F
100
AcDbEntity
  8
LC-001-100-D00-0
 62
     7
370
    50
100
AcDbBlockReference
  2
POLY13
 10
0.0
 20
0.0
 30
0.0
  0
INSERT
  5
182
330
1F
100
AcDbEntity
  8
LC-001-100-D00-0
 62
     7
370
    50
100
AcDbBlockReference
  2
POLY14
 10
0.0
 20
0.0
 30
0.0
  0
INSERT
  5
18E
330
1F
100
AcDbEntity
  8
LC-001-100-D00-0
 62
     7
370
    50
100
AcDbBlockReference
  2
POLY15
 10
0.0
 20
0.0
 30
0.0
  0
INSERT
  5
19A
330
1F
100
AcDbEntity
  8
LC-001-100-D00-0
 62
     7
370
    50
100
AcDbBlockReference
  2
POLY16
 10
0.0
 20
0.0
 30
0.0
  0
INSERT
  5
1A6
330
1F
100
AcDbEntity
  8
LC-001-100-D00-0
 62
     7
370
    50
100
AcDbBlockReference
  2
POLY17
 10
0.0
 20
0.0
 30
0.0
  0
INSERT
  5
1B0
330
1F
100
AcDbEntity
  8
LC-001-100-D00-0
 62
     7
370
    50
100
AcDbBlockReference
  2
POLY18
 10
0.0
 20
0.0
 30
0.0
  0
INSERT
  5
1BC
330
1F
100
AcDbEntity
  8
LC-001-100-D00-0
 62
     7
370
    50
100
AcDbBlockReference
  2
POLY19
 10
0.0
 20
0.0
 30
0.0
  0
INSERT
  5
1C8
330
1F
100
AcDbEntity
  8
LC-001-100-D00-0
 62
     7
370
    50
100
AcDbBlockReference
  2
POLY20
 10
0.0
 20
0.0
 30
0.0
  0
INSERT
  5
1D4
330
1F
100
AcDbEntity
  8
LC-001-100-D00-0
 62
     7
370
    50
100
AcDbBlockReference
  2
POLY21
 10
0.0
 20
0.0
 30
0.0
  0
INSERT
  5
1E0
330
1F
100
AcDbEntity
  8
LC-001-100-D00-0
 62
     7
370
    50
100
AcDbBlockReference
  2
POLY22
 10
0.0
 20
0.0
 30
0.0
  0
INSERT
  5
1EC
330
1F
100
AcDbEntity
  8
LC-001-100-D00-0
 62
     7
370
    50
100
AcDbBlockReference
  2
POLY23
 10
0.0
 20
0.0
 30
0.0
  0
INSERT
  5
1FA
330
1F
100
AcDbEntity
  8
LC-001-100-D00-0
 62
     7
370
    50
100
AcDbBlockReference
  2
POLY24
 10
0.0
 20
0.0
 30
0.0
  0
INSERT
  5
206
330
1F
100
AcDbEntity
  8
LC-001-100-D00-0
 62
     7
370
    50
100
AcDbBlockReference
  2
POLY25
 10
0.0
 20
0.0
 30
0.0
  0
INSERT
  5
210
330
1F
100
AcDbEntity
  8
LC-001-100-D00-0
 62
     7
370
    50
100
AcDbBlockReference
  2
POLY26
 10
0.0
 20
0.0
 30
0.0
  0
INSERT
  5
21C
330
1F
100
AcDbEntity
  8
LC-001-100-D00-0
 62
     7
370
    50
100
AcDbBlockReference
  2
POLY27
 10
0.0
 20
0.0
 30
0.0
  0
INSERT
  5
228
330
1F
100
AcDbEntity
  8
LC-001-100-D00-0
 62
     7
370
    50
100
AcDbBlockReference
  2
POLY28
 10
0.0
 20
0.0
 30
0.0
  0
INSERT
  5
234
330
1F
100
AcDbEntity
  8
LC-001-100-D00-0
 62
     7
370
    50
100
AcDbBlockReference
  2
POLY29
 10
0.0
 20
0.0
 30
0.0
  0
INSERT
  5
240
330
1F
100
AcDbEntity
  8
LC-001-100-D00-0
 62
     7
370
    50
100
AcDbBlockReference
  2
POLY30
 10
0.0
 20
0.0
 30
0.0
  0
INSERT
  5
24C
330
1F
100
AcDbEntity
  8
LC-001-100-D00-0
 62
     7
370
    50
100
AcDbBlockReference
  2
POLY31
 10
0.0
 20
0.0
 30
0.0
  0
INSERT
  5
258
330
1F
100
AcDbEntity
  8
LC-001-100-D00-0
 62
     7
370
    50
100
AcDbBlockReference
  2
POLY32
 10
0.0
 20
0.0
 30
0.0
  0
INSERT
  5
268
330
1F
100
AcDbEntity
  8
LC-001-100-D00-0
 62
     7
370
    50
100
AcDbBlockReference
  2
POLY33
 10
0.0
 20
0.0
 30
0.0
  0
INSERT
  5
278
330
1F
100
AcDbEntity
  8
LC-001-100-D00-0
 62
     7
370
    50
100
AcDbBlockReference
  2
POLY34
 10
0.0
 20
0.0
 30
0.0
  0
INSERT
  5
288
330
1F
100
AcDbEntity
  8
LC-001-100-D00-0
 62
     7
370
    50
100
AcDbBlockReference
  2
POLY35
 10
0.0
 20
0.0
 30
0.0
  0
INSERT
  5
298
330
1F
100
AcDbEntity
  8
LC-001-100-D00-0
 62
     7
370
    50
100
AcDbBlockReference
  2
POLY36
 10
0.0
 20
0.0
 30
0.0
  0
INSERT
  5
2A4
330
1F
100
AcDbEntity
  8
LC-001-100-D00-0
 62
     7
370
    50
100
AcDbBlockReference
  2
POLY37
 10
0.0
 20
0.0
 30
0.0
  0
INSERT
  5
2AE
330
1F
100
AcDbEntity
  8
LC-001-100-D00-0
 62
     7
370
    50
100
AcDbBlockReference
  2
POLY38
 10
0.0
 20
0.0
 30
0.0
  0
INSERT
  5
2BA
330
1F
100
AcDbEntity
  8
LC-001-100-D00-0
 62
     7
370
    50
100
AcDbBlockReference
  2
POLY39
 10
0.0
 20
0.0
 30
0.0
  0
INSERT
  5
2C6
330
1F
100
AcDbEntity
  8
LC-001-100-D00-0
 62
     7
370
    50
100
AcDbBlockReference
  2
POLY40
 10
0.0
 20
0.0
 30
0.0
  0
INSERT
  5
2D2
330
1F
100
AcDbEntity
  8
LC-001-100-D00-0
 62
     7
370
    50
100
AcDbBlockReference
  2
POLY41
 10
0.0
 20
0.0
 30
0.0
  0
INSERT
  5
2DE
330
1F
100
AcDbEntity
  8
LC-001-100-D00-0
 62
     7
370
    50
100
AcDbBlockReference
  2
POLY42
 10
0.0
 20
0.0
 30
0.0
  0
INSERT
  5
2EA
330
1F
100
AcDbEntity
  8
LC-001-100-D00-0
 62
     7
370
    50
100
AcDbBlockReference
  2
POLY43
 10
0.0
 20
0.0
 30
0.0
  0
INSERT
  5
2F6
330
1F
100
AcDbEntity
  8
LC-001-100-D00-0
 62
     7
370
    50
100
AcDbBlockReference
  2
POLY44
 10
0.0
 20
0.0
 30
0.0
  0
INSERT
  5
302
330
1F
100
AcDbEntity
  8
LC-001-100-D00-0
 62
     7
370
    50
100
AcDbBlockReference
  2
POLY45
 10
0.0
 20
0.0
 30
0.0
  0
INSERT
  5
30E
330
1F
100
AcDbEntity
  8
LC-001-100-D00-0
 62
     7
370
    50
100
AcDbBlockReference
  2
POLY46
 10
0.0
 20
0.0
 30
0.0
  0
INSERT
  5
31A
330
1F
100
AcDbEntity
  8
LC-001-100-D00-0
 62
     7
370
    50
100
AcDbBlockReference
  2
POLY47
 10
0.0
 20
0.0
 30
0.0
  0
INSERT
  5
326
330
1F
100
AcDbEntity
  8
LC-001-100-D00-0
 62
     7
370
    50
100
AcDbBlockReference
  2
POLY48
 10
0.0
 20
0.0
 30
0.0
  0
INSERT
  5
332
330
1F
100
AcDbEntity
  8
LC-001-100-D00-0
 62
     7
370
    50
100
AcDbBlockReference
  2
POLY49
 10
0.0
 20
0.0
 30
0.0
  0
INSERT
  5
33E
330
1F
100
AcDbEntity
  8
LC-001-100-D00-0
 62
     7
370
    50
100
AcDbBlockReference
  2
POLY50
 10
0.0
 20
0.0
 30
0.0
  0
INSERT
  5
348
330
1F
100
AcDbEntity
  8
LC-001-100-D00-0
 62
     7
370
    50
100
AcDbBlockReference
  2
POLY51
 10
0.0
 20
0.0
 30
0.0
  0
INSERT
  5
354
330
1F
100
AcDbEntity
  8
LC-001-100-D00-0
 62
     7
370
    50
100
AcDbBlockReference
  2
POLY52
 10
0.0
 20
0.0
 30
0.0
  0
INSERT
  5
360
330
1F
100
AcDbEntity
  8
LC-001-100-D00-0
 62
     7
370
    50
100
AcDbBlockReference
  2
POLY53
 10
0.0
 20
0.0
 30
0.0
  0
INSERT
  5
36C
330
1F
100
AcDbEntity
  8
LC-001-100-D00-0
 62
     7
370
    50
100
AcDbBlockReference
  2
POLY54
 10
0.0
 20
0.0
 30
0.0
  0
INSERT
  5
378
330
1F
100
AcDbEntity
  8
LC-001-100-D00-0
 62
     7
370
    50
100
AcDbBlockReference
  2
POLY55
 10
0.0
 20
0.0
 30
0.0
  0
INSERT
  5
384
330
1F
100
AcDbEntity
  8
LC-001-100-D00-0
 62
     7
370
    50
100
AcDbBlockReference
  2
POLY56
 10
0.0
 20
0.0
 30
0.0
  0
INSERT
  5
390
330
1F
100
AcDbEntity
  8
LC-001-100-D00-0
 62
     7
370
    50
100
AcDbBlockReference
  2
POLY57
 10
0.0
 20
0.0
 30
0.0
  0
INSERT
  5
39C
330
1F
100
AcDbEntity
  8
LC-001-100-D00-0
 62
     7
370
    50
100
AcDbBlockReference
  2
POLY58
 10
0.0
 20
0.0
 30
0.0
  0
INSERT
  5
3A8
330
1F
100
AcDbEntity
  8
LC-001-100-D00-0
 62
     7
370
    50
100
AcDbBlockReference
  2
POLY59
 10
0.0
 20
0.0
 30
0.0
  0
INSERT
  5
3B4
330
1F
100
AcDbEntity
  8
LC-001-100-D00-0
 62
     7
370
    50
100
AcDbBlockReference
  2
POLY60
 10
0.0
 20
0.0
 30
0.0
  0
INSERT
  5
3C0
330
1F
100
AcDbEntity
  8
LC-001-100-D00-0
 62
     7
370
    50
100
AcDbBlockReference
  2
POLY61
 10
0.0
 20
0.0
 30
0.0
  0
INSERT
  5
3CC
330
1F
100
AcDbEntity
  8
LC-001-100-D00-0
 62
     7
370
    50
100
AcDbBlockReference
  2
POLY62
 10
0.0
 20
0.0
 30
0.0
  0
INSERT
  5
3DA
330
1F
100
AcDbEntity
  8
LC-001-100-D00-0
 62
     7
370
    50
100
AcDbBlockReference
  2
POLY63
 10
0.0
 20
0.0
 30
0.0
  0
INSERT
  5
3E8
330
1F
100
AcDbEntity
  8
LC-001-100-D00-0
 62
     7
370
    50
100
AcDbBlockReference
  2
POLY64
 10
0.0
 20
0.0
 30
0.0
  0
LINE
  5
3E9
102
{ACAD_REACTORS
330
53B
102
}
330
1F
100
AcDbEntity
  8
LC-001-100-D00-0
 62
     7
370
    50
100
AcDbLine
 10
857.414244
 20
1444.0
 30
0.0
 11
857.914244
 21
1444.0
 31
0.0
  0
LINE
  5
3EA
102
{ACAD_REACTORS
330
53B
102
}
330
1F
100
AcDbEntity
  8
LC-001-100-D00-0
 62
     7
370
    50
100
AcDbLine
 10
857.914244
 20
1444.0
 30
0.0
 11
857.914244
 21
1445.5
 31
0.0
  0
LINE
  5
3EB
102
{ACAD_REACTORS
330
53B
102
}
330
1F
100
AcDbEntity
  8
LC-001-100-D00-0
 62
     7
370
    50
100
AcDbLine
 10
857.414244
 20
1447.5
 30
0.0
 11
857.414244
 21
1444.0
 31
0.0
  0
LINE
  5
3EC
102
{ACAD_REACTORS
330
53B
102
}
330
1F
100
AcDbEntity
  8
LC-001-100-D00-0
 62
     7
370
    50
100
AcDbLine
 10
857.914244
 20
1445.5
 30
0.0
 11
857.914244
 21
1453.277778
 31
0.0
  0
LINE
  5
3ED
102
{ACAD_REACTORS
330
53B
102
}
330
1F
100
AcDbEntity
  8
LC-001-100-D00-0
 62
     7
370
    50
100
AcDbLine
 10
856.868289
 20
1453.314303
 30
0.0
 11
856.868289
 21
1445.5
 31
0.0
  0
LINE
  5
3EE
102
{ACAD_REACTORS
330
53B
102
}
330
1F
100
AcDbEntity
  8
LC-001-100-D00-0
 62
     7
370
    50
100
AcDbLine
 10
861.868289
 20
1453.139699
 30
0.0
 11
861.868289
 21
1445.5
 31
0.0
  0
LINE
  5
3EF
102
{ACAD_REACTORS
330
53B
102
}
330
1F
100
AcDbEntity
  8
LC-001-100-D00-0
 62
     7
370
    50
100
AcDbLine
 10
866.414244
 20
1443.5
 30
0.0
 11
866.414244
 21
1445.0
 31
0.0
  0
LINE
  5
3F0
102
{ACAD_REACTORS
330
53B
102
}
330
1F
100
AcDbEntity
  8
LC-001-100-D00-0
 62
     7
370
    50
100
AcDbLine
 10
867.414244
 20
1453.708652
 30
0.0
 11
867.414244
 21
1454.707283
 31
0.0
  0
LINE
  5
3F1
102
{ACAD_REACTORS
330
53B
102
}
330
1F
100
AcDbEntity
  8
LC-001-100-D00-0
 62
     7
370
    50
100
AcDbLine
 10
866.914244
 20
1443.0
 30
0.0
 11
867.414244
 21
1443.0
 31
0.0
  0
LINE
  5
3F2
102
{ACAD_REACTORS
330
53B
102
}
330
1F
100
AcDbEntity
  8
LC-001-100-D00-0
 62
     7
370
    50
100
AcDbLine
 10
866.414244
 20
1443.5
 30
0.0
 11
866.914244
 21
1443.0
 31
0.0
  0
LINE
  5
3F3
102
{ACAD_REACTORS
330
53B
102
}
330
1F
100
AcDbEntity
  8
LC-001-100-D00-0
 62
     7
370
    50
100
AcDbLine
 10
867.414244
 20
1455.292718
 30
0.0
 11
867.414244
 21
1456.291349
 31
0.0
  0
LINE
  5
3F4
102
{ACAD_REACTORS
330
53B
102
}
330
1F
100
AcDbEntity
  8
LC-001-100-D00-0
 62
     7
370
    50
100
AcDbLine
 10
867.414244
 20
1454.707283
 30
0.0
 11
867.414244
 21
1455.292718
 31
0.0
  0
LINE
  5
3F5
102
{ACAD_REACTORS
330
53B
102
}
330
1F
100
AcDbEntity
  8
LC-001-100-D00-0
 62
     7
370
    50
100
AcDbLine
 10
866.414244
 20
1445.0
 30
0.0
 11
866.414244
 21
1452.980951
 31
0.0
  0
LINE
  5
3F6
102
{ACAD_REACTORS
330
53B
102
}
330
1F
100
AcDbEntity
  8
LC-001-100-D00-0
 62
     7
370
    50
100
AcDbLine
 10
866.914244
 20
1443.0
 30
0.0
 11
866.914244
 21
1447.5
 31
0.0
  0
LINE
  5
3F7
102
{ACAD_REACTORS
330
53B
102
}
330
1F
100
AcDbEntity
  8
LC-001-100-D00-0
 62
     7
370
    50
100
AcDbLine
 10
865.914244
 20
1445.5
 30
0.0
 11
862.914244
 21
1445.5
 31
0.0
  0
LINE
  5
3F8
102
{ACAD_REACTORS
330
53B
102
}
330
1F
100
AcDbEntity
  8
LC-001-100-D00-0
 62
     7
370
    50
100
AcDbLine
 10
866.914244
 20
1447.5
 30
0.0
 11
866.914244
 21
1452.963491
 31
0.0
  0
LINE
  5
3F9
102
{ACAD_REACTORS
330
53B
102
}
330
1F
100
AcDbEntity
  8
LC-001-100-D00-0
 62
     7
370
    50
100
AcDbLine
 10
867.414244
 20
1452.94603
 30
0.0
 11
867.414244
 21
1453.708652
 31
0.0
  0
LINE
  5
3FA
102
{ACAD_REACTORS
330
53B
102
}
330
1F
100
AcDbEntity
  8
LC-001-100-D00-0
 62
     7
370
    50
100
AcDbLine
 10
865.914244
 20
1445.5
 30
0.0
 11
865.914244
 21
1452.998411
 31
0.0
  0
LINE
  5
3FB
102
{ACAD_REACTORS
330
53B
102
}
330
1F
100
AcDbEntity
  8
LC-001-100-D00-0
 62
     7
370
    50
100
AcDbLine
 10
867.414244
 20
1447.5
 30
0.0
 11
867.414244
 21
1452.94603
 31
0.0
  0
LINE
  5
3FC
102
{ACAD_REACTORS
330
53B
102
}
330
1F
100
AcDbEntity
  8
LC-001-100-D00-0
 62
     7
370
    50
100
AcDbLine
 10
862.914244
 20
1444.0
 30
0.0
 11
862.914244
 21
1445.5
 31
0.0
  0
LINE
  5
3FD
102
{ACAD_REACTORS
330
53B
102
}
330
1F
100
AcDbEntity
  8
LC-001-100-D00-0
 62
     7
370
    50
100
AcDbLine
 10
862.914244
 20
1445.5
 30
0.0
 11
862.914244
 21
1453.103174
 31
0.0
  0
LINE
  5
3FE
102
{ACAD_REACTORS
330
53B
102
}
330
1F
100
AcDbEntity
  8
LC-001-100-D00-0
 62
     7
370
    50
100
AcDbLine
 10
862.414244
 20
1444.0
 30
0.0
 11
862.914244
 21
1444.0
 31
0.0
  0
LINE
  5
3FF
102
{ACAD_REACTORS
330
53B
102
}
330
1F
100
AcDbEntity
  8
LC-001-100-D00-0
 62
     7
370
    50
100
AcDbLine
 10
862.414244
 20
1444.0
 30
0.0
 11
862.414244
 21
1453.120634
 31
0.0
  0
LINE
  5
400
102
{ACAD_REACTORS
330
53B
102
}
330
1F
100
AcDbEntity
  8
LC-001-100-D00-0
 62
     7
370
    50
100
AcDbLine
 10
856.868289
 20
1464.5
 30
0.0
 11
857.414244
 21
1466.0
 31
0.0
  0
LINE
  5
401
102
{ACAD_REACTORS
330
53B
102
}
330
1F
100
AcDbEntity
  8
LC-001-100-D00-0
 62
     7
370
    50
100
AcDbLine
 10
861.868289
 20
1464.5
 30
0.0
 11
862.414244
 21
1466.0
 31
0.0
  0
LINE
  5
402
102
{ACAD_REACTORS
330
53B
102
}
330
1F
100
AcDbEntity
  8
LC-001-100-D00-0
 62
     7
370
    50
100
AcDbLine
 10
861.868289
 20
1445.5
 30
0.0
 11
862.414244
 21
1444.0
 31
0.0
  0
LINE
  5
403
102
{ACAD_REACTORS
330
53B
102
}
330
1F
100
AcDbEntity
  8
LC-001-100-D00-0
 62
     7
370
    50
100
AcDbLine
 10
856.868289
 20
1445.5
 30
0.0
 11
857.414244
 21
1444.0
 31
0.0
  0
ARC
  5
404
102
{ACAD_REACTORS
330
53B
102
}
330
1F
100
AcDbEntity
  8
LC-001-100-D00-0
 62
     7
370
    50
100
AcDbCircle
 10
865.914244
 20
1465.0
 30
0.0
 40
0.5
100
AcDbArc
 50
270.0
 51
0.0
  0
ARC
  5
405
102
{ACAD_REACTORS
330
53B
102
}
330
1F
100
AcDbEntity
  8
LC-001-100-D00-0
 62
     7
370
    50
100
AcDbCircle
 10
865.914244
 20
1445.0
 30
0.0
 40
0.5
100
AcDbArc
 50
0.0
 51
90.0
  0
LINE
  5
406
330
1F
100
AcDbEntity
  8
LC-001-100-D00-0
 62
     7
370
    50
100
AcDbLine
 10
884.414244
 20
1394.5
 30
0.0
 11
884.414244
 21
1394.799336
 31
0.0
  0
LINE
  5
407
330
1F
100
AcDbEntity
  8
LC-001-100-D00-0
 62
     7
370
    50
100
AcDbLine
 10
884.414244
 20
1394.799336
 30
0.0
 11
884.414244
 21
1395.0
 31
0.0
  0
LINE
  5
408
330
1F
100
AcDbEntity
  8
LC-001-100-D00-0
 62
     7
370
    50
100
AcDbLine
 10
884.414244
 20
1394.05
 30
0.0
 11
884.414244
 21
1394.5
 31
0.0
  0
LINE
  5
409
330
1F
100
AcDbEntity
  8
LC-001-100-D00-0
 62
     7
370
    50
100
AcDbLine
 10
867.414244
 20
1462.5
 30
0.0
 11
867.414244
 21
1467.312541
 31
0.0
  0
LINE
  5
40A
330
1F
100
AcDbEntity
  8
LC-001-100-D00-0
 62
     7
370
    50
100
AcDbLine
 10
867.414154
 20
1480.490496
 30
0.0
 11
867.414244
 21
1477.299899
 31
0.0
  0
LINE
  5
40B
330
1F
100
AcDbEntity
  8
LC-001-100-D00-0
 62
     7
370
    50
100
AcDbLine
 10
867.414244
 20
1483.0
 30
0.0
 11
867.414154
 21
1480.490496
 31
0.0
  0
LINE
  5
40C
330
1F
100
AcDbEntity
  8
LC-001-100-D00-0
 62
     7
370
    50
100
AcDbLine
 10
867.414244
 20
1477.299899
 30
0.0
 11
867.414244
 21
1469.5
 31
0.0
  0
LINE
  5
40D
330
1F
100
AcDbEntity
  8
LC-001-100-D00-0
 62
     7
370
    50
100
AcDbLine
 10
884.414244
 20
1482.775
 30
0.0
 11
884.414244
 21
1481.95
 31
0.0
  0
LINE
  5
40E
330
1F
100
AcDbEntity
  8
LC-001-100-D00-0
 62
     7
370
    50
100
AcDbLine
 10
884.414244
 20
1483.5
 30
0.0
 11
884.414244
 21
1482.775
 31
0.0
  0
LINE
  5
40F
330
1F
100
AcDbEntity
  8
LC-001-100-D00-0
 62
     7
370
    50
100
AcDbLine
 10
884.414244
 20
1481.95
 30
0.0
 11
884.414244
 21
1481.5
 31
0.0
  0
LINE
  5
410
330
1F
100
AcDbEntity
  8
LC-001-100-D00-0
 62
     7
370
    50
100
AcDbLine
 10
884.414244
 20
1481.5
 30
0.0
 11
884.414244
 21
1478.581443
 31
0.0
  0
LINE
  5
411
330
1F
100
AcDbEntity
  8
LC-001-100-D00-0
 62
     7
370
    50
100
AcDbLine
 10
884.414244
 20
1478.581443
 30
0.0
 11
884.414244
 21
1469.596
 31
0.0
  0
LINE
  5
412
330
1F
100
AcDbEntity
  8
LC-001-100-D00-0
 62
     7
370
    50
100
AcDbLine
 10
867.914244
 20
1483.5
 30
0.0
 11
884.414244
 21
1483.5
 31
0.0
  0
LINE
  5
413
330
1F
100
AcDbEntity
  8
LC-001-100-D00-0
 62
     7
370
    50
100
AcDbLine
 10
884.414244
 20
1467.5
 30
0.0
 11
884.414244
 21
1467.05
 31
0.0
  0
LINE
  5
414
330
1F
100
AcDbEntity
  8
LC-001-100-D00-0
 62
     7
370
    50
100
AcDbLine
 10
884.414244
 20
1467.5
 30
0.0
 11
884.414244
 21
1469.5
 31
0.0
  0
LINE
  5
415
330
1F
100
AcDbEntity
  8
LC-001-100-D00-0
 62
     7
370
    50
100
AcDbLine
 10
884.414244
 20
1467.05
 30
0.0
 11
884.414244
 21
1466.775
 31
0.0
  0
LINE
  5
416
330
1F
100
AcDbEntity
  8
LC-001-100-D00-0
 62
     7
370
    50
100
AcDbLine
 10
884.414244
 20
1466.775
 30
0.0
 11
884.414244
 21
1465.95
 31
0.0
  0
LINE
  5
417
330
1F
100
AcDbEntity
  8
LC-001-100-D00-0
 62
     7
370
    50
100
AcDbLine
 10
884.414244
 20
1465.95
 30
0.0
 11
884.414244
 21
1465.5
 31
0.0
  0
LINE
  5
418
330
1F
100
AcDbEntity
  8
LC-001-100-D00-0
 62
     7
370
    50
100
AcDbLine
 10
884.414244
 20
1465.5
 30
0.0
 11
884.414244
 21
1456.588
 31
0.0
  0
LINE
  5
419
330
1F
100
AcDbEntity
  8
LC-001-100-D00-0
 62
     7
370
    50
100
AcDbLine
 10
854.414244
 20
1456.6
 30
0.0
 11
866.931694
 21
1457.037119
 31
0.0
  0
LINE
  5
41A
330
1F
100
AcDbEntity
  8
LC-001-100-D00-0
 62
     7
370
    50
100
AcDbLine
 10
884.414244
 20
1456.588
 30
0.0
 11
884.414244
 21
1456.5
 31
0.0
  0
LINE
  5
41B
330
1F
100
AcDbEntity
  8
LC-001-100-D00-0
 62
     7
370
    50
100
AcDbLine
 10
884.414244
 20
1456.5
 30
0.0
 11
884.414244
 21
1441.261847
 31
0.0
  0
LINE
  5
41C
330
1F
100
AcDbEntity
  8
LC-001-100-D00-0
 62
     7
370
    50
100
AcDbLine
 10
854.414244
 20
1453.4
 30
0.0
 11
867.414244
 21
1452.94603
 31
0.0
  0
LINE
  5
41D
330
1F
100
AcDbEntity
  8
LC-001-100-D00-0
 62
     7
370
    50
100
AcDbLine
 10
856.264324
 20
1455.591013
 30
0.0
 11
854.905518
 21
1455.58166
 31
0.0
  0
LINE
  5
41E
330
1F
100
AcDbEntity
  8
LC-001-100-D00-0
 62
     7
370
    50
100
AcDbLine
 10
866.931694
 20
1455.791654
 30
0.0
 11
856.264324
 21
1455.591013
 31
0.0
  0
LINE
  5
41F
330
1F
100
AcDbEntity
  8
LC-001-100-D00-0
 62
     7
370
    50
100
AcDbLine
 10
854.414244
 20
1447.76795
 30
0.0
 11
855.414244
 21
1447.5
 31
0.0
  0
LINE
  5
420
330
1F
100
AcDbEntity
  8
LC-001-100-D00-0
 62
     7
370
    50
100
AcDbLine
 10
854.414244
 20
1455.081736
 30
0.0
 11
854.414244
 21
1454.918265
 31
0.0
  0
LINE
  5
421
330
1F
100
AcDbEntity
  8
LC-001-100-D00-0
 62
     7
370
    50
100
AcDbLine
 10
854.414244
 20
1453.4
 30
0.0
 11
854.414244
 21
1447.76795
 31
0.0
  0
LINE
  5
422
330
1F
100
AcDbEntity
  8
LC-001-100-D00-0
 62
     7
370
    50
100
AcDbLine
 10
854.414244
 20
1453.4
 30
0.0
 11
854.414244
 21
1454.918265
 31
0.0
  0
LINE
  5
423
330
1F
100
AcDbEntity
  8
LC-001-100-D00-0
 62
     7
370
    50
100
AcDbLine
 10
854.414244
 20
1455.081736
 30
0.0
 11
854.414244
 21
1456.6
 31
0.0
  0
LINE
  5
424
330
1F
100
AcDbEntity
  8
LC-001-100-D00-0
 62
     7
370
    50
100
AcDbLine
 10
854.414244
 20
1447.76795
 30
0.0
 11
854.414244
 21
1427.355105
 31
0.0
  0
LINE
  5
425
330
1F
100
AcDbEntity
  8
LC-001-100-D00-0
 62
     7
370
    50
100
AcDbLine
 10
866.957822
 20
1455.292718
 30
0.0
 11
856.239932
 21
1455.105636
 31
0.0
  0
LINE
  5
426
330
1F
100
AcDbEntity
  8
LC-001-100-D00-0
 62
     7
370
    50
100
AcDbLine
 10
856.274784
 20
1454.39444
 30
0.0
 11
854.905518
 21
1454.418341
 31
0.0
  0
LINE
  5
427
330
1F
100
AcDbEntity
  8
LC-001-100-D00-0
 62
     7
370
    50
100
AcDbLine
 10
866.957822
 20
1454.707283
 30
0.0
 11
856.239932
 21
1454.894364
 31
0.0
  0
LINE
  5
428
330
1F
100
AcDbEntity
  8
LC-001-100-D00-0
 62
     7
370
    50
100
AcDbLine
 10
856.239932
 20
1455.105636
 30
0.0
 11
856.239932
 21
1454.894364
 31
0.0
  0
LINE
  5
429
330
1F
100
AcDbEntity
  8
LC-001-100-D00-0
 62
     7
370
    50
100
AcDbLine
 10
866.92297
 20
1454.208576
 30
0.0
 11
856.274784
 21
1454.39444
 31
0.0
  0
LINE
  5
42A
330
1F
100
AcDbEntity
  8
LC-001-100-D00-0
 62
     7
370
    50
100
AcDbLine
 10
867.414244
 20
1428.3
 30
0.0
 11
867.414244
 21
1447.5
 31
0.0
  0
LINE
  5
42B
330
1F
100
AcDbEntity
  8
LC-001-100-D00-0
 62
     7
370
    50
100
AcDbLine
 10
884.414244
 20
1429.387505
 30
0.0
 11
884.414244
 21
1426.65
 31
0.0
  0
LINE
  5
42C
330
1F
100
AcDbEntity
  8
LC-001-100-D00-0
 62
     7
370
    50
100
AcDbLine
 10
884.414244
 20
1441.261847
 30
0.0
 11
884.414244
 21
1429.387505
 31
0.0
  0
LINE
  5
42D
330
1F
100
AcDbEntity
  8
LC-001-100-D00-0
 62
     7
370
    50
100
AcDbLine
 10
856.714244
 20
1428.0
 30
0.0
 11
857.114244
 21
1428.0
 31
0.0
  0
LINE
  5
42E
330
1F
100
AcDbEntity
  8
LC-001-100-D00-0
 62
     7
370
    50
100
AcDbLine
 10
857.114244
 20
1428.0
 30
0.0
 11
867.414244
 21
1428.0
 31
0.0
  0
LINE
  5
42F
330
1F
100
AcDbEntity
  8
LC-001-100-D00-0
 62
     7
370
    50
100
AcDbLine
 10
884.414244
 20
1392.5
 30
0.0
 11
867.914244
 21
1392.5
 31
0.0
  0
LINE
  5
430
330
1F
100
AcDbEntity
  8
LC-001-100-D00-0
 62
     7
370
    50
100
AcDbLine
 10
884.414244
 20
1392.5
 30
0.0
 11
884.414244
 21
1393.225
 31
0.0
  0
LINE
  5
431
330
1F
100
AcDbEntity
  8
LC-001-100-D00-0
 62
     7
370
    50
100
AcDbLine
 10
884.414244
 20
1393.225
 30
0.0
 11
884.414244
 21
1394.05
 31
0.0
  0
LINE
  5
432
330
1F
100
AcDbEntity
  8
LC-001-100-D00-0
 62
     7
370
    50
100
AcDbLine
 10
884.414244
 20
1397.418557
 30
0.0
 11
884.414244
 21
1395.0
 31
0.0
  0
LINE
  5
433
330
1F
100
AcDbEntity
  8
LC-001-100-D00-0
 62
     7
370
    50
100
AcDbLine
 10
884.414244
 20
1406.404
 30
0.0
 11
884.414244
 21
1397.418557
 31
0.0
  0
LINE
  5
434
330
1F
100
AcDbEntity
  8
LC-001-100-D00-0
 62
     7
370
    50
100
AcDbLine
 10
884.414244
 20
1426.65
 30
0.0
 11
884.414244
 21
1424.15
 31
0.0
  0
LINE
  5
435
330
1F
100
AcDbEntity
  8
LC-001-100-D00-0
 62
     7
370
    50
100
AcDbLine
 10
856.414244
 20
1425.350222
 30
0.0
 11
856.274731
 21
1425.359977
 31
0.0
  0
LINE
  5
436
330
1F
100
AcDbEntity
  8
LC-001-100-D00-0
 62
     7
370
    50
100
AcDbLine
 10
854.414244
 20
1414.732051
 30
0.0
 11
855.414244
 21
1415.0
 31
0.0
  0
LINE
  5
437
330
1F
100
AcDbEntity
  8
LC-001-100-D00-0
 62
     7
370
    50
100
AcDbLine
 10
854.414244
 20
1462.232051
 30
0.0
 11
855.414244
 21
1462.5
 31
0.0
  0
LINE
  5
438
330
1F
100
AcDbEntity
  8
LC-001-100-D00-0
 62
     7
370
    50
100
AcDbLine
 10
854.414244
 20
1456.6
 30
0.0
 11
854.414244
 21
1462.232051
 31
0.0
  0
LINE
  5
439
330
1F
100
AcDbEntity
  8
LC-001-100-D00-0
 62
     7
370
    50
100
AcDbLine
 10
855.414244
 20
1456.634921
 30
0.0
 11
855.414244
 21
1462.5
 31
0.0
  0
LINE
  5
43A
330
1F
100
AcDbEntity
  8
LC-001-100-D00-0
 62
     7
370
    50
100
AcDbLine
 10
855.414244
 20
1447.5
 30
0.0
 11
855.414244
 21
1453.36508
 31
0.0
  0
LINE
  5
43B
330
1F
100
AcDbEntity
  8
LC-001-100-D00-0
 62
     7
370
    50
100
AcDbLine
 10
865.414244
 20
1480.0
 30
0.0
 11
866.914244
 21
1480.0
 31
0.0
  0
LINE
  5
43C
330
1F
100
AcDbEntity
  8
LC-001-100-D00-0
 62
     7
370
    50
100
AcDbLine
 10
857.414244
 20
1472.0
 30
0.0
 11
857.414244
 21
1466.0
 31
0.0
  0
LINE
  5
43D
330
1F
100
AcDbEntity
  8
LC-001-100-D00-0
 62
     7
370
    50
100
AcDbLine
 10
857.414244
 20
1444.0
 30
0.0
 11
857.414244
 21
1428.3
 31
0.0
  0
LINE
  5
43E
330
1F
100
AcDbEntity
  8
LC-001-100-D00-0
 62
     7
370
    50
100
AcDbLine
 10
867.414244
 20
1415.0
 30
0.0
 11
867.414244
 21
1420.7
 31
0.0
  0
LINE
  5
43F
330
1F
100
AcDbEntity
  8
LC-001-100-D00-0
 62
     7
370
    50
100
AcDbLine
 10
867.414244
 20
1421.3
 30
0.0
 11
867.395789
 21
1428.299952
 31
0.0
  0
LINE
  5
440
330
1F
100
AcDbEntity
  8
LC-001-100-D00-0
 62
     7
370
    50
100
AcDbLine
 10
857.114244
 20
1421.0
 30
0.0
 11
867.114244
 21
1421.0
 31
0.0
  0
LINE
  5
441
330
1F
100
AcDbEntity
  8
LC-001-100-D00-0
 62
     7
370
    50
100
AcDbLine
 10
856.714244
 20
1421.0
 30
0.0
 11
857.114244
 21
1421.0
 31
0.0
  0
LINE
  5
442
330
1F
100
AcDbEntity
  8
LC-001-100-D00-0
 62
     7
370
    50
100
AcDbLine
 10
867.414244
 20
1467.312541
 30
0.0
 11
867.414244
 21
1469.5
 31
0.0
  0
LINE
  5
443
330
1F
100
AcDbEntity
  8
LC-001-100-D00-0
 62
     7
370
    50
100
AcDbLine
 10
866.914244
 20
1457.03651
 30
0.0
 11
866.914244
 21
1462.5
 31
0.0
  0
LINE
  5
444
330
1F
100
AcDbEntity
  8
LC-001-100-D00-0
 62
     7
370
    50
100
AcDbLine
 10
867.414244
 20
1457.536815
 30
0.0
 11
867.414244
 21
1462.5
 31
0.0
  0
LINE
  5
445
330
1F
100
AcDbEntity
  8
LC-001-100-D00-0
 62
     7
370
    50
100
AcDbLine
 10
867.414244
 20
1456.291349
 30
0.0
 11
867.414244
 21
1457.536815
 31
0.0
  0
LINE
  5
446
330
1F
100
AcDbEntity
  8
LC-001-100-D00-0
 62
     7
370
    50
100
AcDbLine
 10
857.414244
 20
1466.0
 30
0.0
 11
857.414244
 21
1462.5
 31
0.0
  0
LINE
  5
447
330
1F
100
AcDbEntity
  8
LC-001-100-D00-0
 62
     7
370
    50
100
AcDbLine
 10
857.414244
 20
1447.5
 30
0.0
 11
857.414244
 21
1444.0
 31
0.0
  0
LINE
  5
448
330
1F
100
AcDbEntity
  8
LC-001-100-D00-0
 62
     7
370
    50
100
AcDbLine
 10
867.414244
 20
1453.708652
 30
0.0
 11
867.414244
 21
1454.707283
 31
0.0
  0
LINE
  5
449
330
1F
100
AcDbEntity
  8
LC-001-100-D00-0
 62
     7
370
    50
100
AcDbLine
 10
867.414244
 20
1455.292718
 30
0.0
 11
867.414244
 21
1456.291349
 31
0.0
  0
LINE
  5
44A
330
1F
100
AcDbEntity
  8
LC-001-100-D00-0
 62
     7
370
    50
100
AcDbLine
 10
867.414244
 20
1454.707283
 30
0.0
 11
867.414244
 21
1455.292718
 31
0.0
  0
LINE
  5
44B
330
1F
100
AcDbEntity
  8
LC-001-100-D00-0
 62
     7
370
    50
100
AcDbLine
 10
866.914244
 20
1447.5
 30
0.0
 11
866.914244
 21
1452.963491
 31
0.0
  0
LINE
  5
44C
330
1F
100
AcDbEntity
  8
LC-001-100-D00-0
 62
     7
370
    50
100
AcDbLine
 10
867.414244
 20
1452.94603
 30
0.0
 11
867.414244
 21
1453.708652
 31
0.0
  0
LINE
  5
44D
330
1F
100
AcDbEntity
  8
LC-001-100-D00-0
 62
     7
370
    50
100
AcDbLine
 10
867.414244
 20
1447.5
 30
0.0
 11
867.414244
 21
1452.94603
 31
0.0
  0
LINE
  5
44E
330
1F
100
AcDbEntity
  8
LC-001-100-D00-0
 62
     7
370
    50
100
AcDbLine
 10
856.414244
 20
1421.3
 30
0.0
 11
856.414244
 21
1427.7
 31
0.0
  0
LINE
  5
44F
330
1F
100
AcDbEntity
  8
LC-001-100-D00-0
 62
     7
370
    50
100
AcDbLine
 10
854.414244
 20
1400.26795
 30
0.0
 11
854.414244
 21
1414.732051
 31
0.0
  0
LINE
  5
450
330
1F
100
AcDbEntity
  8
LC-001-100-D00-0
 62
     7
370
    50
100
AcDbLine
 10
854.414244
 20
1400.26795
 30
0.0
 11
855.414244
 21
1400.0
 31
0.0
  0
LINE
  5
451
330
1F
100
AcDbEntity
  8
LC-001-100-D00-0
 62
     7
370
    50
100
AcDbLine
 10
857.414244
 20
1418.5
 30
0.0
 11
857.414244
 21
1415.7
 31
0.0
  0
LINE
  5
452
330
1F
100
AcDbEntity
  8
LC-001-100-D00-0
 62
     7
370
    50
100
AcDbLine
 10
857.414244
 20
1420.7
 30
0.0
 11
857.414244
 21
1418.5
 31
0.0
  0
LINE
  5
453
330
1F
100
AcDbEntity
  8
LC-001-100-D00-0
 62
     7
370
    50
100
AcDbLine
 10
855.414244
 20
1400.0
 30
0.0
 11
855.414244
 21
1415.0
 31
0.0
  0
LINE
  5
454
330
1F
100
AcDbEntity
  8
LC-001-100-D00-0
 62
     7
370
    50
100
AcDbLine
 10
867.414244
 20
1393.0
 30
0.0
 11
867.414244
 21
1400.0
 31
0.0
  0
LINE
  5
455
330
1F
100
AcDbEntity
  8
LC-001-100-D00-0
 62
     7
370
    50
100
AcDbLine
 10
866.914244
 20
1410.7
 30
0.0
 11
866.914244
 21
1415.0
 31
0.0
  0
LINE
  5
456
330
1F
100
AcDbEntity
  8
LC-001-100-D00-0
 62
     7
370
    50
100
AcDbLine
 10
866.914244
 20
1400.0
 30
0.0
 11
866.914244
 21
1410.7
 31
0.0
  0
LINE
  5
457
330
1F
100
AcDbEntity
  8
LC-001-100-D00-0
 62
     7
370
    50
100
AcDbLine
 10
867.414244
 20
1410.2
 30
0.0
 11
867.412833
 21
1410.274339
 31
0.0
  0
LINE
  5
458
330
1F
100
AcDbEntity
  8
LC-001-100-D00-0
 62
     7
370
    50
100
AcDbLine
 10
867.414244
 20
1406.5
 30
0.0
 11
867.414244
 21
1410.2
 31
0.0
  0
LINE
  5
459
330
1F
100
AcDbEntity
  8
LC-001-100-D00-0
 62
     7
370
    50
100
AcDbLine
 10
867.412833
 20
1410.274339
 30
0.0
 11
867.414244
 21
1415.0
 31
0.0
  0
LINE
  5
45A
330
1F
100
AcDbEntity
  8
LC-001-100-D00-0
 62
     7
370
    50
100
AcDbLine
 10
867.414244
 20
1400.0
 30
0.0
 11
867.414244
 21
1406.5
 31
0.0
  0
LINE
  5
45B
330
1F
100
AcDbEntity
  8
LC-001-100-D00-0
 62
     7
370
    50
100
AcDbLine
 10
867.414244
 20
1420.7
 30
0.0
 11
867.414244
 21
1421.3
 31
0.0
  0
LINE
  5
45C
330
1F
100
AcDbEntity
  8
LC-001-100-D00-0
 62
     7
370
    50
100
AcDbLine
 10
884.414244
 20
1419.061442
 30
0.0
 11
884.414244
 21
1412.8
 31
0.0
  0
LINE
  5
45D
330
1F
100
AcDbEntity
  8
LC-001-100-D00-0
 62
     7
370
    50
100
AcDbLine
 10
884.414244
 20
1412.8
 30
0.0
 11
884.414244
 21
1412.5
 31
0.0
  0
LINE
  5
45E
330
1F
100
AcDbEntity
  8
LC-001-100-D00-0
 62
     7
370
    50
100
AcDbLine
 10
884.414244
 20
1412.5
 30
0.0
 11
884.414244
 21
1406.5
 31
0.0
  0
LINE
  5
45F
330
1F
100
AcDbEntity
  8
LC-001-100-D00-0
 62
     7
370
    50
100
AcDbLine
 10
884.414244
 20
1424.15
 30
0.0
 11
884.414244
 21
1423.65
 31
0.0
  0
LINE
  5
460
330
1F
100
AcDbEntity
  8
LC-001-100-D00-0
 62
     7
370
    50
100
AcDbLine
 10
884.414244
 20
1423.65
 30
0.0
 11
884.414244
 21
1422.65
 31
0.0
  0
LINE
  5
461
330
1F
100
AcDbEntity
  8
LC-001-100-D00-0
 62
     7
370
    50
100
AcDbLine
 10
884.414244
 20
1422.65
 30
0.0
 11
884.414244
 21
1419.061442
 31
0.0
  0
LINE
  5
462
330
1F
100
AcDbEntity
  8
LC-002-101-D00-0
 62
     7
370
    25
100
AcDbLine
 10
851.929861
 20
1438.0
 30
0.0
 11
891.344105
 21
1438.0
 31
0.0
  0
ARC
  5
463
330
1F
100
AcDbEntity
  8
LC-001-100-D00-0
 62
     7
370
    50
100
AcDbCircle
 10
854.914244
 20
1455.081736
 30
0.0
 40
0.5000000000001774
100
AcDbArc
 50
91.0
 51
180.0
  0
ARC
  5
464
330
1F
100
AcDbEntity
  8
LC-001-100-D00-0
 62
     7
370
    50
100
AcDbCircle
 10
867.914244
 20
1483.0
 30
0.0
 40
0.5
100
AcDbArc
 50
90.0
 51
180.0
  0
ARC
  5
465
330
1F
100
AcDbEntity
  8
LC-001-100-D00-0
 62
     7
370
    50
100
AcDbCircle
 10
854.914244
 20
1454.918265
 30
0.0
 40
0.5
100
AcDbArc
 50
180.0
 51
269.0
  0
ARC
  5
466
330
1F
100
AcDbEntity
  8
LC-001-100-D00-0
 62
     7
370
    50
100
AcDbCircle
 10
856.714244
 20
1427.7
 30
0.0
 40
0.2999999999999545
100
AcDbArc
 50
90.0
 51
180.0
  0
ARC
  5
467
330
1F
100
AcDbEntity
  8
LC-001-100-D00-0
 62
     7
370
    50
100
AcDbCircle
 10
857.114244
 20
1428.3
 30
0.0
 40
0.2999999999999545
100
AcDbArc
 50
270.0
 51
0.0
  0
ARC
  5
468
330
1F
100
AcDbEntity
  8
LC-001-100-D00-0
 62
     7
370
    50
100
AcDbCircle
 10
856.414244
 20
1427.355105
 30
0.0
 40
2.0
100
AcDbArc
 50
180.0
 51
266.0
  0
ARC
  5
469
330
1F
100
AcDbEntity
  8
LC-001-100-D00-0
 62
     7
370
    50
100
AcDbCircle
 10
857.114244
 20
1420.7
 30
0.0
 40
0.3000000000000682
100
AcDbArc
 50
0.0
 51
90.0
  0
ARC
  5
46A
330
1F
100
AcDbEntity
  8
LC-001-100-D00-0
 62
     7
370
    50
100
AcDbCircle
 10
866.914244
 20
1480.5
 30
0.0
 40
0.4999999999949978
100
AcDbArc
 50
270.0
 51
358.910797
  0
ARC
  5
46B
330
1F
100
AcDbEntity
  8
LC-001-100-D00-0
 62
     7
370
    50
100
AcDbCircle
 10
856.714244
 20
1421.3
 30
0.0
 40
0.2999999999999545
100
AcDbArc
 50
180.0
 51
270.0
  0
ARC
  5
46C
330
1F
100
AcDbEntity
  8
LC-001-100-D00-0
 62
     7
370
    50
100
AcDbCircle
 10
866.914244
 20
1457.536815
 30
0.0
 40
0.5000000000003749
100
AcDbArc
 50
272.0
 51
0.0
  0
ARC
  5
46D
330
1F
100
AcDbEntity
  8
LC-001-100-D00-0
 62
     7
370
    50
100
AcDbCircle
 10
866.914244
 20
1456.291349
 30
0.0
 40
0.5000000000006021
100
AcDbArc
 50
272.0
 51
0.0
  0
ARC
  5
46E
330
1F
100
AcDbEntity
  8
LC-001-100-D00-0
 62
     7
370
    50
100
AcDbCircle
 10
866.914244
 20
1453.708652
 30
0.0
 40
0.5
100
AcDbArc
 50
0.0
 51
89.0
  0
ARC
  5
46F
330
1F
100
AcDbEntity
  8
LC-001-100-D00-0
 62
     7
370
    50
100
AcDbCircle
 10
865.414244
 20
1472.000001
 30
0.0
 40
7.999999656874942
100
AcDbArc
 50
89.999998
 51
180.000002
  0
ARC
  5
470
330
1F
100
AcDbEntity
  8
LC-001-100-D00-0
 62
     7
370
    50
100
AcDbCircle
 10
867.914244
 20
1393.0
 30
0.0
 40
0.5
100
AcDbArc
 50
180.0
 51
270.0
  0
ARC
  5
471
330
1F
100
AcDbEntity
  8
LC-001-100-D00-0
 62
     7
370
    50
100
AcDbCircle
 10
867.108504
 20
1420.69426
 30
0.0
 40
0.3057938933643017
100
AcDbArc
 50
1.075555
 51
88.924445
  0
INSERT
  5
485
330
1F
100
AcDbEntity
  8
LC-001-100-D00-0
 62
     7
370
    50
100
AcDbBlockReference
  2
POLY65
 10
0.0
 20
0.0
 30
0.0
  0
INSERT
  5
49B
330
1F
100
AcDbEntity
  8
LC-001-100-D00-0
 62
     7
370
    50
100
AcDbBlockReference
  2
POLY66
 10
0.0
 20
0.0
 30
0.0
  0
INSERT
  5
4B1
330
1F
100
AcDbEntity
  8
LC-001-100-D00-0
 62
     7
370
    50
100
AcDbBlockReference
  2
POLY67
 10
0.0
 20
0.0
 30
0.0
  0
INSERT
  5
4C5
330
1F
100
AcDbEntity
  8
LC-001-100-D00-0
 62
     7
370
    50
100
AcDbBlockReference
  2
POLY68
 10
0.0
 20
0.0
 30
0.0
  0
INSERT
  5
4D1
330
1F
100
AcDbEntity
  8
LC-001-100-D00-0
 62
     7
370
    50
100
AcDbBlockReference
  2
POLY69
 10
0.0
 20
0.0
 30
0.0
  0
INSERT
  5
4DD
330
1F
100
AcDbEntity
  8
LC-001-100-D00-0
 62
     7
370
    50
100
AcDbBlockReference
  2
POLY70
 10
0.0
 20
0.0
 30
0.0
  0
LINE
  5
4DE
330
1F
100
AcDbEntity
  8
LC-001-100-D00-0
 62
     7
370
    50
100
AcDbLine
 10
889.374244
 20
1393.0
 30
0.0
 11
889.374244
 21
1406.5
 31
0.0
  0
LINE
  5
4DF
330
1F
100
AcDbEntity
  8
LC-001-100-D00-0
 62
     7
370
    50
100
AcDbLine
 10
888.874244
 20
1392.5
 30
0.0
 11
884.414244
 21
1392.5
 31
0.0
  0
LINE
  5
4E0
330
1F
100
AcDbEntity
  8
LC-001-100-D00-0
 62
     7
370
    50
100
AcDbLine
 10
888.874244
 20
1483.5
 30
0.0
 11
884.414244
 21
1483.5
 31
0.0
  0
LINE
  5
4E1
330
1F
100
AcDbEntity
  8
LC-001-100-D00-0
 62
     7
370
    50
100
AcDbLine
 10
884.414244
 20
1394.5
 30
0.0
 11
884.414244
 21
1394.799336
 31
0.0
  0
LINE
  5
4E2
330
1F
100
AcDbEntity
  8
LC-001-100-D00-0
 62
     7
370
    50
100
AcDbLine
 10
884.414244
 20
1394.799336
 30
0.0
 11
884.414244
 21
1395.0
 31
0.0
  0
LINE
  5
4E3
330
1F
100
AcDbEntity
  8
LC-001-100-D00-0
 62
     7
370
    50
100
AcDbLine
 10
884.414244
 20
1394.05
 30
0.0
 11
884.414244
 21
1394.5
 31
0.0
  0
LINE
  5
4E4
330
1F
100
AcDbEntity
  8
LC-001-100-D00-0
 62
     7
370
    50
100
AcDbLine
 10
884.414244
 20
1482.775
 30
0.0
 11
884.414244
 21
1481.95
 31
0.0
  0
LINE
  5
4E5
330
1F
100
AcDbEntity
  8
LC-001-100-D00-0
 62
     7
370
    50
100
AcDbLine
 10
884.414244
 20
1483.5
 30
0.0
 11
884.414244
 21
1482.775
 31
0.0
  0
LINE
  5
4E6
330
1F
100
AcDbEntity
  8
LC-001-100-D00-0
 62
     7
370
    50
100
AcDbLine
 10
884.414244
 20
1481.95
 30
0.0
 11
884.414244
 21
1481.5
 31
0.0
  0
LINE
  5
4E7
330
1F
100
AcDbEntity
  8
LC-001-100-D00-0
 62
     7
370
    50
100
AcDbLine
 10
884.414244
 20
1481.5
 30
0.0
 11
884.414244
 21
1478.581443
 31
0.0
  0
LINE
  5
4E8
330
1F
100
AcDbEntity
  8
LC-001-100-D00-0
 62
     7
370
    50
100
AcDbLine
 10
884.414244
 20
1478.581443
 30
0.0
 11
884.414244
 21
1469.596
 31
0.0
  0
LINE
  5
4E9
330
1F
100
AcDbEntity
  8
LC-001-100-D00-0
 62
     7
370
    50
100
AcDbLine
 10
884.414244
 20
1467.5
 30
0.0
 11
884.414244
 21
1467.05
 31
0.0
  0
LINE
  5
4EA
330
1F
100
AcDbEntity
  8
LC-001-100-D00-0
 62
     7
370
    50
100
AcDbLine
 10
884.414244
 20
1467.5
 30
0.0
 11
884.414244
 21
1469.5
 31
0.0
  0
LINE
  5
4EB
330
1F
100
AcDbEntity
  8
LC-001-100-D00-0
 62
     7
370
    50
100
AcDbLine
 10
884.414244
 20
1467.05
 30
0.0
 11
884.414244
 21
1466.775
 31
0.0
  0
LINE
  5
4EC
330
1F
100
AcDbEntity
  8
LC-001-100-D00-0
 62
     7
370
    50
100
AcDbLine
 10
884.414244
 20
1466.775
 30
0.0
 11
884.414244
 21
1465.95
 31
0.0
  0
LINE
  5
4ED
330
1F
100
AcDbEntity
  8
LC-001-100-D00-0
 62
     7
370
    50
100
AcDbLine
 10
884.414244
 20
1465.95
 30
0.0
 11
884.414244
 21
1465.5
 31
0.0
  0
LINE
  5
4EE
330
1F
100
AcDbEntity
  8
LC-001-100-D00-0
 62
     7
370
    50
100
AcDbLine
 10
884.414244
 20
1465.5
 30
0.0
 11
884.414244
 21
1456.588
 31
0.0
  0
LINE
  5
4EF
330
1F
100
AcDbEntity
  8
LC-001-100-D00-0
 62
     7
370
    50
100
AcDbLine
 10
884.414244
 20
1456.588
 30
0.0
 11
884.414244
 21
1456.5
 31
0.0
  0
LINE
  5
4F0
330
1F
100
AcDbEntity
  8
LC-001-100-D00-0
 62
     7
370
    50
100
AcDbLine
 10
884.414244
 20
1456.5
 30
0.0
 11
884.414244
 21
1441.261847
 31
0.0
  0
LINE
  5
4F1
330
1F
100
AcDbEntity
  8
LC-001-100-D00-0
 62
     7
370
    50
100
AcDbLine
 10
884.414244
 20
1429.387505
 30
0.0
 11
884.414244
 21
1426.65
 31
0.0
  0
LINE
  5
4F2
330
1F
100
AcDbEntity
  8
LC-001-100-D00-0
 62
     7
370
    50
100
AcDbLine
 10
884.414244
 20
1441.261847
 30
0.0
 11
884.414244
 21
1429.387505
 31
0.0
  0
LINE
  5
4F3
330
1F
100
AcDbEntity
  8
LC-001-100-D00-0
 62
     7
370
    50
100
AcDbLine
 10
884.414244
 20
1392.5
 30
0.0
 11
884.414244
 21
1393.225
 31
0.0
  0
LINE
  5
4F4
330
1F
100
AcDbEntity
  8
LC-001-100-D00-0
 62
     7
370
    50
100
AcDbLine
 10
884.414244
 20
1393.225
 30
0.0
 11
884.414244
 21
1394.05
 31
0.0
  0
LINE
  5
4F5
330
1F
100
AcDbEntity
  8
LC-001-100-D00-0
 62
     7
370
    50
100
AcDbLine
 10
884.414244
 20
1397.418557
 30
0.0
 11
884.414244
 21
1395.0
 31
0.0
  0
LINE
  5
4F6
330
1F
100
AcDbEntity
  8
LC-001-100-D00-0
 62
     7
370
    50
100
AcDbLine
 10
884.414244
 20
1406.404
 30
0.0
 11
884.414244
 21
1397.418557
 31
0.0
  0
LINE
  5
4F7
330
1F
100
AcDbEntity
  8
LC-001-100-D00-0
 62
     7
370
    50
100
AcDbLine
 10
884.414244
 20
1426.65
 30
0.0
 11
884.414244
 21
1424.15
 31
0.0
  0
LINE
  5
4F8
330
1F
100
AcDbEntity
  8
LC-001-100-D00-0
 62
     7
370
    50
100
AcDbLine
 10
884.414244
 20
1419.061442
 30
0.0
 11
884.414244
 21
1412.8
 31
0.0
  0
LINE
  5
4F9
330
1F
100
AcDbEntity
  8
LC-001-100-D00-0
 62
     7
370
    50
100
AcDbLine
 10
884.414244
 20
1412.8
 30
0.0
 11
884.414244
 21
1412.5
 31
0.0
  0
LINE
  5
4FA
330
1F
100
AcDbEntity
  8
LC-001-100-D00-0
 62
     7
370
    50
100
AcDbLine
 10
884.414244
 20
1412.5
 30
0.0
 11
884.414244
 21
1406.5
 31
0.0
  0
LINE
  5
4FB
330
1F
100
AcDbEntity
  8
LC-001-100-D00-0
 62
     7
370
    50
100
AcDbLine
 10
884.414244
 20
1424.15
 30
0.0
 11
884.414244
 21
1423.65
 31
0.0
  0
LINE
  5
4FC
330
1F
100
AcDbEntity
  8
LC-001-100-D00-0
 62
     7
370
    50
100
AcDbLine
 10
884.414244
 20
1423.65
 30
0.0
 11
884.414244
 21
1422.65
 31
0.0
  0
LINE
  5
4FD
330
1F
100
AcDbEntity
  8
LC-001-100-D00-0
 62
     7
370
    50
100
AcDbLine
 10
884.414244
 20
1422.65
 30
0.0
 11
884.414244
 21
1419.061442
 31
0.0
  0
ARC
  5
4FE
330
1F
100
AcDbEntity
  8
LC-001-100-D00-0
 62
     7
370
    50
100
AcDbCircle
 10
888.874244
 20
1483.0
 30
0.0
 40
0.5
100
AcDbArc
 50
0.0
 51
90.0
  0
ARC
  5
4FF
330
1F
100
AcDbEntity
  8
LC-001-100-D00-0
 62
     7
370
    50
100
AcDbCircle
 10
888.874244
 20
1393.0
 30
0.0
 40
0.5
100
AcDbArc
 50
270.0
 51
0.0
  0
DIMENSION
  5
503
330
1F
100
AcDbEntity
  8
LC-003-003-----0
 62
     7
370
    25
100
AcDbDimension
  2
*D72
 10
795.0
 20
1504.791976
 30
0.0
 11
750.387101
 21
1535.591976
 31
0.0
 70
   160
 71
     5
 42
82.0
  3
LC-DIM-L-0140-02-02
100
AcDbAlignedDimension
 13
713.0
 23
1469.5
 33
0.0
 14
795.0
 24
1469.5
 34
0.0
100
AcDbRotatedDimension
  0
DIMENSION
  5
511
330
1F
100
AcDbEntity
  8
LC-003-003-----0
 62
     7
370
    25
100
AcDbDimension
  2
*D73
 10
687.559237
 20
1392.5
 30
0.0
 11
656.759237
 21
1437.669976
 31
0.0
 70
   160
 71
     5
 42
90.5
 53
90.0
  3
LC-DIM-L-0140-02-02
100
AcDbAlignedDimension
 13
727.0
 23
1483.0
 33
0.0
 14
727.0
 24
1392.5
 34
0.0
 50
90.0
100
AcDbRotatedDimension
  0
DIMENSION
  5
51E
330
1F
100
AcDbEntity
  8
LC-003-003-----0
 62
     7
370
    25
100
AcDbDimension
  2
*D74
 10
889.374244
 20
1490.716197
 30
0.0
 11
880.248612
 21
1521.516197
 31
0.0
 70
   160
  1
22
 71
     5
 42
21.96
  3
LC-DIM-L-0140-02-02
100
AcDbAlignedDimension
 13
867.414244
 23
1483.0
 33
0.0
 14
889.374244
 24
1483.0
 34
0.0
100
AcDbRotatedDimension
  0
DIMENSION
  5
52D
330
1F
100
AcDbEntity
  8
LC-003-003-----0
 62
     7
370
    25
100
AcDbDimension
  2
*D75
 10
889.374244
 20
1540.431976
 30
0.0
 11
934.611177
 21
1571.231976
 31
0.0
 70
   160
  1
35
 71
     5
 42
34.96
  3
LC-DIM-L-0140-02-02
100
AcDbAlignedDimension
 13
854.414244
 23
1462.232051
 33
0.0
 14
889.374244
 24
1483.0
 34
0.0
100
AcDbRotatedDimension
  0
ENDSEC
  0
SECTION
  2
OBJECTS
  0
DICTIONARY
  5
C
330
0
100
AcDbDictionary
281
     1
  3
ACAD_GROUP
350
D
  3
ACAD_LAYOUT
350
1A
  3
ACAD_MLINESTYLE
350
17
  3
ACAD_PLOTSETTINGS
350
19
  3
ACAD_PLOTSTYLENAME
350
E
  0
DICTIONARY
  5
D
102
{ACAD_REACTORS
330
C
102
}
330
C
100
AcDbDictionary
281
     1
  3
LCGROUP234
350
53B
  0
DICTIONARY
  5
1A
102
{ACAD_REACTORS
330
C
102
}
330
C
100
AcDbDictionary
281
     1
  3
Layout1
350
1E
  3
Layout2
350
26
  3
Model
350
22
  0
DICTIONARY
  5
17
102
{ACAD_REACTORS
330
C
102
}
330
C
100
AcDbDictionary
281
     1
  3
Standard
350
18
  0
DICTIONARY
  5
19
102
{ACAD_REACTORS
330
C
102
}
330
C
100
AcDbDictionary
281
     1
  0
ACDBDICTIONARYWDFLT
  5
E
102
{ACAD_REACTORS
330
C
102
}
330
C
100
AcDbDictionary
281
     1
  3
Normal
350
F
100
AcDbDictionaryWithDefault
340
F
  0
GROUP
  5
53B
102
{ACAD_REACTORS
330
D
102
}
330
D
100
AcDbGroup
300
11054_Steckdichtung-GV
 70
     1
 71
     1
340
31
340
81
340
82
340
83
340
84
340
85
340
86
340
87
340
88
340
89
340
8C
340
8D
340
93
340
95
340
96
340
98
340
99
340
9A
340
9B
340
9C
340
A2
340
A3
340
A4
340
A5
340
A6
340
A7
340
A8
340
A9
340
B5
340
BC
340
C2
340
C4
340
C5
340
10A
340
3E9
340
3EA
340
3EB
340
3EC
340
3ED
340
3EE
340
3EF
340
3F0
340
3F1
340
3F2
340
3F3
340
3F4
340
3F5
340
3F6
340
3F7
340
3F8
340
3F9
340
3FA
340
3FB
340
3FC
340
3FD
340
3FE
340
3FF
340
400
340
401
340
402
340
403
340
404
340
405
  0
LAYOUT
  5
1E
102
{ACAD_REACTORS
330
1A
102
}
330
1A
100
AcDbPlotSettings
  1

  2

  4

  6

 40
0.0
 41
0.0
 42
0.0
 43
0.0
 44
0.0
 45
0.0
 46
0.0
 47
0.0
 48
0.0
 49
0.0
140
0.0
141
0.0
142
1.0
143
1.0
 70
   688
 72
     0
 73
     0
 74
     5
  7

 75
    16
147
1.0
148
0.0
149
0.0
100
AcDbLayout
  1
Layout1
 70
     1
 71
     1
 10
361.268593
 20
1140.669976
 11
1201.268593
 21
1734.669976
 12
0.0
 22
0.0
 32
0.0
 14
361.268593
 24
1140.669976
 34
0.0
 15
1201.268593
 25
1734.669976
 35
0.0
146
0.0
 13
0.0
 23
0.0
 33
0.0
 16
1.0
 26
0.0
 36
0.0
 17
0.0
 27
1.0
 37
0.0
 76
     0
330
1B
  0
LAYOUT
  5
26
102
{ACAD_REACTORS
330
1A
102
}
330
1A
100
AcDbPlotSettings
  1

  2

  4

  6

 40
0.0
 41
0.0
 42
0.0
 43
0.0
 44
0.0
 45
0.0
 46
0.0
 47
0.0
 48
0.0
 49
0.0
140
0.0
141
0.0
142
1.0
143
1.0
 70
   688
 72
     0
 73
     0
 74
     5
  7

 75
    16
147
1.0
148
0.0
149
0.0
100
AcDbLayout
  1
Layout2
 70
     1
 71
     2
 10
0.0
 20
0.0
 11
0.0
 21
0.0
 12
0.0
 22
0.0
 32
0.0
 14
0.0
 24
0.0
 34
0.0
 15
0.0
 25
0.0
 35
0.0
146
0.0
 13
0.0
 23
0.0
 33
0.0
 16
1.0
 26
0.0
 36
0.0
 17
0.0
 27
1.0
 37
0.0
 76
     0
330
23
  0
LAYOUT
  5
22
102
{ACAD_REACTORS
330
1A
102
}
330
1A
100
AcDbPlotSettings
  1

  2

  4

  6

 40
0.0
 41
0.0
 42
0.0
 43
0.0
 44
0.0
 45
0.0
 46
0.0
 47
0.0
 48
0.0
 49
0.0
140
0.0
141
0.0
142
1.0
143
1.0
 70
  1776
 72
     0
 73
     0
 74
     0
  7

 75
     0
147
1.0
148
0.0
149
0.0
100
AcDbLayout
  1
Model
 70
     1
 71
     0
 10
361.268593
 20
1140.669976
 11
1201.268593
 21
1734.669976
 12
361.268593
 22
1140.669976
 32
0.0
 14
361.268593
 24
1140.669976
 34
0.0
 15
1201.268593
 25
1734.669976
 35
0.0
146
0.0
 13
0.0
 23
0.0
 33
0.0
 16
1.0
 26
0.0
 36
0.0
 17
0.0
 27
1.0
 37
0.0
 76
     0
330
1F
  0
MLINESTYLE
  5
18
102
{ACAD_REACTORS
330
17
102
}
330
17
100
AcDbMlineStyle
  2
Standard
 70
     0
  3

 62
   256
 51
90.0
 52
90.0
 71
     2
 49
0.5
 62
   256
  6
BYLAYER
 49
-0.5
 62
   256
  6
BYLAYER
  0
ACDBPLACEHOLDER
  5
F
102
{ACAD_REACTORS
330
E
102
}
330
E
  0
ENDSEC
  0
EOF
