  0
SECTION
  2
HEADER
  9
$ACADVER
  1
AC1015
  9
$ACADMAINTVER
 70
     6
  9
$DWGCODEPAGE
  3
ANSI_1252
  9
$INSBASE
 10
374.536423
 20
1128.294759
 30
0.0
  9
$EXTMIN
 10
374.536423
 20
1128.294759
 30
0.0
  9
$EXTMAX
 10
1214.536423
 20
1722.294759
 30
0.0
  9
$LIMMIN
 10
374.536423
 20
1128.294759
  9
$LIMMAX
 10
1214.536423
 20
1722.294759
  9
$ORTHOMODE
 70
     0
  9
$REGENMODE
 70
     1
  9
$FILLMODE
 70
     1
  9
$QTEXTMODE
 70
     0
  9
$MIRRTEXT
 70
     1
  9
$LTSCALE
 40
2.0
  9
$ATTMODE
 70
     1
  9
$TEXTSIZE
 40
2.5
  9
$TRACEWID
 40
1.0
  9
$TEXTSTYLE
  7
Standard
  9
$CLAYER
  8
0
  9
$CELTYPE
  6
ByLayer
  9
$CECOLOR
 62
     7
  9
$CELTSCALE
 40
1.0
  9
$DISPSILH
 70
     0
  9
$DIMSCALE
 40
2.0
  9
$DIMASZ
 40
3.5
  9
$DIMEXO
 40
0.625
  9
$DIMDLI
 40
3.75
  9
$DIMRND
 40
0.0
  9
$DIMDLE
 40
0.0
  9
$DIMEXE
 40
1.25
  9
$DIMTP
 40
0.0
  9
$DIMTM
 40
0.0
  9
$DIMTXT
 40
3.5
  9
$DIMCEN
 40
2.5
  9
$DIMTSZ
 40
0.0
  9
$DIMTOL
 70
     0
  9
$DIMLIM
 70
     0
  9
$DIMTIH
 70
     0
  9
$DIMTOH
 70
     0
  9
$DIMSE1
 70
     0
  9
$DIMSE2
 70
     0
  9
$DIMTAD
 70
     1
  9
$DIMZIN
 70
     8
  9
$DIMBLK
  1

  9
$DIMASO
 70
     1
  9
$DIMSHO
 70
     1
  9
$DIMPOST
  1

  9
$DIMAPOST
  1

  9
$DIMALT
 70
     0
  9
$DIMALTD
 70
     3
  9
$DIMALTF
 40
0.03937
  9
$DIMLFAC
 40
1.0
  9
$DIMTOFL
 70
     1
  9
$DIMTVP
 40
0.0
  9
$DIMTIX
 70
     0
  9
$DIMSOXD
 70
     0
  9
$DIMSAH
 70
     0
  9
$DIMBLK1
  1

  9
$DIMBLK2
  1

  9
$DIMSTYLE
  2
ISO-25
  9
$DIMCLRD
 70
     0
  9
$DIMCLRE
 70
     0
  9
$DIMCLRT
 70
     0
  9
$DIMTFAC
 40
1.0
  9
$DIMGAP
 40
0.625
  9
$DIMJUST
 70
     0
  9
$DIMSD1
 70
     0
  9
$DIMSD2
 70
     0
  9
$DIMTOLJ
 70
     0
  9
$DIMTZIN
 70
     8
  9
$DIMALTZ
 70
     0
  9
$DIMALTTZ
 70
     0
  9
$DIMUPT
 70
     0
  9
$DIMDEC
 70
     2
  9
$DIMTDEC
 70
     2
  9
$DIMALTU
 70
     2
  9
$DIMALTTD
 70
     3
  9
$DIMTXSTY
  7
Standard
  9
$DIMAUNIT
 70
     0
  9
$DIMADEC
 70
     0
  9
$DIMALTRND
 40
0.0
  9
$DIMAZIN
 70
     0
  9
$DIMDSEP
 70
    44
  9
$DIMATFIT
 70
     3
  9
$DIMFRAC
 70
     0
  9
$DIMLDRBLK
  1

  9
$DIMLUNIT
 70
     2
  9
$DIMLWD
 70
    -2
  9
$DIMLWE
 70
    -2
  9
$DIMTMOVE
 70
     0
  9
$LUNITS
 70
     2
  9
$LUPREC
 70
     4
  9
$SKETCHINC
 40
1.0
  9
$FILLETRAD
 40
10.0
  9
$AUNITS
 70
     0
  9
$AUPREC
 70
     0
  9
$MENU
  1
.
  9
$ELEVATION
 40
0.0
  9
$PELEVATION
 40
0.0
  9
$THICKNESS
 40
0.0
  9
$LIMCHECK
 70
     0
  9
$CHAMFERA
 40
10.0
  9
$CHAMFERB
 40
10.0
  9
$CHAMFERC
 40
20.0
  9
$CHAMFERD
 40
0.0
  9
$SKPOLY
 70
     0
  9
$TDCREATE
 40
2456737.42552022
  9
$TDUCREATE
 40
2456737.383853553
  9
$TDUPDATE
 40
2456737.425520232
  9
$TDUUPDATE
 40
2456737.383853565
  9
$TDINDWG
 40
0.0000000116
  9
$TDUSRTIMER
 40
0.0000000116
  9
$USRTIMER
 70
     1
  9
$ANGBASE
 50
0.0
  9
$ANGDIR
 70
     0
  9
$PDMODE
 70
     0
  9
$PDSIZE
 40
0.0
  9
$PLINEWID
 40
0.0
  9
$SPLFRAME
 70
     0
  9
$SPLINETYPE
 70
     6
  9
$SPLINESEGS
 70
     8
  9
$HANDSEED
  5
120
  9
$SURFTAB1
 70
     6
  9
$SURFTAB2
 70
     6
  9
$SURFTYPE
 70
     6
  9
$SURFU
 70
     6
  9
$SURFV
 70
     6
  9
$UCSBASE
  2

  9
$UCSNAME
  2

  9
$UCSORG
 10
0.0
 20
0.0
 30
0.0
  9
$UCSXDIR
 10
1.0
 20
0.0
 30
0.0
  9
$UCSYDIR
 10
0.0
 20
1.0
 30
0.0
  9
$UCSORTHOREF
  2

  9
$UCSORTHOVIEW
 70
     0
  9
$UCSORGTOP
 10
0.0
 20
0.0
 30
0.0
  9
$UCSORGBOTTOM
 10
0.0
 20
0.0
 30
0.0
  9
$UCSORGLEFT
 10
0.0
 20
0.0
 30
0.0
  9
$UCSORGRIGHT
 10
0.0
 20
0.0
 30
0.0
  9
$UCSORGFRONT
 10
0.0
 20
0.0
 30
0.0
  9
$UCSORGBACK
 10
0.0
 20
0.0
 30
0.0
  9
$PUCSBASE
  2

  9
$PUCSNAME
  2

  9
$PUCSORG
 10
0.0
 20
0.0
 30
0.0
  9
$PUCSXDIR
 10
1.0
 20
0.0
 30
0.0
  9
$PUCSYDIR
 10
0.0
 20
1.0
 30
0.0
  9
$PUCSORTHOREF
  2

  9
$PUCSORTHOVIEW
 70
     0
  9
$PUCSORGTOP
 10
0.0
 20
0.0
 30
0.0
  9
$PUCSORGBOTTOM
 10
0.0
 20
0.0
 30
0.0
  9
$PUCSORGLEFT
 10
0.0
 20
0.0
 30
0.0
  9
$PUCSORGRIGHT
 10
0.0
 20
0.0
 30
0.0
  9
$PUCSORGFRONT
 10
0.0
 20
0.0
 30
0.0
  9
$PUCSORGBACK
 10
0.0
 20
0.0
 30
0.0
  9
$USERI1
 70
     0
  9
$USERI2
 70
     0
  9
$USERI3
 70
     0
  9
$USERI4
 70
     0
  9
$USERI5
 70
     0
  9
$USERR1
 40
0.0
  9
$USERR2
 40
0.0
  9
$USERR3
 40
0.0
  9
$USERR4
 40
0.0
  9
$USERR5
 40
0.0
  9
$WORLDVIEW
 70
     1
  9
$SHADEDGE
 70
     3
  9
$SHADEDIF
 70
    70
  9
$TILEMODE
 70
     1
  9
$MAXACTVP
 70
    64
  9
$PINSBASE
 10
0.0
 20
0.0
 30
0.0
  9
$PLIMCHECK
 70
     0
  9
$PEXTMIN
 10
374.536423
 20
1128.294759
 30
0.0
  9
$PEXTMAX
 10
1214.536423
 20
1722.294759
 30
0.0
  9
$PLIMMIN
 10
374.536423
 20
1128.294759
  9
$PLIMMAX
 10
1214.536423
 20
1722.294759
  9
$UNITMODE
 70
     0
  9
$VISRETAIN
 70
     1
  9
$PLINEGEN
 70
     0
  9
$PSLTSCALE
 70
     1
  9
$TREEDEPTH
 70
  3020
  9
$CMLSTYLE
  2
Standard
  9
$CMLJUST
 70
     0
  9
$CMLSCALE
 40
20.0
  9
$PROXYGRAPHICS
 70
     1
  9
$MEASUREMENT
 70
     1
  9
$CELWEIGHT
370
    -1
  9
$ENDCAPS
280
     0
  9
$JOINSTYLE
280
     0
  9
$LWDISPLAY
290
     0
  9
$INSUNITS
 70
     4
  9
$HYPERLINKBASE
  1

  9
$STYLESHEET
  1

  9
$XEDIT
290
     1
  9
$CEPSNTYPE
380
     0
  9
$PSTYLEMODE
290
     1
  9
$FINGERPRINTGUID
  2
{FAEB1C30-E019-11D5-929B-00C0DF256EC4}
  9
$VERSIONGUID
  2
{FAEB1C32-E019-11D5-929B-00C0DF256EC4}
  9
$EXTNAMES
290
     1
  9
$PSVPSCALE
 40
0.0
  9
$OLESTARTUP
290
     0
  0
ENDSEC
  0
SECTION
  2
CLASSES
  0
CLASS
  1
ACDBDICTIONARYWDFLT
  2
AcDbDictionaryWithDefault
  3
ObjectDBX Classes
 90
        0
280
     0
281
     0
  0
CLASS
  1
ACDBPLACEHOLDER
  2
AcDbPlaceHolder
  3
ObjectDBX Classes
 90
        0
280
     0
281
     0
  0
CLASS
  1
LAYOUT
  2
AcDbLayout
  3
ObjectDBX Classes
 90
        0
280
     0
281
     0
  0
ENDSEC
  0
SECTION
  2
TABLES
  0
TABLE
  2
VPORT
  5
8
330
0
100
AcDbSymbolTable
 70
     2
  0
VPORT
  5
29
330
8
100
AcDbSymbolTableRecord
100
AcDbViewportTableRecord
  2
*ACTIVE
 70
     0
 10
0.0
 20
0.0
 11
1.0
 21
1.0
 12
794.536423
 22
1425.294759
 13
0.0
 23
0.0
 14
1.0
 24
1.0
 15
0.0
 25
0.0
 16
0.0
 26
0.0
 36
1.0
 17
0.0
 27
0.0
 37
0.0
 40
594.0
 41
1.414141
 42
50.0
 43
0.0
 44
0.0
 50
0.0
 51
0.0
 71
    16
 72
   100
 73
     1
 74
     0
 75
     0
 76
     0
 77
     0
 78
     0
281
     0
 65
     0
110
0.0
120
0.0
130
0.0
111
1.0
121
0.0
131
0.0
112
0.0
122
1.0
132
0.0
 79
     0
146
0.0
  0
ENDTAB
  0
TABLE
  2
LTYPE
  5
5
330
0
100
AcDbSymbolTable
 70
     2
  0
LTYPE
  5
14
330
5
100
AcDbSymbolTableRecord
100
AcDbLinetypeTableRecord
  2
ByBlock
 70
     0
  3

 72
    65
 73
     0
 40
0.0
  0
LTYPE
  5
15
330
5
100
AcDbSymbolTableRecord
100
AcDbLinetypeTableRecord
  2
ByLayer
 70
     0
  3

 72
    65
 73
     0
 40
0.0
  0
LTYPE
  5
16
330
5
100
AcDbSymbolTableRecord
100
AcDbLinetypeTableRecord
  2
Continuous
 70
     0
  3
Solid line
 72
    65
 73
     0
 40
0.0
  0
LTYPE
  5
2A
330
5
100
AcDbSymbolTableRecord
100
AcDbLinetypeTableRecord
  2
DASHED
 70
     0
  3
__ __ __ __ __
 72
    65
 73
     2
 40
6.25
 49
5.0
 74
     4
 75
     0
340
0
 46
1.0
 50
0.0
 44
0.0
 45
0.0
 49
-1.25
 74
     4
 75
     0
340
0
 46
1.0
 50
0.0
 44
0.0
 45
0.0
  0
ENDTAB
  0
TABLE
  2
LAYER
  5
2
330
0
100
AcDbSymbolTable
 70
     8
  0
LAYER
  5
10
330
2
100
AcDbSymbolTableRecord
100
AcDbLayerTableRecord
  2
0
 70
     0
 62
     7
  6
Continuous
370
    -3
390
F
  0
LAYER
  5
2B
330
2
100
AcDbSymbolTableRecord
100
AcDbLayerTableRecord
  2
LC-INFO-1-2-mm-A3-0
 70
     1
 62
     7
  6
ByBlock
370
    -3
390
F
  0
LAYER
  5
2C
330
2
100
AcDbSymbolTableRecord
100
AcDbLayerTableRecord
  2
LC-CUT-HIDDEN
 70
     0
 62
     7
  6
DASHED
370
    -3
390
F
  0
LAYER
  5
2D
330
2
100
AcDbSymbolTableRecord
100
AcDbLayerTableRecord
  2
LC-VIEWPORT
 70
     0
 62
     7
  6
ByBlock
370
    -3
390
F
  0
LAYER
  5
2E
330
2
100
AcDbSymbolTableRecord
100
AcDbLayerTableRecord
  2
LC-3D-HIDDEN
 70
     0
 62
     9
  6
DASHED
370
    -3
390
F
  0
LAYER
  5
36
330
2
100
AcDbSymbolTableRecord
100
AcDbLayerTableRecord
  2
LC-001-100-D00-0
 70
     0
 62
    44
  6
ByBlock
370
    -3
390
F
  0
LAYER
  5
110
330
2
100
AcDbSymbolTableRecord
100
AcDbLayerTableRecord
  2
LC-002-003-----0
 70
     0
 62
     2
  6
ByBlock
370
    -3
390
F
  0
LAYER
  5
112
330
2
100
AcDbSymbolTableRecord
100
AcDbLayerTableRecord
  2
Defpoints
 70
     0
 62
     7
  6
Continuous
290
     0
370
    -3
390
F
  0
ENDTAB
  0
TABLE
  2
STYLE
  5
3
330
0
100
AcDbSymbolTable
 70
     3
  0
STYLE
  5
11
330
3
100
AcDbSymbolTableRecord
100
AcDbTextStyleTableRecord
  2
Standard
 70
     0
 40
0.0
 41
1.0
 50
0.0
 71
     0
 42
2.5
  3
txt
  4

  0
STYLE
  5
2F
330
3
100
AcDbSymbolTableRecord
100
AcDbTextStyleTableRecord
  2
LCTX15-400-0-0-Arial
 70
     0
 40
0.0
 41
0.8
 50
0.0
 71
     0
 42
3.5
  3

  4

1001
ACAD
1000
Arial
1071
 16777218
  0
STYLE
  5
10E
330
3
100
AcDbSymbolTableRecord
100
AcDbTextStyleTableRecord
  2
LCTX15-400-0-0pDIN-Schrift
 70
     0
 40
2.5
 41
0.8
 50
15.0
 71
     0
 42
3.5
  3
STANDARD
  4

  0
ENDTAB
  0
TABLE
  2
VIEW
  5
6
330
0
100
AcDbSymbolTable
 70
     0
  0
ENDTAB
  0
TABLE
  2
UCS
  5
7
330
0
100
AcDbSymbolTable
 70
     0
  0
ENDTAB
  0
TABLE
  2
APPID
  5
9
330
0
100
AcDbSymbolTable
 70
     1
  0
APPID
  5
12
330
9
100
AcDbSymbolTableRecord
100
AcDbRegAppTableRecord
  2
ACAD
 70
     0
  0
ENDTAB
  0
TABLE
  2
DIMSTYLE
  5
A
330
0
100
AcDbSymbolTable
 70
     2
100
AcDbDimStyleTable
  0
DIMSTYLE
105
27
330
A
100
AcDbSymbolTableRecord
100
AcDbDimStyleTableRecord
  2
ISO-25
 70
     0
 41
2.5
 42
0.625
 43
3.75
 44
1.25
 73
     0
 74
     0
 77
     1
 78
     8
140
2.5
141
2.5
143
0.03937
147
0.625
171
     3
172
     1
271
     2
272
     2
274
     3
278
    44
283
     0
284
     8
340
11
  0
DIMSTYLE
105
10F
102
{ACAD_REACTORS
330
111
102
}
330
A
100
AcDbSymbolTableRecord
100
AcDbDimStyleTableRecord
  2
LC-DIM-L-0140-02-02
 70
     0
 40
2.0
 41
14.0
 42
0.0
 43
7.5
 44
1.8
 73
     0
 74
     0
 77
     1
 78
     8
 79
     2
140
14.0
141
0.0
146
0.71
147
1.5
176
     2
177
     2
178
     2
179
     2
271
     2
278
    44
289
     1
340
10E
  0
ENDTAB
  0
TABLE
  2
BLOCK_RECORD
  5
1
330
0
100
AcDbSymbolTable
 70
     5
  0
BLOCK_RECORD
  5
1F
330
1
100
AcDbSymbolTableRecord
100
AcDbBlockTableRecord
  2
*Model_Space
340
22
  0
BLOCK_RECORD
  5
1B
330
1
100
AcDbSymbolTableRecord
100
AcDbBlockTableRecord
  2
*Paper_Space
340
1E
  0
BLOCK_RECORD
  5
23
330
1
100
AcDbSymbolTableRecord
100
AcDbBlockTableRecord
  2
*Paper_Space0
340
26
  0
BLOCK_RECORD
  5
30
330
1
100
AcDbSymbolTableRecord
100
AcDbBlockTableRecord
  2
KLON1
340
0
102
{BLKREFS
331
48
102
}
  0
BLOCK_RECORD
  5
33
330
1
100
AcDbSymbolTableRecord
100
AcDbBlockTableRecord
  2
KLON2
340
0
102
{BLKREFS
331
47
102
}
  0
BLOCK_RECORD
  5
49
330
1
100
AcDbSymbolTableRecord
100
AcDbBlockTableRecord
  2
KLON3
340
0
102
{BLKREFS
331
10D
102
}
  0
BLOCK_RECORD
  5
113
330
1
100
AcDbSymbolTableRecord
100
AcDbBlockTableRecord
  2
*D4
340
0
  0
ENDTAB
  0
ENDSEC
  0
SECTION
  2
BLOCKS
  0
BLOCK
  5
20
330
1F
100
AcDbEntity
  8
0
100
AcDbBlockBegin
  2
*Model_Space
 70
     0
 71
     0
 10
0.0
 20
0.0
 30
0.0
  3
*Model_Space
  1

  0
ENDBLK
  5
21
330
1F
100
AcDbEntity
  8
0
100
AcDbBlockEnd
  0
BLOCK
  5
1C
330
1B
100
AcDbEntity
 67
     1
  8
0
100
AcDbBlockBegin
  2
*Paper_Space
 70
     0
 71
     0
 10
0.0
 20
0.0
 30
0.0
  3
*Paper_Space
  1

  0
ENDBLK
  5
1D
330
1B
100
AcDbEntity
 67
     1
  8
0
100
AcDbBlockEnd
  0
BLOCK
  5
24
330
23
100
AcDbEntity
  8
0
100
AcDbBlockBegin
  2
*Paper_Space0
 70
     0
 71
     0
 10
0.0
 20
0.0
 30
0.0
  3
*Paper_Space0
  1

  0
ENDBLK
  5
25
330
23
100
AcDbEntity
  8
0
100
AcDbBlockEnd
  0
BLOCK
  5
31
330
30
100
AcDbEntity
  8
0
100
AcDbBlockBegin
  2
KLON1
 70
     0
 71
     0
 10
0.0
 20
0.0
 30
0.0
  3
KLON1
  1

  4
KLON1
  0
INSERT
  5
47
330
30
100
AcDbEntity
  8
LC-001-100-D00-0
 62
     7
370
    13
100
AcDbBlockReference
  2
KLON2
 10
0.0
 20
0.0
 30
0.0
  0
ENDBLK
  5
32
330
30
100
AcDbEntity
  8
0
100
AcDbBlockEnd
  0
BLOCK
  5
34
330
33
100
AcDbEntity
  8
0
100
AcDbBlockBegin
  2
KLON2
 70
     0
 71
     0
 10
0.0
 20
0.0
 30
0.0
  3
KLON2
  1

  4
KLON2
  0
LINE
  5
37
330
33
100
AcDbEntity
  8
LC-001-100-D00-0
 62
     7
370
    13
100
AcDbLine
 10
730.264853
 20
1484.509903
 30
0.0
 11
820.264853
 21
1484.509903
 31
0.0
  0
LINE
  5
38
330
33
100
AcDbEntity
  8
LC-001-100-D00-0
 62
     7
370
    13
100
AcDbLine
 10
730.264853
 20
1481.509903
 30
0.0
 11
820.264853
 21
1481.509903
 31
0.0
  0
LINE
  5
39
330
33
100
AcDbEntity
  8
LC-001-100-D00-0
 62
     7
370
    13
100
AcDbLine
 10
827.264853
 20
1474.509903
 30
0.0
 11
827.264853
 21
1384.509903
 31
0.0
  0
LINE
  5
3A
330
33
100
AcDbEntity
  8
LC-001-100-D00-0
 62
     7
370
    13
100
AcDbLine
 10
830.264853
 20
1474.509903
 30
0.0
 11
830.264853
 21
1384.509903
 31
0.0
  0
LINE
  5
3B
330
33
100
AcDbEntity
  8
LC-001-100-D00-0
 62
     7
370
    13
100
AcDbLine
 10
723.264853
 20
1384.509903
 30
0.0
 11
723.264853
 21
1474.509903
 31
0.0
  0
LINE
  5
3C
330
33
100
AcDbEntity
  8
LC-001-100-D00-0
 62
     7
370
    13
100
AcDbLine
 10
720.264853
 20
1384.509903
 30
0.0
 11
720.264853
 21
1474.509903
 31
0.0
  0
LINE
  5
3D
330
33
100
AcDbEntity
  8
LC-001-100-D00-0
 62
     7
370
    13
100
AcDbLine
 10
820.264853
 20
1377.509903
 30
0.0
 11
730.264853
 21
1377.509903
 31
0.0
  0
LINE
  5
3E
330
33
100
AcDbEntity
  8
LC-001-100-D00-0
 62
     7
370
    13
100
AcDbLine
 10
820.264853
 20
1374.509903
 30
0.0
 11
730.264853
 21
1374.509903
 31
0.0
  0
ARC
  5
3F
330
33
100
AcDbEntity
  8
LC-001-100-D00-0
 62
     7
370
    13
100
AcDbCircle
 10
820.264853
 20
1384.509903
 30
0.0
 40
7.0
100
AcDbArc
 50
270.0
 51
0.0
  0
ARC
  5
40
330
33
100
AcDbEntity
  8
LC-001-100-D00-0
 62
     7
370
    13
100
AcDbCircle
 10
820.264853
 20
1384.509903
 30
0.0
 40
10.0
100
AcDbArc
 50
270.0
 51
0.0
  0
ARC
  5
41
330
33
100
AcDbEntity
  8
LC-001-100-D00-0
 62
     7
370
    13
100
AcDbCircle
 10
730.264853
 20
1384.509903
 30
0.0
 40
7.0
100
AcDbArc
 50
180.0
 51
270.0
  0
ARC
  5
42
330
33
100
AcDbEntity
  8
LC-001-100-D00-0
 62
     7
370
    13
100
AcDbCircle
 10
730.264853
 20
1384.509903
 30
0.0
 40
10.0
100
AcDbArc
 50
180.0
 51
270.0
  0
ARC
  5
43
330
33
100
AcDbEntity
  8
LC-001-100-D00-0
 62
     7
370
    13
100
AcDbCircle
 10
820.264853
 20
1474.509903
 30
0.0
 40
7.0
100
AcDbArc
 50
0.0
 51
90.0
  0
ARC
  5
44
330
33
100
AcDbEntity
  8
LC-001-100-D00-0
 62
     7
370
    13
100
AcDbCircle
 10
730.264853
 20
1474.509903
 30
0.0
 40
7.0
100
AcDbArc
 50
90.0
 51
180.0
  0
ARC
  5
45
330
33
100
AcDbEntity
  8
LC-001-100-D00-0
 62
     7
370
    13
100
AcDbCircle
 10
730.264853
 20
1474.509903
 30
0.0
 40
10.0
100
AcDbArc
 50
90.0
 51
180.0
  0
ARC
  5
46
330
33
100
AcDbEntity
  8
LC-001-100-D00-0
 62
     7
370
    13
100
AcDbCircle
 10
820.264853
 20
1474.509903
 30
0.0
 40
10.0
100
AcDbArc
 50
0.0
 51
90.0
  0
ENDBLK
  5
35
330
33
100
AcDbEntity
  8
0
100
AcDbBlockEnd
  0
BLOCK
  5
4A
330
49
100
AcDbEntity
  8
0
100
AcDbBlockBegin
  2
KLON3
 70
     0
 71
     0
 10
0.0
 20
0.0
 30
0.0
  3
KLON3
  1

  4
KLON3
  0
LINE
  5
4C
330
49
100
AcDbEntity
  8
LC-001-100-D00-0
 62
     7
370
    13
100
AcDbLine
 10
875.26485
 20
1484.509903
 30
0.0
 11
876.461002
 21
1484.509903
 31
0.0
  0
LINE
  5
4D
330
49
100
AcDbEntity
  8
LC-001-100-D00-0
 62
     7
370
    13
100
AcDbLine
 10
872.763708
 20
1450.975008
 30
0.0
 11
874.965992
 21
1450.782333
 31
0.0
  0
LINE
  5
4E
330
49
100
AcDbEntity
  8
LC-001-100-D00-0
 62
     7
370
    13
100
AcDbLine
 10
853.039683
 20
1474.509903
 30
0.0
 11
851.318954
 21
1474.509903
 31
0.0
  0
LINE
  5
4F
330
49
100
AcDbEntity
  8
LC-001-100-D00-0
 62
     7
370
    35
100
AcDbLine
 10
877.26485
 20
1474.509903
 30
0.0
 11
876.461002
 21
1474.509903
 31
0.0
  0
LINE
  5
50
330
49
100
AcDbEntity
  8
LC-001-100-D00-0
 62
     7
370
    13
100
AcDbLine
 10
877.26485
 20
1384.509903
 30
0.0
 11
877.26485
 21
1377.509903
 31
0.0
  0
LINE
  5
51
330
49
100
AcDbEntity
  8
LC-001-100-D00-0
 62
     7
370
    13
100
AcDbLine
 10
877.26485
 20
1384.509903
 30
0.0
 11
877.26485
 21
1474.509903
 31
0.0
  0
LINE
  5
52
330
49
100
AcDbEntity
  8
LC-001-100-D00-0
 62
     7
370
    13
100
AcDbLine
 10
877.26485
 20
1481.509903
 30
0.0
 11
877.26485
 21
1474.509903
 31
0.0
  0
LINE
  5
53
330
49
100
AcDbEntity
  8
LC-001-100-D00-0
 62
     7
370
    13
100
AcDbLine
 10
872.76485
 20
1406.509903
 30
0.0
 11
872.46485
 21
1406.809903
 31
0.0
  0
LINE
  5
54
330
49
100
AcDbEntity
  8
LC-001-100-D00-0
 62
     7
370
    13
100
AcDbLine
 10
872.46485
 20
1406.809903
 30
0.0
 11
872.46485
 21
1407.718652
 31
0.0
  0
LINE
  5
55
330
49
100
AcDbEntity
  8
LC-001-100-D00-0
 62
     7
370
    13
100
AcDbLine
 10
875.26485
 20
1406.509903
 30
0.0
 11
872.76485
 21
1406.509903
 31
0.0
  0
LINE
  5
56
330
49
100
AcDbEntity
  8
LC-001-100-D00-0
 62
     7
370
    13
100
AcDbLine
 10
876.461002
 20
1384.509903
 30
0.0
 11
876.461002
 21
1374.509903
 31
0.0
  0
LINE
  5
57
330
49
100
AcDbEntity
  8
LC-001-100-D00-0
 62
     7
370
    13
100
AcDbLine
 10
872.763708
 20
1408.044799
 30
0.0
 11
874.965992
 21
1408.237474
 31
0.0
  0
LINE
  5
58
330
49
100
AcDbEntity
  8
LC-001-100-D00-0
 62
     7
370
    13
100
AcDbLine
 10
872.46485
 20
1407.718652
 30
0.0
 11
872.763708
 21
1408.044799
 31
0.0
  0
LINE
  5
59
330
49
100
AcDbEntity
  8
LC-001-100-D00-0
 62
     7
370
    13
100
AcDbLine
 10
875.26485
 20
1374.509903
 30
0.0
 11
876.461002
 21
1374.509903
 31
0.0
  0
LINE
  5
5A
330
49
100
AcDbEntity
  8
LC-001-100-D00-0
 62
     7
370
    13
100
AcDbLine
 10
877.26485
 20
1377.509903
 30
0.0
 11
876.461002
 21
1374.509903
 31
0.0
  0
LINE
  5
5B
330
49
100
AcDbEntity
  8
LC-001-100-D00-0
 62
     7
370
    13
100
AcDbLine
 10
876.461002
 20
1484.509903
 30
0.0
 11
876.461002
 21
1474.509903
 31
0.0
  0
LINE
  5
5C
330
49
100
AcDbEntity
  8
LC-001-100-D00-0
 62
     7
370
    13
100
AcDbLine
 10
875.26485
 20
1452.509903
 30
0.0
 11
872.76485
 21
1452.509903
 31
0.0
  0
LINE
  5
5D
330
49
100
AcDbEntity
  8
LC-001-100-D00-0
 62
     7
370
    13
100
AcDbLine
 10
872.76485
 20
1452.509903
 30
0.0
 11
872.46485
 21
1452.209903
 31
0.0
  0
LINE
  5
5E
330
49
100
AcDbEntity
  8
LC-001-100-D00-0
 62
     7
370
    13
100
AcDbLine
 10
872.46485
 20
1452.209903
 30
0.0
 11
872.46485
 21
1451.301154
 31
0.0
  0
LINE
  5
5F
330
49
100
AcDbEntity
  8
LC-001-100-D00-0
 62
     7
370
    13
100
AcDbLine
 10
872.46485
 20
1451.301154
 30
0.0
 11
872.763708
 21
1450.975008
 31
0.0
  0
LINE
  5
60
330
49
100
AcDbEntity
  8
LC-001-100-D00-0
 62
     7
370
    13
100
AcDbLine
 10
874.965992
 20
1408.237474
 30
0.0
 11
875.26485
 21
1408.56362
 31
0.0
  0
LINE
  5
61
330
49
100
AcDbEntity
  8
LC-001-100-D00-0
 62
     7
370
    13
100
AcDbLine
 10
875.06485
 20
1461.320903
 30
0.0
 11
875.26485
 21
1461.320903
 31
0.0
  0
LINE
  5
62
330
49
100
AcDbEntity
  8
LC-001-100-D00-0
 62
     7
370
    13
100
AcDbLine
 10
875.26485
 20
1426.009903
 30
0.0
 11
875.06485
 21
1426.009903
 31
0.0
  0
LINE
  5
63
330
49
100
AcDbEntity
  8
LC-001-100-D00-0
 62
     7
370
    13
100
AcDbLine
 10
875.06485
 20
1433.009903
 30
0.0
 11
875.26485
 21
1433.009903
 31
0.0
  0
LINE
  5
64
330
49
100
AcDbEntity
  8
LC-001-100-D00-0
 62
     7
370
    13
100
AcDbLine
 10
875.26485
 20
1429.509903
 30
0.0
 11
875.06485
 21
1429.509903
 31
0.0
  0
LINE
  5
65
330
49
100
AcDbEntity
  8
LC-001-100-D00-0
 62
     7
370
    13
100
AcDbLine
 10
875.06485
 20
1445.716544
 30
0.0
 11
875.26485
 21
1445.716544
 31
0.0
  0
LINE
  5
66
330
49
100
AcDbEntity
  8
LC-001-100-D00-0
 62
     7
370
    13
100
AcDbLine
 10
875.06485
 20
1445.893339
 30
0.0
 11
875.26485
 21
1445.893339
 31
0.0
  0
LINE
  5
67
330
49
100
AcDbEntity
  8
LC-001-100-D00-0
 62
     7
370
    13
100
AcDbLine
 10
875.06485
 20
1441.965989
 30
0.0
 11
875.26485
 21
1441.965989
 31
0.0
  0
LINE
  5
68
330
49
100
AcDbEntity
  8
LC-001-100-D00-0
 62
     7
370
    13
100
AcDbLine
 10
875.06485
 20
1441.493108
 30
0.0
 11
875.26485
 21
1441.493108
 31
0.0
  0
LINE
  5
69
330
49
100
AcDbEntity
  8
LC-001-100-D00-0
 62
     7
370
    13
100
AcDbLine
 10
875.06485
 20
1441.600537
 30
0.0
 11
875.26485
 21
1441.600537
 31
0.0
  0
LINE
  5
6A
330
49
100
AcDbEntity
  8
LC-001-100-D00-0
 62
     7
370
    13
100
AcDbLine
 10
875.26485
 20
1441.65674
 30
0.0
 11
875.06485
 21
1441.65674
 31
0.0
  0
LINE
  5
6B
330
49
100
AcDbEntity
  8
LC-001-100-D00-0
 62
     7
370
    35
100
AcDbLine
 10
875.26485
 20
1443.141544
 30
0.0
 11
875.06485
 21
1443.141544
 31
0.0
  0
LINE
  5
6C
330
49
100
AcDbEntity
  8
LC-001-100-D00-0
 62
     7
370
    13
100
AcDbLine
 10
875.26485
 20
1447.39445
 30
0.0
 11
875.06485
 21
1447.39445
 31
0.0
  0
LINE
  5
6D
330
49
100
AcDbEntity
  8
LC-001-100-D00-0
 62
     7
370
    13
100
AcDbLine
 10
875.26485
 20
1440.35423
 30
0.0
 11
875.06485
 21
1440.35423
 31
0.0
  0
LINE
  5
6E
330
49
100
AcDbEntity
  8
LC-001-100-D00-0
 62
     7
370
    13
100
AcDbLine
 10
875.06485
 20
1440.176131
 30
0.0
 11
875.26485
 21
1440.176131
 31
0.0
  0
LINE
  5
6F
330
49
100
AcDbEntity
  8
LC-001-100-D00-0
 62
     7
370
    13
100
AcDbLine
 10
875.26485
 20
1440.043675
 30
0.0
 11
875.06485
 21
1440.043675
 31
0.0
  0
LINE
  5
70
330
49
100
AcDbEntity
  8
LC-001-100-D00-0
 62
     7
370
    13
100
AcDbLine
 10
875.26485
 20
1441.243675
 30
0.0
 11
875.06485
 21
1441.243675
 31
0.0
  0
LINE
  5
71
330
49
100
AcDbEntity
  8
LC-001-100-D00-0
 62
     7
370
    13
100
AcDbLine
 10
875.06485
 20
1457.570903
 30
0.0
 11
875.26485
 21
1457.570903
 31
0.0
  0
LINE
  5
72
330
49
100
AcDbEntity
  8
LC-001-100-D00-0
 62
     7
370
    13
100
AcDbLine
 10
875.06485
 20
1459.820903
 30
0.0
 11
875.26485
 21
1459.820903
 31
0.0
  0
LINE
  5
73
330
49
100
AcDbEntity
  8
LC-001-100-D00-0
 62
     7
370
    13
100
AcDbLine
 10
875.06485
 20
1439.865576
 30
0.0
 11
875.26485
 21
1439.865576
 31
0.0
  0
LINE
  5
74
330
49
100
AcDbEntity
  8
LC-001-100-D00-0
 62
     7
370
    13
100
AcDbLine
 10
875.26485
 20
1439.565725
 30
0.0
 11
875.06485
 21
1439.565725
 31
0.0
  0
LINE
  5
75
330
49
100
AcDbEntity
  8
LC-001-100-D00-0
 62
     7
370
    13
100
AcDbLine
 10
875.06485
 20
1439.509903
 30
0.0
 11
875.26485
 21
1439.509903
 31
0.0
  0
LINE
  5
76
330
49
100
AcDbEntity
  8
LC-001-100-D00-0
 62
     7
370
    13
100
AcDbLine
 10
875.26485
 20
1439.687792
 30
0.0
 11
875.06485
 21
1439.687792
 31
0.0
  0
LINE
  5
77
330
49
100
AcDbEntity
  8
LC-001-100-D00-0
 62
     7
370
    13
100
AcDbLine
 10
875.06485
 20
1441.176131
 30
0.0
 11
875.26485
 21
1441.176131
 31
0.0
  0
LINE
  5
78
330
49
100
AcDbEntity
  8
LC-001-100-D00-0
 62
     7
370
    13
100
AcDbLine
 10
875.26485
 20
1441.326698
 30
0.0
 11
875.06485
 21
1441.326698
 31
0.0
  0
LINE
  5
79
330
49
100
AcDbEntity
  8
LC-001-100-D00-0
 62
     7
370
    13
100
AcDbLine
 10
875.06485
 20
1440.532014
 30
0.0
 11
875.26485
 21
1440.532014
 31
0.0
  0
LINE
  5
7A
330
49
100
AcDbEntity
  8
LC-001-100-D00-0
 62
     7
370
    13
100
AcDbLine
 10
875.26485
 20
1440.648601
 30
0.0
 11
875.06485
 21
1440.648601
 31
0.0
  0
LINE
  5
7B
330
49
100
AcDbEntity
  8
LC-001-100-D00-0
 62
     7
370
    13
100
AcDbLine
 10
875.26485
 20
1441.074076
 30
0.0
 11
875.06485
 21
1441.074076
 31
0.0
  0
LINE
  5
7C
330
49
100
AcDbEntity
  8
LC-001-100-D00-0
 62
     7
370
    13
100
AcDbLine
 10
875.26485
 20
1440.998601
 30
0.0
 11
875.06485
 21
1440.998601
 31
0.0
  0
LINE
  5
7D
330
49
100
AcDbEntity
  8
LC-001-100-D00-0
 62
     7
370
    13
100
AcDbLine
 10
875.26485
 20
1395.006671
 30
0.0
 11
875.06485
 21
1395.006671
 31
0.0
  0
LINE
  5
7E
330
49
100
AcDbEntity
  8
LC-001-100-D00-0
 62
     7
370
    13
100
AcDbLine
 10
875.06485
 20
1431.215775
 30
0.0
 11
875.06485
 21
1429.509903
 31
0.0
  0
LINE
  5
7F
330
49
100
AcDbEntity
  8
LC-001-100-D00-0
 62
     7
370
    13
100
AcDbLine
 10
875.06485
 20
1433.009903
 30
0.0
 11
875.06485
 21
1431.215775
 31
0.0
  0
LINE
  5
80
330
49
100
AcDbEntity
  8
LC-001-100-D00-0
 62
     7
370
    13
100
AcDbLine
 10
875.26485
 20
1404.006686
 30
0.0
 11
875.06485
 21
1404.006686
 31
0.0
  0
LINE
  5
81
330
49
100
AcDbEntity
  8
LC-001-100-D00-0
 62
     7
370
    13
100
AcDbLine
 10
875.06485
 20
1440.998601
 30
0.0
 11
875.06485
 21
1440.648601
 31
0.0
  0
LINE
  5
82
330
49
100
AcDbEntity
  8
LC-001-100-D00-0
 62
     7
370
    13
100
AcDbLine
 10
875.06485
 20
1440.648601
 30
0.0
 11
875.06485
 21
1440.532014
 31
0.0
  0
LINE
  5
83
330
49
100
AcDbEntity
  8
LC-001-100-D00-0
 62
     7
370
    13
100
AcDbLine
 10
875.06485
 20
1441.074076
 30
0.0
 11
875.06485
 21
1440.998601
 31
0.0
  0
LINE
  5
84
330
49
100
AcDbEntity
  8
LC-001-100-D00-0
 62
     7
370
    13
100
AcDbLine
 10
875.06485
 20
1441.243675
 30
0.0
 11
875.06485
 21
1441.176131
 31
0.0
  0
LINE
  5
85
330
49
100
AcDbEntity
  8
LC-001-100-D00-0
 62
     7
370
    13
100
AcDbLine
 10
875.06485
 20
1441.176131
 30
0.0
 11
875.06485
 21
1441.074076
 31
0.0
  0
LINE
  5
86
330
49
100
AcDbEntity
  8
LC-001-100-D00-0
 62
     7
370
    13
100
AcDbLine
 10
875.06485
 20
1399.026975
 30
0.0
 11
875.06485
 21
1395.006671
 31
0.0
  0
LINE
  5
87
330
49
100
AcDbEntity
  8
LC-001-100-D00-0
 62
     7
370
    13
100
AcDbLine
 10
875.06485
 20
1404.006686
 30
0.0
 11
875.06485
 21
1399.026975
 31
0.0
  0
LINE
  5
88
330
49
100
AcDbEntity
  8
LC-001-100-D00-0
 62
     7
370
    13
100
AcDbLine
 10
875.06485
 20
1427.804031
 30
0.0
 11
875.06485
 21
1426.009903
 31
0.0
  0
LINE
  5
89
330
49
100
AcDbEntity
  8
LC-001-100-D00-0
 62
     7
370
    13
100
AcDbLine
 10
875.06485
 20
1440.176131
 30
0.0
 11
875.06485
 21
1440.043675
 31
0.0
  0
LINE
  5
8A
330
49
100
AcDbEntity
  8
LC-001-100-D00-0
 62
     7
370
    13
100
AcDbLine
 10
875.06485
 20
1439.865576
 30
0.0
 11
875.06485
 21
1439.687792
 31
0.0
  0
LINE
  5
8B
330
49
100
AcDbEntity
  8
LC-001-100-D00-0
 62
     7
370
    13
100
AcDbLine
 10
875.06485
 20
1440.043675
 30
0.0
 11
875.06485
 21
1439.865576
 31
0.0
  0
LINE
  5
8C
330
49
100
AcDbEntity
  8
LC-001-100-D00-0
 62
     7
370
    13
100
AcDbLine
 10
875.06485
 20
1439.687792
 30
0.0
 11
875.06485
 21
1439.565725
 31
0.0
  0
LINE
  5
8D
330
49
100
AcDbEntity
  8
LC-001-100-D00-0
 62
     7
370
    13
100
AcDbLine
 10
875.06485
 20
1439.565725
 30
0.0
 11
875.06485
 21
1439.509903
 31
0.0
  0
LINE
  5
8E
330
49
100
AcDbEntity
  8
LC-001-100-D00-0
 62
     7
370
    13
100
AcDbLine
 10
875.06485
 20
1461.945903
 30
0.0
 11
875.26485
 21
1461.945903
 31
0.0
  0
LINE
  5
8F
330
49
100
AcDbEntity
  8
LC-001-100-D00-0
 62
     7
370
    13
100
AcDbLine
 10
875.06485
 20
1461.945903
 30
0.0
 11
875.06485
 21
1461.320903
 31
0.0
  0
LINE
  5
90
330
49
100
AcDbEntity
  8
LC-001-100-D00-0
 62
     7
370
    13
100
AcDbLine
 10
875.26485
 20
1449.466544
 30
0.0
 11
875.06485
 21
1449.466544
 31
0.0
  0
LINE
  5
91
330
49
100
AcDbEntity
  8
LC-001-100-D00-0
 62
     7
370
    13
100
AcDbLine
 10
875.06485
 20
1461.320903
 30
0.0
 11
875.06485
 21
1459.820903
 31
0.0
  0
LINE
  5
92
330
49
100
AcDbEntity
  8
LC-001-100-D00-0
 62
     7
370
    35
100
AcDbLine
 10
875.26485
 20
1449.291544
 30
0.0
 11
875.06485
 21
1449.291544
 31
0.0
  0
LINE
  5
93
330
49
100
AcDbEntity
  8
LC-001-100-D00-0
 62
     7
370
    13
100
AcDbLine
 10
875.06485
 20
1449.291544
 30
0.0
 11
875.06485
 21
1447.39445
 31
0.0
  0
LINE
  5
94
330
49
100
AcDbEntity
  8
LC-001-100-D00-0
 62
     7
370
    13
100
AcDbLine
 10
875.06485
 20
1445.83975
 30
0.0
 11
875.06485
 21
1445.716544
 31
0.0
  0
LINE
  5
95
330
49
100
AcDbEntity
  8
LC-001-100-D00-0
 62
     7
370
    13
100
AcDbLine
 10
875.06485
 20
1447.39445
 30
0.0
 11
875.06485
 21
1445.893339
 31
0.0
  0
LINE
  5
96
330
49
100
AcDbEntity
  8
LC-001-100-D00-0
 62
     7
370
    13
100
AcDbLine
 10
875.26485
 20
1441.709903
 30
0.0
 11
875.06485
 21
1441.709903
 31
0.0
  0
LINE
  5
97
330
49
100
AcDbEntity
  8
LC-001-100-D00-0
 62
     7
370
    13
100
AcDbLine
 10
875.06485
 20
1445.716544
 30
0.0
 11
875.06485
 21
1443.141544
 31
0.0
  0
LINE
  5
98
330
49
100
AcDbEntity
  8
LC-001-100-D00-0
 62
     7
370
    13
100
AcDbLine
 10
875.26485
 20
1445.83975
 30
0.0
 11
875.06485
 21
1445.83975
 31
0.0
  0
LINE
  5
99
330
49
100
AcDbEntity
  8
LC-001-100-D00-0
 62
     7
370
    13
100
AcDbLine
 10
875.06485
 20
1443.141544
 30
0.0
 11
875.06485
 21
1442.616544
 31
0.0
  0
LINE
  5
9A
330
49
100
AcDbEntity
  8
LC-001-100-D00-0
 62
     7
370
    13
100
AcDbLine
 10
875.06485
 20
1441.879161
 30
0.0
 11
875.06485
 21
1441.709903
 31
0.0
  0
LINE
  5
9B
330
49
100
AcDbEntity
  8
LC-001-100-D00-0
 62
     7
370
    13
100
AcDbLine
 10
875.06485
 20
1441.709903
 30
0.0
 11
875.06485
 21
1441.65674
 31
0.0
  0
LINE
  5
9C
330
49
100
AcDbEntity
  8
LC-001-100-D00-0
 62
     7
370
    13
100
AcDbLine
 10
875.06485
 20
1441.65674
 30
0.0
 11
875.06485
 21
1441.600537
 31
0.0
  0
LINE
  5
9D
330
49
100
AcDbEntity
  8
LC-001-100-D00-0
 62
     7
370
    13
100
AcDbLine
 10
875.06485
 20
1441.600537
 30
0.0
 11
875.06485
 21
1441.493108
 31
0.0
  0
LINE
  5
9E
330
49
100
AcDbEntity
  8
LC-001-100-D00-0
 62
     7
370
    13
100
AcDbLine
 10
875.06485
 20
1441.493108
 30
0.0
 11
875.06485
 21
1441.326698
 31
0.0
  0
LINE
  5
9F
330
49
100
AcDbEntity
  8
LC-001-100-D00-0
 62
     7
370
    13
100
AcDbLine
 10
875.06485
 20
1441.879161
 30
0.0
 11
875.26485
 21
1441.879161
 31
0.0
  0
LINE
  5
A0
330
49
100
AcDbEntity
  8
LC-001-100-D00-0
 62
     7
370
    13
100
AcDbLine
 10
875.06485
 20
1442.616544
 30
0.0
 11
875.06485
 21
1441.965989
 31
0.0
  0
LINE
  5
A1
330
49
100
AcDbEntity
  8
LC-001-100-D00-0
 62
     7
370
    13
100
AcDbLine
 10
875.26485
 20
1456.945903
 30
0.0
 11
875.06485
 21
1456.945903
 31
0.0
  0
LINE
  5
A2
330
49
100
AcDbEntity
  8
LC-001-100-D00-0
 62
     7
370
    13
100
AcDbLine
 10
875.06485
 20
1440.35423
 30
0.0
 11
875.06485
 21
1440.176131
 31
0.0
  0
LINE
  5
A3
330
49
100
AcDbEntity
  8
LC-001-100-D00-0
 62
     7
370
    13
100
AcDbLine
 10
875.06485
 20
1440.532014
 30
0.0
 11
875.06485
 21
1440.35423
 31
0.0
  0
LINE
  5
A4
330
49
100
AcDbEntity
  8
LC-001-100-D00-0
 62
     7
370
    13
100
AcDbLine
 10
875.06485
 20
1459.820903
 30
0.0
 11
875.06485
 21
1459.195903
 31
0.0
  0
LINE
  5
A5
330
49
100
AcDbEntity
  8
LC-001-100-D00-0
 62
     7
370
    13
100
AcDbLine
 10
875.06485
 20
1459.195903
 30
0.0
 11
875.06485
 21
1457.570903
 31
0.0
  0
LINE
  5
A6
330
49
100
AcDbEntity
  8
LC-001-100-D00-0
 62
     7
370
    13
100
AcDbLine
 10
875.06485
 20
1457.570903
 30
0.0
 11
875.06485
 21
1456.945903
 31
0.0
  0
LINE
  5
A7
330
49
100
AcDbEntity
  8
LC-001-100-D00-0
 62
     7
370
    13
100
AcDbLine
 10
875.06485
 20
1449.291544
 30
0.0
 11
875.06485
 21
1449.466544
 31
0.0
  0
LINE
  5
A8
330
49
100
AcDbEntity
  8
LC-001-100-D00-0
 62
     7
370
    13
100
AcDbLine
 10
875.26485
 20
1442.616544
 30
0.0
 11
875.06485
 21
1442.616544
 31
0.0
  0
LINE
  5
A9
330
49
100
AcDbEntity
  8
LC-001-100-D00-0
 62
     7
370
    13
100
AcDbLine
 10
875.06485
 20
1441.326698
 30
0.0
 11
875.06485
 21
1441.243675
 31
0.0
  0
LINE
  5
AA
330
49
100
AcDbEntity
  8
LC-001-100-D00-0
 62
     7
370
    13
100
AcDbLine
 10
875.06485
 20
1459.195903
 30
0.0
 11
875.26485
 21
1459.195903
 31
0.0
  0
LINE
  5
AB
330
49
100
AcDbEntity
  8
LC-001-100-D00-0
 62
     7
370
    13
100
AcDbLine
 10
875.06485
 20
1429.509903
 30
0.0
 11
875.06485
 21
1427.804031
 31
0.0
  0
LINE
  5
AC
330
49
100
AcDbEntity
  8
LC-001-100-D00-0
 62
     7
370
    13
100
AcDbLine
 10
875.26485
 20
1449.291544
 30
0.0
 11
875.26485
 21
1449.466544
 31
0.0
  0
LINE
  5
AD
330
49
100
AcDbEntity
  8
LC-001-100-D00-0
 62
     7
370
    13
100
AcDbLine
 10
875.26485
 20
1449.466544
 30
0.0
 11
875.26485
 21
1450.456186
 31
0.0
  0
LINE
  5
AE
330
49
100
AcDbEntity
  8
LC-001-100-D00-0
 62
     7
370
    13
100
AcDbLine
 10
875.26485
 20
1447.39445
 30
0.0
 11
875.26485
 21
1449.291544
 31
0.0
  0
LINE
  5
AF
330
49
100
AcDbEntity
  8
LC-001-100-D00-0
 62
     7
370
    13
100
AcDbLine
 10
875.26485
 20
1450.456186
 30
0.0
 11
875.26485
 21
1452.509903
 31
0.0
  0
LINE
  5
B0
330
49
100
AcDbEntity
  8
LC-001-100-D00-0
 62
     7
370
    13
100
AcDbLine
 10
875.26485
 20
1456.945903
 30
0.0
 11
875.26485
 21
1457.570903
 31
0.0
  0
LINE
  5
B1
330
49
100
AcDbEntity
  8
LC-001-100-D00-0
 62
     7
370
    13
100
AcDbLine
 10
875.26485
 20
1457.570903
 30
0.0
 11
875.26485
 21
1459.195903
 31
0.0
  0
LINE
  5
B2
330
49
100
AcDbEntity
  8
LC-001-100-D00-0
 62
     7
370
    13
100
AcDbLine
 10
875.26485
 20
1459.195903
 30
0.0
 11
875.26485
 21
1459.820903
 31
0.0
  0
LINE
  5
B3
330
49
100
AcDbEntity
  8
LC-001-100-D00-0
 62
     7
370
    13
100
AcDbLine
 10
875.26485
 20
1459.820903
 30
0.0
 11
875.26485
 21
1461.320903
 31
0.0
  0
LINE
  5
B4
330
49
100
AcDbEntity
  8
LC-001-100-D00-0
 62
     7
370
    13
100
AcDbLine
 10
875.26485
 20
1461.320903
 30
0.0
 11
875.26485
 21
1461.945903
 31
0.0
  0
LINE
  5
B5
330
49
100
AcDbEntity
  8
LC-001-100-D00-0
 62
     7
370
    13
100
AcDbLine
 10
875.26485
 20
1461.945903
 30
0.0
 11
875.26485
 21
1466.509903
 31
0.0
  0
LINE
  5
B6
330
49
100
AcDbEntity
  8
LC-001-100-D00-0
 62
     7
370
    13
100
AcDbLine
 10
875.26485
 20
1445.893339
 30
0.0
 11
875.26485
 21
1447.39445
 31
0.0
  0
LINE
  5
B7
330
49
100
AcDbEntity
  8
LC-001-100-D00-0
 62
     7
370
    13
100
AcDbLine
 10
875.26485
 20
1445.83975
 30
0.0
 11
875.26485
 21
1445.893339
 31
0.0
  0
LINE
  5
B8
330
49
100
AcDbEntity
  8
LC-001-100-D00-0
 62
     7
370
    13
100
AcDbLine
 10
875.26485
 20
1443.141544
 30
0.0
 11
875.26485
 21
1445.716544
 31
0.0
  0
LINE
  5
B9
330
49
100
AcDbEntity
  8
LC-001-100-D00-0
 62
     7
370
    13
100
AcDbLine
 10
875.26485
 20
1445.716544
 30
0.0
 11
875.26485
 21
1445.83975
 31
0.0
  0
LINE
  5
BA
330
49
100
AcDbEntity
  8
LC-001-100-D00-0
 62
     7
370
    13
100
AcDbLine
 10
875.26485
 20
1442.616544
 30
0.0
 11
875.26485
 21
1443.141544
 31
0.0
  0
LINE
  5
BB
330
49
100
AcDbEntity
  8
LC-001-100-D00-0
 62
     7
370
    13
100
AcDbLine
 10
875.26485
 20
1441.879161
 30
0.0
 11
875.26485
 21
1441.965989
 31
0.0
  0
LINE
  5
BC
330
49
100
AcDbEntity
  8
LC-001-100-D00-0
 62
     7
370
    13
100
AcDbLine
 10
875.26485
 20
1441.65674
 30
0.0
 11
875.26485
 21
1441.709903
 31
0.0
  0
LINE
  5
BD
330
49
100
AcDbEntity
  8
LC-001-100-D00-0
 62
     7
370
    13
100
AcDbLine
 10
875.26485
 20
1441.600537
 30
0.0
 11
875.26485
 21
1441.65674
 31
0.0
  0
LINE
  5
BE
330
49
100
AcDbEntity
  8
LC-001-100-D00-0
 62
     7
370
    13
100
AcDbLine
 10
875.26485
 20
1441.709903
 30
0.0
 11
875.26485
 21
1441.879161
 31
0.0
  0
LINE
  5
BF
330
49
100
AcDbEntity
  8
LC-001-100-D00-0
 62
     7
370
    13
100
AcDbLine
 10
875.26485
 20
1441.965989
 30
0.0
 11
875.26485
 21
1442.616544
 31
0.0
  0
LINE
  5
C0
330
49
100
AcDbEntity
  8
LC-001-100-D00-0
 62
     7
370
    13
100
AcDbLine
 10
875.26485
 20
1466.509903
 30
0.0
 11
875.26485
 21
1474.509903
 31
0.0
  0
LINE
  5
C1
330
49
100
AcDbEntity
  8
LC-001-100-D00-0
 62
     7
370
    13
100
AcDbLine
 10
875.26485
 20
1452.509903
 30
0.0
 11
875.26485
 21
1456.945903
 31
0.0
  0
LINE
  5
C2
330
49
100
AcDbEntity
  8
LC-001-100-D00-0
 62
     7
370
    13
100
AcDbLine
 10
875.26485
 20
1429.509903
 30
0.0
 11
875.26485
 21
1433.009903
 31
0.0
  0
LINE
  5
C3
330
49
100
AcDbEntity
  8
LC-001-100-D00-0
 62
     7
370
    13
100
AcDbLine
 10
875.26485
 20
1439.509903
 30
0.0
 11
875.26485
 21
1439.565725
 31
0.0
  0
LINE
  5
C4
330
49
100
AcDbEntity
  8
LC-001-100-D00-0
 62
     7
370
    13
100
AcDbLine
 10
875.26485
 20
1433.009903
 30
0.0
 11
875.26485
 21
1439.509903
 31
0.0
  0
LINE
  5
C5
330
49
100
AcDbEntity
  8
LC-001-100-D00-0
 62
     7
370
    13
100
AcDbLine
 10
875.26485
 20
1439.687792
 30
0.0
 11
875.26485
 21
1439.865576
 31
0.0
  0
LINE
  5
C6
330
49
100
AcDbEntity
  8
LC-001-100-D00-0
 62
     7
370
    13
100
AcDbLine
 10
875.26485
 20
1439.565725
 30
0.0
 11
875.26485
 21
1439.687792
 31
0.0
  0
LINE
  5
C7
330
49
100
AcDbEntity
  8
LC-001-100-D00-0
 62
     7
370
    13
100
AcDbLine
 10
875.26485
 20
1439.865576
 30
0.0
 11
875.26485
 21
1440.043675
 31
0.0
  0
LINE
  5
C8
330
49
100
AcDbEntity
  8
LC-001-100-D00-0
 62
     7
370
    13
100
AcDbLine
 10
875.26485
 20
1440.176131
 30
0.0
 11
875.26485
 21
1440.35423
 31
0.0
  0
LINE
  5
C9
330
49
100
AcDbEntity
  8
LC-001-100-D00-0
 62
     7
370
    13
100
AcDbLine
 10
875.26485
 20
1440.043675
 30
0.0
 11
875.26485
 21
1440.176131
 31
0.0
  0
LINE
  5
CA
330
49
100
AcDbEntity
  8
LC-001-100-D00-0
 62
     7
370
    13
100
AcDbLine
 10
875.26485
 20
1440.648601
 30
0.0
 11
875.26485
 21
1440.998601
 31
0.0
  0
LINE
  5
CB
330
49
100
AcDbEntity
  8
LC-001-100-D00-0
 62
     7
370
    13
100
AcDbLine
 10
875.26485
 20
1440.998601
 30
0.0
 11
875.26485
 21
1441.074076
 31
0.0
  0
LINE
  5
CC
330
49
100
AcDbEntity
  8
LC-001-100-D00-0
 62
     7
370
    13
100
AcDbLine
 10
875.26485
 20
1440.532014
 30
0.0
 11
875.26485
 21
1440.648601
 31
0.0
  0
LINE
  5
CD
330
49
100
AcDbEntity
  8
LC-001-100-D00-0
 62
     7
370
    13
100
AcDbLine
 10
875.26485
 20
1441.074076
 30
0.0
 11
875.26485
 21
1441.176131
 31
0.0
  0
LINE
  5
CE
330
49
100
AcDbEntity
  8
LC-001-100-D00-0
 62
     7
370
    13
100
AcDbLine
 10
875.26485
 20
1441.326698
 30
0.0
 11
875.26485
 21
1441.493108
 31
0.0
  0
LINE
  5
CF
330
49
100
AcDbEntity
  8
LC-001-100-D00-0
 62
     7
370
    13
100
AcDbLine
 10
875.26485
 20
1441.176131
 30
0.0
 11
875.26485
 21
1441.243675
 31
0.0
  0
LINE
  5
D0
330
49
100
AcDbEntity
  8
LC-001-100-D00-0
 62
     7
370
    13
100
AcDbLine
 10
875.26485
 20
1441.243675
 30
0.0
 11
875.26485
 21
1441.326698
 31
0.0
  0
LINE
  5
D1
330
49
100
AcDbEntity
  8
LC-001-100-D00-0
 62
     7
370
    13
100
AcDbLine
 10
875.26485
 20
1440.35423
 30
0.0
 11
875.26485
 21
1440.532014
 31
0.0
  0
LINE
  5
D2
330
49
100
AcDbEntity
  8
LC-001-100-D00-0
 62
     7
370
    13
100
AcDbLine
 10
875.26485
 20
1441.493108
 30
0.0
 11
875.26485
 21
1441.600537
 31
0.0
  0
LINE
  5
D3
330
49
100
AcDbEntity
  8
LC-001-100-D00-0
 62
     7
370
    13
100
AcDbLine
 10
875.26485
 20
1395.006671
 30
0.0
 11
875.26485
 21
1404.006686
 31
0.0
  0
LINE
  5
D4
330
49
100
AcDbEntity
  8
LC-001-100-D00-0
 62
     7
370
    13
100
AcDbLine
 10
875.26485
 20
1406.509903
 30
0.0
 11
875.26485
 21
1408.56362
 31
0.0
  0
LINE
  5
D5
330
49
100
AcDbEntity
  8
LC-001-100-D00-0
 62
     7
370
    13
100
AcDbLine
 10
875.26485
 20
1426.009903
 30
0.0
 11
875.26485
 21
1429.509903
 31
0.0
  0
LINE
  5
D6
330
49
100
AcDbEntity
  8
LC-001-100-D00-0
 62
     7
370
    13
100
AcDbLine
 10
875.26485
 20
1392.509903
 30
0.0
 11
875.26485
 21
1395.006671
 31
0.0
  0
LINE
  5
D7
330
49
100
AcDbEntity
  8
LC-001-100-D00-0
 62
     7
370
    13
100
AcDbLine
 10
875.26485
 20
1404.006686
 30
0.0
 11
875.26485
 21
1406.509903
 31
0.0
  0
LINE
  5
D8
330
49
100
AcDbEntity
  8
LC-001-100-D00-0
 62
     7
370
    13
100
AcDbLine
 10
875.26485
 20
1384.509903
 30
0.0
 11
875.26485
 21
1374.509903
 31
0.0
  0
LINE
  5
D9
330
49
100
AcDbEntity
  8
LC-001-100-D00-0
 62
     7
370
    13
100
AcDbLine
 10
875.26485
 20
1484.509903
 30
0.0
 11
875.26485
 21
1474.509903
 31
0.0
  0
LINE
  5
DA
330
49
100
AcDbEntity
  8
LC-001-100-D00-0
 62
     7
370
    13
100
AcDbLine
 10
875.26485
 20
1408.56362
 30
0.0
 11
875.26485
 21
1426.009903
 31
0.0
  0
LINE
  5
DB
330
49
100
AcDbEntity
  8
LC-001-100-D00-0
 62
     7
370
    13
100
AcDbLine
 10
874.965992
 20
1450.782333
 30
0.0
 11
875.26485
 21
1450.456186
 31
0.0
  0
LINE
  5
DC
330
49
100
AcDbEntity
  8
LC-001-100-D00-0
 62
     7
370
    13
100
AcDbLine
 10
850.76485
 20
1474.509903
 30
0.0
 11
850.26485
 21
1474.509903
 31
0.0
  0
LINE
  5
DD
330
49
100
AcDbEntity
  8
LC-001-100-D00-0
 62
     7
370
    13
100
AcDbLine
 10
850.26485
 20
1474.509903
 30
0.0
 11
850.26485
 21
1466.509903
 31
0.0
  0
LINE
  5
DE
330
49
100
AcDbEntity
  8
LC-001-100-D00-0
 62
     7
370
    13
100
AcDbLine
 10
850.76485
 20
1466.509903
 30
0.0
 11
850.26485
 21
1466.509903
 31
0.0
  0
LINE
  5
DF
330
49
100
AcDbEntity
  8
LC-001-100-D00-0
 62
     7
370
    13
100
AcDbLine
 10
857.903006
 20
1466.509903
 30
0.0
 11
853.039683
 21
1466.509903
 31
0.0
  0
LINE
  5
E0
330
49
100
AcDbEntity
  8
LC-001-100-D00-0
 62
     7
370
    13
100
AcDbLine
 10
873.207664
 20
1466.509903
 30
0.0
 11
875.26485
 21
1466.509903
 31
0.0
  0
LINE
  5
E1
330
49
100
AcDbEntity
  8
LC-001-100-D00-0
 62
     7
370
    35
100
AcDbLine
 10
850.76485
 20
1474.509903
 30
0.0
 11
850.76485
 21
1466.509903
 31
0.0
  0
LINE
  5
E2
330
49
100
AcDbEntity
  8
LC-001-100-D00-0
 62
     7
370
    35
100
AcDbLine
 10
853.039683
 20
1466.509903
 30
0.0
 11
853.039683
 21
1474.509903
 31
0.0
  0
LINE
  5
E3
330
49
100
AcDbEntity
  8
LC-001-100-D00-0
 62
     7
370
    13
100
AcDbLine
 10
850.76485
 20
1466.509903
 30
0.0
 11
851.318954
 21
1466.509903
 31
0.0
  0
LINE
  5
E4
330
49
100
AcDbEntity
  8
LC-001-100-D00-0
 62
     7
370
    13
100
AcDbLine
 10
857.903006
 20
1474.509903
 30
0.0
 11
853.039683
 21
1474.509903
 31
0.0
  0
LINE
  5
E5
330
49
100
AcDbEntity
  8
LC-001-100-D00-0
 62
     7
370
    13
100
AcDbLine
 10
850.76485
 20
1474.509903
 30
0.0
 11
851.318954
 21
1474.509903
 31
0.0
  0
LINE
  5
E6
330
49
100
AcDbEntity
  8
LC-001-100-D00-0
 62
     7
370
    13
100
AcDbLine
 10
873.207664
 20
1474.509903
 30
0.0
 11
875.26485
 21
1474.509903
 31
0.0
  0
LINE
  5
E7
330
49
100
AcDbEntity
  8
LC-001-100-D00-0
 62
     7
370
    35
100
AcDbLine
 10
875.26485
 20
1474.509903
 30
0.0
 11
876.461002
 21
1474.509903
 31
0.0
  0
LINE
  5
E8
330
49
100
AcDbEntity
  8
LC-001-100-D00-0
 62
     7
370
    13
100
AcDbLine
 10
857.903006
 20
1474.509903
 30
0.0
 11
872.083844
 21
1474.509903
 31
0.0
  0
LINE
  5
E9
330
49
100
AcDbEntity
  8
LC-001-100-D00-0
 62
     7
370
    13
100
AcDbLine
 10
857.903006
 20
1466.509903
 30
0.0
 11
872.083844
 21
1466.509903
 31
0.0
  0
LINE
  5
EA
330
49
100
AcDbEntity
  8
LC-001-100-D00-0
 62
     7
370
    13
100
AcDbLine
 10
857.903006
 20
1474.509903
 30
0.0
 11
857.903006
 21
1466.509903
 31
0.0
  0
LINE
  5
EB
330
49
100
AcDbEntity
  8
LC-001-100-D00-0
 62
     7
370
    13
100
AcDbLine
 10
853.039683
 20
1466.509903
 30
0.0
 11
851.318954
 21
1466.509903
 31
0.0
  0
LINE
  5
EC
330
49
100
AcDbEntity
  8
LC-001-100-D00-0
 62
     7
370
    35
100
AcDbLine
 10
851.318954
 20
1466.509903
 30
0.0
 11
851.318954
 21
1474.509903
 31
0.0
  0
LINE
  5
ED
330
49
100
AcDbEntity
  8
LC-001-100-D00-0
 62
     7
370
    13
100
AcDbLine
 10
873.207664
 20
1474.509903
 30
0.0
 11
872.083844
 21
1474.509903
 31
0.0
  0
LINE
  5
EE
330
49
100
AcDbEntity
  8
LC-001-100-D00-0
 62
     7
370
    13
100
AcDbLine
 10
872.083844
 20
1466.509903
 30
0.0
 11
873.207664
 21
1466.509903
 31
0.0
  0
LINE
  5
EF
330
49
100
AcDbEntity
  8
LC-001-100-D00-0
 62
     7
370
    35
100
AcDbLine
 10
872.083844
 20
1466.509903
 30
0.0
 11
872.083844
 21
1474.509903
 31
0.0
  0
LINE
  5
F0
330
49
100
AcDbEntity
  8
LC-001-100-D00-0
 62
     7
370
    35
100
AcDbLine
 10
873.207664
 20
1466.509903
 30
0.0
 11
873.207664
 21
1474.509903
 31
0.0
  0
LINE
  5
F1
330
49
100
AcDbEntity
  8
LC-001-100-D00-0
 62
     7
370
    13
100
AcDbLine
 10
876.461002
 20
1384.509903
 30
0.0
 11
876.461002
 21
1474.509903
 31
0.0
  0
LINE
  5
F2
330
49
100
AcDbEntity
  8
LC-001-100-D00-0
 62
     7
370
    13
100
AcDbLine
 10
850.26485
 20
1392.509903
 30
0.0
 11
850.26485
 21
1384.509903
 31
0.0
  0
LINE
  5
F3
330
49
100
AcDbEntity
  8
LC-001-100-D00-0
 62
     7
370
    13
100
AcDbLine
 10
850.76485
 20
1384.509903
 30
0.0
 11
850.26485
 21
1384.509903
 31
0.0
  0
LINE
  5
F4
330
49
100
AcDbEntity
  8
LC-001-100-D00-0
 62
     7
370
    13
100
AcDbLine
 10
850.76485
 20
1392.509903
 30
0.0
 11
850.26485
 21
1392.509903
 31
0.0
  0
LINE
  5
F5
330
49
100
AcDbEntity
  8
LC-001-100-D00-0
 62
     7
370
    35
100
AcDbLine
 10
851.318954
 20
1392.509903
 30
0.0
 11
851.318954
 21
1384.509903
 31
0.0
  0
LINE
  5
F6
330
49
100
AcDbEntity
  8
LC-001-100-D00-0
 62
     7
370
    35
100
AcDbLine
 10
853.039683
 20
1392.509903
 30
0.0
 11
853.039683
 21
1384.509903
 31
0.0
  0
LINE
  5
F7
330
49
100
AcDbEntity
  8
LC-001-100-D00-0
 62
     7
370
    35
100
AcDbLine
 10
850.76485
 20
1392.509903
 30
0.0
 11
850.76485
 21
1384.509903
 31
0.0
  0
LINE
  5
F8
330
49
100
AcDbEntity
  8
LC-001-100-D00-0
 62
     7
370
    13
100
AcDbLine
 10
853.039683
 20
1384.509903
 30
0.0
 11
851.318954
 21
1384.509903
 31
0.0
  0
LINE
  5
F9
330
49
100
AcDbEntity
  8
LC-001-100-D00-0
 62
     7
370
    13
100
AcDbLine
 10
857.903006
 20
1384.509903
 30
0.0
 11
853.039683
 21
1384.509903
 31
0.0
  0
LINE
  5
FA
330
49
100
AcDbEntity
  8
LC-001-100-D00-0
 62
     7
370
    13
100
AcDbLine
 10
853.039683
 20
1392.509903
 30
0.0
 11
851.318954
 21
1392.509903
 31
0.0
  0
LINE
  5
FB
330
49
100
AcDbEntity
  8
LC-001-100-D00-0
 62
     7
370
    13
100
AcDbLine
 10
857.903006
 20
1392.509903
 30
0.0
 11
853.039683
 21
1392.509903
 31
0.0
  0
LINE
  5
FC
330
49
100
AcDbEntity
  8
LC-001-100-D00-0
 62
     7
370
    13
100
AcDbLine
 10
850.76485
 20
1392.509903
 30
0.0
 11
851.318954
 21
1392.509903
 31
0.0
  0
LINE
  5
FD
330
49
100
AcDbEntity
  8
LC-001-100-D00-0
 62
     7
370
    13
100
AcDbLine
 10
850.76485
 20
1384.509903
 30
0.0
 11
851.318954
 21
1384.509903
 31
0.0
  0
LINE
  5
FE
330
49
100
AcDbEntity
  8
LC-001-100-D00-0
 62
     7
370
    13
100
AcDbLine
 10
873.207664
 20
1384.509903
 30
0.0
 11
872.083844
 21
1384.509903
 31
0.0
  0
LINE
  5
FF
330
49
100
AcDbEntity
  8
LC-001-100-D00-0
 62
     7
370
    13
100
AcDbLine
 10
872.083844
 20
1392.509903
 30
0.0
 11
873.207664
 21
1392.509903
 31
0.0
  0
LINE
  5
100
330
49
100
AcDbEntity
  8
LC-001-100-D00-0
 62
     7
370
    13
100
AcDbLine
 10
873.207664
 20
1392.509903
 30
0.0
 11
875.26485
 21
1392.509903
 31
0.0
  0
LINE
  5
101
330
49
100
AcDbEntity
  8
LC-001-100-D00-0
 62
     7
370
    35
100
AcDbLine
 10
872.083844
 20
1384.509903
 30
0.0
 11
872.083844
 21
1392.509903
 31
0.0
  0
LINE
  5
102
330
49
100
AcDbEntity
  8
LC-001-100-D00-0
 62
     7
370
    13
100
AcDbLine
 10
873.207664
 20
1384.509903
 30
0.0
 11
875.26485
 21
1384.509903
 31
0.0
  0
LINE
  5
103
330
49
100
AcDbEntity
  8
LC-001-100-D00-0
 62
     7
370
    35
100
AcDbLine
 10
873.207664
 20
1384.509903
 30
0.0
 11
873.207664
 21
1392.509903
 31
0.0
  0
LINE
  5
104
330
49
100
AcDbEntity
  8
LC-001-100-D00-0
 62
     7
370
    13
100
AcDbLine
 10
875.26485
 20
1384.509903
 30
0.0
 11
875.26485
 21
1392.509903
 31
0.0
  0
LINE
  5
105
330
49
100
AcDbEntity
  8
LC-001-100-D00-0
 62
     7
370
    13
100
AcDbLine
 10
857.903006
 20
1392.509903
 30
0.0
 11
872.083844
 21
1392.509903
 31
0.0
  0
LINE
  5
106
330
49
100
AcDbEntity
  8
LC-001-100-D00-0
 62
     7
370
    35
100
AcDbLine
 10
875.26485
 20
1384.509903
 30
0.0
 11
876.461002
 21
1384.509903
 31
0.0
  0
LINE
  5
107
330
49
100
AcDbEntity
  8
LC-001-100-D00-0
 62
     7
370
    35
100
AcDbLine
 10
877.26485
 20
1384.509903
 30
0.0
 11
876.461002
 21
1384.509903
 31
0.0
  0
LINE
  5
108
330
49
100
AcDbEntity
  8
LC-001-100-D00-0
 62
     7
370
    13
100
AcDbLine
 10
857.903006
 20
1384.509903
 30
0.0
 11
857.903006
 21
1392.509903
 31
0.0
  0
LINE
  5
109
330
49
100
AcDbEntity
  8
LC-001-100-D00-0
 62
     7
370
    13
100
AcDbLine
 10
857.903006
 20
1384.509903
 30
0.0
 11
872.083844
 21
1384.509903
 31
0.0
  0
LINE
  5
10A
330
49
100
AcDbEntity
  8
LC-001-100-D00-0
 62
     7
370
    13
100
AcDbLine
 10
877.26485
 20
1481.509903
 30
0.0
 11
876.461002
 21
1484.509903
 31
0.0
  0
ARC
  5
10B
330
49
100
AcDbEntity
  8
LC-001-100-D00-0
 62
     7
370
    13
100
AcDbCircle
 10
879.76485
 20
1429.509903
 30
0.0
 40
5.000000000000029
100
AcDbArc
 50
160.051556
 51
180.0
  0
ARC
  5
10C
330
49
100
AcDbEntity
  8
LC-001-100-D00-0
 62
     7
370
    13
100
AcDbCircle
 10
879.76485
 20
1429.509903
 30
0.0
 40
4.999999999999886
100
AcDbArc
 50
180.0
 51
199.948444
  0
ENDBLK
  5
4B
330
49
100
AcDbEntity
  8
0
100
AcDbBlockEnd
  0
BLOCK
  5
11D
330
113
100
AcDbEntity
  8
0
100
AcDbBlockBegin
  2
*D4
 70
     1
 71
     0
 10
0.0
 20
0.0
 30
0.0
  3
*D4
  1

  0
LINE
  5
114
330
113
100
AcDbEntity
  8
LC-002-003-----0
 62
     2
370
    -2
100
AcDbLine
 10
720.264853
 20
1474.509903
 30
0.0
 11
720.264853
 21
1507.567644
 31
0.0
  0
LINE
  5
115
330
113
100
AcDbEntity
  8
LC-002-003-----0
 62
     2
370
    -2
100
AcDbLine
 10
830.264853
 20
1474.509903
 30
0.0
 11
830.264853
 21
1507.567644
 31
0.0
  0
LINE
  5
116
330
113
100
AcDbEntity
  8
LC-002-003-----0
 62
     2
370
    -2
100
AcDbLine
 10
748.264853
 20
1503.967644
 30
0.0
 11
802.264853
 21
1503.967644
 31
0.0
  0
SOLID
  5
117
330
113
100
AcDbEntity
  8
LC-002-003-----0
 62
     2
100
AcDbTrace
 10
748.264853
 20
1508.634311
 30
0.0
 11
748.264853
 21
1499.300977
 31
0.0
 12
720.264853
 22
1503.967644
 32
0.0
 13
720.264853
 23
1503.967644
 33
0.0
  0
SOLID
  5
118
330
113
100
AcDbEntity
  8
LC-002-003-----0
 62
     2
100
AcDbTrace
 10
802.264853
 20
1499.300977
 30
0.0
 11
802.264853
 21
1508.634311
 31
0.0
 12
830.264853
 22
1503.967644
 32
0.0
 13
830.264853
 23
1503.967644
 33
0.0
  0
MTEXT
  5
119
330
113
100
AcDbEntity
  8
LC-002-003-----0
 62
     2
100
AcDbMText
 10
774.264037
 20
1534.767644
 30
0.0
 40
28.0
 41
0.0
 71
     5
 72
     1
  1
\A1;110
  7
LCTX15-400-0-0pDIN-Schrift
 73
     1
 44
1.0
  0
POINT
  5
11A
330
113
100
AcDbEntity
  8
Defpoints
 62
     0
100
AcDbPoint
 10
720.264853
 20
1474.509903
 30
0.0
  0
POINT
  5
11B
330
113
100
AcDbEntity
  8
Defpoints
 62
     0
100
AcDbPoint
 10
830.264853
 20
1474.509903
 30
0.0
  0
POINT
  5
11C
330
113
100
AcDbEntity
  8
Defpoints
 62
     0
100
AcDbPoint
 10
830.264853
 20
1503.967644
 30
0.0
  0
ENDBLK
  5
11E
330
113
100
AcDbEntity
  8
0
100
AcDbBlockEnd
  0
ENDSEC
  0
SECTION
  2
ENTITIES
  0
INSERT
  5
48
330
1F
100
AcDbEntity
  8
LC-001-100-D00-0
 62
     7
370
    50
100
AcDbBlockReference
  2
KLON1
 10
0.0
 20
0.0
 30
0.0
  0
INSERT
  5
10D
102
{ACAD_REACTORS
330
11F
102
}
330
1F
100
AcDbEntity
  8
LC-001-100-D00-0
 62
     7
370
    50
100
AcDbBlockReference
  2
KLON3
 10
0.0
 20
0.0
 30
0.0
  0
DIMENSION
  5
111
330
1F
100
AcDbEntity
  8
LC-002-003-----0
 62
     7
370
    25
100
AcDbDimension
  2
*D4
 10
830.264853
 20
1503.967644
 30
0.0
 11
774.264037
 21
1534.767644
 31
0.0
 70
   160
 71
     5
 42
110.0
  3
LC-DIM-L-0140-02-02
100
AcDbAlignedDimension
 13
720.264853
 23
1474.509903
 33
0.0
 14
830.264853
 24
1474.509903
 34
0.0
100
AcDbRotatedDimension
  0
ENDSEC
  0
SECTION
  2
OBJECTS
  0
DICTIONARY
  5
C
330
0
100
AcDbDictionary
281
     1
  3
ACAD_GROUP
350
D
  3
ACAD_LAYOUT
350
1A
  3
ACAD_MLINESTYLE
350
17
  3
ACAD_PLOTSETTINGS
350
19
  3
ACAD_PLOTSTYLENAME
350
E
  0
DICTIONARY
  5
D
102
{ACAD_REACTORS
330
C
102
}
330
C
100
AcDbDictionary
281
     1
  3
LCGROUP215
350
11F
  0
DICTIONARY
  5
1A
102
{ACAD_REACTORS
330
C
102
}
330
C
100
AcDbDictionary
281
     1
  3
Layout1
350
1E
  3
Layout2
350
26
  3
Model
350
22
  0
DICTIONARY
  5
17
102
{ACAD_REACTORS
330
C
102
}
330
C
100
AcDbDictionary
281
     1
  3
Standard
350
18
  0
DICTIONARY
  5
19
102
{ACAD_REACTORS
330
C
102
}
330
C
100
AcDbDictionary
281
     1
  0
ACDBDICTIONARYWDFLT
  5
E
102
{ACAD_REACTORS
330
C
102
}
330
C
100
AcDbDictionary
281
     1
  3
Normal
350
F
100
AcDbDictionaryWithDefault
340
F
  0
GROUP
  5
11F
102
{ACAD_REACTORS
330
D
102
}
330
D
100
AcDbGroup
300
SA_links1-LCMaster-LCGROUP44
 70
     1
 71
     1
340
10D
  0
LAYOUT
  5
1E
102
{ACAD_REACTORS
330
1A
102
}
330
1A
100
AcDbPlotSettings
  1

  2

  4

  6

 40
0.0
 41
0.0
 42
0.0
 43
0.0
 44
0.0
 45
0.0
 46
0.0
 47
0.0
 48
0.0
 49
0.0
140
0.0
141
0.0
142
1.0
143
1.0
 70
   688
 72
     0
 73
     0
 74
     5
  7

 75
    16
147
1.0
148
0.0
149
0.0
100
AcDbLayout
  1
Layout1
 70
     1
 71
     1
 10
374.536423
 20
1128.294759
 11
1214.536423
 21
1722.294759
 12
0.0
 22
0.0
 32
0.0
 14
374.536423
 24
1128.294759
 34
0.0
 15
1214.536423
 25
1722.294759
 35
0.0
146
0.0
 13
0.0
 23
0.0
 33
0.0
 16
1.0
 26
0.0
 36
0.0
 17
0.0
 27
1.0
 37
0.0
 76
     0
330
1B
  0
LAYOUT
  5
26
102
{ACAD_REACTORS
330
1A
102
}
330
1A
100
AcDbPlotSettings
  1

  2

  4

  6

 40
0.0
 41
0.0
 42
0.0
 43
0.0
 44
0.0
 45
0.0
 46
0.0
 47
0.0
 48
0.0
 49
0.0
140
0.0
141
0.0
142
1.0
143
1.0
 70
   688
 72
     0
 73
     0
 74
     5
  7

 75
    16
147
1.0
148
0.0
149
0.0
100
AcDbLayout
  1
Layout2
 70
     1
 71
     2
 10
0.0
 20
0.0
 11
0.0
 21
0.0
 12
0.0
 22
0.0
 32
0.0
 14
0.0
 24
0.0
 34
0.0
 15
0.0
 25
0.0
 35
0.0
146
0.0
 13
0.0
 23
0.0
 33
0.0
 16
1.0
 26
0.0
 36
0.0
 17
0.0
 27
1.0
 37
0.0
 76
     0
330
23
  0
LAYOUT
  5
22
102
{ACAD_REACTORS
330
1A
102
}
330
1A
100
AcDbPlotSettings
  1

  2

  4

  6

 40
0.0
 41
0.0
 42
0.0
 43
0.0
 44
0.0
 45
0.0
 46
0.0
 47
0.0
 48
0.0
 49
0.0
140
0.0
141
0.0
142
1.0
143
1.0
 70
  1776
 72
     0
 73
     0
 74
     0
  7

 75
     0
147
1.0
148
0.0
149
0.0
100
AcDbLayout
  1
Model
 70
     1
 71
     0
 10
374.536423
 20
1128.294759
 11
1214.536423
 21
1722.294759
 12
374.536423
 22
1128.294759
 32
0.0
 14
374.536423
 24
1128.294759
 34
0.0
 15
1214.536423
 25
1722.294759
 35
0.0
146
0.0
 13
0.0
 23
0.0
 33
0.0
 16
1.0
 26
0.0
 36
0.0
 17
0.0
 27
1.0
 37
0.0
 76
     0
330
1F
  0
MLINESTYLE
  5
18
102
{ACAD_REACTORS
330
17
102
}
330
17
100
AcDbMlineStyle
  2
Standard
 70
     0
  3

 62
   256
 51
90.0
 52
90.0
 71
     2
 49
0.5
 62
   256
  6
BYLAYER
 49
-0.5
 62
   256
  6
BYLAYER
  0
ACDBPLACEHOLDER
  5
F
102
{ACAD_REACTORS
330
E
102
}
330
E
  0
ENDSEC
  0
EOF
