  0
SECTION
  2
HEADER
  9
$ACADVER
  1
AC1009
  9
$INSBASE
 10
0.0
 20
0.0
 30
0.0
  9
$EXTMIN
 10
0.0
 20
0.0
 30
0.0
  9
$EXTMAX
 10
840.0
 20
594.0
 30
0.0
  9
$LIMMIN
 10
0.0
 20
0.0
  9
$LIMMAX
 10
840.0
 20
594.0
  9
$ORTHOMODE
 70
     0
  9
$REGENMODE
 70
     1
  9
$FILLMODE
 70
     1
  9
$QTEXTMODE
 70
     0
  9
$MIRRTEXT
 70
     1
  9
$DRAGMODE
 70
     2
  9
$LTSCALE
 40
2.0
  9
$OSMODE
 70
     0
  9
$ATTMODE
 70
     1
  9
$TEXTSIZE
 40
0.2
  9
$TRACEWID
 40
0.05
  9
$TEXTSTYLE
  7
STANDARD
  9
$CLAYER
  8
0
  9
$CELTYPE
  6
BYLAYER
  9
$CECOLOR
 62
     7
  9
$DIMSCALE
 40
2.0
  9
$DIMASZ
 40
3.5
  9
$DIMEXO
 40
0.0625
  9
$DIMDLI
 40
0.38
  9
$DIMRND
 40
0.0
  9
$DIMDLE
 40
0.0
  9
$DIMEXE
 40
0.18
  9
$DIMTP
 40
0.0
  9
$DIMTM
 40
0.0
  9
$DIMTXT
 40
3.5
  9
$DIMCEN
 40
0.09
  9
$DIMTSZ
 40
0.0
  9
$DIMTOL
 70
     0
  9
$DIMLIM
 70
     0
  9
$DIMTIH
 70
     1
  9
$DIMTOH
 70
     1
  9
$DIMSE1
 70
     0
  9
$DIMSE2
 70
     0
  9
$DIMTAD
 70
     1
  9
$DIMZIN
 70
     0
  9
$DIMBLK
  1

  9
$DIMASO
 70
     1
  9
$DIMSHO
 70
     1
  9
$DIMPOST
  1

  9
$DIMAPOST
  1

  9
$DIMALT
 70
     0
  9
$DIMALTD
 70
     2
  9
$DIMALTF
 40
25.4
  9
$DIMLFAC
 40
1.0
  9
$DIMTOFL
 70
     0
  9
$DIMTVP
 40
0.0
  9
$DIMTIX
 70
     0
  9
$DIMSOXD
 70
     0
  9
$DIMSAH
 70
     0
  9
$DIMBLK1
  1

  9
$DIMBLK2
  1

  9
$DIMSTYLE
  2
STANDARD
  9
$DIMCLRD
 70
     0
  9
$DIMCLRE
 70
     0
  9
$DIMCLRT
 70
     0
  9
$DIMTFAC
 40
1.0
  9
$DIMGAP
 40
0.09
  9
$LUNITS
 70
     2
  9
$LUPREC
 70
     2
  9
$AXISMODE
 70
     0
  9
$AXISUNIT
 10
0.0
 20
0.0
  9
$SKETCHINC
 40
0.1
  9
$FILLETRAD
 40
0.0
  9
$AUNITS
 70
     0
  9
$AUPREC
 70
     0
  9
$MENU
  1
acad
  9
$ELEVATION
 40
0.0
  9
$PELEVATION
 40
0.0
  9
$THICKNESS
 40
0.0
  9
$LIMCHECK
 70
     0
  9
$BLIPMODE
 70
     1
  9
$CHAMFERA
 40
0.0
  9
$CHAMFERB
 40
0.0
  9
$SKPOLY
 70
     0
  9
$TDCREATE
 40
0.000000000
  9
$TDUPDATE
 40
0.000000000
  9
$TDINDWG
 40
0.0000000000
  9
$TDUSRTIMER
 40
0.0000000000
  9
$USRTIMER
 70
     1
  9
$ANGBASE
 50
0.0
  9
$ANGDIR
 70
     0
  9
$PDMODE
 70
     0
  9
$PDSIZE
 40
0.0
  9
$PLINEWID
 40
0.0
  9
$COORDS
 70
     0
  9
$SPLFRAME
 70
     0
  9
$SPLINETYPE
 70
     6
  9
$SPLINESEGS
 70
     8
  9
$ATTDIA
 70
     0
  9
$ATTREQ
 70
     1
  9
$HANDLING
 70
     1
  9
$HANDSEED
  5
1EA
  9
$SURFTAB1
 70
     6
  9
$SURFTAB2
 70
     6
  9
$SURFTYPE
 70
     6
  9
$SURFU
 70
     6
  9
$SURFV
 70
     6
  9
$UCSNAME
  2

  9
$UCSORG
 10
0.0
 20
0.0
 30
0.0
  9
$UCSXDIR
 10
1.0
 20
0.0
 30
0.0
  9
$UCSYDIR
 10
0.0
 20
1.0
 30
0.0
  9
$PUCSNAME
  2

  9
$PUCSORG
 10
0.0
 20
0.0
 30
0.0
  9
$PUCSXDIR
 10
1.0
 20
0.0
 30
0.0
  9
$PUCSYDIR
 10
0.0
 20
1.0
 30
0.0
  9
$USERI1
 70
     0
  9
$USERI2
 70
     0
  9
$USERI3
 70
     0
  9
$USERI4
 70
     0
  9
$USERI5
 70
     0
  9
$USERR1
 40
0.0
  9
$USERR2
 40
0.0
  9
$USERR3
 40
0.0
  9
$USERR4
 40
0.0
  9
$USERR5
 40
0.0
  9
$WORLDVIEW
 70
     1
  9
$SHADEDGE
 70
     3
  9
$SHADEDIF
 70
    70
  9
$TILEMODE
 70
     1
  9
$MAXACTVP
 70
    16
  9
$PINSBASE
 10
0.0
 20
0.0
 30
0.0
  9
$PLIMCHECK
 70
     0
  9
$PEXTMIN
 10
1.000000E+20
 20
1.000000E+20
 30
1.000000E+20
  9
$PEXTMAX
 10
-1.000000E+20
 20
-1.000000E+20
 30
-1.000000E+20
  9
$PLIMMIN
 10
0.0
 20
0.0
  9
$PLIMMAX
 10
840.0
 20
594.0
  9
$UNITMODE
 70
     0
  9
$VISRETAIN
 70
     0
  9
$PLINEGEN
 70
     1
  9
$PSLTSCALE
 70
     0
  9
$TREEDEPTH
 70
  3020
  9
$DWGCODEPAGE
  3
dos850
  0
ENDSEC
  0
SECTION
  2
TABLES
  0
TABLE
  2
VPORT
 70
     1
  0
VPORT
  2
*ACTIVE
 70
     0
 10
0.0
 20
0.0
 11
1.0
 21
1.0
 12
420.0
 22
297.0
 13
0.0
 23
0.0
 14
1.0
 24
1.0
 15
0.0
 25
0.0
 16
0.0
 26
0.0
 36
1.0
 17
0.0
 27
0.0
 37
0.0
 40
594.0
 41
1.604229
 42
50.0
 43
0.0
 44
0.0
 50
0.0
 51
0.0
 71
     0
 72
   100
 73
     1
 74
     1
 75
     0
 76
     0
 77
     0
 78
     0
  0
ENDTAB
  0
TABLE
  2
LTYPE
 70
     3
  0
LTYPE
  2
CONTINUOUS
 70
    64
  3
Solid line
 72
    65
 73
     0
 40
0.0
  0
LTYPE
  2
DASHED
 70
    64
  3
__ __ __ __ __
 72
    65
 73
     2
 40
6.25
 49
5.0
 49
-1.25
  0
LTYPE
  2
DASHDOT
 70
    64
  3
__ . __ . __ . __ . __
 72
    65
 73
     4
 40
7.5
 49
5.0
 49
-1.25
 49
0.0
 49
-1.25
  0
ENDTAB
  0
TABLE
  2
LAYER
 70
    11
  0
LAYER
  2
0
 70
     0
 62
     7
  6
CONTINUOUS
  0
LAYER
  2
LC-INFO-1-2-MM-A3-0
 70
     1
 62
    -1
  6
CONTINUOUS
  0
LAYER
  2
LC-004-003-MTH-0
 70
     0
 62
     2
  6
CONTINUOUS
  0
LAYER
  2
LC-003-003-----0
 70
     0
 62
     2
  6
CONTINUOUS
  0
LAYER
  2
LC-005-003-MTG-0
 70
     0
 62
     2
  6
CONTINUOUS
  0
LAYER
  2
LC-006-005-----0
 70
     0
 62
     2
  6
CONTINUOUS
  0
LAYER
  2
LC-007-000-----0
 70
     0
 62
     7
  6
CONTINUOUS
  0
LAYER
  2
LC-001-002-----0
 70
     0
 62
     1
  6
CONTINUOUS
  0
LAYER
  2
LC-002-002-RND-0
 70
     0
 62
     1
  6
CONTINUOUS
  0
LAYER
  2
LC-008-006-MLN-0
 70
     0
 62
     2
  6
DASHDOT
  0
LAYER
  2
LC-000
 70
     0
 62
     7
  6
CONTINUOUS
  0
ENDTAB
  0
TABLE
  2
STYLE
 70
     4
  0
STYLE
  2
STANDARD
 70
     0
 40
0.0
 41
1.0
 50
0.0
 71
     0
 42
0.0
  3
txt
  4

  0
STYLE
  2
LC-STANDARD
 70
    64
 40
0.0
 41
1.0
 50
0.0
 71
     0
 42
3.5
  3
MONOTXT
  4

  0
STYLE
  2
LC-TXTSTYLE-150-400-0-0-A2
 70
    64
 40
0.0
 41
1.0
 50
15.0
 71
     0
 42
3.5
  3
MONOTXT
  4

  0
STYLE
  2
LC-TXTSTYLE-150-400-0-0-D3
 70
    64
 40
0.0
 41
1.0
 50
15.0
 71
     0
 42
3.5
  3
LC-STANDARD
  4

  0
ENDTAB
  0
TABLE
  2
VIEW
 70
     0
  0
ENDTAB
  0
TABLE
  2
UCS
 70
     0
  0
ENDTAB
  0
TABLE
  2
APPID
 70
     1
  0
APPID
  2
ACAD
 70
     0
  0
ENDTAB
  0
TABLE
  2
DIMSTYLE
 70
     3
  0
DIMSTYLE
  2
STANDARD
 70
     0
  3

  4

  5

  6

  7

 40
1.0
 41
0.18
 42
0.0625
 43
0.38
 44
0.18
 45
0.0
 46
0.0
 47
0.0
 48
0.0
 71
     0
 72
     0
 73
     1
 74
     1
 75
     0
 76
     0
 77
     0
 78
     0
140
0.18
141
0.09
142
0.0
143
25.4
144
1.0
145
0.0
146
1.0
147
0.09
170
     0
171
     2
172
     0
173
     0
174
     0
175
     0
176
     0
177
     0
178
     0
  0
DIMSTYLE
  2
LC-STANDARD
 70
     0
  3

  4

  5

  6

  7

 40
1.0
 41
3.5
 42
0.0
 43
7.5
 44
1.8
 45
0.0
 46
0.0
 47
0.0
 48
0.0
 71
     0
 72
     0
 73
     0
 74
     0
 75
     0
 76
     0
 77
     1
 78
     8
140
3.5
141
0.0
142
0.0
143
25.4
144
1.0
145
0.0
146
0.71
147
1.5
170
     0
171
     2
172
     1
173
     0
174
     0
175
     0
176
     0
177
     0
178
     3
  0
DIMSTYLE
  2
LC-DIM-L-0140-02-02
 70
     0
  3

  4

  5

  6

  7

 40
2.0
 41
3.5
 42
0.0
 43
7.5
 44
1.8
 45
0.0
 46
0.0
 47
0.0
 48
0.0
 71
     0
 72
     0
 73
     0
 74
     0
 75
     0
 76
     0
 77
     1
 78
     8
140
14.0
141
0.0
142
0.0
143
25.4
144
1.0
145
0.0
146
0.71
147
1.5
170
     0
171
     2
172
     0
173
     0
174
     0
175
     0
176
     2
177
     2
178
     8
  0
ENDTAB
  0
ENDSEC
  0
SECTION
  2
BLOCKS
  0
BLOCK
  8
0
  5
23
  2
*D0
 70
    65
 10
0.0
 20
0.0
 30
0.0
  3
*D0
  0
LINE
  8
LC-004-003-MTH-0
  6
CONTINUOUS
  5
25
 10
396.122354
 20
357.448
 30
0.0
 11
448.0
 21
357.448
 31
0.0
  0
LINE
  8
LC-004-003-MTH-0
  6
CONTINUOUS
  5
26
 10
395.122354
 20
413.948
 30
0.0
 11
448.0
 21
413.948
 31
0.0
  0
LINE
  8
LC-003-003-----0
  6
CONTINUOUS
  5
28
 10
434.854733
 20
329.687544
 30
0.0
 11
431.2
 21
357.448
 31
0.0
  0
LINE
  8
LC-003-003-----0
  6
CONTINUOUS
  5
29
 10
431.2
 20
357.448
 30
0.0
 11
427.545267
 21
329.687544
 31
0.0
  0
LINE
  8
LC-003-003-----0
  6
CONTINUOUS
  5
2A
 10
427.545267
 20
329.687544
 30
0.0
 11
434.854733
 21
329.687544
 31
0.0
  0
LINE
  8
LC-003-003-----0
  6
CONTINUOUS
  5
2B
 10
433.904503
 20
329.625262
 30
0.0
 11
431.2
 21
350.168
 31
0.0
  0
LINE
  8
LC-003-003-----0
  6
CONTINUOUS
  5
2C
 10
431.2
 20
350.168
 30
0.0
 11
428.495497
 21
329.625262
 31
0.0
  0
LINE
  8
LC-003-003-----0
  6
CONTINUOUS
  5
2D
 10
432.954272
 20
329.562981
 30
0.0
 11
431.2
 21
342.888
 31
0.0
  0
LINE
  8
LC-003-003-----0
  6
CONTINUOUS
  5
2E
 10
431.2
 20
342.888
 30
0.0
 11
429.445728
 21
329.562981
 31
0.0
  0
LINE
  8
LC-003-003-----0
  6
CONTINUOUS
  5
2F
 10
432.004041
 20
329.5007
 30
0.0
 11
431.2
 21
335.608
 31
0.0
  0
LINE
  8
LC-003-003-----0
  6
CONTINUOUS
  5
30
 10
431.2
 20
335.608
 30
0.0
 11
430.395959
 21
329.5007
 31
0.0
  0
LINE
  8
LC-003-003-----0
  6
CONTINUOUS
  5
31
 10
427.545267
 20
441.708456
 30
0.0
 11
431.2
 21
413.948
 31
0.0
  0
LINE
  8
LC-003-003-----0
  6
CONTINUOUS
  5
32
 10
431.2
 20
413.948
 30
0.0
 11
434.854733
 21
441.708456
 31
0.0
  0
LINE
  8
LC-003-003-----0
  6
CONTINUOUS
  5
33
 10
434.854733
 20
441.708456
 30
0.0
 11
427.545267
 21
441.708456
 31
0.0
  0
LINE
  8
LC-003-003-----0
  6
CONTINUOUS
  5
34
 10
428.495497
 20
441.770738
 30
0.0
 11
431.2
 21
421.228
 31
0.0
  0
LINE
  8
LC-003-003-----0
  6
CONTINUOUS
  5
35
 10
431.2
 20
421.228
 30
0.0
 11
433.904503
 21
441.770738
 31
0.0
  0
LINE
  8
LC-003-003-----0
  6
CONTINUOUS
  5
36
 10
429.445728
 20
441.833019
 30
0.0
 11
431.2
 21
428.508
 31
0.0
  0
LINE
  8
LC-003-003-----0
  6
CONTINUOUS
  5
37
 10
431.2
 20
428.508
 30
0.0
 11
432.954272
 21
441.833019
 31
0.0
  0
LINE
  8
LC-003-003-----0
  6
CONTINUOUS
  5
38
 10
430.395959
 20
441.8953
 30
0.0
 11
431.2
 21
435.788
 31
0.0
  0
LINE
  8
LC-003-003-----0
  6
CONTINUOUS
  5
39
 10
431.2
 20
435.788
 30
0.0
 11
432.004041
 21
441.8953
 31
0.0
  0
LINE
  8
LC-005-003-MTG-0
  6
CONTINUOUS
  5
3B
 10
431.2
 20
318.248
 30
0.0
 11
431.2
 21
453.148
 31
0.0
  0
TEXT
  8
LC-003-003-----0
  6
CONTINUOUS
 62
     8
  5
3D
 10
428.972446
 20
371.592617
 30
0.0
 40
28.0
  1
57
 50
90.0
 41
0.9
 51
15.0
  7
LC-TXTSTYLE-150-400-0-0-D0
 72
     1
 11
428.972446
 21
390.04616
 31
0.0
  0
ENDBLK
  8
0
  5
3E
  0
BLOCK
  8
0
  5
40
  2
*X1
 70
    65
 10
263.122354
 20
359.948
 30
0.0
  3
*X1
  0
LINE
  8
LC-006-005-----0
  6
CONTINUOUS
  5
42
 10
271.622354
 20
410.028584
 30
0.0
 11
267.702937
 21
413.948
 31
0.0
  0
LINE
  8
LC-006-005-----0
  6
DASHED
  5
44
 10
273.93238
 20
402.061703
 30
0.0
 11
266.122354
 21
409.871729
 31
0.0
  0
LINE
  8
LC-006-005-----0
  6
DASHED
  5
45
 10
266.046083
 20
409.948
 30
0.0
 11
263.276392
 21
412.717691
 31
0.0
  0
LINE
  8
LC-006-005-----0
  6
DASHED
  5
46
 10
271.0236
 20
402.142056
 30
0.0
 11
266.122354
 21
407.043302
 31
0.0
  0
LINE
  8
LC-006-005-----0
  6
DASHED
  5
47
 10
263.217656
 20
409.948
 30
0.0
 11
263.122354
 21
410.043302
 31
0.0
  0
LINE
  8
LC-006-005-----0
  6
CONTINUOUS
  5
48
 10
275.297713
 20
392.211089
 30
0.0
 11
266.122354
 21
401.386448
 31
0.0
  0
LINE
  8
LC-006-005-----0
  6
CONTINUOUS
  5
49
 10
272.198105
 20
392.482269
 30
0.0
 11
266.122354
 21
398.558021
 31
0.0
  0
LINE
  8
LC-006-005-----0
  6
DASHED
  5
4A
 10
270.622354
 20
388.401167
 30
0.0
 11
266.122354
 21
392.901167
 31
0.0
  0
LINE
  8
LC-006-005-----0
  6
DASHED
  5
4B
 10
270.622354
 20
385.572739
 30
0.0
 11
266.122354
 21
390.072739
 31
0.0
  0
LINE
  8
LC-006-005-----0
  6
CONTINUOUS
  5
4C
 10
270.622354
 20
379.915885
 30
0.0
 11
266.122354
 21
384.415885
 31
0.0
  0
LINE
  8
LC-006-005-----0
  6
CONTINUOUS
  5
4D
 10
270.622354
 20
377.087458
 30
0.0
 11
266.122354
 21
381.587458
 31
0.0
  0
LINE
  8
LC-006-005-----0
  6
DASHED
  5
4E
 10
270.622354
 20
371.430604
 30
0.0
 11
266.122354
 21
375.930604
 31
0.0
  0
LINE
  8
LC-006-005-----0
  6
DASHED
  5
4F
 10
270.622354
 20
368.602177
 30
0.0
 11
266.122354
 21
373.102177
 31
0.0
  0
LINE
  8
LC-006-005-----0
  6
CONTINUOUS
  5
50
 10
270.622354
 20
362.945322
 30
0.0
 11
266.122354
 21
367.445322
 31
0.0
  0
LINE
  8
LC-006-005-----0
  6
CONTINUOUS
  5
51
 10
270.622354
 20
360.116895
 30
0.0
 11
266.122354
 21
364.616895
 31
0.0
  0
ENDBLK
  8
0
  5
52
  0
BLOCK
  8
0
  5
54
  2
*D2
 70
    65
 10
0.0
 20
0.0
 30
0.0
  3
*D2
  0
LINE
  8
LC-004-003-MTH-0
  6
CONTINUOUS
  5
55
 10
389.37238
 20
335.997541
 30
0.0
 11
484.8
 21
335.997541
 31
0.0
  0
LINE
  8
LC-004-003-MTH-0
  6
CONTINUOUS
  5
56
 10
395.122354
 20
413.948
 30
0.0
 11
484.8
 21
413.948
 31
0.0
  0
LINE
  8
LC-005-003-MTG-0
  6
CONTINUOUS
  5
57
 10
468.0
 20
335.997541
 30
0.0
 11
468.0
 21
413.948
 31
0.0
  0
LINE
  8
LC-003-003-----0
  6
CONTINUOUS
  5
58
 10
464.345267
 20
363.757997
 30
0.0
 11
468.0
 21
335.997541
 31
0.0
  0
LINE
  8
LC-003-003-----0
  6
CONTINUOUS
  5
59
 10
468.0
 20
335.997541
 30
0.0
 11
471.654733
 21
363.757997
 31
0.0
  0
LINE
  8
LC-003-003-----0
  6
CONTINUOUS
  5
5A
 10
471.654733
 20
363.757997
 30
0.0
 11
464.345267
 21
363.757997
 31
0.0
  0
LINE
  8
LC-003-003-----0
  6
CONTINUOUS
  5
5B
 10
465.295497
 20
363.820279
 30
0.0
 11
468.0
 21
343.277541
 31
0.0
  0
LINE
  8
LC-003-003-----0
  6
CONTINUOUS
  5
5C
 10
468.0
 20
343.277541
 30
0.0
 11
470.704503
 21
363.820279
 31
0.0
  0
LINE
  8
LC-003-003-----0
  6
CONTINUOUS
  5
5D
 10
466.245728
 20
363.88256
 30
0.0
 11
468.0
 21
350.557541
 31
0.0
  0
LINE
  8
LC-003-003-----0
  6
CONTINUOUS
  5
5E
 10
468.0
 20
350.557541
 30
0.0
 11
469.754272
 21
363.88256
 31
0.0
  0
LINE
  8
LC-003-003-----0
  6
CONTINUOUS
  5
5F
 10
467.195959
 20
363.944842
 30
0.0
 11
468.0
 21
357.837541
 31
0.0
  0
LINE
  8
LC-003-003-----0
  6
CONTINUOUS
  5
60
 10
468.0
 20
357.837541
 30
0.0
 11
468.804041
 21
363.944842
 31
0.0
  0
LINE
  8
LC-003-003-----0
  6
CONTINUOUS
  5
61
 10
471.654733
 20
386.187544
 30
0.0
 11
468.0
 21
413.948
 31
0.0
  0
LINE
  8
LC-003-003-----0
  6
CONTINUOUS
  5
62
 10
468.0
 20
413.948
 30
0.0
 11
464.345267
 21
386.187544
 31
0.0
  0
LINE
  8
LC-003-003-----0
  6
CONTINUOUS
  5
63
 10
464.345267
 20
386.187544
 30
0.0
 11
471.654733
 21
386.187544
 31
0.0
  0
LINE
  8
LC-003-003-----0
  6
CONTINUOUS
  5
64
 10
470.704503
 20
386.125262
 30
0.0
 11
468.0
 21
406.668
 31
0.0
  0
LINE
  8
LC-003-003-----0
  6
CONTINUOUS
  5
65
 10
468.0
 20
406.668
 30
0.0
 11
465.295497
 21
386.125262
 31
0.0
  0
LINE
  8
LC-003-003-----0
  6
CONTINUOUS
  5
66
 10
469.754272
 20
386.062981
 30
0.0
 11
468.0
 21
399.388
 31
0.0
  0
LINE
  8
LC-003-003-----0
  6
CONTINUOUS
  5
67
 10
468.0
 20
399.388
 30
0.0
 11
466.245728
 21
386.062981
 31
0.0
  0
LINE
  8
LC-003-003-----0
  6
CONTINUOUS
  5
68
 10
468.804041
 20
386.0007
 30
0.0
 11
468.0
 21
392.108
 31
0.0
  0
LINE
  8
LC-003-003-----0
  6
CONTINUOUS
  5
69
 10
468.0
 20
392.108
 30
0.0
 11
467.195959
 21
386.0007
 31
0.0
  0
TEXT
  8
LC-003-003-----0
  6
CONTINUOUS
 62
     8
  5
6A
 10
460.172446
 20
359.520617
 30
0.0
 40
28.0
  1
78
 50
90.0
 51
15.0
  7
LC-TXTSTYLE-150-400-0-0-D0
 72
     1
 11
460.172446
 21
377.97416
 31
0.0
  0
ENDBLK
  8
0
  5
6B
  0
BLOCK
  8
0
  5
6D
  2
*D3
 70
    65
 10
0.0
 20
0.0
 30
0.0
  3
*D3
  0
LINE
  8
LC-004-003-MTH-0
  6
CONTINUOUS
  5
6E
 10
278.122354
 20
402.195128
 30
0.0
 11
278.122354
 21
448.8
 31
0.0
  0
LINE
  8
LC-004-003-MTH-0
  6
CONTINUOUS
  5
6F
 10
382.122354
 20
402.195128
 30
0.0
 11
382.122354
 21
448.8
 31
0.0
  0
LINE
  8
LC-005-003-MTG-0
  6
CONTINUOUS
  5
70
 10
278.122354
 20
432.0
 30
0.0
 11
382.122354
 21
432.0
 31
0.0
  0
LINE
  8
LC-003-003-----0
  6
CONTINUOUS
  5
71
 10
305.88281
 20
435.654733
 30
0.0
 11
278.122354
 21
432.0
 31
0.0
  0
LINE
  8
LC-003-003-----0
  6
CONTINUOUS
  5
72
 10
278.122354
 20
432.0
 30
0.0
 11
305.88281
 21
428.345267
 31
0.0
  0
LINE
  8
LC-003-003-----0
  6
CONTINUOUS
  5
73
 10
305.88281
 20
428.345267
 30
0.0
 11
305.88281
 21
435.654733
 31
0.0
  0
LINE
  8
LC-003-003-----0
  6
CONTINUOUS
  5
74
 10
305.945091
 20
434.704503
 30
0.0
 11
285.402354
 21
432.0
 31
0.0
  0
LINE
  8
LC-003-003-----0
  6
CONTINUOUS
  5
75
 10
285.402354
 20
432.0
 30
0.0
 11
305.945091
 21
429.295497
 31
0.0
  0
LINE
  8
LC-003-003-----0
  6
CONTINUOUS
  5
76
 10
306.007372
 20
433.754272
 30
0.0
 11
292.682354
 21
432.0
 31
0.0
  0
LINE
  8
LC-003-003-----0
  6
CONTINUOUS
  5
77
 10
292.682354
 20
432.0
 30
0.0
 11
306.007372
 21
430.245728
 31
0.0
  0
LINE
  8
LC-003-003-----0
  6
CONTINUOUS
  5
78
 10
306.069654
 20
432.804041
 30
0.0
 11
299.962354
 21
432.0
 31
0.0
  0
LINE
  8
LC-003-003-----0
  6
CONTINUOUS
  5
79
 10
299.962354
 20
432.0
 30
0.0
 11
306.069654
 21
431.195959
 31
0.0
  0
LINE
  8
LC-003-003-----0
  6
CONTINUOUS
  5
7A
 10
354.361897
 20
428.345267
 30
0.0
 11
382.122354
 21
432.0
 31
0.0
  0
LINE
  8
LC-003-003-----0
  6
CONTINUOUS
  5
7B
 10
382.122354
 20
432.0
 30
0.0
 11
354.361897
 21
435.654733
 31
0.0
  0
LINE
  8
LC-003-003-----0
  6
CONTINUOUS
  5
7C
 10
354.361897
 20
435.654733
 30
0.0
 11
354.361897
 21
428.345267
 31
0.0
  0
LINE
  8
LC-003-003-----0
  6
CONTINUOUS
  5
7D
 10
354.299616
 20
429.295497
 30
0.0
 11
374.842354
 21
432.0
 31
0.0
  0
LINE
  8
LC-003-003-----0
  6
CONTINUOUS
  5
7E
 10
374.842354
 20
432.0
 30
0.0
 11
354.299616
 21
434.704503
 31
0.0
  0
LINE
  8
LC-003-003-----0
  6
CONTINUOUS
  5
7F
 10
354.237335
 20
430.245728
 30
0.0
 11
367.562354
 21
432.0
 31
0.0
  0
LINE
  8
LC-003-003-----0
  6
CONTINUOUS
  5
80
 10
367.562354
 20
432.0
 30
0.0
 11
354.237335
 21
433.754272
 31
0.0
  0
LINE
  8
LC-003-003-----0
  6
CONTINUOUS
  5
81
 10
354.175053
 20
431.195959
 30
0.0
 11
360.282354
 21
432.0
 31
0.0
  0
LINE
  8
LC-003-003-----0
  6
CONTINUOUS
  5
82
 10
360.282354
 20
432.0
 30
0.0
 11
354.175053
 21
432.804041
 31
0.0
  0
TEXT
  8
LC-003-003-----0
  6
CONTINUOUS
 62
     8
  5
83
 10
296.372876
 20
439.827554
 30
0.0
 40
28.0
  1
Ø104
 51
15.0
  7
LC-TXTSTYLE-150-400-0-0-D0
 72
     1
 11
334.470513
 21
439.827554
 31
0.0
  0
ENDBLK
  8
0
  5
84
  0
BLOCK
  8
0
  5
86
  2
OBJ1
 70
    64
 10
0.0
 20
0.0
 30
0.0
  3
OBJ1
  0
LINE
  8
LC-006-005-----0
  6
CONTINUOUS
  5
87
 10
395.475338
 20
409.448
 30
0.0
 11
396.122354
 21
408.800985
 31
0.0
  0
LINE
  8
LC-006-005-----0
  6
CONTINUOUS
  5
88
 10
393.622354
 20
407.058344
 30
0.0
 11
396.122354
 21
404.558344
 31
0.0
  0
LINE
  8
LC-006-005-----0
  6
CONTINUOUS
  5
89
 10
393.622354
 20
402.815703
 30
0.0
 11
396.122354
 21
400.315703
 31
0.0
  0
LINE
  8
LC-006-005-----0
  6
CONTINUOUS
  5
8A
 10
393.622354
 20
398.573063
 30
0.0
 11
396.122354
 21
396.073063
 31
0.0
  0
LINE
  8
LC-006-005-----0
  6
CONTINUOUS
  5
8B
 10
393.622354
 20
394.330422
 30
0.0
 11
396.122354
 21
391.830422
 31
0.0
  0
LINE
  8
LC-006-005-----0
  6
CONTINUOUS
  5
8C
 10
393.622354
 20
390.087781
 30
0.0
 11
396.122354
 21
387.587781
 31
0.0
  0
LINE
  8
LC-006-005-----0
  6
CONTINUOUS
  5
8D
 10
393.622354
 20
385.845141
 30
0.0
 11
396.122354
 21
383.345141
 31
0.0
  0
LINE
  8
LC-006-005-----0
  6
CONTINUOUS
  5
8E
 10
393.622354
 20
381.6025
 30
0.0
 11
396.122354
 21
379.1025
 31
0.0
  0
LINE
  8
LC-006-005-----0
  6
CONTINUOUS
  5
8F
 10
393.622354
 20
377.359859
 30
0.0
 11
396.122354
 21
374.859859
 31
0.0
  0
LINE
  8
LC-006-005-----0
  6
CONTINUOUS
  5
90
 10
393.622354
 20
373.117219
 30
0.0
 11
396.122354
 21
370.617219
 31
0.0
  0
LINE
  8
LC-006-005-----0
  6
CONTINUOUS
  5
91
 10
393.622354
 20
368.874578
 30
0.0
 11
396.122354
 21
366.374578
 31
0.0
  0
LINE
  8
LC-006-005-----0
  6
CONTINUOUS
  5
92
 10
393.622354
 20
364.631937
 30
0.0
 11
396.122354
 21
362.131937
 31
0.0
  0
LINE
  8
LC-006-005-----0
  6
CONTINUOUS
  5
93
 10
393.622354
 20
360.389297
 30
0.0
 11
396.122354
 21
357.889297
 31
0.0
  0
LINE
  8
LC-006-005-----0
  6
CONTINUOUS
  5
94
 10
389.821009
 20
359.948
 30
0.0
 11
392.321009
 21
357.448
 31
0.0
  0
LINE
  8
LC-006-005-----0
  6
CONTINUOUS
  5
95
 10
385.578369
 20
359.948
 30
0.0
 11
388.122524
 21
357.403844
 31
0.0
  0
LINE
  8
LC-006-005-----0
  6
CONTINUOUS
  5
96
 10
385.422524
 20
355.861204
 30
0.0
 11
388.122524
 21
353.161204
 31
0.0
  0
LINE
  8
LC-006-005-----0
  6
CONTINUOUS
  5
97
 10
385.035919
 20
352.005169
 30
0.0
 11
387.593087
 21
349.448
 31
0.0
  0
LINE
  8
LC-006-005-----0
  6
CONTINUOUS
  5
98
 10
384.139343
 20
348.659103
 30
0.0
 11
386.735428
 21
346.063019
 31
0.0
  0
LINE
  8
LC-006-005-----0
  6
CONTINUOUS
  5
99
 10
383.622524
 20
344.933282
 30
0.0
 11
385.122524
 21
343.433282
 31
0.0
  0
LINE
  8
LC-006-005-----0
  6
CONTINUOUS
  5
9A
 10
383.622524
 20
340.690641
 30
0.0
 11
384.962476
 21
339.35069
 31
0.0
  0
ENDBLK
  8
0
  5
9B
  0
BLOCK
  8
0
  5
9D
  2
OBJ2
 70
    64
 10
0.0
 20
0.0
 30
0.0
  3
OBJ2
  0
LINE
  8
LC-006-005-----0
  6
CONTINUOUS
  5
9E
 10
253.107635
 20
357.448
 30
0.0
 11
255.607635
 21
354.948
 31
0.0
  0
LINE
  8
LC-006-005-----0
  6
CONTINUOUS
  5
9F
 10
252.622354
 20
353.690641
 30
0.0
 11
254.622354
 21
351.690641
 31
0.0
  0
ENDBLK
  8
0
  5
A0
  0
BLOCK
  8
0
  5
A2
  2
OBJ3
 70
    64
 10
0.0
 20
0.0
 30
0.0
  3
OBJ3
  0
LINE
  8
LC-006-005-----0
  6
CONTINUOUS
  5
A3
 10
264.122354
 20
407.782621
 30
0.0
 11
266.622354
 21
405.282621
 31
0.0
  0
LINE
  8
LC-006-005-----0
  6
CONTINUOUS
  5
A4
 10
264.122354
 20
403.53998
 30
0.0
 11
266.622354
 21
401.03998
 31
0.0
  0
LINE
  8
LC-006-005-----0
  6
CONTINUOUS
  5
A5
 10
264.122354
 20
399.29734
 30
0.0
 11
266.622354
 21
396.79734
 31
0.0
  0
LINE
  8
LC-006-005-----0
  6
CONTINUOUS
  5
A6
 10
264.122354
 20
395.054699
 30
0.0
 11
266.622354
 21
392.554699
 31
0.0
  0
LINE
  8
LC-006-005-----0
  6
CONTINUOUS
  5
A7
 10
264.122354
 20
390.812058
 30
0.0
 11
266.622354
 21
388.312058
 31
0.0
  0
LINE
  8
LC-006-005-----0
  6
CONTINUOUS
  5
A8
 10
264.122354
 20
386.569418
 30
0.0
 11
266.622354
 21
384.069418
 31
0.0
  0
LINE
  8
LC-006-005-----0
  6
CONTINUOUS
  5
A9
 10
264.122354
 20
382.326777
 30
0.0
 11
266.622354
 21
379.826777
 31
0.0
  0
LINE
  8
LC-006-005-----0
  6
CONTINUOUS
  5
AA
 10
264.122354
 20
378.084136
 30
0.0
 11
266.622354
 21
375.584136
 31
0.0
  0
LINE
  8
LC-006-005-----0
  6
CONTINUOUS
  5
AB
 10
264.122354
 20
373.841496
 30
0.0
 11
266.855663
 21
371.108186
 31
0.0
  0
LINE
  8
LC-006-005-----0
  6
CONTINUOUS
  5
AC
 10
273.773208
 20
359.948
 30
0.0
 11
274.822183
 21
358.899026
 31
0.0
  0
LINE
  8
LC-006-005-----0
  6
CONTINUOUS
  5
AD
 10
264.122354
 20
369.598855
 30
0.0
 11
266.622354
 21
367.098855
 31
0.0
  0
LINE
  8
LC-006-005-----0
  6
CONTINUOUS
  5
AE
 10
269.530568
 20
359.948
 30
0.0
 11
274.822183
 21
354.656385
 31
0.0
  0
LINE
  8
LC-006-005-----0
  6
CONTINUOUS
  5
AF
 10
264.122354
 20
365.356214
 30
0.0
 11
266.622354
 21
362.856214
 31
0.0
  0
LINE
  8
LC-006-005-----0
  6
CONTINUOUS
  5
B0
 10
272.122183
 20
353.113744
 30
0.0
 11
275.932798
 21
349.30313
 31
0.0
  0
LINE
  8
LC-006-005-----0
  6
CONTINUOUS
  5
B1
 10
264.122354
 20
361.113574
 30
0.0
 11
270.287927
 21
354.948
 31
0.0
  0
LINE
  8
LC-006-005-----0
  6
CONTINUOUS
  5
B2
 10
274.122183
 20
346.871104
 30
0.0
 11
276.622183
 21
344.371104
 31
0.0
  0
LINE
  8
LC-006-005-----0
  6
CONTINUOUS
  5
B3
 10
263.545286
 20
357.448
 30
0.0
 11
266.045286
 21
354.948
 31
0.0
  0
LINE
  8
LC-006-005-----0
  6
CONTINUOUS
  5
B4
 10
275.122183
 20
341.628463
 30
0.0
 11
276.622183
 21
340.128463
 31
0.0
  0
ENDBLK
  8
0
  5
B5
  0
BLOCK
  8
0
  5
B7
  2
*D7
 70
    65
 10
0.0
 20
0.0
 30
0.0
  3
*D7
  0
LINE
  8
LC-004-003-MTH-0
  6
CONTINUOUS
  5
B8
 10
260.122354
 20
244.134
 30
0.0
 11
260.122354
 21
109.2
 31
0.0
  0
LINE
  8
LC-004-003-MTH-0
  6
CONTINUOUS
  5
B9
 10
400.122354
 20
244.134
 30
0.0
 11
400.122354
 21
109.2
 31
0.0
  0
LINE
  8
LC-005-003-MTG-0
  6
CONTINUOUS
  5
BA
 10
260.122354
 20
126.0
 30
0.0
 11
400.122354
 21
126.0
 31
0.0
  0
LINE
  8
LC-003-003-----0
  6
CONTINUOUS
  5
BB
 10
287.88281
 20
129.654733
 30
0.0
 11
260.122354
 21
126.0
 31
0.0
  0
LINE
  8
LC-003-003-----0
  6
CONTINUOUS
  5
BC
 10
260.122354
 20
126.0
 30
0.0
 11
287.88281
 21
122.345267
 31
0.0
  0
LINE
  8
LC-003-003-----0
  6
CONTINUOUS
  5
BD
 10
287.88281
 20
122.345267
 30
0.0
 11
287.88281
 21
129.654733
 31
0.0
  0
LINE
  8
LC-003-003-----0
  6
CONTINUOUS
  5
BE
 10
287.945091
 20
128.704503
 30
0.0
 11
267.402354
 21
126.0
 31
0.0
  0
LINE
  8
LC-003-003-----0
  6
CONTINUOUS
  5
BF
 10
267.402354
 20
126.0
 30
0.0
 11
287.945091
 21
123.295497
 31
0.0
  0
LINE
  8
LC-003-003-----0
  6
CONTINUOUS
  5
C0
 10
288.007372
 20
127.754272
 30
0.0
 11
274.682354
 21
126.0
 31
0.0
  0
LINE
  8
LC-003-003-----0
  6
CONTINUOUS
  5
C1
 10
274.682354
 20
126.0
 30
0.0
 11
288.007372
 21
124.245728
 31
0.0
  0
LINE
  8
LC-003-003-----0
  6
CONTINUOUS
  5
C2
 10
288.069654
 20
126.804041
 30
0.0
 11
281.962354
 21
126.0
 31
0.0
  0
LINE
  8
LC-003-003-----0
  6
CONTINUOUS
  5
C3
 10
281.962354
 20
126.0
 30
0.0
 11
288.069654
 21
125.195959
 31
0.0
  0
LINE
  8
LC-003-003-----0
  6
CONTINUOUS
  5
C4
 10
372.361897
 20
122.345267
 30
0.0
 11
400.122354
 21
126.0
 31
0.0
  0
LINE
  8
LC-003-003-----0
  6
CONTINUOUS
  5
C5
 10
400.122354
 20
126.0
 30
0.0
 11
372.361897
 21
129.654733
 31
0.0
  0
LINE
  8
LC-003-003-----0
  6
CONTINUOUS
  5
C6
 10
372.361897
 20
129.654733
 30
0.0
 11
372.361897
 21
122.345267
 31
0.0
  0
LINE
  8
LC-003-003-----0
  6
CONTINUOUS
  5
C7
 10
372.299616
 20
123.295497
 30
0.0
 11
392.842354
 21
126.0
 31
0.0
  0
LINE
  8
LC-003-003-----0
  6
CONTINUOUS
  5
C8
 10
392.842354
 20
126.0
 30
0.0
 11
372.299616
 21
128.704503
 31
0.0
  0
LINE
  8
LC-003-003-----0
  6
CONTINUOUS
  5
C9
 10
372.237335
 20
124.245728
 30
0.0
 11
385.562354
 21
126.0
 31
0.0
  0
LINE
  8
LC-003-003-----0
  6
CONTINUOUS
  5
CA
 10
385.562354
 20
126.0
 30
0.0
 11
372.237335
 21
127.754272
 31
0.0
  0
LINE
  8
LC-003-003-----0
  6
CONTINUOUS
  5
CB
 10
372.175053
 20
125.195959
 30
0.0
 11
378.282354
 21
126.0
 31
0.0
  0
LINE
  8
LC-003-003-----0
  6
CONTINUOUS
  5
CC
 10
378.282354
 20
126.0
 30
0.0
 11
372.175053
 21
126.804041
 31
0.0
  0
TEXT
  8
LC-003-003-----0
  6
CONTINUOUS
 62
     8
  5
CD
 10
303.321001
 20
133.827554
 30
0.0
 40
28.0
  1
140
 51
15.0
  7
LC-TXTSTYLE-150-400-0-0-D0
 72
     1
 11
333.084781
 21
133.827554
 31
0.0
  0
ENDBLK
  8
0
  5
CE
  0
BLOCK
  8
0
  5
D0
  2
*D8
 70
    65
 10
0.0
 20
0.0
 30
0.0
  3
*D8
  0
LINE
  8
LC-004-003-MTH-0
  6
CONTINUOUS
  5
D1
 10
264.122354
 20
407.782621
 30
0.0
 11
264.122354
 21
492.8
 31
0.0
  0
LINE
  8
LC-004-003-MTH-0
  6
CONTINUOUS
  5
D2
 10
396.122354
 20
408.800985
 30
0.0
 11
396.122354
 21
492.8
 31
0.0
  0
LINE
  8
LC-005-003-MTG-0
  6
CONTINUOUS
  5
D3
 10
264.122354
 20
476.0
 30
0.0
 11
396.122354
 21
476.0
 31
0.0
  0
LINE
  8
LC-003-003-----0
  6
CONTINUOUS
  5
D4
 10
291.88281
 20
479.654733
 30
0.0
 11
264.122354
 21
476.0
 31
0.0
  0
LINE
  8
LC-003-003-----0
  6
CONTINUOUS
  5
D5
 10
264.122354
 20
476.0
 30
0.0
 11
291.88281
 21
472.345267
 31
0.0
  0
LINE
  8
LC-003-003-----0
  6
CONTINUOUS
  5
D6
 10
291.88281
 20
472.345267
 30
0.0
 11
291.88281
 21
479.654733
 31
0.0
  0
LINE
  8
LC-003-003-----0
  6
CONTINUOUS
  5
D7
 10
291.945091
 20
478.704503
 30
0.0
 11
271.402354
 21
476.0
 31
0.0
  0
LINE
  8
LC-003-003-----0
  6
CONTINUOUS
  5
D8
 10
271.402354
 20
476.0
 30
0.0
 11
291.945091
 21
473.295497
 31
0.0
  0
LINE
  8
LC-003-003-----0
  6
CONTINUOUS
  5
D9
 10
292.007372
 20
477.754272
 30
0.0
 11
278.682354
 21
476.0
 31
0.0
  0
LINE
  8
LC-003-003-----0
  6
CONTINUOUS
  5
DA
 10
278.682354
 20
476.0
 30
0.0
 11
292.007372
 21
474.245728
 31
0.0
  0
LINE
  8
LC-003-003-----0
  6
CONTINUOUS
  5
DB
 10
292.069654
 20
476.804041
 30
0.0
 11
285.962354
 21
476.0
 31
0.0
  0
LINE
  8
LC-003-003-----0
  6
CONTINUOUS
  5
DC
 10
285.962354
 20
476.0
 30
0.0
 11
292.069654
 21
475.195959
 31
0.0
  0
LINE
  8
LC-003-003-----0
  6
CONTINUOUS
  5
DD
 10
368.361897
 20
472.345267
 30
0.0
 11
396.122354
 21
476.0
 31
0.0
  0
LINE
  8
LC-003-003-----0
  6
CONTINUOUS
  5
DE
 10
396.122354
 20
476.0
 30
0.0
 11
368.361897
 21
479.654733
 31
0.0
  0
LINE
  8
LC-003-003-----0
  6
CONTINUOUS
  5
DF
 10
368.361897
 20
479.654733
 30
0.0
 11
368.361897
 21
472.345267
 31
0.0
  0
LINE
  8
LC-003-003-----0
  6
CONTINUOUS
  5
E0
 10
368.299616
 20
473.295497
 30
0.0
 11
388.842354
 21
476.0
 31
0.0
  0
LINE
  8
LC-003-003-----0
  6
CONTINUOUS
  5
E1
 10
388.842354
 20
476.0
 30
0.0
 11
368.299616
 21
478.704503
 31
0.0
  0
LINE
  8
LC-003-003-----0
  6
CONTINUOUS
  5
E2
 10
368.237335
 20
474.245728
 30
0.0
 11
381.562354
 21
476.0
 31
0.0
  0
LINE
  8
LC-003-003-----0
  6
CONTINUOUS
  5
E3
 10
381.562354
 20
476.0
 30
0.0
 11
368.237335
 21
477.754272
 31
0.0
  0
LINE
  8
LC-003-003-----0
  6
CONTINUOUS
  5
E4
 10
368.175053
 20
475.195959
 30
0.0
 11
374.282354
 21
476.0
 31
0.0
  0
LINE
  8
LC-003-003-----0
  6
CONTINUOUS
  5
E5
 10
374.282354
 20
476.0
 30
0.0
 11
368.175053
 21
476.804041
 31
0.0
  0
TEXT
  8
LC-003-003-----0
  6
CONTINUOUS
 62
     8
  5
E6
 10
296.372876
 20
483.827554
 30
0.0
 40
28.0
  1
Ø132
 51
15.0
  7
LC-TXTSTYLE-150-400-0-0-D0
 72
     1
 11
334.470513
 21
483.827554
 31
0.0
  0
ENDBLK
  8
0
  5
E7
  0
BLOCK
  8
0
  5
E9
  2
*X9
 70
    65
 10
382.122354
 20
359.948
 30
0.0
  3
*X9
  0
LINE
  8
LC-006-005-----0
  6
DASHED
  5
EA
 10
396.153731
 20
409.948
 30
0.0
 11
392.153731
 21
413.948
 31
0.0
  0
LINE
  8
LC-006-005-----0
  6
DASHED
  5
EB
 10
394.122354
 20
409.15095
 30
0.0
 11
390.223828
 21
413.049475
 31
0.0
  0
LINE
  8
LC-006-005-----0
  6
CONTINUOUS
  5
EC
 10
394.122354
 20
403.494096
 30
0.0
 11
388.622354
 21
408.994096
 31
0.0
  0
LINE
  8
LC-006-005-----0
  6
CONTINUOUS
  5
ED
 10
394.122354
 20
400.665669
 30
0.0
 11
388.573011
 21
406.215011
 31
0.0
  0
LINE
  8
LC-006-005-----0
  6
DASHED
  5
EE
 10
394.122354
 20
395.008814
 30
0.0
 11
389.372354
 21
399.758814
 31
0.0
  0
LINE
  8
LC-006-005-----0
  6
DASHED
  5
EF
 10
387.008553
 20
402.122615
 30
0.0
 11
385.174108
 21
403.957059
 31
0.0
  0
LINE
  8
LC-006-005-----0
  6
DASHED
  5
F0
 10
394.122354
 20
392.180387
 30
0.0
 11
389.337467
 21
396.965273
 31
0.0
  0
LINE
  8
LC-006-005-----0
  6
DASHED
  5
F1
 10
384.407673
 20
401.895068
 30
0.0
 11
383.380957
 21
402.921783
 31
0.0
  0
LINE
  8
LC-006-005-----0
  6
CONTINUOUS
  5
F2
 10
394.122354
 20
386.523533
 30
0.0
 11
389.622354
 21
391.023533
 31
0.0
  0
LINE
  8
LC-006-005-----0
  6
CONTINUOUS
  5
F3
 10
388.154203
 20
392.491683
 30
0.0
 11
385.963966
 21
394.681921
 31
0.0
  0
LINE
  8
LC-006-005-----0
  6
CONTINUOUS
  5
F4
 10
394.122354
 20
383.695106
 30
0.0
 11
389.622354
 21
388.195106
 31
0.0
  0
LINE
  8
LC-006-005-----0
  6
CONTINUOUS
  5
F5
 10
385.553323
 20
392.264136
 30
0.0
 11
384.170815
 21
393.646645
 31
0.0
  0
LINE
  8
LC-006-005-----0
  6
DASHED
  5
F6
 10
394.122354
 20
378.038252
 30
0.0
 11
389.622354
 21
382.538252
 31
0.0
  0
LINE
  8
LC-006-005-----0
  6
DASHED
  5
F7
 10
394.122354
 20
375.209824
 30
0.0
 11
389.622354
 21
379.709824
 31
0.0
  0
LINE
  8
LC-006-005-----0
  6
CONTINUOUS
  5
F8
 10
394.122354
 20
369.55297
 30
0.0
 11
389.622354
 21
374.05297
 31
0.0
  0
LINE
  8
LC-006-005-----0
  6
CONTINUOUS
  5
F9
 10
394.122354
 20
366.724543
 30
0.0
 11
389.622354
 21
371.224543
 31
0.0
  0
LINE
  8
LC-006-005-----0
  6
DASHED
  5
FA
 10
393.373128
 20
361.816915
 30
0.0
 11
389.622354
 21
365.567689
 31
0.0
  0
LINE
  8
LC-006-005-----0
  6
DASHED
  5
FB
 10
392.413615
 20
359.948
 30
0.0
 11
389.622354
 21
362.739262
 31
0.0
  0
ENDBLK
  8
0
  5
FC
  0
BLOCK
  8
0
  5
FE
  2
BLK1
 70
    64
 10
0.0
 20
0.0
 30
0.0
  3
BLK1
  0
ENDBLK
  8
0
  5
FF
  0
BLOCK
  8
0
  5
101
  2
*X11
 70
    65
 10
384.52238
 20
335.997541
 30
0.0
  3
*X11
  0
LINE
  8
LC-006-005-----0
  6
CONTINUOUS
  5
102
 10
389.37238
 20
346.018673
 30
0.0
 11
388.443052
 21
346.948
 31
0.0
  0
LINE
  8
LC-006-005-----0
  6
DASHED
  5
103
 10
389.37238
 20
343.190246
 30
0.0
 11
386.743502
 21
345.819123
 31
0.0
  0
LINE
  8
LC-006-005-----0
  6
DASHED
  5
104
 10
389.37238
 20
341.776032
 30
0.0
 11
386.036396
 21
345.112016
 31
0.0
  0
LINE
  8
LC-006-005-----0
  6
CONTINUOUS
  5
105
 10
389.37238
 20
338.947605
 30
0.0
 11
384.896168
 21
343.423816
 31
0.0
  0
LINE
  8
LC-006-005-----0
  6
CONTINUOUS
  5
106
 10
389.37238
 20
337.533391
 30
0.0
 11
386.872354
 21
340.033418
 31
0.0
  0
LINE
  8
LC-006-005-----0
  6
CONTINUOUS
  5
107
 10
385.965305
 20
340.940466
 30
0.0
 11
384.585689
 21
342.320082
 31
0.0
  0
LINE
  8
LC-006-005-----0
  6
DASHED
  5
108
 10
388.079803
 20
335.997541
 30
0.0
 11
386.872354
 21
337.20499
 31
0.0
  0
LINE
  8
LC-006-005-----0
  6
DASHED
  5
109
 10
384.551091
 20
339.526253
 30
0.0
 11
384.52238
 21
339.554964
 31
0.0
  0
ENDBLK
  8
0
  5
10A
  0
BLOCK
  8
0
  5
10C
  2
*X12
 70
    65
 10
265.722327
 20
335.997541
 30
0.0
  3
*X12
  0
LINE
  8
LC-006-005-----0
  6
DASHED
  5
10D
 10
275.722327
 20
340.874786
 30
0.0
 11
270.872327
 21
345.724786
 31
0.0
  0
LINE
  8
LC-006-005-----0
  6
DASHED
  5
10E
 10
273.779395
 20
341.403505
 30
0.0
 11
270.872327
 21
344.310572
 31
0.0
  0
LINE
  8
LC-006-005-----0
  6
CONTINUOUS
  5
10F
 10
273.372354
 20
338.982119
 30
0.0
 11
270.872327
 21
341.482145
 31
0.0
  0
LINE
  8
LC-006-005-----0
  6
CONTINUOUS
  5
110
 10
273.372354
 20
337.567905
 30
0.0
 11
270.872327
 21
340.067932
 31
0.0
  0
LINE
  8
LC-006-005-----0
  6
DASHED
  5
111
 10
272.114291
 20
335.997541
 30
0.0
 11
270.872327
 21
337.239504
 31
0.0
  0
ENDBLK
  8
0
  5
112
  0
BLOCK
  8
0
  5
114
  2
BLK2
 70
    64
 10
0.0
 20
0.0
 30
0.0
  3
BLK2
  0
ENDBLK
  8
0
  5
115
  0
BLOCK
  8
0
  5
117
  2
BLK3
 70
    64
 10
0.0
 20
0.0
 30
0.0
  3
BLK3
  0
ENDBLK
  8
0
  5
118
  0
ENDSEC
  0
SECTION
  2
ENTITIES
  0
VIEWPORT
  8
LC-000
  5
1E3
 67
     1
 68
     1
 10
420.0
 20
297.0
 30
0.0
 40
840.0
 41
594.0
 69
     1
1001
ACAD
1000
MVIEW
1002
{
1070
    16
1010
0.0
1020
0.0
1030
0.0
1010
0.0
1020
0.0
1030
1.0
1040
0.0
1040
594.0
1040
420.0
1040
297.0
1040
50.0
1040
0.0
1040
0.0
1070
     0
1070
   100
1070
     1
1070
     1
1070
     0
1070
     0
1070
     0
1070
     0
1040
0.0
1040
0.0
1040
0.0
1040
1.0
1040
1.0
1040
0.0
1040
0.0
1070
     0
1002
{
1002
}
1002
}
  0
VIEWPORT
  8
0
  5
1E4
 67
     1
 68
     1
 10
0.0
 20
0.0
 30
0.0
 40
0.0
 41
0.0
 69
     1
1001
ACAD
1000
MVIEW
1002
{
1070
    16
1010
0.0
1020
0.0
1030
0.0
1010
0.0
1020
0.0
1030
1.0
1040
0.0
1040
594.0
1040
0.0
1040
0.0
1040
50.0
1040
0.0
1040
0.0
1070
     0
1070
   100
1070
     0
1070
     1
1070
     0
1070
     0
1070
     0
1070
     0
1040
0.0
1040
0.0
1040
0.0
1040
0.5
1040
0.5
1040
0.5
1040
0.5
1070
     0
1002
{
1002
}
1002
}
  0
DIMENSION
  8
0
  5
119
  2
*D0
 10
431.2
 20
385.698
 30
0.0
 11
431.2
 21
385.698
 31
0.0
  1
57
 13
396.122354
 23
357.448
 33
0.0
 14
395.122354
 24
413.948
 34
0.0
 50
90.0
  3
LC-DIM-L-0140-02-02
  0
INSERT
  8
0
  5
11A
  2
*X1
 10
263.122354
 20
359.948
 30
0.0
  0
DIMENSION
  8
0
  5
11B
  2
*D2
 10
468.0
 20
373.626
 30
0.0
 11
468.0
 21
373.626
 31
0.0
  1
78
 13
389.37238
 23
335.997541
 33
0.0
 14
395.122354
 24
413.948
 34
0.0
 50
90.0
  3
LC-DIM-L-0140-02-02
  0
DIMENSION
  8
0
  5
11C
  2
*D3
 10
330.122354
 20
432.0
 30
0.0
 11
330.122354
 21
432.0
 31
0.0
  1
%%c<>
 13
278.122354
 23
402.195128
 33
0.0
 14
382.122354
 24
402.195128
 34
0.0
  3
LC-DIM-L-0140-02-02
  0
INSERT
  8
0
  5
11D
  2
OBJ1
 10
0.0
 20
0.0
 30
0.0
  0
INSERT
  8
0
  5
11E
  2
OBJ2
 10
0.0
 20
0.0
 30
0.0
  0
INSERT
  8
0
  5
11F
  2
OBJ3
 10
0.0
 20
0.0
 30
0.0
  0
DIMENSION
  8
0
  5
120
  2
*D7
 10
328.736621
 20
126.0
 30
0.0
 11
328.736621
 21
126.0
 31
0.0
 13
260.122354
 23
244.134
 33
0.0
 14
400.122354
 24
244.134
 34
0.0
  3
LC-DIM-L-0140-02-02
  0
DIMENSION
  8
0
  5
121
  2
*D8
 10
330.122354
 20
476.0
 30
0.0
 11
330.122354
 21
476.0
 31
0.0
  1
%%c<>
 13
264.122354
 23
407.782621
 33
0.0
 14
396.122354
 24
408.800985
 34
0.0
  3
LC-DIM-L-0140-02-02
  0
INSERT
  8
0
  5
122
  2
*X9
 10
382.122354
 20
359.948
 30
0.0
  0
INSERT
  8
0
  5
124
  2
BLK1
 10
0.0
 20
0.0
 30
0.0
  0
INSERT
  8
0
  5
125
  2
*X11
 10
384.52238
 20
335.997541
 30
0.0
  0
INSERT
  8
0
  5
126
  2
*X12
 10
265.722327
 20
335.997541
 30
0.0
  0
INSERT
  8
0
  5
127
  2
BLK2
 10
0.0
 20
0.0
 30
0.0
  0
INSERT
  8
0
  5
128
  2
BLK3
 10
0.0
 20
0.0
 30
0.0
  0
LINE
  8
LC-001-002-----0
  6
CONTINUOUS
  5
12A
 10
265.122354
 20
413.948
 30
0.0
 11
330.122354
 21
413.948
 31
0.0
  0
ARC
  8
LC-002-002-RND-0
  6
CONTINUOUS
  5
12C
 10
265.122354
 20
411.948
 30
0.0
 40
2.0
 50
90.0
 51
180.0
  0
LINE
  8
LC-001-002-----0
  6
CONTINUOUS
  5
12D
 10
263.122354
 20
411.948
 30
0.0
 11
263.122354
 21
409.948
 31
0.0
  0
LINE
  8
LC-001-002-----0
  6
CONTINUOUS
  5
12E
 10
267.372354
 20
359.948
 30
0.0
 11
330.122354
 21
359.948
 31
0.0
  0
ARC
  8
LC-002-002-RND-0
  6
CONTINUOUS
  5
12F
 10
271.122354
 20
392.074476
 30
0.0
 40
0.5
 50
85.0
 51
180.0
  0
LINE
  8
LC-001-002-----0
  6
CONTINUOUS
  5
130
 10
266.122354
 20
409.948
 30
0.0
 11
266.122354
 21
363.628236
 31
0.0
  0
LINE
  8
LC-001-002-----0
  6
CONTINUOUS
  5
131
 10
263.122354
 20
409.948
 30
0.0
 11
266.122354
 21
409.948
 31
0.0
  0
LINE
  8
LC-001-002-----0
  6
CONTINUOUS
  5
132
 10
395.122354
 20
413.948
 30
0.0
 11
330.122354
 21
413.948
 31
0.0
  0
LINE
  8
LC-001-002-----0
  6
CONTINUOUS
  5
133
 10
271.415931
 20
402.281864
 30
0.0
 11
278.122354
 21
401.695128
 31
0.0
  0
LINE
  8
LC-001-002-----0
  6
CONTINUOUS
  5
134
 10
270.622354
 20
392.074476
 30
0.0
 11
270.622354
 21
359.948
 31
0.0
  0
ARC
  8
LC-002-002-RND-0
  6
CONTINUOUS
  5
135
 10
395.122354
 20
411.948
 30
0.0
 40
2.0
 50
0.0
 51
90.0
  0
LINE
  8
LC-001-002-----0
  6
CONTINUOUS
  5
136
 10
271.622354
 20
411.448
 30
0.0
 11
271.622354
 21
406.525255
 31
0.0
  0
LINE
  8
LC-001-002-----0
  6
CONTINUOUS
  5
137
 10
397.122354
 20
411.948
 30
0.0
 11
397.122354
 21
409.948
 31
0.0
  0
LINE
  8
LC-001-002-----0
  6
CONTINUOUS
  5
138
 10
396.122354
 20
409.448
 30
0.0
 11
393.622354
 21
409.448
 31
0.0
  0
LINE
  8
LC-001-002-----0
  6
CONTINUOUS
  5
139
 10
271.165931
 20
392.572573
 30
0.0
 11
278.122354
 21
391.963965
 31
0.0
  0
LINE
  8
LC-001-002-----0
  6
DASHDOT
 62
     2
  5
13B
 10
260.33382
 20
357.448
 30
0.0
 11
260.33382
 21
354.948
 31
0.0
  0
ARC
  8
LC-002-002-RND-0
  6
CONTINUOUS
  5
13C
 10
389.122354
 20
392.074476
 30
0.0
 40
0.5
 50
0.0
 51
95.0
  0
LINE
  8
LC-001-002-----0
  6
CONTINUOUS
  5
13D
 10
394.122354
 20
409.948
 30
0.0
 11
394.122354
 21
363.628236
 31
0.0
  0
LINE
  8
LC-001-002-----0
  6
CONTINUOUS
  5
13E
 10
397.122354
 20
409.948
 30
0.0
 11
394.122354
 21
409.948
 31
0.0
  0
LINE
  8
LC-001-002-----0
  6
CONTINUOUS
  5
13F
 10
388.828776
 20
402.281864
 30
0.0
 11
382.122354
 21
401.695128
 31
0.0
  0
LINE
  8
LC-001-002-----0
  6
CONTINUOUS
  5
140
 10
389.622354
 20
392.074476
 30
0.0
 11
389.622354
 21
359.948
 31
0.0
  0
LINE
  8
LC-001-002-----0
  6
CONTINUOUS
  5
141
 10
278.122354
 20
402.195128
 30
0.0
 11
330.122354
 21
402.195128
 31
0.0
  0
LINE
  8
LC-001-002-----0
  6
CONTINUOUS
  5
142
 10
278.122354
 20
392.463965
 30
0.0
 11
271.372354
 21
396.361079
 31
0.0
  0
LINE
  8
LC-001-002-----0
  6
CONTINUOUS
  5
143
 10
388.622354
 20
411.448
 30
0.0
 11
388.622354
 21
406.525255
 31
0.0
  0
LINE
  8
LC-001-002-----0
  6
CONTINUOUS
  5
144
 10
271.622354
 20
411.448
 30
0.0
 11
269.622354
 21
413.448
 31
0.0
  0
LINE
  8
LC-001-002-----0
  6
CONTINUOUS
  5
145
 10
269.622354
 20
413.448
 30
0.0
 11
269.622354
 21
413.948
 31
0.0
  0
LINE
  8
LC-001-002-----0
  6
CONTINUOUS
  5
146
 10
269.622354
 20
413.448
 30
0.0
 11
330.122354
 21
413.448
 31
0.0
  0
LINE
  8
LC-001-002-----0
  6
CONTINUOUS
  5
147
 10
389.078776
 20
392.572573
 30
0.0
 11
382.122354
 21
391.963965
 31
0.0
  0
LINE
  8
LC-001-002-----0
  6
CONTINUOUS
  5
148
 10
382.122354
 20
402.195128
 30
0.0
 11
330.122354
 21
402.195128
 31
0.0
  0
LINE
  8
LC-001-002-----0
  6
CONTINUOUS
  5
149
 10
270.872354
 20
401.783767
 30
0.0
 11
270.872354
 21
397.227105
 31
0.0
  0
LINE
  8
LC-001-002-----0
  6
CONTINUOUS
  5
14A
 10
330.122354
 20
411.448
 30
0.0
 11
271.622354
 21
411.448
 31
0.0
  0
LINE
  8
LC-001-002-----0
  6
CONTINUOUS
  5
14B
 10
278.122354
 20
392.463965
 30
0.0
 11
278.122354
 21
391.963965
 31
0.0
  0
LINE
  8
LC-001-002-----0
  6
CONTINUOUS
  5
14C
 10
382.122354
 20
392.463965
 30
0.0
 11
388.872354
 21
396.361079
 31
0.0
  0
LINE
  8
LC-001-002-----0
  6
CONTINUOUS
  5
14D
 10
388.622354
 20
411.448
 30
0.0
 11
390.622354
 21
413.448
 31
0.0
  0
LINE
  8
LC-001-002-----0
  6
CONTINUOUS
  5
14E
 10
386.872354
 20
341.123251
 30
0.0
 11
386.872354
 21
335.997541
 31
0.0
  0
LINE
  8
LC-001-002-----0
  6
CONTINUOUS
  5
14F
 10
390.622354
 20
413.448
 30
0.0
 11
390.622354
 21
413.948
 31
0.0
  0
LINE
  8
LC-001-002-----0
  6
CONTINUOUS
  5
150
 10
390.622354
 20
413.448
 30
0.0
 11
330.122354
 21
413.448
 31
0.0
  0
ARC
  8
LC-002-002-RND-0
  6
CONTINUOUS
  5
151
 10
272.622354
 20
406.525255
 30
0.0
 40
1.0
 50
180.0
 51
240.0
  0
ARC
  8
LC-002-002-RND-0
  6
CONTINUOUS
  5
152
 10
271.372354
 20
401.783767
 30
0.0
 40
0.5
 50
85.0
 51
180.0
  0
LINE
  8
LC-001-002-----0
  6
CONTINUOUS
  5
153
 10
389.37238
 20
335.997541
 30
0.0
 11
389.37238
 21
346.948
 31
0.0
  0
LINE
  8
LC-001-002-----0
  6
CONTINUOUS
  5
154
 10
389.372354
 20
401.783767
 30
0.0
 11
389.372354
 21
397.227105
 31
0.0
  0
LINE
  8
LC-001-002-----0
  6
CONTINUOUS
  5
155
 10
278.122354
 20
401.695128
 30
0.0
 11
330.122354
 21
401.695128
 31
0.0
  0
LINE
  8
LC-001-002-----0
  6
CONTINUOUS
  5
156
 10
330.122354
 20
411.448
 30
0.0
 11
388.622354
 21
411.448
 31
0.0
  0
LINE
  8
LC-001-002-----0
  6
CONTINUOUS
  5
157
 10
382.122354
 20
392.463965
 30
0.0
 11
382.122354
 21
391.963965
 31
0.0
  0
ARC
  8
LC-002-002-RND-0
  6
CONTINUOUS
  5
158
 10
387.622354
 20
406.525255
 30
0.0
 40
1.0
 50
300.0
 51
0.0
  0
ARC
  8
LC-002-002-RND-0
  6
CONTINUOUS
  5
159
 10
388.872354
 20
401.783767
 30
0.0
 40
0.5
 50
0.0
 51
95.0
  0
LINE
  8
LC-001-002-----0
  6
CONTINUOUS
  5
15A
 10
382.122354
 20
401.695128
 30
0.0
 11
330.122354
 21
401.695128
 31
0.0
  0
ARC
  8
LC-002-002-RND-0
  6
CONTINUOUS
  5
15B
 10
388.372354
 20
397.227105
 30
0.0
 40
1.0
 50
300.0
 51
0.0
  0
LINE
  8
LC-001-002-----0
  6
CONTINUOUS
  5
15C
 10
394.122354
 20
363.628236
 30
0.0
 11
393.810176
 21
363.448
 31
0.0
  0
LINE
  8
LC-001-002-----0
  6
CONTINUOUS
  5
15D
 10
382.122354
 20
402.195128
 30
0.0
 11
382.122354
 21
401.695128
 31
0.0
  0
ARC
  8
LC-002-002-RND-0
  6
CONTINUOUS
  5
15E
 10
271.872354
 20
397.227105
 30
0.0
 40
1.0
 50
180.0
 51
240.0
  0
LINE
  8
LC-001-002-----0
  6
CONTINUOUS
  5
15F
 10
266.122354
 20
363.628236
 30
0.0
 11
266.434531
 21
363.448
 31
0.0
  0
LINE
  8
LC-001-002-----0
  6
CONTINUOUS
  5
160
 10
278.122354
 20
402.195128
 30
0.0
 11
278.122354
 21
401.695128
 31
0.0
  0
LINE
  8
LC-001-002-----0
  6
CONTINUOUS
  5
161
 10
266.434531
 20
363.448
 30
0.0
 11
267.372354
 21
359.948
 31
0.0
  0
CIRCLE
  8
LC-001-002-----0
  6
DASHDOT
 62
     2
  5
162
 10
330.122354
 20
244.134
 30
0.0
 40
70.0
  0
LINE
  8
LC-001-002-----0
  6
CONTINUOUS
  5
163
 10
278.122354
 20
391.963965
 30
0.0
 11
330.122354
 21
391.963965
 31
0.0
  0
LINE
  8
LC-001-002-----0
  6
CONTINUOUS
  5
164
 10
278.122354
 20
392.463965
 30
0.0
 11
330.122354
 21
392.463965
 31
0.0
  0
LINE
  8
LC-001-002-----0
  6
CONTINUOUS
  5
165
 10
393.810176
 20
363.448
 30
0.0
 11
392.872354
 21
359.948
 31
0.0
  0
LINE
  8
LC-001-002-----0
  6
CONTINUOUS
  5
166
 10
382.122354
 20
391.963965
 30
0.0
 11
330.122354
 21
391.963965
 31
0.0
  0
LINE
  8
LC-001-002-----0
  6
CONTINUOUS
  5
167
 10
382.122354
 20
392.463965
 30
0.0
 11
330.122354
 21
392.463965
 31
0.0
  0
LINE
  8
LC-001-002-----0
  6
CONTINUOUS
  5
168
 10
382.122354
 20
402.195128
 30
0.0
 11
388.122354
 21
405.65923
 31
0.0
  0
LINE
  8
LC-001-002-----0
  6
DASHDOT
 62
     2
  5
169
 10
252.622354
 20
244.134
 30
0.0
 11
396.122354
 21
244.134
 31
0.0
  0
LINE
  8
LC-001-002-----0
  6
DASHDOT
 62
     2
  5
16A
 10
330.122354
 20
310.134
 30
0.0
 11
330.122354
 21
178.134
 31
0.0
  0
LINE
  8
LC-001-002-----0
  6
DASHDOT
 62
     2
  5
16B
 10
368.872353
 20
311.250969
 30
0.0
 11
330.122354
 21
244.134
 31
0.0
  0
LINE
  8
LC-001-002-----0
  6
DASHDOT
 62
     2
  5
16C
 10
330.122354
 20
244.134
 30
0.0
 11
368.872353
 21
177.017031
 31
0.0
  0
LINE
  8
LC-001-002-----0
  6
CONTINUOUS
  5
16D
 10
330.122354
 20
359.948
 30
0.0
 11
278.122354
 21
359.948
 31
0.0
  0
LINE
  8
LC-001-002-----0
  6
CONTINUOUS
  5
16E
 10
278.122354
 20
402.195128
 30
0.0
 11
272.122354
 21
405.65923
 31
0.0
  0
LINE
  8
LC-001-002-----0
  6
CONTINUOUS
  5
16F
 10
274.122183
 20
345.449311
 30
0.0
 11
275.122183
 21
344.448
 31
0.0
  0
LINE
  8
LC-001-002-----0
  6
CONTINUOUS
  5
170
 10
274.122183
 20
349.448
 30
0.0
 11
274.122183
 21
345.449311
 31
0.0
  0
LINE
  8
LC-001-002-----0
  6
CONTINUOUS
  5
171
 10
386.122524
 20
349.448
 30
0.0
 11
388.122524
 21
349.448
 31
0.0
  0
LINE
  8
LC-001-002-----0
  6
CONTINUOUS
  5
172
 10
275.122183
 20
344.448
 30
0.0
 11
275.122183
 21
339.948
 31
0.0
  0
LINE
  8
LC-001-002-----0
  6
CONTINUOUS
  5
173
 10
272.122183
 20
354.948
 30
0.0
 11
272.122183
 21
349.448
 31
0.0
  0
LINE
  8
LC-001-002-----0
  6
CONTINUOUS
  5
174
 10
388.122524
 20
357.448
 30
0.0
 11
388.122524
 21
349.448
 31
0.0
  0
LINE
  8
LC-001-002-----0
  6
CONTINUOUS
  5
175
 10
393.622354
 20
359.948
 30
0.0
 11
393.622354
 21
370.948
 31
0.0
  0
LINE
  8
LC-001-002-----0
  6
CONTINUOUS
  5
176
 10
266.622354
 20
359.948
 30
0.0
 11
266.622354
 21
370.948
 31
0.0
  0
LINE
  8
LC-001-002-----0
  6
CONTINUOUS
  5
177
 10
264.122354
 20
357.448
 30
0.0
 11
264.122354
 21
409.448
 31
0.0
  0
LINE
  8
LC-001-002-----0
  6
CONTINUOUS
  5
178
 10
396.122354
 20
357.448
 30
0.0
 11
396.122354
 21
409.448
 31
0.0
  0
LINE
  8
LC-001-002-----0
  6
CONTINUOUS
  5
179
 10
388.122524
 20
357.448
 30
0.0
 11
396.122354
 21
357.448
 31
0.0
  0
LINE
  8
LC-001-002-----0
  6
CONTINUOUS
  5
17A
 10
264.122354
 20
357.448
 30
0.0
 11
252.622354
 21
357.448
 31
0.0
  0
LINE
  8
LC-001-002-----0
  6
CONTINUOUS
  5
17B
 10
330.122354
 20
359.948
 30
0.0
 11
266.622354
 21
359.948
 31
0.0
  0
LINE
  8
LC-001-002-----0
  6
CONTINUOUS
  5
17C
 10
274.122183
 20
349.448
 30
0.0
 11
252.622354
 21
349.448
 31
0.0
  0
LINE
  8
LC-001-002-----0
  6
CONTINUOUS
  5
17D
 10
330.122354
 20
359.948
 30
0.0
 11
393.622354
 21
359.948
 31
0.0
  0
LINE
  8
LC-001-002-----0
  6
CONTINUOUS
  5
17E
 10
383.622524
 20
348.448
 30
0.0
 11
383.622524
 21
336.448
 31
0.0
  0
LINE
  8
LC-001-002-----0
  6
CONTINUOUS
  5
17F
 10
266.622354
 20
409.448
 30
0.0
 11
264.122354
 21
409.448
 31
0.0
  0
LINE
  8
LC-001-002-----0
  6
CONTINUOUS
  5
180
 10
385.422524
 20
359.948
 30
0.0
 11
385.422524
 21
353.448
 31
0.0
  0
LINE
  8
LC-001-002-----0
  6
CONTINUOUS
  5
181
 10
276.060005
 20
336.448
 30
0.0
 11
383.622524
 21
336.448
 31
0.0
  0
LINE
  8
LC-001-002-----0
  6
CONTINUOUS
  5
182
 10
386.122524
 20
347.948
 30
0.0
 11
388.122524
 21
347.948
 31
0.0
  0
LINE
  8
LC-001-002-----0
  6
CONTINUOUS
  5
183
 10
385.122524
 20
344.448
 30
0.0
 11
385.122524
 21
339.948
 31
0.0
  0
LINE
  8
LC-001-002-----0
  6
CONTINUOUS
  5
184
 10
275.122183
 20
339.948
 30
0.0
 11
276.060005
 21
336.448
 31
0.0
  0
LINE
  8
LC-001-002-----0
  6
CONTINUOUS
  5
185
 10
385.122524
 20
339.948
 30
0.0
 11
384.184702
 21
336.448
 31
0.0
  0
LINE
  8
LC-001-002-----0
  6
CONTINUOUS
  5
186
 10
388.122524
 20
347.451934
 30
0.0
 11
385.122524
 21
344.448
 31
0.0
  0
LINE
  8
LC-001-002-----0
  6
CONTINUOUS
  5
187
 10
274.822183
 20
359.948
 30
0.0
 11
274.822183
 21
353.448
 31
0.0
  0
LINE
  8
LC-001-002-----0
  6
CONTINUOUS
  5
188
 10
276.161929
 20
348.448
 30
0.0
 11
384.082779
 21
348.448
 31
0.0
  0
LINE
  8
LC-001-002-----0
  6
CONTINUOUS
  5
189
 10
384.184702
 20
336.448
 30
0.0
 11
383.622524
 21
336.448
 31
0.0
  0
LINE
  8
LC-001-002-----0
  6
CONTINUOUS
  5
18A
 10
274.822183
 20
353.448
 30
0.0
 11
276.161929
 21
348.448
 31
0.0
  0
LINE
  8
LC-001-002-----0
  6
CONTINUOUS
  5
18B
 10
383.782779
 20
348.448
 30
0.0
 11
383.622524
 21
348.448
 31
0.0
  0
LINE
  8
LC-001-002-----0
  6
CONTINUOUS
  5
18C
 10
386.122524
 20
349.448
 30
0.0
 11
386.122524
 21
347.948
 31
0.0
  0
LINE
  8
LC-001-002-----0
  6
CONTINUOUS
  5
18D
 10
276.622183
 20
336.448
 30
0.0
 11
276.622183
 21
348.448
 31
0.0
  0
LINE
  8
LC-001-002-----0
  6
CONTINUOUS
  5
18E
 10
385.422524
 20
353.448
 30
0.0
 11
384.082779
 21
348.448
 31
0.0
  0
LINE
  8
LC-001-002-----0
  6
CONTINUOUS
  5
18F
 10
274.822183
 20
353.448
 30
0.0
 11
385.422524
 21
353.448
 31
0.0
  0
LINE
  8
LC-008-006-MLN-0
  5
191
 10
330.122354
 20
336.448
 30
0.0
 11
330.122354
 21
412.448
 31
0.0
  0
LINE
  8
LC-001-002-----0
  6
CONTINUOUS
  5
192
 10
388.122524
 20
347.948
 30
0.0
 11
388.122524
 21
347.448
 31
0.0
  0
LINE
  8
LC-001-002-----0
  6
CONTINUOUS
  5
193
 10
385.548152
 20
234.134
 30
0.0
 11
384.205797
 21
234.134
 31
0.0
  0
ARC
  8
LC-002-002-RND-0
  6
CONTINUOUS
  5
194
 10
385.548152
 20
252.134
 30
0.0
 40
2.0
 50
8.213185
 51
90.0
  0
ARC
  8
LC-002-002-RND-0
  6
CONTINUOUS
  5
195
 10
385.548152
 20
236.134
 30
0.0
 40
2.0
 50
270.0
 51
351.786815
  0
LINE
  8
LC-001-002-----0
  6
CONTINUOUS
  5
196
 10
385.548152
 20
254.134
 30
0.0
 11
384.205797
 21
254.134
 31
0.0
  0
LINE
  8
LC-001-002-----0
  6
CONTINUOUS
  5
197
 10
311.069708
 20
297.134149
 30
0.0
 11
311.740886
 21
295.971635
 31
0.0
  0
ARC
  8
LC-002-002-RND-0
  6
CONTINUOUS
  5
198
 10
295.481251
 20
288.134149
 30
0.0
 40
2.0
 50
128.213185
 51
210.0
  0
ARC
  8
LC-001-002-----0
  6
CONTINUOUS
  5
199
 10
330.122354
 20
244.134
 30
0.0
 40
56.000171
 50
10.286529
 51
109.713471
  0
ARC
  8
LC-002-002-RND-0
  6
CONTINUOUS
  5
19A
 10
309.337658
 20
296.134149
 30
0.0
 40
2.0
 50
30.0
 51
111.786815
  0
LINE
  8
LC-001-002-----0
  6
CONTINUOUS
  5
19B
 10
293.7492
 20
287.134149
 30
0.0
 11
294.420378
 21
285.971635
 31
0.0
  0
LINE
  8
LC-001-002-----0
  6
CONTINUOUS
  5
19C
 10
293.7492
 20
201.133851
 30
0.0
 11
294.420378
 21
202.296365
 31
0.0
  0
ARC
  8
LC-002-002-RND-0
  6
CONTINUOUS
  5
19D
 10
309.337658
 20
192.133851
 30
0.0
 40
2.0
 50
248.213185
 51
330.0
  0
ARC
  8
LC-002-002-RND-0
  6
CONTINUOUS
  5
19E
 10
295.481251
 20
200.133851
 30
0.0
 40
2.0
 50
150.0
 51
231.786815
  0
LINE
  8
LC-001-002-----0
  6
CONTINUOUS
  5
19F
 10
311.069708
 20
191.133851
 30
0.0
 11
311.740886
 21
192.296365
 31
0.0
  0
ARC
  8
LC-001-002-----0
  6
CONTINUOUS
  5
1A0
 10
330.122354
 20
244.134
 30
0.0
 40
56.000171
 50
130.286529
 51
229.713471
  0
ARC
  8
LC-001-002-----0
  6
CONTINUOUS
  5
1A1
 10
330.122354
 20
244.134
 30
0.0
 40
56.000171
 50
250.286529
 51
349.713471
  0
LINE
  8
LC-001-002-----0
  6
CONTINUOUS
  5
1A2
 10
393.622354
 20
399.448
 30
0.0
 11
393.622354
 21
409.448
 31
0.0
  0
LINE
  8
LC-001-002-----0
  6
CONTINUOUS
  5
1A3
 10
393.622354
 20
385.448
 30
0.0
 11
393.622354
 21
398.948
 31
0.0
  0
ARC
  8
LC-001-002-----0
  6
CONTINUOUS
  5
1A4
 10
266.622354
 20
399.198
 30
0.0
 40
0.25
 50
270.0
 51
90.0
  0
ARC
  8
LC-001-002-----0
  6
CONTINUOUS
  5
1A5
 10
266.622354
 20
385.198
 30
0.0
 40
0.25
 50
270.0
 51
90.0
  0
ARC
  8
LC-001-002-----0
  6
CONTINUOUS
  5
1A6
 10
266.622354
 20
371.198
 30
0.0
 40
0.25
 50
270.0
 51
90.0
  0
ARC
  8
LC-001-002-----0
  6
CONTINUOUS
  5
1A7
 10
330.122354
 20
244.134
 30
0.0
 40
66.0
 50
186.524979
 51
293.475021
  0
CIRCLE
  8
LC-001-002-----0
  6
CONTINUOUS
  5
1A8
 10
330.122354
 20
244.134
 30
0.0
 40
58.000171
  0
CIRCLE
  8
LC-001-002-----0
  6
CONTINUOUS
  5
1A9
 10
330.122354
 20
244.134
 30
0.0
 40
53.500171
  0
ARC
  8
LC-001-002-----0
  6
CONTINUOUS
  5
1AA
 10
393.622354
 20
385.198
 30
0.0
 40
0.25
 50
90.0
 51
270.0
  0
CIRCLE
  8
LC-001-002-----0
  6
CONTINUOUS
  5
1AB
 10
330.122354
 20
244.134
 30
0.0
 40
55.000171
  0
CIRCLE
  8
LC-001-002-----0
  6
CONTINUOUS
  5
1AC
 10
330.122354
 20
244.134
 30
0.0
 40
54.196323
  0
ARC
  8
LC-001-002-----0
  6
CONTINUOUS
  5
1AD
 10
393.622354
 20
371.198
 30
0.0
 40
0.25
 50
90.0
 51
270.0
  0
ARC
  8
LC-001-002-----0
  6
CONTINUOUS
  5
1AE
 10
393.622354
 20
399.198
 30
0.0
 40
0.25
 50
90.0
 51
270.0
  0
LINE
  8
LC-001-002-----0
  6
CONTINUOUS
  5
1AF
 10
393.622354
 20
371.448
 30
0.0
 11
393.622354
 21
384.948
 31
0.0
  0
LINE
  8
LC-001-002-----0
  6
CONTINUOUS
  5
1B0
 10
266.622354
 20
371.448
 30
0.0
 11
266.622354
 21
384.948
 31
0.0
  0
LINE
  8
LC-001-002-----0
  6
CONTINUOUS
  5
1B1
 10
266.622354
 20
385.448
 30
0.0
 11
266.622354
 21
398.948
 31
0.0
  0
LINE
  8
LC-001-002-----0
  6
CONTINUOUS
  5
1B2
 10
266.622354
 20
399.448
 30
0.0
 11
266.622354
 21
409.448
 31
0.0
  0
LINE
  8
LC-001-002-----0
  6
CONTINUOUS
  5
1B3
 10
365.374151
 20
290.191905
 30
0.0
 11
371.617544
 21
301.005778
 31
0.0
  0
LINE
  8
LC-001-002-----0
  6
CONTINUOUS
  5
1B4
 10
352.38377
 20
297.691905
 30
0.0
 11
358.627163
 21
308.505778
 31
0.0
  0
ARC
  8
LC-001-002-----0
  6
CONTINUOUS
  5
1B5
 10
365.122354
 20
304.755778
 30
0.0
 40
7.5
 50
330.0
 51
150.0
  0
CIRCLE
  8
LC-001-002-----0
  6
CONTINUOUS
  5
1B6
 10
365.122354
 20
304.755778
 30
0.0
 40
3.0
  0
LINE
  8
LC-001-002-----0
  6
CONTINUOUS
  5
1B7
 10
352.38377
 20
190.576095
 30
0.0
 11
358.627163
 21
179.762222
 31
0.0
  0
LINE
  8
LC-001-002-----0
  6
CONTINUOUS
  5
1B8
 10
365.374151
 20
198.076095
 30
0.0
 11
371.617544
 21
187.262222
 31
0.0
  0
ARC
  8
LC-001-002-----0
  6
CONTINUOUS
  5
1B9
 10
365.122354
 20
183.512222
 30
0.0
 40
7.5
 50
210.0
 51
30.0
  0
CIRCLE
  8
LC-001-002-----0
  6
CONTINUOUS
  5
1BA
 10
365.122354
 20
183.512222
 30
0.0
 40
3.0
  0
LINE
  8
LC-001-002-----0
  6
CONTINUOUS
  5
1BB
 10
272.609139
 20
251.634
 30
0.0
 11
260.122354
 21
251.634
 31
0.0
  0
LINE
  8
LC-001-002-----0
  6
CONTINUOUS
  5
1BC
 10
272.609139
 20
236.634
 30
0.0
 11
260.122354
 21
236.634
 31
0.0
  0
ARC
  8
LC-001-002-----0
  6
CONTINUOUS
  5
1BD
 10
260.122354
 20
244.134
 30
0.0
 40
7.5
 50
90.0
 51
270.0
  0
CIRCLE
  8
LC-001-002-----0
  6
CONTINUOUS
  5
1BE
 10
260.122354
 20
244.134
 30
0.0
 40
3.0
  0
LINE
  8
LC-001-002-----0
  6
CONTINUOUS
  5
1BF
 10
252.622354
 20
357.448
 30
0.0
 11
252.622354
 21
349.448
 31
0.0
  0
LINE
  8
LC-001-002-----0
  6
CONTINUOUS
  5
1C0
 10
272.122183
 20
354.948
 30
0.0
 11
254.622354
 21
354.948
 31
0.0
  0
LINE
  8
LC-001-002-----0
  6
CONTINUOUS
  5
1C1
 10
257.122354
 20
357.448
 30
0.0
 11
257.122354
 21
354.948
 31
0.0
  0
LINE
  8
LC-001-002-----0
  6
CONTINUOUS
  5
1C2
 10
263.122354
 20
357.448
 30
0.0
 11
263.122354
 21
354.948
 31
0.0
  0
ARC
  8
LC-001-002-----0
  6
CONTINUOUS
  5
1C3
 10
330.122354
 20
244.134
 30
0.0
 40
66.0
 50
66.524979
 51
173.475021
  0
ARC
  8
LC-001-002-----0
  6
CONTINUOUS
  5
1C4
 10
330.122354
 20
244.134
 30
0.0
 40
66.0
 50
306.524979
 51
53.475021
  0
LINE
  8
LC-001-002-----0
  6
CONTINUOUS
  5
1C5
 10
272.383547
 20
249.634
 30
0.0
 11
260.122354
 21
249.634
 31
0.0
  0
LINE
  8
LC-001-002-----0
  6
CONTINUOUS
  5
1C6
 10
272.383547
 20
238.634
 30
0.0
 11
260.122354
 21
238.634
 31
0.0
  0
ARC
  8
LC-001-002-----0
  6
CONTINUOUS
  5
1C7
 10
260.122354
 20
244.134
 30
0.0
 40
5.5
 50
87.748515
 51
272.251485
  0
LINE
  8
LC-001-002-----0
  6
CONTINUOUS
  5
1C8
 10
363.754897
 20
291.387274
 30
0.0
 11
369.885493
 21
302.005778
 31
0.0
  0
LINE
  8
LC-001-002-----0
  6
CONTINUOUS
  5
1C9
 10
354.228617
 20
296.887274
 30
0.0
 11
360.359214
 21
307.505778
 31
0.0
  0
ARC
  8
LC-001-002-----0
  6
CONTINUOUS
  5
1CA
 10
365.122354
 20
304.755778
 30
0.0
 40
5.5
 50
327.748515
 51
152.251485
  0
LINE
  8
LC-001-002-----0
  6
CONTINUOUS
  5
1CB
 10
354.228617
 20
191.380727
 30
0.0
 11
360.359214
 21
180.762222
 31
0.0
  0
LINE
  8
LC-001-002-----0
  6
CONTINUOUS
  5
1CC
 10
363.754897
 20
196.880727
 30
0.0
 11
369.885493
 21
186.262222
 31
0.0
  0
ARC
  8
LC-001-002-----0
  6
CONTINUOUS
  5
1CD
 10
365.122354
 20
183.512222
 30
0.0
 40
5.5
 50
207.748515
 51
32.251485
  0
LINE
  8
LC-001-002-----0
  6
CONTINUOUS
  5
1CE
 10
254.622354
 20
354.948
 30
0.0
 11
254.622354
 21
349.448
 31
0.0
  0
LINE
  8
LC-001-002-----0
  6
CONTINUOUS
  5
1CF
 10
278.122354
 20
359.948
 30
0.0
 11
276.328125
 21
359.948
 31
0.0
  0
LINE
  8
LC-001-002-----0
  6
CONTINUOUS
  5
1D0
 10
382.122354
 20
359.948
 30
0.0
 11
383.916582
 21
359.948
 31
0.0
  0
LINE
  8
LC-001-002-----0
  6
CONTINUOUS
  5
1D1
 10
384.52238
 20
341.526932
 30
0.0
 11
384.52238
 21
339.497541
 31
0.0
  0
LINE
  8
LC-001-002-----0
  6
CONTINUOUS
  5
1D2
 10
389.37238
 20
335.997541
 30
0.0
 11
386.872354
 21
335.997541
 31
0.0
  0
LINE
  8
LC-001-002-----0
  6
CONTINUOUS
  5
1D3
 10
273.372354
 20
341.123251
 30
0.0
 11
273.372354
 21
335.997541
 31
0.0
  0
ARC
  8
LC-002-002-RND-0
  6
CONTINUOUS
  5
1D4
 10
270.722327
 20
341.526932
 30
0.0
 40
5.0
 50
0.0
 51
45.0
  0
LINE
  8
LC-001-002-----0
  6
CONTINUOUS
  5
1D5
 10
270.872327
 20
335.997541
 30
0.0
 11
270.872327
 21
346.948
 31
0.0
  0
LINE
  8
LC-001-002-----0
  6
CONTINUOUS
  5
1D6
 10
270.872327
 20
335.997541
 30
0.0
 11
386.872354
 21
335.997541
 31
0.0
  0
LINE
  8
LC-001-002-----0
  6
CONTINUOUS
  5
1D7
 10
270.872327
 20
346.948
 30
0.0
 11
274.122183
 21
346.948
 31
0.0
  0
LINE
  8
LC-001-002-----0
  6
CONTINUOUS
  5
1D8
 10
389.37238
 20
346.948
 30
0.0
 11
387.87238
 21
346.948
 31
0.0
  0
ARC
  8
LC-002-002-RND-0
  6
CONTINUOUS
  5
1D9
 10
389.52238
 20
341.526932
 30
0.0
 40
5.0
 50
135.0
 51
180.0
  0
ARC
  8
LC-002-002-RND-0
  6
CONTINUOUS
  5
1DA
 10
386.572354
 20
341.123251
 30
0.0
 40
0.3
 50
0.0
 51
135.0
  0
LINE
  8
LC-001-002-----0
  6
CONTINUOUS
  5
1DB
 10
272.372327
 20
346.948
 30
0.0
 11
274.257861
 21
345.062466
 31
0.0
  0
LINE
  8
LC-001-002-----0
  6
CONTINUOUS
  5
1DC
 10
386.360221
 20
341.335383
 30
0.0
 11
384.52238
 21
339.497541
 31
0.0
  0
LINE
  8
LC-001-002-----0
  6
CONTINUOUS
  5
1DD
 10
273.884486
 20
341.335383
 30
0.0
 11
275.722327
 21
339.497541
 31
0.0
  0
ARC
  8
LC-002-002-RND-0
  6
CONTINUOUS
  5
1DE
 10
273.672354
 20
341.123251
 30
0.0
 40
0.3
 50
45.0
 51
180.0
  0
LINE
  8
LC-001-002-----0
  6
CONTINUOUS
  5
1DF
 10
275.722327
 20
341.526932
 30
0.0
 11
275.722327
 21
339.497541
 31
0.0
  0
LINE
  8
LC-001-002-----0
  6
CONTINUOUS
  5
1E0
 10
387.87238
 20
346.948
 30
0.0
 11
385.986846
 21
345.062466
 31
0.0
  0
LINE
  8
LC-001-002-----0
  6
CONTINUOUS
  5
1E1
 10
392.872354
 20
359.948
 30
0.0
 11
330.122354
 21
359.948
 31
0.0
  0
ENDSEC
  0
EOF
