  0
SECTION
  2
HEADER
  9
$ACADVER
  1
AC1009
  9
$INSBASE
 10
0.0
 20
0.0
 30
0.0
  9
$EXTMIN
 10
-210.0
 20
-148.5
 30
0.0
  9
$EXTMAX
 10
630.0
 20
445.5
 30
0.0
  9
$LIMMIN
 10
-210.0
 20
-148.5
  9
$LIMMAX
 10
630.0
 20
445.5
  9
$ORTHOMODE
 70
     0
  9
$REGENMODE
 70
     1
  9
$FILLMODE
 70
     1
  9
$QTEXTMODE
 70
     0
  9
$MIRRTEXT
 70
     1
  9
$DRAGMODE
 70
     2
  9
$LTSCALE
 40
2.0
  9
$OSMODE
 70
     0
  9
$ATTMODE
 70
     1
  9
$TEXTSIZE
 40
0.2
  9
$TRACEWID
 40
0.05
  9
$TEXTSTYLE
  7
STANDARD
  9
$CLAYER
  8
0
  9
$CELTYPE
  6
BYLAYER
  9
$CECOLOR
 62
     7
  9
$DIMSCALE
 40
2.0
  9
$DIMASZ
 40
3.5
  9
$DIMEXO
 40
0.0625
  9
$DIMDLI
 40
0.38
  9
$DIMRND
 40
0.0
  9
$DIMDLE
 40
0.0
  9
$DIMEXE
 40
0.18
  9
$DIMTP
 40
0.0
  9
$DIMTM
 40
0.0
  9
$DIMTXT
 40
3.5
  9
$DIMCEN
 40
0.09
  9
$DIMTSZ
 40
0.0
  9
$DIMTOL
 70
     0
  9
$DIMLIM
 70
     0
  9
$DIMTIH
 70
     1
  9
$DIMTOH
 70
     1
  9
$DIMSE1
 70
     0
  9
$DIMSE2
 70
     0
  9
$DIMTAD
 70
     1
  9
$DIMZIN
 70
     0
  9
$DIMBLK
  1

  9
$DIMASO
 70
     1
  9
$DIMSHO
 70
     1
  9
$DIMPOST
  1

  9
$DIMAPOST
  1

  9
$DIMALT
 70
     0
  9
$DIMALTD
 70
     2
  9
$DIMALTF
 40
25.4
  9
$DIMLFAC
 40
1.0
  9
$DIMTOFL
 70
     0
  9
$DIMTVP
 40
0.0
  9
$DIMTIX
 70
     0
  9
$DIMSOXD
 70
     0
  9
$DIMSAH
 70
     0
  9
$DIMBLK1
  1

  9
$DIMBLK2
  1

  9
$DIMSTYLE
  2
STANDARD
  9
$DIMCLRD
 70
     0
  9
$DIMCLRE
 70
     0
  9
$DIMCLRT
 70
     0
  9
$DIMTFAC
 40
1.0
  9
$DIMGAP
 40
0.09
  9
$LUNITS
 70
     2
  9
$LUPREC
 70
     2
  9
$AXISMODE
 70
     0
  9
$AXISUNIT
 10
0.0
 20
0.0
  9
$SKETCHINC
 40
0.1
  9
$FILLETRAD
 40
0.0
  9
$AUNITS
 70
     0
  9
$AUPREC
 70
     0
  9
$MENU
  1
acad
  9
$ELEVATION
 40
0.0
  9
$PELEVATION
 40
0.0
  9
$THICKNESS
 40
0.0
  9
$LIMCHECK
 70
     0
  9
$BLIPMODE
 70
     1
  9
$CHAMFERA
 40
0.0
  9
$CHAMFERB
 40
0.0
  9
$SKPOLY
 70
     0
  9
$TDCREATE
 40
0.000000000
  9
$TDUPDATE
 40
0.000000000
  9
$TDINDWG
 40
0.0000000000
  9
$TDUSRTIMER
 40
0.0000000000
  9
$USRTIMER
 70
     1
  9
$ANGBASE
 50
0.0
  9
$ANGDIR
 70
     0
  9
$PDMODE
 70
     0
  9
$PDSIZE
 40
0.0
  9
$PLINEWID
 40
0.0
  9
$COORDS
 70
     0
  9
$SPLFRAME
 70
     0
  9
$SPLINETYPE
 70
     6
  9
$SPLINESEGS
 70
     8
  9
$ATTDIA
 70
     0
  9
$ATTREQ
 70
     1
  9
$HANDLING
 70
     1
  9
$HANDSEED
  5
142
  9
$SURFTAB1
 70
     6
  9
$SURFTAB2
 70
     6
  9
$SURFTYPE
 70
     6
  9
$SURFU
 70
     6
  9
$SURFV
 70
     6
  9
$UCSNAME
  2

  9
$UCSORG
 10
0.0
 20
0.0
 30
0.0
  9
$UCSXDIR
 10
1.0
 20
0.0
 30
0.0
  9
$UCSYDIR
 10
0.0
 20
1.0
 30
0.0
  9
$PUCSNAME
  2

  9
$PUCSORG
 10
0.0
 20
0.0
 30
0.0
  9
$PUCSXDIR
 10
1.0
 20
0.0
 30
0.0
  9
$PUCSYDIR
 10
0.0
 20
1.0
 30
0.0
  9
$USERI1
 70
     0
  9
$USERI2
 70
     0
  9
$USERI3
 70
     0
  9
$USERI4
 70
     0
  9
$USERI5
 70
     0
  9
$USERR1
 40
0.0
  9
$USERR2
 40
0.0
  9
$USERR3
 40
0.0
  9
$USERR4
 40
0.0
  9
$USERR5
 40
0.0
  9
$WORLDVIEW
 70
     1
  9
$SHADEDGE
 70
     3
  9
$SHADEDIF
 70
    70
  9
$TILEMODE
 70
     1
  9
$MAXACTVP
 70
    16
  9
$PINSBASE
 10
0.0
 20
0.0
 30
0.0
  9
$PLIMCHECK
 70
     0
  9
$PEXTMIN
 10
1.000000E+20
 20
1.000000E+20
 30
1.000000E+20
  9
$PEXTMAX
 10
-1.000000E+20
 20
-1.000000E+20
 30
-1.000000E+20
  9
$PLIMMIN
 10
-210.0
 20
-148.5
  9
$PLIMMAX
 10
630.0
 20
445.5
  9
$UNITMODE
 70
     0
  9
$VISRETAIN
 70
     0
  9
$PLINEGEN
 70
     1
  9
$PSLTSCALE
 70
     0
  9
$TREEDEPTH
 70
  3020
  9
$DWGCODEPAGE
  3
dos850
  0
ENDSEC
  0
SECTION
  2
TABLES
  0
TABLE
  2
VPORT
 70
     1
  0
VPORT
  2
*ACTIVE
 70
     0
 10
0.0
 20
0.0
 11
1.0
 21
1.0
 12
420.0
 22
297.0
 13
0.0
 23
0.0
 14
1.0
 24
1.0
 15
0.0
 25
0.0
 16
0.0
 26
0.0
 36
1.0
 17
-210.0
 27
-148.5
 37
0.0
 40
594.0
 41
1.604229
 42
50.0
 43
0.0
 44
0.0
 50
0.0
 51
0.0
 71
     0
 72
   100
 73
     1
 74
     1
 75
     0
 76
     0
 77
     0
 78
     0
  0
ENDTAB
  0
TABLE
  2
LTYPE
 70
     3
  0
LTYPE
  2
CONTINUOUS
 70
    64
  3
Solid line
 72
    65
 73
     0
 40
0.0
  0
LTYPE
  2
DASHDOT
 70
    64
  3
__ . __ . __ . __ . __
 72
    65
 73
     4
 40
7.5
 49
5.0
 49
-1.25
 49
0.0
 49
-1.25
  0
LTYPE
  2
CENTER
 70
    64
  3
__ . __ . __ . __ . __
 72
    65
 73
     4
 40
7.5
 49
5.0
 49
-1.25
 49
0.0
 49
-1.25
  0
ENDTAB
  0
TABLE
  2
LAYER
 70
    11
  0
LAYER
  2
0
 70
     0
 62
     7
  6
CONTINUOUS
  0
LAYER
  2
LC-INFO-1-2-MM-A3-0
 70
     1
 62
    -1
  6
CONTINUOUS
  0
LAYER
  2
LC-003-003-MTH-0
 70
     0
 62
     2
  6
CONTINUOUS
  0
LAYER
  2
LC-004-003-MTG-0
 70
     0
 62
     2
  6
CONTINUOUS
  0
LAYER
  2
LC-002-003-----0
 70
     0
 62
     2
  6
CONTINUOUS
  0
LAYER
  2
LC-005-005-----0
 70
     0
 62
     2
  6
CONTINUOUS
  0
LAYER
  2
LC-001-000-----0
 70
     0
 62
     7
  6
CONTINUOUS
  0
LAYER
  2
LC-006-002-----0
 70
     0
 62
     1
  6
CONTINUOUS
  0
LAYER
  2
LC-007-007-KH--0
 70
     0
 62
     7
  6
DASHDOT
  0
LAYER
  2
LC-008-006-MLN-0
 70
     0
 62
     2
  6
CENTER
  0
LAYER
  2
LC-000
 70
     0
 62
     7
  6
CONTINUOUS
  0
ENDTAB
  0
TABLE
  2
STYLE
 70
     4
  0
STYLE
  2
STANDARD
 70
     0
 40
0.0
 41
1.0
 50
0.0
 71
     0
 42
0.0
  3
txt
  4

  0
STYLE
  2
LC-STANDARD
 70
    64
 40
0.0
 41
1.0
 50
0.0
 71
     0
 42
3.5
  3
MONOTXT
  4

  0
STYLE
  2
LC-TXTSTYLE-150-400-0-0-D2
 70
    64
 40
0.0
 41
1.0
 50
15.0
 71
     0
 42
3.5
  3
MONOTXT
  4

  0
STYLE
  2
LC-TXTSTYLE-150-400-0-0-D3
 70
    64
 40
0.0
 41
1.0
 50
15.0
 71
     0
 42
3.5
  3
LC-STANDARD
  4

  0
ENDTAB
  0
TABLE
  2
VIEW
 70
     0
  0
ENDTAB
  0
TABLE
  2
UCS
 70
     0
  0
ENDTAB
  0
TABLE
  2
APPID
 70
     1
  0
APPID
  2
ACAD
 70
     0
  0
ENDTAB
  0
TABLE
  2
DIMSTYLE
 70
     4
  0
DIMSTYLE
  2
STANDARD
 70
     0
  3

  4

  5

  6

  7

 40
1.0
 41
0.18
 42
0.0625
 43
0.38
 44
0.18
 45
0.0
 46
0.0
 47
0.0
 48
0.0
 71
     0
 72
     0
 73
     1
 74
     1
 75
     0
 76
     0
 77
     0
 78
     0
140
0.18
141
0.09
142
0.0
143
25.4
144
1.0
145
0.0
146
1.0
147
0.09
170
     0
171
     2
172
     0
173
     0
174
     0
175
     0
176
     0
177
     0
178
     0
  0
DIMSTYLE
  2
LC-STANDARD
 70
     0
  3

  4

  5

  6

  7

 40
1.0
 41
3.5
 42
0.0
 43
7.5
 44
1.8
 45
0.0
 46
0.0
 47
0.0
 48
0.0
 71
     0
 72
     0
 73
     0
 74
     0
 75
     0
 76
     0
 77
     1
 78
     8
140
3.5
141
0.0
142
0.0
143
25.4
144
1.0
145
0.0
146
0.71
147
1.5
170
     0
171
     2
172
     1
173
     0
174
     0
175
     0
176
     0
177
     0
178
     3
  0
DIMSTYLE
  2
LC-DIM-L-0090-02-02
 70
     0
  3

  4

  5

  6

  7

 40
2.0
 41
3.5
 42
0.0
 43
7.5
 44
1.8
 45
0.0
 46
0.0
 47
0.0
 48
0.0
 71
     0
 72
     0
 73
     0
 74
     0
 75
     0
 76
     0
 77
     1
 78
     8
140
9.0
141
0.0
142
0.0
143
25.4
144
1.0
145
0.0
146
0.71
147
1.5
170
     0
171
     2
172
     0
173
     0
174
     0
175
     0
176
     2
177
     2
178
     6
  0
DIMSTYLE
  2
LC-DIM-L-0090-01-02
 70
     0
  3

  4

  5

  6

  7

 40
2.0
 41
3.5
 42
0.0
 43
7.5
 44
1.8
 45
0.0
 46
0.0
 47
0.0
 48
0.0
 71
     0
 72
     0
 73
     0
 74
     0
 75
     0
 76
     0
 77
     1
 78
     8
140
9.0
141
0.0
142
0.0
143
25.4
144
1.0
145
0.0
146
0.71
147
1.5
170
     0
171
     2
172
     0
173
     0
174
     0
175
     0
176
     2
177
     2
178
     6
  0
ENDTAB
  0
ENDSEC
  0
SECTION
  2
BLOCKS
  0
BLOCK
  8
0
  5
24
  2
*D0
 70
    65
 10
0.0
 20
0.0
 30
0.0
  3
*D0
  0
LINE
  8
LC-003-003-MTH-0
  6
CONTINUOUS
  5
26
 10
106.493712
 20
220.142549
 30
0.0
 11
106.493712
 21
157.2
 31
0.0
  0
LINE
  8
LC-003-003-MTH-0
  6
CONTINUOUS
  5
27
 10
219.493712
 20
220.142549
 30
0.0
 11
219.493712
 21
157.2
 31
0.0
  0
LINE
  8
LC-004-003-MTG-0
  6
CONTINUOUS
  5
29
 10
106.493712
 20
168.0
 30
0.0
 11
219.493712
 21
168.0
 31
0.0
  0
LINE
  8
LC-002-003-----0
  6
CONTINUOUS
  5
2B
 10
124.33972
 20
170.349471
 30
0.0
 11
106.493712
 21
168.0
 31
0.0
  0
LINE
  8
LC-002-003-----0
  6
CONTINUOUS
  5
2C
 10
106.493712
 20
168.0
 30
0.0
 11
124.33972
 21
165.650529
 31
0.0
  0
LINE
  8
LC-002-003-----0
  6
CONTINUOUS
  5
2D
 10
124.33972
 20
165.650529
 30
0.0
 11
124.33972
 21
170.349471
 31
0.0
  0
LINE
  8
LC-002-003-----0
  6
CONTINUOUS
  5
2E
 10
124.379758
 20
169.738609
 30
0.0
 11
111.173712
 21
168.0
 31
0.0
  0
LINE
  8
LC-002-003-----0
  6
CONTINUOUS
  5
2F
 10
111.173712
 20
168.0
 30
0.0
 11
124.379758
 21
166.261391
 31
0.0
  0
LINE
  8
LC-002-003-----0
  6
CONTINUOUS
  5
30
 10
124.419796
 20
169.127746
 30
0.0
 11
115.853712
 21
168.0
 31
0.0
  0
LINE
  8
LC-002-003-----0
  6
CONTINUOUS
  5
31
 10
115.853712
 20
168.0
 30
0.0
 11
124.419796
 21
166.872254
 31
0.0
  0
LINE
  8
LC-002-003-----0
  6
CONTINUOUS
  5
32
 10
124.459834
 20
168.516884
 30
0.0
 11
120.533712
 21
168.0
 31
0.0
  0
LINE
  8
LC-002-003-----0
  6
CONTINUOUS
  5
33
 10
120.533712
 20
168.0
 30
0.0
 11
124.459834
 21
167.483116
 31
0.0
  0
LINE
  8
LC-002-003-----0
  6
CONTINUOUS
  5
34
 10
201.647705
 20
165.650529
 30
0.0
 11
219.493712
 21
168.0
 31
0.0
  0
LINE
  8
LC-002-003-----0
  6
CONTINUOUS
  5
35
 10
219.493712
 20
168.0
 30
0.0
 11
201.647705
 21
170.349471
 31
0.0
  0
LINE
  8
LC-002-003-----0
  6
CONTINUOUS
  5
36
 10
201.647705
 20
170.349471
 30
0.0
 11
201.647705
 21
165.650529
 31
0.0
  0
LINE
  8
LC-002-003-----0
  6
CONTINUOUS
  5
37
 10
201.607666
 20
166.261391
 30
0.0
 11
214.813712
 21
168.0
 31
0.0
  0
LINE
  8
LC-002-003-----0
  6
CONTINUOUS
  5
38
 10
214.813712
 20
168.0
 30
0.0
 11
201.607666
 21
169.738609
 31
0.0
  0
LINE
  8
LC-002-003-----0
  6
CONTINUOUS
  5
39
 10
201.567628
 20
166.872254
 30
0.0
 11
210.133712
 21
168.0
 31
0.0
  0
LINE
  8
LC-002-003-----0
  6
CONTINUOUS
  5
3A
 10
210.133712
 20
168.0
 30
0.0
 11
201.567628
 21
169.127746
 31
0.0
  0
LINE
  8
LC-002-003-----0
  6
CONTINUOUS
  5
3B
 10
201.52759
 20
167.483116
 30
0.0
 11
205.453712
 21
168.0
 31
0.0
  0
LINE
  8
LC-002-003-----0
  6
CONTINUOUS
  5
3C
 10
205.453712
 20
168.0
 30
0.0
 11
201.52759
 21
168.516884
 31
0.0
  0
TEXT
  8
LC-002-003-----0
  6
CONTINUOUS
 62
     6
  5
3E
 10
141.297619
 20
178.431999
 30
0.0
 40
18.0
  1
Ø113
 41
0.9
 51
15.0
  7
LC-TXTSTYLE-150-400-0-0-D0
 72
     1
 11
165.788958
 21
178.431999
 31
0.0
  0
ENDBLK
  8
0
  5
3F
  0
BLOCK
  8
0
  5
41
  2
*X1
 70
    65
 10
106.493712
 20
220.142549
 30
0.0
  3
*X1
  0
LINE
  8
LC-005-005-----0
  6
CONTINUOUS
  5
43
 10
216.493712
 20
224.978993
 30
0.0
 11
219.493712
 21
227.978993
 31
0.0
  0
LINE
  8
LC-005-005-----0
  6
CONTINUOUS
  5
44
 10
209.669232
 20
226.639795
 30
0.0
 11
219.493712
 21
236.464275
 31
0.0
  0
LINE
  8
LC-005-005-----0
  6
CONTINUOUS
  5
45
 10
201.183951
 20
226.639795
 30
0.0
 11
211.183951
 21
236.639795
 31
0.0
  0
LINE
  8
LC-005-005-----0
  6
CONTINUOUS
  5
46
 10
192.698669
 20
226.639795
 30
0.0
 11
202.698669
 21
236.639795
 31
0.0
  0
LINE
  8
LC-005-005-----0
  6
CONTINUOUS
  5
47
 10
184.213388
 20
226.639795
 30
0.0
 11
194.213388
 21
236.639795
 31
0.0
  0
LINE
  8
LC-005-005-----0
  6
CONTINUOUS
  5
48
 10
175.728106
 20
226.639795
 30
0.0
 11
185.728106
 21
236.639795
 31
0.0
  0
LINE
  8
LC-005-005-----0
  6
CONTINUOUS
  5
49
 10
167.993712
 20
227.390682
 30
0.0
 11
177.242825
 21
236.639795
 31
0.0
  0
LINE
  8
LC-005-005-----0
  6
CONTINUOUS
  5
4A
 10
166.257544
 20
234.139795
 30
0.0
 11
168.757544
 21
236.639795
 31
0.0
  0
LINE
  8
LC-005-005-----0
  6
CONTINUOUS
  5
4B
 10
150.272262
 20
226.639795
 30
0.0
 11
160.272262
 21
236.639795
 31
0.0
  0
LINE
  8
LC-005-005-----0
  6
CONTINUOUS
  5
4C
 10
141.786981
 20
226.639795
 30
0.0
 11
151.786981
 21
236.639795
 31
0.0
  0
LINE
  8
LC-005-005-----0
  6
CONTINUOUS
  5
4D
 10
133.3017
 20
226.639795
 30
0.0
 11
143.3017
 21
236.639795
 31
0.0
  0
LINE
  8
LC-005-005-----0
  6
CONTINUOUS
  5
4E
 10
124.816418
 20
226.639795
 30
0.0
 11
134.816418
 21
236.639795
 31
0.0
  0
LINE
  8
LC-005-005-----0
  6
CONTINUOUS
  5
4F
 10
116.331137
 20
226.639795
 30
0.0
 11
126.331137
 21
236.639795
 31
0.0
  0
LINE
  8
LC-005-005-----0
  6
CONTINUOUS
  5
50
 10
106.493712
 20
225.287651
 30
0.0
 11
117.845855
 21
236.639795
 31
0.0
  0
LINE
  8
LC-005-005-----0
  6
CONTINUOUS
  5
51
 10
106.493712
 20
233.772933
 30
0.0
 11
109.360574
 21
236.639795
 31
0.0
  0
ENDBLK
  8
0
  5
52
  0
BLOCK
  8
0
  5
54
  2
*D2
 70
    65
 10
0.0
 20
0.0
 30
0.0
  3
*D2
  0
LINE
  8
LC-003-003-MTH-0
  6
CONTINUOUS
  5
55
 10
219.493712
 20
220.142549
 30
0.0
 11
262.8
 21
220.142549
 31
0.0
  0
LINE
  8
LC-003-003-MTH-0
  6
CONTINUOUS
  5
56
 10
219.493712
 20
236.639795
 30
0.0
 11
262.8
 21
236.639795
 31
0.0
  0
LINE
  8
LC-002-003-----0
  6
CONTINUOUS
  5
57
 10
254.349471
 20
202.296542
 30
0.0
 11
252.0
 21
220.142549
 31
0.0
  0
LINE
  8
LC-002-003-----0
  6
CONTINUOUS
  5
58
 10
252.0
 20
220.142549
 30
0.0
 11
249.650529
 21
202.296542
 31
0.0
  0
LINE
  8
LC-002-003-----0
  6
CONTINUOUS
  5
59
 10
249.650529
 20
202.296542
 30
0.0
 11
254.349471
 21
202.296542
 31
0.0
  0
LINE
  8
LC-002-003-----0
  6
CONTINUOUS
  5
5A
 10
253.738609
 20
202.256504
 30
0.0
 11
252.0
 21
215.462549
 31
0.0
  0
LINE
  8
LC-002-003-----0
  6
CONTINUOUS
  5
5B
 10
252.0
 20
215.462549
 30
0.0
 11
250.261391
 21
202.256504
 31
0.0
  0
LINE
  8
LC-002-003-----0
  6
CONTINUOUS
  5
5C
 10
253.127746
 20
202.216466
 30
0.0
 11
252.0
 21
210.782549
 31
0.0
  0
LINE
  8
LC-002-003-----0
  6
CONTINUOUS
  5
5D
 10
252.0
 20
210.782549
 30
0.0
 11
250.872254
 21
202.216466
 31
0.0
  0
LINE
  8
LC-002-003-----0
  6
CONTINUOUS
  5
5E
 10
252.516884
 20
202.176428
 30
0.0
 11
252.0
 21
206.102549
 31
0.0
  0
LINE
  8
LC-002-003-----0
  6
CONTINUOUS
  5
5F
 10
252.0
 20
206.102549
 30
0.0
 11
251.483116
 21
202.176428
 31
0.0
  0
LINE
  8
LC-002-003-----0
  6
CONTINUOUS
  5
60
 10
249.650529
 20
254.485802
 30
0.0
 11
252.0
 21
236.639795
 31
0.0
  0
LINE
  8
LC-002-003-----0
  6
CONTINUOUS
  5
61
 10
252.0
 20
236.639795
 30
0.0
 11
254.349471
 21
254.485802
 31
0.0
  0
LINE
  8
LC-002-003-----0
  6
CONTINUOUS
  5
62
 10
254.349471
 20
254.485802
 30
0.0
 11
249.650529
 21
254.485802
 31
0.0
  0
LINE
  8
LC-002-003-----0
  6
CONTINUOUS
  5
63
 10
250.261391
 20
254.52584
 30
0.0
 11
252.0
 21
241.319795
 31
0.0
  0
LINE
  8
LC-002-003-----0
  6
CONTINUOUS
  5
64
 10
252.0
 20
241.319795
 30
0.0
 11
253.738609
 21
254.52584
 31
0.0
  0
LINE
  8
LC-002-003-----0
  6
CONTINUOUS
  5
65
 10
250.872254
 20
254.565878
 30
0.0
 11
252.0
 21
245.999795
 31
0.0
  0
LINE
  8
LC-002-003-----0
  6
CONTINUOUS
  5
66
 10
252.0
 20
245.999795
 30
0.0
 11
253.127746
 21
254.565878
 31
0.0
  0
LINE
  8
LC-002-003-----0
  6
CONTINUOUS
  5
67
 10
251.483116
 20
254.605916
 30
0.0
 11
252.0
 21
250.679795
 31
0.0
  0
LINE
  8
LC-002-003-----0
  6
CONTINUOUS
  5
68
 10
252.0
 20
250.679795
 30
0.0
 11
252.516884
 21
254.605916
 31
0.0
  0
LINE
  8
LC-004-003-MTG-0
  6
CONTINUOUS
  5
69
 10
252.0
 20
194.942549
 30
0.0
 11
252.0
 21
327.042314
 31
0.0
  0
TEXT
  8
LC-002-003-----0
  6
CONTINUOUS
 62
     6
  5
6A
 10
241.568001
 20
263.91504
 30
0.0
 40
18.0
  1
16,5
 50
90.0
 51
15.0
  7
LC-TXTSTYLE-150-400-0-0-D0
  0
ENDBLK
  8
0
  5
6B
  0
BLOCK
  8
0
  5
6D
  2
BLK1
 70
    64
 10
0.0
 20
0.0
 30
0.0
  3
BLK1
  0
ENDBLK
  8
0
  5
6E
  0
BLOCK
  8
0
  5
70
  2
BLK2
 70
    64
 10
0.0
 20
0.0
 30
0.0
  3
BLK2
  0
ENDBLK
  8
0
  5
71
  0
ENDSEC
  0
SECTION
  2
ENTITIES
  0
VIEWPORT
  8
LC-000
  5
13C
 67
     1
 68
     1
 10
420.0
 20
297.0
 30
0.0
 40
840.0
 41
594.0
 69
     1
1001
ACAD
1000
MVIEW
1002
{
1070
    16
1010
0.0
1020
0.0
1030
0.0
1010
0.0
1020
0.0
1030
1.0
1040
0.0
1040
594.0
1040
420.0
1040
297.0
1040
50.0
1040
0.0
1040
0.0
1070
     0
1070
   100
1070
     1
1070
     1
1070
     0
1070
     0
1070
     0
1070
     0
1040
0.0
1040
0.0
1040
0.0
1040
1.0
1040
1.0
1040
0.0
1040
0.0
1070
     0
1002
{
1002
}
1002
}
  0
VIEWPORT
  8
0
  5
13D
 67
     1
 68
     1
 10
0.0
 20
0.0
 30
0.0
 40
0.0
 41
0.0
 69
     1
1001
ACAD
1000
MVIEW
1002
{
1070
    16
1010
0.0
1020
0.0
1030
0.0
1010
0.0
1020
0.0
1030
1.0
1040
0.0
1040
594.0
1040
0.0
1040
0.0
1040
50.0
1040
0.0
1040
0.0
1070
     0
1070
   100
1070
     0
1070
     1
1070
     0
1070
     0
1070
     0
1070
     0
1040
0.0
1040
0.0
1040
0.0
1040
0.5
1040
0.5
1040
0.5
1040
0.5
1070
     0
1002
{
1002
}
1002
}
  0
DIMENSION
  8
0
  5
72
  2
*D0
 10
162.993712
 20
168.0
 30
0.0
 11
162.993712
 21
168.0
 31
0.0
  1
%%c<>
 13
106.493712
 23
220.142549
 33
0.0
 14
219.493712
 24
220.142549
 34
0.0
  3
LC-DIM-L-0090-02-02
  0
INSERT
  8
0
  5
73
  2
*X1
 10
106.493712
 20
220.142549
 30
0.0
  0
DIMENSION
  8
0
  5
74
  2
*D2
 10
252.0
 20
236.412
 30
0.0
 11
252.0
 21
236.412
 31
0.0
 13
219.493712
 23
236.639795
 33
0.0
 14
219.493712
 24
220.142549
 34
0.0
 50
90.0
  3
LC-DIM-L-0090-01-02
  0
INSERT
  8
0
  5
76
  2
BLK1
 10
0.0
 20
0.0
 30
0.0
  0
INSERT
  8
0
  5
77
  2
BLK2
 10
0.0
 20
0.0
 30
0.0
  0
LINE
  8
LC-006-002-----0
  6
CONTINUOUS
  5
79
 10
167.993712
 20
234.139795
 30
0.0
 11
157.993712
 21
234.139795
 31
0.0
  0
LINE
  8
LC-007-007-KH--0
  5
7C
 10
612.071003
 20
132.274894
 30
0.0
 11
611.071003
 21
131.274894
 31
0.0
  0
ARC
  8
LC-006-002-----0
  6
CONTINUOUS
  5
7D
 10
387.993712
 20
228.391172
 30
0.0
 40
25.0
 50
183.439813
 51
199.060187
  0
ARC
  8
LC-006-002-----0
  6
CONTINUOUS
  5
7E
 10
387.993712
 20
228.391172
 30
0.0
 40
27.5
 50
81.876776
 51
86.873224
  0
ARC
  8
LC-006-002-----0
  6
CONTINUOUS
  5
7F
 10
387.993712
 20
228.391172
 30
0.0
 40
53.5
 50
181.606634
 51
189.643366
  0
ARC
  8
LC-006-002-----0
  6
CONTINUOUS
  5
80
 10
387.993712
 20
228.391172
 30
0.0
 40
53.5
 50
170.356634
 51
178.393366
  0
CIRCLE
  8
LC-006-002-----0
  6
CONTINUOUS
  5
81
 10
387.993712
 20
228.391172
 30
0.0
 40
56.5
  0
ARC
  8
LC-006-002-----0
  6
CONTINUOUS
  5
82
 10
387.993712
 20
228.391172
 30
0.0
 40
53.5
 50
147.856634
 51
155.893366
  0
ARC
  8
LC-006-002-----0
  6
CONTINUOUS
  5
83
 10
387.993712
 20
228.391172
 30
0.0
 40
53.5
 50
136.606634
 51
144.643366
  0
ARC
  8
LC-006-002-----0
  6
CONTINUOUS
  5
84
 10
387.993712
 20
228.391172
 30
0.0
 40
53.5
 50
159.106634
 51
167.143366
  0
ARC
  8
LC-006-002-----0
  6
CONTINUOUS
  5
85
 10
387.993712
 20
228.391172
 30
0.0
 40
53.5
 50
125.356634
 51
133.393366
  0
ARC
  8
LC-006-002-----0
  6
CONTINUOUS
  5
86
 10
387.993712
 20
228.391172
 30
0.0
 40
53.5
 50
114.106634
 51
122.143366
  0
ARC
  8
LC-006-002-----0
  6
CONTINUOUS
  5
87
 10
387.993712
 20
228.391172
 30
0.0
 40
53.5
 50
102.856634
 51
110.893366
  0
ARC
  8
LC-006-002-----0
  6
CONTINUOUS
  5
88
 10
387.993712
 20
228.391172
 30
0.0
 40
53.5
 50
91.606634
 51
99.643366
  0
ARC
  8
LC-006-002-----0
  6
CONTINUOUS
  5
89
 10
387.993712
 20
228.391172
 30
0.0
 40
53.5
 50
80.356634
 51
88.393366
  0
ARC
  8
LC-006-002-----0
  6
CONTINUOUS
  5
8A
 10
387.993712
 20
228.391172
 30
0.0
 40
53.5
 50
69.106634
 51
77.143366
  0
ARC
  8
LC-006-002-----0
  6
CONTINUOUS
  5
8B
 10
387.993712
 20
228.391172
 30
0.0
 40
53.5
 50
57.856634
 51
65.893366
  0
ARC
  8
LC-006-002-----0
  6
CONTINUOUS
  5
8C
 10
387.993712
 20
228.391172
 30
0.0
 40
53.5
 50
46.606634
 51
54.643366
  0
ARC
  8
LC-006-002-----0
  6
CONTINUOUS
  5
8D
 10
387.993712
 20
228.391172
 30
0.0
 40
53.5
 50
35.356634
 51
43.393366
  0
ARC
  8
LC-006-002-----0
  6
CONTINUOUS
  5
8E
 10
387.993712
 20
228.391172
 30
0.0
 40
53.5
 50
24.106634
 51
32.143366
  0
ARC
  8
LC-006-002-----0
  6
CONTINUOUS
  5
8F
 10
387.993712
 20
228.391172
 30
0.0
 40
53.5
 50
12.856634
 51
20.893366
  0
LINE
  8
LC-006-002-----0
  6
CONTINUOUS
  5
90
 10
440.737732
 20
219.429121
 30
0.0
 11
415.21779
 21
224.505353
 31
0.0
  0
LINE
  8
LC-006-002-----0
  6
CONTINUOUS
  5
91
 10
219.493712
 20
220.142549
 30
0.0
 11
219.493712
 21
236.639795
 31
0.0
  0
LINE
  8
LC-006-002-----0
  6
CONTINUOUS
  5
92
 10
106.493712
 20
220.142549
 30
0.0
 11
219.493712
 21
220.142549
 31
0.0
  0
LINE
  8
LC-006-002-----0
  6
CONTINUOUS
  5
93
 10
106.493712
 20
236.639795
 30
0.0
 11
162.993712
 21
236.639795
 31
0.0
  0
LINE
  8
LC-006-002-----0
  6
CONTINUOUS
  5
94
 10
106.493712
 20
220.142549
 30
0.0
 11
106.493712
 21
236.639795
 31
0.0
  0
LINE
  8
LC-008-006-MLN-0
  6
DASHDOT
  5
97
 10
162.993712
 20
210.142549
 30
0.0
 11
162.993712
 21
246.639795
 31
0.0
  0
LINE
  8
LC-006-002-----0
  6
CONTINUOUS
  5
98
 10
219.493712
 20
236.639795
 30
0.0
 11
162.993712
 21
236.639795
 31
0.0
  0
ARC
  8
LC-006-002-----0
  6
CONTINUOUS
  5
99
 10
387.993712
 20
228.391172
 30
0.0
 40
53.5
 50
1.606003
 51
9.643366
  0
ARC
  8
LC-006-002-----0
  6
CONTINUOUS
  5
9A
 10
387.993712
 20
228.391172
 30
0.0
 40
53.5
 50
350.356634
 51
358.393997
  0
ARC
  8
LC-006-002-----0
  6
CONTINUOUS
  5
9B
 10
387.993712
 20
228.391172
 30
0.0
 40
53.5
 50
339.106634
 51
347.143366
  0
ARC
  8
LC-006-002-----0
  6
CONTINUOUS
  5
9C
 10
387.993712
 20
228.391172
 30
0.0
 40
53.5
 50
327.856634
 51
335.893366
  0
ARC
  8
LC-006-002-----0
  6
CONTINUOUS
  5
9D
 10
387.993712
 20
228.391172
 30
0.0
 40
53.5
 50
316.606634
 51
324.643366
  0
ARC
  8
LC-006-002-----0
  6
CONTINUOUS
  5
9E
 10
387.993712
 20
228.391172
 30
0.0
 40
53.5
 50
305.356634
 51
313.393366
  0
ARC
  8
LC-006-002-----0
  6
CONTINUOUS
  5
9F
 10
387.993712
 20
228.391172
 30
0.0
 40
53.5
 50
271.606634
 51
279.643366
  0
ARC
  8
LC-006-002-----0
  6
CONTINUOUS
  5
A0
 10
387.993712
 20
228.391172
 30
0.0
 40
53.5
 50
260.356634
 51
268.393366
  0
ARC
  8
LC-006-002-----0
  6
CONTINUOUS
  5
A1
 10
387.993712
 20
228.391172
 30
0.0
 40
53.5
 50
249.106634
 51
257.143366
  0
ARC
  8
LC-006-002-----0
  6
CONTINUOUS
  5
A2
 10
387.993712
 20
228.391172
 30
0.0
 40
53.5
 50
237.856634
 51
245.893366
  0
ARC
  8
LC-006-002-----0
  6
CONTINUOUS
  5
A3
 10
387.993712
 20
228.391172
 30
0.0
 40
53.5
 50
226.606634
 51
234.643366
  0
ARC
  8
LC-006-002-----0
  6
CONTINUOUS
  5
A4
 10
387.993712
 20
228.391172
 30
0.0
 40
53.5
 50
215.356634
 51
223.393366
  0
ARC
  8
LC-006-002-----0
  6
CONTINUOUS
  5
A5
 10
387.993712
 20
228.391172
 30
0.0
 40
53.5
 50
204.106634
 51
212.143366
  0
LINE
  8
LC-006-002-----0
  6
CONTINUOUS
  5
A6
 10
335.249692
 20
237.353223
 30
0.0
 11
360.769634
 21
232.276991
 31
0.0
  0
LINE
  8
LC-006-002-----0
  6
CONTINUOUS
  5
A7
 10
338.011563
 20
247.470868
 30
0.0
 11
362.050823
 21
237.51348
 31
0.0
  0
LINE
  8
LC-006-002-----0
  6
CONTINUOUS
  5
A8
 10
342.69422
 20
256.85529
 30
0.0
 11
364.328982
 21
242.399404
 31
0.0
  0
LINE
  8
LC-006-002-----0
  6
CONTINUOUS
  5
A9
 10
349.117711
 20
265.145853
 30
0.0
 11
367.516564
 21
246.747
 31
0.0
  0
LINE
  8
LC-006-002-----0
  6
CONTINUOUS
  5
AA
 10
357.035185
 20
272.023953
 30
0.0
 11
371.491071
 21
250.389191
 31
0.0
  0
LINE
  8
LC-006-002-----0
  6
CONTINUOUS
  5
AB
 10
366.142378
 20
277.225271
 30
0.0
 11
376.099765
 21
253.186011
 31
0.0
  0
LINE
  8
LC-006-002-----0
  6
CONTINUOUS
  5
AC
 10
109.493712
 20
226.639795
 30
0.0
 11
216.493712
 21
226.639795
 31
0.0
  0
LINE
  8
LC-006-002-----0
  6
CONTINUOUS
  5
AD
 10
109.493712
 20
220.142549
 30
0.0
 11
109.493712
 21
226.639795
 31
0.0
  0
LINE
  8
LC-006-002-----0
  6
CONTINUOUS
  5
AE
 10
216.493712
 20
220.142549
 30
0.0
 11
216.493712
 21
226.639795
 31
0.0
  0
LINE
  8
LC-006-002-----0
  6
CONTINUOUS
  5
AF
 10
157.993712
 20
226.639795
 30
0.0
 11
157.993712
 21
234.139795
 31
0.0
  0
LINE
  8
LC-006-002-----0
  6
CONTINUOUS
  5
B0
 10
167.993712
 20
226.639795
 30
0.0
 11
167.993712
 21
234.139795
 31
0.0
  0
LINE
  8
LC-006-002-----0
  6
CONTINUOUS
  5
B1
 10
376.089305
 20
280.549921
 30
0.0
 11
381.165537
 21
255.029979
 31
0.0
  0
LINE
  8
LC-006-002-----0
  6
CONTINUOUS
  5
B2
 10
386.493712
 20
281.87014
 30
0.0
 11
386.493712
 21
255.850232
 31
0.0
  0
LINE
  8
LC-006-002-----0
  6
CONTINUOUS
  5
B3
 10
396.955763
 20
281.135192
 30
0.0
 11
391.879531
 21
255.61525
 31
0.0
  0
LINE
  8
LC-006-002-----0
  6
CONTINUOUS
  5
B4
 10
407.073408
 20
278.373321
 30
0.0
 11
397.11602
 21
254.334061
 31
0.0
  0
LINE
  8
LC-006-002-----0
  6
CONTINUOUS
  5
B5
 10
416.45783
 20
273.690664
 30
0.0
 11
402.001944
 21
252.055902
 31
0.0
  0
LINE
  8
LC-006-002-----0
  6
CONTINUOUS
  5
B6
 10
424.748393
 20
267.267173
 30
0.0
 11
406.34954
 21
248.86832
 31
0.0
  0
LINE
  8
LC-006-002-----0
  6
CONTINUOUS
  5
B7
 10
431.626493
 20
259.349699
 30
0.0
 11
409.991731
 21
244.893813
 31
0.0
  0
LINE
  8
LC-006-002-----0
  6
CONTINUOUS
  5
B8
 10
436.827811
 20
250.242506
 30
0.0
 11
412.788551
 21
240.285119
 31
0.0
  0
LINE
  8
LC-006-002-----0
  6
CONTINUOUS
  5
B9
 10
440.152461
 20
240.295579
 30
0.0
 11
414.632519
 21
235.219347
 31
0.0
  0
LINE
  8
LC-006-002-----0
  6
CONTINUOUS
  5
BA
 10
441.493712
 20
229.891172
 30
0.0
 11
415.452772
 21
229.891172
 31
0.0
  0
ARC
  8
LC-006-002-----0
  6
CONTINUOUS
  5
BB
 10
387.993712
 20
228.391172
 30
0.0
 40
53.5
 50
294.106634
 51
302.143366
  0
LINE
  8
LC-006-002-----0
  6
CONTINUOUS
  5
BC
 10
437.975861
 20
209.311476
 30
0.0
 11
413.936601
 21
219.268864
 31
0.0
  0
LINE
  8
LC-006-002-----0
  6
CONTINUOUS
  5
BD
 10
433.293204
 20
199.927054
 30
0.0
 11
411.658442
 21
214.38294
 31
0.0
  0
LINE
  8
LC-006-002-----0
  6
CONTINUOUS
  5
BE
 10
426.869713
 20
191.636491
 30
0.0
 11
408.47086
 21
210.035344
 31
0.0
  0
LINE
  8
LC-006-002-----0
  6
CONTINUOUS
  5
BF
 10
418.952239
 20
184.758391
 30
0.0
 11
404.496353
 21
206.393153
 31
0.0
  0
LINE
  8
LC-006-002-----0
  6
CONTINUOUS
  5
C0
 10
409.845046
 20
179.557073
 30
0.0
 11
399.887659
 21
203.596333
 31
0.0
  0
LINE
  8
LC-006-002-----0
  6
CONTINUOUS
  5
C1
 10
399.898119
 20
176.232423
 30
0.0
 11
394.821887
 21
201.752365
 31
0.0
  0
LINE
  8
LC-006-002-----0
  6
CONTINUOUS
  5
C2
 10
389.493712
 20
174.912204
 30
0.0
 11
389.493712
 21
200.932112
 31
0.0
  0
LINE
  8
LC-006-002-----0
  6
CONTINUOUS
  5
C3
 10
379.031661
 20
175.647152
 30
0.0
 11
384.107893
 21
201.167094
 31
0.0
  0
LINE
  8
LC-006-002-----0
  6
CONTINUOUS
  5
C4
 10
368.914016
 20
178.409023
 30
0.0
 11
378.871404
 21
202.448283
 31
0.0
  0
LINE
  8
LC-006-002-----0
  6
CONTINUOUS
  5
C5
 10
359.529594
 20
183.09168
 30
0.0
 11
373.98548
 21
204.726442
 31
0.0
  0
LINE
  8
LC-006-002-----0
  6
CONTINUOUS
  5
C6
 10
351.239031
 20
189.515171
 30
0.0
 11
369.637884
 21
207.914024
 31
0.0
  0
LINE
  8
LC-006-002-----0
  6
CONTINUOUS
  5
C7
 10
344.360931
 20
197.432645
 30
0.0
 11
365.995693
 21
211.888531
 31
0.0
  0
LINE
  8
LC-006-002-----0
  6
CONTINUOUS
  5
C8
 10
339.159613
 20
206.539838
 30
0.0
 11
363.198873
 21
216.497225
 31
0.0
  0
LINE
  8
LC-006-002-----0
  6
CONTINUOUS
  5
C9
 10
335.834963
 20
216.486765
 30
0.0
 11
361.354905
 21
221.562997
 31
0.0
  0
ARC
  8
LC-006-002-----0
  6
CONTINUOUS
  5
CA
 10
387.993712
 20
228.391172
 30
0.0
 40
53.5
 50
192.856634
 51
200.893366
  0
ARC
  8
LC-006-002-----0
  6
CONTINUOUS
  5
CB
 10
387.993712
 20
228.391172
 30
0.0
 40
53.5
 50
282.856634
 51
290.893366
  0
ARC
  8
LC-006-002-----0
  6
CONTINUOUS
  5
CC
 10
387.993712
 20
228.391172
 30
0.0
 40
27.5
 50
149.376776
 51
154.373224
  0
ARC
  8
LC-006-002-----0
  6
CONTINUOUS
  5
CD
 10
387.993712
 20
228.391172
 30
0.0
 40
27.5
 50
93.126776
 51
98.123224
  0
ARC
  8
LC-006-002-----0
  6
CONTINUOUS
  5
CE
 10
387.993712
 20
228.391172
 30
0.0
 40
27.5
 50
138.126776
 51
143.123224
  0
ARC
  8
LC-006-002-----0
  6
CONTINUOUS
  5
CF
 10
387.993712
 20
228.391172
 30
0.0
 40
27.5
 50
126.876776
 51
131.873224
  0
ARC
  8
LC-006-002-----0
  6
CONTINUOUS
  5
D0
 10
387.993712
 20
228.391172
 30
0.0
 40
27.5
 50
104.376776
 51
109.373224
  0
ARC
  8
LC-006-002-----0
  6
CONTINUOUS
  5
D1
 10
387.993712
 20
228.391172
 30
0.0
 40
27.5
 50
115.626776
 51
120.623224
  0
ARC
  8
LC-006-002-----0
  6
CONTINUOUS
  5
D2
 10
387.993712
 20
228.391172
 30
0.0
 40
27.5
 50
160.626776
 51
165.623224
  0
ARC
  8
LC-006-002-----0
  6
CONTINUOUS
  5
D3
 10
387.993712
 20
228.391172
 30
0.0
 40
27.5
 50
171.876776
 51
176.873224
  0
ARC
  8
LC-006-002-----0
  6
CONTINUOUS
  5
D4
 10
387.993712
 20
228.391172
 30
0.0
 40
25.0
 50
205.939813
 51
221.560187
  0
ARC
  8
LC-006-002-----0
  6
CONTINUOUS
  5
D5
 10
387.993712
 20
228.391172
 30
0.0
 40
25.0
 50
228.439813
 51
244.060187
  0
ARC
  8
LC-006-002-----0
  6
CONTINUOUS
  5
D6
 10
387.993712
 20
228.391172
 30
0.0
 40
25.0
 50
250.939813
 51
266.560187
  0
ARC
  8
LC-006-002-----0
  6
CONTINUOUS
  5
D7
 10
387.993712
 20
228.391172
 30
0.0
 40
25.0
 50
273.439813
 51
289.060187
  0
ARC
  8
LC-006-002-----0
  6
CONTINUOUS
  5
D8
 10
387.993712
 20
228.391172
 30
0.0
 40
27.5
 50
183.126776
 51
188.123224
  0
ARC
  8
LC-006-002-----0
  6
CONTINUOUS
  5
D9
 10
387.993712
 20
228.391172
 30
0.0
 40
27.5
 50
194.376776
 51
199.373224
  0
ARC
  8
LC-006-002-----0
  6
CONTINUOUS
  5
DA
 10
387.993712
 20
228.391172
 30
0.0
 40
27.5
 50
205.626776
 51
210.623224
  0
ARC
  8
LC-006-002-----0
  6
CONTINUOUS
  5
DB
 10
387.993712
 20
228.391172
 30
0.0
 40
27.5
 50
216.876776
 51
221.873224
  0
ARC
  8
LC-006-002-----0
  6
CONTINUOUS
  5
DC
 10
387.993712
 20
228.391172
 30
0.0
 40
27.5
 50
228.126776
 51
233.123224
  0
ARC
  8
LC-006-002-----0
  6
CONTINUOUS
  5
DD
 10
387.993712
 20
228.391172
 30
0.0
 40
27.5
 50
239.376776
 51
244.373224
  0
ARC
  8
LC-006-002-----0
  6
CONTINUOUS
  5
DE
 10
387.993712
 20
228.391172
 30
0.0
 40
27.5
 50
250.626776
 51
255.623224
  0
ARC
  8
LC-006-002-----0
  6
CONTINUOUS
  5
DF
 10
387.993712
 20
228.391172
 30
0.0
 40
27.5
 50
261.876776
 51
266.873224
  0
ARC
  8
LC-006-002-----0
  6
CONTINUOUS
  5
E0
 10
387.993712
 20
228.391172
 30
0.0
 40
27.5
 50
273.126776
 51
278.123224
  0
ARC
  8
LC-006-002-----0
  6
CONTINUOUS
  5
E1
 10
387.993712
 20
228.391172
 30
0.0
 40
27.5
 50
284.376776
 51
289.373224
  0
ARC
  8
LC-006-002-----0
  6
CONTINUOUS
  5
E2
 10
387.993712
 20
228.391172
 30
0.0
 40
27.5
 50
318.126776
 51
323.123224
  0
ARC
  8
LC-006-002-----0
  6
CONTINUOUS
  5
E3
 10
387.993712
 20
228.391172
 30
0.0
 40
27.5
 50
306.876776
 51
311.873224
  0
ARC
  8
LC-006-002-----0
  6
CONTINUOUS
  5
E4
 10
387.993712
 20
228.391172
 30
0.0
 40
27.5
 50
295.626776
 51
300.623224
  0
ARC
  8
LC-006-002-----0
  6
CONTINUOUS
  5
E5
 10
387.993712
 20
228.391172
 30
0.0
 40
27.5
 50
329.376776
 51
334.373224
  0
ARC
  8
LC-006-002-----0
  6
CONTINUOUS
  5
E6
 10
387.993712
 20
228.391172
 30
0.0
 40
27.5
 50
340.626776
 51
345.623224
  0
ARC
  8
LC-006-002-----0
  6
CONTINUOUS
  5
E7
 10
387.993712
 20
228.391172
 30
0.0
 40
27.5
 50
70.626776
 51
75.623224
  0
ARC
  8
LC-006-002-----0
  6
CONTINUOUS
  5
E8
 10
387.993712
 20
228.391172
 30
0.0
 40
27.5
 50
351.876776
 51
356.873224
  0
ARC
  8
LC-006-002-----0
  6
CONTINUOUS
  5
E9
 10
387.993712
 20
228.391172
 30
0.0
 40
27.5
 50
3.126776
 51
8.123224
  0
ARC
  8
LC-006-002-----0
  6
CONTINUOUS
  5
EA
 10
387.993712
 20
228.391172
 30
0.0
 40
27.5
 50
14.376776
 51
19.373224
  0
LINE
  8
LC-006-002-----0
  6
CONTINUOUS
  5
EB
 10
334.514744
 20
229.891172
 30
0.0
 11
360.534652
 21
229.891172
 31
0.0
  0
LINE
  8
LC-006-002-----0
  6
CONTINUOUS
  5
EC
 10
335.834963
 20
240.295579
 30
0.0
 11
361.354905
 21
235.219347
 31
0.0
  0
LINE
  8
LC-006-002-----0
  6
CONTINUOUS
  5
ED
 10
339.159613
 20
250.242506
 30
0.0
 11
363.198873
 21
240.285119
 31
0.0
  0
LINE
  8
LC-006-002-----0
  6
CONTINUOUS
  5
EE
 10
344.360931
 20
259.349699
 30
0.0
 11
365.995693
 21
244.893813
 31
0.0
  0
LINE
  8
LC-006-002-----0
  6
CONTINUOUS
  5
EF
 10
351.239031
 20
267.267173
 30
0.0
 11
369.637884
 21
248.86832
 31
0.0
  0
LINE
  8
LC-006-002-----0
  6
CONTINUOUS
  5
F0
 10
359.529594
 20
273.690664
 30
0.0
 11
373.98548
 21
252.055902
 31
0.0
  0
LINE
  8
LC-006-002-----0
  6
CONTINUOUS
  5
F1
 10
368.914016
 20
278.373321
 30
0.0
 11
378.871404
 21
254.334061
 31
0.0
  0
LINE
  8
LC-006-002-----0
  6
CONTINUOUS
  5
F2
 10
379.031661
 20
281.135192
 30
0.0
 11
384.107893
 21
255.61525
 31
0.0
  0
LINE
  8
LC-006-002-----0
  6
CONTINUOUS
  5
F3
 10
389.493712
 20
281.87014
 30
0.0
 11
389.493712
 21
255.850232
 31
0.0
  0
LINE
  8
LC-006-002-----0
  6
CONTINUOUS
  5
F4
 10
399.898119
 20
280.549921
 30
0.0
 11
394.821887
 21
255.029979
 31
0.0
  0
LINE
  8
LC-006-002-----0
  6
CONTINUOUS
  5
F5
 10
409.845046
 20
277.225271
 30
0.0
 11
399.887659
 21
253.186011
 31
0.0
  0
LINE
  8
LC-006-002-----0
  6
CONTINUOUS
  5
F6
 10
418.952239
 20
272.023953
 30
0.0
 11
404.496353
 21
250.389191
 31
0.0
  0
LINE
  8
LC-006-002-----0
  6
CONTINUOUS
  5
F7
 10
426.869713
 20
265.145853
 30
0.0
 11
408.47086
 21
246.747
 31
0.0
  0
LINE
  8
LC-006-002-----0
  6
CONTINUOUS
  5
F8
 10
433.293204
 20
256.85529
 30
0.0
 11
411.658442
 21
242.399404
 31
0.0
  0
LINE
  8
LC-006-002-----0
  6
CONTINUOUS
  5
F9
 10
437.975861
 20
247.470868
 30
0.0
 11
413.936601
 21
237.51348
 31
0.0
  0
LINE
  8
LC-006-002-----0
  6
CONTINUOUS
  5
FA
 10
440.737732
 20
237.353223
 30
0.0
 11
415.21779
 21
232.276991
 31
0.0
  0
LINE
  8
LC-006-002-----0
  6
CONTINUOUS
  5
FB
 10
441.493712
 20
226.891172
 30
0.0
 11
415.452772
 21
226.891172
 31
0.0
  0
LINE
  8
LC-006-002-----0
  6
CONTINUOUS
  5
FC
 10
440.152461
 20
216.486765
 30
0.0
 11
414.632519
 21
221.562997
 31
0.0
  0
LINE
  8
LC-006-002-----0
  6
CONTINUOUS
  5
FD
 10
436.827811
 20
206.539838
 30
0.0
 11
412.788551
 21
216.497225
 31
0.0
  0
LINE
  8
LC-006-002-----0
  6
CONTINUOUS
  5
FE
 10
431.626493
 20
197.432645
 30
0.0
 11
409.991731
 21
211.888531
 31
0.0
  0
LINE
  8
LC-006-002-----0
  6
CONTINUOUS
  5
FF
 10
424.748393
 20
189.515171
 30
0.0
 11
406.34954
 21
207.914024
 31
0.0
  0
LINE
  8
LC-006-002-----0
  6
CONTINUOUS
  5
100
 10
334.514744
 20
226.891172
 30
0.0
 11
360.534652
 21
226.891172
 31
0.0
  0
LINE
  8
LC-006-002-----0
  6
CONTINUOUS
  5
101
 10
335.249692
 20
219.429121
 30
0.0
 11
360.769634
 21
224.505353
 31
0.0
  0
LINE
  8
LC-006-002-----0
  6
CONTINUOUS
  5
102
 10
416.45783
 20
183.09168
 30
0.0
 11
402.001944
 21
204.726442
 31
0.0
  0
LINE
  8
LC-006-002-----0
  6
CONTINUOUS
  5
103
 10
407.073408
 20
178.409023
 30
0.0
 11
397.11602
 21
202.448283
 31
0.0
  0
LINE
  8
LC-006-002-----0
  6
CONTINUOUS
  5
104
 10
396.955763
 20
175.647152
 30
0.0
 11
391.879531
 21
201.167094
 31
0.0
  0
LINE
  8
LC-006-002-----0
  6
CONTINUOUS
  5
105
 10
386.493712
 20
174.912204
 30
0.0
 11
386.493712
 21
200.932112
 31
0.0
  0
LINE
  8
LC-006-002-----0
  6
CONTINUOUS
  5
106
 10
376.089305
 20
176.232423
 30
0.0
 11
381.165537
 21
201.752365
 31
0.0
  0
LINE
  8
LC-006-002-----0
  6
CONTINUOUS
  5
107
 10
366.142378
 20
179.557073
 30
0.0
 11
376.099765
 21
203.596333
 31
0.0
  0
LINE
  8
LC-006-002-----0
  6
CONTINUOUS
  5
108
 10
357.035185
 20
184.758391
 30
0.0
 11
371.491071
 21
206.393153
 31
0.0
  0
LINE
  8
LC-006-002-----0
  6
CONTINUOUS
  5
109
 10
349.117711
 20
191.636491
 30
0.0
 11
367.516564
 21
210.035344
 31
0.0
  0
LINE
  8
LC-006-002-----0
  6
CONTINUOUS
  5
10A
 10
342.69422
 20
199.927054
 30
0.0
 11
364.328982
 21
214.38294
 31
0.0
  0
LINE
  8
LC-006-002-----0
  6
CONTINUOUS
  5
10B
 10
338.011563
 20
209.311476
 30
0.0
 11
362.050823
 21
219.268864
 31
0.0
  0
ARC
  8
LC-006-002-----0
  6
CONTINUOUS
  5
10C
 10
387.993712
 20
228.391172
 30
0.0
 40
27.5
 50
25.626776
 51
30.623224
  0
ARC
  8
LC-006-002-----0
  6
CONTINUOUS
  5
10D
 10
387.993712
 20
228.391172
 30
0.0
 40
27.5
 50
36.876776
 51
41.873224
  0
ARC
  8
LC-006-002-----0
  6
CONTINUOUS
  5
10E
 10
387.993712
 20
228.391172
 30
0.0
 40
25.0
 50
295.939813
 51
311.560187
  0
ARC
  8
LC-006-002-----0
  6
CONTINUOUS
  5
10F
 10
387.993712
 20
228.391172
 30
0.0
 40
27.5
 50
48.126776
 51
53.123224
  0
ARC
  8
LC-006-002-----0
  6
CONTINUOUS
  5
110
 10
387.993712
 20
228.391172
 30
0.0
 40
25.0
 50
318.439813
 51
334.060187
  0
ARC
  8
LC-006-002-----0
  6
CONTINUOUS
  5
111
 10
387.993712
 20
228.391172
 30
0.0
 40
27.5
 50
59.376776
 51
64.373224
  0
ARC
  8
LC-006-002-----0
  6
CONTINUOUS
  5
112
 10
387.993712
 20
228.391172
 30
0.0
 40
25.0
 50
340.939813
 51
356.560187
  0
ARC
  8
LC-006-002-----0
  6
CONTINUOUS
  5
113
 10
387.993712
 20
228.391172
 30
0.0
 40
25.0
 50
3.439813
 51
19.060187
  0
ARC
  8
LC-006-002-----0
  6
CONTINUOUS
  5
114
 10
387.993712
 20
228.391172
 30
0.0
 40
25.0
 50
25.939813
 51
41.560187
  0
ARC
  8
LC-006-002-----0
  6
CONTINUOUS
  5
115
 10
387.993712
 20
228.391172
 30
0.0
 40
25.0
 50
48.439813
 51
64.060187
  0
ARC
  8
LC-006-002-----0
  6
CONTINUOUS
  5
116
 10
387.993712
 20
228.391172
 30
0.0
 40
25.0
 50
70.939813
 51
86.560187
  0
ARC
  8
LC-006-002-----0
  6
CONTINUOUS
  5
117
 10
387.993712
 20
228.391172
 30
0.0
 40
25.0
 50
93.439813
 51
109.060187
  0
ARC
  8
LC-006-002-----0
  6
CONTINUOUS
  5
118
 10
387.993712
 20
228.391172
 30
0.0
 40
25.0
 50
115.939813
 51
131.560187
  0
ARC
  8
LC-006-002-----0
  6
CONTINUOUS
  5
119
 10
387.993712
 20
228.391172
 30
0.0
 40
25.0
 50
138.439813
 51
154.060187
  0
LINE
  8
LC-006-002-----0
  6
CONTINUOUS
  5
11A
 10
363.038753
 20
229.891172
 30
0.0
 11
380.452703
 21
229.891172
 31
0.0
  0
LINE
  8
LC-006-002-----0
  6
CONTINUOUS
  5
11B
 10
364.364311
 20
220.227142
 30
0.0
 11
380.452703
 21
226.891172
 31
0.0
  0
ARC
  8
LC-006-002-----0
  6
CONTINUOUS
  5
11C
 10
387.993712
 20
228.391172
 30
0.0
 40
25.0
 50
160.939813
 51
176.560187
  0
LINE
  8
LC-006-002-----0
  6
CONTINUOUS
  5
11D
 10
369.287231
 20
211.806011
 30
0.0
 11
381.600753
 21
224.119533
 31
0.0
  0
LINE
  8
LC-006-002-----0
  6
CONTINUOUS
  5
11E
 10
381.600753
 20
224.119533
 30
0.0
 11
365.512361
 21
217.455503
 31
0.0
  0
LINE
  8
LC-006-002-----0
  6
CONTINUOUS
  5
11F
 10
383.722073
 20
221.998213
 30
0.0
 11
371.408551
 21
209.684691
 31
0.0
  0
LINE
  8
LC-006-002-----0
  6
CONTINUOUS
  5
120
 10
386.493712
 20
220.850163
 30
0.0
 11
379.829682
 21
204.761771
 31
0.0
  0
LINE
  8
LC-006-002-----0
  6
CONTINUOUS
  5
121
 10
389.493712
 20
220.850163
 30
0.0
 11
389.493712
 21
203.436213
 31
0.0
  0
LINE
  8
LC-006-002-----0
  6
CONTINUOUS
  5
122
 10
394.386671
 20
224.119533
 30
0.0
 11
406.700193
 21
211.806011
 31
0.0
  0
LINE
  8
LC-006-002-----0
  6
CONTINUOUS
  5
123
 10
395.534721
 20
226.891172
 30
0.0
 11
411.623113
 21
220.227142
 31
0.0
  0
LINE
  8
LC-006-002-----0
  6
CONTINUOUS
  5
124
 10
365.512361
 20
239.326841
 30
0.0
 11
381.600753
 21
232.662811
 31
0.0
  0
LINE
  8
LC-006-002-----0
  6
CONTINUOUS
  5
125
 10
392.265351
 20
221.998213
 30
0.0
 11
398.929381
 21
205.909821
 31
0.0
  0
LINE
  8
LC-006-002-----0
  6
CONTINUOUS
  5
126
 10
395.534721
 20
229.891172
 30
0.0
 11
412.948671
 21
229.891172
 31
0.0
  0
LINE
  8
LC-006-002-----0
  6
CONTINUOUS
  5
127
 10
371.408551
 20
247.097653
 30
0.0
 11
383.722073
 21
234.784131
 31
0.0
  0
LINE
  8
LC-006-002-----0
  6
CONTINUOUS
  5
128
 10
394.386671
 20
232.662811
 30
0.0
 11
410.475063
 21
239.326841
 31
0.0
  0
LINE
  8
LC-006-002-----0
  6
CONTINUOUS
  5
129
 10
392.265351
 20
234.784131
 30
0.0
 11
404.578873
 21
247.097653
 31
0.0
  0
LINE
  8
LC-006-002-----0
  6
CONTINUOUS
  5
12A
 10
389.493712
 20
235.932181
 30
0.0
 11
396.157742
 21
252.020573
 31
0.0
  0
LINE
  8
LC-006-002-----0
  6
CONTINUOUS
  5
12B
 10
379.829682
 20
252.020573
 30
0.0
 11
386.493712
 21
235.932181
 31
0.0
  0
LINE
  8
LC-006-002-----0
  6
CONTINUOUS
  5
12C
 10
386.493712
 20
235.932181
 30
0.0
 11
386.493712
 21
253.346131
 31
0.0
  0
LINE
  8
LC-006-002-----0
  6
CONTINUOUS
  5
12D
 10
383.722073
 20
234.784131
 30
0.0
 11
377.058043
 21
250.872523
 31
0.0
  0
LINE
  8
LC-006-002-----0
  6
CONTINUOUS
  5
12E
 10
389.493712
 20
253.346131
 30
0.0
 11
389.493712
 21
235.932181
 31
0.0
  0
LINE
  8
LC-006-002-----0
  6
CONTINUOUS
  5
12F
 10
381.600753
 20
232.662811
 30
0.0
 11
369.287231
 21
244.976333
 31
0.0
  0
LINE
  8
LC-006-002-----0
  6
CONTINUOUS
  5
130
 10
380.452703
 20
229.891172
 30
0.0
 11
364.364311
 21
236.555202
 31
0.0
  0
LINE
  8
LC-006-002-----0
  6
CONTINUOUS
  5
131
 10
377.058043
 20
205.909821
 30
0.0
 11
383.722073
 21
221.998213
 31
0.0
  0
LINE
  8
LC-006-002-----0
  6
CONTINUOUS
  5
132
 10
363.038753
 20
226.891172
 30
0.0
 11
380.452703
 21
226.891172
 31
0.0
  0
LINE
  8
LC-006-002-----0
  6
CONTINUOUS
  5
133
 10
386.493712
 20
203.436213
 30
0.0
 11
386.493712
 21
220.850163
 31
0.0
  0
LINE
  8
LC-006-002-----0
  6
CONTINUOUS
  5
134
 10
398.929381
 20
250.872523
 30
0.0
 11
392.265351
 21
234.784131
 31
0.0
  0
LINE
  8
LC-006-002-----0
  6
CONTINUOUS
  5
135
 10
406.700193
 20
244.976333
 30
0.0
 11
394.386671
 21
232.662811
 31
0.0
  0
LINE
  8
LC-006-002-----0
  6
CONTINUOUS
  5
136
 10
411.623113
 20
236.555202
 30
0.0
 11
395.534721
 21
229.891172
 31
0.0
  0
LINE
  8
LC-006-002-----0
  6
CONTINUOUS
  5
137
 10
410.475063
 20
217.455503
 30
0.0
 11
394.386671
 21
224.119533
 31
0.0
  0
LINE
  8
LC-006-002-----0
  6
CONTINUOUS
  5
138
 10
404.578873
 20
209.684691
 30
0.0
 11
392.265351
 21
221.998213
 31
0.0
  0
LINE
  8
LC-006-002-----0
  6
CONTINUOUS
  5
139
 10
396.157742
 20
204.761771
 30
0.0
 11
389.493712
 21
220.850163
 31
0.0
  0
LINE
  8
LC-006-002-----0
  6
CONTINUOUS
  5
13A
 10
412.948671
 20
226.891172
 30
0.0
 11
395.534721
 21
226.891172
 31
0.0
  0
ENDSEC
  0
EOF
