  0
SECTION
  2
HEADER
  9
$ACADVER
  1
AC1015
  9
$ACADMAINTVER
 70
     6
  9
$DWGCODEPAGE
  3
ANSI_1252
  9
$INSBASE
 10
0.0
 20
0.0
 30
0.0
  9
$EXTMIN
 10
-209.760318
 20
-147.978432
 30
0.0
  9
$EXTMAX
 10
630.239682
 20
446.021568
 30
0.0
  9
$LIMMIN
 10
-209.760318
 20
-147.978432
  9
$LIMMAX
 10
630.239682
 20
446.021568
  9
$ORTHOMODE
 70
     0
  9
$REGENMODE
 70
     1
  9
$FILLMODE
 70
     1
  9
$QTEXTMODE
 70
     0
  9
$MIRRTEXT
 70
     1
  9
$LTSCALE
 40
2.0
  9
$ATTMODE
 70
     1
  9
$TEXTSIZE
 40
2.5
  9
$TRACEWID
 40
1.0
  9
$TEXTSTYLE
  7
Standard
  9
$CLAYER
  8
0
  9
$CELTYPE
  6
ByLayer
  9
$CECOLOR
 62
     7
  9
$CELTSCALE
 40
1.0
  9
$DISPSILH
 70
     0
  9
$DIMSCALE
 40
2.0
  9
$DIMASZ
 40
3.5
  9
$DIMEXO
 40
0.625
  9
$DIMDLI
 40
3.75
  9
$DIMRND
 40
0.0
  9
$DIMDLE
 40
0.0
  9
$DIMEXE
 40
1.25
  9
$DIMTP
 40
0.0
  9
$DIMTM
 40
0.0
  9
$DIMTXT
 40
3.5
  9
$DIMCEN
 40
2.5
  9
$DIMTSZ
 40
0.0
  9
$DIMTOL
 70
     0
  9
$DIMLIM
 70
     0
  9
$DIMTIH
 70
     0
  9
$DIMTOH
 70
     0
  9
$DIMSE1
 70
     0
  9
$DIMSE2
 70
     0
  9
$DIMTAD
 70
     1
  9
$DIMZIN
 70
     8
  9
$DIMBLK
  1

  9
$DIMASO
 70
     1
  9
$DIMSHO
 70
     1
  9
$DIMPOST
  1

  9
$DIMAPOST
  1

  9
$DIMALT
 70
     0
  9
$DIMALTD
 70
     3
  9
$DIMALTF
 40
0.03937
  9
$DIMLFAC
 40
1.0
  9
$DIMTOFL
 70
     1
  9
$DIMTVP
 40
0.0
  9
$DIMTIX
 70
     0
  9
$DIMSOXD
 70
     0
  9
$DIMSAH
 70
     0
  9
$DIMBLK1
  1

  9
$DIMBLK2
  1

  9
$DIMSTYLE
  2
ISO-25
  9
$DIMCLRD
 70
     0
  9
$DIMCLRE
 70
     0
  9
$DIMCLRT
 70
     0
  9
$DIMTFAC
 40
1.0
  9
$DIMGAP
 40
0.625
  9
$DIMJUST
 70
     0
  9
$DIMSD1
 70
     0
  9
$DIMSD2
 70
     0
  9
$DIMTOLJ
 70
     0
  9
$DIMTZIN
 70
     8
  9
$DIMALTZ
 70
     0
  9
$DIMALTTZ
 70
     0
  9
$DIMUPT
 70
     0
  9
$DIMDEC
 70
     2
  9
$DIMTDEC
 70
     2
  9
$DIMALTU
 70
     2
  9
$DIMALTTD
 70
     3
  9
$DIMTXSTY
  7
Standard
  9
$DIMAUNIT
 70
     0
  9
$DIMADEC
 70
     0
  9
$DIMALTRND
 40
0.0
  9
$DIMAZIN
 70
     0
  9
$DIMDSEP
 70
    44
  9
$DIMATFIT
 70
     3
  9
$DIMFRAC
 70
     0
  9
$DIMLDRBLK
  1

  9
$DIMLUNIT
 70
     2
  9
$DIMLWD
 70
    -2
  9
$DIMLWE
 70
    -2
  9
$DIMTMOVE
 70
     0
  9
$LUNITS
 70
     2
  9
$LUPREC
 70
     4
  9
$SKETCHINC
 40
1.0
  9
$FILLETRAD
 40
10.0
  9
$AUNITS
 70
     0
  9
$AUPREC
 70
     0
  9
$MENU
  1
.
  9
$ELEVATION
 40
0.0
  9
$PELEVATION
 40
0.0
  9
$THICKNESS
 40
0.0
  9
$LIMCHECK
 70
     0
  9
$CHAMFERA
 40
10.0
  9
$CHAMFERB
 40
10.0
  9
$CHAMFERC
 40
20.0
  9
$CHAMFERD
 40
0.0
  9
$SKPOLY
 70
     0
  9
$TDCREATE
 40
2455537.332729363
  9
$TDUCREATE
 40
2455537.291062697
  9
$TDUPDATE
 40
2455537.332729375
  9
$TDUUPDATE
 40
2455537.291062709
  9
$TDINDWG
 40
0.0000000116
  9
$TDUSRTIMER
 40
0.0000000116
  9
$USRTIMER
 70
     1
  9
$ANGBASE
 50
0.0
  9
$ANGDIR
 70
     0
  9
$PDMODE
 70
     0
  9
$PDSIZE
 40
0.0
  9
$PLINEWID
 40
0.0
  9
$SPLFRAME
 70
     0
  9
$SPLINETYPE
 70
     6
  9
$SPLINESEGS
 70
     8
  9
$HANDSEED
  5
2BD
  9
$SURFTAB1
 70
     6
  9
$SURFTAB2
 70
     6
  9
$SURFTYPE
 70
     6
  9
$SURFU
 70
     6
  9
$SURFV
 70
     6
  9
$UCSBASE
  2

  9
$UCSNAME
  2

  9
$UCSORG
 10
0.0
 20
0.0
 30
0.0
  9
$UCSXDIR
 10
1.0
 20
0.0
 30
0.0
  9
$UCSYDIR
 10
0.0
 20
1.0
 30
0.0
  9
$UCSORTHOREF
  2

  9
$UCSORTHOVIEW
 70
     0
  9
$UCSORGTOP
 10
0.0
 20
0.0
 30
0.0
  9
$UCSORGBOTTOM
 10
0.0
 20
0.0
 30
0.0
  9
$UCSORGLEFT
 10
0.0
 20
0.0
 30
0.0
  9
$UCSORGRIGHT
 10
0.0
 20
0.0
 30
0.0
  9
$UCSORGFRONT
 10
0.0
 20
0.0
 30
0.0
  9
$UCSORGBACK
 10
0.0
 20
0.0
 30
0.0
  9
$PUCSBASE
  2

  9
$PUCSNAME
  2

  9
$PUCSORG
 10
0.0
 20
0.0
 30
0.0
  9
$PUCSXDIR
 10
1.0
 20
0.0
 30
0.0
  9
$PUCSYDIR
 10
0.0
 20
1.0
 30
0.0
  9
$PUCSORTHOREF
  2

  9
$PUCSORTHOVIEW
 70
     0
  9
$PUCSORGTOP
 10
0.0
 20
0.0
 30
0.0
  9
$PUCSORGBOTTOM
 10
0.0
 20
0.0
 30
0.0
  9
$PUCSORGLEFT
 10
0.0
 20
0.0
 30
0.0
  9
$PUCSORGRIGHT
 10
0.0
 20
0.0
 30
0.0
  9
$PUCSORGFRONT
 10
0.0
 20
0.0
 30
0.0
  9
$PUCSORGBACK
 10
0.0
 20
0.0
 30
0.0
  9
$USERI1
 70
     0
  9
$USERI2
 70
     0
  9
$USERI3
 70
     0
  9
$USERI4
 70
     0
  9
$USERI5
 70
     0
  9
$USERR1
 40
0.0
  9
$USERR2
 40
0.0
  9
$USERR3
 40
0.0
  9
$USERR4
 40
0.0
  9
$USERR5
 40
0.0
  9
$WORLDVIEW
 70
     1
  9
$SHADEDGE
 70
     3
  9
$SHADEDIF
 70
    70
  9
$TILEMODE
 70
     1
  9
$MAXACTVP
 70
    64
  9
$PINSBASE
 10
0.0
 20
0.0
 30
0.0
  9
$PLIMCHECK
 70
     0
  9
$PEXTMIN
 10
-209.760318
 20
-147.978432
 30
0.0
  9
$PEXTMAX
 10
630.239682
 20
446.021568
 30
0.0
  9
$PLIMMIN
 10
-209.760318
 20
-147.978432
  9
$PLIMMAX
 10
630.239682
 20
446.021568
  9
$UNITMODE
 70
     0
  9
$VISRETAIN
 70
     1
  9
$PLINEGEN
 70
     0
  9
$PSLTSCALE
 70
     1
  9
$TREEDEPTH
 70
  3020
  9
$CMLSTYLE
  2
Standard
  9
$CMLJUST
 70
     0
  9
$CMLSCALE
 40
20.0
  9
$PROXYGRAPHICS
 70
     1
  9
$MEASUREMENT
 70
     1
  9
$CELWEIGHT
370
    -1
  9
$ENDCAPS
280
     0
  9
$JOINSTYLE
280
     0
  9
$LWDISPLAY
290
     0
  9
$INSUNITS
 70
     4
  9
$HYPERLINKBASE
  1

  9
$STYLESHEET
  1

  9
$XEDIT
290
     1
  9
$CEPSNTYPE
380
     0
  9
$PSTYLEMODE
290
     1
  9
$FINGERPRINTGUID
  2
{FAEB1C30-E019-11D5-929B-00C0DF256EC4}
  9
$VERSIONGUID
  2
{FAEB1C32-E019-11D5-929B-00C0DF256EC4}
  9
$EXTNAMES
290
     1
  9
$PSVPSCALE
 40
0.0
  9
$OLESTARTUP
290
     0
  0
ENDSEC
  0
SECTION
  2
CLASSES
  0
CLASS
  1
ACDBDICTIONARYWDFLT
  2
AcDbDictionaryWithDefault
  3
ObjectDBX Classes
 90
        0
280
     0
281
     0
  0
CLASS
  1
ACDBPLACEHOLDER
  2
AcDbPlaceHolder
  3
ObjectDBX Classes
 90
        0
280
     0
281
     0
  0
CLASS
  1
LAYOUT
  2
AcDbLayout
  3
ObjectDBX Classes
 90
        0
280
     0
281
     0
  0
ENDSEC
  0
SECTION
  2
TABLES
  0
TABLE
  2
VPORT
  5
8
330
0
100
AcDbSymbolTable
 70
     2
  0
VPORT
  5
29
330
8
100
AcDbSymbolTableRecord
100
AcDbViewportTableRecord
  2
*ACTIVE
 70
     0
 10
0.0
 20
0.0
 11
1.0
 21
1.0
 12
210.239682
 22
149.021568
 13
0.0
 23
0.0
 14
1.0
 24
1.0
 15
0.0
 25
0.0
 16
0.0
 26
0.0
 36
1.0
 17
0.0
 27
0.0
 37
0.0
 40
594.0
 41
1.414141
 42
50.0
 43
0.0
 44
0.0
 50
0.0
 51
0.0
 71
    16
 72
   100
 73
     1
 74
     0
 75
     0
 76
     0
 77
     0
 78
     0
281
     0
 65
     0
110
0.0
120
0.0
130
0.0
111
1.0
121
0.0
131
0.0
112
0.0
122
1.0
132
0.0
 79
     0
146
0.0
  0
ENDTAB
  0
TABLE
  2
LTYPE
  5
5
330
0
100
AcDbSymbolTable
 70
     2
  0
LTYPE
  5
14
330
5
100
AcDbSymbolTableRecord
100
AcDbLinetypeTableRecord
  2
ByBlock
 70
     0
  3

 72
    65
 73
     0
 40
0.0
  0
LTYPE
  5
15
330
5
100
AcDbSymbolTableRecord
100
AcDbLinetypeTableRecord
  2
ByLayer
 70
     0
  3

 72
    65
 73
     0
 40
0.0
  0
LTYPE
  5
16
330
5
100
AcDbSymbolTableRecord
100
AcDbLinetypeTableRecord
  2
Continuous
 70
     0
  3
Solid line
 72
    65
 73
     0
 40
0.0
  0
LTYPE
  5
2A
330
5
100
AcDbSymbolTableRecord
100
AcDbLinetypeTableRecord
  2
DASHED
 70
     0
  3
__ __ __ __ __
 72
    65
 73
     2
 40
6.25
 49
5.0
 74
     4
 75
     0
340
0
 46
1.0
 50
0.0
 44
0.0
 45
0.0
 49
-1.25
 74
     4
 75
     0
340
0
 46
1.0
 50
0.0
 44
0.0
 45
0.0
  0
ENDTAB
  0
TABLE
  2
LAYER
  5
2
330
0
100
AcDbSymbolTable
 70
     8
  0
LAYER
  5
10
330
2
100
AcDbSymbolTableRecord
100
AcDbLayerTableRecord
  2
0
 70
     0
 62
     7
  6
Continuous
370
    -3
390
F
  0
LAYER
  5
2B
330
2
100
AcDbSymbolTableRecord
100
AcDbLayerTableRecord
  2
LC-INFO-1-2-mm-A3-0
 70
     1
 62
     7
  6
ByBlock
370
    -3
390
F
  0
LAYER
  5
2C
330
2
100
AcDbSymbolTableRecord
100
AcDbLayerTableRecord
  2
LC-CUT-HIDDEN
 70
     0
 62
     7
  6
DASHED
370
    -3
390
F
  0
LAYER
  5
2D
330
2
100
AcDbSymbolTableRecord
100
AcDbLayerTableRecord
  2
LC-VIEWPORT
 70
     0
 62
     7
  6
ByBlock
370
    -3
390
F
  0
LAYER
  5
2E
330
2
100
AcDbSymbolTableRecord
100
AcDbLayerTableRecord
  2
LC-3D-HIDDEN
 70
     0
 62
     9
  6
DASHED
370
    -3
390
F
  0
LAYER
  5
34
330
2
100
AcDbSymbolTableRecord
100
AcDbLayerTableRecord
  2
LC-001-100-D00-0
 70
     0
 62
     1
  6
ByBlock
370
    -3
390
F
  0
LAYER
  5
2AE
330
2
100
AcDbSymbolTableRecord
100
AcDbLayerTableRecord
  2
LC-002-106-D00-0
 70
     0
 62
     2
  6
ByBlock
370
    -3
390
F
  0
LAYER
  5
2B0
330
2
100
AcDbSymbolTableRecord
100
AcDbLayerTableRecord
  2
Defpoints
 70
     0
 62
     7
  6
Continuous
290
     0
370
    -3
390
F
  0
ENDTAB
  0
TABLE
  2
STYLE
  5
3
330
0
100
AcDbSymbolTable
 70
     4
  0
STYLE
  5
11
330
3
100
AcDbSymbolTableRecord
100
AcDbTextStyleTableRecord
  2
Standard
 70
     0
 40
0.0
 41
1.0
 50
0.0
 71
     0
 42
2.5
  3
txt
  4

  0
STYLE
  5
2F
330
3
100
AcDbSymbolTableRecord
100
AcDbTextStyleTableRecord
  2
LCTX0-400-0-0pDIN-Schrift
 70
     0
 40
0.0
 41
0.75
 50
0.0
 71
     0
 42
3.5
  3
TXT
  4

  0
STYLE
  5
30
330
3
100
AcDbSymbolTableRecord
100
AcDbTextStyleTableRecord
  2
LCTX15-400-0-0-Arial
 70
     0
 40
0.0
 41
0.8
 50
0.0
 71
     0
 42
3.5
  3

  4

1001
ACAD
1000
Arial
1071
 16777218
  0
STYLE
  5
2AC
330
3
100
AcDbSymbolTableRecord
100
AcDbTextStyleTableRecord
  2
LCTX15-400-0-0pDIN-Schrift
 70
     0
 40
2.5
 41
0.8
 50
15.0
 71
     0
 42
3.5
  3
STANDARD
  4

  0
ENDTAB
  0
TABLE
  2
VIEW
  5
6
330
0
100
AcDbSymbolTable
 70
     0
  0
ENDTAB
  0
TABLE
  2
UCS
  5
7
330
0
100
AcDbSymbolTable
 70
     0
  0
ENDTAB
  0
TABLE
  2
APPID
  5
9
330
0
100
AcDbSymbolTable
 70
     1
  0
APPID
  5
12
330
9
100
AcDbSymbolTableRecord
100
AcDbRegAppTableRecord
  2
ACAD
 70
     0
  0
ENDTAB
  0
TABLE
  2
DIMSTYLE
  5
A
330
0
100
AcDbSymbolTable
 70
     2
100
AcDbDimStyleTable
  0
DIMSTYLE
105
27
330
A
100
AcDbSymbolTableRecord
100
AcDbDimStyleTableRecord
  2
ISO-25
 70
     0
 41
2.5
 42
0.625
 43
3.75
 44
1.25
 73
     0
 74
     0
 77
     1
 78
     8
140
2.5
141
2.5
143
0.03937
147
0.625
171
     3
172
     1
271
     2
272
     2
274
     3
278
    44
283
     0
284
     8
340
11
  0
DIMSTYLE
105
2AD
102
{ACAD_REACTORS
330
2AF
102
}
330
A
100
AcDbSymbolTableRecord
100
AcDbDimStyleTableRecord
  2
LC-DIM-L-0140-02-02
 70
     0
 40
2.0
 41
14.0
 42
0.0
 43
7.5
 44
1.8
 73
     0
 74
     0
 77
     1
 78
     8
 79
     2
140
14.0
141
0.0
146
0.71
147
1.5
176
     2
177
     2
178
     2
179
     2
271
     2
278
    44
289
     1
340
2AC
  0
ENDTAB
  0
TABLE
  2
BLOCK_RECORD
  5
1
330
0
100
AcDbSymbolTable
 70
    10
  0
BLOCK_RECORD
  5
1F
330
1
100
AcDbSymbolTableRecord
100
AcDbBlockTableRecord
  2
*Model_Space
340
22
  0
BLOCK_RECORD
  5
1B
330
1
100
AcDbSymbolTableRecord
100
AcDbBlockTableRecord
  2
*Paper_Space
340
1E
  0
BLOCK_RECORD
  5
23
330
1
100
AcDbSymbolTableRecord
100
AcDbBlockTableRecord
  2
*Paper_Space0
340
26
  0
BLOCK_RECORD
  5
31
330
1
100
AcDbSymbolTableRecord
100
AcDbBlockTableRecord
  2
POLY1
340
0
102
{BLKREFS
331
67
102
}
  0
BLOCK_RECORD
  5
B3
330
1
100
AcDbSymbolTableRecord
100
AcDbBlockTableRecord
  2
POLY2
340
0
102
{BLKREFS
331
E8
102
}
  0
BLOCK_RECORD
  5
E9
330
1
100
AcDbSymbolTableRecord
100
AcDbBlockTableRecord
  2
POLY3
340
0
102
{BLKREFS
331
11E
102
}
  0
BLOCK_RECORD
  5
121
330
1
100
AcDbSymbolTableRecord
100
AcDbBlockTableRecord
  2
POLY4
340
0
102
{BLKREFS
331
156
102
}
  0
BLOCK_RECORD
  5
157
330
1
100
AcDbSymbolTableRecord
100
AcDbBlockTableRecord
  2
POLY5
340
0
102
{BLKREFS
331
18C
102
}
  0
BLOCK_RECORD
  5
18F
330
1
100
AcDbSymbolTableRecord
100
AcDbBlockTableRecord
  2
POLY6
340
0
102
{BLKREFS
331
1C4
102
}
  0
BLOCK_RECORD
  5
1C7
330
1
100
AcDbSymbolTableRecord
100
AcDbBlockTableRecord
  2
POLY7
340
0
102
{BLKREFS
331
1FC
102
}
  0
BLOCK_RECORD
  5
1FD
330
1
100
AcDbSymbolTableRecord
100
AcDbBlockTableRecord
  2
POLY8
340
0
102
{BLKREFS
331
232
102
}
  0
BLOCK_RECORD
  5
2B1
330
1
100
AcDbSymbolTableRecord
100
AcDbBlockTableRecord
  2
*D9
340
0
  0
ENDTAB
  0
ENDSEC
  0
SECTION
  2
BLOCKS
  0
BLOCK
  5
20
330
1F
100
AcDbEntity
  8
0
100
AcDbBlockBegin
  2
*Model_Space
 70
     0
 71
     0
 10
0.0
 20
0.0
 30
0.0
  3
*Model_Space
  1

  0
ENDBLK
  5
21
330
1F
100
AcDbEntity
  8
0
100
AcDbBlockEnd
  0
BLOCK
  5
1C
330
1B
100
AcDbEntity
 67
     1
  8
0
100
AcDbBlockBegin
  2
*Paper_Space
 70
     0
 71
     0
 10
0.0
 20
0.0
 30
0.0
  3
*Paper_Space
  1

  0
ENDBLK
  5
1D
330
1B
100
AcDbEntity
 67
     1
  8
0
100
AcDbBlockEnd
  0
BLOCK
  5
24
330
23
100
AcDbEntity
  8
0
100
AcDbBlockBegin
  2
*Paper_Space0
 70
     0
 71
     0
 10
0.0
 20
0.0
 30
0.0
  3
*Paper_Space0
  1

  0
ENDBLK
  5
25
330
23
100
AcDbEntity
  8
0
100
AcDbBlockEnd
  0
BLOCK
  5
32
330
31
100
AcDbEntity
  8
0
100
AcDbBlockBegin
  2
POLY1
 70
     0
 71
     0
 10
0.0
 20
0.0
 30
0.0
  3
POLY1
  1

  4
POLY1
  0
LINE
  5
35
330
31
100
AcDbEntity
  8
LC-001-100-D00-0
 62
     7
370
    50
100
AcDbLine
 10
86.391476
 20
122.549605
 30
0.0
 11
86.391476
 21
122.549605
 31
0.0
  0
LINE
  5
36
330
31
100
AcDbEntity
  8
LC-001-100-D00-0
 62
     7
370
    50
100
AcDbLine
 10
86.391476
 20
122.549605
 30
0.0
 11
86.56969
 21
122.267912
 31
0.0
  0
LINE
  5
37
330
31
100
AcDbEntity
  8
LC-001-100-D00-0
 62
     7
370
    50
100
AcDbLine
 10
86.56969
 20
122.267912
 30
0.0
 11
86.56969
 21
122.267912
 31
0.0
  0
LINE
  5
38
330
31
100
AcDbEntity
  8
LC-001-100-D00-0
 62
     7
370
    50
100
AcDbLine
 10
86.56969
 20
122.267912
 30
0.0
 11
86.805539
 21
121.970932
 31
0.0
  0
LINE
  5
39
330
31
100
AcDbEntity
  8
LC-001-100-D00-0
 62
     7
370
    50
100
AcDbLine
 10
86.805539
 20
121.970932
 30
0.0
 11
86.805539
 21
121.970932
 31
0.0
  0
LINE
  5
3A
330
31
100
AcDbEntity
  8
LC-001-100-D00-0
 62
     7
370
    50
100
AcDbLine
 10
86.805539
 20
121.970932
 30
0.0
 11
87.445435
 21
121.406387
 31
0.0
  0
LINE
  5
3B
330
31
100
AcDbEntity
  8
LC-001-100-D00-0
 62
     7
370
    50
100
AcDbLine
 10
87.445435
 20
121.406387
 30
0.0
 11
87.445435
 21
121.406387
 31
0.0
  0
LINE
  5
3C
330
31
100
AcDbEntity
  8
LC-001-100-D00-0
 62
     7
370
    50
100
AcDbLine
 10
87.445435
 20
121.406387
 30
0.0
 11
87.85214
 21
121.138611
 31
0.0
  0
LINE
  5
3D
330
31
100
AcDbEntity
  8
LC-001-100-D00-0
 62
     7
370
    50
100
AcDbLine
 10
87.85214
 20
121.138611
 30
0.0
 11
87.85214
 21
121.138611
 31
0.0
  0
LINE
  5
3E
330
31
100
AcDbEntity
  8
LC-001-100-D00-0
 62
     7
370
    50
100
AcDbLine
 10
87.85214
 20
121.138611
 30
0.0
 11
88.599949
 21
120.854389
 31
0.0
  0
LINE
  5
3F
330
31
100
AcDbEntity
  8
LC-001-100-D00-0
 62
     7
370
    50
100
AcDbLine
 10
88.599949
 20
120.854389
 30
0.0
 11
88.599949
 21
120.854389
 31
0.0
  0
LINE
  5
40
330
31
100
AcDbEntity
  8
LC-001-100-D00-0
 62
     7
370
    50
100
AcDbLine
 10
88.599949
 20
120.854389
 30
0.0
 11
88.871564
 21
120.779848
 31
0.0
  0
LINE
  5
41
330
31
100
AcDbEntity
  8
LC-001-100-D00-0
 62
     7
370
    50
100
AcDbLine
 10
88.871564
 20
120.779848
 30
0.0
 11
88.871564
 21
120.779848
 31
0.0
  0
LINE
  5
42
330
31
100
AcDbEntity
  8
LC-001-100-D00-0
 62
     7
370
    50
100
AcDbLine
 10
88.871564
 20
120.779848
 30
0.0
 11
89.449171
 21
120.690508
 31
0.0
  0
LINE
  5
43
330
31
100
AcDbEntity
  8
LC-001-100-D00-0
 62
     7
370
    50
100
AcDbLine
 10
89.449171
 20
120.690508
 30
0.0
 11
89.449171
 21
120.690508
 31
0.0
  0
LINE
  5
44
330
31
100
AcDbEntity
  8
LC-001-100-D00-0
 62
     7
370
    50
100
AcDbLine
 10
89.449171
 20
120.690508
 30
0.0
 11
89.755162
 21
120.675922
 31
0.0
  0
LINE
  5
45
330
31
100
AcDbEntity
  8
LC-001-100-D00-0
 62
     7
370
    50
100
AcDbLine
 10
89.755162
 20
120.675922
 30
0.0
 11
89.755162
 21
120.675922
 31
0.0
  0
LINE
  5
46
330
31
100
AcDbEntity
  8
LC-001-100-D00-0
 62
     7
370
    50
100
AcDbLine
 10
89.755162
 20
120.675922
 30
0.0
 11
90.38089
 21
120.722391
 31
0.0
  0
LINE
  5
47
330
31
100
AcDbEntity
  8
LC-001-100-D00-0
 62
     7
370
    50
100
AcDbLine
 10
90.38089
 20
120.722391
 30
0.0
 11
90.38089
 21
120.722391
 31
0.0
  0
LINE
  5
48
330
31
100
AcDbEntity
  8
LC-001-100-D00-0
 62
     7
370
    50
100
AcDbLine
 10
90.38089
 20
120.722391
 30
0.0
 11
90.70046
 21
120.78365
 31
0.0
  0
LINE
  5
49
330
31
100
AcDbEntity
  8
LC-001-100-D00-0
 62
     7
370
    50
100
AcDbLine
 10
90.70046
 20
120.78365
 30
0.0
 11
90.70046
 21
120.78365
 31
0.0
  0
LINE
  5
4A
330
31
100
AcDbEntity
  8
LC-001-100-D00-0
 62
     7
370
    50
100
AcDbLine
 10
90.70046
 20
120.78365
 30
0.0
 11
91.324497
 21
120.98725
 31
0.0
  0
LINE
  5
4B
330
31
100
AcDbEntity
  8
LC-001-100-D00-0
 62
     7
370
    50
100
AcDbLine
 10
91.324497
 20
120.98725
 30
0.0
 11
91.324497
 21
120.98725
 31
0.0
  0
LINE
  5
4C
330
31
100
AcDbEntity
  8
LC-001-100-D00-0
 62
     7
370
    50
100
AcDbLine
 10
91.324497
 20
120.98725
 30
0.0
 11
91.628665
 21
121.129643
 31
0.0
  0
LINE
  5
4D
330
31
100
AcDbEntity
  8
LC-001-100-D00-0
 62
     7
370
    50
100
AcDbLine
 10
91.628665
 20
121.129643
 30
0.0
 11
91.628665
 21
121.129643
 31
0.0
  0
LINE
  5
4E
330
31
100
AcDbEntity
  8
LC-001-100-D00-0
 62
     7
370
    50
100
AcDbLine
 10
91.628665
 20
121.129643
 30
0.0
 11
92.192051
 21
121.486071
 31
0.0
  0
LINE
  5
4F
330
31
100
AcDbEntity
  8
LC-001-100-D00-0
 62
     7
370
    50
100
AcDbLine
 10
92.192051
 20
121.486071
 30
0.0
 11
92.192051
 21
121.486071
 31
0.0
  0
LINE
  5
50
330
31
100
AcDbEntity
  8
LC-001-100-D00-0
 62
     7
370
    50
100
AcDbLine
 10
92.192051
 20
121.486071
 30
0.0
 11
92.451002
 21
121.699937
 31
0.0
  0
LINE
  5
51
330
31
100
AcDbEntity
  8
LC-001-100-D00-0
 62
     7
370
    50
100
AcDbLine
 10
92.451002
 20
121.699937
 30
0.0
 11
92.451002
 21
121.699937
 31
0.0
  0
LINE
  5
52
330
31
100
AcDbEntity
  8
LC-001-100-D00-0
 62
     7
370
    50
100
AcDbLine
 10
92.451002
 20
121.699937
 30
0.0
 11
92.902266
 21
122.176629
 31
0.0
  0
LINE
  5
53
330
31
100
AcDbEntity
  8
LC-001-100-D00-0
 62
     7
370
    50
100
AcDbLine
 10
92.902266
 20
122.176629
 30
0.0
 11
92.902266
 21
122.176629
 31
0.0
  0
LINE
  5
54
330
31
100
AcDbEntity
  8
LC-001-100-D00-0
 62
     7
370
    50
100
AcDbLine
 10
92.902266
 20
122.176629
 30
0.0
 11
93.094499
 21
122.439164
 31
0.0
  0
LINE
  5
55
330
31
100
AcDbEntity
  8
LC-001-100-D00-0
 62
     7
370
    50
100
AcDbLine
 10
93.094499
 20
122.439164
 30
0.0
 11
93.094499
 21
122.439164
 31
0.0
  0
LINE
  5
56
330
31
100
AcDbEntity
  8
LC-001-100-D00-0
 62
     7
370
    50
100
AcDbLine
 10
93.094499
 20
122.439164
 30
0.0
 11
93.404499
 21
122.984687
 31
0.0
  0
LINE
  5
57
330
31
100
AcDbEntity
  8
LC-001-100-D00-0
 62
     7
370
    50
100
AcDbLine
 10
93.404499
 20
122.984687
 30
0.0
 11
93.404499
 21
122.984687
 31
0.0
  0
LINE
  5
58
330
31
100
AcDbEntity
  8
LC-001-100-D00-0
 62
     7
370
    50
100
AcDbLine
 10
93.404499
 20
122.984687
 30
0.0
 11
93.52238
 21
123.267436
 31
0.0
  0
LINE
  5
59
330
31
100
AcDbEntity
  8
LC-001-100-D00-0
 62
     7
370
    50
100
AcDbLine
 10
93.52238
 20
123.267436
 30
0.0
 11
93.52238
 21
123.267436
 31
0.0
  0
LINE
  5
5A
330
31
100
AcDbEntity
  8
LC-001-100-D00-0
 62
     7
370
    50
100
AcDbLine
 10
93.52238
 20
123.267436
 30
0.0
 11
93.689047
 21
123.827644
 31
0.0
  0
LINE
  5
5B
330
31
100
AcDbEntity
  8
LC-001-100-D00-0
 62
     7
370
    50
100
AcDbLine
 10
93.689047
 20
123.827644
 30
0.0
 11
93.689047
 21
123.827644
 31
0.0
  0
LINE
  5
5C
330
31
100
AcDbEntity
  8
LC-001-100-D00-0
 62
     7
370
    50
100
AcDbLine
 10
93.689047
 20
123.827644
 30
0.0
 11
93.738028
 21
124.10501
 31
0.0
  0
LINE
  5
5D
330
31
100
AcDbEntity
  8
LC-001-100-D00-0
 62
     7
370
    50
100
AcDbLine
 10
93.738028
 20
124.10501
 30
0.0
 11
93.738028
 21
124.10501
 31
0.0
  0
LINE
  5
5E
330
31
100
AcDbEntity
  8
LC-001-100-D00-0
 62
     7
370
    50
100
AcDbLine
 10
93.738028
 20
124.10501
 30
0.0
 11
93.801495
 21
124.902489
 31
0.0
  0
LINE
  5
5F
330
31
100
AcDbEntity
  8
LC-001-100-D00-0
 62
     7
370
    50
100
AcDbLine
 10
93.801495
 20
124.902489
 30
0.0
 11
93.801495
 21
124.902489
 31
0.0
  0
LINE
  5
60
330
31
100
AcDbEntity
  8
LC-001-100-D00-0
 62
     7
370
    50
100
AcDbLine
 10
93.801495
 20
124.902489
 30
0.0
 11
93.733723
 21
125.384692
 31
0.0
  0
LINE
  5
61
330
31
100
AcDbEntity
  8
LC-001-100-D00-0
 62
     7
370
    50
100
AcDbLine
 10
93.733723
 20
125.384692
 30
0.0
 11
93.733723
 21
125.384692
 31
0.0
  0
LINE
  5
62
330
31
100
AcDbEntity
  8
LC-001-100-D00-0
 62
     7
370
    50
100
AcDbLine
 10
93.733723
 20
125.384692
 30
0.0
 11
93.497662
 21
126.204724
 31
0.0
  0
LINE
  5
63
330
31
100
AcDbEntity
  8
LC-001-100-D00-0
 62
     7
370
    50
100
AcDbLine
 10
93.497662
 20
126.204724
 30
0.0
 11
93.497662
 21
126.204724
 31
0.0
  0
LINE
  5
64
330
31
100
AcDbEntity
  8
LC-001-100-D00-0
 62
     7
370
    50
100
AcDbLine
 10
93.497662
 20
126.204724
 30
0.0
 11
93.330321
 21
126.545046
 31
0.0
  0
LINE
  5
65
330
31
100
AcDbEntity
  8
LC-001-100-D00-0
 62
     7
370
    50
100
AcDbLine
 10
93.330321
 20
126.545046
 30
0.0
 11
93.330321
 21
126.545046
 31
0.0
  0
LINE
  5
66
330
31
100
AcDbEntity
  8
LC-001-100-D00-0
 62
     7
370
    50
100
AcDbLine
 10
93.330321
 20
126.545046
 30
0.0
 11
93.152107
 21
126.826739
 31
0.0
  0
ENDBLK
  5
33
330
31
100
AcDbEntity
  8
0
100
AcDbBlockEnd
  0
BLOCK
  5
B4
330
B3
100
AcDbEntity
  8
0
100
AcDbBlockBegin
  2
POLY2
 70
     0
 71
     0
 10
0.0
 20
0.0
 30
0.0
  3
POLY2
  1

  4
POLY2
  0
LINE
  5
B6
330
B3
100
AcDbEntity
  8
LC-001-100-D00-0
 62
     7
370
    50
100
AcDbLine
 10
93.152107
 20
166.390226
 30
0.0
 11
93.152107
 21
166.390226
 31
0.0
  0
LINE
  5
B7
330
B3
100
AcDbEntity
  8
LC-001-100-D00-0
 62
     7
370
    50
100
AcDbLine
 10
93.152107
 20
166.390226
 30
0.0
 11
93.330321
 21
166.671919
 31
0.0
  0
LINE
  5
B8
330
B3
100
AcDbEntity
  8
LC-001-100-D00-0
 62
     7
370
    50
100
AcDbLine
 10
93.330321
 20
166.671919
 30
0.0
 11
93.330321
 21
166.671919
 31
0.0
  0
LINE
  5
B9
330
B3
100
AcDbEntity
  8
LC-001-100-D00-0
 62
     7
370
    50
100
AcDbLine
 10
93.330321
 20
166.671919
 30
0.0
 11
93.497662
 21
167.012241
 31
0.0
  0
LINE
  5
BA
330
B3
100
AcDbEntity
  8
LC-001-100-D00-0
 62
     7
370
    50
100
AcDbLine
 10
93.497662
 20
167.012241
 30
0.0
 11
93.497662
 21
167.012241
 31
0.0
  0
LINE
  5
BB
330
B3
100
AcDbEntity
  8
LC-001-100-D00-0
 62
     7
370
    50
100
AcDbLine
 10
93.497662
 20
167.012241
 30
0.0
 11
93.733723
 21
167.832273
 31
0.0
  0
LINE
  5
BC
330
B3
100
AcDbEntity
  8
LC-001-100-D00-0
 62
     7
370
    50
100
AcDbLine
 10
93.733723
 20
167.832273
 30
0.0
 11
93.733723
 21
167.832273
 31
0.0
  0
LINE
  5
BD
330
B3
100
AcDbEntity
  8
LC-001-100-D00-0
 62
     7
370
    50
100
AcDbLine
 10
93.733723
 20
167.832273
 30
0.0
 11
93.801495
 21
168.314476
 31
0.0
  0
LINE
  5
BE
330
B3
100
AcDbEntity
  8
LC-001-100-D00-0
 62
     7
370
    50
100
AcDbLine
 10
93.801495
 20
168.314476
 30
0.0
 11
93.801495
 21
168.314476
 31
0.0
  0
LINE
  5
BF
330
B3
100
AcDbEntity
  8
LC-001-100-D00-0
 62
     7
370
    50
100
AcDbLine
 10
93.801495
 20
168.314476
 30
0.0
 11
93.738028
 21
169.111954
 31
0.0
  0
LINE
  5
C0
330
B3
100
AcDbEntity
  8
LC-001-100-D00-0
 62
     7
370
    50
100
AcDbLine
 10
93.738028
 20
169.111954
 30
0.0
 11
93.738028
 21
169.111954
 31
0.0
  0
LINE
  5
C1
330
B3
100
AcDbEntity
  8
LC-001-100-D00-0
 62
     7
370
    50
100
AcDbLine
 10
93.738028
 20
169.111954
 30
0.0
 11
93.689047
 21
169.389321
 31
0.0
  0
LINE
  5
C2
330
B3
100
AcDbEntity
  8
LC-001-100-D00-0
 62
     7
370
    50
100
AcDbLine
 10
93.689047
 20
169.389321
 30
0.0
 11
93.689047
 21
169.389321
 31
0.0
  0
LINE
  5
C3
330
B3
100
AcDbEntity
  8
LC-001-100-D00-0
 62
     7
370
    50
100
AcDbLine
 10
93.689047
 20
169.389321
 30
0.0
 11
93.52238
 21
169.949528
 31
0.0
  0
LINE
  5
C4
330
B3
100
AcDbEntity
  8
LC-001-100-D00-0
 62
     7
370
    50
100
AcDbLine
 10
93.52238
 20
169.949528
 30
0.0
 11
93.52238
 21
169.949528
 31
0.0
  0
LINE
  5
C5
330
B3
100
AcDbEntity
  8
LC-001-100-D00-0
 62
     7
370
    50
100
AcDbLine
 10
93.52238
 20
169.949528
 30
0.0
 11
93.404499
 21
170.232278
 31
0.0
  0
LINE
  5
C6
330
B3
100
AcDbEntity
  8
LC-001-100-D00-0
 62
     7
370
    50
100
AcDbLine
 10
93.404499
 20
170.232278
 30
0.0
 11
93.404499
 21
170.232278
 31
0.0
  0
LINE
  5
C7
330
B3
100
AcDbEntity
  8
LC-001-100-D00-0
 62
     7
370
    50
100
AcDbLine
 10
93.404499
 20
170.232278
 30
0.0
 11
93.094499
 21
170.777801
 31
0.0
  0
LINE
  5
C8
330
B3
100
AcDbEntity
  8
LC-001-100-D00-0
 62
     7
370
    50
100
AcDbLine
 10
93.094499
 20
170.777801
 30
0.0
 11
93.094499
 21
170.777801
 31
0.0
  0
LINE
  5
C9
330
B3
100
AcDbEntity
  8
LC-001-100-D00-0
 62
     7
370
    50
100
AcDbLine
 10
93.094499
 20
170.777801
 30
0.0
 11
92.902266
 21
171.040336
 31
0.0
  0
LINE
  5
CA
330
B3
100
AcDbEntity
  8
LC-001-100-D00-0
 62
     7
370
    50
100
AcDbLine
 10
92.902266
 20
171.040336
 30
0.0
 11
92.902266
 21
171.040336
 31
0.0
  0
LINE
  5
CB
330
B3
100
AcDbEntity
  8
LC-001-100-D00-0
 62
     7
370
    50
100
AcDbLine
 10
92.902266
 20
171.040336
 30
0.0
 11
92.451002
 21
171.517028
 31
0.0
  0
LINE
  5
CC
330
B3
100
AcDbEntity
  8
LC-001-100-D00-0
 62
     7
370
    50
100
AcDbLine
 10
92.451002
 20
171.517028
 30
0.0
 11
92.451002
 21
171.517028
 31
0.0
  0
LINE
  5
CD
330
B3
100
AcDbEntity
  8
LC-001-100-D00-0
 62
     7
370
    50
100
AcDbLine
 10
92.451002
 20
171.517028
 30
0.0
 11
92.192051
 21
171.730894
 31
0.0
  0
LINE
  5
CE
330
B3
100
AcDbEntity
  8
LC-001-100-D00-0
 62
     7
370
    50
100
AcDbLine
 10
92.192051
 20
171.730894
 30
0.0
 11
92.192051
 21
171.730894
 31
0.0
  0
LINE
  5
CF
330
B3
100
AcDbEntity
  8
LC-001-100-D00-0
 62
     7
370
    50
100
AcDbLine
 10
92.192051
 20
171.730894
 30
0.0
 11
91.628665
 21
172.087322
 31
0.0
  0
LINE
  5
D0
330
B3
100
AcDbEntity
  8
LC-001-100-D00-0
 62
     7
370
    50
100
AcDbLine
 10
91.628665
 20
172.087322
 30
0.0
 11
91.628665
 21
172.087322
 31
0.0
  0
LINE
  5
D1
330
B3
100
AcDbEntity
  8
LC-001-100-D00-0
 62
     7
370
    50
100
AcDbLine
 10
91.628665
 20
172.087322
 30
0.0
 11
91.324497
 21
172.229715
 31
0.0
  0
LINE
  5
D2
330
B3
100
AcDbEntity
  8
LC-001-100-D00-0
 62
     7
370
    50
100
AcDbLine
 10
91.324497
 20
172.229715
 30
0.0
 11
91.324497
 21
172.229715
 31
0.0
  0
LINE
  5
D3
330
B3
100
AcDbEntity
  8
LC-001-100-D00-0
 62
     7
370
    50
100
AcDbLine
 10
91.324497
 20
172.229715
 30
0.0
 11
90.70046
 21
172.433315
 31
0.0
  0
LINE
  5
D4
330
B3
100
AcDbEntity
  8
LC-001-100-D00-0
 62
     7
370
    50
100
AcDbLine
 10
90.70046
 20
172.433315
 30
0.0
 11
90.70046
 21
172.433315
 31
0.0
  0
LINE
  5
D5
330
B3
100
AcDbEntity
  8
LC-001-100-D00-0
 62
     7
370
    50
100
AcDbLine
 10
90.70046
 20
172.433315
 30
0.0
 11
90.38089
 21
172.494574
 31
0.0
  0
LINE
  5
D6
330
B3
100
AcDbEntity
  8
LC-001-100-D00-0
 62
     7
370
    50
100
AcDbLine
 10
90.38089
 20
172.494574
 30
0.0
 11
90.38089
 21
172.494574
 31
0.0
  0
LINE
  5
D7
330
B3
100
AcDbEntity
  8
LC-001-100-D00-0
 62
     7
370
    50
100
AcDbLine
 10
90.38089
 20
172.494574
 30
0.0
 11
89.755162
 21
172.541042
 31
0.0
  0
LINE
  5
D8
330
B3
100
AcDbEntity
  8
LC-001-100-D00-0
 62
     7
370
    50
100
AcDbLine
 10
89.755162
 20
172.541042
 30
0.0
 11
89.755162
 21
172.541042
 31
0.0
  0
LINE
  5
D9
330
B3
100
AcDbEntity
  8
LC-001-100-D00-0
 62
     7
370
    50
100
AcDbLine
 10
89.755162
 20
172.541042
 30
0.0
 11
89.449171
 21
172.526457
 31
0.0
  0
LINE
  5
DA
330
B3
100
AcDbEntity
  8
LC-001-100-D00-0
 62
     7
370
    50
100
AcDbLine
 10
89.449171
 20
172.526457
 30
0.0
 11
89.449171
 21
172.526457
 31
0.0
  0
LINE
  5
DB
330
B3
100
AcDbEntity
  8
LC-001-100-D00-0
 62
     7
370
    50
100
AcDbLine
 10
89.449171
 20
172.526457
 30
0.0
 11
88.871564
 21
172.437116
 31
0.0
  0
LINE
  5
DC
330
B3
100
AcDbEntity
  8
LC-001-100-D00-0
 62
     7
370
    50
100
AcDbLine
 10
88.871564
 20
172.437116
 30
0.0
 11
88.871564
 21
172.437116
 31
0.0
  0
LINE
  5
DD
330
B3
100
AcDbEntity
  8
LC-001-100-D00-0
 62
     7
370
    50
100
AcDbLine
 10
88.871564
 20
172.437116
 30
0.0
 11
88.599949
 21
172.362576
 31
0.0
  0
LINE
  5
DE
330
B3
100
AcDbEntity
  8
LC-001-100-D00-0
 62
     7
370
    50
100
AcDbLine
 10
88.599949
 20
172.362576
 30
0.0
 11
88.599949
 21
172.362576
 31
0.0
  0
LINE
  5
DF
330
B3
100
AcDbEntity
  8
LC-001-100-D00-0
 62
     7
370
    50
100
AcDbLine
 10
88.599949
 20
172.362576
 30
0.0
 11
87.85214
 21
172.078354
 31
0.0
  0
LINE
  5
E0
330
B3
100
AcDbEntity
  8
LC-001-100-D00-0
 62
     7
370
    50
100
AcDbLine
 10
87.85214
 20
172.078354
 30
0.0
 11
87.85214
 21
172.078354
 31
0.0
  0
LINE
  5
E1
330
B3
100
AcDbEntity
  8
LC-001-100-D00-0
 62
     7
370
    50
100
AcDbLine
 10
87.85214
 20
172.078354
 30
0.0
 11
87.445435
 21
171.810577
 31
0.0
  0
LINE
  5
E2
330
B3
100
AcDbEntity
  8
LC-001-100-D00-0
 62
     7
370
    50
100
AcDbLine
 10
87.445435
 20
171.810577
 30
0.0
 11
87.445435
 21
171.810577
 31
0.0
  0
LINE
  5
E3
330
B3
100
AcDbEntity
  8
LC-001-100-D00-0
 62
     7
370
    50
100
AcDbLine
 10
87.445435
 20
171.810577
 30
0.0
 11
86.805539
 21
171.246033
 31
0.0
  0
LINE
  5
E4
330
B3
100
AcDbEntity
  8
LC-001-100-D00-0
 62
     7
370
    50
100
AcDbLine
 10
86.805539
 20
171.246033
 30
0.0
 11
86.805539
 21
171.246033
 31
0.0
  0
LINE
  5
E5
330
B3
100
AcDbEntity
  8
LC-001-100-D00-0
 62
     7
370
    50
100
AcDbLine
 10
86.805539
 20
171.246033
 30
0.0
 11
86.56969
 21
170.949052
 31
0.0
  0
LINE
  5
E6
330
B3
100
AcDbEntity
  8
LC-001-100-D00-0
 62
     7
370
    50
100
AcDbLine
 10
86.56969
 20
170.949052
 30
0.0
 11
86.56969
 21
170.949052
 31
0.0
  0
LINE
  5
E7
330
B3
100
AcDbEntity
  8
LC-001-100-D00-0
 62
     7
370
    50
100
AcDbLine
 10
86.56969
 20
170.949052
 30
0.0
 11
86.391476
 21
170.667359
 31
0.0
  0
ENDBLK
  5
B5
330
B3
100
AcDbEntity
  8
0
100
AcDbBlockEnd
  0
BLOCK
  5
EA
330
E9
100
AcDbEntity
  8
0
100
AcDbBlockBegin
  2
POLY3
 70
     0
 71
     0
 10
0.0
 20
0.0
 30
0.0
  3
POLY3
  1

  4
POLY3
  0
LINE
  5
EC
330
E9
100
AcDbEntity
  8
LC-001-100-D00-0
 62
     7
370
    50
100
AcDbLine
 10
148.478901
 20
108.579935
 30
0.0
 11
148.478901
 21
108.579935
 31
0.0
  0
LINE
  5
ED
330
E9
100
AcDbEntity
  8
LC-001-100-D00-0
 62
     7
370
    50
100
AcDbLine
 10
148.478901
 20
108.579935
 30
0.0
 11
148.760594
 21
108.758149
 31
0.0
  0
LINE
  5
EE
330
E9
100
AcDbEntity
  8
LC-001-100-D00-0
 62
     7
370
    50
100
AcDbLine
 10
148.760594
 20
108.758149
 30
0.0
 11
148.760594
 21
108.758149
 31
0.0
  0
LINE
  5
EF
330
E9
100
AcDbEntity
  8
LC-001-100-D00-0
 62
     7
370
    50
100
AcDbLine
 10
148.760594
 20
108.758149
 30
0.0
 11
149.057574
 21
108.993998
 31
0.0
  0
LINE
  5
F0
330
E9
100
AcDbEntity
  8
LC-001-100-D00-0
 62
     7
370
    50
100
AcDbLine
 10
149.057574
 20
108.993998
 30
0.0
 11
149.057574
 21
108.993998
 31
0.0
  0
LINE
  5
F1
330
E9
100
AcDbEntity
  8
LC-001-100-D00-0
 62
     7
370
    50
100
AcDbLine
 10
149.057574
 20
108.993998
 30
0.0
 11
149.622119
 21
109.633894
 31
0.0
  0
LINE
  5
F2
330
E9
100
AcDbEntity
  8
LC-001-100-D00-0
 62
     7
370
    50
100
AcDbLine
 10
149.622119
 20
109.633894
 30
0.0
 11
149.622119
 21
109.633894
 31
0.0
  0
LINE
  5
F3
330
E9
100
AcDbEntity
  8
LC-001-100-D00-0
 62
     7
370
    50
100
AcDbLine
 10
149.622119
 20
109.633894
 30
0.0
 11
149.889895
 21
110.040599
 31
0.0
  0
LINE
  5
F4
330
E9
100
AcDbEntity
  8
LC-001-100-D00-0
 62
     7
370
    50
100
AcDbLine
 10
149.889895
 20
110.040599
 30
0.0
 11
149.889895
 21
110.040599
 31
0.0
  0
LINE
  5
F5
330
E9
100
AcDbEntity
  8
LC-001-100-D00-0
 62
     7
370
    50
100
AcDbLine
 10
149.889895
 20
110.040599
 30
0.0
 11
150.174117
 21
110.788407
 31
0.0
  0
LINE
  5
F6
330
E9
100
AcDbEntity
  8
LC-001-100-D00-0
 62
     7
370
    50
100
AcDbLine
 10
150.174117
 20
110.788407
 30
0.0
 11
150.174117
 21
110.788407
 31
0.0
  0
LINE
  5
F7
330
E9
100
AcDbEntity
  8
LC-001-100-D00-0
 62
     7
370
    50
100
AcDbLine
 10
150.174117
 20
110.788407
 30
0.0
 11
150.248658
 21
111.060023
 31
0.0
  0
LINE
  5
F8
330
E9
100
AcDbEntity
  8
LC-001-100-D00-0
 62
     7
370
    50
100
AcDbLine
 10
150.248658
 20
111.060023
 30
0.0
 11
150.248658
 21
111.060023
 31
0.0
  0
LINE
  5
F9
330
E9
100
AcDbEntity
  8
LC-001-100-D00-0
 62
     7
370
    50
100
AcDbLine
 10
150.248658
 20
111.060023
 30
0.0
 11
150.337998
 21
111.637629
 31
0.0
  0
LINE
  5
FA
330
E9
100
AcDbEntity
  8
LC-001-100-D00-0
 62
     7
370
    50
100
AcDbLine
 10
150.337998
 20
111.637629
 30
0.0
 11
150.337998
 21
111.637629
 31
0.0
  0
LINE
  5
FB
330
E9
100
AcDbEntity
  8
LC-001-100-D00-0
 62
     7
370
    50
100
AcDbLine
 10
150.337998
 20
111.637629
 30
0.0
 11
150.352584
 21
111.94362
 31
0.0
  0
LINE
  5
FC
330
E9
100
AcDbEntity
  8
LC-001-100-D00-0
 62
     7
370
    50
100
AcDbLine
 10
150.352584
 20
111.94362
 30
0.0
 11
150.352584
 21
111.94362
 31
0.0
  0
LINE
  5
FD
330
E9
100
AcDbEntity
  8
LC-001-100-D00-0
 62
     7
370
    50
100
AcDbLine
 10
150.352584
 20
111.94362
 30
0.0
 11
150.306115
 21
112.569348
 31
0.0
  0
LINE
  5
FE
330
E9
100
AcDbEntity
  8
LC-001-100-D00-0
 62
     7
370
    50
100
AcDbLine
 10
150.306115
 20
112.569348
 30
0.0
 11
150.306115
 21
112.569348
 31
0.0
  0
LINE
  5
FF
330
E9
100
AcDbEntity
  8
LC-001-100-D00-0
 62
     7
370
    50
100
AcDbLine
 10
150.306115
 20
112.569348
 30
0.0
 11
150.244856
 21
112.888919
 31
0.0
  0
LINE
  5
100
330
E9
100
AcDbEntity
  8
LC-001-100-D00-0
 62
     7
370
    50
100
AcDbLine
 10
150.244856
 20
112.888919
 30
0.0
 11
150.244856
 21
112.888919
 31
0.0
  0
LINE
  5
101
330
E9
100
AcDbEntity
  8
LC-001-100-D00-0
 62
     7
370
    50
100
AcDbLine
 10
150.244856
 20
112.888919
 30
0.0
 11
150.041256
 21
113.512955
 31
0.0
  0
LINE
  5
102
330
E9
100
AcDbEntity
  8
LC-001-100-D00-0
 62
     7
370
    50
100
AcDbLine
 10
150.041256
 20
113.512955
 30
0.0
 11
150.041256
 21
113.512955
 31
0.0
  0
LINE
  5
103
330
E9
100
AcDbEntity
  8
LC-001-100-D00-0
 62
     7
370
    50
100
AcDbLine
 10
150.041256
 20
113.512955
 30
0.0
 11
149.898863
 21
113.817124
 31
0.0
  0
LINE
  5
104
330
E9
100
AcDbEntity
  8
LC-001-100-D00-0
 62
     7
370
    50
100
AcDbLine
 10
149.898863
 20
113.817124
 30
0.0
 11
149.898863
 21
113.817124
 31
0.0
  0
LINE
  5
105
330
E9
100
AcDbEntity
  8
LC-001-100-D00-0
 62
     7
370
    50
100
AcDbLine
 10
149.898863
 20
113.817124
 30
0.0
 11
149.542435
 21
114.38051
 31
0.0
  0
LINE
  5
106
330
E9
100
AcDbEntity
  8
LC-001-100-D00-0
 62
     7
370
    50
100
AcDbLine
 10
149.542435
 20
114.38051
 30
0.0
 11
149.542435
 21
114.38051
 31
0.0
  0
LINE
  5
107
330
E9
100
AcDbEntity
  8
LC-001-100-D00-0
 62
     7
370
    50
100
AcDbLine
 10
149.542435
 20
114.38051
 30
0.0
 11
149.328569
 21
114.639461
 31
0.0
  0
LINE
  5
108
330
E9
100
AcDbEntity
  8
LC-001-100-D00-0
 62
     7
370
    50
100
AcDbLine
 10
149.328569
 20
114.639461
 30
0.0
 11
149.328569
 21
114.639461
 31
0.0
  0
LINE
  5
109
330
E9
100
AcDbEntity
  8
LC-001-100-D00-0
 62
     7
370
    50
100
AcDbLine
 10
149.328569
 20
114.639461
 30
0.0
 11
148.851877
 21
115.090724
 31
0.0
  0
LINE
  5
10A
330
E9
100
AcDbEntity
  8
LC-001-100-D00-0
 62
     7
370
    50
100
AcDbLine
 10
148.851877
 20
115.090724
 30
0.0
 11
148.851877
 21
115.090724
 31
0.0
  0
LINE
  5
10B
330
E9
100
AcDbEntity
  8
LC-001-100-D00-0
 62
     7
370
    50
100
AcDbLine
 10
148.851877
 20
115.090724
 30
0.0
 11
148.589342
 21
115.282958
 31
0.0
  0
LINE
  5
10C
330
E9
100
AcDbEntity
  8
LC-001-100-D00-0
 62
     7
370
    50
100
AcDbLine
 10
148.589342
 20
115.282958
 30
0.0
 11
148.589342
 21
115.282958
 31
0.0
  0
LINE
  5
10D
330
E9
100
AcDbEntity
  8
LC-001-100-D00-0
 62
     7
370
    50
100
AcDbLine
 10
148.589342
 20
115.282958
 30
0.0
 11
148.043819
 21
115.592957
 31
0.0
  0
LINE
  5
10E
330
E9
100
AcDbEntity
  8
LC-001-100-D00-0
 62
     7
370
    50
100
AcDbLine
 10
148.043819
 20
115.592957
 30
0.0
 11
148.043819
 21
115.592957
 31
0.0
  0
LINE
  5
10F
330
E9
100
AcDbEntity
  8
LC-001-100-D00-0
 62
     7
370
    50
100
AcDbLine
 10
148.043819
 20
115.592957
 30
0.0
 11
147.76107
 21
115.710838
 31
0.0
  0
LINE
  5
110
330
E9
100
AcDbEntity
  8
LC-001-100-D00-0
 62
     7
370
    50
100
AcDbLine
 10
147.76107
 20
115.710838
 30
0.0
 11
147.76107
 21
115.710838
 31
0.0
  0
LINE
  5
111
330
E9
100
AcDbEntity
  8
LC-001-100-D00-0
 62
     7
370
    50
100
AcDbLine
 10
147.76107
 20
115.710838
 30
0.0
 11
147.200862
 21
115.877506
 31
0.0
  0
LINE
  5
112
330
E9
100
AcDbEntity
  8
LC-001-100-D00-0
 62
     7
370
    50
100
AcDbLine
 10
147.200862
 20
115.877506
 30
0.0
 11
147.200862
 21
115.877506
 31
0.0
  0
LINE
  5
113
330
E9
100
AcDbEntity
  8
LC-001-100-D00-0
 62
     7
370
    50
100
AcDbLine
 10
147.200862
 20
115.877506
 30
0.0
 11
146.923496
 21
115.926487
 31
0.0
  0
LINE
  5
114
330
E9
100
AcDbEntity
  8
LC-001-100-D00-0
 62
     7
370
    50
100
AcDbLine
 10
146.923496
 20
115.926487
 30
0.0
 11
146.923496
 21
115.926487
 31
0.0
  0
LINE
  5
115
330
E9
100
AcDbEntity
  8
LC-001-100-D00-0
 62
     7
370
    50
100
AcDbLine
 10
146.923496
 20
115.926487
 30
0.0
 11
146.126017
 21
115.989954
 31
0.0
  0
LINE
  5
116
330
E9
100
AcDbEntity
  8
LC-001-100-D00-0
 62
     7
370
    50
100
AcDbLine
 10
146.126017
 20
115.989954
 30
0.0
 11
146.126017
 21
115.989954
 31
0.0
  0
LINE
  5
117
330
E9
100
AcDbEntity
  8
LC-001-100-D00-0
 62
     7
370
    50
100
AcDbLine
 10
146.126017
 20
115.989954
 30
0.0
 11
145.643814
 21
115.922182
 31
0.0
  0
LINE
  5
118
330
E9
100
AcDbEntity
  8
LC-001-100-D00-0
 62
     7
370
    50
100
AcDbLine
 10
145.643814
 20
115.922182
 30
0.0
 11
145.643814
 21
115.922182
 31
0.0
  0
LINE
  5
119
330
E9
100
AcDbEntity
  8
LC-001-100-D00-0
 62
     7
370
    50
100
AcDbLine
 10
145.643814
 20
115.922182
 30
0.0
 11
144.823782
 21
115.686121
 31
0.0
  0
LINE
  5
11A
330
E9
100
AcDbEntity
  8
LC-001-100-D00-0
 62
     7
370
    50
100
AcDbLine
 10
144.823782
 20
115.686121
 30
0.0
 11
144.823782
 21
115.686121
 31
0.0
  0
LINE
  5
11B
330
E9
100
AcDbEntity
  8
LC-001-100-D00-0
 62
     7
370
    50
100
AcDbLine
 10
144.823782
 20
115.686121
 30
0.0
 11
144.48346
 21
115.518779
 31
0.0
  0
LINE
  5
11C
330
E9
100
AcDbEntity
  8
LC-001-100-D00-0
 62
     7
370
    50
100
AcDbLine
 10
144.48346
 20
115.518779
 30
0.0
 11
144.48346
 21
115.518779
 31
0.0
  0
LINE
  5
11D
330
E9
100
AcDbEntity
  8
LC-001-100-D00-0
 62
     7
370
    50
100
AcDbLine
 10
144.48346
 20
115.518779
 30
0.0
 11
144.201767
 21
115.340565
 31
0.0
  0
ENDBLK
  5
EB
330
E9
100
AcDbEntity
  8
0
100
AcDbBlockEnd
  0
BLOCK
  5
122
330
121
100
AcDbEntity
  8
0
100
AcDbBlockBegin
  2
POLY4
 70
     0
 71
     0
 10
0.0
 20
0.0
 30
0.0
  3
POLY4
  1

  4
POLY4
  0
LINE
  5
124
330
121
100
AcDbEntity
  8
LC-001-100-D00-0
 62
     7
370
    50
100
AcDbLine
 10
104.63828
 20
115.340565
 30
0.0
 11
104.63828
 21
115.340565
 31
0.0
  0
LINE
  5
125
330
121
100
AcDbEntity
  8
LC-001-100-D00-0
 62
     7
370
    50
100
AcDbLine
 10
104.63828
 20
115.340565
 30
0.0
 11
104.356587
 21
115.518779
 31
0.0
  0
LINE
  5
126
330
121
100
AcDbEntity
  8
LC-001-100-D00-0
 62
     7
370
    50
100
AcDbLine
 10
104.356587
 20
115.518779
 30
0.0
 11
104.356587
 21
115.518779
 31
0.0
  0
LINE
  5
127
330
121
100
AcDbEntity
  8
LC-001-100-D00-0
 62
     7
370
    50
100
AcDbLine
 10
104.356587
 20
115.518779
 30
0.0
 11
104.016266
 21
115.686121
 31
0.0
  0
LINE
  5
128
330
121
100
AcDbEntity
  8
LC-001-100-D00-0
 62
     7
370
    50
100
AcDbLine
 10
104.016266
 20
115.686121
 30
0.0
 11
104.016266
 21
115.686121
 31
0.0
  0
LINE
  5
129
330
121
100
AcDbEntity
  8
LC-001-100-D00-0
 62
     7
370
    50
100
AcDbLine
 10
104.016266
 20
115.686121
 30
0.0
 11
103.196233
 21
115.922182
 31
0.0
  0
LINE
  5
12A
330
121
100
AcDbEntity
  8
LC-001-100-D00-0
 62
     7
370
    50
100
AcDbLine
 10
103.196233
 20
115.922182
 30
0.0
 11
103.196233
 21
115.922182
 31
0.0
  0
LINE
  5
12B
330
121
100
AcDbEntity
  8
LC-001-100-D00-0
 62
     7
370
    50
100
AcDbLine
 10
103.196233
 20
115.922182
 30
0.0
 11
102.71403
 21
115.989954
 31
0.0
  0
LINE
  5
12C
330
121
100
AcDbEntity
  8
LC-001-100-D00-0
 62
     7
370
    50
100
AcDbLine
 10
102.71403
 20
115.989954
 30
0.0
 11
102.71403
 21
115.989954
 31
0.0
  0
LINE
  5
12D
330
121
100
AcDbEntity
  8
LC-001-100-D00-0
 62
     7
370
    50
100
AcDbLine
 10
102.71403
 20
115.989954
 30
0.0
 11
101.916552
 21
115.926487
 31
0.0
  0
LINE
  5
12E
330
121
100
AcDbEntity
  8
LC-001-100-D00-0
 62
     7
370
    50
100
AcDbLine
 10
101.916552
 20
115.926487
 30
0.0
 11
101.916552
 21
115.926487
 31
0.0
  0
LINE
  5
12F
330
121
100
AcDbEntity
  8
LC-001-100-D00-0
 62
     7
370
    50
100
AcDbLine
 10
101.916552
 20
115.926487
 30
0.0
 11
101.639185
 21
115.877506
 31
0.0
  0
LINE
  5
130
330
121
100
AcDbEntity
  8
LC-001-100-D00-0
 62
     7
370
    50
100
AcDbLine
 10
101.639185
 20
115.877506
 30
0.0
 11
101.639185
 21
115.877506
 31
0.0
  0
LINE
  5
131
330
121
100
AcDbEntity
  8
LC-001-100-D00-0
 62
     7
370
    50
100
AcDbLine
 10
101.639185
 20
115.877506
 30
0.0
 11
101.078978
 21
115.710838
 31
0.0
  0
LINE
  5
132
330
121
100
AcDbEntity
  8
LC-001-100-D00-0
 62
     7
370
    50
100
AcDbLine
 10
101.078978
 20
115.710838
 30
0.0
 11
101.078978
 21
115.710838
 31
0.0
  0
LINE
  5
133
330
121
100
AcDbEntity
  8
LC-001-100-D00-0
 62
     7
370
    50
100
AcDbLine
 10
101.078978
 20
115.710838
 30
0.0
 11
100.796228
 21
115.592957
 31
0.0
  0
LINE
  5
134
330
121
100
AcDbEntity
  8
LC-001-100-D00-0
 62
     7
370
    50
100
AcDbLine
 10
100.796228
 20
115.592957
 30
0.0
 11
100.796228
 21
115.592957
 31
0.0
  0
LINE
  5
135
330
121
100
AcDbEntity
  8
LC-001-100-D00-0
 62
     7
370
    50
100
AcDbLine
 10
100.796228
 20
115.592957
 30
0.0
 11
100.250705
 21
115.282958
 31
0.0
  0
LINE
  5
136
330
121
100
AcDbEntity
  8
LC-001-100-D00-0
 62
     7
370
    50
100
AcDbLine
 10
100.250705
 20
115.282958
 30
0.0
 11
100.250705
 21
115.282958
 31
0.0
  0
LINE
  5
137
330
121
100
AcDbEntity
  8
LC-001-100-D00-0
 62
     7
370
    50
100
AcDbLine
 10
100.250705
 20
115.282958
 30
0.0
 11
99.98817
 21
115.090724
 31
0.0
  0
LINE
  5
138
330
121
100
AcDbEntity
  8
LC-001-100-D00-0
 62
     7
370
    50
100
AcDbLine
 10
99.98817
 20
115.090724
 30
0.0
 11
99.98817
 21
115.090724
 31
0.0
  0
LINE
  5
139
330
121
100
AcDbEntity
  8
LC-001-100-D00-0
 62
     7
370
    50
100
AcDbLine
 10
99.98817
 20
115.090724
 30
0.0
 11
99.511478
 21
114.639461
 31
0.0
  0
LINE
  5
13A
330
121
100
AcDbEntity
  8
LC-001-100-D00-0
 62
     7
370
    50
100
AcDbLine
 10
99.511478
 20
114.639461
 30
0.0
 11
99.511478
 21
114.639461
 31
0.0
  0
LINE
  5
13B
330
121
100
AcDbEntity
  8
LC-001-100-D00-0
 62
     7
370
    50
100
AcDbLine
 10
99.511478
 20
114.639461
 30
0.0
 11
99.297612
 21
114.38051
 31
0.0
  0
LINE
  5
13C
330
121
100
AcDbEntity
  8
LC-001-100-D00-0
 62
     7
370
    50
100
AcDbLine
 10
99.297612
 20
114.38051
 30
0.0
 11
99.297612
 21
114.38051
 31
0.0
  0
LINE
  5
13D
330
121
100
AcDbEntity
  8
LC-001-100-D00-0
 62
     7
370
    50
100
AcDbLine
 10
99.297612
 20
114.38051
 30
0.0
 11
98.941184
 21
113.817124
 31
0.0
  0
LINE
  5
13E
330
121
100
AcDbEntity
  8
LC-001-100-D00-0
 62
     7
370
    50
100
AcDbLine
 10
98.941184
 20
113.817124
 30
0.0
 11
98.941184
 21
113.817124
 31
0.0
  0
LINE
  5
13F
330
121
100
AcDbEntity
  8
LC-001-100-D00-0
 62
     7
370
    50
100
AcDbLine
 10
98.941184
 20
113.817124
 30
0.0
 11
98.798791
 21
113.512955
 31
0.0
  0
LINE
  5
140
330
121
100
AcDbEntity
  8
LC-001-100-D00-0
 62
     7
370
    50
100
AcDbLine
 10
98.798791
 20
113.512955
 30
0.0
 11
98.798791
 21
113.512955
 31
0.0
  0
LINE
  5
141
330
121
100
AcDbEntity
  8
LC-001-100-D00-0
 62
     7
370
    50
100
AcDbLine
 10
98.798791
 20
113.512955
 30
0.0
 11
98.595191
 21
112.888919
 31
0.0
  0
LINE
  5
142
330
121
100
AcDbEntity
  8
LC-001-100-D00-0
 62
     7
370
    50
100
AcDbLine
 10
98.595191
 20
112.888919
 30
0.0
 11
98.595191
 21
112.888919
 31
0.0
  0
LINE
  5
143
330
121
100
AcDbEntity
  8
LC-001-100-D00-0
 62
     7
370
    50
100
AcDbLine
 10
98.595191
 20
112.888919
 30
0.0
 11
98.533932
 21
112.569348
 31
0.0
  0
LINE
  5
144
330
121
100
AcDbEntity
  8
LC-001-100-D00-0
 62
     7
370
    50
100
AcDbLine
 10
98.533932
 20
112.569348
 30
0.0
 11
98.533932
 21
112.569348
 31
0.0
  0
LINE
  5
145
330
121
100
AcDbEntity
  8
LC-001-100-D00-0
 62
     7
370
    50
100
AcDbLine
 10
98.533932
 20
112.569348
 30
0.0
 11
98.487464
 21
111.94362
 31
0.0
  0
LINE
  5
146
330
121
100
AcDbEntity
  8
LC-001-100-D00-0
 62
     7
370
    50
100
AcDbLine
 10
98.487464
 20
111.94362
 30
0.0
 11
98.487464
 21
111.94362
 31
0.0
  0
LINE
  5
147
330
121
100
AcDbEntity
  8
LC-001-100-D00-0
 62
     7
370
    50
100
AcDbLine
 10
98.487464
 20
111.94362
 30
0.0
 11
98.502049
 21
111.637629
 31
0.0
  0
LINE
  5
148
330
121
100
AcDbEntity
  8
LC-001-100-D00-0
 62
     7
370
    50
100
AcDbLine
 10
98.502049
 20
111.637629
 30
0.0
 11
98.502049
 21
111.637629
 31
0.0
  0
LINE
  5
149
330
121
100
AcDbEntity
  8
LC-001-100-D00-0
 62
     7
370
    50
100
AcDbLine
 10
98.502049
 20
111.637629
 30
0.0
 11
98.59139
 21
111.060023
 31
0.0
  0
LINE
  5
14A
330
121
100
AcDbEntity
  8
LC-001-100-D00-0
 62
     7
370
    50
100
AcDbLine
 10
98.59139
 20
111.060023
 30
0.0
 11
98.59139
 21
111.060023
 31
0.0
  0
LINE
  5
14B
330
121
100
AcDbEntity
  8
LC-001-100-D00-0
 62
     7
370
    50
100
AcDbLine
 10
98.59139
 20
111.060023
 30
0.0
 11
98.66593
 21
110.788407
 31
0.0
  0
LINE
  5
14C
330
121
100
AcDbEntity
  8
LC-001-100-D00-0
 62
     7
370
    50
100
AcDbLine
 10
98.66593
 20
110.788407
 30
0.0
 11
98.66593
 21
110.788407
 31
0.0
  0
LINE
  5
14D
330
121
100
AcDbEntity
  8
LC-001-100-D00-0
 62
     7
370
    50
100
AcDbLine
 10
98.66593
 20
110.788407
 30
0.0
 11
98.950152
 21
110.040599
 31
0.0
  0
LINE
  5
14E
330
121
100
AcDbEntity
  8
LC-001-100-D00-0
 62
     7
370
    50
100
AcDbLine
 10
98.950152
 20
110.040599
 30
0.0
 11
98.950152
 21
110.040599
 31
0.0
  0
LINE
  5
14F
330
121
100
AcDbEntity
  8
LC-001-100-D00-0
 62
     7
370
    50
100
AcDbLine
 10
98.950152
 20
110.040599
 30
0.0
 11
99.217929
 21
109.633894
 31
0.0
  0
LINE
  5
150
330
121
100
AcDbEntity
  8
LC-001-100-D00-0
 62
     7
370
    50
100
AcDbLine
 10
99.217929
 20
109.633894
 30
0.0
 11
99.217929
 21
109.633894
 31
0.0
  0
LINE
  5
151
330
121
100
AcDbEntity
  8
LC-001-100-D00-0
 62
     7
370
    50
100
AcDbLine
 10
99.217929
 20
109.633894
 30
0.0
 11
99.782473
 21
108.993998
 31
0.0
  0
LINE
  5
152
330
121
100
AcDbEntity
  8
LC-001-100-D00-0
 62
     7
370
    50
100
AcDbLine
 10
99.782473
 20
108.993998
 30
0.0
 11
99.782473
 21
108.993998
 31
0.0
  0
LINE
  5
153
330
121
100
AcDbEntity
  8
LC-001-100-D00-0
 62
     7
370
    50
100
AcDbLine
 10
99.782473
 20
108.993998
 30
0.0
 11
100.079454
 21
108.758149
 31
0.0
  0
LINE
  5
154
330
121
100
AcDbEntity
  8
LC-001-100-D00-0
 62
     7
370
    50
100
AcDbLine
 10
100.079454
 20
108.758149
 30
0.0
 11
100.079454
 21
108.758149
 31
0.0
  0
LINE
  5
155
330
121
100
AcDbEntity
  8
LC-001-100-D00-0
 62
     7
370
    50
100
AcDbLine
 10
100.079454
 20
108.758149
 30
0.0
 11
100.361147
 21
108.579935
 31
0.0
  0
ENDBLK
  5
123
330
121
100
AcDbEntity
  8
0
100
AcDbBlockEnd
  0
BLOCK
  5
158
330
157
100
AcDbEntity
  8
0
100
AcDbBlockBegin
  2
POLY5
 70
     0
 71
     0
 10
0.0
 20
0.0
 30
0.0
  3
POLY5
  1

  4
POLY5
  0
LINE
  5
15A
330
157
100
AcDbEntity
  8
LC-001-100-D00-0
 62
     7
370
    50
100
AcDbLine
 10
162.448571
 20
170.667359
 30
0.0
 11
162.448571
 21
170.667359
 31
0.0
  0
LINE
  5
15B
330
157
100
AcDbEntity
  8
LC-001-100-D00-0
 62
     7
370
    50
100
AcDbLine
 10
162.448571
 20
170.667359
 30
0.0
 11
162.270357
 21
170.949052
 31
0.0
  0
LINE
  5
15C
330
157
100
AcDbEntity
  8
LC-001-100-D00-0
 62
     7
370
    50
100
AcDbLine
 10
162.270357
 20
170.949052
 30
0.0
 11
162.270357
 21
170.949052
 31
0.0
  0
LINE
  5
15D
330
157
100
AcDbEntity
  8
LC-001-100-D00-0
 62
     7
370
    50
100
AcDbLine
 10
162.270357
 20
170.949052
 30
0.0
 11
162.034508
 21
171.246033
 31
0.0
  0
LINE
  5
15E
330
157
100
AcDbEntity
  8
LC-001-100-D00-0
 62
     7
370
    50
100
AcDbLine
 10
162.034508
 20
171.246033
 30
0.0
 11
162.034508
 21
171.246033
 31
0.0
  0
LINE
  5
15F
330
157
100
AcDbEntity
  8
LC-001-100-D00-0
 62
     7
370
    50
100
AcDbLine
 10
162.034508
 20
171.246033
 30
0.0
 11
161.394612
 21
171.810577
 31
0.0
  0
LINE
  5
160
330
157
100
AcDbEntity
  8
LC-001-100-D00-0
 62
     7
370
    50
100
AcDbLine
 10
161.394612
 20
171.810577
 30
0.0
 11
161.394612
 21
171.810577
 31
0.0
  0
LINE
  5
161
330
157
100
AcDbEntity
  8
LC-001-100-D00-0
 62
     7
370
    50
100
AcDbLine
 10
161.394612
 20
171.810577
 30
0.0
 11
160.987907
 21
172.078354
 31
0.0
  0
LINE
  5
162
330
157
100
AcDbEntity
  8
LC-001-100-D00-0
 62
     7
370
    50
100
AcDbLine
 10
160.987907
 20
172.078354
 30
0.0
 11
160.987907
 21
172.078354
 31
0.0
  0
LINE
  5
163
330
157
100
AcDbEntity
  8
LC-001-100-D00-0
 62
     7
370
    50
100
AcDbLine
 10
160.987907
 20
172.078354
 30
0.0
 11
160.240099
 21
172.362576
 31
0.0
  0
LINE
  5
164
330
157
100
AcDbEntity
  8
LC-001-100-D00-0
 62
     7
370
    50
100
AcDbLine
 10
160.240099
 20
172.362576
 30
0.0
 11
160.240099
 21
172.362576
 31
0.0
  0
LINE
  5
165
330
157
100
AcDbEntity
  8
LC-001-100-D00-0
 62
     7
370
    50
100
AcDbLine
 10
160.240099
 20
172.362576
 30
0.0
 11
159.968483
 21
172.437116
 31
0.0
  0
LINE
  5
166
330
157
100
AcDbEntity
  8
LC-001-100-D00-0
 62
     7
370
    50
100
AcDbLine
 10
159.968483
 20
172.437116
 30
0.0
 11
159.968483
 21
172.437116
 31
0.0
  0
LINE
  5
167
330
157
100
AcDbEntity
  8
LC-001-100-D00-0
 62
     7
370
    50
100
AcDbLine
 10
159.968483
 20
172.437116
 30
0.0
 11
159.390877
 21
172.526457
 31
0.0
  0
LINE
  5
168
330
157
100
AcDbEntity
  8
LC-001-100-D00-0
 62
     7
370
    50
100
AcDbLine
 10
159.390877
 20
172.526457
 30
0.0
 11
159.390877
 21
172.526457
 31
0.0
  0
LINE
  5
169
330
157
100
AcDbEntity
  8
LC-001-100-D00-0
 62
     7
370
    50
100
AcDbLine
 10
159.390877
 20
172.526457
 30
0.0
 11
159.084886
 21
172.541042
 31
0.0
  0
LINE
  5
16A
330
157
100
AcDbEntity
  8
LC-001-100-D00-0
 62
     7
370
    50
100
AcDbLine
 10
159.084886
 20
172.541042
 30
0.0
 11
159.084886
 21
172.541042
 31
0.0
  0
LINE
  5
16B
330
157
100
AcDbEntity
  8
LC-001-100-D00-0
 62
     7
370
    50
100
AcDbLine
 10
159.084886
 20
172.541042
 30
0.0
 11
158.459158
 21
172.494574
 31
0.0
  0
LINE
  5
16C
330
157
100
AcDbEntity
  8
LC-001-100-D00-0
 62
     7
370
    50
100
AcDbLine
 10
158.459158
 20
172.494574
 30
0.0
 11
158.459158
 21
172.494574
 31
0.0
  0
LINE
  5
16D
330
157
100
AcDbEntity
  8
LC-001-100-D00-0
 62
     7
370
    50
100
AcDbLine
 10
158.459158
 20
172.494574
 30
0.0
 11
158.139587
 21
172.433315
 31
0.0
  0
LINE
  5
16E
330
157
100
AcDbEntity
  8
LC-001-100-D00-0
 62
     7
370
    50
100
AcDbLine
 10
158.139587
 20
172.433315
 30
0.0
 11
158.139587
 21
172.433315
 31
0.0
  0
LINE
  5
16F
330
157
100
AcDbEntity
  8
LC-001-100-D00-0
 62
     7
370
    50
100
AcDbLine
 10
158.139587
 20
172.433315
 30
0.0
 11
157.515551
 21
172.229715
 31
0.0
  0
LINE
  5
170
330
157
100
AcDbEntity
  8
LC-001-100-D00-0
 62
     7
370
    50
100
AcDbLine
 10
157.515551
 20
172.229715
 30
0.0
 11
157.515551
 21
172.229715
 31
0.0
  0
LINE
  5
171
330
157
100
AcDbEntity
  8
LC-001-100-D00-0
 62
     7
370
    50
100
AcDbLine
 10
157.515551
 20
172.229715
 30
0.0
 11
157.211382
 21
172.087322
 31
0.0
  0
LINE
  5
172
330
157
100
AcDbEntity
  8
LC-001-100-D00-0
 62
     7
370
    50
100
AcDbLine
 10
157.211382
 20
172.087322
 30
0.0
 11
157.211382
 21
172.087322
 31
0.0
  0
LINE
  5
173
330
157
100
AcDbEntity
  8
LC-001-100-D00-0
 62
     7
370
    50
100
AcDbLine
 10
157.211382
 20
172.087322
 30
0.0
 11
156.647996
 21
171.730894
 31
0.0
  0
LINE
  5
174
330
157
100
AcDbEntity
  8
LC-001-100-D00-0
 62
     7
370
    50
100
AcDbLine
 10
156.647996
 20
171.730894
 30
0.0
 11
156.647996
 21
171.730894
 31
0.0
  0
LINE
  5
175
330
157
100
AcDbEntity
  8
LC-001-100-D00-0
 62
     7
370
    50
100
AcDbLine
 10
156.647996
 20
171.730894
 30
0.0
 11
156.389046
 21
171.517028
 31
0.0
  0
LINE
  5
176
330
157
100
AcDbEntity
  8
LC-001-100-D00-0
 62
     7
370
    50
100
AcDbLine
 10
156.389046
 20
171.517028
 30
0.0
 11
156.389046
 21
171.517028
 31
0.0
  0
LINE
  5
177
330
157
100
AcDbEntity
  8
LC-001-100-D00-0
 62
     7
370
    50
100
AcDbLine
 10
156.389046
 20
171.517028
 30
0.0
 11
155.937782
 21
171.040336
 31
0.0
  0
LINE
  5
178
330
157
100
AcDbEntity
  8
LC-001-100-D00-0
 62
     7
370
    50
100
AcDbLine
 10
155.937782
 20
171.040336
 30
0.0
 11
155.937782
 21
171.040336
 31
0.0
  0
LINE
  5
179
330
157
100
AcDbEntity
  8
LC-001-100-D00-0
 62
     7
370
    50
100
AcDbLine
 10
155.937782
 20
171.040336
 30
0.0
 11
155.745548
 21
170.777801
 31
0.0
  0
LINE
  5
17A
330
157
100
AcDbEntity
  8
LC-001-100-D00-0
 62
     7
370
    50
100
AcDbLine
 10
155.745548
 20
170.777801
 30
0.0
 11
155.745548
 21
170.777801
 31
0.0
  0
LINE
  5
17B
330
157
100
AcDbEntity
  8
LC-001-100-D00-0
 62
     7
370
    50
100
AcDbLine
 10
155.745548
 20
170.777801
 30
0.0
 11
155.435549
 21
170.232278
 31
0.0
  0
LINE
  5
17C
330
157
100
AcDbEntity
  8
LC-001-100-D00-0
 62
     7
370
    50
100
AcDbLine
 10
155.435549
 20
170.232278
 30
0.0
 11
155.435549
 21
170.232278
 31
0.0
  0
LINE
  5
17D
330
157
100
AcDbEntity
  8
LC-001-100-D00-0
 62
     7
370
    50
100
AcDbLine
 10
155.435549
 20
170.232278
 30
0.0
 11
155.317668
 21
169.949528
 31
0.0
  0
LINE
  5
17E
330
157
100
AcDbEntity
  8
LC-001-100-D00-0
 62
     7
370
    50
100
AcDbLine
 10
155.317668
 20
169.949528
 30
0.0
 11
155.317668
 21
169.949528
 31
0.0
  0
LINE
  5
17F
330
157
100
AcDbEntity
  8
LC-001-100-D00-0
 62
     7
370
    50
100
AcDbLine
 10
155.317668
 20
169.949528
 30
0.0
 11
155.151
 21
169.389321
 31
0.0
  0
LINE
  5
180
330
157
100
AcDbEntity
  8
LC-001-100-D00-0
 62
     7
370
    50
100
AcDbLine
 10
155.151
 20
169.389321
 30
0.0
 11
155.151
 21
169.389321
 31
0.0
  0
LINE
  5
181
330
157
100
AcDbEntity
  8
LC-001-100-D00-0
 62
     7
370
    50
100
AcDbLine
 10
155.151
 20
169.389321
 30
0.0
 11
155.102019
 21
169.111954
 31
0.0
  0
LINE
  5
182
330
157
100
AcDbEntity
  8
LC-001-100-D00-0
 62
     7
370
    50
100
AcDbLine
 10
155.102019
 20
169.111954
 30
0.0
 11
155.102019
 21
169.111954
 31
0.0
  0
LINE
  5
183
330
157
100
AcDbEntity
  8
LC-001-100-D00-0
 62
     7
370
    50
100
AcDbLine
 10
155.102019
 20
169.111954
 30
0.0
 11
155.038552
 21
168.314476
 31
0.0
  0
LINE
  5
184
330
157
100
AcDbEntity
  8
LC-001-100-D00-0
 62
     7
370
    50
100
AcDbLine
 10
155.038552
 20
168.314476
 30
0.0
 11
155.038552
 21
168.314476
 31
0.0
  0
LINE
  5
185
330
157
100
AcDbEntity
  8
LC-001-100-D00-0
 62
     7
370
    50
100
AcDbLine
 10
155.038552
 20
168.314476
 30
0.0
 11
155.106324
 21
167.832273
 31
0.0
  0
LINE
  5
186
330
157
100
AcDbEntity
  8
LC-001-100-D00-0
 62
     7
370
    50
100
AcDbLine
 10
155.106324
 20
167.832273
 30
0.0
 11
155.106324
 21
167.832273
 31
0.0
  0
LINE
  5
187
330
157
100
AcDbEntity
  8
LC-001-100-D00-0
 62
     7
370
    50
100
AcDbLine
 10
155.106324
 20
167.832273
 30
0.0
 11
155.342385
 21
167.012241
 31
0.0
  0
LINE
  5
188
330
157
100
AcDbEntity
  8
LC-001-100-D00-0
 62
     7
370
    50
100
AcDbLine
 10
155.342385
 20
167.012241
 30
0.0
 11
155.342385
 21
167.012241
 31
0.0
  0
LINE
  5
189
330
157
100
AcDbEntity
  8
LC-001-100-D00-0
 62
     7
370
    50
100
AcDbLine
 10
155.342385
 20
167.012241
 30
0.0
 11
155.509727
 21
166.671919
 31
0.0
  0
LINE
  5
18A
330
157
100
AcDbEntity
  8
LC-001-100-D00-0
 62
     7
370
    50
100
AcDbLine
 10
155.509727
 20
166.671919
 30
0.0
 11
155.509727
 21
166.671919
 31
0.0
  0
LINE
  5
18B
330
157
100
AcDbEntity
  8
LC-001-100-D00-0
 62
     7
370
    50
100
AcDbLine
 10
155.509727
 20
166.671919
 30
0.0
 11
155.687941
 21
166.390226
 31
0.0
  0
ENDBLK
  5
159
330
157
100
AcDbEntity
  8
0
100
AcDbBlockEnd
  0
BLOCK
  5
190
330
18F
100
AcDbEntity
  8
0
100
AcDbBlockBegin
  2
POLY6
 70
     0
 71
     0
 10
0.0
 20
0.0
 30
0.0
  3
POLY6
  1

  4
POLY6
  0
LINE
  5
192
330
18F
100
AcDbEntity
  8
LC-001-100-D00-0
 62
     7
370
    50
100
AcDbLine
 10
155.687941
 20
126.826739
 30
0.0
 11
155.687941
 21
126.826739
 31
0.0
  0
LINE
  5
193
330
18F
100
AcDbEntity
  8
LC-001-100-D00-0
 62
     7
370
    50
100
AcDbLine
 10
155.687941
 20
126.826739
 30
0.0
 11
155.509727
 21
126.545046
 31
0.0
  0
LINE
  5
194
330
18F
100
AcDbEntity
  8
LC-001-100-D00-0
 62
     7
370
    50
100
AcDbLine
 10
155.509727
 20
126.545046
 30
0.0
 11
155.509727
 21
126.545046
 31
0.0
  0
LINE
  5
195
330
18F
100
AcDbEntity
  8
LC-001-100-D00-0
 62
     7
370
    50
100
AcDbLine
 10
155.509727
 20
126.545046
 30
0.0
 11
155.342385
 21
126.204724
 31
0.0
  0
LINE
  5
196
330
18F
100
AcDbEntity
  8
LC-001-100-D00-0
 62
     7
370
    50
100
AcDbLine
 10
155.342385
 20
126.204724
 30
0.0
 11
155.342385
 21
126.204724
 31
0.0
  0
LINE
  5
197
330
18F
100
AcDbEntity
  8
LC-001-100-D00-0
 62
     7
370
    50
100
AcDbLine
 10
155.342385
 20
126.204724
 30
0.0
 11
155.106324
 21
125.384692
 31
0.0
  0
LINE
  5
198
330
18F
100
AcDbEntity
  8
LC-001-100-D00-0
 62
     7
370
    50
100
AcDbLine
 10
155.106324
 20
125.384692
 30
0.0
 11
155.106324
 21
125.384692
 31
0.0
  0
LINE
  5
199
330
18F
100
AcDbEntity
  8
LC-001-100-D00-0
 62
     7
370
    50
100
AcDbLine
 10
155.106324
 20
125.384692
 30
0.0
 11
155.038552
 21
124.902489
 31
0.0
  0
LINE
  5
19A
330
18F
100
AcDbEntity
  8
LC-001-100-D00-0
 62
     7
370
    50
100
AcDbLine
 10
155.038552
 20
124.902489
 30
0.0
 11
155.038552
 21
124.902489
 31
0.0
  0
LINE
  5
19B
330
18F
100
AcDbEntity
  8
LC-001-100-D00-0
 62
     7
370
    50
100
AcDbLine
 10
155.038552
 20
124.902489
 30
0.0
 11
155.102019
 21
124.10501
 31
0.0
  0
LINE
  5
19C
330
18F
100
AcDbEntity
  8
LC-001-100-D00-0
 62
     7
370
    50
100
AcDbLine
 10
155.102019
 20
124.10501
 30
0.0
 11
155.102019
 21
124.10501
 31
0.0
  0
LINE
  5
19D
330
18F
100
AcDbEntity
  8
LC-001-100-D00-0
 62
     7
370
    50
100
AcDbLine
 10
155.102019
 20
124.10501
 30
0.0
 11
155.151
 21
123.827644
 31
0.0
  0
LINE
  5
19E
330
18F
100
AcDbEntity
  8
LC-001-100-D00-0
 62
     7
370
    50
100
AcDbLine
 10
155.151
 20
123.827644
 30
0.0
 11
155.151
 21
123.827644
 31
0.0
  0
LINE
  5
19F
330
18F
100
AcDbEntity
  8
LC-001-100-D00-0
 62
     7
370
    50
100
AcDbLine
 10
155.151
 20
123.827644
 30
0.0
 11
155.317668
 21
123.267436
 31
0.0
  0
LINE
  5
1A0
330
18F
100
AcDbEntity
  8
LC-001-100-D00-0
 62
     7
370
    50
100
AcDbLine
 10
155.317668
 20
123.267436
 30
0.0
 11
155.317668
 21
123.267436
 31
0.0
  0
LINE
  5
1A1
330
18F
100
AcDbEntity
  8
LC-001-100-D00-0
 62
     7
370
    50
100
AcDbLine
 10
155.317668
 20
123.267436
 30
0.0
 11
155.435549
 21
122.984687
 31
0.0
  0
LINE
  5
1A2
330
18F
100
AcDbEntity
  8
LC-001-100-D00-0
 62
     7
370
    50
100
AcDbLine
 10
155.435549
 20
122.984687
 30
0.0
 11
155.435549
 21
122.984687
 31
0.0
  0
LINE
  5
1A3
330
18F
100
AcDbEntity
  8
LC-001-100-D00-0
 62
     7
370
    50
100
AcDbLine
 10
155.435549
 20
122.984687
 30
0.0
 11
155.745548
 21
122.439164
 31
0.0
  0
LINE
  5
1A4
330
18F
100
AcDbEntity
  8
LC-001-100-D00-0
 62
     7
370
    50
100
AcDbLine
 10
155.745548
 20
122.439164
 30
0.0
 11
155.745548
 21
122.439164
 31
0.0
  0
LINE
  5
1A5
330
18F
100
AcDbEntity
  8
LC-001-100-D00-0
 62
     7
370
    50
100
AcDbLine
 10
155.745548
 20
122.439164
 30
0.0
 11
155.937782
 21
122.176629
 31
0.0
  0
LINE
  5
1A6
330
18F
100
AcDbEntity
  8
LC-001-100-D00-0
 62
     7
370
    50
100
AcDbLine
 10
155.937782
 20
122.176629
 30
0.0
 11
155.937782
 21
122.176629
 31
0.0
  0
LINE
  5
1A7
330
18F
100
AcDbEntity
  8
LC-001-100-D00-0
 62
     7
370
    50
100
AcDbLine
 10
155.937782
 20
122.176629
 30
0.0
 11
156.389046
 21
121.699937
 31
0.0
  0
LINE
  5
1A8
330
18F
100
AcDbEntity
  8
LC-001-100-D00-0
 62
     7
370
    50
100
AcDbLine
 10
156.389046
 20
121.699937
 30
0.0
 11
156.389046
 21
121.699937
 31
0.0
  0
LINE
  5
1A9
330
18F
100
AcDbEntity
  8
LC-001-100-D00-0
 62
     7
370
    50
100
AcDbLine
 10
156.389046
 20
121.699937
 30
0.0
 11
156.647996
 21
121.486071
 31
0.0
  0
LINE
  5
1AA
330
18F
100
AcDbEntity
  8
LC-001-100-D00-0
 62
     7
370
    50
100
AcDbLine
 10
156.647996
 20
121.486071
 30
0.0
 11
156.647996
 21
121.486071
 31
0.0
  0
LINE
  5
1AB
330
18F
100
AcDbEntity
  8
LC-001-100-D00-0
 62
     7
370
    50
100
AcDbLine
 10
156.647996
 20
121.486071
 30
0.0
 11
157.211382
 21
121.129643
 31
0.0
  0
LINE
  5
1AC
330
18F
100
AcDbEntity
  8
LC-001-100-D00-0
 62
     7
370
    50
100
AcDbLine
 10
157.211382
 20
121.129643
 30
0.0
 11
157.211382
 21
121.129643
 31
0.0
  0
LINE
  5
1AD
330
18F
100
AcDbEntity
  8
LC-001-100-D00-0
 62
     7
370
    50
100
AcDbLine
 10
157.211382
 20
121.129643
 30
0.0
 11
157.515551
 21
120.98725
 31
0.0
  0
LINE
  5
1AE
330
18F
100
AcDbEntity
  8
LC-001-100-D00-0
 62
     7
370
    50
100
AcDbLine
 10
157.515551
 20
120.98725
 30
0.0
 11
157.515551
 21
120.98725
 31
0.0
  0
LINE
  5
1AF
330
18F
100
AcDbEntity
  8
LC-001-100-D00-0
 62
     7
370
    50
100
AcDbLine
 10
157.515551
 20
120.98725
 30
0.0
 11
158.139587
 21
120.78365
 31
0.0
  0
LINE
  5
1B0
330
18F
100
AcDbEntity
  8
LC-001-100-D00-0
 62
     7
370
    50
100
AcDbLine
 10
158.139587
 20
120.78365
 30
0.0
 11
158.139587
 21
120.78365
 31
0.0
  0
LINE
  5
1B1
330
18F
100
AcDbEntity
  8
LC-001-100-D00-0
 62
     7
370
    50
100
AcDbLine
 10
158.139587
 20
120.78365
 30
0.0
 11
158.459158
 21
120.722391
 31
0.0
  0
LINE
  5
1B2
330
18F
100
AcDbEntity
  8
LC-001-100-D00-0
 62
     7
370
    50
100
AcDbLine
 10
158.459158
 20
120.722391
 30
0.0
 11
158.459158
 21
120.722391
 31
0.0
  0
LINE
  5
1B3
330
18F
100
AcDbEntity
  8
LC-001-100-D00-0
 62
     7
370
    50
100
AcDbLine
 10
158.459158
 20
120.722391
 30
0.0
 11
159.084886
 21
120.675922
 31
0.0
  0
LINE
  5
1B4
330
18F
100
AcDbEntity
  8
LC-001-100-D00-0
 62
     7
370
    50
100
AcDbLine
 10
159.084886
 20
120.675922
 30
0.0
 11
159.084886
 21
120.675922
 31
0.0
  0
LINE
  5
1B5
330
18F
100
AcDbEntity
  8
LC-001-100-D00-0
 62
     7
370
    50
100
AcDbLine
 10
159.084886
 20
120.675922
 30
0.0
 11
159.390877
 21
120.690508
 31
0.0
  0
LINE
  5
1B6
330
18F
100
AcDbEntity
  8
LC-001-100-D00-0
 62
     7
370
    50
100
AcDbLine
 10
159.390877
 20
120.690508
 30
0.0
 11
159.390877
 21
120.690508
 31
0.0
  0
LINE
  5
1B7
330
18F
100
AcDbEntity
  8
LC-001-100-D00-0
 62
     7
370
    50
100
AcDbLine
 10
159.390877
 20
120.690508
 30
0.0
 11
159.968483
 21
120.779848
 31
0.0
  0
LINE
  5
1B8
330
18F
100
AcDbEntity
  8
LC-001-100-D00-0
 62
     7
370
    50
100
AcDbLine
 10
159.968483
 20
120.779848
 30
0.0
 11
159.968483
 21
120.779848
 31
0.0
  0
LINE
  5
1B9
330
18F
100
AcDbEntity
  8
LC-001-100-D00-0
 62
     7
370
    50
100
AcDbLine
 10
159.968483
 20
120.779848
 30
0.0
 11
160.240099
 21
120.854389
 31
0.0
  0
LINE
  5
1BA
330
18F
100
AcDbEntity
  8
LC-001-100-D00-0
 62
     7
370
    50
100
AcDbLine
 10
160.240099
 20
120.854389
 30
0.0
 11
160.240099
 21
120.854389
 31
0.0
  0
LINE
  5
1BB
330
18F
100
AcDbEntity
  8
LC-001-100-D00-0
 62
     7
370
    50
100
AcDbLine
 10
160.240099
 20
120.854389
 30
0.0
 11
160.987907
 21
121.138611
 31
0.0
  0
LINE
  5
1BC
330
18F
100
AcDbEntity
  8
LC-001-100-D00-0
 62
     7
370
    50
100
AcDbLine
 10
160.987907
 20
121.138611
 30
0.0
 11
160.987907
 21
121.138611
 31
0.0
  0
LINE
  5
1BD
330
18F
100
AcDbEntity
  8
LC-001-100-D00-0
 62
     7
370
    50
100
AcDbLine
 10
160.987907
 20
121.138611
 30
0.0
 11
161.394612
 21
121.406387
 31
0.0
  0
LINE
  5
1BE
330
18F
100
AcDbEntity
  8
LC-001-100-D00-0
 62
     7
370
    50
100
AcDbLine
 10
161.394612
 20
121.406387
 30
0.0
 11
161.394612
 21
121.406387
 31
0.0
  0
LINE
  5
1BF
330
18F
100
AcDbEntity
  8
LC-001-100-D00-0
 62
     7
370
    50
100
AcDbLine
 10
161.394612
 20
121.406387
 30
0.0
 11
162.034508
 21
121.970932
 31
0.0
  0
LINE
  5
1C0
330
18F
100
AcDbEntity
  8
LC-001-100-D00-0
 62
     7
370
    50
100
AcDbLine
 10
162.034508
 20
121.970932
 30
0.0
 11
162.034508
 21
121.970932
 31
0.0
  0
LINE
  5
1C1
330
18F
100
AcDbEntity
  8
LC-001-100-D00-0
 62
     7
370
    50
100
AcDbLine
 10
162.034508
 20
121.970932
 30
0.0
 11
162.270357
 21
122.267912
 31
0.0
  0
LINE
  5
1C2
330
18F
100
AcDbEntity
  8
LC-001-100-D00-0
 62
     7
370
    50
100
AcDbLine
 10
162.270357
 20
122.267912
 30
0.0
 11
162.270357
 21
122.267912
 31
0.0
  0
LINE
  5
1C3
330
18F
100
AcDbEntity
  8
LC-001-100-D00-0
 62
     7
370
    50
100
AcDbLine
 10
162.270357
 20
122.267912
 30
0.0
 11
162.448571
 21
122.549605
 31
0.0
  0
ENDBLK
  5
191
330
18F
100
AcDbEntity
  8
0
100
AcDbBlockEnd
  0
BLOCK
  5
1C8
330
1C7
100
AcDbEntity
  8
0
100
AcDbBlockBegin
  2
POLY7
 70
     0
 71
     0
 10
0.0
 20
0.0
 30
0.0
  3
POLY7
  1

  4
POLY7
  0
LINE
  5
1CA
330
1C7
100
AcDbEntity
  8
LC-001-100-D00-0
 62
     7
370
    50
100
AcDbLine
 10
144.201767
 20
177.876399
 30
0.0
 11
144.201767
 21
177.876399
 31
0.0
  0
LINE
  5
1CB
330
1C7
100
AcDbEntity
  8
LC-001-100-D00-0
 62
     7
370
    50
100
AcDbLine
 10
144.201767
 20
177.876399
 30
0.0
 11
144.48346
 21
177.698185
 31
0.0
  0
LINE
  5
1CC
330
1C7
100
AcDbEntity
  8
LC-001-100-D00-0
 62
     7
370
    50
100
AcDbLine
 10
144.48346
 20
177.698185
 30
0.0
 11
144.48346
 21
177.698185
 31
0.0
  0
LINE
  5
1CD
330
1C7
100
AcDbEntity
  8
LC-001-100-D00-0
 62
     7
370
    50
100
AcDbLine
 10
144.48346
 20
177.698185
 30
0.0
 11
144.823782
 21
177.530844
 31
0.0
  0
LINE
  5
1CE
330
1C7
100
AcDbEntity
  8
LC-001-100-D00-0
 62
     7
370
    50
100
AcDbLine
 10
144.823782
 20
177.530844
 30
0.0
 11
144.823782
 21
177.530844
 31
0.0
  0
LINE
  5
1CF
330
1C7
100
AcDbEntity
  8
LC-001-100-D00-0
 62
     7
370
    50
100
AcDbLine
 10
144.823782
 20
177.530844
 30
0.0
 11
145.643814
 21
177.294783
 31
0.0
  0
LINE
  5
1D0
330
1C7
100
AcDbEntity
  8
LC-001-100-D00-0
 62
     7
370
    50
100
AcDbLine
 10
145.643814
 20
177.294783
 30
0.0
 11
145.643814
 21
177.294783
 31
0.0
  0
LINE
  5
1D1
330
1C7
100
AcDbEntity
  8
LC-001-100-D00-0
 62
     7
370
    50
100
AcDbLine
 10
145.643814
 20
177.294783
 30
0.0
 11
146.126017
 21
177.227011
 31
0.0
  0
LINE
  5
1D2
330
1C7
100
AcDbEntity
  8
LC-001-100-D00-0
 62
     7
370
    50
100
AcDbLine
 10
146.126017
 20
177.227011
 30
0.0
 11
146.126017
 21
177.227011
 31
0.0
  0
LINE
  5
1D3
330
1C7
100
AcDbEntity
  8
LC-001-100-D00-0
 62
     7
370
    50
100
AcDbLine
 10
146.126017
 20
177.227011
 30
0.0
 11
146.923496
 21
177.290478
 31
0.0
  0
LINE
  5
1D4
330
1C7
100
AcDbEntity
  8
LC-001-100-D00-0
 62
     7
370
    50
100
AcDbLine
 10
146.923496
 20
177.290478
 30
0.0
 11
146.923496
 21
177.290478
 31
0.0
  0
LINE
  5
1D5
330
1C7
100
AcDbEntity
  8
LC-001-100-D00-0
 62
     7
370
    50
100
AcDbLine
 10
146.923496
 20
177.290478
 30
0.0
 11
147.200862
 21
177.339459
 31
0.0
  0
LINE
  5
1D6
330
1C7
100
AcDbEntity
  8
LC-001-100-D00-0
 62
     7
370
    50
100
AcDbLine
 10
147.200862
 20
177.339459
 30
0.0
 11
147.200862
 21
177.339459
 31
0.0
  0
LINE
  5
1D7
330
1C7
100
AcDbEntity
  8
LC-001-100-D00-0
 62
     7
370
    50
100
AcDbLine
 10
147.200862
 20
177.339459
 30
0.0
 11
147.76107
 21
177.506126
 31
0.0
  0
LINE
  5
1D8
330
1C7
100
AcDbEntity
  8
LC-001-100-D00-0
 62
     7
370
    50
100
AcDbLine
 10
147.76107
 20
177.506126
 30
0.0
 11
147.76107
 21
177.506126
 31
0.0
  0
LINE
  5
1D9
330
1C7
100
AcDbEntity
  8
LC-001-100-D00-0
 62
     7
370
    50
100
AcDbLine
 10
147.76107
 20
177.506126
 30
0.0
 11
148.043819
 21
177.624007
 31
0.0
  0
LINE
  5
1DA
330
1C7
100
AcDbEntity
  8
LC-001-100-D00-0
 62
     7
370
    50
100
AcDbLine
 10
148.043819
 20
177.624007
 30
0.0
 11
148.043819
 21
177.624007
 31
0.0
  0
LINE
  5
1DB
330
1C7
100
AcDbEntity
  8
LC-001-100-D00-0
 62
     7
370
    50
100
AcDbLine
 10
148.043819
 20
177.624007
 30
0.0
 11
148.589342
 21
177.934007
 31
0.0
  0
LINE
  5
1DC
330
1C7
100
AcDbEntity
  8
LC-001-100-D00-0
 62
     7
370
    50
100
AcDbLine
 10
148.589342
 20
177.934007
 30
0.0
 11
148.589342
 21
177.934007
 31
0.0
  0
LINE
  5
1DD
330
1C7
100
AcDbEntity
  8
LC-001-100-D00-0
 62
     7
370
    50
100
AcDbLine
 10
148.589342
 20
177.934007
 30
0.0
 11
148.851877
 21
178.12624
 31
0.0
  0
LINE
  5
1DE
330
1C7
100
AcDbEntity
  8
LC-001-100-D00-0
 62
     7
370
    50
100
AcDbLine
 10
148.851877
 20
178.12624
 30
0.0
 11
148.851877
 21
178.12624
 31
0.0
  0
LINE
  5
1DF
330
1C7
100
AcDbEntity
  8
LC-001-100-D00-0
 62
     7
370
    50
100
AcDbLine
 10
148.851877
 20
178.12624
 30
0.0
 11
149.328569
 21
178.577504
 31
0.0
  0
LINE
  5
1E0
330
1C7
100
AcDbEntity
  8
LC-001-100-D00-0
 62
     7
370
    50
100
AcDbLine
 10
149.328569
 20
178.577504
 30
0.0
 11
149.328569
 21
178.577504
 31
0.0
  0
LINE
  5
1E1
330
1C7
100
AcDbEntity
  8
LC-001-100-D00-0
 62
     7
370
    50
100
AcDbLine
 10
149.328569
 20
178.577504
 30
0.0
 11
149.542435
 21
178.836455
 31
0.0
  0
LINE
  5
1E2
330
1C7
100
AcDbEntity
  8
LC-001-100-D00-0
 62
     7
370
    50
100
AcDbLine
 10
149.542435
 20
178.836455
 30
0.0
 11
149.542435
 21
178.836455
 31
0.0
  0
LINE
  5
1E3
330
1C7
100
AcDbEntity
  8
LC-001-100-D00-0
 62
     7
370
    50
100
AcDbLine
 10
149.542435
 20
178.836455
 30
0.0
 11
149.898863
 21
179.399841
 31
0.0
  0
LINE
  5
1E4
330
1C7
100
AcDbEntity
  8
LC-001-100-D00-0
 62
     7
370
    50
100
AcDbLine
 10
149.898863
 20
179.399841
 30
0.0
 11
149.898863
 21
179.399841
 31
0.0
  0
LINE
  5
1E5
330
1C7
100
AcDbEntity
  8
LC-001-100-D00-0
 62
     7
370
    50
100
AcDbLine
 10
149.898863
 20
179.399841
 30
0.0
 11
150.041256
 21
179.704009
 31
0.0
  0
LINE
  5
1E6
330
1C7
100
AcDbEntity
  8
LC-001-100-D00-0
 62
     7
370
    50
100
AcDbLine
 10
150.041256
 20
179.704009
 30
0.0
 11
150.041256
 21
179.704009
 31
0.0
  0
LINE
  5
1E7
330
1C7
100
AcDbEntity
  8
LC-001-100-D00-0
 62
     7
370
    50
100
AcDbLine
 10
150.041256
 20
179.704009
 30
0.0
 11
150.244856
 21
180.328046
 31
0.0
  0
LINE
  5
1E8
330
1C7
100
AcDbEntity
  8
LC-001-100-D00-0
 62
     7
370
    50
100
AcDbLine
 10
150.244856
 20
180.328046
 30
0.0
 11
150.244856
 21
180.328046
 31
0.0
  0
LINE
  5
1E9
330
1C7
100
AcDbEntity
  8
LC-001-100-D00-0
 62
     7
370
    50
100
AcDbLine
 10
150.244856
 20
180.328046
 30
0.0
 11
150.306115
 21
180.647617
 31
0.0
  0
LINE
  5
1EA
330
1C7
100
AcDbEntity
  8
LC-001-100-D00-0
 62
     7
370
    50
100
AcDbLine
 10
150.306115
 20
180.647617
 30
0.0
 11
150.306115
 21
180.647617
 31
0.0
  0
LINE
  5
1EB
330
1C7
100
AcDbEntity
  8
LC-001-100-D00-0
 62
     7
370
    50
100
AcDbLine
 10
150.306115
 20
180.647617
 30
0.0
 11
150.352584
 21
181.273344
 31
0.0
  0
LINE
  5
1EC
330
1C7
100
AcDbEntity
  8
LC-001-100-D00-0
 62
     7
370
    50
100
AcDbLine
 10
150.352584
 20
181.273344
 30
0.0
 11
150.352584
 21
181.273344
 31
0.0
  0
LINE
  5
1ED
330
1C7
100
AcDbEntity
  8
LC-001-100-D00-0
 62
     7
370
    50
100
AcDbLine
 10
150.352584
 20
181.273344
 30
0.0
 11
150.337998
 21
181.579336
 31
0.0
  0
LINE
  5
1EE
330
1C7
100
AcDbEntity
  8
LC-001-100-D00-0
 62
     7
370
    50
100
AcDbLine
 10
150.337998
 20
181.579336
 30
0.0
 11
150.337998
 21
181.579336
 31
0.0
  0
LINE
  5
1EF
330
1C7
100
AcDbEntity
  8
LC-001-100-D00-0
 62
     7
370
    50
100
AcDbLine
 10
150.337998
 20
181.579336
 30
0.0
 11
150.248658
 21
182.156942
 31
0.0
  0
LINE
  5
1F0
330
1C7
100
AcDbEntity
  8
LC-001-100-D00-0
 62
     7
370
    50
100
AcDbLine
 10
150.248658
 20
182.156942
 30
0.0
 11
150.248658
 21
182.156942
 31
0.0
  0
LINE
  5
1F1
330
1C7
100
AcDbEntity
  8
LC-001-100-D00-0
 62
     7
370
    50
100
AcDbLine
 10
150.248658
 20
182.156942
 30
0.0
 11
150.174117
 21
182.428557
 31
0.0
  0
LINE
  5
1F2
330
1C7
100
AcDbEntity
  8
LC-001-100-D00-0
 62
     7
370
    50
100
AcDbLine
 10
150.174117
 20
182.428557
 30
0.0
 11
150.174117
 21
182.428557
 31
0.0
  0
LINE
  5
1F3
330
1C7
100
AcDbEntity
  8
LC-001-100-D00-0
 62
     7
370
    50
100
AcDbLine
 10
150.174117
 20
182.428557
 30
0.0
 11
149.889895
 21
183.176366
 31
0.0
  0
LINE
  5
1F4
330
1C7
100
AcDbEntity
  8
LC-001-100-D00-0
 62
     7
370
    50
100
AcDbLine
 10
149.889895
 20
183.176366
 30
0.0
 11
149.889895
 21
183.176366
 31
0.0
  0
LINE
  5
1F5
330
1C7
100
AcDbEntity
  8
LC-001-100-D00-0
 62
     7
370
    50
100
AcDbLine
 10
149.889895
 20
183.176366
 30
0.0
 11
149.622119
 21
183.583071
 31
0.0
  0
LINE
  5
1F6
330
1C7
100
AcDbEntity
  8
LC-001-100-D00-0
 62
     7
370
    50
100
AcDbLine
 10
149.622119
 20
183.583071
 30
0.0
 11
149.622119
 21
183.583071
 31
0.0
  0
LINE
  5
1F7
330
1C7
100
AcDbEntity
  8
LC-001-100-D00-0
 62
     7
370
    50
100
AcDbLine
 10
149.622119
 20
183.583071
 30
0.0
 11
149.057574
 21
184.222967
 31
0.0
  0
LINE
  5
1F8
330
1C7
100
AcDbEntity
  8
LC-001-100-D00-0
 62
     7
370
    50
100
AcDbLine
 10
149.057574
 20
184.222967
 30
0.0
 11
149.057574
 21
184.222967
 31
0.0
  0
LINE
  5
1F9
330
1C7
100
AcDbEntity
  8
LC-001-100-D00-0
 62
     7
370
    50
100
AcDbLine
 10
149.057574
 20
184.222967
 30
0.0
 11
148.760594
 21
184.458816
 31
0.0
  0
LINE
  5
1FA
330
1C7
100
AcDbEntity
  8
LC-001-100-D00-0
 62
     7
370
    50
100
AcDbLine
 10
148.760594
 20
184.458816
 30
0.0
 11
148.760594
 21
184.458816
 31
0.0
  0
LINE
  5
1FB
330
1C7
100
AcDbEntity
  8
LC-001-100-D00-0
 62
     7
370
    50
100
AcDbLine
 10
148.760594
 20
184.458816
 30
0.0
 11
148.478901
 21
184.63703
 31
0.0
  0
ENDBLK
  5
1C9
330
1C7
100
AcDbEntity
  8
0
100
AcDbBlockEnd
  0
BLOCK
  5
1FE
330
1FD
100
AcDbEntity
  8
0
100
AcDbBlockBegin
  2
POLY8
 70
     0
 71
     0
 10
0.0
 20
0.0
 30
0.0
  3
POLY8
  1

  4
POLY8
  0
LINE
  5
200
330
1FD
100
AcDbEntity
  8
LC-001-100-D00-0
 62
     7
370
    50
100
AcDbLine
 10
100.361147
 20
184.63703
 30
0.0
 11
100.361147
 21
184.63703
 31
0.0
  0
LINE
  5
201
330
1FD
100
AcDbEntity
  8
LC-001-100-D00-0
 62
     7
370
    50
100
AcDbLine
 10
100.361147
 20
184.63703
 30
0.0
 11
100.079454
 21
184.458816
 31
0.0
  0
LINE
  5
202
330
1FD
100
AcDbEntity
  8
LC-001-100-D00-0
 62
     7
370
    50
100
AcDbLine
 10
100.079454
 20
184.458816
 30
0.0
 11
100.079454
 21
184.458816
 31
0.0
  0
LINE
  5
203
330
1FD
100
AcDbEntity
  8
LC-001-100-D00-0
 62
     7
370
    50
100
AcDbLine
 10
100.079454
 20
184.458816
 30
0.0
 11
99.782473
 21
184.222967
 31
0.0
  0
LINE
  5
204
330
1FD
100
AcDbEntity
  8
LC-001-100-D00-0
 62
     7
370
    50
100
AcDbLine
 10
99.782473
 20
184.222967
 30
0.0
 11
99.782473
 21
184.222967
 31
0.0
  0
LINE
  5
205
330
1FD
100
AcDbEntity
  8
LC-001-100-D00-0
 62
     7
370
    50
100
AcDbLine
 10
99.782473
 20
184.222967
 30
0.0
 11
99.217929
 21
183.583071
 31
0.0
  0
LINE
  5
206
330
1FD
100
AcDbEntity
  8
LC-001-100-D00-0
 62
     7
370
    50
100
AcDbLine
 10
99.217929
 20
183.583071
 30
0.0
 11
99.217929
 21
183.583071
 31
0.0
  0
LINE
  5
207
330
1FD
100
AcDbEntity
  8
LC-001-100-D00-0
 62
     7
370
    50
100
AcDbLine
 10
99.217929
 20
183.583071
 30
0.0
 11
98.950152
 21
183.176366
 31
0.0
  0
LINE
  5
208
330
1FD
100
AcDbEntity
  8
LC-001-100-D00-0
 62
     7
370
    50
100
AcDbLine
 10
98.950152
 20
183.176366
 30
0.0
 11
98.950152
 21
183.176366
 31
0.0
  0
LINE
  5
209
330
1FD
100
AcDbEntity
  8
LC-001-100-D00-0
 62
     7
370
    50
100
AcDbLine
 10
98.950152
 20
183.176366
 30
0.0
 11
98.66593
 21
182.428557
 31
0.0
  0
LINE
  5
20A
330
1FD
100
AcDbEntity
  8
LC-001-100-D00-0
 62
     7
370
    50
100
AcDbLine
 10
98.66593
 20
182.428557
 30
0.0
 11
98.66593
 21
182.428557
 31
0.0
  0
LINE
  5
20B
330
1FD
100
AcDbEntity
  8
LC-001-100-D00-0
 62
     7
370
    50
100
AcDbLine
 10
98.66593
 20
182.428557
 30
0.0
 11
98.59139
 21
182.156942
 31
0.0
  0
LINE
  5
20C
330
1FD
100
AcDbEntity
  8
LC-001-100-D00-0
 62
     7
370
    50
100
AcDbLine
 10
98.59139
 20
182.156942
 30
0.0
 11
98.59139
 21
182.156942
 31
0.0
  0
LINE
  5
20D
330
1FD
100
AcDbEntity
  8
LC-001-100-D00-0
 62
     7
370
    50
100
AcDbLine
 10
98.59139
 20
182.156942
 30
0.0
 11
98.502049
 21
181.579336
 31
0.0
  0
LINE
  5
20E
330
1FD
100
AcDbEntity
  8
LC-001-100-D00-0
 62
     7
370
    50
100
AcDbLine
 10
98.502049
 20
181.579336
 30
0.0
 11
98.502049
 21
181.579336
 31
0.0
  0
LINE
  5
20F
330
1FD
100
AcDbEntity
  8
LC-001-100-D00-0
 62
     7
370
    50
100
AcDbLine
 10
98.502049
 20
181.579336
 30
0.0
 11
98.487464
 21
181.273344
 31
0.0
  0
LINE
  5
210
330
1FD
100
AcDbEntity
  8
LC-001-100-D00-0
 62
     7
370
    50
100
AcDbLine
 10
98.487464
 20
181.273344
 30
0.0
 11
98.487464
 21
181.273344
 31
0.0
  0
LINE
  5
211
330
1FD
100
AcDbEntity
  8
LC-001-100-D00-0
 62
     7
370
    50
100
AcDbLine
 10
98.487464
 20
181.273344
 30
0.0
 11
98.533932
 21
180.647617
 31
0.0
  0
LINE
  5
212
330
1FD
100
AcDbEntity
  8
LC-001-100-D00-0
 62
     7
370
    50
100
AcDbLine
 10
98.533932
 20
180.647617
 30
0.0
 11
98.533932
 21
180.647617
 31
0.0
  0
LINE
  5
213
330
1FD
100
AcDbEntity
  8
LC-001-100-D00-0
 62
     7
370
    50
100
AcDbLine
 10
98.533932
 20
180.647617
 30
0.0
 11
98.595191
 21
180.328046
 31
0.0
  0
LINE
  5
214
330
1FD
100
AcDbEntity
  8
LC-001-100-D00-0
 62
     7
370
    50
100
AcDbLine
 10
98.595191
 20
180.328046
 30
0.0
 11
98.595191
 21
180.328046
 31
0.0
  0
LINE
  5
215
330
1FD
100
AcDbEntity
  8
LC-001-100-D00-0
 62
     7
370
    50
100
AcDbLine
 10
98.595191
 20
180.328046
 30
0.0
 11
98.798791
 21
179.704009
 31
0.0
  0
LINE
  5
216
330
1FD
100
AcDbEntity
  8
LC-001-100-D00-0
 62
     7
370
    50
100
AcDbLine
 10
98.798791
 20
179.704009
 30
0.0
 11
98.798791
 21
179.704009
 31
0.0
  0
LINE
  5
217
330
1FD
100
AcDbEntity
  8
LC-001-100-D00-0
 62
     7
370
    50
100
AcDbLine
 10
98.798791
 20
179.704009
 30
0.0
 11
98.941184
 21
179.399841
 31
0.0
  0
LINE
  5
218
330
1FD
100
AcDbEntity
  8
LC-001-100-D00-0
 62
     7
370
    50
100
AcDbLine
 10
98.941184
 20
179.399841
 30
0.0
 11
98.941184
 21
179.399841
 31
0.0
  0
LINE
  5
219
330
1FD
100
AcDbEntity
  8
LC-001-100-D00-0
 62
     7
370
    50
100
AcDbLine
 10
98.941184
 20
179.399841
 30
0.0
 11
99.297612
 21
178.836455
 31
0.0
  0
LINE
  5
21A
330
1FD
100
AcDbEntity
  8
LC-001-100-D00-0
 62
     7
370
    50
100
AcDbLine
 10
99.297612
 20
178.836455
 30
0.0
 11
99.297612
 21
178.836455
 31
0.0
  0
LINE
  5
21B
330
1FD
100
AcDbEntity
  8
LC-001-100-D00-0
 62
     7
370
    50
100
AcDbLine
 10
99.297612
 20
178.836455
 30
0.0
 11
99.511478
 21
178.577504
 31
0.0
  0
LINE
  5
21C
330
1FD
100
AcDbEntity
  8
LC-001-100-D00-0
 62
     7
370
    50
100
AcDbLine
 10
99.511478
 20
178.577504
 30
0.0
 11
99.511478
 21
178.577504
 31
0.0
  0
LINE
  5
21D
330
1FD
100
AcDbEntity
  8
LC-001-100-D00-0
 62
     7
370
    50
100
AcDbLine
 10
99.511478
 20
178.577504
 30
0.0
 11
99.98817
 21
178.12624
 31
0.0
  0
LINE
  5
21E
330
1FD
100
AcDbEntity
  8
LC-001-100-D00-0
 62
     7
370
    50
100
AcDbLine
 10
99.98817
 20
178.12624
 30
0.0
 11
99.98817
 21
178.12624
 31
0.0
  0
LINE
  5
21F
330
1FD
100
AcDbEntity
  8
LC-001-100-D00-0
 62
     7
370
    50
100
AcDbLine
 10
99.98817
 20
178.12624
 30
0.0
 11
100.250705
 21
177.934007
 31
0.0
  0
LINE
  5
220
330
1FD
100
AcDbEntity
  8
LC-001-100-D00-0
 62
     7
370
    50
100
AcDbLine
 10
100.250705
 20
177.934007
 30
0.0
 11
100.250705
 21
177.934007
 31
0.0
  0
LINE
  5
221
330
1FD
100
AcDbEntity
  8
LC-001-100-D00-0
 62
     7
370
    50
100
AcDbLine
 10
100.250705
 20
177.934007
 30
0.0
 11
100.796228
 21
177.624007
 31
0.0
  0
LINE
  5
222
330
1FD
100
AcDbEntity
  8
LC-001-100-D00-0
 62
     7
370
    50
100
AcDbLine
 10
100.796228
 20
177.624007
 30
0.0
 11
100.796228
 21
177.624007
 31
0.0
  0
LINE
  5
223
330
1FD
100
AcDbEntity
  8
LC-001-100-D00-0
 62
     7
370
    50
100
AcDbLine
 10
100.796228
 20
177.624007
 30
0.0
 11
101.078978
 21
177.506126
 31
0.0
  0
LINE
  5
224
330
1FD
100
AcDbEntity
  8
LC-001-100-D00-0
 62
     7
370
    50
100
AcDbLine
 10
101.078978
 20
177.506126
 30
0.0
 11
101.078978
 21
177.506126
 31
0.0
  0
LINE
  5
225
330
1FD
100
AcDbEntity
  8
LC-001-100-D00-0
 62
     7
370
    50
100
AcDbLine
 10
101.078978
 20
177.506126
 30
0.0
 11
101.639185
 21
177.339459
 31
0.0
  0
LINE
  5
226
330
1FD
100
AcDbEntity
  8
LC-001-100-D00-0
 62
     7
370
    50
100
AcDbLine
 10
101.639185
 20
177.339459
 30
0.0
 11
101.639185
 21
177.339459
 31
0.0
  0
LINE
  5
227
330
1FD
100
AcDbEntity
  8
LC-001-100-D00-0
 62
     7
370
    50
100
AcDbLine
 10
101.639185
 20
177.339459
 30
0.0
 11
101.916552
 21
177.290478
 31
0.0
  0
LINE
  5
228
330
1FD
100
AcDbEntity
  8
LC-001-100-D00-0
 62
     7
370
    50
100
AcDbLine
 10
101.916552
 20
177.290478
 30
0.0
 11
101.916552
 21
177.290478
 31
0.0
  0
LINE
  5
229
330
1FD
100
AcDbEntity
  8
LC-001-100-D00-0
 62
     7
370
    50
100
AcDbLine
 10
101.916552
 20
177.290478
 30
0.0
 11
102.71403
 21
177.227011
 31
0.0
  0
LINE
  5
22A
330
1FD
100
AcDbEntity
  8
LC-001-100-D00-0
 62
     7
370
    50
100
AcDbLine
 10
102.71403
 20
177.227011
 30
0.0
 11
102.71403
 21
177.227011
 31
0.0
  0
LINE
  5
22B
330
1FD
100
AcDbEntity
  8
LC-001-100-D00-0
 62
     7
370
    50
100
AcDbLine
 10
102.71403
 20
177.227011
 30
0.0
 11
103.196233
 21
177.294783
 31
0.0
  0
LINE
  5
22C
330
1FD
100
AcDbEntity
  8
LC-001-100-D00-0
 62
     7
370
    50
100
AcDbLine
 10
103.196233
 20
177.294783
 30
0.0
 11
103.196233
 21
177.294783
 31
0.0
  0
LINE
  5
22D
330
1FD
100
AcDbEntity
  8
LC-001-100-D00-0
 62
     7
370
    50
100
AcDbLine
 10
103.196233
 20
177.294783
 30
0.0
 11
104.016266
 21
177.530844
 31
0.0
  0
LINE
  5
22E
330
1FD
100
AcDbEntity
  8
LC-001-100-D00-0
 62
     7
370
    50
100
AcDbLine
 10
104.016266
 20
177.530844
 30
0.0
 11
104.016266
 21
177.530844
 31
0.0
  0
LINE
  5
22F
330
1FD
100
AcDbEntity
  8
LC-001-100-D00-0
 62
     7
370
    50
100
AcDbLine
 10
104.016266
 20
177.530844
 30
0.0
 11
104.356587
 21
177.698185
 31
0.0
  0
LINE
  5
230
330
1FD
100
AcDbEntity
  8
LC-001-100-D00-0
 62
     7
370
    50
100
AcDbLine
 10
104.356587
 20
177.698185
 30
0.0
 11
104.356587
 21
177.698185
 31
0.0
  0
LINE
  5
231
330
1FD
100
AcDbEntity
  8
LC-001-100-D00-0
 62
     7
370
    50
100
AcDbLine
 10
104.356587
 20
177.698185
 30
0.0
 11
104.63828
 21
177.876399
 31
0.0
  0
ENDBLK
  5
1FF
330
1FD
100
AcDbEntity
  8
0
100
AcDbBlockEnd
  0
BLOCK
  5
2BB
330
2B1
100
AcDbEntity
  8
0
100
AcDbBlockBegin
  2
*D9
 70
     1
 71
     0
 10
0.0
 20
0.0
 30
0.0
  3
*D9
  1

  0
LINE
  5
2B2
330
2B1
100
AcDbEntity
  8
LC-002-106-D00-0
 62
     2
370
    -2
100
AcDbLine
 10
66.920024
 20
202.108482
 30
0.0
 11
66.920024
 21
221.242983
 31
0.0
  0
LINE
  5
2B3
330
2B1
100
AcDbEntity
  8
LC-002-106-D00-0
 62
     2
370
    -2
100
AcDbLine
 10
181.920024
 20
202.108482
 30
0.0
 11
181.920024
 21
221.242983
 31
0.0
  0
LINE
  5
2B4
330
2B1
100
AcDbEntity
  8
LC-002-106-D00-0
 62
     2
370
    -2
100
AcDbLine
 10
94.920024
 20
217.642983
 30
0.0
 11
153.920024
 21
217.642983
 31
0.0
  0
SOLID
  5
2B5
330
2B1
100
AcDbEntity
  8
LC-002-106-D00-0
 62
     2
100
AcDbTrace
 10
94.920024
 20
222.30965
 30
0.0
 11
94.920024
 21
212.976317
 31
0.0
 12
66.920024
 22
217.642983
 32
0.0
 13
66.920024
 23
217.642983
 33
0.0
  0
SOLID
  5
2B6
330
2B1
100
AcDbEntity
  8
LC-002-106-D00-0
 62
     2
100
AcDbTrace
 10
153.920024
 20
212.976317
 30
0.0
 11
153.920024
 21
222.30965
 31
0.0
 12
181.920024
 22
217.642983
 32
0.0
 13
181.920024
 23
217.642983
 33
0.0
  0
MTEXT
  5
2B7
330
2B1
100
AcDbEntity
  8
LC-002-106-D00-0
 62
     2
100
AcDbMText
 10
124.366379
 20
248.442983
 30
0.0
 40
28.0
 41
0.0
 71
     5
 72
     1
  1
\A1;115
  7
LCTX15-400-0-0pDIN-Schrift
 73
     1
 44
1.0
  0
POINT
  5
2B8
330
2B1
100
AcDbEntity
  8
Defpoints
 62
     0
100
AcDbPoint
 10
66.920024
 20
202.108482
 30
0.0
  0
POINT
  5
2B9
330
2B1
100
AcDbEntity
  8
Defpoints
 62
     0
100
AcDbPoint
 10
181.920024
 20
202.108482
 30
0.0
  0
POINT
  5
2BA
330
2B1
100
AcDbEntity
  8
Defpoints
 62
     0
100
AcDbPoint
 10
181.920024
 20
217.642983
 30
0.0
  0
ENDBLK
  5
2BC
330
2B1
100
AcDbEntity
  8
0
100
AcDbBlockEnd
  0
ENDSEC
  0
SECTION
  2
ENTITIES
  0
INSERT
  5
67
330
1F
100
AcDbEntity
  8
LC-001-100-D00-0
 62
     7
370
    50
100
AcDbBlockReference
  2
POLY1
 10
0.0
 20
0.0
 30
0.0
  0
LINE
  5
68
330
1F
100
AcDbEntity
  8
LC-001-100-D00-0
 62
     7
370
    50
100
AcDbLine
 10
135.14436
 20
144.608534
 30
0.0
 11
136.18781
 21
144.608534
 31
0.0
  0
LINE
  5
69
330
1F
100
AcDbEntity
  8
LC-001-100-D00-0
 62
     7
370
    50
100
AcDbLine
 10
136.187809
 20
145.762401
 30
0.0
 11
136.18781
 21
144.608534
 31
0.0
  0
ARC
  5
6A
330
1F
100
AcDbEntity
  8
LC-001-100-D00-0
 62
     7
370
    50
100
AcDbCircle
 10
135.38783
 20
145.762401
 30
0.0
 40
0.7999789999999791
100
AcDbArc
 50
0.0
 51
41.229305
  0
ARC
  5
6B
330
1F
100
AcDbEntity
  8
LC-001-100-D00-0
 62
     7
370
    50
100
AcDbCircle
 10
135.387829
 20
146.816892
 30
0.0
 40
0.7999793174234647
100
AcDbArc
 50
318.770686
 51
0.0
  0
LINE
  5
6C
330
1F
100
AcDbEntity
  8
LC-001-100-D00-0
 62
     7
370
    50
100
AcDbLine
 10
136.187808
 20
147.808451
 30
0.0
 11
136.187809
 21
146.816892
 31
0.0
  0
ARC
  5
6D
330
1F
100
AcDbEntity
  8
LC-001-100-D00-0
 62
     7
370
    50
100
AcDbCircle
 10
135.387829
 20
147.808451
 30
0.0
 40
0.7999787119160828
100
AcDbArc
 50
0.0
 51
90.0
  0
LINE
  5
6E
330
1F
100
AcDbEntity
  8
LC-001-100-D00-0
 62
     7
370
    50
100
AcDbLine
 10
133.057462
 20
148.60843
 30
0.0
 11
135.387829
 21
148.60843
 31
0.0
  0
LINE
  5
6F
330
1F
100
AcDbEntity
  8
LC-001-100-D00-0
 62
     7
370
    50
100
AcDbLine
 10
133.057462
 20
148.60843
 30
0.0
 11
133.057462
 21
144.608534
 31
0.0
  0
LINE
  5
70
330
1F
100
AcDbEntity
  8
LC-001-100-D00-0
 62
     7
370
    50
100
AcDbLine
 10
133.057462
 20
144.608534
 30
0.0
 11
134.100911
 21
144.608534
 31
0.0
  0
LINE
  5
71
330
1F
100
AcDbEntity
  8
LC-001-100-D00-0
 62
     7
370
    50
100
AcDbLine
 10
134.100911
 20
144.608534
 30
0.0
 11
134.100911
 21
145.651983
 31
0.0
  0
LINE
  5
72
330
1F
100
AcDbEntity
  8
LC-001-100-D00-0
 62
     7
370
    50
100
AcDbLine
 10
134.100911
 20
145.651983
 30
0.0
 11
134.970452
 21
145.651983
 31
0.0
  0
ARC
  5
73
330
1F
100
AcDbEntity
  8
LC-001-100-D00-0
 62
     7
370
    50
100
AcDbCircle
 10
134.970452
 20
145.478075
 30
0.0
 40
0.1739080000000399
100
AcDbArc
 50
0.0
 51
90.0
  0
LINE
  5
74
330
1F
100
AcDbEntity
  8
LC-001-100-D00-0
 62
     7
370
    50
100
AcDbLine
 10
135.14436
 20
144.608534
 30
0.0
 11
135.14436
 21
145.478075
 31
0.0
  0
LINE
  5
75
330
1F
100
AcDbEntity
  8
LC-001-100-D00-0
 62
     7
370
    50
100
AcDbLine
 10
132.4198
 20
147.101218
 30
0.0
 11
130.912595
 21
147.101218
 31
0.0
  0
LINE
  5
76
330
1F
100
AcDbEntity
  8
LC-001-100-D00-0
 62
     7
370
    50
100
AcDbLine
 10
130.912595
 20
147.564973
 30
0.0
 11
130.912595
 21
147.101218
 31
0.0
  0
LINE
  5
77
330
1F
100
AcDbEntity
  8
LC-001-100-D00-0
 62
     7
370
    50
100
AcDbLine
 10
130.912595
 20
147.564973
 30
0.0
 11
132.4198
 21
147.564973
 31
0.0
  0
LINE
  5
78
330
1F
100
AcDbEntity
  8
LC-001-100-D00-0
 62
     7
370
    50
100
AcDbLine
 10
132.4198
 20
148.60843
 30
0.0
 11
132.4198
 21
147.564973
 31
0.0
  0
LINE
  5
79
330
1F
100
AcDbEntity
  8
LC-001-100-D00-0
 62
     7
370
    50
100
AcDbLine
 10
129.869146
 20
148.60843
 30
0.0
 11
132.4198
 21
148.60843
 31
0.0
  0
LINE
  5
7A
330
1F
100
AcDbEntity
  8
LC-001-100-D00-0
 62
     7
370
    50
100
AcDbLine
 10
129.869146
 20
148.60843
 30
0.0
 11
129.869146
 21
144.608534
 31
0.0
  0
LINE
  5
7B
330
1F
100
AcDbEntity
  8
LC-001-100-D00-0
 62
     7
370
    50
100
AcDbLine
 10
129.869146
 20
144.608534
 30
0.0
 11
132.4198
 21
144.608534
 31
0.0
  0
LINE
  5
7C
330
1F
100
AcDbEntity
  8
LC-001-100-D00-0
 62
     7
370
    50
100
AcDbLine
 10
132.4198
 20
144.608534
 30
0.0
 11
132.4198
 21
145.651983
 31
0.0
  0
LINE
  5
7D
330
1F
100
AcDbEntity
  8
LC-001-100-D00-0
 62
     7
370
    50
100
AcDbLine
 10
130.912595
 20
145.651983
 30
0.0
 11
132.4198
 21
145.651983
 31
0.0
  0
LINE
  5
7E
330
1F
100
AcDbEntity
  8
LC-001-100-D00-0
 62
     7
370
    50
100
AcDbLine
 10
130.912595
 20
145.651983
 30
0.0
 11
130.912595
 21
146.111196
 31
0.0
  0
LINE
  5
7F
330
1F
100
AcDbEntity
  8
LC-001-100-D00-0
 62
     7
370
    50
100
AcDbLine
 10
132.4198
 20
146.111196
 30
0.0
 11
130.912595
 21
146.111196
 31
0.0
  0
LINE
  5
80
330
1F
100
AcDbEntity
  8
LC-001-100-D00-0
 62
     7
370
    50
100
AcDbLine
 10
132.4198
 20
146.111196
 30
0.0
 11
132.4198
 21
147.101218
 31
0.0
  0
LINE
  5
81
330
1F
100
AcDbEntity
  8
LC-001-100-D00-0
 62
     7
370
    50
100
AcDbLine
 10
122.217187
 20
144.608534
 30
0.0
 11
124.535963
 21
144.608534
 31
0.0
  0
LINE
  5
82
330
1F
100
AcDbEntity
  8
LC-001-100-D00-0
 62
     7
370
    50
100
AcDbLine
 10
124.535963
 20
145.651983
 30
0.0
 11
124.535963
 21
144.608534
 31
0.0
  0
LINE
  5
83
330
1F
100
AcDbEntity
  8
LC-001-100-D00-0
 62
     7
370
    50
100
AcDbLine
 10
123.260636
 20
145.651983
 30
0.0
 11
124.535963
 21
145.651983
 31
0.0
  0
LINE
  5
84
330
1F
100
AcDbEntity
  8
LC-001-100-D00-0
 62
     7
370
    50
100
AcDbLine
 10
123.260636
 20
148.60843
 30
0.0
 11
123.260636
 21
145.651983
 31
0.0
  0
LINE
  5
85
330
1F
100
AcDbEntity
  8
LC-001-100-D00-0
 62
     7
370
    50
100
AcDbLine
 10
122.217187
 20
148.60843
 30
0.0
 11
123.260636
 21
148.60843
 31
0.0
  0
LINE
  5
86
330
1F
100
AcDbEntity
  8
LC-001-100-D00-0
 62
     7
370
    50
100
AcDbLine
 10
122.217187
 20
148.60843
 30
0.0
 11
122.217187
 21
144.608534
 31
0.0
  0
LINE
  5
87
330
1F
100
AcDbEntity
  8
LC-001-100-D00-0
 62
     7
370
    50
100
AcDbLine
 10
116.814442
 20
148.60843
 30
0.0
 11
118.344831
 21
148.60843
 31
0.0
  0
ARC
  5
88
330
1F
100
AcDbEntity
  8
LC-001-100-D00-0
 62
     7
370
    50
100
AcDbCircle
 10
116.814442
 20
147.808451
 30
0.0
 40
0.7999790000000076
100
AcDbArc
 50
90.0
 51
180.0
  0
LINE
  5
89
330
1F
100
AcDbEntity
  8
LC-001-100-D00-0
 62
     7
370
    50
100
AcDbLine
 10
116.014462
 20
147.808451
 30
0.0
 11
116.014462
 21
144.608534
 31
0.0
  0
LINE
  5
8A
330
1F
100
AcDbEntity
  8
LC-001-100-D00-0
 62
     7
370
    50
100
AcDbLine
 10
116.014462
 20
144.608534
 30
0.0
 11
117.057912
 21
144.608534
 31
0.0
  0
LINE
  5
8B
330
1F
100
AcDbEntity
  8
LC-001-100-D00-0
 62
     7
370
    50
100
AcDbLine
 10
117.057912
 20
144.608534
 30
0.0
 11
117.057912
 21
145.76793
 31
0.0
  0
LINE
  5
8C
330
1F
100
AcDbEntity
  8
LC-001-100-D00-0
 62
     7
370
    50
100
AcDbLine
 10
117.057912
 20
145.76793
 30
0.0
 11
118.10136
 21
145.76793
 31
0.0
  0
LINE
  5
8D
330
1F
100
AcDbEntity
  8
LC-001-100-D00-0
 62
     7
370
    50
100
AcDbLine
 10
118.10136
 20
144.608534
 30
0.0
 11
118.10136
 21
145.76793
 31
0.0
  0
LINE
  5
8E
330
1F
100
AcDbEntity
  8
LC-001-100-D00-0
 62
     7
370
    50
100
AcDbLine
 10
118.10136
 20
144.608534
 30
0.0
 11
119.14481
 21
144.608534
 31
0.0
  0
LINE
  5
8F
330
1F
100
AcDbEntity
  8
LC-001-100-D00-0
 62
     7
370
    50
100
AcDbLine
 10
119.14481
 20
147.808451
 30
0.0
 11
119.14481
 21
144.608534
 31
0.0
  0
ARC
  5
90
330
1F
100
AcDbEntity
  8
LC-001-100-D00-0
 62
     7
370
    50
100
AcDbCircle
 10
118.344831
 20
147.808451
 30
0.0
 40
0.7999790000000076
100
AcDbArc
 50
0.0
 51
90.0
  0
LINE
  5
91
330
1F
100
AcDbEntity
  8
LC-001-100-D00-0
 62
     7
370
    50
100
AcDbLine
 10
112.652238
 20
148.608431
 30
0.0
 11
114.709327
 21
148.608431
 31
0.0
  0
LINE
  5
92
330
1F
100
AcDbEntity
  8
LC-001-100-D00-0
 62
     7
370
    50
100
AcDbLine
 10
112.652238
 20
148.608431
 30
0.0
 11
112.652241
 21
144.608534
 31
0.0
  0
LINE
  5
93
330
1F
100
AcDbEntity
  8
LC-001-100-D00-0
 62
     7
370
    50
100
AcDbLine
 10
112.652241
 20
144.608534
 30
0.0
 11
114.709328
 21
144.608534
 31
0.0
  0
ARC
  5
94
330
1F
100
AcDbEntity
  8
LC-001-100-D00-0
 62
     7
370
    50
100
AcDbCircle
 10
114.709328
 20
145.408513
 30
0.0
 40
0.7999790000000076
100
AcDbArc
 50
270.0
 51
360.0
  0
LINE
  5
95
330
1F
100
AcDbEntity
  8
LC-001-100-D00-0
 62
     7
370
    50
100
AcDbLine
 10
115.509307
 20
147.808451
 30
0.0
 11
115.509307
 21
145.408513
 31
0.0
  0
ARC
  5
96
330
1F
100
AcDbEntity
  8
LC-001-100-D00-0
 62
     7
370
    50
100
AcDbCircle
 10
114.709328
 20
147.808451
 30
0.0
 40
0.7999794999999921
100
AcDbArc
 50
0.0
 51
90.0
  0
LINE
  5
97
330
1F
100
AcDbEntity
  8
LC-001-100-D00-0
 62
     7
370
    50
100
AcDbLine
 10
119.724503
 20
144.608534
 30
0.0
 11
122.043279
 21
144.608534
 31
0.0
  0
LINE
  5
98
330
1F
100
AcDbEntity
  8
LC-001-100-D00-0
 62
     7
370
    50
100
AcDbLine
 10
122.043279
 20
145.651983
 30
0.0
 11
122.043279
 21
144.608534
 31
0.0
  0
LINE
  5
99
330
1F
100
AcDbEntity
  8
LC-001-100-D00-0
 62
     7
370
    50
100
AcDbLine
 10
120.767953
 20
145.651983
 30
0.0
 11
122.043279
 21
145.651983
 31
0.0
  0
LINE
  5
9A
330
1F
100
AcDbEntity
  8
LC-001-100-D00-0
 62
     7
370
    50
100
AcDbLine
 10
120.767953
 20
148.60843
 30
0.0
 11
120.767953
 21
145.651983
 31
0.0
  0
LINE
  5
9B
330
1F
100
AcDbEntity
  8
LC-001-100-D00-0
 62
     7
370
    50
100
AcDbLine
 10
119.724503
 20
148.60843
 30
0.0
 11
120.767953
 21
148.60843
 31
0.0
  0
LINE
  5
9C
330
1F
100
AcDbEntity
  8
LC-001-100-D00-0
 62
     7
370
    50
100
AcDbLine
 10
119.724503
 20
148.60843
 30
0.0
 11
119.724503
 21
144.608534
 31
0.0
  0
LINE
  5
9D
330
1F
100
AcDbEntity
  8
LC-001-100-D00-0
 62
     7
370
    50
100
AcDbLine
 10
128.361941
 20
144.608535
 30
0.0
 11
129.405391
 21
144.608535
 31
0.0
  0
LINE
  5
9E
330
1F
100
AcDbEntity
  8
LC-001-100-D00-0
 62
     7
370
    50
100
AcDbLine
 10
129.405391
 20
147.808451
 30
0.0
 11
129.405391
 21
144.608535
 31
0.0
  0
ARC
  5
9F
330
1F
100
AcDbEntity
  8
LC-001-100-D00-0
 62
     7
370
    50
100
AcDbCircle
 10
128.605412
 20
147.808451
 30
0.0
 40
0.7999790484865912
100
AcDbArc
 50
0.0
 51
90.0
  0
LINE
  5
A0
330
1F
100
AcDbEntity
  8
LC-001-100-D00-0
 62
     7
370
    50
100
AcDbLine
 10
127.6175
 20
148.60843
 30
0.0
 11
128.605412
 21
148.60843
 31
0.0
  0
ARC
  5
A1
330
1F
100
AcDbEntity
  8
LC-001-100-D00-0
 62
     7
370
    50
100
AcDbCircle
 10
127.6175
 20
147.808451
 30
0.0
 40
0.7999790484865912
100
AcDbArc
 50
90.0
 51
134.415318
  0
ARC
  5
A2
330
1F
100
AcDbEntity
  8
LC-001-100-D00-0
 62
     7
370
    50
100
AcDbCircle
 10
126.497762
 20
147.808451
 30
0.0
 40
0.7999794090567707
100
AcDbArc
 50
45.584658
 51
90.0
  0
LINE
  5
A3
330
1F
100
AcDbEntity
  8
LC-001-100-D00-0
 62
     7
370
    50
100
AcDbLine
 10
125.50985
 20
148.60843
 30
0.0
 11
126.497762
 21
148.60843
 31
0.0
  0
ARC
  5
A4
330
1F
100
AcDbEntity
  8
LC-001-100-D00-0
 62
     7
370
    50
100
AcDbCircle
 10
125.50985
 20
147.808451
 30
0.0
 40
0.7999790000000076
100
AcDbArc
 50
90.0
 51
180.0
  0
LINE
  5
A5
330
1F
100
AcDbEntity
  8
LC-001-100-D00-0
 62
     7
370
    50
100
AcDbLine
 10
124.709871
 20
147.808451
 30
0.0
 11
124.709871
 21
144.608534
 31
0.0
  0
LINE
  5
A6
330
1F
100
AcDbEntity
  8
LC-001-100-D00-0
 62
     7
370
    50
100
AcDbLine
 10
124.709871
 20
144.608534
 30
0.0
 11
125.75332
 21
144.608534
 31
0.0
  0
LINE
  5
A7
330
1F
100
AcDbEntity
  8
LC-001-100-D00-0
 62
     7
370
    50
100
AcDbLine
 10
125.75332
 20
147.449043
 30
0.0
 11
125.75332
 21
144.608534
 31
0.0
  0
ARC
  5
A8
330
1F
100
AcDbEntity
  8
LC-001-100-D00-0
 62
     7
370
    50
100
AcDbCircle
 10
125.869259
 20
147.449043
 30
0.0
 40
0.1159389999999974
100
AcDbArc
 50
90.0
 51
180.0
  0
LINE
  5
A9
330
1F
100
AcDbEntity
  8
LC-001-100-D00-0
 62
     7
370
    50
100
AcDbLine
 10
125.869259
 20
147.564982
 30
0.0
 11
126.390983
 21
147.564982
 31
0.0
  0
ARC
  5
AA
330
1F
100
AcDbEntity
  8
LC-001-100-D00-0
 62
     7
370
    50
100
AcDbCircle
 10
126.390983
 20
147.449043
 30
0.0
 40
0.1159389999999974
100
AcDbArc
 50
0.0
 51
90.0
  0
LINE
  5
AB
330
1F
100
AcDbEntity
  8
LC-001-100-D00-0
 62
     7
370
    50
100
AcDbLine
 10
126.506922
 20
147.449043
 30
0.0
 11
126.506922
 21
144.608534
 31
0.0
  0
LINE
  5
AC
330
1F
100
AcDbEntity
  8
LC-001-100-D00-0
 62
     7
370
    50
100
AcDbLine
 10
126.506922
 20
144.608534
 30
0.0
 11
127.60834
 21
144.608534
 31
0.0
  0
LINE
  5
AD
330
1F
100
AcDbEntity
  8
LC-001-100-D00-0
 62
     7
370
    50
100
AcDbLine
 10
127.60834
 20
147.449043
 30
0.0
 11
127.60834
 21
144.608534
 31
0.0
  0
ARC
  5
AE
330
1F
100
AcDbEntity
  8
LC-001-100-D00-0
 62
     7
370
    50
100
AcDbCircle
 10
127.724278
 20
147.449043
 30
0.0
 40
0.1159384999999986
100
AcDbArc
 50
90.0
 51
180.0
  0
LINE
  5
AF
330
1F
100
AcDbEntity
  8
LC-001-100-D00-0
 62
     7
370
    50
100
AcDbLine
 10
127.724278
 20
147.564982
 30
0.0
 11
128.246003
 21
147.564982
 31
0.0
  0
ARC
  5
B0
330
1F
100
AcDbEntity
  8
LC-001-100-D00-0
 62
     7
370
    50
100
AcDbCircle
 10
128.246003
 20
147.449044
 30
0.0
 40
0.1159379999999999
100
AcDbArc
 50
0.0
 51
90.0
  0
LINE
  5
B1
330
1F
100
AcDbEntity
  8
LC-001-100-D00-0
 62
     7
370
    50
100
AcDbLine
 10
128.361941
 20
147.449044
 30
0.0
 11
128.361941
 21
144.608535
 31
0.0
  0
ARC
  5
B2
330
1F
100
AcDbEntity
  8
LC-001-100-D00-0
 62
     7
370
    50
100
AcDbCircle
 10
124.420024
 20
146.608482
 30
0.0
 40
45.00000000000001
100
AcDbArc
 50
147.680383
 51
212.319616
  0
INSERT
  5
E8
330
1F
100
AcDbEntity
  8
LC-001-100-D00-0
 62
     7
370
    50
100
AcDbBlockReference
  2
POLY2
 10
0.0
 20
0.0
 30
0.0
  0
INSERT
  5
11E
330
1F
100
AcDbEntity
  8
LC-001-100-D00-0
 62
     7
370
    50
100
AcDbBlockReference
  2
POLY3
 10
0.0
 20
0.0
 30
0.0
  0
ARC
  5
11F
330
1F
100
AcDbEntity
  8
LC-001-100-D00-0
 62
     7
370
    50
100
AcDbCircle
 10
124.420024
 20
146.608482
 30
0.0
 40
37.00000000000001
100
AcDbArc
 50
237.680383
 51
302.319617
  0
ARC
  5
120
330
1F
100
AcDbEntity
  8
LC-001-100-D00-0
 62
     7
370
    50
100
AcDbCircle
 10
124.420024
 20
146.608482
 30
0.0
 40
45.00000000000001
100
AcDbArc
 50
237.680383
 51
302.319616
  0
INSERT
  5
156
330
1F
100
AcDbEntity
  8
LC-001-100-D00-0
 62
     7
370
    50
100
AcDbBlockReference
  2
POLY4
 10
0.0
 20
0.0
 30
0.0
  0
INSERT
  5
18C
330
1F
100
AcDbEntity
  8
LC-001-100-D00-0
 62
     7
370
    50
100
AcDbBlockReference
  2
POLY5
 10
0.0
 20
0.0
 30
0.0
  0
ARC
  5
18D
330
1F
100
AcDbEntity
  8
LC-001-100-D00-0
 62
     7
370
    50
100
AcDbCircle
 10
124.420024
 20
146.608482
 30
0.0
 40
37.0
100
AcDbArc
 50
327.680383
 51
32.319617
  0
ARC
  5
18E
330
1F
100
AcDbEntity
  8
LC-001-100-D00-0
 62
     7
370
    50
100
AcDbCircle
 10
124.420024
 20
146.608482
 30
0.0
 40
45.00000000000001
100
AcDbArc
 50
327.680383
 51
32.319616
  0
INSERT
  5
1C4
330
1F
100
AcDbEntity
  8
LC-001-100-D00-0
 62
     7
370
    50
100
AcDbBlockReference
  2
POLY6
 10
0.0
 20
0.0
 30
0.0
  0
ARC
  5
1C5
330
1F
100
AcDbEntity
  8
LC-001-100-D00-0
 62
     7
370
    50
100
AcDbCircle
 10
124.420024
 20
146.608482
 30
0.0
 40
36.99999999999999
100
AcDbArc
 50
57.680383
 51
122.319617
  0
ARC
  5
1C6
330
1F
100
AcDbEntity
  8
LC-001-100-D00-0
 62
     7
370
    50
100
AcDbCircle
 10
124.420024
 20
146.608482
 30
0.0
 40
45.0
100
AcDbArc
 50
57.680383
 51
122.319616
  0
INSERT
  5
1FC
330
1F
100
AcDbEntity
  8
LC-001-100-D00-0
 62
     7
370
    50
100
AcDbBlockReference
  2
POLY7
 10
0.0
 20
0.0
 30
0.0
  0
INSERT
  5
232
330
1F
100
AcDbEntity
  8
LC-001-100-D00-0
 62
     7
370
    50
100
AcDbBlockReference
  2
POLY8
 10
0.0
 20
0.0
 30
0.0
  0
ARC
  5
233
330
1F
100
AcDbEntity
  8
LC-001-100-D00-0
 62
     7
370
    50
100
AcDbCircle
 10
124.420024
 20
146.608482
 30
0.0
 40
37.00000000000003
100
AcDbArc
 50
147.680383
 51
212.319617
  0
LINE
  5
234
330
1F
100
AcDbEntity
  8
LC-001-100-D00-0
 62
     7
370
    50
100
AcDbLine
 10
117.057912
 20
146.818421
 30
0.0
 11
118.10136
 21
146.818421
 31
0.0
  0
LINE
  5
235
330
1F
100
AcDbEntity
  8
LC-001-100-D00-0
 62
     7
370
    50
100
AcDbLine
 10
117.057912
 20
147.391073
 30
0.0
 11
117.057912
 21
146.818421
 31
0.0
  0
ARC
  5
236
330
1F
100
AcDbEntity
  8
LC-001-100-D00-0
 62
     7
370
    50
100
AcDbCircle
 10
117.23182
 20
147.391073
 30
0.0
 40
0.1739080000000115
100
AcDbArc
 50
90.0
 51
180.0
  0
LINE
  5
237
330
1F
100
AcDbEntity
  8
LC-001-100-D00-0
 62
     7
370
    50
100
AcDbLine
 10
117.23182
 20
147.564981
 30
0.0
 11
117.927453
 21
147.564981
 31
0.0
  0
ARC
  5
238
330
1F
100
AcDbEntity
  8
LC-001-100-D00-0
 62
     7
370
    50
100
AcDbCircle
 10
117.927453
 20
147.391073
 30
0.0
 40
0.1739080000000115
100
AcDbArc
 50
0.0
 51
90.0
  0
LINE
  5
239
330
1F
100
AcDbEntity
  8
LC-001-100-D00-0
 62
     7
370
    50
100
AcDbLine
 10
118.10136
 20
147.391073
 30
0.0
 11
118.10136
 21
146.818421
 31
0.0
  0
LINE
  5
23A
330
1F
100
AcDbEntity
  8
LC-001-100-D00-0
 62
     7
370
    50
100
AcDbLine
 10
135.372926
 20
147.387753
 30
0.0
 11
135.372926
 21
146.988591
 31
0.0
  0
ARC
  5
23B
330
1F
100
AcDbEntity
  8
LC-001-100-D00-0
 62
     7
370
    50
100
AcDbCircle
 10
134.96714
 20
147.387753
 30
0.0
 40
0.4057855000000359
100
AcDbArc
 50
0.0
 51
90.0
  0
LINE
  5
23C
330
1F
100
AcDbEntity
  8
LC-001-100-D00-0
 62
     7
370
    50
100
AcDbLine
 10
133.872345
 20
147.793539
 30
0.0
 11
134.96714
 21
147.793539
 31
0.0
  0
LINE
  5
23D
330
1F
100
AcDbEntity
  8
LC-001-100-D00-0
 62
     7
370
    50
100
AcDbLine
 10
133.872345
 20
146.582805
 30
0.0
 11
133.872345
 21
147.793539
 31
0.0
  0
LINE
  5
23E
330
1F
100
AcDbEntity
  8
LC-001-100-D00-0
 62
     7
370
    50
100
AcDbLine
 10
134.967139
 20
146.582805
 30
0.0
 11
133.872345
 21
146.582805
 31
0.0
  0
ARC
  5
23F
330
1F
100
AcDbEntity
  8
LC-001-100-D00-0
 62
     7
370
    50
100
AcDbCircle
 10
134.96714
 20
146.988591
 30
0.0
 40
0.4057860000000346
100
AcDbArc
 50
270.0
 51
0.0
  0
ARC
  5
240
330
1F
100
AcDbEntity
  8
LC-001-100-D00-0
 62
     7
370
    50
100
AcDbCircle
 10
134.967139
 20
145.474763
 30
0.0
 40
0.4057860000000062
100
AcDbArc
 50
0.0
 51
90.0
  0
LINE
  5
241
330
1F
100
AcDbEntity
  8
LC-001-100-D00-0
 62
     7
370
    50
100
AcDbLine
 10
133.872345
 20
145.880549
 30
0.0
 11
134.967139
 21
145.880549
 31
0.0
  0
LINE
  5
242
330
1F
100
AcDbEntity
  8
LC-001-100-D00-0
 62
     7
370
    50
100
AcDbLine
 10
133.872345
 20
144.8371
 30
0.0
 11
133.872345
 21
145.880549
 31
0.0
  0
LINE
  5
243
330
1F
100
AcDbEntity
  8
LC-001-100-D00-0
 62
     7
370
    50
100
AcDbLine
 10
133.286027
 20
144.8371
 30
0.0
 11
133.872345
 21
144.8371
 31
0.0
  0
LINE
  5
244
330
1F
100
AcDbEntity
  8
LC-001-100-D00-0
 62
     7
370
    50
100
AcDbLine
 10
133.286027
 20
148.379865
 30
0.0
 11
133.286027
 21
144.8371
 31
0.0
  0
LINE
  5
245
330
1F
100
AcDbEntity
  8
LC-001-100-D00-0
 62
     7
370
    50
100
AcDbLine
 10
135.387829
 20
148.379865
 30
0.0
 11
133.286027
 21
148.379865
 31
0.0
  0
ARC
  5
246
330
1F
100
AcDbEntity
  8
LC-001-100-D00-0
 62
     7
370
    50
100
AcDbCircle
 10
135.387829
 20
147.808451
 30
0.0
 40
0.5714140000000043
100
AcDbArc
 50
0.0
 51
90.0
  0
LINE
  5
247
330
1F
100
AcDbEntity
  8
LC-001-100-D00-0
 62
     7
370
    50
100
AcDbLine
 10
135.959243
 20
146.816892
 30
0.0
 11
135.959243
 21
147.808451
 31
0.0
  0
ARC
  5
248
330
1F
100
AcDbEntity
  8
LC-001-100-D00-0
 62
     7
370
    50
100
AcDbCircle
 10
135.387829
 20
146.816892
 30
0.0
 40
0.57141360550738
100
AcDbArc
 50
292.675402
 51
0.0
  0
ARC
  5
249
330
1F
100
AcDbEntity
  8
LC-001-100-D00-0
 62
     7
370
    50
100
AcDbCircle
 10
135.38783
 20
145.762401
 30
0.0
 40
0.5714140000000327
100
AcDbArc
 50
0.0
 51
67.324631
  0
LINE
  5
24A
330
1F
100
AcDbEntity
  8
LC-001-100-D00-0
 62
     7
370
    50
100
AcDbLine
 10
135.959244
 20
144.8371
 30
0.0
 11
135.959244
 21
145.762401
 31
0.0
  0
LINE
  5
24B
330
1F
100
AcDbEntity
  8
LC-001-100-D00-0
 62
     7
370
    50
100
AcDbLine
 10
135.372925
 20
144.8371
 30
0.0
 11
135.959244
 21
144.8371
 31
0.0
  0
LINE
  5
24C
330
1F
100
AcDbEntity
  8
LC-001-100-D00-0
 62
     7
370
    50
100
AcDbLine
 10
135.372925
 20
144.8371
 30
0.0
 11
135.372925
 21
145.474763
 31
0.0
  0
LINE
  5
24D
330
1F
100
AcDbEntity
  8
LC-001-100-D00-0
 62
     7
370
    50
100
AcDbLine
 10
116.829346
 20
146.589856
 30
0.0
 11
116.829346
 21
147.387761
 31
0.0
  0
LINE
  5
24E
330
1F
100
AcDbEntity
  8
LC-001-100-D00-0
 62
     7
370
    50
100
AcDbLine
 10
118.329926
 20
146.589856
 30
0.0
 11
116.829346
 21
146.589856
 31
0.0
  0
LINE
  5
24F
330
1F
100
AcDbEntity
  8
LC-001-100-D00-0
 62
     7
370
    50
100
AcDbLine
 10
118.329927
 20
147.387761
 30
0.0
 11
118.329926
 21
146.589856
 31
0.0
  0
ARC
  5
250
330
1F
100
AcDbEntity
  8
LC-001-100-D00-0
 62
     7
370
    50
100
AcDbCircle
 10
117.924141
 20
147.387761
 30
0.0
 40
0.4057860000000062
100
AcDbArc
 50
0.0
 51
90.0
  0
LINE
  5
251
330
1F
100
AcDbEntity
  8
LC-001-100-D00-0
 62
     7
370
    50
100
AcDbLine
 10
117.235132
 20
147.793547
 30
0.0
 11
117.924141
 21
147.793547
 31
0.0
  0
ARC
  5
252
330
1F
100
AcDbEntity
  8
LC-001-100-D00-0
 62
     7
370
    50
100
AcDbCircle
 10
118.344831
 20
147.808451
 30
0.0
 40
0.571413500000034
100
AcDbArc
 50
0.0
 51
90.0
  0
LINE
  5
253
330
1F
100
AcDbEntity
  8
LC-001-100-D00-0
 62
     7
370
    50
100
AcDbLine
 10
118.916244
 20
144.8371
 30
0.0
 11
118.916244
 21
147.808451
 31
0.0
  0
LINE
  5
254
330
1F
100
AcDbEntity
  8
LC-001-100-D00-0
 62
     7
370
    50
100
AcDbLine
 10
118.329925
 20
144.8371
 30
0.0
 11
118.916244
 21
144.8371
 31
0.0
  0
LINE
  5
255
330
1F
100
AcDbEntity
  8
LC-001-100-D00-0
 62
     7
370
    50
100
AcDbLine
 10
118.329925
 20
145.996496
 30
0.0
 11
118.329925
 21
144.8371
 31
0.0
  0
LINE
  5
256
330
1F
100
AcDbEntity
  8
LC-001-100-D00-0
 62
     7
370
    50
100
AcDbLine
 10
116.829345
 20
145.996496
 30
0.0
 11
118.329925
 21
145.996496
 31
0.0
  0
LINE
  5
257
330
1F
100
AcDbEntity
  8
LC-001-100-D00-0
 62
     7
370
    50
100
AcDbLine
 10
116.829345
 20
144.8371
 30
0.0
 11
116.829345
 21
145.996496
 31
0.0
  0
LINE
  5
258
330
1F
100
AcDbEntity
  8
LC-001-100-D00-0
 62
     7
370
    50
100
AcDbLine
 10
116.243028
 20
144.8371
 30
0.0
 11
116.829345
 21
144.8371
 31
0.0
  0
LINE
  5
259
330
1F
100
AcDbEntity
  8
LC-001-100-D00-0
 62
     7
370
    50
100
AcDbLine
 10
116.243028
 20
147.808451
 30
0.0
 11
116.243028
 21
144.8371
 31
0.0
  0
ARC
  5
25A
330
1F
100
AcDbEntity
  8
LC-001-100-D00-0
 62
     7
370
    50
100
AcDbCircle
 10
116.814442
 20
147.808451
 30
0.0
 40
0.571413500000034
100
AcDbArc
 50
90.0
 51
180.0
  0
LINE
  5
25B
330
1F
100
AcDbEntity
  8
LC-001-100-D00-0
 62
     7
370
    50
100
AcDbLine
 10
116.814442
 20
148.379865
 30
0.0
 11
118.344831
 21
148.379865
 31
0.0
  0
ARC
  5
25C
330
1F
100
AcDbEntity
  8
LC-001-100-D00-0
 62
     7
370
    50
100
AcDbCircle
 10
117.235132
 20
147.387761
 30
0.0
 40
0.4057860000000062
100
AcDbArc
 50
90.0
 51
180.0
  0
LINE
  5
25D
330
1F
100
AcDbEntity
  8
LC-001-100-D00-0
 62
     7
370
    50
100
AcDbLine
 10
114.752393
 20
147.352971
 30
0.0
 11
114.752393
 21
145.829203
 31
0.0
  0
ARC
  5
25E
330
1F
100
AcDbEntity
  8
LC-001-100-D00-0
 62
     7
370
    50
100
AcDbCircle
 10
114.346608
 20
147.352971
 30
0.0
 40
0.4057860000000204
100
AcDbArc
 50
0.0
 51
90.0
  0
LINE
  5
25F
330
1F
100
AcDbEntity
  8
LC-001-100-D00-0
 62
     7
370
    50
100
AcDbLine
 10
113.525091
 20
147.758757
 30
0.0
 11
114.346608
 21
147.758757
 31
0.0
  0
LINE
  5
260
330
1F
100
AcDbEntity
  8
LC-001-100-D00-0
 62
     7
370
    50
100
AcDbLine
 10
113.525091
 20
145.423418
 30
0.0
 11
113.525091
 21
147.758757
 31
0.0
  0
LINE
  5
261
330
1F
100
AcDbEntity
  8
LC-001-100-D00-0
 62
     7
370
    50
100
AcDbLine
 10
114.346608
 20
145.423417
 30
0.0
 11
113.525091
 21
145.423418
 31
0.0
  0
ARC
  5
262
330
1F
100
AcDbEntity
  8
LC-001-100-D00-0
 62
     7
370
    50
100
AcDbCircle
 10
114.346608
 20
145.829203
 30
0.0
 40
0.4057860000000346
100
AcDbArc
 50
270.0
 51
0.0
  0
ARC
  5
263
330
1F
100
AcDbEntity
  8
LC-001-100-D00-0
 62
     7
370
    50
100
AcDbCircle
 10
114.709328
 20
145.408513
 30
0.0
 40
0.5714135000000056
100
AcDbArc
 50
270.0
 51
360.0
  0
LINE
  5
264
330
1F
100
AcDbEntity
  8
LC-001-100-D00-0
 62
     7
370
    50
100
AcDbLine
 10
112.880804
 20
144.8371
 30
0.0
 11
114.709328
 21
144.8371
 31
0.0
  0
LINE
  5
265
330
1F
100
AcDbEntity
  8
LC-001-100-D00-0
 62
     7
370
    50
100
AcDbLine
 10
112.880804
 20
148.379865
 30
0.0
 11
112.880804
 21
144.8371
 31
0.0
  0
LINE
  5
266
330
1F
100
AcDbEntity
  8
LC-001-100-D00-0
 62
     7
370
    50
100
AcDbLine
 10
112.880804
 20
148.379865
 30
0.0
 11
114.709327
 21
148.379865
 31
0.0
  0
ARC
  5
267
330
1F
100
AcDbEntity
  8
LC-001-100-D00-0
 62
     7
370
    50
100
AcDbCircle
 10
114.709328
 20
147.808451
 30
0.0
 40
0.5714139999999901
100
AcDbArc
 50
0.0
 51
90.0
  0
LINE
  5
268
330
1F
100
AcDbEntity
  8
LC-001-100-D00-0
 62
     7
370
    50
100
AcDbLine
 10
115.280742
 20
145.408513
 30
0.0
 11
115.280742
 21
147.808451
 31
0.0
  0
LINE
  5
269
330
1F
100
AcDbEntity
  8
LC-001-100-D00-0
 62
     7
370
    50
100
AcDbLine
 10
179.920024
 20
89.108481
 30
0.0
 11
68.920023
 21
89.108481
 31
0.0
  0
LINE
  5
26A
330
1F
100
AcDbEntity
  8
LC-001-100-D00-0
 62
     7
370
    50
100
AcDbLine
 10
181.920025
 20
202.108483
 30
0.0
 11
181.920025
 21
91.108482
 31
0.0
  0
LINE
  5
26B
330
1F
100
AcDbEntity
  8
LC-001-100-D00-0
 62
     7
370
    50
100
AcDbLine
 10
66.920023
 20
91.108482
 30
0.0
 11
66.920023
 21
202.108483
 31
0.0
  0
LINE
  5
26C
330
1F
100
AcDbEntity
  8
LC-001-100-D00-0
 62
     7
370
    50
100
AcDbLine
 10
68.920023
 20
204.108483
 30
0.0
 11
179.920024
 21
204.108483
 31
0.0
  0
LINE
  5
26D
330
1F
100
AcDbEntity
  8
LC-001-100-D00-0
 62
     7
370
    50
100
AcDbLine
 10
119.953069
 20
148.379865
 30
0.0
 11
120.539387
 21
148.379865
 31
0.0
  0
LINE
  5
26E
330
1F
100
AcDbEntity
  8
LC-001-100-D00-0
 62
     7
370
    50
100
AcDbLine
 10
120.539387
 20
145.423418
 30
0.0
 11
120.539387
 21
148.379865
 31
0.0
  0
LINE
  5
26F
330
1F
100
AcDbEntity
  8
LC-001-100-D00-0
 62
     7
370
    50
100
AcDbLine
 10
120.539387
 20
145.423418
 30
0.0
 11
121.814714
 21
145.423418
 31
0.0
  0
LINE
  5
270
330
1F
100
AcDbEntity
  8
LC-001-100-D00-0
 62
     7
370
    50
100
AcDbLine
 10
121.814714
 20
144.8371
 30
0.0
 11
121.814714
 21
145.423418
 31
0.0
  0
LINE
  5
271
330
1F
100
AcDbEntity
  8
LC-001-100-D00-0
 62
     7
370
    50
100
AcDbLine
 10
119.953069
 20
144.8371
 30
0.0
 11
121.814714
 21
144.8371
 31
0.0
  0
LINE
  5
272
330
1F
100
AcDbEntity
  8
LC-001-100-D00-0
 62
     7
370
    50
100
AcDbLine
 10
119.953069
 20
148.379865
 30
0.0
 11
119.953069
 21
144.8371
 31
0.0
  0
LINE
  5
273
330
1F
100
AcDbEntity
  8
LC-001-100-D00-0
 62
     7
370
    50
100
AcDbLine
 10
125.87257
 20
147.793547
 30
0.0
 11
126.38767
 21
147.793547
 31
0.0
  0
ARC
  5
274
330
1F
100
AcDbEntity
  8
LC-001-100-D00-0
 62
     7
370
    50
100
AcDbCircle
 10
125.87257
 20
147.445731
 30
0.0
 40
0.3478159999999946
100
AcDbArc
 50
90.0
 51
180.0
  0
LINE
  5
275
330
1F
100
AcDbEntity
  8
LC-001-100-D00-0
 62
     7
370
    50
100
AcDbLine
 10
125.524754
 20
144.8371
 30
0.0
 11
125.524754
 21
147.445731
 31
0.0
  0
LINE
  5
276
330
1F
100
AcDbEntity
  8
LC-001-100-D00-0
 62
     7
370
    50
100
AcDbLine
 10
124.938436
 20
144.8371
 30
0.0
 11
125.524754
 21
144.8371
 31
0.0
  0
LINE
  5
277
330
1F
100
AcDbEntity
  8
LC-001-100-D00-0
 62
     7
370
    50
100
AcDbLine
 10
124.938436
 20
147.808451
 30
0.0
 11
124.938436
 21
144.8371
 31
0.0
  0
ARC
  5
278
330
1F
100
AcDbEntity
  8
LC-001-100-D00-0
 62
     7
370
    50
100
AcDbCircle
 10
125.50985
 20
147.808451
 30
0.0
 40
0.5714135000000056
100
AcDbArc
 50
90.0
 51
180.0
  0
LINE
  5
279
330
1F
100
AcDbEntity
  8
LC-001-100-D00-0
 62
     7
370
    50
100
AcDbLine
 10
125.50985
 20
148.379865
 30
0.0
 11
126.497762
 21
148.379865
 31
0.0
  0
ARC
  5
27A
330
1F
100
AcDbEntity
  8
LC-001-100-D00-0
 62
     7
370
    50
100
AcDbCircle
 10
126.497762
 20
147.808451
 30
0.0
 40
0.5714139090567837
100
AcDbArc
 50
11.536963
 51
90.0
  0
ARC
  5
27B
330
1F
100
AcDbEntity
  8
LC-001-100-D00-0
 62
     7
370
    50
100
AcDbCircle
 10
127.6175
 20
147.808451
 30
0.0
 40
0.5714140000000043
100
AcDbArc
 50
90.0
 51
168.463041
  0
LINE
  5
27C
330
1F
100
AcDbEntity
  8
LC-001-100-D00-0
 62
     7
370
    50
100
AcDbLine
 10
127.6175
 20
148.379865
 30
0.0
 11
128.605412
 21
148.379865
 31
0.0
  0
ARC
  5
27D
330
1F
100
AcDbEntity
  8
LC-001-100-D00-0
 62
     7
370
    50
100
AcDbCircle
 10
128.605412
 20
147.808451
 30
0.0
 40
0.5714140000000043
100
AcDbArc
 50
0.0
 51
90.0
  0
LINE
  5
27E
330
1F
100
AcDbEntity
  8
LC-001-100-D00-0
 62
     7
370
    50
100
AcDbLine
 10
129.176826
 20
144.8371
 30
0.0
 11
129.176826
 21
147.808451
 31
0.0
  0
LINE
  5
27F
330
1F
100
AcDbEntity
  8
LC-001-100-D00-0
 62
     7
370
    50
100
AcDbLine
 10
128.590507
 20
144.8371
 30
0.0
 11
129.176826
 21
144.8371
 31
0.0
  0
LINE
  5
280
330
1F
100
AcDbEntity
  8
LC-001-100-D00-0
 62
     7
370
    50
100
AcDbLine
 10
128.590507
 20
147.445731
 30
0.0
 11
128.590507
 21
144.8371
 31
0.0
  0
ARC
  5
281
330
1F
100
AcDbEntity
  8
LC-001-100-D00-0
 62
     7
370
    50
100
AcDbCircle
 10
128.242691
 20
147.445731
 30
0.0
 40
0.3478159999999946
100
AcDbArc
 50
0.0
 51
90.0
  0
LINE
  5
282
330
1F
100
AcDbEntity
  8
LC-001-100-D00-0
 62
     7
370
    50
100
AcDbLine
 10
127.72759
 20
147.793547
 30
0.0
 11
128.242691
 21
147.793547
 31
0.0
  0
ARC
  5
283
330
1F
100
AcDbEntity
  8
LC-001-100-D00-0
 62
     7
370
    50
100
AcDbCircle
 10
127.72759
 20
147.445731
 30
0.0
 40
0.3478159999999946
100
AcDbArc
 50
90.0
 51
180.0
  0
LINE
  5
284
330
1F
100
AcDbEntity
  8
LC-001-100-D00-0
 62
     7
370
    50
100
AcDbLine
 10
127.379774
 20
144.8371
 30
0.0
 11
127.379774
 21
147.445731
 31
0.0
  0
LINE
  5
285
330
1F
100
AcDbEntity
  8
LC-001-100-D00-0
 62
     7
370
    50
100
AcDbLine
 10
126.735487
 20
144.8371
 30
0.0
 11
127.379774
 21
144.8371
 31
0.0
  0
LINE
  5
286
330
1F
100
AcDbEntity
  8
LC-001-100-D00-0
 62
     7
370
    50
100
AcDbLine
 10
126.735486
 20
147.445731
 30
0.0
 11
126.735487
 21
144.8371
 31
0.0
  0
ARC
  5
287
330
1F
100
AcDbEntity
  8
LC-001-100-D00-0
 62
     7
370
    50
100
AcDbCircle
 10
126.38767
 20
147.445731
 30
0.0
 40
0.3478159999999946
100
AcDbArc
 50
0.0
 51
90.0
  0
LINE
  5
288
330
1F
100
AcDbEntity
  8
LC-001-100-D00-0
 62
     7
370
    50
100
AcDbLine
 10
113.753657
 20
145.651983
 30
0.0
 11
114.34992
 21
145.651983
 31
0.0
  0
LINE
  5
289
330
1F
100
AcDbEntity
  8
LC-001-100-D00-0
 62
     7
370
    50
100
AcDbLine
 10
113.753657
 20
147.530191
 30
0.0
 11
113.753657
 21
145.651983
 31
0.0
  0
ARC
  5
28A
330
1F
100
AcDbEntity
  8
LC-001-100-D00-0
 62
     7
370
    50
100
AcDbCircle
 10
114.34992
 20
147.356283
 30
0.0
 40
0.1739080000000115
100
AcDbArc
 50
0.0
 51
90.0
  0
LINE
  5
28B
330
1F
100
AcDbEntity
  8
LC-001-100-D00-0
 62
     7
370
    50
100
AcDbLine
 10
114.523827
 20
147.356283
 30
0.0
 11
114.523827
 21
145.825891
 31
0.0
  0
ARC
  5
28C
330
1F
100
AcDbEntity
  8
LC-001-100-D00-0
 62
     7
370
    50
100
AcDbCircle
 10
114.34992
 20
145.825891
 30
0.0
 40
0.1739079999999831
100
AcDbArc
 50
270.0
 51
0.0
  0
LINE
  5
28D
330
1F
100
AcDbEntity
  8
LC-001-100-D00-0
 62
     7
370
    50
100
AcDbLine
 10
113.753657
 20
147.530191
 30
0.0
 11
114.34992
 21
147.530191
 31
0.0
  0
LINE
  5
28E
330
1F
100
AcDbEntity
  8
LC-001-100-D00-0
 62
     7
370
    50
100
AcDbLine
 10
134.100911
 20
147.564973
 30
0.0
 11
134.100911
 21
146.811371
 31
0.0
  0
LINE
  5
28F
330
1F
100
AcDbEntity
  8
LC-001-100-D00-0
 62
     7
370
    50
100
AcDbLine
 10
134.100911
 20
147.564973
 30
0.0
 11
134.970453
 21
147.564973
 31
0.0
  0
ARC
  5
290
330
1F
100
AcDbEntity
  8
LC-001-100-D00-0
 62
     7
370
    50
100
AcDbCircle
 10
134.970453
 20
147.391065
 30
0.0
 40
0.1739080000000115
100
AcDbArc
 50
0.0
 51
90.0
  0
LINE
  5
291
330
1F
100
AcDbEntity
  8
LC-001-100-D00-0
 62
     7
370
    50
100
AcDbLine
 10
135.144361
 20
147.391065
 30
0.0
 11
135.144361
 21
146.985279
 31
0.0
  0
ARC
  5
292
330
1F
100
AcDbEntity
  8
LC-001-100-D00-0
 62
     7
370
    50
100
AcDbCircle
 10
134.970453
 20
146.985279
 30
0.0
 40
0.1739080000000115
100
AcDbArc
 50
270.0
 51
0.0
  0
LINE
  5
293
330
1F
100
AcDbEntity
  8
LC-001-100-D00-0
 62
     7
370
    50
100
AcDbLine
 10
134.100911
 20
146.811371
 30
0.0
 11
134.970453
 21
146.811371
 31
0.0
  0
LINE
  5
294
330
1F
100
AcDbEntity
  8
LC-001-100-D00-0
 62
     7
370
    50
100
AcDbLine
 10
122.445753
 20
144.8371
 30
0.0
 11
124.307397
 21
144.8371
 31
0.0
  0
LINE
  5
295
330
1F
100
AcDbEntity
  8
LC-001-100-D00-0
 62
     7
370
    50
100
AcDbLine
 10
122.445753
 20
148.379865
 30
0.0
 11
122.445753
 21
144.8371
 31
0.0
  0
LINE
  5
296
330
1F
100
AcDbEntity
  8
LC-001-100-D00-0
 62
     7
370
    50
100
AcDbLine
 10
122.445753
 20
148.379865
 30
0.0
 11
123.032071
 21
148.379865
 31
0.0
  0
LINE
  5
297
330
1F
100
AcDbEntity
  8
LC-001-100-D00-0
 62
     7
370
    50
100
AcDbLine
 10
123.032071
 20
145.423418
 30
0.0
 11
123.032071
 21
148.379865
 31
0.0
  0
LINE
  5
298
330
1F
100
AcDbEntity
  8
LC-001-100-D00-0
 62
     7
370
    50
100
AcDbLine
 10
123.032071
 20
145.423418
 30
0.0
 11
124.307397
 21
145.423418
 31
0.0
  0
LINE
  5
299
330
1F
100
AcDbEntity
  8
LC-001-100-D00-0
 62
     7
370
    50
100
AcDbLine
 10
124.307397
 20
144.8371
 30
0.0
 11
124.307397
 21
145.423418
 31
0.0
  0
LINE
  5
29A
330
1F
100
AcDbEntity
  8
LC-001-100-D00-0
 62
     7
370
    50
100
AcDbLine
 10
130.097712
 20
148.379865
 30
0.0
 11
132.191234
 21
148.379865
 31
0.0
  0
LINE
  5
29B
330
1F
100
AcDbEntity
  8
LC-001-100-D00-0
 62
     7
370
    50
100
AcDbLine
 10
132.191234
 20
147.793538
 30
0.0
 11
132.191234
 21
148.379865
 31
0.0
  0
LINE
  5
29C
330
1F
100
AcDbEntity
  8
LC-001-100-D00-0
 62
     7
370
    50
100
AcDbLine
 10
130.68403
 20
147.793538
 30
0.0
 11
132.191234
 21
147.793538
 31
0.0
  0
LINE
  5
29D
330
1F
100
AcDbEntity
  8
LC-001-100-D00-0
 62
     7
370
    50
100
AcDbLine
 10
130.68403
 20
146.872652
 30
0.0
 11
130.68403
 21
147.793538
 31
0.0
  0
LINE
  5
29E
330
1F
100
AcDbEntity
  8
LC-001-100-D00-0
 62
     7
370
    50
100
AcDbLine
 10
132.191234
 20
146.872652
 30
0.0
 11
130.68403
 21
146.872652
 31
0.0
  0
LINE
  5
29F
330
1F
100
AcDbEntity
  8
LC-001-100-D00-0
 62
     7
370
    50
100
AcDbLine
 10
132.191234
 20
146.339762
 30
0.0
 11
132.191234
 21
146.872652
 31
0.0
  0
LINE
  5
2A0
330
1F
100
AcDbEntity
  8
LC-001-100-D00-0
 62
     7
370
    50
100
AcDbLine
 10
130.68403
 20
146.339762
 30
0.0
 11
132.191234
 21
146.339762
 31
0.0
  0
LINE
  5
2A1
330
1F
100
AcDbEntity
  8
LC-001-100-D00-0
 62
     7
370
    50
100
AcDbLine
 10
130.68403
 20
145.423418
 30
0.0
 11
130.68403
 21
146.339762
 31
0.0
  0
LINE
  5
2A2
330
1F
100
AcDbEntity
  8
LC-001-100-D00-0
 62
     7
370
    50
100
AcDbLine
 10
132.191234
 20
145.423418
 30
0.0
 11
130.68403
 21
145.423418
 31
0.0
  0
LINE
  5
2A3
330
1F
100
AcDbEntity
  8
LC-001-100-D00-0
 62
     7
370
    50
100
AcDbLine
 10
130.097712
 20
144.8371
 30
0.0
 11
132.191234
 21
144.8371
 31
0.0
  0
LINE
  5
2A4
330
1F
100
AcDbEntity
  8
LC-001-100-D00-0
 62
     7
370
    50
100
AcDbLine
 10
130.097712
 20
148.379865
 30
0.0
 11
130.097712
 21
144.8371
 31
0.0
  0
LINE
  5
2A5
330
1F
100
AcDbEntity
  8
LC-001-100-D00-0
 62
     7
370
    50
100
AcDbLine
 10
132.191234
 20
144.8371
 30
0.0
 11
132.191234
 21
145.423418
 31
0.0
  0
ARC
  5
2A6
330
1F
100
AcDbEntity
  8
LC-001-100-D00-0
 62
     7
370
    50
100
AcDbCircle
 10
68.920024
 20
202.108482
 30
0.0
 40
2.0
100
AcDbArc
 50
90.0
 51
180.0
  0
ARC
  5
2A7
330
1F
100
AcDbEntity
  8
LC-001-100-D00-0
 62
     7
370
    50
100
AcDbCircle
 10
179.920024
 20
202.108482
 30
0.0
 40
2.0
100
AcDbArc
 50
0.0
 51
90.0
  0
ARC
  5
2A8
330
1F
100
AcDbEntity
  8
LC-001-100-D00-0
 62
     7
370
    50
100
AcDbCircle
 10
179.920024
 20
91.108482
 30
0.0
 40
2.0
100
AcDbArc
 50
270.0
 51
0.0
  0
ARC
  5
2A9
330
1F
100
AcDbEntity
  8
LC-001-100-D00-0
 62
     7
370
    50
100
AcDbCircle
 10
68.920024
 20
91.108482
 30
0.0
 40
2.0
100
AcDbArc
 50
180.0
 51
270.0
  0
POINT
  5
2AA
330
1F
100
AcDbEntity
  8
LC-001-100-D00-0
 62
     7
370
    50
100
AcDbPoint
 10
99.119398
 20
179.118148
 30
0.0
  0
POINT
  5
2AB
330
1F
100
AcDbEntity
  8
LC-001-100-D00-0
 62
     7
370
    50
100
AcDbPoint
 10
91.910358
 20
171.909108
 30
0.0
  0
DIMENSION
  5
2AF
330
1F
100
AcDbEntity
  8
LC-002-106-D00-0
 62
     7
370
    25
100
AcDbDimension
  2
*D9
 10
181.920024
 20
217.642983
 30
0.0
 11
124.366379
 21
248.442983
 31
0.0
 70
   160
  1
115
 71
     5
 42
115.0
  3
LC-DIM-L-0140-02-02
100
AcDbAlignedDimension
 13
66.920024
 23
202.108482
 33
0.0
 14
181.920024
 24
202.108482
 34
0.0
100
AcDbRotatedDimension
  0
ENDSEC
  0
SECTION
  2
OBJECTS
  0
DICTIONARY
  5
C
330
0
100
AcDbDictionary
281
     1
  3
ACAD_GROUP
350
D
  3
ACAD_LAYOUT
350
1A
  3
ACAD_MLINESTYLE
350
17
  3
ACAD_PLOTSETTINGS
350
19
  3
ACAD_PLOTSTYLENAME
350
E
  0
DICTIONARY
  5
D
102
{ACAD_REACTORS
330
C
102
}
330
C
100
AcDbDictionary
281
     1
  0
DICTIONARY
  5
1A
102
{ACAD_REACTORS
330
C
102
}
330
C
100
AcDbDictionary
281
     1
  3
Layout1
350
1E
  3
Layout2
350
26
  3
Model
350
22
  0
DICTIONARY
  5
17
102
{ACAD_REACTORS
330
C
102
}
330
C
100
AcDbDictionary
281
     1
  3
Standard
350
18
  0
DICTIONARY
  5
19
102
{ACAD_REACTORS
330
C
102
}
330
C
100
AcDbDictionary
281
     1
  0
ACDBDICTIONARYWDFLT
  5
E
102
{ACAD_REACTORS
330
C
102
}
330
C
100
AcDbDictionary
281
     1
  3
Normal
350
F
100
AcDbDictionaryWithDefault
340
F
  0
LAYOUT
  5
1E
102
{ACAD_REACTORS
330
1A
102
}
330
1A
100
AcDbPlotSettings
  1

  2

  4

  6

 40
0.0
 41
0.0
 42
0.0
 43
0.0
 44
0.0
 45
0.0
 46
0.0
 47
0.0
 48
0.0
 49
0.0
140
0.0
141
0.0
142
1.0
143
1.0
 70
   688
 72
     0
 73
     0
 74
     5
  7

 75
    16
147
1.0
148
0.0
149
0.0
100
AcDbLayout
  1
Layout1
 70
     1
 71
     1
 10
-209.760318
 20
-147.978432
 11
630.239682
 21
446.021568
 12
0.0
 22
0.0
 32
0.0
 14
-209.760318
 24
-147.978432
 34
0.0
 15
630.239682
 25
446.021568
 35
0.0
146
0.0
 13
0.0
 23
0.0
 33
0.0
 16
1.0
 26
0.0
 36
0.0
 17
0.0
 27
1.0
 37
0.0
 76
     0
330
1B
  0
LAYOUT
  5
26
102
{ACAD_REACTORS
330
1A
102
}
330
1A
100
AcDbPlotSettings
  1

  2

  4

  6

 40
0.0
 41
0.0
 42
0.0
 43
0.0
 44
0.0
 45
0.0
 46
0.0
 47
0.0
 48
0.0
 49
0.0
140
0.0
141
0.0
142
1.0
143
1.0
 70
   688
 72
     0
 73
     0
 74
     5
  7

 75
    16
147
1.0
148
0.0
149
0.0
100
AcDbLayout
  1
Layout2
 70
     1
 71
     2
 10
0.0
 20
0.0
 11
0.0
 21
0.0
 12
0.0
 22
0.0
 32
0.0
 14
0.0
 24
0.0
 34
0.0
 15
0.0
 25
0.0
 35
0.0
146
0.0
 13
0.0
 23
0.0
 33
0.0
 16
1.0
 26
0.0
 36
0.0
 17
0.0
 27
1.0
 37
0.0
 76
     0
330
23
  0
LAYOUT
  5
22
102
{ACAD_REACTORS
330
1A
102
}
330
1A
100
AcDbPlotSettings
  1

  2

  4

  6

 40
0.0
 41
0.0
 42
0.0
 43
0.0
 44
0.0
 45
0.0
 46
0.0
 47
0.0
 48
0.0
 49
0.0
140
0.0
141
0.0
142
1.0
143
1.0
 70
  1776
 72
     0
 73
     0
 74
     0
  7

 75
     0
147
1.0
148
0.0
149
0.0
100
AcDbLayout
  1
Model
 70
     1
 71
     0
 10
-209.760318
 20
-147.978432
 11
630.239682
 21
446.021568
 12
0.0
 22
0.0
 32
0.0
 14
-209.760318
 24
-147.978432
 34
0.0
 15
630.239682
 25
446.021568
 35
0.0
146
0.0
 13
0.0
 23
0.0
 33
0.0
 16
1.0
 26
0.0
 36
0.0
 17
0.0
 27
1.0
 37
0.0
 76
     0
330
1F
  0
MLINESTYLE
  5
18
102
{ACAD_REACTORS
330
17
102
}
330
17
100
AcDbMlineStyle
  2
Standard
 70
     0
  3

 62
   256
 51
90.0
 52
90.0
 71
     2
 49
0.5
 62
   256
  6
BYLAYER
 49
-0.5
 62
   256
  6
BYLAYER
  0
ACDBPLACEHOLDER
  5
F
102
{ACAD_REACTORS
330
E
102
}
330
E
  0
ENDSEC
  0
EOF
