  0
SECTION
  2
HEADER
  9
$ACADVER
  1
AC1027
  9
$ACADMAINTVER
 70
   105
  9
$DWGCODEPAGE
  3
ANSI_1252
  9
$REQUIREDVERSIONS
160
                 0
  9
$INSBASE
 10
0.0
 20
0.0
 30
0.0
  9
$EXTMIN
 10
0.0
 20
0.0
 30
0.0
  9
$EXTMAX
 10
840.0
 20
594.0
 30
0.0
  9
$LIMMIN
 10
0.0
 20
0.0
  9
$LIMMAX
 10
840.0
 20
594.0
  9
$ORTHOMODE
 70
     0
  9
$REGENMODE
 70
     1
  9
$FILLMODE
 70
     1
  9
$QTEXTMODE
 70
     0
  9
$MIRRTEXT
 70
     1
  9
$LTSCALE
 40
2.0
  9
$ATTMODE
 70
     1
  9
$TEXTSIZE
 40
7.0
  9
$TRACEWID
 40
1.0
  9
$TEXTSTYLE
  7
Standard
  9
$CLAYER
  8
0
  9
$CELTYPE
  6
ByLayer
  9
$CECOLOR
 62
   256
  9
$CELTSCALE
 40
1.0
  9
$DISPSILH
 70
     0
  9
$DIMSCALE
 40
1.0
  9
$DIMASZ
 40
14.0
  9
$DIMEXO
 40
2.0
  9
$DIMDLI
 40
3.75
  9
$DIMRND
 40
0.0
  9
$DIMDLE
 40
0.0
  9
$DIMEXE
 40
2.0
  9
$DIMTP
 40
0.0
  9
$DIMTM
 40
0.0
  9
$DIMTXT
 40
14.0
  9
$DIMCEN
 40
2.5
  9
$DIMTSZ
 40
0.0
  9
$DIMTOL
 70
     0
  9
$DIMLIM
 70
     0
  9
$DIMTIH
 70
     1
  9
$DIMTOH
 70
     1
  9
$DIMSE1
 70
     0
  9
$DIMSE2
 70
     0
  9
$DIMTAD
 70
     1
  9
$DIMZIN
 70
     1
  9
$DIMBLK
  1

  9
$DIMASO
 70
     1
  9
$DIMSHO
 70
     1
  9
$DIMPOST
  1

  9
$DIMAPOST
  1

  9
$DIMALT
 70
     0
  9
$DIMALTD
 70
     3
  9
$DIMALTF
 40
0.0393700787
  9
$DIMLFAC
 40
1.0
  9
$DIMTOFL
 70
     1
  9
$DIMTVP
 40
0.0
  9
$DIMTIX
 70
     0
  9
$DIMSOXD
 70
     0
  9
$DIMSAH
 70
     0
  9
$DIMBLK1
  1

  9
$DIMBLK2
  1

  9
$DIMSTYLE
  2
ISO-25
  9
$DIMCLRD
 70
     0
  9
$DIMCLRE
 70
     0
  9
$DIMCLRT
 70
     0
  9
$DIMTFAC
 40
1.0
  9
$DIMGAP
 40
3.048
  9
$DIMJUST
 70
     0
  9
$DIMSD1
 70
     0
  9
$DIMSD2
 70
     0
  9
$DIMTOLJ
 70
     0
  9
$DIMTZIN
 70
     1
  9
$DIMALTZ
 70
     0
  9
$DIMALTTZ
 70
     0
  9
$DIMUPT
 70
     0
  9
$DIMDEC
 70
     2
  9
$DIMTDEC
 70
     2
  9
$DIMALTU
 70
     2
  9
$DIMALTTD
 70
     3
  9
$DIMTXSTY
  7
Standard
  9
$DIMAUNIT
 70
     0
  9
$DIMADEC
 70
     2
  9
$DIMALTRND
 40
0.0
  9
$DIMAZIN
 70
     0
  9
$DIMDSEP
 70
    44
  9
$DIMATFIT
 70
     3
  9
$DIMFRAC
 70
     0
  9
$DIMLDRBLK
  1

  9
$DIMLUNIT
 70
     2
  9
$DIMLWD
 70
    -2
  9
$DIMLWE
 70
    -2
  9
$DIMTMOVE
 70
     0
  9
$DIMFXL
 40
1.0
  9
$DIMFXLON
 70
     0
  9
$DIMJOGANG
 40
0.7853981634
  9
$DIMTFILL
 70
     0
  9
$DIMTFILLCLR
 70
     0
  9
$DIMARCSYM
 70
     0
  9
$DIMLTYPE
  6

  9
$DIMLTEX1
  6

  9
$DIMLTEX2
  6

  9
$DIMTXTDIRECTION
 70
     0
  9
$LUNITS
 70
     2
  9
$LUPREC
 70
     2
  9
$SKETCHINC
 40
1.0
  9
$FILLETRAD
 40
10.0
  9
$AUNITS
 70
     0
  9
$AUPREC
 70
     2
  9
$MENU
  1
.
  9
$ELEVATION
 40
0.0
  9
$PELEVATION
 40
0.0
  9
$THICKNESS
 40
0.0
  9
$LIMCHECK
 70
     0
  9
$CHAMFERA
 40
0.0
  9
$CHAMFERB
 40
0.0
  9
$CHAMFERC
 40
0.0
  9
$CHAMFERD
 40
0.0
  9
$SKPOLY
 70
     0
  9
$TDCREATE
 40
2458897.323038947
  9
$TDUCREATE
 40
2458897.28137228
  9
$TDUPDATE
 40
2458897.323041481
  9
$TDUUPDATE
 40
2458897.281374815
  9
$TDINDWG
 40
0.0000000116
  9
$TDUSRTIMER
 40
0.0000000116
  9
$USRTIMER
 70
     1
  9
$ANGBASE
 50
0.0
  9
$ANGDIR
 70
     0
  9
$PDMODE
 70
     0
  9
$PDSIZE
 40
-1.0
  9
$PLINEWID
 40
0.0
  9
$SPLFRAME
 70
     0
  9
$SPLINETYPE
 70
     6
  9
$SPLINESEGS
 70
     8
  9
$HANDSEED
  5
3A6
  9
$SURFTAB1
 70
     6
  9
$SURFTAB2
 70
     6
  9
$SURFTYPE
 70
     6
  9
$SURFU
 70
     6
  9
$SURFV
 70
     6
  9
$UCSBASE
  2

  9
$UCSNAME
  2

  9
$UCSORG
 10
0.0
 20
0.0
 30
0.0
  9
$UCSXDIR
 10
1.0
 20
0.0
 30
0.0
  9
$UCSYDIR
 10
0.0
 20
1.0
 30
0.0
  9
$UCSORTHOREF
  2

  9
$UCSORTHOVIEW
 70
     0
  9
$UCSORGTOP
 10
0.0
 20
0.0
 30
0.0
  9
$UCSORGBOTTOM
 10
0.0
 20
0.0
 30
0.0
  9
$UCSORGLEFT
 10
0.0
 20
0.0
 30
0.0
  9
$UCSORGRIGHT
 10
0.0
 20
0.0
 30
0.0
  9
$UCSORGFRONT
 10
0.0
 20
0.0
 30
0.0
  9
$UCSORGBACK
 10
0.0
 20
0.0
 30
0.0
  9
$PUCSBASE
  2

  9
$PUCSNAME
  2

  9
$PUCSORG
 10
0.0
 20
0.0
 30
0.0
  9
$PUCSXDIR
 10
1.0
 20
0.0
 30
0.0
  9
$PUCSYDIR
 10
0.0
 20
1.0
 30
0.0
  9
$PUCSORTHOREF
  2

  9
$PUCSORTHOVIEW
 70
     0
  9
$PUCSORGTOP
 10
0.0
 20
0.0
 30
0.0
  9
$PUCSORGBOTTOM
 10
0.0
 20
0.0
 30
0.0
  9
$PUCSORGLEFT
 10
0.0
 20
0.0
 30
0.0
  9
$PUCSORGRIGHT
 10
0.0
 20
0.0
 30
0.0
  9
$PUCSORGFRONT
 10
0.0
 20
0.0
 30
0.0
  9
$PUCSORGBACK
 10
0.0
 20
0.0
 30
0.0
  9
$USERI1
 70
     0
  9
$USERI2
 70
     0
  9
$USERI3
 70
     0
  9
$USERI4
 70
     0
  9
$USERI5
 70
     0
  9
$USERR1
 40
0.0
  9
$USERR2
 40
0.0
  9
$USERR3
 40
0.0
  9
$USERR4
 40
0.0
  9
$USERR5
 40
0.0
  9
$WORLDVIEW
 70
     1
  9
$SHADEDGE
 70
     3
  9
$SHADEDIF
 70
    70
  9
$TILEMODE
 70
     1
  9
$MAXACTVP
 70
    64
  9
$PINSBASE
 10
0.0
 20
0.0
 30
0.0
  9
$PLIMCHECK
 70
     0
  9
$PEXTMIN
 10
1.0000000000E+20
 20
1.0000000000E+20
 30
1.0000000000E+20
  9
$PEXTMAX
 10
-1.0000000000E+20
 20
-1.0000000000E+20
 30
-1.0000000000E+20
  9
$PLIMMIN
 10
0.0
 20
0.0
  9
$PLIMMAX
 10
420.0
 20
297.0
  9
$UNITMODE
 70
     0
  9
$VISRETAIN
 70
     1
  9
$PLINEGEN
 70
     0
  9
$PSLTSCALE
 70
     1
  9
$TREEDEPTH
 70
  3020
  9
$CMLSTYLE
  2
Standard
  9
$CMLJUST
 70
     0
  9
$CMLSCALE
 40
20.0
  9
$PROXYGRAPHICS
 70
     1
  9
$MEASUREMENT
 70
     1
  9
$CELWEIGHT
370
    -1
  9
$ENDCAPS
280
     0
  9
$JOINSTYLE
280
     0
  9
$LWDISPLAY
290
     1
  9
$INSUNITS
 70
     4
  9
$HYPERLINKBASE
  1

  9
$STYLESHEET
  1

  9
$XEDIT
290
     1
  9
$CEPSNTYPE
380
     0
  9
$PSTYLEMODE
290
     1
  9
$FINGERPRINTGUID
  2
{CB75EA24-C8AE-489C-86AA-5C6FB83E8858}
  9
$VERSIONGUID
  2
{FAEB1C32-E019-11D5-929B-00C0DF256EC4}
  9
$EXTNAMES
290
     1
  9
$PSVPSCALE
 40
0.0
  9
$OLESTARTUP
290
     0
  9
$SORTENTS
280
   127
  9
$INDEXCTL
280
     0
  9
$HIDETEXT
280
     1
  9
$XCLIPFRAME
280
     2
  9
$HALOGAP
280
     0
  9
$OBSCOLOR
 70
   257
  9
$OBSLTYPE
280
     0
  9
$INTERSECTIONDISPLAY
280
     0
  9
$INTERSECTIONCOLOR
 70
   257
  9
$DIMASSOC
280
     2
  9
$PROJECTNAME
  1

  9
$CAMERADISPLAY
290
     0
  9
$LENSLENGTH
 40
50.0
  9
$CAMERAHEIGHT
 40
0.0
  9
$STEPSPERSEC
 40
2.0
  9
$STEPSIZE
 40
6.0
  9
$3DDWFPREC
 40
2.0
  9
$PSOLWIDTH
 40
5.0
  9
$PSOLHEIGHT
 40
80.0
  9
$LOFTANG1
 40
1.5707963268
  9
$LOFTANG2
 40
1.5707963268
  9
$LOFTMAG1
 40
0.0
  9
$LOFTMAG2
 40
0.0
  9
$LOFTPARAM
 70
     7
  9
$LOFTNORMALS
280
     1
  9
$LATITUDE
 40
37.795
  9
$LONGITUDE
 40
-122.394
  9
$NORTHDIRECTION
 40
0.0
  9
$TIMEZONE
 70
 -8000
  9
$LIGHTGLYPHDISPLAY
280
     1
  9
$TILEMODELIGHTSYNCH
280
     1
  9
$CMATERIAL
347
44
  9
$SOLIDHIST
280
     0
  9
$SHOWHIST
280
     1
  9
$DWFFRAME
280
     2
  9
$DGNFRAME
280
     2
  9
$REALWORLDSCALE
290
     1
  9
$INTERFERECOLOR
 62
   256
  9
$CSHADOW
280
     0
  9
$SHADOWPLANELOCATION
 40
0.0
  0
ENDSEC
  0
SECTION
  2
CLASSES
  0
CLASS
  1
ACDBDICTIONARYWDFLT
  2
AcDbDictionaryWithDefault
  3
ObjectDBX Classes
 90
        0
 91
        4
280
     0
281
     0
  0
CLASS
  1
VISUALSTYLE
  2
AcDbVisualStyle
  3
ObjectDBX Classes
 90
     4095
 91
        4
280
     0
281
     0
  0
CLASS
  1
MATERIAL
  2
AcDbMaterial
  3
ObjectDBX Classes
 90
     1153
 91
        4
280
     0
281
     0
  0
CLASS
  1
SCALE
  2
AcDbScale
  3
ObjectDBX Classes
 90
     1153
 91
        4
280
     0
281
     0
  0
CLASS
  1
TABLESTYLE
  2
AcDbTableStyle
  3
ObjectDBX Classes
 90
     4095
 91
        4
280
     0
281
     0
  0
CLASS
  1
MLEADERSTYLE
  2
AcDbMLeaderStyle
  3
ACDB_MLEADERSTYLE_CLASS
 90
     4095
 91
        4
280
     0
281
     0
  0
CLASS
  1
SUN
  2
AcDbSun
  3
SCENEOE
 90
     1153
 91
        4
280
     0
281
     0
  0
CLASS
  1
DICTIONARYVAR
  2
AcDbDictionaryVar
  3
ObjectDBX Classes
 90
        0
 91
        4
280
     0
281
     0
  0
CLASS
  1
CELLSTYLEMAP
  2
AcDbCellStyleMap
  3
ObjectDBX Classes
 90
     1152
 91
        4
280
     0
281
     0
  0
ENDSEC
  0
SECTION
  2
TABLES
  0
TABLE
  2
VPORT
  5
8
330
0
100
AcDbSymbolTable
 70
     1
  0
VPORT
  5
29
330
8
100
AcDbSymbolTableRecord
100
AcDbViewportTableRecord
  2
*Active
 70
     0
 10
0.0
 20
0.0
 11
1.0
 21
1.0
 12
420.0
 22
297.0
 13
0.0
 23
0.0
 14
10.0
 24
10.0
 15
10.0
 25
10.0
 16
0.0
 26
0.0
 36
1.0
 17
0.0
 27
0.0
 37
0.0
 40
594.0
 41
1.4141414141
 42
50.0
 43
0.0
 44
0.0
 50
0.0
 51
0.0
 71
     0
 72
  2000
 73
     1
 74
     3
 75
     0
 76
     0
 77
     0
 78
     0
281
     0
 65
     1
110
0.0
120
0.0
130
0.0
111
1.0
121
0.0
131
0.0
112
0.0
122
1.0
132
0.0
 79
     0
146
0.0
348
2F
 60
     3
 61
     5
292
     1
282
     1
141
0.0
142
0.0
 63
   250
361
6D
  0
ENDTAB
  0
TABLE
  2
LTYPE
  5
5
330
0
100
AcDbSymbolTable
 70
     8
  0
LTYPE
  5
14
330
5
100
AcDbSymbolTableRecord
100
AcDbLinetypeTableRecord
  2
ByBlock
 70
     0
  3

 72
    65
 73
     0
 40
0.0
  0
LTYPE
  5
15
330
5
100
AcDbSymbolTableRecord
100
AcDbLinetypeTableRecord
  2
ByLayer
 70
     0
  3

 72
    65
 73
     0
 40
0.0
  0
LTYPE
  5
16
330
5
100
AcDbSymbolTableRecord
100
AcDbLinetypeTableRecord
  2
Continuous
 70
     0
  3
Solid line
 72
    65
 73
     0
 40
0.0
  0
LTYPE
  5
6E
330
5
100
AcDbSymbolTableRecord
100
AcDbLinetypeTableRecord
  2
SLD-Durchgehend
 70
     0
  3
SolidWorks Line Style
 72
    65
 73
     0
 40
0.0
  0
LTYPE
  5
6F
330
5
100
AcDbSymbolTableRecord
100
AcDbLinetypeTableRecord
  2
SLD-Gestrichelt
 70
     0
  3
SolidWorks Line Style
 72
    65
 73
     2
 40
1.905
 49
1.27
 74
     0
 49
-0.635
 74
     0
  0
LTYPE
  5
70
330
5
100
AcDbSymbolTableRecord
100
AcDbLinetypeTableRecord
  2
SLD-Phantom
 70
     0
  3
SolidWorks Line Style
 72
    65
 73
     6
 40
12.7
 49
6.35
 74
     0
 49
-1.27
 74
     0
 49
1.27
 74
     0
 49
-1.27
 74
     0
 49
1.27
 74
     0
 49
-1.27
 74
     0
  0
LTYPE
  5
71
330
5
100
AcDbSymbolTableRecord
100
AcDbLinetypeTableRecord
  2
SLD-Kette
 70
     0
  3
SolidWorks Line Style
 72
    65
 73
     4
 40
10.16
 49
6.35
 74
     0
 49
-1.27
 74
     0
 49
1.27
 74
     0
 49
-1.27
 74
     0
  0
LTYPE
  5
72
330
5
100
AcDbSymbolTableRecord
100
AcDbLinetypeTableRecord
  2
SLD-Punktstrich
 70
     0
  3
SolidWorks Line Style
 72
    65
 73
     4
 40
19.05
 49
15.24
 74
     0
 49
-1.27
 74
     0
 49
1.27
 74
     0
 49
-1.27
 74
     0
  0
LTYPE
  5
73
330
5
100
AcDbSymbolTableRecord
100
AcDbLinetypeTableRecord
  2
SLD-Naht
 70
     0
  3
SolidWorks Line Style
 72
    65
 73
     2
 40
0.635
 49
0.0
 74
     0
 49
-0.635
 74
     0
  0
LTYPE
  5
74
330
5
100
AcDbSymbolTableRecord
100
AcDbLinetypeTableRecord
  2
SLD-Dicke-Dünne-Kette
 70
     0
  3
SolidWorks Line Style
 72
    65
 73
     4
 40
10.16
 49
6.35
 74
     0
 49
-1.27
 74
     0
 49
1.27
 74
     0
 49
-1.27
 74
     0
  0
ENDTAB
  0
TABLE
  2
LAYER
  5
2
330
0
100
AcDbSymbolTable
 70
     1
  0
LAYER
  5
10
330
2
100
AcDbSymbolTableRecord
100
AcDbLayerTableRecord
  2
0
 70
     0
 62
     7
  6
Continuous
370
    -3
390
F
347
46
348
0
  0
ENDTAB
  0
TABLE
  2
STYLE
  5
3
330
0
100
AcDbSymbolTable
 70
     3
  0
STYLE
  5
11
330
3
100
AcDbSymbolTableRecord
100
AcDbTextStyleTableRecord
  2
Standard
 70
     0
 40
0.0
 41
1.0
 50
0.0
 71
     0
 42
7.0
  3
txt
  4

  0
STYLE
  5
110
330
3
100
AcDbSymbolTableRecord
100
AcDbTextStyleTableRecord
  2
SLDTEXTSTYLE0
 70
     0
 40
0.0
 41
0.75
 50
0.0
 71
     0
 42
7.0
  3
TXT
  4

  0
STYLE
  5
36D
330
3
100
AcDbSymbolTableRecord
100
AcDbTextStyleTableRecord
  2
SLDTEXTSTYLE1
 70
     0
 40
0.0
 41
0.605
 50
0.0
 71
     0
 42
7.0
  3
TXT
  4

  0
ENDTAB
  0
TABLE
  2
VIEW
  5
6
330
0
100
AcDbSymbolTable
 70
     0
  0
ENDTAB
  0
TABLE
  2
UCS
  5
7
330
0
100
AcDbSymbolTable
 70
     0
  0
ENDTAB
  0
TABLE
  2
APPID
  5
9
330
0
100
AcDbSymbolTable
 70
     1
  0
APPID
  5
12
330
9
100
AcDbSymbolTableRecord
100
AcDbRegAppTableRecord
  2
ACAD
 70
     0
  0
ENDTAB
  0
TABLE
  2
DIMSTYLE
  5
A
330
0
100
AcDbSymbolTable
 70
     3
100
AcDbDimStyleTable
  0
DIMSTYLE
105
27
330
A
100
AcDbSymbolTableRecord
100
AcDbDimStyleTableRecord
  2
ISO-25
 70
     0
 41
2.5
 42
0.625
 43
3.75
 44
1.25
 73
     0
 74
     0
 77
     1
 78
     8
140
2.5
141
2.5
143
0.0393700787
147
0.625
171
     3
172
     1
178
     0
271
     2
272
     2
274
     3
278
    44
283
     0
284
     8
340
11
  0
DIMSTYLE
105
36E
102
{ACAD_REACTORS
330
36C
330
379
330
391
102
}
330
A
100
AcDbSymbolTableRecord
100
AcDbDimStyleTableRecord
  2
SLDDIMSTYLE0
 70
     0
 41
14.0
 44
0.0
 45
0.000000001
 73
     0
 74
     0
 77
     1
 78
    12
 79
     3
140
14.0
147
3.5
173
     1
178
     0
271
     0
272
     0
276
     2
284
    12
340
36D
  0
DIMSTYLE
105
385
102
{ACAD_REACTORS
330
384
102
}
330
A
100
AcDbSymbolTableRecord
100
AcDbDimStyleTableRecord
  2
SLDDIMSTYLE1
 70
     0
 41
14.0
 44
0.0
 45
0.000000001
 73
     0
 74
     0
 77
     1
 78
    12
 79
     3
140
14.0
147
3.5
172
     1
173
     1
178
     0
271
     0
272
     0
276
     2
284
    12
289
     0
340
36D
  0
ENDTAB
  0
TABLE
  2
BLOCK_RECORD
  5
1
330
0
100
AcDbSymbolTable
 70
     5
  0
BLOCK_RECORD
  5
1F
330
1
100
AcDbSymbolTableRecord
100
AcDbBlockTableRecord
  2
*Model_Space
340
22
 70
     0
280
     1
281
     0
  0
BLOCK_RECORD
  5
1B
330
1
100
AcDbSymbolTableRecord
100
AcDbBlockTableRecord
  2
*Paper_Space
340
1E
 70
     0
280
     1
281
     0
  0
BLOCK_RECORD
  5
23
330
1
100
AcDbSymbolTableRecord
100
AcDbBlockTableRecord
  2
*Paper_Space0
340
26
 70
     0
280
     1
281
     0
  0
BLOCK_RECORD
  5
36F
330
1
100
AcDbSymbolTableRecord
100
AcDbBlockTableRecord
  2
_D
340
0
 70
     0
280
     1
281
     0
  0
BLOCK_RECORD
  5
37A
330
1
100
AcDbSymbolTableRecord
100
AcDbBlockTableRecord
  2
_D_1
340
0
 70
     0
280
     1
281
     0
  0
BLOCK_RECORD
  5
386
330
1
100
AcDbSymbolTableRecord
100
AcDbBlockTableRecord
  2
_D_2
340
0
 70
     0
280
     1
281
     0
  0
BLOCK_RECORD
  5
392
330
1
100
AcDbSymbolTableRecord
100
AcDbBlockTableRecord
  2
_D_3
340
0
 70
     0
280
     1
281
     0
  0
ENDTAB
  0
ENDSEC
  0
SECTION
  2
BLOCKS
  0
BLOCK
  5
20
330
1F
100
AcDbEntity
  8
0
100
AcDbBlockBegin
  2
*Model_Space
 70
     0
 10
0.0
 20
0.0
 30
0.0
  3
*Model_Space
  1

  0
ENDBLK
  5
21
330
1F
100
AcDbEntity
  8
0
100
AcDbBlockEnd
  0
BLOCK
  5
1C
330
1B
100
AcDbEntity
 67
     1
  8
0
100
AcDbBlockBegin
  2
*Paper_Space
 70
     0
 10
0.0
 20
0.0
 30
0.0
  3
*Paper_Space
  1

  0
ENDBLK
  5
1D
330
1B
100
AcDbEntity
 67
     1
  8
0
100
AcDbBlockEnd
  0
BLOCK
  5
24
330
23
100
AcDbEntity
  8
0
100
AcDbBlockBegin
  2
*Paper_Space0
 70
     0
 10
0.0
 20
0.0
 30
0.0
  3
*Paper_Space0
  1

  0
ENDBLK
  5
25
330
23
100
AcDbEntity
  8
0
100
AcDbBlockEnd
  0
BLOCK
  5
370
330
36F
100
AcDbEntity
  8
0
100
AcDbBlockBegin
  2
_D
 70
     0
 10
0.0
 20
0.0
 30
0.0
  3
_D
  1

  0
SOLID
  5
372
330
36F
100
AcDbEntity
  8
0
  6
SLD-Durchgehend
 62
     7
370
    18
100
AcDbTrace
 10
360.9860406447
 20
452.5081244955
 30
0.0
 11
374.9860406447
 21
450.3542783417
 31
0.0
 12
374.9860406447
 22
454.6619706494
 32
0.0
 13
374.9860406447
 23
454.6619706494
 33
0.0
  0
SOLID
  5
373
330
36F
100
AcDbEntity
  8
0
  6
SLD-Durchgehend
 62
     7
370
    18
100
AcDbTrace
 10
481.9860406447
 20
452.5081244955
 30
0.0
 11
467.9860406447
 21
454.6619706494
 31
0.0
 12
467.9860406447
 22
450.3542783417
 32
0.0
 13
467.9860406447
 23
450.3542783417
 33
0.0
  0
LINE
  5
374
330
36F
100
AcDbEntity
  8
0
  6
SLD-Durchgehend
 62
     7
370
    18
100
AcDbLine
 10
360.9860406447
 20
446.1521614477
 30
0.0
 11
360.9860406447
 21
454.5081244955
 31
0.0
  0
LINE
  5
375
330
36F
100
AcDbEntity
  8
0
  6
SLD-Durchgehend
 62
     7
370
    18
100
AcDbLine
 10
481.9860406447
 20
446.1521614477
 30
0.0
 11
481.9860406447
 21
454.5081244955
 31
0.0
  0
LINE
  5
376
330
36F
100
AcDbEntity
  8
0
  6
SLD-Durchgehend
 62
     7
370
    18
100
AcDbLine
 10
360.9860406447
 20
452.5081244955
 30
0.0
 11
481.9860406447
 21
452.5081244955
 31
0.0
  0
MTEXT
  5
377
330
36F
100
AcDbEntity
  8
0
  6
SLD-Durchgehend
 62
     7
370
    18
100
AcDbMText
 10
394.647176086
 20
470.5550728524
 30
0.0
 40
14.0
 41
0.0
 46
0.0
 71
     1
 72
     1
  1
%%c
  7
SLDTEXTSTYLE1
 73
     1
 44
1.0
  0
MTEXT
  5
378
330
36F
100
AcDbEntity
  8
0
  6
SLD-Durchgehend
 62
     7
370
    18
100
AcDbMText
 10
415.0589822671
 20
470.6522954786
 30
0.0
 40
14.0
 41
0.0
 46
0.0
 71
     1
 72
     1
  1
120
  7
SLDTEXTSTYLE1
 73
     1
 44
1.0
  0
ENDBLK
  5
371
330
36F
100
AcDbEntity
  8
0
100
AcDbBlockEnd
  0
BLOCK
  5
37B
330
37A
100
AcDbEntity
  8
0
100
AcDbBlockBegin
  2
_D_1
 70
     0
 10
0.0
 20
0.0
 30
0.0
  3
_D_1
  1

  0
SOLID
  5
37D
330
37A
100
AcDbEntity
  8
0
  6
SLD-Durchgehend
 62
     7
370
    18
100
AcDbTrace
 10
363.9860406447
 20
387.1521614477
 30
0.0
 11
377.9860406447
 21
384.9983152939
 31
0.0
 12
377.9860406447
 22
389.3060076016
 32
0.0
 13
377.9860406447
 23
389.3060076016
 33
0.0
  0
SOLID
  5
37E
330
37A
100
AcDbEntity
  8
0
  6
SLD-Durchgehend
 62
     7
370
    18
100
AcDbTrace
 10
478.9860406447
 20
387.1521614477
 30
0.0
 11
464.9860406447
 21
389.3060076016
 31
0.0
 12
464.9860406447
 22
384.9983152939
 32
0.0
 13
464.9860406447
 23
384.9983152939
 33
0.0
  0
LINE
  5
37F
330
37A
100
AcDbEntity
  8
0
  6
SLD-Durchgehend
 62
     7
370
    18
100
AcDbLine
 10
363.9860406447
 20
405.4021614477
 30
0.0
 11
363.9860406447
 21
385.1521614477
 31
0.0
  0
LINE
  5
380
330
37A
100
AcDbEntity
  8
0
  6
SLD-Durchgehend
 62
     7
370
    18
100
AcDbLine
 10
478.9860406447
 20
405.4021614477
 30
0.0
 11
478.9860406447
 21
385.1521614477
 31
0.0
  0
LINE
  5
381
330
37A
100
AcDbEntity
  8
0
  6
SLD-Durchgehend
 62
     7
370
    18
100
AcDbLine
 10
363.9860406447
 20
387.1521614477
 30
0.0
 11
478.9860406447
 21
387.1521614477
 31
0.0
  0
MTEXT
  5
382
330
37A
100
AcDbEntity
  8
0
  6
SLD-Durchgehend
 62
     7
370
    18
100
AcDbMText
 10
394.647176086
 20
405.1991098045
 30
0.0
 40
14.0
 41
0.0
 46
0.0
 71
     1
 72
     1
  1
%%c
  7
SLDTEXTSTYLE1
 73
     1
 44
1.0
  0
MTEXT
  5
383
330
37A
100
AcDbEntity
  8
0
  6
SLD-Durchgehend
 62
     7
370
    18
100
AcDbMText
 10
415.0589822671
 20
405.2963324307
 30
0.0
 40
14.0
 41
0.0
 46
0.0
 71
     1
 72
     1
  1
115
  7
SLDTEXTSTYLE1
 73
     1
 44
1.0
  0
ENDBLK
  5
37C
330
37A
100
AcDbEntity
  8
0
100
AcDbBlockEnd
  0
BLOCK
  5
387
330
386
100
AcDbEntity
  8
0
100
AcDbBlockBegin
  2
_D_2
 70
     0
 10
0.0
 20
0.0
 30
0.0
  3
_D_2
  1

  0
SOLID
  5
389
330
386
100
AcDbEntity
  8
0
  6
SLD-Durchgehend
 62
     7
370
    18
100
AcDbTrace
 10
498.5913502502
 20
446.1521614477
 30
0.0
 11
500.745196404
 21
460.1521614477
 31
0.0
 12
496.4375040963
 22
460.1521614477
 32
0.0
 13
496.4375040963
 23
460.1521614477
 33
0.0
  0
SOLID
  5
38A
330
386
100
AcDbEntity
  8
0
  6
SLD-Durchgehend
 62
     7
370
    18
100
AcDbTrace
 10
498.5913502502
 20
438.1521614477
 30
0.0
 11
496.4375040963
 21
424.1521614477
 31
0.0
 12
500.745196404
 22
424.1521614477
 32
0.0
 13
500.745196404
 23
424.1521614477
 33
0.0
  0
LINE
  5
38B
330
386
100
AcDbEntity
  8
0
  6
SLD-Durchgehend
 62
     7
370
    18
100
AcDbLine
 10
482.4860406447
 20
446.1521614477
 30
0.0
 11
500.5913502502
 21
446.1521614477
 31
0.0
  0
LINE
  5
38C
330
386
100
AcDbEntity
  8
0
  6
SLD-Durchgehend
 62
     7
370
    18
100
AcDbLine
 10
482.9860406447
 20
438.1521614477
 30
0.0
 11
500.5913502502
 21
438.1521614477
 31
0.0
  0
LINE
  5
38D
330
386
100
AcDbEntity
  8
0
  6
SLD-Durchgehend
 62
     7
370
    18
100
AcDbLine
 10
498.5913502502
 20
446.1521614477
 30
0.0
 11
498.5913502502
 21
473.0752383708
 31
0.0
  0
LINE
  5
38E
330
386
100
AcDbEntity
  8
0
  6
SLD-Durchgehend
 62
     7
370
    18
100
AcDbLine
 10
498.5913502502
 20
446.1521614477
 30
0.0
 11
498.5913502502
 21
438.1521614477
 31
0.0
  0
LINE
  5
38F
330
386
100
AcDbEntity
  8
0
  6
SLD-Durchgehend
 62
     7
370
    18
100
AcDbLine
 10
498.5913502502
 20
438.1521614477
 30
0.0
 11
498.5913502502
 21
412.2589508813
 31
0.0
  0
MTEXT
  5
390
330
386
100
AcDbEntity
  8
0
  6
SLD-Durchgehend
 62
     7
370
    18
100
AcDbMText
 10
480.5444018934
 20
412.2589508813
 30
0.0
 40
14.0
 41
0.0
 46
0.0
 71
     1
 72
     1
  1
8
  7
SLDTEXTSTYLE1
 11
-7.044195017643634E-15
 21
1.0
 31
0.0
 73
     1
 44
1.0
  0
ENDBLK
  5
388
330
386
100
AcDbEntity
  8
0
100
AcDbBlockEnd
  0
BLOCK
  5
393
330
392
100
AcDbEntity
  8
0
100
AcDbBlockBegin
  2
_D_3
 70
     0
 10
0.0
 20
0.0
 30
0.0
  3
_D_3
  1

  0
SOLID
  5
395
330
392
100
AcDbEntity
  8
0
  6
SLD-Durchgehend
 62
     7
370
    18
100
AcDbTrace
 10
521.9999153926
 20
446.1521614477
 30
0.0
 11
519.8460692388
 21
432.1521614477
 31
0.0
 12
524.1537615465
 22
432.1521614477
 32
0.0
 13
524.1537615465
 23
432.1521614477
 33
0.0
  0
SOLID
  5
396
330
392
100
AcDbEntity
  8
0
  6
SLD-Durchgehend
 62
     7
370
    18
100
AcDbTrace
 10
521.9999153926
 20
407.1521614477
 30
0.0
 11
524.1537615465
 21
421.1521614477
 31
0.0
 12
519.8460692388
 22
421.1521614477
 32
0.0
 13
519.8460692388
 23
421.1521614477
 33
0.0
  0
LINE
  5
397
330
392
100
AcDbEntity
  8
0
  6
SLD-Durchgehend
 62
     7
370
    18
100
AcDbLine
 10
482.4860406447
 20
446.1521614477
 30
0.0
 11
523.9999153926
 21
446.1521614477
 31
0.0
  0
LINE
  5
398
330
392
100
AcDbEntity
  8
0
  6
SLD-Durchgehend
 62
     7
370
    18
100
AcDbLine
 10
479.0860406447
 20
407.1521614477
 30
0.0
 11
523.9999153926
 21
407.1521614477
 31
0.0
  0
LINE
  5
399
330
392
100
AcDbEntity
  8
0
  6
SLD-Durchgehend
 62
     7
370
    18
100
AcDbLine
 10
521.9999153926
 20
446.1521614477
 30
0.0
 11
521.9999153926
 21
407.1521614477
 31
0.0
  0
MTEXT
  5
39A
330
392
100
AcDbEntity
  8
0
  6
SLD-Durchgehend
 62
     7
370
    18
100
AcDbMText
 10
503.9529670358
 20
416.7404345478
 30
0.0
 40
14.0
 41
0.0
 46
0.0
 71
     1
 72
     1
  1
39
  7
SLDTEXTSTYLE1
 11
-7.044195017643634E-15
 21
1.0
 31
0.0
 73
     1
 44
1.0
  0
ENDBLK
  5
394
330
392
100
AcDbEntity
  8
0
100
AcDbBlockEnd
  0
ENDSEC
  0
SECTION
  2
ENTITIES
  0
ARC
  5
75
330
1F
100
AcDbEntity
  8
0
  6
SLD-Durchgehend
 62
     7
370
    25
100
AcDbCircle
 10
421.4860406447
 20
312.9218640505
 30
0.0
 40
50.50000000000005
100
AcDbArc
 50
99.6960283981
 51
170.3039716019
  0
ARC
  5
76
330
1F
100
AcDbEntity
  8
0
  6
SLD-Durchgehend
 62
     7
370
    25
100
AcDbCircle
 10
413.4860406447
 20
359.7433334849
 30
0.0
 40
3.000000000000036
100
AcDbArc
 50
279.6960283981
 51
99.6960283981
  0
ARC
  5
77
330
1F
100
AcDbEntity
  8
0
  6
SLD-Durchgehend
 62
     7
370
    25
100
AcDbCircle
 10
413.4860406447
 20
346.4815124396
 30
0.0
 40
3.000000000000029
100
AcDbArc
 50
283.4080195317
 51
103.4080195317
  0
ARC
  5
78
330
1F
100
AcDbEntity
  8
0
  6
SLD-Durchgehend
 62
     7
370
    25
100
AcDbCircle
 10
413.4860406447
 20
332.8780660939
 30
0.0
 40
3.000000000000042
100
AcDbArc
 50
291.8447574858
 51
111.8447574858
  0
ARC
  5
79
330
1F
100
AcDbEntity
  8
0
  6
SLD-Durchgehend
 62
     7
370
    25
100
AcDbCircle
 10
421.4860406447
 20
312.9218640505
 30
0.0
 40
24.50000000000005
100
AcDbArc
 50
111.8447574858
 51
158.1552425142
  0
ARC
  5
7A
330
1F
100
AcDbEntity
  8
0
  6
SLD-Durchgehend
 62
     7
370
    25
100
AcDbCircle
 10
421.4860406447
 20
312.9218640505
 30
0.0
 40
18.49999999999998
100
AcDbArc
 50
291.8447574858
 51
338.1552425142
  0
ARC
  5
7B
330
1F
100
AcDbEntity
  8
0
  6
SLD-Durchgehend
 62
     7
370
    25
100
AcDbCircle
 10
413.4860406447
 20
292.965662007
 30
0.0
 40
3.00000000000001
100
AcDbArc
 50
248.1552425142
 51
68.1552425142
  0
ARC
  5
7C
330
1F
100
AcDbEntity
  8
0
  6
SLD-Durchgehend
 62
     7
370
    25
100
AcDbCircle
 10
413.4860406447
 20
266.100394616
 30
0.0
 40
2.99999999999998
100
AcDbArc
 50
260.3039716019
 51
80.3039716019
  0
ARC
  5
7D
330
1F
100
AcDbEntity
  8
0
  6
SLD-Durchgehend
 62
     7
370
    25
100
AcDbCircle
 10
455.0456890338
 20
304.9218640505
 30
0.0
 40
3.000000000000029
100
AcDbArc
 50
346.5919804683
 51
166.5919804683
  0
ARC
  5
7E
330
1F
100
AcDbEntity
  8
0
  6
SLD-Durchgehend
 62
     7
370
    25
100
AcDbCircle
 10
421.4860406447
 20
312.9218640505
 30
0.0
 40
50.50000000000001
100
AcDbArc
 50
189.6960283981
 51
260.3039716019
  0
ARC
  5
7F
330
1F
100
AcDbEntity
  8
0
  6
SLD-Durchgehend
 62
     7
370
    25
100
AcDbCircle
 10
374.6645712103
 20
304.9218640505
 30
0.0
 40
3.000000000000026
100
AcDbArc
 50
9.6960283981
 51
189.6960283981
  0
ARC
  5
80
330
1F
100
AcDbEntity
  8
0
  6
SLD-Durchgehend
 62
     7
370
    25
100
AcDbCircle
 10
421.4860406447
 20
312.9218640505
 30
0.0
 40
44.50000000000001
100
AcDbArc
 50
189.6960283981
 51
260.3039716019
  0
ARC
  5
81
330
1F
100
AcDbEntity
  8
0
  6
SLD-Durchgehend
 62
     7
370
    25
100
AcDbCircle
 10
421.4860406447
 20
312.9218640505
 30
0.0
 40
37.49999999999998
100
AcDbArc
 50
193.4080195317
 51
256.5919804683
  0
ARC
  5
82
330
1F
100
AcDbEntity
  8
0
  6
SLD-Durchgehend
 62
     7
370
    25
100
AcDbCircle
 10
421.4860406447
 20
312.9218640505
 30
0.0
 40
31.50000000000003
100
AcDbArc
 50
103.4080195317
 51
166.5919804683
  0
ARC
  5
83
330
1F
100
AcDbEntity
  8
0
  6
SLD-Durchgehend
 62
     7
370
    25
100
AcDbCircle
 10
387.9263922556
 20
304.9218640505
 30
0.0
 40
3.000000000000042
100
AcDbArc
 50
13.4080195317
 51
193.4080195317
  0
ARC
  5
84
330
1F
100
AcDbEntity
  8
0
  6
SLD-Durchgehend
 62
     7
370
    25
100
AcDbCircle
 10
429.4860406447
 20
292.965662007
 30
0.0
 40
3.00000000000001
100
AcDbArc
 50
111.8447574858
 51
291.8447574858
  0
ARC
  5
85
330
1F
100
AcDbEntity
  8
0
  6
SLD-Durchgehend
 62
     7
370
    25
100
AcDbCircle
 10
421.4860406447
 20
312.9218640505
 30
0.0
 40
24.50000000000001
100
AcDbArc
 50
201.8447574858
 51
248.1552425142
  0
ARC
  5
86
330
1F
100
AcDbEntity
  8
0
  6
SLD-Durchgehend
 62
     7
370
    25
100
AcDbCircle
 10
421.4860406447
 20
312.9218640505
 30
0.0
 40
18.50000000000001
100
AcDbArc
 50
201.8447574858
 51
248.1552425142
  0
ARC
  5
87
330
1F
100
AcDbEntity
  8
0
  6
SLD-Durchgehend
 62
     7
370
    25
100
AcDbCircle
 10
421.4860406447
 20
312.9218640505
 30
0.0
 40
37.50000000000006
100
AcDbArc
 50
103.4080195317
 51
166.5919804683
  0
ARC
  5
88
330
1F
100
AcDbEntity
  8
0
  6
SLD-Durchgehend
 62
     7
370
    25
100
AcDbCircle
 10
468.3075100791
 20
304.9218640505
 30
0.0
 40
3.000000000000026
100
AcDbArc
 50
350.3039716019
 51
170.3039716018
  0
ARC
  5
89
330
1F
100
AcDbEntity
  8
0
  6
SLD-Durchgehend
 62
     7
370
    25
100
AcDbCircle
 10
421.4860406447
 20
312.9218640505
 30
0.0
 40
24.5
100
AcDbArc
 50
21.8447574858
 51
68.1552425142
  0
ARC
  5
8A
330
1F
100
AcDbEntity
  8
0
  6
SLD-Durchgehend
 62
     7
370
    25
100
AcDbCircle
 10
374.6645712103
 20
320.9218640505
 30
0.0
 40
3.000000000000036
100
AcDbArc
 50
170.3039716019
 51
350.3039716019
  0
ARC
  5
8B
330
1F
100
AcDbEntity
  8
0
  6
SLD-Durchgehend
 62
     7
370
    25
100
AcDbCircle
 10
387.9263922556
 20
320.9218640505
 30
0.0
 40
3.0
100
AcDbArc
 50
166.5919804683
 51
346.5919804683
  0
ARC
  5
8C
330
1F
100
AcDbEntity
  8
0
  6
SLD-Durchgehend
 62
     7
370
    25
100
AcDbCircle
 10
421.4860406447
 20
312.9218640505
 30
0.0
 40
44.49999999999999
100
AcDbArc
 50
99.6960283981
 51
170.3039716019
  0
ARC
  5
8D
330
1F
100
AcDbEntity
  8
0
  6
SLD-Durchgehend
 62
     7
370
    25
100
AcDbCircle
 10
421.4860406447
 20
312.9218640505
 30
0.0
 40
44.50000000000001
100
AcDbArc
 50
9.6960283981
 51
80.3039716019
  0
ARC
  5
8E
330
1F
100
AcDbEntity
  8
0
  6
SLD-Durchgehend
 62
     7
370
    25
100
AcDbCircle
 10
421.4860406447
 20
312.9218640505
 30
0.0
 40
44.49999999999997
100
AcDbArc
 50
279.6960283981
 51
350.3039716019
  0
ARC
  5
8F
330
1F
100
AcDbEntity
  8
0
  6
SLD-Durchgehend
 62
     7
370
    25
100
AcDbCircle
 10
421.4860406447
 20
312.9218640505
 30
0.0
 40
31.50000000000002
100
AcDbArc
 50
283.4080195317
 51
346.5919804683
  0
ARC
  5
90
330
1F
100
AcDbEntity
  8
0
  6
SLD-Durchgehend
 62
     7
370
    25
100
AcDbCircle
 10
421.4860406447
 20
312.9218640505
 30
0.0
 40
24.49999999999999
100
AcDbArc
 50
291.8447574858
 51
338.1552425142
  0
ARC
  5
91
330
1F
100
AcDbEntity
  8
0
  6
SLD-Durchgehend
 62
     7
370
    25
100
AcDbCircle
 10
429.4860406447
 20
359.7433334849
 30
0.0
 40
3.000000000000036
100
AcDbArc
 50
80.3039716019
 51
260.3039716019
  0
ARC
  5
92
330
1F
100
AcDbEntity
  8
0
  6
SLD-Durchgehend
 62
     7
370
    25
100
AcDbCircle
 10
441.4422426882
 20
320.9218640505
 30
0.0
 40
3.00000000000001
100
AcDbArc
 50
201.8447574858
 51
21.8447574858
  0
ARC
  5
93
330
1F
100
AcDbEntity
  8
0
  6
SLD-Durchgehend
 62
     7
370
    25
100
AcDbCircle
 10
401.5298386012
 20
320.9218640505
 30
0.0
 40
3.000000000000032
100
AcDbArc
 50
158.1552425142
 51
338.1552425142
  0
ARC
  5
94
330
1F
100
AcDbEntity
  8
0
  6
SLD-Durchgehend
 62
     7
370
    25
100
AcDbCircle
 10
421.4860406447
 20
312.9218640505
 30
0.0
 40
18.50000000000003
100
AcDbArc
 50
111.8447574858
 51
158.1552425142
  0
ARC
  5
95
330
1F
100
AcDbEntity
  8
0
  6
SLD-Durchgehend
 62
     7
370
    25
100
AcDbCircle
 10
468.3075100791
 20
320.9218640505
 30
0.0
 40
3.000000000000026
100
AcDbArc
 50
189.6960283982
 51
9.6960283981
  0
ARC
  5
96
330
1F
100
AcDbEntity
  8
0
  6
SLD-Durchgehend
 62
     7
370
    25
100
AcDbCircle
 10
413.4860406447
 20
279.3622156614
 30
0.0
 40
3.000000000000042
100
AcDbArc
 50
256.5919804683
 51
76.5919804683
  0
LINE
  5
97
330
1F
100
AcDbEntity
  8
0
  6
SLD-Durchgehend
 62
     7
370
    25
100
AcDbLine
 10
412.4765394275
 20
312.6693293295
 30
0.0
 11
413.9384494832
 21
312.6693293295
 31
0.0
  0
SPLINE
  5
98
330
1F
100
AcDbEntity
  8
0
  6
SLD-Durchgehend
 62
     7
370
    25
100
AcDbSpline
210
0.0
220
0.0
230
1.0
 70
     8
 71
     3
 72
    11
 73
     7
 74
     0
 42
0.000000001
 43
0.00000001
 40
0.0
 40
0.0
 40
0.0
 40
0.0
 40
0.2923590658637916
 40
0.5666087142990056
 40
0.7800972401032076
 40
1.0
 40
1.0
 40
1.0
 40
1.0
 10
413.9384494831775
 20
313.8502185036436
 30
0.0
 10
413.9293876856432
 20
313.9265683685894
 30
0.0
 10
413.9118253999143
 20
314.0745388058528
 30
0.0
 10
413.7820357588428
 20
314.2400697103423
 30
0.0
 10
413.6223815496972
 20
314.338489388169
 30
0.0
 10
413.5095793479857
 20
314.3500765292387
 30
0.0
 10
413.4523435052329
 20
314.3559558451932
 30
0.0
  0
LINE
  5
99
330
1F
100
AcDbEntity
  8
0
  6
SLD-Durchgehend
 62
     7
370
    25
100
AcDbLine
 10
413.9384494832
 20
312.6693293295
 30
0.0
 11
413.9384494832
 21
313.8502185036
 31
0.0
  0
LINE
  5
9A
330
1F
100
AcDbEntity
  8
0
  6
SLD-Durchgehend
 62
     7
370
    25
100
AcDbLine
 10
413.4523435052
 20
314.3559558452
 30
0.0
 11
412.9627289432
 21
314.3559558452
 31
0.0
  0
SPLINE
  5
9B
330
1F
100
AcDbEntity
  8
0
  6
SLD-Durchgehend
 62
     7
370
    25
100
AcDbSpline
210
0.0
220
0.0
230
1.0
 70
     8
 71
     3
 72
    11
 73
     7
 74
     0
 42
0.000000001
 43
0.00000001
 40
0.0
 40
0.0
 40
0.0
 40
0.0
 40
0.2919495674567533
 40
0.5660717013347671
 40
0.7792501675821243
 40
1.0
 40
1.0
 40
1.0
 40
1.0
 10
412.9627289431546
 20
314.3559558451932
 30
0.0
 10
412.8899210607516
 20
314.3475272533644
 30
0.0
 10
412.7487511928823
 20
314.3311847481917
 30
0.0
 10
412.589192392426
 20
314.2097127341358
 30
0.0
 10
412.4934183668667
 20
314.0578658652208
 30
0.0
 10
412.4822308090452
 20
313.9499129712684
 30
0.0
 10
412.4765394274924
 20
313.8949947202063
 30
0.0
  0
LINE
  5
9C
330
1F
100
AcDbEntity
  8
0
  6
SLD-Durchgehend
 62
     7
370
    25
100
AcDbLine
 10
412.4765394275
 20
313.8949947202
 30
0.0
 11
412.4765394275
 21
312.6693293295
 31
0.0
  0
ARC
  5
9D
330
1F
100
AcDbEntity
  8
0
  6
SLD-Durchgehend
 62
     7
370
    25
100
AcDbCircle
 10
429.4860406447
 20
266.100394616
 30
0.0
 40
3.000000000000026
100
AcDbArc
 50
99.6960283981
 51
279.6960283981
  0
LINE
  5
9E
330
1F
100
AcDbEntity
  8
0
  6
SLD-Durchgehend
 62
     7
370
    25
100
AcDbLine
 10
434.557395984
 20
314.3549533926
 30
0.0
 11
433.6653802369
 21
314.3549533926
 31
0.0
  0
LINE
  5
9F
330
1F
100
AcDbEntity
  8
0
  6
SLD-Durchgehend
 62
     7
370
    25
100
AcDbLine
 10
433.6653802369
 20
314.3549533926
 30
0.0
 11
433.6653802369
 21
313.0156767061
 31
0.0
  0
LINE
  5
A0
330
1F
100
AcDbEntity
  8
0
  6
SLD-Durchgehend
 62
     7
370
    25
100
AcDbLine
 10
433.6653802369
 20
313.0156767061
 30
0.0
 11
434.5594008892
 21
313.0156767061
 31
0.0
  0
SPLINE
  5
A1
330
1F
100
AcDbEntity
  8
0
  6
SLD-Durchgehend
 62
     7
370
    25
100
AcDbSpline
210
0.0
220
0.0
230
1.0
 70
     8
 71
     3
 72
    11
 73
     7
 74
     0
 42
0.000000001
 43
0.00000001
 40
0.0
 40
0.0
 40
0.0
 40
0.0
 40
0.2882526378998076
 40
0.5667226730079999
 40
0.7824309356463799
 40
1.0
 40
1.0
 40
1.0
 40
1.0
 10
434.5594008892149
 20
313.0156767061411
 30
0.0
 10
434.6316880333911
 20
313.0283554257895
 30
0.0
 10
434.7738090695425
 20
313.0532825797676
 30
0.0
 10
434.9306135063716
 20
313.1829314836399
 30
0.0
 10
435.0278665242673
 20
313.3376569842846
 30
0.0
 10
435.0398880023215
 20
313.4469733152123
 30
0.0
 10
435.045924555747
 20
313.5018662218032
 30
0.0
  0
LINE
  5
A2
330
1F
100
AcDbEntity
  8
0
  6
SLD-Durchgehend
 62
     7
370
    25
100
AcDbLine
 10
435.0459245557
 20
313.5018662218
 30
0.0
 11
435.0459245557
 21
313.8689309524
 31
0.0
  0
SPLINE
  5
A3
330
1F
100
AcDbEntity
  8
0
  6
SLD-Durchgehend
 62
     7
370
    25
100
AcDbSpline
210
0.0
220
0.0
230
1.0
 70
     8
 71
     3
 72
    11
 73
     7
 74
     0
 42
0.000000001
 43
0.00000001
 40
0.0
 40
0.0
 40
0.0
 40
0.0
 40
0.2709510930982688
 40
0.5362243368417775
 40
0.7543071012679062
 40
0.9999999999999999
 40
0.9999999999999999
 40
0.9999999999999999
 40
0.9999999999999999
 10
435.045924555747
 20
313.8689309523564
 30
0.0
 10
435.0382929417651
 20
313.9387890351668
 30
0.0
 10
435.0231896362212
 20
314.0770413068211
 30
0.0
 10
434.9042311575089
 20
314.2395890869278
 30
0.0
 10
434.7403748838194
 20
314.3389913768492
 30
0.0
 10
434.620762592073
 20
314.3494256579861
 30
0.0
 10
434.5573959839957
 20
314.3549533925836
 30
0.0
  0
ARC
  5
A4
330
1F
100
AcDbEntity
  8
0
  6
SLD-Durchgehend
 62
     7
370
    25
100
AcDbCircle
 10
441.4422426882
 20
304.9218640505
 30
0.0
 40
3.00000000000001
100
AcDbArc
 50
338.1552425142
 51
158.1552425142
  0
SPLINE
  5
A5
330
1F
100
AcDbEntity
  8
0
  6
SLD-Durchgehend
 62
     7
370
    25
100
AcDbSpline
210
0.0
220
0.0
230
1.0
 70
     8
 71
     3
 72
     9
 73
     5
 74
     0
 42
0.000000001
 43
0.00000001
 40
0.0
 40
0.0
 40
0.0
 40
0.0
 40
0.5967093862650622
 40
0.9999999999999999
 40
0.9999999999999999
 40
0.9999999999999999
 40
0.9999999999999999
 10
408.9888400383473
 20
310.4241694534259
 30
0.0
 10
409.210474884638
 20
310.4354057933739
 30
0.0
 10
409.5819033410895
 20
310.4542362998258
 30
0.0
 10
409.8890568070045
 20
310.6579523357381
 30
0.0
 10
410.0129289167841
 20
310.7401091008889
 30
0.0
  0
LINE
  5
A6
330
1F
100
AcDbEntity
  8
0
  6
SLD-Durchgehend
 62
     7
370
    25
100
AcDbLine
 10
410.4514183958
 20
311.8844087548
 30
0.0
 11
410.4514183958
 21
313.9237320971
 31
0.0
  0
LINE
  5
A7
330
1F
100
AcDbEntity
  8
0
  6
SLD-Durchgehend
 62
     7
370
    25
100
AcDbLine
 10
409.0187465412
 20
315.4237353519
 30
0.0
 11
406.9360675395
 21
315.4237353519
 31
0.0
  0
LINE
  5
A8
330
1F
100
AcDbEntity
  8
0
  6
SLD-Durchgehend
 62
     7
370
    25
100
AcDbLine
 10
406.9360675395
 20
315.4237353519
 30
0.0
 11
406.9360675395
 21
310.4256737158
 31
0.0
  0
LINE
  5
A9
330
1F
100
AcDbEntity
  8
0
  6
SLD-Durchgehend
 62
     7
370
    25
100
AcDbLine
 10
406.9360675395
 20
310.4256737158
 30
0.0
 11
408.9032974259
 21
310.4256737158
 31
0.0
  0
SPLINE
  5
AA
330
1F
100
AcDbEntity
  8
0
  6
SLD-Durchgehend
 62
     7
370
    25
100
AcDbSpline
210
0.0
220
0.0
230
1.0
 70
     8
 71
     3
 72
     9
 73
     5
 74
     0
 42
0.000000001
 43
0.00000001
 40
0.0
 40
0.0
 40
0.0
 40
0.0
 40
0.5611492448852552
 40
1.0
 40
1.0
 40
1.0
 40
1.0
 10
408.9032974259191
 20
310.425673715833
 30
0.0
 10
408.9192943682455
 20
310.4251611318716
 30
0.0
 10
408.9478018330104
 20
310.4242476779801
 30
0.0
 10
408.9763233493603
 20
310.4241933119843
 30
0.0
 10
408.9888400383473
 20
310.4241694534259
 30
0.0
  0
LINE
  5
AB
330
1F
100
AcDbEntity
  8
0
  6
SLD-Durchgehend
 62
     7
370
    25
100
AcDbLine
 10
413.9381153419
 20
310.4181549192
 30
0.0
 11
415.0115750018
 21
310.4181549192
 31
0.0
  0
LINE
  5
AC
330
1F
100
AcDbEntity
  8
0
  6
SLD-Durchgehend
 62
     7
370
    25
100
AcDbLine
 10
415.0115750018
 20
310.4181549192
 30
0.0
 11
415.0115750018
 21
313.9247341476
 31
0.0
  0
SPLINE
  5
AD
330
1F
100
AcDbEntity
  8
0
  6
SLD-Durchgehend
 62
     7
370
    25
100
AcDbSpline
210
0.0
220
0.0
230
1.0
 70
     8
 71
     3
 72
    12
 73
     8
 74
     0
 42
0.000000001
 43
0.00000001
 40
0.0
 40
0.0
 40
0.0
 40
0.0
 40
0.2114134532755187
 40
0.3895527681210747
 40
0.5523169649032843
 40
0.7549862544514422
 40
1.0
 40
1.0
 40
1.0
 40
1.0
 10
415.0115750017679
 20
313.9247341476249
 30
0.0
 10
415.0033488094555
 20
314.096404592187
 30
0.0
 10
414.9881911364847
 20
314.4127264527291
 30
0.0
 10
414.8308187362529
 20
314.8411371344035
 30
0.0
 10
414.5361028340388
 20
315.1815295315267
 30
0.0
 10
414.0720911285295
 20
315.395498157231
 30
0.0
 10
413.7078354158714
 20
315.4137473152771
 30
0.0
 10
413.5084808513711
 20
315.4237349498657
 30
0.0
  0
SPLINE
  5
AE
330
1F
100
AcDbEntity
  8
0
  6
SLD-Durchgehend
 62
     7
370
    25
100
AcDbSpline
210
0.0
220
0.0
230
1.0
 70
     8
 71
     3
 72
    12
 73
     8
 74
     0
 42
0.000000001
 43
0.00000001
 40
0.0
 40
0.0
 40
0.0
 40
0.0
 40
0.2125693766514625
 40
0.3914658534855897
 40
0.5543778792716583
 40
0.7563584015614678
 40
1.0
 40
1.0
 40
1.0
 40
1.0
 10
412.8991567401616
 20
315.4237349498657
 30
0.0
 10
412.7284412549213
 20
315.4161377175134
 30
0.0
 10
412.4140531516794
 20
315.4021467226968
 30
0.0
 10
411.9878910178404
 20
315.2489391073371
 30
0.0
 10
411.6483812888966
 20
314.9606261705208
 30
0.0
 10
411.433462513561
 20
314.504759282992
 30
0.0
 10
411.4140355184056
 20
314.1461806394913
 30
0.0
 10
411.4034139089021
 20
313.950129613735
 30
0.0
  0
LINE
  5
AF
330
1F
100
AcDbEntity
  8
0
  6
SLD-Durchgehend
 62
     7
370
    25
100
AcDbLine
 10
416.0370840214
 20
315.4200592903
 30
0.0
 11
416.0370840214
 21
310.4216635033
 31
0.0
  0
LINE
  5
B0
330
1F
100
AcDbEntity
  8
0
  6
SLD-Durchgehend
 62
     7
370
    25
100
AcDbLine
 10
416.0370840214
 20
310.4216635033
 30
0.0
 11
418.5939229399
 21
310.4216635033
 31
0.0
  0
SPLINE
  5
B1
330
1F
100
AcDbEntity
  8
0
  6
SLD-Durchgehend
 62
     7
370
    25
100
AcDbSpline
210
0.0
220
0.0
230
1.0
 70
     8
 71
     3
 72
    10
 73
     6
 74
     0
 42
0.000000001
 43
0.00000001
 40
0.0
 40
0.0
 40
0.0
 40
0.0
 40
0.6958504163507674
 40
0.8599558154716005
 40
1.0
 40
1.0
 40
1.0
 40
1.0
 10
423.7426866183418
 20
314.0478689317624
 30
0.0
 10
423.7417927728712
 20
314.0908376807782
 30
0.0
 10
423.7406881279755
 20
314.1439399348424
 30
0.0
 10
423.7551109752608
 20
314.2050059615089
 30
0.0
 10
423.7664521965617
 20
314.2201622395405
 30
0.0
 10
423.7716742063031
 20
314.227140873448
 30
0.0
  0
SPLINE
  5
B2
330
1F
100
AcDbEntity
  8
0
  6
SLD-Durchgehend
 62
     7
370
    25
100
AcDbSpline
210
0.0
220
0.0
230
1.0
 70
     8
 71
     3
 72
     9
 73
     5
 74
     0
 42
0.000000001
 43
0.00000001
 40
0.0
 40
0.0
 40
0.0
 40
0.0
 40
0.5019771459250496
 40
1.0
 40
1.0
 40
1.0
 40
1.0
 10
436.0356795990731
 20
313.2816608365732
 30
0.0
 10
436.0356065324505
 20
313.4048910870674
 30
0.0
 10
436.0354609747826
 20
313.6503808498875
 30
0.0
 10
436.0349377328861
 20
313.8958700978524
 30
0.0
 10
436.0346771464635
 20
314.0181293537686
 30
0.0
  0
LINE
  5
B3
330
1F
100
AcDbEntity
  8
0
  6
SLD-Durchgehend
 62
     7
370
    25
100
AcDbLine
 10
431.6302343639
 20
310.4216635033
 30
0.0
 11
431.6302343639
 21
311.4962927008
 31
0.0
  0
LINE
  5
B4
330
1F
100
AcDbEntity
  8
0
  6
SLD-Durchgehend
 62
     7
370
    25
100
AcDbLine
 10
431.6302343639
 20
311.4962927008
 30
0.0
 11
429.9835388772
 21
311.4962927008
 31
0.0
  0
LINE
  5
B5
330
1F
100
AcDbEntity
  8
0
  6
SLD-Durchgehend
 62
     7
370
    25
100
AcDbLine
 10
429.9835388772
 20
311.4962927008
 30
0.0
 11
429.9835388772
 21
312.3837974112
 31
0.0
  0
LINE
  5
B6
330
1F
100
AcDbEntity
  8
0
  6
SLD-Durchgehend
 62
     7
370
    25
100
AcDbLine
 10
429.9835388772
 20
312.3837974112
 30
0.0
 11
431.6302343639
 21
312.3837974112
 31
0.0
  0
LINE
  5
B7
330
1F
100
AcDbEntity
  8
0
  6
SLD-Durchgehend
 62
     7
370
    25
100
AcDbLine
 10
431.6302343639
 20
312.3837974112
 30
0.0
 11
431.6302343639
 21
313.4582595333
 31
0.0
  0
LINE
  5
B8
330
1F
100
AcDbEntity
  8
0
  6
SLD-Durchgehend
 62
     7
370
    25
100
AcDbLine
 10
431.6302343639
 20
313.4582595333
 30
0.0
 11
429.9835388772
 21
313.4582595333
 31
0.0
  0
LINE
  5
B9
330
1F
100
AcDbEntity
  8
0
  6
SLD-Durchgehend
 62
     7
370
    25
100
AcDbLine
 10
429.9835388772
 20
313.4582595333
 30
0.0
 11
429.9835388772
 21
314.3455971682
 31
0.0
  0
LINE
  5
BA
330
1F
100
AcDbEntity
  8
0
  6
SLD-Durchgehend
 62
     7
370
    25
100
AcDbLine
 10
429.9835388772
 20
314.3455971682
 30
0.0
 11
431.6302343639
 21
314.3455971682
 31
0.0
  0
LINE
  5
BB
330
1F
100
AcDbEntity
  8
0
  6
SLD-Durchgehend
 62
     7
370
    25
100
AcDbLine
 10
431.6302343639
 20
314.3455971682
 30
0.0
 11
431.6302343639
 21
315.4200592903
 31
0.0
  0
LINE
  5
BC
330
1F
100
AcDbEntity
  8
0
  6
SLD-Durchgehend
 62
     7
370
    25
100
AcDbLine
 10
431.6302343639
 20
315.4200592903
 30
0.0
 11
428.908241378
 21
315.4200592903
 31
0.0
  0
LINE
  5
BD
330
1F
100
AcDbEntity
  8
0
  6
SLD-Durchgehend
 62
     7
370
    25
100
AcDbLine
 10
423.89121668
 20
314.2578827535
 30
0.0
 11
424.6204174158
 21
314.2578827535
 31
0.0
  0
SPLINE
  5
BE
330
1F
100
AcDbEntity
  8
0
  6
SLD-Durchgehend
 62
     7
370
    25
100
AcDbSpline
210
0.0
220
0.0
230
1.0
 70
     8
 71
     3
 72
    11
 73
     7
 74
     0
 42
0.000000001
 43
0.00000001
 40
0.0
 40
0.0
 40
0.0
 40
0.0
 40
0.1992186042567483
 40
0.462586576042627
 40
0.7086378742852802
 40
0.9999999999999999
 40
0.9999999999999999
 40
0.9999999999999999
 40
0.9999999999999999
 10
435.6519073250263
 20
312.5909709885501
 30
0.0
 10
435.697074971766
 20
312.6222995085676
 30
0.0
 10
435.8019544689952
 20
312.6950444856819
 30
0.0
 10
435.9263195739899
 20
312.8489255762177
 30
0.0
 10
436.0192237347164
 20
313.0524982883962
 30
0.0
 10
436.0298944192119
 20
313.2010970612573
 30
0.0
 10
436.0356795990731
 20
313.2816608365732
 30
0.0
  0
LINE
  5
BF
330
1F
100
AcDbEntity
  8
0
  6
SLD-Durchgehend
 62
     7
370
    25
100
AcDbLine
 10
417.1122979829
 20
311.4962927008
 30
0.0
 11
417.1122979829
 21
315.4200592903
 31
0.0
  0
LINE
  5
C0
330
1F
100
AcDbEntity
  8
0
  6
SLD-Durchgehend
 62
     7
370
    25
100
AcDbLine
 10
417.1122979829
 20
315.4200592903
 30
0.0
 11
416.0370840214
 21
315.4200592903
 31
0.0
  0
SPLINE
  5
C1
330
1F
100
AcDbEntity
  8
0
  6
SLD-Durchgehend
 62
     7
370
    25
100
AcDbSpline
210
0.0
220
0.0
230
1.0
 70
     8
 71
     3
 72
    13
 73
     9
 74
     0
 42
0.000000001
 43
0.00000001
 40
0.0
 40
0.0
 40
0.0
 40
0.0
 40
0.194165726123333
 40
0.3470249713928882
 40
0.4706668946820247
 40
0.5811375112837305
 40
0.7664103779903053
 40
1.0
 40
1.0
 40
1.0
 40
1.0
 10
436.0346771464634
 20
314.0181293537686
 30
0.0
 10
436.031077523072
 20
314.1668028036108
 30
0.0
 10
436.0246440539456
 20
314.4325211706392
 30
0.0
 10
435.9512652814832
 20
314.7875682117029
 30
0.0
 10
435.8203992196932
 20
315.0582032558251
 30
0.0
 10
435.5826431144904
 20
315.2844758980724
 30
0.0
 10
435.1836253730569
 20
315.4104618374624
 30
0.0
 10
434.8632219215206
 20
315.416086956425
 30
0.0
 10
434.6845405567502
 20
315.4192239511373
 30
0.0
  0
LINE
  5
C2
330
1F
100
AcDbEntity
  8
0
  6
SLD-Durchgehend
 62
     7
370
    25
100
AcDbLine
 10
434.6845405568
 20
315.4192239511
 30
0.0
 11
432.5919205674
 21
315.4192239511
 31
0.0
  0
LINE
  5
C3
330
1F
100
AcDbEntity
  8
0
  6
SLD-Durchgehend
 62
     7
370
    25
100
AcDbLine
 10
432.5919205674
 20
315.4192239511
 30
0.0
 11
432.5919205674
 21
310.421162277
 31
0.0
  0
LINE
  5
C4
330
1F
100
AcDbEntity
  8
0
  6
SLD-Durchgehend
 62
     7
370
    25
100
AcDbLine
 10
432.5919205674
 20
310.421162277
 30
0.0
 11
433.6657490026
 21
310.421162277
 31
0.0
  0
LINE
  5
C5
330
1F
100
AcDbEntity
  8
0
  6
SLD-Durchgehend
 62
     7
370
    25
100
AcDbLine
 10
433.6657490026
 20
310.421162277
 30
0.0
 11
433.6660486896
 21
312.0062069283
 31
0.0
  0
LINE
  5
C6
330
1F
100
AcDbEntity
  8
0
  6
SLD-Durchgehend
 62
     7
370
    25
100
AcDbLine
 10
433.6660486896
 20
312.0062069283
 30
0.0
 11
434.5497106808
 21
312.0062069283
 31
0.0
  0
SPLINE
  5
C7
330
1F
100
AcDbEntity
  8
0
  6
SLD-Durchgehend
 62
     7
370
    25
100
AcDbSpline
210
0.0
220
0.0
230
1.0
 70
     8
 71
     3
 72
    13
 73
     9
 74
     0
 42
0.000000001
 43
0.00000001
 40
0.0
 40
0.0
 40
0.0
 40
0.0
 40
0.1786987827384244
 40
0.3258270793141546
 40
0.4518927463934501
 40
0.5696190978301108
 40
0.7655101285646131
 40
0.9999999999999999
 40
0.9999999999999999
 40
0.9999999999999999
 40
0.9999999999999999
 10
434.5497106807572
 20
312.0062069282611
 30
0.0
 10
434.5987306876055
 20
312.0045730777974
 30
0.0
 10
434.6881103991769
 20
312.0015940271489
 30
0.0
 10
434.8091111665047
 20
311.9703286116117
 30
0.0
 10
434.9038928716146
 20
311.9173418780649
 30
0.0
 10
434.986242479772
 20
311.8267353979318
 30
0.0
 10
435.0392955922906
 20
311.6816178289295
 30
0.0
 10
435.0432622771296
 20
311.5634926298059
 30
0.0
 10
435.0454234962107
 20
311.4991329832321
 30
0.0
  0
LINE
  5
C8
330
1F
100
AcDbEntity
  8
0
  6
SLD-Durchgehend
 62
     7
370
    25
100
AcDbLine
 10
435.0454234962
 20
311.4991329832
 30
0.0
 11
435.0455905716
 21
310.419992749
 31
0.0
  0
LINE
  5
C9
330
1F
100
AcDbEntity
  8
0
  6
SLD-Durchgehend
 62
     7
370
    25
100
AcDbLine
 10
435.0455905716
 20
310.419992749
 30
0.0
 11
436.0360137499
 21
310.419992749
 31
0.0
  0
LINE
  5
CA
330
1F
100
AcDbEntity
  8
0
  6
SLD-Durchgehend
 62
     7
370
    25
100
AcDbLine
 10
436.0360137499
 20
310.419992749
 30
0.0
 11
436.0360137499
 21
311.8885858601
 31
0.0
  0
SPLINE
  5
CB
330
1F
100
AcDbEntity
  8
0
  6
SLD-Durchgehend
 62
     7
370
    25
100
AcDbSpline
210
0.0
220
0.0
230
1.0
 70
     8
 71
     3
 72
    12
 73
     8
 74
     0
 42
0.000000001
 43
0.00000001
 40
0.0
 40
0.0
 40
0.0
 40
0.0
 40
0.2586060014828598
 40
0.4768740222596419
 40
0.6654196460658756
 40
0.8538040147583561
 40
0.9999999999999999
 40
0.9999999999999999
 40
0.9999999999999999
 40
0.9999999999999999
 10
436.0360137499429
 20
311.8885858600814
 30
0.0
 10
436.0318590475694
 20
311.9611413841901
 30
0.0
 10
436.0241977032045
 20
312.0949350487627
 30
0.0
 10
435.9596936749927
 20
312.2722772380968
 30
0.0
 10
435.8691960155683
 20
312.413018504697
 30
0.0
 10
435.765501924426
 20
312.5185203525129
 30
0.0
 10
435.686449529008
 20
312.5689399706864
 30
0.0
 10
435.6519073250263
 20
312.5909709885501
 30
0.0
  0
LINE
  5
CC
330
1F
100
AcDbEntity
  8
0
  6
SLD-Durchgehend
 62
     7
370
    25
100
AcDbLine
 10
428.908241378
 20
315.4200592903
 30
0.0
 11
428.908241378
 21
310.4216635033
 31
0.0
  0
SPLINE
  5
CD
330
1F
100
AcDbEntity
  8
0
  6
SLD-Durchgehend
 62
     7
370
    25
100
AcDbSpline
210
0.0
220
0.0
230
1.0
 70
     8
 71
     3
 72
    11
 73
     7
 74
     0
 42
0.000000001
 43
0.00000001
 40
0.0
 40
0.0
 40
0.0
 40
0.0
 40
0.1991911293572144
 40
0.4625571095361284
 40
0.7086041765618482
 40
1.0
 40
1.0
 40
1.0
 40
1.0
 10
425.3001651449492
 20
315.0357857899455
 30
0.0
 10
425.2688535063794
 20
315.0809238814484
 30
0.0
 10
425.1961423315473
 20
315.1857425307674
 30
0.0
 10
425.0424290705749
 20
315.3101424859336
 30
0.0
 10
424.838970255585
 20
315.4030947210597
 30
0.0
 10
424.6904299568492
 20
315.4137700267181
 30
0.0
 10
424.6098929855135
 20
315.4195580639923
 30
0.0
  0
LINE
  5
CE
330
1F
100
AcDbEntity
  8
0
  6
SLD-Durchgehend
 62
     7
370
    25
100
AcDbLine
 10
424.6098929855
 20
315.419558064
 30
0.0
 11
424.0926261168
 21
315.419558064
 31
0.0
  0
SPLINE
  5
CF
330
1F
100
AcDbEntity
  8
0
  6
SLD-Durchgehend
 62
     7
370
    25
100
AcDbSpline
210
0.0
220
0.0
230
1.0
 70
     8
 71
     3
 72
    14
 73
    10
 74
     0
 42
0.000000001
 43
0.00000001
 40
0.0
 40
0.0
 40
0.0
 40
0.0
 40
0.1668439206458622
 40
0.3025425056681475
 40
0.4150564027276237
 40
0.519161969458747
 40
0.6413065304085619
 40
0.7970413868896139
 40
1.0
 40
1.0
 40
1.0
 40
1.0
 10
424.0926261168141
 20
315.4195580639923
 30
0.0
 10
423.9550343420449
 20
315.4178673335132
 30
0.0
 10
423.7055355282022
 20
315.4148014871009
 30
0.0
 10
423.3653638672037
 20
315.3677767393644
 30
0.0
 10
423.0893152646225
 20
315.2637634243489
 30
0.0
 10
422.8779022428255
 20
315.0697510994397
 30
0.0
 10
422.746774189011
 20
314.7766262232549
 30
0.0
 10
422.6799706172103
 20
314.3838670987888
 30
0.0
 10
422.6748164979983
 20
314.0879789180785
 30
0.0
 10
422.6719001558406
 20
313.9205572617515
 30
0.0
  0
LINE
  5
D0
330
1F
100
AcDbEntity
  8
0
  6
SLD-Durchgehend
 62
     7
370
    25
100
AcDbLine
 10
422.6719001558
 20
313.9205572618
 30
0.0
 11
422.6759099663
 21
310.4214964279
 31
0.0
  0
LINE
  5
D1
330
1F
100
AcDbEntity
  8
0
  6
SLD-Durchgehend
 62
     7
370
    25
100
AcDbLine
 10
422.6759099663
 20
310.4214964279
 30
0.0
 11
423.7426866183
 21
310.4214964279
 31
0.0
  0
LINE
  5
D2
330
1F
100
AcDbEntity
  8
0
  6
SLD-Durchgehend
 62
     7
370
    25
100
AcDbLine
 10
423.7426866183
 20
310.4214964279
 30
0.0
 11
423.7426866183
 21
314.0478689318
 31
0.0
  0
LINE
  5
D3
330
1F
100
AcDbEntity
  8
0
  6
SLD-Durchgehend
 62
     7
370
    25
100
AcDbLine
 10
413.5084808514
 20
315.4237349499
 30
0.0
 11
412.8991567402
 21
315.4237349499
 31
0.0
  0
SPLINE
  5
D4
330
1F
100
AcDbEntity
  8
0
  6
SLD-Durchgehend
 62
     7
370
    25
100
AcDbSpline
210
0.0
220
0.0
230
1.0
 70
     8
 71
     3
 72
    10
 73
     6
 74
     0
 42
0.000000001
 43
0.00000001
 40
0.0
 40
0.0
 40
0.0
 40
0.0
 40
0.2312025287503076
 40
0.4918310759404803
 40
1.0
 40
1.0
 40
1.0
 40
1.0
 10
423.7716742063031
 20
314.227140873448
 30
0.0
 10
423.7792747281092
 20
314.2334321190862
 30
0.0
 10
423.7954431188174
 20
314.2468153209391
 30
0.0
 10
423.837463108868
 20
314.2568980979164
 30
0.0
 10
423.8698254401778
 20
314.2574909096828
 30
0.0
 10
423.8912166799994
 20
314.2578827534762
 30
0.0
  0
SPLINE
  5
D5
330
1F
100
AcDbEntity
  8
0
  6
SLD-Durchgehend
 62
     7
370
    25
100
AcDbSpline
210
0.0
220
0.0
230
1.0
 70
     8
 71
     3
 72
     9
 73
     5
 74
     0
 42
0.000000001
 43
0.00000001
 40
0.0
 40
0.0
 40
0.0
 40
0.0
 40
0.6137454904782494
 40
1.0
 40
1.0
 40
1.0
 40
1.0
 10
424.6204174157752
 20
314.2578827534762
 30
0.0
 10
424.645434237456
 20
314.2582235945723
 30
0.0
 10
424.6861951425363
 20
314.2587789405608
 30
0.0
 10
424.7195557931567
 20
314.2363178119628
 30
0.0
 10
424.7324414948994
 20
314.2276420997529
 30
0.0
  0
SPLINE
  5
D6
330
1F
100
AcDbEntity
  8
0
  6
SLD-Durchgehend
 62
     7
370
    25
100
AcDbSpline
210
0.0
220
0.0
230
1.0
 70
     8
 71
     3
 72
    10
 73
     6
 74
     0
 42
0.000000001
 43
0.00000001
 40
0.0
 40
0.0
 40
0.0
 40
0.0
 40
0.1894043484779402
 40
0.4199151876309308
 40
1.0
 40
1.0
 40
1.0
 40
1.0
 10
424.7324414948994
 20
314.2276420997529
 30
0.0
 10
424.739889712613
 20
314.2181798411854
 30
0.0
 10
424.7564026372839
 20
314.1972017268301
 30
0.0
 10
424.7648260628117
 20
314.1333927830911
 30
0.0
 10
424.764745037681
 20
314.0830559753834
 30
0.0
 10
424.764687053842
 20
314.0470335545876
 30
0.0
  0
LINE
  5
D7
330
1F
100
AcDbEntity
  8
0
  6
SLD-Durchgehend
 62
     7
370
    25
100
AcDbLine
 10
424.7646870538
 20
314.0470335546
 30
0.0
 11
424.7646870538
 21
310.4214965693
 31
0.0
  0
LINE
  5
D8
330
1F
100
AcDbEntity
  8
0
  6
SLD-Durchgehend
 62
     7
370
    25
100
AcDbLine
 10
424.7646870538
 20
310.4214965693
 30
0.0
 11
424.7704531532
 21
310.4214942697
 31
0.0
  0
LINE
  5
D9
330
1F
100
AcDbEntity
  8
0
  6
SLD-Durchgehend
 62
     7
370
    25
100
AcDbLine
 10
424.7704531532
 20
310.4214942697
 30
0.0
 11
425.8523501321
 21
310.4214942697
 31
0.0
  0
LINE
  5
DA
330
1F
100
AcDbEntity
  8
0
  6
SLD-Durchgehend
 62
     7
370
    25
100
AcDbLine
 10
425.8523501321
 20
310.4214942697
 30
0.0
 11
425.8523501321
 21
314.0461958778
 31
0.0
  0
SPLINE
  5
DB
330
1F
100
AcDbEntity
  8
0
  6
SLD-Durchgehend
 62
     7
370
    25
100
AcDbSpline
210
0.0
220
0.0
230
1.0
 70
     8
 71
     3
 72
    10
 73
     6
 74
     0
 42
0.000000001
 43
0.00000001
 40
0.0
 40
0.0
 40
0.0
 40
0.0
 40
0.6880866687026379
 40
0.852080627357816
 40
1.0
 40
1.0
 40
1.0
 40
1.0
 10
425.8523501320811
 20
314.0461958778315
 30
0.0
 10
425.8511874201122
 20
314.0892964429266
 30
0.0
 10
425.849747595176
 20
314.1426693074453
 30
0.0
 10
425.8656115246897
 20
314.204512516131
 30
0.0
 10
425.8784321831267
 20
314.2195202130974
 30
0.0
 10
425.8845121533062
 20
314.2266373475618
 30
0.0
  0
SPLINE
  5
DC
330
1F
100
AcDbEntity
  8
0
  6
SLD-Durchgehend
 62
     7
370
    25
100
AcDbSpline
210
0.0
220
0.0
230
1.0
 70
     8
 71
     3
 72
    10
 73
     6
 74
     0
 42
0.000000001
 43
0.00000001
 40
0.0
 40
0.0
 40
0.0
 40
0.0
 40
0.2440703980435964
 40
0.501825842275185
 40
1.0
 40
1.0
 40
1.0
 40
1.0
 10
425.8845121533062
 20
314.2266373475618
 30
0.0
 10
425.892135957075
 20
314.2327451757981
 30
0.0
 10
425.9078110318827
 20
314.2453032986746
 30
0.0
 10
425.9468537744576
 20
314.2560221885406
 30
0.0
 10
425.9768509648995
 20
314.2565380423384
 30
0.0
 10
425.9966197701478
 20
314.2568780012851
 30
0.0
  0
LINE
  5
DD
330
1F
100
AcDbEntity
  8
0
  6
SLD-Durchgehend
 62
     7
370
    25
100
AcDbLine
 10
425.9966197701
 20
314.2568780013
 30
0.0
 11
426.7259040436
 21
314.2568780013
 31
0.0
  0
SPLINE
  5
DE
330
1F
100
AcDbEntity
  8
0
  6
SLD-Durchgehend
 62
     7
370
    25
100
AcDbSpline
210
0.0
220
0.0
230
1.0
 70
     8
 71
     3
 72
    10
 73
     6
 74
     0
 42
0.000000001
 43
0.00000001
 40
0.0
 40
0.0
 40
0.0
 40
0.0
 40
0.6237435782698714
 40
0.8187871131398978
 40
1.0
 40
1.0
 40
1.0
 40
1.0
 10
426.7259040436411
 20
314.2568780012851
 30
0.0
 10
426.752357578817
 20
314.256542461288
 30
0.0
 10
426.7870830885515
 20
314.2561019985159
 30
0.0
 10
426.8275399307195
 20
314.2418701754562
 30
0.0
 10
426.83956935817
 20
314.2313634522398
 30
0.0
 10
426.8453629796199
 20
314.2263031966918
 30
0.0
  0
SPLINE
  5
DF
330
1F
100
AcDbEntity
  8
0
  6
SLD-Durchgehend
 62
     7
370
    25
100
AcDbSpline
210
0.0
220
0.0
230
1.0
 70
     8
 71
     3
 72
    10
 73
     6
 74
     0
 42
0.000000001
 43
0.00000001
 40
0.0
 40
0.0
 40
0.0
 40
0.0
 40
0.1807043028123137
 40
0.4132783874660693
 40
1.0
 40
1.0
 40
1.0
 40
1.0
 10
426.8453629796199
 20
314.2263031966918
 30
0.0
 10
426.8517703610414
 20
314.2170231719378
 30
0.0
 10
426.8664243134961
 20
314.1957993626186
 30
0.0
 10
426.8744709099267
 20
314.133202678267
 30
0.0
 10
426.8744494636236
 20
314.0829900131668
 30
0.0
 10
426.8744341052987
 20
314.0470312550062
 30
0.0
  0
LINE
  5
E0
330
1F
100
AcDbEntity
  8
0
  6
SLD-Durchgehend
 62
     7
370
    25
100
AcDbLine
 10
426.8744341053
 20
314.047031255
 30
0.0
 11
426.8744341053
 21
310.4214941283
 31
0.0
  0
LINE
  5
E1
330
1F
100
AcDbEntity
  8
0
  6
SLD-Durchgehend
 62
     7
370
    25
100
AcDbLine
 10
426.8744341053
 20
310.4214941283
 30
0.0
 11
427.9403753802
 21
310.4214941283
 31
0.0
  0
LINE
  5
E2
330
1F
100
AcDbEntity
  8
0
  6
SLD-Durchgehend
 62
     7
370
    25
100
AcDbLine
 10
427.9403753802
 20
310.4214941283
 30
0.0
 11
427.9403753802
 21
313.9208914126
 31
0.0
  0
SPLINE
  5
E3
330
1F
100
AcDbEntity
  8
0
  6
SLD-Durchgehend
 62
     7
370
    25
100
AcDbSpline
210
0.0
220
0.0
230
1.0
 70
     8
 71
     3
 72
    14
 73
    10
 74
     0
 42
0.000000001
 43
0.00000001
 40
0.0
 40
0.0
 40
0.0
 40
0.0
 40
0.1948363021374176
 40
0.3461853534454076
 40
0.4655428980217854
 40
0.5700830422527725
 40
0.6859658879948684
 40
0.8260627731951051
 40
1.0
 40
1.0
 40
1.0
 40
1.0
 10
427.9403753801868
 20
313.9208914126213
 30
0.0
 10
427.9376762760418
 20
314.0816122131795
 30
0.0
 10
427.9328805048628
 20
314.3671811063318
 30
0.0
 10
427.8717636269354
 20
314.7477732632383
 30
0.0
 10
427.753488232081
 20
315.0388893412062
 30
0.0
 10
427.5536894837181
 20
315.2460650053263
 30
0.0
 10
427.2740355813004
 20
315.3628688452783
 30
0.0
 10
426.9218512050252
 20
315.4147488555126
 30
0.0
 10
426.6628528342575
 20
315.4180588660759
 30
0.0
 10
426.5193988060609
 20
315.4198922148621
 30
0.0
  0
LINE
  5
E4
330
1F
100
AcDbEntity
  8
0
  6
SLD-Durchgehend
 62
     7
370
    25
100
AcDbLine
 10
426.5193988061
 20
315.4198922149
 30
0.0
 11
426.0022161225
 21
315.4198922149
 31
0.0
  0
SPLINE
  5
E5
330
1F
100
AcDbEntity
  8
0
  6
SLD-Durchgehend
 62
     7
370
    25
100
AcDbSpline
210
0.0
220
0.0
230
1.0
 70
     8
 71
     3
 72
    12
 73
     8
 74
     0
 42
0.000000001
 43
0.00000001
 40
0.0
 40
0.0
 40
0.0
 40
0.0
 40
0.2585139589177047
 40
0.4767397343402733
 40
0.6652911032508829
 40
0.8537276706446625
 40
1.0
 40
1.0
 40
1.0
 40
1.0
 10
426.002216122548
 20
315.4198922148621
 30
0.0
 10
425.929713926052
 20
315.4157368262157
 30
0.0
 10
425.7960086590666
 20
315.408073646681
 30
0.0
 10
425.6187825933259
 20
315.3435631207599
 30
0.0
 10
425.4781137154338
 20
315.2530628582452
 30
0.0
 10
425.3726479956018
 20
315.1493650141168
 30
0.0
 10
425.3222080747516
 20
315.0703266343366
 30
0.0
 10
425.3001651449492
 20
315.0357857899455
 30
0.0
  0
LINE
  5
E6
330
1F
100
AcDbEntity
  8
0
  6
SLD-Durchgehend
 62
     7
370
    25
100
AcDbLine
 10
428.908241378
 20
310.4216635033
 30
0.0
 11
431.6302343639
 21
310.4216635033
 31
0.0
  0
LINE
  5
E7
330
1F
100
AcDbEntity
  8
0
  6
SLD-Durchgehend
 62
     7
370
    25
100
AcDbLine
 10
421.8922426387
 20
310.4216635033
 30
0.0
 11
421.8922426387
 21
311.4962927008
 31
0.0
  0
LINE
  5
E8
330
1F
100
AcDbEntity
  8
0
  6
SLD-Durchgehend
 62
     7
370
    25
100
AcDbLine
 10
421.8922426387
 20
311.4962927008
 30
0.0
 11
420.410534144
 21
311.4962927008
 31
0.0
  0
LINE
  5
E9
330
1F
100
AcDbEntity
  8
0
  6
SLD-Durchgehend
 62
     7
370
    25
100
AcDbLine
 10
420.410534144
 20
311.4962927008
 30
0.0
 11
420.410534144
 21
315.4200592903
 31
0.0
  0
LINE
  5
EA
330
1F
100
AcDbEntity
  8
0
  6
SLD-Durchgehend
 62
     7
370
    25
100
AcDbLine
 10
420.410534144
 20
315.4200592903
 30
0.0
 11
419.3354037202
 21
315.4200592903
 31
0.0
  0
LINE
  5
EB
330
1F
100
AcDbEntity
  8
0
  6
SLD-Durchgehend
 62
     7
370
    25
100
AcDbLine
 10
419.3354037202
 20
315.4200592903
 30
0.0
 11
419.3354037202
 21
310.4216635033
 31
0.0
  0
LINE
  5
EC
330
1F
100
AcDbEntity
  8
0
  6
SLD-Durchgehend
 62
     7
370
    25
100
AcDbLine
 10
419.3354037202
 20
310.4216635033
 30
0.0
 11
421.8922426387
 21
310.4216635033
 31
0.0
  0
LINE
  5
ED
330
1F
100
AcDbEntity
  8
0
  6
SLD-Durchgehend
 62
     7
370
    25
100
AcDbLine
 10
418.5939229399
 20
310.4216635033
 30
0.0
 11
418.5939229399
 21
311.4962927008
 31
0.0
  0
LINE
  5
EE
330
1F
100
AcDbEntity
  8
0
  6
SLD-Durchgehend
 62
     7
370
    25
100
AcDbLine
 10
418.5939229399
 20
311.4962927008
 30
0.0
 11
417.1122979829
 21
311.4962927008
 31
0.0
  0
LINE
  5
EF
330
1F
100
AcDbEntity
  8
0
  6
SLD-Durchgehend
 62
     7
370
    25
100
AcDbLine
 10
412.4763723521
 20
310.4256733138
 30
0.0
 11
412.4763723521
 21
311.6022185266
 31
0.0
  0
LINE
  5
F0
330
1F
100
AcDbEntity
  8
0
  6
SLD-Durchgehend
 62
     7
370
    25
100
AcDbLine
 10
412.4763723521
 20
311.6022185266
 30
0.0
 11
413.9381153419
 21
311.6022185266
 31
0.0
  0
SPLINE
  5
F1
330
1F
100
AcDbEntity
  8
0
  6
SLD-Durchgehend
 62
     7
370
    25
100
AcDbSpline
210
0.0
220
0.0
230
1.0
 70
     8
 71
     3
 72
    12
 73
     8
 74
     0
 42
0.000000001
 43
0.00000001
 40
0.0
 40
0.0
 40
0.0
 40
0.0
 40
0.2177775398264643
 40
0.3984647405276023
 40
0.56014279799862
 40
0.7588538422332998
 40
1.0
 40
1.0
 40
1.0
 40
1.0
 10
410.4514183957722
 20
313.9237320970764
 30
0.0
 10
410.444371082493
 20
314.0970257199953
 30
0.0
 10
410.4314767047742
 20
314.414098814615
 30
0.0
 10
410.2868277490746
 20
314.8433437289405
 30
0.0
 10
410.0089621954814
 20
315.1843299000171
 30
0.0
 10
409.56216130945
 20
315.3969912791287
 30
0.0
 10
409.2111719992508
 20
315.4142651631153
 30
0.0
 10
409.0187465412008
 20
315.4237353519268
 30
0.0
  0
LINE
  5
F2
330
1F
100
AcDbEntity
  8
0
  6
SLD-Durchgehend
 62
     7
370
    25
100
AcDbLine
 10
413.9381153419
 20
311.6022185266
 30
0.0
 11
413.9381153419
 21
310.4181549192
 31
0.0
  0
LINE
  5
F3
330
1F
100
AcDbEntity
  8
0
  6
SLD-Durchgehend
 62
     7
370
    25
100
AcDbLine
 10
411.4034139089
 20
313.9501296137
 30
0.0
 11
411.4034139089
 21
310.4256733138
 31
0.0
  0
LINE
  5
F4
330
1F
100
AcDbEntity
  8
0
  6
SLD-Durchgehend
 62
     7
370
    25
100
AcDbLine
 10
411.4034139089
 20
310.4256733138
 30
0.0
 11
412.4763723521
 21
310.4256733138
 31
0.0
  0
SPLINE
  5
F5
330
1F
100
AcDbEntity
  8
0
  6
SLD-Durchgehend
 62
     7
370
    25
100
AcDbSpline
210
0.0
220
0.0
230
1.0
 70
     8
 71
     3
 72
    10
 73
     6
 74
     0
 42
0.000000001
 43
0.00000001
 40
0.0
 40
0.0
 40
0.0
 40
0.0
 40
0.2528872714856187
 40
0.5184621175552767
 40
1.0
 40
1.0
 40
1.0
 40
1.0
 10
410.0129289167841
 20
310.7401091008889
 30
0.0
 10
410.0881189877131
 20
310.8162279807741
 30
0.0
 10
410.242271480893
 20
310.9722846910203
 30
0.0
 10
410.4180907028811
 20
311.3648807409803
 30
0.0
 10
410.4383564670853
 20
311.6807931642956
 30
0.0
 10
410.4514183957722
 20
311.8844087547618
 30
0.0
  0
ARC
  5
F6
330
1F
100
AcDbEntity
  8
0
  6
SLD-Durchgehend
 62
     7
370
    25
100
AcDbCircle
 10
421.4860406447
 20
312.9218640505
 30
0.0
 40
31.50000000000001
100
AcDbArc
 50
193.4080195317
 51
256.5919804683
  0
ARC
  5
F7
330
1F
100
AcDbEntity
  8
0
  6
SLD-Durchgehend
 62
     7
370
    25
100
AcDbCircle
 10
401.5298386012
 20
304.9218640505
 30
0.0
 40
3.00000000000001
100
AcDbArc
 50
21.8447574858
 51
201.8447574858
  0
ARC
  5
F8
330
1F
100
AcDbEntity
  8
0
  6
SLD-Durchgehend
 62
     7
370
    25
100
AcDbCircle
 10
421.4860406447
 20
312.9218640505
 30
0.0
 40
50.49999999999999
100
AcDbArc
 50
279.6960283981
 51
350.3039716019
  0
ARC
  5
F9
330
1F
100
AcDbEntity
  8
0
  6
SLD-Durchgehend
 62
     7
370
    25
100
AcDbCircle
 10
429.4860406447
 20
332.8780660939
 30
0.0
 40
3.00000000000001
100
AcDbArc
 50
68.1552425142
 51
248.1552425142
  0
ARC
  5
FA
330
1F
100
AcDbEntity
  8
0
  6
SLD-Durchgehend
 62
     7
370
    25
100
AcDbCircle
 10
421.4860406447
 20
312.9218640505
 30
0.0
 40
37.50000000000001
100
AcDbArc
 50
283.4080195317
 51
346.5919804683
  0
ARC
  5
FB
330
1F
100
AcDbEntity
  8
0
  6
SLD-Durchgehend
 62
     7
370
    25
100
AcDbCircle
 10
429.4860406447
 20
279.3622156614
 30
0.0
 40
3.000000000000042
100
AcDbArc
 50
103.4080195317
 51
283.4080195317
  0
ARC
  5
FC
330
1F
100
AcDbEntity
  8
0
  6
SLD-Durchgehend
 62
     7
370
    25
100
AcDbCircle
 10
455.0456890338
 20
320.9218640505
 30
0.0
 40
2.999999999999987
100
AcDbArc
 50
193.4080195317
 51
13.4080195317
  0
ARC
  5
FD
330
1F
100
AcDbEntity
  8
0
  6
SLD-Durchgehend
 62
     7
370
    25
100
AcDbCircle
 10
421.4860406447
 20
312.9218640505
 30
0.0
 40
18.5
100
AcDbArc
 50
21.8447574858
 51
68.1552425142
  0
CIRCLE
  5
FE
330
1F
100
AcDbEntity
  8
0
  6
SLD-Durchgehend
 62
     7
370
    25
100
AcDbCircle
 10
421.4860406447
 20
312.9218640505
 30
0.0
 40
57.49999999999997
  0
ARC
  5
FF
330
1F
100
AcDbEntity
  8
0
  6
SLD-Durchgehend
 62
     7
370
    25
100
AcDbCircle
 10
421.4860406447
 20
312.9218640505
 30
0.0
 40
50.50000000000002
100
AcDbArc
 50
9.6960283981
 51
80.3039716019
  0
ARC
  5
100
330
1F
100
AcDbEntity
  8
0
  6
SLD-Durchgehend
 62
     7
370
    25
100
AcDbCircle
 10
429.4860406447
 20
346.4815124396
 30
0.0
 40
3.000000000000055
100
AcDbArc
 50
76.5919804683
 51
256.5919804683
  0
ARC
  5
101
330
1F
100
AcDbEntity
  8
0
  6
SLD-Durchgehend
 62
     7
370
    25
100
AcDbCircle
 10
421.4860406447
 20
312.9218640505
 30
0.0
 40
37.50000000000004
100
AcDbArc
 50
13.4080195317
 51
76.5919804683
  0
ARC
  5
102
330
1F
100
AcDbEntity
  8
0
  6
SLD-Durchgehend
 62
     7
370
    25
100
AcDbCircle
 10
421.4860406447
 20
312.9218640505
 30
0.0
 40
31.50000000000002
100
AcDbArc
 50
13.4080195317
 51
76.5919804683
  0
LINE
  5
103
330
1F
100
AcDbEntity
  8
0
  6
SLD-Durchgehend
 62
     7
370
    25
100
AcDbLine
 10
408.9524172784
 20
314.3596315923
 30
0.0
 11
408.0101118254
 21
314.3596315923
 31
0.0
  0
SPLINE
  5
104
330
1F
100
AcDbEntity
  8
0
  6
SLD-Durchgehend
 62
     7
370
    25
100
AcDbSpline
210
0.0
220
0.0
230
1.0
 70
     8
 71
     3
 72
    11
 73
     7
 74
     0
 42
0.000000001
 43
0.00000001
 40
0.0
 40
0.0
 40
0.0
 40
0.0
 40
0.2812497544593538
 40
0.5529773269316928
 40
0.7707968828816534
 40
0.9999999999999999
 40
0.9999999999999999
 40
0.9999999999999999
 40
0.9999999999999999
 10
408.9580978431869
 20
311.5004695867115
 30
0.0
 10
409.0237547736451
 20
311.5078473438613
 30
0.0
 10
409.1528457090989
 20
311.5223530718227
 30
0.0
 10
409.30305699741
 20
311.6306720283997
 30
0.0
 10
409.4025553396129
 20
311.7676890369412
 30
0.0
 10
409.4279888148578
 20
311.8689246020418
 30
0.0
 10
409.4410293878677
 20
311.9208313810091
 30
0.0
  0
LINE
  5
105
330
1F
100
AcDbEntity
  8
0
  6
SLD-Durchgehend
 62
     7
370
    25
100
AcDbLine
 10
409.4410293879
 20
311.920831381
 30
0.0
 11
409.4410293879
 21
313.8734420767
 31
0.0
  0
SPLINE
  5
106
330
1F
100
AcDbEntity
  8
0
  6
SLD-Durchgehend
 62
     7
370
    25
100
AcDbSpline
210
0.0
220
0.0
230
1.0
 70
     8
 71
     3
 72
    11
 73
     7
 74
     0
 42
0.000000001
 43
0.00000001
 40
0.0
 40
0.0
 40
0.0
 40
0.0
 40
0.2747250492094324
 40
0.5494453099087176
 40
0.7708824127484671
 40
1.0
 40
1.0
 40
1.0
 40
1.0
 10
409.4410293878677
 20
313.8734420766616
 30
0.0
 10
409.4312151810443
 20
313.9430565145604
 30
0.0
 10
409.4115869384606
 20
314.0822841769649
 30
0.0
 10
409.2807646966755
 20
314.2363589284034
 30
0.0
 10
409.1231590554425
 20
314.3344262428198
 30
0.0
 10
409.009974347156
 20
314.351134866686
 30
0.0
 10
408.952417278399
 20
314.3596315923238
 30
0.0
  0
LINE
  5
107
330
1F
100
AcDbEntity
  8
0
  6
SLD-Durchgehend
 62
     7
370
    25
100
AcDbLine
 10
408.0101118254
 20
314.3596315923
 30
0.0
 11
408.0101118254
 21
311.5004695867
 31
0.0
  0
LINE
  5
108
330
1F
100
AcDbEntity
  8
0
  6
SLD-Durchgehend
 62
     7
370
    25
100
AcDbLine
 10
408.0101118254
 20
311.5004695867
 30
0.0
 11
408.9580978432
 21
311.5004695867
 31
0.0
  0
CIRCLE
  5
109
330
1F
100
AcDbEntity
  8
0
  6
SLD-Durchgehend
 62
     7
370
    25
100
AcDbCircle
 10
421.4860406447
 20
312.9218640505
 30
0.0
 40
60.49999999999997
  0
CIRCLE
  5
10A
330
1F
100
AcDbEntity
  8
0
  6
SLD-Durchgehend
 62
     7
370
    25
100
AcDbCircle
 10
421.4860406447
 20
312.9218640505
 30
0.0
 40
57.99999999999997
  0
LINE
  5
10B
330
1F
100
AcDbEntity
  8
0
  6
SLD-Phantom
 62
     7
370
    35
100
AcDbLine
 10
496.5060406447
 20
312.9218640505
 30
0.0
 11
346.4660406447
 21
312.9218640505
 31
0.0
  0
LINE
  5
10C
330
1F
100
AcDbEntity
  8
0
  6
SLD-Durchgehend
 62
     7
370
    35
100
AcDbLine
 10
492.5060406447
 20
287.5218640505
 30
0.0
 11
492.5060406447
 21
312.9218640505
 31
0.0
  0
SOLID
  5
10D
330
1F
100
AcDbEntity
  8
0
  6
SLD-Durchgehend
 62
     7
370
    35
100
AcDbTrace
 10
492.5060406447
 20
312.9218640505
 30
0.0
 11
490.4740406447
 21
300.2218640505
 31
0.0
 12
494.5380406447
 22
300.2218640505
 32
0.0
 13
494.5380406447
 23
300.2218640505
 33
0.0
  0
LINE
  5
10E
330
1F
100
AcDbEntity
  8
0
  6
SLD-Durchgehend
 62
     7
370
    35
100
AcDbLine
 10
350.4660406447
 20
287.5218640505
 30
0.0
 11
350.4660406447
 21
312.9218640505
 31
0.0
  0
SOLID
  5
10F
330
1F
100
AcDbEntity
  8
0
  6
SLD-Durchgehend
 62
     7
370
    35
100
AcDbTrace
 10
350.4660406447
 20
312.9218640505
 30
0.0
 11
348.4340406447
 21
300.2218640505
 31
0.0
 12
352.4980406447
 22
300.2218640505
 32
0.0
 13
352.4980406447
 23
300.2218640505
 33
0.0
  0
MTEXT
  5
111
330
1F
100
AcDbEntity
  8
0
  6
Continuous
 62
     7
100
AcDbMText
 10
495.2668148838
 20
298.6364921432
 30
0.0
 40
7.0
 41
0.0
 46
0.0
 71
     1
 72
     1
  1
A
  7
SLDTEXTSTYLE0
 73
     1
 44
1.0
  0
MTEXT
  5
112
330
1F
100
AcDbEntity
  8
0
  6
Continuous
 62
     7
100
AcDbMText
 10
340.8033308078
 20
298.6364921432
 30
0.0
 40
7.0
 41
0.0
 46
0.0
 71
     1
 72
     1
  1
A
  7
SLDTEXTSTYLE0
 73
     1
 44
1.0
  0
ARC
  5
113
330
1F
100
AcDbEntity
  8
0
  6
SLD-Durchgehend
 62
     7
370
    25
100
AcDbCircle
 10
473.5575100791
 20
443.4021614477
 30
0.0
 40
0.75
100
AcDbArc
 50
90.0
 51
180.0
  0
ARC
  5
114
330
1F
100
AcDbEntity
  8
0
  6
SLD-Durchgehend
 62
     7
370
    25
100
AcDbCircle
 10
460.2956890338
 20
443.4021614477
 30
0.0
 40
0.75
100
AcDbArc
 50
90.0
 51
180.0
  0
ARC
  5
115
330
1F
100
AcDbEntity
  8
0
  6
SLD-Durchgehend
 62
     7
370
    25
100
AcDbCircle
 10
446.6922426882
 20
443.4021614477
 30
0.0
 40
0.7500000000000568
100
AcDbArc
 50
90.0
 51
180.0
  0
ARC
  5
116
330
1F
100
AcDbEntity
  8
0
  6
SLD-Durchgehend
 62
     7
370
    25
100
AcDbCircle
 10
396.2798386012
 20
443.4021614477
 30
0.0
 40
0.75
100
AcDbArc
 50
0.0
 51
90.0
  0
ARC
  5
117
330
1F
100
AcDbEntity
  8
0
  6
SLD-Durchgehend
 62
     7
370
    25
100
AcDbCircle
 10
382.6763922556
 20
443.4021614477
 30
0.0
 40
0.75
100
AcDbArc
 50
0.0
 51
90.0
  0
ARC
  5
118
330
1F
100
AcDbEntity
  8
0
  6
SLD-Durchgehend
 62
     7
370
    25
100
AcDbCircle
 10
369.4145712103
 20
443.4021614477
 30
0.0
 40
0.75
100
AcDbArc
 50
0.0
 51
90.0
  0
LINE
  5
119
330
1F
100
AcDbEntity
  8
0
  6
SLD-Durchgehend
 62
     7
370
    25
100
AcDbLine
 10
459.5456890338
 20
441.4521614477
 30
0.0
 11
459.5456890338
 21
443.4021614477
 31
0.0
  0
LINE
  5
11A
330
1F
100
AcDbEntity
  8
0
  6
SLD-Durchgehend
 62
     7
370
    25
100
AcDbLine
 10
472.8075100791
 20
441.4521614477
 30
0.0
 11
472.8075100791
 21
443.4021614477
 31
0.0
  0
LINE
  5
11B
330
1F
100
AcDbEntity
  8
0
  6
SLD-Durchgehend
 62
     7
370
    25
100
AcDbLine
 10
445.9422426882
 20
441.4521614477
 30
0.0
 11
445.9422426882
 21
443.4021614477
 31
0.0
  0
LINE
  5
11C
330
1F
100
AcDbEntity
  8
0
  6
SLD-Durchgehend
 62
     7
370
    25
100
AcDbLine
 10
397.0298386012
 20
443.4021614477
 30
0.0
 11
397.0298386012
 21
441.4521614477
 31
0.0
  0
LINE
  5
11D
330
1F
100
AcDbEntity
  8
0
  6
SLD-Durchgehend
 62
     7
370
    25
100
AcDbLine
 10
383.4263922556
 20
443.4021614477
 30
0.0
 11
383.4263922556
 21
441.4521614477
 31
0.0
  0
LINE
  5
11E
330
1F
100
AcDbEntity
  8
0
  6
SLD-Durchgehend
 62
     7
370
    25
100
AcDbLine
 10
370.1645712103
 20
443.4021614477
 30
0.0
 11
370.1645712103
 21
441.4521614477
 31
0.0
  0
ARC
  5
11F
330
1F
100
AcDbEntity
  8
0
  6
SLD-Durchgehend
 62
     7
370
    25
100
AcDbCircle
 10
424.2360406447
 20
443.4021614477
 30
0.0
 40
0.7500000000000568
100
AcDbArc
 50
0.0
 51
90.0
  0
ARC
  5
120
330
1F
100
AcDbEntity
  8
0
  6
SLD-Durchgehend
 62
     7
370
    25
100
AcDbCircle
 10
418.7360406447
 20
443.4021614477
 30
0.0
 40
0.75
100
AcDbArc
 50
90.0
 51
180.0
  0
LINE
  5
121
330
1F
100
AcDbEntity
  8
0
  6
SLD-Durchgehend
 62
     7
370
    25
100
AcDbLine
 10
424.9860406447
 20
443.4021614477
 30
0.0
 11
424.9860406447
 21
441.4521614477
 31
0.0
  0
LINE
  5
122
330
1F
100
AcDbEntity
  8
0
  6
SLD-Durchgehend
 62
     7
370
    25
100
AcDbLine
 10
417.9860406447
 20
441.4521614477
 30
0.0
 11
417.9860406447
 21
443.4021614477
 31
0.0
  0
LINE
  5
123
330
1F
100
AcDbEntity
  8
0
  6
SLD-Durchgehend
 62
     7
370
    25
100
AcDbLine
 10
379.8843095018
 20
444.1521614477
 30
0.0
 11
379.8843095103
 21
444.3521614477
 31
0.0
  0
LINE
  5
124
330
1F
100
AcDbEntity
  8
0
  6
SLD-Durchgehend
 62
     7
370
    25
100
AcDbLine
 10
379.8843095018
 20
444.1521614477
 30
0.0
 11
379.7263924489
 21
444.1521614477
 31
0.0
  0
LINE
  5
125
330
1F
100
AcDbEntity
  8
0
  6
SLD-Durchgehend
 62
     7
370
    25
100
AcDbLine
 10
389.3889569377
 20
444.1521614477
 30
0.0
 11
389.3889569462
 21
444.3521614477
 31
0.0
  0
LINE
  5
126
330
1F
100
AcDbEntity
  8
0
  6
SLD-Durchgehend
 62
     7
370
    25
100
AcDbLine
 10
389.3889569377
 20
444.1521614477
 30
0.0
 11
389.2310398848
 21
444.1521614477
 31
0.0
  0
LINE
  5
127
330
1F
100
AcDbEntity
  8
0
  6
SLD-Durchgehend
 62
     7
370
    25
100
AcDbLine
 10
465.56666957
 20
444.1521614477
 30
0.0
 11
465.5666695738
 21
444.3521614477
 31
0.0
  0
SPLINE
  5
128
330
1F
100
AcDbEntity
  8
0
  6
SLD-Durchgehend
 62
     7
370
    25
100
AcDbSpline
210
0.0
220
0.0
230
1.0
 70
    24
 71
     3
 72
    10
 73
     6
 74
     0
 42
0.000000001
 43
0.00000001
 40
0.0
 40
0.0
 40
0.0
 40
0.0
 40
0.2808258539295848
 40
0.5616496242547483
 40
0.9999999999999999
 40
0.9999999999999999
 40
0.9999999999999999
 40
0.9999999999999999
 10
465.5666695699742
 20
444.1521614477194
 30
0.0
 10
465.5515703712621
 20
444.1521614477194
 30
0.0
 10
465.5213720858674
 20
444.1521614477194
 30
0.0
 10
465.4304032597764
 20
444.1521614477194
 30
0.0
 10
465.3466967649422
 20
444.1521614477194
 30
0.0
 10
465.2956760578389
 20
444.1521614477194
 30
0.0
  0
SPLINE
  5
129
330
1F
100
AcDbEntity
  8
0
  6
SLD-Durchgehend
 62
     7
370
    25
100
AcDbSpline
210
0.0
220
0.0
230
1.0
 70
    24
 71
     3
 72
     9
 73
     5
 74
     0
 42
0.000000001
 43
0.00000001
 40
0.0
 40
0.0
 40
0.0
 40
0.0
 40
0.0681072054080456
 40
1.0
 40
1.0
 40
1.0
 40
1.0
 10
384.914283729684
 20
444.1521614477194
 30
0.0
 10
384.9092763700999
 20
444.1521614477194
 30
0.0
 10
384.8357546398503
 20
444.1521614477194
 30
0.0
 10
384.7820131930301
 20
444.1521614477194
 30
0.0
 10
384.7319319259674
 20
444.1521614477194
 30
0.0
  0
LINE
  5
12A
330
1F
100
AcDbEntity
  8
0
  6
SLD-Durchgehend
 62
     7
370
    25
100
AcDbLine
 10
384.7319319172
 20
444.3521614477
 30
0.0
 11
384.731931926
 21
444.1521614477
 31
0.0
  0
SPLINE
  5
12B
330
1F
100
AcDbEntity
  8
0
  6
SLD-Durchgehend
 62
     7
370
    25
100
AcDbSpline
210
0.0
220
0.0
230
1.0
 70
    24
 71
     3
 72
     9
 73
     5
 74
     0
 42
0.000000001
 43
0.00000001
 40
0.0
 40
0.0
 40
0.0
 40
0.0
 40
0.0681072054080891
 40
1.0
 40
1.0
 40
1.0
 40
1.0
 10
391.264283729684
 20
444.1521614477194
 30
0.0
 10
391.2592763700999
 20
444.1521614477194
 30
0.0
 10
391.1857546398502
 20
444.1521614477194
 30
0.0
 10
391.1320131930301
 20
444.1521614477194
 30
0.0
 10
391.0819319259675
 20
444.1521614477194
 30
0.0
  0
LINE
  5
12C
330
1F
100
AcDbEntity
  8
0
  6
SLD-Durchgehend
 62
     7
370
    25
100
AcDbLine
 10
391.0819319172
 20
444.3521614477
 30
0.0
 11
391.081931926
 21
444.1521614477
 31
0.0
  0
LINE
  5
12D
330
1F
100
AcDbEntity
  8
0
  6
SLD-Durchgehend
 62
     7
370
    25
100
AcDbLine
 10
382.6516232147
 20
444.1521614477
 30
0.0
 11
382.6516232225
 21
444.3521614477
 31
0.0
  0
SPLINE
  5
12E
330
1F
100
AcDbEntity
  8
0
  6
SLD-Durchgehend
 62
     7
370
    25
100
AcDbSpline
210
0.0
220
0.0
230
1.0
 70
    24
 71
     3
 72
     9
 73
     5
 74
     0
 42
0.000000001
 43
0.00000001
 40
0.0
 40
0.0
 40
0.0
 40
0.0
 40
0.5593665881447711
 40
1.0
 40
1.0
 40
1.0
 40
1.0
 10
382.6516232147195
 20
444.1521614477194
 30
0.0
 10
382.5951890455418
 20
444.1521614477194
 30
0.0
 10
382.4942996281653
 20
444.1521614477194
 30
0.0
 10
382.3537904976781
 20
444.1521614477194
 30
0.0
 10
382.2918774801147
 20
444.1521614477194
 30
0.0
  0
SPLINE
  5
12F
330
1F
100
AcDbEntity
  8
0
  6
SLD-Durchgehend
 62
     7
370
    25
100
AcDbSpline
210
0.0
220
0.0
230
1.0
 70
    24
 71
     3
 72
     9
 73
     5
 74
     0
 42
0.000000001
 43
0.00000001
 40
0.0
 40
0.0
 40
0.0
 40
0.0
 40
0.5591711906200323
 40
1.0
 40
1.0
 40
1.0
 40
1.0
 10
379.483541642775
 20
444.1521614477194
 30
0.0
 10
379.4048387999213
 20
444.1521614477194
 30
0.0
 10
379.2640896980828
 20
444.1521614477194
 30
0.0
 10
379.172242034573
 20
444.1521614477194
 30
0.0
 10
379.1317529384237
 20
444.1521614477194
 30
0.0
  0
LINE
  5
130
330
1F
100
AcDbEntity
  8
0
  6
SLD-Durchgehend
 62
     7
370
    25
100
AcDbLine
 10
379.1317529322
 20
444.3521614477
 30
0.0
 11
379.1317529384
 21
444.1521614477
 31
0.0
  0
SPLINE
  5
131
330
1F
100
AcDbEntity
  8
0
  6
SLD-Durchgehend
 62
     7
370
    25
100
AcDbSpline
210
0.0
220
0.0
230
1.0
 70
    24
 71
     3
 72
     9
 73
     5
 74
     0
 42
0.000000001
 43
0.00000001
 40
0.0
 40
0.0
 40
0.0
 40
0.0
 40
0.5591711906200508
 40
1.0
 40
1.0
 40
1.0
 40
1.0
 10
388.9881890786725
 20
444.1521614477194
 30
0.0
 10
388.9094862358187
 20
444.1521614477194
 30
0.0
 10
388.7687371339803
 20
444.1521614477194
 30
0.0
 10
388.6768894704705
 20
444.1521614477194
 30
0.0
 10
388.6364003743211
 20
444.1521614477194
 30
0.0
  0
LINE
  5
132
330
1F
100
AcDbEntity
  8
0
  6
SLD-Durchgehend
 62
     7
370
    25
100
AcDbLine
 10
388.636400368
 20
444.3521614477
 30
0.0
 11
388.6364003743
 21
444.1521614477
 31
0.0
  0
SPLINE
  5
133
330
1F
100
AcDbEntity
  8
0
  6
SLD-Durchgehend
 62
     7
370
    25
100
AcDbSpline
210
0.0
220
0.0
230
1.0
 70
    24
 71
     3
 72
     9
 73
     5
 74
     0
 42
0.000000001
 43
0.00000001
 40
0.0
 40
0.0
 40
0.0
 40
0.0
 40
0.0701022623237358
 40
1.0
 40
1.0
 40
1.0
 40
1.0
 10
394.2548853981538
 20
444.1521614477194
 30
0.0
 10
394.2497284696581
 20
444.1521614477194
 30
0.0
 10
394.1761655299644
 20
444.1521614477194
 30
0.0
 10
394.1230199510442
 20
444.1521614477194
 30
0.0
 10
394.0735999974388
 20
444.1521614477194
 30
0.0
  0
LINE
  5
134
330
1F
100
AcDbEntity
  8
0
  6
SLD-Durchgehend
 62
     7
370
    25
100
AcDbLine
 10
394.0735999892
 20
444.3521614477
 30
0.0
 11
394.0735999974
 21
444.1521614477
 31
0.0
  0
SPLINE
  5
135
330
1F
100
AcDbEntity
  8
0
  6
SLD-Durchgehend
 62
     7
370
    25
100
AcDbSpline
210
0.0
220
0.0
230
1.0
 70
    24
 71
     3
 72
     9
 73
     5
 74
     0
 42
0.000000001
 43
0.00000001
 40
0.0
 40
0.0
 40
0.0
 40
0.0
 40
0.070102262323691
 40
0.9999999999999999
 40
0.9999999999999999
 40
0.9999999999999999
 40
0.9999999999999999
 10
380.7611353981538
 20
444.1521614477194
 30
0.0
 10
380.755978469658
 20
444.1521614477194
 30
0.0
 10
380.6824155299644
 20
444.1521614477194
 30
0.0
 10
380.6292699510443
 20
444.1521614477194
 30
0.0
 10
380.5798499974388
 20
444.1521614477194
 30
0.0
  0
LINE
  5
136
330
1F
100
AcDbEntity
  8
0
  6
SLD-Durchgehend
 62
     7
370
    25
100
AcDbLine
 10
380.5798499892
 20
444.3521614477
 30
0.0
 11
380.5798499974
 21
444.1521614477
 31
0.0
  0
SPLINE
  5
137
330
1F
100
AcDbEntity
  8
0
  6
SLD-Durchgehend
 62
     7
370
    25
100
AcDbSpline
210
0.0
220
0.0
230
1.0
 70
    24
 71
     3
 72
     9
 73
     5
 74
     0
 42
0.000000001
 43
0.00000001
 40
0.0
 40
0.0
 40
0.0
 40
0.0
 40
0.0701022623237885
 40
0.9999999999999999
 40
0.9999999999999999
 40
0.9999999999999999
 40
0.9999999999999999
 10
466.6896610391793
 20
444.1521614477194
 30
0.0
 10
466.6845041106836
 20
444.1521614477194
 30
0.0
 10
466.6109411709899
 20
444.1521614477194
 30
0.0
 10
466.5577955920697
 20
444.1521614477194
 30
0.0
 10
466.5083756384644
 20
444.1521614477194
 30
0.0
  0
LINE
  5
138
330
1F
100
AcDbEntity
  8
0
  6
SLD-Durchgehend
 62
     7
370
    25
100
AcDbLine
 10
466.5083756302
 20
444.3521614477
 30
0.0
 11
466.5083756385
 21
444.1521614477
 31
0.0
  0
SPLINE
  5
139
330
1F
100
AcDbEntity
  8
0
  6
SLD-Durchgehend
 62
     7
370
    25
100
AcDbSpline
210
0.0
220
0.0
230
1.0
 70
    24
 71
     3
 72
     9
 73
     5
 74
     0
 42
0.000000001
 43
0.00000001
 40
0.0
 40
0.0
 40
0.0
 40
0.0
 40
0.0470782037879371
 40
1.0
 40
1.0
 40
1.0
 40
1.0
 10
392.748795654564
 20
444.1521614477194
 30
0.0
 10
392.7454884415015
 20
444.1521614477194
 30
0.0
 10
392.6752390947463
 20
444.1521614477194
 30
0.0
 10
392.62443766551
 20
444.1521614477194
 30
0.0
 10
392.5760278763121
 20
444.1521614477194
 30
0.0
  0
LINE
  5
13A
330
1F
100
AcDbEntity
  8
0
  6
SLD-Durchgehend
 62
     7
370
    25
100
AcDbLine
 10
392.5760278678
 20
444.3521614477
 30
0.0
 11
392.5760278763
 21
444.1521614477
 31
0.0
  0
LINE
  5
13B
330
1F
100
AcDbEntity
  8
0
  6
SLD-Durchgehend
 62
     7
370
    25
100
AcDbLine
 10
384.1715569245
 20
444.1521614477
 30
0.0
 11
384.1715569302
 21
444.3521614477
 31
0.0
  0
SPLINE
  5
13C
330
1F
100
AcDbEntity
  8
0
  6
SLD-Durchgehend
 62
     7
370
    25
100
AcDbSpline
210
0.0
220
0.0
230
1.0
 70
    24
 71
     3
 72
     9
 73
     5
 74
     0
 42
0.000000001
 43
0.00000001
 40
0.0
 40
0.0
 40
0.0
 40
0.0
 40
0.9469724959231441
 40
1.0
 40
1.0
 40
1.0
 40
1.0
 10
384.171556924473
 20
444.1521614477194
 30
0.0
 10
384.1355456064101
 20
444.1521614477194
 30
0.0
 10
384.0975177669343
 20
444.1521614477194
 30
0.0
 10
384.0324027151533
 20
444.1521614477194
 30
0.0
 10
384.0289498264796
 20
444.1521614477194
 30
0.0
  0
LINE
  5
13D
330
1F
100
AcDbEntity
  8
0
  6
SLD-Durchgehend
 62
     7
370
    25
100
AcDbLine
 10
447.5565083896
 20
444.3521614477
 30
0.0
 11
447.5565083896
 21
444.1521614477
 31
0.0
  0
LINE
  5
13E
330
1F
100
AcDbEntity
  8
0
  6
SLD-Durchgehend
 62
     7
370
    25
100
AcDbLine
 10
447.5853862171
 20
444.1521614477
 30
0.0
 11
447.5853862187
 21
444.3521614477
 31
0.0
  0
SPLINE
  5
13F
330
1F
100
AcDbEntity
  8
0
  6
SLD-Durchgehend
 62
     7
370
    25
100
AcDbSpline
210
0.0
220
0.0
230
1.0
 70
    24
 71
     3
 72
     9
 73
     5
 74
     0
 42
0.000000001
 43
0.00000001
 40
0.0
 40
0.0
 40
0.0
 40
0.0
 40
0.55985705647656
 40
1.0
 40
1.0
 40
1.0
 40
1.0
 10
447.5853862170889
 20
444.1521614477194
 30
0.0
 10
447.5760365055144
 20
444.1521614477194
 30
0.0
 10
447.5593363291635
 20
444.1521614477194
 30
0.0
 10
447.557372677148
 20
444.1521614477194
 30
0.0
 10
447.5565083895698
 20
444.1521614477194
 30
0.0
  0
LINE
  5
140
330
1F
100
AcDbEntity
  8
0
  6
SLD-Durchgehend
 62
     7
370
    25
100
AcDbLine
 10
387.6344014932
 20
444.1521614477
 30
0.0
 11
387.6344014938
 21
444.3521614477
 31
0.0
  0
LINE
  5
141
330
1F
100
AcDbEntity
  8
0
  6
SLD-Durchgehend
 62
     7
370
    25
100
AcDbLine
 10
387.6344014932
 20
444.1521614477
 30
0.0
 11
387.5317127794
 21
444.1521614477
 31
0.0
  0
LINE
  5
142
330
1F
100
AcDbEntity
  8
0
  6
SLD-Durchgehend
 62
     7
370
    25
100
AcDbLine
 10
462.5069669862
 20
444.1521614477
 30
0.0
 11
462.5069669863
 21
444.3521614477
 31
0.0
  0
SPLINE
  5
143
330
1F
100
AcDbEntity
  8
0
  6
SLD-Durchgehend
 62
     7
370
    25
100
AcDbSpline
210
0.0
220
0.0
230
1.0
 70
    24
 71
     3
 72
     9
 73
     5
 74
     0
 42
0.000000001
 43
0.00000001
 40
0.0
 40
0.0
 40
0.0
 40
0.0
 40
0.9406933888439433
 40
0.9999999999999999
 40
0.9999999999999999
 40
0.9999999999999999
 40
0.9999999999999999
 10
462.5069669862177
 20
444.1521614477194
 30
0.0
 10
462.4952340209541
 20
444.1521614477194
 30
0.0
 10
462.4827613434558
 20
444.1521614477194
 30
0.0
 10
462.4157055022213
 20
444.1521614477194
 30
0.0
 10
462.4117286475195
 20
444.1521614477194
 30
0.0
  0
LINE
  5
144
330
1F
100
AcDbEntity
  8
0
  6
SLD-Durchgehend
 62
     7
370
    25
100
AcDbLine
 10
383.3257241348
 20
444.3521614477
 30
0.0
 11
383.3257241348
 21
444.1521614477
 31
0.0
  0
LINE
  5
145
330
1F
100
AcDbEntity
  8
0
  6
SLD-Durchgehend
 62
     7
370
    25
100
AcDbLine
 10
383.4556493268
 20
444.1521614477
 30
0.0
 11
383.4556493221
 21
444.3521614477
 31
0.0
  0
SPLINE
  5
146
330
1F
100
AcDbEntity
  8
0
  6
SLD-Durchgehend
 62
     7
370
    25
100
AcDbSpline
210
0.0
220
0.0
230
1.0
 70
    24
 71
     3
 72
     9
 73
     5
 74
     0
 42
0.000000001
 43
0.00000001
 40
0.0
 40
0.0
 40
0.0
 40
0.0
 40
0.5600357484276877
 40
1.0
 40
1.0
 40
1.0
 40
1.0
 10
383.4556493267639
 20
444.1521614477194
 30
0.0
 10
383.4342439358595
 20
444.1521614477194
 30
0.0
 10
383.3960224634543
 20
444.1521614477194
 30
0.0
 10
383.3472029676818
 20
444.1521614477194
 30
0.0
 10
383.3257241347622
 20
444.1521614477194
 30
0.0
  0
LINE
  5
147
330
1F
100
AcDbEntity
  8
0
  6
SLD-Durchgehend
 62
     7
370
    25
100
AcDbLine
 10
382.7606246256
 20
444.3521614477
 30
0.0
 11
382.7606246256
 21
444.1521614477
 31
0.0
  0
SPLINE
  5
148
330
1F
100
AcDbEntity
  8
0
  6
SLD-Durchgehend
 62
     7
370
    25
100
AcDbSpline
210
0.0
220
0.0
230
1.0
 70
    24
 71
     3
 72
     9
 73
     5
 74
     0
 42
0.000000001
 43
0.00000001
 40
0.0
 40
0.0
 40
0.0
 40
0.0
 40
0.5599330063887682
 40
1.0
 40
1.0
 40
1.0
 40
1.0
 10
383.0865815065571
 20
444.1521614477194
 30
0.0
 10
383.0116718053241
 20
444.1521614477194
 30
0.0
 10
382.8778884770005
 20
444.1521614477194
 30
0.0
 10
382.7964590352325
 20
444.1521614477194
 30
0.0
 10
382.7606246256022
 20
444.1521614477194
 30
0.0
  0
LINE
  5
149
330
1F
100
AcDbEntity
  8
0
  6
SLD-Durchgehend
 62
     7
370
    25
100
AcDbLine
 10
435.9564038844
 20
445.6521614477
 30
0.0
 11
435.9564038891
 21
445.4521614477
 31
0.0
  0
LINE
  5
14A
330
1F
100
AcDbEntity
  8
0
  6
SLD-Durchgehend
 62
     7
370
    25
100
AcDbLine
 10
394.9342127553
 20
444.1521614477
 30
0.0
 11
394.9342127534
 21
444.3521614477
 31
0.0
  0
SPLINE
  5
14B
330
1F
100
AcDbEntity
  8
0
  6
SLD-Durchgehend
 62
     7
370
    25
100
AcDbSpline
210
0.0
220
0.0
230
1.0
 70
    24
 71
     3
 72
     9
 73
     5
 74
     0
 42
0.000000001
 43
0.00000001
 40
0.0
 40
0.0
 40
0.0
 40
0.0
 40
0.5591719462121321
 40
0.9999999999999999
 40
0.9999999999999999
 40
0.9999999999999999
 40
0.9999999999999999
 10
394.9342127552704
 20
444.1521614477194
 30
0.0
 10
394.8624685237434
 20
444.1521614477194
 30
0.0
 10
394.7341641050166
 20
444.1521614477194
 30
0.0
 10
394.5707037289115
 20
444.1521614477194
 30
0.0
 10
394.4986458094417
 20
444.1521614477194
 30
0.0
  0
LINE
  5
14C
330
1F
100
AcDbEntity
  8
0
  6
SLD-Durchgehend
 62
     7
370
    25
100
AcDbLine
 10
467.3689883963
 20
444.1521614477
 30
0.0
 11
467.3689883944
 21
444.3521614477
 31
0.0
  0
SPLINE
  5
14D
330
1F
100
AcDbEntity
  8
0
  6
SLD-Durchgehend
 62
     7
370
    25
100
AcDbSpline
210
0.0
220
0.0
230
1.0
 70
    24
 71
     3
 72
     9
 73
     5
 74
     0
 42
0.000000001
 43
0.00000001
 40
0.0
 40
0.0
 40
0.0
 40
0.0
 40
0.5591719462121097
 40
1.0
 40
1.0
 40
1.0
 40
1.0
 10
467.3689883962959
 20
444.1521614477194
 30
0.0
 10
467.2972441647689
 20
444.1521614477194
 30
0.0
 10
467.1689397460422
 20
444.1521614477194
 30
0.0
 10
467.0054793699371
 20
444.1521614477194
 30
0.0
 10
466.9334214504672
 20
444.1521614477194
 30
0.0
  0
LINE
  5
14E
330
1F
100
AcDbEntity
  8
0
  6
SLD-Durchgehend
 62
     7
370
    25
100
AcDbLine
 10
393.4281230117
 20
444.1521614477
 30
0.0
 11
393.4281230098
 21
444.3521614477
 31
0.0
  0
SPLINE
  5
14F
330
1F
100
AcDbEntity
  8
0
  6
SLD-Durchgehend
 62
     7
370
    25
100
AcDbSpline
210
0.0
220
0.0
230
1.0
 70
    24
 71
     3
 72
     9
 73
     5
 74
     0
 42
0.000000001
 43
0.00000001
 40
0.0
 40
0.0
 40
0.0
 40
0.0
 40
0.5591719462121454
 40
1.0
 40
1.0
 40
1.0
 40
1.0
 10
393.4281230116806
 20
444.1521614477194
 30
0.0
 10
393.3563787801536
 20
444.1521614477194
 30
0.0
 10
393.2280743614269
 20
444.1521614477194
 30
0.0
 10
393.0646139853218
 20
444.1521614477194
 30
0.0
 10
392.9925560658519
 20
444.1521614477194
 30
0.0
  0
LINE
  5
150
330
1F
100
AcDbEntity
  8
0
  6
SLD-Durchgehend
 62
     7
370
    25
100
AcDbLine
 10
381.4404627553
 20
444.1521614477
 30
0.0
 11
381.4404627534
 21
444.3521614477
 31
0.0
  0
SPLINE
  5
151
330
1F
100
AcDbEntity
  8
0
  6
SLD-Durchgehend
 62
     7
370
    25
100
AcDbSpline
210
0.0
220
0.0
230
1.0
 70
    24
 71
     3
 72
     9
 73
     5
 74
     0
 42
0.000000001
 43
0.00000001
 40
0.0
 40
0.0
 40
0.0
 40
0.0
 40
0.5591719462121479
 40
1.0
 40
1.0
 40
1.0
 40
1.0
 10
381.4404627552704
 20
444.1521614477194
 30
0.0
 10
381.3687185237433
 20
444.1521614477194
 30
0.0
 10
381.2404141050167
 20
444.1521614477194
 30
0.0
 10
381.0769537289115
 20
444.1521614477194
 30
0.0
 10
381.0048958094416
 20
444.1521614477194
 30
0.0
  0
LINE
  5
152
330
1F
100
AcDbEntity
  8
0
  6
SLD-Durchgehend
 62
     7
370
    25
100
AcDbLine
 10
385.581644737
 20
444.1521614477
 30
0.0
 11
385.5816447322
 21
444.3521614477
 31
0.0
  0
SPLINE
  5
153
330
1F
100
AcDbEntity
  8
0
  6
SLD-Durchgehend
 62
     7
370
    25
100
AcDbSpline
210
0.0
220
0.0
230
1.0
 70
    24
 71
     3
 72
     9
 73
     5
 74
     0
 42
0.000000001
 43
0.00000001
 40
0.0
 40
0.0
 40
0.0
 40
0.0
 40
0.5585807007218316
 40
0.9999999999999999
 40
0.9999999999999999
 40
0.9999999999999999
 40
0.9999999999999999
 10
385.58164473705
 20
444.1521614477194
 30
0.0
 10
385.5128952943389
 20
444.1521614477194
 30
0.0
 10
385.3898164936887
 20
444.1521614477194
 30
0.0
 10
385.2294956525878
 20
444.1521614477194
 30
0.0
 10
385.1587269392493
 20
444.1521614477194
 30
0.0
  0
LINE
  5
154
330
1F
100
AcDbEntity
  8
0
  6
SLD-Durchgehend
 62
     7
370
    25
100
AcDbLine
 10
391.9316447371
 20
444.1521614477
 30
0.0
 11
391.9316447322
 21
444.3521614477
 31
0.0
  0
SPLINE
  5
155
330
1F
100
AcDbEntity
  8
0
  6
SLD-Durchgehend
 62
     7
370
    25
100
AcDbSpline
210
0.0
220
0.0
230
1.0
 70
    24
 71
     3
 72
     9
 73
     5
 74
     0
 42
0.000000001
 43
0.00000001
 40
0.0
 40
0.0
 40
0.0
 40
0.0
 40
0.5585807007218443
 40
1.0
 40
1.0
 40
1.0
 40
1.0
 10
391.93164473705
 20
444.1521614477194
 30
0.0
 10
391.8628952943388
 20
444.1521614477194
 30
0.0
 10
391.7398164936886
 20
444.1521614477194
 30
0.0
 10
391.5794956525878
 20
444.1521614477194
 30
0.0
 10
391.5087269392493
 20
444.1521614477194
 30
0.0
  0
LINE
  5
156
330
1F
100
AcDbEntity
  8
0
  6
SLD-Durchgehend
 62
     7
370
    25
100
AcDbLine
 10
378.6926537221
 20
444.3521614477
 30
0.0
 11
378.6926537221
 21
444.1521614477
 31
0.0
  0
LINE
  5
157
330
1F
100
AcDbEntity
  8
0
  6
SLD-Durchgehend
 62
     7
370
    25
100
AcDbLine
 10
378.6218882425
 20
444.3521614477
 30
0.0
 11
378.6218882425
 21
444.1521614477
 31
0.0
  0
LINE
  5
158
330
1F
100
AcDbEntity
  8
0
  6
SLD-Durchgehend
 62
     7
370
    25
100
AcDbLine
 10
378.6926537221
 20
444.1521614477
 30
0.0
 11
378.6218882425
 21
444.1521614477
 31
0.0
  0
LINE
  5
159
330
1F
100
AcDbEntity
  8
0
  6
SLD-Durchgehend
 62
     7
370
    25
100
AcDbLine
 10
377.9011297838
 20
444.3521614477
 30
0.0
 11
377.9011297838
 21
444.1521614477
 31
0.0
  0
LINE
  5
15A
330
1F
100
AcDbEntity
  8
0
  6
SLD-Durchgehend
 62
     7
370
    25
100
AcDbLine
 10
377.9729839631
 20
444.1521614477
 30
0.0
 11
377.9729839631
 21
444.3521614477
 31
0.0
  0
LINE
  5
15B
330
1F
100
AcDbEntity
  8
0
  6
SLD-Durchgehend
 62
     7
370
    25
100
AcDbLine
 10
377.9729839631
 20
444.1521614477
 30
0.0
 11
377.9011297838
 21
444.1521614477
 31
0.0
  0
LINE
  5
15C
330
1F
100
AcDbEntity
  8
0
  6
SLD-Durchgehend
 62
     7
370
    25
100
AcDbLine
 10
460.4279151404
 20
444.3521614477
 30
0.0
 11
460.4279151404
 21
444.1521614477
 31
0.0
  0
LINE
  5
15D
330
1F
100
AcDbEntity
  8
0
  6
SLD-Durchgehend
 62
     7
370
    25
100
AcDbLine
 10
460.8593312125
 20
444.1521614477
 30
0.0
 11
460.8593312125
 21
444.3521614477
 31
0.0
  0
LINE
  5
15E
330
1F
100
AcDbEntity
  8
0
  6
SLD-Durchgehend
 62
     7
370
    25
100
AcDbLine
 10
460.8593312125
 20
444.1521614477
 30
0.0
 11
460.6914864208
 21
444.1521614477
 31
0.0
  0
LINE
  5
15F
330
1F
100
AcDbEntity
  8
0
  6
SLD-Durchgehend
 62
     7
370
    25
100
AcDbLine
 10
460.541444287
 20
444.1521614477
 30
0.0
 11
460.4279151404
 21
444.1521614477
 31
0.0
  0
LINE
  5
160
330
1F
100
AcDbEntity
  8
0
  6
SLD-Durchgehend
 62
     7
370
    25
100
AcDbLine
 10
396.9132867349
 20
444.3521614477
 30
0.0
 11
396.9132867349
 21
444.1521614477
 31
0.0
  0
LINE
  5
161
330
1F
100
AcDbEntity
  8
0
  6
SLD-Durchgehend
 62
     7
370
    25
100
AcDbLine
 10
396.9908433255
 20
444.1521614477
 30
0.0
 11
396.9908433255
 21
444.3521614477
 31
0.0
  0
LINE
  5
162
330
1F
100
AcDbEntity
  8
0
  6
SLD-Durchgehend
 62
     7
370
    25
100
AcDbLine
 10
396.9908433255
 20
444.1521614477
 30
0.0
 11
396.9132867349
 21
444.1521614477
 31
0.0
  0
LINE
  5
163
330
1F
100
AcDbEntity
  8
0
  6
SLD-Durchgehend
 62
     7
370
    25
100
AcDbLine
 10
395.5630213102
 20
444.3521614477
 30
0.0
 11
395.5630213102
 21
444.1521614477
 31
0.0
  0
LINE
  5
164
330
1F
100
AcDbEntity
  8
0
  6
SLD-Durchgehend
 62
     7
370
    25
100
AcDbLine
 10
395.4849939665
 20
444.3521614477
 30
0.0
 11
395.4849939665
 21
444.1521614477
 31
0.0
  0
LINE
  5
165
330
1F
100
AcDbEntity
  8
0
  6
SLD-Durchgehend
 62
     7
370
    25
100
AcDbLine
 10
395.5630213102
 20
444.1521614477
 30
0.0
 11
395.4849939665
 21
444.1521614477
 31
0.0
  0
LINE
  5
166
330
1F
100
AcDbEntity
  8
0
  6
SLD-Durchgehend
 62
     7
370
    25
100
AcDbLine
 10
461.4469820476
 20
444.3521614477
 30
0.0
 11
461.4469820475
 21
444.1521614477
 31
0.0
  0
SPLINE
  5
167
330
1F
100
AcDbEntity
  8
0
  6
SLD-Durchgehend
 62
     7
370
    25
100
AcDbSpline
210
0.0
220
0.0
230
1.0
 70
    24
 71
     3
 72
     9
 73
     5
 74
     0
 42
0.000000001
 43
0.00000001
 40
0.0
 40
0.0
 40
0.0
 40
0.0
 40
0.0163612708128657
 40
1.0
 40
1.0
 40
1.0
 40
1.0
 10
461.5437930549083
 20
444.1521614477194
 30
0.0
 10
461.542519701201
 20
444.1521614477194
 30
0.0
 10
461.4646923904803
 20
444.1521614477194
 30
0.0
 10
461.4557641805523
 20
444.1521614477194
 30
0.0
 10
461.4469820474848
 20
444.1521614477194
 30
0.0
  0
LINE
  5
168
330
1F
100
AcDbEntity
  8
0
  6
SLD-Durchgehend
 62
     7
370
    25
100
AcDbLine
 10
395.5836918832
 20
444.3521614477
 30
0.0
 11
395.5836918832
 21
444.1521614477
 31
0.0
  0
LINE
  5
169
330
1F
100
AcDbEntity
  8
0
  6
SLD-Durchgehend
 62
     7
370
    25
100
AcDbLine
 10
395.8785893441
 20
444.1521614477
 30
0.0
 11
395.8785893441
 21
444.3521614477
 31
0.0
  0
LINE
  5
16A
330
1F
100
AcDbEntity
  8
0
  6
SLD-Durchgehend
 62
     7
370
    25
100
AcDbLine
 10
395.8785893441
 20
444.1521614477
 30
0.0
 11
395.7186751504
 21
444.1521614477
 31
0.0
  0
LINE
  5
16B
330
1F
100
AcDbEntity
  8
0
  6
SLD-Durchgehend
 62
     7
370
    25
100
AcDbLine
 10
395.6283589295
 20
444.1521614477
 30
0.0
 11
395.5836918832
 21
444.1521614477
 31
0.0
  0
LINE
  5
16C
330
1F
100
AcDbEntity
  8
0
  6
SLD-Durchgehend
 62
     7
370
    25
100
AcDbLine
 10
460.541444287
 20
444.1521614477
 30
0.0
 11
460.541444287
 21
444.3521614477
 31
0.0
  0
LINE
  5
16D
330
1F
100
AcDbEntity
  8
0
  6
SLD-Durchgehend
 62
     7
370
    25
100
AcDbLine
 10
396.8469325683
 20
444.3521614477
 30
0.0
 11
396.8469325683
 21
444.1521614477
 31
0.0
  0
LINE
  5
16E
330
1F
100
AcDbEntity
  8
0
  6
SLD-Durchgehend
 62
     7
370
    25
100
AcDbLine
 10
396.7549644192
 20
444.1521614477
 30
0.0
 11
396.8469325683
 21
444.1521614477
 31
0.0
  0
LINE
  5
16F
330
1F
100
AcDbEntity
  8
0
  6
SLD-Durchgehend
 62
     7
370
    25
100
AcDbLine
 10
396.5973195468
 20
444.3521614477
 30
0.0
 11
396.5973195468
 21
444.1521614477
 31
0.0
  0
LINE
  5
170
330
1F
100
AcDbEntity
  8
0
  6
SLD-Durchgehend
 62
     7
370
    25
100
AcDbLine
 10
395.6283589295
 20
444.1521614477
 30
0.0
 11
395.6283589295
 21
444.3521614477
 31
0.0
  0
LINE
  5
171
330
1F
100
AcDbEntity
  8
0
  6
SLD-Durchgehend
 62
     7
370
    25
100
AcDbLine
 10
394.3029405018
 20
444.1521614477
 30
0.0
 11
394.6864817876
 21
444.1521614477
 31
0.0
  0
LINE
  5
172
330
1F
100
AcDbEntity
  8
0
  6
SLD-Durchgehend
 62
     7
370
    25
100
AcDbLine
 10
394.3029405018
 20
444.1521614477
 30
0.0
 11
394.3029404983
 21
444.3521614477
 31
0.0
  0
LINE
  5
173
330
1F
100
AcDbEntity
  8
0
  6
SLD-Durchgehend
 62
     7
370
    25
100
AcDbLine
 10
394.0292647998
 20
444.1521614477
 30
0.0
 11
394.0292647998
 21
444.3521614477
 31
0.0
  0
LINE
  5
174
330
1F
100
AcDbEntity
  8
0
  6
SLD-Durchgehend
 62
     7
370
    25
100
AcDbLine
 10
392.7968507582
 20
444.1521614477
 30
0.0
 11
393.180392044
 21
444.1521614477
 31
0.0
  0
LINE
  5
175
330
1F
100
AcDbEntity
  8
0
  6
SLD-Durchgehend
 62
     7
370
    25
100
AcDbLine
 10
392.7968507582
 20
444.1521614477
 30
0.0
 11
392.7968507547
 21
444.3521614477
 31
0.0
  0
LINE
  5
176
330
1F
100
AcDbEntity
  8
0
  6
SLD-Durchgehend
 62
     7
370
    25
100
AcDbLine
 10
392.5231750562
 20
444.1521614477
 30
0.0
 11
392.5231750562
 21
444.3521614477
 31
0.0
  0
LINE
  5
177
330
1F
100
AcDbEntity
  8
0
  6
SLD-Durchgehend
 62
     7
370
    25
100
AcDbLine
 10
392.5231750562
 20
444.3521614477
 30
0.0
 11
392.3807071075
 21
444.3521614477
 31
0.0
  0
LINE
  5
178
330
1F
100
AcDbEntity
  8
0
  6
SLD-Durchgehend
 62
     7
370
    25
100
AcDbLine
 10
392.3807071075
 20
444.3521614477
 30
0.0
 11
392.3807071075
 21
444.1521614477
 31
0.0
  0
LINE
  5
179
330
1F
100
AcDbEntity
  8
0
  6
SLD-Durchgehend
 62
     7
370
    25
100
AcDbLine
 10
390.0401622357
 20
444.1521614477
 30
0.0
 11
390.0401622357
 21
444.3521614477
 31
0.0
  0
LINE
  5
17A
330
1F
100
AcDbEntity
  8
0
  6
SLD-Durchgehend
 62
     7
370
    25
100
AcDbLine
 10
389.897694287
 20
444.3521614477
 30
0.0
 11
390.0401622357
 21
444.3521614477
 31
0.0
  0
LINE
  5
17B
330
1F
100
AcDbEntity
  8
0
  6
SLD-Durchgehend
 62
     7
370
    25
100
AcDbLine
 10
389.897694287
 20
444.3521614477
 30
0.0
 11
389.897694287
 21
444.1521614477
 31
0.0
  0
LINE
  5
17C
330
1F
100
AcDbEntity
  8
0
  6
SLD-Durchgehend
 62
     7
370
    25
100
AcDbLine
 10
389.5720532614
 20
444.1521614477
 30
0.0
 11
389.5720532614
 21
444.3521614477
 31
0.0
  0
LINE
  5
17D
330
1F
100
AcDbEntity
  8
0
  6
SLD-Durchgehend
 62
     7
370
    25
100
AcDbLine
 10
389.5720532614
 20
444.3521614477
 30
0.0
 11
389.4295853126
 21
444.3521614477
 31
0.0
  0
LINE
  5
17E
330
1F
100
AcDbEntity
  8
0
  6
SLD-Durchgehend
 62
     7
370
    25
100
AcDbLine
 10
389.4295853126
 20
444.3521614477
 30
0.0
 11
389.4295853126
 21
444.1521614477
 31
0.0
  0
LINE
  5
17F
330
1F
100
AcDbEntity
  8
0
  6
SLD-Durchgehend
 62
     7
370
    25
100
AcDbLine
 10
384.3210917229
 20
444.3521614477
 30
0.0
 11
384.1786237742
 21
444.3521614477
 31
0.0
  0
LINE
  5
180
330
1F
100
AcDbEntity
  8
0
  6
SLD-Durchgehend
 62
     7
370
    25
100
AcDbLine
 10
383.6291045434
 20
444.1521614477
 30
0.0
 11
383.6291045434
 21
444.3521614477
 31
0.0
  0
LINE
  5
181
330
1F
100
AcDbEntity
  8
0
  6
SLD-Durchgehend
 62
     7
370
    25
100
AcDbLine
 10
383.6291045434
 20
444.3521614477
 30
0.0
 11
383.4866365947
 21
444.3521614477
 31
0.0
  0
LINE
  5
182
330
1F
100
AcDbEntity
  8
0
  6
SLD-Durchgehend
 62
     7
370
    25
100
AcDbLine
 10
383.4866365947
 20
444.3521614477
 30
0.0
 11
383.4866365947
 21
444.1521614477
 31
0.0
  0
LINE
  5
183
330
1F
100
AcDbEntity
  8
0
  6
SLD-Durchgehend
 62
     7
370
    25
100
AcDbLine
 10
383.4556493221
 20
444.3521614477
 30
0.0
 11
383.2671731262
 21
444.3521614477
 31
0.0
  0
LINE
  5
184
330
1F
100
AcDbEntity
  8
0
  6
SLD-Durchgehend
 62
     7
370
    25
100
AcDbLine
 10
382.9649298555
 20
444.3521614477
 30
0.0
 11
382.7606246256
 21
444.3521614477
 31
0.0
  0
LINE
  5
185
330
1F
100
AcDbEntity
  8
0
  6
SLD-Durchgehend
 62
     7
370
    25
100
AcDbLine
 10
382.4749543655
 20
444.3521614477
 30
0.0
 11
382.4749543678
 21
444.1521614477
 31
0.0
  0
LINE
  5
186
330
1F
100
AcDbEntity
  8
0
  6
SLD-Durchgehend
 62
     7
370
    25
100
AcDbLine
 10
382.1678280656
 20
444.1521614477
 30
0.0
 11
382.4749543678
 21
444.1521614477
 31
0.0
  0
LINE
  5
187
330
1F
100
AcDbEntity
  8
0
  6
SLD-Durchgehend
 62
     7
370
    25
100
AcDbLine
 10
381.9670417213
 20
444.3521614477
 30
0.0
 11
381.9670417213
 21
444.1521614477
 31
0.0
  0
LINE
  5
188
330
1F
100
AcDbEntity
  8
0
  6
SLD-Durchgehend
 62
     7
370
    25
100
AcDbLine
 10
380.8091905018
 20
444.1521614477
 30
0.0
 11
381.1927317876
 21
444.1521614477
 31
0.0
  0
LINE
  5
189
330
1F
100
AcDbEntity
  8
0
  6
SLD-Durchgehend
 62
     7
370
    25
100
AcDbLine
 10
380.8091905018
 20
444.1521614477
 30
0.0
 11
380.8091904983
 21
444.3521614477
 31
0.0
  0
LINE
  5
18A
330
1F
100
AcDbEntity
  8
0
  6
SLD-Durchgehend
 62
     7
370
    25
100
AcDbLine
 10
380.5355147998
 20
444.1521614477
 30
0.0
 11
380.5355147998
 21
444.3521614477
 31
0.0
  0
LINE
  5
18B
330
1F
100
AcDbEntity
  8
0
  6
SLD-Durchgehend
 62
     7
370
    25
100
AcDbLine
 10
380.5355147998
 20
444.3521614477
 30
0.0
 11
380.3930468511
 21
444.3521614477
 31
0.0
  0
LINE
  5
18C
330
1F
100
AcDbEntity
  8
0
  6
SLD-Durchgehend
 62
     7
370
    25
100
AcDbLine
 10
380.3930468511
 20
444.3521614477
 30
0.0
 11
380.3930468511
 21
444.1521614477
 31
0.0
  0
LINE
  5
18D
330
1F
100
AcDbEntity
  8
0
  6
SLD-Durchgehend
 62
     7
370
    25
100
AcDbLine
 10
380.0674058255
 20
444.1521614477
 30
0.0
 11
380.0674058255
 21
444.3521614477
 31
0.0
  0
LINE
  5
18E
330
1F
100
AcDbEntity
  8
0
  6
SLD-Durchgehend
 62
     7
370
    25
100
AcDbLine
 10
380.0674058255
 20
444.3521614477
 30
0.0
 11
379.9249378767
 21
444.3521614477
 31
0.0
  0
LINE
  5
18F
330
1F
100
AcDbEntity
  8
0
  6
SLD-Durchgehend
 62
     7
370
    25
100
AcDbLine
 10
379.9249378767
 20
444.3521614477
 30
0.0
 11
379.9249378767
 21
444.1521614477
 31
0.0
  0
ARC
  5
190
330
1F
100
AcDbEntity
  8
0
  6
SLD-Durchgehend
 62
     7
370
    25
100
AcDbCircle
 10
366.2360406447
 20
443.4021614477
 30
0.0
 40
0.75
100
AcDbArc
 50
90.0
 51
180.0
  0
LINE
  5
191
330
1F
100
AcDbEntity
  8
0
  6
SLD-Durchgehend
 62
     7
370
    25
100
AcDbLine
 10
365.4860406447
 20
443.4021614477
 30
0.0
 11
365.4860406447
 21
440.6521614477
 31
0.0
  0
LINE
  5
192
330
1F
100
AcDbEntity
  8
0
  6
SLD-Durchgehend
 62
     7
370
    25
100
AcDbLine
 10
363.9860406447
 20
440.6521614477
 30
0.0
 11
365.4860406447
 21
440.6521614477
 31
0.0
  0
LINE
  5
193
330
1F
100
AcDbEntity
  8
0
  6
SLD-Durchgehend
 62
     7
370
    25
100
AcDbLine
 10
363.9860406447
 20
443.4021614477
 30
0.0
 11
363.9860406447
 21
440.6521614477
 31
0.0
  0
ARC
  5
194
330
1F
100
AcDbEntity
  8
0
  6
SLD-Durchgehend
 62
     7
370
    25
100
AcDbCircle
 10
366.2360406447
 20
443.4021614477
 30
0.0
 40
2.25
100
AcDbArc
 50
90.0
 51
180.0
  0
LINE
  5
195
330
1F
100
AcDbEntity
  8
0
  6
SLD-Durchgehend
 62
     7
370
    25
100
AcDbLine
 10
406.9360675395
 20
445.4521614477
 30
0.0
 11
406.9360675395
 21
445.6521614477
 31
0.0
  0
LINE
  5
196
330
1F
100
AcDbEntity
  8
0
  6
SLD-Durchgehend
 62
     7
370
    25
100
AcDbLine
 10
408.0101118254
 20
445.6521614477
 30
0.0
 11
409.4410293879
 21
445.6521614477
 31
0.0
  0
LINE
  5
197
330
1F
100
AcDbEntity
  8
0
  6
SLD-Durchgehend
 62
     7
370
    25
100
AcDbLine
 10
409.4410293879
 20
445.6521614477
 30
0.0
 11
409.4410293879
 21
445.4521614477
 31
0.0
  0
LINE
  5
198
330
1F
100
AcDbEntity
  8
0
  6
SLD-Durchgehend
 62
     7
370
    25
100
AcDbLine
 10
410.4514183958
 20
445.6521614477
 30
0.0
 11
410.4514183958
 21
445.4521614477
 31
0.0
  0
LINE
  5
199
330
1F
100
AcDbEntity
  8
0
  6
SLD-Durchgehend
 62
     7
370
    25
100
AcDbLine
 10
411.4034139089
 20
445.4521614477
 30
0.0
 11
411.4034139089
 21
445.6521614477
 31
0.0
  0
LINE
  5
19A
330
1F
100
AcDbEntity
  8
0
  6
SLD-Durchgehend
 62
     7
370
    25
100
AcDbLine
 10
412.4765394275
 20
445.4521614477
 30
0.0
 11
411.4034139089
 21
445.4521614477
 31
0.0
  0
LINE
  5
19B
330
1F
100
AcDbEntity
  8
0
  6
SLD-Durchgehend
 62
     7
370
    25
100
AcDbLine
 10
412.4765394275
 20
445.4521614477
 30
0.0
 11
412.4765394275
 21
445.6521614477
 31
0.0
  0
LINE
  5
19C
330
1F
100
AcDbEntity
  8
0
  6
SLD-Durchgehend
 62
     7
370
    25
100
AcDbLine
 10
413.9384494832
 20
445.6521614477
 30
0.0
 11
413.9384494832
 21
445.4521614477
 31
0.0
  0
LINE
  5
19D
330
1F
100
AcDbEntity
  8
0
  6
SLD-Durchgehend
 62
     7
370
    25
100
AcDbLine
 10
415.0115750018
 20
445.4521614477
 30
0.0
 11
413.9384494832
 21
445.4521614477
 31
0.0
  0
LINE
  5
19E
330
1F
100
AcDbEntity
  8
0
  6
SLD-Durchgehend
 62
     7
370
    25
100
AcDbLine
 10
416.0370840214
 20
445.4521614477
 30
0.0
 11
416.0370840214
 21
445.6521614477
 31
0.0
  0
LINE
  5
19F
330
1F
100
AcDbEntity
  8
0
  6
SLD-Durchgehend
 62
     7
370
    25
100
AcDbLine
 10
420.410534144
 20
445.6521614477
 30
0.0
 11
420.410534144
 21
445.4521614477
 31
0.0
  0
LINE
  5
1A0
330
1F
100
AcDbEntity
  8
0
  6
SLD-Durchgehend
 62
     7
370
    25
100
AcDbLine
 10
422.6730446259
 20
445.4521614477
 30
0.0
 11
422.6730446259
 21
445.6521614477
 31
0.0
  0
LINE
  5
1A1
330
1F
100
AcDbEntity
  8
0
  6
SLD-Durchgehend
 62
     7
370
    25
100
AcDbLine
 10
423.7426866183
 20
445.4521614477
 30
0.0
 11
422.6730446259
 21
445.4521614477
 31
0.0
  0
LINE
  5
1A2
330
1F
100
AcDbEntity
  8
0
  6
SLD-Durchgehend
 62
     7
370
    25
100
AcDbLine
 10
423.7426866183
 20
445.6521614477
 30
0.0
 11
423.7426866183
 21
445.4521614477
 31
0.0
  0
LINE
  5
1A3
330
1F
100
AcDbEntity
  8
0
  6
SLD-Durchgehend
 62
     7
370
    25
100
AcDbLine
 10
423.7426866183
 20
445.6521614477
 30
0.0
 11
424.7646870538
 21
445.6521614477
 31
0.0
  0
LINE
  5
1A4
330
1F
100
AcDbEntity
  8
0
  6
SLD-Durchgehend
 62
     7
370
    25
100
AcDbLine
 10
424.7646870538
 20
445.4521614477
 30
0.0
 11
424.7646870538
 21
445.6521614477
 31
0.0
  0
LINE
  5
1A5
330
1F
100
AcDbEntity
  8
0
  6
SLD-Durchgehend
 62
     7
370
    25
100
AcDbLine
 10
425.8523501321
 20
445.4521614477
 30
0.0
 11
424.7646870538
 21
445.4521614477
 31
0.0
  0
LINE
  5
1A6
330
1F
100
AcDbEntity
  8
0
  6
SLD-Durchgehend
 62
     7
370
    25
100
AcDbLine
 10
425.8523501321
 20
445.6521614477
 30
0.0
 11
425.8523501321
 21
445.4521614477
 31
0.0
  0
LINE
  5
1A7
330
1F
100
AcDbEntity
  8
0
  6
SLD-Durchgehend
 62
     7
370
    25
100
AcDbLine
 10
425.8523501321
 20
445.6521614477
 30
0.0
 11
426.8744341053
 21
445.6521614477
 31
0.0
  0
LINE
  5
1A8
330
1F
100
AcDbEntity
  8
0
  6
SLD-Durchgehend
 62
     7
370
    25
100
AcDbLine
 10
427.9403753802
 20
445.4521614477
 30
0.0
 11
426.8744341053
 21
445.4521614477
 31
0.0
  0
LINE
  5
1A9
330
1F
100
AcDbEntity
  8
0
  6
SLD-Durchgehend
 62
     7
370
    25
100
AcDbLine
 10
428.908241378
 20
445.4521614477
 30
0.0
 11
428.908241378
 21
445.6521614477
 31
0.0
  0
LINE
  5
1AA
330
1F
100
AcDbEntity
  8
0
  6
SLD-Durchgehend
 62
     7
370
    25
100
AcDbLine
 10
428.908241378
 20
445.4521614477
 30
0.0
 11
431.6302343639
 21
445.4521614477
 31
0.0
  0
LINE
  5
1AB
330
1F
100
AcDbEntity
  8
0
  6
SLD-Durchgehend
 62
     7
370
    25
100
AcDbLine
 10
431.6302343639
 20
445.6521614477
 30
0.0
 11
431.6302343639
 21
445.4521614477
 31
0.0
  0
LINE
  5
1AC
330
1F
100
AcDbEntity
  8
0
  6
SLD-Durchgehend
 62
     7
370
    25
100
AcDbLine
 10
432.5919205674
 20
445.4521614477
 30
0.0
 11
432.5919205674
 21
445.6521614477
 31
0.0
  0
LINE
  5
1AD
330
1F
100
AcDbEntity
  8
0
  6
SLD-Durchgehend
 62
     7
370
    25
100
AcDbLine
 10
435.9564038891
 20
445.4521614477
 30
0.0
 11
432.5919205674
 21
445.4521614477
 31
0.0
  0
ARC
  5
1AE
330
1F
100
AcDbEntity
  8
0
  6
SLD-Durchgehend
 62
     7
370
    25
100
AcDbCircle
 10
476.7360406447
 20
443.4021614477
 30
0.0
 40
2.25
100
AcDbArc
 50
0.0
 51
90.0
  0
LINE
  5
1AF
330
1F
100
AcDbEntity
  8
0
  6
SLD-Durchgehend
 62
     7
370
    25
100
AcDbLine
 10
478.9860406447
 20
440.6521614477
 30
0.0
 11
478.9860406447
 21
443.4021614477
 31
0.0
  0
LINE
  5
1B0
330
1F
100
AcDbEntity
  8
0
  6
SLD-Durchgehend
 62
     7
370
    25
100
AcDbLine
 10
477.4860406447
 20
440.6521614477
 30
0.0
 11
478.9860406447
 21
440.6521614477
 31
0.0
  0
LINE
  5
1B1
330
1F
100
AcDbEntity
  8
0
  6
SLD-Durchgehend
 62
     7
370
    25
100
AcDbLine
 10
477.4860406447
 20
440.6521614477
 30
0.0
 11
477.4860406447
 21
443.4021614477
 31
0.0
  0
ARC
  5
1B2
330
1F
100
AcDbEntity
  8
0
  6
SLD-Durchgehend
 62
     7
370
    25
100
AcDbCircle
 10
476.7360406447
 20
443.4021614477
 30
0.0
 40
0.75
100
AcDbArc
 50
0.0
 51
90.0
  0
LINE
  5
1B3
330
1F
100
AcDbEntity
  8
0
  6
SLD-Durchgehend
 62
     7
370
    25
100
AcDbLine
 10
466.7377161428
 20
444.1521614477
 30
0.0
 11
467.1212574286
 21
444.1521614477
 31
0.0
  0
LINE
  5
1B4
330
1F
100
AcDbEntity
  8
0
  6
SLD-Durchgehend
 62
     7
370
    25
100
AcDbLine
 10
466.7377161428
 20
444.1521614477
 30
0.0
 11
466.7377161394
 21
444.3521614477
 31
0.0
  0
LINE
  5
1B5
330
1F
100
AcDbEntity
  8
0
  6
SLD-Durchgehend
 62
     7
370
    25
100
AcDbLine
 10
465.8738160819
 20
444.3521614477
 30
0.0
 11
466.0162840306
 21
444.3521614477
 31
0.0
  0
LINE
  5
1B6
330
1F
100
AcDbEntity
  8
0
  6
SLD-Durchgehend
 62
     7
370
    25
100
AcDbLine
 10
465.8738160819
 20
444.3521614477
 30
0.0
 11
465.8738160819
 21
444.1521614477
 31
0.0
  0
LINE
  5
1B7
330
1F
100
AcDbEntity
  8
0
  6
SLD-Durchgehend
 62
     7
370
    25
100
AcDbLine
 10
465.1852275774
 20
444.1521614477
 30
0.0
 11
465.3929600379
 21
444.1521614477
 31
0.0
  0
LINE
  5
1B8
330
1F
100
AcDbEntity
  8
0
  6
SLD-Durchgehend
 62
     7
370
    25
100
AcDbLine
 10
465.1852275774
 20
444.1521614477
 30
0.0
 11
465.1852275876
 21
444.3521614477
 31
0.0
  0
LINE
  5
1B9
330
1F
100
AcDbEntity
  8
0
  6
SLD-Durchgehend
 62
     7
370
    25
100
AcDbLine
 10
464.713719928
 20
444.1521614477
 30
0.0
 11
464.713719928
 21
444.3521614477
 31
0.0
  0
LINE
  5
1BA
330
1F
100
AcDbEntity
  8
0
  6
SLD-Durchgehend
 62
     7
370
    25
100
AcDbLine
 10
464.5712519793
 20
444.3521614477
 30
0.0
 11
464.5712519793
 21
444.1521614477
 31
0.0
  0
LINE
  5
1BB
330
1F
100
AcDbEntity
  8
0
  6
SLD-Durchgehend
 62
     7
370
    25
100
AcDbLine
 10
463.0551162709
 20
444.1521614477
 30
0.0
 11
463.0551162504
 21
444.3521614477
 31
0.0
  0
LINE
  5
1BC
330
1F
100
AcDbEntity
  8
0
  6
SLD-Durchgehend
 62
     7
370
    25
100
AcDbLine
 10
395.7186751504
 20
444.3521614477
 30
0.0
 11
395.8785893441
 21
444.3521614477
 31
0.0
  0
LINE
  5
1BD
330
1F
100
AcDbEntity
  8
0
  6
SLD-Durchgehend
 62
     7
370
    25
100
AcDbLine
 10
395.4849939665
 20
444.3521614477
 30
0.0
 11
395.6283589295
 21
444.3521614477
 31
0.0
  0
LINE
  5
1BE
330
1F
100
AcDbEntity
  8
0
  6
SLD-Durchgehend
 62
     7
370
    25
100
AcDbLine
 10
417.1122979829
 20
445.6521614477
 30
0.0
 11
417.1122979829
 21
445.4521614477
 31
0.0
  0
LINE
  5
1BF
330
1F
100
AcDbEntity
  8
0
  6
SLD-Durchgehend
 62
     7
370
    25
100
AcDbLine
 10
416.0370840214
 20
445.4521614477
 30
0.0
 11
417.1122979829
 21
445.4521614477
 31
0.0
  0
LINE
  5
1C0
330
1F
100
AcDbEntity
  8
0
  6
SLD-Durchgehend
 62
     7
370
    25
100
AcDbLine
 10
384.1786237742
 20
444.3521614477
 30
0.0
 11
384.1786237742
 21
444.1521614477
 31
0.0
  0
LINE
  5
1C1
330
1F
100
AcDbEntity
  8
0
  6
SLD-Durchgehend
 62
     7
370
    25
100
AcDbLine
 10
419.3354037202
 20
445.4521614477
 30
0.0
 11
419.3354037202
 21
445.6521614477
 31
0.0
  0
LINE
  5
1C2
330
1F
100
AcDbEntity
  8
0
  6
SLD-Durchgehend
 62
     7
370
    25
100
AcDbLine
 10
464.5712519793
 20
444.3521614477
 30
0.0
 11
464.713719928
 21
444.3521614477
 31
0.0
  0
LINE
  5
1C3
330
1F
100
AcDbEntity
  8
0
  6
SLD-Durchgehend
 62
     7
370
    25
100
AcDbLine
 10
427.9403753802
 20
445.6521614477
 30
0.0
 11
427.9403753802
 21
445.4521614477
 31
0.0
  0
LINE
  5
1C4
330
1F
100
AcDbEntity
  8
0
  6
SLD-Durchgehend
 62
     7
370
    25
100
AcDbLine
 10
426.8744341053
 20
445.4521614477
 30
0.0
 11
426.8744341053
 21
445.6521614477
 31
0.0
  0
LINE
  5
1C5
330
1F
100
AcDbEntity
  8
0
  6
SLD-Durchgehend
 62
     7
370
    25
100
AcDbLine
 10
394.0292647998
 20
444.3521614477
 30
0.0
 11
393.8867968511
 21
444.3521614477
 31
0.0
  0
LINE
  5
1C6
330
1F
100
AcDbEntity
  8
0
  6
SLD-Durchgehend
 62
     7
370
    25
100
AcDbLine
 10
384.3210917229
 20
444.1521614477
 30
0.0
 11
384.3210917229
 21
444.3521614477
 31
0.0
  0
LINE
  5
1C7
330
1F
100
AcDbEntity
  8
0
  6
SLD-Durchgehend
 62
     7
370
    25
100
AcDbLine
 10
415.0115750018
 20
445.6521614477
 30
0.0
 11
415.0115750018
 21
445.4521614477
 31
0.0
  0
LINE
  5
1C8
330
1F
100
AcDbEntity
  8
0
  6
SLD-Durchgehend
 62
     7
370
    25
100
AcDbLine
 10
466.0162840306
 20
444.1521614477
 30
0.0
 11
466.0162840306
 21
444.3521614477
 31
0.0
  0
LINE
  5
1C9
330
1F
100
AcDbEntity
  8
0
  6
SLD-Durchgehend
 62
     7
370
    25
100
AcDbLine
 10
419.3354037202
 20
445.4521614477
 30
0.0
 11
420.410534144
 21
445.4521614477
 31
0.0
  0
LINE
  5
1CA
330
1F
100
AcDbEntity
  8
0
  6
SLD-Durchgehend
 62
     7
370
    25
100
AcDbLine
 10
408.0101118254
 20
445.4521614477
 30
0.0
 11
406.9360675395
 21
445.4521614477
 31
0.0
  0
LINE
  5
1CB
330
1F
100
AcDbEntity
  8
0
  6
SLD-Durchgehend
 62
     7
370
    25
100
AcDbLine
 10
410.4514183958
 20
445.4521614477
 30
0.0
 11
409.4410293879
 21
445.4521614477
 31
0.0
  0
LINE
  5
1CC
330
1F
100
AcDbEntity
  8
0
  6
SLD-Durchgehend
 62
     7
370
    25
100
AcDbLine
 10
460.3989763383
 20
444.3521614477
 30
0.0
 11
460.3989763383
 21
444.1521614477
 31
0.0
  0
LINE
  5
1CD
330
1F
100
AcDbEntity
  8
0
  6
SLD-Durchgehend
 62
     7
370
    25
100
AcDbLine
 10
408.0101118254
 20
445.4521614477
 30
0.0
 11
408.0101118254
 21
445.6521614477
 31
0.0
  0
LINE
  5
1CE
330
1F
100
AcDbEntity
  8
0
  6
SLD-Durchgehend
 62
     7
370
    25
100
AcDbLine
 10
466.4640404409
 20
444.1521614477
 30
0.0
 11
466.4640404409
 21
444.3521614477
 31
0.0
  0
LINE
  5
1CF
330
1F
100
AcDbEntity
  8
0
  6
SLD-Durchgehend
 62
     7
370
    25
100
AcDbLine
 10
466.4640404409
 20
444.3521614477
 30
0.0
 11
466.3215724921
 21
444.3521614477
 31
0.0
  0
LINE
  5
1D0
330
1F
100
AcDbEntity
  8
0
  6
SLD-Durchgehend
 62
     7
370
    25
100
AcDbLine
 10
466.3215724921
 20
444.3521614477
 30
0.0
 11
466.3215724921
 21
444.1521614477
 31
0.0
  0
LINE
  5
1D1
330
1F
100
AcDbEntity
  8
0
  6
SLD-Durchgehend
 62
     7
370
    25
100
AcDbLine
 10
393.8867968511
 20
444.3521614477
 30
0.0
 11
393.8867968511
 21
444.1521614477
 31
0.0
  0
LINE
  5
1D2
330
1F
100
AcDbEntity
  8
0
  6
SLD-Durchgehend
 62
     7
370
    25
100
AcDbLine
 10
412.4765394275
 20
445.6521614477
 30
0.0
 11
413.9384494832
 21
445.6521614477
 31
0.0
  0
LINE
  5
1D3
330
1F
100
AcDbEntity
  8
0
  6
SLD-Durchgehend
 62
     7
370
    25
100
AcDbLine
 10
447.4381769692
 20
444.3521614477
 30
0.0
 11
447.4381769723
 21
444.1521614477
 31
0.0
  0
LINE
  5
1D4
330
1F
100
AcDbEntity
  8
0
  6
SLD-Durchgehend
 62
     7
370
    25
100
AcDbLine
 10
460.541444287
 20
444.1521614477
 30
0.0
 11
460.6914864208
 21
444.1521614477
 31
0.0
  0
LINE
  5
1D5
330
1F
100
AcDbEntity
  8
0
  6
SLD-Durchgehend
 62
     7
370
    25
100
AcDbLine
 10
460.6914864208
 20
444.3521614477
 30
0.0
 11
460.6914864208
 21
444.1521614477
 31
0.0
  0
LINE
  5
1D6
330
1F
100
AcDbEntity
  8
0
  6
SLD-Durchgehend
 62
     7
370
    25
100
AcDbLine
 10
465.0136150958
 20
444.3521614477
 30
0.0
 11
465.0136150958
 21
444.1521614477
 31
0.0
  0
LINE
  5
1D7
330
1F
100
AcDbEntity
  8
0
  6
SLD-Durchgehend
 62
     7
370
    25
100
AcDbLine
 10
387.4836576725
 20
444.3521614477
 30
0.0
 11
387.4836576758
 21
444.1521614477
 31
0.0
  0
LINE
  5
1D8
330
1F
100
AcDbEntity
  8
0
  6
SLD-Durchgehend
 62
     7
370
    25
100
AcDbLine
 10
396.8469325683
 20
444.3521614477
 30
0.0
 11
396.9908433255
 21
444.3521614477
 31
0.0
  0
LINE
  5
1D9
330
1F
100
AcDbEntity
  8
0
  6
SLD-Durchgehend
 62
     7
370
    25
100
AcDbLine
 10
396.5973195468
 20
444.3521614477
 30
0.0
 11
396.7549644192
 21
444.3521614477
 31
0.0
  0
LINE
  5
1DA
330
1F
100
AcDbEntity
  8
0
  6
SLD-Durchgehend
 62
     7
370
    25
100
AcDbLine
 10
396.7549644192
 20
444.1521614477
 30
0.0
 11
396.7549644192
 21
444.3521614477
 31
0.0
  0
LINE
  5
1DB
330
1F
100
AcDbEntity
  8
0
  6
SLD-Durchgehend
 62
     7
370
    25
100
AcDbLine
 10
395.6283589295
 20
444.1521614477
 30
0.0
 11
395.7186751504
 21
444.1521614477
 31
0.0
  0
LINE
  5
1DC
330
1F
100
AcDbEntity
  8
0
  6
SLD-Durchgehend
 62
     7
370
    25
100
AcDbLine
 10
395.7186751504
 20
444.3521614477
 30
0.0
 11
395.7186751504
 21
444.1521614477
 31
0.0
  0
LINE
  5
1DD
330
1F
100
AcDbEntity
  8
0
  6
SLD-Durchgehend
 62
     7
370
    25
100
AcDbLine
 10
378.7754872724
 20
444.1521614477
 30
0.0
 11
378.7754872724
 21
444.3521614477
 31
0.0
  0
LINE
  5
1DE
330
1F
100
AcDbEntity
  8
0
  6
SLD-Durchgehend
 62
     7
370
    25
100
AcDbLine
 10
378.6218882425
 20
444.3521614477
 30
0.0
 11
378.7754872724
 21
444.3521614477
 31
0.0
  0
LINE
  5
1DF
330
1F
100
AcDbEntity
  8
0
  6
SLD-Durchgehend
 62
     7
370
    25
100
AcDbLine
 10
377.8190515355
 20
444.3521614477
 30
0.0
 11
377.8190515355
 21
444.1521614477
 31
0.0
  0
LINE
  5
1E0
330
1F
100
AcDbEntity
  8
0
  6
SLD-Durchgehend
 62
     7
370
    25
100
AcDbLine
 10
377.8190515355
 20
444.3521614477
 30
0.0
 11
377.9729839631
 21
444.3521614477
 31
0.0
  0
LINE
  5
1E1
330
1F
100
AcDbEntity
  8
0
  6
SLD-Durchgehend
 62
     7
370
    25
100
AcDbLine
 10
382.9649298463
 20
444.1521614477
 30
0.0
 11
382.9649298555
 21
444.3521614477
 31
0.0
  0
LINE
  5
1E2
330
1F
100
AcDbEntity
  8
0
  6
SLD-Durchgehend
 62
     7
370
    25
100
AcDbLine
 10
460.6914864208
 20
444.3521614477
 30
0.0
 11
460.8593312125
 21
444.3521614477
 31
0.0
  0
LINE
  5
1E3
330
1F
100
AcDbEntity
  8
0
  6
SLD-Durchgehend
 62
     7
370
    25
100
AcDbLine
 10
460.3989763383
 20
444.3521614477
 30
0.0
 11
460.541444287
 21
444.3521614477
 31
0.0
  0
LINE
  5
1E4
330
1F
100
AcDbEntity
  8
0
  6
SLD-Durchgehend
 62
     7
370
    25
100
AcDbLine
 10
384.9623388333
 20
444.1521614477
 30
0.0
 11
384.9623388282
 21
444.3521614477
 31
0.0
  0
LINE
  5
1E5
330
1F
100
AcDbEntity
  8
0
  6
SLD-Durchgehend
 62
     7
370
    25
100
AcDbLine
 10
391.3123388333
 20
444.1521614477
 30
0.0
 11
391.3123388282
 21
444.3521614477
 31
0.0
  0
LINE
  5
1E6
330
1F
100
AcDbEntity
  8
0
  6
SLD-Durchgehend
 62
     7
370
    25
100
AcDbLine
 10
388.8453339828
 20
444.1521614477
 30
0.0
 11
388.8453339858
 21
444.3521614477
 31
0.0
  0
LINE
  5
1E7
330
1F
100
AcDbEntity
  8
0
  6
SLD-Durchgehend
 62
     7
370
    25
100
AcDbLine
 10
388.8453339828
 20
444.1521614477
 30
0.0
 11
389.1829847812
 21
444.1521614477
 31
0.0
  0
LINE
  5
1E8
330
1F
100
AcDbEntity
  8
0
  6
SLD-Durchgehend
 62
     7
370
    25
100
AcDbLine
 10
384.0289498253
 20
444.3521614477
 30
0.0
 11
384.0289498265
 21
444.1521614477
 31
0.0
  0
LINE
  5
1E9
330
1F
100
AcDbEntity
  8
0
  6
SLD-Durchgehend
 62
     7
370
    25
100
AcDbLine
 10
379.340686547
 20
444.1521614477
 30
0.0
 11
379.3406865499
 21
444.3521614477
 31
0.0
  0
LINE
  5
1EA
330
1F
100
AcDbEntity
  8
0
  6
SLD-Durchgehend
 62
     7
370
    25
100
AcDbLine
 10
379.340686547
 20
444.1521614477
 30
0.0
 11
379.6783373453
 21
444.1521614477
 31
0.0
  0
LINE
  5
1EB
330
1F
100
AcDbEntity
  8
0
  6
SLD-Durchgehend
 62
     7
370
    25
100
AcDbLine
 10
382.9649298463
 20
444.1521614477
 30
0.0
 11
383.2671731286
 21
444.1521614477
 31
0.0
  0
LINE
  5
1EC
330
1F
100
AcDbEntity
  8
0
  6
SLD-Durchgehend
 62
     7
370
    25
100
AcDbLine
 10
383.2671731262
 20
444.3521614477
 30
0.0
 11
383.2671731286
 21
444.1521614477
 31
0.0
  0
LINE
  5
1ED
330
1F
100
AcDbEntity
  8
0
  6
SLD-Durchgehend
 62
     7
370
    25
100
AcDbLine
 10
435.9564038844
 20
445.6521614477
 30
0.0
 11
476.7360406447
 21
445.6521614477
 31
0.0
  0
LINE
  5
1EE
330
1F
100
AcDbEntity
  8
0
  6
SLD-Durchgehend
 62
     7
370
    25
100
AcDbLine
 10
431.6302343639
 20
445.6521614477
 30
0.0
 11
432.5919205674
 21
445.6521614477
 31
0.0
  0
LINE
  5
1EF
330
1F
100
AcDbEntity
  8
0
  6
SLD-Durchgehend
 62
     7
370
    25
100
AcDbLine
 10
427.9403753802
 20
445.6521614477
 30
0.0
 11
428.908241378
 21
445.6521614477
 31
0.0
  0
LINE
  5
1F0
330
1F
100
AcDbEntity
  8
0
  6
SLD-Durchgehend
 62
     7
370
    25
100
AcDbLine
 10
420.410534144
 20
445.6521614477
 30
0.0
 11
422.6730446259
 21
445.6521614477
 31
0.0
  0
LINE
  5
1F1
330
1F
100
AcDbEntity
  8
0
  6
SLD-Durchgehend
 62
     7
370
    25
100
AcDbLine
 10
417.1122979829
 20
445.6521614477
 30
0.0
 11
419.3354037202
 21
445.6521614477
 31
0.0
  0
LINE
  5
1F2
330
1F
100
AcDbEntity
  8
0
  6
SLD-Durchgehend
 62
     7
370
    25
100
AcDbLine
 10
415.0115750018
 20
445.6521614477
 30
0.0
 11
416.0370840214
 21
445.6521614477
 31
0.0
  0
LINE
  5
1F3
330
1F
100
AcDbEntity
  8
0
  6
SLD-Durchgehend
 62
     7
370
    25
100
AcDbLine
 10
410.4514183958
 20
445.6521614477
 30
0.0
 11
411.4034139089
 21
445.6521614477
 31
0.0
  0
LINE
  5
1F4
330
1F
100
AcDbEntity
  8
0
  6
SLD-Durchgehend
 62
     7
370
    25
100
AcDbLine
 10
366.2360406447
 20
445.6521614477
 30
0.0
 11
406.9360675395
 21
445.6521614477
 31
0.0
  0
LINE
  5
1F5
330
1F
100
AcDbEntity
  8
0
  6
SLD-Durchgehend
 62
     7
370
    25
100
AcDbLine
 10
393.1803920468
 20
444.3521614477
 30
0.0
 11
393.180392044
 21
444.1521614477
 31
0.0
  0
LINE
  5
1F6
330
1F
100
AcDbEntity
  8
0
  6
SLD-Durchgehend
 62
     7
370
    25
100
AcDbLine
 10
381.1927317904
 20
444.3521614477
 30
0.0
 11
381.1927317876
 21
444.1521614477
 31
0.0
  0
LINE
  5
1F7
330
1F
100
AcDbEntity
  8
0
  6
SLD-Durchgehend
 62
     7
370
    25
100
AcDbLine
 10
394.6864817904
 20
444.3521614477
 30
0.0
 11
394.6864817876
 21
444.1521614477
 31
0.0
  0
LINE
  5
1F8
330
1F
100
AcDbEntity
  8
0
  6
SLD-Durchgehend
 62
     7
370
    25
100
AcDbLine
 10
467.1212574314
 20
444.3521614477
 30
0.0
 11
467.1212574286
 21
444.1521614477
 31
0.0
  0
LINE
  5
1F9
330
1F
100
AcDbEntity
  8
0
  6
SLD-Durchgehend
 62
     7
370
    25
100
AcDbLine
 10
377.9729839631
 20
444.1521614477
 30
0.0
 11
378.6218882425
 21
444.1521614477
 31
0.0
  0
LINE
  5
1FA
330
1F
100
AcDbEntity
  8
0
  6
SLD-Durchgehend
 62
     7
370
    25
100
AcDbLine
 10
378.7754872724
 20
444.1521614477
 30
0.0
 11
379.1317529384
 21
444.1521614477
 31
0.0
  0
LINE
  5
1FB
330
1F
100
AcDbEntity
  8
0
  6
SLD-Durchgehend
 62
     7
370
    25
100
AcDbLine
 10
379.8843095018
 20
444.1521614477
 30
0.0
 11
379.9249378767
 21
444.1521614477
 31
0.0
  0
LINE
  5
1FC
330
1F
100
AcDbEntity
  8
0
  6
SLD-Durchgehend
 62
     7
370
    25
100
AcDbLine
 10
380.0674058255
 20
444.1521614477
 30
0.0
 11
380.3930468511
 21
444.1521614477
 31
0.0
  0
LINE
  5
1FD
330
1F
100
AcDbEntity
  8
0
  6
SLD-Durchgehend
 62
     7
370
    25
100
AcDbLine
 10
380.5355147998
 20
444.1521614477
 30
0.0
 11
380.5798499974
 21
444.1521614477
 31
0.0
  0
LINE
  5
1FE
330
1F
100
AcDbEntity
  8
0
  6
SLD-Durchgehend
 62
     7
370
    25
100
AcDbLine
 10
381.4404627553
 20
444.1521614477
 30
0.0
 11
381.9670417213
 21
444.1521614477
 31
0.0
  0
LINE
  5
1FF
330
1F
100
AcDbEntity
  8
0
  6
SLD-Durchgehend
 62
     7
370
    25
100
AcDbLine
 10
382.6516232147
 20
444.1521614477
 30
0.0
 11
382.7606246256
 21
444.1521614477
 31
0.0
  0
LINE
  5
200
330
1F
100
AcDbEntity
  8
0
  6
SLD-Durchgehend
 62
     7
370
    25
100
AcDbLine
 10
383.4556493268
 20
444.1521614477
 30
0.0
 11
383.4866365947
 21
444.1521614477
 31
0.0
  0
LINE
  5
201
330
1F
100
AcDbEntity
  8
0
  6
SLD-Durchgehend
 62
     7
370
    25
100
AcDbLine
 10
383.6291045434
 20
444.1521614477
 30
0.0
 11
384.0289498265
 21
444.1521614477
 31
0.0
  0
LINE
  5
202
330
1F
100
AcDbEntity
  8
0
  6
SLD-Durchgehend
 62
     7
370
    25
100
AcDbLine
 10
384.1715569245
 20
444.1521614477
 30
0.0
 11
384.1786237742
 21
444.1521614477
 31
0.0
  0
LINE
  5
203
330
1F
100
AcDbEntity
  8
0
  6
SLD-Durchgehend
 62
     7
370
    25
100
AcDbLine
 10
384.3210917229
 20
444.1521614477
 30
0.0
 11
384.731931926
 21
444.1521614477
 31
0.0
  0
LINE
  5
204
330
1F
100
AcDbEntity
  8
0
  6
SLD-Durchgehend
 62
     7
370
    25
100
AcDbLine
 10
385.581644737
 20
444.1521614477
 30
0.0
 11
387.4836576758
 21
444.1521614477
 31
0.0
  0
LINE
  5
205
330
1F
100
AcDbEntity
  8
0
  6
SLD-Durchgehend
 62
     7
370
    25
100
AcDbLine
 10
387.6344014932
 20
444.1521614477
 30
0.0
 11
388.6364003743
 21
444.1521614477
 31
0.0
  0
LINE
  5
206
330
1F
100
AcDbEntity
  8
0
  6
SLD-Durchgehend
 62
     7
370
    25
100
AcDbLine
 10
389.3889569377
 20
444.1521614477
 30
0.0
 11
389.4295853126
 21
444.1521614477
 31
0.0
  0
LINE
  5
207
330
1F
100
AcDbEntity
  8
0
  6
SLD-Durchgehend
 62
     7
370
    25
100
AcDbLine
 10
389.5720532614
 20
444.1521614477
 30
0.0
 11
389.897694287
 21
444.1521614477
 31
0.0
  0
LINE
  5
208
330
1F
100
AcDbEntity
  8
0
  6
SLD-Durchgehend
 62
     7
370
    25
100
AcDbLine
 10
390.0401622357
 20
444.1521614477
 30
0.0
 11
391.081931926
 21
444.1521614477
 31
0.0
  0
LINE
  5
209
330
1F
100
AcDbEntity
  8
0
  6
SLD-Durchgehend
 62
     7
370
    25
100
AcDbLine
 10
391.9316447371
 20
444.1521614477
 30
0.0
 11
392.3807071075
 21
444.1521614477
 31
0.0
  0
LINE
  5
20A
330
1F
100
AcDbEntity
  8
0
  6
SLD-Durchgehend
 62
     7
370
    25
100
AcDbLine
 10
392.5231750562
 20
444.1521614477
 30
0.0
 11
392.5760278763
 21
444.1521614477
 31
0.0
  0
LINE
  5
20B
330
1F
100
AcDbEntity
  8
0
  6
SLD-Durchgehend
 62
     7
370
    25
100
AcDbLine
 10
393.4281230117
 20
444.1521614477
 30
0.0
 11
393.8867968511
 21
444.1521614477
 31
0.0
  0
LINE
  5
20C
330
1F
100
AcDbEntity
  8
0
  6
SLD-Durchgehend
 62
     7
370
    25
100
AcDbLine
 10
394.0292647998
 20
444.1521614477
 30
0.0
 11
394.0735999974
 21
444.1521614477
 31
0.0
  0
LINE
  5
20D
330
1F
100
AcDbEntity
  8
0
  6
SLD-Durchgehend
 62
     7
370
    25
100
AcDbLine
 10
394.9342127553
 20
444.1521614477
 30
0.0
 11
395.4849939665
 21
444.1521614477
 31
0.0
  0
LINE
  5
20E
330
1F
100
AcDbEntity
  8
0
  6
SLD-Durchgehend
 62
     7
370
    25
100
AcDbLine
 10
395.8785893441
 20
444.1521614477
 30
0.0
 11
396.5973195468
 21
444.1521614477
 31
0.0
  0
LINE
  5
20F
330
1F
100
AcDbEntity
  8
0
  6
SLD-Durchgehend
 62
     7
370
    25
100
AcDbLine
 10
396.9908433255
 20
444.1521614477
 30
0.0
 11
447.4381769723
 21
444.1521614477
 31
0.0
  0
LINE
  5
210
330
1F
100
AcDbEntity
  8
0
  6
SLD-Durchgehend
 62
     7
370
    25
100
AcDbLine
 10
447.5853862171
 20
444.1521614477
 30
0.0
 11
460.3989763383
 21
444.1521614477
 31
0.0
  0
LINE
  5
211
330
1F
100
AcDbEntity
  8
0
  6
SLD-Durchgehend
 62
     7
370
    25
100
AcDbLine
 10
460.8593312125
 20
444.1521614477
 30
0.0
 11
461.4469820475
 21
444.1521614477
 31
0.0
  0
LINE
  5
212
330
1F
100
AcDbEntity
  8
0
  6
SLD-Durchgehend
 62
     7
370
    25
100
AcDbLine
 10
462.5069669862
 20
444.1521614477
 30
0.0
 11
462.8057998206
 21
444.1521614477
 31
0.0
  0
LINE
  5
213
330
1F
100
AcDbEntity
  8
0
  6
SLD-Durchgehend
 62
     7
370
    25
100
AcDbLine
 10
463.0551162709
 20
444.1521614477
 30
0.0
 11
464.5712519793
 21
444.1521614477
 31
0.0
  0
LINE
  5
214
330
1F
100
AcDbEntity
  8
0
  6
SLD-Durchgehend
 62
     7
370
    25
100
AcDbLine
 10
464.713719928
 20
444.1521614477
 30
0.0
 11
465.0136150958
 21
444.1521614477
 31
0.0
  0
LINE
  5
215
330
1F
100
AcDbEntity
  8
0
  6
SLD-Durchgehend
 62
     7
370
    25
100
AcDbLine
 10
465.56666957
 20
444.1521614477
 30
0.0
 11
465.8738160819
 21
444.1521614477
 31
0.0
  0
LINE
  5
216
330
1F
100
AcDbEntity
  8
0
  6
SLD-Durchgehend
 62
     7
370
    25
100
AcDbLine
 10
466.0162840306
 20
444.1521614477
 30
0.0
 11
466.3215724921
 21
444.1521614477
 31
0.0
  0
LINE
  5
217
330
1F
100
AcDbEntity
  8
0
  6
SLD-Durchgehend
 62
     7
370
    25
100
AcDbLine
 10
466.4640404409
 20
444.1521614477
 30
0.0
 11
466.5083756385
 21
444.1521614477
 31
0.0
  0
LINE
  5
218
330
1F
100
AcDbEntity
  8
0
  6
SLD-Durchgehend
 62
     7
370
    25
100
AcDbLine
 10
467.3689883963
 20
444.1521614477
 30
0.0
 11
476.7360406447
 21
444.1521614477
 31
0.0
  0
LINE
  5
219
330
1F
100
AcDbEntity
  8
0
  6
SLD-Durchgehend
 62
     7
370
    25
100
AcDbLine
 10
366.2360406447
 20
444.1521614477
 30
0.0
 11
377.8190515355
 21
444.1521614477
 31
0.0
  0
LINE
  5
21A
330
1F
100
AcDbEntity
  8
0
  6
SLD-Durchgehend
 62
     7
370
    25
100
AcDbLine
 10
461.5918581589
 20
444.3521614477
 30
0.0
 11
461.4469820476
 21
444.3521614477
 31
0.0
  0
LINE
  5
21B
330
1F
100
AcDbEntity
  8
0
  6
SLD-Durchgehend
 62
     7
370
    25
100
AcDbLine
 10
462.5069669863
 20
444.3521614477
 30
0.0
 11
462.3636735437
 21
444.3521614477
 31
0.0
  0
LINE
  5
21C
330
1F
100
AcDbEntity
  8
0
  6
SLD-Durchgehend
 62
     7
370
    25
100
AcDbLine
 10
462.3636735437
 20
444.3521614477
 30
0.0
 11
462.3636735439
 21
444.1521614477
 31
0.0
  0
LINE
  5
21D
330
1F
100
AcDbEntity
  8
0
  6
SLD-Durchgehend
 62
     7
370
    25
100
AcDbLine
 10
462.8057998222
 20
444.3521614477
 30
0.0
 11
463.0551162504
 21
444.3521614477
 31
0.0
  0
LINE
  5
21E
330
1F
100
AcDbEntity
  8
0
  6
SLD-Durchgehend
 62
     7
370
    25
100
AcDbLine
 10
462.8057998222
 20
444.3521614477
 30
0.0
 11
462.8057998206
 21
444.1521614477
 31
0.0
  0
LINE
  5
21F
330
1F
100
AcDbEntity
  8
0
  6
SLD-Durchgehend
 62
     7
370
    25
100
AcDbLine
 10
461.5918581586
 20
444.1521614477
 30
0.0
 11
461.5918581589
 21
444.3521614477
 31
0.0
  0
LINE
  5
220
330
1F
100
AcDbEntity
  8
0
  6
SLD-Durchgehend
 62
     7
370
    25
100
AcDbLine
 10
461.5918581586
 20
444.1521614477
 30
0.0
 11
462.3636735439
 21
444.1521614477
 31
0.0
  0
LINE
  5
221
330
1F
100
AcDbEntity
  8
0
  6
SLD-Durchgehend
 62
     7
370
    25
100
AcDbLine
 10
382.1678280656
 20
444.1521614477
 30
0.0
 11
382.1678280612
 21
444.3521614477
 31
0.0
  0
LINE
  5
222
330
1F
100
AcDbEntity
  8
0
  6
SLD-Durchgehend
 62
     7
370
    25
100
AcDbLine
 10
387.6344014938
 20
444.3521614477
 30
0.0
 11
387.4836576725
 21
444.3521614477
 31
0.0
  0
LINE
  5
223
330
1F
100
AcDbEntity
  8
0
  6
SLD-Durchgehend
 62
     7
370
    25
100
AcDbLine
 10
447.4381769692
 20
444.3521614477
 30
0.0
 11
447.5853862187
 21
444.3521614477
 31
0.0
  0
LINE
  5
224
330
1F
100
AcDbEntity
  8
0
  6
SLD-Durchgehend
 62
     7
370
    25
100
AcDbLine
 10
465.3929600464
 20
444.3521614477
 30
0.0
 11
465.3929600379
 21
444.1521614477
 31
0.0
  0
LINE
  5
225
330
1F
100
AcDbEntity
  8
0
  6
SLD-Durchgehend
 62
     7
370
    25
100
AcDbLine
 10
391.3123388333
 20
444.1521614477
 30
0.0
 11
391.689652659
 21
444.1521614477
 31
0.0
  0
LINE
  5
226
330
1F
100
AcDbEntity
  8
0
  6
SLD-Durchgehend
 62
     7
370
    25
100
AcDbLine
 10
391.6896526407
 20
444.3521614477
 30
0.0
 11
391.689652659
 21
444.1521614477
 31
0.0
  0
LINE
  5
227
330
1F
100
AcDbEntity
  8
0
  6
SLD-Durchgehend
 62
     7
370
    25
100
AcDbLine
 10
385.3396526407
 20
444.3521614477
 30
0.0
 11
385.339652659
 21
444.1521614477
 31
0.0
  0
LINE
  5
228
330
1F
100
AcDbEntity
  8
0
  6
SLD-Durchgehend
 62
     7
370
    25
100
AcDbLine
 10
384.9623388333
 20
444.1521614477
 30
0.0
 11
385.339652659
 21
444.1521614477
 31
0.0
  0
LINE
  5
229
330
1F
100
AcDbEntity
  8
0
  6
SLD-Durchgehend
 62
     7
370
    25
100
AcDbLine
 10
384.1715569302
 20
444.3521614477
 30
0.0
 11
384.0289498253
 21
444.3521614477
 31
0.0
  0
LINE
  5
22A
330
1F
100
AcDbEntity
  8
0
  6
SLD-Durchgehend
 62
     7
370
    25
100
AcDbLine
 10
389.1829847997
 20
444.3521614477
 30
0.0
 11
389.1829847812
 21
444.1521614477
 31
0.0
  0
LINE
  5
22B
330
1F
100
AcDbEntity
  8
0
  6
SLD-Durchgehend
 62
     7
370
    25
100
AcDbLine
 10
379.6783373638
 20
444.3521614477
 30
0.0
 11
379.6783373453
 21
444.1521614477
 31
0.0
  0
LINE
  5
22C
330
1F
100
AcDbEntity
  8
0
  6
SLD-Durchgehend
 62
     7
370
    25
100
AcDbLine
 10
392.7968507547
 20
444.3521614477
 30
0.0
 11
392.5760278678
 21
444.3521614477
 31
0.0
  0
LINE
  5
22D
330
1F
100
AcDbEntity
  8
0
  6
SLD-Durchgehend
 62
     7
370
    25
100
AcDbLine
 10
393.4281230098
 20
444.3521614477
 30
0.0
 11
393.1803920468
 21
444.3521614477
 31
0.0
  0
LINE
  5
22E
330
1F
100
AcDbEntity
  8
0
  6
SLD-Durchgehend
 62
     7
370
    25
100
AcDbLine
 10
466.7377161394
 20
444.3521614477
 30
0.0
 11
466.5083756302
 21
444.3521614477
 31
0.0
  0
LINE
  5
22F
330
1F
100
AcDbEntity
  8
0
  6
SLD-Durchgehend
 62
     7
370
    25
100
AcDbLine
 10
467.3689883944
 20
444.3521614477
 30
0.0
 11
467.1212574314
 21
444.3521614477
 31
0.0
  0
LINE
  5
230
330
1F
100
AcDbEntity
  8
0
  6
SLD-Durchgehend
 62
     7
370
    25
100
AcDbLine
 10
380.8091904983
 20
444.3521614477
 30
0.0
 11
380.5798499892
 21
444.3521614477
 31
0.0
  0
LINE
  5
231
330
1F
100
AcDbEntity
  8
0
  6
SLD-Durchgehend
 62
     7
370
    25
100
AcDbLine
 10
381.4404627534
 20
444.3521614477
 30
0.0
 11
381.1927317904
 21
444.3521614477
 31
0.0
  0
LINE
  5
232
330
1F
100
AcDbEntity
  8
0
  6
SLD-Durchgehend
 62
     7
370
    25
100
AcDbLine
 10
394.3029404983
 20
444.3521614477
 30
0.0
 11
394.0735999892
 21
444.3521614477
 31
0.0
  0
LINE
  5
233
330
1F
100
AcDbEntity
  8
0
  6
SLD-Durchgehend
 62
     7
370
    25
100
AcDbLine
 10
394.9342127534
 20
444.3521614477
 30
0.0
 11
394.6864817904
 21
444.3521614477
 31
0.0
  0
LINE
  5
234
330
1F
100
AcDbEntity
  8
0
  6
SLD-Durchgehend
 62
     7
370
    25
100
AcDbLine
 10
382.1678280612
 20
444.3521614477
 30
0.0
 11
381.9670417213
 21
444.3521614477
 31
0.0
  0
LINE
  5
235
330
1F
100
AcDbEntity
  8
0
  6
SLD-Durchgehend
 62
     7
370
    25
100
AcDbLine
 10
382.6516232225
 20
444.3521614477
 30
0.0
 11
382.4749543655
 21
444.3521614477
 31
0.0
  0
LINE
  5
236
330
1F
100
AcDbEntity
  8
0
  6
SLD-Durchgehend
 62
     7
370
    25
100
AcDbLine
 10
391.6896526407
 20
444.3521614477
 30
0.0
 11
391.9316447322
 21
444.3521614477
 31
0.0
  0
LINE
  5
237
330
1F
100
AcDbEntity
  8
0
  6
SLD-Durchgehend
 62
     7
370
    25
100
AcDbLine
 10
391.0819319172
 20
444.3521614477
 30
0.0
 11
391.3123388282
 21
444.3521614477
 31
0.0
  0
LINE
  5
238
330
1F
100
AcDbEntity
  8
0
  6
SLD-Durchgehend
 62
     7
370
    25
100
AcDbLine
 10
385.3396526407
 20
444.3521614477
 30
0.0
 11
385.5816447322
 21
444.3521614477
 31
0.0
  0
LINE
  5
239
330
1F
100
AcDbEntity
  8
0
  6
SLD-Durchgehend
 62
     7
370
    25
100
AcDbLine
 10
384.7319319172
 20
444.3521614477
 30
0.0
 11
384.9623388282
 21
444.3521614477
 31
0.0
  0
LINE
  5
23A
330
1F
100
AcDbEntity
  8
0
  6
SLD-Durchgehend
 62
     7
370
    25
100
AcDbLine
 10
465.1852275876
 20
444.3521614477
 30
0.0
 11
465.0136150958
 21
444.3521614477
 31
0.0
  0
LINE
  5
23B
330
1F
100
AcDbEntity
  8
0
  6
SLD-Durchgehend
 62
     7
370
    25
100
AcDbLine
 10
465.5666695738
 20
444.3521614477
 30
0.0
 11
465.3929600464
 21
444.3521614477
 31
0.0
  0
LINE
  5
23C
330
1F
100
AcDbEntity
  8
0
  6
SLD-Durchgehend
 62
     7
370
    25
100
AcDbLine
 10
388.8453339858
 20
444.3521614477
 30
0.0
 11
388.636400368
 21
444.3521614477
 31
0.0
  0
LINE
  5
23D
330
1F
100
AcDbEntity
  8
0
  6
SLD-Durchgehend
 62
     7
370
    25
100
AcDbLine
 10
389.3889569462
 20
444.3521614477
 30
0.0
 11
389.1829847997
 21
444.3521614477
 31
0.0
  0
LINE
  5
23E
330
1F
100
AcDbEntity
  8
0
  6
SLD-Durchgehend
 62
     7
370
    25
100
AcDbLine
 10
379.3406865499
 20
444.3521614477
 30
0.0
 11
379.1317529322
 21
444.3521614477
 31
0.0
  0
LINE
  5
23F
330
1F
100
AcDbEntity
  8
0
  6
SLD-Durchgehend
 62
     7
370
    25
100
AcDbLine
 10
379.8843095103
 20
444.3521614477
 30
0.0
 11
379.6783373638
 21
444.3521614477
 31
0.0
  0
SPLINE
  5
240
330
1F
100
AcDbEntity
  8
0
  6
SLD-Durchgehend
 62
     7
370
    25
100
AcDbSpline
210
0.0
220
0.0
230
1.0
 70
    24
 71
     3
 72
    10
 73
     6
 74
     0
 42
0.000000001
 43
0.00000001
 40
0.0
 40
0.0
 40
0.0
 40
0.0
 40
0.2809348244695928
 40
0.5616046352805713
 40
1.0
 40
1.0
 40
1.0
 40
1.0
 10
382.2918774801147
 20
444.1521614477194
 30
0.0
 10
382.255550242907
 20
444.1521614477194
 30
0.0
 10
382.182930036988
 20
444.1521614477194
 30
0.0
 10
382.0602987975464
 20
444.1521614477194
 30
0.0
 10
382.0023634178307
 20
444.1521614477194
 30
0.0
 10
381.9670417212935
 20
444.1521614477194
 30
0.0
  0
LINE
  5
241
330
1F
100
AcDbEntity
  8
0
  6
SLD-Durchgehend
 62
     7
370
    25
100
AcDbLine
 10
462.8819891588
 20
444.3521614477
 30
0.0
 11
462.8819891588
 21
444.1521614477
 31
0.0
  0
SPLINE
  5
242
330
1F
100
AcDbEntity
  8
0
  6
SLD-Durchgehend
 62
     7
370
    25
100
AcDbSpline
210
0.0
220
0.0
230
1.0
 70
    24
 71
     3
 72
    11
 73
     7
 74
     0
 42
0.000000001
 43
0.00000001
 40
0.0
 40
0.0
 40
0.0
 40
0.0
 40
0.0947720478093011
 40
0.5461081493397855
 40
0.7731272541617928
 40
1.0
 40
1.0
 40
1.0
 40
1.0
 10
463.0551162709111
 20
444.1521614477194
 30
0.0
 10
463.0466218396676
 20
444.1521614477194
 30
0.0
 10
462.9976740936464
 20
444.1521614477194
 30
0.0
 10
462.9332888646221
 20
444.1521614477194
 30
0.0
 10
462.88839981411
 20
444.1521614477194
 30
0.0
 10
462.8841255844903
 20
444.1521614477194
 30
0.0
 10
462.8819891588005
 20
444.1521614477194
 30
0.0
  0
LINE
  5
243
330
1F
100
AcDbEntity
  8
0
  6
SLD-Durchgehend
 62
     7
370
    25
100
AcDbLine
 10
396.8929341708
 20
444.3521614477
 30
0.0
 11
396.8929341708
 21
444.1521614477
 31
0.0
  0
LINE
  5
244
330
1F
100
AcDbEntity
  8
0
  6
SLD-Durchgehend
 62
     7
370
    25
100
AcDbLine
 10
396.8929341708
 20
444.1521614477
 30
0.0
 11
396.8469325683
 21
444.1521614477
 31
0.0
  0
LINE
  5
245
330
1F
100
AcDbEntity
  8
0
  6
SLD-Durchgehend
 62
     7
370
    25
100
AcDbLine
 10
396.7549644192
 20
444.1521614477
 30
0.0
 11
396.5973195468
 21
444.1521614477
 31
0.0
  0
SPLINE
  5
246
330
1F
100
AcDbEntity
  8
0
  6
SLD-Durchgehend
 62
     7
370
    25
100
AcDbSpline
210
0.0
220
0.0
230
1.0
 70
    24
 71
     3
 72
    10
 73
     6
 74
     0
 42
0.000000001
 43
0.00000001
 40
0.0
 40
0.0
 40
0.0
 40
0.0
 40
0.2795538640707007
 40
0.5597329742557264
 40
1.0
 40
1.0
 40
1.0
 40
1.0
 10
465.2956760578389
 20
444.1521614477194
 30
0.0
 10
465.2630781624006
 20
444.1521614477194
 30
0.0
 10
465.1978094635443
 20
444.1521614477194
 30
0.0
 10
465.0943469133428
 20
444.1521614477194
 30
0.0
 10
465.0349521577915
 20
444.1521614477194
 30
0.0
 10
464.9986558254672
 20
444.1521614477194
 30
0.0
  0
LINE
  5
247
330
1F
100
AcDbEntity
  8
0
  6
SLD-Durchgehend
 62
     7
370
    25
100
AcDbLine
 10
435.0459245557
 20
445.4521614477
 30
0.0
 11
435.0459245557
 21
445.6521614477
 31
0.0
  0
LINE
  5
248
330
1F
100
AcDbEntity
  8
0
  6
SLD-Durchgehend
 62
     7
370
    25
100
AcDbLine
 10
434.5594008892
 20
445.4521614477
 30
0.0
 11
434.5594008892
 21
445.6521614477
 31
0.0
  0
SPLINE
  5
249
330
1F
100
AcDbEntity
  8
0
  6
SLD-Durchgehend
 62
     7
370
    25
100
AcDbSpline
210
0.0
220
0.0
230
1.0
 70
    24
 71
     3
 72
    11
 73
     7
 74
     0
 42
0.000000001
 43
0.00000001
 40
0.0
 40
0.0
 40
0.0
 40
0.0
 40
0.2882526378998076
 40
0.5667226730079999
 40
0.7824309356463799
 40
1.0
 40
1.0
 40
1.0
 40
1.0
 10
434.5594008892149
 20
445.6521614477194
 30
0.0
 10
434.6316880333911
 20
445.6521614477194
 30
0.0
 10
434.7738090695425
 20
445.6521614477194
 30
0.0
 10
434.9306135063716
 20
445.6521614477194
 30
0.0
 10
435.0278665242673
 20
445.6521614477194
 30
0.0
 10
435.0398880023215
 20
445.6521614477194
 30
0.0
 10
435.045924555747
 20
445.6521614477194
 30
0.0
  0
LINE
  5
24A
330
1F
100
AcDbEntity
  8
0
  6
SLD-Durchgehend
 62
     7
370
    25
100
AcDbLine
 10
433.6653802369
 20
445.6521614477
 30
0.0
 11
434.5594008892
 21
445.6521614477
 31
0.0
  0
LINE
  5
24B
330
1F
100
AcDbEntity
  8
0
  6
SLD-Durchgehend
 62
     7
370
    25
100
AcDbLine
 10
433.6653802369
 20
445.4521614477
 30
0.0
 11
433.6653802369
 21
445.6521614477
 31
0.0
  0
LINE
  5
24C
330
1F
100
AcDbEntity
  8
0
  6
SLD-Durchgehend
 62
     7
370
    25
100
AcDbLine
 10
383.3257241348
 20
444.1521614477
 30
0.0
 11
383.285377807
 21
444.1521614477
 31
0.0
  0
LINE
  5
24D
330
1F
100
AcDbEntity
  8
0
  6
SLD-Durchgehend
 62
     7
370
    25
100
AcDbLine
 10
384.3210917229
 20
444.1521614477
 30
0.0
 11
384.1786237742
 21
444.1521614477
 31
0.0
  0
LINE
  5
24E
330
1F
100
AcDbEntity
  8
0
  6
SLD-Durchgehend
 62
     7
370
    25
100
AcDbLine
 10
394.0292647998
 20
444.1521614477
 30
0.0
 11
393.8867968511
 21
444.1521614477
 31
0.0
  0
LINE
  5
24F
330
1F
100
AcDbEntity
  8
0
  6
SLD-Durchgehend
 62
     7
370
    25
100
AcDbLine
 10
389.5720532614
 20
444.1521614477
 30
0.0
 11
389.4295853126
 21
444.1521614477
 31
0.0
  0
LINE
  5
250
330
1F
100
AcDbEntity
  8
0
  6
SLD-Durchgehend
 62
     7
370
    25
100
AcDbLine
 10
380.0674058255
 20
444.1521614477
 30
0.0
 11
379.9249378767
 21
444.1521614477
 31
0.0
  0
LINE
  5
251
330
1F
100
AcDbEntity
  8
0
  6
SLD-Durchgehend
 62
     7
370
    25
100
AcDbLine
 10
377.9011297838
 20
444.1521614477
 30
0.0
 11
377.8190515355
 21
444.1521614477
 31
0.0
  0
LINE
  5
252
330
1F
100
AcDbEntity
  8
0
  6
SLD-Durchgehend
 62
     7
370
    25
100
AcDbLine
 10
378.7754872724
 20
444.1521614477
 30
0.0
 11
378.6926537221
 21
444.1521614477
 31
0.0
  0
LINE
  5
253
330
1F
100
AcDbEntity
  8
0
  6
SLD-Durchgehend
 62
     7
370
    25
100
AcDbLine
 10
380.5355147998
 20
444.1521614477
 30
0.0
 11
380.3930468511
 21
444.1521614477
 31
0.0
  0
LINE
  5
254
330
1F
100
AcDbEntity
  8
0
  6
SLD-Durchgehend
 62
     7
370
    25
100
AcDbLine
 10
390.0401622357
 20
444.1521614477
 30
0.0
 11
389.897694287
 21
444.1521614477
 31
0.0
  0
LINE
  5
255
330
1F
100
AcDbEntity
  8
0
  6
SLD-Durchgehend
 62
     7
370
    25
100
AcDbLine
 10
464.713719928
 20
444.1521614477
 30
0.0
 11
464.5712519793
 21
444.1521614477
 31
0.0
  0
LINE
  5
256
330
1F
100
AcDbEntity
  8
0
  6
SLD-Durchgehend
 62
     7
370
    25
100
AcDbLine
 10
466.0162840306
 20
444.1521614477
 30
0.0
 11
465.8738160819
 21
444.1521614477
 31
0.0
  0
LINE
  5
257
330
1F
100
AcDbEntity
  8
0
  6
SLD-Durchgehend
 62
     7
370
    25
100
AcDbLine
 10
466.4640404409
 20
444.1521614477
 30
0.0
 11
466.3215724921
 21
444.1521614477
 31
0.0
  0
LINE
  5
258
330
1F
100
AcDbEntity
  8
0
  6
SLD-Durchgehend
 62
     7
370
    25
100
AcDbLine
 10
383.6291045434
 20
444.1521614477
 30
0.0
 11
383.4866365947
 21
444.1521614477
 31
0.0
  0
LINE
  5
259
330
1F
100
AcDbEntity
  8
0
  6
SLD-Durchgehend
 62
     7
370
    25
100
AcDbLine
 10
429.9835388772
 20
445.4521614477
 30
0.0
 11
429.9835388772
 21
445.6521614477
 31
0.0
  0
LINE
  5
25A
330
1F
100
AcDbEntity
  8
0
  6
SLD-Durchgehend
 62
     7
370
    25
100
AcDbLine
 10
431.6302343639
 20
445.6521614477
 30
0.0
 11
429.9835388772
 21
445.6521614477
 31
0.0
  0
LINE
  5
25B
330
1F
100
AcDbEntity
  8
0
  6
SLD-Durchgehend
 62
     7
370
    25
100
AcDbLine
 10
396.9132867349
 20
444.1521614477
 30
0.0
 11
396.8929341708
 21
444.1521614477
 31
0.0
  0
LINE
  5
25C
330
1F
100
AcDbEntity
  8
0
  6
SLD-Durchgehend
 62
     7
370
    25
100
AcDbLine
 10
395.5836918832
 20
444.1521614477
 30
0.0
 11
395.5630213102
 21
444.1521614477
 31
0.0
  0
LINE
  5
25D
330
1F
100
AcDbEntity
  8
0
  6
SLD-Durchgehend
 62
     7
370
    25
100
AcDbLine
 10
460.4279151404
 20
444.1521614477
 30
0.0
 11
460.3989763383
 21
444.1521614477
 31
0.0
  0
LINE
  5
25E
330
1F
100
AcDbEntity
  8
0
  6
SLD-Durchgehend
 62
     7
370
    25
100
AcDbLine
 10
392.5231750562
 20
444.1521614477
 30
0.0
 11
392.3807071075
 21
444.1521614477
 31
0.0
  0
SPLINE
  5
25F
330
1F
100
AcDbEntity
  8
0
  6
SLD-Durchgehend
 62
     7
370
    25
100
AcDbSpline
210
0.0
220
0.0
230
1.0
 70
    24
 71
     3
 72
    14
 73
    10
 74
     0
 42
0.000000001
 43
0.00000001
 40
0.0
 40
0.0
 40
0.0
 40
0.0
 40
0.0069032831943335
 40
0.1686518710042832
 40
0.3027650156282715
 40
0.4268556861326712
 40
0.572448289320496
 40
0.7580795035624018
 40
1.0
 40
1.0
 40
1.0
 40
1.0
 10
423.6946315146902
 20
445.6521614477194
 30
0.0
 10
423.6898604096662
 20
445.6521614477194
 30
0.0
 10
423.5732990914643
 20
445.6521614477194
 30
0.0
 10
423.3654533257775
 20
445.6521614477194
 30
0.0
 10
423.0892951787718
 20
445.6521614477194
 30
0.0
 10
422.877908413621
 20
445.6521614477194
 30
0.0
 10
422.7467719083635
 20
445.6521614477194
 30
0.0
 10
422.6799714672546
 20
445.6521614477194
 30
0.0
 10
422.6748168051703
 20
445.6521614477194
 30
0.0
 10
422.6719001558406
 20
445.6521614477194
 30
0.0
  0
SPLINE
  5
260
330
1F
100
AcDbEntity
  8
0
  6
SLD-Durchgehend
 62
     7
370
    25
100
AcDbSpline
210
0.0
220
0.0
230
1.0
 70
    24
 71
     3
 72
    14
 73
    10
 74
     0
 42
0.000000001
 43
0.00000001
 40
0.0
 40
0.0
 40
0.0
 40
0.0
 40
0.2328120969907398
 40
0.4136607870244914
 40
0.5562824645027136
 40
0.6811986630300538
 40
0.8196683836442521
 40
0.9870717333666971
 40
1.0
 40
1.0
 40
1.0
 40
1.0
 10
427.9403753801868
 20
445.6521614477194
 30
0.0
 10
427.9376759841193
 20
445.6521614477194
 30
0.0
 10
427.932879694252
 20
445.6521614477194
 30
0.0
 10
427.8717658368728
 20
445.6521614477194
 30
0.0
 10
427.7534821559872
 20
445.6521614477194
 30
0.0
 10
427.5537100988427
 20
445.6521614477194
 30
0.0
 10
427.2739410943185
 20
445.6521614477194
 30
0.0
 10
427.0557374848348
 20
445.6521614477194
 30
0.0
 10
426.9314029535538
 20
445.6521614477194
 30
0.0
 10
426.9224892089504
 20
445.6521614477194
 30
0.0
  0
SPLINE
  5
261
330
1F
100
AcDbEntity
  8
0
  6
SLD-Durchgehend
 62
     7
370
    25
100
AcDbSpline
210
0.0
220
0.0
230
1.0
 70
    24
 71
     3
 72
    12
 73
     8
 74
     0
 42
0.000000001
 43
0.00000001
 40
0.0
 40
0.0
 40
0.0
 40
0.0
 40
0.2718786732317768
 40
0.4974528827472959
 40
0.6992956246156179
 40
0.9473712301444324
 40
0.9999999999999999
 40
0.9999999999999999
 40
0.9999999999999999
 40
0.9999999999999999
 10
410.4514183957722
 20
445.6521614477194
 30
0.0
 10
410.4443400837354
 20
445.6521614477194
 30
0.0
 10
410.4313889879915
 20
445.6521614477194
 30
0.0
 10
410.2870979518866
 20
445.6521614477194
 30
0.0
 10
410.0079760700087
 20
445.6521614477194
 30
0.0
 10
409.7130394882063
 20
445.6521614477194
 30
0.0
 10
409.5224424601602
 20
445.6521614477194
 30
0.0
 10
409.4890844915195
 20
445.6521614477194
 30
0.0
  0
SPLINE
  5
262
330
1F
100
AcDbEntity
  8
0
  6
SLD-Durchgehend
 62
     7
370
    25
100
AcDbSpline
210
0.0
220
0.0
230
1.0
 70
    24
 71
     3
 72
    12
 73
     8
 74
     0
 42
0.000000001
 43
0.00000001
 40
0.0
 40
0.0
 40
0.0
 40
0.0
 40
0.2636784617026839
 40
0.4858568509182082
 40
0.6888591308718639
 40
0.9416317225611474
 40
1.0
 40
1.0
 40
1.0
 40
1.0
 10
415.0115750017679
 20
445.6521614477194
 30
0.0
 10
415.0033213849593
 20
445.6521614477194
 30
0.0
 10
414.9881131793085
 20
445.6521614477194
 30
0.0
 10
414.83106518206
 20
445.6521614477194
 30
0.0
 10
414.5351767133747
 20
445.6521614477194
 30
0.0
 10
414.2257191752939
 20
445.6521614477194
 30
0.0
 10
414.0242913198416
 20
445.6521614477194
 30
0.0
 10
413.9865045868293
 20
445.6521614477194
 30
0.0
  0
SPLINE
  5
263
330
1F
100
AcDbEntity
  8
0
  6
SLD-Durchgehend
 62
     7
370
    25
100
AcDbSpline
210
0.0
220
0.0
230
1.0
 70
    24
 71
     3
 72
    12
 73
     8
 74
     0
 42
0.000000001
 43
0.00000001
 40
0.0
 40
0.0
 40
0.0
 40
0.0
 40
0.0195342825991957
 40
0.2422864302788921
 40
0.4451356102565618
 40
0.6966307538486747
 40
1.0
 40
1.0
 40
1.0
 40
1.0
 10
412.4284843238407
 20
445.6521614477194
 30
0.0
 10
412.4159670061074
 20
445.6521614477194
 30
0.0
 10
412.2607129692685
 20
445.6521614477194
 30
0.0
 10
411.9886714122659
 20
445.6521614477194
 30
0.0
 10
411.6481284200864
 20
445.6521614477194
 30
0.0
 10
411.4335478994974
 20
445.6521614477194
 30
0.0
 10
411.414065700708
 20
445.6521614477194
 30
0.0
 10
411.4034139089021
 20
445.6521614477194
 30
0.0
  0
SPLINE
  5
264
330
1F
100
AcDbEntity
  8
0
  6
SLD-Durchgehend
 62
     7
370
    25
100
AcDbSpline
210
0.0
220
0.0
230
1.0
 70
    24
 71
     3
 72
    12
 73
     8
 74
     0
 42
0.000000001
 43
0.00000001
 40
0.0
 40
0.0
 40
0.0
 40
0.0
 40
0.0703411919644735
 40
0.2463736556765886
 40
0.4036537617351083
 40
0.667431923039642
 40
1.0
 40
1.0
 40
1.0
 40
1.0
 10
435.9564038844422
 20
445.6521614477194
 30
0.0
 10
435.9490883724745
 20
445.6521614477194
 30
0.0
 10
435.9234654142011
 20
445.6521614477194
 30
0.0
 10
435.8181612279353
 20
445.6521614477194
 30
0.0
 10
435.5836506298448
 20
445.6521614477194
 30
0.0
 10
435.1832307413504
 20
445.6521614477194
 30
0.0
 10
434.8630806362528
 20
445.6521614477194
 30
0.0
 10
434.6845405567502
 20
445.6521614477194
 30
0.0
  0
LINE
  5
265
330
1F
100
AcDbEntity
  8
0
  6
SLD-Durchgehend
 62
     7
370
    25
100
AcDbLine
 10
425.3001651449
 20
445.4521614477
 30
0.0
 11
425.3001651449
 21
445.6521614477
 31
0.0
  0
SPLINE
  5
266
330
1F
100
AcDbEntity
  8
0
  6
SLD-Durchgehend
 62
     7
370
    25
100
AcDbSpline
210
0.0
220
0.0
230
1.0
 70
    24
 71
     3
 72
    12
 73
     8
 74
     0
 42
0.000000001
 43
0.00000001
 40
0.0
 40
0.0
 40
0.0
 40
0.0
 40
0.0960236243369016
 40
0.3620717150802151
 40
0.5919425065051497
 40
0.8216733386410957
 40
1.0
 40
1.0
 40
1.0
 40
1.0
 10
425.8523501320811
 20
445.6521614477194
 30
0.0
 10
425.8303583589232
 20
445.6521614477194
 30
0.0
 10
425.7474350254215
 20
445.6521614477194
 30
0.0
 10
425.6189990936406
 20
445.6521614477194
 30
0.0
 10
425.4780591640332
 20
445.6521614477194
 30
0.0
 10
425.3726581347042
 20
445.6521614477194
 30
0.0
 10
425.3222111581778
 20
445.6521614477194
 30
0.0
 10
425.3001651449492
 20
445.6521614477194
 30
0.0
  0
SPLINE
  5
267
330
1F
100
AcDbEntity
  8
0
  6
SLD-Durchgehend
 62
     7
370
    25
100
AcDbSpline
210
0.0
220
0.0
230
1.0
 70
    24
 71
     3
 72
    11
 73
     7
 74
     0
 42
0.000000001
 43
0.00000001
 40
0.0
 40
0.0
 40
0.0
 40
0.0
 40
0.2457495508103019
 40
0.5706740167568515
 40
0.8742314914038662
 40
1.0
 40
1.0
 40
1.0
 40
1.0
 10
425.3001651449492
 20
445.6521614477194
 30
0.0
 10
425.2688779479378
 20
445.6521614477194
 30
0.0
 10
425.1962235307365
 20
445.6521614477194
 30
0.0
 10
425.0419914881655
 20
445.6521614477194
 30
0.0
 10
424.8882408855761
 20
445.6521614477194
 30
0.0
 10
424.7926808123407
 20
445.6521614477194
 30
0.0
 10
424.764687053842
 20
445.6521614477194
 30
0.0
  0
LINE
  5
268
330
1F
100
AcDbEntity
  8
0
  6
SLD-Durchgehend
 62
     7
370
    25
100
AcDbLine
 10
434.6845405568
 20
445.6521614477
 30
0.0
 11
434.5594008892
 21
445.6521614477
 31
0.0
  0
LINE
  5
269
330
1F
100
AcDbEntity
  8
0
  6
SLD-Durchgehend
 62
     7
370
    25
100
AcDbLine
 10
433.6653802369
 20
445.6521614477
 30
0.0
 11
432.5919205674
 21
445.6521614477
 31
0.0
  0
LINE
  5
26A
330
1F
100
AcDbEntity
  8
0
  6
SLD-Durchgehend
 62
     7
370
    25
100
AcDbLine
 10
420.410534144
 20
445.6521614477
 30
0.0
 11
419.3354037202
 21
445.6521614477
 31
0.0
  0
LINE
  5
26B
330
1F
100
AcDbEntity
  8
0
  6
SLD-Durchgehend
 62
     7
370
    25
100
AcDbLine
 10
429.9835388772
 20
445.6521614477
 30
0.0
 11
428.908241378
 21
445.6521614477
 31
0.0
  0
LINE
  5
26C
330
1F
100
AcDbEntity
  8
0
  6
SLD-Durchgehend
 62
     7
370
    25
100
AcDbLine
 10
417.1122979829
 20
445.6521614477
 30
0.0
 11
416.0370840214
 21
445.6521614477
 31
0.0
  0
LINE
  5
26D
330
1F
100
AcDbEntity
  8
0
  6
SLD-Durchgehend
 62
     7
370
    25
100
AcDbLine
 10
408.0101118254
 20
445.6521614477
 30
0.0
 11
406.9360675395
 21
445.6521614477
 31
0.0
  0
LINE
  5
26E
330
1F
100
AcDbEntity
  8
0
  6
SLD-Durchgehend
 62
     7
370
    25
100
AcDbLine
 10
459.5456890338
 20
441.4521614477
 30
0.0
 11
450.6683435918
 21
441.4521614477
 31
0.0
  0
LINE
  5
26F
330
1F
100
AcDbEntity
  8
0
  6
SLD-Durchgehend
 62
     7
370
    25
100
AcDbLine
 10
472.8075100791
 20
441.4521614477
 30
0.0
 11
463.8717919222
 21
441.4521614477
 31
0.0
  0
LINE
  5
270
330
1F
100
AcDbEntity
  8
0
  6
SLD-Durchgehend
 62
     7
370
    25
100
AcDbLine
 10
437.2653631907
 20
441.4521614477
 30
0.0
 11
445.9422426882
 21
441.4521614477
 31
0.0
  0
LINE
  5
271
330
1F
100
AcDbEntity
  8
0
  6
SLD-Durchgehend
 62
     7
370
    25
100
AcDbLine
 10
397.0298386012
 20
441.4521614477
 30
0.0
 11
405.7067180987
 21
441.4521614477
 31
0.0
  0
LINE
  5
272
330
1F
100
AcDbEntity
  8
0
  6
SLD-Durchgehend
 62
     7
370
    25
100
AcDbLine
 10
392.3037376977
 20
441.4521614477
 30
0.0
 11
383.4263922556
 21
441.4521614477
 31
0.0
  0
LINE
  5
273
330
1F
100
AcDbEntity
  8
0
  6
SLD-Durchgehend
 62
     7
370
    25
100
AcDbLine
 10
379.1002893672
 20
441.4521614477
 30
0.0
 11
370.1645712103
 21
441.4521614477
 31
0.0
  0
LINE
  5
274
330
1F
100
AcDbEntity
  8
0
  6
SLD-Durchgehend
 62
     7
370
    25
100
AcDbLine
 10
427.8116220401
 20
441.4521614477
 30
0.0
 11
437.2653631907
 21
441.4521614477
 31
0.0
  0
LINE
  5
275
330
1F
100
AcDbEntity
  8
0
  6
SLD-Durchgehend
 62
     7
370
    25
100
AcDbLine
 10
405.7067180987
 20
441.4521614477
 30
0.0
 11
415.1604592494
 21
441.4521614477
 31
0.0
  0
LINE
  5
276
330
1F
100
AcDbEntity
  8
0
  6
SLD-Durchgehend
 62
     7
370
    25
100
AcDbLine
 10
450.6683435918
 20
441.4521614477
 30
0.0
 11
445.9422426882
 21
441.4521614477
 31
0.0
  0
LINE
  5
277
330
1F
100
AcDbEntity
  8
0
  6
SLD-Durchgehend
 62
     7
370
    25
100
AcDbLine
 10
397.0298386012
 20
441.4521614477
 30
0.0
 11
392.3037376977
 21
441.4521614477
 31
0.0
  0
LINE
  5
278
330
1F
100
AcDbEntity
  8
0
  6
SLD-Durchgehend
 62
     7
370
    25
100
AcDbLine
 10
463.8717919222
 20
441.4521614477
 30
0.0
 11
459.5456890338
 21
441.4521614477
 31
0.0
  0
LINE
  5
279
330
1F
100
AcDbEntity
  8
0
  6
SLD-Durchgehend
 62
     7
370
    25
100
AcDbLine
 10
383.4263922556
 20
441.4521614477
 30
0.0
 11
379.1002893672
 21
441.4521614477
 31
0.0
  0
LINE
  5
27A
330
1F
100
AcDbEntity
  8
0
  6
SLD-Durchgehend
 62
     7
370
    25
100
AcDbLine
 10
424.9860406447
 20
441.4521614477
 30
0.0
 11
427.8116220401
 21
441.4521614477
 31
0.0
  0
LINE
  5
27B
330
1F
100
AcDbEntity
  8
0
  6
SLD-Durchgehend
 62
     7
370
    25
100
AcDbLine
 10
415.1604592494
 20
441.4521614477
 30
0.0
 11
417.9860406447
 21
441.4521614477
 31
0.0
  0
LINE
  5
27C
330
1F
100
AcDbEntity
  8
0
  6
SLD-Durchgehend
 62
     7
370
    25
100
AcDbLine
 10
480.8860406447
 20
442.1563066362
 30
0.0
 11
480.1860406447
 21
441.7521614477
 31
0.0
  0
LINE
  5
27D
330
1F
100
AcDbEntity
  8
0
  6
SLD-Durchgehend
 62
     7
370
    25
100
AcDbLine
 10
480.8860406447
 20
443.7480162593
 30
0.0
 11
480.8860406447
 21
442.1563066362
 31
0.0
  0
LINE
  5
27E
330
1F
100
AcDbEntity
  8
0
  6
SLD-Durchgehend
 62
     7
370
    25
100
AcDbLine
 10
363.5175354999
 20
442.0480162593
 30
0.0
 11
362.8054404408
 21
442.4520278813
 31
0.0
  0
LINE
  5
27F
330
1F
100
AcDbEntity
  8
0
  6
SLD-Durchgehend
 62
     7
370
    25
100
AcDbLine
 10
363.5175354999
 20
442.0480162593
 30
0.0
 11
363.4860406447
 21
442.0480162593
 31
0.0
  0
LINE
  5
280
330
1F
100
AcDbEntity
  8
0
  6
SLD-Durchgehend
 62
     7
370
    25
100
AcDbLine
 10
362.7860406447
 20
442.4521614477
 30
0.0
 11
363.4860406447
 21
442.0480162593
 31
0.0
  0
LINE
  5
281
330
1F
100
AcDbEntity
  8
0
  6
SLD-Durchgehend
 62
     7
370
    25
100
AcDbLine
 10
362.7860406447
 20
442.4521614477
 30
0.0
 11
362.8054404408
 21
442.4520278813
 31
0.0
  0
LINE
  5
282
330
1F
100
AcDbEntity
  8
0
  6
SLD-Durchgehend
 62
     7
370
    25
100
AcDbLine
 10
362.8054404408
 20
443.4522950142
 30
0.0
 11
363.5175354999
 21
443.8563066362
 31
0.0
  0
LINE
  5
283
330
1F
100
AcDbEntity
  8
0
  6
SLD-Durchgehend
 62
     7
370
    25
100
AcDbLine
 10
362.8054404408
 20
443.4522950142
 30
0.0
 11
362.7860406447
 21
443.4521614477
 31
0.0
  0
LINE
  5
284
330
1F
100
AcDbEntity
  8
0
  6
SLD-Durchgehend
 62
     7
370
    25
100
AcDbLine
 10
363.4860406447
 20
443.8563066362
 30
0.0
 11
362.7860406447
 21
443.4521614477
 31
0.0
  0
LINE
  5
285
330
1F
100
AcDbEntity
  8
0
  6
SLD-Durchgehend
 62
     7
370
    25
100
AcDbLine
 10
363.4860406447
 20
443.8563066362
 30
0.0
 11
363.5175354999
 21
443.8563066362
 31
0.0
  0
LINE
  5
286
330
1F
100
AcDbEntity
  8
0
  6
SLD-Durchgehend
 62
     7
370
    25
100
AcDbLine
 10
362.8054404408
 20
443.4522950142
 30
0.0
 11
362.8054404408
 21
442.4520278813
 31
0.0
  0
LINE
  5
287
330
1F
100
AcDbEntity
  8
0
  6
SLD-Durchgehend
 62
     7
370
    25
100
AcDbLine
 10
362.7860406447
 20
442.4521614477
 30
0.0
 11
362.7860406447
 21
443.4521614477
 31
0.0
  0
LINE
  5
288
330
1F
100
AcDbEntity
  8
0
  6
SLD-Durchgehend
 62
     7
370
    25
100
AcDbLine
 10
480.1666408486
 20
442.4520278813
 30
0.0
 11
479.4545457895
 21
442.0480162593
 31
0.0
  0
LINE
  5
289
330
1F
100
AcDbEntity
  8
0
  6
SLD-Durchgehend
 62
     7
370
    25
100
AcDbLine
 10
480.1666408486
 20
442.4520278813
 30
0.0
 11
480.1860406447
 21
442.4521614477
 31
0.0
  0
LINE
  5
28A
330
1F
100
AcDbEntity
  8
0
  6
SLD-Durchgehend
 62
     7
370
    25
100
AcDbLine
 10
479.4860406447
 20
442.0480162593
 30
0.0
 11
480.1860406447
 21
442.4521614477
 31
0.0
  0
LINE
  5
28B
330
1F
100
AcDbEntity
  8
0
  6
SLD-Durchgehend
 62
     7
370
    25
100
AcDbLine
 10
479.4860406447
 20
442.0480162593
 30
0.0
 11
479.4545457895
 21
442.0480162593
 31
0.0
  0
LINE
  5
28C
330
1F
100
AcDbEntity
  8
0
  6
SLD-Durchgehend
 62
     7
370
    25
100
AcDbLine
 10
479.4545457895
 20
443.8563066362
 30
0.0
 11
480.1666408486
 21
443.4522950142
 31
0.0
  0
LINE
  5
28D
330
1F
100
AcDbEntity
  8
0
  6
SLD-Durchgehend
 62
     7
370
    25
100
AcDbLine
 10
479.4545457895
 20
443.8563066362
 30
0.0
 11
479.4860406447
 21
443.8563066362
 31
0.0
  0
LINE
  5
28E
330
1F
100
AcDbEntity
  8
0
  6
SLD-Durchgehend
 62
     7
370
    25
100
AcDbLine
 10
480.1860406447
 20
443.4521614477
 30
0.0
 11
479.4860406447
 21
443.8563066362
 31
0.0
  0
LINE
  5
28F
330
1F
100
AcDbEntity
  8
0
  6
SLD-Durchgehend
 62
     7
370
    25
100
AcDbLine
 10
480.1860406447
 20
443.4521614477
 30
0.0
 11
480.1666408486
 21
443.4522950142
 31
0.0
  0
LINE
  5
290
330
1F
100
AcDbEntity
  8
0
  6
SLD-Durchgehend
 62
     7
370
    25
100
AcDbLine
 10
480.1666408486
 20
442.4520278813
 30
0.0
 11
480.1666408486
 21
443.4522950142
 31
0.0
  0
LINE
  5
291
330
1F
100
AcDbEntity
  8
0
  6
SLD-Durchgehend
 62
     7
370
    25
100
AcDbLine
 10
480.1860406447
 20
443.4521614477
 30
0.0
 11
480.1860406447
 21
442.4521614477
 31
0.0
  0
LINE
  5
292
330
1F
100
AcDbEntity
  8
0
  6
SLD-Durchgehend
 62
     7
370
    25
100
AcDbLine
 10
365.4860406447
 20
440.6521614477
 30
0.0
 11
365.4860406447
 21
439.9521614477
 31
0.0
  0
LINE
  5
293
330
1F
100
AcDbEntity
  8
0
  6
SLD-Durchgehend
 62
     7
370
    25
100
AcDbLine
 10
477.4860406447
 20
439.9521614477
 30
0.0
 11
477.4860406447
 21
440.6521614477
 31
0.0
  0
LINE
  5
294
330
1F
100
AcDbEntity
  8
0
  6
SLD-Durchgehend
 62
     7
370
    25
100
AcDbLine
 10
362.0860406447
 20
443.7480162593
 30
0.0
 11
362.7860406447
 21
444.1521614477
 31
0.0
  0
LINE
  5
295
330
1F
100
AcDbEntity
  8
0
  6
SLD-Durchgehend
 62
     7
370
    25
100
AcDbLine
 10
362.7860406447
 20
441.7521614477
 30
0.0
 11
362.0860406447
 21
442.1563066362
 31
0.0
  0
LINE
  5
296
330
1F
100
AcDbEntity
  8
0
  6
SLD-Durchgehend
 62
     7
370
    25
100
AcDbLine
 10
362.0860406447
 20
442.1563066362
 30
0.0
 11
362.0860406447
 21
443.7480162593
 31
0.0
  0
LINE
  5
297
330
1F
100
AcDbEntity
  8
0
  6
SLD-Durchgehend
 62
     7
370
    25
100
AcDbLine
 10
480.1860406447
 20
444.1521614477
 30
0.0
 11
480.8860406447
 21
443.7480162593
 31
0.0
  0
LINE
  5
298
330
1F
100
AcDbEntity
  8
0
  6
SLD-Durchgehend
 62
     7
370
    25
100
AcDbLine
 10
362.7860406447
 20
444.1521614477
 30
0.0
 11
362.7860406447
 21
445.1521614477
 31
0.0
  0
LINE
  5
299
330
1F
100
AcDbEntity
  8
0
  6
SLD-Durchgehend
 62
     7
370
    25
100
AcDbLine
 10
362.7860406447
 20
441.1521614477
 30
0.0
 11
362.7860406447
 21
441.7521614477
 31
0.0
  0
LINE
  5
29A
330
1F
100
AcDbEntity
  8
0
  6
SLD-Durchgehend
 62
     7
370
    25
100
AcDbLine
 10
480.1860406447
 20
441.7521614477
 30
0.0
 11
480.1860406447
 21
441.1521614477
 31
0.0
  0
LINE
  5
29B
330
1F
100
AcDbEntity
  8
0
  6
SLD-Durchgehend
 62
     7
370
    25
100
AcDbLine
 10
480.1860406447
 20
445.1521614477
 30
0.0
 11
480.1860406447
 21
444.1521614477
 31
0.0
  0
ARC
  5
29C
330
1F
100
AcDbEntity
  8
0
  6
SLD-Durchgehend
 62
     7
370
    25
100
AcDbCircle
 10
362.4860406447
 20
445.1521614477
 30
0.0
 40
0.2999999999999545
100
AcDbArc
 50
0.0
 51
90.0
  0
ARC
  5
29D
330
1F
100
AcDbEntity
  8
0
  6
SLD-Durchgehend
 62
     7
370
    25
100
AcDbCircle
 10
480.4860406447
 20
445.1521614477
 30
0.0
 40
0.2999999999999545
100
AcDbArc
 50
90.0
 51
180.0
  0
ARC
  5
29E
330
1F
100
AcDbEntity
  8
0
  6
SLD-Durchgehend
 62
     7
370
    25
100
AcDbCircle
 10
361.9860406447
 20
445.1521614477
 30
0.0
 40
0.3000000000000114
100
AcDbArc
 50
90.0
 51
180.0
  0
ARC
  5
29F
330
1F
100
AcDbEntity
  8
0
  6
SLD-Durchgehend
 62
     7
370
    25
100
AcDbCircle
 10
480.9860406447
 20
445.1521614477
 30
0.0
 40
0.3000000000000114
100
AcDbArc
 50
0.0
 51
90.0
  0
LINE
  5
2A0
330
1F
100
AcDbEntity
  8
0
  6
SLD-Durchgehend
 62
     7
370
    25
100
AcDbLine
 10
361.6860406447
 20
445.1521614477
 30
0.0
 11
361.6860406447
 21
444.1521614477
 31
0.0
  0
LINE
  5
2A1
330
1F
100
AcDbEntity
  8
0
  6
SLD-Durchgehend
 62
     7
370
    25
100
AcDbLine
 10
481.2860406447
 20
444.1521614477
 30
0.0
 11
481.2860406447
 21
445.1521614477
 31
0.0
  0
LINE
  5
2A2
330
1F
100
AcDbEntity
  8
0
  6
SLD-Durchgehend
 62
     7
370
    25
100
AcDbLine
 10
360.9860406447
 20
444.1521614477
 30
0.0
 11
360.9860406447
 21
445.1521614477
 31
0.0
  0
LINE
  5
2A3
330
1F
100
AcDbEntity
  8
0
  6
SLD-Durchgehend
 62
     7
370
    25
100
AcDbLine
 10
481.9860406447
 20
445.1521614477
 30
0.0
 11
481.9860406447
 21
444.1521614477
 31
0.0
  0
ARC
  5
2A4
330
1F
100
AcDbEntity
  8
0
  6
SLD-Durchgehend
 62
     7
370
    25
100
AcDbCircle
 10
361.9860406447
 20
445.1521614477
 30
0.0
 40
1.0
100
AcDbArc
 50
90.0
 51
180.0
  0
ARC
  5
2A5
330
1F
100
AcDbEntity
  8
0
  6
SLD-Durchgehend
 62
     7
370
    25
100
AcDbCircle
 10
480.9860406447
 20
445.1521614477
 30
0.0
 40
1.0
100
AcDbArc
 50
0.0
 51
90.0
  0
ARC
  5
2A6
330
1F
100
AcDbEntity
  8
0
  6
SLD-Durchgehend
 62
     7
370
    25
100
AcDbCircle
 10
363.9860406447
 20
441.1521614477
 30
0.0
 40
1.199999999999989
100
AcDbArc
 50
180.0
 51
270.0
  0
ARC
  5
2A7
330
1F
100
AcDbEntity
  8
0
  6
SLD-Durchgehend
 62
     7
370
    25
100
AcDbCircle
 10
478.9860406447
 20
441.1521614477
 30
0.0
 40
1.199999999999989
100
AcDbArc
 50
270.0
 51
0.0
  0
LINE
  5
2A8
330
1F
100
AcDbEntity
  8
0
  6
SLD-Durchgehend
 62
     7
370
    25
100
AcDbLine
 10
364.0572746191
 20
440.6521614477
 30
0.0
 11
364.0572746191
 21
440.5521614477
 31
0.0
  0
ARC
  5
2A9
330
1F
100
AcDbEntity
  8
0
  6
SLD-Durchgehend
 62
     7
370
    25
100
AcDbCircle
 10
363.9860406447
 20
441.1521614477
 30
0.0
 40
0.5
100
AcDbArc
 50
180.0
 51
270.0
  0
ARC
  5
2AA
330
1F
100
AcDbEntity
  8
0
  6
SLD-Durchgehend
 62
     7
370
    25
100
AcDbCircle
 10
478.9860406447
 20
441.1521614477
 30
0.0
 40
0.5
100
AcDbArc
 50
270.0
 51
0.0
  0
LINE
  5
2AB
330
1F
100
AcDbEntity
  8
0
  6
SLD-Durchgehend
 62
     7
370
    25
100
AcDbLine
 10
479.4860406447
 20
441.1521614477
 30
0.0
 11
479.4860406447
 21
442.0480162593
 31
0.0
  0
LINE
  5
2AC
330
1F
100
AcDbEntity
  8
0
  6
SLD-Durchgehend
 62
     7
370
    25
100
AcDbLine
 10
479.4860406447
 20
443.8563066362
 30
0.0
 11
479.4860406447
 21
445.1521614477
 31
0.0
  0
ARC
  5
2AD
330
1F
100
AcDbEntity
  8
0
  6
SLD-Durchgehend
 62
     7
370
    25
100
AcDbCircle
 10
480.4860406447
 20
445.1521614477
 30
0.0
 40
1.0
100
AcDbArc
 50
90.0
 51
180.0
  0
LINE
  5
2AE
330
1F
100
AcDbEntity
  8
0
  6
SLD-Durchgehend
 62
     7
370
    25
100
AcDbLine
 10
480.4860406447
 20
446.1521614477
 30
0.0
 11
480.9860406447
 21
446.1521614477
 31
0.0
  0
LINE
  5
2AF
330
1F
100
AcDbEntity
  8
0
  6
SLD-Durchgehend
 62
     7
370
    25
100
AcDbLine
 10
481.9860406447
 20
444.1521614477
 30
0.0
 11
481.2860406447
 21
444.1521614477
 31
0.0
  0
LINE
  5
2B0
330
1F
100
AcDbEntity
  8
0
  6
SLD-Durchgehend
 62
     7
370
    25
100
AcDbLine
 10
480.9860406447
 20
445.4521614477
 30
0.0
 11
480.4860406447
 21
445.4521614477
 31
0.0
  0
LINE
  5
2B1
330
1F
100
AcDbEntity
  8
0
  6
SLD-Durchgehend
 62
     7
370
    25
100
AcDbLine
 10
478.9860406447
 20
439.9521614477
 30
0.0
 11
477.4860406447
 21
439.9521614477
 31
0.0
  0
ARC
  5
2B2
330
1F
100
AcDbEntity
  8
0
  6
SLD-Durchgehend
 62
     7
370
    25
100
AcDbCircle
 10
362.4860406447
 20
445.1521614477
 30
0.0
 40
1.0
100
AcDbArc
 50
360.0
 51
90.0
  0
LINE
  5
2B3
330
1F
100
AcDbEntity
  8
0
  6
SLD-Durchgehend
 62
     7
370
    25
100
AcDbLine
 10
363.4860406447
 20
445.1521614477
 30
0.0
 11
363.4860406447
 21
443.8563066362
 31
0.0
  0
LINE
  5
2B4
330
1F
100
AcDbEntity
  8
0
  6
SLD-Durchgehend
 62
     7
370
    25
100
AcDbLine
 10
363.4860406447
 20
442.0480162593
 30
0.0
 11
363.4860406447
 21
441.1521614477
 31
0.0
  0
LINE
  5
2B5
330
1F
100
AcDbEntity
  8
0
  6
SLD-Durchgehend
 62
     7
370
    25
100
AcDbLine
 10
363.9860406447
 20
440.6521614477
 30
0.0
 11
364.0572746191
 21
440.6521614477
 31
0.0
  0
LINE
  5
2B6
330
1F
100
AcDbEntity
  8
0
  6
SLD-Durchgehend
 62
     7
370
    25
100
AcDbLine
 10
365.3157414994
 20
440.6521614477
 30
0.0
 11
365.4860406447
 21
440.6521614477
 31
0.0
  0
LINE
  5
2B7
330
1F
100
AcDbEntity
  8
0
  6
SLD-Durchgehend
 62
     7
370
    25
100
AcDbLine
 10
365.3157414994
 20
440.5521614477
 30
0.0
 11
365.3157414994
 21
440.6521614477
 31
0.0
  0
LINE
  5
2B8
330
1F
100
AcDbEntity
  8
0
  6
SLD-Durchgehend
 62
     7
370
    25
100
AcDbLine
 10
365.3157414994
 20
440.5521614477
 30
0.0
 11
364.0572746191
 21
440.5521614477
 31
0.0
  0
LINE
  5
2B9
330
1F
100
AcDbEntity
  8
0
  6
SLD-Durchgehend
 62
     7
370
    25
100
AcDbLine
 10
361.9860406447
 20
446.1521614477
 30
0.0
 11
362.4860406447
 21
446.1521614477
 31
0.0
  0
LINE
  5
2BA
330
1F
100
AcDbEntity
  8
0
  6
SLD-Durchgehend
 62
     7
370
    25
100
AcDbLine
 10
361.6860406447
 20
444.1521614477
 30
0.0
 11
360.9860406447
 21
444.1521614477
 31
0.0
  0
LINE
  5
2BB
330
1F
100
AcDbEntity
  8
0
  6
SLD-Durchgehend
 62
     7
370
    25
100
AcDbLine
 10
362.4860406447
 20
445.4521614477
 30
0.0
 11
361.9860406447
 21
445.4521614477
 31
0.0
  0
LINE
  5
2BC
330
1F
100
AcDbEntity
  8
0
  6
SLD-Durchgehend
 62
     7
370
    25
100
AcDbLine
 10
365.4860406447
 20
439.9521614477
 30
0.0
 11
363.9860406447
 21
439.9521614477
 31
0.0
  0
LINE
  5
2BD
330
1F
100
AcDbEntity
  8
0
  6
SLD-Durchgehend
 62
     7
370
    25
100
AcDbLine
 10
480.4860406447
 20
446.1521614477
 30
0.0
 11
362.4860406447
 21
446.1521614477
 31
0.0
  0
LINE
  5
2BE
330
1F
100
AcDbEntity
  8
0
  6
SLD-Durchgehend
 62
     7
370
    25
100
AcDbLine
 10
363.5175354999
 20
443.8563066362
 30
0.0
 11
363.5175354999
 21
442.0480162593
 31
0.0
  0
LINE
  5
2BF
330
1F
100
AcDbEntity
  8
0
  6
SLD-Durchgehend
 62
     7
370
    25
100
AcDbLine
 10
479.4545457895
 20
442.0480162593
 30
0.0
 11
479.4545457895
 21
443.8563066362
 31
0.0
  0
LINE
  5
2C0
330
1F
100
AcDbEntity
  8
0
  6
SLD-Durchgehend
 62
     7
370
    25
100
AcDbLine
 10
364.4538846117
 20
440.5521614477
 30
0.0
 11
364.4538846117
 21
440.6521614477
 31
0.0
  0
LINE
  5
2C1
330
1F
100
AcDbEntity
  8
0
  6
SLD-Durchgehend
 62
     7
370
    25
100
AcDbLine
 10
365.8860406447
 20
440.6521614477
 30
0.0
 11
365.8860406447
 21
407.1521614477
 31
0.0
  0
LINE
  5
2C2
330
1F
100
AcDbEntity
  8
0
  6
SLD-Durchgehend
 62
     7
370
    25
100
AcDbLine
 10
477.0860406447
 20
440.6521614477
 30
0.0
 11
365.8860406447
 21
440.6521614477
 31
0.0
  0
LINE
  5
2C3
330
1F
100
AcDbEntity
  8
0
  6
SLD-Durchgehend
 62
     7
370
    25
100
AcDbLine
 10
477.0860406447
 20
407.1521614477
 30
0.0
 11
477.0860406447
 21
440.6521614477
 31
0.0
  0
LINE
  5
2C4
330
1F
100
AcDbEntity
  8
0
  6
SLD-Durchgehend
 62
     7
370
    25
100
AcDbLine
 10
477.0860406447
 20
407.1521614477
 30
0.0
 11
365.8860406447
 21
407.1521614477
 31
0.0
  0
ARC
  5
2C5
330
1F
100
AcDbEntity
  8
0
  6
SLD-Durchgehend
 62
     7
370
    25
100
AcDbCircle
 10
478.7360406447
 20
427.2093433916
 30
0.0
 40
0.25
100
AcDbArc
 50
0.0
 51
84.9999999999
  0
LINE
  5
2C6
330
1F
100
AcDbEntity
  8
0
  6
SLD-Durchgehend
 62
     7
370
    25
100
AcDbLine
 10
478.9860406447
 20
427.2093433916
 30
0.0
 11
478.9860406447
 21
426.6949795038
 31
0.0
  0
ARC
  5
2C7
330
1F
100
AcDbEntity
  8
0
  6
SLD-Durchgehend
 62
     7
370
    25
100
AcDbCircle
 10
478.7360406447
 20
426.6949795038
 30
0.0
 40
0.2500000000000167
100
AcDbArc
 50
275.0
 51
0.0
  0
LINE
  5
2C8
330
1F
100
AcDbEntity
  8
0
  6
SLD-Durchgehend
 62
     7
370
    25
100
AcDbLine
 10
477.914251709
 20
426.3721273287
 30
0.0
 11
478.7578295804
 21
426.4459308293
 31
0.0
  0
ARC
  5
2C9
330
1F
100
AcDbEntity
  8
0
  6
SLD-Durchgehend
 62
     7
370
    25
100
AcDbCircle
 10
477.9360406447
 20
426.1230786542
 30
0.0
 40
0.2499999999999432
100
AcDbArc
 50
95.0000000002
 51
180.0
  0
LINE
  5
2CA
330
1F
100
AcDbEntity
  8
0
  6
SLD-Durchgehend
 62
     7
370
    25
100
AcDbLine
 10
477.6860406447
 20
424.5812442412
 30
0.0
 11
477.6860406447
 21
426.1230786542
 31
0.0
  0
ARC
  5
2CB
330
1F
100
AcDbEntity
  8
0
  6
SLD-Durchgehend
 62
     7
370
    25
100
AcDbCircle
 10
477.9360406447
 20
424.5812442412
 30
0.0
 40
0.2500000000000046
100
AcDbArc
 50
180.0
 51
264.9999999999
  0
LINE
  5
2CC
330
1F
100
AcDbEntity
  8
0
  6
SLD-Durchgehend
 62
     7
370
    25
100
AcDbLine
 10
478.7578295804
 20
424.2583920662
 30
0.0
 11
477.914251709
 21
424.3321955667
 31
0.0
  0
ARC
  5
2CD
330
1F
100
AcDbEntity
  8
0
  6
SLD-Durchgehend
 62
     7
370
    25
100
AcDbCircle
 10
478.7360406447
 20
424.0093433916
 30
0.0
 40
0.25
100
AcDbArc
 50
0.0
 51
84.9999999999
  0
LINE
  5
2CE
330
1F
100
AcDbEntity
  8
0
  6
SLD-Durchgehend
 62
     7
370
    25
100
AcDbLine
 10
478.9860406447
 20
424.0093433916
 30
0.0
 11
478.9860406447
 21
423.4949795038
 31
0.0
  0
ARC
  5
2CF
330
1F
100
AcDbEntity
  8
0
  6
SLD-Durchgehend
 62
     7
370
    25
100
AcDbCircle
 10
478.7360406447
 20
423.4949795038
 30
0.0
 40
0.25
100
AcDbArc
 50
275.0
 51
0.0
  0
LINE
  5
2D0
330
1F
100
AcDbEntity
  8
0
  6
SLD-Durchgehend
 62
     7
370
    25
100
AcDbLine
 10
477.914251709
 20
423.1721273287
 30
0.0
 11
478.7578295804
 21
423.2459308293
 31
0.0
  0
ARC
  5
2D1
330
1F
100
AcDbEntity
  8
0
  6
SLD-Durchgehend
 62
     7
370
    25
100
AcDbCircle
 10
477.9360406447
 20
422.9230786542
 30
0.0
 40
0.2499999999999579
100
AcDbArc
 50
95.0000000001
 51
180.0
  0
LINE
  5
2D2
330
1F
100
AcDbEntity
  8
0
  6
SLD-Durchgehend
 62
     7
370
    25
100
AcDbLine
 10
477.6860406447
 20
421.3812442412
 30
0.0
 11
477.6860406447
 21
422.9230786542
 31
0.0
  0
ARC
  5
2D3
330
1F
100
AcDbEntity
  8
0
  6
SLD-Durchgehend
 62
     7
370
    25
100
AcDbCircle
 10
477.9360406447
 20
421.3812442412
 30
0.0
 40
0.2500000000000294
100
AcDbArc
 50
180.0
 51
264.9999999998
  0
LINE
  5
2D4
330
1F
100
AcDbEntity
  8
0
  6
SLD-Durchgehend
 62
     7
370
    25
100
AcDbLine
 10
478.7578295804
 20
421.0583920662
 30
0.0
 11
477.914251709
 21
421.1321955667
 31
0.0
  0
ARC
  5
2D5
330
1F
100
AcDbEntity
  8
0
  6
SLD-Durchgehend
 62
     7
370
    25
100
AcDbCircle
 10
478.7360406447
 20
420.8093433916
 30
0.0
 40
0.2500000000000414
100
AcDbArc
 50
0.0
 51
84.9999999999
  0
LINE
  5
2D6
330
1F
100
AcDbEntity
  8
0
  6
SLD-Durchgehend
 62
     7
370
    25
100
AcDbLine
 10
478.9860406447
 20
420.8093433916
 30
0.0
 11
478.9860406447
 21
420.2949795038
 31
0.0
  0
ARC
  5
2D7
330
1F
100
AcDbEntity
  8
0
  6
SLD-Durchgehend
 62
     7
370
    25
100
AcDbCircle
 10
478.7360406447
 20
420.2949795038
 30
0.0
 40
0.25
100
AcDbArc
 50
275.0
 51
0.0
  0
LINE
  5
2D8
330
1F
100
AcDbEntity
  8
0
  6
SLD-Durchgehend
 62
     7
370
    25
100
AcDbLine
 10
477.914251709
 20
419.9721273287
 30
0.0
 11
478.7578295804
 21
420.0459308293
 31
0.0
  0
ARC
  5
2D9
330
1F
100
AcDbEntity
  8
0
  6
SLD-Durchgehend
 62
     7
370
    25
100
AcDbCircle
 10
477.9360406447
 20
419.7230786542
 30
0.0
 40
0.249999999999948
100
AcDbArc
 50
95.0000000001
 51
180.0
  0
LINE
  5
2DA
330
1F
100
AcDbEntity
  8
0
  6
SLD-Durchgehend
 62
     7
370
    25
100
AcDbLine
 10
477.6860406447
 20
418.1812442412
 30
0.0
 11
477.6860406447
 21
419.7230786542
 31
0.0
  0
ARC
  5
2DB
330
1F
100
AcDbEntity
  8
0
  6
SLD-Durchgehend
 62
     7
370
    25
100
AcDbCircle
 10
477.9360406447
 20
418.1812442412
 30
0.0
 40
0.2500000000000442
100
AcDbArc
 50
180.0
 51
264.9999999998
  0
LINE
  5
2DC
330
1F
100
AcDbEntity
  8
0
  6
SLD-Durchgehend
 62
     7
370
    25
100
AcDbLine
 10
478.7578295804
 20
417.8583920662
 30
0.0
 11
477.914251709
 21
417.9321955667
 31
0.0
  0
ARC
  5
2DD
330
1F
100
AcDbEntity
  8
0
  6
SLD-Durchgehend
 62
     7
370
    25
100
AcDbCircle
 10
478.7360406447
 20
417.6093433916
 30
0.0
 40
0.2500000000000315
100
AcDbArc
 50
0.0
 51
85.0
  0
LINE
  5
2DE
330
1F
100
AcDbEntity
  8
0
  6
SLD-Durchgehend
 62
     7
370
    25
100
AcDbLine
 10
478.9860406447
 20
417.6093433916
 30
0.0
 11
478.9860406447
 21
417.0949795038
 31
0.0
  0
ARC
  5
2DF
330
1F
100
AcDbEntity
  8
0
  6
SLD-Durchgehend
 62
     7
370
    25
100
AcDbCircle
 10
478.7360406447
 20
417.0949795038
 30
0.0
 40
0.2500000000000733
100
AcDbArc
 50
275.0
 51
0.0
  0
LINE
  5
2E0
330
1F
100
AcDbEntity
  8
0
  6
SLD-Durchgehend
 62
     7
370
    25
100
AcDbLine
 10
477.914251709
 20
416.7721273287
 30
0.0
 11
478.7578295804
 21
416.8459308293
 31
0.0
  0
ARC
  5
2E1
330
1F
100
AcDbEntity
  8
0
  6
SLD-Durchgehend
 62
     7
370
    25
100
AcDbCircle
 10
477.9360406447
 20
416.5230786542
 30
0.0
 40
0.2499999999999947
100
AcDbArc
 50
95.0000000001
 51
180.0
  0
LINE
  5
2E2
330
1F
100
AcDbEntity
  8
0
  6
SLD-Durchgehend
 62
     7
370
    25
100
AcDbLine
 10
477.6860406447
 20
414.9812442412
 30
0.0
 11
477.6860406447
 21
416.5230786542
 31
0.0
  0
ARC
  5
2E3
330
1F
100
AcDbEntity
  8
0
  6
SLD-Durchgehend
 62
     7
370
    25
100
AcDbCircle
 10
477.9360406447
 20
414.9812442412
 30
0.0
 40
0.2499999999999508
100
AcDbArc
 50
180.0
 51
264.9999999997
  0
LINE
  5
2E4
330
1F
100
AcDbEntity
  8
0
  6
SLD-Durchgehend
 62
     7
370
    25
100
AcDbLine
 10
478.7578295804
 20
414.6583920662
 30
0.0
 11
477.914251709
 21
414.7321955667
 31
0.0
  0
ARC
  5
2E5
330
1F
100
AcDbEntity
  8
0
  6
SLD-Durchgehend
 62
     7
370
    25
100
AcDbCircle
 10
478.7360406447
 20
414.4093433916
 30
0.0
 40
0.25
100
AcDbArc
 50
0.0
 51
85.0
  0
LINE
  5
2E6
330
1F
100
AcDbEntity
  8
0
  6
SLD-Durchgehend
 62
     7
370
    25
100
AcDbLine
 10
478.9860406447
 20
414.4093433916
 30
0.0
 11
478.9860406447
 21
413.8949795038
 31
0.0
  0
ARC
  5
2E7
330
1F
100
AcDbEntity
  8
0
  6
SLD-Durchgehend
 62
     7
370
    25
100
AcDbCircle
 10
478.7360406447
 20
413.8949795038
 30
0.0
 40
0.2500000000000167
100
AcDbArc
 50
275.0
 51
0.0
  0
LINE
  5
2E8
330
1F
100
AcDbEntity
  8
0
  6
SLD-Durchgehend
 62
     7
370
    25
100
AcDbLine
 10
477.914251709
 20
413.5721273287
 30
0.0
 11
478.7578295804
 21
413.6459308293
 31
0.0
  0
ARC
  5
2E9
330
1F
100
AcDbEntity
  8
0
  6
SLD-Durchgehend
 62
     7
370
    25
100
AcDbCircle
 10
477.9360406447
 20
413.3230786542
 30
0.0
 40
0.2500000000000414
100
AcDbArc
 50
95.0000000001
 51
180.0
  0
LINE
  5
2EA
330
1F
100
AcDbEntity
  8
0
  6
SLD-Durchgehend
 62
     7
370
    25
100
AcDbLine
 10
477.6860406447
 20
411.7812442412
 30
0.0
 11
477.6860406447
 21
413.3230786542
 31
0.0
  0
ARC
  5
2EB
330
1F
100
AcDbEntity
  8
0
  6
SLD-Durchgehend
 62
     7
370
    25
100
AcDbCircle
 10
477.9360406447
 20
411.7812442412
 30
0.0
 40
0.24999999999997
100
AcDbArc
 50
180.0
 51
265.0
  0
LINE
  5
2EC
330
1F
100
AcDbEntity
  8
0
  6
SLD-Durchgehend
 62
     7
370
    25
100
AcDbLine
 10
478.7578295804
 20
411.4583920662
 30
0.0
 11
477.914251709
 21
411.5321955667
 31
0.0
  0
ARC
  5
2ED
330
1F
100
AcDbEntity
  8
0
  6
SLD-Durchgehend
 62
     7
370
    25
100
AcDbCircle
 10
478.7360406447
 20
411.2093433916
 30
0.0
 40
0.25
100
AcDbArc
 50
0.0
 51
84.9999999999
  0
LINE
  5
2EE
330
1F
100
AcDbEntity
  8
0
  6
SLD-Durchgehend
 62
     7
370
    25
100
AcDbLine
 10
478.9860406447
 20
411.2093433916
 30
0.0
 11
478.9860406447
 21
410.6949795038
 31
0.0
  0
ARC
  5
2EF
330
1F
100
AcDbEntity
  8
0
  6
SLD-Durchgehend
 62
     7
370
    25
100
AcDbCircle
 10
478.7360406447
 20
410.6949795038
 30
0.0
 40
0.25
100
AcDbArc
 50
275.0
 51
0.0
  0
LINE
  5
2F0
330
1F
100
AcDbEntity
  8
0
  6
SLD-Durchgehend
 62
     7
370
    25
100
AcDbLine
 10
477.914251709
 20
410.3721273287
 30
0.0
 11
478.7578295804
 21
410.4459308293
 31
0.0
  0
ARC
  5
2F1
330
1F
100
AcDbEntity
  8
0
  6
SLD-Durchgehend
 62
     7
370
    25
100
AcDbCircle
 10
477.9360406447
 20
410.1230786542
 30
0.0
 40
0.2499999999999749
100
AcDbArc
 50
95.0
 51
180.0
  0
LINE
  5
2F2
330
1F
100
AcDbEntity
  8
0
  6
SLD-Durchgehend
 62
     7
370
    25
100
AcDbLine
 10
477.6860406447
 20
408.5812442412
 30
0.0
 11
477.6860406447
 21
410.1230786542
 31
0.0
  0
ARC
  5
2F3
330
1F
100
AcDbEntity
  8
0
  6
SLD-Durchgehend
 62
     7
370
    25
100
AcDbCircle
 10
477.9360406447
 20
408.5812442412
 30
0.0
 40
0.2499999999999947
100
AcDbArc
 50
180.0
 51
264.9999999999
  0
LINE
  5
2F4
330
1F
100
AcDbEntity
  8
0
  6
SLD-Durchgehend
 62
     7
370
    25
100
AcDbLine
 10
478.7578295804
 20
408.2583920662
 30
0.0
 11
477.914251709
 21
408.3321955667
 31
0.0
  0
ARC
  5
2F5
330
1F
100
AcDbEntity
  8
0
  6
SLD-Durchgehend
 62
     7
370
    25
100
AcDbCircle
 10
478.7360406447
 20
408.0093433916
 30
0.0
 40
0.25
100
AcDbArc
 50
0.0
 51
84.9999999999
  0
LINE
  5
2F6
330
1F
100
AcDbEntity
  8
0
  6
SLD-Durchgehend
 62
     7
370
    25
100
AcDbLine
 10
478.9860406447
 20
408.0093433916
 30
0.0
 11
478.9860406447
 21
407.4021614477
 31
0.0
  0
ARC
  5
2F7
330
1F
100
AcDbEntity
  8
0
  6
SLD-Durchgehend
 62
     7
370
    25
100
AcDbCircle
 10
478.7360406447
 20
407.4021614477
 30
0.0
 40
0.2500000000000568
100
AcDbArc
 50
270.0
 51
0.0
  0
LINE
  5
2F8
330
1F
100
AcDbEntity
  8
0
  6
SLD-Durchgehend
 62
     7
370
    25
100
AcDbLine
 10
477.0860406447
 20
440.6521614477
 30
0.0
 11
477.4860406447
 21
440.6521614477
 31
0.0
  0
LINE
  5
2F9
330
1F
100
AcDbEntity
  8
0
  6
SLD-Durchgehend
 62
     7
370
    25
100
AcDbLine
 10
480.1860406447
 20
441.1521614477
 30
0.0
 11
480.1860406447
 21
445.1521614477
 31
0.0
  0
LINE
  5
2FA
330
1F
100
AcDbEntity
  8
0
  6
SLD-Durchgehend
 62
     7
370
    25
100
AcDbLine
 10
481.9860406447
 20
444.1521614477
 30
0.0
 11
481.9860406447
 21
439.1521614477
 31
0.0
  0
ARC
  5
2FB
330
1F
100
AcDbEntity
  8
0
  6
SLD-Durchgehend
 62
     7
370
    25
100
AcDbCircle
 10
480.9860406447
 20
439.1521614477
 30
0.0
 40
1.0
100
AcDbArc
 50
270.0
 51
0.0
  0
LINE
  5
2FC
330
1F
100
AcDbEntity
  8
0
  6
SLD-Durchgehend
 62
     7
370
    25
100
AcDbLine
 10
480.9860406447
 20
438.1521614477
 30
0.0
 11
479.2360406447
 21
438.1521614477
 31
0.0
  0
ARC
  5
2FD
330
1F
100
AcDbEntity
  8
0
  6
SLD-Durchgehend
 62
     7
370
    25
100
AcDbCircle
 10
479.2360406447
 20
437.9021614477
 30
0.0
 40
0.25
100
AcDbArc
 50
90.0
 51
180.0
  0
LINE
  5
2FE
330
1F
100
AcDbEntity
  8
0
  6
SLD-Durchgehend
 62
     7
370
    25
100
AcDbLine
 10
478.9860406447
 20
437.9021614477
 30
0.0
 11
478.9860406447
 21
436.2949795038
 31
0.0
  0
ARC
  5
2FF
330
1F
100
AcDbEntity
  8
0
  6
SLD-Durchgehend
 62
     7
370
    25
100
AcDbCircle
 10
478.7360406447
 20
436.2949795038
 30
0.0
 40
0.2500000000000365
100
AcDbArc
 50
275.0000000001
 51
0.0
  0
LINE
  5
300
330
1F
100
AcDbEntity
  8
0
  6
SLD-Durchgehend
 62
     7
370
    25
100
AcDbLine
 10
477.914251709
 20
435.9721273287
 30
0.0
 11
478.7578295804
 21
436.0459308293
 31
0.0
  0
ARC
  5
301
330
1F
100
AcDbEntity
  8
0
  6
SLD-Durchgehend
 62
     7
370
    25
100
AcDbCircle
 10
477.9360406447
 20
435.7230786542
 30
0.0
 40
0.2500000000000393
100
AcDbArc
 50
95.0000000002
 51
180.0
  0
LINE
  5
302
330
1F
100
AcDbEntity
  8
0
  6
SLD-Durchgehend
 62
     7
370
    25
100
AcDbLine
 10
477.6860406447
 20
434.1812442412
 30
0.0
 11
477.6860406447
 21
435.7230786542
 31
0.0
  0
ARC
  5
303
330
1F
100
AcDbEntity
  8
0
  6
SLD-Durchgehend
 62
     7
370
    25
100
AcDbCircle
 10
477.9360406447
 20
434.1812442412
 30
0.0
 40
0.249999999999953
100
AcDbArc
 50
180.0
 51
264.9999999999
  0
LINE
  5
304
330
1F
100
AcDbEntity
  8
0
  6
SLD-Durchgehend
 62
     7
370
    25
100
AcDbLine
 10
478.7578295804
 20
433.8583920662
 30
0.0
 11
477.914251709
 21
433.9321955667
 31
0.0
  0
ARC
  5
305
330
1F
100
AcDbEntity
  8
0
  6
SLD-Durchgehend
 62
     7
370
    25
100
AcDbCircle
 10
478.7360406447
 20
433.6093433916
 30
0.0
 40
0.25
100
AcDbArc
 50
0.0
 51
85.0
  0
LINE
  5
306
330
1F
100
AcDbEntity
  8
0
  6
SLD-Durchgehend
 62
     7
370
    25
100
AcDbLine
 10
478.9860406447
 20
433.6093433916
 30
0.0
 11
478.9860406447
 21
433.0949795038
 31
0.0
  0
ARC
  5
307
330
1F
100
AcDbEntity
  8
0
  6
SLD-Durchgehend
 62
     7
370
    25
100
AcDbCircle
 10
478.7360406447
 20
433.0949795038
 30
0.0
 40
0.25
100
AcDbArc
 50
275.0000000001
 51
0.0
  0
LINE
  5
308
330
1F
100
AcDbEntity
  8
0
  6
SLD-Durchgehend
 62
     7
370
    25
100
AcDbLine
 10
477.914251709
 20
432.7721273287
 30
0.0
 11
478.7578295804
 21
432.8459308293
 31
0.0
  0
ARC
  5
309
330
1F
100
AcDbEntity
  8
0
  6
SLD-Durchgehend
 62
     7
370
    25
100
AcDbCircle
 10
477.9360406447
 20
432.5230786542
 30
0.0
 40
0.2500000000000145
100
AcDbArc
 50
95.0000000001
 51
180.0
  0
LINE
  5
30A
330
1F
100
AcDbEntity
  8
0
  6
SLD-Durchgehend
 62
     7
370
    25
100
AcDbLine
 10
477.6860406447
 20
430.9812442412
 30
0.0
 11
477.6860406447
 21
432.5230786542
 31
0.0
  0
ARC
  5
30B
330
1F
100
AcDbEntity
  8
0
  6
SLD-Durchgehend
 62
     7
370
    25
100
AcDbCircle
 10
477.9360406447
 20
430.9812442412
 30
0.0
 40
0.2499999999999432
100
AcDbArc
 50
180.0
 51
264.9999999998
  0
LINE
  5
30C
330
1F
100
AcDbEntity
  8
0
  6
SLD-Durchgehend
 62
     7
370
    25
100
AcDbLine
 10
478.7578295804
 20
430.6583920662
 30
0.0
 11
477.914251709
 21
430.7321955667
 31
0.0
  0
ARC
  5
30D
330
1F
100
AcDbEntity
  8
0
  6
SLD-Durchgehend
 62
     7
370
    25
100
AcDbCircle
 10
478.7360406447
 20
430.4093433916
 30
0.0
 40
0.2500000000000167
100
AcDbArc
 50
0.0
 51
85.0
  0
LINE
  5
30E
330
1F
100
AcDbEntity
  8
0
  6
SLD-Durchgehend
 62
     7
370
    25
100
AcDbLine
 10
478.9860406447
 20
430.4093433916
 30
0.0
 11
478.9860406447
 21
429.8949795038
 31
0.0
  0
ARC
  5
30F
330
1F
100
AcDbEntity
  8
0
  6
SLD-Durchgehend
 62
     7
370
    25
100
AcDbCircle
 10
478.7360406447
 20
429.8949795038
 30
0.0
 40
0.25
100
AcDbArc
 50
275.0000000001
 51
0.0
  0
LINE
  5
310
330
1F
100
AcDbEntity
  8
0
  6
SLD-Durchgehend
 62
     7
370
    25
100
AcDbLine
 10
477.914251709
 20
429.5721273287
 30
0.0
 11
478.7578295804
 21
429.6459308293
 31
0.0
  0
ARC
  5
311
330
1F
100
AcDbEntity
  8
0
  6
SLD-Durchgehend
 62
     7
370
    25
100
AcDbCircle
 10
477.9360406447
 20
429.3230786542
 30
0.0
 40
0.2499999999999997
100
AcDbArc
 50
95.0000000001
 51
180.0
  0
LINE
  5
312
330
1F
100
AcDbEntity
  8
0
  6
SLD-Durchgehend
 62
     7
370
    25
100
AcDbLine
 10
477.6860406447
 20
427.7812442412
 30
0.0
 11
477.6860406447
 21
429.3230786542
 31
0.0
  0
ARC
  5
313
330
1F
100
AcDbEntity
  8
0
  6
SLD-Durchgehend
 62
     7
370
    25
100
AcDbCircle
 10
477.9360406447
 20
427.7812442412
 30
0.0
 40
0.2499999999999848
100
AcDbArc
 50
180.0
 51
264.9999999999
  0
LINE
  5
314
330
1F
100
AcDbEntity
  8
0
  6
SLD-Durchgehend
 62
     7
370
    25
100
AcDbLine
 10
478.7578295804
 20
427.4583920662
 30
0.0
 11
477.914251709
 21
427.5321955667
 31
0.0
  0
LINE
  5
315
330
1F
100
AcDbEntity
  8
0
  6
SLD-Durchgehend
 62
     7
370
    25
100
AcDbLine
 10
478.7360406447
 20
407.1521614477
 30
0.0
 11
477.0860406447
 21
407.1521614477
 31
0.0
  0
ARC
  5
316
330
1F
100
AcDbEntity
  8
0
  6
SLD-Durchgehend
 62
     7
370
    25
100
AcDbCircle
 10
365.0360406447
 20
419.7230786542
 30
0.0
 40
0.249999999999948
100
AcDbArc
 50
0.0
 51
84.9999999999
  0
ARC
  5
317
330
1F
100
AcDbEntity
  8
0
  6
SLD-Durchgehend
 62
     7
370
    25
100
AcDbCircle
 10
365.0360406447
 20
411.7812442412
 30
0.0
 40
0.24999999999997
100
AcDbArc
 50
275.0
 51
0.0
  0
ARC
  5
318
330
1F
100
AcDbEntity
  8
0
  6
SLD-Durchgehend
 62
     7
370
    25
100
AcDbCircle
 10
363.7360406447
 20
437.9021614477
 30
0.0
 40
0.25
100
AcDbArc
 50
0.0
 51
90.0
  0
ARC
  5
319
330
1F
100
AcDbEntity
  8
0
  6
SLD-Durchgehend
 62
     7
370
    25
100
AcDbCircle
 10
361.9860406447
 20
439.1521614477
 30
0.0
 40
1.0
100
AcDbArc
 50
180.0
 51
270.0
  0
LINE
  5
31A
330
1F
100
AcDbEntity
  8
0
  6
SLD-Durchgehend
 62
     7
370
    25
100
AcDbLine
 10
360.9860406447
 20
439.1521614477
 30
0.0
 11
360.9860406447
 21
444.1521614477
 31
0.0
  0
LINE
  5
31B
330
1F
100
AcDbEntity
  8
0
  6
SLD-Durchgehend
 62
     7
370
    25
100
AcDbLine
 10
365.0578295804
 20
427.5321955667
 30
0.0
 11
364.214251709
 21
427.4583920662
 31
0.0
  0
LINE
  5
31C
330
1F
100
AcDbEntity
  8
0
  6
SLD-Durchgehend
 62
     7
370
    25
100
AcDbLine
 10
362.7860406447
 20
445.1521614477
 30
0.0
 11
362.7860406447
 21
441.1521614477
 31
0.0
  0
LINE
  5
31D
330
1F
100
AcDbEntity
  8
0
  6
SLD-Durchgehend
 62
     7
370
    25
100
AcDbLine
 10
365.0578295804
 20
430.7321955667
 30
0.0
 11
364.214251709
 21
430.6583920662
 31
0.0
  0
ARC
  5
31E
330
1F
100
AcDbEntity
  8
0
  6
SLD-Durchgehend
 62
     7
370
    25
100
AcDbCircle
 10
364.2360406447
 20
407.4021614477
 30
0.0
 40
0.2500000000000568
100
AcDbArc
 50
180.0
 51
270.0
  0
LINE
  5
31F
330
1F
100
AcDbEntity
  8
0
  6
SLD-Durchgehend
 62
     7
370
    25
100
AcDbLine
 10
363.9860406447
 20
429.8949795038
 30
0.0
 11
363.9860406447
 21
430.4093433916
 31
0.0
  0
ARC
  5
320
330
1F
100
AcDbEntity
  8
0
  6
SLD-Durchgehend
 62
     7
370
    25
100
AcDbCircle
 10
364.2360406447
 20
410.6949795038
 30
0.0
 40
0.2499999999999551
100
AcDbArc
 50
180.0
 51
265.0
  0
ARC
  5
321
330
1F
100
AcDbEntity
  8
0
  6
SLD-Durchgehend
 62
     7
370
    25
100
AcDbCircle
 10
364.2360406447
 20
408.0093433916
 30
0.0
 40
0.2499999999999432
100
AcDbArc
 50
95.0000000001
 51
180.0
  0
ARC
  5
322
330
1F
100
AcDbEntity
  8
0
  6
SLD-Durchgehend
 62
     7
370
    25
100
AcDbCircle
 10
365.0360406447
 20
410.1230786542
 30
0.0
 40
0.2499999999999749
100
AcDbArc
 50
0.0
 51
85.0
  0
LINE
  5
323
330
1F
100
AcDbEntity
  8
0
  6
SLD-Durchgehend
 62
     7
370
    25
100
AcDbLine
 10
363.9860406447
 20
436.2949795038
 30
0.0
 11
363.9860406447
 21
437.9021614477
 31
0.0
  0
LINE
  5
324
330
1F
100
AcDbEntity
  8
0
  6
SLD-Durchgehend
 62
     7
370
    25
100
AcDbLine
 10
363.9860406447
 20
407.4021614477
 30
0.0
 11
363.9860406447
 21
408.0093433916
 31
0.0
  0
ARC
  5
325
330
1F
100
AcDbEntity
  8
0
  6
SLD-Durchgehend
 62
     7
370
    25
100
AcDbCircle
 10
364.2360406447
 20
413.8949795038
 30
0.0
 40
0.2500000000000117
100
AcDbArc
 50
180.0
 51
265.0
  0
ARC
  5
326
330
1F
100
AcDbEntity
  8
0
  6
SLD-Durchgehend
 62
     7
370
    25
100
AcDbCircle
 10
364.2360406447
 20
411.2093433916
 30
0.0
 40
0.249999999999948
100
AcDbArc
 50
95.0000000001
 51
180.0
  0
ARC
  5
327
330
1F
100
AcDbEntity
  8
0
  6
SLD-Durchgehend
 62
     7
370
    25
100
AcDbCircle
 10
365.0360406447
 20
413.3230786542
 30
0.0
 40
0.2500000000000414
100
AcDbArc
 50
0.0
 51
84.9999999999
  0
LINE
  5
328
330
1F
100
AcDbEntity
  8
0
  6
SLD-Durchgehend
 62
     7
370
    25
100
AcDbLine
 10
365.2860406447
 20
426.1230786542
 30
0.0
 11
365.2860406447
 21
424.5812442412
 31
0.0
  0
LINE
  5
329
330
1F
100
AcDbEntity
  8
0
  6
SLD-Durchgehend
 62
     7
370
    25
100
AcDbLine
 10
365.2860406447
 20
413.3230786542
 30
0.0
 11
365.2860406447
 21
411.7812442412
 31
0.0
  0
LINE
  5
32A
330
1F
100
AcDbEntity
  8
0
  6
SLD-Durchgehend
 62
     7
370
    25
100
AcDbLine
 10
364.214251709
 20
413.6459308293
 30
0.0
 11
365.0578295804
 21
413.5721273287
 31
0.0
  0
ARC
  5
32B
330
1F
100
AcDbEntity
  8
0
  6
SLD-Durchgehend
 62
     7
370
    25
100
AcDbCircle
 10
365.0360406447
 20
414.9812442412
 30
0.0
 40
0.2499999999999508
100
AcDbArc
 50
275.0000000003
 51
0.0
  0
LINE
  5
32C
330
1F
100
AcDbEntity
  8
0
  6
SLD-Durchgehend
 62
     7
370
    25
100
AcDbLine
 10
365.0578295804
 20
414.7321955667
 30
0.0
 11
364.214251709
 21
414.6583920662
 31
0.0
  0
LINE
  5
32D
330
1F
100
AcDbEntity
  8
0
  6
SLD-Durchgehend
 62
     7
370
    25
100
AcDbLine
 10
365.2860406447
 20
416.5230786542
 30
0.0
 11
365.2860406447
 21
414.9812442412
 31
0.0
  0
ARC
  5
32E
330
1F
100
AcDbEntity
  8
0
  6
SLD-Durchgehend
 62
     7
370
    25
100
AcDbCircle
 10
364.2360406447
 20
420.2949795038
 30
0.0
 40
0.2499999999999551
100
AcDbArc
 50
180.0
 51
265.0
  0
LINE
  5
32F
330
1F
100
AcDbEntity
  8
0
  6
SLD-Durchgehend
 62
     7
370
    25
100
AcDbLine
 10
365.2860406447
 20
432.5230786542
 30
0.0
 11
365.2860406447
 21
430.9812442412
 31
0.0
  0
LINE
  5
330
330
1F
100
AcDbEntity
  8
0
  6
SLD-Durchgehend
 62
     7
370
    25
100
AcDbLine
 10
364.214251709
 20
420.0459308293
 30
0.0
 11
365.0578295804
 21
419.9721273287
 31
0.0
  0
ARC
  5
331
330
1F
100
AcDbEntity
  8
0
  6
SLD-Durchgehend
 62
     7
370
    25
100
AcDbCircle
 10
364.2360406447
 20
424.0093433916
 30
0.0
 40
0.2499999999999432
100
AcDbArc
 50
95.0000000001
 51
180.0
  0
ARC
  5
332
330
1F
100
AcDbEntity
  8
0
  6
SLD-Durchgehend
 62
     7
370
    25
100
AcDbCircle
 10
365.0360406447
 20
426.1230786542
 30
0.0
 40
0.2499999999999432
100
AcDbArc
 50
0.0
 51
84.9999999998
  0
ARC
  5
333
330
1F
100
AcDbEntity
  8
0
  6
SLD-Durchgehend
 62
     7
370
    25
100
AcDbCircle
 10
365.0360406447
 20
418.1812442412
 30
0.0
 40
0.2500000000000442
100
AcDbArc
 50
275.0000000002
 51
0.0
  0
LINE
  5
334
330
1F
100
AcDbEntity
  8
0
  6
SLD-Durchgehend
 62
     7
370
    25
100
AcDbLine
 10
364.214251709
 20
426.4459308293
 30
0.0
 11
365.0578295804
 21
426.3721273287
 31
0.0
  0
ARC
  5
335
330
1F
100
AcDbEntity
  8
0
  6
SLD-Durchgehend
 62
     7
370
    25
100
AcDbCircle
 10
365.0360406447
 20
429.3230786542
 30
0.0
 40
0.2499999999999997
100
AcDbArc
 50
0.0
 51
84.9999999999
  0
LINE
  5
336
330
1F
100
AcDbEntity
  8
0
  6
SLD-Durchgehend
 62
     7
370
    25
100
AcDbLine
 10
364.214251709
 20
429.6459308293
 30
0.0
 11
365.0578295804
 21
429.5721273287
 31
0.0
  0
ARC
  5
337
330
1F
100
AcDbEntity
  8
0
  6
SLD-Durchgehend
 62
     7
370
    25
100
AcDbCircle
 10
364.2360406447
 20
429.8949795038
 30
0.0
 40
0.2499999999999432
100
AcDbArc
 50
180.0
 51
264.9999999999
  0
ARC
  5
338
330
1F
100
AcDbEntity
  8
0
  6
SLD-Durchgehend
 62
     7
370
    25
100
AcDbCircle
 10
364.2360406447
 20
430.4093433916
 30
0.0
 40
0.2500000000000117
100
AcDbArc
 50
95.0
 51
180.0
  0
ARC
  5
339
330
1F
100
AcDbEntity
  8
0
  6
SLD-Durchgehend
 62
     7
370
    25
100
AcDbCircle
 10
365.0360406447
 20
430.9812442412
 30
0.0
 40
0.2499999999999432
100
AcDbArc
 50
275.0000000002
 51
0.0
  0
ARC
  5
33A
330
1F
100
AcDbEntity
  8
0
  6
SLD-Durchgehend
 62
     7
370
    25
100
AcDbCircle
 10
365.0360406447
 20
432.5230786542
 30
0.0
 40
0.2500000000000145
100
AcDbArc
 50
0.0
 51
84.9999999999
  0
LINE
  5
33B
330
1F
100
AcDbEntity
  8
0
  6
SLD-Durchgehend
 62
     7
370
    25
100
AcDbLine
 10
364.214251709
 20
432.8459308293
 30
0.0
 11
365.0578295804
 21
432.7721273287
 31
0.0
  0
ARC
  5
33C
330
1F
100
AcDbEntity
  8
0
  6
SLD-Durchgehend
 62
     7
370
    25
100
AcDbCircle
 10
364.2360406447
 20
433.0949795038
 30
0.0
 40
0.2499999999999432
100
AcDbArc
 50
180.0
 51
264.9999999999
  0
LINE
  5
33D
330
1F
100
AcDbEntity
  8
0
  6
SLD-Durchgehend
 62
     7
370
    25
100
AcDbLine
 10
363.9860406447
 20
433.0949795038
 30
0.0
 11
363.9860406447
 21
433.6093433916
 31
0.0
  0
ARC
  5
33E
330
1F
100
AcDbEntity
  8
0
  6
SLD-Durchgehend
 62
     7
370
    25
100
AcDbCircle
 10
364.2360406447
 20
433.6093433916
 30
0.0
 40
0.2499999999999551
100
AcDbArc
 50
95.0
 51
180.0
  0
LINE
  5
33F
330
1F
100
AcDbEntity
  8
0
  6
SLD-Durchgehend
 62
     7
370
    25
100
AcDbLine
 10
365.0578295804
 20
433.9321955667
 30
0.0
 11
364.214251709
 21
433.8583920662
 31
0.0
  0
ARC
  5
340
330
1F
100
AcDbEntity
  8
0
  6
SLD-Durchgehend
 62
     7
370
    25
100
AcDbCircle
 10
365.0360406447
 20
434.1812442412
 30
0.0
 40
0.249999999999953
100
AcDbArc
 50
275.0000000001
 51
0.0
  0
LINE
  5
341
330
1F
100
AcDbEntity
  8
0
  6
SLD-Durchgehend
 62
     7
370
    25
100
AcDbLine
 10
365.2860406447
 20
435.7230786542
 30
0.0
 11
365.2860406447
 21
434.1812442412
 31
0.0
  0
ARC
  5
342
330
1F
100
AcDbEntity
  8
0
  6
SLD-Durchgehend
 62
     7
370
    25
100
AcDbCircle
 10
365.0360406447
 20
435.7230786542
 30
0.0
 40
0.2500000000000393
100
AcDbArc
 50
0.0
 51
84.9999999998
  0
LINE
  5
343
330
1F
100
AcDbEntity
  8
0
  6
SLD-Durchgehend
 62
     7
370
    25
100
AcDbLine
 10
364.214251709
 20
436.0459308293
 30
0.0
 11
365.0578295804
 21
435.9721273287
 31
0.0
  0
ARC
  5
344
330
1F
100
AcDbEntity
  8
0
  6
SLD-Durchgehend
 62
     7
370
    25
100
AcDbCircle
 10
364.2360406447
 20
436.2949795038
 30
0.0
 40
0.2500000000000315
100
AcDbArc
 50
180.0
 51
265.0
  0
LINE
  5
345
330
1F
100
AcDbEntity
  8
0
  6
SLD-Durchgehend
 62
     7
370
    25
100
AcDbLine
 10
365.0578295804
 20
408.3321955667
 30
0.0
 11
364.214251709
 21
408.2583920662
 31
0.0
  0
ARC
  5
346
330
1F
100
AcDbEntity
  8
0
  6
SLD-Durchgehend
 62
     7
370
    25
100
AcDbCircle
 10
365.0360406447
 20
408.5812442412
 30
0.0
 40
0.2499999999999947
100
AcDbArc
 50
275.0000000001
 51
0.0
  0
LINE
  5
347
330
1F
100
AcDbEntity
  8
0
  6
SLD-Durchgehend
 62
     7
370
    25
100
AcDbLine
 10
365.2860406447
 20
410.1230786542
 30
0.0
 11
365.2860406447
 21
408.5812442412
 31
0.0
  0
LINE
  5
348
330
1F
100
AcDbEntity
  8
0
  6
SLD-Durchgehend
 62
     7
370
    25
100
AcDbLine
 10
364.214251709
 20
410.4459308293
 30
0.0
 11
365.0578295804
 21
410.3721273287
 31
0.0
  0
LINE
  5
349
330
1F
100
AcDbEntity
  8
0
  6
SLD-Durchgehend
 62
     7
370
    25
100
AcDbLine
 10
363.9860406447
 20
410.6949795038
 30
0.0
 11
363.9860406447
 21
411.2093433916
 31
0.0
  0
LINE
  5
34A
330
1F
100
AcDbEntity
  8
0
  6
SLD-Durchgehend
 62
     7
370
    25
100
AcDbLine
 10
365.0578295804
 20
411.5321955667
 30
0.0
 11
364.214251709
 21
411.4583920662
 31
0.0
  0
LINE
  5
34B
330
1F
100
AcDbEntity
  8
0
  6
SLD-Durchgehend
 62
     7
370
    25
100
AcDbLine
 10
363.9860406447
 20
413.8949795038
 30
0.0
 11
363.9860406447
 21
414.4093433916
 31
0.0
  0
ARC
  5
34C
330
1F
100
AcDbEntity
  8
0
  6
SLD-Durchgehend
 62
     7
370
    25
100
AcDbCircle
 10
364.2360406447
 20
414.4093433916
 30
0.0
 40
0.2499999999999601
100
AcDbArc
 50
95.0
 51
180.0
  0
ARC
  5
34D
330
1F
100
AcDbEntity
  8
0
  6
SLD-Durchgehend
 62
     7
370
    25
100
AcDbCircle
 10
365.0360406447
 20
416.5230786542
 30
0.0
 40
0.2499999999999947
100
AcDbArc
 50
0.0
 51
84.9999999999
  0
LINE
  5
34E
330
1F
100
AcDbEntity
  8
0
  6
SLD-Durchgehend
 62
     7
370
    25
100
AcDbLine
 10
364.214251709
 20
416.8459308293
 30
0.0
 11
365.0578295804
 21
416.7721273287
 31
0.0
  0
ARC
  5
34F
330
1F
100
AcDbEntity
  8
0
  6
SLD-Durchgehend
 62
     7
370
    25
100
AcDbCircle
 10
364.2360406447
 20
417.0949795038
 30
0.0
 40
0.2500000000000683
100
AcDbArc
 50
180.0
 51
265.0
  0
LINE
  5
350
330
1F
100
AcDbEntity
  8
0
  6
SLD-Durchgehend
 62
     7
370
    25
100
AcDbLine
 10
363.9860406447
 20
417.0949795038
 30
0.0
 11
363.9860406447
 21
417.6093433916
 31
0.0
  0
ARC
  5
351
330
1F
100
AcDbEntity
  8
0
  6
SLD-Durchgehend
 62
     7
370
    25
100
AcDbCircle
 10
364.2360406447
 20
417.6093433916
 30
0.0
 40
0.2500000000000266
100
AcDbArc
 50
95.0
 51
180.0
  0
LINE
  5
352
330
1F
100
AcDbEntity
  8
0
  6
SLD-Durchgehend
 62
     7
370
    25
100
AcDbLine
 10
365.0578295804
 20
417.9321955667
 30
0.0
 11
364.214251709
 21
417.8583920662
 31
0.0
  0
LINE
  5
353
330
1F
100
AcDbEntity
  8
0
  6
SLD-Durchgehend
 62
     7
370
    25
100
AcDbLine
 10
365.2860406447
 20
419.7230786542
 30
0.0
 11
365.2860406447
 21
418.1812442412
 31
0.0
  0
LINE
  5
354
330
1F
100
AcDbEntity
  8
0
  6
SLD-Durchgehend
 62
     7
370
    25
100
AcDbLine
 10
363.9860406447
 20
420.2949795038
 30
0.0
 11
363.9860406447
 21
420.8093433916
 31
0.0
  0
ARC
  5
355
330
1F
100
AcDbEntity
  8
0
  6
SLD-Durchgehend
 62
     7
370
    25
100
AcDbCircle
 10
364.2360406447
 20
420.8093433916
 30
0.0
 40
0.2500000000000365
100
AcDbArc
 50
95.0000000001
 51
180.0
  0
LINE
  5
356
330
1F
100
AcDbEntity
  8
0
  6
SLD-Durchgehend
 62
     7
370
    25
100
AcDbLine
 10
365.0578295804
 20
421.1321955667
 30
0.0
 11
364.214251709
 21
421.0583920662
 31
0.0
  0
ARC
  5
357
330
1F
100
AcDbEntity
  8
0
  6
SLD-Durchgehend
 62
     7
370
    25
100
AcDbCircle
 10
365.0360406447
 20
421.3812442412
 30
0.0
 40
0.2500000000000294
100
AcDbArc
 50
275.0000000002
 51
0.0
  0
LINE
  5
358
330
1F
100
AcDbEntity
  8
0
  6
SLD-Durchgehend
 62
     7
370
    25
100
AcDbLine
 10
365.2860406447
 20
422.9230786542
 30
0.0
 11
365.2860406447
 21
421.3812442412
 31
0.0
  0
ARC
  5
359
330
1F
100
AcDbEntity
  8
0
  6
SLD-Durchgehend
 62
     7
370
    25
100
AcDbCircle
 10
365.0360406447
 20
422.9230786542
 30
0.0
 40
0.2499999999999579
100
AcDbArc
 50
0.0
 51
84.9999999999
  0
LINE
  5
35A
330
1F
100
AcDbEntity
  8
0
  6
SLD-Durchgehend
 62
     7
370
    25
100
AcDbLine
 10
364.214251709
 20
423.2459308293
 30
0.0
 11
365.0578295804
 21
423.1721273287
 31
0.0
  0
ARC
  5
35B
330
1F
100
AcDbEntity
  8
0
  6
SLD-Durchgehend
 62
     7
370
    25
100
AcDbCircle
 10
364.2360406447
 20
423.4949795038
 30
0.0
 40
0.2499999999999551
100
AcDbArc
 50
180.0
 51
265.0
  0
LINE
  5
35C
330
1F
100
AcDbEntity
  8
0
  6
SLD-Durchgehend
 62
     7
370
    25
100
AcDbLine
 10
363.9860406447
 20
423.4949795038
 30
0.0
 11
363.9860406447
 21
424.0093433916
 31
0.0
  0
LINE
  5
35D
330
1F
100
AcDbEntity
  8
0
  6
SLD-Durchgehend
 62
     7
370
    25
100
AcDbLine
 10
365.0578295804
 20
424.3321955667
 30
0.0
 11
364.214251709
 21
424.2583920662
 31
0.0
  0
ARC
  5
35E
330
1F
100
AcDbEntity
  8
0
  6
SLD-Durchgehend
 62
     7
370
    25
100
AcDbCircle
 10
365.0360406447
 20
424.5812442412
 30
0.0
 40
0.2500000000000046
100
AcDbArc
 50
275.0000000001
 51
0.0
  0
ARC
  5
35F
330
1F
100
AcDbEntity
  8
0
  6
SLD-Durchgehend
 62
     7
370
    25
100
AcDbCircle
 10
364.2360406447
 20
426.6949795038
 30
0.0
 40
0.2500000000000117
100
AcDbArc
 50
180.0
 51
265.0
  0
LINE
  5
360
330
1F
100
AcDbEntity
  8
0
  6
SLD-Durchgehend
 62
     7
370
    25
100
AcDbLine
 10
363.9860406447
 20
426.6949795038
 30
0.0
 11
363.9860406447
 21
427.2093433916
 31
0.0
  0
ARC
  5
361
330
1F
100
AcDbEntity
  8
0
  6
SLD-Durchgehend
 62
     7
370
    25
100
AcDbCircle
 10
364.2360406447
 20
427.2093433916
 30
0.0
 40
0.2499999999999432
100
AcDbArc
 50
95.0000000001
 51
180.0
  0
ARC
  5
362
330
1F
100
AcDbEntity
  8
0
  6
SLD-Durchgehend
 62
     7
370
    25
100
AcDbCircle
 10
365.0360406447
 20
427.7812442412
 30
0.0
 40
0.2499999999999848
100
AcDbArc
 50
275.0000000001
 51
0.0
  0
LINE
  5
363
330
1F
100
AcDbEntity
  8
0
  6
SLD-Durchgehend
 62
     7
370
    25
100
AcDbLine
 10
365.2860406447
 20
429.3230786542
 30
0.0
 11
365.2860406447
 21
427.7812442412
 31
0.0
  0
LINE
  5
364
330
1F
100
AcDbEntity
  8
0
  6
SLD-Durchgehend
 62
     7
370
    25
100
AcDbLine
 10
365.4860406447
 20
440.6521614477
 30
0.0
 11
365.8860406447
 21
440.6521614477
 31
0.0
  0
LINE
  5
365
330
1F
100
AcDbEntity
  8
0
  6
SLD-Durchgehend
 62
     7
370
    25
100
AcDbLine
 10
363.7360406447
 20
438.1521614477
 30
0.0
 11
361.9860406447
 21
438.1521614477
 31
0.0
  0
LINE
  5
366
330
1F
100
AcDbEntity
  8
0
  6
SLD-Durchgehend
 62
     7
370
    25
100
AcDbLine
 10
365.8860406447
 20
407.1521614477
 30
0.0
 11
364.2360406447
 21
407.1521614477
 31
0.0
  0
HATCH
  5
367
330
1F
100
AcDbEntity
  8
0
  6
SLD-Durchgehend
 62
     7
370
    18
100
AcDbHatch
 10
0.0
 20
0.0
 30
0.0
210
0.0
220
0.0
230
1.0
  2
ANSI31
 70
     0
 71
     0
 91
        1
 92
        0
 93
       90
 72
     1
 10
365.286040644709
 20
429.3230786542147
 11
365.286040644709
 21
427.7812442412234
 72
     2
 10
365.0360406447091
 20
427.7812442412234
 40
0.25
 50
0.0
 51
84.99999999993452
 73
     0
 72
     1
 10
365.0578295803963
 20
427.5321955667005
 11
364.2142517090217
 21
427.4583920661539
 72
     2
 10
364.236040644709
 20
427.209343391631
 40
0.25
 50
95.00000000010556
 51
180.0
 73
     1
 72
     1
 10
363.9860406447091
 20
427.209343391631
 11
363.9860406447091
 21
426.6949795038071
 72
     2
 10
364.236040644709
 20
426.6949795038071
 40
0.25
 50
180.0
 51
265.0000000000144
 73
     1
 72
     1
 10
364.2142517090222
 20
426.4459308292842
 11
365.0578295803967
 21
426.3721273287375
 72
     2
 10
365.0360406447091
 20
426.1230786542147
 40
0.25
 50
275.0000000001724
 51
360.0000000000008
 73
     0
 72
     1
 10
365.286040644709
 20
426.1230786542147
 11
365.286040644709
 21
424.5812442412234
 72
     2
 10
365.0360406447091
 20
424.5812442412234
 40
0.25
 50
0.0
 51
84.9999999998826
 73
     0
 72
     1
 10
365.0578295803965
 20
424.3321955667005
 11
364.2142517090218
 21
424.2583920661539
 72
     2
 10
364.236040644709
 20
424.009343391631
 40
0.25
 50
95.0000000000796
 51
180.0
 73
     1
 72
     1
 10
363.9860406447091
 20
424.009343391631
 11
363.9860406447091
 21
423.4949795038071
 72
     2
 10
364.236040644709
 20
423.4949795038071
 40
0.25
 50
180.0
 51
265.0000000000132
 73
     1
 72
     1
 10
364.2142517090222
 20
423.2459308292842
 11
365.0578295803966
 21
423.1721273287375
 72
     2
 10
365.0360406447091
 20
422.9230786542147
 40
0.25
 50
275.0000000001465
 51
360.0000000000008
 73
     0
 72
     1
 10
365.286040644709
 20
422.9230786542147
 11
365.286040644709
 21
421.3812442412234
 72
     2
 10
365.0360406447091
 20
421.3812442412234
 40
0.25
 50
0.0
 51
84.99999999981772
 73
     0
 72
     1
 10
365.0578295803968
 20
421.1321955667005
 11
364.2142517090219
 21
421.0583920661539
 72
     2
 10
364.236040644709
 20
420.809343391631
 40
0.25
 50
95.00000000005139
 51
180.0
 73
     1
 72
     1
 10
363.9860406447091
 20
420.809343391631
 11
363.9860406447091
 21
420.2949795038071
 72
     2
 10
364.236040644709
 20
420.2949795038071
 40
0.25
 50
180.0
 51
265.0000000000132
 73
     1
 72
     1
 10
364.2142517090222
 20
420.0459308292842
 11
365.0578295803965
 21
419.9721273287375
 72
     2
 10
365.0360406447091
 20
419.7230786542147
 40
0.25
 50
275.0000000001193
 51
360.0000000000008
 73
     0
 72
     1
 10
365.286040644709
 20
419.7230786542147
 11
365.286040644709
 21
418.1812442412235
 72
     2
 10
365.0360406447091
 20
418.1812442412235
 40
0.25
 50
0.0
 51
84.99999999977878
 73
     0
 72
     1
 10
365.057829580397
 20
417.9321955667006
 11
364.214251709022
 21
417.858392066154
 72
     2
 10
364.236040644709
 20
417.609343391631
 40
0.25
 50
95.00000000002542
 51
180.0
 73
     1
 72
     1
 10
363.9860406447091
 20
417.609343391631
 11
363.9860406447091
 21
417.0949795038072
 72
     2
 10
364.236040644709
 20
417.0949795038072
 40
0.25
 50
180.0
 51
265.0000000000155
 73
     1
 72
     1
 10
364.2142517090222
 20
416.8459308292842
 11
365.0578295803964
 21
416.7721273287376
 72
     2
 10
365.0360406447091
 20
416.5230786542147
 40
0.25
 50
275.0000000000923
 51
360.0000000000008
 73
     0
 72
     1
 10
365.286040644709
 20
416.5230786542147
 11
365.286040644709
 21
414.9812442412235
 72
     2
 10
365.0360406447091
 20
414.9812442412235
 40
0.25
 50
0.0
 51
84.99999999972573
 73
     0
 72
     1
 10
365.0578295803972
 20
414.7321955667006
 11
364.2142517090221
 21
414.658392066154
 72
     2
 10
364.236040644709
 20
414.4093433916311
 40
0.25
 50
95.0000000000006
 51
180.0
 73
     1
 72
     1
 10
363.9860406447091
 20
414.4093433916311
 11
363.9860406447091
 21
413.8949795038071
 72
     2
 10
364.236040644709
 20
413.8949795038071
 40
0.25
 50
180.0
 51
265.0000000000144
 73
     1
 72
     1
 10
364.2142517090222
 20
413.6459308292842
 11
365.0578295803963
 21
413.5721273287376
 72
     2
 10
365.0360406447091
 20
413.3230786542147
 40
0.25
 50
275.0000000000651
 51
360.0000000000008
 73
     0
 72
     1
 10
365.286040644709
 20
413.3230786542147
 11
365.286040644709
 21
411.7812442412234
 72
     2
 10
365.0360406447091
 20
411.7812442412234
 40
0.25
 50
0.0
 51
84.99999999997345
 73
     0
 72
     1
 10
365.0578295803961
 20
411.5321955667005
 11
364.2142517090216
 21
411.4583920661539
 72
     2
 10
364.236040644709
 20
411.209343391631
 40
0.25
 50
95.00000000011855
 51
180.0
 73
     1
 72
     1
 10
363.9860406447091
 20
411.209343391631
 11
363.9860406447091
 21
410.6949795038071
 72
     2
 10
364.236040644709
 20
410.6949795038071
 40
0.25
 50
180.0
 51
265.0000000000132
 73
     1
 72
     1
 10
364.2142517090222
 20
410.4459308292842
 11
365.0578295803962
 21
410.3721273287376
 72
     2
 10
365.0360406447091
 20
410.1230786542147
 40
0.25
 50
275.0000000000404
 51
360.0000000000008
 73
     0
 72
     1
 10
365.286040644709
 20
410.1230786542147
 11
365.286040644709
 21
408.5812442412234
 72
     2
 10
365.0360406447091
 20
408.5812442412234
 40
0.25
 50
0.0
 51
84.99999999990857
 73
     0
 72
     1
 10
365.0578295803964
 20
408.3321955667005
 11
364.2142517090217
 21
408.2583920661539
 72
     2
 10
364.236040644709
 20
408.009343391631
 40
0.25
 50
95.00000000009257
 51
180.0
 73
     1
 72
     1
 10
363.9860406447091
 20
408.009343391631
 11
363.9860406447091
 21
407.4021614477191
 72
     2
 10
364.236040644709
 20
407.4021614477191
 40
0.25
 50
180.0
 51
270.0000000000008
 73
     1
 72
     1
 10
364.236040644709
 20
407.152161447719
 11
365.8860406447091
 21
407.152161447719
 72
     1
 10
365.8860406447091
 20
407.152161447719
 11
365.8860406447091
 21
440.6521614477193
 72
     1
 10
365.8860406447091
 20
440.6521614477193
 11
365.4860406447091
 21
440.6521614477193
 72
     1
 10
365.4860406447091
 20
440.6521614477193
 11
365.4860406447091
 21
439.9521614477195
 72
     1
 10
365.4860406447091
 20
439.9521614477195
 11
363.9860406447091
 21
439.9521614477195
 72
     2
 10
363.9860406447091
 20
441.1521614477194
 40
1.200000000000007
 50
90.0
 51
180.0
 73
     0
 72
     1
 10
362.786040644709
 20
441.1521614477194
 11
362.786040644709
 21
445.152161447719
 72
     2
 10
362.4860406447091
 20
445.152161447719
 40
0.2999999999999956
 50
0.0
 51
90.0
 73
     1
 72
     1
 10
362.4860406447091
 20
445.452161447719
 11
361.9860406447091
 21
445.452161447719
 72
     2
 10
361.9860406447091
 20
445.152161447719
 40
0.300000000000009
 50
90.0
 51
180.0
 73
     1
 72
     1
 10
361.6860406447091
 20
445.152161447719
 11
361.6860406447091
 21
444.1521614477191
 72
     1
 10
361.6860406447091
 20
444.1521614477191
 11
360.9860406447091
 21
444.1521614477191
 72
     1
 10
360.9860406447091
 20
444.1521614477191
 11
360.9860406447091
 21
439.152161447719
 72
     2
 10
361.9860406447091
 20
439.152161447719
 40
1.0
 50
180.0
 51
270.0000000000008
 73
     1
 72
     1
 10
361.9860406447091
 20
438.152161447719
 11
363.7360406447091
 21
438.152161447719
 72
     2
 10
363.7360406447091
 20
437.902161447719
 40
0.25
 50
270.0000000000008
 51
360.0000000000008
 73
     0
 72
     1
 10
363.9860406447091
 20
437.902161447719
 11
363.9860406447091
 21
436.2949795038072
 72
     2
 10
364.236040644709
 20
436.2949795038072
 40
0.25
 50
180.0
 51
264.9999999999624
 73
     1
 72
     1
 10
364.2142517090219
 20
436.0459308292842
 11
365.0578295803969
 21
435.9721273287376
 72
     2
 10
365.0360406447091
 20
435.7230786542147
 40
0.25
 50
275.0000000002091
 51
360.0000000000008
 73
     0
 72
     1
 10
365.286040644709
 20
435.7230786542147
 11
365.286040644709
 21
434.1812442412235
 72
     2
 10
365.0360406447091
 20
434.1812442412235
 40
0.25
 50
0.0
 51
84.99999999986849
 73
     0
 72
     1
 10
365.0578295803966
 20
433.9321955667006
 11
364.2142517090222
 21
433.858392066154
 72
     2
 10
364.236040644709
 20
433.6093433916311
 40
0.25
 50
94.99999999998761
 51
180.0
 73
     1
 72
     1
 10
363.9860406447091
 20
433.6093433916311
 11
363.9860406447091
 21
433.0949795038071
 72
     2
 10
364.236040644709
 20
433.0949795038071
 40
0.25
 50
180.0
 51
264.9999999999342
 73
     1
 72
     1
 10
364.2142517090218
 20
432.8459308292843
 11
365.0578295803966
 21
432.7721273287376
 72
     2
 10
365.0360406447091
 20
432.5230786542148
 40
0.25
 50
275.0000000001453
 51
360.0000000000008
 73
     0
 72
     1
 10
365.286040644709
 20
432.5230786542148
 11
365.286040644709
 21
430.9812442412234
 72
     2
 10
365.0360406447091
 20
430.9812442412234
 40
0.25
 50
0.0
 51
84.99999999984139
 73
     0
 72
     1
 10
365.0578295803967
 20
430.7321955667006
 11
364.2142517090222
 21
430.658392066154
 72
     2
 10
364.236040644709
 20
430.409343391631
 40
0.25
 50
94.9999999999865
 51
180.0
 73
     1
 72
     1
 10
363.9860406447091
 20
430.409343391631
 11
363.9860406447091
 21
429.8949795038071
 72
     2
 10
364.236040644709
 20
429.8949795038071
 40
0.25
 50
180.0
 51
264.9999999999212
 73
     1
 72
     1
 10
364.2142517090218
 20
429.6459308292843
 11
365.0578295803965
 21
429.5721273287376
 72
     2
 10
365.0360406447091
 20
429.3230786542147
 40
0.25
 50
275.0000000001052
 51
360.0000000000008
 73
     0
 97
        0
 75
     0
 76
     1
 52
0.0
 41
2.0
 77
     0
 78
     1
 53
45.0
 43
0.0
 44
0.0
 45
-4.490128060534577
 46
4.490128060534577
 79
     0
 98
        1
 10
0.0
 20
0.0
  0
HATCH
  5
368
330
1F
100
AcDbEntity
  8
0
  6
SLD-Durchgehend
 62
     7
370
    18
100
AcDbHatch
 10
0.0
 20
0.0
 30
0.0
210
0.0
220
0.0
230
1.0
  2
ANSI31
 70
     0
 71
     0
 91
        1
 92
        0
 93
       90
 72
     1
 10
478.7578295803965
 20
427.4583920661539
 11
477.9142517090219
 21
427.5321955667005
 72
     2
 10
477.9360406447091
 20
427.7812442412234
 40
0.25
 50
95.00000000006548
 51
180.0
 73
     0
 72
     1
 10
477.6860406447091
 20
427.7812442412234
 11
477.6860406447091
 21
429.3230786542147
 72
     2
 10
477.9360406447091
 20
429.3230786542147
 40
0.25
 50
180.0
 51
264.9999999998964
 73
     0
 72
     1
 10
477.9142517090217
 20
429.5721273287376
 11
478.7578295803964
 21
429.6459308292843
 72
     2
 10
478.7360406447091
 20
429.8949795038071
 40
0.25
 50
275.0000000000934
 51
360.0000000000008
 73
     1
 72
     1
 10
478.9860406447091
 20
429.8949795038071
 11
478.9860406447091
 21
430.409343391631
 72
     2
 10
478.7360406447091
 20
430.409343391631
 40
0.25
 50
0.0
 51
85.00000000000054
 73
     1
 72
     1
 10
478.757829580396
 20
430.658392066154
 11
477.9142517090215
 21
430.7321955667006
 72
     2
 10
477.9360406447091
 20
430.9812442412234
 40
0.25
 50
95.0000000001586
 51
180.0
 73
     0
 72
     1
 10
477.6860406447091
 20
430.9812442412234
 11
477.6860406447091
 21
432.5230786542148
 72
     2
 10
477.9360406447091
 20
432.5230786542148
 40
0.25
 50
180.0
 51
264.9999999998563
 73
     0
 72
     1
 10
477.9142517090215
 20
432.7721273287376
 11
478.7578295803963
 21
432.8459308292843
 72
     2
 10
478.7360406447091
 20
433.0949795038071
 40
0.25
 50
275.0000000000804
 51
360.0000000000008
 73
     1
 72
     1
 10
478.9860406447091
 20
433.0949795038071
 11
478.9860406447091
 21
433.6093433916311
 72
     2
 10
478.7360406447091
 20
433.6093433916311
 40
0.25
 50
0.0
 51
84.9999999999994
 73
     1
 72
     1
 10
478.757829580396
 20
433.858392066154
 11
477.9142517090216
 21
433.9321955667006
 72
     2
 10
477.9360406447091
 20
434.1812442412235
 40
0.25
 50
95.00000000013152
 51
180.0
 73
     0
 72
     1
 10
477.6860406447091
 20
434.1812442412235
 11
477.6860406447091
 21
435.7230786542147
 72
     2
 10
477.9360406447091
 20
435.7230786542147
 40
0.25
 50
180.0
 51
264.9999999997926
 73
     0
 72
     1
 10
477.9142517090212
 20
435.9721273287376
 11
478.7578295803962
 21
436.0459308292842
 72
     2
 10
478.7360406447091
 20
436.2949795038072
 40
0.25
 50
275.0000000000522
 51
360.0000000000008
 73
     1
 72
     1
 10
478.9860406447091
 20
436.2949795038072
 11
478.9860406447091
 21
437.902161447719
 72
     2
 10
479.236040644709
 20
437.902161447719
 40
0.25
 50
180.0
 51
270.0000000000008
 73
     0
 72
     1
 10
479.236040644709
 20
438.152161447719
 11
480.9860406447091
 21
438.152161447719
 72
     2
 10
480.9860406447091
 20
439.152161447719
 40
1.0
 50
270.0000000000008
 51
360.0000000000008
 73
     1
 72
     1
 10
481.9860406447091
 20
439.152161447719
 11
481.9860406447091
 21
444.1521614477191
 72
     1
 10
481.9860406447091
 20
444.1521614477191
 11
481.2860406447091
 21
444.1521614477191
 72
     1
 10
481.2860406447091
 20
444.1521614477191
 11
481.2860406447091
 21
445.152161447719
 72
     2
 10
480.9860406447091
 20
445.152161447719
 40
0.300000000000009
 50
0.0
 51
90.0
 73
     1
 72
     1
 10
480.9860406447091
 20
445.452161447719
 11
480.4860406447091
 21
445.452161447719
 72
     2
 10
480.4860406447091
 20
445.152161447719
 40
0.2999999999999956
 50
90.0
 51
180.0
 73
     1
 72
     1
 10
480.1860406447091
 20
445.152161447719
 11
480.1860406447091
 21
441.1521614477194
 72
     2
 10
478.9860406447091
 20
441.1521614477194
 40
1.200000000000007
 50
0.0
 51
90.0
 73
     0
 72
     1
 10
478.9860406447091
 20
439.9521614477195
 11
477.4860406447091
 21
439.9521614477195
 72
     1
 10
477.4860406447091
 20
439.9521614477195
 11
477.4860406447091
 21
440.6521614477193
 72
     1
 10
477.4860406447091
 20
440.6521614477193
 11
477.086040644709
 21
440.6521614477193
 72
     1
 10
477.086040644709
 20
440.6521614477193
 11
477.086040644709
 21
407.152161447719
 72
     1
 10
477.086040644709
 20
407.152161447719
 11
478.7360406447091
 21
407.152161447719
 72
     2
 10
478.7360406447091
 20
407.4021614477191
 40
0.25
 50
270.0000000000008
 51
360.0000000000008
 73
     1
 72
     1
 10
478.9860406447091
 20
407.4021614477191
 11
478.9860406447091
 21
408.009343391631
 72
     2
 10
478.7360406447091
 20
408.009343391631
 40
0.25
 50
0.0
 51
84.99999999989446
 73
     1
 72
     1
 10
478.7578295803964
 20
408.2583920661539
 11
477.9142517090218
 21
408.3321955667005
 72
     2
 10
477.9360406447091
 20
408.5812442412234
 40
0.25
 50
95.00000000009145
 51
180.0
 73
     0
 72
     1
 10
477.6860406447091
 20
408.5812442412234
 11
477.6860406447091
 21
410.1230786542147
 72
     2
 10
477.9360406447091
 20
410.1230786542147
 40
0.25
 50
180.0
 51
264.9999999999613
 73
     0
 72
     1
 10
477.914251709022
 20
410.3721273287376
 11
478.757829580396
 21
410.4459308292842
 72
     2
 10
478.7360406447091
 20
410.6949795038071
 40
0.25
 50
275.0000000000014
 51
360.0000000000008
 73
     1
 72
     1
 10
478.9860406447091
 20
410.6949795038071
 11
478.9860406447091
 21
411.209343391631
 72
     2
 10
478.7360406447091
 20
411.209343391631
 40
0.25
 50
0.0
 51
84.99999999986849
 73
     1
 72
     1
 10
478.7578295803966
 20
411.4583920661539
 11
477.914251709022
 21
411.5321955667005
 72
     2
 10
477.9360406447091
 20
411.7812442412234
 40
0.25
 50
95.00000000002656
 51
180.0
 73
     0
 72
     1
 10
477.6860406447091
 20
411.7812442412234
 11
477.6860406447091
 21
413.3230786542147
 72
     2
 10
477.9360406447091
 20
413.3230786542147
 40
0.25
 50
180.0
 51
264.9999999999364
 73
     0
 72
     1
 10
477.9142517090219
 20
413.5721273287376
 11
478.757829580396
 21
413.6459308292842
 72
     2
 10
478.7360406447091
 20
413.8949795038071
 40
0.25
 50
275.0000000000003
 51
360.0000000000008
 73
     1
 72
     1
 10
478.9860406447091
 20
413.8949795038071
 11
478.9860406447091
 21
414.4093433916311
 72
     2
 10
478.7360406447091
 20
414.4093433916311
 40
0.25
 50
0.0
 51
84.99999999998643
 73
     1
 72
     1
 10
478.757829580396
 20
414.658392066154
 11
477.914251709021
 21
414.7321955667006
 72
     2
 10
477.9360406447091
 20
414.9812442412235
 40
0.25
 50
95.00000000027427
 51
180.0
 73
     0
 72
     1
 10
477.6860406447091
 20
414.9812442412235
 11
477.6860406447091
 21
416.5230786542147
 72
     2
 10
477.9360406447091
 20
416.5230786542147
 40
0.25
 50
180.0
 51
264.9999999999094
 73
     0
 72
     1
 10
477.9142517090218
 20
416.7721273287376
 11
478.757829580396
 21
416.8459308292842
 72
     2
 10
478.7360406447091
 20
417.0949795038072
 40
0.25
 50
274.9999999999991
 51
360.0000000000008
 73
     1
 72
     1
 10
478.9860406447091
 20
417.0949795038072
 11
478.9860406447091
 21
417.609343391631
 72
     2
 10
478.7360406447091
 20
417.609343391631
 40
0.25
 50
0.0
 51
84.9999999999616
 73
     1
 72
     1
 10
478.7578295803962
 20
417.858392066154
 11
477.9142517090212
 21
417.9321955667006
 72
     2
 10
477.9360406447091
 20
418.1812442412235
 40
0.25
 50
95.00000000022122
 51
180.0
 73
     0
 72
     1
 10
477.6860406447091
 20
418.1812442412235
 11
477.6860406447091
 21
419.7230786542147
 72
     2
 10
477.9360406447091
 20
419.7230786542147
 40
0.25
 50
180.0
 51
264.9999999998822
 73
     0
 72
     1
 10
477.9142517090216
 20
419.9721273287375
 11
478.757829580396
 21
420.0459308292842
 72
     2
 10
478.7360406447091
 20
420.2949795038071
 40
0.25
 50
275.0000000000014
 51
360.0000000000008
 73
     1
 72
     1
 10
478.9860406447091
 20
420.2949795038071
 11
478.9860406447091
 21
420.809343391631
 72
     2
 10
478.7360406447091
 20
420.809343391631
 40
0.25
 50
0.0
 51
84.99999999993565
 73
     1
 72
     1
 10
478.7578295803963
 20
421.0583920661539
 11
477.9142517090214
 21
421.1321955667005
 72
     2
 10
477.9360406447091
 20
421.3812442412234
 40
0.25
 50
95.0000000001823
 51
180.0
 73
     0
 72
     1
 10
477.6860406447091
 20
421.3812442412234
 11
477.6860406447091
 21
422.9230786542147
 72
     2
 10
477.9360406447091
 20
422.9230786542147
 40
0.25
 50
180.0
 51
264.9999999998552
 73
     0
 72
     1
 10
477.9142517090215
 20
423.1721273287375
 11
478.757829580396
 21
423.2459308292842
 72
     2
 10
478.7360406447091
 20
423.4949795038071
 40
0.25
 50
275.0000000000014
 51
360.0000000000008
 73
     1
 72
     1
 10
478.9860406447091
 20
423.4949795038071
 11
478.9860406447091
 21
424.009343391631
 72
     2
 10
478.7360406447091
 20
424.009343391631
 40
0.25
 50
0.0
 51
84.99999999990742
 73
     1
 72
     1
 10
478.7578295803964
 20
424.2583920661539
 11
477.9142517090216
 21
424.3321955667005
 72
     2
 10
477.9360406447091
 20
424.5812442412234
 40
0.25
 50
95.00000000011738
 51
180.0
 73
     0
 72
     1
 10
477.6860406447091
 20
424.5812442412234
 11
477.6860406447091
 21
426.1230786542147
 72
     2
 10
477.9360406447091
 20
426.1230786542147
 40
0.25
 50
180.0
 51
264.9999999998292
 73
     0
 72
     1
 10
477.9142517090214
 20
426.3721273287375
 11
478.757829580396
 21
426.4459308292842
 72
     2
 10
478.7360406447091
 20
426.6949795038071
 40
0.25
 50
275.0000000000003
 51
360.0000000000008
 73
     1
 72
     1
 10
478.9860406447091
 20
426.6949795038071
 11
478.9860406447091
 21
427.209343391631
 72
     2
 10
478.7360406447091
 20
427.209343391631
 40
0.25
 50
0.0
 51
84.99999999988147
 73
     1
 97
        0
 75
     0
 76
     1
 52
0.0
 41
2.0
 77
     0
 78
     1
 53
45.0
 43
0.0
 44
0.0
 45
-4.490128060534577
 46
4.490128060534577
 79
     0
 98
        1
 10
0.0
 20
0.0
  0
HATCH
  5
369
330
1F
100
AcDbEntity
  8
0
  6
SLD-Durchgehend
 62
     7
370
    18
100
AcDbHatch
 10
0.0
 20
0.0
 30
0.0
210
0.0
220
0.0
230
1.0
  2
ANSI31
 70
     0
 71
     0
 91
        1
 92
        0
 93
       24
 72
     1
 10
481.2860406447091
 20
445.1521614477194
 11
481.2860406447091
 21
444.1521614477194
 72
     1
 10
481.2860406447091
 20
444.1521614477194
 11
481.9860406447091
 21
444.1521614477194
 72
     1
 10
481.9860406447091
 20
444.1521614477194
 11
481.9860406447091
 21
445.1521614477194
 72
     2
 10
480.9860406447091
 20
445.1521614477194
 40
1.000000000000003
 50
0.0
 51
89.99999999999675
 73
     1
 72
     1
 10
480.9860406447091
 20
446.1521614477194
 11
480.4860406447091
 21
446.1521614477194
 72
     2
 10
480.4860406447091
 20
445.1521614477194
 40
0.9999999999999913
 50
90.0
 51
180.0
 73
     1
 72
     1
 10
479.4860406447091
 20
445.1521614477194
 11
479.4860406447091
 21
443.8563066361521
 72
     1
 10
479.4860406447091
 20
443.8563066361521
 11
480.1860406447091
 21
443.4521614477194
 72
     1
 10
480.1860406447091
 20
443.4521614477194
 11
480.1860406447091
 21
442.4521614477194
 72
     1
 10
480.1860406447091
 20
442.4521614477194
 11
479.4860406447091
 21
442.0480162592866
 72
     1
 10
479.4860406447091
 20
442.0480162592866
 11
479.4860406447091
 21
441.1521614477194
 72
     2
 10
478.9860406447091
 20
441.1521614477194
 40
0.499999999999997
 50
0.0
 51
90.0
 73
     0
 72
     1
 10
478.9860406447091
 20
440.6521614477194
 11
477.4860406447091
 21
440.6521614477193
 72
     1
 10
477.4860406447091
 20
440.6521614477193
 11
477.4860406447091
 21
439.9521614477194
 72
     1
 10
477.4860406447091
 20
439.9521614477194
 11
478.9860406447091
 21
439.9521614477194
 72
     2
 10
478.9860406447091
 20
441.1521614477194
 40
1.199999999999996
 50
270.0000000000008
 51
360.0000000000008
 73
     1
 72
     1
 10
480.1860406447091
 20
441.1521614477194
 11
480.1860406447091
 21
441.7521614477194
 72
     1
 10
480.1860406447091
 20
441.7521614477194
 11
480.8860406447091
 21
442.1563066361521
 72
     1
 10
480.8860406447091
 20
442.1563066361521
 11
480.8860406447091
 21
443.7480162592867
 72
     1
 10
480.8860406447091
 20
443.7480162592867
 11
480.1860406447091
 21
444.1521614477194
 72
     1
 10
480.1860406447091
 20
444.1521614477194
 11
480.1860406447091
 21
445.1521614477194
 72
     2
 10
480.4860406447091
 20
445.1521614477194
 40
0.2999999999999999
 50
180.0
 51
270.0000000000008
 73
     0
 72
     1
 10
480.4860406447091
 20
445.4521614477194
 11
480.9860406447091
 21
445.4521614477194
 72
     2
 10
480.9860406447091
 20
445.1521614477194
 40
0.300000000000006
 50
270.0000000000008
 51
360.0000000000008
 73
     0
 97
        0
 75
     0
 76
     1
 52
0.0
 41
2.0
 77
     0
 78
     1
 53
45.0
 43
0.0
 44
0.0
 45
-4.490128060534577
 46
4.490128060534577
 79
     0
 98
        1
 10
0.0
 20
0.0
  0
HATCH
  5
36A
330
1F
100
AcDbEntity
  8
0
  6
SLD-Durchgehend
 62
     7
370
    18
100
AcDbHatch
 10
0.0
 20
0.0
 30
0.0
210
0.0
220
0.0
230
1.0
  2
ANSI31
 70
     0
 71
     0
 91
        1
 92
        0
 93
       28
 72
     1
 10
361.6860406447091
 20
444.1521614477194
 11
361.6860406447091
 21
445.1521614477194
 72
     2
 10
361.9860406447091
 20
445.1521614477194
 40
0.300000000000006
 50
180.0
 51
269.9999999999899
 73
     0
 72
     1
 10
361.986040644709
 20
445.4521614477194
 11
362.4860406447091
 21
445.4521614477194
 72
     2
 10
362.4860406447091
 20
445.1521614477194
 40
0.2999999999999999
 50
270.0000000000008
 51
360.0000000000008
 73
     0
 72
     1
 10
362.786040644709
 20
445.1521614477194
 11
362.786040644709
 21
444.1521614477194
 72
     1
 10
362.786040644709
 20
444.1521614477194
 11
362.086040644709
 21
443.7480162592867
 72
     1
 10
362.086040644709
 20
443.7480162592867
 11
362.086040644709
 21
442.1563066361521
 72
     1
 10
362.086040644709
 20
442.1563066361521
 11
362.786040644709
 21
441.7521614477194
 72
     1
 10
362.786040644709
 20
441.7521614477194
 11
362.786040644709
 21
441.1521614477194
 72
     2
 10
363.986040644709
 20
441.1521614477194
 40
1.199999999999996
 50
180.0
 51
270.0000000000008
 73
     1
 72
     1
 10
363.986040644709
 20
439.9521614477194
 11
365.486040644709
 21
439.9521614477194
 72
     1
 10
365.486040644709
 20
439.9521614477194
 11
365.486040644709
 21
440.6521614477193
 72
     1
 10
365.486040644709
 20
440.6521614477193
 11
365.3157414994099
 21
440.6521614477193
 72
     1
 10
365.3157414994099
 20
440.6521614477193
 11
365.3157414994099
 21
440.5521614477194
 72
     1
 10
365.3157414994099
 20
440.5521614477194
 11
364.057274619068
 21
440.5521614477194
 72
     1
 10
364.057274619068
 20
440.5521614477194
 11
364.057274619068
 21
440.6521614477193
 72
     1
 10
364.057274619068
 20
440.6521614477193
 11
363.986040644709
 21
440.6521614477194
 72
     2
 10
363.986040644709
 20
441.1521614477194
 40
0.499999999999997
 50
90.0
 51
180.0
 73
     0
 72
     1
 10
363.486040644709
 20
441.1521614477194
 11
363.486040644709
 21
442.0480162592866
 72
     1
 10
363.486040644709
 20
442.0480162592866
 11
362.786040644709
 21
442.4521614477194
 72
     1
 10
362.786040644709
 20
442.4521614477194
 11
362.786040644709
 21
443.4521614477194
 72
     1
 10
362.786040644709
 20
443.4521614477194
 11
363.4860406447091
 21
443.8563066361521
 72
     1
 10
363.4860406447091
 20
443.8563066361521
 11
363.486040644709
 21
445.1521614477194
 72
     2
 10
362.4860406447091
 20
445.1521614477194
 40
0.9999999999999913
 50
0.0
 51
90.0
 73
     1
 72
     1
 10
362.4860406447091
 20
446.1521614477194
 11
361.9860406447091
 21
446.1521614477194
 72
     2
 10
361.9860406447091
 20
445.1521614477194
 40
1.000000000000003
 50
90.0
 51
180.0
 73
     1
 72
     1
 10
360.9860406447091
 20
445.1521614477194
 11
360.9860406447091
 21
444.1521614477194
 72
     1
 10
360.9860406447091
 20
444.1521614477194
 11
361.6860406447091
 21
444.1521614477194
 97
        0
 75
     0
 76
     1
 52
0.0
 41
2.0
 77
     0
 78
     1
 53
45.0
 43
0.0
 44
0.0
 45
-4.490128060534577
 46
4.490128060534577
 79
     0
 98
        1
 10
0.0
 20
0.0
  0
HATCH
  5
36B
330
1F
100
AcDbEntity
  8
0
  6
SLD-Durchgehend
 62
     7
370
    18
100
AcDbHatch
 10
0.0
 20
0.0
 30
0.0
210
0.0
220
0.0
230
1.0
  2
ANSI31
 70
     0
 71
     0
 91
        1
 92
        0
 93
      244
 72
     1
 10
461.446982047639
 20
444.3521614477194
 11
461.5918581588941
 21
444.3521614477194
 72
     1
 10
461.5918581588941
 20
444.3521614477194
 11
461.5918581585601
 21
444.1521614477194
 72
     1
 10
461.5918581585601
 20
444.1521614477194
 11
462.3636735438678
 21
444.1521614477194
 72
     1
 10
462.3636735438678
 20
444.1521614477194
 11
462.3636735436607
 21
444.3521614477194
 72
     1
 10
462.3636735436607
 20
444.3521614477194
 11
462.5069669862688
 21
444.3521614477194
 72
     1
 10
462.5069669862688
 20
444.3521614477194
 11
462.5069669862177
 21
444.1521614477194
 72
     1
 10
462.5069669862177
 20
444.1521614477194
 11
462.8057998206253
 21
444.1521614477194
 72
     1
 10
462.8057998206253
 20
444.1521614477194
 11
462.8057998221604
 21
444.3521614477194
 72
     1
 10
462.8057998221604
 20
444.3521614477194
 11
463.0551162503871
 21
444.3521614477194
 72
     1
 10
463.0551162503871
 20
444.3521614477194
 11
463.0551162709111
 21
444.1521614477194
 72
     1
 10
463.0551162709111
 20
444.1521614477194
 11
464.5712519793133
 21
444.1521614477194
 72
     1
 10
464.5712519793133
 20
444.1521614477194
 11
464.5712519793133
 21
444.3521614477194
 72
     1
 10
464.5712519793133
 20
444.3521614477194
 11
464.7137199280313
 21
444.3521614477194
 72
     1
 10
464.7137199280313
 20
444.3521614477194
 11
464.7137199280313
 21
444.1521614477194
 72
     1
 10
464.7137199280313
 20
444.1521614477194
 11
465.0136150957629
 21
444.1521614477194
 72
     1
 10
465.0136150957629
 20
444.1521614477194
 11
465.0136150957629
 21
444.3521614477194
 72
     1
 10
465.0136150957629
 20
444.3521614477194
 11
465.1852275876197
 21
444.3521614477194
 72
     1
 10
465.1852275876197
 20
444.3521614477194
 11
465.1852275773619
 21
444.1521614477194
 72
     1
 10
465.1852275773619
 20
444.1521614477194
 11
465.3929600379091
 21
444.1521614477194
 72
     1
 10
465.3929600379091
 20
444.1521614477194
 11
465.3929600463857
 21
444.3521614477194
 72
     1
 10
465.3929600463857
 20
444.3521614477194
 11
465.5666695737887
 21
444.3521614477194
 72
     1
 10
465.5666695737887
 20
444.3521614477194
 11
465.5666695699742
 21
444.1521614477194
 72
     1
 10
465.5666695699742
 20
444.1521614477194
 11
465.8738160818775
 21
444.1521614477194
 72
     1
 10
465.8738160818775
 20
444.1521614477194
 11
465.8738160818775
 21
444.3521614477194
 72
     1
 10
465.8738160818775
 20
444.3521614477194
 11
466.0162840305954
 21
444.3521614477194
 72
     1
 10
466.0162840305954
 20
444.3521614477194
 11
466.0162840305954
 21
444.1521614477194
 72
     1
 10
466.0162840305954
 20
444.1521614477194
 11
466.3215724921338
 21
444.1521614477194
 72
     1
 10
466.3215724921338
 20
444.1521614477194
 11
466.3215724921338
 21
444.3521614477194
 72
     1
 10
466.3215724921338
 20
444.3521614477194
 11
466.4640404408518
 21
444.3521614477194
 72
     1
 10
466.4640404408518
 20
444.3521614477194
 11
466.4640404408518
 21
444.1521614477194
 72
     1
 10
466.4640404408518
 20
444.1521614477194
 11
466.5083756384644
 21
444.1521614477194
 72
     1
 10
466.5083756384644
 20
444.1521614477194
 11
466.5083756301876
 21
444.3521614477194
 72
     1
 10
466.5083756301876
 20
444.3521614477194
 11
466.7377161393596
 21
444.3521614477194
 72
     1
 10
466.7377161393596
 20
444.3521614477194
 11
466.737716142831
 21
444.1521614477194
 72
     1
 10
466.737716142831
 20
444.1521614477194
 11
467.1212574286204
 21
444.1521614477194
 72
     1
 10
467.1212574286204
 20
444.1521614477194
 11
467.1212574313822
 21
444.3521614477194
 72
     1
 10
467.1212574313822
 20
444.3521614477194
 11
467.3689883944147
 21
444.3521614477194
 72
     1
 10
467.3689883944147
 20
444.3521614477194
 11
467.3689883962959
 21
444.1521614477194
 72
     1
 10
467.3689883962959
 20
444.1521614477194
 11
476.7360406447091
 21
444.1521614477194
 72
     2
 10
476.7360406447091
 20
443.4021614477194
 40
0.7499999999999998
 50
270.0000000000008
 51
360.0000000000008
 73
     0
 72
     1
 10
477.4860406447091
 20
443.4021614477194
 11
477.4860406447091
 21
440.6521614477193
 72
     1
 10
477.4860406447091
 20
440.6521614477193
 11
478.9860406447091
 21
440.6521614477193
 72
     1
 10
478.9860406447091
 20
440.6521614477193
 11
478.9860406447091
 21
443.4021614477194
 72
     2
 10
476.7360406447091
 20
443.4021614477194
 40
2.25
 50
0.0
 51
90.0
 73
     1
 72
     1
 10
476.7360406447091
 20
445.6521614477194
 11
435.9564038844422
 21
445.6521614477194
 72
     1
 10
435.9564038844422
 20
445.6521614477194
 11
435.9564038891279
 21
445.4521614477194
 72
     1
 10
435.9564038891279
 20
445.4521614477194
 11
432.5919205674151
 21
445.4521614477194
 72
     1
 10
432.5919205674151
 20
445.4521614477194
 11
432.5919205674151
 21
445.6521614477194
 72
     1
 10
432.5919205674151
 20
445.6521614477194
 11
431.6302343639267
 21
445.6521614477194
 72
     1
 10
431.6302343639267
 20
445.6521614477194
 11
431.6302343639267
 21
445.4521614477194
 72
     1
 10
431.6302343639267
 20
445.4521614477194
 11
428.9082413779585
 21
445.4521614477194
 72
     1
 10
428.9082413779585
 20
445.4521614477194
 11
428.9082413779585
 21
445.6521614477194
 72
     1
 10
428.9082413779585
 20
445.6521614477194
 11
427.9403753801868
 21
445.6521614477194
 72
     1
 10
427.9403753801868
 20
445.6521614477194
 11
427.9403753801868
 21
445.4521614477194
 72
     1
 10
427.9403753801868
 20
445.4521614477194
 11
426.8744341052987
 21
445.4521614477194
 72
     1
 10
426.8744341052987
 20
445.4521614477194
 11
426.8744341052987
 21
445.6521614477194
 72
     1
 10
426.8744341052987
 20
445.6521614477194
 11
425.8523501320811
 21
445.6521614477194
 72
     1
 10
425.8523501320811
 20
445.6521614477194
 11
425.8523501320811
 21
445.4521614477194
 72
     1
 10
425.8523501320811
 20
445.4521614477194
 11
424.764687053842
 21
445.4521614477194
 72
     1
 10
424.764687053842
 20
445.4521614477194
 11
424.764687053842
 21
445.6521614477194
 72
     1
 10
424.764687053842
 20
445.6521614477194
 11
423.7426866183418
 21
445.6521614477194
 72
     1
 10
423.7426866183418
 20
445.6521614477194
 11
423.7426866183418
 21
445.4521614477194
 72
     1
 10
423.7426866183418
 20
445.4521614477194
 11
422.6730446259295
 21
445.4521614477194
 72
     1
 10
422.6730446259295
 20
445.4521614477194
 11
422.6730446259295
 21
445.6521614477194
 72
     1
 10
422.6730446259295
 20
445.6521614477194
 11
420.4105341439893
 21
445.6521614477194
 72
     1
 10
420.4105341439893
 20
445.6521614477194
 11
420.4105341439893
 21
445.4521614477194
 72
     1
 10
420.4105341439893
 20
445.4521614477194
 11
419.3354037201797
 21
445.4521614477194
 72
     1
 10
419.3354037201797
 20
445.4521614477194
 11
419.3354037201797
 21
445.6521614477194
 72
     1
 10
419.3354037201797
 20
445.6521614477194
 11
417.1122979829287
 21
445.6521614477194
 72
     1
 10
417.1122979829287
 20
445.6521614477194
 11
417.1122979829287
 21
445.4521614477194
 72
     1
 10
417.1122979829287
 20
445.4521614477194
 11
416.0370840214017
 21
445.4521614477194
 72
     1
 10
416.0370840214017
 20
445.4521614477194
 11
416.0370840214017
 21
445.6521614477194
 72
     1
 10
416.0370840214017
 20
445.6521614477194
 11
415.0115750017679
 21
445.6521614477194
 72
     1
 10
415.0115750017679
 20
445.6521614477194
 11
415.0115750017679
 21
445.4521614477194
 72
     1
 10
415.0115750017679
 20
445.4521614477194
 11
413.9384494831775
 21
445.4521614477194
 72
     1
 10
413.9384494831775
 20
445.4521614477194
 11
413.9384494831775
 21
445.6521614477194
 72
     1
 10
413.9384494831775
 20
445.6521614477194
 11
412.4765394274924
 21
445.6521614477194
 72
     1
 10
412.4765394274924
 20
445.6521614477194
 11
412.4765394274924
 21
445.4521614477194
 72
     1
 10
412.4765394274924
 20
445.4521614477194
 11
411.4034139089021
 21
445.4521614477194
 72
     1
 10
411.4034139089021
 20
445.4521614477194
 11
411.4034139089021
 21
445.6521614477194
 72
     1
 10
411.4034139089021
 20
445.6521614477194
 11
410.4514183957722
 21
445.6521614477194
 72
     1
 10
410.4514183957722
 20
445.6521614477194
 11
410.4514183957722
 21
445.4521614477194
 72
     1
 10
410.4514183957722
 20
445.4521614477194
 11
409.4410293878677
 21
445.4521614477194
 72
     1
 10
409.4410293878677
 20
445.4521614477194
 11
409.4410293878677
 21
445.6521614477194
 72
     1
 10
409.4410293878677
 20
445.6521614477194
 11
408.0101118253632
 21
445.6521614477194
 72
     1
 10
408.0101118253632
 20
445.6521614477194
 11
408.0101118253632
 21
445.4521614477194
 72
     1
 10
408.0101118253632
 20
445.4521614477194
 11
406.9360675394752
 21
445.4521614477194
 72
     1
 10
406.9360675394752
 20
445.4521614477194
 11
406.9360675394752
 21
445.6521614477194
 72
     1
 10
406.9360675394752
 20
445.6521614477194
 11
366.236040644709
 21
445.6521614477194
 72
     2
 10
366.236040644709
 20
443.4021614477194
 40
2.25
 50
90.0
 51
180.0
 73
     1
 72
     1
 10
363.9860406447091
 20
443.4021614477194
 11
363.9860406447091
 21
440.6521614477193
 72
     1
 10
363.9860406447091
 20
440.6521614477193
 11
365.4860406447091
 21
440.6521614477193
 72
     1
 10
365.4860406447091
 20
440.6521614477193
 11
365.4860406447091
 21
443.4021614477194
 72
     2
 10
366.236040644709
 20
443.4021614477194
 40
0.7499999999999998
 50
180.0
 51
270.0000000000008
 73
     0
 72
     1
 10
366.236040644709
 20
444.1521614477194
 11
377.8190515355265
 21
444.1521614477194
 72
     1
 10
377.8190515355265
 20
444.1521614477194
 11
377.8190515355265
 21
444.3521614477194
 72
     1
 10
377.8190515355265
 20
444.3521614477194
 11
377.9729839630859
 21
444.3521614477194
 72
     1
 10
377.9729839630859
 20
444.3521614477194
 11
377.9729839630859
 21
444.1521614477194
 72
     1
 10
377.9729839630859
 20
444.1521614477194
 11
378.6218882425027
 21
444.1521614477194
 72
     1
 10
378.6218882425027
 20
444.1521614477194
 11
378.6218882425027
 21
444.3521614477194
 72
     1
 10
378.6218882425027
 20
444.3521614477194
 11
378.7754872724141
 21
444.3521614477194
 72
     1
 10
378.7754872724141
 20
444.3521614477194
 11
378.7754872724141
 21
444.1521614477194
 72
     1
 10
378.7754872724141
 20
444.1521614477194
 11
379.1317529384237
 21
444.1521614477194
 72
     1
 10
379.1317529384237
 20
444.1521614477194
 11
379.1317529321521
 21
444.3521614477194
 72
     1
 10
379.1317529321521
 20
444.3521614477194
 11
379.3406865499181
 21
444.3521614477194
 72
     1
 10
379.3406865499181
 20
444.3521614477194
 11
379.3406865469514
 21
444.1521614477194
 72
     1
 10
379.3406865469514
 20
444.1521614477194
 11
379.6783373452677
 21
444.1521614477194
 72
     1
 10
379.6783373452677
 20
444.1521614477194
 11
379.6783373637672
 21
444.3521614477194
 72
     1
 10
379.6783373637672
 20
444.3521614477194
 11
379.8843095103074
 21
444.3521614477194
 72
     1
 10
379.8843095103074
 20
444.3521614477194
 11
379.8843095017676
 21
444.1521614477194
 72
     1
 10
379.8843095017676
 20
444.1521614477194
 11
379.9249378767494
 21
444.1521614477194
 72
     1
 10
379.9249378767494
 20
444.1521614477194
 11
379.9249378767494
 21
444.3521614477194
 72
     1
 10
379.9249378767494
 20
444.3521614477194
 11
380.0674058254673
 21
444.3521614477194
 72
     1
 10
380.0674058254673
 20
444.3521614477194
 11
380.0674058254673
 21
444.1521614477194
 72
     1
 10
380.0674058254673
 20
444.1521614477194
 11
380.3930468511083
 21
444.1521614477194
 72
     1
 10
380.3930468511083
 20
444.1521614477194
 11
380.3930468511083
 21
444.3521614477194
 72
     1
 10
380.3930468511083
 20
444.3521614477194
 11
380.5355147998263
 21
444.3521614477194
 72
     1
 10
380.5355147998263
 20
444.3521614477194
 11
380.5355147998263
 21
444.1521614477194
 72
     1
 10
380.5355147998263
 20
444.1521614477194
 11
380.5798499974388
 21
444.1521614477194
 72
     1
 10
380.5798499974388
 20
444.1521614477194
 11
380.579849989162
 21
444.3521614477194
 72
     1
 10
380.579849989162
 20
444.3521614477194
 11
380.809190498334
 21
444.3521614477194
 72
     1
 10
380.809190498334
 20
444.3521614477194
 11
380.8091905018055
 21
444.1521614477194
 72
     1
 10
380.8091905018055
 20
444.1521614477194
 11
381.1927317875949
 21
444.1521614477194
 72
     1
 10
381.1927317875949
 20
444.1521614477194
 11
381.1927317903567
 21
444.3521614477194
 72
     1
 10
381.1927317903567
 20
444.3521614477194
 11
381.4404627533892
 21
444.3521614477194
 72
     1
 10
381.4404627533892
 20
444.3521614477194
 11
381.4404627552704
 21
444.1521614477194
 72
     1
 10
381.4404627552704
 20
444.1521614477194
 11
381.9670417212935
 21
444.1521614477194
 72
     1
 10
381.9670417212935
 20
444.1521614477194
 11
381.9670417213451
 21
444.3521614477194
 72
     1
 10
381.9670417213451
 20
444.3521614477194
 11
382.1678280611951
 21
444.3521614477194
 72
     1
 10
382.1678280611951
 20
444.3521614477194
 11
382.1678280655548
 21
444.1521614477194
 72
     1
 10
382.1678280655548
 20
444.1521614477194
 11
382.4749543678245
 21
444.1521614477194
 72
     1
 10
382.4749543678245
 20
444.1521614477194
 11
382.4749543654946
 21
444.3521614477194
 72
     1
 10
382.4749543654946
 20
444.3521614477194
 11
382.6516232224607
 21
444.3521614477194
 72
     1
 10
382.6516232224607
 20
444.3521614477194
 11
382.6516232147195
 21
444.1521614477194
 72
     1
 10
382.6516232147195
 20
444.1521614477194
 11
382.7606246256022
 21
444.1521614477194
 72
     1
 10
382.7606246256022
 20
444.1521614477194
 11
382.7606246256442
 21
444.3521614477194
 72
     1
 10
382.7606246256442
 20
444.3521614477194
 11
382.9649298554934
 21
444.3521614477194
 72
     1
 10
382.9649298554934
 20
444.3521614477194
 11
382.9649298462791
 21
444.1521614477194
 72
     1
 10
382.9649298462791
 20
444.1521614477194
 11
383.2671731286364
 21
444.1521614477194
 72
     1
 10
383.2671731286364
 20
444.1521614477194
 11
383.2671731261906
 21
444.3521614477194
 72
     1
 10
383.2671731261906
 20
444.3521614477194
 11
383.4556493221303
 21
444.3521614477194
 72
     1
 10
383.4556493221303
 20
444.3521614477194
 11
383.4556493267639
 21
444.1521614477194
 72
     1
 10
383.4556493267639
 20
444.1521614477194
 11
383.486636594698
 21
444.1521614477194
 72
     1
 10
383.486636594698
 20
444.1521614477194
 11
383.486636594698
 21
444.3521614477194
 72
     1
 10
383.486636594698
 20
444.3521614477194
 11
383.629104543416
 21
444.3521614477194
 72
     1
 10
383.629104543416
 20
444.3521614477194
 11
383.629104543416
 21
444.1521614477194
 72
     1
 10
383.629104543416
 20
444.1521614477194
 11
384.0289498264796
 21
444.1521614477194
 72
     1
 10
384.0289498264796
 20
444.1521614477194
 11
384.0289498253044
 21
444.3521614477194
 72
     1
 10
384.0289498253044
 20
444.3521614477194
 11
384.1715569301967
 21
444.3521614477194
 72
     1
 10
384.1715569301967
 20
444.3521614477194
 11
384.171556924473
 21
444.1521614477194
 72
     1
 10
384.171556924473
 20
444.1521614477194
 11
384.1786237741853
 21
444.1521614477194
 72
     1
 10
384.1786237741853
 20
444.1521614477194
 11
384.1786237741853
 21
444.3521614477194
 72
     1
 10
384.1786237741853
 20
444.3521614477194
 11
384.3210917229032
 21
444.3521614477194
 72
     1
 10
384.3210917229032
 20
444.3521614477194
 11
384.3210917229032
 21
444.1521614477194
 72
     1
 10
384.3210917229032
 20
444.1521614477194
 11
384.7319319259674
 21
444.1521614477194
 72
     1
 10
384.7319319259674
 20
444.1521614477194
 11
384.7319319172165
 21
444.3521614477194
 72
     1
 10
384.7319319172165
 20
444.3521614477194
 11
384.9623388282382
 21
444.3521614477194
 72
     1
 10
384.9623388282382
 20
444.3521614477194
 11
384.9623388333357
 21
444.1521614477194
 72
     1
 10
384.9623388333357
 20
444.1521614477194
 11
385.3396526589928
 21
444.1521614477194
 72
     1
 10
385.3396526589928
 20
444.1521614477194
 11
385.3396526407086
 21
444.3521614477194
 72
     1
 10
385.3396526407086
 20
444.3521614477194
 11
385.5816447322155
 21
444.3521614477194
 72
     1
 10
385.5816447322155
 20
444.3521614477194
 11
385.58164473705
 21
444.1521614477194
 72
     1
 10
385.58164473705
 20
444.1521614477194
 11
387.4836576757913
 21
444.1521614477194
 72
     1
 10
387.4836576757913
 20
444.1521614477194
 11
387.4836576725127
 21
444.3521614477194
 72
     1
 10
387.4836576725127
 20
444.3521614477194
 11
387.6344014938301
 21
444.3521614477194
 72
     1
 10
387.6344014938301
 20
444.3521614477194
 11
387.6344014931745
 21
444.1521614477194
 72
     1
 10
387.6344014931745
 20
444.1521614477194
 11
388.6364003743211
 21
444.1521614477194
 72
     1
 10
388.6364003743211
 20
444.1521614477194
 11
388.6364003680496
 21
444.3521614477194
 72
     1
 10
388.6364003680496
 20
444.3521614477194
 11
388.8453339858156
 21
444.3521614477194
 72
     1
 10
388.8453339858156
 20
444.3521614477194
 11
388.8453339828489
 21
444.1521614477194
 72
     1
 10
388.8453339828489
 20
444.1521614477194
 11
389.1829847811651
 21
444.1521614477194
 72
     1
 10
389.1829847811651
 20
444.1521614477194
 11
389.1829847996647
 21
444.3521614477194
 72
     1
 10
389.1829847996647
 20
444.3521614477194
 11
389.3889569462048
 21
444.3521614477194
 72
     1
 10
389.3889569462048
 20
444.3521614477194
 11
389.3889569376651
 21
444.1521614477194
 72
     1
 10
389.3889569376651
 20
444.1521614477194
 11
389.4295853126467
 21
444.1521614477194
 72
     1
 10
389.4295853126467
 20
444.1521614477194
 11
389.4295853126467
 21
444.3521614477194
 72
     1
 10
389.4295853126467
 20
444.3521614477194
 11
389.5720532613647
 21
444.3521614477194
 72
     1
 10
389.5720532613647
 20
444.3521614477194
 11
389.5720532613647
 21
444.1521614477194
 72
     1
 10
389.5720532613647
 20
444.1521614477194
 11
389.8976942870058
 21
444.1521614477194
 72
     1
 10
389.8976942870058
 20
444.1521614477194
 11
389.8976942870058
 21
444.3521614477194
 72
     1
 10
389.8976942870058
 20
444.3521614477194
 11
390.0401622357238
 21
444.3521614477194
 72
     1
 10
390.0401622357238
 20
444.3521614477194
 11
390.0401622357238
 21
444.1521614477194
 72
     1
 10
390.0401622357238
 20
444.1521614477194
 11
391.0819319259675
 21
444.1521614477194
 72
     1
 10
391.0819319259675
 20
444.1521614477194
 11
391.0819319172164
 21
444.3521614477194
 72
     1
 10
391.0819319172164
 20
444.3521614477194
 11
391.3123388282382
 21
444.3521614477194
 72
     1
 10
391.3123388282382
 20
444.3521614477194
 11
391.3123388333357
 21
444.1521614477194
 72
     1
 10
391.3123388333357
 20
444.1521614477194
 11
391.6896526589928
 21
444.1521614477194
 72
     1
 10
391.6896526589928
 20
444.1521614477194
 11
391.6896526407085
 21
444.3521614477194
 72
     1
 10
391.6896526407085
 20
444.3521614477194
 11
391.9316447322154
 21
444.3521614477194
 72
     1
 10
391.9316447322154
 20
444.3521614477194
 11
391.93164473705
 21
444.1521614477194
 72
     1
 10
391.93164473705
 20
444.1521614477194
 11
392.3807071075186
 21
444.1521614477194
 72
     1
 10
392.3807071075186
 20
444.1521614477194
 11
392.3807071075186
 21
444.3521614477194
 72
     1
 10
392.3807071075186
 20
444.3521614477194
 11
392.5231750562365
 21
444.3521614477194
 72
     1
 10
392.5231750562365
 20
444.3521614477194
 11
392.5231750562365
 21
444.1521614477194
 72
     1
 10
392.5231750562365
 20
444.1521614477194
 11
392.5760278763121
 21
444.1521614477194
 72
     1
 10
392.5760278763121
 20
444.1521614477194
 11
392.576027867815
 21
444.3521614477194
 72
     1
 10
392.576027867815
 20
444.3521614477194
 11
392.7968507547443
 21
444.3521614477194
 72
     1
 10
392.7968507547443
 20
444.3521614477194
 11
392.7968507582157
 21
444.1521614477194
 72
     1
 10
392.7968507582157
 20
444.1521614477194
 11
393.1803920440052
 21
444.1521614477194
 72
     1
 10
393.1803920440052
 20
444.1521614477194
 11
393.180392046767
 21
444.3521614477194
 72
     1
 10
393.180392046767
 20
444.3521614477194
 11
393.4281230097994
 21
444.3521614477194
 72
     1
 10
393.4281230097994
 20
444.3521614477194
 11
393.4281230116806
 21
444.1521614477194
 72
     1
 10
393.4281230116806
 20
444.1521614477194
 11
393.8867968511083
 21
444.1521614477194
 72
     1
 10
393.8867968511083
 20
444.1521614477194
 11
393.8867968511083
 21
444.3521614477194
 72
     1
 10
393.8867968511083
 20
444.3521614477194
 11
394.0292647998263
 21
444.3521614477194
 72
     1
 10
394.0292647998263
 20
444.3521614477194
 11
394.0292647998263
 21
444.1521614477194
 72
     1
 10
394.0292647998263
 20
444.1521614477194
 11
394.0735999974389
 21
444.1521614477194
 72
     1
 10
394.0735999974389
 20
444.1521614477194
 11
394.073599989162
 21
444.3521614477194
 72
     1
 10
394.073599989162
 20
444.3521614477194
 11
394.302940498334
 21
444.3521614477194
 72
     1
 10
394.302940498334
 20
444.3521614477194
 11
394.3029405018055
 21
444.1521614477194
 72
     1
 10
394.3029405018055
 20
444.1521614477194
 11
394.6864817875949
 21
444.1521614477194
 72
     1
 10
394.6864817875949
 20
444.1521614477194
 11
394.6864817903567
 21
444.3521614477194
 72
     1
 10
394.6864817903567
 20
444.3521614477194
 11
394.9342127533892
 21
444.3521614477194
 72
     1
 10
394.9342127533892
 20
444.3521614477194
 11
394.9342127552704
 21
444.1521614477194
 72
     1
 10
394.9342127552704
 20
444.1521614477194
 11
395.4849939664929
 21
444.1521614477194
 72
     1
 10
395.4849939664929
 20
444.1521614477194
 11
395.4849939664929
 21
444.3521614477194
 72
     1
 10
395.4849939664929
 20
444.3521614477194
 11
395.6283589294983
 21
444.3521614477194
 72
     1
 10
395.6283589294983
 20
444.3521614477194
 11
395.6283589294983
 21
444.1521614477194
 72
     1
 10
395.6283589294983
 20
444.1521614477194
 11
395.7186751503738
 21
444.1521614477194
 72
     1
 10
395.7186751503738
 20
444.1521614477194
 11
395.7186751503738
 21
444.3521614477194
 72
     1
 10
395.7186751503738
 20
444.3521614477194
 11
395.8785893440971
 21
444.3521614477194
 72
     1
 10
395.8785893440971
 20
444.3521614477194
 11
395.8785893440971
 21
444.1521614477194
 72
     1
 10
395.8785893440971
 20
444.1521614477194
 11
396.5973195467964
 21
444.1521614477194
 72
     1
 10
396.5973195467964
 20
444.1521614477194
 11
396.5973195467964
 21
444.3521614477194
 72
     1
 10
396.5973195467964
 20
444.3521614477194
 11
396.7549644192173
 21
444.3521614477194
 72
     1
 10
396.7549644192173
 20
444.3521614477194
 11
396.7549644192173
 21
444.1521614477194
 72
     1
 10
396.7549644192173
 20
444.1521614477194
 11
396.8469325682557
 21
444.1521614477194
 72
     1
 10
396.8469325682557
 20
444.1521614477194
 11
396.8469325682557
 21
444.3521614477194
 72
     1
 10
396.8469325682557
 20
444.3521614477194
 11
396.9908433254673
 21
444.3521614477194
 72
     1
 10
396.9908433254673
 20
444.3521614477194
 11
396.9908433254673
 21
444.1521614477194
 72
     1
 10
396.9908433254673
 20
444.1521614477194
 11
447.4381769722795
 21
444.1521614477194
 72
     1
 10
447.4381769722795
 20
444.1521614477194
 11
447.4381769692082
 21
444.3521614477194
 72
     1
 10
447.4381769692082
 20
444.3521614477194
 11
447.5853862187436
 21
444.3521614477194
 72
     1
 10
447.5853862187436
 20
444.3521614477194
 11
447.5853862170889
 21
444.1521614477194
 72
     1
 10
447.5853862170889
 20
444.1521614477194
 11
460.3989763382877
 21
444.1521614477194
 72
     1
 10
460.3989763382877
 20
444.1521614477194
 11
460.3989763382877
 21
444.3521614477194
 72
     1
 10
460.3989763382877
 20
444.3521614477194
 11
460.5414442870056
 21
444.3521614477194
 72
     1
 10
460.5414442870056
 20
444.3521614477194
 11
460.5414442870056
 21
444.1521614477194
 72
     1
 10
460.5414442870056
 20
444.1521614477194
 11
460.6914864208405
 21
444.1521614477194
 72
     1
 10
460.6914864208405
 20
444.1521614477194
 11
460.6914864208405
 21
444.3521614477194
 72
     1
 10
460.6914864208405
 20
444.3521614477194
 11
460.8593312125381
 21
444.3521614477194
 72
     1
 10
460.8593312125381
 20
444.3521614477194
 11
460.8593312125381
 21
444.1521614477194
 72
     1
 10
460.8593312125381
 20
444.1521614477194
 11
461.4469820474848
 21
444.1521614477194
 72
     1
 10
461.4469820474848
 20
444.1521614477194
 11
461.446982047639
 21
444.3521614477194
 97
        0
 75
     0
 76
     1
 52
0.0
 41
2.0
 77
     0
 78
     1
 53
45.0
 43
0.0
 44
0.0
 45
-4.490128060534577
 46
4.490128060534577
 79
     0
 98
        1
 10
0.0
 20
0.0
  0
DIMENSION
  5
36C
330
1F
100
AcDbEntity
  8
0
  6
SLD-Durchgehend
 62
     7
370
    18
100
AcDbDimension
280
     0
  2
_D
 10
481.9860406447
 20
452.5081244955
 30
0.0
 11
420.8947445145
 21
452.5081244955
 31
0.0
 70
   160
  1
%%c<>
 71
     2
 42
-1.0
 73
     0
 74
     0
 75
     0
  3
SLDDIMSTYLE0
100
AcDbAlignedDimension
 13
360.9860406447
 23
444.1521614477
 33
0.0
 14
481.9860406447
 24
444.1521614477
 34
0.0
100
AcDbRotatedDimension
  0
DIMENSION
  5
379
330
1F
100
AcDbEntity
  8
0
  6
SLD-Durchgehend
 62
     7
370
    18
100
AcDbDimension
280
     0
  2
_D_1
 10
478.9860406447
 20
387.1521614477
 30
0.0
 11
420.8947445145
 21
387.1521614477
 31
0.0
 70
   160
  1
%%c<>
 71
     2
 42
-1.0
 73
     0
 74
     0
 75
     0
  3
SLDDIMSTYLE0
100
AcDbAlignedDimension
 13
363.9860406447
 23
407.4021614477
 33
0.0
 14
478.9860406447
 24
407.4021614477
 34
0.0
100
AcDbRotatedDimension
  0
DIMENSION
  5
384
330
1F
100
AcDbEntity
  8
0
  6
SLD-Durchgehend
 62
     7
370
    18
100
AcDbDimension
280
     0
  2
_D_2
 10
498.5913502502
 20
438.1521614477
 30
0.0
 11
498.5913502502
 21
417.606172971
 31
0.0
 70
   160
  1
<>
 71
     2
 42
-1.0
 73
     0
 74
     0
 75
     0
  3
SLDDIMSTYLE1
100
AcDbAlignedDimension
 13
480.4860406447
 23
446.1521614477
 33
0.0
 14
480.9860406447
 24
438.1521614477
 34
0.0
 50
90.0
100
AcDbRotatedDimension
  0
DIMENSION
  5
391
330
1F
100
AcDbEntity
  8
0
  6
SLD-Durchgehend
 62
     7
370
    18
100
AcDbDimension
280
     0
  2
_D_3
 10
521.9999153926
 20
407.1521614477
 30
0.0
 11
521.9999153926
 21
427.4348787274
 31
0.0
 70
   160
  1
<>
 71
     2
 42
-1.0
 73
     0
 74
     0
 75
     0
  3
SLDDIMSTYLE0
100
AcDbAlignedDimension
 13
480.4860406447
 23
446.1521614477
 33
0.0
 14
477.0860406447
 24
407.1521614477
 34
0.0
 50
90.0
100
AcDbRotatedDimension
  0
LINE
  5
39B
330
1F
100
AcDbEntity
  8
0
  6
SLD-Punktstrich
 62
     7
370
    18
100
AcDbLine
 10
421.4860406447
 20
407.1836136043
 30
0.0
 11
421.4860406447
 21
444.6521614477
 31
0.0
  0
ENDSEC
  0
SECTION
  2
OBJECTS
  0
DICTIONARY
  5
C
330
0
100
AcDbDictionary
281
     1
  3
ACAD_DETAILVIEWSTYLE
350
3A3
  3
ACAD_GROUP
350
D
  3
ACAD_LAYOUT
350
1A
  3
ACAD_MATERIAL
350
43
  3
ACAD_MLEADERSTYLE
350
6B
  3
ACAD_MLINESTYLE
350
17
  3
ACAD_PLOTSETTINGS
350
19
  3
ACAD_PLOTSTYLENAME
350
E
  3
ACAD_SCALELIST
350
47
  3
ACAD_SECTIONVIEWSTYLE
350
3A4
  3
ACAD_TABLESTYLE
350
69
  3
ACAD_VISUALSTYLE
350
2A
  3
ACDB_RECOMPOSE_DATA
350
3A0
  3
AcDbVariableDictionary
350
39C
  0
SUN
  5
6D
330
29
100
AcDbSun
 90
        1
290
     0
 63
     7
421
 16777215
 40
1.0
291
     1
 91
  2455826
 92
 54000000
292
     0
 70
     2
 71
   256
280
     1
  0
DICTIONARY
  5
3A3
102
{ACAD_REACTORS
330
C
102
}
330
C
100
AcDbDictionary
281
     1
  0
DICTIONARY
  5
D
102
{ACAD_REACTORS
330
C
102
}
330
C
100
AcDbDictionary
281
     1
  0
DICTIONARY
  5
1A
102
{ACAD_REACTORS
330
C
102
}
330
C
100
AcDbDictionary
281
     1
  3
Layout1
350
1E
  3
Layout2
350
26
  3
Model
350
22
  0
DICTIONARY
  5
43
102
{ACAD_REACTORS
330
C
102
}
330
C
100
AcDbDictionary
281
     1
  3
ByBlock
350
45
  3
ByLayer
350
44
  3
Global
350
46
  0
DICTIONARY
  5
6B
102
{ACAD_REACTORS
330
C
102
}
330
C
100
AcDbDictionary
281
     1
  3
Standard
350
6C
  0
DICTIONARY
  5
17
102
{ACAD_REACTORS
330
C
102
}
330
C
100
AcDbDictionary
281
     1
  3
Standard
350
18
  0
DICTIONARY
  5
19
102
{ACAD_REACTORS
330
C
102
}
330
C
100
AcDbDictionary
281
     1
  0
ACDBDICTIONARYWDFLT
  5
E
102
{ACAD_REACTORS
330
C
102
}
330
C
100
AcDbDictionary
281
     1
  3
Normal
350
F
100
AcDbDictionaryWithDefault
340
F
  0
DICTIONARY
  5
47
102
{ACAD_REACTORS
330
C
102
}
330
C
100
AcDbDictionary
281
     1
  3
A0
350
48
  3
A1
350
49
  3
A2
350
4A
  3
A3
350
4B
  3
A4
350
4C
  3
A5
350
4D
  3
A6
350
4E
  3
A7
350
4F
  3
A8
350
50
  3
A9
350
51
  3
B0
350
52
  3
B1
350
53
  3
B2
350
54
  3
B3
350
55
  3
B4
350
56
  3
B5
350
57
  3
B6
350
58
  3
B7
350
59
  3
B8
350
5A
  3
B9
350
5B
  3
C0
350
5C
  3
C1
350
5D
  3
C2
350
5E
  3
C3
350
5F
  3
C4
350
60
  3
C5
350
61
  3
C6
350
62
  3
C7
350
63
  3
C8
350
64
  3
C9
350
65
  3
D0
350
66
  3
D1
350
67
  3
D2
350
68
  0
DICTIONARY
  5
3A4
102
{ACAD_REACTORS
330
C
102
}
330
C
100
AcDbDictionary
281
     1
  0
DICTIONARY
  5
69
102
{ACAD_REACTORS
330
C
102
}
330
C
100
AcDbDictionary
281
     1
  3
Standard
350
6A
  0
DICTIONARY
  5
2A
102
{ACAD_REACTORS
330
C
102
}
330
C
100
AcDbDictionary
281
     1
  3
2dWireframe
350
2F
  3
Basic
350
32
  3
Brighten
350
36
  3
ColorChange
350
3A
  3
Conceptual
350
34
  3
Dim
350
35
  3
EdgeColorOff
350
3D
  3
Facepattern
350
39
  3
Flat
350
2B
  3
FlatWithEdges
350
2C
  3
Gouraud
350
2D
  3
GouraudWithEdges
350
2E
  3
Hidden
350
31
  3
JitterOff
350
3B
  3
Linepattern
350
38
  3
OverhangOff
350
3C
  3
Realistic
350
33
  3
Shaded
350
42
  3
Shaded with edges
350
41
  3
Shades of Gray
350
3E
  3
Sketchy
350
3F
  3
Thicken
350
37
  3
Wireframe
350
30
  3
X-Ray
350
40
  0
XRECORD
  5
3A0
102
{ACAD_REACTORS
330
C
102
}
330
C
100
AcDbXrecord
280
     1
 90
        1
330
6A
  0
DICTIONARY
  5
39C
102
{ACAD_REACTORS
330
C
102
}
330
C
100
AcDbDictionary
281
     1
  3
CANNOSCALE
350
39D
  3
CMLEADERSTYLE
350
3A2
  3
CTABLESTYLE
350
3A1
  3
SECTIONTHICKNESSINC
350
3A5
  0
LAYOUT
  5
1E
102
{ACAD_REACTORS
330
1A
102
}
330
1A
100
AcDbPlotSettings
  1

  2
none_device
  4

  6

 40
0.0
 41
0.0
 42
0.0
 43
0.0
 44
0.0
 45
0.0
 46
0.0
 47
0.0
 48
0.0
 49
0.0
140
0.0
141
0.0
142
1.0
143
1.0
 70
   688
 72
     1
 73
     0
 74
     5
  7

 75
    16
 76
     0
 77
     2
 78
   300
147
1.0
148
0.0
149
0.0
100
AcDbLayout
  1
Layout1
 70
     1
 71
     1
 10
0.0
 20
0.0
 11
420.0
 21
297.0
 12
0.0
 22
0.0
 32
0.0
 14
1.0000000000E+20
 24
1.0000000000E+20
 34
1.0000000000E+20
 15
-1.0000000000E+20
 25
-1.0000000000E+20
 35
-1.0000000000E+20
146
0.0
 13
0.0
 23
0.0
 33
0.0
 16
1.0
 26
0.0
 36
0.0
 17
0.0
 27
1.0
 37
0.0
 76
     0
330
1B
  0
LAYOUT
  5
26
102
{ACAD_REACTORS
330
1A
102
}
330
1A
100
AcDbPlotSettings
  1

  2
none_device
  4

  6

 40
0.0
 41
0.0
 42
0.0
 43
0.0
 44
0.0
 45
0.0
 46
0.0
 47
0.0
 48
0.0
 49
0.0
140
0.0
141
0.0
142
1.0
143
1.0
 70
   688
 72
     1
 73
     0
 74
     5
  7

 75
    16
 76
     0
 77
     2
 78
   300
147
1.0
148
0.0
149
0.0
100
AcDbLayout
  1
Layout2
 70
     1
 71
     2
 10
0.0
 20
0.0
 11
0.0
 21
0.0
 12
0.0
 22
0.0
 32
0.0
 14
0.0
 24
0.0
 34
0.0
 15
0.0
 25
0.0
 35
0.0
146
0.0
 13
0.0
 23
0.0
 33
0.0
 16
1.0
 26
0.0
 36
0.0
 17
0.0
 27
1.0
 37
0.0
 76
     0
330
23
  0
LAYOUT
  5
22
102
{ACAD_REACTORS
330
1A
102
}
330
1A
100
AcDbPlotSettings
  1

  2
none_device
  4
Letter_(8.50_x_11.00_Inches)
  6

 40
6.35
 41
6.35
 42
6.35000508
 43
6.35000508
 44
215.9
 45
279.4
 46
0.0
 47
0.0
 48
0.0
 49
0.0
140
0.0
141
0.0
142
1.0
143
1.0
 70
  1712
 72
     1
 73
     0
 74
     0
  7

 75
     0
 76
     0
 77
     2
 78
   300
147
1.0
148
0.0
149
0.0
100
AcDbLayout
  1
Model
 70
     1
 71
     0
 10
0.0
 20
0.0
 11
840.0
 21
594.0
 12
0.0
 22
0.0
 32
0.0
 14
0.0
 24
0.0
 34
0.0
 15
840.0
 25
594.0
 35
0.0
146
0.0
 13
0.0
 23
0.0
 33
0.0
 16
1.0
 26
0.0
 36
0.0
 17
0.0
 27
1.0
 37
0.0
 76
     0
330
1F
331
29
  0
MATERIAL
  5
45
102
{ACAD_REACTORS
330
43
102
}
330
43
100
AcDbMaterial
  1
ByBlock
 72
     1
 94
      127
  0
MATERIAL
  5
44
102
{ACAD_REACTORS
330
43
102
}
330
43
100
AcDbMaterial
  1
ByLayer
 72
     1
 94
      127
  0
MATERIAL
  5
46
102
{ACAD_REACTORS
330
43
102
}
330
43
100
AcDbMaterial
  1
Global
 72
     1
 94
      127
  0
MLEADERSTYLE
  5
6C
102
{ACAD_REACTORS
330
6B
102
}
330
6B
100
AcDbMLeaderStyle
179
     2
170
     2
171
     1
172
     0
 90
        2
 40
0.0
 41
0.0
173
     1
 91
-1056964608
340
14
 92
       -2
290
     1
 42
2.0
291
     1
 43
8.0
  3
Standard
341
0
 44
4.0
300

342
11
174
     1
178
     6
175
     1
176
     0
 93
-1056964608
 45
4.0
292
     0
297
     0
 46
4.0
343
0
 94
-1056964608
 47
1.0
 49
1.0
140
1.0
293
     1
141
0.0
294
     1
177
     0
142
1.0
295
     0
296
     0
143
3.75
271
     0
272
     9
273
     9
298
     0
  0
MLINESTYLE
  5
18
102
{ACAD_REACTORS
330
17
102
}
330
17
100
AcDbMlineStyle
  2
Standard
 70
     0
  3

 62
   256
 51
90.0
 52
90.0
 71
     2
 49
0.5
 62
   256
  6
BYLAYER
 49
-0.5
 62
   256
  6
BYLAYER
  0
ACDBPLACEHOLDER
  5
F
102
{ACAD_REACTORS
330
E
102
}
330
E
  0
SCALE
  5
48
102
{ACAD_REACTORS
330
47
102
}
330
47
100
AcDbScale
 70
     0
300
1:1
140
1.0
141
1.0
290
     1
  0
SCALE
  5
49
102
{ACAD_REACTORS
330
47
102
}
330
47
100
AcDbScale
 70
     0
300
1:2
140
1.0
141
2.0
290
     0
  0
SCALE
  5
4A
102
{ACAD_REACTORS
330
47
102
}
330
47
100
AcDbScale
 70
     0
300
1:4
140
1.0
141
4.0
290
     0
  0
SCALE
  5
4B
102
{ACAD_REACTORS
330
47
102
}
330
47
100
AcDbScale
 70
     0
300
1:5
140
1.0
141
5.0
290
     0
  0
SCALE
  5
4C
102
{ACAD_REACTORS
330
47
102
}
330
47
100
AcDbScale
 70
     0
300
1:8
140
1.0
141
8.0
290
     0
  0
SCALE
  5
4D
102
{ACAD_REACTORS
330
47
102
}
330
47
100
AcDbScale
 70
     0
300
1:10
140
1.0
141
10.0
290
     0
  0
SCALE
  5
4E
102
{ACAD_REACTORS
330
47
102
}
330
47
100
AcDbScale
 70
     0
300
1:16
140
1.0
141
16.0
290
     0
  0
SCALE
  5
4F
102
{ACAD_REACTORS
330
47
102
}
330
47
100
AcDbScale
 70
     0
300
1:20
140
1.0
141
20.0
290
     0
  0
SCALE
  5
50
102
{ACAD_REACTORS
330
47
102
}
330
47
100
AcDbScale
 70
     0
300
1:30
140
1.0
141
30.0
290
     0
  0
SCALE
  5
51
102
{ACAD_REACTORS
330
47
102
}
330
47
100
AcDbScale
 70
     0
300
1:40
140
1.0
141
40.0
290
     0
  0
SCALE
  5
52
102
{ACAD_REACTORS
330
47
102
}
330
47
100
AcDbScale
 70
     0
300
1:50
140
1.0
141
50.0
290
     0
  0
SCALE
  5
53
102
{ACAD_REACTORS
330
47
102
}
330
47
100
AcDbScale
 70
     0
300
1:100
140
1.0
141
100.0
290
     0
  0
SCALE
  5
54
102
{ACAD_REACTORS
330
47
102
}
330
47
100
AcDbScale
 70
     0
300
2:1
140
2.0
141
1.0
290
     0
  0
SCALE
  5
55
102
{ACAD_REACTORS
330
47
102
}
330
47
100
AcDbScale
 70
     0
300
4:1
140
4.0
141
1.0
290
     0
  0
SCALE
  5
56
102
{ACAD_REACTORS
330
47
102
}
330
47
100
AcDbScale
 70
     0
300
8:1
140
8.0
141
1.0
290
     0
  0
SCALE
  5
57
102
{ACAD_REACTORS
330
47
102
}
330
47
100
AcDbScale
 70
     0
300
10:1
140
10.0
141
1.0
290
     0
  0
SCALE
  5
58
102
{ACAD_REACTORS
330
47
102
}
330
47
100
AcDbScale
 70
     0
300
100:1
140
100.0
141
1.0
290
     0
  0
SCALE
  5
59
102
{ACAD_REACTORS
330
47
102
}
330
47
100
AcDbScale
 70
     0
300
1/128" = 1'-0"
140
0.0078125
141
12.0
290
     0
  0
SCALE
  5
5A
102
{ACAD_REACTORS
330
47
102
}
330
47
100
AcDbScale
 70
     0
300
1/64" = 1'-0"
140
0.015625
141
12.0
290
     0
  0
SCALE
  5
5B
102
{ACAD_REACTORS
330
47
102
}
330
47
100
AcDbScale
 70
     0
300
1/32" = 1'-0"
140
0.03125
141
12.0
290
     0
  0
SCALE
  5
5C
102
{ACAD_REACTORS
330
47
102
}
330
47
100
AcDbScale
 70
     0
300
1/16" = 1'-0"
140
0.0625
141
12.0
290
     0
  0
SCALE
  5
5D
102
{ACAD_REACTORS
330
47
102
}
330
47
100
AcDbScale
 70
     0
300
3/32" = 1'-0"
140
0.09375
141
12.0
290
     0
  0
SCALE
  5
5E
102
{ACAD_REACTORS
330
47
102
}
330
47
100
AcDbScale
 70
     0
300
1/8" = 1'-0"
140
0.125
141
12.0
290
     0
  0
SCALE
  5
5F
102
{ACAD_REACTORS
330
47
102
}
330
47
100
AcDbScale
 70
     0
300
3/16" = 1'-0"
140
0.1875
141
12.0
290
     0
  0
SCALE
  5
60
102
{ACAD_REACTORS
330
47
102
}
330
47
100
AcDbScale
 70
     0
300
1/4" = 1'-0"
140
0.25
141
12.0
290
     0
  0
SCALE
  5
61
102
{ACAD_REACTORS
330
47
102
}
330
47
100
AcDbScale
 70
     0
300
3/8" = 1'-0"
140
0.375
141
12.0
290
     0
  0
SCALE
  5
62
102
{ACAD_REACTORS
330
47
102
}
330
47
100
AcDbScale
 70
     0
300
1/2" = 1'-0"
140
0.5
141
12.0
290
     0
  0
SCALE
  5
63
102
{ACAD_REACTORS
330
47
102
}
330
47
100
AcDbScale
 70
     0
300
3/4" = 1'-0"
140
0.75
141
12.0
290
     0
  0
SCALE
  5
64
102
{ACAD_REACTORS
330
47
102
}
330
47
100
AcDbScale
 70
     0
300
1" = 1'-0"
140
1.0
141
12.0
290
     0
  0
SCALE
  5
65
102
{ACAD_REACTORS
330
47
102
}
330
47
100
AcDbScale
 70
     0
300
1-1/2" = 1'-0"
140
1.5
141
12.0
290
     0
  0
SCALE
  5
66
102
{ACAD_REACTORS
330
47
102
}
330
47
100
AcDbScale
 70
     0
300
3" = 1'-0"
140
3.0
141
12.0
290
     0
  0
SCALE
  5
67
102
{ACAD_REACTORS
330
47
102
}
330
47
100
AcDbScale
 70
     0
300
6" = 1'-0"
140
6.0
141
12.0
290
     0
  0
SCALE
  5
68
102
{ACAD_REACTORS
330
47
102
}
330
47
100
AcDbScale
 70
     0
300
1'-0" = 1'-0"
140
12.0
141
12.0
290
     0
  0
TABLESTYLE
  5
6A
102
{ACAD_REACTORS
330
69
102
}
102
{ACAD_XDICTIONARY
360
39E
102
}
330
69
100
AcDbTableStyle
  3
Standard
 70
     0
 71
     0
 40
0.06
 41
0.06
280
     0
281
     0
  7
Standard
140
4.5
170
     2
 62
     0
 63
   257
283
     0
 90
        4
 91
        0
  1

274
    -2
284
     1
 64
     0
275
    -2
285
     1
 65
     0
276
    -2
286
     1
 66
     0
277
    -2
287
     1
 67
     0
278
    -2
288
     1
 68
     0
279
    -2
289
     1
 69
     0
  7
Standard
140
6.0
170
     5
 62
     0
 63
   257
283
     0
 90
        4
 91
        0
  1

274
    -2
284
     1
 64
     0
275
    -2
285
     1
 65
     0
276
    -2
286
     1
 66
     0
277
    -2
287
     1
 67
     0
278
    -2
288
     1
 68
     0
279
    -2
289
     1
 69
     0
  7
Standard
140
4.5
170
     5
 62
     0
 63
   257
283
     0
 90
        4
 91
        0
  1

274
    -2
284
     1
 64
     0
275
    -2
285
     1
 65
     0
276
    -2
286
     1
 66
     0
277
    -2
287
     1
 67
     0
278
    -2
288
     1
 68
     0
279
    -2
289
     1
 69
     0
  0
VISUALSTYLE
  5
2F
102
{ACAD_REACTORS
330
2A
102
}
330
2A
100
AcDbVisualStyle
  2
2dWireframe
 70
     4
177
     3
291
     0
 70
    58
 90
        0
176
     1
 90
        2
176
     1
 90
        0
176
     1
 90
        0
176
     1
 40
0.6
176
     1
 40
30.0
176
     1
 62
     7
420
 16777215
176
     1
 90
        1
176
     1
 90
        4
176
     1
 62
     7
176
     1
 62
   257
176
     1
 90
        1
176
     1
 90
        1
176
     1
 40
1.0
176
     1
 90
        0
176
     1
 62
   257
176
     1
 40
1.0
176
     1
 90
        1
176
     1
 90
        6
176
     1
 90
        2
176
     1
 62
     7
176
     1
 90
        5
176
     1
 90
        0
176
     1
 90
        0
176
     1
290
     0
176
     1
 90
        1
176
     1
 40
0.0
176
     1
 90
        0
176
     1
290
     1
176
     1
290
     1
176
     1
290
     0
176
     1
290
     0
176
     1
290
     0
176
     1
290
     0
176
     1
290
     0
176
     1
290
     0
176
     1
290
     0
176
     1
 90
       50
176
     1
 40
0.0
176
     1
 40
1.0
176
     1
 90
        0
176
     1
 62
    18
420
        0
176
     1
 90
       50
176
     1
 90
        3
176
     1
 62
     5
420
      255
176
     1
290
     0
176
     1
 90
       50
176
     1
 90
       50
176
     1
 90
       50
176
     1
290
     0
176
     1
 90
       50
176
     1
 62
   256
176
     0
 40
1.0
176
     0
 90
        2
176
     1
  1
strokes_ogs.tif
176
     1
290
     0
176
     1
 40
1.0
176
     1
 40
1.0
176
     1
  0
VISUALSTYLE
  5
32
102
{ACAD_REACTORS
330
2A
102
}
330
2A
100
AcDbVisualStyle
  2
Basic
 70
     7
177
     3
291
     1
 70
    58
 90
        1
176
     1
 90
        0
176
     1
 90
        1
176
     1
 90
        0
176
     1
 40
0.6
176
     1
 40
30.0
176
     1
 62
     7
420
 16777215
176
     1
 90
        0
176
     1
 90
        4
176
     1
 62
     7
176
     1
 62
   257
176
     1
 90
        1
176
     1
 90
        1
176
     1
 40
1.0
176
     1
 90
        8
176
     1
 62
     7
176
     1
 40
1.0
176
     1
 90
        1
176
     1
 90
        6
176
     1
 90
        2
176
     1
 62
     7
176
     1
 90
        5
176
     1
 90
        0
176
     1
 90
        0
176
     1
290
     0
176
     1
 90
        1
176
     1
 40
0.0
176
     1
 90
        0
176
     1
290
     0
176
     1
290
     1
176
     1
290
     1
176
     1
290
     0
176
     1
290
     0
176
     1
290
     0
176
     1
290
     0
176
     1
290
     0
176
     1
290
     0
176
     1
 90
       50
176
     1
 40
0.0
176
     1
 40
1.0
176
     1
 90
        0
176
     1
 62
    18
420
        0
176
     1
 90
       50
176
     1
 90
        3
176
     1
 62
     5
420
      255
176
     1
290
     0
176
     1
 90
       50
176
     1
 90
       50
176
     1
 90
       50
176
     1
290
     0
176
     1
 90
       50
176
     1
 62
   256
176
     0
 40
1.0
176
     0
 90
        2
176
     1
  1
strokes_ogs.tif
176
     1
290
     0
176
     1
 40
1.0
176
     1
 40
1.0
176
     1
  0
VISUALSTYLE
  5
36
102
{ACAD_REACTORS
330
2A
102
}
330
2A
100
AcDbVisualStyle
  2
Brighten
 70
    12
177
     3
291
     1
 70
    58
 90
        2
176
     1
 90
        2
176
     1
 90
        0
176
     1
 90
        0
176
     1
 40
0.6
176
     1
 40
30.0
176
     1
 62
     7
420
 16777215
176
     1
 90
        1
176
     1
 90
        4
176
     1
 62
     7
176
     1
 62
   257
176
     1
 90
        1
176
     1
 90
        1
176
     1
 40
1.0
176
     1
 90
        8
176
     1
 62
     7
176
     1
 40
1.0
176
     1
 90
        1
176
     1
 90
        6
176
     1
 90
        2
176
     1
 62
     7
176
     1
 90
        5
176
     1
 90
        0
176
     1
 90
        0
176
     1
290
     0
176
     1
 90
        1
176
     1
 40
50.0
176
     1
 90
        0
176
     1
290
     0
176
     1
290
     1
176
     1
290
     1
176
     1
290
     0
176
     1
290
     0
176
     1
290
     0
176
     1
290
     0
176
     1
290
     0
176
     1
290
     0
176
     1
 90
       50
176
     1
 40
0.0
176
     1
 40
1.0
176
     1
 90
        0
176
     1
 62
    18
420
        0
176
     1
 90
       50
176
     1
 90
        3
176
     1
 62
     5
420
      255
176
     1
290
     0
176
     1
 90
       50
176
     1
 90
       50
176
     1
 90
       50
176
     1
290
     0
176
     1
 90
       50
176
     1
 62
   256
176
     0
 40
1.0
176
     0
 90
        2
176
     1
  1
strokes_ogs.tif
176
     1
290
     0
176
     1
 40
1.0
176
     1
 40
1.0
176
     1
  0
VISUALSTYLE
  5
3A
102
{ACAD_REACTORS
330
2A
102
}
330
2A
100
AcDbVisualStyle
  2
ColorChange
 70
    16
177
     3
291
     1
 70
    58
 90
        2
176
     1
 90
        2
176
     1
 90
        3
176
     1
 90
        0
176
     1
 40
0.6
176
     1
 40
30.0
176
     1
 62
     8
420
  8421504
176
     1
 90
        1
176
     1
 90
        4
176
     1
 62
     7
176
     1
 62
   257
176
     1
 90
        1
176
     1
 90
        1
176
     1
 40
1.0
176
     1
 90
        8
176
     1
 62
     8
420
  8421504
176
     1
 40
1.0
176
     1
 90
        1
176
     1
 90
        6
176
     1
 90
        2
176
     1
 62
     7
176
     1
 90
        5
176
     1
 90
        0
176
     1
 90
        0
176
     1
290
     0
176
     1
 90
        1
176
     1
 40
0.0
176
     1
 90
        0
176
     1
290
     0
176
     1
290
     1
176
     1
290
     1
176
     1
290
     0
176
     1
290
     0
176
     1
290
     0
176
     1
290
     0
176
     1
290
     0
176
     1
290
     0
176
     1
 90
       50
176
     1
 40
0.0
176
     1
 40
1.0
176
     1
 90
        0
176
     1
 62
    18
420
        0
176
     1
 90
       50
176
     1
 90
        3
176
     1
 62
     5
420
      255
176
     1
290
     0
176
     1
 90
       50
176
     1
 90
       50
176
     1
 90
       50
176
     1
290
     0
176
     1
 90
       50
176
     1
 62
   256
176
     0
 40
1.0
176
     0
 90
        2
176
     1
  1
strokes_ogs.tif
176
     1
290
     0
176
     1
 40
1.0
176
     1
 40
1.0
176
     1
  0
VISUALSTYLE
  5
34
102
{ACAD_REACTORS
330
2A
102
}
330
2A
100
AcDbVisualStyle
  2
Conceptual
 70
     9
177
     3
291
     0
 70
    58
 90
        3
176
     1
 90
        2
176
     1
 90
        0
176
     1
 90
        0
176
     1
 40
0.6
176
     1
 40
30.0
176
     1
 62
     7
420
 16777215
176
     1
 90
        2
176
     1
 90
        2
176
     1
 62
     7
176
     1
 62
   257
176
     1
 90
        1
176
     1
 90
        1
176
     1
 40
179.0
176
     1
 90
        8
176
     1
 62
     7
176
     1
 40
1.0
176
     1
 90
        1
176
     1
 90
        6
176
     1
 90
        2
176
     1
 62
     7
176
     1
 90
        3
176
     1
 90
        0
176
     1
 90
        0
176
     1
290
     0
176
     1
 90
        1
176
     1
 40
0.0
176
     1
 90
        0
176
     1
290
     0
176
     1
290
     1
176
     1
290
     1
176
     1
290
     0
176
     1
290
     0
176
     1
290
     0
176
     1
290
     0
176
     1
290
     0
176
     1
290
     0
176
     1
 90
       50
176
     1
 40
0.0
176
     1
 40
1.0
176
     1
 90
        0
176
     1
 62
    18
420
        0
176
     1
 90
       50
176
     1
 90
        3
176
     1
 62
     5
420
      255
176
     1
290
     0
176
     1
 90
       50
176
     1
 90
       50
176
     1
 90
       50
176
     1
290
     0
176
     1
 90
       50
176
     1
 62
   256
176
     0
 40
1.0
176
     0
 90
        2
176
     1
  1
strokes_ogs.tif
176
     1
290
     0
176
     1
 40
1.0
176
     1
 40
1.0
176
     1
  0
VISUALSTYLE
  5
35
102
{ACAD_REACTORS
330
2A
102
}
330
2A
100
AcDbVisualStyle
  2
Dim
 70
    11
177
     3
291
     1
 70
    58
 90
        2
176
     1
 90
        2
176
     1
 90
        0
176
     1
 90
        0
176
     1
 40
0.6
176
     1
 40
30.0
176
     1
 62
     7
420
 16777215
176
     1
 90
        1
176
     1
 90
        4
176
     1
 62
     7
176
     1
 62
   257
176
     1
 90
        1
176
     1
 90
        1
176
     1
 40
1.0
176
     1
 90
        8
176
     1
 62
     7
176
     1
 40
1.0
176
     1
 90
        1
176
     1
 90
        6
176
     1
 90
        2
176
     1
 62
     7
176
     1
 90
        5
176
     1
 90
        0
176
     1
 90
        0
176
     1
290
     0
176
     1
 90
        1
176
     1
 40
-50.0
176
     1
 90
        0
176
     1
290
     0
176
     1
290
     1
176
     1
290
     1
176
     1
290
     0
176
     1
290
     0
176
     1
290
     0
176
     1
290
     0
176
     1
290
     0
176
     1
290
     0
176
     1
 90
       50
176
     1
 40
0.0
176
     1
 40
1.0
176
     1
 90
        0
176
     1
 62
    18
420
        0
176
     1
 90
       50
176
     1
 90
        3
176
     1
 62
     5
420
      255
176
     1
290
     0
176
     1
 90
       50
176
     1
 90
       50
176
     1
 90
       50
176
     1
290
     0
176
     1
 90
       50
176
     1
 62
   256
176
     0
 40
1.0
176
     0
 90
        2
176
     1
  1
strokes_ogs.tif
176
     1
290
     0
176
     1
 40
1.0
176
     1
 40
1.0
176
     1
  0
VISUALSTYLE
  5
3D
102
{ACAD_REACTORS
330
2A
102
}
330
2A
100
AcDbVisualStyle
  2
EdgeColorOff
 70
    22
177
     3
291
     1
 70
    58
 90
        2
176
     0
 90
        2
176
     0
 90
        0
176
     0
 90
        0
176
     0
 40
0.6
176
     0
 40
30.0
176
     0
 62
     7
420
 16777215
176
     0
 90
        1
176
     0
 90
        4
176
     0
 62
     7
176
     0
 62
   257
176
     0
 90
        1
176
     0
 90
        1
176
     0
 40
1.0
176
     0
 90
        8
176
     2
 62
     7
176
     0
 40
1.0
176
     0
 90
        1
176
     0
 90
        6
176
     0
 90
        2
176
     0
 62
     7
176
     0
 90
        5
176
     0
 90
        0
176
     0
 90
        0
176
     0
290
     0
176
     0
 90
        1
176
     0
 40
0.0
176
     0
 90
        0
176
     0
290
     0
176
     0
290
     1
176
     0
290
     1
176
     0
290
     0
176
     0
290
     0
176
     0
290
     0
176
     0
290
     0
176
     0
290
     0
176
     0
290
     0
176
     0
 90
       50
176
     0
 40
0.0
176
     0
 40
1.0
176
     0
 90
        0
176
     0
 62
    18
420
        0
176
     0
 90
       50
176
     0
 90
        3
176
     0
 62
     5
420
      255
176
     0
290
     0
176
     0
 90
       50
176
     0
 90
       50
176
     0
 90
       50
176
     0
290
     0
176
     0
 90
       50
176
     0
 62
   256
176
     0
 40
1.0
176
     0
 90
        2
176
     0
  1
strokes_ogs.tif
176
     0
290
     0
176
     0
 40
1.0
176
     0
 40
1.0
176
     0
  0
VISUALSTYLE
  5
39
102
{ACAD_REACTORS
330
2A
102
}
330
2A
100
AcDbVisualStyle
  2
Facepattern
 70
    15
177
     3
291
     1
 70
    58
 90
        2
176
     1
 90
        2
176
     1
 90
        0
176
     1
 90
        0
176
     1
 40
0.6
176
     1
 40
30.0
176
     1
 62
     7
420
 16777215
176
     1
 90
        1
176
     1
 90
        4
176
     1
 62
     7
176
     1
 62
   257
176
     1
 90
        1
176
     1
 90
        1
176
     1
 40
1.0
176
     1
 90
        8
176
     1
 62
     7
176
     1
 40
1.0
176
     1
 90
        1
176
     1
 90
        6
176
     1
 90
        2
176
     1
 62
     7
176
     1
 90
        5
176
     1
 90
        0
176
     1
 90
        0
176
     1
290
     0
176
     1
 90
        1
176
     1
 40
0.0
176
     1
 90
        0
176
     1
290
     0
176
     1
290
     1
176
     1
290
     1
176
     1
290
     0
176
     1
290
     0
176
     1
290
     0
176
     1
290
     0
176
     1
290
     0
176
     1
290
     0
176
     1
 90
       50
176
     1
 40
0.0
176
     1
 40
1.0
176
     1
 90
        0
176
     1
 62
    18
420
        0
176
     1
 90
       50
176
     1
 90
        3
176
     1
 62
     5
420
      255
176
     1
290
     0
176
     1
 90
       50
176
     1
 90
       50
176
     1
 90
       50
176
     1
290
     0
176
     1
 90
       50
176
     1
 62
   256
176
     0
 40
1.0
176
     0
 90
        2
176
     1
  1
strokes_ogs.tif
176
     1
290
     0
176
     1
 40
1.0
176
     1
 40
1.0
176
     1
  0
VISUALSTYLE
  5
2B
102
{ACAD_REACTORS
330
2A
102
}
330
2A
100
AcDbVisualStyle
  2
Flat
 70
     0
177
     3
291
     1
 70
    58
 90
        2
176
     1
 90
        1
176
     1
 90
        1
176
     1
 90
        2
176
     1
 40
0.6
176
     1
 40
30.0
176
     1
 62
     7
420
 16777215
176
     1
 90
        0
176
     1
 90
        0
176
     1
 62
     7
176
     1
 62
   257
176
     1
 90
        1
176
     1
 90
        1
176
     1
 40
1.0
176
     1
 90
        8
176
     1
 62
     7
176
     1
 40
1.0
176
     1
 90
        1
176
     1
 90
        6
176
     1
 90
        2
176
     1
 62
     7
176
     1
 90
        5
176
     1
 90
        0
176
     1
 90
        0
176
     1
290
     0
176
     1
 90
       13
176
     1
 40
0.0
176
     1
 90
        0
176
     1
290
     0
176
     1
290
     1
176
     1
290
     1
176
     1
290
     0
176
     1
290
     0
176
     1
290
     0
176
     1
290
     0
176
     1
290
     0
176
     1
290
     0
176
     1
 90
       50
176
     1
 40
0.0
176
     1
 40
1.0
176
     1
 90
        0
176
     1
 62
    18
420
        0
176
     1
 90
       50
176
     1
 90
        3
176
     1
 62
     5
420
      255
176
     1
290
     0
176
     1
 90
       50
176
     1
 90
       50
176
     1
 90
       50
176
     1
290
     0
176
     1
 90
       50
176
     1
 62
   256
176
     0
 40
1.0
176
     0
 90
        2
176
     1
  1
strokes_ogs.tif
176
     1
290
     0
176
     1
 40
1.0
176
     1
 40
1.0
176
     1
  0
VISUALSTYLE
  5
2C
102
{ACAD_REACTORS
330
2A
102
}
330
2A
100
AcDbVisualStyle
  2
FlatWithEdges
 70
     1
177
     3
291
     1
 70
    58
 90
        2
176
     1
 90
        1
176
     1
 90
        1
176
     1
 90
        2
176
     1
 40
0.6
176
     1
 40
30.0
176
     1
 62
     7
420
 16777215
176
     1
 90
        1
176
     1
 90
        0
176
     1
 62
     7
176
     1
 62
   257
176
     1
 90
        1
176
     1
 90
        1
176
     1
 40
1.0
176
     1
 90
        0
176
     1
 62
   257
176
     1
 40
1.0
176
     1
 90
        1
176
     1
 90
        6
176
     1
 90
        2
176
     1
 62
     7
176
     1
 90
        5
176
     1
 90
        0
176
     1
 90
        0
176
     1
290
     0
176
     1
 90
       13
176
     1
 40
0.0
176
     1
 90
        0
176
     1
290
     0
176
     1
290
     1
176
     1
290
     1
176
     1
290
     0
176
     1
290
     0
176
     1
290
     0
176
     1
290
     0
176
     1
290
     0
176
     1
290
     0
176
     1
 90
       50
176
     1
 40
0.0
176
     1
 40
1.0
176
     1
 90
        0
176
     1
 62
    18
420
        0
176
     1
 90
       50
176
     1
 90
        3
176
     1
 62
     5
420
      255
176
     1
290
     0
176
     1
 90
       50
176
     1
 90
       50
176
     1
 90
       50
176
     1
290
     0
176
     1
 90
       50
176
     1
 62
   256
176
     0
 40
1.0
176
     0
 90
        2
176
     1
  1
strokes_ogs.tif
176
     1
290
     0
176
     1
 40
1.0
176
     1
 40
1.0
176
     1
  0
VISUALSTYLE
  5
2D
102
{ACAD_REACTORS
330
2A
102
}
330
2A
100
AcDbVisualStyle
  2
Gouraud
 70
     2
177
     3
291
     1
 70
    58
 90
        2
176
     1
 90
        2
176
     1
 90
        1
176
     1
 90
        2
176
     1
 40
0.6
176
     1
 40
30.0
176
     1
 62
     7
420
 16777215
176
     1
 90
        0
176
     1
 90
        0
176
     1
 62
     7
176
     1
 62
   257
176
     1
 90
        1
176
     1
 90
        1
176
     1
 40
1.0
176
     1
 90
        0
176
     1
 62
     7
176
     1
 40
1.0
176
     1
 90
        1
176
     1
 90
        6
176
     1
 90
        2
176
     1
 62
     7
176
     1
 90
        5
176
     1
 90
        0
176
     1
 90
        0
176
     1
290
     0
176
     1
 90
       13
176
     1
 40
0.0
176
     1
 90
        0
176
     1
290
     0
176
     1
290
     1
176
     1
290
     1
176
     1
290
     0
176
     1
290
     0
176
     1
290
     0
176
     1
290
     0
176
     1
290
     0
176
     1
290
     0
176
     1
 90
       50
176
     1
 40
0.0
176
     1
 40
1.0
176
     1
 90
        0
176
     1
 62
    18
420
        0
176
     1
 90
       50
176
     1
 90
        3
176
     1
 62
     5
420
      255
176
     1
290
     0
176
     1
 90
       50
176
     1
 90
       50
176
     1
 90
       50
176
     1
290
     0
176
     1
 90
       50
176
     1
 62
   256
176
     0
 40
1.0
176
     0
 90
        2
176
     1
  1
strokes_ogs.tif
176
     1
290
     0
176
     1
 40
1.0
176
     1
 40
1.0
176
     1
  0
VISUALSTYLE
  5
2E
102
{ACAD_REACTORS
330
2A
102
}
330
2A
100
AcDbVisualStyle
  2
GouraudWithEdges
 70
     3
177
     3
291
     1
 70
    58
 90
        2
176
     1
 90
        2
176
     1
 90
        1
176
     1
 90
        2
176
     1
 40
0.6
176
     1
 40
30.0
176
     1
 62
     7
420
 16777215
176
     1
 90
        1
176
     1
 90
        0
176
     1
 62
     7
176
     1
 62
   257
176
     1
 90
        1
176
     1
 90
        1
176
     1
 40
1.0
176
     1
 90
        0
176
     1
 62
   257
176
     1
 40
1.0
176
     1
 90
        1
176
     1
 90
        6
176
     1
 90
        2
176
     1
 62
     7
176
     1
 90
        5
176
     1
 90
        0
176
     1
 90
        0
176
     1
290
     0
176
     1
 90
       13
176
     1
 40
0.0
176
     1
 90
        0
176
     1
290
     0
176
     1
290
     1
176
     1
290
     1
176
     1
290
     0
176
     1
290
     0
176
     1
290
     0
176
     1
290
     0
176
     1
290
     0
176
     1
290
     0
176
     1
 90
       50
176
     1
 40
0.0
176
     1
 40
1.0
176
     1
 90
        0
176
     1
 62
    18
420
        0
176
     1
 90
       50
176
     1
 90
        3
176
     1
 62
     5
420
      255
176
     1
290
     0
176
     1
 90
       50
176
     1
 90
       50
176
     1
 90
       50
176
     1
290
     0
176
     1
 90
       50
176
     1
 62
   256
176
     0
 40
1.0
176
     0
 90
        2
176
     1
  1
strokes_ogs.tif
176
     1
290
     0
176
     1
 40
1.0
176
     1
 40
1.0
176
     1
  0
VISUALSTYLE
  5
31
102
{ACAD_REACTORS
330
2A
102
}
330
2A
100
AcDbVisualStyle
  2
Hidden
 70
     6
177
     3
291
     0
 70
    58
 90
        1
176
     1
 90
        2
176
     1
 90
        2
176
     1
 90
        0
176
     1
 40
0.6
176
     1
 40
30.0
176
     1
 62
     7
420
 16777215
176
     1
 90
        2
176
     1
 90
        2
176
     1
 62
     7
176
     1
 62
   257
176
     1
 90
        2
176
     1
 90
        1
176
     1
 40
40.0
176
     1
 90
        0
176
     1
 62
   257
176
     1
 40
1.0
176
     1
 90
        1
176
     1
 90
        6
176
     1
 90
        2
176
     1
 62
     7
176
     1
 90
        3
176
     1
 90
        0
176
     1
 90
        0
176
     1
290
     0
176
     1
 90
        1
176
     1
 40
0.0
176
     1
 90
        0
176
     1
290
     0
176
     1
290
     1
176
     1
290
     1
176
     1
290
     0
176
     1
290
     0
176
     1
290
     0
176
     1
290
     0
176
     1
290
     0
176
     1
290
     0
176
     1
 90
       50
176
     1
 40
0.0
176
     1
 40
1.0
176
     1
 90
        0
176
     1
 62
    18
420
        0
176
     1
 90
       50
176
     1
 90
        3
176
     1
 62
     5
420
      255
176
     1
290
     0
176
     1
 90
       50
176
     1
 90
       50
176
     1
 90
       50
176
     1
290
     0
176
     1
 90
       50
176
     1
 62
   256
176
     0
 40
1.0
176
     0
 90
        2
176
     1
  1
strokes_ogs.tif
176
     1
290
     0
176
     1
 40
1.0
176
     1
 40
1.0
176
     1
  0
VISUALSTYLE
  5
3B
102
{ACAD_REACTORS
330
2A
102
}
330
2A
100
AcDbVisualStyle
  2
JitterOff
 70
    20
177
     3
291
     1
 70
    58
 90
        2
176
     0
 90
        2
176
     0
 90
        0
176
     0
 90
        0
176
     0
 40
0.6
176
     0
 40
30.0
176
     0
 62
     7
420
 16777215
176
     0
 90
        1
176
     0
 90
        4
176
     0
 62
     7
176
     0
 62
   257
176
     0
 90
        1
176
     0
 90
        1
176
     0
 40
1.0
176
     0
 90
       10
176
     2
 62
     7
176
     0
 40
1.0
176
     0
 90
        1
176
     0
 90
        6
176
     0
 90
        2
176
     0
 62
     7
176
     0
 90
        5
176
     0
 90
        0
176
     0
 90
        0
176
     0
290
     0
176
     0
 90
        1
176
     0
 40
0.0
176
     0
 90
        0
176
     0
290
     0
176
     0
290
     1
176
     0
290
     1
176
     0
290
     0
176
     0
290
     0
176
     0
290
     0
176
     0
290
     0
176
     0
290
     0
176
     0
290
     0
176
     0
 90
       50
176
     0
 40
0.0
176
     0
 40
1.0
176
     0
 90
        0
176
     0
 62
    18
420
        0
176
     0
 90
       50
176
     0
 90
        3
176
     0
 62
     5
420
      255
176
     0
290
     0
176
     0
 90
       50
176
     0
 90
       50
176
     0
 90
       50
176
     0
290
     0
176
     0
 90
       50
176
     0
 62
   256
176
     0
 40
1.0
176
     0
 90
        2
176
     0
  1
strokes_ogs.tif
176
     0
290
     0
176
     0
 40
1.0
176
     0
 40
1.0
176
     0
  0
VISUALSTYLE
  5
38
102
{ACAD_REACTORS
330
2A
102
}
330
2A
100
AcDbVisualStyle
  2
Linepattern
 70
    14
177
     3
291
     1
 70
    58
 90
        2
176
     1
 90
        2
176
     1
 90
        0
176
     1
 90
        0
176
     1
 40
0.6
176
     1
 40
30.0
176
     1
 62
     7
420
 16777215
176
     1
 90
        1
176
     1
 90
        4
176
     1
 62
     7
176
     1
 62
   257
176
     1
 90
        7
176
     1
 90
        7
176
     1
 40
1.0
176
     1
 90
        8
176
     1
 62
     7
176
     1
 40
1.0
176
     1
 90
        1
176
     1
 90
        6
176
     1
 90
        2
176
     1
 62
     7
176
     1
 90
        5
176
     1
 90
        0
176
     1
 90
        0
176
     1
290
     0
176
     1
 90
        1
176
     1
 40
0.0
176
     1
 90
        0
176
     1
290
     0
176
     1
290
     1
176
     1
290
     1
176
     1
290
     0
176
     1
290
     0
176
     1
290
     0
176
     1
290
     0
176
     1
290
     0
176
     1
290
     0
176
     1
 90
       50
176
     1
 40
0.0
176
     1
 40
1.0
176
     1
 90
        0
176
     1
 62
    18
420
        0
176
     1
 90
       50
176
     1
 90
        3
176
     1
 62
     5
420
      255
176
     1
290
     0
176
     1
 90
       50
176
     1
 90
       50
176
     1
 90
       50
176
     1
290
     0
176
     1
 90
       50
176
     1
 62
   256
176
     0
 40
1.0
176
     0
 90
        2
176
     1
  1
strokes_ogs.tif
176
     1
290
     0
176
     1
 40
1.0
176
     1
 40
1.0
176
     1
  0
VISUALSTYLE
  5
3C
102
{ACAD_REACTORS
330
2A
102
}
330
2A
100
AcDbVisualStyle
  2
OverhangOff
 70
    21
177
     3
291
     1
 70
    58
 90
        2
176
     0
 90
        2
176
     0
 90
        0
176
     0
 90
        0
176
     0
 40
0.6
176
     0
 40
30.0
176
     0
 62
     7
420
 16777215
176
     0
 90
        1
176
     0
 90
        4
176
     0
 62
     7
176
     0
 62
   257
176
     0
 90
        1
176
     0
 90
        1
176
     0
 40
1.0
176
     0
 90
        9
176
     2
 62
     7
176
     0
 40
1.0
176
     0
 90
        1
176
     0
 90
        6
176
     0
 90
        2
176
     0
 62
     7
176
     0
 90
        5
176
     0
 90
        0
176
     0
 90
        0
176
     0
290
     0
176
     0
 90
        1
176
     0
 40
0.0
176
     0
 90
        0
176
     0
290
     0
176
     0
290
     1
176
     0
290
     1
176
     0
290
     0
176
     0
290
     0
176
     0
290
     0
176
     0
290
     0
176
     0
290
     0
176
     0
290
     0
176
     0
 90
       50
176
     0
 40
0.0
176
     0
 40
1.0
176
     0
 90
        0
176
     0
 62
    18
420
        0
176
     0
 90
       50
176
     0
 90
        3
176
     0
 62
     5
420
      255
176
     0
290
     0
176
     0
 90
       50
176
     0
 90
       50
176
     0
 90
       50
176
     0
290
     0
176
     0
 90
       50
176
     0
 62
   256
176
     0
 40
1.0
176
     0
 90
        2
176
     0
  1
strokes_ogs.tif
176
     0
290
     0
176
     0
 40
1.0
176
     0
 40
1.0
176
     0
  0
VISUALSTYLE
  5
33
102
{ACAD_REACTORS
330
2A
102
}
330
2A
100
AcDbVisualStyle
  2
Realistic
 70
     8
177
     3
291
     0
 70
    58
 90
        2
176
     1
 90
        3
176
     1
 90
        0
176
     1
 90
        2
176
     1
 40
0.6
176
     1
 40
30.0
176
     1
 62
     7
420
 16777215
176
     1
 90
        0
176
     1
 90
        0
176
     1
 62
     7
176
     1
 62
   257
176
     1
 90
        1
176
     1
 90
        1
176
     1
 40
1.0
176
     1
 90
        8
176
     1
 62
   257
176
     1
 40
1.0
176
     1
 90
        1
176
     1
 90
        6
176
     1
 90
        2
176
     1
 62
     7
176
     1
 90
        3
176
     1
 90
        0
176
     1
 90
        0
176
     1
290
     0
176
     1
 90
       13
176
     1
 40
0.0
176
     1
 90
        0
176
     1
290
     0
176
     1
290
     1
176
     1
290
     1
176
     1
290
     0
176
     1
290
     0
176
     1
290
     0
176
     1
290
     0
176
     1
290
     0
176
     1
290
     0
176
     1
 90
       50
176
     1
 40
0.0
176
     1
 40
1.0
176
     1
 90
        0
176
     1
 62
    18
420
        0
176
     1
 90
       50
176
     1
 90
        3
176
     1
 62
     5
420
      255
176
     1
290
     0
176
     1
 90
       50
176
     1
 90
       50
176
     1
 90
       50
176
     1
290
     0
176
     1
 90
       50
176
     1
 62
   256
176
     0
 40
1.0
176
     0
 90
        2
176
     1
  1
strokes_ogs.tif
176
     1
290
     0
176
     1
 40
1.0
176
     1
 40
1.0
176
     1
  0
VISUALSTYLE
  5
42
102
{ACAD_REACTORS
330
2A
102
}
330
2A
100
AcDbVisualStyle
  2
Shaded
 70
    27
177
     3
291
     0
 70
    58
 90
        2
176
     1
 90
        2
176
     1
 90
        1
176
     1
 90
        2
176
     1
 40
0.6
176
     1
 40
30.0
176
     1
 62
     7
420
 16777215
176
     1
 90
        0
176
     1
 90
        4
176
     1
 62
     7
176
     1
 62
   257
176
     1
 90
        1
176
     1
 90
        1
176
     1
 40
1.0
176
     1
 90
        8
176
     1
 62
   257
176
     1
 40
1.0
176
     1
 90
        1
176
     1
 90
        6
176
     1
 90
        2
176
     1
 62
     8
420
  7895160
176
     1
 90
        3
176
     1
 90
        0
176
     1
 90
        0
176
     1
290
     0
176
     1
 90
        5
176
     1
 40
0.0
176
     1
 90
        0
176
     1
290
     0
176
     1
290
     1
176
     1
290
     1
176
     1
290
     0
176
     1
290
     0
176
     1
290
     0
176
     1
290
     0
176
     1
290
     0
176
     1
290
     0
176
     1
 90
       50
176
     1
 40
0.0
176
     1
 40
1.0
176
     1
 90
        0
176
     1
 62
    18
420
        0
176
     1
 90
       50
176
     1
 90
        3
176
     1
 62
     5
420
      255
176
     1
290
     0
176
     1
 90
       50
176
     1
 90
       50
176
     1
 90
       50
176
     1
290
     0
176
     1
 90
       50
176
     1
 62
   256
176
     0
 40
1.0
176
     0
 90
        2
176
     1
  1
strokes_ogs.tif
176
     1
290
     0
176
     1
 40
1.0
176
     1
 40
1.0
176
     1
  0
VISUALSTYLE
  5
41
102
{ACAD_REACTORS
330
2A
102
}
330
2A
100
AcDbVisualStyle
  2
Shaded with edges
 70
    26
177
     3
291
     0
 70
    58
 90
        2
176
     1
 90
        2
176
     1
 90
        1
176
     1
 90
        2
176
     1
 40
0.6
176
     1
 40
30.0
176
     1
 62
     7
420
 16777215
176
     1
 90
        1
176
     1
 90
       10
176
     1
 62
     7
176
     1
 62
   257
176
     1
 90
        2
176
     1
 90
        1
176
     1
 40
1.0
176
     1
 90
        8
176
     1
 62
   257
176
     1
 40
1.0
176
     1
 90
        1
176
     1
 90
        6
176
     1
 90
        2
176
     1
 62
     7
176
     1
 90
        3
176
     1
 90
        0
176
     1
 90
        0
176
     1
290
     0
176
     1
 90
        5
176
     1
 40
0.0
176
     1
 90
        0
176
     1
290
     0
176
     1
290
     1
176
     1
290
     1
176
     1
290
     0
176
     1
290
     0
176
     1
290
     0
176
     1
290
     0
176
     1
290
     0
176
     1
290
     0
176
     1
 90
       50
176
     1
 40
0.0
176
     1
 40
1.0
176
     1
 90
        0
176
     1
 62
    18
420
        0
176
     1
 90
       50
176
     1
 90
        3
176
     1
 62
     5
420
      255
176
     1
290
     0
176
     1
 90
       50
176
     1
 90
       50
176
     1
 90
       50
176
     1
290
     0
176
     1
 90
       50
176
     1
 62
   256
176
     0
 40
1.0
176
     0
 90
        2
176
     1
  1
strokes_ogs.tif
176
     1
290
     0
176
     1
 40
1.0
176
     1
 40
1.0
176
     1
  0
VISUALSTYLE
  5
3E
102
{ACAD_REACTORS
330
2A
102
}
330
2A
100
AcDbVisualStyle
  2
Shades of Gray
 70
    23
177
     3
291
     0
 70
    58
 90
        2
176
     1
 90
        2
176
     1
 90
        3
176
     1
 90
        0
176
     1
 40
0.6
176
     1
 40
30.0
176
     1
 62
     7
420
 16777215
176
     1
 90
        2
176
     1
 90
        2
176
     1
 62
     7
176
     1
 62
     7
176
     1
 90
        1
176
     1
 90
        1
176
     1
 40
40.0
176
     1
 90
        8
176
     1
 62
     7
176
     1
 40
1.0
176
     1
 90
        1
176
     1
 90
        6
176
     1
 90
        2
176
     1
 62
     7
176
     1
 90
        3
176
     1
 90
        0
176
     1
 90
        0
176
     1
290
     0
176
     1
 90
        1
176
     1
 40
0.0
176
     1
 90
        0
176
     1
290
     0
176
     1
290
     1
176
     1
290
     1
176
     1
290
     0
176
     1
290
     0
176
     1
290
     0
176
     1
290
     0
176
     1
290
     0
176
     1
290
     0
176
     1
 90
       50
176
     1
 40
0.0
176
     1
 40
1.0
176
     1
 90
        0
176
     1
 62
    18
420
        0
176
     1
 90
       50
176
     1
 90
        3
176
     1
 62
     5
420
      255
176
     1
290
     0
176
     1
 90
       50
176
     1
 90
       50
176
     1
 90
       50
176
     1
290
     0
176
     1
 90
       50
176
     1
 62
   256
176
     0
 40
1.0
176
     0
 90
        2
176
     1
  1
strokes_ogs.tif
176
     1
290
     0
176
     1
 40
1.0
176
     1
 40
1.0
176
     1
  0
VISUALSTYLE
  5
3F
102
{ACAD_REACTORS
330
2A
102
}
330
2A
100
AcDbVisualStyle
  2
Sketchy
 70
    24
177
     3
291
     0
 70
    58
 90
        1
176
     1
 90
        2
176
     1
 90
        2
176
     1
 90
        0
176
     1
 40
0.6
176
     1
 40
30.0
176
     1
 62
     7
420
 16777215
176
     1
 90
        2
176
     1
 90
        2
176
     1
 62
     7
176
     1
 62
     7
176
     1
 90
        1
176
     1
 90
        1
176
     1
 40
40.0
176
     1
 90
       11
176
     1
 62
     7
176
     1
 40
1.0
176
     1
 90
        1
176
     1
 90
        6
176
     1
 90
        2
176
     1
 62
     7
176
     1
 90
        6
176
     1
 90
        0
176
     1
 90
        0
176
     1
290
     0
176
     1
 90
        1
176
     1
 40
0.0
176
     1
 90
        0
176
     1
290
     0
176
     1
290
     1
176
     1
290
     1
176
     1
290
     0
176
     1
290
     0
176
     1
290
     0
176
     1
290
     0
176
     1
290
     0
176
     1
290
     0
176
     1
 90
       50
176
     1
 40
0.0
176
     1
 40
1.0
176
     1
 90
        0
176
     1
 62
    18
420
        0
176
     1
 90
       50
176
     1
 90
        3
176
     1
 62
     5
420
      255
176
     1
290
     0
176
     1
 90
       50
176
     1
 90
       50
176
     1
 90
       50
176
     1
290
     0
176
     1
 90
       50
176
     1
 62
   256
176
     0
 40
1.0
176
     0
 90
        2
176
     1
  1
strokes_ogs.tif
176
     1
290
     0
176
     1
 40
1.0
176
     1
 40
1.0
176
     1
  0
VISUALSTYLE
  5
37
102
{ACAD_REACTORS
330
2A
102
}
330
2A
100
AcDbVisualStyle
  2
Thicken
 70
    13
177
     3
291
     1
 70
    58
 90
        2
176
     1
 90
        2
176
     1
 90
        0
176
     1
 90
        0
176
     1
 40
0.6
176
     1
 40
30.0
176
     1
 62
     7
420
 16777215
176
     1
 90
        1
176
     1
 90
        4
176
     1
 62
     7
176
     1
 62
   257
176
     1
 90
        1
176
     1
 90
        1
176
     1
 40
1.0
176
     1
 90
       12
176
     1
 62
     7
176
     1
 40
1.0
176
     1
 90
        1
176
     1
 90
        6
176
     1
 90
        2
176
     1
 62
     7
176
     1
 90
        5
176
     1
 90
        0
176
     1
 90
        0
176
     1
290
     0
176
     1
 90
        1
176
     1
 40
0.0
176
     1
 90
        0
176
     1
290
     0
176
     1
290
     1
176
     1
290
     1
176
     1
290
     0
176
     1
290
     0
176
     1
290
     0
176
     1
290
     0
176
     1
290
     0
176
     1
290
     0
176
     1
 90
       50
176
     1
 40
0.0
176
     1
 40
1.0
176
     1
 90
        0
176
     1
 62
    18
420
        0
176
     1
 90
       50
176
     1
 90
        3
176
     1
 62
     5
420
      255
176
     1
290
     0
176
     1
 90
       50
176
     1
 90
       50
176
     1
 90
       50
176
     1
290
     0
176
     1
 90
       50
176
     1
 62
   256
176
     0
 40
1.0
176
     0
 90
        2
176
     1
  1
strokes_ogs.tif
176
     1
290
     0
176
     1
 40
1.0
176
     1
 40
1.0
176
     1
  0
VISUALSTYLE
  5
30
102
{ACAD_REACTORS
330
2A
102
}
330
2A
100
AcDbVisualStyle
  2
Wireframe
 70
     5
177
     3
291
     0
 70
    58
 90
        0
176
     1
 90
        2
176
     1
 90
        0
176
     1
 90
        0
176
     1
 40
0.6
176
     1
 40
30.0
176
     1
 62
     7
420
 16777215
176
     1
 90
        1
176
     1
 90
        4
176
     1
 62
     7
176
     1
 62
   257
176
     1
 90
        1
176
     1
 90
        1
176
     1
 40
1.0
176
     1
 90
        0
176
     1
 62
   257
176
     1
 40
1.0
176
     1
 90
        1
176
     1
 90
        6
176
     1
 90
        2
176
     1
 62
     7
176
     1
 90
        3
176
     1
 90
        0
176
     1
 90
        0
176
     1
290
     0
176
     1
 90
        1
176
     1
 40
0.0
176
     1
 90
        0
176
     1
290
     0
176
     1
290
     1
176
     1
290
     1
176
     1
290
     0
176
     1
290
     0
176
     1
290
     0
176
     1
290
     0
176
     1
290
     0
176
     1
290
     0
176
     1
 90
       50
176
     1
 40
0.0
176
     1
 40
1.0
176
     1
 90
        0
176
     1
 62
    18
420
        0
176
     1
 90
       50
176
     1
 90
        3
176
     1
 62
     5
420
      255
176
     1
290
     0
176
     1
 90
       50
176
     1
 90
       50
176
     1
 90
       50
176
     1
290
     0
176
     1
 90
       50
176
     1
 62
   256
176
     0
 40
1.0
176
     0
 90
        2
176
     1
  1
strokes_ogs.tif
176
     1
290
     0
176
     1
 40
1.0
176
     1
 40
1.0
176
     1
  0
VISUALSTYLE
  5
40
102
{ACAD_REACTORS
330
2A
102
}
330
2A
100
AcDbVisualStyle
  2
X-Ray
 70
    25
177
     3
291
     0
 70
    58
 90
        2
176
     1
 90
        2
176
     1
 90
        1
176
     1
 90
        1
176
     1
 40
0.5
176
     1
 40
30.0
176
     1
 62
     7
420
 16777215
176
     1
 90
        1
176
     1
 90
        0
176
     1
 62
     7
176
     1
 62
   257
176
     1
 90
        1
176
     1
 90
        1
176
     1
 40
1.0
176
     1
 90
        8
176
     1
 62
     7
176
     1
 40
1.0
176
     1
 90
        1
176
     1
 90
        6
176
     1
 90
        2
176
     1
 62
     7
176
     1
 90
        3
176
     1
 90
        0
176
     1
 90
        0
176
     1
290
     0
176
     1
 90
       13
176
     1
 40
0.0
176
     1
 90
        0
176
     1
290
     0
176
     1
290
     1
176
     1
290
     1
176
     1
290
     0
176
     1
290
     0
176
     1
290
     0
176
     1
290
     0
176
     1
290
     0
176
     1
290
     0
176
     1
 90
       50
176
     1
 40
0.0
176
     1
 40
1.0
176
     1
 90
        0
176
     1
 62
    18
420
        0
176
     1
 90
       50
176
     1
 90
        3
176
     1
 62
     5
420
      255
176
     1
290
     0
176
     1
 90
       50
176
     1
 90
       50
176
     1
 90
       50
176
     1
290
     0
176
     1
 90
       50
176
     1
 62
   256
176
     0
 40
1.0
176
     0
 90
        2
176
     1
  1
strokes_ogs.tif
176
     1
290
     0
176
     1
 40
1.0
176
     1
 40
1.0
176
     1
  0
DICTIONARYVAR
  5
39D
102
{ACAD_REACTORS
330
39C
102
}
330
39C
100
DictionaryVariables
280
     0
  1
1:1
  0
DICTIONARYVAR
  5
3A2
102
{ACAD_REACTORS
330
39C
102
}
330
39C
100
DictionaryVariables
280
     0
  1
Standard
  0
DICTIONARYVAR
  5
3A1
102
{ACAD_REACTORS
330
39C
102
}
330
39C
100
DictionaryVariables
280
     0
  1
Standard
  0
DICTIONARYVAR
  5
3A5
102
{ACAD_REACTORS
330
39C
102
}
330
39C
100
DictionaryVariables
280
     0
  1
6.000000
  0
DICTIONARY
  5
39E
330
6A
100
AcDbDictionary
280
     1
281
     1
  3
ACAD_ROUNDTRIP_2008_TABLESTYLE_CELLSTYLEMAP
360
39F
  0
CELLSTYLEMAP
  5
39F
102
{ACAD_REACTORS
330
39E
102
}
330
39E
100
AcDbCellStyleMap
 90
        3
300
CELLSTYLE
  1
TABLEFORMAT_BEGIN
 90
        5
170
     1
 91
        0
 92
    32768
 62
   257
 93
        1
300
CONTENTFORMAT
  1
CONTENTFORMAT_BEGIN
 90
        0
 91
        0
 92
        4
 93
        0
300

 40
0.0
140
1.0
 94
        5
 62
     0
340
11
144
6.0
309
CONTENTFORMAT_END
171
     1
301
MARGIN
  1
CELLMARGIN_BEGIN
 40
1.5
 40
1.5
 40
1.5
 40
1.5
 40
1.5
 40
1.5
309
CELLMARGIN_END
 94
        6
 95
        1
302
GRIDFORMAT
  1
GRIDFORMAT_BEGIN
 90
        0
 91
        1
 62
     0
 92
       -2
340
14
 93
        0
 40
0.045
309
GRIDFORMAT_END
 95
        2
302
GRIDFORMAT
  1
GRIDFORMAT_BEGIN
 90
        0
 91
        1
 62
     0
 92
       -2
340
14
 93
        0
 40
0.045
309
GRIDFORMAT_END
 95
        4
302
GRIDFORMAT
  1
GRIDFORMAT_BEGIN
 90
        0
 91
        1
 62
     0
 92
       -2
340
14
 93
        0
 40
0.045
309
GRIDFORMAT_END
 95
        8
302
GRIDFORMAT
  1
GRIDFORMAT_BEGIN
 90
        0
 91
        1
 62
     0
 92
       -2
340
14
 93
        0
 40
0.045
309
GRIDFORMAT_END
 95
       16
302
GRIDFORMAT
  1
GRIDFORMAT_BEGIN
 90
        0
 91
        1
 62
     0
 92
       -2
340
14
 93
        0
 40
0.045
309
GRIDFORMAT_END
 95
       32
302
GRIDFORMAT
  1
GRIDFORMAT_BEGIN
 90
        0
 91
        1
 62
     0
 92
       -2
340
14
 93
        0
 40
0.045
309
GRIDFORMAT_END
309
TABLEFORMAT_END
  1
CELLSTYLE_BEGIN
 90
        1
 91
        1
300
_TITLE
309
CELLSTYLE_END
300
CELLSTYLE
  1
TABLEFORMAT_BEGIN
 90
        5
170
     1
 91
        0
 92
        0
 62
   257
 93
        1
300
CONTENTFORMAT
  1
CONTENTFORMAT_BEGIN
 90
        0
 91
        0
 92
        4
 93
        0
300

 40
0.0
140
1.0
 94
        5
 62
     0
340
11
144
4.5
309
CONTENTFORMAT_END
171
     1
301
MARGIN
  1
CELLMARGIN_BEGIN
 40
1.5
 40
1.5
 40
1.5
 40
1.5
 40
1.5
 40
1.5
309
CELLMARGIN_END
 94
        6
 95
        1
302
GRIDFORMAT
  1
GRIDFORMAT_BEGIN
 90
        0
 91
        1
 62
     0
 92
       -2
340
14
 93
        0
 40
0.045
309
GRIDFORMAT_END
 95
        2
302
GRIDFORMAT
  1
GRIDFORMAT_BEGIN
 90
        0
 91
        1
 62
     0
 92
       -2
340
14
 93
        0
 40
0.045
309
GRIDFORMAT_END
 95
        4
302
GRIDFORMAT
  1
GRIDFORMAT_BEGIN
 90
        0
 91
        1
 62
     0
 92
       -2
340
14
 93
        0
 40
0.045
309
GRIDFORMAT_END
 95
        8
302
GRIDFORMAT
  1
GRIDFORMAT_BEGIN
 90
        0
 91
        1
 62
     0
 92
       -2
340
14
 93
        0
 40
0.045
309
GRIDFORMAT_END
 95
       16
302
GRIDFORMAT
  1
GRIDFORMAT_BEGIN
 90
        0
 91
        1
 62
     0
 92
       -2
340
14
 93
        0
 40
0.045
309
GRIDFORMAT_END
 95
       32
302
GRIDFORMAT
  1
GRIDFORMAT_BEGIN
 90
        0
 91
        1
 62
     0
 92
       -2
340
14
 93
        0
 40
0.045
309
GRIDFORMAT_END
309
TABLEFORMAT_END
  1
CELLSTYLE_BEGIN
 90
        2
 91
        1
300
_HEADER
309
CELLSTYLE_END
300
CELLSTYLE
  1
TABLEFORMAT_BEGIN
 90
        5
170
     1
 91
        0
 92
        0
 62
   257
 93
        1
300
CONTENTFORMAT
  1
CONTENTFORMAT_BEGIN
 90
        0
 91
        0
 92
        4
 93
        0
300

 40
0.0
140
1.0
 94
        2
 62
     0
340
11
144
4.5
309
CONTENTFORMAT_END
171
     1
301
MARGIN
  1
CELLMARGIN_BEGIN
 40
1.5
 40
1.5
 40
1.5
 40
1.5
 40
1.5
 40
1.5
309
CELLMARGIN_END
 94
        6
 95
        1
302
GRIDFORMAT
  1
GRIDFORMAT_BEGIN
 90
        0
 91
        1
 62
     0
 92
       -2
340
14
 93
        0
 40
0.045
309
GRIDFORMAT_END
 95
        2
302
GRIDFORMAT
  1
GRIDFORMAT_BEGIN
 90
        0
 91
        1
 62
     0
 92
       -2
340
14
 93
        0
 40
0.045
309
GRIDFORMAT_END
 95
        4
302
GRIDFORMAT
  1
GRIDFORMAT_BEGIN
 90
        0
 91
        1
 62
     0
 92
       -2
340
14
 93
        0
 40
0.045
309
GRIDFORMAT_END
 95
        8
302
GRIDFORMAT
  1
GRIDFORMAT_BEGIN
 90
        0
 91
        1
 62
     0
 92
       -2
340
14
 93
        0
 40
0.045
309
GRIDFORMAT_END
 95
       16
302
GRIDFORMAT
  1
GRIDFORMAT_BEGIN
 90
        0
 91
        1
 62
     0
 92
       -2
340
14
 93
        0
 40
0.045
309
GRIDFORMAT_END
 95
       32
302
GRIDFORMAT
  1
GRIDFORMAT_BEGIN
 90
        0
 91
        1
 62
     0
 92
       -2
340
14
 93
        0
 40
0.045
309
GRIDFORMAT_END
309
TABLEFORMAT_END
  1
CELLSTYLE_BEGIN
 90
        3
 91
        2
300
_DATA
309
CELLSTYLE_END
  0
ENDSEC
  0
EOF
