  0
SECTION
  2
HEADER
  9
$ACADVER
  1
AC1015
  9
$ACADMAINTVER
 70
     6
  9
$DWGCODEPAGE
  3
DOS850
  9
$INSBASE
 10
-121.662367
 20
75.871162
 30
0.0
  9
$EXTMIN
 10
-121.662367
 20
75.871162
 30
0.0
  9
$EXTMAX
 10
718.337633
 20
669.871162
 30
0.0
  9
$LIMMIN
 10
-121.662367
 20
75.871162
  9
$LIMMAX
 10
718.337633
 20
669.871162
  9
$ORTHOMODE
 70
     0
  9
$REGENMODE
 70
     1
  9
$FILLMODE
 70
     1
  9
$QTEXTMODE
 70
     0
  9
$MIRRTEXT
 70
     1
  9
$LTSCALE
 40
2.0
  9
$ATTMODE
 70
     1
  9
$TEXTSIZE
 40
2.5
  9
$TRACEWID
 40
1.0
  9
$TEXTSTYLE
  7
Standard
  9
$CLAYER
  8
0
  9
$CELTYPE
  6
ByLayer
  9
$CECOLOR
 62
     7
  9
$CELTSCALE
 40
1.0
  9
$DISPSILH
 70
     0
  9
$DIMSCALE
 40
2.0
  9
$DIMASZ
 40
3.5
  9
$DIMEXO
 40
0.625
  9
$DIMDLI
 40
3.75
  9
$DIMRND
 40
0.0
  9
$DIMDLE
 40
0.0
  9
$DIMEXE
 40
1.25
  9
$DIMTP
 40
0.0
  9
$DIMTM
 40
0.0
  9
$DIMTXT
 40
3.5
  9
$DIMCEN
 40
2.5
  9
$DIMTSZ
 40
0.0
  9
$DIMTOL
 70
     0
  9
$DIMLIM
 70
     0
  9
$DIMTIH
 70
     0
  9
$DIMTOH
 70
     0
  9
$DIMSE1
 70
     0
  9
$DIMSE2
 70
     0
  9
$DIMTAD
 70
     1
  9
$DIMZIN
 70
     8
  9
$DIMBLK
  1

  9
$DIMASO
 70
     1
  9
$DIMSHO
 70
     1
  9
$DIMPOST
  1

  9
$DIMAPOST
  1

  9
$DIMALT
 70
     0
  9
$DIMALTD
 70
     3
  9
$DIMALTF
 40
0.03937
  9
$DIMLFAC
 40
1.0
  9
$DIMTOFL
 70
     1
  9
$DIMTVP
 40
0.0
  9
$DIMTIX
 70
     0
  9
$DIMSOXD
 70
     0
  9
$DIMSAH
 70
     0
  9
$DIMBLK1
  1

  9
$DIMBLK2
  1

  9
$DIMSTYLE
  2
ISO-25
  9
$DIMCLRD
 70
     0
  9
$DIMCLRE
 70
     0
  9
$DIMCLRT
 70
     0
  9
$DIMTFAC
 40
1.0
  9
$DIMGAP
 40
0.625
  9
$DIMJUST
 70
     0
  9
$DIMSD1
 70
     0
  9
$DIMSD2
 70
     0
  9
$DIMTOLJ
 70
     0
  9
$DIMTZIN
 70
     8
  9
$DIMALTZ
 70
     0
  9
$DIMALTTZ
 70
     0
  9
$DIMUPT
 70
     0
  9
$DIMDEC
 70
     2
  9
$DIMTDEC
 70
     2
  9
$DIMALTU
 70
     2
  9
$DIMALTTD
 70
     3
  9
$DIMTXSTY
  7
Standard
  9
$DIMAUNIT
 70
     0
  9
$DIMADEC
 70
     0
  9
$DIMALTRND
 40
0.0
  9
$DIMAZIN
 70
     0
  9
$DIMDSEP
 70
    44
  9
$DIMATFIT
 70
     3
  9
$DIMFRAC
 70
     0
  9
$DIMLDRBLK
  1

  9
$DIMLUNIT
 70
     2
  9
$DIMLWD
 70
    -2
  9
$DIMLWE
 70
    -2
  9
$DIMTMOVE
 70
     0
  9
$LUNITS
 70
     2
  9
$LUPREC
 70
     4
  9
$SKETCHINC
 40
1.0
  9
$FILLETRAD
 40
10.0
  9
$AUNITS
 70
     0
  9
$AUPREC
 70
     0
  9
$MENU
  1
.
  9
$ELEVATION
 40
0.0
  9
$PELEVATION
 40
0.0
  9
$THICKNESS
 40
0.0
  9
$LIMCHECK
 70
     0
  9
$CHAMFERA
 40
10.0
  9
$CHAMFERB
 40
10.0
  9
$CHAMFERC
 40
20.0
  9
$CHAMFERD
 40
0.0
  9
$SKPOLY
 70
     0
  9
$TDCREATE
 40
2453577.514878437
  9
$TDUCREATE
 40
2453577.431545104
  9
$TDUPDATE
 40
2453577.514878449
  9
$TDUUPDATE
 40
2453577.431545116
  9
$TDINDWG
 40
0.0000000116
  9
$TDUSRTIMER
 40
0.0000000116
  9
$USRTIMER
 70
     1
  9
$ANGBASE
 50
0.0
  9
$ANGDIR
 70
     0
  9
$PDMODE
 70
     0
  9
$PDSIZE
 40
0.0
  9
$PLINEWID
 40
0.0
  9
$SPLFRAME
 70
     0
  9
$SPLINETYPE
 70
     6
  9
$SPLINESEGS
 70
     8
  9
$HANDSEED
  5
53D
  9
$SURFTAB1
 70
     6
  9
$SURFTAB2
 70
     6
  9
$SURFTYPE
 70
     6
  9
$SURFU
 70
     6
  9
$SURFV
 70
     6
  9
$UCSBASE
  2

  9
$UCSNAME
  2

  9
$UCSORG
 10
0.0
 20
0.0
 30
0.0
  9
$UCSXDIR
 10
1.0
 20
0.0
 30
0.0
  9
$UCSYDIR
 10
0.0
 20
1.0
 30
0.0
  9
$UCSORTHOREF
  2

  9
$UCSORTHOVIEW
 70
     0
  9
$UCSORGTOP
 10
0.0
 20
0.0
 30
0.0
  9
$UCSORGBOTTOM
 10
0.0
 20
0.0
 30
0.0
  9
$UCSORGLEFT
 10
0.0
 20
0.0
 30
0.0
  9
$UCSORGRIGHT
 10
0.0
 20
0.0
 30
0.0
  9
$UCSORGFRONT
 10
0.0
 20
0.0
 30
0.0
  9
$UCSORGBACK
 10
0.0
 20
0.0
 30
0.0
  9
$PUCSBASE
  2

  9
$PUCSNAME
  2

  9
$PUCSORG
 10
0.0
 20
0.0
 30
0.0
  9
$PUCSXDIR
 10
1.0
 20
0.0
 30
0.0
  9
$PUCSYDIR
 10
0.0
 20
1.0
 30
0.0
  9
$PUCSORTHOREF
  2

  9
$PUCSORTHOVIEW
 70
     0
  9
$PUCSORGTOP
 10
0.0
 20
0.0
 30
0.0
  9
$PUCSORGBOTTOM
 10
0.0
 20
0.0
 30
0.0
  9
$PUCSORGLEFT
 10
0.0
 20
0.0
 30
0.0
  9
$PUCSORGRIGHT
 10
0.0
 20
0.0
 30
0.0
  9
$PUCSORGFRONT
 10
0.0
 20
0.0
 30
0.0
  9
$PUCSORGBACK
 10
0.0
 20
0.0
 30
0.0
  9
$USERI1
 70
     0
  9
$USERI2
 70
     0
  9
$USERI3
 70
     0
  9
$USERI4
 70
     0
  9
$USERI5
 70
     0
  9
$USERR1
 40
0.0
  9
$USERR2
 40
0.0
  9
$USERR3
 40
0.0
  9
$USERR4
 40
0.0
  9
$USERR5
 40
0.0
  9
$WORLDVIEW
 70
     1
  9
$SHADEDGE
 70
     3
  9
$SHADEDIF
 70
    70
  9
$TILEMODE
 70
     1
  9
$MAXACTVP
 70
    64
  9
$PINSBASE
 10
0.0
 20
0.0
 30
0.0
  9
$PLIMCHECK
 70
     0
  9
$PEXTMIN
 10
-121.662367
 20
75.871162
 30
0.0
  9
$PEXTMAX
 10
718.337633
 20
669.871162
 30
0.0
  9
$PLIMMIN
 10
-121.662367
 20
75.871162
  9
$PLIMMAX
 10
718.337633
 20
669.871162
  9
$UNITMODE
 70
     0
  9
$VISRETAIN
 70
     1
  9
$PLINEGEN
 70
     0
  9
$PSLTSCALE
 70
     1
  9
$TREEDEPTH
 70
  3020
  9
$CMLSTYLE
  2
Standard
  9
$CMLJUST
 70
     0
  9
$CMLSCALE
 40
20.0
  9
$PROXYGRAPHICS
 70
     1
  9
$MEASUREMENT
 70
     1
  9
$CELWEIGHT
370
    -1
  9
$ENDCAPS
280
     0
  9
$JOINSTYLE
280
     0
  9
$LWDISPLAY
290
     0
  9
$INSUNITS
 70
     4
  9
$HYPERLINKBASE
  1

  9
$STYLESHEET
  1

  9
$XEDIT
290
     1
  9
$CEPSNTYPE
380
     0
  9
$PSTYLEMODE
290
     1
  9
$FINGERPRINTGUID
  2
{FAEB1C30-E019-11D5-929B-00C0DF256EC4}
  9
$VERSIONGUID
  2
{FAEB1C32-E019-11D5-929B-00C0DF256EC4}
  9
$EXTNAMES
290
     1
  9
$PSVPSCALE
 40
0.0
  9
$OLESTARTUP
290
     0
  0
ENDSEC
  0
SECTION
  2
CLASSES
  0
CLASS
  1
ACDBDICTIONARYWDFLT
  2
AcDbDictionaryWithDefault
  3
ObjectDBX Classes
 90
        0
280
     0
281
     0
  0
CLASS
  1
ACDBPLACEHOLDER
  2
AcDbPlaceHolder
  3
ObjectDBX Classes
 90
        0
280
     0
281
     0
  0
CLASS
  1
LAYOUT
  2
AcDbLayout
  3
ObjectDBX Classes
 90
        0
280
     0
281
     0
  0
ENDSEC
  0
SECTION
  2
TABLES
  0
TABLE
  2
VPORT
  5
8
330
0
100
AcDbSymbolTable
 70
     2
  0
VPORT
  5
29
330
8
100
AcDbSymbolTableRecord
100
AcDbViewportTableRecord
  2
*ACTIVE
 70
     0
 10
0.0
 20
0.0
 11
1.0
 21
1.0
 12
298.337633
 22
372.871162
 13
0.0
 23
0.0
 14
1.0
 24
1.0
 15
0.0
 25
0.0
 16
0.0
 26
0.0
 36
1.0
 17
0.0
 27
0.0
 37
0.0
 40
594.0
 41
1.414141
 42
50.0
 43
0.0
 44
0.0
 50
0.0
 51
0.0
 71
    16
 72
   100
 73
     1
 74
     0
 75
     0
 76
     0
 77
     0
 78
     0
281
     0
 65
     0
110
0.0
120
0.0
130
0.0
111
1.0
121
0.0
131
0.0
112
0.0
122
1.0
132
0.0
 79
     0
146
0.0
  0
ENDTAB
  0
TABLE
  2
LTYPE
  5
5
330
0
100
AcDbSymbolTable
 70
     3
  0
LTYPE
  5
14
330
5
100
AcDbSymbolTableRecord
100
AcDbLinetypeTableRecord
  2
ByBlock
 70
     0
  3

 72
    65
 73
     0
 40
0.0
  0
LTYPE
  5
15
330
5
100
AcDbSymbolTableRecord
100
AcDbLinetypeTableRecord
  2
ByLayer
 70
     0
  3

 72
    65
 73
     0
 40
0.0
  0
LTYPE
  5
16
330
5
100
AcDbSymbolTableRecord
100
AcDbLinetypeTableRecord
  2
Continuous
 70
     0
  3
Solid line
 72
    65
 73
     0
 40
0.0
  0
LTYPE
  5
2A
330
5
100
AcDbSymbolTableRecord
100
AcDbLinetypeTableRecord
  2
DASHED
 70
     0
  3
__ __ __ __ __
 72
    65
 73
     2
 40
6.25
 49
5.0
 74
     4
 75
     0
340
0
 46
1.0
 50
0.0
 44
0.0
 45
0.0
 49
-1.25
 74
     4
 75
     0
340
0
 46
1.0
 50
0.0
 44
0.0
 45
0.0
  0
LTYPE
  5
79
330
5
100
AcDbSymbolTableRecord
100
AcDbLinetypeTableRecord
  2
DASHDOT
 70
     0
  3
__ . __ . __ . __ . __
 72
    65
 73
     4
 40
7.5
 49
5.0
 74
     4
 75
     0
340
0
 46
1.0
 50
0.0
 44
0.0
 45
0.0
 49
-1.25
 74
     4
 75
     0
340
0
 46
1.0
 50
0.0
 44
0.0
 45
0.0
 49
0.0
 74
     4
 75
     0
340
0
 46
1.0
 50
0.0
 44
0.0
 45
0.0
 49
-1.25
 74
     4
 75
     0
340
0
 46
1.0
 50
0.0
 44
0.0
 45
0.0
  0
ENDTAB
  0
TABLE
  2
LAYER
  5
2
330
0
100
AcDbSymbolTable
 70
    16
  0
LAYER
  5
10
330
2
100
AcDbSymbolTableRecord
100
AcDbLayerTableRecord
  2
0
 70
     0
 62
     7
  6
Continuous
370
    -3
390
F
  0
LAYER
  5
2B
330
2
100
AcDbSymbolTableRecord
100
AcDbLayerTableRecord
  2
LC-INFO-1-2-mm-A3-0
 70
     1
 62
     7
  6
ByBlock
370
    -3
390
F
  0
LAYER
  5
2C
330
2
100
AcDbSymbolTableRecord
100
AcDbLayerTableRecord
  2
LC-CUT-HIDDEN
 70
     0
 62
     7
  6
DASHED
370
    -3
390
F
  0
LAYER
  5
2D
330
2
100
AcDbSymbolTableRecord
100
AcDbLayerTableRecord
  2
LC-VIEWPORT
 70
     0
 62
     7
  6
ByBlock
370
    -3
390
F
  0
LAYER
  5
2E
330
2
100
AcDbSymbolTableRecord
100
AcDbLayerTableRecord
  2
LC-3D-HIDDEN
 70
     0
 62
     9
  6
DASHED
370
    -3
390
F
  0
LAYER
  5
31
330
2
100
AcDbSymbolTableRecord
100
AcDbLayerTableRecord
  2
LC-001-002-----0
 70
     0
 62
     1
  6
ByBlock
370
    -3
390
F
  0
LAYER
  5
34
330
2
100
AcDbSymbolTableRecord
100
AcDbLayerTableRecord
  2
LC-002-207-----0
 70
     0
 62
     1
  6
ByBlock
370
    -3
390
F
  0
LAYER
  5
36
330
2
100
AcDbSymbolTableRecord
100
AcDbLayerTableRecord
  2
LC-003-207-RND-0
 70
     0
 62
     1
  6
ByBlock
370
    -3
390
F
  0
LAYER
  5
40
330
2
100
AcDbSymbolTableRecord
100
AcDbLayerTableRecord
  2
LC-004-002-RND-0
 70
     0
 62
     1
  6
ByBlock
370
    -3
390
F
  0
LAYER
  5
4A
330
2
100
AcDbSymbolTableRecord
100
AcDbLayerTableRecord
  2
LC-005-003-----0
 70
     0
 62
     2
  6
ByBlock
370
    -3
390
F
  0
LAYER
  5
4C
330
2
100
AcDbSymbolTableRecord
100
AcDbLayerTableRecord
  2
Defpoints
 70
     0
 62
     7
  6
Continuous
290
     0
370
    -3
390
F
  0
LAYER
  5
91
330
2
100
AcDbSymbolTableRecord
100
AcDbLayerTableRecord
  2
LC-006-005-----0
 70
     0
 62
     2
  6
ByBlock
370
    -3
390
F
  0
LAYER
  5
138
330
2
100
AcDbSymbolTableRecord
100
AcDbLayerTableRecord
  2
LC-007-209-----0
 70
     0
 62
     1
  6
ByBlock
370
    -3
390
F
  0
LAYER
  5
26C
330
2
100
AcDbSymbolTableRecord
100
AcDbLayerTableRecord
  2
LC-008-208-----0
 70
     0
 62
     1
  6
ByBlock
370
    -3
390
F
  0
LAYER
  5
39B
330
2
100
AcDbSymbolTableRecord
100
AcDbLayerTableRecord
  2
LC-009-205-----0
 70
     0
 62
     1
  6
ByBlock
370
    -3
390
F
  0
LAYER
  5
3A4
330
2
100
AcDbSymbolTableRecord
100
AcDbLayerTableRecord
  2
LC-010-205-RND-0
 70
     0
 62
     1
  6
ByBlock
370
    -3
390
F
  0
ENDTAB
  0
TABLE
  2
STYLE
  5
3
330
0
100
AcDbSymbolTable
 70
     4
  0
STYLE
  5
11
330
3
100
AcDbSymbolTableRecord
100
AcDbTextStyleTableRecord
  2
Standard
 70
     0
 40
0.0
 41
1.0
 50
0.0
 71
     0
 42
2.5
  3
txt
  4

  0
STYLE
  5
2F
330
3
100
AcDbSymbolTableRecord
100
AcDbTextStyleTableRecord
  2
LCTX15-400-0-0-Arial
 70
     0
 40
0.0
 41
0.9
 50
0.0
 71
     0
 42
3.5
  3

  4

1001
ACAD
1000
Arial
1071
 16777218
  0
STYLE
  5
30
330
3
100
AcDbSymbolTableRecord
100
AcDbTextStyleTableRecord
  2
LCTX0-400-0-0-DIN-Schrift
 70
     0
 40
0.0
 41
0.8
 50
0.0
 71
     0
 42
3.5
  3
MONOTXT
  4

  0
STYLE
  5
48
330
3
100
AcDbSymbolTableRecord
100
AcDbTextStyleTableRecord
  2
LCTX15-400-0-0pDIN-Schrift
 70
     0
 40
2.5
 41
0.8
 50
15.0
 71
     0
 42
3.5
  3
STANDARD
  4

  0
ENDTAB
  0
TABLE
  2
VIEW
  5
6
330
0
100
AcDbSymbolTable
 70
     0
  0
ENDTAB
  0
TABLE
  2
UCS
  5
7
330
0
100
AcDbSymbolTable
 70
     0
  0
ENDTAB
  0
TABLE
  2
APPID
  5
9
330
0
100
AcDbSymbolTable
 70
     1
  0
APPID
  5
12
330
9
100
AcDbSymbolTableRecord
100
AcDbRegAppTableRecord
  2
ACAD
 70
     0
  0
ENDTAB
  0
TABLE
  2
DIMSTYLE
  5
A
330
0
100
AcDbSymbolTable
 70
     3
100
AcDbDimStyleTable
  0
DIMSTYLE
105
27
330
A
100
AcDbSymbolTableRecord
100
AcDbDimStyleTableRecord
  2
ISO-25
 70
     0
 41
2.5
 42
0.625
 43
3.75
 44
1.25
 73
     0
 74
     0
 77
     1
 78
     8
140
2.5
141
2.5
143
0.03937
147
0.625
171
     3
172
     1
271
     2
272
     2
274
     3
278
    44
283
     0
284
     8
340
11
  0
DIMSTYLE
105
49
102
{ACAD_REACTORS
330
4B
330
63
330
100
330
140
330
211
330
21F
330
495
330
511
330
52B
102
}
330
A
100
AcDbSymbolTableRecord
100
AcDbDimStyleTableRecord
  2
LC-DIM-L-0140-02-02
 70
     0
 40
2.0
 41
14.0
 42
0.0
 43
7.5
 44
1.8
 73
     0
 74
     0
 77
     1
 78
     8
 79
     2
140
14.0
141
0.0
146
0.71
147
1.5
176
     2
177
     2
178
     2
179
     2
271
     2
278
    44
289
     1
340
48
  0
DIMSTYLE
105
202
102
{ACAD_REACTORS
330
203
102
}
330
A
100
AcDbSymbolTableRecord
100
AcDbDimStyleTableRecord
  2
LC-DIM-W-0140-02-02
 70
     0
 40
2.0
 41
14.0
 42
0.0
 43
7.5
 44
1.8
 73
     0
 74
     0
 77
     1
 78
     8
 79
     2
140
14.0
141
0.0
146
0.71
147
1.5
176
     2
177
     2
178
     2
179
     2
271
     2
278
    44
289
     1
340
48
  0
ENDTAB
  0
TABLE
  2
BLOCK_RECORD
  5
1
330
0
100
AcDbSymbolTable
 70
    30
  0
BLOCK_RECORD
  5
1F
330
1
100
AcDbSymbolTableRecord
100
AcDbBlockTableRecord
  2
*Model_Space
340
22
  0
BLOCK_RECORD
  5
1B
330
1
100
AcDbSymbolTableRecord
100
AcDbBlockTableRecord
  2
*Paper_Space
340
1E
  0
BLOCK_RECORD
  5
23
330
1
100
AcDbSymbolTableRecord
100
AcDbBlockTableRecord
  2
*Paper_Space0
340
26
  0
BLOCK_RECORD
  5
4D
330
1
100
AcDbSymbolTableRecord
100
AcDbBlockTableRecord
  2
*D1
340
0
  0
BLOCK_RECORD
  5
64
330
1
100
AcDbSymbolTableRecord
100
AcDbBlockTableRecord
  2
*D2
340
0
  0
BLOCK_RECORD
  5
8E
330
1
100
AcDbSymbolTableRecord
100
AcDbBlockTableRecord
  2
*X13
340
0
102
{BLKREFS
331
98
102
}
  0
BLOCK_RECORD
  5
A8
330
1
100
AcDbSymbolTableRecord
100
AcDbBlockTableRecord
  2
*X24
340
0
102
{BLKREFS
331
EA
102
}
  0
BLOCK_RECORD
  5
101
330
1
100
AcDbSymbolTableRecord
100
AcDbBlockTableRecord
  2
*D5
340
0
  0
BLOCK_RECORD
  5
141
330
1
100
AcDbSymbolTableRecord
100
AcDbBlockTableRecord
  2
*D6
340
0
  0
BLOCK_RECORD
  5
160
330
1
100
AcDbSymbolTableRecord
100
AcDbBlockTableRecord
  2
*X37
340
0
102
{BLKREFS
331
1AE
102
}
  0
BLOCK_RECORD
  5
1AF
330
1
100
AcDbSymbolTableRecord
100
AcDbBlockTableRecord
  2
*X48
340
0
102
{BLKREFS
331
1F8
102
}
  0
BLOCK_RECORD
  5
204
330
1
100
AcDbSymbolTableRecord
100
AcDbBlockTableRecord
  2
*D9
340
0
  0
BLOCK_RECORD
  5
212
330
1
100
AcDbSymbolTableRecord
100
AcDbBlockTableRecord
  2
*D10
340
0
  0
BLOCK_RECORD
  5
220
330
1
100
AcDbSymbolTableRecord
100
AcDbBlockTableRecord
  2
*D11
340
0
  0
BLOCK_RECORD
  5
230
330
1
100
AcDbSymbolTableRecord
100
AcDbBlockTableRecord
  2
*X512
340
0
102
{BLKREFS
331
24A
102
}
  0
BLOCK_RECORD
  5
24C
330
1
100
AcDbSymbolTableRecord
100
AcDbBlockTableRecord
  2
*X613
340
0
102
{BLKREFS
331
26B
102
}
  0
BLOCK_RECORD
  5
2D3
330
1
100
AcDbSymbolTableRecord
100
AcDbBlockTableRecord
  2
*X714
340
0
102
{BLKREFS
331
2D7
102
}
  0
BLOCK_RECORD
  5
2DA
330
1
100
AcDbSymbolTableRecord
100
AcDbBlockTableRecord
  2
*X815
340
0
102
{BLKREFS
331
2DE
102
}
  0
BLOCK_RECORD
  5
3CE
330
1
100
AcDbSymbolTableRecord
100
AcDbBlockTableRecord
  2
*X916
340
0
102
{BLKREFS
331
3EB
102
}
  0
BLOCK_RECORD
  5
3EC
330
1
100
AcDbSymbolTableRecord
100
AcDbBlockTableRecord
  2
*X1017
340
0
102
{BLKREFS
331
408
102
}
  0
BLOCK_RECORD
  5
418
330
1
100
AcDbSymbolTableRecord
100
AcDbBlockTableRecord
  2
*X1118
340
0
102
{BLKREFS
331
42D
102
}
  0
BLOCK_RECORD
  5
42E
330
1
100
AcDbSymbolTableRecord
100
AcDbBlockTableRecord
  2
*X1219
340
0
102
{BLKREFS
331
444
102
}
  0
BLOCK_RECORD
  5
449
330
1
100
AcDbSymbolTableRecord
100
AcDbBlockTableRecord
  2
*X1320
340
0
102
{BLKREFS
331
456
102
}
  0
BLOCK_RECORD
  5
457
330
1
100
AcDbSymbolTableRecord
100
AcDbBlockTableRecord
  2
*X1421
340
0
102
{BLKREFS
331
467
102
}
  0
BLOCK_RECORD
  5
468
330
1
100
AcDbSymbolTableRecord
100
AcDbBlockTableRecord
  2
*X1522
340
0
102
{BLKREFS
331
47F
102
}
  0
BLOCK_RECORD
  5
486
330
1
100
AcDbSymbolTableRecord
100
AcDbBlockTableRecord
  2
*X1623
340
0
102
{BLKREFS
331
490
102
}
  0
BLOCK_RECORD
  5
496
330
1
100
AcDbSymbolTableRecord
100
AcDbBlockTableRecord
  2
*D24
340
0
  0
BLOCK_RECORD
  5
4DB
330
1
100
AcDbSymbolTableRecord
100
AcDbBlockTableRecord
  2
*X1725
340
0
102
{BLKREFS
331
4EF
102
}
  0
BLOCK_RECORD
  5
4F0
330
1
100
AcDbSymbolTableRecord
100
AcDbBlockTableRecord
  2
*X1826
340
0
102
{BLKREFS
331
503
102
}
  0
BLOCK_RECORD
  5
512
330
1
100
AcDbSymbolTableRecord
100
AcDbBlockTableRecord
  2
*D27
340
0
  0
BLOCK_RECORD
  5
520
330
1
100
AcDbSymbolTableRecord
100
AcDbBlockTableRecord
  2
*X1928
340
0
102
{BLKREFS
331
52A
102
}
  0
BLOCK_RECORD
  5
52C
330
1
100
AcDbSymbolTableRecord
100
AcDbBlockTableRecord
  2
*D29
340
0
  0
ENDTAB
  0
ENDSEC
  0
SECTION
  2
BLOCKS
  0
BLOCK
  5
20
330
1F
100
AcDbEntity
  8
0
100
AcDbBlockBegin
  2
*Model_Space
 70
     0
 71
     0
 10
0.0
 20
0.0
 30
0.0
  3
*Model_Space
  1

  0
ENDBLK
  5
21
330
1F
100
AcDbEntity
  8
0
100
AcDbBlockEnd
  0
BLOCK
  5
1C
330
1B
100
AcDbEntity
 67
     1
  8
0
100
AcDbBlockBegin
  2
*Paper_Space
 70
     0
 71
     0
 10
0.0
 20
0.0
 30
0.0
  3
*Paper_Space
  1

  0
ENDBLK
  5
1D
330
1B
100
AcDbEntity
 67
     1
  8
0
100
AcDbBlockEnd
  0
BLOCK
  5
24
330
23
100
AcDbEntity
  8
0
100
AcDbBlockBegin
  2
*Paper_Space0
 70
     0
 71
     0
 10
0.0
 20
0.0
 30
0.0
  3
*Paper_Space0
  1

  0
ENDBLK
  5
25
330
23
100
AcDbEntity
  8
0
100
AcDbBlockEnd
  0
BLOCK
  5
57
330
4D
100
AcDbEntity
  8
0
100
AcDbBlockBegin
  2
*D1
 70
     1
 71
     0
 10
0.0
 20
0.0
 30
0.0
  3
*D1
  1

  0
LINE
  5
4E
330
4D
100
AcDbEntity
  8
LC-005-003-----0
 62
     2
370
    -2
100
AcDbLine
 10
66.060914
 20
468.959407
 30
0.0
 11
35.6
 21
468.959407
 31
0.0
  0
LINE
  5
4F
330
4D
100
AcDbEntity
  8
LC-005-003-----0
 62
     2
370
    -2
100
AcDbLine
 10
152.560914
 20
357.276134
 30
0.0
 11
35.6
 21
357.276134
 31
0.0
  0
LINE
  5
50
330
4D
100
AcDbEntity
  8
LC-005-003-----0
 62
     2
370
    -2
100
AcDbLine
 10
39.2
 20
440.959407
 30
0.0
 11
39.2
 21
385.276134
 31
0.0
  0
SOLID
  5
51
330
4D
100
AcDbEntity
  8
LC-005-003-----0
 62
     2
100
AcDbTrace
 10
43.866667
 20
440.959407
 30
0.0
 11
34.533333
 21
440.959407
 31
0.0
 12
39.2
 22
468.959407
 32
0.0
 13
39.2
 23
468.959407
 33
0.0
  0
SOLID
  5
52
330
4D
100
AcDbEntity
  8
LC-005-003-----0
 62
     2
100
AcDbTrace
 10
34.533333
 20
385.276134
 30
0.0
 11
43.866667
 21
385.276134
 31
0.0
 12
39.2
 22
357.276134
 32
0.0
 13
39.2
 23
357.276134
 33
0.0
  0
MTEXT
  5
53
330
4D
100
AcDbEntity
  8
LC-005-003-----0
 62
     2
100
AcDbMText
 10
8.4
 20
413.117771
 30
0.0
 40
28.0
 41
0.0
 71
     5
 72
     1
  1
\A1;110
  7
LCTX15-400-0-0pDIN-Schrift
 11
6.123031769111886E-17
 21
1.0
 31
0.0
 73
     1
 44
1.0
  0
POINT
  5
54
330
4D
100
AcDbEntity
  8
Defpoints
 62
     0
100
AcDbPoint
 10
66.060914
 20
468.959407
 30
0.0
  0
POINT
  5
55
330
4D
100
AcDbEntity
  8
Defpoints
 62
     0
100
AcDbPoint
 10
152.560914
 20
357.276134
 30
0.0
  0
POINT
  5
56
330
4D
100
AcDbEntity
  8
Defpoints
 62
     0
100
AcDbPoint
 10
39.2
 20
357.276134
 30
0.0
  0
ENDBLK
  5
58
330
4D
100
AcDbEntity
  8
0
100
AcDbBlockEnd
  0
BLOCK
  5
6E
330
64
100
AcDbEntity
  8
0
100
AcDbBlockBegin
  2
*D2
 70
     1
 71
     0
 10
0.0
 20
0.0
 30
0.0
  3
*D2
  1

  0
LINE
  5
65
330
64
100
AcDbEntity
  8
LC-005-003-----0
 62
     2
370
    -2
100
AcDbLine
 10
217.060914
 20
360.276134
 30
0.0
 11
217.060914
 21
310.0
 31
0.0
  0
LINE
  5
66
330
64
100
AcDbEntity
  8
LC-005-003-----0
 62
     2
370
    -2
100
AcDbLine
 10
451.759187
 20
380.928145
 30
0.0
 11
451.759187
 21
310.0
 31
0.0
  0
LINE
  5
67
330
64
100
AcDbEntity
  8
LC-005-003-----0
 62
     2
370
    -2
100
AcDbLine
 10
245.060914
 20
313.6
 30
0.0
 11
423.759187
 21
313.6
 31
0.0
  0
SOLID
  5
68
330
64
100
AcDbEntity
  8
LC-005-003-----0
 62
     2
100
AcDbTrace
 10
245.060914
 20
318.266667
 30
0.0
 11
245.060914
 21
308.933333
 31
0.0
 12
217.060914
 22
313.6
 32
0.0
 13
217.060914
 23
313.6
 33
0.0
  0
SOLID
  5
69
330
64
100
AcDbEntity
  8
LC-005-003-----0
 62
     2
100
AcDbTrace
 10
423.759187
 20
308.933333
 30
0.0
 11
423.759187
 21
318.266667
 31
0.0
 12
451.759187
 22
313.6
 32
0.0
 13
451.759187
 23
313.6
 33
0.0
  0
MTEXT
  5
6A
330
64
100
AcDbEntity
  8
LC-005-003-----0
 62
     2
100
AcDbMText
 10
279.536392
 20
344.4
 30
0.0
 40
28.0
 41
0.0
 71
     5
 72
     1
  1
\A1;235
  7
LCTX15-400-0-0pDIN-Schrift
 73
     1
 44
1.0
  0
POINT
  5
6B
330
64
100
AcDbEntity
  8
Defpoints
 62
     0
100
AcDbPoint
 10
217.060914
 20
360.276134
 30
0.0
  0
POINT
  5
6C
330
64
100
AcDbEntity
  8
Defpoints
 62
     0
100
AcDbPoint
 10
451.759187
 20
380.928145
 30
0.0
  0
POINT
  5
6D
330
64
100
AcDbEntity
  8
Defpoints
 62
     0
100
AcDbPoint
 10
451.759187
 20
313.6
 30
0.0
  0
ENDBLK
  5
6F
330
64
100
AcDbEntity
  8
0
100
AcDbBlockEnd
  0
BLOCK
  5
8F
330
8E
100
AcDbEntity
  8
0
100
AcDbBlockBegin
  2
*X13
 70
     1
 71
     0
 10
0.0
 20
0.0
 30
0.0
  3
*X13
  1

  4
*X1
  0
LINE
  5
92
330
8E
100
AcDbEntity
  8
LC-006-005-----0
 62
     7
370
    25
100
AcDbLine
 10
326.624038
 20
425.737577
 30
0.0
 11
324.59174
 21
427.769876
 31
0.0
  0
LINE
  5
93
330
8E
100
AcDbEntity
  8
LC-006-005-----0
  6
DASHED
 62
     7
370
    25
100
AcDbLine
 10
325.540731
 20
423.992457
 30
0.0
 11
322.846619
 21
426.686569
 31
0.0
  0
LINE
  5
94
330
8E
100
AcDbEntity
  8
LC-006-005-----0
  6
DASHED
 62
     7
370
    25
100
AcDbLine
 10
324.326545
 20
423.79243
 30
0.0
 11
322.646592
 21
425.472382
 31
0.0
  0
LINE
  5
95
330
8E
100
AcDbEntity
  8
LC-006-005-----0
  6
DASHED
 62
     7
370
    25
100
AcDbLine
 10
326.609642
 20
372.011857
 30
0.0
 11
324.86602
 21
373.75548
 31
0.0
  0
LINE
  5
96
330
8E
100
AcDbEntity
  8
LC-006-005-----0
  6
DASHED
 62
     7
370
    25
100
AcDbLine
 10
326.38528
 20
370.822006
 30
0.0
 11
323.676168
 21
373.531118
 31
0.0
  0
LINE
  5
97
330
8E
100
AcDbEntity
  8
LC-006-005-----0
 62
     7
370
    25
100
AcDbLine
 10
324.608657
 20
369.770202
 30
0.0
 11
322.624364
 21
371.754495
 31
0.0
  0
ENDBLK
  5
90
330
8E
100
AcDbEntity
  8
0
100
AcDbBlockEnd
  0
BLOCK
  5
A9
330
A8
100
AcDbEntity
  8
0
100
AcDbBlockBegin
  2
*X24
 70
     1
 71
     0
 10
0.0
 20
0.0
 30
0.0
  3
*X24
  1

  4
*X2
  0
LINE
  5
AB
330
A8
100
AcDbEntity
  8
LC-006-005-----0
 62
     7
370
    25
100
AcDbLine
 10
333.373574
 20
421.054815
 30
0.0
 11
333.622035
 21
421.303276
 31
0.0
  0
LINE
  5
AC
330
A8
100
AcDbEntity
  8
LC-006-005-----0
 62
     7
370
    25
100
AcDbLine
 10
330.545147
 20
421.054815
 30
0.0
 11
332.634683
 21
423.144351
 31
0.0
  0
LINE
  5
AD
330
A8
100
AcDbEntity
  8
LC-006-005-----0
 62
     7
370
    25
100
AcDbLine
 10
327.71672
 20
421.054815
 30
0.0
 11
330.90087
 21
424.238965
 31
0.0
  0
LINE
  5
AE
330
A8
100
AcDbEntity
  8
LC-006-005-----0
 62
     7
370
    25
100
AcDbLine
 10
324.888293
 20
421.054815
 30
0.0
 11
329.060898
 21
425.22742
 31
0.0
  0
LINE
  5
AF
330
A8
100
AcDbEntity
  8
LC-006-005-----0
 62
     7
370
    25
100
AcDbLine
 10
322.059866
 20
421.054815
 30
0.0
 11
324.759406
 21
423.754355
 31
0.0
  0
LINE
  5
B0
330
A8
100
AcDbEntity
  8
LC-006-005-----0
 62
     7
370
    25
100
AcDbLine
 10
326.624303
 20
425.619252
 30
0.0
 11
327.107709
 21
426.102659
 31
0.0
  0
LINE
  5
B1
330
A8
100
AcDbEntity
  8
LC-006-005-----0
 62
     7
370
    25
100
AcDbLine
 10
319.231439
 20
421.054815
 30
0.0
 11
322.125761
 21
423.949137
 31
0.0
  0
LINE
  5
B2
330
A8
100
AcDbEntity
  8
LC-006-005-----0
 62
     7
370
    25
100
AcDbLine
 10
367.067148
 20
468.890524
 30
0.0
 11
368.060914
 21
469.884291
 31
0.0
  0
LINE
  5
B3
330
A8
100
AcDbEntity
  8
LC-006-005-----0
 62
     7
370
    25
100
AcDbLine
 10
316.403012
 20
421.054815
 30
0.0
 11
322.125761
 21
426.777564
 31
0.0
  0
LINE
  5
B4
330
A8
100
AcDbEntity
  8
LC-006-005-----0
 62
     7
370
    25
100
AcDbLine
 10
364.028068
 20
468.679872
 30
0.0
 11
367.259233
 21
471.911037
 31
0.0
  0
LINE
  5
B5
330
A8
100
AcDbEntity
  8
LC-006-005-----0
 62
     7
370
    25
100
AcDbLine
 10
313.574584
 20
421.054815
 30
0.0
 11
320.448814
 21
427.929044
 31
0.0
  0
LINE
  5
B6
330
A8
100
AcDbEntity
  8
LC-006-005-----0
 62
     7
370
    25
100
AcDbLine
 10
360.988988
 20
468.469219
 30
0.0
 11
364.220153
 21
471.700384
 31
0.0
  0
LINE
  5
B7
330
A8
100
AcDbEntity
  8
LC-006-005-----0
 62
     7
370
    25
100
AcDbLine
 10
310.746157
 20
421.054815
 30
0.0
 11
317.894341
 21
428.202999
 31
0.0
  0
LINE
  5
B8
330
A8
100
AcDbEntity
  8
LC-006-005-----0
 62
     7
370
    25
100
AcDbLine
 10
357.949908
 20
468.258566
 30
0.0
 11
361.181073
 21
471.489731
 31
0.0
  0
LINE
  5
B9
330
A8
100
AcDbEntity
  8
LC-006-005-----0
 62
     7
370
    25
100
AcDbLine
 10
307.91773
 20
421.054815
 30
0.0
 11
315.110662
 21
428.247747
 31
0.0
  0
LINE
  5
BA
330
A8
100
AcDbEntity
  8
LC-006-005-----0
 62
     7
370
    25
100
AcDbLine
 10
354.910828
 20
468.047913
 30
0.0
 11
358.141993
 21
471.279078
 31
0.0
  0
LINE
  5
BB
330
A8
100
AcDbEntity
  8
LC-006-005-----0
 62
     7
370
    25
100
AcDbLine
 10
305.089303
 20
421.054815
 30
0.0
 11
312.023324
 21
427.988836
 31
0.0
  0
LINE
  5
BC
330
A8
100
AcDbEntity
  8
LC-006-005-----0
 62
     7
370
    25
100
AcDbLine
 10
351.871748
 20
467.83726
 30
0.0
 11
355.102913
 21
471.068425
 31
0.0
  0
LINE
  5
BD
330
A8
100
AcDbEntity
  8
LC-006-005-----0
 62
     7
370
    25
100
AcDbLine
 10
302.260876
 20
421.054815
 30
0.0
 11
308.488014
 21
427.281954
 31
0.0
  0
LINE
  5
BE
330
A8
100
AcDbEntity
  8
LC-006-005-----0
 62
     7
370
    25
100
AcDbLine
 10
348.832668
 20
467.626607
 30
0.0
 11
352.063833
 21
470.857772
 31
0.0
  0
LINE
  5
BF
330
A8
100
AcDbEntity
  8
LC-006-005-----0
 62
     7
370
    25
100
AcDbLine
 10
299.432449
 20
421.054815
 30
0.0
 11
304.136263
 21
425.75863
 31
0.0
  0
LINE
  5
C0
330
A8
100
AcDbEntity
  8
LC-006-005-----0
 62
     7
370
    25
100
AcDbLine
 10
345.793588
 20
467.415954
 30
0.0
 11
349.024753
 21
470.647119
 31
0.0
  0
LINE
  5
C1
330
A8
100
AcDbEntity
  8
LC-006-005-----0
 62
     7
370
    25
100
AcDbLine
 10
296.604022
 20
421.054815
 30
0.0
 11
299.303147
 21
423.75394
 31
0.0
  0
LINE
  5
C2
330
A8
100
AcDbEntity
  8
LC-006-005-----0
 62
     7
370
    25
100
AcDbLine
 10
342.754507
 20
467.205301
 30
0.0
 11
345.985673
 21
470.436466
 31
0.0
  0
LINE
  5
C3
330
A8
100
AcDbEntity
  8
LC-006-005-----0
 62
     7
370
    25
100
AcDbLine
 10
293.775595
 20
421.054815
 30
0.0
 11
296.47472
 21
423.75394
 31
0.0
  0
LINE
  5
C4
330
A8
100
AcDbEntity
  8
LC-006-005-----0
 62
     7
370
    25
100
AcDbLine
 10
339.715427
 20
466.994648
 30
0.0
 11
342.946593
 21
470.225813
 31
0.0
  0
LINE
  5
C5
330
A8
100
AcDbEntity
  8
LC-006-005-----0
 62
     7
370
    25
100
AcDbLine
 10
290.947167
 20
421.054815
 30
0.0
 11
293.646293
 21
423.75394
 31
0.0
  0
LINE
  5
C6
330
A8
100
AcDbEntity
  8
LC-006-005-----0
 62
     7
370
    25
100
AcDbLine
 10
336.676347
 20
466.783995
 30
0.0
 11
339.907513
 21
470.01516
 31
0.0
  0
LINE
  5
C7
330
A8
100
AcDbEntity
  8
LC-006-005-----0
 62
     7
370
    25
100
AcDbLine
 10
288.11874
 20
421.054815
 30
0.0
 11
290.817866
 21
423.75394
 31
0.0
  0
LINE
  5
C8
330
A8
100
AcDbEntity
  8
LC-006-005-----0
 62
     7
370
    25
100
AcDbLine
 10
332.724441
 20
465.660516
 30
0.0
 11
336.868433
 21
469.804508
 31
0.0
  0
LINE
  5
C9
330
A8
100
AcDbEntity
  8
LC-006-005-----0
 62
     7
370
    25
100
AcDbLine
 10
285.290313
 20
421.054815
 30
0.0
 11
287.989438
 21
423.75394
 31
0.0
  0
LINE
  5
CA
330
A8
100
AcDbEntity
  8
LC-006-005-----0
 62
     7
370
    25
100
AcDbLine
 10
297.699495
 20
433.463997
 30
0.0
 11
301.771369
 21
437.535871
 31
0.0
  0
LINE
  5
CB
330
A8
100
AcDbEntity
  8
LC-006-005-----0
 62
     7
370
    25
100
AcDbLine
 10
328.540742
 20
464.305244
 30
0.0
 11
333.829353
 21
469.593855
 31
0.0
  0
LINE
  5
CC
330
A8
100
AcDbEntity
  8
LC-006-005-----0
 62
     7
370
    25
100
AcDbLine
 10
282.461886
 20
421.054815
 30
0.0
 11
285.161011
 21
423.75394
 31
0.0
  0
LINE
  5
CD
330
A8
100
AcDbEntity
  8
LC-006-005-----0
 62
     7
370
    25
100
AcDbLine
 10
294.871068
 20
433.463997
 30
0.0
 11
304.237341
 21
442.83027
 31
0.0
  0
LINE
  5
CE
330
A8
100
AcDbEntity
  8
LC-006-005-----0
 62
     7
370
    25
100
AcDbLine
 10
325.368615
 20
463.961544
 30
0.0
 11
330.790273
 21
469.383202
 31
0.0
  0
LINE
  5
CF
330
A8
100
AcDbEntity
  8
LC-006-005-----0
 62
     7
370
    25
100
AcDbLine
 10
279.633459
 20
421.054815
 30
0.0
 11
282.332584
 21
423.75394
 31
0.0
  0
LINE
  5
D0
330
A8
100
AcDbEntity
  8
LC-006-005-----0
 62
     7
370
    25
100
AcDbLine
 10
282.819341
 20
424.240697
 30
0.0
 11
284.284214
 21
425.705571
 31
0.0
  0
LINE
  5
D1
330
A8
100
AcDbEntity
  8
LC-006-005-----0
 62
     7
370
    25
100
AcDbLine
 10
292.042641
 20
433.463997
 30
0.0
 11
306.060914
 21
447.482271
 31
0.0
  0
LINE
  5
D2
330
A8
100
AcDbEntity
  8
LC-006-005-----0
 62
     7
370
    25
100
AcDbLine
 10
322.327535
 20
463.748892
 30
0.0
 11
327.046167
 21
468.467523
 31
0.0
  0
LINE
  5
D3
330
A8
100
AcDbEntity
  8
LC-006-005-----0
 62
     7
370
    25
100
AcDbLine
 10
278.540941
 20
422.790725
 30
0.0
 11
284.560914
 21
428.810698
 31
0.0
  0
LINE
  5
D4
330
A8
100
AcDbEntity
  8
LC-006-005-----0
 62
     7
370
    25
100
AcDbLine
 10
289.214214
 20
433.463997
 30
0.0
 11
292.218565
 21
436.468348
 31
0.0
  0
LINE
  5
D5
330
A8
100
AcDbEntity
  8
LC-006-005-----0
 62
     7
370
    25
100
AcDbLine
 10
294.619589
 20
438.869372
 30
0.0
 11
300.912756
 21
445.162539
 31
0.0
  0
LINE
  5
D6
330
A8
100
AcDbEntity
  8
LC-006-005-----0
 62
     7
370
    25
100
AcDbLine
 10
303.810207
 20
448.059991
 30
0.0
 11
306.060914
 21
450.310698
 31
0.0
  0
LINE
  5
D7
330
A8
100
AcDbEntity
  8
LC-006-005-----0
 62
     7
370
    25
100
AcDbLine
 10
310.234605
 20
454.484389
 30
0.0
 11
310.865934
 21
455.115717
 31
0.0
  0
LINE
  5
D8
330
A8
100
AcDbEntity
  8
LC-006-005-----0
 62
     7
370
    25
100
AcDbLine
 10
319.286455
 20
463.536239
 30
0.0
 11
322.732783
 21
466.982567
 31
0.0
  0
LINE
  5
D9
330
A8
100
AcDbEntity
  8
LC-006-005-----0
 62
     7
370
    25
100
AcDbLine
 10
278.54094
 20
425.61915
 30
0.0
 11
279.194376
 21
426.272586
 31
0.0
  0
LINE
  5
DA
330
A8
100
AcDbEntity
  8
LC-006-005-----0
 62
     7
370
    25
100
AcDbLine
 10
281.239909
 20
428.318119
 30
0.0
 11
289.390138
 21
436.468348
 31
0.0
  0
LINE
  5
DB
330
A8
100
AcDbEntity
  8
LC-006-005-----0
 62
     7
370
    25
100
AcDbLine
 10
294.917443
 20
441.995653
 30
0.0
 11
298.084328
 21
445.162539
 31
0.0
  0
LINE
  5
DC
330
A8
100
AcDbEntity
  8
LC-006-005-----0
 62
     7
370
    25
100
AcDbLine
 10
303.810207
 20
450.888418
 30
0.0
 11
306.066471
 21
453.144682
 31
0.0
  0
LINE
  5
DD
330
A8
100
AcDbEntity
  8
LC-006-005-----0
 62
     7
370
    25
100
AcDbLine
 10
306.955641
 20
454.033851
 30
0.0
 11
312.310914
 21
459.389125
 31
0.0
  0
LINE
  5
DE
330
A8
100
AcDbEntity
  8
LC-006-005-----0
 62
     7
370
    25
100
AcDbLine
 10
316.245375
 20
463.323586
 30
0.0
 11
319.509902
 21
466.588112
 31
0.0
  0
LINE
  5
DF
330
A8
100
AcDbEntity
  8
LC-006-005-----0
 62
     7
370
    25
100
AcDbLine
 10
281.239909
 20
431.146546
 30
0.0
 11
286.561711
 21
436.468348
 31
0.0
  0
LINE
  5
E0
330
A8
100
AcDbEntity
  8
LC-006-005-----0
 62
     7
370
    25
100
AcDbLine
 10
293.990309
 20
443.896947
 30
0.0
 11
294.383861
 21
444.290498
 31
0.0
  0
LINE
  5
E1
330
A8
100
AcDbEntity
  8
LC-006-005-----0
 62
     7
370
    25
100
AcDbLine
 10
303.810207
 20
453.716845
 30
0.0
 11
307.172251
 21
457.078889
 31
0.0
  0
LINE
  5
E2
330
A8
100
AcDbEntity
  8
LC-006-005-----0
 62
     7
370
    25
100
AcDbLine
 10
308.908826
 20
458.815463
 30
0.0
 11
311.310914
 21
461.217552
 31
0.0
  0
LINE
  5
E3
330
A8
100
AcDbEntity
  8
LC-006-005-----0
 62
     7
370
    25
100
AcDbLine
 10
313.204295
 20
463.110933
 30
0.0
 11
316.459828
 21
466.366465
 31
0.0
  0
LINE
  5
E4
330
A8
100
AcDbEntity
  8
LC-006-005-----0
 62
     7
370
    25
100
AcDbLine
 10
281.239909
 20
433.974973
 30
0.0
 11
283.733284
 21
436.468348
 31
0.0
  0
LINE
  5
E5
330
A8
100
AcDbEntity
  8
LC-006-005-----0
 62
     7
370
    25
100
AcDbLine
 10
303.810207
 20
456.545272
 30
0.0
 11
305.810207
 21
458.545272
 31
0.0
  0
LINE
  5
E6
330
A8
100
AcDbEntity
  8
LC-006-005-----0
 62
     7
370
    25
100
AcDbLine
 10
308.908826
 20
461.64389
 30
0.0
 11
313.409753
 21
466.144818
 31
0.0
  0
LINE
  5
E7
330
A8
100
AcDbEntity
  8
LC-006-005-----0
 62
     7
370
    25
100
AcDbLine
 10
303.810207
 20
459.373699
 30
0.0
 11
305.810207
 21
461.373699
 31
0.0
  0
LINE
  5
E8
330
A8
100
AcDbEntity
  8
LC-006-005-----0
 62
     7
370
    25
100
AcDbLine
 10
308.908826
 20
464.472317
 30
0.0
 11
310.359679
 21
465.923171
 31
0.0
  0
LINE
  5
E9
330
A8
100
AcDbEntity
  8
LC-006-005-----0
 62
     7
370
    25
100
AcDbLine
 10
304.310207
 20
462.702126
 30
0.0
 11
304.871473
 21
463.263392
 31
0.0
  0
ENDBLK
  5
AA
330
A8
100
AcDbEntity
  8
0
100
AcDbBlockEnd
  0
BLOCK
  5
10B
330
101
100
AcDbEntity
  8
0
100
AcDbBlockBegin
  2
*D5
 70
     1
 71
     0
 10
0.0
 20
0.0
 30
0.0
  3
*D5
  1

  0
LINE
  5
102
330
101
100
AcDbEntity
  8
LC-005-003-----0
 62
     2
370
    -2
100
AcDbLine
 10
66.060914
 20
471.966605
 30
0.0
 11
66.060914
 21
552.4
 31
0.0
  0
LINE
  5
103
330
101
100
AcDbEntity
  8
LC-005-003-----0
 62
     2
370
    -2
100
AcDbLine
 10
368.060914
 20
471.966605
 30
0.0
 11
368.060914
 21
552.4
 31
0.0
  0
LINE
  5
104
330
101
100
AcDbEntity
  8
LC-005-003-----0
 62
     2
370
    -2
100
AcDbLine
 10
94.060914
 20
548.8
 30
0.0
 11
340.060914
 21
548.8
 31
0.0
  0
SOLID
  5
105
330
101
100
AcDbEntity
  8
LC-005-003-----0
 62
     2
100
AcDbTrace
 10
94.060914
 20
553.466667
 30
0.0
 11
94.060914
 21
544.133333
 31
0.0
 12
66.060914
 22
548.8
 32
0.0
 13
66.060914
 23
548.8
 33
0.0
  0
SOLID
  5
106
330
101
100
AcDbEntity
  8
LC-005-003-----0
 62
     2
100
AcDbTrace
 10
340.060914
 20
544.133333
 30
0.0
 11
340.060914
 21
553.466667
 31
0.0
 12
368.060914
 22
548.8
 32
0.0
 13
368.060914
 23
548.8
 33
0.0
  0
MTEXT
  5
107
330
101
100
AcDbEntity
  8
LC-005-003-----0
 62
     2
100
AcDbMText
 10
217.060914
 20
579.6
 30
0.0
 40
28.0
 41
0.0
 71
     5
 72
     1
  1
\A1;%%c300
  7
LCTX15-400-0-0pDIN-Schrift
 73
     1
 44
1.0
  0
POINT
  5
108
330
101
100
AcDbEntity
  8
Defpoints
 62
     0
100
AcDbPoint
 10
66.060914
 20
471.966605
 30
0.0
  0
POINT
  5
109
330
101
100
AcDbEntity
  8
Defpoints
 62
     0
100
AcDbPoint
 10
368.060914
 20
471.966605
 30
0.0
  0
POINT
  5
10A
330
101
100
AcDbEntity
  8
Defpoints
 62
     0
100
AcDbPoint
 10
368.060914
 20
548.8
 30
0.0
  0
ENDBLK
  5
10C
330
101
100
AcDbEntity
  8
0
100
AcDbBlockEnd
  0
BLOCK
  5
14B
330
141
100
AcDbEntity
  8
0
100
AcDbBlockBegin
  2
*D6
 70
     1
 71
     0
 10
0.0
 20
0.0
 30
0.0
  3
*D6
  1

  0
LINE
  5
142
330
141
100
AcDbEntity
  8
LC-005-003-----0
 62
     2
370
    -2
100
AcDbLine
 10
368.060914
 20
468.959407
 30
0.0
 11
474.0
 21
468.959407
 31
0.0
  0
LINE
  5
143
330
141
100
AcDbEntity
  8
LC-005-003-----0
 62
     2
370
    -2
100
AcDbLine
 10
385.222484
 20
398.76204
 30
0.0
 11
474.0
 21
398.76204
 31
0.0
  0
LINE
  5
144
330
141
100
AcDbEntity
  8
LC-005-003-----0
 62
     2
370
    -2
100
AcDbLine
 10
470.4
 20
440.959407
 30
0.0
 11
470.4
 21
426.76204
 31
0.0
  0
SOLID
  5
145
330
141
100
AcDbEntity
  8
LC-005-003-----0
 62
     2
100
AcDbTrace
 10
475.066667
 20
440.959407
 30
0.0
 11
465.733333
 21
440.959407
 31
0.0
 12
470.4
 22
468.959407
 32
0.0
 13
470.4
 23
468.959407
 33
0.0
  0
SOLID
  5
146
330
141
100
AcDbEntity
  8
LC-005-003-----0
 62
     2
100
AcDbTrace
 10
465.733333
 20
426.76204
 30
0.0
 11
475.066667
 21
426.76204
 31
0.0
 12
470.4
 22
398.76204
 32
0.0
 13
470.4
 23
398.76204
 33
0.0
  0
MTEXT
  5
147
330
141
100
AcDbEntity
  8
LC-005-003-----0
 62
     2
100
AcDbMText
 10
439.6
 20
433.860724
 30
0.0
 40
28.0
 41
0.0
 71
     5
 72
     1
  1
\A1;70
  7
LCTX15-400-0-0pDIN-Schrift
 11
6.123031769111886E-17
 21
1.0
 31
0.0
 73
     1
 44
1.0
  0
POINT
  5
148
330
141
100
AcDbEntity
  8
Defpoints
 62
     0
100
AcDbPoint
 10
368.060914
 20
468.959407
 30
0.0
  0
POINT
  5
149
330
141
100
AcDbEntity
  8
Defpoints
 62
     0
100
AcDbPoint
 10
385.222484
 20
398.76204
 30
0.0
  0
POINT
  5
14A
330
141
100
AcDbEntity
  8
Defpoints
 62
     0
100
AcDbPoint
 10
470.4
 20
398.76204
 30
0.0
  0
ENDBLK
  5
14C
330
141
100
AcDbEntity
  8
0
100
AcDbBlockEnd
  0
BLOCK
  5
161
330
160
100
AcDbEntity
  8
0
100
AcDbBlockBegin
  2
*X37
 70
     1
 71
     0
 10
0.0
 20
0.0
 30
0.0
  3
*X37
  1

  4
*X3
  0
LINE
  5
163
330
160
100
AcDbEntity
  8
LC-006-005-----0
 62
     7
370
    25
100
AcDbLine
 10
457.29728
 20
403.557165
 30
0.0
 11
457.976544
 21
404.236428
 31
0.0
  0
LINE
  5
164
330
160
100
AcDbEntity
  8
LC-006-005-----0
 62
     7
370
    25
100
AcDbLine
 10
455.033322
 20
404.121633
 30
0.0
 11
456.211786
 21
405.300098
 31
0.0
  0
LINE
  5
165
330
160
100
AcDbEntity
  8
LC-006-005-----0
 62
     7
370
    25
100
AcDbLine
 10
452.769363
 20
404.686102
 30
0.0
 11
454.354463
 21
406.271202
 31
0.0
  0
LINE
  5
166
330
160
100
AcDbEntity
  8
LC-006-005-----0
 62
     7
370
    25
100
AcDbLine
 10
450.505404
 20
405.25057
 30
0.0
 11
452.123753
 21
406.868919
 31
0.0
  0
LINE
  5
167
330
160
100
AcDbEntity
  8
LC-006-005-----0
 62
     7
370
    25
100
AcDbLine
 10
460.734284
 20
415.47945
 30
0.0
 11
461.082372
 21
415.827538
 31
0.0
  0
LINE
  5
168
330
160
100
AcDbEntity
  8
LC-006-005-----0
 62
     7
370
    25
100
AcDbLine
 10
448.241445
 20
405.815038
 30
0.0
 11
449.893043
 21
407.466636
 31
0.0
  0
LINE
  5
169
330
160
100
AcDbEntity
  8
LC-006-005-----0
 62
     7
370
    25
100
AcDbLine
 10
458.470325
 20
416.043918
 30
0.0
 11
459.671168
 21
417.244761
 31
0.0
  0
LINE
  5
16A
330
160
100
AcDbEntity
  8
LC-006-005-----0
 62
     7
370
    25
100
AcDbLine
 10
445.977486
 20
406.379507
 30
0.0
 11
447.662333
 21
408.064353
 31
0.0
  0
LINE
  5
16B
330
160
100
AcDbEntity
  8
LC-006-005-----0
 62
     7
370
    25
100
AcDbLine
 10
456.206366
 20
416.608387
 30
0.0
 11
457.878017
 21
418.280038
 31
0.0
  0
LINE
  5
16C
330
160
100
AcDbEntity
  8
LC-006-005-----0
 62
     7
370
    25
100
AcDbLine
 10
443.713528
 20
406.943975
 30
0.0
 11
445.431622
 21
408.66207
 31
0.0
  0
LINE
  5
16D
330
160
100
AcDbEntity
  8
LC-006-005-----0
 62
     7
370
    25
100
AcDbLine
 10
453.942408
 20
417.172855
 30
0.0
 11
455.678655
 21
418.909102
 31
0.0
  0
LINE
  5
16E
330
160
100
AcDbEntity
  8
LC-006-005-----0
 62
     7
370
    25
100
AcDbLine
 10
441.449569
 20
407.508443
 30
0.0
 11
443.200912
 21
409.259787
 31
0.0
  0
LINE
  5
16F
330
160
100
AcDbEntity
  8
LC-006-005-----0
 62
     7
370
    25
100
AcDbLine
 10
451.678449
 20
417.737323
 30
0.0
 11
453.447944
 21
419.506819
 31
0.0
  0
LINE
  5
170
330
160
100
AcDbEntity
  8
LC-006-005-----0
 62
     7
370
    25
100
AcDbLine
 10
439.18561
 20
408.072912
 30
0.0
 11
440.970202
 21
409.857504
 31
0.0
  0
LINE
  5
171
330
160
100
AcDbEntity
  8
LC-006-005-----0
 62
     7
370
    25
100
AcDbLine
 10
449.41449
 20
418.301792
 30
0.0
 11
451.217234
 21
420.104536
 31
0.0
  0
LINE
  5
172
330
160
100
AcDbEntity
  8
LC-006-005-----0
 62
     7
370
    25
100
AcDbLine
 10
436.921651
 20
408.63738
 30
0.0
 11
438.739492
 21
410.455221
 31
0.0
  0
LINE
  5
173
330
160
100
AcDbEntity
  8
LC-006-005-----0
 62
     7
370
    25
100
AcDbLine
 10
447.150531
 20
418.86626
 30
0.0
 11
448.986524
 21
420.702253
 31
0.0
  0
LINE
  5
174
330
160
100
AcDbEntity
  8
LC-006-005-----0
 62
     7
370
    25
100
AcDbLine
 10
434.657692
 20
409.201848
 30
0.0
 11
436.508782
 21
411.052938
 31
0.0
  0
LINE
  5
175
330
160
100
AcDbEntity
  8
LC-006-005-----0
 62
     7
370
    25
100
AcDbLine
 10
444.886572
 20
419.430728
 30
0.0
 11
446.755814
 21
421.29997
 31
0.0
  0
LINE
  5
176
330
160
100
AcDbEntity
  8
LC-006-005-----0
 62
     7
370
    25
100
AcDbLine
 10
432.393734
 20
409.766317
 30
0.0
 11
434.278072
 21
411.650655
 31
0.0
  0
LINE
  5
177
330
160
100
AcDbEntity
  8
LC-006-005-----0
 62
     7
370
    25
100
AcDbLine
 10
442.622614
 20
419.995197
 30
0.0
 11
444.525104
 21
421.897687
 31
0.0
  0
LINE
  5
178
330
160
100
AcDbEntity
  8
LC-006-005-----0
 62
     7
370
    25
100
AcDbLine
 10
430.129775
 20
410.330785
 30
0.0
 11
432.047362
 21
412.248372
 31
0.0
  0
LINE
  5
179
330
160
100
AcDbEntity
  8
LC-006-005-----0
 62
     7
370
    25
100
AcDbLine
 10
440.358655
 20
420.559665
 30
0.0
 11
442.294394
 21
422.495404
 31
0.0
  0
LINE
  5
17A
330
160
100
AcDbEntity
  8
LC-006-005-----0
 62
     7
370
    25
100
AcDbLine
 10
427.865816
 20
410.895253
 30
0.0
 11
429.816651
 21
412.846089
 31
0.0
  0
LINE
  5
17B
330
160
100
AcDbEntity
  8
LC-006-005-----0
 62
     7
370
    25
100
AcDbLine
 10
438.094696
 20
421.124133
 30
0.0
 11
440.063684
 21
423.093121
 31
0.0
  0
LINE
  5
17C
330
160
100
AcDbEntity
  8
LC-006-005-----0
 62
     7
370
    25
100
AcDbLine
 10
425.601857
 20
411.459722
 30
0.0
 11
427.585941
 21
413.443806
 31
0.0
  0
LINE
  5
17D
330
160
100
AcDbEntity
  8
LC-006-005-----0
 62
     7
370
    25
100
AcDbLine
 10
435.830737
 20
421.688601
 30
0.0
 11
437.832973
 21
423.690838
 31
0.0
  0
LINE
  5
17E
330
160
100
AcDbEntity
  8
LC-006-005-----0
 62
     7
370
    25
100
AcDbLine
 10
423.337899
 20
412.02419
 30
0.0
 11
425.355231
 21
414.041523
 31
0.0
  0
LINE
  5
17F
330
160
100
AcDbEntity
  8
LC-006-005-----0
 62
     7
370
    25
100
AcDbLine
 10
433.566778
 20
422.25307
 30
0.0
 11
435.602263
 21
424.288555
 31
0.0
  0
LINE
  5
180
330
160
100
AcDbEntity
  8
LC-006-005-----0
 62
     7
370
    25
100
AcDbLine
 10
421.07394
 20
412.588658
 30
0.0
 11
423.124521
 21
414.63924
 31
0.0
  0
LINE
  5
181
330
160
100
AcDbEntity
  8
LC-006-005-----0
 62
     7
370
    25
100
AcDbLine
 10
431.30282
 20
422.817538
 30
0.0
 11
433.371553
 21
424.886272
 31
0.0
  0
LINE
  5
182
330
160
100
AcDbEntity
  8
LC-006-005-----0
 62
     7
370
    25
100
AcDbLine
 10
418.809981
 20
413.153127
 30
0.0
 11
420.893811
 21
415.236957
 31
0.0
  0
LINE
  5
183
330
160
100
AcDbEntity
  8
LC-006-005-----0
 62
     7
370
    25
100
AcDbLine
 10
429.038861
 20
423.382006
 30
0.0
 11
431.140843
 21
425.483989
 31
0.0
  0
LINE
  5
184
330
160
100
AcDbEntity
  8
LC-006-005-----0
 62
     7
370
    25
100
AcDbLine
 10
416.546022
 20
413.717595
 30
0.0
 11
418.663101
 21
415.834674
 31
0.0
  0
LINE
  5
185
330
160
100
AcDbEntity
  8
LC-006-005-----0
 62
     7
370
    25
100
AcDbLine
 10
426.774902
 20
423.946475
 30
0.0
 11
428.910133
 21
426.081706
 31
0.0
  0
LINE
  5
186
330
160
100
AcDbEntity
  8
LC-006-005-----0
 62
     7
370
    25
100
AcDbLine
 10
414.282063
 20
414.282063
 30
0.0
 11
416.432391
 21
416.432391
 31
0.0
  0
LINE
  5
187
330
160
100
AcDbEntity
  8
LC-006-005-----0
 62
     7
370
    25
100
AcDbLine
 10
424.510943
 20
424.510943
 30
0.0
 11
426.679423
 21
426.679423
 31
0.0
  0
LINE
  5
188
330
160
100
AcDbEntity
  8
LC-006-005-----0
 62
     7
370
    25
100
AcDbLine
 10
412.018105
 20
414.846532
 30
0.0
 11
414.20168
 21
417.030108
 31
0.0
  0
LINE
  5
189
330
160
100
AcDbEntity
  8
LC-006-005-----0
 62
     7
370
    25
100
AcDbLine
 10
422.246984
 20
425.075411
 30
0.0
 11
424.448713
 21
427.27714
 31
0.0
  0
LINE
  5
18A
330
160
100
AcDbEntity
  8
LC-006-005-----0
 62
     7
370
    25
100
AcDbLine
 10
409.754146
 20
415.411
 30
0.0
 11
411.97097
 21
417.627825
 31
0.0
  0
LINE
  5
18B
330
160
100
AcDbEntity
  8
LC-006-005-----0
 62
     7
370
    25
100
AcDbLine
 10
419.983026
 20
425.63988
 30
0.0
 11
422.218002
 21
427.874857
 31
0.0
  0
LINE
  5
18C
330
160
100
AcDbEntity
  8
LC-006-005-----0
 62
     7
370
    25
100
AcDbLine
 10
407.490187
 20
415.975468
 30
0.0
 11
409.74026
 21
418.225542
 31
0.0
  0
LINE
  5
18D
330
160
100
AcDbEntity
  8
LC-006-005-----0
 62
     7
370
    25
100
AcDbLine
 10
417.719067
 20
426.204348
 30
0.0
 11
419.987292
 21
428.472574
 31
0.0
  0
LINE
  5
18E
330
160
100
AcDbEntity
  8
LC-006-005-----0
 62
     7
370
    25
100
AcDbLine
 10
405.226228
 20
416.539937
 30
0.0
 11
407.50955
 21
418.823259
 31
0.0
  0
LINE
  5
18F
330
160
100
AcDbEntity
  8
LC-006-005-----0
 62
     7
370
    25
100
AcDbLine
 10
415.455108
 20
426.768816
 30
0.0
 11
417.756582
 21
429.070291
 31
0.0
  0
LINE
  5
190
330
160
100
AcDbEntity
  8
LC-006-005-----0
 62
     7
370
    25
100
AcDbLine
 10
402.962269
 20
417.104405
 30
0.0
 11
405.27884
 21
419.420976
 31
0.0
  0
LINE
  5
191
330
160
100
AcDbEntity
  8
LC-006-005-----0
 62
     7
370
    25
100
AcDbLine
 10
413.191149
 20
427.333285
 30
0.0
 11
415.525872
 21
429.668008
 31
0.0
  0
LINE
  5
192
330
160
100
AcDbEntity
  8
LC-006-005-----0
 62
     7
370
    25
100
AcDbLine
 10
400.698311
 20
417.668873
 30
0.0
 11
403.04813
 21
420.018692
 31
0.0
  0
LINE
  5
193
330
160
100
AcDbEntity
  8
LC-006-005-----0
 62
     7
370
    25
100
AcDbLine
 10
410.92719
 20
427.897753
 30
0.0
 11
413.295162
 21
430.265725
 31
0.0
  0
LINE
  5
194
330
160
100
AcDbEntity
  8
LC-006-005-----0
 62
     7
370
    25
100
AcDbLine
 10
398.434352
 20
418.233342
 30
0.0
 11
400.81742
 21
420.616409
 31
0.0
  0
LINE
  5
195
330
160
100
AcDbEntity
  8
LC-006-005-----0
 62
     7
370
    25
100
AcDbLine
 10
408.663232
 20
428.462221
 30
0.0
 11
411.064452
 21
430.863442
 31
0.0
  0
LINE
  5
196
330
160
100
AcDbEntity
  8
LC-006-005-----0
 62
     7
370
    25
100
AcDbLine
 10
396.170393
 20
418.79781
 30
0.0
 11
398.586709
 21
421.214126
 31
0.0
  0
LINE
  5
197
330
160
100
AcDbEntity
  8
LC-006-005-----0
 62
     7
370
    25
100
AcDbLine
 10
403.64186
 20
426.269277
 30
0.0
 11
408.833742
 21
431.461159
 31
0.0
  0
LINE
  5
198
330
160
100
AcDbEntity
  8
LC-006-005-----0
 62
     7
370
    25
100
AcDbLine
 10
393.906434
 20
419.362278
 30
0.0
 11
396.355999
 21
421.811843
 31
0.0
  0
LINE
  5
199
330
160
100
AcDbEntity
  8
LC-006-005-----0
 62
     7
370
    25
100
AcDbLine
 10
396.94973
 20
422.405574
 30
0.0
 11
404.818036
 21
430.27388
 31
0.0
  0
LINE
  5
19A
330
160
100
AcDbEntity
  8
LC-006-005-----0
 62
     7
370
    25
100
AcDbLine
 10
391.642475
 20
419.926747
 30
0.0
 11
398.125906
 21
426.410177
 31
0.0
  0
LINE
  5
19B
330
160
100
AcDbEntity
  8
LC-006-005-----0
 62
     7
370
    25
100
AcDbLine
 10
389.378517
 20
420.491215
 30
0.0
 11
392.649342
 21
423.76204
 31
0.0
  0
LINE
  5
19C
330
160
100
AcDbEntity
  8
LC-006-005-----0
 62
     7
370
    25
100
AcDbLine
 10
387.114558
 20
421.055683
 30
0.0
 11
389.820915
 21
423.76204
 31
0.0
  0
LINE
  5
19D
330
160
100
AcDbEntity
  8
LC-006-005-----0
 62
     7
370
    25
100
AcDbLine
 10
384.662488
 20
421.43204
 30
0.0
 11
386.992488
 21
423.76204
 31
0.0
  0
LINE
  5
19E
330
160
100
AcDbEntity
  8
LC-006-005-----0
 62
     7
370
    25
100
AcDbLine
 10
381.834061
 20
421.43204
 30
0.0
 11
384.164061
 21
423.76204
 31
0.0
  0
LINE
  5
19F
330
160
100
AcDbEntity
  8
LC-006-005-----0
 62
     7
370
    25
100
AcDbLine
 10
379.005634
 20
421.43204
 30
0.0
 11
381.335634
 21
423.76204
 31
0.0
  0
LINE
  5
1A0
330
160
100
AcDbEntity
  8
LC-006-005-----0
 62
     7
370
    25
100
AcDbLine
 10
376.177206
 20
421.43204
 30
0.0
 11
378.507206
 21
423.76204
 31
0.0
  0
LINE
  5
1A1
330
160
100
AcDbEntity
  8
LC-006-005-----0
 62
     7
370
    25
100
AcDbLine
 10
374.010737
 20
422.093998
 30
0.0
 11
376.559162
 21
424.642423
 31
0.0
  0
LINE
  5
1A2
330
160
100
AcDbEntity
  8
LC-006-005-----0
 62
     7
370
    25
100
AcDbLine
 10
372.366479
 20
423.278167
 30
0.0
 11
374.942999
 21
425.854687
 31
0.0
  0
LINE
  5
1A3
330
160
100
AcDbEntity
  8
LC-006-005-----0
 62
     7
370
    25
100
AcDbLine
 10
370.620496
 20
424.360611
 30
0.0
 11
373.237098
 21
426.977213
 31
0.0
  0
LINE
  5
1A4
330
160
100
AcDbEntity
  8
LC-006-005-----0
 62
     7
370
    25
100
AcDbLine
 10
368.767646
 20
425.336188
 30
0.0
 11
371.43794
 21
428.006482
 31
0.0
  0
LINE
  5
1A5
330
160
100
AcDbEntity
  8
LC-006-005-----0
 62
     7
370
    25
100
AcDbLine
 10
366.800583
 20
426.197553
 30
0.0
 11
369.540591
 21
428.937561
 31
0.0
  0
LINE
  5
1A6
330
160
100
AcDbEntity
  8
LC-006-005-----0
 62
     7
370
    25
100
AcDbLine
 10
364.709049
 20
426.934446
 30
0.0
 11
367.538353
 21
429.76375
 31
0.0
  0
LINE
  5
1A7
330
160
100
AcDbEntity
  8
LC-006-005-----0
 62
     7
370
    25
100
AcDbLine
 10
362.478716
 20
427.53254
 30
0.0
 11
365.422218
 21
430.476042
 31
0.0
  0
LINE
  5
1A8
330
160
100
AcDbEntity
  8
LC-006-005-----0
 62
     7
370
    25
100
AcDbLine
 10
360.089211
 20
427.971462
 30
0.0
 11
363.180022
 21
431.062273
 31
0.0
  0
LINE
  5
1A9
330
160
100
AcDbEntity
  8
LC-006-005-----0
 62
     7
370
    25
100
AcDbLine
 10
357.510527
 20
428.221205
 30
0.0
 11
360.795064
 21
431.505742
 31
0.0
  0
LINE
  5
1AA
330
160
100
AcDbEntity
  8
LC-006-005-----0
 62
     7
370
    25
100
AcDbLine
 10
354.695887
 20
428.234992
 30
0.0
 11
358.222935
 21
431.76204
 31
0.0
  0
LINE
  5
1AB
330
160
100
AcDbEntity
  8
LC-006-005-----0
 62
     7
370
    25
100
AcDbLine
 10
351.56553
 20
427.933063
 30
0.0
 11
355.394508
 21
431.76204
 31
0.0
  0
LINE
  5
1AC
330
160
100
AcDbEntity
  8
LC-006-005-----0
 62
     7
370
    25
100
AcDbLine
 10
348.491127
 20
427.687086
 30
0.0
 11
352.566081
 21
431.76204
 31
0.0
  0
LINE
  5
1AD
330
160
100
AcDbEntity
  8
LC-006-005-----0
 62
     7
370
    25
100
AcDbLine
 10
348.099533
 20
430.123919
 30
0.0
 11
349.737654
 21
431.76204
 31
0.0
  0
ENDBLK
  5
162
330
160
100
AcDbEntity
  8
0
100
AcDbBlockEnd
  0
BLOCK
  5
1B0
330
1AF
100
AcDbEntity
  8
0
100
AcDbBlockBegin
  2
*X48
 70
     1
 71
     0
 10
0.0
 20
0.0
 30
0.0
  3
*X48
  1

  4
*X4
  0
LINE
  5
1B2
330
1AF
100
AcDbEntity
  8
LC-006-005-----0
 62
     7
370
    25
100
AcDbLine
 10
441.883106
 20
345.716584
 30
0.0
 11
442.447401
 21
346.280879
 31
0.0
  0
LINE
  5
1B3
330
1AF
100
AcDbEntity
  8
LC-006-005-----0
 62
     7
370
    25
100
AcDbLine
 10
439.054679
 20
345.716584
 30
0.0
 11
440.554814
 21
347.216719
 31
0.0
  0
LINE
  5
1B4
330
1AF
100
AcDbEntity
  8
LC-006-005-----0
 62
     7
370
    25
100
AcDbLine
 10
436.661604
 20
346.151936
 30
0.0
 11
438.356689
 21
347.847021
 31
0.0
  0
LINE
  5
1B5
330
1AF
100
AcDbEntity
  8
LC-006-005-----0
 62
     7
370
    25
100
AcDbLine
 10
434.430894
 20
346.749653
 30
0.0
 11
436.158564
 21
348.477323
 31
0.0
  0
LINE
  5
1B6
330
1AF
100
AcDbEntity
  8
LC-006-005-----0
 62
     7
370
    25
100
AcDbLine
 10
445.471898
 20
357.790657
 30
0.0
 11
445.553229
 21
357.871989
 31
0.0
  0
LINE
  5
1B7
330
1AF
100
AcDbEntity
  8
LC-006-005-----0
 62
     7
370
    25
100
AcDbLine
 10
432.200184
 20
347.34737
 30
0.0
 11
433.960439
 21
349.107625
 31
0.0
  0
LINE
  5
1B8
330
1AF
100
AcDbEntity
  8
LC-006-005-----0
 62
     7
370
    25
100
AcDbLine
 10
442.643471
 20
357.790657
 30
0.0
 11
443.985209
 21
359.132395
 31
0.0
  0
LINE
  5
1B9
330
1AF
100
AcDbEntity
  8
LC-006-005-----0
 62
     7
370
    25
100
AcDbLine
 10
429.969474
 20
347.945087
 30
0.0
 11
431.762314
 21
349.737927
 31
0.0
  0
LINE
  5
1BA
330
1AF
100
AcDbEntity
  8
LC-006-005-----0
 62
     7
370
    25
100
AcDbLine
 10
440.216506
 20
358.192119
 30
0.0
 11
441.787084
 21
359.762697
 31
0.0
  0
LINE
  5
1BB
330
1AF
100
AcDbEntity
  8
LC-006-005-----0
 62
     7
370
    25
100
AcDbLine
 10
427.738764
 20
348.542804
 30
0.0
 11
429.564189
 21
350.36823
 31
0.0
  0
LINE
  5
1BC
330
1AF
100
AcDbEntity
  8
LC-006-005-----0
 62
     7
370
    25
100
AcDbLine
 10
437.985796
 20
358.789836
 30
0.0
 11
439.588959
 21
360.392999
 31
0.0
  0
LINE
  5
1BD
330
1AF
100
AcDbEntity
  8
LC-006-005-----0
 62
     7
370
    25
100
AcDbLine
 10
425.508054
 20
349.140521
 30
0.0
 11
427.366064
 21
350.998532
 31
0.0
  0
LINE
  5
1BE
330
1AF
100
AcDbEntity
  8
LC-006-005-----0
 62
     7
370
    25
100
AcDbLine
 10
435.755086
 20
359.387553
 30
0.0
 11
437.390834
 21
361.023302
 31
0.0
  0
LINE
  5
1BF
330
1AF
100
AcDbEntity
  8
LC-006-005-----0
 62
     7
370
    25
100
AcDbLine
 10
423.277344
 20
349.738238
 30
0.0
 11
425.167939
 21
351.628834
 31
0.0
  0
LINE
  5
1C0
330
1AF
100
AcDbEntity
  8
LC-006-005-----0
 62
     7
370
    25
100
AcDbLine
 10
433.524376
 20
359.98527
 30
0.0
 11
435.192709
 21
361.653604
 31
0.0
  0
LINE
  5
1C1
330
1AF
100
AcDbEntity
  8
LC-006-005-----0
 62
     7
370
    25
100
AcDbLine
 10
421.046633
 20
350.335955
 30
0.0
 11
422.969814
 21
352.259136
 31
0.0
  0
LINE
  5
1C2
330
1AF
100
AcDbEntity
  8
LC-006-005-----0
 62
     7
370
    25
100
AcDbLine
 10
431.293665
 20
360.582987
 30
0.0
 11
432.994584
 21
362.283906
 31
0.0
  0
LINE
  5
1C3
330
1AF
100
AcDbEntity
  8
LC-006-005-----0
 62
     7
370
    25
100
AcDbLine
 10
418.815923
 20
350.933672
 30
0.0
 11
420.771689
 21
352.889438
 31
0.0
  0
LINE
  5
1C4
330
1AF
100
AcDbEntity
  8
LC-006-005-----0
 62
     7
370
    25
100
AcDbLine
 10
429.062955
 20
361.180704
 30
0.0
 11
430.796459
 21
362.914208
 31
0.0
  0
LINE
  5
1C5
330
1AF
100
AcDbEntity
  8
LC-006-005-----0
 62
     7
370
    25
100
AcDbLine
 10
416.585213
 20
351.531389
 30
0.0
 11
418.573564
 21
353.519741
 31
0.0
  0
LINE
  5
1C6
330
1AF
100
AcDbEntity
  8
LC-006-005-----0
 62
     7
370
    25
100
AcDbLine
 10
426.832245
 20
361.778421
 30
0.0
 11
428.598334
 21
363.54451
 31
0.0
  0
LINE
  5
1C7
330
1AF
100
AcDbEntity
  8
LC-006-005-----0
 62
     7
370
    25
100
AcDbLine
 10
414.354503
 20
352.129106
 30
0.0
 11
416.375439
 21
354.150043
 31
0.0
  0
LINE
  5
1C8
330
1AF
100
AcDbEntity
  8
LC-006-005-----0
 62
     7
370
    25
100
AcDbLine
 10
424.601535
 20
362.376138
 30
0.0
 11
426.400209
 21
364.174813
 31
0.0
  0
LINE
  5
1C9
330
1AF
100
AcDbEntity
  8
LC-006-005-----0
 62
     7
370
    25
100
AcDbLine
 10
412.123793
 20
352.726823
 30
0.0
 11
414.177314
 21
354.780345
 31
0.0
  0
LINE
  5
1CA
330
1AF
100
AcDbEntity
  8
LC-006-005-----0
 62
     7
370
    25
100
AcDbLine
 10
422.370825
 20
362.973855
 30
0.0
 11
424.202084
 21
364.805115
 31
0.0
  0
LINE
  5
1CB
330
1AF
100
AcDbEntity
  8
LC-006-005-----0
 62
     7
370
    25
100
AcDbLine
 10
409.893083
 20
353.32454
 30
0.0
 11
411.97919
 21
355.410647
 31
0.0
  0
LINE
  5
1CC
330
1AF
100
AcDbEntity
  8
LC-006-005-----0
 62
     7
370
    25
100
AcDbLine
 10
420.140115
 20
363.571572
 30
0.0
 11
422.003959
 21
365.435417
 31
0.0
  0
LINE
  5
1CD
330
1AF
100
AcDbEntity
  8
LC-006-005-----0
 62
     7
370
    25
100
AcDbLine
 10
407.662373
 20
353.922257
 30
0.0
 11
409.781065
 21
356.040949
 31
0.0
  0
LINE
  5
1CE
330
1AF
100
AcDbEntity
  8
LC-006-005-----0
 62
     7
370
    25
100
AcDbLine
 10
417.909405
 20
364.169289
 30
0.0
 11
419.805834
 21
366.065719
 31
0.0
  0
LINE
  5
1CF
330
1AF
100
AcDbEntity
  8
LC-006-005-----0
 62
     7
370
    25
100
AcDbLine
 10
405.431662
 20
354.519974
 30
0.0
 11
407.58294
 21
356.671251
 31
0.0
  0
LINE
  5
1D0
330
1AF
100
AcDbEntity
  8
LC-006-005-----0
 62
     7
370
    25
100
AcDbLine
 10
415.678694
 20
364.767006
 30
0.0
 11
417.60771
 21
366.696021
 31
0.0
  0
LINE
  5
1D1
330
1AF
100
AcDbEntity
  8
LC-006-005-----0
 62
     7
370
    25
100
AcDbLine
 10
403.200952
 20
355.117691
 30
0.0
 11
405.384815
 21
357.301554
 31
0.0
  0
LINE
  5
1D2
330
1AF
100
AcDbEntity
  8
LC-006-005-----0
 62
     7
370
    25
100
AcDbLine
 10
413.447984
 20
365.364723
 30
0.0
 11
415.409585
 21
367.326323
 31
0.0
  0
LINE
  5
1D3
330
1AF
100
AcDbEntity
  8
LC-006-005-----0
 62
     7
370
    25
100
AcDbLine
 10
400.970242
 20
355.715408
 30
0.0
 11
403.18669
 21
357.931856
 31
0.0
  0
LINE
  5
1D4
330
1AF
100
AcDbEntity
  8
LC-006-005-----0
 62
     7
370
    25
100
AcDbLine
 10
411.217274
 20
365.96244
 30
0.0
 11
413.21146
 21
367.956626
 31
0.0
  0
LINE
  5
1D5
330
1AF
100
AcDbEntity
  8
LC-006-005-----0
 62
     7
370
    25
100
AcDbLine
 10
398.739532
 20
356.313125
 30
0.0
 11
400.988565
 21
358.562158
 31
0.0
  0
LINE
  5
1D6
330
1AF
100
AcDbEntity
  8
LC-006-005-----0
 62
     7
370
    25
100
AcDbLine
 10
408.986564
 20
366.560157
 30
0.0
 11
411.013335
 21
368.586928
 31
0.0
  0
LINE
  5
1D7
330
1AF
100
AcDbEntity
  8
LC-006-005-----0
 62
     7
370
    25
100
AcDbLine
 10
396.508822
 20
356.910842
 30
0.0
 11
398.79044
 21
359.19246
 31
0.0
  0
LINE
  5
1D8
330
1AF
100
AcDbEntity
  8
LC-006-005-----0
 62
     7
370
    25
100
AcDbLine
 10
406.755854
 20
367.157874
 30
0.0
 11
408.81521
 21
369.21723
 31
0.0
  0
LINE
  5
1D9
330
1AF
100
AcDbEntity
  8
LC-006-005-----0
 62
     7
370
    25
100
AcDbLine
 10
394.278112
 20
357.508559
 30
0.0
 11
396.592315
 21
359.822762
 31
0.0
  0
LINE
  5
1DA
330
1AF
100
AcDbEntity
  8
LC-006-005-----0
 62
     7
370
    25
100
AcDbLine
 10
404.525144
 20
367.755591
 30
0.0
 11
406.617085
 21
369.847532
 31
0.0
  0
LINE
  5
1DB
330
1AF
100
AcDbEntity
  8
LC-006-005-----0
 62
     7
370
    25
100
AcDbLine
 10
392.047402
 20
358.106276
 30
0.0
 11
394.39419
 21
360.453065
 31
0.0
  0
LINE
  5
1DC
330
1AF
100
AcDbEntity
  8
LC-006-005-----0
 62
     7
370
    25
100
AcDbLine
 10
402.294434
 20
368.353308
 30
0.0
 11
404.41896
 21
370.477834
 31
0.0
  0
LINE
  5
1DD
330
1AF
100
AcDbEntity
  8
LC-006-005-----0
 62
     7
370
    25
100
AcDbLine
 10
389.816691
 20
358.703993
 30
0.0
 11
392.196065
 21
361.083367
 31
0.0
  0
LINE
  5
1DE
330
1AF
100
AcDbEntity
  8
LC-006-005-----0
 62
     7
370
    25
100
AcDbLine
 10
400.063723
 20
368.951025
 30
0.0
 11
402.220835
 21
371.108137
 31
0.0
  0
LINE
  5
1DF
330
1AF
100
AcDbEntity
  8
LC-006-005-----0
 62
     7
370
    25
100
AcDbLine
 10
387.825182
 20
359.540911
 30
0.0
 11
389.99794
 21
361.713669
 31
0.0
  0
LINE
  5
1E0
330
1AF
100
AcDbEntity
  8
LC-006-005-----0
 62
     7
370
    25
100
AcDbLine
 10
397.833013
 20
369.548742
 30
0.0
 11
400.02271
 21
371.738439
 31
0.0
  0
LINE
  5
1E1
330
1AF
100
AcDbEntity
  8
LC-006-005-----0
 62
     7
370
    25
100
AcDbLine
 10
386.789906
 20
361.334062
 30
0.0
 11
388.898213
 21
363.442368
 31
0.0
  0
LINE
  5
1E2
330
1AF
100
AcDbEntity
  8
LC-006-005-----0
 62
     7
370
    25
100
AcDbLine
 10
395.602303
 20
370.146459
 30
0.0
 11
397.824585
 21
372.368741
 31
0.0
  0
LINE
  5
1E3
330
1AF
100
AcDbEntity
  8
LC-006-005-----0
 62
     7
370
    25
100
AcDbLine
 10
385.75463
 20
363.127213
 30
0.0
 11
387.862936
 21
365.235519
 31
0.0
  0
LINE
  5
1E4
330
1AF
100
AcDbEntity
  8
LC-006-005-----0
 62
     7
370
    25
100
AcDbLine
 10
393.371593
 20
370.744176
 30
0.0
 11
395.62646
 21
372.999043
 31
0.0
  0
LINE
  5
1E5
330
1AF
100
AcDbEntity
  8
LC-006-005-----0
 62
     7
370
    25
100
AcDbLine
 10
384.719354
 20
364.920364
 30
0.0
 11
386.82766
 21
367.02867
 31
0.0
  0
LINE
  5
1E6
330
1AF
100
AcDbEntity
  8
LC-006-005-----0
 62
     7
370
    25
100
AcDbLine
 10
391.140883
 20
371.341893
 30
0.0
 11
393.428335
 21
373.629345
 31
0.0
  0
LINE
  5
1E7
330
1AF
100
AcDbEntity
  8
LC-006-005-----0
 62
     7
370
    25
100
AcDbLine
 10
383.684078
 20
366.713515
 30
0.0
 11
385.792384
 21
368.821821
 31
0.0
  0
LINE
  5
1E8
330
1AF
100
AcDbEntity
  8
LC-006-005-----0
 62
     7
370
    25
100
AcDbLine
 10
388.910173
 20
371.93961
 30
0.0
 11
391.23021
 21
374.259648
 31
0.0
  0
LINE
  5
1E9
330
1AF
100
AcDbEntity
  8
LC-006-005-----0
 62
     7
370
    25
100
AcDbLine
 10
382.648802
 20
368.506666
 30
0.0
 11
384.757108
 21
370.614972
 31
0.0
  0
LINE
  5
1EA
330
1AF
100
AcDbEntity
  8
LC-006-005-----0
 62
     7
370
    25
100
AcDbLine
 10
386.679463
 20
372.537327
 30
0.0
 11
389.032085
 21
374.88995
 31
0.0
  0
LINE
  5
1EB
330
1AF
100
AcDbEntity
  8
LC-006-005-----0
 62
     7
370
    25
100
AcDbLine
 10
381.613525
 20
370.299817
 30
0.0
 11
383.721832
 21
372.408123
 31
0.0
  0
LINE
  5
1EC
330
1AF
100
AcDbEntity
  8
LC-006-005-----0
 62
     7
370
    25
100
AcDbLine
 10
384.448752
 20
373.135044
 30
0.0
 11
386.83396
 21
375.520252
 31
0.0
  0
LINE
  5
1ED
330
1AF
100
AcDbEntity
  8
LC-006-005-----0
 62
     7
370
    25
100
AcDbLine
 10
380.578249
 20
372.092968
 30
0.0
 11
384.577322
 21
376.09204
 31
0.0
  0
LINE
  5
1EE
330
1AF
100
AcDbEntity
  8
LC-006-005-----0
 62
     7
370
    25
100
AcDbLine
 10
379.418895
 20
373.76204
 30
0.0
 11
381.748895
 21
376.09204
 31
0.0
  0
LINE
  5
1EF
330
1AF
100
AcDbEntity
  8
LC-006-005-----0
 62
     7
370
    25
100
AcDbLine
 10
373.604272
 20
370.775845
 30
0.0
 11
378.920468
 21
376.09204
 31
0.0
  0
LINE
  5
1F0
330
1AF
100
AcDbEntity
  8
LC-006-005-----0
 62
     7
370
    25
100
AcDbLine
 10
367.897175
 20
367.897175
 30
0.0
 11
376.09204
 21
376.09204
 31
0.0
  0
LINE
  5
1F1
330
1AF
100
AcDbEntity
  8
LC-006-005-----0
 62
     7
370
    25
100
AcDbLine
 10
363.771835
 20
366.600262
 30
0.0
 11
369.977153
 21
372.80558
 31
0.0
  0
LINE
  5
1F2
330
1AF
100
AcDbEntity
  8
LC-006-005-----0
 62
     7
370
    25
100
AcDbLine
 10
360.290741
 20
365.947595
 30
0.0
 11
365.036617
 21
370.693471
 31
0.0
  0
LINE
  5
1F3
330
1AF
100
AcDbEntity
  8
LC-006-005-----0
 62
     7
370
    25
100
AcDbLine
 10
357.276759
 20
365.76204
 30
0.0
 11
361.256295
 21
369.741577
 31
0.0
  0
LINE
  5
1F4
330
1AF
100
AcDbEntity
  8
LC-006-005-----0
 62
     7
370
    25
100
AcDbLine
 10
354.448332
 20
365.76204
 30
0.0
 11
358.020456
 21
369.334165
 31
0.0
  0
LINE
  5
1F5
330
1AF
100
AcDbEntity
  8
LC-006-005-----0
 62
     7
370
    25
100
AcDbLine
 10
351.619905
 20
365.76204
 30
0.0
 11
355.131509
 21
369.273645
 31
0.0
  0
LINE
  5
1F6
330
1AF
100
AcDbEntity
  8
LC-006-005-----0
 62
     7
370
    25
100
AcDbLine
 10
348.791478
 20
365.76204
 30
0.0
 11
352.495489
 21
369.466051
 31
0.0
  0
LINE
  5
1F7
330
1AF
100
AcDbEntity
  8
LC-006-005-----0
 62
     7
370
    25
100
AcDbLine
 10
348.099533
 20
367.898522
 30
0.0
 11
350.059038
 21
369.858028
 31
0.0
  0
ENDBLK
  5
1B1
330
1AF
100
AcDbEntity
  8
0
100
AcDbBlockEnd
  0
BLOCK
  5
20F
330
204
100
AcDbEntity
  8
0
100
AcDbBlockBegin
  2
*D9
 70
     1
 71
     0
 10
0.0
 20
0.0
 30
0.0
  3
*D9
  1

  0
LINE
  5
205
330
204
100
AcDbEntity
  8
LC-005-003-----0
 62
     2
370
    -2
100
AcDbLine
 10
415.504767
 20
309.847
 30
0.0
 11
483.787667
 21
212.313077
 31
0.0
  0
LINE
  5
206
330
204
100
AcDbEntity
  8
LC-005-003-----0
 62
     2
370
    -2
100
AcDbLine
 10
554.087336
 20
398.76204
 30
0.0
 11
580.855893
 21
398.76204
 31
0.0
  0
ARC
  5
207
330
204
100
AcDbEntity
  8
LC-005-003-----0
 62
     2
370
    -2
100
AcDbCircle
 10
353.255893
 20
398.76204
 30
0.0
 40
224.0
100
AcDbArc
 50
312.162273
 51
352.833357
  0
SOLID
  5
208
330
204
100
AcDbEntity
  8
LC-005-003-----0
 62
     2
100
AcDbTrace
 10
500.701908
 20
236.370935
 30
0.0
 11
506.522104
 21
229.074606
 31
0.0
 12
481.723017
 22
215.262182
 32
0.0
 13
481.723017
 23
215.262182
 33
0.0
  0
SOLID
  5
209
330
204
100
AcDbEntity
  8
LC-005-003-----0
 62
     2
100
AcDbTrace
 10
580.163436
 20
370.525115
 30
0.0
 11
570.84835
 21
371.108448
 31
0.0
 12
577.255893
 22
398.76204
 32
0.0
 13
577.255893
 23
398.76204
 33
0.0
  0
MTEXT
  5
20A
330
204
100
AcDbEntity
  8
LC-005-003-----0
 62
     2
100
AcDbMText
 10
486.285095
 20
267.28127
 30
0.0
 40
28.0
 41
0.0
 71
     5
 72
     1
  1
\A1;55%%d
  7
LCTX15-400-0-0pDIN-Schrift
 11
0.702955359017177
 21
0.711233972212402
 31
0.0
 73
     1
 44
1.0
  0
POINT
  5
20B
330
204
100
AcDbEntity
  8
Defpoints
 62
     0
100
AcDbPoint
 10
353.255893
 20
398.76204
 30
0.0
  0
POINT
  5
20C
330
204
100
AcDbEntity
  8
Defpoints
 62
     0
100
AcDbPoint
 10
415.504767
 20
309.847
 30
0.0
  0
POINT
  5
20D
330
204
100
AcDbEntity
  8
Defpoints
 62
     0
100
AcDbPoint
 10
554.087336
 20
398.76204
 30
0.0
  0
POINT
  5
20E
330
204
100
AcDbEntity
  8
Defpoints
 62
     0
100
AcDbPoint
 10
551.942374
 20
295.322773
 30
0.0
  0
ENDBLK
  5
210
330
204
100
AcDbEntity
  8
0
100
AcDbBlockEnd
  0
BLOCK
  5
21C
330
212
100
AcDbEntity
  8
0
100
AcDbBlockBegin
  2
*D10
 70
     1
 71
     0
 10
0.0
 20
0.0
 30
0.0
  3
*D10
  1

  0
LINE
  5
213
330
212
100
AcDbEntity
  8
LC-005-003-----0
 62
     2
370
    -2
100
AcDbLine
 10
457.749554
 20
418.354206
 30
0.0
 11
555.236507
 21
392.232656
 31
0.0
  0
LINE
  5
214
330
212
100
AcDbEntity
  8
LC-005-003-----0
 62
     2
370
    -2
100
AcDbLine
 10
438.286362
 20
345.716584
 30
0.0
 11
535.773314
 21
319.595034
 31
0.0
  0
LINE
  5
215
330
212
100
AcDbEntity
  8
LC-005-003-----0
 62
     2
370
    -2
100
AcDbLine
 10
544.51224
 20
366.118481
 30
0.0
 11
539.542915
 21
347.572705
 31
0.0
  0
SOLID
  5
216
330
212
100
AcDbEntity
  8
LC-005-003-----0
 62
     2
100
AcDbTrace
 10
549.019894
 20
364.910659
 30
0.0
 11
540.004587
 21
367.326304
 31
0.0
 12
551.759174
 22
393.164404
 32
0.0
 13
551.759174
 23
393.164404
 33
0.0
  0
SOLID
  5
217
330
212
100
AcDbEntity
  8
LC-005-003-----0
 62
     2
100
AcDbTrace
 10
535.035261
 20
348.780528
 30
0.0
 11
544.050569
 21
346.364883
 31
0.0
 12
532.295981
 22
320.526782
 32
0.0
 13
532.295981
 23
320.526782
 33
0.0
  0
MTEXT
  5
218
330
212
100
AcDbEntity
  8
LC-005-003-----0
 62
     2
100
AcDbMText
 10
512.277062
 20
364.81722
 30
0.0
 40
28.0
 41
0.0
 71
     5
 72
     1
  1
\A1;DN70
  7
LCTX15-400-0-0pDIN-Schrift
 11
0.2588190451025207
 21
0.9659258262890683
 31
0.0
 73
     1
 44
1.0
  0
POINT
  5
219
330
212
100
AcDbEntity
  8
Defpoints
 62
     0
100
AcDbPoint
 10
457.749554
 20
418.354206
 30
0.0
  0
POINT
  5
21A
330
212
100
AcDbEntity
  8
Defpoints
 62
     0
100
AcDbPoint
 10
438.286362
 20
345.716584
 30
0.0
  0
POINT
  5
21B
330
212
100
AcDbEntity
  8
Defpoints
 62
     0
100
AcDbPoint
 10
532.295981
 20
320.526782
 30
0.0
  0
ENDBLK
  5
21D
330
212
100
AcDbEntity
  8
0
100
AcDbBlockEnd
  0
BLOCK
  5
22B
330
220
100
AcDbEntity
  8
0
100
AcDbBlockBegin
  2
*D11
 70
     1
 71
     0
 10
0.0
 20
0.0
 30
0.0
  3
*D11
  1

  0
LINE
  5
221
330
220
100
AcDbEntity
  8
LC-005-003-----0
 62
     2
370
    -2
100
AcDbLine
 10
454.681619
 20
406.183541
 30
0.0
 11
514.124035
 21
390.255993
 31
0.0
  0
LINE
  5
222
330
220
100
AcDbEntity
  8
LC-005-003-----0
 62
     2
370
    -2
100
AcDbLine
 10
441.714785
 20
357.790657
 30
0.0
 11
501.157201
 21
341.863109
 31
0.0
  0
LINE
  5
223
330
220
100
AcDbEntity
  8
LC-005-003-----0
 62
     2
370
    -2
100
AcDbLine
 10
490.432935
 20
315.748935
 30
0.0
 11
483.186002
 21
288.703012
 31
0.0
  0
LINE
  5
224
330
220
100
AcDbEntity
  8
LC-005-003-----0
 62
     2
370
    -2
100
AcDbLine
 10
517.893636
 20
418.233665
 30
0.0
 11
547.700929
 21
529.475999
 31
0.0
  0
SOLID
  5
225
330
220
100
AcDbEntity
  8
LC-005-003-----0
 62
     2
100
AcDbTrace
 10
513.385982
 20
419.441487
 30
0.0
 11
522.401289
 21
417.025843
 31
0.0
 12
510.646702
 22
391.187742
 32
0.0
 13
510.646702
 23
391.187742
 33
0.0
  0
SOLID
  5
226
330
220
100
AcDbEntity
  8
LC-005-003-----0
 62
     2
100
AcDbTrace
 10
494.940589
 20
314.541113
 30
0.0
 11
485.925281
 21
316.956757
 31
0.0
 12
497.679868
 22
342.794858
 32
0.0
 13
497.679868
 23
342.794858
 33
0.0
  0
MTEXT
  5
227
330
220
100
AcDbEntity
  8
LC-005-003-----0
 62
     2
100
AcDbMText
 10
506.035224
 20
492.979533
 30
0.0
 40
28.0
 41
0.0
 71
     5
 72
     1
  1
\A1;DN50
  7
LCTX15-400-0-0pDIN-Schrift
 11
0.2588190451025207
 21
0.9659258262890683
 31
0.0
 73
     1
 44
1.0
  0
POINT
  5
228
330
220
100
AcDbEntity
  8
Defpoints
 62
     0
100
AcDbPoint
 10
454.681619
 20
406.183541
 30
0.0
  0
POINT
  5
229
330
220
100
AcDbEntity
  8
Defpoints
 62
     0
100
AcDbPoint
 10
441.714785
 20
357.790657
 30
0.0
  0
POINT
  5
22A
330
220
100
AcDbEntity
  8
Defpoints
 62
     0
100
AcDbPoint
 10
497.679868
 20
342.794858
 30
0.0
  0
ENDBLK
  5
22C
330
220
100
AcDbEntity
  8
0
100
AcDbBlockEnd
  0
BLOCK
  5
231
330
230
100
AcDbEntity
  8
0
100
AcDbBlockBegin
  2
*X512
 70
     1
 71
     0
 10
0.0
 20
0.0
 30
0.0
  3
*X512
  1

  4
*X5
  0
LINE
  5
233
330
230
100
AcDbEntity
  8
LC-006-005-----0
 62
     7
370
    25
100
AcDbLine
 10
373.557737
 20
421.230285
 30
0.0
 11
370.180224
 21
424.607798
 31
0.0
  0
LINE
  5
234
330
230
100
AcDbEntity
  8
LC-006-005-----0
 62
     7
370
    25
100
AcDbLine
 10
370.897555
 20
421.06204
 30
0.0
 11
366.557737
 21
425.401858
 31
0.0
  0
LINE
  5
235
330
230
100
AcDbEntity
  8
LC-006-005-----0
 62
     7
370
    25
100
AcDbLine
 10
368.069127
 20
421.06204
 30
0.0
 11
365.368581
 21
423.762587
 31
0.0
  0
LINE
  5
236
330
230
100
AcDbEntity
  8
LC-006-005-----0
 62
     7
370
    25
100
AcDbLine
 10
362.057737
 20
427.073431
 30
0.0
 11
361.369569
 21
427.761599
 31
0.0
  0
LINE
  5
237
330
230
100
AcDbEntity
  8
LC-006-005-----0
 62
     7
370
    25
100
AcDbLine
 10
365.2407
 20
421.06204
 30
0.0
 11
362.540704
 21
423.762037
 31
0.0
  0
LINE
  5
238
330
230
100
AcDbEntity
  8
LC-006-005-----0
 62
     7
370
    25
100
AcDbLine
 10
362.057737
 20
424.245004
 30
0.0
 11
358.119965
 21
428.182776
 31
0.0
  0
LINE
  5
239
330
230
100
AcDbEntity
  8
LC-006-005-----0
 62
     7
370
    25
100
AcDbLine
 10
362.412273
 20
421.06204
 30
0.0
 11
355.22149
 21
428.252823
 31
0.0
  0
LINE
  5
23A
330
230
100
AcDbEntity
  8
LC-006-005-----0
 62
     7
370
    25
100
AcDbLine
 10
359.583846
 20
421.06204
 30
0.0
 11
352.578198
 21
428.067689
 31
0.0
  0
LINE
  5
23B
330
230
100
AcDbEntity
  8
LC-006-005-----0
 62
     7
370
    25
100
AcDbLine
 10
356.755419
 20
421.06204
 30
0.0
 11
350.135837
 21
427.681623
 31
0.0
  0
LINE
  5
23C
330
230
100
AcDbEntity
  8
LC-006-005-----0
 62
     7
370
    25
100
AcDbLine
 10
353.926992
 20
421.06204
 30
0.0
 11
347.860384
 21
427.128649
 31
0.0
  0
LINE
  5
23D
330
230
100
AcDbEntity
  8
LC-006-005-----0
 62
     7
370
    25
100
AcDbLine
 10
351.098565
 20
421.06204
 30
0.0
 11
345.729067
 21
426.431538
 31
0.0
  0
LINE
  5
23E
330
230
100
AcDbEntity
  8
LC-006-005-----0
 62
     7
370
    25
100
AcDbLine
 10
348.270138
 20
421.06204
 30
0.0
 11
343.726012
 21
425.606166
 31
0.0
  0
LINE
  5
23F
330
230
100
AcDbEntity
  8
LC-006-005-----0
 62
     7
370
    25
100
AcDbLine
 10
345.44171
 20
421.06204
 30
0.0
 11
341.83989
 21
424.663861
 31
0.0
  0
LINE
  5
240
330
230
100
AcDbEntity
  8
LC-006-005-----0
 62
     7
370
    25
100
AcDbLine
 10
342.613283
 20
421.06204
 30
0.0
 11
339.913283
 21
423.76204
 31
0.0
  0
LINE
  5
241
330
230
100
AcDbEntity
  8
LC-006-005-----0
 62
     7
370
    25
100
AcDbLine
 10
339.784856
 20
421.06204
 30
0.0
 11
335.287036
 21
425.559861
 31
0.0
  0
LINE
  5
242
330
230
100
AcDbEntity
  8
LC-006-005-----0
 62
     7
370
    25
100
AcDbLine
 10
336.956429
 20
421.06204
 30
0.0
 11
328.848073
 21
429.170397
 31
0.0
  0
LINE
  5
243
330
230
100
AcDbEntity
  8
LC-006-005-----0
 62
     7
370
    25
100
AcDbLine
 10
331.022422
 20
424.167621
 30
0.0
 11
324.546075
 21
430.643968
 31
0.0
  0
LINE
  5
244
330
230
100
AcDbEntity
  8
LC-006-005-----0
 62
     7
370
    25
100
AcDbLine
 10
325.745839
 20
426.615776
 30
0.0
 11
320.971876
 21
431.389739
 31
0.0
  0
LINE
  5
245
330
230
100
AcDbEntity
  8
LC-006-005-----0
 62
     7
370
    25
100
AcDbLine
 10
321.851478
 20
427.68171
 30
0.0
 11
317.81978
 21
431.713408
 31
0.0
  0
LINE
  5
246
330
230
100
AcDbEntity
  8
LC-006-005-----0
 62
     7
370
    25
100
AcDbLine
 10
318.550709
 20
428.154052
 30
0.0
 11
314.942721
 21
431.76204
 31
0.0
  0
LINE
  5
247
330
230
100
AcDbEntity
  8
LC-006-005-----0
 62
     7
370
    25
100
AcDbLine
 10
315.617166
 20
428.259167
 30
0.0
 11
312.114293
 21
431.76204
 31
0.0
  0
LINE
  5
248
330
230
100
AcDbEntity
  8
LC-006-005-----0
 62
     7
370
    25
100
AcDbLine
 10
312.947262
 20
428.100644
 30
0.0
 11
309.285866
 21
431.76204
 31
0.0
  0
LINE
  5
249
330
230
100
AcDbEntity
  8
LC-006-005-----0
 62
     7
370
    25
100
AcDbLine
 10
310.48336
 20
427.73612
 30
0.0
 11
308.169533
 21
430.049947
 31
0.0
  0
ENDBLK
  5
232
330
230
100
AcDbEntity
  8
0
100
AcDbBlockEnd
  0
BLOCK
  5
24D
330
24C
100
AcDbEntity
  8
0
100
AcDbBlockBegin
  2
*X613
 70
     1
 71
     0
 10
0.0
 20
0.0
 30
0.0
  3
*X613
  1

  4
*X6
  0
LINE
  5
24F
330
24C
100
AcDbEntity
  8
LC-006-005-----0
 62
     7
370
    25
100
AcDbLine
 10
373.557737
 20
375.975451
 30
0.0
 11
373.071148
 21
376.46204
 31
0.0
  0
LINE
  5
250
330
24C
100
AcDbEntity
  8
LC-006-005-----0
 62
     7
370
    25
100
AcDbLine
 10
372.42176
 20
374.283001
 30
0.0
 11
370.242721
 21
376.46204
 31
0.0
  0
LINE
  5
251
330
24C
100
AcDbEntity
  8
LC-006-005-----0
 62
     7
370
    25
100
AcDbLine
 10
370.679169
 20
373.197164
 30
0.0
 11
367.414293
 21
376.46204
 31
0.0
  0
LINE
  5
252
330
24C
100
AcDbEntity
  8
LC-006-005-----0
 62
     7
370
    25
100
AcDbLine
 10
368.829912
 20
372.217995
 30
0.0
 11
364.585866
 21
376.46204
 31
0.0
  0
LINE
  5
253
330
24C
100
AcDbEntity
  8
LC-006-005-----0
 62
     7
370
    25
100
AcDbLine
 10
366.866723
 20
371.352757
 30
0.0
 11
366.557737
 21
371.661743
 31
0.0
  0
LINE
  5
254
330
24C
100
AcDbEntity
  8
LC-006-005-----0
 62
     7
370
    25
100
AcDbLine
 10
364.457808
 20
373.761671
 30
0.0
 11
361.757439
 21
376.46204
 31
0.0
  0
LINE
  5
255
330
24C
100
AcDbEntity
  8
LC-006-005-----0
 62
     7
370
    25
100
AcDbLine
 10
362.057737
 20
373.333316
 30
0.0
 11
358.929012
 21
376.46204
 31
0.0
  0
LINE
  5
256
330
24C
100
AcDbEntity
  8
LC-006-005-----0
 62
     7
370
    25
100
AcDbLine
 10
362.057737
 20
370.504888
 30
0.0
 11
356.100585
 21
376.46204
 31
0.0
  0
LINE
  5
257
330
24C
100
AcDbEntity
  8
LC-006-005-----0
 62
     7
370
    25
100
AcDbLine
 10
360.170036
 20
369.564162
 30
0.0
 11
353.272158
 21
376.46204
 31
0.0
  0
LINE
  5
258
330
24C
100
AcDbEntity
  8
LC-006-005-----0
 62
     7
370
    25
100
AcDbLine
 10
357.598149
 20
369.307622
 30
0.0
 11
350.443731
 21
376.46204
 31
0.0
  0
LINE
  5
259
330
24C
100
AcDbEntity
  8
LC-006-005-----0
 62
     7
370
    25
100
AcDbLine
 10
354.792226
 20
369.285118
 30
0.0
 11
347.615304
 21
376.46204
 31
0.0
  0
LINE
  5
25A
330
24C
100
AcDbEntity
  8
LC-006-005-----0
 62
     7
370
    25
100
AcDbLine
 10
351.674034
 20
369.574883
 30
0.0
 11
344.786876
 21
376.46204
 31
0.0
  0
LINE
  5
25B
330
24C
100
AcDbEntity
  8
LC-006-005-----0
 62
     7
370
    25
100
AcDbLine
 10
348.089459
 20
370.331031
 30
0.0
 11
341.958449
 21
376.46204
 31
0.0
  0
LINE
  5
25C
330
24C
100
AcDbEntity
  8
LC-006-005-----0
 62
     7
370
    25
100
AcDbLine
 10
343.630348
 20
371.961715
 30
0.0
 11
339.130022
 21
376.46204
 31
0.0
  0
LINE
  5
25D
330
24C
100
AcDbEntity
  8
LC-006-005-----0
 62
     7
370
    25
100
AcDbLine
 10
339.001595
 20
373.76204
 30
0.0
 11
336.301595
 21
376.46204
 31
0.0
  0
LINE
  5
25E
330
24C
100
AcDbEntity
  8
LC-006-005-----0
 62
     7
370
    25
100
AcDbLine
 10
336.808897
 20
373.126311
 30
0.0
 11
334.3189
 21
375.616308
 31
0.0
  0
LINE
  5
25F
330
24C
100
AcDbEntity
  8
LC-006-005-----0
 62
     7
370
    25
100
AcDbLine
 10
335.202856
 20
371.903925
 30
0.0
 11
332.689576
 21
374.417205
 31
0.0
  0
LINE
  5
260
330
24C
100
AcDbEntity
  8
LC-006-005-----0
 62
     7
370
    25
100
AcDbLine
 10
333.507402
 20
370.770952
 30
0.0
 11
330.959137
 21
373.319217
 31
0.0
  0
LINE
  5
261
330
24C
100
AcDbEntity
  8
LC-006-005-----0
 62
     7
370
    25
100
AcDbLine
 10
331.719161
 20
369.730766
 30
0.0
 11
329.12273
 21
372.327197
 31
0.0
  0
LINE
  5
262
330
24C
100
AcDbEntity
  8
LC-006-005-----0
 62
     7
370
    25
100
AcDbLine
 10
329.833376
 20
368.788123
 30
0.0
 11
327.173376
 21
371.448124
 31
0.0
  0
LINE
  5
263
330
24C
100
AcDbEntity
  8
LC-006-005-----0
 62
     7
370
    25
100
AcDbLine
 10
327.843575
 20
367.949497
 30
0.0
 11
325.101315
 21
370.691757
 31
0.0
  0
LINE
  5
264
330
24C
100
AcDbEntity
  8
LC-006-005-----0
 62
     7
370
    25
100
AcDbLine
 10
325.741051
 20
367.223594
 30
0.0
 11
322.89293
 21
370.071716
 31
0.0
  0
LINE
  5
265
330
24C
100
AcDbEntity
  8
LC-006-005-----0
 62
     7
370
    25
100
AcDbLine
 10
323.51406
 20
366.622159
 30
0.0
 11
320.528929
 21
369.60729
 31
0.0
  0
LINE
  5
266
330
24C
100
AcDbEntity
  8
LC-006-005-----0
 62
     7
370
    25
100
AcDbLine
 10
321.146514
 20
366.161277
 30
0.0
 11
317.981085
 21
369.326707
 31
0.0
  0
LINE
  5
267
330
24C
100
AcDbEntity
  8
LC-006-005-----0
 62
     7
370
    25
100
AcDbLine
 10
318.615773
 20
365.863591
 30
0.0
 11
315.20584
 21
369.273524
 31
0.0
  0
LINE
  5
268
330
24C
100
AcDbEntity
  8
LC-006-005-----0
 62
     7
370
    25
100
AcDbLine
 10
315.888897
 20
365.76204
 30
0.0
 11
312.130131
 21
369.520806
 31
0.0
  0
LINE
  5
269
330
24C
100
AcDbEntity
  8
LC-006-005-----0
 62
     7
370
    25
100
AcDbLine
 10
313.06047
 20
365.76204
 30
0.0
 11
308.836297
 21
369.986213
 31
0.0
  0
LINE
  5
26A
330
24C
100
AcDbEntity
  8
LC-006-005-----0
 62
     7
370
    25
100
AcDbLine
 10
310.232042
 20
365.76204
 30
0.0
 11
308.169533
 21
367.82455
 31
0.0
  0
ENDBLK
  5
24E
330
24C
100
AcDbEntity
  8
0
100
AcDbBlockEnd
  0
BLOCK
  5
2D4
330
2D3
100
AcDbEntity
  8
0
100
AcDbBlockBegin
  2
*X714
 70
     1
 71
     0
 10
0.0
 20
0.0
 30
0.0
  3
*X714
  1

  4
*X7
  0
LINE
  5
2D6
330
2D3
100
AcDbEntity
  8
LC-006-005-----0
 62
     7
370
    25
100
AcDbLine
 10
366.195746
 20
425.763849
 30
0.0
 11
364.197362
 21
427.762233
 31
0.0
  0
ENDBLK
  5
2D5
330
2D3
100
AcDbEntity
  8
0
100
AcDbBlockEnd
  0
BLOCK
  5
2DB
330
2DA
100
AcDbEntity
  8
0
100
AcDbBlockBegin
  2
*X815
 70
     1
 71
     0
 10
0.0
 20
0.0
 30
0.0
  3
*X815
  1

  4
*X8
  0
LINE
  5
2DD
330
2DA
100
AcDbEntity
  8
LC-006-005-----0
  6
DASHED
 62
     7
370
    25
100
AcDbLine
 10
365.297797
 20
370.093256
 30
0.0
 11
362.526769
 21
372.864283
 31
0.0
  0
ENDBLK
  5
2DC
330
2DA
100
AcDbEntity
  8
0
100
AcDbBlockEnd
  0
BLOCK
  5
3CF
330
3CE
100
AcDbEntity
  8
0
100
AcDbBlockBegin
  2
*X916
 70
     1
 71
     0
 10
0.0
 20
0.0
 30
0.0
  3
*X916
  1

  4
*X9
  0
LINE
  5
3D1
330
3CE
100
AcDbEntity
  8
LC-006-005-----0
 62
     7
370
    25
100
AcDbLine
 10
203.710958
 20
376.245012
 30
0.0
 11
205.042171
 21
377.576225
 31
0.0
  0
LINE
  5
3D2
330
3CE
100
AcDbEntity
  8
LC-006-005-----0
 62
     7
370
    25
100
AcDbLine
 10
203.127606
 20
378.490088
 30
0.0
 11
205.376379
 21
380.738861
 31
0.0
  0
LINE
  5
3D3
330
3CE
100
AcDbEntity
  8
LC-006-005-----0
 62
     7
370
    25
100
AcDbLine
 10
203.461814
 20
381.652723
 30
0.0
 11
205.710587
 21
383.901496
 31
0.0
  0
LINE
  5
3D4
330
3CE
100
AcDbEntity
  8
LC-006-005-----0
 62
     7
370
    25
100
AcDbLine
 10
203.796022
 20
384.815358
 30
0.0
 11
206.044795
 21
387.064131
 31
0.0
  0
LINE
  5
3D5
330
3CE
100
AcDbEntity
  8
LC-006-005-----0
 62
     7
370
    25
100
AcDbLine
 10
204.13023
 20
387.977994
 30
0.0
 11
206.379003
 21
390.226766
 31
0.0
  0
LINE
  5
3D6
330
3CE
100
AcDbEntity
  8
LC-006-005-----0
 62
     7
370
    25
100
AcDbLine
 10
204.464439
 20
391.140629
 30
0.0
 11
206.713211
 21
393.389401
 31
0.0
  0
LINE
  5
3D7
330
3CE
100
AcDbEntity
  8
LC-006-005-----0
 62
     7
370
    25
100
AcDbLine
 10
204.798647
 20
394.303264
 30
0.0
 11
207.047419
 21
396.552037
 31
0.0
  0
LINE
  5
3D8
330
3CE
100
AcDbEntity
  8
LC-006-005-----0
 62
     7
370
    25
100
AcDbLine
 10
205.132855
 20
397.465899
 30
0.0
 11
207.381627
 21
399.714672
 31
0.0
  0
LINE
  5
3D9
330
3CE
100
AcDbEntity
  8
LC-006-005-----0
 62
     7
370
    25
100
AcDbLine
 10
205.467063
 20
400.628535
 30
0.0
 11
207.715836
 21
402.877307
 31
0.0
  0
LINE
  5
3DA
330
3CE
100
AcDbEntity
  8
LC-006-005-----0
 62
     7
370
    25
100
AcDbLine
 10
205.801271
 20
403.79117
 30
0.0
 11
208.050044
 21
406.039942
 31
0.0
  0
LINE
  5
3DB
330
3CE
100
AcDbEntity
  8
LC-006-005-----0
 62
     7
370
    25
100
AcDbLine
 10
206.135479
 20
406.953805
 30
0.0
 11
208.384252
 21
409.202578
 31
0.0
  0
LINE
  5
3DC
330
3CE
100
AcDbEntity
  8
LC-006-005-----0
 62
     7
370
    25
100
AcDbLine
 10
206.469687
 20
410.11644
 30
0.0
 11
208.71846
 21
412.365213
 31
0.0
  0
LINE
  5
3DD
330
3CE
100
AcDbEntity
  8
LC-006-005-----0
 62
     7
370
    25
100
AcDbLine
 10
206.803895
 20
413.279075
 30
0.0
 11
209.052668
 21
415.527848
 31
0.0
  0
LINE
  5
3DE
330
3CE
100
AcDbEntity
  8
LC-006-005-----0
 62
     7
370
    25
100
AcDbLine
 10
207.138103
 20
416.441711
 30
0.0
 11
209.386876
 21
418.690483
 31
0.0
  0
LINE
  5
3DF
330
3CE
100
AcDbEntity
  8
LC-006-005-----0
 62
     7
370
    25
100
AcDbLine
 10
207.472312
 20
419.604346
 30
0.0
 11
209.721084
 21
421.853119
 31
0.0
  0
LINE
  5
3E0
330
3CE
100
AcDbEntity
  8
LC-006-005-----0
 62
     7
370
    25
100
AcDbLine
 10
207.80652
 20
422.766981
 30
0.0
 11
210.055292
 21
425.015754
 31
0.0
  0
LINE
  5
3E1
330
3CE
100
AcDbEntity
  8
LC-006-005-----0
 62
     7
370
    25
100
AcDbLine
 10
210.473931
 20
425.434392
 30
0.0
 11
212.563
 21
427.523461
 31
0.0
  0
LINE
  5
3E2
330
3CE
100
AcDbEntity
  8
LC-006-005-----0
 62
     7
370
    25
100
AcDbLine
 10
208.140728
 20
425.929616
 30
0.0
 11
212.563
 21
430.351888
 31
0.0
  0
LINE
  5
3E3
330
3CE
100
AcDbEntity
  8
LC-006-005-----0
 62
     7
370
    25
100
AcDbLine
 10
208.474936
 20
429.092252
 30
0.0
 11
212.563
 21
433.180315
 31
0.0
  0
LINE
  5
3E4
330
3CE
100
AcDbEntity
  8
LC-006-005-----0
 62
     7
370
    25
100
AcDbLine
 10
208.809144
 20
432.254887
 30
0.0
 11
212.563
 21
436.008742
 31
0.0
  0
LINE
  5
3E5
330
3CE
100
AcDbEntity
  8
LC-006-005-----0
 62
     7
370
    25
100
AcDbLine
 10
209.143352
 20
435.417522
 30
0.0
 11
212.563
 21
438.83717
 31
0.0
  0
LINE
  5
3E6
330
3CE
100
AcDbEntity
  8
LC-006-005-----0
 62
     7
370
    25
100
AcDbLine
 10
209.47756
 20
438.580157
 30
0.0
 11
212.563
 21
441.665597
 31
0.0
  0
LINE
  5
3E7
330
3CE
100
AcDbEntity
  8
LC-006-005-----0
 62
     7
370
    25
100
AcDbLine
 10
209.811768
 20
441.742793
 30
0.0
 11
212.563
 21
444.494024
 31
0.0
  0
LINE
  5
3E8
330
3CE
100
AcDbEntity
  8
LC-006-005-----0
 62
     7
370
    25
100
AcDbLine
 10
210.145977
 20
444.905428
 30
0.0
 11
212.563
 21
447.322451
 31
0.0
  0
LINE
  5
3E9
330
3CE
100
AcDbEntity
  8
LC-006-005-----0
 62
     7
370
    25
100
AcDbLine
 10
216.354437
 20
451.113888
 30
0.0
 11
217.04019
 21
451.799641
 31
0.0
  0
LINE
  5
3EA
330
3CE
100
AcDbEntity
  8
LC-006-005-----0
 62
     7
370
    25
100
AcDbLine
 10
210.480185
 20
448.068063
 30
0.0
 11
215.529503
 21
453.117382
 31
0.0
  0
ENDBLK
  5
3D0
330
3CE
100
AcDbEntity
  8
0
100
AcDbBlockEnd
  0
BLOCK
  5
3ED
330
3EC
100
AcDbEntity
  8
0
100
AcDbBlockBegin
  2
*X1017
 70
     1
 71
     0
 10
0.0
 20
0.0
 30
0.0
  3
*X1017
  1

  4
*X10
  0
LINE
  5
3EF
330
3EC
100
AcDbEntity
  8
LC-006-005-----0
 62
     7
370
    25
100
AcDbLine
 10
156.06066
 20
376.677976
 30
0.0
 11
157.060653
 21
377.677968
 31
0.0
  0
LINE
  5
3F0
330
3EC
100
AcDbEntity
  8
LC-006-005-----0
 62
     7
370
    25
100
AcDbLine
 10
156.060662
 20
379.506405
 30
0.0
 11
157.060654
 21
380.506397
 31
0.0
  0
LINE
  5
3F1
330
3EC
100
AcDbEntity
  8
LC-006-005-----0
 62
     7
370
    25
100
AcDbLine
 10
156.060664
 20
382.334833
 30
0.0
 11
157.060656
 21
383.334826
 31
0.0
  0
LINE
  5
3F2
330
3EC
100
AcDbEntity
  8
LC-006-005-----0
 62
     7
370
    25
100
AcDbLine
 10
156.060665
 20
385.163262
 30
0.0
 11
157.060658
 21
386.163255
 31
0.0
  0
LINE
  5
3F3
330
3EC
100
AcDbEntity
  8
LC-006-005-----0
 62
     7
370
    25
100
AcDbLine
 10
156.060667
 20
387.991691
 30
0.0
 11
157.06066
 21
388.991684
 31
0.0
  0
LINE
  5
3F4
330
3EC
100
AcDbEntity
  8
LC-006-005-----0
 62
     7
370
    25
100
AcDbLine
 10
156.060669
 20
390.82012
 30
0.0
 11
157.060662
 21
391.820113
 31
0.0
  0
LINE
  5
3F5
330
3EC
100
AcDbEntity
  8
LC-006-005-----0
 62
     7
370
    25
100
AcDbLine
 10
156.060671
 20
393.648549
 30
0.0
 11
157.060665
 21
394.648543
 31
0.0
  0
LINE
  5
3F6
330
3EC
100
AcDbEntity
  8
LC-006-005-----0
 62
     7
370
    25
100
AcDbLine
 10
156.060673
 20
396.476978
 30
0.0
 11
157.060667
 21
397.476973
 31
0.0
  0
LINE
  5
3F7
330
3EC
100
AcDbEntity
  8
LC-006-005-----0
 62
     7
370
    25
100
AcDbLine
 10
156.060675
 20
399.305407
 30
0.0
 11
157.06067
 21
400.305402
 31
0.0
  0
LINE
  5
3F8
330
3EC
100
AcDbEntity
  8
LC-006-005-----0
 62
     7
370
    25
100
AcDbLine
 10
156.060676
 20
402.133836
 30
0.0
 11
157.060672
 21
403.133832
 31
0.0
  0
LINE
  5
3F9
330
3EC
100
AcDbEntity
  8
LC-006-005-----0
 62
     7
370
    25
100
AcDbLine
 10
156.060678
 20
404.962265
 30
0.0
 11
157.060675
 21
405.962262
 31
0.0
  0
LINE
  5
3FA
330
3EC
100
AcDbEntity
  8
LC-006-005-----0
 62
     7
370
    25
100
AcDbLine
 10
156.06068
 20
407.790694
 30
0.0
 11
157.060677
 21
408.790691
 31
0.0
  0
LINE
  5
3FB
330
3EC
100
AcDbEntity
  8
LC-006-005-----0
 62
     7
370
    25
100
AcDbLine
 10
156.060682
 20
410.619123
 30
0.0
 11
157.060679
 21
411.619121
 31
0.0
  0
LINE
  5
3FC
330
3EC
100
AcDbEntity
  8
LC-006-005-----0
 62
     7
370
    25
100
AcDbLine
 10
156.060684
 20
413.447552
 30
0.0
 11
157.060682
 21
414.44755
 31
0.0
  0
LINE
  5
3FD
330
3EC
100
AcDbEntity
  8
LC-006-005-----0
 62
     7
370
    25
100
AcDbLine
 10
156.060686
 20
416.275981
 30
0.0
 11
157.060684
 21
417.27598
 31
0.0
  0
LINE
  5
3FE
330
3EC
100
AcDbEntity
  8
LC-006-005-----0
 62
     7
370
    25
100
AcDbLine
 10
156.060688
 20
419.10441
 30
0.0
 11
157.060687
 21
420.10441
 31
0.0
  0
LINE
  5
3FF
330
3EC
100
AcDbEntity
  8
LC-006-005-----0
 62
     7
370
    25
100
AcDbLine
 10
156.060689
 20
421.932839
 30
0.0
 11
157.060689
 21
422.932839
 31
0.0
  0
LINE
  5
400
330
3EC
100
AcDbEntity
  8
LC-006-005-----0
 62
     7
370
    25
100
AcDbLine
 10
156.060691
 20
424.761268
 30
0.0
 11
157.060692
 21
425.761269
 31
0.0
  0
LINE
  5
401
330
3EC
100
AcDbEntity
  8
LC-006-005-----0
 62
     7
370
    25
100
AcDbLine
 10
157.573728
 20
426.274304
 30
0.0
 11
160.375233
 21
429.07581
 31
0.0
  0
LINE
  5
402
330
3EC
100
AcDbEntity
  8
LC-006-005-----0
 62
     7
370
    25
100
AcDbLine
 10
154.743938
 20
426.272942
 30
0.0
 11
155.94547
 21
427.474474
 31
0.0
  0
LINE
  5
403
330
3EC
100
AcDbEntity
  8
LC-006-005-----0
 62
     7
370
    25
100
AcDbLine
 10
158.361138
 20
429.890142
 30
0.0
 11
160.369583
 21
431.898587
 31
0.0
  0
LINE
  5
404
330
3EC
100
AcDbEntity
  8
LC-006-005-----0
 62
     7
370
    25
100
AcDbLine
 10
158.360846
 20
432.718277
 30
0.0
 11
160.363933
 21
434.721364
 31
0.0
  0
LINE
  5
405
330
3EC
100
AcDbEntity
  8
LC-006-005-----0
 62
     7
370
    25
100
AcDbLine
 10
157.887884
 20
435.073742
 30
0.0
 11
159.088616
 21
436.274474
 31
0.0
  0
LINE
  5
406
330
3EC
100
AcDbEntity
  8
LC-006-005-----0
 62
     7
370
    25
100
AcDbLine
 10
155.060189
 20
435.074474
 30
0.0
 11
156.260189
 21
436.274474
 31
0.0
  0
LINE
  5
407
330
3EC
100
AcDbEntity
  8
LC-006-005-----0
 62
     7
370
    25
100
AcDbLine
 10
153.260836
 20
436.103548
 30
0.0
 11
153.431762
 21
436.274474
 31
0.0
  0
ENDBLK
  5
3EE
330
3EC
100
AcDbEntity
  8
0
100
AcDbBlockEnd
  0
BLOCK
  5
419
330
418
100
AcDbEntity
  8
0
100
AcDbBlockBegin
  2
*X1118
 70
     1
 71
     0
 10
0.0
 20
0.0
 30
0.0
  3
*X1118
  1

  4
*X11
  0
LINE
  5
41B
330
418
100
AcDbEntity
  8
LC-006-005-----0
 62
     7
370
    25
100
AcDbLine
 10
216.658536
 20
453.39585
 30
0.0
 11
216.937004
 21
453.117382
 31
0.0
  0
LINE
  5
41C
330
418
100
AcDbEntity
  8
LC-006-005-----0
 62
     7
370
    25
100
AcDbLine
 10
216.658536
 20
453.678693
 30
0.0
 11
217.219847
 21
453.117382
 31
0.0
  0
LINE
  5
41D
330
418
100
AcDbEntity
  8
LC-006-005-----0
 62
     7
370
    25
100
AcDbLine
 10
216.658536
 20
453.961536
 30
0.0
 11
217.502689
 21
453.117382
 31
0.0
  0
LINE
  5
41E
330
418
100
AcDbEntity
  8
LC-006-005-----0
 62
     7
370
    25
100
AcDbLine
 10
216.658536
 20
454.244378
 30
0.0
 11
217.785532
 21
453.117382
 31
0.0
  0
LINE
  5
41F
330
418
100
AcDbEntity
  8
LC-006-005-----0
 62
     7
370
    25
100
AcDbLine
 10
216.878375
 20
454.307382
 30
0.0
 11
218.068375
 21
453.117382
 31
0.0
  0
LINE
  5
420
330
418
100
AcDbEntity
  8
LC-006-005-----0
 62
     7
370
    25
100
AcDbLine
 10
217.161218
 20
454.307382
 30
0.0
 11
218.351218
 21
453.117382
 31
0.0
  0
LINE
  5
421
330
418
100
AcDbEntity
  8
LC-006-005-----0
 62
     7
370
    25
100
AcDbLine
 10
217.44406
 20
454.307382
 30
0.0
 11
218.63406
 21
453.117382
 31
0.0
  0
LINE
  5
422
330
418
100
AcDbEntity
  8
LC-006-005-----0
 62
     7
370
    25
100
AcDbLine
 10
217.726903
 20
454.307382
 30
0.0
 11
218.916903
 21
453.117382
 31
0.0
  0
LINE
  5
423
330
418
100
AcDbEntity
  8
LC-006-005-----0
 62
     7
370
    25
100
AcDbLine
 10
218.009746
 20
454.307382
 30
0.0
 11
219.199746
 21
453.117382
 31
0.0
  0
LINE
  5
424
330
418
100
AcDbEntity
  8
LC-006-005-----0
 62
     7
370
    25
100
AcDbLine
 10
218.292588
 20
454.307382
 30
0.0
 11
219.482588
 21
453.117382
 31
0.0
  0
LINE
  5
425
330
418
100
AcDbEntity
  8
LC-006-005-----0
 62
     7
370
    25
100
AcDbLine
 10
218.575431
 20
454.307382
 30
0.0
 11
219.765431
 21
453.117382
 31
0.0
  0
LINE
  5
426
330
418
100
AcDbEntity
  8
LC-006-005-----0
 62
     7
370
    25
100
AcDbLine
 10
218.858274
 20
454.307382
 30
0.0
 11
220.048274
 21
453.117382
 31
0.0
  0
LINE
  5
427
330
418
100
AcDbEntity
  8
LC-006-005-----0
 62
     7
370
    25
100
AcDbLine
 10
219.141117
 20
454.307382
 30
0.0
 11
220.331117
 21
453.117382
 31
0.0
  0
LINE
  5
428
330
418
100
AcDbEntity
  8
LC-006-005-----0
 62
     7
370
    25
100
AcDbLine
 10
219.423959
 20
454.307382
 30
0.0
 11
220.613959
 21
453.117382
 31
0.0
  0
LINE
  5
429
330
418
100
AcDbEntity
  8
LC-006-005-----0
 62
     7
370
    25
100
AcDbLine
 10
219.706802
 20
454.307382
 30
0.0
 11
220.808536
 21
453.205648
 31
0.0
  0
LINE
  5
42A
330
418
100
AcDbEntity
  8
LC-006-005-----0
 62
     7
370
    25
100
AcDbLine
 10
219.989645
 20
454.307382
 30
0.0
 11
220.808536
 21
453.488491
 31
0.0
  0
LINE
  5
42B
330
418
100
AcDbEntity
  8
LC-006-005-----0
 62
     7
370
    25
100
AcDbLine
 10
220.272487
 20
454.307382
 30
0.0
 11
220.808536
 21
453.771334
 31
0.0
  0
LINE
  5
42C
330
418
100
AcDbEntity
  8
LC-006-005-----0
 62
     7
370
    25
100
AcDbLine
 10
220.55533
 20
454.307382
 30
0.0
 11
220.808536
 21
454.054176
 31
0.0
  0
ENDBLK
  5
41A
330
418
100
AcDbEntity
  8
0
100
AcDbBlockEnd
  0
BLOCK
  5
42F
330
42E
100
AcDbEntity
  8
0
100
AcDbBlockBegin
  2
*X1219
 70
     1
 71
     0
 10
0.0
 20
0.0
 30
0.0
  3
*X1219
  1

  4
*X12
  0
LINE
  5
431
330
42E
100
AcDbEntity
  8
LC-006-005-----0
 62
     7
370
    25
100
AcDbLine
 10
255.508536
 20
453.295302
 30
0.0
 11
255.686456
 21
453.117382
 31
0.0
  0
LINE
  5
432
330
42E
100
AcDbEntity
  8
LC-006-005-----0
 62
     7
370
    25
100
AcDbLine
 10
255.508536
 20
453.578145
 30
0.0
 11
255.969298
 21
453.117382
 31
0.0
  0
LINE
  5
433
330
42E
100
AcDbEntity
  8
LC-006-005-----0
 62
     7
370
    25
100
AcDbLine
 10
255.508536
 20
453.860987
 30
0.0
 11
256.252141
 21
453.117382
 31
0.0
  0
LINE
  5
434
330
42E
100
AcDbEntity
  8
LC-006-005-----0
 62
     7
370
    25
100
AcDbLine
 10
255.508536
 20
454.14383
 30
0.0
 11
256.534984
 21
453.117382
 31
0.0
  0
LINE
  5
435
330
42E
100
AcDbEntity
  8
LC-006-005-----0
 62
     7
370
    25
100
AcDbLine
 10
255.627826
 20
454.307382
 30
0.0
 11
256.817826
 21
453.117382
 31
0.0
  0
LINE
  5
436
330
42E
100
AcDbEntity
  8
LC-006-005-----0
 62
     7
370
    25
100
AcDbLine
 10
255.910669
 20
454.307382
 30
0.0
 11
257.100669
 21
453.117382
 31
0.0
  0
LINE
  5
437
330
42E
100
AcDbEntity
  8
LC-006-005-----0
 62
     7
370
    25
100
AcDbLine
 10
256.193512
 20
454.307382
 30
0.0
 11
257.383512
 21
453.117382
 31
0.0
  0
LINE
  5
438
330
42E
100
AcDbEntity
  8
LC-006-005-----0
 62
     7
370
    25
100
AcDbLine
 10
256.476355
 20
454.307382
 30
0.0
 11
257.666355
 21
453.117382
 31
0.0
  0
LINE
  5
439
330
42E
100
AcDbEntity
  8
LC-006-005-----0
 62
     7
370
    25
100
AcDbLine
 10
256.759197
 20
454.307382
 30
0.0
 11
257.949197
 21
453.117382
 31
0.0
  0
LINE
  5
43A
330
42E
100
AcDbEntity
  8
LC-006-005-----0
 62
     7
370
    25
100
AcDbLine
 10
257.04204
 20
454.307382
 30
0.0
 11
258.23204
 21
453.117382
 31
0.0
  0
LINE
  5
43B
330
42E
100
AcDbEntity
  8
LC-006-005-----0
 62
     7
370
    25
100
AcDbLine
 10
257.324883
 20
454.307382
 30
0.0
 11
258.514883
 21
453.117382
 31
0.0
  0
LINE
  5
43C
330
42E
100
AcDbEntity
  8
LC-006-005-----0
 62
     7
370
    25
100
AcDbLine
 10
257.607725
 20
454.307382
 30
0.0
 11
258.797725
 21
453.117382
 31
0.0
  0
LINE
  5
43D
330
42E
100
AcDbEntity
  8
LC-006-005-----0
 62
     7
370
    25
100
AcDbLine
 10
257.890568
 20
454.307382
 30
0.0
 11
259.080568
 21
453.117382
 31
0.0
  0
LINE
  5
43E
330
42E
100
AcDbEntity
  8
LC-006-005-----0
 62
     7
370
    25
100
AcDbLine
 10
258.173411
 20
454.307382
 30
0.0
 11
259.363411
 21
453.117382
 31
0.0
  0
LINE
  5
43F
330
42E
100
AcDbEntity
  8
LC-006-005-----0
 62
     7
370
    25
100
AcDbLine
 10
258.456254
 20
454.307382
 30
0.0
 11
259.646254
 21
453.117382
 31
0.0
  0
LINE
  5
440
330
42E
100
AcDbEntity
  8
LC-006-005-----0
 62
     7
370
    25
100
AcDbLine
 10
258.739096
 20
454.307382
 30
0.0
 11
259.658536
 21
453.387943
 31
0.0
  0
LINE
  5
441
330
42E
100
AcDbEntity
  8
LC-006-005-----0
 62
     7
370
    25
100
AcDbLine
 10
259.021939
 20
454.307382
 30
0.0
 11
259.658536
 21
453.670785
 31
0.0
  0
LINE
  5
442
330
42E
100
AcDbEntity
  8
LC-006-005-----0
 62
     7
370
    25
100
AcDbLine
 10
259.304782
 20
454.307382
 30
0.0
 11
259.658536
 21
453.953628
 31
0.0
  0
LINE
  5
443
330
42E
100
AcDbEntity
  8
LC-006-005-----0
 62
     7
370
    25
100
AcDbLine
 10
259.587624
 20
454.307382
 30
0.0
 11
259.658536
 21
454.236471
 31
0.0
  0
ENDBLK
  5
430
330
42E
100
AcDbEntity
  8
0
100
AcDbBlockEnd
  0
BLOCK
  5
44A
330
449
100
AcDbEntity
  8
0
100
AcDbBlockBegin
  2
*X1320
 70
     1
 71
     0
 10
0.0
 20
0.0
 30
0.0
  3
*X1320
  1

  4
*X13
  0
LINE
  5
44C
330
449
100
AcDbEntity
  8
LC-006-005-----0
 62
     7
370
    25
100
AcDbLine
 10
218.258536
 20
449.250266
 30
0.0
 11
219.70142
 21
447.807382
 31
0.0
  0
LINE
  5
44D
330
449
100
AcDbEntity
  8
LC-006-005-----0
 62
     7
370
    25
100
AcDbLine
 10
219.225937
 20
451.111292
 30
0.0
 11
222.529847
 21
447.807382
 31
0.0
  0
LINE
  5
44E
330
449
100
AcDbEntity
  8
LC-006-005-----0
 62
     7
370
    25
100
AcDbLine
 10
216.658536
 20
456.50712
 30
0.0
 11
218.858274
 21
454.307382
 31
0.0
  0
LINE
  5
44F
330
449
100
AcDbEntity
  8
LC-006-005-----0
 62
     7
370
    25
100
AcDbLine
 10
220.808536
 20
452.35712
 30
0.0
 11
222.808536
 21
450.35712
 31
0.0
  0
LINE
  5
450
330
449
100
AcDbEntity
  8
LC-006-005-----0
 62
     7
370
    25
100
AcDbLine
 10
218.686701
 20
457.307382
 30
0.0
 11
222.808536
 21
453.185547
 31
0.0
  0
LINE
  5
451
330
449
100
AcDbEntity
  8
LC-006-005-----0
 62
     7
370
    25
100
AcDbLine
 10
221.515128
 20
457.307382
 30
0.0
 11
224.016893
 21
454.805617
 31
0.0
  0
LINE
  5
452
330
449
100
AcDbEntity
  8
LC-006-005-----0
 62
     7
370
    25
100
AcDbLine
 10
225.083514
 20
456.567423
 30
0.0
 11
227.858574
 21
453.792363
 31
0.0
  0
LINE
  5
453
330
449
100
AcDbEntity
  8
LC-006-005-----0
 62
     7
370
    25
100
AcDbLine
 10
228.860567
 20
455.618797
 30
0.0
 11
231.315354
 21
453.16401
 31
0.0
  0
LINE
  5
454
330
449
100
AcDbEntity
  8
LC-006-005-----0
 62
     7
370
    25
100
AcDbLine
 10
232.259073
 20
455.048719
 30
0.0
 11
234.494321
 21
452.81347
 31
0.0
  0
LINE
  5
455
330
449
100
AcDbEntity
  8
LC-006-005-----0
 62
     7
370
    25
100
AcDbLine
 10
235.383838
 20
454.75238
 30
0.0
 11
237.45781
 21
452.678409
 31
0.0
  0
ENDBLK
  5
44B
330
449
100
AcDbEntity
  8
0
100
AcDbBlockEnd
  0
BLOCK
  5
458
330
457
100
AcDbEntity
  8
0
100
AcDbBlockBegin
  2
*X1421
 70
     1
 71
     0
 10
0.0
 20
0.0
 30
0.0
  3
*X1421
  1

  4
*X14
  0
LINE
  5
45A
330
457
100
AcDbEntity
  8
LC-006-005-----0
 62
     7
370
    25
100
AcDbLine
 10
238.295885
 20
454.668761
 30
0.0
 11
240.24591
 21
452.718736
 31
0.0
  0
LINE
  5
45B
330
457
100
AcDbEntity
  8
LC-006-005-----0
 62
     7
370
    25
100
AcDbLine
 10
241.034459
 20
454.758614
 30
0.0
 11
242.886199
 21
452.906873
 31
0.0
  0
LINE
  5
45C
330
457
100
AcDbEntity
  8
LC-006-005-----0
 62
     7
370
    25
100
AcDbLine
 10
243.626546
 20
454.994954
 30
0.0
 11
245.398582
 21
453.222918
 31
0.0
  0
LINE
  5
45D
330
457
100
AcDbEntity
  8
LC-006-005-----0
 62
     7
370
    25
100
AcDbLine
 10
246.09161
 20
455.358317
 30
0.0
 11
247.797946
 21
453.651981
 31
0.0
  0
LINE
  5
45E
330
457
100
AcDbEntity
  8
LC-006-005-----0
 62
     7
370
    25
100
AcDbLine
 10
253.508536
 20
447.941391
 30
0.0
 11
253.642545
 21
447.807382
 31
0.0
  0
LINE
  5
45F
330
457
100
AcDbEntity
  8
LC-006-005-----0
 62
     7
370
    25
100
AcDbLine
 10
248.444194
 20
455.83416
 30
0.0
 11
250.095736
 21
454.182618
 31
0.0
  0
LINE
  5
460
330
457
100
AcDbEntity
  8
LC-006-005-----0
 62
     7
370
    25
100
AcDbLine
 10
253.508536
 20
450.769819
 30
0.0
 11
256.470972
 21
447.807382
 31
0.0
  0
LINE
  5
461
330
457
100
AcDbEntity
  8
LC-006-005-----0
 62
     7
370
    25
100
AcDbLine
 10
250.695458
 20
456.411323
 30
0.0
 11
252.300931
 21
454.80585
 31
0.0
  0
LINE
  5
462
330
457
100
AcDbEntity
  8
LC-006-005-----0
 62
     7
370
    25
100
AcDbLine
 10
253.508536
 20
453.598246
 30
0.0
 11
255.508536
 21
451.598246
 31
0.0
  0
LINE
  5
463
330
457
100
AcDbEntity
  8
LC-006-005-----0
 62
     7
370
    25
100
AcDbLine
 10
255.995489
 20
451.111292
 30
0.0
 11
258.058536
 21
449.048246
 31
0.0
  0
LINE
  5
464
330
457
100
AcDbEntity
  8
LC-006-005-----0
 62
     7
370
    25
100
AcDbLine
 10
252.85414
 20
457.081068
 30
0.0
 11
255.627826
 21
454.307382
 31
0.0
  0
LINE
  5
465
330
457
100
AcDbEntity
  8
LC-006-005-----0
 62
     7
370
    25
100
AcDbLine
 10
255.456254
 20
457.307382
 30
0.0
 11
258.456254
 21
454.307382
 31
0.0
  0
LINE
  5
466
330
457
100
AcDbEntity
  8
LC-006-005-----0
 62
     7
370
    25
100
AcDbLine
 10
258.284681
 20
457.307382
 30
0.0
 11
259.658536
 21
455.933527
 31
0.0
  0
ENDBLK
  5
459
330
457
100
AcDbEntity
  8
0
100
AcDbBlockEnd
  0
BLOCK
  5
469
330
468
100
AcDbEntity
  8
0
100
AcDbBlockBegin
  2
*X1522
 70
     1
 71
     0
 10
0.0
 20
0.0
 30
0.0
  3
*X1522
  1

  4
*X15
  0
LINE
  5
46B
330
468
100
AcDbEntity
  8
LC-006-005-----0
 62
     7
370
    25
100
AcDbLine
 10
279.191948
 20
426.270158
 30
0.0
 11
280.395022
 21
427.473232
 31
0.0
  0
LINE
  5
46C
330
468
100
AcDbEntity
  8
LC-006-005-----0
 62
     7
370
    25
100
AcDbLine
 10
276.367554
 20
426.274191
 30
0.0
 11
277.567758
 21
427.474395
 31
0.0
  0
LINE
  5
46D
330
468
100
AcDbEntity
  8
LC-006-005-----0
 62
     7
370
    25
100
AcDbLine
 10
274.38586
 20
427.120925
 30
0.0
 11
275.760973
 21
428.496037
 31
0.0
  0
LINE
  5
46E
330
468
100
AcDbEntity
  8
LC-006-005-----0
 62
     7
370
    25
100
AcDbLine
 10
273.76088
 20
429.324372
 30
0.0
 11
275.760984
 21
431.324476
 31
0.0
  0
LINE
  5
46F
330
468
100
AcDbEntity
  8
LC-006-005-----0
 62
     7
370
    25
100
AcDbLine
 10
279.510901
 20
435.074393
 30
0.0
 11
280.710908
 21
436.2744
 31
0.0
  0
LINE
  5
470
330
468
100
AcDbEntity
  8
LC-006-005-----0
 62
     7
370
    25
100
AcDbLine
 10
273.760703
 20
432.152622
 30
0.0
 11
275.760996
 21
434.152915
 31
0.0
  0
LINE
  5
471
330
468
100
AcDbEntity
  8
LC-006-005-----0
 62
     7
370
    25
100
AcDbLine
 10
276.682477
 20
435.074396
 30
0.0
 11
277.882481
 21
436.2744
 31
0.0
  0
LINE
  5
472
330
468
100
AcDbEntity
  8
LC-006-005-----0
 62
     7
370
    25
100
AcDbLine
 10
273.760703
 20
434.981049
 30
0.0
 11
277.013466
 21
438.233812
 31
0.0
  0
LINE
  5
473
330
468
100
AcDbEntity
  8
LC-006-005-----0
 62
     7
370
    25
100
AcDbLine
 10
273.760704
 20
437.809477
 30
0.0
 11
276.758714
 21
440.807487
 31
0.0
  0
LINE
  5
474
330
468
100
AcDbEntity
  8
LC-006-005-----0
 62
     7
370
    25
100
AcDbLine
 10
273.760705
 20
440.637905
 30
0.0
 11
276.503962
 21
443.381162
 31
0.0
  0
LINE
  5
475
330
468
100
AcDbEntity
  8
LC-006-005-----0
 62
     7
370
    25
100
AcDbLine
 10
273.760705
 20
443.466333
 30
0.0
 11
276.206366
 21
445.911994
 31
0.0
  0
LINE
  5
476
330
468
100
AcDbEntity
  8
LC-006-005-----0
 62
     7
370
    25
100
AcDbLine
 10
273.493351
 20
446.027405
 30
0.0
 11
275.493371
 21
448.027426
 31
0.0
  0
LINE
  5
477
330
468
100
AcDbEntity
  8
LC-006-005-----0
 62
     7
370
    25
100
AcDbLine
 10
272.603661
 20
447.966143
 30
0.0
 11
274.39811
 21
449.760591
 31
0.0
  0
LINE
  5
478
330
468
100
AcDbEntity
  8
LC-006-005-----0
 62
     7
370
    25
100
AcDbLine
 10
271.272427
 20
449.463336
 30
0.0
 11
272.978706
 21
451.169615
 31
0.0
  0
LINE
  5
479
330
468
100
AcDbEntity
  8
LC-006-005-----0
 62
     7
370
    25
100
AcDbLine
 10
269.52362
 20
450.542956
 30
0.0
 11
271.234319
 21
452.253655
 31
0.0
  0
LINE
  5
47A
330
468
100
AcDbEntity
  8
LC-006-005-----0
 62
     7
370
    25
100
AcDbLine
 10
267.246642
 20
451.094405
 30
0.0
 11
269.104283
 21
452.952046
 31
0.0
  0
LINE
  5
47B
330
468
100
AcDbEntity
  8
LC-006-005-----0
 62
     7
370
    25
100
AcDbLine
 10
264.435102
 20
451.111292
 30
0.0
 11
266.441192
 21
453.117382
 31
0.0
  0
LINE
  5
47C
330
468
100
AcDbEntity
  8
LC-006-005-----0
 62
     7
370
    25
100
AcDbLine
 10
261.606675
 20
451.111292
 30
0.0
 11
263.612765
 21
453.117382
 31
0.0
  0
LINE
  5
47D
330
468
100
AcDbEntity
  8
LC-006-005-----0
 62
     7
370
    25
100
AcDbLine
 10
258.778248
 20
451.111292
 30
0.0
 11
260.784337
 21
453.117382
 31
0.0
  0
LINE
  5
47E
330
468
100
AcDbEntity
  8
LC-006-005-----0
 62
     7
370
    25
100
AcDbLine
 10
255.94982
 20
451.111292
 30
0.0
 11
257.95591
 21
453.117382
 31
0.0
  0
ENDBLK
  5
46A
330
468
100
AcDbEntity
  8
0
100
AcDbBlockEnd
  0
BLOCK
  5
487
330
486
100
AcDbEntity
  8
0
100
AcDbBlockBegin
  2
*X1623
 70
     1
 71
     0
 10
0.0
 20
0.0
 30
0.0
  3
*X1623
  1

  4
*X16
  0
LINE
  5
489
330
486
100
AcDbEntity
  8
LC-006-005-----0
 62
     7
370
    25
100
AcDbLine
 10
275.756064
 20
429.936504
 30
0.0
 11
278.203152
 21
427.489416
 31
0.0
  0
LINE
  5
48A
330
486
100
AcDbEntity
  8
LC-006-005-----0
 62
     7
370
    25
100
AcDbLine
 10
275.740962
 20
431.365819
 30
0.0
 11
279.457149
 21
427.649633
 31
0.0
  0
LINE
  5
48B
330
486
100
AcDbEntity
  8
LC-006-005-----0
 62
     7
370
    25
100
AcDbLine
 10
275.773688
 20
432.747307
 30
0.0
 11
280.335937
 21
428.185058
 31
0.0
  0
LINE
  5
48C
330
486
100
AcDbEntity
  8
LC-006-005-----0
 62
     7
370
    25
100
AcDbLine
 10
276.156827
 20
433.778382
 30
0.0
 11
280.947328
 21
428.987881
 31
0.0
  0
LINE
  5
48D
330
486
100
AcDbEntity
  8
LC-006-005-----0
 62
     7
370
    25
100
AcDbLine
 10
276.831919
 20
434.517503
 30
0.0
 11
281.238618
 21
430.110804
 31
0.0
  0
LINE
  5
48E
330
486
100
AcDbEntity
  8
LC-006-005-----0
 62
     7
370
    25
100
AcDbLine
 10
277.782221
 20
434.981415
 30
0.0
 11
281.240962
 21
431.522674
 31
0.0
  0
LINE
  5
48F
330
486
100
AcDbEntity
  8
LC-006-005-----0
 62
     7
370
    25
100
AcDbLine
 10
279.195251
 20
434.982598
 30
0.0
 11
281.149246
 21
433.028603
 31
0.0
  0
ENDBLK
  5
488
330
486
100
AcDbEntity
  8
0
100
AcDbBlockEnd
  0
BLOCK
  5
4A0
330
496
100
AcDbEntity
  8
0
100
AcDbBlockBegin
  2
*D24
 70
     1
 71
     0
 10
0.0
 20
0.0
 30
0.0
  3
*D24
  1

  0
LINE
  5
497
330
496
100
AcDbEntity
  8
LC-005-003-----0
 62
     2
370
    -2
100
AcDbLine
 10
66.060914
 20
468.959407
 30
0.0
 11
66.060914
 21
270.8
 31
0.0
  0
LINE
  5
498
330
496
100
AcDbEntity
  8
LC-005-003-----0
 62
     2
370
    -2
100
AcDbLine
 10
451.767527
 20
381.064065
 30
0.0
 11
451.767527
 21
270.8
 31
0.0
  0
LINE
  5
499
330
496
100
AcDbEntity
  8
LC-005-003-----0
 62
     2
370
    -2
100
AcDbLine
 10
94.060914
 20
274.4
 30
0.0
 11
423.767527
 21
274.4
 31
0.0
  0
SOLID
  5
49A
330
496
100
AcDbEntity
  8
LC-005-003-----0
 62
     2
100
AcDbTrace
 10
94.060914
 20
279.066667
 30
0.0
 11
94.060914
 21
269.733333
 31
0.0
 12
66.060914
 22
274.4
 32
0.0
 13
66.060914
 23
274.4
 33
0.0
  0
SOLID
  5
49B
330
496
100
AcDbEntity
  8
LC-005-003-----0
 62
     2
100
AcDbTrace
 10
423.767527
 20
269.733333
 30
0.0
 11
423.767527
 21
279.066667
 31
0.0
 12
451.767527
 22
274.4
 32
0.0
 13
451.767527
 23
274.4
 33
0.0
  0
MTEXT
  5
49C
330
496
100
AcDbEntity
  8
LC-005-003-----0
 62
     2
100
AcDbMText
 10
258.914221
 20
305.2
 30
0.0
 40
28.0
 41
0.0
 71
     5
 72
     1
  1
\A1;385
  7
LCTX15-400-0-0pDIN-Schrift
 73
     1
 44
1.0
  0
POINT
  5
49D
330
496
100
AcDbEntity
  8
Defpoints
 62
     0
100
AcDbPoint
 10
66.060914
 20
468.959407
 30
0.0
  0
POINT
  5
49E
330
496
100
AcDbEntity
  8
Defpoints
 62
     0
100
AcDbPoint
 10
451.767527
 20
381.064065
 30
0.0
  0
POINT
  5
49F
330
496
100
AcDbEntity
  8
Defpoints
 62
     0
100
AcDbPoint
 10
451.767527
 20
274.4
 30
0.0
  0
ENDBLK
  5
4A1
330
496
100
AcDbEntity
  8
0
100
AcDbBlockEnd
  0
BLOCK
  5
4DC
330
4DB
100
AcDbEntity
  8
0
100
AcDbBlockBegin
  2
*X1725
 70
     1
 71
     0
 10
0.0
 20
0.0
 30
0.0
  3
*X1725
  1

  4
*X17
  0
LINE
  5
4DE
330
4DB
100
AcDbEntity
  8
LC-006-005-----0
 62
     7
370
    25
100
AcDbLine
 10
286.560914
 20
446.001711
 30
0.0
 11
286.582897
 21
445.979729
 31
0.0
  0
LINE
  5
4DF
330
4DB
100
AcDbEntity
  8
LC-006-005-----0
 62
     7
370
    25
100
AcDbLine
 10
286.560914
 20
448.830138
 30
0.0
 11
289.411324
 21
445.979729
 31
0.0
  0
LINE
  5
4E0
330
4DB
100
AcDbEntity
  8
LC-006-005-----0
 62
     7
370
    25
100
AcDbLine
 10
289.239751
 20
448.979729
 30
0.0
 11
292.239751
 21
445.979729
 31
0.0
  0
LINE
  5
4E1
330
4DB
100
AcDbEntity
  8
LC-006-005-----0
 62
     7
370
    25
100
AcDbLine
 10
289.310914
 20
451.736992
 30
0.0
 11
295.068152
 21
445.979755
 31
0.0
  0
LINE
  5
4E2
330
4DB
100
AcDbEntity
  8
LC-006-005-----0
 62
     7
370
    25
100
AcDbLine
 10
289.310914
 20
454.565419
 30
0.0
 11
296.060914
 21
447.815419
 31
0.0
  0
LINE
  5
4E3
330
4DB
100
AcDbEntity
  8
LC-006-005-----0
 62
     7
370
    25
100
AcDbLine
 10
289.310914
 20
457.393847
 30
0.0
 11
296.060914
 21
450.643847
 31
0.0
  0
LINE
  5
4E4
330
4DB
100
AcDbEntity
  8
LC-006-005-----0
 62
     7
370
    25
100
AcDbLine
 10
289.310914
 20
460.222274
 30
0.0
 11
296.060914
 21
453.472274
 31
0.0
  0
LINE
  5
4E5
330
4DB
100
AcDbEntity
  8
LC-006-005-----0
 62
     7
370
    25
100
AcDbLine
 10
289.310914
 20
463.050701
 30
0.0
 11
296.060914
 21
456.300701
 31
0.0
  0
LINE
  5
4E6
330
4DB
100
AcDbEntity
  8
LC-006-005-----0
 62
     7
370
    25
100
AcDbLine
 10
290.491719
 20
464.698324
 30
0.0
 11
296.060914
 21
459.129128
 31
0.0
  0
LINE
  5
4E7
330
4DB
100
AcDbEntity
  8
LC-006-005-----0
 62
     7
370
    25
100
AcDbLine
 10
293.135289
 20
464.88318
 30
0.0
 11
296.060914
 21
461.957555
 31
0.0
  0
LINE
  5
4E8
330
4DB
100
AcDbEntity
  8
LC-006-005-----0
 62
     7
370
    25
100
AcDbLine
 10
295.77886
 20
465.068036
 30
0.0
 11
298.121174
 21
462.725722
 31
0.0
  0
LINE
  5
4E9
330
4DB
100
AcDbEntity
  8
LC-006-005-----0
 62
     7
370
    25
100
AcDbLine
 10
298.422431
 20
465.252893
 30
0.0
 11
300.764745
 21
462.910579
 31
0.0
  0
LINE
  5
4EA
330
4DB
100
AcDbEntity
  8
LC-006-005-----0
 62
     7
370
    25
100
AcDbLine
 10
301.066001
 20
465.437749
 30
0.0
 11
303.408316
 21
463.095435
 31
0.0
  0
LINE
  5
4EB
330
4DB
100
AcDbEntity
  8
LC-006-005-----0
 62
     7
370
    25
100
AcDbLine
 10
306.0607
 20
460.443051
 30
0.0
 11
307.524022
 21
458.979729
 31
0.0
  0
LINE
  5
4EC
330
4DB
100
AcDbEntity
  8
LC-006-005-----0
 62
     7
370
    25
100
AcDbLine
 10
303.709572
 20
465.622606
 30
0.0
 11
306.051886
 21
463.280292
 31
0.0
  0
LINE
  5
4ED
330
4DB
100
AcDbEntity
  8
LC-006-005-----0
 62
     7
370
    25
100
AcDbLine
 10
306.0607
 20
463.271478
 30
0.0
 11
308.128622
 21
461.203556
 31
0.0
  0
LINE
  5
4EE
330
4DB
100
AcDbEntity
  8
LC-006-005-----0
 62
     7
370
    25
100
AcDbLine
 10
306.353143
 20
465.807462
 30
0.0
 11
308.482193
 21
463.678412
 31
0.0
  0
ENDBLK
  5
4DD
330
4DB
100
AcDbEntity
  8
0
100
AcDbBlockEnd
  0
BLOCK
  5
4F1
330
4F0
100
AcDbEntity
  8
0
100
AcDbBlockBegin
  2
*X1826
 70
     1
 71
     0
 10
0.0
 20
0.0
 30
0.0
  3
*X1826
  1

  4
*X18
  0
LINE
  5
4F3
330
4F0
100
AcDbEntity
  8
LC-006-005-----0
 62
     7
370
    25
100
AcDbLine
 10
126.278617
 20
459.205798
 30
0.0
 11
126.504686
 21
458.979729
 31
0.0
  0
LINE
  5
4F4
330
4F0
100
AcDbEntity
  8
LC-006-005-----0
 62
     7
370
    25
100
AcDbLine
 10
138.060914
 20
447.4235
 30
0.0
 11
139.504686
 21
445.979729
 31
0.0
  0
LINE
  5
4F5
330
4F0
100
AcDbEntity
  8
LC-006-005-----0
 62
     7
370
    25
100
AcDbLine
 10
125.807181
 20
462.505661
 30
0.0
 11
128.061129
 21
460.251713
 31
0.0
  0
LINE
  5
4F6
330
4F0
100
AcDbEntity
  8
LC-006-005-----0
 62
     7
370
    25
100
AcDbLine
 10
138.060914
 20
450.251928
 30
0.0
 11
142.333113
 21
445.979729
 31
0.0
  0
LINE
  5
4F7
330
4F0
100
AcDbEntity
  8
LC-006-005-----0
 62
     7
370
    25
100
AcDbLine
 10
125.335745
 20
465.805524
 30
0.0
 11
128.061129
 21
463.08014
 31
0.0
  0
LINE
  5
4F8
330
4F0
100
AcDbEntity
  8
LC-006-005-----0
 62
     7
370
    25
100
AcDbLine
 10
138.060914
 20
453.080355
 30
0.0
 11
145.16154
 21
445.979729
 31
0.0
  0
LINE
  5
4F9
330
4F0
100
AcDbEntity
  8
LC-006-005-----0
 62
     7
370
    25
100
AcDbLine
 10
128.191822
 20
465.777874
 30
0.0
 11
130.886347
 21
463.08335
 31
0.0
  0
LINE
  5
4FA
330
4F0
100
AcDbEntity
  8
LC-006-005-----0
 62
     7
370
    25
100
AcDbLine
 10
138.060914
 20
455.908782
 30
0.0
 11
144.810914
 21
449.158782
 31
0.0
  0
LINE
  5
4FB
330
4F0
100
AcDbEntity
  8
LC-006-005-----0
 62
     7
370
    25
100
AcDbLine
 10
144.989968
 20
448.979729
 30
0.0
 11
147.560914
 21
446.408782
 31
0.0
  0
LINE
  5
4FC
330
4F0
100
AcDbEntity
  8
LC-006-005-----0
 62
     7
370
    25
100
AcDbLine
 10
131.232903
 20
465.565221
 30
0.0
 11
133.927427
 21
462.870697
 31
0.0
  0
LINE
  5
4FD
330
4F0
100
AcDbEntity
  8
LC-006-005-----0
 62
     7
370
    25
100
AcDbLine
 10
138.060914
 20
458.737209
 30
0.0
 11
144.810914
 21
451.987209
 31
0.0
  0
LINE
  5
4FE
330
4F0
100
AcDbEntity
  8
LC-006-005-----0
 62
     7
370
    25
100
AcDbLine
 10
134.273983
 20
465.352568
 30
0.0
 11
136.968507
 21
462.658043
 31
0.0
  0
LINE
  5
4FF
330
4F0
100
AcDbEntity
  8
LC-006-005-----0
 62
     7
370
    25
100
AcDbLine
 10
138.060914
 20
461.565636
 30
0.0
 11
144.810914
 21
454.815636
 31
0.0
  0
LINE
  5
500
330
4F0
100
AcDbEntity
  8
LC-006-005-----0
 62
     7
370
    25
100
AcDbLine
 10
137.315063
 20
465.139915
 30
0.0
 11
144.810914
 21
457.644063
 31
0.0
  0
LINE
  5
501
330
4F0
100
AcDbEntity
  8
LC-006-005-----0
 62
     7
370
    25
100
AcDbLine
 10
140.356143
 20
464.927262
 30
0.0
 11
144.810914
 21
460.47249
 31
0.0
  0
LINE
  5
502
330
4F0
100
AcDbEntity
  8
LC-006-005-----0
 62
     7
370
    25
100
AcDbLine
 10
143.397223
 20
464.714609
 30
0.0
 11
144.810914
 21
463.300917
 31
0.0
  0
ENDBLK
  5
4F2
330
4F0
100
AcDbEntity
  8
0
100
AcDbBlockEnd
  0
BLOCK
  5
51D
330
512
100
AcDbEntity
  8
0
100
AcDbBlockBegin
  2
*D27
 70
     1
 71
     0
 10
0.0
 20
0.0
 30
0.0
  3
*D27
  1

  0
LINE
  5
513
330
512
100
AcDbEntity
  8
LC-005-003-----0
 62
     2
370
    -2
100
AcDbLine
 10
212.563
 20
426.272586
 30
0.0
 11
106.755004
 21
426.272586
 31
0.0
  0
LINE
  5
514
330
512
100
AcDbEntity
  8
LC-005-003-----0
 62
     2
370
    -2
100
AcDbLine
 10
156.06066
 20
376.245012
 30
0.0
 11
106.755004
 21
376.245012
 31
0.0
  0
LINE
  5
515
330
512
100
AcDbEntity
  8
LC-005-003-----0
 62
     2
370
    -2
100
AcDbLine
 10
110.355004
 20
348.245012
 30
0.0
 11
110.355004
 21
320.245012
 31
0.0
  0
LINE
  5
516
330
512
100
AcDbEntity
  8
LC-005-003-----0
 62
     2
370
    -2
100
AcDbLine
 10
110.355004
 20
454.272586
 30
0.0
 11
110.355004
 21
520.016138
 31
0.0
  0
SOLID
  5
517
330
512
100
AcDbEntity
  8
LC-005-003-----0
 62
     2
100
AcDbTrace
 10
105.688337
 20
454.272586
 30
0.0
 11
115.021671
 21
454.272586
 31
0.0
 12
110.355004
 22
426.272586
 32
0.0
 13
110.355004
 23
426.272586
 33
0.0
  0
SOLID
  5
518
330
512
100
AcDbEntity
  8
LC-005-003-----0
 62
     2
100
AcDbTrace
 10
115.021671
 20
348.245012
 30
0.0
 11
105.688337
 21
348.245012
 31
0.0
 12
110.355004
 22
376.245012
 32
0.0
 13
110.355004
 23
376.245012
 33
0.0
  0
MTEXT
  5
519
330
512
100
AcDbEntity
  8
LC-005-003-----0
 62
     2
100
AcDbMText
 10
79.555004
 20
497.093912
 30
0.0
 40
28.0
 41
0.0
 71
     5
 72
     1
  1
\A1;50
  7
LCTX15-400-0-0pDIN-Schrift
 11
6.123031769111886E-17
 21
1.0
 31
0.0
 73
     1
 44
1.0
  0
POINT
  5
51A
330
512
100
AcDbEntity
  8
Defpoints
 62
     0
100
AcDbPoint
 10
212.563
 20
426.272586
 30
0.0
  0
POINT
  5
51B
330
512
100
AcDbEntity
  8
Defpoints
 62
     0
100
AcDbPoint
 10
156.06066
 20
376.245012
 30
0.0
  0
POINT
  5
51C
330
512
100
AcDbEntity
  8
Defpoints
 62
     0
100
AcDbPoint
 10
110.355004
 20
376.245012
 30
0.0
  0
ENDBLK
  5
51E
330
512
100
AcDbEntity
  8
0
100
AcDbBlockEnd
  0
BLOCK
  5
521
330
520
100
AcDbEntity
  8
0
100
AcDbBlockBegin
  2
*X1928
 70
     1
 71
     0
 10
0.0
 20
0.0
 30
0.0
  3
*X1928
  1

  4
*X19
  0
LINE
  5
523
330
520
100
AcDbEntity
  8
LC-006-005-----0
 62
     7
370
    25
100
AcDbLine
 10
152.925585
 20
429.730403
 30
0.0
 11
155.136956
 21
427.519031
 31
0.0
  0
LINE
  5
524
330
520
100
AcDbEntity
  8
LC-006-005-----0
 62
     7
370
    25
100
AcDbLine
 10
152.880867
 20
431.189334
 30
0.0
 11
156.466009
 21
427.604192
 31
0.0
  0
LINE
  5
525
330
520
100
AcDbEntity
  8
LC-006-005-----0
 62
     7
370
    25
100
AcDbLine
 10
152.893792
 20
432.590623
 30
0.0
 11
157.381171
 21
428.103244
 31
0.0
  0
LINE
  5
526
330
520
100
AcDbEntity
  8
LC-006-005-----0
 62
     7
370
    25
100
AcDbLine
 10
153.231181
 20
433.667447
 30
0.0
 11
158.025838
 21
428.872791
 31
0.0
  0
LINE
  5
527
330
520
100
AcDbEntity
  8
LC-006-005-----0
 62
     7
370
    25
100
AcDbLine
 10
153.873394
 20
434.439447
 30
0.0
 11
158.366756
 21
429.946086
 31
0.0
  0
LINE
  5
528
330
520
100
AcDbEntity
  8
LC-006-005-----0
 62
     7
370
    25
100
AcDbLine
 10
154.785803
 20
434.941252
 30
0.0
 11
158.380867
 21
431.346189
 31
0.0
  0
LINE
  5
529
330
520
100
AcDbEntity
  8
LC-006-005-----0
 62
     7
370
    25
100
AcDbLine
 10
156.108806
 20
435.032463
 30
0.0
 11
158.339017
 21
432.802252
 31
0.0
  0
ENDBLK
  5
522
330
520
100
AcDbEntity
  8
0
100
AcDbBlockEnd
  0
BLOCK
  5
536
330
52C
100
AcDbEntity
  8
0
100
AcDbBlockBegin
  2
*D29
 70
     1
 71
     0
 10
0.0
 20
0.0
 30
0.0
  3
*D29
  1

  0
LINE
  5
52D
330
52C
100
AcDbEntity
  8
LC-005-003-----0
 62
     2
370
    -2
100
AcDbLine
 10
121.810914
 20
458.539408
 30
0.0
 11
121.810914
 21
513.2
 31
0.0
  0
LINE
  5
52E
330
52C
100
AcDbEntity
  8
LC-005-003-----0
 62
     2
370
    -2
100
AcDbLine
 10
312.310914
 20
459.539408
 30
0.0
 11
312.310914
 21
513.2
 31
0.0
  0
LINE
  5
52F
330
52C
100
AcDbEntity
  8
LC-005-003-----0
 62
     2
370
    -2
100
AcDbLine
 10
149.810914
 20
509.6
 30
0.0
 11
284.310914
 21
509.6
 31
0.0
  0
SOLID
  5
530
330
52C
100
AcDbEntity
  8
LC-005-003-----0
 62
     2
100
AcDbTrace
 10
149.810914
 20
514.266667
 30
0.0
 11
149.810914
 21
504.933333
 31
0.0
 12
121.810914
 22
509.6
 32
0.0
 13
121.810914
 23
509.6
 33
0.0
  0
SOLID
  5
531
330
52C
100
AcDbEntity
  8
LC-005-003-----0
 62
     2
100
AcDbTrace
 10
284.310914
 20
504.933333
 30
0.0
 11
284.310914
 21
514.266667
 31
0.0
 12
312.310914
 22
509.6
 32
0.0
 13
312.310914
 23
509.6
 33
0.0
  0
MTEXT
  5
532
330
52C
100
AcDbEntity
  8
LC-005-003-----0
 62
     2
100
AcDbMText
 10
217.060914
 20
540.4
 30
0.0
 40
28.0
 41
0.0
 71
     5
 72
     1
  1
\A1;%%c190
  7
LCTX15-400-0-0pDIN-Schrift
 73
     1
 44
1.0
  0
POINT
  5
533
330
52C
100
AcDbEntity
  8
Defpoints
 62
     0
100
AcDbPoint
 10
121.810914
 20
458.539408
 30
0.0
  0
POINT
  5
534
330
52C
100
AcDbEntity
  8
Defpoints
 62
     0
100
AcDbPoint
 10
312.310914
 20
459.539408
 30
0.0
  0
POINT
  5
535
330
52C
100
AcDbEntity
  8
Defpoints
 62
     0
100
AcDbPoint
 10
312.310914
 20
509.6
 30
0.0
  0
ENDBLK
  5
537
330
52C
100
AcDbEntity
  8
0
100
AcDbBlockEnd
  0
ENDSEC
  0
SECTION
  2
ENTITIES
  0
LINE
  5
32
330
1F
100
AcDbEntity
  8
LC-001-002-----0
 62
     7
370
    50
100
AcDbLine
 10
188.800309
 20
360.276134
 30
0.0
 11
188.800309
 21
377.156326
 31
0.0
  0
LINE
  5
33
330
1F
100
AcDbEntity
  8
LC-001-002-----0
 62
     7
370
    50
100
AcDbLine
 10
186.800309
 20
365.276134
 30
0.0
 11
186.800309
 21
377.156326
 31
0.0
  0
LINE
  5
35
330
1F
100
AcDbEntity
  8
LC-002-207-----0
 62
     7
370
    50
100
AcDbLine
 10
188.800309
 20
360.276134
 30
0.0
 11
259.560914
 21
360.276134
 31
0.0
  0
ARC
  5
37
330
1F
100
AcDbEntity
  8
LC-003-207-RND-0
 62
     7
370
    50
100
AcDbCircle
 10
181.800309
 20
365.276134
 30
0.0
 40
5.0
100
AcDbArc
 50
270.0
 51
0.0
  0
LINE
  5
38
330
1F
100
AcDbEntity
  8
LC-001-002-----0
 62
     7
370
    50
100
AcDbLine
 10
261.560914
 20
374.493822
 30
0.0
 11
261.560914
 21
357.276134
 31
0.0
  0
LINE
  5
39
330
1F
100
AcDbEntity
  8
LC-001-002-----0
 62
     7
370
    50
100
AcDbLine
 10
177.060914
 20
360.276134
 30
0.0
 11
177.060914
 21
377.156326
 31
0.0
  0
LINE
  5
3A
330
1F
100
AcDbEntity
  8
LC-001-002-----0
 62
     7
370
    50
100
AcDbLine
 10
177.060914
 20
377.188302
 30
0.0
 11
186.800309
 21
377.188302
 31
0.0
  0
LINE
  5
3B
330
1F
100
AcDbEntity
  8
LC-001-002-----0
 62
     7
370
    50
100
AcDbLine
 10
278.540942
 20
376.469266
 30
0.0
 11
261.560914
 21
376.995155
 31
0.0
  0
LINE
  5
3C
330
1F
100
AcDbEntity
  8
LC-001-002-----0
 62
     7
370
    50
100
AcDbLine
 10
281.560914
 20
423.963997
 30
0.0
 11
281.560914
 21
423.75394
 31
0.0
  0
LINE
  5
3D
330
1F
100
AcDbEntity
  8
LC-001-002-----0
 62
     7
370
    50
100
AcDbLine
 10
155.560914
 20
380.278118
 30
0.0
 11
156.060662
 21
380.261799
 31
0.0
  0
ARC
  5
3E
330
1F
100
AcDbEntity
  8
LC-001-002-----0
 62
     7
370
    50
100
AcDbCircle
 10
276.560914
 20
372.028298
 30
0.0
 40
2.0
100
AcDbArc
 50
0.0
 51
88.226057
  0
LINE
  5
3F
330
1F
100
AcDbEntity
  8
LC-001-002-----0
 62
     7
370
    50
100
AcDbLine
 10
156.06066
 20
377.761274
 30
0.0
 11
155.560914
 21
377.776752
 31
0.0
  0
ARC
  5
41
330
1F
100
AcDbEntity
  8
LC-004-002-RND-0
 62
     7
370
    50
100
AcDbCircle
 10
297.96267
 20
436.463997
 30
0.0
 40
3.0
100
AcDbArc
 50
270.0
 51
335.025313
  0
LINE
  5
42
330
1F
100
AcDbEntity
  8
LC-001-002-----0
 62
     7
370
    50
100
AcDbLine
 10
276.622827
 20
374.027339
 30
0.0
 11
261.560914
 21
374.493822
 31
0.0
  0
LINE
  5
43
330
1F
100
AcDbEntity
  8
LC-001-002-----0
 62
     7
370
    50
100
AcDbLine
 10
278.560914
 20
426.272586
 30
0.0
 11
278.560914
 21
421.054815
 31
0.0
  0
LINE
  5
44
330
1F
100
AcDbEntity
  8
LC-001-002-----0
 62
     7
370
    50
100
AcDbLine
 10
155.560914
 20
426.272586
 30
0.0
 11
155.560914
 21
380.278118
 31
0.0
  0
LINE
  5
45
330
1F
100
AcDbEntity
  8
LC-001-002-----0
 62
     7
370
    50
100
AcDbLine
 10
155.560914
 20
377.776752
 30
0.0
 11
155.560914
 21
360.276134
 31
0.0
  0
LINE
  5
46
330
1F
100
AcDbEntity
  8
LC-001-002-----0
 62
     7
370
    50
100
AcDbLine
 10
186.800309
 20
377.188302
 30
0.0
 11
188.800309
 21
377.188302
 31
0.0
  0
ARC
  5
47
330
1F
100
AcDbEntity
  8
LC-004-002-RND-0
 62
     7
370
    50
100
AcDbCircle
 10
122.310914
 20
462.512278
 30
0.0
 40
0.5
100
AcDbArc
 50
0.0
 51
86.000003
  0
DIMENSION
  5
4B
330
1F
100
AcDbEntity
  8
LC-005-003-----0
 62
     7
370
    25
100
AcDbDimension
  2
*D1
 10
39.2
 20
357.276134
 30
0.0
 11
8.4
 21
413.117771
 31
0.0
 70
   160
  1
110
 71
     5
 42
111.683273
 53
90.0
  3
LC-DIM-L-0140-02-02
100
AcDbAlignedDimension
 13
66.060914
 23
468.959407
 33
0.0
 14
152.560914
 24
357.276134
 34
0.0
 50
90.0
100
AcDbRotatedDimension
  0
LINE
  5
59
330
1F
100
AcDbEntity
  8
LC-001-002-----0
 62
     7
370
    50
100
AcDbLine
 10
368.060914
 20
471.966605
 30
0.0
 11
217.060914
 21
471.966605
 31
0.0
  0
ARC
  5
5A
330
1F
100
AcDbEntity
  8
LC-004-002-RND-0
 62
     7
370
    50
100
AcDbCircle
 10
152.560914
 20
426.963997
 30
0.0
 40
3.0
100
AcDbArc
 50
180.0
 51
270.0
  0
LINE
  5
5B
330
1F
100
AcDbEntity
  8
LC-001-002-----0
 62
     7
370
    50
100
AcDbLine
 10
278.54094
 20
426.272586
 30
0.0
 11
281.239898
 21
426.272586
 31
0.0
  0
LINE
  5
5C
330
1F
100
AcDbEntity
  8
LC-001-002-----0
 62
     7
370
    50
100
AcDbLine
 10
151.382397
 20
436.468348
 30
0.0
 11
141.203738
 21
436.468348
 31
0.0
  0
ARC
  5
5D
330
1F
100
AcDbEntity
  8
LC-004-002-RND-0
 62
     7
370
    50
100
AcDbCircle
 10
141.203738
 20
438.457704
 30
0.0
 40
1.999352000000499
100
AcDbArc
 50
180.0
 51
270.0
  0
LINE
  5
5E
330
1F
100
AcDbEntity
  8
LC-001-002-----0
 62
     7
370
    50
100
AcDbLine
 10
139.204386
 20
442.363365
 30
0.0
 11
139.204386
 21
440.863365
 31
0.0
  0
LINE
  5
5F
330
1F
100
AcDbEntity
  8
LC-001-002-----0
 62
     7
370
    50
100
AcDbLine
 10
136.155075
 20
433.463997
 30
0.0
 11
146.060914
 21
433.463997
 31
0.0
  0
ARC
  5
60
330
1F
100
AcDbEntity
  8
LC-004-002-RND-0
 62
     7
370
    50
100
AcDbCircle
 10
136.155075
 20
436.463025
 30
0.0
 40
2.999028000000568
100
AcDbArc
 50
202.352488
 51
270.0
  0
LINE
  5
61
330
1F
100
AcDbEntity
  8
LC-001-002-----0
 62
     7
370
    50
100
AcDbLine
 10
128.060914
 20
446.745451
 30
0.0
 11
133.49725
 21
435.073732
 31
0.0
  0
LINE
  5
62
330
1F
100
AcDbEntity
  8
LC-001-002-----0
 62
     7
370
    50
100
AcDbLine
 10
128.311621
 20
463.089171
 30
0.0
 11
129.811621
 21
462.980167
 31
0.0
  0
DIMENSION
  5
63
330
1F
100
AcDbEntity
  8
LC-005-003-----0
 62
     7
370
    25
100
AcDbDimension
  2
*D2
 10
451.759187
 20
313.6
 30
0.0
 11
279.536392
 21
344.4
 31
0.0
 70
   160
  1
235
 71
     5
 42
234.698272
  3
LC-DIM-L-0140-02-02
100
AcDbAlignedDimension
 13
217.060914
 23
360.276134
 33
0.0
 14
451.759187
 24
380.928145
 34
0.0
100
AcDbRotatedDimension
  0
LINE
  5
70
330
1F
100
AcDbEntity
  8
LC-001-002-----0
 62
     7
370
    50
100
AcDbLine
 10
153.181814
 20
426.272586
 30
0.0
 11
155.580889
 21
426.272586
 31
0.0
  0
LINE
  5
71
330
1F
100
AcDbEntity
  8
LC-001-002-----0
 62
     7
370
    50
100
AcDbLine
 10
152.881911
 20
426.572489
 30
0.0
 11
152.881911
 21
428.35215
 31
0.0
  0
LINE
  5
72
330
1F
100
AcDbEntity
  8
LC-001-002-----0
 62
     7
370
    50
100
AcDbLine
 10
66.060914
 20
471.966605
 30
0.0
 11
66.060914
 21
468.959407
 31
0.0
  0
LINE
  5
73
330
1F
100
AcDbEntity
  8
LC-001-002-----0
 62
     7
370
    50
100
AcDbLine
 10
281.239909
 20
428.352144
 30
0.0
 11
281.239909
 21
426.272586
 31
0.0
  0
LINE
  5
74
330
1F
100
AcDbEntity
  8
LC-001-002-----0
 62
     7
370
    50
100
AcDbLine
 10
294.717443
 20
444.363365
 30
0.0
 11
294.917443
 21
444.363365
 31
0.0
  0
LINE
  5
75
330
1F
100
AcDbEntity
  8
LC-001-002-----0
 62
     7
370
    50
100
AcDbLine
 10
300.35549
 20
423.75394
 30
0.0
 11
281.560914
 21
423.75394
 31
0.0
  0
ARC
  5
76
330
1F
100
AcDbEntity
  8
LC-001-002-----0
 62
     7
370
    50
100
AcDbCircle
 10
153.181814
 20
426.572489
 30
0.0
 40
0.2999028000000408
100
AcDbArc
 50
180.0
 51
270.0
  0
LINE
  5
77
330
1F
100
AcDbEntity
  8
LC-001-002-----0
 62
     7
370
    50
100
AcDbLine
 10
294.717443
 20
442.363365
 30
0.0
 11
294.917443
 21
442.363365
 31
0.0
  0
ARC
  5
78
330
1F
100
AcDbEntity
  8
LC-001-002-----0
 62
     7
370
    50
100
AcDbCircle
 10
151.382397
 20
434.968834
 30
0.0
 40
1.499514000000318
100
AcDbArc
 50
0.0
 51
90.0
  0
LINE
  5
7A
330
1F
100
AcDbEntity
  8
LC-001-002-----0
  6
DASHDOT
 62
     7
370
    25
100
AcDbLine
 10
217.060914
 20
471.966605
 30
0.0
 11
217.060914
 21
357.276134
 31
0.0
  0
LINE
  5
7B
330
1F
100
AcDbEntity
  8
LC-001-002-----0
 62
     7
370
    50
100
AcDbLine
 10
152.881911
 20
434.193022
 30
0.0
 11
152.881911
 21
434.968834
 31
0.0
  0
LINE
  5
7C
330
1F
100
AcDbEntity
  8
LC-001-002-----0
 62
     7
370
    50
100
AcDbLine
 10
322.125761
 20
423.753843
 30
0.0
 11
326.624303
 21
423.754717
 31
0.0
  0
LINE
  5
7D
330
1F
100
AcDbEntity
  8
LC-001-002-----0
 62
     7
370
    50
100
AcDbLine
 10
333.622035
 20
422.441793
 30
0.0
 11
333.622035
 21
421.054815
 31
0.0
  0
LINE
  5
7E
330
1F
100
AcDbEntity
  8
LC-001-002-----0
 62
     7
370
    50
100
AcDbLine
 10
326.624303
 20
426.293602
 30
0.0
 11
326.624303
 21
423.754717
 31
0.0
  0
LINE
  5
7F
330
1F
100
AcDbEntity
  8
LC-001-002-----0
 62
     7
370
    50
100
AcDbLine
 10
322.125761
 20
427.62513
 30
0.0
 11
322.125761
 21
423.753843
 31
0.0
  0
LINE
  5
80
330
1F
100
AcDbEntity
  8
LC-001-002-----0
 62
     7
370
    50
100
AcDbLine
 10
333.622035
 20
421.054815
 30
0.0
 11
278.540942
 21
421.054815
 31
0.0
  0
LINE
  5
81
330
1F
100
AcDbEntity
  8
LC-001-002-----0
 62
     7
370
    50
100
AcDbLine
 10
122.810914
 20
456.807357
 30
0.0
 11
122.810914
 21
456.539408
 31
0.0
  0
ARC
  5
82
330
1F
100
AcDbEntity
  8
LC-001-002-----0
 62
     7
370
    50
100
AcDbCircle
 10
295.901663
 20
400.783715
 30
0.0
 40
26.68917639480137
100
AcDbArc
 50
130.577646
 51
245.647084
  0
LINE
  5
83
330
1F
100
AcDbEntity
  8
LC-001-002-----0
 62
     7
370
    50
100
AcDbLine
 10
300.35549
 20
373.77014
 30
0.0
 11
283.560914
 21
373.77014
 31
0.0
  0
LINE
  5
84
330
1F
100
AcDbEntity
  8
LC-001-002-----0
 62
     7
370
    50
100
AcDbLine
 10
333.622035
 20
376.469266
 30
0.0
 11
278.540942
 21
376.469266
 31
0.0
  0
LINE
  5
85
330
1F
100
AcDbEntity
  8
LC-001-002-----0
 62
     7
370
    50
100
AcDbLine
 10
66.060914
 20
471.966605
 30
0.0
 11
217.060914
 21
471.966605
 31
0.0
  0
ARC
  5
86
330
1F
100
AcDbEntity
  8
LC-004-002-RND-0
 62
     7
370
    50
100
AcDbCircle
 10
139.404386
 20
443.163365
 30
0.0
 40
0.7999999999999545
100
AcDbArc
 50
270.0
 51
0.0
  0
LINE
  5
87
330
1F
100
AcDbEntity
  8
LC-001-002-----0
 62
     7
370
    50
100
AcDbLine
 10
149.560914
 20
429.963997
 30
0.0
 11
149.560914
 21
426.963997
 31
0.0
  0
LINE
  5
88
330
1F
100
AcDbEntity
  8
LC-001-002-----0
 62
     7
370
    50
100
AcDbLine
 10
106.060914
 20
464.149808
 30
0.0
 11
122.345793
 21
463.01106
 31
0.0
  0
ARC
  5
89
330
1F
100
AcDbEntity
  8
LC-004-002-RND-0
 62
     7
370
    50
100
AcDbCircle
 10
125.310914
 20
456.539408
 30
0.0
 40
2.5
100
AcDbArc
 50
180.0
 51
270.0
  0
ARC
  5
8A
330
1F
100
AcDbEntity
  8
LC-004-002-RND-0
 62
     7
370
    50
100
AcDbCircle
 10
311.810914
 20
462.512278
 30
0.0
 40
0.4999999999999862
100
AcDbArc
 50
93.999997
 51
180.0
  0
LINE
  5
8B
330
1F
100
AcDbEntity
  8
LC-001-002-----0
 62
     7
370
    50
100
AcDbLine
 10
122.810914
 20
462.512278
 30
0.0
 11
122.810914
 21
460.539408
 31
0.0
  0
LINE
  5
8C
330
1F
100
AcDbEntity
  8
LC-001-002-----0
 62
     7
370
    50
100
AcDbLine
 10
125.310914
 20
454.039408
 30
0.0
 11
127.060914
 21
454.039408
 31
0.0
  0
ARC
  5
8D
330
1F
100
AcDbEntity
  8
LC-001-002-----0
 62
     7
370
    50
100
AcDbCircle
 10
116.800589
 20
489.708654
 30
0.0
 40
23.36150376404853
100
AcDbArc
 50
241.241457
 51
259.497843
  0
INSERT
  5
98
330
1F
100
AcDbEntity
  8
LC-006-005-----0
 62
     7
370
    25
100
AcDbBlockReference
  2
*X13
 10
0.0
 20
0.0
 30
0.0
  0
LINE
  5
99
330
1F
100
AcDbEntity
  8
LC-001-002-----0
 62
     7
370
    50
100
AcDbLine
 10
66.060914
 20
471.966605
 30
0.0
 11
105.560914
 21
469.228674
 31
0.0
  0
LINE
  5
9A
330
1F
100
AcDbEntity
  8
LC-001-002-----0
 62
     7
370
    50
100
AcDbLine
 10
125.213003
 20
465.817739
 30
0.0
 11
112.542428
 21
466.738501
 31
0.0
  0
LINE
  5
9B
330
1F
100
AcDbEntity
  8
LC-001-002-----0
  6
DASHDOT
 62
     7
370
    25
100
AcDbLine
 10
269.289167
 20
398.76204
 30
0.0
 11
385.222484
 21
398.76204
 31
0.0
  0
LINE
  5
9C
330
1F
100
AcDbEntity
  8
LC-001-002-----0
 62
     7
370
    50
100
AcDbLine
 10
66.060914
 20
468.959407
 30
0.0
 11
98.060914
 21
466.741336
 31
0.0
  0
LINE
  5
9D
330
1F
100
AcDbEntity
  8
LC-001-002-----0
 62
     7
370
    50
100
AcDbLine
 10
368.060914
 20
468.959407
 30
0.0
 11
336.060914
 21
466.741336
 31
0.0
  0
LINE
  5
9E
330
1F
100
AcDbEntity
  8
LC-001-002-----0
 62
     7
370
    50
100
AcDbLine
 10
368.060914
 20
471.966605
 30
0.0
 11
328.560914
 21
469.228674
 31
0.0
  0
LINE
  5
9F
330
1F
100
AcDbEntity
  8
LC-001-002-----0
 62
     7
370
    50
100
AcDbLine
 10
368.060914
 20
471.966605
 30
0.0
 11
368.060914
 21
468.959407
 31
0.0
  0
ARC
  5
A0
330
1F
100
AcDbEntity
  8
LC-001-002-----0
 62
     7
370
    50
100
AcDbCircle
 10
317.32124
 20
489.708654
 30
0.0
 40
23.36150376404855
100
AcDbArc
 50
280.502157
 51
298.758543
  0
LINE
  5
A1
330
1F
100
AcDbEntity
  8
LC-001-002-----0
 62
     7
370
    50
100
AcDbLine
 10
308.908826
 20
465.817739
 30
0.0
 11
321.5794
 21
466.738501
 31
0.0
  0
LINE
  5
A2
330
1F
100
AcDbEntity
  8
LC-001-002-----0
 62
     7
370
    50
100
AcDbLine
 10
336.060914
 20
466.741336
 30
0.0
 11
328.060914
 21
464.149808
 31
0.0
  0
LINE
  5
A3
330
1F
100
AcDbEntity
  8
LC-001-002-----0
 62
     7
370
    50
100
AcDbLine
 10
328.060914
 20
464.149808
 30
0.0
 11
311.776036
 21
463.01106
 31
0.0
  0
LINE
  5
A4
330
1F
100
AcDbEntity
  8
LC-001-002-----0
 62
     7
370
    50
100
AcDbLine
 10
308.908826
 20
465.817739
 30
0.0
 11
308.908826
 21
458.132837
 31
0.0
  0
LINE
  5
A5
330
1F
100
AcDbEntity
  8
LC-001-002-----0
 62
     7
370
    50
100
AcDbLine
 10
305.810207
 20
456.983645
 30
0.0
 11
305.810207
 21
463.089171
 31
0.0
  0
LINE
  5
A6
330
1F
100
AcDbEntity
  8
LC-001-002-----0
 62
     7
370
    50
100
AcDbLine
 10
129.811621
 20
462.980167
 30
0.0
 11
129.811621
 21
461.763392
 31
0.0
  0
LINE
  5
A7
330
1F
100
AcDbEntity
  8
LC-001-002-----0
 62
     7
370
    50
100
AcDbLine
 10
333.622035
 20
422.441793
 30
0.0
 11
333.622035
 21
375.082288
 31
0.0
  0
INSERT
  5
EA
330
1F
100
AcDbEntity
  8
LC-006-005-----0
 62
     7
370
    25
100
AcDbBlockReference
  2
*X24
 10
0.0
 20
0.0
 30
0.0
  0
LINE
  5
EB
330
1F
100
AcDbEntity
  8
LC-001-002-----0
 62
     7
370
    50
100
AcDbLine
 10
322.125761
 20
369.89895
 30
0.0
 11
322.125761
 21
373.770238
 31
0.0
  0
LINE
  5
EC
330
1F
100
AcDbEntity
  8
LC-001-002-----0
 62
     7
370
    50
100
AcDbLine
 10
322.125761
 20
373.770238
 30
0.0
 11
326.624303
 21
373.769363
 31
0.0
  0
LINE
  5
ED
330
1F
100
AcDbEntity
  8
LC-001-002-----0
 62
     7
370
    50
100
AcDbLine
 10
326.624303
 20
371.230479
 30
0.0
 11
326.624303
 21
373.769363
 31
0.0
  0
ARC
  5
EE
330
1F
100
AcDbEntity
  8
LC-004-002-RND-0
 62
     7
370
    50
100
AcDbCircle
 10
126.213003
 20
458.132837
 30
0.0
 40
1.0
100
AcDbArc
 50
180.0
 51
266.0
  0
LINE
  5
EF
330
1F
100
AcDbEntity
  8
LC-001-002-----0
 62
     7
370
    50
100
AcDbLine
 10
281.239909
 20
434.963511
 30
0.0
 11
281.239909
 21
434.193028
 31
0.0
  0
LINE
  5
F0
330
1F
100
AcDbEntity
  8
LC-001-002-----0
 62
     7
370
    50
100
AcDbLine
 10
129.811621
 20
461.763392
 30
0.0
 11
130.311621
 21
460.897366
 31
0.0
  0
LINE
  5
F1
330
1F
100
AcDbEntity
  8
LC-001-002-----0
 62
     7
370
    50
100
AcDbLine
 10
304.310207
 20
462.980167
 30
0.0
 11
305.810207
 21
463.089171
 31
0.0
  0
LINE
  5
F2
330
1F
100
AcDbEntity
  8
LC-001-002-----0
 62
     7
370
    50
100
AcDbLine
 10
303.810207
 20
460.897366
 30
0.0
 11
303.810207
 21
446.662539
 31
0.0
  0
LINE
  5
F3
102
{ACAD_REACTORS
330
53C
102
}
330
1F
100
AcDbEntity
  8
LC-001-002-----0
  6
DASHDOT
 62
     7
370
    25
100
AcDbLine
 10
365.98551
 20
380.579312
 30
0.0
 11
316.028873
 21
398.76204
 31
0.0
  0
LINE
  5
F4
330
1F
100
AcDbEntity
  8
LC-001-002-----0
 62
     7
370
    50
100
AcDbLine
 10
294.717443
 20
440.863365
 30
0.0
 11
294.917443
 21
440.863365
 31
0.0
  0
LINE
  5
F5
330
1F
100
AcDbEntity
  8
LC-001-002-----0
 62
     7
370
    50
100
AcDbLine
 10
294.717443
 20
438.863365
 30
0.0
 11
294.917443
 21
438.863365
 31
0.0
  0
ARC
  5
F6
330
1F
100
AcDbEntity
  8
LC-001-002-----0
 62
     7
370
    50
100
AcDbCircle
 10
355.958873
 20
398.76204
 30
0.0
 40
29.50000000000287
100
AcDbArc
 50
290.030652
 51
309.782896
  0
ARC
  5
F7
330
1F
100
AcDbEntity
  8
LC-004-002-RND-0
 62
     7
370
    50
100
AcDbCircle
 10
302.310207
 20
446.662539
 30
0.0
 40
1.5
100
AcDbArc
 50
270.0
 51
0.0
  0
LINE
  5
F8
330
1F
100
AcDbEntity
  8
LC-001-002-----0
 62
     7
370
    50
100
AcDbLine
 10
322.125761
 20
423.753843
 30
0.0
 11
326.624303
 21
423.754717
 31
0.0
  0
ARC
  5
F9
330
1F
100
AcDbEntity
  8
LC-001-002-----0
 62
     7
370
    50
100
AcDbCircle
 10
316.028873
 20
398.76204
 30
0.0
 40
29.50000000000028
100
AcDbArc
 50
290.875532
 51
310.89311
  0
ARC
  5
FA
330
1F
100
AcDbEntity
  8
LC-001-002-----0
 62
     7
370
    50
100
AcDbCircle
 10
355.958873
 20
398.76204
 30
0.0
 40
29.50000000000147
100
AcDbArc
 50
76.100548
 51
103.4332
  0
LINE
  5
FB
330
1F
100
AcDbEntity
  8
LC-001-002-----0
  6
DASHDOT
 62
     7
370
    25
100
AcDbLine
 10
385.222484
 20
398.76204
 30
0.0
 11
451.759187
 21
380.928145
 31
0.0
  0
CIRCLE
  5
FC
330
1F
100
AcDbEntity
  8
LC-001-002-----0
 62
     7
370
    50
100
AcDbCircle
 10
324.624303
 20
425.770141
 30
0.0
 40
2.0
  0
CIRCLE
  5
FD
330
1F
100
AcDbEntity
  8
LC-001-002-----0
 62
     7
370
    50
100
AcDbCircle
 10
324.624303
 20
371.770141
 30
0.0
 40
2.0
  0
ARC
  5
FE
330
1F
100
AcDbEntity
  8
LC-001-002-----0
 62
     7
370
    50
100
AcDbCircle
 10
316.028873
 20
398.76204
 30
0.0
 40
29.49999999999982
100
AcDbArc
 50
75.57891
 51
102.996787
  0
LINE
  5
FF
330
1F
100
AcDbEntity
  8
LC-001-002-----0
 62
     7
370
    50
100
AcDbLine
 10
326.624303
 20
373.685604
 30
0.0
 11
326.624303
 21
371.770141
 31
0.0
  0
DIMENSION
  5
100
330
1F
100
AcDbEntity
  8
LC-005-003-----0
 62
     7
370
    25
100
AcDbDimension
  2
*D5
 10
368.060914
 20
548.8
 30
0.0
 11
217.060914
 21
579.6
 31
0.0
 70
   160
  1
%%c300
 71
     5
 42
302.0
  3
LC-DIM-L-0140-02-02
100
AcDbAlignedDimension
 13
66.060914
 23
471.966605
 33
0.0
 14
368.060914
 24
471.966605
 34
0.0
100
AcDbRotatedDimension
  0
CIRCLE
  5
10D
102
{ACAD_REACTORS
330
538
102
}
330
1F
100
AcDbEntity
  8
LC-001-002-----0
 62
     7
370
    50
100
AcDbCircle
 10
364.195747
 20
425.762233
 30
0.0
 40
2.0
  0
LINE
  5
10E
330
1F
100
AcDbEntity
  8
LC-006-005-----0
 62
     7
370
    25
100
AcDbLine
 10
152.560914
 20
376.006657
 30
0.0
 11
156.792168
 21
380.237911
 31
0.0
  0
LINE
  5
10F
330
1F
100
AcDbEntity
  8
LC-006-005-----0
 62
     7
370
    25
100
AcDbLine
 10
152.560914
 20
378.835084
 30
0.0
 11
155.560914
 21
381.835084
 31
0.0
  0
LINE
  5
110
330
1F
100
AcDbEntity
  8
LC-006-005-----0
 62
     7
370
    25
100
AcDbLine
 10
152.531439
 20
381.634037
 30
0.0
 11
155.560914
 21
384.663511
 31
0.0
  0
LINE
  5
111
330
1F
100
AcDbEntity
  8
LC-006-005-----0
 62
     7
370
    25
100
AcDbLine
 10
152.560914
 20
384.491939
 30
0.0
 11
155.560914
 21
387.491939
 31
0.0
  0
CIRCLE
  5
112
102
{ACAD_REACTORS
330
538
102
}
330
1F
100
AcDbEntity
  8
LC-001-002-----0
 62
     7
370
    50
100
AcDbCircle
 10
364.195747
 20
371.762233
 30
0.0
 40
2.0
  0
LINE
  5
113
330
1F
100
AcDbEntity
  8
LC-006-005-----0
 62
     7
370
    25
100
AcDbLine
 10
152.560914
 20
387.320366
 30
0.0
 11
155.560914
 21
390.320366
 31
0.0
  0
LINE
  5
114
330
1F
100
AcDbEntity
  8
LC-006-005-----0
 62
     7
370
    25
100
AcDbLine
 10
330.800221
 20
373.226628
 30
0.0
 11
333.622035
 21
376.048442
 31
0.0
  0
LINE
  5
115
330
1F
100
AcDbEntity
  8
LC-006-005-----0
 62
     7
370
    25
100
AcDbLine
 10
152.560914
 20
390.148793
 30
0.0
 11
155.560914
 21
393.148793
 31
0.0
  0
LINE
  5
116
330
1F
100
AcDbEntity
  8
LC-006-005-----0
 62
     7
370
    25
100
AcDbLine
 10
152.560914
 20
392.97722
 30
0.0
 11
155.560914
 21
395.97722
 31
0.0
  0
LINE
  5
117
330
1F
100
AcDbEntity
  8
LC-006-005-----0
 62
     7
370
    25
100
AcDbLine
 10
152.560914
 20
395.805647
 30
0.0
 11
155.560914
 21
398.805647
 31
0.0
  0
LINE
  5
118
330
1F
100
AcDbEntity
  8
LC-006-005-----0
 62
     7
370
    25
100
AcDbLine
 10
152.560914
 20
398.634074
 30
0.0
 11
155.560914
 21
401.634074
 31
0.0
  0
LINE
  5
119
330
1F
100
AcDbEntity
  8
LC-006-005-----0
 62
     7
370
    25
100
AcDbLine
 10
152.560914
 20
401.462501
 30
0.0
 11
155.560914
 21
404.462501
 31
0.0
  0
LINE
  5
11A
330
1F
100
AcDbEntity
  8
LC-006-005-----0
 62
     7
370
    25
100
AcDbLine
 10
152.560914
 20
404.290928
 30
0.0
 11
155.560914
 21
407.290928
 31
0.0
  0
LINE
  5
11B
330
1F
100
AcDbEntity
  8
LC-006-005-----0
 62
     7
370
    25
100
AcDbLine
 10
152.560914
 20
407.119356
 30
0.0
 11
155.560914
 21
410.119356
 31
0.0
  0
LINE
  5
11C
330
1F
100
AcDbEntity
  8
LC-006-005-----0
 62
     7
370
    25
100
AcDbLine
 10
152.560914
 20
409.947783
 30
0.0
 11
155.560914
 21
412.947783
 31
0.0
  0
LINE
  5
11D
330
1F
100
AcDbEntity
  8
LC-006-005-----0
 62
     7
370
    25
100
AcDbLine
 10
152.560914
 20
412.77621
 30
0.0
 11
155.560914
 21
415.77621
 31
0.0
  0
LINE
  5
11E
330
1F
100
AcDbEntity
  8
LC-006-005-----0
 62
     7
370
    25
100
AcDbLine
 10
152.560914
 20
415.604637
 30
0.0
 11
155.560914
 21
418.604637
 31
0.0
  0
LINE
  5
11F
330
1F
100
AcDbEntity
  8
LC-006-005-----0
 62
     7
370
    25
100
AcDbLine
 10
152.560914
 20
418.433064
 30
0.0
 11
155.560914
 21
421.433064
 31
0.0
  0
LINE
  5
120
330
1F
100
AcDbEntity
  8
LC-006-005-----0
 62
     7
370
    25
100
AcDbLine
 10
152.560914
 20
421.261491
 30
0.0
 11
155.560914
 21
424.261491
 31
0.0
  0
LINE
  5
121
330
1F
100
AcDbEntity
  8
LC-006-005-----0
 62
     7
370
    25
100
AcDbLine
 10
152.437531
 20
423.966535
 30
0.0
 11
154.743582
 21
426.272586
 31
0.0
  0
LINE
  5
122
330
1F
100
AcDbEntity
  8
LC-006-005-----0
 62
     7
370
    25
100
AcDbLine
 10
150.462543
 20
424.819974
 30
0.0
 11
152.881911
 21
427.239343
 31
0.0
  0
LINE
  5
123
330
1F
100
AcDbEntity
  8
LC-006-005-----0
 62
     7
370
    25
100
AcDbLine
 10
149.568265
 20
426.754123
 30
0.0
 11
152.881911
 21
430.06777
 31
0.0
  0
LINE
  5
124
330
1F
100
AcDbEntity
  8
LC-006-005-----0
 62
     7
370
    25
100
AcDbLine
 10
149.560914
 20
429.5752
 30
0.0
 11
152.881911
 21
432.896197
 31
0.0
  0
LINE
  5
125
330
1F
100
AcDbEntity
  8
LC-006-005-----0
 62
     7
370
    25
100
AcDbLine
 10
148.341099
 20
431.183812
 30
0.0
 11
152.74723
 21
435.589942
 31
0.0
  0
LINE
  5
126
330
1F
100
AcDbEntity
  8
LC-006-005-----0
 62
     7
370
    25
100
AcDbLine
 10
146.926886
 20
432.598025
 30
0.0
 11
150.797209
 21
436.468348
 31
0.0
  0
LINE
  5
127
330
1F
100
AcDbEntity
  8
LC-006-005-----0
 62
     7
370
    25
100
AcDbLine
 10
144.96443
 20
433.463997
 30
0.0
 11
147.968782
 21
436.468348
 31
0.0
  0
LINE
  5
128
330
1F
100
AcDbEntity
  8
LC-006-005-----0
 62
     7
370
    25
100
AcDbLine
 10
142.136003
 20
433.463997
 30
0.0
 11
145.140354
 21
436.468348
 31
0.0
  0
LINE
  5
129
330
1F
100
AcDbEntity
  8
LC-006-005-----0
 62
     7
370
    25
100
AcDbLine
 10
139.307576
 20
433.463997
 30
0.0
 11
142.311927
 21
436.468348
 31
0.0
  0
LINE
  5
12A
330
1F
100
AcDbEntity
  8
LC-006-005-----0
 62
     7
370
    25
100
AcDbLine
 10
136.479149
 20
433.463997
 30
0.0
 11
139.930959
 21
436.915808
 31
0.0
  0
LINE
  5
12B
330
1F
100
AcDbEntity
  8
LC-006-005-----0
 62
     7
370
    25
100
AcDbLine
 10
134.296253
 20
434.109528
 30
0.0
 11
140.204386
 21
440.017661
 31
0.0
  0
LINE
  5
12C
330
1F
100
AcDbEntity
  8
LC-006-005-----0
 62
     7
370
    25
100
AcDbLine
 10
133.158761
 20
435.800463
 30
0.0
 11
139.204386
 21
441.846088
 31
0.0
  0
LINE
  5
12D
330
1F
100
AcDbEntity
  8
LC-006-005-----0
 62
     7
370
    25
100
AcDbLine
 10
139.874012
 20
442.515714
 30
0.0
 11
140.052037
 21
442.693739
 31
0.0
  0
LINE
  5
12E
330
1F
100
AcDbEntity
  8
LC-006-005-----0
 62
     7
370
    25
100
AcDbLine
 10
132.259986
 20
437.730116
 30
0.0
 11
139.158749
 21
444.628878
 31
0.0
  0
LINE
  5
12F
330
1F
100
AcDbEntity
  8
LC-006-005-----0
 62
     7
370
    25
100
AcDbLine
 10
131.361212
 20
439.659769
 30
0.0
 11
136.863982
 21
445.162539
 31
0.0
  0
LINE
  5
130
330
1F
100
AcDbEntity
  8
LC-006-005-----0
 62
     7
370
    25
100
AcDbLine
 10
130.462438
 20
441.589422
 30
0.0
 11
134.035555
 21
445.162539
 31
0.0
  0
LINE
  5
131
330
1F
100
AcDbEntity
  8
LC-001-002-----0
 62
     7
370
    50
100
AcDbLine
 10
407.495529
 20
431.819732
 30
0.0
 11
457.749554
 21
418.354206
 31
0.0
  0
LINE
  5
132
330
1F
100
AcDbEntity
  8
LC-001-002-----0
 62
     7
370
    50
100
AcDbLine
 10
348.099533
 20
365.76204
 30
0.0
 11
358.525973
 21
365.76204
 31
0.0
  0
LINE
  5
133
330
1F
100
AcDbEntity
  8
LC-001-002-----0
 62
     7
370
    50
100
AcDbLine
 10
374.835343
 20
421.43204
 30
0.0
 11
374.835343
 21
376.09204
 31
0.0
  0
LINE
  5
134
330
1F
100
AcDbEntity
  8
LC-001-002-----0
 62
     7
370
    50
100
AcDbLine
 10
388.032337
 20
359.182109
 30
0.0
 11
438.286362
 21
345.716584
 31
0.0
  0
LINE
  5
135
330
1F
100
AcDbEntity
  8
LC-001-002-----0
 62
     7
370
    50
100
AcDbLine
 10
396.059134
 20
421.891388
 30
0.0
 11
454.681619
 21
406.183541
 31
0.0
  0
LINE
  5
136
330
1F
100
AcDbEntity
  8
LC-001-002-----0
 62
     7
370
    50
100
AcDbLine
 10
383.0923
 20
373.498504
 30
0.0
 11
441.714785
 21
357.790657
 31
0.0
  0
LINE
  5
137
330
1F
100
AcDbEntity
  8
LC-001-002-----0
 62
     7
370
    50
100
AcDbLine
 10
348.099533
 20
365.76204
 30
0.0
 11
348.099533
 21
369.043369
 31
0.0
  0
LINE
  5
139
330
1F
100
AcDbEntity
  8
LC-007-209-----0
 62
     7
370
    50
100
AcDbLine
 10
374.835343
 20
421.43204
 30
0.0
 11
385.605071
 21
421.43204
 31
0.0
  0
LINE
  5
13A
330
1F
100
AcDbEntity
  8
LC-007-209-----0
 62
     7
370
    50
100
AcDbLine
 10
374.835343
 20
376.09204
 30
0.0
 11
384.839897
 21
376.09204
 31
0.0
  0
LINE
  5
13B
330
1F
100
AcDbEntity
  8
LC-007-209-----0
 62
     7
370
    50
100
AcDbLine
 10
379.61461
 20
373.76204
 30
0.0
 11
377.61505
 21
373.76204
 31
0.0
  0
LINE
  5
13C
330
1F
100
AcDbEntity
  8
LC-007-209-----0
 62
     7
370
    50
100
AcDbLine
 10
389.876108
 20
361.748604
 30
0.0
 11
383.0923
 21
373.498504
 31
0.0
  0
LINE
  5
13D
330
1F
100
AcDbEntity
  8
LC-007-209-----0
 62
     7
370
    50
100
AcDbLine
 10
438.286362
 20
345.716584
 30
0.0
 11
442.296199
 21
345.716584
 31
0.0
  0
ARC
  5
13E
330
1F
100
AcDbEntity
  8
LC-007-209-----0
 62
     7
370
    50
100
AcDbCircle
 10
355.958873
 20
398.66204
 30
0.0
 40
33.00000000000776
100
AcDbArc
 50
274.461598
 51
311.014567
  0
LINE
  5
13F
330
1F
100
AcDbEntity
  8
LC-001-002-----0
 62
     7
370
    50
100
AcDbLine
 10
385.605071
 20
421.43204
 30
0.0
 11
384.839897
 21
376.09204
 31
0.0
  0
DIMENSION
  5
140
330
1F
100
AcDbEntity
  8
LC-005-003-----0
 62
     7
370
    25
100
AcDbDimension
  2
*D6
 10
470.4
 20
398.76204
 30
0.0
 11
439.6
 21
433.860724
 31
0.0
 70
   160
  1
70
 71
     5
 42
70.197367
 53
90.0
  3
LC-DIM-L-0140-02-02
100
AcDbAlignedDimension
 13
368.060914
 23
468.959407
 33
0.0
 14
385.222484
 24
398.76204
 34
0.0
 50
90.0
100
AcDbRotatedDimension
  0
LINE
  5
14D
330
1F
100
AcDbEntity
  8
LC-007-209-----0
 62
     7
370
    50
100
AcDbLine
 10
457.749554
 20
418.354206
 30
0.0
 11
461.222175
 21
416.349288
 31
0.0
  0
LINE
  5
14E
330
1F
100
AcDbEntity
  8
LC-007-209-----0
 62
     7
370
    50
100
AcDbLine
 10
407.495529
 20
431.819732
 30
0.0
 11
393.539199
 21
423.76204
 31
0.0
  0
LINE
  5
14F
330
1F
100
AcDbEntity
  8
LC-007-209-----0
 62
     7
370
    50
100
AcDbLine
 10
388.032337
 20
359.182109
 30
0.0
 11
379.61461
 21
373.76204
 31
0.0
  0
LINE
  5
150
330
1F
100
AcDbEntity
  8
LC-007-209-----0
 62
     7
370
    50
100
AcDbLine
 10
460.973145
 20
415.419895
 30
0.0
 11
407.809035
 21
428.675197
 31
0.0
  0
LINE
  5
151
330
1F
100
AcDbEntity
  8
LC-007-209-----0
 62
     7
370
    50
100
AcDbLine
 10
454.681619
 20
406.183541
 30
0.0
 11
457.986936
 21
404.275215
 31
0.0
  0
LINE
  5
152
330
1F
100
AcDbEntity
  8
LC-007-209-----0
 62
     7
370
    50
100
AcDbLine
 10
441.714785
 20
357.790657
 30
0.0
 11
445.531437
 21
357.790657
 31
0.0
  0
LINE
  5
153
330
1F
100
AcDbEntity
  8
LC-007-209-----0
 62
     7
370
    50
100
AcDbLine
 10
445.754977
 20
358.624922
 30
0.0
 11
384.839897
 21
376.09204
 31
0.0
  0
LINE
  5
154
330
1F
100
AcDbEntity
  8
LC-007-209-----0
 62
     7
370
    50
100
AcDbLine
 10
393.539199
 20
423.76204
 30
0.0
 11
377.61505
 21
423.76204
 31
0.0
  0
LINE
  5
155
330
1F
100
AcDbEntity
  8
LC-007-209-----0
 62
     7
370
    50
100
AcDbLine
 10
442.545229
 20
346.645976
 30
0.0
 11
389.848432
 21
361.75654
 31
0.0
  0
LINE
  5
156
330
1F
100
AcDbEntity
  8
LC-007-209-----0
 62
     7
370
    50
100
AcDbLine
 10
457.763396
 20
403.44095
 30
0.0
 11
385.605071
 21
421.43204
 31
0.0
  0
LINE
  5
157
330
1F
100
AcDbEntity
  8
LC-007-209-----0
 62
     7
370
    50
100
AcDbLine
 10
442.31288
 20
345.778841
 30
0.0
 11
461.222175
 21
416.349288
 31
0.0
  0
LINE
  5
158
330
1F
100
AcDbEntity
  8
LC-007-209-----0
 62
     7
370
    50
100
AcDbLine
 10
407.809035
 20
428.675197
 30
0.0
 11
396.059134
 21
421.891388
 31
0.0
  0
LINE
  5
159
330
1F
100
AcDbEntity
  8
LC-001-002-----0
 62
     7
370
    50
100
AcDbLine
 10
407.809035
 20
428.675197
 30
0.0
 11
405.313048
 21
419.360046
 31
0.0
  0
LINE
  5
15A
330
1F
100
AcDbEntity
  8
LC-001-002-----0
 62
     7
370
    50
100
AcDbLine
 10
392.372095
 20
371.063754
 30
0.0
 11
389.876108
 21
361.748604
 31
0.0
  0
LINE
  5
15B
330
1F
100
AcDbEntity
  8
LC-001-002-----0
 62
     7
370
    50
100
AcDbLine
 10
348.099533
 20
431.76204
 30
0.0
 11
358.525973
 21
431.76204
 31
0.0
  0
ARC
  5
15C
330
1F
100
AcDbEntity
  8
LC-007-209-----0
 62
     7
370
    50
100
AcDbCircle
 10
355.958873
 20
398.86204
 30
0.0
 40
33.00000000000926
100
AcDbArc
 50
48.985433
 51
85.538402
  0
LINE
  5
15D
330
1F
100
AcDbEntity
  8
LC-001-002-----0
 62
     7
370
    50
100
AcDbLine
 10
348.099533
 20
431.76204
 30
0.0
 11
348.099533
 21
428.480712
 31
0.0
  0
ARC
  5
15E
330
1F
100
AcDbEntity
  8
LC-001-002-----0
 62
     7
370
    50
100
AcDbCircle
 10
355.958873
 20
398.76204
 30
0.0
 40
29.50000000000147
100
AcDbArc
 50
50.217104
 51
69.968993
  0
ARC
  5
15F
330
1F
100
AcDbEntity
  8
LC-001-002-----0
 62
     7
370
    50
100
AcDbCircle
 10
355.958873
 20
398.76204
 30
0.0
 40
29.50000000000241
100
AcDbArc
 50
256.5668
 51
283.900263
  0
INSERT
  5
1AE
330
1F
100
AcDbEntity
  8
LC-006-005-----0
 62
     7
370
    25
100
AcDbBlockReference
  2
*X37
 10
0.0
 20
0.0
 30
0.0
  0
INSERT
  5
1F8
330
1F
100
AcDbEntity
  8
LC-006-005-----0
 62
     7
370
    25
100
AcDbBlockReference
  2
*X48
 10
0.0
 20
0.0
 30
0.0
  0
ARC
  5
1F9
330
1F
100
AcDbEntity
  8
LC-004-002-RND-0
 62
     7
370
    50
100
AcDbCircle
 10
349.099533
 20
428.480712
 30
0.0
 40
1.0
100
AcDbArc
 50
180.0
 51
282.996787
  0
ARC
  5
1FA
330
1F
100
AcDbEntity
  8
LC-004-002-RND-0
 62
     7
370
    50
100
AcDbCircle
 10
349.099533
 20
369.043369
 30
0.0
 40
1.000000000000095
100
AcDbArc
 50
77.003213
 51
180.0
  0
LINE
  5
1FB
330
1F
100
AcDbEntity
  8
LC-006-005-----0
 62
     7
370
    25
100
AcDbLine
 10
129.563664
 20
443.519074
 30
0.0
 11
131.297857
 21
445.253267
 31
0.0
  0
LINE
  5
1FC
330
1F
100
AcDbEntity
  8
LC-006-005-----0
 62
     7
370
    25
100
AcDbLine
 10
128.664889
 20
445.448727
 30
0.0
 11
130.311621
 21
447.095459
 31
0.0
  0
ARC
  5
1FD
102
{ACAD_REACTORS
330
53C
102
}
330
1F
100
AcDbEntity
  8
LC-001-002-----0
  6
DASHED
 62
     7
370
    25
100
AcDbCircle
 10
353.580876
 20
385.087811
 30
0.0
 40
29.50000000000285
100
AcDbArc
 50
250.030652
 51
269.782896
  0
LINE
  5
1FE
330
1F
100
AcDbEntity
  8
LC-001-002-----0
 62
     7
370
    25
100
AcDbLine
 10
385.222484
 20
398.76204
 30
0.0
 11
554.087336
 21
398.76204
 31
0.0
  0
ARC
  5
1FF
102
{ACAD_REACTORS
330
53C
102
}
330
1F
100
AcDbEntity
  8
LC-001-002-----0
  6
DASHED
 62
     7
370
    25
100
AcDbCircle
 10
316.028873
 20
398.76204
 30
0.0
 40
29.50000000000025
100
AcDbArc
 50
270.875532
 51
290.89311
  0
ARC
  5
200
102
{ACAD_REACTORS
330
53C
102
}
330
1F
100
AcDbEntity
  8
LC-004-002-RND-0
  6
DASHED
 62
     7
370
    25
100
AcDbCircle
 10
353.5508
 20
385.105176
 30
0.0
 40
29.50000000000143
100
AcDbArc
 50
49.968993
 51
83.4332
  0
LINE
  5
201
102
{ACAD_REACTORS
330
53C
102
}
330
1F
100
AcDbEntity
  8
LC-001-002-----0
  6
DASHDOT
 62
     7
370
    25
100
AcDbLine
 10
365.98551
 20
380.579312
 30
0.0
 11
415.504767
 21
309.847
 31
0.0
  0
DIMENSION
  5
203
330
1F
100
AcDbEntity
  8
LC-005-003-----0
 62
     7
370
    25
100
AcDbDimension
  2
*D9
 10
551.942374
 20
295.322773
 30
0.0
 11
486.285095
 21
267.28127
 31
0.0
 70
   165
 71
     5
 42
0.960007
  3
LC-DIM-W-0140-02-02
100
AcDb3PointAngularDimension
 13
415.504767
 23
309.847
 33
0.0
 14
554.087336
 24
398.76204
 34
0.0
 15
353.255893
 25
398.76204
 35
0.0
  0
DIMENSION
  5
211
330
1F
100
AcDbEntity
  8
LC-005-003-----0
 62
     7
370
    25
100
AcDbDimension
  2
*D10
 10
532.295981
 20
320.526782
 30
0.0
 11
512.277062
 21
364.81722
 31
0.0
 70
   160
  1
DN70
 71
     5
 42
75.2
 53
75.0
  3
LC-DIM-L-0140-02-02
100
AcDbAlignedDimension
 13
457.749554
 23
418.354206
 33
0.0
 14
438.286362
 24
345.716584
 34
0.0
 50
75.0
100
AcDbRotatedDimension
  0
ARC
  5
21E
102
{ACAD_REACTORS
330
53C
102
}
330
1F
100
AcDbEntity
  8
LC-004-002-RND-0
  6
DASHED
 62
     7
370
    25
100
AcDbCircle
 10
316.028873
 20
398.76204
 30
0.0
 40
29.49999999999986
100
AcDbArc
 50
49.113355
 51
82.996787
  0
DIMENSION
  5
21F
330
1F
100
AcDbEntity
  8
LC-005-003-----0
 62
     7
370
    25
100
AcDbDimension
  2
*D11
 10
497.679868
 20
342.794858
 30
0.0
 11
506.035224
 21
492.979533
 31
0.0
 70
   160
  1
DN50
 71
     5
 42
50.1
 53
75.0
  3
LC-DIM-L-0140-02-02
100
AcDbAlignedDimension
 13
454.681619
 23
406.183541
 33
0.0
 14
441.714785
 24
357.790657
 34
0.0
 50
75.0
100
AcDbRotatedDimension
  0
LINE
  5
22D
330
1F
100
AcDbEntity
  8
LC-006-005-----0
 62
     7
370
    25
100
AcDbLine
 10
128.060914
 20
447.673179
 30
0.0
 11
130.311621
 21
449.923886
 31
0.0
  0
LINE
  5
22E
102
{ACAD_REACTORS
330
53C
102
}
330
1F
100
AcDbEntity
  8
LC-004-002-RND-0
  6
DASHED
 62
     7
370
    25
100
AcDbLine
 10
414.309319
 20
377.284348
 30
0.0
 11
444.150663
 21
334.666493
 31
0.0
  0
LINE
  5
22F
330
1F
100
AcDbEntity
  8
LC-006-005-----0
 62
     7
370
    25
100
AcDbLine
 10
128.060914
 20
450.501607
 30
0.0
 11
130.311621
 21
452.752313
 31
0.0
  0
INSERT
  5
24A
330
1F
100
AcDbEntity
  8
LC-006-005-----0
 62
     7
370
    25
100
AcDbBlockReference
  2
*X512
 10
0.0
 20
0.0
 30
0.0
  0
LINE
  5
24B
330
1F
100
AcDbEntity
  8
LC-001-002-----0
 62
     7
370
    50
100
AcDbLine
 10
308.169533
 20
431.76204
 30
0.0
 11
308.169533
 21
428.580712
 31
0.0
  0
INSERT
  5
26B
330
1F
100
AcDbEntity
  8
LC-006-005-----0
 62
     7
370
    25
100
AcDbBlockReference
  2
*X613
 10
0.0
 20
0.0
 30
0.0
  0
LINE
  5
26D
330
1F
100
AcDbEntity
  8
LC-008-208-----0
 62
     7
370
    50
100
AcDbLine
 10
337.569533
 20
423.76204
 30
0.0
 11
340.298414
 21
423.76204
 31
0.0
  0
LINE
  5
26E
330
1F
100
AcDbEntity
  8
LC-008-208-----0
 62
     7
370
    50
100
AcDbLine
 10
362.057737
 20
427.624713
 30
0.0
 11
362.057737
 21
423.761943
 31
0.0
  0
LINE
  5
26F
330
1F
100
AcDbEntity
  8
LC-008-208-----0
 62
     7
370
    50
100
AcDbLine
 10
362.057737
 20
423.761943
 30
0.0
 11
366.557737
 21
423.762818
 31
0.0
  0
LINE
  5
270
330
1F
100
AcDbEntity
  8
LC-008-208-----0
 62
     7
370
    50
100
AcDbLine
 10
366.557737
 20
426.29228
 30
0.0
 11
366.557737
 21
423.762818
 31
0.0
  0
LINE
  5
271
330
1F
100
AcDbEntity
  8
LC-008-208-----0
 62
     7
370
    50
100
AcDbLine
 10
373.557737
 20
422.437555
 30
0.0
 11
373.557737
 21
421.06204
 31
0.0
  0
LINE
  5
272
330
1F
100
AcDbEntity
  8
LC-008-208-----0
 62
     7
370
    50
100
AcDbLine
 10
373.557737
 20
421.06204
 30
0.0
 11
335.341046
 21
421.06204
 31
0.0
  0
LINE
  5
273
330
1F
100
AcDbEntity
  8
LC-001-002-----0
 62
     7
370
    50
100
AcDbLine
 10
308.169533
 20
365.76204
 30
0.0
 11
316.028873
 21
365.76204
 31
0.0
  0
LINE
  5
274
330
1F
100
AcDbEntity
  8
LC-001-002-----0
 62
     7
370
    50
100
AcDbLine
 10
308.169533
 20
431.76204
 30
0.0
 11
316.028873
 21
431.76204
 31
0.0
  0
ARC
  5
275
330
1F
100
AcDbEntity
  8
LC-001-002-----0
 62
     7
370
    50
100
AcDbCircle
 10
316.028873
 20
398.76204
 30
0.0
 40
32.99999999999972
100
AcDbArc
 50
270.0
 51
310.749054
  0
LINE
  5
276
330
1F
100
AcDbEntity
  8
LC-001-002-----0
 62
     7
370
    50
100
AcDbLine
 10
308.169533
 20
365.76204
 30
0.0
 11
308.169533
 21
368.943369
 31
0.0
  0
LINE
  5
277
330
1F
100
AcDbEntity
  8
LC-001-002-----0
 62
     7
370
    50
100
AcDbLine
 10
373.557737
 20
422.437555
 30
0.0
 11
373.557737
 21
398.76204
 31
0.0
  0
ARC
  5
278
330
1F
100
AcDbEntity
  8
LC-001-002-----0
 62
     7
370
    50
100
AcDbCircle
 10
316.028873
 20
398.76204
 30
0.0
 40
29.50000000000004
100
AcDbArc
 50
257.003213
 51
284.452077
  0
LINE
  5
279
330
1F
100
AcDbEntity
  8
LC-008-208-----0
 62
     7
370
    50
100
AcDbLine
 10
337.569533
 20
373.76204
 30
0.0
 11
340.298414
 21
373.76204
 31
0.0
  0
ARC
  5
27A
330
1F
100
AcDbEntity
  8
LC-001-002-----0
 62
     7
370
    50
100
AcDbCircle
 10
355.958873
 20
398.76204
 30
0.0
 40
29.50000000000125
100
AcDbArc
 50
78.068557
 51
122.063786
  0
LINE
  5
27B
330
1F
100
AcDbEntity
  8
LC-008-208-----0
 62
     7
370
    50
100
AcDbLine
 10
373.557737
 20
376.46204
 30
0.0
 11
335.341046
 21
376.46204
 31
0.0
  0
LINE
  5
27C
330
1F
100
AcDbEntity
  8
LC-006-005-----0
 62
     7
370
    25
100
AcDbLine
 10
128.027318
 20
453.296437
 30
0.0
 11
130.311621
 21
455.580741
 31
0.0
  0
ARC
  5
27D
330
1F
100
AcDbEntity
  8
LC-001-002-----0
 62
     7
370
    50
100
AcDbCircle
 10
355.958873
 20
398.76204
 30
0.0
 40
29.50000000000125
100
AcDbArc
 50
237.936214
 51
281.931443
  0
LINE
  5
27E
330
1F
100
AcDbEntity
  8
LC-008-208-----0
 62
     7
370
    50
100
AcDbLine
 10
362.057737
 20
369.899368
 30
0.0
 11
362.057737
 21
373.762138
 31
0.0
  0
LINE
  5
27F
330
1F
100
AcDbEntity
  8
LC-008-208-----0
 62
     7
370
    50
100
AcDbLine
 10
362.057737
 20
373.762138
 30
0.0
 11
366.557737
 21
373.761263
 31
0.0
  0
LINE
  5
280
330
1F
100
AcDbEntity
  8
LC-008-208-----0
 62
     7
370
    50
100
AcDbLine
 10
366.557737
 20
371.231801
 30
0.0
 11
366.557737
 21
373.761263
 31
0.0
  0
ARC
  5
281
330
1F
100
AcDbEntity
  8
LC-001-002-----0
 62
     7
370
    50
100
AcDbCircle
 10
355.958873
 20
398.76204
 30
0.0
 40
29.50000000000151
100
AcDbArc
 50
53.375247
 51
68.943799
  0
ARC
  5
282
330
1F
100
AcDbEntity
  8
LC-001-002-----0
 62
     7
370
    50
100
AcDbCircle
 10
355.958873
 20
398.76204
 30
0.0
 40
29.50000000000121
100
AcDbArc
 50
291.056201
 51
306.624753
  0
ARC
  5
283
330
1F
100
AcDbEntity
  8
LC-001-002-----0
 62
     7
370
    50
100
AcDbCircle
 10
316.028873
 20
398.76204
 30
0.0
 40
32.99999999999971
100
AcDbArc
 50
49.250946
 51
90.0
  0
LINE
  5
284
330
1F
100
AcDbEntity
  8
LC-001-002-----0
 62
     7
370
    50
100
AcDbLine
 10
373.557737
 20
375.086526
 30
0.0
 11
373.557737
 21
398.76204
 31
0.0
  0
LINE
  5
285
330
1F
100
AcDbEntity
  8
LC-006-005-----0
 62
     7
370
    25
100
AcDbLine
 10
125.941861
 20
454.039408
 30
0.0
 11
130.311621
 21
458.409168
 31
0.0
  0
ARC
  5
286
330
1F
100
AcDbEntity
  8
LC-004-002-RND-0
 62
     7
370
    50
100
AcDbCircle
 10
309.169533
 20
428.480712
 30
0.0
 40
1.0
100
AcDbArc
 50
180.0
 51
282.996787
  0
ARC
  5
287
330
1F
100
AcDbEntity
  8
LC-004-002-RND-0
 62
     7
370
    50
100
AcDbCircle
 10
309.169533
 20
369.043369
 30
0.0
 40
0.9999999999998731
100
AcDbArc
 50
77.003213
 51
180.0
  0
ARC
  5
288
330
1F
100
AcDbEntity
  8
LC-001-002-----0
 62
     7
370
    50
100
AcDbCircle
 10
316.028873
 20
398.76204
 30
0.0
 40
29.49999999999991
100
AcDbArc
 50
49.10689
 51
69.113355
  0
LINE
  5
289
330
1F
100
AcDbEntity
  8
LC-001-002-----0
 62
     7
370
    50
100
AcDbLine
 10
335.341046
 20
376.46204
 30
0.0
 11
335.341046
 21
421.06204
 31
0.0
  0
LINE
  5
28A
102
{ACAD_REACTORS
330
53C
102
}
330
1F
100
AcDbEntity
  8
LC-001-002-----0
  6
DASHED
 62
     7
370
    25
100
AcDbLine
 10
326.348281
 20
364.860232
 30
0.0
 11
334.335398
 21
358.158245
 31
0.0
  0
LINE
  5
28B
102
{ACAD_REACTORS
330
53C
102
}
330
1F
100
AcDbEntity
  8
LC-004-002-RND-0
  6
DASHED
 62
     7
370
    25
100
AcDbLine
 10
382.613086
 20
390.320478
 30
0.0
 11
353.469096
 21
355.588023
 31
0.0
  0
LINE
  5
28C
102
{ACAD_REACTORS
330
53C
102
}
330
1F
100
AcDbEntity
  8
LC-001-002-----0
  6
DASHED
 62
     7
370
    25
100
AcDbLine
 10
352.709086
 20
334.1514
 30
0.0
 11
382.550429
 21
291.533545
 31
0.0
  0
LINE
  5
28D
102
{ACAD_REACTORS
330
53C
102
}
330
1F
100
AcDbEntity
  8
LC-004-002-RND-0
  6
DASHED
 62
     7
370
    25
100
AcDbLine
 10
399.166716
 20
377.029969
 30
0.0
 11
433.977336
 21
327.315253
 31
0.0
  0
LINE
  5
28E
102
{ACAD_REACTORS
330
53C
102
}
330
1F
100
AcDbEntity
  8
LC-001-002-----0
  6
DASHED
 62
     7
370
    25
100
AcDbLine
 10
358.127199
 20
348.293789
 30
0.0
 11
392.937818
 21
298.579073
 31
0.0
  0
LINE
  5
28F
102
{ACAD_REACTORS
330
53C
102
}
330
1F
100
AcDbEntity
  8
LC-001-002-----0
  6
DASHED
 62
     7
370
    25
100
AcDbLine
 10
326.348281
 20
364.860232
 30
0.0
 11
328.457478
 21
367.373875
 31
0.0
  0
LINE
  5
290
102
{ACAD_REACTORS
330
53C
102
}
330
1F
100
AcDbEntity
  8
LC-004-002-RND-0
  6
DASHED
 62
     7
370
    25
100
AcDbLine
 10
382.613086
 20
390.320478
 30
0.0
 11
390.863177
 21
383.39783
 31
0.0
  0
LINE
  5
291
102
{ACAD_REACTORS
330
53C
102
}
330
1F
100
AcDbEntity
  8
LC-007-209-----0
  6
DASHED
 62
     7
370
    25
100
AcDbLine
 10
353.469096
 20
355.588023
 30
0.0
 11
361.133029
 21
349.15722
 31
0.0
  0
LINE
  5
292
102
{ACAD_REACTORS
330
53C
102
}
330
1F
100
AcDbEntity
  8
LC-007-209-----0
  6
DASHED
 62
     7
370
    25
100
AcDbLine
 10
355.632532
 20
350.731086
 30
0.0
 11
354.10078
 21
352.016378
 31
0.0
  0
LINE
  5
293
102
{ACAD_REACTORS
330
53C
102
}
330
1F
100
AcDbEntity
  8
LC-007-209-----0
  6
DASHED
 62
     7
370
    25
100
AcDbLine
 10
355.771207
 20
334.932295
 30
0.0
 11
358.127199
 21
348.293789
 31
0.0
  0
LINE
  5
294
102
{ACAD_REACTORS
330
53C
102
}
330
1F
100
AcDbEntity
  8
LC-007-209-----0
  6
DASHED
 62
     7
370
    25
100
AcDbLine
 10
382.550429
 20
291.533545
 30
0.0
 11
385.622143
 21
288.956071
 31
0.0
  0
ARC
  5
295
102
{ACAD_REACTORS
330
53C
102
}
330
1F
100
AcDbEntity
  8
LC-007-209-----0
  6
DASHED
 62
     7
370
    25
100
AcDbCircle
 10
353.516598
 20
385.011207
 30
0.0
 40
33.00000000000781
100
AcDbArc
 50
234.461598
 51
271.014567
  0
LINE
  5
296
102
{ACAD_REACTORS
330
53C
102
}
330
1F
100
AcDbEntity
  8
LC-004-002-RND-0
  6
DASHED
 62
     7
370
    25
100
AcDbLine
 10
390.863177
 20
383.39783
 30
0.0
 11
361.133029
 21
349.15722
 31
0.0
  0
LINE
  5
297
102
{ACAD_REACTORS
330
53C
102
}
330
1F
100
AcDbEntity
  8
LC-007-209-----0
  6
DASHED
 62
     7
370
    25
100
AcDbLine
 10
444.150663
 20
334.666493
 30
0.0
 11
445.522108
 21
330.898479
 31
0.0
  0
LINE
  5
298
102
{ACAD_REACTORS
330
53C
102
}
330
1F
100
AcDbEntity
  8
LC-004-002-RND-0
  6
DASHED
 62
     7
370
    25
100
AcDbLine
 10
414.309319
 20
377.284348
 30
0.0
 11
398.438766
 21
380.082755
 31
0.0
  0
LINE
  5
299
102
{ACAD_REACTORS
330
53C
102
}
330
1F
100
AcDbEntity
  8
LC-007-209-----0
  6
DASHED
 62
     7
370
    25
100
AcDbLine
 10
352.709086
 20
334.1514
 30
0.0
 11
355.632532
 21
350.731086
 31
0.0
  0
LINE
  5
29A
102
{ACAD_REACTORS
330
53C
102
}
330
1F
100
AcDbEntity
  8
LC-004-002-RND-0
  6
DASHED
 62
     7
370
    25
100
AcDbLine
 10
444.733938
 20
330.346596
 30
0.0
 11
412.528211
 21
374.673977
 31
0.0
  0
LINE
  5
29B
102
{ACAD_REACTORS
330
53C
102
}
330
1F
100
AcDbEntity
  8
LC-007-209-----0
  6
DASHED
 62
     7
370
    25
100
AcDbLine
 10
433.977336
 20
327.315253
 30
0.0
 11
435.282707
 21
323.728773
 31
0.0
  0
LINE
  5
29C
102
{ACAD_REACTORS
330
53C
102
}
330
1F
100
AcDbEntity
  8
LC-007-209-----0
  6
DASHED
 62
     7
370
    25
100
AcDbLine
 10
392.937818
 20
298.579073
 30
0.0
 11
395.861543
 21
296.125777
 31
0.0
  0
LINE
  5
29D
102
{ACAD_REACTORS
330
53C
102
}
330
1F
100
AcDbEntity
  8
LC-007-209-----0
  6
DASHED
 62
     7
370
    25
100
AcDbLine
 10
396.569041
 20
296.621172
 30
0.0
 11
361.133029
 21
349.15722
 31
0.0
  0
LINE
  5
29E
102
{ACAD_REACTORS
330
53C
102
}
330
1F
100
AcDbEntity
  8
LC-004-002-RND-0
  6
DASHED
 62
     7
370
    25
100
AcDbLine
 10
398.438766
 20
380.082755
 30
0.0
 11
386.240161
 21
390.3186
 31
0.0
  0
LINE
  5
29F
102
{ACAD_REACTORS
330
53C
102
}
330
1F
100
AcDbEntity
  8
LC-007-209-----0
  6
DASHED
 62
     7
370
    25
100
AcDbLine
 10
386.410312
 20
289.507954
 30
0.0
 11
355.755107
 21
334.956164
 31
0.0
  0
LINE
  5
2A0
102
{ACAD_REACTORS
330
53C
102
}
330
1F
100
AcDbEntity
  8
LC-004-002-RND-0
  6
DASHED
 62
     7
370
    25
100
AcDbLine
 10
434.57521
 20
323.233378
 30
0.0
 11
390.863177
 21
383.39783
 31
0.0
  0
LINE
  5
2A1
102
{ACAD_REACTORS
330
53C
102
}
330
1F
100
AcDbEntity
  8
LC-007-209-----0
  6
DASHED
 62
     7
370
    25
100
AcDbLine
 10
385.67494
 20
288.99304
 30
0.0
 11
445.522108
 21
330.898479
 31
0.0
  0
LINE
  5
2A2
102
{ACAD_REACTORS
330
53C
102
}
330
1F
100
AcDbEntity
  8
LC-004-002-RND-0
  6
DASHED
 62
     7
370
    25
100
AcDbLine
 10
412.528211
 20
374.673977
 30
0.0
 11
399.166716
 21
377.029969
 31
0.0
  0
LINE
  5
2A3
102
{ACAD_REACTORS
330
53C
102
}
330
1F
100
AcDbEntity
  8
LC-004-002-RND-0
  6
DASHED
 62
     7
370
    25
100
AcDbLine
 10
412.528211
 20
374.673977
 30
0.0
 11
404.62851
 21
369.142547
 31
0.0
  0
LINE
  5
2A4
102
{ACAD_REACTORS
330
53C
102
}
330
1F
100
AcDbEntity
  8
LC-001-002-----0
  6
DASHED
 62
     7
370
    25
100
AcDbLine
 10
363.670908
 20
340.463725
 30
0.0
 11
355.771207
 21
334.932295
 31
0.0
  0
LINE
  5
2A5
102
{ACAD_REACTORS
330
53C
102
}
330
1F
100
AcDbEntity
  8
LC-004-002-RND-0
  6
DASHED
 62
     7
370
    25
100
AcDbLine
 10
368.772263
 20
415.419165
 30
0.0
 11
376.75938
 21
408.717178
 31
0.0
  0
ARC
  5
2A6
102
{ACAD_REACTORS
330
53C
102
}
330
1F
100
AcDbEntity
  8
LC-004-002-RND-0
  6
DASHED
 62
     7
370
    25
100
AcDbCircle
 10
353.645155
 20
385.164416
 30
0.0
 40
33.00000000000918
100
AcDbArc
 50
8.985433
 51
45.538402
  0
LINE
  5
2A7
102
{ACAD_REACTORS
330
53C
102
}
330
1F
100
AcDbEntity
  8
LC-004-002-RND-0
  6
DASHED
 62
     7
370
    25
100
AcDbLine
 10
368.772263
 20
415.419165
 30
0.0
 11
366.663066
 21
412.905521
 31
0.0
  0
ARC
  5
2A8
102
{ACAD_REACTORS
330
53C
102
}
330
1F
100
AcDbEntity
  8
LC-004-002-RND-0
  6
DASHED
 62
     7
370
    25
100
AcDbCircle
 10
353.580876
 20
385.087811
 30
0.0
 40
29.50000000000147
100
AcDbArc
 50
10.217104
 51
29.968993
  0
ARC
  5
2A9
102
{ACAD_REACTORS
330
53C
102
}
330
1F
100
AcDbEntity
  8
LC-001-002-----0
  6
DASHED
 62
     7
370
    25
100
AcDbCircle
 10
353.5508
 20
385.105176
 30
0.0
 40
29.50000000000241
100
AcDbArc
 50
236.5668
 51
270.030652
  0
ARC
  5
2AA
102
{ACAD_REACTORS
330
53C
102
}
330
1F
100
AcDbEntity
  8
LC-004-002-RND-0
  6
DASHED
 62
     7
370
    25
100
AcDbCircle
 10
367.42911
 20
412.262734
 30
0.0
 40
0.9999999999999931
100
AcDbArc
 50
140.0
 51
242.996787
  0
ARC
  5
2AB
102
{ACAD_REACTORS
330
53C
102
}
330
1F
100
AcDbEntity
  8
LC-004-002-RND-0
  6
DASHED
 62
     7
370
    25
100
AcDbCircle
 10
329.223523
 20
366.731087
 30
0.0
 40
1.00000000000018
100
AcDbArc
 50
37.003213
 51
140.0
  0
LINE
  5
2AC
330
1F
100
AcDbEntity
  8
LC-006-005-----0
 62
     7
370
    25
100
AcDbLine
 10
123.700891
 20
454.626864
 30
0.0
 11
126.204982
 21
457.130956
 31
0.0
  0
LINE
  5
2AD
330
1F
100
AcDbEntity
  8
LC-006-005-----0
 62
     7
370
    25
100
AcDbLine
 10
128.311621
 20
459.237595
 30
0.0
 11
130.187089
 21
461.113063
 31
0.0
  0
LINE
  5
2AE
102
{ACAD_REACTORS
330
53C
102
}
330
1F
100
AcDbEntity
  8
LC-004-002-RND-0
  6
DASHED
 62
     7
370
    25
100
AcDbLine
 10
319.930174
 20
432.45995
 30
0.0
 11
318.842095
 21
429.470479
 31
0.0
  0
LINE
  5
2AF
330
1F
100
AcDbEntity
  8
LC-006-005-----0
 62
     7
370
    25
100
AcDbLine
 10
122.810914
 20
456.565315
 30
0.0
 11
125.213003
 21
458.967404
 31
0.0
  0
LINE
  5
2B0
102
{ACAD_REACTORS
330
53C
102
}
330
1F
100
AcDbEntity
  8
LC-004-002-RND-0
  6
DASHED
 62
     7
370
    25
100
AcDbLine
 10
344.820975
 20
414.887017
 30
0.0
 11
347.385285
 21
413.953684
 31
0.0
  0
LINE
  5
2B1
102
{ACAD_REACTORS
330
53C
102
}
330
1F
100
AcDbEntity
  8
LC-004-002-RND-0
  6
DASHED
 62
     7
370
    25
100
AcDbLine
 10
378.185825
 20
401.333717
 30
0.0
 11
377.715371
 21
400.041156
 31
0.0
  0
LINE
  5
2B2
102
{ACAD_REACTORS
330
53C
102
}
330
1F
100
AcDbEntity
  8
LC-004-002-RND-0
  6
DASHED
 62
     7
370
    25
100
AcDbLine
 10
377.715371
 20
400.041156
 30
0.0
 11
341.803428
 21
413.112034
 31
0.0
  0
LINE
  5
2B3
102
{ACAD_REACTORS
330
53C
102
}
330
1F
100
AcDbEntity
  8
LC-001-002-----0
  6
DASHED
 62
     7
370
    25
100
AcDbLine
 10
297.356844
 20
370.440237
 30
0.0
 11
304.742209
 21
367.752184
 31
0.0
  0
LINE
  5
2B4
102
{ACAD_REACTORS
330
53C
102
}
330
1F
100
AcDbEntity
  8
LC-004-002-RND-0
  6
DASHED
 62
     7
370
    25
100
AcDbLine
 10
319.930174
 20
432.45995
 30
0.0
 11
327.315538
 21
429.771897
 31
0.0
  0
ARC
  5
2B5
102
{ACAD_REACTORS
330
53C
102
}
330
1F
100
AcDbEntity
  8
LC-001-002-----0
  6
DASHED
 62
     7
370
    25
100
AcDbCircle
 10
316.028873
 20
398.76204
 30
0.0
 40
32.99999999999972
100
AcDbArc
 50
250.0
 51
290.749054
  0
LINE
  5
2B6
102
{ACAD_REACTORS
330
53C
102
}
330
1F
100
AcDbEntity
  8
LC-001-002-----0
  6
DASHED
 62
     7
370
    25
100
AcDbLine
 10
297.356844
 20
370.440237
 30
0.0
 11
298.444922
 21
373.429708
 31
0.0
  0
LINE
  5
2B7
102
{ACAD_REACTORS
330
53C
102
}
330
1F
100
AcDbEntity
  8
LC-004-002-RND-0
  6
DASHED
 62
     7
370
    25
100
AcDbLine
 10
378.185825
 20
401.333717
 30
0.0
 11
370.088322
 21
379.08601
 31
0.0
  0
ARC
  5
2B8
102
{ACAD_REACTORS
330
53C
102
}
330
1F
100
AcDbEntity
  8
LC-001-002-----0
  6
DASHED
 62
     7
370
    25
100
AcDbCircle
 10
316.028873
 20
398.76204
 30
0.0
 40
29.50000000000003
100
AcDbArc
 50
237.003213
 51
271.049054
  0
LINE
  5
2B9
102
{ACAD_REACTORS
330
53C
102
}
330
1F
100
AcDbEntity
  8
LC-008-208-----0
  6
DASHED
 62
     7
370
    25
100
AcDbLine
 10
327.719968
 20
367.902386
 30
0.0
 11
330.284278
 21
366.969053
 31
0.0
  0
ARC
  5
2BA
102
{ACAD_REACTORS
330
53C
102
}
330
1F
100
AcDbEntity
  8
LC-004-002-RND-0
  6
DASHED
 62
     7
370
    25
100
AcDbCircle
 10
353.5508
 20
385.105176
 30
0.0
 40
29.50000000000127
100
AcDbArc
 50
58.068557
 51
102.063786
  0
LINE
  5
2BB
102
{ACAD_REACTORS
330
53C
102
}
330
1F
100
AcDbEntity
  8
LC-008-208-----0
  6
DASHED
 62
     7
370
    25
100
AcDbLine
 10
362.461273
 20
358.130865
 30
0.0
 11
326.54933
 21
371.201743
 31
0.0
  0
ARC
  5
2BC
102
{ACAD_REACTORS
330
53C
102
}
330
1F
100
AcDbEntity
  8
LC-001-002-----0
  6
DASHED
 62
     7
370
    25
100
AcDbCircle
 10
353.5508
 20
385.105176
 30
0.0
 40
29.50000000000124
100
AcDbArc
 50
217.936214
 51
261.931443
  0
ARC
  5
2BD
102
{ACAD_REACTORS
330
53C
102
}
330
1F
100
AcDbEntity
  8
LC-004-002-RND-0
  6
DASHED
 62
     7
370
    25
100
AcDbCircle
 10
353.5508
 20
385.105176
 30
0.0
 40
29.50000000000149
100
AcDbArc
 50
33.375247
 51
48.943799
  0
ARC
  5
2BE
102
{ACAD_REACTORS
330
53C
102
}
330
1F
100
AcDbEntity
  8
LC-001-002-----0
  6
DASHED
 62
     7
370
    25
100
AcDbCircle
 10
353.5508
 20
385.105176
 30
0.0
 40
29.50000000000123
100
AcDbArc
 50
271.056201
 51
286.624753
  0
ARC
  5
2BF
102
{ACAD_REACTORS
330
53C
102
}
330
1F
100
AcDbEntity
  8
LC-004-002-RND-0
  6
DASHED
 62
     7
370
    25
100
AcDbCircle
 10
316.028873
 20
398.76204
 30
0.0
 40
32.99999999999972
100
AcDbArc
 50
29.250946
 51
70.0
  0
LINE
  5
2C0
102
{ACAD_REACTORS
330
53C
102
}
330
1F
100
AcDbEntity
  8
LC-001-002-----0
  6
DASHED
 62
     7
370
    25
100
AcDbLine
 10
361.990819
 20
356.838304
 30
0.0
 11
370.088322
 21
379.08601
 31
0.0
  0
ARC
  5
2C1
102
{ACAD_REACTORS
330
53C
102
}
330
1F
100
AcDbEntity
  8
LC-004-002-RND-0
  6
DASHED
 62
     7
370
    25
100
AcDbCircle
 10
319.747586
 20
429.03449
 30
0.0
 40
0.9999999999999706
100
AcDbArc
 50
160.0
 51
262.996787
  0
ARC
  5
2C2
102
{ACAD_REACTORS
330
53C
102
}
330
1F
100
AcDbEntity
  8
LC-004-002-RND-0
  6
DASHED
 62
     7
370
    25
100
AcDbCircle
 10
299.418817
 20
373.181657
 30
0.0
 40
0.9999999999998417
100
AcDbArc
 50
57.003213
 51
160.0
  0
ARC
  5
2C3
102
{ACAD_REACTORS
330
53C
102
}
330
1F
100
AcDbEntity
  8
LC-004-002-RND-0
  6
DASHED
 62
     7
370
    25
100
AcDbCircle
 10
316.028873
 20
398.76204
 30
0.0
 40
29.49999999999998
100
AcDbArc
 50
29.10689
 51
49.113355
  0
LINE
  5
2C4
102
{ACAD_REACTORS
330
53C
102
}
330
1F
100
AcDbEntity
  8
LC-004-002-RND-0
  6
DASHED
 62
     7
370
    25
100
AcDbLine
 10
326.54933
 20
371.201743
 30
0.0
 11
341.803428
 21
413.112034
 31
0.0
  0
ARC
  5
2C5
102
{ACAD_REACTORS
330
53C
102
}
330
1F
100
AcDbEntity
  8
LC-001-002-----0
  6
DASHED
 62
     7
370
    25
100
AcDbCircle
 10
316.028873
 20
398.76204
 30
0.0
 40
29.50000000000003
100
AcDbArc
 50
271.049054
 51
286.610955
  0
ARC
  5
2C6
102
{ACAD_REACTORS
330
53C
102
}
330
1F
100
AcDbEntity
  8
LC-004-002-RND-0
  6
DASHED
 62
     7
370
    25
100
AcDbCircle
 10
316.028873
 20
398.76204
 30
0.0
 40
29.50000000000001
100
AcDbArc
 50
33.389045
 51
48.950946
  0
LINE
  5
2C7
102
{ACAD_REACTORS
330
53C
102
}
330
1F
100
AcDbEntity
  8
LC-006-005-----0
  6
DASHED
 62
     7
370
    25
100
AcDbLine
 10
311.492964
 20
369.612846
 30
0.0
 11
311.992366
 21
369.845721
 31
0.0
  0
LINE
  5
2C8
330
1F
100
AcDbEntity
  8
LC-006-005-----0
 62
     7
370
    25
100
AcDbLine
 10
128.311621
 20
462.066022
 30
0.0
 11
129.265456
 21
463.019857
 31
0.0
  0
LINE
  5
2C9
330
1F
100
AcDbEntity
  8
LC-006-005-----0
 62
     7
370
    25
100
AcDbLine
 10
121.864232
 20
458.44706
 30
0.0
 11
125.213003
 21
461.795831
 31
0.0
  0
LINE
  5
2CA
330
1F
100
AcDbEntity
  8
LC-006-005-----0
 62
     7
370
    25
100
AcDbLine
 10
122.810914
 20
462.222169
 30
0.0
 11
125.213003
 21
464.624258
 31
0.0
  0
LINE
  5
2CB
330
1F
100
AcDbEntity
  8
LC-006-005-----0
 62
     7
370
    25
100
AcDbLine
 10
120.874276
 20
463.113958
 30
0.0
 11
123.688818
 21
465.9285
 31
0.0
  0
LINE
  5
2CC
330
1F
100
AcDbEntity
  8
LC-006-005-----0
 62
     7
370
    25
100
AcDbLine
 10
118.230705
 20
463.298814
 30
0.0
 11
121.052006
 21
466.120116
 31
0.0
  0
LINE
  5
2CD
330
1F
100
AcDbEntity
  8
LC-006-005-----0
 62
     7
370
    25
100
AcDbLine
 10
115.587134
 20
463.483671
 30
0.0
 11
118.415195
 21
466.311731
 31
0.0
  0
LINE
  5
2CE
330
1F
100
AcDbEntity
  8
LC-006-005-----0
 62
     7
370
    25
100
AcDbLine
 10
112.943563
 20
463.668527
 30
0.0
 11
115.778383
 21
466.503346
 31
0.0
  0
LINE
  5
2CF
330
1F
100
AcDbEntity
  8
LC-006-005-----0
 62
     7
370
    25
100
AcDbLine
 10
110.299993
 20
463.853383
 30
0.0
 11
113.141571
 21
466.694962
 31
0.0
  0
LINE
  5
2D0
330
1F
100
AcDbEntity
  8
LC-006-005-----0
 62
     7
370
    25
100
AcDbLine
 10
107.656422
 20
464.03824
 30
0.0
 11
110.759842
 21
467.14166
 31
0.0
  0
LINE
  5
2D1
330
1F
100
AcDbEntity
  8
LC-006-005-----0
 62
     7
370
    25
100
AcDbLine
 10
105.213935
 20
464.42418
 30
0.0
 11
108.617122
 21
467.827367
 31
0.0
  0
LINE
  5
2D2
330
1F
100
AcDbEntity
  8
LC-006-005-----0
 62
     7
370
    25
100
AcDbLine
 10
103.077565
 20
465.116237
 30
0.0
 11
106.635798
 21
468.67447
 31
0.0
  0
INSERT
  5
2D7
102
{ACAD_REACTORS
330
538
102
}
330
1F
100
AcDbEntity
  8
LC-006-005-----0
 62
     7
370
    25
100
AcDbBlockReference
  2
*X714
 10
0.0
 20
0.0
 30
0.0
  0
LINE
  5
2D8
330
1F
100
AcDbEntity
  8
LC-006-005-----0
 62
     7
370
    25
100
AcDbLine
 10
100.941196
 20
465.808295
 30
0.0
 11
104.439318
 21
469.306417
 31
0.0
  0
LINE
  5
2D9
330
1F
100
AcDbEntity
  8
LC-006-005-----0
 62
     7
370
    25
100
AcDbLine
 10
98.804827
 20
466.500353
 30
0.0
 11
101.794234
 21
469.489761
 31
0.0
  0
INSERT
  5
2DE
102
{ACAD_REACTORS
330
538
102
}
330
1F
100
AcDbEntity
  8
LC-006-005-----0
 62
     7
370
    25
100
AcDbBlockReference
  2
*X815
 10
0.0
 20
0.0
 30
0.0
  0
LINE
  5
2DF
330
1F
100
AcDbEntity
  8
LC-006-005-----0
 62
     7
370
    25
100
AcDbLine
 10
96.336884
 20
466.860837
 30
0.0
 11
99.149151
 21
469.673104
 31
0.0
  0
LINE
  5
2E0
330
1F
100
AcDbEntity
  8
LC-006-005-----0
 62
     7
370
    25
100
AcDbLine
 10
93.6918
 20
467.04418
 30
0.0
 11
96.504067
 21
469.856447
 31
0.0
  0
LINE
  5
2E1
330
1F
100
AcDbEntity
  8
LC-006-005-----0
 62
     7
370
    25
100
AcDbLine
 10
91.046716
 20
467.227524
 30
0.0
 11
93.858983
 21
470.03979
 31
0.0
  0
LINE
  5
2E2
330
1F
100
AcDbEntity
  8
LC-006-005-----0
 62
     7
370
    25
100
AcDbLine
 10
88.401632
 20
467.410867
 30
0.0
 11
91.213899
 21
470.223134
 31
0.0
  0
LINE
  5
2E3
330
1F
100
AcDbEntity
  8
LC-006-005-----0
 62
     7
370
    25
100
AcDbLine
 10
85.756548
 20
467.59421
 30
0.0
 11
88.568815
 21
470.406477
 31
0.0
  0
LINE
  5
2E4
330
1F
100
AcDbEntity
  8
LC-006-005-----0
 62
     7
370
    25
100
AcDbLine
 10
83.111464
 20
467.777553
 30
0.0
 11
85.923731
 21
470.58982
 31
0.0
  0
LINE
  5
2E5
330
1F
100
AcDbEntity
  8
LC-006-005-----0
 62
     7
370
    25
100
AcDbLine
 10
80.46638
 20
467.960896
 30
0.0
 11
83.278647
 21
470.773163
 31
0.0
  0
LINE
  5
2E6
330
1F
100
AcDbEntity
  8
LC-006-005-----0
 62
     7
370
    25
100
AcDbLine
 10
77.821296
 20
468.14424
 30
0.0
 11
80.633563
 21
470.956506
 31
0.0
  0
LINE
  5
2E7
330
1F
100
AcDbEntity
  8
LC-006-005-----0
 62
     7
370
    25
100
AcDbLine
 10
75.176213
 20
468.327583
 30
0.0
 11
77.988479
 21
471.13985
 31
0.0
  0
LINE
  5
2E8
330
1F
100
AcDbEntity
  8
LC-001-002-----0
 62
     7
370
    50
100
AcDbLine
 10
128.311621
 20
456.983645
 30
0.0
 11
128.311621
 21
463.089171
 31
0.0
  0
LINE
  5
2E9
330
1F
100
AcDbEntity
  8
LC-001-002-----0
 62
     7
370
    50
100
AcDbLine
 10
302.310207
 20
445.162539
 30
0.0
 11
276.327634
 21
445.162539
 31
0.0
  0
LINE
  5
2EA
330
1F
100
AcDbEntity
  8
LC-001-002-----0
 62
     7
370
    50
100
AcDbLine
 10
306.060914
 20
446.745451
 30
0.0
 11
300.682153
 21
435.197343
 31
0.0
  0
ARC
  5
2EB
330
1F
100
AcDbEntity
  8
LC-004-002-RND-0
 62
     7
370
    50
100
AcDbCircle
 10
139.404386
 20
443.563365
 30
0.0
 40
0.7999999999999545
100
AcDbArc
 50
0.0
 51
90.0
  0
LINE
  5
2EC
330
1F
100
AcDbEntity
  8
LC-001-002-----0
 62
     7
370
    50
100
AcDbLine
 10
140.204386
 20
443.163365
 30
0.0
 11
140.204386
 21
443.563365
 31
0.0
  0
ARC
  5
2ED
330
1F
100
AcDbEntity
  8
LC-004-002-RND-0
 62
     7
370
    50
100
AcDbCircle
 10
139.404386
 20
440.063365
 30
0.0
 40
0.7999999999999545
100
AcDbArc
 50
0.0
 51
90.0
  0
LINE
  5
2EE
330
1F
100
AcDbEntity
  8
LC-001-002-----0
 62
     7
370
    50
100
AcDbLine
 10
140.204386
 20
439.663365
 30
0.0
 11
140.204386
 21
440.063365
 31
0.0
  0
ARC
  5
2EF
330
1F
100
AcDbEntity
  8
LC-004-002-RND-0
 62
     7
370
    50
100
AcDbCircle
 10
139.404386
 20
439.663365
 30
0.0
 40
0.7999999999999545
100
AcDbArc
 50
270.0
 51
0.0
  0
LINE
  5
2F0
330
1F
100
AcDbEntity
  8
LC-001-002-----0
 62
     7
370
    50
100
AcDbLine
 10
139.204386
 20
440.863365
 30
0.0
 11
139.404386
 21
440.863365
 31
0.0
  0
LINE
  5
2F1
330
1F
100
AcDbEntity
  8
LC-001-002-----0
 62
     7
370
    50
100
AcDbLine
 10
139.204386
 20
438.863365
 30
0.0
 11
139.404386
 21
438.863365
 31
0.0
  0
LINE
  5
2F2
330
1F
100
AcDbEntity
  8
LC-001-002-----0
 62
     7
370
    50
100
AcDbLine
 10
139.204386
 20
438.863365
 30
0.0
 11
139.204386
 21
438.457704
 31
0.0
  0
LINE
  5
2F3
330
1F
100
AcDbEntity
  8
LC-001-002-----0
 62
     7
370
    50
100
AcDbLine
 10
306.060914
 20
453.039408
 30
0.0
 11
306.060914
 21
446.745451
 31
0.0
  0
LINE
  5
2F4
330
1F
100
AcDbEntity
  8
LC-001-002-----0
 62
     7
370
    50
100
AcDbLine
 10
308.810914
 20
454.039408
 30
0.0
 11
307.060914
 21
454.039408
 31
0.0
  0
ARC
  5
2F5
330
1F
100
AcDbEntity
  8
LC-004-002-RND-0
 62
     7
370
    50
100
AcDbCircle
 10
308.810914
 20
456.539408
 30
0.0
 40
2.5
100
AcDbArc
 50
270.0
 51
0.0
  0
ARC
  5
2F6
330
1F
100
AcDbEntity
  8
LC-004-002-RND-0
 62
     7
370
    50
100
AcDbCircle
 10
307.060914
 20
453.039408
 30
0.0
 40
1.0
100
AcDbArc
 50
90.0
 51
180.0
  0
ARC
  5
2F7
330
1F
100
AcDbEntity
  8
LC-004-002-RND-0
 62
     7
370
    50
100
AcDbCircle
 10
127.060914
 20
453.039408
 30
0.0
 40
1.0
100
AcDbArc
 50
0.0
 51
90.0
  0
LINE
  5
2F8
330
1F
100
AcDbEntity
  8
LC-001-002-----0
 62
     7
370
    50
100
AcDbLine
 10
312.310914
 20
458.539408
 30
0.0
 11
311.310914
 21
456.807357
 31
0.0
  0
LINE
  5
2F9
330
1F
100
AcDbEntity
  8
LC-001-002-----0
 62
     7
370
    50
100
AcDbLine
 10
312.310914
 20
459.539408
 30
0.0
 11
312.310914
 21
458.539408
 31
0.0
  0
LINE
  5
2FA
330
1F
100
AcDbEntity
  8
LC-001-002-----0
 62
     7
370
    50
100
AcDbLine
 10
311.310914
 20
462.512278
 30
0.0
 11
311.310914
 21
460.539408
 31
0.0
  0
LINE
  5
2FB
330
1F
100
AcDbEntity
  8
LC-001-002-----0
 62
     7
370
    50
100
AcDbLine
 10
125.213003
 20
465.817739
 30
0.0
 11
125.213003
 21
458.132837
 31
0.0
  0
LINE
  5
2FC
330
1F
100
AcDbEntity
  8
LC-001-002-----0
 62
     7
370
    50
100
AcDbLine
 10
130.311621
 20
460.897366
 30
0.0
 11
130.311621
 21
446.662539
 31
0.0
  0
LINE
  5
2FD
330
1F
100
AcDbEntity
  8
LC-001-002-----0
 62
     7
370
    50
100
AcDbLine
 10
131.811621
 20
445.162539
 30
0.0
 11
210.173146
 21
445.162539
 31
0.0
  0
ARC
  5
2FE
330
1F
100
AcDbEntity
  8
LC-004-002-RND-0
 62
     7
370
    50
100
AcDbCircle
 10
131.811621
 20
446.662539
 30
0.0
 40
1.5
100
AcDbArc
 50
180.0
 51
270.0
  0
LINE
  5
2FF
330
1F
100
AcDbEntity
  8
LC-001-002-----0
 62
     7
370
    50
100
AcDbLine
 10
128.311621
 20
456.983645
 30
0.0
 11
126.143247
 21
457.135273
 31
0.0
  0
ARC
  5
300
330
1F
100
AcDbEntity
  8
LC-004-002-RND-0
 62
     7
370
    50
100
AcDbCircle
 10
138.404386
 20
444.362539
 30
0.0
 40
0.7999999999999732
100
AcDbArc
 50
0.059159
 51
90.0
  0
LINE
  5
301
330
1F
100
AcDbEntity
  8
LC-001-002-----0
 62
     7
370
    50
100
AcDbLine
 10
139.404386
 20
444.363365
 30
0.0
 11
139.204386
 21
444.363365
 31
0.0
  0
LINE
  5
302
330
1F
100
AcDbEntity
  8
LC-001-002-----0
 62
     7
370
    50
100
AcDbLine
 10
139.404386
 20
442.363365
 30
0.0
 11
139.204386
 21
442.363365
 31
0.0
  0
LINE
  5
303
330
1F
100
AcDbEntity
  8
LC-001-002-----0
 62
     7
370
    50
100
AcDbLine
 10
311.310914
 20
460.539408
 30
0.0
 11
312.310914
 21
459.539408
 31
0.0
  0
LINE
  5
304
330
1F
100
AcDbEntity
  8
LC-001-002-----0
 62
     7
370
    50
100
AcDbLine
 10
305.810207
 20
456.983645
 30
0.0
 11
307.978582
 21
457.135273
 31
0.0
  0
LINE
  5
305
330
1F
100
AcDbEntity
  8
LC-001-002-----0
 62
     7
370
    50
100
AcDbLine
 10
297.96267
 20
433.463997
 30
0.0
 11
288.060914
 21
433.463997
 31
0.0
  0
ARC
  5
306
330
1F
100
AcDbEntity
  8
LC-001-002-----0
 62
     7
370
    50
100
AcDbCircle
 10
282.739431
 20
434.968834
 30
0.0
 40
1.499514000000772
100
AcDbArc
 50
90.0
 51
180.0
  0
LINE
  5
307
330
1F
100
AcDbEntity
  8
LC-001-002-----0
 62
     7
370
    50
100
AcDbLine
 10
282.739431
 20
436.468348
 30
0.0
 11
292.918091
 21
436.468348
 31
0.0
  0
LINE
  5
308
330
1F
100
AcDbEntity
  8
LC-001-002-----0
 62
     7
370
    50
100
AcDbLine
 10
288.060914
 20
433.463997
 30
0.0
 11
284.560914
 21
429.963997
 31
0.0
  0
LINE
  5
309
330
1F
100
AcDbEntity
  8
LC-001-002-----0
 62
     7
370
    50
100
AcDbLine
 10
284.560914
 20
429.963997
 30
0.0
 11
284.560914
 21
426.963997
 31
0.0
  0
ARC
  5
30A
330
1F
100
AcDbEntity
  8
LC-004-002-RND-0
 62
     7
370
    50
100
AcDbCircle
 10
281.560914
 20
426.963997
 30
0.0
 40
3.0
100
AcDbArc
 50
270.0
 51
0.0
  0
ARC
  5
30B
330
1F
100
AcDbEntity
  8
LC-001-002-----0
 62
     7
370
    50
100
AcDbCircle
 10
316.028873
 20
398.76204
 30
0.0
 40
29.49999999999992
100
AcDbArc
 50
78.07248
 51
122.093408
  0
ARC
  5
30C
330
1F
100
AcDbEntity
  8
LC-001-002-----0
 62
     7
370
    50
100
AcDbCircle
 10
316.028873
 20
398.76204
 30
0.0
 40
29.50000000000004
100
AcDbArc
 50
291.049054
 51
306.610955
  0
ARC
  5
30D
330
1F
100
AcDbEntity
  8
LC-001-002-----0
 62
     7
370
    50
100
AcDbCircle
 10
316.028873
 20
398.76204
 30
0.0
 40
29.50000000000003
100
AcDbArc
 50
237.906592
 51
281.92752
  0
ARC
  5
30E
330
1F
100
AcDbEntity
  8
LC-001-002-----0
 62
     7
370
    50
100
AcDbCircle
 10
316.028873
 20
398.76204
 30
0.0
 40
29.49999999999998
100
AcDbArc
 50
53.389045
 51
68.950946
  0
LINE
  5
30F
330
1F
100
AcDbEntity
  8
LC-006-005-----0
 62
     7
370
    25
100
AcDbLine
 10
72.531129
 20
468.510926
 30
0.0
 11
75.343395
 21
471.323193
 31
0.0
  0
ARC
  5
310
330
1F
100
AcDbEntity
  8
LC-004-002-RND-0
 62
     7
370
    50
100
AcDbCircle
 10
307.908826
 20
458.132837
 30
0.0
 40
1.000000000000005
100
AcDbArc
 50
274.0
 51
0.0
  0
LINE
  5
311
330
1F
100
AcDbEntity
  8
LC-006-005-----0
 62
     7
370
    25
100
AcDbLine
 10
69.886045
 20
468.694269
 30
0.0
 11
72.698311
 21
471.506536
 31
0.0
  0
LINE
  5
312
330
1F
100
AcDbEntity
  8
LC-001-002-----0
 62
     7
370
    50
100
AcDbLine
 10
261.560914
 20
426.272586
 30
0.0
 11
261.560914
 21
376.995155
 31
0.0
  0
LINE
  5
313
330
1F
100
AcDbEntity
  8
LC-001-002-----0
 62
     7
370
    50
100
AcDbLine
 10
278.560914
 20
372.028298
 30
0.0
 11
278.560914
 21
357.276134
 31
0.0
  0
LINE
  5
314
330
1F
100
AcDbEntity
  8
LC-001-002-----0
 62
     7
370
    50
100
AcDbLine
 10
281.560914
 20
371.77014
 30
0.0
 11
281.560914
 21
358.276134
 31
0.0
  0
LINE
  5
315
330
1F
100
AcDbEntity
  8
LC-001-002-----0
 62
     7
370
    50
100
AcDbLine
 10
259.560914
 20
426.272586
 30
0.0
 11
259.560914
 21
360.276134
 31
0.0
  0
LINE
  5
316
330
1F
100
AcDbEntity
  8
LC-001-002-----0
 62
     7
370
    50
100
AcDbLine
 10
311.310914
 20
456.807357
 30
0.0
 11
311.310914
 21
456.539408
 31
0.0
  0
ARC
  5
317
330
1F
100
AcDbEntity
  8
LC-004-002-RND-0
 62
     7
370
    50
100
AcDbCircle
 10
283.560914
 20
371.77014
 30
0.0
 40
2.0
100
AcDbArc
 50
90.0
 51
180.0
  0
LINE
  5
318
330
1F
100
AcDbEntity
  8
LC-002-207-----0
 62
     7
370
    50
100
AcDbLine
 10
261.560914
 20
357.276134
 30
0.0
 11
280.560914
 21
357.276134
 31
0.0
  0
LINE
  5
319
330
1F
100
AcDbEntity
  8
LC-001-002-----0
 62
     7
370
    50
100
AcDbLine
 10
98.060914
 20
466.741336
 30
0.0
 11
106.060914
 21
464.149808
 31
0.0
  0
LINE
  5
31A
330
1F
100
AcDbEntity
  8
LC-001-002-----0
 62
     7
370
    50
100
AcDbLine
 10
128.060914
 20
453.039408
 30
0.0
 11
128.060914
 21
446.745451
 31
0.0
  0
LINE
  5
31B
330
1F
100
AcDbEntity
  8
LC-001-002-----0
 62
     7
370
    50
100
AcDbLine
 10
121.810914
 20
459.539408
 30
0.0
 11
121.810914
 21
458.539408
 31
0.0
  0
LINE
  5
31C
330
1F
100
AcDbEntity
  8
LC-001-002-----0
 62
     7
370
    50
100
AcDbLine
 10
122.810914
 20
460.539408
 30
0.0
 11
121.810914
 21
459.539408
 31
0.0
  0
LINE
  5
31D
330
1F
100
AcDbEntity
  8
LC-001-002-----0
 62
     7
370
    50
100
AcDbLine
 10
304.310207
 20
462.980167
 30
0.0
 11
304.310207
 21
461.763392
 31
0.0
  0
LINE
  5
31E
330
1F
100
AcDbEntity
  8
LC-001-002-----0
 62
     7
370
    50
100
AcDbLine
 10
146.060914
 20
433.463997
 30
0.0
 11
149.560914
 21
429.963997
 31
0.0
  0
LINE
  5
31F
330
1F
100
AcDbEntity
  8
LC-001-002-----0
 62
     7
370
    50
100
AcDbLine
 10
121.810914
 20
458.539408
 30
0.0
 11
122.810914
 21
456.807357
 31
0.0
  0
LINE
  5
320
330
1F
100
AcDbEntity
  8
LC-001-002-----0
 62
     7
370
    50
100
AcDbLine
 10
304.310207
 20
461.763392
 30
0.0
 11
303.810207
 21
460.897366
 31
0.0
  0
ARC
  5
321
330
1F
100
AcDbEntity
  8
LC-004-002-RND-0
 62
     7
370
    50
100
AcDbCircle
 10
292.918091
 20
438.457704
 30
0.0
 40
1.999352000000499
100
AcDbArc
 50
270.0
 51
0.0
  0
LINE
  5
322
330
1F
100
AcDbEntity
  8
LC-001-002-----0
 62
     7
370
    50
100
AcDbLine
 10
294.917443
 20
438.863365
 30
0.0
 11
294.917443
 21
438.457704
 31
0.0
  0
ARC
  5
323
330
1F
100
AcDbEntity
  8
LC-004-002-RND-0
 62
     7
370
    50
100
AcDbCircle
 10
294.717443
 20
439.663365
 30
0.0
 40
0.7999999999999545
100
AcDbArc
 50
180.0
 51
270.0
  0
LINE
  5
324
330
1F
100
AcDbEntity
  8
LC-001-002-----0
 62
     7
370
    50
100
AcDbLine
 10
293.917443
 20
439.663365
 30
0.0
 11
293.917443
 21
440.063365
 31
0.0
  0
ARC
  5
325
330
1F
100
AcDbEntity
  8
LC-004-002-RND-0
 62
     7
370
    50
100
AcDbCircle
 10
294.717443
 20
440.063365
 30
0.0
 40
0.7999999999999545
100
AcDbArc
 50
90.0
 51
180.0
  0
LINE
  5
326
330
1F
100
AcDbEntity
  8
LC-001-002-----0
 62
     7
370
    50
100
AcDbLine
 10
294.917443
 20
442.363365
 30
0.0
 11
294.917443
 21
440.863365
 31
0.0
  0
ARC
  5
327
330
1F
100
AcDbEntity
  8
LC-004-002-RND-0
 62
     7
370
    50
100
AcDbCircle
 10
294.717443
 20
443.163365
 30
0.0
 40
0.7999999999999545
100
AcDbArc
 50
180.0
 51
270.0
  0
LINE
  5
328
330
1F
100
AcDbEntity
  8
LC-001-002-----0
 62
     7
370
    50
100
AcDbLine
 10
293.917443
 20
443.163365
 30
0.0
 11
293.917443
 21
443.563365
 31
0.0
  0
ARC
  5
329
330
1F
100
AcDbEntity
  8
LC-004-002-RND-0
 62
     7
370
    50
100
AcDbCircle
 10
294.717443
 20
443.563365
 30
0.0
 40
0.8000000000001819
100
AcDbArc
 50
90.0
 51
180.0
  0
ARC
  5
32A
330
1F
100
AcDbEntity
  8
LC-004-002-RND-0
 62
     7
370
    50
100
AcDbCircle
 10
295.717443
 20
444.362539
 30
0.0
 40
0.7999999999999545
100
AcDbArc
 50
90.0
 51
179.940841
  0
ARC
  5
32B
330
1F
100
AcDbEntity
  8
LC-003-207-RND-0
 62
     7
370
    50
100
AcDbCircle
 10
280.560914
 20
358.276134
 30
0.0
 40
1.0
100
AcDbArc
 50
270.0
 51
0.0
  0
LINE
  5
32C
330
1F
100
AcDbEntity
  8
LC-006-005-----0
 62
     7
370
    25
100
AcDbLine
 10
67.240961
 20
468.877612
 30
0.0
 11
70.053228
 21
471.689879
 31
0.0
  0
LINE
  5
32D
330
1F
100
AcDbEntity
  8
LC-006-005-----0
 62
     7
370
    25
100
AcDbLine
 10
66.060914
 20
470.525993
 30
0.0
 11
67.408144
 21
471.873222
 31
0.0
  0
LINE
  5
32E
330
1F
100
AcDbEntity
  8
LC-006-005-----0
 62
     7
370
    25
100
AcDbLine
 10
326.624303
 20
371.879137
 30
0.0
 11
331.214432
 21
376.469266
 31
0.0
  0
LINE
  5
32F
330
1F
100
AcDbEntity
  8
LC-002-207-----0
 62
     7
370
    50
100
AcDbLine
 10
152.560914
 20
357.276134
 30
0.0
 11
261.560914
 21
357.276134
 31
0.0
  0
LINE
  5
330
330
1F
100
AcDbEntity
  8
LC-002-207-----0
 62
     7
370
    50
100
AcDbLine
 10
155.560914
 20
360.276134
 30
0.0
 11
181.800309
 21
360.276134
 31
0.0
  0
LINE
  5
331
330
1F
100
AcDbEntity
  8
LC-006-005-----0
 62
     7
370
    25
100
AcDbLine
 10
152.560914
 20
370.349803
 30
0.0
 11
155.560914
 21
373.349803
 31
0.0
  0
LINE
  5
332
330
1F
100
AcDbEntity
  8
LC-006-005-----0
 62
     7
370
    25
100
AcDbLine
 10
152.560914
 20
373.17823
 30
0.0
 11
155.560914
 21
376.17823
 31
0.0
  0
LINE
  5
333
330
1F
100
AcDbEntity
  8
LC-006-005-----0
 62
     7
370
    25
100
AcDbLine
 10
321.736124
 20
369.819385
 30
0.0
 11
322.125761
 21
370.209022
 31
0.0
  0
LINE
  5
334
330
1F
100
AcDbEntity
  8
LC-001-002-----0
 62
     7
370
    50
100
AcDbLine
 10
280.560914
 20
426.272586
 30
0.0
 11
274.560914
 21
426.272586
 31
0.0
  0
LINE
  5
335
330
1F
100
AcDbEntity
  8
LC-001-002-----0
 62
     7
370
    50
100
AcDbLine
 10
274.560914
 20
426.272586
 30
0.0
 11
212.563
 21
426.272586
 31
0.0
  0
LINE
  5
336
330
1F
100
AcDbEntity
  8
LC-006-005-----0
 62
     7
370
    25
100
AcDbLine
 10
325.686285
 20
373.769546
 30
0.0
 11
328.386005
 21
376.469266
 31
0.0
  0
LINE
  5
337
330
1F
100
AcDbEntity
  8
LC-006-005-----0
 62
     7
370
    25
100
AcDbLine
 10
318.449862
 20
369.36155
 30
0.0
 11
322.125761
 21
373.037449
 31
0.0
  0
LINE
  5
338
330
1F
100
AcDbEntity
  8
LC-006-005-----0
 62
     7
370
    25
100
AcDbLine
 10
322.858407
 20
373.770095
 30
0.0
 11
325.557577
 21
376.469266
 31
0.0
  0
LINE
  5
339
330
1F
100
AcDbEntity
  8
LC-006-005-----0
 62
     7
370
    25
100
AcDbLine
 10
315.526208
 20
369.266323
 30
0.0
 11
322.72915
 21
376.469266
 31
0.0
  0
LINE
  5
33A
330
1F
100
AcDbEntity
  8
LC-006-005-----0
 62
     7
370
    25
100
AcDbLine
 10
312.863783
 20
369.432325
 30
0.0
 11
319.900723
 21
376.469266
 31
0.0
  0
LINE
  5
33B
330
1F
100
AcDbEntity
  8
LC-006-005-----0
 62
     7
370
    25
100
AcDbLine
 10
310.40592
 20
369.80289
 30
0.0
 11
317.072296
 21
376.469266
 31
0.0
  0
LINE
  5
33C
330
1F
100
AcDbEntity
  8
LC-006-005-----0
 62
     7
370
    25
100
AcDbLine
 10
308.117329
 20
370.342725
 30
0.0
 11
314.243869
 21
376.469266
 31
0.0
  0
LINE
  5
33D
330
1F
100
AcDbEntity
  8
LC-006-005-----0
 62
     7
370
    25
100
AcDbLine
 10
305.974493
 20
371.028317
 30
0.0
 11
311.415442
 21
376.469266
 31
0.0
  0
LINE
  5
33E
330
1F
100
AcDbEntity
  8
LC-006-005-----0
 62
     7
370
    25
100
AcDbLine
 10
303.961061
 20
371.843312
 30
0.0
 11
308.587015
 21
376.469266
 31
0.0
  0
LINE
  5
33F
330
1F
100
AcDbEntity
  8
LC-006-005-----0
 62
     7
370
    25
100
AcDbLine
 10
302.065385
 20
372.776063
 30
0.0
 11
305.758588
 21
376.469266
 31
0.0
  0
LINE
  5
340
330
1F
100
AcDbEntity
  8
LC-006-005-----0
 62
     7
370
    25
100
AcDbLine
 10
300.231035
 20
373.77014
 30
0.0
 11
302.93016
 21
376.469266
 31
0.0
  0
LINE
  5
341
330
1F
100
AcDbEntity
  8
LC-006-005-----0
 62
     7
370
    25
100
AcDbLine
 10
281.020435
 20
357.387967
 30
0.0
 11
281.449081
 21
357.816614
 31
0.0
  0
LINE
  5
342
330
1F
100
AcDbEntity
  8
LC-006-005-----0
 62
     7
370
    25
100
AcDbLine
 10
297.402608
 20
373.77014
 30
0.0
 11
300.101733
 21
376.469266
 31
0.0
  0
LINE
  5
343
330
1F
100
AcDbEntity
  8
LC-006-005-----0
 62
     7
370
    25
100
AcDbLine
 10
278.560914
 20
357.756874
 30
0.0
 11
281.560914
 21
360.756874
 31
0.0
  0
LINE
  5
344
330
1F
100
AcDbEntity
  8
LC-006-005-----0
 62
     7
370
    25
100
AcDbLine
 10
294.574181
 20
373.77014
 30
0.0
 11
297.273306
 21
376.469266
 31
0.0
  0
LINE
  5
345
330
1F
100
AcDbEntity
  8
LC-006-005-----0
 62
     7
370
    25
100
AcDbLine
 10
278.560914
 20
360.585301
 30
0.0
 11
281.560914
 21
363.585301
 31
0.0
  0
LINE
  5
346
330
1F
100
AcDbEntity
  8
LC-006-005-----0
 62
     7
370
    25
100
AcDbLine
 10
291.745754
 20
373.77014
 30
0.0
 11
294.444879
 21
376.469266
 31
0.0
  0
LINE
  5
347
330
1F
100
AcDbEntity
  8
LC-006-005-----0
 62
     7
370
    25
100
AcDbLine
 10
278.560914
 20
363.413728
 30
0.0
 11
281.560914
 21
366.413728
 31
0.0
  0
LINE
  5
348
330
1F
100
AcDbEntity
  8
LC-006-005-----0
 62
     7
370
    25
100
AcDbLine
 10
288.917327
 20
373.77014
 30
0.0
 11
291.616452
 21
376.469266
 31
0.0
  0
LINE
  5
349
330
1F
100
AcDbEntity
  8
LC-006-005-----0
 62
     7
370
    25
100
AcDbLine
 10
278.560914
 20
366.242155
 30
0.0
 11
281.560914
 21
369.242155
 31
0.0
  0
LINE
  5
34A
330
1F
100
AcDbEntity
  8
LC-006-005-----0
 62
     7
370
    25
100
AcDbLine
 10
286.0889
 20
373.77014
 30
0.0
 11
288.788025
 21
376.469266
 31
0.0
  0
LINE
  5
34B
330
1F
100
AcDbEntity
  8
LC-006-005-----0
 62
     7
370
    25
100
AcDbLine
 10
278.560914
 20
369.070582
 30
0.0
 11
281.587898
 21
372.097566
 31
0.0
  0
LINE
  5
34C
330
1F
100
AcDbEntity
  8
LC-006-005-----0
 62
     7
370
    25
100
AcDbLine
 10
283.233488
 20
373.743156
 30
0.0
 11
285.959598
 21
376.469266
 31
0.0
  0
LINE
  5
34D
330
1F
100
AcDbEntity
  8
LC-006-005-----0
 62
     7
370
    25
100
AcDbLine
 10
278.560914
 20
371.899009
 30
0.0
 11
283.131171
 21
376.469266
 31
0.0
  0
LINE
  5
34E
330
1F
100
AcDbEntity
  8
LC-006-005-----0
 62
     7
370
    25
100
AcDbLine
 10
261.109612
 20
357.276134
 30
0.0
 11
261.560914
 21
357.727437
 31
0.0
  0
LINE
  5
34F
330
1F
100
AcDbEntity
  8
LC-006-005-----0
 62
     7
370
    25
100
AcDbLine
 10
277.581674
 20
373.748196
 30
0.0
 11
280.302743
 21
376.469266
 31
0.0
  0
LINE
  5
350
330
1F
100
AcDbEntity
  8
LC-006-005-----0
 62
     7
370
    25
100
AcDbLine
 10
258.281185
 20
357.276134
 30
0.0
 11
261.560914
 21
360.555864
 31
0.0
  0
LINE
  5
351
330
1F
100
AcDbEntity
  8
LC-006-005-----0
 62
     7
370
    25
100
AcDbLine
 10
275.080167
 20
374.075117
 30
0.0
 11
277.506358
 21
376.501308
 31
0.0
  0
LINE
  5
352
330
1F
100
AcDbEntity
  8
LC-006-005-----0
 62
     7
370
    25
100
AcDbLine
 10
255.452758
 20
357.276134
 30
0.0
 11
258.452758
 21
360.276134
 31
0.0
  0
LINE
  5
353
330
1F
100
AcDbEntity
  8
LC-006-005-----0
 62
     7
370
    25
100
AcDbLine
 10
259.560914
 20
361.384291
 30
0.0
 11
261.560914
 21
363.384291
 31
0.0
  0
LINE
  5
354
330
1F
100
AcDbEntity
  8
LC-006-005-----0
 62
     7
370
    25
100
AcDbLine
 10
272.336708
 20
374.160085
 30
0.0
 11
274.762899
 21
376.586276
 31
0.0
  0
LINE
  5
355
330
1F
100
AcDbEntity
  8
LC-006-005-----0
 62
     7
370
    25
100
AcDbLine
 10
252.624331
 20
357.276134
 30
0.0
 11
255.624331
 21
360.276134
 31
0.0
  0
LINE
  5
356
330
1F
100
AcDbEntity
  8
LC-006-005-----0
 62
     7
370
    25
100
AcDbLine
 10
259.560914
 20
364.212718
 30
0.0
 11
261.560914
 21
366.212718
 31
0.0
  0
LINE
  5
357
330
1F
100
AcDbEntity
  8
LC-006-005-----0
 62
     7
370
    25
100
AcDbLine
 10
269.593249
 20
374.245052
 30
0.0
 11
272.01944
 21
376.671243
 31
0.0
  0
LINE
  5
358
330
1F
100
AcDbEntity
  8
LC-006-005-----0
 62
     7
370
    25
100
AcDbLine
 10
249.795904
 20
357.276134
 30
0.0
 11
252.795904
 21
360.276134
 31
0.0
  0
LINE
  5
359
330
1F
100
AcDbEntity
  8
LC-006-005-----0
 62
     7
370
    25
100
AcDbLine
 10
259.560914
 20
367.041145
 30
0.0
 11
261.560914
 21
369.041145
 31
0.0
  0
LINE
  5
35A
330
1F
100
AcDbEntity
  8
LC-006-005-----0
 62
     7
370
    25
100
AcDbLine
 10
266.849789
 20
374.33002
 30
0.0
 11
269.27598
 21
376.756211
 31
0.0
  0
LINE
  5
35B
330
1F
100
AcDbEntity
  8
LC-006-005-----0
 62
     7
370
    25
100
AcDbLine
 10
246.967477
 20
357.276134
 30
0.0
 11
249.967477
 21
360.276134
 31
0.0
  0
LINE
  5
35C
330
1F
100
AcDbEntity
  8
LC-006-005-----0
 62
     7
370
    25
100
AcDbLine
 10
259.560914
 20
369.869572
 30
0.0
 11
261.560914
 21
371.869572
 31
0.0
  0
LINE
  5
35D
330
1F
100
AcDbEntity
  8
LC-006-005-----0
 62
     7
370
    25
100
AcDbLine
 10
264.10633
 20
374.414988
 30
0.0
 11
266.532521
 21
376.841179
 31
0.0
  0
LINE
  5
35E
330
1F
100
AcDbEntity
  8
LC-006-005-----0
 62
     7
370
    25
100
AcDbLine
 10
244.139049
 20
357.276134
 30
0.0
 11
247.139049
 21
360.276134
 31
0.0
  0
LINE
  5
35F
330
1F
100
AcDbEntity
  8
LC-006-005-----0
 62
     7
370
    25
100
AcDbLine
 10
259.560914
 20
372.697999
 30
0.0
 11
263.789062
 21
376.926147
 31
0.0
  0
LINE
  5
360
330
1F
100
AcDbEntity
  8
LC-006-005-----0
 62
     7
370
    25
100
AcDbLine
 10
241.310622
 20
357.276134
 30
0.0
 11
244.310622
 21
360.276134
 31
0.0
  0
LINE
  5
361
330
1F
100
AcDbEntity
  8
LC-006-005-----0
 62
     7
370
    25
100
AcDbLine
 10
259.560914
 20
375.526426
 30
0.0
 11
261.560914
 21
377.526426
 31
0.0
  0
LINE
  5
362
330
1F
100
AcDbEntity
  8
LC-006-005-----0
 62
     7
370
    25
100
AcDbLine
 10
238.482195
 20
357.276134
 30
0.0
 11
241.482195
 21
360.276134
 31
0.0
  0
LINE
  5
363
330
1F
100
AcDbEntity
  8
LC-006-005-----0
 62
     7
370
    25
100
AcDbLine
 10
259.560914
 20
378.354854
 30
0.0
 11
261.560914
 21
380.354854
 31
0.0
  0
LINE
  5
364
330
1F
100
AcDbEntity
  8
LC-006-005-----0
 62
     7
370
    25
100
AcDbLine
 10
235.653768
 20
357.276134
 30
0.0
 11
238.653768
 21
360.276134
 31
0.0
  0
LINE
  5
365
330
1F
100
AcDbEntity
  8
LC-006-005-----0
 62
     7
370
    25
100
AcDbLine
 10
259.560914
 20
381.183281
 30
0.0
 11
261.560914
 21
383.183281
 31
0.0
  0
LINE
  5
366
330
1F
100
AcDbEntity
  8
LC-006-005-----0
 62
     7
370
    25
100
AcDbLine
 10
232.825341
 20
357.276134
 30
0.0
 11
235.825341
 21
360.276134
 31
0.0
  0
LINE
  5
367
330
1F
100
AcDbEntity
  8
LC-006-005-----0
 62
     7
370
    25
100
AcDbLine
 10
259.560914
 20
384.011708
 30
0.0
 11
261.560914
 21
386.011708
 31
0.0
  0
LINE
  5
368
330
1F
100
AcDbEntity
  8
LC-006-005-----0
 62
     7
370
    25
100
AcDbLine
 10
229.996914
 20
357.276134
 30
0.0
 11
232.996914
 21
360.276134
 31
0.0
  0
LINE
  5
369
330
1F
100
AcDbEntity
  8
LC-006-005-----0
 62
     7
370
    25
100
AcDbLine
 10
259.560914
 20
386.840135
 30
0.0
 11
261.560914
 21
388.840135
 31
0.0
  0
LINE
  5
36A
330
1F
100
AcDbEntity
  8
LC-006-005-----0
 62
     7
370
    25
100
AcDbLine
 10
227.168487
 20
357.276134
 30
0.0
 11
230.168487
 21
360.276134
 31
0.0
  0
LINE
  5
36B
330
1F
100
AcDbEntity
  8
LC-006-005-----0
 62
     7
370
    25
100
AcDbLine
 10
259.560914
 20
389.668562
 30
0.0
 11
261.560914
 21
391.668562
 31
0.0
  0
LINE
  5
36C
330
1F
100
AcDbEntity
  8
LC-006-005-----0
 62
     7
370
    25
100
AcDbLine
 10
224.34006
 20
357.276134
 30
0.0
 11
227.34006
 21
360.276134
 31
0.0
  0
LINE
  5
36D
330
1F
100
AcDbEntity
  8
LC-006-005-----0
 62
     7
370
    25
100
AcDbLine
 10
259.560914
 20
392.496989
 30
0.0
 11
261.560914
 21
394.496989
 31
0.0
  0
LINE
  5
36E
330
1F
100
AcDbEntity
  8
LC-006-005-----0
 62
     7
370
    25
100
AcDbLine
 10
221.511632
 20
357.276134
 30
0.0
 11
224.511632
 21
360.276134
 31
0.0
  0
LINE
  5
36F
330
1F
100
AcDbEntity
  8
LC-006-005-----0
 62
     7
370
    25
100
AcDbLine
 10
259.560914
 20
395.325416
 30
0.0
 11
261.560914
 21
397.325416
 31
0.0
  0
LINE
  5
370
330
1F
100
AcDbEntity
  8
LC-006-005-----0
 62
     7
370
    25
100
AcDbLine
 10
218.683205
 20
357.276134
 30
0.0
 11
221.683205
 21
360.276134
 31
0.0
  0
LINE
  5
371
330
1F
100
AcDbEntity
  8
LC-006-005-----0
 62
     7
370
    25
100
AcDbLine
 10
259.560914
 20
398.153843
 30
0.0
 11
261.560914
 21
400.153843
 31
0.0
  0
LINE
  5
372
330
1F
100
AcDbEntity
  8
LC-006-005-----0
 62
     7
370
    25
100
AcDbLine
 10
215.854778
 20
357.276134
 30
0.0
 11
218.854778
 21
360.276134
 31
0.0
  0
LINE
  5
373
330
1F
100
AcDbEntity
  8
LC-006-005-----0
 62
     7
370
    25
100
AcDbLine
 10
259.560914
 20
400.982271
 30
0.0
 11
261.560914
 21
402.982271
 31
0.0
  0
LINE
  5
374
330
1F
100
AcDbEntity
  8
LC-006-005-----0
 62
     7
370
    25
100
AcDbLine
 10
213.026351
 20
357.276134
 30
0.0
 11
216.026351
 21
360.276134
 31
0.0
  0
LINE
  5
375
330
1F
100
AcDbEntity
  8
LC-006-005-----0
 62
     7
370
    25
100
AcDbLine
 10
259.560914
 20
403.810698
 30
0.0
 11
261.560914
 21
405.810698
 31
0.0
  0
LINE
  5
376
330
1F
100
AcDbEntity
  8
LC-006-005-----0
 62
     7
370
    25
100
AcDbLine
 10
210.197924
 20
357.276134
 30
0.0
 11
213.197924
 21
360.276134
 31
0.0
  0
LINE
  5
377
330
1F
100
AcDbEntity
  8
LC-006-005-----0
 62
     7
370
    25
100
AcDbLine
 10
259.560914
 20
406.639125
 30
0.0
 11
261.560914
 21
408.639125
 31
0.0
  0
LINE
  5
378
330
1F
100
AcDbEntity
  8
LC-006-005-----0
 62
     7
370
    25
100
AcDbLine
 10
207.369497
 20
357.276134
 30
0.0
 11
210.369497
 21
360.276134
 31
0.0
  0
LINE
  5
379
330
1F
100
AcDbEntity
  8
LC-006-005-----0
 62
     7
370
    25
100
AcDbLine
 10
259.560914
 20
409.467552
 30
0.0
 11
261.560914
 21
411.467552
 31
0.0
  0
LINE
  5
37A
330
1F
100
AcDbEntity
  8
LC-006-005-----0
 62
     7
370
    25
100
AcDbLine
 10
204.54107
 20
357.276134
 30
0.0
 11
207.54107
 21
360.276134
 31
0.0
  0
LINE
  5
37B
330
1F
100
AcDbEntity
  8
LC-006-005-----0
 62
     7
370
    25
100
AcDbLine
 10
259.560914
 20
412.295979
 30
0.0
 11
261.560914
 21
414.295979
 31
0.0
  0
LINE
  5
37C
330
1F
100
AcDbEntity
  8
LC-006-005-----0
 62
     7
370
    25
100
AcDbLine
 10
201.712643
 20
357.276134
 30
0.0
 11
204.712643
 21
360.276134
 31
0.0
  0
LINE
  5
37D
330
1F
100
AcDbEntity
  8
LC-006-005-----0
 62
     7
370
    25
100
AcDbLine
 10
259.560914
 20
415.124406
 30
0.0
 11
261.560914
 21
417.124406
 31
0.0
  0
LINE
  5
37E
330
1F
100
AcDbEntity
  8
LC-006-005-----0
 62
     7
370
    25
100
AcDbLine
 10
198.884215
 20
357.276134
 30
0.0
 11
201.884215
 21
360.276134
 31
0.0
  0
LINE
  5
37F
330
1F
100
AcDbEntity
  8
LC-006-005-----0
 62
     7
370
    25
100
AcDbLine
 10
259.560914
 20
417.952833
 30
0.0
 11
261.560914
 21
419.952833
 31
0.0
  0
LINE
  5
380
330
1F
100
AcDbEntity
  8
LC-006-005-----0
 62
     7
370
    25
100
AcDbLine
 10
196.055788
 20
357.276134
 30
0.0
 11
199.055788
 21
360.276134
 31
0.0
  0
LINE
  5
381
330
1F
100
AcDbEntity
  8
LC-006-005-----0
 62
     7
370
    25
100
AcDbLine
 10
259.560914
 20
420.78126
 30
0.0
 11
261.560914
 21
422.78126
 31
0.0
  0
LINE
  5
382
330
1F
100
AcDbEntity
  8
LC-006-005-----0
 62
     7
370
    25
100
AcDbLine
 10
193.227361
 20
357.276134
 30
0.0
 11
196.227361
 21
360.276134
 31
0.0
  0
LINE
  5
383
330
1F
100
AcDbEntity
  8
LC-006-005-----0
 62
     7
370
    25
100
AcDbLine
 10
259.560914
 20
423.609688
 30
0.0
 11
261.560914
 21
425.609688
 31
0.0
  0
LINE
  5
384
330
1F
100
AcDbEntity
  8
LC-006-005-----0
 62
     7
370
    25
100
AcDbLine
 10
190.398934
 20
357.276134
 30
0.0
 11
193.398934
 21
360.276134
 31
0.0
  0
LINE
  5
385
330
1F
100
AcDbEntity
  8
LC-006-005-----0
 62
     7
370
    25
100
AcDbLine
 10
187.570507
 20
357.276134
 30
0.0
 11
190.570507
 21
360.276134
 31
0.0
  0
LINE
  5
386
330
1F
100
AcDbEntity
  8
LC-006-005-----0
 62
     7
370
    25
100
AcDbLine
 10
184.74208
 20
357.276134
 30
0.0
 11
188.800309
 21
361.334363
 31
0.0
  0
LINE
  5
387
330
1F
100
AcDbEntity
  8
LC-006-005-----0
 62
     7
370
    25
100
AcDbLine
 10
181.913653
 20
357.276134
 30
0.0
 11
188.800309
 21
364.162791
 31
0.0
  0
LINE
  5
388
330
1F
100
AcDbEntity
  8
LC-006-005-----0
 62
     7
370
    25
100
AcDbLine
 10
179.085226
 20
357.276134
 30
0.0
 11
182.09385
 21
360.284758
 31
0.0
  0
LINE
  5
389
330
1F
100
AcDbEntity
  8
LC-006-005-----0
 62
     7
370
    25
100
AcDbLine
 10
186.791685
 20
364.982594
 30
0.0
 11
188.800309
 21
366.991218
 31
0.0
  0
LINE
  5
38A
330
1F
100
AcDbEntity
  8
LC-006-005-----0
 62
     7
370
    25
100
AcDbLine
 10
176.256798
 20
357.276134
 30
0.0
 11
179.256798
 21
360.276134
 31
0.0
  0
LINE
  5
38B
330
1F
100
AcDbEntity
  8
LC-006-005-----0
 62
     7
370
    25
100
AcDbLine
 10
186.800309
 20
367.819645
 30
0.0
 11
188.800309
 21
369.819645
 31
0.0
  0
LINE
  5
38C
330
1F
100
AcDbEntity
  8
LC-006-005-----0
 62
     7
370
    25
100
AcDbLine
 10
173.428371
 20
357.276134
 30
0.0
 11
176.428371
 21
360.276134
 31
0.0
  0
LINE
  5
38D
330
1F
100
AcDbEntity
  8
LC-006-005-----0
 62
     7
370
    25
100
AcDbLine
 10
186.800309
 20
370.648072
 30
0.0
 11
188.800309
 21
372.648072
 31
0.0
  0
LINE
  5
38E
330
1F
100
AcDbEntity
  8
LC-006-005-----0
 62
     7
370
    25
100
AcDbLine
 10
170.599944
 20
357.276134
 30
0.0
 11
173.599944
 21
360.276134
 31
0.0
  0
LINE
  5
38F
330
1F
100
AcDbEntity
  8
LC-006-005-----0
 62
     7
370
    25
100
AcDbLine
 10
186.800309
 20
373.476499
 30
0.0
 11
188.800309
 21
375.476499
 31
0.0
  0
LINE
  5
390
330
1F
100
AcDbEntity
  8
LC-006-005-----0
 62
     7
370
    25
100
AcDbLine
 10
167.771517
 20
357.276134
 30
0.0
 11
170.771517
 21
360.276134
 31
0.0
  0
LINE
  5
391
330
1F
100
AcDbEntity
  8
LC-006-005-----0
 62
     7
370
    25
100
AcDbLine
 10
186.800309
 20
376.304926
 30
0.0
 11
187.683685
 21
377.188302
 31
0.0
  0
LINE
  5
392
330
1F
100
AcDbEntity
  8
LC-006-005-----0
 62
     7
370
    25
100
AcDbLine
 10
164.94309
 20
357.276134
 30
0.0
 11
167.94309
 21
360.276134
 31
0.0
  0
LINE
  5
393
330
1F
100
AcDbEntity
  8
LC-006-005-----0
 62
     7
370
    25
100
AcDbLine
 10
162.114663
 20
357.276134
 30
0.0
 11
165.114663
 21
360.276134
 31
0.0
  0
LINE
  5
394
330
1F
100
AcDbEntity
  8
LC-006-005-----0
 62
     7
370
    25
100
AcDbLine
 10
159.286236
 20
357.276134
 30
0.0
 11
162.286236
 21
360.276134
 31
0.0
  0
LINE
  5
395
330
1F
100
AcDbEntity
  8
LC-006-005-----0
 62
     7
370
    25
100
AcDbLine
 10
156.457809
 20
357.276134
 30
0.0
 11
159.457809
 21
360.276134
 31
0.0
  0
LINE
  5
396
330
1F
100
AcDbEntity
  8
LC-006-005-----0
 62
     7
370
    25
100
AcDbLine
 10
153.629381
 20
357.276134
 30
0.0
 11
156.629381
 21
360.276134
 31
0.0
  0
LINE
  5
397
330
1F
100
AcDbEntity
  8
LC-006-005-----0
 62
     7
370
    25
100
AcDbLine
 10
152.560914
 20
359.036094
 30
0.0
 11
155.560914
 21
362.036094
 31
0.0
  0
LINE
  5
398
330
1F
100
AcDbEntity
  8
LC-006-005-----0
 62
     7
370
    25
100
AcDbLine
 10
152.560914
 20
361.864522
 30
0.0
 11
155.560914
 21
364.864522
 31
0.0
  0
LINE
  5
399
330
1F
100
AcDbEntity
  8
LC-006-005-----0
 62
     7
370
    25
100
AcDbLine
 10
152.560914
 20
364.692949
 30
0.0
 11
155.560914
 21
367.692949
 31
0.0
  0
LINE
  5
39A
330
1F
100
AcDbEntity
  8
LC-006-005-----0
 62
     7
370
    25
100
AcDbLine
 10
152.560914
 20
367.521376
 30
0.0
 11
155.560914
 21
370.521376
 31
0.0
  0
LINE
  5
39C
102
{ACAD_REACTORS
330
539
102
}
330
1F
100
AcDbEntity
  8
LC-009-205-----0
 62
     7
370
    50
100
AcDbLine
 10
160.360835
 20
436.274474
 30
0.0
 11
209.23391
 21
436.274474
 31
0.0
  0
LINE
  5
39D
102
{ACAD_REACTORS
330
539
102
}
330
1F
100
AcDbEntity
  8
LC-009-205-----0
 62
     7
370
    50
100
AcDbLine
 10
153.260835
 20
436.274474
 30
0.0
 11
160.360835
 21
436.274474
 31
0.0
  0
LINE
  5
39E
102
{ACAD_REACTORS
330
539
102
}
330
1F
100
AcDbEntity
  8
LC-009-205-----0
 62
     7
370
    50
100
AcDbLine
 10
160.360857
 20
428.774481
 30
0.0
 11
160.360835
 21
436.269206
 31
0.0
  0
LINE
  5
39F
102
{ACAD_REACTORS
330
539
102
}
330
1F
100
AcDbEntity
  8
LC-009-205-----0
 62
     7
370
    50
100
AcDbLine
 10
156.06066
 20
376.245012
 30
0.0
 11
177.060914
 21
376.245012
 31
0.0
  0
LINE
  5
3A0
102
{ACAD_REACTORS
330
539
102
}
330
1F
100
AcDbEntity
  8
LC-009-205-----0
 62
     7
370
    50
100
AcDbLine
 10
157.060652
 20
376.245012
 30
0.0
 11
157.060661
 21
390.580085
 31
0.0
  0
LINE
  5
3A1
102
{ACAD_REACTORS
330
539
102
}
330
1F
100
AcDbEntity
  8
LC-009-205-----0
 62
     7
370
    50
100
AcDbLine
 10
157.060669
 20
390.580085
 30
0.0
 11
157.060692
 21
425.774475
 31
0.0
  0
LINE
  5
3A2
102
{ACAD_REACTORS
330
539
102
}
330
1F
100
AcDbEntity
  8
LC-001-002-----0
 62
     7
370
    50
100
AcDbLine
 10
210.587917
 20
449.08754
 30
0.0
 11
209.23391
 21
436.274474
 31
0.0
  0
LINE
  5
3A3
102
{ACAD_REACTORS
330
539
102
}
330
1F
100
AcDbEntity
  8
LC-001-002-----0
 62
     7
370
    50
100
AcDbLine
 10
212.563
 20
448.614641
 30
0.0
 11
212.563
 21
425.434392
 31
0.0
  0
ARC
  5
3A5
102
{ACAD_REACTORS
330
539
102
}
330
1F
100
AcDbEntity
  8
LC-010-205-RND-0
 62
     7
370
    50
100
AcDbCircle
 10
215.063
 20
448.614641
 30
0.0
 40
2.500000000000068
100
AcDbArc
 50
92.0
 51
180.0
  0
ARC
  5
3A6
102
{ACAD_REACTORS
330
539
102
}
330
1F
100
AcDbEntity
  8
LC-010-205-RND-0
 62
     7
370
    50
100
AcDbCircle
 10
215.063
 20
448.614641
 30
0.0
 40
4.500000000000107
100
AcDbArc
 50
88.0
 51
173.967717
  0
LINE
  5
3A7
102
{ACAD_REACTORS
330
539
102
}
330
1F
100
AcDbEntity
  8
LC-001-002-----0
 62
     7
370
    50
100
AcDbLine
 10
255.508536
 20
451.111292
 30
0.0
 11
266.760705
 21
451.111292
 31
0.0
  0
LINE
  5
3A8
102
{ACAD_REACTORS
330
539
102
}
330
1F
100
AcDbEntity
  8
LC-001-002-----0
  6
DASHDOT
 62
     7
370
    25
100
AcDbLine
 10
238.158536
 20
457.24391
 30
0.0
 11
238.158536
 21
447.807382
 31
0.0
  0
ARC
  5
3A9
102
{ACAD_REACTORS
330
539
102
}
330
1F
100
AcDbEntity
  8
LC-004-002-RND-0
 62
     7
370
    50
100
AcDbCircle
 10
266.760705
 20
444.111292
 30
0.0
 40
7.000000000000186
100
AcDbArc
 50
359.999987
 51
90.0
  0
LINE
  5
3AA
102
{ACAD_REACTORS
330
539
102
}
330
1F
100
AcDbEntity
  8
LC-001-002-----0
 62
     7
370
    50
100
AcDbLine
 10
215.220047
 20
453.117382
 30
0.0
 11
220.608536
 21
453.117382
 31
0.0
  0
LINE
  5
3AB
102
{ACAD_REACTORS
330
539
102
}
330
1F
100
AcDbEntity
  8
LC-001-002-----0
 62
     7
370
    50
100
AcDbLine
 10
220.608536
 20
453.117382
 30
0.0
 11
220.808536
 21
453.117382
 31
0.0
  0
LINE
  5
3AC
102
{ACAD_REACTORS
330
539
102
}
330
1F
100
AcDbEntity
  8
LC-009-205-----0
 62
     7
370
    50
100
AcDbLine
 10
273.760702
 20
430.368885
 30
0.0
 11
273.760705
 21
444.11129
 31
0.0
  0
LINE
  5
3AD
102
{ACAD_REACTORS
330
539
102
}
330
1F
100
AcDbEntity
  8
LC-001-002-----0
 62
     7
370
    50
100
AcDbLine
 10
280.861005
 20
436.2744
 30
0.0
 11
280.861005
 21
435.574389
 31
0.0
  0
ARC
  5
3AE
102
{ACAD_REACTORS
330
539
102
}
330
1F
100
AcDbEntity
  8
LC-004-002-RND-0
 62
     7
370
    50
100
AcDbCircle
 10
267.387105
 20
444.117382
 30
0.0
 40
9.000000000000142
100
AcDbArc
 50
5.652944
 51
90.0
  0
LINE
  5
3AF
102
{ACAD_REACTORS
330
539
102
}
330
1F
100
AcDbEntity
  8
LC-009-205-----0
 62
     7
370
    50
100
AcDbLine
 10
276.343336
 20
445.003904
 30
0.0
 11
277.207409
 21
436.274474
 31
0.0
  0
ARC
  5
3B0
102
{ACAD_REACTORS
330
539
102
}
330
1F
100
AcDbEntity
  8
LC-009-205-----0
 62
     7
370
    50
100
AcDbCircle
 10
276.260974
 20
428.774391
 30
0.0
 40
2.500000000000143
100
AcDbArc
 50
179.999761
 51
270.0
  0
ARC
  5
3B1
102
{ACAD_REACTORS
330
539
102
}
330
1F
100
AcDbEntity
  8
LC-009-205-----0
 62
     7
370
    50
100
AcDbCircle
 10
280.360993
 20
426.974392
 30
0.0
 40
0.4999999999999724
100
AcDbArc
 50
359.999925
 51
89.999925
  0
LINE
  5
3B2
102
{ACAD_REACTORS
330
539
102
}
330
1F
100
AcDbEntity
  8
LC-009-205-----0
 62
     7
370
    50
100
AcDbLine
 10
273.760974
 20
428.774401
 30
0.0
 11
273.761005
 21
436.269132
 31
0.0
  0
ARC
  5
3B3
102
{ACAD_REACTORS
330
539
102
}
330
1F
100
AcDbEntity
  8
LC-009-205-----0
 62
     7
370
    50
100
AcDbCircle
 10
276.26097
 20
427.974397
 30
0.0
 40
0.5000000000000286
100
AcDbArc
 50
179.999761
 51
269.999925
  0
LINE
  5
3B4
102
{ACAD_REACTORS
330
539
102
}
330
1F
100
AcDbEntity
  8
LC-009-205-----0
 62
     7
370
    50
100
AcDbLine
 10
280.360993
 20
427.474392
 30
0.0
 11
276.26097
 21
427.474397
 31
0.0
  0
ARC
  5
3B5
102
{ACAD_REACTORS
330
539
102
}
330
1F
100
AcDbEntity
  8
LC-009-205-----0
 62
     7
370
    50
100
AcDbCircle
 10
276.260998
 20
434.574397
 30
0.0
 40
0.5000000000001997
100
AcDbArc
 50
89.999925
 51
179.999761
  0
ARC
  5
3B6
102
{ACAD_REACTORS
330
539
102
}
330
1F
100
AcDbEntity
  8
LC-009-205-----0
 62
     7
370
    50
100
AcDbCircle
 10
280.361002
 20
435.574392
 30
0.0
 40
0.4999999999999724
100
AcDbArc
 50
269.999925
 51
359.999761
  0
LINE
  5
3B7
102
{ACAD_REACTORS
330
539
102
}
330
1F
100
AcDbEntity
  8
LC-009-205-----0
 62
     7
370
    50
100
AcDbLine
 10
280.361001
 20
435.074392
 30
0.0
 11
276.260999
 21
435.074397
 31
0.0
  0
LINE
  5
3B8
102
{ACAD_REACTORS
330
539
102
}
330
1F
100
AcDbEntity
  8
LC-009-205-----0
 62
     7
370
    50
100
AcDbLine
 10
277.207409
 20
436.2744
 30
0.0
 11
280.861005
 21
436.2744
 31
0.0
  0
LINE
  5
3B9
102
{ACAD_REACTORS
330
539
102
}
330
1F
100
AcDbEntity
  8
LC-001-002-----0
 62
     7
370
    50
100
AcDbLine
 10
215.045656
 20
451.111292
 30
0.0
 11
220.808536
 21
451.111292
 31
0.0
  0
LINE
  5
3BA
102
{ACAD_REACTORS
330
539
102
}
330
1F
100
AcDbEntity
  8
LC-001-002-----0
 62
     7
370
    50
100
AcDbLine
 10
220.808536
 20
451.111292
 30
0.0
 11
218.258536
 21
451.111292
 31
0.0
  0
ARC
  5
3BB
102
{ACAD_REACTORS
330
539
102
}
330
1F
100
AcDbEntity
  8
LC-009-205-----0
 62
     7
370
    50
100
AcDbCircle
 10
157.860857
 20
428.774474
 30
0.0
 40
2.5
100
AcDbArc
 50
270.0
 51
0.000164
  0
ARC
  5
3BC
102
{ACAD_REACTORS
330
539
102
}
330
1F
100
AcDbEntity
  8
LC-009-205-----0
 62
     7
370
    50
100
AcDbCircle
 10
157.860859
 20
427.974474
 30
0.0
 40
0.5
100
AcDbArc
 50
270.0
 51
0.000164
  0
ARC
  5
3BD
102
{ACAD_REACTORS
330
539
102
}
330
1F
100
AcDbEntity
  8
LC-009-205-----0
 62
     7
370
    50
100
AcDbCircle
 10
157.560692
 20
425.774474
 30
0.0
 40
0.5
100
AcDbArc
 50
90.0
 51
179.999963
  0
LINE
  5
3BE
102
{ACAD_REACTORS
330
539
102
}
330
1F
100
AcDbEntity
  8
LC-009-205-----0
 62
     7
370
    50
100
AcDbLine
 10
157.560692
 20
426.274474
 30
0.0
 11
157.860857
 21
426.274474
 31
0.0
  0
LINE
  5
3BF
102
{ACAD_REACTORS
330
539
102
}
330
1F
100
AcDbEntity
  8
LC-009-205-----0
 62
     7
370
    50
100
AcDbLine
 10
153.760835
 20
427.474474
 30
0.0
 11
157.860859
 21
427.474474
 31
0.0
  0
ARC
  5
3C0
102
{ACAD_REACTORS
330
539
102
}
330
1F
100
AcDbEntity
  8
LC-009-205-----0
 62
     7
370
    50
100
AcDbCircle
 10
157.86084
 20
434.574474
 30
0.0
 40
0.5000000000000036
100
AcDbArc
 50
0.000164
 51
90.0
  0
LINE
  5
3C1
102
{ACAD_REACTORS
330
539
102
}
330
1F
100
AcDbEntity
  8
LC-009-205-----0
 62
     7
370
    50
100
AcDbLine
 10
153.760837
 20
435.074474
 30
0.0
 11
157.86084
 21
435.074474
 31
0.0
  0
ARC
  5
3C2
102
{ACAD_REACTORS
330
539
102
}
330
1F
100
AcDbEntity
  8
LC-009-205-----0
 62
     7
370
    50
100
AcDbCircle
 10
153.760835
 20
426.974474
 30
0.0
 40
0.5
100
AcDbArc
 50
90.0
 51
180.0
  0
ARC
  5
3C3
102
{ACAD_REACTORS
330
539
102
}
330
1F
100
AcDbEntity
  8
LC-009-205-----0
 62
     7
370
    50
100
AcDbCircle
 10
153.760837
 20
435.574474
 30
0.0
 40
0.5000000000000036
100
AcDbArc
 50
180.000164
 51
270.0
  0
LINE
  5
3C4
102
{ACAD_REACTORS
330
539
102
}
330
1F
100
AcDbEntity
  8
LC-009-205-----0
 62
     7
370
    50
100
AcDbLine
 10
156.06066
 20
376.245012
 30
0.0
 11
156.060692
 21
425.774474
 31
0.0
  0
ARC
  5
3C5
102
{ACAD_REACTORS
330
539
102
}
330
1F
100
AcDbEntity
  8
LC-009-205-----0
 62
     7
370
    50
100
AcDbCircle
 10
155.560692
 20
425.774474
 30
0.0
 40
0.4999999999999931
100
AcDbArc
 50
359.999963
 51
85.018931
  0
LINE
  5
3C6
102
{ACAD_REACTORS
330
539
102
}
330
1F
100
AcDbEntity
  8
LC-009-205-----0
 62
     7
370
    50
100
AcDbLine
 10
153.260835
 20
426.270158
 30
0.0
 11
153.260835
 21
426.974474
 31
0.0
  0
LINE
  5
3C7
102
{ACAD_REACTORS
330
539
102
}
330
1F
100
AcDbEntity
  8
LC-009-205-----0
 62
     7
370
    50
100
AcDbLine
 10
153.260837
 20
435.574473
 30
0.0
 11
153.260835
 21
436.269206
 31
0.0
  0
LINE
  5
3C8
102
{ACAD_REACTORS
330
539
102
}
330
1F
100
AcDbEntity
  8
LC-001-002-----0
 62
     7
370
    50
100
AcDbLine
 10
210.099532
 20
425.434392
 30
0.0
 11
204.901496
 21
376.245012
 31
0.0
  0
LINE
  5
3C9
102
{ACAD_REACTORS
330
539
102
}
330
1F
100
AcDbEntity
  8
LC-009-205-----0
 62
     7
370
    50
100
AcDbLine
 10
280.860992
 20
426.274391
 30
0.0
 11
280.860993
 21
426.974391
 31
0.0
  0
LINE
  5
3CA
102
{ACAD_REACTORS
330
539
102
}
330
1F
100
AcDbEntity
  8
LC-001-002-----0
 62
     7
370
    50
100
AcDbLine
 10
210.099532
 20
425.434392
 30
0.0
 11
212.563
 21
425.434392
 31
0.0
  0
LINE
  5
3CB
102
{ACAD_REACTORS
330
539
102
}
330
1F
100
AcDbEntity
  8
LC-009-205-----0
 62
     7
370
    50
100
AcDbLine
 10
158.360859
 20
427.974476
 30
0.0
 11
158.360853
 21
430.224474
 31
0.0
  0
LINE
  5
3CC
102
{ACAD_REACTORS
330
539
102
}
330
1F
100
AcDbEntity
  8
LC-001-002-----0
 62
     7
370
    50
100
AcDbLine
 10
255.508536
 20
453.117382
 30
0.0
 11
267.387105
 21
453.117382
 31
0.0
  0
LINE
  5
3CD
102
{ACAD_REACTORS
330
539
102
}
330
1F
100
AcDbEntity
  8
LC-009-205-----0
 62
     7
370
    50
100
AcDbLine
 10
158.360847
 20
432.324482
 30
0.0
 11
158.36084
 21
434.574476
 31
0.0
  0
INSERT
  5
3EB
102
{ACAD_REACTORS
330
539
102
}
330
1F
100
AcDbEntity
  8
LC-006-005-----0
 62
     7
370
    25
100
AcDbBlockReference
  2
*X916
 10
0.0
 20
0.0
 30
0.0
  0
INSERT
  5
408
102
{ACAD_REACTORS
330
539
102
}
330
1F
100
AcDbEntity
  8
LC-006-005-----0
 62
     7
370
    25
100
AcDbBlockReference
  2
*X1017
 10
0.0
 20
0.0
 30
0.0
  0
LINE
  5
409
102
{ACAD_REACTORS
330
539
102
}
330
1F
100
AcDbEntity
  8
LC-001-002-----0
  6
DASHDOT
 62
     7
370
    25
100
AcDbLine
 10
238.158536
 20
457.24391
 30
0.0
 11
238.158536
 21
447.807382
 31
0.0
  0
LINE
  5
40A
102
{ACAD_REACTORS
330
539
102
}
330
1F
100
AcDbEntity
  8
LC-001-002-----0
 62
     7
370
    50
100
AcDbLine
 10
215.220047
 20
453.117382
 30
0.0
 11
220.608536
 21
453.117382
 31
0.0
  0
LINE
  5
40B
102
{ACAD_REACTORS
330
539
102
}
330
1F
100
AcDbEntity
  8
LC-001-002-----0
 62
     7
370
    50
100
AcDbLine
 10
220.608536
 20
453.117382
 30
0.0
 11
220.808536
 21
453.117382
 31
0.0
  0
LINE
  5
40C
102
{ACAD_REACTORS
330
539
102
}
330
1F
100
AcDbEntity
  8
LC-001-002-----0
 62
     7
370
    50
100
AcDbLine
 10
215.045656
 20
451.111292
 30
0.0
 11
220.808536
 21
451.111292
 31
0.0
  0
LINE
  5
40D
102
{ACAD_REACTORS
330
539
102
}
330
1F
100
AcDbEntity
  8
LC-001-002-----0
 62
     7
370
    50
100
AcDbLine
 10
220.808536
 20
451.111292
 30
0.0
 11
218.258536
 21
451.111292
 31
0.0
  0
LINE
  5
40E
102
{ACAD_REACTORS
330
539
102
}
330
1F
100
AcDbEntity
  8
LC-001-002-----0
 62
     7
370
    50
100
AcDbLine
 10
216.658536
 20
457.307382
 30
0.0
 11
259.658536
 21
457.307382
 31
0.0
  0
LINE
  5
40F
102
{ACAD_REACTORS
330
539
102
}
330
1F
100
AcDbEntity
  8
LC-001-002-----0
 62
     7
370
    50
100
AcDbLine
 10
216.658536
 20
457.307382
 30
0.0
 11
216.658536
 21
453.114641
 31
0.0
  0
LINE
  5
410
102
{ACAD_REACTORS
330
539
102
}
330
1F
100
AcDbEntity
  8
LC-001-002-----0
 62
     7
370
    50
100
AcDbLine
 10
259.658536
 20
457.307382
 30
0.0
 11
259.658536
 21
453.117382
 31
0.0
  0
LINE
  5
411
102
{ACAD_REACTORS
330
539
102
}
330
1F
100
AcDbEntity
  8
LC-001-002-----0
 62
     7
370
    50
100
AcDbLine
 10
255.508536
 20
454.307382
 30
0.0
 11
255.508536
 21
451.107382
 31
0.0
  0
LINE
  5
412
102
{ACAD_REACTORS
330
539
102
}
330
1F
100
AcDbEntity
  8
LC-001-002-----0
 62
     7
370
    50
100
AcDbLine
 10
220.808536
 20
454.307382
 30
0.0
 11
220.808536
 21
451.107382
 31
0.0
  0
LINE
  5
413
102
{ACAD_REACTORS
330
539
102
}
330
1F
100
AcDbEntity
  8
LC-001-002-----0
 62
     7
370
    50
100
AcDbLine
 10
258.058536
 20
451.107382
 30
0.0
 11
258.058536
 21
447.807382
 31
0.0
  0
LINE
  5
414
102
{ACAD_REACTORS
330
539
102
}
330
1F
100
AcDbEntity
  8
LC-001-002-----0
 62
     7
370
    50
100
AcDbLine
 10
258.058536
 20
447.807382
 30
0.0
 11
218.258536
 21
447.807382
 31
0.0
  0
LINE
  5
415
102
{ACAD_REACTORS
330
539
102
}
330
1F
100
AcDbEntity
  8
LC-001-002-----0
 62
     7
370
    50
100
AcDbLine
 10
218.258536
 20
451.107382
 30
0.0
 11
218.258536
 21
447.807382
 31
0.0
  0
LINE
  5
416
102
{ACAD_REACTORS
330
539
102
}
330
1F
100
AcDbEntity
  8
LC-001-002-----0
 62
     7
370
    50
100
AcDbLine
 10
216.658536
 20
454.307382
 30
0.0
 11
220.808536
 21
454.307382
 31
0.0
  0
LINE
  5
417
102
{ACAD_REACTORS
330
539
102
}
330
1F
100
AcDbEntity
  8
LC-001-002-----0
 62
     7
370
    50
100
AcDbLine
 10
255.508536
 20
454.307382
 30
0.0
 11
259.658536
 21
454.307382
 31
0.0
  0
INSERT
  5
42D
102
{ACAD_REACTORS
330
539
102
}
330
1F
100
AcDbEntity
  8
LC-006-005-----0
 62
     7
370
    25
100
AcDbBlockReference
  2
*X1118
 10
0.0
 20
0.0
 30
0.0
  0
INSERT
  5
444
102
{ACAD_REACTORS
330
539
102
}
330
1F
100
AcDbEntity
  8
LC-006-005-----0
 62
     7
370
    25
100
AcDbBlockReference
  2
*X1219
 10
0.0
 20
0.0
 30
0.0
  0
LINE
  5
445
102
{ACAD_REACTORS
330
539
102
}
330
1F
100
AcDbEntity
  8
LC-001-002-----0
 62
     7
370
    50
100
AcDbLine
 10
253.508536
 20
455.19609
 30
0.0
 11
253.508536
 21
447.807382
 31
0.0
  0
LINE
  5
446
102
{ACAD_REACTORS
330
539
102
}
330
1F
100
AcDbEntity
  8
LC-001-002-----0
 62
     7
370
    50
100
AcDbLine
 10
222.808536
 20
455.19609
 30
0.0
 11
222.808536
 21
447.807382
 31
0.0
  0
ARC
  5
447
102
{ACAD_REACTORS
330
539
102
}
330
1F
100
AcDbEntity
  8
LC-001-002-----0
 62
     7
370
    50
100
AcDbCircle
 10
238.158536
 20
500.63329
 30
0.0
 40
45.96473405232315
100
AcDbArc
 50
250.491197
 51
289.440613
  0
ARC
  5
448
102
{ACAD_REACTORS
330
539
102
}
330
1F
100
AcDbEntity
  8
LC-001-002-----0
 62
     7
370
    50
100
AcDbCircle
 10
238.158536
 20
500.63329
 30
0.0
 40
47.95999999999993
100
AcDbArc
 50
251.333544
 51
288.666456
  0
INSERT
  5
456
102
{ACAD_REACTORS
330
539
102
}
330
1F
100
AcDbEntity
  8
LC-006-005-----0
 62
     7
370
    25
100
AcDbBlockReference
  2
*X1320
 10
0.0
 20
0.0
 30
0.0
  0
INSERT
  5
467
102
{ACAD_REACTORS
330
539
102
}
330
1F
100
AcDbEntity
  8
LC-006-005-----0
 62
     7
370
    25
100
AcDbBlockReference
  2
*X1421
 10
0.0
 20
0.0
 30
0.0
  0
INSERT
  5
47F
102
{ACAD_REACTORS
330
539
102
}
330
1F
100
AcDbEntity
  8
LC-006-005-----0
 62
     7
370
    25
100
AcDbBlockReference
  2
*X1522
 10
0.0
 20
0.0
 30
0.0
  0
ARC
  5
480
102
{ACAD_REACTORS
330
539
102
}
330
1F
100
AcDbEntity
  8
LC-001-002-----0
 62
     7
370
    50
100
AcDbCircle
 10
155.611187
 20
432.324474
 30
0.0
 40
2.75000000000002
100
AcDbArc
 50
0.000164
 51
176.699173
  0
ARC
  5
481
102
{ACAD_REACTORS
330
539
102
}
330
1F
100
AcDbEntity
  8
LC-001-002-----0
 62
     7
370
    50
100
AcDbCircle
 10
155.611187
 20
430.224474
 30
0.0
 40
2.75
100
AcDbArc
 50
180.0
 51
0.0
  0
LINE
  5
482
102
{ACAD_REACTORS
330
539
102
}
330
1F
100
AcDbEntity
  8
LC-001-002-----0
 62
     7
370
    50
100
AcDbLine
 10
152.861187
 20
432.483078
 30
0.0
 11
152.861187
 21
430.247647
 31
0.0
  0
LINE
  5
483
102
{ACAD_REACTORS
330
539
102
}
330
1F
100
AcDbEntity
  8
LC-001-002-----0
 62
     7
370
    50
100
AcDbLine
 10
158.361187
 20
432.324482
 30
0.0
 11
158.361187
 21
430.224474
 31
0.0
  0
ARC
  5
484
102
{ACAD_REACTORS
330
539
102
}
330
1F
100
AcDbEntity
  8
LC-001-002-----0
 62
     7
370
    50
100
AcDbCircle
 10
278.490962
 20
432.324314
 30
0.0
 40
2.749999999999953
100
AcDbArc
 50
352.068577
 51
179.999761
  0
ARC
  5
485
102
{ACAD_REACTORS
330
539
102
}
330
1F
100
AcDbEntity
  8
LC-001-002-----0
 62
     7
370
    50
100
AcDbCircle
 10
278.49097
 20
430.224394
 30
0.0
 40
2.750000000000114
100
AcDbArc
 50
180.0
 51
0.0
  0
INSERT
  5
490
102
{ACAD_REACTORS
330
539
102
}
330
1F
100
AcDbEntity
  8
LC-006-005-----0
 62
     7
370
    25
100
AcDbBlockReference
  2
*X1623
 10
0.0
 20
0.0
 30
0.0
  0
LINE
  5
491
102
{ACAD_REACTORS
330
539
102
}
330
1F
100
AcDbEntity
  8
LC-001-002-----0
 62
     7
370
    50
100
AcDbLine
 10
155.604105
 20
426.272586
 30
0.0
 11
153.260835
 21
426.270158
 31
0.0
  0
LINE
  5
492
102
{ACAD_REACTORS
330
539
102
}
330
1F
100
AcDbEntity
  8
LC-001-002-----0
 62
     7
370
    50
100
AcDbLine
 10
275.760998
 20
434.574399
 30
0.0
 11
275.76097
 21
427.974399
 31
0.0
  0
LINE
  5
493
102
{ACAD_REACTORS
330
539
102
}
330
1F
100
AcDbEntity
  8
LC-001-002-----0
 62
     7
370
    50
100
AcDbLine
 10
281.214655
 20
431.944847
 30
0.0
 11
281.24097
 21
430.224394
 31
0.0
  0
LINE
  5
494
102
{ACAD_REACTORS
330
539
102
}
330
1F
100
AcDbEntity
  8
LC-001-002-----0
 62
     7
370
    50
100
AcDbLine
 10
276.260974
 20
426.274391
 30
0.0
 11
280.860992
 21
426.274391
 31
0.0
  0
DIMENSION
  5
495
330
1F
100
AcDbEntity
  8
LC-005-003-----0
 62
     7
370
    25
100
AcDbDimension
  2
*D24
 10
451.767527
 20
274.4
 30
0.0
 11
258.914221
 21
305.2
 31
0.0
 70
   160
  1
385
 71
     5
 42
385.706613
  3
LC-DIM-L-0140-02-02
100
AcDbAlignedDimension
 13
66.060914
 23
468.959407
 33
0.0
 14
451.767527
 24
381.064065
 34
0.0
100
AcDbRotatedDimension
  0
LINE
  5
4A2
330
1F
100
AcDbEntity
  8
LC-001-002-----0
 62
     7
370
    50
100
AcDbLine
 10
152.881911
 20
434.193022
 30
0.0
 11
152.881911
 21
428.35215
 31
0.0
  0
LINE
  5
4A3
330
1F
100
AcDbEntity
  8
LC-001-002-----0
 62
     7
370
    50
100
AcDbLine
 10
281.239909
 20
434.193028
 30
0.0
 11
281.239909
 21
428.352144
 31
0.0
  0
LINE
  5
4A4
102
{ACAD_REACTORS
330
53A
102
}
330
1F
100
AcDbEntity
  8
LC-001-002-----0
 62
     7
370
    50
100
AcDbLine
 10
308.810914
 20
465.979327
 30
0.0
 11
290.060914
 21
464.668199
 31
0.0
  0
LINE
  5
4A5
102
{ACAD_REACTORS
330
53A
102
}
330
1F
100
AcDbEntity
  8
LC-001-002-----0
 62
     7
370
    50
100
AcDbLine
 10
128.061129
 20
463.280908
 30
0.0
 11
138.060914
 21
462.581655
 31
0.0
  0
LINE
  5
4A6
102
{ACAD_REACTORS
330
53A
102
}
330
1F
100
AcDbEntity
  8
LC-001-002-----0
 62
     7
370
    50
100
AcDbLine
 10
308.810914
 20
465.979327
 30
0.0
 11
217.060914
 21
465.979327
 31
0.0
  0
LINE
  5
4A7
102
{ACAD_REACTORS
330
53A
102
}
330
1F
100
AcDbEntity
  8
LC-001-002-----0
 62
     7
370
    50
100
AcDbLine
 10
286.307575
 20
445.979729
 30
0.0
 11
286.307575
 21
448.979729
 31
0.0
  0
LINE
  5
4A8
102
{ACAD_REACTORS
330
53A
102
}
330
1F
100
AcDbEntity
  8
LC-001-002-----0
 62
     7
370
    50
100
AcDbLine
 10
280.648194
 20
445.979729
 30
0.0
 11
280.648194
 21
448.979729
 31
0.0
  0
LINE
  5
4A9
102
{ACAD_REACTORS
330
53A
102
}
330
1F
100
AcDbEntity
  8
LC-001-002-----0
 62
     7
370
    50
100
AcDbLine
 10
279.878845
 20
464.668199
 30
0.0
 11
279.128845
 21
463.918199
 31
0.0
  0
LINE
  5
4AA
102
{ACAD_REACTORS
330
53A
102
}
330
1F
100
AcDbEntity
  8
LC-001-002-----0
 62
     7
370
    50
100
AcDbLine
 10
279.128845
 20
463.918199
 30
0.0
 11
279.128845
 21
448.979729
 31
0.0
  0
LINE
  5
4AB
102
{ACAD_REACTORS
330
53A
102
}
330
1F
100
AcDbEntity
  8
LC-001-002-----0
 62
     7
370
    50
100
AcDbLine
 10
125.310914
 20
465.979327
 30
0.0
 11
217.060914
 21
465.979327
 31
0.0
  0
LINE
  5
4AC
102
{ACAD_REACTORS
330
53A
102
}
330
1F
100
AcDbEntity
  8
LC-001-002-----0
 62
     7
370
    50
100
AcDbLine
 10
279.128845
 20
463.918199
 30
0.0
 11
284.673153
 21
463.918199
 31
0.0
  0
LINE
  5
4AD
102
{ACAD_REACTORS
330
53A
102
}
330
1F
100
AcDbEntity
  8
LC-001-002-----0
 62
     7
370
    50
100
AcDbLine
 10
284.673153
 20
463.918199
 30
0.0
 11
284.673153
 21
448.979729
 31
0.0
  0
LINE
  5
4AE
102
{ACAD_REACTORS
330
53A
102
}
330
1F
100
AcDbEntity
  8
LC-001-002-----0
 62
     7
370
    50
100
AcDbLine
 10
290.060914
 20
464.668199
 30
0.0
 11
289.310914
 21
463.918199
 31
0.0
  0
LINE
  5
4AF
102
{ACAD_REACTORS
330
53A
102
}
330
1F
100
AcDbEntity
  8
LC-001-002-----0
 62
     7
370
    50
100
AcDbLine
 10
284.327275
 20
464.668199
 30
0.0
 11
284.673153
 21
463.918199
 31
0.0
  0
LINE
  5
4B0
102
{ACAD_REACTORS
330
53A
102
}
330
1F
100
AcDbEntity
  8
LC-001-002-----0
 62
     7
370
    50
100
AcDbLine
 10
286.560914
 20
445.979729
 30
0.0
 11
286.560914
 21
448.979729
 31
0.0
  0
LINE
  5
4B1
102
{ACAD_REACTORS
330
53A
102
}
330
1F
100
AcDbEntity
  8
LC-001-002-----0
 62
     7
370
    50
100
AcDbLine
 10
289.310914
 20
448.979729
 30
0.0
 11
289.310914
 21
463.918199
 31
0.0
  0
LINE
  5
4B2
102
{ACAD_REACTORS
330
53A
102
}
330
1F
100
AcDbEntity
  8
LC-001-002-----0
 62
     7
370
    50
100
AcDbLine
 10
147.814254
 20
445.979729
 30
0.0
 11
147.814254
 21
448.979729
 31
0.0
  0
LINE
  5
4B3
102
{ACAD_REACTORS
330
53A
102
}
330
1F
100
AcDbEntity
  8
LC-001-002-----0
 62
     7
370
    50
100
AcDbLine
 10
153.473635
 20
445.979729
 30
0.0
 11
153.473635
 21
448.979729
 31
0.0
  0
LINE
  5
4B4
102
{ACAD_REACTORS
330
53A
102
}
330
1F
100
AcDbEntity
  8
LC-001-002-----0
 62
     7
370
    50
100
AcDbLine
 10
160.29306
 20
445.979729
 30
0.0
 11
160.29306
 21
448.979729
 31
0.0
  0
LINE
  5
4B5
102
{ACAD_REACTORS
330
53A
102
}
330
1F
100
AcDbEntity
  8
LC-001-002-----0
 62
     7
370
    50
100
AcDbLine
 10
176.018654
 20
445.979729
 30
0.0
 11
176.018654
 21
448.979729
 31
0.0
  0
LINE
  5
4B6
102
{ACAD_REACTORS
330
53A
102
}
330
1F
100
AcDbEntity
  8
LC-001-002-----0
 62
     7
370
    50
100
AcDbLine
 10
154.242984
 20
464.668199
 30
0.0
 11
154.992984
 21
463.918199
 31
0.0
  0
LINE
  5
4B7
102
{ACAD_REACTORS
330
53A
102
}
330
1F
100
AcDbEntity
  8
LC-001-002-----0
 62
     7
370
    50
100
AcDbLine
 10
154.992984
 20
463.918199
 30
0.0
 11
154.992984
 21
448.979729
 31
0.0
  0
LINE
  5
4B8
102
{ACAD_REACTORS
330
53A
102
}
330
1F
100
AcDbEntity
  8
LC-001-002-----0
 62
     7
370
    50
100
AcDbLine
 10
154.992984
 20
463.918199
 30
0.0
 11
149.448676
 21
463.918199
 31
0.0
  0
LINE
  5
4B9
102
{ACAD_REACTORS
330
53A
102
}
330
1F
100
AcDbEntity
  8
LC-001-002-----0
 62
     7
370
    50
100
AcDbLine
 10
149.448676
 20
463.918199
 30
0.0
 11
149.448676
 21
448.979729
 31
0.0
  0
LINE
  5
4BA
102
{ACAD_REACTORS
330
53A
102
}
330
1F
100
AcDbEntity
  8
LC-001-002-----0
 62
     7
370
    50
100
AcDbLine
 10
144.060914
 20
464.668199
 30
0.0
 11
144.810914
 21
463.918199
 31
0.0
  0
LINE
  5
4BB
102
{ACAD_REACTORS
330
53A
102
}
330
1F
100
AcDbEntity
  8
LC-001-002-----0
 62
     7
370
    50
100
AcDbLine
 10
149.794554
 20
464.668199
 30
0.0
 11
149.448676
 21
463.918199
 31
0.0
  0
LINE
  5
4BC
102
{ACAD_REACTORS
330
53A
102
}
330
1F
100
AcDbEntity
  8
LC-001-002-----0
 62
     7
370
    50
100
AcDbLine
 10
172.751209
 20
445.979729
 30
0.0
 11
172.751209
 21
448.979729
 31
0.0
  0
LINE
  5
4BD
102
{ACAD_REACTORS
330
53A
102
}
330
1F
100
AcDbEntity
  8
LC-001-002-----0
 62
     7
370
    50
100
AcDbLine
 10
188.384054
 20
445.979729
 30
0.0
 11
188.384054
 21
448.979729
 31
0.0
  0
LINE
  5
4BE
102
{ACAD_REACTORS
330
53A
102
}
330
1F
100
AcDbEntity
  8
LC-001-002-----0
 62
     7
370
    50
100
AcDbLine
 10
147.560914
 20
445.979729
 30
0.0
 11
147.560914
 21
448.979729
 31
0.0
  0
LINE
  5
4BF
102
{ACAD_REACTORS
330
53A
102
}
330
1F
100
AcDbEntity
  8
LC-001-002-----0
 62
     7
370
    50
100
AcDbLine
 10
144.810914
 20
448.979729
 30
0.0
 11
144.810914
 21
463.918199
 31
0.0
  0
LINE
  5
4C0
102
{ACAD_REACTORS
330
53A
102
}
330
1F
100
AcDbEntity
  8
LC-001-002-----0
 62
     7
370
    50
100
AcDbLine
 10
182.060914
 20
464.668199
 30
0.0
 11
182.810914
 21
463.918199
 31
0.0
  0
LINE
  5
4C1
102
{ACAD_REACTORS
330
53A
102
}
330
1F
100
AcDbEntity
  8
LC-001-002-----0
 62
     7
370
    50
100
AcDbLine
 10
182.810914
 20
463.918199
 30
0.0
 11
182.810914
 21
448.979729
 31
0.0
  0
LINE
  5
4C2
102
{ACAD_REACTORS
330
53A
102
}
330
1F
100
AcDbEntity
  8
LC-001-002-----0
 62
     7
370
    50
100
AcDbLine
 10
176.492949
 20
464.668199
 30
0.0
 11
175.860566
 21
463.918199
 31
0.0
  0
LINE
  5
4C3
102
{ACAD_REACTORS
330
53A
102
}
330
1F
100
AcDbEntity
  8
LC-001-002-----0
 62
     7
370
    50
100
AcDbLine
 10
175.860566
 20
463.918199
 30
0.0
 11
175.860566
 21
448.979729
 31
0.0
  0
LINE
  5
4C4
102
{ACAD_REACTORS
330
53A
102
}
330
1F
100
AcDbEntity
  8
LC-001-002-----0
 62
     7
370
    50
100
AcDbLine
 10
175.860566
 20
463.918199
 30
0.0
 11
182.810914
 21
463.918199
 31
0.0
  0
ARC
  5
4C5
102
{ACAD_REACTORS
330
53A
102
}
330
1F
100
AcDbEntity
  8
LC-004-002-RND-0
 62
     7
370
    50
100
AcDbCircle
 10
295.060914
 20
446.979729
 30
0.0
 40
1.0
100
AcDbArc
 50
270.0
 51
0.0
  0
LINE
  5
4C6
102
{ACAD_REACTORS
330
53A
102
}
330
1F
100
AcDbEntity
  8
LC-001-002-----0
 62
     7
370
    50
100
AcDbLine
 10
125.310914
 20
465.979327
 30
0.0
 11
126.310914
 21
458.979729
 31
0.0
  0
LINE
  5
4C7
102
{ACAD_REACTORS
330
53A
102
}
330
1F
100
AcDbEntity
  8
LC-001-002-----0
 62
     7
370
    50
100
AcDbLine
 10
127.483779
 20
458.979729
 30
0.0
 11
126.310914
 21
458.979729
 31
0.0
  0
LINE
  5
4C8
102
{ACAD_REACTORS
330
53A
102
}
330
1F
100
AcDbEntity
  8
LC-001-002-----0
 62
     7
370
    50
100
AcDbLine
 10
128.061129
 20
459.979729
 30
0.0
 11
127.483779
 21
458.979729
 31
0.0
  0
LINE
  5
4C9
102
{ACAD_REACTORS
330
53A
102
}
330
1F
100
AcDbEntity
  8
LC-001-002-----0
 62
     7
370
    50
100
AcDbLine
 10
128.061129
 20
459.979729
 30
0.0
 11
128.061129
 21
463.280908
 31
0.0
  0
ARC
  5
4CA
102
{ACAD_REACTORS
330
53A
102
}
330
1F
100
AcDbEntity
  8
LC-004-002-RND-0
 62
     7
370
    50
100
AcDbCircle
 10
139.060914
 20
446.979729
 30
0.0
 40
1.0
100
AcDbArc
 50
180.0
 51
270.0
  0
LINE
  5
4CB
102
{ACAD_REACTORS
330
53A
102
}
330
1F
100
AcDbEntity
  8
LC-001-002-----0
 62
     7
370
    50
100
AcDbLine
 10
139.060914
 20
445.979729
 30
0.0
 11
210.159821
 21
445.979729
 31
0.0
  0
LINE
  5
4CC
102
{ACAD_REACTORS
330
53A
102
}
330
1F
100
AcDbEntity
  8
LC-001-002-----0
 62
     7
370
    50
100
AcDbLine
 10
306.0607
 20
459.979729
 30
0.0
 11
306.63805
 21
458.979729
 31
0.0
  0
LINE
  5
4CD
102
{ACAD_REACTORS
330
53A
102
}
330
1F
100
AcDbEntity
  8
LC-001-002-----0
 62
     7
370
    50
100
AcDbLine
 10
138.060914
 20
446.979729
 30
0.0
 11
138.060914
 21
462.581655
 31
0.0
  0
LINE
  5
4CE
102
{ACAD_REACTORS
330
53A
102
}
330
1F
100
AcDbEntity
  8
LC-001-002-----0
 62
     7
370
    50
100
AcDbLine
 10
306.0607
 20
459.979729
 30
0.0
 11
306.0607
 21
463.280908
 31
0.0
  0
LINE
  5
4CF
102
{ACAD_REACTORS
330
53A
102
}
330
1F
100
AcDbEntity
  8
LC-001-002-----0
 62
     7
370
    50
100
AcDbLine
 10
295.060914
 20
445.979729
 30
0.0
 11
286.560914
 21
445.979729
 31
0.0
  0
LINE
  5
4D0
102
{ACAD_REACTORS
330
53A
102
}
330
1F
100
AcDbEntity
  8
LC-001-002-----0
 62
     7
370
    50
100
AcDbLine
 10
296.060914
 20
446.979729
 30
0.0
 11
296.060914
 21
462.581655
 31
0.0
  0
LINE
  5
4D1
102
{ACAD_REACTORS
330
53A
102
}
330
1F
100
AcDbEntity
  8
LC-001-002-----0
 62
     7
370
    50
100
AcDbLine
 10
306.23505
 20
458.979729
 30
0.0
 11
307.810914
 21
458.979729
 31
0.0
  0
LINE
  5
4D2
102
{ACAD_REACTORS
330
53A
102
}
330
1F
100
AcDbEntity
  8
LC-001-002-----0
 62
     7
370
    50
100
AcDbLine
 10
286.560914
 20
445.979729
 30
0.0
 11
276.21355
 21
445.979729
 31
0.0
  0
LINE
  5
4D3
102
{ACAD_REACTORS
330
53A
102
}
330
1F
100
AcDbEntity
  8
LC-001-002-----0
 62
     7
370
    50
100
AcDbLine
 10
286.560914
 20
448.979729
 30
0.0
 11
289.310914
 21
448.979729
 31
0.0
  0
LINE
  5
4D4
102
{ACAD_REACTORS
330
53A
102
}
330
1F
100
AcDbEntity
  8
LC-001-002-----0
 62
     7
370
    50
100
AcDbLine
 10
274.960584
 20
448.979729
 30
0.0
 11
286.560914
 21
448.979729
 31
0.0
  0
LINE
  5
4D5
102
{ACAD_REACTORS
330
53A
102
}
330
1F
100
AcDbEntity
  8
LC-001-002-----0
 62
     7
370
    50
100
AcDbLine
 10
188.384054
 20
448.979729
 30
0.0
 11
172.751209
 21
448.979729
 31
0.0
  0
LINE
  5
4D6
102
{ACAD_REACTORS
330
53A
102
}
330
1F
100
AcDbEntity
  8
LC-001-002-----0
 62
     7
370
    50
100
AcDbLine
 10
306.0607
 20
463.280908
 30
0.0
 11
296.060914
 21
462.581655
 31
0.0
  0
LINE
  5
4D7
102
{ACAD_REACTORS
330
53A
102
}
330
1F
100
AcDbEntity
  8
LC-001-002-----0
 62
     7
370
    50
100
AcDbLine
 10
160.29306
 20
448.979729
 30
0.0
 11
144.810914
 21
448.979729
 31
0.0
  0
LINE
  5
4D8
102
{ACAD_REACTORS
330
53A
102
}
330
1F
100
AcDbEntity
  8
LC-001-002-----0
 62
     7
370
    50
100
AcDbLine
 10
290.060914
 20
464.668199
 30
0.0
 11
144.060914
 21
464.668199
 31
0.0
  0
LINE
  5
4D9
102
{ACAD_REACTORS
330
53A
102
}
330
1F
100
AcDbEntity
  8
LC-001-002-----0
 62
     7
370
    50
100
AcDbLine
 10
308.810914
 20
465.979327
 30
0.0
 11
307.810914
 21
458.979729
 31
0.0
  0
LINE
  5
4DA
102
{ACAD_REACTORS
330
53A
102
}
330
1F
100
AcDbEntity
  8
LC-001-002-----0
 62
     7
370
    50
100
AcDbLine
 10
125.310914
 20
465.979327
 30
0.0
 11
144.060914
 21
464.668199
 31
0.0
  0
INSERT
  5
4EF
102
{ACAD_REACTORS
330
53A
102
}
330
1F
100
AcDbEntity
  8
LC-006-005-----0
 62
     7
370
    25
100
AcDbBlockReference
  2
*X1725
 10
0.0
 20
0.0
 30
0.0
  0
INSERT
  5
503
102
{ACAD_REACTORS
330
53A
102
}
330
1F
100
AcDbEntity
  8
LC-006-005-----0
 62
     7
370
    25
100
AcDbBlockReference
  2
*X1826
 10
0.0
 20
0.0
 30
0.0
  0
LINE
  5
504
102
{ACAD_REACTORS
330
53B
102
}
330
1F
100
AcDbEntity
  8
LC-001-002-----0
 62
     7
370
    50
100
AcDbLine
 10
252.060914
 20
464.668199
 30
0.0
 11
251.310914
 21
463.918199
 31
0.0
  0
LINE
  5
505
102
{ACAD_REACTORS
330
53B
102
}
330
1F
100
AcDbEntity
  8
LC-001-002-----0
 62
     7
370
    50
100
AcDbLine
 10
257.628879
 20
464.668199
 30
0.0
 11
258.261263
 21
463.918199
 31
0.0
  0
LINE
  5
506
102
{ACAD_REACTORS
330
53B
102
}
330
1F
100
AcDbEntity
  8
LC-001-002-----0
 62
     7
370
    50
100
AcDbLine
 10
258.261263
 20
463.918199
 30
0.0
 11
251.310914
 21
463.918199
 31
0.0
  0
LINE
  5
507
330
1F
100
AcDbEntity
  8
LC-001-002-----0
 62
     7
370
    50
100
AcDbLine
 10
258.261263
 20
463.918199
 30
0.0
 11
258.261263
 21
457.307382
 31
0.0
  0
LINE
  5
508
330
1F
100
AcDbEntity
  8
LC-001-002-----0
 62
     7
370
    50
100
AcDbLine
 10
251.310914
 20
463.918199
 30
0.0
 11
251.310914
 21
457.307382
 31
0.0
  0
LINE
  5
509
330
1F
100
AcDbEntity
  8
LC-001-002-----0
 62
     7
370
    50
100
AcDbLine
 10
213.310914
 20
463.918199
 30
0.0
 11
220.810914
 21
463.918199
 31
0.0
  0
LINE
  5
50A
330
1F
100
AcDbEntity
  8
LC-001-002-----0
 62
     7
370
    50
100
AcDbLine
 10
213.310914
 20
463.918199
 30
0.0
 11
214.060914
 21
464.668199
 31
0.0
  0
LINE
  5
50B
330
1F
100
AcDbEntity
  8
LC-001-002-----0
 62
     7
370
    50
100
AcDbLine
 10
220.060914
 20
464.668199
 30
0.0
 11
220.810914
 21
463.918199
 31
0.0
  0
LINE
  5
50C
330
1F
100
AcDbEntity
  8
LC-001-002-----0
 62
     7
370
    50
100
AcDbLine
 10
220.810914
 20
463.918199
 30
0.0
 11
220.810914
 21
457.307382
 31
0.0
  0
LINE
  5
50D
330
1F
100
AcDbEntity
  8
LC-001-002-----0
 62
     7
370
    50
100
AcDbLine
 10
213.310914
 20
463.918199
 30
0.0
 11
213.310914
 21
452.759541
 31
0.0
  0
LINE
  5
50E
330
1F
100
AcDbEntity
  8
LC-001-002-----0
 62
     7
370
    50
100
AcDbLine
 10
155.604105
 20
427.215876
 30
0.0
 11
155.604105
 21
426.272586
 31
0.0
  0
LINE
  5
50F
102
{ACAD_REACTORS
330
539
102
}
330
1F
100
AcDbEntity
  8
LC-009-205-----0
 62
     7
370
    50
100
AcDbLine
 10
188.800309
 20
376.245012
 30
0.0
 11
204.901496
 21
376.245012
 31
0.0
  0
LINE
  5
510
330
1F
100
AcDbEntity
  8
LC-001-002-----0
 62
     7
370
    50
100
AcDbLine
 10
209.23391
 20
436.274474
 30
0.0
 11
202.790679
 21
376.245012
 31
0.0
  0
DIMENSION
  5
511
330
1F
100
AcDbEntity
  8
LC-005-003-----0
 62
     7
370
    25
100
AcDbDimension
  2
*D27
 10
110.355004
 20
376.245012
 30
0.0
 11
79.555004
 21
497.093912
 31
0.0
 70
   160
  1
50
 71
     5
 42
50.027574
 53
90.0
  3
LC-DIM-L-0140-02-02
100
AcDbAlignedDimension
 13
212.563
 23
426.272586
 33
0.0
 14
156.06066
 24
376.245012
 34
0.0
 50
90.0
100
AcDbRotatedDimension
  0
LINE
  5
51F
330
1F
100
AcDbEntity
  8
LC-001-002-----0
 62
     7
370
    50
100
AcDbLine
 10
152.560914
 20
423.963997
 30
0.0
 11
152.560914
 21
357.276134
 31
0.0
  0
INSERT
  5
52A
330
1F
100
AcDbEntity
  8
LC-006-005-----0
 62
     7
370
    25
100
AcDbBlockReference
  2
*X1928
 10
0.0
 20
0.0
 30
0.0
  0
DIMENSION
  5
52B
330
1F
100
AcDbEntity
  8
LC-005-003-----0
 62
     7
370
    25
100
AcDbDimension
  2
*D29
 10
312.310914
 20
509.6
 30
0.0
 11
217.060914
 21
540.4
 31
0.0
 70
   160
  1
%%c190
 71
     5
 42
190.5
  3
LC-DIM-L-0140-02-02
100
AcDbAlignedDimension
 13
121.810914
 23
458.539408
 33
0.0
 14
312.310914
 24
459.539408
 34
0.0
100
AcDbRotatedDimension
  0
ENDSEC
  0
SECTION
  2
OBJECTS
  0
DICTIONARY
  5
C
330
0
100
AcDbDictionary
281
     1
  3
ACAD_GROUP
350
D
  3
ACAD_LAYOUT
350
1A
  3
ACAD_MLINESTYLE
350
17
  3
ACAD_PLOTSETTINGS
350
19
  3
ACAD_PLOTSTYLENAME
350
E
  0
DICTIONARY
  5
D
102
{ACAD_REACTORS
330
C
102
}
330
C
100
AcDbDictionary
281
     1
  3
LCGROUP159
350
53C
  3
LCGROUP3026
350
539
  3
LCGROUP3074
350
53A
  3
LCGROUP3090
350
53B
  3
LCGROUP839
350
538
  0
DICTIONARY
  5
1A
102
{ACAD_REACTORS
330
C
102
}
330
C
100
AcDbDictionary
281
     1
  3
Layout1
350
1E
  3
Layout2
350
26
  3
Model
350
22
  0
DICTIONARY
  5
17
102
{ACAD_REACTORS
330
C
102
}
330
C
100
AcDbDictionary
281
     1
  3
Standard
350
18
  0
DICTIONARY
  5
19
102
{ACAD_REACTORS
330
C
102
}
330
C
100
AcDbDictionary
281
     1
  0
ACDBDICTIONARYWDFLT
  5
E
102
{ACAD_REACTORS
330
C
102
}
330
C
100
AcDbDictionary
281
     1
  3
Normal
350
F
100
AcDbDictionaryWithDefault
340
F
  0
GROUP
  5
53C
102
{ACAD_REACTORS
330
D
102
}
330
D
100
AcDbGroup
300
GRP159
 70
     1
 71
     1
340
F3
340
1FD
340
1FF
340
200
340
201
340
21E
340
22E
340
28A
340
28B
340
28C
340
28D
340
28E
340
28F
340
290
340
291
340
292
340
293
340
294
340
295
340
296
340
297
340
298
340
299
340
29A
340
29B
340
29C
340
29D
340
29E
340
29F
340
2A0
340
2A1
340
2A2
340
2A3
340
2A4
340
2A5
340
2A6
340
2A7
340
2A8
340
2A9
340
2AA
340
2AB
340
2AE
340
2B0
340
2B1
340
2B2
340
2B3
340
2B4
340
2B5
340
2B6
340
2B7
340
2B8
340
2B9
340
2BA
340
2BB
340
2BC
340
2BD
340
2BE
340
2BF
340
2C0
340
2C1
340
2C2
340
2C3
340
2C4
340
2C5
340
2C6
340
2C7
  0
GROUP
  5
539
102
{ACAD_REACTORS
330
D
102
}
330
D
100
AcDbGroup
300
Geruchverschluss
 70
     1
 71
     1
340
39C
340
39D
340
39E
340
39F
340
3A0
340
3A1
340
3A2
340
3A3
340
3A5
340
3A6
340
3A7
340
3A8
340
3A9
340
3AA
340
3AB
340
3AC
340
3AD
340
3AE
340
3AF
340
3B0
340
3B1
340
3B2
340
3B3
340
3B4
340
3B5
340
3B6
340
3B7
340
3B8
340
3B9
340
3BA
340
3BB
340
3BC
340
3BD
340
3BE
340
3BF
340
3C0
340
3C1
340
3C2
340
3C3
340
3C4
340
3C5
340
3C6
340
3C7
340
3C8
340
3C9
340
3CA
340
3CB
340
3CC
340
3CD
340
3EB
340
408
340
409
340
40A
340
40B
340
40C
340
40D
340
40E
340
40F
340
410
340
411
340
412
340
413
340
414
340
415
340
416
340
417
340
42D
340
444
340
445
340
446
340
447
340
448
340
456
340
467
340
47F
340
480
340
481
340
482
340
483
340
484
340
485
340
490
340
491
340
492
340
493
340
494
340
50F
  0
GROUP
  5
53A
102
{ACAD_REACTORS
330
D
102
}
330
D
100
AcDbGroup
300
GRP3074
 70
     1
 71
     1
340
4A4
340
4A5
340
4A6
340
4A7
340
4A8
340
4A9
340
4AA
340
4AB
340
4AC
340
4AD
340
4AE
340
4AF
340
4B0
340
4B1
340
4B2
340
4B3
340
4B4
340
4B5
340
4B6
340
4B7
340
4B8
340
4B9
340
4BA
340
4BB
340
4BC
340
4BD
340
4BE
340
4BF
340
4C0
340
4C1
340
4C2
340
4C3
340
4C4
340
4C5
340
4C6
340
4C7
340
4C8
340
4C9
340
4CA
340
4CB
340
4CC
340
4CD
340
4CE
340
4CF
340
4D0
340
4D1
340
4D2
340
4D3
340
4D4
340
4D5
340
4D6
340
4D7
340
4D8
340
4D9
340
4DA
340
4EF
340
503
  0
GROUP
  5
53B
102
{ACAD_REACTORS
330
D
102
}
330
D
100
AcDbGroup
300
GRP3090
 70
     1
 71
     1
340
504
340
505
340
506
  0
GROUP
  5
538
102
{ACAD_REACTORS
330
D
102
}
330
D
100
AcDbGroup
300
GRP839
 70
     1
 71
     1
340
10D
340
112
340
2D7
340
2DE
  0
LAYOUT
  5
1E
102
{ACAD_REACTORS
330
1A
102
}
330
1A
100
AcDbPlotSettings
  1

  2

  4

  6

 40
0.0
 41
0.0
 42
0.0
 43
0.0
 44
0.0
 45
0.0
 46
0.0
 47
0.0
 48
0.0
 49
0.0
140
0.0
141
0.0
142
1.0
143
1.0
 70
   688
 72
     0
 73
     0
 74
     5
  7

 75
    16
147
1.0
148
0.0
149
0.0
100
AcDbLayout
  1
Layout1
 70
     1
 71
     1
 10
-121.662367
 20
75.871162
 11
718.337633
 21
669.871162
 12
0.0
 22
0.0
 32
0.0
 14
-121.662367
 24
75.871162
 34
0.0
 15
718.337633
 25
669.871162
 35
0.0
146
0.0
 13
0.0
 23
0.0
 33
0.0
 16
1.0
 26
0.0
 36
0.0
 17
0.0
 27
1.0
 37
0.0
 76
     0
330
1B
  0
LAYOUT
  5
26
102
{ACAD_REACTORS
330
1A
102
}
330
1A
100
AcDbPlotSettings
  1

  2

  4

  6

 40
0.0
 41
0.0
 42
0.0
 43
0.0
 44
0.0
 45
0.0
 46
0.0
 47
0.0
 48
0.0
 49
0.0
140
0.0
141
0.0
142
1.0
143
1.0
 70
   688
 72
     0
 73
     0
 74
     5
  7

 75
    16
147
1.0
148
0.0
149
0.0
100
AcDbLayout
  1
Layout2
 70
     1
 71
     2
 10
0.0
 20
0.0
 11
0.0
 21
0.0
 12
0.0
 22
0.0
 32
0.0
 14
0.0
 24
0.0
 34
0.0
 15
0.0
 25
0.0
 35
0.0
146
0.0
 13
0.0
 23
0.0
 33
0.0
 16
1.0
 26
0.0
 36
0.0
 17
0.0
 27
1.0
 37
0.0
 76
     0
330
23
  0
LAYOUT
  5
22
102
{ACAD_REACTORS
330
1A
102
}
330
1A
100
AcDbPlotSettings
  1

  2

  4

  6

 40
0.0
 41
0.0
 42
0.0
 43
0.0
 44
0.0
 45
0.0
 46
0.0
 47
0.0
 48
0.0
 49
0.0
140
0.0
141
0.0
142
1.0
143
1.0
 70
  1776
 72
     0
 73
     0
 74
     0
  7

 75
     0
147
1.0
148
0.0
149
0.0
100
AcDbLayout
  1
Model
 70
     1
 71
     0
 10
-121.662367
 20
75.871162
 11
718.337633
 21
669.871162
 12
-121.662367
 22
75.871162
 32
0.0
 14
-121.662367
 24
75.871162
 34
0.0
 15
718.337633
 25
669.871162
 35
0.0
146
0.0
 13
0.0
 23
0.0
 33
0.0
 16
1.0
 26
0.0
 36
0.0
 17
0.0
 27
1.0
 37
0.0
 76
     0
330
1F
  0
MLINESTYLE
  5
18
102
{ACAD_REACTORS
330
17
102
}
330
17
100
AcDbMlineStyle
  2
Standard
 70
     0
  3

 62
   256
 51
90.0
 52
90.0
 71
     2
 49
0.5
 62
   256
  6
BYLAYER
 49
-0.5
 62
   256
  6
BYLAYER
  0
ACDBPLACEHOLDER
  5
F
102
{ACAD_REACTORS
330
E
102
}
330
E
  0
ENDSEC
  0
EOF
