  0
SECTION
  2
HEADER
  9
$ACADVER
  1
AC1027
  9
$ACADMAINTVER
 70
   105
  9
$DWGCODEPAGE
  3
ANSI_1252
  9
$REQUIREDVERSIONS
160
                 0
  9
$INSBASE
 10
0.0
 20
0.0
 30
0.0
  9
$EXTMIN
 10
0.0
 20
0.0
 30
0.0
  9
$EXTMAX
 10
840.0
 20
594.0
 30
0.0
  9
$LIMMIN
 10
0.0
 20
0.0
  9
$LIMMAX
 10
840.0
 20
594.0
  9
$ORTHOMODE
 70
     0
  9
$REGENMODE
 70
     1
  9
$FILLMODE
 70
     1
  9
$QTEXTMODE
 70
     0
  9
$MIRRTEXT
 70
     1
  9
$LTSCALE
 40
2.0
  9
$ATTMODE
 70
     1
  9
$TEXTSIZE
 40
7.0
  9
$TRACEWID
 40
1.0
  9
$TEXTSTYLE
  7
Standard
  9
$CLAYER
  8
0
  9
$CELTYPE
  6
ByLayer
  9
$CECOLOR
 62
   256
  9
$CELTSCALE
 40
1.0
  9
$DISPSILH
 70
     0
  9
$DIMSCALE
 40
1.0
  9
$DIMASZ
 40
6.604
  9
$DIMEXO
 40
2.0
  9
$DIMDLI
 40
3.75
  9
$DIMRND
 40
0.0
  9
$DIMDLE
 40
0.0
  9
$DIMEXE
 40
2.0
  9
$DIMTP
 40
0.0
  9
$DIMTM
 40
0.0
  9
$DIMTXT
 40
7.0
  9
$DIMCEN
 40
2.5
  9
$DIMTSZ
 40
0.0
  9
$DIMTOL
 70
     0
  9
$DIMLIM
 70
     0
  9
$DIMTIH
 70
     1
  9
$DIMTOH
 70
     1
  9
$DIMSE1
 70
     0
  9
$DIMSE2
 70
     0
  9
$DIMTAD
 70
     1
  9
$DIMZIN
 70
     1
  9
$DIMBLK
  1

  9
$DIMASO
 70
     1
  9
$DIMSHO
 70
     1
  9
$DIMPOST
  1

  9
$DIMAPOST
  1

  9
$DIMALT
 70
     0
  9
$DIMALTD
 70
     3
  9
$DIMALTF
 40
0.0393700787
  9
$DIMLFAC
 40
1.0
  9
$DIMTOFL
 70
     1
  9
$DIMTVP
 40
0.0
  9
$DIMTIX
 70
     0
  9
$DIMSOXD
 70
     0
  9
$DIMSAH
 70
     0
  9
$DIMBLK1
  1

  9
$DIMBLK2
  1

  9
$DIMSTYLE
  2
ISO-25
  9
$DIMCLRD
 70
     0
  9
$DIMCLRE
 70
     0
  9
$DIMCLRT
 70
     0
  9
$DIMTFAC
 40
1.0
  9
$DIMGAP
 40
3.048
  9
$DIMJUST
 70
     0
  9
$DIMSD1
 70
     0
  9
$DIMSD2
 70
     0
  9
$DIMTOLJ
 70
     0
  9
$DIMTZIN
 70
     1
  9
$DIMALTZ
 70
     0
  9
$DIMALTTZ
 70
     0
  9
$DIMUPT
 70
     0
  9
$DIMDEC
 70
     2
  9
$DIMTDEC
 70
     2
  9
$DIMALTU
 70
     2
  9
$DIMALTTD
 70
     3
  9
$DIMTXSTY
  7
Standard
  9
$DIMAUNIT
 70
     0
  9
$DIMADEC
 70
     0
  9
$DIMALTRND
 40
0.0
  9
$DIMAZIN
 70
     0
  9
$DIMDSEP
 70
    44
  9
$DIMATFIT
 70
     3
  9
$DIMFRAC
 70
     0
  9
$DIMLDRBLK
  1

  9
$DIMLUNIT
 70
     2
  9
$DIMLWD
 70
    -2
  9
$DIMLWE
 70
    -2
  9
$DIMTMOVE
 70
     0
  9
$DIMFXL
 40
1.0
  9
$DIMFXLON
 70
     0
  9
$DIMJOGANG
 40
0.7853981634
  9
$DIMTFILL
 70
     0
  9
$DIMTFILLCLR
 70
     0
  9
$DIMARCSYM
 70
     0
  9
$DIMLTYPE
  6

  9
$DIMLTEX1
  6

  9
$DIMLTEX2
  6

  9
$DIMTXTDIRECTION
 70
     0
  9
$LUNITS
 70
     2
  9
$LUPREC
 70
     4
  9
$SKETCHINC
 40
1.0
  9
$FILLETRAD
 40
10.0
  9
$AUNITS
 70
     0
  9
$AUPREC
 70
     0
  9
$MENU
  1
.
  9
$ELEVATION
 40
0.0
  9
$PELEVATION
 40
0.0
  9
$THICKNESS
 40
0.0
  9
$LIMCHECK
 70
     0
  9
$CHAMFERA
 40
0.0
  9
$CHAMFERB
 40
0.0
  9
$CHAMFERC
 40
0.0
  9
$CHAMFERD
 40
0.0
  9
$SKPOLY
 70
     0
  9
$TDCREATE
 40
2458877.417611053
  9
$TDUCREATE
 40
2458877.375944387
  9
$TDUPDATE
 40
2458877.417612037
  9
$TDUUPDATE
 40
2458877.37594537
  9
$TDINDWG
 40
0.0000000116
  9
$TDUSRTIMER
 40
0.0000000116
  9
$USRTIMER
 70
     1
  9
$ANGBASE
 50
0.0
  9
$ANGDIR
 70
     0
  9
$PDMODE
 70
     0
  9
$PDSIZE
 40
-1.0
  9
$PLINEWID
 40
0.0
  9
$SPLFRAME
 70
     0
  9
$SPLINETYPE
 70
     6
  9
$SPLINESEGS
 70
     8
  9
$HANDSEED
  5
431
  9
$SURFTAB1
 70
     6
  9
$SURFTAB2
 70
     6
  9
$SURFTYPE
 70
     6
  9
$SURFU
 70
     6
  9
$SURFV
 70
     6
  9
$UCSBASE
  2

  9
$UCSNAME
  2

  9
$UCSORG
 10
0.0
 20
0.0
 30
0.0
  9
$UCSXDIR
 10
1.0
 20
0.0
 30
0.0
  9
$UCSYDIR
 10
0.0
 20
1.0
 30
0.0
  9
$UCSORTHOREF
  2

  9
$UCSORTHOVIEW
 70
     0
  9
$UCSORGTOP
 10
0.0
 20
0.0
 30
0.0
  9
$UCSORGBOTTOM
 10
0.0
 20
0.0
 30
0.0
  9
$UCSORGLEFT
 10
0.0
 20
0.0
 30
0.0
  9
$UCSORGRIGHT
 10
0.0
 20
0.0
 30
0.0
  9
$UCSORGFRONT
 10
0.0
 20
0.0
 30
0.0
  9
$UCSORGBACK
 10
0.0
 20
0.0
 30
0.0
  9
$PUCSBASE
  2

  9
$PUCSNAME
  2

  9
$PUCSORG
 10
0.0
 20
0.0
 30
0.0
  9
$PUCSXDIR
 10
1.0
 20
0.0
 30
0.0
  9
$PUCSYDIR
 10
0.0
 20
1.0
 30
0.0
  9
$PUCSORTHOREF
  2

  9
$PUCSORTHOVIEW
 70
     0
  9
$PUCSORGTOP
 10
0.0
 20
0.0
 30
0.0
  9
$PUCSORGBOTTOM
 10
0.0
 20
0.0
 30
0.0
  9
$PUCSORGLEFT
 10
0.0
 20
0.0
 30
0.0
  9
$PUCSORGRIGHT
 10
0.0
 20
0.0
 30
0.0
  9
$PUCSORGFRONT
 10
0.0
 20
0.0
 30
0.0
  9
$PUCSORGBACK
 10
0.0
 20
0.0
 30
0.0
  9
$USERI1
 70
     0
  9
$USERI2
 70
     0
  9
$USERI3
 70
     0
  9
$USERI4
 70
     0
  9
$USERI5
 70
     0
  9
$USERR1
 40
0.0
  9
$USERR2
 40
0.0
  9
$USERR3
 40
0.0
  9
$USERR4
 40
0.0
  9
$USERR5
 40
0.0
  9
$WORLDVIEW
 70
     1
  9
$SHADEDGE
 70
     3
  9
$SHADEDIF
 70
    70
  9
$TILEMODE
 70
     1
  9
$MAXACTVP
 70
    64
  9
$PINSBASE
 10
0.0
 20
0.0
 30
0.0
  9
$PLIMCHECK
 70
     0
  9
$PEXTMIN
 10
1.0000000000E+20
 20
1.0000000000E+20
 30
1.0000000000E+20
  9
$PEXTMAX
 10
-1.0000000000E+20
 20
-1.0000000000E+20
 30
-1.0000000000E+20
  9
$PLIMMIN
 10
0.0
 20
0.0
  9
$PLIMMAX
 10
420.0
 20
297.0
  9
$UNITMODE
 70
     0
  9
$VISRETAIN
 70
     1
  9
$PLINEGEN
 70
     0
  9
$PSLTSCALE
 70
     1
  9
$TREEDEPTH
 70
  3020
  9
$CMLSTYLE
  2
Standard
  9
$CMLJUST
 70
     0
  9
$CMLSCALE
 40
20.0
  9
$PROXYGRAPHICS
 70
     1
  9
$MEASUREMENT
 70
     1
  9
$CELWEIGHT
370
    -1
  9
$ENDCAPS
280
     0
  9
$JOINSTYLE
280
     0
  9
$LWDISPLAY
290
     1
  9
$INSUNITS
 70
     4
  9
$HYPERLINKBASE
  1

  9
$STYLESHEET
  1

  9
$XEDIT
290
     1
  9
$CEPSNTYPE
380
     0
  9
$PSTYLEMODE
290
     1
  9
$FINGERPRINTGUID
  2
{0E04C4C0-E1FC-4987-81EE-5010DD75688A}
  9
$VERSIONGUID
  2
{FAEB1C32-E019-11D5-929B-00C0DF256EC4}
  9
$EXTNAMES
290
     1
  9
$PSVPSCALE
 40
0.0
  9
$OLESTARTUP
290
     0
  9
$SORTENTS
280
   127
  9
$INDEXCTL
280
     0
  9
$HIDETEXT
280
     1
  9
$XCLIPFRAME
280
     2
  9
$HALOGAP
280
     0
  9
$OBSCOLOR
 70
   257
  9
$OBSLTYPE
280
     0
  9
$INTERSECTIONDISPLAY
280
     0
  9
$INTERSECTIONCOLOR
 70
   257
  9
$DIMASSOC
280
     2
  9
$PROJECTNAME
  1

  9
$CAMERADISPLAY
290
     0
  9
$LENSLENGTH
 40
50.0
  9
$CAMERAHEIGHT
 40
0.0
  9
$STEPSPERSEC
 40
2.0
  9
$STEPSIZE
 40
6.0
  9
$3DDWFPREC
 40
2.0
  9
$PSOLWIDTH
 40
5.0
  9
$PSOLHEIGHT
 40
80.0
  9
$LOFTANG1
 40
1.5707963268
  9
$LOFTANG2
 40
1.5707963268
  9
$LOFTMAG1
 40
0.0
  9
$LOFTMAG2
 40
0.0
  9
$LOFTPARAM
 70
     7
  9
$LOFTNORMALS
280
     1
  9
$LATITUDE
 40
37.795
  9
$LONGITUDE
 40
-122.394
  9
$NORTHDIRECTION
 40
0.0
  9
$TIMEZONE
 70
 -8000
  9
$LIGHTGLYPHDISPLAY
280
     1
  9
$TILEMODELIGHTSYNCH
280
     1
  9
$CMATERIAL
347
44
  9
$SOLIDHIST
280
     0
  9
$SHOWHIST
280
     1
  9
$DWFFRAME
280
     2
  9
$DGNFRAME
280
     2
  9
$REALWORLDSCALE
290
     1
  9
$INTERFERECOLOR
 62
   256
  9
$CSHADOW
280
     0
  9
$SHADOWPLANELOCATION
 40
0.0
  0
ENDSEC
  0
SECTION
  2
CLASSES
  0
CLASS
  1
ACDBDICTIONARYWDFLT
  2
AcDbDictionaryWithDefault
  3
ObjectDBX Classes
 90
        0
 91
        4
280
     0
281
     0
  0
CLASS
  1
VISUALSTYLE
  2
AcDbVisualStyle
  3
ObjectDBX Classes
 90
     4095
 91
        4
280
     0
281
     0
  0
CLASS
  1
MATERIAL
  2
AcDbMaterial
  3
ObjectDBX Classes
 90
     1153
 91
        4
280
     0
281
     0
  0
CLASS
  1
SCALE
  2
AcDbScale
  3
ObjectDBX Classes
 90
     1153
 91
        4
280
     0
281
     0
  0
CLASS
  1
TABLESTYLE
  2
AcDbTableStyle
  3
ObjectDBX Classes
 90
     4095
 91
        4
280
     0
281
     0
  0
CLASS
  1
MLEADERSTYLE
  2
AcDbMLeaderStyle
  3
ACDB_MLEADERSTYLE_CLASS
 90
     4095
 91
        4
280
     0
281
     0
  0
CLASS
  1
SUN
  2
AcDbSun
  3
SCENEOE
 90
     1153
 91
        4
280
     0
281
     0
  0
CLASS
  1
DICTIONARYVAR
  2
AcDbDictionaryVar
  3
ObjectDBX Classes
 90
        0
 91
        4
280
     0
281
     0
  0
CLASS
  1
CELLSTYLEMAP
  2
AcDbCellStyleMap
  3
ObjectDBX Classes
 90
     1152
 91
        4
280
     0
281
     0
  0
ENDSEC
  0
SECTION
  2
TABLES
  0
TABLE
  2
VPORT
  5
8
330
0
100
AcDbSymbolTable
 70
     1
  0
VPORT
  5
29
330
8
100
AcDbSymbolTableRecord
100
AcDbViewportTableRecord
  2
*Active
 70
     0
 10
0.0
 20
0.0
 11
1.0
 21
1.0
 12
420.0
 22
297.0
 13
0.0
 23
0.0
 14
10.0
 24
10.0
 15
10.0
 25
10.0
 16
0.0
 26
0.0
 36
1.0
 17
0.0
 27
0.0
 37
0.0
 40
594.0
 41
1.4141414141
 42
50.0
 43
0.0
 44
0.0
 50
0.0
 51
0.0
 71
     0
 72
  2000
 73
     1
 74
     3
 75
     0
 76
     0
 77
     0
 78
     0
281
     0
 65
     1
110
0.0
120
0.0
130
0.0
111
1.0
121
0.0
131
0.0
112
0.0
122
1.0
132
0.0
 79
     0
146
0.0
348
2F
 60
     3
 61
     5
292
     1
282
     1
141
0.0
142
0.0
 63
   250
361
6D
  0
ENDTAB
  0
TABLE
  2
LTYPE
  5
5
330
0
100
AcDbSymbolTable
 70
     8
  0
LTYPE
  5
14
330
5
100
AcDbSymbolTableRecord
100
AcDbLinetypeTableRecord
  2
ByBlock
 70
     0
  3

 72
    65
 73
     0
 40
0.0
  0
LTYPE
  5
15
330
5
100
AcDbSymbolTableRecord
100
AcDbLinetypeTableRecord
  2
ByLayer
 70
     0
  3

 72
    65
 73
     0
 40
0.0
  0
LTYPE
  5
16
330
5
100
AcDbSymbolTableRecord
100
AcDbLinetypeTableRecord
  2
Continuous
 70
     0
  3
Solid line
 72
    65
 73
     0
 40
0.0
  0
LTYPE
  5
6E
330
5
100
AcDbSymbolTableRecord
100
AcDbLinetypeTableRecord
  2
SLD-Durchgehend
 70
     0
  3
SolidWorks Line Style
 72
    65
 73
     0
 40
0.0
  0
LTYPE
  5
6F
330
5
100
AcDbSymbolTableRecord
100
AcDbLinetypeTableRecord
  2
SLD-Gestrichelt
 70
     0
  3
SolidWorks Line Style
 72
    65
 73
     2
 40
1.905
 49
1.27
 74
     0
 49
-0.635
 74
     0
  0
LTYPE
  5
70
330
5
100
AcDbSymbolTableRecord
100
AcDbLinetypeTableRecord
  2
SLD-Phantom
 70
     0
  3
SolidWorks Line Style
 72
    65
 73
     6
 40
12.7
 49
6.35
 74
     0
 49
-1.27
 74
     0
 49
1.27
 74
     0
 49
-1.27
 74
     0
 49
1.27
 74
     0
 49
-1.27
 74
     0
  0
LTYPE
  5
71
330
5
100
AcDbSymbolTableRecord
100
AcDbLinetypeTableRecord
  2
SLD-Kette
 70
     0
  3
SolidWorks Line Style
 72
    65
 73
     4
 40
10.16
 49
6.35
 74
     0
 49
-1.27
 74
     0
 49
1.27
 74
     0
 49
-1.27
 74
     0
  0
LTYPE
  5
72
330
5
100
AcDbSymbolTableRecord
100
AcDbLinetypeTableRecord
  2
SLD-Punktstrich
 70
     0
  3
SolidWorks Line Style
 72
    65
 73
     4
 40
19.05
 49
15.24
 74
     0
 49
-1.27
 74
     0
 49
1.27
 74
     0
 49
-1.27
 74
     0
  0
LTYPE
  5
73
330
5
100
AcDbSymbolTableRecord
100
AcDbLinetypeTableRecord
  2
SLD-Naht
 70
     0
  3
SolidWorks Line Style
 72
    65
 73
     2
 40
0.635
 49
0.0
 74
     0
 49
-0.635
 74
     0
  0
LTYPE
  5
74
330
5
100
AcDbSymbolTableRecord
100
AcDbLinetypeTableRecord
  2
SLD-Dicke-Dünne-Kette
 70
     0
  3
SolidWorks Line Style
 72
    65
 73
     4
 40
10.16
 49
6.35
 74
     0
 49
-1.27
 74
     0
 49
1.27
 74
     0
 49
-1.27
 74
     0
  0
ENDTAB
  0
TABLE
  2
LAYER
  5
2
330
0
100
AcDbSymbolTable
 70
     1
  0
LAYER
  5
10
330
2
100
AcDbSymbolTableRecord
100
AcDbLayerTableRecord
  2
0
 70
     0
 62
     7
  6
Continuous
370
    -3
390
F
347
46
348
0
  0
ENDTAB
  0
TABLE
  2
STYLE
  5
3
330
0
100
AcDbSymbolTable
 70
     3
  0
STYLE
  5
11
330
3
100
AcDbSymbolTableRecord
100
AcDbTextStyleTableRecord
  2
Standard
 70
     0
 40
0.0
 41
1.0
 50
0.0
 71
     0
 42
7.0
  3
txt
  4

  0
STYLE
  5
3D6
330
3
100
AcDbSymbolTableRecord
100
AcDbTextStyleTableRecord
  2
SLDTEXTSTYLE0
 70
     0
 40
0.0
 41
0.6
 50
0.0
 71
     0
 42
7.0
  3
TXT
  4

  0
STYLE
  5
3E3
330
3
100
AcDbSymbolTableRecord
100
AcDbTextStyleTableRecord
  2
SLDTEXTSTYLE1
 70
     0
 40
0.0
 41
0.75
 50
0.0
 71
     0
 42
7.0
  3
TXT
  4

  0
ENDTAB
  0
TABLE
  2
VIEW
  5
6
330
0
100
AcDbSymbolTable
 70
     0
  0
ENDTAB
  0
TABLE
  2
UCS
  5
7
330
0
100
AcDbSymbolTable
 70
     0
  0
ENDTAB
  0
TABLE
  2
APPID
  5
9
330
0
100
AcDbSymbolTable
 70
     1
  0
APPID
  5
12
330
9
100
AcDbSymbolTableRecord
100
AcDbRegAppTableRecord
  2
ACAD
 70
     0
  0
ENDTAB
  0
TABLE
  2
DIMSTYLE
  5
A
330
0
100
AcDbSymbolTable
 70
     3
100
AcDbDimStyleTable
  0
DIMSTYLE
105
27
330
A
100
AcDbSymbolTableRecord
100
AcDbDimStyleTableRecord
  2
ISO-25
 70
     0
 41
2.5
 42
0.625
 43
3.75
 44
1.25
 73
     0
 74
     0
 77
     1
 78
     8
140
2.5
141
2.5
143
0.0393700787
147
0.625
171
     3
172
     1
178
     0
271
     2
272
     2
274
     3
278
    44
283
     0
284
     8
340
11
  0
DIMSTYLE
105
3D7
102
{ACAD_REACTORS
330
3D5
330
3F3
330
3FD
330
407
330
412
330
41D
102
}
330
A
100
AcDbSymbolTableRecord
100
AcDbDimStyleTableRecord
  2
SLDDIMSTYLE0
 70
     0
 41
6.604
 44
0.0
 45
0.000000001
 73
     0
 74
     0
 77
     1
 78
    12
 79
     3
140
28.0
147
7.0
173
     1
178
     0
271
     0
276
     2
284
    12
340
3D6
341
3D8
343
3D8
344
3D8
  0
DIMSTYLE
105
3E8
102
{ACAD_REACTORS
330
3E7
102
}
330
A
100
AcDbSymbolTableRecord
100
AcDbDimStyleTableRecord
  2
SLDDIMSTYLE1
 70
     0
 41
6.604
 44
0.0
 45
0.000000001
 73
     0
 74
     0
 77
     1
 78
    12
 79
     3
140
28.0
147
7.0
173
     1
178
     0
271
     0
276
     2
284
    12
340
3D6
  0
ENDTAB
  0
TABLE
  2
BLOCK_RECORD
  5
1
330
0
100
AcDbSymbolTable
 70
    27
  0
BLOCK_RECORD
  5
1F
330
1
100
AcDbSymbolTableRecord
100
AcDbBlockTableRecord
  2
*Model_Space
340
22
 70
     0
280
     1
281
     0
  0
BLOCK_RECORD
  5
1B
330
1
100
AcDbSymbolTableRecord
100
AcDbBlockTableRecord
  2
*Paper_Space
340
1E
 70
     0
280
     1
281
     0
  0
BLOCK_RECORD
  5
23
330
1
100
AcDbSymbolTableRecord
100
AcDbBlockTableRecord
  2
*Paper_Space0
340
26
 70
     0
280
     1
281
     0
  0
BLOCK_RECORD
  5
75
330
1
100
AcDbSymbolTableRecord
100
AcDbBlockTableRecord
  2
_X2
340
0
102
{BLKREFS
331
3C8
102
}
 70
     0
280
     1
281
     0
  0
BLOCK_RECORD
  5
F0
330
1
100
AcDbSymbolTableRecord
100
AcDbBlockTableRecord
  2
_X4
340
0
102
{BLKREFS
331
3CB
102
}
 70
     0
280
     1
281
     0
  0
BLOCK_RECORD
  5
176
330
1
100
AcDbSymbolTableRecord
100
AcDbBlockTableRecord
  2
_X8
340
0
102
{BLKREFS
331
3C7
102
}
 70
     0
280
     1
281
     0
  0
BLOCK_RECORD
  5
17F
330
1
100
AcDbSymbolTableRecord
100
AcDbBlockTableRecord
  2
_X10
340
0
102
{BLKREFS
331
3C9
102
}
 70
     0
280
     1
281
     0
  0
BLOCK_RECORD
  5
188
330
1
100
AcDbSymbolTableRecord
100
AcDbBlockTableRecord
  2
_X11
340
0
102
{BLKREFS
331
3CC
102
}
 70
     0
280
     1
281
     0
  0
BLOCK_RECORD
  5
199
330
1
100
AcDbSymbolTableRecord
100
AcDbBlockTableRecord
  2
_X12
340
0
102
{BLKREFS
331
3CA
102
}
 70
     0
280
     1
281
     0
  0
BLOCK_RECORD
  5
19E
330
1
100
AcDbSymbolTableRecord
100
AcDbBlockTableRecord
  2
_X13
340
0
102
{BLKREFS
331
3CD
102
}
 70
     0
280
     1
281
     0
  0
BLOCK_RECORD
  5
1A3
330
1
100
AcDbSymbolTableRecord
100
AcDbBlockTableRecord
  2
_X14
340
0
102
{BLKREFS
331
3CF
102
}
 70
     0
280
     1
281
     0
  0
BLOCK_RECORD
  5
1AF
330
1
100
AcDbSymbolTableRecord
100
AcDbBlockTableRecord
  2
_X15
340
0
102
{BLKREFS
331
3D2
102
}
 70
     0
280
     1
281
     0
  0
BLOCK_RECORD
  5
1BD
330
1
100
AcDbSymbolTableRecord
100
AcDbBlockTableRecord
  2
_X16
340
0
102
{BLKREFS
331
3D1
102
}
 70
     0
280
     1
281
     0
  0
BLOCK_RECORD
  5
1C2
330
1
100
AcDbSymbolTableRecord
100
AcDbBlockTableRecord
  2
_X17
340
0
102
{BLKREFS
331
3CE
102
}
 70
     0
280
     1
281
     0
  0
BLOCK_RECORD
  5
1C7
330
1
100
AcDbSymbolTableRecord
100
AcDbBlockTableRecord
  2
_X18
340
0
102
{BLKREFS
331
3D4
102
}
 70
     0
280
     1
281
     0
  0
BLOCK_RECORD
  5
1D5
330
1
100
AcDbSymbolTableRecord
100
AcDbBlockTableRecord
  2
_X20
340
0
102
{BLKREFS
331
3D0
102
}
 70
     0
280
     1
281
     0
  0
BLOCK_RECORD
  5
1DF
330
1
100
AcDbSymbolTableRecord
100
AcDbBlockTableRecord
  2
_X21
340
0
102
{BLKREFS
331
3D3
102
}
 70
     0
280
     1
281
     0
  0
BLOCK_RECORD
  5
1E7
330
1
100
AcDbSymbolTableRecord
100
AcDbBlockTableRecord
  2
_X22
340
0
102
{BLKREFS
331
3C6
102
}
 70
     0
280
     1
281
     0
  0
BLOCK_RECORD
  5
1EF
330
1
100
AcDbSymbolTableRecord
100
AcDbBlockTableRecord
  2
_X23
340
0
102
{BLKREFS
331
3C5
102
}
 70
     0
280
     1
281
     0
  0
BLOCK_RECORD
  5
1F8
330
1
100
AcDbSymbolTableRecord
100
AcDbBlockTableRecord
  2
_X24
340
0
102
{BLKREFS
331
3C3
102
}
 70
     0
280
     1
281
     0
  0
BLOCK_RECORD
  5
21C
330
1
100
AcDbSymbolTableRecord
100
AcDbBlockTableRecord
  2
_X25
340
0
102
{BLKREFS
331
3C4
102
}
 70
     0
280
     1
281
     0
  0
BLOCK_RECORD
  5
3D8
330
1
100
AcDbSymbolTableRecord
100
AcDbBlockTableRecord
  2
_NONE
340
0
 70
     0
280
     1
281
     0
  0
BLOCK_RECORD
  5
3DB
330
1
100
AcDbSymbolTableRecord
100
AcDbBlockTableRecord
  2
_D
340
0
 70
     0
280
     1
281
     0
  0
BLOCK_RECORD
  5
3E9
330
1
100
AcDbSymbolTableRecord
100
AcDbBlockTableRecord
  2
_D_1
340
0
 70
     0
280
     1
281
     0
  0
BLOCK_RECORD
  5
3F4
330
1
100
AcDbSymbolTableRecord
100
AcDbBlockTableRecord
  2
_D_2
340
0
 70
     0
280
     1
281
     0
  0
BLOCK_RECORD
  5
3FE
330
1
100
AcDbSymbolTableRecord
100
AcDbBlockTableRecord
  2
_D_3
340
0
 70
     0
280
     1
281
     0
  0
BLOCK_RECORD
  5
408
330
1
100
AcDbSymbolTableRecord
100
AcDbBlockTableRecord
  2
_D_4
340
0
 70
     0
280
     1
281
     0
  0
BLOCK_RECORD
  5
413
330
1
100
AcDbSymbolTableRecord
100
AcDbBlockTableRecord
  2
_D_5
340
0
 70
     0
280
     1
281
     0
  0
BLOCK_RECORD
  5
41E
330
1
100
AcDbSymbolTableRecord
100
AcDbBlockTableRecord
  2
_D_6
340
0
 70
     0
280
     1
281
     0
  0
ENDTAB
  0
ENDSEC
  0
SECTION
  2
BLOCKS
  0
BLOCK
  5
20
330
1F
100
AcDbEntity
  8
0
100
AcDbBlockBegin
  2
*Model_Space
 70
     0
 10
0.0
 20
0.0
 30
0.0
  3
*Model_Space
  1

  0
ENDBLK
  5
21
330
1F
100
AcDbEntity
  8
0
100
AcDbBlockEnd
  0
BLOCK
  5
1C
330
1B
100
AcDbEntity
 67
     1
  8
0
100
AcDbBlockBegin
  2
*Paper_Space
 70
     0
 10
0.0
 20
0.0
 30
0.0
  3
*Paper_Space
  1

  0
ENDBLK
  5
1D
330
1B
100
AcDbEntity
 67
     1
  8
0
100
AcDbBlockEnd
  0
BLOCK
  5
24
330
23
100
AcDbEntity
  8
0
100
AcDbBlockBegin
  2
*Paper_Space0
 70
     0
 10
0.0
 20
0.0
 30
0.0
  3
*Paper_Space0
  1

  0
ENDBLK
  5
25
330
23
100
AcDbEntity
  8
0
100
AcDbBlockEnd
  0
BLOCK
  5
76
330
75
100
AcDbEntity
  8
0
100
AcDbBlockBegin
  2
_X2
 70
     0
 10
0.0
 20
0.0
 30
0.0
  3
_X2
  1

  0
LINE
  5
78
330
75
100
AcDbEntity
  8
0
 62
   250
420
  1644836
370
    25
100
AcDbLine
 10
810.982758
 20
256.611042
 30
0.0
 11
816.982758
 21
262.611042
 31
0.0
  0
LINE
  5
79
330
75
100
AcDbEntity
  8
0
 62
   250
420
  1644836
370
    25
100
AcDbLine
 10
810.982758
 20
262.267896
 30
0.0
 11
816.982758
 21
268.267896
 31
0.0
  0
LINE
  5
7A
330
75
100
AcDbEntity
  8
0
 62
   250
420
  1644836
370
    25
100
AcDbLine
 10
810.982758
 20
267.92475
 30
0.0
 11
816.982758
 21
273.92475
 31
0.0
  0
LINE
  5
7B
330
75
100
AcDbEntity
  8
0
 62
   250
420
  1644836
370
    25
100
AcDbLine
 10
810.982758
 20
273.581606
 30
0.0
 11
816.982758
 21
279.581606
 31
0.0
  0
LINE
  5
7C
330
75
100
AcDbEntity
  8
0
 62
   250
420
  1644836
370
    25
100
AcDbLine
 10
810.982758
 20
279.23846
 30
0.0
 11
816.982758
 21
285.23846
 31
0.0
  0
LINE
  5
7D
330
75
100
AcDbEntity
  8
0
 62
   250
420
  1644836
370
    25
100
AcDbLine
 10
810.982758
 20
284.895314
 30
0.0
 11
816.982758
 21
290.895314
 31
0.0
  0
LINE
  5
7E
330
75
100
AcDbEntity
  8
0
 62
   250
420
  1644836
370
    25
100
AcDbLine
 10
810.982758
 20
290.552168
 30
0.0
 11
816.982758
 21
296.552168
 31
0.0
  0
LINE
  5
7F
330
75
100
AcDbEntity
  8
0
 62
   250
420
  1644836
370
    25
100
AcDbLine
 10
810.982758
 20
296.209022
 30
0.0
 11
816.982758
 21
302.209022
 31
0.0
  0
LINE
  5
80
330
75
100
AcDbEntity
  8
0
 62
   250
420
  1644836
370
    25
100
AcDbLine
 10
810.982758
 20
301.865876
 30
0.0
 11
816.982758
 21
307.865876
 31
0.0
  0
LINE
  5
81
330
75
100
AcDbEntity
  8
0
 62
   250
420
  1644836
370
    25
100
AcDbLine
 10
810.982758
 20
307.52273
 30
0.0
 11
816.982758
 21
313.52273
 31
0.0
  0
LINE
  5
82
330
75
100
AcDbEntity
  8
0
 62
   250
420
  1644836
370
    25
100
AcDbLine
 10
810.982758
 20
313.179584
 30
0.0
 11
816.982758
 21
319.179584
 31
0.0
  0
LINE
  5
83
330
75
100
AcDbEntity
  8
0
 62
   250
420
  1644836
370
    25
100
AcDbLine
 10
810.982758
 20
318.83644
 30
0.0
 11
816.982758
 21
324.83644
 31
0.0
  0
LINE
  5
84
330
75
100
AcDbEntity
  8
0
 62
   250
420
  1644836
370
    25
100
AcDbLine
 10
810.982758
 20
324.493294
 30
0.0
 11
816.982758
 21
330.493294
 31
0.0
  0
LINE
  5
85
330
75
100
AcDbEntity
  8
0
 62
   250
420
  1644836
370
    25
100
AcDbLine
 10
810.982758
 20
330.150148
 30
0.0
 11
816.982758
 21
336.150148
 31
0.0
  0
LINE
  5
86
330
75
100
AcDbEntity
  8
0
 62
   250
420
  1644836
370
    25
100
AcDbLine
 10
810.982758
 20
335.807002
 30
0.0
 11
816.982758
 21
341.807002
 31
0.0
  0
LINE
  5
87
330
75
100
AcDbEntity
  8
0
 62
   250
420
  1644836
370
    25
100
AcDbLine
 10
810.982758
 20
341.463856
 30
0.0
 11
816.982758
 21
347.463856
 31
0.0
  0
LINE
  5
88
330
75
100
AcDbEntity
  8
0
 62
   250
420
  1644836
370
    25
100
AcDbLine
 10
810.982758
 20
347.12071
 30
0.0
 11
816.982758
 21
353.12071
 31
0.0
  0
LINE
  5
89
330
75
100
AcDbEntity
  8
0
 62
   250
420
  1644836
370
    25
100
AcDbLine
 10
810.982758
 20
352.777564
 30
0.0
 11
816.982758
 21
358.777564
 31
0.0
  0
LINE
  5
8A
330
75
100
AcDbEntity
  8
0
 62
   250
420
  1644836
370
    25
100
AcDbLine
 10
810.982758
 20
358.434418
 30
0.0
 11
816.982758
 21
364.434418
 31
0.0
  0
LINE
  5
8B
330
75
100
AcDbEntity
  8
0
 62
   250
420
  1644836
370
    25
100
AcDbLine
 10
750.983012
 20
304.091526
 30
0.0
 11
756.983016
 21
310.09153
 31
0.0
  0
LINE
  5
8C
330
75
100
AcDbEntity
  8
0
 62
   250
420
  1644836
370
    25
100
AcDbLine
 10
810.982758
 20
364.091274
 30
0.0
 11
816.982758
 21
370.091274
 31
0.0
  0
LINE
  5
8D
330
75
100
AcDbEntity
  8
0
 62
   250
420
  1644836
370
    25
100
AcDbLine
 10
852.448778
 20
405.557294
 30
0.0
 11
865.037588
 21
418.146102
 31
0.0
  0
LINE
  5
8E
330
75
100
AcDbEntity
  8
0
 62
   250
420
  1644836
370
    25
100
AcDbLine
 10
750.983016
 20
309.748384
 30
0.0
 11
756.98302
 21
315.748388
 31
0.0
  0
LINE
  5
8F
330
75
100
AcDbEntity
  8
0
 62
   250
420
  1644836
370
    25
100
AcDbLine
 10
810.982758
 20
369.748128
 30
0.0
 11
816.982758
 21
375.748128
 31
0.0
  0
LINE
  5
90
330
75
100
AcDbEntity
  8
0
 62
   250
420
  1644836
370
    25
100
AcDbLine
 10
844.925122
 20
403.69049
 30
0.0
 11
866.90439
 21
425.66976
 31
0.0
  0
LINE
  5
91
330
75
100
AcDbEntity
  8
0
 62
   250
420
  1644836
370
    25
100
AcDbLine
 10
750.983018
 20
315.405242
 30
0.0
 11
756.983022
 21
321.405246
 31
0.0
  0
LINE
  5
92
330
75
100
AcDbEntity
  8
0
 62
   250
420
  1644836
370
    25
100
AcDbLine
 10
810.982758
 20
375.404982
 30
0.0
 11
816.982758
 21
381.404982
 31
0.0
  0
LINE
  5
93
330
75
100
AcDbEntity
  8
0
 62
   250
420
  1644836
370
    25
100
AcDbLine
 10
839.189568
 20
403.61179
 30
0.0
 11
845.34523
 21
409.767454
 31
0.0
  0
LINE
  5
94
330
75
100
AcDbEntity
  8
0
 62
   250
420
  1644836
370
    25
100
AcDbLine
 10
860.827428
 20
425.24965
 30
0.0
 11
866.983096
 21
431.405318
 31
0.0
  0
LINE
  5
95
330
75
100
AcDbEntity
  8
0
 62
   250
420
  1644836
370
    25
100
AcDbLine
 10
750.983022
 20
321.0621
 30
0.0
 11
756.983026
 21
327.062104
 31
0.0
  0
LINE
  5
96
330
75
100
AcDbEntity
  8
0
 62
   250
420
  1644836
370
    25
100
AcDbLine
 10
810.982758
 20
381.061836
 30
0.0
 11
816.982758
 21
387.061836
 31
0.0
  0
LINE
  5
97
330
75
100
AcDbEntity
  8
0
 62
   250
420
  1644836
370
    25
100
AcDbLine
 10
833.532716
 20
403.611792
 30
0.0
 11
839.532714
 21
409.61179
 31
0.0
  0
LINE
  5
98
330
75
100
AcDbEntity
  8
0
 62
   250
420
  1644836
370
    25
100
AcDbLine
 10
860.983094
 20
431.062172
 30
0.0
 11
866.9831
 21
437.062176
 31
0.0
  0
LINE
  5
99
330
75
100
AcDbEntity
  8
0
 62
   250
420
  1644836
370
    25
100
AcDbLine
 10
750.983026
 20
326.718958
 30
0.0
 11
756.98303
 21
332.718962
 31
0.0
  0
LINE
  5
9A
330
75
100
AcDbEntity
  8
0
 62
   250
420
  1644836
370
    25
100
AcDbLine
 10
810.982758
 20
386.71869
 30
0.0
 11
816.982758
 21
392.71869
 31
0.0
  0
LINE
  5
9B
330
75
100
AcDbEntity
  8
0
 62
   250
420
  1644836
370
    25
100
AcDbLine
 10
827.875864
 20
403.611796
 30
0.0
 11
833.875862
 21
409.611794
 31
0.0
  0
LINE
  5
9C
330
75
100
AcDbEntity
  8
0
 62
   250
420
  1644836
370
    25
100
AcDbLine
 10
860.9831
 20
436.71903
 30
0.0
 11
866.983104
 21
442.719034
 31
0.0
  0
LINE
  5
9D
330
75
100
AcDbEntity
  8
0
 62
   250
420
  1644836
370
    25
100
AcDbLine
 10
750.98303
 20
332.375816
 30
0.0
 11
756.983034
 21
338.37582
 31
0.0
  0
LINE
  5
9E
330
75
100
AcDbEntity
  8
0
 62
   250
420
  1644836
370
    25
100
AcDbLine
 10
810.982758
 20
392.375544
 30
0.0
 11
816.982758
 21
398.375544
 31
0.0
  0
LINE
  5
9F
330
75
100
AcDbEntity
  8
0
 62
   250
420
  1644836
370
    25
100
AcDbLine
 10
822.219012
 20
403.611798
 30
0.0
 11
828.219012
 21
409.611798
 31
0.0
  0
LINE
  5
A0
330
75
100
AcDbEntity
  8
0
 62
   250
420
  1644836
370
    25
100
AcDbLine
 10
860.983104
 20
442.375888
 30
0.0
 11
866.983108
 21
448.375894
 31
0.0
  0
LINE
  5
A1
330
75
100
AcDbEntity
  8
0
 62
   250
420
  1644836
370
    25
100
AcDbLine
 10
750.983034
 20
338.032674
 30
0.0
 11
756.983038
 21
344.032678
 31
0.0
  0
LINE
  5
A2
330
75
100
AcDbEntity
  8
0
 62
   250
420
  1644836
370
    25
100
AcDbLine
 10
810.982758
 20
398.032398
 30
0.0
 11
822.562162
 21
409.6118
 31
0.0
  0
LINE
  5
A3
330
75
100
AcDbEntity
  8
0
 62
   250
420
  1644836
370
    25
100
AcDbLine
 10
860.983108
 20
448.032748
 30
0.0
 11
866.983112
 21
454.032752
 31
0.0
  0
LINE
  5
A4
330
75
100
AcDbEntity
  8
0
 62
   250
420
  1644836
370
    25
100
AcDbLine
 10
750.983038
 20
343.689532
 30
0.0
 11
756.983042
 21
349.689536
 31
0.0
  0
LINE
  5
A5
330
75
100
AcDbEntity
  8
0
 62
   250
420
  1644836
370
    25
100
AcDbLine
 10
810.905312
 20
403.611806
 30
0.0
 11
816.90531
 21
409.611804
 31
0.0
  0
LINE
  5
A6
330
75
100
AcDbEntity
  8
0
 62
   250
420
  1644836
370
    25
100
AcDbLine
 10
860.983112
 20
453.689606
 30
0.0
 11
866.983116
 21
459.68961
 31
0.0
  0
LINE
  5
A7
330
75
100
AcDbEntity
  8
0
 62
   250
420
  1644836
370
    25
100
AcDbLine
 10
750.983042
 20
349.34639
 30
0.0
 11
756.983044
 21
355.346394
 31
0.0
  0
LINE
  5
A8
330
75
100
AcDbEntity
  8
0
 62
   250
420
  1644836
370
    25
100
AcDbLine
 10
805.24846
 20
403.611808
 30
0.0
 11
811.24846
 21
409.611808
 31
0.0
  0
LINE
  5
A9
330
75
100
AcDbEntity
  8
0
 62
   250
420
  1644836
370
    25
100
AcDbLine
 10
860.983116
 20
459.346464
 30
0.0
 11
866.98312
 21
465.34647
 31
0.0
  0
LINE
  5
AA
330
75
100
AcDbEntity
  8
0
 62
   250
420
  1644836
370
    25
100
AcDbLine
 10
750.983044
 20
355.003248
 30
0.0
 11
756.983048
 21
361.003252
 31
0.0
  0
LINE
  5
AB
330
75
100
AcDbEntity
  8
0
 62
   250
420
  1644836
370
    25
100
AcDbLine
 10
799.59161
 20
403.611812
 30
0.0
 11
805.591608
 21
409.61181
 31
0.0
  0
LINE
  5
AC
330
75
100
AcDbEntity
  8
0
 62
   250
420
  1644836
370
    25
100
AcDbLine
 10
860.98312
 20
465.003322
 30
0.0
 11
866.983126
 21
471.003328
 31
0.0
  0
LINE
  5
AD
330
75
100
AcDbEntity
  8
0
 62
   250
420
  1644836
370
    25
100
AcDbLine
 10
750.983048
 20
360.660106
 30
0.0
 11
756.983052
 21
366.66011
 31
0.0
  0
LINE
  5
AE
330
75
100
AcDbEntity
  8
0
 62
   250
420
  1644836
370
    25
100
AcDbLine
 10
793.93476
 20
403.611816
 30
0.0
 11
799.934758
 21
409.611814
 31
0.0
  0
LINE
  5
AF
330
75
100
AcDbEntity
  8
0
 62
   250
420
  1644836
370
    25
100
AcDbLine
 10
860.983124
 20
470.660182
 30
0.0
 11
866.98313
 21
476.660186
 31
0.0
  0
LINE
  5
B0
330
75
100
AcDbEntity
  8
0
 62
   250
420
  1644836
370
    25
100
AcDbLine
 10
750.983052
 20
366.316964
 30
0.0
 11
756.983056
 21
372.316968
 31
0.0
  0
LINE
  5
B1
330
75
100
AcDbEntity
  8
0
 62
   250
420
  1644836
370
    25
100
AcDbLine
 10
788.277908
 20
403.61182
 30
0.0
 11
794.277906
 21
409.611818
 31
0.0
  0
LINE
  5
B2
330
75
100
AcDbEntity
  8
0
 62
   250
420
  1644836
370
    25
100
AcDbLine
 10
860.983128
 20
476.31704
 30
0.0
 11
866.983134
 21
482.317044
 31
0.0
  0
LINE
  5
B3
330
75
100
AcDbEntity
  8
0
 62
   250
420
  1644836
370
    25
100
AcDbLine
 10
750.983056
 20
371.973822
 30
0.0
 11
756.98306
 21
377.973826
 31
0.0
  0
LINE
  5
B4
330
75
100
AcDbEntity
  8
0
 62
   250
420
  1644836
370
    25
100
AcDbLine
 10
782.621058
 20
403.611824
 30
0.0
 11
788.621056
 21
409.61182
 31
0.0
  0
LINE
  5
B5
330
75
100
AcDbEntity
  8
0
 62
   250
420
  1644836
370
    25
100
AcDbLine
 10
860.983134
 20
481.973898
 30
0.0
 11
866.983138
 21
487.973904
 31
0.0
  0
LINE
  5
B6
330
75
100
AcDbEntity
  8
0
 62
   250
420
  1644836
370
    25
100
AcDbLine
 10
750.98306
 20
377.63068
 30
0.0
 11
756.983064
 21
383.630682
 31
0.0
  0
LINE
  5
B7
330
75
100
AcDbEntity
  8
0
 62
   250
420
  1644836
370
    25
100
AcDbLine
 10
776.964208
 20
403.611828
 30
0.0
 11
782.964204
 21
409.611824
 31
0.0
  0
LINE
  5
B8
330
75
100
AcDbEntity
  8
0
 62
   250
420
  1644836
370
    25
100
AcDbLine
 10
860.983138
 20
487.630756
 30
0.0
 11
866.983142
 21
493.630762
 31
0.0
  0
LINE
  5
B9
330
75
100
AcDbEntity
  8
0
 62
   250
420
  1644836
370
    25
100
AcDbLine
 10
750.983064
 20
383.287538
 30
0.0
 11
756.983068
 21
389.28754
 31
0.0
  0
LINE
  5
BA
330
75
100
AcDbEntity
  8
0
 62
   250
420
  1644836
370
    25
100
AcDbLine
 10
771.307358
 20
403.611832
 30
0.0
 11
777.307354
 21
409.611828
 31
0.0
  0
LINE
  5
BB
330
75
100
AcDbEntity
  8
0
 62
   250
420
  1644836
370
    25
100
AcDbLine
 10
860.983142
 20
493.287616
 30
0.0
 11
866.983146
 21
499.28762
 31
0.0
  0
LINE
  5
BC
330
75
100
AcDbEntity
  8
0
 62
   250
420
  1644836
370
    25
100
AcDbLine
 10
750.983066
 20
388.944394
 30
0.0
 11
756.98307
 21
394.944398
 31
0.0
  0
LINE
  5
BD
330
75
100
AcDbEntity
  8
0
 62
   250
420
  1644836
370
    25
100
AcDbLine
 10
765.650506
 20
403.611834
 30
0.0
 11
771.650502
 21
409.61183
 31
0.0
  0
LINE
  5
BE
330
75
100
AcDbEntity
  8
0
 62
   250
420
  1644836
370
    25
100
AcDbLine
 10
860.983146
 20
498.944474
 30
0.0
 11
866.98315
 21
504.944478
 31
0.0
  0
LINE
  5
BF
330
75
100
AcDbEntity
  8
0
 62
   250
420
  1644836
370
    25
100
AcDbLine
 10
750.98307
 20
394.601252
 30
0.0
 11
756.983074
 21
400.601256
 31
0.0
  0
LINE
  5
C0
330
75
100
AcDbEntity
  8
0
 62
   250
420
  1644836
370
    25
100
AcDbLine
 10
759.993656
 20
403.611838
 30
0.0
 11
768.983082
 21
412.601264
 31
0.0
  0
LINE
  5
C1
330
75
100
AcDbEntity
  8
0
 62
   250
420
  1644836
370
    25
100
AcDbLine
 10
860.98315
 20
504.601332
 30
0.0
 11
866.983156
 21
510.601338
 31
0.0
  0
LINE
  5
C2
330
75
100
AcDbEntity
  8
0
 62
   250
420
  1644836
370
    25
100
AcDbLine
 10
750.983074
 20
400.25811
 30
0.0
 11
768.983086
 21
418.258122
 31
0.0
  0
LINE
  5
C3
330
75
100
AcDbEntity
  8
0
 62
   250
420
  1644836
370
    25
100
AcDbLine
 10
860.983154
 20
510.258192
 30
0.0
 11
866.98316
 21
516.258196
 31
0.0
  0
LINE
  5
C4
330
75
100
AcDbEntity
  8
0
 62
   250
420
  1644836
370
    25
100
AcDbLine
 10
751.957144
 20
406.889034
 30
0.0
 11
753.705882
 21
408.637772
 31
0.0
  0
LINE
  5
C5
330
75
100
AcDbEntity
  8
0
 62
   250
420
  1644836
370
    25
100
AcDbLine
 10
762.983086
 20
417.914976
 30
0.0
 11
768.98309
 21
423.91498
 31
0.0
  0
LINE
  5
C6
330
75
100
AcDbEntity
  8
0
 62
   250
420
  1644836
370
    25
100
AcDbLine
 10
860.983158
 20
515.91505
 30
0.0
 11
866.983164
 21
521.915054
 31
0.0
  0
LINE
  5
C7
330
75
100
AcDbEntity
  8
0
 62
   250
420
  1644836
370
    25
100
AcDbLine
 10
762.98309
 20
423.571834
 30
0.0
 11
768.983094
 21
429.571838
 31
0.0
  0
LINE
  5
C8
330
75
100
AcDbEntity
  8
0
 62
   250
420
  1644836
370
    25
100
AcDbLine
 10
860.983164
 20
521.571908
 30
0.0
 11
866.983168
 21
527.571914
 31
0.0
  0
LINE
  5
C9
330
75
100
AcDbEntity
  8
0
 62
   250
420
  1644836
370
    25
100
AcDbLine
 10
762.983094
 20
429.228692
 30
0.0
 11
768.983098
 21
435.228696
 31
0.0
  0
LINE
  5
CA
330
75
100
AcDbEntity
  8
0
 62
   250
420
  1644836
370
    25
100
AcDbLine
 10
860.983168
 20
527.228766
 30
0.0
 11
866.983172
 21
533.228772
 31
0.0
  0
LINE
  5
CB
330
75
100
AcDbEntity
  8
0
 62
   250
420
  1644836
370
    25
100
AcDbLine
 10
762.983096
 20
434.88555
 30
0.0
 11
768.9831
 21
440.885554
 31
0.0
  0
LINE
  5
CC
330
75
100
AcDbEntity
  8
0
 62
   250
420
  1644836
370
    25
100
AcDbLine
 10
860.983172
 20
532.885626
 30
0.0
 11
866.983176
 21
538.88563
 31
0.0
  0
LINE
  5
CD
330
75
100
AcDbEntity
  8
0
 62
   250
420
  1644836
370
    25
100
AcDbLine
 10
762.9831
 20
440.542408
 30
0.0
 11
768.983104
 21
446.542412
 31
0.0
  0
LINE
  5
CE
330
75
100
AcDbEntity
  8
0
 62
   250
420
  1644836
370
    25
100
AcDbLine
 10
860.983176
 20
538.542484
 30
0.0
 11
866.98318
 21
544.542488
 31
0.0
  0
LINE
  5
CF
330
75
100
AcDbEntity
  8
0
 62
   250
420
  1644836
370
    25
100
AcDbLine
 10
762.983104
 20
446.199266
 30
0.0
 11
768.983108
 21
452.19927
 31
0.0
  0
LINE
  5
D0
330
75
100
AcDbEntity
  8
0
 62
   250
420
  1644836
370
    25
100
AcDbLine
 10
860.98318
 20
544.199342
 30
0.0
 11
866.983186
 21
550.199348
 31
0.0
  0
LINE
  5
D1
330
75
100
AcDbEntity
  8
0
 62
   250
420
  1644836
370
    25
100
AcDbLine
 10
762.983108
 20
451.856124
 30
0.0
 11
768.983112
 21
457.856128
 31
0.0
  0
LINE
  5
D2
330
75
100
AcDbEntity
  8
0
 62
   250
420
  1644836
370
    25
100
AcDbLine
 10
860.983184
 20
549.8562
 30
0.0
 11
866.98319
 21
555.856206
 31
0.0
  0
LINE
  5
D3
330
75
100
AcDbEntity
  8
0
 62
   250
420
  1644836
370
    25
100
AcDbLine
 10
762.983112
 20
457.512982
 30
0.0
 11
768.983116
 21
463.512986
 31
0.0
  0
LINE
  5
D4
330
75
100
AcDbEntity
  8
0
 62
   250
420
  1644836
370
    25
100
AcDbLine
 10
860.983188
 20
555.51306
 30
0.0
 11
866.983194
 21
561.513064
 31
0.0
  0
LINE
  5
D5
330
75
100
AcDbEntity
  8
0
 62
   250
420
  1644836
370
    25
100
AcDbLine
 10
762.983116
 20
463.16984
 30
0.0
 11
768.98312
 21
469.169844
 31
0.0
  0
LINE
  5
D6
330
75
100
AcDbEntity
  8
0
 62
   250
420
  1644836
370
    25
100
AcDbLine
 10
860.983192
 20
561.169918
 30
0.0
 11
866.983198
 21
567.169922
 31
0.0
  0
LINE
  5
D7
330
75
100
AcDbEntity
  8
0
 62
   250
420
  1644836
370
    25
100
AcDbLine
 10
762.98312
 20
468.826698
 30
0.0
 11
768.983124
 21
474.826702
 31
0.0
  0
LINE
  5
D8
330
75
100
AcDbEntity
  8
0
 62
   250
420
  1644836
370
    25
100
AcDbLine
 10
860.983198
 20
566.826776
 30
0.0
 11
866.983202
 21
572.826782
 31
0.0
  0
LINE
  5
D9
330
75
100
AcDbEntity
  8
0
 62
   250
420
  1644836
370
    25
100
AcDbLine
 10
762.983122
 20
474.483556
 30
0.0
 11
768.983126
 21
480.48356
 31
0.0
  0
LINE
  5
DA
330
75
100
AcDbEntity
  8
0
 62
   250
420
  1644836
370
    25
100
AcDbLine
 10
860.983202
 20
572.483634
 30
0.0
 11
871.395994
 21
582.896426
 31
0.0
  0
LINE
  5
DB
330
75
100
AcDbEntity
  8
0
 62
   250
420
  1644836
370
    25
100
AcDbLine
 10
762.983126
 20
480.140414
 30
0.0
 11
768.98313
 21
486.140418
 31
0.0
  0
LINE
  5
DC
330
75
100
AcDbEntity
  8
0
 62
   250
420
  1644836
370
    25
100
AcDbLine
 10
860.983206
 20
578.140494
 30
0.0
 11
871.982758
 21
589.140046
 31
0.0
  0
LINE
  5
DD
330
75
100
AcDbEntity
  8
0
 62
   250
420
  1644836
370
    25
100
AcDbLine
 10
762.98313
 20
485.797272
 30
0.0
 11
768.983134
 21
491.797276
 31
0.0
  0
LINE
  5
DE
330
75
100
AcDbEntity
  8
0
 62
   250
420
  1644836
370
    25
100
AcDbLine
 10
863.983212
 20
586.797354
 30
0.0
 11
871.982758
 21
594.7969
 31
0.0
  0
LINE
  5
DF
330
75
100
AcDbEntity
  8
0
 62
   250
420
  1644836
370
    25
100
AcDbLine
 10
762.983134
 20
491.45413
 30
0.0
 11
768.983138
 21
497.454134
 31
0.0
  0
LINE
  5
E0
330
75
100
AcDbEntity
  8
0
 62
   250
420
  1644836
370
    25
100
AcDbLine
 10
863.983216
 20
592.454212
 30
0.0
 11
871.982758
 21
600.453754
 31
0.0
  0
LINE
  5
E1
330
75
100
AcDbEntity
  8
0
 62
   250
420
  1644836
370
    25
100
AcDbLine
 10
762.983138
 20
497.110988
 30
0.0
 11
768.983142
 21
503.110992
 31
0.0
  0
LINE
  5
E2
330
75
100
AcDbEntity
  8
0
 62
   250
420
  1644836
370
    25
100
AcDbLine
 10
863.98322
 20
598.11107
 30
0.0
 11
871.982758
 21
606.11061
 31
0.0
  0
LINE
  5
E3
330
75
100
AcDbEntity
  8
0
 62
   250
420
  1644836
370
    25
100
AcDbLine
 10
762.983142
 20
502.767846
 30
0.0
 11
768.983146
 21
508.76785
 31
0.0
  0
LINE
  5
E4
330
75
100
AcDbEntity
  8
0
 62
   250
420
  1644836
370
    25
100
AcDbLine
 10
863.983224
 20
603.767928
 30
0.0
 11
878.982758
 21
618.767464
 31
0.0
  0
LINE
  5
E5
330
75
100
AcDbEntity
  8
0
 62
   250
420
  1644836
370
    25
100
AcDbLine
 10
762.983146
 20
508.424704
 30
0.0
 11
768.983148
 21
514.424708
 31
0.0
  0
LINE
  5
E6
330
75
100
AcDbEntity
  8
0
 62
   250
420
  1644836
370
    25
100
AcDbLine
 10
863.983226
 20
609.424786
 30
0.0
 11
878.16993
 21
623.611488
 31
0.0
  0
LINE
  5
E7
330
75
100
AcDbEntity
  8
0
 62
   250
420
  1644836
370
    25
100
AcDbLine
 10
762.983148
 20
514.081562
 30
0.0
 11
768.983152
 21
520.081566
 31
0.0
  0
LINE
  5
E8
330
75
100
AcDbEntity
  8
0
 62
   250
420
  1644836
370
    25
100
AcDbLine
 10
863.98323
 20
615.081644
 30
0.0
 11
872.513076
 21
623.611488
 31
0.0
  0
LINE
  5
E9
330
75
100
AcDbEntity
  8
0
 62
   250
420
  1644836
370
    25
100
AcDbLine
 10
762.983152
 20
519.73842
 30
0.0
 11
768.983156
 21
525.738424
 31
0.0
  0
LINE
  5
EA
330
75
100
AcDbEntity
  8
0
 62
   250
420
  1644836
370
    25
100
AcDbLine
 10
762.983156
 20
525.395278
 30
0.0
 11
768.98316
 21
531.395282
 31
0.0
  0
LINE
  5
EB
330
75
100
AcDbEntity
  8
0
 62
   250
420
  1644836
370
    25
100
AcDbLine
 10
762.98316
 20
531.052136
 30
0.0
 11
767.483162
 21
535.552138
 31
0.0
  0
LINE
  5
EC
330
75
100
AcDbEntity
  8
0
 62
   250
420
  1644836
370
    25
100
AcDbLine
 10
762.983164
 20
536.708994
 30
0.0
 11
763.886006
 21
537.611836
 31
0.0
  0
LINE
  5
ED
330
75
100
AcDbEntity
  8
0
 62
   250
420
  1644836
370
    25
100
AcDbLine
 10
764.483164
 20
538.208994
 30
0.0
 11
767.483166
 21
541.208996
 31
0.0
  0
LINE
  5
EE
330
75
100
AcDbEntity
  8
0
 62
   250
420
  1644836
370
    25
100
AcDbLine
 10
764.483168
 20
543.865852
 30
0.0
 11
767.48317
 21
546.865854
 31
0.0
  0
LINE
  5
EF
330
75
100
AcDbEntity
  8
0
 62
   250
420
  1644836
370
    25
100
AcDbLine
 10
764.483172
 20
549.52271
 30
0.0
 11
767.483174
 21
552.522712
 31
0.0
  0
ENDBLK
  5
77
330
75
100
AcDbEntity
  8
0
100
AcDbBlockEnd
  0
BLOCK
  5
F1
330
F0
100
AcDbEntity
  8
0
100
AcDbBlockBegin
  2
_X4
 70
     0
 10
0.0
 20
0.0
 30
0.0
  3
_X4
  1

  0
LINE
  5
F3
330
F0
100
AcDbEntity
  8
0
 62
   250
420
  1644836
370
    25
100
AcDbLine
 10
661.488084
 20
305.106266
 30
0.0
 11
662.982504
 21
306.600686
 31
0.0
  0
LINE
  5
F4
330
F0
100
AcDbEntity
  8
0
 62
   250
420
  1644836
370
    25
100
AcDbLine
 10
602.659776
 20
251.934814
 30
0.0
 11
602.982758
 21
252.257796
 31
0.0
  0
LINE
  5
F5
330
F0
100
AcDbEntity
  8
0
 62
   250
420
  1644836
370
    25
100
AcDbLine
 10
658.659654
 20
307.93469
 30
0.0
 11
662.9825
 21
312.257538
 31
0.0
  0
LINE
  5
F6
330
F0
100
AcDbEntity
  8
0
 62
   250
420
  1644836
370
    25
100
AcDbLine
 10
599.831348
 20
254.763238
 30
0.0
 11
602.982758
 21
257.91465
 31
0.0
  0
LINE
  5
F7
330
F0
100
AcDbEntity
  8
0
 62
   250
420
  1644836
370
    25
100
AcDbLine
 10
656.982502
 20
311.914392
 30
0.0
 11
662.982498
 21
317.914388
 31
0.0
  0
LINE
  5
F8
330
F0
100
AcDbEntity
  8
0
 62
   250
420
  1644836
370
    25
100
AcDbLine
 10
597.002918
 20
257.591664
 30
0.0
 11
602.982758
 21
263.571504
 31
0.0
  0
LINE
  5
F9
330
F0
100
AcDbEntity
  8
0
 62
   250
420
  1644836
370
    25
100
AcDbLine
 10
656.982498
 20
317.571242
 30
0.0
 11
662.982494
 21
323.571238
 31
0.0
  0
LINE
  5
FA
330
F0
100
AcDbEntity
  8
0
 62
   250
420
  1644836
370
    25
100
AcDbLine
 10
596.982758
 20
263.228358
 30
0.0
 11
602.982758
 21
269.228358
 31
0.0
  0
LINE
  5
FB
330
F0
100
AcDbEntity
  8
0
 62
   250
420
  1644836
370
    25
100
AcDbLine
 10
656.982494
 20
323.228094
 30
0.0
 11
662.98249
 21
329.22809
 31
0.0
  0
LINE
  5
FC
330
F0
100
AcDbEntity
  8
0
 62
   250
420
  1644836
370
    25
100
AcDbLine
 10
596.982758
 20
268.885212
 30
0.0
 11
602.982758
 21
274.885212
 31
0.0
  0
LINE
  5
FD
330
F0
100
AcDbEntity
  8
0
 62
   250
420
  1644836
370
    25
100
AcDbLine
 10
656.98249
 20
328.884944
 30
0.0
 11
662.982486
 21
334.88494
 31
0.0
  0
LINE
  5
FE
330
F0
100
AcDbEntity
  8
0
 62
   250
420
  1644836
370
    25
100
AcDbLine
 10
596.982758
 20
274.542066
 30
0.0
 11
602.982758
 21
280.542066
 31
0.0
  0
LINE
  5
FF
330
F0
100
AcDbEntity
  8
0
 62
   250
420
  1644836
370
    25
100
AcDbLine
 10
656.982486
 20
334.541794
 30
0.0
 11
662.982482
 21
340.54179
 31
0.0
  0
LINE
  5
100
330
F0
100
AcDbEntity
  8
0
 62
   250
420
  1644836
370
    25
100
AcDbLine
 10
596.982758
 20
280.19892
 30
0.0
 11
602.982758
 21
286.19892
 31
0.0
  0
LINE
  5
101
330
F0
100
AcDbEntity
  8
0
 62
   250
420
  1644836
370
    25
100
AcDbLine
 10
656.982482
 20
340.198644
 30
0.0
 11
662.982478
 21
346.19864
 31
0.0
  0
LINE
  5
102
330
F0
100
AcDbEntity
  8
0
 62
   250
420
  1644836
370
    25
100
AcDbLine
 10
596.982758
 20
285.855776
 30
0.0
 11
602.982758
 21
291.855776
 31
0.0
  0
LINE
  5
103
330
F0
100
AcDbEntity
  8
0
 62
   250
420
  1644836
370
    25
100
AcDbLine
 10
656.982478
 20
345.855496
 30
0.0
 11
662.982476
 21
351.855492
 31
0.0
  0
LINE
  5
104
330
F0
100
AcDbEntity
  8
0
 62
   250
420
  1644836
370
    25
100
AcDbLine
 10
596.982758
 20
291.51263
 30
0.0
 11
602.982758
 21
297.51263
 31
0.0
  0
LINE
  5
105
330
F0
100
AcDbEntity
  8
0
 62
   250
420
  1644836
370
    25
100
AcDbLine
 10
656.982476
 20
351.512346
 30
0.0
 11
662.982472
 21
357.512342
 31
0.0
  0
LINE
  5
106
330
F0
100
AcDbEntity
  8
0
 62
   250
420
  1644836
370
    25
100
AcDbLine
 10
596.982758
 20
297.169484
 30
0.0
 11
602.982758
 21
303.169484
 31
0.0
  0
LINE
  5
107
330
F0
100
AcDbEntity
  8
0
 62
   250
420
  1644836
370
    25
100
AcDbLine
 10
656.982472
 20
357.169196
 30
0.0
 11
662.982468
 21
363.169192
 31
0.0
  0
LINE
  5
108
330
F0
100
AcDbEntity
  8
0
 62
   250
420
  1644836
370
    25
100
AcDbLine
 10
596.982758
 20
302.826338
 30
0.0
 11
602.982758
 21
308.826338
 31
0.0
  0
LINE
  5
109
330
F0
100
AcDbEntity
  8
0
 62
   250
420
  1644836
370
    25
100
AcDbLine
 10
656.982468
 20
362.826046
 30
0.0
 11
662.982464
 21
368.826042
 31
0.0
  0
LINE
  5
10A
330
F0
100
AcDbEntity
  8
0
 62
   250
420
  1644836
370
    25
100
AcDbLine
 10
596.982758
 20
308.483192
 30
0.0
 11
602.982758
 21
314.483192
 31
0.0
  0
LINE
  5
10B
330
F0
100
AcDbEntity
  8
0
 62
   250
420
  1644836
370
    25
100
AcDbLine
 10
656.982464
 20
368.482898
 30
0.0
 11
662.98246
 21
374.482894
 31
0.0
  0
LINE
  5
10C
330
F0
100
AcDbEntity
  8
0
 62
   250
420
  1644836
370
    25
100
AcDbLine
 10
596.982758
 20
314.140046
 30
0.0
 11
602.982758
 21
320.140046
 31
0.0
  0
LINE
  5
10D
330
F0
100
AcDbEntity
  8
0
 62
   250
420
  1644836
370
    25
100
AcDbLine
 10
656.98246
 20
374.139748
 30
0.0
 11
662.982456
 21
380.139744
 31
0.0
  0
LINE
  5
10E
330
F0
100
AcDbEntity
  8
0
 62
   250
420
  1644836
370
    25
100
AcDbLine
 10
596.982758
 20
319.7969
 30
0.0
 11
602.982758
 21
325.7969
 31
0.0
  0
LINE
  5
10F
330
F0
100
AcDbEntity
  8
0
 62
   250
420
  1644836
370
    25
100
AcDbLine
 10
656.982456
 20
379.796598
 30
0.0
 11
662.982452
 21
385.796594
 31
0.0
  0
LINE
  5
110
330
F0
100
AcDbEntity
  8
0
 62
   250
420
  1644836
370
    25
100
AcDbLine
 10
596.982758
 20
325.453754
 30
0.0
 11
602.982758
 21
331.453754
 31
0.0
  0
LINE
  5
111
330
F0
100
AcDbEntity
  8
0
 62
   250
420
  1644836
370
    25
100
AcDbLine
 10
656.982454
 20
385.45345
 30
0.0
 11
662.98245
 21
391.453446
 31
0.0
  0
LINE
  5
112
330
F0
100
AcDbEntity
  8
0
 62
   250
420
  1644836
370
    25
100
AcDbLine
 10
596.982758
 20
331.11061
 30
0.0
 11
602.982758
 21
337.11061
 31
0.0
  0
LINE
  5
113
330
F0
100
AcDbEntity
  8
0
 62
   250
420
  1644836
370
    25
100
AcDbLine
 10
656.98245
 20
391.1103
 30
0.0
 11
662.982446
 21
397.110296
 31
0.0
  0
LINE
  5
114
330
F0
100
AcDbEntity
  8
0
 62
   250
420
  1644836
370
    25
100
AcDbLine
 10
596.982758
 20
336.767464
 30
0.0
 11
602.982758
 21
342.767464
 31
0.0
  0
LINE
  5
115
330
F0
100
AcDbEntity
  8
0
 62
   250
420
  1644836
370
    25
100
AcDbLine
 10
656.982446
 20
396.76715
 30
0.0
 11
662.982442
 21
402.767146
 31
0.0
  0
LINE
  5
116
330
F0
100
AcDbEntity
  8
0
 62
   250
420
  1644836
370
    25
100
AcDbLine
 10
596.982758
 20
342.424318
 30
0.0
 11
602.982758
 21
348.424318
 31
0.0
  0
LINE
  5
117
330
F0
100
AcDbEntity
  8
0
 62
   250
420
  1644836
370
    25
100
AcDbLine
 10
656.982442
 20
402.424
 30
0.0
 11
661.777226
 21
407.218784
 31
0.0
  0
LINE
  5
118
330
F0
100
AcDbEntity
  8
0
 62
   250
420
  1644836
370
    25
100
AcDbLine
 10
596.982758
 20
348.081172
 30
0.0
 11
602.982758
 21
354.081172
 31
0.0
  0
LINE
  5
119
330
F0
100
AcDbEntity
  8
0
 62
   250
420
  1644836
370
    25
100
AcDbLine
 10
652.513424
 20
403.611838
 30
0.0
 11
658.354454
 21
409.452866
 31
0.0
  0
LINE
  5
11A
330
F0
100
AcDbEntity
  8
0
 62
   250
420
  1644836
370
    25
100
AcDbLine
 10
596.982758
 20
353.738026
 30
0.0
 11
602.982758
 21
359.738026
 31
0.0
  0
LINE
  5
11B
330
F0
100
AcDbEntity
  8
0
 62
   250
420
  1644836
370
    25
100
AcDbLine
 10
646.856566
 20
403.611834
 30
0.0
 11
653.781642
 21
410.536908
 31
0.0
  0
LINE
  5
11C
330
F0
100
AcDbEntity
  8
0
 62
   250
420
  1644836
370
    25
100
AcDbLine
 10
596.982758
 20
359.39488
 30
0.0
 11
602.982758
 21
365.39488
 31
0.0
  0
LINE
  5
11D
330
F0
100
AcDbEntity
  8
0
 62
   250
420
  1644836
370
    25
100
AcDbLine
 10
641.199708
 20
403.61183
 30
0.0
 11
651.293344
 21
413.705466
 31
0.0
  0
LINE
  5
11E
330
F0
100
AcDbEntity
  8
0
 62
   250
420
  1644836
370
    25
100
AcDbLine
 10
596.982758
 20
365.051734
 30
0.0
 11
602.982758
 21
371.051734
 31
0.0
  0
LINE
  5
11F
330
F0
100
AcDbEntity
  8
0
 62
   250
420
  1644836
370
    25
100
AcDbLine
 10
635.54285
 20
403.611826
 30
0.0
 11
641.542854
 21
409.61183
 31
0.0
  0
LINE
  5
120
330
F0
100
AcDbEntity
  8
0
 62
   250
420
  1644836
370
    25
100
AcDbLine
 10
644.982436
 20
413.05141
 30
0.0
 11
650.982432
 21
419.051406
 31
0.0
  0
LINE
  5
121
330
F0
100
AcDbEntity
  8
0
 62
   250
420
  1644836
370
    25
100
AcDbLine
 10
596.982758
 20
370.708588
 30
0.0
 11
602.982758
 21
376.708588
 31
0.0
  0
LINE
  5
122
330
F0
100
AcDbEntity
  8
0
 62
   250
420
  1644836
370
    25
100
AcDbLine
 10
629.885992
 20
403.611822
 30
0.0
 11
635.885998
 21
409.611828
 31
0.0
  0
LINE
  5
123
330
F0
100
AcDbEntity
  8
0
 62
   250
420
  1644836
370
    25
100
AcDbLine
 10
644.982432
 20
418.708262
 30
0.0
 11
650.982428
 21
424.708258
 31
0.0
  0
LINE
  5
124
330
F0
100
AcDbEntity
  8
0
 62
   250
420
  1644836
370
    25
100
AcDbLine
 10
596.982758
 20
376.365444
 30
0.0
 11
602.982758
 21
382.365444
 31
0.0
  0
LINE
  5
125
330
F0
100
AcDbEntity
  8
0
 62
   250
420
  1644836
370
    25
100
AcDbLine
 10
624.229134
 20
403.61182
 30
0.0
 11
630.22914
 21
409.611824
 31
0.0
  0
LINE
  5
126
330
F0
100
AcDbEntity
  8
0
 62
   250
420
  1644836
370
    25
100
AcDbLine
 10
644.982428
 20
424.365112
 30
0.0
 11
650.982424
 21
430.365108
 31
0.0
  0
LINE
  5
127
330
F0
100
AcDbEntity
  8
0
 62
   250
420
  1644836
370
    25
100
AcDbLine
 10
596.982758
 20
382.022298
 30
0.0
 11
602.982758
 21
388.022298
 31
0.0
  0
LINE
  5
128
330
F0
100
AcDbEntity
  8
0
 62
   250
420
  1644836
370
    25
100
AcDbLine
 10
618.572276
 20
403.611816
 30
0.0
 11
624.572282
 21
409.61182
 31
0.0
  0
LINE
  5
129
330
F0
100
AcDbEntity
  8
0
 62
   250
420
  1644836
370
    25
100
AcDbLine
 10
644.982424
 20
430.021962
 30
0.0
 11
650.98242
 21
436.021958
 31
0.0
  0
LINE
  5
12A
330
F0
100
AcDbEntity
  8
0
 62
   250
420
  1644836
370
    25
100
AcDbLine
 10
596.982758
 20
387.679152
 30
0.0
 11
602.982758
 21
393.679152
 31
0.0
  0
LINE
  5
12B
330
F0
100
AcDbEntity
  8
0
 62
   250
420
  1644836
370
    25
100
AcDbLine
 10
612.915418
 20
403.611812
 30
0.0
 11
618.915424
 21
409.611818
 31
0.0
  0
LINE
  5
12C
330
F0
100
AcDbEntity
  8
0
 62
   250
420
  1644836
370
    25
100
AcDbLine
 10
644.98242
 20
435.678812
 30
0.0
 11
650.982416
 21
441.67881
 31
0.0
  0
LINE
  5
12D
330
F0
100
AcDbEntity
  8
0
 62
   250
420
  1644836
370
    25
100
AcDbLine
 10
596.982758
 20
393.336006
 30
0.0
 11
602.982758
 21
399.336006
 31
0.0
  0
LINE
  5
12E
330
F0
100
AcDbEntity
  8
0
 62
   250
420
  1644836
370
    25
100
AcDbLine
 10
607.25856
 20
403.611808
 30
0.0
 11
613.258566
 21
409.611814
 31
0.0
  0
LINE
  5
12F
330
F0
100
AcDbEntity
  8
0
 62
   250
420
  1644836
370
    25
100
AcDbLine
 10
644.982416
 20
441.335664
 30
0.0
 11
650.982412
 21
447.33566
 31
0.0
  0
LINE
  5
130
330
F0
100
AcDbEntity
  8
0
 62
   250
420
  1644836
370
    25
100
AcDbLine
 10
596.982758
 20
398.99286
 30
0.0
 11
607.60171
 21
409.61181
 31
0.0
  0
LINE
  5
131
330
F0
100
AcDbEntity
  8
0
 62
   250
420
  1644836
370
    25
100
AcDbLine
 10
644.982412
 20
446.992514
 30
0.0
 11
650.982408
 21
452.99251
 31
0.0
  0
LINE
  5
132
330
F0
100
AcDbEntity
  8
0
 62
   250
420
  1644836
370
    25
100
AcDbLine
 10
595.944846
 20
403.6118
 30
0.0
 11
601.944852
 21
409.611808
 31
0.0
  0
LINE
  5
133
330
F0
100
AcDbEntity
  8
0
 62
   250
420
  1644836
370
    25
100
AcDbLine
 10
644.98241
 20
452.649364
 30
0.0
 11
650.982406
 21
458.64936
 31
0.0
  0
LINE
  5
134
330
F0
100
AcDbEntity
  8
0
 62
   250
420
  1644836
370
    25
100
AcDbLine
 10
590.287988
 20
403.611798
 30
0.0
 11
596.287994
 21
409.611804
 31
0.0
  0
LINE
  5
135
330
F0
100
AcDbEntity
  8
0
 62
   250
420
  1644836
370
    25
100
AcDbLine
 10
644.982406
 20
458.306216
 30
0.0
 11
650.982402
 21
464.306212
 31
0.0
  0
LINE
  5
136
330
F0
100
AcDbEntity
  8
0
 62
   250
420
  1644836
370
    25
100
AcDbLine
 10
584.63113
 20
403.611794
 30
0.0
 11
590.631136
 21
409.6118
 31
0.0
  0
LINE
  5
137
330
F0
100
AcDbEntity
  8
0
 62
   250
420
  1644836
370
    25
100
AcDbLine
 10
644.982402
 20
463.963066
 30
0.0
 11
650.982398
 21
469.963062
 31
0.0
  0
LINE
  5
138
330
F0
100
AcDbEntity
  8
0
 62
   250
420
  1644836
370
    25
100
AcDbLine
 10
578.974274
 20
403.611792
 30
0.0
 11
584.974278
 21
409.611798
 31
0.0
  0
LINE
  5
139
330
F0
100
AcDbEntity
  8
0
 62
   250
420
  1644836
370
    25
100
AcDbLine
 10
644.982398
 20
469.619916
 30
0.0
 11
650.982394
 21
475.619912
 31
0.0
  0
LINE
  5
13A
330
F0
100
AcDbEntity
  8
0
 62
   250
420
  1644836
370
    25
100
AcDbLine
 10
573.317418
 20
403.61179
 30
0.0
 11
579.317422
 21
409.611794
 31
0.0
  0
LINE
  5
13B
330
F0
100
AcDbEntity
  8
0
 62
   250
420
  1644836
370
    25
100
AcDbLine
 10
644.982394
 20
475.276766
 30
0.0
 11
650.98239
 21
481.276762
 31
0.0
  0
LINE
  5
13C
330
F0
100
AcDbEntity
  8
0
 62
   250
420
  1644836
370
    25
100
AcDbLine
 10
567.864018
 20
403.815244
 30
0.0
 11
573.660564
 21
409.61179
 31
0.0
  0
LINE
  5
13D
330
F0
100
AcDbEntity
  8
0
 62
   250
420
  1644836
370
    25
100
AcDbLine
 10
644.98239
 20
480.933618
 30
0.0
 11
650.982386
 21
486.933614
 31
0.0
  0
LINE
  5
13E
330
F0
100
AcDbEntity
  8
0
 62
   250
420
  1644836
370
    25
100
AcDbLine
 10
563.274976
 20
404.883058
 30
0.0
 11
568.217354
 21
409.825436
 31
0.0
  0
LINE
  5
13F
330
F0
100
AcDbEntity
  8
0
 62
   250
420
  1644836
370
    25
100
AcDbLine
 10
644.982386
 20
486.590468
 30
0.0
 11
650.982384
 21
492.590464
 31
0.0
  0
LINE
  5
140
330
F0
100
AcDbEntity
  8
0
 62
   250
420
  1644836
370
    25
100
AcDbLine
 10
559.352776
 20
406.617712
 30
0.0
 11
563.829232
 21
411.094168
 31
0.0
  0
LINE
  5
141
330
F0
100
AcDbEntity
  8
0
 62
   250
420
  1644836
370
    25
100
AcDbLine
 10
644.982384
 20
492.247318
 30
0.0
 11
650.98238
 21
498.247314
 31
0.0
  0
LINE
  5
142
330
F0
100
AcDbEntity
  8
0
 62
   250
420
  1644836
370
    25
100
AcDbLine
 10
555.967204
 20
408.888992
 30
0.0
 11
560.244014
 21
413.165802
 31
0.0
  0
LINE
  5
143
330
F0
100
AcDbEntity
  8
0
 62
   250
420
  1644836
370
    25
100
AcDbLine
 10
644.98238
 20
497.90417
 30
0.0
 11
650.982376
 21
503.904166
 31
0.0
  0
LINE
  5
144
330
F0
100
AcDbEntity
  8
0
 62
   250
420
  1644836
370
    25
100
AcDbLine
 10
553.065234
 20
411.643876
 30
0.0
 11
557.317234
 21
415.895878
 31
0.0
  0
LINE
  5
145
330
F0
100
AcDbEntity
  8
0
 62
   250
420
  1644836
370
    25
100
AcDbLine
 10
644.982376
 20
503.56102
 30
0.0
 11
650.982372
 21
509.561016
 31
0.0
  0
LINE
  5
146
330
F0
100
AcDbEntity
  8
0
 62
   250
420
  1644836
370
    25
100
AcDbLine
 10
550.640414
 20
414.875912
 30
0.0
 11
555.03289
 21
419.268388
 31
0.0
  0
LINE
  5
147
330
F0
100
AcDbEntity
  8
0
 62
   250
420
  1644836
370
    25
100
AcDbLine
 10
644.982372
 20
509.21787
 30
0.0
 11
650.982368
 21
515.217866
 31
0.0
  0
LINE
  5
148
330
F0
100
AcDbEntity
  8
0
 62
   250
420
  1644836
370
    25
100
AcDbLine
 10
548.729686
 20
418.622038
 30
0.0
 11
553.487078
 21
423.379432
 31
0.0
  0
LINE
  5
149
330
F0
100
AcDbEntity
  8
0
 62
   250
420
  1644836
370
    25
100
AcDbLine
 10
644.982368
 20
514.87472
 30
0.0
 11
650.982364
 21
520.874716
 31
0.0
  0
LINE
  5
14A
330
F0
100
AcDbEntity
  8
0
 62
   250
420
  1644836
370
    25
100
AcDbLine
 10
547.43315
 20
422.982356
 30
0.0
 11
552.982424
 21
428.531632
 31
0.0
  0
LINE
  5
14B
330
F0
100
AcDbEntity
  8
0
 62
   250
420
  1644836
370
    25
100
AcDbLine
 10
644.982364
 20
520.531572
 30
0.0
 11
650.98236
 21
526.531568
 31
0.0
  0
LINE
  5
14C
330
F0
100
AcDbEntity
  8
0
 62
   250
420
  1644836
370
    25
100
AcDbLine
 10
546.982426
 20
428.188486
 30
0.0
 11
552.98242
 21
434.188482
 31
0.0
  0
LINE
  5
14D
330
F0
100
AcDbEntity
  8
0
 62
   250
420
  1644836
370
    25
100
AcDbLine
 10
644.982362
 20
526.188422
 30
0.0
 11
650.982358
 21
532.188418
 31
0.0
  0
LINE
  5
14E
330
F0
100
AcDbEntity
  8
0
 62
   250
420
  1644836
370
    25
100
AcDbLine
 10
546.98242
 20
433.845336
 30
0.0
 11
552.982416
 21
439.845332
 31
0.0
  0
LINE
  5
14F
330
F0
100
AcDbEntity
  8
0
 62
   250
420
  1644836
370
    25
100
AcDbLine
 10
644.982358
 20
531.845272
 30
0.0
 11
650.748922
 21
537.611836
 31
0.0
  0
LINE
  5
150
330
F0
100
AcDbEntity
  8
0
 62
   250
420
  1644836
370
    25
100
AcDbLine
 10
546.982416
 20
439.502186
 30
0.0
 11
552.982412
 21
445.502182
 31
0.0
  0
LINE
  5
151
330
F0
100
AcDbEntity
  8
0
 62
   250
420
  1644836
370
    25
100
AcDbLine
 10
646.482352
 20
539.002122
 30
0.0
 11
649.48235
 21
542.00212
 31
0.0
  0
LINE
  5
152
330
F0
100
AcDbEntity
  8
0
 62
   250
420
  1644836
370
    25
100
AcDbLine
 10
546.982412
 20
445.159036
 30
0.0
 11
552.982408
 21
451.159032
 31
0.0
  0
LINE
  5
153
330
F0
100
AcDbEntity
  8
0
 62
   250
420
  1644836
370
    25
100
AcDbLine
 10
646.482348
 20
544.658972
 30
0.0
 11
649.482348
 21
547.65897
 31
0.0
  0
LINE
  5
154
330
F0
100
AcDbEntity
  8
0
 62
   250
420
  1644836
370
    25
100
AcDbLine
 10
546.982408
 20
450.815886
 30
0.0
 11
552.982404
 21
456.815882
 31
0.0
  0
LINE
  5
155
330
F0
100
AcDbEntity
  8
0
 62
   250
420
  1644836
370
    25
100
AcDbLine
 10
646.482346
 20
550.315824
 30
0.0
 11
649.743622
 21
553.5771
 31
0.0
  0
LINE
  5
156
330
F0
100
AcDbEntity
  8
0
 62
   250
420
  1644836
370
    25
100
AcDbLine
 10
546.982404
 20
456.472736
 30
0.0
 11
552.9824
 21
462.472732
 31
0.0
  0
LINE
  5
157
330
F0
100
AcDbEntity
  8
0
 62
   250
420
  1644836
370
    25
100
AcDbLine
 10
546.9824
 20
462.129586
 30
0.0
 11
552.982394
 21
468.129582
 31
0.0
  0
LINE
  5
158
330
F0
100
AcDbEntity
  8
0
 62
   250
420
  1644836
370
    25
100
AcDbLine
 10
546.982396
 20
467.786436
 30
0.0
 11
552.98239
 21
473.786432
 31
0.0
  0
LINE
  5
159
330
F0
100
AcDbEntity
  8
0
 62
   250
420
  1644836
370
    25
100
AcDbLine
 10
546.98239
 20
473.443286
 30
0.0
 11
552.982386
 21
479.443282
 31
0.0
  0
LINE
  5
15A
330
F0
100
AcDbEntity
  8
0
 62
   250
420
  1644836
370
    25
100
AcDbLine
 10
546.982386
 20
479.100136
 30
0.0
 11
552.982382
 21
485.100132
 31
0.0
  0
LINE
  5
15B
330
F0
100
AcDbEntity
  8
0
 62
   250
420
  1644836
370
    25
100
AcDbLine
 10
546.982382
 20
484.756986
 30
0.0
 11
552.982378
 21
490.756982
 31
0.0
  0
LINE
  5
15C
330
F0
100
AcDbEntity
  8
0
 62
   250
420
  1644836
370
    25
100
AcDbLine
 10
546.982378
 20
490.413836
 30
0.0
 11
552.982374
 21
496.413832
 31
0.0
  0
LINE
  5
15D
330
F0
100
AcDbEntity
  8
0
 62
   250
420
  1644836
370
    25
100
AcDbLine
 10
546.982374
 20
496.070686
 30
0.0
 11
552.98237
 21
502.070682
 31
0.0
  0
LINE
  5
15E
330
F0
100
AcDbEntity
  8
0
 62
   250
420
  1644836
370
    25
100
AcDbLine
 10
546.98237
 20
501.727536
 30
0.0
 11
552.982366
 21
507.727532
 31
0.0
  0
LINE
  5
15F
330
F0
100
AcDbEntity
  8
0
 62
   250
420
  1644836
370
    25
100
AcDbLine
 10
546.982366
 20
507.384386
 30
0.0
 11
552.98236
 21
513.384382
 31
0.0
  0
LINE
  5
160
330
F0
100
AcDbEntity
  8
0
 62
   250
420
  1644836
370
    25
100
AcDbLine
 10
546.98236
 20
513.041236
 30
0.0
 11
552.982356
 21
519.041232
 31
0.0
  0
LINE
  5
161
330
F0
100
AcDbEntity
  8
0
 62
   250
420
  1644836
370
    25
100
AcDbLine
 10
546.982356
 20
518.698086
 30
0.0
 11
552.982352
 21
524.698082
 31
0.0
  0
LINE
  5
162
330
F0
100
AcDbEntity
  8
0
 62
   250
420
  1644836
370
    25
100
AcDbLine
 10
546.982352
 20
524.354936
 30
0.0
 11
552.982348
 21
530.354932
 31
0.0
  0
LINE
  5
163
330
F0
100
AcDbEntity
  8
0
 62
   250
420
  1644836
370
    25
100
AcDbLine
 10
546.982348
 20
530.011786
 30
0.0
 11
552.982344
 21
536.011782
 31
0.0
  0
LINE
  5
164
330
F0
100
AcDbEntity
  8
0
 62
   250
420
  1644836
370
    25
100
AcDbLine
 10
546.982344
 20
535.668636
 30
0.0
 11
552.98234
 21
541.66863
 31
0.0
  0
LINE
  5
165
330
F0
100
AcDbEntity
  8
0
 62
   250
420
  1644836
370
    25
100
AcDbLine
 10
546.98234
 20
541.325486
 30
0.0
 11
552.982336
 21
547.32548
 31
0.0
  0
LINE
  5
166
330
F0
100
AcDbEntity
  8
0
 62
   250
420
  1644836
370
    25
100
AcDbLine
 10
546.982334
 20
546.982334
 30
0.0
 11
552.98233
 21
552.98233
 31
0.0
  0
LINE
  5
167
330
F0
100
AcDbEntity
  8
0
 62
   250
420
  1644836
370
    25
100
AcDbLine
 10
546.98233
 20
552.639184
 30
0.0
 11
552.982326
 21
558.63918
 31
0.0
  0
LINE
  5
168
330
F0
100
AcDbEntity
  8
0
 62
   250
420
  1644836
370
    25
100
AcDbLine
 10
546.982326
 20
558.296034
 30
0.0
 11
552.982322
 21
564.29603
 31
0.0
  0
LINE
  5
169
330
F0
100
AcDbEntity
  8
0
 62
   250
420
  1644836
370
    25
100
AcDbLine
 10
546.982322
 20
563.952884
 30
0.0
 11
552.982318
 21
569.95288
 31
0.0
  0
LINE
  5
16A
330
F0
100
AcDbEntity
  8
0
 62
   250
420
  1644836
370
    25
100
AcDbLine
 10
546.982318
 20
569.609734
 30
0.0
 11
552.982314
 21
575.60973
 31
0.0
  0
LINE
  5
16B
330
F0
100
AcDbEntity
  8
0
 62
   250
420
  1644836
370
    25
100
AcDbLine
 10
546.982314
 20
575.266584
 30
0.0
 11
552.98231
 21
581.26658
 31
0.0
  0
LINE
  5
16C
330
F0
100
AcDbEntity
  8
0
 62
   250
420
  1644836
370
    25
100
AcDbLine
 10
545.087628
 20
579.028754
 30
0.0
 11
549.982308
 21
583.923434
 31
0.0
  0
LINE
  5
16D
330
F0
100
AcDbEntity
  8
0
 62
   250
420
  1644836
370
    25
100
AcDbLine
 10
542.774282
 20
582.372262
 30
0.0
 11
549.982304
 21
589.580284
 31
0.0
  0
LINE
  5
16E
330
F0
100
AcDbEntity
  8
0
 62
   250
420
  1644836
370
    25
100
AcDbLine
 10
541.982758
 20
587.237592
 30
0.0
 11
549.9823
 21
595.237134
 31
0.0
  0
LINE
  5
16F
330
F0
100
AcDbEntity
  8
0
 62
   250
420
  1644836
370
    25
100
AcDbLine
 10
541.982758
 20
592.894448
 30
0.0
 11
549.982296
 21
600.893984
 31
0.0
  0
LINE
  5
170
330
F0
100
AcDbEntity
  8
0
 62
   250
420
  1644836
370
    25
100
AcDbLine
 10
541.982758
 20
598.551302
 30
0.0
 11
549.982292
 21
606.550836
 31
0.0
  0
LINE
  5
171
330
F0
100
AcDbEntity
  8
0
 62
   250
420
  1644836
370
    25
100
AcDbLine
 10
541.982758
 20
604.208156
 30
0.0
 11
549.98229
 21
612.207686
 31
0.0
  0
LINE
  5
172
330
F0
100
AcDbEntity
  8
0
 62
   250
420
  1644836
370
    25
100
AcDbLine
 10
541.6627
 20
609.54495
 30
0.0
 11
549.881074
 21
617.763324
 31
0.0
  0
LINE
  5
173
330
F0
100
AcDbEntity
  8
0
 62
   250
420
  1644836
370
    25
100
AcDbLine
 10
539.161288
 20
612.700394
 30
0.0
 11
547.618492
 21
621.157598
 31
0.0
  0
LINE
  5
174
330
F0
100
AcDbEntity
  8
0
 62
   250
420
  1644836
370
    25
100
AcDbLine
 10
534.982758
 20
614.178718
 30
0.0
 11
544.41553
 21
623.611488
 31
0.0
  0
LINE
  5
175
330
F0
100
AcDbEntity
  8
0
 62
   250
420
  1644836
370
    25
100
AcDbLine
 10
534.982758
 20
619.835572
 30
0.0
 11
538.758676
 21
623.611488
 31
0.0
  0
ENDBLK
  5
F2
330
F0
100
AcDbEntity
  8
0
100
AcDbBlockEnd
  0
BLOCK
  5
177
330
176
100
AcDbEntity
  8
0
100
AcDbBlockBegin
  2
_X8
 70
     0
 10
0.0
 20
0.0
 30
0.0
  3
_X8
  1

  0
LINE
  5
179
330
176
100
AcDbEntity
  8
0
 62
   250
420
  1644836
370
    25
100
AcDbLine
 10
852.910374
 20
589.587634
 30
0.0
 11
858.404842
 21
584.093174
 31
0.0
  0
LINE
  5
17A
330
176
100
AcDbEntity
  8
0
 62
   250
420
  1644836
370
    25
100
AcDbLine
 10
852.673892
 20
598.309392
 30
0.0
 11
862.982776
 21
588.00052
 31
0.0
  0
LINE
  5
17B
330
176
100
AcDbEntity
  8
0
 62
   250
420
  1644836
370
    25
100
AcDbLine
 10
851.905932
 20
607.562628
 30
0.0
 11
852.64627
 21
606.82229
 31
0.0
  0
LINE
  5
17C
330
176
100
AcDbEntity
  8
0
 62
   250
420
  1644836
370
    25
100
AcDbLine
 10
854.400562
 20
605.068
 30
0.0
 11
863.095562
 21
596.37301
 31
0.0
  0
LINE
  5
17D
330
176
100
AcDbEntity
  8
0
 62
   250
420
  1644836
370
    25
100
AcDbLine
 10
853.297288
 20
614.656548
 30
0.0
 11
863.55561
 21
604.39824
 31
0.0
  0
LINE
  5
17E
330
176
100
AcDbEntity
  8
0
 62
   250
420
  1644836
370
    25
100
AcDbLine
 10
856.34594
 20
620.093176
 30
0.0
 11
863.902366
 21
612.53676
 31
0.0
  0
ENDBLK
  5
178
330
176
100
AcDbEntity
  8
0
100
AcDbBlockEnd
  0
BLOCK
  5
180
330
17F
100
AcDbEntity
  8
0
100
AcDbBlockBegin
  2
_X10
 70
     0
 10
0.0
 20
0.0
 30
0.0
  3
_X10
  1

  0
LINE
  5
182
330
17F
100
AcDbEntity
  8
0
 62
   250
420
  1644836
370
    25
100
AcDbLine
 10
550.982742
 20
586.044938
 30
0.0
 11
552.934512
 21
584.093172
 31
0.0
  0
LINE
  5
183
330
17F
100
AcDbEntity
  8
0
 62
   250
420
  1644836
370
    25
100
AcDbLine
 10
550.982736
 20
594.53022
 30
0.0
 11
559.108556
 21
586.404412
 31
0.0
  0
LINE
  5
184
330
17F
100
AcDbEntity
  8
0
 62
   250
420
  1644836
370
    25
100
AcDbLine
 10
550.255606
 20
603.742626
 30
0.0
 11
560.022846
 21
593.975398
 31
0.0
  0
LINE
  5
185
330
17F
100
AcDbEntity
  8
0
 62
   250
420
  1644836
370
    25
100
AcDbLine
 10
550.051842
 20
612.431666
 30
0.0
 11
560.302518
 21
602.181002
 31
0.0
  0
LINE
  5
186
330
17F
100
AcDbEntity
  8
0
 62
   250
420
  1644836
370
    25
100
AcDbLine
 10
552.369024
 20
618.599762
 30
0.0
 11
561.731036
 21
609.237762
 31
0.0
  0
LINE
  5
187
330
17F
100
AcDbEntity
  8
0
 62
   250
420
  1644836
370
    25
100
AcDbLine
 10
559.360894
 20
620.093176
 30
0.0
 11
559.66073
 21
619.79334
 31
0.0
  0
ENDBLK
  5
181
330
17F
100
AcDbEntity
  8
0
100
AcDbBlockEnd
  0
BLOCK
  5
189
330
188
100
AcDbEntity
  8
0
100
AcDbBlockBegin
  2
_X11
 70
     0
 10
0.0
 20
0.0
 30
0.0
  3
_X11
  1

  0
LINE
  5
18B
330
188
100
AcDbEntity
  8
0
 62
   250
420
  1644836
370
    25
100
AcDbLine
 10
585.212212
 20
687.03559
 30
0.0
 11
588.411222
 21
690.234598
 31
0.0
  0
LINE
  5
18C
330
188
100
AcDbEntity
  8
0
 62
   250
420
  1644836
370
    25
100
AcDbLine
 10
580.073678
 20
687.553908
 30
0.0
 11
582.997294
 21
690.477524
 31
0.0
  0
LINE
  5
18D
330
188
100
AcDbEntity
  8
0
 62
   250
420
  1644836
370
    25
100
AcDbLine
 10
576.122742
 20
689.259826
 30
0.0
 11
578.615106
 21
691.75219
 31
0.0
  0
LINE
  5
18E
330
188
100
AcDbEntity
  8
0
 62
   250
420
  1644836
370
    25
100
AcDbLine
 10
573.012078
 20
691.806016
 30
0.0
 11
575.41814
 21
694.21208
 31
0.0
  0
LINE
  5
18F
330
188
100
AcDbEntity
  8
0
 62
   250
420
  1644836
370
    25
100
AcDbLine
 10
570.671086
 20
695.12188
 30
0.0
 11
573.230862
 21
697.681656
 31
0.0
  0
LINE
  5
190
330
188
100
AcDbEntity
  8
0
 62
   250
420
  1644836
370
    25
100
AcDbLine
 10
569.227788
 20
699.335436
 30
0.0
 11
572.382758
 21
702.490406
 31
0.0
  0
LINE
  5
191
330
188
100
AcDbEntity
  8
0
 62
   250
420
  1644836
370
    25
100
AcDbLine
 10
568.982758
 20
704.74726
 30
0.0
 11
572.382758
 21
708.14726
 31
0.0
  0
LINE
  5
192
330
188
100
AcDbEntity
  8
0
 62
   250
420
  1644836
370
    25
100
AcDbLine
 10
568.982758
 20
710.404116
 30
0.0
 11
572.382758
 21
713.804116
 31
0.0
  0
LINE
  5
193
330
188
100
AcDbEntity
  8
0
 62
   250
420
  1644836
370
    25
100
AcDbLine
 10
568.982758
 20
716.06097
 30
0.0
 11
572.382758
 21
719.46097
 31
0.0
  0
LINE
  5
194
330
188
100
AcDbEntity
  8
0
 62
   250
420
  1644836
370
    25
100
AcDbLine
 10
568.982758
 20
721.717824
 30
0.0
 11
572.382758
 21
725.117824
 31
0.0
  0
LINE
  5
195
330
188
100
AcDbEntity
  8
0
 62
   250
420
  1644836
370
    25
100
AcDbLine
 10
568.982758
 20
727.374678
 30
0.0
 11
572.382758
 21
730.774678
 31
0.0
  0
LINE
  5
196
330
188
100
AcDbEntity
  8
0
 62
   250
420
  1644836
370
    25
100
AcDbLine
 10
568.982758
 20
733.031532
 30
0.0
 11
572.382758
 21
736.431532
 31
0.0
  0
LINE
  5
197
330
188
100
AcDbEntity
  8
0
 62
   250
420
  1644836
370
    25
100
AcDbLine
 10
568.982758
 20
738.688386
 30
0.0
 11
572.382758
 21
742.088386
 31
0.0
  0
LINE
  5
198
330
188
100
AcDbEntity
  8
0
 62
   250
420
  1644836
370
    25
100
AcDbLine
 10
568.982758
 20
744.34524
 30
0.0
 11
569.673108
 21
745.03559
 31
0.0
  0
ENDBLK
  5
18A
330
188
100
AcDbEntity
  8
0
100
AcDbBlockEnd
  0
BLOCK
  5
19A
330
199
100
AcDbEntity
  8
0
100
AcDbBlockBegin
  2
_X12
 70
     0
 10
0.0
 20
0.0
 30
0.0
  3
_X12
  1

  0
LINE
  5
19C
330
199
100
AcDbEntity
  8
0
 62
   250
420
  1644836
370
    25
100
AcDbLine
 10
607.83963
 20
687.03559
 30
0.0
 11
610.547592
 21
689.743552
 31
0.0
  0
LINE
  5
19D
330
199
100
AcDbEntity
  8
0
 62
   250
420
  1644836
370
    25
100
AcDbLine
 10
603.761358
 20
688.614172
 30
0.0
 11
605.582776
 21
690.43559
 31
0.0
  0
ENDBLK
  5
19B
330
199
100
AcDbEntity
  8
0
100
AcDbBlockEnd
  0
BLOCK
  5
19F
330
19E
100
AcDbEntity
  8
0
100
AcDbBlockBegin
  2
_X13
 70
     0
 10
0.0
 20
0.0
 30
0.0
  3
_X13
  1

  0
LINE
  5
1A1
330
19E
100
AcDbEntity
  8
0
 62
   250
420
  1644836
370
    25
100
AcDbLine
 10
636.1239
 20
687.03559
 30
0.0
 11
636.511902
 21
687.42359
 31
0.0
  0
LINE
  5
1A2
330
19E
100
AcDbEntity
  8
0
 62
   250
420
  1644836
370
    25
100
AcDbLine
 10
630.467046
 20
687.03559
 30
0.0
 11
633.867046
 21
690.43559
 31
0.0
  0
ENDBLK
  5
1A0
330
19E
100
AcDbEntity
  8
0
100
AcDbBlockEnd
  0
BLOCK
  5
1A4
330
1A3
100
AcDbEntity
  8
0
100
AcDbBlockBegin
  2
_X14
 70
     0
 10
0.0
 20
0.0
 30
0.0
  3
_X14
  1

  0
LINE
  5
1A6
330
1A3
100
AcDbEntity
  8
0
 62
   250
420
  1644836
370
    25
100
AcDbLine
 10
664.408172
 20
687.03559
 30
0.0
 11
668.982758
 21
691.610176
 31
0.0
  0
LINE
  5
1A7
330
1A3
100
AcDbEntity
  8
0
 62
   250
420
  1644836
370
    25
100
AcDbLine
 10
658.751318
 20
687.03559
 30
0.0
 11
668.982758
 21
697.26703
 31
0.0
  0
LINE
  5
1A8
330
1A3
100
AcDbEntity
  8
0
 62
   250
420
  1644836
370
    25
100
AcDbLine
 10
653.094464
 20
687.03559
 30
0.0
 11
656.494464
 21
690.43559
 31
0.0
  0
LINE
  5
1A9
330
1A3
100
AcDbEntity
  8
0
 62
   250
420
  1644836
370
    25
100
AcDbLine
 10
662.982758
 20
696.923884
 30
0.0
 11
668.982758
 21
702.923884
 31
0.0
  0
LINE
  5
1AA
330
1A3
100
AcDbEntity
  8
0
 62
   250
420
  1644836
370
    25
100
AcDbLine
 10
662.982758
 20
702.580738
 30
0.0
 11
668.982758
 21
708.580738
 31
0.0
  0
LINE
  5
1AB
330
1A3
100
AcDbEntity
  8
0
 62
   250
420
  1644836
370
    25
100
AcDbLine
 10
662.982758
 20
708.237592
 30
0.0
 11
668.982758
 21
714.237592
 31
0.0
  0
LINE
  5
1AC
330
1A3
100
AcDbEntity
  8
0
 62
   250
420
  1644836
370
    25
100
AcDbLine
 10
662.982758
 20
713.894448
 30
0.0
 11
668.982758
 21
719.894448
 31
0.0
  0
LINE
  5
1AD
330
1A3
100
AcDbEntity
  8
0
 62
   250
420
  1644836
370
    25
100
AcDbLine
 10
662.982758
 20
719.551302
 30
0.0
 11
668.982758
 21
725.551302
 31
0.0
  0
LINE
  5
1AE
330
1A3
100
AcDbEntity
  8
0
 62
   250
420
  1644836
370
    25
100
AcDbLine
 10
662.982758
 20
725.208156
 30
0.0
 11
666.810192
 21
729.03559
 31
0.0
  0
ENDBLK
  5
1A5
330
1A3
100
AcDbEntity
  8
0
100
AcDbBlockEnd
  0
BLOCK
  5
1B0
330
1AF
100
AcDbEntity
  8
0
100
AcDbBlockBegin
  2
_X15
 70
     0
 10
0.0
 20
0.0
 30
0.0
  3
_X15
  1

  0
LINE
  5
1B2
330
1AF
100
AcDbEntity
  8
0
 62
   250
420
  1644836
370
    25
100
AcDbLine
 10
834.965614
 20
687.887404
 30
0.0
 11
844.130944
 21
697.052734
 31
0.0
  0
LINE
  5
1B3
330
1AF
100
AcDbEntity
  8
0
 62
   250
420
  1644836
370
    25
100
AcDbLine
 10
828.456946
 20
687.03559
 30
0.0
 11
832.041008
 21
690.619652
 31
0.0
  0
LINE
  5
1B4
330
1AF
100
AcDbEntity
  8
0
 62
   250
420
  1644836
370
    25
100
AcDbLine
 10
841.398696
 20
699.97734
 30
0.0
 11
844.982758
 21
703.561402
 31
0.0
  0
LINE
  5
1B5
330
1AF
100
AcDbEntity
  8
0
 62
   250
420
  1644836
370
    25
100
AcDbLine
 10
825.554296
 20
689.789794
 30
0.0
 11
826.200092
 21
690.43559
 31
0.0
  0
LINE
  5
1B6
330
1AF
100
AcDbEntity
  8
0
 62
   250
420
  1644836
370
    25
100
AcDbLine
 10
841.582758
 20
705.818256
 30
0.0
 11
844.982758
 21
709.218256
 31
0.0
  0
LINE
  5
1B7
330
1AF
100
AcDbEntity
  8
0
 62
   250
420
  1644836
370
    25
100
AcDbLine
 10
841.582758
 20
711.475112
 30
0.0
 11
844.982758
 21
714.875112
 31
0.0
  0
LINE
  5
1B8
330
1AF
100
AcDbEntity
  8
0
 62
   250
420
  1644836
370
    25
100
AcDbLine
 10
841.582758
 20
717.131966
 30
0.0
 11
844.982758
 21
720.531966
 31
0.0
  0
LINE
  5
1B9
330
1AF
100
AcDbEntity
  8
0
 62
   250
420
  1644836
370
    25
100
AcDbLine
 10
841.582758
 20
722.78882
 30
0.0
 11
844.982758
 21
726.18882
 31
0.0
  0
LINE
  5
1BA
330
1AF
100
AcDbEntity
  8
0
 62
   250
420
  1644836
370
    25
100
AcDbLine
 10
841.582758
 20
728.445674
 30
0.0
 11
844.982758
 21
731.845674
 31
0.0
  0
LINE
  5
1BB
330
1AF
100
AcDbEntity
  8
0
 62
   250
420
  1644836
370
    25
100
AcDbLine
 10
841.582758
 20
734.102528
 30
0.0
 11
844.982758
 21
737.502528
 31
0.0
  0
LINE
  5
1BC
330
1AF
100
AcDbEntity
  8
0
 62
   250
420
  1644836
370
    25
100
AcDbLine
 10
841.582758
 20
739.759382
 30
0.0
 11
844.982758
 21
743.159382
 31
0.0
  0
ENDBLK
  5
1B1
330
1AF
100
AcDbEntity
  8
0
100
AcDbBlockEnd
  0
BLOCK
  5
1BE
330
1BD
100
AcDbEntity
  8
0
100
AcDbBlockBegin
  2
_X16
 70
     0
 10
0.0
 20
0.0
 30
0.0
  3
_X16
  1

  0
LINE
  5
1C0
330
1BD
100
AcDbEntity
  8
0
 62
   250
420
  1644836
370
    25
100
AcDbLine
 10
805.829528
 20
687.03559
 30
0.0
 11
809.229528
 21
690.43559
 31
0.0
  0
LINE
  5
1C1
330
1BD
100
AcDbEntity
  8
0
 62
   250
420
  1644836
370
    25
100
AcDbLine
 10
803.417924
 20
690.28084
 30
0.0
 11
803.572674
 21
690.43559
 31
0.0
  0
ENDBLK
  5
1BF
330
1BD
100
AcDbEntity
  8
0
100
AcDbBlockEnd
  0
BLOCK
  5
1C3
330
1C2
100
AcDbEntity
  8
0
100
AcDbBlockBegin
  2
_X17
 70
     0
 10
0.0
 20
0.0
 30
0.0
  3
_X17
  1

  0
LINE
  5
1C5
330
1C2
100
AcDbEntity
  8
0
 62
   250
420
  1644836
370
    25
100
AcDbLine
 10
783.202112
 20
687.03559
 30
0.0
 11
785.719188
 21
689.552664
 31
0.0
  0
LINE
  5
1C6
330
1C2
100
AcDbEntity
  8
0
 62
   250
420
  1644836
370
    25
100
AcDbLine
 10
777.545258
 20
687.03559
 30
0.0
 11
780.945258
 21
690.43559
 31
0.0
  0
ENDBLK
  5
1C4
330
1C2
100
AcDbEntity
  8
0
100
AcDbBlockEnd
  0
BLOCK
  5
1C8
330
1C7
100
AcDbEntity
  8
0
100
AcDbBlockBegin
  2
_X18
 70
     0
 10
0.0
 20
0.0
 30
0.0
  3
_X18
  1

  0
LINE
  5
1CA
330
1C7
100
AcDbEntity
  8
0
 62
   250
420
  1644836
370
    25
100
AcDbLine
 10
760.574694
 20
687.03559
 30
0.0
 11
761.982758
 21
688.443654
 31
0.0
  0
LINE
  5
1CB
330
1C7
100
AcDbEntity
  8
0
 62
   250
420
  1644836
370
    25
100
AcDbLine
 10
754.91784
 20
687.03559
 30
0.0
 11
758.31784
 21
690.43559
 31
0.0
  0
LINE
  5
1CC
330
1C7
100
AcDbEntity
  8
0
 62
   250
420
  1644836
370
    25
100
AcDbLine
 10
749.260986
 20
687.03559
 30
0.0
 11
753.66304
 21
691.437642
 31
0.0
  0
LINE
  5
1CD
330
1C7
100
AcDbEntity
  8
0
 62
   250
420
  1644836
370
    25
100
AcDbLine
 10
744.982758
 20
688.414216
 30
0.0
 11
751.246096
 21
694.677552
 31
0.0
  0
LINE
  5
1CE
330
1C7
100
AcDbEntity
  8
0
 62
   250
420
  1644836
370
    25
100
AcDbLine
 10
744.982758
 20
694.07107
 30
0.0
 11
750.982758
 21
700.07107
 31
0.0
  0
LINE
  5
1CF
330
1C7
100
AcDbEntity
  8
0
 62
   250
420
  1644836
370
    25
100
AcDbLine
 10
744.982758
 20
699.727924
 30
0.0
 11
750.982758
 21
705.727924
 31
0.0
  0
LINE
  5
1D0
330
1C7
100
AcDbEntity
  8
0
 62
   250
420
  1644836
370
    25
100
AcDbLine
 10
744.982758
 20
705.38478
 30
0.0
 11
750.982758
 21
711.38478
 31
0.0
  0
LINE
  5
1D1
330
1C7
100
AcDbEntity
  8
0
 62
   250
420
  1644836
370
    25
100
AcDbLine
 10
744.982758
 20
711.041634
 30
0.0
 11
750.982758
 21
717.041634
 31
0.0
  0
LINE
  5
1D2
330
1C7
100
AcDbEntity
  8
0
 62
   250
420
  1644836
370
    25
100
AcDbLine
 10
744.982758
 20
716.698488
 30
0.0
 11
750.982758
 21
722.698488
 31
0.0
  0
LINE
  5
1D3
330
1C7
100
AcDbEntity
  8
0
 62
   250
420
  1644836
370
    25
100
AcDbLine
 10
744.982758
 20
722.355342
 30
0.0
 11
750.982758
 21
728.355342
 31
0.0
  0
LINE
  5
1D4
330
1C7
100
AcDbEntity
  8
0
 62
   250
420
  1644836
370
    25
100
AcDbLine
 10
744.982758
 20
728.012196
 30
0.0
 11
746.006152
 21
729.03559
 31
0.0
  0
ENDBLK
  5
1C9
330
1C7
100
AcDbEntity
  8
0
100
AcDbBlockEnd
  0
BLOCK
  5
1D6
330
1D5
100
AcDbEntity
  8
0
100
AcDbBlockBegin
  2
_X20
 70
     0
 10
0.0
 20
0.0
 30
0.0
  3
_X20
  1

  0
LINE
  5
1D8
330
1D5
100
AcDbEntity
  8
0
 62
   250
420
  1644836
370
    25
100
AcDbLine
 10
585.615804
 20
746.835266
 30
0.0
 11
586.982418
 21
748.20188
 31
0.0
  0
LINE
  5
1D9
330
1D5
100
AcDbEntity
  8
0
 62
   250
420
  1644836
370
    25
100
AcDbLine
 10
595.615818
 20
756.835266
 30
0.0
 11
595.982418
 21
757.201868
 31
0.0
  0
LINE
  5
1DA
330
1D5
100
AcDbEntity
  8
0
 62
   250
420
  1644836
370
    25
100
AcDbLine
 10
577.130516
 20
746.835266
 30
0.0
 11
586.982418
 21
756.687154
 31
0.0
  0
LINE
  5
1DB
330
1D5
100
AcDbEntity
  8
0
 62
   250
420
  1644836
370
    25
100
AcDbLine
 10
587.13053
 20
756.835266
 30
0.0
 11
595.982418
 21
765.687142
 31
0.0
  0
LINE
  5
1DC
330
1D5
100
AcDbEntity
  8
0
 62
   250
420
  1644836
370
    25
100
AcDbLine
 10
572.982418
 20
751.17245
 30
0.0
 11
587.645254
 21
765.835266
 31
0.0
  0
LINE
  5
1DD
330
1D5
100
AcDbEntity
  8
0
 62
   250
420
  1644836
370
    25
100
AcDbLine
 10
572.982418
 20
759.657724
 30
0.0
 11
579.159968
 21
765.835266
 31
0.0
  0
LINE
  5
1DE
330
1D5
100
AcDbEntity
  8
0
 62
   250
420
  1644836
370
    25
100
AcDbLine
 10
568.982418
 20
764.143006
 30
0.0
 11
570.67468
 21
765.835266
 31
0.0
  0
ENDBLK
  5
1D7
330
1D5
100
AcDbEntity
  8
0
100
AcDbBlockEnd
  0
BLOCK
  5
1E0
330
1DF
100
AcDbEntity
  8
0
100
AcDbBlockBegin
  2
_X21
 70
     0
 10
0.0
 20
0.0
 30
0.0
  3
_X21
  1

  0
LINE
  5
1E2
330
1DF
100
AcDbEntity
  8
0
 62
   250
420
  1644836
370
    25
100
AcDbLine
 10
703.90749
 20
737.847658
 30
0.0
 11
706.982758
 21
740.922924
 31
0.0
  0
LINE
  5
1E3
330
1DF
100
AcDbEntity
  8
0
 62
   250
420
  1644836
370
    25
100
AcDbLine
 10
695.577494
 20
738.00295
 30
0.0
 11
706.982758
 21
749.4082
 31
0.0
  0
LINE
  5
1E4
330
1DF
100
AcDbEntity
  8
0
 62
   250
420
  1644836
370
    25
100
AcDbLine
 10
690.982758
 20
741.893496
 30
0.0
 11
706.982758
 21
757.893476
 31
0.0
  0
LINE
  5
1E5
330
1DF
100
AcDbEntity
  8
0
 62
   250
420
  1644836
370
    25
100
AcDbLine
 10
690.982758
 20
750.378772
 30
0.0
 11
706.439274
 21
765.835266
 31
0.0
  0
LINE
  5
1E6
330
1DF
100
AcDbEntity
  8
0
 62
   250
420
  1644836
370
    25
100
AcDbLine
 10
690.982758
 20
758.864048
 30
0.0
 11
697.953986
 21
765.835266
 31
0.0
  0
ENDBLK
  5
1E1
330
1DF
100
AcDbEntity
  8
0
100
AcDbBlockEnd
  0
BLOCK
  5
1E8
330
1E7
100
AcDbEntity
  8
0
100
AcDbBlockBegin
  2
_X22
 70
     0
 10
0.0
 20
0.0
 30
0.0
  3
_X22
  1

  0
LINE
  5
1EA
330
1E7
100
AcDbEntity
  8
0
 62
   250
420
  1644836
370
    25
100
AcDbLine
 10
721.123364
 20
738.092958
 30
0.0
 11
722.983244
 21
739.952836
 31
0.0
  0
LINE
  5
1EB
330
1E7
100
AcDbEntity
  8
0
 62
   250
420
  1644836
370
    25
100
AcDbLine
 10
712.418646
 20
737.873528
 30
0.0
 11
722.983248
 21
748.438116
 31
0.0
  0
LINE
  5
1EC
330
1E7
100
AcDbEntity
  8
0
 62
   250
420
  1644836
370
    25
100
AcDbLine
 10
706.982758
 20
740.922924
 30
0.0
 11
722.983254
 21
756.923398
 31
0.0
  0
LINE
  5
1ED
330
1E7
100
AcDbEntity
  8
0
 62
   250
420
  1644836
370
    25
100
AcDbLine
 10
706.982758
 20
749.4082
 30
0.0
 11
722.98326
 21
765.40868
 31
0.0
  0
LINE
  5
1EE
330
1E7
100
AcDbEntity
  8
0
 62
   250
420
  1644836
370
    25
100
AcDbLine
 10
706.982758
 20
757.893476
 30
0.0
 11
714.924776
 21
765.835482
 31
0.0
  0
ENDBLK
  5
1E9
330
1E7
100
AcDbEntity
  8
0
100
AcDbBlockEnd
  0
BLOCK
  5
1F0
330
1EF
100
AcDbEntity
  8
0
100
AcDbBlockBegin
  2
_X23
 70
     0
 10
0.0
 20
0.0
 30
0.0
  3
_X23
  1

  0
LINE
  5
1F2
330
1EF
100
AcDbEntity
  8
0
 62
   250
420
  1644836
370
    25
100
AcDbLine
 10
840.17474
 20
746.835592
 30
0.0
 11
840.983588
 21
747.644438
 31
0.0
  0
LINE
  5
1F3
330
1EF
100
AcDbEntity
  8
0
 62
   250
420
  1644836
370
    25
100
AcDbLine
 10
831.689458
 20
746.835598
 30
0.0
 11
840.983594
 21
756.12972
 31
0.0
  0
LINE
  5
1F4
330
1EF
100
AcDbEntity
  8
0
 62
   250
420
  1644836
370
    25
100
AcDbLine
 10
844.689468
 20
759.83559
 30
0.0
 11
844.983596
 21
760.129718
 31
0.0
  0
LINE
  5
1F5
330
1EF
100
AcDbEntity
  8
0
 62
   250
420
  1644836
370
    25
100
AcDbLine
 10
826.98359
 20
750.61501
 30
0.0
 11
842.203998
 21
765.835398
 31
0.0
  0
LINE
  5
1F6
330
1EF
100
AcDbEntity
  8
0
 62
   250
420
  1644836
370
    25
100
AcDbLine
 10
824.718902
 20
756.835602
 30
0.0
 11
833.718716
 21
765.835404
 31
0.0
  0
LINE
  5
1F7
330
1EF
100
AcDbEntity
  8
0
 62
   250
420
  1644836
370
    25
100
AcDbLine
 10
817.983596
 20
758.58558
 30
0.0
 11
825.233436
 21
765.83541
 31
0.0
  0
ENDBLK
  5
1F1
330
1EF
100
AcDbEntity
  8
0
100
AcDbBlockEnd
  0
BLOCK
  5
1F9
330
1F8
100
AcDbEntity
  8
0
100
AcDbBlockBegin
  2
_X24
 70
     0
 10
0.0
 20
0.0
 30
0.0
  3
_X24
  1

  0
LINE
  5
1FB
330
1F8
100
AcDbEntity
  8
0
 62
   250
420
  1644836
370
    25
100
AcDbLine
 10
563.208172
 20
585.83559
 30
0.0
 11
567.026506
 21
589.653922
 31
0.0
  0
LINE
  5
1FC
330
1F8
100
AcDbEntity
  8
0
 62
   250
420
  1644836
370
    25
100
AcDbLine
 10
561.982758
 20
590.26703
 30
0.0
 11
567.078334
 21
595.362606
 31
0.0
  0
LINE
  5
1FD
330
1F8
100
AcDbEntity
  8
0
 62
   250
420
  1644836
370
    25
100
AcDbLine
 10
561.982758
 20
595.923884
 30
0.0
 11
567.130164
 21
601.07129
 31
0.0
  0
LINE
  5
1FE
330
1F8
100
AcDbEntity
  8
0
 62
   250
420
  1644836
370
    25
100
AcDbLine
 10
561.982758
 20
601.580738
 30
0.0
 11
567.181994
 21
606.779974
 31
0.0
  0
LINE
  5
1FF
330
1F8
100
AcDbEntity
  8
0
 62
   250
420
  1644836
370
    25
100
AcDbLine
 10
561.982758
 20
607.237592
 30
0.0
 11
567.233824
 21
612.488658
 31
0.0
  0
LINE
  5
200
330
1F8
100
AcDbEntity
  8
0
 62
   250
420
  1644836
370
    25
100
AcDbLine
 10
561.982758
 20
612.894448
 30
0.0
 11
567.285654
 21
618.197342
 31
0.0
  0
LINE
  5
201
330
1F8
100
AcDbEntity
  8
0
 62
   250
420
  1644836
370
    25
100
AcDbLine
 10
561.982758
 20
618.551302
 30
0.0
 11
567.337484
 21
623.906026
 31
0.0
  0
LINE
  5
202
330
1F8
100
AcDbEntity
  8
0
 62
   250
420
  1644836
370
    25
100
AcDbLine
 10
561.982758
 20
624.208156
 30
0.0
 11
567.389314
 21
629.61471
 31
0.0
  0
LINE
  5
203
330
1F8
100
AcDbEntity
  8
0
 62
   250
420
  1644836
370
    25
100
AcDbLine
 10
561.982758
 20
629.86501
 30
0.0
 11
567.441144
 21
635.323394
 31
0.0
  0
LINE
  5
204
330
1F8
100
AcDbEntity
  8
0
 62
   250
420
  1644836
370
    25
100
AcDbLine
 10
561.982758
 20
635.521864
 30
0.0
 11
567.492974
 21
641.032078
 31
0.0
  0
LINE
  5
205
330
1F8
100
AcDbEntity
  8
0
 62
   250
420
  1644836
370
    25
100
AcDbLine
 10
561.982758
 20
641.178718
 30
0.0
 11
567.544804
 21
646.740762
 31
0.0
  0
LINE
  5
206
330
1F8
100
AcDbEntity
  8
0
 62
   250
420
  1644836
370
    25
100
AcDbLine
 10
561.982758
 20
646.835572
 30
0.0
 11
567.596634
 21
652.449446
 31
0.0
  0
LINE
  5
207
330
1F8
100
AcDbEntity
  8
0
 62
   250
420
  1644836
370
    25
100
AcDbLine
 10
561.982758
 20
652.492426
 30
0.0
 11
567.648462
 21
658.15813
 31
0.0
  0
LINE
  5
208
330
1F8
100
AcDbEntity
  8
0
 62
   250
420
  1644836
370
    25
100
AcDbLine
 10
561.982758
 20
658.149282
 30
0.0
 11
567.700292
 21
663.866814
 31
0.0
  0
LINE
  5
209
330
1F8
100
AcDbEntity
  8
0
 62
   250
420
  1644836
370
    25
100
AcDbLine
 10
561.982758
 20
663.806136
 30
0.0
 11
567.752122
 21
669.575498
 31
0.0
  0
LINE
  5
20A
330
1F8
100
AcDbEntity
  8
0
 62
   250
420
  1644836
370
    25
100
AcDbLine
 10
561.982758
 20
669.46299
 30
0.0
 11
567.803952
 21
675.284184
 31
0.0
  0
LINE
  5
20B
330
1F8
100
AcDbEntity
  8
0
 62
   250
420
  1644836
370
    25
100
AcDbLine
 10
561.982758
 20
675.119844
 30
0.0
 11
567.855782
 21
680.992868
 31
0.0
  0
LINE
  5
20C
330
1F8
100
AcDbEntity
  8
0
 62
   250
420
  1644836
370
    25
100
AcDbLine
 10
561.982758
 20
680.776698
 30
0.0
 11
567.907612
 21
686.701552
 31
0.0
  0
LINE
  5
20D
330
1F8
100
AcDbEntity
  8
0
 62
   250
420
  1644836
370
    25
100
AcDbLine
 10
561.982758
 20
686.433552
 30
0.0
 11
567.959442
 21
692.410236
 31
0.0
  0
LINE
  5
20E
330
1F8
100
AcDbEntity
  8
0
 62
   250
420
  1644836
370
    25
100
AcDbLine
 10
561.982758
 20
692.090406
 30
0.0
 11
568.011272
 21
698.11892
 31
0.0
  0
LINE
  5
20F
330
1F8
100
AcDbEntity
  8
0
 62
   250
420
  1644836
370
    25
100
AcDbLine
 10
561.982758
 20
697.74726
 30
0.0
 11
568.063102
 21
703.827604
 31
0.0
  0
LINE
  5
210
330
1F8
100
AcDbEntity
  8
0
 62
   250
420
  1644836
370
    25
100
AcDbLine
 10
561.982758
 20
703.404116
 30
0.0
 11
568.114932
 21
709.536288
 31
0.0
  0
LINE
  5
211
330
1F8
100
AcDbEntity
  8
0
 62
   250
420
  1644836
370
    25
100
AcDbLine
 10
561.982758
 20
709.06097
 30
0.0
 11
568.166762
 21
715.244972
 31
0.0
  0
LINE
  5
212
330
1F8
100
AcDbEntity
  8
0
 62
   250
420
  1644836
370
    25
100
AcDbLine
 10
561.982758
 20
714.717824
 30
0.0
 11
568.21859
 21
720.953656
 31
0.0
  0
LINE
  5
213
330
1F8
100
AcDbEntity
  8
0
 62
   250
420
  1644836
370
    25
100
AcDbLine
 10
561.982758
 20
720.374678
 30
0.0
 11
568.27042
 21
726.66234
 31
0.0
  0
LINE
  5
214
330
1F8
100
AcDbEntity
  8
0
 62
   250
420
  1644836
370
    25
100
AcDbLine
 10
561.982758
 20
726.031532
 30
0.0
 11
568.32225
 21
732.371024
 31
0.0
  0
LINE
  5
215
330
1F8
100
AcDbEntity
  8
0
 62
   250
420
  1644836
370
    25
100
AcDbLine
 10
561.982758
 20
731.688386
 30
0.0
 11
568.37408
 21
738.079708
 31
0.0
  0
LINE
  5
216
330
1F8
100
AcDbEntity
  8
0
 62
   250
420
  1644836
370
    25
100
AcDbLine
 10
561.982758
 20
737.34524
 30
0.0
 11
566.982758
 21
742.34524
 31
0.0
  0
LINE
  5
217
330
1F8
100
AcDbEntity
  8
0
 62
   250
420
  1644836
370
    25
100
AcDbLine
 10
558.982758
 20
740.002094
 30
0.0
 11
566.982758
 21
748.002094
 31
0.0
  0
LINE
  5
218
330
1F8
100
AcDbEntity
  8
0
 62
   250
420
  1644836
370
    25
100
AcDbLine
 10
558.982758
 20
745.65895
 30
0.0
 11
566.982758
 21
753.65895
 31
0.0
  0
LINE
  5
219
330
1F8
100
AcDbEntity
  8
0
 62
   250
420
  1644836
370
    25
100
AcDbLine
 10
558.982758
 20
751.315804
 30
0.0
 11
566.982758
 21
759.315804
 31
0.0
  0
LINE
  5
21A
330
1F8
100
AcDbEntity
  8
0
 62
   250
420
  1644836
370
    25
100
AcDbLine
 10
558.982758
 20
756.972658
 30
0.0
 11
566.982758
 21
764.972658
 31
0.0
  0
LINE
  5
21B
330
1F8
100
AcDbEntity
  8
0
 62
   250
420
  1644836
370
    25
100
AcDbLine
 10
558.982758
 20
762.629512
 30
0.0
 11
562.188836
 21
765.83559
 31
0.0
  0
ENDBLK
  5
1FA
330
1F8
100
AcDbEntity
  8
0
100
AcDbBlockEnd
  0
BLOCK
  5
21D
330
21C
100
AcDbEntity
  8
0
100
AcDbBlockBegin
  2
_X25
 70
     0
 10
0.0
 20
0.0
 30
0.0
  3
_X25
  1

  0
LINE
  5
21F
330
21C
100
AcDbEntity
  8
0
 62
   250
420
  1644836
370
    25
100
AcDbLine
 10
846.965376
 20
586.750082
 30
0.0
 11
851.982758
 21
591.767464
 31
0.0
  0
LINE
  5
220
330
21C
100
AcDbEntity
  8
0
 62
   250
420
  1644836
370
    25
100
AcDbLine
 10
846.91448
 20
592.356038
 30
0.0
 11
851.982758
 21
597.424318
 31
0.0
  0
LINE
  5
221
330
21C
100
AcDbEntity
  8
0
 62
   250
420
  1644836
370
    25
100
AcDbLine
 10
846.863582
 20
597.961996
 30
0.0
 11
851.982758
 21
603.081172
 31
0.0
  0
LINE
  5
222
330
21C
100
AcDbEntity
  8
0
 62
   250
420
  1644836
370
    25
100
AcDbLine
 10
846.812686
 20
603.567952
 30
0.0
 11
851.982758
 21
608.738026
 31
0.0
  0
LINE
  5
223
330
21C
100
AcDbEntity
  8
0
 62
   250
420
  1644836
370
    25
100
AcDbLine
 10
846.761788
 20
609.17391
 30
0.0
 11
851.982758
 21
614.39488
 31
0.0
  0
LINE
  5
224
330
21C
100
AcDbEntity
  8
0
 62
   250
420
  1644836
370
    25
100
AcDbLine
 10
846.710892
 20
614.779866
 30
0.0
 11
851.982758
 21
620.051734
 31
0.0
  0
LINE
  5
225
330
21C
100
AcDbEntity
  8
0
 62
   250
420
  1644836
370
    25
100
AcDbLine
 10
846.659994
 20
620.385824
 30
0.0
 11
851.982758
 21
625.708588
 31
0.0
  0
LINE
  5
226
330
21C
100
AcDbEntity
  8
0
 62
   250
420
  1644836
370
    25
100
AcDbLine
 10
846.609096
 20
625.991782
 30
0.0
 11
851.982758
 21
631.365444
 31
0.0
  0
LINE
  5
227
330
21C
100
AcDbEntity
  8
0
 62
   250
420
  1644836
370
    25
100
AcDbLine
 10
846.5582
 20
631.597738
 30
0.0
 11
851.982758
 21
637.022298
 31
0.0
  0
LINE
  5
228
330
21C
100
AcDbEntity
  8
0
 62
   250
420
  1644836
370
    25
100
AcDbLine
 10
846.507302
 20
637.203696
 30
0.0
 11
851.982758
 21
642.679152
 31
0.0
  0
LINE
  5
229
330
21C
100
AcDbEntity
  8
0
 62
   250
420
  1644836
370
    25
100
AcDbLine
 10
846.456406
 20
642.809652
 30
0.0
 11
851.982758
 21
648.336006
 31
0.0
  0
LINE
  5
22A
330
21C
100
AcDbEntity
  8
0
 62
   250
420
  1644836
370
    25
100
AcDbLine
 10
846.405508
 20
648.41561
 30
0.0
 11
851.982758
 21
653.99286
 31
0.0
  0
LINE
  5
22B
330
21C
100
AcDbEntity
  8
0
 62
   250
420
  1644836
370
    25
100
AcDbLine
 10
846.354612
 20
654.021566
 30
0.0
 11
851.982758
 21
659.649714
 31
0.0
  0
LINE
  5
22C
330
21C
100
AcDbEntity
  8
0
 62
   250
420
  1644836
370
    25
100
AcDbLine
 10
846.303714
 20
659.627524
 30
0.0
 11
851.982758
 21
665.306568
 31
0.0
  0
LINE
  5
22D
330
21C
100
AcDbEntity
  8
0
 62
   250
420
  1644836
370
    25
100
AcDbLine
 10
846.252816
 20
665.23348
 30
0.0
 11
851.982758
 21
670.963422
 31
0.0
  0
LINE
  5
22E
330
21C
100
AcDbEntity
  8
0
 62
   250
420
  1644836
370
    25
100
AcDbLine
 10
846.20192
 20
670.839438
 30
0.0
 11
851.982758
 21
676.620278
 31
0.0
  0
LINE
  5
22F
330
21C
100
AcDbEntity
  8
0
 62
   250
420
  1644836
370
    25
100
AcDbLine
 10
846.151022
 20
676.445396
 30
0.0
 11
851.982758
 21
682.277132
 31
0.0
  0
LINE
  5
230
330
21C
100
AcDbEntity
  8
0
 62
   250
420
  1644836
370
    25
100
AcDbLine
 10
846.100126
 20
682.051352
 30
0.0
 11
851.982758
 21
687.933986
 31
0.0
  0
LINE
  5
231
330
21C
100
AcDbEntity
  8
0
 62
   250
420
  1644836
370
    25
100
AcDbLine
 10
846.049228
 20
687.65731
 30
0.0
 11
851.982758
 21
693.59084
 31
0.0
  0
LINE
  5
232
330
21C
100
AcDbEntity
  8
0
 62
   250
420
  1644836
370
    25
100
AcDbLine
 10
845.998332
 20
693.263266
 30
0.0
 11
851.982758
 21
699.247694
 31
0.0
  0
LINE
  5
233
330
21C
100
AcDbEntity
  8
0
 62
   250
420
  1644836
370
    25
100
AcDbLine
 10
845.947434
 20
698.869224
 30
0.0
 11
851.982758
 21
704.904548
 31
0.0
  0
LINE
  5
234
330
21C
100
AcDbEntity
  8
0
 62
   250
420
  1644836
370
    25
100
AcDbLine
 10
845.896536
 20
704.47518
 30
0.0
 11
851.982758
 21
710.561402
 31
0.0
  0
LINE
  5
235
330
21C
100
AcDbEntity
  8
0
 62
   250
420
  1644836
370
    25
100
AcDbLine
 10
845.84564
 20
710.081138
 30
0.0
 11
851.982758
 21
716.218256
 31
0.0
  0
LINE
  5
236
330
21C
100
AcDbEntity
  8
0
 62
   250
420
  1644836
370
    25
100
AcDbLine
 10
845.794742
 20
715.687094
 30
0.0
 11
851.982758
 21
721.875112
 31
0.0
  0
LINE
  5
237
330
21C
100
AcDbEntity
  8
0
 62
   250
420
  1644836
370
    25
100
AcDbLine
 10
845.743846
 20
721.293052
 30
0.0
 11
851.982758
 21
727.531966
 31
0.0
  0
LINE
  5
238
330
21C
100
AcDbEntity
  8
0
 62
   250
420
  1644836
370
    25
100
AcDbLine
 10
845.692948
 20
726.89901
 30
0.0
 11
851.982758
 21
733.18882
 31
0.0
  0
LINE
  5
239
330
21C
100
AcDbEntity
  8
0
 62
   250
420
  1644836
370
    25
100
AcDbLine
 10
845.642052
 20
732.504966
 30
0.0
 11
854.982758
 21
741.845674
 31
0.0
  0
LINE
  5
23A
330
21C
100
AcDbEntity
  8
0
 62
   250
420
  1644836
370
    25
100
AcDbLine
 10
845.591154
 20
738.110924
 30
0.0
 11
846.51582
 21
739.03559
 31
0.0
  0
LINE
  5
23B
330
21C
100
AcDbEntity
  8
0
 62
   250
420
  1644836
370
    25
100
AcDbLine
 10
846.982758
 20
739.502528
 30
0.0
 11
854.982758
 21
747.502528
 31
0.0
  0
LINE
  5
23C
330
21C
100
AcDbEntity
  8
0
 62
   250
420
  1644836
370
    25
100
AcDbLine
 10
846.982758
 20
745.159382
 30
0.0
 11
854.982758
 21
753.159382
 31
0.0
  0
LINE
  5
23D
330
21C
100
AcDbEntity
  8
0
 62
   250
420
  1644836
370
    25
100
AcDbLine
 10
846.982758
 20
750.816236
 30
0.0
 11
854.982758
 21
758.816236
 31
0.0
  0
LINE
  5
23E
330
21C
100
AcDbEntity
  8
0
 62
   250
420
  1644836
370
    25
100
AcDbLine
 10
846.982758
 20
756.47309
 30
0.0
 11
854.982758
 21
764.47309
 31
0.0
  0
LINE
  5
23F
330
21C
100
AcDbEntity
  8
0
 62
   250
420
  1644836
370
    25
100
AcDbLine
 10
846.982758
 20
762.129946
 30
0.0
 11
850.688402
 21
765.83559
 31
0.0
  0
ENDBLK
  5
21E
330
21C
100
AcDbEntity
  8
0
100
AcDbBlockEnd
  0
BLOCK
  5
3D9
330
3D8
100
AcDbEntity
  8
0
100
AcDbBlockBegin
  2
_NONE
 70
     0
 10
0.0
 20
0.0
 30
0.0
  3
_NONE
  1

  0
ENDBLK
  5
3DA
330
3D8
100
AcDbEntity
  8
0
100
AcDbBlockEnd
  0
BLOCK
  5
3DC
330
3DB
100
AcDbEntity
  8
0
100
AcDbBlockBegin
  2
_D
 70
     0
 10
0.0
 20
0.0
 30
0.0
  3
_D
  1

  0
LINE
  5
3DE
330
3DB
100
AcDbEntity
  8
0
  6
SLD-Durchgehend
 62
   250
420
  1644836
370
    18
100
AcDbLine
 10
311.741379
 20
227.805744
 30
0.0
 11
236.4
 21
227.805744
 31
0.0
  0
LINE
  5
3DF
330
3DB
100
AcDbEntity
  8
0
  6
SLD-Durchgehend
 62
   250
420
  1644836
370
    18
100
AcDbLine
 10
321.741379
 20
277.805744
 30
0.0
 11
236.4
 21
277.805744
 31
0.0
  0
LINE
  5
3E0
330
3DB
100
AcDbEntity
  8
0
  6
SLD-Durchgehend
 62
   250
420
  1644836
370
    18
100
AcDbLine
 10
240.0
 20
199.805744
 30
0.0
 11
240.0
 21
171.805744
 31
0.0
  0
LINE
  5
3E1
330
3DB
100
AcDbEntity
  8
0
  6
SLD-Durchgehend
 62
   250
420
  1644836
370
    18
100
AcDbLine
 10
240.0
 20
305.805744
 30
0.0
 11
240.0
 21
333.805744
 31
0.0
  0
LINE
  5
3E2
330
3DB
100
AcDbEntity
  8
0
  6
SLD-Durchgehend
 62
   250
420
  1644836
370
    18
100
AcDbLine
 10
240.0
 20
227.805744
 30
0.0
 11
240.0
 21
277.805744
 31
0.0
  0
MTEXT
  5
3E4
330
3DB
100
AcDbEntity
  8
0
  6
SLD-Durchgehend
 62
   250
420
  1644836
370
    18
100
AcDbMText
 10
190.9889171834
 20
245.2778866769
 30
0.0
 40
28.0
 41
0.0
 46
0.0
 71
     1
 72
     1
  1
50
  7
SLDTEXTSTYLE1
 11
6.123233995736766E-17
 21
1.0
 31
0.0
 73
     1
 44
1.0
  0
SOLID
  5
3E5
330
3DB
100
AcDbEntity
  8
0
  6
SLD-Durchgehend
 62
   250
420
  1644836
370
    18
100
AcDbTrace
 10
244.666667
 20
199.805744
 30
0.0
 11
235.333333
 21
199.805744
 31
0.0
 12
240.0
 22
227.805744
 32
0.0
 13
240.0
 23
227.805744
 33
0.0
  0
SOLID
  5
3E6
330
3DB
100
AcDbEntity
  8
0
  6
SLD-Durchgehend
 62
   250
420
  1644836
370
    18
100
AcDbTrace
 10
235.333333
 20
305.805744
 30
0.0
 11
244.666667
 21
305.805744
 31
0.0
 12
240.0
 22
277.805744
 32
0.0
 13
240.0
 23
277.805744
 33
0.0
  0
ENDBLK
  5
3DD
330
3DB
100
AcDbEntity
  8
0
100
AcDbBlockEnd
  0
BLOCK
  5
3EA
330
3E9
100
AcDbEntity
  8
0
100
AcDbBlockBegin
  2
_D_1
 70
     0
 10
0.0
 20
0.0
 30
0.0
  3
_D_1
  1

  0
SOLID
  5
3EC
330
3E9
100
AcDbEntity
  8
0
  6
SLD-Durchgehend
 62
   250
420
  1644836
370
    18
100
AcDbTrace
 10
479.924115274
 20
382.417795
 30
0.0
 11
478.484115274
 21
375.813795
 31
0.0
 12
481.364115274
 22
375.813795
 32
0.0
 13
481.364115274
 23
375.813795
 33
0.0
  0
SOLID
  5
3ED
330
3E9
100
AcDbEntity
  8
0
  6
SLD-Durchgehend
 62
   250
420
  1644836
370
    18
100
AcDbTrace
 10
479.924115274
 20
311.305744
 30
0.0
 11
481.364115274
 21
317.909744
 31
0.0
 12
478.484115274
 22
317.909744
 32
0.0
 13
478.484115274
 23
317.909744
 33
0.0
  0
LINE
  5
3EE
330
3E9
100
AcDbEntity
  8
0
  6
SLD-Durchgehend
 62
   250
420
  1644836
370
    18
100
AcDbLine
 10
429.491379
 20
382.417795
 30
0.0
 11
481.924115274
 21
382.417795
 31
0.0
  0
LINE
  5
3EF
330
3E9
100
AcDbEntity
  8
0
  6
SLD-Durchgehend
 62
   250
420
  1644836
370
    18
100
AcDbLine
 10
441.491379
 20
311.305744
 30
0.0
 11
481.924115274
 21
311.305744
 31
0.0
  0
LINE
  5
3F0
330
3E9
100
AcDbEntity
  8
0
  6
SLD-Durchgehend
 62
   250
420
  1644836
370
    18
100
AcDbLine
 10
479.924115274
 20
382.417795
 30
0.0
 11
479.924115274
 21
311.305744
 31
0.0
  0
LINE
  5
3F1
330
3E9
100
AcDbEntity
  8
0
  6
SLD-Durchgehend
 62
   250
420
  1644836
370
    18
100
AcDbLine
 10
479.924115274
 20
311.305744
 30
0.0
 11
479.924115274
 21
208.1423924723
 31
0.0
  0
MTEXT
  5
3F2
330
3E9
100
AcDbEntity
  8
0
  6
SLD-Durchgehend
 62
   250
420
  1644836
370
    18
100
AcDbMText
 10
443.8302199574
 20
208.1423924723
 30
0.0
 40
28.0
 41
0.0
 46
0.0
 71
     1
 72
     1
  1
34,5-70
  7
SLDTEXTSTYLE1
 11
-7.044195017643634E-15
 21
1.0
 31
0.0
 73
     1
 44
1.0
  0
ENDBLK
  5
3EB
330
3E9
100
AcDbEntity
  8
0
100
AcDbBlockEnd
  0
BLOCK
  5
3F5
330
3F4
100
AcDbEntity
  8
0
100
AcDbBlockBegin
  2
_D_2
 70
     0
 10
0.0
 20
0.0
 30
0.0
  3
_D_2
  1

  0
LINE
  5
3F7
330
3F4
100
AcDbEntity
  8
0
  6
SLD-Durchgehend
 62
   250
420
  1644836
370
    18
100
AcDbLine
 10
298.491379
 20
128.305744
 30
0.0
 11
298.491379
 21
73.12
 31
0.0
  0
LINE
  5
3F8
330
3F4
100
AcDbEntity
  8
0
  6
SLD-Durchgehend
 62
   250
420
  1644836
370
    18
100
AcDbLine
 10
408.491379
 20
128.305912
 30
0.0
 11
408.491379
 21
73.12
 31
0.0
  0
LINE
  5
3F9
330
3F4
100
AcDbEntity
  8
0
  6
SLD-Durchgehend
 62
   250
420
  1644836
370
    18
100
AcDbLine
 10
326.491379
 20
76.72
 30
0.0
 11
380.491379
 21
76.72
 31
0.0
  0
MTEXT
  5
3FA
330
3F4
100
AcDbEntity
  8
0
  6
SLD-Durchgehend
 62
   250
420
  1644836
370
    18
100
AcDbMText
 10
331.5653724443
 20
125.7310828166
 30
0.0
 40
28.0
 41
0.0
 46
0.0
 71
     1
 72
     1
  1
DN100
  7
SLDTEXTSTYLE1
 73
     1
 44
1.0
  0
SOLID
  5
3FB
330
3F4
100
AcDbEntity
  8
0
  6
SLD-Durchgehend
 62
   250
420
  1644836
370
    18
100
AcDbTrace
 10
326.491379
 20
81.386667
 30
0.0
 11
326.491379
 21
72.053333
 31
0.0
 12
298.491379
 22
76.72
 32
0.0
 13
298.491379
 23
76.72
 33
0.0
  0
SOLID
  5
3FC
330
3F4
100
AcDbEntity
  8
0
  6
SLD-Durchgehend
 62
   250
420
  1644836
370
    18
100
AcDbTrace
 10
380.491379
 20
72.053333
 30
0.0
 11
380.491379
 21
81.386667
 31
0.0
 12
408.491379
 22
76.72
 32
0.0
 13
408.491379
 23
76.72
 33
0.0
  0
ENDBLK
  5
3F6
330
3F4
100
AcDbEntity
  8
0
100
AcDbBlockEnd
  0
BLOCK
  5
3FF
330
3FE
100
AcDbEntity
  8
0
100
AcDbBlockBegin
  2
_D_3
 70
     0
 10
0.0
 20
0.0
 30
0.0
  3
_D_3
  1

  0
LINE
  5
401
330
3FE
100
AcDbEntity
  8
0
  6
SLD-Durchgehend
 62
   250
420
  1644836
370
    18
100
AcDbLine
 10
267.491379
 20
311.305744
 30
0.0
 11
190.43994
 21
311.305744
 31
0.0
  0
LINE
  5
402
330
3FE
100
AcDbEntity
  8
0
  6
SLD-Durchgehend
 62
   250
420
  1644836
370
    18
100
AcDbLine
 10
285.491379
 20
201.305744
 30
0.0
 11
190.43994
 21
201.305744
 31
0.0
  0
LINE
  5
403
330
3FE
100
AcDbEntity
  8
0
  6
SLD-Durchgehend
 62
   250
420
  1644836
370
    18
100
AcDbLine
 10
194.03994
 20
283.305744
 30
0.0
 11
194.03994
 21
229.305744
 31
0.0
  0
MTEXT
  5
404
330
3FE
100
AcDbEntity
  8
0
  6
SLD-Durchgehend
 62
   250
420
  1644836
370
    18
100
AcDbMText
 10
145.0288571834
 20
238.0620580154
 30
0.0
 40
28.0
 41
0.0
 46
0.0
 71
     1
 72
     1
  1
110
  7
SLDTEXTSTYLE1
 11
6.123233995736766E-17
 21
1.0
 31
0.0
 73
     1
 44
1.0
  0
SOLID
  5
405
330
3FE
100
AcDbEntity
  8
0
  6
SLD-Durchgehend
 62
   250
420
  1644836
370
    18
100
AcDbTrace
 10
198.706607
 20
283.305744
 30
0.0
 11
189.373273
 21
283.305744
 31
0.0
 12
194.03994
 22
311.305744
 32
0.0
 13
194.03994
 23
311.305744
 33
0.0
  0
SOLID
  5
406
330
3FE
100
AcDbEntity
  8
0
  6
SLD-Durchgehend
 62
   250
420
  1644836
370
    18
100
AcDbTrace
 10
189.373273
 20
229.305744
 30
0.0
 11
198.706607
 21
229.305744
 31
0.0
 12
194.03994
 22
201.305744
 32
0.0
 13
194.03994
 23
201.305744
 33
0.0
  0
ENDBLK
  5
400
330
3FE
100
AcDbEntity
  8
0
100
AcDbBlockEnd
  0
BLOCK
  5
409
330
408
100
AcDbEntity
  8
0
100
AcDbBlockBegin
  2
_D_4
 70
     0
 10
0.0
 20
0.0
 30
0.0
  3
_D_4
  1

  0
LINE
  5
40B
330
408
100
AcDbEntity
  8
0
  6
SLD-Durchgehend
 62
   250
420
  1644836
370
    18
100
AcDbLine
 10
267.491379
 20
311.305744
 30
0.0
 11
267.491379
 21
451.393273
 31
0.0
  0
LINE
  5
40C
330
408
100
AcDbEntity
  8
0
  6
SLD-Durchgehend
 62
   250
420
  1644836
370
    18
100
AcDbLine
 10
439.491379
 20
311.305744
 30
0.0
 11
439.491379
 21
451.393273
 31
0.0
  0
LINE
  5
40D
330
408
100
AcDbEntity
  8
0
  6
SLD-Durchgehend
 62
   250
420
  1644836
370
    18
100
AcDbLine
 10
295.491379
 20
447.793273
 30
0.0
 11
411.491379
 21
447.793273
 31
0.0
  0
MTEXT
  5
40E
330
408
100
AcDbEntity
  8
0
  6
SLD-Durchgehend
 62
   250
420
  1644836
370
    18
100
AcDbMText
 10
336.6768933196
 20
496.8043572136
 30
0.0
 40
28.0
 41
0.0
 46
0.0
 71
     1
 72
     1
  1
%%c
  7
SLDTEXTSTYLE1
 73
     1
 44
1.0
  0
MTEXT
  5
40F
330
408
100
AcDbEntity
  8
0
  6
SLD-Durchgehend
 62
   250
420
  1644836
370
    18
100
AcDbMText
 10
378.9043925065
 20
497.2321346269
 30
0.0
 40
28.0
 41
0.0
 46
0.0
 71
     1
 72
     1
  1
172
  7
SLDTEXTSTYLE1
 73
     1
 44
1.0
  0
SOLID
  5
410
330
408
100
AcDbEntity
  8
0
  6
SLD-Durchgehend
 62
   250
420
  1644836
370
    18
100
AcDbTrace
 10
295.491379
 20
452.459939
 30
0.0
 11
295.491379
 21
443.126606
 31
0.0
 12
267.491379
 22
447.793273
 32
0.0
 13
267.491379
 23
447.793273
 33
0.0
  0
SOLID
  5
411
330
408
100
AcDbEntity
  8
0
  6
SLD-Durchgehend
 62
   250
420
  1644836
370
    18
100
AcDbTrace
 10
411.491379
 20
443.126606
 30
0.0
 11
411.491379
 21
452.459939
 31
0.0
 12
439.491379
 22
447.793273
 32
0.0
 13
439.491379
 23
447.793273
 33
0.0
  0
ENDBLK
  5
40A
330
408
100
AcDbEntity
  8
0
100
AcDbBlockEnd
  0
BLOCK
  5
414
330
413
100
AcDbEntity
  8
0
100
AcDbBlockBegin
  2
_D_5
 70
     0
 10
0.0
 20
0.0
 30
0.0
  3
_D_5
  1

  0
LINE
  5
416
330
413
100
AcDbEntity
  8
0
  6
SLD-Durchgehend
 62
   250
420
  1644836
370
    18
100
AcDbLine
 10
273.491379
 20
213.305744
 30
0.0
 11
273.491379
 21
19.66
 31
0.0
  0
LINE
  5
417
330
413
100
AcDbEntity
  8
0
  6
SLD-Durchgehend
 62
   250
420
  1644836
370
    18
100
AcDbLine
 10
433.491546
 20
213.305887
 30
0.0
 11
433.491546
 21
19.66
 31
0.0
  0
LINE
  5
418
330
413
100
AcDbEntity
  8
0
  6
SLD-Durchgehend
 62
   250
420
  1644836
370
    18
100
AcDbLine
 10
301.491379
 20
23.26
 30
0.0
 11
405.491546
 21
23.26
 31
0.0
  0
MTEXT
  5
419
330
413
100
AcDbEntity
  8
0
  6
SLD-Durchgehend
 62
   250
420
  1644836
370
    18
100
AcDbMText
 10
339.7516163196
 20
72.2710842136
 30
0.0
 40
28.0
 41
0.0
 46
0.0
 71
     1
 72
     1
  1
%%c
  7
SLDTEXTSTYLE1
 73
     1
 44
1.0
  0
MTEXT
  5
41A
330
413
100
AcDbEntity
  8
0
  6
SLD-Durchgehend
 62
   250
420
  1644836
370
    18
100
AcDbMText
 10
381.9791155065
 20
72.6988616269
 30
0.0
 40
28.0
 41
0.0
 46
0.0
 71
     1
 72
     1
  1
160
  7
SLDTEXTSTYLE1
 73
     1
 44
1.0
  0
SOLID
  5
41B
330
413
100
AcDbEntity
  8
0
  6
SLD-Durchgehend
 62
   250
420
  1644836
370
    18
100
AcDbTrace
 10
301.491379
 20
27.926667
 30
0.0
 11
301.491379
 21
18.593333
 31
0.0
 12
273.491379
 22
23.26
 32
0.0
 13
273.491379
 23
23.26
 33
0.0
  0
SOLID
  5
41C
330
413
100
AcDbEntity
  8
0
  6
SLD-Durchgehend
 62
   250
420
  1644836
370
    18
100
AcDbTrace
 10
405.491546
 20
18.593333
 30
0.0
 11
405.491546
 21
27.926667
 31
0.0
 12
433.491546
 22
23.26
 32
0.0
 13
433.491546
 23
23.26
 33
0.0
  0
ENDBLK
  5
415
330
413
100
AcDbEntity
  8
0
100
AcDbBlockEnd
  0
BLOCK
  5
41F
330
41E
100
AcDbEntity
  8
0
100
AcDbBlockBegin
  2
_D_6
 70
     0
 10
0.0
 20
0.0
 30
0.0
  3
_D_6
  1

  0
LINE
  5
421
330
41E
100
AcDbEntity
  8
0
  6
SLD-Durchgehend
 62
   250
420
  1644836
370
    18
100
AcDbLine
 10
279.491379
 20
382.417795
 30
0.0
 11
279.476346
 21
393.574692
 31
0.0
  0
LINE
  5
422
330
41E
100
AcDbEntity
  8
0
  6
SLD-Durchgehend
 62
   250
420
  1644836
370
    18
100
AcDbLine
 10
428.438291
 20
382.618492
 30
0.0
 11
428.423258
 21
393.77539
 31
0.0
  0
LINE
  5
423
330
41E
100
AcDbEntity
  8
0
  6
SLD-Durchgehend
 62
   250
420
  1644836
370
    18
100
AcDbLine
 10
307.481172
 20
390.012424
 30
0.0
 11
400.428134
 21
390.137665
 31
0.0
  0
MTEXT
  5
424
330
41E
100
AcDbEntity
  8
0
  6
SLD-Durchgehend
 62
   250
420
  1644836
370
    18
100
AcDbMText
 10
341.2016923154
 20
439.0689550261
 30
0.0
 40
28.0
 41
0.0
 46
0.0
 71
     1
 72
     1
  1
150
  7
SLDTEXTSTYLE1
 73
     1
 44
1.0
  0
SOLID
  5
425
330
41E
100
AcDbEntity
  8
0
  6
SLD-Durchgehend
 62
   250
420
  1644836
370
    18
100
AcDbTrace
 10
307.474883
 20
394.679087
 30
0.0
 11
307.48746
 21
385.345762
 31
0.0
 12
279.481197
 22
389.974696
 32
0.0
 13
279.481197
 23
389.974696
 33
0.0
  0
SOLID
  5
426
330
41E
100
AcDbEntity
  8
0
  6
SLD-Durchgehend
 62
   250
420
  1644836
370
    18
100
AcDbTrace
 10
400.434422
 20
385.471002
 30
0.0
 11
400.421846
 21
394.804327
 31
0.0
 12
428.428109
 22
390.175393
 32
0.0
 13
428.428109
 23
390.175393
 33
0.0
  0
ENDBLK
  5
420
330
41E
100
AcDbEntity
  8
0
100
AcDbBlockEnd
  0
ENDSEC
  0
SECTION
  2
ENTITIES
  0
LINE
  5
240
330
1F
100
AcDbEntity
  8
0
  6
SLD-Durchgehend
 62
   250
420
  1644836
370
    50
100
AcDbLine
 10
295.991379
 20
201.305744
 30
0.0
 11
298.491379
 21
201.305744
 31
0.0
  0
LINE
  5
241
330
1F
100
AcDbEntity
  8
0
  6
SLD-Durchgehend
 62
   250
420
  1644836
370
    50
100
AcDbLine
 10
408.491379
 20
201.305901
 30
0.0
 11
408.491379
 21
128.305912
 31
0.0
  0
LINE
  5
242
330
1F
100
AcDbEntity
  8
0
  6
SLD-Durchgehend
 62
   250
420
  1644836
370
    50
100
AcDbLine
 10
301.491379
 20
125.305744
 30
0.0
 11
353.491379
 21
125.305744
 31
0.0
  0
LINE
  5
243
330
1F
100
AcDbEntity
  8
0
  6
SLD-Durchgehend
 62
   250
420
  1644836
370
    50
100
AcDbLine
 10
298.491379
 20
201.305744
 30
0.0
 11
298.491379
 21
128.305744
 31
0.0
  0
LINE
  5
244
330
1F
100
AcDbEntity
  8
0
  6
SLD-Durchgehend
 62
   250
420
  1644836
370
    50
100
AcDbLine
 10
285.491379
 20
201.305744
 30
0.0
 11
295.991379
 21
201.305744
 31
0.0
  0
LINE
  5
245
330
1F
100
AcDbEntity
  8
0
  6
SLD-Durchgehend
 62
   250
420
  1644836
370
    50
100
AcDbLine
 10
285.4913881106
 20
204.305744
 30
0.0
 11
322.491379
 21
204.305744
 31
0.0
  0
LINE
  5
246
330
1F
100
AcDbEntity
  8
0
  6
SLD-Durchgehend
 62
   250
420
  1644836
370
    50
100
AcDbLine
 10
328.491379
 20
201.305744
 30
0.0
 11
328.491379
 21
154.305744
 31
0.0
  0
LINE
  5
247
330
1F
100
AcDbEntity
  8
0
  6
SLD-Durchgehend
 62
   250
420
  1644836
370
    50
100
AcDbLine
 10
331.491379
 20
151.305744
 30
0.0
 11
353.491379
 21
151.305744
 31
0.0
  0
LINE
  5
248
330
1F
100
AcDbEntity
  8
0
  6
SLD-Durchgehend
 62
   250
420
  1644836
370
    50
100
AcDbLine
 10
331.491379
 20
151.305744
 30
0.0
 11
331.491379
 21
186.305744
 31
0.0
  0
LINE
  5
249
330
1F
100
AcDbEntity
  8
0
  6
SLD-Durchgehend
 62
   250
420
  1644836
370
    50
100
AcDbLine
 10
322.491379
 20
204.305744
 30
0.0
 11
322.491379
 21
266.305744
 31
0.0
  0
LINE
  5
24A
330
1F
100
AcDbEntity
  8
0
  6
SLD-Durchgehend
 62
   250
420
  1644836
370
    50
100
AcDbLine
 10
323.241379
 20
276.305744
 30
0.0
 11
324.74138
 21
276.305744
 31
0.0
  0
LINE
  5
24B
330
1F
100
AcDbEntity
  8
0
  6
SLD-Durchgehend
 62
   250
420
  1644836
370
    50
100
AcDbLine
 10
323.241379
 20
276.305744
 30
0.0
 11
323.241379
 21
266.305744
 31
0.0
  0
LINE
  5
24C
330
1F
100
AcDbEntity
  8
0
  6
SLD-Durchgehend
 62
   250
420
  1644836
370
    50
100
AcDbLine
 10
323.241379
 20
266.305744
 30
0.0
 11
322.491379
 21
266.305744
 31
0.0
  0
LINE
  5
24D
330
1F
100
AcDbEntity
  8
0
  6
SLD-Durchgehend
 62
   250
420
  1644836
370
    50
100
AcDbLine
 10
324.741379
 20
275.305744
 30
0.0
 11
324.741379
 21
268.305744
 31
0.0
  0
LINE
  5
24E
330
1F
100
AcDbEntity
  8
0
  6
SLD-Durchgehend
 62
   250
420
  1644836
370
    50
100
AcDbLine
 10
324.741379
 20
268.305744
 30
0.0
 11
325.491379
 21
268.305744
 31
0.0
  0
LINE
  5
24F
330
1F
100
AcDbEntity
  8
0
  6
SLD-Durchgehend
 62
   250
420
  1644836
370
    50
100
AcDbLine
 10
321.7413787048
 20
299.805744
 30
0.0
 11
353.4913787048
 21
299.805744
 31
0.0
  0
LINE
  5
250
330
1F
100
AcDbEntity
  8
0
  6
SLD-Durchgehend
 62
   250
420
  1644836
370
    50
100
AcDbLine
 10
309.741379
 20
287.805744
 30
0.0
 11
309.741379
 21
229.588695
 31
0.0
  0
LINE
  5
251
330
1F
100
AcDbEntity
  8
0
  6
SLD-Durchgehend
 62
   250
420
  1644836
370
    50
100
AcDbLine
 10
311.741379
 20
287.805744
 30
0.0
 11
311.741379
 21
227.805744
 31
0.0
  0
LINE
  5
252
330
1F
100
AcDbEntity
  8
0
  6
SLD-Durchgehend
 62
   250
420
  1644836
370
    50
100
AcDbLine
 10
358.241377
 20
305.805937
 30
0.0
 11
353.491379
 21
305.805936
 31
0.0
  0
LINE
  5
253
330
1F
100
AcDbEntity
  8
0
  6
SLD-Durchgehend
 62
   250
420
  1644836
370
    50
100
AcDbLine
 10
363.241378
 20
299.805937
 30
0.0
 11
363.241378
 21
300.805937
 31
0.0
  0
LINE
  5
254
330
1F
100
AcDbEntity
  8
0
  6
SLD-Durchgehend
 62
   250
420
  1644836
370
    50
100
AcDbLine
 10
348.741381
 20
305.805936
 30
0.0
 11
353.491379
 21
305.805936
 31
0.0
  0
LINE
  5
255
330
1F
100
AcDbEntity
  8
0
  6
SLD-Durchgehend
 62
   250
420
  1644836
370
    50
100
AcDbLine
 10
343.741381
 20
299.805936
 30
0.0
 11
343.741381
 21
300.805936
 31
0.0
  0
LINE
  5
256
330
1F
100
AcDbEntity
  8
0
  6
SLD-Durchgehend
 62
   250
420
  1644836
370
    50
100
AcDbLine
 10
358.2413770575
 20
309.805937
 30
0.0
 11
353.491378
 21
309.805936
 31
0.0
  0
LINE
  5
257
330
1F
100
AcDbEntity
  8
0
  6
SLD-Durchgehend
 62
   250
420
  1644836
370
    50
100
AcDbLine
 10
367.241378
 20
299.805937
 30
0.0
 11
367.241378
 21
300.8059379425
 31
0.0
  0
LINE
  5
258
330
1F
100
AcDbEntity
  8
0
  6
SLD-Durchgehend
 62
   250
420
  1644836
370
    50
100
AcDbLine
 10
321.7413787048
 20
277.805744
 30
0.0
 11
324.7413787048
 21
277.805744
 31
0.0
  0
LINE
  5
259
330
1F
100
AcDbEntity
  8
0
  6
SLD-Durchgehend
 62
   250
420
  1644836
370
    50
100
AcDbLine
 10
321.7413787048
 20
277.805744
 30
0.0
 11
321.7413787048
 21
297.805744
 31
0.0
  0
LINE
  5
25A
330
1F
100
AcDbEntity
  8
0
  6
SLD-Durchgehend
 62
   250
420
  1644836
370
    50
100
AcDbLine
 10
324.7413787048
 20
277.805744
 30
0.0
 11
325.2413797048
 21
277.805744
 31
0.0
  0
LINE
  5
25B
330
1F
100
AcDbEntity
  8
0
  6
SLD-Durchgehend
 62
   250
420
  1644836
370
    50
100
AcDbLine
 10
353.491379
 20
268.805744
 30
0.0
 11
328.741383
 21
268.805744
 31
0.0
  0
LINE
  5
25C
330
1F
100
AcDbEntity
  8
0
  6
SLD-Durchgehend
 62
   250
420
  1644836
370
    50
100
AcDbLine
 10
325.2413797048
 20
276.512851
 30
0.0
 11
325.2413797048
 21
277.805744
 31
0.0
  0
LINE
  5
25D
330
1F
100
AcDbEntity
  8
0
  6
SLD-Durchgehend
 62
   250
420
  1644836
370
    50
100
AcDbLine
 10
325.241383
 20
275.098639
 30
0.0
 11
325.241383
 21
272.305744
 31
0.0
  0
LINE
  5
25E
330
1F
100
AcDbEntity
  8
0
  6
SLD-Durchgehend
 62
   250
420
  1644836
370
    50
100
AcDbLine
 10
325.241383
 20
272.305744
 30
0.0
 11
328.741383
 21
268.805744
 31
0.0
  0
LINE
  5
25F
330
1F
100
AcDbEntity
  8
0
  6
SLD-Durchgehend
 62
   250
420
  1644836
370
    50
100
AcDbLine
 10
301.491379
 20
201.305744
 30
0.0
 11
301.491379
 21
125.305744
 31
0.0
  0
LINE
  5
260
330
1F
100
AcDbEntity
  8
0
  6
SLD-Durchgehend
 62
   250
420
  1644836
370
    50
100
AcDbLine
 10
405.491379
 20
201.305901
 30
0.0
 11
405.491379
 21
125.305903
 31
0.0
  0
LINE
  5
261
330
1F
100
AcDbEntity
  8
0
  6
SLD-Durchgehend
 62
   250
420
  1644836
370
    25
100
AcDbLine
 10
309.741379
 20
229.588695
 30
0.0
 11
311.741379
 21
231.588692
 31
0.0
  0
LINE
  5
262
330
1F
100
AcDbEntity
  8
0
  6
SLD-Durchgehend
 62
   250
420
  1644836
370
    25
100
AcDbLine
 10
348.958481
 20
268.805744
 30
0.0
 11
353.491379
 21
273.338637
 31
0.0
  0
LINE
  5
263
330
1F
100
AcDbEntity
  8
0
  6
SLD-Durchgehend
 62
   250
420
  1644836
370
    25
100
AcDbLine
 10
309.741379
 20
233.831333
 30
0.0
 11
311.741379
 21
235.83133
 31
0.0
  0
LINE
  5
264
330
1F
100
AcDbEntity
  8
0
  6
SLD-Durchgehend
 62
   250
420
  1644836
370
    25
100
AcDbLine
 10
344.715838
 20
268.805744
 30
0.0
 11
353.491379
 21
277.581275
 31
0.0
  0
LINE
  5
265
330
1F
100
AcDbEntity
  8
0
  6
SLD-Durchgehend
 62
   250
420
  1644836
370
    25
100
AcDbLine
 10
309.741379
 20
238.073971
 30
0.0
 11
311.741379
 21
240.073968
 31
0.0
  0
LINE
  5
266
330
1F
100
AcDbEntity
  8
0
  6
SLD-Durchgehend
 62
   250
420
  1644836
370
    25
100
AcDbLine
 10
340.473194
 20
268.805744
 30
0.0
 11
353.491379
 21
281.823913
 31
0.0
  0
LINE
  5
267
330
1F
100
AcDbEntity
  8
0
  6
SLD-Durchgehend
 62
   250
420
  1644836
370
    25
100
AcDbLine
 10
309.741379
 20
242.316608
 30
0.0
 11
311.741379
 21
244.316606
 31
0.0
  0
LINE
  5
268
330
1F
100
AcDbEntity
  8
0
  6
SLD-Durchgehend
 62
   250
420
  1644836
370
    25
100
AcDbLine
 10
336.230551
 20
268.805744
 30
0.0
 11
353.491379
 21
286.06655
 31
0.0
  0
LINE
  5
269
330
1F
100
AcDbEntity
  8
0
  6
SLD-Durchgehend
 62
   250
420
  1644836
370
    25
100
AcDbLine
 10
309.741379
 20
246.559246
 30
0.0
 11
311.741379
 21
248.559244
 31
0.0
  0
LINE
  5
26A
330
1F
100
AcDbEntity
  8
0
  6
SLD-Durchgehend
 62
   250
420
  1644836
370
    25
100
AcDbLine
 10
331.987907
 20
268.805744
 30
0.0
 11
353.491379
 21
290.309188
 31
0.0
  0
LINE
  5
26B
330
1F
100
AcDbEntity
  8
0
  6
SLD-Durchgehend
 62
   250
420
  1644836
370
    25
100
AcDbLine
 10
309.741379
 20
250.801884
 30
0.0
 11
311.741379
 21
252.801882
 31
0.0
  0
LINE
  5
26C
330
1F
100
AcDbEntity
  8
0
  6
SLD-Durchgehend
 62
   250
420
  1644836
370
    25
100
AcDbLine
 10
328.243324
 20
269.303804
 30
0.0
 11
353.491379
 21
294.551826
 31
0.0
  0
LINE
  5
26D
330
1F
100
AcDbEntity
  8
0
  6
SLD-Durchgehend
 62
   250
420
  1644836
370
    25
100
AcDbLine
 10
309.741379
 20
255.044522
 30
0.0
 11
311.741379
 21
257.044519
 31
0.0
  0
LINE
  5
26E
330
1F
100
AcDbEntity
  8
0
  6
SLD-Durchgehend
 62
   250
420
  1644836
370
    25
100
AcDbLine
 10
326.122003
 20
271.425124
 30
0.0
 11
353.491379
 21
298.794464
 31
0.0
  0
LINE
  5
26F
330
1F
100
AcDbEntity
  8
0
  6
SLD-Durchgehend
 62
   250
420
  1644836
370
    25
100
AcDbLine
 10
309.741379
 20
259.28716
 30
0.0
 11
311.741379
 21
261.287157
 31
0.0
  0
LINE
  5
270
330
1F
100
AcDbEntity
  8
0
  6
SLD-Durchgehend
 62
   250
420
  1644836
370
    25
100
AcDbLine
 10
309.741379
 20
263.529798
 30
0.0
 11
311.741379
 21
265.529795
 31
0.0
  0
LINE
  5
271
330
1F
100
AcDbEntity
  8
0
  6
SLD-Durchgehend
 62
   250
420
  1644836
370
    25
100
AcDbLine
 10
324.017345
 20
277.805744
 30
0.0
 11
346.017374
 21
299.805744
 31
0.0
  0
LINE
  5
272
330
1F
100
AcDbEntity
  8
0
  6
SLD-Durchgehend
 62
   250
420
  1644836
370
    25
100
AcDbLine
 10
309.741379
 20
267.772436
 30
0.0
 11
311.741379
 21
269.772433
 31
0.0
  0
LINE
  5
273
330
1F
100
AcDbEntity
  8
0
  6
SLD-Durchgehend
 62
   250
420
  1644836
370
    25
100
AcDbLine
 10
321.741379
 20
279.77242
 30
0.0
 11
341.774731
 21
299.805744
 31
0.0
  0
LINE
  5
274
330
1F
100
AcDbEntity
  8
0
  6
SLD-Durchgehend
 62
   250
420
  1644836
370
    25
100
AcDbLine
 10
309.741379
 20
272.015074
 30
0.0
 11
311.741379
 21
274.015071
 31
0.0
  0
LINE
  5
275
330
1F
100
AcDbEntity
  8
0
  6
SLD-Durchgehend
 62
   250
420
  1644836
370
    25
100
AcDbLine
 10
321.741379
 20
284.015058
 30
0.0
 11
337.532087
 21
299.805744
 31
0.0
  0
LINE
  5
276
330
1F
100
AcDbEntity
  8
0
  6
SLD-Durchgehend
 62
   250
420
  1644836
370
    25
100
AcDbLine
 10
309.741379
 20
276.257711
 30
0.0
 11
311.741379
 21
278.257709
 31
0.0
  0
LINE
  5
277
330
1F
100
AcDbEntity
  8
0
  6
SLD-Durchgehend
 62
   250
420
  1644836
370
    25
100
AcDbLine
 10
321.741379
 20
288.257696
 30
0.0
 11
333.289444
 21
299.805744
 31
0.0
  0
LINE
  5
278
330
1F
100
AcDbEntity
  8
0
  6
SLD-Durchgehend
 62
   250
420
  1644836
370
    25
100
AcDbLine
 10
309.741379
 20
280.500349
 30
0.0
 11
311.741379
 21
282.500347
 31
0.0
  0
LINE
  5
279
330
1F
100
AcDbEntity
  8
0
  6
SLD-Durchgehend
 62
   250
420
  1644836
370
    25
100
AcDbLine
 10
321.741379
 20
292.500333
 30
0.0
 11
329.0468
 21
299.805744
 31
0.0
  0
LINE
  5
27A
330
1F
100
AcDbEntity
  8
0
  6
SLD-Durchgehend
 62
   250
420
  1644836
370
    25
100
AcDbLine
 10
309.741379
 20
284.742987
 30
0.0
 11
311.741379
 21
286.742985
 31
0.0
  0
LINE
  5
27B
330
1F
100
AcDbEntity
  8
0
  6
SLD-Durchgehend
 62
   250
420
  1644836
370
    25
100
AcDbLine
 10
321.741379
 20
296.742971
 30
0.0
 11
324.804157
 21
299.805744
 31
0.0
  0
LINE
  5
27C
330
1F
100
AcDbEntity
  8
0
  6
SLD-Durchgehend
 62
   250
420
  1644836
370
    25
100
AcDbLine
 10
309.806097
 20
289.050342
 30
0.0
 11
312.587711
 21
291.831953
 31
0.0
  0
LINE
  5
27D
330
1F
100
AcDbEntity
  8
0
  6
SLD-Durchgehend
 62
   250
420
  1644836
370
    25
100
AcDbLine
 10
317.715183
 20
296.959418
 30
0.0
 11
320.496798
 21
299.741029
 31
0.0
  0
LINE
  5
27E
330
1F
100
AcDbEntity
  8
0
  6
SLD-Durchgehend
 62
   250
420
  1644836
370
    25
100
AcDbLine
 10
325.241383
 20
274.787143
 30
0.0
 11
350.260018
 21
299.805744
 31
0.0
  0
LINE
  5
27F
330
1F
100
AcDbEntity
  8
0
  6
SLD-Durchgehend
 62
   250
420
  1644836
370
    50
100
AcDbLine
 10
385.241603
 20
299.805916
 30
0.0
 11
353.491603
 21
299.805937
 31
0.0
  0
LINE
  5
280
330
1F
100
AcDbEntity
  8
0
  6
SLD-Durchgehend
 62
   250
420
  1644836
370
    50
100
AcDbLine
 10
397.241595
 20
287.805908
 30
0.0
 11
397.241557
 21
229.805917
 31
0.0
  0
LINE
  5
281
330
1F
100
AcDbEntity
  8
0
  6
SLD-Durchgehend
 62
   250
420
  1644836
370
    50
100
AcDbLine
 10
395.241595
 20
287.805909
 30
0.0
 11
395.241556
 21
227.805909
 31
0.0
  0
LINE
  5
282
330
1F
100
AcDbEntity
  8
0
  6
SLD-Durchgehend
 62
   250
420
  1644836
370
    50
100
AcDbLine
 10
395.241556
 20
227.805909
 30
0.0
 11
384.491549
 21
227.805916
 31
0.0
  0
LINE
  5
283
330
1F
100
AcDbEntity
  8
0
  6
SLD-Durchgehend
 62
   250
420
  1644836
370
    50
100
AcDbLine
 10
383.741587
 20
276.305917
 30
0.0
 11
383.741581
 21
266.305917
 31
0.0
  0
LINE
  5
284
330
1F
100
AcDbEntity
  8
0
  6
SLD-Durchgehend
 62
   250
420
  1644836
370
    50
100
AcDbLine
 10
383.741587
 20
276.305917
 30
0.0
 11
382.241587
 21
276.305918
 31
0.0
  0
LINE
  5
285
330
1F
100
AcDbEntity
  8
0
  6
SLD-Durchgehend
 62
   250
420
  1644836
370
    50
100
AcDbLine
 10
382.2415856561
 20
275.305918
 30
0.0
 11
382.241582
 21
268.305918
 31
0.0
  0
LINE
  5
286
330
1F
100
AcDbEntity
  8
0
  6
SLD-Durchgehend
 62
   250
420
  1644836
370
    50
100
AcDbLine
 10
382.241582
 20
268.305918
 30
0.0
 11
381.491582
 21
268.305918
 31
0.0
  0
LINE
  5
287
330
1F
100
AcDbEntity
  8
0
  6
SLD-Durchgehend
 62
   250
420
  1644836
370
    50
100
AcDbLine
 10
383.741581
 20
266.305917
 30
0.0
 11
384.491581
 21
266.305916
 31
0.0
  0
LINE
  5
288
330
1F
100
AcDbEntity
  8
0
  6
SLD-Durchgehend
 62
   250
420
  1644836
370
    50
100
AcDbLine
 10
384.49154
 20
204.305916
 30
0.0
 11
384.491581
 21
266.305916
 31
0.0
  0
LINE
  5
289
330
1F
100
AcDbEntity
  8
0
  6
SLD-Durchgehend
 62
   250
420
  1644836
370
    50
100
AcDbLine
 10
385.2416014577
 20
297.805916
 30
0.0
 11
353.491379
 21
297.805916
 31
0.0
  0
LINE
  5
28A
330
1F
100
AcDbEntity
  8
0
  6
SLD-Durchgehend
 62
   250
420
  1644836
370
    50
100
AcDbLine
 10
382.753253
 20
276.305918
 30
0.0
 11
353.491582
 21
276.305918
 31
0.0
  0
LINE
  5
28B
330
1F
100
AcDbEntity
  8
0
  6
SLD-Durchgehend
 62
   250
420
  1644836
370
    50
100
AcDbLine
 10
315.991379
 20
201.305744
 30
0.0
 11
328.491379
 21
201.305744
 31
0.0
  0
LINE
  5
28C
330
1F
100
AcDbEntity
  8
0
  6
SLD-Durchgehend
 62
   250
420
  1644836
370
    50
100
AcDbLine
 10
311.741379
 20
227.805744
 30
0.0
 11
309.741379
 21
229.805744
 31
0.0
  0
LINE
  5
28D
330
1F
100
AcDbEntity
  8
0
  6
SLD-Durchgehend
 62
   250
420
  1644836
370
    50
100
AcDbLine
 10
301.491379
 20
125.305744
 30
0.0
 11
298.491379
 21
128.305744
 31
0.0
  0
LINE
  5
28E
330
1F
100
AcDbEntity
  8
0
  6
SLD-Durchgehend
 62
   250
420
  1644836
370
    50
100
AcDbLine
 10
331.491379
 20
151.305744
 30
0.0
 11
328.491379
 21
154.305744
 31
0.0
  0
LINE
  5
28F
330
1F
100
AcDbEntity
  8
0
  6
SLD-Durchgehend
 62
   250
420
  1644836
370
    50
100
AcDbLine
 10
395.241556
 20
227.805909
 30
0.0
 11
397.241557
 21
229.805917
 31
0.0
  0
LINE
  5
290
330
1F
100
AcDbEntity
  8
0
  6
SLD-Durchgehend
 62
   250
420
  1644836
370
    50
100
AcDbLine
 10
301.491379
 20
201.305744
 30
0.0
 11
315.991379
 21
201.305744
 31
0.0
  0
LINE
  5
291
330
1F
100
AcDbEntity
  8
0
  6
SLD-Durchgehend
 62
   250
420
  1644836
370
    50
100
AcDbLine
 10
410.991538
 20
201.305899
 30
0.0
 11
408.491379
 21
201.305901
 31
0.0
  0
LINE
  5
292
330
1F
100
AcDbEntity
  8
0
  6
SLD-Durchgehend
 62
   250
420
  1644836
370
    25
100
AcDbLine
 10
395.241557
 20
230.236002
 30
0.0
 11
397.241558
 21
232.236
 31
0.0
  0
LINE
  5
293
330
1F
100
AcDbEntity
  8
0
  6
SLD-Durchgehend
 62
   250
420
  1644836
370
    25
100
AcDbLine
 10
395.24156
 20
234.478642
 30
0.0
 11
397.241561
 21
236.478641
 31
0.0
  0
LINE
  5
294
330
1F
100
AcDbEntity
  8
0
  6
SLD-Durchgehend
 62
   250
420
  1644836
370
    25
100
AcDbLine
 10
395.241563
 20
238.721283
 30
0.0
 11
397.241564
 21
240.721282
 31
0.0
  0
LINE
  5
295
330
1F
100
AcDbEntity
  8
0
  6
SLD-Durchgehend
 62
   250
420
  1644836
370
    25
100
AcDbLine
 10
395.241565
 20
242.963924
 30
0.0
 11
397.241567
 21
244.963922
 31
0.0
  0
LINE
  5
296
330
1F
100
AcDbEntity
  8
0
  6
SLD-Durchgehend
 62
   250
420
  1644836
370
    25
100
AcDbLine
 10
395.241568
 20
247.206564
 30
0.0
 11
397.24157
 21
249.206563
 31
0.0
  0
LINE
  5
297
330
1F
100
AcDbEntity
  8
0
  6
SLD-Durchgehend
 62
   250
420
  1644836
370
    25
100
AcDbLine
 10
395.241571
 20
251.449205
 30
0.0
 11
397.241572
 21
253.449204
 31
0.0
  0
LINE
  5
298
330
1F
100
AcDbEntity
  8
0
  6
SLD-Durchgehend
 62
   250
420
  1644836
370
    25
100
AcDbLine
 10
395.241574
 20
255.691846
 30
0.0
 11
397.241575
 21
257.691844
 31
0.0
  0
LINE
  5
299
330
1F
100
AcDbEntity
  8
0
  6
SLD-Durchgehend
 62
   250
420
  1644836
370
    25
100
AcDbLine
 10
395.241577
 20
259.934486
 30
0.0
 11
397.241578
 21
261.934485
 31
0.0
  0
LINE
  5
29A
330
1F
100
AcDbEntity
  8
0
  6
SLD-Durchgehend
 62
   250
420
  1644836
370
    25
100
AcDbLine
 10
395.241579
 20
264.177127
 30
0.0
 11
397.241581
 21
266.177126
 31
0.0
  0
LINE
  5
29B
330
1F
100
AcDbEntity
  8
0
  6
SLD-Durchgehend
 62
   250
420
  1644836
370
    25
100
AcDbLine
 10
395.241582
 20
268.419768
 30
0.0
 11
397.241583
 21
270.419766
 31
0.0
  0
LINE
  5
29C
330
1F
100
AcDbEntity
  8
0
  6
SLD-Durchgehend
 62
   250
420
  1644836
370
    25
100
AcDbLine
 10
395.241585
 20
272.662408
 30
0.0
 11
397.241586
 21
274.662407
 31
0.0
  0
LINE
  5
29D
330
1F
100
AcDbEntity
  8
0
  6
SLD-Durchgehend
 62
   250
420
  1644836
370
    25
100
AcDbLine
 10
395.241588
 20
276.905049
 30
0.0
 11
397.241589
 21
278.905047
 31
0.0
  0
LINE
  5
29E
330
1F
100
AcDbEntity
  8
0
  6
SLD-Durchgehend
 62
   250
420
  1644836
370
    25
100
AcDbLine
 10
395.24159
 20
281.147689
 30
0.0
 11
397.241592
 21
283.147688
 31
0.0
  0
LINE
  5
29F
330
1F
100
AcDbEntity
  8
0
  6
SLD-Durchgehend
 62
   250
420
  1644836
370
    25
100
AcDbLine
 10
395.241593
 20
285.39033
 30
0.0
 11
397.241595
 21
287.390329
 31
0.0
  0
LINE
  5
2A0
330
1F
100
AcDbEntity
  8
0
  6
SLD-Durchgehend
 62
   250
420
  1644836
370
    25
100
AcDbLine
 10
395.098747
 20
289.490122
 30
0.0
 11
396.764515
 21
291.155888
 31
0.0
  0
LINE
  5
2A1
330
1F
100
AcDbEntity
  8
0
  6
SLD-Durchgehend
 62
   250
420
  1644836
370
    25
100
AcDbLine
 10
393.999257
 20
292.633271
 30
0.0
 11
395.461334
 21
294.095346
 31
0.0
  0
LINE
  5
2A2
330
1F
100
AcDbEntity
  8
0
  6
SLD-Durchgehend
 62
   250
420
  1644836
370
    25
100
AcDbLine
 10
392.154771
 20
295.031426
 30
0.0
 11
393.569273
 21
296.445926
 31
0.0
  0
LINE
  5
2A3
330
1F
100
AcDbEntity
  8
0
  6
SLD-Durchgehend
 62
   250
420
  1644836
370
    25
100
AcDbLine
 10
389.658363
 20
296.777658
 30
0.0
 11
391.138034
 21
298.257328
 31
0.0
  0
LINE
  5
2A4
330
1F
100
AcDbEntity
  8
0
  6
SLD-Durchgehend
 62
   250
420
  1644836
370
    25
100
AcDbLine
 10
386.379074
 20
297.741012
 30
0.0
 11
388.098853
 21
299.460789
 31
0.0
  0
LINE
  5
2A5
330
1F
100
AcDbEntity
  8
0
  6
SLD-Durchgehend
 62
   250
420
  1644836
370
    25
100
AcDbLine
 10
382.201334
 20
297.805916
 30
0.0
 11
384.201338
 21
299.805916
 31
0.0
  0
LINE
  5
2A6
330
1F
100
AcDbEntity
  8
0
  6
SLD-Durchgehend
 62
   250
420
  1644836
370
    25
100
AcDbLine
 10
377.958691
 20
297.805916
 30
0.0
 11
379.958697
 21
299.805919
 31
0.0
  0
LINE
  5
2A7
330
1F
100
AcDbEntity
  8
0
  6
SLD-Durchgehend
 62
   250
420
  1644836
370
    25
100
AcDbLine
 10
373.716047
 20
297.805916
 30
0.0
 11
375.716056
 21
299.805922
 31
0.0
  0
LINE
  5
2A8
330
1F
100
AcDbEntity
  8
0
  6
SLD-Durchgehend
 62
   250
420
  1644836
370
    25
100
AcDbLine
 10
369.473404
 20
297.805916
 30
0.0
 11
371.473416
 21
299.805925
 31
0.0
  0
LINE
  5
2A9
330
1F
100
AcDbEntity
  8
0
  6
SLD-Durchgehend
 62
   250
420
  1644836
370
    25
100
AcDbLine
 10
365.23076
 20
297.805916
 30
0.0
 11
367.230775
 21
299.805928
 31
0.0
  0
LINE
  5
2AA
330
1F
100
AcDbEntity
  8
0
  6
SLD-Durchgehend
 62
   250
420
  1644836
370
    25
100
AcDbLine
 10
360.988117
 20
297.805916
 30
0.0
 11
362.988134
 21
299.80593
 31
0.0
  0
LINE
  5
2AB
330
1F
100
AcDbEntity
  8
0
  6
SLD-Durchgehend
 62
   250
420
  1644836
370
    25
100
AcDbLine
 10
356.745473
 20
297.805916
 30
0.0
 11
358.745493
 21
299.805933
 31
0.0
  0
LINE
  5
2AC
330
1F
100
AcDbEntity
  8
0
  6
SLD-Durchgehend
 62
   250
420
  1644836
370
    25
100
AcDbLine
 10
353.491602
 20
298.794686
 30
0.0
 11
354.502853
 21
299.805936
 31
0.0
  0
LINE
  5
2AD
330
1F
100
AcDbEntity
  8
0
  6
SLD-Durchgehend
 62
   250
420
  1644836
370
    50
100
AcDbLine
 10
405.491379
 20
201.305901
 30
0.0
 11
387.991538
 21
201.305914
 31
0.0
  0
LINE
  5
2AE
330
1F
100
AcDbEntity
  8
0
  6
SLD-Durchgehend
 62
   250
420
  1644836
370
    50
100
AcDbLine
 10
267.491379
 20
311.305744
 30
0.0
 11
272.991379
 21
311.305744
 31
0.0
  0
LINE
  5
2AF
330
1F
100
AcDbEntity
  8
0
  6
SLD-Durchgehend
 62
   250
420
  1644836
370
    50
100
AcDbLine
 10
405.491379
 20
125.305903
 30
0.0
 11
353.4915
 21
125.305937
 31
0.0
  0
LINE
  5
2B0
330
1F
100
AcDbEntity
  8
0
  6
SLD-Durchgehend
 62
   250
420
  1644836
370
    50
100
AcDbLine
 10
439.4913789983
 20
311.305744
 30
0.0
 11
439.4913789983
 21
306.305744
 31
0.0
  0
LINE
  5
2B1
330
1F
100
AcDbEntity
  8
0
  6
SLD-Durchgehend
 62
   250
420
  1644836
370
    50
100
AcDbLine
 10
421.491546
 20
201.305892
 30
0.0
 11
410.991538
 21
201.305899
 31
0.0
  0
LINE
  5
2B2
330
1F
100
AcDbEntity
  8
0
  6
SLD-Durchgehend
 62
   250
420
  1644836
370
    50
100
AcDbLine
 10
378.491538
 20
201.30592
 30
0.0
 11
378.491508
 21
154.30592
 31
0.0
  0
LINE
  5
2B3
330
1F
100
AcDbEntity
  8
0
  6
SLD-Durchgehend
 62
   250
420
  1644836
370
    50
100
AcDbLine
 10
375.491506
 20
151.305922
 30
0.0
 11
353.491506
 21
151.305937
 31
0.0
  0
LINE
  5
2B4
330
1F
100
AcDbEntity
  8
0
  6
SLD-Durchgehend
 62
   250
420
  1644836
370
    50
100
AcDbLine
 10
375.491506
 20
151.305922
 30
0.0
 11
375.491528
 21
186.305922
 31
0.0
  0
LINE
  5
2B5
330
1F
100
AcDbEntity
  8
0
  6
SLD-Durchgehend
 62
   250
420
  1644836
370
    50
100
AcDbLine
 10
387.991538
 20
201.305914
 30
0.0
 11
378.491538
 21
201.30592
 31
0.0
  0
LINE
  5
2B6
330
1F
100
AcDbEntity
  8
0
  6
SLD-Durchgehend
 62
   250
420
  1644836
370
    50
100
AcDbLine
 10
405.491377
 20
125.305914
 30
0.0
 11
408.491379
 21
128.305912
 31
0.0
  0
LINE
  5
2B7
330
1F
100
AcDbEntity
  8
0
  6
SLD-Durchgehend
 62
   250
420
  1644836
370
    50
100
AcDbLine
 10
375.491506
 20
151.305922
 30
0.0
 11
378.491508
 21
154.30592
 31
0.0
  0
LINE
  5
2B8
330
1F
100
AcDbEntity
  8
0
  6
SLD-Durchgehend
 62
   250
420
  1644836
370
    50
100
AcDbLine
 10
421.4915163119
 20
204.305894
 30
0.0
 11
384.49154
 21
204.305916
 31
0.0
  0
LINE
  5
2B9
330
1F
100
AcDbEntity
  8
0
  6
SLD-Durchgehend
 62
   250
420
  1644836
370
    50
100
AcDbLine
 10
331.491379
 20
186.305744
 30
0.0
 11
331.491379
 21
201.305744
 31
0.0
  0
LINE
  5
2BA
330
1F
100
AcDbEntity
  8
0
  6
SLD-Durchgehend
 62
   250
420
  1644836
370
    50
100
AcDbLine
 10
375.491528
 20
186.305922
 30
0.0
 11
375.491538
 21
201.305922
 31
0.0
  0
LINE
  5
2BB
330
1F
100
AcDbEntity
  8
0
  6
SLD-Durchgehend
 62
   250
420
  1644836
370
    50
100
AcDbLine
 10
325.491379
 20
207.3057519587
 30
0.0
 11
325.491379
 21
268.305744
 31
0.0
  0
LINE
  5
2BC
330
1F
100
AcDbEntity
  8
0
  6
SLD-Durchgehend
 62
   250
420
  1644836
370
    50
100
AcDbLine
 10
381.491542
 20
207.3059210996
 30
0.0
 11
381.491582
 21
268.305918
 31
0.0
  0
LINE
  5
2BD
330
1F
100
AcDbEntity
  8
0
  6
SLD-Durchgehend
 62
   250
420
  1644836
370
    50
100
AcDbLine
 10
328.4913799948
 20
204.305744
 30
0.0
 11
378.465337
 21
204.305744
 31
0.0
  0
LINE
  5
2BE
330
1F
100
AcDbEntity
  8
0
  6
SLD-Durchgehend
 62
   250
420
  1644836
370
    50
100
AcDbLine
 10
311.741379
 20
227.805744
 30
0.0
 11
322.491379
 21
227.805744
 31
0.0
  0
LINE
  5
2BF
330
1F
100
AcDbEntity
  8
0
  6
SLD-Durchgehend
 62
   250
420
  1644836
370
    50
100
AcDbLine
 10
430.491605
 20
291.305744
 30
0.0
 11
431.991605
 21
291.305744
 31
0.0
  0
LINE
  5
2C0
330
1F
100
AcDbEntity
  8
0
  6
SLD-Durchgehend
 62
   250
420
  1644836
370
    50
100
AcDbLine
 10
382.2415856561
 20
275.305918
 30
0.0
 11
353.491582
 21
275.305918
 31
0.0
  0
LINE
  5
2C1
330
1F
100
AcDbEntity
  8
0
  6
SLD-Durchgehend
 62
   250
420
  1644836
370
    50
100
AcDbLine
 10
431.991616
 20
308.373062
 30
0.0
 11
431.991605
 21
291.305744
 31
0.0
  0
LINE
  5
2C2
330
1F
100
AcDbEntity
  8
0
  6
SLD-Durchgehend
 62
   250
420
  1644836
370
    50
100
AcDbLine
 10
438.9913789983
 20
306.305744
 30
0.0
 11
439.4913789983
 21
306.305744
 31
0.0
  0
LINE
  5
2C3
330
1F
100
AcDbEntity
  8
0
  6
SLD-Durchgehend
 62
   250
420
  1644836
370
    50
100
AcDbLine
 10
435.9913789983
 20
303.305744
 30
0.0
 11
435.9913789983
 21
292.6358742087
 31
0.0
  0
LINE
  5
2C4
330
1F
100
AcDbEntity
  8
0
  6
SLD-Durchgehend
 62
   250
420
  1644836
370
    50
100
AcDbLine
 10
433.9913789983
 20
311.305744
 30
0.0
 11
431.9916159983
 21
308.305744
 31
0.0
  0
LINE
  5
2C5
330
1F
100
AcDbEntity
  8
0
  6
SLD-Durchgehend
 62
   250
420
  1644836
370
    50
100
AcDbLine
 10
267.491379
 20
311.305744
 30
0.0
 11
267.491379
 21
306.305744
 31
0.0
  0
LINE
  5
2C6
330
1F
100
AcDbEntity
  8
0
  6
SLD-Durchgehend
 62
   250
420
  1644836
370
    50
100
AcDbLine
 10
270.991379
 20
303.305744
 30
0.0
 11
270.991379
 21
292.635875
 31
0.0
  0
LINE
  5
2C7
330
1F
100
AcDbEntity
  8
0
  6
SLD-Durchgehend
 62
   250
420
  1644836
370
    50
100
AcDbLine
 10
274.991143
 20
308.373062
 30
0.0
 11
274.991154
 21
291.305744
 31
0.0
  0
LINE
  5
2C8
330
1F
100
AcDbEntity
  8
0
  6
SLD-Durchgehend
 62
   250
420
  1644836
370
    50
100
AcDbLine
 10
272.991379
 20
311.305744
 30
0.0
 11
274.991143
 21
308.305744
 31
0.0
  0
LINE
  5
2C9
330
1F
100
AcDbEntity
  8
0
  6
SLD-Durchgehend
 62
   250
420
  1644836
370
    50
100
AcDbLine
 10
276.491379
 20
291.305744
 30
0.0
 11
276.491154
 21
291.305744
 31
0.0
  0
LINE
  5
2CA
330
1F
100
AcDbEntity
  8
0
  6
SLD-Durchgehend
 62
   250
420
  1644836
370
    50
100
AcDbLine
 10
276.491154
 20
291.305744
 30
0.0
 11
274.991154
 21
291.305744
 31
0.0
  0
LINE
  5
2CB
330
1F
100
AcDbEntity
  8
0
  6
SLD-Durchgehend
 62
   250
420
  1644836
370
    50
100
AcDbLine
 10
433.9913789983
 20
311.305744
 30
0.0
 11
439.4913789983
 21
311.305744
 31
0.0
  0
LINE
  5
2CC
330
1F
100
AcDbEntity
  8
0
  6
SLD-Durchgehend
 62
   250
420
  1644836
370
    50
100
AcDbLine
 10
430.180848
 20
309.54758
 30
0.0
 11
427.181992
 21
309.547582
 31
0.0
  0
LINE
  5
2CD
330
1F
100
AcDbEntity
  8
0
  6
SLD-Durchgehend
 62
   250
420
  1644836
370
    50
100
AcDbLine
 10
431.4913906477
 20
297.5466169548
 30
0.0
 11
431.491387
 21
291.528599
 31
0.0
  0
LINE
  5
2CE
330
1F
100
AcDbEntity
  8
0
  6
SLD-Durchgehend
 62
   250
420
  1644836
370
    50
100
AcDbLine
 10
396.319978
 20
292.417795
 30
0.0
 11
423.991379
 21
292.417795
 31
0.0
  0
LINE
  5
2CF
330
1F
100
AcDbEntity
  8
0
  6
SLD-Durchgehend
 62
   250
420
  1644836
370
    50
100
AcDbLine
 10
427.181798
 20
309.546588
 30
0.0
 11
425.8673322051
 21
302.8447060898
 31
0.0
  0
LINE
  5
2D0
330
1F
100
AcDbEntity
  8
0
  6
SLD-Durchgehend
 62
   250
420
  1644836
370
    50
100
AcDbLine
 10
430.488582
 20
284.085241
 30
0.0
 11
430.488582
 21
278.806729
 31
0.0
  0
LINE
  5
2D1
330
1F
100
AcDbEntity
  8
0
  6
SLD-Durchgehend
 62
   250
420
  1644836
370
    50
100
AcDbLine
 10
426.1126578386
 20
302.546589
 30
0.0
 11
426.713705
 21
303.587632
 31
0.0
  0
LINE
  5
2D2
330
1F
100
AcDbEntity
  8
0
  6
SLD-Durchgehend
 62
   250
420
  1644836
370
    50
100
AcDbLine
 10
426.713705
 20
303.587632
 30
0.0
 11
427.597199
 21
303.587631
 31
0.0
  0
LINE
  5
2D3
330
1F
100
AcDbEntity
  8
0
  6
SLD-Durchgehend
 62
   250
420
  1644836
370
    50
100
AcDbLine
 10
427.597199
 20
303.587631
 30
0.0
 11
425.888536
 21
296.899514
 31
0.0
  0
LINE
  5
2D4
330
1F
100
AcDbEntity
  8
0
  6
SLD-Durchgehend
 62
   250
420
  1644836
370
    50
100
AcDbLine
 10
426.1307555851
 20
296.5876320675
 30
0.0
 11
426.6980870869
 21
297.5702760675
 31
0.0
  0
LINE
  5
2D5
330
1F
100
AcDbEntity
  8
0
  6
SLD-Durchgehend
 62
   250
420
  1644836
370
    50
100
AcDbLine
 10
426.6980870869
 20
297.5702760675
 30
0.0
 11
427.2260310869
 21
297.5702760675
 31
0.0
  0
LINE
  5
2D6
330
1F
100
AcDbEntity
  8
0
  6
SLD-Durchgehend
 62
   250
420
  1644836
370
    50
100
AcDbLine
 10
427.2260310869
 20
297.5702760675
 30
0.0
 11
425.8811410869
 21
291.8538430675
 31
0.0
  0
LINE
  5
2D7
330
1F
100
AcDbEntity
  8
0
  6
SLD-Durchgehend
 62
   250
420
  1644836
370
    50
100
AcDbLine
 10
427.428479928
 20
291.5465879416
 30
0.0
 11
431.491373928
 21
291.5465849416
 31
0.0
  0
LINE
  5
2D8
330
1F
100
AcDbEntity
  8
0
  6
SLD-Durchgehend
 62
   250
420
  1644836
370
    50
100
AcDbLine
 10
426.1244964262
 20
291.5465889416
 30
0.0
 11
426.927611928
 21
292.9376229416
 31
0.0
  0
LINE
  5
2D9
330
1F
100
AcDbEntity
  8
0
  6
SLD-Durchgehend
 62
   250
420
  1644836
370
    50
100
AcDbLine
 10
426.927611928
 20
292.9376229416
 30
0.0
 11
427.428480928
 21
292.9376229416
 31
0.0
  0
LINE
  5
2DA
330
1F
100
AcDbEntity
  8
0
  6
SLD-Durchgehend
 62
   250
420
  1644836
370
    50
100
AcDbLine
 10
427.428480928
 20
292.9376229416
 30
0.0
 11
427.428479928
 21
291.5465879416
 31
0.0
  0
LINE
  5
2DB
330
1F
100
AcDbEntity
  8
0
  6
SLD-Durchgehend
 62
   250
420
  1644836
370
    50
100
AcDbLine
 10
588.220542
 20
321.861951
 30
0.0
 11
520.220542
 21
321.861951
 31
0.0
  0
LINE
  5
2DC
330
1F
100
AcDbEntity
  8
0
  6
SLD-Durchgehend
 62
   250
420
  1644836
370
    50
100
AcDbLine
 10
276.801911
 20
309.54758
 30
0.0
 11
279.800766
 21
309.547582
 31
0.0
  0
LINE
  5
2DD
330
1F
100
AcDbEntity
  8
0
  6
SLD-Durchgehend
 62
   250
420
  1644836
370
    50
100
AcDbLine
 10
275.4913673523
 20
297.5466169548
 30
0.0
 11
275.491372
 21
291.528599
 31
0.0
  0
LINE
  5
2DE
330
1F
100
AcDbEntity
  8
0
  6
SLD-Durchgehend
 62
   250
420
  1644836
370
    50
100
AcDbLine
 10
279.800961
 20
309.546588
 30
0.0
 11
281.1154267949
 21
302.8447060898
 31
0.0
  0
LINE
  5
2DF
330
1F
100
AcDbEntity
  8
0
  6
SLD-Durchgehend
 62
   250
420
  1644836
370
    50
100
AcDbLine
 10
280.8701011614
 20
302.546589
 30
0.0
 11
280.269054
 21
303.587632
 31
0.0
  0
LINE
  5
2E0
330
1F
100
AcDbEntity
  8
0
  6
SLD-Durchgehend
 62
   250
420
  1644836
370
    50
100
AcDbLine
 10
280.269054
 20
303.587632
 30
0.0
 11
279.38556
 21
303.587631
 31
0.0
  0
LINE
  5
2E1
330
1F
100
AcDbEntity
  8
0
  6
SLD-Durchgehend
 62
   250
420
  1644836
370
    50
100
AcDbLine
 10
279.38556
 20
303.587631
 30
0.0
 11
281.094223
 21
296.899514
 31
0.0
  0
LINE
  5
2E2
330
1F
100
AcDbEntity
  8
0
  6
SLD-Durchgehend
 62
   250
420
  1644836
370
    50
100
AcDbLine
 10
280.8520028843
 20
296.587631703
 30
0.0
 11
280.2846723825
 21
297.570275703
 31
0.0
  0
LINE
  5
2E3
330
1F
100
AcDbEntity
  8
0
  6
SLD-Durchgehend
 62
   250
420
  1644836
370
    50
100
AcDbLine
 10
280.2846723825
 20
297.570275703
 30
0.0
 11
279.7567283825
 21
297.570275703
 31
0.0
  0
LINE
  5
2E4
330
1F
100
AcDbEntity
  8
0
  6
SLD-Durchgehend
 62
   250
420
  1644836
370
    50
100
AcDbLine
 10
279.7567283825
 20
297.570275703
 30
0.0
 11
281.1016183825
 21
291.853842703
 31
0.0
  0
LINE
  5
2E5
330
1F
100
AcDbEntity
  8
0
  6
SLD-Durchgehend
 62
   250
420
  1644836
370
    50
100
AcDbLine
 10
279.5542795414
 20
291.5465875771
 30
0.0
 11
275.4913855414
 21
291.5465845771
 31
0.0
  0
LINE
  5
2E6
330
1F
100
AcDbEntity
  8
0
  6
SLD-Durchgehend
 62
   250
420
  1644836
370
    50
100
AcDbLine
 10
280.8582630432
 20
291.5465885771
 30
0.0
 11
280.0551475414
 21
292.9376225771
 31
0.0
  0
LINE
  5
2E7
330
1F
100
AcDbEntity
  8
0
  6
SLD-Durchgehend
 62
   250
420
  1644836
370
    50
100
AcDbLine
 10
280.0551475414
 20
292.9376225771
 30
0.0
 11
279.5542785414
 21
292.9376225771
 31
0.0
  0
LINE
  5
2E8
330
1F
100
AcDbEntity
  8
0
  6
SLD-Durchgehend
 62
   250
420
  1644836
370
    50
100
AcDbLine
 10
279.5542785414
 20
292.9376225771
 30
0.0
 11
279.5542795414
 21
291.5465875771
 31
0.0
  0
LINE
  5
2E9
330
1F
100
AcDbEntity
  8
0
  6
SLD-Durchgehend
 62
   250
420
  1644836
370
    50
100
AcDbLine
 10
520.220542
 20
321.861951
 30
0.0
 11
520.220542
 21
185.861951
 31
0.0
  0
LINE
  5
2EA
330
1F
100
AcDbEntity
  8
0
  6
SLD-Durchgehend
 62
   250
420
  1644836
370
    50
100
AcDbLine
 10
520.220542
 20
185.861951
 30
0.0
 11
588.220542
 21
185.861951
 31
0.0
  0
LINE
  5
2EB
330
1F
100
AcDbEntity
  8
0
  6
SLD-Durchgehend
 62
   250
420
  1644836
370
    50
100
AcDbLine
 10
581.220542
 20
258.861951
 30
0.0
 11
533.720542
 21
258.861951
 31
0.0
  0
LINE
  5
2EC
330
1F
100
AcDbEntity
  8
0
  6
SLD-Durchgehend
 62
   250
420
  1644836
370
    50
100
AcDbLine
 10
533.720542
 20
258.861951
 30
0.0
 11
533.720542
 21
268.861951
 31
0.0
  0
LINE
  5
2ED
330
1F
100
AcDbEntity
  8
0
  6
SLD-Durchgehend
 62
   250
420
  1644836
370
    50
100
AcDbLine
 10
533.720542
 20
268.861951
 30
0.0
 11
581.220542
 21
268.861951
 31
0.0
  0
LINE
  5
2EE
330
1F
100
AcDbEntity
  8
0
  6
SLD-Durchgehend
 62
   250
420
  1644836
370
    50
100
AcDbLine
 10
581.220542
 20
268.861951
 30
0.0
 11
581.220542
 21
258.861951
 31
0.0
  0
LINE
  5
2EF
330
1F
100
AcDbEntity
  8
0
  6
SLD-Durchgehend
 62
   250
420
  1644836
370
    50
100
AcDbLine
 10
533.720542
 20
278.861951
 30
0.0
 11
581.220542
 21
278.861951
 31
0.0
  0
LINE
  5
2F0
330
1F
100
AcDbEntity
  8
0
  6
SLD-Durchgehend
 62
   250
420
  1644836
370
    50
100
AcDbLine
 10
581.220542
 20
278.861951
 30
0.0
 11
581.220542
 21
288.861951
 31
0.0
  0
LINE
  5
2F1
330
1F
100
AcDbEntity
  8
0
  6
SLD-Durchgehend
 62
   250
420
  1644836
370
    50
100
AcDbLine
 10
581.220542
 20
288.861951
 30
0.0
 11
533.720542
 21
288.861951
 31
0.0
  0
LINE
  5
2F2
330
1F
100
AcDbEntity
  8
0
  6
SLD-Durchgehend
 62
   250
420
  1644836
370
    50
100
AcDbLine
 10
533.720542
 20
288.861951
 30
0.0
 11
533.720542
 21
278.861951
 31
0.0
  0
LINE
  5
2F3
330
1F
100
AcDbEntity
  8
0
  6
SLD-Durchgehend
 62
   250
420
  1644836
370
    50
100
AcDbLine
 10
533.720542
 20
298.861951
 30
0.0
 11
581.220542
 21
298.861951
 31
0.0
  0
LINE
  5
2F4
330
1F
100
AcDbEntity
  8
0
  6
SLD-Durchgehend
 62
   250
420
  1644836
370
    50
100
AcDbLine
 10
581.220542
 20
298.861951
 30
0.0
 11
581.220542
 21
308.861951
 31
0.0
  0
LINE
  5
2F5
330
1F
100
AcDbEntity
  8
0
  6
SLD-Durchgehend
 62
   250
420
  1644836
370
    50
100
AcDbLine
 10
581.220542
 20
308.861951
 30
0.0
 11
533.720542
 21
308.861951
 31
0.0
  0
LINE
  5
2F6
330
1F
100
AcDbEntity
  8
0
  6
SLD-Durchgehend
 62
   250
420
  1644836
370
    50
100
AcDbLine
 10
533.720542
 20
308.861951
 30
0.0
 11
533.720542
 21
298.861951
 31
0.0
  0
LINE
  5
2F7
330
1F
100
AcDbEntity
  8
0
  6
SLD-Durchgehend
 62
   250
420
  1644836
370
    50
100
AcDbLine
 10
581.220542
 20
248.860559
 30
0.0
 11
533.719448
 21
248.860811
 31
0.0
  0
LINE
  5
2F8
330
1F
100
AcDbEntity
  8
0
  6
SLD-Durchgehend
 62
   250
420
  1644836
370
    50
100
AcDbLine
 10
533.719448
 20
248.860811
 30
0.0
 11
533.719395
 21
238.860811
 31
0.0
  0
LINE
  5
2F9
330
1F
100
AcDbEntity
  8
0
  6
SLD-Durchgehend
 62
   250
420
  1644836
370
    50
100
AcDbLine
 10
273.491379
 20
288.305744
 30
0.0
 11
273.491379
 21
213.305744
 31
0.0
  0
LINE
  5
2FA
330
1F
100
AcDbEntity
  8
0
  6
SLD-Durchgehend
 62
   250
420
  1644836
370
    50
100
AcDbLine
 10
276.491379
 20
291.305744
 30
0.0
 11
276.491379
 21
213.305744
 31
0.0
  0
LINE
  5
2FB
330
1F
100
AcDbEntity
  8
0
  6
SLD-Durchgehend
 62
   250
420
  1644836
370
    50
100
AcDbLine
 10
433.4916025474
 20
288.3057440539
 30
0.0
 11
433.491546
 21
213.3058862507
 31
0.0
  0
LINE
  5
2FC
330
1F
100
AcDbEntity
  8
0
  6
SLD-Durchgehend
 62
   250
420
  1644836
370
    50
100
AcDbLine
 10
430.491605
 20
291.305744
 30
0.0
 11
430.491546
 21
213.3058881881
 31
0.0
  0
LINE
  5
2FD
330
1F
100
AcDbEntity
  8
0
  6
SLD-Durchgehend
 62
   250
420
  1644836
370
    50
100
AcDbLine
 10
533.719395
 20
238.860811
 30
0.0
 11
570.053318
 21
238.860618
 31
0.0
  0
LINE
  5
2FE
330
1F
100
AcDbEntity
  8
0
  6
SLD-Durchgehend
 62
   250
420
  1644836
370
    50
100
AcDbLine
 10
533.719342
 20
228.860811
 30
0.0
 11
566.771577
 21
228.860636
 31
0.0
  0
LINE
  5
2FF
330
1F
100
AcDbEntity
  8
0
  6
SLD-Durchgehend
 62
   250
420
  1644836
370
    50
100
AcDbLine
 10
533.719288
 20
218.860811
 30
0.0
 11
533.719342
 21
228.860811
 31
0.0
  0
LINE
  5
300
330
1F
100
AcDbEntity
  8
0
  6
SLD-Durchgehend
 62
   250
420
  1644836
370
    50
100
AcDbLine
 10
533.719235
 20
208.860811
 30
0.0
 11
566.719182
 21
208.860636
 31
0.0
  0
LINE
  5
301
330
1F
100
AcDbEntity
  8
0
  6
SLD-Durchgehend
 62
   250
420
  1644836
370
    50
100
AcDbLine
 10
533.719182
 20
198.860811
 30
0.0
 11
533.719235
 21
208.860811
 31
0.0
  0
LINE
  5
302
330
1F
100
AcDbEntity
  8
0
  6
SLD-Durchgehend
 62
   250
420
  1644836
370
    50
100
AcDbLine
 10
588.220718
 20
321.862126
 30
0.0
 11
656.220718
 21
321.862082
 31
0.0
  0
LINE
  5
303
330
1F
100
AcDbEntity
  8
0
  6
SLD-Punktstrich
 62
   250
420
  1644836
370
    25
100
AcDbLine
 10
353.491379
 20
268.805744
 30
0.0
 11
353.491379
 21
125.305744
 31
0.0
  0
LINE
  5
304
330
1F
100
AcDbEntity
  8
0
  6
SLD-Durchgehend
 62
   250
420
  1644836
370
    50
100
AcDbLine
 10
656.220718
 20
321.862082
 30
0.0
 11
656.220629
 21
185.862082
 31
0.0
  0
LINE
  5
305
330
1F
100
AcDbEntity
  8
0
  6
SLD-Durchgehend
 62
   250
420
  1644836
370
    50
100
AcDbLine
 10
656.220629
 20
185.862082
 30
0.0
 11
588.220629
 21
185.862126
 31
0.0
  0
LINE
  5
306
330
1F
100
AcDbEntity
  8
0
  6
SLD-Durchgehend
 62
   250
420
  1644836
370
    50
100
AcDbLine
 10
595.220676
 20
258.862122
 30
0.0
 11
642.720676
 21
258.862091
 31
0.0
  0
LINE
  5
307
330
1F
100
AcDbEntity
  8
0
  6
SLD-Durchgehend
 62
   250
420
  1644836
370
    50
100
AcDbLine
 10
642.720676
 20
258.862091
 30
0.0
 11
642.720683
 21
268.862091
 31
0.0
  0
LINE
  5
308
330
1F
100
AcDbEntity
  8
0
  6
SLD-Durchgehend
 62
   250
420
  1644836
370
    50
100
AcDbLine
 10
642.720683
 20
268.862091
 30
0.0
 11
595.220683
 21
268.862122
 31
0.0
  0
LINE
  5
309
330
1F
100
AcDbEntity
  8
0
  6
SLD-Durchgehend
 62
   250
420
  1644836
370
    50
100
AcDbLine
 10
595.220683
 20
268.862122
 30
0.0
 11
595.220676
 21
258.862122
 31
0.0
  0
LINE
  5
30A
330
1F
100
AcDbEntity
  8
0
  6
SLD-Durchgehend
 62
   250
420
  1644836
370
    50
100
AcDbLine
 10
642.72069
 20
278.862091
 30
0.0
 11
595.22069
 21
278.862122
 31
0.0
  0
LINE
  5
30B
330
1F
100
AcDbEntity
  8
0
  6
SLD-Durchgehend
 62
   250
420
  1644836
370
    50
100
AcDbLine
 10
595.22069
 20
278.862122
 30
0.0
 11
595.220696
 21
288.862122
 31
0.0
  0
LINE
  5
30C
330
1F
100
AcDbEntity
  8
0
  6
SLD-Durchgehend
 62
   250
420
  1644836
370
    50
100
AcDbLine
 10
595.220696
 20
288.862122
 30
0.0
 11
642.720696
 21
288.862091
 31
0.0
  0
LINE
  5
30D
330
1F
100
AcDbEntity
  8
0
  6
SLD-Durchgehend
 62
   250
420
  1644836
370
    50
100
AcDbLine
 10
642.720696
 20
288.862091
 30
0.0
 11
642.72069
 21
278.862091
 31
0.0
  0
LINE
  5
30E
330
1F
100
AcDbEntity
  8
0
  6
SLD-Durchgehend
 62
   250
420
  1644836
370
    50
100
AcDbLine
 10
642.720703
 20
298.862091
 30
0.0
 11
595.220703
 21
298.862122
 31
0.0
  0
LINE
  5
30F
330
1F
100
AcDbEntity
  8
0
  6
SLD-Durchgehend
 62
   250
420
  1644836
370
    50
100
AcDbLine
 10
595.220703
 20
298.862122
 30
0.0
 11
595.220709
 21
308.862122
 31
0.0
  0
LINE
  5
310
330
1F
100
AcDbEntity
  8
0
  6
SLD-Durchgehend
 62
   250
420
  1644836
370
    50
100
AcDbLine
 10
595.220709
 20
308.862122
 30
0.0
 11
642.720709
 21
308.862091
 31
0.0
  0
LINE
  5
311
330
1F
100
AcDbEntity
  8
0
  6
SLD-Durchgehend
 62
   250
420
  1644836
370
    50
100
AcDbLine
 10
642.720709
 20
308.862091
 30
0.0
 11
642.720703
 21
298.862091
 31
0.0
  0
LINE
  5
312
330
1F
100
AcDbEntity
  8
0
  6
SLD-Durchgehend
 62
   250
420
  1644836
370
    50
100
AcDbLine
 10
595.22067
 20
248.86073
 30
0.0
 11
642.721764
 21
248.860951
 31
0.0
  0
LINE
  5
313
330
1F
100
AcDbEntity
  8
0
  6
SLD-Durchgehend
 62
   250
420
  1644836
370
    50
100
AcDbLine
 10
642.721764
 20
248.860951
 30
0.0
 11
642.72181
 21
238.860951
 31
0.0
  0
LINE
  5
314
330
1F
100
AcDbEntity
  8
0
  6
SLD-Durchgehend
 62
   250
420
  1644836
370
    50
100
AcDbLine
 10
642.72181
 20
238.860951
 30
0.0
 11
617.544831
 21
238.860834
 31
0.0
  0
LINE
  5
315
330
1F
100
AcDbEntity
  8
0
  6
SLD-Durchgehend
 62
   250
420
  1644836
370
    50
100
AcDbLine
 10
642.721857
 20
228.860951
 30
0.0
 11
619.683434
 21
228.860844
 31
0.0
  0
LINE
  5
316
330
1F
100
AcDbEntity
  8
0
  6
SLD-Durchgehend
 62
   250
420
  1644836
370
    50
100
AcDbLine
 10
595.221904
 20
218.86073
 30
0.0
 11
619.719182
 21
218.860844
 31
0.0
  0
LINE
  5
317
330
1F
100
AcDbEntity
  8
0
  6
SLD-Durchgehend
 62
   250
420
  1644836
370
    50
100
AcDbLine
 10
642.721904
 20
218.860951
 30
0.0
 11
642.721857
 21
228.860951
 31
0.0
  0
LINE
  5
318
330
1F
100
AcDbEntity
  8
0
  6
SLD-Durchgehend
 62
   250
420
  1644836
370
    50
100
AcDbLine
 10
642.72195
 20
208.860951
 30
0.0
 11
619.719182
 21
208.860844
 31
0.0
  0
LINE
  5
319
330
1F
100
AcDbEntity
  8
0
  6
SLD-Durchgehend
 62
   250
420
  1644836
370
    50
100
AcDbLine
 10
595.221997
 20
198.86073
 30
0.0
 11
619.719182
 21
198.860844
 31
0.0
  0
LINE
  5
31A
330
1F
100
AcDbEntity
  8
0
  6
SLD-Durchgehend
 62
   250
420
  1644836
370
    50
100
AcDbLine
 10
642.721997
 20
198.860951
 30
0.0
 11
642.72195
 21
208.860951
 31
0.0
  0
LINE
  5
31B
330
1F
100
AcDbEntity
  8
0
  6
SLD-Durchgehend
 62
   250
420
  1644836
370
    50
100
AcDbLine
 10
566.719182
 20
198.860636
 30
0.0
 11
533.719182
 21
198.860811
 31
0.0
  0
LINE
  5
31C
330
1F
100
AcDbEntity
  8
0
  6
SLD-Durchgehend
 62
   250
420
  1644836
370
    50
100
AcDbLine
 10
619.719182
 20
198.860844
 30
0.0
 11
642.721997
 21
198.860951
 31
0.0
  0
LINE
  5
31D
330
1F
100
AcDbEntity
  8
0
  6
SLD-Durchgehend
 62
   250
420
  1644836
370
    50
100
AcDbLine
 10
619.719182
 20
208.860844
 30
0.0
 11
595.22195
 21
208.86073
 31
0.0
  0
LINE
  5
31E
330
1F
100
AcDbEntity
  8
0
  6
SLD-Durchgehend
 62
   250
420
  1644836
370
    50
100
AcDbLine
 10
566.719182
 20
208.860636
 30
0.0
 11
581.220542
 21
208.860559
 31
0.0
  0
LINE
  5
31F
330
1F
100
AcDbEntity
  8
0
  6
SLD-Durchgehend
 62
   250
420
  1644836
370
    50
100
AcDbLine
 10
570.020224
 20
218.860618
 30
0.0
 11
533.719288
 21
218.860811
 31
0.0
  0
LINE
  5
320
330
1F
100
AcDbEntity
  8
0
  6
SLD-Durchgehend
 62
   250
420
  1644836
370
    50
100
AcDbLine
 10
566.771577
 20
228.860636
 30
0.0
 11
581.220542
 21
228.860559
 31
0.0
  0
LINE
  5
321
330
1F
100
AcDbEntity
  8
0
  6
SLD-Durchgehend
 62
   250
420
  1644836
370
    50
100
AcDbLine
 10
619.683434
 20
228.860844
 30
0.0
 11
595.221857
 21
228.86073
 31
0.0
  0
LINE
  5
322
330
1F
100
AcDbEntity
  8
0
  6
SLD-Durchgehend
 62
   250
420
  1644836
370
    50
100
AcDbLine
 10
619.719182
 20
218.860844
 30
0.0
 11
642.721904
 21
218.860951
 31
0.0
  0
LINE
  5
323
330
1F
100
AcDbEntity
  8
0
  6
SLD-Durchgehend
 62
   250
420
  1644836
370
    50
100
AcDbLine
 10
617.544831
 20
238.860834
 30
0.0
 11
595.22181
 21
238.86073
 31
0.0
  0
LINE
  5
324
330
1F
100
AcDbEntity
  8
0
  6
SLD-Durchgehend
 62
   250
420
  1644836
370
    50
100
AcDbLine
 10
570.053318
 20
238.860618
 30
0.0
 11
581.220542
 21
238.860559
 31
0.0
  0
LINE
  5
325
330
1F
100
AcDbEntity
  8
0
  6
SLD-Durchgehend
 62
   250
420
  1644836
370
    50
100
AcDbLine
 10
581.220542
 20
198.860559
 30
0.0
 11
566.719182
 21
198.860636
 31
0.0
  0
LINE
  5
326
330
1F
100
AcDbEntity
  8
0
  6
SLD-Durchgehend
 62
   250
420
  1644836
370
    50
100
AcDbLine
 10
581.220542
 20
218.860559
 30
0.0
 11
566.719182
 21
218.860636
 31
0.0
  0
LINE
  5
327
330
1F
100
AcDbEntity
  8
0
  6
SLD-Durchgehend
 62
   250
420
  1644836
370
    50
100
AcDbLine
 10
581.220542
 20
248.860559
 30
0.0
 11
581.220542
 21
238.860559
 31
0.0
  0
LINE
  5
328
330
1F
100
AcDbEntity
  8
0
  6
SLD-Durchgehend
 62
   250
420
  1644836
370
    50
100
AcDbLine
 10
581.220542
 20
208.860559
 30
0.0
 11
581.220542
 21
198.860559
 31
0.0
  0
LINE
  5
329
330
1F
100
AcDbEntity
  8
0
  6
SLD-Durchgehend
 62
   250
420
  1644836
370
    50
100
AcDbLine
 10
595.22067
 20
248.86073
 30
0.0
 11
595.220663
 21
238.86073
 31
0.0
  0
LINE
  5
32A
330
1F
100
AcDbEntity
  8
0
  6
SLD-Durchgehend
 62
   250
420
  1644836
370
    50
100
AcDbLine
 10
595.220657
 20
228.86073
 30
0.0
 11
595.22065
 21
218.86073
 31
0.0
  0
LINE
  5
32B
330
1F
100
AcDbEntity
  8
0
  6
SLD-Durchgehend
 62
   250
420
  1644836
370
    50
100
AcDbLine
 10
595.220644
 20
208.86073
 30
0.0
 11
595.220637
 21
198.86073
 31
0.0
  0
LINE
  5
32C
330
1F
100
AcDbEntity
  8
0
  6
SLD-Durchgehend
 62
   250
420
  1644836
370
    50
100
AcDbLine
 10
581.220542
 20
218.860559
 30
0.0
 11
581.220542
 21
228.860559
 31
0.0
  0
LINE
  5
32D
330
1F
100
AcDbEntity
  8
0
  6
SLD-Durchgehend
 62
   250
420
  1644836
370
    50
100
AcDbLine
 10
348.741381
 20
309.805936
 30
0.0
 11
353.491378
 21
309.805936
 31
0.0
  0
LINE
  5
32E
330
1F
100
AcDbEntity
  8
0
  6
SLD-Durchgehend
 62
   250
420
  1644836
370
    50
100
AcDbLine
 10
339.741381
 20
299.805936
 30
0.0
 11
339.741381
 21
300.8059358429
 31
0.0
  0
LINE
  5
32F
330
1F
100
AcDbEntity
  8
0
  6
SLD-Durchgehend
 62
   250
420
  1644836
370
    50
100
AcDbLine
 10
353.491379
 20
268.805744
 30
0.0
 11
353.491379
 21
297.805916
 31
0.0
  0
LINE
  5
330
330
1F
100
AcDbEntity
  8
0
  6
SLD-Durchgehend
 62
   250
420
  1644836
370
    35
100
AcDbLine
 10
422.791379
 20
369.017795
 30
0.0
 11
423.491379
 21
369.017795
 31
0.0
  0
LINE
  5
331
330
1F
100
AcDbEntity
  8
0
  6
SLD-Durchgehend
 62
   250
420
  1644836
370
    50
100
AcDbLine
 10
294.205611
 20
344.717795
 30
0.0
 11
305.273796
 21
344.717795
 31
0.0
  0
LINE
  5
332
330
1F
100
AcDbEntity
  8
0
  6
SLD-Durchgehend
 62
   250
420
  1644836
370
    50
100
AcDbLine
 10
294.205611
 20
343.017795
 30
0.0
 11
305.273796
 21
343.017795
 31
0.0
  0
LINE
  5
333
330
1F
100
AcDbEntity
  8
0
  6
SLD-Durchgehend
 62
   250
420
  1644836
370
    50
100
AcDbLine
 10
305.273796
 20
344.717795
 30
0.0
 11
318.255951
 21
344.717795
 31
0.0
  0
LINE
  5
334
330
1F
100
AcDbEntity
  8
0
  6
SLD-Durchgehend
 62
   250
420
  1644836
370
    50
100
AcDbLine
 10
305.273796
 20
343.017795
 30
0.0
 11
318.255951
 21
343.017795
 31
0.0
  0
LINE
  5
335
330
1F
100
AcDbEntity
  8
0
  6
SLD-Durchgehend
 62
   250
420
  1644836
370
    50
100
AcDbLine
 10
318.255951
 20
344.717795
 30
0.0
 11
328.491379
 21
344.717795
 31
0.0
  0
LINE
  5
336
330
1F
100
AcDbEntity
  8
0
  6
SLD-Durchgehend
 62
   250
420
  1644836
370
    50
100
AcDbLine
 10
318.255951
 20
343.017795
 30
0.0
 11
334.491379
 21
343.017795
 31
0.0
  0
LINE
  5
337
330
1F
100
AcDbEntity
  8
0
  6
SLD-Durchgehend
 62
   250
420
  1644836
370
    50
100
AcDbLine
 10
316.269114
 20
372.017795
 30
0.0
 11
284.491379
 21
372.017795
 31
0.0
  0
LINE
  5
338
330
1F
100
AcDbEntity
  8
0
  6
SLD-Durchgehend
 62
   250
420
  1644836
370
    25
100
AcDbLine
 10
298.393619
 20
402.232
 30
0.0
 11
313.393619
 21
402.232
 31
0.0
  0
LINE
  5
339
330
1F
100
AcDbEntity
  8
0
  6
SLD-Durchgehend
 62
   250
420
  1644836
370
    50
100
AcDbLine
 10
588.220718
 20
323.862126
 30
0.0
 11
658.220719
 21
323.862081
 31
0.0
  0
LINE
  5
33A
330
1F
100
AcDbEntity
  8
0
  6
SLD-Durchgehend
 62
   250
420
  1644836
370
    50
100
AcDbLine
 10
588.220718
 20
328.862126
 30
0.0
 11
663.220722
 21
328.862077
 31
0.0
  0
LINE
  5
33B
330
1F
100
AcDbEntity
  8
0
  6
SLD-Durchgehend
 62
   250
420
  1644836
370
    25
100
AcDbLine
 10
298.393619
 20
417.232
 30
0.0
 11
298.393619
 21
402.232
 31
0.0
  0
LINE
  5
33C
330
1F
100
AcDbEntity
  8
0
  6
SLD-Durchgehend
 62
   250
420
  1644836
370
    50
100
AcDbLine
 10
284.491209
 20
382.417633
 30
0.0
 11
284.491209
 21
379.417633
 31
0.0
  0
LINE
  5
33D
330
1F
100
AcDbEntity
  8
0
  6
SLD-Durchgehend
 62
   250
420
  1644836
370
    50
100
AcDbLine
 10
284.491209
 20
379.417633
 30
0.0
 11
286.491209
 21
379.417633
 31
0.0
  0
LINE
  5
33E
330
1F
100
AcDbEntity
  8
0
  6
SLD-Durchgehend
 62
   250
420
  1644836
370
    50
100
AcDbLine
 10
286.491209
 20
379.417633
 30
0.0
 11
286.491209
 21
372.917633
 31
0.0
  0
LINE
  5
33F
330
1F
100
AcDbEntity
  8
0
  6
SLD-Durchgehend
 62
   250
420
  1644836
370
    50
100
AcDbLine
 10
286.491209
 20
372.917633
 30
0.0
 11
293.491209
 21
372.917633
 31
0.0
  0
LINE
  5
340
330
1F
100
AcDbEntity
  8
0
  6
SLD-Durchgehend
 62
   250
420
  1644836
370
    50
100
AcDbLine
 10
293.491209
 20
372.917633
 30
0.0
 11
293.491209
 21
377.917633
 31
0.0
  0
LINE
  5
341
330
1F
100
AcDbEntity
  8
0
  6
SLD-Durchgehend
 62
   250
420
  1644836
370
    50
100
AcDbLine
 10
293.491209
 20
377.917633
 30
0.0
 11
297.991209
 21
377.917633
 31
0.0
  0
LINE
  5
342
330
1F
100
AcDbEntity
  8
0
  6
SLD-Durchgehend
 62
   250
420
  1644836
370
    50
100
AcDbLine
 10
297.991209
 20
377.917633
 30
0.0
 11
297.99121
 21
382.417744
 31
0.0
  0
LINE
  5
343
330
1F
100
AcDbEntity
  8
0
  6
SLD-Durchgehend
 62
   250
420
  1644836
370
    50
100
AcDbLine
 10
345.491379
 20
382.417744
 30
0.0
 11
345.491379
 21
368.582565
 31
0.0
  0
LINE
  5
344
330
1F
100
AcDbEntity
  8
0
  6
SLD-Durchgehend
 62
   250
420
  1644836
370
    50
100
AcDbLine
 10
361.49163
 20
382.417945
 30
0.0
 11
361.491621
 21
368.582586
 31
0.0
  0
LINE
  5
345
330
1F
100
AcDbEntity
  8
0
  6
SLD-Durchgehend
 62
   250
420
  1644836
370
    50
100
AcDbLine
 10
408.991797
 20
377.917803
 30
0.0
 11
408.9918
 21
382.417803
 31
0.0
  0
LINE
  5
346
330
1F
100
AcDbEntity
  8
0
  6
SLD-Durchgehend
 62
   250
420
  1644836
370
    50
100
AcDbLine
 10
413.491797
 20
377.9178
 30
0.0
 11
408.991797
 21
377.917803
 31
0.0
  0
LINE
  5
347
330
1F
100
AcDbEntity
  8
0
  6
SLD-Durchgehend
 62
   250
420
  1644836
370
    50
100
AcDbLine
 10
413.491794
 20
372.9178
 30
0.0
 11
413.491797
 21
377.9178
 31
0.0
  0
LINE
  5
348
330
1F
100
AcDbEntity
  8
0
  6
SLD-Durchgehend
 62
   250
420
  1644836
370
    50
100
AcDbLine
 10
420.491798
 20
379.417796
 30
0.0
 11
420.491794
 21
372.917796
 31
0.0
  0
LINE
  5
349
330
1F
100
AcDbEntity
  8
0
  6
SLD-Durchgehend
 62
   250
420
  1644836
370
    50
100
AcDbLine
 10
422.491798
 20
379.417795
 30
0.0
 11
420.491798
 21
379.417796
 31
0.0
  0
LINE
  5
34A
330
1F
100
AcDbEntity
  8
0
  6
SLD-Durchgehend
 62
   250
420
  1644836
370
    50
100
AcDbLine
 10
422.4918
 20
382.417795
 30
0.0
 11
422.491798
 21
379.417795
 31
0.0
  0
LINE
  5
34B
330
1F
100
AcDbEntity
  8
0
  6
SLD-Durchgehend
 62
   250
420
  1644836
370
    50
100
AcDbLine
 10
420.491794
 20
372.917796
 30
0.0
 11
413.491794
 21
372.9178
 31
0.0
  0
LINE
  5
34C
330
1F
100
AcDbEntity
  8
0
  6
SLD-Durchgehend
 62
   250
420
  1644836
370
    50
100
AcDbLine
 10
284.491209
 20
382.417744
 30
0.0
 11
422.4918
 21
382.417744
 31
0.0
  0
LINE
  5
34D
330
1F
100
AcDbEntity
  8
0
  6
SLD-Durchgehend
 62
   250
420
  1644836
370
    50
100
AcDbLine
 10
422.491379
 20
372.017795
 30
0.0
 11
390.713377
 21
372.017795
 31
0.0
  0
LINE
  5
34E
330
1F
100
AcDbEntity
  8
0
  6
SLD-Durchgehend
 62
   250
420
  1644836
370
    50
100
AcDbLine
 10
372.491379
 20
362.017795
 30
0.0
 11
334.491379
 21
362.017795
 31
0.0
  0
LINE
  5
34F
330
1F
100
AcDbEntity
  8
0
  6
SLD-Durchgehend
 62
   250
420
  1644836
370
    50
100
AcDbLine
 10
333.491379
 20
366.017795
 30
0.0
 11
373.491379
 21
366.017795
 31
0.0
  0
LINE
  5
350
330
1F
100
AcDbEntity
  8
0
  6
SLD-Durchgehend
 62
   250
420
  1644836
370
    50
100
AcDbLine
 10
284.491379
 20
350.517795
 30
0.0
 11
284.491379
 21
372.017795
 31
0.0
  0
LINE
  5
351
330
1F
100
AcDbEntity
  8
0
  6
SLD-Punktstrich
 62
   250
420
  1644836
370
    25
100
AcDbLine
 10
353.491379
 20
297.805916
 30
0.0
 11
353.491379
 21
382.417744
 31
0.0
  0
LINE
  5
352
330
1F
100
AcDbEntity
  8
0
  6
SLD-Durchgehend
 62
   250
420
  1644836
370
    50
100
AcDbLine
 10
286.191379
 20
350.517795
 30
0.0
 11
286.191379
 21
372.017795
 31
0.0
  0
LINE
  5
353
330
1F
100
AcDbEntity
  8
0
  6
SLD-Durchgehend
 62
   250
420
  1644836
370
    50
100
AcDbLine
 10
291.991379
 20
344.717795
 30
0.0
 11
294.205611
 21
344.717795
 31
0.0
  0
LINE
  5
354
330
1F
100
AcDbEntity
  8
0
  6
SLD-Durchgehend
 62
   250
420
  1644836
370
    50
100
AcDbLine
 10
283.491379
 20
369.017795
 30
0.0
 11
283.491379
 21
382.417795
 31
0.0
  0
LINE
  5
355
330
1F
100
AcDbEntity
  8
0
  6
SLD-Durchgehend
 62
   250
420
  1644836
370
    50
100
AcDbLine
 10
422.491379
 20
350.517795
 30
0.0
 11
422.491379
 21
372.017795
 31
0.0
  0
LINE
  5
356
330
1F
100
AcDbEntity
  8
0
  6
SLD-Durchgehend
 62
   250
420
  1644836
370
    50
100
AcDbLine
 10
291.991379
 20
343.017795
 30
0.0
 11
294.205611
 21
343.017795
 31
0.0
  0
LINE
  5
357
330
1F
100
AcDbEntity
  8
0
  6
SLD-Durchgehend
 62
   250
420
  1644836
370
    50
100
AcDbLine
 10
420.791379
 20
350.517795
 30
0.0
 11
420.791379
 21
372.017795
 31
0.0
  0
LINE
  5
358
330
1F
100
AcDbEntity
  8
0
  6
SLD-Durchgehend
 62
   250
420
  1644836
370
    50
100
AcDbLine
 10
414.991379
 20
344.717795
 30
0.0
 11
412.777148
 21
344.717795
 31
0.0
  0
LINE
  5
359
330
1F
100
AcDbEntity
  8
0
  6
SLD-Durchgehend
 62
   250
420
  1644836
370
    50
100
AcDbLine
 10
372.491379
 20
364.017795
 30
0.0
 11
375.491379
 21
364.017795
 31
0.0
  0
LINE
  5
35A
330
1F
100
AcDbEntity
  8
0
  6
SLD-Durchgehend
 62
   250
420
  1644836
370
    50
100
AcDbLine
 10
414.991379
 20
343.017795
 30
0.0
 11
412.777148
 21
343.017795
 31
0.0
  0
LINE
  5
35B
330
1F
100
AcDbEntity
  8
0
  6
SLD-Durchgehend
 62
   250
420
  1644836
370
    50
100
AcDbLine
 10
325.991379
 20
343.017795
 30
0.0
 11
325.991379
 21
344.717795
 31
0.0
  0
LINE
  5
35C
330
1F
100
AcDbEntity
  8
0
  6
SLD-Durchgehend
 62
   250
420
  1644836
370
    50
100
AcDbLine
 10
372.491379
 20
364.017795
 30
0.0
 11
372.491379
 21
343.017795
 31
0.0
  0
LINE
  5
35D
330
1F
100
AcDbEntity
  8
0
  6
SLD-Durchgehend
 62
   250
420
  1644836
370
    50
100
AcDbLine
 10
334.491379
 20
364.017795
 30
0.0
 11
331.491379
 21
364.017795
 31
0.0
  0
LINE
  5
35E
330
1F
100
AcDbEntity
  8
0
  6
SLD-Durchgehend
 62
   250
420
  1644836
370
    50
100
AcDbLine
 10
331.491379
 20
364.017795
 30
0.0
 11
331.491379
 21
347.717795
 31
0.0
  0
LINE
  5
35F
330
1F
100
AcDbEntity
  8
0
  6
SLD-Durchgehend
 62
   250
420
  1644836
370
    50
100
AcDbLine
 10
334.491379
 20
364.017795
 30
0.0
 11
334.491379
 21
343.017795
 31
0.0
  0
LINE
  5
360
330
1F
100
AcDbEntity
  8
0
  6
SLD-Durchgehend
 62
   250
420
  1644836
370
    50
100
AcDbLine
 10
412.777148
 20
343.017795
 30
0.0
 11
372.491379
 21
343.017795
 31
0.0
  0
LINE
  5
361
330
1F
100
AcDbEntity
  8
0
  6
SLD-Durchgehend
 62
   250
420
  1644836
370
    50
100
AcDbLine
 10
294.205611
 20
343.017795
 30
0.0
 11
294.205611
 21
344.717795
 31
0.0
  0
LINE
  5
362
330
1F
100
AcDbEntity
  8
0
  6
SLD-Durchgehend
 62
   250
420
  1644836
370
    50
100
AcDbLine
 10
301.880679
 20
343.017795
 30
0.0
 11
301.880679
 21
344.717795
 31
0.0
  0
LINE
  5
363
330
1F
100
AcDbEntity
  8
0
  6
SLD-Durchgehend
 62
   250
420
  1644836
370
    50
100
AcDbLine
 10
286.191379
 20
372.017795
 30
0.0
 11
284.991379
 21
372.017795
 31
0.0
  0
LINE
  5
364
330
1F
100
AcDbEntity
  8
0
  6
SLD-Durchgehend
 62
   250
420
  1644836
370
    50
100
AcDbLine
 10
423.491379
 20
369.017795
 30
0.0
 11
423.491379
 21
382.417795
 31
0.0
  0
LINE
  5
365
330
1F
100
AcDbEntity
  8
0
  6
SLD-Durchgehend
 62
   250
420
  1644836
370
    50
100
AcDbLine
 10
280.991379
 20
368.417795
 30
0.0
 11
280.991379
 21
294.417795
 31
0.0
  0
LINE
  5
366
330
1F
100
AcDbEntity
  8
0
  6
SLD-Durchgehend
 62
   250
420
  1644836
370
    50
100
AcDbLine
 10
279.491379
 20
368.417795
 30
0.0
 11
279.491379
 21
382.417795
 31
0.0
  0
LINE
  5
367
330
1F
100
AcDbEntity
  8
0
  6
SLD-Durchgehend
 62
   250
420
  1644836
370
    50
100
AcDbLine
 10
279.491379
 20
368.417795
 30
0.0
 11
280.991379
 21
368.417795
 31
0.0
  0
LINE
  5
368
330
1F
100
AcDbEntity
  8
0
  6
SLD-Durchgehend
 62
   250
420
  1644836
370
    50
100
AcDbLine
 10
280.991379
 20
294.417795
 30
0.0
 11
281.527278
 21
292.417795
 31
0.0
  0
LINE
  5
369
330
1F
100
AcDbEntity
  8
0
  6
SLD-Durchgehend
 62
   250
420
  1644836
370
    50
100
AcDbLine
 10
279.491379
 20
382.417795
 30
0.0
 11
283.491379
 21
382.417795
 31
0.0
  0
LINE
  5
36A
330
1F
100
AcDbEntity
  8
0
  6
SLD-Durchgehend
 62
   250
420
  1644836
370
    50
100
AcDbLine
 10
281.527278
 20
292.417795
 30
0.0
 11
282.991379
 21
292.417795
 31
0.0
  0
LINE
  5
36B
330
1F
100
AcDbEntity
  8
0
  6
SLD-Durchgehend
 62
   250
420
  1644836
370
    50
100
AcDbLine
 10
282.991379
 20
292.417795
 30
0.0
 11
310.643709
 21
292.417795
 31
0.0
  0
LINE
  5
36C
330
1F
100
AcDbEntity
  8
0
  6
SLD-Durchgehend
 62
   250
420
  1644836
370
    50
100
AcDbLine
 10
305.273796
 20
343.017795
 30
0.0
 11
305.273796
 21
344.717795
 31
0.0
  0
LINE
  5
36D
330
1F
100
AcDbEntity
  8
0
  6
SLD-Durchgehend
 62
   250
420
  1644836
370
    50
100
AcDbLine
 10
314.123165
 20
343.017795
 30
0.0
 11
314.123165
 21
344.717795
 31
0.0
  0
LINE
  5
36E
330
1F
100
AcDbEntity
  8
0
  6
SLD-Durchgehend
 62
   250
420
  1644836
370
    50
100
AcDbLine
 10
318.255951
 20
343.017795
 30
0.0
 11
318.255951
 21
344.717795
 31
0.0
  0
LINE
  5
36F
330
1F
100
AcDbEntity
  8
0
  6
SLD-Durchgehend
 62
   250
420
  1644836
370
    50
100
AcDbLine
 10
372.491379
 20
364.017795
 30
0.0
 11
375.491379
 21
364.017795
 31
0.0
  0
LINE
  5
370
330
1F
100
AcDbEntity
  8
0
  6
SLD-Durchgehend
 62
   250
420
  1644836
370
    50
100
AcDbLine
 10
375.491379
 20
364.017795
 30
0.0
 11
375.491379
 21
347.717795
 31
0.0
  0
LINE
  5
371
330
1F
100
AcDbEntity
  8
0
  6
SLD-Durchgehend
 62
   250
420
  1644836
370
    50
100
AcDbLine
 10
372.491379
 20
364.017795
 30
0.0
 11
372.491379
 21
343.017795
 31
0.0
  0
LINE
  5
372
330
1F
100
AcDbEntity
  8
0
  6
SLD-Durchgehend
 62
   250
420
  1644836
370
    50
100
AcDbLine
 10
380.991379
 20
343.017795
 30
0.0
 11
380.991379
 21
344.717795
 31
0.0
  0
LINE
  5
373
330
1F
100
AcDbEntity
  8
0
  6
SLD-Durchgehend
 62
   250
420
  1644836
370
    50
100
AcDbLine
 10
388.726807
 20
343.017795
 30
0.0
 11
388.726807
 21
344.717795
 31
0.0
  0
LINE
  5
374
330
1F
100
AcDbEntity
  8
0
  6
SLD-Durchgehend
 62
   250
420
  1644836
370
    50
100
AcDbLine
 10
392.859594
 20
343.017795
 30
0.0
 11
392.859594
 21
344.717795
 31
0.0
  0
LINE
  5
375
330
1F
100
AcDbEntity
  8
0
  6
SLD-Durchgehend
 62
   250
420
  1644836
370
    50
100
AcDbLine
 10
401.708962
 20
343.017795
 30
0.0
 11
401.708962
 21
344.717795
 31
0.0
  0
LINE
  5
376
330
1F
100
AcDbEntity
  8
0
  6
SLD-Durchgehend
 62
   250
420
  1644836
370
    50
100
AcDbLine
 10
405.10208
 20
343.017795
 30
0.0
 11
405.10208
 21
344.717795
 31
0.0
  0
LINE
  5
377
330
1F
100
AcDbEntity
  8
0
  6
SLD-Durchgehend
 62
   250
420
  1644836
370
    50
100
AcDbLine
 10
412.777148
 20
343.017795
 30
0.0
 11
412.777148
 21
344.717795
 31
0.0
  0
LINE
  5
378
330
1F
100
AcDbEntity
  8
0
  6
SLD-Durchgehend
 62
   250
420
  1644836
370
    50
100
AcDbLine
 10
412.777148
 20
344.717795
 30
0.0
 11
378.491379
 21
344.717795
 31
0.0
  0
LINE
  5
379
330
1F
100
AcDbEntity
  8
0
  6
SLD-Durchgehend
 62
   250
420
  1644836
370
    50
100
AcDbLine
 10
334.491379
 20
343.017795
 30
0.0
 11
372.491379
 21
343.017795
 31
0.0
  0
LINE
  5
37A
330
1F
100
AcDbEntity
  8
0
  6
SLD-Durchgehend
 62
   250
420
  1644836
370
    50
100
AcDbLine
 10
425.991379
 20
368.417795
 30
0.0
 11
425.991379
 21
294.417795
 31
0.0
  0
LINE
  5
37B
330
1F
100
AcDbEntity
  8
0
  6
SLD-Durchgehend
 62
   250
420
  1644836
370
    50
100
AcDbLine
 10
427.491379
 20
368.417795
 30
0.0
 11
427.491379
 21
382.417795
 31
0.0
  0
LINE
  5
37C
330
1F
100
AcDbEntity
  8
0
  6
SLD-Durchgehend
 62
   250
420
  1644836
370
    50
100
AcDbLine
 10
427.491379
 20
368.417795
 30
0.0
 11
425.991379
 21
368.417795
 31
0.0
  0
LINE
  5
37D
330
1F
100
AcDbEntity
  8
0
  6
SLD-Durchgehend
 62
   250
420
  1644836
370
    35
100
AcDbLine
 10
425.991379
 20
294.417795
 30
0.0
 11
425.455481
 21
292.417795
 31
0.0
  0
LINE
  5
37E
330
1F
100
AcDbEntity
  8
0
  6
SLD-Durchgehend
 62
   250
420
  1644836
370
    50
100
AcDbLine
 10
427.491379
 20
382.417795
 30
0.0
 11
423.491379
 21
382.417795
 31
0.0
  0
LINE
  5
37F
330
1F
100
AcDbEntity
  8
0
  6
SLD-Durchgehend
 62
   250
420
  1644836
370
    50
100
AcDbLine
 10
425.455481
 20
292.417795
 30
0.0
 11
423.991379
 21
292.417795
 31
0.0
  0
LINE
  5
380
330
1F
100
AcDbEntity
  8
0
  6
SLD-Durchgehend
 62
   250
420
  1644836
370
    50
100
AcDbLine
 10
423.48684
 20
292.417795
 30
0.0
 11
422.791379
 21
369.017795
 31
0.0
  0
LINE
  5
381
330
1F
100
AcDbEntity
  8
0
  6
SLD-Durchgehend
 62
   250
420
  1644836
370
    50
100
AcDbLine
 10
283.491379
 20
372.017795
 30
0.0
 11
284.491379
 21
372.017795
 31
0.0
  0
LINE
  5
382
330
1F
100
AcDbEntity
  8
0
  6
SLD-Durchgehend
 62
   250
420
  1644836
370
    50
100
AcDbLine
 10
283.491379
 20
369.017795
 30
0.0
 11
284.191379
 21
369.017795
 31
0.0
  0
LINE
  5
383
330
1F
100
AcDbEntity
  8
0
  6
SLD-Durchgehend
 62
   250
420
  1644836
370
    50
100
AcDbLine
 10
283.495919
 20
292.417795
 30
0.0
 11
284.191379
 21
369.017795
 31
0.0
  0
LINE
  5
384
330
1F
100
AcDbEntity
  8
0
  6
SLD-Durchgehend
 62
   250
420
  1644836
370
    50
100
AcDbLine
 10
423.491379
 20
372.017795
 30
0.0
 11
422.491379
 21
372.017795
 31
0.0
  0
LINE
  5
385
330
1F
100
AcDbEntity
  8
0
  6
SLD-Durchgehend
 62
   250
420
  1644836
370
    25
100
AcDbLine
 10
298.393619
 20
417.232
 30
0.0
 11
313.393619
 21
417.232
 31
0.0
  0
LINE
  5
386
330
1F
100
AcDbEntity
  8
0
  6
SLD-Durchgehend
 62
   250
420
  1644836
370
    25
100
AcDbLine
 10
313.393619
 20
417.232
 30
0.0
 11
313.393619
 21
402.232
 31
0.0
  0
LINE
  5
387
330
1F
100
AcDbEntity
  8
0
  6
SLD-Durchgehend
 62
   250
420
  1644836
370
    50
100
AcDbLine
 10
658.220719
 20
323.862081
 30
0.0
 11
658.220627
 21
183.86182
 31
0.0
  0
LINE
  5
388
330
1F
100
AcDbEntity
  8
0
  6
SLD-Durchgehend
 62
   250
420
  1644836
370
    50
100
AcDbLine
 10
663.220722
 20
328.862077
 30
0.0
 11
663.220624
 21
178.861824
 31
0.0
  0
LINE
  5
389
330
1F
100
AcDbEntity
  8
0
  6
SLD-Durchgehend
 62
   250
420
  1644836
370
    50
100
AcDbLine
 10
588.220366
 20
328.862126
 30
0.0
 11
513.220361
 21
328.862077
 31
0.0
  0
LINE
  5
38A
330
1F
100
AcDbEntity
  8
0
  6
SLD-Durchgehend
 62
   250
420
  1644836
370
    50
100
AcDbLine
 10
588.220366
 20
323.862126
 30
0.0
 11
518.220364
 21
323.862081
 31
0.0
  0
LINE
  5
38B
330
1F
100
AcDbEntity
  8
0
  6
SLD-Durchgehend
 62
   250
420
  1644836
370
    50
100
AcDbLine
 10
513.220361
 20
328.862077
 30
0.0
 11
513.220459
 21
178.861824
 31
0.0
  0
LINE
  5
38C
330
1F
100
AcDbEntity
  8
0
  6
SLD-Durchgehend
 62
   250
420
  1644836
370
    50
100
AcDbLine
 10
518.220364
 20
323.862081
 30
0.0
 11
518.220456
 21
183.86182
 31
0.0
  0
LINE
  5
38D
330
1F
100
AcDbEntity
  8
0
  6
SLD-Durchgehend
 62
   250
420
  1644836
370
    50
100
AcDbLine
 10
588.220718
 20
178.861775
 30
0.0
 11
663.220722
 21
178.861824
 31
0.0
  0
LINE
  5
38E
330
1F
100
AcDbEntity
  8
0
  6
SLD-Durchgehend
 62
   250
420
  1644836
370
    50
100
AcDbLine
 10
588.220718
 20
183.861775
 30
0.0
 11
658.220719
 21
183.86182
 31
0.0
  0
LINE
  5
38F
330
1F
100
AcDbEntity
  8
0
  6
SLD-Durchgehend
 62
   250
420
  1644836
370
    50
100
AcDbLine
 10
588.220366
 20
178.861775
 30
0.0
 11
513.220361
 21
178.861824
 31
0.0
  0
LINE
  5
390
330
1F
100
AcDbEntity
  8
0
  6
SLD-Durchgehend
 62
   250
420
  1644836
370
    50
100
AcDbLine
 10
588.220366
 20
183.861775
 30
0.0
 11
518.220364
 21
183.86182
 31
0.0
  0
ARC
  5
391
330
1F
100
AcDbEntity
  8
0
  6
SLD-Durchgehend
 62
   250
420
  1644836
370
    50
100
AcDbCircle
 10
285.491379
 20
213.305744
 30
0.0
 40
12.00000000000006
100
AcDbArc
 50
180.0
 51
270.000058
  0
ARC
  5
392
330
1F
100
AcDbEntity
  8
0
  6
SLD-Durchgehend
 62
   250
420
  1644836
370
    50
100
AcDbCircle
 10
285.491379
 20
213.305744
 30
0.0
 40
9.000000000000057
100
AcDbArc
 50
180.0
 51
270.000058
  0
ARC
  5
393
330
1F
100
AcDbEntity
  8
0
  6
SLD-Durchgehend
 62
   250
420
  1644836
370
    50
100
AcDbCircle
 10
324.741379
 20
275.805744
 30
0.0
 40
0.5000000000005116
100
AcDbArc
 50
270.0
 51
89.9998854084
  0
ARC
  5
394
330
1F
100
AcDbEntity
  8
0
  6
SLD-Durchgehend
 62
   250
420
  1644836
370
    50
100
AcDbCircle
 10
358.241378
 20
300.805937
 30
0.0
 40
9.00000000000005
100
AcDbArc
 50
0.000006
 51
90.000006
  0
ARC
  5
395
330
1F
100
AcDbEntity
  8
0
  6
SLD-Durchgehend
 62
   250
420
  1644836
370
    50
100
AcDbCircle
 10
321.7413787048
 20
287.805744
 30
0.0
 40
11.99999999999999
100
AcDbArc
 50
90.0
 51
179.999848
  0
ARC
  5
396
330
1F
100
AcDbEntity
  8
0
  6
SLD-Durchgehend
 62
   250
420
  1644836
370
    50
100
AcDbCircle
 10
321.7413787048
 20
287.805744
 30
0.0
 40
10.0
100
AcDbArc
 50
90.0
 51
179.999848
  0
ARC
  5
397
330
1F
100
AcDbEntity
  8
0
  6
SLD-Durchgehend
 62
   250
420
  1644836
370
    50
100
AcDbCircle
 10
358.241378
 20
300.805937
 30
0.0
 40
5.000000000000099
100
AcDbArc
 50
0.0
 51
90.0000114592
  0
ARC
  5
398
330
1F
100
AcDbEntity
  8
0
  6
SLD-Durchgehend
 62
   250
420
  1644836
370
    50
100
AcDbCircle
 10
348.741381
 20
300.805936
 30
0.0
 40
9.0
100
AcDbArc
 50
90.0
 51
180.000001
  0
ARC
  5
399
330
1F
100
AcDbEntity
  8
0
  6
SLD-Durchgehend
 62
   250
420
  1644836
370
    50
100
AcDbCircle
 10
324.9913798524
 20
275.8057444175
 30
0.0
 40
0.7499997634942043
100
AcDbArc
 50
289.4714820682
 51
70.5287849375
  0
ARC
  5
39A
330
1F
100
AcDbEntity
  8
0
  6
SLD-Durchgehend
 62
   250
420
  1644836
370
    50
100
AcDbCircle
 10
385.241595
 20
287.805916
 30
0.0
 40
12.00000000000267
100
AcDbArc
 50
0.000096
 51
89.9999618028
  0
ARC
  5
39B
330
1F
100
AcDbEntity
  8
0
  6
SLD-Durchgehend
 62
   250
420
  1644836
370
    50
100
AcDbCircle
 10
385.241595
 20
287.805916
 30
0.0
 40
10.00000000000089
100
AcDbArc
 50
0.000096
 51
89.999963
  0
ARC
  5
39C
330
1F
100
AcDbEntity
  8
0
  6
SLD-Durchgehend
 62
   250
420
  1644836
370
    50
100
AcDbCircle
 10
382.241587
 20
275.805918
 30
0.0
 40
0.5
100
AcDbArc
 50
90.0
 51
269.999846
  0
ARC
  5
39D
330
1F
100
AcDbEntity
  8
0
  6
SLD-Durchgehend
 62
   250
420
  1644836
370
    50
100
AcDbCircle
 10
348.741381
 20
300.805936
 30
0.0
 40
5.0
100
AcDbArc
 50
90.0
 51
180.0
  0
ARC
  5
39E
330
1F
100
AcDbEntity
  8
0
  6
SLD-Durchgehend
 62
   250
420
  1644836
370
    50
100
AcDbCircle
 10
421.491546
 20
213.305894
 30
0.0
 40
12.00000000000105
100
AcDbArc
 50
269.999811
 51
359.999963
  0
ARC
  5
39F
330
1F
100
AcDbEntity
  8
0
  6
SLD-Durchgehend
 62
   250
420
  1644836
370
    50
100
AcDbCircle
 10
421.491546
 20
213.305894
 30
0.0
 40
9.000000000000796
100
AcDbArc
 50
269.999811
 51
359.999963
  0
ARC
  5
3A0
330
1F
100
AcDbEntity
  8
0
  6
SLD-Durchgehend
 62
   250
420
  1644836
370
    50
100
AcDbCircle
 10
328.491379
 20
201.305744
 30
0.0
 40
2.999999999999994
100
AcDbArc
 50
0.0
 51
89.999981
  0
ARC
  5
3A1
330
1F
100
AcDbEntity
  8
0
  6
SLD-Durchgehend
 62
   250
420
  1644836
370
    50
100
AcDbCircle
 10
378.491538
 20
201.30592
 30
0.0
 40
3.000000000000667
100
AcDbArc
 50
89.999963
 51
179.9999618028
  0
ARC
  5
3A2
330
1F
100
AcDbEntity
  8
0
  6
SLD-Durchgehend
 62
   250
420
  1644836
370
    50
100
AcDbCircle
 10
328.491379
 20
207.305744
 30
0.0
 40
3.000000000000335
100
AcDbArc
 50
179.999848
 51
270.000019
  0
ARC
  5
3A3
330
1F
100
AcDbEntity
  8
0
  6
SLD-Durchgehend
 62
   250
420
  1644836
370
    50
100
AcDbCircle
 10
378.491542
 20
207.30592
 30
0.0
 40
3.000000000001136
100
AcDbArc
 50
269.9999606056
 51
0.000021
  0
ARC
  5
3A4
330
1F
100
AcDbEntity
  8
0
  6
SLD-Durchgehend
 62
   250
420
  1644836
370
    50
100
AcDbCircle
 10
430.991379
 20
292.635742
 30
0.0
 40
5.000000000000076
100
AcDbArc
 50
300.002958
 51
0.001515
  0
ARC
  5
3A5
330
1F
100
AcDbEntity
  8
0
  6
SLD-Durchgehend
 62
   250
420
  1644836
370
    50
100
AcDbCircle
 10
438.9913789983
 20
303.305744
 30
0.0
 40
3.0
100
AcDbArc
 50
90.0
 51
180.0
  0
ARC
  5
3A6
330
1F
100
AcDbEntity
  8
0
  6
SLD-Durchgehend
 62
   250
420
  1644836
370
    50
100
AcDbCircle
 10
267.991379
 20
303.305744
 30
0.0
 40
3.0
100
AcDbArc
 50
0.0
 51
90.0
  0
ARC
  5
3A7
330
1F
100
AcDbEntity
  8
0
  6
SLD-Durchgehend
 62
   250
420
  1644836
370
    50
100
AcDbCircle
 10
275.9913789991
 20
292.635742
 30
0.0
 40
5.000000000884436
100
AcDbArc
 50
179.9984759323
 51
239.997042
  0
ARC
  5
3A8
330
1F
100
AcDbEntity
  8
0
  6
SLD-Durchgehend
 62
   250
420
  1644836
370
    50
100
AcDbCircle
 10
425.491383
 20
305.046589
 30
0.0
 40
6.500000000000848
100
AcDbArc
 50
337.380554
 51
43.813061
  0
ARC
  5
3A9
330
1F
100
AcDbEntity
  8
0
  6
SLD-Durchgehend
 62
   250
420
  1644836
370
    50
100
AcDbCircle
 10
425.491379
 20
300.046589
 30
0.0
 40
6.500000000000904
100
AcDbArc
 50
337.380402
 51
22.619619
  0
ARC
  5
3AA
330
1F
100
AcDbEntity
  8
0
  6
SLD-Durchgehend
 62
   250
420
  1644836
370
    50
100
AcDbCircle
 10
426.112658
 20
302.796589
 30
0.0
 40
0.2499999999999953
100
AcDbArc
 50
168.90313
 51
269.999963
  0
ARC
  5
3AB
330
1F
100
AcDbEntity
  8
0
  6
SLD-Durchgehend
 62
   250
420
  1644836
370
    50
100
AcDbCircle
 10
426.1307560869
 20
296.8376319778
 30
0.0
 40
0.2499999103240095
100
AcDbArc
 50
165.6687094607
 51
269.999885
  0
ARC
  5
3AC
330
1F
100
AcDbEntity
  8
0
  6
SLD-Durchgehend
 62
   250
420
  1644836
370
    50
100
AcDbCircle
 10
426.124496928
 20
291.7965891049
 30
0.0
 40
0.2500001632519035
100
AcDbArc
 50
166.7608711196
 51
269.999885
  0
ARC
  5
3AD
330
1F
100
AcDbEntity
  8
0
  6
SLD-Durchgehend
 62
   250
420
  1644836
370
    50
100
AcDbCircle
 10
281.491376
 20
305.046589
 30
0.0
 40
6.50000000000097
100
AcDbArc
 50
136.186939
 51
202.619446
  0
ARC
  5
3AE
330
1F
100
AcDbEntity
  8
0
  6
SLD-Durchgehend
 62
   250
420
  1644836
370
    50
100
AcDbCircle
 10
281.491379
 20
300.046589
 30
0.0
 40
6.500000000000904
100
AcDbArc
 50
157.380381
 51
202.619598
  0
ARC
  5
3AF
330
1F
100
AcDbEntity
  8
0
  6
SLD-Durchgehend
 62
   250
420
  1644836
370
    50
100
AcDbCircle
 10
280.870101
 20
302.796589
 30
0.0
 40
0.2500000000000521
100
AcDbArc
 50
270.000037
 51
11.09687
  0
ARC
  5
3B0
330
1F
100
AcDbEntity
  8
0
  6
SLD-Durchgehend
 62
   250
420
  1644836
370
    50
100
AcDbCircle
 10
280.8520023825
 20
296.8376320977
 30
0.0
 40
0.2500003947643971
100
AcDbArc
 50
270.000115
 51
14.3312338102
  0
ARC
  5
3B1
330
1F
100
AcDbEntity
  8
0
  6
SLD-Durchgehend
 62
   250
420
  1644836
370
    50
100
AcDbCircle
 10
280.8582625414
 20
291.7965887403
 30
0.0
 40
0.2500001632519035
100
AcDbArc
 50
270.000115
 51
13.2391288804
  0
ARC
  5
3B2
330
1F
100
AcDbEntity
  8
0
  6
SLD-Durchgehend
 62
   250
420
  1644836
370
    50
100
AcDbCircle
 10
588.220542
 20
253.861951
 30
0.0
 40
85.99999999999996
100
AcDbArc
 50
150.702997
 51
209.297078
  0
ARC
  5
3B3
330
1F
100
AcDbEntity
  8
0
  6
SLD-Durchgehend
 62
   250
420
  1644836
370
    50
100
AcDbCircle
 10
588.220542
 20
253.861951
 30
0.0
 40
80.49999999999999
100
AcDbArc
 50
158.698054
 51
201.302021
  0
ARC
  5
3B4
330
1F
100
AcDbEntity
  8
0
  6
SLD-Durchgehend
 62
   250
420
  1644836
370
    50
100
AcDbCircle
 10
588.220542
 20
253.861951
 30
0.0
 40
86.0
100
AcDbArc
 50
60.702983
 51
119.297017
  0
ARC
  5
3B5
330
1F
100
AcDbEntity
  8
0
  6
SLD-Durchgehend
 62
   250
420
  1644836
370
    50
100
AcDbCircle
 10
588.220542
 20
253.861951
 30
0.0
 40
80.4999999999999
100
AcDbArc
 50
68.698066
 51
111.301934
  0
ARC
  5
3B6
330
1F
100
AcDbEntity
  8
0
  6
SLD-Durchgehend
 62
   250
420
  1644836
370
    50
100
AcDbCircle
 10
588.220542
 20
253.861951
 30
0.0
 40
80.5
100
AcDbArc
 50
248.698066
 51
291.301934
  0
ARC
  5
3B7
330
1F
100
AcDbEntity
  8
0
  6
SLD-Durchgehend
 62
   250
420
  1644836
370
    50
100
AcDbCircle
 10
588.220542
 20
253.861951
 30
0.0
 40
86.00000000000003
100
AcDbArc
 50
240.702983
 51
299.297017
  0
ARC
  5
3B8
330
1F
100
AcDbEntity
  8
0
  6
SLD-Durchgehend
 62
   250
420
  1644836
370
    50
100
AcDbCircle
 10
588.220542
 20
253.861951
 30
0.0
 40
80.50000000000009
100
AcDbArc
 50
338.697979
 51
21.301946
  0
ARC
  5
3B9
330
1F
100
AcDbEntity
  8
0
  6
SLD-Durchgehend
 62
   250
420
  1644836
370
    50
100
AcDbCircle
 10
588.220542
 20
253.861951
 30
0.0
 40
85.99999999999996
100
AcDbArc
 50
330.702922
 51
29.297003
  0
ARC
  5
3BA
330
1F
100
AcDbEntity
  8
0
  6
SLD-Durchgehend
 62
   250
420
  1644836
370
    50
100
AcDbCircle
 10
353.491245
 20
562.643808
 30
0.0
 40
194.226064445674
100
AcDbArc
 50
252.045821
 51
287.994195
  0
ARC
  5
3BB
330
1F
100
AcDbEntity
  8
0
  6
SLD-Durchgehend
 62
   250
420
  1644836
370
    50
100
AcDbCircle
 10
328.491379
 20
347.717795
 30
0.0
 40
3.0
100
AcDbArc
 50
270.0
 51
0.0
  0
ARC
  5
3BC
330
1F
100
AcDbEntity
  8
0
  6
SLD-Durchgehend
 62
   250
420
  1644836
370
    50
100
AcDbCircle
 10
373.491379
 20
364.017795
 30
0.0
 40
2.0
100
AcDbArc
 50
0.0
 51
90.0
  0
ARC
  5
3BD
330
1F
100
AcDbEntity
  8
0
  6
SLD-Durchgehend
 62
   250
420
  1644836
370
    50
100
AcDbCircle
 10
291.991379
 20
350.517795
 30
0.0
 40
5.800000000000011
100
AcDbArc
 50
180.0
 51
270.0
  0
ARC
  5
3BE
330
1F
100
AcDbEntity
  8
0
  6
SLD-Durchgehend
 62
   250
420
  1644836
370
    50
100
AcDbCircle
 10
378.491379
 20
347.717795
 30
0.0
 40
3.0
100
AcDbArc
 50
180.0
 51
270.0
  0
ARC
  5
3BF
330
1F
100
AcDbEntity
  8
0
  6
SLD-Durchgehend
 62
   250
420
  1644836
370
    50
100
AcDbCircle
 10
291.991379
 20
350.517795
 30
0.0
 40
7.5
100
AcDbArc
 50
180.0
 51
270.0
  0
ARC
  5
3C0
330
1F
100
AcDbEntity
  8
0
  6
SLD-Durchgehend
 62
   250
420
  1644836
370
    50
100
AcDbCircle
 10
414.991379
 20
350.517795
 30
0.0
 40
5.800000000000011
100
AcDbArc
 50
270.0
 51
0.0
  0
ARC
  5
3C1
330
1F
100
AcDbEntity
  8
0
  6
SLD-Durchgehend
 62
   250
420
  1644836
370
    50
100
AcDbCircle
 10
414.991379
 20
350.517795
 30
0.0
 40
7.5
100
AcDbArc
 50
270.0
 51
0.0
  0
ARC
  5
3C2
330
1F
100
AcDbEntity
  8
0
  6
SLD-Durchgehend
 62
   250
420
  1644836
370
    50
100
AcDbCircle
 10
333.491379
 20
364.017795
 30
0.0
 40
2.0
100
AcDbArc
 50
90.0
 51
180.0
  0
INSERT
  5
3C3
330
1F
100
AcDbEntity
  8
0
  6
Continuous
 62
     7
100
AcDbBlockReference
  2
_X24
 10
0.0
 20
-0.5
 30
0.0
 41
0.5
 42
0.5
 43
0.5
  0
INSERT
  5
3C4
330
1F
100
AcDbEntity
  8
0
  6
Continuous
 62
     7
100
AcDbBlockReference
  2
_X25
 10
0.0
 20
-0.5
 30
0.0
 41
0.5
 42
0.5
 43
0.5
  0
INSERT
  5
3C5
330
1F
100
AcDbEntity
  8
0
  6
Continuous
 62
     7
100
AcDbBlockReference
  2
_X23
 10
0.0
 20
-0.5
 30
0.0
 41
0.5
 42
0.5
 43
0.5
  0
INSERT
  5
3C6
330
1F
100
AcDbEntity
  8
0
  6
Continuous
 62
     7
100
AcDbBlockReference
  2
_X22
 10
0.0
 20
-0.5
 30
0.0
 41
0.5
 42
0.5
 43
0.5
  0
INSERT
  5
3C7
330
1F
100
AcDbEntity
  8
0
  6
Continuous
 62
     7
100
AcDbBlockReference
  2
_X8
 10
0.0
 20
-0.5
 30
0.0
 41
0.5
 42
0.5
 43
0.5
  0
INSERT
  5
3C8
330
1F
100
AcDbEntity
  8
0
  6
Continuous
 62
     7
100
AcDbBlockReference
  2
_X2
 10
0.0
 20
-0.5
 30
0.0
 41
0.5
 42
0.5
 43
0.5
  0
INSERT
  5
3C9
330
1F
100
AcDbEntity
  8
0
  6
Continuous
 62
     7
100
AcDbBlockReference
  2
_X10
 10
0.0
 20
-0.5
 30
0.0
 41
0.5
 42
0.5
 43
0.5
  0
INSERT
  5
3CA
330
1F
100
AcDbEntity
  8
0
  6
Continuous
 62
     7
100
AcDbBlockReference
  2
_X12
 10
0.0
 20
-0.5
 30
0.0
 41
0.5
 42
0.5
 43
0.5
  0
INSERT
  5
3CB
330
1F
100
AcDbEntity
  8
0
  6
Continuous
 62
     7
100
AcDbBlockReference
  2
_X4
 10
0.0
 20
-0.5
 30
0.0
 41
0.5
 42
0.5
 43
0.5
  0
INSERT
  5
3CC
330
1F
100
AcDbEntity
  8
0
  6
Continuous
 62
     7
100
AcDbBlockReference
  2
_X11
 10
0.0
 20
-0.5
 30
0.0
 41
0.5
 42
0.5
 43
0.5
  0
INSERT
  5
3CD
330
1F
100
AcDbEntity
  8
0
  6
Continuous
 62
     7
100
AcDbBlockReference
  2
_X13
 10
0.0
 20
-0.5
 30
0.0
 41
0.5
 42
0.5
 43
0.5
  0
INSERT
  5
3CE
330
1F
100
AcDbEntity
  8
0
  6
Continuous
 62
     7
100
AcDbBlockReference
  2
_X17
 10
0.0
 20
-0.5
 30
0.0
 41
0.5
 42
0.5
 43
0.5
  0
INSERT
  5
3CF
330
1F
100
AcDbEntity
  8
0
  6
Continuous
 62
     7
100
AcDbBlockReference
  2
_X14
 10
0.0
 20
-0.5
 30
0.0
 41
0.5
 42
0.5
 43
0.5
  0
INSERT
  5
3D0
330
1F
100
AcDbEntity
  8
0
  6
Continuous
 62
     7
100
AcDbBlockReference
  2
_X20
 10
0.0
 20
-0.5
 30
0.0
 41
0.5
 42
0.5
 43
0.5
  0
INSERT
  5
3D1
330
1F
100
AcDbEntity
  8
0
  6
Continuous
 62
     7
100
AcDbBlockReference
  2
_X16
 10
0.0
 20
-0.5
 30
0.0
 41
0.5
 42
0.5
 43
0.5
  0
INSERT
  5
3D2
330
1F
100
AcDbEntity
  8
0
  6
Continuous
 62
     7
100
AcDbBlockReference
  2
_X15
 10
0.0
 20
-0.5
 30
0.0
 41
0.5
 42
0.5
 43
0.5
  0
INSERT
  5
3D3
330
1F
100
AcDbEntity
  8
0
  6
Continuous
 62
     7
100
AcDbBlockReference
  2
_X21
 10
0.0
 20
-0.5
 30
0.0
 41
0.5
 42
0.5
 43
0.5
  0
INSERT
  5
3D4
330
1F
100
AcDbEntity
  8
0
  6
Continuous
 62
     7
100
AcDbBlockReference
  2
_X18
 10
0.0
 20
-0.5
 30
0.0
 41
0.5
 42
0.5
 43
0.5
  0
DIMENSION
  5
3D5
330
1F
100
AcDbEntity
  8
0
  6
SLD-Durchgehend
 62
   250
420
  1644836
370
    18
100
AcDbDimension
280
     0
  2
_D
 10
209.2
 20
227.805744
 30
0.0
 11
209.2
 21
252.805744
 31
0.0
 70
   160
  1
<>
 71
     2
 42
-1.0
 73
     0
 74
     0
 75
     0
  3
SLDDIMSTYLE0
100
AcDbAlignedDimension
 13
321.741379
 23
277.805744
 33
0.0
 14
311.741379
 24
227.805744
 34
0.0
 50
90.0
100
AcDbRotatedDimension
  0
DIMENSION
  5
3E7
330
1F
100
AcDbEntity
  8
0
  6
SLD-Durchgehend
 62
   250
420
  1644836
370
    18
100
AcDbDimension
280
     0
  2
_D_1
 10
479.924115274
 20
311.305744
 30
0.0
 11
479.924115274
 21
258.4257238963
 31
0.0
 70
   160
  1
<>
 71
     2
 42
-1.0
 73
     0
 74
     0
 75
     0
  3
SLDDIMSTYLE1
100
AcDbAlignedDimension
 13
427.491379
 23
382.417795
 33
0.0
 14
439.491379
 24
311.305744
 34
0.0
 50
90.0
100
AcDbRotatedDimension
  0
DIMENSION
  5
3F3
330
1F
100
AcDbEntity
  8
0
  6
SLD-Durchgehend
 62
   250
420
  1644836
370
    18
100
AcDbDimension
280
     0
  2
_D_2
 10
298.491379
 20
107.52
 30
0.0
 11
352.932514
 21
107.52
 31
0.0
 70
   160
  1
DN<>
 71
     2
 42
-1.0
 73
     0
 74
     0
 75
     0
  3
SLDDIMSTYLE0
100
AcDbAlignedDimension
 13
408.491379
 23
128.305912
 33
0.0
 14
298.491379
 24
128.305744
 34
0.0
100
AcDbRotatedDimension
  0
DIMENSION
  5
3FD
330
1F
100
AcDbEntity
  8
0
  6
SLD-Durchgehend
 62
   250
420
  1644836
370
    18
100
AcDbDimension
280
     0
  2
_D_3
 10
163.23994
 20
311.305744
 30
0.0
 11
163.23994
 21
249.353844
 31
0.0
 70
   160
  1
<>
 71
     2
 42
-1.0
 73
     0
 74
     0
 75
     0
  3
SLDDIMSTYLE0
100
AcDbAlignedDimension
 13
285.491379
 23
201.305744
 33
0.0
 14
267.491379
 24
311.305744
 34
0.0
 50
90.0
100
AcDbRotatedDimension
  0
DIMENSION
  5
407
330
1F
100
AcDbEntity
  8
0
  6
SLD-Durchgehend
 62
   250
420
  1644836
370
    18
100
AcDbDimension
280
     0
  2
_D_4
 10
267.491379
 20
478.593273
 30
0.0
 11
353.985021
 21
478.593273
 31
0.0
 70
   160
  1
%%c<>
 71
     2
 42
-1.0
 73
     0
 74
     0
 75
     0
  3
SLDDIMSTYLE0
100
AcDbAlignedDimension
 13
439.491379
 23
311.305744
 33
0.0
 14
267.491379
 24
311.305744
 34
0.0
100
AcDbRotatedDimension
  0
DIMENSION
  5
412
330
1F
100
AcDbEntity
  8
0
  6
SLD-Durchgehend
 62
   250
420
  1644836
370
    18
100
AcDbDimension
280
     0
  2
_D_5
 10
273.491379
 20
54.06
 30
0.0
 11
357.059744
 21
54.06
 31
0.0
 70
   160
  1
%%c<>
 71
     2
 42
-1.0
 73
     0
 74
     0
 75
     0
  3
SLDDIMSTYLE0
100
AcDbAlignedDimension
 13
433.491546
 23
213.305887
 33
0.0
 14
273.491379
 24
213.305744
 34
0.0
100
AcDbRotatedDimension
  0
DIMENSION
  5
41D
330
1F
100
AcDbEntity
  8
0
  6
SLD-Durchgehend
 62
   250
420
  1644836
370
    18
100
AcDbDimension
280
     0
  2
_D_6
 10
279.4396951337
 20
420.7746673549
 30
0.0
 11
352.469372
 21
420.873071
 31
0.0
 70
   160
  1
<>
 71
     2
 42
-1.0
 73
     0
 74
     0
 75
     0
  3
SLDDIMSTYLE0
100
AcDbAlignedDimension
 13
428.438291
 23
382.618492
 33
0.0
 14
279.491379
 24
382.417795
 34
0.0
 50
0.077203
100
AcDbRotatedDimension
  0
ENDSEC
  0
SECTION
  2
OBJECTS
  0
DICTIONARY
  5
C
330
0
100
AcDbDictionary
281
     1
  3
ACAD_DETAILVIEWSTYLE
350
42E
  3
ACAD_GROUP
350
D
  3
ACAD_LAYOUT
350
1A
  3
ACAD_MATERIAL
350
43
  3
ACAD_MLEADERSTYLE
350
6B
  3
ACAD_MLINESTYLE
350
17
  3
ACAD_PLOTSETTINGS
350
19
  3
ACAD_PLOTSTYLENAME
350
E
  3
ACAD_SCALELIST
350
47
  3
ACAD_SECTIONVIEWSTYLE
350
42F
  3
ACAD_TABLESTYLE
350
69
  3
ACAD_VISUALSTYLE
350
2A
  3
ACDB_RECOMPOSE_DATA
350
42B
  3
AcDbVariableDictionary
350
427
  0
SUN
  5
6D
330
29
100
AcDbSun
 90
        1
290
     0
 63
     7
421
 16777215
 40
1.0
291
     1
 91
  2455826
 92
 54000000
292
     0
 70
     2
 71
   256
280
     1
  0
DICTIONARY
  5
42E
102
{ACAD_REACTORS
330
C
102
}
330
C
100
AcDbDictionary
281
     1
  0
DICTIONARY
  5
D
102
{ACAD_REACTORS
330
C
102
}
330
C
100
AcDbDictionary
281
     1
  0
DICTIONARY
  5
1A
102
{ACAD_REACTORS
330
C
102
}
330
C
100
AcDbDictionary
281
     1
  3
Layout1
350
1E
  3
Layout2
350
26
  3
Model
350
22
  0
DICTIONARY
  5
43
102
{ACAD_REACTORS
330
C
102
}
330
C
100
AcDbDictionary
281
     1
  3
ByBlock
350
45
  3
ByLayer
350
44
  3
Global
350
46
  0
DICTIONARY
  5
6B
102
{ACAD_REACTORS
330
C
102
}
330
C
100
AcDbDictionary
281
     1
  3
Standard
350
6C
  0
DICTIONARY
  5
17
102
{ACAD_REACTORS
330
C
102
}
330
C
100
AcDbDictionary
281
     1
  3
Standard
350
18
  0
DICTIONARY
  5
19
102
{ACAD_REACTORS
330
C
102
}
330
C
100
AcDbDictionary
281
     1
  0
ACDBDICTIONARYWDFLT
  5
E
102
{ACAD_REACTORS
330
C
102
}
330
C
100
AcDbDictionary
281
     1
  3
Normal
350
F
100
AcDbDictionaryWithDefault
340
F
  0
DICTIONARY
  5
47
102
{ACAD_REACTORS
330
C
102
}
330
C
100
AcDbDictionary
281
     1
  3
A0
350
48
  3
A1
350
49
  3
A2
350
4A
  3
A3
350
4B
  3
A4
350
4C
  3
A5
350
4D
  3
A6
350
4E
  3
A7
350
4F
  3
A8
350
50
  3
A9
350
51
  3
B0
350
52
  3
B1
350
53
  3
B2
350
54
  3
B3
350
55
  3
B4
350
56
  3
B5
350
57
  3
B6
350
58
  3
B7
350
59
  3
B8
350
5A
  3
B9
350
5B
  3
C0
350
5C
  3
C1
350
5D
  3
C2
350
5E
  3
C3
350
5F
  3
C4
350
60
  3
C5
350
61
  3
C6
350
62
  3
C7
350
63
  3
C8
350
64
  3
C9
350
65
  3
D0
350
66
  3
D1
350
67
  3
D2
350
68
  0
DICTIONARY
  5
42F
102
{ACAD_REACTORS
330
C
102
}
330
C
100
AcDbDictionary
281
     1
  0
DICTIONARY
  5
69
102
{ACAD_REACTORS
330
C
102
}
330
C
100
AcDbDictionary
281
     1
  3
Standard
350
6A
  0
DICTIONARY
  5
2A
102
{ACAD_REACTORS
330
C
102
}
330
C
100
AcDbDictionary
281
     1
  3
2dWireframe
350
2F
  3
Basic
350
32
  3
Brighten
350
36
  3
ColorChange
350
3A
  3
Conceptual
350
34
  3
Dim
350
35
  3
EdgeColorOff
350
3D
  3
Facepattern
350
39
  3
Flat
350
2B
  3
FlatWithEdges
350
2C
  3
Gouraud
350
2D
  3
GouraudWithEdges
350
2E
  3
Hidden
350
31
  3
JitterOff
350
3B
  3
Linepattern
350
38
  3
OverhangOff
350
3C
  3
Realistic
350
33
  3
Shaded
350
42
  3
Shaded with edges
350
41
  3
Shades of Gray
350
3E
  3
Sketchy
350
3F
  3
Thicken
350
37
  3
Wireframe
350
30
  3
X-Ray
350
40
  0
XRECORD
  5
42B
102
{ACAD_REACTORS
330
C
102
}
330
C
100
AcDbXrecord
280
     1
 90
        1
330
6A
  0
DICTIONARY
  5
427
102
{ACAD_REACTORS
330
C
102
}
330
C
100
AcDbDictionary
281
     1
  3
CANNOSCALE
350
428
  3
CMLEADERSTYLE
350
42D
  3
CTABLESTYLE
350
42C
  3
SECTIONTHICKNESSINC
350
430
  0
LAYOUT
  5
1E
102
{ACAD_REACTORS
330
1A
102
}
330
1A
100
AcDbPlotSettings
  1

  2
none_device
  4

  6

 40
0.0
 41
0.0
 42
0.0
 43
0.0
 44
0.0
 45
0.0
 46
0.0
 47
0.0
 48
0.0
 49
0.0
140
0.0
141
0.0
142
1.0
143
1.0
 70
   688
 72
     1
 73
     0
 74
     5
  7

 75
    16
 76
     0
 77
     2
 78
   300
147
1.0
148
0.0
149
0.0
100
AcDbLayout
  1
Layout1
 70
     1
 71
     1
 10
0.0
 20
0.0
 11
420.0
 21
297.0
 12
0.0
 22
0.0
 32
0.0
 14
1.0000000000E+20
 24
1.0000000000E+20
 34
1.0000000000E+20
 15
-1.0000000000E+20
 25
-1.0000000000E+20
 35
-1.0000000000E+20
146
0.0
 13
0.0
 23
0.0
 33
0.0
 16
1.0
 26
0.0
 36
0.0
 17
0.0
 27
1.0
 37
0.0
 76
     0
330
1B
  0
LAYOUT
  5
26
102
{ACAD_REACTORS
330
1A
102
}
330
1A
100
AcDbPlotSettings
  1

  2
none_device
  4

  6

 40
0.0
 41
0.0
 42
0.0
 43
0.0
 44
0.0
 45
0.0
 46
0.0
 47
0.0
 48
0.0
 49
0.0
140
0.0
141
0.0
142
1.0
143
1.0
 70
   688
 72
     1
 73
     0
 74
     5
  7

 75
    16
 76
     0
 77
     2
 78
   300
147
1.0
148
0.0
149
0.0
100
AcDbLayout
  1
Layout2
 70
     1
 71
     2
 10
0.0
 20
0.0
 11
0.0
 21
0.0
 12
0.0
 22
0.0
 32
0.0
 14
0.0
 24
0.0
 34
0.0
 15
0.0
 25
0.0
 35
0.0
146
0.0
 13
0.0
 23
0.0
 33
0.0
 16
1.0
 26
0.0
 36
0.0
 17
0.0
 27
1.0
 37
0.0
 76
     0
330
23
  0
LAYOUT
  5
22
102
{ACAD_REACTORS
330
1A
102
}
330
1A
100
AcDbPlotSettings
  1

  2
none_device
  4
Letter_(8.50_x_11.00_Inches)
  6

 40
6.35
 41
6.35
 42
6.35000508
 43
6.35000508
 44
215.9
 45
279.4
 46
0.0
 47
0.0
 48
0.0
 49
0.0
140
0.0
141
0.0
142
1.0
143
1.0
 70
  1712
 72
     1
 73
     0
 74
     0
  7

 75
     0
 76
     0
 77
     2
 78
   300
147
1.0
148
0.0
149
0.0
100
AcDbLayout
  1
Model
 70
     1
 71
     0
 10
0.0
 20
0.0
 11
840.0
 21
594.0
 12
0.0
 22
0.0
 32
0.0
 14
0.0
 24
0.0
 34
0.0
 15
840.0
 25
594.0
 35
0.0
146
0.0
 13
0.0
 23
0.0
 33
0.0
 16
1.0
 26
0.0
 36
0.0
 17
0.0
 27
1.0
 37
0.0
 76
     0
330
1F
331
29
  0
MATERIAL
  5
45
102
{ACAD_REACTORS
330
43
102
}
330
43
100
AcDbMaterial
  1
ByBlock
 72
     1
 94
      127
  0
MATERIAL
  5
44
102
{ACAD_REACTORS
330
43
102
}
330
43
100
AcDbMaterial
  1
ByLayer
 72
     1
 94
      127
  0
MATERIAL
  5
46
102
{ACAD_REACTORS
330
43
102
}
330
43
100
AcDbMaterial
  1
Global
 72
     1
 94
      127
  0
MLEADERSTYLE
  5
6C
102
{ACAD_REACTORS
330
6B
102
}
330
6B
100
AcDbMLeaderStyle
179
     2
170
     2
171
     1
172
     0
 90
        2
 40
0.0
 41
0.0
173
     1
 91
-1056964608
340
14
 92
       -2
290
     1
 42
2.0
291
     1
 43
8.0
  3
Standard
341
0
 44
4.0
300

342
11
174
     1
178
     6
175
     1
176
     0
 93
-1056964608
 45
4.0
292
     0
297
     0
 46
4.0
343
0
 94
-1056964608
 47
1.0
 49
1.0
140
1.0
293
     1
141
0.0
294
     1
177
     0
142
1.0
295
     0
296
     0
143
3.75
271
     0
272
     9
273
     9
298
     0
  0
MLINESTYLE
  5
18
102
{ACAD_REACTORS
330
17
102
}
330
17
100
AcDbMlineStyle
  2
Standard
 70
     0
  3

 62
   256
 51
90.0
 52
90.0
 71
     2
 49
0.5
 62
   256
  6
BYLAYER
 49
-0.5
 62
   256
  6
BYLAYER
  0
ACDBPLACEHOLDER
  5
F
102
{ACAD_REACTORS
330
E
102
}
330
E
  0
SCALE
  5
48
102
{ACAD_REACTORS
330
47
102
}
330
47
100
AcDbScale
 70
     0
300
1:1
140
1.0
141
1.0
290
     1
  0
SCALE
  5
49
102
{ACAD_REACTORS
330
47
102
}
330
47
100
AcDbScale
 70
     0
300
1:2
140
1.0
141
2.0
290
     0
  0
SCALE
  5
4A
102
{ACAD_REACTORS
330
47
102
}
330
47
100
AcDbScale
 70
     0
300
1:4
140
1.0
141
4.0
290
     0
  0
SCALE
  5
4B
102
{ACAD_REACTORS
330
47
102
}
330
47
100
AcDbScale
 70
     0
300
1:5
140
1.0
141
5.0
290
     0
  0
SCALE
  5
4C
102
{ACAD_REACTORS
330
47
102
}
330
47
100
AcDbScale
 70
     0
300
1:8
140
1.0
141
8.0
290
     0
  0
SCALE
  5
4D
102
{ACAD_REACTORS
330
47
102
}
330
47
100
AcDbScale
 70
     0
300
1:10
140
1.0
141
10.0
290
     0
  0
SCALE
  5
4E
102
{ACAD_REACTORS
330
47
102
}
330
47
100
AcDbScale
 70
     0
300
1:16
140
1.0
141
16.0
290
     0
  0
SCALE
  5
4F
102
{ACAD_REACTORS
330
47
102
}
330
47
100
AcDbScale
 70
     0
300
1:20
140
1.0
141
20.0
290
     0
  0
SCALE
  5
50
102
{ACAD_REACTORS
330
47
102
}
330
47
100
AcDbScale
 70
     0
300
1:30
140
1.0
141
30.0
290
     0
  0
SCALE
  5
51
102
{ACAD_REACTORS
330
47
102
}
330
47
100
AcDbScale
 70
     0
300
1:40
140
1.0
141
40.0
290
     0
  0
SCALE
  5
52
102
{ACAD_REACTORS
330
47
102
}
330
47
100
AcDbScale
 70
     0
300
1:50
140
1.0
141
50.0
290
     0
  0
SCALE
  5
53
102
{ACAD_REACTORS
330
47
102
}
330
47
100
AcDbScale
 70
     0
300
1:100
140
1.0
141
100.0
290
     0
  0
SCALE
  5
54
102
{ACAD_REACTORS
330
47
102
}
330
47
100
AcDbScale
 70
     0
300
2:1
140
2.0
141
1.0
290
     0
  0
SCALE
  5
55
102
{ACAD_REACTORS
330
47
102
}
330
47
100
AcDbScale
 70
     0
300
4:1
140
4.0
141
1.0
290
     0
  0
SCALE
  5
56
102
{ACAD_REACTORS
330
47
102
}
330
47
100
AcDbScale
 70
     0
300
8:1
140
8.0
141
1.0
290
     0
  0
SCALE
  5
57
102
{ACAD_REACTORS
330
47
102
}
330
47
100
AcDbScale
 70
     0
300
10:1
140
10.0
141
1.0
290
     0
  0
SCALE
  5
58
102
{ACAD_REACTORS
330
47
102
}
330
47
100
AcDbScale
 70
     0
300
100:1
140
100.0
141
1.0
290
     0
  0
SCALE
  5
59
102
{ACAD_REACTORS
330
47
102
}
330
47
100
AcDbScale
 70
     0
300
1/128" = 1'-0"
140
0.0078125
141
12.0
290
     0
  0
SCALE
  5
5A
102
{ACAD_REACTORS
330
47
102
}
330
47
100
AcDbScale
 70
     0
300
1/64" = 1'-0"
140
0.015625
141
12.0
290
     0
  0
SCALE
  5
5B
102
{ACAD_REACTORS
330
47
102
}
330
47
100
AcDbScale
 70
     0
300
1/32" = 1'-0"
140
0.03125
141
12.0
290
     0
  0
SCALE
  5
5C
102
{ACAD_REACTORS
330
47
102
}
330
47
100
AcDbScale
 70
     0
300
1/16" = 1'-0"
140
0.0625
141
12.0
290
     0
  0
SCALE
  5
5D
102
{ACAD_REACTORS
330
47
102
}
330
47
100
AcDbScale
 70
     0
300
3/32" = 1'-0"
140
0.09375
141
12.0
290
     0
  0
SCALE
  5
5E
102
{ACAD_REACTORS
330
47
102
}
330
47
100
AcDbScale
 70
     0
300
1/8" = 1'-0"
140
0.125
141
12.0
290
     0
  0
SCALE
  5
5F
102
{ACAD_REACTORS
330
47
102
}
330
47
100
AcDbScale
 70
     0
300
3/16" = 1'-0"
140
0.1875
141
12.0
290
     0
  0
SCALE
  5
60
102
{ACAD_REACTORS
330
47
102
}
330
47
100
AcDbScale
 70
     0
300
1/4" = 1'-0"
140
0.25
141
12.0
290
     0
  0
SCALE
  5
61
102
{ACAD_REACTORS
330
47
102
}
330
47
100
AcDbScale
 70
     0
300
3/8" = 1'-0"
140
0.375
141
12.0
290
     0
  0
SCALE
  5
62
102
{ACAD_REACTORS
330
47
102
}
330
47
100
AcDbScale
 70
     0
300
1/2" = 1'-0"
140
0.5
141
12.0
290
     0
  0
SCALE
  5
63
102
{ACAD_REACTORS
330
47
102
}
330
47
100
AcDbScale
 70
     0
300
3/4" = 1'-0"
140
0.75
141
12.0
290
     0
  0
SCALE
  5
64
102
{ACAD_REACTORS
330
47
102
}
330
47
100
AcDbScale
 70
     0
300
1" = 1'-0"
140
1.0
141
12.0
290
     0
  0
SCALE
  5
65
102
{ACAD_REACTORS
330
47
102
}
330
47
100
AcDbScale
 70
     0
300
1-1/2" = 1'-0"
140
1.5
141
12.0
290
     0
  0
SCALE
  5
66
102
{ACAD_REACTORS
330
47
102
}
330
47
100
AcDbScale
 70
     0
300
3" = 1'-0"
140
3.0
141
12.0
290
     0
  0
SCALE
  5
67
102
{ACAD_REACTORS
330
47
102
}
330
47
100
AcDbScale
 70
     0
300
6" = 1'-0"
140
6.0
141
12.0
290
     0
  0
SCALE
  5
68
102
{ACAD_REACTORS
330
47
102
}
330
47
100
AcDbScale
 70
     0
300
1'-0" = 1'-0"
140
12.0
141
12.0
290
     0
  0
TABLESTYLE
  5
6A
102
{ACAD_REACTORS
330
69
102
}
102
{ACAD_XDICTIONARY
360
429
102
}
330
69
100
AcDbTableStyle
  3
Standard
 70
     0
 71
     0
 40
0.06
 41
0.06
280
     0
281
     0
  7
Standard
140
4.5
170
     2
 62
     0
 63
   257
283
     0
 90
        4
 91
        0
  1

274
    -2
284
     1
 64
     0
275
    -2
285
     1
 65
     0
276
    -2
286
     1
 66
     0
277
    -2
287
     1
 67
     0
278
    -2
288
     1
 68
     0
279
    -2
289
     1
 69
     0
  7
Standard
140
6.0
170
     5
 62
     0
 63
   257
283
     0
 90
        4
 91
        0
  1

274
    -2
284
     1
 64
     0
275
    -2
285
     1
 65
     0
276
    -2
286
     1
 66
     0
277
    -2
287
     1
 67
     0
278
    -2
288
     1
 68
     0
279
    -2
289
     1
 69
     0
  7
Standard
140
4.5
170
     5
 62
     0
 63
   257
283
     0
 90
        4
 91
        0
  1

274
    -2
284
     1
 64
     0
275
    -2
285
     1
 65
     0
276
    -2
286
     1
 66
     0
277
    -2
287
     1
 67
     0
278
    -2
288
     1
 68
     0
279
    -2
289
     1
 69
     0
  0
VISUALSTYLE
  5
2F
102
{ACAD_REACTORS
330
2A
102
}
330
2A
100
AcDbVisualStyle
  2
2dWireframe
 70
     4
177
     3
291
     0
 70
    58
 90
        0
176
     1
 90
        2
176
     1
 90
        0
176
     1
 90
        0
176
     1
 40
0.6
176
     1
 40
30.0
176
     1
 62
     7
420
 16777215
176
     1
 90
        1
176
     1
 90
        4
176
     1
 62
     7
176
     1
 62
   257
176
     1
 90
        1
176
     1
 90
        1
176
     1
 40
1.0
176
     1
 90
        0
176
     1
 62
   257
176
     1
 40
1.0
176
     1
 90
        1
176
     1
 90
        6
176
     1
 90
        2
176
     1
 62
     7
176
     1
 90
        5
176
     1
 90
        0
176
     1
 90
        0
176
     1
290
     0
176
     1
 90
        1
176
     1
 40
0.0
176
     1
 90
        0
176
     1
290
     1
176
     1
290
     1
176
     1
290
     0
176
     1
290
     0
176
     1
290
     0
176
     1
290
     0
176
     1
290
     0
176
     1
290
     0
176
     1
290
     0
176
     1
 90
       50
176
     1
 40
0.0
176
     1
 40
1.0
176
     1
 90
        0
176
     1
 62
    18
420
        0
176
     1
 90
       50
176
     1
 90
        3
176
     1
 62
     5
420
      255
176
     1
290
     0
176
     1
 90
       50
176
     1
 90
       50
176
     1
 90
       50
176
     1
290
     0
176
     1
 90
       50
176
     1
 62
   256
176
     0
 40
1.0
176
     0
 90
        2
176
     1
  1
strokes_ogs.tif
176
     1
290
     0
176
     1
 40
1.0
176
     1
 40
1.0
176
     1
  0
VISUALSTYLE
  5
32
102
{ACAD_REACTORS
330
2A
102
}
330
2A
100
AcDbVisualStyle
  2
Basic
 70
     7
177
     3
291
     1
 70
    58
 90
        1
176
     1
 90
        0
176
     1
 90
        1
176
     1
 90
        0
176
     1
 40
0.6
176
     1
 40
30.0
176
     1
 62
     7
420
 16777215
176
     1
 90
        0
176
     1
 90
        4
176
     1
 62
     7
176
     1
 62
   257
176
     1
 90
        1
176
     1
 90
        1
176
     1
 40
1.0
176
     1
 90
        8
176
     1
 62
     7
176
     1
 40
1.0
176
     1
 90
        1
176
     1
 90
        6
176
     1
 90
        2
176
     1
 62
     7
176
     1
 90
        5
176
     1
 90
        0
176
     1
 90
        0
176
     1
290
     0
176
     1
 90
        1
176
     1
 40
0.0
176
     1
 90
        0
176
     1
290
     0
176
     1
290
     1
176
     1
290
     1
176
     1
290
     0
176
     1
290
     0
176
     1
290
     0
176
     1
290
     0
176
     1
290
     0
176
     1
290
     0
176
     1
 90
       50
176
     1
 40
0.0
176
     1
 40
1.0
176
     1
 90
        0
176
     1
 62
    18
420
        0
176
     1
 90
       50
176
     1
 90
        3
176
     1
 62
     5
420
      255
176
     1
290
     0
176
     1
 90
       50
176
     1
 90
       50
176
     1
 90
       50
176
     1
290
     0
176
     1
 90
       50
176
     1
 62
   256
176
     0
 40
1.0
176
     0
 90
        2
176
     1
  1
strokes_ogs.tif
176
     1
290
     0
176
     1
 40
1.0
176
     1
 40
1.0
176
     1
  0
VISUALSTYLE
  5
36
102
{ACAD_REACTORS
330
2A
102
}
330
2A
100
AcDbVisualStyle
  2
Brighten
 70
    12
177
     3
291
     1
 70
    58
 90
        2
176
     1
 90
        2
176
     1
 90
        0
176
     1
 90
        0
176
     1
 40
0.6
176
     1
 40
30.0
176
     1
 62
     7
420
 16777215
176
     1
 90
        1
176
     1
 90
        4
176
     1
 62
     7
176
     1
 62
   257
176
     1
 90
        1
176
     1
 90
        1
176
     1
 40
1.0
176
     1
 90
        8
176
     1
 62
     7
176
     1
 40
1.0
176
     1
 90
        1
176
     1
 90
        6
176
     1
 90
        2
176
     1
 62
     7
176
     1
 90
        5
176
     1
 90
        0
176
     1
 90
        0
176
     1
290
     0
176
     1
 90
        1
176
     1
 40
50.0
176
     1
 90
        0
176
     1
290
     0
176
     1
290
     1
176
     1
290
     1
176
     1
290
     0
176
     1
290
     0
176
     1
290
     0
176
     1
290
     0
176
     1
290
     0
176
     1
290
     0
176
     1
 90
       50
176
     1
 40
0.0
176
     1
 40
1.0
176
     1
 90
        0
176
     1
 62
    18
420
        0
176
     1
 90
       50
176
     1
 90
        3
176
     1
 62
     5
420
      255
176
     1
290
     0
176
     1
 90
       50
176
     1
 90
       50
176
     1
 90
       50
176
     1
290
     0
176
     1
 90
       50
176
     1
 62
   256
176
     0
 40
1.0
176
     0
 90
        2
176
     1
  1
strokes_ogs.tif
176
     1
290
     0
176
     1
 40
1.0
176
     1
 40
1.0
176
     1
  0
VISUALSTYLE
  5
3A
102
{ACAD_REACTORS
330
2A
102
}
330
2A
100
AcDbVisualStyle
  2
ColorChange
 70
    16
177
     3
291
     1
 70
    58
 90
        2
176
     1
 90
        2
176
     1
 90
        3
176
     1
 90
        0
176
     1
 40
0.6
176
     1
 40
30.0
176
     1
 62
     8
420
  8421504
176
     1
 90
        1
176
     1
 90
        4
176
     1
 62
     7
176
     1
 62
   257
176
     1
 90
        1
176
     1
 90
        1
176
     1
 40
1.0
176
     1
 90
        8
176
     1
 62
     8
420
  8421504
176
     1
 40
1.0
176
     1
 90
        1
176
     1
 90
        6
176
     1
 90
        2
176
     1
 62
     7
176
     1
 90
        5
176
     1
 90
        0
176
     1
 90
        0
176
     1
290
     0
176
     1
 90
        1
176
     1
 40
0.0
176
     1
 90
        0
176
     1
290
     0
176
     1
290
     1
176
     1
290
     1
176
     1
290
     0
176
     1
290
     0
176
     1
290
     0
176
     1
290
     0
176
     1
290
     0
176
     1
290
     0
176
     1
 90
       50
176
     1
 40
0.0
176
     1
 40
1.0
176
     1
 90
        0
176
     1
 62
    18
420
        0
176
     1
 90
       50
176
     1
 90
        3
176
     1
 62
     5
420
      255
176
     1
290
     0
176
     1
 90
       50
176
     1
 90
       50
176
     1
 90
       50
176
     1
290
     0
176
     1
 90
       50
176
     1
 62
   256
176
     0
 40
1.0
176
     0
 90
        2
176
     1
  1
strokes_ogs.tif
176
     1
290
     0
176
     1
 40
1.0
176
     1
 40
1.0
176
     1
  0
VISUALSTYLE
  5
34
102
{ACAD_REACTORS
330
2A
102
}
330
2A
100
AcDbVisualStyle
  2
Conceptual
 70
     9
177
     3
291
     0
 70
    58
 90
        3
176
     1
 90
        2
176
     1
 90
        0
176
     1
 90
        0
176
     1
 40
0.6
176
     1
 40
30.0
176
     1
 62
     7
420
 16777215
176
     1
 90
        2
176
     1
 90
        2
176
     1
 62
     7
176
     1
 62
   257
176
     1
 90
        1
176
     1
 90
        1
176
     1
 40
179.0
176
     1
 90
        8
176
     1
 62
     7
176
     1
 40
1.0
176
     1
 90
        1
176
     1
 90
        6
176
     1
 90
        2
176
     1
 62
     7
176
     1
 90
        3
176
     1
 90
        0
176
     1
 90
        0
176
     1
290
     0
176
     1
 90
        1
176
     1
 40
0.0
176
     1
 90
        0
176
     1
290
     0
176
     1
290
     1
176
     1
290
     1
176
     1
290
     0
176
     1
290
     0
176
     1
290
     0
176
     1
290
     0
176
     1
290
     0
176
     1
290
     0
176
     1
 90
       50
176
     1
 40
0.0
176
     1
 40
1.0
176
     1
 90
        0
176
     1
 62
    18
420
        0
176
     1
 90
       50
176
     1
 90
        3
176
     1
 62
     5
420
      255
176
     1
290
     0
176
     1
 90
       50
176
     1
 90
       50
176
     1
 90
       50
176
     1
290
     0
176
     1
 90
       50
176
     1
 62
   256
176
     0
 40
1.0
176
     0
 90
        2
176
     1
  1
strokes_ogs.tif
176
     1
290
     0
176
     1
 40
1.0
176
     1
 40
1.0
176
     1
  0
VISUALSTYLE
  5
35
102
{ACAD_REACTORS
330
2A
102
}
330
2A
100
AcDbVisualStyle
  2
Dim
 70
    11
177
     3
291
     1
 70
    58
 90
        2
176
     1
 90
        2
176
     1
 90
        0
176
     1
 90
        0
176
     1
 40
0.6
176
     1
 40
30.0
176
     1
 62
     7
420
 16777215
176
     1
 90
        1
176
     1
 90
        4
176
     1
 62
     7
176
     1
 62
   257
176
     1
 90
        1
176
     1
 90
        1
176
     1
 40
1.0
176
     1
 90
        8
176
     1
 62
     7
176
     1
 40
1.0
176
     1
 90
        1
176
     1
 90
        6
176
     1
 90
        2
176
     1
 62
     7
176
     1
 90
        5
176
     1
 90
        0
176
     1
 90
        0
176
     1
290
     0
176
     1
 90
        1
176
     1
 40
-50.0
176
     1
 90
        0
176
     1
290
     0
176
     1
290
     1
176
     1
290
     1
176
     1
290
     0
176
     1
290
     0
176
     1
290
     0
176
     1
290
     0
176
     1
290
     0
176
     1
290
     0
176
     1
 90
       50
176
     1
 40
0.0
176
     1
 40
1.0
176
     1
 90
        0
176
     1
 62
    18
420
        0
176
     1
 90
       50
176
     1
 90
        3
176
     1
 62
     5
420
      255
176
     1
290
     0
176
     1
 90
       50
176
     1
 90
       50
176
     1
 90
       50
176
     1
290
     0
176
     1
 90
       50
176
     1
 62
   256
176
     0
 40
1.0
176
     0
 90
        2
176
     1
  1
strokes_ogs.tif
176
     1
290
     0
176
     1
 40
1.0
176
     1
 40
1.0
176
     1
  0
VISUALSTYLE
  5
3D
102
{ACAD_REACTORS
330
2A
102
}
330
2A
100
AcDbVisualStyle
  2
EdgeColorOff
 70
    22
177
     3
291
     1
 70
    58
 90
        2
176
     0
 90
        2
176
     0
 90
        0
176
     0
 90
        0
176
     0
 40
0.6
176
     0
 40
30.0
176
     0
 62
     7
420
 16777215
176
     0
 90
        1
176
     0
 90
        4
176
     0
 62
     7
176
     0
 62
   257
176
     0
 90
        1
176
     0
 90
        1
176
     0
 40
1.0
176
     0
 90
        8
176
     2
 62
     7
176
     0
 40
1.0
176
     0
 90
        1
176
     0
 90
        6
176
     0
 90
        2
176
     0
 62
     7
176
     0
 90
        5
176
     0
 90
        0
176
     0
 90
        0
176
     0
290
     0
176
     0
 90
        1
176
     0
 40
0.0
176
     0
 90
        0
176
     0
290
     0
176
     0
290
     1
176
     0
290
     1
176
     0
290
     0
176
     0
290
     0
176
     0
290
     0
176
     0
290
     0
176
     0
290
     0
176
     0
290
     0
176
     0
 90
       50
176
     0
 40
0.0
176
     0
 40
1.0
176
     0
 90
        0
176
     0
 62
    18
420
        0
176
     0
 90
       50
176
     0
 90
        3
176
     0
 62
     5
420
      255
176
     0
290
     0
176
     0
 90
       50
176
     0
 90
       50
176
     0
 90
       50
176
     0
290
     0
176
     0
 90
       50
176
     0
 62
   256
176
     0
 40
1.0
176
     0
 90
        2
176
     0
  1
strokes_ogs.tif
176
     0
290
     0
176
     0
 40
1.0
176
     0
 40
1.0
176
     0
  0
VISUALSTYLE
  5
39
102
{ACAD_REACTORS
330
2A
102
}
330
2A
100
AcDbVisualStyle
  2
Facepattern
 70
    15
177
     3
291
     1
 70
    58
 90
        2
176
     1
 90
        2
176
     1
 90
        0
176
     1
 90
        0
176
     1
 40
0.6
176
     1
 40
30.0
176
     1
 62
     7
420
 16777215
176
     1
 90
        1
176
     1
 90
        4
176
     1
 62
     7
176
     1
 62
   257
176
     1
 90
        1
176
     1
 90
        1
176
     1
 40
1.0
176
     1
 90
        8
176
     1
 62
     7
176
     1
 40
1.0
176
     1
 90
        1
176
     1
 90
        6
176
     1
 90
        2
176
     1
 62
     7
176
     1
 90
        5
176
     1
 90
        0
176
     1
 90
        0
176
     1
290
     0
176
     1
 90
        1
176
     1
 40
0.0
176
     1
 90
        0
176
     1
290
     0
176
     1
290
     1
176
     1
290
     1
176
     1
290
     0
176
     1
290
     0
176
     1
290
     0
176
     1
290
     0
176
     1
290
     0
176
     1
290
     0
176
     1
 90
       50
176
     1
 40
0.0
176
     1
 40
1.0
176
     1
 90
        0
176
     1
 62
    18
420
        0
176
     1
 90
       50
176
     1
 90
        3
176
     1
 62
     5
420
      255
176
     1
290
     0
176
     1
 90
       50
176
     1
 90
       50
176
     1
 90
       50
176
     1
290
     0
176
     1
 90
       50
176
     1
 62
   256
176
     0
 40
1.0
176
     0
 90
        2
176
     1
  1
strokes_ogs.tif
176
     1
290
     0
176
     1
 40
1.0
176
     1
 40
1.0
176
     1
  0
VISUALSTYLE
  5
2B
102
{ACAD_REACTORS
330
2A
102
}
330
2A
100
AcDbVisualStyle
  2
Flat
 70
     0
177
     3
291
     1
 70
    58
 90
        2
176
     1
 90
        1
176
     1
 90
        1
176
     1
 90
        2
176
     1
 40
0.6
176
     1
 40
30.0
176
     1
 62
     7
420
 16777215
176
     1
 90
        0
176
     1
 90
        0
176
     1
 62
     7
176
     1
 62
   257
176
     1
 90
        1
176
     1
 90
        1
176
     1
 40
1.0
176
     1
 90
        8
176
     1
 62
     7
176
     1
 40
1.0
176
     1
 90
        1
176
     1
 90
        6
176
     1
 90
        2
176
     1
 62
     7
176
     1
 90
        5
176
     1
 90
        0
176
     1
 90
        0
176
     1
290
     0
176
     1
 90
       13
176
     1
 40
0.0
176
     1
 90
        0
176
     1
290
     0
176
     1
290
     1
176
     1
290
     1
176
     1
290
     0
176
     1
290
     0
176
     1
290
     0
176
     1
290
     0
176
     1
290
     0
176
     1
290
     0
176
     1
 90
       50
176
     1
 40
0.0
176
     1
 40
1.0
176
     1
 90
        0
176
     1
 62
    18
420
        0
176
     1
 90
       50
176
     1
 90
        3
176
     1
 62
     5
420
      255
176
     1
290
     0
176
     1
 90
       50
176
     1
 90
       50
176
     1
 90
       50
176
     1
290
     0
176
     1
 90
       50
176
     1
 62
   256
176
     0
 40
1.0
176
     0
 90
        2
176
     1
  1
strokes_ogs.tif
176
     1
290
     0
176
     1
 40
1.0
176
     1
 40
1.0
176
     1
  0
VISUALSTYLE
  5
2C
102
{ACAD_REACTORS
330
2A
102
}
330
2A
100
AcDbVisualStyle
  2
FlatWithEdges
 70
     1
177
     3
291
     1
 70
    58
 90
        2
176
     1
 90
        1
176
     1
 90
        1
176
     1
 90
        2
176
     1
 40
0.6
176
     1
 40
30.0
176
     1
 62
     7
420
 16777215
176
     1
 90
        1
176
     1
 90
        0
176
     1
 62
     7
176
     1
 62
   257
176
     1
 90
        1
176
     1
 90
        1
176
     1
 40
1.0
176
     1
 90
        0
176
     1
 62
   257
176
     1
 40
1.0
176
     1
 90
        1
176
     1
 90
        6
176
     1
 90
        2
176
     1
 62
     7
176
     1
 90
        5
176
     1
 90
        0
176
     1
 90
        0
176
     1
290
     0
176
     1
 90
       13
176
     1
 40
0.0
176
     1
 90
        0
176
     1
290
     0
176
     1
290
     1
176
     1
290
     1
176
     1
290
     0
176
     1
290
     0
176
     1
290
     0
176
     1
290
     0
176
     1
290
     0
176
     1
290
     0
176
     1
 90
       50
176
     1
 40
0.0
176
     1
 40
1.0
176
     1
 90
        0
176
     1
 62
    18
420
        0
176
     1
 90
       50
176
     1
 90
        3
176
     1
 62
     5
420
      255
176
     1
290
     0
176
     1
 90
       50
176
     1
 90
       50
176
     1
 90
       50
176
     1
290
     0
176
     1
 90
       50
176
     1
 62
   256
176
     0
 40
1.0
176
     0
 90
        2
176
     1
  1
strokes_ogs.tif
176
     1
290
     0
176
     1
 40
1.0
176
     1
 40
1.0
176
     1
  0
VISUALSTYLE
  5
2D
102
{ACAD_REACTORS
330
2A
102
}
330
2A
100
AcDbVisualStyle
  2
Gouraud
 70
     2
177
     3
291
     1
 70
    58
 90
        2
176
     1
 90
        2
176
     1
 90
        1
176
     1
 90
        2
176
     1
 40
0.6
176
     1
 40
30.0
176
     1
 62
     7
420
 16777215
176
     1
 90
        0
176
     1
 90
        0
176
     1
 62
     7
176
     1
 62
   257
176
     1
 90
        1
176
     1
 90
        1
176
     1
 40
1.0
176
     1
 90
        0
176
     1
 62
     7
176
     1
 40
1.0
176
     1
 90
        1
176
     1
 90
        6
176
     1
 90
        2
176
     1
 62
     7
176
     1
 90
        5
176
     1
 90
        0
176
     1
 90
        0
176
     1
290
     0
176
     1
 90
       13
176
     1
 40
0.0
176
     1
 90
        0
176
     1
290
     0
176
     1
290
     1
176
     1
290
     1
176
     1
290
     0
176
     1
290
     0
176
     1
290
     0
176
     1
290
     0
176
     1
290
     0
176
     1
290
     0
176
     1
 90
       50
176
     1
 40
0.0
176
     1
 40
1.0
176
     1
 90
        0
176
     1
 62
    18
420
        0
176
     1
 90
       50
176
     1
 90
        3
176
     1
 62
     5
420
      255
176
     1
290
     0
176
     1
 90
       50
176
     1
 90
       50
176
     1
 90
       50
176
     1
290
     0
176
     1
 90
       50
176
     1
 62
   256
176
     0
 40
1.0
176
     0
 90
        2
176
     1
  1
strokes_ogs.tif
176
     1
290
     0
176
     1
 40
1.0
176
     1
 40
1.0
176
     1
  0
VISUALSTYLE
  5
2E
102
{ACAD_REACTORS
330
2A
102
}
330
2A
100
AcDbVisualStyle
  2
GouraudWithEdges
 70
     3
177
     3
291
     1
 70
    58
 90
        2
176
     1
 90
        2
176
     1
 90
        1
176
     1
 90
        2
176
     1
 40
0.6
176
     1
 40
30.0
176
     1
 62
     7
420
 16777215
176
     1
 90
        1
176
     1
 90
        0
176
     1
 62
     7
176
     1
 62
   257
176
     1
 90
        1
176
     1
 90
        1
176
     1
 40
1.0
176
     1
 90
        0
176
     1
 62
   257
176
     1
 40
1.0
176
     1
 90
        1
176
     1
 90
        6
176
     1
 90
        2
176
     1
 62
     7
176
     1
 90
        5
176
     1
 90
        0
176
     1
 90
        0
176
     1
290
     0
176
     1
 90
       13
176
     1
 40
0.0
176
     1
 90
        0
176
     1
290
     0
176
     1
290
     1
176
     1
290
     1
176
     1
290
     0
176
     1
290
     0
176
     1
290
     0
176
     1
290
     0
176
     1
290
     0
176
     1
290
     0
176
     1
 90
       50
176
     1
 40
0.0
176
     1
 40
1.0
176
     1
 90
        0
176
     1
 62
    18
420
        0
176
     1
 90
       50
176
     1
 90
        3
176
     1
 62
     5
420
      255
176
     1
290
     0
176
     1
 90
       50
176
     1
 90
       50
176
     1
 90
       50
176
     1
290
     0
176
     1
 90
       50
176
     1
 62
   256
176
     0
 40
1.0
176
     0
 90
        2
176
     1
  1
strokes_ogs.tif
176
     1
290
     0
176
     1
 40
1.0
176
     1
 40
1.0
176
     1
  0
VISUALSTYLE
  5
31
102
{ACAD_REACTORS
330
2A
102
}
330
2A
100
AcDbVisualStyle
  2
Hidden
 70
     6
177
     3
291
     0
 70
    58
 90
        1
176
     1
 90
        2
176
     1
 90
        2
176
     1
 90
        0
176
     1
 40
0.6
176
     1
 40
30.0
176
     1
 62
     7
420
 16777215
176
     1
 90
        2
176
     1
 90
        2
176
     1
 62
     7
176
     1
 62
   257
176
     1
 90
        2
176
     1
 90
        1
176
     1
 40
40.0
176
     1
 90
        0
176
     1
 62
   257
176
     1
 40
1.0
176
     1
 90
        1
176
     1
 90
        6
176
     1
 90
        2
176
     1
 62
     7
176
     1
 90
        3
176
     1
 90
        0
176
     1
 90
        0
176
     1
290
     0
176
     1
 90
        1
176
     1
 40
0.0
176
     1
 90
        0
176
     1
290
     0
176
     1
290
     1
176
     1
290
     1
176
     1
290
     0
176
     1
290
     0
176
     1
290
     0
176
     1
290
     0
176
     1
290
     0
176
     1
290
     0
176
     1
 90
       50
176
     1
 40
0.0
176
     1
 40
1.0
176
     1
 90
        0
176
     1
 62
    18
420
        0
176
     1
 90
       50
176
     1
 90
        3
176
     1
 62
     5
420
      255
176
     1
290
     0
176
     1
 90
       50
176
     1
 90
       50
176
     1
 90
       50
176
     1
290
     0
176
     1
 90
       50
176
     1
 62
   256
176
     0
 40
1.0
176
     0
 90
        2
176
     1
  1
strokes_ogs.tif
176
     1
290
     0
176
     1
 40
1.0
176
     1
 40
1.0
176
     1
  0
VISUALSTYLE
  5
3B
102
{ACAD_REACTORS
330
2A
102
}
330
2A
100
AcDbVisualStyle
  2
JitterOff
 70
    20
177
     3
291
     1
 70
    58
 90
        2
176
     0
 90
        2
176
     0
 90
        0
176
     0
 90
        0
176
     0
 40
0.6
176
     0
 40
30.0
176
     0
 62
     7
420
 16777215
176
     0
 90
        1
176
     0
 90
        4
176
     0
 62
     7
176
     0
 62
   257
176
     0
 90
        1
176
     0
 90
        1
176
     0
 40
1.0
176
     0
 90
       10
176
     2
 62
     7
176
     0
 40
1.0
176
     0
 90
        1
176
     0
 90
        6
176
     0
 90
        2
176
     0
 62
     7
176
     0
 90
        5
176
     0
 90
        0
176
     0
 90
        0
176
     0
290
     0
176
     0
 90
        1
176
     0
 40
0.0
176
     0
 90
        0
176
     0
290
     0
176
     0
290
     1
176
     0
290
     1
176
     0
290
     0
176
     0
290
     0
176
     0
290
     0
176
     0
290
     0
176
     0
290
     0
176
     0
290
     0
176
     0
 90
       50
176
     0
 40
0.0
176
     0
 40
1.0
176
     0
 90
        0
176
     0
 62
    18
420
        0
176
     0
 90
       50
176
     0
 90
        3
176
     0
 62
     5
420
      255
176
     0
290
     0
176
     0
 90
       50
176
     0
 90
       50
176
     0
 90
       50
176
     0
290
     0
176
     0
 90
       50
176
     0
 62
   256
176
     0
 40
1.0
176
     0
 90
        2
176
     0
  1
strokes_ogs.tif
176
     0
290
     0
176
     0
 40
1.0
176
     0
 40
1.0
176
     0
  0
VISUALSTYLE
  5
38
102
{ACAD_REACTORS
330
2A
102
}
330
2A
100
AcDbVisualStyle
  2
Linepattern
 70
    14
177
     3
291
     1
 70
    58
 90
        2
176
     1
 90
        2
176
     1
 90
        0
176
     1
 90
        0
176
     1
 40
0.6
176
     1
 40
30.0
176
     1
 62
     7
420
 16777215
176
     1
 90
        1
176
     1
 90
        4
176
     1
 62
     7
176
     1
 62
   257
176
     1
 90
        7
176
     1
 90
        7
176
     1
 40
1.0
176
     1
 90
        8
176
     1
 62
     7
176
     1
 40
1.0
176
     1
 90
        1
176
     1
 90
        6
176
     1
 90
        2
176
     1
 62
     7
176
     1
 90
        5
176
     1
 90
        0
176
     1
 90
        0
176
     1
290
     0
176
     1
 90
        1
176
     1
 40
0.0
176
     1
 90
        0
176
     1
290
     0
176
     1
290
     1
176
     1
290
     1
176
     1
290
     0
176
     1
290
     0
176
     1
290
     0
176
     1
290
     0
176
     1
290
     0
176
     1
290
     0
176
     1
 90
       50
176
     1
 40
0.0
176
     1
 40
1.0
176
     1
 90
        0
176
     1
 62
    18
420
        0
176
     1
 90
       50
176
     1
 90
        3
176
     1
 62
     5
420
      255
176
     1
290
     0
176
     1
 90
       50
176
     1
 90
       50
176
     1
 90
       50
176
     1
290
     0
176
     1
 90
       50
176
     1
 62
   256
176
     0
 40
1.0
176
     0
 90
        2
176
     1
  1
strokes_ogs.tif
176
     1
290
     0
176
     1
 40
1.0
176
     1
 40
1.0
176
     1
  0
VISUALSTYLE
  5
3C
102
{ACAD_REACTORS
330
2A
102
}
330
2A
100
AcDbVisualStyle
  2
OverhangOff
 70
    21
177
     3
291
     1
 70
    58
 90
        2
176
     0
 90
        2
176
     0
 90
        0
176
     0
 90
        0
176
     0
 40
0.6
176
     0
 40
30.0
176
     0
 62
     7
420
 16777215
176
     0
 90
        1
176
     0
 90
        4
176
     0
 62
     7
176
     0
 62
   257
176
     0
 90
        1
176
     0
 90
        1
176
     0
 40
1.0
176
     0
 90
        9
176
     2
 62
     7
176
     0
 40
1.0
176
     0
 90
        1
176
     0
 90
        6
176
     0
 90
        2
176
     0
 62
     7
176
     0
 90
        5
176
     0
 90
        0
176
     0
 90
        0
176
     0
290
     0
176
     0
 90
        1
176
     0
 40
0.0
176
     0
 90
        0
176
     0
290
     0
176
     0
290
     1
176
     0
290
     1
176
     0
290
     0
176
     0
290
     0
176
     0
290
     0
176
     0
290
     0
176
     0
290
     0
176
     0
290
     0
176
     0
 90
       50
176
     0
 40
0.0
176
     0
 40
1.0
176
     0
 90
        0
176
     0
 62
    18
420
        0
176
     0
 90
       50
176
     0
 90
        3
176
     0
 62
     5
420
      255
176
     0
290
     0
176
     0
 90
       50
176
     0
 90
       50
176
     0
 90
       50
176
     0
290
     0
176
     0
 90
       50
176
     0
 62
   256
176
     0
 40
1.0
176
     0
 90
        2
176
     0
  1
strokes_ogs.tif
176
     0
290
     0
176
     0
 40
1.0
176
     0
 40
1.0
176
     0
  0
VISUALSTYLE
  5
33
102
{ACAD_REACTORS
330
2A
102
}
330
2A
100
AcDbVisualStyle
  2
Realistic
 70
     8
177
     3
291
     0
 70
    58
 90
        2
176
     1
 90
        3
176
     1
 90
        0
176
     1
 90
        2
176
     1
 40
0.6
176
     1
 40
30.0
176
     1
 62
     7
420
 16777215
176
     1
 90
        0
176
     1
 90
        0
176
     1
 62
     7
176
     1
 62
   257
176
     1
 90
        1
176
     1
 90
        1
176
     1
 40
1.0
176
     1
 90
        8
176
     1
 62
   257
176
     1
 40
1.0
176
     1
 90
        1
176
     1
 90
        6
176
     1
 90
        2
176
     1
 62
     7
176
     1
 90
        3
176
     1
 90
        0
176
     1
 90
        0
176
     1
290
     0
176
     1
 90
       13
176
     1
 40
0.0
176
     1
 90
        0
176
     1
290
     0
176
     1
290
     1
176
     1
290
     1
176
     1
290
     0
176
     1
290
     0
176
     1
290
     0
176
     1
290
     0
176
     1
290
     0
176
     1
290
     0
176
     1
 90
       50
176
     1
 40
0.0
176
     1
 40
1.0
176
     1
 90
        0
176
     1
 62
    18
420
        0
176
     1
 90
       50
176
     1
 90
        3
176
     1
 62
     5
420
      255
176
     1
290
     0
176
     1
 90
       50
176
     1
 90
       50
176
     1
 90
       50
176
     1
290
     0
176
     1
 90
       50
176
     1
 62
   256
176
     0
 40
1.0
176
     0
 90
        2
176
     1
  1
strokes_ogs.tif
176
     1
290
     0
176
     1
 40
1.0
176
     1
 40
1.0
176
     1
  0
VISUALSTYLE
  5
42
102
{ACAD_REACTORS
330
2A
102
}
330
2A
100
AcDbVisualStyle
  2
Shaded
 70
    27
177
     3
291
     0
 70
    58
 90
        2
176
     1
 90
        2
176
     1
 90
        1
176
     1
 90
        2
176
     1
 40
0.6
176
     1
 40
30.0
176
     1
 62
     7
420
 16777215
176
     1
 90
        0
176
     1
 90
        4
176
     1
 62
     7
176
     1
 62
   257
176
     1
 90
        1
176
     1
 90
        1
176
     1
 40
1.0
176
     1
 90
        8
176
     1
 62
   257
176
     1
 40
1.0
176
     1
 90
        1
176
     1
 90
        6
176
     1
 90
        2
176
     1
 62
     8
420
  7895160
176
     1
 90
        3
176
     1
 90
        0
176
     1
 90
        0
176
     1
290
     0
176
     1
 90
        5
176
     1
 40
0.0
176
     1
 90
        0
176
     1
290
     0
176
     1
290
     1
176
     1
290
     1
176
     1
290
     0
176
     1
290
     0
176
     1
290
     0
176
     1
290
     0
176
     1
290
     0
176
     1
290
     0
176
     1
 90
       50
176
     1
 40
0.0
176
     1
 40
1.0
176
     1
 90
        0
176
     1
 62
    18
420
        0
176
     1
 90
       50
176
     1
 90
        3
176
     1
 62
     5
420
      255
176
     1
290
     0
176
     1
 90
       50
176
     1
 90
       50
176
     1
 90
       50
176
     1
290
     0
176
     1
 90
       50
176
     1
 62
   256
176
     0
 40
1.0
176
     0
 90
        2
176
     1
  1
strokes_ogs.tif
176
     1
290
     0
176
     1
 40
1.0
176
     1
 40
1.0
176
     1
  0
VISUALSTYLE
  5
41
102
{ACAD_REACTORS
330
2A
102
}
330
2A
100
AcDbVisualStyle
  2
Shaded with edges
 70
    26
177
     3
291
     0
 70
    58
 90
        2
176
     1
 90
        2
176
     1
 90
        1
176
     1
 90
        2
176
     1
 40
0.6
176
     1
 40
30.0
176
     1
 62
     7
420
 16777215
176
     1
 90
        1
176
     1
 90
       10
176
     1
 62
     7
176
     1
 62
   257
176
     1
 90
        2
176
     1
 90
        1
176
     1
 40
1.0
176
     1
 90
        8
176
     1
 62
   257
176
     1
 40
1.0
176
     1
 90
        1
176
     1
 90
        6
176
     1
 90
        2
176
     1
 62
     7
176
     1
 90
        3
176
     1
 90
        0
176
     1
 90
        0
176
     1
290
     0
176
     1
 90
        5
176
     1
 40
0.0
176
     1
 90
        0
176
     1
290
     0
176
     1
290
     1
176
     1
290
     1
176
     1
290
     0
176
     1
290
     0
176
     1
290
     0
176
     1
290
     0
176
     1
290
     0
176
     1
290
     0
176
     1
 90
       50
176
     1
 40
0.0
176
     1
 40
1.0
176
     1
 90
        0
176
     1
 62
    18
420
        0
176
     1
 90
       50
176
     1
 90
        3
176
     1
 62
     5
420
      255
176
     1
290
     0
176
     1
 90
       50
176
     1
 90
       50
176
     1
 90
       50
176
     1
290
     0
176
     1
 90
       50
176
     1
 62
   256
176
     0
 40
1.0
176
     0
 90
        2
176
     1
  1
strokes_ogs.tif
176
     1
290
     0
176
     1
 40
1.0
176
     1
 40
1.0
176
     1
  0
VISUALSTYLE
  5
3E
102
{ACAD_REACTORS
330
2A
102
}
330
2A
100
AcDbVisualStyle
  2
Shades of Gray
 70
    23
177
     3
291
     0
 70
    58
 90
        2
176
     1
 90
        2
176
     1
 90
        3
176
     1
 90
        0
176
     1
 40
0.6
176
     1
 40
30.0
176
     1
 62
     7
420
 16777215
176
     1
 90
        2
176
     1
 90
        2
176
     1
 62
     7
176
     1
 62
     7
176
     1
 90
        1
176
     1
 90
        1
176
     1
 40
40.0
176
     1
 90
        8
176
     1
 62
     7
176
     1
 40
1.0
176
     1
 90
        1
176
     1
 90
        6
176
     1
 90
        2
176
     1
 62
     7
176
     1
 90
        3
176
     1
 90
        0
176
     1
 90
        0
176
     1
290
     0
176
     1
 90
        1
176
     1
 40
0.0
176
     1
 90
        0
176
     1
290
     0
176
     1
290
     1
176
     1
290
     1
176
     1
290
     0
176
     1
290
     0
176
     1
290
     0
176
     1
290
     0
176
     1
290
     0
176
     1
290
     0
176
     1
 90
       50
176
     1
 40
0.0
176
     1
 40
1.0
176
     1
 90
        0
176
     1
 62
    18
420
        0
176
     1
 90
       50
176
     1
 90
        3
176
     1
 62
     5
420
      255
176
     1
290
     0
176
     1
 90
       50
176
     1
 90
       50
176
     1
 90
       50
176
     1
290
     0
176
     1
 90
       50
176
     1
 62
   256
176
     0
 40
1.0
176
     0
 90
        2
176
     1
  1
strokes_ogs.tif
176
     1
290
     0
176
     1
 40
1.0
176
     1
 40
1.0
176
     1
  0
VISUALSTYLE
  5
3F
102
{ACAD_REACTORS
330
2A
102
}
330
2A
100
AcDbVisualStyle
  2
Sketchy
 70
    24
177
     3
291
     0
 70
    58
 90
        1
176
     1
 90
        2
176
     1
 90
        2
176
     1
 90
        0
176
     1
 40
0.6
176
     1
 40
30.0
176
     1
 62
     7
420
 16777215
176
     1
 90
        2
176
     1
 90
        2
176
     1
 62
     7
176
     1
 62
     7
176
     1
 90
        1
176
     1
 90
        1
176
     1
 40
40.0
176
     1
 90
       11
176
     1
 62
     7
176
     1
 40
1.0
176
     1
 90
        1
176
     1
 90
        6
176
     1
 90
        2
176
     1
 62
     7
176
     1
 90
        6
176
     1
 90
        0
176
     1
 90
        0
176
     1
290
     0
176
     1
 90
        1
176
     1
 40
0.0
176
     1
 90
        0
176
     1
290
     0
176
     1
290
     1
176
     1
290
     1
176
     1
290
     0
176
     1
290
     0
176
     1
290
     0
176
     1
290
     0
176
     1
290
     0
176
     1
290
     0
176
     1
 90
       50
176
     1
 40
0.0
176
     1
 40
1.0
176
     1
 90
        0
176
     1
 62
    18
420
        0
176
     1
 90
       50
176
     1
 90
        3
176
     1
 62
     5
420
      255
176
     1
290
     0
176
     1
 90
       50
176
     1
 90
       50
176
     1
 90
       50
176
     1
290
     0
176
     1
 90
       50
176
     1
 62
   256
176
     0
 40
1.0
176
     0
 90
        2
176
     1
  1
strokes_ogs.tif
176
     1
290
     0
176
     1
 40
1.0
176
     1
 40
1.0
176
     1
  0
VISUALSTYLE
  5
37
102
{ACAD_REACTORS
330
2A
102
}
330
2A
100
AcDbVisualStyle
  2
Thicken
 70
    13
177
     3
291
     1
 70
    58
 90
        2
176
     1
 90
        2
176
     1
 90
        0
176
     1
 90
        0
176
     1
 40
0.6
176
     1
 40
30.0
176
     1
 62
     7
420
 16777215
176
     1
 90
        1
176
     1
 90
        4
176
     1
 62
     7
176
     1
 62
   257
176
     1
 90
        1
176
     1
 90
        1
176
     1
 40
1.0
176
     1
 90
       12
176
     1
 62
     7
176
     1
 40
1.0
176
     1
 90
        1
176
     1
 90
        6
176
     1
 90
        2
176
     1
 62
     7
176
     1
 90
        5
176
     1
 90
        0
176
     1
 90
        0
176
     1
290
     0
176
     1
 90
        1
176
     1
 40
0.0
176
     1
 90
        0
176
     1
290
     0
176
     1
290
     1
176
     1
290
     1
176
     1
290
     0
176
     1
290
     0
176
     1
290
     0
176
     1
290
     0
176
     1
290
     0
176
     1
290
     0
176
     1
 90
       50
176
     1
 40
0.0
176
     1
 40
1.0
176
     1
 90
        0
176
     1
 62
    18
420
        0
176
     1
 90
       50
176
     1
 90
        3
176
     1
 62
     5
420
      255
176
     1
290
     0
176
     1
 90
       50
176
     1
 90
       50
176
     1
 90
       50
176
     1
290
     0
176
     1
 90
       50
176
     1
 62
   256
176
     0
 40
1.0
176
     0
 90
        2
176
     1
  1
strokes_ogs.tif
176
     1
290
     0
176
     1
 40
1.0
176
     1
 40
1.0
176
     1
  0
VISUALSTYLE
  5
30
102
{ACAD_REACTORS
330
2A
102
}
330
2A
100
AcDbVisualStyle
  2
Wireframe
 70
     5
177
     3
291
     0
 70
    58
 90
        0
176
     1
 90
        2
176
     1
 90
        0
176
     1
 90
        0
176
     1
 40
0.6
176
     1
 40
30.0
176
     1
 62
     7
420
 16777215
176
     1
 90
        1
176
     1
 90
        4
176
     1
 62
     7
176
     1
 62
   257
176
     1
 90
        1
176
     1
 90
        1
176
     1
 40
1.0
176
     1
 90
        0
176
     1
 62
   257
176
     1
 40
1.0
176
     1
 90
        1
176
     1
 90
        6
176
     1
 90
        2
176
     1
 62
     7
176
     1
 90
        3
176
     1
 90
        0
176
     1
 90
        0
176
     1
290
     0
176
     1
 90
        1
176
     1
 40
0.0
176
     1
 90
        0
176
     1
290
     0
176
     1
290
     1
176
     1
290
     1
176
     1
290
     0
176
     1
290
     0
176
     1
290
     0
176
     1
290
     0
176
     1
290
     0
176
     1
290
     0
176
     1
 90
       50
176
     1
 40
0.0
176
     1
 40
1.0
176
     1
 90
        0
176
     1
 62
    18
420
        0
176
     1
 90
       50
176
     1
 90
        3
176
     1
 62
     5
420
      255
176
     1
290
     0
176
     1
 90
       50
176
     1
 90
       50
176
     1
 90
       50
176
     1
290
     0
176
     1
 90
       50
176
     1
 62
   256
176
     0
 40
1.0
176
     0
 90
        2
176
     1
  1
strokes_ogs.tif
176
     1
290
     0
176
     1
 40
1.0
176
     1
 40
1.0
176
     1
  0
VISUALSTYLE
  5
40
102
{ACAD_REACTORS
330
2A
102
}
330
2A
100
AcDbVisualStyle
  2
X-Ray
 70
    25
177
     3
291
     0
 70
    58
 90
        2
176
     1
 90
        2
176
     1
 90
        1
176
     1
 90
        1
176
     1
 40
0.5
176
     1
 40
30.0
176
     1
 62
     7
420
 16777215
176
     1
 90
        1
176
     1
 90
        0
176
     1
 62
     7
176
     1
 62
   257
176
     1
 90
        1
176
     1
 90
        1
176
     1
 40
1.0
176
     1
 90
        8
176
     1
 62
     7
176
     1
 40
1.0
176
     1
 90
        1
176
     1
 90
        6
176
     1
 90
        2
176
     1
 62
     7
176
     1
 90
        3
176
     1
 90
        0
176
     1
 90
        0
176
     1
290
     0
176
     1
 90
       13
176
     1
 40
0.0
176
     1
 90
        0
176
     1
290
     0
176
     1
290
     1
176
     1
290
     1
176
     1
290
     0
176
     1
290
     0
176
     1
290
     0
176
     1
290
     0
176
     1
290
     0
176
     1
290
     0
176
     1
 90
       50
176
     1
 40
0.0
176
     1
 40
1.0
176
     1
 90
        0
176
     1
 62
    18
420
        0
176
     1
 90
       50
176
     1
 90
        3
176
     1
 62
     5
420
      255
176
     1
290
     0
176
     1
 90
       50
176
     1
 90
       50
176
     1
 90
       50
176
     1
290
     0
176
     1
 90
       50
176
     1
 62
   256
176
     0
 40
1.0
176
     0
 90
        2
176
     1
  1
strokes_ogs.tif
176
     1
290
     0
176
     1
 40
1.0
176
     1
 40
1.0
176
     1
  0
DICTIONARYVAR
  5
428
102
{ACAD_REACTORS
330
427
102
}
330
427
100
DictionaryVariables
280
     0
  1
1:1
  0
DICTIONARYVAR
  5
42D
102
{ACAD_REACTORS
330
427
102
}
330
427
100
DictionaryVariables
280
     0
  1
Standard
  0
DICTIONARYVAR
  5
42C
102
{ACAD_REACTORS
330
427
102
}
330
427
100
DictionaryVariables
280
     0
  1
Standard
  0
DICTIONARYVAR
  5
430
102
{ACAD_REACTORS
330
427
102
}
330
427
100
DictionaryVariables
280
     0
  1
6.000000
  0
DICTIONARY
  5
429
330
6A
100
AcDbDictionary
280
     1
281
     1
  3
ACAD_ROUNDTRIP_2008_TABLESTYLE_CELLSTYLEMAP
360
42A
  0
CELLSTYLEMAP
  5
42A
102
{ACAD_REACTORS
330
429
102
}
330
429
100
AcDbCellStyleMap
 90
        3
300
CELLSTYLE
  1
TABLEFORMAT_BEGIN
 90
        5
170
     1
 91
        0
 92
    32768
 62
   257
 93
        1
300
CONTENTFORMAT
  1
CONTENTFORMAT_BEGIN
 90
        0
 91
        0
 92
        4
 93
        0
300

 40
0.0
140
1.0
 94
        5
 62
     0
340
11
144
6.0
309
CONTENTFORMAT_END
171
     1
301
MARGIN
  1
CELLMARGIN_BEGIN
 40
1.5
 40
1.5
 40
1.5
 40
1.5
 40
1.5
 40
1.5
309
CELLMARGIN_END
 94
        6
 95
        1
302
GRIDFORMAT
  1
GRIDFORMAT_BEGIN
 90
        0
 91
        1
 62
     0
 92
       -2
340
14
 93
        0
 40
0.045
309
GRIDFORMAT_END
 95
        2
302
GRIDFORMAT
  1
GRIDFORMAT_BEGIN
 90
        0
 91
        1
 62
     0
 92
       -2
340
14
 93
        0
 40
0.045
309
GRIDFORMAT_END
 95
        4
302
GRIDFORMAT
  1
GRIDFORMAT_BEGIN
 90
        0
 91
        1
 62
     0
 92
       -2
340
14
 93
        0
 40
0.045
309
GRIDFORMAT_END
 95
        8
302
GRIDFORMAT
  1
GRIDFORMAT_BEGIN
 90
        0
 91
        1
 62
     0
 92
       -2
340
14
 93
        0
 40
0.045
309
GRIDFORMAT_END
 95
       16
302
GRIDFORMAT
  1
GRIDFORMAT_BEGIN
 90
        0
 91
        1
 62
     0
 92
       -2
340
14
 93
        0
 40
0.045
309
GRIDFORMAT_END
 95
       32
302
GRIDFORMAT
  1
GRIDFORMAT_BEGIN
 90
        0
 91
        1
 62
     0
 92
       -2
340
14
 93
        0
 40
0.045
309
GRIDFORMAT_END
309
TABLEFORMAT_END
  1
CELLSTYLE_BEGIN
 90
        1
 91
        1
300
_TITLE
309
CELLSTYLE_END
300
CELLSTYLE
  1
TABLEFORMAT_BEGIN
 90
        5
170
     1
 91
        0
 92
        0
 62
   257
 93
        1
300
CONTENTFORMAT
  1
CONTENTFORMAT_BEGIN
 90
        0
 91
        0
 92
        4
 93
        0
300

 40
0.0
140
1.0
 94
        5
 62
     0
340
11
144
4.5
309
CONTENTFORMAT_END
171
     1
301
MARGIN
  1
CELLMARGIN_BEGIN
 40
1.5
 40
1.5
 40
1.5
 40
1.5
 40
1.5
 40
1.5
309
CELLMARGIN_END
 94
        6
 95
        1
302
GRIDFORMAT
  1
GRIDFORMAT_BEGIN
 90
        0
 91
        1
 62
     0
 92
       -2
340
14
 93
        0
 40
0.045
309
GRIDFORMAT_END
 95
        2
302
GRIDFORMAT
  1
GRIDFORMAT_BEGIN
 90
        0
 91
        1
 62
     0
 92
       -2
340
14
 93
        0
 40
0.045
309
GRIDFORMAT_END
 95
        4
302
GRIDFORMAT
  1
GRIDFORMAT_BEGIN
 90
        0
 91
        1
 62
     0
 92
       -2
340
14
 93
        0
 40
0.045
309
GRIDFORMAT_END
 95
        8
302
GRIDFORMAT
  1
GRIDFORMAT_BEGIN
 90
        0
 91
        1
 62
     0
 92
       -2
340
14
 93
        0
 40
0.045
309
GRIDFORMAT_END
 95
       16
302
GRIDFORMAT
  1
GRIDFORMAT_BEGIN
 90
        0
 91
        1
 62
     0
 92
       -2
340
14
 93
        0
 40
0.045
309
GRIDFORMAT_END
 95
       32
302
GRIDFORMAT
  1
GRIDFORMAT_BEGIN
 90
        0
 91
        1
 62
     0
 92
       -2
340
14
 93
        0
 40
0.045
309
GRIDFORMAT_END
309
TABLEFORMAT_END
  1
CELLSTYLE_BEGIN
 90
        2
 91
        1
300
_HEADER
309
CELLSTYLE_END
300
CELLSTYLE
  1
TABLEFORMAT_BEGIN
 90
        5
170
     1
 91
        0
 92
        0
 62
   257
 93
        1
300
CONTENTFORMAT
  1
CONTENTFORMAT_BEGIN
 90
        0
 91
        0
 92
        4
 93
        0
300

 40
0.0
140
1.0
 94
        2
 62
     0
340
11
144
4.5
309
CONTENTFORMAT_END
171
     1
301
MARGIN
  1
CELLMARGIN_BEGIN
 40
1.5
 40
1.5
 40
1.5
 40
1.5
 40
1.5
 40
1.5
309
CELLMARGIN_END
 94
        6
 95
        1
302
GRIDFORMAT
  1
GRIDFORMAT_BEGIN
 90
        0
 91
        1
 62
     0
 92
       -2
340
14
 93
        0
 40
0.045
309
GRIDFORMAT_END
 95
        2
302
GRIDFORMAT
  1
GRIDFORMAT_BEGIN
 90
        0
 91
        1
 62
     0
 92
       -2
340
14
 93
        0
 40
0.045
309
GRIDFORMAT_END
 95
        4
302
GRIDFORMAT
  1
GRIDFORMAT_BEGIN
 90
        0
 91
        1
 62
     0
 92
       -2
340
14
 93
        0
 40
0.045
309
GRIDFORMAT_END
 95
        8
302
GRIDFORMAT
  1
GRIDFORMAT_BEGIN
 90
        0
 91
        1
 62
     0
 92
       -2
340
14
 93
        0
 40
0.045
309
GRIDFORMAT_END
 95
       16
302
GRIDFORMAT
  1
GRIDFORMAT_BEGIN
 90
        0
 91
        1
 62
     0
 92
       -2
340
14
 93
        0
 40
0.045
309
GRIDFORMAT_END
 95
       32
302
GRIDFORMAT
  1
GRIDFORMAT_BEGIN
 90
        0
 91
        1
 62
     0
 92
       -2
340
14
 93
        0
 40
0.045
309
GRIDFORMAT_END
309
TABLEFORMAT_END
  1
CELLSTYLE_BEGIN
 90
        3
 91
        2
300
_DATA
309
CELLSTYLE_END
  0
ENDSEC
  0
EOF
