  0
SECTION
  2
HEADER
  9
$ACADVER
  1
AC1009
  9
$INSBASE
 10
408.121648
 20
230.266
 30
0.0
  9
$EXTMIN
 10
408.121648
 20
230.266
 30
0.0
  9
$EXTMAX
 10
1248.121648
 20
824.266
 30
0.0
  9
$LIMMIN
 10
408.121648
 20
230.266
  9
$LIMMAX
 10
1248.121648
 20
824.266
  9
$ORTHOMODE
 70
     0
  9
$REGENMODE
 70
     1
  9
$FILLMODE
 70
     1
  9
$QTEXTMODE
 70
     0
  9
$MIRRTEXT
 70
     1
  9
$DRAGMODE
 70
     2
  9
$LTSCALE
 40
2.0
  9
$OSMODE
 70
     0
  9
$ATTMODE
 70
     1
  9
$TEXTSIZE
 40
0.2
  9
$TRACEWID
 40
0.05
  9
$TEXTSTYLE
  7
STANDARD
  9
$CLAYER
  8
0
  9
$CELTYPE
  6
BYLAYER
  9
$CECOLOR
 62
     7
  9
$DIMSCALE
 40
2.0
  9
$DIMASZ
 40
3.5
  9
$DIMEXO
 40
0.0625
  9
$DIMDLI
 40
0.38
  9
$DIMRND
 40
0.0
  9
$DIMDLE
 40
0.0
  9
$DIMEXE
 40
0.18
  9
$DIMTP
 40
0.0
  9
$DIMTM
 40
0.0
  9
$DIMTXT
 40
3.5
  9
$DIMCEN
 40
0.09
  9
$DIMTSZ
 40
0.0
  9
$DIMTOL
 70
     0
  9
$DIMLIM
 70
     0
  9
$DIMTIH
 70
     1
  9
$DIMTOH
 70
     1
  9
$DIMSE1
 70
     0
  9
$DIMSE2
 70
     0
  9
$DIMTAD
 70
     1
  9
$DIMZIN
 70
     0
  9
$DIMBLK
  1

  9
$DIMASO
 70
     1
  9
$DIMSHO
 70
     1
  9
$DIMPOST
  1

  9
$DIMAPOST
  1

  9
$DIMALT
 70
     0
  9
$DIMALTD
 70
     2
  9
$DIMALTF
 40
25.4
  9
$DIMLFAC
 40
1.0
  9
$DIMTOFL
 70
     0
  9
$DIMTVP
 40
0.0
  9
$DIMTIX
 70
     0
  9
$DIMSOXD
 70
     0
  9
$DIMSAH
 70
     0
  9
$DIMBLK1
  1

  9
$DIMBLK2
  1

  9
$DIMSTYLE
  2
STANDARD
  9
$DIMCLRD
 70
     0
  9
$DIMCLRE
 70
     0
  9
$DIMCLRT
 70
     0
  9
$DIMTFAC
 40
1.0
  9
$DIMGAP
 40
0.09
  9
$LUNITS
 70
     2
  9
$LUPREC
 70
     2
  9
$AXISMODE
 70
     0
  9
$AXISUNIT
 10
0.0
 20
0.0
  9
$SKETCHINC
 40
0.1
  9
$FILLETRAD
 40
0.0
  9
$AUNITS
 70
     0
  9
$AUPREC
 70
     0
  9
$MENU
  1
acad
  9
$ELEVATION
 40
0.0
  9
$PELEVATION
 40
0.0
  9
$THICKNESS
 40
0.0
  9
$LIMCHECK
 70
     0
  9
$BLIPMODE
 70
     1
  9
$CHAMFERA
 40
0.0
  9
$CHAMFERB
 40
0.0
  9
$SKPOLY
 70
     0
  9
$TDCREATE
 40
0.000000000
  9
$TDUPDATE
 40
0.000000000
  9
$TDINDWG
 40
0.0000000000
  9
$TDUSRTIMER
 40
0.0000000000
  9
$USRTIMER
 70
     1
  9
$ANGBASE
 50
0.0
  9
$ANGDIR
 70
     0
  9
$PDMODE
 70
     0
  9
$PDSIZE
 40
0.0
  9
$PLINEWID
 40
0.0
  9
$COORDS
 70
     0
  9
$SPLFRAME
 70
     0
  9
$SPLINETYPE
 70
     6
  9
$SPLINESEGS
 70
     8
  9
$ATTDIA
 70
     0
  9
$ATTREQ
 70
     1
  9
$HANDLING
 70
     1
  9
$HANDSEED
  5
811
  9
$SURFTAB1
 70
     6
  9
$SURFTAB2
 70
     6
  9
$SURFTYPE
 70
     6
  9
$SURFU
 70
     6
  9
$SURFV
 70
     6
  9
$UCSNAME
  2

  9
$UCSORG
 10
0.0
 20
0.0
 30
0.0
  9
$UCSXDIR
 10
1.0
 20
0.0
 30
0.0
  9
$UCSYDIR
 10
0.0
 20
1.0
 30
0.0
  9
$PUCSNAME
  2

  9
$PUCSORG
 10
0.0
 20
0.0
 30
0.0
  9
$PUCSXDIR
 10
1.0
 20
0.0
 30
0.0
  9
$PUCSYDIR
 10
0.0
 20
1.0
 30
0.0
  9
$USERI1
 70
     0
  9
$USERI2
 70
     0
  9
$USERI3
 70
     0
  9
$USERI4
 70
     0
  9
$USERI5
 70
     0
  9
$USERR1
 40
0.0
  9
$USERR2
 40
0.0
  9
$USERR3
 40
0.0
  9
$USERR4
 40
0.0
  9
$USERR5
 40
0.0
  9
$WORLDVIEW
 70
     1
  9
$SHADEDGE
 70
     3
  9
$SHADEDIF
 70
    70
  9
$TILEMODE
 70
     1
  9
$MAXACTVP
 70
    16
  9
$PINSBASE
 10
0.0
 20
0.0
 30
0.0
  9
$PLIMCHECK
 70
     0
  9
$PEXTMIN
 10
1.000000E+20
 20
1.000000E+20
 30
1.000000E+20
  9
$PEXTMAX
 10
-1.000000E+20
 20
-1.000000E+20
 30
-1.000000E+20
  9
$PLIMMIN
 10
408.121648
 20
230.266
  9
$PLIMMAX
 10
1248.121648
 20
824.266
  9
$UNITMODE
 70
     0
  9
$VISRETAIN
 70
     0
  9
$PLINEGEN
 70
     1
  9
$PSLTSCALE
 70
     0
  9
$TREEDEPTH
 70
  3020
  9
$DWGCODEPAGE
  3
dos850
  0
ENDSEC
  0
SECTION
  2
TABLES
  0
TABLE
  2
VPORT
 70
     1
  0
VPORT
  2
*ACTIVE
 70
     0
 10
0.0
 20
0.0
 11
1.0
 21
1.0
 12
420.0
 22
297.0
 13
0.0
 23
0.0
 14
1.0
 24
1.0
 15
0.0
 25
0.0
 16
0.0
 26
0.0
 36
1.0
 17
408.121648
 27
230.266
 37
0.0
 40
594.0
 41
1.604229
 42
50.0
 43
0.0
 44
0.0
 50
0.0
 51
0.0
 71
     0
 72
   100
 73
     1
 74
     1
 75
     0
 76
     0
 77
     0
 78
     0
  0
ENDTAB
  0
TABLE
  2
LTYPE
 70
     4
  0
LTYPE
  2
CONTINUOUS
 70
    64
  3
Solid line
 72
    65
 73
     0
 40
0.0
  0
LTYPE
  2
DASHED
 70
    64
  3
__ __ __ __ __
 72
    65
 73
     2
 40
6.25
 49
5.0
 49
-1.25
  0
LTYPE
  2
DASHDOT
 70
    64
  3
__ . __ . __ . __ . __
 72
    65
 73
     4
 40
7.5
 49
5.0
 49
-1.25
 49
0.0
 49
-1.25
  0
LTYPE
  2
CENTER
 70
    64
  3
__ . __ . __ . __ . __
 72
    65
 73
     4
 40
7.5
 49
5.0
 49
-1.25
 49
0.0
 49
-1.25
  0
ENDTAB
  0
TABLE
  2
LAYER
 70
    20
  0
LAYER
  2
0
 70
     0
 62
     7
  6
CONTINUOUS
  0
LAYER
  2
LC-INFO-1-2-MM-A3-0
 70
     1
 62
    -1
  6
CONTINUOUS
  0
LAYER
  2
LC-011-005-----0
 70
     0
 62
     2
  6
CONTINUOUS
  0
LAYER
  2
LC-013-003-MTH-0
 70
     0
 62
     2
  6
CONTINUOUS
  0
LAYER
  2
LC-014-003-MTG-0
 70
     0
 62
     2
  6
CONTINUOUS
  0
LAYER
  2
LC-012-003-----0
 70
     0
 62
     2
  6
CONTINUOUS
  0
LAYER
  2
LC-001-100-D02-0
 70
     0
 62
     4
  6
CONTINUOUS
  0
LAYER
  2
LC-007-000-----0
 70
     0
 62
     7
  6
CONTINUOUS
  0
LAYER
  2
LC-002-001-RND-0
 70
     0
 62
     1
  6
CONTINUOUS
  0
LAYER
  2
LC-003-100-D03-0
 70
     0
 62
     1
  6
CONTINUOUS
  0
LAYER
  2
LC-004-002-----0
 70
     0
 62
     1
  6
CONTINUOUS
  0
LAYER
  2
LC-005-100-D16-0
 70
     0
 62
     1
  6
CONTINUOUS
  0
LAYER
  2
LC-006-100-D00-0
 70
     0
 62
     1
  6
CONTINUOUS
  0
LAYER
  2
LC-008-100-D01-0
 70
     0
 62
     1
  6
CONTINUOUS
  0
LAYER
  2
LC-009-001-----0
 70
     0
 62
     1
  6
CONTINUOUS
  0
LAYER
  2
LC-010-002-RND-0
 70
     0
 62
     1
  6
CONTINUOUS
  0
LAYER
  2
LC-015-007-KH--0
 70
     0
 62
     7
  6
DASHDOT
  0
LAYER
  2
LC-016-100-D04-0
 70
     0
 62
     1
  6
CONTINUOUS
  0
LAYER
  2
LC-017-006-MLN-0
 70
     0
 62
     2
  6
CENTER
  0
LAYER
  2
LC-000
 70
     0
 62
     7
  6
CONTINUOUS
  0
ENDTAB
  0
TABLE
  2
STYLE
 70
     4
  0
STYLE
  2
STANDARD
 70
     0
 40
0.0
 41
1.0
 50
0.0
 71
     0
 42
0.0
  3
txt
  4

  0
STYLE
  2
LC-STANDARD
 70
    64
 40
0.0
 41
1.0
 50
0.0
 71
     0
 42
3.5
  3
MONOTXT
  4

  0
STYLE
  2
LC-TXTSTYLE-150-400-0-0-D2
 70
    64
 40
0.0
 41
1.0
 50
15.0
 71
     0
 42
3.5
  3
MONOTXT
  4

  0
STYLE
  2
LC-TXTSTYLE-150-400-0-0-D3
 70
    64
 40
0.0
 41
1.0
 50
15.0
 71
     0
 42
3.5
  3
LC-STANDARD
  4

  0
ENDTAB
  0
TABLE
  2
VIEW
 70
     0
  0
ENDTAB
  0
TABLE
  2
UCS
 70
     0
  0
ENDTAB
  0
TABLE
  2
APPID
 70
     1
  0
APPID
  2
ACAD
 70
     0
  0
ENDTAB
  0
TABLE
  2
DIMSTYLE
 70
     3
  0
DIMSTYLE
  2
STANDARD
 70
     0
  3

  4

  5

  6

  7

 40
1.0
 41
0.18
 42
0.0625
 43
0.38
 44
0.18
 45
0.0
 46
0.0
 47
0.0
 48
0.0
 71
     0
 72
     0
 73
     1
 74
     1
 75
     0
 76
     0
 77
     0
 78
     0
140
0.18
141
0.09
142
0.0
143
25.4
144
1.0
145
0.0
146
1.0
147
0.09
170
     0
171
     2
172
     0
173
     0
174
     0
175
     0
176
     0
177
     0
178
     0
  0
DIMSTYLE
  2
LC-STANDARD
 70
     0
  3

  4

  5

  6

  7

 40
1.0
 41
3.5
 42
0.0
 43
7.5
 44
1.8
 45
0.0
 46
0.0
 47
0.0
 48
0.0
 71
     0
 72
     0
 73
     0
 74
     0
 75
     0
 76
     0
 77
     1
 78
     8
140
3.5
141
0.0
142
0.0
143
25.4
144
1.0
145
0.0
146
0.71
147
1.5
170
     0
171
     2
172
     1
173
     0
174
     0
175
     0
176
     0
177
     0
178
     3
  0
DIMSTYLE
  2
LC-DIM-L-0090-02-02
 70
     0
  3

  4

  5

  6

  7

 40
2.0
 41
3.5
 42
0.0
 43
7.5
 44
1.8
 45
0.0
 46
0.0
 47
0.0
 48
0.0
 71
     0
 72
     0
 73
     0
 74
     0
 75
     0
 76
     0
 77
     1
 78
     8
140
9.0
141
0.0
142
0.0
143
25.4
144
1.0
145
0.0
146
0.71
147
1.5
170
     0
171
     2
172
     0
173
     0
174
     0
175
     0
176
     2
177
     2
178
     6
  0
ENDTAB
  0
ENDSEC
  0
SECTION
  2
BLOCKS
  0
BLOCK
  8
0
  5
23
  2
SYM1
 70
    64
 10
778.335274
 20
1865.143847
 30
0.0
  3
SYM1
  0
ENDBLK
  8
0
  5
24
  0
BLOCK
  8
0
  5
26
  2
BLK1
 70
    64
 10
0.0
 20
0.0
 30
0.0
  3
BLK1
  0
ENDBLK
  8
0
  5
27
  0
BLOCK
  8
0
  5
29
  2
SYM2
 70
    64
 10
1356.381777
 20
827.598303
 30
0.0
  3
SYM2
  0
ENDBLK
  8
0
  5
2A
  0
BLOCK
  8
0
  5
2C
  2
*X3
 70
    65
 10
569.494891
 20
550.619987
 30
0.0
  3
*X3
  0
LINE
  8
LC-011-005-----0
  6
CONTINUOUS
  5
2E
 10
635.973328
 20
594.392471
 30
0.0
 11
634.242661
 21
596.123139
 31
0.0
  0
LINE
  8
LC-011-005-----0
  6
CONTINUOUS
  5
2F
 10
636.023576
 20
591.513796
 30
0.0
 11
632.480464
 21
595.056908
 31
0.0
  0
LINE
  8
LC-011-005-----0
  6
CONTINUOUS
  5
30
 10
636.073823
 20
588.635122
 30
0.0
 11
632.339615
 21
592.36933
 31
0.0
  0
LINE
  8
LC-011-005-----0
  6
CONTINUOUS
  5
31
 10
636.124071
 20
585.756447
 30
0.0
 11
632.198765
 21
589.681753
 31
0.0
  0
LINE
  8
LC-011-005-----0
  6
CONTINUOUS
  5
32
 10
636.174318
 20
582.877773
 30
0.0
 11
631.428952
 21
587.623139
 31
0.0
  0
LINE
  8
LC-011-005-----0
  6
CONTINUOUS
  5
33
 10
636.224566
 20
579.999098
 30
0.0
 11
631.140969
 21
585.082695
 31
0.0
  0
LINE
  8
LC-011-005-----0
  6
CONTINUOUS
  5
34
 10
636.274813
 20
577.120423
 30
0.0
 11
631.191217
 21
582.20402
 31
0.0
  0
LINE
  8
LC-011-005-----0
  6
CONTINUOUS
  5
35
 10
636.32506
 20
574.241749
 30
0.0
 11
631.241464
 21
579.325345
 31
0.0
  0
LINE
  8
LC-011-005-----0
  6
CONTINUOUS
  5
36
 10
636.375308
 20
571.363074
 30
0.0
 11
631.291712
 21
576.446671
 31
0.0
  0
LINE
  8
LC-011-005-----0
  6
CONTINUOUS
  5
37
 10
636.425555
 20
568.4844
 30
0.0
 11
631.341959
 21
573.567996
 31
0.0
  0
LINE
  8
LC-011-005-----0
  6
CONTINUOUS
  5
38
 10
636.475803
 20
565.605725
 30
0.0
 11
631.392207
 21
570.689321
 31
0.0
  0
LINE
  8
LC-011-005-----0
  6
CONTINUOUS
  5
39
 10
636.52605
 20
562.727051
 30
0.0
 11
631.442454
 21
567.810647
 31
0.0
  0
LINE
  8
LC-011-005-----0
  6
CONTINUOUS
  5
3A
 10
636.576298
 20
559.848376
 30
0.0
 11
631.492702
 21
564.931972
 31
0.0
  0
LINE
  8
LC-011-005-----0
  6
CONTINUOUS
  5
3B
 10
636.626545
 20
556.969701
 30
0.0
 11
631.542949
 21
562.053297
 31
0.0
  0
LINE
  8
LC-011-005-----0
  6
CONTINUOUS
  5
3C
 10
636.676793
 20
554.091027
 30
0.0
 11
631.593197
 21
559.174623
 31
0.0
  0
LINE
  8
LC-011-005-----0
  6
CONTINUOUS
  5
3D
 10
636.72704
 20
551.212352
 30
0.0
 11
630.01627
 21
557.923123
 31
0.0
  0
LINE
  8
LC-011-005-----0
  6
CONTINUOUS
  5
3E
 10
632.510327
 20
552.600638
 30
0.0
 11
627.187843
 21
557.923123
 31
0.0
  0
LINE
  8
LC-011-005-----0
  6
CONTINUOUS
  5
3F
 10
628.646625
 20
553.635913
 30
0.0
 11
624.359415
 21
557.923123
 31
0.0
  0
LINE
  8
LC-011-005-----0
  6
CONTINUOUS
  5
40
 10
625.777435
 20
553.676676
 30
0.0
 11
621.530988
 21
557.923123
 31
0.0
  0
LINE
  8
LC-011-005-----0
  6
CONTINUOUS
  5
41
 10
622.949008
 20
553.676676
 30
0.0
 11
618.702561
 21
557.923123
 31
0.0
  0
LINE
  8
LC-011-005-----0
  6
CONTINUOUS
  5
42
 10
620.120581
 20
553.676676
 30
0.0
 11
615.874134
 21
557.923123
 31
0.0
  0
LINE
  8
LC-011-005-----0
  6
CONTINUOUS
  5
43
 10
617.292154
 20
553.676676
 30
0.0
 11
613.045707
 21
557.923123
 31
0.0
  0
LINE
  8
LC-011-005-----0
  6
CONTINUOUS
  5
44
 10
614.463726
 20
553.676676
 30
0.0
 11
610.217279
 21
557.923123
 31
0.0
  0
LINE
  8
LC-011-005-----0
  6
CONTINUOUS
  5
45
 10
611.635299
 20
553.676676
 30
0.0
 11
607.388852
 21
557.923123
 31
0.0
  0
LINE
  8
LC-011-005-----0
  6
CONTINUOUS
  5
46
 10
608.806872
 20
553.676676
 30
0.0
 11
604.560425
 21
557.923123
 31
0.0
  0
LINE
  8
LC-011-005-----0
  6
CONTINUOUS
  5
47
 10
605.978445
 20
553.676677
 30
0.0
 11
601.731998
 21
557.923123
 31
0.0
  0
LINE
  8
LC-011-005-----0
  6
CONTINUOUS
  5
48
 10
603.150017
 20
553.676677
 30
0.0
 11
598.903571
 21
557.923123
 31
0.0
  0
LINE
  8
LC-011-005-----0
  6
CONTINUOUS
  5
49
 10
600.32159
 20
553.676677
 30
0.0
 11
596.075143
 21
557.923123
 31
0.0
  0
LINE
  8
LC-011-005-----0
  6
CONTINUOUS
  5
4A
 10
597.493163
 20
553.676677
 30
0.0
 11
587.373567
 21
563.796273
 31
0.0
  0
LINE
  8
LC-011-005-----0
  6
CONTINUOUS
  5
4B
 10
594.664735
 20
553.676677
 30
0.0
 11
584.685989
 21
563.655423
 31
0.0
  0
LINE
  8
LC-011-005-----0
  6
CONTINUOUS
  5
4C
 10
591.836308
 20
553.676677
 30
0.0
 11
588.494497
 21
557.018488
 31
0.0
  0
LINE
  8
LC-011-005-----0
  6
CONTINUOUS
  5
4D
 10
585.869672
 20
559.643314
 30
0.0
 11
581.998412
 21
563.514574
 31
0.0
  0
LINE
  8
LC-011-005-----0
  6
CONTINUOUS
  5
4E
 10
589.007881
 20
553.676677
 30
0.0
 11
588.494497
 21
554.190061
 31
0.0
  0
LINE
  8
LC-011-005-----0
  6
CONTINUOUS
  5
4F
 10
583.182094
 20
559.502464
 30
0.0
 11
579.310834
 21
563.373724
 31
0.0
  0
LINE
  8
LC-011-005-----0
  6
CONTINUOUS
  5
50
 10
580.494516
 20
559.361615
 30
0.0
 11
576.718641
 21
563.13749
 31
0.0
  0
LINE
  8
LC-011-005-----0
  6
CONTINUOUS
  5
51
 10
578.422761
 20
558.604943
 30
0.0
 11
574.838269
 21
562.189435
 31
0.0
  0
LINE
  8
LC-011-005-----0
  6
CONTINUOUS
  5
52
 10
577.008547
 20
557.19073
 30
0.0
 11
573.563973
 21
560.635304
 31
0.0
  0
LINE
  8
LC-011-005-----0
  6
CONTINUOUS
  5
53
 10
575.594334
 20
555.776516
 30
0.0
 11
572.995141
 21
558.375709
 31
0.0
  0
LINE
  8
LC-011-005-----0
  6
CONTINUOUS
  5
54
 10
573.65369
 20
554.888733
 30
0.0
 11
570.737597
 21
557.804826
 31
0.0
  0
LINE
  8
LC-011-005-----0
  6
CONTINUOUS
  5
55
 10
570.966113
 20
554.747883
 30
0.0
 11
569.494891
 21
556.219104
 31
0.0
  0
ENDBLK
  8
0
  5
56
  0
BLOCK
  8
0
  5
58
  2
*X4
 70
    65
 10
578.424355
 20
553.789573
 30
0.0
  3
*X4
  0
LINE
  8
LC-011-005-----0
  6
CONTINUOUS
  5
59
 10
586.450846
 20
553.923934
 30
0.0
 11
586.560845
 21
554.033933
 31
0.0
  0
LINE
  8
LC-011-005-----0
  6
CONTINUOUS
  5
5A
 10
587.83365
 20
555.306739
 30
0.0
 11
587.947209
 21
555.420297
 31
0.0
  0
LINE
  8
LC-011-005-----0
  6
CONTINUOUS
  5
5B
 10
585.465204
 20
554.352505
 30
0.0
 11
587.938379
 21
556.825681
 31
0.0
  0
LINE
  8
LC-011-005-----0
  6
CONTINUOUS
  5
5C
 10
584.479561
 20
554.781076
 30
0.0
 11
587.929548
 21
558.231064
 31
0.0
  0
LINE
  8
LC-011-005-----0
  6
CONTINUOUS
  5
5D
 10
582.513845
 20
554.229574
 30
0.0
 11
583.358158
 21
555.073887
 31
0.0
  0
LINE
  8
LC-011-005-----0
  6
CONTINUOUS
  5
5E
 10
583.493918
 20
555.209647
 30
0.0
 11
586.727661
 21
558.44339
 31
0.0
  0
LINE
  8
LC-011-005-----0
  6
CONTINUOUS
  5
5F
 10
581.528202
 20
554.658145
 30
0.0
 11
585.304505
 21
558.434448
 31
0.0
  0
LINE
  8
LC-011-005-----0
  6
CONTINUOUS
  5
60
 10
580.54256
 20
555.086716
 30
0.0
 11
583.88135
 21
558.425505
 31
0.0
  0
LINE
  8
LC-011-005-----0
  6
CONTINUOUS
  5
61
 10
579.294717
 20
555.253086
 30
0.0
 11
582.458194
 21
558.416563
 31
0.0
  0
LINE
  8
LC-011-005-----0
  6
CONTINUOUS
  5
62
 10
578.440553
 20
555.813136
 30
0.0
 11
581.035038
 21
558.407621
 31
0.0
  0
LINE
  8
LC-011-005-----0
  6
CONTINUOUS
  5
63
 10
578.431723
 20
557.21852
 30
0.0
 11
579.611883
 21
558.398679
 31
0.0
  0
ENDBLK
  8
0
  5
64
  0
BLOCK
  8
0
  5
66
  2
*X5
 70
    65
 10
578.424355
 20
422.99532
 30
0.0
  3
*X5
  0
LINE
  8
LC-011-005-----0
  6
CONTINUOUS
  5
67
 10
587.049614
 20
423.00084
 30
0.0
 11
587.933757
 21
423.884984
 31
0.0
  0
LINE
  8
LC-011-005-----0
  6
CONTINUOUS
  5
68
 10
585.644231
 20
423.009671
 30
0.0
 11
587.942699
 21
425.308139
 31
0.0
  0
LINE
  8
LC-011-005-----0
  6
CONTINUOUS
  5
69
 10
584.238847
 20
423.018501
 30
0.0
 11
587.362819
 21
426.142473
 31
0.0
  0
LINE
  8
LC-011-005-----0
  6
CONTINUOUS
  5
6A
 10
582.833464
 20
423.027332
 30
0.0
 11
586.540909
 21
426.734776
 31
0.0
  0
LINE
  8
LC-011-005-----0
  6
CONTINUOUS
  5
6B
 10
581.428081
 20
423.036162
 30
0.0
 11
585.50141
 21
427.109491
 31
0.0
  0
LINE
  8
LC-011-005-----0
  6
CONTINUOUS
  5
6C
 10
580.022698
 20
423.044992
 30
0.0
 11
583.359159
 21
426.381454
 31
0.0
  0
LINE
  8
LC-011-005-----0
  6
CONTINUOUS
  5
6D
 10
578.617315
 20
423.053823
 30
0.0
 11
582.985063
 21
427.421571
 31
0.0
  0
LINE
  8
LC-011-005-----0
  6
CONTINUOUS
  5
6E
 10
578.432069
 20
424.282791
 30
0.0
 11
580.482855
 21
426.333577
 31
0.0
  0
LINE
  8
LC-011-005-----0
  6
CONTINUOUS
  5
6F
 10
578.441011
 20
425.705946
 30
0.0
 11
578.93052
 21
426.195455
 31
0.0
  0
ENDBLK
  8
0
  5
70
  0
BLOCK
  8
0
  5
72
  2
BLK2
 70
    64
 10
0.0
 20
0.0
 30
0.0
  3
BLK2
  0
ENDBLK
  8
0
  5
73
  0
BLOCK
  8
0
  5
75
  2
BLK3
 70
    64
 10
0.0
 20
0.0
 30
0.0
  3
BLK3
  0
ENDBLK
  8
0
  5
76
  0
BLOCK
  8
0
  5
78
  2
*D8
 70
    65
 10
0.0
 20
0.0
 30
0.0
  3
*D8
  0
LINE
  8
LC-013-003-MTH-0
  6
CONTINUOUS
  5
7A
 10
569.494891
 20
426.775474
 30
0.0
 11
529.2
 21
426.775474
 31
0.0
  0
LINE
  8
LC-013-003-MTH-0
  6
CONTINUOUS
  5
7B
 10
569.494891
 20
554.670779
 30
0.0
 11
529.2
 21
554.670779
 31
0.0
  0
LINE
  8
LC-014-003-MTG-0
  6
CONTINUOUS
  5
7D
 10
540.0
 20
426.775474
 30
0.0
 11
540.0
 21
554.670779
 31
0.0
  0
LINE
  8
LC-012-003-----0
  6
CONTINUOUS
  5
7F
 10
537.650529
 20
444.621481
 30
0.0
 11
540.0
 21
426.775474
 31
0.0
  0
LINE
  8
LC-012-003-----0
  6
CONTINUOUS
  5
80
 10
540.0
 20
426.775474
 30
0.0
 11
542.349471
 21
444.621481
 31
0.0
  0
LINE
  8
LC-012-003-----0
  6
CONTINUOUS
  5
81
 10
542.349471
 20
444.621481
 30
0.0
 11
537.650529
 21
444.621481
 31
0.0
  0
LINE
  8
LC-012-003-----0
  6
CONTINUOUS
  5
82
 10
538.261391
 20
444.661519
 30
0.0
 11
540.0
 21
431.455474
 31
0.0
  0
LINE
  8
LC-012-003-----0
  6
CONTINUOUS
  5
83
 10
540.0
 20
431.455474
 30
0.0
 11
541.738609
 21
444.661519
 31
0.0
  0
LINE
  8
LC-012-003-----0
  6
CONTINUOUS
  5
84
 10
538.872254
 20
444.701557
 30
0.0
 11
540.0
 21
436.135474
 31
0.0
  0
LINE
  8
LC-012-003-----0
  6
CONTINUOUS
  5
85
 10
540.0
 20
436.135474
 30
0.0
 11
541.127746
 21
444.701557
 31
0.0
  0
LINE
  8
LC-012-003-----0
  6
CONTINUOUS
  5
86
 10
539.483116
 20
444.741595
 30
0.0
 11
540.0
 21
440.815474
 31
0.0
  0
LINE
  8
LC-012-003-----0
  6
CONTINUOUS
  5
87
 10
540.0
 20
440.815474
 30
0.0
 11
540.516884
 21
444.741595
 31
0.0
  0
LINE
  8
LC-012-003-----0
  6
CONTINUOUS
  5
88
 10
542.349471
 20
536.824772
 30
0.0
 11
540.0
 21
554.670779
 31
0.0
  0
LINE
  8
LC-012-003-----0
  6
CONTINUOUS
  5
89
 10
540.0
 20
554.670779
 30
0.0
 11
537.650529
 21
536.824772
 31
0.0
  0
LINE
  8
LC-012-003-----0
  6
CONTINUOUS
  5
8A
 10
537.650529
 20
536.824772
 30
0.0
 11
542.349471
 21
536.824772
 31
0.0
  0
LINE
  8
LC-012-003-----0
  6
CONTINUOUS
  5
8B
 10
541.738609
 20
536.784734
 30
0.0
 11
540.0
 21
549.990779
 31
0.0
  0
LINE
  8
LC-012-003-----0
  6
CONTINUOUS
  5
8C
 10
540.0
 20
549.990779
 30
0.0
 11
538.261391
 21
536.784734
 31
0.0
  0
LINE
  8
LC-012-003-----0
  6
CONTINUOUS
  5
8D
 10
541.127746
 20
536.744696
 30
0.0
 11
540.0
 21
545.310779
 31
0.0
  0
LINE
  8
LC-012-003-----0
  6
CONTINUOUS
  5
8E
 10
540.0
 20
545.310779
 30
0.0
 11
538.872254
 21
536.744696
 31
0.0
  0
LINE
  8
LC-012-003-----0
  6
CONTINUOUS
  5
8F
 10
540.516884
 20
536.704658
 30
0.0
 11
540.0
 21
540.63078
 31
0.0
  0
LINE
  8
LC-012-003-----0
  6
CONTINUOUS
  5
90
 10
540.0
 20
540.63078
 30
0.0
 11
539.483116
 21
536.704658
 31
0.0
  0
TEXT
  8
LC-012-003-----0
  6
CONTINUOUS
 62
     6
  5
92
 10
529.568001
 20
446.858145
 30
0.0
 40
18.0
  1
DN125
 50
90.0
 41
0.9
 51
15.0
  7
LC-TXTSTYLE-150-400-0-0-D0
  0
ENDBLK
  8
0
  5
93
  0
BLOCK
  8
0
  5
95
  2
BLK4
 70
    64
 10
0.0
 20
0.0
 30
0.0
  3
BLK4
  0
ENDBLK
  8
0
  5
96
  0
BLOCK
  8
0
  5
98
  2
SYM3
 70
    64
 10
1356.381777
 20
827.598303
 30
0.0
  3
SYM3
  0
ENDBLK
  8
0
  5
99
  0
BLOCK
  8
0
  5
9B
  2
BLK5
 70
    64
 10
0.0
 20
0.0
 30
0.0
  3
BLK5
  0
ENDBLK
  8
0
  5
9C
  0
BLOCK
  8
0
  5
9E
  2
*X12
 70
    65
 10
812.102505
 20
537.105616
 30
0.0
  3
*X12
  0
LINE
  8
LC-011-005-----0
  6
CONTINUOUS
  5
9F
 10
820.821955
 20
541.065705
 30
0.0
 11
819.562594
 21
542.325067
 31
0.0
  0
LINE
  8
LC-011-005-----0
  6
DASHED
  5
A1
 10
820.675468
 20
538.383766
 30
0.0
 11
816.467063
 21
542.592171
 31
0.0
  0
LINE
  8
LC-011-005-----0
  6
DASHED
  5
A2
 10
819.995007
 20
537.650013
 30
0.0
 11
815.052849
 21
542.592171
 31
0.0
  0
LINE
  8
LC-011-005-----0
  6
CONTINUOUS
  5
A3
 10
817.710976
 20
537.105616
 30
0.0
 11
812.962954
 21
541.853639
 31
0.0
  0
LINE
  8
LC-011-005-----0
  6
CONTINUOUS
  5
A4
 10
816.296763
 20
537.105616
 30
0.0
 11
812.367965
 21
541.034414
 31
0.0
  0
ENDBLK
  8
0
  5
A5
  0
BLOCK
  8
0
  5
A7
  2
*X13
 70
    65
 10
817.52894
 20
571.990982
 30
0.0
  3
*X13
  0
LINE
  8
LC-011-005-----0
  6
CONTINUOUS
  5
A8
 10
863.007669
 20
582.993384
 30
0.0
 11
865.005267
 21
584.990982
 31
0.0
  0
LINE
  8
LC-011-005-----0
  6
CONTINUOUS
  5
A9
 10
858.764719
 20
582.993074
 30
0.0
 11
863.008934
 21
587.23729
 31
0.0
  0
LINE
  8
LC-011-005-----0
  6
CONTINUOUS
  5
AA
 10
854.521769
 20
582.992765
 30
0.0
 11
858.519986
 21
586.990982
 31
0.0
  0
LINE
  8
LC-011-005-----0
  6
CONTINUOUS
  5
AB
 10
860.908934
 20
589.37993
 30
0.0
 11
863.008934
 21
591.47993
 31
0.0
  0
LINE
  8
LC-011-005-----0
  6
CONTINUOUS
  5
AC
 10
850.278818
 20
582.992455
 30
0.0
 11
854.277345
 21
586.990982
 31
0.0
  0
LINE
  8
LC-011-005-----0
  6
CONTINUOUS
  5
AD
 10
860.934162
 20
593.647799
 30
0.0
 11
861.252117
 21
593.965754
 31
0.0
  0
LINE
  8
LC-011-005-----0
  6
CONTINUOUS
  5
AE
 10
846.035868
 20
582.992145
 30
0.0
 11
850.034705
 21
586.990982
 31
0.0
  0
LINE
  8
LC-011-005-----0
  6
CONTINUOUS
  5
AF
 10
841.792917
 20
582.991835
 30
0.0
 11
845.792064
 21
586.990982
 31
0.0
  0
LINE
  8
LC-011-005-----0
  6
CONTINUOUS
  5
B0
 10
837.549967
 20
582.991526
 30
0.0
 11
841.549423
 21
586.990982
 31
0.0
  0
LINE
  8
LC-011-005-----0
  6
CONTINUOUS
  5
B1
 10
827.516071
 20
577.20027
 30
0.0
 11
829.600165
 21
579.284365
 31
0.0
  0
LINE
  8
LC-011-005-----0
  6
CONTINUOUS
  5
B2
 10
833.307017
 20
582.991216
 30
0.0
 11
837.306783
 21
586.990982
 31
0.0
  0
LINE
  8
LC-011-005-----0
  6
CONTINUOUS
  5
B3
 10
818.075053
 20
572.001893
 30
0.0
 11
819.773189
 21
573.700029
 31
0.0
  0
LINE
  8
LC-011-005-----0
  6
CONTINUOUS
  5
B4
 10
827.304796
 20
581.231636
 30
0.0
 11
833.064142
 21
586.990982
 31
0.0
  0
LINE
  8
LC-011-005-----0
  6
CONTINUOUS
  5
B5
 10
817.67894
 20
575.84842
 30
0.0
 11
820.007833
 21
578.177314
 31
0.0
  0
LINE
  8
LC-011-005-----0
  6
CONTINUOUS
  5
B6
 10
824.821501
 20
582.990982
 30
0.0
 11
828.821501
 21
586.990982
 31
0.0
  0
LINE
  8
LC-011-005-----0
  6
CONTINUOUS
  5
B7
 10
817.67894
 20
580.091061
 30
0.0
 11
820.274418
 21
582.68654
 31
0.0
  0
LINE
  8
LC-011-005-----0
  6
CONTINUOUS
  5
B8
 10
820.539031
 20
582.951153
 30
0.0
 11
824.57886
 21
586.990982
 31
0.0
  0
LINE
  8
LC-011-005-----0
  6
CONTINUOUS
  5
B9
 10
817.53557
 20
584.190333
 30
0.0
 11
820.329589
 21
586.984351
 31
0.0
  0
ENDBLK
  8
0
  5
BA
  0
BLOCK
  8
0
  5
BC
  2
*X14
 70
    65
 10
875.408934
 20
571.990982
 30
0.0
  3
*X14
  0
LINE
  8
LC-011-005-----0
  6
CONTINUOUS
  5
BD
 10
1004.740332
 20
571.990982
 30
0.0
 11
1005.989503
 21
573.240153
 31
0.0
  0
LINE
  8
LC-011-005-----0
  6
CONTINUOUS
  5
BE
 10
1003.81117
 20
575.30446
 30
0.0
 11
1005.989503
 21
577.482794
 31
0.0
  0
LINE
  8
LC-011-005-----0
  6
CONTINUOUS
  5
BF
 10
1003.599895
 20
579.335826
 30
0.0
 11
1005.989503
 21
581.725435
 31
0.0
  0
LINE
  8
LC-011-005-----0
  6
CONTINUOUS
  5
C0
 10
995.51241
 20
575.490982
 30
0.0
 11
996.093232
 21
576.071804
 31
0.0
  0
LINE
  8
LC-011-005-----0
  6
CONTINUOUS
  5
C1
 10
1003.007027
 20
582.985599
 30
0.0
 11
1005.559698
 21
585.53827
 31
0.0
  0
LINE
  8
LC-011-005-----0
  6
CONTINUOUS
  5
C2
 10
994.067051
 20
578.288263
 30
0.0
 11
996.327876
 21
580.549089
 31
0.0
  0
LINE
  8
LC-011-005-----0
  6
CONTINUOUS
  5
C3
 10
998.769769
 20
582.990982
 30
0.0
 11
1002.769769
 21
586.990982
 31
0.0
  0
LINE
  8
LC-011-005-----0
  6
CONTINUOUS
  5
C4
 10
994.066309
 20
582.530163
 30
0.0
 11
998.527129
 21
586.990982
 31
0.0
  0
LINE
  8
LC-011-005-----0
  6
CONTINUOUS
  5
C5
 10
990.296212
 20
583.002706
 30
0.0
 11
994.284488
 21
586.990982
 31
0.0
  0
LINE
  8
LC-011-005-----0
  6
CONTINUOUS
  5
C6
 10
986.053261
 20
583.002395
 30
0.0
 11
990.041847
 21
586.990982
 31
0.0
  0
LINE
  8
LC-011-005-----0
  6
CONTINUOUS
  5
C7
 10
981.810309
 20
583.002085
 30
0.0
 11
985.799207
 21
586.990982
 31
0.0
  0
LINE
  8
LC-011-005-----0
  6
CONTINUOUS
  5
C8
 10
977.567358
 20
583.001774
 30
0.0
 11
981.556566
 21
586.990982
 31
0.0
  0
LINE
  8
LC-011-005-----0
  6
CONTINUOUS
  5
C9
 10
973.324407
 20
583.001464
 30
0.0
 11
977.313925
 21
586.990982
 31
0.0
  0
LINE
  8
LC-011-005-----0
  6
CONTINUOUS
  5
CA
 10
969.081456
 20
583.001153
 30
0.0
 11
973.071285
 21
586.990982
 31
0.0
  0
LINE
  8
LC-011-005-----0
  6
CONTINUOUS
  5
CB
 10
964.838505
 20
583.000843
 30
0.0
 11
968.828644
 21
586.990982
 31
0.0
  0
LINE
  8
LC-011-005-----0
  6
CONTINUOUS
  5
CC
 10
960.595553
 20
583.000532
 30
0.0
 11
964.586003
 21
586.990982
 31
0.0
  0
LINE
  8
LC-011-005-----0
  6
CONTINUOUS
  5
CD
 10
956.352602
 20
583.000222
 30
0.0
 11
960.343362
 21
586.990982
 31
0.0
  0
LINE
  8
LC-011-005-----0
  6
CONTINUOUS
  5
CE
 10
952.109651
 20
582.999911
 30
0.0
 11
956.100722
 21
586.990982
 31
0.0
  0
LINE
  8
LC-011-005-----0
  6
CONTINUOUS
  5
CF
 10
947.8667
 20
582.999601
 30
0.0
 11
951.858081
 21
586.990982
 31
0.0
  0
LINE
  8
LC-011-005-----0
  6
CONTINUOUS
  5
D0
 10
943.623749
 20
582.99929
 30
0.0
 11
947.61544
 21
586.990982
 31
0.0
  0
LINE
  8
LC-011-005-----0
  6
CONTINUOUS
  5
D1
 10
939.380797
 20
582.99898
 30
0.0
 11
943.3728
 21
586.990982
 31
0.0
  0
LINE
  8
LC-011-005-----0
  6
CONTINUOUS
  5
D2
 10
935.137846
 20
582.998669
 30
0.0
 11
939.130159
 21
586.990982
 31
0.0
  0
LINE
  8
LC-011-005-----0
  6
CONTINUOUS
  5
D3
 10
930.894895
 20
582.998359
 30
0.0
 11
934.887518
 21
586.990982
 31
0.0
  0
LINE
  8
LC-011-005-----0
  6
CONTINUOUS
  5
D4
 10
926.651944
 20
582.998048
 30
0.0
 11
930.644878
 21
586.990982
 31
0.0
  0
LINE
  8
LC-011-005-----0
  6
CONTINUOUS
  5
D5
 10
922.408993
 20
582.997738
 30
0.0
 11
926.402237
 21
586.990982
 31
0.0
  0
LINE
  8
LC-011-005-----0
  6
CONTINUOUS
  5
D6
 10
918.166041
 20
582.997427
 30
0.0
 11
922.159596
 21
586.990982
 31
0.0
  0
LINE
  8
LC-011-005-----0
  6
CONTINUOUS
  5
D7
 10
913.92309
 20
582.997117
 30
0.0
 11
917.916956
 21
586.990982
 31
0.0
  0
LINE
  8
LC-011-005-----0
  6
CONTINUOUS
  5
D8
 10
909.680139
 20
582.996806
 30
0.0
 11
913.674315
 21
586.990982
 31
0.0
  0
LINE
  8
LC-011-005-----0
  6
CONTINUOUS
  5
D9
 10
905.437188
 20
582.996495
 30
0.0
 11
909.431674
 21
586.990982
 31
0.0
  0
LINE
  8
LC-011-005-----0
  6
CONTINUOUS
  5
DA
 10
901.194236
 20
582.996185
 30
0.0
 11
905.189034
 21
586.990982
 31
0.0
  0
LINE
  8
LC-011-005-----0
  6
CONTINUOUS
  5
DB
 10
896.951285
 20
582.995874
 30
0.0
 11
900.946393
 21
586.990982
 31
0.0
  0
LINE
  8
LC-011-005-----0
  6
CONTINUOUS
  5
DC
 10
892.708334
 20
582.995564
 30
0.0
 11
896.703752
 21
586.990982
 31
0.0
  0
LINE
  8
LC-011-005-----0
  6
CONTINUOUS
  5
DD
 10
888.465383
 20
582.995253
 30
0.0
 11
892.461111
 21
586.990982
 31
0.0
  0
LINE
  8
LC-011-005-----0
  6
CONTINUOUS
  5
DE
 10
884.222432
 20
582.994943
 30
0.0
 11
888.218471
 21
586.990982
 31
0.0
  0
LINE
  8
LC-011-005-----0
  6
CONTINUOUS
  5
DF
 10
879.97948
 20
582.994632
 30
0.0
 11
883.97583
 21
586.990982
 31
0.0
  0
LINE
  8
LC-011-005-----0
  6
CONTINUOUS
  5
E0
 10
875.736529
 20
582.994322
 30
0.0
 11
877.733189
 21
584.990982
 31
0.0
  0
LINE
  8
LC-011-005-----0
  6
CONTINUOUS
  5
E1
 10
878.808934
 20
586.066727
 30
0.0
 11
880.908934
 21
588.166727
 31
0.0
  0
LINE
  8
LC-011-005-----0
  6
CONTINUOUS
  5
E2
 10
878.808934
 20
590.309368
 30
0.0
 11
880.908934
 21
592.409368
 31
0.0
  0
ENDBLK
  8
0
  5
E3
  0
BLOCK
  8
0
  5
E5
  2
BLK6
 70
    64
 10
0.0
 20
0.0
 30
0.0
  3
BLK6
  0
ENDBLK
  8
0
  5
E6
  0
BLOCK
  8
0
  5
E8
  2
BLK7
 70
    64
 10
0.0
 20
0.0
 30
0.0
  3
BLK7
  0
ENDBLK
  8
0
  5
E9
  0
BLOCK
  8
0
  5
EB
  2
*X17
 70
    65
 10
639.0604
 20
414.534732
 30
0.0
  3
*X17
  0
LINE
  8
LC-011-005-----0
  6
CONTINUOUS
  5
EC
 10
660.989756
 20
414.916597
 30
0.0
 11
661.109406
 21
415.036246
 31
0.0
  0
LINE
  8
LC-011-005-----0
  6
CONTINUOUS
  5
ED
 10
658.111082
 20
414.866349
 30
0.0
 11
661.109406
 21
417.864673
 31
0.0
  0
LINE
  8
LC-011-005-----0
  6
CONTINUOUS
  5
EE
 10
655.232407
 20
414.816102
 30
0.0
 11
659.304088
 21
418.887782
 31
0.0
  0
LINE
  8
LC-011-005-----0
  6
CONTINUOUS
  5
EF
 10
652.353733
 20
414.765854
 30
0.0
 11
656.425413
 21
418.837535
 31
0.0
  0
LINE
  8
LC-011-005-----0
  6
CONTINUOUS
  5
F0
 10
649.475058
 20
414.715607
 30
0.0
 11
654.023362
 21
419.26391
 31
0.0
  0
LINE
  8
LC-011-005-----0
  6
CONTINUOUS
  5
F1
 10
646.596384
 20
414.665359
 30
0.0
 11
652.203629
 21
420.272605
 31
0.0
  0
LINE
  8
LC-011-005-----0
  6
CONTINUOUS
  5
F2
 10
643.717709
 20
414.615112
 30
0.0
 11
650.383896
 21
421.281299
 31
0.0
  0
LINE
  8
LC-011-005-----0
  6
CONTINUOUS
  5
F3
 10
640.839034
 20
414.564864
 30
0.0
 11
643.892795
 21
417.618625
 31
0.0
  0
LINE
  8
LC-011-005-----0
  6
CONTINUOUS
  5
F4
 10
646.022814
 20
419.748644
 30
0.0
 11
648.16806
 21
421.89389
 31
0.0
  0
LINE
  8
LC-011-005-----0
  6
CONTINUOUS
  5
F5
 10
639.093332
 20
415.647589
 30
0.0
 11
641.01412
 21
417.568378
 31
0.0
  0
LINE
  8
LC-011-005-----0
  6
CONTINUOUS
  5
F6
 10
643.253545
 20
419.807802
 30
0.0
 11
645.289385
 21
421.843642
 31
0.0
  0
ENDBLK
  8
0
  5
F7
  0
BLOCK
  8
0
  5
F9
  2
*X18
 70
    65
 10
636.198205
 20
559.782427
 30
0.0
  3
*X18
  0
LINE
  8
LC-011-005-----0
  6
CONTINUOUS
  5
FA
 10
659.47936
 20
563.312838
 30
0.0
 11
661.109407
 21
564.942884
 31
0.0
  0
LINE
  8
LC-011-005-----0
  6
CONTINUOUS
  5
FB
 10
656.600686
 20
563.262591
 30
0.0
 11
660.265198
 21
566.927103
 31
0.0
  0
LINE
  8
LC-011-005-----0
  6
CONTINUOUS
  5
FC
 10
653.722011
 20
563.212343
 30
0.0
 11
657.386524
 21
566.876856
 31
0.0
  0
LINE
  8
LC-011-005-----0
  6
CONTINUOUS
  5
FD
 10
648.68162
 20
561.000379
 30
0.0
 11
654.507849
 21
566.826608
 31
0.0
  0
LINE
  8
LC-011-005-----0
  6
CONTINUOUS
  5
FE
 10
644.707317
 20
559.854504
 30
0.0
 11
651.629175
 21
566.776361
 31
0.0
  0
LINE
  8
LC-011-005-----0
  6
CONTINUOUS
  5
FF
 10
641.828643
 20
559.804256
 30
0.0
 11
648.7505
 21
566.726113
 31
0.0
  0
LINE
  8
LC-011-005-----0
  6
CONTINUOUS
  5
100
 10
640.550615
 20
561.354655
 30
0.0
 11
640.985809
 21
561.789849
 31
0.0
  0
LINE
  8
LC-011-005-----0
  6
CONTINUOUS
  5
101
 10
643.225233
 20
564.029273
 30
0.0
 11
645.871825
 21
566.675866
 31
0.0
  0
LINE
  8
LC-011-005-----0
  6
CONTINUOUS
  5
102
 10
640.346558
 20
563.979026
 30
0.0
 11
642.993151
 21
566.625619
 31
0.0
  0
LINE
  8
LC-011-005-----0
  6
CONTINUOUS
  5
103
 10
637.467884
 20
563.928779
 30
0.0
 11
640.256969
 21
566.717864
 31
0.0
  0
LINE
  8
LC-011-005-----0
  6
CONTINUOUS
  5
104
 10
636.473068
 20
565.76239
 30
0.0
 11
640.208446
 21
569.497768
 31
0.0
  0
LINE
  8
LC-011-005-----0
  6
CONTINUOUS
  5
105
 10
636.424545
 20
568.542294
 30
0.0
 11
640.159922
 21
572.277671
 31
0.0
  0
LINE
  8
LC-011-005-----0
  6
CONTINUOUS
  5
106
 10
636.376021
 20
571.322198
 30
0.0
 11
640.111399
 21
575.057575
 31
0.0
  0
LINE
  8
LC-011-005-----0
  6
CONTINUOUS
  5
107
 10
636.327498
 20
574.102101
 30
0.0
 11
640.062876
 21
577.837479
 31
0.0
  0
LINE
  8
LC-011-005-----0
  6
CONTINUOUS
  5
108
 10
636.278975
 20
576.882005
 30
0.0
 11
640.014352
 21
580.617383
 31
0.0
  0
LINE
  8
LC-011-005-----0
  6
CONTINUOUS
  5
109
 10
636.230451
 20
579.661909
 30
0.0
 11
638.111232
 21
581.542689
 31
0.0
  0
ENDBLK
  8
0
  5
10A
  0
BLOCK
  8
0
  5
10C
  2
*X19
 70
    65
 10
638.861442
 20
417.534275
 30
0.0
  3
*X19
  0
LINE
  8
LC-011-005-----0
  6
CONTINUOUS
  5
10D
 10
661.109406
 20
419.349756
 30
0.0
 11
659.853575
 21
420.605586
 31
0.0
  0
LINE
  8
LC-011-005-----0
  6
DASHED
  5
10E
 10
658.752579
 20
418.878156
 30
0.0
 11
653.507413
 21
424.123322
 31
0.0
  0
LINE
  8
LC-011-005-----0
  6
DASHED
  5
10F
 10
657.362627
 20
418.853894
 30
0.0
 11
650.334331
 21
425.88219
 31
0.0
  0
LINE
  8
LC-011-005-----0
  6
CONTINUOUS
  5
110
 10
654.249576
 20
419.138517
 30
0.0
 11
644.359584
 21
429.028509
 31
0.0
  0
LINE
  8
LC-011-005-----0
  6
CONTINUOUS
  5
111
 10
651.076495
 20
420.897386
 30
0.0
 11
642.969633
 21
429.004248
 31
0.0
  0
LINE
  8
LC-011-005-----0
  6
DASHED
  5
112
 10
647.267286
 20
421.878167
 30
0.0
 11
640.189729
 21
428.955724
 31
0.0
  0
LINE
  8
LC-011-005-----0
  6
DASHED
  5
113
 10
645.877335
 20
421.853905
 30
0.0
 11
638.862557
 21
428.868683
 31
0.0
  0
LINE
  8
LC-011-005-----0
  6
CONTINUOUS
  5
114
 10
646.038246
 20
418.864567
 30
0.0
 11
645.063419
 21
419.839393
 31
0.0
  0
LINE
  8
LC-011-005-----0
  6
CONTINUOUS
  5
115
 10
643.097431
 20
421.805382
 30
0.0
 11
638.912804
 21
425.990008
 31
0.0
  0
LINE
  8
LC-011-005-----0
  6
CONTINUOUS
  5
116
 10
645.836054
 20
417.652545
 30
0.0
 11
643.673467
 21
419.815132
 31
0.0
  0
LINE
  8
LC-011-005-----0
  6
CONTINUOUS
  5
117
 10
643.009609
 20
420.47899
 30
0.0
 11
638.937928
 21
424.550671
 31
0.0
  0
LINE
  8
LC-011-005-----0
  6
DASHED
  5
118
 10
643.05615
 20
417.604021
 30
0.0
 11
638.988175
 21
421.671996
 31
0.0
  0
LINE
  8
LC-011-005-----0
  6
DASHED
  5
119
 10
641.666199
 20
417.57976
 30
0.0
 11
639.013299
 21
420.232659
 31
0.0
  0
ENDBLK
  8
0
  5
11A
  0
BLOCK
  8
0
  5
11C
  2
*X20
 70
    65
 10
636.505367
 20
552.513714
 30
0.0
  3
*X20
  0
LINE
  8
LC-011-005-----0
  6
CONTINUOUS
  5
11D
 10
658.589498
 20
563.29102
 30
0.0
 11
658.58332
 21
563.297198
 31
0.0
  0
LINE
  8
LC-011-005-----0
  6
DASHED
  5
11E
 10
657.449794
 20
561.602296
 30
0.0
 11
655.803417
 21
563.248674
 31
0.0
  0
LINE
  8
LC-011-005-----0
  6
DASHED
  5
11F
 10
656.566386
 20
561.071491
 30
0.0
 11
654.413465
 21
563.224412
 31
0.0
  0
LINE
  8
LC-011-005-----0
  6
CONTINUOUS
  5
120
 10
654.79957
 20
560.009881
 30
0.0
 11
651.884554
 21
562.924896
 31
0.0
  0
LINE
  8
LC-011-005-----0
  6
CONTINUOUS
  5
121
 10
653.916161
 20
559.479075
 30
0.0
 11
651.001146
 21
562.394091
 31
0.0
  0
LINE
  8
LC-011-005-----0
  6
DASHED
  5
122
 10
652.149345
 20
558.417465
 30
0.0
 11
649.234329
 21
561.33248
 31
0.0
  0
LINE
  8
LC-011-005-----0
  6
DASHED
  5
123
 10
651.265936
 20
557.886659
 30
0.0
 11
648.350921
 21
560.801675
 31
0.0
  0
LINE
  8
LC-011-005-----0
  6
CONTINUOUS
  5
124
 10
649.49912
 20
556.825049
 30
0.0
 11
646.439431
 21
559.884738
 31
0.0
  0
LINE
  8
LC-011-005-----0
  6
CONTINUOUS
  5
125
 10
643.525873
 20
562.798296
 30
0.0
 11
642.310856
 21
564.013313
 31
0.0
  0
LINE
  8
LC-011-005-----0
  6
CONTINUOUS
  5
126
 10
648.615711
 20
556.294244
 30
0.0
 11
645.049479
 21
559.860476
 31
0.0
  0
LINE
  8
LC-011-005-----0
  6
CONTINUOUS
  5
127
 10
643.083491
 20
561.826464
 30
0.0
 11
640.920904
 21
563.989051
 31
0.0
  0
LINE
  8
LC-011-005-----0
  6
DASHED
  5
128
 10
646.848895
 20
555.232633
 30
0.0
 11
642.269575
 21
559.811953
 31
0.0
  0
LINE
  8
LC-011-005-----0
  6
DASHED
  5
129
 10
640.547484
 20
561.534044
 30
0.0
 11
638.141
 21
563.940528
 31
0.0
  0
LINE
  8
LC-011-005-----0
  6
DASHED
  5
12A
 10
645.965487
 20
554.701828
 30
0.0
 11
640.879624
 21
559.787691
 31
0.0
  0
LINE
  8
LC-011-005-----0
  6
DASHED
  5
12B
 10
640.572607
 20
560.094707
 30
0.0
 11
636.751048
 21
563.916266
 31
0.0
  0
LINE
  8
LC-011-005-----0
  6
CONTINUOUS
  5
12C
 10
644.19867
 20
553.640217
 30
0.0
 11
636.551174
 21
561.287713
 31
0.0
  0
LINE
  8
LC-011-005-----0
  6
CONTINUOUS
  5
12D
 10
643.315262
 20
553.109412
 30
0.0
 11
636.576298
 21
559.848376
 31
0.0
  0
LINE
  8
LC-011-005-----0
  6
DASHED
  5
12E
 10
641.007422
 20
552.588825
 30
0.0
 11
636.626545
 21
556.969701
 31
0.0
  0
LINE
  8
LC-011-005-----0
  6
DASHED
  5
12F
 10
639.61747
 20
552.564563
 30
0.0
 11
636.651669
 21
555.530364
 31
0.0
  0
LINE
  8
LC-011-005-----0
  6
CONTINUOUS
  5
130
 10
636.837566
 20
552.51604
 30
0.0
 11
636.701916
 21
552.65169
 31
0.0
  0
ENDBLK
  8
0
  5
131
  0
BLOCK
  8
0
  5
133
  2
*X21
 70
    65
 10
542.233385
 20
292.426151
 30
0.0
  3
*X21
  0
LINE
  8
LC-011-005-----0
  6
CONTINUOUS
  5
134
 10
788.317724
 20
508.303439
 30
0.0
 11
790.338105
 21
510.323819
 31
0.0
  0
LINE
  8
LC-011-005-----0
  6
CONTINUOUS
  5
135
 10
786.388584
 20
509.202726
 30
0.0
 11
787.141071
 21
509.955213
 31
0.0
  0
LINE
  8
LC-011-005-----0
  6
CONTINUOUS
  5
136
 10
784.459639
 20
510.102208
 30
0.0
 11
785.212126
 21
510.854695
 31
0.0
  0
LINE
  8
LC-011-005-----0
  6
CONTINUOUS
  5
137
 10
782.575695
 20
511.046691
 30
0.0
 11
783.283181
 21
511.754177
 31
0.0
  0
LINE
  8
LC-011-005-----0
  6
CONTINUOUS
  5
138
 10
783.683794
 20
514.983217
 30
0.0
 11
785.751236
 21
517.050659
 31
0.0
  0
LINE
  8
LC-011-005-----0
  6
CONTINUOUS
  5
139
 10
786.155101
 20
520.282951
 30
0.0
 11
787.912834
 21
522.040684
 31
0.0
  0
LINE
  8
LC-011-005-----0
  6
CONTINUOUS
  5
13A
 10
786.776251
 20
523.732528
 30
0.0
 11
787.534354
 21
524.490631
 31
0.0
  0
LINE
  8
LC-011-005-----0
  6
CONTINUOUS
  5
13B
 10
785.587393
 20
525.372097
 30
0.0
 11
786.295486
 21
526.08019
 31
0.0
  0
LINE
  8
LC-011-005-----0
  6
CONTINUOUS
  5
13C
 10
784.237953
 20
526.851084
 30
0.0
 11
784.945582
 21
527.558713
 31
0.0
  0
LINE
  8
LC-011-005-----0
  6
CONTINUOUS
  5
13D
 10
782.868118
 20
528.309676
 30
0.0
 11
783.575429
 21
529.016988
 31
0.0
  0
LINE
  8
LC-011-005-----0
  6
CONTINUOUS
  5
13E
 10
781.477915
 20
529.747901
 30
0.0
 11
782.185056
 21
530.455041
 31
0.0
  0
LINE
  8
LC-011-005-----0
  6
CONTINUOUS
  5
13F
 10
780.067361
 20
531.165774
 30
0.0
 11
780.774475
 21
531.872888
 31
0.0
  0
LINE
  8
LC-011-005-----0
  6
CONTINUOUS
  5
140
 10
778.636456
 20
532.563296
 30
0.0
 11
779.343689
 21
533.270529
 31
0.0
  0
LINE
  8
LC-011-005-----0
  6
CONTINUOUS
  5
141
 10
777.185191
 20
533.940458
 30
0.0
 11
777.892689
 21
534.647956
 31
0.0
  0
LINE
  8
LC-011-005-----0
  6
CONTINUOUS
  5
142
 10
775.713542
 20
535.297236
 30
0.0
 11
776.421451
 21
536.005145
 31
0.0
  0
LINE
  8
LC-011-005-----0
  6
CONTINUOUS
  5
143
 10
774.221474
 20
536.633595
 30
0.0
 11
774.929941
 21
537.342062
 31
0.0
  0
LINE
  8
LC-011-005-----0
  6
CONTINUOUS
  5
144
 10
772.708938
 20
537.949486
 30
0.0
 11
773.41811
 21
538.658659
 31
0.0
  0
LINE
  8
LC-011-005-----0
  6
CONTINUOUS
  5
145
 10
771.175872
 20
539.244848
 30
0.0
 11
771.885899
 21
539.954875
 31
0.0
  0
LINE
  8
LC-011-005-----0
  6
CONTINUOUS
  5
146
 10
769.622201
 20
540.519604
 30
0.0
 11
770.333235
 21
541.230638
 31
0.0
  0
LINE
  8
LC-011-005-----0
  6
CONTINUOUS
  5
147
 10
768.047838
 20
541.773668
 30
0.0
 11
768.76003
 21
542.48586
 31
0.0
  0
LINE
  8
LC-011-005-----0
  6
CONTINUOUS
  5
148
 10
766.45268
 20
543.006937
 30
0.0
 11
767.166185
 21
543.720442
 31
0.0
  0
LINE
  8
LC-011-005-----0
  6
CONTINUOUS
  5
149
 10
764.836611
 20
544.219295
 30
0.0
 11
765.551587
 21
544.934271
 31
0.0
  0
LINE
  8
LC-011-005-----0
  6
CONTINUOUS
  5
14A
 10
763.1995
 20
545.410611
 30
0.0
 11
763.916107
 21
546.127218
 31
0.0
  0
LINE
  8
LC-011-005-----0
  6
CONTINUOUS
  5
14B
 10
761.541201
 20
546.58074
 30
0.0
 11
762.259604
 21
547.299142
 31
0.0
  0
LINE
  8
LC-011-005-----0
  6
CONTINUOUS
  5
14C
 10
759.861555
 20
547.729521
 30
0.0
 11
760.58192
 21
548.449885
 31
0.0
  0
LINE
  8
LC-011-005-----0
  6
CONTINUOUS
  5
14D
 10
758.160384
 20
548.856777
 30
0.0
 11
758.882882
 21
549.579275
 31
0.0
  0
LINE
  8
LC-011-005-----0
  6
CONTINUOUS
  5
14E
 10
756.437495
 20
549.962315
 30
0.0
 11
757.162302
 21
550.687122
 31
0.0
  0
LINE
  8
LC-011-005-----0
  6
CONTINUOUS
  5
14F
 10
754.692678
 20
551.045925
 30
0.0
 11
755.419974
 21
551.773221
 31
0.0
  0
LINE
  8
LC-011-005-----0
  6
CONTINUOUS
  5
150
 10
752.925703
 20
552.107378
 30
0.0
 11
753.655674
 21
552.837348
 31
0.0
  0
LINE
  8
LC-011-005-----0
  6
CONTINUOUS
  5
151
 10
751.136325
 20
553.146426
 30
0.0
 11
751.869162
 21
553.879263
 31
0.0
  0
LINE
  8
LC-011-005-----0
  6
CONTINUOUS
  5
152
 10
749.324275
 20
554.162803
 30
0.0
 11
750.060176
 21
554.898704
 31
0.0
  0
LINE
  8
LC-011-005-----0
  6
CONTINUOUS
  5
153
 10
747.489265
 20
555.156221
 30
0.0
 11
748.228435
 21
555.895391
 31
0.0
  0
LINE
  8
LC-011-005-----0
  6
CONTINUOUS
  5
154
 10
745.630987
 20
556.126369
 30
0.0
 11
746.373638
 21
556.86902
 31
0.0
  0
LINE
  8
LC-011-005-----0
  6
CONTINUOUS
  5
155
 10
743.749106
 20
557.072916
 30
0.0
 11
744.495459
 21
557.819269
 31
0.0
  0
LINE
  8
LC-011-005-----0
  6
CONTINUOUS
  5
156
 10
741.843266
 20
557.995502
 30
0.0
 11
742.59355
 21
558.745787
 31
0.0
  0
LINE
  8
LC-011-005-----0
  6
CONTINUOUS
  5
157
 10
739.913082
 20
558.893746
 30
0.0
 11
740.667536
 21
559.6482
 31
0.0
  0
LINE
  8
LC-011-005-----0
  6
CONTINUOUS
  5
158
 10
737.958142
 20
559.767234
 30
0.0
 11
738.717017
 21
560.526108
 31
0.0
  0
LINE
  8
LC-011-005-----0
  6
CONTINUOUS
  5
159
 10
735.978006
 20
560.615525
 30
0.0
 11
736.741563
 21
561.379082
 31
0.0
  0
LINE
  8
LC-011-005-----0
  6
CONTINUOUS
  5
15A
 10
733.972201
 20
561.438146
 30
0.0
 11
734.740714
 21
562.206659
 31
0.0
  0
LINE
  8
LC-011-005-----0
  6
CONTINUOUS
  5
15B
 10
731.940217
 20
562.23459
 30
0.0
 11
732.713974
 21
563.008347
 31
0.0
  0
LINE
  8
LC-011-005-----0
  6
CONTINUOUS
  5
15C
 10
730.116771
 20
563.23957
 30
0.0
 11
730.824146
 21
563.946946
 31
0.0
  0
LINE
  8
LC-011-005-----0
  6
CONTINUOUS
  5
15D
 10
729.252253
 20
565.20348
 30
0.0
 11
729.994869
 21
565.946096
 31
0.0
  0
LINE
  8
LC-011-005-----0
  6
CONTINUOUS
  5
15E
 10
727.284929
 20
566.064583
 30
0.0
 11
728.148147
 21
566.927801
 31
0.0
  0
LINE
  8
LC-011-005-----0
  6
CONTINUOUS
  5
15F
 10
724.880473
 20
566.488554
 30
0.0
 11
725.743691
 21
567.351772
 31
0.0
  0
LINE
  8
LC-011-005-----0
  6
CONTINUOUS
  5
160
 10
722.476016
 20
566.912524
 30
0.0
 11
723.339234
 21
567.775742
 31
0.0
  0
LINE
  8
LC-011-005-----0
  6
CONTINUOUS
  5
161
 10
720.071559
 20
567.336495
 30
0.0
 11
720.934777
 21
568.199713
 31
0.0
  0
LINE
  8
LC-011-005-----0
  6
CONTINUOUS
  5
162
 10
717.667103
 20
567.760465
 30
0.0
 11
718.530321
 21
568.623683
 31
0.0
  0
LINE
  8
LC-011-005-----0
  6
CONTINUOUS
  5
163
 10
715.262646
 20
568.184436
 30
0.0
 11
716.125864
 21
569.047654
 31
0.0
  0
LINE
  8
LC-011-005-----0
  6
CONTINUOUS
  5
164
 10
712.85819
 20
568.608406
 30
0.0
 11
713.721408
 21
569.471624
 31
0.0
  0
LINE
  8
LC-011-005-----0
  6
CONTINUOUS
  5
165
 10
710.453733
 20
569.032377
 30
0.0
 11
711.316951
 21
569.895595
 31
0.0
  0
LINE
  8
LC-011-005-----0
  6
CONTINUOUS
  5
166
 10
708.049276
 20
569.456347
 30
0.0
 11
708.912494
 21
570.319565
 31
0.0
  0
LINE
  8
LC-011-005-----0
  6
CONTINUOUS
  5
167
 10
705.64482
 20
569.880318
 30
0.0
 11
706.508038
 21
570.743536
 31
0.0
  0
LINE
  8
LC-011-005-----0
  6
CONTINUOUS
  5
168
 10
703.240363
 20
570.304288
 30
0.0
 11
704.103581
 21
571.167506
 31
0.0
  0
LINE
  8
LC-011-005-----0
  6
CONTINUOUS
  5
169
 10
700.835906
 20
570.728259
 30
0.0
 11
701.699124
 21
571.591477
 31
0.0
  0
LINE
  8
LC-011-005-----0
  6
CONTINUOUS
  5
16A
 10
698.43145
 20
571.152229
 30
0.0
 11
699.294668
 21
572.015447
 31
0.0
  0
LINE
  8
LC-011-005-----0
  6
CONTINUOUS
  5
16B
 10
696.026993
 20
571.5762
 30
0.0
 11
696.890211
 21
572.439418
 31
0.0
  0
LINE
  8
LC-011-005-----0
  6
CONTINUOUS
  5
16C
 10
693.622537
 20
572.00017
 30
0.0
 11
694.485755
 21
572.863388
 31
0.0
  0
LINE
  8
LC-011-005-----0
  6
CONTINUOUS
  5
16D
 10
691.21808
 20
572.424141
 30
0.0
 11
692.081298
 21
573.287359
 31
0.0
  0
LINE
  8
LC-011-005-----0
  6
CONTINUOUS
  5
16E
 10
676.438707
 20
560.473195
 30
0.0
 11
677.191195
 21
561.225682
 31
0.0
  0
LINE
  8
LC-011-005-----0
  6
CONTINUOUS
  5
16F
 10
677.31107
 20
561.345558
 30
0.0
 11
679.378512
 21
563.413
 31
0.0
  0
LINE
  8
LC-011-005-----0
  6
CONTINUOUS
  5
170
 10
688.813623
 20
572.848111
 30
0.0
 11
689.676841
 21
573.711329
 31
0.0
  0
LINE
  8
LC-011-005-----0
  6
CONTINUOUS
  5
171
 10
674.509762
 20
561.372677
 30
0.0
 11
675.262249
 21
562.125164
 31
0.0
  0
LINE
  8
LC-011-005-----0
  6
CONTINUOUS
  5
172
 10
679.782376
 20
566.645291
 30
0.0
 11
681.849818
 21
568.712733
 31
0.0
  0
LINE
  8
LC-011-005-----0
  6
CONTINUOUS
  5
173
 10
686.409167
 20
573.272082
 30
0.0
 11
687.272385
 21
574.1353
 31
0.0
  0
LINE
  8
LC-011-005-----0
  6
CONTINUOUS
  5
174
 10
672.580817
 20
562.272159
 30
0.0
 11
673.333304
 21
563.024646
 31
0.0
  0
LINE
  8
LC-011-005-----0
  6
CONTINUOUS
  5
175
 10
682.253683
 20
571.945025
 30
0.0
 11
684.855939
 21
574.547281
 31
0.0
  0
LINE
  8
LC-011-005-----0
  6
CONTINUOUS
  5
176
 10
670.868597
 20
563.388366
 30
0.0
 11
672.320337
 21
564.840107
 31
0.0
  0
LINE
  8
LC-011-005-----0
  6
CONTINUOUS
  5
177
 10
672.724202
 20
568.072398
 30
0.0
 11
674.791644
 21
570.13984
 31
0.0
  0
LINE
  8
LC-011-005-----0
  6
CONTINUOUS
  5
178
 10
675.195508
 20
573.372132
 30
0.0
 11
676.397933
 21
574.574557
 31
0.0
  0
LINE
  8
LC-011-005-----0
  6
CONTINUOUS
  5
179
 10
674.300319
 20
575.305369
 30
0.0
 11
675.052806
 21
576.057857
 31
0.0
  0
LINE
  8
LC-011-005-----0
  6
CONTINUOUS
  5
17A
 10
672.371374
 20
576.204851
 30
0.0
 11
673.123861
 21
576.957339
 31
0.0
  0
LINE
  8
LC-011-005-----0
  6
CONTINUOUS
  5
17B
 10
670.442428
 20
577.104333
 30
0.0
 11
671.194916
 21
577.856821
 31
0.0
  0
LINE
  8
LC-011-005-----0
  6
CONTINUOUS
  5
17C
 10
668.513483
 20
578.003815
 30
0.0
 11
669.26597
 21
578.756303
 31
0.0
  0
LINE
  8
LC-011-005-----0
  6
CONTINUOUS
  5
17D
 10
656.998758
 20
569.317517
 30
0.0
 11
657.751245
 21
570.070004
 31
0.0
  0
LINE
  8
LC-011-005-----0
  6
CONTINUOUS
  5
17E
 10
666.584538
 20
578.903297
 30
0.0
 11
667.337025
 21
579.655784
 31
0.0
  0
LINE
  8
LC-011-005-----0
  6
CONTINUOUS
  5
17F
 10
655.069813
 20
570.216999
 30
0.0
 11
655.8223
 21
570.969486
 31
0.0
  0
LINE
  8
LC-011-005-----0
  6
CONTINUOUS
  5
180
 10
664.365853
 20
579.513039
 30
0.0
 11
665.270622
 21
580.417808
 31
0.0
  0
LINE
  8
LC-011-005-----0
  6
CONTINUOUS
  5
181
 10
653.140867
 20
571.116481
 30
0.0
 11
653.893355
 21
571.868968
 31
0.0
  0
LINE
  8
LC-011-005-----0
  6
CONTINUOUS
  5
182
 10
661.822734
 20
579.798347
 30
0.0
 11
662.727503
 21
580.703116
 31
0.0
  0
LINE
  8
LC-011-005-----0
  6
CONTINUOUS
  5
183
 10
651.242479
 20
572.046519
 30
0.0
 11
651.972247
 21
572.776288
 31
0.0
  0
LINE
  8
LC-011-005-----0
  6
CONTINUOUS
  5
184
 10
659.279615
 20
580.083655
 30
0.0
 11
660.184384
 21
580.988424
 31
0.0
  0
LINE
  8
LC-011-005-----0
  6
CONTINUOUS
  5
185
 10
649.785249
 20
573.417717
 30
0.0
 11
650.504207
 21
574.136674
 31
0.0
  0
LINE
  8
LC-011-005-----0
  6
CONTINUOUS
  5
186
 10
656.736496
 20
580.368963
 30
0.0
 11
657.641265
 21
581.273732
 31
0.0
  0
LINE
  8
LC-011-005-----0
  6
CONTINUOUS
  5
187
 10
648.921248
 20
575.382142
 30
0.0
 11
649.814326
 21
576.275221
 31
0.0
  0
LINE
  8
LC-011-005-----0
  6
CONTINUOUS
  5
188
 10
654.183944
 20
580.644839
 30
0.0
 11
655.098146
 21
581.559041
 31
0.0
  0
LINE
  8
LC-011-005-----0
  6
CONTINUOUS
  5
189
 10
649.249379
 20
578.538701
 30
0.0
 11
651.920464
 21
581.209786
 31
0.0
  0
ENDBLK
  8
0
  5
18A
  0
BLOCK
  8
0
  5
18C
  2
*X22
 70
    65
 10
863.508934
 20
585.490982
 30
0.0
  3
*X22
  0
LINE
  8
LC-011-005-----0
  6
CONTINUOUS
  5
18D
 10
863.508934
 20
586.060151
 30
0.0
 11
864.078104
 21
585.490982
 31
0.0
  0
LINE
  8
LC-011-005-----0
  6
CONTINUOUS
  5
18E
 10
863.508934
 20
587.474364
 30
0.0
 11
865.492319
 21
585.490982
 31
0.0
  0
LINE
  8
LC-011-005-----0
  6
CONTINUOUS
  5
18F
 10
863.508934
 20
588.888576
 30
0.0
 11
866.508934
 21
585.88858
 31
0.0
  0
LINE
  8
LC-011-005-----0
  6
CONTINUOUS
  5
190
 10
863.508934
 20
590.302789
 30
0.0
 11
866.508934
 21
587.302793
 31
0.0
  0
LINE
  8
LC-011-005-----0
  6
CONTINUOUS
  5
191
 10
863.734954
 20
591.490982
 30
0.0
 11
866.508934
 21
588.717006
 31
0.0
  0
LINE
  8
LC-011-005-----0
  6
CONTINUOUS
  5
192
 10
865.149169
 20
591.490982
 30
0.0
 11
866.508934
 21
590.131218
 31
0.0
  0
ENDBLK
  8
0
  5
193
  0
BLOCK
  8
0
  5
195
  2
BLK8
 70
    64
 10
0.0
 20
0.0
 30
0.0
  3
BLK8
  0
ENDBLK
  8
0
  5
196
  0
BLOCK
  8
0
  5
198
  2
*X24
 70
    65
 10
630.489732
 20
587.623139
 30
0.0
  3
*X24
  0
LINE
  8
LC-011-005-----0
  6
CONTINUOUS
  5
199
 10
637.120613
 20
587.623139
 30
0.0
 11
637.94865
 21
588.451175
 31
0.0
  0
LINE
  8
LC-011-005-----0
  6
DASHED
  5
19A
 10
636.284189
 20
589.615142
 30
0.0
 11
637.814955
 21
591.145907
 31
0.0
  0
LINE
  8
LC-011-005-----0
  6
DASHED
  5
19B
 10
636.213764
 20
590.95893
 30
0.0
 11
637.748107
 21
592.493273
 31
0.0
  0
LINE
  8
LC-011-005-----0
  6
CONTINUOUS
  5
19C
 10
630.512711
 20
588.086304
 30
0.0
 11
632.203776
 21
589.777369
 31
0.0
  0
LINE
  8
LC-011-005-----0
  6
CONTINUOUS
  5
19D
 10
636.072914
 20
593.646507
 30
0.0
 11
637.614412
 21
595.188006
 31
0.0
  0
LINE
  8
LC-011-005-----0
  6
CONTINUOUS
  5
19E
 10
630.586538
 20
589.574344
 30
0.0
 11
632.281991
 21
591.269798
 31
0.0
  0
LINE
  8
LC-011-005-----0
  6
CONTINUOUS
  5
19F
 10
636.002489
 20
594.990296
 30
0.0
 11
637.452444
 21
596.440251
 31
0.0
  0
LINE
  8
LC-011-005-----0
  6
DASHED
  5
1A0
 10
630.734191
 20
592.550425
 30
0.0
 11
632.438421
 21
594.254655
 31
0.0
  0
LINE
  8
LC-011-005-----0
  6
DASHED
  5
1A1
 10
634.306905
 20
596.123139
 30
0.0
 11
636.095621
 21
597.911855
 31
0.0
  0
LINE
  8
LC-011-005-----0
  6
DASHED
  5
1A2
 10
630.808018
 20
594.038466
 30
0.0
 11
632.530068
 21
595.760516
 31
0.0
  0
LINE
  8
LC-011-005-----0
  6
DASHED
  5
1A3
 10
632.873448
 20
596.103896
 30
0.0
 11
634.892691
 21
598.123139
 31
0.0
  0
ENDBLK
  8
0
  5
1A4
  0
BLOCK
  8
0
  5
1A6
  2
*X25
 70
    65
 10
812.101779
 20
391.995257
 30
0.0
  3
*X25
  0
LINE
  8
LC-011-005-----0
  6
CONTINUOUS
  5
1A7
 10
1070.819946
 20
397.65429
 30
0.0
 11
1073.328867
 21
400.163212
 31
0.0
  0
LINE
  8
LC-011-005-----0
  6
CONTINUOUS
  5
1A8
 10
1067.340928
 20
397.0037
 30
0.0
 11
1071.332731
 21
400.995502
 31
0.0
  0
LINE
  8
LC-011-005-----0
  6
CONTINUOUS
  5
1A9
 10
1064.512517
 20
397.003715
 30
0.0
 11
1068.504303
 21
400.995502
 31
0.0
  0
LINE
  8
LC-011-005-----0
  6
CONTINUOUS
  5
1AA
 10
1061.684105
 20
397.003731
 30
0.0
 11
1065.675876
 21
400.995502
 31
0.0
  0
LINE
  8
LC-011-005-----0
  6
CONTINUOUS
  5
1AB
 10
1058.855694
 20
397.003747
 30
0.0
 11
1062.847449
 21
400.995502
 31
0.0
  0
LINE
  8
LC-011-005-----0
  6
CONTINUOUS
  5
1AC
 10
1056.027282
 20
397.003762
 30
0.0
 11
1060.019022
 21
400.995502
 31
0.0
  0
LINE
  8
LC-011-005-----0
  6
CONTINUOUS
  5
1AD
 10
1053.198871
 20
397.003778
 30
0.0
 11
1057.190595
 21
400.995502
 31
0.0
  0
LINE
  8
LC-011-005-----0
  6
CONTINUOUS
  5
1AE
 10
1050.37046
 20
397.003794
 30
0.0
 11
1054.362168
 21
400.995502
 31
0.0
  0
LINE
  8
LC-011-005-----0
  6
CONTINUOUS
  5
1AF
 10
1047.542048
 20
397.003809
 30
0.0
 11
1051.533741
 21
400.995502
 31
0.0
  0
LINE
  8
LC-011-005-----0
  6
CONTINUOUS
  5
1B0
 10
1044.713637
 20
397.003825
 30
0.0
 11
1048.705314
 21
400.995502
 31
0.0
  0
LINE
  8
LC-011-005-----0
  6
CONTINUOUS
  5
1B1
 10
1041.885225
 20
397.003841
 30
0.0
 11
1045.876886
 21
400.995502
 31
0.0
  0
LINE
  8
LC-011-005-----0
  6
CONTINUOUS
  5
1B2
 10
1039.056814
 20
397.003857
 30
0.0
 11
1043.048459
 21
400.995502
 31
0.0
  0
LINE
  8
LC-011-005-----0
  6
CONTINUOUS
  5
1B3
 10
1036.228402
 20
397.003872
 30
0.0
 11
1040.220032
 21
400.995502
 31
0.0
  0
LINE
  8
LC-011-005-----0
  6
CONTINUOUS
  5
1B4
 10
1033.399991
 20
397.003888
 30
0.0
 11
1037.391605
 21
400.995502
 31
0.0
  0
LINE
  8
LC-011-005-----0
  6
CONTINUOUS
  5
1B5
 10
1030.57158
 20
397.003904
 30
0.0
 11
1034.563178
 21
400.995502
 31
0.0
  0
LINE
  8
LC-011-005-----0
  6
CONTINUOUS
  5
1B6
 10
1027.743168
 20
397.003919
 30
0.0
 11
1031.734751
 21
400.995502
 31
0.0
  0
LINE
  8
LC-011-005-----0
  6
CONTINUOUS
  5
1B7
 10
1024.914757
 20
397.003935
 30
0.0
 11
1028.906324
 21
400.995502
 31
0.0
  0
LINE
  8
LC-011-005-----0
  6
CONTINUOUS
  5
1B8
 10
1022.086345
 20
397.003951
 30
0.0
 11
1026.077897
 21
400.995502
 31
0.0
  0
LINE
  8
LC-011-005-----0
  6
CONTINUOUS
  5
1B9
 10
1019.257934
 20
397.003966
 30
0.0
 11
1023.249469
 21
400.995502
 31
0.0
  0
LINE
  8
LC-011-005-----0
  6
CONTINUOUS
  5
1BA
 10
1016.429522
 20
397.003982
 30
0.0
 11
1020.421042
 21
400.995502
 31
0.0
  0
LINE
  8
LC-011-005-----0
  6
CONTINUOUS
  5
1BB
 10
1013.601111
 20
397.003998
 30
0.0
 11
1017.592615
 21
400.995502
 31
0.0
  0
LINE
  8
LC-011-005-----0
  6
CONTINUOUS
  5
1BC
 10
1010.7727
 20
397.004013
 30
0.0
 11
1014.764188
 21
400.995502
 31
0.0
  0
LINE
  8
LC-011-005-----0
  6
CONTINUOUS
  5
1BD
 10
1007.944288
 20
397.004029
 30
0.0
 11
1011.935761
 21
400.995502
 31
0.0
  0
LINE
  8
LC-011-005-----0
  6
CONTINUOUS
  5
1BE
 10
1005.115877
 20
397.004045
 30
0.0
 11
1009.107334
 21
400.995502
 31
0.0
  0
LINE
  8
LC-011-005-----0
  6
CONTINUOUS
  5
1BF
 10
1002.287465
 20
397.004061
 30
0.0
 11
1006.278907
 21
400.995502
 31
0.0
  0
LINE
  8
LC-011-005-----0
  6
CONTINUOUS
  5
1C0
 10
999.459054
 20
397.004076
 30
0.0
 11
1003.45048
 21
400.995502
 31
0.0
  0
LINE
  8
LC-011-005-----0
  6
CONTINUOUS
  5
1C1
 10
996.630642
 20
397.004092
 30
0.0
 11
1000.622052
 21
400.995502
 31
0.0
  0
LINE
  8
LC-011-005-----0
  6
CONTINUOUS
  5
1C2
 10
993.802231
 20
397.004108
 30
0.0
 11
997.793625
 21
400.995502
 31
0.0
  0
LINE
  8
LC-011-005-----0
  6
CONTINUOUS
  5
1C3
 10
990.97382
 20
397.004123
 30
0.0
 11
994.965198
 21
400.995502
 31
0.0
  0
LINE
  8
LC-011-005-----0
  6
CONTINUOUS
  5
1C4
 10
988.145408
 20
397.004139
 30
0.0
 11
992.136771
 21
400.995502
 31
0.0
  0
LINE
  8
LC-011-005-----0
  6
CONTINUOUS
  5
1C5
 10
985.316997
 20
397.004155
 30
0.0
 11
989.308344
 21
400.995502
 31
0.0
  0
LINE
  8
LC-011-005-----0
  6
CONTINUOUS
  5
1C6
 10
982.488585
 20
397.00417
 30
0.0
 11
986.479917
 21
400.995502
 31
0.0
  0
LINE
  8
LC-011-005-----0
  6
CONTINUOUS
  5
1C7
 10
979.660174
 20
397.004186
 30
0.0
 11
983.65149
 21
400.995502
 31
0.0
  0
LINE
  8
LC-011-005-----0
  6
CONTINUOUS
  5
1C8
 10
976.831762
 20
397.004202
 30
0.0
 11
980.823063
 21
400.995502
 31
0.0
  0
LINE
  8
LC-011-005-----0
  6
CONTINUOUS
  5
1C9
 10
974.003351
 20
397.004218
 30
0.0
 11
977.994635
 21
400.995502
 31
0.0
  0
LINE
  8
LC-011-005-----0
  6
CONTINUOUS
  5
1CA
 10
971.17494
 20
397.004233
 30
0.0
 11
975.166208
 21
400.995502
 31
0.0
  0
LINE
  8
LC-011-005-----0
  6
CONTINUOUS
  5
1CB
 10
968.346528
 20
397.004249
 30
0.0
 11
972.337781
 21
400.995502
 31
0.0
  0
LINE
  8
LC-011-005-----0
  6
CONTINUOUS
  5
1CC
 10
965.518117
 20
397.004265
 30
0.0
 11
969.509354
 21
400.995502
 31
0.0
  0
LINE
  8
LC-011-005-----0
  6
CONTINUOUS
  5
1CD
 10
962.689705
 20
397.00428
 30
0.0
 11
966.680927
 21
400.995502
 31
0.0
  0
LINE
  8
LC-011-005-----0
  6
CONTINUOUS
  5
1CE
 10
959.861294
 20
397.004296
 30
0.0
 11
963.8525
 21
400.995502
 31
0.0
  0
LINE
  8
LC-011-005-----0
  6
CONTINUOUS
  5
1CF
 10
957.032882
 20
397.004312
 30
0.0
 11
961.024073
 21
400.995502
 31
0.0
  0
LINE
  8
LC-011-005-----0
  6
CONTINUOUS
  5
1D0
 10
954.204471
 20
397.004327
 30
0.0
 11
958.195646
 21
400.995502
 31
0.0
  0
LINE
  8
LC-011-005-----0
  6
CONTINUOUS
  5
1D1
 10
951.37606
 20
397.004343
 30
0.0
 11
955.367218
 21
400.995502
 31
0.0
  0
LINE
  8
LC-011-005-----0
  6
CONTINUOUS
  5
1D2
 10
948.547648
 20
397.004359
 30
0.0
 11
952.538791
 21
400.995502
 31
0.0
  0
LINE
  8
LC-011-005-----0
  6
CONTINUOUS
  5
1D3
 10
945.719237
 20
397.004374
 30
0.0
 11
949.710364
 21
400.995502
 31
0.0
  0
LINE
  8
LC-011-005-----0
  6
CONTINUOUS
  5
1D4
 10
942.890825
 20
397.00439
 30
0.0
 11
946.881937
 21
400.995502
 31
0.0
  0
LINE
  8
LC-011-005-----0
  6
CONTINUOUS
  5
1D5
 10
940.062414
 20
397.004406
 30
0.0
 11
944.05351
 21
400.995502
 31
0.0
  0
LINE
  8
LC-011-005-----0
  6
CONTINUOUS
  5
1D6
 10
937.234002
 20
397.004422
 30
0.0
 11
941.225083
 21
400.995502
 31
0.0
  0
LINE
  8
LC-011-005-----0
  6
CONTINUOUS
  5
1D7
 10
934.405591
 20
397.004437
 30
0.0
 11
938.396656
 21
400.995502
 31
0.0
  0
LINE
  8
LC-011-005-----0
  6
CONTINUOUS
  5
1D8
 10
931.577179
 20
397.004453
 30
0.0
 11
935.568229
 21
400.995502
 31
0.0
  0
LINE
  8
LC-011-005-----0
  6
CONTINUOUS
  5
1D9
 10
928.748768
 20
397.004469
 30
0.0
 11
932.739801
 21
400.995502
 31
0.0
  0
LINE
  8
LC-011-005-----0
  6
CONTINUOUS
  5
1DA
 10
925.920357
 20
397.004484
 30
0.0
 11
929.911374
 21
400.995502
 31
0.0
  0
LINE
  8
LC-011-005-----0
  6
CONTINUOUS
  5
1DB
 10
923.091945
 20
397.0045
 30
0.0
 11
927.082947
 21
400.995502
 31
0.0
  0
LINE
  8
LC-011-005-----0
  6
CONTINUOUS
  5
1DC
 10
920.263534
 20
397.004516
 30
0.0
 11
924.25452
 21
400.995502
 31
0.0
  0
LINE
  8
LC-011-005-----0
  6
CONTINUOUS
  5
1DD
 10
917.435122
 20
397.004531
 30
0.0
 11
921.426093
 21
400.995502
 31
0.0
  0
LINE
  8
LC-011-005-----0
  6
CONTINUOUS
  5
1DE
 10
914.606711
 20
397.004547
 30
0.0
 11
918.597666
 21
400.995502
 31
0.0
  0
LINE
  8
LC-011-005-----0
  6
CONTINUOUS
  5
1DF
 10
911.778299
 20
397.004563
 30
0.0
 11
915.769239
 21
400.995502
 31
0.0
  0
LINE
  8
LC-011-005-----0
  6
CONTINUOUS
  5
1E0
 10
908.949888
 20
397.004578
 30
0.0
 11
912.940812
 21
400.995502
 31
0.0
  0
LINE
  8
LC-011-005-----0
  6
CONTINUOUS
  5
1E1
 10
906.121477
 20
397.004594
 30
0.0
 11
910.112384
 21
400.995502
 31
0.0
  0
LINE
  8
LC-011-005-----0
  6
CONTINUOUS
  5
1E2
 10
903.293065
 20
397.00461
 30
0.0
 11
907.283957
 21
400.995502
 31
0.0
  0
LINE
  8
LC-011-005-----0
  6
CONTINUOUS
  5
1E3
 10
900.464654
 20
397.004626
 30
0.0
 11
904.45553
 21
400.995502
 31
0.0
  0
LINE
  8
LC-011-005-----0
  6
CONTINUOUS
  5
1E4
 10
897.636242
 20
397.004641
 30
0.0
 11
901.627103
 21
400.995502
 31
0.0
  0
LINE
  8
LC-011-005-----0
  6
CONTINUOUS
  5
1E5
 10
894.807831
 20
397.004657
 30
0.0
 11
898.798676
 21
400.995502
 31
0.0
  0
LINE
  8
LC-011-005-----0
  6
CONTINUOUS
  5
1E6
 10
891.979419
 20
397.004673
 30
0.0
 11
895.970249
 21
400.995502
 31
0.0
  0
LINE
  8
LC-011-005-----0
  6
CONTINUOUS
  5
1E7
 10
889.151008
 20
397.004688
 30
0.0
 11
893.141822
 21
400.995502
 31
0.0
  0
LINE
  8
LC-011-005-----0
  6
CONTINUOUS
  5
1E8
 10
886.322597
 20
397.004704
 30
0.0
 11
890.313395
 21
400.995502
 31
0.0
  0
LINE
  8
LC-011-005-----0
  6
CONTINUOUS
  5
1E9
 10
883.494185
 20
397.00472
 30
0.0
 11
887.484967
 21
400.995502
 31
0.0
  0
LINE
  8
LC-011-005-----0
  6
CONTINUOUS
  5
1EA
 10
880.665774
 20
397.004735
 30
0.0
 11
884.65654
 21
400.995502
 31
0.0
  0
LINE
  8
LC-011-005-----0
  6
CONTINUOUS
  5
1EB
 10
877.837362
 20
397.004751
 30
0.0
 11
881.828113
 21
400.995502
 31
0.0
  0
LINE
  8
LC-011-005-----0
  6
CONTINUOUS
  5
1EC
 10
875.008951
 20
397.004767
 30
0.0
 11
878.999686
 21
400.995502
 31
0.0
  0
LINE
  8
LC-011-005-----0
  6
CONTINUOUS
  5
1ED
 10
872.180539
 20
397.004782
 30
0.0
 11
876.171259
 21
400.995502
 31
0.0
  0
LINE
  8
LC-011-005-----0
  6
CONTINUOUS
  5
1EE
 10
869.352128
 20
397.004798
 30
0.0
 11
873.342832
 21
400.995502
 31
0.0
  0
LINE
  8
LC-011-005-----0
  6
CONTINUOUS
  5
1EF
 10
866.523717
 20
397.004814
 30
0.0
 11
870.514405
 21
400.995502
 31
0.0
  0
LINE
  8
LC-011-005-----0
  6
CONTINUOUS
  5
1F0
 10
863.695305
 20
397.00483
 30
0.0
 11
867.685978
 21
400.995502
 31
0.0
  0
LINE
  8
LC-011-005-----0
  6
CONTINUOUS
  5
1F1
 10
860.866894
 20
397.004845
 30
0.0
 11
864.85755
 21
400.995502
 31
0.0
  0
LINE
  8
LC-011-005-----0
  6
CONTINUOUS
  5
1F2
 10
853.028878
 20
391.995257
 30
0.0
 11
855.332582
 21
394.298961
 31
0.0
  0
LINE
  8
LC-011-005-----0
  6
CONTINUOUS
  5
1F3
 10
858.038482
 20
397.004861
 30
0.0
 11
862.029123
 21
400.995502
 31
0.0
  0
LINE
  8
LC-011-005-----0
  6
CONTINUOUS
  5
1F4
 10
850.200451
 20
391.995257
 30
0.0
 11
859.200696
 21
400.995502
 31
0.0
  0
LINE
  8
LC-011-005-----0
  6
CONTINUOUS
  5
1F5
 10
847.372024
 20
391.995257
 30
0.0
 11
856.372269
 21
400.995502
 31
0.0
  0
LINE
  8
LC-011-005-----0
  6
CONTINUOUS
  5
1F6
 10
844.543597
 20
391.995257
 30
0.0
 11
848.543597
 21
395.995257
 31
0.0
  0
LINE
  8
LC-011-005-----0
  6
CONTINUOUS
  5
1F7
 10
851.332583
 20
398.784243
 30
0.0
 11
853.543842
 21
400.995502
 31
0.0
  0
LINE
  8
LC-011-005-----0
  6
CONTINUOUS
  5
1F8
 10
841.71517
 20
391.995257
 30
0.0
 11
845.71517
 21
395.995257
 31
0.0
  0
LINE
  8
LC-011-005-----0
  6
CONTINUOUS
  5
1F9
 10
838.886743
 20
391.995258
 30
0.0
 11
842.886743
 21
395.995257
 31
0.0
  0
LINE
  8
LC-011-005-----0
  6
CONTINUOUS
  5
1FA
 10
836.058316
 20
391.995258
 30
0.0
 11
840.058316
 21
395.995257
 31
0.0
  0
LINE
  8
LC-011-005-----0
  6
CONTINUOUS
  5
1FB
 10
833.229889
 20
391.995258
 30
0.0
 11
837.229888
 21
395.995257
 31
0.0
  0
LINE
  8
LC-011-005-----0
  6
CONTINUOUS
  5
1FC
 10
830.401462
 20
391.995258
 30
0.0
 11
834.401461
 21
395.995257
 31
0.0
  0
LINE
  8
LC-011-005-----0
  6
CONTINUOUS
  5
1FD
 10
827.573035
 20
391.995258
 30
0.0
 11
831.573034
 21
395.995257
 31
0.0
  0
LINE
  8
LC-011-005-----0
  6
CONTINUOUS
  5
1FE
 10
825.220893
 20
392.471542
 30
0.0
 11
829.071754
 21
396.322404
 31
0.0
  0
LINE
  8
LC-011-005-----0
  6
CONTINUOUS
  5
1FF
 10
823.995399
 20
394.074476
 30
0.0
 11
828.781995
 21
398.861072
 31
0.0
  0
LINE
  8
LC-011-005-----0
  6
CONTINUOUS
  5
200
 10
823.824304
 20
396.731809
 30
0.0
 11
828.733472
 21
401.640976
 31
0.0
  0
LINE
  8
LC-011-005-----0
  6
CONTINUOUS
  5
201
 10
823.775781
 20
399.511712
 30
0.0
 11
828.684948
 21
404.42088
 31
0.0
  0
LINE
  8
LC-011-005-----0
  6
CONTINUOUS
  5
202
 10
823.727257
 20
402.291616
 30
0.0
 11
828.636425
 21
407.200784
 31
0.0
  0
LINE
  8
LC-011-005-----0
  6
CONTINUOUS
  5
203
 10
821.212678
 20
402.605463
 30
0.0
 11
828.587902
 21
409.980687
 31
0.0
  0
LINE
  8
LC-011-005-----0
  6
CONTINUOUS
  5
204
 10
818.384267
 20
402.605479
 30
0.0
 11
822.384244
 21
406.605457
 31
0.0
  0
LINE
  8
LC-011-005-----0
  6
CONTINUOUS
  5
205
 10
824.154284
 20
408.375497
 30
0.0
 11
828.539379
 21
412.760591
 31
0.0
  0
LINE
  8
LC-011-005-----0
  6
CONTINUOUS
  5
206
 10
815.555855
 20
402.605495
 30
0.0
 11
819.555833
 21
406.605473
 31
0.0
  0
LINE
  8
LC-011-005-----0
  6
CONTINUOUS
  5
207
 10
824.154284
 20
411.203924
 30
0.0
 11
828.490855
 21
415.540495
 31
0.0
  0
LINE
  8
LC-011-005-----0
  6
CONTINUOUS
  5
208
 10
812.727444
 20
402.605511
 30
0.0
 11
816.727422
 21
406.605489
 31
0.0
  0
LINE
  8
LC-011-005-----0
  6
CONTINUOUS
  5
209
 10
824.154284
 20
414.032351
 30
0.0
 11
825.86592
 21
415.743987
 31
0.0
  0
LINE
  8
LC-011-005-----0
  6
CONTINUOUS
  5
20A
 10
812.101779
 20
404.808273
 30
0.0
 11
813.89901
 21
406.605504
 31
0.0
  0
ENDBLK
  8
0
  5
20B
  0
BLOCK
  8
0
  5
20D
  2
BLK9
 70
    64
 10
0.0
 20
0.0
 30
0.0
  3
BLK9
  0
ENDBLK
  8
0
  5
20E
  0
BLOCK
  8
0
  5
210
  2
*X27
 70
    65
 10
812.102505
 20
406.627686
 30
0.0
  3
*X27
  0
LINE
  8
LC-011-005-----0
  6
CONTINUOUS
  5
211
 10
821.100219
 20
409.26558
 30
0.0
 11
818.238113
 21
412.127686
 31
0.0
  0
LINE
  8
LC-011-005-----0
  6
DASHED
  5
212
 10
820.198248
 20
407.339124
 30
0.0
 11
815.409686
 21
412.127686
 31
0.0
  0
LINE
  8
LC-011-005-----0
  6
DASHED
  5
213
 10
819.319755
 20
406.803404
 30
0.0
 11
814.100337
 21
412.022822
 31
0.0
  0
LINE
  8
LC-011-005-----0
  6
CONTINUOUS
  5
214
 10
816.6536
 20
406.641132
 30
0.0
 11
812.497322
 21
410.797409
 31
0.0
  0
LINE
  8
LC-011-005-----0
  6
CONTINUOUS
  5
215
 10
815.239386
 20
406.641132
 30
0.0
 11
812.128149
 21
409.752368
 31
0.0
  0
ENDBLK
  8
0
  5
216
  0
BLOCK
  8
0
  5
218
  2
BLK10
 70
    64
 10
0.0
 20
0.0
 30
0.0
  3
BLK10
  0
ENDBLK
  8
0
  5
219
  0
BLOCK
  8
0
  5
21B
  2
*X29
 70
    65
 10
806.359138
 20
587.623139
 30
0.0
  3
*X29
  0
LINE
  8
LC-011-005-----0
  6
DASHED
  5
21C
 10
812.198776
 20
588.753034
 30
0.0
 11
813.727247
 21
590.281504
 31
0.0
  0
LINE
  8
LC-011-005-----0
  6
DASHED
  5
21D
 10
812.128351
 20
590.096822
 30
0.0
 11
813.660399
 21
591.62887
 31
0.0
  0
LINE
  8
LC-011-005-----0
  6
CONTINUOUS
  5
21E
 10
806.826241
 20
587.623139
 30
0.0
 11
808.023003
 21
588.819901
 31
0.0
  0
LINE
  8
LC-011-005-----0
  6
CONTINUOUS
  5
21F
 10
811.987501
 20
592.784399
 30
0.0
 11
813.526704
 21
594.323602
 31
0.0
  0
LINE
  8
LC-011-005-----0
  6
CONTINUOUS
  5
220
 10
806.40858
 20
588.619691
 30
0.0
 11
808.101218
 21
590.312329
 31
0.0
  0
LINE
  8
LC-011-005-----0
  6
CONTINUOUS
  5
221
 10
811.917076
 20
594.128188
 30
0.0
 11
813.459857
 21
595.670968
 31
0.0
  0
LINE
  8
LC-011-005-----0
  6
DASHED
  5
222
 10
806.556234
 20
591.595772
 30
0.0
 11
808.257648
 21
593.297186
 31
0.0
  0
LINE
  8
LC-011-005-----0
  6
DASHED
  5
223
 10
811.0836
 20
596.123139
 30
0.0
 11
812.529143
 21
597.568681
 31
0.0
  0
LINE
  8
LC-011-005-----0
  6
DASHED
  5
224
 10
806.63006
 20
593.083813
 30
0.0
 11
808.335863
 21
594.789615
 31
0.0
  0
LINE
  8
LC-011-005-----0
  6
DASHED
  5
225
 10
809.669386
 20
596.123139
 30
0.0
 11
811.588798
 21
598.04255
 31
0.0
  0
LINE
  8
LC-011-005-----0
  6
CONTINUOUS
  5
226
 10
806.802
 20
596.084179
 30
0.0
 11
808.79808
 21
598.080259
 31
0.0
  0
ENDBLK
  8
0
  5
227
  0
BLOCK
  8
0
  5
229
  2
*X30
 70
    65
 10
996.800931
 20
517.953077
 30
0.0
  3
*X30
  0
LINE
  8
LC-011-005-----0
  6
CONTINUOUS
  5
22A
 10
1073.328867
 20
519.075604
 30
0.0
 11
1071.217496
 21
521.186975
 31
0.0
  0
LINE
  8
LC-011-005-----0
  6
CONTINUOUS
  5
22B
 10
1071.622967
 20
517.953077
 30
0.0
 11
1067.622967
 21
521.953077
 31
0.0
  0
LINE
  8
LC-011-005-----0
  6
CONTINUOUS
  5
22C
 10
1068.79454
 20
517.953077
 30
0.0
 11
1064.79454
 21
521.953077
 31
0.0
  0
LINE
  8
LC-011-005-----0
  6
CONTINUOUS
  5
22D
 10
1065.966113
 20
517.953077
 30
0.0
 11
1061.966113
 21
521.953077
 31
0.0
  0
LINE
  8
LC-011-005-----0
  6
CONTINUOUS
  5
22E
 10
1063.137686
 20
517.953077
 30
0.0
 11
1059.137686
 21
521.953077
 31
0.0
  0
LINE
  8
LC-011-005-----0
  6
CONTINUOUS
  5
22F
 10
1001.373314
 20
579.717449
 30
0.0
 11
1000.099781
 21
580.990982
 31
0.0
  0
LINE
  8
LC-011-005-----0
  6
CONTINUOUS
  5
230
 10
1060.309259
 20
517.953077
 30
0.0
 11
1056.309259
 21
521.953077
 31
0.0
  0
LINE
  8
LC-011-005-----0
  6
CONTINUOUS
  5
231
 10
1001.529743
 20
576.732592
 30
0.0
 11
997.889214
 21
580.373122
 31
0.0
  0
LINE
  8
LC-011-005-----0
  6
CONTINUOUS
  5
232
 10
1057.480832
 20
517.953077
 30
0.0
 11
1053.480832
 21
521.953077
 31
0.0
  0
LINE
  8
LC-011-005-----0
  6
CONTINUOUS
  5
233
 10
1001.686173
 20
573.747736
 30
0.0
 11
997.840746
 21
577.593163
 31
0.0
  0
LINE
  8
LC-011-005-----0
  6
CONTINUOUS
  5
234
 10
1054.652404
 20
517.953077
 30
0.0
 11
1050.652404
 21
521.953077
 31
0.0
  0
LINE
  8
LC-011-005-----0
  6
CONTINUOUS
  5
235
 10
1002.701286
 20
569.904195
 30
0.0
 11
997.792278
 21
574.813204
 31
0.0
  0
LINE
  8
LC-011-005-----0
  6
CONTINUOUS
  5
236
 10
1051.823977
 20
517.953077
 30
0.0
 11
1047.823977
 21
521.953077
 31
0.0
  0
LINE
  8
LC-011-005-----0
  6
CONTINUOUS
  5
237
 10
1002.652923
 20
567.124131
 30
0.0
 11
997.74381
 21
572.033245
 31
0.0
  0
LINE
  8
LC-011-005-----0
  6
CONTINUOUS
  5
238
 10
1048.99555
 20
517.953077
 30
0.0
 11
1044.99555
 21
521.953077
 31
0.0
  0
LINE
  8
LC-011-005-----0
  6
CONTINUOUS
  5
239
 10
1002.604559
 20
564.344068
 30
0.0
 11
997.695342
 21
569.253285
 31
0.0
  0
LINE
  8
LC-011-005-----0
  6
CONTINUOUS
  5
23A
 10
1046.167123
 20
517.953077
 30
0.0
 11
1042.167123
 21
521.953077
 31
0.0
  0
LINE
  8
LC-011-005-----0
  6
CONTINUOUS
  5
23B
 10
1002.556196
 20
561.564004
 30
0.0
 11
997.646874
 21
566.473326
 31
0.0
  0
LINE
  8
LC-011-005-----0
  6
CONTINUOUS
  5
23C
 10
1043.338696
 20
517.953077
 30
0.0
 11
1039.338696
 21
521.953077
 31
0.0
  0
LINE
  8
LC-011-005-----0
  6
CONTINUOUS
  5
23D
 10
1002.507832
 20
558.78394
 30
0.0
 11
997.598405
 21
563.693367
 31
0.0
  0
LINE
  8
LC-011-005-----0
  6
CONTINUOUS
  5
23E
 10
1040.510269
 20
517.953077
 30
0.0
 11
1036.510269
 21
521.953077
 31
0.0
  0
LINE
  8
LC-011-005-----0
  6
CONTINUOUS
  5
23F
 10
1002.459469
 20
556.003877
 30
0.0
 11
997.549937
 21
560.913408
 31
0.0
  0
LINE
  8
LC-011-005-----0
  6
CONTINUOUS
  5
240
 10
1037.681842
 20
517.953077
 30
0.0
 11
1033.681842
 21
521.953077
 31
0.0
  0
LINE
  8
LC-011-005-----0
  6
CONTINUOUS
  5
241
 10
1002.411106
 20
553.223813
 30
0.0
 11
997.501469
 21
558.133449
 31
0.0
  0
LINE
  8
LC-011-005-----0
  6
CONTINUOUS
  5
242
 10
1034.853415
 20
517.953077
 30
0.0
 11
1030.853415
 21
521.953077
 31
0.0
  0
LINE
  8
LC-011-005-----0
  6
CONTINUOUS
  5
243
 10
1002.362742
 20
550.443749
 30
0.0
 11
997.453001
 21
555.35349
 31
0.0
  0
LINE
  8
LC-011-005-----0
  6
CONTINUOUS
  5
244
 10
1032.024987
 20
517.953077
 30
0.0
 11
1028.024987
 21
521.953077
 31
0.0
  0
LINE
  8
LC-011-005-----0
  6
CONTINUOUS
  5
245
 10
1002.314379
 20
547.663686
 30
0.0
 11
997.404533
 21
552.573531
 31
0.0
  0
LINE
  8
LC-011-005-----0
  6
CONTINUOUS
  5
246
 10
1029.19656
 20
517.953077
 30
0.0
 11
1025.19656
 21
521.953077
 31
0.0
  0
LINE
  8
LC-011-005-----0
  6
CONTINUOUS
  5
247
 10
1002.266015
 20
544.883622
 30
0.0
 11
997.356065
 21
549.793572
 31
0.0
  0
LINE
  8
LC-011-005-----0
  6
CONTINUOUS
  5
248
 10
1026.368133
 20
517.953077
 30
0.0
 11
1022.368133
 21
521.953077
 31
0.0
  0
LINE
  8
LC-011-005-----0
  6
CONTINUOUS
  5
249
 10
1002.217652
 20
542.103558
 30
0.0
 11
997.307597
 21
547.013613
 31
0.0
  0
LINE
  8
LC-011-005-----0
  6
CONTINUOUS
  5
24A
 10
1023.539706
 20
517.953077
 30
0.0
 11
1019.539706
 21
521.953077
 31
0.0
  0
LINE
  8
LC-011-005-----0
  6
CONTINUOUS
  5
24B
 10
1002.169288
 20
539.323495
 30
0.0
 11
997.259129
 21
544.233654
 31
0.0
  0
LINE
  8
LC-011-005-----0
  6
CONTINUOUS
  5
24C
 10
1020.711279
 20
517.953077
 30
0.0
 11
1016.711279
 21
521.953077
 31
0.0
  0
LINE
  8
LC-011-005-----0
  6
CONTINUOUS
  5
24D
 10
1002.120925
 20
536.543431
 30
0.0
 11
997.210661
 21
541.453695
 31
0.0
  0
LINE
  8
LC-011-005-----0
  6
CONTINUOUS
  5
24E
 10
1017.882852
 20
517.953077
 30
0.0
 11
1013.882852
 21
521.953077
 31
0.0
  0
LINE
  8
LC-011-005-----0
  6
CONTINUOUS
  5
24F
 10
1002.072562
 20
533.763367
 30
0.0
 11
997.162192
 21
538.673736
 31
0.0
  0
LINE
  8
LC-011-005-----0
  6
CONTINUOUS
  5
250
 10
1015.054425
 20
517.953077
 30
0.0
 11
1011.054425
 21
521.953077
 31
0.0
  0
LINE
  8
LC-011-005-----0
  6
CONTINUOUS
  5
251
 10
1002.024198
 20
530.983304
 30
0.0
 11
997.113724
 21
535.893777
 31
0.0
  0
LINE
  8
LC-011-005-----0
  6
CONTINUOUS
  5
252
 10
1012.225998
 20
517.953077
 30
0.0
 11
1008.225998
 21
521.953077
 31
0.0
  0
LINE
  8
LC-011-005-----0
  6
CONTINUOUS
  5
253
 10
1001.975835
 20
528.20324
 30
0.0
 11
997.065256
 21
533.113818
 31
0.0
  0
LINE
  8
LC-011-005-----0
  6
CONTINUOUS
  5
254
 10
1009.39757
 20
517.953077
 30
0.0
 11
1005.39757
 21
521.953077
 31
0.0
  0
LINE
  8
LC-011-005-----0
  6
CONTINUOUS
  5
255
 10
1001.927471
 20
525.423176
 30
0.0
 11
997.016788
 21
530.333859
 31
0.0
  0
LINE
  8
LC-011-005-----0
  6
CONTINUOUS
  5
256
 10
1006.569143
 20
517.953077
 30
0.0
 11
1002.569143
 21
521.953077
 31
0.0
  0
LINE
  8
LC-011-005-----0
  6
CONTINUOUS
  5
257
 10
1001.879108
 20
522.643112
 30
0.0
 11
996.96832
 21
527.5539
 31
0.0
  0
LINE
  8
LC-011-005-----0
  6
CONTINUOUS
  5
258
 10
1003.740716
 20
517.953077
 30
0.0
 11
996.919852
 21
524.773941
 31
0.0
  0
LINE
  8
LC-011-005-----0
  6
CONTINUOUS
  5
259
 10
1000.912289
 20
517.953077
 30
0.0
 11
996.871384
 21
521.993982
 31
0.0
  0
LINE
  8
LC-011-005-----0
  6
CONTINUOUS
  5
25A
 10
998.083862
 20
517.953077
 30
0.0
 11
996.822916
 21
519.214023
 31
0.0
  0
ENDBLK
  8
0
  5
25B
  0
BLOCK
  8
0
  5
25D
  2
BLK11
 70
    64
 10
0.0
 20
0.0
 30
0.0
  3
BLK11
  0
ENDBLK
  8
0
  5
25E
  0
BLOCK
  8
0
  5
260
  2
BLK12
 70
    64
 10
0.0
 20
0.0
 30
0.0
  3
BLK12
  0
ENDBLK
  8
0
  5
261
  0
BLOCK
  8
0
  5
263
  2
*X33
 70
    65
 10
875.308934
 20
585.490982
 30
0.0
  3
*X33
  0
LINE
  8
LC-011-005-----0
  6
CONTINUOUS
  5
264
 10
875.308934
 20
585.573868
 30
0.0
 11
875.39182
 21
585.490982
 31
0.0
  0
LINE
  8
LC-011-005-----0
  6
CONTINUOUS
  5
265
 10
875.308934
 20
586.988081
 30
0.0
 11
876.806035
 21
585.490982
 31
0.0
  0
LINE
  8
LC-011-005-----0
  6
CONTINUOUS
  5
266
 10
875.308934
 20
588.402293
 30
0.0
 11
878.220249
 21
585.490982
 31
0.0
  0
LINE
  8
LC-011-005-----0
  6
CONTINUOUS
  5
267
 10
875.308934
 20
589.816506
 30
0.0
 11
878.308934
 21
586.81651
 31
0.0
  0
LINE
  8
LC-011-005-----0
  6
CONTINUOUS
  5
268
 10
875.308934
 20
591.230718
 30
0.0
 11
878.308934
 21
588.230722
 31
0.0
  0
LINE
  8
LC-011-005-----0
  6
CONTINUOUS
  5
269
 10
876.462885
 20
591.490982
 30
0.0
 11
878.308934
 21
589.644935
 31
0.0
  0
LINE
  8
LC-011-005-----0
  6
CONTINUOUS
  5
26A
 10
877.877099
 20
591.490982
 30
0.0
 11
878.308934
 21
591.059148
 31
0.0
  0
ENDBLK
  8
0
  5
26B
  0
BLOCK
  8
0
  5
26D
  2
BLK13
 70
    64
 10
0.0
 20
0.0
 30
0.0
  3
BLK13
  0
ENDBLK
  8
0
  5
26E
  0
BLOCK
  8
0
  5
270
  2
*X35
 70
    65
 10
853.408934
 20
673.988414
 30
0.0
  3
*X35
  0
LINE
  8
LC-011-005-----0
  6
CONTINUOUS
  5
271
 10
868.808934
 20
706.624974
 30
0.0
 11
863.945494
 21
711.488414
 31
0.0
  0
LINE
  8
LC-011-005-----0
  6
CONTINUOUS
  5
272
 10
868.808934
 20
703.796547
 30
0.0
 11
861.117067
 21
711.488414
 31
0.0
  0
LINE
  8
LC-011-005-----0
  6
CONTINUOUS
  5
273
 10
866.908934
 20
702.86812
 30
0.0
 11
858.28864
 21
711.488414
 31
0.0
  0
LINE
  8
LC-011-005-----0
  6
CONTINUOUS
  5
274
 10
866.908934
 20
700.039693
 30
0.0
 11
855.460213
 21
711.488414
 31
0.0
  0
LINE
  8
LC-011-005-----0
  6
CONTINUOUS
  5
275
 10
866.908934
 20
697.211266
 30
0.0
 11
853.660577
 21
710.459623
 31
0.0
  0
LINE
  8
LC-011-005-----0
  6
CONTINUOUS
  5
276
 10
866.908934
 20
694.382839
 30
0.0
 11
853.408934
 21
707.882839
 31
0.0
  0
LINE
  8
LC-011-005-----0
  6
CONTINUOUS
  5
277
 10
865.474931
 20
692.988414
 30
0.0
 11
853.408934
 21
705.054411
 31
0.0
  0
LINE
  8
LC-011-005-----0
  6
CONTINUOUS
  5
278
 10
863.665855
 20
691.969064
 30
0.0
 11
853.408934
 21
702.225984
 31
0.0
  0
LINE
  8
LC-011-005-----0
  6
CONTINUOUS
  5
279
 10
863.408934
 20
689.397557
 30
0.0
 11
853.408934
 21
699.397557
 31
0.0
  0
LINE
  8
LC-011-005-----0
  6
CONTINUOUS
  5
27A
 10
863.408934
 20
686.56913
 30
0.0
 11
853.408934
 21
696.56913
 31
0.0
  0
LINE
  8
LC-011-005-----0
  6
CONTINUOUS
  5
27B
 10
863.408934
 20
683.740703
 30
0.0
 11
853.408934
 21
693.740703
 31
0.0
  0
LINE
  8
LC-011-005-----0
  6
CONTINUOUS
  5
27C
 10
863.408934
 20
680.912276
 30
0.0
 11
853.408934
 21
690.912276
 31
0.0
  0
LINE
  8
LC-011-005-----0
  6
CONTINUOUS
  5
27D
 10
863.408934
 20
678.083849
 30
0.0
 11
853.408934
 21
688.083849
 31
0.0
  0
LINE
  8
LC-011-005-----0
  6
CONTINUOUS
  5
27E
 10
863.306824
 20
675.357532
 30
0.0
 11
853.408934
 21
685.255422
 31
0.0
  0
LINE
  8
LC-011-005-----0
  6
CONTINUOUS
  5
27F
 10
861.807416
 20
674.028513
 30
0.0
 11
853.408934
 21
682.426994
 31
0.0
  0
LINE
  8
LC-011-005-----0
  6
CONTINUOUS
  5
280
 10
859.019087
 20
673.988414
 30
0.0
 11
853.408934
 21
679.598567
 31
0.0
  0
LINE
  8
LC-011-005-----0
  6
CONTINUOUS
  5
281
 10
856.19066
 20
673.988414
 30
0.0
 11
853.408934
 21
676.77014
 31
0.0
  0
ENDBLK
  8
0
  5
282
  0
BLOCK
  8
0
  5
284
  2
*X36
 70
    65
 10
873.008934
 20
692.488414
 30
0.0
  3
*X36
  0
LINE
  8
LC-011-005-----0
  6
CONTINUOUS
  5
285
 10
878.408934
 20
708.338683
 30
0.0
 11
875.808934
 21
710.938683
 31
0.0
  0
LINE
  8
LC-011-005-----0
  6
CONTINUOUS
  5
286
 10
878.408934
 20
705.510256
 30
0.0
 11
874.519855
 21
709.399335
 31
0.0
  0
LINE
  8
LC-011-005-----0
  6
CONTINUOUS
  5
287
 10
884.897994
 20
696.192769
 30
0.0
 11
880.469268
 21
700.621495
 31
0.0
  0
LINE
  8
LC-011-005-----0
  6
CONTINUOUS
  5
288
 10
878.559895
 20
702.530868
 30
0.0
 11
873.105641
 21
707.985121
 31
0.0
  0
LINE
  8
LC-011-005-----0
  6
CONTINUOUS
  5
289
 10
884.136593
 20
694.125743
 30
0.0
 11
883.055472
 21
695.206863
 31
0.0
  0
LINE
  8
LC-011-005-----0
  6
CONTINUOUS
  5
28A
 10
879.627383
 20
698.634953
 30
0.0
 11
873.008934
 21
705.253401
 31
0.0
  0
LINE
  8
LC-011-005-----0
  6
CONTINUOUS
  5
28B
 10
878.457103
 20
696.976805
 30
0.0
 11
874.908934
 21
700.524974
 31
0.0
  0
LINE
  8
LC-011-005-----0
  6
CONTINUOUS
  5
28C
 10
878.291712
 20
694.313769
 30
0.0
 11
874.908934
 21
697.696547
 31
0.0
  0
LINE
  8
LC-011-005-----0
  6
CONTINUOUS
  5
28D
 10
876.757951
 20
693.019103
 30
0.0
 11
874.908934
 21
694.86812
 31
0.0
  0
ENDBLK
  8
0
  5
28E
  0
BLOCK
  8
0
  5
290
  2
BLK14
 70
    64
 10
0.0
 20
0.0
 30
0.0
  3
BLK14
  0
ENDBLK
  8
0
  5
291
  0
BLOCK
  8
0
  5
293
  2
BLK15
 70
    64
 10
0.0
 20
0.0
 30
0.0
  3
BLK15
  0
ENDBLK
  8
0
  5
294
  0
BLOCK
  8
0
  5
296
  2
BLK16
 70
    64
 10
0.0
 20
0.0
 30
0.0
  3
BLK16
  0
ENDBLK
  8
0
  5
297
  0
BLOCK
  8
0
  5
299
  2
BLK17
 70
    64
 10
0.0
 20
0.0
 30
0.0
  3
BLK17
  0
ENDBLK
  8
0
  5
29A
  0
BLOCK
  8
0
  5
29C
  2
BLK18
 70
    64
 10
0.0
 20
0.0
 30
0.0
  3
BLK18
  0
ENDBLK
  8
0
  5
29D
  0
BLOCK
  8
0
  5
29F
  2
*X42
 70
    65
 10
812.101779
 20
535.487831
 30
0.0
  3
*X42
  0
LINE
  8
LC-011-005-----0
  6
CONTINUOUS
  5
2A0
 10
822.559502
 20
536.888362
 30
0.0
 11
826.307302
 21
540.636163
 31
0.0
  0
LINE
  8
LC-011-005-----0
  6
CONTINUOUS
  5
2A1
 10
821.349608
 20
538.506895
 30
0.0
 11
826.258779
 21
543.416066
 31
0.0
  0
LINE
  8
LC-011-005-----0
  6
CONTINUOUS
  5
2A2
 10
821.301084
 20
541.286799
 30
0.0
 11
826.210255
 21
546.19597
 31
0.0
  0
LINE
  8
LC-011-005-----0
  6
CONTINUOUS
  5
2A3
 10
819.792472
 20
542.606614
 30
0.0
 11
826.161732
 21
548.975874
 31
0.0
  0
LINE
  8
LC-011-005-----0
  6
CONTINUOUS
  5
2A4
 10
816.964029
 20
542.606598
 30
0.0
 11
820.964051
 21
546.60662
 31
0.0
  0
LINE
  8
LC-011-005-----0
  6
CONTINUOUS
  5
2A5
 10
821.204037
 20
546.846606
 30
0.0
 11
826.113209
 21
551.755778
 31
0.0
  0
LINE
  8
LC-011-005-----0
  6
CONTINUOUS
  5
2A6
 10
814.135586
 20
542.606582
 30
0.0
 11
818.135608
 21
546.606604
 31
0.0
  0
LINE
  8
LC-011-005-----0
  6
CONTINUOUS
  5
2A7
 10
821.155514
 20
549.62651
 30
0.0
 11
826.064685
 21
554.535681
 31
0.0
  0
LINE
  8
LC-011-005-----0
  6
CONTINUOUS
  5
2A8
 10
812.101779
 20
543.401202
 30
0.0
 11
815.307165
 21
546.606589
 31
0.0
  0
LINE
  8
LC-011-005-----0
  6
CONTINUOUS
  5
2A9
 10
821.10699
 20
552.406413
 30
0.0
 11
826.016162
 21
557.315585
 31
0.0
  0
LINE
  8
LC-011-005-----0
  6
CONTINUOUS
  5
2AA
 10
812.123068
 20
546.250918
 30
0.0
 11
812.457434
 21
546.585285
 31
0.0
  0
LINE
  8
LC-011-005-----0
  6
CONTINUOUS
  5
2AB
 10
821.058467
 20
555.186317
 30
0.0
 11
825.967639
 21
560.095489
 31
0.0
  0
LINE
  8
LC-011-005-----0
  6
CONTINUOUS
  5
2AC
 10
821.009943
 20
557.966221
 30
0.0
 11
825.919115
 21
562.875393
 31
0.0
  0
LINE
  8
LC-011-005-----0
  6
CONTINUOUS
  5
2AD
 10
820.96142
 20
560.746124
 30
0.0
 11
825.870592
 21
565.655296
 31
0.0
  0
LINE
  8
LC-011-005-----0
  6
CONTINUOUS
  5
2AE
 10
820.912896
 20
563.526028
 30
0.0
 11
825.822068
 21
568.4352
 31
0.0
  0
LINE
  8
LC-011-005-----0
  6
CONTINUOUS
  5
2AF
 10
820.864373
 20
566.305932
 30
0.0
 11
825.773545
 21
571.215104
 31
0.0
  0
LINE
  8
LC-011-005-----0
  6
CONTINUOUS
  5
2B0
 10
820.815849
 20
569.085835
 30
0.0
 11
825.725022
 21
573.995007
 31
0.0
  0
LINE
  8
LC-011-005-----0
  6
CONTINUOUS
  5
2B1
 10
820.767326
 20
571.865739
 30
0.0
 11
821.392569
 21
572.490982
 31
0.0
  0
LINE
  8
LC-011-005-----0
  6
CONTINUOUS
  5
2B2
 10
821.770469
 20
572.868882
 30
0.0
 11
825.676498
 21
576.774911
 31
0.0
  0
LINE
  8
LC-011-005-----0
  6
CONTINUOUS
  5
2B3
 10
821.926899
 20
575.853739
 30
0.0
 11
825.627975
 21
579.554815
 31
0.0
  0
LINE
  8
LC-011-005-----0
  6
CONTINUOUS
  5
2B4
 10
822.083329
 20
578.838596
 30
0.0
 11
824.235715
 21
580.990982
 31
0.0
  0
ENDBLK
  8
0
  5
2B5
  0
BLOCK
  8
0
  5
2B7
  2
BLK19
 70
    64
 10
0.0
 20
0.0
 30
0.0
  3
BLK19
  0
ENDBLK
  8
0
  5
2B8
  0
BLOCK
  8
0
  5
2BA
  2
*D44
 70
    65
 10
0.0
 20
0.0
 30
0.0
  3
*D44
  0
LINE
  8
LC-013-003-MTH-0
  6
CONTINUOUS
  5
2BB
 10
1068.342026
 20
396.991028
 30
0.0
 11
1126.8
 21
396.991028
 31
0.0
  0
LINE
  8
LC-013-003-MTH-0
  6
CONTINUOUS
  5
2BC
 10
1068.358366
 20
521.953077
 30
0.0
 11
1126.8
 21
521.953077
 31
0.0
  0
LINE
  8
LC-014-003-MTG-0
  6
CONTINUOUS
  5
2BD
 10
1116.0
 20
396.991028
 30
0.0
 11
1116.0
 21
521.953077
 31
0.0
  0
LINE
  8
LC-012-003-----0
  6
CONTINUOUS
  5
2BE
 10
1113.650529
 20
414.837036
 30
0.0
 11
1116.0
 21
396.991028
 31
0.0
  0
LINE
  8
LC-012-003-----0
  6
CONTINUOUS
  5
2BF
 10
1116.0
 20
396.991028
 30
0.0
 11
1118.349471
 21
414.837036
 31
0.0
  0
LINE
  8
LC-012-003-----0
  6
CONTINUOUS
  5
2C0
 10
1118.349471
 20
414.837036
 30
0.0
 11
1113.650529
 21
414.837036
 31
0.0
  0
LINE
  8
LC-012-003-----0
  6
CONTINUOUS
  5
2C1
 10
1114.261391
 20
414.877074
 30
0.0
 11
1116.0
 21
401.671028
 31
0.0
  0
LINE
  8
LC-012-003-----0
  6
CONTINUOUS
  5
2C2
 10
1116.0
 20
401.671028
 30
0.0
 11
1117.738609
 21
414.877074
 31
0.0
  0
LINE
  8
LC-012-003-----0
  6
CONTINUOUS
  5
2C3
 10
1114.872254
 20
414.917112
 30
0.0
 11
1116.0
 21
406.351028
 31
0.0
  0
LINE
  8
LC-012-003-----0
  6
CONTINUOUS
  5
2C4
 10
1116.0
 20
406.351028
 30
0.0
 11
1117.127746
 21
414.917112
 31
0.0
  0
LINE
  8
LC-012-003-----0
  6
CONTINUOUS
  5
2C5
 10
1115.483116
 20
414.95715
 30
0.0
 11
1116.0
 21
411.031028
 31
0.0
  0
LINE
  8
LC-012-003-----0
  6
CONTINUOUS
  5
2C6
 10
1116.0
 20
411.031028
 30
0.0
 11
1116.516884
 21
414.95715
 31
0.0
  0
LINE
  8
LC-012-003-----0
  6
CONTINUOUS
  5
2C7
 10
1118.349471
 20
504.107069
 30
0.0
 11
1116.0
 21
521.953077
 31
0.0
  0
LINE
  8
LC-012-003-----0
  6
CONTINUOUS
  5
2C8
 10
1116.0
 20
521.953077
 30
0.0
 11
1113.650529
 21
504.107069
 31
0.0
  0
LINE
  8
LC-012-003-----0
  6
CONTINUOUS
  5
2C9
 10
1113.650529
 20
504.107069
 30
0.0
 11
1118.349471
 21
504.107069
 31
0.0
  0
LINE
  8
LC-012-003-----0
  6
CONTINUOUS
  5
2CA
 10
1117.738609
 20
504.067031
 30
0.0
 11
1116.0
 21
517.273077
 31
0.0
  0
LINE
  8
LC-012-003-----0
  6
CONTINUOUS
  5
2CB
 10
1116.0
 20
517.273077
 30
0.0
 11
1114.261391
 21
504.067031
 31
0.0
  0
LINE
  8
LC-012-003-----0
  6
CONTINUOUS
  5
2CC
 10
1117.127746
 20
504.026993
 30
0.0
 11
1116.0
 21
512.593077
 31
0.0
  0
LINE
  8
LC-012-003-----0
  6
CONTINUOUS
  5
2CD
 10
1116.0
 20
512.593077
 30
0.0
 11
1114.872254
 21
504.026993
 31
0.0
  0
LINE
  8
LC-012-003-----0
  6
CONTINUOUS
  5
2CE
 10
1116.516884
 20
503.986955
 30
0.0
 11
1116.0
 21
507.913077
 31
0.0
  0
LINE
  8
LC-012-003-----0
  6
CONTINUOUS
  5
2CF
 10
1116.0
 20
507.913077
 30
0.0
 11
1115.483116
 21
503.986955
 31
0.0
  0
TEXT
  8
LC-012-003-----0
  6
CONTINUOUS
 62
     6
  5
2D0
 10
1105.568001
 20
428.591708
 30
0.0
 40
18.0
  1
DN125
 50
90.0
 51
15.0
  7
LC-TXTSTYLE-150-400-0-0-D0
 72
     1
 11
1105.568001
 21
462.267298
 31
0.0
  0
ENDBLK
  8
0
  5
2D1
  0
BLOCK
  8
0
  5
2D3
  2
*D45
 70
    65
 10
0.0
 20
0.0
 30
0.0
  3
*D45
  0
LINE
  8
LC-013-003-MTH-0
  6
CONTINUOUS
  5
2D4
 10
981.478401
 20
459.483412
 30
0.0
 11
789.2
 21
459.483412
 31
0.0
  0
LINE
  8
LC-013-003-MTH-0
  6
CONTINUOUS
  5
2D5
 10
656.5516
 20
490.723127
 30
0.0
 11
810.8
 21
490.723127
 31
0.0
  0
LINE
  8
LC-012-003-----0
  6
CONTINUOUS
  5
2D6
 10
802.349471
 20
441.637404
 30
0.0
 11
800.0
 21
459.483412
 31
0.0
  0
LINE
  8
LC-012-003-----0
  6
CONTINUOUS
  5
2D7
 10
800.0
 20
459.483412
 30
0.0
 11
797.650529
 21
441.637404
 31
0.0
  0
LINE
  8
LC-012-003-----0
  6
CONTINUOUS
  5
2D8
 10
797.650529
 20
441.637404
 30
0.0
 11
802.349471
 21
441.637404
 31
0.0
  0
LINE
  8
LC-012-003-----0
  6
CONTINUOUS
  5
2D9
 10
801.738609
 20
441.597366
 30
0.0
 11
800.0
 21
454.803412
 31
0.0
  0
LINE
  8
LC-012-003-----0
  6
CONTINUOUS
  5
2DA
 10
800.0
 20
454.803412
 30
0.0
 11
798.261391
 21
441.597366
 31
0.0
  0
LINE
  8
LC-012-003-----0
  6
CONTINUOUS
  5
2DB
 10
801.127746
 20
441.557328
 30
0.0
 11
800.0
 21
450.123412
 31
0.0
  0
LINE
  8
LC-012-003-----0
  6
CONTINUOUS
  5
2DC
 10
800.0
 20
450.123412
 30
0.0
 11
798.872254
 21
441.557328
 31
0.0
  0
LINE
  8
LC-012-003-----0
  6
CONTINUOUS
  5
2DD
 10
800.516884
 20
441.51729
 30
0.0
 11
800.0
 21
445.443412
 31
0.0
  0
LINE
  8
LC-012-003-----0
  6
CONTINUOUS
  5
2DE
 10
800.0
 20
445.443412
 30
0.0
 11
799.483116
 21
441.51729
 31
0.0
  0
LINE
  8
LC-012-003-----0
  6
CONTINUOUS
  5
2DF
 10
797.650529
 20
508.569134
 30
0.0
 11
800.0
 21
490.723127
 31
0.0
  0
LINE
  8
LC-012-003-----0
  6
CONTINUOUS
  5
2E0
 10
800.0
 20
490.723127
 30
0.0
 11
802.349471
 21
508.569134
 31
0.0
  0
LINE
  8
LC-012-003-----0
  6
CONTINUOUS
  5
2E1
 10
802.349471
 20
508.569134
 30
0.0
 11
797.650529
 21
508.569134
 31
0.0
  0
LINE
  8
LC-012-003-----0
  6
CONTINUOUS
  5
2E2
 10
798.261391
 20
508.609172
 30
0.0
 11
800.0
 21
495.403127
 31
0.0
  0
LINE
  8
LC-012-003-----0
  6
CONTINUOUS
  5
2E3
 10
800.0
 20
495.403127
 30
0.0
 11
801.738609
 21
508.609172
 31
0.0
  0
LINE
  8
LC-012-003-----0
  6
CONTINUOUS
  5
2E4
 10
798.872254
 20
508.64921
 30
0.0
 11
800.0
 21
500.083127
 31
0.0
  0
LINE
  8
LC-012-003-----0
  6
CONTINUOUS
  5
2E5
 10
800.0
 20
500.083127
 30
0.0
 11
801.127746
 21
508.64921
 31
0.0
  0
LINE
  8
LC-012-003-----0
  6
CONTINUOUS
  5
2E6
 10
799.483116
 20
508.689248
 30
0.0
 11
800.0
 21
504.763127
 31
0.0
  0
LINE
  8
LC-012-003-----0
  6
CONTINUOUS
  5
2E7
 10
800.0
 20
504.763127
 30
0.0
 11
800.516884
 21
508.689248
 31
0.0
  0
LINE
  8
LC-014-003-MTG-0
  6
CONTINUOUS
  5
2E8
 10
800.0
 20
434.283412
 30
0.0
 11
800.0
 21
582.90726
 31
0.0
  0
TEXT
  8
LC-012-003-----0
  6
CONTINUOUS
 62
     6
  5
2E9
 10
789.568001
 20
552.179986
 30
0.0
 40
18.0
  1
31
 50
90.0
 51
15.0
  7
LC-TXTSTYLE-150-400-0-0-D0
  0
ENDBLK
  8
0
  5
2EA
  0
BLOCK
  8
0
  5
2EC
  2
*D46
 70
    65
 10
0.0
 20
0.0
 30
0.0
  3
*D46
  0
LINE
  8
LC-013-003-MTH-0
  6
CONTINUOUS
  5
2ED
 10
853.344382
 20
391.995257
 30
0.0
 11
1162.8
 21
391.995257
 31
0.0
  0
LINE
  8
LC-013-003-MTH-0
  6
CONTINUOUS
  5
2EE
 10
875.808934
 20
711.488414
 30
0.0
 11
1162.8
 21
711.488414
 31
0.0
  0
LINE
  8
LC-014-003-MTG-0
  6
CONTINUOUS
  5
2EF
 10
1152.0
 20
391.995257
 30
0.0
 11
1152.0
 21
711.488414
 31
0.0
  0
LINE
  8
LC-012-003-----0
  6
CONTINUOUS
  5
2F0
 10
1149.650529
 20
409.841264
 30
0.0
 11
1152.0
 21
391.995257
 31
0.0
  0
LINE
  8
LC-012-003-----0
  6
CONTINUOUS
  5
2F1
 10
1152.0
 20
391.995257
 30
0.0
 11
1154.349471
 21
409.841264
 31
0.0
  0
LINE
  8
LC-012-003-----0
  6
CONTINUOUS
  5
2F2
 10
1154.349471
 20
409.841264
 30
0.0
 11
1149.650529
 21
409.841264
 31
0.0
  0
LINE
  8
LC-012-003-----0
  6
CONTINUOUS
  5
2F3
 10
1150.261391
 20
409.881303
 30
0.0
 11
1152.0
 21
396.675257
 31
0.0
  0
LINE
  8
LC-012-003-----0
  6
CONTINUOUS
  5
2F4
 10
1152.0
 20
396.675257
 30
0.0
 11
1153.738609
 21
409.881303
 31
0.0
  0
LINE
  8
LC-012-003-----0
  6
CONTINUOUS
  5
2F5
 10
1150.872254
 20
409.921341
 30
0.0
 11
1152.0
 21
401.355257
 31
0.0
  0
LINE
  8
LC-012-003-----0
  6
CONTINUOUS
  5
2F6
 10
1152.0
 20
401.355257
 30
0.0
 11
1153.127746
 21
409.921341
 31
0.0
  0
LINE
  8
LC-012-003-----0
  6
CONTINUOUS
  5
2F7
 10
1151.483116
 20
409.961379
 30
0.0
 11
1152.0
 21
406.035257
 31
0.0
  0
LINE
  8
LC-012-003-----0
  6
CONTINUOUS
  5
2F8
 10
1152.0
 20
406.035257
 30
0.0
 11
1152.516884
 21
409.961379
 31
0.0
  0
LINE
  8
LC-012-003-----0
  6
CONTINUOUS
  5
2F9
 10
1154.349471
 20
693.642407
 30
0.0
 11
1152.0
 21
711.488414
 31
0.0
  0
LINE
  8
LC-012-003-----0
  6
CONTINUOUS
  5
2FA
 10
1152.0
 20
711.488414
 30
0.0
 11
1149.650529
 21
693.642407
 31
0.0
  0
LINE
  8
LC-012-003-----0
  6
CONTINUOUS
  5
2FB
 10
1149.650529
 20
693.642407
 30
0.0
 11
1154.349471
 21
693.642407
 31
0.0
  0
LINE
  8
LC-012-003-----0
  6
CONTINUOUS
  5
2FC
 10
1153.738609
 20
693.602369
 30
0.0
 11
1152.0
 21
706.808414
 31
0.0
  0
LINE
  8
LC-012-003-----0
  6
CONTINUOUS
  5
2FD
 10
1152.0
 20
706.808414
 30
0.0
 11
1150.261391
 21
693.602369
 31
0.0
  0
LINE
  8
LC-012-003-----0
  6
CONTINUOUS
  5
2FE
 10
1153.127746
 20
693.562331
 30
0.0
 11
1152.0
 21
702.128414
 31
0.0
  0
LINE
  8
LC-012-003-----0
  6
CONTINUOUS
  5
2FF
 10
1152.0
 20
702.128414
 30
0.0
 11
1150.872254
 21
693.562331
 31
0.0
  0
LINE
  8
LC-012-003-----0
  6
CONTINUOUS
  5
300
 10
1152.516884
 20
693.522293
 30
0.0
 11
1152.0
 21
697.448414
 31
0.0
  0
LINE
  8
LC-012-003-----0
  6
CONTINUOUS
  5
301
 10
1152.0
 20
697.448414
 30
0.0
 11
1151.483116
 21
693.522293
 31
0.0
  0
TEXT
  8
LC-012-003-----0
  6
CONTINUOUS
 62
     6
  5
302
 10
1141.568001
 20
505.490625
 30
0.0
 40
18.0
  1
220-320
 50
90.0
 51
15.0
  7
LC-TXTSTYLE-150-400-0-0-D0
 72
     1
 11
1141.568001
 21
554.537081
 31
0.0
  0
ENDBLK
  8
0
  5
303
  0
BLOCK
  8
0
  5
305
  2
*D47
 70
    65
 10
0.0
 20
0.0
 30
0.0
  3
*D47
  0
LINE
  8
LC-013-003-MTH-0
  6
CONTINUOUS
  5
306
 10
569.494891
 20
424.178237
 30
0.0
 11
569.494891
 21
349.2
 31
0.0
  0
LINE
  8
LC-013-003-MTH-0
  6
CONTINUOUS
  5
307
 10
1073.328867
 20
398.326536
 30
0.0
 11
1073.328867
 21
349.2
 31
0.0
  0
LINE
  8
LC-014-003-MTG-0
  6
CONTINUOUS
  5
308
 10
569.494891
 20
360.0
 30
0.0
 11
1073.328867
 21
360.0
 31
0.0
  0
LINE
  8
LC-012-003-----0
  6
CONTINUOUS
  5
309
 10
587.340899
 20
362.349471
 30
0.0
 11
569.494891
 21
360.0
 31
0.0
  0
LINE
  8
LC-012-003-----0
  6
CONTINUOUS
  5
30A
 10
569.494891
 20
360.0
 30
0.0
 11
587.340899
 21
357.650529
 31
0.0
  0
LINE
  8
LC-012-003-----0
  6
CONTINUOUS
  5
30B
 10
587.340899
 20
357.650529
 30
0.0
 11
587.340899
 21
362.349471
 31
0.0
  0
LINE
  8
LC-012-003-----0
  6
CONTINUOUS
  5
30C
 10
587.380937
 20
361.738609
 30
0.0
 11
574.174891
 21
360.0
 31
0.0
  0
LINE
  8
LC-012-003-----0
  6
CONTINUOUS
  5
30D
 10
574.174891
 20
360.0
 30
0.0
 11
587.380937
 21
358.261391
 31
0.0
  0
LINE
  8
LC-012-003-----0
  6
CONTINUOUS
  5
30E
 10
587.420975
 20
361.127746
 30
0.0
 11
578.854891
 21
360.0
 31
0.0
  0
LINE
  8
LC-012-003-----0
  6
CONTINUOUS
  5
30F
 10
578.854891
 20
360.0
 30
0.0
 11
587.420975
 21
358.872254
 31
0.0
  0
LINE
  8
LC-012-003-----0
  6
CONTINUOUS
  5
310
 10
587.461013
 20
360.516884
 30
0.0
 11
583.534891
 21
360.0
 31
0.0
  0
LINE
  8
LC-012-003-----0
  6
CONTINUOUS
  5
311
 10
583.534891
 20
360.0
 30
0.0
 11
587.461013
 21
359.483116
 31
0.0
  0
LINE
  8
LC-012-003-----0
  6
CONTINUOUS
  5
312
 10
1055.48286
 20
357.650529
 30
0.0
 11
1073.328867
 21
360.0
 31
0.0
  0
LINE
  8
LC-012-003-----0
  6
CONTINUOUS
  5
313
 10
1073.328867
 20
360.0
 30
0.0
 11
1055.48286
 21
362.349471
 31
0.0
  0
LINE
  8
LC-012-003-----0
  6
CONTINUOUS
  5
314
 10
1055.48286
 20
362.349471
 30
0.0
 11
1055.48286
 21
357.650529
 31
0.0
  0
LINE
  8
LC-012-003-----0
  6
CONTINUOUS
  5
315
 10
1055.442822
 20
358.261391
 30
0.0
 11
1068.648867
 21
360.0
 31
0.0
  0
LINE
  8
LC-012-003-----0
  6
CONTINUOUS
  5
316
 10
1068.648867
 20
360.0
 30
0.0
 11
1055.442822
 21
361.738609
 31
0.0
  0
LINE
  8
LC-012-003-----0
  6
CONTINUOUS
  5
317
 10
1055.402784
 20
358.872254
 30
0.0
 11
1063.968867
 21
360.0
 31
0.0
  0
LINE
  8
LC-012-003-----0
  6
CONTINUOUS
  5
318
 10
1063.968867
 20
360.0
 30
0.0
 11
1055.402784
 21
361.127746
 31
0.0
  0
LINE
  8
LC-012-003-----0
  6
CONTINUOUS
  5
319
 10
1055.362746
 20
359.483116
 30
0.0
 11
1059.288867
 21
360.0
 31
0.0
  0
LINE
  8
LC-012-003-----0
  6
CONTINUOUS
  5
31A
 10
1059.288867
 20
360.0
 30
0.0
 11
1055.362746
 21
360.516884
 31
0.0
  0
TEXT
  8
LC-012-003-----0
  6
CONTINUOUS
 62
     6
  5
31B
 10
771.457356
 20
370.431999
 30
0.0
 40
18.0
  1
503
 51
15.0
  7
LC-TXTSTYLE-150-400-0-0-D0
 72
     1
 11
790.591214
 21
370.431999
 31
0.0
  0
ENDBLK
  8
0
  5
31C
  0
BLOCK
  8
0
  5
31E
  2
*D48
 70
    65
 10
0.0
 20
0.0
 30
0.0
  3
*D48
  0
LINE
  8
LC-013-003-MTH-0
  6
CONTINUOUS
  5
31F
 10
627.949153
 20
599.123139
 30
0.0
 11
627.949153
 21
730.8
 31
0.0
  0
LINE
  8
LC-013-003-MTH-0
  6
CONTINUOUS
  5
320
 10
1005.989503
 20
583.990982
 30
0.0
 11
1005.989503
 21
730.8
 31
0.0
  0
LINE
  8
LC-014-003-MTG-0
  6
CONTINUOUS
  5
321
 10
627.949153
 20
720.0
 30
0.0
 11
1005.989503
 21
720.0
 31
0.0
  0
LINE
  8
LC-012-003-----0
  6
CONTINUOUS
  5
322
 10
645.79516
 20
722.349471
 30
0.0
 11
627.949153
 21
720.0
 31
0.0
  0
LINE
  8
LC-012-003-----0
  6
CONTINUOUS
  5
323
 10
627.949153
 20
720.0
 30
0.0
 11
645.79516
 21
717.650529
 31
0.0
  0
LINE
  8
LC-012-003-----0
  6
CONTINUOUS
  5
324
 10
645.79516
 20
717.650529
 30
0.0
 11
645.79516
 21
722.349471
 31
0.0
  0
LINE
  8
LC-012-003-----0
  6
CONTINUOUS
  5
325
 10
645.835198
 20
721.738609
 30
0.0
 11
632.629153
 21
720.0
 31
0.0
  0
LINE
  8
LC-012-003-----0
  6
CONTINUOUS
  5
326
 10
632.629153
 20
720.0
 30
0.0
 11
645.835198
 21
718.261391
 31
0.0
  0
LINE
  8
LC-012-003-----0
  6
CONTINUOUS
  5
327
 10
645.875236
 20
721.127746
 30
0.0
 11
637.309153
 21
720.0
 31
0.0
  0
LINE
  8
LC-012-003-----0
  6
CONTINUOUS
  5
328
 10
637.309153
 20
720.0
 30
0.0
 11
645.875236
 21
718.872254
 31
0.0
  0
LINE
  8
LC-012-003-----0
  6
CONTINUOUS
  5
329
 10
645.915274
 20
720.516884
 30
0.0
 11
641.989153
 21
720.0
 31
0.0
  0
LINE
  8
LC-012-003-----0
  6
CONTINUOUS
  5
32A
 10
641.989153
 20
720.0
 30
0.0
 11
645.915274
 21
719.483116
 31
0.0
  0
LINE
  8
LC-012-003-----0
  6
CONTINUOUS
  5
32B
 10
988.143496
 20
717.650529
 30
0.0
 11
1005.989503
 21
720.0
 31
0.0
  0
LINE
  8
LC-012-003-----0
  6
CONTINUOUS
  5
32C
 10
1005.989503
 20
720.0
 30
0.0
 11
988.143496
 21
722.349471
 31
0.0
  0
LINE
  8
LC-012-003-----0
  6
CONTINUOUS
  5
32D
 10
988.143496
 20
722.349471
 30
0.0
 11
988.143496
 21
717.650529
 31
0.0
  0
LINE
  8
LC-012-003-----0
  6
CONTINUOUS
  5
32E
 10
988.103458
 20
718.261391
 30
0.0
 11
1001.309503
 21
720.0
 31
0.0
  0
LINE
  8
LC-012-003-----0
  6
CONTINUOUS
  5
32F
 10
1001.309503
 20
720.0
 30
0.0
 11
988.103458
 21
721.738609
 31
0.0
  0
LINE
  8
LC-012-003-----0
  6
CONTINUOUS
  5
330
 10
988.06342
 20
718.872254
 30
0.0
 11
996.629503
 21
720.0
 31
0.0
  0
LINE
  8
LC-012-003-----0
  6
CONTINUOUS
  5
331
 10
996.629503
 20
720.0
 30
0.0
 11
988.06342
 21
721.127746
 31
0.0
  0
LINE
  8
LC-012-003-----0
  6
CONTINUOUS
  5
332
 10
988.023382
 20
719.483116
 30
0.0
 11
991.949503
 21
720.0
 31
0.0
  0
LINE
  8
LC-012-003-----0
  6
CONTINUOUS
  5
333
 10
991.949503
 20
720.0
 30
0.0
 11
988.023382
 21
720.516884
 31
0.0
  0
TEXT
  8
LC-012-003-----0
  6
CONTINUOUS
 62
     6
  5
334
 10
790.558993
 20
730.431999
 30
0.0
 40
18.0
  1
378
 51
15.0
  7
LC-TXTSTYLE-150-400-0-0-D0
 72
     1
 11
809.692851
 21
730.431999
 31
0.0
  0
ENDBLK
  8
0
  5
335
  0
BLOCK
  8
0
  5
337
  2
BLK20
 70
    64
 10
0.0
 20
0.0
 30
0.0
  3
BLK20
  0
ENDBLK
  8
0
  5
338
  0
BLOCK
  8
0
  5
33A
  2
*X50
 70
    65
 10
996.018924
 20
572.490982
 30
0.0
  3
*X50
  0
LINE
  8
LC-011-005-----0
  6
CONTINUOUS
  5
33B
 10
1002.411905
 20
572.490982
 30
0.0
 11
1003.466597
 21
573.545675
 31
0.0
  0
LINE
  8
LC-011-005-----0
  6
DASHED
  5
33C
 10
1001.801535
 20
574.709039
 30
0.0
 11
1003.332903
 21
576.240407
 31
0.0
  0
LINE
  8
LC-011-005-----0
  6
DASHED
  5
33D
 10
1001.73111
 20
576.052828
 30
0.0
 11
1003.266055
 21
577.587773
 31
0.0
  0
LINE
  8
LC-011-005-----0
  6
CONTINUOUS
  5
33E
 10
996.054323
 20
573.204468
 30
0.0
 11
997.746126
 21
574.896271
 31
0.0
  0
LINE
  8
LC-011-005-----0
  6
CONTINUOUS
  5
33F
 10
1001.59026
 20
578.740405
 30
0.0
 11
1003.13236
 21
580.282505
 31
0.0
  0
LINE
  8
LC-011-005-----0
  6
CONTINUOUS
  5
340
 10
996.12815
 20
574.692508
 30
0.0
 11
997.824341
 21
576.388699
 31
0.0
  0
LINE
  8
LC-011-005-----0
  6
CONTINUOUS
  5
341
 10
1001.519835
 20
580.084193
 30
0.0
 11
1002.915187
 21
581.479545
 31
0.0
  0
LINE
  8
LC-011-005-----0
  6
DASHED
  5
342
 10
996.275803
 20
577.668589
 30
0.0
 11
997.980771
 21
579.373556
 31
0.0
  0
LINE
  8
LC-011-005-----0
  6
DASHED
  5
343
 10
999.598196
 20
580.990982
 30
0.0
 11
1001.454449
 21
582.847235
 31
0.0
  0
ENDBLK
  8
0
  5
344
  0
BLOCK
  8
0
  5
346
  2
*X51
 70
    65
 10
732.161654
 20
277.869755
 30
0.0
  3
*X51
  0
LINE
  8
LC-011-005-----0
  6
CONTINUOUS
  5
347
 10
977.674354
 20
494.013316
 30
0.0
 11
978.426842
 21
494.765803
 31
0.0
  0
LINE
  8
LC-011-005-----0
  6
CONTINUOUS
  5
348
 10
978.931047
 20
495.270008
 30
0.0
 11
980.684303
 21
497.023265
 31
0.0
  0
LINE
  8
LC-011-005-----0
  6
CONTINUOUS
  5
349
 10
975.745409
 20
494.912798
 30
0.0
 11
976.497896
 21
495.665285
 31
0.0
  0
LINE
  8
LC-011-005-----0
  6
CONTINUOUS
  5
34A
 10
973.816464
 20
495.81228
 30
0.0
 11
974.568951
 21
496.564767
 31
0.0
  0
LINE
  8
LC-011-005-----0
  6
CONTINUOUS
  5
34B
 10
972.221718
 20
497.045961
 30
0.0
 11
973.940314
 21
498.764557
 31
0.0
  0
LINE
  8
LC-011-005-----0
  6
CONTINUOUS
  5
34C
 10
974.344178
 20
501.996849
 30
0.0
 11
976.41162
 21
504.06429
 31
0.0
  0
LINE
  8
LC-011-005-----0
  6
CONTINUOUS
  5
34D
 10
976.758622
 20
507.23972
 30
0.0
 11
977.886212
 21
508.367309
 31
0.0
  0
LINE
  8
LC-011-005-----0
  6
CONTINUOUS
  5
34E
 10
976.426424
 20
509.735948
 30
0.0
 11
977.146515
 21
510.456039
 31
0.0
  0
LINE
  8
LC-011-005-----0
  6
CONTINUOUS
  5
34F
 10
975.118022
 20
511.255974
 30
0.0
 11
975.825962
 21
511.963914
 31
0.0
  0
LINE
  8
LC-011-005-----0
  6
CONTINUOUS
  5
350
 10
973.762537
 20
512.728915
 30
0.0
 11
974.470057
 21
513.436435
 31
0.0
  0
LINE
  8
LC-011-005-----0
  6
CONTINUOUS
  5
351
 10
972.386666
 20
514.181471
 30
0.0
 11
973.093911
 21
514.888717
 31
0.0
  0
LINE
  8
LC-011-005-----0
  6
CONTINUOUS
  5
352
 10
970.990433
 20
515.613666
 30
0.0
 11
971.69755
 21
516.320783
 31
0.0
  0
LINE
  8
LC-011-005-----0
  6
CONTINUOUS
  5
353
 10
969.57385
 20
517.02551
 30
0.0
 11
970.280984
 21
517.732644
 31
0.0
  0
LINE
  8
LC-011-005-----0
  6
CONTINUOUS
  5
354
 10
968.136915
 20
518.417002
 30
0.0
 11
968.844212
 21
519.124299
 31
0.0
  0
LINE
  8
LC-011-005-----0
  6
CONTINUOUS
  5
355
 10
966.679614
 20
519.788129
 30
0.0
 11
967.387219
 21
520.495733
 31
0.0
  0
LINE
  8
LC-011-005-----0
  6
CONTINUOUS
  5
356
 10
965.201921
 20
521.138862
 30
0.0
 11
965.90998
 21
521.846921
 31
0.0
  0
LINE
  8
LC-011-005-----0
  6
CONTINUOUS
  5
357
 10
963.703795
 20
522.469163
 30
0.0
 11
964.412455
 21
523.177824
 31
0.0
  0
LINE
  8
LC-011-005-----0
  6
CONTINUOUS
  5
358
 10
962.185184
 20
523.778979
 30
0.0
 11
962.894594
 21
524.48839
 31
0.0
  0
LINE
  8
LC-011-005-----0
  6
CONTINUOUS
  5
359
 10
960.646022
 20
525.068245
 30
0.0
 11
961.356332
 21
525.778555
 31
0.0
  0
LINE
  8
LC-011-005-----0
  6
CONTINUOUS
  5
35A
 10
959.086232
 20
526.336881
 30
0.0
 11
959.797592
 21
527.048242
 31
0.0
  0
LINE
  8
LC-011-005-----0
  6
CONTINUOUS
  5
35B
 10
957.505719
 20
527.584796
 30
0.0
 11
958.218284
 21
528.297361
 31
0.0
  0
LINE
  8
LC-011-005-----0
  6
CONTINUOUS
  5
35C
 10
955.904379
 20
528.811883
 30
0.0
 11
956.618303
 21
529.525807
 31
0.0
  0
LINE
  8
LC-011-005-----0
  6
CONTINUOUS
  5
35D
 10
954.28209
 20
530.018021
 30
0.0
 11
954.997533
 21
530.733464
 31
0.0
  0
LINE
  8
LC-011-005-----0
  6
CONTINUOUS
  5
35E
 10
952.638718
 20
531.203077
 30
0.0
 11
953.35584
 21
531.920199
 31
0.0
  0
LINE
  8
LC-011-005-----0
  6
CONTINUOUS
  5
35F
 10
950.974113
 20
532.366899
 30
0.0
 11
951.693079
 21
533.085865
 31
0.0
  0
LINE
  8
LC-011-005-----0
  6
CONTINUOUS
  5
360
 10
949.28811
 20
533.509322
 30
0.0
 11
950.009088
 21
534.230301
 31
0.0
  0
LINE
  8
LC-011-005-----0
  6
CONTINUOUS
  5
361
 10
947.580526
 20
534.630166
 30
0.0
 11
948.303689
 21
535.353329
 31
0.0
  0
LINE
  8
LC-011-005-----0
  6
CONTINUOUS
  5
362
 10
945.851163
 20
535.72923
 30
0.0
 11
946.576688
 21
536.454755
 31
0.0
  0
LINE
  8
LC-011-005-----0
  6
CONTINUOUS
  5
363
 10
944.099807
 20
536.806301
 30
0.0
 11
944.827875
 21
537.534369
 31
0.0
  0
LINE
  8
LC-011-005-----0
  6
CONTINUOUS
  5
364
 10
942.326222
 20
537.861143
 30
0.0
 11
943.057021
 21
538.591942
 31
0.0
  0
LINE
  8
LC-011-005-----0
  6
CONTINUOUS
  5
365
 10
940.530155
 20
538.893504
 30
0.0
 11
941.263879
 21
539.627227
 31
0.0
  0
LINE
  8
LC-011-005-----0
  6
CONTINUOUS
  5
366
 10
938.711335
 20
539.90311
 30
0.0
 11
939.448182
 21
540.639958
 31
0.0
  0
LINE
  8
LC-011-005-----0
  6
CONTINUOUS
  5
367
 10
936.869465
 20
540.889668
 30
0.0
 11
937.609644
 21
541.629846
 31
0.0
  0
LINE
  8
LC-011-005-----0
  6
CONTINUOUS
  5
368
 10
935.00423
 20
541.85286
 30
0.0
 11
935.747955
 21
542.596584
 31
0.0
  0
LINE
  8
LC-011-005-----0
  6
CONTINUOUS
  5
369
 10
933.11529
 20
542.792347
 30
0.0
 11
933.862783
 21
543.53984
 31
0.0
  0
LINE
  8
LC-011-005-----0
  6
CONTINUOUS
  5
36A
 10
931.202279
 20
543.707763
 30
0.0
 11
931.953773
 21
544.459257
 31
0.0
  0
LINE
  8
LC-011-005-----0
  6
CONTINUOUS
  5
36B
 10
929.264806
 20
544.598717
 30
0.0
 11
930.020543
 21
545.354454
 31
0.0
  0
LINE
  8
LC-011-005-----0
  6
CONTINUOUS
  5
36C
 10
927.30245
 20
545.464788
 30
0.0
 11
928.062684
 21
546.225022
 31
0.0
  0
LINE
  8
LC-011-005-----0
  6
CONTINUOUS
  5
36D
 10
925.31476
 20
546.305525
 30
0.0
 11
926.079756
 21
547.070521
 31
0.0
  0
LINE
  8
LC-011-005-----0
  6
CONTINUOUS
  5
36E
 10
923.301254
 20
547.120446
 30
0.0
 11
924.071289
 21
547.890482
 31
0.0
  0
LINE
  8
LC-011-005-----0
  6
CONTINUOUS
  5
36F
 10
921.261412
 20
547.909032
 30
0.0
 11
922.036781
 21
548.6844
 31
0.0
  0
LINE
  8
LC-011-005-----0
  6
CONTINUOUS
  5
370
 10
919.677526
 20
549.153573
 30
0.0
 11
920.411888
 21
549.887935
 31
0.0
  0
LINE
  8
LC-011-005-----0
  6
CONTINUOUS
  5
371
 10
918.820557
 20
551.12503
 30
0.0
 11
919.532427
 21
551.836901
 31
0.0
  0
LINE
  8
LC-011-005-----0
  6
CONTINUOUS
  5
372
 10
916.500886
 20
551.633787
 30
0.0
 11
917.364104
 21
552.497005
 31
0.0
  0
LINE
  8
LC-011-005-----0
  6
CONTINUOUS
  5
373
 10
914.096429
 20
552.057757
 30
0.0
 11
914.959647
 21
552.920975
 31
0.0
  0
LINE
  8
LC-011-005-----0
  6
CONTINUOUS
  5
374
 10
911.691973
 20
552.481728
 30
0.0
 11
912.555191
 21
553.344946
 31
0.0
  0
LINE
  8
LC-011-005-----0
  6
CONTINUOUS
  5
375
 10
909.287516
 20
552.905698
 30
0.0
 11
910.150734
 21
553.768916
 31
0.0
  0
LINE
  8
LC-011-005-----0
  6
CONTINUOUS
  5
376
 10
906.883059
 20
553.329669
 30
0.0
 11
907.746277
 21
554.192887
 31
0.0
  0
LINE
  8
LC-011-005-----0
  6
CONTINUOUS
  5
377
 10
904.478603
 20
553.753639
 30
0.0
 11
905.341821
 21
554.616857
 31
0.0
  0
LINE
  8
LC-011-005-----0
  6
CONTINUOUS
  5
378
 10
902.074146
 20
554.17761
 30
0.0
 11
902.937364
 21
555.040828
 31
0.0
  0
LINE
  8
LC-011-005-----0
  6
CONTINUOUS
  5
379
 10
899.669689
 20
554.60158
 30
0.0
 11
900.532907
 21
555.464798
 31
0.0
  0
LINE
  8
LC-011-005-----0
  6
CONTINUOUS
  5
37A
 10
897.265233
 20
555.025551
 30
0.0
 11
898.128451
 21
555.888769
 31
0.0
  0
LINE
  8
LC-011-005-----0
  6
CONTINUOUS
  5
37B
 10
894.860776
 20
555.449521
 30
0.0
 11
895.723994
 21
556.312739
 31
0.0
  0
LINE
  8
LC-011-005-----0
  6
CONTINUOUS
  5
37C
 10
892.45632
 20
555.873492
 30
0.0
 11
893.319538
 21
556.73671
 31
0.0
  0
LINE
  8
LC-011-005-----0
  6
CONTINUOUS
  5
37D
 10
890.051863
 20
556.297462
 30
0.0
 11
890.915081
 21
557.16068
 31
0.0
  0
LINE
  8
LC-011-005-----0
  6
CONTINUOUS
  5
37E
 10
887.647406
 20
556.721433
 30
0.0
 11
888.510624
 21
557.584651
 31
0.0
  0
LINE
  8
LC-011-005-----0
  6
CONTINUOUS
  5
37F
 10
885.24295
 20
557.145403
 30
0.0
 11
886.106168
 21
558.008621
 31
0.0
  0
LINE
  8
LC-011-005-----0
  6
CONTINUOUS
  5
380
 10
882.838493
 20
557.569374
 30
0.0
 11
883.701711
 21
558.432592
 31
0.0
  0
LINE
  8
LC-011-005-----0
  6
CONTINUOUS
  5
381
 10
880.434036
 20
557.993344
 30
0.0
 11
881.297254
 21
558.856562
 31
0.0
  0
LINE
  8
LC-011-005-----0
  6
CONTINUOUS
  5
382
 10
865.795532
 20
546.183267
 30
0.0
 11
866.54802
 21
546.935755
 31
0.0
  0
LINE
  8
LC-011-005-----0
  6
CONTINUOUS
  5
383
 10
867.971454
 20
548.359189
 30
0.0
 11
870.038896
 21
550.426631
 31
0.0
  0
LINE
  8
LC-011-005-----0
  6
CONTINUOUS
  5
384
 10
878.02958
 20
558.417315
 30
0.0
 11
878.892798
 21
559.280533
 31
0.0
  0
LINE
  8
LC-011-005-----0
  6
CONTINUOUS
  5
385
 10
863.866587
 20
547.082749
 30
0.0
 11
864.619074
 21
547.835236
 31
0.0
  0
LINE
  8
LC-011-005-----0
  6
CONTINUOUS
  5
386
 10
870.442761
 20
553.658923
 30
0.0
 11
872.510202
 21
555.726365
 31
0.0
  0
LINE
  8
LC-011-005-----0
  6
CONTINUOUS
  5
387
 10
875.625123
 20
558.841285
 30
0.0
 11
876.488341
 21
559.704503
 31
0.0
  0
LINE
  8
LC-011-005-----0
  6
CONTINUOUS
  5
388
 10
861.937642
 20
547.982231
 30
0.0
 11
862.690129
 21
548.734718
 31
0.0
  0
LINE
  8
LC-011-005-----0
  6
CONTINUOUS
  5
389
 10
872.925161
 20
558.96975
 30
0.0
 11
873.695377
 21
559.739967
 31
0.0
  0
LINE
  8
LC-011-005-----0
  6
CONTINUOUS
  5
38A
 10
860.91328
 20
549.786296
 30
0.0
 11
862.980722
 21
551.853738
 31
0.0
  0
LINE
  8
LC-011-005-----0
  6
CONTINUOUS
  5
38B
 10
863.384586
 20
555.086029
 30
0.0
 11
865.452028
 21
557.153471
 31
0.0
  0
LINE
  8
LC-011-005-----0
  6
CONTINUOUS
  5
38C
 10
865.33357
 20
559.863441
 30
0.0
 11
866.085084
 21
560.614955
 31
0.0
  0
LINE
  8
LC-011-005-----0
  6
CONTINUOUS
  5
38D
 10
863.657144
 20
561.015442
 30
0.0
 11
864.409631
 21
561.767929
 31
0.0
  0
LINE
  8
LC-011-005-----0
  6
CONTINUOUS
  5
38E
 10
861.728199
 20
561.914923
 30
0.0
 11
862.480686
 21
562.667411
 31
0.0
  0
LINE
  8
LC-011-005-----0
  6
CONTINUOUS
  5
38F
 10
859.799253
 20
562.814405
 30
0.0
 11
860.551741
 21
563.566893
 31
0.0
  0
LINE
  8
LC-011-005-----0
  6
CONTINUOUS
  5
390
 10
848.284528
 20
554.128107
 30
0.0
 11
848.533613
 21
554.377192
 31
0.0
  0
LINE
  8
LC-011-005-----0
  6
CONTINUOUS
  5
391
 10
857.870308
 20
563.713887
 30
0.0
 11
858.622796
 21
564.466375
 31
0.0
  0
LINE
  8
LC-011-005-----0
  6
CONTINUOUS
  5
392
 10
846.355583
 20
555.027589
 30
0.0
 11
847.10807
 21
555.780076
 31
0.0
  0
LINE
  8
LC-011-005-----0
  6
CONTINUOUS
  5
393
 10
855.941363
 20
564.613369
 30
0.0
 11
856.69385
 21
565.365857
 31
0.0
  0
LINE
  8
LC-011-005-----0
  6
CONTINUOUS
  5
394
 10
844.426638
 20
555.927071
 30
0.0
 11
845.179125
 21
556.679558
 31
0.0
  0
LINE
  8
LC-011-005-----0
  6
CONTINUOUS
  5
395
 10
853.540731
 20
565.041164
 30
0.0
 11
854.4455
 21
565.945933
 31
0.0
  0
LINE
  8
LC-011-005-----0
  6
CONTINUOUS
  5
396
 10
842.497692
 20
556.826553
 30
0.0
 11
843.25018
 21
557.57904
 31
0.0
  0
LINE
  8
LC-011-005-----0
  6
CONTINUOUS
  5
397
 10
850.997612
 20
565.326473
 30
0.0
 11
851.902381
 21
566.231241
 31
0.0
  0
LINE
  8
LC-011-005-----0
  6
CONTINUOUS
  5
398
 10
840.681507
 20
557.838795
 30
0.0
 11
841.393796
 21
558.551083
 31
0.0
  0
LINE
  8
LC-011-005-----0
  6
CONTINUOUS
  5
399
 10
848.454493
 20
565.611781
 30
0.0
 11
849.359262
 21
566.51655
 31
0.0
  0
LINE
  8
LC-011-005-----0
  6
CONTINUOUS
  5
39A
 10
839.388965
 20
559.374679
 30
0.0
 11
840.13214
 21
560.117854
 31
0.0
  0
LINE
  8
LC-011-005-----0
  6
CONTINUOUS
  5
39B
 10
845.911374
 20
565.897089
 30
0.0
 11
846.816143
 21
566.801858
 31
0.0
  0
LINE
  8
LC-011-005-----0
  6
CONTINUOUS
  5
39C
 10
838.749406
 20
561.563548
 30
0.0
 11
839.801899
 21
562.616041
 31
0.0
  0
LINE
  8
LC-011-005-----0
  6
CONTINUOUS
  5
39D
 10
843.214996
 20
566.029138
 30
0.0
 11
844.267489
 21
567.081631
 31
0.0
  0
ENDBLK
  8
0
  5
39E
  0
BLOCK
  8
0
  5
3A0
  2
*X52
 70
    65
 10
828.720186
 20
399.402576
 30
0.0
  3
*X52
  0
LINE
  8
LC-011-005-----0
  6
CONTINUOUS
  5
3A1
 10
849.484008
 20
399.764096
 30
0.0
 11
850.769193
 21
401.04928
 31
0.0
  0
LINE
  8
LC-011-005-----0
  6
CONTINUOUS
  5
3A2
 10
846.605334
 20
399.713848
 30
0.0
 11
850.677015
 21
403.785529
 31
0.0
  0
LINE
  8
LC-011-005-----0
  6
CONTINUOUS
  5
3A3
 10
843.726659
 20
399.663601
 30
0.0
 11
847.79834
 21
403.735281
 31
0.0
  0
LINE
  8
LC-011-005-----0
  6
CONTINUOUS
  5
3A4
 10
840.847985
 20
399.613353
 30
0.0
 11
844.919665
 21
403.685034
 31
0.0
  0
LINE
  8
LC-011-005-----0
  6
CONTINUOUS
  5
3A5
 10
837.96931
 20
399.563106
 30
0.0
 11
842.946364
 21
404.54016
 31
0.0
  0
LINE
  8
LC-011-005-----0
  6
CONTINUOUS
  5
3A6
 10
835.090636
 20
399.512858
 30
0.0
 11
841.126632
 21
405.548854
 31
0.0
  0
LINE
  8
LC-011-005-----0
  6
CONTINUOUS
  5
3A7
 10
832.211961
 20
399.462611
 30
0.0
 11
835.265722
 21
402.516371
 31
0.0
  0
LINE
  8
LC-011-005-----0
  6
CONTINUOUS
  5
3A8
 10
835.711478
 20
402.962128
 30
0.0
 11
839.306899
 21
406.557549
 31
0.0
  0
LINE
  8
LC-011-005-----0
  6
CONTINUOUS
  5
3A9
 10
829.333286
 20
399.412363
 30
0.0
 11
832.387047
 21
402.466124
 31
0.0
  0
LINE
  8
LC-011-005-----0
  6
CONTINUOUS
  5
3AA
 10
834.626471
 20
404.705548
 30
0.0
 11
836.662312
 21
406.741389
 31
0.0
  0
LINE
  8
LC-011-005-----0
  6
CONTINUOUS
  5
3AB
 10
828.733472
 20
401.640976
 30
0.0
 11
829.508372
 21
402.415877
 31
0.0
  0
LINE
  8
LC-011-005-----0
  6
CONTINUOUS
  5
3AC
 10
832.665449
 20
405.572953
 30
0.0
 11
833.783637
 21
406.691141
 31
0.0
  0
ENDBLK
  8
0
  5
3AD
  0
BLOCK
  8
0
  5
3AF
  2
*X53
 70
    65
 10
825.857992
 20
544.650271
 30
0.0
  3
*X53
  0
LINE
  8
LC-011-005-----0
  6
CONTINUOUS
  5
3B0
 10
847.973612
 20
548.160337
 30
0.0
 11
850.769193
 21
550.955918
 31
0.0
  0
LINE
  8
LC-011-005-----0
  6
CONTINUOUS
  5
3B1
 10
845.094938
 20
548.11009
 30
0.0
 11
848.75945
 21
551.774602
 31
0.0
  0
LINE
  8
LC-011-005-----0
  6
CONTINUOUS
  5
3B2
 10
842.216263
 20
548.059842
 30
0.0
 11
845.880776
 21
551.724355
 31
0.0
  0
LINE
  8
LC-011-005-----0
  6
CONTINUOUS
  5
3B3
 10
836.080244
 20
544.75225
 30
0.0
 11
843.002101
 21
551.674107
 31
0.0
  0
LINE
  8
LC-011-005-----0
  6
CONTINUOUS
  5
3B4
 10
833.201569
 20
544.702003
 30
0.0
 11
840.123427
 21
551.62386
 31
0.0
  0
LINE
  8
LC-011-005-----0
  6
CONTINUOUS
  5
3B5
 10
830.322895
 20
544.651755
 30
0.0
 11
832.358735
 21
546.687595
 31
0.0
  0
LINE
  8
LC-011-005-----0
  6
CONTINUOUS
  5
3B6
 10
833.188261
 20
547.517121
 30
0.0
 11
837.244752
 21
551.573612
 31
0.0
  0
LINE
  8
LC-011-005-----0
  6
CONTINUOUS
  5
3B7
 10
831.719485
 20
548.876772
 30
0.0
 11
834.366077
 21
551.523365
 31
0.0
  0
LINE
  8
LC-011-005-----0
  6
CONTINUOUS
  5
3B8
 10
828.84081
 20
548.826525
 30
0.0
 11
831.487403
 21
551.473118
 31
0.0
  0
LINE
  8
LC-011-005-----0
  6
CONTINUOUS
  5
3B9
 10
826.161732
 20
548.975874
 30
0.0
 11
829.89711
 21
552.711251
 31
0.0
  0
LINE
  8
LC-011-005-----0
  6
CONTINUOUS
  5
3BA
 10
826.113209
 20
551.755778
 30
0.0
 11
829.848586
 21
555.491155
 31
0.0
  0
LINE
  8
LC-011-005-----0
  6
CONTINUOUS
  5
3BB
 10
826.064685
 20
554.535681
 30
0.0
 11
829.800063
 21
558.271059
 31
0.0
  0
LINE
  8
LC-011-005-----0
  6
CONTINUOUS
  5
3BC
 10
826.016162
 20
557.315585
 30
0.0
 11
829.751539
 21
561.050963
 31
0.0
  0
LINE
  8
LC-011-005-----0
  6
CONTINUOUS
  5
3BD
 10
825.967638
 20
560.095489
 30
0.0
 11
829.703016
 21
563.830866
 31
0.0
  0
LINE
  8
LC-011-005-----0
  6
CONTINUOUS
  5
3BE
 10
825.919115
 20
562.875392
 30
0.0
 11
829.484158
 21
566.440436
 31
0.0
  0
LINE
  8
LC-011-005-----0
  6
CONTINUOUS
  5
3BF
 10
825.870592
 20
565.655296
 30
0.0
 11
826.605484
 21
566.390188
 31
0.0
  0
ENDBLK
  8
0
  5
3C0
  0
BLOCK
  8
0
  5
3C2
  2
*X54
 70
    65
 10
828.521229
 20
402.402119
 30
0.0
  3
*X54
  0
LINE
  8
LC-011-005-----0
  6
CONTINUOUS
  5
3C3
 10
850.622846
 20
403.784583
 30
0.0
 11
848.213443
 21
406.193987
 31
0.0
  0
LINE
  8
LC-011-005-----0
  6
DASHED
  5
3C4
 10
847.842943
 20
403.73606
 30
0.0
 11
841.86728
 21
409.711722
 31
0.0
  0
LINE
  8
LC-011-005-----0
  6
DASHED
  5
3C5
 10
846.452991
 20
403.711798
 30
0.0
 11
838.694199
 21
411.47059
 31
0.0
  0
LINE
  8
LC-011-005-----0
  6
CONTINUOUS
  5
3C6
 10
842.609444
 20
404.726918
 30
0.0
 11
833.449948
 21
413.886414
 31
0.0
  0
LINE
  8
LC-011-005-----0
  6
CONTINUOUS
  5
3C7
 10
839.436362
 20
406.485786
 30
0.0
 11
832.059997
 21
413.862152
 31
0.0
  0
LINE
  8
LC-011-005-----0
  6
DASHED
  5
3C8
 10
836.35765
 20
406.736071
 30
0.0
 11
829.280093
 21
413.813628
 31
0.0
  0
LINE
  8
LC-011-005-----0
  6
DASHED
  5
3C9
 10
834.967699
 20
406.711809
 30
0.0
 11
828.532636
 21
413.146872
 31
0.0
  0
LINE
  8
LC-011-005-----0
  6
CONTINUOUS
  5
3CA
 10
835.708325
 20
403.142756
 30
0.0
 11
834.153783
 21
404.697298
 31
0.0
  0
LINE
  8
LC-011-005-----0
  6
CONTINUOUS
  5
3CB
 10
832.654564
 20
406.196516
 30
0.0
 11
828.582884
 21
410.268197
 31
0.0
  0
LINE
  8
LC-011-005-----0
  6
CONTINUOUS
  5
3CC
 10
834.926418
 20
402.510449
 30
0.0
 11
832.763831
 21
404.673036
 31
0.0
  0
LINE
  8
LC-011-005-----0
  6
CONTINUOUS
  5
3CD
 10
832.679688
 20
404.757179
 30
0.0
 11
828.608007
 21
408.82886
 31
0.0
  0
LINE
  8
LC-011-005-----0
  6
DASHED
  5
3CE
 10
832.146514
 20
402.461925
 30
0.0
 11
828.658255
 21
405.950185
 31
0.0
  0
LINE
  8
LC-011-005-----0
  6
DASHED
  5
3CF
 10
830.756563
 20
402.437664
 30
0.0
 11
828.683378
 21
404.510848
 31
0.0
  0
ENDBLK
  8
0
  5
3D0
  0
BLOCK
  8
0
  5
3D2
  2
*X55
 70
    65
 10
826.165154
 20
537.381558
 30
0.0
  3
*X55
  0
LINE
  8
LC-011-005-----0
  6
CONTINUOUS
  5
3D3
 10
848.270249
 20
547.558537
 30
0.0
 11
847.673684
 21
548.155102
 31
0.0
  0
LINE
  8
LC-011-005-----0
  6
DASHED
  5
3D4
 10
846.747675
 20
546.252684
 30
0.0
 11
844.893781
 21
548.106578
 31
0.0
  0
LINE
  8
LC-011-005-----0
  6
DASHED
  5
3D5
 10
845.864266
 20
545.721879
 30
0.0
 11
843.503829
 21
548.082317
 31
0.0
  0
LINE
  8
LC-011-005-----0
  6
CONTINUOUS
  5
3D6
 10
844.09745
 20
544.660269
 30
0.0
 11
841.182434
 21
547.575284
 31
0.0
  0
LINE
  8
LC-011-005-----0
  6
CONTINUOUS
  5
3D7
 10
843.214041
 20
544.129463
 30
0.0
 11
840.299026
 21
547.044479
 31
0.0
  0
LINE
  8
LC-011-005-----0
  6
DASHED
  5
3D8
 10
841.447225
 20
543.067853
 30
0.0
 11
838.532209
 21
545.982868
 31
0.0
  0
LINE
  8
LC-011-005-----0
  6
DASHED
  5
3D9
 10
840.563817
 20
542.537047
 30
0.0
 11
837.648801
 21
545.452063
 31
0.0
  0
LINE
  8
LC-011-005-----0
  6
CONTINUOUS
  5
3DA
 10
838.797
 20
541.475437
 30
0.0
 11
835.529795
 21
544.742642
 31
0.0
  0
LINE
  8
LC-011-005-----0
  6
CONTINUOUS
  5
3DB
 10
833.195952
 20
547.076485
 30
0.0
 11
831.40122
 21
548.871217
 31
0.0
  0
LINE
  8
LC-011-005-----0
  6
CONTINUOUS
  5
3DC
 10
837.913592
 20
540.944632
 30
0.0
 11
834.139843
 21
544.71838
 31
0.0
  0
LINE
  8
LC-011-005-----0
  6
CONTINUOUS
  5
3DD
 10
832.173855
 20
546.684368
 30
0.0
 11
830.011268
 21
548.846955
 31
0.0
  0
LINE
  8
LC-011-005-----0
  6
DASHED
  5
3DE
 10
836.146775
 20
539.883021
 30
0.0
 11
831.359939
 21
544.669857
 31
0.0
  0
LINE
  8
LC-011-005-----0
  6
DASHED
  5
3DF
 10
830.217563
 20
545.812233
 30
0.0
 11
827.231364
 21
548.798432
 31
0.0
  0
LINE
  8
LC-011-005-----0
  6
DASHED
  5
3E0
 10
835.263367
 20
539.352216
 30
0.0
 11
826.171006
 21
548.444577
 31
0.0
  0
LINE
  8
LC-011-005-----0
  6
CONTINUOUS
  5
3E1
 10
833.49655
 20
538.290605
 30
0.0
 11
826.221253
 21
545.565902
 31
0.0
  0
LINE
  8
LC-011-005-----0
  6
CONTINUOUS
  5
3E2
 10
832.613142
 20
537.7598
 30
0.0
 11
826.246377
 21
544.126565
 31
0.0
  0
LINE
  8
LC-011-005-----0
  6
DASHED
  5
3E3
 10
830.097786
 20
537.446729
 30
0.0
 11
826.296624
 21
541.24789
 31
0.0
  0
LINE
  8
LC-011-005-----0
  6
DASHED
  5
3E4
 10
828.707834
 20
537.422467
 30
0.0
 11
826.321748
 21
539.808553
 31
0.0
  0
ENDBLK
  8
0
  5
3E5
  0
BLOCK
  8
0
  5
3E7
  2
*X56
 70
    65
 10
627.949153
 20
587.123139
 30
0.0
  3
*X56
  0
LINE
  8
LC-011-005-----0
  6
CONTINUOUS
  5
3E8
 10
816.259716
 20
597.953846
 30
0.0
 11
812.090424
 21
602.123139
 31
0.0
  0
LINE
  8
LC-011-005-----0
  6
CONTINUOUS
  5
3E9
 10
816.259716
 20
595.125419
 30
0.0
 11
813.700238
 21
597.684897
 31
0.0
  0
LINE
  8
LC-011-005-----0
  6
CONTINUOUS
  5
3EA
 10
813.265826
 20
598.11931
 30
0.0
 11
809.261997
 21
602.123139
 31
0.0
  0
LINE
  8
LC-011-005-----0
  6
CONTINUOUS
  5
3EB
 10
816.259716
 20
592.296992
 30
0.0
 11
813.858017
 21
594.698691
 31
0.0
  0
LINE
  8
LC-011-005-----0
  6
CONTINUOUS
  5
3EC
 10
810.43357
 20
598.123139
 30
0.0
 11
806.43357
 21
602.123139
 31
0.0
  0
LINE
  8
LC-011-005-----0
  6
CONTINUOUS
  5
3ED
 10
816.259716
 20
589.468565
 30
0.0
 11
814.014447
 21
591.713834
 31
0.0
  0
LINE
  8
LC-011-005-----0
  6
CONTINUOUS
  5
3EE
 10
807.605142
 20
598.123139
 30
0.0
 11
803.605142
 21
602.123139
 31
0.0
  0
LINE
  8
LC-011-005-----0
  6
CONTINUOUS
  5
3EF
 10
815.776436
 20
587.123418
 30
0.0
 11
814.170876
 21
588.728977
 31
0.0
  0
LINE
  8
LC-011-005-----0
  6
CONTINUOUS
  5
3F0
 10
806.62899
 20
596.270864
 30
0.0
 11
800.776715
 21
602.123139
 31
0.0
  0
LINE
  8
LC-011-005-----0
  6
CONTINUOUS
  5
3F1
 10
806.48814
 20
593.583287
 30
0.0
 11
804.337264
 21
595.734163
 31
0.0
  0
LINE
  8
LC-011-005-----0
  6
CONTINUOUS
  5
3F2
 10
801.936464
 20
598.134963
 30
0.0
 11
797.948288
 21
602.123139
 31
0.0
  0
LINE
  8
LC-011-005-----0
  6
CONTINUOUS
  5
3F3
 10
806.317712
 20
590.925287
 30
0.0
 11
804.337264
 21
592.905736
 31
0.0
  0
LINE
  8
LC-011-005-----0
  6
CONTINUOUS
  5
3F4
 10
799.108244
 20
598.134756
 30
0.0
 11
795.119861
 21
602.123139
 31
0.0
  0
LINE
  8
LC-011-005-----0
  6
CONTINUOUS
  5
3F5
 10
796.280024
 20
598.134549
 30
0.0
 11
792.291434
 21
602.123139
 31
0.0
  0
LINE
  8
LC-011-005-----0
  6
CONTINUOUS
  5
3F6
 10
793.451804
 20
598.134342
 30
0.0
 11
789.463007
 21
602.123139
 31
0.0
  0
LINE
  8
LC-011-005-----0
  6
CONTINUOUS
  5
3F7
 10
790.623584
 20
598.134135
 30
0.0
 11
786.63458
 21
602.123139
 31
0.0
  0
LINE
  8
LC-011-005-----0
  6
CONTINUOUS
  5
3F8
 10
787.795363
 20
598.133928
 30
0.0
 11
783.806153
 21
602.123139
 31
0.0
  0
LINE
  8
LC-011-005-----0
  6
CONTINUOUS
  5
3F9
 10
784.967143
 20
598.133721
 30
0.0
 11
780.977726
 21
602.123139
 31
0.0
  0
LINE
  8
LC-011-005-----0
  6
CONTINUOUS
  5
3FA
 10
782.138923
 20
598.133514
 30
0.0
 11
778.149298
 21
602.123139
 31
0.0
  0
LINE
  8
LC-011-005-----0
  6
CONTINUOUS
  5
3FB
 10
779.310703
 20
598.133307
 30
0.0
 11
775.320871
 21
602.123139
 31
0.0
  0
LINE
  8
LC-011-005-----0
  6
CONTINUOUS
  5
3FC
 10
776.482483
 20
598.1331
 30
0.0
 11
772.492444
 21
602.123139
 31
0.0
  0
LINE
  8
LC-011-005-----0
  6
CONTINUOUS
  5
3FD
 10
773.654263
 20
598.132893
 30
0.0
 11
769.664017
 21
602.123139
 31
0.0
  0
LINE
  8
LC-011-005-----0
  6
CONTINUOUS
  5
3FE
 10
770.826043
 20
598.132686
 30
0.0
 11
766.83559
 21
602.123139
 31
0.0
  0
LINE
  8
LC-011-005-----0
  6
CONTINUOUS
  5
3FF
 10
767.997822
 20
598.132479
 30
0.0
 11
764.007163
 21
602.123139
 31
0.0
  0
LINE
  8
LC-011-005-----0
  6
CONTINUOUS
  5
400
 10
765.169602
 20
598.132272
 30
0.0
 11
761.178736
 21
602.123139
 31
0.0
  0
LINE
  8
LC-011-005-----0
  6
CONTINUOUS
  5
401
 10
762.341382
 20
598.132065
 30
0.0
 11
758.350309
 21
602.123139
 31
0.0
  0
LINE
  8
LC-011-005-----0
  6
CONTINUOUS
  5
402
 10
759.513162
 20
598.131858
 30
0.0
 11
755.521881
 21
602.123139
 31
0.0
  0
LINE
  8
LC-011-005-----0
  6
CONTINUOUS
  5
403
 10
756.684942
 20
598.131651
 30
0.0
 11
752.693454
 21
602.123139
 31
0.0
  0
LINE
  8
LC-011-005-----0
  6
CONTINUOUS
  5
404
 10
753.856722
 20
598.131444
 30
0.0
 11
749.865027
 21
602.123139
 31
0.0
  0
LINE
  8
LC-011-005-----0
  6
CONTINUOUS
  5
405
 10
751.028502
 20
598.131237
 30
0.0
 11
747.0366
 21
602.123139
 31
0.0
  0
LINE
  8
LC-011-005-----0
  6
CONTINUOUS
  5
406
 10
748.200281
 20
598.13103
 30
0.0
 11
744.208173
 21
602.123139
 31
0.0
  0
LINE
  8
LC-011-005-----0
  6
CONTINUOUS
  5
407
 10
745.372061
 20
598.130823
 30
0.0
 11
741.379746
 21
602.123139
 31
0.0
  0
LINE
  8
LC-011-005-----0
  6
CONTINUOUS
  5
408
 10
742.543841
 20
598.130616
 30
0.0
 11
738.551319
 21
602.123139
 31
0.0
  0
LINE
  8
LC-011-005-----0
  6
CONTINUOUS
  5
409
 10
739.715621
 20
598.130409
 30
0.0
 11
735.722892
 21
602.123139
 31
0.0
  0
LINE
  8
LC-011-005-----0
  6
CONTINUOUS
  5
40A
 10
736.887401
 20
598.130202
 30
0.0
 11
732.894464
 21
602.123139
 31
0.0
  0
LINE
  8
LC-011-005-----0
  6
CONTINUOUS
  5
40B
 10
734.059181
 20
598.129995
 30
0.0
 11
730.066037
 21
602.123139
 31
0.0
  0
LINE
  8
LC-011-005-----0
  6
CONTINUOUS
  5
40C
 10
731.230961
 20
598.129788
 30
0.0
 11
727.23761
 21
602.123139
 31
0.0
  0
LINE
  8
LC-011-005-----0
  6
CONTINUOUS
  5
40D
 10
728.40274
 20
598.129581
 30
0.0
 11
724.409183
 21
602.123139
 31
0.0
  0
LINE
  8
LC-011-005-----0
  6
CONTINUOUS
  5
40E
 10
725.57452
 20
598.129374
 30
0.0
 11
721.580756
 21
602.123139
 31
0.0
  0
LINE
  8
LC-011-005-----0
  6
CONTINUOUS
  5
40F
 10
722.7463
 20
598.129167
 30
0.0
 11
718.752329
 21
602.123139
 31
0.0
  0
LINE
  8
LC-011-005-----0
  6
CONTINUOUS
  5
410
 10
719.91808
 20
598.12896
 30
0.0
 11
715.923902
 21
602.123139
 31
0.0
  0
LINE
  8
LC-011-005-----0
  6
CONTINUOUS
  5
411
 10
717.08986
 20
598.128753
 30
0.0
 11
713.095475
 21
602.123139
 31
0.0
  0
LINE
  8
LC-011-005-----0
  6
CONTINUOUS
  5
412
 10
714.26164
 20
598.128546
 30
0.0
 11
710.267047
 21
602.123139
 31
0.0
  0
LINE
  8
LC-011-005-----0
  6
CONTINUOUS
  5
413
 10
711.43342
 20
598.128339
 30
0.0
 11
707.43862
 21
602.123139
 31
0.0
  0
LINE
  8
LC-011-005-----0
  6
CONTINUOUS
  5
414
 10
708.605199
 20
598.128132
 30
0.0
 11
704.610193
 21
602.123139
 31
0.0
  0
LINE
  8
LC-011-005-----0
  6
CONTINUOUS
  5
415
 10
705.776979
 20
598.127925
 30
0.0
 11
701.781766
 21
602.123139
 31
0.0
  0
LINE
  8
LC-011-005-----0
  6
CONTINUOUS
  5
416
 10
702.948759
 20
598.127718
 30
0.0
 11
698.953339
 21
602.123139
 31
0.0
  0
LINE
  8
LC-011-005-----0
  6
CONTINUOUS
  5
417
 10
700.120539
 20
598.127511
 30
0.0
 11
696.124912
 21
602.123139
 31
0.0
  0
LINE
  8
LC-011-005-----0
  6
CONTINUOUS
  5
418
 10
697.292319
 20
598.127304
 30
0.0
 11
693.296485
 21
602.123139
 31
0.0
  0
LINE
  8
LC-011-005-----0
  6
CONTINUOUS
  5
419
 10
694.464099
 20
598.127097
 30
0.0
 11
690.468058
 21
602.123139
 31
0.0
  0
LINE
  8
LC-011-005-----0
  6
CONTINUOUS
  5
41A
 10
691.635879
 20
598.12689
 30
0.0
 11
687.63963
 21
602.123139
 31
0.0
  0
LINE
  8
LC-011-005-----0
  6
CONTINUOUS
  5
41B
 10
688.807658
 20
598.126683
 30
0.0
 11
684.811203
 21
602.123139
 31
0.0
  0
LINE
  8
LC-011-005-----0
  6
CONTINUOUS
  5
41C
 10
685.979438
 20
598.126476
 30
0.0
 11
681.982776
 21
602.123139
 31
0.0
  0
LINE
  8
LC-011-005-----0
  6
CONTINUOUS
  5
41D
 10
683.151218
 20
598.126269
 30
0.0
 11
679.154349
 21
602.123139
 31
0.0
  0
LINE
  8
LC-011-005-----0
  6
CONTINUOUS
  5
41E
 10
680.322998
 20
598.126062
 30
0.0
 11
676.325922
 21
602.123139
 31
0.0
  0
LINE
  8
LC-011-005-----0
  6
CONTINUOUS
  5
41F
 10
677.494778
 20
598.125855
 30
0.0
 11
673.497495
 21
602.123139
 31
0.0
  0
LINE
  8
LC-011-005-----0
  6
CONTINUOUS
  5
420
 10
674.666558
 20
598.125648
 30
0.0
 11
670.669068
 21
602.123139
 31
0.0
  0
LINE
  8
LC-011-005-----0
  6
CONTINUOUS
  5
421
 10
671.838338
 20
598.125441
 30
0.0
 11
667.840641
 21
602.123139
 31
0.0
  0
LINE
  8
LC-011-005-----0
  6
CONTINUOUS
  5
422
 10
669.010117
 20
598.125234
 30
0.0
 11
665.012213
 21
602.123139
 31
0.0
  0
LINE
  8
LC-011-005-----0
  6
CONTINUOUS
  5
423
 10
666.181897
 20
598.125028
 30
0.0
 11
662.183786
 21
602.123139
 31
0.0
  0
LINE
  8
LC-011-005-----0
  6
CONTINUOUS
  5
424
 10
663.353677
 20
598.124821
 30
0.0
 11
659.355359
 21
602.123139
 31
0.0
  0
LINE
  8
LC-011-005-----0
  6
CONTINUOUS
  5
425
 10
660.525457
 20
598.124614
 30
0.0
 11
656.526932
 21
602.123139
 31
0.0
  0
LINE
  8
LC-011-005-----0
  6
CONTINUOUS
  5
426
 10
657.697237
 20
598.124407
 30
0.0
 11
653.698505
 21
602.123139
 31
0.0
  0
LINE
  8
LC-011-005-----0
  6
CONTINUOUS
  5
427
 10
654.869017
 20
598.1242
 30
0.0
 11
650.870078
 21
602.123139
 31
0.0
  0
LINE
  8
LC-011-005-----0
  6
CONTINUOUS
  5
428
 10
652.040797
 20
598.123993
 30
0.0
 11
648.041651
 21
602.123139
 31
0.0
  0
LINE
  8
LC-011-005-----0
  6
CONTINUOUS
  5
429
 10
649.212576
 20
598.123786
 30
0.0
 11
645.213224
 21
602.123139
 31
0.0
  0
LINE
  8
LC-011-005-----0
  6
CONTINUOUS
  5
42A
 10
646.384356
 20
598.123579
 30
0.0
 11
642.384796
 21
602.123139
 31
0.0
  0
LINE
  8
LC-011-005-----0
  6
CONTINUOUS
  5
42B
 10
643.556136
 20
598.123372
 30
0.0
 11
639.556369
 21
602.123139
 31
0.0
  0
LINE
  8
LC-011-005-----0
  6
CONTINUOUS
  5
42C
 10
640.727916
 20
598.123165
 30
0.0
 11
636.727942
 21
602.123139
 31
0.0
  0
LINE
  8
LC-011-005-----0
  6
CONTINUOUS
  5
42D
 10
639.870378
 20
596.152275
 30
0.0
 11
633.899515
 21
602.123139
 31
0.0
  0
LINE
  8
LC-011-005-----0
  6
CONTINUOUS
  5
42E
 10
639.870378
 20
593.323848
 30
0.0
 11
637.616189
 21
595.578038
 31
0.0
  0
LINE
  8
LC-011-005-----0
  6
CONTINUOUS
  5
42F
 10
635.071088
 20
598.123138
 30
0.0
 11
631.071088
 21
602.123139
 31
0.0
  0
LINE
  8
LC-011-005-----0
  6
CONTINUOUS
  5
430
 10
639.654258
 20
590.711541
 30
0.0
 11
637.772618
 21
592.593181
 31
0.0
  0
LINE
  8
LC-011-005-----0
  6
CONTINUOUS
  5
431
 10
632.242661
 20
598.123138
 30
0.0
 11
628.979669
 21
601.386131
 31
0.0
  0
LINE
  8
LC-011-005-----0
  6
CONTINUOUS
  5
432
 10
630.474741
 20
597.062631
 30
0.0
 11
627.98065
 21
599.556722
 31
0.0
  0
LINE
  8
LC-011-005-----0
  6
CONTINUOUS
  5
433
 10
630.333891
 20
594.375054
 30
0.0
 11
627.949153
 21
596.759792
 31
0.0
  0
LINE
  8
LC-011-005-----0
  6
CONTINUOUS
  5
434
 10
630.193041
 20
591.687477
 30
0.0
 11
627.949153
 21
593.931365
 31
0.0
  0
LINE
  8
LC-011-005-----0
  6
CONTINUOUS
  5
435
 10
630.052191
 20
588.9999
 30
0.0
 11
627.949153
 21
591.102938
 31
0.0
  0
LINE
  8
LC-011-005-----0
  6
CONTINUOUS
  5
436
 10
629.100525
 20
587.123139
 30
0.0
 11
627.949153
 21
588.274511
 31
0.0
  0
ENDBLK
  8
0
  5
437
  0
BLOCK
  8
0
  5
439
  2
*X57
 70
    65
 10
820.149519
 20
572.490982
 30
0.0
  3
*X57
  0
LINE
  8
LC-011-005-----0
  6
CONTINUOUS
  5
43A
 10
827.049423
 20
572.490982
 30
0.0
 11
827.621153
 21
573.062712
 31
0.0
  0
LINE
  8
LC-011-005-----0
  6
DASHED
  5
43B
 10
825.957373
 20
574.227359
 30
0.0
 11
827.487458
 21
575.757444
 31
0.0
  0
LINE
  8
LC-011-005-----0
  6
DASHED
  5
43C
 10
825.886948
 20
575.571148
 30
0.0
 11
827.420611
 21
577.10481
 31
0.0
  0
LINE
  8
LC-011-005-----0
  6
CONTINUOUS
  5
43D
 10
820.158454
 20
572.67108
 30
0.0
 11
821.848684
 21
574.361311
 31
0.0
  0
LINE
  8
LC-011-005-----0
  6
CONTINUOUS
  5
43E
 10
825.746098
 20
578.258725
 30
0.0
 11
827.286916
 21
579.799542
 31
0.0
  0
LINE
  8
LC-011-005-----0
  6
CONTINUOUS
  5
43F
 10
820.232281
 20
574.159121
 30
0.0
 11
821.926899
 21
575.853739
 31
0.0
  0
LINE
  8
LC-011-005-----0
  6
CONTINUOUS
  5
440
 10
825.675673
 20
579.602513
 30
0.0
 11
827.174008
 21
581.100848
 31
0.0
  0
LINE
  8
LC-011-005-----0
  6
DASHED
  5
441
 10
820.379934
 20
577.135202
 30
0.0
 11
822.083329
 21
578.838596
 31
0.0
  0
LINE
  8
LC-011-005-----0
  6
DASHED
  5
442
 10
824.235715
 20
580.990982
 30
0.0
 11
825.936155
 21
582.691422
 31
0.0
  0
LINE
  8
LC-011-005-----0
  6
DASHED
  5
443
 10
820.453761
 20
578.623242
 30
0.0
 11
822.161544
 21
580.331025
 31
0.0
  0
LINE
  8
LC-011-005-----0
  6
DASHED
  5
444
 10
822.821501
 20
580.990982
 30
0.0
 11
824.820494
 21
582.989975
 31
0.0
  0
ENDBLK
  8
0
  5
445
  0
BLOCK
  8
0
  5
447
  2
*X58
 70
    65
 10
569.494891
 20
398.905948
 30
0.0
  3
*X58
  0
LINE
  8
LC-011-005-----0
  6
CONTINUOUS
  5
448
 10
811.856308
 20
398.905948
 30
0.0
 11
814.104076
 21
401.153716
 31
0.0
  0
LINE
  8
LC-011-005-----0
  6
CONTINUOUS
  5
449
 10
809.213602
 20
399.091669
 30
0.0
 11
812.101779
 21
401.979846
 31
0.0
  0
LINE
  8
LC-011-005-----0
  6
CONTINUOUS
  5
44A
 10
822.227487
 20
412.105554
 30
0.0
 11
823.102483
 21
412.98055
 31
0.0
  0
LINE
  8
LC-011-005-----0
  6
CONTINUOUS
  5
44B
 10
809.102483
 20
401.808977
 30
0.0
 11
812.101779
 21
404.808273
 31
0.0
  0
LINE
  8
LC-011-005-----0
  6
CONTINUOUS
  5
44C
 10
819.399076
 20
412.10557
 30
0.0
 11
823.102483
 21
415.808977
 31
0.0
  0
LINE
  8
LC-011-005-----0
  6
CONTINUOUS
  5
44D
 10
809.102483
 20
404.637404
 30
0.0
 11
812.101779
 21
407.6367
 31
0.0
  0
LINE
  8
LC-011-005-----0
  6
CONTINUOUS
  5
44E
 10
816.570664
 20
412.105586
 30
0.0
 11
820.592737
 21
416.127659
 31
0.0
  0
LINE
  8
LC-011-005-----0
  6
CONTINUOUS
  5
44F
 10
809.102483
 20
407.465831
 30
0.0
 11
812.101779
 21
410.465128
 31
0.0
  0
LINE
  8
LC-011-005-----0
  6
CONTINUOUS
  5
450
 10
813.742248
 20
412.105596
 30
0.0
 11
817.76431
 21
416.127659
 31
0.0
  0
LINE
  8
LC-011-005-----0
  6
CONTINUOUS
  5
451
 10
809.102483
 20
410.294259
 30
0.0
 11
814.935883
 21
416.127659
 31
0.0
  0
LINE
  8
LC-011-005-----0
  6
CONTINUOUS
  5
452
 10
808.106665
 20
412.126867
 30
0.0
 11
812.107456
 21
416.127659
 31
0.0
  0
LINE
  8
LC-011-005-----0
  6
CONTINUOUS
  5
453
 10
805.278253
 20
412.126883
 30
0.0
 11
809.279029
 21
416.127659
 31
0.0
  0
LINE
  8
LC-011-005-----0
  6
CONTINUOUS
  5
454
 10
802.449842
 20
412.126899
 30
0.0
 11
806.450602
 21
416.127659
 31
0.0
  0
LINE
  8
LC-011-005-----0
  6
CONTINUOUS
  5
455
 10
799.621431
 20
412.126915
 30
0.0
 11
803.622175
 21
416.127659
 31
0.0
  0
LINE
  8
LC-011-005-----0
  6
CONTINUOUS
  5
456
 10
796.793019
 20
412.12693
 30
0.0
 11
800.793747
 21
416.127659
 31
0.0
  0
LINE
  8
LC-011-005-----0
  6
CONTINUOUS
  5
457
 10
793.964608
 20
412.126946
 30
0.0
 11
797.96532
 21
416.127659
 31
0.0
  0
LINE
  8
LC-011-005-----0
  6
CONTINUOUS
  5
458
 10
791.136197
 20
412.126962
 30
0.0
 11
795.136893
 21
416.127659
 31
0.0
  0
LINE
  8
LC-011-005-----0
  6
CONTINUOUS
  5
459
 10
788.307785
 20
412.126978
 30
0.0
 11
792.308466
 21
416.127659
 31
0.0
  0
LINE
  8
LC-011-005-----0
  6
CONTINUOUS
  5
45A
 10
785.479374
 20
412.126993
 30
0.0
 11
789.480039
 21
416.127659
 31
0.0
  0
LINE
  8
LC-011-005-----0
  6
CONTINUOUS
  5
45B
 10
782.650962
 20
412.127009
 30
0.0
 11
786.651612
 21
416.127659
 31
0.0
  0
LINE
  8
LC-011-005-----0
  6
CONTINUOUS
  5
45C
 10
779.822551
 20
412.127025
 30
0.0
 11
783.823185
 21
416.127659
 31
0.0
  0
LINE
  8
LC-011-005-----0
  6
CONTINUOUS
  5
45D
 10
776.99414
 20
412.127041
 30
0.0
 11
780.994758
 21
416.127659
 31
0.0
  0
LINE
  8
LC-011-005-----0
  6
CONTINUOUS
  5
45E
 10
774.165728
 20
412.127056
 30
0.0
 11
778.16633
 21
416.127659
 31
0.0
  0
LINE
  8
LC-011-005-----0
  6
CONTINUOUS
  5
45F
 10
771.337317
 20
412.127072
 30
0.0
 11
775.337903
 21
416.127659
 31
0.0
  0
LINE
  8
LC-011-005-----0
  6
CONTINUOUS
  5
460
 10
768.508906
 20
412.127088
 30
0.0
 11
772.509476
 21
416.127659
 31
0.0
  0
LINE
  8
LC-011-005-----0
  6
CONTINUOUS
  5
461
 10
765.680494
 20
412.127104
 30
0.0
 11
769.681049
 21
416.127659
 31
0.0
  0
LINE
  8
LC-011-005-----0
  6
CONTINUOUS
  5
462
 10
762.852083
 20
412.12712
 30
0.0
 11
766.852622
 21
416.127659
 31
0.0
  0
LINE
  8
LC-011-005-----0
  6
CONTINUOUS
  5
463
 10
760.023672
 20
412.127135
 30
0.0
 11
764.024195
 21
416.127659
 31
0.0
  0
LINE
  8
LC-011-005-----0
  6
CONTINUOUS
  5
464
 10
757.19526
 20
412.127151
 30
0.0
 11
761.195768
 21
416.127659
 31
0.0
  0
LINE
  8
LC-011-005-----0
  6
CONTINUOUS
  5
465
 10
754.366849
 20
412.127167
 30
0.0
 11
758.367341
 21
416.127659
 31
0.0
  0
LINE
  8
LC-011-005-----0
  6
CONTINUOUS
  5
466
 10
751.538438
 20
412.127183
 30
0.0
 11
755.538913
 21
416.127659
 31
0.0
  0
LINE
  8
LC-011-005-----0
  6
CONTINUOUS
  5
467
 10
748.710026
 20
412.127198
 30
0.0
 11
752.710486
 21
416.127659
 31
0.0
  0
LINE
  8
LC-011-005-----0
  6
CONTINUOUS
  5
468
 10
745.881615
 20
412.127214
 30
0.0
 11
749.882059
 21
416.127659
 31
0.0
  0
LINE
  8
LC-011-005-----0
  6
CONTINUOUS
  5
469
 10
743.053203
 20
412.12723
 30
0.0
 11
747.053632
 21
416.127659
 31
0.0
  0
LINE
  8
LC-011-005-----0
  6
CONTINUOUS
  5
46A
 10
740.224792
 20
412.127246
 30
0.0
 11
744.225205
 21
416.127659
 31
0.0
  0
LINE
  8
LC-011-005-----0
  6
CONTINUOUS
  5
46B
 10
737.396381
 20
412.127261
 30
0.0
 11
741.396778
 21
416.127659
 31
0.0
  0
LINE
  8
LC-011-005-----0
  6
CONTINUOUS
  5
46C
 10
734.567969
 20
412.127277
 30
0.0
 11
738.568351
 21
416.127659
 31
0.0
  0
LINE
  8
LC-011-005-----0
  6
CONTINUOUS
  5
46D
 10
731.739558
 20
412.127293
 30
0.0
 11
735.739924
 21
416.127659
 31
0.0
  0
LINE
  8
LC-011-005-----0
  6
CONTINUOUS
  5
46E
 10
728.911147
 20
412.127309
 30
0.0
 11
732.911496
 21
416.127659
 31
0.0
  0
LINE
  8
LC-011-005-----0
  6
CONTINUOUS
  5
46F
 10
726.082735
 20
412.127325
 30
0.0
 11
730.083069
 21
416.127659
 31
0.0
  0
LINE
  8
LC-011-005-----0
  6
CONTINUOUS
  5
470
 10
723.254324
 20
412.12734
 30
0.0
 11
727.254642
 21
416.127659
 31
0.0
  0
LINE
  8
LC-011-005-----0
  6
CONTINUOUS
  5
471
 10
720.425913
 20
412.127356
 30
0.0
 11
724.426215
 21
416.127659
 31
0.0
  0
LINE
  8
LC-011-005-----0
  6
CONTINUOUS
  5
472
 10
717.597501
 20
412.127372
 30
0.0
 11
721.597788
 21
416.127659
 31
0.0
  0
LINE
  8
LC-011-005-----0
  6
CONTINUOUS
  5
473
 10
714.76909
 20
412.127388
 30
0.0
 11
718.769361
 21
416.127659
 31
0.0
  0
LINE
  8
LC-011-005-----0
  6
CONTINUOUS
  5
474
 10
711.940679
 20
412.127403
 30
0.0
 11
715.940934
 21
416.127659
 31
0.0
  0
LINE
  8
LC-011-005-----0
  6
CONTINUOUS
  5
475
 10
709.112267
 20
412.127419
 30
0.0
 11
713.112507
 21
416.127659
 31
0.0
  0
LINE
  8
LC-011-005-----0
  6
CONTINUOUS
  5
476
 10
706.283856
 20
412.127435
 30
0.0
 11
710.284079
 21
416.127659
 31
0.0
  0
LINE
  8
LC-011-005-----0
  6
CONTINUOUS
  5
477
 10
703.455444
 20
412.127451
 30
0.0
 11
707.455652
 21
416.127659
 31
0.0
  0
LINE
  8
LC-011-005-----0
  6
CONTINUOUS
  5
478
 10
700.627033
 20
412.127466
 30
0.0
 11
704.627225
 21
416.127659
 31
0.0
  0
LINE
  8
LC-011-005-----0
  6
CONTINUOUS
  5
479
 10
697.798622
 20
412.127482
 30
0.0
 11
701.798798
 21
416.127659
 31
0.0
  0
LINE
  8
LC-011-005-----0
  6
CONTINUOUS
  5
47A
 10
694.97021
 20
412.127498
 30
0.0
 11
698.970371
 21
416.127659
 31
0.0
  0
LINE
  8
LC-011-005-----0
  6
CONTINUOUS
  5
47B
 10
692.141799
 20
412.127514
 30
0.0
 11
696.141944
 21
416.127659
 31
0.0
  0
LINE
  8
LC-011-005-----0
  6
CONTINUOUS
  5
47C
 10
689.313388
 20
412.127529
 30
0.0
 11
693.313517
 21
416.127659
 31
0.0
  0
LINE
  8
LC-011-005-----0
  6
CONTINUOUS
  5
47D
 10
686.484976
 20
412.127545
 30
0.0
 11
690.48509
 21
416.127659
 31
0.0
  0
LINE
  8
LC-011-005-----0
  6
CONTINUOUS
  5
47E
 10
683.656565
 20
412.127561
 30
0.0
 11
687.656662
 21
416.127659
 31
0.0
  0
LINE
  8
LC-011-005-----0
  6
CONTINUOUS
  5
47F
 10
680.828154
 20
412.127577
 30
0.0
 11
684.828235
 21
416.127659
 31
0.0
  0
LINE
  8
LC-011-005-----0
  6
CONTINUOUS
  5
480
 10
677.999742
 20
412.127593
 30
0.0
 11
681.999808
 21
416.127659
 31
0.0
  0
LINE
  8
LC-011-005-----0
  6
CONTINUOUS
  5
481
 10
675.171331
 20
412.127608
 30
0.0
 11
679.171381
 21
416.127659
 31
0.0
  0
LINE
  8
LC-011-005-----0
  6
CONTINUOUS
  5
482
 10
672.34292
 20
412.127624
 30
0.0
 11
676.342954
 21
416.127659
 31
0.0
  0
LINE
  8
LC-011-005-----0
  6
CONTINUOUS
  5
483
 10
669.514508
 20
412.12764
 30
0.0
 11
673.514527
 21
416.127659
 31
0.0
  0
LINE
  8
LC-011-005-----0
  6
CONTINUOUS
  5
484
 10
661.685855
 20
407.127414
 30
0.0
 11
665.672796
 21
411.114355
 31
0.0
  0
LINE
  8
LC-011-005-----0
  6
CONTINUOUS
  5
485
 10
666.686097
 20
412.127656
 30
0.0
 11
670.6861
 21
416.127659
 31
0.0
  0
LINE
  8
LC-011-005-----0
  6
CONTINUOUS
  5
486
 10
658.857428
 20
407.127414
 30
0.0
 11
667.857673
 21
416.127659
 31
0.0
  0
LINE
  8
LC-011-005-----0
  6
CONTINUOUS
  5
487
 10
656.029001
 20
407.127414
 30
0.0
 11
660.029
 21
411.127414
 31
0.0
  0
LINE
  8
LC-011-005-----0
  6
CONTINUOUS
  5
488
 10
661.672796
 20
412.771209
 30
0.0
 11
665.029245
 21
416.127659
 31
0.0
  0
LINE
  8
LC-011-005-----0
  6
CONTINUOUS
  5
489
 10
653.200574
 20
407.127414
 30
0.0
 11
657.200573
 21
411.127414
 31
0.0
  0
LINE
  8
LC-011-005-----0
  6
CONTINUOUS
  5
48A
 10
650.372147
 20
407.127414
 30
0.0
 11
654.372146
 21
411.127414
 31
0.0
  0
LINE
  8
LC-011-005-----0
  6
CONTINUOUS
  5
48B
 10
647.54372
 20
407.127414
 30
0.0
 11
651.543719
 21
411.127414
 31
0.0
  0
LINE
  8
LC-011-005-----0
  6
CONTINUOUS
  5
48C
 10
644.715293
 20
407.127414
 30
0.0
 11
648.715292
 21
411.127414
 31
0.0
  0
LINE
  8
LC-011-005-----0
  6
CONTINUOUS
  5
48D
 10
641.886866
 20
407.127414
 30
0.0
 11
645.886865
 21
411.127414
 31
0.0
  0
LINE
  8
LC-011-005-----0
  6
CONTINUOUS
  5
48E
 10
639.058439
 20
407.127414
 30
0.0
 11
643.058438
 21
411.127414
 31
0.0
  0
LINE
  8
LC-011-005-----0
  6
CONTINUOUS
  5
48F
 10
636.34785
 20
407.245253
 30
0.0
 11
640.230011
 21
411.127414
 31
0.0
  0
LINE
  8
LC-011-005-----0
  6
CONTINUOUS
  5
490
 10
634.709791
 20
408.435621
 30
0.0
 11
639.141855
 21
412.867685
 31
0.0
  0
LINE
  8
LC-011-005-----0
  6
CONTINUOUS
  5
491
 10
634.184164
 20
410.738421
 30
0.0
 11
639.093331
 21
415.647588
 31
0.0
  0
LINE
  8
LC-011-005-----0
  6
CONTINUOUS
  5
492
 10
634.13564
 20
413.518325
 30
0.0
 11
639.044808
 21
418.427492
 31
0.0
  0
LINE
  8
LC-011-005-----0
  6
CONTINUOUS
  5
493
 10
634.087117
 20
416.298228
 30
0.0
 11
638.996285
 21
421.207396
 31
0.0
  0
LINE
  8
LC-011-005-----0
  6
CONTINUOUS
  5
494
 10
634.038593
 20
419.078132
 30
0.0
 11
638.947761
 21
423.9873
 31
0.0
  0
LINE
  8
LC-011-005-----0
  6
CONTINUOUS
  5
495
 10
633.99007
 20
421.858036
 30
0.0
 11
638.899238
 21
426.767204
 31
0.0
  0
LINE
  8
LC-011-005-----0
  6
CONTINUOUS
  5
496
 10
632.83384
 20
423.530232
 30
0.0
 11
638.850715
 21
429.547107
 31
0.0
  0
LINE
  8
LC-011-005-----0
  6
CONTINUOUS
  5
497
 10
630.005413
 20
423.530232
 30
0.0
 11
637.351324
 21
430.876144
 31
0.0
  0
LINE
  8
LC-011-005-----0
  6
CONTINUOUS
  5
498
 10
627.176985
 20
423.530232
 30
0.0
 11
632.485795
 21
428.839042
 31
0.0
  0
LINE
  8
LC-011-005-----0
  6
CONTINUOUS
  5
499
 10
634.494497
 20
430.847744
 30
0.0
 11
634.522896
 21
430.876144
 31
0.0
  0
LINE
  8
LC-011-005-----0
  6
CONTINUOUS
  5
49A
 10
624.348558
 20
423.530232
 30
0.0
 11
628.622092
 21
427.803766
 31
0.0
  0
LINE
  8
LC-011-005-----0
  6
CONTINUOUS
  5
49B
 10
621.520131
 20
423.530232
 30
0.0
 11
625.766578
 21
427.776679
 31
0.0
  0
LINE
  8
LC-011-005-----0
  6
CONTINUOUS
  5
49C
 10
618.691704
 20
423.530232
 30
0.0
 11
622.938151
 21
427.776679
 31
0.0
  0
LINE
  8
LC-011-005-----0
  6
CONTINUOUS
  5
49D
 10
615.863277
 20
423.530232
 30
0.0
 11
620.109724
 21
427.776679
 31
0.0
  0
LINE
  8
LC-011-005-----0
  6
CONTINUOUS
  5
49E
 10
613.034849
 20
423.530232
 30
0.0
 11
617.281296
 21
427.776679
 31
0.0
  0
LINE
  8
LC-011-005-----0
  6
CONTINUOUS
  5
49F
 10
610.206422
 20
423.530232
 30
0.0
 11
614.452869
 21
427.776679
 31
0.0
  0
LINE
  8
LC-011-005-----0
  6
CONTINUOUS
  5
4A0
 10
607.377995
 20
423.530232
 30
0.0
 11
611.624442
 21
427.776679
 31
0.0
  0
LINE
  8
LC-011-005-----0
  6
CONTINUOUS
  5
4A1
 10
604.549568
 20
423.530232
 30
0.0
 11
608.796014
 21
427.776679
 31
0.0
  0
LINE
  8
LC-011-005-----0
  6
CONTINUOUS
  5
4A2
 10
601.721141
 20
423.530232
 30
0.0
 11
605.967587
 21
427.776678
 31
0.0
  0
LINE
  8
LC-011-005-----0
  6
CONTINUOUS
  5
4A3
 10
598.892713
 20
423.530232
 30
0.0
 11
603.13916
 21
427.776678
 31
0.0
  0
LINE
  8
LC-011-005-----0
  6
CONTINUOUS
  5
4A4
 10
596.064286
 20
423.530232
 30
0.0
 11
600.310733
 21
427.776678
 31
0.0
  0
LINE
  8
LC-011-005-----0
  6
CONTINUOUS
  5
4A5
 10
587.356502
 20
417.650875
 30
0.0
 11
597.482305
 21
427.776678
 31
0.0
  0
LINE
  8
LC-011-005-----0
  6
CONTINUOUS
  5
4A6
 10
584.668925
 20
417.791725
 30
0.0
 11
594.653878
 21
427.776678
 31
0.0
  0
LINE
  8
LC-011-005-----0
  6
CONTINUOUS
  5
4A7
 10
581.981348
 20
417.932574
 30
0.0
 11
585.852607
 21
421.803834
 31
0.0
  0
LINE
  8
LC-011-005-----0
  6
CONTINUOUS
  5
4A8
 10
588.494497
 20
424.445724
 30
0.0
 11
591.825451
 21
427.776678
 31
0.0
  0
LINE
  8
LC-011-005-----0
  6
CONTINUOUS
  5
4A9
 10
579.29377
 20
418.073424
 30
0.0
 11
583.165029
 21
421.944683
 31
0.0
  0
LINE
  8
LC-011-005-----0
  6
CONTINUOUS
  5
4AA
 10
588.494497
 20
427.274151
 30
0.0
 11
588.997024
 21
427.776678
 31
0.0
  0
LINE
  8
LC-011-005-----0
  6
CONTINUOUS
  5
4AB
 10
576.704396
 20
418.312477
 30
0.0
 11
580.477451
 21
422.085532
 31
0.0
  0
LINE
  8
LC-011-005-----0
  6
CONTINUOUS
  5
4AC
 10
574.828355
 20
419.264864
 30
0.0
 11
578.413781
 21
422.85029
 31
0.0
  0
LINE
  8
LC-011-005-----0
  6
CONTINUOUS
  5
4AD
 10
573.557806
 20
420.822742
 30
0.0
 11
576.999568
 21
424.264503
 31
0.0
  0
LINE
  8
LC-011-005-----0
  6
CONTINUOUS
  5
4AE
 10
572.994994
 20
423.088357
 30
0.0
 11
575.585354
 21
425.678717
 31
0.0
  0
LINE
  8
LC-011-005-----0
  6
CONTINUOUS
  5
4AF
 10
570.720532
 20
423.642322
 30
0.0
 11
573.636625
 21
426.558415
 31
0.0
  0
LINE
  8
LC-011-005-----0
  6
CONTINUOUS
  5
4B0
 10
569.494891
 20
425.245108
 30
0.0
 11
570.949048
 21
426.699264
 31
0.0
  0
ENDBLK
  8
0
  5
4B1
  0
BLOCK
  8
0
  5
4B3
  2
*X59
 70
    65
 10
807.1415
 20
533.105558
 30
0.0
  3
*X59
  0
LINE
  8
LC-011-005-----0
  6
CONTINUOUS
  5
4B4
 10
821.60513
 20
533.105563
 30
0.0
 11
823.102483
 21
534.602916
 31
0.0
  0
LINE
  8
LC-011-005-----0
  6
CONTINUOUS
  5
4B5
 10
818.776719
 20
533.105579
 30
0.0
 11
822.753383
 21
537.082243
 31
0.0
  0
LINE
  8
LC-011-005-----0
  6
CONTINUOUS
  5
4B6
 10
815.948307
 20
533.105595
 30
0.0
 11
819.948285
 21
537.105573
 31
0.0
  0
LINE
  8
LC-011-005-----0
  6
CONTINUOUS
  5
4B7
 10
813.119896
 20
533.105611
 30
0.0
 11
817.119874
 21
537.105588
 31
0.0
  0
LINE
  8
LC-011-005-----0
  6
CONTINUOUS
  5
4B8
 10
810.291485
 20
533.105626
 30
0.0
 11
814.291462
 21
537.105604
 31
0.0
  0
LINE
  8
LC-011-005-----0
  6
CONTINUOUS
  5
4B9
 10
807.463073
 20
533.105642
 30
0.0
 11
812.102484
 21
537.745053
 31
0.0
  0
LINE
  8
LC-011-005-----0
  6
CONTINUOUS
  5
4BA
 10
807.185982
 20
535.656978
 30
0.0
 11
812.102513
 21
540.573509
 31
0.0
  0
LINE
  8
LC-011-005-----0
  6
CONTINUOUS
  5
4BB
 10
807.236171
 20
538.535594
 30
0.0
 11
812.102541
 21
543.401964
 31
0.0
  0
LINE
  8
LC-011-005-----0
  6
CONTINUOUS
  5
4BC
 10
807.286359
 20
541.414209
 30
0.0
 11
812.102569
 21
546.230419
 31
0.0
  0
LINE
  8
LC-011-005-----0
  6
CONTINUOUS
  5
4BD
 10
813.677669
 20
547.805519
 30
0.0
 11
814.10563
 21
548.23348
 31
0.0
  0
LINE
  8
LC-011-005-----0
  6
CONTINUOUS
  5
4BE
 10
807.336547
 20
544.292824
 30
0.0
 11
813.349779
 21
550.306057
 31
0.0
  0
LINE
  8
LC-011-005-----0
  6
CONTINUOUS
  5
4BF
 10
807.386735
 20
547.17144
 30
0.0
 11
812.471234
 21
552.255939
 31
0.0
  0
LINE
  8
LC-011-005-----0
  6
CONTINUOUS
  5
4C0
 10
807.436923
 20
550.050055
 30
0.0
 11
812.52131
 21
555.134442
 31
0.0
  0
LINE
  8
LC-011-005-----0
  6
CONTINUOUS
  5
4C1
 10
807.487111
 20
552.92867
 30
0.0
 11
812.571386
 21
558.012945
 31
0.0
  0
LINE
  8
LC-011-005-----0
  6
CONTINUOUS
  5
4C2
 10
807.5373
 20
555.807285
 30
0.0
 11
812.621462
 21
560.891448
 31
0.0
  0
LINE
  8
LC-011-005-----0
  6
CONTINUOUS
  5
4C3
 10
807.587488
 20
558.685901
 30
0.0
 11
812.671538
 21
563.769951
 31
0.0
  0
LINE
  8
LC-011-005-----0
  6
CONTINUOUS
  5
4C4
 10
807.637676
 20
561.564516
 30
0.0
 11
812.721614
 21
566.648454
 31
0.0
  0
LINE
  8
LC-011-005-----0
  6
CONTINUOUS
  5
4C5
 10
807.687864
 20
564.443131
 30
0.0
 11
812.77169
 21
569.526957
 31
0.0
  0
LINE
  8
LC-011-005-----0
  6
CONTINUOUS
  5
4C6
 10
807.738052
 20
567.321747
 30
0.0
 11
812.821766
 21
572.40546
 31
0.0
  0
LINE
  8
LC-011-005-----0
  6
CONTINUOUS
  5
4C7
 10
807.78824
 20
570.200362
 30
0.0
 11
812.871842
 21
575.283963
 31
0.0
  0
LINE
  8
LC-011-005-----0
  6
CONTINUOUS
  5
4C8
 10
807.838428
 20
573.078977
 30
0.0
 11
812.921918
 21
578.162466
 31
0.0
  0
LINE
  8
LC-011-005-----0
  6
CONTINUOUS
  5
4C9
 10
807.888617
 20
575.957592
 30
0.0
 11
812.971994
 21
581.040969
 31
0.0
  0
LINE
  8
LC-011-005-----0
  6
CONTINUOUS
  5
4CA
 10
807.938805
 20
578.836208
 30
0.0
 11
813.02207
 21
583.919472
 31
0.0
  0
LINE
  8
LC-011-005-----0
  6
CONTINUOUS
  5
4CB
 10
807.988993
 20
581.714823
 30
0.0
 11
813.072145
 21
586.797975
 31
0.0
  0
LINE
  8
LC-011-005-----0
  6
CONTINUOUS
  5
4CC
 10
808.039181
 20
584.593438
 30
0.0
 11
812.041288
 21
588.595545
 31
0.0
  0
LINE
  8
LC-011-005-----0
  6
CONTINUOUS
  5
4CD
 10
808.089369
 20
587.472054
 30
0.0
 11
811.900438
 21
591.283122
 31
0.0
  0
LINE
  8
LC-011-005-----0
  6
CONTINUOUS
  5
4CE
 10
808.139557
 20
590.350669
 30
0.0
 11
811.759588
 21
593.9707
 31
0.0
  0
LINE
  8
LC-011-005-----0
  6
CONTINUOUS
  5
4CF
 10
808.257648
 20
593.297186
 30
0.0
 11
811.0836
 21
596.123139
 31
0.0
  0
ENDBLK
  8
0
  5
4D0
  0
ENDSEC
  0
SECTION
  2
ENTITIES
  0
VIEWPORT
  8
LC-000
  5
7F9
 67
     1
 68
     1
 10
420.0
 20
297.0
 30
0.0
 40
840.0
 41
594.0
 69
     1
1001
ACAD
1000
MVIEW
1002
{
1070
    16
1010
0.0
1020
0.0
1030
0.0
1010
0.0
1020
0.0
1030
1.0
1040
0.0
1040
594.0
1040
420.0
1040
297.0
1040
50.0
1040
0.0
1040
0.0
1070
     0
1070
   100
1070
     1
1070
     1
1070
     0
1070
     0
1070
     0
1070
     0
1040
0.0
1040
0.0
1040
0.0
1040
1.0
1040
1.0
1040
0.0
1040
0.0
1070
     0
1002
{
1002
}
1002
}
  0
VIEWPORT
  8
0
  5
7FA
 67
     1
 68
     1
 10
0.0
 20
0.0
 30
0.0
 40
0.0
 41
0.0
 69
     1
1001
ACAD
1000
MVIEW
1002
{
1070
    16
1010
0.0
1020
0.0
1030
0.0
1010
0.0
1020
0.0
1030
1.0
1040
0.0
1040
594.0
1040
0.0
1040
0.0
1040
50.0
1040
0.0
1040
0.0
1070
     0
1070
   100
1070
     0
1070
     1
1070
     0
1070
     0
1070
     0
1070
     0
1040
0.0
1040
0.0
1040
0.0
1040
0.5
1040
0.5
1040
0.5
1040
0.5
1070
     0
1002
{
1002
}
1002
}
  0
INSERT
  8
0
  5
4D2
  2
SYM1
 10
778.335274
 20
1865.143847
 30
0.0
  0
INSERT
  8
0
  5
4D4
  2
BLK1
 10
0.0
 20
0.0
 30
0.0
  0
INSERT
  8
0
  5
4D5
  2
SYM2
 10
1356.381777
 20
827.598303
 30
0.0
  0
INSERT
  8
0
  5
4D6
  2
*X3
 10
569.494891
 20
550.619987
 30
0.0
  0
INSERT
  8
0
  5
4D7
  2
*X4
 10
578.424355
 20
553.789573
 30
0.0
  0
INSERT
  8
0
  5
4D8
  2
*X5
 10
578.424355
 20
422.99532
 30
0.0
  0
INSERT
  8
0
  5
4D9
  2
BLK2
 10
0.0
 20
0.0
 30
0.0
  0
INSERT
  8
0
  5
4DA
  2
BLK3
 10
0.0
 20
0.0
 30
0.0
  0
DIMENSION
  8
0
  5
4DB
  2
*D8
 10
540.0
 20
437.5829
 30
0.0
 11
540.0
 21
437.5829
 31
0.0
  1
DN125
 13
569.494891
 23
554.670779
 33
0.0
 14
569.494891
 24
426.775474
 34
0.0
 50
90.0
  3
LC-DIM-L-0090-02-02
  0
INSERT
  8
0
  5
4DC
  2
BLK4
 10
0.0
 20
0.0
 30
0.0
  0
INSERT
  8
0
  5
4DD
  2
SYM3
 10
1356.381777
 20
827.598303
 30
0.0
  0
INSERT
  8
0
  5
4DE
  2
BLK5
 10
0.0
 20
0.0
 30
0.0
  0
INSERT
  8
0
  5
4DF
  2
*X12
 10
812.102505
 20
537.105616
 30
0.0
  0
INSERT
  8
0
  5
4E0
  2
*X13
 10
817.52894
 20
571.990982
 30
0.0
  0
INSERT
  8
0
  5
4E1
  2
*X14
 10
875.408934
 20
571.990982
 30
0.0
  0
INSERT
  8
0
  5
4E2
  2
BLK6
 10
0.0
 20
0.0
 30
0.0
  0
INSERT
  8
0
  5
4E3
  2
BLK7
 10
0.0
 20
0.0
 30
0.0
  0
INSERT
  8
0
  5
4E4
  2
*X17
 10
639.0604
 20
414.534732
 30
0.0
  0
INSERT
  8
0
  5
4E5
  2
*X18
 10
636.198205
 20
559.782427
 30
0.0
  0
INSERT
  8
0
  5
4E6
  2
*X19
 10
638.861442
 20
417.534275
 30
0.0
  0
INSERT
  8
0
  5
4E7
  2
*X20
 10
636.505367
 20
552.513714
 30
0.0
  0
INSERT
  8
0
  5
4E8
  2
*X21
 10
542.233385
 20
292.426151
 30
0.0
  0
INSERT
  8
0
  5
4E9
  2
*X22
 10
863.508934
 20
585.490982
 30
0.0
  0
INSERT
  8
0
  5
4EA
  2
BLK8
 10
0.0
 20
0.0
 30
0.0
  0
INSERT
  8
0
  5
4EB
  2
*X24
 10
630.489732
 20
587.623139
 30
0.0
  0
INSERT
  8
0
  5
4EC
  2
*X25
 10
812.101779
 20
391.995257
 30
0.0
  0
INSERT
  8
0
  5
4ED
  2
BLK9
 10
0.0
 20
0.0
 30
0.0
  0
INSERT
  8
0
  5
4EE
  2
*X27
 10
812.102505
 20
406.627686
 30
0.0
  0
INSERT
  8
0
  5
4EF
  2
BLK10
 10
0.0
 20
0.0
 30
0.0
  0
INSERT
  8
0
  5
4F0
  2
*X29
 10
806.359138
 20
587.623139
 30
0.0
  0
INSERT
  8
0
  5
4F1
  2
*X30
 10
996.800931
 20
517.953077
 30
0.0
  0
INSERT
  8
0
  5
4F2
  2
BLK11
 10
0.0
 20
0.0
 30
0.0
  0
INSERT
  8
0
  5
4F3
  2
BLK12
 10
0.0
 20
0.0
 30
0.0
  0
INSERT
  8
0
  5
4F4
  2
*X33
 10
875.308934
 20
585.490982
 30
0.0
  0
INSERT
  8
0
  5
4F5
  2
BLK13
 10
0.0
 20
0.0
 30
0.0
  0
INSERT
  8
0
  5
4F6
  2
*X35
 10
853.408934
 20
673.988414
 30
0.0
  0
INSERT
  8
0
  5
4F7
  2
*X36
 10
873.008934
 20
692.488414
 30
0.0
  0
INSERT
  8
0
  5
4F8
  2
BLK14
 10
0.0
 20
0.0
 30
0.0
  0
INSERT
  8
0
  5
4F9
  2
BLK15
 10
0.0
 20
0.0
 30
0.0
  0
INSERT
  8
0
  5
4FA
  2
BLK16
 10
0.0
 20
0.0
 30
0.0
  0
INSERT
  8
0
  5
4FB
  2
BLK17
 10
0.0
 20
0.0
 30
0.0
  0
INSERT
  8
0
  5
4FC
  2
BLK18
 10
0.0
 20
0.0
 30
0.0
  0
INSERT
  8
0
  5
4FD
  2
*X42
 10
812.101779
 20
535.487831
 30
0.0
  0
INSERT
  8
0
  5
4FE
  2
BLK19
 10
0.0
 20
0.0
 30
0.0
  0
DIMENSION
  8
0
  5
4FF
  2
*D44
 10
1116.0
 20
459.472053
 30
0.0
 11
1116.0
 21
459.472053
 31
0.0
  1
DN125
 13
1068.358366
 23
521.953077
 33
0.0
 14
1068.342026
 24
396.991028
 34
0.0
 50
90.0
  3
LC-DIM-L-0090-02-02
  0
DIMENSION
  8
0
  5
500
  2
*D45
 10
800.0
 20
562.906
 30
0.0
 11
800.0
 21
562.906
 31
0.0
  1
31
 13
656.5516
 23
490.723127
 33
0.0
 14
981.478401
 24
459.483412
 34
0.0
 50
90.0
  3
LC-DIM-L-0090-02-02
  0
DIMENSION
  8
0
  5
501
  2
*D46
 10
1152.0
 20
551.741836
 30
0.0
 11
1152.0
 21
551.741836
 31
0.0
  1
220-320
 13
853.344382
 23
391.995257
 33
0.0
 14
875.808934
 24
711.488414
 34
0.0
 50
90.0
  3
LC-DIM-L-0090-02-02
  0
DIMENSION
  8
0
  5
502
  2
*D47
 10
787.795968
 20
360.0
 30
0.0
 11
787.795968
 21
360.0
 31
0.0
  1
503
 13
569.494891
 23
424.178237
 33
0.0
 14
1073.328867
 24
398.326536
 34
0.0
  3
LC-DIM-L-0090-02-02
  0
DIMENSION
  8
0
  5
503
  2
*D48
 10
806.897606
 20
720.0
 30
0.0
 11
806.897606
 21
720.0
 31
0.0
  1
378
 13
627.949153
 23
599.123139
 33
0.0
 14
1005.989503
 24
583.990982
 34
0.0
  3
LC-DIM-L-0090-02-02
  0
INSERT
  8
0
  5
504
  2
BLK20
 10
0.0
 20
0.0
 30
0.0
  0
INSERT
  8
0
  5
505
  2
*X50
 10
996.018924
 20
572.490982
 30
0.0
  0
INSERT
  8
0
  5
506
  2
*X51
 10
732.161654
 20
277.869755
 30
0.0
  0
INSERT
  8
0
  5
507
  2
*X52
 10
828.720186
 20
399.402576
 30
0.0
  0
INSERT
  8
0
  5
508
  2
*X53
 10
825.857992
 20
544.650271
 30
0.0
  0
INSERT
  8
0
  5
509
  2
*X54
 10
828.521229
 20
402.402119
 30
0.0
  0
INSERT
  8
0
  5
50A
  2
*X55
 10
826.165154
 20
537.381558
 30
0.0
  0
INSERT
  8
0
  5
50B
  2
*X56
 10
627.949153
 20
587.123139
 30
0.0
  0
INSERT
  8
0
  5
50C
  2
*X57
 10
820.149519
 20
572.490982
 30
0.0
  0
INSERT
  8
0
  5
50D
  2
*X58
 10
569.494891
 20
398.905948
 30
0.0
  0
INSERT
  8
0
  5
50E
  2
*X59
 10
807.1415
 20
533.105558
 30
0.0
  0
ARC
  8
LC-002-001-RND-0
  6
CONTINUOUS
  5
510
 10
812.946087
 20
550.806061
 30
0.0
 40
0.5
 50
179.003353
 51
269.999362
  0
LINE
  8
LC-003-100-D03-0
  6
CONTINUOUS
  5
512
 10
631.615042
 20
557.923122
 30
0.0
 11
631.096625
 21
587.623139
 31
0.0
  0
LINE
  8
LC-004-002-----0
  6
CONTINUOUS
  5
514
 10
587.928167
 20
558.450933
 30
0.0
 11
578.424355
 21
558.450933
 31
0.0
  0
LINE
  8
LC-005-100-D16-0
  6
CONTINUOUS
  5
516
 10
675.138268
 20
575.615582
 30
0.0
 11
665.834065
 21
579.954204
 31
0.0
  0
LINE
  8
LC-005-100-D16-0
  6
CONTINUOUS
  5
517
 10
671.651761
 20
563.40634
 30
0.0
 11
677.089608
 21
560.87063
 31
0.0
  0
LINE
  8
LC-005-100-D16-0
  6
CONTINUOUS
  5
518
 10
671.168072
 20
564.735266
 30
0.0
 11
675.621958
 21
574.286656
 31
0.0
  0
ARC
  8
LC-005-100-D16-0
  6
CONTINUOUS
  5
519
 10
672.074379
 20
564.312648
 30
0.0
 40
1.0
 50
155.0
 51
245.0
  0
ARC
  8
LC-005-100-D16-0
  6
CONTINUOUS
  5
51A
 10
674.71565
 20
574.709275
 30
0.0
 40
1.0
 50
335.0
 51
65.0
  0
LINE
  8
LC-005-100-D16-0
  6
CONTINUOUS
  5
51B
 10
678.418534
 20
561.35432
 30
0.0
 11
684.104943
 21
573.548864
 31
0.0
  0
ARC
  8
LC-005-100-D16-0
  6
CONTINUOUS
  5
51C
 10
677.512226
 20
561.776938
 30
0.0
 40
1.0
 50
245.0
 51
335.0
  0
LINE
  8
LC-005-100-D16-0
  6
CONTINUOUS
  5
51D
 10
728.925842
 20
567.413774
 30
0.0
 11
685.358548
 21
575.095862
 31
0.0
  0
LINE
  8
LC-005-100-D16-0
  6
CONTINUOUS
  5
51E
 10
728.752194
 20
566.428966
 30
0.0
 11
685.184899
 21
574.111054
 31
0.0
  0
LINE
  8
LC-001-100-D02-0
  6
DASHDOT
 62
     2
  5
520
 10
658.397931
 20
577.168
 30
0.0
 11
650.160538
 21
576.880344
 31
0.0
  0
ARC
  8
LC-005-100-D16-0
  6
CONTINUOUS
  5
521
 10
685.011251
 20
573.126246
 30
0.0
 40
1.0
 50
80.000001
 51
155.0
  0
LINE
  8
LC-001-100-D02-0
  6
DASHDOT
 62
     2
  5
522
 10
654.135407
 20
581.142868
 30
0.0
 11
654.423063
 21
572.905475
 31
0.0
  0
CIRCLE
  8
LC-006-100-D00-0
  6
CONTINUOUS
  5
524
 10
654.279235
 20
577.024172
 30
0.0
 40
4.121207
  0
LINE
  8
LC-004-002-----0
  6
CONTINUOUS
  5
525
 10
578.437926
 20
556.23126
 30
0.0
 11
578.423979
 21
558.450933
 31
0.0
  0
LINE
  8
LC-005-100-D16-0
  6
CONTINUOUS
  5
526
 10
677.512226
 20
561.776938
 30
0.0
 11
683.198636
 21
573.971483
 31
0.0
  0
LINE
  8
LC-005-100-D16-0
  6
CONTINUOUS
  5
527
 10
672.074379
 20
564.312648
 30
0.0
 11
676.528266
 21
573.864038
 31
0.0
  0
LINE
  8
LC-005-100-D16-0
  6
CONTINUOUS
  5
528
 10
672.074379
 20
564.312648
 30
0.0
 11
677.512226
 21
561.776938
 31
0.0
  0
LINE
  8
LC-005-100-D16-0
  6
CONTINUOUS
  5
529
 10
675.560887
 20
576.52189
 30
0.0
 11
666.108279
 21
580.929714
 31
0.0
  0
ARC
  8
LC-005-100-D16-0
  6
CONTINUOUS
  5
52A
 10
685.011251
 20
573.126246
 30
0.0
 40
2.0
 50
80.000001
 51
155.0
  0
ARC
  8
LC-005-100-D16-0
  6
CONTINUOUS
  5
52B
 10
674.71565
 20
574.709275
 30
0.0
 40
2.0
 50
335.0
 51
65.0
  0
LINE
  8
LC-005-100-D16-0
  6
CONTINUOUS
  5
52C
 10
783.550237
 20
512.330602
 30
0.0
 11
787.858784
 21
521.57031
 31
0.0
  0
LINE
  8
LC-005-100-D16-0
  6
CONTINUOUS
  5
52D
 10
782.643929
 20
512.75322
 30
0.0
 11
786.952476
 21
521.992928
 31
0.0
  0
ARC
  8
LC-005-100-D16-0
  6
CONTINUOUS
  5
52E
 10
783.550237
 20
512.330602
 30
0.0
 40
1.0
 50
155.0
 51
245.0
  0
LINE
  8
LC-005-100-D16-0
  6
CONTINUOUS
  5
52F
 10
788.988084
 20
509.794892
 30
0.0
 11
783.550237
 21
512.330602
 31
0.0
  0
LINE
  8
LC-005-100-D16-0
  6
CONTINUOUS
  5
530
 10
788.565466
 20
508.888584
 30
0.0
 11
783.127619
 21
511.424294
 31
0.0
  0
ARC
  8
LC-005-100-D16-0
  6
CONTINUOUS
  5
531
 10
788.988084
 20
509.794892
 30
0.0
 40
1.0
 50
245.0
 51
335.0
  0
LINE
  8
LC-005-100-D16-0
  6
CONTINUOUS
  5
532
 10
789.894392
 20
509.372274
 30
0.0
 11
791.162246
 21
512.091197
 31
0.0
  0
LINE
  8
LC-005-100-D16-0
  6
CONTINUOUS
  5
533
 10
788.988084
 20
509.794892
 30
0.0
 11
790.255939
 21
512.513815
 31
0.0
  0
LINE
  8
LC-005-100-D16-0
  6
CONTINUOUS
  5
534
 10
791.162246
 20
512.091197
 30
0.0
 11
790.255939
 21
512.513815
 31
0.0
  0
ARC
  8
LC-005-100-D16-0
  6
CONTINUOUS
  5
535
 10
654.279235
 20
577.024172
 30
0.0
 40
5.2
 50
83.598853
 51
245.0
  0
LINE
  8
LC-005-100-D16-0
  6
CONTINUOUS
  5
536
 10
666.108279
 20
580.929714
 30
0.0
 11
654.858977
 21
582.191753
 31
0.0
  0
LINE
  8
LC-005-100-D16-0
  6
CONTINUOUS
  5
537
 10
652.08162
 20
572.311371
 30
0.0
 11
658.733933
 21
569.209347
 31
0.0
  0
LINE
  8
LC-005-100-D16-0
  6
CONTINUOUS
  5
538
 10
665.834065
 20
579.954204
 30
0.0
 11
654.747488
 21
581.197987
 31
0.0
  0
LINE
  8
LC-005-100-D16-0
  6
CONTINUOUS
  5
539
 10
652.504238
 20
573.217679
 30
0.0
 11
659.156551
 21
570.115655
 31
0.0
  0
LINE
  8
LC-005-100-D16-0
  6
CONTINUOUS
  5
53A
 10
658.733933
 20
569.209347
 30
0.0
 11
659.156551
 21
570.115655
 31
0.0
  0
ARC
  8
LC-005-100-D16-0
  6
CONTINUOUS
  5
53B
 10
682.501866
 20
433.001911
 30
0.0
 40
140.0
 50
41.580232
 51
69.361016
  0
ARC
  8
LC-005-100-D16-0
  6
CONTINUOUS
  5
53C
 10
682.501866
 20
433.001911
 30
0.0
 40
139.0
 50
41.580232
 51
89.637088
  0
ARC
  8
LC-005-100-D16-0
  6
CONTINUOUS
  5
53D
 10
784.233553
 20
523.260783
 30
0.0
 40
3.0
 50
335.0
 51
41.580232
  0
ARC
  8
LC-005-100-D16-0
  6
CONTINUOUS
  5
53E
 10
784.233553
 20
523.260783
 30
0.0
 40
4.0
 50
335.0
 51
41.580232
  0
ARC
  8
LC-005-100-D16-0
  6
CONTINUOUS
  5
53F
 10
728.578546
 20
565.444158
 30
0.0
 40
2.0
 50
6.375598
 51
80.000001
  0
ARC
  8
LC-005-100-D16-0
  6
CONTINUOUS
  5
540
 10
732.553807
 20
565.88834
 30
0.0
 40
2.0
 50
186.375598
 51
249.361016
  0
ARC
  8
LC-005-100-D16-0
  6
CONTINUOUS
  5
541
 10
728.578546
 20
565.444158
 30
0.0
 40
1.0
 50
6.375598
 51
80.000001
  0
ARC
  8
LC-005-100-D16-0
  6
CONTINUOUS
  5
542
 10
732.553807
 20
565.88834
 30
0.0
 40
3.0
 50
186.375598
 51
249.361016
  0
LINE
  8
LC-001-100-D02-0
  6
CONTINUOUS
 62
     1
  5
543
 10
677.089608
 20
560.87063
 30
0.0
 11
783.916812
 21
511.056287
 31
0.0
  0
ARC
  8
LC-005-100-D16-0
  6
CONTINUOUS
  5
544
 10
654.279235
 20
577.024172
 30
0.0
 40
4.2
 50
83.598853
 51
245.0
  0
LINE
  8
LC-005-100-D16-0
  6
DASHDOT
 62
     2
  5
545
 10
670.558021
 20
563.906073
 30
0.0
 11
665.424995
 21
572.796735
 31
0.0
  0
LINE
  8
LC-005-100-D16-0
  6
DASHDOT
 62
     2
  5
546
 10
660.699108
 20
555.904625
 30
0.0
 11
663.699108
 21
550.708473
 31
0.0
  0
LINE
  8
LC-005-100-D16-0
  6
DASHDOT
 62
     2
  5
547
 10
661.065133
 20
557.270651
 30
0.0
 11
670.191996
 21
562.540047
 31
0.0
  0
ARC
  8
LC-005-100-D16-0
  6
DASHDOT
 62
     2
  5
548
 10
661.565133
 20
556.404625
 30
0.0
 40
1.0
 50
120.0
 51
210.0
  0
ARC
  8
LC-005-100-D16-0
  6
DASHDOT
 62
     2
  5
549
 10
669.691996
 20
563.406073
 30
0.0
 40
1.0
 50
300.0
 51
30.0
  0
LINE
  8
LC-005-100-D16-0
  6
DASHDOT
 62
     2
  5
54A
 10
665.065133
 20
550.342448
 30
0.0
 11
676.717671
 21
557.070043
 31
0.0
  0
LINE
  8
LC-008-100-D01-0
  6
CONTINUOUS
  5
54C
 10
638.827516
 20
430.876144
 30
0.0
 11
639.155182
 21
412.104165
 31
0.0
  0
LINE
  8
LC-009-001-----0
  6
CONTINUOUS
  5
54E
 10
813.859138
 20
587.623139
 30
0.0
 11
812.092249
 21
587.623139
 31
0.0
  0
LINE
  8
LC-004-002-----0
  6
CONTINUOUS
  5
54F
 10
587.941739
 20
556.290975
 30
0.0
 11
587.928167
 21
558.450933
 31
0.0
  0
LINE
  8
LC-008-100-D01-0
  6
CONTINUOUS
  5
550
 10
807.1415
 20
533.105644
 30
0.0
 11
808.157669
 21
591.389477
 31
0.0
  0
LINE
  8
LC-008-100-D01-0
  6
CONTINUOUS
  5
551
 10
635.943119
 20
596.123139
 30
0.0
 11
636.737363
 21
550.620955
 31
0.0
  0
LINE
  8
LC-004-002-----0
  6
CONTINUOUS
  5
552
 10
580.147611
 20
555.258445
 30
0.0
 11
578.444106
 21
555.247741
 31
0.0
  0
LINE
  8
LC-004-002-----0
  6
CONTINUOUS
  5
553
 10
586.882596
 20
553.991747
 30
0.0
 11
586.523636
 21
555.298507
 31
0.0
  0
LINE
  8
LC-004-002-----0
  6
CONTINUOUS
  5
554
 10
583.694583
 20
553.971716
 30
0.0
 11
583.335623
 21
555.278476
 31
0.0
  0
ARC
  8
LC-010-002-RND-0
  6
CONTINUOUS
  5
556
 10
586.74374
 20
553.953604
 30
0.0
 40
0.144
 50
246.499934
 51
15.36
  0
LINE
  8
LC-003-100-D03-0
  6
CONTINUOUS
  5
557
 10
666.169848
 20
412.127659
 30
0.0
 11
808.602486
 21
412.126864
 31
0.0
  0
LINE
  8
LC-008-100-D01-0
  6
CONTINUOUS
  5
558
 10
662.666896
 20
416.127659
 30
0.0
 11
823.102483
 21
416.127659
 31
0.0
  0
ARC
  8
LC-010-002-RND-0
  6
CONTINUOUS
  5
559
 10
583.555727
 20
553.933573
 30
0.0
 40
0.144
 50
246.499934
 51
15.36
  0
ARC
  8
LC-008-100-D01-0
  6
CONTINUOUS
  5
55A
 10
662.666896
 20
415.133559
 30
0.0
 40
0.9941
 50
90.0
 51
180.0
  0
ARC
  8
LC-008-100-D01-0
  6
CONTINUOUS
  5
55B
 10
660.678696
 20
412.121514
 30
0.0
 40
0.9941
 50
270.0
 51
0.0
  0
ARC
  8
LC-008-100-D01-0
  6
DASHED
  5
55C
 10
640.14913
 20
412.121514
 30
0.0
 40
0.9941
 50
181.0
 51
270.0
  0
ARC
  8
LC-003-100-D03-0
  6
CONTINUOUS
  5
55D
 10
663.684595
 20
409.115614
 30
0.0
 40
1.9882
 50
270.0
 51
0.0
  0
ARC
  8
LC-003-100-D03-0
  6
CONTINUOUS
  5
55E
 10
666.169846
 20
411.630609
 30
0.0
 40
0.49705
 50
89.99968
 51
180.0
  0
LINE
  8
LC-003-100-D03-0
  6
CONTINUOUS
  5
55F
 10
665.672796
 20
409.115614
 30
0.0
 11
665.672796
 21
411.630609
 31
0.0
  0
LINE
  8
LC-003-100-D03-0
  6
CONTINUOUS
  5
560
 10
637.177892
 20
407.127414
 30
0.0
 11
663.684595
 21
407.127414
 31
0.0
  0
LINE
  8
LC-008-100-D01-0
  6
CONTINUOUS
  5
561
 10
661.672796
 20
415.133559
 30
0.0
 11
661.672796
 21
412.121514
 31
0.0
  0
LINE
  8
LC-008-100-D01-0
  6
CONTINUOUS
  5
562
 10
640.14913
 20
411.127414
 30
0.0
 11
660.678696
 21
411.127414
 31
0.0
  0
LINE
  8
LC-004-002-----0
  6
CONTINUOUS
  5
563
 10
578.444106
 20
555.247741
 30
0.0
 11
578.437926
 21
556.23126
 31
0.0
  0
LINE
  8
LC-004-002-----0
  6
CONTINUOUS
  5
564
 10
586.523636
 20
555.298507
 30
0.0
 11
587.947918
 21
555.307456
 31
0.0
  0
LINE
  8
LC-004-002-----0
  6
CONTINUOUS
  5
565
 10
996.800931
 20
517.953077
 30
0.0
 11
1073.328867
 21
517.953077
 31
0.0
  0
LINE
  8
LC-009-001-----0
  6
CONTINUOUS
  5
566
 10
632.090877
 20
587.623139
 30
0.0
 11
631.096625
 21
587.623139
 31
0.0
  0
ARC
  8
LC-005-100-D16-0
  6
DASHDOT
 62
     2
  5
567
 10
664.565133
 20
551.208473
 30
0.0
 40
1.0
 50
210.0
 51
300.0
  0
LINE
  8
LC-005-100-D16-0
  6
DASHDOT
 62
     2
  5
568
 10
709.913858
 20
526.33626
 30
0.0
 11
678.631884
 21
557.618231
 31
0.0
  0
LINE
  8
LC-005-100-D16-0
  6
DASHDOT
 62
     2
  5
569
 10
709.206751
 20
525.629153
 30
0.0
 11
677.924778
 21
556.911125
 31
0.0
  0
ARC
  8
LC-005-100-D16-0
  6
DASHDOT
 62
     2
  5
56A
 10
677.217671
 20
556.204018
 30
0.0
 40
1.0
 50
45.000001
 51
120.0
  0
ARC
  8
LC-003-100-D03-0
  6
CONTINUOUS
  5
56B
 10
633.010825
 20
595.623139
 30
0.0
 40
0.5
 50
90.0
 51
177.0
  0
LINE
  8
LC-003-100-D03-0
  6
CONTINUOUS
  5
56C
 10
632.090877
 20
587.623139
 30
0.0
 11
632.511511
 21
595.649306
 31
0.0
  0
LINE
  8
LC-003-100-D03-0
  6
CONTINUOUS
  5
56D
 10
633.010825
 20
596.123139
 30
0.0
 11
635.943119
 21
596.123139
 31
0.0
  0
LINE
  8
LC-004-002-----0
  6
CONTINUOUS
  5
56E
 10
587.947918
 20
555.307456
 30
0.0
 11
587.941739
 21
556.290975
 31
0.0
  0
LINE
  8
LC-009-001-----0
  6
CONTINUOUS
  5
56F
 10
808.40575
 20
596.123139
 30
0.0
 11
811.172301
 21
596.123139
 31
0.0
  0
ARC
  8
LC-009-001-----0
  6
CONTINUOUS
  5
570
 10
811.172301
 20
595.623139
 30
0.0
 40
0.5
 50
3.0
 51
90.0
  0
LINE
  8
LC-009-001-----0
  6
CONTINUOUS
  5
571
 10
812.092249
 20
587.623139
 30
0.0
 11
811.671615
 21
595.649307
 31
0.0
  0
LINE
  8
LC-003-100-D03-0
  6
CONTINUOUS
  5
572
 10
821.374068
 20
537.105565
 30
0.0
 11
821.278045
 21
542.606678
 31
0.0
  0
LINE
  8
LC-003-100-D03-0
  6
CONTINUOUS
  5
573
 10
634.196046
 20
410.057666
 30
0.0
 11
633.960882
 21
423.530233
 31
0.0
  0
LINE
  8
LC-009-001-----0
  6
CONTINUOUS
  5
574
 10
812.446163
 20
550.814758
 30
0.0
 11
813.0865
 21
587.623139
 31
0.0
  0
LINE
  8
LC-004-002-----0
  6
CONTINUOUS
  5
575
 10
580.147611
 20
555.258445
 30
0.0
 11
583.498307
 21
553.801516
 31
0.0
  0
ARC
  8
LC-003-100-D03-0
  6
CONTINUOUS
  5
576
 10
637.177892
 20
410.109715
 30
0.0
 40
2.9823
 50
181.000001
 51
270.0
  0
LINE
  8
LC-005-100-D16-0
  6
DASHDOT
 62
     2
  5
577
 10
664.565133
 20
551.208473
 30
0.0
 11
676.217671
 21
557.936068
 31
0.0
  0
LINE
  8
LC-004-002-----0
  6
CONTINUOUS
  5
578
 10
866.908934
 20
690.488414
 30
0.0
 11
865.908934
 21
690.488414
 31
0.0
  0
LINE
  8
LC-005-100-D16-0
  6
DASHDOT
 62
     2
  5
579
 10
661.565133
 20
556.404625
 30
0.0
 11
670.691996
 21
561.674022
 31
0.0
  0
LINE
  8
LC-004-002-----0
  6
CONTINUOUS
  5
57A
 10
583.335623
 20
555.278476
 30
0.0
 11
586.68632
 21
553.821547
 31
0.0
  0
LINE
  8
LC-005-100-D16-0
  6
DASHDOT
 62
     2
  5
57B
 10
661.565133
 20
556.404625
 30
0.0
 11
664.565133
 21
551.208473
 31
0.0
  0
LINE
  8
LC-004-002-----0
  6
CONTINUOUS
  5
57C
 10
587.928167
 20
422.99532
 30
0.0
 11
578.424355
 21
422.99532
 31
0.0
  0
LINE
  8
LC-004-002-----0
  6
CONTINUOUS
  5
57D
 10
578.437926
 20
425.214993
 30
0.0
 11
578.423979
 21
422.99532
 31
0.0
  0
LINE
  8
LC-004-002-----0
  6
CONTINUOUS
  5
57E
 10
587.941739
 20
425.155278
 30
0.0
 11
587.928167
 21
422.99532
 31
0.0
  0
LINE
  8
LC-004-002-----0
  6
CONTINUOUS
  5
57F
 10
580.147611
 20
426.187808
 30
0.0
 11
578.444106
 21
426.198512
 31
0.0
  0
LINE
  8
LC-005-100-D16-0
  6
DASHDOT
 62
     2
  5
580
 10
671.424047
 20
564.406073
 30
0.0
 11
666.209147
 21
573.438544
 31
0.0
  0
LINE
  8
LC-004-002-----0
  6
CONTINUOUS
  5
581
 10
586.882596
 20
427.454506
 30
0.0
 11
586.523636
 21
426.147746
 31
0.0
  0
ARC
  8
LC-005-100-D16-0
  6
DASHDOT
 62
     2
  5
582
 10
677.217671
 20
556.204018
 30
0.0
 40
2.0
 50
45.000001
 51
120.0
  0
CIRCLE
  8
LC-006-100-D00-0
  6
CONTINUOUS
  5
583
 10
654.279235
 20
577.024172
 30
0.0
 40
4.121207
  0
LINE
  8
LC-004-002-----0
  6
CONTINUOUS
  5
584
 10
583.694583
 20
427.474537
 30
0.0
 11
583.335623
 21
426.167777
 31
0.0
  0
ARC
  8
LC-010-002-RND-0
  6
CONTINUOUS
  5
585
 10
586.74374
 20
427.492649
 30
0.0
 40
0.144
 50
344.64
 51
113.500066
  0
ARC
  8
LC-010-002-RND-0
  6
CONTINUOUS
  5
586
 10
583.555727
 20
427.51268
 30
0.0
 40
0.144
 50
344.64
 51
113.500066
  0
LINE
  8
LC-004-002-----0
  6
CONTINUOUS
  5
587
 10
578.444106
 20
426.198512
 30
0.0
 11
578.437926
 21
425.214993
 31
0.0
  0
ARC
  8
LC-005-100-D16-0
  6
DASHDOT
 62
     2
  5
588
 10
669.691996
 20
563.406073
 30
0.0
 40
2.0
 50
300.0
 51
30.0
  0
LINE
  8
LC-008-100-D01-0
  6
DASHDOT
 62
     2
  5
589
 10
723.065133
 20
449.883501
 30
0.0
 11
731.894167
 21
454.980946
 31
0.0
  0
LINE
  8
LC-004-002-----0
  6
CONTINUOUS
  5
58A
 10
586.523636
 20
426.147746
 30
0.0
 11
587.947918
 21
426.138797
 31
0.0
  0
LINE
  8
LC-008-100-D01-0
  6
DASHDOT
 62
     2
  5
58B
 10
722.565133
 20
450.749526
 30
0.0
 11
731.394167
 21
455.846971
 31
0.0
  0
LINE
  8
LC-004-002-----0
  6
CONTINUOUS
  5
58C
 10
587.947918
 20
426.138797
 30
0.0
 11
587.941739
 21
425.155278
 31
0.0
  0
ARC
  8
LC-008-100-D01-0
  6
DASHDOT
 62
     2
  5
58D
 10
723.065133
 20
449.883501
 30
0.0
 40
1.0
 50
120.0
 51
210.0
  0
LINE
  8
LC-004-002-----0
  6
CONTINUOUS
  5
58E
 10
580.147611
 20
426.187808
 30
0.0
 11
583.498307
 21
427.644737
 31
0.0
  0
LINE
  8
LC-004-002-----0
  6
CONTINUOUS
  5
58F
 10
583.335623
 20
426.167777
 30
0.0
 11
586.68632
 21
427.624706
 31
0.0
  0
LINE
  8
LC-008-100-D01-0
  6
DASHDOT
 62
     2
  5
590
 10
726.065133
 20
444.687348
 30
0.0
 11
723.065133
 21
449.883501
 31
0.0
  0
LINE
  8
LC-004-002-----0
  6
CONTINUOUS
  5
591
 10
809.25912
 20
598.123139
 30
0.0
 11
810.959155
 21
598.123139
 31
0.0
  0
LINE
  8
LC-008-100-D01-0
  6
DASHDOT
 62
     2
  5
592
 10
725.199108
 20
444.187348
 30
0.0
 11
722.199108
 21
449.383501
 31
0.0
  0
ARC
  8
LC-008-100-D01-0
  6
DASHDOT
 62
     2
  5
593
 10
726.065133
 20
444.687348
 30
0.0
 40
1.0
 50
210.0
 51
300.0
  0
LINE
  8
LC-008-100-D01-0
  6
DASHDOT
 62
     2
  5
594
 10
726.565133
 20
443.821323
 30
0.0
 11
729.16321
 21
445.321323
 31
0.0
  0
LINE
  8
LC-008-100-D01-0
  6
DASHDOT
 62
     2
  5
595
 10
726.065133
 20
444.687348
 30
0.0
 11
728.66321
 21
446.187348
 31
0.0
  0
LINE
  8
LC-008-100-D01-0
  6
DASHDOT
 62
     2
  5
596
 10
729.16321
 20
445.321323
 30
0.0
 11
728.66321
 21
446.187348
 31
0.0
  0
ARC
  8
LC-005-100-D16-0
  6
DASHDOT
 62
     2
  5
597
 10
654.279235
 20
577.024172
 30
0.0
 40
5.2
 50
48.598853
 51
210.0
  0
LINE
  8
LC-005-100-D16-0
  6
DASHDOT
 62
     2
  5
598
 10
666.209147
 20
573.438544
 30
0.0
 11
657.718135
 21
580.924681
 31
0.0
  0
LINE
  8
LC-005-100-D16-0
  6
DASHDOT
 62
     2
  5
599
 10
649.775903
 20
574.424172
 30
0.0
 11
653.44591
 21
568.067532
 31
0.0
  0
LINE
  8
LC-005-100-D16-0
  6
DASHDOT
 62
     2
  5
59A
 10
665.424995
 20
572.796735
 30
0.0
 11
657.056808
 21
580.174582
 31
0.0
  0
LINE
  8
LC-005-100-D16-0
  6
DASHDOT
 62
     2
  5
59B
 10
650.641928
 20
574.924172
 30
0.0
 11
654.311936
 21
568.567532
 31
0.0
  0
LINE
  8
LC-001-100-D02-0
  6
CONTINUOUS
 62
     1
  5
59C
 10
661.109406
 20
414.918685
 30
0.0
 11
639.112757
 21
414.534732
 31
0.0
  0
LINE
  8
LC-005-100-D16-0
  6
DASHDOT
 62
     2
  5
59D
 10
653.44591
 20
568.067532
 30
0.0
 11
654.311936
 21
568.567532
 31
0.0
  0
ARC
  8
LC-008-100-D01-0
  6
DASHDOT
 62
     2
  5
59E
 10
594.790086
 20
442.860206
 30
0.0
 40
140.0
 50
6.580232
 51
34.361016
  0
ARC
  8
LC-008-100-D01-0
  6
DASHDOT
 62
     2
  5
59F
 10
594.790086
 20
442.860206
 30
0.0
 40
139.0
 50
6.580232
 51
54.637088
  0
ARC
  8
LC-008-100-D01-0
  6
DASHDOT
 62
     2
  5
5A0
 10
729.894167
 20
458.445047
 30
0.0
 40
3.0
 50
300.0
 51
6.580232
  0
ARC
  8
LC-008-100-D01-0
  6
DASHDOT
 62
     2
  5
5A1
 10
729.894167
 20
458.445047
 30
0.0
 40
4.0
 50
300.0
 51
6.580232
  0
ARC
  8
LC-005-100-D16-0
  6
DASHDOT
 62
     2
  5
5A2
 10
708.499644
 20
524.922046
 30
0.0
 40
2.0
 50
331.375598
 51
45.000001
  0
ARC
  8
LC-005-100-D16-0
  6
DASHDOT
 62
     2
  5
5A3
 10
712.01076
 20
523.005782
 30
0.0
 40
2.0
 50
151.375598
 51
214.361016
  0
ARC
  8
LC-005-100-D16-0
  6
DASHDOT
 62
     2
  5
5A4
 10
708.499644
 20
524.922046
 30
0.0
 40
1.0
 50
331.375598
 51
45.000001
  0
ARC
  8
LC-005-100-D16-0
  6
DASHDOT
 62
     2
  5
5A5
 10
712.01076
 20
523.005782
 30
0.0
 40
3.0
 50
151.375598
 51
214.361016
  0
LINE
  8
LC-008-100-D01-0
  6
DASHDOT
 62
     2
  5
5A6
 10
663.699108
 20
550.708473
 30
0.0
 11
722.634497
 21
448.629385
 31
0.0
  0
ARC
  8
LC-005-100-D16-0
  6
DASHDOT
 62
     2
  5
5A7
 10
654.279235
 20
577.024172
 30
0.0
 40
4.2
 50
48.598853
 51
210.0
  0
ARC
  8
LC-003-100-D03-0
  6
CONTINUOUS
  5
5A8
 10
577.965392
 20
423.120364
 30
0.0
 40
4.970501
 50
180.0
 51
267.000005
  0
LINE
  8
LC-003-100-D03-0
  6
CONTINUOUS
  5
5A9
 10
589.794049
 20
417.523129
 30
0.0
 11
593.258151
 21
423.523129
 31
0.0
  0
LINE
  8
LC-003-100-D03-0
  6
CONTINUOUS
  5
5AA
 10
589.794049
 20
417.523129
 30
0.0
 11
577.705256
 21
418.156675
 31
0.0
  0
LINE
  8
LC-008-100-D01-0
  6
CONTINUOUS
  5
5AB
 10
588.494497
 20
490.726677
 30
0.0
 11
588.494497
 21
557.688477
 31
0.0
  0
LINE
  8
LC-008-100-D01-0
  6
CONTINUOUS
  5
5AC
 10
588.494497
 20
490.726677
 30
0.0
 11
588.494497
 21
423.764879
 31
0.0
  0
ARC
  8
LC-008-100-D01-0
  6
CONTINUOUS
  5
5AD
 10
586.506297
 20
423.757776
 30
0.0
 40
1.9882
 50
270.000017
 51
0.0
  0
LINE
  8
LC-008-100-D01-0
  6
CONTINUOUS
  5
5AE
 10
586.506297
 20
421.769576
 30
0.0
 11
579.106701
 21
422.15737
 31
0.0
  0
LINE
  8
LC-008-100-D01-0
  6
CONTINUOUS
  5
5AF
 10
579.106701
 20
422.15737
 30
0.0
 11
574.76478
 21
426.49929
 31
0.0
  0
LINE
  8
LC-003-100-D03-0
  6
CONTINUOUS
  5
5B0
 10
569.494891
 20
424.178237
 30
0.0
 11
569.494891
 21
426.775474
 31
0.0
  0
LINE
  8
LC-008-100-D01-0
  6
CONTINUOUS
  5
5B1
 10
574.76478
 20
426.49929
 30
0.0
 11
569.494891
 21
426.775474
 31
0.0
  0
LINE
  8
LC-003-100-D03-0
  6
CONTINUOUS
  5
5B2
 10
572.994891
 20
423.523127
 30
0.0
 11
569.965928
 21
423.681869
 31
0.0
  0
ARC
  8
LC-003-100-D03-0
  6
CONTINUOUS
  5
5B3
 10
569.991941
 20
424.178237
 30
0.0
 40
0.49705
 50
180.0
 51
267.0
  0
LINE
  8
LC-003-100-D03-0
  6
CONTINUOUS
 62
     7
  5
5B4
 10
572.994891
 20
423.120364
 30
0.0
 11
572.994891
 21
423.523127
 31
0.0
  0
ARC
  8
LC-008-100-D01-0
  6
CONTINUOUS
  5
5B5
 10
586.506297
 20
557.688477
 30
0.0
 40
1.9882
 50
0.0
 51
89.999983
  0
LINE
  8
LC-003-100-D03-0
  6
CONTINUOUS
  5
5B6
 10
589.794049
 20
563.923125
 30
0.0
 11
577.705256
 21
563.289579
 31
0.0
  0
LINE
  8
LC-003-100-D03-0
  6
CONTINUOUS
  5
5B7
 10
589.794049
 20
563.923125
 30
0.0
 11
593.258151
 21
557.923124
 31
0.0
  0
LINE
  8
LC-008-100-D01-0
  6
CONTINUOUS
  5
5B8
 10
586.506297
 20
559.676677
 30
0.0
 11
579.106701
 21
559.288884
 31
0.0
  0
LINE
  8
LC-008-100-D01-0
  6
CONTINUOUS
  5
5B9
 10
579.106701
 20
559.288884
 30
0.0
 11
574.76478
 21
554.946963
 31
0.0
  0
LINE
  8
LC-003-100-D03-0
  6
CONTINUOUS
  5
5BA
 10
569.494891
 20
557.268016
 30
0.0
 11
569.494891
 21
554.670779
 31
0.0
  0
ARC
  8
LC-003-100-D03-0
  6
CONTINUOUS
  5
5BB
 10
569.991941
 20
557.268016
 30
0.0
 40
0.49705
 50
93.0
 51
180.0
  0
LINE
  8
LC-003-100-D03-0
  6
CONTINUOUS
 62
     7
  5
5BC
 10
572.994891
 20
558.325891
 30
0.0
 11
572.994891
 21
557.923126
 31
0.0
  0
LINE
  8
LC-003-100-D03-0
  6
CONTINUOUS
  5
5BD
 10
572.994891
 20
557.923126
 30
0.0
 11
569.965928
 21
557.764385
 31
0.0
  0
LINE
  8
LC-008-100-D01-0
  6
CONTINUOUS
  5
5BE
 10
574.76478
 20
554.946963
 30
0.0
 11
569.494891
 21
554.670779
 31
0.0
  0
ARC
  8
LC-003-100-D03-0
  6
CONTINUOUS
  5
5BF
 10
577.965392
 20
558.325891
 30
0.0
 40
4.970501
 50
92.999995
 51
180.0
  0
LINE
  8
LC-008-100-D01-0
  6
CONTINUOUS
  5
5C0
 10
628.494497
 20
553.676675
 30
0.0
 11
628.494497
 21
427.77668
 31
0.0
  0
LINE
  8
LC-008-100-D01-0
  6
CONTINUOUS
  5
5C1
 10
634.494497
 20
429.387231
 30
0.0
 11
634.494497
 21
552.068981
 31
0.0
  0
LINE
  8
LC-008-100-D01-0
  6
CONTINUOUS
  5
5C2
 10
634.494497
 20
430.876144
 30
0.0
 11
638.827516
 21
430.876144
 31
0.0
  0
LINE
  8
LC-008-100-D01-0
  6
CONTINUOUS
  5
5C3
 10
628.494497
 20
427.769578
 30
0.0
 11
634.494497
 21
429.377271
 31
0.0
  0
LINE
  8
LC-008-100-D01-0
  6
CONTINUOUS
  5
5C4
 10
628.494497
 20
553.676675
 30
0.0
 11
634.494497
 21
552.068981
 31
0.0
  0
LINE
  8
LC-008-100-D01-0
  6
CONTINUOUS
  5
5C5
 10
634.96188
 20
550.619987
 30
0.0
 11
636.737362
 21
550.620955
 31
0.0
  0
ARC
  8
LC-008-100-D01-0
  6
CONTINUOUS
  5
5C6
 10
634.961608
 20
551.119987
 30
0.0
 40
0.5
 50
180.031213
 51
270.031213
  0
LINE
  8
LC-003-100-D03-0
  6
CONTINUOUS
  5
5C7
 10
633.960881
 20
423.530232
 30
0.0
 11
593.258151
 21
423.530231
 31
0.0
  0
LINE
  8
LC-008-100-D01-0
  6
CONTINUOUS
  5
5C8
 10
628.494497
 20
427.77668
 30
0.0
 11
588.494497
 21
427.776678
 31
0.0
  0
LINE
  8
LC-003-100-D03-0
  6
CONTINUOUS
  5
5C9
 10
631.615042
 20
557.923123
 30
0.0
 11
593.258151
 21
557.923124
 31
0.0
  0
LINE
  8
LC-008-100-D01-0
  6
CONTINUOUS
  5
5CA
 10
628.494497
 20
553.676675
 30
0.0
 11
588.494497
 21
553.676677
 31
0.0
  0
LINE
  8
LC-003-100-D03-0
  6
CONTINUOUS
  5
5CB
 10
569.494891
 20
554.670779
 30
0.0
 11
569.494891
 21
426.775474
 31
0.0
  0
LINE
  8
LC-001-100-D02-0
  6
DASHDOT
 62
     2
  5
5CC
 10
569.494891
 20
490.723127
 30
0.0
 11
656.5516
 21
490.723127
 31
0.0
  0
LINE
  8
LC-005-100-D16-0
  6
DASHDOT
 62
     2
  5
5CD
 10
661.818028
 20
557.524172
 30
0.0
 11
661.818028
 21
567.790225
 31
0.0
  0
LINE
  8
LC-001-100-D02-0
  6
DASHDOT
 62
     2
  5
5CE
 10
848.057718
 20
562.035843
 30
0.0
 11
839.820325
 21
561.748187
 31
0.0
  0
LINE
  8
LC-005-100-D16-0
  6
DASHDOT
 62
     2
  5
5CF
 10
649.279235
 20
555.524172
 30
0.0
 11
649.279235
 21
549.524172
 31
0.0
  0
LINE
  8
LC-005-100-D16-0
  6
DASHDOT
 62
     2
  5
5D0
 10
650.279235
 20
556.524172
 30
0.0
 11
660.818028
 21
556.524172
 31
0.0
  0
ARC
  8
LC-005-100-D16-0
  6
DASHDOT
 62
     2
  5
5D1
 10
650.279235
 20
555.524172
 30
0.0
 40
1.0
 50
90.0
 51
180.0
  0
LINE
  8
LC-004-002-----0
  6
CONTINUOUS
  5
5D2
 10
814.104075
 20
401.104136
 30
0.0
 11
816.290493
 21
401.104136
 31
0.0
  0
ARC
  8
LC-010-002-RND-0
  6
CONTINUOUS
  5
5D3
 10
809.602483
 20
399.405948
 30
0.0
 40
0.5
 50
180.0
 51
270.0
  0
LINE
  8
LC-001-100-D02-0
  6
DASHDOT
 62
     2
  5
5D4
 10
843.795194
 20
566.010712
 30
0.0
 11
844.08285
 21
557.773319
 31
0.0
  0
ARC
  8
LC-010-002-RND-0
  6
CONTINUOUS
  5
5D5
 10
813.605734
 20
549.806054
 30
0.0
 40
0.5
 50
0.0
 51
89.999362
  0
LINE
  8
LC-001-100-D02-0
  6
CONTINUOUS
 62
     1
  5
5D6
 10
636.198205
 20
581.509297
 30
0.0
 11
638.861442
 21
428.932539
 31
0.0
  0
ARC
  8
LC-005-100-D16-0
  6
DASHDOT
 62
     2
  5
5D7
 10
660.818028
 20
557.524172
 30
0.0
 40
1.0
 50
270.0
 51
360.0
  0
LINE
  8
LC-004-002-----0
  6
CONTINUOUS
  5
5D8
 10
814.105602
 20
548.109503
 30
0.0
 11
816.290493
 21
548.109503
 31
0.0
  0
LINE
  8
LC-004-002-----0
  6
CONTINUOUS
  5
5D9
 10
812.60248
 20
537.105614
 30
0.0
 11
822.602486
 21
537.105558
 31
0.0
  0
ARC
  8
LC-010-002-RND-0
  6
CONTINUOUS
  5
5DA
 10
808.602483
 20
411.605636
 30
0.0
 40
0.5
 50
0.0
 51
89.999681
  0
ARC
  8
LC-010-002-RND-0
  6
CONTINUOUS
  5
5DB
 10
816.290493
 20
401.604136
 30
0.0
 40
0.5
 50
270.0
 51
308.335867
  0
LINE
  8
LC-008-100-D01-0
  6
DASHDOT
 62
     2
  5
5DC
 10
661.109406
 20
491.130292
 30
0.0
 11
637.782883
 21
490.723127
 31
0.0
  0
ARC
  8
LC-010-002-RND-0
  6
CONTINUOUS
  5
5DD
 10
822.602483
 20
536.605558
 30
0.0
 40
0.5
 50
0.0
 51
89.999681
  0
LINE
  8
LC-001-100-D02-0
  6
CONTINUOUS
 62
     1
  5
5DE
 10
643.542696
 20
561.83448
 30
0.0
 11
640.543153
 21
561.782122
 31
0.0
  0
LINE
  8
LC-001-100-D02-0
  6
CONTINUOUS
 62
     1
  5
5DF
 10
643.504301
 20
564.034145
 30
0.0
 11
636.505367
 21
563.911978
 31
0.0
  0
ARC
  8
LC-010-002-RND-0
  6
CONTINUOUS
  5
5E0
 10
812.601779
 20
411.605602
 30
0.0
 40
0.5
 50
89.999679
 51
180.0
  0
CIRCLE
  8
LC-006-100-D00-0
  6
CONTINUOUS
  5
5E1
 10
843.939022
 20
561.892015
 30
0.0
 40
4.121207
  0
LINE
  8
LC-004-002-----0
  6
CONTINUOUS
  5
5E2
 10
807.1415
 20
533.105644
 30
0.0
 11
822.60248
 21
533.105558
 31
0.0
  0
LINE
  8
LC-004-002-----0
  6
CONTINUOUS
  5
5E3
 10
812.102578
 20
547.305524
 30
0.0
 11
812.102483
 21
537.606405
 31
0.0
  0
ARC
  8
LC-010-002-RND-0
  6
CONTINUOUS
  5
5E4
 10
822.602483
 20
412.605552
 30
0.0
 40
0.5
 50
269.999679
 51
0.0
  0
LINE
  8
LC-005-100-D16-0
  6
DASHDOT
 62
     2
  5
5E5
 10
650.279235
 20
548.524172
 30
0.0
 11
663.734426
 21
548.524172
 31
0.0
  0
ARC
  8
LC-005-100-D16-0
  6
DASHDOT
 62
     2
  5
5E6
 10
650.279235
 20
549.524172
 30
0.0
 40
1.0
 50
180.0
 51
270.0
  0
LINE
  8
LC-005-100-D16-0
  6
DASHDOT
 62
     2
  5
5E7
 10
677.116276
 20
505.309841
 30
0.0
 11
665.666278
 21
548.04181
 31
0.0
  0
LINE
  8
LC-005-100-D16-0
  6
DASHDOT
 62
     2
  5
5E8
 10
676.15035
 20
505.051022
 30
0.0
 11
664.700352
 21
547.782991
 31
0.0
  0
ARC
  8
LC-005-100-D16-0
  6
DASHDOT
 62
     2
  5
5E9
 10
663.734426
 20
547.524172
 30
0.0
 40
1.0
 50
15.000001
 51
90.0
  0
LINE
  8
LC-005-100-D16-0
  6
DASHDOT
 62
     2
  5
5EA
 10
650.279235
 20
549.524172
 30
0.0
 11
663.734426
 21
549.524172
 31
0.0
  0
LINE
  8
LC-005-100-D16-0
  6
DASHDOT
 62
     2
  5
5EB
 10
650.279235
 20
555.524172
 30
0.0
 11
660.818028
 21
555.524172
 31
0.0
  0
LINE
  8
LC-005-100-D16-0
  6
DASHDOT
 62
     2
  5
5EC
 10
650.279235
 20
555.524172
 30
0.0
 11
650.279235
 21
549.524172
 31
0.0
  0
LINE
  8
LC-005-100-D16-0
  6
DASHDOT
 62
     2
  5
5ED
 10
662.818028
 20
557.524172
 30
0.0
 11
662.818028
 21
567.953971
 31
0.0
  0
ARC
  8
LC-010-002-RND-0
  6
CONTINUOUS
  5
5EE
 10
822.602483
 20
533.605558
 30
0.0
 40
0.5
 50
269.999681
 51
0.0
  0
ARC
  8
LC-005-100-D16-0
  6
DASHDOT
 62
     2
  5
5EF
 10
663.734426
 20
547.524172
 30
0.0
 40
2.0
 50
15.000001
 51
90.0
  0
LINE
  8
LC-004-002-----0
  6
CONTINUOUS
  5
5F0
 10
812.101779
 20
401.905948
 30
0.0
 11
812.101779
 21
411.605602
 31
0.0
  0
LINE
  8
LC-004-002-----0
  6
CONTINUOUS
  5
5F1
 10
809.102483
 20
411.605636
 30
0.0
 11
809.102483
 21
399.405948
 31
0.0
  0
ARC
  8
LC-010-002-RND-0
  6
CONTINUOUS
  5
5F2
 10
812.602483
 20
537.6064
 30
0.0
 40
0.5
 50
179.999362
 51
269.999683
  0
ARC
  8
LC-005-100-D16-0
  6
DASHDOT
 62
     2
  5
5F3
 10
660.818028
 20
557.524172
 30
0.0
 40
2.0
 50
270.0
 51
0.0
  0
LINE
  8
LC-008-100-D01-0
  6
DASHDOT
 62
     2
  5
5F4
 10
650.279235
 20
432.524172
 30
0.0
 11
660.474125
 21
432.524172
 31
0.0
  0
LINE
  8
LC-008-100-D01-0
  6
DASHDOT
 62
     2
  5
5F5
 10
650.279235
 20
433.524172
 30
0.0
 11
660.474125
 21
433.524172
 31
0.0
  0
ARC
  8
LC-008-100-D01-0
  6
DASHDOT
 62
     2
  5
5F6
 10
650.279235
 20
432.524172
 30
0.0
 40
1.0
 50
90.0
 51
180.0
  0
LINE
  8
LC-008-100-D01-0
  6
DASHDOT
 62
     2
  5
5F7
 10
650.279235
 20
426.524172
 30
0.0
 11
650.279235
 21
432.524172
 31
0.0
  0
LINE
  8
LC-008-100-D01-0
  6
DASHDOT
 62
     2
  5
5F8
 10
649.279235
 20
426.524172
 30
0.0
 11
649.279235
 21
432.524172
 31
0.0
  0
ARC
  8
LC-008-100-D01-0
  6
DASHDOT
 62
     2
  5
5F9
 10
650.279235
 20
426.524172
 30
0.0
 40
1.0
 50
180.0
 51
270.0
  0
LINE
  8
LC-008-100-D01-0
  6
DASHDOT
 62
     2
  5
5FA
 10
650.279235
 20
425.524172
 30
0.0
 11
653.279235
 21
425.524172
 31
0.0
  0
LINE
  8
LC-008-100-D01-0
  6
DASHDOT
 62
     2
  5
5FB
 10
650.279235
 20
426.524172
 30
0.0
 11
653.279235
 21
426.524172
 31
0.0
  0
LINE
  8
LC-008-100-D01-0
  6
DASHDOT
 62
     2
  5
5FC
 10
653.279235
 20
425.524172
 30
0.0
 11
653.279235
 21
426.524172
 31
0.0
  0
ARC
  8
LC-005-100-D16-0
  6
DASHDOT
 62
     2
  5
5FD
 10
654.279235
 20
577.024172
 30
0.0
 40
5.2
 50
18.598853
 51
180.0
  0
LINE
  8
LC-005-100-D16-0
  6
DASHDOT
 62
     2
  5
5FE
 10
662.818028
 20
567.953971
 30
0.0
 11
659.207664
 21
578.682662
 31
0.0
  0
LINE
  8
LC-005-100-D16-0
  6
DASHDOT
 62
     2
  5
5FF
 10
649.079235
 20
577.024172
 30
0.0
 11
649.079235
 21
569.684157
 31
0.0
  0
LINE
  8
LC-005-100-D16-0
  6
DASHDOT
 62
     2
  5
600
 10
661.818028
 20
567.790225
 30
0.0
 11
658.259889
 21
578.363721
 31
0.0
  0
LINE
  8
LC-005-100-D16-0
  6
DASHDOT
 62
     2
  5
601
 10
650.079235
 20
577.024172
 30
0.0
 11
650.079235
 21
569.684157
 31
0.0
  0
LINE
  8
LC-005-100-D16-0
  6
DASHDOT
 62
     2
  5
602
 10
649.079235
 20
569.684157
 30
0.0
 11
650.079235
 21
569.684157
 31
0.0
  0
ARC
  8
LC-008-100-D01-0
  6
DASHDOT
 62
     2
  5
603
 10
535.678138
 20
490.579344
 30
0.0
 40
140.0
 50
336.580232
 51
4.361016
  0
ARC
  8
LC-008-100-D01-0
  6
DASHDOT
 62
     2
  5
604
 10
535.678138
 20
490.579344
 30
0.0
 40
139.0
 50
336.580232
 51
24.637088
  0
ARC
  8
LC-008-100-D01-0
  6
DASHDOT
 62
     2
  5
605
 10
660.474125
 20
436.524172
 30
0.0
 40
3.0
 50
270.0
 51
336.580232
  0
ARC
  8
LC-008-100-D01-0
  6
DASHDOT
 62
     2
  5
606
 10
660.474125
 20
436.524172
 30
0.0
 40
4.0
 50
270.0
 51
336.580232
  0
LINE
  8
LC-004-002-----0
  6
CONTINUOUS
  5
607
 10
866.908934
 20
597.45079
 30
0.0
 11
865.734623
 21
597.553529
 31
0.0
  0
LINE
  8
LC-004-002-----0
  6
CONTINUOUS
  5
608
 10
866.908934
 20
692.988414
 30
0.0
 11
865.408934
 21
692.988414
 31
0.0
  0
LINE
  8
LC-004-002-----0
  6
CONTINUOUS
  5
609
 10
866.908934
 20
692.488414
 30
0.0
 11
865.908934
 21
692.488414
 31
0.0
  0
LINE
  8
LC-004-002-----0
  6
DASHDOT
 62
     2
  5
60A
 10
880.908934
 20
698.988414
 30
0.0
 11
880.908934
 21
693.988414
 31
0.0
  0
LINE
  8
LC-004-002-----0
  6
DASHDOT
 62
     2
  5
60B
 10
878.408934
 20
696.488414
 30
0.0
 11
883.408934
 21
696.488414
 31
0.0
  0
LINE
  8
LC-004-002-----0
  6
DASHDOT
 62
     2
  5
60C
 10
857.751833
 20
586.990982
 30
0.0
 11
857.751833
 21
614.490982
 31
0.0
  0
LINE
  8
LC-004-002-----0
  6
CONTINUOUS
  5
60D
 10
848.251833
 20
586.990982
 30
0.0
 11
848.251833
 21
603.675351
 31
0.0
  0
ARC
  8
LC-004-002-----0
  6
CONTINUOUS
  5
60E
 10
853.251833
 20
607.87433
 30
0.0
 40
2.0
 50
280.339949
 51
0.0
  0
ARC
  8
LC-004-002-----0
  6
CONTINUOUS
  5
60F
 10
846.251833
 20
571.240982
 30
0.0
 40
41.0
 50
79.660109
 51
100.339891
  0
ARC
  8
LC-004-002-----0
  6
CONTINUOUS
  5
610
 10
839.251833
 20
609.607634
 30
0.0
 40
2.0
 50
100.339872
 51
180.0
  0
ARC
  8
LC-004-002-----0
  6
CONTINUOUS
  5
611
 10
846.251833
 20
646.240982
 30
0.0
 40
41.0
 50
259.660109
 51
280.339949
  0
ARC
  8
LC-004-002-----0
  6
CONTINUOUS
  5
612
 10
839.251833
 20
607.87433
 30
0.0
 40
2.0
 50
180.0
 51
259.659957
  0
ARC
  8
LC-004-002-----0
  6
CONTINUOUS
  5
613
 10
839.251833
 20
609.771214
 30
0.0
 40
2.0
 50
106.726782
 51
180.0
  0
ARC
  8
LC-004-002-----0
  6
CONTINUOUS
  5
614
 10
839.251833
 20
607.71075
 30
0.0
 40
2.0
 50
180.0
 51
253.273047
  0
LINE
  8
LC-004-002-----0
  6
CONTINUOUS
  5
615
 10
837.251833
 20
607.71075
 30
0.0
 11
837.251833
 21
609.771214
 31
0.0
  0
ARC
  8
LC-004-002-----0
  6
CONTINUOUS
  5
616
 10
869.252027
 20
571.241148
 30
0.0
 40
41.0
 50
97.488045
 51
100.339835
  0
ARC
  8
LC-004-002-----0
  6
CONTINUOUS
  5
617
 10
862.252052
 20
609.607805
 30
0.0
 40
2.0
 50
100.339835
 51
179.999963
  0
ARC
  8
LC-004-002-----0
  6
CONTINUOUS
  5
618
 10
862.252051
 20
607.874501
 30
0.0
 40
2.0
 50
179.999963
 51
259.659995
  0
ARC
  8
LC-004-002-----0
  6
CONTINUOUS
  5
619
 10
869.252076
 20
646.241148
 30
0.0
 40
41.0
 50
259.65992
 51
262.511886
  0
ARC
  8
LC-004-002-----0
  6
CONTINUOUS
  5
61A
 10
814.852505
 20
539.855616
 30
0.0
 40
2.75
 50
95.668156
 51
270.0
  0
ARC
  8
LC-004-002-----0
  6
CONTINUOUS
  5
61B
 10
857.751833
 20
548.212136
 30
0.0
 40
66.278846
 50
84.669713
 51
106.726782
  0
LINE
  8
LC-004-002-----0
  6
CONTINUOUS
  5
61C
 10
814.580897
 20
542.592171
 30
0.0
 11
818.352505
 21
542.592171
 31
0.0
  0
LINE
  8
LC-004-002-----0
  6
CONTINUOUS
  5
61D
 10
814.852505
 20
537.105616
 30
0.0
 11
818.352505
 21
537.105616
 31
0.0
  0
ARC
  8
LC-004-002-----0
  6
CONTINUOUS
  5
61E
 10
857.751833
 20
669.269828
 30
0.0
 40
66.278846
 50
253.273047
 51
275.330287
  0
LINE
  8
LC-004-002-----0
  6
CONTINUOUS
  5
61F
 10
812.101779
 20
406.605514
 30
0.0
 11
824.154284
 21
406.605447
 31
0.0
  0
ARC
  8
LC-004-002-----0
  6
CONTINUOUS
  5
620
 10
818.352505
 20
539.855616
 30
0.0
 40
2.75
 50
270.0
 51
90.0
  0
ARC
  8
LC-004-002-----0
  6
CONTINUOUS
  5
621
 10
853.251833
 20
609.607634
 30
0.0
 40
2.0
 50
0.0
 51
79.660109
  0
ARC
  8
LC-004-002-----0
  6
CONTINUOUS
  5
622
 10
856.251833
 20
610.240982
 30
0.0
 40
1.0
 50
90.0
 51
179.999848
  0
LINE
  8
LC-004-002-----0
  6
CONTINUOUS
  5
623
 10
859.251833
 20
611.240982
 30
0.0
 11
856.251833
 21
611.240982
 31
0.0
  0
ARC
  8
LC-004-002-----0
  6
CONTINUOUS
  5
624
 10
859.251833
 20
610.240982
 30
0.0
 40
1.0
 50
0.0
 51
90.0
  0
LINE
  8
LC-004-002-----0
  6
CONTINUOUS
  5
625
 10
860.251833
 20
607.240982
 30
0.0
 11
860.251833
 21
610.240982
 31
0.0
  0
ARC
  8
LC-005-100-D16-0
  6
DASHDOT
 62
     2
  5
626
 10
675.184424
 20
504.792203
 30
0.0
 40
2.0
 50
301.375598
 51
15.000001
  0
ARC
  8
LC-005-100-D16-0
  6
DASHDOT
 62
     2
  5
627
 10
677.267008
 20
501.377112
 30
0.0
 40
2.0
 50
121.375598
 51
184.361016
  0
ARC
  8
LC-010-002-RND-0
  6
CONTINUOUS
  5
628
 10
993.567051
 20
582.502945
 30
0.0
 40
0.5
 50
0.0
 51
90.004193
  0
LINE
  8
LC-015-007-KH--0
  5
62A
 10
980.992038
 20
587.000982
 30
0.0
 11
981.067031
 21
587.000982
 31
0.0
  0
LINE
  8
LC-004-002-----0
  6
CONTINUOUS
  5
62B
 10
994.567051
 20
575.490982
 30
0.0
 11
995.58831
 21
575.490982
 31
0.0
  0
LINE
  8
LC-004-002-----0
  6
CONTINUOUS
  5
62C
 10
1004.459304
 20
571.990982
 30
0.0
 11
1005.489503
 21
571.990982
 31
0.0
  0
LINE
  8
LC-004-002-----0
  6
CONTINUOUS
  5
62D
 10
866.908934
 20
592.990982
 30
0.0
 11
863.008934
 21
592.990982
 31
0.0
  0
LINE
  8
LC-004-002-----0
  6
CONTINUOUS
  5
62E
 10
874.908934
 20
593.990982
 30
0.0
 11
879.808934
 21
593.990982
 31
0.0
  0
LINE
  8
LC-004-002-----0
  6
CONTINUOUS
  5
62F
 10
819.708454
 20
572.464814
 30
0.0
 11
820.235274
 21
582.51715
 31
0.0
  0
ARC
  8
LC-010-002-RND-0
  6
CONTINUOUS
  5
630
 10
996.930333
 20
582.490982
 30
0.0
 40
0.5
 50
90.0
 51
177.0
  0
ARC
  8
LC-010-002-RND-0
  6
CONTINUOUS
  5
631
 10
820.734589
 20
582.490982
 30
0.0
 40
0.5
 50
90.0
 51
177.0
  0
ARC
  8
LC-010-002-RND-0
  6
CONTINUOUS
  5
632
 10
826.73811
 20
582.490982
 30
0.0
 40
0.5
 50
3.0
 51
90.0
  0
ARC
  8
LC-010-002-RND-0
  6
CONTINUOUS
  5
633
 10
830.100165
 20
582.490982
 30
0.0
 40
0.5
 50
90.0
 51
180.0
  0
LINE
  8
LC-004-002-----0
  6
CONTINUOUS
  5
634
 10
828.080133
 20
575.490982
 30
0.0
 11
829.100165
 21
575.490982
 31
0.0
  0
LINE
  8
LC-004-002-----0
  6
CONTINUOUS
  5
635
 10
818.17894
 20
571.990982
 30
0.0
 11
819.209139
 21
571.990982
 31
0.0
  0
LINE
  8
LC-004-002-----0
  6
CONTINUOUS
  5
636
 10
862.008934
 20
593.990982
 30
0.0
 11
861.408934
 21
593.990982
 31
0.0
  0
LINE
  8
LC-004-002-----0
  6
CONTINUOUS
  5
637
 10
827.580818
 20
575.964814
 30
0.0
 11
827.237425
 21
582.51715
 31
0.0
  0
LINE
  8
LC-004-002-----0
  6
CONTINUOUS
  5
638
 10
996.087625
 20
575.964814
 30
0.0
 11
996.431018
 21
582.51715
 31
0.0
  0
LINE
  8
LC-004-002-----0
  6
CONTINUOUS
  5
639
 10
820.734589
 20
582.990982
 30
0.0
 11
826.73811
 21
582.990982
 31
0.0
  0
LINE
  8
LC-004-002-----0
  6
CONTINUOUS
  5
63A
 10
820.67894
 20
586.990982
 30
0.0
 11
855.052471
 21
586.990982
 31
0.0
  0
ARC
  8
LC-010-002-RND-0
  6
CONTINUOUS
  5
63B
 10
818.17894
 20
572.490982
 30
0.0
 40
0.5
 50
180.0
 51
270.0
  0
LINE
  8
LC-004-002-----0
  6
CONTINUOUS
  5
63C
 10
830.100165
 20
582.990982
 30
0.0
 11
866.908934
 21
582.993676
 31
0.0
  0
LINE
  8
LC-004-002-----0
  6
CONTINUOUS
  5
63D
 10
829.600165
 20
582.490982
 30
0.0
 11
829.600165
 21
575.990982
 31
0.0
  0
LINE
  8
LC-004-002-----0
  6
CONTINUOUS
  5
63E
 10
996.930333
 20
582.990982
 30
0.0
 11
1002.933854
 21
582.990982
 31
0.0
  0
LINE
  8
LC-004-002-----0
  6
CONTINUOUS
  5
63F
 10
994.067051
 20
582.502945
 30
0.0
 11
994.067051
 21
575.990982
 31
0.0
  0
ARC
  8
LC-010-002-RND-0
  6
CONTINUOUS
  5
640
 10
820.67894
 20
583.990982
 30
0.0
 40
3.0
 50
90.0
 51
180.0
  0
ARC
  8
LC-010-002-RND-0
  6
CONTINUOUS
  5
641
 10
829.100165
 20
575.990982
 30
0.0
 40
0.5
 50
270.0
 51
0.0
  0
LINE
  8
LC-004-002-----0
  6
CONTINUOUS
  5
642
 10
866.408934
 20
584.990982
 30
0.0
 11
863.008934
 21
584.990982
 31
0.0
  0
LINE
  8
LC-004-002-----0
  6
CONTINUOUS
  5
643
 10
862.008934
 20
593.990982
 30
0.0
 11
866.908934
 21
593.990982
 31
0.0
  0
LINE
  8
LC-004-002-----0
  6
CONTINUOUS
  5
644
 10
878.808934
 20
592.990982
 30
0.0
 11
874.908934
 21
592.990982
 31
0.0
  0
LINE
  8
LC-004-002-----0
  6
CONTINUOUS
  5
645
 10
866.408934
 20
584.990982
 30
0.0
 11
866.908934
 21
584.990982
 31
0.0
  0
LINE
  8
LC-004-002-----0
  6
CONTINUOUS
  5
646
 10
866.408934
 20
582.990982
 30
0.0
 11
866.908934
 21
582.990982
 31
0.0
  0
LINE
  8
LC-004-002-----0
  6
CONTINUOUS
  5
647
 10
878.408934
 20
562.990982
 30
0.0
 11
878.408934
 21
575.490982
 31
0.0
  0
LINE
  8
LC-004-002-----0
  6
CONTINUOUS
  5
648
 10
880.408934
 20
593.990982
 30
0.0
 11
879.808934
 21
593.990982
 31
0.0
  0
LINE
  8
LC-004-002-----0
  6
CONTINUOUS
  5
649
 10
860.908934
 20
593.490982
 30
0.0
 11
860.908934
 21
587.990982
 31
0.0
  0
LINE
  8
LC-004-002-----0
  6
CONTINUOUS
  5
64A
 10
880.908934
 20
593.490982
 30
0.0
 11
880.908934
 21
587.990982
 31
0.0
  0
LINE
  8
LC-004-002-----0
  6
CONTINUOUS
  5
64B
 10
878.808934
 20
584.990982
 30
0.0
 11
875.408934
 21
584.990982
 31
0.0
  0
LINE
  8
LC-004-002-----0
  6
CONTINUOUS
  5
64C
 10
878.808934
 20
592.990982
 30
0.0
 11
878.808934
 21
584.990982
 31
0.0
  0
LINE
  8
LC-004-002-----0
  6
CONTINUOUS
  5
64D
 10
863.008934
 20
592.990982
 30
0.0
 11
863.008934
 21
584.990982
 31
0.0
  0
LINE
  8
LC-004-002-----0
  6
CONTINUOUS
  5
64E
 10
878.808934
 20
592.990982
 30
0.0
 11
879.808934
 21
593.990982
 31
0.0
  0
LINE
  8
LC-004-002-----0
  6
CONTINUOUS
  5
64F
 10
875.408934
 20
584.990982
 30
0.0
 11
875.408934
 21
582.990982
 31
0.0
  0
LINE
  8
LC-004-002-----0
  6
CONTINUOUS
  5
650
 10
866.408934
 20
584.990982
 30
0.0
 11
866.408934
 21
582.990982
 31
0.0
  0
LINE
  8
LC-004-002-----0
  6
CONTINUOUS
  5
651
 10
863.008934
 20
592.990982
 30
0.0
 11
862.008934
 21
593.990982
 31
0.0
  0
ARC
  8
LC-010-002-RND-0
  6
CONTINUOUS
  5
652
 10
859.908934
 20
587.990982
 30
0.0
 40
1.0
 50
270.0
 51
0.0
  0
ARC
  8
LC-010-002-RND-0
  6
CONTINUOUS
  5
653
 10
881.908934
 20
587.990982
 30
0.0
 40
1.0
 50
180.0
 51
270.0
  0
ARC
  8
LC-010-002-RND-0
  6
CONTINUOUS
  5
654
 10
861.408934
 20
593.490982
 30
0.0
 40
0.5
 50
90.0
 51
180.0
  0
ARC
  8
LC-010-002-RND-0
  6
CONTINUOUS
  5
655
 10
880.408934
 20
593.490982
 30
0.0
 40
0.5
 50
0.0
 51
90.0
  0
LINE
  8
LC-004-002-----0
  6
CONTINUOUS
  5
656
 10
881.908934
 20
586.990982
 30
0.0
 11
1002.919503
 21
586.990982
 31
0.0
  0
ARC
  8
LC-010-002-RND-0
  6
CONTINUOUS
  5
657
 10
995.58831
 20
575.990982
 30
0.0
 40
0.5
 50
270.0
 51
357.0
  0
ARC
  8
LC-010-002-RND-0
  6
CONTINUOUS
  5
658
 10
828.080133
 20
575.990982
 30
0.0
 40
0.5
 50
183.0
 51
270.0
  0
ARC
  8
LC-010-002-RND-0
  6
CONTINUOUS
  5
659
 10
994.567051
 20
575.990982
 30
0.0
 40
0.5
 50
180.0
 51
270.0
  0
LINE
  8
LC-004-002-----0
  6
CONTINUOUS
  5
65A
 10
817.67894
 20
583.990982
 30
0.0
 11
817.67894
 21
572.490982
 31
0.0
  0
LINE
  8
LC-004-002-----0
  6
CONTINUOUS
  5
65B
 10
855.052471
 20
586.990982
 30
0.0
 11
859.908934
 21
586.990982
 31
0.0
  0
ARC
  8
LC-005-100-D16-0
  6
DASHDOT
 62
     2
  5
65C
 10
675.184424
 20
504.792203
 30
0.0
 40
1.0
 50
301.375598
 51
15.000001
  0
ARC
  8
LC-010-002-RND-0
  6
CONTINUOUS
  5
65D
 10
819.209139
 20
572.490982
 30
0.0
 40
0.5
 50
270.0
 51
357.0
  0
LINE
  8
LC-004-002-----0
  6
CONTINUOUS
  5
65E
 10
1005.989503
 20
583.990982
 30
0.0
 11
1005.989503
 21
572.490982
 31
0.0
  0
ARC
  8
LC-010-002-RND-0
  6
CONTINUOUS
  5
65F
 10
1002.989503
 20
583.990982
 30
0.0
 40
3.0
 50
0.0
 51
90.0
  0
ARC
  8
LC-010-002-RND-0
  6
CONTINUOUS
  5
660
 10
1005.489503
 20
572.490982
 30
0.0
 40
0.5
 50
270.0
 51
0.0
  0
LINE
  8
LC-004-002-----0
  6
CONTINUOUS
  5
661
 10
1003.959989
 20
572.464814
 30
0.0
 11
1003.433169
 21
582.51715
 31
0.0
  0
ARC
  8
LC-010-002-RND-0
  6
CONTINUOUS
  5
662
 10
1002.933854
 20
582.490982
 30
0.0
 40
0.5
 50
3.0
 51
90.0
  0
ARC
  8
LC-010-002-RND-0
  6
CONTINUOUS
  5
663
 10
1004.459304
 20
572.490982
 30
0.0
 40
0.5
 50
183.0
 51
270.0
  0
ARC
  8
LC-005-100-D16-0
  6
DASHDOT
 62
     2
  5
664
 10
677.267008
 20
501.377112
 30
0.0
 40
3.0
 50
121.375598
 51
184.361016
  0
LINE
  8
LC-004-002-----0
  6
CONTINUOUS
  5
665
 10
874.908934
 20
584.990982
 30
0.0
 11
875.408934
 21
584.990982
 31
0.0
  0
LINE
  8
LC-004-002-----0
  6
CONTINUOUS
  5
666
 10
874.908934
 20
582.994261
 30
0.0
 11
993.567014
 21
583.002945
 31
0.0
  0
LINE
  8
LC-004-002-----0
  6
CONTINUOUS
  5
667
 10
874.908934
 20
582.990982
 30
0.0
 11
875.408934
 21
582.990982
 31
0.0
  0
LINE
  8
LC-008-100-D01-0
  6
DASHDOT
 62
     2
  5
668
 10
649.279235
 20
549.524172
 30
0.0
 11
649.279235
 21
431.653394
 31
0.0
  0
LINE
  8
LC-001-100-D02-0
  6
CONTINUOUS
 62
     1
  5
669
 10
643.504301
 20
564.034145
 30
0.0
 11
643.542696
 21
561.83448
 31
0.0
  0
ARC
  8
LC-005-100-D16-0
  6
DASHDOT
 62
     2
  5
66A
 10
654.279235
 20
577.024172
 30
0.0
 40
4.2
 50
18.598853
 51
180.0
  0
LINE
  8
LC-001-100-D02-0
  6
CONTINUOUS
 62
     1
  5
66B
 10
640.543153
 20
561.782122
 30
0.0
 11
640.578058
 21
559.782427
 31
0.0
  0
LINE
  8
LC-001-100-D02-0
  6
CONTINUOUS
 62
     1
  5
66C
 10
646.836414
 20
559.891667
 30
0.0
 11
640.578058
 21
559.782427
 31
0.0
  0
LINE
  8
LC-001-100-D02-0
  6
CONTINUOUS
 62
     1
  5
66D
 10
649.244846
 20
421.912685
 30
0.0
 11
642.98649
 21
421.803445
 31
0.0
  0
LINE
  8
LC-001-100-D02-0
  6
CONTINUOUS
 62
     1
  5
66E
 10
643.021395
 20
419.80375
 30
0.0
 11
642.98649
 21
421.803445
 31
0.0
  0
LINE
  8
LC-001-100-D02-0
  6
CONTINUOUS
 62
     1
  5
66F
 10
646.059333
 20
417.656442
 30
0.0
 11
646.020938
 21
419.856107
 31
0.0
  0
LINE
  8
LC-001-100-D02-0
  6
CONTINUOUS
 62
     1
  5
670
 10
646.059333
 20
417.656442
 30
0.0
 11
639.0604
 21
417.534275
 31
0.0
  0
LINE
  8
LC-001-100-D02-0
  6
CONTINUOUS
 62
     1
  5
671
 10
646.020938
 20
419.856107
 30
0.0
 11
643.021395
 21
419.80375
 31
0.0
  0
LINE
  8
LC-001-100-D02-0
  6
CONTINUOUS
 62
     1
  5
672
 10
661.109406
 20
418.919294
 30
0.0
 11
654.842411
 21
418.809904
 31
0.0
  0
LINE
  8
LC-016-100-D04-0
  6
CONTINUOUS
  5
674
 10
661.091953
 20
419.919142
 30
0.0
 11
644.649104
 21
429.033563
 31
0.0
  0
LINE
  8
LC-016-100-D04-0
  6
CONTINUOUS
  5
675
 10
638.861442
 20
428.932539
 30
0.0
 11
644.649104
 21
429.033563
 31
0.0
  0
LINE
  8
LC-001-100-D02-0
  6
CONTINUOUS
 62
     1
  5
676
 10
654.842411
 20
418.809904
 30
0.0
 11
649.244846
 21
421.912685
 31
0.0
  0
LINE
  8
LC-016-100-D04-0
  6
CONTINUOUS
  5
677
 10
660.321065
 20
563.32753
 30
0.0
 11
642.491986
 21
552.614738
 31
0.0
  0
LINE
  8
LC-001-100-D02-0
  6
CONTINUOUS
 62
     1
  5
678
 10
652.322284
 20
563.187911
 30
0.0
 11
646.836414
 21
559.891667
 31
0.0
  0
LINE
  8
LC-001-100-D02-0
  6
CONTINUOUS
 62
     1
  5
679
 10
661.109406
 20
563.341291
 30
0.0
 11
652.322284
 21
563.187911
 31
0.0
  0
LINE
  8
LC-016-100-D04-0
  6
CONTINUOUS
  5
67A
 10
636.704325
 20
552.513714
 30
0.0
 11
642.491986
 21
552.614738
 31
0.0
  0
LINE
  8
LC-001-100-D02-0
  6
CONTINUOUS
 62
     1
  5
67B
 10
661.109407
 20
566.941839
 30
0.0
 11
661.109407
 21
563.32753
 31
0.0
  0
LINE
  8
LC-001-100-D02-0
  6
CONTINUOUS
 62
     1
  5
67C
 10
652.195768
 20
581.788536
 30
0.0
 11
636.198205
 21
581.509297
 31
0.0
  0
LINE
  8
LC-001-100-D02-0
  6
CONTINUOUS
 62
     1
  5
67D
 10
639.997626
 20
581.575616
 30
0.0
 11
640.259412
 21
566.577901
 31
0.0
  0
LINE
  8
LC-001-100-D02-0
  6
CONTINUOUS
 62
     1
  5
67E
 10
661.046578
 20
566.940742
 30
0.0
 11
640.259412
 21
566.577901
 31
0.0
  0
LINE
  8
LC-001-100-D02-0
  6
CONTINUOUS
 62
     1
  5
67F
 10
638.861442
 20
428.932539
 30
0.0
 11
639.112757
 21
414.534732
 31
0.0
  0
LINE
  8
LC-001-100-D02-0
  6
CONTINUOUS
 62
     1
  5
680
 10
661.109406
 20
419.909468
 30
0.0
 11
661.109406
 21
414.918685
 31
0.0
  0
LINE
  8
LC-004-002-----0
  6
CONTINUOUS
  5
681
 10
874.908934
 20
582.490982
 30
0.0
 11
874.908934
 21
692.988414
 31
0.0
  0
LINE
  8
LC-004-002-----0
  6
CONTINUOUS
  5
682
 10
642.491986
 20
552.614738
 30
0.0
 11
644.649104
 21
429.033563
 31
0.0
  0
LINE
  8
LC-001-100-D02-0
  6
CONTINUOUS
 62
     1
  5
683
 10
661.109406
 20
432.574942
 30
0.0
 11
661.109406
 21
419.909468
 31
0.0
  0
LINE
  8
LC-004-002-----0
  6
CONTINUOUS
  5
684
 10
863.508934
 20
591.490982
 30
0.0
 11
866.508934
 21
591.490982
 31
0.0
  0
LINE
  8
LC-004-002-----0
  6
CONTINUOUS
  5
685
 10
866.508934
 20
591.490982
 30
0.0
 11
866.508934
 21
585.490982
 31
0.0
  0
LINE
  8
LC-004-002-----0
  6
CONTINUOUS
  5
686
 10
866.508934
 20
585.490982
 30
0.0
 11
863.508934
 21
585.490982
 31
0.0
  0
LINE
  8
LC-004-002-----0
  6
CONTINUOUS
  5
687
 10
863.508934
 20
585.490982
 30
0.0
 11
863.508934
 21
591.490982
 31
0.0
  0
LINE
  8
LC-004-002-----0
  6
CONTINUOUS
  5
688
 10
875.308934
 20
591.490982
 30
0.0
 11
878.308934
 21
591.490982
 31
0.0
  0
LINE
  8
LC-004-002-----0
  6
CONTINUOUS
  5
689
 10
878.308934
 20
591.490982
 30
0.0
 11
878.308934
 21
585.490982
 31
0.0
  0
LINE
  8
LC-001-100-D02-0
  6
DASHDOT
 62
     2
  5
68A
 10
864.33538
 20
474.606043
 30
0.0
 11
811.00086
 21
474.606043
 31
0.0
  0
LINE
  8
LC-004-002-----0
  6
CONTINUOUS
  5
68B
 10
878.308934
 20
585.490982
 30
0.0
 11
875.308934
 21
585.490982
 31
0.0
  0
LINE
  8
LC-004-002-----0
  6
CONTINUOUS
  5
68C
 10
875.308934
 20
585.490982
 30
0.0
 11
875.308934
 21
591.490982
 31
0.0
  0
LINE
  8
LC-004-002-----0
  6
CONTINUOUS
  5
68D
 10
866.908934
 20
702.988414
 30
0.0
 11
866.908934
 21
582.490982
 31
0.0
  0
LINE
  8
LC-004-002-----0
  6
DASHDOT
 62
     2
  5
68E
 10
870.908934
 20
580.490982
 30
0.0
 11
870.908934
 21
711.488414
 31
0.0
  0
LINE
  8
LC-004-002-----0
  6
CONTINUOUS
  5
68F
 10
857.908934
 20
575.490982
 30
0.0
 11
861.575227
 21
564.033818
 31
0.0
  0
LINE
  8
LC-004-002-----0
  6
CONTINUOUS
  5
690
 10
873.908934
 20
562.990982
 30
0.0
 11
873.908934
 21
575.490982
 31
0.0
  0
LINE
  8
LC-004-002-----0
  6
CONTINUOUS
  5
691
 10
859.408934
 20
580.490982
 30
0.0
 11
882.408934
 21
580.490982
 31
0.0
  0
LINE
  8
LC-004-002-----0
  6
CONTINUOUS
  5
692
 10
878.408934
 20
575.490982
 30
0.0
 11
883.908934
 21
575.490982
 31
0.0
  0
ARC
  8
LC-010-002-RND-0
  6
CONTINUOUS
  5
693
 10
859.408934
 20
578.990982
 30
0.0
 40
1.5
 50
90.0
 51
180.0
  0
LINE
  8
LC-008-100-D01-0
  6
CONTINUOUS
  5
694
 10
828.487303
 20
415.743987
 30
0.0
 11
828.814969
 21
396.972008
 31
0.0
  0
LINE
  8
LC-009-001-----0
  6
CONTINUOUS
  5
695
 10
1002.746287
 20
572.490982
 30
0.0
 11
1001.752036
 21
572.490982
 31
0.0
  0
ARC
  8
LC-004-002-----0
  6
CONTINUOUS
  5
696
 10
859.251833
 20
607.240982
 30
0.0
 40
1.0
 50
270.000058
 51
0.0
  0
LINE
  8
LC-008-100-D01-0
  6
CONTINUOUS
  5
697
 10
994.761796
 20
400.995502
 30
0.0
 11
997.817456
 21
576.25732
 31
0.0
  0
LINE
  8
LC-004-002-----0
  6
CONTINUOUS
  5
698
 10
635.089749
 20
598.123139
 30
0.0
 11
633.389714
 21
598.123139
 31
0.0
  0
LINE
  8
LC-003-100-D03-0
  6
CONTINUOUS
  5
699
 10
636.388586
 20
587.623139
 30
0.0
 11
635.967952
 21
595.649306
 31
0.0
  0
ARC
  8
LC-010-002-RND-0
  6
CONTINUOUS
  5
69A
 10
633.389714
 20
595.623139
 30
0.0
 40
2.5
 50
90.0
 51
177.159687
  0
ARC
  8
LC-010-002-RND-0
  6
CONTINUOUS
  5
69B
 10
635.089749
 20
595.623139
 30
0.0
 40
2.5
 50
2.840313
 51
90.0
  0
LINE
  8
LC-004-002-----0
  6
CONTINUOUS
  5
69C
 10
863.408934
 20
582.490982
 30
0.0
 11
878.408934
 21
582.490982
 31
0.0
  0
LINE
  8
LC-004-002-----0
  6
CONTINUOUS
  5
69D
 10
813.859138
 20
587.623139
 30
0.0
 11
813.456084
 21
595.74702
 31
0.0
  0
ARC
  8
LC-010-002-RND-0
  6
CONTINUOUS
  5
69E
 10
810.959155
 20
595.623139
 30
0.0
 40
2.5
 50
2.840313
 51
90.0
  0
LINE
  8
LC-008-100-D01-0
  6
CONTINUOUS
  5
69F
 10
825.602906
 20
580.990982
 30
0.0
 11
826.39715
 21
535.488798
 31
0.0
  0
LINE
  8
LC-004-002-----0
  6
DASHDOT
 62
     2
  5
6A0
 10
807.1415
 20
474.616651
 30
0.0
 11
757.95376
 21
474.616651
 31
0.0
  0
LINE
  8
LC-004-002-----0
  6
CONTINUOUS
  5
6A1
 10
855.251833
 20
610.240982
 30
0.0
 11
855.251833
 21
607.240982
 31
0.0
  0
ARC
  8
LC-004-002-----0
  6
CONTINUOUS
  5
6A2
 10
856.251833
 20
607.240982
 30
0.0
 40
1.0
 50
180.0
 51
270.000058
  0
ARC
  8
LC-010-002-RND-0
  6
CONTINUOUS
  5
6A3
 10
809.25912
 20
595.623139
 30
0.0
 40
2.5
 50
90.0
 51
177.159687
  0
LINE
  8
LC-004-002-----0
  6
CONTINUOUS
  5
6A4
 10
856.251833
 20
606.240982
 30
0.0
 11
859.251833
 21
606.240982
 31
0.0
  0
LINE
  8
LC-008-100-D01-0
  6
CONTINUOUS
  5
6A5
 10
852.326683
 20
400.995502
 30
0.0
 11
1073.328867
 21
400.995502
 31
0.0
  0
LINE
  8
LC-004-002-----0
  6
CONTINUOUS
  5
6A6
 10
632.090877
 20
587.623139
 30
0.0
 11
630.489732
 21
587.623139
 31
0.0
  0
ARC
  8
LC-008-100-D01-0
  6
CONTINUOUS
  5
6A7
 10
852.326683
 20
400.001402
 30
0.0
 40
0.9941
 50
90.0
 51
180.0
  0
ARC
  8
LC-008-100-D01-0
  6
CONTINUOUS
  5
6A8
 10
850.338483
 20
396.989357
 30
0.0
 40
0.9941
 50
270.0
 51
0.0
  0
ARC
  8
LC-008-100-D01-0
  6
DASHED
  5
6A9
 10
829.808917
 20
396.989357
 30
0.0
 40
0.9941
 50
181.0
 51
270.0
  0
ARC
  8
LC-003-100-D03-0
  6
CONTINUOUS
  5
6AA
 10
853.344382
 20
393.983457
 30
0.0
 40
1.9882
 50
270.0
 51
0.0
  0
ARC
  8
LC-003-100-D03-0
  6
CONTINUOUS
  5
6AB
 10
855.829633
 20
396.498452
 30
0.0
 40
0.49705
 50
89.99968
 51
180.0
  0
LINE
  8
LC-003-100-D03-0
  6
CONTINUOUS
  5
6AC
 10
855.332583
 20
393.983457
 30
0.0
 11
855.332583
 21
396.498452
 31
0.0
  0
LINE
  8
LC-003-100-D03-0
  6
CONTINUOUS
  5
6AD
 10
826.837679
 20
391.995257
 30
0.0
 11
853.344382
 21
391.995257
 31
0.0
  0
LINE
  8
LC-008-100-D01-0
  6
CONTINUOUS
  5
6AE
 10
851.332583
 20
400.001402
 30
0.0
 11
851.332583
 21
396.989357
 31
0.0
  0
LINE
  8
LC-008-100-D01-0
  6
CONTINUOUS
  5
6AF
 10
829.808917
 20
395.995257
 30
0.0
 11
850.338483
 21
395.995257
 31
0.0
  0
LINE
  8
LC-004-002-----0
  6
CONTINUOUS
  5
6B0
 10
630.489732
 20
587.623139
 30
0.0
 11
630.892786
 21
595.74702
 31
0.0
  0
LINE
  8
LC-004-002-----0
  6
CONTINUOUS
  5
6B1
 10
637.989732
 20
587.623139
 30
0.0
 11
637.586678
 21
595.74702
 31
0.0
  0
LINE
  8
LC-004-002-----0
  6
CONTINUOUS
  5
6B2
 10
636.388586
 20
587.623139
 30
0.0
 11
637.989732
 21
587.623139
 31
0.0
  0
ARC
  8
LC-004-002-----0
  6
CONTINUOUS
  5
6B3
 10
814.852505
 20
409.377686
 30
0.0
 40
2.75
 50
90.0
 51
264.331844
  0
LINE
  8
LC-004-002-----0
  6
CONTINUOUS
  5
6B4
 10
806.359138
 20
587.623139
 30
0.0
 11
806.762191
 21
595.74702
 31
0.0
  0
LINE
  8
LC-004-002-----0
  6
CONTINUOUS
  5
6B5
 10
807.960283
 20
587.623139
 30
0.0
 11
806.359138
 21
587.623139
 31
0.0
  0
LINE
  8
LC-003-100-D03-0
  6
CONTINUOUS
  5
6B6
 10
807.960283
 20
587.623139
 30
0.0
 11
808.40575
 21
596.123139
 31
0.0
  0
LINE
  8
LC-004-002-----0
  6
CONTINUOUS
  5
6B7
 10
878.408934
 20
580.490982
 30
0.0
 11
878.408934
 21
582.490982
 31
0.0
  0
LINE
  8
LC-004-002-----0
  6
CONTINUOUS
  5
6B8
 10
863.408934
 20
580.490982
 30
0.0
 11
863.408934
 21
582.490982
 31
0.0
  0
LINE
  8
LC-004-002-----0
  6
CONTINUOUS
  5
6B9
 10
883.908934
 20
564.490982
 30
0.0
 11
883.908934
 21
578.990982
 31
0.0
  0
LINE
  8
LC-004-002-----0
  6
CONTINUOUS
  5
6BA
 10
857.908934
 20
575.490982
 30
0.0
 11
857.908934
 21
578.990982
 31
0.0
  0
LINE
  8
LC-004-002-----0
  6
CONTINUOUS
  5
6BB
 10
863.003863
 20
562.990982
 30
0.0
 11
882.408934
 21
562.990982
 31
0.0
  0
LINE
  8
LC-004-002-----0
  6
CONTINUOUS
  5
6BC
 10
857.908934
 20
575.490982
 30
0.0
 11
873.908934
 21
575.490982
 31
0.0
  0
ARC
  8
LC-010-002-RND-0
  6
CONTINUOUS
  5
6BD
 10
863.003863
 20
564.490982
 30
0.0
 40
1.5
 50
197.744672
 51
270.0
  0
ARC
  8
LC-010-002-RND-0
  6
CONTINUOUS
  5
6BE
 10
882.408934
 20
564.490982
 30
0.0
 40
1.5
 50
270.0
 51
0.0
  0
ARC
  8
LC-010-002-RND-0
  6
CONTINUOUS
  5
6BF
 10
882.408934
 20
578.990982
 30
0.0
 40
1.5
 50
0.0
 51
90.0
  0
LINE
  8
LC-009-001-----0
  6
CONTINUOUS
  5
6C0
 10
821.750664
 20
572.490982
 30
0.0
 11
820.756412
 21
572.490982
 31
0.0
  0
ARC
  8
LC-003-100-D03-0
  6
CONTINUOUS
  5
6C1
 10
822.670612
 20
580.490982
 30
0.0
 40
0.5
 50
90.0
 51
177.0
  0
LINE
  8
LC-004-002-----0
  6
CONTINUOUS
  5
6C2
 10
823.102483
 20
416.127659
 30
0.0
 11
823.102483
 21
412.605552
 31
0.0
  0
LINE
  8
LC-003-100-D03-0
  6
CONTINUOUS
  5
6C3
 10
821.750664
 20
572.490982
 30
0.0
 11
822.171298
 21
580.51715
 31
0.0
  0
LINE
  8
LC-003-100-D03-0
  6
CONTINUOUS
  5
6C4
 10
822.670612
 20
580.990982
 30
0.0
 11
825.602906
 21
580.990982
 31
0.0
  0
LINE
  8
LC-004-002-----0
  6
CONTINUOUS
  5
6C5
 10
814.580897
 20
406.641132
 30
0.0
 11
818.352505
 21
406.641132
 31
0.0
  0
LINE
  8
LC-009-001-----0
  6
CONTINUOUS
  5
6C6
 10
998.065537
 20
580.990982
 30
0.0
 11
1000.832088
 21
580.990982
 31
0.0
  0
ARC
  8
LC-009-001-----0
  6
CONTINUOUS
  5
6C7
 10
1000.832088
 20
580.490982
 30
0.0
 40
0.5
 50
3.0
 51
90.0
  0
LINE
  8
LC-009-001-----0
  6
CONTINUOUS
  5
6C8
 10
1001.752036
 20
572.490982
 30
0.0
 11
1001.331402
 21
580.51715
 31
0.0
  0
LINE
  8
LC-003-100-D03-0
  6
CONTINUOUS
  5
6C9
 10
823.855833
 20
394.925509
 30
0.0
 11
823.721779
 21
402.605449
 31
0.0
  0
LINE
  8
LC-009-001-----0
  6
CONTINUOUS
  5
6CA
 10
1001.867104
 20
521.953077
 30
0.0
 11
1002.746287
 21
572.490982
 31
0.0
  0
LINE
  8
LC-004-002-----0
  6
CONTINUOUS
  5
6CB
 10
814.852505
 20
412.127686
 30
0.0
 11
818.352505
 21
412.127686
 31
0.0
  0
ARC
  8
LC-003-100-D03-0
  6
CONTINUOUS
  5
6CC
 10
826.837679
 20
394.977558
 30
0.0
 40
2.9823
 50
181.000001
 51
270.0
  0
LINE
  8
LC-004-002-----0
  6
CONTINUOUS
  5
6CD
 10
812.601776
 20
402.605512
 30
0.0
 11
823.721779
 21
402.605449
 31
0.0
  0
ARC
  8
LC-004-002-----0
  6
CONTINUOUS
  5
6CE
 10
818.352505
 20
409.377686
 30
0.0
 40
2.75
 50
270.0
 51
90.0
  0
LINE
  8
LC-004-002-----0
  6
DASHDOT
 62
     2
  5
6CF
 10
775.95108
 20
602.123139
 30
0.0
 11
775.95108
 21
629.623139
 31
0.0
  0
LINE
  8
LC-004-002-----0
  6
CONTINUOUS
  5
6D0
 10
766.45108
 20
602.123139
 30
0.0
 11
766.45108
 21
618.807507
 31
0.0
  0
ARC
  8
LC-004-002-----0
  6
CONTINUOUS
  5
6D1
 10
771.45108
 20
623.006486
 30
0.0
 40
2.0
 50
280.339949
 51
0.0
  0
ARC
  8
LC-004-002-----0
  6
CONTINUOUS
  5
6D2
 10
764.45108
 20
586.373138
 30
0.0
 40
41.0
 50
79.660109
 51
100.339891
  0
ARC
  8
LC-004-002-----0
  6
CONTINUOUS
  5
6D3
 10
757.45108
 20
624.739791
 30
0.0
 40
2.0
 50
100.339872
 51
180.0
  0
LINE
  8
LC-004-002-----0
  6
DASHDOT
 62
     2
  5
6D4
 10
965.750867
 20
586.990982
 30
0.0
 11
965.750867
 21
614.490982
 31
0.0
  0
LINE
  8
LC-004-002-----0
  6
CONTINUOUS
  5
6D5
 10
956.250867
 20
586.990982
 30
0.0
 11
956.250867
 21
603.675351
 31
0.0
  0
ARC
  8
LC-004-002-----0
  6
CONTINUOUS
  5
6D6
 10
961.250867
 20
607.87433
 30
0.0
 40
2.0
 50
280.339949
 51
0.0
  0
ARC
  8
LC-004-002-----0
  6
CONTINUOUS
  5
6D7
 10
954.250867
 20
571.240982
 30
0.0
 40
41.0
 50
79.660109
 51
100.339891
  0
ARC
  8
LC-004-002-----0
  6
CONTINUOUS
  5
6D8
 10
947.250867
 20
609.607634
 30
0.0
 40
2.0
 50
100.339872
 51
180.0
  0
ARC
  8
LC-004-002-----0
  6
CONTINUOUS
  5
6D9
 10
954.250867
 20
646.240982
 30
0.0
 40
41.0
 50
259.660109
 51
280.339949
  0
ARC
  8
LC-004-002-----0
  6
CONTINUOUS
  5
6DA
 10
947.250867
 20
607.87433
 30
0.0
 40
2.0
 50
180.0
 51
259.659957
  0
ARC
  8
LC-004-002-----0
  6
CONTINUOUS
  5
6DB
 10
947.250867
 20
609.771214
 30
0.0
 40
2.0
 50
106.726782
 51
180.0
  0
ARC
  8
LC-004-002-----0
  6
CONTINUOUS
  5
6DC
 10
947.250867
 20
607.71075
 30
0.0
 40
2.0
 50
180.0
 51
253.273047
  0
LINE
  8
LC-004-002-----0
  6
CONTINUOUS
  5
6DD
 10
945.250867
 20
607.71075
 30
0.0
 11
945.250867
 21
609.771214
 31
0.0
  0
LINE
  8
LC-004-002-----0
  6
CONTINUOUS
  5
6DE
 10
975.251071
 20
586.991149
 30
0.0
 11
975.251082
 21
603.675518
 31
0.0
  0
ARC
  8
LC-004-002-----0
  6
CONTINUOUS
  5
6DF
 10
977.251061
 20
571.241148
 30
0.0
 40
41.0
 50
79.660072
 51
100.339835
  0
ARC
  8
LC-004-002-----0
  6
CONTINUOUS
  5
6E0
 10
970.251086
 20
609.607805
 30
0.0
 40
2.0
 50
100.339835
 51
179.999963
  0
ARC
  8
LC-004-002-----0
  6
CONTINUOUS
  5
6E1
 10
970.251085
 20
607.874501
 30
0.0
 40
2.0
 50
179.999963
 51
259.659995
  0
ARC
  8
LC-004-002-----0
  6
CONTINUOUS
  5
6E2
 10
977.25111
 20
646.241148
 30
0.0
 40
41.0
 50
259.65992
 51
280.339853
  0
ARC
  8
LC-004-002-----0
  6
CONTINUOUS
  5
6E3
 10
984.251086
 20
609.607796
 30
0.0
 40
2.0
 50
359.999963
 51
79.659997
  0
ARC
  8
LC-004-002-----0
  6
CONTINUOUS
  5
6E4
 10
965.750867
 20
548.212136
 30
0.0
 40
66.278846
 50
73.273199
 51
106.726782
  0
ARC
  8
LC-004-002-----0
  6
CONTINUOUS
  5
6E5
 10
984.250867
 20
609.771214
 30
0.0
 40
2.0
 50
0.0
 51
73.273199
  0
ARC
  8
LC-004-002-----0
  6
CONTINUOUS
  5
6E6
 10
984.251085
 20
607.874491
 30
0.0
 40
2.0
 50
280.339912
 51
359.999963
  0
ARC
  8
LC-004-002-----0
  6
CONTINUOUS
  5
6E7
 10
965.750867
 20
669.269828
 30
0.0
 40
66.278846
 50
253.273047
 51
286.726801
  0
ARC
  8
LC-004-002-----0
  6
CONTINUOUS
  5
6E8
 10
984.250867
 20
607.71075
 30
0.0
 40
2.0
 50
286.72686
 51
0.0
  0
LINE
  8
LC-004-002-----0
  6
CONTINUOUS
  5
6E9
 10
986.250867
 20
607.71075
 30
0.0
 11
986.250867
 21
609.771214
 31
0.0
  0
ARC
  8
LC-004-002-----0
  6
CONTINUOUS
  5
6EA
 10
961.250867
 20
609.607634
 30
0.0
 40
2.0
 50
0.0
 51
79.660109
  0
ARC
  8
LC-004-002-----0
  6
CONTINUOUS
  5
6EB
 10
964.250867
 20
610.240982
 30
0.0
 40
1.0
 50
90.0
 51
179.999848
  0
LINE
  8
LC-004-002-----0
  6
CONTINUOUS
  5
6EC
 10
967.250867
 20
611.240982
 30
0.0
 11
964.250867
 21
611.240982
 31
0.0
  0
ARC
  8
LC-004-002-----0
  6
CONTINUOUS
  5
6ED
 10
967.250867
 20
610.240982
 30
0.0
 40
1.0
 50
0.0
 51
90.0
  0
LINE
  8
LC-004-002-----0
  6
CONTINUOUS
  5
6EE
 10
968.250867
 20
607.240982
 30
0.0
 11
968.250867
 21
610.240982
 31
0.0
  0
ARC
  8
LC-004-002-----0
  6
CONTINUOUS
  5
6EF
 10
967.250867
 20
607.240982
 30
0.0
 40
1.0
 50
270.000058
 51
0.0
  0
LINE
  8
LC-004-002-----0
  6
CONTINUOUS
  5
6F0
 10
963.250867
 20
610.240982
 30
0.0
 11
963.250867
 21
607.240982
 31
0.0
  0
ARC
  8
LC-004-002-----0
  6
CONTINUOUS
  5
6F1
 10
964.250867
 20
607.240982
 30
0.0
 40
1.0
 50
180.0
 51
270.000058
  0
LINE
  8
LC-004-002-----0
  6
CONTINUOUS
  5
6F2
 10
964.250867
 20
606.240982
 30
0.0
 11
967.250867
 21
606.240982
 31
0.0
  0
ARC
  8
LC-004-002-----0
  6
CONTINUOUS
  5
6F3
 10
764.45108
 20
661.373139
 30
0.0
 40
41.0
 50
259.660109
 51
280.339949
  0
LINE
  8
LC-004-002-----0
  6
CONTINUOUS
  5
6F4
 10
855.408934
 20
711.488414
 30
0.0
 11
876.408934
 21
711.488414
 31
0.0
  0
LINE
  8
LC-004-002-----0
  6
CONTINUOUS
  5
6F5
 10
823.102483
 20
536.605558
 30
0.0
 11
823.102483
 21
533.605558
 31
0.0
  0
LINE
  8
LC-004-002-----0
  6
CONTINUOUS
  5
6F6
 10
878.408934
 20
709.488414
 30
0.0
 11
878.408934
 21
703.470534
 31
0.0
  0
LINE
  8
LC-004-002-----0
  6
CONTINUOUS
  5
6F7
 10
814.105734
 20
549.806054
 30
0.0
 11
814.105523
 21
546.606582
 31
0.0
  0
LINE
  8
LC-004-002-----0
  6
CONTINUOUS
  5
6F8
 10
812.601782
 20
412.105608
 30
0.0
 11
822.60248
 21
412.105552
 31
0.0
  0
ARC
  8
LC-004-002-----0
  6
CONTINUOUS
  5
6F9
 10
757.45108
 20
623.006486
 30
0.0
 40
2.0
 50
180.0
 51
259.659957
  0
LINE
  8
LC-004-002-----0
  6
CONTINUOUS
  5
6FA
 10
876.408934
 20
692.988414
 30
0.0
 11
874.908934
 21
692.988414
 31
0.0
  0
CIRCLE
  8
LC-006-100-D00-0
  6
CONTINUOUS
  5
6FB
 10
843.939022
 20
561.892015
 30
0.0
 40
4.121207
  0
LINE
  8
LC-004-002-----0
  6
CONTINUOUS
  5
6FC
 10
814.104896
 20
547.805519
 30
0.0
 11
812.60258
 21
547.805519
 31
0.0
  0
LINE
  8
LC-004-002-----0
  6
CONTINUOUS
  5
6FD
 10
863.408934
 20
690.988414
 30
0.0
 11
863.408934
 21
675.988414
 31
0.0
  0
ARC
  8
LC-010-002-RND-0
  6
CONTINUOUS
  5
6FE
 10
816.290493
 20
547.609503
 30
0.0
 40
0.5
 50
51.377958
 51
90.0
  0
ARC
  8
LC-004-002-----0
  6
CONTINUOUS
  5
6FF
 10
757.45108
 20
624.90337
 30
0.0
 40
2.0
 50
106.726782
 51
180.0
  0
ARC
  8
LC-010-002-RND-0
  6
CONTINUOUS
  5
700
 10
812.601779
 20
401.905948
 30
0.0
 40
0.5
 50
180.0
 51
270.0
  0
LINE
  8
LC-004-002-----0
  6
CONTINUOUS
  5
701
 10
812.601779
 20
401.405948
 30
0.0
 11
814.104896
 21
401.405948
 31
0.0
  0
LINE
  8
LC-004-002-----0
  6
CONTINUOUS
  5
702
 10
861.408934
 20
673.988414
 30
0.0
 11
855.408934
 21
673.988414
 31
0.0
  0
LINE
  8
LC-004-002-----0
  6
CONTINUOUS
  5
703
 10
813.604896
 20
398.905948
 30
0.0
 11
809.602483
 21
398.905948
 31
0.0
  0
LINE
  8
LC-004-002-----0
  6
CONTINUOUS
  5
704
 10
813.605739
 20
550.306054
 30
0.0
 11
812.946081
 21
550.306061
 31
0.0
  0
ARC
  8
LC-004-002-----0
  6
CONTINUOUS
  5
705
 10
757.45108
 20
622.842907
 30
0.0
 40
2.0
 50
180.0
 51
253.273047
  0
LINE
  8
LC-004-002-----0
  6
CONTINUOUS
  5
706
 10
755.45108
 20
622.842907
 30
0.0
 11
755.45108
 21
624.90337
 31
0.0
  0
LINE
  8
LC-004-002-----0
  6
CONTINUOUS
  5
707
 10
814.104075
 20
401.047493
 30
0.0
 11
814.104092
 21
402.605503
 31
0.0
  0
LINE
  8
LC-004-002-----0
  6
CONTINUOUS
  5
708
 10
814.104051
 20
398.905942
 30
0.0
 11
814.104092
 21
402.605503
 31
0.0
  0
ARC
  8
LC-010-002-RND-0
  6
CONTINUOUS
  5
709
 10
812.60258
 20
547.305519
 30
0.0
 40
0.5
 50
89.999362
 51
179.999441
  0
ARC
  8
LC-010-002-RND-0
  6
CONTINUOUS
  5
70A
 10
813.604896
 20
399.405948
 30
0.0
 40
0.5
 50
270.0
 51
0.0
  0
LINE
  8
LC-004-002-----0
  6
CONTINUOUS
  5
70B
 10
853.408934
 20
675.988414
 30
0.0
 11
853.408934
 21
709.488414
 31
0.0
  0
ARC
  8
LC-004-002-----0
  6
CONTINUOUS
  5
70C
 10
881.408934
 20
703.470534
 30
0.0
 40
3.0
 50
180.0
 51
265.903956
  0
LINE
  8
LC-004-002-----0
  6
CONTINUOUS
  5
70D
 10
878.408934
 20
696.488414
 30
0.0
 11
878.408934
 21
694.988414
 31
0.0
  0
ARC
  8
LC-004-002-----0
  6
CONTINUOUS
  5
70E
 10
882.593595
 20
694.006094
 30
0.0
 40
0.5
 50
124.163315
 51
209.955798
  0
ARC
  8
LC-010-002-RND-0
  6
CONTINUOUS
  5
70F
 10
803.837264
 20
597.635102
 30
0.0
 40
0.5
 50
0.0
 51
90.004193
  0
ARC
  8
LC-004-002-----0
  6
CONTINUOUS
  5
710
 10
882.843839
 20
693.571885
 30
0.0
 40
0.5
 50
209.955798
 51
303.56138
  0
ARC
  8
LC-004-002-----0
  6
CONTINUOUS
  5
711
 10
876.408934
 20
709.488414
 30
0.0
 40
2.0
 50
0.0
 51
90.0
  0
ARC
  8
LC-004-002-----0
  6
CONTINUOUS
  5
712
 10
855.408934
 20
709.488414
 30
0.0
 40
2.0
 50
90.0
 51
180.0
  0
ARC
  8
LC-004-002-----0
  6
CONTINUOUS
  5
713
 10
855.408934
 20
675.988414
 30
0.0
 40
2.0
 50
180.0
 51
270.0
  0
ARC
  8
LC-004-002-----0
  6
CONTINUOUS
  5
714
 10
861.408934
 20
675.988414
 30
0.0
 40
2.0
 50
270.0
 51
0.0
  0
ARC
  8
LC-004-002-----0
  6
CONTINUOUS
  5
715
 10
865.408934
 20
690.988414
 30
0.0
 40
2.0
 50
90.0
 51
180.0
  0
ARC
  8
LC-004-002-----0
  6
CONTINUOUS
  5
716
 10
876.408934
 20
694.988414
 30
0.0
 40
2.0
 50
270.0
 51
0.0
  0
ARC
  8
LC-004-002-----0
  6
CONTINUOUS
  5
717
 10
880.908934
 20
696.488414
 30
0.0
 40
4.0
 50
303.56138
 51
85.903956
  0
LINE
  8
LC-004-002-----0
  6
CONTINUOUS
  5
718
 10
874.908934
 20
692.988414
 30
0.0
 11
874.908934
 21
702.988414
 31
0.0
  0
LINE
  8
LC-004-002-----0
  6
CONTINUOUS
  5
719
 10
873.008934
 20
702.988414
 30
0.0
 11
873.008934
 21
707.888414
 31
0.0
  0
LINE
  8
LC-004-002-----0
  6
CONTINUOUS
  5
71A
 10
868.808934
 20
702.988414
 30
0.0
 11
868.808934
 21
707.888414
 31
0.0
  0
LINE
  8
LC-004-002-----0
  6
CONTINUOUS
  5
71B
 10
866.008934
 20
710.688414
 30
0.0
 11
875.808934
 21
710.688414
 31
0.0
  0
LINE
  8
LC-004-002-----0
  6
CONTINUOUS
  5
71C
 10
875.808934
 20
710.688414
 30
0.0
 11
875.808934
 21
711.488414
 31
0.0
  0
LINE
  8
LC-004-002-----0
  6
CONTINUOUS
  5
71D
 10
866.008934
 20
710.688414
 30
0.0
 11
866.008934
 21
711.488414
 31
0.0
  0
LINE
  8
LC-004-002-----0
  6
CONTINUOUS
  5
71E
 10
866.008934
 20
710.688414
 30
0.0
 11
868.808934
 21
707.888414
 31
0.0
  0
LINE
  8
LC-004-002-----0
  6
CONTINUOUS
  5
71F
 10
875.808934
 20
710.688414
 30
0.0
 11
873.008934
 21
707.888414
 31
0.0
  0
LINE
  8
LC-004-002-----0
  6
CONTINUOUS
  5
720
 10
868.808934
 20
707.888414
 30
0.0
 11
873.008934
 21
707.888414
 31
0.0
  0
ARC
  8
LC-004-002-----0
  6
CONTINUOUS
  5
721
 10
880.908934
 20
696.488414
 30
0.0
 40
2.5
 50
304.163315
 51
180.0
  0
LINE
  8
LC-004-002-----0
  6
CONTINUOUS
  5
722
 10
882.16039
 20
693.756428
 30
0.0
 11
882.410634
 21
693.322219
 31
0.0
  0
LINE
  8
LC-004-002-----0
  6
CONTINUOUS
  5
723
 10
785.451284
 20
602.123306
 30
0.0
 11
785.451295
 21
618.807675
 31
0.0
  0
ARC
  8
LC-004-002-----0
  6
CONTINUOUS
  5
724
 10
787.451274
 20
586.373305
 30
0.0
 40
41.0
 50
79.660072
 51
100.339835
  0
LINE
  8
LC-004-002-----0
  6
CONTINUOUS
  5
725
 10
863.908934
 20
690.488414
 30
0.0
 11
863.908934
 21
599.545918
 31
0.0
  0
ARC
  8
LC-004-002-----0
  6
CONTINUOUS
  5
726
 10
875.908934
 20
598.671031
 30
0.0
 40
2.0
 50
265.0
 51
0.0
  0
LINE
  8
LC-004-002-----0
  6
CONTINUOUS
  5
727
 10
878.408934
 20
692.488414
 30
0.0
 11
874.908934
 21
692.488414
 31
0.0
  0
LINE
  8
LC-004-002-----0
  6
CONTINUOUS
  5
728
 10
877.908934
 20
690.488414
 30
0.0
 11
874.908934
 21
690.488414
 31
0.0
  0
LINE
  8
LC-004-002-----0
  6
CONTINUOUS
  5
729
 10
875.734623
 20
596.678642
 30
0.0
 11
874.908934
 21
596.75088
 31
0.0
  0
CIRCLE
  8
LC-004-002-----0
  6
CONTINUOUS
  5
72A
 10
880.908934
 20
696.488414
 30
0.0
 40
2.5
  0
LINE
  8
LC-004-002-----0
  6
CONTINUOUS
  5
72B
 10
877.908934
 20
690.488414
 30
0.0
 11
880.170401
 21
690.686267
 31
0.0
  0
ARC
  8
LC-004-002-----0
  6
CONTINUOUS
  5
72C
 10
865.908934
 20
690.488414
 30
0.0
 40
2.0
 50
90.0
 51
180.0
  0
ARC
  8
LC-004-002-----0
  6
CONTINUOUS
  5
72D
 10
878.408934
 20
692.988414
 30
0.0
 40
0.5
 50
270.0
 51
0.0
  0
ARC
  8
LC-004-002-----0
  6
CONTINUOUS
  5
72E
 10
879.908934
 20
693.674851
 30
0.0
 40
3.0
 50
275.0
 51
348.405512
  0
LINE
  8
LC-004-002-----0
  6
CONTINUOUS
  5
72F
 10
878.908934
 20
694.988414
 30
0.0
 11
878.908934
 21
692.988414
 31
0.0
  0
ARC
  8
LC-004-002-----0
  6
CONTINUOUS
  5
730
 10
865.908934
 20
688.488414
 30
0.0
 40
2.0
 50
90.0
 51
180.0
  0
ARC
  8
LC-004-002-----0
  6
CONTINUOUS
  5
731
 10
865.908934
 20
599.545918
 30
0.0
 40
2.0
 50
180.0
 51
265.0
  0
LINE
  8
LC-004-002-----0
  6
CONTINUOUS
  5
732
 10
877.908934
 20
690.488414
 30
0.0
 11
877.908934
 21
598.671031
 31
0.0
  0
ARC
  8
LC-004-002-----0
  6
CONTINUOUS
  5
733
 10
780.451299
 20
624.739961
 30
0.0
 40
2.0
 50
100.339835
 51
179.999963
  0
LINE
  8
LC-004-002-----0
  6
CONTINUOUS
  5
734
 10
866.908934
 20
702.988414
 30
0.0
 11
874.908934
 21
702.988414
 31
0.0
  0
ARC
  8
LC-004-002-----0
  6
CONTINUOUS
  5
735
 10
780.451298
 20
623.006657
 30
0.0
 40
2.0
 50
179.999963
 51
259.659995
  0
ARC
  8
LC-004-002-----0
  6
CONTINUOUS
  5
736
 10
787.451323
 20
661.373305
 30
0.0
 40
41.0
 50
259.65992
 51
280.339853
  0
ARC
  8
LC-004-002-----0
  6
CONTINUOUS
  5
737
 10
794.451299
 20
624.739952
 30
0.0
 40
2.0
 50
359.999963
 51
79.659997
  0
ARC
  8
LC-004-002-----0
  6
CONTINUOUS
  5
738
 10
775.95108
 20
563.344292
 30
0.0
 40
66.278846
 50
73.273199
 51
106.726782
  0
ARC
  8
LC-004-002-----0
  6
CONTINUOUS
  5
739
 10
794.45108
 20
624.90337
 30
0.0
 40
2.0
 50
0.0
 51
73.273199
  0
ARC
  8
LC-004-002-----0
  6
CONTINUOUS
  5
73A
 10
794.451298
 20
623.006648
 30
0.0
 40
2.0
 50
280.339912
 51
359.999963
  0
ARC
  8
LC-004-002-----0
  6
CONTINUOUS
  5
73B
 10
775.95108
 20
684.401985
 30
0.0
 40
66.278846
 50
253.273047
 51
286.726801
  0
ARC
  8
LC-004-002-----0
  6
CONTINUOUS
  5
73C
 10
794.45108
 20
622.842907
 30
0.0
 40
2.0
 50
286.72686
 51
0.0
  0
LINE
  8
LC-004-002-----0
  6
CONTINUOUS
  5
73D
 10
796.45108
 20
622.842907
 30
0.0
 11
796.45108
 21
624.90337
 31
0.0
  0
ARC
  8
LC-004-002-----0
  6
CONTINUOUS
  5
73E
 10
771.45108
 20
624.739791
 30
0.0
 40
2.0
 50
0.0
 51
79.660109
  0
ARC
  8
LC-004-002-----0
  6
CONTINUOUS
  5
73F
 10
774.45108
 20
625.373139
 30
0.0
 40
1.0
 50
90.0
 51
179.999848
  0
LINE
  8
LC-004-002-----0
  6
CONTINUOUS
  5
740
 10
777.45108
 20
626.373139
 30
0.0
 11
774.45108
 21
626.373139
 31
0.0
  0
ARC
  8
LC-004-002-----0
  6
CONTINUOUS
  5
741
 10
777.45108
 20
625.373139
 30
0.0
 40
1.0
 50
0.0
 51
90.0
  0
LINE
  8
LC-004-002-----0
  6
CONTINUOUS
  5
742
 10
778.45108
 20
622.373139
 30
0.0
 11
778.45108
 21
625.373139
 31
0.0
  0
ARC
  8
LC-004-002-----0
  6
CONTINUOUS
  5
743
 10
777.45108
 20
622.373139
 30
0.0
 40
1.0
 50
270.000058
 51
0.0
  0
LINE
  8
LC-004-002-----0
  6
CONTINUOUS
  5
744
 10
773.45108
 20
625.373139
 30
0.0
 11
773.45108
 21
622.373139
 31
0.0
  0
ARC
  8
LC-004-002-----0
  6
CONTINUOUS
  5
745
 10
774.45108
 20
622.373139
 30
0.0
 40
1.0
 50
180.0
 51
270.000058
  0
LINE
  8
LC-004-002-----0
  6
CONTINUOUS
  5
746
 10
774.45108
 20
621.373139
 30
0.0
 11
777.45108
 21
621.373139
 31
0.0
  0
LINE
  8
LC-004-002-----0
  6
DASHDOT
 62
     2
  5
747
 10
667.952046
 20
602.123138
 30
0.0
 11
667.952046
 21
629.623139
 31
0.0
  0
ARC
  8
LC-010-002-RND-0
  6
CONTINUOUS
  5
748
 10
812.601779
 20
403.105512
 30
0.0
 40
0.5
 50
180.0
 51
269.999679
  0
LINE
  8
LC-004-002-----0
  6
DASHDOT
 62
     2
  5
749
 10
667.952046
 20
602.123138
 30
0.0
 11
667.952046
 21
629.623139
 31
0.0
  0
LINE
  8
LC-004-002-----0
  6
CONTINUOUS
  5
74A
 10
658.452046
 20
602.123138
 30
0.0
 11
658.452046
 21
618.807507
 31
0.0
  0
LINE
  8
LC-004-002-----0
  6
CONTINUOUS
  5
74B
 10
812.101779
 20
403.105512
 30
0.0
 11
812.101779
 21
406.605514
 31
0.0
  0
ARC
  8
LC-004-002-----0
  6
CONTINUOUS
  5
74C
 10
663.452046
 20
623.006486
 30
0.0
 40
2.0
 50
280.339949
 51
0.0
  0
ARC
  8
LC-004-002-----0
  6
CONTINUOUS
  5
74D
 10
656.452046
 20
586.373138
 30
0.0
 40
41.0
 50
79.660109
 51
100.339891
  0
LINE
  8
LC-003-100-D03-0
  6
CONTINUOUS
  5
74E
 10
1068.342026
 20
396.991028
 30
0.0
 11
1073.312876
 21
398.32157
 31
0.0
  0
ARC
  8
LC-004-002-----0
  6
CONTINUOUS
  5
74F
 10
649.452046
 20
624.739791
 30
0.0
 40
2.0
 50
100.339872
 51
180.0
  0
LINE
  8
LC-004-002-----0
  6
CONTINUOUS
  5
750
 10
812.101779
 20
542.606571
 30
0.0
 11
821.27483
 21
542.606622
 31
0.0
  0
ARC
  8
LC-004-002-----0
  6
CONTINUOUS
  5
751
 10
656.452046
 20
661.373139
 30
0.0
 40
41.0
 50
259.660109
 51
280.339949
  0
ARC
  8
LC-004-002-----0
  6
CONTINUOUS
  5
752
 10
649.452046
 20
623.006486
 30
0.0
 40
2.0
 50
180.0
 51
259.659957
  0
ARC
  8
LC-004-002-----0
  6
CONTINUOUS
  5
753
 10
649.452046
 20
624.90337
 30
0.0
 40
2.0
 50
106.726782
 51
180.0
  0
ARC
  8
LC-004-002-----0
  6
CONTINUOUS
  5
754
 10
649.452046
 20
622.842907
 30
0.0
 40
2.0
 50
180.0
 51
253.273047
  0
LINE
  8
LC-004-002-----0
  6
CONTINUOUS
  5
755
 10
647.452046
 20
622.842907
 30
0.0
 11
647.452046
 21
624.90337
 31
0.0
  0
LINE
  8
LC-004-002-----0
  6
CONTINUOUS
  5
756
 10
677.45225
 20
602.123306
 30
0.0
 11
677.452261
 21
618.807675
 31
0.0
  0
ARC
  8
LC-004-002-----0
  6
CONTINUOUS
  5
757
 10
679.45224
 20
586.373305
 30
0.0
 40
41.0
 50
79.660072
 51
100.339835
  0
ARC
  8
LC-004-002-----0
  6
CONTINUOUS
  5
758
 10
672.452265
 20
624.739961
 30
0.0
 40
2.0
 50
100.339835
 51
179.999963
  0
ARC
  8
LC-004-002-----0
  6
CONTINUOUS
  5
759
 10
672.452264
 20
623.006657
 30
0.0
 40
2.0
 50
179.999963
 51
259.659995
  0
LINE
  8
LC-004-002-----0
  6
CONTINUOUS
  5
75A
 10
818.494576
 20
401.211942
 30
0.0
 11
818.494576
 21
402.605514
 31
0.0
  0
ARC
  8
LC-004-002-----0
  6
CONTINUOUS
  5
75B
 10
679.452289
 20
661.373305
 30
0.0
 40
41.0
 50
259.65992
 51
280.339853
  0
ARC
  8
LC-004-002-----0
  6
CONTINUOUS
  5
75C
 10
686.452265
 20
624.739952
 30
0.0
 40
2.0
 50
359.999963
 51
79.659997
  0
ARC
  8
LC-004-002-----0
  6
CONTINUOUS
  5
75D
 10
667.952046
 20
563.344292
 30
0.0
 40
66.278846
 50
73.273199
 51
106.726782
  0
ARC
  8
LC-004-002-----0
  6
CONTINUOUS
  5
75E
 10
686.452046
 20
624.90337
 30
0.0
 40
2.0
 50
0.0
 51
73.273199
  0
LINE
  8
LC-004-002-----0
  6
CONTINUOUS
  5
75F
 10
815.803979
 20
402.605514
 30
0.0
 11
815.803979
 21
401.211942
 31
0.0
  0
LINE
  8
LC-004-002-----0
  6
CONTINUOUS
  5
760
 10
823.677894
 20
401.211942
 30
0.0
 11
815.803979
 21
401.211942
 31
0.0
  0
ARC
  8
LC-004-002-----0
  6
CONTINUOUS
  5
761
 10
686.452264
 20
623.006648
 30
0.0
 40
2.0
 50
280.339912
 51
359.999963
  0
LINE
  8
LC-004-002-----0
  6
CONTINUOUS
  5
762
 10
812.101779
 20
546.106573
 30
0.0
 11
812.101779
 21
542.606571
 31
0.0
  0
LINE
  8
LC-004-002-----0
  6
CONTINUOUS
  5
763
 10
812.601776
 20
546.606573
 30
0.0
 11
821.208226
 21
546.606622
 31
0.0
  0
LINE
  8
LC-004-002-----0
  6
CONTINUOUS
  5
764
 10
815.803979
 20
546.606571
 30
0.0
 11
815.803979
 21
548.000143
 31
0.0
  0
LINE
  8
LC-004-002-----0
  6
CONTINUOUS
  5
765
 10
821.183902
 20
548.000143
 30
0.0
 11
815.803979
 21
548.000143
 31
0.0
  0
LINE
  8
LC-004-002-----0
  6
CONTINUOUS
  5
766
 10
818.494576
 20
548.000143
 30
0.0
 11
818.494576
 21
546.606571
 31
0.0
  0
ARC
  8
LC-010-002-RND-0
  6
CONTINUOUS
  5
767
 10
812.601779
 20
546.106573
 30
0.0
 40
0.5
 50
90.000321
 51
180.0
  0
LINE
  8
LC-004-002-----0
  6
CONTINUOUS
  5
768
 10
821.374068
 20
537.105565
 30
0.0
 11
824.150493
 21
537.105565
 31
0.0
  0
LINE
  8
LC-003-100-D03-0
  6
CONTINUOUS
  5
769
 10
821.208226
 20
546.606622
 30
0.0
 11
820.756412
 21
572.490982
 31
0.0
  0
LINE
  8
LC-008-100-D01-0
  6
CONTINUOUS
  5
76A
 10
824.154284
 20
535.987559
 30
0.0
 11
824.154284
 21
537.105565
 31
0.0
  0
ARC
  8
LC-004-002-----0
  6
CONTINUOUS
  5
76B
 10
667.952046
 20
684.401985
 30
0.0
 40
66.278846
 50
253.273047
 51
286.726801
  0
ARC
  8
LC-004-002-----0
  6
CONTINUOUS
  5
76C
 10
686.452046
 20
622.842907
 30
0.0
 40
2.0
 50
286.72686
 51
0.0
  0
LINE
  8
LC-004-002-----0
  6
CONTINUOUS
  5
76D
 10
688.452046
 20
622.842907
 30
0.0
 11
688.452046
 21
624.90337
 31
0.0
  0
ARC
  8
LC-004-002-----0
  6
CONTINUOUS
  5
76E
 10
663.452046
 20
624.739791
 30
0.0
 40
2.0
 50
0.0
 51
79.660109
  0
ARC
  8
LC-004-002-----0
  6
CONTINUOUS
  5
76F
 10
666.452046
 20
625.373139
 30
0.0
 40
1.0
 50
90.0
 51
179.999848
  0
LINE
  8
LC-004-002-----0
  6
CONTINUOUS
  5
770
 10
669.452046
 20
626.373139
 30
0.0
 11
666.452046
 21
626.373139
 31
0.0
  0
ARC
  8
LC-004-002-----0
  6
CONTINUOUS
  5
771
 10
669.452046
 20
625.373139
 30
0.0
 40
1.0
 50
0.0
 51
90.0
  0
LINE
  8
LC-004-002-----0
  6
CONTINUOUS
  5
772
 10
670.452046
 20
622.373139
 30
0.0
 11
670.452046
 21
625.373139
 31
0.0
  0
ARC
  8
LC-004-002-----0
  6
CONTINUOUS
  5
773
 10
669.452046
 20
622.373139
 30
0.0
 40
1.0
 50
270.000058
 51
0.0
  0
LINE
  8
LC-004-002-----0
  6
CONTINUOUS
  5
774
 10
665.452046
 20
625.373139
 30
0.0
 11
665.452046
 21
622.373139
 31
0.0
  0
ARC
  8
LC-004-002-----0
  6
CONTINUOUS
  5
775
 10
666.452046
 20
622.373139
 30
0.0
 40
1.0
 50
180.0
 51
270.000058
  0
LINE
  8
LC-004-002-----0
  6
CONTINUOUS
  5
776
 10
666.452046
 20
621.373139
 30
0.0
 11
669.452046
 21
621.373139
 31
0.0
  0
LINE
  8
LC-001-100-D02-0
  6
CONTINUOUS
 62
     1
  5
777
 10
850.769193
 20
399.786529
 30
0.0
 11
828.772544
 21
399.402576
 31
0.0
  0
ARC
  8
LC-010-002-RND-0
  6
CONTINUOUS
  5
778
 10
1000.618942
 20
580.490982
 30
0.0
 40
2.5
 50
2.840313
 51
90.0
  0
LINE
  8
LC-005-100-D16-0
  6
CONTINUOUS
  5
779
 10
864.798055
 20
560.483426
 30
0.0
 11
855.493852
 21
564.822047
 31
0.0
  0
LINE
  8
LC-005-100-D16-0
  6
CONTINUOUS
  5
77A
 10
861.311548
 20
548.274184
 30
0.0
 11
866.749395
 21
545.738474
 31
0.0
  0
LINE
  8
LC-005-100-D16-0
  6
CONTINUOUS
  5
77B
 10
860.827858
 20
549.60311
 30
0.0
 11
865.281745
 21
559.1545
 31
0.0
  0
ARC
  8
LC-005-100-D16-0
  6
CONTINUOUS
  5
77C
 10
861.734166
 20
549.180491
 30
0.0
 40
1.0
 50
155.0
 51
245.0
  0
ARC
  8
LC-010-002-RND-0
  6
CONTINUOUS
  5
77D
 10
998.918907
 20
580.490982
 30
0.0
 40
2.5
 50
90.0
 51
177.159687
  0
LINE
  8
LC-004-002-----0
  6
CONTINUOUS
  5
77E
 10
996.018924
 20
572.490982
 30
0.0
 11
996.421978
 21
580.614863
 31
0.0
  0
ARC
  8
LC-005-100-D16-0
  6
CONTINUOUS
  5
77F
 10
864.375437
 20
559.577118
 30
0.0
 40
1.0
 50
335.0
 51
65.0
  0
LINE
  8
LC-005-100-D16-0
  6
CONTINUOUS
  5
780
 10
868.078321
 20
546.222163
 30
0.0
 11
873.76473
 21
558.416708
 31
0.0
  0
ARC
  8
LC-005-100-D16-0
  6
CONTINUOUS
  5
781
 10
867.172013
 20
546.644782
 30
0.0
 40
1.0
 50
245.0
 51
335.0
  0
LINE
  8
LC-005-100-D16-0
  6
CONTINUOUS
  5
782
 10
918.585629
 20
552.281617
 30
0.0
 11
875.018335
 21
559.963705
 31
0.0
  0
LINE
  8
LC-005-100-D16-0
  6
CONTINUOUS
  5
783
 10
918.411981
 20
551.296809
 30
0.0
 11
874.844686
 21
558.978897
 31
0.0
  0
ARC
  8
LC-005-100-D16-0
  6
CONTINUOUS
  5
784
 10
874.671038
 20
557.99409
 30
0.0
 40
1.0
 50
80.000001
 51
155.0
  0
LINE
  8
LC-005-100-D16-0
  6
CONTINUOUS
  5
785
 10
867.172013
 20
546.644782
 30
0.0
 11
872.858422
 21
558.839326
 31
0.0
  0
LINE
  8
LC-005-100-D16-0
  6
CONTINUOUS
  5
786
 10
861.734166
 20
549.180491
 30
0.0
 11
866.188053
 21
558.731881
 31
0.0
  0
LINE
  8
LC-005-100-D16-0
  6
CONTINUOUS
  5
787
 10
861.734166
 20
549.180491
 30
0.0
 11
867.172013
 21
546.644782
 31
0.0
  0
LINE
  8
LC-005-100-D16-0
  6
CONTINUOUS
  5
788
 10
865.220674
 20
561.389734
 30
0.0
 11
855.768066
 21
565.797557
 31
0.0
  0
ARC
  8
LC-005-100-D16-0
  6
CONTINUOUS
  5
789
 10
874.671038
 20
557.99409
 30
0.0
 40
2.0
 50
80.000001
 51
155.0
  0
ARC
  8
LC-005-100-D16-0
  6
CONTINUOUS
  5
78A
 10
864.375437
 20
559.577118
 30
0.0
 40
2.0
 50
335.0
 51
65.0
  0
LINE
  8
LC-005-100-D16-0
  6
CONTINUOUS
  5
78B
 10
973.210024
 20
497.198445
 30
0.0
 11
977.518571
 21
506.438153
 31
0.0
  0
LINE
  8
LC-005-100-D16-0
  6
CONTINUOUS
  5
78C
 10
972.303716
 20
497.621063
 30
0.0
 11
976.612263
 21
506.860772
 31
0.0
  0
ARC
  8
LC-005-100-D16-0
  6
CONTINUOUS
  5
78D
 10
973.210024
 20
497.198445
 30
0.0
 40
1.0
 50
155.0
 51
245.0
  0
LINE
  8
LC-005-100-D16-0
  6
CONTINUOUS
  5
78E
 10
978.647871
 20
494.662736
 30
0.0
 11
973.210024
 21
497.198445
 31
0.0
  0
LINE
  8
LC-005-100-D16-0
  6
CONTINUOUS
  5
78F
 10
978.225253
 20
493.756428
 30
0.0
 11
972.787406
 21
496.292137
 31
0.0
  0
ARC
  8
LC-005-100-D16-0
  6
CONTINUOUS
  5
790
 10
978.647871
 20
494.662736
 30
0.0
 40
1.0
 50
245.0
 51
335.0
  0
LINE
  8
LC-005-100-D16-0
  6
CONTINUOUS
  5
791
 10
979.554179
 20
494.240117
 30
0.0
 11
980.822033
 21
496.959041
 31
0.0
  0
LINE
  8
LC-005-100-D16-0
  6
CONTINUOUS
  5
792
 10
978.647871
 20
494.662736
 30
0.0
 11
979.915726
 21
497.381659
 31
0.0
  0
LINE
  8
LC-005-100-D16-0
  6
CONTINUOUS
  5
793
 10
980.822033
 20
496.959041
 30
0.0
 11
979.915726
 21
497.381659
 31
0.0
  0
ARC
  8
LC-005-100-D16-0
  6
CONTINUOUS
  5
794
 10
843.939022
 20
561.892015
 30
0.0
 40
5.2
 50
83.598853
 51
245.0
  0
LINE
  8
LC-005-100-D16-0
  6
CONTINUOUS
  5
795
 10
855.768066
 20
565.797557
 30
0.0
 11
844.518764
 21
567.059597
 31
0.0
  0
LINE
  8
LC-005-100-D16-0
  6
CONTINUOUS
  5
796
 10
841.741407
 20
557.179215
 30
0.0
 11
848.39372
 21
554.07719
 31
0.0
  0
LINE
  8
LC-005-100-D16-0
  6
CONTINUOUS
  5
797
 10
855.493852
 20
564.822047
 30
0.0
 11
844.407275
 21
566.065831
 31
0.0
  0
LINE
  8
LC-005-100-D16-0
  6
CONTINUOUS
  5
798
 10
842.164025
 20
558.085522
 30
0.0
 11
848.816338
 21
554.983498
 31
0.0
  0
LINE
  8
LC-005-100-D16-0
  6
CONTINUOUS
  5
799
 10
848.39372
 20
554.07719
 30
0.0
 11
848.816338
 21
554.983498
 31
0.0
  0
ARC
  8
LC-005-100-D16-0
  6
CONTINUOUS
  5
79A
 10
872.161653
 20
417.869754
 30
0.0
 40
140.0
 50
41.580232
 51
69.361016
  0
LINE
  8
LC-008-100-D01-0
  6
CONTINUOUS
  5
79B
 10
824.154284
 20
406.605447
 30
0.0
 11
824.154284
 21
535.987559
 31
0.0
  0
LINE
  8
LC-008-100-D01-0
  6
CONTINUOUS
  5
79C
 10
824.154284
 20
415.743987
 30
0.0
 11
828.487303
 21
415.743987
 31
0.0
  0
ARC
  8
LC-005-100-D16-0
  6
CONTINUOUS
  5
79D
 10
872.161653
 20
417.869754
 30
0.0
 40
139.0
 50
41.580232
 51
89.637088
  0
ARC
  8
LC-005-100-D16-0
  6
CONTINUOUS
  5
79E
 10
973.89334
 20
508.128626
 30
0.0
 40
3.0
 50
335.0
 51
41.580232
  0
LINE
  8
LC-008-100-D01-0
  6
CONTINUOUS
  5
79F
 10
824.621667
 20
535.487831
 30
0.0
 11
826.397149
 21
535.488798
 31
0.0
  0
ARC
  8
LC-008-100-D01-0
  6
CONTINUOUS
  5
7A0
 10
824.621395
 20
535.987831
 30
0.0
 40
0.5
 50
180.031213
 51
270.031213
  0
ARC
  8
LC-005-100-D16-0
  6
CONTINUOUS
  5
7A1
 10
973.89334
 20
508.128626
 30
0.0
 40
4.0
 50
335.0
 51
41.580232
  0
ARC
  8
LC-005-100-D16-0
  6
CONTINUOUS
  5
7A2
 10
918.238332
 20
550.312001
 30
0.0
 40
2.0
 50
6.375598
 51
80.000001
  0
ARC
  8
LC-005-100-D16-0
  6
CONTINUOUS
  5
7A3
 10
922.213594
 20
550.756184
 30
0.0
 40
2.0
 50
186.375598
 51
249.361016
  0
ARC
  8
LC-005-100-D16-0
  6
CONTINUOUS
  5
7A4
 10
918.238332
 20
550.312001
 30
0.0
 40
1.0
 50
6.375598
 51
80.000001
  0
ARC
  8
LC-005-100-D16-0
  6
CONTINUOUS
  5
7A5
 10
922.213594
 20
550.756184
 30
0.0
 40
3.0
 50
186.375598
 51
249.361016
  0
LINE
  8
LC-001-100-D02-0
  6
CONTINUOUS
 62
     1
  5
7A6
 10
866.749395
 20
545.738474
 30
0.0
 11
973.576599
 21
495.924131
 31
0.0
  0
LINE
  8
LC-004-002-----0
  6
CONTINUOUS
  5
7A7
 10
997.62007
 20
572.490982
 30
0.0
 11
996.018924
 21
572.490982
 31
0.0
  0
LINE
  8
LC-003-100-D03-0
  6
CONTINUOUS
  5
7A8
 10
997.62007
 20
572.490982
 30
0.0
 11
998.065537
 21
580.990982
 31
0.0
  0
ARC
  8
LC-005-100-D16-0
  6
CONTINUOUS
  5
7A9
 10
843.939022
 20
561.892015
 30
0.0
 40
4.2
 50
83.598853
 51
245.0
  0
LINE
  8
LC-004-002-----0
  6
CONTINUOUS
  5
7AA
 10
1003.518924
 20
572.490982
 30
0.0
 11
1003.115871
 21
580.614863
 31
0.0
  0
LINE
  8
LC-004-002-----0
  6
CONTINUOUS
  5
7AB
 10
1001.917779
 20
572.490982
 30
0.0
 11
1003.518924
 21
572.490982
 31
0.0
  0
LINE
  8
LC-001-100-D02-0
  6
CONTINUOUS
 62
     1
  5
7AC
 10
825.857992
 20
566.377141
 30
0.0
 11
828.521229
 21
413.800382
 31
0.0
  0
LINE
  8
LC-001-100-D02-0
  6
CONTINUOUS
 62
     1
  5
7AD
 10
833.202483
 20
546.702323
 30
0.0
 11
830.20294
 21
546.649966
 31
0.0
  0
LINE
  8
LC-001-100-D02-0
  6
CONTINUOUS
 62
     1
  5
7AE
 10
833.164088
 20
548.901988
 30
0.0
 11
826.165154
 21
548.779821
 31
0.0
  0
LINE
  8
LC-001-100-D02-0
  6
CONTINUOUS
 62
     1
  5
7AF
 10
833.164088
 20
548.901988
 30
0.0
 11
833.202483
 21
546.702323
 31
0.0
  0
LINE
  8
LC-001-100-D02-0
  6
CONTINUOUS
 62
     1
  5
7B0
 10
830.20294
 20
546.649966
 30
0.0
 11
830.237845
 21
544.650271
 31
0.0
  0
LINE
  8
LC-001-100-D02-0
  6
CONTINUOUS
 62
     1
  5
7B1
 10
836.496201
 20
544.759511
 30
0.0
 11
830.237845
 21
544.650271
 31
0.0
  0
LINE
  8
LC-001-100-D02-0
  6
CONTINUOUS
 62
     1
  5
7B2
 10
838.904633
 20
406.780529
 30
0.0
 11
832.646277
 21
406.671289
 31
0.0
  0
LINE
  8
LC-001-100-D02-0
  6
CONTINUOUS
 62
     1
  5
7B3
 10
832.681182
 20
404.671593
 30
0.0
 11
832.646277
 21
406.671289
 31
0.0
  0
LINE
  8
LC-001-100-D02-0
  6
CONTINUOUS
 62
     1
  5
7B4
 10
835.71912
 20
402.524286
 30
0.0
 11
835.680725
 21
404.72395
 31
0.0
  0
LINE
  8
LC-001-100-D02-0
  6
CONTINUOUS
 62
     1
  5
7B5
 10
835.71912
 20
402.524286
 30
0.0
 11
828.720186
 21
402.402119
 31
0.0
  0
LINE
  8
LC-001-100-D02-0
  6
CONTINUOUS
 62
     1
  5
7B6
 10
835.680725
 20
404.72395
 30
0.0
 11
832.681182
 21
404.671593
 31
0.0
  0
LINE
  8
LC-001-100-D02-0
  6
CONTINUOUS
 62
     1
  5
7B7
 10
850.769193
 20
403.787138
 30
0.0
 11
844.502198
 21
403.677747
 31
0.0
  0
LINE
  8
LC-016-100-D04-0
  6
CONTINUOUS
  5
7B8
 10
850.75174
 20
404.786986
 30
0.0
 11
834.30889
 21
413.901406
 31
0.0
  0
LINE
  8
LC-016-100-D04-0
  6
CONTINUOUS
  5
7B9
 10
828.521229
 20
413.800382
 30
0.0
 11
834.30889
 21
413.901406
 31
0.0
  0
LINE
  8
LC-001-100-D02-0
  6
CONTINUOUS
 62
     1
  5
7BA
 10
844.502198
 20
403.677747
 30
0.0
 11
838.904633
 21
406.780529
 31
0.0
  0
LINE
  8
LC-016-100-D04-0
  6
CONTINUOUS
  5
7BB
 10
849.980852
 20
548.195373
 30
0.0
 11
832.151773
 21
537.482582
 31
0.0
  0
LINE
  8
LC-001-100-D02-0
  6
CONTINUOUS
 62
     1
  5
7BC
 10
841.982071
 20
548.055754
 30
0.0
 11
836.496201
 21
544.759511
 31
0.0
  0
LINE
  8
LC-001-100-D02-0
  6
CONTINUOUS
 62
     1
  5
7BD
 10
850.769193
 20
548.209134
 30
0.0
 11
841.982071
 21
548.055754
 31
0.0
  0
LINE
  8
LC-016-100-D04-0
  6
CONTINUOUS
  5
7BE
 10
826.364112
 20
537.381558
 30
0.0
 11
832.151773
 21
537.482582
 31
0.0
  0
LINE
  8
LC-001-100-D02-0
  6
CONTINUOUS
 62
     1
  5
7BF
 10
850.769193
 20
551.809682
 30
0.0
 11
850.769193
 21
548.195373
 31
0.0
  0
LINE
  8
LC-001-100-D02-0
  6
CONTINUOUS
 62
     1
  5
7C0
 10
841.855555
 20
566.656379
 30
0.0
 11
825.857992
 21
566.377141
 31
0.0
  0
LINE
  8
LC-001-100-D02-0
  6
CONTINUOUS
 62
     1
  5
7C1
 10
829.657413
 20
566.44346
 30
0.0
 11
829.919199
 21
551.445744
 31
0.0
  0
LINE
  8
LC-001-100-D02-0
  6
CONTINUOUS
 62
     1
  5
7C2
 10
850.706365
 20
551.808586
 30
0.0
 11
829.919199
 21
551.445744
 31
0.0
  0
LINE
  8
LC-001-100-D02-0
  6
CONTINUOUS
 62
     1
  5
7C3
 10
828.521229
 20
413.800382
 30
0.0
 11
828.772544
 21
399.402576
 31
0.0
  0
LINE
  8
LC-001-100-D02-0
  6
CONTINUOUS
 62
     1
  5
7C4
 10
850.769193
 20
404.777311
 30
0.0
 11
850.769193
 21
399.786529
 31
0.0
  0
LINE
  8
LC-004-002-----0
  6
CONTINUOUS
  5
7C5
 10
832.151773
 20
537.482582
 30
0.0
 11
834.30889
 21
413.901406
 31
0.0
  0
LINE
  8
LC-001-100-D02-0
  6
CONTINUOUS
 62
     1
  5
7C6
 10
850.769193
 20
548.209134
 30
0.0
 11
850.769193
 21
404.777311
 31
0.0
  0
LINE
  8
LC-003-100-D03-0
  6
CONTINUOUS
  5
7C7
 10
1073.328867
 20
398.326536
 30
0.0
 11
1073.328867
 21
520.621235
 31
0.0
  0
LINE
  8
LC-003-100-D03-0
  6
CONTINUOUS
  5
7C8
 10
1001.867103
 20
521.953077
 30
0.0
 11
1068.358366
 21
521.953077
 31
0.0
  0
LINE
  8
LC-003-100-D03-0
  6
CONTINUOUS
  5
7C9
 10
1068.358366
 20
521.953077
 30
0.0
 11
1073.328867
 21
520.621235
 31
0.0
  0
LINE
  8
LC-004-002-----0
  6
CONTINUOUS
  5
7CA
 10
804.837264
 20
590.623139
 30
0.0
 11
805.858523
 21
590.623139
 31
0.0
  0
LINE
  8
LC-004-002-----0
  6
CONTINUOUS
  5
7CB
 10
814.729517
 20
587.123139
 30
0.0
 11
815.759716
 21
587.123139
 31
0.0
  0
LINE
  8
LC-015-007-KH--0
  5
7CC
 10
980.992038
 20
587.000982
 30
0.0
 11
981.067031
 21
587.000982
 31
0.0
  0
LINE
  8
LC-004-002-----0
  6
CONTINUOUS
  5
7CD
 10
824.749536
 20
582.990982
 30
0.0
 11
823.049501
 21
582.990982
 31
0.0
  0
LINE
  8
LC-003-100-D03-0
  6
CONTINUOUS
  5
7CE
 10
826.048373
 20
572.490982
 30
0.0
 11
825.627739
 21
580.51715
 31
0.0
  0
ARC
  8
LC-010-002-RND-0
  6
CONTINUOUS
  5
7CF
 10
823.049501
 20
580.490982
 30
0.0
 40
2.5
 50
90.0
 51
177.159687
  0
ARC
  8
LC-010-002-RND-0
  6
CONTINUOUS
  5
7D0
 10
824.749536
 20
580.490982
 30
0.0
 40
2.5
 50
2.840313
 51
90.0
  0
LINE
  8
LC-004-002-----0
  6
CONTINUOUS
  5
7D1
 10
629.978667
 20
587.596971
 30
0.0
 11
630.505487
 21
597.649306
 31
0.0
  0
ARC
  8
LC-010-002-RND-0
  6
CONTINUOUS
  5
7D2
 10
807.200546
 20
597.623139
 30
0.0
 40
0.5
 50
90.0
 51
177.0
  0
ARC
  8
LC-010-002-RND-0
  6
CONTINUOUS
  5
7D3
 10
631.004802
 20
597.623139
 30
0.0
 40
0.5
 50
90.0
 51
177.0
  0
ARC
  8
LC-010-002-RND-0
  6
CONTINUOUS
  5
7D4
 10
637.008323
 20
597.623139
 30
0.0
 40
0.5
 50
3.0
 51
90.0
  0
ARC
  8
LC-010-002-RND-0
  6
CONTINUOUS
  5
7D5
 10
640.370378
 20
597.623139
 30
0.0
 40
0.5
 50
90.0
 51
180.0
  0
LINE
  8
LC-004-002-----0
  6
CONTINUOUS
  5
7D6
 10
638.350346
 20
590.623139
 30
0.0
 11
639.370378
 21
590.623139
 31
0.0
  0
LINE
  8
LC-004-002-----0
  6
CONTINUOUS
  5
7D7
 10
628.449153
 20
587.123139
 30
0.0
 11
629.479352
 21
587.123139
 31
0.0
  0
LINE
  8
LC-004-002-----0
  6
CONTINUOUS
  5
7D8
 10
821.750664
 20
572.490982
 30
0.0
 11
820.149519
 21
572.490982
 31
0.0
  0
LINE
  8
LC-004-002-----0
  6
CONTINUOUS
  5
7D9
 10
637.851031
 20
591.096971
 30
0.0
 11
637.507638
 21
597.649306
 31
0.0
  0
LINE
  8
LC-004-002-----0
  6
CONTINUOUS
  5
7DA
 10
806.357838
 20
591.096971
 30
0.0
 11
806.701231
 21
597.649306
 31
0.0
  0
LINE
  8
LC-004-002-----0
  6
CONTINUOUS
  5
7DB
 10
631.004802
 20
598.123139
 30
0.0
 11
637.008323
 21
598.123139
 31
0.0
  0
LINE
  8
LC-004-002-----0
  6
CONTINUOUS
  5
7DC
 10
630.949153
 20
602.123139
 30
0.0
 11
692.179147
 21
602.123139
 31
0.0
  0
ARC
  8
LC-010-002-RND-0
  6
CONTINUOUS
  5
7DD
 10
628.449153
 20
587.623139
 30
0.0
 40
0.5
 50
180.0
 51
270.0
  0
LINE
  8
LC-004-002-----0
  6
CONTINUOUS
  5
7DE
 10
640.370378
 20
598.123139
 30
0.0
 11
803.837227
 21
598.135102
 31
0.0
  0
LINE
  8
LC-004-002-----0
  6
CONTINUOUS
  5
7DF
 10
639.870378
 20
597.623139
 30
0.0
 11
639.870378
 21
591.123139
 31
0.0
  0
LINE
  8
LC-004-002-----0
  6
CONTINUOUS
  5
7E0
 10
807.200546
 20
598.123139
 30
0.0
 11
813.204067
 21
598.123139
 31
0.0
  0
LINE
  8
LC-004-002-----0
  6
CONTINUOUS
  5
7E1
 10
804.337264
 20
597.635102
 30
0.0
 11
804.337264
 21
591.123139
 31
0.0
  0
ARC
  8
LC-010-002-RND-0
  6
CONTINUOUS
  5
7E2
 10
630.949153
 20
599.123139
 30
0.0
 40
3.0
 50
90.0
 51
180.0
  0
ARC
  8
LC-010-002-RND-0
  6
CONTINUOUS
  5
7E3
 10
639.370378
 20
591.123139
 30
0.0
 40
0.5
 50
270.0
 51
0.0
  0
LINE
  8
LC-004-002-----0
  6
CONTINUOUS
  5
7E4
 10
820.149519
 20
572.490982
 30
0.0
 11
820.552572
 21
580.614863
 31
0.0
  0
LINE
  8
LC-004-002-----0
  6
CONTINUOUS
  5
7E5
 10
827.649519
 20
572.490982
 30
0.0
 11
827.246465
 21
580.614863
 31
0.0
  0
LINE
  8
LC-004-002-----0
  6
CONTINUOUS
  5
7E6
 10
826.048373
 20
572.490982
 30
0.0
 11
827.649519
 21
572.490982
 31
0.0
  0
LINE
  8
LC-004-002-----0
  6
CONTINUOUS
  5
7E7
 10
676.679147
 20
598.123139
 30
0.0
 11
685.679147
 21
598.123139
 31
0.0
  0
LINE
  8
LC-004-002-----0
  6
CONTINUOUS
  5
7E8
 10
692.179147
 20
602.123139
 30
0.0
 11
813.189716
 21
602.123139
 31
0.0
  0
ARC
  8
LC-010-002-RND-0
  6
CONTINUOUS
  5
7E9
 10
805.858523
 20
591.123139
 30
0.0
 40
0.5
 50
270.0
 51
357.0
  0
ARC
  8
LC-010-002-RND-0
  6
CONTINUOUS
  5
7EA
 10
638.350346
 20
591.123139
 30
0.0
 40
0.5
 50
183.0
 51
270.0
  0
ARC
  8
LC-010-002-RND-0
  6
CONTINUOUS
  5
7EB
 10
804.837264
 20
591.123139
 30
0.0
 40
0.5
 50
180.0
 51
270.0
  0
LINE
  8
LC-004-002-----0
  6
CONTINUOUS
  5
7EC
 10
627.949153
 20
599.123139
 30
0.0
 11
627.949153
 21
587.623139
 31
0.0
  0
ARC
  8
LC-010-002-RND-0
  6
CONTINUOUS
  5
7ED
 10
629.479352
 20
587.623139
 30
0.0
 40
0.5
 50
270.0
 51
357.0
  0
LINE
  8
LC-004-002-----0
  6
CONTINUOUS
  5
7EE
 10
816.259716
 20
599.123139
 30
0.0
 11
816.259716
 21
587.623139
 31
0.0
  0
ARC
  8
LC-010-002-RND-0
  6
CONTINUOUS
  5
7EF
 10
813.259716
 20
599.123139
 30
0.0
 40
3.0
 50
0.0
 51
90.0
  0
ARC
  8
LC-010-002-RND-0
  6
CONTINUOUS
  5
7F0
 10
815.759716
 20
587.623139
 30
0.0
 40
0.5
 50
270.0
 51
0.0
  0
LINE
  8
LC-004-002-----0
  6
CONTINUOUS
  5
7F1
 10
814.230202
 20
587.596971
 30
0.0
 11
813.703382
 21
597.649306
 31
0.0
  0
ARC
  8
LC-010-002-RND-0
  6
CONTINUOUS
  5
7F2
 10
813.204067
 20
597.623139
 30
0.0
 40
0.5
 50
3.0
 51
90.0
  0
ARC
  8
LC-010-002-RND-0
  6
CONTINUOUS
  5
7F3
 10
814.729517
 20
587.623139
 30
0.0
 40
0.5
 50
183.0
 51
270.0
  0
LINE
  8
LC-009-001-----0
  6
CONTINUOUS
  5
7F4
 10
855.829636
 20
397.004873
 30
0.0
 11
1068.342026
 21
397.003694
 31
0.0
  0
LINE
  8
LC-017-006-MLN-0
  6
DASHDOT
  5
7F7
 10
971.478401
 20
459.484719
 30
0.0
 11
1064.329261
 21
459.472578
 31
0.0
  0
ENDSEC
  0
EOF
