  0
SECTION
  2
HEADER
  9
$ACADVER
  1
AC1015
  9
$ACADMAINTVER
 70
     6
  9
$DWGCODEPAGE
  3
DOS850
  9
$INSBASE
 10
86.626536
 20
69.211637
 30
0.0
  9
$EXTMIN
 10
-123.373464
 20
-79.288363
 30
0.0
  9
$EXTMAX
 10
716.626536
 20
514.711637
 30
0.0
  9
$LIMMIN
 10
-123.373464
 20
-79.288363
  9
$LIMMAX
 10
716.626536
 20
514.711637
  9
$ORTHOMODE
 70
     0
  9
$REGENMODE
 70
     1
  9
$FILLMODE
 70
     1
  9
$QTEXTMODE
 70
     0
  9
$MIRRTEXT
 70
     1
  9
$LTSCALE
 40
2.0
  9
$ATTMODE
 70
     1
  9
$TEXTSIZE
 40
2.5
  9
$TRACEWID
 40
1.0
  9
$TEXTSTYLE
  7
Standard
  9
$CLAYER
  8
0
  9
$CELTYPE
  6
ByLayer
  9
$CECOLOR
 62
     7
  9
$CELTSCALE
 40
1.0
  9
$DISPSILH
 70
     0
  9
$DIMSCALE
 40
2.0
  9
$DIMASZ
 40
3.5
  9
$DIMEXO
 40
0.625
  9
$DIMDLI
 40
3.75
  9
$DIMRND
 40
0.0
  9
$DIMDLE
 40
0.0
  9
$DIMEXE
 40
1.25
  9
$DIMTP
 40
0.0
  9
$DIMTM
 40
0.0
  9
$DIMTXT
 40
3.5
  9
$DIMCEN
 40
2.5
  9
$DIMTSZ
 40
0.0
  9
$DIMTOL
 70
     0
  9
$DIMLIM
 70
     0
  9
$DIMTIH
 70
     0
  9
$DIMTOH
 70
     0
  9
$DIMSE1
 70
     0
  9
$DIMSE2
 70
     0
  9
$DIMTAD
 70
     1
  9
$DIMZIN
 70
     8
  9
$DIMBLK
  1

  9
$DIMASO
 70
     1
  9
$DIMSHO
 70
     1
  9
$DIMPOST
  1

  9
$DIMAPOST
  1

  9
$DIMALT
 70
     0
  9
$DIMALTD
 70
     3
  9
$DIMALTF
 40
0.03937
  9
$DIMLFAC
 40
1.0
  9
$DIMTOFL
 70
     1
  9
$DIMTVP
 40
0.0
  9
$DIMTIX
 70
     0
  9
$DIMSOXD
 70
     0
  9
$DIMSAH
 70
     0
  9
$DIMBLK1
  1

  9
$DIMBLK2
  1

  9
$DIMSTYLE
  2
ISO-25
  9
$DIMCLRD
 70
     0
  9
$DIMCLRE
 70
     0
  9
$DIMCLRT
 70
     0
  9
$DIMTFAC
 40
1.0
  9
$DIMGAP
 40
0.625
  9
$DIMJUST
 70
     0
  9
$DIMSD1
 70
     0
  9
$DIMSD2
 70
     0
  9
$DIMTOLJ
 70
     0
  9
$DIMTZIN
 70
     8
  9
$DIMALTZ
 70
     0
  9
$DIMALTTZ
 70
     0
  9
$DIMUPT
 70
     0
  9
$DIMDEC
 70
     2
  9
$DIMTDEC
 70
     2
  9
$DIMALTU
 70
     2
  9
$DIMALTTD
 70
     3
  9
$DIMTXSTY
  7
Standard
  9
$DIMAUNIT
 70
     0
  9
$DIMADEC
 70
     0
  9
$DIMALTRND
 40
0.0
  9
$DIMAZIN
 70
     0
  9
$DIMDSEP
 70
    44
  9
$DIMATFIT
 70
     3
  9
$DIMFRAC
 70
     0
  9
$DIMLDRBLK
  1

  9
$DIMLUNIT
 70
     2
  9
$DIMLWD
 70
    -2
  9
$DIMLWE
 70
    -2
  9
$DIMTMOVE
 70
     0
  9
$LUNITS
 70
     2
  9
$LUPREC
 70
     4
  9
$SKETCHINC
 40
1.0
  9
$FILLETRAD
 40
10.0
  9
$AUNITS
 70
     0
  9
$AUPREC
 70
     0
  9
$MENU
  1
.
  9
$ELEVATION
 40
0.0
  9
$PELEVATION
 40
0.0
  9
$THICKNESS
 40
0.0
  9
$LIMCHECK
 70
     0
  9
$CHAMFERA
 40
10.0
  9
$CHAMFERB
 40
10.0
  9
$CHAMFERC
 40
20.0
  9
$CHAMFERD
 40
0.0
  9
$SKPOLY
 70
     0
  9
$TDCREATE
 40
2453663.409147905
  9
$TDUCREATE
 40
2453663.325814572
  9
$TDUPDATE
 40
2453663.409147917
  9
$TDUUPDATE
 40
2453663.325814583
  9
$TDINDWG
 40
0.0000000116
  9
$TDUSRTIMER
 40
0.0000000116
  9
$USRTIMER
 70
     1
  9
$ANGBASE
 50
0.0
  9
$ANGDIR
 70
     0
  9
$PDMODE
 70
     0
  9
$PDSIZE
 40
0.0
  9
$PLINEWID
 40
0.0
  9
$SPLFRAME
 70
     0
  9
$SPLINETYPE
 70
     6
  9
$SPLINESEGS
 70
     8
  9
$HANDSEED
  5
10E
  9
$SURFTAB1
 70
     6
  9
$SURFTAB2
 70
     6
  9
$SURFTYPE
 70
     6
  9
$SURFU
 70
     6
  9
$SURFV
 70
     6
  9
$UCSBASE
  2

  9
$UCSNAME
  2

  9
$UCSORG
 10
0.0
 20
0.0
 30
0.0
  9
$UCSXDIR
 10
1.0
 20
0.0
 30
0.0
  9
$UCSYDIR
 10
0.0
 20
1.0
 30
0.0
  9
$UCSORTHOREF
  2

  9
$UCSORTHOVIEW
 70
     0
  9
$UCSORGTOP
 10
0.0
 20
0.0
 30
0.0
  9
$UCSORGBOTTOM
 10
0.0
 20
0.0
 30
0.0
  9
$UCSORGLEFT
 10
0.0
 20
0.0
 30
0.0
  9
$UCSORGRIGHT
 10
0.0
 20
0.0
 30
0.0
  9
$UCSORGFRONT
 10
0.0
 20
0.0
 30
0.0
  9
$UCSORGBACK
 10
0.0
 20
0.0
 30
0.0
  9
$PUCSBASE
  2

  9
$PUCSNAME
  2

  9
$PUCSORG
 10
0.0
 20
0.0
 30
0.0
  9
$PUCSXDIR
 10
1.0
 20
0.0
 30
0.0
  9
$PUCSYDIR
 10
0.0
 20
1.0
 30
0.0
  9
$PUCSORTHOREF
  2

  9
$PUCSORTHOVIEW
 70
     0
  9
$PUCSORGTOP
 10
0.0
 20
0.0
 30
0.0
  9
$PUCSORGBOTTOM
 10
0.0
 20
0.0
 30
0.0
  9
$PUCSORGLEFT
 10
0.0
 20
0.0
 30
0.0
  9
$PUCSORGRIGHT
 10
0.0
 20
0.0
 30
0.0
  9
$PUCSORGFRONT
 10
0.0
 20
0.0
 30
0.0
  9
$PUCSORGBACK
 10
0.0
 20
0.0
 30
0.0
  9
$USERI1
 70
     0
  9
$USERI2
 70
     0
  9
$USERI3
 70
     0
  9
$USERI4
 70
     0
  9
$USERI5
 70
     0
  9
$USERR1
 40
0.0
  9
$USERR2
 40
0.0
  9
$USERR3
 40
0.0
  9
$USERR4
 40
0.0
  9
$USERR5
 40
0.0
  9
$WORLDVIEW
 70
     1
  9
$SHADEDGE
 70
     3
  9
$SHADEDIF
 70
    70
  9
$TILEMODE
 70
     1
  9
$MAXACTVP
 70
    64
  9
$PINSBASE
 10
0.0
 20
0.0
 30
0.0
  9
$PLIMCHECK
 70
     0
  9
$PEXTMIN
 10
-123.373464
 20
-79.288363
 30
0.0
  9
$PEXTMAX
 10
716.626536
 20
514.711637
 30
0.0
  9
$PLIMMIN
 10
-123.373464
 20
-79.288363
  9
$PLIMMAX
 10
716.626536
 20
514.711637
  9
$UNITMODE
 70
     0
  9
$VISRETAIN
 70
     1
  9
$PLINEGEN
 70
     0
  9
$PSLTSCALE
 70
     1
  9
$TREEDEPTH
 70
  3020
  9
$CMLSTYLE
  2
Standard
  9
$CMLJUST
 70
     0
  9
$CMLSCALE
 40
20.0
  9
$PROXYGRAPHICS
 70
     1
  9
$MEASUREMENT
 70
     1
  9
$CELWEIGHT
370
    -1
  9
$ENDCAPS
280
     0
  9
$JOINSTYLE
280
     0
  9
$LWDISPLAY
290
     0
  9
$INSUNITS
 70
     4
  9
$HYPERLINKBASE
  1

  9
$STYLESHEET
  1

  9
$XEDIT
290
     1
  9
$CEPSNTYPE
380
     0
  9
$PSTYLEMODE
290
     1
  9
$FINGERPRINTGUID
  2
{FAEB1C30-E019-11D5-929B-00C0DF256EC4}
  9
$VERSIONGUID
  2
{FAEB1C32-E019-11D5-929B-00C0DF256EC4}
  9
$EXTNAMES
290
     1
  9
$PSVPSCALE
 40
0.0
  9
$OLESTARTUP
290
     0
  0
ENDSEC
  0
SECTION
  2
CLASSES
  0
CLASS
  1
ACDBDICTIONARYWDFLT
  2
AcDbDictionaryWithDefault
  3
ObjectDBX Classes
 90
        0
280
     0
281
     0
  0
CLASS
  1
ACDBPLACEHOLDER
  2
AcDbPlaceHolder
  3
ObjectDBX Classes
 90
        0
280
     0
281
     0
  0
CLASS
  1
LAYOUT
  2
AcDbLayout
  3
ObjectDBX Classes
 90
        0
280
     0
281
     0
  0
ENDSEC
  0
SECTION
  2
TABLES
  0
TABLE
  2
VPORT
  5
8
330
0
100
AcDbSymbolTable
 70
     2
  0
VPORT
  5
29
330
8
100
AcDbSymbolTableRecord
100
AcDbViewportTableRecord
  2
*ACTIVE
 70
     0
 10
0.0
 20
0.0
 11
1.0
 21
1.0
 12
296.626536
 22
217.711637
 13
0.0
 23
0.0
 14
1.0
 24
1.0
 15
0.0
 25
0.0
 16
0.0
 26
0.0
 36
1.0
 17
0.0
 27
0.0
 37
0.0
 40
594.0
 41
1.414141
 42
50.0
 43
0.0
 44
0.0
 50
0.0
 51
0.0
 71
    16
 72
   100
 73
     1
 74
     0
 75
     0
 76
     0
 77
     0
 78
     0
281
     0
 65
     0
110
0.0
120
0.0
130
0.0
111
1.0
121
0.0
131
0.0
112
0.0
122
1.0
132
0.0
 79
     0
146
0.0
  0
ENDTAB
  0
TABLE
  2
LTYPE
  5
5
330
0
100
AcDbSymbolTable
 70
     3
  0
LTYPE
  5
14
330
5
100
AcDbSymbolTableRecord
100
AcDbLinetypeTableRecord
  2
ByBlock
 70
     0
  3

 72
    65
 73
     0
 40
0.0
  0
LTYPE
  5
15
330
5
100
AcDbSymbolTableRecord
100
AcDbLinetypeTableRecord
  2
ByLayer
 70
     0
  3

 72
    65
 73
     0
 40
0.0
  0
LTYPE
  5
16
330
5
100
AcDbSymbolTableRecord
100
AcDbLinetypeTableRecord
  2
Continuous
 70
     0
  3
Solid line
 72
    65
 73
     0
 40
0.0
  0
LTYPE
  5
2A
330
5
100
AcDbSymbolTableRecord
100
AcDbLinetypeTableRecord
  2
DASHED
 70
     0
  3
__ __ __ __ __
 72
    65
 73
     2
 40
6.25
 49
5.0
 74
     4
 75
     0
340
0
 46
1.0
 50
0.0
 44
0.0
 45
0.0
 49
-1.25
 74
     4
 75
     0
340
0
 46
1.0
 50
0.0
 44
0.0
 45
0.0
  0
LTYPE
  5
4B
330
5
100
AcDbSymbolTableRecord
100
AcDbLinetypeTableRecord
  2
CENTER
 70
     0
  3
__ . __ . __ . __ . __
 72
    65
 73
     4
 40
7.5
 49
5.0
 74
     4
 75
     0
340
0
 46
1.0
 50
0.0
 44
0.0
 45
0.0
 49
-1.25
 74
     4
 75
     0
340
0
 46
1.0
 50
0.0
 44
0.0
 45
0.0
 49
0.0
 74
     4
 75
     0
340
0
 46
1.0
 50
0.0
 44
0.0
 45
0.0
 49
-1.25
 74
     4
 75
     0
340
0
 46
1.0
 50
0.0
 44
0.0
 45
0.0
  0
ENDTAB
  0
TABLE
  2
LAYER
  5
2
330
0
100
AcDbSymbolTable
 70
    11
  0
LAYER
  5
10
330
2
100
AcDbSymbolTableRecord
100
AcDbLayerTableRecord
  2
0
 70
     0
 62
     7
  6
Continuous
370
    -3
390
F
  0
LAYER
  5
2B
330
2
100
AcDbSymbolTableRecord
100
AcDbLayerTableRecord
  2
LC-INFO-1-2-mm-A3-0
 70
     1
 62
     7
  6
ByBlock
370
    -3
390
F
  0
LAYER
  5
2C
330
2
100
AcDbSymbolTableRecord
100
AcDbLayerTableRecord
  2
LC-CUT-HIDDEN
 70
     0
 62
     7
  6
DASHED
370
    -3
390
F
  0
LAYER
  5
2D
330
2
100
AcDbSymbolTableRecord
100
AcDbLayerTableRecord
  2
LC-VIEWPORT
 70
     0
 62
     7
  6
ByBlock
370
    -3
390
F
  0
LAYER
  5
2E
330
2
100
AcDbSymbolTableRecord
100
AcDbLayerTableRecord
  2
LC-3D-HIDDEN
 70
     0
 62
     9
  6
DASHED
370
    -3
390
F
  0
LAYER
  5
30
330
2
100
AcDbSymbolTableRecord
100
AcDbLayerTableRecord
  2
LC-001-002-----0
 70
     0
 62
     1
  6
ByBlock
370
    -3
390
F
  0
LAYER
  5
32
330
2
100
AcDbSymbolTableRecord
100
AcDbLayerTableRecord
  2
LC-002-002-RND-0
 70
     0
 62
     1
  6
ByBlock
370
    -3
390
F
  0
LAYER
  5
4C
330
2
100
AcDbSymbolTableRecord
100
AcDbLayerTableRecord
  2
LC-003-006-MLN-0
 70
     0
 62
     2
  6
CENTER
370
    -3
390
F
  0
LAYER
  5
58
330
2
100
AcDbSymbolTableRecord
100
AcDbLayerTableRecord
  2
LC-004-005-----0
 70
     0
 62
     2
  6
ByBlock
370
    -3
390
F
  0
LAYER
  5
9A
330
2
100
AcDbSymbolTableRecord
100
AcDbLayerTableRecord
  2
LC-005-003-----0
 70
     0
 62
     2
  6
ByBlock
370
    -3
390
F
  0
LAYER
  5
9C
330
2
100
AcDbSymbolTableRecord
100
AcDbLayerTableRecord
  2
Defpoints
 70
     0
 62
     7
  6
Continuous
290
     0
370
    -3
390
F
  0
ENDTAB
  0
TABLE
  2
STYLE
  5
3
330
0
100
AcDbSymbolTable
 70
     3
  0
STYLE
  5
11
330
3
100
AcDbSymbolTableRecord
100
AcDbTextStyleTableRecord
  2
Standard
 70
     0
 40
0.0
 41
1.0
 50
0.0
 71
     0
 42
2.5
  3
txt
  4

  0
STYLE
  5
2F
330
3
100
AcDbSymbolTableRecord
100
AcDbTextStyleTableRecord
  2
LCTX15-400-0-0-Arial
 70
     0
 40
0.0
 41
0.9
 50
0.0
 71
     0
 42
3.5
  3

  4

1001
ACAD
1000
Arial
1071
 16777218
  0
STYLE
  5
98
330
3
100
AcDbSymbolTableRecord
100
AcDbTextStyleTableRecord
  2
LCTX15-400-0-0pDIN-Schrift
 70
     0
 40
2.5
 41
0.8
 50
15.0
 71
     0
 42
3.5
  3
STANDARD
  4

  0
ENDTAB
  0
TABLE
  2
VIEW
  5
6
330
0
100
AcDbSymbolTable
 70
     0
  0
ENDTAB
  0
TABLE
  2
UCS
  5
7
330
0
100
AcDbSymbolTable
 70
     0
  0
ENDTAB
  0
TABLE
  2
APPID
  5
9
330
0
100
AcDbSymbolTable
 70
     1
  0
APPID
  5
12
330
9
100
AcDbSymbolTableRecord
100
AcDbRegAppTableRecord
  2
ACAD
 70
     0
  0
ENDTAB
  0
TABLE
  2
DIMSTYLE
  5
A
330
0
100
AcDbSymbolTable
 70
     3
100
AcDbDimStyleTable
  0
DIMSTYLE
105
27
330
A
100
AcDbSymbolTableRecord
100
AcDbDimStyleTableRecord
  2
ISO-25
 70
     0
 41
2.5
 42
0.625
 43
3.75
 44
1.25
 73
     0
 74
     0
 77
     1
 78
     8
140
2.5
141
2.5
143
0.03937
147
0.625
171
     3
172
     1
271
     2
272
     2
274
     3
278
    44
283
     0
284
     8
340
11
  0
DIMSTYLE
105
99
102
{ACAD_REACTORS
330
9B
330
EB
102
}
330
A
100
AcDbSymbolTableRecord
100
AcDbDimStyleTableRecord
  2
LC-DIM-L-0140-02-02
 70
     0
 40
2.0
 41
14.0
 42
0.0
 43
7.5
 44
1.8
 73
     0
 74
     0
 77
     1
 78
     8
 79
     2
140
14.0
141
0.0
146
0.71
147
1.5
176
     2
177
     2
178
     2
179
     2
271
     2
278
    44
289
     1
340
98
  0
DIMSTYLE
105
AA
102
{ACAD_REACTORS
330
AB
102
}
330
A
100
AcDbSymbolTableRecord
100
AcDbDimStyleTableRecord
  2
LC-DIM-L-0140-01-02
 70
     0
 40
2.0
 41
14.0
 42
0.0
 43
7.5
 44
1.8
 73
     0
 74
     0
 77
     1
 78
     8
 79
     2
140
14.0
141
0.0
146
0.71
147
1.5
176
     2
177
     2
178
     2
179
     1
271
     1
278
    44
289
     1
340
98
  0
ENDTAB
  0
TABLE
  2
BLOCK_RECORD
  5
1
330
0
100
AcDbSymbolTable
 70
     8
  0
BLOCK_RECORD
  5
1F
330
1
100
AcDbSymbolTableRecord
100
AcDbBlockTableRecord
  2
*Model_Space
340
22
  0
BLOCK_RECORD
  5
1B
330
1
100
AcDbSymbolTableRecord
100
AcDbBlockTableRecord
  2
*Paper_Space
340
1E
  0
BLOCK_RECORD
  5
23
330
1
100
AcDbSymbolTableRecord
100
AcDbBlockTableRecord
  2
*Paper_Space0
340
26
  0
BLOCK_RECORD
  5
55
330
1
100
AcDbSymbolTableRecord
100
AcDbBlockTableRecord
  2
*X11
340
0
102
{BLKREFS
331
97
102
}
  0
BLOCK_RECORD
  5
9D
330
1
100
AcDbSymbolTableRecord
100
AcDbBlockTableRecord
  2
*D2
340
0
  0
BLOCK_RECORD
  5
AC
330
1
100
AcDbSymbolTableRecord
100
AcDbBlockTableRecord
  2
*D3
340
0
  0
BLOCK_RECORD
  5
C4
330
1
100
AcDbSymbolTableRecord
100
AcDbBlockTableRecord
  2
*X24
340
0
102
{BLKREFS
331
D8
102
}
  0
BLOCK_RECORD
  5
D9
330
1
100
AcDbSymbolTableRecord
100
AcDbBlockTableRecord
  2
*X35
340
0
102
{BLKREFS
331
EA
102
}
  0
BLOCK_RECORD
  5
EC
330
1
100
AcDbSymbolTableRecord
100
AcDbBlockTableRecord
  2
*D6
340
0
  0
BLOCK_RECORD
  5
FA
330
1
100
AcDbSymbolTableRecord
100
AcDbBlockTableRecord
  2
*X47
340
0
102
{BLKREFS
331
10B
102
}
  0
ENDTAB
  0
ENDSEC
  0
SECTION
  2
BLOCKS
  0
BLOCK
  5
20
330
1F
100
AcDbEntity
  8
0
100
AcDbBlockBegin
  2
*Model_Space
 70
     0
 71
     0
 10
0.0
 20
0.0
 30
0.0
  3
*Model_Space
  1

  0
ENDBLK
  5
21
330
1F
100
AcDbEntity
  8
0
100
AcDbBlockEnd
  0
BLOCK
  5
1C
330
1B
100
AcDbEntity
 67
     1
  8
0
100
AcDbBlockBegin
  2
*Paper_Space
 70
     0
 71
     0
 10
0.0
 20
0.0
 30
0.0
  3
*Paper_Space
  1

  0
ENDBLK
  5
1D
330
1B
100
AcDbEntity
 67
     1
  8
0
100
AcDbBlockEnd
  0
BLOCK
  5
24
330
23
100
AcDbEntity
  8
0
100
AcDbBlockBegin
  2
*Paper_Space0
 70
     0
 71
     0
 10
0.0
 20
0.0
 30
0.0
  3
*Paper_Space0
  1

  0
ENDBLK
  5
25
330
23
100
AcDbEntity
  8
0
100
AcDbBlockEnd
  0
BLOCK
  5
56
330
55
100
AcDbEntity
  8
0
100
AcDbBlockBegin
  2
*X11
 70
     1
 71
     0
 10
0.0
 20
0.0
 30
0.0
  3
*X11
  1

  4
*X1
  0
LINE
  5
59
330
55
100
AcDbEntity
  8
LC-004-005-----0
 62
     7
370
    25
100
AcDbLine
 10
461.466078
 20
206.907637
 30
0.0
 11
462.466078
 21
207.907637
 31
0.0
  0
LINE
  5
5A
330
55
100
AcDbEntity
  8
LC-004-005-----0
 62
     7
370
    25
100
AcDbLine
 10
457.223437
 20
206.907637
 30
0.0
 11
458.223437
 21
207.907637
 31
0.0
  0
LINE
  5
5B
330
55
100
AcDbEntity
  8
LC-004-005-----0
 62
     7
370
    25
100
AcDbLine
 10
452.980796
 20
206.907637
 30
0.0
 11
453.980796
 21
207.907637
 31
0.0
  0
LINE
  5
5C
330
55
100
AcDbEntity
  8
LC-004-005-----0
 62
     7
370
    25
100
AcDbLine
 10
448.738156
 20
206.907637
 30
0.0
 11
449.738156
 21
207.907637
 31
0.0
  0
LINE
  5
5D
330
55
100
AcDbEntity
  8
LC-004-005-----0
 62
     7
370
    25
100
AcDbLine
 10
444.495515
 20
206.907637
 30
0.0
 11
445.495515
 21
207.907637
 31
0.0
  0
LINE
  5
5E
330
55
100
AcDbEntity
  8
LC-004-005-----0
 62
     7
370
    25
100
AcDbLine
 10
440.252874
 20
206.907637
 30
0.0
 11
441.252874
 21
207.907637
 31
0.0
  0
LINE
  5
5F
330
55
100
AcDbEntity
  8
LC-004-005-----0
 62
     7
370
    25
100
AcDbLine
 10
436.010234
 20
206.907637
 30
0.0
 11
437.010234
 21
207.907637
 31
0.0
  0
LINE
  5
60
330
55
100
AcDbEntity
  8
LC-004-005-----0
 62
     7
370
    25
100
AcDbLine
 10
431.767593
 20
206.907637
 30
0.0
 11
432.767593
 21
207.907637
 31
0.0
  0
LINE
  5
61
330
55
100
AcDbEntity
  8
LC-004-005-----0
 62
     7
370
    25
100
AcDbLine
 10
427.524952
 20
206.907637
 30
0.0
 11
428.524952
 21
207.907637
 31
0.0
  0
LINE
  5
62
330
55
100
AcDbEntity
  8
LC-004-005-----0
 62
     7
370
    25
100
AcDbLine
 10
423.282312
 20
206.907637
 30
0.0
 11
424.282312
 21
207.907637
 31
0.0
  0
LINE
  5
63
330
55
100
AcDbEntity
  8
LC-004-005-----0
 62
     7
370
    25
100
AcDbLine
 10
419.039671
 20
206.907637
 30
0.0
 11
420.039671
 21
207.907637
 31
0.0
  0
LINE
  5
64
330
55
100
AcDbEntity
  8
LC-004-005-----0
 62
     7
370
    25
100
AcDbLine
 10
414.79703
 20
206.907637
 30
0.0
 11
415.79703
 21
207.907637
 31
0.0
  0
LINE
  5
65
330
55
100
AcDbEntity
  8
LC-004-005-----0
 62
     7
370
    25
100
AcDbLine
 10
410.55439
 20
206.907637
 30
0.0
 11
411.55439
 21
207.907637
 31
0.0
  0
LINE
  5
66
330
55
100
AcDbEntity
  8
LC-004-005-----0
 62
     7
370
    25
100
AcDbLine
 10
406.311749
 20
206.907637
 30
0.0
 11
407.311749
 21
207.907637
 31
0.0
  0
LINE
  5
67
330
55
100
AcDbEntity
  8
LC-004-005-----0
 62
     7
370
    25
100
AcDbLine
 10
402.069108
 20
206.907637
 30
0.0
 11
403.069108
 21
207.907637
 31
0.0
  0
LINE
  5
68
330
55
100
AcDbEntity
  8
LC-004-005-----0
 62
     7
370
    25
100
AcDbLine
 10
397.826467
 20
206.907637
 30
0.0
 11
398.826467
 21
207.907637
 31
0.0
  0
LINE
  5
69
330
55
100
AcDbEntity
  8
LC-004-005-----0
 62
     7
370
    25
100
AcDbLine
 10
393.583827
 20
206.907637
 30
0.0
 11
394.583827
 21
207.907637
 31
0.0
  0
LINE
  5
6A
330
55
100
AcDbEntity
  8
LC-004-005-----0
 62
     7
370
    25
100
AcDbLine
 10
389.341186
 20
206.907637
 30
0.0
 11
390.341186
 21
207.907637
 31
0.0
  0
LINE
  5
6B
330
55
100
AcDbEntity
  8
LC-004-005-----0
 62
     7
370
    25
100
AcDbLine
 10
385.098545
 20
206.907637
 30
0.0
 11
386.098545
 21
207.907637
 31
0.0
  0
LINE
  5
6C
330
55
100
AcDbEntity
  8
LC-004-005-----0
 62
     7
370
    25
100
AcDbLine
 10
380.855905
 20
206.907637
 30
0.0
 11
381.855905
 21
207.907637
 31
0.0
  0
LINE
  5
6D
330
55
100
AcDbEntity
  8
LC-004-005-----0
 62
     7
370
    25
100
AcDbLine
 10
376.613264
 20
206.907637
 30
0.0
 11
377.613264
 21
207.907637
 31
0.0
  0
LINE
  5
6E
330
55
100
AcDbEntity
  8
LC-004-005-----0
 62
     7
370
    25
100
AcDbLine
 10
372.370623
 20
206.907637
 30
0.0
 11
373.370623
 21
207.907637
 31
0.0
  0
LINE
  5
6F
330
55
100
AcDbEntity
  8
LC-004-005-----0
 62
     7
370
    25
100
AcDbLine
 10
368.127983
 20
206.907637
 30
0.0
 11
369.127983
 21
207.907637
 31
0.0
  0
LINE
  5
70
330
55
100
AcDbEntity
  8
LC-004-005-----0
 62
     7
370
    25
100
AcDbLine
 10
363.885342
 20
206.907637
 30
0.0
 11
364.885342
 21
207.907637
 31
0.0
  0
LINE
  5
71
330
55
100
AcDbEntity
  8
LC-004-005-----0
 62
     7
370
    25
100
AcDbLine
 10
359.642701
 20
206.907637
 30
0.0
 11
360.642701
 21
207.907637
 31
0.0
  0
LINE
  5
72
330
55
100
AcDbEntity
  8
LC-004-005-----0
 62
     7
370
    25
100
AcDbLine
 10
355.400061
 20
206.907637
 30
0.0
 11
356.400061
 21
207.907637
 31
0.0
  0
LINE
  5
73
330
55
100
AcDbEntity
  8
LC-004-005-----0
 62
     7
370
    25
100
AcDbLine
 10
351.15742
 20
206.907637
 30
0.0
 11
352.15742
 21
207.907637
 31
0.0
  0
LINE
  5
74
330
55
100
AcDbEntity
  8
LC-004-005-----0
 62
     7
370
    25
100
AcDbLine
 10
346.914779
 20
206.907637
 30
0.0
 11
347.914779
 21
207.907637
 31
0.0
  0
LINE
  5
75
330
55
100
AcDbEntity
  8
LC-004-005-----0
 62
     7
370
    25
100
AcDbLine
 10
342.672139
 20
206.907637
 30
0.0
 11
343.672139
 21
207.907637
 31
0.0
  0
LINE
  5
76
330
55
100
AcDbEntity
  8
LC-004-005-----0
 62
     7
370
    25
100
AcDbLine
 10
338.429498
 20
206.907637
 30
0.0
 11
339.429498
 21
207.907637
 31
0.0
  0
LINE
  5
77
330
55
100
AcDbEntity
  8
LC-004-005-----0
 62
     7
370
    25
100
AcDbLine
 10
334.186857
 20
206.907637
 30
0.0
 11
335.186857
 21
207.907637
 31
0.0
  0
LINE
  5
78
330
55
100
AcDbEntity
  8
LC-004-005-----0
 62
     7
370
    25
100
AcDbLine
 10
262.061965
 20
206.907637
 30
0.0
 11
263.061965
 21
207.907637
 31
0.0
  0
LINE
  5
79
330
55
100
AcDbEntity
  8
LC-004-005-----0
 62
     7
370
    25
100
AcDbLine
 10
257.819325
 20
206.907637
 30
0.0
 11
258.819325
 21
207.907637
 31
0.0
  0
LINE
  5
7A
330
55
100
AcDbEntity
  8
LC-004-005-----0
 62
     7
370
    25
100
AcDbLine
 10
253.576684
 20
206.907637
 30
0.0
 11
254.576684
 21
207.907637
 31
0.0
  0
LINE
  5
7B
330
55
100
AcDbEntity
  8
LC-004-005-----0
 62
     7
370
    25
100
AcDbLine
 10
249.334043
 20
206.907637
 30
0.0
 11
250.334043
 21
207.907637
 31
0.0
  0
LINE
  5
7C
330
55
100
AcDbEntity
  8
LC-004-005-----0
 62
     7
370
    25
100
AcDbLine
 10
245.091403
 20
206.907637
 30
0.0
 11
246.091403
 21
207.907637
 31
0.0
  0
LINE
  5
7D
330
55
100
AcDbEntity
  8
LC-004-005-----0
 62
     7
370
    25
100
AcDbLine
 10
240.848762
 20
206.907637
 30
0.0
 11
241.848762
 21
207.907637
 31
0.0
  0
LINE
  5
7E
330
55
100
AcDbEntity
  8
LC-004-005-----0
 62
     7
370
    25
100
AcDbLine
 10
236.606121
 20
206.907637
 30
0.0
 11
237.606121
 21
207.907637
 31
0.0
  0
LINE
  5
7F
330
55
100
AcDbEntity
  8
LC-004-005-----0
 62
     7
370
    25
100
AcDbLine
 10
232.363481
 20
206.907637
 30
0.0
 11
233.363481
 21
207.907637
 31
0.0
  0
LINE
  5
80
330
55
100
AcDbEntity
  8
LC-004-005-----0
 62
     7
370
    25
100
AcDbLine
 10
228.12084
 20
206.907637
 30
0.0
 11
229.12084
 21
207.907637
 31
0.0
  0
LINE
  5
81
330
55
100
AcDbEntity
  8
LC-004-005-----0
 62
     7
370
    25
100
AcDbLine
 10
223.878199
 20
206.907637
 30
0.0
 11
224.878199
 21
207.907637
 31
0.0
  0
LINE
  5
82
330
55
100
AcDbEntity
  8
LC-004-005-----0
 62
     7
370
    25
100
AcDbLine
 10
219.635559
 20
206.907637
 30
0.0
 11
220.635559
 21
207.907637
 31
0.0
  0
LINE
  5
83
330
55
100
AcDbEntity
  8
LC-004-005-----0
 62
     7
370
    25
100
AcDbLine
 10
215.392918
 20
206.907637
 30
0.0
 11
216.392918
 21
207.907637
 31
0.0
  0
LINE
  5
84
330
55
100
AcDbEntity
  8
LC-004-005-----0
 62
     7
370
    25
100
AcDbLine
 10
211.150277
 20
206.907637
 30
0.0
 11
212.150277
 21
207.907637
 31
0.0
  0
LINE
  5
85
330
55
100
AcDbEntity
  8
LC-004-005-----0
 62
     7
370
    25
100
AcDbLine
 10
206.907637
 20
206.907637
 30
0.0
 11
207.907637
 21
207.907637
 31
0.0
  0
LINE
  5
86
330
55
100
AcDbEntity
  8
LC-004-005-----0
 62
     7
370
    25
100
AcDbLine
 10
202.664996
 20
206.907637
 30
0.0
 11
203.664996
 21
207.907637
 31
0.0
  0
LINE
  5
87
330
55
100
AcDbEntity
  8
LC-004-005-----0
 62
     7
370
    25
100
AcDbLine
 10
198.422355
 20
206.907637
 30
0.0
 11
199.422355
 21
207.907637
 31
0.0
  0
LINE
  5
88
330
55
100
AcDbEntity
  8
LC-004-005-----0
 62
     7
370
    25
100
AcDbLine
 10
194.179714
 20
206.907637
 30
0.0
 11
195.179714
 21
207.907637
 31
0.0
  0
LINE
  5
89
330
55
100
AcDbEntity
  8
LC-004-005-----0
 62
     7
370
    25
100
AcDbLine
 10
189.937074
 20
206.907637
 30
0.0
 11
190.937074
 21
207.907637
 31
0.0
  0
LINE
  5
8A
330
55
100
AcDbEntity
  8
LC-004-005-----0
 62
     7
370
    25
100
AcDbLine
 10
185.694433
 20
206.907637
 30
0.0
 11
186.694433
 21
207.907637
 31
0.0
  0
LINE
  5
8B
330
55
100
AcDbEntity
  8
LC-004-005-----0
 62
     7
370
    25
100
AcDbLine
 10
181.451792
 20
206.907637
 30
0.0
 11
182.451792
 21
207.907637
 31
0.0
  0
LINE
  5
8C
330
55
100
AcDbEntity
  8
LC-004-005-----0
 62
     7
370
    25
100
AcDbLine
 10
177.209152
 20
206.907637
 30
0.0
 11
178.209152
 21
207.907637
 31
0.0
  0
LINE
  5
8D
330
55
100
AcDbEntity
  8
LC-004-005-----0
 62
     7
370
    25
100
AcDbLine
 10
172.966511
 20
206.907637
 30
0.0
 11
173.966511
 21
207.907637
 31
0.0
  0
LINE
  5
8E
330
55
100
AcDbEntity
  8
LC-004-005-----0
 62
     7
370
    25
100
AcDbLine
 10
168.72387
 20
206.907637
 30
0.0
 11
169.72387
 21
207.907637
 31
0.0
  0
LINE
  5
8F
330
55
100
AcDbEntity
  8
LC-004-005-----0
 62
     7
370
    25
100
AcDbLine
 10
164.48123
 20
206.907637
 30
0.0
 11
165.48123
 21
207.907637
 31
0.0
  0
LINE
  5
90
330
55
100
AcDbEntity
  8
LC-004-005-----0
 62
     7
370
    25
100
AcDbLine
 10
160.238589
 20
206.907637
 30
0.0
 11
161.238589
 21
207.907637
 31
0.0
  0
LINE
  5
91
330
55
100
AcDbEntity
  8
LC-004-005-----0
 62
     7
370
    25
100
AcDbLine
 10
155.995948
 20
206.907637
 30
0.0
 11
156.995948
 21
207.907637
 31
0.0
  0
LINE
  5
92
330
55
100
AcDbEntity
  8
LC-004-005-----0
 62
     7
370
    25
100
AcDbLine
 10
151.753308
 20
206.907637
 30
0.0
 11
152.753308
 21
207.907637
 31
0.0
  0
LINE
  5
93
330
55
100
AcDbEntity
  8
LC-004-005-----0
 62
     7
370
    25
100
AcDbLine
 10
147.510667
 20
206.907637
 30
0.0
 11
148.510667
 21
207.907637
 31
0.0
  0
LINE
  5
94
330
55
100
AcDbEntity
  8
LC-004-005-----0
 62
     7
370
    25
100
AcDbLine
 10
143.268026
 20
206.907637
 30
0.0
 11
144.268026
 21
207.907637
 31
0.0
  0
LINE
  5
95
330
55
100
AcDbEntity
  8
LC-004-005-----0
 62
     7
370
    25
100
AcDbLine
 10
139.025386
 20
206.907637
 30
0.0
 11
140.025386
 21
207.907637
 31
0.0
  0
LINE
  5
96
330
55
100
AcDbEntity
  8
LC-004-005-----0
 62
     7
370
    25
100
AcDbLine
 10
134.782745
 20
206.907637
 30
0.0
 11
135.782745
 21
207.907637
 31
0.0
  0
ENDBLK
  5
57
330
55
100
AcDbEntity
  8
0
100
AcDbBlockEnd
  0
BLOCK
  5
A7
330
9D
100
AcDbEntity
  8
0
100
AcDbBlockBegin
  2
*D2
 70
     1
 71
     0
 10
0.0
 20
0.0
 30
0.0
  3
*D2
  1

  0
LINE
  5
9E
330
9D
100
AcDbEntity
  8
LC-005-003-----0
 62
     2
370
    -2
100
AcDbLine
 10
134.056693
 20
206.907637
 30
0.0
 11
134.056693
 21
143.056939
 31
0.0
  0
LINE
  5
9F
330
9D
100
AcDbEntity
  8
LC-005-003-----0
 62
     2
370
    -2
100
AcDbLine
 10
464.056693
 20
206.907637
 30
0.0
 11
464.056693
 21
143.056939
 31
0.0
  0
LINE
  5
A0
330
9D
100
AcDbEntity
  8
LC-005-003-----0
 62
     2
370
    -2
100
AcDbLine
 10
162.056693
 20
146.656939
 30
0.0
 11
436.056693
 21
146.656939
 31
0.0
  0
SOLID
  5
A1
330
9D
100
AcDbEntity
  8
LC-005-003-----0
 62
     2
100
AcDbTrace
 10
162.056693
 20
151.323605
 30
0.0
 11
162.056693
 21
141.990272
 31
0.0
 12
134.056693
 22
146.656939
 32
0.0
 13
134.056693
 23
146.656939
 33
0.0
  0
SOLID
  5
A2
330
9D
100
AcDbEntity
  8
LC-005-003-----0
 62
     2
100
AcDbTrace
 10
436.056693
 20
141.990272
 30
0.0
 11
436.056693
 21
151.323605
 31
0.0
 12
464.056693
 22
146.656939
 32
0.0
 13
464.056693
 23
146.656939
 33
0.0
  0
MTEXT
  5
A3
330
9D
100
AcDbEntity
  8
LC-005-003-----0
 62
     2
100
AcDbMText
 10
299.056693
 20
177.456939
 30
0.0
 40
28.0
 41
0.0
 71
     5
 72
     1
  1
\A1;330
  7
LCTX15-400-0-0pDIN-Schrift
 73
     1
 44
1.0
  0
POINT
  5
A4
330
9D
100
AcDbEntity
  8
Defpoints
 62
     0
100
AcDbPoint
 10
134.056693
 20
206.907637
 30
0.0
  0
POINT
  5
A5
330
9D
100
AcDbEntity
  8
Defpoints
 62
     0
100
AcDbPoint
 10
464.056693
 20
206.907637
 30
0.0
  0
POINT
  5
A6
330
9D
100
AcDbEntity
  8
Defpoints
 62
     0
100
AcDbPoint
 10
464.056693
 20
146.656939
 30
0.0
  0
ENDBLK
  5
A8
330
9D
100
AcDbEntity
  8
0
100
AcDbBlockEnd
  0
BLOCK
  5
B8
330
AC
100
AcDbEntity
  8
0
100
AcDbBlockBegin
  2
*D3
 70
     1
 71
     0
 10
0.0
 20
0.0
 30
0.0
  3
*D3
  1

  0
LINE
  5
AD
330
AC
100
AcDbEntity
  8
LC-005-003-----0
 62
     2
370
    -2
100
AcDbLine
 10
275.432256
 20
257.907637
 30
0.0
 11
275.432256
 21
297.659593
 31
0.0
  0
LINE
  5
AE
330
AC
100
AcDbEntity
  8
LC-005-003-----0
 62
     2
370
    -2
100
AcDbLine
 10
322.68113
 20
257.907637
 30
0.0
 11
322.68113
 21
297.659593
 31
0.0
  0
LINE
  5
AF
330
AC
100
AcDbEntity
  8
LC-005-003-----0
 62
     2
370
    -2
100
AcDbLine
 10
247.432256
 20
294.059593
 30
0.0
 11
219.432256
 21
294.059593
 31
0.0
  0
LINE
  5
B0
330
AC
100
AcDbEntity
  8
LC-005-003-----0
 62
     2
370
    -2
100
AcDbLine
 10
350.68113
 20
294.059593
 30
0.0
 11
378.68113
 21
294.059593
 31
0.0
  0
LINE
  5
B1
330
AC
100
AcDbEntity
  8
LC-005-003-----0
 62
     2
370
    -2
100
AcDbLine
 10
275.432256
 20
294.059593
 30
0.0
 11
322.68113
 21
294.059593
 31
0.0
  0
SOLID
  5
B2
330
AC
100
AcDbEntity
  8
LC-005-003-----0
 62
     2
100
AcDbTrace
 10
247.432256
 20
289.392926
 30
0.0
 11
247.432256
 21
298.726259
 31
0.0
 12
275.432256
 22
294.059593
 32
0.0
 13
275.432256
 23
294.059593
 33
0.0
  0
SOLID
  5
B3
330
AC
100
AcDbEntity
  8
LC-005-003-----0
 62
     2
100
AcDbTrace
 10
350.68113
 20
298.726259
 30
0.0
 11
350.68113
 21
289.392926
 31
0.0
 12
322.68113
 22
294.059593
 32
0.0
 13
322.68113
 23
294.059593
 33
0.0
  0
MTEXT
  5
B4
330
AC
100
AcDbEntity
  8
LC-005-003-----0
 62
     2
100
AcDbMText
 10
299.056693
 20
324.859593
 30
0.0
 40
28.0
 41
0.0
 71
     5
 72
     1
  1
\A1;DN50
  7
LCTX15-400-0-0pDIN-Schrift
 73
     1
 44
1.0
  0
POINT
  5
B5
330
AC
100
AcDbEntity
  8
Defpoints
 62
     0
100
AcDbPoint
 10
275.432256
 20
257.907637
 30
0.0
  0
POINT
  5
B6
330
AC
100
AcDbEntity
  8
Defpoints
 62
     0
100
AcDbPoint
 10
322.68113
 20
257.907637
 30
0.0
  0
POINT
  5
B7
330
AC
100
AcDbEntity
  8
Defpoints
 62
     0
100
AcDbPoint
 10
322.68113
 20
294.059593
 30
0.0
  0
ENDBLK
  5
B9
330
AC
100
AcDbEntity
  8
0
100
AcDbBlockEnd
  0
BLOCK
  5
C5
330
C4
100
AcDbEntity
  8
0
100
AcDbBlockBegin
  2
*X24
 70
     1
 71
     0
 10
0.0
 20
0.0
 30
0.0
  3
*X24
  1

  4
*X2
  0
LINE
  5
C7
330
C4
100
AcDbEntity
  8
LC-004-005-----0
 62
     7
370
    25
100
AcDbLine
 10
275.30389
 20
256.440409
 30
0.0
 11
273.836663
 21
257.907637
 31
0.0
  0
LINE
  5
C8
330
C4
100
AcDbEntity
  8
LC-004-005-----0
  6
DASHED
 62
     7
370
    25
100
AcDbLine
 10
274.848795
 20
251.23865
 30
0.0
 11
271.618077
 21
254.469368
 31
0.0
  0
LINE
  5
C9
330
C4
100
AcDbEntity
  8
LC-004-005-----0
  6
DASHED
 62
     7
370
    25
100
AcDbLine
 10
274.621248
 20
248.63777
 30
0.0
 11
271.39053
 21
251.868488
 31
0.0
  0
LINE
  5
CA
330
C4
100
AcDbEntity
  8
LC-004-005-----0
 62
     7
370
    25
100
AcDbLine
 10
274.166153
 20
243.436011
 30
0.0
 11
270.935435
 21
246.666729
 31
0.0
  0
LINE
  5
CB
330
C4
100
AcDbEntity
  8
LC-004-005-----0
 62
     7
370
    25
100
AcDbLine
 10
273.938606
 20
240.835131
 30
0.0
 11
270.707887
 21
244.065849
 31
0.0
  0
LINE
  5
CC
330
C4
100
AcDbEntity
  8
LC-004-005-----0
  6
DASHED
 62
     7
370
    25
100
AcDbLine
 10
273.483511
 20
235.633372
 30
0.0
 11
270.252792
 21
238.86409
 31
0.0
  0
LINE
  5
CD
330
C4
100
AcDbEntity
  8
LC-004-005-----0
  6
DASHED
 62
     7
370
    25
100
AcDbLine
 10
273.255963
 20
233.032492
 30
0.0
 11
270.025245
 21
236.26321
 31
0.0
  0
LINE
  5
CE
330
C4
100
AcDbEntity
  8
LC-004-005-----0
 62
     7
370
    25
100
AcDbLine
 10
272.484194
 20
228.147407
 30
0.0
 11
269.388033
 21
231.243568
 31
0.0
  0
LINE
  5
CF
330
C4
100
AcDbEntity
  8
LC-004-005-----0
 62
     7
370
    25
100
AcDbLine
 10
270.395537
 20
227.407637
 30
0.0
 11
266.895537
 21
230.907637
 31
0.0
  0
LINE
  5
D0
330
C4
100
AcDbEntity
  8
LC-004-005-----0
  6
DASHED
 62
     7
370
    25
100
AcDbLine
 10
266.071956
 20
226.074363
 30
0.0
 11
262.851869
 21
229.294451
 31
0.0
  0
LINE
  5
D1
330
C4
100
AcDbEntity
  8
LC-004-005-----0
  6
DASHED
 62
     7
370
    25
100
AcDbLine
 10
265.844409
 20
223.473484
 30
0.0
 11
262.613691
 21
226.704202
 31
0.0
  0
LINE
  5
D2
330
C4
100
AcDbEntity
  8
LC-004-005-----0
 62
     7
370
    25
100
AcDbLine
 10
265.389314
 20
218.271724
 30
0.0
 11
262.158596
 21
221.502443
 31
0.0
  0
LINE
  5
D3
330
C4
100
AcDbEntity
  8
LC-004-005-----0
 62
     7
370
    25
100
AcDbLine
 10
265.161766
 20
215.670845
 30
0.0
 11
261.931048
 21
218.901563
 31
0.0
  0
LINE
  5
D4
330
C4
100
AcDbEntity
  8
LC-004-005-----0
  6
DASHED
 62
     7
370
    25
100
AcDbLine
 10
264.706671
 20
210.469086
 30
0.0
 11
261.475953
 21
213.699804
 31
0.0
  0
LINE
  5
D5
330
C4
100
AcDbEntity
  8
LC-004-005-----0
  6
DASHED
 62
     7
370
    25
100
AcDbLine
 10
264.439693
 20
207.907637
 30
0.0
 11
261.248406
 21
211.098924
 31
0.0
  0
LINE
  5
D6
330
C4
100
AcDbEntity
  8
LC-004-005-----0
 62
     7
370
    25
100
AcDbLine
 10
258.782839
 20
207.907637
 30
0.0
 11
257.782839
 21
208.907637
 31
0.0
  0
LINE
  5
D7
330
C4
100
AcDbEntity
  8
LC-004-005-----0
 62
     7
370
    25
100
AcDbLine
 10
255.954412
 20
207.907637
 30
0.0
 11
254.954412
 21
208.907637
 31
0.0
  0
ENDBLK
  5
C6
330
C4
100
AcDbEntity
  8
0
100
AcDbBlockEnd
  0
BLOCK
  5
DA
330
D9
100
AcDbEntity
  8
0
100
AcDbBlockBegin
  2
*X35
 70
     1
 71
     0
 10
0.0
 20
0.0
 30
0.0
  3
*X35
  1

  4
*X3
  0
LINE
  5
DC
330
D9
100
AcDbEntity
  8
LC-004-005-----0
 62
     7
370
    25
100
AcDbLine
 10
326.333151
 20
256.322837
 30
0.0
 11
324.748351
 21
257.907637
 31
0.0
  0
LINE
  5
DD
330
D9
100
AcDbEntity
  8
LC-004-005-----0
  6
DASHED
 62
     7
370
    25
100
AcDbLine
 10
326.875512
 20
250.123621
 30
0.0
 11
323.025292
 21
253.973841
 31
0.0
  0
LINE
  5
DE
330
D9
100
AcDbEntity
  8
LC-004-005-----0
  6
DASHED
 62
     7
370
    25
100
AcDbLine
 10
327.146693
 20
247.024014
 30
0.0
 11
323.296473
 21
250.874234
 31
0.0
  0
LINE
  5
DF
330
D9
100
AcDbEntity
  8
LC-004-005-----0
 62
     7
370
    25
100
AcDbLine
 10
327.689054
 20
240.824798
 30
0.0
 11
323.838834
 21
244.675018
 31
0.0
  0
LINE
  5
E0
330
D9
100
AcDbEntity
  8
LC-004-005-----0
 62
     7
370
    25
100
AcDbLine
 10
327.960234
 20
237.725191
 30
0.0
 11
324.110014
 21
241.575411
 31
0.0
  0
LINE
  5
E1
330
D9
100
AcDbEntity
  8
LC-004-005-----0
  6
DASHED
 62
     7
370
    25
100
AcDbLine
 10
335.708258
 20
224.320312
 30
0.0
 11
329.004255
 21
231.024316
 31
0.0
  0
LINE
  5
E2
330
D9
100
AcDbEntity
  8
LC-004-005-----0
  6
DASHED
 62
     7
370
    25
100
AcDbLine
 10
328.589703
 20
231.438867
 30
0.0
 11
324.652375
 21
235.376195
 31
0.0
  0
LINE
  5
E3
330
D9
100
AcDbEntity
  8
LC-004-005-----0
  6
DASHED
 62
     7
370
    25
100
AcDbLine
 10
335.979439
 20
221.220705
 30
0.0
 11
332.129219
 21
225.070925
 31
0.0
  0
LINE
  5
E4
330
D9
100
AcDbEntity
  8
LC-004-005-----0
  6
DASHED
 62
     7
370
    25
100
AcDbLine
 10
329.792507
 20
227.407637
 30
0.0
 11
324.923556
 21
232.276588
 31
0.0
  0
LINE
  5
E5
330
D9
100
AcDbEntity
  8
LC-004-005-----0
 62
     7
370
    25
100
AcDbLine
 10
343.635653
 20
207.907637
 30
0.0
 11
342.635653
 21
208.907637
 31
0.0
  0
LINE
  5
E6
330
D9
100
AcDbEntity
  8
LC-004-005-----0
 62
     7
370
    25
100
AcDbLine
 10
336.5218
 20
215.021489
 30
0.0
 11
332.67158
 21
218.871709
 31
0.0
  0
LINE
  5
E7
330
D9
100
AcDbEntity
  8
LC-004-005-----0
 62
     7
370
    25
100
AcDbLine
 10
340.807226
 20
207.907637
 30
0.0
 11
339.807226
 21
208.907637
 31
0.0
  0
LINE
  5
E8
330
D9
100
AcDbEntity
  8
LC-004-005-----0
 62
     7
370
    25
100
AcDbLine
 10
336.792981
 20
211.921882
 30
0.0
 11
332.942761
 21
215.772102
 31
0.0
  0
LINE
  5
E9
330
D9
100
AcDbEntity
  8
LC-004-005-----0
  6
DASHED
 62
     7
370
    25
100
AcDbLine
 10
335.150371
 20
207.907637
 30
0.0
 11
333.485122
 21
209.572886
 31
0.0
  0
ENDBLK
  5
DB
330
D9
100
AcDbEntity
  8
0
100
AcDbBlockEnd
  0
BLOCK
  5
F8
330
EC
100
AcDbEntity
  8
0
100
AcDbBlockBegin
  2
*D6
 70
     1
 71
     0
 10
0.0
 20
0.0
 30
0.0
  3
*D6
  1

  0
LINE
  5
ED
330
EC
100
AcDbEntity
  8
LC-005-003-----0
 62
     2
370
    -2
100
AcDbLine
 10
264.482574
 20
207.907637
 30
0.0
 11
114.341682
 21
207.907637
 31
0.0
  0
LINE
  5
EE
330
EC
100
AcDbEntity
  8
LC-005-003-----0
 62
     2
370
    -2
100
AcDbLine
 10
271.918887
 20
257.907637
 30
0.0
 11
114.341682
 21
257.907637
 31
0.0
  0
LINE
  5
EF
330
EC
100
AcDbEntity
  8
LC-005-003-----0
 62
     2
370
    -2
100
AcDbLine
 10
117.941682
 20
179.907637
 30
0.0
 11
117.941682
 21
151.907637
 31
0.0
  0
LINE
  5
F0
330
EC
100
AcDbEntity
  8
LC-005-003-----0
 62
     2
370
    -2
100
AcDbLine
 10
117.941682
 20
285.907637
 30
0.0
 11
117.941682
 21
313.907637
 31
0.0
  0
LINE
  5
F1
330
EC
100
AcDbEntity
  8
LC-005-003-----0
 62
     2
370
    -2
100
AcDbLine
 10
117.941682
 20
207.907637
 30
0.0
 11
117.941682
 21
257.907637
 31
0.0
  0
SOLID
  5
F2
330
EC
100
AcDbEntity
  8
LC-005-003-----0
 62
     2
100
AcDbTrace
 10
122.608348
 20
179.907637
 30
0.0
 11
113.275015
 21
179.907637
 31
0.0
 12
117.941682
 22
207.907637
 32
0.0
 13
117.941682
 23
207.907637
 33
0.0
  0
SOLID
  5
F3
330
EC
100
AcDbEntity
  8
LC-005-003-----0
 62
     2
100
AcDbTrace
 10
113.275015
 20
285.907637
 30
0.0
 11
122.608348
 21
285.907637
 31
0.0
 12
117.941682
 22
257.907637
 32
0.0
 13
117.941682
 23
257.907637
 33
0.0
  0
MTEXT
  5
F4
330
EC
100
AcDbEntity
  8
LC-005-003-----0
 62
     2
100
AcDbMText
 10
87.141682
 20
232.907637
 30
0.0
 40
28.0
 41
0.0
 71
     5
 72
     1
  1
\A1;50
  7
LCTX15-400-0-0pDIN-Schrift
 11
6.123031769111886E-17
 21
1.0
 31
0.0
 73
     1
 44
1.0
  0
POINT
  5
F5
330
EC
100
AcDbEntity
  8
Defpoints
 62
     0
100
AcDbPoint
 10
264.482574
 20
207.907637
 30
0.0
  0
POINT
  5
F6
330
EC
100
AcDbEntity
  8
Defpoints
 62
     0
100
AcDbPoint
 10
271.918887
 20
257.907637
 30
0.0
  0
POINT
  5
F7
330
EC
100
AcDbEntity
  8
Defpoints
 62
     0
100
AcDbPoint
 10
117.941682
 20
257.907637
 30
0.0
  0
ENDBLK
  5
F9
330
EC
100
AcDbEntity
  8
0
100
AcDbBlockEnd
  0
BLOCK
  5
FB
330
FA
100
AcDbEntity
  8
0
100
AcDbBlockBegin
  2
*X47
 70
     1
 71
     0
 10
0.0
 20
0.0
 30
0.0
  3
*X47
  1

  4
*X4
  0
LINE
  5
FD
330
FA
100
AcDbEntity
  8
LC-004-005-----0
 62
     7
370
    25
100
AcDbLine
 10
326.333151
 20
256.322837
 30
0.0
 11
324.748351
 21
257.907637
 31
0.0
  0
LINE
  5
FE
330
FA
100
AcDbEntity
  8
LC-004-005-----0
  6
DASHED
 62
     7
370
    25
100
AcDbLine
 10
326.875512
 20
250.123621
 30
0.0
 11
323.025292
 21
253.973841
 31
0.0
  0
LINE
  5
FF
330
FA
100
AcDbEntity
  8
LC-004-005-----0
  6
DASHED
 62
     7
370
    25
100
AcDbLine
 10
327.146693
 20
247.024014
 30
0.0
 11
323.296473
 21
250.874234
 31
0.0
  0
LINE
  5
100
330
FA
100
AcDbEntity
  8
LC-004-005-----0
 62
     7
370
    25
100
AcDbLine
 10
327.689054
 20
240.824798
 30
0.0
 11
323.838834
 21
244.675018
 31
0.0
  0
LINE
  5
101
330
FA
100
AcDbEntity
  8
LC-004-005-----0
 62
     7
370
    25
100
AcDbLine
 10
327.960234
 20
237.725191
 30
0.0
 11
324.110014
 21
241.575411
 31
0.0
  0
LINE
  5
102
330
FA
100
AcDbEntity
  8
LC-004-005-----0
  6
DASHED
 62
     7
370
    25
100
AcDbLine
 10
335.708258
 20
224.320312
 30
0.0
 11
329.004255
 21
231.024316
 31
0.0
  0
LINE
  5
103
330
FA
100
AcDbEntity
  8
LC-004-005-----0
  6
DASHED
 62
     7
370
    25
100
AcDbLine
 10
328.589703
 20
231.438867
 30
0.0
 11
324.652375
 21
235.376195
 31
0.0
  0
LINE
  5
104
330
FA
100
AcDbEntity
  8
LC-004-005-----0
  6
DASHED
 62
     7
370
    25
100
AcDbLine
 10
335.979439
 20
221.220705
 30
0.0
 11
332.129219
 21
225.070925
 31
0.0
  0
LINE
  5
105
330
FA
100
AcDbEntity
  8
LC-004-005-----0
  6
DASHED
 62
     7
370
    25
100
AcDbLine
 10
329.792507
 20
227.407637
 30
0.0
 11
324.923556
 21
232.276588
 31
0.0
  0
LINE
  5
106
330
FA
100
AcDbEntity
  8
LC-004-005-----0
 62
     7
370
    25
100
AcDbLine
 10
343.635653
 20
207.907637
 30
0.0
 11
342.635653
 21
208.907637
 31
0.0
  0
LINE
  5
107
330
FA
100
AcDbEntity
  8
LC-004-005-----0
 62
     7
370
    25
100
AcDbLine
 10
336.5218
 20
215.021489
 30
0.0
 11
332.67158
 21
218.871709
 31
0.0
  0
LINE
  5
108
330
FA
100
AcDbEntity
  8
LC-004-005-----0
 62
     7
370
    25
100
AcDbLine
 10
340.807226
 20
207.907637
 30
0.0
 11
339.807226
 21
208.907637
 31
0.0
  0
LINE
  5
109
330
FA
100
AcDbEntity
  8
LC-004-005-----0
 62
     7
370
    25
100
AcDbLine
 10
336.792981
 20
211.921882
 30
0.0
 11
332.942761
 21
215.772102
 31
0.0
  0
LINE
  5
10A
330
FA
100
AcDbEntity
  8
LC-004-005-----0
  6
DASHED
 62
     7
370
    25
100
AcDbLine
 10
335.150371
 20
207.907637
 30
0.0
 11
333.485122
 21
209.572886
 31
0.0
  0
ENDBLK
  5
FC
330
FA
100
AcDbEntity
  8
0
100
AcDbBlockEnd
  0
ENDSEC
  0
SECTION
  2
ENTITIES
  0
LINE
  5
31
102
{ACAD_REACTORS
330
10C
102
}
330
1F
100
AcDbEntity
  8
LC-001-002-----0
 62
     7
370
    50
100
AcDbLine
 10
251.056693
 20
208.907637
 30
0.0
 11
260.140362
 21
208.907637
 31
0.0
  0
ARC
  5
33
102
{ACAD_REACTORS
330
10C
102
}
330
1F
100
AcDbEntity
  8
LC-002-002-RND-0
 62
     7
370
    50
100
AcDbCircle
 10
268.640362
 20
231.907637
 30
0.0
 40
1.0
100
AcDbArc
 50
270.0
 51
355.0
  0
LINE
  5
34
102
{ACAD_REACTORS
330
10C
102
}
330
1F
100
AcDbEntity
  8
LC-001-002-----0
 62
     7
370
    50
100
AcDbLine
 10
269.636556
 20
231.820481
 30
0.0
 11
271.918887
 21
257.907637
 31
0.0
  0
LINE
  5
35
102
{ACAD_REACTORS
330
10C
102
}
330
1F
100
AcDbEntity
  8
LC-001-002-----0
 62
     7
370
    50
100
AcDbLine
 10
272.923579
 20
229.233325
 30
0.0
 11
275.432256
 21
257.907637
 31
0.0
  0
ARC
  5
36
102
{ACAD_REACTORS
330
10C
102
}
330
1F
100
AcDbEntity
  8
LC-002-002-RND-0
 62
     7
370
    50
100
AcDbCircle
 10
267.104934
 20
226.407637
 30
0.0
 40
1.0
100
AcDbArc
 50
90.0
 51
175.0
  0
ARC
  5
37
102
{ACAD_REACTORS
330
10C
102
}
330
1F
100
AcDbEntity
  8
LC-002-002-RND-0
 62
     7
370
    50
100
AcDbCircle
 10
331.008452
 20
226.407637
 30
0.0
 40
1.00000000000001
100
AcDbArc
 50
5.0
 51
90.0
  0
LINE
  5
38
102
{ACAD_REACTORS
330
10C
102
}
330
1F
100
AcDbEntity
  8
LC-001-002-----0
 62
     7
370
    50
100
AcDbLine
 10
264.482574
 20
207.907637
 30
0.0
 11
266.108739
 21
226.494792
 31
0.0
  0
LINE
  5
39
102
{ACAD_REACTORS
330
10C
102
}
330
1F
100
AcDbEntity
  8
LC-001-002-----0
 62
     7
370
    50
100
AcDbLine
 10
267.104934
 20
227.407637
 30
0.0
 11
299.056693
 21
227.407637
 31
0.0
  0
ARC
  5
3A
102
{ACAD_REACTORS
330
10C
102
}
330
1F
100
AcDbEntity
  8
LC-002-002-RND-0
 62
     7
370
    50
100
AcDbCircle
 10
329.473024
 20
231.907637
 30
0.0
 40
1.00000000000001
100
AcDbArc
 50
185.0
 51
270.0
  0
ARC
  5
3B
102
{ACAD_REACTORS
330
10C
102
}
330
1F
100
AcDbEntity
  8
LC-002-002-RND-0
 62
     7
370
    50
100
AcDbCircle
 10
264.814106
 20
228.907637
 30
0.0
 40
2.0
100
AcDbArc
 50
90.0
 51
175.0
  0
ARC
  5
3C
102
{ACAD_REACTORS
330
10C
102
}
330
1F
100
AcDbEntity
  8
LC-002-002-RND-0
 62
     7
370
    50
100
AcDbCircle
 10
270.93119
 20
229.407637
 30
0.0
 40
2.0
100
AcDbArc
 50
270.0
 51
355.0
  0
ARC
  5
3D
102
{ACAD_REACTORS
330
10C
102
}
330
1F
100
AcDbEntity
  8
LC-002-002-RND-0
 62
     7
370
    50
100
AcDbCircle
 10
333.29928
 20
228.907637
 30
0.0
 40
2.00000000000002
100
AcDbArc
 50
5.0
 51
90.0
  0
ARC
  5
3E
102
{ACAD_REACTORS
330
10C
102
}
330
1F
100
AcDbEntity
  8
LC-002-002-RND-0
 62
     7
370
    50
100
AcDbCircle
 10
327.182196
 20
229.407637
 30
0.0
 40
2.00000000000002
100
AcDbArc
 50
185.0
 51
270.0
  0
ARC
  5
3F
102
{ACAD_REACTORS
330
10C
102
}
330
1F
100
AcDbEntity
  8
LC-002-002-RND-0
 62
     7
370
    50
100
AcDbCircle
 10
260.140362
 20
209.907637
 30
0.0
 40
1.0
100
AcDbArc
 50
270.0
 51
355.0
  0
ARC
  5
40
102
{ACAD_REACTORS
330
10C
102
}
330
1F
100
AcDbEntity
  8
LC-002-002-RND-0
 62
     7
370
    50
100
AcDbCircle
 10
337.973024
 20
209.907637
 30
0.0
 40
1.00000000000001
100
AcDbArc
 50
185.0
 51
270.0
  0
LINE
  5
41
330
1F
100
AcDbEntity
  8
LC-001-002-----0
 62
     7
370
    25
100
AcDbLine
 10
245.218118
 20
158.643528
 30
0.0
 11
245.218118
 21
173.643528
 31
0.0
  0
LINE
  5
42
102
{ACAD_REACTORS
330
10C
102
}
330
1F
100
AcDbEntity
  8
LC-001-002-----0
 62
     7
370
    50
100
AcDbLine
 10
251.056693
 20
208.907637
 30
0.0
 11
251.056693
 21
207.907637
 31
0.0
  0
LINE
  5
43
102
{ACAD_REACTORS
330
10D
102
}
330
1F
100
AcDbEntity
  8
LC-001-002-----0
 62
     7
370
    50
100
AcDbLine
 10
134.056693
 20
206.907637
 30
0.0
 11
299.056693
 21
206.907637
 31
0.0
  0
LINE
  5
44
102
{ACAD_REACTORS
330
10D
102
}
330
1F
100
AcDbEntity
  8
LC-001-002-----0
 62
     7
370
    50
100
AcDbLine
 10
134.056693
 20
206.907637
 30
0.0
 11
134.056693
 21
207.907637
 31
0.0
  0
LINE
  5
45
102
{ACAD_REACTORS
330
10D
102
}
330
1F
100
AcDbEntity
  8
LC-001-002-----0
 62
     7
370
    50
100
AcDbLine
 10
251.056693
 20
207.907637
 30
0.0
 11
134.056693
 21
207.907637
 31
0.0
  0
LINE
  5
46
102
{ACAD_REACTORS
330
10D
102
}
330
1F
100
AcDbEntity
  8
LC-001-002-----0
 62
     7
370
    50
100
AcDbLine
 10
264.482574
 20
206.907637
 30
0.0
 11
264.482574
 21
207.907637
 31
0.0
  0
LINE
  5
47
330
1F
100
AcDbEntity
  8
LC-001-002-----0
 62
     7
370
    25
100
AcDbLine
 10
245.218118
 20
173.643528
 30
0.0
 11
260.218118
 21
173.643528
 31
0.0
  0
LINE
  5
48
330
1F
100
AcDbEntity
  8
LC-001-002-----0
 62
     7
370
    25
100
AcDbLine
 10
260.218118
 20
173.643528
 30
0.0
 11
260.218118
 21
158.643528
 31
0.0
  0
LINE
  5
49
330
1F
100
AcDbEntity
  8
LC-001-002-----0
 62
     7
370
    25
100
AcDbLine
 10
260.218118
 20
158.643528
 30
0.0
 11
245.218118
 21
158.643528
 31
0.0
  0
LINE
  5
4A
102
{ACAD_REACTORS
330
10C
102
}
330
1F
100
AcDbEntity
  8
LC-001-002-----0
 62
     7
370
    50
100
AcDbLine
 10
264.814106
 20
230.907637
 30
0.0
 11
268.640362
 21
230.907637
 31
0.0
  0
LINE
  5
4D
102
{ACAD_REACTORS
330
10C
102
}
330
1F
100
AcDbEntity
  8
LC-003-006-MLN-0
 62
     7
370
    25
100
AcDbLine
 10
299.056693
 20
197.907637
 30
0.0
 11
299.056693
 21
267.907637
 31
0.0
  0
LINE
  5
4E
102
{ACAD_REACTORS
330
10C
102
}
330
1F
100
AcDbEntity
  8
LC-001-002-----0
 62
     7
370
    50
100
AcDbLine
 10
251.056693
 20
207.907637
 30
0.0
 11
299.056693
 21
207.907637
 31
0.0
  0
LINE
  5
4F
102
{ACAD_REACTORS
330
10C
102
}
330
1F
100
AcDbEntity
  8
LC-001-002-----0
 62
     7
370
    50
100
AcDbLine
 10
271.918887
 20
257.907637
 30
0.0
 11
299.056693
 21
257.907637
 31
0.0
  0
LINE
  5
50
102
{ACAD_REACTORS
330
10C
102
}
330
1F
100
AcDbEntity
  8
LC-001-002-----0
 62
     7
370
    50
100
AcDbLine
 10
347.056693
 20
207.907637
 30
0.0
 11
299.056693
 21
207.907637
 31
0.0
  0
LINE
  5
51
102
{ACAD_REACTORS
330
10D
102
}
330
1F
100
AcDbEntity
  8
LC-001-002-----0
 62
     7
370
    50
100
AcDbLine
 10
464.056693
 20
206.907637
 30
0.0
 11
299.056693
 21
206.907637
 31
0.0
  0
LINE
  5
52
102
{ACAD_REACTORS
330
10D
102
}
330
1F
100
AcDbEntity
  8
LC-001-002-----0
 62
     7
370
    50
100
AcDbLine
 10
464.056693
 20
206.907637
 30
0.0
 11
464.056693
 21
207.907637
 31
0.0
  0
LINE
  5
53
102
{ACAD_REACTORS
330
10D
102
}
330
1F
100
AcDbEntity
  8
LC-001-002-----0
 62
     7
370
    50
100
AcDbLine
 10
359.056693
 20
207.907637
 30
0.0
 11
464.056693
 21
207.907637
 31
0.0
  0
LINE
  5
54
102
{ACAD_REACTORS
330
10D
102
}
330
1F
100
AcDbEntity
  8
LC-001-002-----0
 62
     7
370
    50
100
AcDbLine
 10
333.630812
 20
206.907637
 30
0.0
 11
333.630812
 21
207.907637
 31
0.0
  0
INSERT
  5
97
102
{ACAD_REACTORS
330
10D
102
}
330
1F
100
AcDbEntity
  8
LC-004-005-----0
 62
     7
370
    25
100
AcDbBlockReference
  2
*X11
 10
0.0
 20
0.0
 30
0.0
  0
DIMENSION
  5
9B
330
1F
100
AcDbEntity
  8
LC-005-003-----0
 62
     7
370
    25
100
AcDbDimension
  2
*D2
 10
464.056693
 20
146.656939
 30
0.0
 11
299.056693
 21
177.456939
 31
0.0
 70
   160
 71
     5
 42
330.0
  3
LC-DIM-L-0140-02-02
100
AcDbAlignedDimension
 13
134.056693
 23
206.907637
 33
0.0
 14
464.056693
 24
206.907637
 34
0.0
100
AcDbRotatedDimension
  0
LINE
  5
A9
102
{ACAD_REACTORS
330
10C
102
}
330
1F
100
AcDbEntity
  8
LC-001-002-----0
 62
     7
370
    50
100
AcDbLine
 10
261.136556
 20
209.820481
 30
0.0
 11
262.821716
 21
229.081948
 31
0.0
  0
DIMENSION
  5
AB
330
1F
100
AcDbEntity
  8
LC-005-003-----0
 62
     7
370
    25
100
AcDbDimension
  2
*D3
 10
322.68113
 20
294.059593
 30
0.0
 11
299.056693
 21
324.859593
 31
0.0
 70
   160
  1
DN50
 71
     5
 42
47.248873
  3
LC-DIM-L-0140-01-02
100
AcDbAlignedDimension
 13
275.432256
 23
257.907637
 33
0.0
 14
322.68113
 24
257.907637
 34
0.0
100
AcDbRotatedDimension
  0
LINE
  5
BA
102
{ACAD_REACTORS
330
10C
102
}
330
1F
100
AcDbEntity
  8
LC-001-002-----0
 62
     7
370
    50
100
AcDbLine
 10
326.194499
 20
257.907637
 30
0.0
 11
299.056693
 21
257.907637
 31
0.0
  0
LINE
  5
BB
102
{ACAD_REACTORS
330
10C
102
}
330
1F
100
AcDbEntity
  8
LC-001-002-----0
 62
     7
370
    50
100
AcDbLine
 10
331.008452
 20
227.407637
 30
0.0
 11
299.056693
 21
227.407637
 31
0.0
  0
LINE
  5
BC
102
{ACAD_REACTORS
330
10C
102
}
330
1F
100
AcDbEntity
  8
LC-001-002-----0
 62
     7
370
    50
100
AcDbLine
 10
325.189807
 20
229.233325
 30
0.0
 11
322.68113
 21
257.907637
 31
0.0
  0
LINE
  5
BD
102
{ACAD_REACTORS
330
10C
102
}
330
1F
100
AcDbEntity
  8
LC-001-002-----0
 62
     7
370
    50
100
AcDbLine
 10
328.476829
 20
231.820481
 30
0.0
 11
326.194499
 21
257.907637
 31
0.0
  0
LINE
  5
BE
102
{ACAD_REACTORS
330
10C
102
}
330
1F
100
AcDbEntity
  8
LC-001-002-----0
 62
     7
370
    50
100
AcDbLine
 10
333.29928
 20
230.907637
 30
0.0
 11
329.473024
 21
230.907637
 31
0.0
  0
LINE
  5
BF
102
{ACAD_REACTORS
330
10C
102
}
330
1F
100
AcDbEntity
  8
LC-001-002-----0
 62
     7
370
    50
100
AcDbLine
 10
336.976829
 20
209.820481
 30
0.0
 11
335.291669
 21
229.081948
 31
0.0
  0
LINE
  5
C0
102
{ACAD_REACTORS
330
10C
102
}
330
1F
100
AcDbEntity
  8
LC-001-002-----0
 62
     7
370
    50
100
AcDbLine
 10
333.630812
 20
207.907637
 30
0.0
 11
332.004647
 21
226.494792
 31
0.0
  0
LINE
  5
C1
102
{ACAD_REACTORS
330
10C
102
}
330
1F
100
AcDbEntity
  8
LC-001-002-----0
 62
     7
370
    50
100
AcDbLine
 10
347.056693
 20
208.907637
 30
0.0
 11
337.973024
 21
208.907637
 31
0.0
  0
LINE
  5
C2
330
1F
100
AcDbEntity
  8
LC-001-002-----0
 62
     7
370
    50
100
AcDbLine
 10
333.630812
 20
207.907637
 30
0.0
 11
464.056693
 21
207.907637
 31
0.0
  0
LINE
  5
C3
102
{ACAD_REACTORS
330
10C
102
}
330
1F
100
AcDbEntity
  8
LC-001-002-----0
 62
     7
370
    50
100
AcDbLine
 10
347.056693
 20
208.907637
 30
0.0
 11
347.056693
 21
207.907637
 31
0.0
  0
INSERT
  5
D8
330
1F
100
AcDbEntity
  8
LC-004-005-----0
 62
     7
370
    25
100
AcDbBlockReference
  2
*X24
 10
0.0
 20
0.0
 30
0.0
  0
INSERT
  5
EA
330
1F
100
AcDbEntity
  8
LC-004-005-----0
 62
     7
370
    25
100
AcDbBlockReference
  2
*X35
 10
0.0
 20
0.0
 30
0.0
  0
DIMENSION
  5
EB
330
1F
100
AcDbEntity
  8
LC-005-003-----0
 62
     7
370
    25
100
AcDbDimension
  2
*D6
 10
117.941682
 20
257.907637
 30
0.0
 11
87.141682
 21
232.907637
 31
0.0
 70
   160
 71
     5
 42
50.0
 53
90.0
  3
LC-DIM-L-0140-02-02
100
AcDbAlignedDimension
 13
264.482574
 23
207.907637
 33
0.0
 14
271.918887
 24
257.907637
 34
0.0
 50
90.0
100
AcDbRotatedDimension
  0
INSERT
  5
10B
330
1F
100
AcDbEntity
  8
LC-004-005-----0
 62
     7
370
    25
100
AcDbBlockReference
  2
*X47
 10
0.0
 20
0.0
 30
0.0
  0
ENDSEC
  0
SECTION
  2
OBJECTS
  0
DICTIONARY
  5
C
330
0
100
AcDbDictionary
281
     1
  3
ACAD_GROUP
350
D
  3
ACAD_LAYOUT
350
1A
  3
ACAD_MLINESTYLE
350
17
  3
ACAD_PLOTSETTINGS
350
19
  3
ACAD_PLOTSTYLENAME
350
E
  0
DICTIONARY
  5
D
102
{ACAD_REACTORS
330
C
102
}
330
C
100
AcDbDictionary
281
     1
  3
LCGROUP31
350
10C
  3
LCGROUP32
350
10D
  0
DICTIONARY
  5
1A
102
{ACAD_REACTORS
330
C
102
}
330
C
100
AcDbDictionary
281
     1
  3
Layout1
350
1E
  3
Layout2
350
26
  3
Model
350
22
  0
DICTIONARY
  5
17
102
{ACAD_REACTORS
330
C
102
}
330
C
100
AcDbDictionary
281
     1
  3
Standard
350
18
  0
DICTIONARY
  5
19
102
{ACAD_REACTORS
330
C
102
}
330
C
100
AcDbDictionary
281
     1
  0
ACDBDICTIONARYWDFLT
  5
E
102
{ACAD_REACTORS
330
C
102
}
330
C
100
AcDbDictionary
281
     1
  3
Normal
350
F
100
AcDbDictionaryWithDefault
340
F
  0
GROUP
  5
10C
102
{ACAD_REACTORS
330
D
102
}
330
D
100
AcDbGroup
300
GRP31
 70
     1
 71
     1
340
31
340
33
340
34
340
35
340
36
340
37
340
38
340
39
340
3A
340
3B
340
3C
340
3D
340
3E
340
3F
340
40
340
42
340
4A
340
4D
340
4E
340
4F
340
50
340
A9
340
BA
340
BB
340
BC
340
BD
340
BE
340
BF
340
C0
340
C1
340
C3
  0
GROUP
  5
10D
102
{ACAD_REACTORS
330
D
102
}
330
D
100
AcDbGroup
300
GRP32
 70
     1
 71
     1
340
43
340
44
340
45
340
46
340
51
340
52
340
53
340
54
340
97
  0
LAYOUT
  5
1E
102
{ACAD_REACTORS
330
1A
102
}
330
1A
100
AcDbPlotSettings
  1

  2

  4

  6

 40
0.0
 41
0.0
 42
0.0
 43
0.0
 44
0.0
 45
0.0
 46
0.0
 47
0.0
 48
0.0
 49
0.0
140
0.0
141
0.0
142
1.0
143
1.0
 70
   688
 72
     0
 73
     0
 74
     5
  7

 75
    16
147
1.0
148
0.0
149
0.0
100
AcDbLayout
  1
Layout1
 70
     1
 71
     1
 10
-123.373464
 20
-79.288363
 11
716.626536
 21
514.711637
 12
0.0
 22
0.0
 32
0.0
 14
-123.373464
 24
-79.288363
 34
0.0
 15
716.626536
 25
514.711637
 35
0.0
146
0.0
 13
0.0
 23
0.0
 33
0.0
 16
1.0
 26
0.0
 36
0.0
 17
0.0
 27
1.0
 37
0.0
 76
     0
330
1B
  0
LAYOUT
  5
26
102
{ACAD_REACTORS
330
1A
102
}
330
1A
100
AcDbPlotSettings
  1

  2

  4

  6

 40
0.0
 41
0.0
 42
0.0
 43
0.0
 44
0.0
 45
0.0
 46
0.0
 47
0.0
 48
0.0
 49
0.0
140
0.0
141
0.0
142
1.0
143
1.0
 70
   688
 72
     0
 73
     0
 74
     5
  7

 75
    16
147
1.0
148
0.0
149
0.0
100
AcDbLayout
  1
Layout2
 70
     1
 71
     2
 10
0.0
 20
0.0
 11
0.0
 21
0.0
 12
0.0
 22
0.0
 32
0.0
 14
0.0
 24
0.0
 34
0.0
 15
0.0
 25
0.0
 35
0.0
146
0.0
 13
0.0
 23
0.0
 33
0.0
 16
1.0
 26
0.0
 36
0.0
 17
0.0
 27
1.0
 37
0.0
 76
     0
330
23
  0
LAYOUT
  5
22
102
{ACAD_REACTORS
330
1A
102
}
330
1A
100
AcDbPlotSettings
  1

  2

  4

  6

 40
0.0
 41
0.0
 42
0.0
 43
0.0
 44
0.0
 45
0.0
 46
0.0
 47
0.0
 48
0.0
 49
0.0
140
0.0
141
0.0
142
1.0
143
1.0
 70
  1776
 72
     0
 73
     0
 74
     0
  7

 75
     0
147
1.0
148
0.0
149
0.0
100
AcDbLayout
  1
Model
 70
     1
 71
     0
 10
-123.373464
 20
-79.288363
 11
716.626536
 21
514.711637
 12
86.626536
 22
69.211637
 32
0.0
 14
-123.373464
 24
-79.288363
 34
0.0
 15
716.626536
 25
514.711637
 35
0.0
146
0.0
 13
0.0
 23
0.0
 33
0.0
 16
1.0
 26
0.0
 36
0.0
 17
0.0
 27
1.0
 37
0.0
 76
     0
330
1F
  0
MLINESTYLE
  5
18
102
{ACAD_REACTORS
330
17
102
}
330
17
100
AcDbMlineStyle
  2
Standard
 70
     0
  3

 62
   256
 51
90.0
 52
90.0
 71
     2
 49
0.5
 62
   256
  6
BYLAYER
 49
-0.5
 62
   256
  6
BYLAYER
  0
ACDBPLACEHOLDER
  5
F
102
{ACAD_REACTORS
330
E
102
}
330
E
  0
ENDSEC
  0
EOF
