  0
SECTION
  2
HEADER
  9
$ACADVER
  1
AC1015
  9
$ACADMAINTVER
 70
     6
  9
$DWGCODEPAGE
  3
DOS850
  9
$INSBASE
 10
86.626536
 20
69.211637
 30
0.0
  9
$EXTMIN
 10
-123.373464
 20
-79.288363
 30
0.0
  9
$EXTMAX
 10
716.626536
 20
514.711637
 30
0.0
  9
$LIMMIN
 10
-123.373464
 20
-79.288363
  9
$LIMMAX
 10
716.626536
 20
514.711637
  9
$ORTHOMODE
 70
     0
  9
$REGENMODE
 70
     1
  9
$FILLMODE
 70
     1
  9
$QTEXTMODE
 70
     0
  9
$MIRRTEXT
 70
     1
  9
$LTSCALE
 40
2.0
  9
$ATTMODE
 70
     1
  9
$TEXTSIZE
 40
2.5
  9
$TRACEWID
 40
1.0
  9
$TEXTSTYLE
  7
Standard
  9
$CLAYER
  8
0
  9
$CELTYPE
  6
ByLayer
  9
$CECOLOR
 62
     7
  9
$CELTSCALE
 40
1.0
  9
$DISPSILH
 70
     0
  9
$DIMSCALE
 40
2.0
  9
$DIMASZ
 40
3.5
  9
$DIMEXO
 40
0.625
  9
$DIMDLI
 40
3.75
  9
$DIMRND
 40
0.0
  9
$DIMDLE
 40
0.0
  9
$DIMEXE
 40
1.25
  9
$DIMTP
 40
0.0
  9
$DIMTM
 40
0.0
  9
$DIMTXT
 40
3.5
  9
$DIMCEN
 40
2.5
  9
$DIMTSZ
 40
0.0
  9
$DIMTOL
 70
     0
  9
$DIMLIM
 70
     0
  9
$DIMTIH
 70
     0
  9
$DIMTOH
 70
     0
  9
$DIMSE1
 70
     0
  9
$DIMSE2
 70
     0
  9
$DIMTAD
 70
     1
  9
$DIMZIN
 70
     8
  9
$DIMBLK
  1

  9
$DIMASO
 70
     1
  9
$DIMSHO
 70
     1
  9
$DIMPOST
  1

  9
$DIMAPOST
  1

  9
$DIMALT
 70
     0
  9
$DIMALTD
 70
     3
  9
$DIMALTF
 40
0.03937
  9
$DIMLFAC
 40
1.0
  9
$DIMTOFL
 70
     1
  9
$DIMTVP
 40
0.0
  9
$DIMTIX
 70
     0
  9
$DIMSOXD
 70
     0
  9
$DIMSAH
 70
     0
  9
$DIMBLK1
  1

  9
$DIMBLK2
  1

  9
$DIMSTYLE
  2
ISO-25
  9
$DIMCLRD
 70
     0
  9
$DIMCLRE
 70
     0
  9
$DIMCLRT
 70
     0
  9
$DIMTFAC
 40
1.0
  9
$DIMGAP
 40
0.625
  9
$DIMJUST
 70
     0
  9
$DIMSD1
 70
     0
  9
$DIMSD2
 70
     0
  9
$DIMTOLJ
 70
     0
  9
$DIMTZIN
 70
     8
  9
$DIMALTZ
 70
     0
  9
$DIMALTTZ
 70
     0
  9
$DIMUPT
 70
     0
  9
$DIMDEC
 70
     2
  9
$DIMTDEC
 70
     2
  9
$DIMALTU
 70
     2
  9
$DIMALTTD
 70
     3
  9
$DIMTXSTY
  7
Standard
  9
$DIMAUNIT
 70
     0
  9
$DIMADEC
 70
     0
  9
$DIMALTRND
 40
0.0
  9
$DIMAZIN
 70
     0
  9
$DIMDSEP
 70
    44
  9
$DIMATFIT
 70
     3
  9
$DIMFRAC
 70
     0
  9
$DIMLDRBLK
  1

  9
$DIMLUNIT
 70
     2
  9
$DIMLWD
 70
    -2
  9
$DIMLWE
 70
    -2
  9
$DIMTMOVE
 70
     0
  9
$LUNITS
 70
     2
  9
$LUPREC
 70
     4
  9
$SKETCHINC
 40
1.0
  9
$FILLETRAD
 40
10.0
  9
$AUNITS
 70
     0
  9
$AUPREC
 70
     0
  9
$MENU
  1
.
  9
$ELEVATION
 40
0.0
  9
$PELEVATION
 40
0.0
  9
$THICKNESS
 40
0.0
  9
$LIMCHECK
 70
     0
  9
$CHAMFERA
 40
10.0
  9
$CHAMFERB
 40
10.0
  9
$CHAMFERC
 40
20.0
  9
$CHAMFERD
 40
0.0
  9
$SKPOLY
 70
     0
  9
$TDCREATE
 40
2453663.409352685
  9
$TDUCREATE
 40
2453663.326019352
  9
$TDUPDATE
 40
2453663.409352697
  9
$TDUUPDATE
 40
2453663.326019364
  9
$TDINDWG
 40
0.0000000116
  9
$TDUSRTIMER
 40
0.0000000116
  9
$USRTIMER
 70
     1
  9
$ANGBASE
 50
0.0
  9
$ANGDIR
 70
     0
  9
$PDMODE
 70
     0
  9
$PDSIZE
 40
0.0
  9
$PLINEWID
 40
0.0
  9
$SPLFRAME
 70
     0
  9
$SPLINETYPE
 70
     6
  9
$SPLINESEGS
 70
     8
  9
$HANDSEED
  5
108
  9
$SURFTAB1
 70
     6
  9
$SURFTAB2
 70
     6
  9
$SURFTYPE
 70
     6
  9
$SURFU
 70
     6
  9
$SURFV
 70
     6
  9
$UCSBASE
  2

  9
$UCSNAME
  2

  9
$UCSORG
 10
0.0
 20
0.0
 30
0.0
  9
$UCSXDIR
 10
1.0
 20
0.0
 30
0.0
  9
$UCSYDIR
 10
0.0
 20
1.0
 30
0.0
  9
$UCSORTHOREF
  2

  9
$UCSORTHOVIEW
 70
     0
  9
$UCSORGTOP
 10
0.0
 20
0.0
 30
0.0
  9
$UCSORGBOTTOM
 10
0.0
 20
0.0
 30
0.0
  9
$UCSORGLEFT
 10
0.0
 20
0.0
 30
0.0
  9
$UCSORGRIGHT
 10
0.0
 20
0.0
 30
0.0
  9
$UCSORGFRONT
 10
0.0
 20
0.0
 30
0.0
  9
$UCSORGBACK
 10
0.0
 20
0.0
 30
0.0
  9
$PUCSBASE
  2

  9
$PUCSNAME
  2

  9
$PUCSORG
 10
0.0
 20
0.0
 30
0.0
  9
$PUCSXDIR
 10
1.0
 20
0.0
 30
0.0
  9
$PUCSYDIR
 10
0.0
 20
1.0
 30
0.0
  9
$PUCSORTHOREF
  2

  9
$PUCSORTHOVIEW
 70
     0
  9
$PUCSORGTOP
 10
0.0
 20
0.0
 30
0.0
  9
$PUCSORGBOTTOM
 10
0.0
 20
0.0
 30
0.0
  9
$PUCSORGLEFT
 10
0.0
 20
0.0
 30
0.0
  9
$PUCSORGRIGHT
 10
0.0
 20
0.0
 30
0.0
  9
$PUCSORGFRONT
 10
0.0
 20
0.0
 30
0.0
  9
$PUCSORGBACK
 10
0.0
 20
0.0
 30
0.0
  9
$USERI1
 70
     0
  9
$USERI2
 70
     0
  9
$USERI3
 70
     0
  9
$USERI4
 70
     0
  9
$USERI5
 70
     0
  9
$USERR1
 40
0.0
  9
$USERR2
 40
0.0
  9
$USERR3
 40
0.0
  9
$USERR4
 40
0.0
  9
$USERR5
 40
0.0
  9
$WORLDVIEW
 70
     1
  9
$SHADEDGE
 70
     3
  9
$SHADEDIF
 70
    70
  9
$TILEMODE
 70
     1
  9
$MAXACTVP
 70
    64
  9
$PINSBASE
 10
0.0
 20
0.0
 30
0.0
  9
$PLIMCHECK
 70
     0
  9
$PEXTMIN
 10
-123.373464
 20
-79.288363
 30
0.0
  9
$PEXTMAX
 10
716.626536
 20
514.711637
 30
0.0
  9
$PLIMMIN
 10
-123.373464
 20
-79.288363
  9
$PLIMMAX
 10
716.626536
 20
514.711637
  9
$UNITMODE
 70
     0
  9
$VISRETAIN
 70
     1
  9
$PLINEGEN
 70
     0
  9
$PSLTSCALE
 70
     1
  9
$TREEDEPTH
 70
  3020
  9
$CMLSTYLE
  2
Standard
  9
$CMLJUST
 70
     0
  9
$CMLSCALE
 40
20.0
  9
$PROXYGRAPHICS
 70
     1
  9
$MEASUREMENT
 70
     1
  9
$CELWEIGHT
370
    -1
  9
$ENDCAPS
280
     0
  9
$JOINSTYLE
280
     0
  9
$LWDISPLAY
290
     0
  9
$INSUNITS
 70
     4
  9
$HYPERLINKBASE
  1

  9
$STYLESHEET
  1

  9
$XEDIT
290
     1
  9
$CEPSNTYPE
380
     0
  9
$PSTYLEMODE
290
     1
  9
$FINGERPRINTGUID
  2
{FAEB1C30-E019-11D5-929B-00C0DF256EC4}
  9
$VERSIONGUID
  2
{FAEB1C32-E019-11D5-929B-00C0DF256EC4}
  9
$EXTNAMES
290
     1
  9
$PSVPSCALE
 40
0.0
  9
$OLESTARTUP
290
     0
  0
ENDSEC
  0
SECTION
  2
CLASSES
  0
CLASS
  1
ACDBDICTIONARYWDFLT
  2
AcDbDictionaryWithDefault
  3
ObjectDBX Classes
 90
        0
280
     0
281
     0
  0
CLASS
  1
ACDBPLACEHOLDER
  2
AcDbPlaceHolder
  3
ObjectDBX Classes
 90
        0
280
     0
281
     0
  0
CLASS
  1
LAYOUT
  2
AcDbLayout
  3
ObjectDBX Classes
 90
        0
280
     0
281
     0
  0
ENDSEC
  0
SECTION
  2
TABLES
  0
TABLE
  2
VPORT
  5
8
330
0
100
AcDbSymbolTable
 70
     2
  0
VPORT
  5
29
330
8
100
AcDbSymbolTableRecord
100
AcDbViewportTableRecord
  2
*ACTIVE
 70
     0
 10
0.0
 20
0.0
 11
1.0
 21
1.0
 12
296.626536
 22
217.711637
 13
0.0
 23
0.0
 14
1.0
 24
1.0
 15
0.0
 25
0.0
 16
0.0
 26
0.0
 36
1.0
 17
0.0
 27
0.0
 37
0.0
 40
594.0
 41
1.414141
 42
50.0
 43
0.0
 44
0.0
 50
0.0
 51
0.0
 71
    16
 72
   100
 73
     1
 74
     0
 75
     0
 76
     0
 77
     0
 78
     0
281
     0
 65
     0
110
0.0
120
0.0
130
0.0
111
1.0
121
0.0
131
0.0
112
0.0
122
1.0
132
0.0
 79
     0
146
0.0
  0
ENDTAB
  0
TABLE
  2
LTYPE
  5
5
330
0
100
AcDbSymbolTable
 70
     3
  0
LTYPE
  5
14
330
5
100
AcDbSymbolTableRecord
100
AcDbLinetypeTableRecord
  2
ByBlock
 70
     0
  3

 72
    65
 73
     0
 40
0.0
  0
LTYPE
  5
15
330
5
100
AcDbSymbolTableRecord
100
AcDbLinetypeTableRecord
  2
ByLayer
 70
     0
  3

 72
    65
 73
     0
 40
0.0
  0
LTYPE
  5
16
330
5
100
AcDbSymbolTableRecord
100
AcDbLinetypeTableRecord
  2
Continuous
 70
     0
  3
Solid line
 72
    65
 73
     0
 40
0.0
  0
LTYPE
  5
2A
330
5
100
AcDbSymbolTableRecord
100
AcDbLinetypeTableRecord
  2
DASHED
 70
     0
  3
__ __ __ __ __
 72
    65
 73
     2
 40
6.25
 49
5.0
 74
     4
 75
     0
340
0
 46
1.0
 50
0.0
 44
0.0
 45
0.0
 49
-1.25
 74
     4
 75
     0
340
0
 46
1.0
 50
0.0
 44
0.0
 45
0.0
  0
LTYPE
  5
46
330
5
100
AcDbSymbolTableRecord
100
AcDbLinetypeTableRecord
  2
CENTER
 70
     0
  3
__ . __ . __ . __ . __
 72
    65
 73
     4
 40
7.5
 49
5.0
 74
     4
 75
     0
340
0
 46
1.0
 50
0.0
 44
0.0
 45
0.0
 49
-1.25
 74
     4
 75
     0
340
0
 46
1.0
 50
0.0
 44
0.0
 45
0.0
 49
0.0
 74
     4
 75
     0
340
0
 46
1.0
 50
0.0
 44
0.0
 45
0.0
 49
-1.25
 74
     4
 75
     0
340
0
 46
1.0
 50
0.0
 44
0.0
 45
0.0
  0
ENDTAB
  0
TABLE
  2
LAYER
  5
2
330
0
100
AcDbSymbolTable
 70
    11
  0
LAYER
  5
10
330
2
100
AcDbSymbolTableRecord
100
AcDbLayerTableRecord
  2
0
 70
     0
 62
     7
  6
Continuous
370
    -3
390
F
  0
LAYER
  5
2B
330
2
100
AcDbSymbolTableRecord
100
AcDbLayerTableRecord
  2
LC-INFO-1-2-mm-A3-0
 70
     1
 62
     7
  6
ByBlock
370
    -3
390
F
  0
LAYER
  5
2C
330
2
100
AcDbSymbolTableRecord
100
AcDbLayerTableRecord
  2
LC-CUT-HIDDEN
 70
     0
 62
     7
  6
DASHED
370
    -3
390
F
  0
LAYER
  5
2D
330
2
100
AcDbSymbolTableRecord
100
AcDbLayerTableRecord
  2
LC-VIEWPORT
 70
     0
 62
     7
  6
ByBlock
370
    -3
390
F
  0
LAYER
  5
2E
330
2
100
AcDbSymbolTableRecord
100
AcDbLayerTableRecord
  2
LC-3D-HIDDEN
 70
     0
 62
     9
  6
DASHED
370
    -3
390
F
  0
LAYER
  5
30
330
2
100
AcDbSymbolTableRecord
100
AcDbLayerTableRecord
  2
LC-001-002-----0
 70
     0
 62
     1
  6
ByBlock
370
    -3
390
F
  0
LAYER
  5
32
330
2
100
AcDbSymbolTableRecord
100
AcDbLayerTableRecord
  2
LC-002-002-RND-0
 70
     0
 62
     1
  6
ByBlock
370
    -3
390
F
  0
LAYER
  5
47
330
2
100
AcDbSymbolTableRecord
100
AcDbLayerTableRecord
  2
LC-003-006-MLN-0
 70
     0
 62
     2
  6
CENTER
370
    -3
390
F
  0
LAYER
  5
53
330
2
100
AcDbSymbolTableRecord
100
AcDbLayerTableRecord
  2
LC-004-005-----0
 70
     0
 62
     2
  6
ByBlock
370
    -3
390
F
  0
LAYER
  5
8F
330
2
100
AcDbSymbolTableRecord
100
AcDbLayerTableRecord
  2
LC-005-003-----0
 70
     0
 62
     2
  6
ByBlock
370
    -3
390
F
  0
LAYER
  5
91
330
2
100
AcDbSymbolTableRecord
100
AcDbLayerTableRecord
  2
Defpoints
 70
     0
 62
     7
  6
Continuous
290
     0
370
    -3
390
F
  0
ENDTAB
  0
TABLE
  2
STYLE
  5
3
330
0
100
AcDbSymbolTable
 70
     3
  0
STYLE
  5
11
330
3
100
AcDbSymbolTableRecord
100
AcDbTextStyleTableRecord
  2
Standard
 70
     0
 40
0.0
 41
1.0
 50
0.0
 71
     0
 42
2.5
  3
txt
  4

  0
STYLE
  5
2F
330
3
100
AcDbSymbolTableRecord
100
AcDbTextStyleTableRecord
  2
LCTX15-400-0-0-Arial
 70
     0
 40
0.0
 41
0.9
 50
0.0
 71
     0
 42
3.5
  3

  4

1001
ACAD
1000
Arial
1071
 16777218
  0
STYLE
  5
8D
330
3
100
AcDbSymbolTableRecord
100
AcDbTextStyleTableRecord
  2
LCTX15-400-0-0pDIN-Schrift
 70
     0
 40
2.5
 41
0.8
 50
15.0
 71
     0
 42
3.5
  3
STANDARD
  4

  0
ENDTAB
  0
TABLE
  2
VIEW
  5
6
330
0
100
AcDbSymbolTable
 70
     0
  0
ENDTAB
  0
TABLE
  2
UCS
  5
7
330
0
100
AcDbSymbolTable
 70
     0
  0
ENDTAB
  0
TABLE
  2
APPID
  5
9
330
0
100
AcDbSymbolTable
 70
     1
  0
APPID
  5
12
330
9
100
AcDbSymbolTableRecord
100
AcDbRegAppTableRecord
  2
ACAD
 70
     0
  0
ENDTAB
  0
TABLE
  2
DIMSTYLE
  5
A
330
0
100
AcDbSymbolTable
 70
     2
100
AcDbDimStyleTable
  0
DIMSTYLE
105
27
330
A
100
AcDbSymbolTableRecord
100
AcDbDimStyleTableRecord
  2
ISO-25
 70
     0
 41
2.5
 42
0.625
 43
3.75
 44
1.25
 73
     0
 74
     0
 77
     1
 78
     8
140
2.5
141
2.5
143
0.03937
147
0.625
171
     3
172
     1
271
     2
272
     2
274
     3
278
    44
283
     0
284
     8
340
11
  0
DIMSTYLE
105
8E
102
{ACAD_REACTORS
330
90
330
D0
330
DD
102
}
330
A
100
AcDbSymbolTableRecord
100
AcDbDimStyleTableRecord
  2
LC-DIM-L-0140-02-02
 70
     0
 40
2.0
 41
14.0
 42
0.0
 43
7.5
 44
1.8
 73
     0
 74
     0
 77
     1
 78
     8
 79
     2
140
14.0
141
0.0
146
0.71
147
1.5
176
     2
177
     2
178
     2
179
     2
271
     2
278
    44
289
     1
340
8D
  0
ENDTAB
  0
TABLE
  2
BLOCK_RECORD
  5
1
330
0
100
AcDbSymbolTable
 70
     8
  0
BLOCK_RECORD
  5
1F
330
1
100
AcDbSymbolTableRecord
100
AcDbBlockTableRecord
  2
*Model_Space
340
22
  0
BLOCK_RECORD
  5
1B
330
1
100
AcDbSymbolTableRecord
100
AcDbBlockTableRecord
  2
*Paper_Space
340
1E
  0
BLOCK_RECORD
  5
23
330
1
100
AcDbSymbolTableRecord
100
AcDbBlockTableRecord
  2
*Paper_Space0
340
26
  0
BLOCK_RECORD
  5
50
330
1
100
AcDbSymbolTableRecord
100
AcDbBlockTableRecord
  2
*X11
340
0
102
{BLKREFS
331
8C
102
}
  0
BLOCK_RECORD
  5
92
330
1
100
AcDbSymbolTableRecord
100
AcDbBlockTableRecord
  2
*D2
340
0
  0
BLOCK_RECORD
  5
A8
330
1
100
AcDbSymbolTableRecord
100
AcDbBlockTableRecord
  2
*X23
340
0
102
{BLKREFS
331
BC
102
}
  0
BLOCK_RECORD
  5
BD
330
1
100
AcDbSymbolTableRecord
100
AcDbBlockTableRecord
  2
*X34
340
0
102
{BLKREFS
331
CF
102
}
  0
BLOCK_RECORD
  5
D1
330
1
100
AcDbSymbolTableRecord
100
AcDbBlockTableRecord
  2
*D5
340
0
  0
BLOCK_RECORD
  5
DE
330
1
100
AcDbSymbolTableRecord
100
AcDbBlockTableRecord
  2
*D6
340
0
  0
BLOCK_RECORD
  5
EC
330
1
100
AcDbSymbolTableRecord
100
AcDbBlockTableRecord
  2
*X47
340
0
102
{BLKREFS
331
100
102
}
  0
ENDTAB
  0
ENDSEC
  0
SECTION
  2
BLOCKS
  0
BLOCK
  5
20
330
1F
100
AcDbEntity
  8
0
100
AcDbBlockBegin
  2
*Model_Space
 70
     0
 71
     0
 10
0.0
 20
0.0
 30
0.0
  3
*Model_Space
  1

  0
ENDBLK
  5
21
330
1F
100
AcDbEntity
  8
0
100
AcDbBlockEnd
  0
BLOCK
  5
1C
330
1B
100
AcDbEntity
 67
     1
  8
0
100
AcDbBlockBegin
  2
*Paper_Space
 70
     0
 71
     0
 10
0.0
 20
0.0
 30
0.0
  3
*Paper_Space
  1

  0
ENDBLK
  5
1D
330
1B
100
AcDbEntity
 67
     1
  8
0
100
AcDbBlockEnd
  0
BLOCK
  5
24
330
23
100
AcDbEntity
  8
0
100
AcDbBlockBegin
  2
*Paper_Space0
 70
     0
 71
     0
 10
0.0
 20
0.0
 30
0.0
  3
*Paper_Space0
  1

  0
ENDBLK
  5
25
330
23
100
AcDbEntity
  8
0
100
AcDbBlockEnd
  0
BLOCK
  5
51
330
50
100
AcDbEntity
  8
0
100
AcDbBlockBegin
  2
*X11
 70
     1
 71
     0
 10
0.0
 20
0.0
 30
0.0
  3
*X11
  1

  4
*X1
  0
LINE
  5
54
330
50
100
AcDbEntity
  8
LC-004-005-----0
 62
     7
370
    25
100
AcDbLine
 10
461.466078
 20
206.907637
 30
0.0
 11
462.466078
 21
207.907637
 31
0.0
  0
LINE
  5
55
330
50
100
AcDbEntity
  8
LC-004-005-----0
 62
     7
370
    25
100
AcDbLine
 10
457.223437
 20
206.907637
 30
0.0
 11
458.223437
 21
207.907637
 31
0.0
  0
LINE
  5
56
330
50
100
AcDbEntity
  8
LC-004-005-----0
 62
     7
370
    25
100
AcDbLine
 10
452.980796
 20
206.907637
 30
0.0
 11
453.980796
 21
207.907637
 31
0.0
  0
LINE
  5
57
330
50
100
AcDbEntity
  8
LC-004-005-----0
 62
     7
370
    25
100
AcDbLine
 10
448.738156
 20
206.907637
 30
0.0
 11
449.738156
 21
207.907637
 31
0.0
  0
LINE
  5
58
330
50
100
AcDbEntity
  8
LC-004-005-----0
 62
     7
370
    25
100
AcDbLine
 10
444.495515
 20
206.907637
 30
0.0
 11
445.495515
 21
207.907637
 31
0.0
  0
LINE
  5
59
330
50
100
AcDbEntity
  8
LC-004-005-----0
 62
     7
370
    25
100
AcDbLine
 10
440.252874
 20
206.907637
 30
0.0
 11
441.252874
 21
207.907637
 31
0.0
  0
LINE
  5
5A
330
50
100
AcDbEntity
  8
LC-004-005-----0
 62
     7
370
    25
100
AcDbLine
 10
436.010234
 20
206.907637
 30
0.0
 11
437.010234
 21
207.907637
 31
0.0
  0
LINE
  5
5B
330
50
100
AcDbEntity
  8
LC-004-005-----0
 62
     7
370
    25
100
AcDbLine
 10
431.767593
 20
206.907637
 30
0.0
 11
432.767593
 21
207.907637
 31
0.0
  0
LINE
  5
5C
330
50
100
AcDbEntity
  8
LC-004-005-----0
 62
     7
370
    25
100
AcDbLine
 10
427.524952
 20
206.907637
 30
0.0
 11
428.524952
 21
207.907637
 31
0.0
  0
LINE
  5
5D
330
50
100
AcDbEntity
  8
LC-004-005-----0
 62
     7
370
    25
100
AcDbLine
 10
423.282312
 20
206.907637
 30
0.0
 11
424.282312
 21
207.907637
 31
0.0
  0
LINE
  5
5E
330
50
100
AcDbEntity
  8
LC-004-005-----0
 62
     7
370
    25
100
AcDbLine
 10
419.039671
 20
206.907637
 30
0.0
 11
420.039671
 21
207.907637
 31
0.0
  0
LINE
  5
5F
330
50
100
AcDbEntity
  8
LC-004-005-----0
 62
     7
370
    25
100
AcDbLine
 10
414.79703
 20
206.907637
 30
0.0
 11
415.79703
 21
207.907637
 31
0.0
  0
LINE
  5
60
330
50
100
AcDbEntity
  8
LC-004-005-----0
 62
     7
370
    25
100
AcDbLine
 10
410.55439
 20
206.907637
 30
0.0
 11
411.55439
 21
207.907637
 31
0.0
  0
LINE
  5
61
330
50
100
AcDbEntity
  8
LC-004-005-----0
 62
     7
370
    25
100
AcDbLine
 10
406.311749
 20
206.907637
 30
0.0
 11
407.311749
 21
207.907637
 31
0.0
  0
LINE
  5
62
330
50
100
AcDbEntity
  8
LC-004-005-----0
 62
     7
370
    25
100
AcDbLine
 10
402.069108
 20
206.907637
 30
0.0
 11
403.069108
 21
207.907637
 31
0.0
  0
LINE
  5
63
330
50
100
AcDbEntity
  8
LC-004-005-----0
 62
     7
370
    25
100
AcDbLine
 10
397.826467
 20
206.907637
 30
0.0
 11
398.826467
 21
207.907637
 31
0.0
  0
LINE
  5
64
330
50
100
AcDbEntity
  8
LC-004-005-----0
 62
     7
370
    25
100
AcDbLine
 10
393.583827
 20
206.907637
 30
0.0
 11
394.583827
 21
207.907637
 31
0.0
  0
LINE
  5
65
330
50
100
AcDbEntity
  8
LC-004-005-----0
 62
     7
370
    25
100
AcDbLine
 10
389.341186
 20
206.907637
 30
0.0
 11
390.341186
 21
207.907637
 31
0.0
  0
LINE
  5
66
330
50
100
AcDbEntity
  8
LC-004-005-----0
 62
     7
370
    25
100
AcDbLine
 10
385.098545
 20
206.907637
 30
0.0
 11
386.098545
 21
207.907637
 31
0.0
  0
LINE
  5
67
330
50
100
AcDbEntity
  8
LC-004-005-----0
 62
     7
370
    25
100
AcDbLine
 10
380.855905
 20
206.907637
 30
0.0
 11
381.855905
 21
207.907637
 31
0.0
  0
LINE
  5
68
330
50
100
AcDbEntity
  8
LC-004-005-----0
 62
     7
370
    25
100
AcDbLine
 10
376.613264
 20
206.907637
 30
0.0
 11
377.613264
 21
207.907637
 31
0.0
  0
LINE
  5
69
330
50
100
AcDbEntity
  8
LC-004-005-----0
 62
     7
370
    25
100
AcDbLine
 10
372.370623
 20
206.907637
 30
0.0
 11
373.370623
 21
207.907637
 31
0.0
  0
LINE
  5
6A
330
50
100
AcDbEntity
  8
LC-004-005-----0
 62
     7
370
    25
100
AcDbLine
 10
368.127983
 20
206.907637
 30
0.0
 11
369.127983
 21
207.907637
 31
0.0
  0
LINE
  5
6B
330
50
100
AcDbEntity
  8
LC-004-005-----0
 62
     7
370
    25
100
AcDbLine
 10
363.885342
 20
206.907637
 30
0.0
 11
364.885342
 21
207.907637
 31
0.0
  0
LINE
  5
6C
330
50
100
AcDbEntity
  8
LC-004-005-----0
 62
     7
370
    25
100
AcDbLine
 10
359.642701
 20
206.907637
 30
0.0
 11
360.642701
 21
207.907637
 31
0.0
  0
LINE
  5
6D
330
50
100
AcDbEntity
  8
LC-004-005-----0
 62
     7
370
    25
100
AcDbLine
 10
355.400061
 20
206.907637
 30
0.0
 11
356.400061
 21
207.907637
 31
0.0
  0
LINE
  5
6E
330
50
100
AcDbEntity
  8
LC-004-005-----0
 62
     7
370
    25
100
AcDbLine
 10
351.15742
 20
206.907637
 30
0.0
 11
352.15742
 21
207.907637
 31
0.0
  0
LINE
  5
6F
330
50
100
AcDbEntity
  8
LC-004-005-----0
 62
     7
370
    25
100
AcDbLine
 10
346.914779
 20
206.907637
 30
0.0
 11
347.914779
 21
207.907637
 31
0.0
  0
LINE
  5
70
330
50
100
AcDbEntity
  8
LC-004-005-----0
 62
     7
370
    25
100
AcDbLine
 10
249.334043
 20
206.907637
 30
0.0
 11
250.334043
 21
207.907637
 31
0.0
  0
LINE
  5
71
330
50
100
AcDbEntity
  8
LC-004-005-----0
 62
     7
370
    25
100
AcDbLine
 10
245.091403
 20
206.907637
 30
0.0
 11
246.091403
 21
207.907637
 31
0.0
  0
LINE
  5
72
330
50
100
AcDbEntity
  8
LC-004-005-----0
 62
     7
370
    25
100
AcDbLine
 10
240.848762
 20
206.907637
 30
0.0
 11
241.848762
 21
207.907637
 31
0.0
  0
LINE
  5
73
330
50
100
AcDbEntity
  8
LC-004-005-----0
 62
     7
370
    25
100
AcDbLine
 10
236.606121
 20
206.907637
 30
0.0
 11
237.606121
 21
207.907637
 31
0.0
  0
LINE
  5
74
330
50
100
AcDbEntity
  8
LC-004-005-----0
 62
     7
370
    25
100
AcDbLine
 10
232.363481
 20
206.907637
 30
0.0
 11
233.363481
 21
207.907637
 31
0.0
  0
LINE
  5
75
330
50
100
AcDbEntity
  8
LC-004-005-----0
 62
     7
370
    25
100
AcDbLine
 10
228.12084
 20
206.907637
 30
0.0
 11
229.12084
 21
207.907637
 31
0.0
  0
LINE
  5
76
330
50
100
AcDbEntity
  8
LC-004-005-----0
 62
     7
370
    25
100
AcDbLine
 10
223.878199
 20
206.907637
 30
0.0
 11
224.878199
 21
207.907637
 31
0.0
  0
LINE
  5
77
330
50
100
AcDbEntity
  8
LC-004-005-----0
 62
     7
370
    25
100
AcDbLine
 10
219.635559
 20
206.907637
 30
0.0
 11
220.635559
 21
207.907637
 31
0.0
  0
LINE
  5
78
330
50
100
AcDbEntity
  8
LC-004-005-----0
 62
     7
370
    25
100
AcDbLine
 10
215.392918
 20
206.907637
 30
0.0
 11
216.392918
 21
207.907637
 31
0.0
  0
LINE
  5
79
330
50
100
AcDbEntity
  8
LC-004-005-----0
 62
     7
370
    25
100
AcDbLine
 10
211.150277
 20
206.907637
 30
0.0
 11
212.150277
 21
207.907637
 31
0.0
  0
LINE
  5
7A
330
50
100
AcDbEntity
  8
LC-004-005-----0
 62
     7
370
    25
100
AcDbLine
 10
206.907637
 20
206.907637
 30
0.0
 11
207.907637
 21
207.907637
 31
0.0
  0
LINE
  5
7B
330
50
100
AcDbEntity
  8
LC-004-005-----0
 62
     7
370
    25
100
AcDbLine
 10
202.664996
 20
206.907637
 30
0.0
 11
203.664996
 21
207.907637
 31
0.0
  0
LINE
  5
7C
330
50
100
AcDbEntity
  8
LC-004-005-----0
 62
     7
370
    25
100
AcDbLine
 10
198.422355
 20
206.907637
 30
0.0
 11
199.422355
 21
207.907637
 31
0.0
  0
LINE
  5
7D
330
50
100
AcDbEntity
  8
LC-004-005-----0
 62
     7
370
    25
100
AcDbLine
 10
194.179714
 20
206.907637
 30
0.0
 11
195.179714
 21
207.907637
 31
0.0
  0
LINE
  5
7E
330
50
100
AcDbEntity
  8
LC-004-005-----0
 62
     7
370
    25
100
AcDbLine
 10
189.937074
 20
206.907637
 30
0.0
 11
190.937074
 21
207.907637
 31
0.0
  0
LINE
  5
7F
330
50
100
AcDbEntity
  8
LC-004-005-----0
 62
     7
370
    25
100
AcDbLine
 10
185.694433
 20
206.907637
 30
0.0
 11
186.694433
 21
207.907637
 31
0.0
  0
LINE
  5
80
330
50
100
AcDbEntity
  8
LC-004-005-----0
 62
     7
370
    25
100
AcDbLine
 10
181.451792
 20
206.907637
 30
0.0
 11
182.451792
 21
207.907637
 31
0.0
  0
LINE
  5
81
330
50
100
AcDbEntity
  8
LC-004-005-----0
 62
     7
370
    25
100
AcDbLine
 10
177.209152
 20
206.907637
 30
0.0
 11
178.209152
 21
207.907637
 31
0.0
  0
LINE
  5
82
330
50
100
AcDbEntity
  8
LC-004-005-----0
 62
     7
370
    25
100
AcDbLine
 10
172.966511
 20
206.907637
 30
0.0
 11
173.966511
 21
207.907637
 31
0.0
  0
LINE
  5
83
330
50
100
AcDbEntity
  8
LC-004-005-----0
 62
     7
370
    25
100
AcDbLine
 10
168.72387
 20
206.907637
 30
0.0
 11
169.72387
 21
207.907637
 31
0.0
  0
LINE
  5
84
330
50
100
AcDbEntity
  8
LC-004-005-----0
 62
     7
370
    25
100
AcDbLine
 10
164.48123
 20
206.907637
 30
0.0
 11
165.48123
 21
207.907637
 31
0.0
  0
LINE
  5
85
330
50
100
AcDbEntity
  8
LC-004-005-----0
 62
     7
370
    25
100
AcDbLine
 10
160.238589
 20
206.907637
 30
0.0
 11
161.238589
 21
207.907637
 31
0.0
  0
LINE
  5
86
330
50
100
AcDbEntity
  8
LC-004-005-----0
 62
     7
370
    25
100
AcDbLine
 10
155.995948
 20
206.907637
 30
0.0
 11
156.995948
 21
207.907637
 31
0.0
  0
LINE
  5
87
330
50
100
AcDbEntity
  8
LC-004-005-----0
 62
     7
370
    25
100
AcDbLine
 10
151.753308
 20
206.907637
 30
0.0
 11
152.753308
 21
207.907637
 31
0.0
  0
LINE
  5
88
330
50
100
AcDbEntity
  8
LC-004-005-----0
 62
     7
370
    25
100
AcDbLine
 10
147.510667
 20
206.907637
 30
0.0
 11
148.510667
 21
207.907637
 31
0.0
  0
LINE
  5
89
330
50
100
AcDbEntity
  8
LC-004-005-----0
 62
     7
370
    25
100
AcDbLine
 10
143.268026
 20
206.907637
 30
0.0
 11
144.268026
 21
207.907637
 31
0.0
  0
LINE
  5
8A
330
50
100
AcDbEntity
  8
LC-004-005-----0
 62
     7
370
    25
100
AcDbLine
 10
139.025386
 20
206.907637
 30
0.0
 11
140.025386
 21
207.907637
 31
0.0
  0
LINE
  5
8B
330
50
100
AcDbEntity
  8
LC-004-005-----0
 62
     7
370
    25
100
AcDbLine
 10
134.782745
 20
206.907637
 30
0.0
 11
135.782745
 21
207.907637
 31
0.0
  0
ENDBLK
  5
52
330
50
100
AcDbEntity
  8
0
100
AcDbBlockEnd
  0
BLOCK
  5
9C
330
92
100
AcDbEntity
  8
0
100
AcDbBlockBegin
  2
*D2
 70
     1
 71
     0
 10
0.0
 20
0.0
 30
0.0
  3
*D2
  1

  0
LINE
  5
93
330
92
100
AcDbEntity
  8
LC-005-003-----0
 62
     2
370
    -2
100
AcDbLine
 10
134.056693
 20
206.907637
 30
0.0
 11
134.056693
 21
149.365637
 31
0.0
  0
LINE
  5
94
330
92
100
AcDbEntity
  8
LC-005-003-----0
 62
     2
370
    -2
100
AcDbLine
 10
464.056693
 20
206.907637
 30
0.0
 11
464.056693
 21
149.365637
 31
0.0
  0
LINE
  5
95
330
92
100
AcDbEntity
  8
LC-005-003-----0
 62
     2
370
    -2
100
AcDbLine
 10
162.056693
 20
152.965637
 30
0.0
 11
436.056693
 21
152.965637
 31
0.0
  0
SOLID
  5
96
330
92
100
AcDbEntity
  8
LC-005-003-----0
 62
     2
100
AcDbTrace
 10
162.056693
 20
157.632303
 30
0.0
 11
162.056693
 21
148.29897
 31
0.0
 12
134.056693
 22
152.965637
 32
0.0
 13
134.056693
 23
152.965637
 33
0.0
  0
SOLID
  5
97
330
92
100
AcDbEntity
  8
LC-005-003-----0
 62
     2
100
AcDbTrace
 10
436.056693
 20
148.29897
 30
0.0
 11
436.056693
 21
157.632303
 31
0.0
 12
464.056693
 22
152.965637
 32
0.0
 13
464.056693
 23
152.965637
 33
0.0
  0
MTEXT
  5
98
330
92
100
AcDbEntity
  8
LC-005-003-----0
 62
     2
100
AcDbMText
 10
299.056693
 20
183.765637
 30
0.0
 40
28.0
 41
0.0
 71
     5
 72
     1
  1
\A1;330
  7
LCTX15-400-0-0pDIN-Schrift
 73
     1
 44
1.0
  0
POINT
  5
99
330
92
100
AcDbEntity
  8
Defpoints
 62
     0
100
AcDbPoint
 10
134.056693
 20
206.907637
 30
0.0
  0
POINT
  5
9A
330
92
100
AcDbEntity
  8
Defpoints
 62
     0
100
AcDbPoint
 10
464.056693
 20
206.907637
 30
0.0
  0
POINT
  5
9B
330
92
100
AcDbEntity
  8
Defpoints
 62
     0
100
AcDbPoint
 10
464.056693
 20
152.965637
 30
0.0
  0
ENDBLK
  5
9D
330
92
100
AcDbEntity
  8
0
100
AcDbBlockEnd
  0
BLOCK
  5
A9
330
A8
100
AcDbEntity
  8
0
100
AcDbBlockBegin
  2
*X23
 70
     1
 71
     0
 10
0.0
 20
0.0
 30
0.0
  3
*X23
  1

  4
*X2
  0
LINE
  5
AB
330
A8
100
AcDbEntity
  8
LC-004-005-----0
 62
     7
370
    25
100
AcDbLine
 10
263.933303
 20
256.497288
 30
0.0
 11
262.522954
 21
257.907637
 31
0.0
  0
LINE
  5
AC
330
A8
100
AcDbEntity
  8
LC-004-005-----0
  6
DASHED
 62
     7
370
    25
100
AcDbLine
 10
263.478208
 20
251.295528
 30
0.0
 11
260.24749
 21
254.526247
 31
0.0
  0
LINE
  5
AD
330
A8
100
AcDbEntity
  8
LC-004-005-----0
  6
DASHED
 62
     7
370
    25
100
AcDbLine
 10
263.250661
 20
248.694649
 30
0.0
 11
260.019943
 21
251.925367
 31
0.0
  0
LINE
  5
AE
330
A8
100
AcDbEntity
  8
LC-004-005-----0
 62
     7
370
    25
100
AcDbLine
 10
262.795566
 20
243.492889
 30
0.0
 11
259.564848
 21
246.723608
 31
0.0
  0
LINE
  5
AF
330
A8
100
AcDbEntity
  8
LC-004-005-----0
 62
     7
370
    25
100
AcDbLine
 10
262.568018
 20
240.89201
 30
0.0
 11
259.3373
 21
244.122728
 31
0.0
  0
LINE
  5
B0
330
A8
100
AcDbEntity
  8
LC-004-005-----0
  6
DASHED
 62
     7
370
    25
100
AcDbLine
 10
262.112923
 20
235.69025
 30
0.0
 11
258.882205
 21
238.920969
 31
0.0
  0
LINE
  5
B1
330
A8
100
AcDbEntity
  8
LC-004-005-----0
  6
DASHED
 62
     7
370
    25
100
AcDbLine
 10
261.885376
 20
233.089371
 30
0.0
 11
258.654658
 21
236.320089
 31
0.0
  0
LINE
  5
B2
330
A8
100
AcDbEntity
  8
LC-004-005-----0
 62
     7
370
    25
100
AcDbLine
 10
259.902827
 20
229.415066
 30
0.0
 11
256.410256
 21
232.907637
 31
0.0
  0
LINE
  5
B3
330
A8
100
AcDbEntity
  8
LC-004-005-----0
 62
     7
370
    25
100
AcDbLine
 10
257.081829
 20
229.407637
 30
0.0
 11
253.581829
 21
232.907637
 31
0.0
  0
LINE
  5
B4
330
A8
100
AcDbEntity
  8
LC-004-005-----0
  6
DASHED
 62
     7
370
    25
100
AcDbLine
 10
254.127169
 20
226.705443
 30
0.0
 11
250.89645
 21
229.936161
 31
0.0
  0
LINE
  5
B5
330
A8
100
AcDbEntity
  8
LC-004-005-----0
  6
DASHED
 62
     7
370
    25
100
AcDbLine
 10
253.899621
 20
224.104563
 30
0.0
 11
250.668903
 21
227.335281
 31
0.0
  0
LINE
  5
B6
330
A8
100
AcDbEntity
  8
LC-004-005-----0
 62
     7
370
    25
100
AcDbLine
 10
253.444526
 20
218.902804
 30
0.0
 11
250.213808
 21
222.133522
 31
0.0
  0
LINE
  5
B7
330
A8
100
AcDbEntity
  8
LC-004-005-----0
 62
     7
370
    25
100
AcDbLine
 10
253.216979
 20
216.301924
 30
0.0
 11
249.98626
 21
219.532642
 31
0.0
  0
LINE
  5
B8
330
A8
100
AcDbEntity
  8
LC-004-005-----0
  6
DASHED
 62
     7
370
    25
100
AcDbLine
 10
252.761884
 20
211.100165
 30
0.0
 11
249.531165
 21
214.330883
 31
0.0
  0
LINE
  5
B9
330
A8
100
AcDbEntity
  8
LC-004-005-----0
  6
DASHED
 62
     7
370
    25
100
AcDbLine
 10
252.534336
 20
208.499285
 30
0.0
 11
249.303618
 21
211.730003
 31
0.0
  0
LINE
  5
BA
330
A8
100
AcDbEntity
  8
LC-004-005-----0
 62
     7
370
    25
100
AcDbLine
 10
247.469131
 20
207.907637
 30
0.0
 11
246.469131
 21
208.907637
 31
0.0
  0
LINE
  5
BB
330
A8
100
AcDbEntity
  8
LC-004-005-----0
 62
     7
370
    25
100
AcDbLine
 10
244.640703
 20
207.907637
 30
0.0
 11
243.640703
 21
208.907637
 31
0.0
  0
ENDBLK
  5
AA
330
A8
100
AcDbEntity
  8
0
100
AcDbBlockEnd
  0
BLOCK
  5
BE
330
BD
100
AcDbEntity
  8
0
100
AcDbBlockBegin
  2
*X34
 70
     1
 71
     0
 10
0.0
 20
0.0
 30
0.0
  3
*X34
  1

  4
*X3
  0
LINE
  5
C0
330
BD
100
AcDbEntity
  8
LC-004-005-----0
 62
     7
370
    25
100
AcDbLine
 10
337.714645
 20
256.255051
 30
0.0
 11
336.06206
 21
257.907637
 31
0.0
  0
LINE
  5
C1
330
BD
100
AcDbEntity
  8
LC-004-005-----0
  6
DASHED
 62
     7
370
    25
100
AcDbLine
 10
338.257006
 20
250.055836
 30
0.0
 11
334.406786
 21
253.906056
 31
0.0
  0
LINE
  5
C2
330
BD
100
AcDbEntity
  8
LC-004-005-----0
  6
DASHED
 62
     7
370
    25
100
AcDbLine
 10
338.528186
 20
246.956228
 30
0.0
 11
334.677966
 21
250.806448
 31
0.0
  0
LINE
  5
C3
330
BD
100
AcDbEntity
  8
LC-004-005-----0
 62
     7
370
    25
100
AcDbLine
 10
339.070547
 20
240.757013
 30
0.0
 11
335.220327
 21
244.607233
 31
0.0
  0
LINE
  5
C4
330
BD
100
AcDbEntity
  8
LC-004-005-----0
 62
     7
370
    25
100
AcDbLine
 10
347.231697
 20
229.767437
 30
0.0
 11
344.091497
 21
232.907637
 31
0.0
  0
LINE
  5
C5
330
BD
100
AcDbEntity
  8
LC-004-005-----0
 62
     7
370
    25
100
AcDbLine
 10
339.341728
 20
237.657405
 30
0.0
 11
335.491508
 21
241.507626
 31
0.0
  0
LINE
  5
C6
330
BD
100
AcDbEntity
  8
LC-004-005-----0
  6
DASHED
 62
     7
370
    25
100
AcDbLine
 10
347.774058
 20
223.568221
 30
0.0
 11
343.923838
 21
227.418441
 31
0.0
  0
LINE
  5
C7
330
BD
100
AcDbEntity
  8
LC-004-005-----0
  6
DASHED
 62
     7
370
    25
100
AcDbLine
 10
341.934643
 20
229.407637
 30
0.0
 11
336.033869
 21
235.30841
 31
0.0
  0
LINE
  5
C8
330
BD
100
AcDbEntity
  8
LC-004-005-----0
  6
DASHED
 62
     7
370
    25
100
AcDbLine
 10
348.045238
 20
220.468614
 30
0.0
 11
344.195018
 21
224.318834
 31
0.0
  0
LINE
  5
C9
330
BD
100
AcDbEntity
  8
LC-004-005-----0
  6
DASHED
 62
     7
370
    25
100
AcDbLine
 10
339.106216
 20
229.407637
 30
0.0
 11
336.30505
 21
232.208803
 31
0.0
  0
LINE
  5
CA
330
BD
100
AcDbEntity
  8
LC-004-005-----0
 62
     7
370
    25
100
AcDbLine
 10
354.949361
 20
207.907637
 30
0.0
 11
353.949361
 21
208.907637
 31
0.0
  0
LINE
  5
CB
330
BD
100
AcDbEntity
  8
LC-004-005-----0
 62
     7
370
    25
100
AcDbLine
 10
348.5876
 20
214.269398
 30
0.0
 11
344.737379
 21
218.119618
 31
0.0
  0
LINE
  5
CC
330
BD
100
AcDbEntity
  8
LC-004-005-----0
 62
     7
370
    25
100
AcDbLine
 10
352.120934
 20
207.907637
 30
0.0
 11
351.120934
 21
208.907637
 31
0.0
  0
LINE
  5
CD
330
BD
100
AcDbEntity
  8
LC-004-005-----0
 62
     7
370
    25
100
AcDbLine
 10
348.85878
 20
211.169791
 30
0.0
 11
345.00856
 21
215.020011
 31
0.0
  0
LINE
  5
CE
330
BD
100
AcDbEntity
  8
LC-004-005-----0
  6
DASHED
 62
     7
370
    25
100
AcDbLine
 10
346.46408
 20
207.907637
 30
0.0
 11
345.550921
 21
208.820795
 31
0.0
  0
ENDBLK
  5
BF
330
BD
100
AcDbEntity
  8
0
100
AcDbBlockEnd
  0
BLOCK
  5
DB
330
D1
100
AcDbEntity
  8
0
100
AcDbBlockBegin
  2
*D5
 70
     1
 71
     0
 10
0.0
 20
0.0
 30
0.0
  3
*D5
  1

  0
LINE
  5
D2
330
D1
100
AcDbEntity
  8
LC-005-003-----0
 62
     2
370
    -2
100
AcDbLine
 10
264.056693
 20
257.907637
 30
0.0
 11
264.056693
 21
283.681637
 31
0.0
  0
LINE
  5
D3
330
D1
100
AcDbEntity
  8
LC-005-003-----0
 62
     2
370
    -2
100
AcDbLine
 10
334.056693
 20
257.907637
 30
0.0
 11
334.056693
 21
283.681637
 31
0.0
  0
LINE
  5
D4
330
D1
100
AcDbEntity
  8
LC-005-003-----0
 62
     2
370
    -2
100
AcDbLine
 10
292.056693
 20
280.081637
 30
0.0
 11
306.056693
 21
280.081637
 31
0.0
  0
SOLID
  5
D5
330
D1
100
AcDbEntity
  8
LC-005-003-----0
 62
     2
100
AcDbTrace
 10
292.056693
 20
284.748303
 30
0.0
 11
292.056693
 21
275.41497
 31
0.0
 12
264.056693
 22
280.081637
 32
0.0
 13
264.056693
 23
280.081637
 33
0.0
  0
SOLID
  5
D6
330
D1
100
AcDbEntity
  8
LC-005-003-----0
 62
     2
100
AcDbTrace
 10
306.056693
 20
275.41497
 30
0.0
 11
306.056693
 21
284.748303
 31
0.0
 12
334.056693
 22
280.081637
 32
0.0
 13
334.056693
 23
280.081637
 33
0.0
  0
MTEXT
  5
D7
330
D1
100
AcDbEntity
  8
LC-005-003-----0
 62
     2
100
AcDbMText
 10
299.056693
 20
310.881637
 30
0.0
 40
28.0
 41
0.0
 71
     5
 72
     1
  1
\A1;DN70
  7
LCTX15-400-0-0pDIN-Schrift
 73
     1
 44
1.0
  0
POINT
  5
D8
330
D1
100
AcDbEntity
  8
Defpoints
 62
     0
100
AcDbPoint
 10
264.056693
 20
257.907637
 30
0.0
  0
POINT
  5
D9
330
D1
100
AcDbEntity
  8
Defpoints
 62
     0
100
AcDbPoint
 10
334.056693
 20
257.907637
 30
0.0
  0
POINT
  5
DA
330
D1
100
AcDbEntity
  8
Defpoints
 62
     0
100
AcDbPoint
 10
334.056693
 20
280.081637
 30
0.0
  0
ENDBLK
  5
DC
330
D1
100
AcDbEntity
  8
0
100
AcDbBlockEnd
  0
BLOCK
  5
EA
330
DE
100
AcDbEntity
  8
0
100
AcDbBlockBegin
  2
*D6
 70
     1
 71
     0
 10
0.0
 20
0.0
 30
0.0
  3
*D6
  1

  0
LINE
  5
DF
330
DE
100
AcDbEntity
  8
LC-005-003-----0
 62
     2
370
    -2
100
AcDbLine
 10
239.056693
 20
207.907637
 30
0.0
 11
115.142903
 21
207.907637
 31
0.0
  0
LINE
  5
E0
330
DE
100
AcDbEntity
  8
LC-005-003-----0
 62
     2
370
    -2
100
AcDbLine
 10
260.543323
 20
257.907637
 30
0.0
 11
115.142903
 21
257.907637
 31
0.0
  0
LINE
  5
E1
330
DE
100
AcDbEntity
  8
LC-005-003-----0
 62
     2
370
    -2
100
AcDbLine
 10
118.742903
 20
179.907637
 30
0.0
 11
118.742903
 21
151.907637
 31
0.0
  0
LINE
  5
E2
330
DE
100
AcDbEntity
  8
LC-005-003-----0
 62
     2
370
    -2
100
AcDbLine
 10
118.742903
 20
285.907637
 30
0.0
 11
118.742903
 21
313.907637
 31
0.0
  0
LINE
  5
E3
330
DE
100
AcDbEntity
  8
LC-005-003-----0
 62
     2
370
    -2
100
AcDbLine
 10
118.742903
 20
207.907637
 30
0.0
 11
118.742903
 21
257.907637
 31
0.0
  0
SOLID
  5
E4
330
DE
100
AcDbEntity
  8
LC-005-003-----0
 62
     2
100
AcDbTrace
 10
123.40957
 20
179.907637
 30
0.0
 11
114.076237
 21
179.907637
 31
0.0
 12
118.742903
 22
207.907637
 32
0.0
 13
118.742903
 23
207.907637
 33
0.0
  0
SOLID
  5
E5
330
DE
100
AcDbEntity
  8
LC-005-003-----0
 62
     2
100
AcDbTrace
 10
114.076237
 20
285.907637
 30
0.0
 11
123.40957
 21
285.907637
 31
0.0
 12
118.742903
 22
257.907637
 32
0.0
 13
118.742903
 23
257.907637
 33
0.0
  0
MTEXT
  5
E6
330
DE
100
AcDbEntity
  8
LC-005-003-----0
 62
     2
100
AcDbMText
 10
87.942903
 20
232.907637
 30
0.0
 40
28.0
 41
0.0
 71
     5
 72
     1
  1
\A1;50
  7
LCTX15-400-0-0pDIN-Schrift
 11
6.123031769111886E-17
 21
1.0
 31
0.0
 73
     1
 44
1.0
  0
POINT
  5
E7
330
DE
100
AcDbEntity
  8
Defpoints
 62
     0
100
AcDbPoint
 10
239.056693
 20
207.907637
 30
0.0
  0
POINT
  5
E8
330
DE
100
AcDbEntity
  8
Defpoints
 62
     0
100
AcDbPoint
 10
260.543323
 20
257.907637
 30
0.0
  0
POINT
  5
E9
330
DE
100
AcDbEntity
  8
Defpoints
 62
     0
100
AcDbPoint
 10
118.742903
 20
257.907637
 30
0.0
  0
ENDBLK
  5
EB
330
DE
100
AcDbEntity
  8
0
100
AcDbBlockEnd
  0
BLOCK
  5
ED
330
EC
100
AcDbEntity
  8
0
100
AcDbBlockBegin
  2
*X47
 70
     1
 71
     0
 10
0.0
 20
0.0
 30
0.0
  3
*X47
  1

  4
*X4
  0
LINE
  5
EF
330
EC
100
AcDbEntity
  8
LC-004-005-----0
 62
     7
370
    25
100
AcDbLine
 10
263.933303
 20
256.497288
 30
0.0
 11
262.522954
 21
257.907637
 31
0.0
  0
LINE
  5
F0
330
EC
100
AcDbEntity
  8
LC-004-005-----0
  6
DASHED
 62
     7
370
    25
100
AcDbLine
 10
263.478208
 20
251.295528
 30
0.0
 11
260.24749
 21
254.526247
 31
0.0
  0
LINE
  5
F1
330
EC
100
AcDbEntity
  8
LC-004-005-----0
  6
DASHED
 62
     7
370
    25
100
AcDbLine
 10
263.250661
 20
248.694649
 30
0.0
 11
260.019943
 21
251.925367
 31
0.0
  0
LINE
  5
F2
330
EC
100
AcDbEntity
  8
LC-004-005-----0
 62
     7
370
    25
100
AcDbLine
 10
262.795566
 20
243.492889
 30
0.0
 11
259.564848
 21
246.723608
 31
0.0
  0
LINE
  5
F3
330
EC
100
AcDbEntity
  8
LC-004-005-----0
 62
     7
370
    25
100
AcDbLine
 10
262.568018
 20
240.89201
 30
0.0
 11
259.3373
 21
244.122728
 31
0.0
  0
LINE
  5
F4
330
EC
100
AcDbEntity
  8
LC-004-005-----0
  6
DASHED
 62
     7
370
    25
100
AcDbLine
 10
262.112923
 20
235.69025
 30
0.0
 11
258.882205
 21
238.920969
 31
0.0
  0
LINE
  5
F5
330
EC
100
AcDbEntity
  8
LC-004-005-----0
  6
DASHED
 62
     7
370
    25
100
AcDbLine
 10
261.885376
 20
233.089371
 30
0.0
 11
258.654658
 21
236.320089
 31
0.0
  0
LINE
  5
F6
330
EC
100
AcDbEntity
  8
LC-004-005-----0
 62
     7
370
    25
100
AcDbLine
 10
259.902827
 20
229.415066
 30
0.0
 11
256.410256
 21
232.907637
 31
0.0
  0
LINE
  5
F7
330
EC
100
AcDbEntity
  8
LC-004-005-----0
 62
     7
370
    25
100
AcDbLine
 10
257.081829
 20
229.407637
 30
0.0
 11
253.581829
 21
232.907637
 31
0.0
  0
LINE
  5
F8
330
EC
100
AcDbEntity
  8
LC-004-005-----0
  6
DASHED
 62
     7
370
    25
100
AcDbLine
 10
254.127169
 20
226.705443
 30
0.0
 11
250.89645
 21
229.936161
 31
0.0
  0
LINE
  5
F9
330
EC
100
AcDbEntity
  8
LC-004-005-----0
  6
DASHED
 62
     7
370
    25
100
AcDbLine
 10
253.899621
 20
224.104563
 30
0.0
 11
250.668903
 21
227.335281
 31
0.0
  0
LINE
  5
FA
330
EC
100
AcDbEntity
  8
LC-004-005-----0
 62
     7
370
    25
100
AcDbLine
 10
253.444526
 20
218.902804
 30
0.0
 11
250.213808
 21
222.133522
 31
0.0
  0
LINE
  5
FB
330
EC
100
AcDbEntity
  8
LC-004-005-----0
 62
     7
370
    25
100
AcDbLine
 10
253.216979
 20
216.301924
 30
0.0
 11
249.98626
 21
219.532642
 31
0.0
  0
LINE
  5
FC
330
EC
100
AcDbEntity
  8
LC-004-005-----0
  6
DASHED
 62
     7
370
    25
100
AcDbLine
 10
252.761884
 20
211.100165
 30
0.0
 11
249.531165
 21
214.330883
 31
0.0
  0
LINE
  5
FD
330
EC
100
AcDbEntity
  8
LC-004-005-----0
  6
DASHED
 62
     7
370
    25
100
AcDbLine
 10
252.534336
 20
208.499285
 30
0.0
 11
249.303618
 21
211.730003
 31
0.0
  0
LINE
  5
FE
330
EC
100
AcDbEntity
  8
LC-004-005-----0
 62
     7
370
    25
100
AcDbLine
 10
247.469131
 20
207.907637
 30
0.0
 11
246.469131
 21
208.907637
 31
0.0
  0
LINE
  5
FF
330
EC
100
AcDbEntity
  8
LC-004-005-----0
 62
     7
370
    25
100
AcDbLine
 10
244.640703
 20
207.907637
 30
0.0
 11
243.640703
 21
208.907637
 31
0.0
  0
ENDBLK
  5
EE
330
EC
100
AcDbEntity
  8
0
100
AcDbBlockEnd
  0
ENDSEC
  0
SECTION
  2
ENTITIES
  0
LINE
  5
31
102
{ACAD_REACTORS
330
106
102
}
330
1F
100
AcDbEntity
  8
LC-001-002-----0
 62
     7
370
    50
100
AcDbLine
 10
239.056693
 20
208.907637
 30
0.0
 11
248.140362
 21
208.907637
 31
0.0
  0
ARC
  5
33
102
{ACAD_REACTORS
330
106
102
}
330
1F
100
AcDbEntity
  8
LC-002-002-RND-0
 62
     7
370
    50
100
AcDbCircle
 10
259.730604
 20
231.407637
 30
0.0
 40
2.0
100
AcDbArc
 50
270.0
 51
355.0
  0
LINE
  5
34
102
{ACAD_REACTORS
330
106
102
}
330
1F
100
AcDbEntity
  8
LC-001-002-----0
 62
     7
370
    50
100
AcDbLine
 10
258.356107
 20
232.907637
 30
0.0
 11
260.543323
 21
257.907637
 31
0.0
  0
LINE
  5
35
102
{ACAD_REACTORS
330
106
102
}
330
1F
100
AcDbEntity
  8
LC-001-002-----0
 62
     7
370
    50
100
AcDbLine
 10
261.722993
 20
231.233325
 30
0.0
 11
264.056693
 21
257.907637
 31
0.0
  0
ARC
  5
36
102
{ACAD_REACTORS
330
106
102
}
330
1F
100
AcDbEntity
  8
LC-002-002-RND-0
 62
     7
370
    50
100
AcDbCircle
 10
255.279911
 20
228.407637
 30
0.0
 40
1.0
100
AcDbArc
 50
90.0
 51
175.0
  0
ARC
  5
37
102
{ACAD_REACTORS
330
106
102
}
330
1F
100
AcDbEntity
  8
LC-002-002-RND-0
 62
     7
370
    50
100
AcDbCircle
 10
252.989083
 20
230.907637
 30
0.0
 40
2.0
100
AcDbArc
 50
90.0
 51
175.0
  0
LINE
  5
38
102
{ACAD_REACTORS
330
106
102
}
330
1F
100
AcDbEntity
  8
LC-001-002-----0
 62
     7
370
    50
100
AcDbLine
 10
252.482574
 20
207.907637
 30
0.0
 11
254.283716
 21
228.494792
 31
0.0
  0
LINE
  5
39
102
{ACAD_REACTORS
330
106
102
}
330
1F
100
AcDbEntity
  8
LC-001-002-----0
 62
     7
370
    50
100
AcDbLine
 10
255.279911
 20
229.407637
 30
0.0
 11
299.056693
 21
229.407637
 31
0.0
  0
ARC
  5
3A
102
{ACAD_REACTORS
330
106
102
}
330
1F
100
AcDbEntity
  8
LC-002-002-RND-0
 62
     7
370
    50
100
AcDbCircle
 10
257.439776
 20
233.907637
 30
0.0
 40
1.0
100
AcDbArc
 50
270.0
 51
355.0
  0
ARC
  5
3B
102
{ACAD_REACTORS
330
106
102
}
330
1F
100
AcDbEntity
  8
LC-002-002-RND-0
 62
     7
370
    50
100
AcDbCircle
 10
248.140362
 20
209.907637
 30
0.0
 40
1.0
100
AcDbArc
 50
270.0
 51
355.0
  0
LINE
  5
3C
330
1F
100
AcDbEntity
  8
LC-001-002-----0
 62
     7
370
    25
100
AcDbLine
 10
254.711428
 20
166.033637
 30
0.0
 11
254.711428
 21
181.033637
 31
0.0
  0
LINE
  5
3D
330
1F
100
AcDbEntity
  8
LC-001-002-----0
 62
     7
370
    25
100
AcDbLine
 10
254.711428
 20
181.033637
 30
0.0
 11
269.711428
 21
181.033637
 31
0.0
  0
LINE
  5
3E
330
1F
100
AcDbEntity
  8
LC-001-002-----0
 62
     7
370
    25
100
AcDbLine
 10
269.711428
 20
181.033637
 30
0.0
 11
269.711428
 21
166.033637
 31
0.0
  0
LINE
  5
3F
330
1F
100
AcDbEntity
  8
LC-001-002-----0
 62
     7
370
    25
100
AcDbLine
 10
269.711428
 20
166.033637
 30
0.0
 11
254.711428
 21
166.033637
 31
0.0
  0
LINE
  5
40
102
{ACAD_REACTORS
330
106
102
}
330
1F
100
AcDbEntity
  8
LC-001-002-----0
 62
     7
370
    50
100
AcDbLine
 10
239.056693
 20
208.907637
 30
0.0
 11
239.056693
 21
207.907637
 31
0.0
  0
LINE
  5
41
102
{ACAD_REACTORS
330
107
102
}
330
1F
100
AcDbEntity
  8
LC-001-002-----0
 62
     7
370
    50
100
AcDbLine
 10
464.056693
 20
206.907637
 30
0.0
 11
299.056693
 21
206.907637
 31
0.0
  0
LINE
  5
42
102
{ACAD_REACTORS
330
107
102
}
330
1F
100
AcDbEntity
  8
LC-001-002-----0
 62
     7
370
    50
100
AcDbLine
 10
134.056693
 20
206.907637
 30
0.0
 11
134.056693
 21
207.907637
 31
0.0
  0
LINE
  5
43
102
{ACAD_REACTORS
330
107
102
}
330
1F
100
AcDbEntity
  8
LC-001-002-----0
 62
     7
370
    50
100
AcDbLine
 10
239.056693
 20
207.907637
 30
0.0
 11
134.056693
 21
207.907637
 31
0.0
  0
LINE
  5
44
102
{ACAD_REACTORS
330
107
102
}
330
1F
100
AcDbEntity
  8
LC-001-002-----0
 62
     7
370
    50
100
AcDbLine
 10
252.482574
 20
206.907637
 30
0.0
 11
252.482574
 21
207.907637
 31
0.0
  0
LINE
  5
45
102
{ACAD_REACTORS
330
106
102
}
330
1F
100
AcDbEntity
  8
LC-001-002-----0
 62
     7
370
    50
100
AcDbLine
 10
252.989083
 20
232.907637
 30
0.0
 11
257.439776
 21
232.907637
 31
0.0
  0
LINE
  5
48
102
{ACAD_REACTORS
330
106
102
}
330
1F
100
AcDbEntity
  8
LC-003-006-MLN-0
 62
     7
370
    25
100
AcDbLine
 10
299.056693
 20
197.907637
 30
0.0
 11
299.056693
 21
267.907637
 31
0.0
  0
LINE
  5
49
102
{ACAD_REACTORS
330
106
102
}
330
1F
100
AcDbEntity
  8
LC-001-002-----0
 62
     7
370
    50
100
AcDbLine
 10
239.056693
 20
207.907637
 30
0.0
 11
299.056693
 21
207.907637
 31
0.0
  0
LINE
  5
4A
102
{ACAD_REACTORS
330
106
102
}
330
1F
100
AcDbEntity
  8
LC-001-002-----0
 62
     7
370
    50
100
AcDbLine
 10
260.543323
 20
257.907637
 30
0.0
 11
337.570062
 21
257.907637
 31
0.0
  0
LINE
  5
4B
102
{ACAD_REACTORS
330
106
102
}
330
1F
100
AcDbEntity
  8
LC-001-002-----0
 62
     7
370
    50
100
AcDbLine
 10
359.056693
 20
207.907637
 30
0.0
 11
299.056693
 21
207.907637
 31
0.0
  0
LINE
  5
4C
102
{ACAD_REACTORS
330
107
102
}
330
1F
100
AcDbEntity
  8
LC-001-002-----0
 62
     7
370
    50
100
AcDbLine
 10
464.056693
 20
206.907637
 30
0.0
 11
134.056693
 21
206.907637
 31
0.0
  0
LINE
  5
4D
102
{ACAD_REACTORS
330
107
102
}
330
1F
100
AcDbEntity
  8
LC-001-002-----0
 62
     7
370
    50
100
AcDbLine
 10
464.056693
 20
206.907637
 30
0.0
 11
464.056693
 21
207.907637
 31
0.0
  0
LINE
  5
4E
102
{ACAD_REACTORS
330
107
102
}
330
1F
100
AcDbEntity
  8
LC-001-002-----0
 62
     7
370
    50
100
AcDbLine
 10
359.056693
 20
207.907637
 30
0.0
 11
464.056693
 21
207.907637
 31
0.0
  0
LINE
  5
4F
102
{ACAD_REACTORS
330
107
102
}
330
1F
100
AcDbEntity
  8
LC-001-002-----0
 62
     7
370
    50
100
AcDbLine
 10
345.630812
 20
206.907637
 30
0.0
 11
345.630812
 21
207.907637
 31
0.0
  0
INSERT
  5
8C
102
{ACAD_REACTORS
330
107
102
}
330
1F
100
AcDbEntity
  8
LC-004-005-----0
 62
     7
370
    25
100
AcDbBlockReference
  2
*X11
 10
0.0
 20
0.0
 30
0.0
  0
DIMENSION
  5
90
330
1F
100
AcDbEntity
  8
LC-005-003-----0
 62
     7
370
    25
100
AcDbDimension
  2
*D2
 10
464.056693
 20
152.965637
 30
0.0
 11
299.056693
 21
183.765637
 31
0.0
 70
   160
 71
     5
 42
330.0
  3
LC-DIM-L-0140-02-02
100
AcDbAlignedDimension
 13
134.056693
 23
206.907637
 33
0.0
 14
464.056693
 24
206.907637
 34
0.0
100
AcDbRotatedDimension
  0
LINE
  5
9E
102
{ACAD_REACTORS
330
106
102
}
330
1F
100
AcDbEntity
  8
LC-001-002-----0
 62
     7
370
    50
100
AcDbLine
 10
249.136556
 20
209.820481
 30
0.0
 11
250.996694
 21
231.081948
 31
0.0
  0
LINE
  5
9F
102
{ACAD_REACTORS
330
106
102
}
330
1F
100
AcDbEntity
  8
LC-001-002-----0
 62
     7
370
    50
100
AcDbLine
 10
359.056693
 20
208.407637
 30
0.0
 11
359.056693
 21
207.907637
 31
0.0
  0
LINE
  5
A0
102
{ACAD_REACTORS
330
106
102
}
330
1F
100
AcDbEntity
  8
LC-001-002-----0
 62
     7
370
    50
100
AcDbLine
 10
339.677415
 20
233.820481
 30
0.0
 11
337.570062
 21
257.907637
 31
0.0
  0
LINE
  5
A1
102
{ACAD_REACTORS
330
106
102
}
330
1F
100
AcDbEntity
  8
LC-001-002-----0
 62
     7
370
    50
100
AcDbLine
 10
336.390393
 20
231.233325
 30
0.0
 11
334.056693
 21
257.907637
 31
0.0
  0
ARC
  5
A2
102
{ACAD_REACTORS
330
106
102
}
330
1F
100
AcDbEntity
  8
LC-002-002-RND-0
 62
     7
370
    50
100
AcDbCircle
 10
338.382782
 20
231.407637
 30
0.0
 40
2.00000000000002
100
AcDbArc
 50
185.0
 51
270.0
  0
ARC
  5
A3
102
{ACAD_REACTORS
330
106
102
}
330
1F
100
AcDbEntity
  8
LC-002-002-RND-0
 62
     7
370
    50
100
AcDbCircle
 10
340.67361
 20
233.907637
 30
0.0
 40
1.00000000000001
100
AcDbArc
 50
185.0
 51
270.0
  0
LINE
  5
A4
102
{ACAD_REACTORS
330
106
102
}
330
1F
100
AcDbEntity
  8
LC-001-002-----0
 62
     7
370
    50
100
AcDbLine
 10
345.124303
 20
232.907637
 30
0.0
 11
340.67361
 21
232.907637
 31
0.0
  0
LINE
  5
A5
102
{ACAD_REACTORS
330
106
102
}
330
1F
100
AcDbEntity
  8
LC-001-002-----0
 62
     7
370
    50
100
AcDbLine
 10
342.833475
 20
229.407637
 30
0.0
 11
299.056693
 21
229.407637
 31
0.0
  0
ARC
  5
A6
102
{ACAD_REACTORS
330
106
102
}
330
1F
100
AcDbEntity
  8
LC-002-002-RND-0
 62
     7
370
    50
100
AcDbCircle
 10
342.833475
 20
228.407637
 30
0.0
 40
1.00000000000001
100
AcDbArc
 50
5.0
 51
90.0
  0
LINE
  5
A7
102
{ACAD_REACTORS
330
106
102
}
330
1F
100
AcDbEntity
  8
LC-001-002-----0
 62
     7
370
    50
100
AcDbLine
 10
345.630812
 20
207.907637
 30
0.0
 11
343.829669
 21
228.494792
 31
0.0
  0
INSERT
  5
BC
102
{ACAD_REACTORS
330
106
102
}
330
1F
100
AcDbEntity
  8
LC-004-005-----0
 62
     7
370
    25
100
AcDbBlockReference
  2
*X23
 10
0.0
 20
0.0
 30
0.0
  0
INSERT
  5
CF
102
{ACAD_REACTORS
330
106
102
}
330
1F
100
AcDbEntity
  8
LC-004-005-----0
 62
     7
370
    25
100
AcDbBlockReference
  2
*X34
 10
0.0
 20
0.0
 30
0.0
  0
DIMENSION
  5
D0
330
1F
100
AcDbEntity
  8
LC-005-003-----0
 62
     7
370
    25
100
AcDbDimension
  2
*D5
 10
334.056693
 20
280.081637
 30
0.0
 11
299.056693
 21
310.881637
 31
0.0
 70
   160
  1
DN70
 71
     5
 42
70.0
  3
LC-DIM-L-0140-02-02
100
AcDbAlignedDimension
 13
264.056693
 23
257.907637
 33
0.0
 14
334.056693
 24
257.907637
 34
0.0
100
AcDbRotatedDimension
  0
DIMENSION
  5
DD
330
1F
100
AcDbEntity
  8
LC-005-003-----0
 62
     7
370
    25
100
AcDbDimension
  2
*D6
 10
118.742903
 20
257.907637
 30
0.0
 11
87.942903
 21
232.907637
 31
0.0
 70
   160
 71
     5
 42
50.0
 53
90.0
  3
LC-DIM-L-0140-02-02
100
AcDbAlignedDimension
 13
239.056693
 23
207.907637
 33
0.0
 14
260.543323
 24
257.907637
 34
0.0
 50
90.0
100
AcDbRotatedDimension
  0
INSERT
  5
100
330
1F
100
AcDbEntity
  8
LC-004-005-----0
 62
     7
370
    25
100
AcDbBlockReference
  2
*X47
 10
0.0
 20
0.0
 30
0.0
  0
ARC
  5
101
330
1F
100
AcDbEntity
  8
LC-002-002-RND-0
 62
     7
370
    50
100
AcDbCircle
 10
345.124303
 20
230.907637
 30
0.0
 40
2.00000000000002
100
AcDbArc
 50
5.0
 51
90.0
  0
LINE
  5
102
330
1F
100
AcDbEntity
  8
LC-001-002-----0
 62
     7
370
    50
100
AcDbLine
 10
348.976829
 20
209.820481
 30
0.0
 11
347.116692
 21
231.081948
 31
0.0
  0
ARC
  5
103
330
1F
100
AcDbEntity
  8
LC-002-002-RND-0
 62
     7
370
    50
100
AcDbCircle
 10
349.973024
 20
209.907637
 30
0.0
 40
1.00000000000001
100
AcDbArc
 50
185.0
 51
270.0
  0
LINE
  5
104
330
1F
100
AcDbEntity
  8
LC-001-002-----0
 62
     7
370
    50
100
AcDbLine
 10
359.056693
 20
208.907637
 30
0.0
 11
349.973024
 21
208.907637
 31
0.0
  0
LINE
  5
105
330
1F
100
AcDbEntity
  8
LC-001-002-----0
 62
     7
370
    50
100
AcDbLine
 10
359.056693
 20
208.907637
 30
0.0
 11
359.056693
 21
207.907637
 31
0.0
  0
ENDSEC
  0
SECTION
  2
OBJECTS
  0
DICTIONARY
  5
C
330
0
100
AcDbDictionary
281
     1
  3
ACAD_GROUP
350
D
  3
ACAD_LAYOUT
350
1A
  3
ACAD_MLINESTYLE
350
17
  3
ACAD_PLOTSETTINGS
350
19
  3
ACAD_PLOTSTYLENAME
350
E
  0
DICTIONARY
  5
D
102
{ACAD_REACTORS
330
C
102
}
330
C
100
AcDbDictionary
281
     1
  3
LCGROUP31
350
106
  3
LCGROUP32
350
107
  0
DICTIONARY
  5
1A
102
{ACAD_REACTORS
330
C
102
}
330
C
100
AcDbDictionary
281
     1
  3
Layout1
350
1E
  3
Layout2
350
26
  3
Model
350
22
  0
DICTIONARY
  5
17
102
{ACAD_REACTORS
330
C
102
}
330
C
100
AcDbDictionary
281
     1
  3
Standard
350
18
  0
DICTIONARY
  5
19
102
{ACAD_REACTORS
330
C
102
}
330
C
100
AcDbDictionary
281
     1
  0
ACDBDICTIONARYWDFLT
  5
E
102
{ACAD_REACTORS
330
C
102
}
330
C
100
AcDbDictionary
281
     1
  3
Normal
350
F
100
AcDbDictionaryWithDefault
340
F
  0
GROUP
  5
106
102
{ACAD_REACTORS
330
D
102
}
330
D
100
AcDbGroup
300
GRP31
 70
     1
 71
     1
340
31
340
33
340
34
340
35
340
36
340
37
340
38
340
39
340
3A
340
3B
340
40
340
45
340
48
340
49
340
4A
340
4B
340
9E
340
9F
340
A0
340
A1
340
A2
340
A3
340
A4
340
A5
340
A6
340
A7
340
BC
340
CF
  0
GROUP
  5
107
102
{ACAD_REACTORS
330
D
102
}
330
D
100
AcDbGroup
300
GRP32
 70
     1
 71
     1
340
41
340
42
340
43
340
44
340
4C
340
4D
340
4E
340
4F
340
8C
  0
LAYOUT
  5
1E
102
{ACAD_REACTORS
330
1A
102
}
330
1A
100
AcDbPlotSettings
  1

  2

  4

  6

 40
0.0
 41
0.0
 42
0.0
 43
0.0
 44
0.0
 45
0.0
 46
0.0
 47
0.0
 48
0.0
 49
0.0
140
0.0
141
0.0
142
1.0
143
1.0
 70
   688
 72
     0
 73
     0
 74
     5
  7

 75
    16
147
1.0
148
0.0
149
0.0
100
AcDbLayout
  1
Layout1
 70
     1
 71
     1
 10
-123.373464
 20
-79.288363
 11
716.626536
 21
514.711637
 12
0.0
 22
0.0
 32
0.0
 14
-123.373464
 24
-79.288363
 34
0.0
 15
716.626536
 25
514.711637
 35
0.0
146
0.0
 13
0.0
 23
0.0
 33
0.0
 16
1.0
 26
0.0
 36
0.0
 17
0.0
 27
1.0
 37
0.0
 76
     0
330
1B
  0
LAYOUT
  5
26
102
{ACAD_REACTORS
330
1A
102
}
330
1A
100
AcDbPlotSettings
  1

  2

  4

  6

 40
0.0
 41
0.0
 42
0.0
 43
0.0
 44
0.0
 45
0.0
 46
0.0
 47
0.0
 48
0.0
 49
0.0
140
0.0
141
0.0
142
1.0
143
1.0
 70
   688
 72
     0
 73
     0
 74
     5
  7

 75
    16
147
1.0
148
0.0
149
0.0
100
AcDbLayout
  1
Layout2
 70
     1
 71
     2
 10
0.0
 20
0.0
 11
0.0
 21
0.0
 12
0.0
 22
0.0
 32
0.0
 14
0.0
 24
0.0
 34
0.0
 15
0.0
 25
0.0
 35
0.0
146
0.0
 13
0.0
 23
0.0
 33
0.0
 16
1.0
 26
0.0
 36
0.0
 17
0.0
 27
1.0
 37
0.0
 76
     0
330
23
  0
LAYOUT
  5
22
102
{ACAD_REACTORS
330
1A
102
}
330
1A
100
AcDbPlotSettings
  1

  2

  4

  6

 40
0.0
 41
0.0
 42
0.0
 43
0.0
 44
0.0
 45
0.0
 46
0.0
 47
0.0
 48
0.0
 49
0.0
140
0.0
141
0.0
142
1.0
143
1.0
 70
  1776
 72
     0
 73
     0
 74
     0
  7

 75
     0
147
1.0
148
0.0
149
0.0
100
AcDbLayout
  1
Model
 70
     1
 71
     0
 10
-123.373464
 20
-79.288363
 11
716.626536
 21
514.711637
 12
86.626536
 22
69.211637
 32
0.0
 14
-123.373464
 24
-79.288363
 34
0.0
 15
716.626536
 25
514.711637
 35
0.0
146
0.0
 13
0.0
 23
0.0
 33
0.0
 16
1.0
 26
0.0
 36
0.0
 17
0.0
 27
1.0
 37
0.0
 76
     0
330
1F
  0
MLINESTYLE
  5
18
102
{ACAD_REACTORS
330
17
102
}
330
17
100
AcDbMlineStyle
  2
Standard
 70
     0
  3

 62
   256
 51
90.0
 52
90.0
 71
     2
 49
0.5
 62
   256
  6
BYLAYER
 49
-0.5
 62
   256
  6
BYLAYER
  0
ACDBPLACEHOLDER
  5
F
102
{ACAD_REACTORS
330
E
102
}
330
E
  0
ENDSEC
  0
EOF
