  0
SECTION
  2
HEADER
  9
$ACADVER
  1
AC1009
  9
$INSBASE
 10
0.0
 20
0.0
 30
0.0
  9
$EXTMIN
 10
0.0
 20
0.0
 30
0.0
  9
$EXTMAX
 10
840.0
 20
594.0
 30
0.0
  9
$LIMMIN
 10
0.0
 20
0.0
  9
$LIMMAX
 10
840.0
 20
594.0
  9
$ORTHOMODE
 70
     0
  9
$REGENMODE
 70
     1
  9
$FILLMODE
 70
     1
  9
$QTEXTMODE
 70
     0
  9
$MIRRTEXT
 70
     1
  9
$DRAGMODE
 70
     2
  9
$LTSCALE
 40
2.0
  9
$OSMODE
 70
     0
  9
$ATTMODE
 70
     1
  9
$TEXTSIZE
 40
0.2
  9
$TRACEWID
 40
0.05
  9
$TEXTSTYLE
  7
STANDARD
  9
$CLAYER
  8
0
  9
$CELTYPE
  6
BYLAYER
  9
$CECOLOR
 62
     7
  9
$DIMSCALE
 40
2.0
  9
$DIMASZ
 40
3.5
  9
$DIMEXO
 40
0.0625
  9
$DIMDLI
 40
0.38
  9
$DIMRND
 40
0.0
  9
$DIMDLE
 40
0.0
  9
$DIMEXE
 40
0.18
  9
$DIMTP
 40
0.0
  9
$DIMTM
 40
0.0
  9
$DIMTXT
 40
3.5
  9
$DIMCEN
 40
0.09
  9
$DIMTSZ
 40
0.0
  9
$DIMTOL
 70
     0
  9
$DIMLIM
 70
     0
  9
$DIMTIH
 70
     1
  9
$DIMTOH
 70
     1
  9
$DIMSE1
 70
     0
  9
$DIMSE2
 70
     0
  9
$DIMTAD
 70
     1
  9
$DIMZIN
 70
     0
  9
$DIMBLK
  1

  9
$DIMASO
 70
     1
  9
$DIMSHO
 70
     1
  9
$DIMPOST
  1

  9
$DIMAPOST
  1

  9
$DIMALT
 70
     0
  9
$DIMALTD
 70
     2
  9
$DIMALTF
 40
25.4
  9
$DIMLFAC
 40
1.0
  9
$DIMTOFL
 70
     0
  9
$DIMTVP
 40
0.0
  9
$DIMTIX
 70
     0
  9
$DIMSOXD
 70
     0
  9
$DIMSAH
 70
     0
  9
$DIMBLK1
  1

  9
$DIMBLK2
  1

  9
$DIMSTYLE
  2
STANDARD
  9
$DIMCLRD
 70
     0
  9
$DIMCLRE
 70
     0
  9
$DIMCLRT
 70
     0
  9
$DIMTFAC
 40
1.0
  9
$DIMGAP
 40
0.09
  9
$LUNITS
 70
     2
  9
$LUPREC
 70
     2
  9
$AXISMODE
 70
     0
  9
$AXISUNIT
 10
0.0
 20
0.0
  9
$SKETCHINC
 40
0.1
  9
$FILLETRAD
 40
0.0
  9
$AUNITS
 70
     0
  9
$AUPREC
 70
     0
  9
$MENU
  1
acad
  9
$ELEVATION
 40
0.0
  9
$PELEVATION
 40
0.0
  9
$THICKNESS
 40
0.0
  9
$LIMCHECK
 70
     0
  9
$BLIPMODE
 70
     1
  9
$CHAMFERA
 40
0.0
  9
$CHAMFERB
 40
0.0
  9
$SKPOLY
 70
     0
  9
$TDCREATE
 40
0.000000000
  9
$TDUPDATE
 40
0.000000000
  9
$TDINDWG
 40
0.0000000000
  9
$TDUSRTIMER
 40
0.0000000000
  9
$USRTIMER
 70
     1
  9
$ANGBASE
 50
0.0
  9
$ANGDIR
 70
     0
  9
$PDMODE
 70
     0
  9
$PDSIZE
 40
0.0
  9
$PLINEWID
 40
0.0
  9
$COORDS
 70
     0
  9
$SPLFRAME
 70
     0
  9
$SPLINETYPE
 70
     6
  9
$SPLINESEGS
 70
     8
  9
$ATTDIA
 70
     0
  9
$ATTREQ
 70
     1
  9
$HANDLING
 70
     1
  9
$HANDSEED
  5
1B5
  9
$SURFTAB1
 70
     6
  9
$SURFTAB2
 70
     6
  9
$SURFTYPE
 70
     6
  9
$SURFU
 70
     6
  9
$SURFV
 70
     6
  9
$UCSNAME
  2

  9
$UCSORG
 10
0.0
 20
0.0
 30
0.0
  9
$UCSXDIR
 10
1.0
 20
0.0
 30
0.0
  9
$UCSYDIR
 10
0.0
 20
1.0
 30
0.0
  9
$PUCSNAME
  2

  9
$PUCSORG
 10
0.0
 20
0.0
 30
0.0
  9
$PUCSXDIR
 10
1.0
 20
0.0
 30
0.0
  9
$PUCSYDIR
 10
0.0
 20
1.0
 30
0.0
  9
$USERI1
 70
     0
  9
$USERI2
 70
     0
  9
$USERI3
 70
     0
  9
$USERI4
 70
     0
  9
$USERI5
 70
     0
  9
$USERR1
 40
0.0
  9
$USERR2
 40
0.0
  9
$USERR3
 40
0.0
  9
$USERR4
 40
0.0
  9
$USERR5
 40
0.0
  9
$WORLDVIEW
 70
     1
  9
$SHADEDGE
 70
     3
  9
$SHADEDIF
 70
    70
  9
$TILEMODE
 70
     1
  9
$MAXACTVP
 70
    16
  9
$PINSBASE
 10
0.0
 20
0.0
 30
0.0
  9
$PLIMCHECK
 70
     0
  9
$PEXTMIN
 10
1.000000E+20
 20
1.000000E+20
 30
1.000000E+20
  9
$PEXTMAX
 10
-1.000000E+20
 20
-1.000000E+20
 30
-1.000000E+20
  9
$PLIMMIN
 10
0.0
 20
0.0
  9
$PLIMMAX
 10
840.0
 20
594.0
  9
$UNITMODE
 70
     0
  9
$VISRETAIN
 70
     0
  9
$PLINEGEN
 70
     1
  9
$PSLTSCALE
 70
     0
  9
$TREEDEPTH
 70
  3020
  9
$DWGCODEPAGE
  3
dos850
  0
ENDSEC
  0
SECTION
  2
TABLES
  0
TABLE
  2
VPORT
 70
     1
  0
VPORT
  2
*ACTIVE
 70
     0
 10
0.0
 20
0.0
 11
1.0
 21
1.0
 12
420.0
 22
297.0
 13
0.0
 23
0.0
 14
1.0
 24
1.0
 15
0.0
 25
0.0
 16
0.0
 26
0.0
 36
1.0
 17
0.0
 27
0.0
 37
0.0
 40
594.0
 41
1.604229
 42
50.0
 43
0.0
 44
0.0
 50
0.0
 51
0.0
 71
     0
 72
   100
 73
     1
 74
     1
 75
     0
 76
     0
 77
     0
 78
     0
  0
ENDTAB
  0
TABLE
  2
LTYPE
 70
     2
  0
LTYPE
  2
CONTINUOUS
 70
    64
  3
Solid line
 72
    65
 73
     0
 40
0.0
  0
LTYPE
  2
DASHDOT
 70
    64
  3
__ . __ . __ . __ . __
 72
    65
 73
     4
 40
7.5
 49
5.0
 49
-1.25
 49
0.0
 49
-1.25
  0
ENDTAB
  0
TABLE
  2
LAYER
 70
    11
  0
LAYER
  2
0
 70
     0
 62
     7
  6
CONTINUOUS
  0
LAYER
  2
LC-INFO-1-2-MM-A3-0
 70
     1
 62
    -1
  6
CONTINUOUS
  0
LAYER
  2
LC-002-003-MTH-0
 70
     0
 62
     2
  6
CONTINUOUS
  0
LAYER
  2
LC-001-003-----0
 70
     0
 62
     2
  6
CONTINUOUS
  0
LAYER
  2
LC-003-003-MTG-0
 70
     0
 62
     2
  6
CONTINUOUS
  0
LAYER
  2
LC-005-005-----0
 70
     0
 62
     2
  6
CONTINUOUS
  0
LAYER
  2
LC-007-000-----0
 70
     0
 62
     7
  6
CONTINUOUS
  0
LAYER
  2
LC-008-000-----0
 70
     0
 62
     7
  6
CONTINUOUS
  0
LAYER
  2
LC-004-002-----0
 70
     0
 62
     1
  6
CONTINUOUS
  0
LAYER
  2
LC-006-002-RND-0
 70
     0
 62
     1
  6
CONTINUOUS
  0
LAYER
  2
LC-000
 70
     0
 62
     7
  6
CONTINUOUS
  0
ENDTAB
  0
TABLE
  2
STYLE
 70
     4
  0
STYLE
  2
STANDARD
 70
     0
 40
0.0
 41
1.0
 50
0.0
 71
     0
 42
0.0
  3
txt
  4

  0
STYLE
  2
LC-STANDARD
 70
    64
 40
0.0
 41
1.0
 50
0.0
 71
     0
 42
3.5
  3
MONOTXT
  4

  0
STYLE
  2
LC-TXTSTYLE-150-400-0-0-D2
 70
    64
 40
0.0
 41
1.0
 50
15.0
 71
     0
 42
3.5
  3
MONOTXT
  4

  0
STYLE
  2
LC-TXTSTYLE-150-400-0-0-D3
 70
    64
 40
0.0
 41
1.0
 50
15.0
 71
     0
 42
3.5
  3
LC-STANDARD
  4

  0
ENDTAB
  0
TABLE
  2
VIEW
 70
     0
  0
ENDTAB
  0
TABLE
  2
UCS
 70
     0
  0
ENDTAB
  0
TABLE
  2
APPID
 70
     1
  0
APPID
  2
ACAD
 70
     0
  0
ENDTAB
  0
TABLE
  2
DIMSTYLE
 70
     3
  0
DIMSTYLE
  2
STANDARD
 70
     0
  3

  4

  5

  6

  7

 40
1.0
 41
0.18
 42
0.0625
 43
0.38
 44
0.18
 45
0.0
 46
0.0
 47
0.0
 48
0.0
 71
     0
 72
     0
 73
     1
 74
     1
 75
     0
 76
     0
 77
     0
 78
     0
140
0.18
141
0.09
142
0.0
143
25.4
144
1.0
145
0.0
146
1.0
147
0.09
170
     0
171
     2
172
     0
173
     0
174
     0
175
     0
176
     0
177
     0
178
     0
  0
DIMSTYLE
  2
LC-STANDARD
 70
     0
  3

  4

  5

  6

  7

 40
1.0
 41
3.5
 42
0.0
 43
7.5
 44
1.8
 45
0.0
 46
0.0
 47
0.0
 48
0.0
 71
     0
 72
     0
 73
     0
 74
     0
 75
     0
 76
     0
 77
     1
 78
     8
140
3.5
141
0.0
142
0.0
143
25.4
144
1.0
145
0.0
146
0.71
147
1.5
170
     0
171
     2
172
     1
173
     0
174
     0
175
     0
176
     0
177
     0
178
     3
  0
DIMSTYLE
  2
LC-DIM-L-0090-02-02
 70
     0
  3

  4

  5

  6

  7

 40
2.0
 41
3.5
 42
0.0
 43
7.5
 44
1.8
 45
0.0
 46
0.0
 47
0.0
 48
0.0
 71
     0
 72
     0
 73
     0
 74
     0
 75
     0
 76
     0
 77
     1
 78
     8
140
9.0
141
0.0
142
0.0
143
25.4
144
1.0
145
0.0
146
0.71
147
1.5
170
     0
171
     2
172
     0
173
     0
174
     0
175
     0
176
     2
177
     2
178
     6
  0
ENDTAB
  0
ENDSEC
  0
SECTION
  2
BLOCKS
  0
BLOCK
  8
0
  5
23
  2
*D0
 70
    65
 10
0.0
 20
0.0
 30
0.0
  3
*D0
  0
LINE
  8
LC-002-003-MTH-0
  6
CONTINUOUS
  5
25
 10
556.155713
 20
292.974301
 30
0.0
 11
587.8
 21
292.974301
 31
0.0
  0
LINE
  8
LC-002-003-MTH-0
  6
CONTINUOUS
  5
26
 10
556.155713
 20
324.974301
 30
0.0
 11
587.8
 21
324.974301
 31
0.0
  0
LINE
  8
LC-001-003-----0
  6
CONTINUOUS
  5
28
 10
579.349471
 20
275.128293
 30
0.0
 11
577.0
 21
292.974301
 31
0.0
  0
LINE
  8
LC-001-003-----0
  6
CONTINUOUS
  5
29
 10
577.0
 20
292.974301
 30
0.0
 11
574.650529
 21
275.128293
 31
0.0
  0
LINE
  8
LC-001-003-----0
  6
CONTINUOUS
  5
2A
 10
574.650529
 20
275.128293
 30
0.0
 11
579.349471
 21
275.128293
 31
0.0
  0
LINE
  8
LC-001-003-----0
  6
CONTINUOUS
  5
2B
 10
578.738609
 20
275.088255
 30
0.0
 11
577.0
 21
288.294301
 31
0.0
  0
LINE
  8
LC-001-003-----0
  6
CONTINUOUS
  5
2C
 10
577.0
 20
288.294301
 30
0.0
 11
575.261391
 21
275.088255
 31
0.0
  0
LINE
  8
LC-001-003-----0
  6
CONTINUOUS
  5
2D
 10
578.127746
 20
275.048217
 30
0.0
 11
577.0
 21
283.614301
 31
0.0
  0
LINE
  8
LC-001-003-----0
  6
CONTINUOUS
  5
2E
 10
577.0
 20
283.614301
 30
0.0
 11
575.872254
 21
275.048217
 31
0.0
  0
LINE
  8
LC-001-003-----0
  6
CONTINUOUS
  5
2F
 10
577.516884
 20
275.008179
 30
0.0
 11
577.0
 21
278.934301
 31
0.0
  0
LINE
  8
LC-001-003-----0
  6
CONTINUOUS
  5
30
 10
577.0
 20
278.934301
 30
0.0
 11
576.483116
 21
275.008179
 31
0.0
  0
LINE
  8
LC-001-003-----0
  6
CONTINUOUS
  5
31
 10
574.650529
 20
342.820308
 30
0.0
 11
577.0
 21
324.974301
 31
0.0
  0
LINE
  8
LC-001-003-----0
  6
CONTINUOUS
  5
32
 10
577.0
 20
324.974301
 30
0.0
 11
579.349471
 21
342.820308
 31
0.0
  0
LINE
  8
LC-001-003-----0
  6
CONTINUOUS
  5
33
 10
579.349471
 20
342.820308
 30
0.0
 11
574.650529
 21
342.820308
 31
0.0
  0
LINE
  8
LC-001-003-----0
  6
CONTINUOUS
  5
34
 10
575.261391
 20
342.860346
 30
0.0
 11
577.0
 21
329.654301
 31
0.0
  0
LINE
  8
LC-001-003-----0
  6
CONTINUOUS
  5
35
 10
577.0
 20
329.654301
 30
0.0
 11
578.738609
 21
342.860346
 31
0.0
  0
LINE
  8
LC-001-003-----0
  6
CONTINUOUS
  5
36
 10
575.872254
 20
342.900384
 30
0.0
 11
577.0
 21
334.334301
 31
0.0
  0
LINE
  8
LC-001-003-----0
  6
CONTINUOUS
  5
37
 10
577.0
 20
334.334301
 30
0.0
 11
578.127746
 21
342.900384
 31
0.0
  0
LINE
  8
LC-001-003-----0
  6
CONTINUOUS
  5
38
 10
576.483116
 20
342.940422
 30
0.0
 11
577.0
 21
339.014301
 31
0.0
  0
LINE
  8
LC-001-003-----0
  6
CONTINUOUS
  5
39
 10
577.0
 20
339.014301
 30
0.0
 11
577.516884
 21
342.940422
 31
0.0
  0
LINE
  8
LC-003-003-MTG-0
  6
CONTINUOUS
  5
3B
 10
577.0
 20
267.774301
 30
0.0
 11
577.0
 21
415.37682
 31
0.0
  0
TEXT
  8
LC-001-003-----0
  6
CONTINUOUS
 62
     6
  5
3D
 10
566.568001
 20
352.249546
 30
0.0
 40
18.0
  1
DN32
 50
90.0
 41
0.9
 51
15.0
  7
LC-TXTSTYLE-150-400-0-0-D0
  0
ENDBLK
  8
0
  5
3E
  0
BLOCK
  8
0
  5
40
  2
*X1
 70
    65
 10
485.55464
 20
192.611504
 30
0.0
  3
*X1
  0
LINE
  8
LC-005-005-----0
  6
CONTINUOUS
  5
42
 10
493.482296
 20
261.551272
 30
0.0
 11
493.813454
 21
261.882429
 31
0.0
  0
LINE
  8
LC-005-005-----0
  6
CONTINUOUS
  5
43
 10
491.552508
 20
262.449911
 30
0.0
 11
492.634339
 21
263.531741
 31
0.0
  0
LINE
  8
LC-005-005-----0
  6
CONTINUOUS
  5
44
 10
490.132919
 20
263.858749
 30
0.0
 11
491.212876
 21
264.938706
 31
0.0
  0
LINE
  8
LC-005-005-----0
  6
CONTINUOUS
  5
45
 10
489.222438
 20
265.776695
 30
0.0
 11
490.443264
 21
266.997521
 31
0.0
  0
LINE
  8
LC-005-005-----0
  6
CONTINUOUS
  5
46
 10
488.627892
 20
268.010576
 30
0.0
 11
489.865526
 21
269.24821
 31
0.0
  0
LINE
  8
LC-005-005-----0
  6
CONTINUOUS
  5
47
 10
488.077935
 20
270.289047
 30
0.0
 11
489.333806
 21
271.544917
 31
0.0
  0
LINE
  8
LC-005-005-----0
  6
CONTINUOUS
  5
48
 10
487.574527
 20
272.614066
 30
0.0
 11
488.850214
 21
273.889752
 31
0.0
  0
LINE
  8
LC-005-005-----0
  6
CONTINUOUS
  5
49
 10
487.119859
 20
274.987825
 30
0.0
 11
488.417118
 21
276.285084
 31
0.0
  0
LINE
  8
LC-005-005-----0
  6
CONTINUOUS
  5
4A
 10
486.716393
 20
277.412786
 30
0.0
 11
488.037189
 21
278.733581
 31
0.0
  0
LINE
  8
LC-005-005-----0
  6
CONTINUOUS
  5
4B
 10
486.366903
 20
279.891723
 30
0.0
 11
487.713445
 21
281.238265
 31
0.0
  0
LINE
  8
LC-005-005-----0
  6
CONTINUOUS
  5
4C
 10
486.074532
 20
282.427779
 30
0.0
 11
487.449325
 21
283.802572
 31
0.0
  0
LINE
  8
LC-005-005-----0
  6
CONTINUOUS
  5
4D
 10
485.842865
 20
285.024539
 30
0.0
 11
487.248768
 21
286.430442
 31
0.0
  0
LINE
  8
LC-005-005-----0
  6
CONTINUOUS
  5
4E
 10
485.676011
 20
287.686112
 30
0.0
 11
487.116313
 21
289.126414
 31
0.0
  0
LINE
  8
LC-005-005-----0
  6
CONTINUOUS
  5
4F
 10
489.463938
 20
291.474039
 30
0.0
 11
489.553955
 21
291.564056
 31
0.0
  0
LINE
  8
LC-005-005-----0
  6
CONTINUOUS
  5
50
 10
485.578716
 20
290.417245
 30
0.0
 11
488.13551
 21
292.974039
 31
0.0
  0
ENDBLK
  8
0
  5
51
  0
BLOCK
  8
0
  5
53
  2
BLK1
 70
    64
 10
0.0
 20
0.0
 30
0.0
  3
BLK1
  0
ENDBLK
  8
0
  5
54
  0
BLOCK
  8
0
  5
56
  2
*X3
 70
    65
 10
485.55464
 20
225.336573
 30
0.0
  3
*X3
  0
LINE
  8
LC-005-005-----0
  6
CONTINUOUS
  5
57
 10
489.022812
 20
324.974039
 30
0.0
 11
489.553955
 21
325.505182
 31
0.0
  0
LINE
  8
LC-005-005-----0
  6
CONTINUOUS
  5
58
 10
486.194385
 20
324.974039
 30
0.0
 11
487.694385
 21
326.474039
 31
0.0
  0
LINE
  8
LC-005-005-----0
  6
CONTINUOUS
  5
59
 10
485.571627
 20
327.179708
 30
0.0
 11
487.112796
 21
328.720877
 31
0.0
  0
LINE
  8
LC-005-005-----0
  6
CONTINUOUS
  5
5A
 10
485.668389
 20
330.104897
 30
0.0
 11
487.26019
 21
331.696698
 31
0.0
  0
LINE
  8
LC-005-005-----0
  6
CONTINUOUS
  5
5B
 10
485.858258
 20
333.123193
 30
0.0
 11
487.507653
 21
334.772588
 31
0.0
  0
LINE
  8
LC-005-005-----0
  6
CONTINUOUS
  5
5C
 10
486.151358
 20
336.244721
 30
0.0
 11
487.866912
 21
337.960274
 31
0.0
  0
LINE
  8
LC-005-005-----0
  6
CONTINUOUS
  5
5D
 10
486.560152
 20
339.481942
 30
0.0
 11
488.352603
 21
341.274392
 31
0.0
  0
LINE
  8
LC-005-005-----0
  6
CONTINUOUS
  5
5E
 10
487.10027
 20
342.850487
 30
0.0
 11
488.983397
 21
344.733614
 31
0.0
  0
LINE
  8
LC-005-005-----0
  6
CONTINUOUS
  5
5F
 10
487.791777
 20
346.370421
 30
0.0
 11
489.783762
 21
348.362405
 31
0.0
  0
LINE
  8
LC-005-005-----0
  6
CONTINUOUS
  5
60
 10
488.661169
 20
350.06824
 30
0.0
 11
490.814501
 21
352.221572
 31
0.0
  0
LINE
  8
LC-005-005-----0
  6
CONTINUOUS
  5
61
 10
493.383084
 20
354.790155
 30
0.0
 11
493.813454
 21
355.220524
 31
0.0
  0
ENDBLK
  8
0
  5
62
  0
BLOCK
  8
0
  5
64
  2
BLK2
 70
    64
 10
0.0
 20
0.0
 30
0.0
  3
BLK2
  0
ENDBLK
  8
0
  5
65
  0
BLOCK
  8
0
  5
67
  2
*D5
 70
    65
 10
0.0
 20
0.0
 30
0.0
  3
*D5
  0
LINE
  8
LC-002-003-MTH-0
  6
CONTINUOUS
  5
68
 10
256.155713
 20
338.974261
 30
0.0
 11
256.155713
 21
227.2
 31
0.0
  0
LINE
  8
LC-002-003-MTH-0
  6
CONTINUOUS
  5
69
 10
556.155713
 20
292.974301
 30
0.0
 11
556.155713
 21
227.2
 31
0.0
  0
LINE
  8
LC-003-003-MTG-0
  6
CONTINUOUS
  5
6A
 10
256.155713
 20
238.0
 30
0.0
 11
556.155713
 21
238.0
 31
0.0
  0
LINE
  8
LC-001-003-----0
  6
CONTINUOUS
  5
6B
 10
274.001721
 20
240.349471
 30
0.0
 11
256.155713
 21
238.0
 31
0.0
  0
LINE
  8
LC-001-003-----0
  6
CONTINUOUS
  5
6C
 10
256.155713
 20
238.0
 30
0.0
 11
274.001721
 21
235.650529
 31
0.0
  0
LINE
  8
LC-001-003-----0
  6
CONTINUOUS
  5
6D
 10
274.001721
 20
235.650529
 30
0.0
 11
274.001721
 21
240.349471
 31
0.0
  0
LINE
  8
LC-001-003-----0
  6
CONTINUOUS
  5
6E
 10
274.041759
 20
239.738609
 30
0.0
 11
260.835713
 21
238.0
 31
0.0
  0
LINE
  8
LC-001-003-----0
  6
CONTINUOUS
  5
6F
 10
260.835713
 20
238.0
 30
0.0
 11
274.041759
 21
236.261391
 31
0.0
  0
LINE
  8
LC-001-003-----0
  6
CONTINUOUS
  5
70
 10
274.081797
 20
239.127746
 30
0.0
 11
265.515713
 21
238.0
 31
0.0
  0
LINE
  8
LC-001-003-----0
  6
CONTINUOUS
  5
71
 10
265.515713
 20
238.0
 30
0.0
 11
274.081797
 21
236.872254
 31
0.0
  0
LINE
  8
LC-001-003-----0
  6
CONTINUOUS
  5
72
 10
274.121835
 20
238.516884
 30
0.0
 11
270.195713
 21
238.0
 31
0.0
  0
LINE
  8
LC-001-003-----0
  6
CONTINUOUS
  5
73
 10
270.195713
 20
238.0
 30
0.0
 11
274.121835
 21
237.483116
 31
0.0
  0
LINE
  8
LC-001-003-----0
  6
CONTINUOUS
  5
74
 10
538.309706
 20
235.650529
 30
0.0
 11
556.155713
 21
238.0
 31
0.0
  0
LINE
  8
LC-001-003-----0
  6
CONTINUOUS
  5
75
 10
556.155713
 20
238.0
 30
0.0
 11
538.309706
 21
240.349471
 31
0.0
  0
LINE
  8
LC-001-003-----0
  6
CONTINUOUS
  5
76
 10
538.309706
 20
240.349471
 30
0.0
 11
538.309706
 21
235.650529
 31
0.0
  0
LINE
  8
LC-001-003-----0
  6
CONTINUOUS
  5
77
 10
538.269668
 20
236.261391
 30
0.0
 11
551.475713
 21
238.0
 31
0.0
  0
LINE
  8
LC-001-003-----0
  6
CONTINUOUS
  5
78
 10
551.475713
 20
238.0
 30
0.0
 11
538.269668
 21
239.738609
 31
0.0
  0
LINE
  8
LC-001-003-----0
  6
CONTINUOUS
  5
79
 10
538.22963
 20
236.872254
 30
0.0
 11
546.795713
 21
238.0
 31
0.0
  0
LINE
  8
LC-001-003-----0
  6
CONTINUOUS
  5
7A
 10
546.795713
 20
238.0
 30
0.0
 11
538.22963
 21
239.127746
 31
0.0
  0
LINE
  8
LC-001-003-----0
  6
CONTINUOUS
  5
7B
 10
538.189592
 20
237.483116
 30
0.0
 11
542.115713
 21
238.0
 31
0.0
  0
LINE
  8
LC-001-003-----0
  6
CONTINUOUS
  5
7C
 10
542.115713
 20
238.0
 30
0.0
 11
538.189592
 21
238.516884
 31
0.0
  0
TEXT
  8
LC-001-003-----0
  6
CONTINUOUS
 62
     6
  5
7D
 10
389.817101
 20
248.431999
 30
0.0
 40
18.0
  1
300
 51
15.0
  7
LC-TXTSTYLE-150-400-0-0-D0
 72
     1
 11
408.950959
 21
248.431999
 31
0.0
  0
ENDBLK
  8
0
  5
7E
  0
BLOCK
  8
0
  5
80
  2
*D6
 70
    65
 10
0.0
 20
0.0
 30
0.0
  3
*D6
  0
LINE
  8
LC-002-003-MTH-0
  6
CONTINUOUS
  5
81
 10
286.155682
 20
308.974261
 30
0.0
 11
185.2
 21
308.974261
 31
0.0
  0
LINE
  8
LC-002-003-MTH-0
  6
CONTINUOUS
  5
82
 10
234.655755
 20
473.974292
 30
0.0
 11
185.2
 21
473.974292
 31
0.0
  0
LINE
  8
LC-003-003-MTG-0
  6
CONTINUOUS
  5
83
 10
196.0
 20
308.974261
 30
0.0
 11
196.0
 21
473.974292
 31
0.0
  0
LINE
  8
LC-001-003-----0
  6
CONTINUOUS
  5
84
 10
193.650529
 20
326.820268
 30
0.0
 11
196.0
 21
308.974261
 31
0.0
  0
LINE
  8
LC-001-003-----0
  6
CONTINUOUS
  5
85
 10
196.0
 20
308.974261
 30
0.0
 11
198.349471
 21
326.820268
 31
0.0
  0
LINE
  8
LC-001-003-----0
  6
CONTINUOUS
  5
86
 10
198.349471
 20
326.820268
 30
0.0
 11
193.650529
 21
326.820268
 31
0.0
  0
LINE
  8
LC-001-003-----0
  6
CONTINUOUS
  5
87
 10
194.261391
 20
326.860306
 30
0.0
 11
196.0
 21
313.654261
 31
0.0
  0
LINE
  8
LC-001-003-----0
  6
CONTINUOUS
  5
88
 10
196.0
 20
313.654261
 30
0.0
 11
197.738609
 21
326.860306
 31
0.0
  0
LINE
  8
LC-001-003-----0
  6
CONTINUOUS
  5
89
 10
194.872254
 20
326.900344
 30
0.0
 11
196.0
 21
318.334261
 31
0.0
  0
LINE
  8
LC-001-003-----0
  6
CONTINUOUS
  5
8A
 10
196.0
 20
318.334261
 30
0.0
 11
197.127746
 21
326.900344
 31
0.0
  0
LINE
  8
LC-001-003-----0
  6
CONTINUOUS
  5
8B
 10
195.483116
 20
326.940382
 30
0.0
 11
196.0
 21
323.014261
 31
0.0
  0
LINE
  8
LC-001-003-----0
  6
CONTINUOUS
  5
8C
 10
196.0
 20
323.014261
 30
0.0
 11
196.516884
 21
326.940382
 31
0.0
  0
LINE
  8
LC-001-003-----0
  6
CONTINUOUS
  5
8D
 10
198.349471
 20
456.128285
 30
0.0
 11
196.0
 21
473.974292
 31
0.0
  0
LINE
  8
LC-001-003-----0
  6
CONTINUOUS
  5
8E
 10
196.0
 20
473.974292
 30
0.0
 11
193.650529
 21
456.128285
 31
0.0
  0
LINE
  8
LC-001-003-----0
  6
CONTINUOUS
  5
8F
 10
193.650529
 20
456.128285
 30
0.0
 11
198.349471
 21
456.128285
 31
0.0
  0
LINE
  8
LC-001-003-----0
  6
CONTINUOUS
  5
90
 10
197.738609
 20
456.088247
 30
0.0
 11
196.0
 21
469.294292
 31
0.0
  0
LINE
  8
LC-001-003-----0
  6
CONTINUOUS
  5
91
 10
196.0
 20
469.294292
 30
0.0
 11
194.261391
 21
456.088247
 31
0.0
  0
LINE
  8
LC-001-003-----0
  6
CONTINUOUS
  5
92
 10
197.127746
 20
456.048209
 30
0.0
 11
196.0
 21
464.614292
 31
0.0
  0
LINE
  8
LC-001-003-----0
  6
CONTINUOUS
  5
93
 10
196.0
 20
464.614292
 30
0.0
 11
194.872254
 21
456.048209
 31
0.0
  0
LINE
  8
LC-001-003-----0
  6
CONTINUOUS
  5
94
 10
196.516884
 20
456.008171
 30
0.0
 11
196.0
 21
459.934292
 31
0.0
  0
LINE
  8
LC-001-003-----0
  6
CONTINUOUS
  5
95
 10
196.0
 20
459.934292
 30
0.0
 11
195.483116
 21
456.008171
 31
0.0
  0
TEXT
  8
LC-001-003-----0
  6
CONTINUOUS
 62
     6
  5
96
 10
185.568001
 20
352.493932
 30
0.0
 40
18.0
  1
70-165
 50
90.0
 51
15.0
  7
LC-TXTSTYLE-150-400-0-0-D0
 72
     1
 11
185.568001
 21
394.269522
 31
0.0
  0
ENDBLK
  8
0
  5
97
  0
BLOCK
  8
0
  5
99
  2
*X7
 70
    65
 10
234.655713
 20
356.974301
 30
0.0
  3
*X7
  0
LINE
  8
LC-005-005-----0
  6
CONTINUOUS
  5
9A
 10
276.364548
 20
356.974301
 30
0.0
 11
277.655713
 21
358.265465
 31
0.0
  0
LINE
  8
LC-005-005-----0
  6
CONTINUOUS
  5
9B
 10
274.950333
 20
356.974301
 30
0.0
 11
277.655713
 21
359.679677
 31
0.0
  0
LINE
  8
LC-005-005-----0
  6
CONTINUOUS
  5
9C
 10
273.536119
 20
356.974301
 30
0.0
 11
277.536124
 21
360.974301
 31
0.0
  0
LINE
  8
LC-005-005-----0
  6
CONTINUOUS
  5
9D
 10
272.121904
 20
356.974301
 30
0.0
 11
276.12191
 21
360.974301
 31
0.0
  0
LINE
  8
LC-005-005-----0
  6
CONTINUOUS
  5
9E
 10
270.70769
 20
356.974301
 30
0.0
 11
274.707695
 21
360.974301
 31
0.0
  0
LINE
  8
LC-005-005-----0
  6
CONTINUOUS
  5
9F
 10
269.293475
 20
356.974301
 30
0.0
 11
273.293481
 21
360.974301
 31
0.0
  0
LINE
  8
LC-005-005-----0
  6
CONTINUOUS
  5
A0
 10
267.879261
 20
356.974301
 30
0.0
 11
271.879266
 21
360.974301
 31
0.0
  0
LINE
  8
LC-005-005-----0
  6
CONTINUOUS
  5
A1
 10
266.465046
 20
356.974301
 30
0.0
 11
270.465052
 21
360.974301
 31
0.0
  0
LINE
  8
LC-005-005-----0
  6
CONTINUOUS
  5
A2
 10
265.050832
 20
356.974301
 30
0.0
 11
269.050837
 21
360.974301
 31
0.0
  0
LINE
  8
LC-005-005-----0
  6
CONTINUOUS
  5
A3
 10
263.636617
 20
356.974301
 30
0.0
 11
267.636623
 21
360.974301
 31
0.0
  0
LINE
  8
LC-005-005-----0
  6
CONTINUOUS
  5
A4
 10
262.222403
 20
356.974301
 30
0.0
 11
266.222408
 21
360.974301
 31
0.0
  0
LINE
  8
LC-005-005-----0
  6
CONTINUOUS
  5
A5
 10
260.808188
 20
356.974301
 30
0.0
 11
264.808194
 21
360.974301
 31
0.0
  0
LINE
  8
LC-005-005-----0
  6
CONTINUOUS
  5
A6
 10
259.393974
 20
356.974301
 30
0.0
 11
263.393979
 21
360.974301
 31
0.0
  0
LINE
  8
LC-005-005-----0
  6
CONTINUOUS
  5
A7
 10
257.979759
 20
356.974301
 30
0.0
 11
261.979765
 21
360.974301
 31
0.0
  0
LINE
  8
LC-005-005-----0
  6
CONTINUOUS
  5
A8
 10
256.565545
 20
356.974301
 30
0.0
 11
260.56555
 21
360.974301
 31
0.0
  0
LINE
  8
LC-005-005-----0
  6
CONTINUOUS
  5
A9
 10
255.15133
 20
356.974301
 30
0.0
 11
259.151336
 21
360.974301
 31
0.0
  0
LINE
  8
LC-005-005-----0
  6
CONTINUOUS
  5
AA
 10
253.737116
 20
356.974301
 30
0.0
 11
257.737121
 21
360.974301
 31
0.0
  0
LINE
  8
LC-005-005-----0
  6
CONTINUOUS
  5
AB
 10
252.322901
 20
356.974301
 30
0.0
 11
256.322907
 21
360.974301
 31
0.0
  0
LINE
  8
LC-005-005-----0
  6
CONTINUOUS
  5
AC
 10
250.908687
 20
356.974301
 30
0.0
 11
254.908692
 21
360.974301
 31
0.0
  0
LINE
  8
LC-005-005-----0
  6
CONTINUOUS
  5
AD
 10
249.494472
 20
356.974301
 30
0.0
 11
253.494478
 21
360.974301
 31
0.0
  0
LINE
  8
LC-005-005-----0
  6
CONTINUOUS
  5
AE
 10
248.080258
 20
356.974301
 30
0.0
 11
252.080263
 21
360.974301
 31
0.0
  0
LINE
  8
LC-005-005-----0
  6
CONTINUOUS
  5
AF
 10
246.666043
 20
356.974301
 30
0.0
 11
250.666049
 21
360.974301
 31
0.0
  0
LINE
  8
LC-005-005-----0
  6
CONTINUOUS
  5
B0
 10
245.251829
 20
356.974301
 30
0.0
 11
249.251834
 21
360.974301
 31
0.0
  0
LINE
  8
LC-005-005-----0
  6
CONTINUOUS
  5
B1
 10
243.837614
 20
356.974301
 30
0.0
 11
247.83762
 21
360.974301
 31
0.0
  0
LINE
  8
LC-005-005-----0
  6
CONTINUOUS
  5
B2
 10
242.4234
 20
356.974301
 30
0.0
 11
246.423405
 21
360.974301
 31
0.0
  0
LINE
  8
LC-005-005-----0
  6
CONTINUOUS
  5
B3
 10
241.009185
 20
356.974301
 30
0.0
 11
245.009191
 21
360.974301
 31
0.0
  0
LINE
  8
LC-005-005-----0
  6
CONTINUOUS
  5
B4
 10
239.594971
 20
356.974301
 30
0.0
 11
243.594976
 21
360.974301
 31
0.0
  0
LINE
  8
LC-005-005-----0
  6
CONTINUOUS
  5
B5
 10
238.180756
 20
356.974301
 30
0.0
 11
242.180762
 21
360.974301
 31
0.0
  0
LINE
  8
LC-005-005-----0
  6
CONTINUOUS
  5
B6
 10
236.766542
 20
356.974301
 30
0.0
 11
240.766547
 21
360.974301
 31
0.0
  0
LINE
  8
LC-005-005-----0
  6
CONTINUOUS
  5
B7
 10
235.352327
 20
356.974301
 30
0.0
 11
239.352333
 21
360.974301
 31
0.0
  0
LINE
  8
LC-005-005-----0
  6
CONTINUOUS
  5
B8
 10
234.655713
 20
357.6919
 30
0.0
 11
237.938118
 21
360.974301
 31
0.0
  0
LINE
  8
LC-005-005-----0
  6
CONTINUOUS
  5
B9
 10
234.655713
 20
359.106113
 30
0.0
 11
236.523904
 21
360.974301
 31
0.0
  0
LINE
  8
LC-005-005-----0
  6
CONTINUOUS
  5
BA
 10
234.655713
 20
360.520326
 30
0.0
 11
235.109689
 21
360.974301
 31
0.0
  0
ENDBLK
  8
0
  5
BB
  0
BLOCK
  8
0
  5
BD
  2
*X8
 70
    65
 10
234.655755
 20
467.974292
 30
0.0
  3
*X8
  0
LINE
  8
LC-005-005-----0
  6
CONTINUOUS
  5
BE
 10
277.055956
 20
467.974292
 30
0.0
 11
277.655755
 21
468.574091
 31
0.0
  0
LINE
  8
LC-005-005-----0
  6
CONTINUOUS
  5
BF
 10
275.641741
 20
467.974292
 30
0.0
 11
277.655755
 21
469.988304
 31
0.0
  0
LINE
  8
LC-005-005-----0
  6
CONTINUOUS
  5
C0
 10
274.227527
 20
467.974292
 30
0.0
 11
277.655755
 21
471.402516
 31
0.0
  0
LINE
  8
LC-005-005-----0
  6
CONTINUOUS
  5
C1
 10
272.813312
 20
467.974292
 30
0.0
 11
276.813317
 21
471.974292
 31
0.0
  0
LINE
  8
LC-005-005-----0
  6
CONTINUOUS
  5
C2
 10
271.399098
 20
467.974292
 30
0.0
 11
275.399103
 21
471.974292
 31
0.0
  0
LINE
  8
LC-005-005-----0
  6
CONTINUOUS
  5
C3
 10
269.984883
 20
467.974292
 30
0.0
 11
273.984888
 21
471.974292
 31
0.0
  0
LINE
  8
LC-005-005-----0
  6
CONTINUOUS
  5
C4
 10
268.570669
 20
467.974292
 30
0.0
 11
272.570674
 21
471.974292
 31
0.0
  0
LINE
  8
LC-005-005-----0
  6
CONTINUOUS
  5
C5
 10
267.156454
 20
467.974292
 30
0.0
 11
271.156459
 21
471.974292
 31
0.0
  0
LINE
  8
LC-005-005-----0
  6
CONTINUOUS
  5
C6
 10
265.74224
 20
467.974292
 30
0.0
 11
269.742245
 21
471.974292
 31
0.0
  0
LINE
  8
LC-005-005-----0
  6
CONTINUOUS
  5
C7
 10
264.328025
 20
467.974292
 30
0.0
 11
268.32803
 21
471.974292
 31
0.0
  0
LINE
  8
LC-005-005-----0
  6
CONTINUOUS
  5
C8
 10
262.913811
 20
467.974292
 30
0.0
 11
266.913816
 21
471.974292
 31
0.0
  0
LINE
  8
LC-005-005-----0
  6
CONTINUOUS
  5
C9
 10
261.499596
 20
467.974292
 30
0.0
 11
265.499601
 21
471.974292
 31
0.0
  0
LINE
  8
LC-005-005-----0
  6
CONTINUOUS
  5
CA
 10
260.085382
 20
467.974292
 30
0.0
 11
264.085387
 21
471.974292
 31
0.0
  0
LINE
  8
LC-005-005-----0
  6
CONTINUOUS
  5
CB
 10
258.671167
 20
467.974292
 30
0.0
 11
262.671172
 21
471.974292
 31
0.0
  0
LINE
  8
LC-005-005-----0
  6
CONTINUOUS
  5
CC
 10
257.256953
 20
467.974292
 30
0.0
 11
261.256958
 21
471.974292
 31
0.0
  0
LINE
  8
LC-005-005-----0
  6
CONTINUOUS
  5
CD
 10
255.842738
 20
467.974292
 30
0.0
 11
259.842743
 21
471.974292
 31
0.0
  0
LINE
  8
LC-005-005-----0
  6
CONTINUOUS
  5
CE
 10
254.428524
 20
467.974292
 30
0.0
 11
258.428529
 21
471.974292
 31
0.0
  0
LINE
  8
LC-005-005-----0
  6
CONTINUOUS
  5
CF
 10
253.014309
 20
467.974292
 30
0.0
 11
257.014314
 21
471.974292
 31
0.0
  0
LINE
  8
LC-005-005-----0
  6
CONTINUOUS
  5
D0
 10
251.600095
 20
467.974292
 30
0.0
 11
255.6001
 21
471.974292
 31
0.0
  0
LINE
  8
LC-005-005-----0
  6
CONTINUOUS
  5
D1
 10
250.18588
 20
467.974292
 30
0.0
 11
254.185885
 21
471.974292
 31
0.0
  0
LINE
  8
LC-005-005-----0
  6
CONTINUOUS
  5
D2
 10
248.771666
 20
467.974292
 30
0.0
 11
252.771671
 21
471.974292
 31
0.0
  0
LINE
  8
LC-005-005-----0
  6
CONTINUOUS
  5
D3
 10
247.357451
 20
467.974292
 30
0.0
 11
251.357456
 21
471.974292
 31
0.0
  0
LINE
  8
LC-005-005-----0
  6
CONTINUOUS
  5
D4
 10
245.943237
 20
467.974292
 30
0.0
 11
249.943242
 21
471.974292
 31
0.0
  0
LINE
  8
LC-005-005-----0
  6
CONTINUOUS
  5
D5
 10
244.529022
 20
467.974292
 30
0.0
 11
248.529027
 21
471.974292
 31
0.0
  0
LINE
  8
LC-005-005-----0
  6
CONTINUOUS
  5
D6
 10
243.114808
 20
467.974292
 30
0.0
 11
247.114813
 21
471.974292
 31
0.0
  0
LINE
  8
LC-005-005-----0
  6
CONTINUOUS
  5
D7
 10
241.700593
 20
467.974292
 30
0.0
 11
245.700598
 21
471.974292
 31
0.0
  0
LINE
  8
LC-005-005-----0
  6
CONTINUOUS
  5
D8
 10
240.286379
 20
467.974292
 30
0.0
 11
244.286384
 21
471.974292
 31
0.0
  0
LINE
  8
LC-005-005-----0
  6
CONTINUOUS
  5
D9
 10
238.872164
 20
467.974292
 30
0.0
 11
242.872169
 21
471.974292
 31
0.0
  0
LINE
  8
LC-005-005-----0
  6
CONTINUOUS
  5
DA
 10
237.45795
 20
467.974292
 30
0.0
 11
241.457955
 21
471.974292
 31
0.0
  0
LINE
  8
LC-005-005-----0
  6
CONTINUOUS
  5
DB
 10
236.043735
 20
467.974292
 30
0.0
 11
240.04374
 21
471.974292
 31
0.0
  0
LINE
  8
LC-005-005-----0
  6
CONTINUOUS
  5
DC
 10
234.655755
 20
468.000527
 30
0.0
 11
238.629526
 21
471.974292
 31
0.0
  0
LINE
  8
LC-005-005-----0
  6
CONTINUOUS
  5
DD
 10
234.655755
 20
469.41474
 30
0.0
 11
237.215311
 21
471.974292
 31
0.0
  0
LINE
  8
LC-005-005-----0
  6
CONTINUOUS
  5
DE
 10
234.655755
 20
470.828952
 30
0.0
 11
235.801097
 21
471.974292
 31
0.0
  0
ENDBLK
  8
0
  5
DF
  0
BLOCK
  8
0
  5
E1
  2
*X9
 70
    65
 10
234.655755
 20
467.974292
 30
0.0
  3
*X9
  0
LINE
  8
LC-005-005-----0
  6
CONTINUOUS
  5
E2
 10
234.655755
 20
468.208385
 30
0.0
 11
234.889848
 21
467.974292
 31
0.0
  0
LINE
  8
LC-005-005-----0
  6
CONTINUOUS
  5
E3
 10
234.655755
 20
469.622599
 30
0.0
 11
236.304062
 21
467.974292
 31
0.0
  0
LINE
  8
LC-005-005-----0
  6
CONTINUOUS
  5
E4
 10
234.655755
 20
471.036812
 30
0.0
 11
237.718275
 21
467.974292
 31
0.0
  0
LINE
  8
LC-005-005-----0
  6
CONTINUOUS
  5
E5
 10
235.132489
 20
471.974292
 30
0.0
 11
239.132489
 21
467.974292
 31
0.0
  0
LINE
  8
LC-005-005-----0
  6
CONTINUOUS
  5
E6
 10
236.546702
 20
471.974292
 30
0.0
 11
240.546702
 21
467.974292
 31
0.0
  0
LINE
  8
LC-005-005-----0
  6
CONTINUOUS
  5
E7
 10
237.960916
 20
471.974292
 30
0.0
 11
241.960916
 21
467.974292
 31
0.0
  0
LINE
  8
LC-005-005-----0
  6
CONTINUOUS
  5
E8
 10
239.37513
 20
471.974292
 30
0.0
 11
243.37513
 21
467.974292
 31
0.0
  0
LINE
  8
LC-005-005-----0
  6
CONTINUOUS
  5
E9
 10
240.789343
 20
471.974292
 30
0.0
 11
244.789343
 21
467.974292
 31
0.0
  0
LINE
  8
LC-005-005-----0
  6
CONTINUOUS
  5
EA
 10
242.203557
 20
471.974292
 30
0.0
 11
246.203557
 21
467.974292
 31
0.0
  0
LINE
  8
LC-005-005-----0
  6
CONTINUOUS
  5
EB
 10
243.61777
 20
471.974292
 30
0.0
 11
247.61777
 21
467.974292
 31
0.0
  0
LINE
  8
LC-005-005-----0
  6
CONTINUOUS
  5
EC
 10
245.031984
 20
471.974292
 30
0.0
 11
249.031984
 21
467.974292
 31
0.0
  0
LINE
  8
LC-005-005-----0
  6
CONTINUOUS
  5
ED
 10
246.446197
 20
471.974292
 30
0.0
 11
250.446197
 21
467.974292
 31
0.0
  0
LINE
  8
LC-005-005-----0
  6
CONTINUOUS
  5
EE
 10
247.860411
 20
471.974292
 30
0.0
 11
251.860411
 21
467.974292
 31
0.0
  0
LINE
  8
LC-005-005-----0
  6
CONTINUOUS
  5
EF
 10
249.274625
 20
471.974292
 30
0.0
 11
253.274625
 21
467.974292
 31
0.0
  0
LINE
  8
LC-005-005-----0
  6
CONTINUOUS
  5
F0
 10
250.688838
 20
471.974292
 30
0.0
 11
254.688838
 21
467.974292
 31
0.0
  0
LINE
  8
LC-005-005-----0
  6
CONTINUOUS
  5
F1
 10
252.103052
 20
471.974292
 30
0.0
 11
256.103052
 21
467.974292
 31
0.0
  0
LINE
  8
LC-005-005-----0
  6
CONTINUOUS
  5
F2
 10
253.517265
 20
471.974292
 30
0.0
 11
257.517265
 21
467.974292
 31
0.0
  0
LINE
  8
LC-005-005-----0
  6
CONTINUOUS
  5
F3
 10
254.931479
 20
471.974292
 30
0.0
 11
258.931479
 21
467.974292
 31
0.0
  0
LINE
  8
LC-005-005-----0
  6
CONTINUOUS
  5
F4
 10
256.345692
 20
471.974292
 30
0.0
 11
260.345692
 21
467.974292
 31
0.0
  0
LINE
  8
LC-005-005-----0
  6
CONTINUOUS
  5
F5
 10
257.759906
 20
471.974292
 30
0.0
 11
261.759906
 21
467.974292
 31
0.0
  0
LINE
  8
LC-005-005-----0
  6
CONTINUOUS
  5
F6
 10
259.174119
 20
471.974292
 30
0.0
 11
263.174119
 21
467.974292
 31
0.0
  0
LINE
  8
LC-005-005-----0
  6
CONTINUOUS
  5
F7
 10
260.588333
 20
471.974292
 30
0.0
 11
264.588333
 21
467.974292
 31
0.0
  0
LINE
  8
LC-005-005-----0
  6
CONTINUOUS
  5
F8
 10
262.002547
 20
471.974292
 30
0.0
 11
266.002547
 21
467.974292
 31
0.0
  0
LINE
  8
LC-005-005-----0
  6
CONTINUOUS
  5
F9
 10
263.41676
 20
471.974292
 30
0.0
 11
267.41676
 21
467.974292
 31
0.0
  0
LINE
  8
LC-005-005-----0
  6
CONTINUOUS
  5
FA
 10
264.830974
 20
471.974292
 30
0.0
 11
268.830974
 21
467.974292
 31
0.0
  0
LINE
  8
LC-005-005-----0
  6
CONTINUOUS
  5
FB
 10
266.245187
 20
471.974292
 30
0.0
 11
270.245187
 21
467.974292
 31
0.0
  0
LINE
  8
LC-005-005-----0
  6
CONTINUOUS
  5
FC
 10
267.659401
 20
471.974292
 30
0.0
 11
271.659401
 21
467.974292
 31
0.0
  0
LINE
  8
LC-005-005-----0
  6
CONTINUOUS
  5
FD
 10
269.073614
 20
471.974292
 30
0.0
 11
273.073614
 21
467.974292
 31
0.0
  0
LINE
  8
LC-005-005-----0
  6
CONTINUOUS
  5
FE
 10
270.487828
 20
471.974292
 30
0.0
 11
274.487828
 21
467.974292
 31
0.0
  0
LINE
  8
LC-005-005-----0
  6
CONTINUOUS
  5
FF
 10
271.902042
 20
471.974292
 30
0.0
 11
275.902042
 21
467.974292
 31
0.0
  0
LINE
  8
LC-005-005-----0
  6
CONTINUOUS
  5
100
 10
273.316255
 20
471.974292
 30
0.0
 11
277.316255
 21
467.974292
 31
0.0
  0
LINE
  8
LC-005-005-----0
  6
CONTINUOUS
  5
101
 10
274.730469
 20
471.974292
 30
0.0
 11
277.655755
 21
469.049006
 31
0.0
  0
LINE
  8
LC-005-005-----0
  6
CONTINUOUS
  5
102
 10
276.144682
 20
471.974292
 30
0.0
 11
277.655755
 21
470.463219
 31
0.0
  0
LINE
  8
LC-005-005-----0
  6
CONTINUOUS
  5
103
 10
277.558896
 20
471.974292
 30
0.0
 11
277.655755
 21
471.877433
 31
0.0
  0
ENDBLK
  8
0
  5
104
  0
BLOCK
  8
0
  5
106
  2
*X10
 70
    65
 10
234.655713
 20
356.974301
 30
0.0
  3
*X10
  0
LINE
  8
LC-005-005-----0
  6
CONTINUOUS
  5
107
 10
234.655713
 20
357.899687
 30
0.0
 11
235.581101
 21
356.974301
 31
0.0
  0
LINE
  8
LC-005-005-----0
  6
CONTINUOUS
  5
108
 10
234.655713
 20
359.3139
 30
0.0
 11
236.995316
 21
356.974301
 31
0.0
  0
LINE
  8
LC-005-005-----0
  6
CONTINUOUS
  5
109
 10
234.655713
 20
360.728113
 30
0.0
 11
238.40953
 21
356.974301
 31
0.0
  0
LINE
  8
LC-005-005-----0
  6
CONTINUOUS
  5
10A
 10
235.82374
 20
360.974301
 30
0.0
 11
239.823745
 21
356.974301
 31
0.0
  0
LINE
  8
LC-005-005-----0
  6
CONTINUOUS
  5
10B
 10
237.237954
 20
360.974301
 30
0.0
 11
241.237959
 21
356.974301
 31
0.0
  0
LINE
  8
LC-005-005-----0
  6
CONTINUOUS
  5
10C
 10
238.652169
 20
360.974301
 30
0.0
 11
242.652174
 21
356.974301
 31
0.0
  0
LINE
  8
LC-005-005-----0
  6
CONTINUOUS
  5
10D
 10
240.066383
 20
360.974301
 30
0.0
 11
244.066388
 21
356.974301
 31
0.0
  0
LINE
  8
LC-005-005-----0
  6
CONTINUOUS
  5
10E
 10
241.480598
 20
360.974301
 30
0.0
 11
245.480603
 21
356.974301
 31
0.0
  0
LINE
  8
LC-005-005-----0
  6
CONTINUOUS
  5
10F
 10
242.894812
 20
360.974301
 30
0.0
 11
246.894817
 21
356.974301
 31
0.0
  0
LINE
  8
LC-005-005-----0
  6
CONTINUOUS
  5
110
 10
244.309027
 20
360.974301
 30
0.0
 11
248.309032
 21
356.974301
 31
0.0
  0
LINE
  8
LC-005-005-----0
  6
CONTINUOUS
  5
111
 10
245.723241
 20
360.974301
 30
0.0
 11
249.723246
 21
356.974301
 31
0.0
  0
LINE
  8
LC-005-005-----0
  6
CONTINUOUS
  5
112
 10
247.137456
 20
360.974301
 30
0.0
 11
251.137461
 21
356.974301
 31
0.0
  0
LINE
  8
LC-005-005-----0
  6
CONTINUOUS
  5
113
 10
248.55167
 20
360.974301
 30
0.0
 11
252.551675
 21
356.974301
 31
0.0
  0
LINE
  8
LC-005-005-----0
  6
CONTINUOUS
  5
114
 10
249.965885
 20
360.974301
 30
0.0
 11
253.96589
 21
356.974301
 31
0.0
  0
LINE
  8
LC-005-005-----0
  6
CONTINUOUS
  5
115
 10
251.380099
 20
360.974301
 30
0.0
 11
255.380104
 21
356.974301
 31
0.0
  0
LINE
  8
LC-005-005-----0
  6
CONTINUOUS
  5
116
 10
252.794314
 20
360.974301
 30
0.0
 11
256.794319
 21
356.974301
 31
0.0
  0
LINE
  8
LC-005-005-----0
  6
CONTINUOUS
  5
117
 10
254.208528
 20
360.974301
 30
0.0
 11
258.208533
 21
356.974301
 31
0.0
  0
LINE
  8
LC-005-005-----0
  6
CONTINUOUS
  5
118
 10
255.622743
 20
360.974301
 30
0.0
 11
259.622748
 21
356.974301
 31
0.0
  0
LINE
  8
LC-005-005-----0
  6
CONTINUOUS
  5
119
 10
257.036957
 20
360.974301
 30
0.0
 11
261.036962
 21
356.974301
 31
0.0
  0
LINE
  8
LC-005-005-----0
  6
CONTINUOUS
  5
11A
 10
258.451172
 20
360.974301
 30
0.0
 11
262.451177
 21
356.974301
 31
0.0
  0
LINE
  8
LC-005-005-----0
  6
CONTINUOUS
  5
11B
 10
259.865386
 20
360.974301
 30
0.0
 11
263.865391
 21
356.974301
 31
0.0
  0
LINE
  8
LC-005-005-----0
  6
CONTINUOUS
  5
11C
 10
261.279601
 20
360.974301
 30
0.0
 11
265.279606
 21
356.974301
 31
0.0
  0
LINE
  8
LC-005-005-----0
  6
CONTINUOUS
  5
11D
 10
262.693815
 20
360.974301
 30
0.0
 11
266.69382
 21
356.974301
 31
0.0
  0
LINE
  8
LC-005-005-----0
  6
CONTINUOUS
  5
11E
 10
264.10803
 20
360.974301
 30
0.0
 11
268.108035
 21
356.974301
 31
0.0
  0
LINE
  8
LC-005-005-----0
  6
CONTINUOUS
  5
11F
 10
265.522244
 20
360.974301
 30
0.0
 11
269.522249
 21
356.974301
 31
0.0
  0
LINE
  8
LC-005-005-----0
  6
CONTINUOUS
  5
120
 10
266.936459
 20
360.974301
 30
0.0
 11
270.936464
 21
356.974301
 31
0.0
  0
LINE
  8
LC-005-005-----0
  6
CONTINUOUS
  5
121
 10
268.350673
 20
360.974301
 30
0.0
 11
272.350678
 21
356.974301
 31
0.0
  0
LINE
  8
LC-005-005-----0
  6
CONTINUOUS
  5
122
 10
269.764888
 20
360.974301
 30
0.0
 11
273.764893
 21
356.974301
 31
0.0
  0
LINE
  8
LC-005-005-----0
  6
CONTINUOUS
  5
123
 10
271.179102
 20
360.974301
 30
0.0
 11
275.179107
 21
356.974301
 31
0.0
  0
LINE
  8
LC-005-005-----0
  6
CONTINUOUS
  5
124
 10
272.593317
 20
360.974301
 30
0.0
 11
276.593322
 21
356.974301
 31
0.0
  0
LINE
  8
LC-005-005-----0
  6
CONTINUOUS
  5
125
 10
274.007531
 20
360.974301
 30
0.0
 11
277.655713
 21
357.326123
 31
0.0
  0
LINE
  8
LC-005-005-----0
  6
CONTINUOUS
  5
126
 10
275.421746
 20
360.974301
 30
0.0
 11
277.655713
 21
358.740336
 31
0.0
  0
LINE
  8
LC-005-005-----0
  6
CONTINUOUS
  5
127
 10
276.83596
 20
360.974301
 30
0.0
 11
277.655713
 21
360.154548
 31
0.0
  0
ENDBLK
  8
0
  5
128
  0
BLOCK
  8
0
  5
12A
  2
BLK3
 70
    64
 10
0.0
 20
0.0
 30
0.0
  3
BLK3
  0
ENDBLK
  8
0
  5
12B
  0
BLOCK
  8
0
  5
12D
  2
*D12
 70
    65
 10
0.0
 20
0.0
 30
0.0
  3
*D12
  0
LINE
  8
LC-002-003-MTH-0
  6
CONTINUOUS
  5
12E
 10
234.655755
 20
473.974292
 30
0.0
 11
234.655755
 21
500.8
 31
0.0
  0
LINE
  8
LC-002-003-MTH-0
  6
CONTINUOUS
  5
12F
 10
277.655755
 20
473.974292
 30
0.0
 11
277.655755
 21
500.8
 31
0.0
  0
LINE
  8
LC-001-003-----0
  6
CONTINUOUS
  5
130
 10
216.809748
 20
487.650529
 30
0.0
 11
234.655755
 21
490.0
 31
0.0
  0
LINE
  8
LC-001-003-----0
  6
CONTINUOUS
  5
131
 10
234.655755
 20
490.0
 30
0.0
 11
216.809748
 21
492.349471
 31
0.0
  0
LINE
  8
LC-001-003-----0
  6
CONTINUOUS
  5
132
 10
216.809748
 20
492.349471
 30
0.0
 11
216.809748
 21
487.650529
 31
0.0
  0
LINE
  8
LC-001-003-----0
  6
CONTINUOUS
  5
133
 10
216.76971
 20
488.261391
 30
0.0
 11
229.975755
 21
490.0
 31
0.0
  0
LINE
  8
LC-001-003-----0
  6
CONTINUOUS
  5
134
 10
229.975755
 20
490.0
 30
0.0
 11
216.76971
 21
491.738609
 31
0.0
  0
LINE
  8
LC-001-003-----0
  6
CONTINUOUS
  5
135
 10
216.729672
 20
488.872254
 30
0.0
 11
225.295755
 21
490.0
 31
0.0
  0
LINE
  8
LC-001-003-----0
  6
CONTINUOUS
  5
136
 10
225.295755
 20
490.0
 30
0.0
 11
216.729672
 21
491.127746
 31
0.0
  0
LINE
  8
LC-001-003-----0
  6
CONTINUOUS
  5
137
 10
216.689634
 20
489.483116
 30
0.0
 11
220.615755
 21
490.0
 31
0.0
  0
LINE
  8
LC-001-003-----0
  6
CONTINUOUS
  5
138
 10
220.615755
 20
490.0
 30
0.0
 11
216.689634
 21
490.516884
 31
0.0
  0
LINE
  8
LC-001-003-----0
  6
CONTINUOUS
  5
139
 10
295.501763
 20
492.349471
 30
0.0
 11
277.655755
 21
490.0
 31
0.0
  0
LINE
  8
LC-001-003-----0
  6
CONTINUOUS
  5
13A
 10
277.655755
 20
490.0
 30
0.0
 11
295.501763
 21
487.650529
 31
0.0
  0
LINE
  8
LC-001-003-----0
  6
CONTINUOUS
  5
13B
 10
295.501763
 20
487.650529
 30
0.0
 11
295.501763
 21
492.349471
 31
0.0
  0
LINE
  8
LC-001-003-----0
  6
CONTINUOUS
  5
13C
 10
295.541801
 20
491.738609
 30
0.0
 11
282.335755
 21
490.0
 31
0.0
  0
LINE
  8
LC-001-003-----0
  6
CONTINUOUS
  5
13D
 10
282.335755
 20
490.0
 30
0.0
 11
295.541801
 21
488.261391
 31
0.0
  0
LINE
  8
LC-001-003-----0
  6
CONTINUOUS
  5
13E
 10
295.581839
 20
491.127746
 30
0.0
 11
287.015755
 21
490.0
 31
0.0
  0
LINE
  8
LC-001-003-----0
  6
CONTINUOUS
  5
13F
 10
287.015755
 20
490.0
 30
0.0
 11
295.581839
 21
488.872254
 31
0.0
  0
LINE
  8
LC-001-003-----0
  6
CONTINUOUS
  5
140
 10
295.621877
 20
490.516884
 30
0.0
 11
291.695755
 21
490.0
 31
0.0
  0
LINE
  8
LC-001-003-----0
  6
CONTINUOUS
  5
141
 10
291.695755
 20
490.0
 30
0.0
 11
295.621877
 21
489.483116
 31
0.0
  0
LINE
  8
LC-003-003-MTG-0
  6
CONTINUOUS
  5
142
 10
209.455755
 20
490.0
 30
0.0
 11
400.458275
 21
490.0
 31
0.0
  0
TEXT
  8
LC-001-003-----0
  6
CONTINUOUS
 62
     6
  5
143
 10
304.931001
 20
500.431999
 30
0.0
 40
18.0
  1
1 1/4"
 51
15.0
  7
LC-TXTSTYLE-150-400-0-0-D0
  0
ENDBLK
  8
0
  5
144
  0
BLOCK
  8
0
  5
146
  2
*D13
 70
    65
 10
0.0
 20
0.0
 30
0.0
  3
*D13
  0
LINE
  8
LC-002-003-MTH-0
  6
CONTINUOUS
  5
147
 10
239.155713
 20
364.974301
 30
0.0
 11
239.155713
 21
402.8
 31
0.0
  0
LINE
  8
LC-002-003-MTH-0
  6
CONTINUOUS
  5
148
 10
273.155713
 20
364.974301
 30
0.0
 11
273.155713
 21
402.8
 31
0.0
  0
LINE
  8
LC-001-003-----0
  6
CONTINUOUS
  5
149
 10
221.309706
 20
389.650529
 30
0.0
 11
239.155713
 21
392.0
 31
0.0
  0
LINE
  8
LC-001-003-----0
  6
CONTINUOUS
  5
14A
 10
239.155713
 20
392.0
 30
0.0
 11
221.309706
 21
394.349471
 31
0.0
  0
LINE
  8
LC-001-003-----0
  6
CONTINUOUS
  5
14B
 10
221.309706
 20
394.349471
 30
0.0
 11
221.309706
 21
389.650529
 31
0.0
  0
LINE
  8
LC-001-003-----0
  6
CONTINUOUS
  5
14C
 10
221.269668
 20
390.261391
 30
0.0
 11
234.475713
 21
392.0
 31
0.0
  0
LINE
  8
LC-001-003-----0
  6
CONTINUOUS
  5
14D
 10
234.475713
 20
392.0
 30
0.0
 11
221.269668
 21
393.738609
 31
0.0
  0
LINE
  8
LC-001-003-----0
  6
CONTINUOUS
  5
14E
 10
221.22963
 20
390.872254
 30
0.0
 11
229.795713
 21
392.0
 31
0.0
  0
LINE
  8
LC-001-003-----0
  6
CONTINUOUS
  5
14F
 10
229.795713
 20
392.0
 30
0.0
 11
221.22963
 21
393.127746
 31
0.0
  0
LINE
  8
LC-001-003-----0
  6
CONTINUOUS
  5
150
 10
221.189592
 20
391.483116
 30
0.0
 11
225.115713
 21
392.0
 31
0.0
  0
LINE
  8
LC-001-003-----0
  6
CONTINUOUS
  5
151
 10
225.115713
 20
392.0
 30
0.0
 11
221.189592
 21
392.516884
 31
0.0
  0
LINE
  8
LC-001-003-----0
  6
CONTINUOUS
  5
152
 10
291.001721
 20
394.349471
 30
0.0
 11
273.155713
 21
392.0
 31
0.0
  0
LINE
  8
LC-001-003-----0
  6
CONTINUOUS
  5
153
 10
273.155713
 20
392.0
 30
0.0
 11
291.001721
 21
389.650529
 31
0.0
  0
LINE
  8
LC-001-003-----0
  6
CONTINUOUS
  5
154
 10
291.001721
 20
389.650529
 30
0.0
 11
291.001721
 21
394.349471
 31
0.0
  0
LINE
  8
LC-001-003-----0
  6
CONTINUOUS
  5
155
 10
291.041759
 20
393.738609
 30
0.0
 11
277.835713
 21
392.0
 31
0.0
  0
LINE
  8
LC-001-003-----0
  6
CONTINUOUS
  5
156
 10
277.835713
 20
392.0
 30
0.0
 11
291.041759
 21
390.261391
 31
0.0
  0
LINE
  8
LC-001-003-----0
  6
CONTINUOUS
  5
157
 10
291.081797
 20
393.127746
 30
0.0
 11
282.515713
 21
392.0
 31
0.0
  0
LINE
  8
LC-001-003-----0
  6
CONTINUOUS
  5
158
 10
282.515713
 20
392.0
 30
0.0
 11
291.081797
 21
390.872254
 31
0.0
  0
LINE
  8
LC-001-003-----0
  6
CONTINUOUS
  5
159
 10
291.121835
 20
392.516884
 30
0.0
 11
287.195713
 21
392.0
 31
0.0
  0
LINE
  8
LC-001-003-----0
  6
CONTINUOUS
  5
15A
 10
287.195713
 20
392.0
 30
0.0
 11
291.121835
 21
391.483116
 31
0.0
  0
LINE
  8
LC-003-003-MTG-0
  6
CONTINUOUS
  5
15B
 10
213.955713
 20
392.0
 30
0.0
 11
363.558233
 21
392.0
 31
0.0
  0
TEXT
  8
LC-001-003-----0
  6
CONTINUOUS
 62
     6
  5
15C
 10
300.430959
 20
402.431999
 30
0.0
 40
18.0
  1
DN32
 51
15.0
  7
LC-TXTSTYLE-150-400-0-0-D0
  0
ENDBLK
  8
0
  5
15D
  0
ENDSEC
  0
SECTION
  2
ENTITIES
  0
VIEWPORT
  8
LC-000
  5
1AE
 67
     1
 68
     1
 10
420.0
 20
297.0
 30
0.0
 40
840.0
 41
594.0
 69
     1
1001
ACAD
1000
MVIEW
1002
{
1070
    16
1010
0.0
1020
0.0
1030
0.0
1010
0.0
1020
0.0
1030
1.0
1040
0.0
1040
594.0
1040
420.0
1040
297.0
1040
50.0
1040
0.0
1040
0.0
1070
     0
1070
   100
1070
     1
1070
     1
1070
     0
1070
     0
1070
     0
1070
     0
1040
0.0
1040
0.0
1040
0.0
1040
1.0
1040
1.0
1040
0.0
1040
0.0
1070
     0
1002
{
1002
}
1002
}
  0
VIEWPORT
  8
0
  5
1AF
 67
     1
 68
     1
 10
0.0
 20
0.0
 30
0.0
 40
0.0
 41
0.0
 69
     1
1001
ACAD
1000
MVIEW
1002
{
1070
    16
1010
0.0
1020
0.0
1030
0.0
1010
0.0
1020
0.0
1030
1.0
1040
0.0
1040
594.0
1040
0.0
1040
0.0
1040
50.0
1040
0.0
1040
0.0
1070
     0
1070
   100
1070
     0
1070
     1
1070
     0
1070
     0
1070
     0
1070
     0
1040
0.0
1040
0.0
1040
0.0
1040
0.5
1040
0.5
1040
0.5
1040
0.5
1070
     0
1002
{
1002
}
1002
}
  0
DIMENSION
  8
0
  5
15E
  2
*D0
 10
577.0
 20
308.974301
 30
0.0
 11
577.0
 21
308.974301
 31
0.0
  1
DN32
 13
556.155713
 23
324.974301
 33
0.0
 14
556.155713
 24
292.974301
 34
0.0
 50
90.0
  3
LC-DIM-L-0090-02-02
  0
INSERT
  8
0
  5
15F
  2
*X1
 10
485.55464
 20
192.611504
 30
0.0
  0
INSERT
  8
0
  5
161
  2
BLK1
 10
0.0
 20
0.0
 30
0.0
  0
INSERT
  8
0
  5
162
  2
*X3
 10
485.55464
 20
225.336573
 30
0.0
  0
INSERT
  8
0
  5
163
  2
BLK2
 10
0.0
 20
0.0
 30
0.0
  0
DIMENSION
  8
0
  5
164
  2
*D5
 10
406.155713
 20
238.0
 30
0.0
 11
406.155713
 21
238.0
 31
0.0
 13
256.155713
 23
338.974261
 33
0.0
 14
556.155713
 24
292.974301
 34
0.0
  3
LC-DIM-L-0090-02-02
  0
DIMENSION
  8
0
  5
165
  2
*D6
 10
196.0
 20
391.474277
 30
0.0
 11
196.0
 21
391.474277
 31
0.0
  1
70-165
 13
234.655755
 23
473.974292
 33
0.0
 14
286.155682
 24
308.974261
 34
0.0
 50
90.0
  3
LC-DIM-L-0090-02-02
  0
INSERT
  8
0
  5
166
  2
*X7
 10
234.655713
 20
356.974301
 30
0.0
  0
INSERT
  8
0
  5
167
  2
*X8
 10
234.655755
 20
467.974292
 30
0.0
  0
INSERT
  8
0
  5
168
  2
*X9
 10
234.655755
 20
467.974292
 30
0.0
  0
INSERT
  8
0
  5
169
  2
*X10
 10
234.655713
 20
356.974301
 30
0.0
  0
INSERT
  8
0
  5
16B
  2
BLK3
 10
0.0
 20
0.0
 30
0.0
  0
DIMENSION
  8
0
  5
16C
  2
*D12
 10
256.155755
 20
490.0
 30
0.0
 11
256.155755
 21
490.0
 31
0.0
  1
1 1/4"
 13
234.655755
 23
473.974292
 33
0.0
 14
277.655755
 24
473.974292
 34
0.0
  3
LC-DIM-L-0090-02-02
  0
DIMENSION
  8
0
  5
16D
  2
*D13
 10
256.155713
 20
392.0
 30
0.0
 11
256.155713
 21
392.0
 31
0.0
  1
DN32
 13
239.155713
 23
364.974301
 33
0.0
 14
273.155713
 24
364.974301
 34
0.0
  3
LC-DIM-L-0090-02-02
  0
ARC
  8
LC-004-002-----0
  6
CONTINUOUS
  5
16F
 10
585.55464
 20
292.611504
 30
0.0
 40
98.5
 50
180.661659
 51
195.65621
  0
ARC
  8
LC-006-002-RND-0
  6
CONTINUOUS
  5
171
 10
486.054649
 20
292.474039
 30
0.0
 40
0.5
 50
90.0
 51
180.003985
  0
LINE
  8
LC-004-002-----0
  6
CONTINUOUS
  5
172
 10
489.553955
 20
292.974039
 30
0.0
 11
489.553955
 21
291.474039
 31
0.0
  0
ARC
  8
LC-004-002-----0
  6
CONTINUOUS
  5
173
 10
495.01008
 20
267.353502
 30
0.0
 40
4.5
 50
197.106393
 51
254.578552
  0
LINE
  8
LC-004-002-----0
  6
CONTINUOUS
  5
174
 10
489.553955
 20
292.974039
 30
0.0
 11
486.054649
 21
292.974039
 31
0.0
  0
LINE
  8
LC-004-002-----0
  6
CONTINUOUS
  5
175
 10
489.553955
 20
291.474039
 30
0.0
 11
487.056321
 21
291.474039
 31
0.0
  0
ARC
  8
LC-004-002-----0
  6
CONTINUOUS
  5
176
 10
495.01008
 20
267.353502
 30
0.0
 40
6.0
 50
196.512636
 51
258.495918
  0
ARC
  8
LC-004-002-----0
  6
CONTINUOUS
  5
177
 10
585.55464
 20
292.611504
 30
0.0
 40
100.0
 50
180.079158
 51
195.642467
  0
LINE
  8
LC-004-002-----0
  6
CONTINUOUS
  5
178
 10
493.813454
 20
292.974301
 30
0.0
 11
493.813454
 21
261.474039
 31
0.0
  0
ARC
  8
LC-004-002-----0
  6
CONTINUOUS
  5
179
 10
585.55464
 20
325.336573
 30
0.0
 40
98.5
 50
164.34379
 51
179.338341
  0
ARC
  8
LC-006-002-RND-0
  6
CONTINUOUS
  5
17A
 10
486.054649
 20
325.474039
 30
0.0
 40
0.5
 50
179.996015
 51
270.0
  0
LINE
  8
LC-004-002-----0
  6
CONTINUOUS
  5
17B
 10
489.553955
 20
324.974039
 30
0.0
 11
489.553955
 21
326.474039
 31
0.0
  0
ARC
  8
LC-004-002-----0
  6
CONTINUOUS
  5
17C
 10
495.01008
 20
350.594576
 30
0.0
 40
4.5
 50
105.421448
 51
162.893607
  0
LINE
  8
LC-004-002-----0
  6
CONTINUOUS
  5
17D
 10
489.553955
 20
324.974039
 30
0.0
 11
486.054649
 21
324.974039
 31
0.0
  0
LINE
  8
LC-004-002-----0
  6
CONTINUOUS
  5
17E
 10
489.553955
 20
326.474039
 30
0.0
 11
487.056321
 21
326.474039
 31
0.0
  0
ARC
  8
LC-004-002-----0
  6
CONTINUOUS
  5
17F
 10
495.01008
 20
350.594576
 30
0.0
 40
6.0
 50
101.504082
 51
163.487364
  0
ARC
  8
LC-004-002-----0
  6
CONTINUOUS
  5
180
 10
585.55464
 20
325.336573
 30
0.0
 40
100.0
 50
164.357533
 51
179.920842
  0
LINE
  8
LC-004-002-----0
  6
CONTINUOUS
  5
181
 10
493.813454
 20
324.974301
 30
0.0
 11
493.813454
 21
356.474039
 31
0.0
  0
LINE
  8
LC-004-002-----0
  6
DASHDOT
 62
     2
  5
183
 10
256.155755
 20
473.974292
 30
0.0
 11
256.155713
 21
360.974301
 31
0.0
  0
LINE
  8
LC-004-002-----0
  6
CONTINUOUS
  5
184
 10
240.155713
 20
338.974301
 30
0.0
 11
272.155713
 21
338.974301
 31
0.0
  0
LINE
  8
LC-004-002-----0
  6
CONTINUOUS
  5
185
 10
273.155713
 20
354.974301
 30
0.0
 11
239.155713
 21
354.974301
 31
0.0
  0
LINE
  8
LC-004-002-----0
  6
CONTINUOUS
  5
186
 10
239.155755
 20
463.974292
 30
0.0
 11
239.155713
 21
364.974301
 31
0.0
  0
LINE
  8
LC-004-002-----0
  6
CONTINUOUS
  5
187
 10
239.155713
 20
340.974301
 30
0.0
 11
273.155713
 21
340.974301
 31
0.0
  0
LINE
  8
LC-004-002-----0
  6
CONTINUOUS
  5
188
 10
273.155713
 20
340.974301
 30
0.0
 11
273.155713
 21
354.974301
 31
0.0
  0
LINE
  8
LC-004-002-----0
  6
CONTINUOUS
  5
189
 10
239.155713
 20
340.974301
 30
0.0
 11
240.155713
 21
338.974301
 31
0.0
  0
LINE
  8
LC-004-002-----0
  6
CONTINUOUS
  5
18A
 10
273.155713
 20
340.974301
 30
0.0
 11
272.155713
 21
338.974301
 31
0.0
  0
LINE
  8
LC-004-002-----0
  6
CONTINUOUS
  5
18B
 10
239.155713
 20
354.974301
 30
0.0
 11
234.655713
 21
354.974301
 31
0.0
  0
LINE
  8
LC-004-002-----0
  6
CONTINUOUS
  5
18C
 10
277.655713
 20
354.974301
 30
0.0
 11
273.155713
 21
354.974301
 31
0.0
  0
LINE
  8
LC-004-002-----0
  6
CONTINUOUS
  5
18D
 10
234.655713
 20
356.974301
 30
0.0
 11
277.655713
 21
356.974301
 31
0.0
  0
LINE
  8
LC-004-002-----0
  6
CONTINUOUS
  5
18E
 10
234.655713
 20
360.974301
 30
0.0
 11
277.655713
 21
360.974301
 31
0.0
  0
LINE
  8
LC-004-002-----0
  6
CONTINUOUS
  5
18F
 10
234.655713
 20
354.974301
 30
0.0
 11
234.655713
 21
360.974301
 31
0.0
  0
ARC
  8
LC-004-002-----0
  6
CONTINUOUS
  5
190
 10
238.655713
 20
360.974301
 30
0.0
 40
4.0
 50
89.999981
 51
180.0
  0
LINE
  8
LC-004-002-----0
  6
CONTINUOUS
  5
191
 10
277.655713
 20
360.974301
 30
0.0
 11
277.655713
 21
354.974301
 31
0.0
  0
ARC
  8
LC-004-002-----0
  6
CONTINUOUS
  5
192
 10
273.655713
 20
360.974301
 30
0.0
 40
4.0
 50
0.0
 51
89.999981
  0
LINE
  8
LC-004-002-----0
  6
CONTINUOUS
  5
193
 10
238.655713
 20
364.974301
 30
0.0
 11
273.655713
 21
364.974301
 31
0.0
  0
LINE
  8
LC-004-002-----0
  6
CONTINUOUS
  5
194
 10
239.155755
 20
463.974292
 30
0.0
 11
273.155755
 21
463.974292
 31
0.0
  0
LINE
  8
LC-004-002-----0
  6
CONTINUOUS
  5
195
 10
234.655755
 20
473.974292
 30
0.0
 11
277.655755
 21
473.974292
 31
0.0
  0
LINE
  8
LC-004-002-----0
  6
CONTINUOUS
  5
196
 10
234.655755
 20
471.974292
 30
0.0
 11
277.655755
 21
471.974292
 31
0.0
  0
LINE
  8
LC-004-002-----0
  6
CONTINUOUS
  5
197
 10
234.655755
 20
467.974292
 30
0.0
 11
277.655755
 21
467.974292
 31
0.0
  0
LINE
  8
LC-004-002-----0
  6
CONTINUOUS
  5
198
 10
239.155755
 20
463.974292
 30
0.0
 11
238.655755
 21
463.974292
 31
0.0
  0
ARC
  8
LC-004-002-----0
  6
CONTINUOUS
  5
199
 10
238.655755
 20
467.974292
 30
0.0
 40
4.0
 50
179.999848
 51
270.0
  0
LINE
  8
LC-004-002-----0
  6
CONTINUOUS
  5
19A
 10
234.655755
 20
467.974292
 30
0.0
 11
234.655755
 21
473.974292
 31
0.0
  0
LINE
  8
LC-004-002-----0
  6
CONTINUOUS
  5
19B
 10
273.655755
 20
463.974292
 30
0.0
 11
273.155755
 21
463.974292
 31
0.0
  0
ARC
  8
LC-004-002-----0
  6
CONTINUOUS
  5
19C
 10
273.655755
 20
467.974292
 30
0.0
 40
4.0
 50
270.0
 51
0.0
  0
LINE
  8
LC-004-002-----0
  6
CONTINUOUS
  5
19D
 10
277.655755
 20
473.974292
 30
0.0
 11
277.655755
 21
467.974292
 31
0.0
  0
LINE
  8
LC-004-002-----0
  6
CONTINUOUS
  5
19E
 10
239.155713
 20
354.974301
 30
0.0
 11
239.155713
 21
340.974301
 31
0.0
  0
LINE
  8
LC-004-002-----0
  6
CONTINUOUS
  5
19F
 10
273.155713
 20
364.974301
 30
0.0
 11
273.155755
 21
463.974292
 31
0.0
  0
LINE
  8
LC-004-002-----0
  6
CONTINUOUS
  5
1A0
 10
272.155713
 20
338.974301
 30
0.0
 11
272.155713
 21
338.974301
 31
0.0
  0
ARC
  8
LC-004-002-----0
  6
CONTINUOUS
  5
1A1
 10
286.155713
 20
338.974301
 30
0.0
 40
14.0
 50
180.0
 51
270.000058
  0
LINE
  8
LC-004-002-----0
  6
CONTINUOUS
  5
1A2
 10
286.155713
 20
324.974301
 30
0.0
 11
328.679208
 21
324.974301
 31
0.0
  0
LINE
  8
LC-004-002-----0
  6
DASHDOT
 62
     2
  5
1A3
 10
286.155674
 20
308.974261
 30
0.0
 11
556.155713
 21
308.974039
 31
0.0
  0
ARC
  8
LC-004-002-----0
  6
DASHDOT
 62
     2
  5
1A4
 10
286.155713
 20
338.974261
 30
0.0
 40
30.0
 50
179.999848
 51
269.999924
  0
LINE
  8
LC-004-002-----0
  6
DASHDOT
 62
     2
  5
1A5
 10
256.155713
 20
356.974301
 30
0.0
 11
256.155713
 21
338.974261
 31
0.0
  0
LINE
  8
LC-004-002-----0
  6
CONTINUOUS
  5
1A6
 10
240.155713
 20
338.974301
 30
0.0
 11
240.155713
 21
338.974301
 31
0.0
  0
ARC
  8
LC-004-002-----0
  6
CONTINUOUS
  5
1A7
 10
286.155713
 20
338.974301
 30
0.0
 40
46.0
 50
180.0
 51
270.000058
  0
LINE
  8
LC-004-002-----0
  6
CONTINUOUS
  5
1A8
 10
286.155713
 20
292.974301
 30
0.0
 11
328.679208
 21
292.974301
 31
0.0
  0
LINE
  8
LC-004-002-----0
  6
CONTINUOUS
  5
1A9
 10
556.155713
 20
324.974301
 30
0.0
 11
556.155713
 21
292.974301
 31
0.0
  0
LINE
  8
LC-004-002-----0
  6
CONTINUOUS
  5
1AA
 10
520.563752
 20
324.974301
 30
0.0
 11
556.155713
 21
324.974301
 31
0.0
  0
LINE
  8
LC-004-002-----0
  6
CONTINUOUS
  5
1AB
 10
326.833418
 20
324.974301
 30
0.0
 11
520.563752
 21
324.974301
 31
0.0
  0
LINE
  8
LC-004-002-----0
  6
CONTINUOUS
  5
1AC
 10
326.833418
 20
292.974301
 30
0.0
 11
556.155713
 21
292.974301
 31
0.0
  0
ENDSEC
  0
EOF
