  0
SECTION
  2
HEADER
  9
$ACADVER
  1
AC1009
  9
$INSBASE
 10
0.0
 20
0.0
 30
0.0
  9
$EXTMIN
 10
-210.0
 20
-148.5
 30
0.0
  9
$EXTMAX
 10
630.0
 20
445.5
 30
0.0
  9
$LIMMIN
 10
-210.0
 20
-148.5
  9
$LIMMAX
 10
630.0
 20
445.5
  9
$ORTHOMODE
 70
     0
  9
$REGENMODE
 70
     1
  9
$FILLMODE
 70
     1
  9
$QTEXTMODE
 70
     0
  9
$MIRRTEXT
 70
     1
  9
$DRAGMODE
 70
     2
  9
$LTSCALE
 40
2.0
  9
$OSMODE
 70
     0
  9
$ATTMODE
 70
     1
  9
$TEXTSIZE
 40
0.2
  9
$TRACEWID
 40
0.05
  9
$TEXTSTYLE
  7
STANDARD
  9
$CLAYER
  8
0
  9
$CELTYPE
  6
BYLAYER
  9
$CECOLOR
 62
     7
  9
$DIMSCALE
 40
2.0
  9
$DIMASZ
 40
3.5
  9
$DIMEXO
 40
0.0625
  9
$DIMDLI
 40
0.38
  9
$DIMRND
 40
0.0
  9
$DIMDLE
 40
0.0
  9
$DIMEXE
 40
0.18
  9
$DIMTP
 40
0.0
  9
$DIMTM
 40
0.0
  9
$DIMTXT
 40
3.5
  9
$DIMCEN
 40
0.09
  9
$DIMTSZ
 40
0.0
  9
$DIMTOL
 70
     0
  9
$DIMLIM
 70
     0
  9
$DIMTIH
 70
     1
  9
$DIMTOH
 70
     1
  9
$DIMSE1
 70
     0
  9
$DIMSE2
 70
     0
  9
$DIMTAD
 70
     1
  9
$DIMZIN
 70
     0
  9
$DIMBLK
  1

  9
$DIMASO
 70
     1
  9
$DIMSHO
 70
     1
  9
$DIMPOST
  1

  9
$DIMAPOST
  1

  9
$DIMALT
 70
     0
  9
$DIMALTD
 70
     2
  9
$DIMALTF
 40
25.4
  9
$DIMLFAC
 40
1.0
  9
$DIMTOFL
 70
     0
  9
$DIMTVP
 40
0.0
  9
$DIMTIX
 70
     0
  9
$DIMSOXD
 70
     0
  9
$DIMSAH
 70
     0
  9
$DIMBLK1
  1

  9
$DIMBLK2
  1

  9
$DIMSTYLE
  2
STANDARD
  9
$DIMCLRD
 70
     0
  9
$DIMCLRE
 70
     0
  9
$DIMCLRT
 70
     0
  9
$DIMTFAC
 40
1.0
  9
$DIMGAP
 40
0.09
  9
$LUNITS
 70
     2
  9
$LUPREC
 70
     2
  9
$AXISMODE
 70
     0
  9
$AXISUNIT
 10
0.0
 20
0.0
  9
$SKETCHINC
 40
0.1
  9
$FILLETRAD
 40
0.0
  9
$AUNITS
 70
     0
  9
$AUPREC
 70
     0
  9
$MENU
  1
acad
  9
$ELEVATION
 40
0.0
  9
$PELEVATION
 40
0.0
  9
$THICKNESS
 40
0.0
  9
$LIMCHECK
 70
     0
  9
$BLIPMODE
 70
     1
  9
$CHAMFERA
 40
0.0
  9
$CHAMFERB
 40
0.0
  9
$SKPOLY
 70
     0
  9
$TDCREATE
 40
0.000000000
  9
$TDUPDATE
 40
0.000000000
  9
$TDINDWG
 40
0.0000000000
  9
$TDUSRTIMER
 40
0.0000000000
  9
$USRTIMER
 70
     1
  9
$ANGBASE
 50
0.0
  9
$ANGDIR
 70
     0
  9
$PDMODE
 70
     0
  9
$PDSIZE
 40
0.0
  9
$PLINEWID
 40
0.0
  9
$COORDS
 70
     0
  9
$SPLFRAME
 70
     0
  9
$SPLINETYPE
 70
     6
  9
$SPLINESEGS
 70
     8
  9
$ATTDIA
 70
     0
  9
$ATTREQ
 70
     1
  9
$HANDLING
 70
     1
  9
$HANDSEED
  5
1B4
  9
$SURFTAB1
 70
     6
  9
$SURFTAB2
 70
     6
  9
$SURFTYPE
 70
     6
  9
$SURFU
 70
     6
  9
$SURFV
 70
     6
  9
$UCSNAME
  2

  9
$UCSORG
 10
0.0
 20
0.0
 30
0.0
  9
$UCSXDIR
 10
1.0
 20
0.0
 30
0.0
  9
$UCSYDIR
 10
0.0
 20
1.0
 30
0.0
  9
$PUCSNAME
  2

  9
$PUCSORG
 10
0.0
 20
0.0
 30
0.0
  9
$PUCSXDIR
 10
1.0
 20
0.0
 30
0.0
  9
$PUCSYDIR
 10
0.0
 20
1.0
 30
0.0
  9
$USERI1
 70
     0
  9
$USERI2
 70
     0
  9
$USERI3
 70
     0
  9
$USERI4
 70
     0
  9
$USERI5
 70
     0
  9
$USERR1
 40
0.0
  9
$USERR2
 40
0.0
  9
$USERR3
 40
0.0
  9
$USERR4
 40
0.0
  9
$USERR5
 40
0.0
  9
$WORLDVIEW
 70
     1
  9
$SHADEDGE
 70
     3
  9
$SHADEDIF
 70
    70
  9
$TILEMODE
 70
     1
  9
$MAXACTVP
 70
    16
  9
$PINSBASE
 10
0.0
 20
0.0
 30
0.0
  9
$PLIMCHECK
 70
     0
  9
$PEXTMIN
 10
1.000000E+20
 20
1.000000E+20
 30
1.000000E+20
  9
$PEXTMAX
 10
-1.000000E+20
 20
-1.000000E+20
 30
-1.000000E+20
  9
$PLIMMIN
 10
-210.0
 20
-148.5
  9
$PLIMMAX
 10
630.0
 20
445.5
  9
$UNITMODE
 70
     0
  9
$VISRETAIN
 70
     0
  9
$PLINEGEN
 70
     1
  9
$PSLTSCALE
 70
     0
  9
$TREEDEPTH
 70
  3020
  9
$DWGCODEPAGE
  3
dos850
  0
ENDSEC
  0
SECTION
  2
TABLES
  0
TABLE
  2
VPORT
 70
     1
  0
VPORT
  2
*ACTIVE
 70
     0
 10
0.0
 20
0.0
 11
1.0
 21
1.0
 12
420.0
 22
297.0
 13
0.0
 23
0.0
 14
1.0
 24
1.0
 15
0.0
 25
0.0
 16
0.0
 26
0.0
 36
1.0
 17
-210.0
 27
-148.5
 37
0.0
 40
594.0
 41
1.604229
 42
50.0
 43
0.0
 44
0.0
 50
0.0
 51
0.0
 71
     0
 72
   100
 73
     1
 74
     1
 75
     0
 76
     0
 77
     0
 78
     0
  0
ENDTAB
  0
TABLE
  2
LTYPE
 70
     3
  0
LTYPE
  2
CONTINUOUS
 70
    64
  3
Solid line
 72
    65
 73
     0
 40
0.0
  0
LTYPE
  2
DASHDOT
 70
    64
  3
__ . __ . __ . __ . __
 72
    65
 73
     4
 40
7.5
 49
5.0
 49
-1.25
 49
0.0
 49
-1.25
  0
LTYPE
  2
DASHED
 70
    64
  3
__ __ __ __ __
 72
    65
 73
     2
 40
6.25
 49
5.0
 49
-1.25
  0
ENDTAB
  0
TABLE
  2
LAYER
 70
    11
  0
LAYER
  2
0
 70
     0
 62
     7
  6
CONTINUOUS
  0
LAYER
  2
LC-INFO-1-2-MM-A3-0
 70
     1
 62
    -1
  6
CONTINUOUS
  0
LAYER
  2
LC-003-003-MTH-0
 70
     0
 62
     2
  6
CONTINUOUS
  0
LAYER
  2
LC-002-003-----0
 70
     0
 62
     2
  6
CONTINUOUS
  0
LAYER
  2
LC-004-003-MTG-0
 70
     0
 62
     2
  6
CONTINUOUS
  0
LAYER
  2
LC-008-005-----0
 70
     0
 62
     2
  6
CONTINUOUS
  0
LAYER
  2
LC-006-000-----0
 70
     0
 62
     7
  6
CONTINUOUS
  0
LAYER
  2
LC-001-002-----0
 70
     0
 62
     1
  6
CONTINUOUS
  0
LAYER
  2
LC-005-002-RND-0
 70
     0
 62
     1
  6
CONTINUOUS
  0
LAYER
  2
LC-007-007-KH--0
 70
     0
 62
     7
  6
DASHDOT
  0
LAYER
  2
LC-000
 70
     0
 62
     7
  6
CONTINUOUS
  0
ENDTAB
  0
TABLE
  2
STYLE
 70
     4
  0
STYLE
  2
STANDARD
 70
     0
 40
0.0
 41
1.0
 50
0.0
 71
     0
 42
0.0
  3
txt
  4

  0
STYLE
  2
LC-STANDARD
 70
    64
 40
0.0
 41
1.0
 50
0.0
 71
     0
 42
3.5
  3
MONOTXT
  4

  0
STYLE
  2
LC-TXTSTYLE-150-400-0-0-D2
 70
    64
 40
0.0
 41
1.0
 50
15.0
 71
     0
 42
3.5
  3
MONOTXT
  4

  0
STYLE
  2
LC-TXTSTYLE-150-400-0-0-D3
 70
    64
 40
0.0
 41
1.0
 50
15.0
 71
     0
 42
3.5
  3
LC-STANDARD
  4

  0
ENDTAB
  0
TABLE
  2
VIEW
 70
     0
  0
ENDTAB
  0
TABLE
  2
UCS
 70
     0
  0
ENDTAB
  0
TABLE
  2
APPID
 70
     1
  0
APPID
  2
ACAD
 70
     0
  0
ENDTAB
  0
TABLE
  2
DIMSTYLE
 70
     4
  0
DIMSTYLE
  2
STANDARD
 70
     0
  3

  4

  5

  6

  7

 40
1.0
 41
0.18
 42
0.0625
 43
0.38
 44
0.18
 45
0.0
 46
0.0
 47
0.0
 48
0.0
 71
     0
 72
     0
 73
     1
 74
     1
 75
     0
 76
     0
 77
     0
 78
     0
140
0.18
141
0.09
142
0.0
143
25.4
144
1.0
145
0.0
146
1.0
147
0.09
170
     0
171
     2
172
     0
173
     0
174
     0
175
     0
176
     0
177
     0
178
     0
  0
DIMSTYLE
  2
LC-STANDARD
 70
     0
  3

  4

  5

  6

  7

 40
1.0
 41
3.5
 42
0.0
 43
7.5
 44
1.8
 45
0.0
 46
0.0
 47
0.0
 48
0.0
 71
     0
 72
     0
 73
     0
 74
     0
 75
     0
 76
     0
 77
     1
 78
     8
140
3.5
141
0.0
142
0.0
143
25.4
144
1.0
145
0.0
146
0.71
147
1.5
170
     0
171
     2
172
     1
173
     0
174
     0
175
     0
176
     0
177
     0
178
     3
  0
DIMSTYLE
  2
LC-DIM-L-0090-02-02
 70
     0
  3

  4

  5

  6

  7

 40
2.0
 41
3.5
 42
0.0
 43
7.5
 44
1.8
 45
0.0
 46
0.0
 47
0.0
 48
0.0
 71
     0
 72
     0
 73
     0
 74
     0
 75
     0
 76
     0
 77
     1
 78
     8
140
9.0
141
0.0
142
0.0
143
25.4
144
1.0
145
0.0
146
0.71
147
1.5
170
     0
171
     2
172
     0
173
     0
174
     0
175
     0
176
     2
177
     2
178
     6
  0
DIMSTYLE
  2
LC-DIM-L-0090-01-02
 70
     0
  3

  4

  5

  6

  7

 40
2.0
 41
3.5
 42
0.0
 43
7.5
 44
1.8
 45
0.0
 46
0.0
 47
0.0
 48
0.0
 71
     0
 72
     0
 73
     0
 74
     0
 75
     0
 76
     0
 77
     1
 78
     8
140
9.0
141
0.0
142
0.0
143
25.4
144
1.0
145
0.0
146
0.71
147
1.5
170
     0
171
     2
172
     0
173
     0
174
     0
175
     0
176
     2
177
     2
178
     6
  0
ENDTAB
  0
ENDSEC
  0
SECTION
  2
BLOCKS
  0
BLOCK
  8
0
  5
24
  2
*D0
 70
    65
 10
0.0
 20
0.0
 30
0.0
  3
*D0
  0
LINE
  8
LC-003-003-MTH-0
  6
CONTINUOUS
  5
26
 10
161.622739
 20
115.395826
 30
0.0
 11
190.8
 21
115.395826
 31
0.0
  0
LINE
  8
LC-003-003-MTH-0
  6
CONTINUOUS
  5
27
 10
152.851325
 20
119.395826
 30
0.0
 11
190.8
 21
119.395826
 31
0.0
  0
LINE
  8
LC-002-003-----0
  6
CONTINUOUS
  5
29
 10
182.349471
 20
97.549819
 30
0.0
 11
180.0
 21
115.395826
 31
0.0
  0
LINE
  8
LC-002-003-----0
  6
CONTINUOUS
  5
2A
 10
180.0
 20
115.395826
 30
0.0
 11
177.650529
 21
97.549819
 31
0.0
  0
LINE
  8
LC-002-003-----0
  6
CONTINUOUS
  5
2B
 10
177.650529
 20
97.549819
 30
0.0
 11
182.349471
 21
97.549819
 31
0.0
  0
LINE
  8
LC-002-003-----0
  6
CONTINUOUS
  5
2C
 10
181.738609
 20
97.509781
 30
0.0
 11
180.0
 21
110.715826
 31
0.0
  0
LINE
  8
LC-002-003-----0
  6
CONTINUOUS
  5
2D
 10
180.0
 20
110.715826
 30
0.0
 11
178.261391
 21
97.509781
 31
0.0
  0
LINE
  8
LC-002-003-----0
  6
CONTINUOUS
  5
2E
 10
181.127746
 20
97.469743
 30
0.0
 11
180.0
 21
106.035826
 31
0.0
  0
LINE
  8
LC-002-003-----0
  6
CONTINUOUS
  5
2F
 10
180.0
 20
106.035826
 30
0.0
 11
178.872254
 21
97.469743
 31
0.0
  0
LINE
  8
LC-002-003-----0
  6
CONTINUOUS
  5
30
 10
180.516884
 20
97.429704
 30
0.0
 11
180.0
 21
101.355826
 31
0.0
  0
LINE
  8
LC-002-003-----0
  6
CONTINUOUS
  5
31
 10
180.0
 20
101.355826
 30
0.0
 11
179.483116
 21
97.429704
 31
0.0
  0
LINE
  8
LC-002-003-----0
  6
CONTINUOUS
  5
32
 10
177.650529
 20
137.241834
 30
0.0
 11
180.0
 21
119.395826
 31
0.0
  0
LINE
  8
LC-002-003-----0
  6
CONTINUOUS
  5
33
 10
180.0
 20
119.395826
 30
0.0
 11
182.349471
 21
137.241834
 31
0.0
  0
LINE
  8
LC-002-003-----0
  6
CONTINUOUS
  5
34
 10
182.349471
 20
137.241834
 30
0.0
 11
177.650529
 21
137.241834
 31
0.0
  0
LINE
  8
LC-002-003-----0
  6
CONTINUOUS
  5
35
 10
178.261391
 20
137.281872
 30
0.0
 11
180.0
 21
124.075826
 31
0.0
  0
LINE
  8
LC-002-003-----0
  6
CONTINUOUS
  5
36
 10
180.0
 20
124.075826
 30
0.0
 11
181.738609
 21
137.281872
 31
0.0
  0
LINE
  8
LC-002-003-----0
  6
CONTINUOUS
  5
37
 10
178.872254
 20
137.32191
 30
0.0
 11
180.0
 21
128.755826
 31
0.0
  0
LINE
  8
LC-002-003-----0
  6
CONTINUOUS
  5
38
 10
180.0
 20
128.755826
 30
0.0
 11
181.127746
 21
137.32191
 31
0.0
  0
LINE
  8
LC-002-003-----0
  6
CONTINUOUS
  5
39
 10
179.483116
 20
137.361948
 30
0.0
 11
180.0
 21
133.435826
 31
0.0
  0
LINE
  8
LC-002-003-----0
  6
CONTINUOUS
  5
3A
 10
180.0
 20
133.435826
 30
0.0
 11
180.516884
 21
137.361948
 31
0.0
  0
LINE
  8
LC-004-003-MTG-0
  6
CONTINUOUS
  5
3C
 10
180.0
 20
73.593306
 30
0.0
 11
180.0
 21
144.595826
 31
0.0
  0
TEXT
  8
LC-002-003-----0
  6
CONTINUOUS
 62
     6
  5
3E
 10
169.568001
 20
84.52682
 30
0.0
 40
18.0
  1
4
 50
90.0
 41
0.9
 51
15.0
  7
LC-TXTSTYLE-150-400-0-0-D0
 72
     2
 11
169.568001
 21
93.711072
 31
0.0
  0
ENDBLK
  8
0
  5
3F
  0
BLOCK
  8
0
  5
41
  2
BLK1
 70
    64
 10
0.0
 20
0.0
 30
0.0
  3
BLK1
  0
ENDBLK
  8
0
  5
42
  0
BLOCK
  8
0
  5
44
  2
*X2
 70
    65
 10
85.122903
 20
112.595412
 30
0.0
  3
*X2
  0
LINE
  8
LC-008-005-----0
  6
CONTINUOUS
  5
46
 10
93.602636
 20
113.401626
 30
0.0
 11
94.796613
 21
114.595602
 31
0.0
  0
LINE
  8
LC-008-005-----0
  6
CONTINUOUS
  5
47
 10
89.967995
 20
112.595412
 30
0.0
 11
91.968175
 21
114.595592
 31
0.0
  0
LINE
  8
LC-008-005-----0
  6
CONTINUOUS
  5
48
 10
87.139648
 20
112.595493
 30
0.0
 11
89.139738
 21
114.595582
 31
0.0
  0
LINE
  8
LC-008-005-----0
  6
CONTINUOUS
  5
49
 10
85.122903
 20
113.407174
 30
0.0
 11
86.3113
 21
114.595571
 31
0.0
  0
ENDBLK
  8
0
  5
4A
  0
BLOCK
  8
0
  5
4C
  2
BLK2
 70
    64
 10
0.0
 20
0.0
 30
0.0
  3
BLK2
  0
ENDBLK
  8
0
  5
4D
  0
BLOCK
  8
0
  5
4F
  2
*D4
 70
    65
 10
0.0
 20
0.0
 30
0.0
  3
*D4
  0
LINE
  8
LC-003-003-MTH-0
  6
CONTINUOUS
  5
50
 10
85.122903
 20
112.595826
 30
0.0
 11
66.2
 21
112.595826
 31
0.0
  0
LINE
  8
LC-003-003-MTH-0
  6
CONTINUOUS
  5
51
 10
85.122903
 20
115.395826
 30
0.0
 11
66.2
 21
115.395826
 31
0.0
  0
LINE
  8
LC-002-003-----0
  6
CONTINUOUS
  5
52
 10
79.349471
 20
94.749819
 30
0.0
 11
77.0
 21
112.595826
 31
0.0
  0
LINE
  8
LC-002-003-----0
  6
CONTINUOUS
  5
53
 10
77.0
 20
112.595826
 30
0.0
 11
74.650529
 21
94.749819
 31
0.0
  0
LINE
  8
LC-002-003-----0
  6
CONTINUOUS
  5
54
 10
74.650529
 20
94.749819
 30
0.0
 11
79.349471
 21
94.749819
 31
0.0
  0
LINE
  8
LC-002-003-----0
  6
CONTINUOUS
  5
55
 10
78.738609
 20
94.709781
 30
0.0
 11
77.0
 21
107.915826
 31
0.0
  0
LINE
  8
LC-002-003-----0
  6
CONTINUOUS
  5
56
 10
77.0
 20
107.915826
 30
0.0
 11
75.261391
 21
94.709781
 31
0.0
  0
LINE
  8
LC-002-003-----0
  6
CONTINUOUS
  5
57
 10
78.127746
 20
94.669743
 30
0.0
 11
77.0
 21
103.235826
 31
0.0
  0
LINE
  8
LC-002-003-----0
  6
CONTINUOUS
  5
58
 10
77.0
 20
103.235826
 30
0.0
 11
75.872254
 21
94.669743
 31
0.0
  0
LINE
  8
LC-002-003-----0
  6
CONTINUOUS
  5
59
 10
77.516884
 20
94.629704
 30
0.0
 11
77.0
 21
98.555826
 31
0.0
  0
LINE
  8
LC-002-003-----0
  6
CONTINUOUS
  5
5A
 10
77.0
 20
98.555826
 30
0.0
 11
76.483116
 21
94.629704
 31
0.0
  0
LINE
  8
LC-002-003-----0
  6
CONTINUOUS
  5
5B
 10
74.650529
 20
133.241834
 30
0.0
 11
77.0
 21
115.395826
 31
0.0
  0
LINE
  8
LC-002-003-----0
  6
CONTINUOUS
  5
5C
 10
77.0
 20
115.395826
 30
0.0
 11
79.349471
 21
133.241834
 31
0.0
  0
LINE
  8
LC-002-003-----0
  6
CONTINUOUS
  5
5D
 10
79.349471
 20
133.241834
 30
0.0
 11
74.650529
 21
133.241834
 31
0.0
  0
LINE
  8
LC-002-003-----0
  6
CONTINUOUS
  5
5E
 10
75.261391
 20
133.281872
 30
0.0
 11
77.0
 21
120.075826
 31
0.0
  0
LINE
  8
LC-002-003-----0
  6
CONTINUOUS
  5
5F
 10
77.0
 20
120.075826
 30
0.0
 11
78.738609
 21
133.281872
 31
0.0
  0
LINE
  8
LC-002-003-----0
  6
CONTINUOUS
  5
60
 10
75.872254
 20
133.32191
 30
0.0
 11
77.0
 21
124.755826
 31
0.0
  0
LINE
  8
LC-002-003-----0
  6
CONTINUOUS
  5
61
 10
77.0
 20
124.755826
 30
0.0
 11
78.127746
 21
133.32191
 31
0.0
  0
LINE
  8
LC-002-003-----0
  6
CONTINUOUS
  5
62
 10
76.483116
 20
133.361948
 30
0.0
 11
77.0
 21
129.435826
 31
0.0
  0
LINE
  8
LC-002-003-----0
  6
CONTINUOUS
  5
63
 10
77.0
 20
129.435826
 30
0.0
 11
77.516884
 21
133.361948
 31
0.0
  0
LINE
  8
LC-004-003-MTG-0
  6
CONTINUOUS
  5
64
 10
77.0
 20
38.393306
 30
0.0
 11
77.0
 21
140.595826
 31
0.0
  0
TEXT
  8
LC-002-003-----0
  6
CONTINUOUS
 62
     6
  5
65
 10
66.568001
 20
60.552017
 30
0.0
 40
18.0
  1
2,8
 50
90.0
 51
15.0
  7
LC-TXTSTYLE-150-400-0-0-D0
 72
     2
 11
66.568001
 21
90.911072
 31
0.0
  0
ENDBLK
  8
0
  5
66
  0
BLOCK
  8
0
  5
68
  2
BLK3
 70
    64
 10
0.0
 20
0.0
 30
0.0
  3
BLK3
  0
ENDBLK
  8
0
  5
69
  0
BLOCK
  8
0
  5
6B
  2
*X6
 70
    65
 10
147.62345
 20
112.595412
 30
0.0
  3
*X6
  0
LINE
  8
LC-008-005-----0
  6
CONTINUOUS
  5
6C
 10
157.850615
 20
112.595781
 30
0.0
 11
158.123028
 21
112.868195
 31
0.0
  0
LINE
  8
LC-008-005-----0
  6
CONTINUOUS
  5
6D
 10
155.021819
 20
112.595412
 30
0.0
 11
157.021978
 21
114.595571
 31
0.0
  0
LINE
  8
LC-008-005-----0
  6
CONTINUOUS
  5
6E
 10
157.623029
 20
115.196622
 30
0.0
 11
157.822233
 21
115.395826
 31
0.0
  0
LINE
  8
LC-008-005-----0
  6
CONTINUOUS
  5
6F
 10
152.193392
 20
112.595412
 30
0.0
 11
154.193561
 21
114.595581
 31
0.0
  0
LINE
  8
LC-008-005-----0
  6
CONTINUOUS
  5
70
 10
150.171288
 20
113.401736
 30
0.0
 11
151.365144
 21
114.595592
 31
0.0
  0
LINE
  8
LC-008-005-----0
  6
CONTINUOUS
  5
71
 10
147.62345
 20
113.682324
 30
0.0
 11
148.536728
 21
114.595602
 31
0.0
  0
ENDBLK
  8
0
  5
72
  0
BLOCK
  8
0
  5
74
  2
*D7
 70
    65
 10
0.0
 20
0.0
 30
0.0
  3
*D7
  0
LINE
  8
LC-003-003-MTH-0
  6
CONTINUOUS
  5
75
 10
90.122966
 20
230.778276
 30
0.0
 11
90.122966
 21
262.8
 31
0.0
  0
LINE
  8
LC-003-003-MTH-0
  6
CONTINUOUS
  5
76
 10
153.122966
 20
230.778276
 30
0.0
 11
153.122966
 21
262.8
 31
0.0
  0
LINE
  8
LC-002-003-----0
  6
CONTINUOUS
  5
77
 10
72.276958
 20
249.650529
 30
0.0
 11
90.122966
 21
252.0
 31
0.0
  0
LINE
  8
LC-002-003-----0
  6
CONTINUOUS
  5
78
 10
90.122966
 20
252.0
 30
0.0
 11
72.276958
 21
254.349471
 31
0.0
  0
LINE
  8
LC-002-003-----0
  6
CONTINUOUS
  5
79
 10
72.276958
 20
254.349471
 30
0.0
 11
72.276958
 21
249.650529
 31
0.0
  0
LINE
  8
LC-002-003-----0
  6
CONTINUOUS
  5
7A
 10
72.23692
 20
250.261391
 30
0.0
 11
85.442966
 21
252.0
 31
0.0
  0
LINE
  8
LC-002-003-----0
  6
CONTINUOUS
  5
7B
 10
85.442966
 20
252.0
 30
0.0
 11
72.23692
 21
253.738609
 31
0.0
  0
LINE
  8
LC-002-003-----0
  6
CONTINUOUS
  5
7C
 10
72.196882
 20
250.872254
 30
0.0
 11
80.762966
 21
252.0
 31
0.0
  0
LINE
  8
LC-002-003-----0
  6
CONTINUOUS
  5
7D
 10
80.762966
 20
252.0
 30
0.0
 11
72.196882
 21
253.127746
 31
0.0
  0
LINE
  8
LC-002-003-----0
  6
CONTINUOUS
  5
7E
 10
72.156844
 20
251.483116
 30
0.0
 11
76.082966
 21
252.0
 31
0.0
  0
LINE
  8
LC-002-003-----0
  6
CONTINUOUS
  5
7F
 10
76.082966
 20
252.0
 30
0.0
 11
72.156844
 21
252.516884
 31
0.0
  0
LINE
  8
LC-002-003-----0
  6
CONTINUOUS
  5
80
 10
170.968973
 20
254.349471
 30
0.0
 11
153.122966
 21
252.0
 31
0.0
  0
LINE
  8
LC-002-003-----0
  6
CONTINUOUS
  5
81
 10
153.122966
 20
252.0
 30
0.0
 11
170.968973
 21
249.650529
 31
0.0
  0
LINE
  8
LC-002-003-----0
  6
CONTINUOUS
  5
82
 10
170.968973
 20
249.650529
 30
0.0
 11
170.968973
 21
254.349471
 31
0.0
  0
LINE
  8
LC-002-003-----0
  6
CONTINUOUS
  5
83
 10
171.009011
 20
253.738609
 30
0.0
 11
157.802966
 21
252.0
 31
0.0
  0
LINE
  8
LC-002-003-----0
  6
CONTINUOUS
  5
84
 10
157.802966
 20
252.0
 30
0.0
 11
171.009011
 21
250.261391
 31
0.0
  0
LINE
  8
LC-002-003-----0
  6
CONTINUOUS
  5
85
 10
171.049049
 20
253.127746
 30
0.0
 11
162.482966
 21
252.0
 31
0.0
  0
LINE
  8
LC-002-003-----0
  6
CONTINUOUS
  5
86
 10
162.482966
 20
252.0
 30
0.0
 11
171.049049
 21
250.872254
 31
0.0
  0
LINE
  8
LC-002-003-----0
  6
CONTINUOUS
  5
87
 10
171.089087
 20
252.516884
 30
0.0
 11
167.162966
 21
252.0
 31
0.0
  0
LINE
  8
LC-002-003-----0
  6
CONTINUOUS
  5
88
 10
167.162966
 20
252.0
 30
0.0
 11
171.089087
 21
251.483116
 31
0.0
  0
LINE
  8
LC-004-003-MTG-0
  6
CONTINUOUS
  5
89
 10
64.922966
 20
252.0
 30
0.0
 11
237.986226
 21
252.0
 31
0.0
  0
TEXT
  8
LC-002-003-----0
  6
CONTINUOUS
 62
     6
  5
8A
 10
207.258952
 20
262.431999
 30
0.0
 40
18.0
  1
63
 51
15.0
  7
LC-TXTSTYLE-150-400-0-0-D0
  0
ENDBLK
  8
0
  5
8B
  0
BLOCK
  8
0
  5
8D
  2
BLK4
 70
    64
 10
0.0
 20
0.0
 30
0.0
  3
BLK4
  0
ENDBLK
  8
0
  5
8E
  0
BLOCK
  8
0
  5
90
  2
BLK5
 70
    64
 10
0.0
 20
0.0
 30
0.0
  3
BLK5
  0
ENDBLK
  8
0
  5
91
  0
BLOCK
  8
0
  5
93
  2
*D10
 70
    65
 10
0.0
 20
0.0
 30
0.0
  3
*D10
  0
LINE
  8
LC-003-003-MTH-0
  6
CONTINUOUS
  5
94
 10
85.122966
 20
228.268276
 30
0.0
 11
85.122966
 21
298.8
 31
0.0
  0
LINE
  8
LC-003-003-MTH-0
  6
CONTINUOUS
  5
95
 10
158.122966
 20
228.268276
 30
0.0
 11
158.122966
 21
298.8
 31
0.0
  0
LINE
  8
LC-004-003-MTG-0
  6
CONTINUOUS
  5
96
 10
85.122966
 20
288.0
 30
0.0
 11
158.122966
 21
288.0
 31
0.0
  0
LINE
  8
LC-002-003-----0
  6
CONTINUOUS
  5
97
 10
102.968973
 20
290.349471
 30
0.0
 11
85.122966
 21
288.0
 31
0.0
  0
LINE
  8
LC-002-003-----0
  6
CONTINUOUS
  5
98
 10
85.122966
 20
288.0
 30
0.0
 11
102.968973
 21
285.650529
 31
0.0
  0
LINE
  8
LC-002-003-----0
  6
CONTINUOUS
  5
99
 10
102.968973
 20
285.650529
 30
0.0
 11
102.968973
 21
290.349471
 31
0.0
  0
LINE
  8
LC-002-003-----0
  6
CONTINUOUS
  5
9A
 10
103.009011
 20
289.738609
 30
0.0
 11
89.802966
 21
288.0
 31
0.0
  0
LINE
  8
LC-002-003-----0
  6
CONTINUOUS
  5
9B
 10
89.802966
 20
288.0
 30
0.0
 11
103.009011
 21
286.261391
 31
0.0
  0
LINE
  8
LC-002-003-----0
  6
CONTINUOUS
  5
9C
 10
103.049049
 20
289.127746
 30
0.0
 11
94.482966
 21
288.0
 31
0.0
  0
LINE
  8
LC-002-003-----0
  6
CONTINUOUS
  5
9D
 10
94.482966
 20
288.0
 30
0.0
 11
103.049049
 21
286.872254
 31
0.0
  0
LINE
  8
LC-002-003-----0
  6
CONTINUOUS
  5
9E
 10
103.089087
 20
288.516884
 30
0.0
 11
99.162966
 21
288.0
 31
0.0
  0
LINE
  8
LC-002-003-----0
  6
CONTINUOUS
  5
9F
 10
99.162966
 20
288.0
 30
0.0
 11
103.089087
 21
287.483116
 31
0.0
  0
LINE
  8
LC-002-003-----0
  6
CONTINUOUS
  5
A0
 10
140.276958
 20
285.650529
 30
0.0
 11
158.122966
 21
288.0
 31
0.0
  0
LINE
  8
LC-002-003-----0
  6
CONTINUOUS
  5
A1
 10
158.122966
 20
288.0
 30
0.0
 11
140.276958
 21
290.349471
 31
0.0
  0
LINE
  8
LC-002-003-----0
  6
CONTINUOUS
  5
A2
 10
140.276958
 20
290.349471
 30
0.0
 11
140.276958
 21
285.650529
 31
0.0
  0
LINE
  8
LC-002-003-----0
  6
CONTINUOUS
  5
A3
 10
140.23692
 20
286.261391
 30
0.0
 11
153.442966
 21
288.0
 31
0.0
  0
LINE
  8
LC-002-003-----0
  6
CONTINUOUS
  5
A4
 10
153.442966
 20
288.0
 30
0.0
 11
140.23692
 21
289.738609
 31
0.0
  0
LINE
  8
LC-002-003-----0
  6
CONTINUOUS
  5
A5
 10
140.196882
 20
286.872254
 30
0.0
 11
148.762966
 21
288.0
 31
0.0
  0
LINE
  8
LC-002-003-----0
  6
CONTINUOUS
  5
A6
 10
148.762966
 20
288.0
 30
0.0
 11
140.196882
 21
289.127746
 31
0.0
  0
LINE
  8
LC-002-003-----0
  6
CONTINUOUS
  5
A7
 10
140.156844
 20
287.483116
 30
0.0
 11
144.082966
 21
288.0
 31
0.0
  0
LINE
  8
LC-002-003-----0
  6
CONTINUOUS
  5
A8
 10
144.082966
 20
288.0
 30
0.0
 11
140.156844
 21
288.516884
 31
0.0
  0
TEXT
  8
LC-002-003-----0
  6
CONTINUOUS
 62
     6
  5
A9
 10
122.317984
 20
298.431999
 30
0.0
 40
18.0
  1
73
 51
15.0
  7
LC-TXTSTYLE-150-400-0-0-D0
 72
     1
 11
134.180976
 21
298.431999
 31
0.0
  0
ENDBLK
  8
0
  5
AA
  0
ENDSEC
  0
SECTION
  2
ENTITIES
  0
VIEWPORT
  8
LC-000
  5
1AB
 67
     1
 68
     1
 10
420.0
 20
297.0
 30
0.0
 40
840.0
 41
594.0
 69
     1
1001
ACAD
1000
MVIEW
1002
{
1070
    16
1010
0.0
1020
0.0
1030
0.0
1010
0.0
1020
0.0
1030
1.0
1040
0.0
1040
594.0
1040
420.0
1040
297.0
1040
50.0
1040
0.0
1040
0.0
1070
     0
1070
   100
1070
     1
1070
     1
1070
     0
1070
     0
1070
     0
1070
     0
1040
0.0
1040
0.0
1040
0.0
1040
1.0
1040
1.0
1040
0.0
1040
0.0
1070
     0
1002
{
1002
}
1002
}
  0
VIEWPORT
  8
0
  5
1AC
 67
     1
 68
     1
 10
0.0
 20
0.0
 30
0.0
 40
0.0
 41
0.0
 69
     1
1001
ACAD
1000
MVIEW
1002
{
1070
    16
1010
0.0
1020
0.0
1030
0.0
1010
0.0
1020
0.0
1030
1.0
1040
0.0
1040
594.0
1040
0.0
1040
0.0
1040
50.0
1040
0.0
1040
0.0
1070
     0
1070
   100
1070
     0
1070
     1
1070
     0
1070
     0
1070
     0
1070
     0
1040
0.0
1040
0.0
1040
0.0
1040
0.5
1040
0.5
1040
0.5
1040
0.5
1070
     0
1002
{
1002
}
1002
}
  0
DIMENSION
  8
0
  5
AB
  2
*D0
 10
180.0
 20
85.536
 30
0.0
 11
180.0
 21
85.536
 31
0.0
 13
152.851325
 23
119.395826
 33
0.0
 14
161.622739
 24
115.395826
 34
0.0
 50
90.0
  3
LC-DIM-L-0090-02-02
  0
INSERT
  8
0
  5
AD
  2
BLK1
 10
0.0
 20
0.0
 30
0.0
  0
INSERT
  8
0
  5
AE
  2
*X2
 10
85.122903
 20
112.595412
 30
0.0
  0
INSERT
  8
0
  5
AF
  2
BLK2
 10
0.0
 20
0.0
 30
0.0
  0
DIMENSION
  8
0
  5
B0
  2
*D4
 10
77.0
 20
103.390737
 30
0.0
 11
77.0
 21
103.390737
 31
0.0
 13
85.122903
 23
115.395826
 33
0.0
 14
85.122903
 24
112.595826
 34
0.0
 50
90.0
  3
LC-DIM-L-0090-02-02
  0
INSERT
  8
0
  5
B1
  2
BLK3
 10
0.0
 20
0.0
 30
0.0
  0
INSERT
  8
0
  5
B2
  2
*X6
 10
147.62345
 20
112.595412
 30
0.0
  0
DIMENSION
  8
0
  5
B3
  2
*D7
 10
217.984966
 20
252.0
 30
0.0
 11
217.984966
 21
252.0
 31
0.0
 13
90.122966
 23
230.778276
 33
0.0
 14
153.122966
 24
230.778276
 34
0.0
  3
LC-DIM-L-0090-01-02
  0
INSERT
  8
0
  5
B4
  2
BLK4
 10
0.0
 20
0.0
 30
0.0
  0
INSERT
  8
0
  5
B5
  2
BLK5
 10
0.0
 20
0.0
 30
0.0
  0
DIMENSION
  8
0
  5
B6
  2
*D10
 10
131.385731
 20
288.0
 30
0.0
 11
131.385731
 21
288.0
 31
0.0
 13
85.122966
 23
228.268276
 33
0.0
 14
158.122966
 24
228.268276
 34
0.0
  3
LC-DIM-L-0090-02-02
  0
LINE
  8
LC-001-002-----0
  6
CONTINUOUS
  5
B8
 10
109.122966
 20
170.768276
 30
0.0
 11
134.122966
 21
170.768276
 31
0.0
  0
LINE
  8
LC-001-002-----0
  6
CONTINUOUS
  5
B9
 10
134.122966
 20
172.518276
 30
0.0
 11
134.122966
 21
170.768276
 31
0.0
  0
LINE
  8
LC-001-002-----0
  6
CONTINUOUS
  5
BA
 10
102.372966
 20
172.518276
 30
0.0
 11
109.122966
 21
172.518276
 31
0.0
  0
LINE
  8
LC-001-002-----0
  6
CONTINUOUS
  5
BB
 10
109.122966
 20
172.518276
 30
0.0
 11
109.122966
 21
170.768276
 31
0.0
  0
LINE
  8
LC-001-002-----0
  6
CONTINUOUS
  5
BC
 10
134.122966
 20
172.518276
 30
0.0
 11
140.872966
 21
172.518276
 31
0.0
  0
ARC
  8
LC-005-002-RND-0
  6
CONTINUOUS
  5
BE
 10
140.872966
 20
177.518276
 30
0.0
 40
5.0
 50
270.0
 51
0.0
  0
LINE
  8
LC-001-002-----0
  6
CONTINUOUS
  5
BF
 10
97.372966
 20
216.018276
 30
0.0
 11
97.372966
 21
209.268276
 31
0.0
  0
ARC
  8
LC-005-002-RND-0
  6
CONTINUOUS
  5
C0
 10
90.122966
 20
228.268276
 30
0.0
 40
5.0
 50
90.0
 51
180.0
  0
ARC
  8
LC-005-002-RND-0
  6
CONTINUOUS
  5
C1
 10
102.372966
 20
177.518276
 30
0.0
 40
5.0
 50
180.0
 51
270.0
  0
LINE
  8
LC-001-002-----0
  6
CONTINUOUS
  5
C2
 10
145.872966
 20
216.018276
 30
0.0
 11
145.872966
 21
209.268276
 31
0.0
  0
LINE
  8
LC-001-002-----0
  6
CONTINUOUS
  5
C3
 10
147.622966
 20
184.268276
 30
0.0
 11
147.622966
 21
209.268276
 31
0.0
  0
LINE
  8
LC-001-002-----0
  6
CONTINUOUS
  5
C4
 10
145.872966
 20
209.268276
 30
0.0
 11
147.622966
 21
209.268276
 31
0.0
  0
LINE
  8
LC-001-002-----0
  6
CONTINUOUS
  5
C5
 10
145.872966
 20
184.268276
 30
0.0
 11
147.622966
 21
184.268276
 31
0.0
  0
LINE
  8
LC-001-002-----0
  6
CONTINUOUS
  5
C6
 10
109.122966
 20
221.018276
 30
0.0
 11
109.122966
 21
222.768276
 31
0.0
  0
LINE
  8
LC-001-002-----0
  6
CONTINUOUS
  5
C7
 10
134.122966
 20
222.768276
 30
0.0
 11
109.122966
 21
222.768276
 31
0.0
  0
LINE
  8
LC-001-002-----0
  6
CONTINUOUS
  5
C8
 10
134.122966
 20
221.018276
 30
0.0
 11
134.122966
 21
222.768276
 31
0.0
  0
LINE
  8
LC-001-002-----0
  6
CONTINUOUS
  5
C9
 10
95.622966
 20
209.268276
 30
0.0
 11
95.622966
 21
184.268276
 31
0.0
  0
LINE
  8
LC-001-002-----0
  6
CONTINUOUS
  5
CA
 10
97.372966
 20
184.268276
 30
0.0
 11
95.622966
 21
184.268276
 31
0.0
  0
LINE
  8
LC-001-002-----0
  6
CONTINUOUS
  5
CB
 10
97.372966
 20
209.268276
 30
0.0
 11
95.622966
 21
209.268276
 31
0.0
  0
ARC
  8
LC-005-002-RND-0
  6
CONTINUOUS
  5
CC
 10
102.372966
 20
216.018276
 30
0.0
 40
5.0
 50
90.0
 51
180.0
  0
LINE
  8
LC-001-002-----0
  6
CONTINUOUS
  5
CD
 10
102.372966
 20
221.018276
 30
0.0
 11
109.122966
 21
221.018276
 31
0.0
  0
LINE
  8
LC-001-002-----0
  6
CONTINUOUS
  5
CE
 10
134.122966
 20
221.018276
 30
0.0
 11
140.872966
 21
221.018276
 31
0.0
  0
ARC
  8
LC-005-002-RND-0
  6
CONTINUOUS
  5
CF
 10
140.872966
 20
216.018276
 30
0.0
 40
5.0
 50
0.0
 51
90.0
  0
LINE
  8
LC-001-002-----0
  6
CONTINUOUS
  5
D0
 10
123.122966
 20
116.395817
 30
0.0
 11
123.122966
 21
115.395826
 31
0.0
  0
LINE
  8
LC-001-002-----0
  6
CONTINUOUS
  5
D1
 10
145.872966
 20
184.268276
 30
0.0
 11
145.872966
 21
177.518276
 31
0.0
  0
LINE
  8
LC-001-002-----0
  6
CONTINUOUS
  5
D2
 10
97.372966
 20
184.268276
 30
0.0
 11
97.372966
 21
177.518276
 31
0.0
  0
ARC
  8
LC-005-002-RND-0
  6
CONTINUOUS
  5
D3
 10
153.122966
 20
228.268276
 30
0.0
 40
5.0
 50
0.0
 51
90.0
  0
ARC
  8
LC-005-002-RND-0
  6
CONTINUOUS
  5
D4
 10
153.122966
 20
165.268276
 30
0.0
 40
5.0
 50
270.0
 51
0.0
  0
ARC
  8
LC-005-002-RND-0
  6
CONTINUOUS
  5
D5
 10
90.122966
 20
165.268276
 30
0.0
 40
5.0
 50
180.0
 51
270.0
  0
LINE
  8
LC-001-002-----0
  6
CONTINUOUS
  5
D6
 10
90.122966
 20
233.268276
 30
0.0
 11
153.122966
 21
233.268276
 31
0.0
  0
LINE
  8
LC-001-002-----0
  6
CONTINUOUS
  5
D7
 10
158.122966
 20
228.268276
 30
0.0
 11
158.122966
 21
165.268276
 31
0.0
  0
LINE
  8
LC-001-002-----0
  6
CONTINUOUS
  5
D8
 10
153.122966
 20
160.268276
 30
0.0
 11
90.122966
 21
160.268276
 31
0.0
  0
LINE
  8
LC-001-002-----0
  6
CONTINUOUS
  5
D9
 10
85.122966
 20
165.268276
 30
0.0
 11
85.122966
 21
228.268276
 31
0.0
  0
LINE
  8
LC-001-002-----0
  6
CONTINUOUS
  5
DA
 10
120.122966
 20
116.395817
 30
0.0
 11
120.122966
 21
115.395826
 31
0.0
  0
LINE
  8
LC-001-002-----0
  6
CONTINUOUS
  5
DB
 10
121.622966
 20
116.395817
 30
0.0
 11
123.122966
 21
116.395817
 31
0.0
  0
LINE
  8
LC-001-002-----0
  6
DASHDOT
 62
     2
  5
DD
 10
81.622966
 20
196.768276
 30
0.0
 11
161.622966
 21
196.768276
 31
0.0
  0
ARC
  8
LC-001-002-----0
  6
CONTINUOUS
  5
DE
 10
153.122966
 20
228.268276
 30
0.0
 40
2.51
 50
180.0
 51
0.0
  0
LINE
  8
LC-001-002-----0
  6
DASHDOT
 62
     2
  5
DF
 10
121.622966
 20
236.768276
 30
0.0
 11
121.622966
 21
156.768276
 31
0.0
  0
LINE
  8
LC-001-002-----0
  6
DASHDOT
 62
     2
  5
E0
 10
121.622966
 20
115.395826
 30
0.0
 11
121.622966
 21
112.595612
 31
0.0
  0
LINE
  8
LC-001-002-----0
  6
DASHDOT
 62
     2
  5
E1
 10
90.123324
 20
114.595585
 30
0.0
 11
90.12164
 21
110.595603
 31
0.0
  0
LINE
  8
LC-001-002-----0
  6
DASHDOT
 62
     2
  5
E2
 10
153.122607
 20
114.595585
 30
0.0
 11
153.122579
 21
110.595602
 31
0.0
  0
LINE
  8
LC-001-002-----0
  6
DASHDOT
 62
     2
  5
E3
 10
87.612966
 20
228.268276
 30
0.0
 11
92.632966
 21
228.268276
 31
0.0
  0
ARC
  8
LC-001-002-----0
  6
CONTINUOUS
  5
E4
 10
153.122966
 20
228.268276
 30
0.0
 40
2.51
 50
0.0
 51
180.0
  0
ARC
  8
LC-001-002-----0
  6
CONTINUOUS
  5
E5
 10
153.122966
 20
228.268276
 30
0.0
 40
1.5
 50
180.0
 51
0.0
  0
LINE
  8
LC-001-002-----0
  6
CONTINUOUS
  5
E6
 10
159.984509
 20
115.395826
 30
0.0
 11
154.171313
 21
115.395826
 31
0.0
  0
ARC
  8
LC-001-002-----0
  6
CONTINUOUS
  5
E7
 10
153.122966
 20
228.268276
 30
0.0
 40
1.5
 50
0.0
 51
180.0
  0
LINE
  8
LC-001-002-----0
  6
DASHDOT
 62
     2
  5
E8
 10
90.122966
 20
230.778276
 30
0.0
 11
90.122966
 21
225.758276
 31
0.0
  0
LINE
  8
LC-001-002-----0
  6
DASHDOT
 62
     2
  5
E9
 10
153.122966
 20
229.768276
 30
0.0
 11
153.122966
 21
225.758276
 31
0.0
  0
LINE
  8
LC-001-002-----0
  6
DASHED
 62
     2
  5
EB
 10
151.871739
 20
116.195817
 30
0.0
 11
121.622966
 21
116.195817
 31
0.0
  0
LINE
  8
LC-001-002-----0
  6
DASHDOT
 62
     2
  5
EC
 10
150.612966
 20
228.268276
 30
0.0
 11
155.632966
 21
228.268276
 31
0.0
  0
ARC
  8
LC-001-002-----0
  6
CONTINUOUS
  5
ED
 10
90.122966
 20
228.268276
 30
0.0
 40
2.51
 50
0.0
 51
180.0
  0
LINE
  8
LC-001-002-----0
  6
DASHDOT
 62
     2
  5
EE
 10
153.122966
 20
167.778276
 30
0.0
 11
153.122966
 21
162.758276
 31
0.0
  0
LINE
  8
LC-001-002-----0
  6
DASHDOT
 62
     2
  5
EF
 10
150.612966
 20
165.268276
 30
0.0
 11
155.632966
 21
165.268276
 31
0.0
  0
LINE
  8
LC-001-002-----0
  6
DASHDOT
 62
     2
  5
F0
 10
92.632966
 20
165.268276
 30
0.0
 11
87.612966
 21
165.268276
 31
0.0
  0
LINE
  8
LC-001-002-----0
  6
DASHDOT
 62
     2
  5
F1
 10
90.122966
 20
167.778276
 30
0.0
 11
90.122966
 21
162.758276
 31
0.0
  0
LINE
  8
LC-001-002-----0
  6
CONTINUOUS
  5
F2
 10
121.622966
 20
116.395817
 30
0.0
 11
120.122966
 21
116.395817
 31
0.0
  0
ARC
  8
LC-001-002-----0
  6
CONTINUOUS
  5
F3
 10
90.122966
 20
228.268276
 30
0.0
 40
2.51
 50
180.0
 51
0.0
  0
ARC
  8
LC-001-002-----0
  6
CONTINUOUS
  5
F4
 10
90.122966
 20
228.268276
 30
0.0
 40
1.5
 50
0.0
 51
180.0
  0
ARC
  8
LC-001-002-----0
  6
CONTINUOUS
  5
F5
 10
90.122966
 20
228.268276
 30
0.0
 40
1.5
 50
180.0
 51
0.0
  0
LINE
  8
LC-001-002-----0
  6
DASHED
 62
     2
  5
F6
 10
151.871739
 20
117.984299
 30
0.0
 11
151.871739
 21
116.195817
 31
0.0
  0
LINE
  8
LC-001-002-----0
  6
DASHED
 62
     2
  5
F7
 10
152.872739
 20
117.984299
 30
0.0
 11
159.984509
 21
115.395826
 31
0.0
  0
LINE
  8
LC-001-002-----0
  6
CONTINUOUS
  5
F8
 10
161.622739
 20
115.395826
 30
0.0
 11
159.984509
 21
115.395826
 31
0.0
  0
LINE
  8
LC-001-002-----0
  6
CONTINUOUS
  5
F9
 10
161.622739
 20
115.395826
 30
0.0
 11
161.622739
 21
115.695619
 31
0.0
  0
LINE
  8
LC-001-002-----0
  6
CONTINUOUS
  5
FA
 10
150.871739
 20
119.395826
 30
0.0
 11
152.851325
 21
119.395826
 31
0.0
  0
ARC
  8
LC-001-002-----0
  6
CONTINUOUS
  5
FB
 10
90.122966
 20
165.268276
 30
0.0
 40
2.51
 50
0.0
 51
180.0
  0
LINE
  8
LC-001-002-----0
  6
DASHED
 62
     2
  5
FC
 10
150.871739
 20
118.395826
 30
0.0
 11
150.871739
 21
116.195817
 31
0.0
  0
LINE
  8
LC-001-002-----0
  6
CONTINUOUS
  5
FD
 10
150.871739
 20
119.395826
 30
0.0
 11
121.622966
 21
119.395826
 31
0.0
  0
LINE
  8
LC-001-002-----0
  6
CONTINUOUS
 62
     2
  5
FE
 10
102.806561
 20
297.792092
 30
0.0
 11
117.806561
 21
297.792092
 31
0.0
  0
ARC
  8
LC-005-002-RND-0
  6
CONTINUOUS
  5
FF
 10
160.622739
 20
115.695619
 30
0.0
 40
1.0
 50
0.0
 51
70.0
  0
ARC
  8
LC-005-002-RND-0
  6
CONTINUOUS
  5
100
 10
152.851325
 20
116.395826
 30
0.0
 40
3.0
 50
70.0
 51
90.0
  0
ARC
  8
LC-001-002-----0
  6
CONTINUOUS
  5
101
 10
90.122966
 20
165.268276
 30
0.0
 40
2.51
 50
180.0
 51
0.0
  0
ARC
  8
LC-001-002-----0
  6
CONTINUOUS
  5
102
 10
90.122966
 20
165.268276
 30
0.0
 40
1.5
 50
0.0
 51
180.0
  0
ARC
  8
LC-001-002-----0
  6
CONTINUOUS
  5
103
 10
90.122966
 20
165.268276
 30
0.0
 40
1.5
 50
180.0
 51
0.0
  0
LINE
  8
LC-001-002-----0
  6
CONTINUOUS
  5
104
 10
82.623182
 20
115.395826
 30
0.0
 11
89.074618
 21
115.395826
 31
0.0
  0
LINE
  8
LC-001-002-----0
  6
DASHED
 62
     2
  5
105
 10
91.374193
 20
116.195817
 30
0.0
 11
121.622966
 21
116.195817
 31
0.0
  0
LINE
  8
LC-001-002-----0
  6
CONTINUOUS
  5
106
 10
151.621313
 20
112.4486
 30
0.0
 11
151.621313
 21
115.395826
 31
0.0
  0
LINE
  8
LC-001-002-----0
  6
CONTINUOUS
  5
107
 10
154.621313
 20
112.44753
 30
0.0
 11
154.621313
 21
115.395826
 31
0.0
  0
LINE
  8
LC-001-002-----0
  6
CONTINUOUS
  5
108
 10
154.621313
 20
112.44753
 30
0.0
 11
151.621314
 21
112.4486
 31
0.0
  0
ARC
  8
LC-001-002-----0
  6
CONTINUOUS
  5
109
 10
153.122966
 20
165.268276
 30
0.0
 40
2.51
 50
180.0
 51
0.0
  0
LINE
  8
LC-001-002-----0
  6
CONTINUOUS
  5
10A
 10
154.371313
 20
112.19753
 30
0.0
 11
151.870778
 21
112.19753
 31
0.0
  0
LINE
  8
LC-001-002-----0
  6
CONTINUOUS
  5
10B
 10
154.621313
 20
112.44753
 30
0.0
 11
154.371313
 21
112.19753
 31
0.0
  0
LINE
  8
LC-001-002-----0
  6
CONTINUOUS
  5
10C
 10
151.870778
 20
112.19753
 30
0.0
 11
151.620778
 21
112.44753
 31
0.0
  0
LINE
  8
LC-001-002-----0
  6
DASHED
 62
     2
  5
10D
 10
151.621313
 20
115.395826
 30
0.0
 11
151.621313
 21
117.984299
 31
0.0
  0
LINE
  8
LC-001-002-----0
  6
DASHED
 62
     2
  5
10E
 10
151.871739
 20
117.984299
 30
0.0
 11
151.621313
 21
117.984299
 31
0.0
  0
ARC
  8
LC-001-002-----0
  6
CONTINUOUS
  5
10F
 10
153.122966
 20
165.268276
 30
0.0
 40
2.51
 50
0.0
 51
180.0
  0
ARC
  8
LC-001-002-----0
  6
CONTINUOUS
  5
110
 10
153.122966
 20
165.268276
 30
0.0
 40
1.5
 50
180.0
 51
0.0
  0
ARC
  8
LC-001-002-----0
  6
CONTINUOUS
  5
111
 10
153.122966
 20
165.268276
 30
0.0
 40
1.5
 50
0.0
 51
180.0
  0
LINE
  8
LC-001-002-----0
  6
DASHED
 62
     2
  5
112
 10
91.374193
 20
117.984299
 30
0.0
 11
91.374193
 21
116.195817
 31
0.0
  0
LINE
  8
LC-001-002-----0
  6
DASHED
 62
     2
  5
113
 10
83.261422
 20
115.395826
 30
0.0
 11
90.373193
 21
117.984299
 31
0.0
  0
LINE
  8
LC-001-002-----0
  6
CONTINUOUS
  5
114
 10
151.122966
 20
169.768276
 30
0.0
 11
151.122966
 21
223.768276
 31
0.0
  0
LINE
  8
LC-001-002-----0
  6
CONTINUOUS
  5
115
 10
148.622966
 20
226.268276
 30
0.0
 11
94.622966
 21
226.268276
 31
0.0
  0
LINE
  8
LC-001-002-----0
  6
CONTINUOUS
  5
116
 10
92.122966
 20
223.768276
 30
0.0
 11
92.122966
 21
169.768276
 31
0.0
  0
LINE
  8
LC-001-002-----0
  6
CONTINUOUS
  5
117
 10
94.622966
 20
167.268276
 30
0.0
 11
148.622966
 21
167.268276
 31
0.0
  0
ARC
  8
LC-005-002-RND-0
  6
CONTINUOUS
  5
118
 10
94.622966
 20
223.768276
 30
0.0
 40
2.5
 50
90.0
 51
180.0
  0
ARC
  8
LC-005-002-RND-0
  6
CONTINUOUS
  5
119
 10
148.622966
 20
223.768276
 30
0.0
 40
2.5
 50
0.0
 51
90.0
  0
ARC
  8
LC-005-002-RND-0
  6
CONTINUOUS
  5
11A
 10
148.622966
 20
169.768276
 30
0.0
 40
2.5
 50
270.0
 51
0.0
  0
ARC
  8
LC-005-002-RND-0
  6
CONTINUOUS
  5
11B
 10
94.622966
 20
169.768276
 30
0.0
 40
2.5
 50
180.0
 51
270.0
  0
LINE
  8
LC-001-002-----0
  6
CONTINUOUS
  5
11C
 10
97.372482
 20
114.59561
 30
0.0
 11
97.372482
 21
113.395826
 31
0.0
  0
LINE
  8
LC-007-007-KH--0
  5
11E
 10
-418.637097
 20
291.986665
 30
0.0
 11
-418.637581
 21
155.681766
 31
0.0
  0
LINE
  8
LC-001-002-----0
  6
CONTINUOUS
  5
11F
 10
95.622482
 20
114.595604
 30
0.0
 11
95.622482
 21
113.395826
 31
0.0
  0
LINE
  8
LC-001-002-----0
  6
CONTINUOUS
  5
120
 10
121.622966
 20
114.595697
 30
0.0
 11
97.372482
 21
114.595612
 31
0.0
  0
LINE
  8
LC-001-002-----0
  6
CONTINUOUS
  5
121
 10
145.87345
 20
114.59561
 30
0.0
 11
145.87345
 21
113.395826
 31
0.0
  0
LINE
  8
LC-001-002-----0
  6
CONTINUOUS
  5
122
 10
147.62345
 20
114.595604
 30
0.0
 11
147.62345
 21
113.395826
 31
0.0
  0
LINE
  8
LC-001-002-----0
  6
CONTINUOUS
  5
123
 10
85.122903
 20
114.595567
 30
0.0
 11
85.122903
 21
112.595826
 31
0.0
  0
LINE
  8
LC-001-002-----0
  6
CONTINUOUS
  5
124
 10
85.12291
 20
112.595826
 30
0.0
 11
87.625819
 21
112.595835
 31
0.0
  0
LINE
  8
LC-001-002-----0
  6
CONTINUOUS
  5
125
 10
121.622966
 20
114.595697
 30
0.0
 11
145.87345
 21
114.595612
 31
0.0
  0
LINE
  8
LC-001-002-----0
  6
CONTINUOUS
  5
126
 10
158.123029
 20
114.595567
 30
0.0
 11
158.123028
 21
112.595826
 31
0.0
  0
LINE
  8
LC-001-002-----0
  6
CONTINUOUS
  5
127
 10
158.123021
 20
112.595826
 30
0.0
 11
155.620112
 21
112.595835
 31
0.0
  0
LINE
  8
LC-001-002-----0
  6
DASHED
 62
     2
  5
128
 10
151.123133
 20
112.595412
 30
0.0
 11
151.123133
 21
113.395412
 31
0.0
  0
LINE
  8
LC-001-002-----0
  6
DASHED
 62
     2
  5
129
 10
92.122799
 20
112.595412
 30
0.0
 11
92.122799
 21
113.395412
 31
0.0
  0
LINE
  8
LC-001-002-----0
  6
CONTINUOUS
  5
12A
 10
121.622966
 20
112.595612
 30
0.0
 11
92.619158
 21
112.595416
 31
0.0
  0
LINE
  8
LC-001-002-----0
  6
CONTINUOUS
  5
12B
 10
92.122799
 20
112.595412
 30
0.0
 11
87.625819
 21
112.595412
 31
0.0
  0
LINE
  8
LC-001-002-----0
  6
CONTINUOUS
  5
12C
 10
81.623193
 20
115.395826
 30
0.0
 11
82.623182
 21
115.395826
 31
0.0
  0
LINE
  8
LC-001-002-----0
  6
CONTINUOUS
  5
12D
 10
95.622482
 20
114.595605
 30
0.0
 11
85.622903
 21
114.595569
 31
0.0
  0
LINE
  8
LC-001-002-----0
  6
CONTINUOUS
  5
12E
 10
121.622966
 20
113.395826
 30
0.0
 11
97.372482
 21
113.400846
 31
0.0
  0
LINE
  8
LC-001-002-----0
  6
CONTINUOUS
  5
12F
 10
87.625819
 20
112.595594
 30
0.0
 11
87.625819
 21
112.595594
 31
0.0
  0
LINE
  8
LC-001-002-----0
  6
CONTINUOUS
  5
130
 10
121.622966
 20
112.595612
 30
0.0
 11
150.626773
 21
112.595416
 31
0.0
  0
LINE
  8
LC-001-002-----0
  6
CONTINUOUS
  5
131
 10
95.622482
 20
113.401208
 30
0.0
 11
92.122966
 21
113.401933
 31
0.0
  0
LINE
  8
LC-001-002-----0
  6
CONTINUOUS
  5
132
 10
151.123133
 20
112.595412
 30
0.0
 11
155.620112
 21
112.595412
 31
0.0
  0
LINE
  8
LC-001-002-----0
  6
CONTINUOUS
  5
133
 10
87.625834
 20
110.595594
 30
0.0
 11
90.123352
 21
110.595602
 31
0.0
  0
LINE
  8
LC-001-002-----0
  6
CONTINUOUS
  5
134
 10
92.619158
 20
110.59456
 30
0.0
 11
90.12164
 21
110.595603
 31
0.0
  0
LINE
  8
LC-001-002-----0
  6
CONTINUOUS
  5
135
 10
87.625819
 20
112.595835
 30
0.0
 11
87.625834
 21
110.595594
 31
0.0
  0
LINE
  8
LC-001-002-----0
  6
CONTINUOUS
  5
136
 10
92.619158
 20
110.59456
 30
0.0
 11
92.619158
 21
112.595416
 31
0.0
  0
LINE
  8
LC-001-002-----0
  6
CONTINUOUS
  5
137
 10
92.122966
 20
112.595412
 30
0.0
 11
92.122799
 21
112.595412
 31
0.0
  0
LINE
  8
LC-001-002-----0
  6
CONTINUOUS
  5
138
 10
92.122799
 20
113.395412
 30
0.0
 11
92.122799
 21
112.595412
 31
0.0
  0
LINE
  8
LC-001-002-----0
  6
CONTINUOUS
  5
139
 10
81.623193
 20
115.395826
 30
0.0
 11
81.623193
 21
115.695619
 31
0.0
  0
LINE
  8
LC-001-002-----0
  6
CONTINUOUS
  5
13A
 10
147.62345
 20
114.595605
 30
0.0
 11
157.623029
 21
114.595569
 31
0.0
  0
LINE
  8
LC-001-002-----0
  6
CONTINUOUS
  5
13B
 10
121.622966
 20
113.395826
 30
0.0
 11
145.87345
 21
113.400846
 31
0.0
  0
LINE
  8
LC-001-002-----0
  6
CONTINUOUS
  5
13C
 10
155.620112
 20
112.595594
 30
0.0
 11
155.620112
 21
112.595594
 31
0.0
  0
LINE
  8
LC-001-002-----0
  6
CONTINUOUS
  5
13D
 10
147.62345
 20
113.401208
 30
0.0
 11
151.122966
 21
113.401933
 31
0.0
  0
LINE
  8
LC-001-002-----0
  6
CONTINUOUS
  5
13E
 10
155.620098
 20
110.595594
 30
0.0
 11
153.122579
 21
110.595602
 31
0.0
  0
LINE
  8
LC-001-002-----0
  6
CONTINUOUS
  5
13F
 10
150.626773
 20
110.59456
 30
0.0
 11
153.124292
 21
110.595603
 31
0.0
  0
LINE
  8
LC-001-002-----0
  6
CONTINUOUS
  5
140
 10
155.620112
 20
112.595835
 30
0.0
 11
155.620098
 21
110.595594
 31
0.0
  0
LINE
  8
LC-001-002-----0
  6
CONTINUOUS
  5
141
 10
150.626773
 20
110.59456
 30
0.0
 11
150.626773
 21
112.595416
 31
0.0
  0
LINE
  8
LC-001-002-----0
  6
CONTINUOUS
  5
142
 10
92.374193
 20
119.395826
 30
0.0
 11
90.394606
 21
119.395826
 31
0.0
  0
LINE
  8
LC-001-002-----0
  6
CONTINUOUS
  5
143
 10
92.122799
 20
112.595412
 30
0.0
 11
92.619158
 21
112.595412
 31
0.0
  0
LINE
  8
LC-001-002-----0
  6
CONTINUOUS
  5
144
 10
95.622482
 20
113.395826
 30
0.0
 11
97.372482
 21
113.395826
 31
0.0
  0
LINE
  8
LC-001-002-----0
  6
CONTINUOUS
  5
145
 10
95.622482
 20
114.595605
 30
0.0
 11
97.372482
 21
114.595605
 31
0.0
  0
LINE
  8
LC-001-002-----0
  6
CONTINUOUS
  5
146
 10
85.622903
 20
115.395826
 30
0.0
 11
85.122903
 21
115.395826
 31
0.0
  0
LINE
  8
LC-001-002-----0
  6
CONTINUOUS
  5
147
 10
121.622966
 20
115.395826
 30
0.0
 11
85.622903
 21
115.395826
 31
0.0
  0
LINE
  8
LC-001-002-----0
  6
CONTINUOUS
  5
148
 10
85.122903
 20
114.595567
 30
0.0
 11
85.122903
 21
115.395826
 31
0.0
  0
LINE
  8
LC-001-002-----0
  6
CONTINUOUS
  5
149
 10
85.622903
 20
114.595567
 30
0.0
 11
85.622903
 21
115.395826
 31
0.0
  0
LINE
  8
LC-001-002-----0
  6
DASHED
 62
     2
  5
14A
 10
92.374193
 20
118.395826
 30
0.0
 11
92.374193
 21
116.195817
 31
0.0
  0
LINE
  8
LC-001-002-----0
  6
CONTINUOUS
  5
14B
 10
92.374193
 20
119.395826
 30
0.0
 11
121.622966
 21
119.395826
 31
0.0
  0
ARC
  8
LC-005-002-RND-0
  6
CONTINUOUS
  5
14C
 10
82.623193
 20
115.695619
 30
0.0
 40
1.0
 50
110.0
 51
180.0
  0
LINE
  8
LC-001-002-----0
  6
CONTINUOUS
  5
14D
 10
151.122966
 20
112.595412
 30
0.0
 11
151.123133
 21
112.595412
 31
0.0
  0
LINE
  8
LC-001-002-----0
  6
CONTINUOUS
  5
14E
 10
151.123133
 20
113.395412
 30
0.0
 11
151.123133
 21
112.595412
 31
0.0
  0
ARC
  8
LC-005-002-RND-0
  6
CONTINUOUS
  5
14F
 10
90.394606
 20
116.395826
 30
0.0
 40
3.0
 50
90.0
 51
110.0
  0
LINE
  8
LC-001-002-----0
  6
DASHED
 62
     2
  5
150
 10
154.621313
 20
115.395826
 30
0.0
 11
154.621313
 21
117.34787
 31
0.0
  0
LINE
  8
LC-001-002-----0
  6
CONTINUOUS
  5
151
 10
151.123133
 20
112.595412
 30
0.0
 11
150.626773
 21
112.595412
 31
0.0
  0
LINE
  8
LC-001-002-----0
  6
DASHED
 62
     2
  5
152
 10
152.872739
 20
117.984299
 30
0.0
 11
151.871739
 21
117.984299
 31
0.0
  0
LINE
  8
LC-001-002-----0
  6
CONTINUOUS
  5
153
 10
88.874618
 20
112.19753
 30
0.0
 11
91.375153
 21
112.19753
 31
0.0
  0
LINE
  8
LC-001-002-----0
  6
CONTINUOUS
  5
154
 10
88.624618
 20
112.44753
 30
0.0
 11
88.874618
 21
112.19753
 31
0.0
  0
LINE
  8
LC-001-002-----0
  6
CONTINUOUS
  5
155
 10
91.375153
 20
112.19753
 30
0.0
 11
91.625153
 21
112.44753
 31
0.0
  0
LINE
  8
LC-001-002-----0
  6
CONTINUOUS
  5
156
 10
89.074618
 20
115.395826
 30
0.0
 11
121.622966
 21
115.395826
 31
0.0
  0
LINE
  8
LC-001-002-----0
  6
CONTINUOUS
  5
157
 10
147.62345
 20
113.395826
 30
0.0
 11
145.87345
 21
113.395826
 31
0.0
  0
LINE
  8
LC-001-002-----0
  6
CONTINUOUS
  5
158
 10
88.624618
 20
112.44753
 30
0.0
 11
91.624617
 21
112.4486
 31
0.0
  0
LINE
  8
LC-001-002-----0
  6
CONTINUOUS
 62
     2
  5
159
 10
117.806561
 20
297.792092
 30
0.0
 11
117.806561
 21
312.792092
 31
0.0
  0
LINE
  8
LC-001-002-----0
  6
CONTINUOUS
  5
15A
 10
89.368546
 20
119.214904
 30
0.0
 11
82.281173
 21
116.635311
 31
0.0
  0
LINE
  8
LC-001-002-----0
  6
CONTINUOUS
  5
15B
 10
154.171313
 20
115.395826
 30
0.0
 11
121.622966
 21
115.395826
 31
0.0
  0
LINE
  8
LC-001-002-----0
  6
CONTINUOUS
 62
     2
  5
15C
 10
102.806561
 20
312.792092
 30
0.0
 11
117.806561
 21
312.792092
 31
0.0
  0
LINE
  8
LC-001-002-----0
  6
CONTINUOUS
 62
     2
  5
15D
 10
102.806561
 20
297.792092
 30
0.0
 11
102.806561
 21
312.792092
 31
0.0
  0
ARC
  8
LC-001-002-----0
  6
CONTINUOUS
  5
15E
 10
153.122713
 20
165.267929
 30
0.0
 40
1.25
 50
180.0
 51
0.0
  0
LINE
  8
LC-001-002-----0
  6
CONTINUOUS
 62
     2
  5
15F
 10
185.306424
 20
261.792092
 30
0.0
 11
200.306424
 21
261.792092
 31
0.0
  0
LINE
  8
LC-001-002-----0
  6
CONTINUOUS
 62
     2
  5
160
 10
200.306424
 20
261.792092
 30
0.0
 11
200.306424
 21
276.792092
 31
0.0
  0
ARC
  8
LC-001-002-----0
  6
CONTINUOUS
  5
161
 10
153.122713
 20
165.267929
 30
0.0
 40
1.25
 50
0.0
 51
180.0
  0
CIRCLE
  8
LC-001-002-----0
  6
CONTINUOUS
  5
162
 10
153.122713
 20
165.267929
 30
0.0
 40
1.5
  0
ARC
  8
LC-001-002-----0
  6
CONTINUOUS
  5
163
 10
90.122618
 20
165.267929
 30
0.0
 40
1.25
 50
0.0
 51
180.0
  0
LINE
  8
LC-001-002-----0
  6
CONTINUOUS
  5
164
 10
83.222966
 20
232.768276
 30
0.0
 11
83.222966
 21
160.768276
 31
0.0
  0
CIRCLE
  8
LC-001-002-----0
  6
CONTINUOUS
  5
165
 10
153.122713
 20
228.268624
 30
0.0
 40
1.5
  0
ARC
  8
LC-005-002-RND-0
  6
CONTINUOUS
  5
166
 10
157.622966
 20
232.768276
 30
0.0
 40
4.0
 50
0.0
 51
90.0
  0
ARC
  8
LC-005-002-RND-0
  6
CONTINUOUS
  5
167
 10
85.622966
 20
232.768276
 30
0.0
 40
4.0
 50
90.0
 51
180.0
  0
ARC
  8
LC-005-002-RND-0
  6
CONTINUOUS
  5
168
 10
85.622966
 20
160.768276
 30
0.0
 40
4.0
 50
180.0
 51
270.0
  0
ARC
  8
LC-005-002-RND-0
  6
CONTINUOUS
  5
169
 10
157.622966
 20
160.768276
 30
0.0
 40
4.0
 50
270.0
 51
0.0
  0
LINE
  8
LC-001-002-----0
  6
CONTINUOUS
  5
16A
 10
157.622966
 20
236.768276
 30
0.0
 11
85.622966
 21
236.768276
 31
0.0
  0
LINE
  8
LC-001-002-----0
  6
CONTINUOUS
  5
16B
 10
81.622966
 20
232.768276
 30
0.0
 11
81.622966
 21
160.768276
 31
0.0
  0
LINE
  8
LC-001-002-----0
  6
CONTINUOUS
  5
16C
 10
85.622966
 20
156.768276
 30
0.0
 11
157.622966
 21
156.768276
 31
0.0
  0
LINE
  8
LC-001-002-----0
  6
CONTINUOUS
  5
16D
 10
161.622966
 20
160.768276
 30
0.0
 11
161.622966
 21
232.768276
 31
0.0
  0
LINE
  8
LC-001-002-----0
  6
CONTINUOUS
  5
16E
 10
94.874193
 20
167.519503
 30
0.0
 11
148.371739
 21
167.519503
 31
0.0
  0
LINE
  8
LC-001-002-----0
  6
CONTINUOUS
  5
16F
 10
92.374193
 20
223.517049
 30
0.0
 11
92.374193
 21
170.019503
 31
0.0
  0
LINE
  8
LC-001-002-----0
  6
CONTINUOUS
 62
     2
  5
170
 10
185.306424
 20
276.792092
 30
0.0
 11
200.306424
 21
276.792092
 31
0.0
  0
LINE
  8
LC-001-002-----0
  6
CONTINUOUS
 62
     2
  5
171
 10
185.306424
 20
261.792092
 30
0.0
 11
185.306424
 21
276.792092
 31
0.0
  0
LINE
  8
LC-001-002-----0
  6
CONTINUOUS
  5
172
 10
147.62345
 20
114.595605
 30
0.0
 11
145.87345
 21
114.595605
 31
0.0
  0
LINE
  8
LC-001-002-----0
  6
CONTINUOUS
  5
173
 10
157.623029
 20
115.395826
 30
0.0
 11
158.123029
 21
115.395826
 31
0.0
  0
LINE
  8
LC-001-002-----0
  6
CONTINUOUS
  5
174
 10
150.871739
 20
170.019503
 30
0.0
 11
150.871739
 21
223.517049
 31
0.0
  0
LINE
  8
LC-001-002-----0
  6
CONTINUOUS
  5
175
 10
148.371739
 20
226.017049
 30
0.0
 11
94.874193
 21
226.017049
 31
0.0
  0
ARC
  8
LC-005-002-RND-0
  6
CONTINUOUS
  5
176
 10
94.874193
 20
223.517049
 30
0.0
 40
2.5
 50
90.0
 51
180.0
  0
LINE
  8
LC-001-002-----0
  6
CONTINUOUS
  5
177
 10
148.371739
 20
166.519503
 30
0.0
 11
94.874193
 21
166.519503
 31
0.0
  0
LINE
  8
LC-001-002-----0
  6
CONTINUOUS
  5
178
 10
151.871739
 20
223.517049
 30
0.0
 11
151.871739
 21
170.019503
 31
0.0
  0
LINE
  8
LC-001-002-----0
  6
CONTINUOUS
  5
179
 10
94.874193
 20
227.017049
 30
0.0
 11
148.371739
 21
227.017049
 31
0.0
  0
ARC
  8
LC-001-002-----0
  6
CONTINUOUS
  5
17A
 10
85.622966
 20
160.768276
 30
0.0
 40
2.4
 50
180.0
 51
270.0
  0
LINE
  8
LC-001-002-----0
  6
CONTINUOUS
  5
17B
 10
85.622966
 20
158.368276
 30
0.0
 11
157.622966
 21
158.368276
 31
0.0
  0
LINE
  8
LC-001-002-----0
  6
CONTINUOUS
  5
17C
 10
153.877386
 20
119.214904
 30
0.0
 11
160.964759
 21
116.635311
 31
0.0
  0
ARC
  8
LC-001-002-----0
  6
CONTINUOUS
  5
17D
 10
157.622966
 20
160.768276
 30
0.0
 40
2.4
 50
270.0
 51
0.0
  0
LINE
  8
LC-001-002-----0
  6
CONTINUOUS
  5
17E
 10
160.022966
 20
160.768276
 30
0.0
 11
160.022966
 21
232.768276
 31
0.0
  0
ARC
  8
LC-001-002-----0
  6
CONTINUOUS
  5
17F
 10
157.622966
 20
232.768276
 30
0.0
 40
2.4
 50
0.0
 51
90.0
  0
LINE
  8
LC-001-002-----0
  6
CONTINUOUS
  5
180
 10
157.622966
 20
235.168276
 30
0.0
 11
85.622966
 21
235.168276
 31
0.0
  0
LINE
  8
LC-001-002-----0
  6
DASHED
 62
     2
  5
181
 10
90.122966
 20
160.768276
 30
0.0
 11
153.122966
 21
160.768276
 31
0.0
  0
ARC
  8
LC-001-002-----0
  6
CONTINUOUS
  5
182
 10
85.622966
 20
232.768276
 30
0.0
 40
2.4
 50
90.0
 51
180.0
  0
ARC
  8
LC-001-002-----0
  6
DASHED
 62
     2
  5
183
 10
153.122966
 20
165.268276
 30
0.0
 40
4.5
 50
270.0
 51
0.0
  0
ARC
  8
LC-005-002-RND-0
  6
CONTINUOUS
  5
184
 10
148.371739
 20
223.517049
 30
0.0
 40
2.5
 50
0.0
 51
90.0
  0
ARC
  8
LC-005-002-RND-0
  6
CONTINUOUS
  5
185
 10
148.371739
 20
170.019503
 30
0.0
 40
2.5
 50
270.0
 51
0.0
  0
LINE
  8
LC-001-002-----0
  6
CONTINUOUS
  5
186
 10
91.374193
 20
170.019503
 30
0.0
 11
91.374193
 21
223.517049
 31
0.0
  0
ARC
  8
LC-005-002-RND-0
  6
CONTINUOUS
  5
187
 10
94.874193
 20
170.019503
 30
0.0
 40
2.5
 50
180.0
 51
270.0
  0
ARC
  8
LC-005-002-RND-0
  6
CONTINUOUS
  5
188
 10
94.874193
 20
170.019503
 30
0.0
 40
3.5
 50
180.0
 51
270.0
  0
ARC
  8
LC-005-002-RND-0
  6
CONTINUOUS
  5
189
 10
148.371739
 20
170.019503
 30
0.0
 40
3.5
 50
270.0
 51
0.0
  0
ARC
  8
LC-005-002-RND-0
  6
CONTINUOUS
  5
18A
 10
148.371739
 20
223.517049
 30
0.0
 40
3.5
 50
0.0
 51
90.0
  0
ARC
  8
LC-005-002-RND-0
  6
CONTINUOUS
  5
18B
 10
94.874193
 20
223.517049
 30
0.0
 40
3.5
 50
90.0
 51
180.0
  0
LINE
  8
LC-001-002-----0
  6
CONTINUOUS
  5
18C
 10
121.622966
 20
115.395826
 30
0.0
 11
157.623029
 21
115.395826
 31
0.0
  0
LINE
  8
LC-001-002-----0
  6
CONTINUOUS
  5
18D
 10
158.123029
 20
114.595567
 30
0.0
 11
158.123029
 21
115.395826
 31
0.0
  0
LINE
  8
LC-001-002-----0
  6
CONTINUOUS
  5
18E
 10
120.122966
 20
157.768276
 30
0.0
 11
120.122966
 21
156.768276
 31
0.0
  0
LINE
  8
LC-001-002-----0
  6
CONTINUOUS
  5
18F
 10
157.623029
 20
114.595567
 30
0.0
 11
157.623029
 21
115.395826
 31
0.0
  0
LINE
  8
LC-001-002-----0
  6
CONTINUOUS
  5
190
 10
123.122966
 20
157.768276
 30
0.0
 11
123.122966
 21
156.768276
 31
0.0
  0
LINE
  8
LC-001-002-----0
  6
CONTINUOUS
  5
191
 10
123.122966
 20
235.768276
 30
0.0
 11
123.122966
 21
236.768276
 31
0.0
  0
LINE
  8
LC-001-002-----0
  6
CONTINUOUS
  5
192
 10
120.122966
 20
235.768276
 30
0.0
 11
120.122966
 21
236.768276
 31
0.0
  0
LINE
  8
LC-001-002-----0
  6
CONTINUOUS
  5
193
 10
123.122966
 20
235.768276
 30
0.0
 11
120.122966
 21
235.768276
 31
0.0
  0
LINE
  8
LC-001-002-----0
  6
CONTINUOUS
  5
194
 10
120.122966
 20
157.768276
 30
0.0
 11
123.122966
 21
157.768276
 31
0.0
  0
ARC
  8
LC-001-002-----0
  6
CONTINUOUS
  5
195
 10
90.122618
 20
165.267929
 30
0.0
 40
1.25
 50
180.0
 51
0.0
  0
LINE
  8
LC-001-002-----0
  6
DASHED
 62
     2
  5
196
 10
90.373193
 20
117.984299
 30
0.0
 11
91.374193
 21
117.984299
 31
0.0
  0
CIRCLE
  8
LC-001-002-----0
  6
CONTINUOUS
  5
197
 10
90.122618
 20
228.268624
 30
0.0
 40
1.5
  0
CIRCLE
  8
LC-001-002-----0
  6
CONTINUOUS
  5
198
 10
90.122618
 20
165.267929
 30
0.0
 40
1.5
  0
ARC
  8
LC-001-002-----0
  6
CONTINUOUS
  5
199
 10
153.122713
 20
228.268624
 30
0.0
 40
1.25
 50
180.0
 51
0.0
  0
ARC
  8
LC-001-002-----0
  6
CONTINUOUS
  5
19A
 10
153.122713
 20
228.268624
 30
0.0
 40
1.25
 50
0.0
 51
180.0
  0
LINE
  8
LC-001-002-----0
  6
CONTINUOUS
  5
19B
 10
91.624618
 20
112.4486
 30
0.0
 11
91.624618
 21
115.395826
 31
0.0
  0
LINE
  8
LC-001-002-----0
  6
CONTINUOUS
  5
19C
 10
88.624618
 20
112.44753
 30
0.0
 11
88.624618
 21
115.395826
 31
0.0
  0
ARC
  8
LC-001-002-----0
  6
CONTINUOUS
  5
19D
 10
90.122618
 20
228.268624
 30
0.0
 40
1.25
 50
0.0
 51
180.0
  0
ARC
  8
LC-001-002-----0
  6
CONTINUOUS
  5
19E
 10
90.122618
 20
228.268624
 30
0.0
 40
1.25
 50
180.0
 51
0.0
  0
LINE
  8
LC-001-002-----0
  6
DASHED
 62
     2
  5
19F
 10
88.624618
 20
115.395826
 30
0.0
 11
88.624618
 21
117.34787
 31
0.0
  0
LINE
  8
LC-001-002-----0
  6
DASHED
 62
     2
  5
1A0
 10
91.624618
 20
115.395826
 30
0.0
 11
91.624618
 21
117.984299
 31
0.0
  0
ARC
  8
LC-005-002-RND-0
  6
DASHED
 62
     2
  5
1A1
 10
151.871739
 20
118.395826
 30
0.0
 40
1.0
 50
90.0
 51
180.0
  0
ARC
  8
LC-005-002-RND-0
  6
DASHED
 62
     2
  5
1A2
 10
91.374193
 20
118.395826
 30
0.0
 40
1.0
 50
0.0
 51
90.0
  0
LINE
  8
LC-001-002-----0
  6
DASHED
 62
     2
  5
1A3
 10
91.374193
 20
117.984299
 30
0.0
 11
91.624618
 21
117.984299
 31
0.0
  0
LINE
  8
LC-001-002-----0
  6
DASHED
 62
     2
  5
1A4
 10
157.622966
 20
165.268276
 30
0.0
 11
157.622966
 21
228.268276
 31
0.0
  0
ARC
  8
LC-001-002-----0
  6
DASHED
 62
     2
  5
1A5
 10
153.122966
 20
228.268276
 30
0.0
 40
4.5
 50
0.0
 51
90.0
  0
LINE
  8
LC-001-002-----0
  6
DASHED
 62
     2
  5
1A6
 10
153.122966
 20
232.768276
 30
0.0
 11
90.122966
 21
232.768276
 31
0.0
  0
ARC
  8
LC-001-002-----0
  6
DASHED
 62
     2
  5
1A7
 10
90.122966
 20
228.268276
 30
0.0
 40
4.5
 50
90.0
 51
180.0
  0
LINE
  8
LC-001-002-----0
  6
DASHED
 62
     2
  5
1A8
 10
85.622966
 20
228.268276
 30
0.0
 11
85.622966
 21
165.268276
 31
0.0
  0
ARC
  8
LC-001-002-----0
  6
DASHED
 62
     2
  5
1A9
 10
90.122966
 20
165.268276
 30
0.0
 40
4.5
 50
180.0
 51
270.0
  0
ENDSEC
  0
EOF
