  0
SECTION
  2
HEADER
  9
$ACADVER
  1
AC1015
  9
$ACADMAINTVER
 70
     6
  9
$DWGCODEPAGE
  3
ANSI_1252
  9
$INSBASE
 10
0.0
 20
0.0
 30
0.0
  9
$EXTMIN
 10
-283.960703
 20
-205.426515
 30
0.0
  9
$EXTMAX
 10
556.039297
 20
388.573485
 30
0.0
  9
$LIMMIN
 10
-283.960703
 20
-205.426515
  9
$LIMMAX
 10
556.039297
 20
388.573485
  9
$ORTHOMODE
 70
     0
  9
$REGENMODE
 70
     1
  9
$FILLMODE
 70
     1
  9
$QTEXTMODE
 70
     0
  9
$MIRRTEXT
 70
     1
  9
$LTSCALE
 40
2.0
  9
$ATTMODE
 70
     1
  9
$TEXTSIZE
 40
2.5
  9
$TRACEWID
 40
1.0
  9
$TEXTSTYLE
  7
Standard
  9
$CLAYER
  8
0
  9
$CELTYPE
  6
ByLayer
  9
$CECOLOR
 62
     7
  9
$CELTSCALE
 40
1.0
  9
$DISPSILH
 70
     0
  9
$DIMSCALE
 40
2.0
  9
$DIMASZ
 40
3.5
  9
$DIMEXO
 40
0.625
  9
$DIMDLI
 40
3.75
  9
$DIMRND
 40
0.0
  9
$DIMDLE
 40
0.0
  9
$DIMEXE
 40
1.25
  9
$DIMTP
 40
0.0
  9
$DIMTM
 40
0.0
  9
$DIMTXT
 40
3.5
  9
$DIMCEN
 40
2.5
  9
$DIMTSZ
 40
0.0
  9
$DIMTOL
 70
     0
  9
$DIMLIM
 70
     0
  9
$DIMTIH
 70
     0
  9
$DIMTOH
 70
     0
  9
$DIMSE1
 70
     0
  9
$DIMSE2
 70
     0
  9
$DIMTAD
 70
     1
  9
$DIMZIN
 70
     8
  9
$DIMBLK
  1

  9
$DIMASO
 70
     1
  9
$DIMSHO
 70
     1
  9
$DIMPOST
  1

  9
$DIMAPOST
  1

  9
$DIMALT
 70
     0
  9
$DIMALTD
 70
     3
  9
$DIMALTF
 40
0.03937
  9
$DIMLFAC
 40
1.0
  9
$DIMTOFL
 70
     1
  9
$DIMTVP
 40
0.0
  9
$DIMTIX
 70
     0
  9
$DIMSOXD
 70
     0
  9
$DIMSAH
 70
     0
  9
$DIMBLK1
  1

  9
$DIMBLK2
  1

  9
$DIMSTYLE
  2
ISO-25
  9
$DIMCLRD
 70
     0
  9
$DIMCLRE
 70
     0
  9
$DIMCLRT
 70
     0
  9
$DIMTFAC
 40
1.0
  9
$DIMGAP
 40
0.625
  9
$DIMJUST
 70
     0
  9
$DIMSD1
 70
     0
  9
$DIMSD2
 70
     0
  9
$DIMTOLJ
 70
     0
  9
$DIMTZIN
 70
     8
  9
$DIMALTZ
 70
     0
  9
$DIMALTTZ
 70
     0
  9
$DIMUPT
 70
     0
  9
$DIMDEC
 70
     2
  9
$DIMTDEC
 70
     2
  9
$DIMALTU
 70
     2
  9
$DIMALTTD
 70
     3
  9
$DIMTXSTY
  7
Standard
  9
$DIMAUNIT
 70
     0
  9
$DIMADEC
 70
     0
  9
$DIMALTRND
 40
0.0
  9
$DIMAZIN
 70
     0
  9
$DIMDSEP
 70
    44
  9
$DIMATFIT
 70
     3
  9
$DIMFRAC
 70
     0
  9
$DIMLDRBLK
  1

  9
$DIMLUNIT
 70
     2
  9
$DIMLWD
 70
    -2
  9
$DIMLWE
 70
    -2
  9
$DIMTMOVE
 70
     0
  9
$LUNITS
 70
     2
  9
$LUPREC
 70
     4
  9
$SKETCHINC
 40
1.0
  9
$FILLETRAD
 40
10.0
  9
$AUNITS
 70
     0
  9
$AUPREC
 70
     0
  9
$MENU
  1
.
  9
$ELEVATION
 40
0.0
  9
$PELEVATION
 40
0.0
  9
$THICKNESS
 40
0.0
  9
$LIMCHECK
 70
     0
  9
$CHAMFERA
 40
10.0
  9
$CHAMFERB
 40
10.0
  9
$CHAMFERC
 40
20.0
  9
$CHAMFERD
 40
0.0
  9
$SKPOLY
 70
     0
  9
$TDCREATE
 40
2455601.375045648
  9
$TDUCREATE
 40
2455601.333378981
  9
$TDUPDATE
 40
2455601.37504566
  9
$TDUUPDATE
 40
2455601.333378993
  9
$TDINDWG
 40
0.0000000116
  9
$TDUSRTIMER
 40
0.0000000116
  9
$USRTIMER
 70
     1
  9
$ANGBASE
 50
0.0
  9
$ANGDIR
 70
     0
  9
$PDMODE
 70
     0
  9
$PDSIZE
 40
0.0
  9
$PLINEWID
 40
0.0
  9
$SPLFRAME
 70
     0
  9
$SPLINETYPE
 70
     6
  9
$SPLINESEGS
 70
     8
  9
$HANDSEED
  5
2CD
  9
$SURFTAB1
 70
     6
  9
$SURFTAB2
 70
     6
  9
$SURFTYPE
 70
     6
  9
$SURFU
 70
     6
  9
$SURFV
 70
     6
  9
$UCSBASE
  2

  9
$UCSNAME
  2

  9
$UCSORG
 10
0.0
 20
0.0
 30
0.0
  9
$UCSXDIR
 10
1.0
 20
0.0
 30
0.0
  9
$UCSYDIR
 10
0.0
 20
1.0
 30
0.0
  9
$UCSORTHOREF
  2

  9
$UCSORTHOVIEW
 70
     0
  9
$UCSORGTOP
 10
0.0
 20
0.0
 30
0.0
  9
$UCSORGBOTTOM
 10
0.0
 20
0.0
 30
0.0
  9
$UCSORGLEFT
 10
0.0
 20
0.0
 30
0.0
  9
$UCSORGRIGHT
 10
0.0
 20
0.0
 30
0.0
  9
$UCSORGFRONT
 10
0.0
 20
0.0
 30
0.0
  9
$UCSORGBACK
 10
0.0
 20
0.0
 30
0.0
  9
$PUCSBASE
  2

  9
$PUCSNAME
  2

  9
$PUCSORG
 10
0.0
 20
0.0
 30
0.0
  9
$PUCSXDIR
 10
1.0
 20
0.0
 30
0.0
  9
$PUCSYDIR
 10
0.0
 20
1.0
 30
0.0
  9
$PUCSORTHOREF
  2

  9
$PUCSORTHOVIEW
 70
     0
  9
$PUCSORGTOP
 10
0.0
 20
0.0
 30
0.0
  9
$PUCSORGBOTTOM
 10
0.0
 20
0.0
 30
0.0
  9
$PUCSORGLEFT
 10
0.0
 20
0.0
 30
0.0
  9
$PUCSORGRIGHT
 10
0.0
 20
0.0
 30
0.0
  9
$PUCSORGFRONT
 10
0.0
 20
0.0
 30
0.0
  9
$PUCSORGBACK
 10
0.0
 20
0.0
 30
0.0
  9
$USERI1
 70
     0
  9
$USERI2
 70
     0
  9
$USERI3
 70
     0
  9
$USERI4
 70
     0
  9
$USERI5
 70
     0
  9
$USERR1
 40
0.0
  9
$USERR2
 40
0.0
  9
$USERR3
 40
0.0
  9
$USERR4
 40
0.0
  9
$USERR5
 40
0.0
  9
$WORLDVIEW
 70
     1
  9
$SHADEDGE
 70
     3
  9
$SHADEDIF
 70
    70
  9
$TILEMODE
 70
     1
  9
$MAXACTVP
 70
    64
  9
$PINSBASE
 10
0.0
 20
0.0
 30
0.0
  9
$PLIMCHECK
 70
     0
  9
$PEXTMIN
 10
-283.960703
 20
-205.426515
 30
0.0
  9
$PEXTMAX
 10
556.039297
 20
388.573485
 30
0.0
  9
$PLIMMIN
 10
-283.960703
 20
-205.426515
  9
$PLIMMAX
 10
556.039297
 20
388.573485
  9
$UNITMODE
 70
     0
  9
$VISRETAIN
 70
     1
  9
$PLINEGEN
 70
     0
  9
$PSLTSCALE
 70
     1
  9
$TREEDEPTH
 70
  3020
  9
$CMLSTYLE
  2
Standard
  9
$CMLJUST
 70
     0
  9
$CMLSCALE
 40
20.0
  9
$PROXYGRAPHICS
 70
     1
  9
$MEASUREMENT
 70
     1
  9
$CELWEIGHT
370
    -1
  9
$ENDCAPS
280
     0
  9
$JOINSTYLE
280
     0
  9
$LWDISPLAY
290
     0
  9
$INSUNITS
 70
     4
  9
$HYPERLINKBASE
  1

  9
$STYLESHEET
  1

  9
$XEDIT
290
     1
  9
$CEPSNTYPE
380
     0
  9
$PSTYLEMODE
290
     1
  9
$FINGERPRINTGUID
  2
{FAEB1C30-E019-11D5-929B-00C0DF256EC4}
  9
$VERSIONGUID
  2
{FAEB1C32-E019-11D5-929B-00C0DF256EC4}
  9
$EXTNAMES
290
     1
  9
$PSVPSCALE
 40
0.0
  9
$OLESTARTUP
290
     0
  0
ENDSEC
  0
SECTION
  2
CLASSES
  0
CLASS
  1
ACDBDICTIONARYWDFLT
  2
AcDbDictionaryWithDefault
  3
ObjectDBX Classes
 90
        0
280
     0
281
     0
  0
CLASS
  1
ACDBPLACEHOLDER
  2
AcDbPlaceHolder
  3
ObjectDBX Classes
 90
        0
280
     0
281
     0
  0
CLASS
  1
LAYOUT
  2
AcDbLayout
  3
ObjectDBX Classes
 90
        0
280
     0
281
     0
  0
ENDSEC
  0
SECTION
  2
TABLES
  0
TABLE
  2
VPORT
  5
8
330
0
100
AcDbSymbolTable
 70
     2
  0
VPORT
  5
29
330
8
100
AcDbSymbolTableRecord
100
AcDbViewportTableRecord
  2
*ACTIVE
 70
     0
 10
0.0
 20
0.0
 11
1.0
 21
1.0
 12
136.039297
 22
91.573485
 13
0.0
 23
0.0
 14
1.0
 24
1.0
 15
0.0
 25
0.0
 16
0.0
 26
0.0
 36
1.0
 17
0.0
 27
0.0
 37
0.0
 40
594.0
 41
1.414141
 42
50.0
 43
0.0
 44
0.0
 50
0.0
 51
0.0
 71
    16
 72
   100
 73
     1
 74
     0
 75
     0
 76
     0
 77
     0
 78
     0
281
     0
 65
     0
110
0.0
120
0.0
130
0.0
111
1.0
121
0.0
131
0.0
112
0.0
122
1.0
132
0.0
 79
     0
146
0.0
  0
ENDTAB
  0
TABLE
  2
LTYPE
  5
5
330
0
100
AcDbSymbolTable
 70
     3
  0
LTYPE
  5
14
330
5
100
AcDbSymbolTableRecord
100
AcDbLinetypeTableRecord
  2
ByBlock
 70
     0
  3

 72
    65
 73
     0
 40
0.0
  0
LTYPE
  5
15
330
5
100
AcDbSymbolTableRecord
100
AcDbLinetypeTableRecord
  2
ByLayer
 70
     0
  3

 72
    65
 73
     0
 40
0.0
  0
LTYPE
  5
16
330
5
100
AcDbSymbolTableRecord
100
AcDbLinetypeTableRecord
  2
Continuous
 70
     0
  3
Solid line
 72
    65
 73
     0
 40
0.0
  0
LTYPE
  5
2A
330
5
100
AcDbSymbolTableRecord
100
AcDbLinetypeTableRecord
  2
DASHED
 70
     0
  3
__ __ __ __ __
 72
    65
 73
     2
 40
6.25
 49
5.0
 74
     4
 75
     0
340
0
 46
1.0
 50
0.0
 44
0.0
 45
0.0
 49
-1.25
 74
     4
 75
     0
340
0
 46
1.0
 50
0.0
 44
0.0
 45
0.0
  0
LTYPE
  5
30
330
5
100
AcDbSymbolTableRecord
100
AcDbLinetypeTableRecord
  2
DASHDOT
 70
     0
  3
__ . __ . __ . __ . __
 72
    65
 73
     4
 40
7.5
 49
5.0
 74
     4
 75
     0
340
0
 46
1.0
 50
0.0
 44
0.0
 45
0.0
 49
-1.25
 74
     4
 75
     0
340
0
 46
1.0
 50
0.0
 44
0.0
 45
0.0
 49
0.0
 74
     4
 75
     0
340
0
 46
1.0
 50
0.0
 44
0.0
 45
0.0
 49
-1.25
 74
     4
 75
     0
340
0
 46
1.0
 50
0.0
 44
0.0
 45
0.0
  0
ENDTAB
  0
TABLE
  2
LAYER
  5
2
330
0
100
AcDbSymbolTable
 70
    11
  0
LAYER
  5
10
330
2
100
AcDbSymbolTableRecord
100
AcDbLayerTableRecord
  2
0
 70
     0
 62
     7
  6
Continuous
370
    -3
390
F
  0
LAYER
  5
2B
330
2
100
AcDbSymbolTableRecord
100
AcDbLayerTableRecord
  2
LC-INFO-1-2-mm-A3-0
 70
     1
 62
     7
  6
ByBlock
370
    -3
390
F
  0
LAYER
  5
2C
330
2
100
AcDbSymbolTableRecord
100
AcDbLayerTableRecord
  2
LC-CUT-HIDDEN
 70
     0
 62
     7
  6
DASHED
370
    -3
390
F
  0
LAYER
  5
2D
330
2
100
AcDbSymbolTableRecord
100
AcDbLayerTableRecord
  2
LC-VIEWPORT
 70
     0
 62
     7
  6
ByBlock
370
    -3
390
F
  0
LAYER
  5
2E
330
2
100
AcDbSymbolTableRecord
100
AcDbLayerTableRecord
  2
LC-3D-HIDDEN
 70
     0
 62
     9
  6
DASHED
370
    -3
390
F
  0
LAYER
  5
31
330
2
100
AcDbSymbolTableRecord
100
AcDbLayerTableRecord
  2
LC-001-002-----0
 70
     0
 62
     2
  6
DASHDOT
370
    -3
390
F
  0
LAYER
  5
33
330
2
100
AcDbSymbolTableRecord
100
AcDbLayerTableRecord
  2
LC-002-100-D00-0
 70
     0
 62
     1
  6
ByBlock
370
    -3
390
F
  0
LAYER
  5
257
330
2
100
AcDbSymbolTableRecord
100
AcDbLayerTableRecord
  2
Defpoints
 70
     0
 62
     7
  6
Continuous
290
     0
370
    -3
390
F
  0
LAYER
  5
2B0
330
2
100
AcDbSymbolTableRecord
100
AcDbLayerTableRecord
  2
LC-003-003-----0
 70
     0
 62
     7
  6
ByBlock
370
    -3
390
F
  0
LAYER
  5
2C6
330
2
100
AcDbSymbolTableRecord
100
AcDbLayerTableRecord
  2
LC-004-003-MTG-0
 70
     0
 62
     2
  6
ByBlock
370
    -3
390
F
  0
LAYER
  5
2C9
330
2
100
AcDbSymbolTableRecord
100
AcDbLayerTableRecord
  2
LC-005-003-MTH-0
 70
     0
 62
     2
  6
ByBlock
370
    -3
390
F
  0
ENDTAB
  0
TABLE
  2
STYLE
  5
3
330
0
100
AcDbSymbolTable
 70
     3
  0
STYLE
  5
11
330
3
100
AcDbSymbolTableRecord
100
AcDbTextStyleTableRecord
  2
Standard
 70
     0
 40
0.0
 41
1.0
 50
0.0
 71
     0
 42
2.5
  3
txt
  4

  0
STYLE
  5
2F
330
3
100
AcDbSymbolTableRecord
100
AcDbTextStyleTableRecord
  2
LCTX15-400-0-0-Arial
 70
     0
 40
0.0
 41
0.8
 50
0.0
 71
     0
 42
3.5
  3
ARIAL.TTF
  4

1001
ACAD
1000
Arial
1071
 16777218
  0
STYLE
  5
254
330
3
100
AcDbSymbolTableRecord
100
AcDbTextStyleTableRecord
  2
LCTX15-400-0-0pDIN-Schrift
 70
     0
 40
2.5
 41
0.8
 50
15.0
 71
     0
 42
3.5
  3
STANDARD
  4

  0
ENDTAB
  0
TABLE
  2
VIEW
  5
6
330
0
100
AcDbSymbolTable
 70
     0
  0
ENDTAB
  0
TABLE
  2
UCS
  5
7
330
0
100
AcDbSymbolTable
 70
     0
  0
ENDTAB
  0
TABLE
  2
APPID
  5
9
330
0
100
AcDbSymbolTable
 70
     1
  0
APPID
  5
12
330
9
100
AcDbSymbolTableRecord
100
AcDbRegAppTableRecord
  2
ACAD
 70
     0
  0
ENDTAB
  0
TABLE
  2
DIMSTYLE
  5
A
330
0
100
AcDbSymbolTable
 70
     4
100
AcDbDimStyleTable
  0
DIMSTYLE
105
27
330
A
100
AcDbSymbolTableRecord
100
AcDbDimStyleTableRecord
  2
ISO-25
 70
     0
 41
2.5
 42
0.625
 43
3.75
 44
1.25
 73
     0
 74
     0
 77
     1
 78
     8
140
2.5
141
2.5
143
0.03937
147
0.625
171
     3
172
     1
271
     2
272
     2
274
     3
278
    44
283
     0
284
     8
340
11
  0
DIMSTYLE
105
255
102
{ACAD_REACTORS
330
256
330
265
330
272
330
27F
330
28E
102
}
330
A
100
AcDbSymbolTableRecord
100
AcDbDimStyleTableRecord
  2
LC-DIM-L-0140-02-02
 70
     0
 40
2.0
 41
14.0
 42
0.0
 43
7.5
 44
1.8
 73
     0
 74
     0
 77
     1
 78
     8
 79
     2
140
14.0
141
0.0
146
0.71
147
1.5
176
     2
177
     2
178
     2
179
     2
271
     2
278
    44
289
     1
340
254
  0
DIMSTYLE
105
29B
102
{ACAD_REACTORS
330
29C
102
}
330
A
100
AcDbSymbolTableRecord
100
AcDbDimStyleTableRecord
  2
LC-DIM-L-0140-01-02
 70
     0
 40
2.0
 41
14.0
 42
0.0
 43
7.5
 44
1.8
 73
     0
 74
     0
 77
     1
 78
     8
 79
     2
140
14.0
141
0.0
146
0.71
147
1.5
176
     2
177
     2
178
     2
179
     1
271
     1
278
    44
289
     1
340
254
  0
DIMSTYLE
105
2AC
330
A
100
AcDbSymbolTableRecord
100
AcDbDimStyleTableRecord
  2
LC-DIM-W-0140-02-02
 70
     0
 40
2.0
 41
14.0
 42
0.0
 43
7.5
 44
1.8
 73
     0
 74
     0
 77
     1
 78
     8
 79
     2
140
14.0
141
0.0
146
0.71
147
1.5
176
     2
177
     2
178
     2
179
     2
271
     2
278
    44
289
     1
340
254
  0
ENDTAB
  0
TABLE
  2
BLOCK_RECORD
  5
1
330
0
100
AcDbSymbolTable
 70
    27
  0
BLOCK_RECORD
  5
1F
330
1
100
AcDbSymbolTableRecord
100
AcDbBlockTableRecord
  2
*Model_Space
340
22
  0
BLOCK_RECORD
  5
1B
330
1
100
AcDbSymbolTableRecord
100
AcDbBlockTableRecord
  2
*Paper_Space
340
1E
  0
BLOCK_RECORD
  5
23
330
1
100
AcDbSymbolTableRecord
100
AcDbBlockTableRecord
  2
*Paper_Space0
340
26
  0
BLOCK_RECORD
  5
3C
330
1
100
AcDbSymbolTableRecord
100
AcDbBlockTableRecord
  2
POLY1
340
0
102
{BLKREFS
331
49
102
}
  0
BLOCK_RECORD
  5
5D
330
1
100
AcDbSymbolTableRecord
100
AcDbBlockTableRecord
  2
POLY2
340
0
102
{BLKREFS
331
6A
102
}
  0
BLOCK_RECORD
  5
7B
330
1
100
AcDbSymbolTableRecord
100
AcDbBlockTableRecord
  2
POLY3
340
0
102
{BLKREFS
331
86
102
}
  0
BLOCK_RECORD
  5
AA
330
1
100
AcDbSymbolTableRecord
100
AcDbBlockTableRecord
  2
POLY4
340
0
102
{BLKREFS
331
B5
102
}
  0
BLOCK_RECORD
  5
159
330
1
100
AcDbSymbolTableRecord
100
AcDbBlockTableRecord
  2
POLY5
340
0
102
{BLKREFS
331
16C
102
}
  0
BLOCK_RECORD
  5
16D
330
1
100
AcDbSymbolTableRecord
100
AcDbBlockTableRecord
  2
POLY6
340
0
102
{BLKREFS
331
18A
102
}
  0
BLOCK_RECORD
  5
1A7
330
1
100
AcDbSymbolTableRecord
100
AcDbBlockTableRecord
  2
KLON1
340
0
102
{BLKREFS
331
1AC
102
}
  0
BLOCK_RECORD
  5
1AD
330
1
100
AcDbSymbolTableRecord
100
AcDbBlockTableRecord
  2
KLON2
340
0
102
{BLKREFS
331
1B2
102
}
  0
BLOCK_RECORD
  5
1F9
330
1
100
AcDbSymbolTableRecord
100
AcDbBlockTableRecord
  2
KLON3
340
0
102
{BLKREFS
331
1FE
102
}
  0
BLOCK_RECORD
  5
200
330
1
100
AcDbSymbolTableRecord
100
AcDbBlockTableRecord
  2
KLON4
340
0
102
{BLKREFS
331
207
102
}
  0
BLOCK_RECORD
  5
208
330
1
100
AcDbSymbolTableRecord
100
AcDbBlockTableRecord
  2
KLON5
340
0
102
{BLKREFS
331
20F
102
}
  0
BLOCK_RECORD
  5
210
330
1
100
AcDbSymbolTableRecord
100
AcDbBlockTableRecord
  2
KLON6
340
0
102
{BLKREFS
331
215
102
}
  0
BLOCK_RECORD
  5
216
330
1
100
AcDbSymbolTableRecord
100
AcDbBlockTableRecord
  2
KLON7
340
0
102
{BLKREFS
331
222
102
}
  0
BLOCK_RECORD
  5
224
330
1
100
AcDbSymbolTableRecord
100
AcDbBlockTableRecord
  2
KLON8
340
0
102
{BLKREFS
331
229
102
}
  0
BLOCK_RECORD
  5
22A
330
1
100
AcDbSymbolTableRecord
100
AcDbBlockTableRecord
  2
KLON9
340
0
102
{BLKREFS
331
22F
102
}
  0
BLOCK_RECORD
  5
230
330
1
100
AcDbSymbolTableRecord
100
AcDbBlockTableRecord
  2
KLON10
340
0
102
{BLKREFS
331
235
102
}
  0
BLOCK_RECORD
  5
237
330
1
100
AcDbSymbolTableRecord
100
AcDbBlockTableRecord
  2
KLON11
340
0
102
{BLKREFS
331
242
102
}
  0
BLOCK_RECORD
  5
243
330
1
100
AcDbSymbolTableRecord
100
AcDbBlockTableRecord
  2
KLON12
340
0
102
{BLKREFS
331
24A
102
}
  0
BLOCK_RECORD
  5
24B
330
1
100
AcDbSymbolTableRecord
100
AcDbBlockTableRecord
  2
KLON13
340
0
102
{BLKREFS
331
253
102
}
  0
BLOCK_RECORD
  5
258
330
1
100
AcDbSymbolTableRecord
100
AcDbBlockTableRecord
  2
*D20
340
0
  0
BLOCK_RECORD
  5
266
330
1
100
AcDbSymbolTableRecord
100
AcDbBlockTableRecord
  2
*D21
340
0
  0
BLOCK_RECORD
  5
273
330
1
100
AcDbSymbolTableRecord
100
AcDbBlockTableRecord
  2
*D22
340
0
  0
BLOCK_RECORD
  5
280
330
1
100
AcDbSymbolTableRecord
100
AcDbBlockTableRecord
  2
*D23
340
0
  0
BLOCK_RECORD
  5
28F
330
1
100
AcDbSymbolTableRecord
100
AcDbBlockTableRecord
  2
*D24
340
0
  0
BLOCK_RECORD
  5
29D
330
1
100
AcDbSymbolTableRecord
100
AcDbBlockTableRecord
  2
*D25
340
0
  0
BLOCK_RECORD
  5
2AD
330
1
100
AcDbSymbolTableRecord
100
AcDbBlockTableRecord
  2
LCDIM1
340
0
102
{BLKREFS
331
2CC
102
}
  0
ENDTAB
  0
ENDSEC
  0
SECTION
  2
BLOCKS
  0
BLOCK
  5
20
330
1F
100
AcDbEntity
  8
0
100
AcDbBlockBegin
  2
*Model_Space
 70
     0
 71
     0
 10
0.0
 20
0.0
 30
0.0
  3
*Model_Space
  1

  0
ENDBLK
  5
21
330
1F
100
AcDbEntity
  8
0
100
AcDbBlockEnd
  0
BLOCK
  5
1C
330
1B
100
AcDbEntity
 67
     1
  8
0
100
AcDbBlockBegin
  2
*Paper_Space
 70
     0
 71
     0
 10
0.0
 20
0.0
 30
0.0
  3
*Paper_Space
  1

  0
ENDBLK
  5
1D
330
1B
100
AcDbEntity
 67
     1
  8
0
100
AcDbBlockEnd
  0
BLOCK
  5
24
330
23
100
AcDbEntity
  8
0
100
AcDbBlockBegin
  2
*Paper_Space0
 70
     0
 71
     0
 10
0.0
 20
0.0
 30
0.0
  3
*Paper_Space0
  1

  0
ENDBLK
  5
25
330
23
100
AcDbEntity
  8
0
100
AcDbBlockEnd
  0
BLOCK
  5
3D
330
3C
100
AcDbEntity
  8
0
100
AcDbBlockBegin
  2
POLY1
 70
     0
 71
     0
 10
0.0
 20
0.0
 30
0.0
  3
POLY1
  1

  4
POLY1
  0
LINE
  5
3F
330
3C
100
AcDbEntity
  8
LC-002-100-D00-0
 62
     7
370
    50
100
AcDbLine
 10
159.15605
 20
177.245535
 30
0.0
 11
159.15605
 21
177.245535
 31
0.0
  0
LINE
  5
40
330
3C
100
AcDbEntity
  8
LC-002-100-D00-0
 62
     7
370
    50
100
AcDbLine
 10
159.15605
 20
177.245535
 30
0.0
 11
159.189825
 21
177.227686
 31
0.0
  0
LINE
  5
41
330
3C
100
AcDbEntity
  8
LC-002-100-D00-0
 62
     7
370
    50
100
AcDbLine
 10
159.189825
 20
177.227686
 30
0.0
 11
159.189825
 21
177.227686
 31
0.0
  0
LINE
  5
42
330
3C
100
AcDbEntity
  8
LC-002-100-D00-0
 62
     7
370
    50
100
AcDbLine
 10
159.189825
 20
177.227686
 30
0.0
 11
159.335042
 21
177.150942
 31
0.0
  0
LINE
  5
43
330
3C
100
AcDbEntity
  8
LC-002-100-D00-0
 62
     7
370
    50
100
AcDbLine
 10
159.335042
 20
177.150942
 30
0.0
 11
159.335042
 21
177.150942
 31
0.0
  0
LINE
  5
44
330
3C
100
AcDbEntity
  8
LC-002-100-D00-0
 62
     7
370
    50
100
AcDbLine
 10
159.335042
 20
177.150942
 30
0.0
 11
159.817509
 21
176.887693
 31
0.0
  0
LINE
  5
45
330
3C
100
AcDbEntity
  8
LC-002-100-D00-0
 62
     7
370
    50
100
AcDbLine
 10
159.817509
 20
176.887693
 30
0.0
 11
159.817509
 21
176.887693
 31
0.0
  0
LINE
  5
46
330
3C
100
AcDbEntity
  8
LC-002-100-D00-0
 62
     7
370
    50
100
AcDbLine
 10
159.817509
 20
176.887693
 30
0.0
 11
160.285211
 21
176.610908
 31
0.0
  0
LINE
  5
47
330
3C
100
AcDbEntity
  8
LC-002-100-D00-0
 62
     7
370
    50
100
AcDbLine
 10
160.285211
 20
176.610908
 30
0.0
 11
160.285211
 21
176.610908
 31
0.0
  0
LINE
  5
48
330
3C
100
AcDbEntity
  8
LC-002-100-D00-0
 62
     7
370
    50
100
AcDbLine
 10
160.285211
 20
176.610908
 30
0.0
 11
160.596501
 21
176.426687
 31
0.0
  0
ENDBLK
  5
3E
330
3C
100
AcDbEntity
  8
0
100
AcDbBlockEnd
  0
BLOCK
  5
5E
330
5D
100
AcDbEntity
  8
0
100
AcDbBlockBegin
  2
POLY2
 70
     0
 71
     0
 10
0.0
 20
0.0
 30
0.0
  3
POLY2
  1

  4
POLY2
  0
LINE
  5
60
330
5D
100
AcDbEntity
  8
LC-002-100-D00-0
 62
     7
370
    50
100
AcDbLine
 10
160.596501
 20
176.426687
 30
0.0
 11
160.596501
 21
176.426687
 31
0.0
  0
LINE
  5
61
330
5D
100
AcDbEntity
  8
LC-002-100-D00-0
 62
     7
370
    50
100
AcDbLine
 10
160.596501
 20
176.426687
 30
0.0
 11
160.890871
 21
176.245118
 31
0.0
  0
LINE
  5
62
330
5D
100
AcDbEntity
  8
LC-002-100-D00-0
 62
     7
370
    50
100
AcDbLine
 10
160.890871
 20
176.245118
 30
0.0
 11
160.890871
 21
176.245118
 31
0.0
  0
LINE
  5
63
330
5D
100
AcDbEntity
  8
LC-002-100-D00-0
 62
     7
370
    50
100
AcDbLine
 10
160.890871
 20
176.245118
 30
0.0
 11
161.332694
 21
175.972599
 31
0.0
  0
LINE
  5
64
330
5D
100
AcDbEntity
  8
LC-002-100-D00-0
 62
     7
370
    50
100
AcDbLine
 10
161.332694
 20
175.972599
 30
0.0
 11
161.332694
 21
175.972599
 31
0.0
  0
LINE
  5
65
330
5D
100
AcDbEntity
  8
LC-002-100-D00-0
 62
     7
370
    50
100
AcDbLine
 10
161.332694
 20
175.972599
 30
0.0
 11
161.779017
 21
175.677079
 31
0.0
  0
LINE
  5
66
330
5D
100
AcDbEntity
  8
LC-002-100-D00-0
 62
     7
370
    50
100
AcDbLine
 10
161.779017
 20
175.677079
 30
0.0
 11
161.779017
 21
175.677079
 31
0.0
  0
LINE
  5
67
330
5D
100
AcDbEntity
  8
LC-002-100-D00-0
 62
     7
370
    50
100
AcDbLine
 10
161.779017
 20
175.677079
 30
0.0
 11
161.898653
 21
175.595638
 31
0.0
  0
LINE
  5
68
330
5D
100
AcDbEntity
  8
LC-002-100-D00-0
 62
     7
370
    50
100
AcDbLine
 10
161.898653
 20
175.595638
 30
0.0
 11
161.898653
 21
175.595638
 31
0.0
  0
LINE
  5
69
330
5D
100
AcDbEntity
  8
LC-002-100-D00-0
 62
     7
370
    50
100
AcDbLine
 10
161.898653
 20
175.595638
 30
0.0
 11
161.929797
 21
175.574437
 31
0.0
  0
ENDBLK
  5
5F
330
5D
100
AcDbEntity
  8
0
100
AcDbBlockEnd
  0
BLOCK
  5
7C
330
7B
100
AcDbEntity
  8
0
100
AcDbBlockBegin
  2
POLY3
 70
     0
 71
     0
 10
0.0
 20
0.0
 30
0.0
  3
POLY3
  1

  4
POLY3
  0
LINE
  5
7E
330
7B
100
AcDbEntity
  8
LC-002-100-D00-0
 62
     7
370
    50
100
AcDbLine
 10
26.252754
 20
168.795034
 30
0.0
 11
26.252754
 21
168.795034
 31
0.0
  0
LINE
  5
7F
330
7B
100
AcDbEntity
  8
LC-002-100-D00-0
 62
     7
370
    50
100
AcDbLine
 10
26.252754
 20
168.795034
 30
0.0
 11
25.842776
 21
169.559947
 31
0.0
  0
LINE
  5
80
330
7B
100
AcDbEntity
  8
LC-002-100-D00-0
 62
     7
370
    50
100
AcDbLine
 10
25.842776
 20
169.559947
 30
0.0
 11
25.842776
 21
169.559947
 31
0.0
  0
LINE
  5
81
330
7B
100
AcDbEntity
  8
LC-002-100-D00-0
 62
     7
370
    50
100
AcDbLine
 10
25.842776
 20
169.559947
 30
0.0
 11
23.791129
 21
173.387786
 31
0.0
  0
LINE
  5
82
330
7B
100
AcDbEntity
  8
LC-002-100-D00-0
 62
     7
370
    50
100
AcDbLine
 10
23.791129
 20
173.387786
 30
0.0
 11
23.791129
 21
173.387786
 31
0.0
  0
LINE
  5
83
330
7B
100
AcDbEntity
  8
LC-002-100-D00-0
 62
     7
370
    50
100
AcDbLine
 10
23.791129
 20
173.387786
 30
0.0
 11
21.741471
 21
177.21669
 31
0.0
  0
LINE
  5
84
330
7B
100
AcDbEntity
  8
LC-002-100-D00-0
 62
     7
370
    50
100
AcDbLine
 10
21.741471
 20
177.21669
 30
0.0
 11
21.741471
 21
177.21669
 31
0.0
  0
LINE
  5
85
330
7B
100
AcDbEntity
  8
LC-002-100-D00-0
 62
     7
370
    50
100
AcDbLine
 10
21.741471
 20
177.21669
 30
0.0
 11
20.101394
 21
180.28047
 31
0.0
  0
ENDBLK
  5
7D
330
7B
100
AcDbEntity
  8
0
100
AcDbBlockEnd
  0
BLOCK
  5
AB
330
AA
100
AcDbEntity
  8
0
100
AcDbBlockBegin
  2
POLY4
 70
     0
 71
     0
 10
0.0
 20
0.0
 30
0.0
  3
POLY4
  1

  4
POLY4
  0
LINE
  5
AD
330
AA
100
AcDbEntity
  8
LC-002-100-D00-0
 62
     7
370
    50
100
AcDbLine
 10
91.850962
 20
180.28047
 30
0.0
 11
91.850962
 21
180.28047
 31
0.0
  0
LINE
  5
AE
330
AA
100
AcDbEntity
  8
LC-002-100-D00-0
 62
     7
370
    50
100
AcDbLine
 10
91.850962
 20
180.28047
 30
0.0
 11
90.210885
 21
177.21669
 31
0.0
  0
LINE
  5
AF
330
AA
100
AcDbEntity
  8
LC-002-100-D00-0
 62
     7
370
    50
100
AcDbLine
 10
90.210885
 20
177.21669
 30
0.0
 11
90.210885
 21
177.21669
 31
0.0
  0
LINE
  5
B0
330
AA
100
AcDbEntity
  8
LC-002-100-D00-0
 62
     7
370
    50
100
AcDbLine
 10
90.210885
 20
177.21669
 30
0.0
 11
88.161227
 21
173.387786
 31
0.0
  0
LINE
  5
B1
330
AA
100
AcDbEntity
  8
LC-002-100-D00-0
 62
     7
370
    50
100
AcDbLine
 10
88.161227
 20
173.387786
 30
0.0
 11
88.161227
 21
173.387786
 31
0.0
  0
LINE
  5
B2
330
AA
100
AcDbEntity
  8
LC-002-100-D00-0
 62
     7
370
    50
100
AcDbLine
 10
88.161227
 20
173.387786
 30
0.0
 11
86.109581
 21
169.559947
 31
0.0
  0
LINE
  5
B3
330
AA
100
AcDbEntity
  8
LC-002-100-D00-0
 62
     7
370
    50
100
AcDbLine
 10
86.109581
 20
169.559947
 30
0.0
 11
86.109581
 21
169.559947
 31
0.0
  0
LINE
  5
B4
330
AA
100
AcDbEntity
  8
LC-002-100-D00-0
 62
     7
370
    50
100
AcDbLine
 10
86.109581
 20
169.559947
 30
0.0
 11
85.699603
 21
168.795034
 31
0.0
  0
ENDBLK
  5
AC
330
AA
100
AcDbEntity
  8
0
100
AcDbBlockEnd
  0
BLOCK
  5
15A
330
159
100
AcDbEntity
  8
0
100
AcDbBlockBegin
  2
POLY5
 70
     0
 71
     0
 10
0.0
 20
0.0
 30
0.0
  3
POLY5
  1

  4
POLY5
  0
LINE
  5
15C
330
159
100
AcDbEntity
  8
LC-002-100-D00-0
 62
     7
370
    50
100
AcDbLine
 10
106.976177
 20
134.395488
 30
0.0
 11
106.976177
 21
134.395488
 31
0.0
  0
LINE
  5
15D
330
159
100
AcDbEntity
  8
LC-002-100-D00-0
 62
     7
370
    50
100
AcDbLine
 10
106.976177
 20
134.395488
 30
0.0
 11
106.962047
 21
134.434256
 31
0.0
  0
LINE
  5
15E
330
159
100
AcDbEntity
  8
LC-002-100-D00-0
 62
     7
370
    50
100
AcDbLine
 10
106.962047
 20
134.434256
 30
0.0
 11
106.962047
 21
134.434256
 31
0.0
  0
LINE
  5
15F
330
159
100
AcDbEntity
  8
LC-002-100-D00-0
 62
     7
370
    50
100
AcDbLine
 10
106.962047
 20
134.434256
 30
0.0
 11
106.932853
 21
134.514357
 31
0.0
  0
LINE
  5
160
330
159
100
AcDbEntity
  8
LC-002-100-D00-0
 62
     7
370
    50
100
AcDbLine
 10
106.932853
 20
134.514357
 30
0.0
 11
106.932853
 21
134.514357
 31
0.0
  0
LINE
  5
161
330
159
100
AcDbEntity
  8
LC-002-100-D00-0
 62
     7
370
    50
100
AcDbLine
 10
106.932853
 20
134.514357
 30
0.0
 11
106.694631
 21
135.180227
 31
0.0
  0
LINE
  5
162
330
159
100
AcDbEntity
  8
LC-002-100-D00-0
 62
     7
370
    50
100
AcDbLine
 10
106.694631
 20
135.180227
 30
0.0
 11
106.694631
 21
135.180227
 31
0.0
  0
LINE
  5
163
330
159
100
AcDbEntity
  8
LC-002-100-D00-0
 62
     7
370
    50
100
AcDbLine
 10
106.694631
 20
135.180227
 30
0.0
 11
106.32031
 21
136.273184
 31
0.0
  0
LINE
  5
164
330
159
100
AcDbEntity
  8
LC-002-100-D00-0
 62
     7
370
    50
100
AcDbLine
 10
106.32031
 20
136.273184
 30
0.0
 11
106.32031
 21
136.273184
 31
0.0
  0
LINE
  5
165
330
159
100
AcDbEntity
  8
LC-002-100-D00-0
 62
     7
370
    50
100
AcDbLine
 10
106.32031
 20
136.273184
 30
0.0
 11
105.829416
 21
137.813897
 31
0.0
  0
LINE
  5
166
330
159
100
AcDbEntity
  8
LC-002-100-D00-0
 62
     7
370
    50
100
AcDbLine
 10
105.829416
 20
137.813897
 30
0.0
 11
105.829416
 21
137.813897
 31
0.0
  0
LINE
  5
167
330
159
100
AcDbEntity
  8
LC-002-100-D00-0
 62
     7
370
    50
100
AcDbLine
 10
105.829416
 20
137.813897
 30
0.0
 11
105.416142
 21
139.246572
 31
0.0
  0
LINE
  5
168
330
159
100
AcDbEntity
  8
LC-002-100-D00-0
 62
     7
370
    50
100
AcDbLine
 10
105.416142
 20
139.246572
 30
0.0
 11
105.416142
 21
139.246572
 31
0.0
  0
LINE
  5
169
330
159
100
AcDbEntity
  8
LC-002-100-D00-0
 62
     7
370
    50
100
AcDbLine
 10
105.416142
 20
139.246572
 30
0.0
 11
105.183802
 21
140.14345
 31
0.0
  0
LINE
  5
16A
330
159
100
AcDbEntity
  8
LC-002-100-D00-0
 62
     7
370
    50
100
AcDbLine
 10
105.183802
 20
140.14345
 30
0.0
 11
105.183802
 21
140.14345
 31
0.0
  0
LINE
  5
16B
330
159
100
AcDbEntity
  8
LC-002-100-D00-0
 62
     7
370
    50
100
AcDbLine
 10
105.183802
 20
140.14345
 30
0.0
 11
105.13936
 21
140.315008
 31
0.0
  0
ENDBLK
  5
15B
330
159
100
AcDbEntity
  8
0
100
AcDbBlockEnd
  0
BLOCK
  5
16E
330
16D
100
AcDbEntity
  8
0
100
AcDbBlockBegin
  2
POLY6
 70
     0
 71
     0
 10
0.0
 20
0.0
 30
0.0
  3
POLY6
  1

  4
POLY6
  0
LINE
  5
170
330
16D
100
AcDbEntity
  8
LC-002-100-D00-0
 62
     7
370
    50
100
AcDbLine
 10
105.13936
 20
140.315008
 30
0.0
 11
105.13936
 21
140.315008
 31
0.0
  0
LINE
  5
171
330
16D
100
AcDbEntity
  8
LC-002-100-D00-0
 62
     7
370
    50
100
AcDbLine
 10
105.13936
 20
140.315008
 30
0.0
 11
104.966537
 21
141.020939
 31
0.0
  0
LINE
  5
172
330
16D
100
AcDbEntity
  8
LC-002-100-D00-0
 62
     7
370
    50
100
AcDbLine
 10
104.966537
 20
141.020939
 30
0.0
 11
104.966537
 21
141.020939
 31
0.0
  0
LINE
  5
173
330
16D
100
AcDbEntity
  8
LC-002-100-D00-0
 62
     7
370
    50
100
AcDbLine
 10
104.966537
 20
141.020939
 30
0.0
 11
104.620917
 21
142.432699
 31
0.0
  0
LINE
  5
174
330
16D
100
AcDbEntity
  8
LC-002-100-D00-0
 62
     7
370
    50
100
AcDbLine
 10
104.620917
 20
142.432699
 30
0.0
 11
104.620917
 21
142.432699
 31
0.0
  0
LINE
  5
175
330
16D
100
AcDbEntity
  8
LC-002-100-D00-0
 62
     7
370
    50
100
AcDbLine
 10
104.620917
 20
142.432699
 30
0.0
 11
104.133569
 21
144.974708
 31
0.0
  0
LINE
  5
176
330
16D
100
AcDbEntity
  8
LC-002-100-D00-0
 62
     7
370
    50
100
AcDbLine
 10
104.133569
 20
144.974708
 30
0.0
 11
104.133569
 21
144.974708
 31
0.0
  0
LINE
  5
177
330
16D
100
AcDbEntity
  8
LC-002-100-D00-0
 62
     7
370
    50
100
AcDbLine
 10
104.133569
 20
144.974708
 30
0.0
 11
103.74101
 21
147.835435
 31
0.0
  0
LINE
  5
178
330
16D
100
AcDbEntity
  8
LC-002-100-D00-0
 62
     7
370
    50
100
AcDbLine
 10
103.74101
 20
147.835435
 30
0.0
 11
103.74101
 21
147.835435
 31
0.0
  0
LINE
  5
179
330
16D
100
AcDbEntity
  8
LC-002-100-D00-0
 62
     7
370
    50
100
AcDbLine
 10
103.74101
 20
147.835435
 30
0.0
 11
103.508388
 21
150.921114
 31
0.0
  0
LINE
  5
17A
330
16D
100
AcDbEntity
  8
LC-002-100-D00-0
 62
     7
370
    50
100
AcDbLine
 10
103.508388
 20
150.921114
 30
0.0
 11
103.508388
 21
150.921114
 31
0.0
  0
LINE
  5
17B
330
16D
100
AcDbEntity
  8
LC-002-100-D00-0
 62
     7
370
    50
100
AcDbLine
 10
103.508388
 20
150.921114
 30
0.0
 11
103.486306
 21
154.004506
 31
0.0
  0
LINE
  5
17C
330
16D
100
AcDbEntity
  8
LC-002-100-D00-0
 62
     7
370
    50
100
AcDbLine
 10
103.486306
 20
154.004506
 30
0.0
 11
103.486306
 21
154.004506
 31
0.0
  0
LINE
  5
17D
330
16D
100
AcDbEntity
  8
LC-002-100-D00-0
 62
     7
370
    50
100
AcDbLine
 10
103.486306
 20
154.004506
 30
0.0
 11
103.645992
 21
156.961887
 31
0.0
  0
LINE
  5
17E
330
16D
100
AcDbEntity
  8
LC-002-100-D00-0
 62
     7
370
    50
100
AcDbLine
 10
103.645992
 20
156.961887
 30
0.0
 11
103.645992
 21
156.961887
 31
0.0
  0
LINE
  5
17F
330
16D
100
AcDbEntity
  8
LC-002-100-D00-0
 62
     7
370
    50
100
AcDbLine
 10
103.645992
 20
156.961887
 30
0.0
 11
103.973777
 21
159.768879
 31
0.0
  0
LINE
  5
180
330
16D
100
AcDbEntity
  8
LC-002-100-D00-0
 62
     7
370
    50
100
AcDbLine
 10
103.973777
 20
159.768879
 30
0.0
 11
103.973777
 21
159.768879
 31
0.0
  0
LINE
  5
181
330
16D
100
AcDbEntity
  8
LC-002-100-D00-0
 62
     7
370
    50
100
AcDbLine
 10
103.973777
 20
159.768879
 30
0.0
 11
104.423526
 21
162.410159
 31
0.0
  0
LINE
  5
182
330
16D
100
AcDbEntity
  8
LC-002-100-D00-0
 62
     7
370
    50
100
AcDbLine
 10
104.423526
 20
162.410159
 30
0.0
 11
104.423526
 21
162.410159
 31
0.0
  0
LINE
  5
183
330
16D
100
AcDbEntity
  8
LC-002-100-D00-0
 62
     7
370
    50
100
AcDbLine
 10
104.423526
 20
162.410159
 30
0.0
 11
104.961907
 21
164.830145
 31
0.0
  0
LINE
  5
184
330
16D
100
AcDbEntity
  8
LC-002-100-D00-0
 62
     7
370
    50
100
AcDbLine
 10
104.961907
 20
164.830145
 30
0.0
 11
104.961907
 21
164.830145
 31
0.0
  0
LINE
  5
185
330
16D
100
AcDbEntity
  8
LC-002-100-D00-0
 62
     7
370
    50
100
AcDbLine
 10
104.961907
 20
164.830145
 30
0.0
 11
105.444811
 21
166.650795
 31
0.0
  0
LINE
  5
186
330
16D
100
AcDbEntity
  8
LC-002-100-D00-0
 62
     7
370
    50
100
AcDbLine
 10
105.444811
 20
166.650795
 30
0.0
 11
105.444811
 21
166.650795
 31
0.0
  0
LINE
  5
187
330
16D
100
AcDbEntity
  8
LC-002-100-D00-0
 62
     7
370
    50
100
AcDbLine
 10
105.444811
 20
166.650795
 30
0.0
 11
105.719112
 21
167.577052
 31
0.0
  0
LINE
  5
188
330
16D
100
AcDbEntity
  8
LC-002-100-D00-0
 62
     7
370
    50
100
AcDbLine
 10
105.719112
 20
167.577052
 30
0.0
 11
105.719112
 21
167.577052
 31
0.0
  0
LINE
  5
189
330
16D
100
AcDbEntity
  8
LC-002-100-D00-0
 62
     7
370
    50
100
AcDbLine
 10
105.719112
 20
167.577052
 30
0.0
 11
105.813414
 21
167.895489
 31
0.0
  0
ENDBLK
  5
16F
330
16D
100
AcDbEntity
  8
0
100
AcDbBlockEnd
  0
BLOCK
  5
1A8
330
1A7
100
AcDbEntity
  8
0
100
AcDbBlockBegin
  2
KLON1
 70
     0
 71
     0
 10
0.0
 20
0.0
 30
0.0
  3
KLON1
  1

  4
KLON1
  0
LINE
  5
1AA
330
1A7
100
AcDbEntity
  8
LC-002-100-D00-0
 62
     7
370
    15
100
AcDbLine
 10
25.226177
 20
145.158079
 30
0.0
 11
25.406437
 21
145.134345
 31
0.0
  0
LINE
  5
1AB
330
1A7
100
AcDbEntity
  8
LC-002-100-D00-0
 62
     7
370
    15
100
AcDbLine
 10
25.406437
 20
145.134345
 30
0.0
 11
25.476178
 21
145.125166
 31
0.0
  0
ENDBLK
  5
1A9
330
1A7
100
AcDbEntity
  8
0
100
AcDbBlockEnd
  0
BLOCK
  5
1AE
330
1AD
100
AcDbEntity
  8
0
100
AcDbBlockBegin
  2
KLON2
 70
     0
 71
     0
 10
0.0
 20
0.0
 30
0.0
  3
KLON2
  1

  4
KLON2
  0
LINE
  5
1B0
330
1AD
100
AcDbEntity
  8
LC-002-100-D00-0
 62
     7
370
    15
100
AcDbLine
 10
86.406676
 20
137.103513
 30
0.0
 11
86.54592
 21
137.085181
 31
0.0
  0
LINE
  5
1B1
330
1AD
100
AcDbEntity
  8
LC-002-100-D00-0
 62
     7
370
    15
100
AcDbLine
 10
86.54592
 20
137.085181
 30
0.0
 11
86.726179
 21
137.061451
 31
0.0
  0
ENDBLK
  5
1AF
330
1AD
100
AcDbEntity
  8
0
100
AcDbBlockEnd
  0
BLOCK
  5
1FA
330
1F9
100
AcDbEntity
  8
0
100
AcDbBlockBegin
  2
KLON3
 70
     0
 71
     0
 10
0.0
 20
0.0
 30
0.0
  3
KLON3
  1

  4
KLON3
  0
LINE
  5
1FC
330
1F9
100
AcDbEntity
  8
LC-002-100-D00-0
 62
     7
370
    50
100
AcDbLine
 10
102.976178
 20
180.384619
 30
0.0
 11
105.176308
 21
182.584749
 31
0.0
  0
LINE
  5
1FD
330
1F9
100
AcDbEntity
  8
LC-002-100-D00-0
 62
     7
370
    50
100
AcDbLine
 10
105.693386
 20
183.101826
 30
0.0
 11
105.908359
 21
183.3168
 31
0.0
  0
ENDBLK
  5
1FB
330
1F9
100
AcDbEntity
  8
0
100
AcDbBlockEnd
  0
BLOCK
  5
201
330
200
100
AcDbEntity
  8
0
100
AcDbBlockBegin
  2
KLON4
 70
     0
 71
     0
 10
0.0
 20
0.0
 30
0.0
  3
KLON4
  1

  4
KLON4
  0
LINE
  5
203
330
200
100
AcDbEntity
  8
LC-002-100-D00-0
 62
     7
370
    25
100
AcDbLine
 10
176.838947
 20
186.895486
 30
0.0
 11
178.338947
 21
188.395486
 31
0.0
  0
LINE
  5
204
330
200
100
AcDbEntity
  8
LC-002-100-D00-0
 62
     7
370
    25
100
AcDbLine
 10
154.388306
 20
186.895486
 30
0.0
 11
155.888306
 21
188.395486
 31
0.0
  0
LINE
  5
205
330
200
100
AcDbEntity
  8
LC-002-100-D00-0
 62
     7
370
    25
100
AcDbLine
 10
131.937666
 20
186.895486
 30
0.0
 11
133.437666
 21
188.395486
 31
0.0
  0
LINE
  5
206
330
200
100
AcDbEntity
  8
LC-002-100-D00-0
 62
     7
370
    25
100
AcDbLine
 10
105.919183
 20
183.327643
 30
0.0
 11
110.017259
 21
187.42572
 31
0.0
  0
ENDBLK
  5
202
330
200
100
AcDbEntity
  8
0
100
AcDbBlockEnd
  0
BLOCK
  5
209
330
208
100
AcDbEntity
  8
0
100
AcDbBlockBegin
  2
KLON5
 70
     0
 71
     0
 10
0.0
 20
0.0
 30
0.0
  3
KLON5
  1

  4
KLON5
  0
LINE
  5
20B
330
208
100
AcDbEntity
  8
LC-002-100-D00-0
 62
     7
370
    25
100
AcDbLine
 10
-2.766176
 20
186.895486
 30
0.0
 11
-1.266176
 21
188.395486
 31
0.0
  0
LINE
  5
20C
330
208
100
AcDbEntity
  8
LC-002-100-D00-0
 62
     7
370
    25
100
AcDbLine
 10
-25.216816
 20
186.895486
 30
0.0
 11
-23.716816
 21
188.395486
 31
0.0
  0
LINE
  5
20D
330
208
100
AcDbEntity
  8
LC-002-100-D00-0
 62
     7
370
    25
100
AcDbLine
 10
-48.98001
 20
185.582933
 30
0.0
 11
-46.167456
 21
188.395486
 31
0.0
  0
LINE
  5
20E
330
208
100
AcDbEntity
  8
LC-002-100-D00-0
 62
     7
370
    25
100
AcDbLine
 10
-70.023822
 20
186.989761
 30
0.0
 11
-68.618097
 21
188.395486
 31
0.0
  0
ENDBLK
  5
20A
330
208
100
AcDbEntity
  8
0
100
AcDbBlockEnd
  0
BLOCK
  5
211
330
210
100
AcDbEntity
  8
0
100
AcDbBlockBegin
  2
KLON6
 70
     0
 71
     0
 10
0.0
 20
0.0
 30
0.0
  3
KLON6
  1

  4
KLON6
  0
LINE
  5
213
330
210
100
AcDbEntity
  8
LC-002-100-D00-0
 62
     7
370
    25
100
AcDbLine
 10
138.888306
 20
171.395486
 30
0.0
 11
145.371948
 21
177.879128
 31
0.0
  0
LINE
  5
214
330
210
100
AcDbEntity
  8
LC-002-100-D00-0
 62
     7
370
    25
100
AcDbLine
 10
112.937666
 20
167.895486
 30
0.0
 11
115.937666
 21
170.895486
 31
0.0
  0
ENDBLK
  5
212
330
210
100
AcDbEntity
  8
0
100
AcDbBlockEnd
  0
BLOCK
  5
217
330
216
100
AcDbEntity
  8
0
100
AcDbBlockBegin
  2
KLON7
 70
     0
 71
     0
 10
0.0
 20
0.0
 30
0.0
  3
KLON7
  1

  4
KLON7
  0
LINE
  5
219
330
216
100
AcDbEntity
  8
LC-002-100-D00-0
 62
     7
370
    25
100
AcDbLine
 10
140.879105
 20
128.485004
 30
0.0
 11
146.789587
 21
134.395486
 31
0.0
  0
LINE
  5
21A
330
216
100
AcDbEntity
  8
LC-002-100-D00-0
 62
     7
370
    25
100
AcDbLine
 10
121.338947
 20
131.395486
 30
0.0
 11
124.338947
 21
134.395486
 31
0.0
  0
LINE
  5
21B
330
216
100
AcDbEntity
  8
LC-002-100-D00-0
 62
     7
370
    25
100
AcDbLine
 10
99.806346
 20
132.313525
 30
0.0
 11
102.480212
 21
134.987391
 31
0.0
  0
LINE
  5
21C
330
216
100
AcDbEntity
  8
LC-002-100-D00-0
 62
     7
370
    25
100
AcDbLine
 10
68.437666
 20
123.395486
 30
0.0
 11
71.437666
 21
126.395486
 31
0.0
  0
LINE
  5
21D
330
216
100
AcDbEntity
  8
LC-002-100-D00-0
 62
     7
370
    25
100
AcDbLine
 10
45.987026
 20
123.395486
 30
0.0
 11
48.987026
 21
126.395486
 31
0.0
  0
LINE
  5
21E
330
216
100
AcDbEntity
  8
LC-002-100-D00-0
 62
     7
370
    25
100
AcDbLine
 10
26.857845
 20
126.716946
 30
0.0
 11
28.985618
 21
128.844719
 31
0.0
  0
LINE
  5
21F
330
216
100
AcDbEntity
  8
LC-002-100-D00-0
 62
     7
370
    25
100
AcDbLine
 10
20.451101
 20
142.760842
 30
0.0
 11
23.124967
 21
145.434707
 31
0.0
  0
LINE
  5
220
330
216
100
AcDbEntity
  8
LC-002-100-D00-0
 62
     7
370
    25
100
AcDbLine
 10
3.19849
 20
147.958871
 30
0.0
 11
5.410427
 21
150.170808
 31
0.0
  0
LINE
  5
221
330
216
100
AcDbEntity
  8
LC-002-100-D00-0
 62
     7
370
    25
100
AcDbLine
 10
1.976178
 20
169.1872
 30
0.0
 11
4.090365
 21
171.301386
 31
0.0
  0
ENDBLK
  5
218
330
216
100
AcDbEntity
  8
0
100
AcDbBlockEnd
  0
BLOCK
  5
225
330
224
100
AcDbEntity
  8
0
100
AcDbBlockBegin
  2
KLON8
 70
     0
 71
     0
 10
0.0
 20
0.0
 30
0.0
  3
KLON8
  1

  4
KLON8
  0
LINE
  5
227
330
224
100
AcDbEntity
  8
LC-002-100-D00-0
 62
     7
370
    25
100
AcDbLine
 10
93.476178
 20
170.884638
 30
0.0
 11
98.976178
 21
176.384638
 31
0.0
  0
LINE
  5
228
330
224
100
AcDbEntity
  8
LC-002-100-D00-0
 62
     7
370
    25
100
AcDbLine
 10
110.572002
 20
187.980462
 30
0.0
 11
110.976178
 21
188.384638
 31
0.0
  0
ENDBLK
  5
226
330
224
100
AcDbEntity
  8
0
100
AcDbBlockEnd
  0
BLOCK
  5
22B
330
22A
100
AcDbEntity
  8
0
100
AcDbBlockBegin
  2
KLON9
 70
     0
 71
     0
 10
0.0
 20
0.0
 30
0.0
  3
KLON9
  1

  4
KLON9
  0
LINE
  5
22D
330
22A
100
AcDbEntity
  8
LC-002-100-D00-0
 62
     7
370
    25
100
AcDbLine
 10
16.520087
 20
161.280468
 30
0.0
 11
18.476178
 21
163.236559
 31
0.0
  0
LINE
  5
22E
330
22A
100
AcDbEntity
  8
LC-002-100-D00-0
 62
     7
370
    25
100
AcDbLine
 10
12.976178
 20
180.1872
 30
0.0
 11
15.826178
 21
183.0372
 31
0.0
  0
ENDBLK
  5
22C
330
22A
100
AcDbEntity
  8
0
100
AcDbBlockEnd
  0
BLOCK
  5
231
330
230
100
AcDbEntity
  8
0
100
AcDbBlockBegin
  2
KLON10
 70
     0
 71
     0
 10
0.0
 20
0.0
 30
0.0
  3
KLON10
  1

  4
KLON10
  0
LINE
  5
233
330
230
100
AcDbEntity
  8
LC-002-100-D00-0
 62
     7
370
    50
100
AcDbLine
 10
75.832058
 20
175.691149
 30
0.0
 11
79.565497
 21
179.424588
 31
0.0
  0
LINE
  5
234
330
230
100
AcDbEntity
  8
LC-002-100-D00-0
 62
     7
370
    50
100
AcDbLine
 10
73.976178
 20
151.384619
 30
0.0
 11
74.976178
 21
152.384619
 31
0.0
  0
ENDBLK
  5
232
330
230
100
AcDbEntity
  8
0
100
AcDbBlockEnd
  0
BLOCK
  5
238
330
237
100
AcDbEntity
  8
0
100
AcDbBlockBegin
  2
KLON11
 70
     0
 71
     0
 10
0.0
 20
0.0
 30
0.0
  3
KLON11
  1

  4
KLON11
  0
LINE
  5
23A
330
237
100
AcDbEntity
  8
LC-002-100-D00-0
 62
     7
370
    25
100
AcDbLine
 10
73.322648
 20
128.280468
 30
0.0
 11
74.822648
 21
129.780468
 31
0.0
  0
LINE
  5
23B
330
237
100
AcDbEntity
  8
LC-002-100-D00-0
 62
     7
370
    25
100
AcDbLine
 10
84.976178
 20
139.933998
 30
0.0
 11
86.476178
 21
141.433998
 31
0.0
  0
LINE
  5
23C
330
237
100
AcDbEntity
  8
LC-002-100-D00-0
 62
     7
370
    25
100
AcDbLine
 10
50.872008
 20
128.280468
 30
0.0
 11
52.372008
 21
129.780468
 31
0.0
  0
LINE
  5
23D
330
237
100
AcDbEntity
  8
LC-002-100-D00-0
 62
     7
370
    25
100
AcDbLine
 10
84.976178
 20
162.384638
 30
0.0
 11
86.476178
 21
163.884638
 31
0.0
  0
LINE
  5
23E
330
237
100
AcDbEntity
  8
LC-002-100-D00-0
 62
     7
370
    25
100
AcDbLine
 10
30.032743
 20
129.891844
 30
0.0
 11
31.121555
 21
130.980656
 31
0.0
  0
LINE
  5
23F
330
237
100
AcDbEntity
  8
LC-002-100-D00-0
 62
     7
370
    25
100
AcDbLine
 10
25.476178
 20
147.785919
 30
0.0
 11
26.976178
 21
149.285919
 31
0.0
  0
LINE
  5
240
330
237
100
AcDbEntity
  8
LC-002-100-D00-0
 62
     7
370
    25
100
AcDbLine
 10
24.274059
 20
169.034441
 30
0.0
 11
25.382755
 21
170.143136
 31
0.0
  0
LINE
  5
241
330
237
100
AcDbEntity
  8
LC-002-100-D00-0
 62
     7
370
    25
100
AcDbLine
 10
16.126178
 20
183.3372
 30
0.0
 11
16.569447
 21
183.780468
 31
0.0
  0
ENDBLK
  5
239
330
237
100
AcDbEntity
  8
0
100
AcDbBlockEnd
  0
BLOCK
  5
244
330
243
100
AcDbEntity
  8
0
100
AcDbBlockBegin
  2
KLON12
 70
     0
 71
     0
 10
0.0
 20
0.0
 30
0.0
  3
KLON12
  1

  4
KLON12
  0
LINE
  5
246
330
243
100
AcDbEntity
  8
LC-002-100-D00-0
 62
     7
370
    25
100
AcDbLine
 10
212.641508
 20
132.895486
 30
0.0
 11
215.641508
 21
135.895486
 31
0.0
  0
LINE
  5
247
330
243
100
AcDbEntity
  8
LC-002-100-D00-0
 62
     7
370
    25
100
AcDbLine
 10
190.190868
 20
132.895486
 30
0.0
 11
193.190868
 21
135.895486
 31
0.0
  0
LINE
  5
248
330
243
100
AcDbEntity
  8
LC-002-100-D00-0
 62
     7
370
    25
100
AcDbLine
 10
167.740227
 20
132.895486
 30
0.0
 11
170.740227
 21
135.895486
 31
0.0
  0
LINE
  5
249
330
243
100
AcDbEntity
  8
LC-002-100-D00-0
 62
     7
370
    25
100
AcDbLine
 10
139.176178
 20
126.782077
 30
0.0
 11
140.879105
 21
128.485004
 31
0.0
  0
ENDBLK
  5
245
330
243
100
AcDbEntity
  8
0
100
AcDbBlockEnd
  0
BLOCK
  5
24C
330
24B
100
AcDbEntity
  8
0
100
AcDbBlockBegin
  2
KLON13
 70
     0
 71
     0
 10
0.0
 20
0.0
 30
0.0
  3
KLON13
  1

  4
KLON13
  0
LINE
  5
24E
330
24B
100
AcDbEntity
  8
LC-002-100-D00-0
 62
     7
370
    25
100
AcDbLine
 10
227.190868
 20
169.895486
 30
0.0
 11
229.553789
 21
172.258407
 31
0.0
  0
LINE
  5
24F
330
24B
100
AcDbEntity
  8
LC-002-100-D00-0
 62
     7
370
    25
100
AcDbLine
 10
204.740227
 20
169.895486
 30
0.0
 11
207.740227
 21
172.895486
 31
0.0
  0
LINE
  5
250
330
24B
100
AcDbEntity
  8
LC-002-100-D00-0
 62
     7
370
    25
100
AcDbLine
 10
182.289587
 20
169.895486
 30
0.0
 11
185.289587
 21
172.895486
 31
0.0
  0
LINE
  5
251
330
24B
100
AcDbEntity
  8
LC-002-100-D00-0
 62
     7
370
    25
100
AcDbLine
 10
162.151492
 20
172.208031
 30
0.0
 11
163.926903
 21
173.983442
 31
0.0
  0
LINE
  5
252
330
24B
100
AcDbEntity
  8
LC-002-100-D00-0
 62
     7
370
    25
100
AcDbLine
 10
145.371948
 20
177.879128
 30
0.0
 11
147.843601
 21
180.35078
 31
0.0
  0
ENDBLK
  5
24D
330
24B
100
AcDbEntity
  8
0
100
AcDbBlockEnd
  0
BLOCK
  5
263
330
258
100
AcDbEntity
  8
0
100
AcDbBlockBegin
  2
*D20
 70
     1
 71
     0
 10
0.0
 20
0.0
 30
0.0
  3
*D20
  1

  0
LINE
  5
259
330
258
100
AcDbEntity
  8
LC-002-100-D00-0
 62
     2
370
    -2
100
AcDbLine
 10
227.176178
 20
172.895486
 30
0.0
 11
255.494529
 21
172.895486
 31
0.0
  0
LINE
  5
25A
330
258
100
AcDbEntity
  8
LC-002-100-D00-0
 62
     2
370
    -2
100
AcDbLine
 10
227.176178
 20
132.895486
 30
0.0
 11
255.494529
 21
132.895486
 31
0.0
  0
LINE
  5
25B
330
258
100
AcDbEntity
  8
LC-002-100-D00-0
 62
     2
370
    -2
100
AcDbLine
 10
251.894529
 20
104.895486
 30
0.0
 11
251.894529
 21
76.895486
 31
0.0
  0
LINE
  5
25C
330
258
100
AcDbEntity
  8
LC-002-100-D00-0
 62
     2
370
    -2
100
AcDbLine
 10
251.894529
 20
200.895486
 30
0.0
 11
251.894529
 21
218.988243
 31
0.0
  0
SOLID
  5
25D
330
258
100
AcDbEntity
  8
LC-002-100-D00-0
 62
     2
100
AcDbTrace
 10
247.227862
 20
200.895486
 30
0.0
 11
256.561195
 21
200.895486
 31
0.0
 12
251.894529
 22
172.895486
 32
0.0
 13
251.894529
 23
172.895486
 33
0.0
  0
SOLID
  5
25E
330
258
100
AcDbEntity
  8
LC-002-100-D00-0
 62
     2
100
AcDbTrace
 10
256.561195
 20
104.895486
 30
0.0
 11
247.227862
 21
104.895486
 31
0.0
 12
251.894529
 22
132.895486
 32
0.0
 13
251.894529
 23
132.895486
 33
0.0
  0
MTEXT
  5
25F
330
258
100
AcDbEntity
  8
LC-002-100-D00-0
 62
     2
100
AcDbMText
 10
221.094529
 20
172.951485
 30
0.0
 40
28.0
 41
0.0
 71
     5
 72
     1
  1
\A1;DN40
  7
LCTX15-400-0-0pDIN-Schrift
 11
6.123031769111886E-17
 21
1.0
 31
0.0
 73
     1
 44
1.0
  0
POINT
  5
260
330
258
100
AcDbEntity
  8
Defpoints
 62
     0
100
AcDbPoint
 10
227.176178
 20
172.895486
 30
0.0
  0
POINT
  5
261
330
258
100
AcDbEntity
  8
Defpoints
 62
     0
100
AcDbPoint
 10
227.176178
 20
132.895486
 30
0.0
  0
POINT
  5
262
330
258
100
AcDbEntity
  8
Defpoints
 62
     0
100
AcDbPoint
 10
251.894529
 20
132.895486
 30
0.0
  0
ENDBLK
  5
264
330
258
100
AcDbEntity
  8
0
100
AcDbBlockEnd
  0
BLOCK
  5
270
330
266
100
AcDbEntity
  8
0
100
AcDbBlockBegin
  2
*D21
 70
     1
 71
     0
 10
0.0
 20
0.0
 30
0.0
  3
*D21
  1

  0
LINE
  5
267
330
266
100
AcDbEntity
  8
LC-002-100-D00-0
 62
     2
370
    -2
100
AcDbLine
 10
-70.023822
 20
186.895486
 30
0.0
 11
-70.023822
 21
234.847993
 31
0.0
  0
LINE
  5
268
330
266
100
AcDbEntity
  8
LC-002-100-D00-0
 62
     2
370
    -2
100
AcDbLine
 10
181.976178
 20
186.895486
 30
0.0
 11
181.976178
 21
234.847993
 31
0.0
  0
LINE
  5
269
330
266
100
AcDbEntity
  8
LC-002-100-D00-0
 62
     2
370
    -2
100
AcDbLine
 10
-42.023822
 20
231.247993
 30
0.0
 11
153.976178
 21
231.247993
 31
0.0
  0
SOLID
  5
26A
330
266
100
AcDbEntity
  8
LC-002-100-D00-0
 62
     2
100
AcDbTrace
 10
-42.023822
 20
235.91466
 30
0.0
 11
-42.023822
 21
226.581327
 31
0.0
 12
-70.023822
 22
231.247993
 32
0.0
 13
-70.023822
 23
231.247993
 33
0.0
  0
SOLID
  5
26B
330
266
100
AcDbEntity
  8
LC-002-100-D00-0
 62
     2
100
AcDbTrace
 10
153.976178
 20
226.581327
 30
0.0
 11
153.976178
 21
235.91466
 31
0.0
 12
181.976178
 22
231.247993
 32
0.0
 13
181.976178
 23
231.247993
 33
0.0
  0
MTEXT
  5
26C
330
266
100
AcDbEntity
  8
LC-002-100-D00-0
 62
     2
100
AcDbMText
 10
51.494486
 20
262.047993
 30
0.0
 40
28.0
 41
0.0
 71
     5
 72
     1
  1
\A1;%%c252
  7
LCTX15-400-0-0pDIN-Schrift
 73
     1
 44
1.0
  0
POINT
  5
26D
330
266
100
AcDbEntity
  8
Defpoints
 62
     0
100
AcDbPoint
 10
-70.023822
 20
186.895486
 30
0.0
  0
POINT
  5
26E
330
266
100
AcDbEntity
  8
Defpoints
 62
     0
100
AcDbPoint
 10
181.976178
 20
186.895486
 30
0.0
  0
POINT
  5
26F
330
266
100
AcDbEntity
  8
Defpoints
 62
     0
100
AcDbPoint
 10
181.976178
 20
231.247993
 30
0.0
  0
ENDBLK
  5
271
330
266
100
AcDbEntity
  8
0
100
AcDbBlockEnd
  0
BLOCK
  5
27D
330
273
100
AcDbEntity
  8
0
100
AcDbBlockBegin
  2
*D22
 70
     1
 71
     0
 10
0.0
 20
0.0
 30
0.0
  3
*D22
  1

  0
LINE
  5
274
330
273
100
AcDbEntity
  8
LC-002-100-D00-0
 62
     2
370
    -2
100
AcDbLine
 10
-70.023822
 20
188.395486
 30
0.0
 11
-105.192195
 21
188.395486
 31
0.0
  0
LINE
  5
275
330
273
100
AcDbEntity
  8
LC-002-100-D00-0
 62
     2
370
    -2
100
AcDbLine
 10
35.726178
 20
123.395486
 30
0.0
 11
-105.192195
 21
123.395486
 31
0.0
  0
LINE
  5
276
330
273
100
AcDbEntity
  8
LC-002-100-D00-0
 62
     2
370
    -2
100
AcDbLine
 10
-101.592195
 20
160.395486
 30
0.0
 11
-101.592195
 21
151.395486
 31
0.0
  0
SOLID
  5
277
330
273
100
AcDbEntity
  8
LC-002-100-D00-0
 62
     2
100
AcDbTrace
 10
-96.925528
 20
160.395486
 30
0.0
 11
-106.258861
 21
160.395486
 31
0.0
 12
-101.592195
 22
188.395486
 32
0.0
 13
-101.592195
 23
188.395486
 33
0.0
  0
SOLID
  5
278
330
273
100
AcDbEntity
  8
LC-002-100-D00-0
 62
     2
100
AcDbTrace
 10
-106.258861
 20
151.395486
 30
0.0
 11
-96.925528
 21
151.395486
 31
0.0
 12
-101.592195
 22
123.395486
 32
0.0
 13
-101.592195
 23
123.395486
 33
0.0
  0
MTEXT
  5
279
330
273
100
AcDbEntity
  8
LC-002-100-D00-0
 62
     2
100
AcDbMText
 10
-132.392195
 20
155.444917
 30
0.0
 40
28.0
 41
0.0
 71
     5
 72
     1
  1
\A1;65
  7
LCTX15-400-0-0pDIN-Schrift
 11
6.123031769111886E-17
 21
1.0
 31
0.0
 73
     1
 44
1.0
  0
POINT
  5
27A
330
273
100
AcDbEntity
  8
Defpoints
 62
     0
100
AcDbPoint
 10
-70.023822
 20
188.395486
 30
0.0
  0
POINT
  5
27B
330
273
100
AcDbEntity
  8
Defpoints
 62
     0
100
AcDbPoint
 10
35.726178
 20
123.395486
 30
0.0
  0
POINT
  5
27C
330
273
100
AcDbEntity
  8
Defpoints
 62
     0
100
AcDbPoint
 10
-101.592195
 20
123.395486
 30
0.0
  0
ENDBLK
  5
27E
330
273
100
AcDbEntity
  8
0
100
AcDbBlockEnd
  0
BLOCK
  5
28C
330
280
100
AcDbEntity
  8
0
100
AcDbBlockBegin
  2
*D23
 70
     1
 71
     0
 10
0.0
 20
0.0
 30
0.0
  3
*D23
  1

  0
LINE
  5
281
330
280
100
AcDbEntity
  8
LC-002-100-D00-0
 62
     2
370
    -2
100
AcDbLine
 10
36.976178
 20
138.780468
 30
0.0
 11
-36.199551
 21
138.780468
 31
0.0
  0
LINE
  5
282
330
280
100
AcDbEntity
  8
LC-002-100-D00-0
 62
     2
370
    -2
100
AcDbLine
 10
25.624078
 20
169.280468
 30
0.0
 11
-36.199551
 21
169.280468
 31
0.0
  0
LINE
  5
283
330
280
100
AcDbEntity
  8
LC-002-100-D00-0
 62
     2
370
    -2
100
AcDbLine
 10
-32.599551
 20
110.780468
 30
0.0
 11
-32.599551
 21
82.780468
 31
0.0
  0
LINE
  5
284
330
280
100
AcDbEntity
  8
LC-002-100-D00-0
 62
     2
370
    -2
100
AcDbLine
 10
-32.599551
 20
197.280468
 30
0.0
 11
-32.599551
 21
225.280468
 31
0.0
  0
LINE
  5
285
330
280
100
AcDbEntity
  8
LC-002-100-D00-0
 62
     2
370
    -2
100
AcDbLine
 10
-32.599551
 20
138.780468
 30
0.0
 11
-32.599551
 21
169.280468
 31
0.0
  0
SOLID
  5
286
330
280
100
AcDbEntity
  8
LC-002-100-D00-0
 62
     2
100
AcDbTrace
 10
-27.932885
 20
110.780468
 30
0.0
 11
-37.266218
 21
110.780468
 31
0.0
 12
-32.599551
 22
138.780468
 32
0.0
 13
-32.599551
 23
138.780468
 33
0.0
  0
SOLID
  5
287
330
280
100
AcDbEntity
  8
LC-002-100-D00-0
 62
     2
100
AcDbTrace
 10
-37.266218
 20
197.280468
 30
0.0
 11
-27.932885
 21
197.280468
 31
0.0
 12
-32.599551
 22
169.280468
 32
0.0
 13
-32.599551
 23
169.280468
 33
0.0
  0
MTEXT
  5
288
330
280
100
AcDbEntity
  8
LC-002-100-D00-0
 62
     2
100
AcDbMText
 10
-63.399551
 20
155.444917
 30
0.0
 40
28.0
 41
0.0
 71
     5
 72
     1
  1
\A1;30
  7
LCTX15-400-0-0pDIN-Schrift
 11
6.123031769111886E-17
 21
1.0
 31
0.0
 73
     1
 44
1.0
  0
POINT
  5
289
330
280
100
AcDbEntity
  8
Defpoints
 62
     0
100
AcDbPoint
 10
36.976178
 20
138.780468
 30
0.0
  0
POINT
  5
28A
330
280
100
AcDbEntity
  8
Defpoints
 62
     0
100
AcDbPoint
 10
25.624078
 20
169.280468
 30
0.0
  0
POINT
  5
28B
330
280
100
AcDbEntity
  8
Defpoints
 62
     0
100
AcDbPoint
 10
-32.599551
 20
169.280468
 30
0.0
  0
ENDBLK
  5
28D
330
280
100
AcDbEntity
  8
0
100
AcDbBlockEnd
  0
BLOCK
  5
299
330
28F
100
AcDbEntity
  8
0
100
AcDbBlockBegin
  2
*D24
 70
     1
 71
     0
 10
0.0
 20
0.0
 30
0.0
  3
*D24
  1

  0
LINE
  5
290
330
28F
100
AcDbEntity
  8
LC-002-100-D00-0
 62
     2
370
    -2
100
AcDbLine
 10
-2.523822
 20
171.395486
 30
0.0
 11
-2.523822
 21
27.589966
 31
0.0
  0
LINE
  5
291
330
28F
100
AcDbEntity
  8
LC-002-100-D00-0
 62
     2
370
    -2
100
AcDbLine
 10
114.476178
 20
171.395486
 30
0.0
 11
114.476178
 21
27.589966
 31
0.0
  0
LINE
  5
292
330
28F
100
AcDbEntity
  8
LC-002-100-D00-0
 62
     2
370
    -2
100
AcDbLine
 10
25.476178
 20
31.189966
 30
0.0
 11
86.476178
 21
31.189966
 31
0.0
  0
SOLID
  5
293
330
28F
100
AcDbEntity
  8
LC-002-100-D00-0
 62
     2
100
AcDbTrace
 10
25.476178
 20
35.856633
 30
0.0
 11
25.476178
 21
26.5233
 31
0.0
 12
-2.523822
 22
31.189966
 32
0.0
 13
-2.523822
 23
31.189966
 33
0.0
  0
SOLID
  5
294
330
28F
100
AcDbEntity
  8
LC-002-100-D00-0
 62
     2
100
AcDbTrace
 10
86.476178
 20
26.5233
 30
0.0
 11
86.476178
 21
35.856633
 31
0.0
 12
114.476178
 22
31.189966
 32
0.0
 13
114.476178
 23
31.189966
 33
0.0
  0
MTEXT
  5
295
330
28F
100
AcDbEntity
  8
LC-002-100-D00-0
 62
     2
100
AcDbMText
 10
56.528284
 20
61.989966
 30
0.0
 40
28.0
 41
0.0
 71
     5
 72
     1
  1
\A1;%%c117
  7
LCTX15-400-0-0pDIN-Schrift
 73
     1
 44
1.0
  0
POINT
  5
296
330
28F
100
AcDbEntity
  8
Defpoints
 62
     0
100
AcDbPoint
 10
-2.523822
 20
171.395486
 30
0.0
  0
POINT
  5
297
330
28F
100
AcDbEntity
  8
Defpoints
 62
     0
100
AcDbPoint
 10
114.476178
 20
171.395486
 30
0.0
  0
POINT
  5
298
330
28F
100
AcDbEntity
  8
Defpoints
 62
     0
100
AcDbPoint
 10
114.476178
 20
31.189966
 30
0.0
  0
ENDBLK
  5
29A
330
28F
100
AcDbEntity
  8
0
100
AcDbBlockEnd
  0
BLOCK
  5
2A8
330
29D
100
AcDbEntity
  8
0
100
AcDbBlockBegin
  2
*D25
 70
     1
 71
     0
 10
0.0
 20
0.0
 30
0.0
  3
*D25
  1

  0
LINE
  5
29E
330
29D
100
AcDbEntity
  8
LC-002-100-D00-0
 62
     2
370
    -2
100
AcDbLine
 10
22.226178
 20
136.895486
 30
0.0
 11
22.226178
 21
65.246079
 31
0.0
  0
LINE
  5
29F
330
29D
100
AcDbEntity
  8
LC-002-100-D00-0
 62
     2
370
    -2
100
AcDbLine
 10
89.726178
 20
133.640605
 30
0.0
 11
89.726178
 21
65.246079
 31
0.0
  0
LINE
  5
2A0
330
29D
100
AcDbEntity
  8
LC-002-100-D00-0
 62
     2
370
    -2
100
AcDbLine
 10
50.226178
 20
68.846079
 30
0.0
 11
61.726178
 21
68.846079
 31
0.0
  0
LINE
  5
2A1
330
29D
100
AcDbEntity
  8
LC-002-100-D00-0
 62
     2
370
    -2
100
AcDbLine
 10
89.726178
 20
68.846079
 30
0.0
 11
201.528175
 21
68.846079
 31
0.0
  0
SOLID
  5
2A2
330
29D
100
AcDbEntity
  8
LC-002-100-D00-0
 62
     2
100
AcDbTrace
 10
50.226178
 20
73.512746
 30
0.0
 11
50.226178
 21
64.179412
 31
0.0
 12
22.226178
 22
68.846079
 32
0.0
 13
22.226178
 23
68.846079
 33
0.0
  0
SOLID
  5
2A3
330
29D
100
AcDbEntity
  8
LC-002-100-D00-0
 62
     2
100
AcDbTrace
 10
61.726178
 20
64.179412
 30
0.0
 11
61.726178
 21
73.512746
 31
0.0
 12
89.726178
 22
68.846079
 32
0.0
 13
89.726178
 23
68.846079
 33
0.0
  0
MTEXT
  5
2A4
330
29D
100
AcDbEntity
  8
LC-002-100-D00-0
 62
     2
100
AcDbMText
 10
163.312785
 20
99.646079
 30
0.0
 40
28.0
 41
0.0
 71
     5
 72
     1
  1
\A1;%%c67,5
  7
LCTX15-400-0-0pDIN-Schrift
 73
     1
 44
1.0
  0
POINT
  5
2A5
330
29D
100
AcDbEntity
  8
Defpoints
 62
     0
100
AcDbPoint
 10
22.226178
 20
136.895486
 30
0.0
  0
POINT
  5
2A6
330
29D
100
AcDbEntity
  8
Defpoints
 62
     0
100
AcDbPoint
 10
89.726178
 20
133.640605
 30
0.0
  0
POINT
  5
2A7
330
29D
100
AcDbEntity
  8
Defpoints
 62
     0
100
AcDbPoint
 10
89.726178
 20
68.846079
 30
0.0
  0
ENDBLK
  5
2A9
330
29D
100
AcDbEntity
  8
0
100
AcDbBlockEnd
  0
BLOCK
  5
2AE
330
2AD
100
AcDbEntity
  8
0
100
AcDbBlockBegin
  2
LCDIM1
 70
     0
 71
     0
 10
0.0
 20
0.0
 30
0.0
  3
LCDIM1
  1

  4
LCDIM1
  0
TEXT
  5
2B1
330
2AD
100
AcDbEntity
  8
LC-003-003-----0
 62
     7
370
   140
100
AcDbText
 10
286.345638
 20
32.559958
 30
0.0
 40
28.0
  1
 15%%d
 50
56.706467
 41
0.8
 51
15.0
  7
LCTX15-400-0-0-Arial
 72
     1
 11
301.740227
 21
56.001746
 31
0.0
100
AcDbText
  0
LINE
  5
2B2
330
2AD
100
AcDbEntity
  8
LC-003-003-----0
 62
     7
370
    25
100
AcDbLine
 10
333.255561
 20
73.860325
 30
0.0
 11
334.9304
 21
82.079994
 31
0.0
  0
LINE
  5
2B3
330
2AD
100
AcDbEntity
  8
LC-003-003-----0
 62
     7
370
    25
100
AcDbLine
 10
335.609397
 20
85.41233
 30
0.0
 11
338.845969
 21
101.296566
 31
0.0
  0
LINE
  5
2B4
330
2AD
100
AcDbEntity
  8
LC-003-003-----0
 62
     7
370
    25
100
AcDbLine
 10
338.845969
 20
101.296566
 30
0.0
 11
332.077735
 21
87.731627
 31
0.0
  0
LINE
  5
2B5
330
2AD
100
AcDbEntity
  8
LC-003-003-----0
 62
     7
370
    25
100
AcDbLine
 10
330.219585
 20
74.906698
 30
0.0
 11
333.255561
 21
73.860325
 31
0.0
  0
LINE
  5
2B6
330
2AD
100
AcDbEntity
  8
LC-003-003-----0
 62
     7
370
    25
100
AcDbLine
 10
332.336897
 20
74.111073
 30
0.0
 11
333.524404
 21
79.939043
 31
0.0
  0
LINE
  5
2B7
330
2AD
100
AcDbEntity
  8
LC-003-003-----0
 62
     7
370
    25
100
AcDbLine
 10
334.754091
 20
85.974022
 30
0.0
 11
336.473799
 21
94.413891
 31
0.0
  0
LINE
  5
2B8
330
2AD
100
AcDbEntity
  8
LC-003-003-----0
 62
     7
370
    25
100
AcDbLine
 10
336.473799
 20
94.413891
 30
0.0
 11
332.877592
 21
87.206349
 31
0.0
  0
LINE
  5
2B9
330
2AD
100
AcDbEntity
  8
LC-003-003-----0
 62
     7
370
    25
100
AcDbLine
 10
331.418234
 20
74.361821
 30
0.0
 11
332.118408
 21
77.798092
 31
0.0
  0
LINE
  5
2BA
330
2AD
100
AcDbEntity
  8
LC-003-003-----0
 62
     7
370
    25
100
AcDbLine
 10
333.898786
 20
86.535715
 30
0.0
 11
334.101629
 21
87.531217
 31
0.0
  0
LINE
  5
2BB
330
2AD
100
AcDbEntity
  8
LC-003-003-----0
 62
     7
370
    25
100
AcDbLine
 10
334.101629
 20
87.531217
 30
0.0
 11
333.677448
 21
86.68107
 31
0.0
  0
LINE
  5
2BC
330
2AD
100
AcDbEntity
  8
LC-003-003-----0
 62
     7
370
    25
100
AcDbLine
 10
330.49957
 20
74.612569
 30
0.0
 11
330.712412
 21
75.657141
 31
0.0
  0
LINE
  5
2BD
330
2AD
100
AcDbEntity
  8
LC-003-003-----0
 62
     7
370
    25
100
AcDbLine
 10
340.048687
 20
180.331727
 30
0.0
 11
345.639095
 21
152.895486
 31
0.0
  0
LINE
  5
2BE
330
2AD
100
AcDbEntity
  8
LC-003-003-----0
 62
     7
370
    25
100
AcDbLine
 10
345.639095
 20
152.895486
 30
0.0
 11
347.340198
 21
180.843764
 31
0.0
  0
LINE
  5
2BF
330
2AD
100
AcDbEntity
  8
LC-003-003-----0
 62
     7
370
    25
100
AcDbLine
 10
347.340198
 20
180.843764
 30
0.0
 11
340.048687
 21
180.331727
 31
0.0
  0
LINE
  5
2C0
330
2AD
100
AcDbEntity
  8
LC-003-003-----0
 62
     7
370
    25
100
AcDbLine
 10
340.992221
 20
180.46042
 30
0.0
 11
345.129123
 21
160.157602
 31
0.0
  0
LINE
  5
2C1
330
2AD
100
AcDbEntity
  8
LC-003-003-----0
 62
     7
370
    25
100
AcDbLine
 10
345.129123
 20
160.157602
 30
0.0
 11
346.387938
 21
180.839328
 31
0.0
  0
LINE
  5
2C2
330
2AD
100
AcDbEntity
  8
LC-003-003-----0
 62
     7
370
    25
100
AcDbLine
 10
341.935754
 20
180.589114
 30
0.0
 11
344.61915
 21
167.419718
 31
0.0
  0
LINE
  5
2C3
330
2AD
100
AcDbEntity
  8
LC-003-003-----0
 62
     7
370
    25
100
AcDbLine
 10
344.61915
 20
167.419718
 30
0.0
 11
345.435679
 21
180.834891
 31
0.0
  0
LINE
  5
2C4
330
2AD
100
AcDbEntity
  8
LC-003-003-----0
 62
     7
370
    25
100
AcDbLine
 10
342.879288
 20
180.717807
 30
0.0
 11
344.109177
 21
174.681834
 31
0.0
  0
LINE
  5
2C5
330
2AD
100
AcDbEntity
  8
LC-003-003-----0
 62
     7
370
    25
100
AcDbLine
 10
344.109177
 20
174.681834
 30
0.0
 11
344.48342
 21
180.830455
 31
0.0
  0
ARC
  5
2C7
330
2AD
100
AcDbEntity
  8
LC-004-003-MTG-0
 62
     7
370
    25
100
AcDbCircle
 10
146.276178
 20
152.895486
 30
0.0
 40
199.3629170378675
100
AcDbArc
 50
316.288953
 51
336.320466
  0
ARC
  5
2C8
330
2AD
100
AcDbEntity
  8
LC-004-003-MTG-0
 62
     7
370
    25
100
AcDbCircle
 10
146.276178
 20
152.895486
 30
0.0
 40
199.3629170378675
100
AcDbArc
 50
340.497166
 51
11.12395
  0
LINE
  5
2CA
330
2AD
100
AcDbEntity
  8
LC-005-003-MTH-0
 62
     7
370
    25
100
AcDbLine
 10
242.919781
 20
126.999911
 30
0.0
 11
342.709672
 21
100.26129
 31
0.0
  0
LINE
  5
2CB
330
2AD
100
AcDbEntity
  8
LC-005-003-MTH-0
 62
     7
370
    25
100
AcDbLine
 10
230.176177
 20
152.895486
 30
0.0
 11
349.639095
 21
152.895486
 31
0.0
  0
ENDBLK
  5
2AF
330
2AD
100
AcDbEntity
  8
0
100
AcDbBlockEnd
  0
ENDSEC
  0
SECTION
  2
ENTITIES
  0
LINE
  5
32
330
1F
100
AcDbEntity
  8
LC-001-002-----0
 62
     7
370
    25
100
AcDbLine
 10
146.276178
 20
152.895486
 30
0.0
 11
242.919781
 21
126.999911
 31
0.0
  0
LINE
  5
34
330
1F
100
AcDbEntity
  8
LC-002-100-D00-0
 62
     7
370
    50
100
AcDbLine
 10
154.076177
 20
130.145487
 30
0.0
 11
154.076177
 21
132.045485
 31
0.0
  0
LINE
  5
35
330
1F
100
AcDbEntity
  8
LC-002-100-D00-0
 62
     7
370
    50
100
AcDbLine
 10
154.076177
 20
173.745483
 30
0.0
 11
154.076177
 21
175.645486
 31
0.0
  0
LINE
  5
36
330
1F
100
AcDbEntity
  8
LC-002-100-D00-0
 62
     7
370
    50
100
AcDbLine
 10
-50.023821
 20
185.395487
 30
0.0
 11
-0.023824
 21
185.395487
 31
0.0
  0
LINE
  5
37
330
1F
100
AcDbEntity
  8
LC-002-100-D00-0
 62
     7
370
    50
100
AcDbLine
 10
111.97618
 20
185.395487
 30
0.0
 11
161.976177
 21
185.395487
 31
0.0
  0
LINE
  5
38
330
1F
100
AcDbEntity
  8
LC-002-100-D00-0
 62
     7
370
    50
100
AcDbLine
 10
16.726177
 20
185.780466
 30
0.0
 11
17.976179
 21
185.780466
 31
0.0
  0
LINE
  5
39
330
1F
100
AcDbEntity
  8
LC-002-100-D00-0
 62
     7
370
    50
100
AcDbLine
 10
93.976177
 20
185.780466
 30
0.0
 11
95.226179
 21
185.780466
 31
0.0
  0
CIRCLE
  5
3A
330
1F
100
AcDbEntity
  8
LC-002-100-D00-0
 62
     7
370
    50
100
AcDbCircle
 10
152.076178
 20
130.145486
 30
0.0
 40
2.0
  0
CIRCLE
  5
3B
330
1F
100
AcDbEntity
  8
LC-002-100-D00-0
 62
     7
370
    50
100
AcDbCircle
 10
152.076178
 20
175.645486
 30
0.0
 40
2.0
  0
INSERT
  5
49
330
1F
100
AcDbEntity
  8
LC-002-100-D00-0
 62
     7
370
    50
100
AcDbBlockReference
  2
POLY1
 10
0.0
 20
0.0
 30
0.0
  0
LINE
  5
4A
330
1F
100
AcDbEntity
  8
LC-002-100-D00-0
 62
     7
370
    50
100
AcDbLine
 10
160.507571
 20
176.426687
 30
0.0
 11
160.596501
 21
176.426687
 31
0.0
  0
LINE
  5
4B
330
1F
100
AcDbEntity
  8
LC-002-100-D00-0
 62
     7
370
    50
100
AcDbLine
 10
159.056019
 20
177.245535
 30
0.0
 11
159.15602
 21
177.245535
 31
0.0
  0
ARC
  5
4C
330
1F
100
AcDbEntity
  8
LC-002-100-D00-0
 62
     7
370
    50
100
AcDbCircle
 10
146.276178
 20
152.895486
 30
0.0
 40
27.50000000000001
100
AcDbArc
 50
55.556982
 51
62.307721
  0
ARC
  5
4D
330
1F
100
AcDbEntity
  8
LC-002-100-D00-0
 62
     7
370
    50
100
AcDbCircle
 10
139.976178
 20
177.914479
 30
0.0
 40
0.7999999999999545
100
AcDbArc
 50
180.0
 51
284.133737
  0
LINE
  5
4E
330
1F
100
AcDbEntity
  8
LC-002-100-D00-0
 62
     7
370
    50
100
AcDbLine
 10
139.176178
 20
177.914478
 30
0.0
 11
139.176178
 21
180.395484
 31
0.0
  0
LINE
  5
4F
330
1F
100
AcDbEntity
  8
LC-002-100-D00-0
 62
     7
370
    50
100
AcDbLine
 10
139.176178
 20
180.395484
 30
0.0
 11
146.276179
 21
180.395484
 31
0.0
  0
ARC
  5
50
330
1F
100
AcDbEntity
  8
LC-002-100-D00-0
 62
     7
370
    50
100
AcDbCircle
 10
146.276178
 20
152.895486
 30
0.0
 40
27.50000000000003
100
AcDbArc
 50
63.320517
 51
90.0
  0
LINE
  5
51
330
1F
100
AcDbEntity
  8
LC-002-100-D00-0
 62
     7
370
    50
100
AcDbLine
 10
158.723619
 20
177.467622
 30
0.0
 11
158.623617
 21
177.467622
 31
0.0
  0
ARC
  5
52
330
1F
100
AcDbEntity
  8
LC-002-100-D00-0
 62
     7
370
    50
100
AcDbCircle
 10
146.376178
 20
152.895486
 30
0.0
 40
27.49999999999994
100
AcDbArc
 50
62.307719
 51
63.320577
  0
LINE
  5
53
330
1F
100
AcDbEntity
  8
LC-002-100-D00-0
 62
     7
370
    50
100
AcDbLine
 10
161.929782
 20
175.574437
 30
0.0
 11
161.82978
 21
175.574437
 31
0.0
  0
ARC
  5
54
330
1F
100
AcDbEntity
  8
LC-002-100-D00-0
 62
     7
370
    50
100
AcDbCircle
 10
146.376178
 20
152.895486
 30
0.0
 40
27.49999999999998
100
AcDbArc
 50
54.758093
 51
55.556982
  0
LINE
  5
55
330
1F
100
AcDbEntity
  8
LC-002-100-D00-0
 62
     7
370
    50
100
AcDbLine
 10
162.144486
 20
175.35536
 30
0.0
 11
162.244487
 21
175.35536
 31
0.0
  0
ARC
  5
56
330
1F
100
AcDbEntity
  8
LC-002-100-D00-0
 62
     7
370
    50
100
AcDbCircle
 10
146.276178
 20
152.895486
 30
0.0
 40
27.50000000000001
100
AcDbArc
 50
46.658242
 51
54.758051
  0
LINE
  5
57
330
1F
100
AcDbEntity
  8
LC-002-100-D00-0
 62
     7
370
    50
100
AcDbLine
 10
165.150765
 20
172.895484
 30
0.0
 11
227.176185
 21
172.895484
 31
0.0
  0
LINE
  5
58
330
1F
100
AcDbEntity
  8
LC-002-100-D00-0
 62
     7
370
    50
100
AcDbLine
 10
230.176177
 20
172.091641
 30
0.0
 11
227.176185
 21
172.895484
 31
0.0
  0
LINE
  5
59
330
1F
100
AcDbEntity
  8
LC-002-100-D00-0
 62
     7
370
    50
100
AcDbLine
 10
230.176177
 20
172.091641
 30
0.0
 11
230.176177
 21
169.895485
 31
0.0
  0
LINE
  5
5A
330
1F
100
AcDbEntity
  8
LC-002-100-D00-0
 62
     7
370
    50
100
AcDbLine
 10
230.176177
 20
169.895485
 30
0.0
 11
166.676175
 21
169.895485
 31
0.0
  0
LINE
  5
5B
330
1F
100
AcDbEntity
  8
LC-002-100-D00-0
 62
     7
370
    50
100
AcDbLine
 10
166.676175
 20
169.895485
 30
0.0
 11
163.121808
 21
171.36775
 31
0.0
  0
ARC
  5
5C
330
1F
100
AcDbEntity
  8
LC-002-100-D00-0
 62
     7
370
    50
100
AcDbCircle
 10
146.276178
 20
152.895486
 30
0.0
 40
25.00000000000011
100
AcDbArc
 50
47.637004
 51
104.133737
  0
INSERT
  5
6A
330
1F
100
AcDbEntity
  8
LC-002-100-D00-0
 62
     7
370
    50
100
AcDbBlockReference
  2
POLY2
 10
0.0
 20
0.0
 30
0.0
  0
ARC
  5
6B
330
1F
100
AcDbEntity
  8
LC-002-100-D00-0
 62
     7
370
    50
100
AcDbCircle
 10
146.276178
 20
152.895486
 30
0.0
 40
27.5
100
AcDbArc
 50
270.0
 51
313.341758
  0
ARC
  5
6C
330
1F
100
AcDbEntity
  8
LC-002-100-D00-0
 62
     7
370
    50
100
AcDbCircle
 10
139.976178
 20
127.876493
 30
0.0
 40
0.7999999999999048
100
AcDbArc
 50
75.866263
 51
180.0
  0
ARC
  5
6D
330
1F
100
AcDbEntity
  8
LC-002-100-D00-0
 62
     7
370
    50
100
AcDbCircle
 10
146.276178
 20
152.895486
 30
0.0
 40
24.99999999999998
100
AcDbArc
 50
255.866263
 51
312.362996
  0
LINE
  5
6E
330
1F
100
AcDbEntity
  8
LC-002-100-D00-0
 62
     7
370
    50
100
AcDbLine
 10
163.121808
 20
134.423219
 30
0.0
 11
166.676175
 21
135.895487
 31
0.0
  0
LINE
  5
6F
330
1F
100
AcDbEntity
  8
LC-002-100-D00-0
 62
     7
370
    50
100
AcDbLine
 10
166.676175
 20
135.895487
 30
0.0
 11
230.176177
 21
135.895487
 31
0.0
  0
LINE
  5
70
330
1F
100
AcDbEntity
  8
LC-002-100-D00-0
 62
     7
370
    50
100
AcDbLine
 10
230.176177
 20
135.895487
 30
0.0
 11
230.176177
 21
133.699335
 31
0.0
  0
LINE
  5
71
330
1F
100
AcDbEntity
  8
LC-002-100-D00-0
 62
     7
370
    50
100
AcDbLine
 10
227.176185
 20
132.895485
 30
0.0
 11
230.176177
 21
133.699335
 31
0.0
  0
LINE
  5
72
330
1F
100
AcDbEntity
  8
LC-002-100-D00-0
 62
     7
370
    50
100
AcDbLine
 10
227.176185
 20
132.895485
 30
0.0
 11
165.150765
 21
132.895485
 31
0.0
  0
LINE
  5
73
330
1F
100
AcDbEntity
  8
LC-002-100-D00-0
 62
     7
370
    50
100
AcDbLine
 10
146.276179
 20
125.395486
 30
0.0
 11
139.176178
 21
125.395486
 31
0.0
  0
LINE
  5
74
330
1F
100
AcDbEntity
  8
LC-002-100-D00-0
 62
     7
370
    50
100
AcDbLine
 10
139.176178
 20
125.395486
 30
0.0
 11
139.176178
 21
127.876492
 31
0.0
  0
LINE
  5
75
330
1F
100
AcDbEntity
  8
LC-002-100-D00-0
 62
     7
370
    50
100
AcDbLine
 10
163.121808
 20
171.36775
 30
0.0
 11
163.121808
 21
134.423219
 31
0.0
  0
LINE
  5
76
330
1F
100
AcDbEntity
  8
LC-002-100-D00-0
 62
     7
370
    50
100
AcDbLine
 10
166.676175
 20
169.895485
 30
0.0
 11
166.676175
 21
135.895487
 31
0.0
  0
LINE
  5
77
330
1F
100
AcDbEntity
  8
LC-002-100-D00-0
 62
     7
370
    50
100
AcDbLine
 10
230.176177
 20
169.895485
 30
0.0
 11
230.176177
 21
135.895487
 31
0.0
  0
LINE
  5
78
330
1F
100
AcDbEntity
  8
LC-002-100-D00-0
 62
     7
370
    50
100
AcDbLine
 10
139.176178
 20
127.876492
 30
0.0
 11
139.176178
 21
128.924879
 31
0.0
  0
LINE
  5
79
330
1F
100
AcDbEntity
  8
LC-002-100-D00-0
 62
     7
370
    50
100
AcDbLine
 10
162.148032
 20
175.352872
 30
0.0
 11
162.201244
 21
175.352872
 31
0.0
  0
ARC
  5
7A
330
1F
100
AcDbEntity
  8
LC-002-100-D00-0
 62
     7
370
    50
100
AcDbCircle
 10
162.08739
 20
175.291581
 30
0.0
 40
0.1293033575519534
100
AcDbArc
 50
1.797288
 51
28.294747
  0
INSERT
  5
86
330
1F
100
AcDbEntity
  8
LC-002-100-D00-0
 62
     7
370
    50
100
AcDbBlockReference
  2
POLY3
 10
0.0
 20
0.0
 30
0.0
  0
LINE
  5
87
330
1F
100
AcDbEntity
  8
LC-002-100-D00-0
 62
     7
370
    50
100
AcDbLine
 10
26.101742
 20
168.795034
 30
0.0
 11
26.252754
 21
168.795034
 31
0.0
  0
LINE
  5
88
330
1F
100
AcDbEntity
  8
LC-002-100-D00-0
 62
     7
370
    50
100
AcDbLine
 10
19.97618
 20
180.28047
 30
0.0
 11
26.101742
 21
168.795034
 31
0.0
  0
LINE
  5
89
330
1F
100
AcDbEntity
  8
LC-002-100-D00-0
 62
     7
370
    50
100
AcDbLine
 10
19.97618
 20
180.28047
 30
0.0
 11
20.101394
 21
180.28047
 31
0.0
  0
LINE
  5
8A
330
1F
100
AcDbEntity
  8
LC-002-100-D00-0
 62
     7
370
    50
100
AcDbLine
 10
16.126178
 20
182.280466
 30
0.0
 11
16.126178
 21
183.780469
 31
0.0
  0
LINE
  5
8B
330
1F
100
AcDbEntity
  8
LC-002-100-D00-0
 62
     7
370
    50
100
AcDbLine
 10
95.826178
 20
183.780469
 30
0.0
 11
95.826178
 21
182.280466
 31
0.0
  0
LINE
  5
8C
330
1F
100
AcDbEntity
  8
LC-002-100-D00-0
 62
     7
370
    50
100
AcDbLine
 10
26.976179
 20
167.280466
 30
0.0
 11
26.976179
 21
138.280466
 31
0.0
  0
LINE
  5
8D
330
1F
100
AcDbEntity
  8
LC-002-100-D00-0
 62
     7
370
    50
100
AcDbLine
 10
84.976177
 20
167.280466
 30
0.0
 11
74.976178
 21
167.280466
 31
0.0
  0
LINE
  5
8E
330
1F
100
AcDbEntity
  8
LC-002-100-D00-0
 62
     7
370
    50
100
AcDbLine
 10
36.976179
 20
167.280466
 30
0.0
 11
26.976179
 21
167.280466
 31
0.0
  0
LINE
  5
8F
330
1F
100
AcDbEntity
  8
LC-002-100-D00-0
 62
     7
370
    50
100
AcDbLine
 10
84.976177
 20
138.280466
 30
0.0
 11
84.976177
 21
167.280466
 31
0.0
  0
LINE
  5
90
330
1F
100
AcDbEntity
  8
LC-002-100-D00-0
 62
     7
370
    50
100
AcDbLine
 10
91.850962
 20
180.28047
 30
0.0
 11
91.476179
 21
180.28047
 31
0.0
  0
LINE
  5
91
330
1F
100
AcDbEntity
  8
LC-002-100-D00-0
 62
     7
370
    50
100
AcDbLine
 10
20.476177
 20
180.28047
 30
0.0
 11
20.101394
 21
180.28047
 31
0.0
  0
LINE
  5
92
330
1F
100
AcDbEntity
  8
LC-002-100-D00-0
 62
     7
370
    50
100
AcDbLine
 10
19.97618
 20
183.780469
 30
0.0
 11
19.97618
 21
180.28047
 31
0.0
  0
LINE
  5
93
330
1F
100
AcDbEntity
  8
LC-002-100-D00-0
 62
     7
370
    50
100
AcDbLine
 10
91.976177
 20
180.28047
 30
0.0
 11
91.976177
 21
183.780469
 31
0.0
  0
LINE
  5
94
330
1F
100
AcDbEntity
  8
LC-002-100-D00-0
 62
     7
370
    50
100
AcDbLine
 10
91.850962
 20
180.28047
 30
0.0
 11
91.976177
 21
180.28047
 31
0.0
  0
ARC
  5
95
330
1F
100
AcDbEntity
  8
LC-002-100-D00-0
 62
     7
370
    50
100
AcDbCircle
 10
35.476178
 20
138.280468
 30
0.0
 40
8.500000000000114
100
AcDbArc
 50
180.0
 51
270.0
  0
ARC
  5
96
330
1F
100
AcDbEntity
  8
LC-002-100-D00-0
 62
     7
370
    50
100
AcDbCircle
 10
76.476178
 20
138.280468
 30
0.0
 40
8.5
100
AcDbArc
 50
270.0
 51
0.0
  0
LINE
  5
97
330
1F
100
AcDbEntity
  8
LC-002-100-D00-0
 62
     7
370
    50
100
AcDbLine
 10
18.476177
 20
180.28047
 30
0.0
 11
18.476177
 21
182.280466
 31
0.0
  0
LINE
  5
98
330
1F
100
AcDbEntity
  8
LC-002-100-D00-0
 62
     7
370
    50
100
AcDbLine
 10
93.47618
 20
182.280466
 30
0.0
 11
93.47618
 21
180.28047
 31
0.0
  0
LINE
  5
99
330
1F
100
AcDbEntity
  8
LC-002-100-D00-0
 62
     7
370
    50
100
AcDbLine
 10
18.476177
 20
182.280466
 30
0.0
 11
16.126178
 21
182.280466
 31
0.0
  0
LINE
  5
9A
330
1F
100
AcDbEntity
  8
LC-002-100-D00-0
 62
     7
370
    50
100
AcDbLine
 10
16.126178
 20
183.780469
 30
0.0
 11
19.97618
 21
183.780469
 31
0.0
  0
LINE
  5
9B
330
1F
100
AcDbEntity
  8
LC-002-100-D00-0
 62
     7
370
    50
100
AcDbLine
 10
26.976179
 20
167.280466
 30
0.0
 11
26.101742
 21
168.795034
 31
0.0
  0
LINE
  5
9C
330
1F
100
AcDbEntity
  8
LC-002-100-D00-0
 62
     7
370
    50
100
AcDbLine
 10
35.476178
 20
129.780468
 30
0.0
 11
76.476179
 21
129.780468
 31
0.0
  0
LINE
  5
9D
330
1F
100
AcDbEntity
  8
LC-002-100-D00-0
 62
     7
370
    50
100
AcDbLine
 10
85.850615
 20
168.795034
 30
0.0
 11
84.976177
 21
167.280466
 31
0.0
  0
LINE
  5
9E
330
1F
100
AcDbEntity
  8
LC-002-100-D00-0
 62
     7
370
    50
100
AcDbLine
 10
85.850615
 20
168.795034
 30
0.0
 11
91.976177
 21
180.28047
 31
0.0
  0
LINE
  5
9F
330
1F
100
AcDbEntity
  8
LC-002-100-D00-0
 62
     7
370
    50
100
AcDbLine
 10
91.976177
 20
183.780469
 30
0.0
 11
95.826178
 21
183.780469
 31
0.0
  0
LINE
  5
A0
330
1F
100
AcDbEntity
  8
LC-002-100-D00-0
 62
     7
370
    50
100
AcDbLine
 10
95.826178
 20
182.280466
 30
0.0
 11
93.47618
 21
182.280466
 31
0.0
  0
ARC
  5
A1
330
1F
100
AcDbEntity
  8
LC-002-100-D00-0
 62
     7
370
    50
100
AcDbCircle
 10
91.976178
 20
180.280468
 30
0.0
 40
1.49999999999994
100
AcDbArc
 50
331.927513
 51
0.0
  0
LINE
  5
A2
330
1F
100
AcDbEntity
  8
LC-002-100-D00-0
 62
     7
370
    50
100
AcDbLine
 10
93.299709
 20
179.574587
 30
0.0
 11
86.476179
 21
166.780465
 31
0.0
  0
LINE
  5
A3
330
1F
100
AcDbEntity
  8
LC-002-100-D00-0
 62
     7
370
    50
100
AcDbLine
 10
86.476179
 20
166.780465
 30
0.0
 11
86.476179
 21
138.280466
 31
0.0
  0
ARC
  5
A4
330
1F
100
AcDbEntity
  8
LC-002-100-D00-0
 62
     7
370
    50
100
AcDbCircle
 10
76.476178
 20
138.280468
 30
0.0
 40
10.0
100
AcDbArc
 50
270.0
 51
0.0
  0
LINE
  5
A5
330
1F
100
AcDbEntity
  8
LC-002-100-D00-0
 62
     7
370
    50
100
AcDbLine
 10
76.476179
 20
128.280468
 30
0.0
 11
35.476178
 21
128.280468
 31
0.0
  0
ARC
  5
A6
330
1F
100
AcDbEntity
  8
LC-002-100-D00-0
 62
     7
370
    50
100
AcDbCircle
 10
35.476178
 20
138.280468
 30
0.0
 40
10.00000000000011
100
AcDbArc
 50
180.0
 51
270.0
  0
LINE
  5
A7
330
1F
100
AcDbEntity
  8
LC-002-100-D00-0
 62
     7
370
    50
100
AcDbLine
 10
25.476178
 20
138.280466
 30
0.0
 11
25.476178
 21
166.780465
 31
0.0
  0
LINE
  5
A8
330
1F
100
AcDbEntity
  8
LC-002-100-D00-0
 62
     7
370
    50
100
AcDbLine
 10
25.476178
 20
166.780465
 30
0.0
 11
18.652647
 21
179.574587
 31
0.0
  0
ARC
  5
A9
330
1F
100
AcDbEntity
  8
LC-002-100-D00-0
 62
     7
370
    50
100
AcDbCircle
 10
19.976178
 20
180.280468
 30
0.0
 40
1.5
100
AcDbArc
 50
180.0
 51
208.072487
  0
INSERT
  5
B5
330
1F
100
AcDbEntity
  8
LC-002-100-D00-0
 62
     7
370
    50
100
AcDbBlockReference
  2
POLY4
 10
0.0
 20
0.0
 30
0.0
  0
LINE
  5
B6
330
1F
100
AcDbEntity
  8
LC-002-100-D00-0
 62
     7
370
    50
100
AcDbLine
 10
85.699603
 20
168.795034
 30
0.0
 11
85.850615
 21
168.795034
 31
0.0
  0
LINE
  5
B7
330
1F
100
AcDbEntity
  8
LC-002-100-D00-0
 62
     7
370
    50
100
AcDbLine
 10
25.971079
 20
169.28047
 30
0.0
 11
36.976179
 21
169.28047
 31
0.0
  0
LINE
  5
B8
330
1F
100
AcDbEntity
  8
LC-002-100-D00-0
 62
     7
370
    50
100
AcDbLine
 10
74.976178
 20
169.28047
 30
0.0
 11
85.981277
 21
169.28047
 31
0.0
  0
LINE
  5
B9
330
1F
100
AcDbEntity
  8
LC-002-100-D00-0
 62
     7
370
    50
100
AcDbLine
 10
20.476177
 20
190.280467
 30
0.0
 11
16.22618
 21
190.280467
 31
0.0
  0
ARC
  5
BA
330
1F
100
AcDbEntity
  8
LC-002-100-D00-0
 62
     7
370
    50
100
AcDbCircle
 10
20.476178
 20
188.280468
 30
0.0
 40
2.0
100
AcDbArc
 50
0.0
 51
90.0
  0
LINE
  5
BB
330
1F
100
AcDbEntity
  8
LC-002-100-D00-0
 62
     7
370
    50
100
AcDbLine
 10
22.476177
 20
182.280466
 30
0.0
 11
22.476177
 21
188.280471
 31
0.0
  0
ARC
  5
BC
330
1F
100
AcDbEntity
  8
LC-002-100-D00-0
 62
     7
370
    50
100
AcDbCircle
 10
23.476178
 20
182.280468
 30
0.0
 40
1.0
100
AcDbArc
 50
180.0
 51
270.0
  0
LINE
  5
BD
330
1F
100
AcDbEntity
  8
LC-002-100-D00-0
 62
     7
370
    50
100
AcDbLine
 10
25.976179
 20
181.280472
 30
0.0
 11
23.476179
 21
181.280472
 31
0.0
  0
ARC
  5
BE
330
1F
100
AcDbEntity
  8
LC-002-100-D00-0
 62
     7
370
    50
100
AcDbCircle
 10
25.976178
 20
169.280468
 30
0.0
 40
12.00000000000011
100
AcDbArc
 50
0.0
 51
90.0
  0
LINE
  5
BF
330
1F
100
AcDbEntity
  8
LC-002-100-D00-0
 62
     7
370
    50
100
AcDbLine
 10
37.976179
 20
138.780467
 30
0.0
 11
37.976179
 21
169.28047
 31
0.0
  0
LINE
  5
C0
330
1F
100
AcDbEntity
  8
LC-002-100-D00-0
 62
     7
370
    50
100
AcDbLine
 10
36.976179
 20
138.780467
 30
0.0
 11
37.976179
 21
138.780467
 31
0.0
  0
LINE
  5
C1
330
1F
100
AcDbEntity
  8
LC-002-100-D00-0
 62
     7
370
    50
100
AcDbLine
 10
36.976179
 20
169.28047
 30
0.0
 11
36.976179
 21
138.780467
 31
0.0
  0
ARC
  5
C2
330
1F
100
AcDbEntity
  8
LC-002-100-D00-0
 62
     7
370
    50
100
AcDbCircle
 10
25.976178
 20
169.280468
 30
0.0
 40
11.0
100
AcDbArc
 50
0.0
 51
90.0
  0
LINE
  5
C3
330
1F
100
AcDbEntity
  8
LC-002-100-D00-0
 62
     7
370
    50
100
AcDbLine
 10
20.476177
 20
180.28047
 30
0.0
 11
25.976179
 21
180.28047
 31
0.0
  0
LINE
  5
C4
330
1F
100
AcDbEntity
  8
LC-002-100-D00-0
 62
     7
370
    50
100
AcDbLine
 10
20.476177
 20
183.780469
 30
0.0
 11
20.476177
 21
180.28047
 31
0.0
  0
LINE
  5
C5
330
1F
100
AcDbEntity
  8
LC-002-100-D00-0
 62
     7
370
    50
100
AcDbLine
 10
16.476176
 20
183.780469
 30
0.0
 11
20.476177
 21
183.780469
 31
0.0
  0
LINE
  5
C6
330
1F
100
AcDbEntity
  8
LC-002-100-D00-0
 62
     7
370
    50
100
AcDbLine
 10
16.476176
 20
185.480468
 30
0.0
 11
16.476176
 21
183.780469
 31
0.0
  0
LINE
  5
C7
330
1F
100
AcDbEntity
  8
LC-002-100-D00-0
 62
     7
370
    50
100
AcDbLine
 10
17.976179
 20
185.480468
 30
0.0
 11
16.476176
 21
185.480468
 31
0.0
  0
LINE
  5
C8
330
1F
100
AcDbEntity
  8
LC-002-100-D00-0
 62
     7
370
    50
100
AcDbLine
 10
17.976179
 20
188.280471
 30
0.0
 11
17.976179
 21
185.480468
 31
0.0
  0
LINE
  5
C9
330
1F
100
AcDbEntity
  8
LC-002-100-D00-0
 62
     7
370
    50
100
AcDbLine
 10
16.22618
 20
188.280471
 30
0.0
 11
17.976179
 21
188.280471
 31
0.0
  0
LINE
  5
CA
330
1F
100
AcDbEntity
  8
LC-002-100-D00-0
 62
     7
370
    50
100
AcDbLine
 10
16.22618
 20
190.280467
 30
0.0
 11
16.22618
 21
188.280471
 31
0.0
  0
LINE
  5
CB
330
1F
100
AcDbEntity
  8
LC-002-100-D00-0
 62
     7
370
    50
100
AcDbLine
 10
74.976178
 20
138.780467
 30
0.0
 11
74.976178
 21
169.28047
 31
0.0
  0
LINE
  5
CC
330
1F
100
AcDbEntity
  8
LC-002-100-D00-0
 62
     7
370
    50
100
AcDbLine
 10
95.47618
 20
185.480468
 30
0.0
 11
93.976177
 21
185.480468
 31
0.0
  0
LINE
  5
CD
330
1F
100
AcDbEntity
  8
LC-002-100-D00-0
 62
     7
370
    50
100
AcDbLine
 10
95.47618
 20
183.780469
 30
0.0
 11
95.47618
 21
185.480468
 31
0.0
  0
LINE
  5
CE
330
1F
100
AcDbEntity
  8
LC-002-100-D00-0
 62
     7
370
    50
100
AcDbLine
 10
91.476179
 20
183.780469
 30
0.0
 11
95.47618
 21
183.780469
 31
0.0
  0
LINE
  5
CF
330
1F
100
AcDbEntity
  8
LC-002-100-D00-0
 62
     7
370
    50
100
AcDbLine
 10
91.476179
 20
180.28047
 30
0.0
 11
91.476179
 21
183.780469
 31
0.0
  0
LINE
  5
D0
330
1F
100
AcDbEntity
  8
LC-002-100-D00-0
 62
     7
370
    50
100
AcDbLine
 10
85.976178
 20
180.28047
 30
0.0
 11
91.476179
 21
180.28047
 31
0.0
  0
ARC
  5
D1
330
1F
100
AcDbEntity
  8
LC-002-100-D00-0
 62
     7
370
    50
100
AcDbCircle
 10
85.976178
 20
169.280468
 30
0.0
 40
11.0
100
AcDbArc
 50
90.0
 51
180.0
  0
LINE
  5
D2
330
1F
100
AcDbEntity
  8
LC-002-100-D00-0
 62
     7
370
    50
100
AcDbLine
 10
73.976177
 20
138.780467
 30
0.0
 11
74.976178
 21
138.780467
 31
0.0
  0
LINE
  5
D3
330
1F
100
AcDbEntity
  8
LC-002-100-D00-0
 62
     7
370
    50
100
AcDbLine
 10
73.976177
 20
169.28047
 30
0.0
 11
73.976177
 21
138.780467
 31
0.0
  0
ARC
  5
D4
330
1F
100
AcDbEntity
  8
LC-002-100-D00-0
 62
     7
370
    50
100
AcDbCircle
 10
85.976178
 20
169.280468
 30
0.0
 40
12.0
100
AcDbArc
 50
90.0
 51
180.0
  0
LINE
  5
D5
330
1F
100
AcDbEntity
  8
LC-002-100-D00-0
 62
     7
370
    50
100
AcDbLine
 10
88.476177
 20
181.280472
 30
0.0
 11
85.976178
 21
181.280472
 31
0.0
  0
ARC
  5
D6
330
1F
100
AcDbEntity
  8
LC-002-100-D00-0
 62
     7
370
    50
100
AcDbCircle
 10
88.476178
 20
182.280468
 30
0.0
 40
1.000000000000114
100
AcDbArc
 50
270.0
 51
0.0
  0
LINE
  5
D7
330
1F
100
AcDbEntity
  8
LC-002-100-D00-0
 62
     7
370
    50
100
AcDbLine
 10
89.476179
 20
188.280471
 30
0.0
 11
89.476179
 21
182.280466
 31
0.0
  0
ARC
  5
D8
330
1F
100
AcDbEntity
  8
LC-002-100-D00-0
 62
     7
370
    50
100
AcDbCircle
 10
91.476178
 20
188.280468
 30
0.0
 40
2.0
100
AcDbArc
 50
90.0
 51
180.0
  0
LINE
  5
D9
330
1F
100
AcDbEntity
  8
LC-002-100-D00-0
 62
     7
370
    50
100
AcDbLine
 10
95.726177
 20
190.280467
 30
0.0
 11
91.476179
 21
190.280467
 31
0.0
  0
LINE
  5
DA
330
1F
100
AcDbEntity
  8
LC-002-100-D00-0
 62
     7
370
    50
100
AcDbLine
 10
95.726177
 20
188.280471
 30
0.0
 11
95.726177
 21
190.280467
 31
0.0
  0
LINE
  5
DB
330
1F
100
AcDbEntity
  8
LC-002-100-D00-0
 62
     7
370
    50
100
AcDbLine
 10
93.976177
 20
188.280471
 30
0.0
 11
95.726177
 21
188.280471
 31
0.0
  0
LINE
  5
DC
330
1F
100
AcDbEntity
  8
LC-002-100-D00-0
 62
     7
370
    50
100
AcDbLine
 10
93.976177
 20
185.480468
 30
0.0
 11
93.976177
 21
188.280471
 31
0.0
  0
LINE
  5
DD
330
1F
100
AcDbEntity
  8
LC-002-100-D00-0
 62
     7
370
    50
100
AcDbLine
 10
85.976178
 20
181.280472
 30
0.0
 11
25.976179
 21
181.280472
 31
0.0
  0
LINE
  5
DE
330
1F
100
AcDbEntity
  8
LC-002-100-D00-0
 62
     7
370
    50
100
AcDbLine
 10
91.476179
 20
190.280467
 30
0.0
 11
20.476177
 21
190.280467
 31
0.0
  0
LINE
  5
DF
330
1F
100
AcDbEntity
  8
LC-002-100-D00-0
 62
     7
370
    50
100
AcDbLine
 10
73.976177
 20
138.780467
 30
0.0
 11
37.976179
 21
138.780467
 31
0.0
  0
LINE
  5
E0
330
1F
100
AcDbEntity
  8
LC-002-100-D00-0
 62
     7
370
    50
100
AcDbLine
 10
15.826177
 20
161.280468
 30
0.0
 11
15.826177
 21
160.780467
 31
0.0
  0
LINE
  5
E1
330
1F
100
AcDbEntity
  8
LC-002-100-D00-0
 62
     7
370
    50
100
AcDbLine
 10
15.826177
 20
189.480469
 30
0.0
 11
15.826177
 21
182.280466
 31
0.0
  0
LINE
  5
E2
330
1F
100
AcDbEntity
  8
LC-002-100-D00-0
 62
     7
370
    50
100
AcDbLine
 10
96.12618
 20
182.280466
 30
0.0
 11
96.12618
 21
189.480469
 31
0.0
  0
LINE
  5
E3
330
1F
100
AcDbEntity
  8
LC-002-100-D00-0
 62
     7
370
    50
100
AcDbLine
 10
96.12618
 20
160.780467
 30
0.0
 11
96.12618
 21
161.280468
 31
0.0
  0
LINE
  5
E4
330
1F
100
AcDbEntity
  8
LC-002-100-D00-0
 62
     7
370
    50
100
AcDbLine
 10
15.826177
 20
160.780467
 30
0.0
 11
25.476178
 21
160.780467
 31
0.0
  0
LINE
  5
E5
330
1F
100
AcDbEntity
  8
LC-002-100-D00-0
 62
     7
370
    50
100
AcDbLine
 10
86.476179
 20
160.780467
 30
0.0
 11
96.12618
 21
160.780467
 31
0.0
  0
LINE
  5
E6
330
1F
100
AcDbEntity
  8
LC-002-100-D00-0
 62
     7
370
    50
100
AcDbLine
 10
93.47618
 20
161.280468
 30
0.0
 11
96.12618
 21
161.280468
 31
0.0
  0
LINE
  5
E7
330
1F
100
AcDbEntity
  8
LC-002-100-D00-0
 62
     7
370
    50
100
AcDbLine
 10
15.826177
 20
161.280468
 30
0.0
 11
18.476177
 21
161.280468
 31
0.0
  0
LINE
  5
E8
330
1F
100
AcDbEntity
  8
LC-002-100-D00-0
 62
     7
370
    50
100
AcDbLine
 10
110.976178
 20
187.980458
 30
0.0
 11
98.97618
 21
187.980458
 31
0.0
  0
LINE
  5
E9
330
1F
100
AcDbEntity
  8
LC-002-100-D00-0
 62
     7
370
    50
100
AcDbLine
 10
98.97618
 20
187.980458
 30
0.0
 11
98.97618
 21
162.280467
 31
0.0
  0
LINE
  5
EA
330
1F
100
AcDbEntity
  8
LC-002-100-D00-0
 62
     7
370
    50
100
AcDbLine
 10
97.476177
 20
160.780467
 30
0.0
 11
98.97618
 21
162.280467
 31
0.0
  0
LINE
  5
EB
330
1F
100
AcDbEntity
  8
LC-002-100-D00-0
 62
     7
370
    50
100
AcDbLine
 10
97.476177
 20
160.780467
 30
0.0
 11
96.12618
 21
160.780467
 31
0.0
  0
LINE
  5
EC
330
1F
100
AcDbEntity
  8
LC-002-100-D00-0
 62
     7
370
    50
100
AcDbLine
 10
93.47618
 20
161.280468
 30
0.0
 11
93.47618
 21
175.347455
 31
0.0
  0
LINE
  5
ED
330
1F
100
AcDbEntity
  8
LC-002-100-D00-0
 62
     7
370
    50
100
AcDbLine
 10
93.47618
 20
175.347455
 30
0.0
 11
93.726176
 21
176.280469
 31
0.0
  0
LINE
  5
EE
330
1F
100
AcDbEntity
  8
LC-002-100-D00-0
 62
     7
370
    50
100
AcDbLine
 10
93.726176
 20
176.280469
 30
0.0
 11
93.726176
 21
182.280466
 31
0.0
  0
LINE
  5
EF
330
1F
100
AcDbEntity
  8
LC-002-100-D00-0
 62
     7
370
    50
100
AcDbLine
 10
93.726176
 20
182.280466
 30
0.0
 11
96.12618
 21
182.280466
 31
0.0
  0
ARC
  5
F0
330
1F
100
AcDbEntity
  8
LC-002-100-D00-0
 62
     7
370
    50
100
AcDbCircle
 10
97.126178
 20
189.480468
 30
0.0
 40
1.0
100
AcDbArc
 50
90.0
 51
180.0
  0
LINE
  5
F1
330
1F
100
AcDbEntity
  8
LC-002-100-D00-0
 62
     7
370
    50
100
AcDbLine
 10
97.126178
 20
190.480471
 30
0.0
 11
98.597612
 21
190.480471
 31
0.0
  0
ARC
  5
F2
330
1F
100
AcDbEntity
  8
LC-002-100-D00-0
 62
     7
370
    50
100
AcDbCircle
 10
98.597614
 20
140.480468
 30
0.0
 40
49.99999999999993
100
AcDbArc
 50
75.66616
 51
90.0
  0
LINE
  5
F3
330
1F
100
AcDbEntity
  8
LC-002-100-D00-0
 62
     7
370
    50
100
AcDbLine
 10
110.976178
 20
188.923955
 30
0.0
 11
110.976178
 21
187.980458
 31
0.0
  0
ARC
  5
F4
330
1F
100
AcDbEntity
  8
LC-002-100-D00-0
 62
     7
370
    50
100
AcDbCircle
 10
13.354743
 20
140.480468
 30
0.0
 40
50.0
100
AcDbArc
 50
90.0
 51
104.33384
  0
LINE
  5
F5
330
1F
100
AcDbEntity
  8
LC-002-100-D00-0
 62
     7
370
    50
100
AcDbLine
 10
13.354744
 20
190.480471
 30
0.0
 11
14.826178
 21
190.480471
 31
0.0
  0
ARC
  5
F6
330
1F
100
AcDbEntity
  8
LC-002-100-D00-0
 62
     7
370
    50
100
AcDbCircle
 10
14.826178
 20
189.480468
 30
0.0
 40
1.0
100
AcDbArc
 50
0.0
 51
90.0
  0
LINE
  5
F7
330
1F
100
AcDbEntity
  8
LC-002-100-D00-0
 62
     7
370
    50
100
AcDbLine
 10
15.826177
 20
182.280466
 30
0.0
 11
18.22618
 21
182.280466
 31
0.0
  0
LINE
  5
F8
330
1F
100
AcDbEntity
  8
LC-002-100-D00-0
 62
     7
370
    50
100
AcDbLine
 10
18.22618
 20
182.280466
 30
0.0
 11
18.22618
 21
176.280469
 31
0.0
  0
LINE
  5
F9
330
1F
100
AcDbEntity
  8
LC-002-100-D00-0
 62
     7
370
    50
100
AcDbLine
 10
18.22618
 20
176.280469
 30
0.0
 11
18.476177
 21
175.347455
 31
0.0
  0
LINE
  5
FA
330
1F
100
AcDbEntity
  8
LC-002-100-D00-0
 62
     7
370
    50
100
AcDbLine
 10
18.476177
 20
175.347455
 30
0.0
 11
18.476177
 21
161.280468
 31
0.0
  0
LINE
  5
FB
330
1F
100
AcDbEntity
  8
LC-002-100-D00-0
 62
     7
370
    50
100
AcDbLine
 10
12.976177
 20
162.280467
 30
0.0
 11
14.47618
 21
160.780467
 31
0.0
  0
LINE
  5
FC
330
1F
100
AcDbEntity
  8
LC-002-100-D00-0
 62
     7
370
    50
100
AcDbLine
 10
12.976177
 20
162.280467
 30
0.0
 11
12.976177
 21
187.980458
 31
0.0
  0
LINE
  5
FD
330
1F
100
AcDbEntity
  8
LC-002-100-D00-0
 62
     7
370
    50
100
AcDbLine
 10
12.976177
 20
187.980458
 30
0.0
 11
0.976178
 21
187.980458
 31
0.0
  0
LINE
  5
FE
330
1F
100
AcDbEntity
  8
LC-002-100-D00-0
 62
     7
370
    50
100
AcDbLine
 10
0.976178
 20
187.980458
 30
0.0
 11
0.976178
 21
188.923955
 31
0.0
  0
LINE
  5
FF
330
1F
100
AcDbEntity
  8
LC-002-100-D00-0
 62
     7
370
    50
100
AcDbLine
 10
15.826177
 20
160.780467
 30
0.0
 11
14.47618
 21
160.780467
 31
0.0
  0
LINE
  5
100
330
1F
100
AcDbEntity
  8
LC-002-100-D00-0
 62
     7
370
    50
100
AcDbLine
 10
14.826178
 20
190.480471
 30
0.0
 11
97.126178
 21
190.480471
 31
0.0
  0
LINE
  5
101
330
1F
100
AcDbEntity
  8
LC-002-100-D00-0
 62
     7
370
    50
100
AcDbLine
 10
105.476178
 20
179.895483
 30
0.0
 11
105.476178
 21
177.895487
 31
0.0
  0
LINE
  5
102
330
1F
100
AcDbEntity
  8
LC-002-100-D00-0
 62
     7
370
    50
100
AcDbLine
 10
109.97618
 20
179.895483
 30
0.0
 11
105.476178
 21
179.895483
 31
0.0
  0
LINE
  5
103
330
1F
100
AcDbEntity
  8
LC-002-100-D00-0
 62
     7
370
    50
100
AcDbLine
 10
109.97618
 20
175.895482
 30
0.0
 11
109.97618
 21
179.895483
 31
0.0
  0
LINE
  5
104
330
1F
100
AcDbEntity
  8
LC-002-100-D00-0
 62
     7
370
    50
100
AcDbLine
 10
114.476178
 20
175.895482
 30
0.0
 11
109.97618
 21
175.895482
 31
0.0
  0
LINE
  5
105
330
1F
100
AcDbEntity
  8
LC-002-100-D00-0
 62
     7
370
    50
100
AcDbLine
 10
114.476178
 20
171.395488
 30
0.0
 11
114.476178
 21
175.895482
 31
0.0
  0
LINE
  5
106
330
1F
100
AcDbEntity
  8
LC-002-100-D00-0
 62
     7
370
    50
100
AcDbLine
 10
110.726177
 20
171.395488
 30
0.0
 11
114.476178
 21
171.395488
 31
0.0
  0
LINE
  5
107
330
1F
100
AcDbEntity
  8
LC-002-100-D00-0
 62
     7
370
    50
100
AcDbLine
 10
110.726177
 20
172.10681
 30
0.0
 11
110.726177
 21
171.395488
 31
0.0
  0
LINE
  5
108
330
1F
100
AcDbEntity
  8
LC-002-100-D00-0
 62
     7
370
    50
100
AcDbLine
 10
108.412523
 20
173.442602
 30
0.0
 11
110.726177
 21
172.10681
 31
0.0
  0
LINE
  5
109
330
1F
100
AcDbEntity
  8
LC-002-100-D00-0
 62
     7
370
    50
100
AcDbLine
 10
106.926176
 20
167.895489
 30
0.0
 11
108.412523
 21
173.442602
 31
0.0
  0
LINE
  5
10A
330
1F
100
AcDbEntity
  8
LC-002-100-D00-0
 62
     7
370
    50
100
AcDbLine
 10
105.476178
 20
167.895489
 30
0.0
 11
106.926176
 21
167.895489
 31
0.0
  0
LINE
  5
10B
330
1F
100
AcDbEntity
  8
LC-002-100-D00-0
 62
     7
370
    50
100
AcDbLine
 10
105.255324
 20
174.219914
 30
0.0
 11
105.476178
 21
167.895489
 31
0.0
  0
ARC
  5
10C
330
1F
100
AcDbEntity
  8
LC-002-100-D00-0
 62
     7
370
    50
100
AcDbCircle
 10
104.555751
 20
174.195486
 30
0.0
 40
0.7000000000001182
100
AcDbArc
 50
2.0
 51
90.0
  0
LINE
  5
10D
330
1F
100
AcDbEntity
  8
LC-002-100-D00-0
 62
     7
370
    50
100
AcDbLine
 10
102.176178
 20
174.895488
 30
0.0
 11
104.555752
 21
174.895488
 31
0.0
  0
ARC
  5
10E
330
1F
100
AcDbEntity
  8
LC-002-100-D00-0
 62
     7
370
    50
100
AcDbCircle
 10
102.176178
 20
174.195486
 30
0.0
 40
0.7000000000000455
100
AcDbArc
 50
90.0
 51
180.0
  0
LINE
  5
10F
330
1F
100
AcDbEntity
  8
LC-002-100-D00-0
 62
     7
370
    50
100
AcDbLine
 10
101.476177
 20
162.895486
 30
0.0
 11
101.476177
 21
174.195484
 31
0.0
  0
LINE
  5
110
330
1F
100
AcDbEntity
  8
LC-002-100-D00-0
 62
     7
370
    50
100
AcDbLine
 10
97.87618
 20
163.895488
 30
0.0
 11
98.876178
 21
162.895486
 31
0.0
  0
LINE
  5
111
330
1F
100
AcDbEntity
  8
LC-002-100-D00-0
 62
     7
370
    50
100
AcDbLine
 10
97.87618
 20
176.895485
 30
0.0
 11
97.87618
 21
163.895488
 31
0.0
  0
LINE
  5
112
330
1F
100
AcDbEntity
  8
LC-002-100-D00-0
 62
     7
370
    50
100
AcDbLine
 10
98.876178
 20
177.895487
 30
0.0
 11
97.87618
 21
176.895485
 31
0.0
  0
LINE
  5
113
330
1F
100
AcDbEntity
  8
LC-002-100-D00-0
 62
     7
370
    50
100
AcDbLine
 10
105.476178
 20
177.895487
 30
0.0
 11
98.876178
 21
177.895487
 31
0.0
  0
LINE
  5
114
330
1F
100
AcDbEntity
  8
LC-002-100-D00-0
 62
     7
370
    50
100
AcDbLine
 10
98.876178
 20
162.895486
 30
0.0
 11
101.476177
 21
162.895486
 31
0.0
  0
LINE
  5
115
330
1F
100
AcDbEntity
  8
LC-002-100-D00-0
 62
     7
370
    50
100
AcDbLine
 10
13.076178
 20
162.895486
 30
0.0
 11
14.076177
 21
163.895488
 31
0.0
  0
LINE
  5
116
330
1F
100
AcDbEntity
  8
LC-002-100-D00-0
 62
     7
370
    50
100
AcDbLine
 10
10.476179
 20
174.195484
 30
0.0
 11
10.476179
 21
162.895486
 31
0.0
  0
ARC
  5
117
330
1F
100
AcDbEntity
  8
LC-002-100-D00-0
 62
     7
370
    50
100
AcDbCircle
 10
9.776178
 20
174.195486
 30
0.0
 40
0.7000000000000455
100
AcDbArc
 50
0.0
 51
90.0
  0
LINE
  5
118
330
1F
100
AcDbEntity
  8
LC-002-100-D00-0
 62
     7
370
    50
100
AcDbLine
 10
7.396605
 20
174.895488
 30
0.0
 11
9.776178
 21
174.895488
 31
0.0
  0
ARC
  5
119
330
1F
100
AcDbEntity
  8
LC-002-100-D00-0
 62
     7
370
    50
100
AcDbCircle
 10
7.396606
 20
174.195486
 30
0.0
 40
0.7000000000000455
100
AcDbArc
 50
90.0
 51
178.0
  0
LINE
  5
11A
330
1F
100
AcDbEntity
  8
LC-002-100-D00-0
 62
     7
370
    50
100
AcDbLine
 10
6.476178
 20
167.895489
 30
0.0
 11
6.697032
 21
174.219914
 31
0.0
  0
LINE
  5
11B
330
1F
100
AcDbEntity
  8
LC-002-100-D00-0
 62
     7
370
    50
100
AcDbLine
 10
5.02618
 20
167.895489
 30
0.0
 11
6.476178
 21
167.895489
 31
0.0
  0
LINE
  5
11C
330
1F
100
AcDbEntity
  8
LC-002-100-D00-0
 62
     7
370
    50
100
AcDbLine
 10
3.539834
 20
173.442602
 30
0.0
 11
5.02618
 21
167.895489
 31
0.0
  0
LINE
  5
11D
330
1F
100
AcDbEntity
  8
LC-002-100-D00-0
 62
     7
370
    50
100
AcDbLine
 10
1.226179
 20
172.10681
 30
0.0
 11
3.539834
 21
173.442602
 31
0.0
  0
LINE
  5
11E
330
1F
100
AcDbEntity
  8
LC-002-100-D00-0
 62
     7
370
    50
100
AcDbLine
 10
1.226179
 20
171.395488
 30
0.0
 11
1.226179
 21
172.10681
 31
0.0
  0
LINE
  5
11F
330
1F
100
AcDbEntity
  8
LC-002-100-D00-0
 62
     7
370
    50
100
AcDbLine
 10
-2.523821
 20
171.395488
 30
0.0
 11
1.226179
 21
171.395488
 31
0.0
  0
LINE
  5
120
330
1F
100
AcDbEntity
  8
LC-002-100-D00-0
 62
     7
370
    50
100
AcDbLine
 10
-2.523821
 20
175.895482
 30
0.0
 11
-2.523821
 21
171.395488
 31
0.0
  0
LINE
  5
121
330
1F
100
AcDbEntity
  8
LC-002-100-D00-0
 62
     7
370
    50
100
AcDbLine
 10
1.976177
 20
175.895482
 30
0.0
 11
-2.523821
 21
175.895482
 31
0.0
  0
LINE
  5
122
330
1F
100
AcDbEntity
  8
LC-002-100-D00-0
 62
     7
370
    50
100
AcDbLine
 10
1.976177
 20
179.895483
 30
0.0
 11
1.976177
 21
175.895482
 31
0.0
  0
LINE
  5
123
330
1F
100
AcDbEntity
  8
LC-002-100-D00-0
 62
     7
370
    50
100
AcDbLine
 10
6.476178
 20
179.895483
 30
0.0
 11
1.976177
 21
179.895483
 31
0.0
  0
LINE
  5
124
330
1F
100
AcDbEntity
  8
LC-002-100-D00-0
 62
     7
370
    50
100
AcDbLine
 10
6.476178
 20
177.895487
 30
0.0
 11
6.476178
 21
179.895483
 31
0.0
  0
LINE
  5
125
330
1F
100
AcDbEntity
  8
LC-002-100-D00-0
 62
     7
370
    50
100
AcDbLine
 10
13.076178
 20
177.895487
 30
0.0
 11
6.476178
 21
177.895487
 31
0.0
  0
LINE
  5
126
330
1F
100
AcDbEntity
  8
LC-002-100-D00-0
 62
     7
370
    50
100
AcDbLine
 10
14.076177
 20
176.895485
 30
0.0
 11
13.076178
 21
177.895487
 31
0.0
  0
LINE
  5
127
330
1F
100
AcDbEntity
  8
LC-002-100-D00-0
 62
     7
370
    50
100
AcDbLine
 10
14.076177
 20
163.895488
 30
0.0
 11
14.076177
 21
176.895485
 31
0.0
  0
LINE
  5
128
330
1F
100
AcDbEntity
  8
LC-002-100-D00-0
 62
     7
370
    50
100
AcDbLine
 10
10.476179
 20
162.895486
 30
0.0
 11
13.076178
 21
162.895486
 31
0.0
  0
LINE
  5
129
330
1F
100
AcDbEntity
  8
LC-002-100-D00-0
 62
     7
370
    50
100
AcDbLine
 10
105.476178
 20
167.895489
 30
0.0
 11
101.476177
 21
167.895489
 31
0.0
  0
LINE
  5
12A
330
1F
100
AcDbEntity
  8
LC-002-100-D00-0
 62
     7
370
    50
100
AcDbLine
 10
10.476179
 20
167.895489
 30
0.0
 11
6.476178
 21
167.895489
 31
0.0
  0
LINE
  5
12B
330
1F
100
AcDbEntity
  8
LC-002-100-D00-0
 62
     7
370
    50
100
AcDbLine
 10
110.726177
 20
172.10681
 30
0.0
 11
109.97618
 21
172.10681
 31
0.0
  0
LINE
  5
12C
330
1F
100
AcDbEntity
  8
LC-002-100-D00-0
 62
     7
370
    50
100
AcDbLine
 10
1.976177
 20
172.10681
 30
0.0
 11
1.226179
 21
172.10681
 31
0.0
  0
LINE
  5
12D
330
1F
100
AcDbEntity
  8
LC-002-100-D00-0
 62
     7
370
    50
100
AcDbLine
 10
110.726177
 20
171.395488
 30
0.0
 11
109.97618
 21
171.395488
 31
0.0
  0
LINE
  5
12E
330
1F
100
AcDbEntity
  8
LC-002-100-D00-0
 62
     7
370
    50
100
AcDbLine
 10
1.976177
 20
171.395488
 30
0.0
 11
1.226179
 21
171.395488
 31
0.0
  0
ARC
  5
12F
330
1F
100
AcDbEntity
  8
LC-002-100-D00-0
 62
     7
370
    50
100
AcDbCircle
 10
76.624432
 20
136.895486
 30
0.0
 40
13.50000000000011
100
AcDbArc
 50
270.0
 51
346.048391
  0
ARC
  5
130
330
1F
100
AcDbEntity
  8
LC-002-100-D00-0
 62
     7
370
    50
100
AcDbCircle
 10
153.776178
 20
131.645486
 30
0.0
 40
0.5
100
AcDbArc
 50
0.0
 51
90.0
  0
LINE
  5
131
330
1F
100
AcDbEntity
  8
LC-002-100-D00-0
 62
     7
370
    50
100
AcDbLine
 10
153.77618
 20
132.145487
 30
0.0
 11
150.576178
 21
132.145487
 31
0.0
  0
ARC
  5
132
330
1F
100
AcDbEntity
  8
LC-002-100-D00-0
 62
     7
370
    50
100
AcDbCircle
 10
150.576178
 20
131.645486
 30
0.0
 40
0.5
100
AcDbArc
 50
90.0
 51
180.0
  0
LINE
  5
133
330
1F
100
AcDbEntity
  8
LC-002-100-D00-0
 62
     7
370
    50
100
AcDbLine
 10
150.076177
 20
131.645486
 30
0.0
 11
150.076177
 21
128.618747
 31
0.0
  0
ARC
  5
134
330
1F
100
AcDbEntity
  8
LC-002-100-D00-0
 62
     7
370
    50
100
AcDbCircle
 10
149.576178
 20
128.618748
 30
0.0
 40
0.5000000000001216
100
AcDbArc
 50
277.740919
 51
0.0
  0
ARC
  5
135
330
1F
100
AcDbEntity
  8
LC-002-100-D00-0
 62
     7
370
    50
100
AcDbCircle
 10
146.276178
 20
152.895486
 30
0.0
 40
24.99999999999999
100
AcDbArc
 50
240.527879
 51
277.740919
  0
LINE
  5
136
330
1F
100
AcDbEntity
  8
LC-002-100-D00-0
 62
     7
370
    50
100
AcDbLine
 10
133.97618
 20
131.130606
 30
0.0
 11
133.97618
 21
128.895486
 31
0.0
  0
LINE
  5
137
330
1F
100
AcDbEntity
  8
LC-002-100-D00-0
 62
     7
370
    50
100
AcDbLine
 10
133.97618
 20
128.895486
 30
0.0
 11
130.976181
 21
128.895486
 31
0.0
  0
LINE
  5
138
330
1F
100
AcDbEntity
  8
LC-002-100-D00-0
 62
     7
370
    50
100
AcDbLine
 10
130.976181
 20
128.895486
 30
0.0
 11
130.976181
 21
131.395485
 31
0.0
  0
LINE
  5
139
330
1F
100
AcDbEntity
  8
LC-002-100-D00-0
 62
     7
370
    50
100
AcDbLine
 10
130.976181
 20
131.395485
 30
0.0
 11
106.779549
 21
131.395485
 31
0.0
  0
LINE
  5
13A
330
1F
100
AcDbEntity
  8
LC-002-100-D00-0
 62
     7
370
    50
100
AcDbLine
 10
106.779549
 20
131.395485
 30
0.0
 11
89.72618
 21
133.640606
 31
0.0
  0
ARC
  5
13B
330
1F
100
AcDbEntity
  8
LC-002-100-D00-0
 62
     7
370
    50
100
AcDbCircle
 10
35.726178
 20
136.895486
 30
0.0
 40
13.5
100
AcDbArc
 50
180.0
 51
270.0
  0
LINE
  5
13C
330
1F
100
AcDbEntity
  8
LC-002-100-D00-0
 62
     7
370
    50
100
AcDbLine
 10
22.226177
 20
142.527148
 30
0.0
 11
22.226177
 21
136.895485
 31
0.0
  0
LINE
  5
13D
330
1F
100
AcDbEntity
  8
LC-002-100-D00-0
 62
     7
370
    50
100
AcDbLine
 10
22.226177
 20
142.527148
 30
0.0
 11
8.931968
 21
144.277364
 31
0.0
  0
ARC
  5
13E
330
1F
100
AcDbEntity
  8
LC-002-100-D00-0
 62
     7
370
    50
100
AcDbCircle
 10
9.976178
 20
152.208923
 30
0.0
 40
8.0
100
AcDbArc
 50
180.0
 51
262.5
  0
LINE
  5
13F
330
1F
100
AcDbEntity
  8
LC-002-100-D00-0
 62
     7
370
    50
100
AcDbLine
 10
1.976177
 20
172.529459
 30
0.0
 11
1.976177
 21
152.208924
 31
0.0
  0
LINE
  5
140
330
1F
100
AcDbEntity
  8
LC-002-100-D00-0
 62
     7
370
    50
100
AcDbLine
 10
3.47618
 20
173.395485
 30
0.0
 11
1.976177
 21
172.529459
 31
0.0
  0
LINE
  5
141
330
1F
100
AcDbEntity
  8
LC-002-100-D00-0
 62
     7
370
    50
100
AcDbLine
 10
3.529254
 20
173.395485
 30
0.0
 11
3.47618
 21
173.395485
 31
0.0
  0
LINE
  5
142
330
1F
100
AcDbEntity
  8
LC-002-100-D00-0
 62
     7
370
    50
100
AcDbLine
 10
4.976179
 20
167.995483
 30
0.0
 11
3.529254
 21
173.395485
 31
0.0
  0
LINE
  5
143
330
1F
100
AcDbEntity
  8
LC-002-100-D00-0
 62
     7
370
    50
100
AcDbLine
 10
4.976179
 20
152.208924
 30
0.0
 11
4.976179
 21
167.995483
 31
0.0
  0
ARC
  5
144
330
1F
100
AcDbEntity
  8
LC-002-100-D00-0
 62
     7
370
    50
100
AcDbCircle
 10
9.976178
 20
152.208923
 30
0.0
 40
5.0
100
AcDbArc
 50
180.0
 51
262.5
  0
LINE
  5
145
330
1F
100
AcDbEntity
  8
LC-002-100-D00-0
 62
     7
370
    50
100
AcDbLine
 10
9.323548
 20
147.251699
 30
0.0
 11
25.226177
 21
145.158079
 31
0.0
  0
LINE
  5
146
330
1F
100
AcDbEntity
  8
LC-002-100-D00-0
 62
     7
370
    50
100
AcDbLine
 10
25.226177
 20
136.895485
 30
0.0
 11
25.226177
 21
145.158079
 31
0.0
  0
ARC
  5
147
330
1F
100
AcDbEntity
  8
LC-002-100-D00-0
 62
     7
370
    50
100
AcDbCircle
 10
35.726178
 20
136.895486
 30
0.0
 40
10.50000000000011
100
AcDbArc
 50
180.0
 51
270.0
  0
LINE
  5
148
330
1F
100
AcDbEntity
  8
LC-002-100-D00-0
 62
     7
370
    50
100
AcDbLine
 10
76.226178
 20
126.395486
 30
0.0
 11
35.726178
 21
126.395486
 31
0.0
  0
ARC
  5
149
330
1F
100
AcDbEntity
  8
LC-002-100-D00-0
 62
     7
370
    50
100
AcDbCircle
 10
76.226178
 20
136.895486
 30
0.0
 40
10.50000000000011
100
AcDbArc
 50
270.0
 51
0.0
  0
LINE
  5
14A
330
1F
100
AcDbEntity
  8
LC-002-100-D00-0
 62
     7
370
    50
100
AcDbLine
 10
86.726179
 20
137.061451
 30
0.0
 11
86.726179
 21
136.895485
 31
0.0
  0
LINE
  5
14B
330
1F
100
AcDbEntity
  8
LC-002-100-D00-0
 62
     7
370
    50
100
AcDbLine
 10
86.726179
 20
137.061451
 30
0.0
 11
106.976177
 21
134.395488
 31
0.0
  0
LINE
  5
14C
330
1F
100
AcDbEntity
  8
LC-002-100-D00-0
 62
     7
370
    50
100
AcDbLine
 10
106.976177
 20
134.395488
 30
0.0
 11
153.77618
 21
134.395488
 31
0.0
  0
LINE
  5
14D
330
1F
100
AcDbEntity
  8
LC-002-100-D00-0
 62
     7
370
    50
100
AcDbLine
 10
158.776175
 20
133.055739
 30
0.0
 11
153.77618
 21
134.395488
 31
0.0
  0
LINE
  5
14E
330
1F
100
AcDbEntity
  8
LC-002-100-D00-0
 62
     7
370
    50
100
AcDbLine
 10
158.776175
 20
133.055739
 30
0.0
 11
158.776175
 21
131.535476
 31
0.0
  0
ARC
  5
14F
330
1F
100
AcDbEntity
  8
LC-002-100-D00-0
 62
     7
370
    50
100
AcDbCircle
 10
158.276178
 20
131.535477
 30
0.0
 40
0.4999999999999579
100
AcDbArc
 50
299.327169
 51
0.0
  0
ARC
  5
150
330
1F
100
AcDbEntity
  8
LC-002-100-D00-0
 62
     7
370
    50
100
AcDbCircle
 10
146.276178
 20
152.895486
 30
0.0
 40
25.0
100
AcDbArc
 50
290.300191
 51
299.327169
  0
ARC
  5
151
330
1F
100
AcDbEntity
  8
LC-002-100-D00-0
 62
     7
370
    50
100
AcDbCircle
 10
154.776178
 20
129.917235
 30
0.0
 40
0.5000000000001137
100
AcDbArc
 50
180.0
 51
290.300191
  0
LINE
  5
152
330
1F
100
AcDbEntity
  8
LC-002-100-D00-0
 62
     7
370
    50
100
AcDbLine
 10
154.276181
 20
129.917236
 30
0.0
 11
154.276181
 21
131.645486
 31
0.0
  0
LINE
  5
153
330
1F
100
AcDbEntity
  8
LC-002-100-D00-0
 62
     7
370
    50
100
AcDbLine
 10
35.726178
 20
123.395486
 30
0.0
 11
76.624432
 21
123.395486
 31
0.0
  0
ARC
  5
154
330
1F
100
AcDbEntity
  8
LC-002-100-D00-0
 62
     7
370
    50
100
AcDbCircle
 10
146.276178
 20
152.895486
 30
0.0
 40
24.99999999999995
100
AcDbArc
 50
82.259081
 51
104.122745
  0
LINE
  5
155
330
1F
100
AcDbEntity
  8
LC-002-100-D00-0
 62
     7
370
    50
100
AcDbLine
 10
130.976181
 20
174.395487
 30
0.0
 11
127.476182
 21
174.395487
 31
0.0
  0
LINE
  5
156
330
1F
100
AcDbEntity
  8
LC-002-100-D00-0
 62
     7
370
    50
100
AcDbLine
 10
158.776175
 20
172.735229
 30
0.0
 11
158.776175
 21
133.055739
 31
0.0
  0
LINE
  5
157
330
1F
100
AcDbEntity
  8
LC-002-100-D00-0
 62
     7
370
    50
100
AcDbLine
 10
153.77618
 20
134.395488
 30
0.0
 11
153.77618
 21
171.395488
 31
0.0
  0
LINE
  5
158
330
1F
100
AcDbEntity
  8
LC-002-100-D00-0
 62
     7
370
    50
100
AcDbLine
 10
153.77618
 20
171.395488
 30
0.0
 11
158.776175
 21
172.735229
 31
0.0
  0
INSERT
  5
16C
330
1F
100
AcDbEntity
  8
LC-002-100-D00-0
 62
     7
370
    50
100
AcDbBlockReference
  2
POLY5
 10
0.0
 20
0.0
 30
0.0
  0
INSERT
  5
18A
330
1F
100
AcDbEntity
  8
LC-002-100-D00-0
 62
     7
370
    50
100
AcDbBlockReference
  2
POLY6
 10
0.0
 20
0.0
 30
0.0
  0
LINE
  5
18B
330
1F
100
AcDbEntity
  8
LC-002-100-D00-0
 62
     7
370
    50
100
AcDbLine
 10
153.77618
 20
171.395488
 30
0.0
 11
129.476178
 21
171.395488
 31
0.0
  0
ARC
  5
18C
330
1F
100
AcDbEntity
  8
LC-002-100-D00-0
 62
     7
370
    50
100
AcDbCircle
 10
149.576178
 20
177.172224
 30
0.0
 40
0.5000000000001137
100
AcDbArc
 50
0.0
 51
82.259081
  0
ARC
  5
18D
330
1F
100
AcDbEntity
  8
LC-002-100-D00-0
 62
     7
370
    50
100
AcDbCircle
 10
146.276178
 20
152.895486
 30
0.0
 40
25.00000000000017
100
AcDbArc
 50
60.672831
 51
69.699809
  0
ARC
  5
18E
330
1F
100
AcDbEntity
  8
LC-002-100-D00-0
 62
     7
370
    50
100
AcDbCircle
 10
154.776178
 20
175.873737
 30
0.0
 40
0.5000000000000832
100
AcDbArc
 50
69.699809
 51
180.0
  0
ARC
  5
18F
330
1F
100
AcDbEntity
  8
LC-002-100-D00-0
 62
     7
370
    50
100
AcDbCircle
 10
158.276178
 20
174.255495
 30
0.0
 40
0.5
100
AcDbArc
 50
0.0
 51
60.672831
  0
ARC
  5
190
330
1F
100
AcDbEntity
  8
LC-002-100-D00-0
 62
     7
370
    50
100
AcDbCircle
 10
153.776178
 20
174.145486
 30
0.0
 40
0.5
100
AcDbArc
 50
270.0
 51
0.0
  0
ARC
  5
191
330
1F
100
AcDbEntity
  8
LC-002-100-D00-0
 62
     7
370
    50
100
AcDbCircle
 10
150.576178
 20
174.145486
 30
0.0
 40
0.5
100
AcDbArc
 50
180.0
 51
270.0
  0
LINE
  5
192
330
1F
100
AcDbEntity
  8
LC-002-100-D00-0
 62
     7
370
    50
100
AcDbLine
 10
150.576178
 20
173.645489
 30
0.0
 11
153.77618
 21
173.645489
 31
0.0
  0
LINE
  5
193
330
1F
100
AcDbEntity
  8
LC-002-100-D00-0
 62
     7
370
    50
100
AcDbLine
 10
106.976177
 20
167.995483
 30
0.0
 11
106.976177
 21
167.895489
 31
0.0
  0
LINE
  5
194
330
1F
100
AcDbEntity
  8
LC-002-100-D00-0
 62
     7
370
    50
100
AcDbLine
 10
108.423102
 20
173.395485
 30
0.0
 11
106.976177
 21
167.995483
 31
0.0
  0
LINE
  5
195
330
1F
100
AcDbEntity
  8
LC-002-100-D00-0
 62
     7
370
    50
100
AcDbLine
 10
108.476177
 20
173.395485
 30
0.0
 11
108.423102
 21
173.395485
 31
0.0
  0
LINE
  5
196
330
1F
100
AcDbEntity
  8
LC-002-100-D00-0
 62
     7
370
    50
100
AcDbLine
 10
109.97618
 20
172.529459
 30
0.0
 11
108.476177
 21
173.395485
 31
0.0
  0
LINE
  5
197
330
1F
100
AcDbEntity
  8
LC-002-100-D00-0
 62
     7
370
    50
100
AcDbLine
 10
109.97618
 20
170.895487
 30
0.0
 11
109.97618
 21
172.529459
 31
0.0
  0
LINE
  5
198
330
1F
100
AcDbEntity
  8
LC-002-100-D00-0
 62
     7
370
    50
100
AcDbLine
 10
123.976182
 20
170.895487
 30
0.0
 11
109.97618
 21
170.895487
 31
0.0
  0
LINE
  5
199
330
1F
100
AcDbEntity
  8
LC-002-100-D00-0
 62
     7
370
    50
100
AcDbLine
 10
123.976182
 20
170.895487
 30
0.0
 11
127.476182
 21
174.395487
 31
0.0
  0
ARC
  5
19A
330
1F
100
AcDbEntity
  8
LC-002-100-D00-0
 62
     7
370
    50
100
AcDbCircle
 10
146.276178
 20
152.895486
 30
0.0
 40
28.50000000000005
100
AcDbArc
 50
102.358924
 51
122.468925
  0
LINE
  5
19B
330
1F
100
AcDbEntity
  8
LC-002-100-D00-0
 62
     7
370
    50
100
AcDbLine
 10
140.17618
 20
180.735029
 30
0.0
 11
140.17618
 21
177.139864
 31
0.0
  0
LINE
  5
19C
330
1F
100
AcDbEntity
  8
LC-002-100-D00-0
 62
     7
370
    50
100
AcDbLine
 10
125.976178
 20
167.895489
 30
0.0
 11
129.476178
 21
171.395488
 31
0.0
  0
LINE
  5
19D
330
1F
100
AcDbEntity
  8
LC-002-100-D00-0
 62
     7
370
    50
100
AcDbLine
 10
125.976178
 20
167.895489
 30
0.0
 11
106.976177
 21
167.895489
 31
0.0
  0
LINE
  5
19E
330
1F
100
AcDbEntity
  8
LC-002-100-D00-0
 62
     7
370
    50
100
AcDbLine
 10
154.276181
 20
174.145483
 30
0.0
 11
154.276181
 21
175.873734
 31
0.0
  0
LINE
  5
19F
330
1F
100
AcDbEntity
  8
LC-002-100-D00-0
 62
     7
370
    50
100
AcDbLine
 10
150.076177
 20
177.172221
 30
0.0
 11
150.076177
 21
174.145483
 31
0.0
  0
LINE
  5
1A0
330
1F
100
AcDbEntity
  8
LC-002-100-D00-0
 62
     7
370
    50
100
AcDbLine
 10
158.776175
 20
174.255498
 30
0.0
 11
158.776175
 21
172.735229
 31
0.0
  0
LINE
  5
1A1
330
1F
100
AcDbEntity
  8
LC-002-100-D00-0
 62
     7
370
    50
100
AcDbLine
 10
130.976181
 20
174.395487
 30
0.0
 11
130.976181
 21
176.940441
 31
0.0
  0
LINE
  5
1A2
330
1F
100
AcDbEntity
  8
LC-002-100-D00-0
 62
     7
370
    50
100
AcDbLine
 10
106.976177
 20
167.995483
 30
0.0
 11
106.952972
 21
167.995483
 31
0.0
  0
LINE
  5
1A3
330
1F
100
AcDbEntity
  8
LC-002-100-D00-0
 62
     7
370
    50
100
AcDbLine
 10
4.999384
 20
167.995483
 30
0.0
 11
4.976179
 21
167.995483
 31
0.0
  0
LINE
  5
1A4
330
1F
100
AcDbEntity
  8
LC-002-100-D00-0
 62
     7
370
    50
100
AcDbLine
 10
106.926176
 20
167.895489
 30
0.0
 11
106.976177
 21
167.895489
 31
0.0
  0
LINE
  5
1A5
330
1F
100
AcDbEntity
  8
LC-002-100-D00-0
 62
     7
370
    50
100
AcDbLine
 10
3.529254
 20
173.395485
 30
0.0
 11
3.552459
 21
173.395485
 31
0.0
  0
LINE
  5
1A6
330
1F
100
AcDbEntity
  8
LC-002-100-D00-0
 62
     7
370
    50
100
AcDbLine
 10
108.399898
 20
173.395485
 30
0.0
 11
108.423102
 21
173.395485
 31
0.0
  0
INSERT
  5
1AC
330
1F
100
AcDbEntity
  8
LC-002-100-D00-0
 62
     7
370
    50
100
AcDbBlockReference
  2
KLON1
 10
0.0
 20
0.0
 30
0.0
  0
INSERT
  5
1B2
330
1F
100
AcDbEntity
  8
LC-002-100-D00-0
 62
     7
370
    50
100
AcDbBlockReference
  2
KLON2
 10
0.0
 20
0.0
 30
0.0
  0
LINE
  5
1B3
330
1F
100
AcDbEntity
  8
LC-002-100-D00-0
 62
     7
370
    50
100
AcDbLine
 10
9.726178
 20
181.195483
 30
0.0
 11
12.976177
 21
181.195483
 31
0.0
  0
LINE
  5
1B4
330
1F
100
AcDbEntity
  8
LC-002-100-D00-0
 62
     7
370
    50
100
AcDbLine
 10
98.97618
 20
181.195483
 30
0.0
 11
102.226179
 21
181.195483
 31
0.0
  0
LINE
  5
1B5
330
1F
100
AcDbEntity
  8
LC-002-100-D00-0
 62
     7
370
    50
100
AcDbLine
 10
9.726178
 20
181.195483
 30
0.0
 11
10.476179
 21
182.494521
 31
0.0
  0
LINE
  5
1B6
330
1F
100
AcDbEntity
  8
LC-002-100-D00-0
 62
     7
370
    50
100
AcDbLine
 10
10.476179
 20
182.494521
 30
0.0
 11
12.976177
 21
182.494521
 31
0.0
  0
LINE
  5
1B7
330
1F
100
AcDbEntity
  8
LC-002-100-D00-0
 62
     7
370
    50
100
AcDbLine
 10
98.97618
 20
182.494521
 30
0.0
 11
101.476177
 21
182.494521
 31
0.0
  0
LINE
  5
1B8
330
1F
100
AcDbEntity
  8
LC-002-100-D00-0
 62
     7
370
    50
100
AcDbLine
 10
101.476177
 20
182.494521
 30
0.0
 11
102.226179
 21
181.195483
 31
0.0
  0
LINE
  5
1B9
330
1F
100
AcDbEntity
  8
LC-002-100-D00-0
 62
     7
370
    50
100
AcDbLine
 10
102.226179
 20
181.195483
 30
0.0
 11
111.750792
 21
186.694525
 31
0.0
  0
LINE
  5
1BA
330
1F
100
AcDbEntity
  8
LC-002-100-D00-0
 62
     7
370
    50
100
AcDbLine
 10
0.201564
 20
186.694525
 30
0.0
 11
9.726178
 21
181.195483
 31
0.0
  0
ARC
  5
1BB
330
1F
100
AcDbEntity
  8
LC-002-100-D00-0
 62
     7
370
    50
100
AcDbCircle
 10
112.500792
 20
185.395486
 30
0.0
 40
3.0
100
AcDbArc
 50
90.0
 51
120.0
  0
LINE
  5
1BC
330
1F
100
AcDbEntity
  8
LC-002-100-D00-0
 62
     7
370
    50
100
AcDbLine
 10
160.476181
 20
188.395485
 30
0.0
 11
112.50079
 21
188.395485
 31
0.0
  0
ARC
  5
1BD
330
1F
100
AcDbEntity
  8
LC-002-100-D00-0
 62
     7
370
    50
100
AcDbCircle
 10
161.976178
 20
188.395486
 30
0.0
 40
1.500000000000114
100
AcDbArc
 50
180.0
 51
0.0
  0
LINE
  5
1BE
330
1F
100
AcDbEntity
  8
LC-002-100-D00-0
 62
     7
370
    50
100
AcDbLine
 10
181.97618
 20
188.395485
 30
0.0
 11
163.47618
 21
188.395485
 31
0.0
  0
LINE
  5
1BF
330
1F
100
AcDbEntity
  8
LC-002-100-D00-0
 62
     7
370
    50
100
AcDbLine
 10
181.97618
 20
186.895482
 30
0.0
 11
181.97618
 21
188.395485
 31
0.0
  0
LINE
  5
1C0
330
1F
100
AcDbEntity
  8
LC-002-100-D00-0
 62
     7
370
    50
100
AcDbLine
 10
164.574254
 20
186.895482
 30
0.0
 11
181.97618
 21
186.895482
 31
0.0
  0
ARC
  5
1C1
330
1F
100
AcDbEntity
  8
LC-002-100-D00-0
 62
     7
370
    50
100
AcDbCircle
 10
161.976178
 20
188.395486
 30
0.0
 40
3.000000000000049
100
AcDbArc
 50
210.0
 51
330.0
  0
LINE
  5
1C2
330
1F
100
AcDbEntity
  8
LC-002-100-D00-0
 62
     7
370
    50
100
AcDbLine
 10
112.50079
 20
186.895482
 30
0.0
 11
159.3781
 21
186.895482
 31
0.0
  0
ARC
  5
1C3
330
1F
100
AcDbEntity
  8
LC-002-100-D00-0
 62
     7
370
    50
100
AcDbCircle
 10
112.500792
 20
185.395486
 30
0.0
 40
1.5
100
AcDbArc
 50
90.0
 51
120.0
  0
LINE
  5
1C4
330
1F
100
AcDbEntity
  8
LC-002-100-D00-0
 62
     7
370
    50
100
AcDbLine
 10
111.000791
 20
187.993564
 30
0.0
 11
101.476177
 21
182.494521
 31
0.0
  0
ARC
  5
1C5
330
1F
100
AcDbEntity
  8
LC-002-100-D00-0
 62
     7
370
    50
100
AcDbCircle
 10
-0.548435
 20
185.395486
 30
0.0
 40
1.499999999999926
100
AcDbArc
 50
60.0
 51
90.0
  0
LINE
  5
1C6
330
1F
100
AcDbEntity
  8
LC-002-100-D00-0
 62
     7
370
    50
100
AcDbLine
 10
-47.425744
 20
186.895482
 30
0.0
 11
-0.548434
 21
186.895482
 31
0.0
  0
ARC
  5
1C7
330
1F
100
AcDbEntity
  8
LC-002-100-D00-0
 62
     7
370
    50
100
AcDbCircle
 10
-50.023822
 20
188.395486
 30
0.0
 40
2.999999999999951
100
AcDbArc
 50
210.0
 51
330.0
  0
LINE
  5
1C8
330
1F
100
AcDbEntity
  8
LC-002-100-D00-0
 62
     7
370
    50
100
AcDbLine
 10
-70.023824
 20
186.895482
 30
0.0
 11
-52.621898
 21
186.895482
 31
0.0
  0
LINE
  5
1C9
330
1F
100
AcDbEntity
  8
LC-002-100-D00-0
 62
     7
370
    50
100
AcDbLine
 10
-70.023824
 20
188.395485
 30
0.0
 11
-70.023824
 21
186.895482
 31
0.0
  0
LINE
  5
1CA
330
1F
100
AcDbEntity
  8
LC-002-100-D00-0
 62
     7
370
    50
100
AcDbLine
 10
-51.523824
 20
188.395485
 30
0.0
 11
-70.023824
 21
188.395485
 31
0.0
  0
ARC
  5
1CB
330
1F
100
AcDbEntity
  8
LC-002-100-D00-0
 62
     7
370
    50
100
AcDbCircle
 10
-50.023822
 20
188.395486
 30
0.0
 40
1.5
100
AcDbArc
 50
180.0
 51
0.0
  0
LINE
  5
1CC
330
1F
100
AcDbEntity
  8
LC-002-100-D00-0
 62
     7
370
    50
100
AcDbLine
 10
-0.548434
 20
188.395485
 30
0.0
 11
-48.523825
 21
188.395485
 31
0.0
  0
ARC
  5
1CD
330
1F
100
AcDbEntity
  8
LC-002-100-D00-0
 62
     7
370
    50
100
AcDbCircle
 10
-0.548435
 20
185.395486
 30
0.0
 40
2.999999999999951
100
AcDbArc
 50
60.0
 51
90.0
  0
LINE
  5
1CE
330
1F
100
AcDbEntity
  8
LC-002-100-D00-0
 62
     7
370
    50
100
AcDbLine
 10
10.476179
 20
182.494521
 30
0.0
 11
0.951565
 21
187.993564
 31
0.0
  0
LINE
  5
1CF
330
1F
100
AcDbEntity
  8
LC-002-100-D00-0
 62
     7
370
    50
100
AcDbLine
 10
-51.523824
 20
188.395485
 30
0.0
 11
-48.523825
 21
188.395485
 31
0.0
  0
LINE
  5
1D0
330
1F
100
AcDbEntity
  8
LC-002-100-D00-0
 62
     7
370
    50
100
AcDbLine
 10
160.476181
 20
188.395485
 30
0.0
 11
163.47618
 21
188.395485
 31
0.0
  0
LINE
  5
1D1
330
1F
100
AcDbEntity
  8
LC-002-100-D00-0
 62
     7
370
    50
100
AcDbLine
 10
-0.548434
 20
188.395485
 30
0.0
 11
0.976178
 21
188.395485
 31
0.0
  0
LINE
  5
1D2
330
1F
100
AcDbEntity
  8
LC-002-100-D00-0
 62
     7
370
    50
100
AcDbLine
 10
110.976178
 20
188.395485
 30
0.0
 11
112.50079
 21
188.395485
 31
0.0
  0
LINE
  5
1D3
330
1F
100
AcDbEntity
  8
LC-002-100-D00-0
 62
     7
370
    50
100
AcDbLine
 10
10.476179
 20
187.980458
 30
0.0
 11
10.476179
 21
182.494521
 31
0.0
  0
LINE
  5
1D4
330
1F
100
AcDbEntity
  8
LC-002-100-D00-0
 62
     7
370
    50
100
AcDbLine
 10
101.476177
 20
182.494521
 30
0.0
 11
101.476177
 21
187.980458
 31
0.0
  0
LINE
  5
1D5
330
1F
100
AcDbEntity
  8
LC-002-100-D00-0
 62
     7
370
    50
100
AcDbLine
 10
110.726177
 20
187.980458
 30
0.0
 11
110.726177
 21
187.835016
 31
0.0
  0
LINE
  5
1D6
330
1F
100
AcDbEntity
  8
LC-002-100-D00-0
 62
     7
370
    50
100
AcDbLine
 10
110.726177
 20
187.835016
 30
0.0
 11
101.476177
 21
182.494521
 31
0.0
  0
LINE
  5
1D7
330
1F
100
AcDbEntity
  8
LC-002-100-D00-0
 62
     7
370
    50
100
AcDbLine
 10
101.476177
 20
187.980458
 30
0.0
 11
110.726177
 21
187.980458
 31
0.0
  0
LINE
  5
1D8
330
1F
100
AcDbEntity
  8
LC-002-100-D00-0
 62
     7
370
    50
100
AcDbLine
 10
1.226179
 20
187.835016
 30
0.0
 11
1.226179
 21
187.980458
 31
0.0
  0
LINE
  5
1D9
330
1F
100
AcDbEntity
  8
LC-002-100-D00-0
 62
     7
370
    50
100
AcDbLine
 10
10.476179
 20
182.494521
 30
0.0
 11
1.226179
 21
187.835016
 31
0.0
  0
LINE
  5
1DA
330
1F
100
AcDbEntity
  8
LC-002-100-D00-0
 62
     7
370
    50
100
AcDbLine
 10
1.226179
 20
187.980458
 30
0.0
 11
10.476179
 21
187.980458
 31
0.0
  0
CIRCLE
  5
1DB
330
1F
100
AcDbEntity
  8
LC-002-100-D00-0
 62
     7
370
    50
100
AcDbCircle
 10
95.226178
 20
187.030468
 30
0.0
 40
1.25
  0
CIRCLE
  5
1DC
330
1F
100
AcDbEntity
  8
LC-002-100-D00-0
 62
     7
370
    50
100
AcDbCircle
 10
16.726178
 20
187.030468
 30
0.0
 40
1.25
  0
LINE
  5
1DD
330
1F
100
AcDbEntity
  8
LC-002-100-D00-0
 62
     7
370
    50
100
AcDbLine
 10
103.55353
 20
183.395483
 30
0.0
 11
102.976177
 21
182.395488
 31
0.0
  0
LINE
  5
1DE
330
1F
100
AcDbEntity
  8
LC-002-100-D00-0
 62
     7
370
    50
100
AcDbLine
 10
104.130879
 20
182.395488
 30
0.0
 11
103.55353
 21
183.395483
 31
0.0
  0
LINE
  5
1DF
330
1F
100
AcDbEntity
  8
LC-002-100-D00-0
 62
     7
370
    50
100
AcDbLine
 10
104.708228
 20
183.395483
 30
0.0
 11
104.130879
 21
182.395488
 31
0.0
  0
LINE
  5
1E0
330
1F
100
AcDbEntity
  8
LC-002-100-D00-0
 62
     7
370
    50
100
AcDbLine
 10
105.285581
 20
182.395488
 30
0.0
 11
104.708228
 21
183.395483
 31
0.0
  0
LINE
  5
1E1
330
1F
100
AcDbEntity
  8
LC-002-100-D00-0
 62
     7
370
    50
100
AcDbLine
 10
105.86293
 20
183.395483
 30
0.0
 11
105.285581
 21
182.395488
 31
0.0
  0
LINE
  5
1E2
330
1F
100
AcDbEntity
  8
LC-002-100-D00-0
 62
     7
370
    50
100
AcDbLine
 10
106.440279
 20
182.395488
 30
0.0
 11
105.86293
 21
183.395483
 31
0.0
  0
LINE
  5
1E3
330
1F
100
AcDbEntity
  8
LC-002-100-D00-0
 62
     7
370
    50
100
AcDbLine
 10
107.476178
 20
182.395488
 30
0.0
 11
106.440279
 21
182.395488
 31
0.0
  0
LINE
  5
1E4
330
1F
100
AcDbEntity
  8
LC-002-100-D00-0
 62
     7
370
    50
100
AcDbLine
 10
111.97618
 20
186.895482
 30
0.0
 11
107.476178
 21
182.395488
 31
0.0
  0
LINE
  5
1E5
330
1F
100
AcDbEntity
  8
LC-002-100-D00-0
 62
     7
370
    50
100
AcDbLine
 10
111.97618
 20
175.895482
 30
0.0
 11
111.97618
 21
186.895482
 31
0.0
  0
LINE
  5
1E6
330
1F
100
AcDbEntity
  8
LC-002-100-D00-0
 62
     7
370
    50
100
AcDbLine
 10
109.97618
 20
175.895482
 30
0.0
 11
111.97618
 21
175.895482
 31
0.0
  0
LINE
  5
1E7
330
1F
100
AcDbEntity
  8
LC-002-100-D00-0
 62
     7
370
    50
100
AcDbLine
 10
105.476178
 20
178.395488
 30
0.0
 11
105.476178
 21
179.895483
 31
0.0
  0
LINE
  5
1E8
330
1F
100
AcDbEntity
  8
LC-002-100-D00-0
 62
     7
370
    50
100
AcDbLine
 10
102.976177
 20
178.395488
 30
0.0
 11
105.476178
 21
178.395488
 31
0.0
  0
LINE
  5
1E9
330
1F
100
AcDbEntity
  8
LC-002-100-D00-0
 62
     7
370
    50
100
AcDbLine
 10
102.976177
 20
182.395488
 30
0.0
 11
102.976177
 21
178.395488
 31
0.0
  0
LINE
  5
1EA
330
1F
100
AcDbEntity
  8
LC-002-100-D00-0
 62
     7
370
    50
100
AcDbLine
 10
-0.023824
 20
175.895482
 30
0.0
 11
1.976177
 21
175.895482
 31
0.0
  0
LINE
  5
1EB
330
1F
100
AcDbEntity
  8
LC-002-100-D00-0
 62
     7
370
    50
100
AcDbLine
 10
-0.023824
 20
186.895482
 30
0.0
 11
-0.023824
 21
175.895482
 31
0.0
  0
LINE
  5
1EC
330
1F
100
AcDbEntity
  8
LC-002-100-D00-0
 62
     7
370
    50
100
AcDbLine
 10
4.476178
 20
182.395488
 30
0.0
 11
-0.023824
 21
186.895482
 31
0.0
  0
LINE
  5
1ED
330
1F
100
AcDbEntity
  8
LC-002-100-D00-0
 62
     7
370
    50
100
AcDbLine
 10
5.512077
 20
182.395488
 30
0.0
 11
4.476178
 21
182.395488
 31
0.0
  0
LINE
  5
1EE
330
1F
100
AcDbEntity
  8
LC-002-100-D00-0
 62
     7
370
    50
100
AcDbLine
 10
6.089426
 20
183.395483
 30
0.0
 11
5.512077
 21
182.395488
 31
0.0
  0
LINE
  5
1EF
330
1F
100
AcDbEntity
  8
LC-002-100-D00-0
 62
     7
370
    50
100
AcDbLine
 10
6.666775
 20
182.395488
 30
0.0
 11
6.089426
 21
183.395483
 31
0.0
  0
LINE
  5
1F0
330
1F
100
AcDbEntity
  8
LC-002-100-D00-0
 62
     7
370
    50
100
AcDbLine
 10
7.244128
 20
183.395483
 30
0.0
 11
6.666775
 21
182.395488
 31
0.0
  0
LINE
  5
1F1
330
1F
100
AcDbEntity
  8
LC-002-100-D00-0
 62
     7
370
    50
100
AcDbLine
 10
7.821478
 20
182.395488
 30
0.0
 11
7.244128
 21
183.395483
 31
0.0
  0
LINE
  5
1F2
330
1F
100
AcDbEntity
  8
LC-002-100-D00-0
 62
     7
370
    50
100
AcDbLine
 10
8.398827
 20
183.395483
 30
0.0
 11
7.821478
 21
182.395488
 31
0.0
  0
LINE
  5
1F3
330
1F
100
AcDbEntity
  8
LC-002-100-D00-0
 62
     7
370
    50
100
AcDbLine
 10
8.97618
 20
182.395488
 30
0.0
 11
8.398827
 21
183.395483
 31
0.0
  0
LINE
  5
1F4
330
1F
100
AcDbEntity
  8
LC-002-100-D00-0
 62
     7
370
    50
100
AcDbLine
 10
8.97618
 20
178.395488
 30
0.0
 11
8.97618
 21
182.395488
 31
0.0
  0
LINE
  5
1F5
330
1F
100
AcDbEntity
  8
LC-002-100-D00-0
 62
     7
370
    50
100
AcDbLine
 10
6.476178
 20
178.395488
 30
0.0
 11
8.97618
 21
178.395488
 31
0.0
  0
LINE
  5
1F6
330
1F
100
AcDbEntity
  8
LC-002-100-D00-0
 62
     7
370
    50
100
AcDbLine
 10
6.476178
 20
179.895483
 30
0.0
 11
6.476178
 21
178.395488
 31
0.0
  0
LINE
  5
1F7
330
1F
100
AcDbEntity
  8
LC-002-100-D00-0
 62
     7
370
    50
100
AcDbLine
 10
102.976177
 20
178.395488
 30
0.0
 11
98.97618
 21
178.395488
 31
0.0
  0
LINE
  5
1F8
330
1F
100
AcDbEntity
  8
LC-002-100-D00-0
 62
     7
370
    50
100
AcDbLine
 10
12.976177
 20
178.395488
 30
0.0
 11
8.97618
 21
178.395488
 31
0.0
  0
INSERT
  5
1FE
330
1F
100
AcDbEntity
  8
LC-002-100-D00-0
 62
     7
370
    50
100
AcDbBlockReference
  2
KLON3
 10
0.0
 20
0.0
 30
0.0
  0
LINE
  5
1FF
330
1F
100
AcDbEntity
  8
LC-002-100-D00-0
 62
     7
370
    50
100
AcDbLine
 10
110.017259
 20
187.42572
 30
0.0
 11
110.572002
 21
187.980462
 31
0.0
  0
INSERT
  5
207
330
1F
100
AcDbEntity
  8
LC-002-100-D00-0
 62
     7
370
    25
100
AcDbBlockReference
  2
KLON4
 10
0.0
 20
0.0
 30
0.0
  0
INSERT
  5
20F
330
1F
100
AcDbEntity
  8
LC-002-100-D00-0
 62
     7
370
    25
100
AcDbBlockReference
  2
KLON5
 10
0.0
 20
0.0
 30
0.0
  0
INSERT
  5
215
330
1F
100
AcDbEntity
  8
LC-002-100-D00-0
 62
     7
370
    25
100
AcDbBlockReference
  2
KLON6
 10
0.0
 20
0.0
 30
0.0
  0
INSERT
  5
222
330
1F
100
AcDbEntity
  8
LC-002-100-D00-0
 62
     7
370
    25
100
AcDbBlockReference
  2
KLON7
 10
0.0
 20
0.0
 30
0.0
  0
LINE
  5
223
330
1F
100
AcDbEntity
  8
LC-002-100-D00-0
 62
     7
370
    25
100
AcDbLine
 10
97.876178
 20
175.284619
 30
0.0
 11
100.487045
 21
177.895486
 31
0.0
  0
INSERT
  5
229
330
1F
100
AcDbEntity
  8
LC-002-100-D00-0
 62
     7
370
    25
100
AcDbBlockReference
  2
KLON8
 10
0.0
 20
0.0
 30
0.0
  0
INSERT
  5
22F
330
1F
100
AcDbEntity
  8
LC-002-100-D00-0
 62
     7
370
    25
100
AcDbBlockReference
  2
KLON9
 10
0.0
 20
0.0
 30
0.0
  0
INSERT
  5
235
330
1F
100
AcDbEntity
  8
LC-002-100-D00-0
 62
     7
370
    50
100
AcDbBlockReference
  2
KLON10
 10
0.0
 20
0.0
 30
0.0
  0
LINE
  5
236
330
1F
100
AcDbEntity
  8
LC-002-100-D00-0
 62
     7
370
    25
100
AcDbLine
 10
36.976178
 20
159.285919
 30
0.0
 11
37.976178
 21
160.285919
 31
0.0
  0
INSERT
  5
242
330
1F
100
AcDbEntity
  8
LC-002-100-D00-0
 62
     7
370
    25
100
AcDbBlockReference
  2
KLON11
 10
0.0
 20
0.0
 30
0.0
  0
INSERT
  5
24A
330
1F
100
AcDbEntity
  8
LC-002-100-D00-0
 62
     7
370
    25
100
AcDbBlockReference
  2
KLON12
 10
0.0
 20
0.0
 30
0.0
  0
INSERT
  5
253
330
1F
100
AcDbEntity
  8
LC-002-100-D00-0
 62
     7
370
    25
100
AcDbBlockReference
  2
KLON13
 10
0.0
 20
0.0
 30
0.0
  0
DIMENSION
  5
256
330
1F
100
AcDbEntity
  8
LC-002-100-D00-0
 62
     7
370
    25
100
AcDbDimension
  2
*D20
 10
251.894529
 20
132.895486
 30
0.0
 11
221.094529
 21
172.951485
 31
0.0
 70
   160
  1
DN40
 71
     5
 42
40.0
 53
90.0
  3
LC-DIM-L-0140-02-02
100
AcDbAlignedDimension
 13
227.176178
 23
172.895486
 33
0.0
 14
227.176178
 24
132.895486
 34
0.0
 50
90.0
100
AcDbRotatedDimension
  0
DIMENSION
  5
265
330
1F
100
AcDbEntity
  8
LC-002-100-D00-0
 62
     7
370
    25
100
AcDbDimension
  2
*D21
 10
181.976178
 20
231.247993
 30
0.0
 11
51.494486
 21
262.047993
 31
0.0
 70
   160
  1
%%c252
 71
     5
 42
252.0
  3
LC-DIM-L-0140-02-02
100
AcDbAlignedDimension
 13
-70.023822
 23
186.895486
 33
0.0
 14
181.976178
 24
186.895486
 34
0.0
100
AcDbRotatedDimension
  0
DIMENSION
  5
272
330
1F
100
AcDbEntity
  8
LC-002-100-D00-0
 62
     7
370
    25
100
AcDbDimension
  2
*D22
 10
-101.592195
 20
123.395486
 30
0.0
 11
-132.392195
 21
155.444917
 31
0.0
 70
   160
  1
65
 71
     5
 42
65.0
 53
90.0
  3
LC-DIM-L-0140-02-02
100
AcDbAlignedDimension
 13
-70.023822
 23
188.395486
 33
0.0
 14
35.726178
 24
123.395486
 34
0.0
 50
90.0
100
AcDbRotatedDimension
  0
DIMENSION
  5
27F
330
1F
100
AcDbEntity
  8
LC-002-100-D00-0
 62
     7
370
    25
100
AcDbDimension
  2
*D23
 10
-32.599551
 20
169.280468
 30
0.0
 11
-63.399551
 21
155.444917
 31
0.0
 70
   160
  1
30
 71
     5
 42
30.5
 53
90.0
  3
LC-DIM-L-0140-02-02
100
AcDbAlignedDimension
 13
36.976178
 23
138.780468
 33
0.0
 14
25.624078
 24
169.280468
 34
0.0
 50
90.0
100
AcDbRotatedDimension
  0
DIMENSION
  5
28E
330
1F
100
AcDbEntity
  8
LC-002-100-D00-0
 62
     7
370
    25
100
AcDbDimension
  2
*D24
 10
114.476178
 20
31.189966
 30
0.0
 11
56.528284
 21
61.989966
 31
0.0
 70
   160
  1
%%c117
 71
     5
 42
117.0
  3
LC-DIM-L-0140-02-02
100
AcDbAlignedDimension
 13
-2.523822
 23
171.395486
 33
0.0
 14
114.476178
 24
171.395486
 34
0.0
100
AcDbRotatedDimension
  0
DIMENSION
  5
29C
330
1F
100
AcDbEntity
  8
LC-002-100-D00-0
 62
     7
370
    25
100
AcDbDimension
  2
*D25
 10
89.726178
 20
68.846079
 30
0.0
 11
163.312785
 21
99.646079
 31
0.0
 70
   160
  1
%%c67,5
 71
     5
 42
67.5
  3
LC-DIM-L-0140-01-02
100
AcDbAlignedDimension
 13
22.226178
 23
136.895486
 33
0.0
 14
89.726178
 24
133.640605
 34
0.0
100
AcDbRotatedDimension
  0
LINE
  5
2AA
330
1F
100
AcDbEntity
  8
LC-002-100-D00-0
  6
DASHDOT
 62
     7
370
    25
100
AcDbLine
 10
146.276178
 20
152.895486
 30
0.0
 11
230.176177
 21
152.895486
 31
0.0
  0
LINE
  5
2AB
330
1F
100
AcDbEntity
  8
LC-002-100-D00-0
  6
DASHDOT
 62
     7
370
    25
100
AcDbLine
 10
55.976178
 20
190.480471
 30
0.0
 11
55.976178
 21
128.780468
 31
0.0
  0
INSERT
  5
2CC
330
1F
100
AcDbEntity
  8
LC-003-003-----0
 62
     7
370
    25
100
AcDbBlockReference
  2
LCDIM1
 10
0.0
 20
0.0
 30
0.0
  0
ENDSEC
  0
SECTION
  2
OBJECTS
  0
DICTIONARY
  5
C
330
0
100
AcDbDictionary
281
     1
  3
ACAD_GROUP
350
D
  3
ACAD_LAYOUT
350
1A
  3
ACAD_MLINESTYLE
350
17
  3
ACAD_PLOTSETTINGS
350
19
  3
ACAD_PLOTSTYLENAME
350
E
  0
DICTIONARY
  5
D
102
{ACAD_REACTORS
330
C
102
}
330
C
100
AcDbDictionary
281
     1
  0
DICTIONARY
  5
1A
102
{ACAD_REACTORS
330
C
102
}
330
C
100
AcDbDictionary
281
     1
  3
Layout1
350
1E
  3
Layout2
350
26
  3
Model
350
22
  0
DICTIONARY
  5
17
102
{ACAD_REACTORS
330
C
102
}
330
C
100
AcDbDictionary
281
     1
  3
Standard
350
18
  0
DICTIONARY
  5
19
102
{ACAD_REACTORS
330
C
102
}
330
C
100
AcDbDictionary
281
     1
  0
ACDBDICTIONARYWDFLT
  5
E
102
{ACAD_REACTORS
330
C
102
}
330
C
100
AcDbDictionary
281
     1
  3
Normal
350
F
100
AcDbDictionaryWithDefault
340
F
  0
LAYOUT
  5
1E
102
{ACAD_REACTORS
330
1A
102
}
330
1A
100
AcDbPlotSettings
  1

  2

  4

  6

 40
0.0
 41
0.0
 42
0.0
 43
0.0
 44
0.0
 45
0.0
 46
0.0
 47
0.0
 48
0.0
 49
0.0
140
0.0
141
0.0
142
1.0
143
1.0
 70
   688
 72
     0
 73
     0
 74
     5
  7

 75
    16
147
1.0
148
0.0
149
0.0
100
AcDbLayout
  1
Layout1
 70
     1
 71
     1
 10
-283.960703
 20
-205.426515
 11
556.039297
 21
388.573485
 12
0.0
 22
0.0
 32
0.0
 14
-283.960703
 24
-205.426515
 34
0.0
 15
556.039297
 25
388.573485
 35
0.0
146
0.0
 13
0.0
 23
0.0
 33
0.0
 16
1.0
 26
0.0
 36
0.0
 17
0.0
 27
1.0
 37
0.0
 76
     0
330
1B
  0
LAYOUT
  5
26
102
{ACAD_REACTORS
330
1A
102
}
330
1A
100
AcDbPlotSettings
  1

  2

  4

  6

 40
0.0
 41
0.0
 42
0.0
 43
0.0
 44
0.0
 45
0.0
 46
0.0
 47
0.0
 48
0.0
 49
0.0
140
0.0
141
0.0
142
1.0
143
1.0
 70
   688
 72
     0
 73
     0
 74
     5
  7

 75
    16
147
1.0
148
0.0
149
0.0
100
AcDbLayout
  1
Layout2
 70
     1
 71
     2
 10
0.0
 20
0.0
 11
0.0
 21
0.0
 12
0.0
 22
0.0
 32
0.0
 14
0.0
 24
0.0
 34
0.0
 15
0.0
 25
0.0
 35
0.0
146
0.0
 13
0.0
 23
0.0
 33
0.0
 16
1.0
 26
0.0
 36
0.0
 17
0.0
 27
1.0
 37
0.0
 76
     0
330
23
  0
LAYOUT
  5
22
102
{ACAD_REACTORS
330
1A
102
}
330
1A
100
AcDbPlotSettings
  1

  2

  4

  6

 40
0.0
 41
0.0
 42
0.0
 43
0.0
 44
0.0
 45
0.0
 46
0.0
 47
0.0
 48
0.0
 49
0.0
140
0.0
141
0.0
142
1.0
143
1.0
 70
  1776
 72
     0
 73
     0
 74
     0
  7

 75
     0
147
1.0
148
0.0
149
0.0
100
AcDbLayout
  1
Model
 70
     1
 71
     0
 10
-283.960703
 20
-205.426515
 11
556.039297
 21
388.573485
 12
0.0
 22
0.0
 32
0.0
 14
-283.960703
 24
-205.426515
 34
0.0
 15
556.039297
 25
388.573485
 35
0.0
146
0.0
 13
0.0
 23
0.0
 33
0.0
 16
1.0
 26
0.0
 36
0.0
 17
0.0
 27
1.0
 37
0.0
 76
     0
330
1F
  0
MLINESTYLE
  5
18
102
{ACAD_REACTORS
330
17
102
}
330
17
100
AcDbMlineStyle
  2
Standard
 70
     0
  3

 62
   256
 51
90.0
 52
90.0
 71
     2
 49
0.5
 62
   256
  6
BYLAYER
 49
-0.5
 62
   256
  6
BYLAYER
  0
ACDBPLACEHOLDER
  5
F
102
{ACAD_REACTORS
330
E
102
}
330
E
  0
ENDSEC
  0
EOF
