  0
SECTION
  2
HEADER
  9
$ACADVER
  1
AC1027
  9
$ACADMAINTVER
 70
   105
  9
$DWGCODEPAGE
  3
ANSI_1252
  9
$REQUIREDVERSIONS
160
                 0
  9
$INSBASE
 10
0.0
 20
0.0
 30
0.0
  9
$EXTMIN
 10
0.0
 20
0.0
 30
0.0
  9
$EXTMAX
 10
840.0
 20
594.0
 30
0.0
  9
$LIMMIN
 10
0.0
 20
0.0
  9
$LIMMAX
 10
840.0
 20
594.0
  9
$ORTHOMODE
 70
     0
  9
$REGENMODE
 70
     1
  9
$FILLMODE
 70
     1
  9
$QTEXTMODE
 70
     0
  9
$MIRRTEXT
 70
     1
  9
$LTSCALE
 40
2.0
  9
$ATTMODE
 70
     1
  9
$TEXTSIZE
 40
7.0
  9
$TRACEWID
 40
1.0
  9
$TEXTSTYLE
  7
Standard
  9
$CLAYER
  8
0
  9
$CELTYPE
  6
ByLayer
  9
$CECOLOR
 62
   256
  9
$CELTSCALE
 40
1.0
  9
$DISPSILH
 70
     0
  9
$DIMSCALE
 40
1.0
  9
$DIMASZ
 40
14.0
  9
$DIMEXO
 40
2.0
  9
$DIMDLI
 40
3.75
  9
$DIMRND
 40
0.0
  9
$DIMDLE
 40
0.0
  9
$DIMEXE
 40
2.0
  9
$DIMTP
 40
0.0
  9
$DIMTM
 40
0.0
  9
$DIMTXT
 40
14.0
  9
$DIMCEN
 40
2.5
  9
$DIMTSZ
 40
0.0
  9
$DIMTOL
 70
     0
  9
$DIMLIM
 70
     0
  9
$DIMTIH
 70
     1
  9
$DIMTOH
 70
     1
  9
$DIMSE1
 70
     0
  9
$DIMSE2
 70
     0
  9
$DIMTAD
 70
     1
  9
$DIMZIN
 70
     1
  9
$DIMBLK
  1

  9
$DIMASO
 70
     1
  9
$DIMSHO
 70
     1
  9
$DIMPOST
  1

  9
$DIMAPOST
  1

  9
$DIMALT
 70
     0
  9
$DIMALTD
 70
     3
  9
$DIMALTF
 40
0.0393700787
  9
$DIMLFAC
 40
1.0
  9
$DIMTOFL
 70
     1
  9
$DIMTVP
 40
0.0
  9
$DIMTIX
 70
     0
  9
$DIMSOXD
 70
     0
  9
$DIMSAH
 70
     0
  9
$DIMBLK1
  1

  9
$DIMBLK2
  1

  9
$DIMSTYLE
  2
ISO-25
  9
$DIMCLRD
 70
     0
  9
$DIMCLRE
 70
     0
  9
$DIMCLRT
 70
     0
  9
$DIMTFAC
 40
1.0
  9
$DIMGAP
 40
3.048
  9
$DIMJUST
 70
     0
  9
$DIMSD1
 70
     0
  9
$DIMSD2
 70
     0
  9
$DIMTOLJ
 70
     0
  9
$DIMTZIN
 70
     1
  9
$DIMALTZ
 70
     0
  9
$DIMALTTZ
 70
     0
  9
$DIMUPT
 70
     0
  9
$DIMDEC
 70
     1
  9
$DIMTDEC
 70
     1
  9
$DIMALTU
 70
     2
  9
$DIMALTTD
 70
     3
  9
$DIMTXSTY
  7
Standard
  9
$DIMAUNIT
 70
     0
  9
$DIMADEC
 70
     2
  9
$DIMALTRND
 40
0.0
  9
$DIMAZIN
 70
     0
  9
$DIMDSEP
 70
    44
  9
$DIMATFIT
 70
     3
  9
$DIMFRAC
 70
     0
  9
$DIMLDRBLK
  1

  9
$DIMLUNIT
 70
     2
  9
$DIMLWD
 70
    -2
  9
$DIMLWE
 70
    -2
  9
$DIMTMOVE
 70
     0
  9
$DIMFXL
 40
1.0
  9
$DIMFXLON
 70
     0
  9
$DIMJOGANG
 40
0.7853981634
  9
$DIMTFILL
 70
     0
  9
$DIMTFILLCLR
 70
     0
  9
$DIMARCSYM
 70
     0
  9
$DIMLTYPE
  6

  9
$DIMLTEX1
  6

  9
$DIMLTEX2
  6

  9
$DIMTXTDIRECTION
 70
     0
  9
$LUNITS
 70
     2
  9
$LUPREC
 70
     2
  9
$SKETCHINC
 40
1.0
  9
$FILLETRAD
 40
10.0
  9
$AUNITS
 70
     0
  9
$AUPREC
 70
     2
  9
$MENU
  1
.
  9
$ELEVATION
 40
0.0
  9
$PELEVATION
 40
0.0
  9
$THICKNESS
 40
0.0
  9
$LIMCHECK
 70
     0
  9
$CHAMFERA
 40
0.0
  9
$CHAMFERB
 40
0.0
  9
$CHAMFERC
 40
0.0
  9
$CHAMFERD
 40
0.0
  9
$SKPOLY
 70
     0
  9
$TDCREATE
 40
2458719.329887766
  9
$TDUCREATE
 40
2458719.246554433
  9
$TDUPDATE
 40
2458719.329889757
  9
$TDUUPDATE
 40
2458719.246556424
  9
$TDINDWG
 40
0.0000000116
  9
$TDUSRTIMER
 40
0.0000000116
  9
$USRTIMER
 70
     1
  9
$ANGBASE
 50
0.0
  9
$ANGDIR
 70
     0
  9
$PDMODE
 70
     0
  9
$PDSIZE
 40
-1.0
  9
$PLINEWID
 40
0.0
  9
$SPLFRAME
 70
     0
  9
$SPLINETYPE
 70
     6
  9
$SPLINESEGS
 70
     8
  9
$HANDSEED
  5
224
  9
$SURFTAB1
 70
     6
  9
$SURFTAB2
 70
     6
  9
$SURFTYPE
 70
     6
  9
$SURFU
 70
     6
  9
$SURFV
 70
     6
  9
$UCSBASE
  2

  9
$UCSNAME
  2

  9
$UCSORG
 10
0.0
 20
0.0
 30
0.0
  9
$UCSXDIR
 10
1.0
 20
0.0
 30
0.0
  9
$UCSYDIR
 10
0.0
 20
1.0
 30
0.0
  9
$UCSORTHOREF
  2

  9
$UCSORTHOVIEW
 70
     0
  9
$UCSORGTOP
 10
0.0
 20
0.0
 30
0.0
  9
$UCSORGBOTTOM
 10
0.0
 20
0.0
 30
0.0
  9
$UCSORGLEFT
 10
0.0
 20
0.0
 30
0.0
  9
$UCSORGRIGHT
 10
0.0
 20
0.0
 30
0.0
  9
$UCSORGFRONT
 10
0.0
 20
0.0
 30
0.0
  9
$UCSORGBACK
 10
0.0
 20
0.0
 30
0.0
  9
$PUCSBASE
  2

  9
$PUCSNAME
  2

  9
$PUCSORG
 10
0.0
 20
0.0
 30
0.0
  9
$PUCSXDIR
 10
1.0
 20
0.0
 30
0.0
  9
$PUCSYDIR
 10
0.0
 20
1.0
 30
0.0
  9
$PUCSORTHOREF
  2

  9
$PUCSORTHOVIEW
 70
     0
  9
$PUCSORGTOP
 10
0.0
 20
0.0
 30
0.0
  9
$PUCSORGBOTTOM
 10
0.0
 20
0.0
 30
0.0
  9
$PUCSORGLEFT
 10
0.0
 20
0.0
 30
0.0
  9
$PUCSORGRIGHT
 10
0.0
 20
0.0
 30
0.0
  9
$PUCSORGFRONT
 10
0.0
 20
0.0
 30
0.0
  9
$PUCSORGBACK
 10
0.0
 20
0.0
 30
0.0
  9
$USERI1
 70
     0
  9
$USERI2
 70
     0
  9
$USERI3
 70
     0
  9
$USERI4
 70
     0
  9
$USERI5
 70
     0
  9
$USERR1
 40
0.0
  9
$USERR2
 40
0.0
  9
$USERR3
 40
0.0
  9
$USERR4
 40
0.0
  9
$USERR5
 40
0.0
  9
$WORLDVIEW
 70
     1
  9
$SHADEDGE
 70
     3
  9
$SHADEDIF
 70
    70
  9
$TILEMODE
 70
     1
  9
$MAXACTVP
 70
    64
  9
$PINSBASE
 10
0.0
 20
0.0
 30
0.0
  9
$PLIMCHECK
 70
     0
  9
$PEXTMIN
 10
1.0000000000E+20
 20
1.0000000000E+20
 30
1.0000000000E+20
  9
$PEXTMAX
 10
-1.0000000000E+20
 20
-1.0000000000E+20
 30
-1.0000000000E+20
  9
$PLIMMIN
 10
0.0
 20
0.0
  9
$PLIMMAX
 10
420.0
 20
297.0
  9
$UNITMODE
 70
     0
  9
$VISRETAIN
 70
     1
  9
$PLINEGEN
 70
     0
  9
$PSLTSCALE
 70
     1
  9
$TREEDEPTH
 70
  3020
  9
$CMLSTYLE
  2
Standard
  9
$CMLJUST
 70
     0
  9
$CMLSCALE
 40
20.0
  9
$PROXYGRAPHICS
 70
     1
  9
$MEASUREMENT
 70
     1
  9
$CELWEIGHT
370
    -1
  9
$ENDCAPS
280
     0
  9
$JOINSTYLE
280
     0
  9
$LWDISPLAY
290
     1
  9
$INSUNITS
 70
     4
  9
$HYPERLINKBASE
  1

  9
$STYLESHEET
  1

  9
$XEDIT
290
     1
  9
$CEPSNTYPE
380
     0
  9
$PSTYLEMODE
290
     1
  9
$FINGERPRINTGUID
  2
{8A269FD7-52CA-4DAE-B398-6FE2C72A2EED}
  9
$VERSIONGUID
  2
{FAEB1C32-E019-11D5-929B-00C0DF256EC4}
  9
$EXTNAMES
290
     1
  9
$PSVPSCALE
 40
0.0
  9
$OLESTARTUP
290
     0
  9
$SORTENTS
280
   127
  9
$INDEXCTL
280
     0
  9
$HIDETEXT
280
     1
  9
$XCLIPFRAME
280
     2
  9
$HALOGAP
280
     0
  9
$OBSCOLOR
 70
   257
  9
$OBSLTYPE
280
     0
  9
$INTERSECTIONDISPLAY
280
     0
  9
$INTERSECTIONCOLOR
 70
   257
  9
$DIMASSOC
280
     2
  9
$PROJECTNAME
  1

  9
$CAMERADISPLAY
290
     0
  9
$LENSLENGTH
 40
50.0
  9
$CAMERAHEIGHT
 40
0.0
  9
$STEPSPERSEC
 40
2.0
  9
$STEPSIZE
 40
6.0
  9
$3DDWFPREC
 40
2.0
  9
$PSOLWIDTH
 40
5.0
  9
$PSOLHEIGHT
 40
80.0
  9
$LOFTANG1
 40
1.5707963268
  9
$LOFTANG2
 40
1.5707963268
  9
$LOFTMAG1
 40
0.0
  9
$LOFTMAG2
 40
0.0
  9
$LOFTPARAM
 70
     7
  9
$LOFTNORMALS
280
     1
  9
$LATITUDE
 40
37.795
  9
$LONGITUDE
 40
-122.394
  9
$NORTHDIRECTION
 40
0.0
  9
$TIMEZONE
 70
 -8000
  9
$LIGHTGLYPHDISPLAY
280
     1
  9
$TILEMODELIGHTSYNCH
280
     1
  9
$CMATERIAL
347
44
  9
$SOLIDHIST
280
     0
  9
$SHOWHIST
280
     1
  9
$DWFFRAME
280
     2
  9
$DGNFRAME
280
     2
  9
$REALWORLDSCALE
290
     1
  9
$INTERFERECOLOR
 62
   256
  9
$CSHADOW
280
     0
  9
$SHADOWPLANELOCATION
 40
0.0
  0
ENDSEC
  0
SECTION
  2
CLASSES
  0
CLASS
  1
ACDBDICTIONARYWDFLT
  2
AcDbDictionaryWithDefault
  3
ObjectDBX Classes
 90
        0
 91
        4
280
     0
281
     0
  0
CLASS
  1
VISUALSTYLE
  2
AcDbVisualStyle
  3
ObjectDBX Classes
 90
     4095
 91
        4
280
     0
281
     0
  0
CLASS
  1
MATERIAL
  2
AcDbMaterial
  3
ObjectDBX Classes
 90
     1153
 91
        4
280
     0
281
     0
  0
CLASS
  1
SCALE
  2
AcDbScale
  3
ObjectDBX Classes
 90
     1153
 91
        4
280
     0
281
     0
  0
CLASS
  1
TABLESTYLE
  2
AcDbTableStyle
  3
ObjectDBX Classes
 90
     4095
 91
        4
280
     0
281
     0
  0
CLASS
  1
MLEADERSTYLE
  2
AcDbMLeaderStyle
  3
ACDB_MLEADERSTYLE_CLASS
 90
     4095
 91
        4
280
     0
281
     0
  0
CLASS
  1
SUN
  2
AcDbSun
  3
SCENEOE
 90
     1153
 91
        4
280
     0
281
     0
  0
CLASS
  1
DICTIONARYVAR
  2
AcDbDictionaryVar
  3
ObjectDBX Classes
 90
        0
 91
        4
280
     0
281
     0
  0
CLASS
  1
CELLSTYLEMAP
  2
AcDbCellStyleMap
  3
ObjectDBX Classes
 90
     1152
 91
        4
280
     0
281
     0
  0
ENDSEC
  0
SECTION
  2
TABLES
  0
TABLE
  2
VPORT
  5
8
330
0
100
AcDbSymbolTable
 70
     1
  0
VPORT
  5
29
330
8
100
AcDbSymbolTableRecord
100
AcDbViewportTableRecord
  2
*Active
 70
     0
 10
0.0
 20
0.0
 11
1.0
 21
1.0
 12
420.0
 22
297.0
 13
0.0
 23
0.0
 14
10.0
 24
10.0
 15
10.0
 25
10.0
 16
0.0
 26
0.0
 36
1.0
 17
0.0
 27
0.0
 37
0.0
 40
594.0
 41
1.4141414141
 42
50.0
 43
0.0
 44
0.0
 50
0.0
 51
0.0
 71
     0
 72
  2000
 73
     1
 74
     3
 75
     0
 76
     0
 77
     0
 78
     0
281
     0
 65
     1
110
0.0
120
0.0
130
0.0
111
1.0
121
0.0
131
0.0
112
0.0
122
1.0
132
0.0
 79
     0
146
0.0
348
2F
 60
     3
 61
     5
292
     1
282
     1
141
0.0
142
0.0
 63
   250
361
6D
  0
ENDTAB
  0
TABLE
  2
LTYPE
  5
5
330
0
100
AcDbSymbolTable
 70
     8
  0
LTYPE
  5
14
330
5
100
AcDbSymbolTableRecord
100
AcDbLinetypeTableRecord
  2
ByBlock
 70
     0
  3

 72
    65
 73
     0
 40
0.0
  0
LTYPE
  5
15
330
5
100
AcDbSymbolTableRecord
100
AcDbLinetypeTableRecord
  2
ByLayer
 70
     0
  3

 72
    65
 73
     0
 40
0.0
  0
LTYPE
  5
16
330
5
100
AcDbSymbolTableRecord
100
AcDbLinetypeTableRecord
  2
Continuous
 70
     0
  3
Solid line
 72
    65
 73
     0
 40
0.0
  0
LTYPE
  5
6E
330
5
100
AcDbSymbolTableRecord
100
AcDbLinetypeTableRecord
  2
SLD-Durchgehend
 70
     0
  3
SolidWorks Line Style
 72
    65
 73
     0
 40
0.0
  0
LTYPE
  5
6F
330
5
100
AcDbSymbolTableRecord
100
AcDbLinetypeTableRecord
  2
SLD-Gestrichelt
 70
     0
  3
SolidWorks Line Style
 72
    65
 73
     2
 40
1.905
 49
1.27
 74
     0
 49
-0.635
 74
     0
  0
LTYPE
  5
70
330
5
100
AcDbSymbolTableRecord
100
AcDbLinetypeTableRecord
  2
SLD-Phantom
 70
     0
  3
SolidWorks Line Style
 72
    65
 73
     6
 40
12.7
 49
6.35
 74
     0
 49
-1.27
 74
     0
 49
1.27
 74
     0
 49
-1.27
 74
     0
 49
1.27
 74
     0
 49
-1.27
 74
     0
  0
LTYPE
  5
71
330
5
100
AcDbSymbolTableRecord
100
AcDbLinetypeTableRecord
  2
SLD-Kette
 70
     0
  3
SolidWorks Line Style
 72
    65
 73
     4
 40
10.16
 49
6.35
 74
     0
 49
-1.27
 74
     0
 49
1.27
 74
     0
 49
-1.27
 74
     0
  0
LTYPE
  5
72
330
5
100
AcDbSymbolTableRecord
100
AcDbLinetypeTableRecord
  2
SLD-Punktstrich
 70
     0
  3
SolidWorks Line Style
 72
    65
 73
     4
 40
19.05
 49
15.24
 74
     0
 49
-1.27
 74
     0
 49
1.27
 74
     0
 49
-1.27
 74
     0
  0
LTYPE
  5
73
330
5
100
AcDbSymbolTableRecord
100
AcDbLinetypeTableRecord
  2
SLD-Naht
 70
     0
  3
SolidWorks Line Style
 72
    65
 73
     2
 40
0.635
 49
0.0
 74
     0
 49
-0.635
 74
     0
  0
LTYPE
  5
74
330
5
100
AcDbSymbolTableRecord
100
AcDbLinetypeTableRecord
  2
SLD-Dicke-Dünne-Kette
 70
     0
  3
SolidWorks Line Style
 72
    65
 73
     4
 40
10.16
 49
6.35
 74
     0
 49
-1.27
 74
     0
 49
1.27
 74
     0
 49
-1.27
 74
     0
  0
ENDTAB
  0
TABLE
  2
LAYER
  5
2
330
0
100
AcDbSymbolTable
 70
     1
  0
LAYER
  5
10
330
2
100
AcDbSymbolTableRecord
100
AcDbLayerTableRecord
  2
0
 70
     0
 62
     7
  6
Continuous
370
    -3
390
F
347
46
348
0
  0
ENDTAB
  0
TABLE
  2
STYLE
  5
3
330
0
100
AcDbSymbolTable
 70
     3
  0
STYLE
  5
11
330
3
100
AcDbSymbolTableRecord
100
AcDbTextStyleTableRecord
  2
Standard
 70
     0
 40
0.0
 41
1.0
 50
0.0
 71
     0
 42
7.0
  3
txt
  4

  0
STYLE
  5
9A
330
3
100
AcDbSymbolTableRecord
100
AcDbTextStyleTableRecord
  2
SLDTEXTSTYLE0
 70
     0
 40
0.0
 41
0.75
 50
0.0
 71
     0
 42
7.0
  3
TXT
  4

  0
STYLE
  5
1D6
330
3
100
AcDbSymbolTableRecord
100
AcDbTextStyleTableRecord
  2
SLDTEXTSTYLE1
 70
     0
 40
0.0
 41
0.605
 50
0.0
 71
     0
 42
7.0
  3
TXT
  4

  0
ENDTAB
  0
TABLE
  2
VIEW
  5
6
330
0
100
AcDbSymbolTable
 70
     0
  0
ENDTAB
  0
TABLE
  2
UCS
  5
7
330
0
100
AcDbSymbolTable
 70
     0
  0
ENDTAB
  0
TABLE
  2
APPID
  5
9
330
0
100
AcDbSymbolTable
 70
     1
  0
APPID
  5
12
330
9
100
AcDbSymbolTableRecord
100
AcDbRegAppTableRecord
  2
ACAD
 70
     0
  0
ENDTAB
  0
TABLE
  2
DIMSTYLE
  5
A
330
0
100
AcDbSymbolTable
 70
     4
100
AcDbDimStyleTable
  0
DIMSTYLE
105
27
330
A
100
AcDbSymbolTableRecord
100
AcDbDimStyleTableRecord
  2
ISO-25
 70
     0
 41
2.5
 42
0.625
 43
3.75
 44
1.25
 73
     0
 74
     0
 77
     1
 78
     8
140
2.5
141
2.5
143
0.0393700787
147
0.625
171
     3
172
     1
178
     0
271
     2
272
     2
274
     3
278
    44
283
     0
284
     8
340
11
  0
DIMSTYLE
105
1D7
102
{ACAD_REACTORS
330
1D5
102
}
330
A
100
AcDbSymbolTableRecord
100
AcDbDimStyleTableRecord
  2
SLDDIMSTYLE0
 70
     0
 41
14.0
 44
0.0
 45
0.000000001
 73
     0
 74
     0
 77
     1
 78
    12
 79
     3
140
14.0
147
3.5
172
     1
173
     1
178
     0
271
     1
272
     1
276
     2
284
    12
289
     0
340
1D6
  0
DIMSTYLE
105
1E4
102
{ACAD_REACTORS
330
1E3
330
1F9
330
204
102
}
330
A
100
AcDbSymbolTableRecord
100
AcDbDimStyleTableRecord
  2
SLDDIMSTYLE1
 70
     0
 41
14.0
 44
0.0
 45
0.000000001
 73
     0
 74
     0
 77
     1
 78
    12
 79
     3
140
14.0
147
3.5
173
     1
178
     0
271
     0
272
     0
276
     2
284
    12
340
1D6
  0
DIMSTYLE
105
1EF
102
{ACAD_REACTORS
330
1EE
330
20F
102
}
330
A
100
AcDbSymbolTableRecord
100
AcDbDimStyleTableRecord
  2
SLDDIMSTYLE2
 70
     0
 41
14.0
 44
0.0
 45
0.000000001
 73
     0
 74
     0
 77
     1
 78
    12
 79
     3
140
14.0
147
3.5
173
     1
178
     0
271
     1
272
     1
276
     2
284
    12
340
1D6
  0
ENDTAB
  0
TABLE
  2
BLOCK_RECORD
  5
1
330
0
100
AcDbSymbolTable
 70
     7
  0
BLOCK_RECORD
  5
1F
330
1
100
AcDbSymbolTableRecord
100
AcDbBlockTableRecord
  2
*Model_Space
340
22
 70
     0
280
     1
281
     0
  0
BLOCK_RECORD
  5
1B
330
1
100
AcDbSymbolTableRecord
100
AcDbBlockTableRecord
  2
*Paper_Space
340
1E
 70
     0
280
     1
281
     0
  0
BLOCK_RECORD
  5
23
330
1
100
AcDbSymbolTableRecord
100
AcDbBlockTableRecord
  2
*Paper_Space0
340
26
 70
     0
280
     1
281
     0
  0
BLOCK_RECORD
  5
1D8
330
1
100
AcDbSymbolTableRecord
100
AcDbBlockTableRecord
  2
_D
340
0
 70
     0
280
     1
281
     0
  0
BLOCK_RECORD
  5
1E5
330
1
100
AcDbSymbolTableRecord
100
AcDbBlockTableRecord
  2
_D_1
340
0
 70
     0
280
     1
281
     0
  0
BLOCK_RECORD
  5
1F0
330
1
100
AcDbSymbolTableRecord
100
AcDbBlockTableRecord
  2
_D_2
340
0
 70
     0
280
     1
281
     0
  0
BLOCK_RECORD
  5
1FA
330
1
100
AcDbSymbolTableRecord
100
AcDbBlockTableRecord
  2
_D_3
340
0
 70
     0
280
     1
281
     0
  0
BLOCK_RECORD
  5
205
330
1
100
AcDbSymbolTableRecord
100
AcDbBlockTableRecord
  2
_D_4
340
0
 70
     0
280
     1
281
     0
  0
BLOCK_RECORD
  5
210
330
1
100
AcDbSymbolTableRecord
100
AcDbBlockTableRecord
  2
_D_5
340
0
 70
     0
280
     1
281
     0
  0
ENDTAB
  0
ENDSEC
  0
SECTION
  2
BLOCKS
  0
BLOCK
  5
20
330
1F
100
AcDbEntity
  8
0
100
AcDbBlockBegin
  2
*Model_Space
 70
     0
 10
0.0
 20
0.0
 30
0.0
  3
*Model_Space
  1

  0
ENDBLK
  5
21
330
1F
100
AcDbEntity
  8
0
100
AcDbBlockEnd
  0
BLOCK
  5
1C
330
1B
100
AcDbEntity
 67
     1
  8
0
100
AcDbBlockBegin
  2
*Paper_Space
 70
     0
 10
0.0
 20
0.0
 30
0.0
  3
*Paper_Space
  1

  0
ENDBLK
  5
1D
330
1B
100
AcDbEntity
 67
     1
  8
0
100
AcDbBlockEnd
  0
BLOCK
  5
24
330
23
100
AcDbEntity
  8
0
100
AcDbBlockBegin
  2
*Paper_Space0
 70
     0
 10
0.0
 20
0.0
 30
0.0
  3
*Paper_Space0
  1

  0
ENDBLK
  5
25
330
23
100
AcDbEntity
  8
0
100
AcDbBlockEnd
  0
BLOCK
  5
1D9
330
1D8
100
AcDbEntity
  8
0
100
AcDbBlockBegin
  2
_D
 70
     0
 10
0.0
 20
0.0
 30
0.0
  3
_D
  1

  0
SOLID
  5
1DB
330
1D8
100
AcDbEntity
  8
0
  6
SLD-Durchgehend
 62
     7
370
    18
100
AcDbTrace
 10
300.5418873512
 20
511.951779958
 30
0.0
 11
298.3880411973
 21
497.951779958
 31
0.0
 12
302.695733505
 22
497.951779958
 32
0.0
 13
302.695733505
 23
497.951779958
 33
0.0
  0
SOLID
  5
1DC
330
1D8
100
AcDbEntity
  8
0
  6
SLD-Durchgehend
 62
     7
370
    18
100
AcDbTrace
 10
300.5418873512
 20
516.251779958
 30
0.0
 11
302.695733505
 21
530.251779958
 31
0.0
 12
298.3880411973
 22
530.251779958
 32
0.0
 13
298.3880411973
 23
530.251779958
 33
0.0
  0
LINE
  5
1DD
330
1D8
100
AcDbEntity
  8
0
  6
SLD-Durchgehend
 62
     7
370
    18
100
AcDbLine
 10
314.8280763111
 20
511.951779958
 30
0.0
 11
298.5418873512
 21
511.951779958
 31
0.0
  0
LINE
  5
1DE
330
1D8
100
AcDbEntity
  8
0
  6
SLD-Durchgehend
 62
     7
370
    18
100
AcDbLine
 10
313.2148283111
 20
516.251779958
 30
0.0
 11
298.5418873512
 21
516.251779958
 31
0.0
  0
LINE
  5
1DF
330
1D8
100
AcDbEntity
  8
0
  6
SLD-Durchgehend
 62
     7
370
    18
100
AcDbLine
 10
300.5418873512
 20
511.951779958
 30
0.0
 11
300.5418873512
 21
485.0287030349
 31
0.0
  0
LINE
  5
1E0
330
1D8
100
AcDbEntity
  8
0
  6
SLD-Durchgehend
 62
     7
370
    18
100
AcDbLine
 10
300.5418873512
 20
511.951779958
 30
0.0
 11
300.5418873512
 21
516.251779958
 31
0.0
  0
LINE
  5
1E1
330
1D8
100
AcDbEntity
  8
0
  6
SLD-Durchgehend
 62
     7
370
    18
100
AcDbLine
 10
300.5418873512
 20
516.251779958
 30
0.0
 11
300.5418873512
 21
552.5603955783
 31
0.0
  0
MTEXT
  5
1E2
330
1D8
100
AcDbEntity
  8
0
  6
SLD-Durchgehend
 62
     7
370
    18
100
AcDbMText
 10
282.4949389944
 20
514.0798418022
 30
0.0
 40
14.0
 41
0.0
 46
0.0
 71
     1
 72
     1
  1
6-25
  7
SLDTEXTSTYLE1
 11
6.123233995736766E-17
 21
1.0
 31
0.0
 73
     1
 44
1.0
  0
ENDBLK
  5
1DA
330
1D8
100
AcDbEntity
  8
0
100
AcDbBlockEnd
  0
BLOCK
  5
1E6
330
1E5
100
AcDbEntity
  8
0
100
AcDbBlockBegin
  2
_D_1
 70
     0
 10
0.0
 20
0.0
 30
0.0
  3
_D_1
  1

  0
SOLID
  5
1E8
330
1E5
100
AcDbEntity
  8
0
  6
SLD-Durchgehend
 62
     7
370
    18
100
AcDbTrace
 10
308.0226404237
 20
489.951779958
 30
0.0
 11
305.8687942698
 21
475.951779958
 31
0.0
 12
310.1764865775
 22
475.951779958
 32
0.0
 13
310.1764865775
 23
475.951779958
 33
0.0
  0
SOLID
  5
1E9
330
1E5
100
AcDbEntity
  8
0
  6
SLD-Durchgehend
 62
     7
370
    18
100
AcDbTrace
 10
308.0226404237
 20
440.951779958
 30
0.0
 11
310.1764865775
 21
454.951779958
 31
0.0
 12
305.8687942698
 22
454.951779958
 32
0.0
 13
305.8687942698
 23
454.951779958
 33
0.0
  0
LINE
  5
1EA
330
1E5
100
AcDbEntity
  8
0
  6
SLD-Durchgehend
 62
     7
370
    18
100
AcDbLine
 10
335.7148283111
 20
489.951779958
 30
0.0
 11
306.0226404237
 21
489.951779958
 31
0.0
  0
LINE
  5
1EB
330
1E5
100
AcDbEntity
  8
0
  6
SLD-Durchgehend
 62
     7
370
    18
100
AcDbLine
 10
345.7148283111
 20
440.951779958
 30
0.0
 11
306.0226404237
 21
440.951779958
 31
0.0
  0
LINE
  5
1EC
330
1E5
100
AcDbEntity
  8
0
  6
SLD-Durchgehend
 62
     7
370
    18
100
AcDbLine
 10
308.0226404237
 20
489.951779958
 30
0.0
 11
308.0226404237
 21
440.951779958
 31
0.0
  0
MTEXT
  5
1ED
330
1E5
100
AcDbEntity
  8
0
  6
SLD-Durchgehend
 62
     7
370
    18
100
AcDbMText
 10
289.9756920669
 20
451.826020204
 30
0.0
 40
14.0
 41
0.0
 46
0.0
 71
     1
 72
     1
  1
50
  7
SLDTEXTSTYLE1
 11
-7.044195017643634E-15
 21
1.0
 31
0.0
 73
     1
 44
1.0
  0
ENDBLK
  5
1E7
330
1E5
100
AcDbEntity
  8
0
100
AcDbBlockEnd
  0
BLOCK
  5
1F1
330
1F0
100
AcDbEntity
  8
0
100
AcDbBlockBegin
  2
_D_2
 70
     0
 10
0.0
 20
0.0
 30
0.0
  3
_D_2
  1

  0
SOLID
  5
1F3
330
1F0
100
AcDbEntity
  8
0
  6
SLD-Durchgehend
 62
     7
370
    18
100
AcDbTrace
 10
311.0148283111
 20
533.3201186902
 30
0.0
 11
325.0148283111
 21
531.1662725364
 31
0.0
 12
325.0148283111
 22
535.4739648441
 32
0.0
 13
325.0148283111
 23
535.4739648441
 33
0.0
  0
SOLID
  5
1F4
330
1F0
100
AcDbEntity
  8
0
  6
SLD-Durchgehend
 62
     7
370
    18
100
AcDbTrace
 10
422.4148283111
 20
533.3201186902
 30
0.0
 11
408.4148283111
 21
535.4739648441
 31
0.0
 12
408.4148283111
 22
531.1662725364
 32
0.0
 13
408.4148283111
 23
531.1662725364
 33
0.0
  0
LINE
  5
1F5
330
1F0
100
AcDbEntity
  8
0
  6
SLD-Durchgehend
 62
     7
370
    18
100
AcDbLine
 10
311.0148283111
 20
520.751779958
 30
0.0
 11
311.0148283111
 21
535.3201186902
 31
0.0
  0
LINE
  5
1F6
330
1F0
100
AcDbEntity
  8
0
  6
SLD-Durchgehend
 62
     7
370
    18
100
AcDbLine
 10
422.4148283111
 20
520.751779958
 30
0.0
 11
422.4148283111
 21
535.3201186902
 31
0.0
  0
LINE
  5
1F7
330
1F0
100
AcDbEntity
  8
0
  6
SLD-Durchgehend
 62
     7
370
    18
100
AcDbLine
 10
311.0148283111
 20
533.3201186902
 30
0.0
 11
422.4148283111
 21
533.3201186902
 31
0.0
  0
MTEXT
  5
1F8
330
1F0
100
AcDbEntity
  8
0
  6
SLD-Durchgehend
 62
     7
370
    18
100
AcDbMText
 10
335.7005315339
 20
551.367067047
 30
0.0
 40
14.0
 41
0.0
 46
0.0
 71
     1
 72
     1
  1
111,5
  7
SLDTEXTSTYLE1
 73
     1
 44
1.0
  0
ENDBLK
  5
1F2
330
1F0
100
AcDbEntity
  8
0
100
AcDbBlockEnd
  0
BLOCK
  5
1FB
330
1FA
100
AcDbEntity
  8
0
100
AcDbBlockBegin
  2
_D_3
 70
     0
 10
0.0
 20
0.0
 30
0.0
  3
_D_3
  1

  0
SOLID
  5
1FD
330
1FA
100
AcDbEntity
  8
0
  6
SLD-Durchgehend
 62
     7
370
    18
100
AcDbTrace
 10
341.7148283111
 20
335.9011227526
 30
0.0
 11
355.7148283111
 21
333.7472765988
 31
0.0
 12
355.7148283111
 22
338.0549689065
 32
0.0
 13
355.7148283111
 23
338.0549689065
 33
0.0
  0
SOLID
  5
1FE
330
1FA
100
AcDbEntity
  8
0
  6
SLD-Durchgehend
 62
     7
370
    18
100
AcDbTrace
 10
391.7148283111
 20
335.9011227526
 30
0.0
 11
377.7148283111
 21
338.0549689065
 31
0.0
 12
377.7148283111
 22
333.7472765988
 32
0.0
 13
377.7148283111
 23
333.7472765988
 33
0.0
  0
LINE
  5
1FF
330
1FA
100
AcDbEntity
  8
0
  6
SLD-Durchgehend
 62
     7
370
    18
100
AcDbLine
 10
341.7148283111
 20
351.451779958
 30
0.0
 11
341.7148283111
 21
333.9011227526
 31
0.0
  0
LINE
  5
200
330
1FA
100
AcDbEntity
  8
0
  6
SLD-Durchgehend
 62
     7
370
    18
100
AcDbLine
 10
391.7148283111
 20
351.451779958
 30
0.0
 11
391.7148283111
 21
333.9011227526
 31
0.0
  0
LINE
  5
201
330
1FA
100
AcDbEntity
  8
0
  6
SLD-Durchgehend
 62
     7
370
    18
100
AcDbLine
 10
341.7148283111
 20
335.9011227526
 30
0.0
 11
391.7148283111
 21
335.9011227526
 31
0.0
  0
LINE
  5
202
330
1FA
100
AcDbEntity
  8
0
  6
SLD-Durchgehend
 62
     7
370
    18
100
AcDbLine
 10
391.7148283111
 20
335.9011227526
 30
0.0
 11
443.3460554066
 21
335.9011227526
 31
0.0
  0
MTEXT
  5
203
330
1FA
100
AcDbEntity
  8
0
  6
SLD-Durchgehend
 62
     7
370
    18
100
AcDbMText
 10
394.1904997411
 20
353.9480711094
 30
0.0
 40
14.0
 41
0.0
 46
0.0
 71
     1
 72
     1
  1
DN50
  7
SLDTEXTSTYLE1
 73
     1
 44
1.0
  0
ENDBLK
  5
1FC
330
1FA
100
AcDbEntity
  8
0
100
AcDbBlockEnd
  0
BLOCK
  5
206
330
205
100
AcDbEntity
  8
0
100
AcDbBlockBegin
  2
_D_4
 70
     0
 10
0.0
 20
0.0
 30
0.0
  3
_D_4
  1

  0
SOLID
  5
208
330
205
100
AcDbEntity
  8
0
  6
SLD-Durchgehend
 62
     7
370
    18
100
AcDbTrace
 10
321.7148283111
 20
306.451779958
 30
0.0
 11
335.7148283111
 21
304.2979338041
 31
0.0
 12
335.7148283111
 22
308.6056261118
 32
0.0
 13
335.7148283111
 23
308.6056261118
 33
0.0
  0
SOLID
  5
209
330
205
100
AcDbEntity
  8
0
  6
SLD-Durchgehend
 62
     7
370
    18
100
AcDbTrace
 10
411.7148283111
 20
306.451779958
 30
0.0
 11
397.7148283111
 21
308.6056261118
 31
0.0
 12
397.7148283111
 22
304.2979338041
 32
0.0
 13
397.7148283111
 23
304.2979338041
 33
0.0
  0
LINE
  5
20A
330
205
100
AcDbEntity
  8
0
  6
SLD-Durchgehend
 62
     7
370
    18
100
AcDbLine
 10
321.7148283111
 20
426.5939155817
 30
0.0
 11
321.7148283111
 21
304.451779958
 31
0.0
  0
LINE
  5
20B
330
205
100
AcDbEntity
  8
0
  6
SLD-Durchgehend
 62
     7
370
    18
100
AcDbLine
 10
411.7148283111
 20
426.5939155817
 30
0.0
 11
411.7148283111
 21
304.451779958
 31
0.0
  0
LINE
  5
20C
330
205
100
AcDbEntity
  8
0
  6
SLD-Durchgehend
 62
     7
370
    18
100
AcDbLine
 10
321.7148283111
 20
306.451779958
 30
0.0
 11
411.7148283111
 21
306.451779958
 31
0.0
  0
MTEXT
  5
20D
330
205
100
AcDbEntity
  8
0
  6
SLD-Durchgehend
 62
     7
370
    18
100
AcDbMText
 10
345.7656682426
 20
324.4987283148
 30
0.0
 40
14.0
 41
0.0
 46
0.0
 71
     1
 72
     1
  1
%%c
  7
SLDTEXTSTYLE1
 73
     1
 44
1.0
  0
MTEXT
  5
20E
330
205
100
AcDbEntity
  8
0
  6
SLD-Durchgehend
 62
     7
370
    18
100
AcDbMText
 10
366.1774744237
 20
324.595950941
 30
0.0
 40
14.0
 41
0.0
 46
0.0
 71
     1
 72
     1
  1
90
  7
SLDTEXTSTYLE1
 73
     1
 44
1.0
  0
ENDBLK
  5
207
330
205
100
AcDbEntity
  8
0
100
AcDbBlockEnd
  0
BLOCK
  5
211
330
210
100
AcDbEntity
  8
0
100
AcDbBlockBegin
  2
_D_5
 70
     0
 10
0.0
 20
0.0
 30
0.0
  3
_D_5
  1

  0
SOLID
  5
213
330
210
100
AcDbEntity
  8
0
  6
SLD-Durchgehend
 62
     7
370
    18
100
AcDbTrace
 10
281.732796631
 20
511.951779958
 30
0.0
 11
279.5789504772
 21
497.951779958
 31
0.0
 12
283.8866427849
 22
497.951779958
 32
0.0
 13
283.8866427849
 23
497.951779958
 33
0.0
  0
SOLID
  5
214
330
210
100
AcDbEntity
  8
0
  6
SLD-Durchgehend
 62
     7
370
    18
100
AcDbTrace
 10
281.732796631
 20
350.451779958
 30
0.0
 11
283.8866427849
 21
364.451779958
 31
0.0
 12
279.5789504772
 22
364.451779958
 32
0.0
 13
279.5789504772
 23
364.451779958
 33
0.0
  0
LINE
  5
215
330
210
100
AcDbEntity
  8
0
  6
SLD-Durchgehend
 62
     7
370
    18
100
AcDbLine
 10
314.8280763111
 20
511.951779958
 30
0.0
 11
279.732796631
 21
511.951779958
 31
0.0
  0
LINE
  5
216
330
210
100
AcDbEntity
  8
0
  6
SLD-Durchgehend
 62
     7
370
    18
100
AcDbLine
 10
342.7148283111
 20
350.451779958
 30
0.0
 11
279.732796631
 21
350.451779958
 31
0.0
  0
LINE
  5
217
330
210
100
AcDbEntity
  8
0
  6
SLD-Durchgehend
 62
     7
370
    18
100
AcDbLine
 10
281.732796631
 20
511.951779958
 30
0.0
 11
281.732796631
 21
350.451779958
 31
0.0
  0
MTEXT
  5
218
330
210
100
AcDbEntity
  8
0
  6
SLD-Durchgehend
 62
     7
370
    18
100
AcDbMText
 10
263.6858482742
 20
401.874277996
 30
0.0
 40
14.0
 41
0.0
 46
0.0
 71
     1
 72
     1
  1
161,5
  7
SLDTEXTSTYLE1
 11
-7.044195017643634E-15
 21
1.0
 31
0.0
 73
     1
 44
1.0
  0
ENDBLK
  5
212
330
210
100
AcDbEntity
  8
0
100
AcDbBlockEnd
  0
ENDSEC
  0
SECTION
  2
ENTITIES
  0
CIRCLE
  5
75
330
1F
100
AcDbEntity
  8
0
  6
SLD-Durchgehend
 62
     7
370
    25
100
AcDbCircle
 10
366.7148283111
 20
225.0331744919
 30
0.0
 40
55.69999999999999
  0
CIRCLE
  5
76
330
1F
100
AcDbEntity
  8
0
  6
SLD-Durchgehend
 62
     7
370
    25
100
AcDbCircle
 10
366.7148283111
 20
225.0331744919
 30
0.0
 40
40.0
  0
ARC
  5
77
330
1F
100
AcDbEntity
  8
0
  6
SLD-Durchgehend
 62
     7
370
    25
100
AcDbCircle
 10
366.7148283111
 20
225.0331744919
 30
0.0
 40
27.00000000000004
100
AcDbArc
 50
41.5369590328
 51
138.4630409672
  0
ARC
  5
78
330
1F
100
AcDbEntity
  8
0
  6
SLD-Durchgehend
 62
     7
370
    25
100
AcDbCircle
 10
389.1706724339
 20
244.9262653713
 30
0.0
 40
3.000000000000016
100
AcDbArc
 50
221.5369590328
 51
41.5369590328
  0
ARC
  5
79
330
1F
100
AcDbEntity
  8
0
  6
SLD-Durchgehend
 62
     7
370
    25
100
AcDbCircle
 10
338.2589841884
 20
234.5339605259
 30
0.0
 40
3.00000000000003
100
AcDbArc
 50
341.5369590328
 51
161.5369590328
  0
ARC
  5
7A
330
1F
100
AcDbEntity
  8
0
  6
SLD-Durchgehend
 62
     7
370
    25
100
AcDbCircle
 10
366.7148283111
 20
225.0331744919
 30
0.0
 40
33.00000000000003
100
AcDbArc
 50
41.5369590328
 51
138.4630409672
  0
ARC
  5
7B
330
1F
100
AcDbEntity
  8
0
  6
SLD-Durchgehend
 62
     7
370
    25
100
AcDbCircle
 10
344.2589841884
 20
244.9262653713
 30
0.0
 40
2.999999999999998
100
AcDbArc
 50
138.4630409672
 51
318.4630409672
  0
ARC
  5
7C
330
1F
100
AcDbEntity
  8
0
  6
SLD-Durchgehend
 62
     7
370
    25
100
AcDbCircle
 10
350.8695957325
 20
227.2532205563
 30
0.0
 40
3.000000000000043
100
AcDbArc
 50
352.024312837
 51
172.024312837
  0
ARC
  5
7D
330
1F
100
AcDbEntity
  8
0
  6
SLD-Durchgehend
 62
     7
370
    25
100
AcDbCircle
 10
366.7148283111
 20
225.0331744919
 30
0.0
 40
19.00000000000001
100
AcDbArc
 50
52.024312837
 51
127.975687163
  0
ARC
  5
7E
330
1F
100
AcDbEntity
  8
0
  6
SLD-Durchgehend
 62
     7
370
    25
100
AcDbCircle
 10
356.8695957325
 20
237.6455254017
 30
0.0
 40
2.999999999999992
100
AcDbArc
 50
127.975687163
 51
307.975687163
  0
ARC
  5
7F
330
1F
100
AcDbEntity
  8
0
  6
SLD-Durchgehend
 62
     7
370
    25
100
AcDbCircle
 10
366.7148283111
 20
225.0331744919
 30
0.0
 40
13.00000000000002
100
AcDbArc
 50
52.024312837
 51
127.975687163
  0
ARC
  5
80
330
1F
100
AcDbEntity
  8
0
  6
SLD-Durchgehend
 62
     7
370
    25
100
AcDbCircle
 10
376.5600608898
 20
237.6455254017
 30
0.0
 40
3.000000000000028
100
AcDbArc
 50
232.024312837
 51
52.024312837
  0
ARC
  5
81
330
1F
100
AcDbEntity
  8
0
  6
SLD-Durchgehend
 62
     7
370
    25
100
AcDbCircle
 10
366.7148283111
 20
225.0331744919
 30
0.0
 40
33.00000000000004
100
AcDbArc
 50
161.5369590328
 51
258.4630409672
  0
ARC
  5
82
330
1F
100
AcDbEntity
  8
0
  6
SLD-Durchgehend
 62
     7
370
    25
100
AcDbCircle
 10
360.7148283111
 20
195.6392975785
 30
0.0
 40
3.000000000000036
100
AcDbArc
 50
258.4630409672
 51
78.4630409672
  0
ARC
  5
83
330
1F
100
AcDbEntity
  8
0
  6
SLD-Durchgehend
 62
     7
370
    25
100
AcDbCircle
 10
366.7148283111
 20
225.0331744919
 30
0.0
 40
27.00000000000004
100
AcDbArc
 50
161.5369590328
 51
258.4630409672
  0
ARC
  5
84
330
1F
100
AcDbEntity
  8
0
  6
SLD-Durchgehend
 62
     7
370
    25
100
AcDbCircle
 10
372.7148283111
 20
195.6392975785
 30
0.0
 40
2.999999999999997
100
AcDbArc
 50
101.5369590328
 51
281.5369590328
  0
ARC
  5
85
330
1F
100
AcDbEntity
  8
0
  6
SLD-Durchgehend
 62
     7
370
    25
100
AcDbCircle
 10
366.7148283111
 20
225.0331744919
 30
0.0
 40
19.00000000000003
100
AcDbArc
 50
172.024312837
 51
247.975687163
  0
ARC
  5
86
330
1F
100
AcDbEntity
  8
0
  6
SLD-Durchgehend
 62
     7
370
    25
100
AcDbCircle
 10
360.7148283111
 20
210.2007775177
 30
0.0
 40
2.999999999999991
100
AcDbArc
 50
247.975687163
 51
67.975687163
  0
ARC
  5
87
330
1F
100
AcDbEntity
  8
0
  6
SLD-Durchgehend
 62
     7
370
    25
100
AcDbCircle
 10
366.7148283111
 20
225.0331744919
 30
0.0
 40
18.99999999999998
100
AcDbArc
 50
292.024312837
 51
7.975687163
  0
ARC
  5
88
330
1F
100
AcDbEntity
  8
0
  6
SLD-Durchgehend
 62
     7
370
    25
100
AcDbCircle
 10
382.5600608898
 20
227.2532205563
 30
0.0
 40
3.000000000000043
100
AcDbArc
 50
7.975687163
 51
187.975687163
  0
ARC
  5
89
330
1F
100
AcDbEntity
  8
0
  6
SLD-Durchgehend
 62
     7
370
    25
100
AcDbCircle
 10
366.7148283111
 20
225.0331744919
 30
0.0
 40
13.00000000000001
100
AcDbArc
 50
292.024312837
 51
7.975687163
  0
ARC
  5
8A
330
1F
100
AcDbEntity
  8
0
  6
SLD-Durchgehend
 62
     7
370
    25
100
AcDbCircle
 10
372.7148283111
 20
210.2007775177
 30
0.0
 40
3.000000000000012
100
AcDbArc
 50
112.024312837
 51
292.024312837
  0
ARC
  5
8B
330
1F
100
AcDbEntity
  8
0
  6
SLD-Durchgehend
 62
     7
370
    25
100
AcDbCircle
 10
366.7148283111
 20
225.0331744919
 30
0.0
 40
33.0
100
AcDbArc
 50
281.5369590328
 51
18.4630409672
  0
ARC
  5
8C
330
1F
100
AcDbEntity
  8
0
  6
SLD-Durchgehend
 62
     7
370
    25
100
AcDbCircle
 10
395.1706724339
 20
234.5339605259
 30
0.0
 40
3.00000000000003
100
AcDbArc
 50
18.4630409672
 51
198.4630409672
  0
ARC
  5
8D
330
1F
100
AcDbEntity
  8
0
  6
SLD-Durchgehend
 62
     7
370
    25
100
AcDbCircle
 10
366.7148283111
 20
225.0331744919
 30
0.0
 40
27.0
100
AcDbArc
 50
281.5369590328
 51
18.4630409672
  0
ARC
  5
8E
330
1F
100
AcDbEntity
  8
0
  6
SLD-Durchgehend
 62
     7
370
    25
100
AcDbCircle
 10
366.7148283111
 20
225.0331744919
 30
0.0
 40
13.00000000000002
100
AcDbArc
 50
172.024312837
 51
247.975687163
  0
CIRCLE
  5
8F
330
1F
100
AcDbEntity
  8
0
  6
SLD-Durchgehend
 62
     7
370
    25
100
AcDbCircle
 10
366.7148283111
 20
225.0331744919
 30
0.0
 40
40.14999999999964
  0
CIRCLE
  5
90
330
1F
100
AcDbEntity
  8
0
  6
SLD-Durchgehend
 62
     7
370
    25
100
AcDbCircle
 10
366.7148283111
 20
225.0331744919
 30
0.0
 40
56.00000000000001
  0
LWPOLYLINE
  5
91
330
1F
100
AcDbEntity
  8
0
  6
SLD-Durchgehend
 62
     7
370
    25
100
AcDbPolyline
 90
        3
 70
   128
 43
0.0
 10
384.554479899
 20
227.4304294267
 10
384.2458270065
 20
229.1153411646
 10
384.0576099443
 20
229.8527102811
  0
ARC
  5
92
330
1F
100
AcDbEntity
  8
0
  6
SLD-Durchgehend
 62
     7
370
    25
100
AcDbCircle
 10
366.7148283111
 20
225.0331744919
 30
0.0
 40
18.00000000000002
100
AcDbArc
 50
44.4694592586
 51
135.5305407414
  0
ARC
  5
93
330
1F
100
AcDbEntity
  8
0
  6
SLD-Durchgehend
 62
     7
370
    25
100
AcDbCircle
 10
366.7148283111
 20
225.0331744919
 30
0.0
 40
18.0
100
AcDbArc
 50
164.4694592586
 51
255.5305407414
  0
ARC
  5
94
330
1F
100
AcDbEntity
  8
0
  6
SLD-Durchgehend
 62
     7
370
    25
100
AcDbCircle
 10
366.7148283111
 20
225.0331744919
 30
0.0
 40
18.00000000000001
100
AcDbArc
 50
284.4694592586
 51
7.6534392174
  0
LINE
  5
95
330
1F
100
AcDbEntity
  8
0
  6
SLD-Phantom
 62
     7
370
    35
100
AcDbLine
 10
436.3866164708
 20
225.0331744919
 30
0.0
 11
297.0430401515
 21
225.0331744919
 31
0.0
  0
LINE
  5
96
330
1F
100
AcDbEntity
  8
0
  6
SLD-Durchgehend
 62
     7
370
    35
100
AcDbLine
 10
432.3866164708
 20
199.6331744919
 30
0.0
 11
432.3866164708
 21
225.0331744919
 31
0.0
  0
SOLID
  5
97
330
1F
100
AcDbEntity
  8
0
  6
SLD-Durchgehend
 62
     7
370
    35
100
AcDbTrace
 10
432.3866164708
 20
225.0331744919
 30
0.0
 11
430.3546164708
 21
212.3331744919
 31
0.0
 12
434.4186164708
 22
212.3331744919
 32
0.0
 13
434.4186164708
 23
212.3331744919
 33
0.0
  0
LINE
  5
98
330
1F
100
AcDbEntity
  8
0
  6
SLD-Durchgehend
 62
     7
370
    35
100
AcDbLine
 10
301.0430401515
 20
199.6331744919
 30
0.0
 11
301.0430401515
 21
225.0331744919
 31
0.0
  0
SOLID
  5
99
330
1F
100
AcDbEntity
  8
0
  6
SLD-Durchgehend
 62
     7
370
    35
100
AcDbTrace
 10
301.0430401515
 20
225.0331744919
 30
0.0
 11
299.0110401515
 21
212.3331744919
 31
0.0
 12
303.0750401515
 22
212.3331744919
 32
0.0
 13
303.0750401515
 23
212.3331744919
 33
0.0
  0
MTEXT
  5
9B
330
1F
100
AcDbEntity
  8
0
  6
Continuous
 62
     7
100
AcDbMText
 10
435.1466147416
 20
210.7483275508
 30
0.0
 40
7.0
 41
0.0
 46
0.0
 71
     1
 72
     1
  1
A
  7
SLDTEXTSTYLE0
 73
     1
 44
1.0
  0
MTEXT
  5
9C
330
1F
100
AcDbEntity
  8
0
  6
Continuous
 62
     7
100
AcDbMText
 10
291.3830462035
 20
210.7483275508
 30
0.0
 40
7.0
 41
0.0
 46
0.0
 71
     1
 72
     1
  1
A
  7
SLDTEXTSTYLE0
 73
     1
 44
1.0
  0
LINE
  5
9D
330
1F
100
AcDbEntity
  8
0
  6
SLD-Durchgehend
 62
     7
370
    25
100
AcDbLine
 10
405.9648283111
 20
512.201779958
 30
0.0
 11
404.7148283111
 21
512.201779958
 31
0.0
  0
LINE
  5
9E
330
1F
100
AcDbEntity
  8
0
  6
SLD-Durchgehend
 62
     7
370
    25
100
AcDbLine
 10
328.7148283111
 20
512.201779958
 30
0.0
 11
327.4648283111
 21
512.201779958
 31
0.0
  0
LINE
  5
9F
330
1F
100
AcDbEntity
  8
0
  6
SLD-Durchgehend
 62
     7
370
    25
100
AcDbLine
 10
327.4648283111
 20
509.701779958
 30
0.0
 11
328.7148283111
 21
509.701779958
 31
0.0
  0
LINE
  5
A0
330
1F
100
AcDbEntity
  8
0
  6
SLD-Durchgehend
 62
     7
370
    25
100
AcDbLine
 10
404.7148283111
 20
509.701779958
 30
0.0
 11
405.9648283111
 21
509.701779958
 31
0.0
  0
LINE
  5
A1
330
1F
100
AcDbEntity
  8
0
  6
SLD-Durchgehend
 62
     7
370
    25
100
AcDbLine
 10
321.7148283111
 20
428.5939155817
 30
0.0
 11
321.7148283111
 21
488.451779958
 31
0.0
  0
LINE
  5
A2
330
1F
100
AcDbEntity
  8
0
  6
SLD-Durchgehend
 62
     7
370
    25
100
AcDbLine
 10
411.7148283111
 20
488.451779958
 30
0.0
 11
411.7148283111
 21
428.5939155817
 31
0.0
  0
LINE
  5
A3
330
1F
100
AcDbEntity
  8
0
  6
SLD-Durchgehend
 62
     7
370
    25
100
AcDbLine
 10
313.2148283111
 20
500.951779958
 30
0.0
 11
313.2148283111
 21
504.451779958
 31
0.0
  0
LINE
  5
A4
330
1F
100
AcDbEntity
  8
0
  6
SLD-Durchgehend
 62
     7
370
    25
100
AcDbLine
 10
420.2148283111
 20
504.451779958
 30
0.0
 11
420.2148283111
 21
500.951779958
 31
0.0
  0
ARC
  5
A5
330
1F
100
AcDbEntity
  8
0
  6
SLD-Durchgehend
 62
     7
370
    25
100
AcDbCircle
 10
401.7148283111
 20
428.5939155817
 30
0.0
 40
10.0
100
AcDbArc
 50
315.0
 51
0.0
  0
ARC
  5
A6
330
1F
100
AcDbEntity
  8
0
  6
SLD-Durchgehend
 62
     7
370
    25
100
AcDbCircle
 10
331.7148283111
 20
428.5939155817
 30
0.0
 40
10.0
100
AcDbArc
 50
180.0
 51
225.0
  0
LINE
  5
A7
330
1F
100
AcDbEntity
  8
0
  6
SLD-Durchgehend
 62
     7
370
    25
100
AcDbLine
 10
324.8148283111
 20
500.951779958
 30
0.0
 11
324.8148283111
 21
428.4939155817
 31
0.0
  0
LINE
  5
A8
330
1F
100
AcDbEntity
  8
0
  6
SLD-Durchgehend
 62
     7
370
    25
100
AcDbLine
 10
408.6148283111
 20
428.4939155817
 30
0.0
 11
408.6148283111
 21
500.951779958
 31
0.0
  0
ARC
  5
A9
330
1F
100
AcDbEntity
  8
0
  6
SLD-Durchgehend
 62
     7
370
    25
100
AcDbCircle
 10
419.7148283111
 20
500.951779958
 30
0.0
 40
0.5
100
AcDbArc
 50
270.0
 51
0.0
  0
ARC
  5
AA
330
1F
100
AcDbEntity
  8
0
  6
SLD-Durchgehend
 62
     7
370
    25
100
AcDbCircle
 10
313.7148283111
 20
500.951779958
 30
0.0
 40
0.5
100
AcDbArc
 50
180.0
 51
270.0
  0
LINE
  5
AB
330
1F
100
AcDbEntity
  8
0
  6
SLD-Durchgehend
 62
     7
370
    25
100
AcDbLine
 10
322.8148283111
 20
502.951779958
 30
0.0
 11
324.8148283111
 21
500.951779958
 31
0.0
  0
LINE
  5
AC
330
1F
100
AcDbEntity
  8
0
  6
SLD-Durchgehend
 62
     7
370
    25
100
AcDbLine
 10
322.8148283111
 20
502.951779958
 30
0.0
 11
323.7148283111
 21
502.951779958
 31
0.0
  0
LINE
  5
AD
330
1F
100
AcDbEntity
  8
0
  6
SLD-Durchgehend
 62
     7
370
    25
100
AcDbLine
 10
409.7148283111
 20
502.951779958
 30
0.0
 11
410.6148283111
 21
502.951779958
 31
0.0
  0
LINE
  5
AE
330
1F
100
AcDbEntity
  8
0
  6
SLD-Durchgehend
 62
     7
370
    25
100
AcDbLine
 10
408.6148283111
 20
500.951779958
 30
0.0
 11
410.6148283111
 21
502.951779958
 31
0.0
  0
LINE
  5
AF
330
1F
100
AcDbEntity
  8
0
  6
SLD-Durchgehend
 62
     7
370
    25
100
AcDbLine
 10
326.8650808428
 20
423.5441681134
 30
0.0
 11
343.8361486547
 21
406.5731003015
 31
0.0
  0
LINE
  5
B0
330
1F
100
AcDbEntity
  8
0
  6
SLD-Durchgehend
 62
     7
370
    25
100
AcDbLine
 10
389.5935079676
 20
406.5731003015
 30
0.0
 11
406.5645757794
 21
423.5441681134
 31
0.0
  0
LINE
  5
B1
330
1F
100
AcDbEntity
  8
0
  6
SLD-Durchgehend
 62
     7
370
    25
100
AcDbLine
 10
341.7148283111
 20
404.451779958
 30
0.0
 11
324.6437604993
 21
421.5228477698
 31
0.0
  0
LINE
  5
B2
330
1F
100
AcDbEntity
  8
0
  6
SLD-Durchgehend
 62
     7
370
    25
100
AcDbLine
 10
408.785896123
 20
421.5228477698
 30
0.0
 11
391.7148283111
 21
404.451779958
 31
0.0
  0
ARC
  5
B3
330
1F
100
AcDbEntity
  8
0
  6
SLD-Durchgehend
 62
     7
370
    25
100
AcDbCircle
 10
331.8148283111
 20
428.4939155817
 30
0.0
 40
7.0
100
AcDbArc
 50
180.0
 51
225.0
  0
ARC
  5
B4
330
1F
100
AcDbEntity
  8
0
  6
SLD-Durchgehend
 62
     7
370
    25
100
AcDbCircle
 10
401.6148283111
 20
428.4939155817
 30
0.0
 40
7.0
100
AcDbArc
 50
315.0
 51
0.0
  0
LINE
  5
B5
330
1F
100
AcDbEntity
  8
0
  6
SLD-Durchgehend
 62
     7
370
    25
100
AcDbLine
 10
341.7148283111
 20
353.451779958
 30
0.0
 11
341.7148283111
 21
404.451779958
 31
0.0
  0
LINE
  5
B6
330
1F
100
AcDbEntity
  8
0
  6
SLD-Durchgehend
 62
     7
370
    25
100
AcDbLine
 10
391.7148283111
 20
404.451779958
 30
0.0
 11
391.7148283111
 21
353.451779958
 31
0.0
  0
LINE
  5
B7
330
1F
100
AcDbEntity
  8
0
  6
SLD-Durchgehend
 62
     7
370
    25
100
AcDbLine
 10
342.5186758884
 20
350.451779958
 30
0.0
 11
341.7148283111
 21
353.451779958
 31
0.0
  0
LINE
  5
B8
330
1F
100
AcDbEntity
  8
0
  6
SLD-Durchgehend
 62
     7
370
    25
100
AcDbLine
 10
321.7148283111
 20
488.451779958
 30
0.0
 11
314.7148283111
 21
500.451779958
 31
0.0
  0
LINE
  5
B9
330
1F
100
AcDbEntity
  8
0
  6
SLD-Durchgehend
 62
     7
370
    25
100
AcDbLine
 10
313.2148283111
 20
504.451779958
 30
0.0
 11
313.9648283111
 21
504.451779958
 31
0.0
  0
LINE
  5
BA
330
1F
100
AcDbEntity
  8
0
  6
SLD-Durchgehend
 62
     7
370
    25
100
AcDbLine
 10
313.9648283111
 20
504.0580809721
 30
0.0
 11
313.9648283111
 21
504.451779958
 31
0.0
  0
LINE
  5
BB
330
1F
100
AcDbEntity
  8
0
  6
SLD-Durchgehend
 62
     7
370
    25
100
AcDbLine
 10
315.9648283111
 20
504.0580809721
 30
0.0
 11
313.9648283111
 21
504.0580809721
 31
0.0
  0
LINE
  5
BC
330
1F
100
AcDbEntity
  8
0
  6
SLD-Durchgehend
 62
     7
370
    25
100
AcDbLine
 10
315.9648283111
 20
504.451779958
 30
0.0
 11
315.9648283111
 21
504.0580809721
 31
0.0
  0
LINE
  5
BD
330
1F
100
AcDbEntity
  8
0
  6
SLD-Durchgehend
 62
     7
370
    25
100
AcDbLine
 10
315.9648283111
 20
504.451779958
 30
0.0
 11
316.7148283111
 21
504.451779958
 31
0.0
  0
LINE
  5
BE
330
1F
100
AcDbEntity
  8
0
  6
SLD-Durchgehend
 62
     7
370
    25
100
AcDbLine
 10
316.7148283111
 20
504.451779958
 30
0.0
 11
316.7148283111
 21
502.951779958
 31
0.0
  0
LINE
  5
BF
330
1F
100
AcDbEntity
  8
0
  6
SLD-Durchgehend
 62
     7
370
    25
100
AcDbLine
 10
316.7148283111
 20
502.951779958
 30
0.0
 11
322.8148283111
 21
502.951779958
 31
0.0
  0
ARC
  5
C0
330
1F
100
AcDbEntity
  8
0
  6
SLD-Durchgehend
 62
     7
370
    25
100
AcDbCircle
 10
341.7148283111
 20
404.451779958
 30
0.0
 40
3.000000000000024
100
AcDbArc
 50
0.0
 51
45.0
  0
LINE
  5
C1
330
1F
100
AcDbEntity
  8
0
  6
SLD-Durchgehend
 62
     7
370
    25
100
AcDbLine
 10
344.7148283111
 20
404.451779958
 30
0.0
 11
344.7148283111
 21
350.451779958
 31
0.0
  0
LINE
  5
C2
330
1F
100
AcDbEntity
  8
0
  6
SLD-Durchgehend
 62
     7
370
    25
100
AcDbLine
 10
344.7148283111
 20
350.451779958
 30
0.0
 11
342.5186758884
 21
350.451779958
 31
0.0
  0
LINE
  5
C3
330
1F
100
AcDbEntity
  8
0
  6
SLD-Durchgehend
 62
     7
370
    25
100
AcDbLine
 10
314.7148283111
 20
500.451779958
 30
0.0
 11
313.7148283111
 21
500.451779958
 31
0.0
  0
LINE
  5
C4
330
1F
100
AcDbEntity
  8
0
  6
SLD-Durchgehend
 62
     7
370
    25
100
AcDbLine
 10
314.1571219304
 20
504.0580809721
 30
0.0
 11
314.1571219304
 21
504.451779958
 31
0.0
  0
LINE
  5
C5
330
1F
100
AcDbEntity
  8
0
  6
SLD-Durchgehend
 62
     7
370
    25
100
AcDbLine
 10
388.7148283111
 20
350.451779958
 30
0.0
 11
388.7148283111
 21
404.451779958
 31
0.0
  0
LINE
  5
C6
330
1F
100
AcDbEntity
  8
0
  6
SLD-Durchgehend
 62
     7
370
    25
100
AcDbLine
 10
388.7148283111
 20
350.451779958
 30
0.0
 11
344.7148283111
 21
350.451779958
 31
0.0
  0
LINE
  5
C7
330
1F
100
AcDbEntity
  8
0
  6
SLD-Durchgehend
 62
     7
370
    25
100
AcDbLine
 10
416.7148283111
 20
502.951779958
 30
0.0
 11
416.7148283111
 21
504.451779958
 31
0.0
  0
ARC
  5
C8
330
1F
100
AcDbEntity
  8
0
  6
SLD-Durchgehend
 62
     7
370
    25
100
AcDbCircle
 10
391.7148283111
 20
404.451779958
 30
0.0
 40
3.000000000000024
100
AcDbArc
 50
135.0
 51
180.0
  0
LINE
  5
C9
330
1F
100
AcDbEntity
  8
0
  6
SLD-Durchgehend
 62
     7
370
    25
100
AcDbLine
 10
391.7148283111
 20
353.451779958
 30
0.0
 11
390.9109807338
 21
350.451779958
 31
0.0
  0
LINE
  5
CA
330
1F
100
AcDbEntity
  8
0
  6
SLD-Durchgehend
 62
     7
370
    25
100
AcDbLine
 10
417.4648283111
 20
504.0580809721
 30
0.0
 11
417.4648283111
 21
504.451779958
 31
0.0
  0
LINE
  5
CB
330
1F
100
AcDbEntity
  8
0
  6
SLD-Durchgehend
 62
     7
370
    25
100
AcDbLine
 10
419.4648283111
 20
504.0580809721
 30
0.0
 11
417.4648283111
 21
504.0580809721
 31
0.0
  0
LINE
  5
CC
330
1F
100
AcDbEntity
  8
0
  6
SLD-Durchgehend
 62
     7
370
    25
100
AcDbLine
 10
419.4648283111
 20
504.451779958
 30
0.0
 11
419.4648283111
 21
504.0580809721
 31
0.0
  0
LINE
  5
CD
330
1F
100
AcDbEntity
  8
0
  6
SLD-Durchgehend
 62
     7
370
    25
100
AcDbLine
 10
418.7148283111
 20
500.451779958
 30
0.0
 11
411.7148283111
 21
488.451779958
 31
0.0
  0
LINE
  5
CE
330
1F
100
AcDbEntity
  8
0
  6
SLD-Durchgehend
 62
     7
370
    25
100
AcDbLine
 10
410.6148283111
 20
502.951779958
 30
0.0
 11
416.7148283111
 21
502.951779958
 31
0.0
  0
LINE
  5
CF
330
1F
100
AcDbEntity
  8
0
  6
SLD-Durchgehend
 62
     7
370
    25
100
AcDbLine
 10
419.4648283111
 20
504.451779958
 30
0.0
 11
420.2148283111
 21
504.451779958
 31
0.0
  0
LINE
  5
D0
330
1F
100
AcDbEntity
  8
0
  6
SLD-Durchgehend
 62
     7
370
    25
100
AcDbLine
 10
416.7148283111
 20
504.451779958
 30
0.0
 11
417.4648283111
 21
504.451779958
 31
0.0
  0
LINE
  5
D1
330
1F
100
AcDbEntity
  8
0
  6
SLD-Durchgehend
 62
     7
370
    25
100
AcDbLine
 10
390.9109807338
 20
350.451779958
 30
0.0
 11
388.7148283111
 21
350.451779958
 31
0.0
  0
LINE
  5
D2
330
1F
100
AcDbEntity
  8
0
  6
SLD-Durchgehend
 62
     7
370
    25
100
AcDbLine
 10
419.7148283111
 20
500.451779958
 30
0.0
 11
418.7148283111
 21
500.451779958
 31
0.0
  0
ELLIPSE
  5
D3
330
1F
100
AcDbEntity
  8
0
  6
SLD-Durchgehend
 62
     7
370
    25
100
AcDbEllipse
 10
366.7148283111
 20
504.0580809721
 30
0.0
 11
52.75
 21
0.0
 31
0.0
210
0.0
220
0.0
230
1.0
 40
0.0874886635
 41
0.0
 42
0.085411868260524
  0
LINE
  5
D4
330
1F
100
AcDbEntity
  8
0
  6
SLD-Durchgehend
 62
     7
370
    25
100
AcDbLine
 10
323.4648283111
 20
515.751779958
 30
0.0
 11
323.4648283111
 21
511.851779958
 31
0.0
  0
LINE
  5
D5
330
1F
100
AcDbEntity
  8
0
  6
SLD-Durchgehend
 62
     7
370
    25
100
AcDbLine
 10
409.9648283112
 20
511.851779958
 30
0.0
 11
409.9648283112
 21
515.751779958
 31
0.0
  0
LINE
  5
D6
330
1F
100
AcDbEntity
  8
0
  6
SLD-Durchgehend
 62
     7
370
    25
100
AcDbLine
 10
409.9648283112
 20
511.851779958
 30
0.0
 11
409.7148283111
 21
511.851779958
 31
0.0
  0
LINE
  5
D7
330
1F
100
AcDbEntity
  8
0
  6
SLD-Durchgehend
 62
     7
370
    25
100
AcDbLine
 10
323.7148283111
 20
511.851779958
 30
0.0
 11
323.4648283111
 21
511.851779958
 31
0.0
  0
ARC
  5
D8
330
1F
100
AcDbEntity
  8
0
  6
SLD-Durchgehend
 62
     7
370
    25
100
AcDbCircle
 10
315.7148283111
 20
515.2404550925
 30
0.0
 40
0.500000000000041
100
AcDbArc
 50
180.0
 51
240.0
  0
LINE
  5
D9
330
1F
100
AcDbEntity
  8
0
  6
SLD-Durchgehend
 62
     7
370
    25
100
AcDbLine
 10
315.2148283111
 20
515.2404550925
 30
0.0
 11
315.2148283111
 21
516.251779958
 31
0.0
  0
ARC
  5
DA
330
1F
100
AcDbEntity
  8
0
  6
SLD-Durchgehend
 62
     7
370
    25
100
AcDbCircle
 10
322.9648283111
 20
515.751779958
 30
0.0
 40
0.5
100
AcDbArc
 50
0.0
 51
90.0
  0
LINE
  5
DB
330
1F
100
AcDbEntity
  8
0
  6
SLD-Durchgehend
 62
     7
370
    25
100
AcDbLine
 10
323.4648283111
 20
511.851779958
 30
0.0
 11
320.5841858146
 21
511.851779958
 31
0.0
  0
LINE
  5
DC
330
1F
100
AcDbEntity
  8
0
  6
SLD-Durchgehend
 62
     7
370
    25
100
AcDbLine
 10
320.5841858146
 20
511.851779958
 30
0.0
 11
315.4648283111
 21
514.8074423907
 31
0.0
  0
LINE
  5
DD
330
1F
100
AcDbEntity
  8
0
  6
SLD-Durchgehend
 62
     7
370
    25
100
AcDbLine
 10
315.2148283111
 20
516.251779958
 30
0.0
 11
322.9648283111
 21
516.251779958
 31
0.0
  0
LINE
  5
DE
330
1F
100
AcDbEntity
  8
0
  6
SLD-Durchgehend
 62
     7
370
    25
100
AcDbLine
 10
418.2148283111
 20
516.251779958
 30
0.0
 11
418.2148283111
 21
515.2404550925
 31
0.0
  0
LINE
  5
DF
330
1F
100
AcDbEntity
  8
0
  6
SLD-Durchgehend
 62
     7
370
    25
100
AcDbLine
 10
417.9648283111
 20
514.8074423907
 30
0.0
 11
412.8454708077
 21
511.851779958
 31
0.0
  0
ARC
  5
E0
330
1F
100
AcDbEntity
  8
0
  6
SLD-Durchgehend
 62
     7
370
    25
100
AcDbCircle
 10
410.4648283112
 20
515.751779958
 30
0.0
 40
0.5
100
AcDbArc
 50
90.0
 51
180.0
  0
ARC
  5
E1
330
1F
100
AcDbEntity
  8
0
  6
SLD-Durchgehend
 62
     7
370
    25
100
AcDbCircle
 10
417.7148283111
 20
515.2404550925
 30
0.0
 40
0.500000000000041
100
AcDbArc
 50
300.0
 51
0.0
  0
LINE
  5
E2
330
1F
100
AcDbEntity
  8
0
  6
SLD-Durchgehend
 62
     7
370
    25
100
AcDbLine
 10
412.8454708077
 20
511.851779958
 30
0.0
 11
409.9648283112
 21
511.851779958
 31
0.0
  0
LINE
  5
E3
330
1F
100
AcDbEntity
  8
0
  6
SLD-Durchgehend
 62
     7
370
    25
100
AcDbLine
 10
410.4648283112
 20
516.251779958
 30
0.0
 11
418.2148283111
 21
516.251779958
 31
0.0
  0
LINE
  5
E4
330
1F
100
AcDbEntity
  8
0
  6
SLD-Durchgehend
 62
     7
370
    25
100
AcDbLine
 10
339.7148283111
 20
519.451779958
 30
0.0
 11
339.7148283111
 21
514.451779958
 31
0.0
  0
LINE
  5
E5
330
1F
100
AcDbEntity
  8
0
  6
SLD-Durchgehend
 62
     7
370
    25
100
AcDbLine
 10
353.7148283111
 20
519.451779958
 30
0.0
 11
353.7148283111
 21
514.451779958
 31
0.0
  0
LINE
  5
E6
330
1F
100
AcDbEntity
  8
0
  6
SLD-Durchgehend
 62
     7
370
    25
100
AcDbLine
 10
379.7148283111
 20
514.451779958
 30
0.0
 11
379.7148283111
 21
519.451779958
 31
0.0
  0
LINE
  5
E7
330
1F
100
AcDbEntity
  8
0
  6
SLD-Durchgehend
 62
     7
370
    25
100
AcDbLine
 10
385.7148283111
 20
514.451779958
 30
0.0
 11
385.5310419983
 21
514.451779958
 31
0.0
  0
LINE
  5
E8
330
1F
100
AcDbEntity
  8
0
  6
SLD-Durchgehend
 62
     7
370
    25
100
AcDbLine
 10
385.7148283111
 20
519.451779958
 30
0.0
 11
385.5310419983
 21
519.451779958
 31
0.0
  0
LINE
  5
E9
330
1F
100
AcDbEntity
  8
0
  6
SLD-Durchgehend
 62
     7
370
    25
100
AcDbLine
 10
385.7148283111
 20
519.451779958
 30
0.0
 11
385.7148283111
 21
514.451779958
 31
0.0
  0
LINE
  5
EA
330
1F
100
AcDbEntity
  8
0
  6
SLD-Durchgehend
 62
     7
370
    25
100
AcDbLine
 10
385.7148283111
 20
519.451779958
 30
0.0
 11
393.7148283111
 21
519.451779958
 31
0.0
  0
LINE
  5
EB
330
1F
100
AcDbEntity
  8
0
  6
SLD-Durchgehend
 62
     7
370
    25
100
AcDbLine
 10
393.7148283111
 20
514.451779958
 30
0.0
 11
393.7148283111
 21
519.451779958
 31
0.0
  0
LINE
  5
EC
330
1F
100
AcDbEntity
  8
0
  6
SLD-Durchgehend
 62
     7
370
    25
100
AcDbLine
 10
385.7148283111
 20
514.451779958
 30
0.0
 11
393.7148283111
 21
514.451779958
 31
0.0
  0
LINE
  5
ED
330
1F
100
AcDbEntity
  8
0
  6
SLD-Durchgehend
 62
     7
370
    25
100
AcDbLine
 10
353.7148283111
 20
514.451779958
 30
0.0
 11
379.7148283111
 21
514.451779958
 31
0.0
  0
LINE
  5
EE
330
1F
100
AcDbEntity
  8
0
  6
SLD-Durchgehend
 62
     7
370
    25
100
AcDbLine
 10
353.7148283111
 20
519.451779958
 30
0.0
 11
379.7148283111
 21
519.451779958
 31
0.0
  0
LINE
  5
EF
330
1F
100
AcDbEntity
  8
0
  6
SLD-Durchgehend
 62
     7
370
    25
100
AcDbLine
 10
399.7148283111
 20
519.451779958
 30
0.0
 11
399.7148283111
 21
514.451779958
 31
0.0
  0
LINE
  5
F0
330
1F
100
AcDbEntity
  8
0
  6
SLD-Durchgehend
 62
     7
370
    25
100
AcDbLine
 10
399.7148283111
 20
519.451779958
 30
0.0
 11
406.7148283111
 21
519.451779958
 31
0.0
  0
LINE
  5
F1
330
1F
100
AcDbEntity
  8
0
  6
SLD-Durchgehend
 62
     7
370
    25
100
AcDbLine
 10
406.7148283111
 20
514.451779958
 30
0.0
 11
406.7148283111
 21
519.451779958
 31
0.0
  0
LINE
  5
F2
330
1F
100
AcDbEntity
  8
0
  6
SLD-Durchgehend
 62
     7
370
    25
100
AcDbLine
 10
399.7148283111
 20
514.451779958
 30
0.0
 11
406.7148283111
 21
514.451779958
 31
0.0
  0
LINE
  5
F3
330
1F
100
AcDbEntity
  8
0
  6
SLD-Durchgehend
 62
     7
370
    25
100
AcDbLine
 10
347.7148283111
 20
514.451779958
 30
0.0
 11
347.7148283111
 21
519.451779958
 31
0.0
  0
LINE
  5
F4
330
1F
100
AcDbEntity
  8
0
  6
SLD-Durchgehend
 62
     7
370
    25
100
AcDbLine
 10
339.7148283111
 20
514.451779958
 30
0.0
 11
347.7148283111
 21
514.451779958
 31
0.0
  0
LINE
  5
F5
330
1F
100
AcDbEntity
  8
0
  6
SLD-Durchgehend
 62
     7
370
    25
100
AcDbLine
 10
339.7148283111
 20
519.451779958
 30
0.0
 11
347.7148283111
 21
519.451779958
 31
0.0
  0
LINE
  5
F6
330
1F
100
AcDbEntity
  8
0
  6
SLD-Durchgehend
 62
     7
370
    25
100
AcDbLine
 10
333.7148283111
 20
514.451779958
 30
0.0
 11
333.7148283111
 21
519.451779958
 31
0.0
  0
LINE
  5
F7
330
1F
100
AcDbEntity
  8
0
  6
SLD-Durchgehend
 62
     7
370
    25
100
AcDbLine
 10
326.7148283111
 20
514.451779958
 30
0.0
 11
333.7148283111
 21
514.451779958
 31
0.0
  0
LINE
  5
F8
330
1F
100
AcDbEntity
  8
0
  6
SLD-Durchgehend
 62
     7
370
    25
100
AcDbLine
 10
326.7148283111
 20
519.451779958
 30
0.0
 11
326.7148283111
 21
514.451779958
 31
0.0
  0
LINE
  5
F9
330
1F
100
AcDbEntity
  8
0
  6
SLD-Durchgehend
 62
     7
370
    25
100
AcDbLine
 10
326.7148283111
 20
519.451779958
 30
0.0
 11
333.7148283111
 21
519.451779958
 31
0.0
  0
LINE
  5
FA
330
1F
100
AcDbEntity
  8
0
  6
SLD-Durchgehend
 62
     7
370
    25
100
AcDbLine
 10
335.4133997762
 20
519.451779958
 30
0.0
 11
333.7148283111
 21
519.451779958
 31
0.0
  0
LINE
  5
FB
330
1F
100
AcDbEntity
  8
0
  6
SLD-Durchgehend
 62
     7
370
    25
100
AcDbLine
 10
335.4133997762
 20
514.451779958
 30
0.0
 11
333.7148283111
 21
514.451779958
 31
0.0
  0
LINE
  5
FC
330
1F
100
AcDbEntity
  8
0
  6
SLD-Durchgehend
 62
     7
370
    25
100
AcDbLine
 10
347.898614624
 20
514.451779958
 30
0.0
 11
347.7148283111
 21
514.451779958
 31
0.0
  0
LINE
  5
FD
330
1F
100
AcDbEntity
  8
0
  6
SLD-Durchgehend
 62
     7
370
    25
100
AcDbLine
 10
347.898614624
 20
519.451779958
 30
0.0
 11
347.7148283111
 21
519.451779958
 31
0.0
  0
LINE
  5
FE
330
1F
100
AcDbEntity
  8
0
  6
SLD-Durchgehend
 62
     7
370
    25
100
AcDbLine
 10
399.7148283111
 20
514.451779958
 30
0.0
 11
398.0162568461
 21
514.451779958
 31
0.0
  0
LINE
  5
FF
330
1F
100
AcDbEntity
  8
0
  6
SLD-Durchgehend
 62
     7
370
    25
100
AcDbLine
 10
399.7148283111
 20
519.451779958
 30
0.0
 11
398.0162568461
 21
519.451779958
 31
0.0
  0
LINE
  5
100
330
1F
100
AcDbEntity
  8
0
  6
SLD-Durchgehend
 62
     7
370
    25
100
AcDbLine
 10
385.5310419983
 20
514.451779958
 30
0.0
 11
379.7148283111
 21
514.451779958
 31
0.0
  0
LINE
  5
101
330
1F
100
AcDbEntity
  8
0
  6
SLD-Durchgehend
 62
     7
370
    25
100
AcDbLine
 10
385.5310419983
 20
519.451779958
 30
0.0
 11
379.7148283111
 21
519.451779958
 31
0.0
  0
LINE
  5
102
330
1F
100
AcDbEntity
  8
0
  6
SLD-Durchgehend
 62
     7
370
    25
100
AcDbLine
 10
353.7148283111
 20
514.451779958
 30
0.0
 11
347.898614624
 21
514.451779958
 31
0.0
  0
LINE
  5
103
330
1F
100
AcDbEntity
  8
0
  6
SLD-Durchgehend
 62
     7
370
    25
100
AcDbLine
 10
353.7148283111
 20
519.451779958
 30
0.0
 11
347.898614624
 21
519.451779958
 31
0.0
  0
LINE
  5
104
330
1F
100
AcDbEntity
  8
0
  6
SLD-Durchgehend
 62
     7
370
    25
100
AcDbLine
 10
398.0162568461
 20
514.451779958
 30
0.0
 11
393.7148283111
 21
514.451779958
 31
0.0
  0
LINE
  5
105
330
1F
100
AcDbEntity
  8
0
  6
SLD-Durchgehend
 62
     7
370
    25
100
AcDbLine
 10
398.0162568461
 20
519.451779958
 30
0.0
 11
393.7148283111
 21
519.451779958
 31
0.0
  0
LINE
  5
106
330
1F
100
AcDbEntity
  8
0
  6
SLD-Durchgehend
 62
     7
370
    25
100
AcDbLine
 10
339.7148283111
 20
514.451779958
 30
0.0
 11
335.4133997762
 21
514.451779958
 31
0.0
  0
LINE
  5
107
330
1F
100
AcDbEntity
  8
0
  6
SLD-Durchgehend
 62
     7
370
    25
100
AcDbLine
 10
339.7148283111
 20
519.451779958
 30
0.0
 11
335.4133997762
 21
519.451779958
 31
0.0
  0
ARC
  5
108
330
1F
100
AcDbEntity
  8
0
  6
SLD-Durchgehend
 62
     7
370
    25
100
AcDbCircle
 10
325.1648283111
 20
518.551779958
 30
0.0
 40
0.700000000000216
100
AcDbArc
 50
0.0
 51
90.0
  0
ARC
  5
109
330
1F
100
AcDbEntity
  8
0
  6
SLD-Durchgehend
 62
     7
370
    25
100
AcDbCircle
 10
408.2648283111
 20
518.551779958
 30
0.0
 40
0.7000000000002728
100
AcDbArc
 50
90.0
 51
180.0
  0
LINE
  5
10A
330
1F
100
AcDbEntity
  8
0
  6
SLD-Durchgehend
 62
     7
370
    25
100
AcDbLine
 10
408.2648283111
 20
519.951779958
 30
0.0
 11
421.2148283111
 21
519.951779958
 31
0.0
  0
ARC
  5
10B
330
1F
100
AcDbEntity
  8
0
  6
SLD-Durchgehend
 62
     7
370
    25
100
AcDbCircle
 10
421.2148283111
 20
518.751779958
 30
0.0
 40
1.200000000000129
100
AcDbArc
 50
300.0
 51
90.0
  0
LINE
  5
10C
330
1F
100
AcDbEntity
  8
0
  6
SLD-Durchgehend
 62
     7
370
    25
100
AcDbLine
 10
421.8148283111
 20
517.7125494734
 30
0.0
 11
419.8148283111
 21
516.557848935
 31
0.0
  0
LINE
  5
10D
330
1F
100
AcDbEntity
  8
0
  6
SLD-Durchgehend
 62
     7
370
    25
100
AcDbLine
 10
419.8148283111
 20
516.557848935
 30
0.0
 11
419.4648283111
 21
517.1640667177
 31
0.0
  0
LINE
  5
10E
330
1F
100
AcDbEntity
  8
0
  6
SLD-Durchgehend
 62
     7
370
    25
100
AcDbLine
 10
419.4648283111
 20
517.1640667177
 30
0.0
 11
421.4648283111
 21
518.3187672561
 31
0.0
  0
ARC
  5
10F
330
1F
100
AcDbEntity
  8
0
  6
SLD-Durchgehend
 62
     7
370
    25
100
AcDbCircle
 10
421.2148283111
 20
518.751779958
 30
0.0
 40
0.5000000000000125
100
AcDbArc
 50
300.0
 51
90.0
  0
LINE
  5
110
330
1F
100
AcDbEntity
  8
0
  6
SLD-Durchgehend
 62
     7
370
    25
100
AcDbLine
 10
407.5648283111
 20
518.551779958
 30
0.0
 11
407.5648283111
 21
516.9517799579
 31
0.0
  0
LINE
  5
111
330
1F
100
AcDbEntity
  8
0
  6
SLD-Durchgehend
 62
     7
370
    25
100
AcDbLine
 10
407.5648283111
 20
516.9517799579
 30
0.0
 11
406.8648283111
 21
516.9517799579
 31
0.0
  0
LINE
  5
112
330
1F
100
AcDbEntity
  8
0
  6
SLD-Durchgehend
 62
     7
370
    25
100
AcDbLine
 10
406.8648283111
 20
516.9517799579
 30
0.0
 11
406.8648283111
 21
518.551779958
 31
0.0
  0
ARC
  5
113
330
1F
100
AcDbEntity
  8
0
  6
SLD-Durchgehend
 62
     7
370
    25
100
AcDbCircle
 10
408.2648283111
 20
518.551779958
 30
0.0
 40
1.400000000000375
100
AcDbArc
 50
90.0
 51
180.0
  0
LINE
  5
114
330
1F
100
AcDbEntity
  8
0
  6
SLD-Durchgehend
 62
     7
370
    25
100
AcDbLine
 10
421.2148283111
 20
519.251779958
 30
0.0
 11
408.2648283111
 21
519.251779958
 31
0.0
  0
LINE
  5
115
330
1F
100
AcDbEntity
  8
0
  6
SLD-Durchgehend
 62
     7
370
    25
100
AcDbLine
 10
326.5648283111
 20
518.551779958
 30
0.0
 11
326.5648283111
 21
516.9517799579
 31
0.0
  0
LINE
  5
116
330
1F
100
AcDbEntity
  8
0
  6
SLD-Durchgehend
 62
     7
370
    25
100
AcDbLine
 10
406.8648283111
 20
516.9517799579
 30
0.0
 11
406.7148283111
 21
516.9517799579
 31
0.0
  0
LINE
  5
117
330
1F
100
AcDbEntity
  8
0
  6
SLD-Durchgehend
 62
     7
370
    25
100
AcDbLine
 10
326.7148283111
 20
516.9517799579
 30
0.0
 11
326.5648283111
 21
516.9517799579
 31
0.0
  0
LINE
  5
118
330
1F
100
AcDbEntity
  8
0
  6
SLD-Durchgehend
 62
     7
370
    25
100
AcDbLine
 10
311.9648283111
 20
518.3187672561
 30
0.0
 11
313.9648283111
 21
517.1640667177
 31
0.0
  0
LINE
  5
119
330
1F
100
AcDbEntity
  8
0
  6
SLD-Durchgehend
 62
     7
370
    25
100
AcDbLine
 10
419.4648283111
 20
517.1640667177
 30
0.0
 11
419.3649553301
 21
517.1640667177
 31
0.0
  0
LINE
  5
11A
330
1F
100
AcDbEntity
  8
0
  6
SLD-Durchgehend
 62
     7
370
    25
100
AcDbLine
 10
314.0647012922
 20
517.1640667177
 30
0.0
 11
313.9648283111
 21
517.1640667177
 31
0.0
  0
LINE
  5
11B
330
1F
100
AcDbEntity
  8
0
  6
SLD-Durchgehend
 62
     7
370
    25
100
AcDbLine
 10
419.8148283111
 20
516.557848935
 30
0.0
 11
418.3149553301
 21
516.557848935
 31
0.0
  0
LINE
  5
11C
330
1F
100
AcDbEntity
  8
0
  6
SLD-Durchgehend
 62
     7
370
    25
100
AcDbLine
 10
315.1147012922
 20
516.557848935
 30
0.0
 11
313.6148283111
 21
516.557848935
 31
0.0
  0
LINE
  5
11D
330
1F
100
AcDbEntity
  8
0
  6
SLD-Durchgehend
 62
     7
370
    25
100
AcDbLine
 10
313.9648283111
 20
517.1640667177
 30
0.0
 11
313.6148283111
 21
516.557848935
 31
0.0
  0
ARC
  5
11E
330
1F
100
AcDbEntity
  8
0
  6
SLD-Durchgehend
 62
     7
370
    25
100
AcDbCircle
 10
312.2148283111
 20
518.751779958
 30
0.0
 40
1.200000000000159
100
AcDbArc
 50
90.0
 51
240.0
  0
ARC
  5
11F
330
1F
100
AcDbEntity
  8
0
  6
SLD-Durchgehend
 62
     7
370
    25
100
AcDbCircle
 10
325.1648283111
 20
518.551779958
 30
0.0
 40
1.400000000000432
100
AcDbArc
 50
360.0
 51
90.0
  0
LINE
  5
120
330
1F
100
AcDbEntity
  8
0
  6
SLD-Durchgehend
 62
     7
370
    25
100
AcDbLine
 10
408.2648283111
 20
519.951779958
 30
0.0
 11
325.1648283111
 21
519.951779958
 31
0.0
  0
LINE
  5
121
330
1F
100
AcDbEntity
  8
0
  6
SLD-Durchgehend
 62
     7
370
    25
100
AcDbLine
 10
326.5648283111
 20
516.9517799579
 30
0.0
 11
325.8648283111
 21
516.9517799579
 31
0.0
  0
LINE
  5
122
330
1F
100
AcDbEntity
  8
0
  6
SLD-Durchgehend
 62
     7
370
    25
100
AcDbLine
 10
325.8648283111
 20
516.9517799579
 30
0.0
 11
325.8648283111
 21
518.551779958
 31
0.0
  0
ARC
  5
123
330
1F
100
AcDbEntity
  8
0
  6
SLD-Durchgehend
 62
     7
370
    25
100
AcDbCircle
 10
312.2148283111
 20
518.751779958
 30
0.0
 40
0.5000000000001137
100
AcDbArc
 50
90.0
 51
240.0
  0
LINE
  5
124
330
1F
100
AcDbEntity
  8
0
  6
SLD-Durchgehend
 62
     7
370
    25
100
AcDbLine
 10
313.6148283111
 20
516.557848935
 30
0.0
 11
311.6148283111
 21
517.7125494734
 31
0.0
  0
LINE
  5
125
330
1F
100
AcDbEntity
  8
0
  6
SLD-Durchgehend
 62
     7
370
    25
100
AcDbLine
 10
312.2148283111
 20
519.951779958
 30
0.0
 11
325.1648283111
 21
519.951779958
 31
0.0
  0
LINE
  5
126
330
1F
100
AcDbEntity
  8
0
  6
SLD-Durchgehend
 62
     7
370
    25
100
AcDbLine
 10
325.1648283111
 20
519.251779958
 30
0.0
 11
312.2148283111
 21
519.251779958
 31
0.0
  0
LINE
  5
127
330
1F
100
AcDbEntity
  8
0
  6
SLD-Durchgehend
 62
     7
370
    25
100
AcDbLine
 10
326.5648283111
 20
506.451779958
 30
0.0
 11
326.5648283111
 21
516.951779958
 31
0.0
  0
LINE
  5
128
330
1F
100
AcDbEntity
  8
0
  6
SLD-Durchgehend
 62
     7
370
    25
100
AcDbLine
 10
406.8648283111
 20
516.951779958
 30
0.0
 11
406.8648283111
 21
506.451779958
 31
0.0
  0
LINE
  5
129
330
1F
100
AcDbEntity
  8
0
  6
SLD-Durchgehend
 62
     7
370
    25
100
AcDbLine
 10
406.8648283111
 20
489.251779958
 30
0.0
 11
406.8648283111
 21
474.251779958
 31
0.0
  0
LINE
  5
12A
330
1F
100
AcDbEntity
  8
0
  6
SLD-Durchgehend
 62
     7
370
    25
100
AcDbLine
 10
326.5648283111
 20
474.251779958
 30
0.0
 11
336.2148283111
 21
474.251779958
 31
0.0
  0
LINE
  5
12B
330
1F
100
AcDbEntity
  8
0
  6
SLD-Durchgehend
 62
     7
370
    25
100
AcDbLine
 10
397.2148283111
 20
474.251779958
 30
0.0
 11
406.8648283111
 21
474.251779958
 31
0.0
  0
LINE
  5
12C
330
1F
100
AcDbEntity
  8
0
  6
SLD-Durchgehend
 62
     7
370
    25
100
AcDbLine
 10
326.5648283111
 20
474.251779958
 30
0.0
 11
326.5648283111
 21
489.251779958
 31
0.0
  0
LINE
  5
12D
330
1F
100
AcDbEntity
  8
0
  6
SLD-Durchgehend
 62
     7
370
    25
100
AcDbLine
 10
406.8648283111
 20
489.251779958
 30
0.0
 11
404.2148283111
 21
489.251779958
 31
0.0
  0
LINE
  5
12E
330
1F
100
AcDbEntity
  8
0
  6
SLD-Durchgehend
 62
     7
370
    25
100
AcDbLine
 10
329.2148283111
 20
489.251779958
 30
0.0
 11
326.5648283111
 21
489.251779958
 31
0.0
  0
LINE
  5
12F
330
1F
100
AcDbEntity
  8
0
  6
SLD-Durchgehend
 62
     7
370
    25
100
AcDbLine
 10
407.6148283111
 20
518.551779958
 30
0.0
 11
407.6148283111
 21
516.951779958
 31
0.0
  0
LINE
  5
130
330
1F
100
AcDbEntity
  8
0
  6
SLD-Durchgehend
 62
     7
370
    25
100
AcDbLine
 10
325.8148283111
 20
516.951779958
 30
0.0
 11
325.8148283111
 21
518.551779958
 31
0.0
  0
LINE
  5
131
330
1F
100
AcDbEntity
  8
0
  6
SLD-Durchgehend
 62
     7
370
    25
100
AcDbLine
 10
325.2148283111
 20
474.251779958
 30
0.0
 11
323.7148283111
 21
475.751779958
 31
0.0
  0
LINE
  5
132
330
1F
100
AcDbEntity
  8
0
  6
SLD-Durchgehend
 62
     7
370
    25
100
AcDbLine
 10
409.7148283111
 20
475.751779958
 30
0.0
 11
408.2148283111
 21
474.251779958
 31
0.0
  0
ARC
  5
133
330
1F
100
AcDbEntity
  8
0
  6
SLD-Durchgehend
 62
     7
370
    25
100
AcDbCircle
 10
420.9098780084
 20
518.6968296552
 30
0.0
 40
0.5549503027199307
100
AcDbArc
 50
300.0
 51
90.0
  0
ARC
  5
134
330
1F
100
AcDbEntity
  8
0
  6
SLD-Durchgehend
 62
     7
370
    25
100
AcDbCircle
 10
312.5197786139
 20
518.6968296552
 30
0.0
 40
0.5549503027199307
100
AcDbArc
 50
90.0
 51
240.0
  0
LINE
  5
135
330
1F
100
AcDbEntity
  8
0
  6
SLD-Durchgehend
 62
     7
370
    25
100
AcDbLine
 10
312.2423034625
 20
518.2162285952
 30
0.0
 11
315.6448283111
 21
516.251779958
 31
0.0
  0
LINE
  5
136
330
1F
100
AcDbEntity
  8
0
  6
SLD-Durchgehend
 62
     7
370
    25
100
AcDbLine
 10
417.7848283111
 20
516.251779958
 30
0.0
 11
421.1873531598
 21
518.2162285952
 31
0.0
  0
ARC
  5
137
330
1F
100
AcDbEntity
  8
0
  6
SLD-Durchgehend
 62
     7
370
    25
100
AcDbCircle
 10
408.3148283111
 20
518.551779958
 30
0.0
 40
0.7000000000000455
100
AcDbArc
 50
90.0
 51
180.0
  0
LINE
  5
138
330
1F
100
AcDbEntity
  8
0
  6
SLD-Durchgehend
 62
     7
370
    25
100
AcDbLine
 10
420.9098780084
 20
519.251779958
 30
0.0
 11
408.3148283111
 21
519.251779958
 31
0.0
  0
LINE
  5
139
330
1F
100
AcDbEntity
  8
0
  6
SLD-Durchgehend
 62
     7
370
    25
100
AcDbLine
 10
409.7148283111
 20
516.251779958
 30
0.0
 11
417.7848283111
 21
516.251779958
 31
0.0
  0
LINE
  5
13A
330
1F
100
AcDbEntity
  8
0
  6
SLD-Durchgehend
 62
     7
370
    25
100
AcDbLine
 10
409.7148283111
 20
475.751779958
 30
0.0
 11
409.7148283111
 21
516.251779958
 31
0.0
  0
LINE
  5
13B
330
1F
100
AcDbEntity
  8
0
  6
SLD-Durchgehend
 62
     7
370
    25
100
AcDbLine
 10
404.2148283111
 20
489.251779958
 30
0.0
 11
404.2148283111
 21
506.451779958
 31
0.0
  0
LINE
  5
13C
330
1F
100
AcDbEntity
  8
0
  6
SLD-Durchgehend
 62
     7
370
    25
100
AcDbLine
 10
406.8648283111
 20
474.251779958
 30
0.0
 11
408.2148283111
 21
474.251779958
 31
0.0
  0
LINE
  5
13D
330
1F
100
AcDbEntity
  8
0
  6
SLD-Durchgehend
 62
     7
370
    25
100
AcDbLine
 10
407.6148283111
 20
516.951779958
 30
0.0
 11
406.8648283111
 21
516.951779958
 31
0.0
  0
LINE
  5
13E
330
1F
100
AcDbEntity
  8
0
  6
SLD-Durchgehend
 62
     7
370
    25
100
AcDbLine
 10
406.8648283111
 20
506.451779958
 30
0.0
 11
404.2148283111
 21
506.451779958
 31
0.0
  0
LINE
  5
13F
330
1F
100
AcDbEntity
  8
0
  6
SLD-Durchgehend
 62
     7
370
    25
100
AcDbLine
 10
323.7148283111
 20
516.251779958
 30
0.0
 11
323.7148283111
 21
475.751779958
 31
0.0
  0
ARC
  5
140
330
1F
100
AcDbEntity
  8
0
  6
SLD-Durchgehend
 62
     7
370
    25
100
AcDbCircle
 10
325.1148283111
 20
518.551779958
 30
0.0
 40
0.7000000000000455
100
AcDbArc
 50
0.0
 51
90.0
  0
LINE
  5
141
330
1F
100
AcDbEntity
  8
0
  6
SLD-Durchgehend
 62
     7
370
    25
100
AcDbLine
 10
315.6448283111
 20
516.251779958
 30
0.0
 11
323.7148283111
 21
516.251779958
 31
0.0
  0
LINE
  5
142
330
1F
100
AcDbEntity
  8
0
  6
SLD-Durchgehend
 62
     7
370
    25
100
AcDbLine
 10
329.2148283111
 20
506.451779958
 30
0.0
 11
329.2148283111
 21
489.251779958
 31
0.0
  0
LINE
  5
143
330
1F
100
AcDbEntity
  8
0
  6
SLD-Durchgehend
 62
     7
370
    25
100
AcDbLine
 10
325.1148283111
 20
519.251779958
 30
0.0
 11
312.5197786139
 21
519.251779958
 31
0.0
  0
LINE
  5
144
330
1F
100
AcDbEntity
  8
0
  6
SLD-Durchgehend
 62
     7
370
    25
100
AcDbLine
 10
329.2148283111
 20
506.451779958
 30
0.0
 11
326.5648283111
 21
506.451779958
 31
0.0
  0
LINE
  5
145
330
1F
100
AcDbEntity
  8
0
  6
SLD-Durchgehend
 62
     7
370
    25
100
AcDbLine
 10
325.2148283111
 20
474.251779958
 30
0.0
 11
326.5648283111
 21
474.251779958
 31
0.0
  0
LINE
  5
146
330
1F
100
AcDbEntity
  8
0
  6
SLD-Durchgehend
 62
     7
370
    25
100
AcDbLine
 10
326.5648283111
 20
516.951779958
 30
0.0
 11
325.8148283111
 21
516.951779958
 31
0.0
  0
CIRCLE
  5
147
330
1F
100
AcDbEntity
  8
0
  6
SLD-Durchgehend
 62
     7
370
    25
100
AcDbCircle
 10
327.4648283111
 20
510.951779958
 30
0.0
 40
1.25
  0
CIRCLE
  5
148
330
1F
100
AcDbEntity
  8
0
  6
SLD-Durchgehend
 62
     7
370
    25
100
AcDbCircle
 10
405.9648283111
 20
510.951779958
 30
0.0
 40
1.25
  0
LINE
  5
149
330
1F
100
AcDbEntity
  8
0
  6
SLD-Durchgehend
 62
     7
370
    25
100
AcDbLine
 10
310.7148283111
 20
500.451779958
 30
0.0
 11
310.7148283111
 21
515.451779958
 31
0.0
  0
LINE
  5
14A
330
1F
100
AcDbEntity
  8
0
  6
SLD-Durchgehend
 62
     7
370
    25
100
AcDbLine
 10
422.7148283111
 20
515.451779958
 30
0.0
 11
422.7148283111
 21
500.451779958
 31
0.0
  0
LINE
  5
14B
330
1F
100
AcDbEntity
  8
0
  6
SLD-Durchgehend
 62
     7
370
    25
100
AcDbLine
 10
422.7148283111
 20
515.451779958
 30
0.0
 11
418.2148283111
 21
515.451779958
 31
0.0
  0
LINE
  5
14C
330
1F
100
AcDbEntity
  8
0
  6
SLD-Durchgehend
 62
     7
370
    25
100
AcDbLine
 10
315.2148283111
 20
515.451779958
 30
0.0
 11
310.7148283111
 21
515.451779958
 31
0.0
  0
LINE
  5
14D
330
1F
100
AcDbEntity
  8
0
  6
SLD-Durchgehend
 62
     7
370
    25
100
AcDbLine
 10
310.7148283111
 20
515.451779958
 30
0.0
 11
315.2148283111
 21
510.951779958
 31
0.0
  0
LINE
  5
14E
330
1F
100
AcDbEntity
  8
0
  6
SLD-Durchgehend
 62
     7
370
    25
100
AcDbLine
 10
418.2148283111
 20
510.951779958
 30
0.0
 11
422.7148283111
 21
515.451779958
 31
0.0
  0
LINE
  5
14F
330
1F
100
AcDbEntity
  8
0
  6
SLD-Durchgehend
 62
     7
370
    25
100
AcDbLine
 10
312.7148283111
 20
504.451779958
 30
0.0
 11
312.7148283111
 21
500.451779958
 31
0.0
  0
LINE
  5
150
330
1F
100
AcDbEntity
  8
0
  6
SLD-Durchgehend
 62
     7
370
    25
100
AcDbLine
 10
420.7148283111
 20
500.451779958
 30
0.0
 11
420.7148283111
 21
504.451779958
 31
0.0
  0
LINE
  5
151
330
1F
100
AcDbEntity
  8
0
  6
SLD-Durchgehend
 62
     7
370
    25
100
AcDbLine
 10
420.7148283111
 20
500.451779958
 30
0.0
 11
419.7148283111
 21
500.451779958
 31
0.0
  0
LINE
  5
152
330
1F
100
AcDbEntity
  8
0
  6
SLD-Durchgehend
 62
     7
370
    25
100
AcDbLine
 10
313.7148283111
 20
500.451779958
 30
0.0
 11
312.7148283111
 21
500.451779958
 31
0.0
  0
LINE
  5
153
330
1F
100
AcDbEntity
  8
0
  6
SLD-Durchgehend
 62
     7
370
    25
100
AcDbLine
 10
416.6015803111
 20
511.951779958
 30
0.0
 11
417.1789303111
 21
510.951779958
 31
0.0
  0
LINE
  5
154
330
1F
100
AcDbEntity
  8
0
  6
SLD-Durchgehend
 62
     7
370
    25
100
AcDbLine
 10
416.6015803111
 20
511.951779958
 30
0.0
 11
415.4468793111
 21
511.951779958
 31
0.0
  0
LINE
  5
155
330
1F
100
AcDbEntity
  8
0
  6
SLD-Durchgehend
 62
     7
370
    25
100
AcDbLine
 10
317.9827773111
 20
511.951779958
 30
0.0
 11
316.8280763111
 21
511.951779958
 31
0.0
  0
LINE
  5
156
330
1F
100
AcDbEntity
  8
0
  6
SLD-Durchgehend
 62
     7
370
    25
100
AcDbLine
 10
316.2507263111
 20
510.951779958
 30
0.0
 11
316.8280763111
 21
511.951779958
 31
0.0
  0
LINE
  5
157
330
1F
100
AcDbEntity
  8
0
  6
SLD-Durchgehend
 62
     7
370
    25
100
AcDbLine
 10
316.8280763111
 20
511.951779958
 30
0.0
 11
317.4054273111
 21
510.951779958
 31
0.0
  0
LINE
  5
158
330
1F
100
AcDbEntity
  8
0
  6
SLD-Durchgehend
 62
     7
370
    25
100
AcDbLine
 10
416.0242293111
 20
510.951779958
 30
0.0
 11
416.6015803111
 21
511.951779958
 31
0.0
  0
LINE
  5
159
330
1F
100
AcDbEntity
  8
0
  6
SLD-Durchgehend
 62
     7
370
    25
100
AcDbLine
 10
415.4468793111
 20
511.951779958
 30
0.0
 11
416.0242293111
 21
510.951779958
 31
0.0
  0
LINE
  5
15A
330
1F
100
AcDbEntity
  8
0
  6
SLD-Durchgehend
 62
     7
370
    25
100
AcDbLine
 10
415.4468793111
 20
511.951779958
 30
0.0
 11
414.2921783111
 21
511.951779958
 31
0.0
  0
LINE
  5
15B
330
1F
100
AcDbEntity
  8
0
  6
SLD-Durchgehend
 62
     7
370
    25
100
AcDbLine
 10
319.1374783111
 20
511.951779958
 30
0.0
 11
317.9827773111
 21
511.951779958
 31
0.0
  0
LINE
  5
15C
330
1F
100
AcDbEntity
  8
0
  6
SLD-Durchgehend
 62
     7
370
    25
100
AcDbLine
 10
317.4054273111
 20
510.951779958
 30
0.0
 11
317.9827773111
 21
511.951779958
 31
0.0
  0
LINE
  5
15D
330
1F
100
AcDbEntity
  8
0
  6
SLD-Durchgehend
 62
     7
370
    25
100
AcDbLine
 10
317.9827773111
 20
511.951779958
 30
0.0
 11
318.5601273111
 21
510.951779958
 31
0.0
  0
LINE
  5
15E
330
1F
100
AcDbEntity
  8
0
  6
SLD-Durchgehend
 62
     7
370
    25
100
AcDbLine
 10
414.8695293111
 20
510.951779958
 30
0.0
 11
415.4468793111
 21
511.951779958
 31
0.0
  0
LINE
  5
15F
330
1F
100
AcDbEntity
  8
0
  6
SLD-Durchgehend
 62
     7
370
    25
100
AcDbLine
 10
318.2148283111
 20
502.951779958
 30
0.0
 11
318.2148283111
 21
504.451779958
 31
0.0
  0
LINE
  5
160
330
1F
100
AcDbEntity
  8
0
  6
SLD-Durchgehend
 62
     7
370
    25
100
AcDbLine
 10
415.2148283111
 20
504.451779958
 30
0.0
 11
415.2148283111
 21
502.951779958
 31
0.0
  0
LINE
  5
161
330
1F
100
AcDbEntity
  8
0
  6
SLD-Durchgehend
 62
     7
370
    25
100
AcDbLine
 10
414.2921783111
 20
511.951779958
 30
0.0
 11
414.8695293111
 21
510.951779958
 31
0.0
  0
LINE
  5
162
330
1F
100
AcDbEntity
  8
0
  6
SLD-Durchgehend
 62
     7
370
    25
100
AcDbLine
 10
414.2921783111
 20
511.951779958
 30
0.0
 11
413.0186758884
 21
511.951779958
 31
0.0
  0
LINE
  5
163
330
1F
100
AcDbEntity
  8
0
  6
SLD-Durchgehend
 62
     7
370
    25
100
AcDbLine
 10
320.4109807338
 20
511.951779958
 30
0.0
 11
319.1374783111
 21
511.951779958
 31
0.0
  0
LINE
  5
164
330
1F
100
AcDbEntity
  8
0
  6
SLD-Durchgehend
 62
     7
370
    25
100
AcDbLine
 10
318.5601273111
 20
510.951779958
 30
0.0
 11
319.1374783111
 21
511.951779958
 31
0.0
  0
LINE
  5
165
330
1F
100
AcDbEntity
  8
0
  6
SLD-Durchgehend
 62
     7
370
    25
100
AcDbLine
 10
319.1374783111
 20
511.951779958
 30
0.0
 11
320.7148283111
 21
510.951779958
 31
0.0
  0
LINE
  5
166
330
1F
100
AcDbEntity
  8
0
  6
SLD-Durchgehend
 62
     7
370
    25
100
AcDbLine
 10
412.7148283111
 20
510.951779958
 30
0.0
 11
414.2921783111
 21
511.951779958
 31
0.0
  0
LINE
  5
167
330
1F
100
AcDbEntity
  8
0
  6
SLD-Durchgehend
 62
     7
370
    25
100
AcDbLine
 10
412.7148283111
 20
510.951779958
 30
0.0
 11
409.7148283111
 21
510.951779958
 31
0.0
  0
LINE
  5
168
330
1F
100
AcDbEntity
  8
0
  6
SLD-Durchgehend
 62
     7
370
    25
100
AcDbLine
 10
323.7148283111
 20
510.951779958
 30
0.0
 11
320.7148283111
 21
510.951779958
 31
0.0
  0
LINE
  5
169
330
1F
100
AcDbEntity
  8
0
  6
SLD-Durchgehend
 62
     7
370
    25
100
AcDbLine
 10
320.7148283111
 20
510.951779958
 30
0.0
 11
320.7148283111
 21
502.951779958
 31
0.0
  0
LINE
  5
16A
330
1F
100
AcDbEntity
  8
0
  6
SLD-Durchgehend
 62
     7
370
    25
100
AcDbLine
 10
412.7148283111
 20
502.951779958
 30
0.0
 11
412.7148283111
 21
510.951779958
 31
0.0
  0
LINE
  5
16B
330
1F
100
AcDbEntity
  8
0
  6
SLD-Durchgehend
 62
     7
370
    25
100
AcDbLine
 10
415.2148283111
 20
502.951779958
 30
0.0
 11
412.7148283111
 21
502.951779958
 31
0.0
  0
LINE
  5
16C
330
1F
100
AcDbEntity
  8
0
  6
SLD-Durchgehend
 62
     7
370
    25
100
AcDbLine
 10
417.1789303111
 20
510.951779958
 30
0.0
 11
418.2148283111
 21
510.951779958
 31
0.0
  0
LINE
  5
16D
330
1F
100
AcDbEntity
  8
0
  6
SLD-Durchgehend
 62
     7
370
    25
100
AcDbLine
 10
420.7148283111
 20
504.451779958
 30
0.0
 11
415.2148283111
 21
504.451779958
 31
0.0
  0
LINE
  5
16E
330
1F
100
AcDbEntity
  8
0
  6
SLD-Durchgehend
 62
     7
370
    25
100
AcDbLine
 10
422.7148283111
 20
500.451779958
 30
0.0
 11
420.7148283111
 21
500.451779958
 31
0.0
  0
LINE
  5
16F
330
1F
100
AcDbEntity
  8
0
  6
SLD-Durchgehend
 62
     7
370
    25
100
AcDbLine
 10
320.7148283111
 20
502.951779958
 30
0.0
 11
318.2148283111
 21
502.951779958
 31
0.0
  0
LINE
  5
170
330
1F
100
AcDbEntity
  8
0
  6
SLD-Durchgehend
 62
     7
370
    25
100
AcDbLine
 10
315.2148283111
 20
510.951779958
 30
0.0
 11
316.2507263111
 21
510.951779958
 31
0.0
  0
LINE
  5
171
330
1F
100
AcDbEntity
  8
0
  6
SLD-Durchgehend
 62
     7
370
    25
100
AcDbLine
 10
318.2148283111
 20
504.451779958
 30
0.0
 11
312.7148283111
 21
504.451779958
 31
0.0
  0
LINE
  5
172
330
1F
100
AcDbEntity
  8
0
  6
SLD-Durchgehend
 62
     7
370
    25
100
AcDbLine
 10
312.7148283111
 20
500.451779958
 30
0.0
 11
310.7148283111
 21
500.451779958
 31
0.0
  0
LINE
  5
173
330
1F
100
AcDbEntity
  8
0
  6
SLD-Durchgehend
 62
     7
370
    25
100
AcDbLine
 10
326.9648283111
 20
512.451779958
 30
0.0
 11
326.9648283111
 21
514.451779958
 31
0.0
  0
LINE
  5
174
330
1F
100
AcDbEntity
  8
0
  6
SLD-Durchgehend
 62
     7
370
    25
100
AcDbLine
 10
406.4648283111
 20
514.451779958
 30
0.0
 11
406.4648283111
 21
512.451779958
 31
0.0
  0
LINE
  5
175
330
1F
100
AcDbEntity
  8
0
  6
SLD-Durchgehend
 62
     7
370
    25
100
AcDbLine
 10
327.2148283111
 20
507.951779958
 30
0.0
 11
327.2148283111
 21
509.651779958
 31
0.0
  0
LINE
  5
176
330
1F
100
AcDbEntity
  8
0
  6
SLD-Durchgehend
 62
     7
370
    25
100
AcDbLine
 10
406.2148283111
 20
509.651779958
 30
0.0
 11
406.2148283111
 21
507.951779958
 31
0.0
  0
LINE
  5
177
330
1F
100
AcDbEntity
  8
0
  6
SLD-Durchgehend
 62
     7
370
    25
100
AcDbLine
 10
328.7148283111
 20
509.651779958
 30
0.0
 11
328.7148283111
 21
512.451779958
 31
0.0
  0
LINE
  5
178
330
1F
100
AcDbEntity
  8
0
  6
SLD-Durchgehend
 62
     7
370
    25
100
AcDbLine
 10
404.7148283111
 20
512.451779958
 30
0.0
 11
404.7148283111
 21
509.651779958
 31
0.0
  0
LINE
  5
179
330
1F
100
AcDbEntity
  8
0
  6
SLD-Durchgehend
 62
     7
370
    25
100
AcDbLine
 10
331.2148283111
 20
504.451779958
 30
0.0
 11
331.2148283111
 21
507.951779958
 31
0.0
  0
LINE
  5
17A
330
1F
100
AcDbEntity
  8
0
  6
SLD-Durchgehend
 62
     7
370
    25
100
AcDbLine
 10
402.2148283111
 20
507.951779958
 30
0.0
 11
402.2148283111
 21
504.451779958
 31
0.0
  0
ARC
  5
17B
330
1F
100
AcDbEntity
  8
0
  6
SLD-Durchgehend
 62
     7
370
    25
100
AcDbCircle
 10
331.2148283111
 20
512.451779958
 30
0.0
 40
2.0
100
AcDbArc
 50
0.0
 51
90.0
  0
ARC
  5
17C
330
1F
100
AcDbEntity
  8
0
  6
SLD-Durchgehend
 62
     7
370
    25
100
AcDbCircle
 10
402.2148283111
 20
512.451779958
 30
0.0
 40
2.000000000000057
100
AcDbArc
 50
90.0
 51
180.0
  0
ARC
  5
17D
330
1F
100
AcDbEntity
  8
0
  6
SLD-Durchgehend
 62
     7
370
    25
100
AcDbCircle
 10
334.2148283111
 20
506.451779958
 30
0.0
 40
1.0
100
AcDbArc
 50
180.0
 51
270.0
  0
ARC
  5
17E
330
1F
100
AcDbEntity
  8
0
  6
SLD-Durchgehend
 62
     7
370
    25
100
AcDbCircle
 10
399.2148283111
 20
506.451779958
 30
0.0
 40
1.0
100
AcDbArc
 50
270.0
 51
0.0
  0
LINE
  5
17F
330
1F
100
AcDbEntity
  8
0
  6
SLD-Durchgehend
 62
     7
370
    25
100
AcDbLine
 10
333.2148283111
 20
512.451779958
 30
0.0
 11
333.2148283111
 21
506.451779958
 31
0.0
  0
LINE
  5
180
330
1F
100
AcDbEntity
  8
0
  6
SLD-Durchgehend
 62
     7
370
    25
100
AcDbLine
 10
400.2148283111
 20
506.451779958
 30
0.0
 11
400.2148283111
 21
512.451779958
 31
0.0
  0
ARC
  5
181
330
1F
100
AcDbEntity
  8
0
  6
SLD-Durchgehend
 62
     7
370
    25
100
AcDbCircle
 10
336.7148283111
 20
493.451779958
 30
0.0
 40
11.0
100
AcDbArc
 50
0.0
 51
90.0
  0
ARC
  5
182
330
1F
100
AcDbEntity
  8
0
  6
SLD-Durchgehend
 62
     7
370
    25
100
AcDbCircle
 10
396.7148283111
 20
493.451779958
 30
0.0
 40
11.0
100
AcDbArc
 50
90.0
 51
180.0
  0
ARC
  5
183
330
1F
100
AcDbEntity
  8
0
  6
SLD-Durchgehend
 62
     7
370
    25
100
AcDbCircle
 10
336.7148283111
 20
493.451779958
 30
0.0
 40
12.0
100
AcDbArc
 50
0.0
 51
90.0
  0
ARC
  5
184
330
1F
100
AcDbEntity
  8
0
  6
SLD-Durchgehend
 62
     7
370
    25
100
AcDbCircle
 10
396.7148283111
 20
493.451779958
 30
0.0
 40
12.0
100
AcDbArc
 50
90.0
 51
180.0
  0
LINE
  5
185
330
1F
100
AcDbEntity
  8
0
  6
SLD-Durchgehend
 62
     7
370
    25
100
AcDbLine
 10
396.7148283111
 20
505.451779958
 30
0.0
 11
336.7148283111
 21
505.451779958
 31
0.0
  0
LINE
  5
186
330
1F
100
AcDbEntity
  8
0
  6
SLD-Durchgehend
 62
     7
370
    25
100
AcDbLine
 10
347.7148283111
 20
440.951779958
 30
0.0
 11
347.7148283111
 21
493.451779958
 31
0.0
  0
LINE
  5
187
330
1F
100
AcDbEntity
  8
0
  6
SLD-Durchgehend
 62
     7
370
    25
100
AcDbLine
 10
385.7148283111
 20
493.451779958
 30
0.0
 11
385.7148283111
 21
440.951779958
 31
0.0
  0
LINE
  5
188
330
1F
100
AcDbEntity
  8
0
  6
SLD-Durchgehend
 62
     7
370
    25
100
AcDbLine
 10
348.7148283111
 20
493.451779958
 30
0.0
 11
348.7148283111
 21
440.951779958
 31
0.0
  0
LINE
  5
189
330
1F
100
AcDbEntity
  8
0
  6
SLD-Durchgehend
 62
     7
370
    25
100
AcDbLine
 10
384.7148283111
 20
440.951779958
 30
0.0
 11
384.7148283111
 21
493.451779958
 31
0.0
  0
LINE
  5
18A
330
1F
100
AcDbEntity
  8
0
  6
SLD-Durchgehend
 62
     7
370
    25
100
AcDbLine
 10
384.7148283111
 20
440.951779958
 30
0.0
 11
348.7148283111
 21
440.951779958
 31
0.0
  0
LINE
  5
18B
330
1F
100
AcDbEntity
  8
0
  6
SLD-Durchgehend
 62
     7
370
    25
100
AcDbLine
 10
348.7148283111
 20
440.951779958
 30
0.0
 11
347.7148283111
 21
440.951779958
 31
0.0
  0
LINE
  5
18C
330
1F
100
AcDbEntity
  8
0
  6
SLD-Durchgehend
 62
     7
370
    25
100
AcDbLine
 10
334.2148283111
 20
505.451779958
 30
0.0
 11
336.7148283111
 21
505.451779958
 31
0.0
  0
LINE
  5
18D
330
1F
100
AcDbEntity
  8
0
  6
SLD-Durchgehend
 62
     7
370
    25
100
AcDbLine
 10
336.7148283111
 20
504.451779958
 30
0.0
 11
331.2148283111
 21
504.451779958
 31
0.0
  0
LINE
  5
18E
330
1F
100
AcDbEntity
  8
0
  6
SLD-Durchgehend
 62
     7
370
    25
100
AcDbLine
 10
331.2148283111
 20
507.951779958
 30
0.0
 11
327.2148283111
 21
507.951779958
 31
0.0
  0
LINE
  5
18F
330
1F
100
AcDbEntity
  8
0
  6
SLD-Durchgehend
 62
     7
370
    25
100
AcDbLine
 10
327.2148283111
 20
509.651779958
 30
0.0
 11
328.7148283111
 21
509.651779958
 31
0.0
  0
LINE
  5
190
330
1F
100
AcDbEntity
  8
0
  6
SLD-Durchgehend
 62
     7
370
    25
100
AcDbLine
 10
328.7148283111
 20
512.451779958
 30
0.0
 11
326.9648283111
 21
512.451779958
 31
0.0
  0
LINE
  5
191
330
1F
100
AcDbEntity
  8
0
  6
SLD-Durchgehend
 62
     7
370
    25
100
AcDbLine
 10
326.9648283111
 20
514.451779958
 30
0.0
 11
331.2148283111
 21
514.451779958
 31
0.0
  0
LINE
  5
192
330
1F
100
AcDbEntity
  8
0
  6
SLD-Durchgehend
 62
     7
370
    25
100
AcDbLine
 10
385.7148283111
 20
440.951779958
 30
0.0
 11
384.7148283111
 21
440.951779958
 31
0.0
  0
LINE
  5
193
330
1F
100
AcDbEntity
  8
0
  6
SLD-Durchgehend
 62
     7
370
    25
100
AcDbLine
 10
396.7148283111
 20
505.451779958
 30
0.0
 11
399.2148283111
 21
505.451779958
 31
0.0
  0
LINE
  5
194
330
1F
100
AcDbEntity
  8
0
  6
SLD-Durchgehend
 62
     7
370
    25
100
AcDbLine
 10
402.2148283111
 20
504.451779958
 30
0.0
 11
396.7148283111
 21
504.451779958
 31
0.0
  0
LINE
  5
195
330
1F
100
AcDbEntity
  8
0
  6
SLD-Durchgehend
 62
     7
370
    25
100
AcDbLine
 10
406.2148283111
 20
507.951779958
 30
0.0
 11
402.2148283111
 21
507.951779958
 31
0.0
  0
LINE
  5
196
330
1F
100
AcDbEntity
  8
0
  6
SLD-Durchgehend
 62
     7
370
    25
100
AcDbLine
 10
404.7148283111
 20
509.651779958
 30
0.0
 11
406.2148283111
 21
509.651779958
 31
0.0
  0
LINE
  5
197
330
1F
100
AcDbEntity
  8
0
  6
SLD-Durchgehend
 62
     7
370
    25
100
AcDbLine
 10
406.4648283111
 20
512.451779958
 30
0.0
 11
404.7148283111
 21
512.451779958
 31
0.0
  0
LINE
  5
198
330
1F
100
AcDbEntity
  8
0
  6
SLD-Durchgehend
 62
     7
370
    25
100
AcDbLine
 10
402.2148283111
 20
514.451779958
 30
0.0
 11
406.4648283111
 21
514.451779958
 31
0.0
  0
LINE
  5
199
330
1F
100
AcDbEntity
  8
0
  6
SLD-Durchgehend
 62
     7
370
    25
100
AcDbLine
 10
346.2148283111
 20
428.951779958
 30
0.0
 11
387.2148283111
 21
428.951779958
 31
0.0
  0
ARC
  5
19A
330
1F
100
AcDbEntity
  8
0
  6
SLD-Durchgehend
 62
     7
370
    25
100
AcDbCircle
 10
346.2148283111
 20
438.951779958
 30
0.0
 40
10.0
100
AcDbArc
 50
180.0
 51
270.0
  0
LINE
  5
19B
330
1F
100
AcDbEntity
  8
0
  6
SLD-Durchgehend
 62
     7
370
    25
100
AcDbLine
 10
336.2148283111
 20
489.451779958
 30
0.0
 11
336.2148283111
 21
438.951779958
 31
0.0
  0
LINE
  5
19C
330
1F
100
AcDbEntity
  8
0
  6
SLD-Durchgehend
 62
     7
370
    25
100
AcDbLine
 10
329.3612165238
 20
503.8054556359
 30
0.0
 11
336.2148283111
 21
489.451779958
 31
0.0
  0
ARC
  5
19D
330
1F
100
AcDbEntity
  8
0
  6
SLD-Durchgehend
 62
     7
370
    25
100
AcDbCircle
 10
330.7148283111
 20
504.451779958
 30
0.0
 40
1.500000000000051
100
AcDbArc
 50
180.0
 51
205.5236030642
  0
LINE
  5
19E
330
1F
100
AcDbEntity
  8
0
  6
SLD-Durchgehend
 62
     7
370
    25
100
AcDbLine
 10
329.2148283111
 20
506.451779958
 30
0.0
 11
329.2148283111
 21
504.451779958
 31
0.0
  0
LINE
  5
19F
330
1F
100
AcDbEntity
  8
0
  6
SLD-Durchgehend
 62
     7
370
    25
100
AcDbLine
 10
326.8648283111
 20
506.451779958
 30
0.0
 11
329.2148283111
 21
506.451779958
 31
0.0
  0
LINE
  5
1A0
330
1F
100
AcDbEntity
  8
0
  6
SLD-Durchgehend
 62
     7
370
    25
100
AcDbLine
 10
326.8648283111
 20
507.951779958
 30
0.0
 11
326.8648283111
 21
506.451779958
 31
0.0
  0
LINE
  5
1A1
330
1F
100
AcDbEntity
  8
0
  6
SLD-Durchgehend
 62
     7
370
    25
100
AcDbLine
 10
330.7148283111
 20
507.951779958
 30
0.0
 11
326.8648283111
 21
507.951779958
 31
0.0
  0
LINE
  5
1A2
330
1F
100
AcDbEntity
  8
0
  6
SLD-Durchgehend
 62
     7
370
    25
100
AcDbLine
 10
330.7148283111
 20
504.451779958
 30
0.0
 11
330.7148283111
 21
507.951779958
 31
0.0
  0
LINE
  5
1A3
330
1F
100
AcDbEntity
  8
0
  6
SLD-Durchgehend
 62
     7
370
    25
100
AcDbLine
 10
337.272453957
 20
490.7179948153
 30
0.0
 11
330.7148283111
 21
504.451779958
 31
0.0
  0
LINE
  5
1A4
330
1F
100
AcDbEntity
  8
0
  6
SLD-Durchgehend
 62
     7
370
    25
100
AcDbLine
 10
337.272453957
 20
490.7179948153
 30
0.0
 11
337.7148283111
 21
489.951779958
 31
0.0
  0
LINE
  5
1A5
330
1F
100
AcDbEntity
  8
0
  6
SLD-Durchgehend
 62
     7
370
    25
100
AcDbLine
 10
337.7148283111
 20
438.951779958
 30
0.0
 11
337.7148283111
 21
489.951779958
 31
0.0
  0
ARC
  5
1A6
330
1F
100
AcDbEntity
  8
0
  6
SLD-Durchgehend
 62
     7
370
    25
100
AcDbCircle
 10
346.2148283111
 20
438.951779958
 30
0.0
 40
8.5
100
AcDbArc
 50
180.0
 51
270.0
  0
LINE
  5
1A7
330
1F
100
AcDbEntity
  8
0
  6
SLD-Durchgehend
 62
     7
370
    25
100
AcDbLine
 10
387.2148283111
 20
430.451779958
 30
0.0
 11
346.2148283111
 21
430.451779958
 31
0.0
  0
ARC
  5
1A8
330
1F
100
AcDbEntity
  8
0
  6
SLD-Durchgehend
 62
     7
370
    25
100
AcDbCircle
 10
387.2148283111
 20
438.951779958
 30
0.0
 40
8.5
100
AcDbArc
 50
270.0
 51
0.0
  0
LINE
  5
1A9
330
1F
100
AcDbEntity
  8
0
  6
SLD-Durchgehend
 62
     7
370
    25
100
AcDbLine
 10
395.7148283111
 20
489.951779958
 30
0.0
 11
395.7148283111
 21
438.951779958
 31
0.0
  0
LINE
  5
1AA
330
1F
100
AcDbEntity
  8
0
  6
SLD-Durchgehend
 62
     7
370
    25
100
AcDbLine
 10
395.7148283111
 20
489.951779958
 30
0.0
 11
396.1572026653
 21
490.7179948153
 31
0.0
  0
LINE
  5
1AB
330
1F
100
AcDbEntity
  8
0
  6
SLD-Durchgehend
 62
     7
370
    25
100
AcDbLine
 10
402.7148283111
 20
504.451779958
 30
0.0
 11
396.1572026653
 21
490.7179948153
 31
0.0
  0
LINE
  5
1AC
330
1F
100
AcDbEntity
  8
0
  6
SLD-Durchgehend
 62
     7
370
    25
100
AcDbLine
 10
402.7148283111
 20
507.951779958
 30
0.0
 11
402.7148283111
 21
504.451779958
 31
0.0
  0
LINE
  5
1AD
330
1F
100
AcDbEntity
  8
0
  6
SLD-Durchgehend
 62
     7
370
    25
100
AcDbLine
 10
406.5648283111
 20
507.951779958
 30
0.0
 11
402.7148283111
 21
507.951779958
 31
0.0
  0
LINE
  5
1AE
330
1F
100
AcDbEntity
  8
0
  6
SLD-Durchgehend
 62
     7
370
    25
100
AcDbLine
 10
406.5648283111
 20
506.451779958
 30
0.0
 11
406.5648283111
 21
507.951779958
 31
0.0
  0
LINE
  5
1AF
330
1F
100
AcDbEntity
  8
0
  6
SLD-Durchgehend
 62
     7
370
    25
100
AcDbLine
 10
404.2148283111
 20
506.451779958
 30
0.0
 11
406.5648283111
 21
506.451779958
 31
0.0
  0
LINE
  5
1B0
330
1F
100
AcDbEntity
  8
0
  6
SLD-Durchgehend
 62
     7
370
    25
100
AcDbLine
 10
404.2148283111
 20
504.451779958
 30
0.0
 11
404.2148283111
 21
506.451779958
 31
0.0
  0
ARC
  5
1B1
330
1F
100
AcDbEntity
  8
0
  6
SLD-Durchgehend
 62
     7
370
    25
100
AcDbCircle
 10
402.7148283111
 20
504.451779958
 30
0.0
 40
1.500000000000051
100
AcDbArc
 50
334.4763969358
 51
360.0
  0
LINE
  5
1B2
330
1F
100
AcDbEntity
  8
0
  6
SLD-Durchgehend
 62
     7
370
    25
100
AcDbLine
 10
397.2148283111
 20
489.451779958
 30
0.0
 11
404.0684400985
 21
503.8054556359
 31
0.0
  0
LINE
  5
1B3
330
1F
100
AcDbEntity
  8
0
  6
SLD-Durchgehend
 62
     7
370
    25
100
AcDbLine
 10
397.2148283111
 20
438.951779958
 30
0.0
 11
397.2148283111
 21
489.451779958
 31
0.0
  0
ARC
  5
1B4
330
1F
100
AcDbEntity
  8
0
  6
SLD-Durchgehend
 62
     7
370
    25
100
AcDbCircle
 10
387.2148283111
 20
438.951779958
 30
0.0
 40
10.0
100
AcDbArc
 50
270.0
 51
0.0
  0
LINE
  5
1B5
330
1F
100
AcDbEntity
  8
0
  6
SLD-Durchgehend
 62
     7
370
    25
100
AcDbLine
 10
402.5896105404
 20
504.451779958
 30
0.0
 11
402.7148283111
 21
504.451779958
 31
0.0
  0
LINE
  5
1B6
330
1F
100
AcDbEntity
  8
0
  6
SLD-Durchgehend
 62
     7
370
    25
100
AcDbLine
 10
402.5896105404
 20
504.451779958
 30
0.0
 11
402.2148283111
 21
504.451779958
 31
0.0
  0
LINE
  5
1B7
330
1F
100
AcDbEntity
  8
0
  6
SLD-Durchgehend
 62
     7
370
    25
100
AcDbLine
 10
331.2148283111
 20
504.451779958
 30
0.0
 11
330.8400460818
 21
504.451779958
 31
0.0
  0
LINE
  5
1B8
330
1F
100
AcDbEntity
  8
0
  6
SLD-Durchgehend
 62
     7
370
    25
100
AcDbLine
 10
330.7148283111
 20
504.451779958
 30
0.0
 11
330.8400460818
 21
504.451779958
 31
0.0
  0
LINE
  5
1B9
330
1F
100
AcDbEntity
  8
0
  6
SLD-Durchgehend
 62
     7
370
    25
100
AcDbLine
 10
337.272453957
 20
490.7179948153
 30
0.0
 11
337.4256936771
 21
490.7179948153
 31
0.0
  0
LINE
  5
1BA
330
1F
100
AcDbEntity
  8
0
  6
SLD-Durchgehend
 62
     7
370
    25
100
AcDbLine
 10
336.791921639
 20
491.951779958
 30
0.0
 11
347.7148283111
 21
491.951779958
 31
0.0
  0
LINE
  5
1BB
330
1F
100
AcDbEntity
  8
0
  6
SLD-Durchgehend
 62
     7
370
    25
100
AcDbLine
 10
385.7148283111
 20
491.951779958
 30
0.0
 11
396.6319182141
 21
491.951779958
 31
0.0
  0
LINE
  5
1BC
330
1F
100
AcDbEntity
  8
0
  6
SLD-Durchgehend
 62
     7
370
    25
100
AcDbLine
 10
396.0039629452
 20
490.7179948153
 30
0.0
 11
396.1572026653
 21
490.7179948153
 31
0.0
  0
LINE
  5
1BD
330
1F
100
AcDbEntity
  8
0
  6
SLD-Durchgehend
 62
     7
370
    25
100
AcDbLine
 10
395.7148283111
 20
489.951779958
 30
0.0
 11
385.7148283111
 21
489.951779958
 31
0.0
  0
LINE
  5
1BE
330
1F
100
AcDbEntity
  8
0
  6
SLD-Durchgehend
 62
     7
370
    25
100
AcDbLine
 10
347.7148283111
 20
489.951779958
 30
0.0
 11
337.7148283111
 21
489.951779958
 31
0.0
  0
SPLINE
  5
1BF
330
1F
100
AcDbEntity
  8
0
  6
SLD-Durchgehend
 62
     7
370
    25
100
AcDbSpline
210
0.0
220
0.0
230
1.0
 70
     8
 71
     3
 72
     9
 73
     5
 74
     0
 42
0.000000001
 43
0.00000001
 40
0.0
 40
0.0
 40
0.0
 40
0.0
 40
0.2358045342884831
 40
1.0
 40
1.0
 40
1.0
 40
1.0
 10
337.4256936771181
 20
490.7179948153088
 30
0.0
 10
336.9077152885582
 20
491.7973296712531
 30
0.0
 10
334.7110722506163
 20
496.3745735279122
 30
0.0
 10
332.5168561084626
 20
500.9529814124284
 30
0.0
 10
330.8400460818378
 20
504.4517799579535
 30
0.0
  0
SPLINE
  5
1C0
330
1F
100
AcDbEntity
  8
0
  6
SLD-Durchgehend
 62
     7
370
    25
100
AcDbSpline
210
0.0
220
0.0
230
1.0
 70
     8
 71
     3
 72
     9
 73
     5
 74
     0
 42
0.000000001
 43
0.00000001
 40
0.0
 40
0.0
 40
0.0
 40
0.0
 40
0.7641954657115175
 40
0.9999999999999999
 40
0.9999999999999999
 40
0.9999999999999999
 40
0.9999999999999999
 10
402.5896105404462
 20
504.4517799579535
 30
0.0
 10
400.9128005138214
 20
500.9529814124284
 30
0.0
 10
398.7185843716678
 20
496.3745735279121
 30
0.0
 10
396.5219413337258
 20
491.7973296712531
 30
0.0
 10
396.0039629451659
 20
490.7179948153088
 30
0.0
  0
HATCH
  5
1C1
330
1F
100
AcDbEntity
  8
0
  6
SLD-Durchgehend
 62
     7
370
    18
100
AcDbHatch
 10
0.0
 20
0.0
 30
0.0
210
0.0
220
0.0
230
1.0
  2
ANSI31
 70
     0
 71
     0
 91
        1
 92
        0
 93
       28
 72
     2
 10
387.214828311142
 20
438.9517799579536
 40
10.0
 50
270.0000000000008
 51
360.0000000000011
 73
     1
 72
     1
 10
397.214828311142
 20
438.9517799579536
 11
397.214828311142
 21
489.4517799579536
 72
     1
 10
397.214828311142
 20
489.4517799579536
 11
404.0684400984612
 21
503.8054556359366
 72
     2
 10
402.714828311142
 20
504.4517799579536
 40
1.5
 50
334.4763969357898
 51
360.0000000000008
 73
     1
 72
     1
 10
404.214828311142
 20
504.4517799579536
 11
404.214828311142
 21
506.4517799579536
 72
     1
 10
404.214828311142
 20
506.4517799579536
 11
406.564828311142
 21
506.4517799579536
 72
     1
 10
406.564828311142
 20
506.4517799579536
 11
406.564828311142
 21
507.9517799579536
 72
     1
 10
406.564828311142
 20
507.9517799579536
 11
402.714828311142
 21
507.9517799579536
 72
     1
 10
402.714828311142
 20
507.9517799579536
 11
402.714828311142
 21
504.4517799579536
 72
     1
 10
402.714828311142
 20
504.4517799579536
 11
396.1572026652931
 21
490.7179948153088
 72
     1
 10
396.1572026652931
 20
490.7179948153088
 11
395.714828311142
 21
489.9517799579536
 72
     1
 10
395.714828311142
 20
489.9517799579536
 11
395.714828311142
 21
438.9517799579536
 72
     2
 10
387.214828311142
 20
438.9517799579536
 40
8.5
 50
0.0
 51
90.0
 73
     0
 72
     1
 10
387.214828311142
 20
430.4517799579536
 11
346.214828311142
 21
430.4517799579536
 72
     2
 10
346.214828311142
 20
438.9517799579536
 40
8.5
 50
90.0
 51
180.0
 73
     0
 72
     1
 10
337.714828311142
 20
438.9517799579536
 11
337.714828311142
 21
489.9517799579536
 72
     1
 10
337.714828311142
 20
489.9517799579536
 11
337.2724539569909
 21
490.7179948153088
 72
     1
 10
337.2724539569909
 20
490.7179948153088
 11
330.714828311142
 21
504.4517799579536
 72
     1
 10
330.714828311142
 20
504.4517799579536
 11
330.714828311142
 21
507.9517799579536
 72
     1
 10
330.714828311142
 20
507.9517799579536
 11
326.864828311142
 21
507.9517799579536
 72
     1
 10
326.864828311142
 20
507.9517799579536
 11
326.864828311142
 21
506.4517799579536
 72
     1
 10
326.864828311142
 20
506.4517799579536
 11
329.214828311142
 21
506.4517799579536
 72
     1
 10
329.214828311142
 20
506.4517799579536
 11
329.214828311142
 21
504.4517799579536
 72
     2
 10
330.714828311142
 20
504.4517799579536
 40
1.5
 50
180.0
 51
205.5236030642118
 73
     1
 72
     1
 10
329.3612165238229
 20
503.8054556359366
 11
336.214828311142
 21
489.4517799579536
 72
     1
 10
336.214828311142
 20
489.4517799579536
 11
336.214828311142
 21
438.9517799579536
 72
     2
 10
346.214828311142
 20
438.9517799579536
 40
10.0
 50
179.9999999999997
 51
270.0000000000008
 73
     1
 72
     1
 10
346.214828311142
 20
428.9517799579536
 11
387.214828311142
 21
428.9517799579536
 97
        0
 75
     0
 76
     1
 52
0.0
 41
2.0
 77
     0
 78
     1
 53
45.0
 43
0.0
 44
0.0
 45
-4.490128060534577
 46
4.490128060534577
 79
     0
 98
        1
 10
0.0
 20
0.0
  0
HATCH
  5
1C2
330
1F
100
AcDbEntity
  8
0
  6
SLD-Durchgehend
 62
     7
370
    18
100
AcDbHatch
 10
0.0
 20
0.0
 30
0.0
210
0.0
220
0.0
230
1.0
  2
ANSI34
 70
     0
 71
     0
 91
        1
 92
        0
 93
       18
 72
     1
 10
404.714828311142
 20
512.4517799579536
 11
406.4648283111421
 21
512.4517799579536
 72
     1
 10
406.4648283111421
 20
512.4517799579536
 11
406.4648283111421
 21
514.4517799579536
 72
     1
 10
406.4648283111421
 20
514.4517799579536
 11
402.2148283111421
 21
514.4517799579536
 72
     2
 10
402.2148283111421
 20
512.4517799579536
 40
2.000000000000002
 50
90.0
 51
180.0
 73
     1
 72
     1
 10
400.2148283111421
 20
512.4517799579536
 11
400.2148283111421
 21
506.4517799579535
 72
     2
 10
399.2148283111421
 20
506.4517799579535
 40
1.000000000000001
 50
0.0
 51
90.0
 73
     0
 72
     1
 10
399.2148283111421
 20
505.4517799579535
 11
396.714828311142
 21
505.4517799579535
 72
     2
 10
396.714828311142
 20
493.4517799579535
 40
12.00000000000001
 50
90.0
 51
180.0
 73
     1
 72
     1
 10
384.714828311142
 20
493.4517799579535
 11
384.714828311142
 21
440.9517799579536
 72
     1
 10
384.714828311142
 20
440.9517799579536
 11
385.714828311142
 21
440.9517799579536
 72
     1
 10
385.714828311142
 20
440.9517799579536
 11
385.7148283111421
 21
493.4517799579536
 72
     2
 10
396.714828311142
 20
493.4517799579536
 40
10.99999999999998
 50
180.0
 51
270.0000000000011
 73
     0
 72
     1
 10
396.7148283111421
 20
504.4517799579535
 11
402.214828311142
 21
504.4517799579535
 72
     1
 10
402.214828311142
 20
504.4517799579535
 11
402.214828311142
 21
507.9517799579536
 72
     1
 10
402.214828311142
 20
507.9517799579536
 11
406.214828311142
 21
507.9517799579536
 72
     1
 10
406.214828311142
 20
507.9517799579536
 11
406.2148283111421
 21
509.6517799579536
 72
     1
 10
406.2148283111421
 20
509.6517799579536
 11
404.714828311142
 21
509.6517799579536
 72
     1
 10
404.714828311142
 20
509.6517799579536
 11
404.714828311142
 21
512.4517799579536
 97
        0
 75
     0
 76
     1
 52
0.0
 41
2.0
 77
     0
 78
     4
 53
45.0
 43
0.0
 44
0.0
 45
-26.94076836320746
 46
26.94076836320746
 79
     0
 53
45.0
 43
8.98026
 44
0.0
 45
-26.94076836320746
 46
26.94076836320746
 79
     0
 53
45.0
 43
17.96052
 44
0.0
 45
-26.94076836320746
 46
26.94076836320746
 79
     0
 53
45.0
 43
26.9408
 44
0.0
 45
-26.94076836320746
 46
26.94076836320746
 79
     0
 98
        1
 10
0.0
 20
0.0
  0
HATCH
  5
1C3
330
1F
100
AcDbEntity
  8
0
  6
SLD-Durchgehend
 62
     7
370
    18
100
AcDbHatch
 10
0.0
 20
0.0
 30
0.0
210
0.0
220
0.0
230
1.0
  2
ANSI34
 70
     0
 71
     0
 91
        1
 92
        0
 93
       18
 72
     1
 10
326.964828311142
 20
512.4517799579536
 11
328.7148283111421
 21
512.4517799579536
 72
     1
 10
328.7148283111421
 20
512.4517799579536
 11
328.7148283111421
 21
509.6517799579536
 72
     1
 10
328.7148283111421
 20
509.6517799579536
 11
327.214828311142
 21
509.6517799579536
 72
     1
 10
327.214828311142
 20
509.6517799579536
 11
327.2148283111421
 21
507.9517799579536
 72
     1
 10
327.2148283111421
 20
507.9517799579536
 11
331.214828311142
 21
507.9517799579536
 72
     1
 10
331.214828311142
 20
507.9517799579536
 11
331.214828311142
 21
504.4517799579535
 72
     1
 10
331.214828311142
 20
504.4517799579535
 11
336.714828311142
 21
504.4517799579535
 72
     2
 10
336.714828311142
 20
493.4517799579536
 40
10.99999999999998
 50
270.0000000000008
 51
360.0000000000008
 73
     0
 72
     1
 10
347.714828311142
 20
493.4517799579536
 11
347.714828311142
 21
440.9517799579536
 72
     1
 10
347.714828311142
 20
440.9517799579536
 11
348.714828311142
 21
440.9517799579536
 72
     1
 10
348.714828311142
 20
440.9517799579536
 11
348.7148283111421
 21
493.4517799579535
 72
     2
 10
336.714828311142
 20
493.4517799579535
 40
12.00000000000001
 50
0.0
 51
90.0
 73
     1
 72
     1
 10
336.714828311142
 20
505.4517799579535
 11
334.214828311142
 21
505.4517799579535
 72
     2
 10
334.214828311142
 20
506.4517799579535
 40
1.000000000000001
 50
90.0
 51
180.0
 73
     0
 72
     1
 10
333.214828311142
 20
506.4517799579535
 11
333.214828311142
 21
512.4517799579536
 72
     2
 10
331.214828311142
 20
512.4517799579536
 40
2.000000000000002
 50
0.0
 51
90.0
 73
     1
 72
     1
 10
331.214828311142
 20
514.4517799579536
 11
326.964828311142
 21
514.4517799579536
 72
     1
 10
326.964828311142
 20
514.4517799579536
 11
326.964828311142
 21
512.4517799579536
 97
        0
 75
     0
 76
     1
 52
0.0
 41
2.0
 77
     0
 78
     4
 53
45.0
 43
0.0
 44
0.0
 45
-26.94076836320746
 46
26.94076836320746
 79
     0
 53
45.0
 43
8.98026
 44
0.0
 45
-26.94076836320746
 46
26.94076836320746
 79
     0
 53
45.0
 43
17.96052
 44
0.0
 45
-26.94076836320746
 46
26.94076836320746
 79
     0
 53
45.0
 43
26.9408
 44
0.0
 45
-26.94076836320746
 46
26.94076836320746
 79
     0
 98
        1
 10
0.0
 20
0.0
  0
HATCH
  5
1C4
330
1F
100
AcDbEntity
  8
0
  6
SLD-Durchgehend
 62
     7
370
    18
100
AcDbHatch
 10
0.0
 20
0.0
 30
0.0
210
0.0
220
0.0
230
1.0
  2
ANSI34
 70
     0
 71
     0
 91
        1
 92
        0
 93
       15
 72
     1
 10
412.714828311142
 20
502.9517799579535
 11
415.214828311142
 21
502.9517799579535
 72
     1
 10
415.214828311142
 20
502.9517799579535
 11
415.214828311142
 21
504.4517799579535
 72
     1
 10
415.214828311142
 20
504.4517799579535
 11
420.714828311142
 21
504.4517799579535
 72
     1
 10
420.714828311142
 20
504.4517799579535
 11
420.714828311142
 21
500.4517799579535
 72
     1
 10
420.714828311142
 20
500.4517799579535
 11
422.7148283111421
 21
500.4517799579535
 72
     1
 10
422.7148283111421
 20
500.4517799579535
 11
422.7148283111421
 21
515.4517799579536
 72
     1
 10
422.7148283111421
 20
515.4517799579536
 11
418.214828311142
 21
510.9517799579535
 72
     1
 10
418.214828311142
 20
510.9517799579535
 11
417.178930311142
 21
510.9517799579535
 72
     1
 10
417.178930311142
 20
510.9517799579535
 11
416.601580311142
 21
511.9517799579535
 72
     1
 10
416.601580311142
 20
511.9517799579535
 11
416.0242293111421
 21
510.9517799579535
 72
     1
 10
416.0242293111421
 20
510.9517799579535
 11
415.446879311142
 21
511.9517799579535
 72
     1
 10
415.446879311142
 20
511.9517799579535
 11
414.8695293111421
 21
510.9517799579535
 72
     1
 10
414.8695293111421
 20
510.9517799579535
 11
414.292178311142
 21
511.9517799579535
 72
     1
 10
414.292178311142
 20
511.9517799579535
 11
412.714828311142
 21
510.9517799579535
 72
     1
 10
412.714828311142
 20
510.9517799579535
 11
412.714828311142
 21
502.9517799579535
 97
        0
 75
     0
 76
     1
 52
0.0
 41
2.0
 77
     0
 78
     4
 53
45.0
 43
0.0
 44
0.0
 45
-26.94076836320746
 46
26.94076836320746
 79
     0
 53
45.0
 43
8.98026
 44
0.0
 45
-26.94076836320746
 46
26.94076836320746
 79
     0
 53
45.0
 43
17.96052
 44
0.0
 45
-26.94076836320746
 46
26.94076836320746
 79
     0
 53
45.0
 43
26.9408
 44
0.0
 45
-26.94076836320746
 46
26.94076836320746
 79
     0
 98
        1
 10
0.0
 20
0.0
  0
HATCH
  5
1C5
330
1F
100
AcDbEntity
  8
0
  6
SLD-Durchgehend
 62
     7
370
    18
100
AcDbHatch
 10
0.0
 20
0.0
 30
0.0
210
0.0
220
0.0
230
1.0
  2
ANSI34
 70
     0
 71
     0
 91
        1
 92
        0
 93
       15
 72
     1
 10
318.214828311142
 20
502.9517799579535
 11
320.714828311142
 21
502.9517799579535
 72
     1
 10
320.714828311142
 20
502.9517799579535
 11
320.714828311142
 21
510.9517799579535
 72
     1
 10
320.714828311142
 20
510.9517799579535
 11
319.137478311142
 21
511.9517799579535
 72
     1
 10
319.137478311142
 20
511.9517799579535
 11
318.560127311142
 21
510.9517799579535
 72
     1
 10
318.560127311142
 20
510.9517799579535
 11
317.982777311142
 21
511.9517799579535
 72
     1
 10
317.982777311142
 20
511.9517799579535
 11
317.405427311142
 21
510.9517799579535
 72
     1
 10
317.405427311142
 20
510.9517799579535
 11
316.8280763111421
 21
511.9517799579535
 72
     1
 10
316.8280763111421
 20
511.9517799579535
 11
316.250726311142
 21
510.9517799579535
 72
     1
 10
316.250726311142
 20
510.9517799579535
 11
315.214828311142
 21
510.9517799579535
 72
     1
 10
315.214828311142
 20
510.9517799579535
 11
310.7148283111421
 21
515.4517799579536
 72
     1
 10
310.7148283111421
 20
515.4517799579536
 11
310.7148283111421
 21
500.4517799579535
 72
     1
 10
310.7148283111421
 20
500.4517799579535
 11
312.7148283111421
 21
500.4517799579535
 72
     1
 10
312.7148283111421
 20
500.4517799579535
 11
312.7148283111421
 21
504.4517799579535
 72
     1
 10
312.7148283111421
 20
504.4517799579535
 11
318.214828311142
 21
504.4517799579535
 72
     1
 10
318.214828311142
 20
504.4517799579535
 11
318.214828311142
 21
502.9517799579535
 97
        0
 75
     0
 76
     1
 52
0.0
 41
2.0
 77
     0
 78
     4
 53
45.0
 43
0.0
 44
0.0
 45
-26.94076836320746
 46
26.94076836320746
 79
     0
 53
45.0
 43
8.98026
 44
0.0
 45
-26.94076836320746
 46
26.94076836320746
 79
     0
 53
45.0
 43
17.96052
 44
0.0
 45
-26.94076836320746
 46
26.94076836320746
 79
     0
 53
45.0
 43
26.9408
 44
0.0
 45
-26.94076836320746
 46
26.94076836320746
 79
     0
 98
        1
 10
0.0
 20
0.0
  0
HATCH
  5
1C6
330
1F
100
AcDbEntity
  8
0
  6
SLD-Durchgehend
 62
     7
370
    18
100
AcDbHatch
 10
0.0
 20
0.0
 30
0.0
210
0.0
220
0.0
230
1.0
  2
ANSI34
 70
     0
 71
     0
 91
        1
 92
        0
 93
        1
 72
     2
 10
405.9648283111421
 20
510.9517799579535
 40
1.249999999999997
 50
0.0
 51
360.0
 73
     1
 97
        0
 75
     0
 76
     1
 52
0.0
 41
2.0
 77
     0
 78
     4
 53
45.0
 43
0.0
 44
0.0
 45
-26.94076836320746
 46
26.94076836320746
 79
     0
 53
45.0
 43
8.98026
 44
0.0
 45
-26.94076836320746
 46
26.94076836320746
 79
     0
 53
45.0
 43
17.96052
 44
0.0
 45
-26.94076836320746
 46
26.94076836320746
 79
     0
 53
45.0
 43
26.9408
 44
0.0
 45
-26.94076836320746
 46
26.94076836320746
 79
     0
 98
        1
 10
0.0
 20
0.0
  0
HATCH
  5
1C7
330
1F
100
AcDbEntity
  8
0
  6
SLD-Durchgehend
 62
     7
370
    18
100
AcDbHatch
 10
0.0
 20
0.0
 30
0.0
210
0.0
220
0.0
230
1.0
  2
ANSI34
 70
     0
 71
     0
 91
        1
 92
        0
 93
        1
 72
     2
 10
327.4648283111419
 20
510.9517799579535
 40
1.249999999999997
 50
0.0
 51
360.0
 73
     1
 97
        0
 75
     0
 76
     1
 52
0.0
 41
2.0
 77
     0
 78
     4
 53
45.0
 43
0.0
 44
0.0
 45
-26.94076836320746
 46
26.94076836320746
 79
     0
 53
45.0
 43
8.98026
 44
0.0
 45
-26.94076836320746
 46
26.94076836320746
 79
     0
 53
45.0
 43
17.96052
 44
0.0
 45
-26.94076836320746
 46
26.94076836320746
 79
     0
 53
45.0
 43
26.9408
 44
0.0
 45
-26.94076836320746
 46
26.94076836320746
 79
     0
 98
        1
 10
0.0
 20
0.0
  0
HATCH
  5
1C8
330
1F
100
AcDbEntity
  8
0
  6
SLD-Durchgehend
 62
     7
370
    18
100
AcDbHatch
 10
0.0
 20
0.0
 30
0.0
210
0.0
220
0.0
230
1.0
  2
ANSI31
 70
     0
 71
     0
 91
        1
 92
        0
 93
       15
 72
     1
 10
323.714828311142
 20
475.7517799579536
 11
325.214828311142
 21
474.2517799579536
 72
     1
 10
325.214828311142
 20
474.2517799579536
 11
326.564828311142
 21
474.2517799579536
 72
     1
 10
326.564828311142
 20
474.2517799579536
 11
326.564828311142
 21
489.2517799579536
 72
     1
 10
326.564828311142
 20
489.2517799579536
 11
329.214828311142
 21
489.2517799579536
 72
     1
 10
329.214828311142
 20
489.2517799579536
 11
329.214828311142
 21
506.4517799579536
 72
     1
 10
329.214828311142
 20
506.4517799579536
 11
326.564828311142
 21
506.4517799579536
 72
     1
 10
326.564828311142
 20
506.4517799579536
 11
326.564828311142
 21
516.9517799579536
 72
     1
 10
326.564828311142
 20
516.9517799579536
 11
325.814828311142
 21
516.9517799579536
 72
     1
 10
325.814828311142
 20
516.9517799579536
 11
325.814828311142
 21
518.5517799579536
 72
     2
 10
325.114828311142
 20
518.5517799579536
 40
0.7
 50
0.0
 51
90.0
 73
     1
 72
     1
 10
325.114828311142
 20
519.2517799579535
 11
312.5197786138619
 21
519.2517799579535
 72
     2
 10
312.5197786138619
 20
518.6968296552336
 40
0.5549503027199436
 50
90.0
 51
240.0000000000005
 73
     1
 72
     1
 10
312.242303462502
 20
518.2162285952403
 11
315.644828311142
 21
516.2517799579535
 72
     1
 10
315.644828311142
 20
516.2517799579535
 11
323.714828311142
 21
516.2517799579535
 72
     1
 10
323.714828311142
 20
516.2517799579535
 11
323.714828311142
 21
475.7517799579536
 97
        0
 75
     0
 76
     1
 52
0.0
 41
2.0
 77
     0
 78
     1
 53
45.0
 43
0.0
 44
0.0
 45
-4.490128060534577
 46
4.490128060534577
 79
     0
 98
        1
 10
0.0
 20
0.0
  0
HATCH
  5
1C9
330
1F
100
AcDbEntity
  8
0
  6
SLD-Durchgehend
 62
     7
370
    18
100
AcDbHatch
 10
0.0
 20
0.0
 30
0.0
210
0.0
220
0.0
230
1.0
  2
ANSI31
 70
     0
 71
     0
 91
        1
 92
        0
 93
       15
 72
     1
 10
408.214828311142
 20
474.2517799579536
 11
409.714828311142
 21
475.7517799579536
 72
     1
 10
409.714828311142
 20
475.7517799579536
 11
409.714828311142
 21
516.2517799579535
 72
     1
 10
409.714828311142
 20
516.2517799579535
 11
417.784828311142
 21
516.2517799579535
 72
     1
 10
417.784828311142
 20
516.2517799579535
 11
421.187353159782
 21
518.2162285952403
 72
     2
 10
420.9098780084221
 20
518.6968296552336
 40
0.5549503027199436
 50
300.0000000000011
 51
450.0000000000008
 73
     1
 72
     1
 10
420.9098780084221
 20
519.2517799579535
 11
408.314828311142
 21
519.2517799579535
 72
     2
 10
408.314828311142
 20
518.5517799579536
 40
0.7
 50
90.0
 51
180.0
 73
     1
 72
     1
 10
407.614828311142
 20
518.5517799579536
 11
407.614828311142
 21
516.9517799579536
 72
     1
 10
407.614828311142
 20
516.9517799579536
 11
406.864828311142
 21
516.9517799579536
 72
     1
 10
406.864828311142
 20
516.9517799579536
 11
406.864828311142
 21
506.4517799579536
 72
     1
 10
406.864828311142
 20
506.4517799579536
 11
404.214828311142
 21
506.4517799579536
 72
     1
 10
404.214828311142
 20
506.4517799579536
 11
404.214828311142
 21
489.2517799579536
 72
     1
 10
404.214828311142
 20
489.2517799579536
 11
406.864828311142
 21
489.2517799579536
 72
     1
 10
406.864828311142
 20
489.2517799579536
 11
406.864828311142
 21
474.2517799579536
 72
     1
 10
406.864828311142
 20
474.2517799579536
 11
408.214828311142
 21
474.2517799579536
 97
        0
 75
     0
 76
     1
 52
0.0
 41
2.0
 77
     0
 78
     1
 53
45.0
 43
0.0
 44
0.0
 45
-4.490128060534577
 46
4.490128060534577
 79
     0
 98
        1
 10
0.0
 20
0.0
  0
HATCH
  5
1CA
330
1F
100
AcDbEntity
  8
0
  6
SLD-Durchgehend
 62
     7
370
    18
100
AcDbHatch
 10
0.0
 20
0.0
 30
0.0
210
0.0
220
0.0
230
1.0
  2
ANSI31
 70
     0
 71
     0
 91
        1
 92
        0
 93
       12
 72
     2
 10
408.264828311142
 20
518.5517799579536
 40
1.400000000000189
 50
90.0
 51
180.0000000000055
 73
     1
 72
     1
 10
406.8648283111417
 20
518.5517799579535
 11
406.8648283111417
 21
516.95177995795
 72
     1
 10
406.8648283111417
 20
516.95177995795
 11
407.5648283111418
 21
516.95177995795
 72
     1
 10
407.5648283111418
 20
516.95177995795
 11
407.5648283111418
 21
518.5517799579536
 72
     2
 10
408.264828311142
 20
518.5517799579536
 40
0.7000000000001068
 50
180.0
 51
269.9999999999915
 73
     0
 72
     1
 10
408.2648283111419
 20
519.2517799579537
 11
421.2148283111419
 21
519.2517799579535
 72
     2
 10
421.2148283111419
 20
518.7517799579535
 40
0.4999999999999869
 50
270.0000000000008
 51
420.0000000000092
 73
     0
 72
     1
 10
421.4648283111418
 20
518.3187672560613
 11
419.464828311142
 21
517.1640667176821
 72
     1
 10
419.464828311142
 20
517.1640667176821
 11
419.8148283111422
 21
516.5578489350329
 72
     1
 10
419.8148283111422
 20
516.5578489350329
 11
421.8148283111419
 21
517.7125494734121
 72
     2
 10
421.2148283111419
 20
518.7517799579535
 40
1.20000000000013
 50
299.9999999999985
 51
450.0000000000008
 73
     1
 72
     1
 10
421.2148283111419
 20
519.9517799579536
 11
408.264828311142
 21
519.9517799579536
 97
        0
 75
     0
 76
     1
 52
0.0
 41
2.0
 77
     0
 78
     1
 53
45.0
 43
0.0
 44
0.0
 45
-4.490128060534577
 46
4.490128060534577
 79
     0
 98
        1
 10
0.0
 20
0.0
  0
HATCH
  5
1CB
330
1F
100
AcDbEntity
  8
0
  6
SLD-Durchgehend
 62
     7
370
    18
100
AcDbHatch
 10
0.0
 20
0.0
 30
0.0
210
0.0
220
0.0
230
1.0
  2
ANSI31
 70
     0
 71
     0
 91
        1
 92
        0
 93
       12
 72
     2
 10
325.164828311142
 20
518.5517799579536
 40
1.400000000000189
 50
359.9999999999915
 51
450.0000000000008
 73
     1
 72
     1
 10
325.164828311142
 20
519.9517799579536
 11
312.2148283111421
 21
519.9517799579536
 72
     2
 10
312.2148283111421
 20
518.7517799579535
 40
1.20000000000013
 50
90.0
 51
240.0000000000007
 73
     1
 72
     1
 10
311.614828311142
 20
517.7125494734121
 11
313.6148283111419
 21
516.5578489350329
 72
     1
 10
313.6148283111419
 20
516.5578489350329
 11
313.964828311142
 21
517.1640667176821
 72
     1
 10
313.964828311142
 20
517.1640667176821
 11
311.9648283111421
 21
518.3187672560613
 72
     2
 10
312.2148283111421
 20
518.7517799579535
 40
0.4999999999999869
 50
119.9999999999973
 51
270.0000000000008
 73
     0
 72
     1
 10
312.2148283111421
 20
519.2517799579535
 11
325.1648283111421
 21
519.2517799579537
 72
     2
 10
325.164828311142
 20
518.5517799579536
 40
0.7000000000001068
 50
270.0000000000101
 51
360.0000000000008
 73
     0
 72
     1
 10
325.8648283111422
 20
518.5517799579536
 11
325.8648283111422
 21
516.95177995795
 72
     1
 10
325.8648283111422
 20
516.95177995795
 11
326.5648283111424
 21
516.95177995795
 72
     1
 10
326.5648283111424
 20
516.95177995795
 11
326.5648283111424
 21
518.5517799579534
 97
        0
 75
     0
 76
     1
 52
0.0
 41
2.0
 77
     0
 78
     1
 53
45.0
 43
0.0
 44
0.0
 45
-4.490128060534577
 46
4.490128060534577
 79
     0
 98
        1
 10
0.0
 20
0.0
  0
HATCH
  5
1CC
330
1F
100
AcDbEntity
  8
0
  6
SLD-Durchgehend
 62
     7
370
    18
100
AcDbHatch
 10
0.0
 20
0.0
 30
0.0
210
0.0
220
0.0
230
1.0
  2
DIN 201 Stahl und Stahlguss
 70
     0
 71
     0
 91
        1
 92
        0
 93
        4
 72
     1
 10
385.714828311142
 20
514.4517799579536
 11
393.714828311142
 21
514.4517799579536
 72
     1
 10
393.714828311142
 20
514.4517799579536
 11
393.714828311142
 21
519.4517799579536
 72
     1
 10
393.714828311142
 20
519.4517799579536
 11
385.714828311142
 21
519.4517799579536
 72
     1
 10
385.714828311142
 20
519.4517799579536
 11
385.714828311142
 21
514.4517799579536
 97
        0
 75
     0
 76
     2
 52
0.0
 41
2.0
 77
     0
 78
     4
 53
45.00000209717174
 43
0.0
 44
0.0
 45
-53.88153869861662
 46
53.88153475421315
 79
     0
 53
45.00000209717174
 43
17.960512
 44
0.0
 45
-53.88153869861662
 46
53.88153475421315
 79
     0
 53
45.00000209717174
 43
35.921024
 44
0.0
 45
-53.88153869861662
 46
53.88153475421315
 79
     0
 53
45.00000209717174
 43
53.88152
 44
0.0
 45
-53.88153869861662
 46
53.88153475421315
 79
     0
 98
        1
 10
0.0
 20
0.0
  0
HATCH
  5
1CD
330
1F
100
AcDbEntity
  8
0
  6
SLD-Durchgehend
 62
     7
370
    18
100
AcDbHatch
 10
0.0
 20
0.0
 30
0.0
210
0.0
220
0.0
230
1.0
  2
DIN 201 Stahl und Stahlguss
 70
     0
 71
     0
 91
        1
 92
        0
 93
        4
 72
     1
 10
379.7148283111421
 20
519.4517799579536
 11
353.714828311142
 21
519.4517799579536
 72
     1
 10
353.714828311142
 20
519.4517799579536
 11
353.714828311142
 21
514.4517799579536
 72
     1
 10
353.714828311142
 20
514.4517799579536
 11
379.7148283111421
 21
514.4517799579536
 72
     1
 10
379.7148283111421
 20
514.4517799579536
 11
379.7148283111421
 21
519.4517799579536
 97
        0
 75
     0
 76
     2
 52
0.0
 41
2.0
 77
     0
 78
     4
 53
45.00000209717174
 43
0.0
 44
0.0
 45
-53.88153869861662
 46
53.88153475421315
 79
     0
 53
45.00000209717174
 43
17.960512
 44
0.0
 45
-53.88153869861662
 46
53.88153475421315
 79
     0
 53
45.00000209717174
 43
35.921024
 44
0.0
 45
-53.88153869861662
 46
53.88153475421315
 79
     0
 53
45.00000209717174
 43
53.88152
 44
0.0
 45
-53.88153869861662
 46
53.88153475421315
 79
     0
 98
        1
 10
0.0
 20
0.0
  0
HATCH
  5
1CE
330
1F
100
AcDbEntity
  8
0
  6
SLD-Durchgehend
 62
     7
370
    18
100
AcDbHatch
 10
0.0
 20
0.0
 30
0.0
210
0.0
220
0.0
230
1.0
  2
DIN 201 Stahl und Stahlguss
 70
     0
 71
     0
 91
        1
 92
        0
 93
        4
 72
     1
 10
399.714828311142
 20
514.4517799579536
 11
406.714828311142
 21
514.4517799579536
 72
     1
 10
406.714828311142
 20
514.4517799579536
 11
406.714828311142
 21
519.4517799579536
 72
     1
 10
406.714828311142
 20
519.4517799579536
 11
399.714828311142
 21
519.4517799579536
 72
     1
 10
399.714828311142
 20
519.4517799579536
 11
399.714828311142
 21
514.4517799579536
 97
        0
 75
     0
 76
     2
 52
0.0
 41
2.0
 77
     0
 78
     4
 53
45.00000209717174
 43
0.0
 44
0.0
 45
-53.88153869861662
 46
53.88153475421315
 79
     0
 53
45.00000209717174
 43
17.960512
 44
0.0
 45
-53.88153869861662
 46
53.88153475421315
 79
     0
 53
45.00000209717174
 43
35.921024
 44
0.0
 45
-53.88153869861662
 46
53.88153475421315
 79
     0
 53
45.00000209717174
 43
53.88152
 44
0.0
 45
-53.88153869861662
 46
53.88153475421315
 79
     0
 98
        1
 10
0.0
 20
0.0
  0
HATCH
  5
1CF
330
1F
100
AcDbEntity
  8
0
  6
SLD-Durchgehend
 62
     7
370
    18
100
AcDbHatch
 10
0.0
 20
0.0
 30
0.0
210
0.0
220
0.0
230
1.0
  2
DIN 201 Stahl und Stahlguss
 70
     0
 71
     0
 91
        1
 92
        0
 93
        4
 72
     1
 10
347.714828311142
 20
519.4517799579536
 11
339.714828311142
 21
519.4517799579536
 72
     1
 10
339.714828311142
 20
519.4517799579536
 11
339.714828311142
 21
514.4517799579536
 72
     1
 10
339.714828311142
 20
514.4517799579536
 11
347.714828311142
 21
514.4517799579536
 72
     1
 10
347.714828311142
 20
514.4517799579536
 11
347.714828311142
 21
519.4517799579536
 97
        0
 75
     0
 76
     2
 52
0.0
 41
2.0
 77
     0
 78
     4
 53
45.00000209717174
 43
0.0
 44
0.0
 45
-53.88153869861662
 46
53.88153475421315
 79
     0
 53
45.00000209717174
 43
17.960512
 44
0.0
 45
-53.88153869861662
 46
53.88153475421315
 79
     0
 53
45.00000209717174
 43
35.921024
 44
0.0
 45
-53.88153869861662
 46
53.88153475421315
 79
     0
 53
45.00000209717174
 43
53.88152
 44
0.0
 45
-53.88153869861662
 46
53.88153475421315
 79
     0
 98
        1
 10
0.0
 20
0.0
  0
HATCH
  5
1D0
330
1F
100
AcDbEntity
  8
0
  6
SLD-Durchgehend
 62
     7
370
    18
100
AcDbHatch
 10
0.0
 20
0.0
 30
0.0
210
0.0
220
0.0
230
1.0
  2
DIN 201 Stahl und Stahlguss
 70
     0
 71
     0
 91
        1
 92
        0
 93
        4
 72
     1
 10
333.714828311142
 20
519.4517799579536
 11
326.714828311142
 21
519.4517799579536
 72
     1
 10
326.714828311142
 20
519.4517799579536
 11
326.714828311142
 21
514.4517799579536
 72
     1
 10
326.714828311142
 20
514.4517799579536
 11
333.714828311142
 21
514.4517799579536
 72
     1
 10
333.714828311142
 20
514.4517799579536
 11
333.714828311142
 21
519.4517799579536
 97
        0
 75
     0
 76
     2
 52
0.0
 41
2.0
 77
     0
 78
     4
 53
45.00000209717174
 43
0.0
 44
0.0
 45
-53.88153869861662
 46
53.88153475421315
 79
     0
 53
45.00000209717174
 43
17.960512
 44
0.0
 45
-53.88153869861662
 46
53.88153475421315
 79
     0
 53
45.00000209717174
 43
35.921024
 44
0.0
 45
-53.88153869861662
 46
53.88153475421315
 79
     0
 53
45.00000209717174
 43
53.88152
 44
0.0
 45
-53.88153869861662
 46
53.88153475421315
 79
     0
 98
        1
 10
0.0
 20
0.0
  0
HATCH
  5
1D1
330
1F
100
AcDbEntity
  8
0
  6
SLD-Durchgehend
 62
     7
370
    18
100
AcDbHatch
 10
0.0
 20
0.0
 30
0.0
210
0.0
220
0.0
230
1.0
  2
ANSI34
 70
     0
 71
     0
 91
        1
 92
        0
 93
        7
 72
     1
 10
412.8454708076784
 20
511.8517799579536
 11
417.964828311142
 21
514.8074423906562
 72
     2
 10
417.714828311142
 20
515.2404550925485
 40
0.5
 50
299.9999999999981
 51
360.0000000000008
 73
     1
 72
     1
 10
418.214828311142
 20
515.2404550925485
 11
418.214828311142
 21
516.2517799579535
 72
     1
 10
418.214828311142
 20
516.2517799579535
 11
410.4648283111649
 21
516.2517799579535
 72
     2
 10
410.4648283111649
 20
515.7517799579537
 40
0.5
 50
90.0
 51
180.0
 73
     1
 72
     1
 10
409.9648283111649
 20
515.7517799579537
 11
409.9648283111649
 21
511.8517799579536
 72
     1
 10
409.9648283111649
 20
511.8517799579536
 11
412.8454708076784
 21
511.8517799579536
 97
        0
 75
     0
 76
     1
 52
0.0
 41
2.0
 77
     0
 78
     4
 53
45.0
 43
0.0
 44
0.0
 45
-26.94076836320746
 46
26.94076836320746
 79
     0
 53
45.0
 43
8.98026
 44
0.0
 45
-26.94076836320746
 46
26.94076836320746
 79
     0
 53
45.0
 43
17.96052
 44
0.0
 45
-26.94076836320746
 46
26.94076836320746
 79
     0
 53
45.0
 43
26.9408
 44
0.0
 45
-26.94076836320746
 46
26.94076836320746
 79
     0
 98
        1
 10
0.0
 20
0.0
  0
HATCH
  5
1D2
330
1F
100
AcDbEntity
  8
0
  6
SLD-Durchgehend
 62
     7
370
    18
100
AcDbHatch
 10
0.0
 20
0.0
 30
0.0
210
0.0
220
0.0
230
1.0
  2
ANSI34
 70
     0
 71
     0
 91
        1
 92
        0
 93
        7
 72
     1
 10
315.464828311142
 20
514.8074423906562
 11
320.5841858146056
 21
511.8517799579536
 72
     1
 10
320.5841858146056
 20
511.8517799579536
 11
323.4648283111191
 21
511.8517799579536
 72
     1
 10
323.4648283111191
 20
511.8517799579536
 11
323.4648283111191
 21
515.7517799579537
 72
     2
 10
322.9648283111191
 20
515.7517799579537
 40
0.5
 50
0.0
 51
90.0
 73
     1
 72
     1
 10
322.9648283111191
 20
516.2517799579535
 11
315.214828311142
 21
516.2517799579535
 72
     1
 10
315.214828311142
 20
516.2517799579535
 11
315.214828311142
 21
515.2404550925485
 72
     2
 10
315.7148283111421
 20
515.2404550925485
 40
0.5
 50
180.0
 51
239.9999999999979
 73
     1
 97
        0
 75
     0
 76
     1
 52
0.0
 41
2.0
 77
     0
 78
     4
 53
45.0
 43
0.0
 44
0.0
 45
-26.94076836320746
 46
26.94076836320746
 79
     0
 53
45.0
 43
8.98026
 44
0.0
 45
-26.94076836320746
 46
26.94076836320746
 79
     0
 53
45.0
 43
17.96052
 44
0.0
 45
-26.94076836320746
 46
26.94076836320746
 79
     0
 53
45.0
 43
26.9408
 44
0.0
 45
-26.94076836320746
 46
26.94076836320746
 79
     0
 98
        1
 10
0.0
 20
0.0
  0
HATCH
  5
1D3
330
1F
100
AcDbEntity
  8
0
  6
SLD-Durchgehend
 62
     7
370
    18
100
AcDbHatch
 10
0.0
 20
0.0
 30
0.0
210
0.0
220
0.0
230
1.0
  2
ANSI31
 70
     0
 71
     0
 91
        1
 92
        0
 93
       23
 72
     1
 10
344.714828311142
 20
350.4517799579535
 11
344.714828311142
 21
404.4517799579533
 72
     2
 10
341.714828311142
 20
404.4517799579533
 40
3.0
 50
0.0
 51
44.99999999999923
 73
     1
 72
     1
 10
343.8361486547017
 20
406.5731003015129
 11
326.8650808428362
 21
423.5441681133786
 72
     2
 10
331.814828311142
 20
428.4939155816844
 40
7.0
 50
135.0000000000003
 51
180.0
 73
     0
 72
     1
 10
324.814828311142
 20
428.4939155816844
 11
324.814828311142
 21
500.9517799579536
 72
     1
 10
324.814828311142
 20
500.9517799579536
 11
322.814828311142
 21
502.9517799579535
 72
     1
 10
322.814828311142
 20
502.9517799579535
 11
316.714828311142
 21
502.9517799579535
 72
     1
 10
316.714828311142
 20
502.9517799579535
 11
316.714828311142
 21
504.4517799579535
 72
     1
 10
316.714828311142
 20
504.4517799579535
 11
315.964828311142
 21
504.4517799579535
 72
     1
 10
315.964828311142
 20
504.4517799579535
 11
315.964828311142
 21
504.0580809720869
 72
     1
 10
315.964828311142
 20
504.0580809720869
 11
313.964828311142
 21
504.0580809720869
 72
     1
 10
313.964828311142
 20
504.0580809720869
 11
313.964828311142
 21
504.4517799579535
 72
     1
 10
313.964828311142
 20
504.4517799579535
 11
313.214828311142
 21
504.4517799579535
 72
     1
 10
313.214828311142
 20
504.4517799579535
 11
313.214828311142
 21
500.9517799579535
 72
     2
 10
313.7148283111421
 20
500.9517799579535
 40
0.5
 50
180.0
 51
269.9999999999943
 73
     1
 72
     1
 10
313.714828311142
 20
500.4517799579535
 11
314.714828311142
 21
500.4517799579535
 72
     1
 10
314.714828311142
 20
500.4517799579535
 11
321.714828311142
 21
488.4517799579536
 72
     1
 10
321.714828311142
 20
488.4517799579536
 11
321.714828311142
 21
428.5939155816844
 72
     2
 10
331.714828311142
 20
428.5939155816844
 40
10.0
 50
180.0
 51
225.0000000000008
 73
     1
 72
     1
 10
324.6437604992765
 20
421.522847769819
 11
341.714828311142
 21
404.4517799579533
 72
     1
 10
341.714828311142
 20
404.4517799579533
 11
341.714828311142
 21
353.4517799579536
 72
     1
 10
341.714828311142
 20
353.4517799579536
 11
342.5186758884354
 21
350.4517799579535
 72
     1
 10
342.5186758884354
 20
350.4517799579535
 11
344.714828311142
 21
350.4517799579535
 97
        0
 75
     0
 76
     1
 52
0.0
 41
2.0
 77
     0
 78
     1
 53
45.0
 43
0.0
 44
0.0
 45
-4.490128060534577
 46
4.490128060534577
 79
     0
 98
        1
 10
0.0
 20
0.0
  0
HATCH
  5
1D4
330
1F
100
AcDbEntity
  8
0
  6
SLD-Durchgehend
 62
     7
370
    18
100
AcDbHatch
 10
0.0
 20
0.0
 30
0.0
210
0.0
220
0.0
230
1.0
  2
ANSI31
 70
     0
 71
     0
 91
        1
 92
        0
 93
       23
 72
     1
 10
388.714828311142
 20
404.4517799579533
 11
388.714828311142
 21
350.4517799579535
 72
     1
 10
388.714828311142
 20
350.4517799579535
 11
390.9109807338486
 21
350.4517799579535
 72
     1
 10
390.9109807338486
 20
350.4517799579535
 11
391.714828311142
 21
353.4517799579536
 72
     1
 10
391.714828311142
 20
353.4517799579536
 11
391.714828311142
 21
404.4517799579533
 72
     1
 10
391.714828311142
 20
404.4517799579533
 11
408.7858961230075
 21
421.522847769819
 72
     2
 10
401.714828311142
 20
428.5939155816844
 40
10.0
 50
315.0000000000011
 51
360.0000000000008
 73
     1
 72
     1
 10
411.714828311142
 20
428.5939155816844
 11
411.714828311142
 21
488.4517799579535
 72
     1
 10
411.714828311142
 20
488.4517799579535
 11
418.714828311142
 21
500.4517799579535
 72
     1
 10
418.714828311142
 20
500.4517799579535
 11
419.714828311142
 21
500.4517799579535
 72
     2
 10
419.714828311142
 20
500.9517799579535
 40
0.5
 50
270.0000000000008
 51
360.0000000000008
 73
     1
 72
     1
 10
420.214828311142
 20
500.9517799579535
 11
420.214828311142
 21
504.4517799579535
 72
     1
 10
420.214828311142
 20
504.4517799579535
 11
419.464828311142
 21
504.4517799579535
 72
     1
 10
419.464828311142
 20
504.4517799579535
 11
419.464828311142
 21
504.0580809720869
 72
     1
 10
419.464828311142
 20
504.0580809720869
 11
417.464828311142
 21
504.0580809720869
 72
     1
 10
417.464828311142
 20
504.0580809720869
 11
417.464828311142
 21
504.4517799579535
 72
     1
 10
417.464828311142
 20
504.4517799579535
 11
416.714828311142
 21
504.4517799579535
 72
     1
 10
416.714828311142
 20
504.4517799579535
 11
416.714828311142
 21
502.9517799579535
 72
     1
 10
416.714828311142
 20
502.9517799579535
 11
410.6148283111419
 21
502.9517799579535
 72
     1
 10
410.6148283111419
 20
502.9517799579535
 11
408.614828311142
 21
500.9517799579536
 72
     1
 10
408.614828311142
 20
500.9517799579536
 11
408.614828311142
 21
428.4939155816844
 72
     2
 10
401.614828311142
 20
428.4939155816844
 40
7.0
 50
0.0
 51
44.99999999999967
 73
     0
 72
     1
 10
406.5645757794479
 20
423.5441681133786
 11
389.5935079675824
 21
406.5731003015129
 72
     2
 10
391.714828311142
 20
404.4517799579533
 40
3.0
 50
135.0000000000008
 51
180.0
 73
     1
 97
        0
 75
     0
 76
     1
 52
0.0
 41
2.0
 77
     0
 78
     1
 53
45.0
 43
0.0
 44
0.0
 45
-4.490128060534577
 46
4.490128060534577
 79
     0
 98
        1
 10
0.0
 20
0.0
  0
DIMENSION
  5
1D5
330
1F
100
AcDbEntity
  8
0
  6
SLD-Durchgehend
 62
     7
370
    18
100
AcDbDimension
280
     0
  2
_D
 10
300.5418873512
 20
516.251779958
 30
0.0
 11
300.5418873512
 21
533.3201186902
 31
0.0
 70
   160
  1
<>
 71
     2
 42
-1.0
 73
     0
 74
     0
 75
     0
  3
SLDDIMSTYLE0
100
AcDbAlignedDimension
 13
316.8280763111
 23
511.951779958
 33
0.0
 14
315.2148283111
 24
516.251779958
 34
0.0
 50
90.0
100
AcDbRotatedDimension
  0
DIMENSION
  5
1E3
330
1F
100
AcDbEntity
  8
0
  6
SLD-Durchgehend
 62
     7
370
    18
100
AcDbDimension
280
     0
  2
_D_1
 10
308.0226404237
 20
440.951779958
 30
0.0
 11
308.0226404237
 21
462.5204643836
 31
0.0
 70
   160
  1
<>
 71
     2
 42
-1.0
 73
     0
 74
     0
 75
     0
  3
SLDDIMSTYLE1
100
AcDbAlignedDimension
 13
337.7148283111
 23
489.951779958
 33
0.0
 14
347.7148283111
 24
440.951779958
 34
0.0
 50
90.0
100
AcDbRotatedDimension
  0
DIMENSION
  5
1EE
330
1F
100
AcDbEntity
  8
0
  6
SLD-Durchgehend
 62
     7
370
    18
100
AcDbDimension
280
     0
  2
_D_2
 10
422.4148283111
 20
533.3201186902
 30
0.0
 11
359.7630309378
 21
533.3201186902
 31
0.0
 70
   160
  1
<>
 71
     2
 42
-1.0
 73
     0
 74
     0
 75
     0
  3
SLDDIMSTYLE2
100
AcDbAlignedDimension
 13
311.0148283111
 23
518.751779958
 33
0.0
 14
422.4148283111
 24
518.751779958
 34
0.0
100
AcDbRotatedDimension
  0
DIMENSION
  5
1F9
330
1F
100
AcDbEntity
  8
0
  6
SLD-Durchgehend
 62
     7
370
    18
100
AcDbDimension
280
     0
  2
_D_3
 10
391.7148283111
 20
335.9011227526
 30
0.0
 11
418.7682775739
 21
335.9011227526
 31
0.0
 70
   160
  1
<>
 71
     2
 42
-1.0
 73
     0
 74
     0
 75
     0
  3
SLDDIMSTYLE1
100
AcDbAlignedDimension
 13
341.7148283111
 23
353.451779958
 33
0.0
 14
391.7148283111
 24
353.451779958
 34
0.0
100
AcDbRotatedDimension
  0
DIMENSION
  5
204
330
1F
100
AcDbEntity
  8
0
  6
SLD-Durchgehend
 62
     7
370
    18
100
AcDbDimension
280
     0
  2
_D_4
 10
411.7148283111
 20
306.451779958
 30
0.0
 11
366.6660145813
 21
306.451779958
 31
0.0
 70
   160
  1
%%c<>
 71
     2
 42
-1.0
 73
     0
 74
     0
 75
     0
  3
SLDDIMSTYLE1
100
AcDbAlignedDimension
 13
321.7148283111
 23
428.5939155817
 33
0.0
 14
411.7148283111
 24
428.5939155817
 34
0.0
 50
0.0
100
AcDbRotatedDimension
  0
DIMENSION
  5
20F
330
1F
100
AcDbEntity
  8
0
  6
SLD-Durchgehend
 62
     7
370
    18
100
AcDbDimension
280
     0
  2
_D_5
 10
281.732796631
 20
350.451779958
 30
0.0
 11
281.732796631
 21
425.9367774
 31
0.0
 70
   160
  1
<>
 71
     2
 42
-1.0
 73
     0
 74
     0
 75
     0
  3
SLDDIMSTYLE2
100
AcDbAlignedDimension
 13
316.8280763111
 23
511.951779958
 33
0.0
 14
344.7148283111
 24
350.451779958
 34
0.0
 50
90.0
100
AcDbRotatedDimension
  0
LINE
  5
219
330
1F
100
AcDbEntity
  8
0
  6
SLD-Punktstrich
 62
     7
370
    18
100
AcDbLine
 10
366.7148283111
 20
346.451779958
 30
0.0
 11
366.7148283111
 21
518.6795985336
 31
0.0
  0
ENDSEC
  0
SECTION
  2
OBJECTS
  0
DICTIONARY
  5
C
330
0
100
AcDbDictionary
281
     1
  3
ACAD_DETAILVIEWSTYLE
350
221
  3
ACAD_GROUP
350
D
  3
ACAD_LAYOUT
350
1A
  3
ACAD_MATERIAL
350
43
  3
ACAD_MLEADERSTYLE
350
6B
  3
ACAD_MLINESTYLE
350
17
  3
ACAD_PLOTSETTINGS
350
19
  3
ACAD_PLOTSTYLENAME
350
E
  3
ACAD_SCALELIST
350
47
  3
ACAD_SECTIONVIEWSTYLE
350
222
  3
ACAD_TABLESTYLE
350
69
  3
ACAD_VISUALSTYLE
350
2A
  3
ACDB_RECOMPOSE_DATA
350
21E
  3
AcDbVariableDictionary
350
21A
  0
SUN
  5
6D
330
29
100
AcDbSun
 90
        1
290
     0
 63
     7
421
 16777215
 40
1.0
291
     1
 91
  2455826
 92
 54000000
292
     0
 70
     2
 71
   256
280
     1
  0
DICTIONARY
  5
221
102
{ACAD_REACTORS
330
C
102
}
330
C
100
AcDbDictionary
281
     1
  0
DICTIONARY
  5
D
102
{ACAD_REACTORS
330
C
102
}
330
C
100
AcDbDictionary
281
     1
  0
DICTIONARY
  5
1A
102
{ACAD_REACTORS
330
C
102
}
330
C
100
AcDbDictionary
281
     1
  3
Layout1
350
1E
  3
Layout2
350
26
  3
Model
350
22
  0
DICTIONARY
  5
43
102
{ACAD_REACTORS
330
C
102
}
330
C
100
AcDbDictionary
281
     1
  3
ByBlock
350
45
  3
ByLayer
350
44
  3
Global
350
46
  0
DICTIONARY
  5
6B
102
{ACAD_REACTORS
330
C
102
}
330
C
100
AcDbDictionary
281
     1
  3
Standard
350
6C
  0
DICTIONARY
  5
17
102
{ACAD_REACTORS
330
C
102
}
330
C
100
AcDbDictionary
281
     1
  3
Standard
350
18
  0
DICTIONARY
  5
19
102
{ACAD_REACTORS
330
C
102
}
330
C
100
AcDbDictionary
281
     1
  0
ACDBDICTIONARYWDFLT
  5
E
102
{ACAD_REACTORS
330
C
102
}
330
C
100
AcDbDictionary
281
     1
  3
Normal
350
F
100
AcDbDictionaryWithDefault
340
F
  0
DICTIONARY
  5
47
102
{ACAD_REACTORS
330
C
102
}
330
C
100
AcDbDictionary
281
     1
  3
A0
350
48
  3
A1
350
49
  3
A2
350
4A
  3
A3
350
4B
  3
A4
350
4C
  3
A5
350
4D
  3
A6
350
4E
  3
A7
350
4F
  3
A8
350
50
  3
A9
350
51
  3
B0
350
52
  3
B1
350
53
  3
B2
350
54
  3
B3
350
55
  3
B4
350
56
  3
B5
350
57
  3
B6
350
58
  3
B7
350
59
  3
B8
350
5A
  3
B9
350
5B
  3
C0
350
5C
  3
C1
350
5D
  3
C2
350
5E
  3
C3
350
5F
  3
C4
350
60
  3
C5
350
61
  3
C6
350
62
  3
C7
350
63
  3
C8
350
64
  3
C9
350
65
  3
D0
350
66
  3
D1
350
67
  3
D2
350
68
  0
DICTIONARY
  5
222
102
{ACAD_REACTORS
330
C
102
}
330
C
100
AcDbDictionary
281
     1
  0
DICTIONARY
  5
69
102
{ACAD_REACTORS
330
C
102
}
330
C
100
AcDbDictionary
281
     1
  3
Standard
350
6A
  0
DICTIONARY
  5
2A
102
{ACAD_REACTORS
330
C
102
}
330
C
100
AcDbDictionary
281
     1
  3
2dWireframe
350
2F
  3
Basic
350
32
  3
Brighten
350
36
  3
ColorChange
350
3A
  3
Conceptual
350
34
  3
Dim
350
35
  3
EdgeColorOff
350
3D
  3
Facepattern
350
39
  3
Flat
350
2B
  3
FlatWithEdges
350
2C
  3
Gouraud
350
2D
  3
GouraudWithEdges
350
2E
  3
Hidden
350
31
  3
JitterOff
350
3B
  3
Linepattern
350
38
  3
OverhangOff
350
3C
  3
Realistic
350
33
  3
Shaded
350
42
  3
Shaded with edges
350
41
  3
Shades of Gray
350
3E
  3
Sketchy
350
3F
  3
Thicken
350
37
  3
Wireframe
350
30
  3
X-Ray
350
40
  0
XRECORD
  5
21E
102
{ACAD_REACTORS
330
C
102
}
330
C
100
AcDbXrecord
280
     1
 90
        1
330
6A
  0
DICTIONARY
  5
21A
102
{ACAD_REACTORS
330
C
102
}
330
C
100
AcDbDictionary
281
     1
  3
CANNOSCALE
350
21B
  3
CMLEADERSTYLE
350
220
  3
CTABLESTYLE
350
21F
  3
SECTIONTHICKNESSINC
350
223
  0
LAYOUT
  5
1E
102
{ACAD_REACTORS
330
1A
102
}
330
1A
100
AcDbPlotSettings
  1

  2
none_device
  4

  6

 40
0.0
 41
0.0
 42
0.0
 43
0.0
 44
0.0
 45
0.0
 46
0.0
 47
0.0
 48
0.0
 49
0.0
140
0.0
141
0.0
142
1.0
143
1.0
 70
   688
 72
     1
 73
     0
 74
     5
  7

 75
    16
 76
     0
 77
     2
 78
   300
147
1.0
148
0.0
149
0.0
100
AcDbLayout
  1
Layout1
 70
     1
 71
     1
 10
0.0
 20
0.0
 11
420.0
 21
297.0
 12
0.0
 22
0.0
 32
0.0
 14
1.0000000000E+20
 24
1.0000000000E+20
 34
1.0000000000E+20
 15
-1.0000000000E+20
 25
-1.0000000000E+20
 35
-1.0000000000E+20
146
0.0
 13
0.0
 23
0.0
 33
0.0
 16
1.0
 26
0.0
 36
0.0
 17
0.0
 27
1.0
 37
0.0
 76
     0
330
1B
  0
LAYOUT
  5
26
102
{ACAD_REACTORS
330
1A
102
}
330
1A
100
AcDbPlotSettings
  1

  2
none_device
  4

  6

 40
0.0
 41
0.0
 42
0.0
 43
0.0
 44
0.0
 45
0.0
 46
0.0
 47
0.0
 48
0.0
 49
0.0
140
0.0
141
0.0
142
1.0
143
1.0
 70
   688
 72
     1
 73
     0
 74
     5
  7

 75
    16
 76
     0
 77
     2
 78
   300
147
1.0
148
0.0
149
0.0
100
AcDbLayout
  1
Layout2
 70
     1
 71
     2
 10
0.0
 20
0.0
 11
0.0
 21
0.0
 12
0.0
 22
0.0
 32
0.0
 14
0.0
 24
0.0
 34
0.0
 15
0.0
 25
0.0
 35
0.0
146
0.0
 13
0.0
 23
0.0
 33
0.0
 16
1.0
 26
0.0
 36
0.0
 17
0.0
 27
1.0
 37
0.0
 76
     0
330
23
  0
LAYOUT
  5
22
102
{ACAD_REACTORS
330
1A
102
}
330
1A
100
AcDbPlotSettings
  1

  2
none_device
  4
Letter_(8.50_x_11.00_Inches)
  6

 40
6.35
 41
6.35
 42
6.35000508
 43
6.35000508
 44
215.9
 45
279.4
 46
0.0
 47
0.0
 48
0.0
 49
0.0
140
0.0
141
0.0
142
1.0
143
1.0
 70
  1712
 72
     1
 73
     0
 74
     0
  7

 75
     0
 76
     0
 77
     2
 78
   300
147
1.0
148
0.0
149
0.0
100
AcDbLayout
  1
Model
 70
     1
 71
     0
 10
0.0
 20
0.0
 11
840.0
 21
594.0
 12
0.0
 22
0.0
 32
0.0
 14
0.0
 24
0.0
 34
0.0
 15
840.0
 25
594.0
 35
0.0
146
0.0
 13
0.0
 23
0.0
 33
0.0
 16
1.0
 26
0.0
 36
0.0
 17
0.0
 27
1.0
 37
0.0
 76
     0
330
1F
331
29
  0
MATERIAL
  5
45
102
{ACAD_REACTORS
330
43
102
}
330
43
100
AcDbMaterial
  1
ByBlock
 72
     1
 94
      127
  0
MATERIAL
  5
44
102
{ACAD_REACTORS
330
43
102
}
330
43
100
AcDbMaterial
  1
ByLayer
 72
     1
 94
      127
  0
MATERIAL
  5
46
102
{ACAD_REACTORS
330
43
102
}
330
43
100
AcDbMaterial
  1
Global
 72
     1
 94
      127
  0
MLEADERSTYLE
  5
6C
102
{ACAD_REACTORS
330
6B
102
}
330
6B
100
AcDbMLeaderStyle
179
     2
170
     2
171
     1
172
     0
 90
        2
 40
0.0
 41
0.0
173
     1
 91
-1056964608
340
14
 92
       -2
290
     1
 42
2.0
291
     1
 43
8.0
  3
Standard
341
0
 44
4.0
300

342
11
174
     1
178
     6
175
     1
176
     0
 93
-1056964608
 45
4.0
292
     0
297
     0
 46
4.0
343
0
 94
-1056964608
 47
1.0
 49
1.0
140
1.0
293
     1
141
0.0
294
     1
177
     0
142
1.0
295
     0
296
     0
143
3.75
271
     0
272
     9
273
     9
298
     0
  0
MLINESTYLE
  5
18
102
{ACAD_REACTORS
330
17
102
}
330
17
100
AcDbMlineStyle
  2
Standard
 70
     0
  3

 62
   256
 51
90.0
 52
90.0
 71
     2
 49
0.5
 62
   256
  6
BYLAYER
 49
-0.5
 62
   256
  6
BYLAYER
  0
ACDBPLACEHOLDER
  5
F
102
{ACAD_REACTORS
330
E
102
}
330
E
  0
SCALE
  5
48
102
{ACAD_REACTORS
330
47
102
}
330
47
100
AcDbScale
 70
     0
300
1:1
140
1.0
141
1.0
290
     1
  0
SCALE
  5
49
102
{ACAD_REACTORS
330
47
102
}
330
47
100
AcDbScale
 70
     0
300
1:2
140
1.0
141
2.0
290
     0
  0
SCALE
  5
4A
102
{ACAD_REACTORS
330
47
102
}
330
47
100
AcDbScale
 70
     0
300
1:4
140
1.0
141
4.0
290
     0
  0
SCALE
  5
4B
102
{ACAD_REACTORS
330
47
102
}
330
47
100
AcDbScale
 70
     0
300
1:5
140
1.0
141
5.0
290
     0
  0
SCALE
  5
4C
102
{ACAD_REACTORS
330
47
102
}
330
47
100
AcDbScale
 70
     0
300
1:8
140
1.0
141
8.0
290
     0
  0
SCALE
  5
4D
102
{ACAD_REACTORS
330
47
102
}
330
47
100
AcDbScale
 70
     0
300
1:10
140
1.0
141
10.0
290
     0
  0
SCALE
  5
4E
102
{ACAD_REACTORS
330
47
102
}
330
47
100
AcDbScale
 70
     0
300
1:16
140
1.0
141
16.0
290
     0
  0
SCALE
  5
4F
102
{ACAD_REACTORS
330
47
102
}
330
47
100
AcDbScale
 70
     0
300
1:20
140
1.0
141
20.0
290
     0
  0
SCALE
  5
50
102
{ACAD_REACTORS
330
47
102
}
330
47
100
AcDbScale
 70
     0
300
1:30
140
1.0
141
30.0
290
     0
  0
SCALE
  5
51
102
{ACAD_REACTORS
330
47
102
}
330
47
100
AcDbScale
 70
     0
300
1:40
140
1.0
141
40.0
290
     0
  0
SCALE
  5
52
102
{ACAD_REACTORS
330
47
102
}
330
47
100
AcDbScale
 70
     0
300
1:50
140
1.0
141
50.0
290
     0
  0
SCALE
  5
53
102
{ACAD_REACTORS
330
47
102
}
330
47
100
AcDbScale
 70
     0
300
1:100
140
1.0
141
100.0
290
     0
  0
SCALE
  5
54
102
{ACAD_REACTORS
330
47
102
}
330
47
100
AcDbScale
 70
     0
300
2:1
140
2.0
141
1.0
290
     0
  0
SCALE
  5
55
102
{ACAD_REACTORS
330
47
102
}
330
47
100
AcDbScale
 70
     0
300
4:1
140
4.0
141
1.0
290
     0
  0
SCALE
  5
56
102
{ACAD_REACTORS
330
47
102
}
330
47
100
AcDbScale
 70
     0
300
8:1
140
8.0
141
1.0
290
     0
  0
SCALE
  5
57
102
{ACAD_REACTORS
330
47
102
}
330
47
100
AcDbScale
 70
     0
300
10:1
140
10.0
141
1.0
290
     0
  0
SCALE
  5
58
102
{ACAD_REACTORS
330
47
102
}
330
47
100
AcDbScale
 70
     0
300
100:1
140
100.0
141
1.0
290
     0
  0
SCALE
  5
59
102
{ACAD_REACTORS
330
47
102
}
330
47
100
AcDbScale
 70
     0
300
1/128" = 1'-0"
140
0.0078125
141
12.0
290
     0
  0
SCALE
  5
5A
102
{ACAD_REACTORS
330
47
102
}
330
47
100
AcDbScale
 70
     0
300
1/64" = 1'-0"
140
0.015625
141
12.0
290
     0
  0
SCALE
  5
5B
102
{ACAD_REACTORS
330
47
102
}
330
47
100
AcDbScale
 70
     0
300
1/32" = 1'-0"
140
0.03125
141
12.0
290
     0
  0
SCALE
  5
5C
102
{ACAD_REACTORS
330
47
102
}
330
47
100
AcDbScale
 70
     0
300
1/16" = 1'-0"
140
0.0625
141
12.0
290
     0
  0
SCALE
  5
5D
102
{ACAD_REACTORS
330
47
102
}
330
47
100
AcDbScale
 70
     0
300
3/32" = 1'-0"
140
0.09375
141
12.0
290
     0
  0
SCALE
  5
5E
102
{ACAD_REACTORS
330
47
102
}
330
47
100
AcDbScale
 70
     0
300
1/8" = 1'-0"
140
0.125
141
12.0
290
     0
  0
SCALE
  5
5F
102
{ACAD_REACTORS
330
47
102
}
330
47
100
AcDbScale
 70
     0
300
3/16" = 1'-0"
140
0.1875
141
12.0
290
     0
  0
SCALE
  5
60
102
{ACAD_REACTORS
330
47
102
}
330
47
100
AcDbScale
 70
     0
300
1/4" = 1'-0"
140
0.25
141
12.0
290
     0
  0
SCALE
  5
61
102
{ACAD_REACTORS
330
47
102
}
330
47
100
AcDbScale
 70
     0
300
3/8" = 1'-0"
140
0.375
141
12.0
290
     0
  0
SCALE
  5
62
102
{ACAD_REACTORS
330
47
102
}
330
47
100
AcDbScale
 70
     0
300
1/2" = 1'-0"
140
0.5
141
12.0
290
     0
  0
SCALE
  5
63
102
{ACAD_REACTORS
330
47
102
}
330
47
100
AcDbScale
 70
     0
300
3/4" = 1'-0"
140
0.75
141
12.0
290
     0
  0
SCALE
  5
64
102
{ACAD_REACTORS
330
47
102
}
330
47
100
AcDbScale
 70
     0
300
1" = 1'-0"
140
1.0
141
12.0
290
     0
  0
SCALE
  5
65
102
{ACAD_REACTORS
330
47
102
}
330
47
100
AcDbScale
 70
     0
300
1-1/2" = 1'-0"
140
1.5
141
12.0
290
     0
  0
SCALE
  5
66
102
{ACAD_REACTORS
330
47
102
}
330
47
100
AcDbScale
 70
     0
300
3" = 1'-0"
140
3.0
141
12.0
290
     0
  0
SCALE
  5
67
102
{ACAD_REACTORS
330
47
102
}
330
47
100
AcDbScale
 70
     0
300
6" = 1'-0"
140
6.0
141
12.0
290
     0
  0
SCALE
  5
68
102
{ACAD_REACTORS
330
47
102
}
330
47
100
AcDbScale
 70
     0
300
1'-0" = 1'-0"
140
12.0
141
12.0
290
     0
  0
TABLESTYLE
  5
6A
102
{ACAD_REACTORS
330
69
102
}
102
{ACAD_XDICTIONARY
360
21C
102
}
330
69
100
AcDbTableStyle
  3
Standard
 70
     0
 71
     0
 40
0.06
 41
0.06
280
     0
281
     0
  7
Standard
140
4.5
170
     2
 62
     0
 63
   257
283
     0
 90
        4
 91
        0
  1

274
    -2
284
     1
 64
     0
275
    -2
285
     1
 65
     0
276
    -2
286
     1
 66
     0
277
    -2
287
     1
 67
     0
278
    -2
288
     1
 68
     0
279
    -2
289
     1
 69
     0
  7
Standard
140
6.0
170
     5
 62
     0
 63
   257
283
     0
 90
        4
 91
        0
  1

274
    -2
284
     1
 64
     0
275
    -2
285
     1
 65
     0
276
    -2
286
     1
 66
     0
277
    -2
287
     1
 67
     0
278
    -2
288
     1
 68
     0
279
    -2
289
     1
 69
     0
  7
Standard
140
4.5
170
     5
 62
     0
 63
   257
283
     0
 90
        4
 91
        0
  1

274
    -2
284
     1
 64
     0
275
    -2
285
     1
 65
     0
276
    -2
286
     1
 66
     0
277
    -2
287
     1
 67
     0
278
    -2
288
     1
 68
     0
279
    -2
289
     1
 69
     0
  0
VISUALSTYLE
  5
2F
102
{ACAD_REACTORS
330
2A
102
}
330
2A
100
AcDbVisualStyle
  2
2dWireframe
 70
     4
177
     3
291
     0
 70
    58
 90
        0
176
     1
 90
        2
176
     1
 90
        0
176
     1
 90
        0
176
     1
 40
0.6
176
     1
 40
30.0
176
     1
 62
     7
420
 16777215
176
     1
 90
        1
176
     1
 90
        4
176
     1
 62
     7
176
     1
 62
   257
176
     1
 90
        1
176
     1
 90
        1
176
     1
 40
1.0
176
     1
 90
        0
176
     1
 62
   257
176
     1
 40
1.0
176
     1
 90
        1
176
     1
 90
        6
176
     1
 90
        2
176
     1
 62
     7
176
     1
 90
        5
176
     1
 90
        0
176
     1
 90
        0
176
     1
290
     0
176
     1
 90
        1
176
     1
 40
0.0
176
     1
 90
        0
176
     1
290
     1
176
     1
290
     1
176
     1
290
     0
176
     1
290
     0
176
     1
290
     0
176
     1
290
     0
176
     1
290
     0
176
     1
290
     0
176
     1
290
     0
176
     1
 90
       50
176
     1
 40
0.0
176
     1
 40
1.0
176
     1
 90
        0
176
     1
 62
    18
420
        0
176
     1
 90
       50
176
     1
 90
        3
176
     1
 62
     5
420
      255
176
     1
290
     0
176
     1
 90
       50
176
     1
 90
       50
176
     1
 90
       50
176
     1
290
     0
176
     1
 90
       50
176
     1
 62
   256
176
     0
 40
1.0
176
     0
 90
        2
176
     1
  1
strokes_ogs.tif
176
     1
290
     0
176
     1
 40
1.0
176
     1
 40
1.0
176
     1
  0
VISUALSTYLE
  5
32
102
{ACAD_REACTORS
330
2A
102
}
330
2A
100
AcDbVisualStyle
  2
Basic
 70
     7
177
     3
291
     1
 70
    58
 90
        1
176
     1
 90
        0
176
     1
 90
        1
176
     1
 90
        0
176
     1
 40
0.6
176
     1
 40
30.0
176
     1
 62
     7
420
 16777215
176
     1
 90
        0
176
     1
 90
        4
176
     1
 62
     7
176
     1
 62
   257
176
     1
 90
        1
176
     1
 90
        1
176
     1
 40
1.0
176
     1
 90
        8
176
     1
 62
     7
176
     1
 40
1.0
176
     1
 90
        1
176
     1
 90
        6
176
     1
 90
        2
176
     1
 62
     7
176
     1
 90
        5
176
     1
 90
        0
176
     1
 90
        0
176
     1
290
     0
176
     1
 90
        1
176
     1
 40
0.0
176
     1
 90
        0
176
     1
290
     0
176
     1
290
     1
176
     1
290
     1
176
     1
290
     0
176
     1
290
     0
176
     1
290
     0
176
     1
290
     0
176
     1
290
     0
176
     1
290
     0
176
     1
 90
       50
176
     1
 40
0.0
176
     1
 40
1.0
176
     1
 90
        0
176
     1
 62
    18
420
        0
176
     1
 90
       50
176
     1
 90
        3
176
     1
 62
     5
420
      255
176
     1
290
     0
176
     1
 90
       50
176
     1
 90
       50
176
     1
 90
       50
176
     1
290
     0
176
     1
 90
       50
176
     1
 62
   256
176
     0
 40
1.0
176
     0
 90
        2
176
     1
  1
strokes_ogs.tif
176
     1
290
     0
176
     1
 40
1.0
176
     1
 40
1.0
176
     1
  0
VISUALSTYLE
  5
36
102
{ACAD_REACTORS
330
2A
102
}
330
2A
100
AcDbVisualStyle
  2
Brighten
 70
    12
177
     3
291
     1
 70
    58
 90
        2
176
     1
 90
        2
176
     1
 90
        0
176
     1
 90
        0
176
     1
 40
0.6
176
     1
 40
30.0
176
     1
 62
     7
420
 16777215
176
     1
 90
        1
176
     1
 90
        4
176
     1
 62
     7
176
     1
 62
   257
176
     1
 90
        1
176
     1
 90
        1
176
     1
 40
1.0
176
     1
 90
        8
176
     1
 62
     7
176
     1
 40
1.0
176
     1
 90
        1
176
     1
 90
        6
176
     1
 90
        2
176
     1
 62
     7
176
     1
 90
        5
176
     1
 90
        0
176
     1
 90
        0
176
     1
290
     0
176
     1
 90
        1
176
     1
 40
50.0
176
     1
 90
        0
176
     1
290
     0
176
     1
290
     1
176
     1
290
     1
176
     1
290
     0
176
     1
290
     0
176
     1
290
     0
176
     1
290
     0
176
     1
290
     0
176
     1
290
     0
176
     1
 90
       50
176
     1
 40
0.0
176
     1
 40
1.0
176
     1
 90
        0
176
     1
 62
    18
420
        0
176
     1
 90
       50
176
     1
 90
        3
176
     1
 62
     5
420
      255
176
     1
290
     0
176
     1
 90
       50
176
     1
 90
       50
176
     1
 90
       50
176
     1
290
     0
176
     1
 90
       50
176
     1
 62
   256
176
     0
 40
1.0
176
     0
 90
        2
176
     1
  1
strokes_ogs.tif
176
     1
290
     0
176
     1
 40
1.0
176
     1
 40
1.0
176
     1
  0
VISUALSTYLE
  5
3A
102
{ACAD_REACTORS
330
2A
102
}
330
2A
100
AcDbVisualStyle
  2
ColorChange
 70
    16
177
     3
291
     1
 70
    58
 90
        2
176
     1
 90
        2
176
     1
 90
        3
176
     1
 90
        0
176
     1
 40
0.6
176
     1
 40
30.0
176
     1
 62
     8
420
  8421504
176
     1
 90
        1
176
     1
 90
        4
176
     1
 62
     7
176
     1
 62
   257
176
     1
 90
        1
176
     1
 90
        1
176
     1
 40
1.0
176
     1
 90
        8
176
     1
 62
     8
420
  8421504
176
     1
 40
1.0
176
     1
 90
        1
176
     1
 90
        6
176
     1
 90
        2
176
     1
 62
     7
176
     1
 90
        5
176
     1
 90
        0
176
     1
 90
        0
176
     1
290
     0
176
     1
 90
        1
176
     1
 40
0.0
176
     1
 90
        0
176
     1
290
     0
176
     1
290
     1
176
     1
290
     1
176
     1
290
     0
176
     1
290
     0
176
     1
290
     0
176
     1
290
     0
176
     1
290
     0
176
     1
290
     0
176
     1
 90
       50
176
     1
 40
0.0
176
     1
 40
1.0
176
     1
 90
        0
176
     1
 62
    18
420
        0
176
     1
 90
       50
176
     1
 90
        3
176
     1
 62
     5
420
      255
176
     1
290
     0
176
     1
 90
       50
176
     1
 90
       50
176
     1
 90
       50
176
     1
290
     0
176
     1
 90
       50
176
     1
 62
   256
176
     0
 40
1.0
176
     0
 90
        2
176
     1
  1
strokes_ogs.tif
176
     1
290
     0
176
     1
 40
1.0
176
     1
 40
1.0
176
     1
  0
VISUALSTYLE
  5
34
102
{ACAD_REACTORS
330
2A
102
}
330
2A
100
AcDbVisualStyle
  2
Conceptual
 70
     9
177
     3
291
     0
 70
    58
 90
        3
176
     1
 90
        2
176
     1
 90
        0
176
     1
 90
        0
176
     1
 40
0.6
176
     1
 40
30.0
176
     1
 62
     7
420
 16777215
176
     1
 90
        2
176
     1
 90
        2
176
     1
 62
     7
176
     1
 62
   257
176
     1
 90
        1
176
     1
 90
        1
176
     1
 40
179.0
176
     1
 90
        8
176
     1
 62
     7
176
     1
 40
1.0
176
     1
 90
        1
176
     1
 90
        6
176
     1
 90
        2
176
     1
 62
     7
176
     1
 90
        3
176
     1
 90
        0
176
     1
 90
        0
176
     1
290
     0
176
     1
 90
        1
176
     1
 40
0.0
176
     1
 90
        0
176
     1
290
     0
176
     1
290
     1
176
     1
290
     1
176
     1
290
     0
176
     1
290
     0
176
     1
290
     0
176
     1
290
     0
176
     1
290
     0
176
     1
290
     0
176
     1
 90
       50
176
     1
 40
0.0
176
     1
 40
1.0
176
     1
 90
        0
176
     1
 62
    18
420
        0
176
     1
 90
       50
176
     1
 90
        3
176
     1
 62
     5
420
      255
176
     1
290
     0
176
     1
 90
       50
176
     1
 90
       50
176
     1
 90
       50
176
     1
290
     0
176
     1
 90
       50
176
     1
 62
   256
176
     0
 40
1.0
176
     0
 90
        2
176
     1
  1
strokes_ogs.tif
176
     1
290
     0
176
     1
 40
1.0
176
     1
 40
1.0
176
     1
  0
VISUALSTYLE
  5
35
102
{ACAD_REACTORS
330
2A
102
}
330
2A
100
AcDbVisualStyle
  2
Dim
 70
    11
177
     3
291
     1
 70
    58
 90
        2
176
     1
 90
        2
176
     1
 90
        0
176
     1
 90
        0
176
     1
 40
0.6
176
     1
 40
30.0
176
     1
 62
     7
420
 16777215
176
     1
 90
        1
176
     1
 90
        4
176
     1
 62
     7
176
     1
 62
   257
176
     1
 90
        1
176
     1
 90
        1
176
     1
 40
1.0
176
     1
 90
        8
176
     1
 62
     7
176
     1
 40
1.0
176
     1
 90
        1
176
     1
 90
        6
176
     1
 90
        2
176
     1
 62
     7
176
     1
 90
        5
176
     1
 90
        0
176
     1
 90
        0
176
     1
290
     0
176
     1
 90
        1
176
     1
 40
-50.0
176
     1
 90
        0
176
     1
290
     0
176
     1
290
     1
176
     1
290
     1
176
     1
290
     0
176
     1
290
     0
176
     1
290
     0
176
     1
290
     0
176
     1
290
     0
176
     1
290
     0
176
     1
 90
       50
176
     1
 40
0.0
176
     1
 40
1.0
176
     1
 90
        0
176
     1
 62
    18
420
        0
176
     1
 90
       50
176
     1
 90
        3
176
     1
 62
     5
420
      255
176
     1
290
     0
176
     1
 90
       50
176
     1
 90
       50
176
     1
 90
       50
176
     1
290
     0
176
     1
 90
       50
176
     1
 62
   256
176
     0
 40
1.0
176
     0
 90
        2
176
     1
  1
strokes_ogs.tif
176
     1
290
     0
176
     1
 40
1.0
176
     1
 40
1.0
176
     1
  0
VISUALSTYLE
  5
3D
102
{ACAD_REACTORS
330
2A
102
}
330
2A
100
AcDbVisualStyle
  2
EdgeColorOff
 70
    22
177
     3
291
     1
 70
    58
 90
        2
176
     0
 90
        2
176
     0
 90
        0
176
     0
 90
        0
176
     0
 40
0.6
176
     0
 40
30.0
176
     0
 62
     7
420
 16777215
176
     0
 90
        1
176
     0
 90
        4
176
     0
 62
     7
176
     0
 62
   257
176
     0
 90
        1
176
     0
 90
        1
176
     0
 40
1.0
176
     0
 90
        8
176
     2
 62
     7
176
     0
 40
1.0
176
     0
 90
        1
176
     0
 90
        6
176
     0
 90
        2
176
     0
 62
     7
176
     0
 90
        5
176
     0
 90
        0
176
     0
 90
        0
176
     0
290
     0
176
     0
 90
        1
176
     0
 40
0.0
176
     0
 90
        0
176
     0
290
     0
176
     0
290
     1
176
     0
290
     1
176
     0
290
     0
176
     0
290
     0
176
     0
290
     0
176
     0
290
     0
176
     0
290
     0
176
     0
290
     0
176
     0
 90
       50
176
     0
 40
0.0
176
     0
 40
1.0
176
     0
 90
        0
176
     0
 62
    18
420
        0
176
     0
 90
       50
176
     0
 90
        3
176
     0
 62
     5
420
      255
176
     0
290
     0
176
     0
 90
       50
176
     0
 90
       50
176
     0
 90
       50
176
     0
290
     0
176
     0
 90
       50
176
     0
 62
   256
176
     0
 40
1.0
176
     0
 90
        2
176
     0
  1
strokes_ogs.tif
176
     0
290
     0
176
     0
 40
1.0
176
     0
 40
1.0
176
     0
  0
VISUALSTYLE
  5
39
102
{ACAD_REACTORS
330
2A
102
}
330
2A
100
AcDbVisualStyle
  2
Facepattern
 70
    15
177
     3
291
     1
 70
    58
 90
        2
176
     1
 90
        2
176
     1
 90
        0
176
     1
 90
        0
176
     1
 40
0.6
176
     1
 40
30.0
176
     1
 62
     7
420
 16777215
176
     1
 90
        1
176
     1
 90
        4
176
     1
 62
     7
176
     1
 62
   257
176
     1
 90
        1
176
     1
 90
        1
176
     1
 40
1.0
176
     1
 90
        8
176
     1
 62
     7
176
     1
 40
1.0
176
     1
 90
        1
176
     1
 90
        6
176
     1
 90
        2
176
     1
 62
     7
176
     1
 90
        5
176
     1
 90
        0
176
     1
 90
        0
176
     1
290
     0
176
     1
 90
        1
176
     1
 40
0.0
176
     1
 90
        0
176
     1
290
     0
176
     1
290
     1
176
     1
290
     1
176
     1
290
     0
176
     1
290
     0
176
     1
290
     0
176
     1
290
     0
176
     1
290
     0
176
     1
290
     0
176
     1
 90
       50
176
     1
 40
0.0
176
     1
 40
1.0
176
     1
 90
        0
176
     1
 62
    18
420
        0
176
     1
 90
       50
176
     1
 90
        3
176
     1
 62
     5
420
      255
176
     1
290
     0
176
     1
 90
       50
176
     1
 90
       50
176
     1
 90
       50
176
     1
290
     0
176
     1
 90
       50
176
     1
 62
   256
176
     0
 40
1.0
176
     0
 90
        2
176
     1
  1
strokes_ogs.tif
176
     1
290
     0
176
     1
 40
1.0
176
     1
 40
1.0
176
     1
  0
VISUALSTYLE
  5
2B
102
{ACAD_REACTORS
330
2A
102
}
330
2A
100
AcDbVisualStyle
  2
Flat
 70
     0
177
     3
291
     1
 70
    58
 90
        2
176
     1
 90
        1
176
     1
 90
        1
176
     1
 90
        2
176
     1
 40
0.6
176
     1
 40
30.0
176
     1
 62
     7
420
 16777215
176
     1
 90
        0
176
     1
 90
        0
176
     1
 62
     7
176
     1
 62
   257
176
     1
 90
        1
176
     1
 90
        1
176
     1
 40
1.0
176
     1
 90
        8
176
     1
 62
     7
176
     1
 40
1.0
176
     1
 90
        1
176
     1
 90
        6
176
     1
 90
        2
176
     1
 62
     7
176
     1
 90
        5
176
     1
 90
        0
176
     1
 90
        0
176
     1
290
     0
176
     1
 90
       13
176
     1
 40
0.0
176
     1
 90
        0
176
     1
290
     0
176
     1
290
     1
176
     1
290
     1
176
     1
290
     0
176
     1
290
     0
176
     1
290
     0
176
     1
290
     0
176
     1
290
     0
176
     1
290
     0
176
     1
 90
       50
176
     1
 40
0.0
176
     1
 40
1.0
176
     1
 90
        0
176
     1
 62
    18
420
        0
176
     1
 90
       50
176
     1
 90
        3
176
     1
 62
     5
420
      255
176
     1
290
     0
176
     1
 90
       50
176
     1
 90
       50
176
     1
 90
       50
176
     1
290
     0
176
     1
 90
       50
176
     1
 62
   256
176
     0
 40
1.0
176
     0
 90
        2
176
     1
  1
strokes_ogs.tif
176
     1
290
     0
176
     1
 40
1.0
176
     1
 40
1.0
176
     1
  0
VISUALSTYLE
  5
2C
102
{ACAD_REACTORS
330
2A
102
}
330
2A
100
AcDbVisualStyle
  2
FlatWithEdges
 70
     1
177
     3
291
     1
 70
    58
 90
        2
176
     1
 90
        1
176
     1
 90
        1
176
     1
 90
        2
176
     1
 40
0.6
176
     1
 40
30.0
176
     1
 62
     7
420
 16777215
176
     1
 90
        1
176
     1
 90
        0
176
     1
 62
     7
176
     1
 62
   257
176
     1
 90
        1
176
     1
 90
        1
176
     1
 40
1.0
176
     1
 90
        0
176
     1
 62
   257
176
     1
 40
1.0
176
     1
 90
        1
176
     1
 90
        6
176
     1
 90
        2
176
     1
 62
     7
176
     1
 90
        5
176
     1
 90
        0
176
     1
 90
        0
176
     1
290
     0
176
     1
 90
       13
176
     1
 40
0.0
176
     1
 90
        0
176
     1
290
     0
176
     1
290
     1
176
     1
290
     1
176
     1
290
     0
176
     1
290
     0
176
     1
290
     0
176
     1
290
     0
176
     1
290
     0
176
     1
290
     0
176
     1
 90
       50
176
     1
 40
0.0
176
     1
 40
1.0
176
     1
 90
        0
176
     1
 62
    18
420
        0
176
     1
 90
       50
176
     1
 90
        3
176
     1
 62
     5
420
      255
176
     1
290
     0
176
     1
 90
       50
176
     1
 90
       50
176
     1
 90
       50
176
     1
290
     0
176
     1
 90
       50
176
     1
 62
   256
176
     0
 40
1.0
176
     0
 90
        2
176
     1
  1
strokes_ogs.tif
176
     1
290
     0
176
     1
 40
1.0
176
     1
 40
1.0
176
     1
  0
VISUALSTYLE
  5
2D
102
{ACAD_REACTORS
330
2A
102
}
330
2A
100
AcDbVisualStyle
  2
Gouraud
 70
     2
177
     3
291
     1
 70
    58
 90
        2
176
     1
 90
        2
176
     1
 90
        1
176
     1
 90
        2
176
     1
 40
0.6
176
     1
 40
30.0
176
     1
 62
     7
420
 16777215
176
     1
 90
        0
176
     1
 90
        0
176
     1
 62
     7
176
     1
 62
   257
176
     1
 90
        1
176
     1
 90
        1
176
     1
 40
1.0
176
     1
 90
        0
176
     1
 62
     7
176
     1
 40
1.0
176
     1
 90
        1
176
     1
 90
        6
176
     1
 90
        2
176
     1
 62
     7
176
     1
 90
        5
176
     1
 90
        0
176
     1
 90
        0
176
     1
290
     0
176
     1
 90
       13
176
     1
 40
0.0
176
     1
 90
        0
176
     1
290
     0
176
     1
290
     1
176
     1
290
     1
176
     1
290
     0
176
     1
290
     0
176
     1
290
     0
176
     1
290
     0
176
     1
290
     0
176
     1
290
     0
176
     1
 90
       50
176
     1
 40
0.0
176
     1
 40
1.0
176
     1
 90
        0
176
     1
 62
    18
420
        0
176
     1
 90
       50
176
     1
 90
        3
176
     1
 62
     5
420
      255
176
     1
290
     0
176
     1
 90
       50
176
     1
 90
       50
176
     1
 90
       50
176
     1
290
     0
176
     1
 90
       50
176
     1
 62
   256
176
     0
 40
1.0
176
     0
 90
        2
176
     1
  1
strokes_ogs.tif
176
     1
290
     0
176
     1
 40
1.0
176
     1
 40
1.0
176
     1
  0
VISUALSTYLE
  5
2E
102
{ACAD_REACTORS
330
2A
102
}
330
2A
100
AcDbVisualStyle
  2
GouraudWithEdges
 70
     3
177
     3
291
     1
 70
    58
 90
        2
176
     1
 90
        2
176
     1
 90
        1
176
     1
 90
        2
176
     1
 40
0.6
176
     1
 40
30.0
176
     1
 62
     7
420
 16777215
176
     1
 90
        1
176
     1
 90
        0
176
     1
 62
     7
176
     1
 62
   257
176
     1
 90
        1
176
     1
 90
        1
176
     1
 40
1.0
176
     1
 90
        0
176
     1
 62
   257
176
     1
 40
1.0
176
     1
 90
        1
176
     1
 90
        6
176
     1
 90
        2
176
     1
 62
     7
176
     1
 90
        5
176
     1
 90
        0
176
     1
 90
        0
176
     1
290
     0
176
     1
 90
       13
176
     1
 40
0.0
176
     1
 90
        0
176
     1
290
     0
176
     1
290
     1
176
     1
290
     1
176
     1
290
     0
176
     1
290
     0
176
     1
290
     0
176
     1
290
     0
176
     1
290
     0
176
     1
290
     0
176
     1
 90
       50
176
     1
 40
0.0
176
     1
 40
1.0
176
     1
 90
        0
176
     1
 62
    18
420
        0
176
     1
 90
       50
176
     1
 90
        3
176
     1
 62
     5
420
      255
176
     1
290
     0
176
     1
 90
       50
176
     1
 90
       50
176
     1
 90
       50
176
     1
290
     0
176
     1
 90
       50
176
     1
 62
   256
176
     0
 40
1.0
176
     0
 90
        2
176
     1
  1
strokes_ogs.tif
176
     1
290
     0
176
     1
 40
1.0
176
     1
 40
1.0
176
     1
  0
VISUALSTYLE
  5
31
102
{ACAD_REACTORS
330
2A
102
}
330
2A
100
AcDbVisualStyle
  2
Hidden
 70
     6
177
     3
291
     0
 70
    58
 90
        1
176
     1
 90
        2
176
     1
 90
        2
176
     1
 90
        0
176
     1
 40
0.6
176
     1
 40
30.0
176
     1
 62
     7
420
 16777215
176
     1
 90
        2
176
     1
 90
        2
176
     1
 62
     7
176
     1
 62
   257
176
     1
 90
        2
176
     1
 90
        1
176
     1
 40
40.0
176
     1
 90
        0
176
     1
 62
   257
176
     1
 40
1.0
176
     1
 90
        1
176
     1
 90
        6
176
     1
 90
        2
176
     1
 62
     7
176
     1
 90
        3
176
     1
 90
        0
176
     1
 90
        0
176
     1
290
     0
176
     1
 90
        1
176
     1
 40
0.0
176
     1
 90
        0
176
     1
290
     0
176
     1
290
     1
176
     1
290
     1
176
     1
290
     0
176
     1
290
     0
176
     1
290
     0
176
     1
290
     0
176
     1
290
     0
176
     1
290
     0
176
     1
 90
       50
176
     1
 40
0.0
176
     1
 40
1.0
176
     1
 90
        0
176
     1
 62
    18
420
        0
176
     1
 90
       50
176
     1
 90
        3
176
     1
 62
     5
420
      255
176
     1
290
     0
176
     1
 90
       50
176
     1
 90
       50
176
     1
 90
       50
176
     1
290
     0
176
     1
 90
       50
176
     1
 62
   256
176
     0
 40
1.0
176
     0
 90
        2
176
     1
  1
strokes_ogs.tif
176
     1
290
     0
176
     1
 40
1.0
176
     1
 40
1.0
176
     1
  0
VISUALSTYLE
  5
3B
102
{ACAD_REACTORS
330
2A
102
}
330
2A
100
AcDbVisualStyle
  2
JitterOff
 70
    20
177
     3
291
     1
 70
    58
 90
        2
176
     0
 90
        2
176
     0
 90
        0
176
     0
 90
        0
176
     0
 40
0.6
176
     0
 40
30.0
176
     0
 62
     7
420
 16777215
176
     0
 90
        1
176
     0
 90
        4
176
     0
 62
     7
176
     0
 62
   257
176
     0
 90
        1
176
     0
 90
        1
176
     0
 40
1.0
176
     0
 90
       10
176
     2
 62
     7
176
     0
 40
1.0
176
     0
 90
        1
176
     0
 90
        6
176
     0
 90
        2
176
     0
 62
     7
176
     0
 90
        5
176
     0
 90
        0
176
     0
 90
        0
176
     0
290
     0
176
     0
 90
        1
176
     0
 40
0.0
176
     0
 90
        0
176
     0
290
     0
176
     0
290
     1
176
     0
290
     1
176
     0
290
     0
176
     0
290
     0
176
     0
290
     0
176
     0
290
     0
176
     0
290
     0
176
     0
290
     0
176
     0
 90
       50
176
     0
 40
0.0
176
     0
 40
1.0
176
     0
 90
        0
176
     0
 62
    18
420
        0
176
     0
 90
       50
176
     0
 90
        3
176
     0
 62
     5
420
      255
176
     0
290
     0
176
     0
 90
       50
176
     0
 90
       50
176
     0
 90
       50
176
     0
290
     0
176
     0
 90
       50
176
     0
 62
   256
176
     0
 40
1.0
176
     0
 90
        2
176
     0
  1
strokes_ogs.tif
176
     0
290
     0
176
     0
 40
1.0
176
     0
 40
1.0
176
     0
  0
VISUALSTYLE
  5
38
102
{ACAD_REACTORS
330
2A
102
}
330
2A
100
AcDbVisualStyle
  2
Linepattern
 70
    14
177
     3
291
     1
 70
    58
 90
        2
176
     1
 90
        2
176
     1
 90
        0
176
     1
 90
        0
176
     1
 40
0.6
176
     1
 40
30.0
176
     1
 62
     7
420
 16777215
176
     1
 90
        1
176
     1
 90
        4
176
     1
 62
     7
176
     1
 62
   257
176
     1
 90
        7
176
     1
 90
        7
176
     1
 40
1.0
176
     1
 90
        8
176
     1
 62
     7
176
     1
 40
1.0
176
     1
 90
        1
176
     1
 90
        6
176
     1
 90
        2
176
     1
 62
     7
176
     1
 90
        5
176
     1
 90
        0
176
     1
 90
        0
176
     1
290
     0
176
     1
 90
        1
176
     1
 40
0.0
176
     1
 90
        0
176
     1
290
     0
176
     1
290
     1
176
     1
290
     1
176
     1
290
     0
176
     1
290
     0
176
     1
290
     0
176
     1
290
     0
176
     1
290
     0
176
     1
290
     0
176
     1
 90
       50
176
     1
 40
0.0
176
     1
 40
1.0
176
     1
 90
        0
176
     1
 62
    18
420
        0
176
     1
 90
       50
176
     1
 90
        3
176
     1
 62
     5
420
      255
176
     1
290
     0
176
     1
 90
       50
176
     1
 90
       50
176
     1
 90
       50
176
     1
290
     0
176
     1
 90
       50
176
     1
 62
   256
176
     0
 40
1.0
176
     0
 90
        2
176
     1
  1
strokes_ogs.tif
176
     1
290
     0
176
     1
 40
1.0
176
     1
 40
1.0
176
     1
  0
VISUALSTYLE
  5
3C
102
{ACAD_REACTORS
330
2A
102
}
330
2A
100
AcDbVisualStyle
  2
OverhangOff
 70
    21
177
     3
291
     1
 70
    58
 90
        2
176
     0
 90
        2
176
     0
 90
        0
176
     0
 90
        0
176
     0
 40
0.6
176
     0
 40
30.0
176
     0
 62
     7
420
 16777215
176
     0
 90
        1
176
     0
 90
        4
176
     0
 62
     7
176
     0
 62
   257
176
     0
 90
        1
176
     0
 90
        1
176
     0
 40
1.0
176
     0
 90
        9
176
     2
 62
     7
176
     0
 40
1.0
176
     0
 90
        1
176
     0
 90
        6
176
     0
 90
        2
176
     0
 62
     7
176
     0
 90
        5
176
     0
 90
        0
176
     0
 90
        0
176
     0
290
     0
176
     0
 90
        1
176
     0
 40
0.0
176
     0
 90
        0
176
     0
290
     0
176
     0
290
     1
176
     0
290
     1
176
     0
290
     0
176
     0
290
     0
176
     0
290
     0
176
     0
290
     0
176
     0
290
     0
176
     0
290
     0
176
     0
 90
       50
176
     0
 40
0.0
176
     0
 40
1.0
176
     0
 90
        0
176
     0
 62
    18
420
        0
176
     0
 90
       50
176
     0
 90
        3
176
     0
 62
     5
420
      255
176
     0
290
     0
176
     0
 90
       50
176
     0
 90
       50
176
     0
 90
       50
176
     0
290
     0
176
     0
 90
       50
176
     0
 62
   256
176
     0
 40
1.0
176
     0
 90
        2
176
     0
  1
strokes_ogs.tif
176
     0
290
     0
176
     0
 40
1.0
176
     0
 40
1.0
176
     0
  0
VISUALSTYLE
  5
33
102
{ACAD_REACTORS
330
2A
102
}
330
2A
100
AcDbVisualStyle
  2
Realistic
 70
     8
177
     3
291
     0
 70
    58
 90
        2
176
     1
 90
        3
176
     1
 90
        0
176
     1
 90
        2
176
     1
 40
0.6
176
     1
 40
30.0
176
     1
 62
     7
420
 16777215
176
     1
 90
        0
176
     1
 90
        0
176
     1
 62
     7
176
     1
 62
   257
176
     1
 90
        1
176
     1
 90
        1
176
     1
 40
1.0
176
     1
 90
        8
176
     1
 62
   257
176
     1
 40
1.0
176
     1
 90
        1
176
     1
 90
        6
176
     1
 90
        2
176
     1
 62
     7
176
     1
 90
        3
176
     1
 90
        0
176
     1
 90
        0
176
     1
290
     0
176
     1
 90
       13
176
     1
 40
0.0
176
     1
 90
        0
176
     1
290
     0
176
     1
290
     1
176
     1
290
     1
176
     1
290
     0
176
     1
290
     0
176
     1
290
     0
176
     1
290
     0
176
     1
290
     0
176
     1
290
     0
176
     1
 90
       50
176
     1
 40
0.0
176
     1
 40
1.0
176
     1
 90
        0
176
     1
 62
    18
420
        0
176
     1
 90
       50
176
     1
 90
        3
176
     1
 62
     5
420
      255
176
     1
290
     0
176
     1
 90
       50
176
     1
 90
       50
176
     1
 90
       50
176
     1
290
     0
176
     1
 90
       50
176
     1
 62
   256
176
     0
 40
1.0
176
     0
 90
        2
176
     1
  1
strokes_ogs.tif
176
     1
290
     0
176
     1
 40
1.0
176
     1
 40
1.0
176
     1
  0
VISUALSTYLE
  5
42
102
{ACAD_REACTORS
330
2A
102
}
330
2A
100
AcDbVisualStyle
  2
Shaded
 70
    27
177
     3
291
     0
 70
    58
 90
        2
176
     1
 90
        2
176
     1
 90
        1
176
     1
 90
        2
176
     1
 40
0.6
176
     1
 40
30.0
176
     1
 62
     7
420
 16777215
176
     1
 90
        0
176
     1
 90
        4
176
     1
 62
     7
176
     1
 62
   257
176
     1
 90
        1
176
     1
 90
        1
176
     1
 40
1.0
176
     1
 90
        8
176
     1
 62
   257
176
     1
 40
1.0
176
     1
 90
        1
176
     1
 90
        6
176
     1
 90
        2
176
     1
 62
     8
420
  7895160
176
     1
 90
        3
176
     1
 90
        0
176
     1
 90
        0
176
     1
290
     0
176
     1
 90
        5
176
     1
 40
0.0
176
     1
 90
        0
176
     1
290
     0
176
     1
290
     1
176
     1
290
     1
176
     1
290
     0
176
     1
290
     0
176
     1
290
     0
176
     1
290
     0
176
     1
290
     0
176
     1
290
     0
176
     1
 90
       50
176
     1
 40
0.0
176
     1
 40
1.0
176
     1
 90
        0
176
     1
 62
    18
420
        0
176
     1
 90
       50
176
     1
 90
        3
176
     1
 62
     5
420
      255
176
     1
290
     0
176
     1
 90
       50
176
     1
 90
       50
176
     1
 90
       50
176
     1
290
     0
176
     1
 90
       50
176
     1
 62
   256
176
     0
 40
1.0
176
     0
 90
        2
176
     1
  1
strokes_ogs.tif
176
     1
290
     0
176
     1
 40
1.0
176
     1
 40
1.0
176
     1
  0
VISUALSTYLE
  5
41
102
{ACAD_REACTORS
330
2A
102
}
330
2A
100
AcDbVisualStyle
  2
Shaded with edges
 70
    26
177
     3
291
     0
 70
    58
 90
        2
176
     1
 90
        2
176
     1
 90
        1
176
     1
 90
        2
176
     1
 40
0.6
176
     1
 40
30.0
176
     1
 62
     7
420
 16777215
176
     1
 90
        1
176
     1
 90
       10
176
     1
 62
     7
176
     1
 62
   257
176
     1
 90
        2
176
     1
 90
        1
176
     1
 40
1.0
176
     1
 90
        8
176
     1
 62
   257
176
     1
 40
1.0
176
     1
 90
        1
176
     1
 90
        6
176
     1
 90
        2
176
     1
 62
     7
176
     1
 90
        3
176
     1
 90
        0
176
     1
 90
        0
176
     1
290
     0
176
     1
 90
        5
176
     1
 40
0.0
176
     1
 90
        0
176
     1
290
     0
176
     1
290
     1
176
     1
290
     1
176
     1
290
     0
176
     1
290
     0
176
     1
290
     0
176
     1
290
     0
176
     1
290
     0
176
     1
290
     0
176
     1
 90
       50
176
     1
 40
0.0
176
     1
 40
1.0
176
     1
 90
        0
176
     1
 62
    18
420
        0
176
     1
 90
       50
176
     1
 90
        3
176
     1
 62
     5
420
      255
176
     1
290
     0
176
     1
 90
       50
176
     1
 90
       50
176
     1
 90
       50
176
     1
290
     0
176
     1
 90
       50
176
     1
 62
   256
176
     0
 40
1.0
176
     0
 90
        2
176
     1
  1
strokes_ogs.tif
176
     1
290
     0
176
     1
 40
1.0
176
     1
 40
1.0
176
     1
  0
VISUALSTYLE
  5
3E
102
{ACAD_REACTORS
330
2A
102
}
330
2A
100
AcDbVisualStyle
  2
Shades of Gray
 70
    23
177
     3
291
     0
 70
    58
 90
        2
176
     1
 90
        2
176
     1
 90
        3
176
     1
 90
        0
176
     1
 40
0.6
176
     1
 40
30.0
176
     1
 62
     7
420
 16777215
176
     1
 90
        2
176
     1
 90
        2
176
     1
 62
     7
176
     1
 62
     7
176
     1
 90
        1
176
     1
 90
        1
176
     1
 40
40.0
176
     1
 90
        8
176
     1
 62
     7
176
     1
 40
1.0
176
     1
 90
        1
176
     1
 90
        6
176
     1
 90
        2
176
     1
 62
     7
176
     1
 90
        3
176
     1
 90
        0
176
     1
 90
        0
176
     1
290
     0
176
     1
 90
        1
176
     1
 40
0.0
176
     1
 90
        0
176
     1
290
     0
176
     1
290
     1
176
     1
290
     1
176
     1
290
     0
176
     1
290
     0
176
     1
290
     0
176
     1
290
     0
176
     1
290
     0
176
     1
290
     0
176
     1
 90
       50
176
     1
 40
0.0
176
     1
 40
1.0
176
     1
 90
        0
176
     1
 62
    18
420
        0
176
     1
 90
       50
176
     1
 90
        3
176
     1
 62
     5
420
      255
176
     1
290
     0
176
     1
 90
       50
176
     1
 90
       50
176
     1
 90
       50
176
     1
290
     0
176
     1
 90
       50
176
     1
 62
   256
176
     0
 40
1.0
176
     0
 90
        2
176
     1
  1
strokes_ogs.tif
176
     1
290
     0
176
     1
 40
1.0
176
     1
 40
1.0
176
     1
  0
VISUALSTYLE
  5
3F
102
{ACAD_REACTORS
330
2A
102
}
330
2A
100
AcDbVisualStyle
  2
Sketchy
 70
    24
177
     3
291
     0
 70
    58
 90
        1
176
     1
 90
        2
176
     1
 90
        2
176
     1
 90
        0
176
     1
 40
0.6
176
     1
 40
30.0
176
     1
 62
     7
420
 16777215
176
     1
 90
        2
176
     1
 90
        2
176
     1
 62
     7
176
     1
 62
     7
176
     1
 90
        1
176
     1
 90
        1
176
     1
 40
40.0
176
     1
 90
       11
176
     1
 62
     7
176
     1
 40
1.0
176
     1
 90
        1
176
     1
 90
        6
176
     1
 90
        2
176
     1
 62
     7
176
     1
 90
        6
176
     1
 90
        0
176
     1
 90
        0
176
     1
290
     0
176
     1
 90
        1
176
     1
 40
0.0
176
     1
 90
        0
176
     1
290
     0
176
     1
290
     1
176
     1
290
     1
176
     1
290
     0
176
     1
290
     0
176
     1
290
     0
176
     1
290
     0
176
     1
290
     0
176
     1
290
     0
176
     1
 90
       50
176
     1
 40
0.0
176
     1
 40
1.0
176
     1
 90
        0
176
     1
 62
    18
420
        0
176
     1
 90
       50
176
     1
 90
        3
176
     1
 62
     5
420
      255
176
     1
290
     0
176
     1
 90
       50
176
     1
 90
       50
176
     1
 90
       50
176
     1
290
     0
176
     1
 90
       50
176
     1
 62
   256
176
     0
 40
1.0
176
     0
 90
        2
176
     1
  1
strokes_ogs.tif
176
     1
290
     0
176
     1
 40
1.0
176
     1
 40
1.0
176
     1
  0
VISUALSTYLE
  5
37
102
{ACAD_REACTORS
330
2A
102
}
330
2A
100
AcDbVisualStyle
  2
Thicken
 70
    13
177
     3
291
     1
 70
    58
 90
        2
176
     1
 90
        2
176
     1
 90
        0
176
     1
 90
        0
176
     1
 40
0.6
176
     1
 40
30.0
176
     1
 62
     7
420
 16777215
176
     1
 90
        1
176
     1
 90
        4
176
     1
 62
     7
176
     1
 62
   257
176
     1
 90
        1
176
     1
 90
        1
176
     1
 40
1.0
176
     1
 90
       12
176
     1
 62
     7
176
     1
 40
1.0
176
     1
 90
        1
176
     1
 90
        6
176
     1
 90
        2
176
     1
 62
     7
176
     1
 90
        5
176
     1
 90
        0
176
     1
 90
        0
176
     1
290
     0
176
     1
 90
        1
176
     1
 40
0.0
176
     1
 90
        0
176
     1
290
     0
176
     1
290
     1
176
     1
290
     1
176
     1
290
     0
176
     1
290
     0
176
     1
290
     0
176
     1
290
     0
176
     1
290
     0
176
     1
290
     0
176
     1
 90
       50
176
     1
 40
0.0
176
     1
 40
1.0
176
     1
 90
        0
176
     1
 62
    18
420
        0
176
     1
 90
       50
176
     1
 90
        3
176
     1
 62
     5
420
      255
176
     1
290
     0
176
     1
 90
       50
176
     1
 90
       50
176
     1
 90
       50
176
     1
290
     0
176
     1
 90
       50
176
     1
 62
   256
176
     0
 40
1.0
176
     0
 90
        2
176
     1
  1
strokes_ogs.tif
176
     1
290
     0
176
     1
 40
1.0
176
     1
 40
1.0
176
     1
  0
VISUALSTYLE
  5
30
102
{ACAD_REACTORS
330
2A
102
}
330
2A
100
AcDbVisualStyle
  2
Wireframe
 70
     5
177
     3
291
     0
 70
    58
 90
        0
176
     1
 90
        2
176
     1
 90
        0
176
     1
 90
        0
176
     1
 40
0.6
176
     1
 40
30.0
176
     1
 62
     7
420
 16777215
176
     1
 90
        1
176
     1
 90
        4
176
     1
 62
     7
176
     1
 62
   257
176
     1
 90
        1
176
     1
 90
        1
176
     1
 40
1.0
176
     1
 90
        0
176
     1
 62
   257
176
     1
 40
1.0
176
     1
 90
        1
176
     1
 90
        6
176
     1
 90
        2
176
     1
 62
     7
176
     1
 90
        3
176
     1
 90
        0
176
     1
 90
        0
176
     1
290
     0
176
     1
 90
        1
176
     1
 40
0.0
176
     1
 90
        0
176
     1
290
     0
176
     1
290
     1
176
     1
290
     1
176
     1
290
     0
176
     1
290
     0
176
     1
290
     0
176
     1
290
     0
176
     1
290
     0
176
     1
290
     0
176
     1
 90
       50
176
     1
 40
0.0
176
     1
 40
1.0
176
     1
 90
        0
176
     1
 62
    18
420
        0
176
     1
 90
       50
176
     1
 90
        3
176
     1
 62
     5
420
      255
176
     1
290
     0
176
     1
 90
       50
176
     1
 90
       50
176
     1
 90
       50
176
     1
290
     0
176
     1
 90
       50
176
     1
 62
   256
176
     0
 40
1.0
176
     0
 90
        2
176
     1
  1
strokes_ogs.tif
176
     1
290
     0
176
     1
 40
1.0
176
     1
 40
1.0
176
     1
  0
VISUALSTYLE
  5
40
102
{ACAD_REACTORS
330
2A
102
}
330
2A
100
AcDbVisualStyle
  2
X-Ray
 70
    25
177
     3
291
     0
 70
    58
 90
        2
176
     1
 90
        2
176
     1
 90
        1
176
     1
 90
        1
176
     1
 40
0.5
176
     1
 40
30.0
176
     1
 62
     7
420
 16777215
176
     1
 90
        1
176
     1
 90
        0
176
     1
 62
     7
176
     1
 62
   257
176
     1
 90
        1
176
     1
 90
        1
176
     1
 40
1.0
176
     1
 90
        8
176
     1
 62
     7
176
     1
 40
1.0
176
     1
 90
        1
176
     1
 90
        6
176
     1
 90
        2
176
     1
 62
     7
176
     1
 90
        3
176
     1
 90
        0
176
     1
 90
        0
176
     1
290
     0
176
     1
 90
       13
176
     1
 40
0.0
176
     1
 90
        0
176
     1
290
     0
176
     1
290
     1
176
     1
290
     1
176
     1
290
     0
176
     1
290
     0
176
     1
290
     0
176
     1
290
     0
176
     1
290
     0
176
     1
290
     0
176
     1
 90
       50
176
     1
 40
0.0
176
     1
 40
1.0
176
     1
 90
        0
176
     1
 62
    18
420
        0
176
     1
 90
       50
176
     1
 90
        3
176
     1
 62
     5
420
      255
176
     1
290
     0
176
     1
 90
       50
176
     1
 90
       50
176
     1
 90
       50
176
     1
290
     0
176
     1
 90
       50
176
     1
 62
   256
176
     0
 40
1.0
176
     0
 90
        2
176
     1
  1
strokes_ogs.tif
176
     1
290
     0
176
     1
 40
1.0
176
     1
 40
1.0
176
     1
  0
DICTIONARYVAR
  5
21B
102
{ACAD_REACTORS
330
21A
102
}
330
21A
100
DictionaryVariables
280
     0
  1
1:1
  0
DICTIONARYVAR
  5
220
102
{ACAD_REACTORS
330
21A
102
}
330
21A
100
DictionaryVariables
280
     0
  1
Standard
  0
DICTIONARYVAR
  5
21F
102
{ACAD_REACTORS
330
21A
102
}
330
21A
100
DictionaryVariables
280
     0
  1
Standard
  0
DICTIONARYVAR
  5
223
102
{ACAD_REACTORS
330
21A
102
}
330
21A
100
DictionaryVariables
280
     0
  1
6.000000
  0
DICTIONARY
  5
21C
330
6A
100
AcDbDictionary
280
     1
281
     1
  3
ACAD_ROUNDTRIP_2008_TABLESTYLE_CELLSTYLEMAP
360
21D
  0
CELLSTYLEMAP
  5
21D
102
{ACAD_REACTORS
330
21C
102
}
330
21C
100
AcDbCellStyleMap
 90
        3
300
CELLSTYLE
  1
TABLEFORMAT_BEGIN
 90
        5
170
     1
 91
        0
 92
    32768
 62
   257
 93
        1
300
CONTENTFORMAT
  1
CONTENTFORMAT_BEGIN
 90
        0
 91
        0
 92
        4
 93
        0
300

 40
0.0
140
1.0
 94
        5
 62
     0
340
11
144
6.0
309
CONTENTFORMAT_END
171
     1
301
MARGIN
  1
CELLMARGIN_BEGIN
 40
1.5
 40
1.5
 40
1.5
 40
1.5
 40
1.5
 40
1.5
309
CELLMARGIN_END
 94
        6
 95
        1
302
GRIDFORMAT
  1
GRIDFORMAT_BEGIN
 90
        0
 91
        1
 62
     0
 92
       -2
340
14
 93
        0
 40
0.045
309
GRIDFORMAT_END
 95
        2
302
GRIDFORMAT
  1
GRIDFORMAT_BEGIN
 90
        0
 91
        1
 62
     0
 92
       -2
340
14
 93
        0
 40
0.045
309
GRIDFORMAT_END
 95
        4
302
GRIDFORMAT
  1
GRIDFORMAT_BEGIN
 90
        0
 91
        1
 62
     0
 92
       -2
340
14
 93
        0
 40
0.045
309
GRIDFORMAT_END
 95
        8
302
GRIDFORMAT
  1
GRIDFORMAT_BEGIN
 90
        0
 91
        1
 62
     0
 92
       -2
340
14
 93
        0
 40
0.045
309
GRIDFORMAT_END
 95
       16
302
GRIDFORMAT
  1
GRIDFORMAT_BEGIN
 90
        0
 91
        1
 62
     0
 92
       -2
340
14
 93
        0
 40
0.045
309
GRIDFORMAT_END
 95
       32
302
GRIDFORMAT
  1
GRIDFORMAT_BEGIN
 90
        0
 91
        1
 62
     0
 92
       -2
340
14
 93
        0
 40
0.045
309
GRIDFORMAT_END
309
TABLEFORMAT_END
  1
CELLSTYLE_BEGIN
 90
        1
 91
        1
300
_TITLE
309
CELLSTYLE_END
300
CELLSTYLE
  1
TABLEFORMAT_BEGIN
 90
        5
170
     1
 91
        0
 92
        0
 62
   257
 93
        1
300
CONTENTFORMAT
  1
CONTENTFORMAT_BEGIN
 90
        0
 91
        0
 92
        4
 93
        0
300

 40
0.0
140
1.0
 94
        5
 62
     0
340
11
144
4.5
309
CONTENTFORMAT_END
171
     1
301
MARGIN
  1
CELLMARGIN_BEGIN
 40
1.5
 40
1.5
 40
1.5
 40
1.5
 40
1.5
 40
1.5
309
CELLMARGIN_END
 94
        6
 95
        1
302
GRIDFORMAT
  1
GRIDFORMAT_BEGIN
 90
        0
 91
        1
 62
     0
 92
       -2
340
14
 93
        0
 40
0.045
309
GRIDFORMAT_END
 95
        2
302
GRIDFORMAT
  1
GRIDFORMAT_BEGIN
 90
        0
 91
        1
 62
     0
 92
       -2
340
14
 93
        0
 40
0.045
309
GRIDFORMAT_END
 95
        4
302
GRIDFORMAT
  1
GRIDFORMAT_BEGIN
 90
        0
 91
        1
 62
     0
 92
       -2
340
14
 93
        0
 40
0.045
309
GRIDFORMAT_END
 95
        8
302
GRIDFORMAT
  1
GRIDFORMAT_BEGIN
 90
        0
 91
        1
 62
     0
 92
       -2
340
14
 93
        0
 40
0.045
309
GRIDFORMAT_END
 95
       16
302
GRIDFORMAT
  1
GRIDFORMAT_BEGIN
 90
        0
 91
        1
 62
     0
 92
       -2
340
14
 93
        0
 40
0.045
309
GRIDFORMAT_END
 95
       32
302
GRIDFORMAT
  1
GRIDFORMAT_BEGIN
 90
        0
 91
        1
 62
     0
 92
       -2
340
14
 93
        0
 40
0.045
309
GRIDFORMAT_END
309
TABLEFORMAT_END
  1
CELLSTYLE_BEGIN
 90
        2
 91
        1
300
_HEADER
309
CELLSTYLE_END
300
CELLSTYLE
  1
TABLEFORMAT_BEGIN
 90
        5
170
     1
 91
        0
 92
        0
 62
   257
 93
        1
300
CONTENTFORMAT
  1
CONTENTFORMAT_BEGIN
 90
        0
 91
        0
 92
        4
 93
        0
300

 40
0.0
140
1.0
 94
        2
 62
     0
340
11
144
4.5
309
CONTENTFORMAT_END
171
     1
301
MARGIN
  1
CELLMARGIN_BEGIN
 40
1.5
 40
1.5
 40
1.5
 40
1.5
 40
1.5
 40
1.5
309
CELLMARGIN_END
 94
        6
 95
        1
302
GRIDFORMAT
  1
GRIDFORMAT_BEGIN
 90
        0
 91
        1
 62
     0
 92
       -2
340
14
 93
        0
 40
0.045
309
GRIDFORMAT_END
 95
        2
302
GRIDFORMAT
  1
GRIDFORMAT_BEGIN
 90
        0
 91
        1
 62
     0
 92
       -2
340
14
 93
        0
 40
0.045
309
GRIDFORMAT_END
 95
        4
302
GRIDFORMAT
  1
GRIDFORMAT_BEGIN
 90
        0
 91
        1
 62
     0
 92
       -2
340
14
 93
        0
 40
0.045
309
GRIDFORMAT_END
 95
        8
302
GRIDFORMAT
  1
GRIDFORMAT_BEGIN
 90
        0
 91
        1
 62
     0
 92
       -2
340
14
 93
        0
 40
0.045
309
GRIDFORMAT_END
 95
       16
302
GRIDFORMAT
  1
GRIDFORMAT_BEGIN
 90
        0
 91
        1
 62
     0
 92
       -2
340
14
 93
        0
 40
0.045
309
GRIDFORMAT_END
 95
       32
302
GRIDFORMAT
  1
GRIDFORMAT_BEGIN
 90
        0
 91
        1
 62
     0
 92
       -2
340
14
 93
        0
 40
0.045
309
GRIDFORMAT_END
309
TABLEFORMAT_END
  1
CELLSTYLE_BEGIN
 90
        3
 91
        2
300
_DATA
309
CELLSTYLE_END
  0
ENDSEC
  0
EOF
