  0
SECTION
  2
HEADER
  9
$ACADVER
  1
AC1009
  9
$INSBASE
 10
0.0
 20
0.0
 30
0.0
  9
$EXTMIN
 10
0.0
 20
0.0
 30
0.0
  9
$EXTMAX
 10
840.0
 20
594.0
 30
0.0
  9
$LIMMIN
 10
0.0
 20
0.0
  9
$LIMMAX
 10
840.0
 20
594.0
  9
$ORTHOMODE
 70
     0
  9
$REGENMODE
 70
     1
  9
$FILLMODE
 70
     1
  9
$QTEXTMODE
 70
     0
  9
$MIRRTEXT
 70
     1
  9
$DRAGMODE
 70
     2
  9
$LTSCALE
 40
2.0
  9
$OSMODE
 70
     0
  9
$ATTMODE
 70
     1
  9
$TEXTSIZE
 40
0.2
  9
$TRACEWID
 40
0.05
  9
$TEXTSTYLE
  7
STANDARD
  9
$CLAYER
  8
0
  9
$CELTYPE
  6
BYLAYER
  9
$CECOLOR
 62
     7
  9
$DIMSCALE
 40
2.0
  9
$DIMASZ
 40
3.5
  9
$DIMEXO
 40
0.0625
  9
$DIMDLI
 40
0.38
  9
$DIMRND
 40
0.0
  9
$DIMDLE
 40
0.0
  9
$DIMEXE
 40
0.18
  9
$DIMTP
 40
0.0
  9
$DIMTM
 40
0.0
  9
$DIMTXT
 40
3.5
  9
$DIMCEN
 40
0.09
  9
$DIMTSZ
 40
0.0
  9
$DIMTOL
 70
     0
  9
$DIMLIM
 70
     0
  9
$DIMTIH
 70
     1
  9
$DIMTOH
 70
     1
  9
$DIMSE1
 70
     0
  9
$DIMSE2
 70
     0
  9
$DIMTAD
 70
     1
  9
$DIMZIN
 70
     0
  9
$DIMBLK
  1

  9
$DIMASO
 70
     1
  9
$DIMSHO
 70
     1
  9
$DIMPOST
  1

  9
$DIMAPOST
  1

  9
$DIMALT
 70
     0
  9
$DIMALTD
 70
     2
  9
$DIMALTF
 40
25.4
  9
$DIMLFAC
 40
1.0
  9
$DIMTOFL
 70
     0
  9
$DIMTVP
 40
0.0
  9
$DIMTIX
 70
     0
  9
$DIMSOXD
 70
     0
  9
$DIMSAH
 70
     0
  9
$DIMBLK1
  1

  9
$DIMBLK2
  1

  9
$DIMSTYLE
  2
STANDARD
  9
$DIMCLRD
 70
     0
  9
$DIMCLRE
 70
     0
  9
$DIMCLRT
 70
     0
  9
$DIMTFAC
 40
1.0
  9
$DIMGAP
 40
0.09
  9
$LUNITS
 70
     2
  9
$LUPREC
 70
     2
  9
$AXISMODE
 70
     0
  9
$AXISUNIT
 10
0.0
 20
0.0
  9
$SKETCHINC
 40
0.1
  9
$FILLETRAD
 40
0.0
  9
$AUNITS
 70
     0
  9
$AUPREC
 70
     0
  9
$MENU
  1
acad
  9
$ELEVATION
 40
0.0
  9
$PELEVATION
 40
0.0
  9
$THICKNESS
 40
0.0
  9
$LIMCHECK
 70
     0
  9
$BLIPMODE
 70
     1
  9
$CHAMFERA
 40
0.0
  9
$CHAMFERB
 40
0.0
  9
$SKPOLY
 70
     0
  9
$TDCREATE
 40
0.000000000
  9
$TDUPDATE
 40
0.000000000
  9
$TDINDWG
 40
0.0000000000
  9
$TDUSRTIMER
 40
0.0000000000
  9
$USRTIMER
 70
     1
  9
$ANGBASE
 50
0.0
  9
$ANGDIR
 70
     0
  9
$PDMODE
 70
     0
  9
$PDSIZE
 40
0.0
  9
$PLINEWID
 40
0.0
  9
$COORDS
 70
     0
  9
$SPLFRAME
 70
     0
  9
$SPLINETYPE
 70
     6
  9
$SPLINESEGS
 70
     8
  9
$ATTDIA
 70
     0
  9
$ATTREQ
 70
     1
  9
$HANDLING
 70
     1
  9
$HANDSEED
  5
3B0
  9
$SURFTAB1
 70
     6
  9
$SURFTAB2
 70
     6
  9
$SURFTYPE
 70
     6
  9
$SURFU
 70
     6
  9
$SURFV
 70
     6
  9
$UCSNAME
  2

  9
$UCSORG
 10
0.0
 20
0.0
 30
0.0
  9
$UCSXDIR
 10
1.0
 20
0.0
 30
0.0
  9
$UCSYDIR
 10
0.0
 20
1.0
 30
0.0
  9
$PUCSNAME
  2

  9
$PUCSORG
 10
0.0
 20
0.0
 30
0.0
  9
$PUCSXDIR
 10
1.0
 20
0.0
 30
0.0
  9
$PUCSYDIR
 10
0.0
 20
1.0
 30
0.0
  9
$USERI1
 70
     0
  9
$USERI2
 70
     0
  9
$USERI3
 70
     0
  9
$USERI4
 70
     0
  9
$USERI5
 70
     0
  9
$USERR1
 40
0.0
  9
$USERR2
 40
0.0
  9
$USERR3
 40
0.0
  9
$USERR4
 40
0.0
  9
$USERR5
 40
0.0
  9
$WORLDVIEW
 70
     1
  9
$SHADEDGE
 70
     3
  9
$SHADEDIF
 70
    70
  9
$TILEMODE
 70
     1
  9
$MAXACTVP
 70
    16
  9
$PINSBASE
 10
0.0
 20
0.0
 30
0.0
  9
$PLIMCHECK
 70
     0
  9
$PEXTMIN
 10
1.000000E+20
 20
1.000000E+20
 30
1.000000E+20
  9
$PEXTMAX
 10
-1.000000E+20
 20
-1.000000E+20
 30
-1.000000E+20
  9
$PLIMMIN
 10
0.0
 20
0.0
  9
$PLIMMAX
 10
840.0
 20
594.0
  9
$UNITMODE
 70
     0
  9
$VISRETAIN
 70
     0
  9
$PLINEGEN
 70
     1
  9
$PSLTSCALE
 70
     0
  9
$TREEDEPTH
 70
  3020
  9
$DWGCODEPAGE
  3
dos850
  0
ENDSEC
  0
SECTION
  2
TABLES
  0
TABLE
  2
VPORT
 70
     1
  0
VPORT
  2
*ACTIVE
 70
     0
 10
0.0
 20
0.0
 11
1.0
 21
1.0
 12
420.0
 22
297.0
 13
0.0
 23
0.0
 14
1.0
 24
1.0
 15
0.0
 25
0.0
 16
0.0
 26
0.0
 36
1.0
 17
0.0
 27
0.0
 37
0.0
 40
594.0
 41
1.604229
 42
50.0
 43
0.0
 44
0.0
 50
0.0
 51
0.0
 71
     0
 72
   100
 73
     1
 74
     1
 75
     0
 76
     0
 77
     0
 78
     0
  0
ENDTAB
  0
TABLE
  2
LTYPE
 70
     3
  0
LTYPE
  2
CONTINUOUS
 70
    64
  3
Solid line
 72
    65
 73
     0
 40
0.0
  0
LTYPE
  2
DASHED
 70
    64
  3
__ __ __ __ __
 72
    65
 73
     2
 40
6.25
 49
5.0
 49
-1.25
  0
LTYPE
  2
DASHDOT
 70
    64
  3
__ . __ . __ . __ . __
 72
    65
 73
     4
 40
7.5
 49
5.0
 49
-1.25
 49
0.0
 49
-1.25
  0
ENDTAB
  0
TABLE
  2
LAYER
 70
    13
  0
LAYER
  2
0
 70
     0
 62
     7
  6
CONTINUOUS
  0
LAYER
  2
LC-INFO-1-2-MM-A3-0
 70
     1
 62
    -1
  6
CONTINUOUS
  0
LAYER
  2
LC-003-003-MTH-0
 70
     0
 62
     2
  6
CONTINUOUS
  0
LAYER
  2
LC-004-003-MTG-0
 70
     0
 62
     2
  6
CONTINUOUS
  0
LAYER
  2
LC-002-003-----0
 70
     0
 62
     2
  6
CONTINUOUS
  0
LAYER
  2
LC-006-005-----0
 70
     0
 62
     2
  6
CONTINUOUS
  0
LAYER
  2
LC-007-000-----0
 70
     0
 62
     7
  6
CONTINUOUS
  0
LAYER
  2
LC-009-000-----0
 70
     0
 62
     7
  6
CONTINUOUS
  0
LAYER
  2
LC-001-002-----0
 70
     0
 62
     1
  6
CONTINUOUS
  0
LAYER
  2
LC-005-002-RND-0
 70
     0
 62
     1
  6
CONTINUOUS
  0
LAYER
  2
LC-008-001-----0
 70
     0
 62
     1
  6
CONTINUOUS
  0
LAYER
  2
LC-010-001-RND-0
 70
     0
 62
     1
  6
CONTINUOUS
  0
LAYER
  2
LC-000
 70
     0
 62
     7
  6
CONTINUOUS
  0
ENDTAB
  0
TABLE
  2
STYLE
 70
     4
  0
STYLE
  2
STANDARD
 70
     0
 40
0.0
 41
1.0
 50
0.0
 71
     0
 42
0.0
  3
txt
  4

  0
STYLE
  2
LC-STANDARD
 70
    64
 40
0.0
 41
1.0
 50
0.0
 71
     0
 42
3.5
  3
MONOTXT
  4

  0
STYLE
  2
LC-TXTSTYLE-150-400-0-0-D2
 70
    64
 40
0.0
 41
1.0
 50
15.0
 71
     0
 42
3.5
  3
MONOTXT
  4

  0
STYLE
  2
LC-TXTSTYLE-150-400-0-0-D3
 70
    64
 40
0.0
 41
1.0
 50
15.0
 71
     0
 42
3.5
  3
LC-STANDARD
  4

  0
ENDTAB
  0
TABLE
  2
VIEW
 70
     0
  0
ENDTAB
  0
TABLE
  2
UCS
 70
     0
  0
ENDTAB
  0
TABLE
  2
APPID
 70
     1
  0
APPID
  2
ACAD
 70
     0
  0
ENDTAB
  0
TABLE
  2
DIMSTYLE
 70
     3
  0
DIMSTYLE
  2
STANDARD
 70
     0
  3

  4

  5

  6

  7

 40
1.0
 41
0.18
 42
0.0625
 43
0.38
 44
0.18
 45
0.0
 46
0.0
 47
0.0
 48
0.0
 71
     0
 72
     0
 73
     1
 74
     1
 75
     0
 76
     0
 77
     0
 78
     0
140
0.18
141
0.09
142
0.0
143
25.4
144
1.0
145
0.0
146
1.0
147
0.09
170
     0
171
     2
172
     0
173
     0
174
     0
175
     0
176
     0
177
     0
178
     0
  0
DIMSTYLE
  2
LC-STANDARD
 70
     0
  3

  4

  5

  6

  7

 40
1.0
 41
3.5
 42
0.0
 43
7.5
 44
1.8
 45
0.0
 46
0.0
 47
0.0
 48
0.0
 71
     0
 72
     0
 73
     0
 74
     0
 75
     0
 76
     0
 77
     1
 78
     8
140
3.5
141
0.0
142
0.0
143
25.4
144
1.0
145
0.0
146
0.71
147
1.5
170
     0
171
     2
172
     1
173
     0
174
     0
175
     0
176
     0
177
     0
178
     3
  0
DIMSTYLE
  2
LC-DIM-L-0090-02-02
 70
     0
  3

  4

  5

  6

  7

 40
2.0
 41
3.5
 42
0.0
 43
7.5
 44
1.8
 45
0.0
 46
0.0
 47
0.0
 48
0.0
 71
     0
 72
     0
 73
     0
 74
     0
 75
     0
 76
     0
 77
     1
 78
     8
140
9.0
141
0.0
142
0.0
143
25.4
144
1.0
145
0.0
146
0.71
147
1.5
170
     0
171
     2
172
     0
173
     0
174
     0
175
     0
176
     2
177
     2
178
     6
  0
ENDTAB
  0
ENDSEC
  0
SECTION
  2
BLOCKS
  0
BLOCK
  8
0
  5
23
  2
*D0
 70
    65
 10
0.0
 20
0.0
 30
0.0
  3
*D0
  0
LINE
  8
LC-003-003-MTH-0
  6
CONTINUOUS
  5
25
 10
287.577595
 20
254.168657
 30
0.0
 11
229.2
 21
254.168657
 31
0.0
  0
LINE
  8
LC-003-003-MTH-0
  6
CONTINUOUS
  5
26
 10
287.577595
 20
364.368657
 30
0.0
 11
229.2
 21
364.368657
 31
0.0
  0
LINE
  8
LC-004-003-MTG-0
  6
CONTINUOUS
  5
28
 10
240.0
 20
254.168657
 30
0.0
 11
240.0
 21
364.368657
 31
0.0
  0
LINE
  8
LC-002-003-----0
  6
CONTINUOUS
  5
2A
 10
237.650529
 20
272.014665
 30
0.0
 11
240.0
 21
254.168657
 31
0.0
  0
LINE
  8
LC-002-003-----0
  6
CONTINUOUS
  5
2B
 10
240.0
 20
254.168657
 30
0.0
 11
242.349471
 21
272.014665
 31
0.0
  0
LINE
  8
LC-002-003-----0
  6
CONTINUOUS
  5
2C
 10
242.349471
 20
272.014665
 30
0.0
 11
237.650529
 21
272.014665
 31
0.0
  0
LINE
  8
LC-002-003-----0
  6
CONTINUOUS
  5
2D
 10
238.261391
 20
272.054703
 30
0.0
 11
240.0
 21
258.848657
 31
0.0
  0
LINE
  8
LC-002-003-----0
  6
CONTINUOUS
  5
2E
 10
240.0
 20
258.848657
 30
0.0
 11
241.738609
 21
272.054703
 31
0.0
  0
LINE
  8
LC-002-003-----0
  6
CONTINUOUS
  5
2F
 10
238.872254
 20
272.094741
 30
0.0
 11
240.0
 21
263.528657
 31
0.0
  0
LINE
  8
LC-002-003-----0
  6
CONTINUOUS
  5
30
 10
240.0
 20
263.528657
 30
0.0
 11
241.127746
 21
272.094741
 31
0.0
  0
LINE
  8
LC-002-003-----0
  6
CONTINUOUS
  5
31
 10
239.483116
 20
272.134779
 30
0.0
 11
240.0
 21
268.208657
 31
0.0
  0
LINE
  8
LC-002-003-----0
  6
CONTINUOUS
  5
32
 10
240.0
 20
268.208657
 30
0.0
 11
240.516884
 21
272.134779
 31
0.0
  0
LINE
  8
LC-002-003-----0
  6
CONTINUOUS
  5
33
 10
242.349471
 20
346.52265
 30
0.0
 11
240.0
 21
364.368657
 31
0.0
  0
LINE
  8
LC-002-003-----0
  6
CONTINUOUS
  5
34
 10
240.0
 20
364.368657
 30
0.0
 11
237.650529
 21
346.52265
 31
0.0
  0
LINE
  8
LC-002-003-----0
  6
CONTINUOUS
  5
35
 10
237.650529
 20
346.52265
 30
0.0
 11
242.349471
 21
346.52265
 31
0.0
  0
LINE
  8
LC-002-003-----0
  6
CONTINUOUS
  5
36
 10
241.738609
 20
346.482612
 30
0.0
 11
240.0
 21
359.688657
 31
0.0
  0
LINE
  8
LC-002-003-----0
  6
CONTINUOUS
  5
37
 10
240.0
 20
359.688657
 30
0.0
 11
238.261391
 21
346.482612
 31
0.0
  0
LINE
  8
LC-002-003-----0
  6
CONTINUOUS
  5
38
 10
241.127746
 20
346.442574
 30
0.0
 11
240.0
 21
355.008657
 31
0.0
  0
LINE
  8
LC-002-003-----0
  6
CONTINUOUS
  5
39
 10
240.0
 20
355.008657
 30
0.0
 11
238.872254
 21
346.442574
 31
0.0
  0
LINE
  8
LC-002-003-----0
  6
CONTINUOUS
  5
3A
 10
240.516884
 20
346.402535
 30
0.0
 11
240.0
 21
350.328657
 31
0.0
  0
LINE
  8
LC-002-003-----0
  6
CONTINUOUS
  5
3B
 10
240.0
 20
350.328657
 30
0.0
 11
239.483116
 21
346.402535
 31
0.0
  0
TEXT
  8
LC-002-003-----0
  6
CONTINUOUS
 62
     6
  5
3D
 10
229.568001
 20
278.388312
 30
0.0
 40
18.0
  1
DN100
 50
90.0
 41
0.9
 51
15.0
  7
LC-TXTSTYLE-150-400-0-0-D0
 72
     1
 11
229.568001
 21
312.063903
 31
0.0
  0
ENDBLK
  8
0
  5
3E
  0
BLOCK
  8
0
  5
40
  2
*X1
 70
    65
 10
483.497485
 20
126.933288
 30
0.0
  3
*X1
  0
LINE
  8
LC-006-005-----0
  6
CONTINUOUS
  5
42
 10
483.697485
 20
127.033288
 30
0.0
 11
483.667607
 21
127.104582
 31
0.0
  0
LINE
  8
LC-006-005-----0
  6
CONTINUOUS
  5
43
 10
485.906081
 20
127.133288
 30
0.0
 11
485.860625
 21
127.122359
 31
0.0
  0
LINE
  8
LC-006-005-----0
  6
CONTINUOUS
  5
44
 10
483.697485
 20
127.033288
 30
0.0
 11
483.667607
 21
127.104582
 31
0.0
  0
LINE
  8
LC-006-005-----0
  6
CONTINUOUS
  5
45
 10
483.697485
 20
127.033288
 30
0.0
 11
483.597485
 21
127.033288
 31
0.0
  0
LINE
  8
LC-006-005-----0
  6
CONTINUOUS
  5
46
 10
483.597485
 20
127.033288
 30
0.0
 11
483.667607
 21
127.104582
 31
0.0
  0
LINE
  8
LC-006-005-----0
  6
CONTINUOUS
  5
47
 10
485.906081
 20
127.133288
 30
0.0
 11
485.860625
 21
127.122359
 31
0.0
  0
LINE
  8
LC-006-005-----0
  6
CONTINUOUS
  5
48
 10
485.906081
 20
127.133288
 30
0.0
 11
485.906081
 21
127.033288
 31
0.0
  0
LINE
  8
LC-006-005-----0
  6
CONTINUOUS
  5
49
 10
485.906081
 20
127.033288
 30
0.0
 11
485.860625
 21
127.122359
 31
0.0
  0
ENDBLK
  8
0
  5
4A
  0
BLOCK
  8
0
  5
4C
  2
*X2
 70
    65
 10
468.997485
 20
121.134709
 30
0.0
  3
*X2
  0
LINE
  8
LC-006-005-----0
  6
CONTINUOUS
  5
4D
 10
489.066081
 20
121.370555
 30
0.0
 11
490.186193
 21
122.490667
 31
0.0
  0
LINE
  8
LC-006-005-----0
  6
CONTINUOUS
  5
4E
 10
488.850879
 20
123.98378
 30
0.0
 11
490.808232
 21
125.941133
 31
0.0
  0
LINE
  8
LC-006-005-----0
  6
CONTINUOUS
  5
4F
 10
492.000387
 20
127.133288
 30
0.0
 11
493.997485
 21
129.130386
 31
0.0
  0
LINE
  8
LC-006-005-----0
  6
CONTINUOUS
  5
50
 10
483.690415
 20
121.651743
 30
0.0
 11
485.086532
 21
123.04786
 31
0.0
  0
LINE
  8
LC-006-005-----0
  6
CONTINUOUS
  5
51
 10
488.803727
 20
126.765056
 30
0.0
 11
493.997485
 21
131.958813
 31
0.0
  0
LINE
  8
LC-006-005-----0
  6
CONTINUOUS
  5
52
 10
483.643263
 20
124.433018
 30
0.0
 11
485.708
 21
126.497755
 31
0.0
  0
LINE
  8
LC-006-005-----0
  6
CONTINUOUS
  5
53
 10
486.273782
 20
127.063537
 30
0.0
 11
489.401221
 21
130.190977
 31
0.0
  0
LINE
  8
LC-006-005-----0
  6
CONTINUOUS
  5
54
 10
490.797485
 20
131.58724
 30
0.0
 11
491.943532
 21
132.733288
 31
0.0
  0
LINE
  8
LC-006-005-----0
  6
CONTINUOUS
  5
55
 10
478.089467
 20
121.707649
 30
0.0
 11
479.499024
 21
123.117206
 31
0.0
  0
LINE
  8
LC-006-005-----0
  6
CONTINUOUS
  5
56
 10
483.513047
 20
127.131229
 30
0.0
 11
486.515105
 21
130.133288
 31
0.0
  0
LINE
  8
LC-006-005-----0
  6
CONTINUOUS
  5
57
 10
478.042315
 20
124.488925
 30
0.0
 11
480.120492
 21
126.567102
 31
0.0
  0
LINE
  8
LC-006-005-----0
  6
CONTINUOUS
  5
58
 10
480.613949
 20
127.060558
 30
0.0
 11
483.686678
 21
130.133288
 31
0.0
  0
LINE
  8
LC-006-005-----0
  6
CONTINUOUS
  5
59
 10
472.488519
 20
121.763556
 30
0.0
 11
473.911516
 21
123.186553
 31
0.0
  0
LINE
  8
LC-006-005-----0
  6
CONTINUOUS
  5
5A
 10
477.854772
 20
127.129809
 30
0.0
 11
480.858251
 21
130.133288
 31
0.0
  0
LINE
  8
LC-006-005-----0
  6
CONTINUOUS
  5
5B
 10
472.441367
 20
124.544831
 30
0.0
 11
474.532984
 21
126.636448
 31
0.0
  0
LINE
  8
LC-006-005-----0
  6
CONTINUOUS
  5
5C
 10
474.955674
 20
127.059137
 30
0.0
 11
478.396888
 21
130.500352
 31
0.0
  0
LINE
  8
LC-006-005-----0
  6
CONTINUOUS
  5
5D
 10
472.201397
 20
127.133288
 30
0.0
 11
475.201397
 21
130.133288
 31
0.0
  0
LINE
  8
LC-006-005-----0
  6
CONTINUOUS
  5
5E
 10
469.37297
 20
127.133288
 30
0.0
 11
472.37297
 21
130.133288
 31
0.0
  0
LINE
  8
LC-006-005-----0
  6
CONTINUOUS
  5
5F
 10
468.997485
 20
129.58623
 30
0.0
 11
469.544543
 21
130.133288
 31
0.0
  0
ENDBLK
  8
0
  5
60
  0
BLOCK
  8
0
  5
62
  2
BLK1
 70
    64
 10
0.0
 20
0.0
 30
0.0
  3
BLK1
  0
ENDBLK
  8
0
  5
63
  0
BLOCK
  8
0
  5
65
  2
*X4
 70
    65
 10
269.997651
 20
243.834119
 30
0.0
  3
*X4
  0
LINE
  8
LC-006-005-----0
  6
CONTINUOUS
  5
66
 10
447.480877
 20
243.834124
 30
0.0
 11
449.693609
 21
246.046856
 31
0.0
  0
LINE
  8
LC-006-005-----0
  6
CONTINUOUS
  5
67
 10
444.652456
 20
243.83413
 30
0.0
 11
448.514776
 21
247.69645
 31
0.0
  0
LINE
  8
LC-006-005-----0
  6
CONTINUOUS
  5
68
 10
441.824034
 20
243.834135
 30
0.0
 11
444.524527
 21
246.534628
 31
0.0
  0
LINE
  8
LC-006-005-----0
  6
CONTINUOUS
  5
69
 10
445.35158
 20
247.361681
 30
0.0
 11
447.22502
 21
249.235121
 31
0.0
  0
LINE
  8
LC-006-005-----0
  6
CONTINUOUS
  5
6A
 10
438.995613
 20
243.834141
 30
0.0
 11
441.696105
 21
246.534633
 31
0.0
  0
LINE
  8
LC-006-005-----0
  6
CONTINUOUS
  5
6B
 10
436.167191
 20
243.834147
 30
0.0
 11
438.867683
 21
246.534639
 31
0.0
  0
LINE
  8
LC-006-005-----0
  6
CONTINUOUS
  5
6C
 10
433.33877
 20
243.834152
 30
0.0
 11
436.039262
 21
246.534644
 31
0.0
  0
LINE
  8
LC-006-005-----0
  6
CONTINUOUS
  5
6D
 10
430.510348
 20
243.834158
 30
0.0
 11
433.21084
 21
246.53465
 31
0.0
  0
LINE
  8
LC-006-005-----0
  6
CONTINUOUS
  5
6E
 10
427.681927
 20
243.834164
 30
0.0
 11
430.382418
 21
246.534655
 31
0.0
  0
LINE
  8
LC-006-005-----0
  6
CONTINUOUS
  5
6F
 10
425.481276
 20
244.46194
 30
0.0
 11
427.553997
 21
246.534661
 31
0.0
  0
LINE
  8
LC-006-005-----0
  6
CONTINUOUS
  5
70
 10
424.956651
 20
246.765742
 30
0.0
 11
427.411651
 21
249.220742
 31
0.0
  0
LINE
  8
LC-006-005-----0
  6
CONTINUOUS
  5
71
 10
423.256228
 20
247.893746
 30
0.0
 11
425.71123
 21
250.348748
 31
0.0
  0
LINE
  8
LC-006-005-----0
  6
CONTINUOUS
  5
72
 10
420.4278
 20
247.893746
 30
0.0
 11
422.882803
 21
250.348748
 31
0.0
  0
LINE
  8
LC-006-005-----0
  6
CONTINUOUS
  5
73
 10
417.599373
 20
247.893746
 30
0.0
 11
420.054376
 21
250.348748
 31
0.0
  0
LINE
  8
LC-006-005-----0
  6
CONTINUOUS
  5
74
 10
414.770946
 20
247.893746
 30
0.0
 11
417.225948
 21
250.348748
 31
0.0
  0
LINE
  8
LC-006-005-----0
  6
CONTINUOUS
  5
75
 10
411.942519
 20
247.893745
 30
0.0
 11
414.397521
 21
250.348748
 31
0.0
  0
LINE
  8
LC-006-005-----0
  6
CONTINUOUS
  5
76
 10
409.114091
 20
247.893745
 30
0.0
 11
411.569094
 21
250.348748
 31
0.0
  0
LINE
  8
LC-006-005-----0
  6
CONTINUOUS
  5
77
 10
406.285664
 20
247.893745
 30
0.0
 11
408.740667
 21
250.348748
 31
0.0
  0
LINE
  8
LC-006-005-----0
  6
CONTINUOUS
  5
78
 10
403.523715
 20
247.960224
 30
0.0
 11
405.91224
 21
250.348748
 31
0.0
  0
LINE
  8
LC-006-005-----0
  6
CONTINUOUS
  5
79
 10
401.796954
 20
249.061889
 30
0.0
 11
403.835459
 21
251.100394
 31
0.0
  0
LINE
  8
LC-006-005-----0
  6
CONTINUOUS
  5
7A
 10
401.093393
 20
251.186755
 30
0.0
 11
403.186706
 21
253.280069
 31
0.0
  0
LINE
  8
LC-006-005-----0
  6
CONTINUOUS
  5
7B
 10
400.278018
 20
253.199808
 30
0.0
 11
402.25611
 21
255.1779
 31
0.0
  0
LINE
  8
LC-006-005-----0
  6
CONTINUOUS
  5
7C
 10
398.402122
 20
254.152338
 30
0.0
 11
400.811412
 21
256.561629
 31
0.0
  0
LINE
  8
LC-006-005-----0
  6
CONTINUOUS
  5
7D
 10
395.590013
 20
254.168657
 30
0.0
 11
398.839319
 21
257.417963
 31
0.0
  0
LINE
  8
LC-006-005-----0
  6
CONTINUOUS
  5
7E
 10
392.761586
 20
254.168657
 30
0.0
 11
396.153762
 21
257.560833
 31
0.0
  0
LINE
  8
LC-006-005-----0
  6
CONTINUOUS
  5
7F
 10
389.933159
 20
254.168657
 30
0.0
 11
393.310447
 21
257.545945
 31
0.0
  0
LINE
  8
LC-006-005-----0
  6
CONTINUOUS
  5
80
 10
387.104732
 20
254.168657
 30
0.0
 11
390.467132
 21
257.531057
 31
0.0
  0
LINE
  8
LC-006-005-----0
  6
CONTINUOUS
  5
81
 10
384.276305
 20
254.168657
 30
0.0
 11
387.623817
 21
257.51617
 31
0.0
  0
LINE
  8
LC-006-005-----0
  6
CONTINUOUS
  5
82
 10
381.447878
 20
254.168657
 30
0.0
 11
384.780502
 21
257.501282
 31
0.0
  0
LINE
  8
LC-006-005-----0
  6
CONTINUOUS
  5
83
 10
378.619451
 20
254.168657
 30
0.0
 11
381.937188
 21
257.486394
 31
0.0
  0
LINE
  8
LC-006-005-----0
  6
CONTINUOUS
  5
84
 10
375.791023
 20
254.168657
 30
0.0
 11
379.093873
 21
257.471506
 31
0.0
  0
LINE
  8
LC-006-005-----0
  6
CONTINUOUS
  5
85
 10
372.962596
 20
254.168657
 30
0.0
 11
376.250558
 21
257.456619
 31
0.0
  0
LINE
  8
LC-006-005-----0
  6
CONTINUOUS
  5
86
 10
370.134169
 20
254.168657
 30
0.0
 11
373.407243
 21
257.441731
 31
0.0
  0
LINE
  8
LC-006-005-----0
  6
CONTINUOUS
  5
87
 10
367.305742
 20
254.168657
 30
0.0
 11
370.563928
 21
257.426843
 31
0.0
  0
LINE
  8
LC-006-005-----0
  6
CONTINUOUS
  5
88
 10
364.477315
 20
254.168657
 30
0.0
 11
367.720614
 21
257.411956
 31
0.0
  0
LINE
  8
LC-006-005-----0
  6
CONTINUOUS
  5
89
 10
361.648888
 20
254.168657
 30
0.0
 11
364.877299
 21
257.397068
 31
0.0
  0
LINE
  8
LC-006-005-----0
  6
CONTINUOUS
  5
8A
 10
358.820461
 20
254.168657
 30
0.0
 11
362.033984
 21
257.38218
 31
0.0
  0
LINE
  8
LC-006-005-----0
  6
CONTINUOUS
  5
8B
 10
355.992034
 20
254.168657
 30
0.0
 11
359.190669
 21
257.367293
 31
0.0
  0
LINE
  8
LC-006-005-----0
  6
CONTINUOUS
  5
8C
 10
353.163606
 20
254.168657
 30
0.0
 11
356.347354
 21
257.352405
 31
0.0
  0
LINE
  8
LC-006-005-----0
  6
CONTINUOUS
  5
8D
 10
350.335179
 20
254.168657
 30
0.0
 11
353.504039
 21
257.337517
 31
0.0
  0
LINE
  8
LC-006-005-----0
  6
CONTINUOUS
  5
8E
 10
347.506752
 20
254.168657
 30
0.0
 11
350.660725
 21
257.322629
 31
0.0
  0
LINE
  8
LC-006-005-----0
  6
CONTINUOUS
  5
8F
 10
344.678325
 20
254.168657
 30
0.0
 11
347.81741
 21
257.307742
 31
0.0
  0
LINE
  8
LC-006-005-----0
  6
CONTINUOUS
  5
90
 10
341.849898
 20
254.168657
 30
0.0
 11
344.974095
 21
257.292854
 31
0.0
  0
LINE
  8
LC-006-005-----0
  6
CONTINUOUS
  5
91
 10
339.021471
 20
254.168657
 30
0.0
 11
342.13078
 21
257.277966
 31
0.0
  0
LINE
  8
LC-006-005-----0
  6
CONTINUOUS
  5
92
 10
336.193044
 20
254.168657
 30
0.0
 11
339.287465
 21
257.263079
 31
0.0
  0
LINE
  8
LC-006-005-----0
  6
CONTINUOUS
  5
93
 10
333.364617
 20
254.168657
 30
0.0
 11
336.444151
 21
257.248191
 31
0.0
  0
LINE
  8
LC-006-005-----0
  6
CONTINUOUS
  5
94
 10
330.536189
 20
254.168657
 30
0.0
 11
333.600836
 21
257.233303
 31
0.0
  0
LINE
  8
LC-006-005-----0
  6
CONTINUOUS
  5
95
 10
327.707762
 20
254.168657
 30
0.0
 11
330.757521
 21
257.218416
 31
0.0
  0
LINE
  8
LC-006-005-----0
  6
CONTINUOUS
  5
96
 10
324.879335
 20
254.168657
 30
0.0
 11
327.914206
 21
257.203528
 31
0.0
  0
LINE
  8
LC-006-005-----0
  6
CONTINUOUS
  5
97
 10
322.050908
 20
254.168657
 30
0.0
 11
325.070891
 21
257.18864
 31
0.0
  0
LINE
  8
LC-006-005-----0
  6
CONTINUOUS
  5
98
 10
319.222481
 20
254.168657
 30
0.0
 11
322.227576
 21
257.173753
 31
0.0
  0
LINE
  8
LC-006-005-----0
  6
CONTINUOUS
  5
99
 10
316.394054
 20
254.168657
 30
0.0
 11
319.384262
 21
257.158865
 31
0.0
  0
LINE
  8
LC-006-005-----0
  6
CONTINUOUS
  5
9A
 10
313.565627
 20
254.168657
 30
0.0
 11
316.540947
 21
257.143977
 31
0.0
  0
LINE
  8
LC-006-005-----0
  6
CONTINUOUS
  5
9B
 10
310.7372
 20
254.168657
 30
0.0
 11
313.697632
 21
257.129089
 31
0.0
  0
LINE
  8
LC-006-005-----0
  6
CONTINUOUS
  5
9C
 10
307.908772
 20
254.168657
 30
0.0
 11
310.854317
 21
257.114202
 31
0.0
  0
LINE
  8
LC-006-005-----0
  6
CONTINUOUS
  5
9D
 10
305.080345
 20
254.168657
 30
0.0
 11
308.011002
 21
257.099314
 31
0.0
  0
LINE
  8
LC-006-005-----0
  6
CONTINUOUS
  5
9E
 10
302.251918
 20
254.168657
 30
0.0
 11
305.167687
 21
257.084426
 31
0.0
  0
LINE
  8
LC-006-005-----0
  6
CONTINUOUS
  5
9F
 10
299.423491
 20
254.168657
 30
0.0
 11
302.324373
 21
257.069539
 31
0.0
  0
LINE
  8
LC-006-005-----0
  6
CONTINUOUS
  5
A0
 10
296.595064
 20
254.168657
 30
0.0
 11
299.481058
 21
257.054651
 31
0.0
  0
LINE
  8
LC-006-005-----0
  6
CONTINUOUS
  5
A1
 10
293.766637
 20
254.168657
 30
0.0
 11
296.637743
 21
257.039763
 31
0.0
  0
LINE
  8
LC-006-005-----0
  6
CONTINUOUS
  5
A2
 10
290.93821
 20
254.168657
 30
0.0
 11
293.794428
 21
257.024876
 31
0.0
  0
LINE
  8
LC-006-005-----0
  6
CONTINUOUS
  5
A3
 10
288.109783
 20
254.168657
 30
0.0
 11
290.951113
 21
257.009988
 31
0.0
  0
LINE
  8
LC-006-005-----0
  6
CONTINUOUS
  5
A4
 10
285.281355
 20
254.168657
 30
0.0
 11
288.107799
 21
256.9951
 31
0.0
  0
LINE
  8
LC-006-005-----0
  6
CONTINUOUS
  5
A5
 10
282.452928
 20
254.168657
 30
0.0
 11
285.264484
 21
256.980212
 31
0.0
  0
LINE
  8
LC-006-005-----0
  6
CONTINUOUS
  5
A6
 10
279.624501
 20
254.168657
 30
0.0
 11
282.421169
 21
256.965325
 31
0.0
  0
LINE
  8
LC-006-005-----0
  6
CONTINUOUS
  5
A7
 10
276.796074
 20
254.168657
 30
0.0
 11
279.577854
 21
256.950437
 31
0.0
  0
LINE
  8
LC-006-005-----0
  6
CONTINUOUS
  5
A8
 10
274.083876
 20
254.284887
 30
0.0
 11
276.734539
 21
256.935549
 31
0.0
  0
LINE
  8
LC-006-005-----0
  6
CONTINUOUS
  5
A9
 10
271.853166
 20
254.882604
 30
0.0
 11
273.891224
 21
256.920662
 31
0.0
  0
LINE
  8
LC-006-005-----0
  6
CONTINUOUS
  5
AA
 10
269.997651
 20
255.855515
 30
0.0
 11
271.04791
 21
256.905774
 31
0.0
  0
ENDBLK
  8
0
  5
AB
  0
BLOCK
  8
0
  5
AD
  2
*D5
 70
    65
 10
0.0
 20
0.0
 30
0.0
  3
*D5
  0
LINE
  8
LC-003-003-MTH-0
  6
CONTINUOUS
  5
AE
 10
269.997651
 20
363.157527
 30
0.0
 11
269.997651
 21
410.8
 31
0.0
  0
LINE
  8
LC-003-003-MTH-0
  6
CONTINUOUS
  5
AF
 10
449.997651
 20
374.703195
 30
0.0
 11
449.997651
 21
410.8
 31
0.0
  0
LINE
  8
LC-004-003-MTG-0
  6
CONTINUOUS
  5
B0
 10
269.997651
 20
400.0
 30
0.0
 11
449.997651
 21
400.0
 31
0.0
  0
LINE
  8
LC-002-003-----0
  6
CONTINUOUS
  5
B1
 10
287.843658
 20
402.349471
 30
0.0
 11
269.997651
 21
400.0
 31
0.0
  0
LINE
  8
LC-002-003-----0
  6
CONTINUOUS
  5
B2
 10
269.997651
 20
400.0
 30
0.0
 11
287.843658
 21
397.650529
 31
0.0
  0
LINE
  8
LC-002-003-----0
  6
CONTINUOUS
  5
B3
 10
287.843658
 20
397.650529
 30
0.0
 11
287.843658
 21
402.349471
 31
0.0
  0
LINE
  8
LC-002-003-----0
  6
CONTINUOUS
  5
B4
 10
287.883696
 20
401.738609
 30
0.0
 11
274.677651
 21
400.0
 31
0.0
  0
LINE
  8
LC-002-003-----0
  6
CONTINUOUS
  5
B5
 10
274.677651
 20
400.0
 30
0.0
 11
287.883696
 21
398.261391
 31
0.0
  0
LINE
  8
LC-002-003-----0
  6
CONTINUOUS
  5
B6
 10
287.923734
 20
401.127746
 30
0.0
 11
279.357651
 21
400.0
 31
0.0
  0
LINE
  8
LC-002-003-----0
  6
CONTINUOUS
  5
B7
 10
279.357651
 20
400.0
 30
0.0
 11
287.923734
 21
398.872254
 31
0.0
  0
LINE
  8
LC-002-003-----0
  6
CONTINUOUS
  5
B8
 10
287.963773
 20
400.516884
 30
0.0
 11
284.037651
 21
400.0
 31
0.0
  0
LINE
  8
LC-002-003-----0
  6
CONTINUOUS
  5
B9
 10
284.037651
 20
400.0
 30
0.0
 11
287.963773
 21
399.483116
 31
0.0
  0
LINE
  8
LC-002-003-----0
  6
CONTINUOUS
  5
BA
 10
432.151643
 20
397.650529
 30
0.0
 11
449.997651
 21
400.0
 31
0.0
  0
LINE
  8
LC-002-003-----0
  6
CONTINUOUS
  5
BB
 10
449.997651
 20
400.0
 30
0.0
 11
432.151643
 21
402.349471
 31
0.0
  0
LINE
  8
LC-002-003-----0
  6
CONTINUOUS
  5
BC
 10
432.151643
 20
402.349471
 30
0.0
 11
432.151643
 21
397.650529
 31
0.0
  0
LINE
  8
LC-002-003-----0
  6
CONTINUOUS
  5
BD
 10
432.111605
 20
398.261391
 30
0.0
 11
445.317651
 21
400.0
 31
0.0
  0
LINE
  8
LC-002-003-----0
  6
CONTINUOUS
  5
BE
 10
445.317651
 20
400.0
 30
0.0
 11
432.111605
 21
401.738609
 31
0.0
  0
LINE
  8
LC-002-003-----0
  6
CONTINUOUS
  5
BF
 10
432.071567
 20
398.872254
 30
0.0
 11
440.637651
 21
400.0
 31
0.0
  0
LINE
  8
LC-002-003-----0
  6
CONTINUOUS
  5
C0
 10
440.637651
 20
400.0
 30
0.0
 11
432.071567
 21
401.127746
 31
0.0
  0
LINE
  8
LC-002-003-----0
  6
CONTINUOUS
  5
C1
 10
432.031529
 20
399.483116
 30
0.0
 11
435.957651
 21
400.0
 31
0.0
  0
LINE
  8
LC-002-003-----0
  6
CONTINUOUS
  5
C2
 10
435.957651
 20
400.0
 30
0.0
 11
432.031529
 21
400.516884
 31
0.0
  0
TEXT
  8
LC-002-003-----0
  6
CONTINUOUS
 62
     6
  5
C3
 10
343.659038
 20
410.431999
 30
0.0
 40
18.0
  1
180
 51
15.0
  7
LC-TXTSTYLE-150-400-0-0-D0
 72
     1
 11
362.792897
 21
410.431999
 31
0.0
  0
ENDBLK
  8
0
  5
C4
  0
BLOCK
  8
0
  5
C6
  2
*X6
 70
    65
 10
269.997651
 20
360.969415
 30
0.0
  3
*X6
  0
LINE
  8
LC-006-005-----0
  6
CONTINUOUS
  5
C7
 10
446.153757
 20
369.786225
 30
0.0
 11
449.997651
 21
373.630119
 31
0.0
  0
LINE
  8
LC-006-005-----0
  6
CONTINUOUS
  5
C8
 10
445.118479
 20
371.579374
 30
0.0
 11
448.242297
 21
374.703192
 31
0.0
  0
LINE
  8
LC-006-005-----0
  6
CONTINUOUS
  5
C9
 10
442.713361
 20
372.002683
 30
0.0
 11
445.413864
 21
374.703186
 31
0.0
  0
LINE
  8
LC-006-005-----0
  6
CONTINUOUS
  5
CA
 10
439.884928
 20
372.002677
 30
0.0
 11
442.585431
 21
374.70318
 31
0.0
  0
LINE
  8
LC-006-005-----0
  6
CONTINUOUS
  5
CB
 10
437.056496
 20
372.002672
 30
0.0
 11
439.756999
 21
374.703175
 31
0.0
  0
LINE
  8
LC-006-005-----0
  6
CONTINUOUS
  5
CC
 10
434.228063
 20
372.002666
 30
0.0
 11
436.928566
 21
374.703169
 31
0.0
  0
LINE
  8
LC-006-005-----0
  6
CONTINUOUS
  5
CD
 10
431.39963
 20
372.002661
 30
0.0
 11
434.100133
 21
374.703163
 31
0.0
  0
LINE
  8
LC-006-005-----0
  6
CONTINUOUS
  5
CE
 10
424.757109
 20
368.188566
 30
0.0
 11
427.411651
 21
370.843108
 31
0.0
  0
LINE
  8
LC-006-005-----0
  6
CONTINUOUS
  5
CF
 10
428.571198
 20
372.002655
 30
0.0
 11
431.2717
 21
374.703158
 31
0.0
  0
LINE
  8
LC-006-005-----0
  6
CONTINUOUS
  5
D0
 10
421.928681
 20
368.188566
 30
0.0
 11
424.383684
 21
370.643568
 31
0.0
  0
LINE
  8
LC-006-005-----0
  6
CONTINUOUS
  5
D1
 10
424.956651
 20
371.216536
 30
0.0
 11
428.443268
 21
374.703152
 31
0.0
  0
LINE
  8
LC-006-005-----0
  6
CONTINUOUS
  5
D2
 10
419.100254
 20
368.188566
 30
0.0
 11
421.555257
 21
370.643568
 31
0.0
  0
LINE
  8
LC-006-005-----0
  6
CONTINUOUS
  5
D3
 10
416.271827
 20
368.188566
 30
0.0
 11
418.72683
 21
370.643568
 31
0.0
  0
LINE
  8
LC-006-005-----0
  6
CONTINUOUS
  5
D4
 10
413.4434
 20
368.188566
 30
0.0
 11
415.898403
 21
370.643569
 31
0.0
  0
LINE
  8
LC-006-005-----0
  6
CONTINUOUS
  5
D5
 10
410.614973
 20
368.188566
 30
0.0
 11
413.069976
 21
370.643569
 31
0.0
  0
LINE
  8
LC-006-005-----0
  6
CONTINUOUS
  5
D6
 10
407.786546
 20
368.188566
 30
0.0
 11
410.241549
 21
370.643569
 31
0.0
  0
LINE
  8
LC-006-005-----0
  6
CONTINUOUS
  5
D7
 10
397.743245
 20
360.973693
 30
0.0
 11
403.478426
 21
366.708873
 31
0.0
  0
LINE
  8
LC-006-005-----0
  6
CONTINUOUS
  5
D8
 10
404.898357
 20
368.128804
 30
0.0
 11
407.413122
 21
370.643569
 31
0.0
  0
LINE
  8
LC-006-005-----0
  6
CONTINUOUS
  5
D9
 10
394.924046
 20
360.98292
 30
0.0
 11
398.318468
 21
364.377343
 31
0.0
  0
LINE
  8
LC-006-005-----0
  6
CONTINUOUS
  5
DA
 10
401.050943
 20
367.109818
 30
0.0
 11
404.584695
 21
370.643569
 31
0.0
  0
LINE
  8
LC-006-005-----0
  6
CONTINUOUS
  5
DB
 10
392.110351
 20
360.997653
 30
0.0
 11
395.481355
 21
364.368657
 31
0.0
  0
LINE
  8
LC-006-005-----0
  6
CONTINUOUS
  5
DC
 10
389.296657
 20
361.012386
 30
0.0
 11
392.652928
 21
364.368657
 31
0.0
  0
LINE
  8
LC-006-005-----0
  6
CONTINUOUS
  5
DD
 10
386.482962
 20
361.027118
 30
0.0
 11
389.824501
 21
364.368657
 31
0.0
  0
LINE
  8
LC-006-005-----0
  6
CONTINUOUS
  5
DE
 10
383.669268
 20
361.041851
 30
0.0
 11
386.996074
 21
364.368657
 31
0.0
  0
LINE
  8
LC-006-005-----0
  6
CONTINUOUS
  5
DF
 10
380.855573
 20
361.056583
 30
0.0
 11
384.167647
 21
364.368657
 31
0.0
  0
LINE
  8
LC-006-005-----0
  6
CONTINUOUS
  5
E0
 10
378.041879
 20
361.071316
 30
0.0
 11
381.33922
 21
364.368657
 31
0.0
  0
LINE
  8
LC-006-005-----0
  6
CONTINUOUS
  5
E1
 10
375.228184
 20
361.086049
 30
0.0
 11
378.510793
 21
364.368657
 31
0.0
  0
LINE
  8
LC-006-005-----0
  6
CONTINUOUS
  5
E2
 10
372.41449
 20
361.100781
 30
0.0
 11
375.682366
 21
364.368657
 31
0.0
  0
LINE
  8
LC-006-005-----0
  6
CONTINUOUS
  5
E3
 10
369.600795
 20
361.115514
 30
0.0
 11
372.853938
 21
364.368657
 31
0.0
  0
LINE
  8
LC-006-005-----0
  6
CONTINUOUS
  5
E4
 10
366.787101
 20
361.130246
 30
0.0
 11
370.025511
 21
364.368657
 31
0.0
  0
LINE
  8
LC-006-005-----0
  6
CONTINUOUS
  5
E5
 10
363.973406
 20
361.144979
 30
0.0
 11
367.197084
 21
364.368657
 31
0.0
  0
LINE
  8
LC-006-005-----0
  6
CONTINUOUS
  5
E6
 10
361.159712
 20
361.159712
 30
0.0
 11
364.368657
 21
364.368657
 31
0.0
  0
LINE
  8
LC-006-005-----0
  6
CONTINUOUS
  5
E7
 10
358.346017
 20
361.174444
 30
0.0
 11
361.54023
 21
364.368657
 31
0.0
  0
LINE
  8
LC-006-005-----0
  6
CONTINUOUS
  5
E8
 10
355.532323
 20
361.189177
 30
0.0
 11
358.711803
 21
364.368657
 31
0.0
  0
LINE
  8
LC-006-005-----0
  6
CONTINUOUS
  5
E9
 10
352.718628
 20
361.203909
 30
0.0
 11
355.883376
 21
364.368657
 31
0.0
  0
LINE
  8
LC-006-005-----0
  6
CONTINUOUS
  5
EA
 10
349.904934
 20
361.218642
 30
0.0
 11
353.054949
 21
364.368657
 31
0.0
  0
LINE
  8
LC-006-005-----0
  6
CONTINUOUS
  5
EB
 10
347.091239
 20
361.233375
 30
0.0
 11
350.226521
 21
364.368657
 31
0.0
  0
LINE
  8
LC-006-005-----0
  6
CONTINUOUS
  5
EC
 10
344.277545
 20
361.248107
 30
0.0
 11
347.398094
 21
364.368657
 31
0.0
  0
LINE
  8
LC-006-005-----0
  6
CONTINUOUS
  5
ED
 10
341.46385
 20
361.26284
 30
0.0
 11
344.569667
 21
364.368657
 31
0.0
  0
LINE
  8
LC-006-005-----0
  6
CONTINUOUS
  5
EE
 10
338.650155
 20
361.277572
 30
0.0
 11
341.74124
 21
364.368657
 31
0.0
  0
LINE
  8
LC-006-005-----0
  6
CONTINUOUS
  5
EF
 10
335.836461
 20
361.292305
 30
0.0
 11
338.912813
 21
364.368657
 31
0.0
  0
LINE
  8
LC-006-005-----0
  6
CONTINUOUS
  5
F0
 10
333.022766
 20
361.307038
 30
0.0
 11
336.084386
 21
364.368657
 31
0.0
  0
LINE
  8
LC-006-005-----0
  6
CONTINUOUS
  5
F1
 10
330.209072
 20
361.32177
 30
0.0
 11
333.255959
 21
364.368657
 31
0.0
  0
LINE
  8
LC-006-005-----0
  6
CONTINUOUS
  5
F2
 10
327.395377
 20
361.336503
 30
0.0
 11
330.427532
 21
364.368657
 31
0.0
  0
LINE
  8
LC-006-005-----0
  6
CONTINUOUS
  5
F3
 10
324.581683
 20
361.351236
 30
0.0
 11
327.599104
 21
364.368657
 31
0.0
  0
LINE
  8
LC-006-005-----0
  6
CONTINUOUS
  5
F4
 10
321.767988
 20
361.365968
 30
0.0
 11
324.770677
 21
364.368657
 31
0.0
  0
LINE
  8
LC-006-005-----0
  6
CONTINUOUS
  5
F5
 10
318.954294
 20
361.380701
 30
0.0
 11
321.94225
 21
364.368657
 31
0.0
  0
LINE
  8
LC-006-005-----0
  6
CONTINUOUS
  5
F6
 10
316.140599
 20
361.395433
 30
0.0
 11
319.113823
 21
364.368657
 31
0.0
  0
LINE
  8
LC-006-005-----0
  6
CONTINUOUS
  5
F7
 10
313.326905
 20
361.410166
 30
0.0
 11
316.285396
 21
364.368657
 31
0.0
  0
LINE
  8
LC-006-005-----0
  6
CONTINUOUS
  5
F8
 10
310.51321
 20
361.424899
 30
0.0
 11
313.456969
 21
364.368657
 31
0.0
  0
LINE
  8
LC-006-005-----0
  6
CONTINUOUS
  5
F9
 10
307.699516
 20
361.439631
 30
0.0
 11
310.628542
 21
364.368657
 31
0.0
  0
LINE
  8
LC-006-005-----0
  6
CONTINUOUS
  5
FA
 10
304.885821
 20
361.454364
 30
0.0
 11
307.800115
 21
364.368657
 31
0.0
  0
LINE
  8
LC-006-005-----0
  6
CONTINUOUS
  5
FB
 10
302.072127
 20
361.469096
 30
0.0
 11
304.971687
 21
364.368657
 31
0.0
  0
LINE
  8
LC-006-005-----0
  6
CONTINUOUS
  5
FC
 10
299.258432
 20
361.483829
 30
0.0
 11
302.14326
 21
364.368657
 31
0.0
  0
LINE
  8
LC-006-005-----0
  6
CONTINUOUS
  5
FD
 10
296.444738
 20
361.498562
 30
0.0
 11
299.314833
 21
364.368657
 31
0.0
  0
LINE
  8
LC-006-005-----0
  6
CONTINUOUS
  5
FE
 10
293.631043
 20
361.513294
 30
0.0
 11
296.486406
 21
364.368657
 31
0.0
  0
LINE
  8
LC-006-005-----0
  6
CONTINUOUS
  5
FF
 10
290.817349
 20
361.528027
 30
0.0
 11
293.657979
 21
364.368657
 31
0.0
  0
LINE
  8
LC-006-005-----0
  6
CONTINUOUS
  5
100
 10
288.003654
 20
361.542759
 30
0.0
 11
290.829552
 21
364.368657
 31
0.0
  0
LINE
  8
LC-006-005-----0
  6
CONTINUOUS
  5
101
 10
285.18996
 20
361.557492
 30
0.0
 11
288.001125
 21
364.368657
 31
0.0
  0
LINE
  8
LC-006-005-----0
  6
CONTINUOUS
  5
102
 10
282.376265
 20
361.572225
 30
0.0
 11
285.172698
 21
364.368657
 31
0.0
  0
LINE
  8
LC-006-005-----0
  6
CONTINUOUS
  5
103
 10
279.562571
 20
361.586957
 30
0.0
 11
282.34427
 21
364.368657
 31
0.0
  0
LINE
  8
LC-006-005-----0
  6
CONTINUOUS
  5
104
 10
276.748876
 20
361.60169
 30
0.0
 11
279.515843
 21
364.368657
 31
0.0
  0
LINE
  8
LC-006-005-----0
  6
CONTINUOUS
  5
105
 10
273.935182
 20
361.616422
 30
0.0
 11
276.687416
 21
364.368657
 31
0.0
  0
LINE
  8
LC-006-005-----0
  6
CONTINUOUS
  5
106
 10
271.121487
 20
361.631155
 30
0.0
 11
273.617902
 21
364.12757
 31
0.0
  0
ENDBLK
  8
0
  5
107
  0
BLOCK
  8
0
  5
109
  2
*X7
 70
    65
 10
435.377734
 20
249.858498
 30
0.0
  3
*X7
  0
LINE
  8
LC-006-005-----0
  6
CONTINUOUS
  5
10A
 10
440.777329
 20
249.858498
 30
0.0
 11
441.377734
 21
250.458903
 31
0.0
  0
LINE
  8
LC-006-005-----0
  6
CONTINUOUS
  5
10B
 10
439.363115
 20
249.858498
 30
0.0
 11
440.363115
 21
250.858498
 31
0.0
  0
LINE
  8
LC-006-005-----0
  6
CONTINUOUS
  5
10C
 10
437.948902
 20
249.858498
 30
0.0
 11
438.948902
 21
250.858498
 31
0.0
  0
LINE
  8
LC-006-005-----0
  6
CONTINUOUS
  5
10D
 10
436.534688
 20
249.858498
 30
0.0
 11
437.534688
 21
250.858498
 31
0.0
  0
LINE
  8
LC-006-005-----0
  6
CONTINUOUS
  5
10E
 10
435.377734
 20
250.115758
 30
0.0
 11
436.120475
 21
250.858498
 31
0.0
  0
ENDBLK
  8
0
  5
10F
  0
BLOCK
  8
0
  5
111
  2
*X8
 70
    65
 10
435.377734
 20
367.678816
 30
0.0
  3
*X8
  0
LINE
  8
LC-006-005-----0
  6
CONTINUOUS
  5
112
 10
441.217921
 20
367.678816
 30
0.0
 11
441.377734
 21
367.838629
 31
0.0
  0
LINE
  8
LC-006-005-----0
  6
CONTINUOUS
  5
113
 10
439.803708
 20
367.678816
 30
0.0
 11
440.803708
 21
368.678816
 31
0.0
  0
LINE
  8
LC-006-005-----0
  6
CONTINUOUS
  5
114
 10
438.389494
 20
367.678816
 30
0.0
 11
439.389494
 21
368.678816
 31
0.0
  0
LINE
  8
LC-006-005-----0
  6
CONTINUOUS
  5
115
 10
436.975281
 20
367.678816
 30
0.0
 11
437.975281
 21
368.678816
 31
0.0
  0
LINE
  8
LC-006-005-----0
  6
CONTINUOUS
  5
116
 10
435.561067
 20
367.678816
 30
0.0
 11
436.561067
 21
368.678816
 31
0.0
  0
ENDBLK
  8
0
  5
117
  0
BLOCK
  8
0
  5
119
  2
BLK2
 70
    64
 10
0.0
 20
0.0
 30
0.0
  3
BLK2
  0
ENDBLK
  8
0
  5
11A
  0
BLOCK
  8
0
  5
11C
  2
*X10
 70
    65
 10
269.997511
 20
170.933312
 30
0.0
  3
*X10
  0
LINE
  8
LC-006-005-----0
  6
CONTINUOUS
  5
11D
 10
448.119173
 20
170.933315
 30
0.0
 11
449.853824
 21
172.667966
 31
0.0
  0
LINE
  8
LC-006-005-----0
  6
CONTINUOUS
  5
11E
 10
445.29075
 20
170.933319
 30
0.0
 11
447.623119
 21
173.265688
 31
0.0
  0
LINE
  8
LC-006-005-----0
  6
CONTINUOUS
  5
11F
 10
442.462326
 20
170.933322
 30
0.0
 11
444.962323
 21
173.433319
 31
0.0
  0
LINE
  8
LC-006-005-----0
  6
CONTINUOUS
  5
120
 10
439.633903
 20
170.933326
 30
0.0
 11
442.1339
 21
173.433323
 31
0.0
  0
LINE
  8
LC-006-005-----0
  6
CONTINUOUS
  5
121
 10
436.805479
 20
170.93333
 30
0.0
 11
439.305476
 21
173.433326
 31
0.0
  0
LINE
  8
LC-006-005-----0
  6
CONTINUOUS
  5
122
 10
433.977056
 20
170.933333
 30
0.0
 11
436.477053
 21
173.43333
 31
0.0
  0
LINE
  8
LC-006-005-----0
  6
CONTINUOUS
  5
123
 10
431.148633
 20
170.933337
 30
0.0
 11
433.648629
 21
173.433334
 31
0.0
  0
LINE
  8
LC-006-005-----0
  6
CONTINUOUS
  5
124
 10
428.320209
 20
170.933341
 30
0.0
 11
431.997516
 21
174.610647
 31
0.0
  0
LINE
  8
LC-006-005-----0
  6
CONTINUOUS
  5
125
 10
425.491786
 20
170.933344
 30
0.0
 11
427.991782
 21
173.433341
 31
0.0
  0
LINE
  8
LC-006-005-----0
  6
CONTINUOUS
  5
126
 10
429.997533
 20
175.439092
 30
0.0
 11
430.991762
 21
176.433321
 31
0.0
  0
LINE
  8
LC-006-005-----0
  6
CONTINUOUS
  5
127
 10
422.663362
 20
170.933348
 30
0.0
 11
425.163359
 21
173.433345
 31
0.0
  0
LINE
  8
LC-006-005-----0
  6
CONTINUOUS
  5
128
 10
419.834939
 20
170.933352
 30
0.0
 11
422.334936
 21
173.433349
 31
0.0
  0
LINE
  8
LC-006-005-----0
  6
CONTINUOUS
  5
129
 10
417.006515
 20
170.933356
 30
0.0
 11
419.506512
 21
173.433352
 31
0.0
  0
LINE
  8
LC-006-005-----0
  6
CONTINUOUS
  5
12A
 10
414.178092
 20
170.933359
 30
0.0
 11
416.678089
 21
173.433356
 31
0.0
  0
LINE
  8
LC-006-005-----0
  6
CONTINUOUS
  5
12B
 10
411.349669
 20
170.933363
 30
0.0
 11
413.849665
 21
173.43336
 31
0.0
  0
LINE
  8
LC-006-005-----0
  6
CONTINUOUS
  5
12C
 10
408.521245
 20
170.933367
 30
0.0
 11
411.021242
 21
173.433363
 31
0.0
  0
LINE
  8
LC-006-005-----0
  6
CONTINUOUS
  5
12D
 10
405.692822
 20
170.93337
 30
0.0
 11
408.192818
 21
173.433367
 31
0.0
  0
LINE
  8
LC-006-005-----0
  6
CONTINUOUS
  5
12E
 10
402.864398
 20
170.933374
 30
0.0
 11
405.364395
 21
173.433371
 31
0.0
  0
LINE
  8
LC-006-005-----0
  6
CONTINUOUS
  5
12F
 10
400.035975
 20
170.933378
 30
0.0
 11
402.535972
 21
173.433374
 31
0.0
  0
LINE
  8
LC-006-005-----0
  6
CONTINUOUS
  5
130
 10
397.207551
 20
170.933381
 30
0.0
 11
399.707548
 21
173.433378
 31
0.0
  0
LINE
  8
LC-006-005-----0
  6
CONTINUOUS
  5
131
 10
394.379128
 20
170.933385
 30
0.0
 11
396.879125
 21
173.433382
 31
0.0
  0
LINE
  8
LC-006-005-----0
  6
CONTINUOUS
  5
132
 10
391.550705
 20
170.933389
 30
0.0
 11
394.050701
 21
173.433386
 31
0.0
  0
LINE
  8
LC-006-005-----0
  6
CONTINUOUS
  5
133
 10
388.722281
 20
170.933393
 30
0.0
 11
391.222278
 21
173.433389
 31
0.0
  0
LINE
  8
LC-006-005-----0
  6
CONTINUOUS
  5
134
 10
385.893858
 20
170.933396
 30
0.0
 11
388.393854
 21
173.433393
 31
0.0
  0
LINE
  8
LC-006-005-----0
  6
CONTINUOUS
  5
135
 10
383.065434
 20
170.9334
 30
0.0
 11
385.565431
 21
173.433397
 31
0.0
  0
LINE
  8
LC-006-005-----0
  6
CONTINUOUS
  5
136
 10
380.237011
 20
170.933404
 30
0.0
 11
382.737008
 21
173.4334
 31
0.0
  0
LINE
  8
LC-006-005-----0
  6
CONTINUOUS
  5
137
 10
377.408587
 20
170.933407
 30
0.0
 11
379.908584
 21
173.433404
 31
0.0
  0
LINE
  8
LC-006-005-----0
  6
CONTINUOUS
  5
138
 10
374.580164
 20
170.933411
 30
0.0
 11
377.080161
 21
173.433408
 31
0.0
  0
LINE
  8
LC-006-005-----0
  6
CONTINUOUS
  5
139
 10
371.751741
 20
170.933415
 30
0.0
 11
374.251737
 21
173.433411
 31
0.0
  0
LINE
  8
LC-006-005-----0
  6
CONTINUOUS
  5
13A
 10
368.923317
 20
170.933418
 30
0.0
 11
371.423314
 21
173.433415
 31
0.0
  0
LINE
  8
LC-006-005-----0
  6
CONTINUOUS
  5
13B
 10
366.094894
 20
170.933422
 30
0.0
 11
368.59489
 21
173.433419
 31
0.0
  0
LINE
  8
LC-006-005-----0
  6
CONTINUOUS
  5
13C
 10
363.26647
 20
170.933426
 30
0.0
 11
365.766467
 21
173.433423
 31
0.0
  0
LINE
  8
LC-006-005-----0
  6
CONTINUOUS
  5
13D
 10
360.438047
 20
170.93343
 30
0.0
 11
362.938044
 21
173.433426
 31
0.0
  0
LINE
  8
LC-006-005-----0
  6
CONTINUOUS
  5
13E
 10
357.609623
 20
170.933433
 30
0.0
 11
360.10962
 21
173.43343
 31
0.0
  0
LINE
  8
LC-006-005-----0
  6
CONTINUOUS
  5
13F
 10
354.7812
 20
170.933437
 30
0.0
 11
357.281197
 21
173.433434
 31
0.0
  0
LINE
  8
LC-006-005-----0
  6
CONTINUOUS
  5
140
 10
351.952777
 20
170.933441
 30
0.0
 11
354.452773
 21
173.433437
 31
0.0
  0
LINE
  8
LC-006-005-----0
  6
CONTINUOUS
  5
141
 10
349.124353
 20
170.933444
 30
0.0
 11
351.62435
 21
173.433441
 31
0.0
  0
LINE
  8
LC-006-005-----0
  6
CONTINUOUS
  5
142
 10
346.29593
 20
170.933448
 30
0.0
 11
348.795926
 21
173.433445
 31
0.0
  0
LINE
  8
LC-006-005-----0
  6
CONTINUOUS
  5
143
 10
343.467506
 20
170.933452
 30
0.0
 11
345.967503
 21
173.433448
 31
0.0
  0
LINE
  8
LC-006-005-----0
  6
CONTINUOUS
  5
144
 10
340.639083
 20
170.933455
 30
0.0
 11
343.13908
 21
173.433452
 31
0.0
  0
LINE
  8
LC-006-005-----0
  6
CONTINUOUS
  5
145
 10
337.810659
 20
170.933459
 30
0.0
 11
340.310656
 21
173.433456
 31
0.0
  0
LINE
  8
LC-006-005-----0
  6
CONTINUOUS
  5
146
 10
334.982236
 20
170.933463
 30
0.0
 11
337.482233
 21
173.43346
 31
0.0
  0
LINE
  8
LC-006-005-----0
  6
CONTINUOUS
  5
147
 10
332.153813
 20
170.933466
 30
0.0
 11
334.653809
 21
173.433463
 31
0.0
  0
LINE
  8
LC-006-005-----0
  6
CONTINUOUS
  5
148
 10
329.325389
 20
170.93347
 30
0.0
 11
331.825386
 21
173.433467
 31
0.0
  0
LINE
  8
LC-006-005-----0
  6
CONTINUOUS
  5
149
 10
326.496966
 20
170.933474
 30
0.0
 11
328.996962
 21
173.433471
 31
0.0
  0
LINE
  8
LC-006-005-----0
  6
CONTINUOUS
  5
14A
 10
323.668542
 20
170.933478
 30
0.0
 11
326.168539
 21
173.433474
 31
0.0
  0
LINE
  8
LC-006-005-----0
  6
CONTINUOUS
  5
14B
 10
320.840119
 20
170.933481
 30
0.0
 11
323.340116
 21
173.433478
 31
0.0
  0
LINE
  8
LC-006-005-----0
  6
CONTINUOUS
  5
14C
 10
318.011695
 20
170.933485
 30
0.0
 11
320.511692
 21
173.433482
 31
0.0
  0
LINE
  8
LC-006-005-----0
  6
CONTINUOUS
  5
14D
 10
315.183272
 20
170.933489
 30
0.0
 11
317.683269
 21
173.433485
 31
0.0
  0
LINE
  8
LC-006-005-----0
  6
CONTINUOUS
  5
14E
 10
312.354849
 20
170.933492
 30
0.0
 11
314.854845
 21
173.433489
 31
0.0
  0
LINE
  8
LC-006-005-----0
  6
CONTINUOUS
  5
14F
 10
309.526425
 20
170.933496
 30
0.0
 11
312.026422
 21
173.433493
 31
0.0
  0
LINE
  8
LC-006-005-----0
  6
CONTINUOUS
  5
150
 10
306.698002
 20
170.9335
 30
0.0
 11
309.197998
 21
173.433496
 31
0.0
  0
LINE
  8
LC-006-005-----0
  6
CONTINUOUS
  5
151
 10
303.869578
 20
170.933503
 30
0.0
 11
306.369575
 21
173.4335
 31
0.0
  0
LINE
  8
LC-006-005-----0
  6
CONTINUOUS
  5
152
 10
301.041155
 20
170.933507
 30
0.0
 11
303.541152
 21
173.433504
 31
0.0
  0
LINE
  8
LC-006-005-----0
  6
CONTINUOUS
  5
153
 10
298.212731
 20
170.933511
 30
0.0
 11
300.712728
 21
173.433508
 31
0.0
  0
LINE
  8
LC-006-005-----0
  6
CONTINUOUS
  5
154
 10
295.384308
 20
170.933515
 30
0.0
 11
297.884305
 21
173.433511
 31
0.0
  0
LINE
  8
LC-006-005-----0
  6
CONTINUOUS
  5
155
 10
292.555885
 20
170.933518
 30
0.0
 11
295.055881
 21
173.433515
 31
0.0
  0
LINE
  8
LC-006-005-----0
  6
CONTINUOUS
  5
156
 10
289.727461
 20
170.933522
 30
0.0
 11
292.227458
 21
173.433519
 31
0.0
  0
LINE
  8
LC-006-005-----0
  6
CONTINUOUS
  5
157
 10
286.899038
 20
170.933526
 30
0.0
 11
289.399034
 21
173.433522
 31
0.0
  0
LINE
  8
LC-006-005-----0
  6
CONTINUOUS
  5
158
 10
284.070614
 20
170.933529
 30
0.0
 11
286.570611
 21
173.433526
 31
0.0
  0
LINE
  8
LC-006-005-----0
  6
CONTINUOUS
  5
159
 10
281.242191
 20
170.933533
 30
0.0
 11
283.742188
 21
173.43353
 31
0.0
  0
LINE
  8
LC-006-005-----0
  6
CONTINUOUS
  5
15A
 10
278.413767
 20
170.933537
 30
0.0
 11
280.913764
 21
173.433533
 31
0.0
  0
LINE
  8
LC-006-005-----0
  6
CONTINUOUS
  5
15B
 10
275.585344
 20
170.93354
 30
0.0
 11
278.085341
 21
173.433537
 31
0.0
  0
LINE
  8
LC-006-005-----0
  6
CONTINUOUS
  5
15C
 10
272.756921
 20
170.933544
 30
0.0
 11
275.256917
 21
173.433541
 31
0.0
  0
LINE
  8
LC-006-005-----0
  6
CONTINUOUS
  5
15D
 10
269.997511
 20
171.002562
 30
0.0
 11
272.220222
 21
173.225273
 31
0.0
  0
ENDBLK
  8
0
  5
15E
  0
BLOCK
  8
0
  5
160
  2
*X11
 70
    65
 10
269.997456
 20
125.433337
 30
0.0
  3
*X11
  0
LINE
  8
LC-006-005-----0
  6
CONTINUOUS
  5
161
 10
448.429217
 20
128.816952
 30
0.0
 11
449.997458
 21
130.385193
 31
0.0
  0
LINE
  8
LC-006-005-----0
  6
CONTINUOUS
  5
162
 10
445.217157
 20
128.433319
 30
0.0
 11
447.717153
 21
130.933315
 31
0.0
  0
LINE
  8
LC-006-005-----0
  6
CONTINUOUS
  5
163
 10
442.388733
 20
128.433322
 30
0.0
 11
444.88873
 21
130.933319
 31
0.0
  0
LINE
  8
LC-006-005-----0
  6
CONTINUOUS
  5
164
 10
439.56031
 20
128.433326
 30
0.0
 11
442.060307
 21
130.933323
 31
0.0
  0
LINE
  8
LC-006-005-----0
  6
CONTINUOUS
  5
165
 10
436.731886
 20
128.43333
 30
0.0
 11
439.231883
 21
130.933327
 31
0.0
  0
LINE
  8
LC-006-005-----0
  6
CONTINUOUS
  5
166
 10
430.907519
 20
125.43739
 30
0.0
 11
431.997453
 21
126.527323
 31
0.0
  0
LINE
  8
LC-006-005-----0
  6
CONTINUOUS
  5
167
 10
433.903463
 20
128.433333
 30
0.0
 11
436.40346
 21
130.93333
 31
0.0
  0
LINE
  8
LC-006-005-----0
  6
CONTINUOUS
  5
168
 10
429.997454
 20
127.355752
 30
0.0
 11
433.575036
 21
130.933334
 31
0.0
  0
LINE
  8
LC-006-005-----0
  6
CONTINUOUS
  5
169
 10
428.246616
 20
128.433341
 30
0.0
 11
430.746613
 21
130.933338
 31
0.0
  0
LINE
  8
LC-006-005-----0
  6
CONTINUOUS
  5
16A
 10
425.418193
 20
128.433345
 30
0.0
 11
427.918189
 21
130.933341
 31
0.0
  0
LINE
  8
LC-006-005-----0
  6
CONTINUOUS
  5
16B
 10
422.589769
 20
128.433348
 30
0.0
 11
425.089766
 21
130.933345
 31
0.0
  0
LINE
  8
LC-006-005-----0
  6
CONTINUOUS
  5
16C
 10
419.761346
 20
128.433352
 30
0.0
 11
422.261343
 21
130.933349
 31
0.0
  0
LINE
  8
LC-006-005-----0
  6
CONTINUOUS
  5
16D
 10
416.932922
 20
128.433356
 30
0.0
 11
419.432919
 21
130.933352
 31
0.0
  0
LINE
  8
LC-006-005-----0
  6
CONTINUOUS
  5
16E
 10
414.104499
 20
128.433359
 30
0.0
 11
416.604496
 21
130.933356
 31
0.0
  0
LINE
  8
LC-006-005-----0
  6
CONTINUOUS
  5
16F
 10
411.276076
 20
128.433363
 30
0.0
 11
413.776072
 21
130.93336
 31
0.0
  0
LINE
  8
LC-006-005-----0
  6
CONTINUOUS
  5
170
 10
408.447652
 20
128.433367
 30
0.0
 11
410.947649
 21
130.933363
 31
0.0
  0
LINE
  8
LC-006-005-----0
  6
CONTINUOUS
  5
171
 10
405.619229
 20
128.43337
 30
0.0
 11
408.119225
 21
130.933367
 31
0.0
  0
LINE
  8
LC-006-005-----0
  6
CONTINUOUS
  5
172
 10
402.790805
 20
128.433374
 30
0.0
 11
405.290802
 21
130.933371
 31
0.0
  0
LINE
  8
LC-006-005-----0
  6
CONTINUOUS
  5
173
 10
399.962382
 20
128.433378
 30
0.0
 11
402.462379
 21
130.933375
 31
0.0
  0
LINE
  8
LC-006-005-----0
  6
CONTINUOUS
  5
174
 10
397.133958
 20
128.433382
 30
0.0
 11
399.633955
 21
130.933378
 31
0.0
  0
LINE
  8
LC-006-005-----0
  6
CONTINUOUS
  5
175
 10
394.305535
 20
128.433385
 30
0.0
 11
396.805532
 21
130.933382
 31
0.0
  0
LINE
  8
LC-006-005-----0
  6
CONTINUOUS
  5
176
 10
391.477112
 20
128.433389
 30
0.0
 11
393.977108
 21
130.933386
 31
0.0
  0
LINE
  8
LC-006-005-----0
  6
CONTINUOUS
  5
177
 10
388.648688
 20
128.433393
 30
0.0
 11
391.148685
 21
130.933389
 31
0.0
  0
LINE
  8
LC-006-005-----0
  6
CONTINUOUS
  5
178
 10
385.820265
 20
128.433396
 30
0.0
 11
388.320261
 21
130.933393
 31
0.0
  0
LINE
  8
LC-006-005-----0
  6
CONTINUOUS
  5
179
 10
382.991841
 20
128.4334
 30
0.0
 11
385.491838
 21
130.933397
 31
0.0
  0
LINE
  8
LC-006-005-----0
  6
CONTINUOUS
  5
17A
 10
380.163418
 20
128.433404
 30
0.0
 11
382.663415
 21
130.9334
 31
0.0
  0
LINE
  8
LC-006-005-----0
  6
CONTINUOUS
  5
17B
 10
377.334994
 20
128.433407
 30
0.0
 11
379.834991
 21
130.933404
 31
0.0
  0
LINE
  8
LC-006-005-----0
  6
CONTINUOUS
  5
17C
 10
374.506571
 20
128.433411
 30
0.0
 11
377.006568
 21
130.933408
 31
0.0
  0
LINE
  8
LC-006-005-----0
  6
CONTINUOUS
  5
17D
 10
371.678148
 20
128.433415
 30
0.0
 11
374.178144
 21
130.933412
 31
0.0
  0
LINE
  8
LC-006-005-----0
  6
CONTINUOUS
  5
17E
 10
368.849724
 20
128.433419
 30
0.0
 11
371.349721
 21
130.933415
 31
0.0
  0
LINE
  8
LC-006-005-----0
  6
CONTINUOUS
  5
17F
 10
366.021301
 20
128.433422
 30
0.0
 11
368.521297
 21
130.933419
 31
0.0
  0
LINE
  8
LC-006-005-----0
  6
CONTINUOUS
  5
180
 10
363.192877
 20
128.433426
 30
0.0
 11
365.692874
 21
130.933423
 31
0.0
  0
LINE
  8
LC-006-005-----0
  6
CONTINUOUS
  5
181
 10
360.364454
 20
128.43343
 30
0.0
 11
362.864451
 21
130.933426
 31
0.0
  0
LINE
  8
LC-006-005-----0
  6
CONTINUOUS
  5
182
 10
357.53603
 20
128.433433
 30
0.0
 11
360.036027
 21
130.93343
 31
0.0
  0
LINE
  8
LC-006-005-----0
  6
CONTINUOUS
  5
183
 10
354.707607
 20
128.433437
 30
0.0
 11
357.207604
 21
130.933434
 31
0.0
  0
LINE
  8
LC-006-005-----0
  6
CONTINUOUS
  5
184
 10
351.879184
 20
128.433441
 30
0.0
 11
354.37918
 21
130.933437
 31
0.0
  0
LINE
  8
LC-006-005-----0
  6
CONTINUOUS
  5
185
 10
349.05076
 20
128.433444
 30
0.0
 11
351.550757
 21
130.933441
 31
0.0
  0
LINE
  8
LC-006-005-----0
  6
CONTINUOUS
  5
186
 10
346.222337
 20
128.433448
 30
0.0
 11
348.722333
 21
130.933445
 31
0.0
  0
LINE
  8
LC-006-005-----0
  6
CONTINUOUS
  5
187
 10
343.393913
 20
128.433452
 30
0.0
 11
345.89391
 21
130.933449
 31
0.0
  0
LINE
  8
LC-006-005-----0
  6
CONTINUOUS
  5
188
 10
340.56549
 20
128.433455
 30
0.0
 11
343.065487
 21
130.933452
 31
0.0
  0
LINE
  8
LC-006-005-----0
  6
CONTINUOUS
  5
189
 10
337.737066
 20
128.433459
 30
0.0
 11
340.237063
 21
130.933456
 31
0.0
  0
LINE
  8
LC-006-005-----0
  6
CONTINUOUS
  5
18A
 10
334.908643
 20
128.433463
 30
0.0
 11
337.40864
 21
130.93346
 31
0.0
  0
LINE
  8
LC-006-005-----0
  6
CONTINUOUS
  5
18B
 10
332.08022
 20
128.433467
 30
0.0
 11
334.580216
 21
130.933463
 31
0.0
  0
LINE
  8
LC-006-005-----0
  6
CONTINUOUS
  5
18C
 10
329.251796
 20
128.43347
 30
0.0
 11
331.751793
 21
130.933467
 31
0.0
  0
LINE
  8
LC-006-005-----0
  6
CONTINUOUS
  5
18D
 10
326.423373
 20
128.433474
 30
0.0
 11
328.923369
 21
130.933471
 31
0.0
  0
LINE
  8
LC-006-005-----0
  6
CONTINUOUS
  5
18E
 10
323.594949
 20
128.433478
 30
0.0
 11
326.094946
 21
130.933474
 31
0.0
  0
LINE
  8
LC-006-005-----0
  6
CONTINUOUS
  5
18F
 10
320.766526
 20
128.433481
 30
0.0
 11
323.266523
 21
130.933478
 31
0.0
  0
LINE
  8
LC-006-005-----0
  6
CONTINUOUS
  5
190
 10
317.938102
 20
128.433485
 30
0.0
 11
320.438099
 21
130.933482
 31
0.0
  0
LINE
  8
LC-006-005-----0
  6
CONTINUOUS
  5
191
 10
315.109679
 20
128.433489
 30
0.0
 11
317.609676
 21
130.933485
 31
0.0
  0
LINE
  8
LC-006-005-----0
  6
CONTINUOUS
  5
192
 10
312.281256
 20
128.433492
 30
0.0
 11
314.781252
 21
130.933489
 31
0.0
  0
LINE
  8
LC-006-005-----0
  6
CONTINUOUS
  5
193
 10
309.452832
 20
128.433496
 30
0.0
 11
311.952829
 21
130.933493
 31
0.0
  0
LINE
  8
LC-006-005-----0
  6
CONTINUOUS
  5
194
 10
306.624409
 20
128.4335
 30
0.0
 11
309.124405
 21
130.933497
 31
0.0
  0
LINE
  8
LC-006-005-----0
  6
CONTINUOUS
  5
195
 10
303.795985
 20
128.433504
 30
0.0
 11
306.295982
 21
130.9335
 31
0.0
  0
LINE
  8
LC-006-005-----0
  6
CONTINUOUS
  5
196
 10
300.967562
 20
128.433507
 30
0.0
 11
303.467559
 21
130.933504
 31
0.0
  0
LINE
  8
LC-006-005-----0
  6
CONTINUOUS
  5
197
 10
298.139138
 20
128.433511
 30
0.0
 11
300.639135
 21
130.933508
 31
0.0
  0
LINE
  8
LC-006-005-----0
  6
CONTINUOUS
  5
198
 10
295.310715
 20
128.433515
 30
0.0
 11
297.810712
 21
130.933511
 31
0.0
  0
LINE
  8
LC-006-005-----0
  6
CONTINUOUS
  5
199
 10
292.482292
 20
128.433518
 30
0.0
 11
294.982288
 21
130.933515
 31
0.0
  0
LINE
  8
LC-006-005-----0
  6
CONTINUOUS
  5
19A
 10
289.653868
 20
128.433522
 30
0.0
 11
292.153865
 21
130.933519
 31
0.0
  0
LINE
  8
LC-006-005-----0
  6
CONTINUOUS
  5
19B
 10
286.825445
 20
128.433526
 30
0.0
 11
289.325441
 21
130.933522
 31
0.0
  0
LINE
  8
LC-006-005-----0
  6
CONTINUOUS
  5
19C
 10
283.997021
 20
128.433529
 30
0.0
 11
286.497018
 21
130.933526
 31
0.0
  0
LINE
  8
LC-006-005-----0
  6
CONTINUOUS
  5
19D
 10
281.168598
 20
128.433533
 30
0.0
 11
283.668595
 21
130.93353
 31
0.0
  0
LINE
  8
LC-006-005-----0
  6
CONTINUOUS
  5
19E
 10
278.340174
 20
128.433537
 30
0.0
 11
280.840171
 21
130.933534
 31
0.0
  0
LINE
  8
LC-006-005-----0
  6
CONTINUOUS
  5
19F
 10
275.511751
 20
128.433541
 30
0.0
 11
278.011748
 21
130.933537
 31
0.0
  0
LINE
  8
LC-006-005-----0
  6
CONTINUOUS
  5
1A0
 10
272.749708
 20
128.499924
 30
0.0
 11
275.183324
 21
130.933541
 31
0.0
  0
LINE
  8
LC-006-005-----0
  6
CONTINUOUS
  5
1A1
 10
270.519003
 20
129.097646
 30
0.0
 11
272.354901
 21
130.933545
 31
0.0
  0
ENDBLK
  8
0
  5
1A2
  0
BLOCK
  8
0
  5
1A4
  2
*X12
 70
    65
 10
469.997651
 20
240.768747
 30
0.0
  3
*X12
  0
LINE
  8
LC-006-005-----0
  6
CONTINUOUS
  5
1A5
 10
484.136728
 20
240.891995
 30
0.0
 11
486.35519
 21
243.110458
 31
0.0
  0
LINE
  8
LC-006-005-----0
  6
CONTINUOUS
  5
1A6
 10
482.796946
 20
242.380641
 30
0.0
 11
486.497651
 21
246.081345
 31
0.0
  0
LINE
  8
LC-006-005-----0
  6
CONTINUOUS
  5
1A7
 10
481.997651
 20
244.409772
 30
0.0
 11
486.497651
 21
248.909772
 31
0.0
  0
LINE
  8
LC-006-005-----0
  6
CONTINUOUS
  5
1A8
 10
481.997651
 20
247.2382
 30
0.0
 11
486.497651
 21
251.7382
 31
0.0
  0
LINE
  8
LC-006-005-----0
  6
CONTINUOUS
  5
1A9
 10
481.997651
 20
250.066627
 30
0.0
 11
485.199771
 21
253.268747
 31
0.0
  0
LINE
  8
LC-006-005-----0
  6
CONTINUOUS
  5
1AA
 10
479.371344
 20
250.268747
 30
0.0
 11
482.371344
 21
253.268747
 31
0.0
  0
LINE
  8
LC-006-005-----0
  6
CONTINUOUS
  5
1AB
 10
476.542917
 20
250.268747
 30
0.0
 11
479.542917
 21
253.268747
 31
0.0
  0
LINE
  8
LC-006-005-----0
  6
CONTINUOUS
  5
1AC
 10
473.71449
 20
250.268747
 30
0.0
 11
476.71449
 21
253.268747
 31
0.0
  0
LINE
  8
LC-006-005-----0
  6
CONTINUOUS
  5
1AD
 10
470.886063
 20
250.268747
 30
0.0
 11
473.886063
 21
253.268747
 31
0.0
  0
LINE
  8
LC-006-005-----0
  6
CONTINUOUS
  5
1AE
 10
469.997651
 20
252.208762
 30
0.0
 11
471.057636
 21
253.268747
 31
0.0
  0
ENDBLK
  8
0
  5
1AF
  0
BLOCK
  8
0
  5
1B1
  2
*X13
 70
    65
 10
469.997651
 20
265.268747
 30
0.0
  3
*X13
  0
LINE
  8
LC-006-005-----0
  6
CONTINUOUS
  5
1B2
 10
485.886063
 20
265.268747
 30
0.0
 11
486.497651
 21
265.880335
 31
0.0
  0
LINE
  8
LC-006-005-----0
  6
CONTINUOUS
  5
1B3
 10
483.057636
 20
265.268747
 30
0.0
 11
486.497651
 21
268.708762
 31
0.0
  0
LINE
  8
LC-006-005-----0
  6
CONTINUOUS
  5
1B4
 10
480.229209
 20
265.268747
 30
0.0
 11
486.497651
 21
271.537189
 31
0.0
  0
LINE
  8
LC-006-005-----0
  6
CONTINUOUS
  5
1B5
 10
477.400781
 20
265.268747
 30
0.0
 11
480.400781
 21
268.268747
 31
0.0
  0
LINE
  8
LC-006-005-----0
  6
CONTINUOUS
  5
1B6
 10
481.997651
 20
269.865617
 30
0.0
 11
486.497651
 21
274.365617
 31
0.0
  0
LINE
  8
LC-006-005-----0
  6
CONTINUOUS
  5
1B7
 10
474.572354
 20
265.268747
 30
0.0
 11
477.572354
 21
268.268747
 31
0.0
  0
LINE
  8
LC-006-005-----0
  6
CONTINUOUS
  5
1B8
 10
481.997651
 20
272.694044
 30
0.0
 11
485.585668
 21
276.282061
 31
0.0
  0
LINE
  8
LC-006-005-----0
  6
CONTINUOUS
  5
1B9
 10
471.743927
 20
265.268747
 30
0.0
 11
474.743927
 21
268.268747
 31
0.0
  0
LINE
  8
LC-006-005-----0
  6
CONTINUOUS
  5
1BA
 10
469.997651
 20
266.350898
 30
0.0
 11
471.9155
 21
268.268747
 31
0.0
  0
ENDBLK
  8
0
  5
1BB
  0
BLOCK
  8
0
  5
1BD
  2
*X14
 70
    65
 10
469.997651
 20
340.768747
 30
0.0
  3
*X14
  0
LINE
  8
LC-006-005-----0
  6
CONTINUOUS
  5
1BE
 10
483.273023
 20
341.851667
 30
0.0
 11
486.497651
 21
345.076295
 31
0.0
  0
LINE
  8
LC-006-005-----0
  6
CONTINUOUS
  5
1BF
 10
481.997651
 20
343.404722
 30
0.0
 11
486.497651
 21
347.904722
 31
0.0
  0
LINE
  8
LC-006-005-----0
  6
CONTINUOUS
  5
1C0
 10
481.997651
 20
346.233149
 30
0.0
 11
486.497651
 21
350.733149
 31
0.0
  0
LINE
  8
LC-006-005-----0
  6
CONTINUOUS
  5
1C1
 10
481.997651
 20
349.061576
 30
0.0
 11
486.204822
 21
353.268747
 31
0.0
  0
LINE
  8
LC-006-005-----0
  6
CONTINUOUS
  5
1C2
 10
480.376395
 20
350.268747
 30
0.0
 11
483.376395
 21
353.268747
 31
0.0
  0
LINE
  8
LC-006-005-----0
  6
CONTINUOUS
  5
1C3
 10
477.547968
 20
350.268747
 30
0.0
 11
480.547968
 21
353.268747
 31
0.0
  0
LINE
  8
LC-006-005-----0
  6
CONTINUOUS
  5
1C4
 10
474.719541
 20
350.268747
 30
0.0
 11
477.719541
 21
353.268747
 31
0.0
  0
LINE
  8
LC-006-005-----0
  6
CONTINUOUS
  5
1C5
 10
471.891113
 20
350.268747
 30
0.0
 11
474.891113
 21
353.268747
 31
0.0
  0
LINE
  8
LC-006-005-----0
  6
CONTINUOUS
  5
1C6
 10
469.997651
 20
351.203712
 30
0.0
 11
472.062686
 21
353.268747
 31
0.0
  0
ENDBLK
  8
0
  5
1C7
  0
BLOCK
  8
0
  5
1C9
  2
*X15
 70
    65
 10
469.997651
 20
365.268747
 30
0.0
  3
*X15
  0
LINE
  8
LC-006-005-----0
  6
CONTINUOUS
  5
1CA
 10
484.062686
 20
365.268747
 30
0.0
 11
486.497651
 21
367.703712
 31
0.0
  0
LINE
  8
LC-006-005-----0
  6
CONTINUOUS
  5
1CB
 10
481.234259
 20
365.268747
 30
0.0
 11
486.497651
 21
370.532139
 31
0.0
  0
LINE
  8
LC-006-005-----0
  6
CONTINUOUS
  5
1CC
 10
478.405832
 20
365.268747
 30
0.0
 11
481.405832
 21
368.268747
 31
0.0
  0
LINE
  8
LC-006-005-----0
  6
CONTINUOUS
  5
1CD
 10
481.997651
 20
368.860566
 30
0.0
 11
486.497651
 21
373.360566
 31
0.0
  0
LINE
  8
LC-006-005-----0
  6
CONTINUOUS
  5
1CE
 10
475.577405
 20
365.268747
 30
0.0
 11
478.577405
 21
368.268747
 31
0.0
  0
LINE
  8
LC-006-005-----0
  6
CONTINUOUS
  5
1CF
 10
481.997651
 20
371.688993
 30
0.0
 11
486.061745
 21
375.753087
 31
0.0
  0
LINE
  8
LC-006-005-----0
  6
CONTINUOUS
  5
1D0
 10
472.748978
 20
365.268747
 30
0.0
 11
475.748978
 21
368.268747
 31
0.0
  0
LINE
  8
LC-006-005-----0
  6
CONTINUOUS
  5
1D1
 10
481.997651
 20
374.51742
 30
0.0
 11
484.721964
 21
377.241733
 31
0.0
  0
LINE
  8
LC-006-005-----0
  6
CONTINUOUS
  5
1D2
 10
469.997651
 20
365.345847
 30
0.0
 11
472.920551
 21
368.268747
 31
0.0
  0
LINE
  8
LC-006-005-----0
  6
CONTINUOUS
  5
1D3
 10
469.997651
 20
368.174274
 30
0.0
 11
470.092124
 21
368.268747
 31
0.0
  0
ENDBLK
  8
0
  5
1D4
  0
BLOCK
  8
0
  5
1D6
  2
*X16
 70
    65
 10
496.497651
 20
343.268747
 30
0.0
  3
*X16
  0
LINE
  8
LC-006-005-----0
  6
CONTINUOUS
  5
1D7
 10
496.497651
 20
343.762586
 30
0.0
 11
498.497651
 21
345.762586
 31
0.0
  0
LINE
  8
LC-006-005-----0
  6
CONTINUOUS
  5
1D8
 10
496.497651
 20
346.591013
 30
0.0
 11
498.497651
 21
348.591013
 31
0.0
  0
LINE
  8
LC-006-005-----0
  6
CONTINUOUS
  5
1D9
 10
496.497651
 20
349.41944
 30
0.0
 11
498.497651
 21
351.41944
 31
0.0
  0
LINE
  8
LC-006-005-----0
  6
CONTINUOUS
  5
1DA
 10
496.497651
 20
352.247868
 30
0.0
 11
497.01853
 21
352.768747
 31
0.0
  0
LINE
  8
LC-006-005-----0
  6
CONTINUOUS
  5
1DB
 10
496.497651
 20
366.390003
 30
0.0
 11
498.497651
 21
368.390003
 31
0.0
  0
LINE
  8
LC-006-005-----0
  6
CONTINUOUS
  5
1DC
 10
496.497651
 20
369.21843
 30
0.0
 11
498.497651
 21
371.21843
 31
0.0
  0
LINE
  8
LC-006-005-----0
  6
CONTINUOUS
  5
1DD
 10
496.497651
 20
372.046857
 30
0.0
 11
498.497651
 21
374.046857
 31
0.0
  0
LINE
  8
LC-006-005-----0
  6
CONTINUOUS
  5
1DE
 10
496.497651
 20
374.875285
 30
0.0
 11
496.891113
 21
375.268747
 31
0.0
  0
ENDBLK
  8
0
  5
1DF
  0
BLOCK
  8
0
  5
1E1
  2
*X17
 70
    65
 10
496.497651
 20
243.268747
 30
0.0
  3
*X17
  0
LINE
  8
LC-006-005-----0
  6
CONTINUOUS
  5
1E2
 10
497.827188
 20
243.268747
 30
0.0
 11
498.497651
 21
243.93921
 31
0.0
  0
LINE
  8
LC-006-005-----0
  6
CONTINUOUS
  5
1E3
 10
496.497651
 20
244.767637
 30
0.0
 11
498.497651
 21
246.767637
 31
0.0
  0
LINE
  8
LC-006-005-----0
  6
CONTINUOUS
  5
1E4
 10
496.497651
 20
247.596064
 30
0.0
 11
498.497651
 21
249.596064
 31
0.0
  0
LINE
  8
LC-006-005-----0
  6
CONTINUOUS
  5
1E5
 10
496.497651
 20
250.424491
 30
0.0
 11
498.497651
 21
252.424491
 31
0.0
  0
LINE
  8
LC-006-005-----0
  6
CONTINUOUS
  5
1E6
 10
497.699771
 20
265.768747
 30
0.0
 11
498.497651
 21
266.566627
 31
0.0
  0
LINE
  8
LC-006-005-----0
  6
CONTINUOUS
  5
1E7
 10
496.497651
 20
267.395054
 30
0.0
 11
498.497651
 21
269.395054
 31
0.0
  0
LINE
  8
LC-006-005-----0
  6
CONTINUOUS
  5
1E8
 10
496.497651
 20
270.223481
 30
0.0
 11
498.497651
 21
272.223481
 31
0.0
  0
LINE
  8
LC-006-005-----0
  6
CONTINUOUS
  5
1E9
 10
496.497651
 20
273.051908
 30
0.0
 11
498.497651
 21
275.051908
 31
0.0
  0
ENDBLK
  8
0
  5
1EA
  0
BLOCK
  8
0
  5
1EC
  2
*X18
 70
    65
 10
427.441997
 20
246.243657
 30
0.0
  3
*X18
  0
LINE
  8
LC-006-005-----0
  6
CONTINUOUS
  5
1ED
 10
445.427906
 20
263.093089
 30
0.0
 11
444.806428
 21
263.714566
 31
0.0
  0
LINE
  8
LC-006-005-----0
  6
DASHED
  5
1EF
 10
445.481997
 20
260.210571
 30
0.0
 11
443.423011
 21
262.269556
 31
0.0
  0
LINE
  8
LC-006-005-----0
  6
DASHED
  5
1F0
 10
445.481997
 20
258.796357
 30
0.0
 11
443.286558
 21
260.991797
 31
0.0
  0
LINE
  8
LC-006-005-----0
  6
CONTINUOUS
  5
1F1
 10
445.481997
 20
255.96793
 30
0.0
 11
443.01365
 21
258.436277
 31
0.0
  0
LINE
  8
LC-006-005-----0
  6
CONTINUOUS
  5
1F2
 10
433.402296
 20
268.047631
 30
0.0
 11
432.720971
 21
268.728956
 31
0.0
  0
LINE
  8
LC-006-005-----0
  6
CONTINUOUS
  5
1F3
 10
445.481997
 20
254.553716
 30
0.0
 11
442.877196
 21
257.158517
 31
0.0
  0
LINE
  8
LC-006-005-----0
  6
CONTINUOUS
  5
1F4
 10
433.541341
 20
266.494372
 30
0.0
 11
431.652851
 21
268.382863
 31
0.0
  0
LINE
  8
LC-006-005-----0
  6
DASHED
  5
1F5
 10
445.481997
 20
251.725289
 30
0.0
 11
442.604289
 21
254.602998
 31
0.0
  0
LINE
  8
LC-006-005-----0
  6
DASHED
  5
1F6
 10
433.773036
 20
263.43425
 30
0.0
 11
431.441997
 21
265.765289
 31
0.0
  0
LINE
  8
LC-006-005-----0
  6
DASHED
  5
1F7
 10
445.481997
 20
250.311076
 30
0.0
 11
442.467835
 21
253.325238
 31
0.0
  0
LINE
  8
LC-006-005-----0
  6
DASHED
  5
1F8
 10
433.888884
 20
261.904189
 30
0.0
 11
431.441997
 21
264.351076
 31
0.0
  0
LINE
  8
LC-006-005-----0
  6
CONTINUOUS
  5
1F9
 10
444.77993
 20
248.184715
 30
0.0
 11
442.194927
 21
250.769718
 31
0.0
  0
LINE
  8
LC-006-005-----0
  6
CONTINUOUS
  5
1FA
 10
434.120579
 20
258.844066
 30
0.0
 11
431.441997
 21
261.522649
 31
0.0
  0
LINE
  8
LC-006-005-----0
  6
CONTINUOUS
  5
1FB
 10
444.072823
 20
247.477609
 30
0.0
 11
441.662589
 21
249.887843
 31
0.0
  0
LINE
  8
LC-006-005-----0
  6
CONTINUOUS
  5
1FC
 10
434.236427
 20
257.314005
 30
0.0
 11
431.441997
 21
260.108435
 31
0.0
  0
LINE
  8
LC-006-005-----0
  6
DASHED
  5
1FD
 10
442.478348
 20
246.243657
 30
0.0
 11
438.953348
 21
249.768657
 31
0.0
  0
LINE
  8
LC-006-005-----0
  6
DASHED
  5
1FE
 10
434.468122
 20
254.253883
 30
0.0
 11
431.441997
 21
257.280008
 31
0.0
  0
LINE
  8
LC-006-005-----0
  6
DASHED
  5
1FF
 10
441.064134
 20
246.243657
 30
0.0
 11
437.539134
 21
249.768657
 31
0.0
  0
LINE
  8
LC-006-005-----0
  6
DASHED
  5
200
 10
434.58397
 20
252.723822
 30
0.0
 11
431.441997
 21
255.865794
 31
0.0
  0
LINE
  8
LC-006-005-----0
  6
CONTINUOUS
  5
201
 10
438.235707
 20
246.243657
 30
0.0
 11
431.441997
 21
253.037367
 31
0.0
  0
LINE
  8
LC-006-005-----0
  6
CONTINUOUS
  5
202
 10
436.821494
 20
246.243657
 30
0.0
 11
431.441997
 21
251.623154
 31
0.0
  0
LINE
  8
LC-006-005-----0
  6
DASHED
  5
203
 10
433.993066
 20
246.243657
 30
0.0
 11
431.441997
 21
248.794727
 31
0.0
  0
LINE
  8
LC-006-005-----0
  6
DASHED
  5
204
 10
432.578853
 20
246.243657
 30
0.0
 11
430.078853
 21
248.743657
 31
0.0
  0
LINE
  8
LC-006-005-----0
  6
CONTINUOUS
  5
205
 10
429.750426
 20
246.243657
 30
0.0
 11
427.441997
 21
248.552086
 31
0.0
  0
LINE
  8
LC-006-005-----0
  6
CONTINUOUS
  5
206
 10
428.336212
 20
246.243657
 30
0.0
 11
427.441997
 21
247.137872
 31
0.0
  0
ENDBLK
  8
0
  5
207
  0
BLOCK
  8
0
  5
209
  2
*X19
 70
    65
 10
427.441997
 20
349.768657
 30
0.0
  3
*X19
  0
LINE
  8
LC-006-005-----0
  6
CONTINUOUS
  5
20A
 10
445.481997
 20
369.105015
 30
0.0
 11
442.293355
 21
372.293657
 31
0.0
  0
LINE
  8
LC-006-005-----0
  6
DASHED
  5
20B
 10
445.481997
 20
366.276588
 30
0.0
 11
439.464928
 21
372.293657
 31
0.0
  0
LINE
  8
LC-006-005-----0
  6
DASHED
  5
20C
 10
445.481997
 20
364.862374
 30
0.0
 11
442.021506
 21
368.322865
 31
0.0
  0
LINE
  8
LC-006-005-----0
  6
DASHED
  5
20D
 10
441.743336
 20
368.601035
 30
0.0
 11
438.050714
 21
372.293657
 31
0.0
  0
LINE
  8
LC-006-005-----0
  6
CONTINUOUS
  5
20E
 10
445.481997
 20
362.033947
 30
0.0
 11
442.487439
 21
365.028505
 31
0.0
  0
LINE
  8
LC-006-005-----0
  6
CONTINUOUS
  5
20F
 10
438.747287
 20
368.768657
 30
0.0
 11
435.222287
 21
372.293657
 31
0.0
  0
LINE
  8
LC-006-005-----0
  6
CONTINUOUS
  5
210
 10
445.481997
 20
360.619734
 30
0.0
 11
442.656521
 21
363.445209
 31
0.0
  0
LINE
  8
LC-006-005-----0
  6
CONTINUOUS
  5
211
 10
437.333073
 20
368.768657
 30
0.0
 11
433.808073
 21
372.293657
 31
0.0
  0
LINE
  8
LC-006-005-----0
  6
DASHED
  5
212
 10
445.481997
 20
357.791306
 30
0.0
 11
442.994686
 21
360.278618
 31
0.0
  0
LINE
  8
LC-006-005-----0
  6
DASHED
  5
213
 10
434.922082
 20
368.351222
 30
0.0
 11
430.979646
 21
372.293657
 31
0.0
  0
LINE
  8
LC-006-005-----0
  6
DASHED
  5
214
 10
445.481997
 20
356.377093
 30
0.0
 11
443.163768
 21
358.695322
 31
0.0
  0
LINE
  8
LC-006-005-----0
  6
DASHED
  5
215
 10
434.686847
 20
367.172243
 30
0.0
 11
429.565433
 21
372.293657
 31
0.0
  0
LINE
  8
LC-006-005-----0
  6
CONTINUOUS
  5
216
 10
444.22964
 20
354.801023
 30
0.0
 11
443.514363
 21
355.5163
 31
0.0
  0
LINE
  8
LC-006-005-----0
  6
CONTINUOUS
  5
217
 10
434.487767
 20
364.542896
 30
0.0
 11
431.441997
 21
367.588666
 31
0.0
  0
LINE
  8
LC-006-005-----0
  6
CONTINUOUS
  5
218
 10
429.237006
 20
369.793657
 30
0.0
 11
427.441997
 21
371.588666
 31
0.0
  0
LINE
  8
LC-006-005-----0
  6
CONTINUOUS
  5
219
 10
434.388228
 20
363.228222
 30
0.0
 11
431.441997
 21
366.174452
 31
0.0
  0
LINE
  8
LC-006-005-----0
  6
CONTINUOUS
  5
21A
 10
427.822792
 20
369.793657
 30
0.0
 11
427.441997
 21
370.174452
 31
0.0
  0
LINE
  8
LC-006-005-----0
  6
DASHED
  5
21B
 10
434.189148
 20
360.598874
 30
0.0
 11
431.441997
 21
363.346025
 31
0.0
  0
LINE
  8
LC-006-005-----0
  6
DASHED
  5
21C
 10
434.089608
 20
359.2842
 30
0.0
 11
431.441997
 21
361.931811
 31
0.0
  0
LINE
  8
LC-006-005-----0
  6
CONTINUOUS
  5
21D
 10
433.890529
 20
356.654852
 30
0.0
 11
431.441997
 21
359.103384
 31
0.0
  0
LINE
  8
LC-006-005-----0
  6
CONTINUOUS
  5
21E
 10
433.790989
 20
355.340179
 30
0.0
 11
431.441997
 21
357.689171
 31
0.0
  0
LINE
  8
LC-006-005-----0
  6
DASHED
  5
21F
 10
433.59191
 20
352.710831
 30
0.0
 11
431.441997
 21
354.860744
 31
0.0
  0
LINE
  8
LC-006-005-----0
  6
DASHED
  5
220
 10
433.49237
 20
351.396157
 30
0.0
 11
431.441997
 21
353.44653
 31
0.0
  0
LINE
  8
LC-006-005-----0
  6
CONTINUOUS
  5
221
 10
432.277885
 20
349.782215
 30
0.0
 11
431.455555
 21
350.604545
 31
0.0
  0
ENDBLK
  8
0
  5
222
  0
BLOCK
  8
0
  5
224
  2
BLK3
 70
    64
 10
0.0
 20
0.0
 30
0.0
  3
BLK3
  0
ENDBLK
  8
0
  5
225
  0
BLOCK
  8
0
  5
227
  2
BLK4
 70
    64
 10
0.0
 20
0.0
 30
0.0
  3
BLK4
  0
ENDBLK
  8
0
  5
228
  0
ENDSEC
  0
SECTION
  2
ENTITIES
  0
VIEWPORT
  8
LC-000
  5
3A8
 67
     1
 68
     1
 10
420.0
 20
297.0
 30
0.0
 40
840.0
 41
594.0
 69
     1
1001
ACAD
1000
MVIEW
1002
{
1070
    16
1010
0.0
1020
0.0
1030
0.0
1010
0.0
1020
0.0
1030
1.0
1040
0.0
1040
594.0
1040
420.0
1040
297.0
1040
50.0
1040
0.0
1040
0.0
1070
     0
1070
   100
1070
     1
1070
     1
1070
     0
1070
     0
1070
     0
1070
     0
1040
0.0
1040
0.0
1040
0.0
1040
1.0
1040
1.0
1040
0.0
1040
0.0
1070
     0
1002
{
1002
}
1002
}
  0
VIEWPORT
  8
0
  5
3A9
 67
     1
 68
     1
 10
0.0
 20
0.0
 30
0.0
 40
0.0
 41
0.0
 69
     1
1001
ACAD
1000
MVIEW
1002
{
1070
    16
1010
0.0
1020
0.0
1030
0.0
1010
0.0
1020
0.0
1030
1.0
1040
0.0
1040
594.0
1040
0.0
1040
0.0
1040
50.0
1040
0.0
1040
0.0
1070
     0
1070
   100
1070
     0
1070
     1
1070
     0
1070
     0
1070
     0
1070
     0
1040
0.0
1040
0.0
1040
0.0
1040
0.5
1040
0.5
1040
0.5
1040
0.5
1070
     0
1002
{
1002
}
1002
}
  0
DIMENSION
  8
0
  5
229
  2
*D0
 10
240.0
 20
309.268657
 30
0.0
 11
240.0
 21
309.268657
 31
0.0
  1
DN100
 13
287.577595
 23
364.368657
 33
0.0
 14
287.577595
 24
254.168657
 34
0.0
 50
90.0
  3
LC-DIM-L-0090-02-02
  0
INSERT
  8
0
  5
22A
  2
*X1
 10
483.497485
 20
126.933288
 30
0.0
  0
INSERT
  8
0
  5
22B
  2
*X2
 10
468.997485
 20
121.134709
 30
0.0
  0
INSERT
  8
0
  5
22D
  2
BLK1
 10
0.0
 20
0.0
 30
0.0
  0
INSERT
  8
0
  5
22E
  2
*X4
 10
269.997651
 20
243.834119
 30
0.0
  0
DIMENSION
  8
0
  5
22F
  2
*D5
 10
359.997651
 20
400.0
 30
0.0
 11
359.997651
 21
400.0
 31
0.0
 13
269.997651
 23
363.157527
 33
0.0
 14
449.997651
 24
374.703195
 34
0.0
  3
LC-DIM-L-0090-02-02
  0
INSERT
  8
0
  5
230
  2
*X6
 10
269.997651
 20
360.969415
 30
0.0
  0
INSERT
  8
0
  5
231
  2
*X7
 10
435.377734
 20
249.858498
 30
0.0
  0
INSERT
  8
0
  5
232
  2
*X8
 10
435.377734
 20
367.678816
 30
0.0
  0
INSERT
  8
0
  5
234
  2
BLK2
 10
0.0
 20
0.0
 30
0.0
  0
INSERT
  8
0
  5
235
  2
*X10
 10
269.997511
 20
170.933312
 30
0.0
  0
INSERT
  8
0
  5
236
  2
*X11
 10
269.997456
 20
125.433337
 30
0.0
  0
INSERT
  8
0
  5
237
  2
*X12
 10
469.997651
 20
240.768747
 30
0.0
  0
INSERT
  8
0
  5
238
  2
*X13
 10
469.997651
 20
265.268747
 30
0.0
  0
INSERT
  8
0
  5
239
  2
*X14
 10
469.997651
 20
340.768747
 30
0.0
  0
INSERT
  8
0
  5
23A
  2
*X15
 10
469.997651
 20
365.268747
 30
0.0
  0
INSERT
  8
0
  5
23B
  2
*X16
 10
496.497651
 20
343.268747
 30
0.0
  0
INSERT
  8
0
  5
23C
  2
*X17
 10
496.497651
 20
243.268747
 30
0.0
  0
INSERT
  8
0
  5
23D
  2
*X18
 10
427.441997
 20
246.243657
 30
0.0
  0
INSERT
  8
0
  5
23E
  2
*X19
 10
427.441997
 20
349.768657
 30
0.0
  0
INSERT
  8
0
  5
23F
  2
BLK3
 10
0.0
 20
0.0
 30
0.0
  0
INSERT
  8
0
  5
240
  2
BLK4
 10
0.0
 20
0.0
 30
0.0
  0
LINE
  8
LC-001-002-----0
  6
CONTINUOUS
  5
242
 10
269.997513
 20
172.6297
 30
0.0
 11
269.997456
 21
129.237396
 31
0.0
  0
ARC
  8
LC-005-002-RND-0
  6
CONTINUOUS
  5
244
 10
430.997517
 20
175.433337
 30
0.0
 40
1.0
 50
89.999925
 51
179.999925
  0
ARC
  8
LC-005-002-RND-0
  6
CONTINUOUS
  5
245
 10
430.997517
 20
175.433337
 30
0.0
 40
1.0
 50
359.999925
 51
89.999925
  0
LINE
  8
LC-001-002-----0
  6
CONTINUOUS
  5
246
 10
269.997651
 20
363.157527
 30
0.0
 11
269.997651
 21
255.379787
 31
0.0
  0
LINE
  8
LC-001-002-----0
  6
CONTINUOUS
  5
247
 10
493.997485
 20
127.133288
 30
0.0
 11
491.2739
 21
127.133288
 31
0.0
  0
LINE
  8
LC-001-002-----0
  6
CONTINUOUS
  5
248
 10
493.997485
 20
174.684288
 30
0.0
 11
493.997485
 21
127.133288
 31
0.0
  0
LINE
  8
LC-001-002-----0
  6
CONTINUOUS
  5
249
 10
468.997485
 20
130.133288
 30
0.0
 11
468.997485
 21
127.133288
 31
0.0
  0
LINE
  8
LC-001-002-----0
  6
CONTINUOUS
  5
24A
 10
493.997485
 20
132.733288
 30
0.0
 11
490.797485
 21
132.733288
 31
0.0
  0
LINE
  8
LC-001-002-----0
  6
CONTINUOUS
  5
24B
 10
490.797485
 20
132.733288
 30
0.0
 11
490.797485
 21
130.233288
 31
0.0
  0
LINE
  8
LC-001-002-----0
  6
CONTINUOUS
  5
24C
 10
490.697485
 20
130.133288
 30
0.0
 11
487.497485
 21
130.133288
 31
0.0
  0
LINE
  8
LC-001-002-----0
  6
CONTINUOUS
  5
24D
 10
472.497485
 20
127.033288
 30
0.0
 11
472.497485
 21
121.234709
 31
0.0
  0
ARC
  8
LC-005-002-RND-0
  6
CONTINUOUS
  5
24E
 10
472.597485
 20
121.234709
 30
0.0
 40
0.1
 50
180.0
 51
315.0
  0
ARC
  8
LC-005-002-RND-0
  6
CONTINUOUS
  5
24F
 10
474.706081
 20
127.033288
 30
0.0
 40
0.1
 50
90.0
 51
170.0
  0
LINE
  8
LC-001-002-----0
  6
CONTINUOUS
  5
250
 10
472.668195
 20
121.163998
 30
0.0
 11
473.740301
 21
122.236104
 31
0.0
  0
LINE
  8
LC-001-002-----0
  6
CONTINUOUS
  5
251
 10
472.397485
 20
127.133288
 30
0.0
 11
468.997485
 21
127.133288
 31
0.0
  0
LINE
  8
LC-001-002-----0
  6
CONTINUOUS
  5
252
 10
474.6076
 20
127.050652
 30
0.0
 11
473.768071
 21
122.28945
 31
0.0
  0
LINE
  8
LC-001-002-----0
  6
CONTINUOUS
  5
253
 10
478.097485
 20
127.033288
 30
0.0
 11
478.097485
 21
121.234709
 31
0.0
  0
ARC
  8
LC-005-002-RND-0
  6
CONTINUOUS
  5
254
 10
478.197485
 20
121.234709
 30
0.0
 40
0.1
 50
180.0
 51
315.0
  0
ARC
  8
LC-005-002-RND-0
  6
CONTINUOUS
  5
255
 10
473.66959
 20
122.306815
 30
0.0
 40
0.1
 50
315.0
 51
350.0
  0
LINE
  8
LC-001-002-----0
  6
CONTINUOUS
  5
256
 10
478.268195
 20
121.163998
 30
0.0
 11
479.340301
 21
122.236104
 31
0.0
  0
LINE
  8
LC-001-002-----0
  6
CONTINUOUS
  5
257
 10
480.2076
 20
127.050652
 30
0.0
 11
479.368071
 21
122.28945
 31
0.0
  0
ARC
  8
LC-005-002-RND-0
  6
CONTINUOUS
  5
258
 10
479.26959
 20
122.306815
 30
0.0
 40
0.1
 50
315.0
 51
350.0
  0
LINE
  8
LC-001-002-----0
  6
CONTINUOUS
  5
259
 10
483.697485
 20
127.033288
 30
0.0
 11
483.697485
 21
121.234709
 31
0.0
  0
ARC
  8
LC-005-002-RND-0
  6
CONTINUOUS
  5
25A
 10
483.797485
 20
121.234709
 30
0.0
 40
0.1
 50
180.0
 51
315.0
  0
LINE
  8
LC-001-002-----0
  6
CONTINUOUS
  5
25B
 10
483.868195
 20
121.163998
 30
0.0
 11
484.940301
 21
122.236104
 31
0.0
  0
LINE
  8
LC-001-002-----0
  6
CONTINUOUS
  5
25C
 10
485.8076
 20
127.050652
 30
0.0
 11
484.968071
 21
122.28945
 31
0.0
  0
ARC
  8
LC-005-002-RND-0
  6
CONTINUOUS
  5
25D
 10
484.86959
 20
122.306815
 30
0.0
 40
0.1
 50
315.0
 51
350.0
  0
LINE
  8
LC-001-002-----0
  6
CONTINUOUS
  5
25E
 10
488.897485
 20
127.033288
 30
0.0
 11
488.897485
 21
121.234709
 31
0.0
  0
ARC
  8
LC-005-002-RND-0
  6
CONTINUOUS
  5
25F
 10
488.997485
 20
121.234709
 30
0.0
 40
0.1
 50
180.0
 51
315.0
  0
LINE
  8
LC-001-002-----0
  6
CONTINUOUS
  5
260
 10
489.068195
 20
121.163998
 30
0.0
 11
490.140301
 21
122.236104
 31
0.0
  0
LINE
  8
LC-001-002-----0
  6
CONTINUOUS
  5
261
 10
490.978458
 20
126.885382
 30
0.0
 11
490.168071
 21
122.28945
 31
0.0
  0
ARC
  8
LC-005-002-RND-0
  6
CONTINUOUS
  5
262
 10
490.06959
 20
122.306815
 30
0.0
 40
0.1
 50
315.0
 51
350.0
  0
LINE
  8
LC-001-002-----0
  6
CONTINUOUS
  5
263
 10
488.797485
 20
127.133288
 30
0.0
 11
485.906081
 21
127.133288
 31
0.0
  0
LINE
  8
LC-001-002-----0
  6
CONTINUOUS
  5
264
 10
483.597485
 20
127.133288
 30
0.0
 11
480.306081
 21
127.133288
 31
0.0
  0
LINE
  8
LC-001-002-----0
  6
CONTINUOUS
  5
265
 10
477.997485
 20
127.133288
 30
0.0
 11
474.706081
 21
127.133288
 31
0.0
  0
ARC
  8
LC-005-002-RND-0
  6
CONTINUOUS
  5
266
 10
472.397485
 20
127.033288
 30
0.0
 40
0.1
 50
0.0
 51
90.0
  0
ARC
  8
LC-005-002-RND-0
  6
CONTINUOUS
  5
267
 10
477.997485
 20
127.033288
 30
0.0
 40
0.1
 50
0.0
 51
90.0
  0
ARC
  8
LC-005-002-RND-0
  6
CONTINUOUS
  5
268
 10
480.306081
 20
127.033288
 30
0.0
 40
0.1
 50
90.0
 51
170.0
  0
ARC
  8
LC-005-002-RND-0
  6
CONTINUOUS
  5
269
 10
483.597485
 20
127.033288
 30
0.0
 40
0.1
 50
0.0
 51
90.0
  0
ARC
  8
LC-005-002-RND-0
  6
CONTINUOUS
  5
26A
 10
485.906081
 20
127.033288
 30
0.0
 40
0.1
 50
90.0
 51
170.0
  0
ARC
  8
LC-005-002-RND-0
  6
CONTINUOUS
  5
26B
 10
488.797485
 20
127.033288
 30
0.0
 40
0.1
 50
0.0
 51
90.0
  0
ARC
  8
LC-005-002-RND-0
  6
CONTINUOUS
  5
26C
 10
491.2739
 20
126.833288
 30
0.0
 40
0.3
 50
90.0
 51
170.0
  0
ARC
  8
LC-005-002-RND-0
  6
CONTINUOUS
  5
26D
 10
490.697485
 20
130.233288
 30
0.0
 40
0.1
 50
270.0
 51
0.0
  0
LINE
  8
LC-001-002-----0
  6
CONTINUOUS
  5
26E
 10
473.497485
 20
130.383288
 30
0.0
 11
473.497485
 21
130.133288
 31
0.0
  0
LINE
  8
LC-001-002-----0
  6
CONTINUOUS
  5
26F
 10
473.997485
 20
130.383288
 30
0.0
 11
473.997485
 21
130.133288
 31
0.0
  0
LINE
  8
LC-001-002-----0
  6
CONTINUOUS
  5
270
 10
473.747485
 20
130.633288
 30
0.0
 11
473.747485
 21
130.633288
 31
0.0
  0
LINE
  8
LC-001-002-----0
  6
CONTINUOUS
  5
271
 10
473.497485
 20
130.133288
 30
0.0
 11
468.997485
 21
130.133288
 31
0.0
  0
ARC
  8
LC-005-002-RND-0
  6
CONTINUOUS
  5
272
 10
473.747485
 20
130.383288
 30
0.0
 40
0.25
 50
0.0
 51
90.0
  0
ARC
  8
LC-005-002-RND-0
  6
CONTINUOUS
  5
273
 10
473.747485
 20
130.383288
 30
0.0
 40
0.25
 50
90.0
 51
180.0
  0
LINE
  8
LC-001-002-----0
  6
CONTINUOUS
  5
274
 10
477.997485
 20
130.433288
 30
0.0
 11
477.997485
 21
130.133288
 31
0.0
  0
LINE
  8
LC-001-002-----0
  6
CONTINUOUS
  5
275
 10
478.497485
 20
130.433288
 30
0.0
 11
478.497485
 21
130.133288
 31
0.0
  0
LINE
  8
LC-001-002-----0
  6
CONTINUOUS
  5
276
 10
478.297485
 20
130.633288
 30
0.0
 11
478.197485
 21
130.633288
 31
0.0
  0
ARC
  8
LC-005-002-RND-0
  6
CONTINUOUS
  5
277
 10
478.297485
 20
130.433288
 30
0.0
 40
0.2
 50
0.0
 51
90.0
  0
ARC
  8
LC-005-002-RND-0
  6
CONTINUOUS
  5
278
 10
478.197485
 20
130.433288
 30
0.0
 40
0.2
 50
90.0
 51
180.0
  0
LINE
  8
LC-001-002-----0
  6
CONTINUOUS
  5
279
 10
482.497485
 20
130.433288
 30
0.0
 11
482.497485
 21
130.133288
 31
0.0
  0
LINE
  8
LC-001-002-----0
  6
CONTINUOUS
  5
27A
 10
482.997485
 20
130.433288
 30
0.0
 11
482.997485
 21
130.133288
 31
0.0
  0
LINE
  8
LC-001-002-----0
  6
CONTINUOUS
  5
27B
 10
482.797485
 20
130.633288
 30
0.0
 11
482.697485
 21
130.633288
 31
0.0
  0
ARC
  8
LC-005-002-RND-0
  6
CONTINUOUS
  5
27C
 10
482.797485
 20
130.433288
 30
0.0
 40
0.2
 50
0.0
 51
90.0
  0
ARC
  8
LC-005-002-RND-0
  6
CONTINUOUS
  5
27D
 10
482.697485
 20
130.433288
 30
0.0
 40
0.2
 50
90.0
 51
180.0
  0
LINE
  8
LC-001-002-----0
  6
CONTINUOUS
  5
27E
 10
486.997485
 20
130.433288
 30
0.0
 11
486.997485
 21
130.133288
 31
0.0
  0
LINE
  8
LC-001-002-----0
  6
CONTINUOUS
  5
27F
 10
487.497485
 20
130.433288
 30
0.0
 11
487.497485
 21
130.133288
 31
0.0
  0
LINE
  8
LC-001-002-----0
  6
CONTINUOUS
  5
280
 10
487.297485
 20
130.633288
 30
0.0
 11
487.197485
 21
130.633288
 31
0.0
  0
ARC
  8
LC-005-002-RND-0
  6
CONTINUOUS
  5
281
 10
487.297485
 20
130.433288
 30
0.0
 40
0.2
 50
0.0
 51
90.0
  0
ARC
  8
LC-005-002-RND-0
  6
CONTINUOUS
  5
282
 10
487.197485
 20
130.433288
 30
0.0
 40
0.2
 50
90.0
 51
180.0
  0
LINE
  8
LC-001-002-----0
  6
CONTINUOUS
  5
283
 10
477.997485
 20
130.133288
 30
0.0
 11
473.997485
 21
130.133288
 31
0.0
  0
LINE
  8
LC-001-002-----0
  6
CONTINUOUS
  5
284
 10
482.497485
 20
130.133288
 30
0.0
 11
478.497485
 21
130.133288
 31
0.0
  0
LINE
  8
LC-001-002-----0
  6
CONTINUOUS
  5
285
 10
486.997485
 20
130.133288
 30
0.0
 11
482.997485
 21
130.133288
 31
0.0
  0
LINE
  8
LC-001-002-----0
  6
CONTINUOUS
  5
286
 10
493.997485
 20
174.733288
 30
0.0
 11
491.2739
 21
174.733288
 31
0.0
  0
LINE
  8
LC-001-002-----0
  6
CONTINUOUS
  5
287
 10
468.997485
 20
171.733288
 30
0.0
 11
468.997485
 21
174.733288
 31
0.0
  0
LINE
  8
LC-001-002-----0
  6
CONTINUOUS
  5
288
 10
493.997485
 20
169.133288
 30
0.0
 11
490.797485
 21
169.133288
 31
0.0
  0
LINE
  8
LC-001-002-----0
  6
CONTINUOUS
  5
289
 10
490.797485
 20
169.133288
 30
0.0
 11
490.797485
 21
171.633288
 31
0.0
  0
LINE
  8
LC-001-002-----0
  6
CONTINUOUS
  5
28A
 10
490.697485
 20
171.733288
 30
0.0
 11
487.497485
 21
171.733288
 31
0.0
  0
LINE
  8
LC-001-002-----0
  6
CONTINUOUS
  5
28B
 10
472.497485
 20
174.833288
 30
0.0
 11
472.497485
 21
180.631866
 31
0.0
  0
ARC
  8
LC-005-002-RND-0
  6
CONTINUOUS
  5
28C
 10
472.597485
 20
180.631866
 30
0.0
 40
0.1
 50
45.0
 51
180.0
  0
ARC
  8
LC-005-002-RND-0
  6
CONTINUOUS
  5
28D
 10
474.706081
 20
174.833288
 30
0.0
 40
0.1
 50
190.0
 51
270.0
  0
LINE
  8
LC-001-002-----0
  6
CONTINUOUS
  5
28E
 10
472.668195
 20
180.702577
 30
0.0
 11
473.740301
 21
179.630471
 31
0.0
  0
LINE
  8
LC-001-002-----0
  6
CONTINUOUS
  5
28F
 10
472.397485
 20
174.733288
 30
0.0
 11
468.997485
 21
174.733288
 31
0.0
  0
LINE
  8
LC-001-002-----0
  6
CONTINUOUS
  5
290
 10
474.6076
 20
174.815923
 30
0.0
 11
473.768071
 21
179.577125
 31
0.0
  0
LINE
  8
LC-001-002-----0
  6
CONTINUOUS
  5
291
 10
478.097485
 20
174.833288
 30
0.0
 11
478.097485
 21
180.631866
 31
0.0
  0
ARC
  8
LC-005-002-RND-0
  6
CONTINUOUS
  5
292
 10
478.197485
 20
180.631866
 30
0.0
 40
0.1
 50
45.0
 51
180.0
  0
ARC
  8
LC-005-002-RND-0
  6
CONTINUOUS
  5
293
 10
473.66959
 20
179.559761
 30
0.0
 40
0.1
 50
10.0
 51
45.0
  0
LINE
  8
LC-001-002-----0
  6
CONTINUOUS
  5
294
 10
478.268195
 20
180.702577
 30
0.0
 11
479.340301
 21
179.630471
 31
0.0
  0
LINE
  8
LC-001-002-----0
  6
CONTINUOUS
  5
295
 10
480.2076
 20
174.815923
 30
0.0
 11
479.368071
 21
179.577125
 31
0.0
  0
ARC
  8
LC-005-002-RND-0
  6
CONTINUOUS
  5
296
 10
479.26959
 20
179.559761
 30
0.0
 40
0.1
 50
10.0
 51
45.0
  0
LINE
  8
LC-001-002-----0
  6
CONTINUOUS
  5
297
 10
483.697485
 20
174.833288
 30
0.0
 11
483.697485
 21
180.631866
 31
0.0
  0
ARC
  8
LC-005-002-RND-0
  6
CONTINUOUS
  5
298
 10
483.797485
 20
180.631866
 30
0.0
 40
0.1
 50
45.0
 51
180.0
  0
LINE
  8
LC-001-002-----0
  6
CONTINUOUS
  5
299
 10
483.868195
 20
180.702577
 30
0.0
 11
484.940301
 21
179.630471
 31
0.0
  0
LINE
  8
LC-001-002-----0
  6
CONTINUOUS
  5
29A
 10
485.8076
 20
174.815923
 30
0.0
 11
484.968071
 21
179.577125
 31
0.0
  0
ARC
  8
LC-005-002-RND-0
  6
CONTINUOUS
  5
29B
 10
484.86959
 20
179.559761
 30
0.0
 40
0.1
 50
10.0
 51
45.0
  0
LINE
  8
LC-001-002-----0
  6
CONTINUOUS
  5
29C
 10
488.897485
 20
174.833288
 30
0.0
 11
488.897485
 21
180.631866
 31
0.0
  0
ARC
  8
LC-005-002-RND-0
  6
CONTINUOUS
  5
29D
 10
488.997485
 20
180.631866
 30
0.0
 40
0.1
 50
45.0
 51
180.0
  0
LINE
  8
LC-001-002-----0
  6
CONTINUOUS
  5
29E
 10
489.068195
 20
180.702577
 30
0.0
 11
490.140301
 21
179.630471
 31
0.0
  0
LINE
  8
LC-001-002-----0
  6
CONTINUOUS
  5
29F
 10
490.978458
 20
174.981193
 30
0.0
 11
490.168071
 21
179.577125
 31
0.0
  0
LINE
  8
LC-001-002-----0
  6
CONTINUOUS
  5
2A0
 10
488.797485
 20
174.733288
 30
0.0
 11
485.906081
 21
174.733288
 31
0.0
  0
LINE
  8
LC-001-002-----0
  6
CONTINUOUS
  5
2A1
 10
483.597485
 20
174.733288
 30
0.0
 11
480.306081
 21
174.733288
 31
0.0
  0
LINE
  8
LC-001-002-----0
  6
CONTINUOUS
  5
2A2
 10
477.997485
 20
174.733288
 30
0.0
 11
474.706081
 21
174.733288
 31
0.0
  0
ARC
  8
LC-005-002-RND-0
  6
CONTINUOUS
  5
2A3
 10
472.397485
 20
174.833288
 30
0.0
 40
0.1
 50
270.0
 51
0.0
  0
ARC
  8
LC-005-002-RND-0
  6
CONTINUOUS
  5
2A4
 10
477.997485
 20
174.833288
 30
0.0
 40
0.1
 50
270.0
 51
0.0
  0
ARC
  8
LC-005-002-RND-0
  6
CONTINUOUS
  5
2A5
 10
480.306081
 20
174.833288
 30
0.0
 40
0.1
 50
190.0
 51
270.0
  0
ARC
  8
LC-005-002-RND-0
  6
CONTINUOUS
  5
2A6
 10
483.597485
 20
174.833288
 30
0.0
 40
0.1
 50
270.0
 51
0.0
  0
ARC
  8
LC-005-002-RND-0
  6
CONTINUOUS
  5
2A7
 10
485.906081
 20
174.833288
 30
0.0
 40
0.1
 50
190.0
 51
270.0
  0
ARC
  8
LC-005-002-RND-0
  6
CONTINUOUS
  5
2A8
 10
488.797485
 20
174.833288
 30
0.0
 40
0.1
 50
270.0
 51
0.0
  0
ARC
  8
LC-005-002-RND-0
  6
CONTINUOUS
  5
2A9
 10
491.2739
 20
175.033288
 30
0.0
 40
0.3
 50
190.0
 51
270.0
  0
ARC
  8
LC-005-002-RND-0
  6
CONTINUOUS
  5
2AA
 10
490.697485
 20
171.633288
 30
0.0
 40
0.1
 50
0.0
 51
90.0
  0
LINE
  8
LC-001-002-----0
  6
CONTINUOUS
  5
2AB
 10
473.497485
 20
171.483288
 30
0.0
 11
473.497485
 21
171.733288
 31
0.0
  0
LINE
  8
LC-001-002-----0
  6
CONTINUOUS
  5
2AC
 10
473.997485
 20
171.483288
 30
0.0
 11
473.997485
 21
171.733288
 31
0.0
  0
LINE
  8
LC-001-002-----0
  6
CONTINUOUS
  5
2AD
 10
473.747485
 20
171.233288
 30
0.0
 11
473.747485
 21
171.233288
 31
0.0
  0
LINE
  8
LC-001-002-----0
  6
CONTINUOUS
  5
2AE
 10
473.497485
 20
171.733288
 30
0.0
 11
468.997485
 21
171.733288
 31
0.0
  0
ARC
  8
LC-005-002-RND-0
  6
CONTINUOUS
  5
2AF
 10
473.747485
 20
171.483288
 30
0.0
 40
0.25
 50
270.0
 51
0.0
  0
ARC
  8
LC-005-002-RND-0
  6
CONTINUOUS
  5
2B0
 10
473.747485
 20
171.483288
 30
0.0
 40
0.25
 50
180.0
 51
270.0
  0
LINE
  8
LC-001-002-----0
  6
CONTINUOUS
  5
2B1
 10
477.997485
 20
171.433288
 30
0.0
 11
477.997485
 21
171.733288
 31
0.0
  0
LINE
  8
LC-001-002-----0
  6
CONTINUOUS
  5
2B2
 10
478.497485
 20
171.433288
 30
0.0
 11
478.497485
 21
171.733288
 31
0.0
  0
LINE
  8
LC-001-002-----0
  6
CONTINUOUS
  5
2B3
 10
478.297485
 20
171.233288
 30
0.0
 11
478.197485
 21
171.233288
 31
0.0
  0
ARC
  8
LC-005-002-RND-0
  6
CONTINUOUS
  5
2B4
 10
478.297485
 20
171.433288
 30
0.0
 40
0.2
 50
270.0
 51
0.0
  0
ARC
  8
LC-005-002-RND-0
  6
CONTINUOUS
  5
2B5
 10
478.197485
 20
171.433288
 30
0.0
 40
0.2
 50
180.0
 51
270.0
  0
LINE
  8
LC-001-002-----0
  6
CONTINUOUS
  5
2B6
 10
482.497485
 20
171.433288
 30
0.0
 11
482.497485
 21
171.733288
 31
0.0
  0
LINE
  8
LC-001-002-----0
  6
CONTINUOUS
  5
2B7
 10
482.997485
 20
171.433288
 30
0.0
 11
482.997485
 21
171.733288
 31
0.0
  0
LINE
  8
LC-001-002-----0
  6
CONTINUOUS
  5
2B8
 10
482.797485
 20
171.233288
 30
0.0
 11
482.697485
 21
171.233288
 31
0.0
  0
ARC
  8
LC-005-002-RND-0
  6
CONTINUOUS
  5
2B9
 10
482.797485
 20
171.433288
 30
0.0
 40
0.2
 50
270.0
 51
0.0
  0
ARC
  8
LC-005-002-RND-0
  6
CONTINUOUS
  5
2BA
 10
482.697485
 20
171.433288
 30
0.0
 40
0.2
 50
180.0
 51
270.0
  0
LINE
  8
LC-001-002-----0
  6
CONTINUOUS
  5
2BB
 10
486.997485
 20
171.433288
 30
0.0
 11
486.997485
 21
171.733288
 31
0.0
  0
LINE
  8
LC-001-002-----0
  6
CONTINUOUS
  5
2BC
 10
487.497485
 20
171.433288
 30
0.0
 11
487.497485
 21
171.733288
 31
0.0
  0
LINE
  8
LC-001-002-----0
  6
CONTINUOUS
  5
2BD
 10
487.297485
 20
171.233288
 30
0.0
 11
487.197485
 21
171.233288
 31
0.0
  0
ARC
  8
LC-005-002-RND-0
  6
CONTINUOUS
  5
2BE
 10
487.297485
 20
171.433288
 30
0.0
 40
0.2
 50
270.0
 51
0.0
  0
ARC
  8
LC-005-002-RND-0
  6
CONTINUOUS
  5
2BF
 10
487.197485
 20
171.433288
 30
0.0
 40
0.2
 50
180.0
 51
270.0
  0
LINE
  8
LC-001-002-----0
  6
CONTINUOUS
  5
2C0
 10
477.997485
 20
171.733288
 30
0.0
 11
473.997485
 21
171.733288
 31
0.0
  0
LINE
  8
LC-001-002-----0
  6
CONTINUOUS
  5
2C1
 10
482.497485
 20
171.733288
 30
0.0
 11
478.497485
 21
171.733288
 31
0.0
  0
LINE
  8
LC-001-002-----0
  6
CONTINUOUS
  5
2C2
 10
486.997485
 20
171.733288
 30
0.0
 11
482.997485
 21
171.733288
 31
0.0
  0
ARC
  8
LC-005-002-RND-0
  6
CONTINUOUS
  5
2C3
 10
490.06959
 20
179.559761
 30
0.0
 40
0.1
 50
10.0
 51
45.0
  0
LINE
  8
LC-001-002-----0
  6
CONTINUOUS
  5
2C4
 10
468.997485
 20
171.733288
 30
0.0
 11
468.997485
 21
130.133288
 31
0.0
  0
LINE
  8
LC-001-002-----0
  6
CONTINUOUS
  5
2C5
 10
490.797485
 20
169.133288
 30
0.0
 11
490.797485
 21
132.733288
 31
0.0
  0
LINE
  8
LC-006-005-----0
  6
CONTINUOUS
  5
2C6
 10
488.897485
 20
177.770501
 30
0.0
 11
490.23462
 21
179.107636
 31
0.0
  0
LINE
  8
LC-001-002-----0
  6
CONTINUOUS
  5
2C7
 10
446.997455
 20
128.433316
 30
0.0
 11
431.997455
 21
128.433336
 31
0.0
  0
LINE
  8
LC-001-002-----0
  6
CONTINUOUS
  5
2C8
 10
272.9975
 20
173.433544
 30
0.0
 11
429.997514
 21
173.433339
 31
0.0
  0
LINE
  8
LC-001-002-----0
  6
CONTINUOUS
  5
2C9
 10
449.997459
 20
130.933312
 30
0.0
 11
269.997459
 21
130.933548
 31
0.0
  0
LINE
  8
LC-001-002-----0
  6
CONTINUOUS
  5
2CA
 10
269.997511
 20
170.933548
 30
0.0
 11
449.997511
 21
170.933312
 31
0.0
  0
LINE
  8
LC-001-002-----0
  6
CONTINUOUS
  5
2CB
 10
449.997513
 20
172.688384
 30
0.0
 11
449.997456
 21
129.23716
 31
0.0
  0
LINE
  8
LC-006-005-----0
  6
CONTINUOUS
  5
2CC
 10
478.097485
 20
178.28421
 30
0.0
 11
479.356151
 21
179.542875
 31
0.0
  0
LINE
  8
LC-006-005-----0
  6
CONTINUOUS
  5
2CD
 10
491.573921
 20
169.133229
 30
0.0
 11
493.997539
 21
171.556846
 31
0.0
  0
LINE
  8
LC-006-005-----0
  6
CONTINUOUS
  5
2CE
 10
490.797538
 20
171.185273
 30
0.0
 11
493.997546
 21
174.385281
 31
0.0
  0
LINE
  8
LC-006-005-----0
  6
CONTINUOUS
  5
2CF
 10
488.487088
 20
171.70325
 30
0.0
 11
491.517067
 21
174.733229
 31
0.0
  0
LINE
  8
LC-006-005-----0
  6
CONTINUOUS
  5
2D0
 10
485.688655
 20
171.733244
 30
0.0
 11
488.691576
 21
174.736165
 31
0.0
  0
LINE
  8
LC-006-005-----0
  6
CONTINUOUS
  5
2D1
 10
488.897485
 20
174.942074
 30
0.0
 11
490.666631
 21
176.711221
 31
0.0
  0
LINE
  8
LC-006-005-----0
  6
CONTINUOUS
  5
2D2
 10
482.505246
 20
171.378263
 30
0.0
 11
482.601166
 21
171.474183
 31
0.0
  0
LINE
  8
LC-006-005-----0
  6
CONTINUOUS
  5
2D3
 10
485.86785
 20
174.740866
 30
0.0
 11
485.939226
 21
174.812242
 31
0.0
  0
LINE
  8
LC-006-005-----0
  6
CONTINUOUS
  5
2D4
 10
482.628878
 20
171.501894
 30
0.0
 11
485.841221
 21
174.714237
 31
0.0
  0
LINE
  8
LC-006-005-----0
  6
CONTINUOUS
  5
2D5
 10
480.031815
 20
171.733259
 30
0.0
 11
483.04527
 21
174.746714
 31
0.0
  0
LINE
  8
LC-006-005-----0
  6
CONTINUOUS
  5
2D6
 10
483.697485
 20
175.398928
 30
0.0
 11
485.403911
 21
177.105355
 31
0.0
  0
LINE
  8
LC-006-005-----0
  6
CONTINUOUS
  5
2D7
 10
477.203396
 20
171.733266
 30
0.0
 11
480.234068
 21
174.763939
 31
0.0
  0
LINE
  8
LC-006-005-----0
  6
CONTINUOUS
  5
2D8
 10
483.656091
 20
178.185961
 30
0.0
 11
484.964827
 21
179.494697
 31
0.0
  0
LINE
  8
LC-006-005-----0
  6
CONTINUOUS
  5
2D9
 10
474.374976
 20
171.733274
 30
0.0
 11
477.389783
 21
174.748081
 31
0.0
  0
LINE
  8
LC-006-005-----0
  6
CONTINUOUS
  5
2DA
 10
478.097485
 20
175.455782
 30
0.0
 11
479.787887
 21
177.146185
 31
0.0
  0
LINE
  8
LC-006-005-----0
  6
CONTINUOUS
  5
2DB
 10
471.546556
 20
171.733281
 30
0.0
 11
474.676322
 21
174.863046
 31
0.0
  0
LINE
  8
LC-006-005-----0
  6
CONTINUOUS
  5
2DC
 10
468.99754
 20
172.012692
 30
0.0
 11
471.718129
 21
174.73328
 31
0.0
  0
LINE
  8
LC-006-005-----0
  6
CONTINUOUS
  5
2DD
 10
472.497485
 20
175.512637
 30
0.0
 11
474.179211
 21
177.194363
 31
0.0
  0
LINE
  8
LC-001-002-----0
  6
CONTINUOUS
  5
2DE
 10
427.411651
 20
250.348748
 30
0.0
 11
427.411651
 21
246.239208
 31
0.0
  0
LINE
  8
LC-008-001-----0
  6
CONTINUOUS
  5
2E0
 10
449.997651
 20
245.621397
 30
0.0
 11
449.997651
 21
243.834119
 31
0.0
  0
LINE
  8
LC-001-002-----0
  6
CONTINUOUS
  5
2E1
 10
442.838872
 20
246.243657
 30
0.0
 11
427.411651
 21
246.243657
 31
0.0
  0
LINE
  8
LC-001-002-----0
  6
CONTINUOUS
  5
2E2
 10
441.377734
 20
249.858498
 30
0.0
 11
435.377734
 21
249.858498
 31
0.0
  0
LINE
  8
LC-001-002-----0
  6
CONTINUOUS
  5
2E3
 10
435.377734
 20
249.858498
 30
0.0
 11
435.377734
 21
368.678816
 31
0.0
  0
LINE
  8
LC-001-002-----0
  6
CONTINUOUS
  5
2E4
 10
435.377734
 20
367.678816
 30
0.0
 11
441.377734
 21
367.678816
 31
0.0
  0
LINE
  8
LC-001-002-----0
  6
CONTINUOUS
  5
2E5
 10
441.377734
 20
368.678816
 30
0.0
 11
441.377734
 21
249.858498
 31
0.0
  0
LINE
  8
LC-001-002-----0
  6
CONTINUOUS
  5
2E6
 10
435.377734
 20
250.858498
 30
0.0
 11
441.377734
 21
250.858498
 31
0.0
  0
LINE
  8
LC-001-002-----0
  6
CONTINUOUS
  5
2E7
 10
435.734866
 20
368.768657
 30
0.0
 11
441.189128
 21
368.768657
 31
0.0
  0
LINE
  8
LC-001-002-----0
  6
CONTINUOUS
  5
2E8
 10
429.997517
 20
175.433339
 30
0.0
 11
429.997514
 21
173.433339
 31
0.0
  0
LINE
  8
LC-001-002-----0
  6
CONTINUOUS
  5
2E9
 10
441.377734
 20
368.678816
 30
0.0
 11
435.377734
 21
368.678816
 31
0.0
  0
LINE
  8
LC-001-002-----0
  6
CONTINUOUS
  5
2EA
 10
431.997517
 20
175.433336
 30
0.0
 11
431.997514
 21
173.433336
 31
0.0
  0
LINE
  8
LC-001-002-----0
  6
CONTINUOUS
  5
2EB
 10
469.997651
 20
368.268747
 30
0.0
 11
469.997651
 21
350.268747
 31
0.0
  0
LINE
  8
LC-001-002-----0
  6
CONTINUOUS
  5
2EC
 10
469.997651
 20
350.268747
 30
0.0
 11
481.997651
 21
350.268747
 31
0.0
  0
LINE
  8
LC-001-002-----0
  6
CONTINUOUS
  5
2ED
 10
481.997651
 20
368.268747
 30
0.0
 11
469.997651
 21
368.268747
 31
0.0
  0
LINE
  8
LC-001-002-----0
  6
CONTINUOUS
  5
2EE
 10
486.497651
 20
375.268747
 30
0.0
 11
486.497651
 21
343.268747
 31
0.0
  0
LINE
  8
LC-001-002-----0
  6
CONTINUOUS
  5
2EF
 10
481.997651
 20
343.268747
 30
0.0
 11
481.997651
 21
350.268747
 31
0.0
  0
LINE
  8
LC-001-002-----0
  6
CONTINUOUS
  5
2F0
 10
481.997651
 20
368.268747
 30
0.0
 11
481.997651
 21
375.268747
 31
0.0
  0
LINE
  8
LC-001-002-----0
  6
CONTINUOUS
  5
2F1
 10
469.997651
 20
365.268747
 30
0.0
 11
486.497651
 21
365.268747
 31
0.0
  0
LINE
  8
LC-001-002-----0
  6
CONTINUOUS
  5
2F2
 10
469.997651
 20
353.268747
 30
0.0
 11
486.497651
 21
353.268747
 31
0.0
  0
LINE
  8
LC-001-002-----0
  6
CONTINUOUS
  5
2F3
 10
481.997651
 20
343.268747
 30
0.0
 11
484.247651
 21
340.768747
 31
0.0
  0
LINE
  8
LC-001-002-----0
  6
CONTINUOUS
  5
2F4
 10
484.247651
 20
340.768747
 30
0.0
 11
486.497651
 21
343.268747
 31
0.0
  0
LINE
  8
LC-001-002-----0
  6
CONTINUOUS
  5
2F5
 10
481.997651
 20
375.268747
 30
0.0
 11
484.247651
 21
377.768747
 31
0.0
  0
LINE
  8
LC-001-002-----0
  6
CONTINUOUS
  5
2F6
 10
484.247651
 20
377.768747
 30
0.0
 11
486.497651
 21
375.268747
 31
0.0
  0
LINE
  8
LC-001-002-----0
  6
CONTINUOUS
  5
2F7
 10
496.497651
 20
375.268747
 30
0.0
 11
496.497651
 21
343.268747
 31
0.0
  0
LINE
  8
LC-001-002-----0
  6
CONTINUOUS
  5
2F8
 10
496.497651
 20
343.268747
 30
0.0
 11
498.497651
 21
343.268747
 31
0.0
  0
LINE
  8
LC-001-002-----0
  6
CONTINUOUS
  5
2F9
 10
498.497651
 20
343.268747
 30
0.0
 11
498.497651
 21
375.268747
 31
0.0
  0
LINE
  8
LC-001-002-----0
  6
CONTINUOUS
  5
2FA
 10
498.497651
 20
375.268747
 30
0.0
 11
496.497651
 21
375.268747
 31
0.0
  0
LINE
  8
LC-001-002-----0
  6
CONTINUOUS
  5
2FB
 10
496.497651
 20
365.768747
 30
0.0
 11
498.497651
 21
365.768747
 31
0.0
  0
LINE
  8
LC-001-002-----0
  6
CONTINUOUS
  5
2FC
 10
496.497651
 20
352.768747
 30
0.0
 11
498.497651
 21
352.768747
 31
0.0
  0
LINE
  8
LC-001-002-----0
  6
CONTINUOUS
  5
2FD
 10
469.997651
 20
268.268747
 30
0.0
 11
469.997651
 21
250.268747
 31
0.0
  0
LINE
  8
LC-001-002-----0
  6
CONTINUOUS
  5
2FE
 10
469.997651
 20
250.268747
 30
0.0
 11
481.997651
 21
250.268747
 31
0.0
  0
LINE
  8
LC-001-002-----0
  6
CONTINUOUS
  5
2FF
 10
481.997651
 20
268.268747
 30
0.0
 11
469.997651
 21
268.268747
 31
0.0
  0
LINE
  8
LC-001-002-----0
  6
CONTINUOUS
  5
300
 10
486.497651
 20
275.268747
 30
0.0
 11
486.497651
 21
243.268747
 31
0.0
  0
LINE
  8
LC-001-002-----0
  6
CONTINUOUS
  5
301
 10
481.997651
 20
243.268747
 30
0.0
 11
481.997651
 21
250.268747
 31
0.0
  0
LINE
  8
LC-001-002-----0
  6
CONTINUOUS
  5
302
 10
481.997651
 20
268.268747
 30
0.0
 11
481.997651
 21
275.268747
 31
0.0
  0
LINE
  8
LC-001-002-----0
  6
CONTINUOUS
  5
303
 10
469.997651
 20
265.268747
 30
0.0
 11
486.497651
 21
265.268747
 31
0.0
  0
LINE
  8
LC-001-002-----0
  6
CONTINUOUS
  5
304
 10
469.997651
 20
253.268747
 30
0.0
 11
486.497651
 21
253.268747
 31
0.0
  0
LINE
  8
LC-001-002-----0
  6
CONTINUOUS
  5
305
 10
481.997651
 20
243.268747
 30
0.0
 11
484.247651
 21
240.768747
 31
0.0
  0
LINE
  8
LC-001-002-----0
  6
CONTINUOUS
  5
306
 10
484.247651
 20
240.768747
 30
0.0
 11
486.497651
 21
243.268747
 31
0.0
  0
LINE
  8
LC-001-002-----0
  6
CONTINUOUS
  5
307
 10
481.997651
 20
275.268747
 30
0.0
 11
484.247651
 21
277.768747
 31
0.0
  0
LINE
  8
LC-001-002-----0
  6
CONTINUOUS
  5
308
 10
484.247651
 20
277.768747
 30
0.0
 11
486.497651
 21
275.268747
 31
0.0
  0
LINE
  8
LC-001-002-----0
  6
CONTINUOUS
  5
309
 10
496.497651
 20
275.268747
 30
0.0
 11
496.497651
 21
243.268747
 31
0.0
  0
LINE
  8
LC-001-002-----0
  6
CONTINUOUS
  5
30A
 10
496.497651
 20
243.268747
 30
0.0
 11
498.497651
 21
243.268747
 31
0.0
  0
LINE
  8
LC-001-002-----0
  6
CONTINUOUS
  5
30B
 10
498.497651
 20
243.268747
 30
0.0
 11
498.497651
 21
275.268747
 31
0.0
  0
LINE
  8
LC-001-002-----0
  6
CONTINUOUS
  5
30C
 10
498.497651
 20
275.268747
 30
0.0
 11
496.497651
 21
275.268747
 31
0.0
  0
LINE
  8
LC-001-002-----0
  6
CONTINUOUS
  5
30D
 10
496.497651
 20
265.768747
 30
0.0
 11
498.497651
 21
265.768747
 31
0.0
  0
LINE
  8
LC-001-002-----0
  6
CONTINUOUS
  5
30E
 10
496.497651
 20
252.768747
 30
0.0
 11
498.497651
 21
252.768747
 31
0.0
  0
LINE
  8
LC-001-002-----0
  6
CONTINUOUS
  5
30F
 10
430.997518
 20
176.433337
 30
0.0
 11
430.997518
 21
176.433337
 31
0.0
  0
LINE
  8
LC-001-002-----0
  6
CONTINUOUS
  5
310
 10
430.997451
 20
125.433337
 30
0.0
 11
430.997451
 21
125.433337
 31
0.0
  0
ARC
  8
LC-001-002-----0
  6
CONTINUOUS
  5
311
 10
488.564871
 20
307.043717
 30
0.0
 40
75.889523
 50
49.786264
 51
74.772349
  0
ARC
  8
LC-001-002-----0
  6
CONTINUOUS
  5
312
 10
488.564735
 20
411.493725
 30
0.0
 40
75.889523
 50
285.227801
 51
310.213886
  0
ARC
  8
LC-001-002-----0
  6
CONTINUOUS
  5
313
 10
532.719936
 20
359.268779
 30
0.0
 40
7.5
 50
310.213886
 51
49.786264
  0
ARC
  8
LC-001-002-----0
  6
CONTINUOUS
  5
314
 10
488.564735
 20
411.493725
 30
0.0
 40
73.39
 50
285.759674
 51
310.214359
  0
ARC
  8
LC-001-002-----0
  6
CONTINUOUS
  5
315
 10
488.564871
 20
307.043717
 30
0.0
 40
73.39
 50
49.785791
 51
74.240476
  0
ARC
  8
LC-001-002-----0
  6
CONTINUOUS
  5
316
 10
532.720675
 20
359.268779
 30
0.0
 40
5.0
 50
310.214359
 51
49.785791
  0
LINE
  8
LC-001-002-----0
  6
CONTINUOUS
  5
317
 10
508.497675
 20
340.8625
 30
0.0
 11
508.497678
 21
338.268747
 31
0.0
  0
ARC
  8
LC-001-002-----0
  6
CONTINUOUS
  5
318
 10
488.564735
 20
311.493725
 30
0.0
 40
75.889523
 50
285.227801
 51
310.213886
  0
LINE
  8
LC-006-005-----0
  6
CONTINUOUS
  5
319
 10
529.695194
 20
347.716731
 30
0.0
 11
540.137358
 21
358.158895
 31
0.0
  0
ARC
  8
LC-001-002-----0
  6
CONTINUOUS
  5
31A
 10
488.564735
 20
311.493725
 30
0.0
 40
73.39
 50
285.759674
 51
310.214359
  0
LINE
  8
LC-006-005-----0
  6
CONTINUOUS
  5
31B
 10
523.033855
 20
343.883819
 30
0.0
 11
530.222662
 21
351.072627
 31
0.0
  0
LINE
  8
LC-006-005-----0
  6
CONTINUOUS
  5
31C
 10
537.663259
 20
358.513223
 30
0.0
 11
540.042148
 21
360.892112
 31
0.0
  0
LINE
  8
LC-006-005-----0
  6
CONTINUOUS
  5
31D
 10
517.770939
 20
341.44933
 30
0.0
 11
523.011902
 21
346.690294
 31
0.0
  0
LINE
  8
LC-006-005-----0
  6
CONTINUOUS
  5
31E
 10
537.386814
 20
361.065205
 30
0.0
 11
539.260563
 21
362.938955
 31
0.0
  0
LINE
  8
LC-006-005-----0
  6
CONTINUOUS
  5
31F
 10
513.210995
 20
339.717813
 30
0.0
 11
517.573289
 21
344.080107
 31
0.0
  0
LINE
  8
LC-006-005-----0
  6
CONTINUOUS
  5
320
 10
536.276791
 20
362.78361
 30
0.0
 11
538.044207
 21
364.551026
 31
0.0
  0
LINE
  8
LC-006-005-----0
  6
CONTINUOUS
  5
321
 10
509.10018
 20
338.435426
 30
0.0
 11
512.931744
 21
342.266989
 31
0.0
  0
LINE
  8
LC-006-005-----0
  6
CONTINUOUS
  5
322
 10
534.746561
 20
364.081806
 30
0.0
 11
536.523416
 21
365.858661
 31
0.0
  0
LINE
  8
LC-001-002-----0
  6
CONTINUOUS
  5
323
 10
508.497675
 20
240.8625
 30
0.0
 11
508.497678
 21
238.268747
 31
0.0
  0
LINE
  8
LC-006-005-----0
  6
CONTINUOUS
  5
324
 10
533.163953
 20
365.327626
 30
0.0
 11
534.94643
 21
367.110102
 31
0.0
  0
LINE
  8
LC-006-005-----0
  6
CONTINUOUS
  5
325
 10
531.54177
 20
366.53387
 30
0.0
 11
533.331239
 21
368.323338
 31
0.0
  0
LINE
  8
LC-006-005-----0
  6
CONTINUOUS
  5
326
 10
529.879528
 20
367.700054
 30
0.0
 11
531.677406
 21
369.497932
 31
0.0
  0
LINE
  8
LC-006-005-----0
  6
CONTINUOUS
  5
327
 10
528.176638
 20
368.825592
 30
0.0
 11
529.984402
 21
370.633356
 31
0.0
  0
LINE
  8
LC-006-005-----0
  6
CONTINUOUS
  5
328
 10
526.432402
 20
369.909783
 30
0.0
 11
528.251599
 21
371.72898
 31
0.0
  0
LINE
  8
LC-006-005-----0
  6
CONTINUOUS
  5
329
 10
524.646001
 20
370.951809
 30
0.0
 11
526.478264
 21
372.784072
 31
0.0
  0
LINE
  8
LC-006-005-----0
  6
CONTINUOUS
  5
32A
 10
522.816485
 20
371.95072
 30
0.0
 11
524.663547
 21
373.797782
 31
0.0
  0
LINE
  8
LC-006-005-----0
  6
CONTINUOUS
  5
32B
 10
520.942761
 20
372.905423
 30
0.0
 11
522.806473
 21
374.769136
 31
0.0
  0
LINE
  8
LC-006-005-----0
  6
CONTINUOUS
  5
32C
 10
519.023575
 20
373.814665
 30
0.0
 11
520.905928
 21
375.697018
 31
0.0
  0
LINE
  8
LC-006-005-----0
  6
CONTINUOUS
  5
32D
 10
517.057495
 20
374.677011
 30
0.0
 11
518.960642
 21
376.580159
 31
0.0
  0
LINE
  8
LC-006-005-----0
  6
CONTINUOUS
  5
32E
 10
515.042884
 20
375.490828
 30
0.0
 11
516.969172
 21
377.417116
 31
0.0
  0
LINE
  8
LC-006-005-----0
  6
CONTINUOUS
  5
32F
 10
512.977875
 20
376.254246
 30
0.0
 11
514.929879
 21
378.20625
 31
0.0
  0
LINE
  8
LC-006-005-----0
  6
CONTINUOUS
  5
330
 10
510.860335
 20
376.965133
 30
0.0
 11
512.840896
 21
378.945694
 31
0.0
  0
LINE
  8
LC-006-005-----0
  6
CONTINUOUS
  5
331
 10
508.687819
 20
377.621044
 30
0.0
 11
510.7001
 21
379.633326
 31
0.0
  0
LINE
  8
LC-001-002-----0
  6
CONTINUOUS
  5
332
 10
508.497623
 20
280.268747
 30
0.0
 11
508.497675
 21
240.8625
 31
0.0
  0
ARC
  8
LC-001-002-----0
  6
CONTINUOUS
  5
333
 10
532.720675
 20
259.268779
 30
0.0
 40
5.0
 50
310.214359
 51
49.785791
  0
ARC
  8
LC-001-002-----0
  6
CONTINUOUS
  5
334
 10
532.719936
 20
259.268779
 30
0.0
 40
7.5
 50
310.213886
 51
49.786264
  0
ARC
  8
LC-001-002-----0
  6
CONTINUOUS
  5
335
 10
488.564871
 20
207.043717
 30
0.0
 40
73.39
 50
49.785791
 51
74.240476
  0
ARC
  8
LC-001-002-----0
  6
CONTINUOUS
  5
336
 10
488.564871
 20
207.043717
 30
0.0
 40
75.889523
 50
49.786264
 51
74.772349
  0
LINE
  8
LC-006-005-----0
  6
CONTINUOUS
  5
337
 10
509.10018
 20
238.435426
 30
0.0
 11
512.931744
 21
242.266989
 31
0.0
  0
LINE
  8
LC-006-005-----0
  6
CONTINUOUS
  5
338
 10
513.210995
 20
239.717813
 30
0.0
 11
517.573289
 21
244.080107
 31
0.0
  0
LINE
  8
LC-006-005-----0
  6
CONTINUOUS
  5
339
 10
517.770939
 20
241.44933
 30
0.0
 11
523.011902
 21
246.690294
 31
0.0
  0
LINE
  8
LC-006-005-----0
  6
CONTINUOUS
  5
33A
 10
523.033855
 20
243.883819
 30
0.0
 11
530.222662
 21
251.072627
 31
0.0
  0
LINE
  8
LC-006-005-----0
  6
CONTINUOUS
  5
33B
 10
529.695194
 20
247.716731
 30
0.0
 11
540.137358
 21
258.158895
 31
0.0
  0
LINE
  8
LC-006-005-----0
  6
CONTINUOUS
  5
33C
 10
537.663259
 20
258.513223
 30
0.0
 11
540.042148
 21
260.892112
 31
0.0
  0
LINE
  8
LC-006-005-----0
  6
CONTINUOUS
  5
33D
 10
537.386814
 20
261.065205
 30
0.0
 11
539.260563
 21
262.938955
 31
0.0
  0
LINE
  8
LC-006-005-----0
  6
CONTINUOUS
  5
33E
 10
536.276791
 20
262.78361
 30
0.0
 11
538.044207
 21
264.551026
 31
0.0
  0
LINE
  8
LC-006-005-----0
  6
CONTINUOUS
  5
33F
 10
534.746561
 20
264.081806
 30
0.0
 11
536.523416
 21
265.858661
 31
0.0
  0
LINE
  8
LC-006-005-----0
  6
CONTINUOUS
  5
340
 10
533.163953
 20
265.327626
 30
0.0
 11
534.94643
 21
267.110102
 31
0.0
  0
LINE
  8
LC-006-005-----0
  6
CONTINUOUS
  5
341
 10
531.54177
 20
266.53387
 30
0.0
 11
533.331239
 21
268.323338
 31
0.0
  0
LINE
  8
LC-006-005-----0
  6
CONTINUOUS
  5
342
 10
508.687819
 20
277.621044
 30
0.0
 11
510.7001
 21
279.633326
 31
0.0
  0
LINE
  8
LC-006-005-----0
  6
CONTINUOUS
  5
343
 10
510.860335
 20
276.965133
 30
0.0
 11
512.840896
 21
278.945694
 31
0.0
  0
LINE
  8
LC-006-005-----0
  6
CONTINUOUS
  5
344
 10
512.977875
 20
276.254246
 30
0.0
 11
514.929879
 21
278.20625
 31
0.0
  0
LINE
  8
LC-006-005-----0
  6
CONTINUOUS
  5
345
 10
515.042884
 20
275.490828
 30
0.0
 11
516.969172
 21
277.417116
 31
0.0
  0
LINE
  8
LC-006-005-----0
  6
CONTINUOUS
  5
346
 10
517.057495
 20
274.677011
 30
0.0
 11
518.960642
 21
276.580159
 31
0.0
  0
LINE
  8
LC-006-005-----0
  6
CONTINUOUS
  5
347
 10
519.023575
 20
273.814665
 30
0.0
 11
520.905928
 21
275.697018
 31
0.0
  0
LINE
  8
LC-006-005-----0
  6
CONTINUOUS
  5
348
 10
520.942761
 20
272.905423
 30
0.0
 11
522.806473
 21
274.769136
 31
0.0
  0
LINE
  8
LC-006-005-----0
  6
CONTINUOUS
  5
349
 10
522.816485
 20
271.95072
 30
0.0
 11
524.663547
 21
273.797782
 31
0.0
  0
LINE
  8
LC-006-005-----0
  6
CONTINUOUS
  5
34A
 10
524.646001
 20
270.951809
 30
0.0
 11
526.478264
 21
272.784072
 31
0.0
  0
LINE
  8
LC-006-005-----0
  6
CONTINUOUS
  5
34B
 10
526.432402
 20
269.909783
 30
0.0
 11
528.251599
 21
271.72898
 31
0.0
  0
LINE
  8
LC-006-005-----0
  6
CONTINUOUS
  5
34C
 10
528.176638
 20
268.825592
 30
0.0
 11
529.984402
 21
270.633356
 31
0.0
  0
LINE
  8
LC-006-005-----0
  6
CONTINUOUS
  5
34D
 10
529.879528
 20
267.700054
 30
0.0
 11
531.677406
 21
269.497932
 31
0.0
  0
LINE
  8
LC-001-002-----0
  6
CONTINUOUS
  5
34E
 10
508.497623
 20
380.268747
 30
0.0
 11
508.497675
 21
340.8625
 31
0.0
  0
LINE
  8
LC-001-002-----0
  6
CONTINUOUS
  5
34F
 10
429.997455
 20
128.433339
 30
0.0
 11
429.997453
 21
126.433339
 31
0.0
  0
LINE
  8
LC-001-002-----0
  6
CONTINUOUS
  5
350
 10
431.997455
 20
128.433336
 30
0.0
 11
431.997453
 21
126.433336
 31
0.0
  0
LINE
  8
LC-001-002-----0
  6
CONTINUOUS
  5
351
 10
431.997514
 20
173.433336
 30
0.0
 11
446.997514
 21
173.433316
 31
0.0
  0
LINE
  8
LC-001-002-----0
  6
CONTINUOUS
  5
352
 10
429.997455
 20
128.433339
 30
0.0
 11
272.997455
 21
128.433544
 31
0.0
  0
ARC
  8
LC-005-002-RND-0
  6
CONTINUOUS
  5
353
 10
430.997453
 20
126.433337
 30
0.0
 40
1.0
 50
179.999925
 51
269.999925
  0
ARC
  8
LC-005-002-RND-0
  6
CONTINUOUS
  5
354
 10
430.997453
 20
126.433337
 30
0.0
 40
1.0
 50
269.999925
 51
359.999925
  0
LINE
  8
LC-001-002-----0
  6
CONTINUOUS
  5
355
 10
446.997455
 20
128.433312
 30
0.0
 11
449.997456
 21
129.23716
 31
0.0
  0
LINE
  8
LC-001-002-----0
  6
CONTINUOUS
  5
356
 10
446.997514
 20
173.43332
 30
0.0
 11
449.997513
 21
172.629465
 31
0.0
  0
LINE
  8
LC-001-002-----0
  6
CONTINUOUS
  5
357
 10
272.997514
 20
173.433548
 30
0.0
 11
269.997513
 21
172.6297
 31
0.0
  0
LINE
  8
LC-001-002-----0
  6
CONTINUOUS
  5
358
 10
272.997455
 20
128.43354
 30
0.0
 11
269.997456
 21
129.237396
 31
0.0
  0
LINE
  8
LC-001-002-----0
  6
DASHDOT
 62
     2
  5
35A
 10
269.997651
 20
309.268657
 30
0.0
 11
449.997651
 21
309.268657
 31
0.0
  0
LINE
  8
LC-001-002-----0
  6
DASHDOT
 62
     2
  5
35B
 10
469.997651
 20
359.268747
 30
0.0
 11
538.418783
 21
359.268747
 31
0.0
  0
LINE
  8
LC-008-001-----0
  6
CONTINUOUS
  5
35C
 10
447.415211
 20
249.23512
 30
0.0
 11
446.433215
 21
249.235124
 31
0.0
  0
LINE
  8
LC-008-001-----0
  6
CONTINUOUS
  5
35D
 10
449.520482
 20
246.289121
 30
0.0
 11
449.786843
 21
245.948193
 31
0.0
  0
LINE
  8
LC-008-001-----0
  6
CONTINUOUS
  5
35E
 10
449.997651
 20
245.621397
 30
0.0
 11
447.415211
 21
249.23512
 31
0.0
  0
LINE
  8
LC-001-002-----0
  6
DASHDOT
 62
     2
  5
35F
 10
469.997651
 20
259.268747
 30
0.0
 11
538.418783
 21
259.268747
 31
0.0
  0
ARC
  8
LC-008-001-----0
  6
CONTINUOUS
  5
360
 10
426.920651
 20
245.798165
 30
0.0
 40
1.964
 50
179.99999
 51
269.999878
  0
LINE
  8
LC-001-002-----0
  6
DASHDOT
 62
     2
  5
361
 10
493.997485
 20
150.933288
 30
0.0
 11
468.997485
 21
150.933288
 31
0.0
  0
LINE
  8
LC-001-002-----0
  6
DASHDOT
 62
     2
  5
362
 10
449.997485
 20
150.933288
 30
0.0
 11
269.997485
 21
150.933288
 31
0.0
  0
LINE
  8
LC-008-001-----0
  6
CONTINUOUS
  5
363
 10
404.146027
 20
247.893746
 30
0.0
 11
424.956651
 21
247.893746
 31
0.0
  0
ARC
  8
LC-008-001-----0
  6
CONTINUOUS
  5
364
 10
404.558026
 20
367.206567
 30
0.0
 40
0.982
 50
90.0
 51
170.0
  0
LINE
  8
LC-008-001-----0
  6
CONTINUOUS
  5
365
 10
447.415211
 20
369.302194
 30
0.0
 11
446.433215
 21
369.30219
 31
0.0
  0
LINE
  8
LC-008-001-----0
  6
CONTINUOUS
  5
366
 10
449.520482
 20
372.248193
 30
0.0
 11
449.786843
 21
372.589121
 31
0.0
  0
LINE
  8
LC-008-001-----0
  6
CONTINUOUS
  5
367
 10
449.520482
 20
372.248193
 30
0.0
 11
447.415211
 21
369.302194
 31
0.0
  0
LINE
  8
LC-008-001-----0
  6
CONTINUOUS
  5
368
 10
449.997651
 20
372.607568
 30
0.0
 11
449.997651
 21
245.037127
 31
0.0
  0
ARC
  8
LC-008-001-----0
  6
CONTINUOUS
  5
369
 10
426.920651
 20
372.739149
 30
0.0
 40
1.964
 50
90.000122
 51
180.00001
  0
ARC
  8
LC-008-001-----0
  6
CONTINUOUS
  5
36A
 10
404.146027
 20
367.697569
 30
0.0
 40
2.946
 50
90.000061
 51
170.000061
  0
LINE
  8
LC-008-001-----0
  6
CONTINUOUS
  5
36B
 10
449.997651
 20
372.607568
 30
0.0
 11
449.786843
 21
372.589121
 31
0.0
  0
LINE
  8
LC-008-001-----0
  6
CONTINUOUS
  5
36C
 10
449.997651
 20
372.607568
 30
0.0
 11
449.997651
 21
374.703195
 31
0.0
  0
LINE
  8
LC-008-001-----0
  6
CONTINUOUS
  5
36D
 10
427.411651
 20
250.348748
 30
0.0
 11
427.411651
 21
372.293657
 31
0.0
  0
LINE
  8
LC-008-001-----0
  6
CONTINUOUS
  5
36E
 10
404.146027
 20
370.643568
 30
0.0
 11
424.956651
 21
370.643568
 31
0.0
  0
LINE
  8
LC-008-001-----0
  6
CONTINUOUS
  5
36F
 10
424.956651
 20
372.739149
 30
0.0
 11
424.956651
 21
370.643568
 31
0.0
  0
LINE
  8
LC-008-001-----0
  6
CONTINUOUS
  5
370
 10
427.411651
 20
368.188566
 30
0.0
 11
404.558026
 21
368.188566
 31
0.0
  0
LINE
  8
LC-008-001-----0
  6
CONTINUOUS
  5
371
 10
424.956651
 20
245.798165
 30
0.0
 11
424.956651
 21
247.893746
 31
0.0
  0
LINE
  8
LC-008-001-----0
  6
CONTINUOUS
  5
372
 10
449.997651
 20
374.703195
 30
0.0
 11
426.920645
 21
374.703149
 31
0.0
  0
LINE
  8
LC-008-001-----0
  6
CONTINUOUS
  5
373
 10
427.411651
 20
372.002653
 30
0.0
 11
444.874079
 21
372.002687
 31
0.0
  0
LINE
  8
LC-008-001-----0
  6
CONTINUOUS
  5
374
 10
446.433215
 20
369.30219
 30
0.0
 11
444.874079
 21
372.002687
 31
0.0
  0
LINE
  8
LC-008-001-----0
  6
CONTINUOUS
  5
375
 10
449.997651
 20
243.834119
 30
0.0
 11
426.920645
 21
243.834165
 31
0.0
  0
LINE
  8
LC-008-001-----0
  6
CONTINUOUS
  5
376
 10
427.411651
 20
246.534661
 30
0.0
 11
444.874079
 21
246.534627
 31
0.0
  0
LINE
  8
LC-008-001-----0
  6
CONTINUOUS
  5
377
 10
446.433215
 20
249.235124
 30
0.0
 11
444.874079
 21
246.534627
 31
0.0
  0
LINE
  8
LC-008-001-----0
  6
CONTINUOUS
  5
378
 10
401.244782
 20
250.328183
 30
0.0
 11
400.997442
 21
251.730919
 31
0.0
  0
ARC
  8
LC-010-001-RND-0
  6
CONTINUOUS
  5
37A
 10
398.092259
 20
251.218657
 30
0.0
 40
2.95
 50
9.999996
 51
90.0
  0
ARC
  8
LC-010-001-RND-0
  6
CONTINUOUS
  5
37B
 10
397.518801
 20
251.677899
 30
0.0
 40
5.89
 50
9.999981
 51
90.3
  0
LINE
  8
LC-001-002-----0
  6
CONTINUOUS
  5
37C
 10
269.997651
 20
256.900275
 30
0.0
 11
397.487961
 21
257.567819
 31
0.0
  0
ARC
  8
LC-008-001-----0
  6
CONTINUOUS
  5
37D
 10
404.146027
 20
250.839745
 30
0.0
 40
2.946
 50
189.999939
 51
269.999939
  0
LINE
  8
LC-008-001-----0
  6
CONTINUOUS
  5
37E
 10
427.411651
 20
250.348748
 30
0.0
 11
405.378664
 21
250.348748
 31
0.0
  0
ARC
  8
LC-010-001-RND-0
  6
CONTINUOUS
  5
37F
 10
405.378664
 20
252.308748
 30
0.0
 40
1.96
 50
189.999981
 51
270.0
  0
LINE
  8
LC-008-001-----0
  6
CONTINUOUS
  5
380
 10
403.448441
 20
251.968398
 30
0.0
 11
403.319319
 21
252.700685
 31
0.0
  0
ARC
  8
LC-010-001-RND-0
  6
CONTINUOUS
  5
381
 10
398.092259
 20
367.318657
 30
0.0
 40
2.95
 50
270.0
 51
350.000004
  0
LINE
  8
LC-008-001-----0
  6
CONTINUOUS
  5
382
 10
401.244782
 20
368.209131
 30
0.0
 11
400.997442
 21
366.806395
 31
0.0
  0
LINE
  8
LC-001-002-----0
  6
CONTINUOUS
  5
383
 10
274.517651
 20
364.368657
 30
0.0
 11
269.997651
 21
363.157527
 31
0.0
  0
LINE
  8
LC-001-002-----0
  6
CONTINUOUS
  5
384
 10
398.092259
 20
364.368657
 30
0.0
 11
287.577595
 21
364.368657
 31
0.0
  0
LINE
  8
LC-001-002-----0
  6
CONTINUOUS
  5
385
 10
274.517651
 20
254.168657
 30
0.0
 11
269.997651
 21
255.379787
 31
0.0
  0
LINE
  8
LC-001-002-----0
  6
CONTINUOUS
  5
386
 10
398.092259
 20
254.168657
 30
0.0
 11
274.517651
 21
254.168657
 31
0.0
  0
LINE
  8
LC-008-001-----0
  6
CONTINUOUS
  5
387
 10
403.590943
 20
367.377088
 30
0.0
 11
403.319319
 21
365.836629
 31
0.0
  0
ARC
  8
LC-010-001-RND-0
  6
CONTINUOUS
  5
388
 10
397.518801
 20
366.859415
 30
0.0
 40
5.89
 50
269.7
 51
350.000019
  0
LINE
  8
LC-001-002-----0
  6
CONTINUOUS
  5
389
 10
269.997651
 20
361.637039
 30
0.0
 11
397.487961
 21
360.969496
 31
0.0
  0
LINE
  8
LC-001-002-----0
  6
CONTINUOUS
  5
38A
 10
403.319319
 20
365.836629
 30
0.0
 11
403.319319
 21
252.700685
 31
0.0
  0
LINE
  8
LC-001-002-----0
  6
CONTINUOUS
  5
38B
 10
442.183474
 20
250.662469
 30
0.0
 11
443.487651
 21
262.874845
 31
0.0
  0
ARC
  8
LC-001-002-----0
  6
CONTINUOUS
  5
38C
 10
444.481997
 20
355.768657
 30
0.0
 40
1.0
 50
186.094124
 51
0.001472
  0
LINE
  8
LC-001-002-----0
  6
CONTINUOUS
  5
38D
 10
445.481997
 20
262.768631
 30
0.0
 11
445.481997
 21
369.650532
 31
0.0
  0
ARC
  8
LC-005-002-RND-0
  6
CONTINUOUS
  5
38E
 10
435.734866
 20
250.768657
 30
0.0
 40
1.0
 50
185.0
 51
270.0
  0
LINE
  8
LC-001-002-----0
  6
CONTINUOUS
  5
38F
 10
434.73772
 20
250.693159
 30
0.0
 11
433.439143
 21
267.844155
 31
0.0
  0
ARC
  8
LC-005-002-RND-0
  6
CONTINUOUS
  5
390
 10
432.441997
 20
267.768657
 30
0.0
 40
1.0
 50
5.0
 51
180.0
  0
LINE
  8
LC-001-002-----0
  6
CONTINUOUS
  5
391
 10
431.441997
 20
267.768657
 30
0.0
 11
431.441997
 21
352.926638
 31
0.0
  0
LINE
  8
LC-001-002-----0
  6
CONTINUOUS
  5
392
 10
442.183474
 20
367.874845
 30
0.0
 11
443.487651
 21
355.662469
 31
0.0
  0
ARC
  8
LC-005-002-RND-0
  6
CONTINUOUS
  5
393
 10
441.189128
 20
367.768657
 30
0.0
 40
1.0
 50
5.0
 51
90.0
  0
LINE
  8
LC-001-002-----0
  6
CONTINUOUS
  5
394
 10
443.487651
 20
355.662469
 30
0.0
 11
443.487651
 21
309.268657
 31
0.0
  0
LINE
  8
LC-001-002-----0
  6
CONTINUOUS
  5
395
 10
434.73772
 20
367.844155
 30
0.0
 11
433.439143
 21
350.693159
 31
0.0
  0
ARC
  8
LC-005-002-RND-0
  6
CONTINUOUS
  5
396
 10
432.441997
 20
350.768657
 30
0.0
 40
1.0
 50
180.0
 51
355.0
  0
LINE
  8
LC-001-002-----0
  6
CONTINUOUS
  5
397
 10
433.438192
 20
267.844155
 30
0.0
 11
433.438192
 21
350.693159
 31
0.0
  0
LINE
  8
LC-001-002-----0
  6
CONTINUOUS
 62
     2
  5
398
 10
434.738671
 20
250.681501
 30
0.0
 11
434.738671
 21
367.768657
 31
0.0
  0
LINE
  8
LC-001-002-----0
  6
CONTINUOUS
 62
     2
  5
399
 10
442.185323
 20
367.855813
 30
0.0
 11
442.185323
 21
250.681501
 31
0.0
  0
LINE
  8
LC-001-002-----0
  6
CONTINUOUS
  5
39A
 10
443.487651
 20
262.874845
 30
0.0
 11
443.487651
 21
309.268657
 31
0.0
  0
LINE
  8
LC-001-002-----0
  6
CONTINUOUS
  5
39B
 10
431.441997
 20
248.743657
 30
0.0
 11
431.441997
 21
267.768657
 31
0.0
  0
LINE
  8
LC-001-002-----0
  6
CONTINUOUS
  5
39C
 10
427.411651
 20
248.743657
 30
0.0
 11
431.441997
 21
248.743657
 31
0.0
  0
ARC
  8
LC-001-002-----0
  6
CONTINUOUS
  5
39D
 10
444.481997
 20
262.768657
 30
0.0
 40
1.0
 50
359.998528
 51
173.905876
  0
LINE
  8
LC-001-002-----0
  6
CONTINUOUS
  5
39E
 10
427.411651
 20
369.793657
 30
0.0
 11
431.441997
 21
369.793657
 31
0.0
  0
LINE
  8
LC-001-002-----0
  6
CONTINUOUS
  5
39F
 10
431.441997
 20
369.793657
 30
0.0
 11
431.441997
 21
350.768657
 31
0.0
  0
ARC
  8
LC-005-002-RND-0
  6
CONTINUOUS
  5
3A0
 10
435.734866
 20
367.768657
 30
0.0
 40
1.0
 50
90.0
 51
175.0
  0
LINE
  8
LC-001-002-----0
  6
CONTINUOUS
  5
3A1
 10
427.411651
 20
372.293657
 30
0.0
 11
442.838872
 21
372.293657
 31
0.0
  0
LINE
  8
LC-001-002-----0
  6
CONTINUOUS
  5
3A2
 10
435.734866
 20
249.768657
 30
0.0
 11
441.189128
 21
249.768657
 31
0.0
  0
ARC
  8
LC-005-002-RND-0
  6
CONTINUOUS
  5
3A3
 10
441.189128
 20
250.768657
 30
0.0
 40
1.0
 50
270.0
 51
355.0
  0
LINE
  8
LC-001-002-----0
  6
CONTINUOUS
  5
3A4
 10
445.481997
 20
248.886782
 30
0.0
 11
442.838872
 21
246.243657
 31
0.0
  0
LINE
  8
LC-001-002-----0
  6
CONTINUOUS
  5
3A5
 10
445.481997
 20
369.650532
 30
0.0
 11
442.838872
 21
372.293657
 31
0.0
  0
LINE
  8
LC-001-002-----0
  6
CONTINUOUS
  5
3A6
 10
445.481997
 20
248.886782
 30
0.0
 11
445.481997
 21
262.768657
 31
0.0
  0
ENDSEC
  0
EOF
