  0
SECTION
  2
HEADER
  9
$ACADVER
  1
AC1015
  9
$ACADMAINTVER
 70
     6
  9
$DWGCODEPAGE
  3
DOS850
  9
$INSBASE
 10
0.0
 20
0.0
 30
0.0
  9
$EXTMIN
 10
-210.0
 20
-148.5
 30
0.0
  9
$EXTMAX
 10
630.0
 20
445.5
 30
0.0
  9
$LIMMIN
 10
-210.0
 20
-148.5
  9
$LIMMAX
 10
630.0
 20
445.5
  9
$ORTHOMODE
 70
     0
  9
$REGENMODE
 70
     1
  9
$FILLMODE
 70
     1
  9
$QTEXTMODE
 70
     0
  9
$MIRRTEXT
 70
     1
  9
$LTSCALE
 40
2.0
  9
$ATTMODE
 70
     1
  9
$TEXTSIZE
 40
2.5
  9
$TRACEWID
 40
1.0
  9
$TEXTSTYLE
  7
Standard
  9
$CLAYER
  8
0
  9
$CELTYPE
  6
ByLayer
  9
$CECOLOR
 62
     7
  9
$CELTSCALE
 40
1.0
  9
$DISPSILH
 70
     0
  9
$DIMSCALE
 40
2.0
  9
$DIMASZ
 40
3.5
  9
$DIMEXO
 40
0.625
  9
$DIMDLI
 40
3.75
  9
$DIMRND
 40
0.0
  9
$DIMDLE
 40
0.0
  9
$DIMEXE
 40
1.25
  9
$DIMTP
 40
0.0
  9
$DIMTM
 40
0.0
  9
$DIMTXT
 40
3.5
  9
$DIMCEN
 40
2.5
  9
$DIMTSZ
 40
0.0
  9
$DIMTOL
 70
     0
  9
$DIMLIM
 70
     0
  9
$DIMTIH
 70
     0
  9
$DIMTOH
 70
     0
  9
$DIMSE1
 70
     0
  9
$DIMSE2
 70
     0
  9
$DIMTAD
 70
     1
  9
$DIMZIN
 70
     8
  9
$DIMBLK
  1

  9
$DIMASO
 70
     1
  9
$DIMSHO
 70
     1
  9
$DIMPOST
  1

  9
$DIMAPOST
  1

  9
$DIMALT
 70
     0
  9
$DIMALTD
 70
     3
  9
$DIMALTF
 40
0.03937
  9
$DIMLFAC
 40
1.0
  9
$DIMTOFL
 70
     1
  9
$DIMTVP
 40
0.0
  9
$DIMTIX
 70
     0
  9
$DIMSOXD
 70
     0
  9
$DIMSAH
 70
     0
  9
$DIMBLK1
  1

  9
$DIMBLK2
  1

  9
$DIMSTYLE
  2
ISO-25
  9
$DIMCLRD
 70
     0
  9
$DIMCLRE
 70
     0
  9
$DIMCLRT
 70
     0
  9
$DIMTFAC
 40
1.0
  9
$DIMGAP
 40
0.625
  9
$DIMJUST
 70
     0
  9
$DIMSD1
 70
     0
  9
$DIMSD2
 70
     0
  9
$DIMTOLJ
 70
     0
  9
$DIMTZIN
 70
     8
  9
$DIMALTZ
 70
     0
  9
$DIMALTTZ
 70
     0
  9
$DIMUPT
 70
     0
  9
$DIMDEC
 70
     2
  9
$DIMTDEC
 70
     2
  9
$DIMALTU
 70
     2
  9
$DIMALTTD
 70
     3
  9
$DIMTXSTY
  7
Standard
  9
$DIMAUNIT
 70
     0
  9
$DIMADEC
 70
     0
  9
$DIMALTRND
 40
0.0
  9
$DIMAZIN
 70
     0
  9
$DIMDSEP
 70
    44
  9
$DIMATFIT
 70
     3
  9
$DIMFRAC
 70
     0
  9
$DIMLDRBLK
  1

  9
$DIMLUNIT
 70
     2
  9
$DIMLWD
 70
    -2
  9
$DIMLWE
 70
    -2
  9
$DIMTMOVE
 70
     0
  9
$LUNITS
 70
     2
  9
$LUPREC
 70
     4
  9
$SKETCHINC
 40
1.0
  9
$FILLETRAD
 40
10.0
  9
$AUNITS
 70
     0
  9
$AUPREC
 70
     0
  9
$MENU
  1
.
  9
$ELEVATION
 40
0.0
  9
$PELEVATION
 40
0.0
  9
$THICKNESS
 40
0.0
  9
$LIMCHECK
 70
     0
  9
$CHAMFERA
 40
10.0
  9
$CHAMFERB
 40
10.0
  9
$CHAMFERC
 40
20.0
  9
$CHAMFERD
 40
0.0
  9
$SKPOLY
 70
     0
  9
$TDCREATE
 40
2453788.443976551
  9
$TDUCREATE
 40
2453788.402309884
  9
$TDUPDATE
 40
2453788.443976563
  9
$TDUUPDATE
 40
2453788.402309896
  9
$TDINDWG
 40
0.0000000116
  9
$TDUSRTIMER
 40
0.0000000116
  9
$USRTIMER
 70
     1
  9
$ANGBASE
 50
0.0
  9
$ANGDIR
 70
     0
  9
$PDMODE
 70
     0
  9
$PDSIZE
 40
0.0
  9
$PLINEWID
 40
0.0
  9
$SPLFRAME
 70
     0
  9
$SPLINETYPE
 70
     6
  9
$SPLINESEGS
 70
     8
  9
$HANDSEED
  5
243
  9
$SURFTAB1
 70
     6
  9
$SURFTAB2
 70
     6
  9
$SURFTYPE
 70
     6
  9
$SURFU
 70
     6
  9
$SURFV
 70
     6
  9
$UCSBASE
  2

  9
$UCSNAME
  2

  9
$UCSORG
 10
0.0
 20
0.0
 30
0.0
  9
$UCSXDIR
 10
1.0
 20
0.0
 30
0.0
  9
$UCSYDIR
 10
0.0
 20
1.0
 30
0.0
  9
$UCSORTHOREF
  2

  9
$UCSORTHOVIEW
 70
     0
  9
$UCSORGTOP
 10
0.0
 20
0.0
 30
0.0
  9
$UCSORGBOTTOM
 10
0.0
 20
0.0
 30
0.0
  9
$UCSORGLEFT
 10
0.0
 20
0.0
 30
0.0
  9
$UCSORGRIGHT
 10
0.0
 20
0.0
 30
0.0
  9
$UCSORGFRONT
 10
0.0
 20
0.0
 30
0.0
  9
$UCSORGBACK
 10
0.0
 20
0.0
 30
0.0
  9
$PUCSBASE
  2

  9
$PUCSNAME
  2

  9
$PUCSORG
 10
0.0
 20
0.0
 30
0.0
  9
$PUCSXDIR
 10
1.0
 20
0.0
 30
0.0
  9
$PUCSYDIR
 10
0.0
 20
1.0
 30
0.0
  9
$PUCSORTHOREF
  2

  9
$PUCSORTHOVIEW
 70
     0
  9
$PUCSORGTOP
 10
0.0
 20
0.0
 30
0.0
  9
$PUCSORGBOTTOM
 10
0.0
 20
0.0
 30
0.0
  9
$PUCSORGLEFT
 10
0.0
 20
0.0
 30
0.0
  9
$PUCSORGRIGHT
 10
0.0
 20
0.0
 30
0.0
  9
$PUCSORGFRONT
 10
0.0
 20
0.0
 30
0.0
  9
$PUCSORGBACK
 10
0.0
 20
0.0
 30
0.0
  9
$USERI1
 70
     0
  9
$USERI2
 70
     0
  9
$USERI3
 70
     0
  9
$USERI4
 70
     0
  9
$USERI5
 70
     0
  9
$USERR1
 40
0.0
  9
$USERR2
 40
0.0
  9
$USERR3
 40
0.0
  9
$USERR4
 40
0.0
  9
$USERR5
 40
0.0
  9
$WORLDVIEW
 70
     1
  9
$SHADEDGE
 70
     3
  9
$SHADEDIF
 70
    70
  9
$TILEMODE
 70
     1
  9
$MAXACTVP
 70
    64
  9
$PINSBASE
 10
0.0
 20
0.0
 30
0.0
  9
$PLIMCHECK
 70
     0
  9
$PEXTMIN
 10
-210.0
 20
-148.5
 30
0.0
  9
$PEXTMAX
 10
630.0
 20
445.5
 30
0.0
  9
$PLIMMIN
 10
-210.0
 20
-148.5
  9
$PLIMMAX
 10
630.0
 20
445.5
  9
$UNITMODE
 70
     0
  9
$VISRETAIN
 70
     1
  9
$PLINEGEN
 70
     0
  9
$PSLTSCALE
 70
     1
  9
$TREEDEPTH
 70
  3020
  9
$CMLSTYLE
  2
Standard
  9
$CMLJUST
 70
     0
  9
$CMLSCALE
 40
20.0
  9
$PROXYGRAPHICS
 70
     1
  9
$MEASUREMENT
 70
     1
  9
$CELWEIGHT
370
    -1
  9
$ENDCAPS
280
     0
  9
$JOINSTYLE
280
     0
  9
$LWDISPLAY
290
     0
  9
$INSUNITS
 70
     4
  9
$HYPERLINKBASE
  1

  9
$STYLESHEET
  1

  9
$XEDIT
290
     1
  9
$CEPSNTYPE
380
     0
  9
$PSTYLEMODE
290
     1
  9
$FINGERPRINTGUID
  2
{FAEB1C30-E019-11D5-929B-00C0DF256EC4}
  9
$VERSIONGUID
  2
{FAEB1C32-E019-11D5-929B-00C0DF256EC4}
  9
$EXTNAMES
290
     1
  9
$PSVPSCALE
 40
0.0
  9
$OLESTARTUP
290
     0
  0
ENDSEC
  0
SECTION
  2
CLASSES
  0
CLASS
  1
ACDBDICTIONARYWDFLT
  2
AcDbDictionaryWithDefault
  3
ObjectDBX Classes
 90
        0
280
     0
281
     0
  0
CLASS
  1
ACDBPLACEHOLDER
  2
AcDbPlaceHolder
  3
ObjectDBX Classes
 90
        0
280
     0
281
     0
  0
CLASS
  1
LAYOUT
  2
AcDbLayout
  3
ObjectDBX Classes
 90
        0
280
     0
281
     0
  0
ENDSEC
  0
SECTION
  2
TABLES
  0
TABLE
  2
VPORT
  5
8
330
0
100
AcDbSymbolTable
 70
     2
  0
VPORT
  5
29
330
8
100
AcDbSymbolTableRecord
100
AcDbViewportTableRecord
  2
*ACTIVE
 70
     0
 10
0.0
 20
0.0
 11
1.0
 21
1.0
 12
210.0
 22
148.5
 13
0.0
 23
0.0
 14
1.0
 24
1.0
 15
0.0
 25
0.0
 16
0.0
 26
0.0
 36
1.0
 17
0.0
 27
0.0
 37
0.0
 40
594.0
 41
1.414141
 42
50.0
 43
0.0
 44
0.0
 50
0.0
 51
0.0
 71
    16
 72
   100
 73
     1
 74
     0
 75
     0
 76
     0
 77
     0
 78
     0
281
     0
 65
     0
110
0.0
120
0.0
130
0.0
111
1.0
121
0.0
131
0.0
112
0.0
122
1.0
132
0.0
 79
     0
146
0.0
  0
ENDTAB
  0
TABLE
  2
LTYPE
  5
5
330
0
100
AcDbSymbolTable
 70
     3
  0
LTYPE
  5
14
330
5
100
AcDbSymbolTableRecord
100
AcDbLinetypeTableRecord
  2
ByBlock
 70
     0
  3

 72
    65
 73
     0
 40
0.0
  0
LTYPE
  5
15
330
5
100
AcDbSymbolTableRecord
100
AcDbLinetypeTableRecord
  2
ByLayer
 70
     0
  3

 72
    65
 73
     0
 40
0.0
  0
LTYPE
  5
16
330
5
100
AcDbSymbolTableRecord
100
AcDbLinetypeTableRecord
  2
Continuous
 70
     0
  3
Solid line
 72
    65
 73
     0
 40
0.0
  0
LTYPE
  5
2A
330
5
100
AcDbSymbolTableRecord
100
AcDbLinetypeTableRecord
  2
DASHED
 70
     0
  3
__ __ __ __ __
 72
    65
 73
     2
 40
6.25
 49
5.0
 74
     4
 75
     0
340
0
 46
1.0
 50
0.0
 44
0.0
 45
0.0
 49
-1.25
 74
     4
 75
     0
340
0
 46
1.0
 50
0.0
 44
0.0
 45
0.0
  0
LTYPE
  5
F8
330
5
100
AcDbSymbolTableRecord
100
AcDbLinetypeTableRecord
  2
DASHDOT
 70
     0
  3
__ . __ . __ . __ . __
 72
    65
 73
     4
 40
7.5
 49
5.0
 74
     4
 75
     0
340
0
 46
1.0
 50
0.0
 44
0.0
 45
0.0
 49
-1.25
 74
     4
 75
     0
340
0
 46
1.0
 50
0.0
 44
0.0
 45
0.0
 49
0.0
 74
     4
 75
     0
340
0
 46
1.0
 50
0.0
 44
0.0
 45
0.0
 49
-1.25
 74
     4
 75
     0
340
0
 46
1.0
 50
0.0
 44
0.0
 45
0.0
  0
ENDTAB
  0
TABLE
  2
LAYER
  5
2
330
0
100
AcDbSymbolTable
 70
    12
  0
LAYER
  5
10
330
2
100
AcDbSymbolTableRecord
100
AcDbLayerTableRecord
  2
0
 70
     0
 62
     7
  6
Continuous
370
    -3
390
F
  0
LAYER
  5
2B
330
2
100
AcDbSymbolTableRecord
100
AcDbLayerTableRecord
  2
LC-INFO-1-2-mm-A3-0
 70
     1
 62
     7
  6
ByBlock
370
    -3
390
F
  0
LAYER
  5
2C
330
2
100
AcDbSymbolTableRecord
100
AcDbLayerTableRecord
  2
LC-CUT-HIDDEN
 70
     0
 62
     7
  6
DASHED
370
    -3
390
F
  0
LAYER
  5
2D
330
2
100
AcDbSymbolTableRecord
100
AcDbLayerTableRecord
  2
LC-VIEWPORT
 70
     0
 62
     7
  6
ByBlock
370
    -3
390
F
  0
LAYER
  5
2E
330
2
100
AcDbSymbolTableRecord
100
AcDbLayerTableRecord
  2
LC-3D-HIDDEN
 70
     0
 62
     9
  6
DASHED
370
    -3
390
F
  0
LAYER
  5
33
330
2
100
AcDbSymbolTableRecord
100
AcDbLayerTableRecord
  2
LC-001-003-----0
 70
     0
 62
     2
  6
ByBlock
370
    -3
390
F
  0
LAYER
  5
35
330
2
100
AcDbSymbolTableRecord
100
AcDbLayerTableRecord
  2
Defpoints
 70
     0
 62
     7
  6
Continuous
290
     0
370
    -3
390
F
  0
LAYER
  5
43
330
2
100
AcDbSymbolTableRecord
100
AcDbLayerTableRecord
  2
LC-002-002-----0
 70
     0
 62
     2
  6
ByBlock
370
    -3
390
F
  0
LAYER
  5
45
330
2
100
AcDbSymbolTableRecord
100
AcDbLayerTableRecord
  2
LC-003-002-RND-0
 70
     0
 62
     1
  6
ByBlock
370
    -3
390
F
  0
LAYER
  5
5E
330
2
100
AcDbSymbolTableRecord
100
AcDbLayerTableRecord
  2
LC-004-001-----0
 70
     0
 62
     1
  6
ByBlock
370
    -3
390
F
  0
LAYER
  5
68
330
2
100
AcDbSymbolTableRecord
100
AcDbLayerTableRecord
  2
LC-005-005-----0
 70
     0
 62
     2
  6
ByBlock
370
    -3
390
F
  0
LAYER
  5
B8
330
2
100
AcDbSymbolTableRecord
100
AcDbLayerTableRecord
  2
LC-006-001-RND-0
 70
     0
 62
     1
  6
ByBlock
370
    -3
390
F
  0
ENDTAB
  0
TABLE
  2
STYLE
  5
3
330
0
100
AcDbSymbolTable
 70
     4
  0
STYLE
  5
11
330
3
100
AcDbSymbolTableRecord
100
AcDbTextStyleTableRecord
  2
Standard
 70
     0
 40
0.0
 41
1.0
 50
0.0
 71
     0
 42
2.5
  3
txt
  4

  0
STYLE
  5
2F
330
3
100
AcDbSymbolTableRecord
100
AcDbTextStyleTableRecord
  2
LCTX15-400-0-0-Arial
 70
     0
 40
0.0
 41
0.9
 50
0.0
 71
     0
 42
3.5
  3

  4

1001
ACAD
1000
Arial
1071
 16777218
  0
STYLE
  5
30
330
3
100
AcDbSymbolTableRecord
100
AcDbTextStyleTableRecord
  2
LCTX0-400-0-0-DIN-Schrift
 70
     0
 40
0.0
 41
0.8
 50
0.0
 71
     0
 42
3.5
  3
MONOTXT
  4

  0
STYLE
  5
31
330
3
100
AcDbSymbolTableRecord
100
AcDbTextStyleTableRecord
  2
LCTX15-400-0-0pDIN-Schrift
 70
     0
 40
2.5
 41
0.8
 50
15.0
 71
     0
 42
3.5
  3
STANDARD
  4

  0
ENDTAB
  0
TABLE
  2
VIEW
  5
6
330
0
100
AcDbSymbolTable
 70
     0
  0
ENDTAB
  0
TABLE
  2
UCS
  5
7
330
0
100
AcDbSymbolTable
 70
     0
  0
ENDTAB
  0
TABLE
  2
APPID
  5
9
330
0
100
AcDbSymbolTable
 70
     1
  0
APPID
  5
12
330
9
100
AcDbSymbolTableRecord
100
AcDbRegAppTableRecord
  2
ACAD
 70
     0
  0
ENDTAB
  0
TABLE
  2
DIMSTYLE
  5
A
330
0
100
AcDbSymbolTable
 70
     2
100
AcDbDimStyleTable
  0
DIMSTYLE
105
27
330
A
100
AcDbSymbolTableRecord
100
AcDbDimStyleTableRecord
  2
ISO-25
 70
     0
 41
2.5
 42
0.625
 43
3.75
 44
1.25
 73
     0
 74
     0
 77
     1
 78
     8
140
2.5
141
2.5
143
0.03937
147
0.625
171
     3
172
     1
271
     2
272
     2
274
     3
278
    44
283
     0
284
     8
340
11
  0
DIMSTYLE
105
32
102
{ACAD_REACTORS
330
34
330
4A
330
15C
330
16D
102
}
330
A
100
AcDbSymbolTableRecord
100
AcDbDimStyleTableRecord
  2
LC-DIM-L-0140-02-02
 70
     0
 40
2.0
 41
14.0
 42
0.0
 43
7.5
 44
1.8
 73
     0
 74
     0
 77
     1
 78
     8
 79
     2
140
14.0
141
0.0
146
0.71
147
1.5
176
     2
177
     2
178
     2
179
     2
271
     2
278
    44
289
     1
340
31
  0
ENDTAB
  0
TABLE
  2
BLOCK_RECORD
  5
1
330
0
100
AcDbSymbolTable
 70
    11
  0
BLOCK_RECORD
  5
1F
330
1
100
AcDbSymbolTableRecord
100
AcDbBlockTableRecord
  2
*Model_Space
340
22
  0
BLOCK_RECORD
  5
1B
330
1
100
AcDbSymbolTableRecord
100
AcDbBlockTableRecord
  2
*Paper_Space
340
1E
  0
BLOCK_RECORD
  5
23
330
1
100
AcDbSymbolTableRecord
100
AcDbBlockTableRecord
  2
*Paper_Space0
340
26
  0
BLOCK_RECORD
  5
36
330
1
100
AcDbSymbolTableRecord
100
AcDbBlockTableRecord
  2
*D1
340
0
  0
BLOCK_RECORD
  5
4B
330
1
100
AcDbSymbolTableRecord
100
AcDbBlockTableRecord
  2
*D2
340
0
  0
BLOCK_RECORD
  5
65
330
1
100
AcDbSymbolTableRecord
100
AcDbBlockTableRecord
  2
*X13
340
0
102
{BLKREFS
331
75
102
}
  0
BLOCK_RECORD
  5
D6
330
1
100
AcDbSymbolTableRecord
100
AcDbBlockTableRecord
  2
*X24
340
0
102
{BLKREFS
331
E5
102
}
  0
BLOCK_RECORD
  5
111
330
1
100
AcDbSymbolTableRecord
100
AcDbBlockTableRecord
  2
*X35
340
0
102
{BLKREFS
331
134
102
}
  0
BLOCK_RECORD
  5
135
330
1
100
AcDbSymbolTableRecord
100
AcDbBlockTableRecord
  2
*X46
340
0
102
{BLKREFS
331
158
102
}
  0
BLOCK_RECORD
  5
15D
330
1
100
AcDbSymbolTableRecord
100
AcDbBlockTableRecord
  2
*D7
340
0
  0
BLOCK_RECORD
  5
16E
330
1
100
AcDbSymbolTableRecord
100
AcDbBlockTableRecord
  2
*D8
340
0
  0
BLOCK_RECORD
  5
183
330
1
100
AcDbSymbolTableRecord
100
AcDbBlockTableRecord
  2
*X59
340
0
102
{BLKREFS
331
197
102
}
  0
BLOCK_RECORD
  5
198
330
1
100
AcDbSymbolTableRecord
100
AcDbBlockTableRecord
  2
*X610
340
0
102
{BLKREFS
331
1AC
102
}
  0
ENDTAB
  0
ENDSEC
  0
SECTION
  2
BLOCKS
  0
BLOCK
  5
20
330
1F
100
AcDbEntity
  8
0
100
AcDbBlockBegin
  2
*Model_Space
 70
     0
 71
     0
 10
0.0
 20
0.0
 30
0.0
  3
*Model_Space
  1

  0
ENDBLK
  5
21
330
1F
100
AcDbEntity
  8
0
100
AcDbBlockEnd
  0
BLOCK
  5
1C
330
1B
100
AcDbEntity
 67
     1
  8
0
100
AcDbBlockBegin
  2
*Paper_Space
 70
     0
 71
     0
 10
0.0
 20
0.0
 30
0.0
  3
*Paper_Space
  1

  0
ENDBLK
  5
1D
330
1B
100
AcDbEntity
 67
     1
  8
0
100
AcDbBlockEnd
  0
BLOCK
  5
24
330
23
100
AcDbEntity
  8
0
100
AcDbBlockBegin
  2
*Paper_Space0
 70
     0
 71
     0
 10
0.0
 20
0.0
 30
0.0
  3
*Paper_Space0
  1

  0
ENDBLK
  5
25
330
23
100
AcDbEntity
  8
0
100
AcDbBlockEnd
  0
BLOCK
  5
41
330
36
100
AcDbEntity
  8
0
100
AcDbBlockBegin
  2
*D1
 70
     1
 71
     0
 10
0.0
 20
0.0
 30
0.0
  3
*D1
  1

  0
LINE
  5
37
330
36
100
AcDbEntity
  8
LC-001-003-----0
 62
     2
370
    -2
100
AcDbLine
 10
65.968563
 20
171.337205
 30
0.0
 11
35.6
 21
171.337205
 31
0.0
  0
LINE
  5
38
330
36
100
AcDbEntity
  8
LC-001-003-----0
 62
     2
370
    -2
100
AcDbLine
 10
63.768563
 20
164.137205
 30
0.0
 11
35.6
 21
164.137205
 31
0.0
  0
LINE
  5
39
330
36
100
AcDbEntity
  8
LC-001-003-----0
 62
     2
370
    -2
100
AcDbLine
 10
39.2
 20
199.337205
 30
0.0
 11
39.2
 21
227.337205
 31
0.0
  0
LINE
  5
3A
330
36
100
AcDbEntity
  8
LC-001-003-----0
 62
     2
370
    -2
100
AcDbLine
 10
39.2
 20
136.137205
 30
0.0
 11
39.2
 21
118.001378
 31
0.0
  0
SOLID
  5
3B
330
36
100
AcDbEntity
  8
LC-001-003-----0
 62
     2
100
AcDbTrace
 10
34.533333
 20
199.337205
 30
0.0
 11
43.866667
 21
199.337205
 31
0.0
 12
39.2
 22
171.337205
 32
0.0
 13
39.2
 23
171.337205
 33
0.0
  0
SOLID
  5
3C
330
36
100
AcDbEntity
  8
LC-001-003-----0
 62
     2
100
AcDbTrace
 10
43.866667
 20
136.137205
 30
0.0
 11
34.533333
 21
136.137205
 31
0.0
 12
39.2
 22
164.137205
 32
0.0
 13
39.2
 23
164.137205
 33
0.0
  0
MTEXT
  5
3D
330
36
100
AcDbEntity
  8
LC-001-003-----0
 62
     2
100
AcDbMText
 10
8.4
 20
130.086
 30
0.0
 40
28.0
 41
0.0
 71
     5
 72
     1
  1
\A1;7
  7
LCTX15-400-0-0pDIN-Schrift
 11
6.123031769111886E-17
 21
1.0
 31
0.0
 73
     1
 44
1.0
  0
POINT
  5
3E
330
36
100
AcDbEntity
  8
Defpoints
 62
     0
100
AcDbPoint
 10
65.968563
 20
171.337205
 30
0.0
  0
POINT
  5
3F
330
36
100
AcDbEntity
  8
Defpoints
 62
     0
100
AcDbPoint
 10
63.768563
 20
164.137205
 30
0.0
  0
POINT
  5
40
330
36
100
AcDbEntity
  8
Defpoints
 62
     0
100
AcDbPoint
 10
39.2
 20
164.137205
 30
0.0
  0
ENDBLK
  5
42
330
36
100
AcDbEntity
  8
0
100
AcDbBlockEnd
  0
BLOCK
  5
55
330
4B
100
AcDbEntity
  8
0
100
AcDbBlockBegin
  2
*D2
 70
     1
 71
     0
 10
0.0
 20
0.0
 30
0.0
  3
*D2
  1

  0
LINE
  5
4C
330
4B
100
AcDbEntity
  8
LC-001-003-----0
 62
     2
370
    -2
100
AcDbLine
 10
64.268563
 20
169.637205
 30
0.0
 11
64.268563
 21
199.6
 31
0.0
  0
LINE
  5
4D
330
4B
100
AcDbEntity
  8
LC-001-003-----0
 62
     2
370
    -2
100
AcDbLine
 10
164.268563
 20
169.637205
 30
0.0
 11
164.268563
 21
199.6
 31
0.0
  0
LINE
  5
4E
330
4B
100
AcDbEntity
  8
LC-001-003-----0
 62
     2
370
    -2
100
AcDbLine
 10
92.268563
 20
196.0
 30
0.0
 11
136.268563
 21
196.0
 31
0.0
  0
SOLID
  5
4F
330
4B
100
AcDbEntity
  8
LC-001-003-----0
 62
     2
100
AcDbTrace
 10
92.268563
 20
200.666667
 30
0.0
 11
92.268563
 21
191.333333
 31
0.0
 12
64.268563
 22
196.0
 32
0.0
 13
64.268563
 23
196.0
 33
0.0
  0
SOLID
  5
50
330
4B
100
AcDbEntity
  8
LC-001-003-----0
 62
     2
100
AcDbTrace
 10
136.268563
 20
191.333333
 30
0.0
 11
136.268563
 21
200.666667
 31
0.0
 12
164.268563
 22
196.0
 32
0.0
 13
164.268563
 23
196.0
 33
0.0
  0
MTEXT
  5
51
330
4B
100
AcDbEntity
  8
LC-001-003-----0
 62
     2
100
AcDbMText
 10
114.268563
 20
226.8
 30
0.0
 40
28.0
 41
0.0
 71
     5
 72
     1
  1
\A1;100
  7
LCTX15-400-0-0pDIN-Schrift
 73
     1
 44
1.0
  0
POINT
  5
52
330
4B
100
AcDbEntity
  8
Defpoints
 62
     0
100
AcDbPoint
 10
64.268563
 20
169.637205
 30
0.0
  0
POINT
  5
53
330
4B
100
AcDbEntity
  8
Defpoints
 62
     0
100
AcDbPoint
 10
164.268563
 20
169.637205
 30
0.0
  0
POINT
  5
54
330
4B
100
AcDbEntity
  8
Defpoints
 62
     0
100
AcDbPoint
 10
164.268563
 20
196.0
 30
0.0
  0
ENDBLK
  5
56
330
4B
100
AcDbEntity
  8
0
100
AcDbBlockEnd
  0
BLOCK
  5
66
330
65
100
AcDbEntity
  8
0
100
AcDbBlockBegin
  2
*X13
 70
     1
 71
     0
 10
0.0
 20
0.0
 30
0.0
  3
*X13
  1

  4
*X1
  0
LINE
  5
69
330
65
100
AcDbEntity
  8
LC-005-005-----0
 62
     7
370
    25
100
AcDbLine
 10
156.523298
 20
150.866444
 30
0.0
 11
157.494235
 21
151.837381
 31
0.0
  0
LINE
  5
6A
330
65
100
AcDbEntity
  8
LC-005-005-----0
 62
     7
370
    25
100
AcDbLine
 10
156.965632
 20
154.137205
 30
0.0
 11
157.640909
 21
154.812482
 31
0.0
  0
LINE
  5
6B
330
65
100
AcDbEntity
  8
LC-005-005-----0
 62
     7
370
    25
100
AcDbLine
 10
156.768563
 20
156.768563
 30
0.0
 11
157.468563
 21
157.468563
 31
0.0
  0
LINE
  5
6C
330
65
100
AcDbEntity
  8
LC-005-005-----0
 62
     7
370
    25
100
AcDbLine
 10
159.933993
 20
159.933993
 30
0.0
 11
160.971776
 21
160.971776
 31
0.0
  0
LINE
  5
6D
330
65
100
AcDbEntity
  8
LC-005-005-----0
 62
     7
370
    25
100
AcDbLine
 10
164.385727
 20
164.385727
 30
0.0
 11
164.768563
 21
164.768563
 31
0.0
  0
LINE
  5
6E
330
65
100
AcDbEntity
  8
LC-005-005-----0
 62
     7
370
    25
100
AcDbLine
 10
156.805939
 20
159.634366
 30
0.0
 11
157.671402
 21
160.49983
 31
0.0
  0
LINE
  5
6F
330
65
100
AcDbEntity
  8
LC-005-005-----0
 62
     7
370
    25
100
AcDbLine
 10
160.368563
 20
163.196991
 30
0.0
 11
161.068563
 21
163.896991
 31
0.0
  0
LINE
  5
70
330
65
100
AcDbEntity
  8
LC-005-005-----0
 62
     7
370
    25
100
AcDbLine
 10
163.568563
 20
166.396991
 30
0.0
 11
164.268563
 21
167.096991
 31
0.0
  0
LINE
  5
71
330
65
100
AcDbEntity
  8
LC-005-005-----0
 62
     7
370
    25
100
AcDbLine
 10
160.368563
 20
166.025418
 30
0.0
 11
161.068563
 21
166.725418
 31
0.0
  0
LINE
  5
72
330
65
100
AcDbEntity
  8
LC-005-005-----0
 62
     7
370
    25
100
AcDbLine
 10
163.568563
 20
169.225418
 30
0.0
 11
164.247449
 21
169.904304
 31
0.0
  0
LINE
  5
73
330
65
100
AcDbEntity
  8
LC-005-005-----0
 62
     7
370
    25
100
AcDbLine
 10
160.368563
 20
168.853845
 30
0.0
 11
161.068563
 21
169.553845
 31
0.0
  0
LINE
  5
74
330
65
100
AcDbEntity
  8
LC-005-005-----0
 62
     7
370
    25
100
AcDbLine
 10
162.151924
 20
170.637205
 30
0.0
 11
162.831471
 21
171.316753
 31
0.0
  0
ENDBLK
  5
67
330
65
100
AcDbEntity
  8
0
100
AcDbBlockEnd
  0
BLOCK
  5
D7
330
D6
100
AcDbEntity
  8
0
100
AcDbBlockBegin
  2
*X24
 70
     1
 71
     0
 10
0.0
 20
0.0
 30
0.0
  3
*X24
  1

  4
*X2
  0
LINE
  5
D9
330
D6
100
AcDbEntity
  8
LC-005-005-----0
 62
     7
370
    25
100
AcDbLine
 10
71.469453
 20
150.665413
 30
0.0
 11
72.015597
 21
151.211557
 31
0.0
  0
LINE
  5
DA
330
D6
100
AcDbEntity
  8
LC-005-005-----0
 62
     7
370
    25
100
AcDbLine
 10
70.714698
 20
152.739085
 30
0.0
 11
71.260843
 21
153.285229
 31
0.0
  0
LINE
  5
DB
330
D6
100
AcDbEntity
  8
LC-005-005-----0
 62
     7
370
    25
100
AcDbLine
 10
71.068563
 20
155.921377
 30
0.0
 11
71.768563
 21
156.621377
 31
0.0
  0
LINE
  5
DC
330
D6
100
AcDbEntity
  8
LC-005-005-----0
 62
     7
370
    25
100
AcDbLine
 10
71.068563
 20
158.749804
 30
0.0
 11
71.763716
 21
159.444957
 31
0.0
  0
LINE
  5
DD
330
D6
100
AcDbEntity
  8
LC-005-005-----0
 62
     7
370
    25
100
AcDbLine
 10
69.327537
 20
159.837205
 30
0.0
 11
70.027537
 21
160.537205
 31
0.0
  0
LINE
  5
DE
330
D6
100
AcDbEntity
  8
LC-005-005-----0
 62
     7
370
    25
100
AcDbLine
 10
67.583819
 20
160.921914
 30
0.0
 11
68.169016
 21
161.507111
 31
0.0
  0
LINE
  5
DF
330
D6
100
AcDbEntity
  8
LC-005-005-----0
 62
     7
370
    25
100
AcDbLine
 10
67.468563
 20
163.635086
 30
0.0
 11
68.168563
 21
164.335086
 31
0.0
  0
LINE
  5
E0
330
D6
100
AcDbEntity
  8
LC-005-005-----0
 62
     7
370
    25
100
AcDbLine
 10
67.468563
 20
166.463513
 30
0.0
 11
68.168563
 21
167.163513
 31
0.0
  0
LINE
  5
E1
330
D6
100
AcDbEntity
  8
LC-005-005-----0
 62
     7
370
    25
100
AcDbLine
 10
64.268556
 20
166.091932
 30
0.0
 11
64.968563
 21
166.79194
 31
0.0
  0
LINE
  5
E2
330
D6
100
AcDbEntity
  8
LC-005-005-----0
 62
     7
370
    25
100
AcDbLine
 10
67.468563
 20
169.29194
 30
0.0
 11
68.137472
 21
169.960848
 31
0.0
  0
LINE
  5
E3
330
D6
100
AcDbEntity
  8
LC-005-005-----0
 62
     7
370
    25
100
AcDbLine
 10
64.268563
 20
168.920367
 30
0.0
 11
64.968563
 21
169.620367
 31
0.0
  0
LINE
  5
E4
330
D6
100
AcDbEntity
  8
LC-005-005-----0
 62
     7
370
    25
100
AcDbLine
 10
65.985402
 20
170.637205
 30
0.0
 11
66.673057
 21
171.324861
 31
0.0
  0
ENDBLK
  5
D8
330
D6
100
AcDbEntity
  8
0
100
AcDbBlockEnd
  0
BLOCK
  5
112
330
111
100
AcDbEntity
  8
0
100
AcDbBlockBegin
  2
*X35
 70
     1
 71
     0
 10
0.0
 20
0.0
 30
0.0
  3
*X35
  1

  4
*X3
  0
LINE
  5
114
330
111
100
AcDbEntity
  8
LC-005-005-----0
 62
     7
370
    25
100
AcDbLine
 10
158.263612
 20
115.837205
 30
0.0
 11
159.928869
 21
117.502462
 31
0.0
  0
LINE
  5
115
330
111
100
AcDbEntity
  8
LC-005-005-----0
 62
     7
370
    25
100
AcDbLine
 10
157.268563
 20
116.25637
 30
0.0
 11
160.018563
 21
119.00637
 31
0.0
  0
LINE
  5
116
330
111
100
AcDbEntity
  8
LC-005-005-----0
 62
     7
370
    25
100
AcDbLine
 10
157.268563
 20
117.670584
 30
0.0
 11
160.018563
 21
120.420584
 31
0.0
  0
LINE
  5
117
330
111
100
AcDbEntity
  8
LC-005-005-----0
 62
     7
370
    25
100
AcDbLine
 10
157.268563
 20
119.084797
 30
0.0
 11
160.018563
 21
121.834797
 31
0.0
  0
LINE
  5
118
330
111
100
AcDbEntity
  8
LC-005-005-----0
 62
     7
370
    25
100
AcDbLine
 10
157.268563
 20
120.499011
 30
0.0
 11
160.018563
 21
123.249011
 31
0.0
  0
LINE
  5
119
330
111
100
AcDbEntity
  8
LC-005-005-----0
 62
     7
370
    25
100
AcDbLine
 10
157.268563
 20
121.913224
 30
0.0
 11
160.018563
 21
124.663224
 31
0.0
  0
LINE
  5
11A
330
111
100
AcDbEntity
  8
LC-005-005-----0
 62
     7
370
    25
100
AcDbLine
 10
157.268563
 20
123.327438
 30
0.0
 11
160.018563
 21
126.077438
 31
0.0
  0
LINE
  5
11B
330
111
100
AcDbEntity
  8
LC-005-005-----0
 62
     7
370
    25
100
AcDbLine
 10
157.268563
 20
124.741651
 30
0.0
 11
160.018563
 21
127.491651
 31
0.0
  0
LINE
  5
11C
330
111
100
AcDbEntity
  8
LC-005-005-----0
 62
     7
370
    25
100
AcDbLine
 10
157.268563
 20
126.155865
 30
0.0
 11
160.018563
 21
128.905865
 31
0.0
  0
LINE
  5
11D
330
111
100
AcDbEntity
  8
LC-005-005-----0
 62
     7
370
    25
100
AcDbLine
 10
157.268563
 20
127.570079
 30
0.0
 11
160.018563
 21
130.320079
 31
0.0
  0
LINE
  5
11E
330
111
100
AcDbEntity
  8
LC-005-005-----0
 62
     7
370
    25
100
AcDbLine
 10
157.268563
 20
128.984292
 30
0.0
 11
160.018563
 21
131.734292
 31
0.0
  0
LINE
  5
11F
330
111
100
AcDbEntity
  8
LC-005-005-----0
 62
     7
370
    25
100
AcDbLine
 10
157.268563
 20
130.398506
 30
0.0
 11
160.018563
 21
133.148506
 31
0.0
  0
LINE
  5
120
330
111
100
AcDbEntity
  8
LC-005-005-----0
 62
     7
370
    25
100
AcDbLine
 10
157.268563
 20
131.812719
 30
0.0
 11
160.018563
 21
134.562719
 31
0.0
  0
LINE
  5
121
330
111
100
AcDbEntity
  8
LC-005-005-----0
 62
     7
370
    25
100
AcDbLine
 10
157.268563
 20
133.226933
 30
0.0
 11
160.018563
 21
135.976933
 31
0.0
  0
LINE
  5
122
330
111
100
AcDbEntity
  8
LC-005-005-----0
 62
     7
370
    25
100
AcDbLine
 10
157.268563
 20
134.641146
 30
0.0
 11
160.018563
 21
137.391146
 31
0.0
  0
LINE
  5
123
330
111
100
AcDbEntity
  8
LC-005-005-----0
 62
     7
370
    25
100
AcDbLine
 10
157.268563
 20
136.05536
 30
0.0
 11
160.018563
 21
138.80536
 31
0.0
  0
LINE
  5
124
330
111
100
AcDbEntity
  8
LC-005-005-----0
 62
     7
370
    25
100
AcDbLine
 10
157.268563
 20
137.469574
 30
0.0
 11
160.018563
 21
140.219574
 31
0.0
  0
LINE
  5
125
330
111
100
AcDbEntity
  8
LC-005-005-----0
 62
     7
370
    25
100
AcDbLine
 10
157.268563
 20
138.883787
 30
0.0
 11
160.018563
 21
141.633787
 31
0.0
  0
LINE
  5
126
330
111
100
AcDbEntity
  8
LC-005-005-----0
 62
     7
370
    25
100
AcDbLine
 10
157.268563
 20
140.298001
 30
0.0
 11
160.018563
 21
143.048001
 31
0.0
  0
LINE
  5
127
330
111
100
AcDbEntity
  8
LC-005-005-----0
 62
     7
370
    25
100
AcDbLine
 10
157.268563
 20
141.712214
 30
0.0
 11
160.018563
 21
144.462214
 31
0.0
  0
LINE
  5
128
330
111
100
AcDbEntity
  8
LC-005-005-----0
 62
     7
370
    25
100
AcDbLine
 10
157.268563
 20
143.126428
 30
0.0
 11
160.018563
 21
145.876428
 31
0.0
  0
LINE
  5
129
330
111
100
AcDbEntity
  8
LC-005-005-----0
 62
     7
370
    25
100
AcDbLine
 10
157.268563
 20
144.540641
 30
0.0
 11
160.018563
 21
147.290641
 31
0.0
  0
LINE
  5
12A
330
111
100
AcDbEntity
  8
LC-005-005-----0
 62
     7
370
    25
100
AcDbLine
 10
157.268563
 20
145.954855
 30
0.0
 11
160.018563
 21
148.704855
 31
0.0
  0
LINE
  5
12B
330
111
100
AcDbEntity
  8
LC-005-005-----0
 62
     7
370
    25
100
AcDbLine
 10
158.268563
 20
148.369068
 30
0.0
 11
160.018563
 21
150.119068
 31
0.0
  0
LINE
  5
12C
330
111
100
AcDbEntity
  8
LC-005-005-----0
 62
     7
370
    25
100
AcDbLine
 10
158.268563
 20
149.783282
 30
0.0
 11
160.018563
 21
151.533282
 31
0.0
  0
LINE
  5
12D
330
111
100
AcDbEntity
  8
LC-005-005-----0
 62
     7
370
    25
100
AcDbLine
 10
158.268563
 20
151.197496
 30
0.0
 11
160.018563
 21
152.947496
 31
0.0
  0
LINE
  5
12E
330
111
100
AcDbEntity
  8
LC-005-005-----0
 62
     7
370
    25
100
AcDbLine
 10
158.268563
 20
152.611709
 30
0.0
 11
160.018563
 21
154.361709
 31
0.0
  0
LINE
  5
12F
330
111
100
AcDbEntity
  8
LC-005-005-----0
 62
     7
370
    25
100
AcDbLine
 10
158.268563
 20
154.025923
 30
0.0
 11
160.018563
 21
155.775923
 31
0.0
  0
LINE
  5
130
330
111
100
AcDbEntity
  8
LC-005-005-----0
 62
     7
370
    25
100
AcDbLine
 10
157.717098
 20
154.888671
 30
0.0
 11
160.018563
 21
157.190136
 31
0.0
  0
LINE
  5
131
330
111
100
AcDbEntity
  8
LC-005-005-----0
 62
     7
370
    25
100
AcDbLine
 10
157.518563
 20
156.10435
 30
0.0
 11
160.018563
 21
158.60435
 31
0.0
  0
LINE
  5
132
330
111
100
AcDbEntity
  8
LC-005-005-----0
 62
     7
370
    25
100
AcDbLine
 10
157.518563
 20
157.518563
 30
0.0
 11
159.837205
 21
159.837205
 31
0.0
  0
LINE
  5
133
330
111
100
AcDbEntity
  8
LC-005-005-----0
 62
     7
370
    25
100
AcDbLine
 10
157.859381
 20
159.273595
 30
0.0
 11
158.422992
 21
159.837205
 31
0.0
  0
ENDBLK
  5
113
330
111
100
AcDbEntity
  8
0
100
AcDbBlockEnd
  0
BLOCK
  5
136
330
135
100
AcDbEntity
  8
0
100
AcDbBlockBegin
  2
*X46
 70
     1
 71
     0
 10
0.0
 20
0.0
 30
0.0
  3
*X46
  1

  4
*X4
  0
LINE
  5
138
330
135
100
AcDbEntity
  8
LC-005-005-----0
 62
     7
370
    25
100
AcDbLine
 10
70.582371
 20
115.837205
 30
0.0
 11
71.268563
 21
116.523397
 31
0.0
  0
LINE
  5
139
330
135
100
AcDbEntity
  8
LC-005-005-----0
 62
     7
370
    25
100
AcDbLine
 10
68.77963
 20
116.862891
 30
0.0
 11
71.268563
 21
119.351825
 31
0.0
  0
LINE
  5
13A
330
135
100
AcDbEntity
  8
LC-005-005-----0
 62
     7
370
    25
100
AcDbLine
 10
68.518563
 20
118.016038
 30
0.0
 11
71.268563
 21
120.766038
 31
0.0
  0
LINE
  5
13B
330
135
100
AcDbEntity
  8
LC-005-005-----0
 62
     7
370
    25
100
AcDbLine
 10
68.518563
 20
119.430252
 30
0.0
 11
71.268563
 21
122.180252
 31
0.0
  0
LINE
  5
13C
330
135
100
AcDbEntity
  8
LC-005-005-----0
 62
     7
370
    25
100
AcDbLine
 10
68.518563
 20
120.844465
 30
0.0
 11
71.268563
 21
123.594465
 31
0.0
  0
LINE
  5
13D
330
135
100
AcDbEntity
  8
LC-005-005-----0
 62
     7
370
    25
100
AcDbLine
 10
68.518563
 20
122.258679
 30
0.0
 11
71.268563
 21
125.008679
 31
0.0
  0
LINE
  5
13E
330
135
100
AcDbEntity
  8
LC-005-005-----0
 62
     7
370
    25
100
AcDbLine
 10
68.518563
 20
123.672892
 30
0.0
 11
71.268563
 21
126.422892
 31
0.0
  0
LINE
  5
13F
330
135
100
AcDbEntity
  8
LC-005-005-----0
 62
     7
370
    25
100
AcDbLine
 10
68.518563
 20
125.087106
 30
0.0
 11
71.268563
 21
127.837106
 31
0.0
  0
LINE
  5
140
330
135
100
AcDbEntity
  8
LC-005-005-----0
 62
     7
370
    25
100
AcDbLine
 10
68.518563
 20
126.501319
 30
0.0
 11
71.268563
 21
129.251319
 31
0.0
  0
LINE
  5
141
330
135
100
AcDbEntity
  8
LC-005-005-----0
 62
     7
370
    25
100
AcDbLine
 10
68.518563
 20
127.915533
 30
0.0
 11
71.268563
 21
130.665533
 31
0.0
  0
LINE
  5
142
330
135
100
AcDbEntity
  8
LC-005-005-----0
 62
     7
370
    25
100
AcDbLine
 10
68.518563
 20
129.329747
 30
0.0
 11
71.268563
 21
132.079747
 31
0.0
  0
LINE
  5
143
330
135
100
AcDbEntity
  8
LC-005-005-----0
 62
     7
370
    25
100
AcDbLine
 10
68.518563
 20
130.74396
 30
0.0
 11
71.268563
 21
133.49396
 31
0.0
  0
LINE
  5
144
330
135
100
AcDbEntity
  8
LC-005-005-----0
 62
     7
370
    25
100
AcDbLine
 10
68.518563
 20
132.158174
 30
0.0
 11
71.268563
 21
134.908174
 31
0.0
  0
LINE
  5
145
330
135
100
AcDbEntity
  8
LC-005-005-----0
 62
     7
370
    25
100
AcDbLine
 10
68.518563
 20
133.572387
 30
0.0
 11
71.268563
 21
136.322387
 31
0.0
  0
LINE
  5
146
330
135
100
AcDbEntity
  8
LC-005-005-----0
 62
     7
370
    25
100
AcDbLine
 10
68.518563
 20
134.986601
 30
0.0
 11
71.268563
 21
137.736601
 31
0.0
  0
LINE
  5
147
330
135
100
AcDbEntity
  8
LC-005-005-----0
 62
     7
370
    25
100
AcDbLine
 10
68.518563
 20
136.400814
 30
0.0
 11
71.268563
 21
139.150814
 31
0.0
  0
LINE
  5
148
330
135
100
AcDbEntity
  8
LC-005-005-----0
 62
     7
370
    25
100
AcDbLine
 10
68.518563
 20
137.815028
 30
0.0
 11
71.268563
 21
140.565028
 31
0.0
  0
LINE
  5
149
330
135
100
AcDbEntity
  8
LC-005-005-----0
 62
     7
370
    25
100
AcDbLine
 10
68.518563
 20
139.229242
 30
0.0
 11
71.268563
 21
141.979242
 31
0.0
  0
LINE
  5
14A
330
135
100
AcDbEntity
  8
LC-005-005-----0
 62
     7
370
    25
100
AcDbLine
 10
68.518563
 20
140.643455
 30
0.0
 11
71.268563
 21
143.393455
 31
0.0
  0
LINE
  5
14B
330
135
100
AcDbEntity
  8
LC-005-005-----0
 62
     7
370
    25
100
AcDbLine
 10
68.518563
 20
142.057669
 30
0.0
 11
71.268563
 21
144.807669
 31
0.0
  0
LINE
  5
14C
330
135
100
AcDbEntity
  8
LC-005-005-----0
 62
     7
370
    25
100
AcDbLine
 10
68.518563
 20
143.471882
 30
0.0
 11
71.268563
 21
146.221882
 31
0.0
  0
LINE
  5
14D
330
135
100
AcDbEntity
  8
LC-005-005-----0
 62
     7
370
    25
100
AcDbLine
 10
68.518563
 20
144.886096
 30
0.0
 11
70.869118
 21
147.23665
 31
0.0
  0
LINE
  5
14E
330
135
100
AcDbEntity
  8
LC-005-005-----0
 62
     7
370
    25
100
AcDbLine
 10
68.518563
 20
146.300309
 30
0.0
 11
70.268563
 21
148.050309
 31
0.0
  0
LINE
  5
14F
330
135
100
AcDbEntity
  8
LC-005-005-----0
 62
     7
370
    25
100
AcDbLine
 10
68.518563
 20
147.714523
 30
0.0
 11
70.268563
 21
149.464523
 31
0.0
  0
LINE
  5
150
330
135
100
AcDbEntity
  8
LC-005-005-----0
 62
     7
370
    25
100
AcDbLine
 10
68.518563
 20
149.128736
 30
0.0
 11
70.268563
 21
150.878736
 31
0.0
  0
LINE
  5
151
330
135
100
AcDbEntity
  8
LC-005-005-----0
 62
     7
370
    25
100
AcDbLine
 10
68.518563
 20
150.54295
 30
0.0
 11
70.268563
 21
152.29295
 31
0.0
  0
LINE
  5
152
330
135
100
AcDbEntity
  8
LC-005-005-----0
 62
     7
370
    25
100
AcDbLine
 10
68.518563
 20
151.957164
 30
0.0
 11
70.268563
 21
153.707164
 31
0.0
  0
LINE
  5
153
330
135
100
AcDbEntity
  8
LC-005-005-----0
 62
     7
370
    25
100
AcDbLine
 10
68.518563
 20
153.371377
 30
0.0
 11
71.018563
 21
155.871377
 31
0.0
  0
LINE
  5
154
330
135
100
AcDbEntity
  8
LC-005-005-----0
 62
     7
370
    25
100
AcDbLine
 10
68.518563
 20
154.785591
 30
0.0
 11
71.018563
 21
157.285591
 31
0.0
  0
LINE
  5
155
330
135
100
AcDbEntity
  8
LC-005-005-----0
 62
     7
370
    25
100
AcDbLine
 10
68.518563
 20
156.199804
 30
0.0
 11
70.921805
 21
158.603046
 31
0.0
  0
LINE
  5
156
330
135
100
AcDbEntity
  8
LC-005-005-----0
 62
     7
370
    25
100
AcDbLine
 10
68.518563
 20
157.614018
 30
0.0
 11
70.544428
 21
159.639882
 31
0.0
  0
LINE
  5
157
330
135
100
AcDbEntity
  8
LC-005-005-----0
 62
     7
370
    25
100
AcDbLine
 10
68.518563
 20
159.028231
 30
0.0
 11
69.327537
 21
159.837205
 31
0.0
  0
ENDBLK
  5
137
330
135
100
AcDbEntity
  8
0
100
AcDbBlockEnd
  0
BLOCK
  5
169
330
15D
100
AcDbEntity
  8
0
100
AcDbBlockBegin
  2
*D7
 70
     1
 71
     0
 10
0.0
 20
0.0
 30
0.0
  3
*D7
  1

  0
LINE
  5
15E
330
15D
100
AcDbEntity
  8
LC-001-003-----0
 62
     2
370
    -2
100
AcDbLine
 10
162.068563
 20
171.337205
 30
0.0
 11
199.6
 21
171.337205
 31
0.0
  0
LINE
  5
15F
330
15D
100
AcDbEntity
  8
LC-001-003-----0
 62
     2
370
    -2
100
AcDbLine
 10
159.482665
 20
115.837205
 30
0.0
 11
199.6
 21
115.837205
 31
0.0
  0
LINE
  5
160
330
15D
100
AcDbEntity
  8
LC-001-003-----0
 62
     2
370
    -2
100
AcDbLine
 10
196.0
 20
199.337205
 30
0.0
 11
196.0
 21
227.337205
 31
0.0
  0
LINE
  5
161
330
15D
100
AcDbEntity
  8
LC-001-003-----0
 62
     2
370
    -2
100
AcDbLine
 10
196.0
 20
87.837205
 30
0.0
 11
196.0
 21
59.837205
 31
0.0
  0
LINE
  5
162
330
15D
100
AcDbEntity
  8
LC-001-003-----0
 62
     2
370
    -2
100
AcDbLine
 10
196.0
 20
171.337205
 30
0.0
 11
196.0
 21
115.837205
 31
0.0
  0
SOLID
  5
163
330
15D
100
AcDbEntity
  8
LC-001-003-----0
 62
     2
100
AcDbTrace
 10
191.333333
 20
199.337205
 30
0.0
 11
200.666667
 21
199.337205
 31
0.0
 12
196.0
 22
171.337205
 32
0.0
 13
196.0
 23
171.337205
 33
0.0
  0
SOLID
  5
164
330
15D
100
AcDbEntity
  8
LC-001-003-----0
 62
     2
100
AcDbTrace
 10
200.666667
 20
87.837205
 30
0.0
 11
191.333333
 21
87.837205
 31
0.0
 12
196.0
 22
115.837205
 32
0.0
 13
196.0
 23
115.837205
 33
0.0
  0
MTEXT
  5
165
330
15D
100
AcDbEntity
  8
LC-001-003-----0
 62
     2
100
AcDbMText
 10
165.2
 20
143.587205
 30
0.0
 40
28.0
 41
0.0
 71
     5
 72
     1
  1
\A1;55
  7
LCTX15-400-0-0pDIN-Schrift
 11
6.123031769111886E-17
 21
1.0
 31
0.0
 73
     1
 44
1.0
  0
POINT
  5
166
330
15D
100
AcDbEntity
  8
Defpoints
 62
     0
100
AcDbPoint
 10
162.068563
 20
171.337205
 30
0.0
  0
POINT
  5
167
330
15D
100
AcDbEntity
  8
Defpoints
 62
     0
100
AcDbPoint
 10
159.482665
 20
115.837205
 30
0.0
  0
POINT
  5
168
330
15D
100
AcDbEntity
  8
Defpoints
 62
     0
100
AcDbPoint
 10
196.0
 20
115.837205
 30
0.0
  0
ENDBLK
  5
16A
330
15D
100
AcDbEntity
  8
0
100
AcDbBlockEnd
  0
BLOCK
  5
178
330
16E
100
AcDbEntity
  8
0
100
AcDbBlockBegin
  2
*D8
 70
     1
 71
     0
 10
0.0
 20
0.0
 30
0.0
  3
*D8
  1

  0
LINE
  5
16F
330
16E
100
AcDbEntity
  8
LC-001-003-----0
 62
     2
370
    -2
100
AcDbLine
 10
68.518563
 20
117.837205
 30
0.0
 11
68.518563
 21
74.8
 31
0.0
  0
LINE
  5
170
330
16E
100
AcDbEntity
  8
LC-001-003-----0
 62
     2
370
    -2
100
AcDbLine
 10
160.018563
 20
117.837205
 30
0.0
 11
160.018563
 21
74.8
 31
0.0
  0
LINE
  5
171
330
16E
100
AcDbEntity
  8
LC-001-003-----0
 62
     2
370
    -2
100
AcDbLine
 10
96.518563
 20
78.4
 30
0.0
 11
132.018563
 21
78.4
 31
0.0
  0
SOLID
  5
172
330
16E
100
AcDbEntity
  8
LC-001-003-----0
 62
     2
100
AcDbTrace
 10
96.518563
 20
83.066667
 30
0.0
 11
96.518563
 21
73.733333
 31
0.0
 12
68.518563
 22
78.4
 32
0.0
 13
68.518563
 23
78.4
 33
0.0
  0
SOLID
  5
173
330
16E
100
AcDbEntity
  8
LC-001-003-----0
 62
     2
100
AcDbTrace
 10
132.018563
 20
73.733333
 30
0.0
 11
132.018563
 21
83.066667
 31
0.0
 12
160.018563
 22
78.4
 32
0.0
 13
160.018563
 23
78.4
 33
0.0
  0
MTEXT
  5
174
330
16E
100
AcDbEntity
  8
LC-001-003-----0
 62
     2
100
AcDbMText
 10
114.268563
 20
109.2
 30
0.0
 40
28.0
 41
0.0
 71
     5
 72
     1
  1
%%c\A1;91,5
  7
LCTX15-400-0-0pDIN-Schrift
 73
     1
 44
1.0
  0
POINT
  5
175
330
16E
100
AcDbEntity
  8
Defpoints
 62
     0
100
AcDbPoint
 10
68.518563
 20
117.837205
 30
0.0
  0
POINT
  5
176
330
16E
100
AcDbEntity
  8
Defpoints
 62
     0
100
AcDbPoint
 10
160.018563
 20
117.837205
 30
0.0
  0
POINT
  5
177
330
16E
100
AcDbEntity
  8
Defpoints
 62
     0
100
AcDbPoint
 10
160.018563
 20
78.4
 30
0.0
  0
ENDBLK
  5
179
330
16E
100
AcDbEntity
  8
0
100
AcDbBlockEnd
  0
BLOCK
  5
184
330
183
100
AcDbEntity
  8
0
100
AcDbBlockBegin
  2
*X59
 70
     1
 71
     0
 10
0.0
 20
0.0
 30
0.0
  3
*X59
  1

  4
*X5
  0
LINE
  5
186
330
183
100
AcDbEntity
  8
LC-005-005-----0
 62
     7
370
    25
100
AcDbLine
 10
112.396985
 20
166.1371
 30
0.0
 11
114.268563
 21
168.008679
 31
0.0
  0
LINE
  5
187
330
183
100
AcDbEntity
  8
LC-005-005-----0
 62
     7
370
    25
100
AcDbLine
 10
109.568558
 20
166.1371
 30
0.0
 11
114.068558
 21
170.6371
 31
0.0
  0
LINE
  5
188
330
183
100
AcDbEntity
  8
LC-005-005-----0
 62
     7
370
    25
100
AcDbLine
 10
106.740131
 20
166.1371
 30
0.0
 11
111.240131
 21
170.6371
 31
0.0
  0
LINE
  5
189
330
183
100
AcDbEntity
  8
LC-005-005-----0
 62
     7
370
    25
100
AcDbLine
 10
103.911704
 20
166.1371
 30
0.0
 11
108.411704
 21
170.6371
 31
0.0
  0
LINE
  5
18A
330
183
100
AcDbEntity
  8
LC-005-005-----0
 62
     7
370
    25
100
AcDbLine
 10
101.083277
 20
166.1371
 30
0.0
 11
105.583277
 21
170.6371
 31
0.0
  0
LINE
  5
18B
330
183
100
AcDbEntity
  8
LC-005-005-----0
 62
     7
370
    25
100
AcDbLine
 10
98.254849
 20
166.1371
 30
0.0
 11
102.754849
 21
170.6371
 31
0.0
  0
LINE
  5
18C
330
183
100
AcDbEntity
  8
LC-005-005-----0
 62
     7
370
    25
100
AcDbLine
 10
95.426422
 20
166.1371
 30
0.0
 11
99.926422
 21
170.6371
 31
0.0
  0
LINE
  5
18D
330
183
100
AcDbEntity
  8
LC-005-005-----0
 62
     7
370
    25
100
AcDbLine
 10
92.597995
 20
166.1371
 30
0.0
 11
97.097995
 21
170.6371
 31
0.0
  0
LINE
  5
18E
330
183
100
AcDbEntity
  8
LC-005-005-----0
 62
     7
370
    25
100
AcDbLine
 10
89.769568
 20
166.1371
 30
0.0
 11
94.269568
 21
170.6371
 31
0.0
  0
LINE
  5
18F
330
183
100
AcDbEntity
  8
LC-005-005-----0
 62
     7
370
    25
100
AcDbLine
 10
86.941141
 20
166.1371
 30
0.0
 11
91.441141
 21
170.6371
 31
0.0
  0
LINE
  5
190
330
183
100
AcDbEntity
  8
LC-005-005-----0
 62
     7
370
    25
100
AcDbLine
 10
84.112714
 20
166.1371
 30
0.0
 11
88.612714
 21
170.6371
 31
0.0
  0
LINE
  5
191
330
183
100
AcDbEntity
  8
LC-005-005-----0
 62
     7
370
    25
100
AcDbLine
 10
81.284287
 20
166.1371
 30
0.0
 11
85.784287
 21
170.6371
 31
0.0
  0
LINE
  5
192
330
183
100
AcDbEntity
  8
LC-005-005-----0
 62
     7
370
    25
100
AcDbLine
 10
78.45586
 20
166.1371
 30
0.0
 11
82.95586
 21
170.6371
 31
0.0
  0
LINE
  5
193
330
183
100
AcDbEntity
  8
LC-005-005-----0
 62
     7
370
    25
100
AcDbLine
 10
75.627432
 20
166.1371
 30
0.0
 11
80.127432
 21
170.6371
 31
0.0
  0
LINE
  5
194
330
183
100
AcDbEntity
  8
LC-005-005-----0
 62
     7
370
    25
100
AcDbLine
 10
72.799005
 20
166.1371
 30
0.0
 11
77.299005
 21
170.6371
 31
0.0
  0
LINE
  5
195
330
183
100
AcDbEntity
  8
LC-005-005-----0
 62
     7
370
    25
100
AcDbLine
 10
69.970578
 20
166.1371
 30
0.0
 11
74.470578
 21
170.6371
 31
0.0
  0
LINE
  5
196
330
183
100
AcDbEntity
  8
LC-005-005-----0
 62
     7
370
    25
100
AcDbLine
 10
68.768324
 20
167.763274
 30
0.0
 11
71.642151
 21
170.6371
 31
0.0
  0
ENDBLK
  5
185
330
183
100
AcDbEntity
  8
0
100
AcDbBlockEnd
  0
BLOCK
  5
199
330
198
100
AcDbEntity
  8
0
100
AcDbBlockBegin
  2
*X610
 70
     1
 71
     0
 10
0.0
 20
0.0
 30
0.0
  3
*X610
  1

  4
*X6
  0
LINE
  5
19B
330
198
100
AcDbEntity
  8
LC-005-005-----0
 62
     7
370
    25
100
AcDbLine
 10
157.651819
 20
166.1371
 30
0.0
 11
159.768803
 21
168.254084
 31
0.0
  0
LINE
  5
19C
330
198
100
AcDbEntity
  8
LC-005-005-----0
 62
     7
370
    25
100
AcDbLine
 10
154.823392
 20
166.1371
 30
0.0
 11
158.942665
 21
170.256374
 31
0.0
  0
LINE
  5
19D
330
198
100
AcDbEntity
  8
LC-005-005-----0
 62
     7
370
    25
100
AcDbLine
 10
151.994965
 20
166.1371
 30
0.0
 11
156.494965
 21
170.6371
 31
0.0
  0
LINE
  5
19E
330
198
100
AcDbEntity
  8
LC-005-005-----0
 62
     7
370
    25
100
AcDbLine
 10
149.166538
 20
166.1371
 30
0.0
 11
153.666538
 21
170.6371
 31
0.0
  0
LINE
  5
19F
330
198
100
AcDbEntity
  8
LC-005-005-----0
 62
     7
370
    25
100
AcDbLine
 10
146.338111
 20
166.1371
 30
0.0
 11
150.838111
 21
170.6371
 31
0.0
  0
LINE
  5
1A0
330
198
100
AcDbEntity
  8
LC-005-005-----0
 62
     7
370
    25
100
AcDbLine
 10
143.509683
 20
166.1371
 30
0.0
 11
148.009683
 21
170.6371
 31
0.0
  0
LINE
  5
1A1
330
198
100
AcDbEntity
  8
LC-005-005-----0
 62
     7
370
    25
100
AcDbLine
 10
140.681256
 20
166.1371
 30
0.0
 11
145.181256
 21
170.6371
 31
0.0
  0
LINE
  5
1A2
330
198
100
AcDbEntity
  8
LC-005-005-----0
 62
     7
370
    25
100
AcDbLine
 10
137.852829
 20
166.1371
 30
0.0
 11
142.352829
 21
170.6371
 31
0.0
  0
LINE
  5
1A3
330
198
100
AcDbEntity
  8
LC-005-005-----0
 62
     7
370
    25
100
AcDbLine
 10
135.024402
 20
166.1371
 30
0.0
 11
139.524402
 21
170.6371
 31
0.0
  0
LINE
  5
1A4
330
198
100
AcDbEntity
  8
LC-005-005-----0
 62
     7
370
    25
100
AcDbLine
 10
132.195975
 20
166.1371
 30
0.0
 11
136.695975
 21
170.6371
 31
0.0
  0
LINE
  5
1A5
330
198
100
AcDbEntity
  8
LC-005-005-----0
 62
     7
370
    25
100
AcDbLine
 10
129.367548
 20
166.1371
 30
0.0
 11
133.867548
 21
170.6371
 31
0.0
  0
LINE
  5
1A6
330
198
100
AcDbEntity
  8
LC-005-005-----0
 62
     7
370
    25
100
AcDbLine
 10
126.539121
 20
166.1371
 30
0.0
 11
131.039121
 21
170.6371
 31
0.0
  0
LINE
  5
1A7
330
198
100
AcDbEntity
  8
LC-005-005-----0
 62
     7
370
    25
100
AcDbLine
 10
123.710694
 20
166.1371
 30
0.0
 11
128.210694
 21
170.6371
 31
0.0
  0
LINE
  5
1A8
330
198
100
AcDbEntity
  8
LC-005-005-----0
 62
     7
370
    25
100
AcDbLine
 10
120.882266
 20
166.1371
 30
0.0
 11
125.382266
 21
170.6371
 31
0.0
  0
LINE
  5
1A9
330
198
100
AcDbEntity
  8
LC-005-005-----0
 62
     7
370
    25
100
AcDbLine
 10
118.053839
 20
166.1371
 30
0.0
 11
122.553839
 21
170.6371
 31
0.0
  0
LINE
  5
1AA
330
198
100
AcDbEntity
  8
LC-005-005-----0
 62
     7
370
    25
100
AcDbLine
 10
115.225412
 20
166.1371
 30
0.0
 11
119.725412
 21
170.6371
 31
0.0
  0
LINE
  5
1AB
330
198
100
AcDbEntity
  8
LC-005-005-----0
 62
     7
370
    25
100
AcDbLine
 10
114.268563
 20
168.008679
 30
0.0
 11
116.896985
 21
170.6371
 31
0.0
  0
ENDBLK
  5
19A
330
198
100
AcDbEntity
  8
0
100
AcDbBlockEnd
  0
ENDSEC
  0
SECTION
  2
ENTITIES
  0
DIMENSION
  5
34
330
1F
100
AcDbEntity
  8
LC-001-003-----0
 62
     7
370
    25
100
AcDbDimension
  2
*D1
 10
39.2
 20
164.137205
 30
0.0
 11
8.4
 21
130.086
 31
0.0
 70
   160
  1
7
 71
     5
 42
7.2
 53
90.0
  3
LC-DIM-L-0140-02-02
100
AcDbAlignedDimension
 13
65.968563
 23
171.337205
 33
0.0
 14
63.768563
 24
164.137205
 34
0.0
 50
90.0
100
AcDbRotatedDimension
  0
LINE
  5
44
330
1F
100
AcDbEntity
  8
LC-002-002-----0
 62
     7
370
    25
100
AcDbLine
 10
91.985984
 20
223.660672
 30
0.0
 11
91.985984
 21
208.660672
 31
0.0
  0
ARC
  5
46
330
1F
100
AcDbEntity
  8
LC-003-002-RND-0
 62
     7
370
    50
100
AcDbCircle
 10
353.518563
 20
100.237205
 30
0.0
 40
2.5
100
AcDbArc
 50
270.0
 51
0.0
  0
ARC
  5
47
330
1F
100
AcDbEntity
  8
LC-003-002-RND-0
 62
     7
370
    50
100
AcDbCircle
 10
353.518563
 20
186.237205
 30
0.0
 40
2.5
100
AcDbArc
 50
0.0
 51
90.0
  0
ARC
  5
48
330
1F
100
AcDbEntity
  8
LC-003-002-RND-0
 62
     7
370
    50
100
AcDbCircle
 10
267.518563
 20
186.237205
 30
0.0
 40
2.5
100
AcDbArc
 50
90.0
 51
180.0
  0
ARC
  5
49
330
1F
100
AcDbEntity
  8
LC-003-002-RND-0
 62
     7
370
    50
100
AcDbCircle
 10
267.518563
 20
100.237205
 30
0.0
 40
2.5
100
AcDbArc
 50
180.0
 51
270.0
  0
DIMENSION
  5
4A
330
1F
100
AcDbEntity
  8
LC-001-003-----0
 62
     7
370
    25
100
AcDbDimension
  2
*D2
 10
164.268563
 20
196.0
 30
0.0
 11
114.268563
 21
226.8
 31
0.0
 70
   160
 71
     5
 42
100.0
  3
LC-DIM-L-0140-02-02
100
AcDbAlignedDimension
 13
64.268563
 23
169.637205
 33
0.0
 14
164.268563
 24
169.637205
 34
0.0
100
AcDbRotatedDimension
  0
LINE
  5
57
330
1F
100
AcDbEntity
  8
LC-002-002-----0
 62
     7
370
    50
100
AcDbLine
 10
159.76856
 20
166.1371
 30
0.0
 11
68.768324
 21
166.1371
 31
0.0
  0
LINE
  5
58
102
{ACAD_REACTORS
330
23F
102
}
330
1F
100
AcDbEntity
  8
LC-002-002-----0
 62
     7
370
    50
100
AcDbLine
 10
68.518563
 20
159.837205
 30
0.0
 11
68.518563
 21
117.837205
 31
0.0
  0
LINE
  5
59
330
1F
100
AcDbEntity
  8
LC-002-002-----0
 62
     7
370
    25
100
AcDbLine
 10
76.985984
 20
208.660672
 30
0.0
 11
91.985984
 21
208.660672
 31
0.0
  0
LINE
  5
5A
330
1F
100
AcDbEntity
  8
LC-002-002-----0
 62
     7
370
    25
100
AcDbLine
 10
76.985984
 20
223.660672
 30
0.0
 11
76.985984
 21
208.660672
 31
0.0
  0
LINE
  5
5B
330
1F
100
AcDbEntity
  8
LC-002-002-----0
 62
     7
370
    50
100
AcDbLine
 10
158.195317
 20
153.763589
 30
0.0
 11
157.03241
 21
150.568526
 31
0.0
  0
LINE
  5
5C
330
1F
100
AcDbEntity
  8
LC-002-002-----0
 62
     7
370
    50
100
AcDbLine
 10
157.586378
 20
154.137205
 30
0.0
 11
156.418285
 21
150.927895
 31
0.0
  0
ARC
  5
5D
330
1F
100
AcDbEntity
  8
LC-002-002-----0
 62
     7
370
    50
100
AcDbCircle
 10
157.443563
 20
154.037205
 30
0.0
 40
0.800000000000787
100
AcDbArc
 50
340.0
 51
88.209215
  0
LINE
  5
5F
330
1F
100
AcDbEntity
  8
LC-004-001-----0
 62
     7
370
    50
100
AcDbLine
 10
157.468563
 20
159.337205
 30
0.0
 11
157.468563
 21
154.837205
 31
0.0
  0
ARC
  5
60
330
1F
100
AcDbEntity
  8
LC-004-001-----0
 62
     7
370
    50
100
AcDbCircle
 10
157.968563
 20
159.337205
 30
0.0
 40
0.5
100
AcDbArc
 50
90.0
 51
180.0
  0
LINE
  5
61
330
1F
100
AcDbEntity
  8
LC-004-001-----0
 62
     7
370
    50
100
AcDbLine
 10
159.368563
 20
160.537205
 30
0.0
 11
157.968563
 21
160.537205
 31
0.0
  0
LINE
  5
62
330
1F
100
AcDbEntity
  8
LC-004-001-----0
 62
     7
370
    50
100
AcDbLine
 10
157.968563
 20
159.837205
 30
0.0
 11
159.368563
 21
159.837205
 31
0.0
  0
ARC
  5
63
330
1F
100
AcDbEntity
  8
LC-004-001-----0
 62
     7
370
    50
100
AcDbCircle
 10
159.368563
 20
161.537205
 30
0.0
 40
1.0
100
AcDbArc
 50
270.0
 51
0.0
  0
ARC
  5
64
330
1F
100
AcDbEntity
  8
LC-004-001-----0
 62
     7
370
    50
100
AcDbCircle
 10
159.368563
 20
161.537205
 30
0.0
 40
1.700000000000046
100
AcDbArc
 50
270.0
 51
0.0
  0
INSERT
  5
75
330
1F
100
AcDbEntity
  8
LC-005-005-----0
 62
     7
370
    25
100
AcDbBlockReference
  2
*X13
 10
0.0
 20
0.0
 30
0.0
  0
LINE
  5
76
330
1F
100
AcDbEntity
  8
LC-002-002-----0
 62
     7
370
    50
100
AcDbLine
 10
68.768324
 20
166.1371
 30
0.0
 11
68.768324
 21
168.6371
 31
0.0
  0
ARC
  5
77
330
1F
100
AcDbEntity
  8
LC-002-002-----0
 62
     7
370
    50
100
AcDbCircle
 10
70.768324
 20
168.6371
 30
0.0
 40
2.00000000000005
100
AcDbArc
 50
89.999981
 51
180.0
  0
LINE
  5
78
330
1F
100
AcDbEntity
  8
LC-002-002-----0
 62
     7
370
    50
100
AcDbLine
 10
70.768324
 20
170.6371
 30
0.0
 11
73.768324
 21
170.6371
 31
0.0
  0
LINE
  5
79
102
{ACAD_REACTORS
330
242
102
}
330
1F
100
AcDbEntity
  8
LC-004-001-----0
 62
     7
370
    50
100
AcDbLine
 10
159.368563
 20
165.637205
 30
0.0
 11
114.268563
 21
165.637205
 31
0.0
  0
LINE
  5
7A
102
{ACAD_REACTORS
330
242
102
}
330
1F
100
AcDbEntity
  8
LC-004-001-----0
 62
     7
370
    50
100
AcDbLine
 10
157.968563
 20
160.537205
 30
0.0
 11
114.268563
 21
160.537205
 31
0.0
  0
LINE
  5
7B
102
{ACAD_REACTORS
330
242
102
}
330
1F
100
AcDbEntity
  8
LC-004-001-----0
 62
     7
370
    50
100
AcDbLine
 10
159.368563
 20
164.937205
 30
0.0
 11
114.268563
 21
164.937205
 31
0.0
  0
LINE
  5
7C
102
{ACAD_REACTORS
330
242
102
}
330
1F
100
AcDbEntity
  8
LC-004-001-----0
 62
     7
370
    50
100
AcDbLine
 10
156.768563
 20
159.337205
 30
0.0
 11
156.768563
 21
154.137205
 31
0.0
  0
LINE
  5
7D
102
{ACAD_REACTORS
330
242
102
}
330
1F
100
AcDbEntity
  8
LC-004-001-----0
 62
     7
370
    50
100
AcDbLine
 10
160.368563
 20
169.637205
 30
0.0
 11
160.368563
 21
166.637205
 31
0.0
  0
LINE
  5
7E
102
{ACAD_REACTORS
330
242
102
}
330
1F
100
AcDbEntity
  8
LC-004-001-----0
 62
     7
370
    50
100
AcDbLine
 10
161.068563
 20
169.637205
 30
0.0
 11
161.068563
 21
163.137205
 31
0.0
  0
LINE
  5
7F
102
{ACAD_REACTORS
330
242
102
}
330
1F
100
AcDbEntity
  8
LC-004-001-----0
 62
     7
370
    50
100
AcDbLine
 10
161.068563
 20
163.137205
 30
0.0
 11
161.068563
 21
161.537205
 31
0.0
  0
LINE
  5
80
102
{ACAD_REACTORS
330
242
102
}
330
1F
100
AcDbEntity
  8
LC-004-001-----0
 62
     7
370
    50
100
AcDbLine
 10
160.368563
 20
166.637205
 30
0.0
 11
160.368563
 21
161.537205
 31
0.0
  0
ARC
  5
81
102
{ACAD_REACTORS
330
242
102
}
330
1F
100
AcDbEntity
  8
LC-004-001-----0
 62
     7
370
    50
100
AcDbCircle
 10
159.368563
 20
166.637205
 30
0.0
 40
1.700000000000046
100
AcDbArc
 50
270.0
 51
306.031879
  0
ARC
  5
82
102
{ACAD_REACTORS
330
242
102
}
330
1F
100
AcDbEntity
  8
LC-004-001-----0
 62
     7
370
    50
100
AcDbCircle
 10
159.368563
 20
166.637205
 30
0.0
 40
1.0
100
AcDbArc
 50
270.0
 51
0.0
  0
ARC
  5
83
102
{ACAD_REACTORS
330
242
102
}
330
1F
100
AcDbEntity
  8
LC-004-001-----0
 62
     7
370
    50
100
AcDbCircle
 10
157.968563
 20
159.337205
 30
0.0
 40
1.200000000000046
100
AcDbArc
 50
90.0
 51
180.0
  0
LINE
  5
84
102
{ACAD_REACTORS
330
242
102
}
330
1F
100
AcDbEntity
  8
LC-004-001-----0
 62
     7
370
    50
100
AcDbLine
 10
162.068563
 20
170.637205
 30
0.0
 11
162.568563
 21
170.637205
 31
0.0
  0
LINE
  5
85
102
{ACAD_REACTORS
330
242
102
}
330
1F
100
AcDbEntity
  8
LC-004-001-----0
 62
     7
370
    50
100
AcDbLine
 10
162.068563
 20
171.337205
 30
0.0
 11
162.568563
 21
171.337205
 31
0.0
  0
LINE
  5
86
102
{ACAD_REACTORS
330
242
102
}
330
1F
100
AcDbEntity
  8
LC-004-001-----0
 62
     7
370
    50
100
AcDbLine
 10
164.768563
 20
164.137205
 30
0.0
 11
161.068563
 21
164.137205
 31
0.0
  0
ARC
  5
87
102
{ACAD_REACTORS
330
242
102
}
330
1F
100
AcDbEntity
  8
LC-004-001-----0
 62
     7
370
    50
100
AcDbCircle
 10
162.568563
 20
169.637205
 30
0.0
 40
1.0
100
AcDbArc
 50
0.0
 51
90.0
  0
ARC
  5
88
102
{ACAD_REACTORS
330
242
102
}
330
1F
100
AcDbEntity
  8
LC-004-001-----0
 62
     7
370
    50
100
AcDbCircle
 10
162.568563
 20
169.637205
 30
0.0
 40
1.700000000000046
100
AcDbArc
 50
0.0
 51
90.0
  0
LINE
  5
89
102
{ACAD_REACTORS
330
242
102
}
330
1F
100
AcDbEntity
  8
LC-004-001-----0
 62
     7
370
    50
100
AcDbLine
 10
164.268563
 20
169.637205
 30
0.0
 11
164.268563
 21
166.096797
 31
0.0
  0
LINE
  5
8A
102
{ACAD_REACTORS
330
242
102
}
330
1F
100
AcDbEntity
  8
LC-004-001-----0
 62
     7
370
    50
100
AcDbLine
 10
163.568563
 20
166.096797
 30
0.0
 11
163.568563
 21
169.637205
 31
0.0
  0
ARC
  5
8B
102
{ACAD_REACTORS
330
242
102
}
330
1F
100
AcDbEntity
  8
LC-004-001-----0
 62
     7
370
    50
100
AcDbCircle
 10
162.068563
 20
169.637205
 30
0.0
 40
1.0
100
AcDbArc
 50
90.0
 51
180.0
  0
ARC
  5
8C
102
{ACAD_REACTORS
330
242
102
}
330
1F
100
AcDbEntity
  8
LC-004-001-----0
 62
     7
370
    50
100
AcDbCircle
 10
162.068563
 20
169.637205
 30
0.0
 40
1.0
100
AcDbArc
 50
90.0
 51
180.0
  0
ARC
  5
8D
102
{ACAD_REACTORS
330
242
102
}
330
1F
100
AcDbEntity
  8
LC-004-001-----0
 62
     7
370
    50
100
AcDbCircle
 10
162.068563
 20
169.637205
 30
0.0
 40
1.700000000000046
100
AcDbArc
 50
90.0
 51
180.0
  0
LINE
  5
8E
102
{ACAD_REACTORS
330
242
102
}
330
1F
100
AcDbEntity
  8
LC-002-002-----0
 62
     7
370
    50
100
AcDbLine
 10
157.03241
 20
150.568526
 30
0.0
 11
156.418285
 21
150.927895
 31
0.0
  0
LINE
  5
8F
102
{ACAD_REACTORS
330
240
102
}
330
1F
100
AcDbEntity
  8
LC-004-001-----0
 62
     7
370
    50
100
AcDbLine
 10
69.168563
 20
165.637205
 30
0.0
 11
114.268563
 21
165.637205
 31
0.0
  0
ARC
  5
90
102
{ACAD_REACTORS
330
242
102
}
330
1F
100
AcDbEntity
  8
LC-002-002-----0
 62
     7
370
    50
100
AcDbCircle
 10
165.768563
 20
166.096797
 30
0.0
 40
2.199999999999932
100
AcDbArc
 50
180.0
 51
242.964308
  0
LINE
  5
91
102
{ACAD_REACTORS
330
242
102
}
330
1F
100
AcDbEntity
  8
LC-002-002-----0
 62
     7
370
    50
100
AcDbLine
 10
157.586378
 20
154.137205
 30
0.0
 11
156.418285
 21
150.927895
 31
0.0
  0
LINE
  5
92
102
{ACAD_REACTORS
330
242
102
}
330
1F
100
AcDbEntity
  8
LC-002-002-----0
 62
     7
370
    50
100
AcDbLine
 10
114.268563
 20
154.137205
 30
0.0
 11
157.586378
 21
154.137205
 31
0.0
  0
LINE
  5
93
102
{ACAD_REACTORS
330
242
102
}
330
1F
100
AcDbEntity
  8
LC-002-002-----0
 62
     7
370
    50
100
AcDbLine
 10
164.768563
 20
164.978763
 30
0.0
 11
164.768563
 21
164.137205
 31
0.0
  0
LINE
  5
94
102
{ACAD_REACTORS
330
242
102
}
330
1F
100
AcDbEntity
  8
LC-002-002-----0
 62
     7
370
    50
100
AcDbLine
 10
157.03241
 20
150.568526
 30
0.0
 11
114.268563
 21
150.568526
 31
0.0
  0
LINE
  5
95
102
{ACAD_REACTORS
330
240
102
}
330
1F
100
AcDbEntity
  8
LC-004-001-----0
 62
     7
370
    50
100
AcDbLine
 10
70.568563
 20
160.537205
 30
0.0
 11
114.268563
 21
160.537205
 31
0.0
  0
LINE
  5
96
102
{ACAD_REACTORS
330
242
102
}
330
1F
100
AcDbEntity
  8
LC-002-002-----0
 62
     7
370
    50
100
AcDbLine
 10
156.418285
 20
150.927895
 30
0.0
 11
114.268563
 21
150.927895
 31
0.0
  0
LINE
  5
97
102
{ACAD_REACTORS
330
240
102
}
330
1F
100
AcDbEntity
  8
LC-004-001-----0
 62
     7
370
    50
100
AcDbLine
 10
69.168563
 20
164.937205
 30
0.0
 11
114.268563
 21
164.937205
 31
0.0
  0
LINE
  5
98
102
{ACAD_REACTORS
330
240
102
}
330
1F
100
AcDbEntity
  8
LC-004-001-----0
 62
     7
370
    50
100
AcDbLine
 10
71.068563
 20
159.337205
 30
0.0
 11
71.068563
 21
154.837205
 31
0.0
  0
LINE
  5
99
102
{ACAD_REACTORS
330
240
102
}
330
1F
100
AcDbEntity
  8
LC-004-001-----0
 62
     7
370
    50
100
AcDbLine
 10
71.768563
 20
159.337205
 30
0.0
 11
71.768563
 21
154.137205
 31
0.0
  0
LINE
  5
9A
102
{ACAD_REACTORS
330
240
102
}
330
1F
100
AcDbEntity
  8
LC-004-001-----0
 62
     7
370
    50
100
AcDbLine
 10
68.168563
 20
169.637205
 30
0.0
 11
68.168563
 21
166.637205
 31
0.0
  0
LINE
  5
9B
102
{ACAD_REACTORS
330
240
102
}
330
1F
100
AcDbEntity
  8
LC-004-001-----0
 62
     7
370
    50
100
AcDbLine
 10
67.468563
 20
169.637205
 30
0.0
 11
67.468563
 21
163.137205
 31
0.0
  0
ARC
  5
9C
102
{ACAD_REACTORS
330
240
102
}
330
1F
100
AcDbEntity
  8
LC-004-001-----0
 62
     7
370
    50
100
AcDbCircle
 10
70.568563
 20
159.337205
 30
0.0
 40
0.5
100
AcDbArc
 50
0.0
 51
90.0
  0
ARC
  5
9D
102
{ACAD_REACTORS
330
242
102
}
330
1F
100
AcDbEntity
  8
LC-002-002-----0
 62
     7
370
    50
100
AcDbCircle
 10
165.768563
 20
166.096797
 30
0.0
 40
1.500000000000227
100
AcDbArc
 50
180.0
 51
228.189685
  0
LINE
  5
9E
102
{ACAD_REACTORS
330
240
102
}
330
1F
100
AcDbEntity
  8
LC-004-001-----0
 62
     7
370
    50
100
AcDbLine
 10
67.468563
 20
163.137205
 30
0.0
 11
67.468563
 21
161.537205
 31
0.0
  0
LINE
  5
9F
330
1F
100
AcDbEntity
  8
LC-002-002-----0
 62
     7
370
    50
100
AcDbLine
 10
73.768324
 20
170.6371
 30
0.0
 11
82.768324
 21
170.6371
 31
0.0
  0
ARC
  5
A0
102
{ACAD_REACTORS
330
240
102
}
330
1F
100
AcDbEntity
  8
LC-004-001-----0
 62
     7
370
    50
100
AcDbCircle
 10
69.168563
 20
161.537205
 30
0.0
 40
1.0
100
AcDbArc
 50
180.0
 51
270.0
  0
LINE
  5
A1
102
{ACAD_REACTORS
330
240
102
}
330
1F
100
AcDbEntity
  8
LC-004-001-----0
 62
     7
370
    50
100
AcDbLine
 10
69.168563
 20
159.837205
 30
0.0
 11
70.568563
 21
159.837205
 31
0.0
  0
LINE
  5
A2
102
{ACAD_REACTORS
330
240
102
}
330
1F
100
AcDbEntity
  8
LC-004-001-----0
 62
     7
370
    50
100
AcDbLine
 10
69.168563
 20
160.537205
 30
0.0
 11
70.568563
 21
160.537205
 31
0.0
  0
LINE
  5
A3
102
{ACAD_REACTORS
330
240
102
}
330
1F
100
AcDbEntity
  8
LC-004-001-----0
 62
     7
370
    50
100
AcDbLine
 10
68.168563
 20
166.637205
 30
0.0
 11
68.168563
 21
161.537205
 31
0.0
  0
ARC
  5
A4
102
{ACAD_REACTORS
330
240
102
}
330
1F
100
AcDbEntity
  8
LC-004-001-----0
 62
     7
370
    50
100
AcDbCircle
 10
69.168563
 20
166.637205
 30
0.0
 40
1.700000000000086
100
AcDbArc
 50
233.968121
 51
270.0
  0
ARC
  5
A5
102
{ACAD_REACTORS
330
240
102
}
330
1F
100
AcDbEntity
  8
LC-004-001-----0
 62
     7
370
    50
100
AcDbCircle
 10
69.168563
 20
166.637205
 30
0.0
 40
1.0
100
AcDbArc
 50
180.0
 51
270.0
  0
ARC
  5
A6
102
{ACAD_REACTORS
330
240
102
}
330
1F
100
AcDbEntity
  8
LC-004-001-----0
 62
     7
370
    50
100
AcDbCircle
 10
70.568563
 20
159.337205
 30
0.0
 40
1.200000000000046
100
AcDbArc
 50
360.0
 51
90.0
  0
ARC
  5
A7
102
{ACAD_REACTORS
330
240
102
}
330
1F
100
AcDbEntity
  8
LC-004-001-----0
 62
     7
370
    50
100
AcDbCircle
 10
69.168563
 20
161.537205
 30
0.0
 40
1.700000000000046
100
AcDbArc
 50
180.0
 51
270.0
  0
LINE
  5
A8
102
{ACAD_REACTORS
330
240
102
}
330
1F
100
AcDbEntity
  8
LC-004-001-----0
 62
     7
370
    50
100
AcDbLine
 10
66.468563
 20
170.637205
 30
0.0
 11
65.968563
 21
170.637205
 31
0.0
  0
LINE
  5
A9
330
1F
100
AcDbEntity
  8
LC-002-002-----0
 62
     7
370
    50
100
AcDbLine
 10
82.768324
 20
170.6371
 30
0.0
 11
85.768324
 21
170.6371
 31
0.0
  0
LINE
  5
AA
330
1F
100
AcDbEntity
  8
LC-002-002-----0
 62
     7
370
    50
100
AcDbLine
 10
85.768325
 20
170.6371
 30
0.0
 11
94.768324
 21
170.6371
 31
0.0
  0
LINE
  5
AB
330
1F
100
AcDbEntity
  8
LC-002-002-----0
 62
     7
370
    50
100
AcDbLine
 10
97.768324
 20
170.6371
 30
0.0
 11
106.768324
 21
170.6371
 31
0.0
  0
LINE
  5
AC
330
1F
100
AcDbEntity
  8
LC-002-002-----0
 62
     7
370
    50
100
AcDbLine
 10
106.768324
 20
170.6371
 30
0.0
 11
114.268324
 21
170.6371
 31
0.0
  0
LINE
  5
AD
330
1F
100
AcDbEntity
  8
LC-002-002-----0
 62
     7
370
    50
100
AcDbLine
 10
94.768324
 20
170.6371
 30
0.0
 11
97.768324
 21
170.6371
 31
0.0
  0
LINE
  5
AE
102
{ACAD_REACTORS
330
240
102
}
330
1F
100
AcDbEntity
  8
LC-004-001-----0
 62
     7
370
    50
100
AcDbLine
 10
66.468563
 20
171.337205
 30
0.0
 11
65.968563
 21
171.337205
 31
0.0
  0
LINE
  5
AF
102
{ACAD_REACTORS
330
240
102
}
330
1F
100
AcDbEntity
  8
LC-004-001-----0
 62
     7
370
    50
100
AcDbLine
 10
63.768563
 20
164.137205
 30
0.0
 11
67.468563
 21
164.137205
 31
0.0
  0
LINE
  5
B0
330
1F
100
AcDbEntity
  8
LC-002-002-----0
 62
     7
370
    50
100
AcDbLine
 10
267.518563
 20
188.737205
 30
0.0
 11
353.518563
 21
188.737205
 31
0.0
  0
LINE
  5
B1
330
1F
100
AcDbEntity
  8
LC-002-002-----0
 62
     7
370
    50
100
AcDbLine
 10
356.018563
 20
186.237205
 30
0.0
 11
356.018563
 21
100.237205
 31
0.0
  0
LINE
  5
B2
330
1F
100
AcDbEntity
  8
LC-002-002-----0
 62
     7
370
    50
100
AcDbLine
 10
353.518563
 20
97.737205
 30
0.0
 11
267.518563
 21
97.737205
 31
0.0
  0
LINE
  5
B3
330
1F
100
AcDbEntity
  8
LC-002-002-----0
 62
     7
370
    50
100
AcDbLine
 10
265.018563
 20
100.237205
 30
0.0
 11
265.018563
 21
186.237205
 31
0.0
  0
LINE
  5
B4
330
1F
100
AcDbEntity
  8
LC-004-001-----0
 62
     7
370
    50
100
AcDbLine
 10
356.618563
 20
99.937205
 30
0.0
 11
356.618563
 21
186.537205
 31
0.0
  0
ARC
  5
B5
330
1F
100
AcDbEntity
  8
LC-002-002-----0
 62
     7
370
    50
100
AcDbCircle
 10
355.018563
 20
98.737205
 30
0.0
 40
5.5
100
AcDbArc
 50
270.0
 51
0.0
  0
ARC
  5
B6
330
1F
100
AcDbEntity
  8
LC-004-001-----0
 62
     7
370
    50
100
AcDbCircle
 10
353.818563
 20
186.537205
 30
0.0
 40
2.800000000000068
100
AcDbArc
 50
0.0
 51
90.0
  0
ARC
  5
B7
330
1F
100
AcDbEntity
  8
LC-004-001-----0
 62
     7
370
    50
100
AcDbCircle
 10
355.018563
 20
98.737205
 30
0.0
 40
6.0
100
AcDbArc
 50
270.0
 51
0.0
  0
ARC
  5
B9
330
1F
100
AcDbEntity
  8
LC-006-001-RND-0
 62
     7
370
    50
100
AcDbCircle
 10
353.818563
 20
99.937205
 30
0.0
 40
2.800000000000068
100
AcDbArc
 50
270.0
 51
0.0
  0
LINE
  5
BA
330
1F
100
AcDbEntity
  8
LC-002-002-----0
 62
     7
370
    50
100
AcDbLine
 10
266.018563
 20
93.237205
 30
0.0
 11
355.018563
 21
93.237205
 31
0.0
  0
LINE
  5
BB
330
1F
100
AcDbEntity
  8
LC-004-001-----0
 62
     7
370
    50
100
AcDbLine
 10
361.018563
 20
98.737205
 30
0.0
 11
361.018563
 21
187.737205
 31
0.0
  0
ARC
  5
BC
330
1F
100
AcDbEntity
  8
LC-004-001-----0
 62
     7
370
    50
100
AcDbCircle
 10
355.018563
 20
187.737205
 30
0.0
 40
6.0
100
AcDbArc
 50
0.0
 51
90.0
  0
LINE
  5
BD
330
1F
100
AcDbEntity
  8
LC-002-002-----0
 62
     7
370
    50
100
AcDbLine
 10
360.518563
 20
98.737205
 30
0.0
 11
360.518563
 21
187.737205
 31
0.0
  0
LINE
  5
BE
330
1F
100
AcDbEntity
  8
LC-004-001-----0
 62
     7
370
    50
100
AcDbLine
 10
266.018563
 20
92.737205
 30
0.0
 11
355.018563
 21
92.737205
 31
0.0
  0
ARC
  5
BF
330
1F
100
AcDbEntity
  8
LC-002-002-----0
 62
     7
370
    50
100
AcDbCircle
 10
355.018563
 20
187.737205
 30
0.0
 40
5.5
100
AcDbArc
 50
0.0
 51
90.0
  0
ARC
  5
C0
102
{ACAD_REACTORS
330
240
102
}
330
1F
100
AcDbEntity
  8
LC-004-001-----0
 62
     7
370
    50
100
AcDbCircle
 10
65.968563
 20
169.637205
 30
0.0
 40
1.0
100
AcDbArc
 50
90.0
 51
180.0
  0
LINE
  5
C1
330
1F
100
AcDbEntity
  8
LC-004-001-----0
 62
     7
370
    50
100
AcDbLine
 10
267.218563
 20
189.337205
 30
0.0
 11
353.818563
 21
189.337205
 31
0.0
  0
LINE
  5
C2
330
1F
100
AcDbEntity
  8
LC-004-001-----0
 62
     7
370
    50
100
AcDbLine
 10
267.218563
 20
97.137205
 30
0.0
 11
353.818563
 21
97.137205
 31
0.0
  0
ARC
  5
C3
330
1F
100
AcDbEntity
  8
LC-002-002-----0
 62
     7
370
    50
100
AcDbCircle
 10
266.018563
 20
98.737205
 30
0.0
 40
5.5
100
AcDbArc
 50
180.0
 51
270.0
  0
LINE
  5
C4
330
1F
100
AcDbEntity
  8
LC-004-001-----0
 62
     7
370
    50
100
AcDbLine
 10
260.018563
 20
187.737205
 30
0.0
 11
260.018563
 21
98.737205
 31
0.0
  0
LINE
  5
C5
330
1F
100
AcDbEntity
  8
LC-002-002-----0
 62
     7
370
    50
100
AcDbLine
 10
355.018563
 20
193.237205
 30
0.0
 11
266.018563
 21
193.237205
 31
0.0
  0
LINE
  5
C6
330
1F
100
AcDbEntity
  8
LC-004-001-----0
 62
     7
370
    50
100
AcDbLine
 10
264.418563
 20
99.937205
 30
0.0
 11
264.418563
 21
186.537205
 31
0.0
  0
ARC
  5
C7
102
{ACAD_REACTORS
330
240
102
}
330
1F
100
AcDbEntity
  8
LC-004-001-----0
 62
     7
370
    50
100
AcDbCircle
 10
65.968563
 20
169.637205
 30
0.0
 40
1.700000000000046
100
AcDbArc
 50
90.0
 51
180.0
  0
LINE
  5
C8
102
{ACAD_REACTORS
330
240
102
}
330
1F
100
AcDbEntity
  8
LC-004-001-----0
 62
     7
370
    50
100
AcDbLine
 10
64.268563
 20
169.637205
 30
0.0
 11
64.268563
 21
166.096797
 31
0.0
  0
LINE
  5
C9
102
{ACAD_REACTORS
330
240
102
}
330
1F
100
AcDbEntity
  8
LC-004-001-----0
 62
     7
370
    50
100
AcDbLine
 10
64.968563
 20
166.096797
 30
0.0
 11
64.968563
 21
169.637205
 31
0.0
  0
ARC
  5
CA
102
{ACAD_REACTORS
330
240
102
}
330
1F
100
AcDbEntity
  8
LC-004-001-----0
 62
     7
370
    50
100
AcDbCircle
 10
66.468563
 20
169.637205
 30
0.0
 40
1.0
100
AcDbArc
 50
0.0
 51
90.0
  0
ARC
  5
CB
102
{ACAD_REACTORS
330
240
102
}
330
1F
100
AcDbEntity
  8
LC-004-001-----0
 62
     7
370
    50
100
AcDbCircle
 10
66.468563
 20
169.637205
 30
0.0
 40
1.0
100
AcDbArc
 50
0.0
 51
90.0
  0
ARC
  5
CC
102
{ACAD_REACTORS
330
240
102
}
330
1F
100
AcDbEntity
  8
LC-004-001-----0
 62
     7
370
    50
100
AcDbCircle
 10
66.468563
 20
169.637205
 30
0.0
 40
1.700000000000046
100
AcDbArc
 50
360.0
 51
90.0
  0
LINE
  5
CD
102
{ACAD_REACTORS
330
240
102
}
330
1F
100
AcDbEntity
  8
LC-002-002-----0
 62
     7
370
    50
100
AcDbLine
 10
71.504717
 20
150.568526
 30
0.0
 11
72.118842
 21
150.927895
 31
0.0
  0
ARC
  5
CE
102
{ACAD_REACTORS
330
240
102
}
330
1F
100
AcDbEntity
  8
LC-002-002-----0
 62
     7
370
    50
100
AcDbCircle
 10
62.768563
 20
166.096797
 30
0.0
 40
2.199999999999869
100
AcDbArc
 50
297.035692
 51
360.0
  0
LINE
  5
CF
102
{ACAD_REACTORS
330
240
102
}
330
1F
100
AcDbEntity
  8
LC-002-002-----0
 62
     7
370
    50
100
AcDbLine
 10
70.950749
 20
154.137205
 30
0.0
 11
72.118842
 21
150.927895
 31
0.0
  0
ARC
  5
D0
330
1F
100
AcDbEntity
  8
LC-002-002-----0
 62
     7
370
    50
100
AcDbCircle
 10
266.018563
 20
187.737205
 30
0.0
 40
5.5
100
AcDbArc
 50
90.0
 51
180.0
  0
ARC
  5
D1
330
1F
100
AcDbEntity
  8
LC-004-001-----0
 62
     7
370
    50
100
AcDbCircle
 10
266.018563
 20
187.737205
 30
0.0
 40
6.0
100
AcDbArc
 50
90.0
 51
180.0
  0
ARC
  5
D2
330
1F
100
AcDbEntity
  8
LC-006-001-RND-0
 62
     7
370
    50
100
AcDbCircle
 10
267.218563
 20
186.537205
 30
0.0
 40
2.799999999999955
100
AcDbArc
 50
90.0
 51
180.0
  0
ARC
  5
D3
330
1F
100
AcDbEntity
  8
LC-004-001-----0
 62
     7
370
    50
100
AcDbCircle
 10
266.018563
 20
98.737205
 30
0.0
 40
6.0
100
AcDbArc
 50
180.0
 51
270.0
  0
LINE
  5
D4
330
1F
100
AcDbEntity
  8
LC-002-002-----0
 62
     7
370
    50
100
AcDbLine
 10
260.518563
 20
187.737205
 30
0.0
 11
260.518563
 21
98.737205
 31
0.0
  0
ARC
  5
D5
330
1F
100
AcDbEntity
  8
LC-004-001-----0
 62
     7
370
    50
100
AcDbCircle
 10
267.218563
 20
99.937205
 30
0.0
 40
2.799999999999955
100
AcDbArc
 50
180.0
 51
270.0
  0
INSERT
  5
E5
102
{ACAD_REACTORS
330
240
102
}
330
1F
100
AcDbEntity
  8
LC-005-005-----0
 62
     7
370
    25
100
AcDbBlockReference
  2
*X24
 10
0.0
 20
0.0
 30
0.0
  0
LINE
  5
E6
102
{ACAD_REACTORS
330
23D
102
}
330
1F
100
AcDbEntity
  8
LC-002-002-----0
 62
     7
370
    50
100
AcDbLine
 10
159.76856
 20
166.189313
 30
0.0
 11
159.768562
 21
168.637175
 31
0.0
  0
ARC
  5
E7
102
{ACAD_REACTORS
330
23D
102
}
330
1F
100
AcDbEntity
  8
LC-002-002-----0
 62
     7
370
    50
100
AcDbCircle
 10
157.768562
 20
168.637177
 30
0.0
 40
2.000000000000086
100
AcDbArc
 50
359.999963
 51
89.999888
  0
LINE
  5
E8
102
{ACAD_REACTORS
330
23D
102
}
330
1F
100
AcDbEntity
  8
LC-002-002-----0
 62
     7
370
    50
100
AcDbLine
 10
157.768563
 20
170.637177
 30
0.0
 11
154.768563
 21
170.637179
 31
0.0
  0
LINE
  5
E9
102
{ACAD_REACTORS
330
240
102
}
330
1F
100
AcDbEntity
  8
LC-002-002-----0
 62
     7
370
    50
100
AcDbLine
 10
114.268563
 20
154.137205
 30
0.0
 11
70.950749
 21
154.137205
 31
0.0
  0
LINE
  5
EA
102
{ACAD_REACTORS
330
240
102
}
330
1F
100
AcDbEntity
  8
LC-002-002-----0
 62
     7
370
    50
100
AcDbLine
 10
63.768563
 20
164.978763
 30
0.0
 11
63.768563
 21
164.137205
 31
0.0
  0
LINE
  5
EB
102
{ACAD_REACTORS
330
240
102
}
330
1F
100
AcDbEntity
  8
LC-002-002-----0
 62
     7
370
    50
100
AcDbLine
 10
71.504717
 20
150.568526
 30
0.0
 11
114.268563
 21
150.568526
 31
0.0
  0
LINE
  5
EC
102
{ACAD_REACTORS
330
240
102
}
330
1F
100
AcDbEntity
  8
LC-002-002-----0
 62
     7
370
    50
100
AcDbLine
 10
70.341809
 20
153.763589
 30
0.0
 11
71.504717
 21
150.568526
 31
0.0
  0
LINE
  5
ED
102
{ACAD_REACTORS
330
240
102
}
330
1F
100
AcDbEntity
  8
LC-002-002-----0
 62
     7
370
    50
100
AcDbLine
 10
72.118842
 20
150.927895
 30
0.0
 11
114.268563
 21
150.927895
 31
0.0
  0
ARC
  5
EE
102
{ACAD_REACTORS
330
240
102
}
330
1F
100
AcDbEntity
  8
LC-002-002-----0
 62
     7
370
    50
100
AcDbCircle
 10
71.093563
 20
154.037205
 30
0.0
 40
0.8000000000007436
100
AcDbArc
 50
91.790785
 51
200.0
  0
ARC
  5
EF
102
{ACAD_REACTORS
330
240
102
}
330
1F
100
AcDbEntity
  8
LC-002-002-----0
 62
     7
370
    50
100
AcDbCircle
 10
62.768563
 20
166.096797
 30
0.0
 40
1.500000000000187
100
AcDbArc
 50
311.810315
 51
360.0
  0
LINE
  5
F0
102
{ACAD_REACTORS
330
23F
102
}
330
1F
100
AcDbEntity
  8
LC-002-002-----0
 62
     7
370
    50
100
AcDbLine
 10
160.018563
 20
117.837205
 30
0.0
 11
159.482665
 21
115.837205
 31
0.0
  0
LINE
  5
F1
102
{ACAD_REACTORS
330
23D
102
}
330
1F
100
AcDbEntity
  8
LC-002-002-----0
 62
     7
370
    50
100
AcDbLine
 10
154.768563
 20
170.637179
 30
0.0
 11
145.768563
 21
170.637185
 31
0.0
  0
LINE
  5
F2
102
{ACAD_REACTORS
330
23D
102
}
330
1F
100
AcDbEntity
  8
LC-002-002-----0
 62
     7
370
    50
100
AcDbLine
 10
145.768563
 20
170.637185
 30
0.0
 11
142.768563
 21
170.637187
 31
0.0
  0
LINE
  5
F3
102
{ACAD_REACTORS
330
23D
102
}
330
1F
100
AcDbEntity
  8
LC-002-002-----0
 62
     7
370
    50
100
AcDbLine
 10
142.768563
 20
170.637187
 30
0.0
 11
133.768563
 21
170.637192
 31
0.0
  0
LINE
  5
F4
102
{ACAD_REACTORS
330
23D
102
}
330
1F
100
AcDbEntity
  8
LC-002-002-----0
 62
     7
370
    50
100
AcDbLine
 10
130.768563
 20
170.637194
 30
0.0
 11
121.768563
 21
170.6372
 31
0.0
  0
LINE
  5
F5
102
{ACAD_REACTORS
330
23D
102
}
330
1F
100
AcDbEntity
  8
LC-002-002-----0
 62
     7
370
    50
100
AcDbLine
 10
121.768563
 20
170.6372
 30
0.0
 11
114.268563
 21
170.637205
 31
0.0
  0
LINE
  5
F6
102
{ACAD_REACTORS
330
23D
102
}
330
1F
100
AcDbEntity
  8
LC-002-002-----0
 62
     7
370
    50
100
AcDbLine
 10
133.768563
 20
170.637192
 30
0.0
 11
130.768563
 21
170.637194
 31
0.0
  0
LINE
  5
F7
102
{ACAD_REACTORS
330
23F
102
}
330
1F
100
AcDbEntity
  8
LC-002-002-----0
 62
     7
370
    50
100
AcDbLine
 10
70.472608
 20
159.837205
 30
0.0
 11
68.518563
 21
159.837205
 31
0.0
  0
LINE
  5
F9
330
1F
100
AcDbEntity
  8
LC-002-002-----0
  6
DASHDOT
 62
     7
370
    25
100
AcDbLine
 10
114.268563
 20
170.637205
 30
0.0
 11
114.268563
 21
150.568526
 31
0.0
  0
LINE
  5
FA
102
{ACAD_REACTORS
330
23F
102
}
330
1F
100
AcDbEntity
  8
LC-002-002-----0
 62
     7
370
    50
100
AcDbLine
 10
71.268563
 20
146.837205
 30
0.0
 11
71.268563
 21
115.837205
 31
0.0
  0
LINE
  5
FB
102
{ACAD_REACTORS
330
23F
102
}
330
1F
100
AcDbEntity
  8
LC-002-002-----0
 62
     7
370
    50
100
AcDbLine
 10
70.268563
 20
147.837205
 30
0.0
 11
71.268563
 21
146.837205
 31
0.0
  0
LINE
  5
FC
102
{ACAD_REACTORS
330
23F
102
}
330
1F
100
AcDbEntity
  8
LC-002-002-----0
 62
     7
370
    50
100
AcDbLine
 10
69.054462
 20
115.837205
 30
0.0
 11
159.482665
 21
115.837205
 31
0.0
  0
LINE
  5
FD
102
{ACAD_REACTORS
330
23F
102
}
330
1F
100
AcDbEntity
  8
LC-002-002-----0
 62
     7
370
    50
100
AcDbLine
 10
157.268563
 20
159.837205
 30
0.0
 11
157.268563
 21
159.837205
 31
0.0
  0
LINE
  5
FE
102
{ACAD_REACTORS
330
23F
102
}
330
1F
100
AcDbEntity
  8
LC-002-002-----0
 62
     7
370
    50
100
AcDbLine
 10
69.84036
 20
115.837205
 30
0.0
 11
70.268563
 21
115.837205
 31
0.0
  0
LINE
  5
FF
102
{ACAD_REACTORS
330
23F
102
}
330
1F
100
AcDbEntity
  8
LC-002-002-----0
 62
     7
370
    50
100
AcDbLine
 10
157.518563
 20
155.087205
 30
0.0
 11
157.518563
 21
158.337205
 31
0.0
  0
LINE
  5
100
102
{ACAD_REACTORS
330
23F
102
}
330
1F
100
AcDbEntity
  8
LC-002-002-----0
  6
DASHDOT
 62
     7
370
    25
100
AcDbLine
 10
114.268563
 20
115.837205
 30
0.0
 11
114.268563
 21
150.568526
 31
0.0
  0
LINE
  5
101
102
{ACAD_REACTORS
330
23F
102
}
330
1F
100
AcDbEntity
  8
LC-002-002-----0
 62
     7
370
    50
100
AcDbLine
 10
71.268563
 20
159.837205
 30
0.0
 11
71.268563
 21
159.837205
 31
0.0
  0
LINE
  5
102
102
{ACAD_REACTORS
330
23F
102
}
330
1F
100
AcDbEntity
  8
LC-002-002-----0
 62
     7
370
    50
100
AcDbLine
 10
157.518563
 20
155.087205
 30
0.0
 11
158.268563
 21
154.337205
 31
0.0
  0
LINE
  5
103
102
{ACAD_REACTORS
330
23F
102
}
330
1F
100
AcDbEntity
  8
LC-002-002-----0
 62
     7
370
    50
100
AcDbLine
 10
158.268563
 20
154.337205
 30
0.0
 11
158.268563
 21
147.837205
 31
0.0
  0
LINE
  5
104
102
{ACAD_REACTORS
330
23F
102
}
330
1F
100
AcDbEntity
  8
LC-002-002-----0
 62
     7
370
    50
100
AcDbLine
 10
71.018563
 20
155.087205
 30
0.0
 11
71.018563
 21
158.337205
 31
0.0
  0
LINE
  5
105
102
{ACAD_REACTORS
330
23F
102
}
330
1F
100
AcDbEntity
  8
LC-002-002-----0
 62
     7
370
    50
100
AcDbLine
 10
71.018563
 20
155.087205
 30
0.0
 11
70.268563
 21
154.337205
 31
0.0
  0
LINE
  5
106
102
{ACAD_REACTORS
330
23F
102
}
330
1F
100
AcDbEntity
  8
LC-002-002-----0
 62
     7
370
    50
100
AcDbLine
 10
160.018563
 20
159.837205
 30
0.0
 11
160.018563
 21
117.837205
 31
0.0
  0
LINE
  5
107
102
{ACAD_REACTORS
330
23F
102
}
330
1F
100
AcDbEntity
  8
LC-002-002-----0
 62
     7
370
    50
100
AcDbLine
 10
68.518563
 20
117.837205
 30
0.0
 11
69.054462
 21
115.837205
 31
0.0
  0
LINE
  5
108
102
{ACAD_REACTORS
330
23F
102
}
330
1F
100
AcDbEntity
  8
LC-002-002-----0
 62
     7
370
    50
100
AcDbLine
 10
70.268563
 20
154.337205
 30
0.0
 11
70.268563
 21
147.837205
 31
0.0
  0
LINE
  5
109
102
{ACAD_REACTORS
330
23F
102
}
330
1F
100
AcDbEntity
  8
LC-002-002-----0
 62
     7
370
    50
100
AcDbLine
 10
71.018563
 20
158.337205
 30
0.0
 11
70.472608
 21
159.837205
 31
0.0
  0
LINE
  5
10A
102
{ACAD_REACTORS
330
23E
102
}
330
1F
100
AcDbEntity
  8
LC-002-002-----0
 62
     7
370
    50
100
AcDbLine
 10
114.268563
 20
165.637205
 30
0.0
 11
158.268563
 21
165.637205
 31
0.0
  0
LINE
  5
10B
102
{ACAD_REACTORS
330
23F
102
}
330
1F
100
AcDbEntity
  8
LC-002-002-----0
 62
     7
370
    50
100
AcDbLine
 10
70.268563
 20
150.086814
 30
0.0
 11
70.268563
 21
150.086814
 31
0.0
  0
LINE
  5
10C
102
{ACAD_REACTORS
330
23F
102
}
330
1F
100
AcDbEntity
  8
LC-002-002-----0
 62
     7
370
    50
100
AcDbLine
 10
157.268563
 20
146.837205
 30
0.0
 11
114.268563
 21
146.837205
 31
0.0
  0
LINE
  5
10D
102
{ACAD_REACTORS
330
23F
102
}
330
1F
100
AcDbEntity
  8
LC-002-002-----0
 62
     7
370
    50
100
AcDbLine
 10
157.518563
 20
158.337205
 30
0.0
 11
158.064519
 21
159.837205
 31
0.0
  0
LINE
  5
10E
102
{ACAD_REACTORS
330
23F
102
}
330
1F
100
AcDbEntity
  8
LC-002-002-----0
 62
     7
370
    50
100
AcDbLine
 10
158.268563
 20
150.086814
 30
0.0
 11
158.268563
 21
150.086814
 31
0.0
  0
LINE
  5
10F
102
{ACAD_REACTORS
330
23F
102
}
330
1F
100
AcDbEntity
  8
LC-002-002-----0
 62
     7
370
    50
100
AcDbLine
 10
157.268563
 20
146.837205
 30
0.0
 11
157.268563
 21
115.837205
 31
0.0
  0
LINE
  5
110
102
{ACAD_REACTORS
330
23F
102
}
330
1F
100
AcDbEntity
  8
LC-002-002-----0
 62
     7
370
    50
100
AcDbLine
 10
158.268563
 20
147.837205
 30
0.0
 11
157.268563
 21
146.837205
 31
0.0
  0
INSERT
  5
134
102
{ACAD_REACTORS
330
23F
102
}
330
1F
100
AcDbEntity
  8
LC-005-005-----0
 62
     7
370
    25
100
AcDbBlockReference
  2
*X35
 10
0.0
 20
0.0
 30
0.0
  0
INSERT
  5
158
102
{ACAD_REACTORS
330
23F
102
}
330
1F
100
AcDbEntity
  8
LC-005-005-----0
 62
     7
370
    25
100
AcDbBlockReference
  2
*X46
 10
0.0
 20
0.0
 30
0.0
  0
LINE
  5
159
102
{ACAD_REACTORS
330
23F
102
}
330
1F
100
AcDbEntity
  8
LC-002-002-----0
 62
     7
370
    50
100
AcDbLine
 10
70.268563
 20
147.837205
 30
0.0
 11
158.268563
 21
147.837205
 31
0.0
  0
LINE
  5
15A
102
{ACAD_REACTORS
330
23F
102
}
330
1F
100
AcDbEntity
  8
LC-002-002-----0
 62
     7
370
    50
100
AcDbLine
 10
71.268563
 20
146.837205
 30
0.0
 11
114.268563
 21
146.837205
 31
0.0
  0
LINE
  5
15B
102
{ACAD_REACTORS
330
23F
102
}
330
1F
100
AcDbEntity
  8
LC-002-002-----0
 62
     7
370
    50
100
AcDbLine
 10
158.064519
 20
159.837205
 30
0.0
 11
160.018563
 21
159.837205
 31
0.0
  0
DIMENSION
  5
15C
330
1F
100
AcDbEntity
  8
LC-001-003-----0
 62
     7
370
    25
100
AcDbDimension
  2
*D7
 10
196.0
 20
115.837205
 30
0.0
 11
165.2
 21
143.587205
 31
0.0
 70
   160
  1
55
 71
     5
 42
55.5
 53
90.0
  3
LC-DIM-L-0140-02-02
100
AcDbAlignedDimension
 13
162.068563
 23
171.337205
 33
0.0
 14
159.482665
 24
115.837205
 34
0.0
 50
90.0
100
AcDbRotatedDimension
  0
LINE
  5
16B
102
{ACAD_REACTORS
330
241
102
}
330
1F
100
AcDbEntity
  8
LC-002-002-----0
 62
     7
370
    50
100
AcDbLine
 10
114.268563
 20
165.637205
 30
0.0
 11
70.268563
 21
165.637205
 31
0.0
  0
LINE
  5
16C
330
1F
100
AcDbEntity
  8
LC-002-002-----0
 62
     7
370
    25
100
AcDbLine
 10
76.985984
 20
223.660672
 30
0.0
 11
91.985984
 21
223.660672
 31
0.0
  0
DIMENSION
  5
16D
330
1F
100
AcDbEntity
  8
LC-001-003-----0
 62
     7
370
    25
100
AcDbDimension
  2
*D8
 10
160.018563
 20
78.4
 30
0.0
 11
114.268563
 21
109.2
 31
0.0
 70
   160
  1
%%c<>
 71
     5
 42
91.5
  3
LC-DIM-L-0140-02-02
100
AcDbAlignedDimension
 13
68.518563
 23
117.837205
 33
0.0
 14
160.018563
 24
117.837205
 34
0.0
100
AcDbRotatedDimension
  0
LINE
  5
17A
330
1F
100
AcDbEntity
  8
LC-002-002-----0
 62
     7
370
    50
100
AcDbLine
 10
267.018563
 20
187.737205
 30
0.0
 11
354.018563
 21
187.737205
 31
0.0
  0
LINE
  5
17B
330
1F
100
AcDbEntity
  8
LC-002-002-----0
 62
     7
370
    50
100
AcDbLine
 10
356.018563
 20
185.737205
 30
0.0
 11
356.018563
 21
98.737205
 31
0.0
  0
LINE
  5
17C
330
1F
100
AcDbEntity
  8
LC-002-002-----0
 62
     7
370
    50
100
AcDbLine
 10
354.018563
 20
96.737205
 30
0.0
 11
267.018563
 21
96.737205
 31
0.0
  0
LINE
  5
17D
330
1F
100
AcDbEntity
  8
LC-002-002-----0
 62
     7
370
    50
100
AcDbLine
 10
265.018563
 20
98.737205
 30
0.0
 11
265.018563
 21
185.737205
 31
0.0
  0
ARC
  5
17E
330
1F
100
AcDbEntity
  8
LC-003-002-RND-0
 62
     7
370
    50
100
AcDbCircle
 10
267.018563
 20
185.737205
 30
0.0
 40
2.0
100
AcDbArc
 50
90.0
 51
180.0
  0
ARC
  5
17F
330
1F
100
AcDbEntity
  8
LC-003-002-RND-0
 62
     7
370
    50
100
AcDbCircle
 10
354.018563
 20
185.737205
 30
0.0
 40
2.0
100
AcDbArc
 50
0.0
 51
90.0
  0
ARC
  5
180
330
1F
100
AcDbEntity
  8
LC-003-002-RND-0
 62
     7
370
    50
100
AcDbCircle
 10
354.018563
 20
98.737205
 30
0.0
 40
2.0
100
AcDbArc
 50
270.0
 51
0.0
  0
ARC
  5
181
330
1F
100
AcDbEntity
  8
LC-003-002-RND-0
 62
     7
370
    50
100
AcDbCircle
 10
267.018563
 20
98.737205
 30
0.0
 40
2.0
100
AcDbArc
 50
180.0
 51
270.0
  0
LINE
  5
182
330
1F
100
AcDbEntity
  8
LC-002-002-----0
 62
     7
370
    50
100
AcDbLine
 10
266.018563
 20
193.737205
 30
0.0
 11
355.018563
 21
193.737205
 31
0.0
  0
INSERT
  5
197
330
1F
100
AcDbEntity
  8
LC-005-005-----0
 62
     7
370
    25
100
AcDbBlockReference
  2
*X59
 10
0.0
 20
0.0
 30
0.0
  0
INSERT
  5
1AC
330
1F
100
AcDbEntity
  8
LC-005-005-----0
 62
     7
370
    25
100
AcDbBlockReference
  2
*X610
 10
0.0
 20
0.0
 30
0.0
  0
LINE
  5
1AD
330
1F
100
AcDbEntity
  8
LC-002-002-----0
 62
     7
370
    50
100
AcDbLine
 10
301.017778
 20
145.237991
 30
0.0
 11
308.517778
 21
145.237991
 31
0.0
  0
LINE
  5
1AE
330
1F
100
AcDbEntity
  8
LC-002-002-----0
 62
     7
370
    50
100
AcDbLine
 10
308.517778
 20
145.237991
 30
0.0
 11
308.517778
 21
152.737991
 31
0.0
  0
LINE
  5
1AF
330
1F
100
AcDbEntity
  8
LC-002-002-----0
 62
     7
370
    50
100
AcDbLine
 10
301.017778
 20
145.237991
 30
0.0
 11
301.017778
 21
152.737991
 31
0.0
  0
LINE
  5
1B0
330
1F
100
AcDbEntity
  8
LC-002-002-----0
 62
     7
370
    50
100
AcDbLine
 10
301.017778
 20
152.737991
 30
0.0
 11
308.517778
 21
152.737991
 31
0.0
  0
LINE
  5
1B1
330
1F
100
AcDbEntity
  8
LC-002-002-----0
 62
     7
370
    50
100
AcDbLine
 10
320.019349
 20
145.237991
 30
0.0
 11
312.519349
 21
145.237991
 31
0.0
  0
LINE
  5
1B2
330
1F
100
AcDbEntity
  8
LC-002-002-----0
 62
     7
370
    50
100
AcDbLine
 10
312.519349
 20
145.237991
 30
0.0
 11
312.519349
 21
152.737991
 31
0.0
  0
LINE
  5
1B3
330
1F
100
AcDbEntity
  8
LC-002-002-----0
 62
     7
370
    50
100
AcDbLine
 10
320.019349
 20
145.237991
 30
0.0
 11
320.019349
 21
152.737991
 31
0.0
  0
LINE
  5
1B4
330
1F
100
AcDbEntity
  8
LC-002-002-----0
 62
     7
370
    50
100
AcDbLine
 10
320.019349
 20
152.737991
 30
0.0
 11
312.519349
 21
152.737991
 31
0.0
  0
LINE
  5
1B5
330
1F
100
AcDbEntity
  8
LC-002-002-----0
 62
     7
370
    50
100
AcDbLine
 10
301.017778
 20
141.23642
 30
0.0
 11
308.517778
 21
141.23642
 31
0.0
  0
LINE
  5
1B6
330
1F
100
AcDbEntity
  8
LC-002-002-----0
 62
     7
370
    50
100
AcDbLine
 10
308.517778
 20
141.23642
 30
0.0
 11
308.517778
 21
133.73642
 31
0.0
  0
LINE
  5
1B7
330
1F
100
AcDbEntity
  8
LC-002-002-----0
 62
     7
370
    50
100
AcDbLine
 10
301.017778
 20
141.23642
 30
0.0
 11
301.017778
 21
133.73642
 31
0.0
  0
LINE
  5
1B8
330
1F
100
AcDbEntity
  8
LC-002-002-----0
 62
     7
370
    50
100
AcDbLine
 10
301.017778
 20
133.73642
 30
0.0
 11
308.517778
 21
133.73642
 31
0.0
  0
LINE
  5
1B9
330
1F
100
AcDbEntity
  8
LC-002-002-----0
 62
     7
370
    50
100
AcDbLine
 10
320.019349
 20
141.23642
 30
0.0
 11
312.519349
 21
141.23642
 31
0.0
  0
LINE
  5
1BA
330
1F
100
AcDbEntity
  8
LC-002-002-----0
 62
     7
370
    50
100
AcDbLine
 10
312.519349
 20
141.23642
 30
0.0
 11
312.519349
 21
133.73642
 31
0.0
  0
LINE
  5
1BB
330
1F
100
AcDbEntity
  8
LC-002-002-----0
 62
     7
370
    50
100
AcDbLine
 10
320.019349
 20
141.23642
 30
0.0
 11
320.019349
 21
133.73642
 31
0.0
  0
LINE
  5
1BC
330
1F
100
AcDbEntity
  8
LC-002-002-----0
 62
     7
370
    50
100
AcDbLine
 10
320.019349
 20
133.73642
 30
0.0
 11
312.519349
 21
133.73642
 31
0.0
  0
LINE
  5
1BD
330
1F
100
AcDbEntity
  8
LC-002-002-----0
 62
     7
370
    50
100
AcDbLine
 10
331.52092
 20
145.237991
 30
0.0
 11
324.02092
 21
145.237991
 31
0.0
  0
LINE
  5
1BE
330
1F
100
AcDbEntity
  8
LC-002-002-----0
 62
     7
370
    50
100
AcDbLine
 10
324.02092
 20
145.237991
 30
0.0
 11
324.02092
 21
152.737991
 31
0.0
  0
LINE
  5
1BF
330
1F
100
AcDbEntity
  8
LC-002-002-----0
 62
     7
370
    50
100
AcDbLine
 10
331.52092
 20
145.237991
 30
0.0
 11
331.52092
 21
152.737991
 31
0.0
  0
LINE
  5
1C0
330
1F
100
AcDbEntity
  8
LC-002-002-----0
 62
     7
370
    50
100
AcDbLine
 10
331.52092
 20
152.737991
 30
0.0
 11
324.02092
 21
152.737991
 31
0.0
  0
LINE
  5
1C1
330
1F
100
AcDbEntity
  8
LC-002-002-----0
 62
     7
370
    50
100
AcDbLine
 10
331.52092
 20
141.23642
 30
0.0
 11
324.02092
 21
141.23642
 31
0.0
  0
LINE
  5
1C2
330
1F
100
AcDbEntity
  8
LC-002-002-----0
 62
     7
370
    50
100
AcDbLine
 10
324.02092
 20
141.23642
 30
0.0
 11
324.02092
 21
133.73642
 31
0.0
  0
LINE
  5
1C3
330
1F
100
AcDbEntity
  8
LC-002-002-----0
 62
     7
370
    50
100
AcDbLine
 10
331.52092
 20
141.23642
 30
0.0
 11
331.52092
 21
133.73642
 31
0.0
  0
LINE
  5
1C4
330
1F
100
AcDbEntity
  8
LC-002-002-----0
 62
     7
370
    50
100
AcDbLine
 10
331.52092
 20
133.73642
 30
0.0
 11
324.02092
 21
133.73642
 31
0.0
  0
LINE
  5
1C5
330
1F
100
AcDbEntity
  8
LC-002-002-----0
 62
     7
370
    50
100
AcDbLine
 10
343.022491
 20
145.237991
 30
0.0
 11
335.522491
 21
145.237991
 31
0.0
  0
LINE
  5
1C6
330
1F
100
AcDbEntity
  8
LC-002-002-----0
 62
     7
370
    50
100
AcDbLine
 10
335.522491
 20
145.237991
 30
0.0
 11
335.522491
 21
152.737991
 31
0.0
  0
LINE
  5
1C7
330
1F
100
AcDbEntity
  8
LC-002-002-----0
 62
     7
370
    50
100
AcDbLine
 10
343.022491
 20
145.237991
 30
0.0
 11
343.022491
 21
152.737991
 31
0.0
  0
LINE
  5
1C8
330
1F
100
AcDbEntity
  8
LC-002-002-----0
 62
     7
370
    50
100
AcDbLine
 10
343.022491
 20
152.737991
 30
0.0
 11
335.522491
 21
152.737991
 31
0.0
  0
LINE
  5
1C9
330
1F
100
AcDbEntity
  8
LC-002-002-----0
 62
     7
370
    50
100
AcDbLine
 10
343.022491
 20
141.23642
 30
0.0
 11
335.522491
 21
141.23642
 31
0.0
  0
LINE
  5
1CA
330
1F
100
AcDbEntity
  8
LC-002-002-----0
 62
     7
370
    50
100
AcDbLine
 10
335.522491
 20
141.23642
 30
0.0
 11
335.522491
 21
133.73642
 31
0.0
  0
LINE
  5
1CB
330
1F
100
AcDbEntity
  8
LC-002-002-----0
 62
     7
370
    50
100
AcDbLine
 10
343.022491
 20
141.23642
 30
0.0
 11
343.022491
 21
133.73642
 31
0.0
  0
LINE
  5
1CC
330
1F
100
AcDbEntity
  8
LC-002-002-----0
 62
     7
370
    50
100
AcDbLine
 10
343.022491
 20
133.73642
 30
0.0
 11
335.522491
 21
133.73642
 31
0.0
  0
LINE
  5
1CD
330
1F
100
AcDbEntity
  8
LC-002-002-----0
 62
     7
370
    50
100
AcDbLine
 10
289.516207
 20
145.237991
 30
0.0
 11
297.016207
 21
145.237991
 31
0.0
  0
LINE
  5
1CE
330
1F
100
AcDbEntity
  8
LC-002-002-----0
 62
     7
370
    50
100
AcDbLine
 10
297.016207
 20
145.237991
 30
0.0
 11
297.016207
 21
152.737991
 31
0.0
  0
LINE
  5
1CF
330
1F
100
AcDbEntity
  8
LC-002-002-----0
 62
     7
370
    50
100
AcDbLine
 10
289.516207
 20
145.237991
 30
0.0
 11
289.516207
 21
152.737991
 31
0.0
  0
LINE
  5
1D0
330
1F
100
AcDbEntity
  8
LC-002-002-----0
 62
     7
370
    50
100
AcDbLine
 10
289.516207
 20
152.737991
 30
0.0
 11
297.016207
 21
152.737991
 31
0.0
  0
LINE
  5
1D1
330
1F
100
AcDbEntity
  8
LC-002-002-----0
 62
     7
370
    50
100
AcDbLine
 10
289.516207
 20
141.23642
 30
0.0
 11
297.016207
 21
141.23642
 31
0.0
  0
LINE
  5
1D2
330
1F
100
AcDbEntity
  8
LC-002-002-----0
 62
     7
370
    50
100
AcDbLine
 10
297.016207
 20
141.23642
 30
0.0
 11
297.016207
 21
133.73642
 31
0.0
  0
LINE
  5
1D3
330
1F
100
AcDbEntity
  8
LC-002-002-----0
 62
     7
370
    50
100
AcDbLine
 10
289.516207
 20
141.23642
 30
0.0
 11
289.516207
 21
133.73642
 31
0.0
  0
LINE
  5
1D4
330
1F
100
AcDbEntity
  8
LC-002-002-----0
 62
     7
370
    50
100
AcDbLine
 10
289.516207
 20
133.73642
 30
0.0
 11
297.016207
 21
133.73642
 31
0.0
  0
LINE
  5
1D5
330
1F
100
AcDbEntity
  8
LC-002-002-----0
 62
     7
370
    50
100
AcDbLine
 10
278.014636
 20
145.237991
 30
0.0
 11
285.514636
 21
145.237991
 31
0.0
  0
LINE
  5
1D6
330
1F
100
AcDbEntity
  8
LC-002-002-----0
 62
     7
370
    50
100
AcDbLine
 10
285.514636
 20
145.237991
 30
0.0
 11
285.514636
 21
152.737991
 31
0.0
  0
LINE
  5
1D7
330
1F
100
AcDbEntity
  8
LC-002-002-----0
 62
     7
370
    50
100
AcDbLine
 10
278.014636
 20
145.237991
 30
0.0
 11
278.014636
 21
152.737991
 31
0.0
  0
LINE
  5
1D8
330
1F
100
AcDbEntity
  8
LC-002-002-----0
 62
     7
370
    50
100
AcDbLine
 10
278.014636
 20
152.737991
 30
0.0
 11
285.514636
 21
152.737991
 31
0.0
  0
LINE
  5
1D9
330
1F
100
AcDbEntity
  8
LC-002-002-----0
 62
     7
370
    50
100
AcDbLine
 10
278.014636
 20
141.23642
 30
0.0
 11
285.514636
 21
141.23642
 31
0.0
  0
LINE
  5
1DA
330
1F
100
AcDbEntity
  8
LC-002-002-----0
 62
     7
370
    50
100
AcDbLine
 10
285.514636
 20
141.23642
 30
0.0
 11
285.514636
 21
133.73642
 31
0.0
  0
LINE
  5
1DB
330
1F
100
AcDbEntity
  8
LC-002-002-----0
 62
     7
370
    50
100
AcDbLine
 10
278.014636
 20
141.23642
 30
0.0
 11
278.014636
 21
133.73642
 31
0.0
  0
LINE
  5
1DC
330
1F
100
AcDbEntity
  8
LC-002-002-----0
 62
     7
370
    50
100
AcDbLine
 10
278.014636
 20
133.73642
 30
0.0
 11
285.514636
 21
133.73642
 31
0.0
  0
LINE
  5
1DD
330
1F
100
AcDbEntity
  8
LC-002-002-----0
 62
     7
370
    50
100
AcDbLine
 10
301.017778
 20
156.739562
 30
0.0
 11
308.517778
 21
156.739562
 31
0.0
  0
LINE
  5
1DE
330
1F
100
AcDbEntity
  8
LC-002-002-----0
 62
     7
370
    50
100
AcDbLine
 10
308.517778
 20
156.739562
 30
0.0
 11
308.517778
 21
164.239562
 31
0.0
  0
LINE
  5
1DF
330
1F
100
AcDbEntity
  8
LC-002-002-----0
 62
     7
370
    50
100
AcDbLine
 10
301.017778
 20
156.739562
 30
0.0
 11
301.017778
 21
164.239562
 31
0.0
  0
LINE
  5
1E0
330
1F
100
AcDbEntity
  8
LC-002-002-----0
 62
     7
370
    50
100
AcDbLine
 10
301.017778
 20
164.239562
 30
0.0
 11
308.517778
 21
164.239562
 31
0.0
  0
LINE
  5
1E1
330
1F
100
AcDbEntity
  8
LC-002-002-----0
 62
     7
370
    50
100
AcDbLine
 10
320.019349
 20
156.739562
 30
0.0
 11
312.519349
 21
156.739562
 31
0.0
  0
LINE
  5
1E2
330
1F
100
AcDbEntity
  8
LC-002-002-----0
 62
     7
370
    50
100
AcDbLine
 10
312.519349
 20
156.739562
 30
0.0
 11
312.519349
 21
164.239562
 31
0.0
  0
LINE
  5
1E3
330
1F
100
AcDbEntity
  8
LC-002-002-----0
 62
     7
370
    50
100
AcDbLine
 10
320.019349
 20
156.739562
 30
0.0
 11
320.019349
 21
164.239562
 31
0.0
  0
LINE
  5
1E4
330
1F
100
AcDbEntity
  8
LC-002-002-----0
 62
     7
370
    50
100
AcDbLine
 10
320.019349
 20
164.239562
 30
0.0
 11
312.519349
 21
164.239562
 31
0.0
  0
LINE
  5
1E5
330
1F
100
AcDbEntity
  8
LC-002-002-----0
 62
     7
370
    50
100
AcDbLine
 10
331.52092
 20
156.739562
 30
0.0
 11
324.02092
 21
156.739562
 31
0.0
  0
LINE
  5
1E6
330
1F
100
AcDbEntity
  8
LC-002-002-----0
 62
     7
370
    50
100
AcDbLine
 10
324.02092
 20
156.739562
 30
0.0
 11
324.02092
 21
164.239562
 31
0.0
  0
LINE
  5
1E7
330
1F
100
AcDbEntity
  8
LC-002-002-----0
 62
     7
370
    50
100
AcDbLine
 10
331.52092
 20
156.739562
 30
0.0
 11
331.52092
 21
164.239562
 31
0.0
  0
LINE
  5
1E8
330
1F
100
AcDbEntity
  8
LC-002-002-----0
 62
     7
370
    50
100
AcDbLine
 10
331.52092
 20
164.239562
 30
0.0
 11
324.02092
 21
164.239562
 31
0.0
  0
LINE
  5
1E9
330
1F
100
AcDbEntity
  8
LC-002-002-----0
 62
     7
370
    50
100
AcDbLine
 10
343.022491
 20
156.739562
 30
0.0
 11
335.522491
 21
156.739562
 31
0.0
  0
LINE
  5
1EA
330
1F
100
AcDbEntity
  8
LC-002-002-----0
 62
     7
370
    50
100
AcDbLine
 10
335.522491
 20
156.739562
 30
0.0
 11
335.522491
 21
164.239562
 31
0.0
  0
LINE
  5
1EB
330
1F
100
AcDbEntity
  8
LC-002-002-----0
 62
     7
370
    50
100
AcDbLine
 10
343.022491
 20
156.739562
 30
0.0
 11
343.022491
 21
164.239562
 31
0.0
  0
LINE
  5
1EC
330
1F
100
AcDbEntity
  8
LC-002-002-----0
 62
     7
370
    50
100
AcDbLine
 10
343.022491
 20
164.239562
 30
0.0
 11
335.522491
 21
164.239562
 31
0.0
  0
LINE
  5
1ED
330
1F
100
AcDbEntity
  8
LC-002-002-----0
 62
     7
370
    50
100
AcDbLine
 10
289.516207
 20
156.739562
 30
0.0
 11
297.016207
 21
156.739562
 31
0.0
  0
LINE
  5
1EE
330
1F
100
AcDbEntity
  8
LC-002-002-----0
 62
     7
370
    50
100
AcDbLine
 10
297.016207
 20
156.739562
 30
0.0
 11
297.016207
 21
164.239562
 31
0.0
  0
LINE
  5
1EF
330
1F
100
AcDbEntity
  8
LC-002-002-----0
 62
     7
370
    50
100
AcDbLine
 10
289.516207
 20
156.739562
 30
0.0
 11
289.516207
 21
164.239562
 31
0.0
  0
LINE
  5
1F0
330
1F
100
AcDbEntity
  8
LC-002-002-----0
 62
     7
370
    50
100
AcDbLine
 10
289.516207
 20
164.239562
 30
0.0
 11
297.016207
 21
164.239562
 31
0.0
  0
LINE
  5
1F1
330
1F
100
AcDbEntity
  8
LC-002-002-----0
 62
     7
370
    50
100
AcDbLine
 10
278.014636
 20
156.739562
 30
0.0
 11
285.514636
 21
156.739562
 31
0.0
  0
LINE
  5
1F2
330
1F
100
AcDbEntity
  8
LC-002-002-----0
 62
     7
370
    50
100
AcDbLine
 10
285.514636
 20
156.739562
 30
0.0
 11
285.514636
 21
164.239562
 31
0.0
  0
LINE
  5
1F3
330
1F
100
AcDbEntity
  8
LC-002-002-----0
 62
     7
370
    50
100
AcDbLine
 10
278.014636
 20
156.739562
 30
0.0
 11
278.014636
 21
164.239562
 31
0.0
  0
LINE
  5
1F4
330
1F
100
AcDbEntity
  8
LC-002-002-----0
 62
     7
370
    50
100
AcDbLine
 10
278.014636
 20
164.239562
 30
0.0
 11
285.514636
 21
164.239562
 31
0.0
  0
LINE
  5
1F5
330
1F
100
AcDbEntity
  8
LC-002-002-----0
 62
     7
370
    50
100
AcDbLine
 10
301.017778
 20
168.241133
 30
0.0
 11
308.517778
 21
168.241133
 31
0.0
  0
LINE
  5
1F6
330
1F
100
AcDbEntity
  8
LC-002-002-----0
 62
     7
370
    50
100
AcDbLine
 10
308.517778
 20
168.241133
 30
0.0
 11
308.517778
 21
175.741133
 31
0.0
  0
LINE
  5
1F7
330
1F
100
AcDbEntity
  8
LC-002-002-----0
 62
     7
370
    50
100
AcDbLine
 10
301.017778
 20
168.241133
 30
0.0
 11
301.017778
 21
175.741133
 31
0.0
  0
LINE
  5
1F8
330
1F
100
AcDbEntity
  8
LC-002-002-----0
 62
     7
370
    50
100
AcDbLine
 10
301.017778
 20
175.741133
 30
0.0
 11
308.517778
 21
175.741133
 31
0.0
  0
LINE
  5
1F9
330
1F
100
AcDbEntity
  8
LC-002-002-----0
 62
     7
370
    50
100
AcDbLine
 10
320.019349
 20
168.241133
 30
0.0
 11
312.519349
 21
168.241133
 31
0.0
  0
LINE
  5
1FA
330
1F
100
AcDbEntity
  8
LC-002-002-----0
 62
     7
370
    50
100
AcDbLine
 10
312.519349
 20
168.241133
 30
0.0
 11
312.519349
 21
175.741133
 31
0.0
  0
LINE
  5
1FB
330
1F
100
AcDbEntity
  8
LC-002-002-----0
 62
     7
370
    50
100
AcDbLine
 10
320.019349
 20
168.241133
 30
0.0
 11
320.019349
 21
175.741133
 31
0.0
  0
LINE
  5
1FC
330
1F
100
AcDbEntity
  8
LC-002-002-----0
 62
     7
370
    50
100
AcDbLine
 10
320.019349
 20
175.741133
 30
0.0
 11
312.519349
 21
175.741133
 31
0.0
  0
LINE
  5
1FD
330
1F
100
AcDbEntity
  8
LC-002-002-----0
 62
     7
370
    50
100
AcDbLine
 10
331.52092
 20
168.241133
 30
0.0
 11
324.02092
 21
168.241133
 31
0.0
  0
LINE
  5
1FE
330
1F
100
AcDbEntity
  8
LC-002-002-----0
 62
     7
370
    50
100
AcDbLine
 10
324.02092
 20
168.241133
 30
0.0
 11
324.02092
 21
175.741133
 31
0.0
  0
LINE
  5
1FF
330
1F
100
AcDbEntity
  8
LC-002-002-----0
 62
     7
370
    50
100
AcDbLine
 10
331.52092
 20
168.241133
 30
0.0
 11
331.52092
 21
175.741133
 31
0.0
  0
LINE
  5
200
330
1F
100
AcDbEntity
  8
LC-002-002-----0
 62
     7
370
    50
100
AcDbLine
 10
331.52092
 20
175.741133
 30
0.0
 11
324.02092
 21
175.741133
 31
0.0
  0
LINE
  5
201
330
1F
100
AcDbEntity
  8
LC-002-002-----0
 62
     7
370
    50
100
AcDbLine
 10
343.022491
 20
168.241133
 30
0.0
 11
335.522491
 21
168.241133
 31
0.0
  0
LINE
  5
202
330
1F
100
AcDbEntity
  8
LC-002-002-----0
 62
     7
370
    50
100
AcDbLine
 10
335.522491
 20
168.241133
 30
0.0
 11
335.522491
 21
175.741133
 31
0.0
  0
LINE
  5
203
330
1F
100
AcDbEntity
  8
LC-002-002-----0
 62
     7
370
    50
100
AcDbLine
 10
343.022491
 20
168.241133
 30
0.0
 11
343.022491
 21
175.741133
 31
0.0
  0
LINE
  5
204
330
1F
100
AcDbEntity
  8
LC-002-002-----0
 62
     7
370
    50
100
AcDbLine
 10
343.022491
 20
175.741133
 30
0.0
 11
335.522491
 21
175.741133
 31
0.0
  0
LINE
  5
205
330
1F
100
AcDbEntity
  8
LC-002-002-----0
 62
     7
370
    50
100
AcDbLine
 10
289.516207
 20
168.241133
 30
0.0
 11
297.016207
 21
168.241133
 31
0.0
  0
LINE
  5
206
330
1F
100
AcDbEntity
  8
LC-002-002-----0
 62
     7
370
    50
100
AcDbLine
 10
297.016207
 20
168.241133
 30
0.0
 11
297.016207
 21
175.741133
 31
0.0
  0
LINE
  5
207
330
1F
100
AcDbEntity
  8
LC-002-002-----0
 62
     7
370
    50
100
AcDbLine
 10
289.516207
 20
168.241133
 30
0.0
 11
289.516207
 21
175.741133
 31
0.0
  0
LINE
  5
208
330
1F
100
AcDbEntity
  8
LC-002-002-----0
 62
     7
370
    50
100
AcDbLine
 10
289.516207
 20
175.741133
 30
0.0
 11
297.016207
 21
175.741133
 31
0.0
  0
LINE
  5
209
330
1F
100
AcDbEntity
  8
LC-002-002-----0
 62
     7
370
    50
100
AcDbLine
 10
278.014636
 20
168.241133
 30
0.0
 11
285.514636
 21
168.241133
 31
0.0
  0
LINE
  5
20A
330
1F
100
AcDbEntity
  8
LC-002-002-----0
 62
     7
370
    50
100
AcDbLine
 10
285.514636
 20
168.241133
 30
0.0
 11
285.514636
 21
175.741133
 31
0.0
  0
LINE
  5
20B
330
1F
100
AcDbEntity
  8
LC-002-002-----0
 62
     7
370
    50
100
AcDbLine
 10
278.014636
 20
168.241133
 30
0.0
 11
278.014636
 21
175.741133
 31
0.0
  0
LINE
  5
20C
330
1F
100
AcDbEntity
  8
LC-002-002-----0
 62
     7
370
    50
100
AcDbLine
 10
278.014636
 20
175.741133
 30
0.0
 11
285.514636
 21
175.741133
 31
0.0
  0
LINE
  5
20D
330
1F
100
AcDbEntity
  8
LC-002-002-----0
 62
     7
370
    50
100
AcDbLine
 10
301.017778
 20
129.734849
 30
0.0
 11
308.517778
 21
129.734849
 31
0.0
  0
LINE
  5
20E
330
1F
100
AcDbEntity
  8
LC-002-002-----0
 62
     7
370
    50
100
AcDbLine
 10
308.517778
 20
129.734849
 30
0.0
 11
308.517778
 21
122.234849
 31
0.0
  0
LINE
  5
20F
330
1F
100
AcDbEntity
  8
LC-002-002-----0
 62
     7
370
    50
100
AcDbLine
 10
301.017778
 20
129.734849
 30
0.0
 11
301.017778
 21
122.234849
 31
0.0
  0
LINE
  5
210
330
1F
100
AcDbEntity
  8
LC-002-002-----0
 62
     7
370
    50
100
AcDbLine
 10
301.017778
 20
122.234849
 30
0.0
 11
308.517778
 21
122.234849
 31
0.0
  0
LINE
  5
211
330
1F
100
AcDbEntity
  8
LC-002-002-----0
 62
     7
370
    50
100
AcDbLine
 10
320.019349
 20
129.734849
 30
0.0
 11
312.519349
 21
129.734849
 31
0.0
  0
LINE
  5
212
330
1F
100
AcDbEntity
  8
LC-002-002-----0
 62
     7
370
    50
100
AcDbLine
 10
312.519349
 20
129.734849
 30
0.0
 11
312.519349
 21
122.234849
 31
0.0
  0
LINE
  5
213
330
1F
100
AcDbEntity
  8
LC-002-002-----0
 62
     7
370
    50
100
AcDbLine
 10
320.019349
 20
129.734849
 30
0.0
 11
320.019349
 21
122.234849
 31
0.0
  0
LINE
  5
214
330
1F
100
AcDbEntity
  8
LC-002-002-----0
 62
     7
370
    50
100
AcDbLine
 10
320.019349
 20
122.234849
 30
0.0
 11
312.519349
 21
122.234849
 31
0.0
  0
LINE
  5
215
330
1F
100
AcDbEntity
  8
LC-002-002-----0
 62
     7
370
    50
100
AcDbLine
 10
331.52092
 20
129.734849
 30
0.0
 11
324.02092
 21
129.734849
 31
0.0
  0
LINE
  5
216
330
1F
100
AcDbEntity
  8
LC-002-002-----0
 62
     7
370
    50
100
AcDbLine
 10
324.02092
 20
129.734849
 30
0.0
 11
324.02092
 21
122.234849
 31
0.0
  0
LINE
  5
217
330
1F
100
AcDbEntity
  8
LC-002-002-----0
 62
     7
370
    50
100
AcDbLine
 10
331.52092
 20
129.734849
 30
0.0
 11
331.52092
 21
122.234849
 31
0.0
  0
LINE
  5
218
330
1F
100
AcDbEntity
  8
LC-002-002-----0
 62
     7
370
    50
100
AcDbLine
 10
331.52092
 20
122.234849
 30
0.0
 11
324.02092
 21
122.234849
 31
0.0
  0
LINE
  5
219
330
1F
100
AcDbEntity
  8
LC-002-002-----0
 62
     7
370
    50
100
AcDbLine
 10
343.022491
 20
129.734849
 30
0.0
 11
335.522491
 21
129.734849
 31
0.0
  0
LINE
  5
21A
330
1F
100
AcDbEntity
  8
LC-002-002-----0
 62
     7
370
    50
100
AcDbLine
 10
335.522491
 20
129.734849
 30
0.0
 11
335.522491
 21
122.234849
 31
0.0
  0
LINE
  5
21B
330
1F
100
AcDbEntity
  8
LC-002-002-----0
 62
     7
370
    50
100
AcDbLine
 10
343.022491
 20
129.734849
 30
0.0
 11
343.022491
 21
122.234849
 31
0.0
  0
LINE
  5
21C
330
1F
100
AcDbEntity
  8
LC-002-002-----0
 62
     7
370
    50
100
AcDbLine
 10
343.022491
 20
122.234849
 30
0.0
 11
335.522491
 21
122.234849
 31
0.0
  0
LINE
  5
21D
330
1F
100
AcDbEntity
  8
LC-002-002-----0
 62
     7
370
    50
100
AcDbLine
 10
289.516207
 20
129.734849
 30
0.0
 11
297.016207
 21
129.734849
 31
0.0
  0
LINE
  5
21E
330
1F
100
AcDbEntity
  8
LC-002-002-----0
 62
     7
370
    50
100
AcDbLine
 10
297.016207
 20
129.734849
 30
0.0
 11
297.016207
 21
122.234849
 31
0.0
  0
LINE
  5
21F
330
1F
100
AcDbEntity
  8
LC-002-002-----0
 62
     7
370
    50
100
AcDbLine
 10
289.516207
 20
129.734849
 30
0.0
 11
289.516207
 21
122.234849
 31
0.0
  0
LINE
  5
220
330
1F
100
AcDbEntity
  8
LC-002-002-----0
 62
     7
370
    50
100
AcDbLine
 10
289.516207
 20
122.234849
 30
0.0
 11
297.016207
 21
122.234849
 31
0.0
  0
LINE
  5
221
330
1F
100
AcDbEntity
  8
LC-002-002-----0
 62
     7
370
    50
100
AcDbLine
 10
278.014636
 20
129.734849
 30
0.0
 11
285.514636
 21
129.734849
 31
0.0
  0
LINE
  5
222
330
1F
100
AcDbEntity
  8
LC-002-002-----0
 62
     7
370
    50
100
AcDbLine
 10
285.514636
 20
129.734849
 30
0.0
 11
285.514636
 21
122.234849
 31
0.0
  0
LINE
  5
223
330
1F
100
AcDbEntity
  8
LC-002-002-----0
 62
     7
370
    50
100
AcDbLine
 10
278.014636
 20
129.734849
 30
0.0
 11
278.014636
 21
122.234849
 31
0.0
  0
LINE
  5
224
330
1F
100
AcDbEntity
  8
LC-002-002-----0
 62
     7
370
    50
100
AcDbLine
 10
278.014636
 20
122.234849
 30
0.0
 11
285.514636
 21
122.234849
 31
0.0
  0
LINE
  5
225
330
1F
100
AcDbEntity
  8
LC-002-002-----0
 62
     7
370
    50
100
AcDbLine
 10
301.017778
 20
118.233278
 30
0.0
 11
308.517778
 21
118.233278
 31
0.0
  0
LINE
  5
226
330
1F
100
AcDbEntity
  8
LC-002-002-----0
 62
     7
370
    50
100
AcDbLine
 10
308.517778
 20
118.233278
 30
0.0
 11
308.517778
 21
110.733278
 31
0.0
  0
LINE
  5
227
330
1F
100
AcDbEntity
  8
LC-002-002-----0
 62
     7
370
    50
100
AcDbLine
 10
301.017778
 20
118.233278
 30
0.0
 11
301.017778
 21
110.733278
 31
0.0
  0
LINE
  5
228
330
1F
100
AcDbEntity
  8
LC-002-002-----0
 62
     7
370
    50
100
AcDbLine
 10
301.017778
 20
110.733278
 30
0.0
 11
308.517778
 21
110.733278
 31
0.0
  0
LINE
  5
229
330
1F
100
AcDbEntity
  8
LC-002-002-----0
 62
     7
370
    50
100
AcDbLine
 10
320.019349
 20
118.233278
 30
0.0
 11
312.519349
 21
118.233278
 31
0.0
  0
LINE
  5
22A
330
1F
100
AcDbEntity
  8
LC-002-002-----0
 62
     7
370
    50
100
AcDbLine
 10
312.519349
 20
118.233278
 30
0.0
 11
312.519349
 21
110.733278
 31
0.0
  0
LINE
  5
22B
330
1F
100
AcDbEntity
  8
LC-002-002-----0
 62
     7
370
    50
100
AcDbLine
 10
320.019349
 20
118.233278
 30
0.0
 11
320.019349
 21
110.733278
 31
0.0
  0
LINE
  5
22C
330
1F
100
AcDbEntity
  8
LC-002-002-----0
 62
     7
370
    50
100
AcDbLine
 10
320.019349
 20
110.733278
 30
0.0
 11
312.519349
 21
110.733278
 31
0.0
  0
LINE
  5
22D
330
1F
100
AcDbEntity
  8
LC-002-002-----0
 62
     7
370
    50
100
AcDbLine
 10
331.52092
 20
118.233278
 30
0.0
 11
324.02092
 21
118.233278
 31
0.0
  0
LINE
  5
22E
330
1F
100
AcDbEntity
  8
LC-002-002-----0
 62
     7
370
    50
100
AcDbLine
 10
324.02092
 20
118.233278
 30
0.0
 11
324.02092
 21
110.733278
 31
0.0
  0
LINE
  5
22F
330
1F
100
AcDbEntity
  8
LC-002-002-----0
 62
     7
370
    50
100
AcDbLine
 10
331.52092
 20
118.233278
 30
0.0
 11
331.52092
 21
110.733278
 31
0.0
  0
LINE
  5
230
330
1F
100
AcDbEntity
  8
LC-002-002-----0
 62
     7
370
    50
100
AcDbLine
 10
331.52092
 20
110.733278
 30
0.0
 11
324.02092
 21
110.733278
 31
0.0
  0
LINE
  5
231
330
1F
100
AcDbEntity
  8
LC-002-002-----0
 62
     7
370
    50
100
AcDbLine
 10
343.022491
 20
118.233278
 30
0.0
 11
335.522491
 21
118.233278
 31
0.0
  0
LINE
  5
232
330
1F
100
AcDbEntity
  8
LC-002-002-----0
 62
     7
370
    50
100
AcDbLine
 10
335.522491
 20
118.233278
 30
0.0
 11
335.522491
 21
110.733278
 31
0.0
  0
LINE
  5
233
330
1F
100
AcDbEntity
  8
LC-002-002-----0
 62
     7
370
    50
100
AcDbLine
 10
343.022491
 20
118.233278
 30
0.0
 11
343.022491
 21
110.733278
 31
0.0
  0
LINE
  5
234
330
1F
100
AcDbEntity
  8
LC-002-002-----0
 62
     7
370
    50
100
AcDbLine
 10
343.022491
 20
110.733278
 30
0.0
 11
335.522491
 21
110.733278
 31
0.0
  0
LINE
  5
235
330
1F
100
AcDbEntity
  8
LC-002-002-----0
 62
     7
370
    50
100
AcDbLine
 10
289.516207
 20
118.233278
 30
0.0
 11
297.016207
 21
118.233278
 31
0.0
  0
LINE
  5
236
330
1F
100
AcDbEntity
  8
LC-002-002-----0
 62
     7
370
    50
100
AcDbLine
 10
297.016207
 20
118.233278
 30
0.0
 11
297.016207
 21
110.733278
 31
0.0
  0
LINE
  5
237
330
1F
100
AcDbEntity
  8
LC-002-002-----0
 62
     7
370
    50
100
AcDbLine
 10
289.516207
 20
118.233278
 30
0.0
 11
289.516207
 21
110.733278
 31
0.0
  0
LINE
  5
238
330
1F
100
AcDbEntity
  8
LC-002-002-----0
 62
     7
370
    50
100
AcDbLine
 10
289.516207
 20
110.733278
 30
0.0
 11
297.016207
 21
110.733278
 31
0.0
  0
LINE
  5
239
330
1F
100
AcDbEntity
  8
LC-002-002-----0
 62
     7
370
    50
100
AcDbLine
 10
278.014636
 20
118.233278
 30
0.0
 11
285.514636
 21
118.233278
 31
0.0
  0
LINE
  5
23A
330
1F
100
AcDbEntity
  8
LC-002-002-----0
 62
     7
370
    50
100
AcDbLine
 10
285.514636
 20
118.233278
 30
0.0
 11
285.514636
 21
110.733278
 31
0.0
  0
LINE
  5
23B
330
1F
100
AcDbEntity
  8
LC-002-002-----0
 62
     7
370
    50
100
AcDbLine
 10
278.014636
 20
118.233278
 30
0.0
 11
278.014636
 21
110.733278
 31
0.0
  0
LINE
  5
23C
330
1F
100
AcDbEntity
  8
LC-002-002-----0
 62
     7
370
    50
100
AcDbLine
 10
278.014636
 20
110.733278
 30
0.0
 11
285.514636
 21
110.733278
 31
0.0
  0
ENDSEC
  0
SECTION
  2
OBJECTS
  0
DICTIONARY
  5
C
330
0
100
AcDbDictionary
281
     1
  3
ACAD_GROUP
350
D
  3
ACAD_LAYOUT
350
1A
  3
ACAD_MLINESTYLE
350
17
  3
ACAD_PLOTSETTINGS
350
19
  3
ACAD_PLOTSTYLENAME
350
E
  0
DICTIONARY
  5
D
102
{ACAD_REACTORS
330
C
102
}
330
C
100
AcDbDictionary
281
     1
  3
LCGROUP131
350
242
  3
LCGROUP297
350
23D
  3
LCGROUP340
350
23F
  3
LCGROUP348
350
23E
  3
LCGROUP383
350
240
  3
LCGROUP385
350
241
  0
DICTIONARY
  5
1A
102
{ACAD_REACTORS
330
C
102
}
330
C
100
AcDbDictionary
281
     1
  3
Layout1
350
1E
  3
Layout2
350
26
  3
Model
350
22
  0
DICTIONARY
  5
17
102
{ACAD_REACTORS
330
C
102
}
330
C
100
AcDbDictionary
281
     1
  3
Standard
350
18
  0
DICTIONARY
  5
19
102
{ACAD_REACTORS
330
C
102
}
330
C
100
AcDbDictionary
281
     1
  0
ACDBDICTIONARYWDFLT
  5
E
102
{ACAD_REACTORS
330
C
102
}
330
C
100
AcDbDictionary
281
     1
  3
Normal
350
F
100
AcDbDictionaryWithDefault
340
F
  0
GROUP
  5
242
102
{ACAD_REACTORS
330
D
102
}
330
D
100
AcDbGroup
300
Rahmen
 70
     1
 71
     1
340
79
340
7A
340
7B
340
7C
340
7D
340
7E
340
7F
340
80
340
81
340
82
340
83
340
84
340
85
340
86
340
87
340
88
340
89
340
8A
340
8B
340
8C
340
8D
340
8E
340
90
340
91
340
92
340
93
340
94
340
96
340
9D
  0
GROUP
  5
23D
102
{ACAD_REACTORS
330
D
102
}
330
D
100
AcDbGroup
300
GRP297
 70
     1
 71
     1
340
E6
340
E7
340
E8
340
F1
340
F2
340
F3
340
F4
340
F5
340
F6
  0
GROUP
  5
23F
102
{ACAD_REACTORS
330
D
102
}
330
D
100
AcDbGroup
300
GRP340
 70
     1
 71
     1
340
58
340
F0
340
F7
340
FA
340
FB
340
FC
340
FD
340
FE
340
FF
340
100
340
101
340
102
340
103
340
104
340
105
340
106
340
107
340
108
340
109
340
10B
340
10C
340
10D
340
10E
340
10F
340
110
340
134
340
158
340
159
340
15A
340
15B
  0
GROUP
  5
23E
102
{ACAD_REACTORS
330
D
102
}
330
D
100
AcDbGroup
300
rost
 70
     1
 71
     1
340
10A
  0
GROUP
  5
240
102
{ACAD_REACTORS
330
D
102
}
330
D
100
AcDbGroup
300
Rahmen
 70
     1
 71
     1
340
8F
340
95
340
97
340
98
340
99
340
9A
340
9B
340
9C
340
9E
340
A0
340
A1
340
A2
340
A3
340
A4
340
A5
340
A6
340
A7
340
A8
340
AE
340
AF
340
C0
340
C7
340
C8
340
C9
340
CA
340
CB
340
CC
340
CD
340
CE
340
CF
340
E5
340
E9
340
EA
340
EB
340
EC
340
ED
340
EE
340
EF
  0
GROUP
  5
241
102
{ACAD_REACTORS
330
D
102
}
330
D
100
AcDbGroup
300
rost
 70
     1
 71
     1
340
16B
  0
LAYOUT
  5
1E
102
{ACAD_REACTORS
330
1A
102
}
330
1A
100
AcDbPlotSettings
  1

  2

  4

  6

 40
0.0
 41
0.0
 42
0.0
 43
0.0
 44
0.0
 45
0.0
 46
0.0
 47
0.0
 48
0.0
 49
0.0
140
0.0
141
0.0
142
1.0
143
1.0
 70
   688
 72
     0
 73
     0
 74
     5
  7

 75
    16
147
1.0
148
0.0
149
0.0
100
AcDbLayout
  1
Layout1
 70
     1
 71
     1
 10
-210.0
 20
-148.5
 11
630.0
 21
445.5
 12
0.0
 22
0.0
 32
0.0
 14
-210.0
 24
-148.5
 34
0.0
 15
630.0
 25
445.5
 35
0.0
146
0.0
 13
0.0
 23
0.0
 33
0.0
 16
1.0
 26
0.0
 36
0.0
 17
0.0
 27
1.0
 37
0.0
 76
     0
330
1B
  0
LAYOUT
  5
26
102
{ACAD_REACTORS
330
1A
102
}
330
1A
100
AcDbPlotSettings
  1

  2

  4

  6

 40
0.0
 41
0.0
 42
0.0
 43
0.0
 44
0.0
 45
0.0
 46
0.0
 47
0.0
 48
0.0
 49
0.0
140
0.0
141
0.0
142
1.0
143
1.0
 70
   688
 72
     0
 73
     0
 74
     5
  7

 75
    16
147
1.0
148
0.0
149
0.0
100
AcDbLayout
  1
Layout2
 70
     1
 71
     2
 10
0.0
 20
0.0
 11
0.0
 21
0.0
 12
0.0
 22
0.0
 32
0.0
 14
0.0
 24
0.0
 34
0.0
 15
0.0
 25
0.0
 35
0.0
146
0.0
 13
0.0
 23
0.0
 33
0.0
 16
1.0
 26
0.0
 36
0.0
 17
0.0
 27
1.0
 37
0.0
 76
     0
330
23
  0
LAYOUT
  5
22
102
{ACAD_REACTORS
330
1A
102
}
330
1A
100
AcDbPlotSettings
  1

  2

  4

  6

 40
0.0
 41
0.0
 42
0.0
 43
0.0
 44
0.0
 45
0.0
 46
0.0
 47
0.0
 48
0.0
 49
0.0
140
0.0
141
0.0
142
1.0
143
1.0
 70
  1776
 72
     0
 73
     0
 74
     0
  7

 75
     0
147
1.0
148
0.0
149
0.0
100
AcDbLayout
  1
Model
 70
     1
 71
     0
 10
-210.0
 20
-148.5
 11
630.0
 21
445.5
 12
0.0
 22
0.0
 32
0.0
 14
-210.0
 24
-148.5
 34
0.0
 15
630.0
 25
445.5
 35
0.0
146
0.0
 13
0.0
 23
0.0
 33
0.0
 16
1.0
 26
0.0
 36
0.0
 17
0.0
 27
1.0
 37
0.0
 76
     0
330
1F
  0
MLINESTYLE
  5
18
102
{ACAD_REACTORS
330
17
102
}
330
17
100
AcDbMlineStyle
  2
Standard
 70
     0
  3

 62
   256
 51
90.0
 52
90.0
 71
     2
 49
0.5
 62
   256
  6
BYLAYER
 49
-0.5
 62
   256
  6
BYLAYER
  0
ACDBPLACEHOLDER
  5
F
102
{ACAD_REACTORS
330
E
102
}
330
E
  0
ENDSEC
  0
EOF
