  0
SECTION
  2
HEADER
  9
$ACADVER
  1
AC1009
  9
$INSBASE
 10
0.0
 20
0.0
 30
0.0
  9
$EXTMIN
 10
0.0
 20
0.0
 30
0.0
  9
$EXTMAX
 10
840.0
 20
594.0
 30
0.0
  9
$LIMMIN
 10
0.0
 20
0.0
  9
$LIMMAX
 10
840.0
 20
594.0
  9
$ORTHOMODE
 70
     0
  9
$REGENMODE
 70
     1
  9
$FILLMODE
 70
     1
  9
$QTEXTMODE
 70
     0
  9
$MIRRTEXT
 70
     1
  9
$DRAGMODE
 70
     2
  9
$LTSCALE
 40
2.0
  9
$OSMODE
 70
     0
  9
$ATTMODE
 70
     1
  9
$TEXTSIZE
 40
0.2
  9
$TRACEWID
 40
0.05
  9
$TEXTSTYLE
  7
STANDARD
  9
$CLAYER
  8
0
  9
$CELTYPE
  6
BYLAYER
  9
$CECOLOR
 62
     7
  9
$DIMSCALE
 40
2.0
  9
$DIMASZ
 40
3.5
  9
$DIMEXO
 40
0.0625
  9
$DIMDLI
 40
0.38
  9
$DIMRND
 40
0.0
  9
$DIMDLE
 40
0.0
  9
$DIMEXE
 40
0.18
  9
$DIMTP
 40
0.0
  9
$DIMTM
 40
0.0
  9
$DIMTXT
 40
3.5
  9
$DIMCEN
 40
0.09
  9
$DIMTSZ
 40
0.0
  9
$DIMTOL
 70
     0
  9
$DIMLIM
 70
     0
  9
$DIMTIH
 70
     1
  9
$DIMTOH
 70
     1
  9
$DIMSE1
 70
     0
  9
$DIMSE2
 70
     0
  9
$DIMTAD
 70
     1
  9
$DIMZIN
 70
     0
  9
$DIMBLK
  1

  9
$DIMASO
 70
     1
  9
$DIMSHO
 70
     1
  9
$DIMPOST
  1

  9
$DIMAPOST
  1

  9
$DIMALT
 70
     0
  9
$DIMALTD
 70
     2
  9
$DIMALTF
 40
25.4
  9
$DIMLFAC
 40
1.0
  9
$DIMTOFL
 70
     0
  9
$DIMTVP
 40
0.0
  9
$DIMTIX
 70
     0
  9
$DIMSOXD
 70
     0
  9
$DIMSAH
 70
     0
  9
$DIMBLK1
  1

  9
$DIMBLK2
  1

  9
$DIMSTYLE
  2
STANDARD
  9
$DIMCLRD
 70
     0
  9
$DIMCLRE
 70
     0
  9
$DIMCLRT
 70
     0
  9
$DIMTFAC
 40
1.0
  9
$DIMGAP
 40
0.09
  9
$LUNITS
 70
     2
  9
$LUPREC
 70
     2
  9
$AXISMODE
 70
     0
  9
$AXISUNIT
 10
0.0
 20
0.0
  9
$SKETCHINC
 40
0.1
  9
$FILLETRAD
 40
0.0
  9
$AUNITS
 70
     0
  9
$AUPREC
 70
     0
  9
$MENU
  1
acad
  9
$ELEVATION
 40
0.0
  9
$PELEVATION
 40
0.0
  9
$THICKNESS
 40
0.0
  9
$LIMCHECK
 70
     0
  9
$BLIPMODE
 70
     1
  9
$CHAMFERA
 40
0.0
  9
$CHAMFERB
 40
0.0
  9
$SKPOLY
 70
     0
  9
$TDCREATE
 40
0.000000000
  9
$TDUPDATE
 40
0.000000000
  9
$TDINDWG
 40
0.0000000000
  9
$TDUSRTIMER
 40
0.0000000000
  9
$USRTIMER
 70
     1
  9
$ANGBASE
 50
0.0
  9
$ANGDIR
 70
     0
  9
$PDMODE
 70
     0
  9
$PDSIZE
 40
0.0
  9
$PLINEWID
 40
0.0
  9
$COORDS
 70
     0
  9
$SPLFRAME
 70
     0
  9
$SPLINETYPE
 70
     6
  9
$SPLINESEGS
 70
     8
  9
$ATTDIA
 70
     0
  9
$ATTREQ
 70
     1
  9
$HANDLING
 70
     1
  9
$HANDSEED
  5
414
  9
$SURFTAB1
 70
     6
  9
$SURFTAB2
 70
     6
  9
$SURFTYPE
 70
     6
  9
$SURFU
 70
     6
  9
$SURFV
 70
     6
  9
$UCSNAME
  2

  9
$UCSORG
 10
0.0
 20
0.0
 30
0.0
  9
$UCSXDIR
 10
1.0
 20
0.0
 30
0.0
  9
$UCSYDIR
 10
0.0
 20
1.0
 30
0.0
  9
$PUCSNAME
  2

  9
$PUCSORG
 10
0.0
 20
0.0
 30
0.0
  9
$PUCSXDIR
 10
1.0
 20
0.0
 30
0.0
  9
$PUCSYDIR
 10
0.0
 20
1.0
 30
0.0
  9
$USERI1
 70
     0
  9
$USERI2
 70
     0
  9
$USERI3
 70
     0
  9
$USERI4
 70
     0
  9
$USERI5
 70
     0
  9
$USERR1
 40
0.0
  9
$USERR2
 40
0.0
  9
$USERR3
 40
0.0
  9
$USERR4
 40
0.0
  9
$USERR5
 40
0.0
  9
$WORLDVIEW
 70
     1
  9
$SHADEDGE
 70
     3
  9
$SHADEDIF
 70
    70
  9
$TILEMODE
 70
     1
  9
$MAXACTVP
 70
    16
  9
$PINSBASE
 10
0.0
 20
0.0
 30
0.0
  9
$PLIMCHECK
 70
     0
  9
$PEXTMIN
 10
1.000000E+20
 20
1.000000E+20
 30
1.000000E+20
  9
$PEXTMAX
 10
-1.000000E+20
 20
-1.000000E+20
 30
-1.000000E+20
  9
$PLIMMIN
 10
0.0
 20
0.0
  9
$PLIMMAX
 10
840.0
 20
594.0
  9
$UNITMODE
 70
     0
  9
$VISRETAIN
 70
     0
  9
$PLINEGEN
 70
     1
  9
$PSLTSCALE
 70
     0
  9
$TREEDEPTH
 70
  3020
  9
$DWGCODEPAGE
  3
dos850
  0
ENDSEC
  0
SECTION
  2
TABLES
  0
TABLE
  2
VPORT
 70
     1
  0
VPORT
  2
*ACTIVE
 70
     0
 10
0.0
 20
0.0
 11
1.0
 21
1.0
 12
420.0
 22
297.0
 13
0.0
 23
0.0
 14
1.0
 24
1.0
 15
0.0
 25
0.0
 16
0.0
 26
0.0
 36
1.0
 17
0.0
 27
0.0
 37
0.0
 40
594.0
 41
1.604229
 42
50.0
 43
0.0
 44
0.0
 50
0.0
 51
0.0
 71
     0
 72
   100
 73
     1
 74
     1
 75
     0
 76
     0
 77
     0
 78
     0
  0
ENDTAB
  0
TABLE
  2
LTYPE
 70
     2
  0
LTYPE
  2
CONTINUOUS
 70
    64
  3
Solid line
 72
    65
 73
     0
 40
0.0
  0
LTYPE
  2
DASHDOT
 70
    64
  3
__ . __ . __ . __ . __
 72
    65
 73
     4
 40
7.5
 49
5.0
 49
-1.25
 49
0.0
 49
-1.25
  0
ENDTAB
  0
TABLE
  2
LAYER
 70
    12
  0
LAYER
  2
0
 70
     0
 62
     7
  6
CONTINUOUS
  0
LAYER
  2
LC-INFO-1-2-MM-A3-0
 70
     1
 62
    -1
  6
CONTINUOUS
  0
LAYER
  2
LC-002-003-MTH-0
 70
     0
 62
     2
  6
CONTINUOUS
  0
LAYER
  2
LC-003-003-MTG-0
 70
     0
 62
     2
  6
CONTINUOUS
  0
LAYER
  2
LC-001-003-----0
 70
     0
 62
     2
  6
CONTINUOUS
  0
LAYER
  2
LC-005-005-----0
 70
     0
 62
     2
  6
CONTINUOUS
  0
LAYER
  2
LC-006-000-----0
 70
     0
 62
     7
  6
CONTINUOUS
  0
LAYER
  2
LC-009-000-----0
 70
     0
 62
     7
  6
CONTINUOUS
  0
LAYER
  2
LC-004-002-----0
 70
     0
 62
     1
  6
CONTINUOUS
  0
LAYER
  2
LC-007-007-KH--0
 70
     0
 62
     7
  6
DASHDOT
  0
LAYER
  2
LC-008-002-RND-0
 70
     0
 62
     1
  6
CONTINUOUS
  0
LAYER
  2
LC-000
 70
     0
 62
     7
  6
CONTINUOUS
  0
ENDTAB
  0
TABLE
  2
STYLE
 70
     4
  0
STYLE
  2
STANDARD
 70
     0
 40
0.0
 41
1.0
 50
0.0
 71
     0
 42
0.0
  3
txt
  4

  0
STYLE
  2
LC-STANDARD
 70
    64
 40
0.0
 41
1.0
 50
0.0
 71
     0
 42
3.5
  3
MONOTXT
  4

  0
STYLE
  2
LC-TXTSTYLE-150-400-0-0-A2
 70
    64
 40
0.0
 41
1.0
 50
15.0
 71
     0
 42
3.5
  3
MONOTXT
  4

  0
STYLE
  2
LC-TXTSTYLE-150-400-0-0-D3
 70
    64
 40
0.0
 41
1.0
 50
15.0
 71
     0
 42
3.5
  3
LC-STANDARD
  4

  0
ENDTAB
  0
TABLE
  2
VIEW
 70
     0
  0
ENDTAB
  0
TABLE
  2
UCS
 70
     0
  0
ENDTAB
  0
TABLE
  2
APPID
 70
     1
  0
APPID
  2
ACAD
 70
     0
  0
ENDTAB
  0
TABLE
  2
DIMSTYLE
 70
     3
  0
DIMSTYLE
  2
STANDARD
 70
     0
  3

  4

  5

  6

  7

 40
1.0
 41
0.18
 42
0.0625
 43
0.38
 44
0.18
 45
0.0
 46
0.0
 47
0.0
 48
0.0
 71
     0
 72
     0
 73
     1
 74
     1
 75
     0
 76
     0
 77
     0
 78
     0
140
0.18
141
0.09
142
0.0
143
25.4
144
1.0
145
0.0
146
1.0
147
0.09
170
     0
171
     2
172
     0
173
     0
174
     0
175
     0
176
     0
177
     0
178
     0
  0
DIMSTYLE
  2
LC-STANDARD
 70
     0
  3

  4

  5

  6

  7

 40
1.0
 41
3.5
 42
0.0
 43
7.5
 44
1.8
 45
0.0
 46
0.0
 47
0.0
 48
0.0
 71
     0
 72
     0
 73
     0
 74
     0
 75
     0
 76
     0
 77
     1
 78
     8
140
3.5
141
0.0
142
0.0
143
25.4
144
1.0
145
0.0
146
0.71
147
1.5
170
     0
171
     2
172
     1
173
     0
174
     0
175
     0
176
     0
177
     0
178
     3
  0
DIMSTYLE
  2
LC-DIM-L-0140-02-02
 70
     0
  3

  4

  5

  6

  7

 40
2.0
 41
3.5
 42
0.0
 43
7.5
 44
1.8
 45
0.0
 46
0.0
 47
0.0
 48
0.0
 71
     0
 72
     0
 73
     0
 74
     0
 75
     0
 76
     0
 77
     1
 78
     8
140
14.0
141
0.0
142
0.0
143
25.4
144
1.0
145
0.0
146
0.71
147
1.5
170
     0
171
     2
172
     0
173
     0
174
     0
175
     0
176
     2
177
     2
178
     8
  0
ENDTAB
  0
ENDSEC
  0
SECTION
  2
BLOCKS
  0
BLOCK
  8
0
  5
23
  2
*D0
 70
    65
 10
0.0
 20
0.0
 30
0.0
  3
*D0
  0
LINE
  8
LC-002-003-MTH-0
  6
CONTINUOUS
  5
25
 10
158.369811
 20
369.075853
 30
0.0
 11
158.369811
 21
408.8
 31
0.0
  0
LINE
  8
LC-002-003-MTH-0
  6
CONTINUOUS
  5
26
 10
304.369811
 20
369.075853
 30
0.0
 11
304.369811
 21
408.8
 31
0.0
  0
LINE
  8
LC-003-003-MTG-0
  6
CONTINUOUS
  5
28
 10
158.369811
 20
392.0
 30
0.0
 11
304.369811
 21
392.0
 31
0.0
  0
LINE
  8
LC-001-003-----0
  6
CONTINUOUS
  5
2A
 10
186.130267
 20
395.654733
 30
0.0
 11
158.369811
 21
392.0
 31
0.0
  0
LINE
  8
LC-001-003-----0
  6
CONTINUOUS
  5
2B
 10
158.369811
 20
392.0
 30
0.0
 11
186.130267
 21
388.345267
 31
0.0
  0
LINE
  8
LC-001-003-----0
  6
CONTINUOUS
  5
2C
 10
186.130267
 20
388.345267
 30
0.0
 11
186.130267
 21
395.654733
 31
0.0
  0
LINE
  8
LC-001-003-----0
  6
CONTINUOUS
  5
2D
 10
186.192549
 20
394.704503
 30
0.0
 11
165.649811
 21
392.0
 31
0.0
  0
LINE
  8
LC-001-003-----0
  6
CONTINUOUS
  5
2E
 10
165.649811
 20
392.0
 30
0.0
 11
186.192549
 21
389.295497
 31
0.0
  0
LINE
  8
LC-001-003-----0
  6
CONTINUOUS
  5
2F
 10
186.25483
 20
393.754272
 30
0.0
 11
172.929811
 21
392.0
 31
0.0
  0
LINE
  8
LC-001-003-----0
  6
CONTINUOUS
  5
30
 10
172.929811
 20
392.0
 30
0.0
 11
186.25483
 21
390.245728
 31
0.0
  0
LINE
  8
LC-001-003-----0
  6
CONTINUOUS
  5
31
 10
186.317111
 20
392.804041
 30
0.0
 11
180.209811
 21
392.0
 31
0.0
  0
LINE
  8
LC-001-003-----0
  6
CONTINUOUS
  5
32
 10
180.209811
 20
392.0
 30
0.0
 11
186.317111
 21
391.195959
 31
0.0
  0
LINE
  8
LC-001-003-----0
  6
CONTINUOUS
  5
33
 10
276.609355
 20
388.345267
 30
0.0
 11
304.369811
 21
392.0
 31
0.0
  0
LINE
  8
LC-001-003-----0
  6
CONTINUOUS
  5
34
 10
304.369811
 20
392.0
 30
0.0
 11
276.609355
 21
395.654733
 31
0.0
  0
LINE
  8
LC-001-003-----0
  6
CONTINUOUS
  5
35
 10
276.609355
 20
395.654733
 30
0.0
 11
276.609355
 21
388.345267
 31
0.0
  0
LINE
  8
LC-001-003-----0
  6
CONTINUOUS
  5
36
 10
276.547074
 20
389.295497
 30
0.0
 11
297.089811
 21
392.0
 31
0.0
  0
LINE
  8
LC-001-003-----0
  6
CONTINUOUS
  5
37
 10
297.089811
 20
392.0
 30
0.0
 11
276.547074
 21
394.704503
 31
0.0
  0
LINE
  8
LC-001-003-----0
  6
CONTINUOUS
  5
38
 10
276.484792
 20
390.245728
 30
0.0
 11
289.809811
 21
392.0
 31
0.0
  0
LINE
  8
LC-001-003-----0
  6
CONTINUOUS
  5
39
 10
289.809811
 20
392.0
 30
0.0
 11
276.484792
 21
393.754272
 31
0.0
  0
LINE
  8
LC-001-003-----0
  6
CONTINUOUS
  5
3A
 10
276.422511
 20
391.195959
 30
0.0
 11
282.529811
 21
392.0
 31
0.0
  0
LINE
  8
LC-001-003-----0
  6
CONTINUOUS
  5
3B
 10
282.529811
 20
392.0
 30
0.0
 11
276.422511
 21
392.804041
 31
0.0
  0
TEXT
  8
LC-001-003-----0
  6
CONTINUOUS
 62
     8
  5
3D
 10
205.954192
 20
399.827554
 30
0.0
 40
28.0
  1
146
 41
0.9
 51
15.0
  7
LC-TXTSTYLE-150-400-0-0-D0
 72
     1
 11
235.717971
 21
399.827554
 31
0.0
  0
ENDBLK
  8
0
  5
3E
  0
BLOCK
  8
0
  5
40
  2
*D1
 70
    65
 10
0.0
 20
0.0
 30
0.0
  3
*D1
  0
LINE
  8
LC-002-003-MTH-0
  6
CONTINUOUS
  5
41
 10
128.369811
 20
367.075853
 30
0.0
 11
128.369811
 21
448.0
 31
0.0
  0
LINE
  8
LC-002-003-MTH-0
  6
CONTINUOUS
  5
42
 10
334.369811
 20
367.075853
 30
0.0
 11
334.369811
 21
448.0
 31
0.0
  0
LINE
  8
LC-003-003-MTG-0
  6
CONTINUOUS
  5
43
 10
128.369811
 20
431.2
 30
0.0
 11
334.369811
 21
431.2
 31
0.0
  0
LINE
  8
LC-001-003-----0
  6
CONTINUOUS
  5
44
 10
156.130267
 20
434.854733
 30
0.0
 11
128.369811
 21
431.2
 31
0.0
  0
LINE
  8
LC-001-003-----0
  6
CONTINUOUS
  5
45
 10
128.369811
 20
431.2
 30
0.0
 11
156.130267
 21
427.545267
 31
0.0
  0
LINE
  8
LC-001-003-----0
  6
CONTINUOUS
  5
46
 10
156.130267
 20
427.545267
 30
0.0
 11
156.130267
 21
434.854733
 31
0.0
  0
LINE
  8
LC-001-003-----0
  6
CONTINUOUS
  5
47
 10
156.192549
 20
433.904503
 30
0.0
 11
135.649811
 21
431.2
 31
0.0
  0
LINE
  8
LC-001-003-----0
  6
CONTINUOUS
  5
48
 10
135.649811
 20
431.2
 30
0.0
 11
156.192549
 21
428.495497
 31
0.0
  0
LINE
  8
LC-001-003-----0
  6
CONTINUOUS
  5
49
 10
156.25483
 20
432.954272
 30
0.0
 11
142.929811
 21
431.2
 31
0.0
  0
LINE
  8
LC-001-003-----0
  6
CONTINUOUS
  5
4A
 10
142.929811
 20
431.2
 30
0.0
 11
156.25483
 21
429.445728
 31
0.0
  0
LINE
  8
LC-001-003-----0
  6
CONTINUOUS
  5
4B
 10
156.317111
 20
432.004041
 30
0.0
 11
150.209811
 21
431.2
 31
0.0
  0
LINE
  8
LC-001-003-----0
  6
CONTINUOUS
  5
4C
 10
150.209811
 20
431.2
 30
0.0
 11
156.317111
 21
430.395959
 31
0.0
  0
LINE
  8
LC-001-003-----0
  6
CONTINUOUS
  5
4D
 10
306.609355
 20
427.545267
 30
0.0
 11
334.369811
 21
431.2
 31
0.0
  0
LINE
  8
LC-001-003-----0
  6
CONTINUOUS
  5
4E
 10
334.369811
 20
431.2
 30
0.0
 11
306.609355
 21
434.854733
 31
0.0
  0
LINE
  8
LC-001-003-----0
  6
CONTINUOUS
  5
4F
 10
306.609355
 20
434.854733
 30
0.0
 11
306.609355
 21
427.545267
 31
0.0
  0
LINE
  8
LC-001-003-----0
  6
CONTINUOUS
  5
50
 10
306.547074
 20
428.495497
 30
0.0
 11
327.089811
 21
431.2
 31
0.0
  0
LINE
  8
LC-001-003-----0
  6
CONTINUOUS
  5
51
 10
327.089811
 20
431.2
 30
0.0
 11
306.547074
 21
433.904503
 31
0.0
  0
LINE
  8
LC-001-003-----0
  6
CONTINUOUS
  5
52
 10
306.484792
 20
429.445728
 30
0.0
 11
319.809811
 21
431.2
 31
0.0
  0
LINE
  8
LC-001-003-----0
  6
CONTINUOUS
  5
53
 10
319.809811
 20
431.2
 30
0.0
 11
306.484792
 21
432.954272
 31
0.0
  0
LINE
  8
LC-001-003-----0
  6
CONTINUOUS
  5
54
 10
306.422511
 20
430.395959
 30
0.0
 11
312.529811
 21
431.2
 31
0.0
  0
LINE
  8
LC-001-003-----0
  6
CONTINUOUS
  5
55
 10
312.529811
 20
431.2
 30
0.0
 11
306.422511
 21
432.004041
 31
0.0
  0
TEXT
  8
LC-001-003-----0
  6
CONTINUOUS
 62
     8
  5
56
 10
205.954192
 20
439.027554
 30
0.0
 40
28.0
  1
206
 51
15.0
  7
LC-TXTSTYLE-150-400-0-0-D0
 72
     1
 11
235.717971
 21
439.027554
 31
0.0
  0
ENDBLK
  8
0
  5
57
  0
BLOCK
  8
0
  5
59
  2
*D2
 70
    65
 10
0.0
 20
0.0
 30
0.0
  3
*D2
  0
LINE
  8
LC-002-003-MTH-0
  6
CONTINUOUS
  5
5A
 10
158.869811
 20
281.075853
 30
0.0
 11
158.869811
 21
218.4
 31
0.0
  0
LINE
  8
LC-002-003-MTH-0
  6
CONTINUOUS
  5
5B
 10
303.869811
 20
281.075853
 30
0.0
 11
303.869811
 21
218.4
 31
0.0
  0
LINE
  8
LC-003-003-MTG-0
  6
CONTINUOUS
  5
5C
 10
158.869811
 20
235.2
 30
0.0
 11
303.869811
 21
235.2
 31
0.0
  0
LINE
  8
LC-001-003-----0
  6
CONTINUOUS
  5
5D
 10
186.630267
 20
238.854733
 30
0.0
 11
158.869811
 21
235.2
 31
0.0
  0
LINE
  8
LC-001-003-----0
  6
CONTINUOUS
  5
5E
 10
158.869811
 20
235.2
 30
0.0
 11
186.630267
 21
231.545267
 31
0.0
  0
LINE
  8
LC-001-003-----0
  6
CONTINUOUS
  5
5F
 10
186.630267
 20
231.545267
 30
0.0
 11
186.630267
 21
238.854733
 31
0.0
  0
LINE
  8
LC-001-003-----0
  6
CONTINUOUS
  5
60
 10
186.692549
 20
237.904503
 30
0.0
 11
166.149811
 21
235.2
 31
0.0
  0
LINE
  8
LC-001-003-----0
  6
CONTINUOUS
  5
61
 10
166.149811
 20
235.2
 30
0.0
 11
186.692549
 21
232.495497
 31
0.0
  0
LINE
  8
LC-001-003-----0
  6
CONTINUOUS
  5
62
 10
186.75483
 20
236.954272
 30
0.0
 11
173.429811
 21
235.2
 31
0.0
  0
LINE
  8
LC-001-003-----0
  6
CONTINUOUS
  5
63
 10
173.429811
 20
235.2
 30
0.0
 11
186.75483
 21
233.445728
 31
0.0
  0
LINE
  8
LC-001-003-----0
  6
CONTINUOUS
  5
64
 10
186.817111
 20
236.004041
 30
0.0
 11
180.709811
 21
235.2
 31
0.0
  0
LINE
  8
LC-001-003-----0
  6
CONTINUOUS
  5
65
 10
180.709811
 20
235.2
 30
0.0
 11
186.817111
 21
234.395959
 31
0.0
  0
LINE
  8
LC-001-003-----0
  6
CONTINUOUS
  5
66
 10
276.109355
 20
231.545267
 30
0.0
 11
303.869811
 21
235.2
 31
0.0
  0
LINE
  8
LC-001-003-----0
  6
CONTINUOUS
  5
67
 10
303.869811
 20
235.2
 30
0.0
 11
276.109355
 21
238.854733
 31
0.0
  0
LINE
  8
LC-001-003-----0
  6
CONTINUOUS
  5
68
 10
276.109355
 20
238.854733
 30
0.0
 11
276.109355
 21
231.545267
 31
0.0
  0
LINE
  8
LC-001-003-----0
  6
CONTINUOUS
  5
69
 10
276.047074
 20
232.495497
 30
0.0
 11
296.589811
 21
235.2
 31
0.0
  0
LINE
  8
LC-001-003-----0
  6
CONTINUOUS
  5
6A
 10
296.589811
 20
235.2
 30
0.0
 11
276.047074
 21
237.904503
 31
0.0
  0
LINE
  8
LC-001-003-----0
  6
CONTINUOUS
  5
6B
 10
275.984792
 20
233.445728
 30
0.0
 11
289.309811
 21
235.2
 31
0.0
  0
LINE
  8
LC-001-003-----0
  6
CONTINUOUS
  5
6C
 10
289.309811
 20
235.2
 30
0.0
 11
275.984792
 21
236.954272
 31
0.0
  0
LINE
  8
LC-001-003-----0
  6
CONTINUOUS
  5
6D
 10
275.922511
 20
234.395959
 30
0.0
 11
282.029811
 21
235.2
 31
0.0
  0
LINE
  8
LC-001-003-----0
  6
CONTINUOUS
  5
6E
 10
282.029811
 20
235.2
 30
0.0
 11
275.922511
 21
236.004041
 31
0.0
  0
TEXT
  8
LC-001-003-----0
  6
CONTINUOUS
 62
     8
  5
6F
 10
197.620333
 20
243.027554
 30
0.0
 40
28.0
  1
Ø145
 51
15.0
  7
LC-TXTSTYLE-150-400-0-0-D0
 72
     1
 11
235.717971
 21
243.027554
 31
0.0
  0
ENDBLK
  8
0
  5
70
  0
BLOCK
  8
0
  5
72
  2
*X3
 70
    65
 10
231.369811
 20
362.575855
 30
0.0
  3
*X3
  0
LINE
  8
LC-005-005-----0
  6
CONTINUOUS
  5
74
 10
233.879034
 20
368.575855
 30
0.0
 11
235.379036
 21
367.075855
 31
0.0
  0
LINE
  8
LC-005-005-----0
  6
CONTINUOUS
  5
75
 10
238.121677
 20
368.575855
 30
0.0
 11
239.621679
 21
367.075855
 31
0.0
  0
LINE
  8
LC-005-005-----0
  6
CONTINUOUS
  5
76
 10
242.364321
 20
368.575855
 30
0.0
 11
243.864323
 21
367.075855
 31
0.0
  0
LINE
  8
LC-005-005-----0
  6
CONTINUOUS
  5
77
 10
246.606964
 20
368.575855
 30
0.0
 11
248.106966
 21
367.075855
 31
0.0
  0
LINE
  8
LC-005-005-----0
  6
CONTINUOUS
  5
78
 10
249.869811
 20
365.313012
 30
0.0
 11
251.369811
 21
363.813014
 31
0.0
  0
ENDBLK
  8
0
  5
79
  0
BLOCK
  8
0
  5
7B
  2
*X4
 70
    65
 10
259.369811
 20
362.575855
 30
0.0
  3
*X4
  0
LINE
  8
LC-005-005-----0
  6
CONTINUOUS
  5
7C
 10
259.369811
 20
364.2983
 30
0.0
 11
260.092258
 21
363.575855
 31
0.0
  0
LINE
  8
LC-005-005-----0
  6
CONTINUOUS
  5
7D
 10
260.231105
 20
367.679645
 30
0.0
 11
261.291838
 21
366.618914
 31
0.0
  0
LINE
  8
LC-005-005-----0
  6
CONTINUOUS
  5
7E
 10
263.577538
 20
368.575855
 30
0.0
 11
267.369811
 21
364.783587
 31
0.0
  0
ENDBLK
  8
0
  5
7F
  0
BLOCK
  8
0
  5
81
  2
*X5
 70
    65
 10
275.369811
 20
362.575855
 30
0.0
  3
*X5
  0
LINE
  8
LC-005-005-----0
  6
CONTINUOUS
  5
82
 10
275.369811
 20
365.268873
 30
0.0
 11
276.869811
 21
363.768875
 31
0.0
  0
LINE
  8
LC-005-005-----0
  6
CONTINUOUS
  5
83
 10
276.76855
 20
368.112774
 30
0.0
 11
277.88573
 21
366.995596
 31
0.0
  0
LINE
  8
LC-005-005-----0
  6
CONTINUOUS
  5
84
 10
280.553757
 20
368.57021
 30
0.0
 11
283.364166
 21
365.759804
 31
0.0
  0
LINE
  8
LC-005-005-----0
  6
CONTINUOUS
  5
85
 10
291.430929
 20
366.178328
 30
0.0
 11
292.869811
 21
364.739448
 31
0.0
  0
LINE
  8
LC-005-005-----0
  6
CONTINUOUS
  5
86
 10
293.427783
 20
368.424114
 30
0.0
 11
294.776045
 21
367.075855
 31
0.0
  0
LINE
  8
LC-005-005-----0
  6
CONTINUOUS
  5
87
 10
297.518686
 20
368.575855
 30
0.0
 11
300.869812
 21
365.224733
 31
0.0
  0
ENDBLK
  8
0
  5
88
  0
BLOCK
  8
0
  5
8A
  2
BLK1
 70
    64
 10
0.0
 20
0.0
 30
0.0
  3
BLK1
  0
ENDBLK
  8
0
  5
8B
  0
BLOCK
  8
0
  5
8D
  2
*X7
 70
    65
 10
211.370032
 20
362.576035
 30
0.0
  3
*X7
  0
LINE
  8
LC-005-005-----0
  6
CONTINUOUS
  5
8E
 10
211.370493
 20
365.628538
 30
0.0
 11
212.870033
 21
364.129
 31
0.0
  0
LINE
  8
LC-005-005-----0
  6
CONTINUOUS
  5
8F
 10
212.997846
 20
368.243825
 30
0.0
 11
214.177983
 21
367.06369
 31
0.0
  0
LINE
  8
LC-005-005-----0
  6
CONTINUOUS
  5
90
 10
216.908281
 20
368.576033
 30
0.0
 11
218.408284
 21
367.076032
 31
0.0
  0
LINE
  8
LC-005-005-----0
  6
CONTINUOUS
  5
91
 10
221.150927
 20
368.576031
 30
0.0
 11
222.65093
 21
367.07603
 31
0.0
  0
LINE
  8
LC-005-005-----0
  6
CONTINUOUS
  5
92
 10
225.393573
 20
368.576028
 30
0.0
 11
226.893576
 21
367.076027
 31
0.0
  0
LINE
  8
LC-005-005-----0
  6
CONTINUOUS
  5
93
 10
229.63622
 20
368.576025
 30
0.0
 11
231.136223
 21
367.076024
 31
0.0
  0
ENDBLK
  8
0
  5
94
  0
BLOCK
  8
0
  5
96
  2
*X8
 70
    65
 10
195.370032
 20
362.576044
 30
0.0
  3
*X8
  0
LINE
  8
LC-005-005-----0
  6
CONTINUOUS
  5
97
 10
195.370033
 20
364.658425
 30
0.0
 11
196.452413
 21
363.576047
 31
0.0
  0
LINE
  8
LC-005-005-----0
  6
CONTINUOUS
  5
98
 10
196.417456
 20
367.853641
 30
0.0
 11
197.484407
 21
366.786692
 31
0.0
  0
LINE
  8
LC-005-005-----0
  6
CONTINUOUS
  5
99
 10
199.937696
 20
368.576045
 30
0.0
 11
203.370033
 21
365.143711
 31
0.0
  0
ENDBLK
  8
0
  5
9A
  0
BLOCK
  8
0
  5
9C
  2
*X9
 70
    65
 10
161.870032
 20
362.576055
 30
0.0
  3
*X9
  0
LINE
  8
LC-005-005-----0
  6
CONTINUOUS
  5
9D
 10
161.870033
 20
364.217278
 30
0.0
 11
162.511245
 21
363.576067
 31
0.0
  0
LINE
  8
LC-005-005-----0
  6
CONTINUOUS
  5
9E
 10
162.691433
 20
367.638517
 30
0.0
 11
163.75289
 21
366.577062
 31
0.0
  0
LINE
  8
LC-005-005-----0
  6
CONTINUOUS
  5
9F
 10
165.996525
 20
368.576067
 30
0.0
 11
167.496528
 21
367.076066
 31
0.0
  0
LINE
  8
LC-005-005-----0
  6
CONTINUOUS
  5
A0
 10
169.870033
 20
364.702564
 30
0.0
 11
170.996535
 21
363.576063
 31
0.0
  0
LINE
  8
LC-005-005-----0
  6
CONTINUOUS
  5
A1
 10
179.370032
 20
363.687853
 30
0.0
 11
179.481828
 21
363.576058
 31
0.0
  0
LINE
  8
LC-005-005-----0
  6
CONTINUOUS
  5
A2
 10
179.950632
 20
367.349892
 30
0.0
 11
181.036899
 21
366.263626
 31
0.0
  0
LINE
  8
LC-005-005-----0
  6
CONTINUOUS
  5
A3
 10
182.967111
 20
368.576056
 30
0.0
 11
184.47048
 21
367.072688
 31
0.0
  0
LINE
  8
LC-005-005-----0
  6
CONTINUOUS
  5
A4
 10
185.866667
 20
365.676503
 30
0.0
 11
187.370033
 21
364.173139
 31
0.0
  0
ENDBLK
  8
0
  5
A5
  0
BLOCK
  8
0
  5
A7
  2
BLK2
 70
    64
 10
0.0
 20
0.0
 30
0.0
  3
BLK2
  0
ENDBLK
  8
0
  5
A8
  0
BLOCK
  8
0
  5
AA
  2
*X11
 70
    65
 10
298.869811
 20
279.075853
 30
0.0
  3
*X11
  0
LINE
  8
LC-005-005-----0
  6
CONTINUOUS
  5
AB
 10
301.70327
 20
279.075853
 30
0.0
 11
303.869811
 21
281.242394
 31
0.0
  0
LINE
  8
LC-005-005-----0
  6
CONTINUOUS
  5
AC
 10
300.869811
 20
281.070821
 30
0.0
 11
303.869811
 21
284.070821
 31
0.0
  0
LINE
  8
LC-005-005-----0
  6
CONTINUOUS
  5
AD
 10
300.869811
 20
283.899248
 30
0.0
 11
303.869811
 21
286.899248
 31
0.0
  0
LINE
  8
LC-005-005-----0
  6
CONTINUOUS
  5
AE
 10
300.869811
 20
286.727676
 30
0.0
 11
303.869811
 21
289.727676
 31
0.0
  0
LINE
  8
LC-005-005-----0
  6
CONTINUOUS
  5
AF
 10
300.869811
 20
289.556103
 30
0.0
 11
303.869811
 21
292.556103
 31
0.0
  0
LINE
  8
LC-005-005-----0
  6
CONTINUOUS
  5
B0
 10
300.869811
 20
292.38453
 30
0.0
 11
303.869811
 21
295.38453
 31
0.0
  0
LINE
  8
LC-005-005-----0
  6
CONTINUOUS
  5
B1
 10
300.869811
 20
295.212957
 30
0.0
 11
303.869811
 21
298.212957
 31
0.0
  0
LINE
  8
LC-005-005-----0
  6
CONTINUOUS
  5
B2
 10
300.869811
 20
298.041384
 30
0.0
 11
303.869811
 21
301.041384
 31
0.0
  0
LINE
  8
LC-005-005-----0
  6
CONTINUOUS
  5
B3
 10
300.869811
 20
300.869811
 30
0.0
 11
303.869811
 21
303.869811
 31
0.0
  0
LINE
  8
LC-005-005-----0
  6
CONTINUOUS
  5
B4
 10
300.869811
 20
303.698238
 30
0.0
 11
303.869811
 21
306.698238
 31
0.0
  0
LINE
  8
LC-005-005-----0
  6
CONTINUOUS
  5
B5
 10
300.869811
 20
306.526665
 30
0.0
 11
303.869811
 21
309.526665
 31
0.0
  0
LINE
  8
LC-005-005-----0
  6
CONTINUOUS
  5
B6
 10
300.869811
 20
309.355093
 30
0.0
 11
303.869811
 21
312.355093
 31
0.0
  0
LINE
  8
LC-005-005-----0
  6
CONTINUOUS
  5
B7
 10
300.869811
 20
312.18352
 30
0.0
 11
303.869811
 21
315.18352
 31
0.0
  0
LINE
  8
LC-005-005-----0
  6
CONTINUOUS
  5
B8
 10
300.869811
 20
315.011947
 30
0.0
 11
303.869811
 21
318.011947
 31
0.0
  0
LINE
  8
LC-005-005-----0
  6
CONTINUOUS
  5
B9
 10
300.869811
 20
317.840374
 30
0.0
 11
303.869811
 21
320.840374
 31
0.0
  0
LINE
  8
LC-005-005-----0
  6
CONTINUOUS
  5
BA
 10
300.869811
 20
320.668801
 30
0.0
 11
303.869811
 21
323.668801
 31
0.0
  0
LINE
  8
LC-005-005-----0
  6
CONTINUOUS
  5
BB
 10
300.869811
 20
323.497228
 30
0.0
 11
303.869811
 21
326.497228
 31
0.0
  0
LINE
  8
LC-005-005-----0
  6
CONTINUOUS
  5
BC
 10
300.869811
 20
326.325655
 30
0.0
 11
303.869811
 21
329.325655
 31
0.0
  0
LINE
  8
LC-005-005-----0
  6
CONTINUOUS
  5
BD
 10
300.869811
 20
329.154082
 30
0.0
 11
303.869811
 21
332.154082
 31
0.0
  0
LINE
  8
LC-005-005-----0
  6
CONTINUOUS
  5
BE
 10
300.869811
 20
331.98251
 30
0.0
 11
303.869811
 21
334.98251
 31
0.0
  0
LINE
  8
LC-005-005-----0
  6
CONTINUOUS
  5
BF
 10
332.963154
 20
364.075853
 30
0.0
 11
334.369811
 21
365.48251
 31
0.0
  0
LINE
  8
LC-005-005-----0
  6
CONTINUOUS
  5
C0
 10
300.869811
 20
334.810937
 30
0.0
 11
303.869811
 21
337.810937
 31
0.0
  0
LINE
  8
LC-005-005-----0
  6
CONTINUOUS
  5
C1
 10
330.134727
 20
364.075853
 30
0.0
 11
333.134727
 21
367.075853
 31
0.0
  0
LINE
  8
LC-005-005-----0
  6
CONTINUOUS
  5
C2
 10
300.869811
 20
337.639364
 30
0.0
 11
303.869811
 21
340.639364
 31
0.0
  0
LINE
  8
LC-005-005-----0
  6
CONTINUOUS
  5
C3
 10
327.3063
 20
364.075853
 30
0.0
 11
330.3063
 21
367.075853
 31
0.0
  0
LINE
  8
LC-005-005-----0
  6
CONTINUOUS
  5
C4
 10
300.869811
 20
340.467791
 30
0.0
 11
303.869811
 21
343.467791
 31
0.0
  0
LINE
  8
LC-005-005-----0
  6
CONTINUOUS
  5
C5
 10
324.477873
 20
364.075853
 30
0.0
 11
327.477873
 21
367.075853
 31
0.0
  0
LINE
  8
LC-005-005-----0
  6
CONTINUOUS
  5
C6
 10
300.869811
 20
343.296218
 30
0.0
 11
303.869811
 21
346.296218
 31
0.0
  0
LINE
  8
LC-005-005-----0
  6
CONTINUOUS
  5
C7
 10
321.649446
 20
364.075853
 30
0.0
 11
324.649446
 21
367.075853
 31
0.0
  0
LINE
  8
LC-005-005-----0
  6
CONTINUOUS
  5
C8
 10
300.869811
 20
346.124645
 30
0.0
 11
303.869811
 21
349.124645
 31
0.0
  0
LINE
  8
LC-005-005-----0
  6
CONTINUOUS
  5
C9
 10
318.821019
 20
364.075853
 30
0.0
 11
321.821019
 21
367.075853
 31
0.0
  0
LINE
  8
LC-005-005-----0
  6
CONTINUOUS
  5
CA
 10
300.869811
 20
348.953072
 30
0.0
 11
303.869811
 21
351.953072
 31
0.0
  0
LINE
  8
LC-005-005-----0
  6
CONTINUOUS
  5
CB
 10
315.992592
 20
364.075853
 30
0.0
 11
318.992592
 21
367.075853
 31
0.0
  0
LINE
  8
LC-005-005-----0
  6
CONTINUOUS
  5
CC
 10
300.869811
 20
351.781499
 30
0.0
 11
304.369811
 21
355.281499
 31
0.0
  0
LINE
  8
LC-005-005-----0
  6
CONTINUOUS
  5
CD
 10
313.164164
 20
364.075853
 30
0.0
 11
316.164164
 21
367.075853
 31
0.0
  0
LINE
  8
LC-005-005-----0
  6
CONTINUOUS
  5
CE
 10
300.869811
 20
354.609927
 30
0.0
 11
304.369811
 21
358.109927
 31
0.0
  0
LINE
  8
LC-005-005-----0
  6
CONTINUOUS
  5
CF
 10
310.335737
 20
364.075853
 30
0.0
 11
313.335737
 21
367.075853
 31
0.0
  0
LINE
  8
LC-005-005-----0
  6
CONTINUOUS
  5
D0
 10
300.869811
 20
357.438354
 30
0.0
 11
304.369811
 21
360.938354
 31
0.0
  0
LINE
  8
LC-005-005-----0
  6
CONTINUOUS
  5
D1
 10
307.50731
 20
364.075853
 30
0.0
 11
310.50731
 21
367.075853
 31
0.0
  0
LINE
  8
LC-005-005-----0
  6
CONTINUOUS
  5
D2
 10
298.869811
 20
358.266781
 30
0.0
 11
304.369811
 21
363.766781
 31
0.0
  0
LINE
  8
LC-005-005-----0
  6
CONTINUOUS
  5
D3
 10
304.678883
 20
364.075853
 30
0.0
 11
307.678883
 21
367.075853
 31
0.0
  0
LINE
  8
LC-005-005-----0
  6
CONTINUOUS
  5
D4
 10
298.869811
 20
361.095208
 30
0.0
 11
304.850456
 21
367.075853
 31
0.0
  0
LINE
  8
LC-005-005-----0
  6
CONTINUOUS
  5
D5
 10
300.869811
 20
365.923635
 30
0.0
 11
304.022029
 21
369.075853
 31
0.0
  0
LINE
  8
LC-005-005-----0
  6
CONTINUOUS
  5
D6
 10
300.869811
 20
368.752062
 30
0.0
 11
301.193602
 21
369.075853
 31
0.0
  0
ENDBLK
  8
0
  5
D7
  0
BLOCK
  8
0
  5
D9
  2
BLK3
 70
    64
 10
0.0
 20
0.0
 30
0.0
  3
BLK3
  0
ENDBLK
  8
0
  5
DA
  0
BLOCK
  8
0
  5
DC
  2
BLK4
 70
    64
 10
0.0
 20
0.0
 30
0.0
  3
BLK4
  0
ENDBLK
  8
0
  5
DD
  0
BLOCK
  8
0
  5
DF
  2
BLK5
 70
    64
 10
0.0
 20
0.0
 30
0.0
  3
BLK5
  0
ENDBLK
  8
0
  5
E0
  0
BLOCK
  8
0
  5
E2
  2
BLK6
 70
    64
 10
0.0
 20
0.0
 30
0.0
  3
BLK6
  0
ENDBLK
  8
0
  5
E3
  0
BLOCK
  8
0
  5
E5
  2
BLK7
 70
    64
 10
0.0
 20
0.0
 30
0.0
  3
BLK7
  0
ENDBLK
  8
0
  5
E6
  0
BLOCK
  8
0
  5
E8
  2
BLK8
 70
    64
 10
0.0
 20
0.0
 30
0.0
  3
BLK8
  0
ENDBLK
  8
0
  5
E9
  0
BLOCK
  8
0
  5
EB
  2
BLK9
 70
    64
 10
0.0
 20
0.0
 30
0.0
  3
BLK9
  0
ENDBLK
  8
0
  5
EC
  0
BLOCK
  8
0
  5
EE
  2
BLK10
 70
    64
 10
0.0
 20
0.0
 30
0.0
  3
BLK10
  0
ENDBLK
  8
0
  5
EF
  0
BLOCK
  8
0
  5
F1
  2
BLK11
 70
    64
 10
0.0
 20
0.0
 30
0.0
  3
BLK11
  0
ENDBLK
  8
0
  5
F2
  0
BLOCK
  8
0
  5
F4
  2
BLK12
 70
    64
 10
0.0
 20
0.0
 30
0.0
  3
BLK12
  0
ENDBLK
  8
0
  5
F5
  0
BLOCK
  8
0
  5
F7
  2
BLK13
 70
    64
 10
0.0
 20
0.0
 30
0.0
  3
BLK13
  0
ENDBLK
  8
0
  5
F8
  0
BLOCK
  8
0
  5
FA
  2
BLK14
 70
    64
 10
0.0
 20
0.0
 30
0.0
  3
BLK14
  0
ENDBLK
  8
0
  5
FB
  0
BLOCK
  8
0
  5
FD
  2
BLK15
 70
    64
 10
0.0
 20
0.0
 30
0.0
  3
BLK15
  0
ENDBLK
  8
0
  5
FE
  0
BLOCK
  8
0
  5
100
  2
BLK16
 70
    64
 10
0.0
 20
0.0
 30
0.0
  3
BLK16
  0
ENDBLK
  8
0
  5
101
  0
BLOCK
  8
0
  5
103
  2
BLK17
 70
    64
 10
0.0
 20
0.0
 30
0.0
  3
BLK17
  0
ENDBLK
  8
0
  5
104
  0
BLOCK
  8
0
  5
106
  2
BLK18
 70
    64
 10
0.0
 20
0.0
 30
0.0
  3
BLK18
  0
ENDBLK
  8
0
  5
107
  0
BLOCK
  8
0
  5
109
  2
BLK19
 70
    64
 10
0.0
 20
0.0
 30
0.0
  3
BLK19
  0
ENDBLK
  8
0
  5
10A
  0
BLOCK
  8
0
  5
10C
  2
BLK20
 70
    64
 10
0.0
 20
0.0
 30
0.0
  3
BLK20
  0
ENDBLK
  8
0
  5
10D
  0
BLOCK
  8
0
  5
10F
  2
BLK21
 70
    64
 10
0.0
 20
0.0
 30
0.0
  3
BLK21
  0
ENDBLK
  8
0
  5
110
  0
BLOCK
  8
0
  5
112
  2
BLK22
 70
    64
 10
0.0
 20
0.0
 30
0.0
  3
BLK22
  0
ENDBLK
  8
0
  5
113
  0
BLOCK
  8
0
  5
115
  2
BLK23
 70
    64
 10
0.0
 20
0.0
 30
0.0
  3
BLK23
  0
ENDBLK
  8
0
  5
116
  0
BLOCK
  8
0
  5
118
  2
BLK24
 70
    64
 10
0.0
 20
0.0
 30
0.0
  3
BLK24
  0
ENDBLK
  8
0
  5
119
  0
BLOCK
  8
0
  5
11B
  2
BLK25
 70
    64
 10
0.0
 20
0.0
 30
0.0
  3
BLK25
  0
ENDBLK
  8
0
  5
11C
  0
BLOCK
  8
0
  5
11E
  2
BLK26
 70
    64
 10
0.0
 20
0.0
 30
0.0
  3
BLK26
  0
ENDBLK
  8
0
  5
11F
  0
BLOCK
  8
0
  5
121
  2
BLK27
 70
    64
 10
0.0
 20
0.0
 30
0.0
  3
BLK27
  0
ENDBLK
  8
0
  5
122
  0
BLOCK
  8
0
  5
124
  2
BLK28
 70
    64
 10
0.0
 20
0.0
 30
0.0
  3
BLK28
  0
ENDBLK
  8
0
  5
125
  0
BLOCK
  8
0
  5
127
  2
BLK29
 70
    64
 10
0.0
 20
0.0
 30
0.0
  3
BLK29
  0
ENDBLK
  8
0
  5
128
  0
BLOCK
  8
0
  5
12A
  2
BLK30
 70
    64
 10
0.0
 20
0.0
 30
0.0
  3
BLK30
  0
ENDBLK
  8
0
  5
12B
  0
BLOCK
  8
0
  5
12D
  2
BLK31
 70
    64
 10
0.0
 20
0.0
 30
0.0
  3
BLK31
  0
ENDBLK
  8
0
  5
12E
  0
BLOCK
  8
0
  5
130
  2
BLK32
 70
    64
 10
0.0
 20
0.0
 30
0.0
  3
BLK32
  0
ENDBLK
  8
0
  5
131
  0
BLOCK
  8
0
  5
133
  2
BLK33
 70
    64
 10
0.0
 20
0.0
 30
0.0
  3
BLK33
  0
ENDBLK
  8
0
  5
134
  0
BLOCK
  8
0
  5
136
  2
BLK34
 70
    64
 10
0.0
 20
0.0
 30
0.0
  3
BLK34
  0
ENDBLK
  8
0
  5
137
  0
BLOCK
  8
0
  5
139
  2
BLK35
 70
    64
 10
0.0
 20
0.0
 30
0.0
  3
BLK35
  0
ENDBLK
  8
0
  5
13A
  0
BLOCK
  8
0
  5
13C
  2
BLK36
 70
    64
 10
0.0
 20
0.0
 30
0.0
  3
BLK36
  0
ENDBLK
  8
0
  5
13D
  0
BLOCK
  8
0
  5
13F
  2
BLK37
 70
    64
 10
0.0
 20
0.0
 30
0.0
  3
BLK37
  0
ENDBLK
  8
0
  5
140
  0
BLOCK
  8
0
  5
142
  2
BLK38
 70
    64
 10
0.0
 20
0.0
 30
0.0
  3
BLK38
  0
ENDBLK
  8
0
  5
143
  0
BLOCK
  8
0
  5
145
  2
BLK39
 70
    64
 10
0.0
 20
0.0
 30
0.0
  3
BLK39
  0
ENDBLK
  8
0
  5
146
  0
BLOCK
  8
0
  5
148
  2
BLK40
 70
    64
 10
0.0
 20
0.0
 30
0.0
  3
BLK40
  0
ENDBLK
  8
0
  5
149
  0
BLOCK
  8
0
  5
14B
  2
BLK41
 70
    64
 10
0.0
 20
0.0
 30
0.0
  3
BLK41
  0
ENDBLK
  8
0
  5
14C
  0
BLOCK
  8
0
  5
14E
  2
BLK42
 70
    64
 10
0.0
 20
0.0
 30
0.0
  3
BLK42
  0
ENDBLK
  8
0
  5
14F
  0
BLOCK
  8
0
  5
151
  2
BLK43
 70
    64
 10
0.0
 20
0.0
 30
0.0
  3
BLK43
  0
ENDBLK
  8
0
  5
152
  0
BLOCK
  8
0
  5
154
  2
BLK44
 70
    64
 10
0.0
 20
0.0
 30
0.0
  3
BLK44
  0
ENDBLK
  8
0
  5
155
  0
BLOCK
  8
0
  5
157
  2
BLK45
 70
    64
 10
0.0
 20
0.0
 30
0.0
  3
BLK45
  0
ENDBLK
  8
0
  5
158
  0
BLOCK
  8
0
  5
15A
  2
BLK46
 70
    64
 10
0.0
 20
0.0
 30
0.0
  3
BLK46
  0
ENDBLK
  8
0
  5
15B
  0
BLOCK
  8
0
  5
15D
  2
BLK47
 70
    64
 10
0.0
 20
0.0
 30
0.0
  3
BLK47
  0
ENDBLK
  8
0
  5
15E
  0
BLOCK
  8
0
  5
160
  2
BLK48
 70
    64
 10
0.0
 20
0.0
 30
0.0
  3
BLK48
  0
ENDBLK
  8
0
  5
161
  0
BLOCK
  8
0
  5
163
  2
BLK49
 70
    64
 10
0.0
 20
0.0
 30
0.0
  3
BLK49
  0
ENDBLK
  8
0
  5
164
  0
BLOCK
  8
0
  5
166
  2
BLK50
 70
    64
 10
0.0
 20
0.0
 30
0.0
  3
BLK50
  0
ENDBLK
  8
0
  5
167
  0
BLOCK
  8
0
  5
169
  2
BLK51
 70
    64
 10
0.0
 20
0.0
 30
0.0
  3
BLK51
  0
ENDBLK
  8
0
  5
16A
  0
BLOCK
  8
0
  5
16C
  2
BLK52
 70
    64
 10
0.0
 20
0.0
 30
0.0
  3
BLK52
  0
ENDBLK
  8
0
  5
16D
  0
BLOCK
  8
0
  5
16F
  2
BLK53
 70
    64
 10
0.0
 20
0.0
 30
0.0
  3
BLK53
  0
ENDBLK
  8
0
  5
170
  0
BLOCK
  8
0
  5
172
  2
BLK54
 70
    64
 10
0.0
 20
0.0
 30
0.0
  3
BLK54
  0
ENDBLK
  8
0
  5
173
  0
BLOCK
  8
0
  5
175
  2
BLK55
 70
    64
 10
0.0
 20
0.0
 30
0.0
  3
BLK55
  0
ENDBLK
  8
0
  5
176
  0
BLOCK
  8
0
  5
178
  2
BLK56
 70
    64
 10
0.0
 20
0.0
 30
0.0
  3
BLK56
  0
ENDBLK
  8
0
  5
179
  0
BLOCK
  8
0
  5
17B
  2
BLK57
 70
    64
 10
0.0
 20
0.0
 30
0.0
  3
BLK57
  0
ENDBLK
  8
0
  5
17C
  0
BLOCK
  8
0
  5
17E
  2
BLK58
 70
    64
 10
0.0
 20
0.0
 30
0.0
  3
BLK58
  0
ENDBLK
  8
0
  5
17F
  0
BLOCK
  8
0
  5
181
  2
BLK59
 70
    64
 10
0.0
 20
0.0
 30
0.0
  3
BLK59
  0
ENDBLK
  8
0
  5
182
  0
BLOCK
  8
0
  5
184
  2
BLK60
 70
    64
 10
0.0
 20
0.0
 30
0.0
  3
BLK60
  0
ENDBLK
  8
0
  5
185
  0
BLOCK
  8
0
  5
187
  2
BLK61
 70
    64
 10
0.0
 20
0.0
 30
0.0
  3
BLK61
  0
ENDBLK
  8
0
  5
188
  0
BLOCK
  8
0
  5
18A
  2
BLK62
 70
    64
 10
0.0
 20
0.0
 30
0.0
  3
BLK62
  0
ENDBLK
  8
0
  5
18B
  0
BLOCK
  8
0
  5
18D
  2
BLK63
 70
    64
 10
0.0
 20
0.0
 30
0.0
  3
BLK63
  0
ENDBLK
  8
0
  5
18E
  0
BLOCK
  8
0
  5
190
  2
BLK64
 70
    64
 10
0.0
 20
0.0
 30
0.0
  3
BLK64
  0
ENDBLK
  8
0
  5
191
  0
BLOCK
  8
0
  5
193
  2
BLK65
 70
    64
 10
0.0
 20
0.0
 30
0.0
  3
BLK65
  0
ENDBLK
  8
0
  5
194
  0
BLOCK
  8
0
  5
196
  2
BLK66
 70
    64
 10
0.0
 20
0.0
 30
0.0
  3
BLK66
  0
ENDBLK
  8
0
  5
197
  0
BLOCK
  8
0
  5
199
  2
BLK67
 70
    64
 10
0.0
 20
0.0
 30
0.0
  3
BLK67
  0
ENDBLK
  8
0
  5
19A
  0
BLOCK
  8
0
  5
19C
  2
BLK68
 70
    64
 10
0.0
 20
0.0
 30
0.0
  3
BLK68
  0
ENDBLK
  8
0
  5
19D
  0
BLOCK
  8
0
  5
19F
  2
BLK69
 70
    64
 10
0.0
 20
0.0
 30
0.0
  3
BLK69
  0
ENDBLK
  8
0
  5
1A0
  0
BLOCK
  8
0
  5
1A2
  2
*X79
 70
    65
 10
128.369811
 20
279.075853
 30
0.0
  3
*X79
  0
LINE
  8
LC-005-005-----0
  6
CONTINUOUS
  5
1A3
 10
160.281913
 20
279.075853
 30
0.0
 11
161.869811
 21
280.66375
 31
0.0
  0
LINE
  8
LC-005-005-----0
  6
CONTINUOUS
  5
1A4
 10
158.993156
 20
280.615523
 30
0.0
 11
161.869811
 21
283.492178
 31
0.0
  0
LINE
  8
LC-005-005-----0
  6
CONTINUOUS
  5
1A5
 10
158.869811
 20
283.320605
 30
0.0
 11
161.869811
 21
286.320605
 31
0.0
  0
LINE
  8
LC-005-005-----0
  6
CONTINUOUS
  5
1A6
 10
158.869811
 20
286.149032
 30
0.0
 11
161.869811
 21
289.149032
 31
0.0
  0
LINE
  8
LC-005-005-----0
  6
CONTINUOUS
  5
1A7
 10
158.869811
 20
288.977459
 30
0.0
 11
161.869811
 21
291.977459
 31
0.0
  0
LINE
  8
LC-005-005-----0
  6
CONTINUOUS
  5
1A8
 10
158.869811
 20
291.805886
 30
0.0
 11
161.869811
 21
294.805886
 31
0.0
  0
LINE
  8
LC-005-005-----0
  6
CONTINUOUS
  5
1A9
 10
158.869811
 20
294.634313
 30
0.0
 11
161.869811
 21
297.634313
 31
0.0
  0
LINE
  8
LC-005-005-----0
  6
CONTINUOUS
  5
1AA
 10
158.869811
 20
297.46274
 30
0.0
 11
161.869811
 21
300.46274
 31
0.0
  0
LINE
  8
LC-005-005-----0
  6
CONTINUOUS
  5
1AB
 10
158.869811
 20
300.291167
 30
0.0
 11
161.869811
 21
303.291167
 31
0.0
  0
LINE
  8
LC-005-005-----0
  6
CONTINUOUS
  5
1AC
 10
158.869811
 20
303.119595
 30
0.0
 11
161.869811
 21
306.119595
 31
0.0
  0
LINE
  8
LC-005-005-----0
  6
CONTINUOUS
  5
1AD
 10
158.869811
 20
305.948022
 30
0.0
 11
161.869811
 21
308.948022
 31
0.0
  0
LINE
  8
LC-005-005-----0
  6
CONTINUOUS
  5
1AE
 10
158.869811
 20
308.776449
 30
0.0
 11
161.869811
 21
311.776449
 31
0.0
  0
LINE
  8
LC-005-005-----0
  6
CONTINUOUS
  5
1AF
 10
158.869811
 20
311.604876
 30
0.0
 11
161.869811
 21
314.604876
 31
0.0
  0
LINE
  8
LC-005-005-----0
  6
CONTINUOUS
  5
1B0
 10
158.869811
 20
314.433303
 30
0.0
 11
161.869811
 21
317.433303
 31
0.0
  0
LINE
  8
LC-005-005-----0
  6
CONTINUOUS
  5
1B1
 10
158.869811
 20
317.26173
 30
0.0
 11
161.869811
 21
320.26173
 31
0.0
  0
LINE
  8
LC-005-005-----0
  6
CONTINUOUS
  5
1B2
 10
158.869811
 20
320.090157
 30
0.0
 11
161.869811
 21
323.090157
 31
0.0
  0
LINE
  8
LC-005-005-----0
  6
CONTINUOUS
  5
1B3
 10
158.869811
 20
322.918584
 30
0.0
 11
161.869811
 21
325.918584
 31
0.0
  0
LINE
  8
LC-005-005-----0
  6
CONTINUOUS
  5
1B4
 10
158.869811
 20
325.747011
 30
0.0
 11
161.869811
 21
328.747011
 31
0.0
  0
LINE
  8
LC-005-005-----0
  6
CONTINUOUS
  5
1B5
 10
158.869811
 20
328.575439
 30
0.0
 11
161.869811
 21
331.575439
 31
0.0
  0
LINE
  8
LC-005-005-----0
  6
CONTINUOUS
  5
1B6
 10
158.869811
 20
331.403866
 30
0.0
 11
161.869811
 21
334.403866
 31
0.0
  0
LINE
  8
LC-005-005-----0
  6
CONTINUOUS
  5
1B7
 10
158.869811
 20
334.232293
 30
0.0
 11
161.869811
 21
337.232293
 31
0.0
  0
LINE
  8
LC-005-005-----0
  6
CONTINUOUS
  5
1B8
 10
158.869811
 20
337.06072
 30
0.0
 11
161.869811
 21
340.06072
 31
0.0
  0
LINE
  8
LC-005-005-----0
  6
CONTINUOUS
  5
1B9
 10
158.869811
 20
339.889147
 30
0.0
 11
161.869811
 21
342.889147
 31
0.0
  0
LINE
  8
LC-005-005-----0
  6
CONTINUOUS
  5
1BA
 10
158.869811
 20
342.717574
 30
0.0
 11
161.869811
 21
345.717574
 31
0.0
  0
LINE
  8
LC-005-005-----0
  6
CONTINUOUS
  5
1BB
 10
158.869811
 20
345.546001
 30
0.0
 11
161.869811
 21
348.546001
 31
0.0
  0
LINE
  8
LC-005-005-----0
  6
CONTINUOUS
  5
1BC
 10
158.869811
 20
348.374428
 30
0.0
 11
161.869811
 21
351.374428
 31
0.0
  0
LINE
  8
LC-005-005-----0
  6
CONTINUOUS
  5
1BD
 10
158.869811
 20
351.202856
 30
0.0
 11
161.869811
 21
354.202856
 31
0.0
  0
LINE
  8
LC-005-005-----0
  6
CONTINUOUS
  5
1BE
 10
158.869811
 20
354.031283
 30
0.0
 11
161.869811
 21
357.031283
 31
0.0
  0
LINE
  8
LC-005-005-----0
  6
CONTINUOUS
  5
1BF
 10
162.914381
 20
358.075853
 30
0.0
 11
163.869811
 21
359.031283
 31
0.0
  0
LINE
  8
LC-005-005-----0
  6
CONTINUOUS
  5
1C0
 10
158.369811
 20
356.35971
 30
0.0
 11
163.869811
 21
361.85971
 31
0.0
  0
LINE
  8
LC-005-005-----0
  6
CONTINUOUS
  5
1C1
 10
158.369811
 20
359.188137
 30
0.0
 11
162.757527
 21
363.575853
 31
0.0
  0
LINE
  8
LC-005-005-----0
  6
CONTINUOUS
  5
1C2
 10
158.369811
 20
362.016564
 30
0.0
 11
161.869811
 21
365.516564
 31
0.0
  0
LINE
  8
LC-005-005-----0
  6
CONTINUOUS
  5
1C3
 10
157.600673
 20
364.075853
 30
0.0
 11
161.869811
 21
368.344991
 31
0.0
  0
LINE
  8
LC-005-005-----0
  6
CONTINUOUS
  5
1C4
 10
154.772245
 20
364.075853
 30
0.0
 11
157.772245
 21
367.075853
 31
0.0
  0
LINE
  8
LC-005-005-----0
  6
CONTINUOUS
  5
1C5
 10
158.369811
 20
367.673418
 30
0.0
 11
159.772245
 21
369.075853
 31
0.0
  0
LINE
  8
LC-005-005-----0
  6
CONTINUOUS
  5
1C6
 10
151.943818
 20
364.075853
 30
0.0
 11
154.943818
 21
367.075853
 31
0.0
  0
LINE
  8
LC-005-005-----0
  6
CONTINUOUS
  5
1C7
 10
149.115391
 20
364.075853
 30
0.0
 11
152.115391
 21
367.075853
 31
0.0
  0
LINE
  8
LC-005-005-----0
  6
CONTINUOUS
  5
1C8
 10
146.286964
 20
364.075853
 30
0.0
 11
149.286964
 21
367.075853
 31
0.0
  0
LINE
  8
LC-005-005-----0
  6
CONTINUOUS
  5
1C9
 10
143.458537
 20
364.075853
 30
0.0
 11
146.458537
 21
367.075853
 31
0.0
  0
LINE
  8
LC-005-005-----0
  6
CONTINUOUS
  5
1CA
 10
140.63011
 20
364.075853
 30
0.0
 11
143.63011
 21
367.075853
 31
0.0
  0
LINE
  8
LC-005-005-----0
  6
CONTINUOUS
  5
1CB
 10
137.801683
 20
364.075853
 30
0.0
 11
140.801683
 21
367.075853
 31
0.0
  0
LINE
  8
LC-005-005-----0
  6
CONTINUOUS
  5
1CC
 10
134.973256
 20
364.075853
 30
0.0
 11
137.973256
 21
367.075853
 31
0.0
  0
LINE
  8
LC-005-005-----0
  6
CONTINUOUS
  5
1CD
 10
132.144828
 20
364.075853
 30
0.0
 11
135.144828
 21
367.075853
 31
0.0
  0
LINE
  8
LC-005-005-----0
  6
CONTINUOUS
  5
1CE
 10
129.316401
 20
364.075853
 30
0.0
 11
132.316401
 21
367.075853
 31
0.0
  0
LINE
  8
LC-005-005-----0
  6
CONTINUOUS
  5
1CF
 10
128.369811
 20
365.95769
 30
0.0
 11
129.487974
 21
367.075853
 31
0.0
  0
ENDBLK
  8
0
  5
1D0
  0
BLOCK
  8
0
  5
1D2
  2
BLK70
 70
    64
 10
0.0
 20
0.0
 30
0.0
  3
BLK70
  0
ENDBLK
  8
0
  5
1D3
  0
BLOCK
  8
0
  5
1D5
  2
BLK71
 70
    64
 10
0.0
 20
0.0
 30
0.0
  3
BLK71
  0
ENDBLK
  8
0
  5
1D6
  0
BLOCK
  8
0
  5
1D8
  2
BLK72
 70
    64
 10
0.0
 20
0.0
 30
0.0
  3
BLK72
  0
ENDBLK
  8
0
  5
1D9
  0
BLOCK
  8
0
  5
1DB
  2
BLK73
 70
    64
 10
0.0
 20
0.0
 30
0.0
  3
BLK73
  0
ENDBLK
  8
0
  5
1DC
  0
BLOCK
  8
0
  5
1DE
  2
BLK74
 70
    64
 10
0.0
 20
0.0
 30
0.0
  3
BLK74
  0
ENDBLK
  8
0
  5
1DF
  0
BLOCK
  8
0
  5
1E1
  2
BLK75
 70
    64
 10
0.0
 20
0.0
 30
0.0
  3
BLK75
  0
ENDBLK
  8
0
  5
1E2
  0
BLOCK
  8
0
  5
1E4
  2
*X86
 70
    65
 10
231.369811
 20
279.075853
 30
0.0
  3
*X86
  0
LINE
  8
LC-005-005-----0
  6
CONTINUOUS
  5
1E5
 10
296.046415
 20
279.075853
 30
0.0
 11
300.869811
 21
283.899248
 31
0.0
  0
LINE
  8
LC-005-005-----0
  6
CONTINUOUS
  5
1E6
 10
290.389561
 20
279.075853
 30
0.0
 11
300.869811
 21
289.556103
 31
0.0
  0
LINE
  8
LC-005-005-----0
  6
CONTINUOUS
  5
1E7
 10
284.732707
 20
279.075853
 30
0.0
 11
300.869811
 21
295.212957
 31
0.0
  0
LINE
  8
LC-005-005-----0
  6
CONTINUOUS
  5
1E8
 10
279.075853
 20
279.075853
 30
0.0
 11
300.869811
 21
300.869811
 31
0.0
  0
LINE
  8
LC-005-005-----0
  6
CONTINUOUS
  5
1E9
 10
273.418998
 20
279.075853
 30
0.0
 11
296.418998
 21
302.075853
 31
0.0
  0
LINE
  8
LC-005-005-----0
  6
CONTINUOUS
  5
1EA
 10
267.762144
 20
279.075853
 30
0.0
 11
290.762144
 21
302.075853
 31
0.0
  0
LINE
  8
LC-005-005-----0
  6
CONTINUOUS
  5
1EB
 10
262.10529
 20
279.075853
 30
0.0
 11
285.10529
 21
302.075853
 31
0.0
  0
LINE
  8
LC-005-005-----0
  6
CONTINUOUS
  5
1EC
 10
256.448436
 20
279.075853
 30
0.0
 11
279.448436
 21
302.075853
 31
0.0
  0
LINE
  8
LC-005-005-----0
  6
CONTINUOUS
  5
1ED
 10
250.791581
 20
279.075853
 30
0.0
 11
273.791581
 21
302.075853
 31
0.0
  0
LINE
  8
LC-005-005-----0
  6
CONTINUOUS
  5
1EE
 10
245.134727
 20
279.075853
 30
0.0
 11
268.134727
 21
302.075853
 31
0.0
  0
LINE
  8
LC-005-005-----0
  6
CONTINUOUS
  5
1EF
 10
239.477873
 20
279.075853
 30
0.0
 11
262.477873
 21
302.075853
 31
0.0
  0
LINE
  8
LC-005-005-----0
  6
CONTINUOUS
  5
1F0
 10
233.821019
 20
279.075853
 30
0.0
 11
256.821019
 21
302.075853
 31
0.0
  0
LINE
  8
LC-005-005-----0
  6
CONTINUOUS
  5
1F1
 10
231.369811
 20
282.281499
 30
0.0
 11
251.164164
 21
302.075853
 31
0.0
  0
LINE
  8
LC-005-005-----0
  6
CONTINUOUS
  5
1F2
 10
231.369811
 20
287.938354
 30
0.0
 11
245.50731
 21
302.075853
 31
0.0
  0
LINE
  8
LC-005-005-----0
  6
CONTINUOUS
  5
1F3
 10
231.369811
 20
293.595208
 30
0.0
 11
239.850456
 21
302.075853
 31
0.0
  0
LINE
  8
LC-005-005-----0
  6
CONTINUOUS
  5
1F4
 10
231.369811
 20
299.252062
 30
0.0
 11
234.193602
 21
302.075853
 31
0.0
  0
LINE
  8
LC-005-005-----0
  6
CONTINUOUS
  5
1F5
 10
300.869811
 20
298.756739
 30
0.0
 11
297.550698
 21
302.075853
 31
0.0
  0
LINE
  8
LC-005-005-----0
  6
CONTINUOUS
  5
1F6
 10
300.869811
 20
293.099885
 30
0.0
 11
291.893844
 21
302.075853
 31
0.0
  0
LINE
  8
LC-005-005-----0
  6
CONTINUOUS
  5
1F7
 10
300.869811
 20
287.443031
 30
0.0
 11
286.236989
 21
302.075853
 31
0.0
  0
LINE
  8
LC-005-005-----0
  6
CONTINUOUS
  5
1F8
 10
300.869811
 20
281.786177
 30
0.0
 11
280.580135
 21
302.075853
 31
0.0
  0
LINE
  8
LC-005-005-----0
  6
CONTINUOUS
  5
1F9
 10
297.923281
 20
279.075853
 30
0.0
 11
274.923281
 21
302.075853
 31
0.0
  0
LINE
  8
LC-005-005-----0
  6
CONTINUOUS
  5
1FA
 10
292.266427
 20
279.075853
 30
0.0
 11
269.266427
 21
302.075853
 31
0.0
  0
LINE
  8
LC-005-005-----0
  6
CONTINUOUS
  5
1FB
 10
286.609572
 20
279.075853
 30
0.0
 11
263.609572
 21
302.075853
 31
0.0
  0
LINE
  8
LC-005-005-----0
  6
CONTINUOUS
  5
1FC
 10
280.952718
 20
279.075853
 30
0.0
 11
257.952718
 21
302.075853
 31
0.0
  0
LINE
  8
LC-005-005-----0
  6
CONTINUOUS
  5
1FD
 10
275.295864
 20
279.075853
 30
0.0
 11
252.295864
 21
302.075853
 31
0.0
  0
LINE
  8
LC-005-005-----0
  6
CONTINUOUS
  5
1FE
 10
269.63901
 20
279.075853
 30
0.0
 11
246.63901
 21
302.075853
 31
0.0
  0
LINE
  8
LC-005-005-----0
  6
CONTINUOUS
  5
1FF
 10
263.982155
 20
279.075853
 30
0.0
 11
240.982155
 21
302.075853
 31
0.0
  0
LINE
  8
LC-005-005-----0
  6
CONTINUOUS
  5
200
 10
258.325301
 20
279.075853
 30
0.0
 11
235.325301
 21
302.075853
 31
0.0
  0
LINE
  8
LC-005-005-----0
  6
CONTINUOUS
  5
201
 10
252.668447
 20
279.075853
 30
0.0
 11
231.369811
 21
300.374488
 31
0.0
  0
LINE
  8
LC-005-005-----0
  6
CONTINUOUS
  5
202
 10
247.011593
 20
279.075853
 30
0.0
 11
231.369811
 21
294.717634
 31
0.0
  0
LINE
  8
LC-005-005-----0
  6
CONTINUOUS
  5
203
 10
241.354738
 20
279.075853
 30
0.0
 11
231.369811
 21
289.06078
 31
0.0
  0
LINE
  8
LC-005-005-----0
  6
CONTINUOUS
  5
204
 10
235.697884
 20
279.075853
 30
0.0
 11
231.369811
 21
283.403926
 31
0.0
  0
ENDBLK
  8
0
  5
205
  0
BLOCK
  8
0
  5
207
  2
*X87
 70
    65
 10
161.869811
 20
279.075853
 30
0.0
  3
*X87
  0
LINE
  8
LC-005-005-----0
  6
CONTINUOUS
  5
208
 10
228.164164
 20
279.075853
 30
0.0
 11
231.369811
 21
282.281499
 31
0.0
  0
LINE
  8
LC-005-005-----0
  6
CONTINUOUS
  5
209
 10
222.50731
 20
279.075853
 30
0.0
 11
231.369811
 21
287.938354
 31
0.0
  0
LINE
  8
LC-005-005-----0
  6
CONTINUOUS
  5
20A
 10
216.850456
 20
279.075853
 30
0.0
 11
231.369811
 21
293.595208
 31
0.0
  0
LINE
  8
LC-005-005-----0
  6
CONTINUOUS
  5
20B
 10
211.193602
 20
279.075853
 30
0.0
 11
231.369811
 21
299.252062
 31
0.0
  0
LINE
  8
LC-005-005-----0
  6
CONTINUOUS
  5
20C
 10
205.536747
 20
279.075853
 30
0.0
 11
228.536747
 21
302.075853
 31
0.0
  0
LINE
  8
LC-005-005-----0
  6
CONTINUOUS
  5
20D
 10
199.879893
 20
279.075853
 30
0.0
 11
222.879893
 21
302.075853
 31
0.0
  0
LINE
  8
LC-005-005-----0
  6
CONTINUOUS
  5
20E
 10
194.223039
 20
279.075853
 30
0.0
 11
217.223039
 21
302.075853
 31
0.0
  0
LINE
  8
LC-005-005-----0
  6
CONTINUOUS
  5
20F
 10
188.566185
 20
279.075853
 30
0.0
 11
211.566185
 21
302.075853
 31
0.0
  0
LINE
  8
LC-005-005-----0
  6
CONTINUOUS
  5
210
 10
182.90933
 20
279.075853
 30
0.0
 11
205.90933
 21
302.075853
 31
0.0
  0
LINE
  8
LC-005-005-----0
  6
CONTINUOUS
  5
211
 10
177.252476
 20
279.075853
 30
0.0
 11
200.252476
 21
302.075853
 31
0.0
  0
LINE
  8
LC-005-005-----0
  6
CONTINUOUS
  5
212
 10
171.595622
 20
279.075853
 30
0.0
 11
194.595622
 21
302.075853
 31
0.0
  0
LINE
  8
LC-005-005-----0
  6
CONTINUOUS
  5
213
 10
165.938768
 20
279.075853
 30
0.0
 11
188.938768
 21
302.075853
 31
0.0
  0
LINE
  8
LC-005-005-----0
  6
CONTINUOUS
  5
214
 10
161.869811
 20
280.66375
 30
0.0
 11
183.281913
 21
302.075853
 31
0.0
  0
LINE
  8
LC-005-005-----0
  6
CONTINUOUS
  5
215
 10
161.869811
 20
286.320605
 30
0.0
 11
177.625059
 21
302.075853
 31
0.0
  0
LINE
  8
LC-005-005-----0
  6
CONTINUOUS
  5
216
 10
161.869811
 20
291.977459
 30
0.0
 11
171.968205
 21
302.075853
 31
0.0
  0
LINE
  8
LC-005-005-----0
  6
CONTINUOUS
  5
217
 10
161.869811
 20
297.634313
 30
0.0
 11
166.311351
 21
302.075853
 31
0.0
  0
LINE
  8
LC-005-005-----0
  6
CONTINUOUS
  5
218
 10
231.369811
 20
300.374488
 30
0.0
 11
229.668447
 21
302.075853
 31
0.0
  0
LINE
  8
LC-005-005-----0
  6
CONTINUOUS
  5
219
 10
231.369811
 20
294.717634
 30
0.0
 11
224.011593
 21
302.075853
 31
0.0
  0
LINE
  8
LC-005-005-----0
  6
CONTINUOUS
  5
21A
 10
231.369811
 20
289.06078
 30
0.0
 11
218.354738
 21
302.075853
 31
0.0
  0
LINE
  8
LC-005-005-----0
  6
CONTINUOUS
  5
21B
 10
231.369811
 20
283.403926
 30
0.0
 11
212.697884
 21
302.075853
 31
0.0
  0
LINE
  8
LC-005-005-----0
  6
CONTINUOUS
  5
21C
 10
230.04103
 20
279.075853
 30
0.0
 11
207.04103
 21
302.075853
 31
0.0
  0
LINE
  8
LC-005-005-----0
  6
CONTINUOUS
  5
21D
 10
224.384176
 20
279.075853
 30
0.0
 11
201.384176
 21
302.075853
 31
0.0
  0
LINE
  8
LC-005-005-----0
  6
CONTINUOUS
  5
21E
 10
218.727321
 20
279.075853
 30
0.0
 11
195.727321
 21
302.075853
 31
0.0
  0
LINE
  8
LC-005-005-----0
  6
CONTINUOUS
  5
21F
 10
213.070467
 20
279.075853
 30
0.0
 11
190.070467
 21
302.075853
 31
0.0
  0
LINE
  8
LC-005-005-----0
  6
CONTINUOUS
  5
220
 10
207.413613
 20
279.075853
 30
0.0
 11
184.413613
 21
302.075853
 31
0.0
  0
LINE
  8
LC-005-005-----0
  6
CONTINUOUS
  5
221
 10
201.756759
 20
279.075853
 30
0.0
 11
178.756759
 21
302.075853
 31
0.0
  0
LINE
  8
LC-005-005-----0
  6
CONTINUOUS
  5
222
 10
196.099904
 20
279.075853
 30
0.0
 11
173.099904
 21
302.075853
 31
0.0
  0
LINE
  8
LC-005-005-----0
  6
CONTINUOUS
  5
223
 10
190.44305
 20
279.075853
 30
0.0
 11
167.44305
 21
302.075853
 31
0.0
  0
LINE
  8
LC-005-005-----0
  6
CONTINUOUS
  5
224
 10
184.786196
 20
279.075853
 30
0.0
 11
161.869811
 21
301.992237
 31
0.0
  0
LINE
  8
LC-005-005-----0
  6
CONTINUOUS
  5
225
 10
179.129342
 20
279.075853
 30
0.0
 11
161.869811
 21
296.335383
 31
0.0
  0
LINE
  8
LC-005-005-----0
  6
CONTINUOUS
  5
226
 10
173.472487
 20
279.075853
 30
0.0
 11
161.869811
 21
290.678529
 31
0.0
  0
LINE
  8
LC-005-005-----0
  6
CONTINUOUS
  5
227
 10
167.815633
 20
279.075853
 30
0.0
 11
161.869811
 21
285.021675
 31
0.0
  0
LINE
  8
LC-005-005-----0
  6
CONTINUOUS
  5
228
 10
162.158779
 20
279.075853
 30
0.0
 11
161.869811
 21
279.36482
 31
0.0
  0
ENDBLK
  8
0
  5
229
  0
BLOCK
  8
0
  5
22B
  2
*D88
 70
    65
 10
0.0
 20
0.0
 30
0.0
  3
*D88
  0
LINE
  8
LC-002-003-MTH-0
  6
CONTINUOUS
  5
22C
 10
300.869811
 20
302.075853
 30
0.0
 11
408.8
 21
302.075853
 31
0.0
  0
LINE
  8
LC-002-003-MTH-0
  6
CONTINUOUS
  5
22D
 10
334.369811
 20
367.075853
 30
0.0
 11
408.8
 21
367.075853
 31
0.0
  0
LINE
  8
LC-003-003-MTG-0
  6
CONTINUOUS
  5
22E
 10
392.0
 20
302.075853
 30
0.0
 11
392.0
 21
367.075853
 31
0.0
  0
LINE
  8
LC-001-003-----0
  6
CONTINUOUS
  5
22F
 10
388.345267
 20
329.836309
 30
0.0
 11
392.0
 21
302.075853
 31
0.0
  0
LINE
  8
LC-001-003-----0
  6
CONTINUOUS
  5
230
 10
392.0
 20
302.075853
 30
0.0
 11
395.654733
 21
329.836309
 31
0.0
  0
LINE
  8
LC-001-003-----0
  6
CONTINUOUS
  5
231
 10
395.654733
 20
329.836309
 30
0.0
 11
388.345267
 21
329.836309
 31
0.0
  0
LINE
  8
LC-001-003-----0
  6
CONTINUOUS
  5
232
 10
389.295497
 20
329.89859
 30
0.0
 11
392.0
 21
309.355853
 31
0.0
  0
LINE
  8
LC-001-003-----0
  6
CONTINUOUS
  5
233
 10
392.0
 20
309.355853
 30
0.0
 11
394.704503
 21
329.89859
 31
0.0
  0
LINE
  8
LC-001-003-----0
  6
CONTINUOUS
  5
234
 10
390.245728
 20
329.960872
 30
0.0
 11
392.0
 21
316.635853
 31
0.0
  0
LINE
  8
LC-001-003-----0
  6
CONTINUOUS
  5
235
 10
392.0
 20
316.635853
 30
0.0
 11
393.754272
 21
329.960872
 31
0.0
  0
LINE
  8
LC-001-003-----0
  6
CONTINUOUS
  5
236
 10
391.195959
 20
330.023153
 30
0.0
 11
392.0
 21
323.915853
 31
0.0
  0
LINE
  8
LC-001-003-----0
  6
CONTINUOUS
  5
237
 10
392.0
 20
323.915853
 30
0.0
 11
392.804041
 21
330.023153
 31
0.0
  0
LINE
  8
LC-001-003-----0
  6
CONTINUOUS
  5
238
 10
395.654733
 20
339.315397
 30
0.0
 11
392.0
 21
367.075853
 31
0.0
  0
LINE
  8
LC-001-003-----0
  6
CONTINUOUS
  5
239
 10
392.0
 20
367.075853
 30
0.0
 11
388.345267
 21
339.315397
 31
0.0
  0
LINE
  8
LC-001-003-----0
  6
CONTINUOUS
  5
23A
 10
388.345267
 20
339.315397
 30
0.0
 11
395.654733
 21
339.315397
 31
0.0
  0
LINE
  8
LC-001-003-----0
  6
CONTINUOUS
  5
23B
 10
394.704503
 20
339.253115
 30
0.0
 11
392.0
 21
359.795853
 31
0.0
  0
LINE
  8
LC-001-003-----0
  6
CONTINUOUS
  5
23C
 10
392.0
 20
359.795853
 30
0.0
 11
389.295497
 21
339.253115
 31
0.0
  0
LINE
  8
LC-001-003-----0
  6
CONTINUOUS
  5
23D
 10
393.754272
 20
339.190834
 30
0.0
 11
392.0
 21
352.515853
 31
0.0
  0
LINE
  8
LC-001-003-----0
  6
CONTINUOUS
  5
23E
 10
392.0
 20
352.515853
 30
0.0
 11
390.245728
 21
339.190834
 31
0.0
  0
LINE
  8
LC-001-003-----0
  6
CONTINUOUS
  5
23F
 10
392.804041
 20
339.128552
 30
0.0
 11
392.0
 21
345.235853
 31
0.0
  0
LINE
  8
LC-001-003-----0
  6
CONTINUOUS
  5
240
 10
392.0
 20
345.235853
 30
0.0
 11
391.195959
 21
339.128552
 31
0.0
  0
TEXT
  8
LC-001-003-----0
  6
CONTINUOUS
 62
     8
  5
241
 10
384.172446
 20
305.974406
 30
0.0
 40
28.0
  1
6-65
 50
90.0
 51
15.0
  7
LC-TXTSTYLE-150-400-0-0-D0
 72
     1
 11
384.172446
 21
338.924013
 31
0.0
  0
ENDBLK
  8
0
  5
242
  0
BLOCK
  8
0
  5
244
  2
*D89
 70
    65
 10
0.0
 20
0.0
 30
0.0
  3
*D89
  0
LINE
  8
LC-002-003-MTH-0
  6
CONTINUOUS
  5
245
 10
300.869811
 20
279.075853
 30
0.0
 11
369.6
 21
279.075853
 31
0.0
  0
LINE
  8
LC-002-003-MTH-0
  6
CONTINUOUS
  5
246
 10
300.869811
 20
302.075853
 30
0.0
 11
369.6
 21
302.075853
 31
0.0
  0
LINE
  8
LC-001-003-----0
  6
CONTINUOUS
  5
247
 10
356.454733
 20
251.315397
 30
0.0
 11
352.8
 21
279.075853
 31
0.0
  0
LINE
  8
LC-001-003-----0
  6
CONTINUOUS
  5
248
 10
352.8
 20
279.075853
 30
0.0
 11
349.145267
 21
251.315397
 31
0.0
  0
LINE
  8
LC-001-003-----0
  6
CONTINUOUS
  5
249
 10
349.145267
 20
251.315397
 30
0.0
 11
356.454733
 21
251.315397
 31
0.0
  0
LINE
  8
LC-001-003-----0
  6
CONTINUOUS
  5
24A
 10
355.504503
 20
251.253115
 30
0.0
 11
352.8
 21
271.795853
 31
0.0
  0
LINE
  8
LC-001-003-----0
  6
CONTINUOUS
  5
24B
 10
352.8
 20
271.795853
 30
0.0
 11
350.095497
 21
251.253115
 31
0.0
  0
LINE
  8
LC-001-003-----0
  6
CONTINUOUS
  5
24C
 10
354.554272
 20
251.190834
 30
0.0
 11
352.8
 21
264.515853
 31
0.0
  0
LINE
  8
LC-001-003-----0
  6
CONTINUOUS
  5
24D
 10
352.8
 20
264.515853
 30
0.0
 11
351.045728
 21
251.190834
 31
0.0
  0
LINE
  8
LC-001-003-----0
  6
CONTINUOUS
  5
24E
 10
353.604041
 20
251.128552
 30
0.0
 11
352.8
 21
257.235853
 31
0.0
  0
LINE
  8
LC-001-003-----0
  6
CONTINUOUS
  5
24F
 10
352.8
 20
257.235853
 30
0.0
 11
351.995959
 21
251.128552
 31
0.0
  0
LINE
  8
LC-001-003-----0
  6
CONTINUOUS
  5
250
 10
349.145267
 20
329.836309
 30
0.0
 11
352.8
 21
302.075853
 31
0.0
  0
LINE
  8
LC-001-003-----0
  6
CONTINUOUS
  5
251
 10
352.8
 20
302.075853
 30
0.0
 11
356.454733
 21
329.836309
 31
0.0
  0
LINE
  8
LC-001-003-----0
  6
CONTINUOUS
  5
252
 10
356.454733
 20
329.836309
 30
0.0
 11
349.145267
 21
329.836309
 31
0.0
  0
LINE
  8
LC-001-003-----0
  6
CONTINUOUS
  5
253
 10
350.095497
 20
329.89859
 30
0.0
 11
352.8
 21
309.355853
 31
0.0
  0
LINE
  8
LC-001-003-----0
  6
CONTINUOUS
  5
254
 10
352.8
 20
309.355853
 30
0.0
 11
355.504503
 21
329.89859
 31
0.0
  0
LINE
  8
LC-001-003-----0
  6
CONTINUOUS
  5
255
 10
351.045728
 20
329.960872
 30
0.0
 11
352.8
 21
316.635853
 31
0.0
  0
LINE
  8
LC-001-003-----0
  6
CONTINUOUS
  5
256
 10
352.8
 20
316.635853
 30
0.0
 11
354.554272
 21
329.960872
 31
0.0
  0
LINE
  8
LC-001-003-----0
  6
CONTINUOUS
  5
257
 10
351.995959
 20
330.023153
 30
0.0
 11
352.8
 21
323.915853
 31
0.0
  0
LINE
  8
LC-001-003-----0
  6
CONTINUOUS
  5
258
 10
352.8
 20
323.915853
 30
0.0
 11
353.604041
 21
330.023153
 31
0.0
  0
LINE
  8
LC-003-003-MTG-0
  6
CONTINUOUS
  5
259
 10
352.8
 20
195.711453
 30
0.0
 11
352.8
 21
341.275853
 31
0.0
  0
TEXT
  8
LC-001-003-----0
  6
CONTINUOUS
 62
     8
  5
25A
 10
344.972446
 20
208.436926
 30
0.0
 40
28.0
  1
23
 50
90.0
 51
15.0
  7
LC-TXTSTYLE-150-400-0-0-D0
 72
     2
 11
344.972446
 21
245.344013
 31
0.0
  0
ENDBLK
  8
0
  5
25B
  0
ENDSEC
  0
SECTION
  2
ENTITIES
  0
VIEWPORT
  8
LC-000
  5
3C5
 67
     1
 68
     1
 10
420.0
 20
297.0
 30
0.0
 40
840.0
 41
594.0
 69
     1
1001
ACAD
1000
MVIEW
1002
{
1070
    16
1010
0.0
1020
0.0
1030
0.0
1010
0.0
1020
0.0
1030
1.0
1040
0.0
1040
594.0
1040
420.0
1040
297.0
1040
50.0
1040
0.0
1040
0.0
1070
     0
1070
   100
1070
     1
1070
     1
1070
     0
1070
     0
1070
     0
1070
     0
1040
0.0
1040
0.0
1040
0.0
1040
1.0
1040
1.0
1040
0.0
1040
0.0
1070
     0
1002
{
1002
}
1002
}
  0
VIEWPORT
  8
0
  5
3C6
 67
     1
 68
     1
 10
0.0
 20
0.0
 30
0.0
 40
0.0
 41
0.0
 69
     1
1001
ACAD
1000
MVIEW
1002
{
1070
    16
1010
0.0
1020
0.0
1030
0.0
1010
0.0
1020
0.0
1030
1.0
1040
0.0
1040
594.0
1040
0.0
1040
0.0
1040
50.0
1040
0.0
1040
0.0
1070
     0
1070
   100
1070
     0
1070
     1
1070
     0
1070
     0
1070
     0
1070
     0
1040
0.0
1040
0.0
1040
0.0
1040
0.5
1040
0.5
1040
0.5
1040
0.5
1070
     0
1002
{
1002
}
1002
}
  0
DIMENSION
  8
0
  5
25C
  2
*D0
 10
231.369811
 20
392.0
 30
0.0
 11
231.369811
 21
392.0
 31
0.0
 13
158.369811
 23
369.075853
 33
0.0
 14
304.369811
 24
369.075853
 34
0.0
  3
LC-DIM-L-0140-02-02
  0
DIMENSION
  8
0
  5
25D
  2
*D1
 10
231.369811
 20
431.2
 30
0.0
 11
231.369811
 21
431.2
 31
0.0
 13
128.369811
 23
367.075853
 33
0.0
 14
334.369811
 24
367.075853
 34
0.0
  3
LC-DIM-L-0140-02-02
  0
DIMENSION
  8
0
  5
25E
  2
*D2
 10
231.369811
 20
235.2
 30
0.0
 11
231.369811
 21
235.2
 31
0.0
  1
%%c<>
 13
158.869811
 23
281.075853
 33
0.0
 14
303.869811
 24
281.075853
 34
0.0
  3
LC-DIM-L-0140-02-02
  0
INSERT
  8
0
  5
25F
  2
*X3
 10
231.369811
 20
362.575855
 30
0.0
  0
INSERT
  8
0
  5
260
  2
*X4
 10
259.369811
 20
362.575855
 30
0.0
  0
INSERT
  8
0
  5
261
  2
*X5
 10
275.369811
 20
362.575855
 30
0.0
  0
INSERT
  8
0
  5
263
  2
BLK1
 10
0.0
 20
0.0
 30
0.0
  0
INSERT
  8
0
  5
264
  2
*X7
 10
211.370032
 20
362.576035
 30
0.0
  0
INSERT
  8
0
  5
265
  2
*X8
 10
195.370032
 20
362.576044
 30
0.0
  0
INSERT
  8
0
  5
266
  2
*X9
 10
161.870032
 20
362.576055
 30
0.0
  0
INSERT
  8
0
  5
267
  2
BLK2
 10
0.0
 20
0.0
 30
0.0
  0
INSERT
  8
0
  5
268
  2
*X11
 10
298.869811
 20
279.075853
 30
0.0
  0
INSERT
  8
0
  5
269
  2
BLK3
 10
0.0
 20
0.0
 30
0.0
  0
INSERT
  8
0
  5
26A
  2
BLK4
 10
0.0
 20
0.0
 30
0.0
  0
INSERT
  8
0
  5
26B
  2
BLK5
 10
0.0
 20
0.0
 30
0.0
  0
INSERT
  8
0
  5
26C
  2
BLK6
 10
0.0
 20
0.0
 30
0.0
  0
INSERT
  8
0
  5
26D
  2
BLK7
 10
0.0
 20
0.0
 30
0.0
  0
INSERT
  8
0
  5
26E
  2
BLK8
 10
0.0
 20
0.0
 30
0.0
  0
INSERT
  8
0
  5
26F
  2
BLK9
 10
0.0
 20
0.0
 30
0.0
  0
INSERT
  8
0
  5
270
  2
BLK10
 10
0.0
 20
0.0
 30
0.0
  0
INSERT
  8
0
  5
271
  2
BLK11
 10
0.0
 20
0.0
 30
0.0
  0
INSERT
  8
0
  5
272
  2
BLK12
 10
0.0
 20
0.0
 30
0.0
  0
INSERT
  8
0
  5
273
  2
BLK13
 10
0.0
 20
0.0
 30
0.0
  0
INSERT
  8
0
  5
274
  2
BLK14
 10
0.0
 20
0.0
 30
0.0
  0
INSERT
  8
0
  5
275
  2
BLK15
 10
0.0
 20
0.0
 30
0.0
  0
INSERT
  8
0
  5
276
  2
BLK16
 10
0.0
 20
0.0
 30
0.0
  0
INSERT
  8
0
  5
277
  2
BLK17
 10
0.0
 20
0.0
 30
0.0
  0
INSERT
  8
0
  5
278
  2
BLK18
 10
0.0
 20
0.0
 30
0.0
  0
INSERT
  8
0
  5
279
  2
BLK19
 10
0.0
 20
0.0
 30
0.0
  0
INSERT
  8
0
  5
27A
  2
BLK20
 10
0.0
 20
0.0
 30
0.0
  0
INSERT
  8
0
  5
27B
  2
BLK21
 10
0.0
 20
0.0
 30
0.0
  0
INSERT
  8
0
  5
27C
  2
BLK22
 10
0.0
 20
0.0
 30
0.0
  0
INSERT
  8
0
  5
27D
  2
BLK23
 10
0.0
 20
0.0
 30
0.0
  0
INSERT
  8
0
  5
27E
  2
BLK24
 10
0.0
 20
0.0
 30
0.0
  0
INSERT
  8
0
  5
27F
  2
BLK25
 10
0.0
 20
0.0
 30
0.0
  0
INSERT
  8
0
  5
280
  2
BLK26
 10
0.0
 20
0.0
 30
0.0
  0
INSERT
  8
0
  5
281
  2
BLK27
 10
0.0
 20
0.0
 30
0.0
  0
INSERT
  8
0
  5
282
  2
BLK28
 10
0.0
 20
0.0
 30
0.0
  0
INSERT
  8
0
  5
283
  2
BLK29
 10
0.0
 20
0.0
 30
0.0
  0
INSERT
  8
0
  5
284
  2
BLK30
 10
0.0
 20
0.0
 30
0.0
  0
INSERT
  8
0
  5
285
  2
BLK31
 10
0.0
 20
0.0
 30
0.0
  0
INSERT
  8
0
  5
286
  2
BLK32
 10
0.0
 20
0.0
 30
0.0
  0
INSERT
  8
0
  5
287
  2
BLK33
 10
0.0
 20
0.0
 30
0.0
  0
INSERT
  8
0
  5
288
  2
BLK34
 10
0.0
 20
0.0
 30
0.0
  0
INSERT
  8
0
  5
289
  2
BLK35
 10
0.0
 20
0.0
 30
0.0
  0
INSERT
  8
0
  5
28A
  2
BLK36
 10
0.0
 20
0.0
 30
0.0
  0
INSERT
  8
0
  5
28B
  2
BLK37
 10
0.0
 20
0.0
 30
0.0
  0
INSERT
  8
0
  5
28C
  2
BLK38
 10
0.0
 20
0.0
 30
0.0
  0
INSERT
  8
0
  5
28D
  2
BLK39
 10
0.0
 20
0.0
 30
0.0
  0
INSERT
  8
0
  5
28E
  2
BLK40
 10
0.0
 20
0.0
 30
0.0
  0
INSERT
  8
0
  5
28F
  2
BLK41
 10
0.0
 20
0.0
 30
0.0
  0
INSERT
  8
0
  5
290
  2
BLK42
 10
0.0
 20
0.0
 30
0.0
  0
INSERT
  8
0
  5
291
  2
BLK43
 10
0.0
 20
0.0
 30
0.0
  0
INSERT
  8
0
  5
292
  2
BLK44
 10
0.0
 20
0.0
 30
0.0
  0
INSERT
  8
0
  5
293
  2
BLK45
 10
0.0
 20
0.0
 30
0.0
  0
INSERT
  8
0
  5
294
  2
BLK46
 10
0.0
 20
0.0
 30
0.0
  0
INSERT
  8
0
  5
295
  2
BLK47
 10
0.0
 20
0.0
 30
0.0
  0
INSERT
  8
0
  5
296
  2
BLK48
 10
0.0
 20
0.0
 30
0.0
  0
INSERT
  8
0
  5
297
  2
BLK49
 10
0.0
 20
0.0
 30
0.0
  0
INSERT
  8
0
  5
298
  2
BLK50
 10
0.0
 20
0.0
 30
0.0
  0
INSERT
  8
0
  5
299
  2
BLK51
 10
0.0
 20
0.0
 30
0.0
  0
INSERT
  8
0
  5
29A
  2
BLK52
 10
0.0
 20
0.0
 30
0.0
  0
INSERT
  8
0
  5
29B
  2
BLK53
 10
0.0
 20
0.0
 30
0.0
  0
INSERT
  8
0
  5
29C
  2
BLK54
 10
0.0
 20
0.0
 30
0.0
  0
INSERT
  8
0
  5
29D
  2
BLK55
 10
0.0
 20
0.0
 30
0.0
  0
INSERT
  8
0
  5
29E
  2
BLK56
 10
0.0
 20
0.0
 30
0.0
  0
INSERT
  8
0
  5
29F
  2
BLK57
 10
0.0
 20
0.0
 30
0.0
  0
INSERT
  8
0
  5
2A0
  2
BLK58
 10
0.0
 20
0.0
 30
0.0
  0
INSERT
  8
0
  5
2A1
  2
BLK59
 10
0.0
 20
0.0
 30
0.0
  0
INSERT
  8
0
  5
2A2
  2
BLK60
 10
0.0
 20
0.0
 30
0.0
  0
INSERT
  8
0
  5
2A3
  2
BLK61
 10
0.0
 20
0.0
 30
0.0
  0
INSERT
  8
0
  5
2A4
  2
BLK62
 10
0.0
 20
0.0
 30
0.0
  0
INSERT
  8
0
  5
2A5
  2
BLK63
 10
0.0
 20
0.0
 30
0.0
  0
INSERT
  8
0
  5
2A6
  2
BLK64
 10
0.0
 20
0.0
 30
0.0
  0
INSERT
  8
0
  5
2A7
  2
BLK65
 10
0.0
 20
0.0
 30
0.0
  0
INSERT
  8
0
  5
2A8
  2
BLK66
 10
0.0
 20
0.0
 30
0.0
  0
INSERT
  8
0
  5
2A9
  2
BLK67
 10
0.0
 20
0.0
 30
0.0
  0
INSERT
  8
0
  5
2AA
  2
BLK68
 10
0.0
 20
0.0
 30
0.0
  0
INSERT
  8
0
  5
2AB
  2
BLK69
 10
0.0
 20
0.0
 30
0.0
  0
INSERT
  8
0
  5
2AC
  2
*X79
 10
128.369811
 20
279.075853
 30
0.0
  0
INSERT
  8
0
  5
2AD
  2
BLK70
 10
0.0
 20
0.0
 30
0.0
  0
INSERT
  8
0
  5
2AE
  2
BLK71
 10
0.0
 20
0.0
 30
0.0
  0
INSERT
  8
0
  5
2AF
  2
BLK72
 10
0.0
 20
0.0
 30
0.0
  0
INSERT
  8
0
  5
2B0
  2
BLK73
 10
0.0
 20
0.0
 30
0.0
  0
INSERT
  8
0
  5
2B1
  2
BLK74
 10
0.0
 20
0.0
 30
0.0
  0
INSERT
  8
0
  5
2B3
  2
BLK75
 10
0.0
 20
0.0
 30
0.0
  0
INSERT
  8
0
  5
2B4
  2
*X86
 10
231.369811
 20
279.075853
 30
0.0
  0
INSERT
  8
0
  5
2B5
  2
*X87
 10
161.869811
 20
279.075853
 30
0.0
  0
DIMENSION
  8
0
  5
2B6
  2
*D88
 10
392.0
 20
334.575853
 30
0.0
 11
392.0
 21
334.575853
 31
0.0
  1
6-65
 13
300.869811
 23
302.075853
 33
0.0
 14
334.369811
 24
367.075853
 34
0.0
 50
90.0
  3
LC-DIM-L-0140-02-02
  0
DIMENSION
  8
0
  5
2B7
  2
*D89
 10
352.8
 20
277.398
 30
0.0
 11
352.8
 21
277.398
 31
0.0
 13
300.869811
 23
302.075853
 33
0.0
 14
300.869811
 24
279.075853
 34
0.0
 50
90.0
  3
LC-DIM-L-0140-02-02
  0
LINE
  8
LC-004-002-----0
  6
CONTINUOUS
  5
2B9
 10
164.870034
 20
368.576067
 30
0.0
 11
262.369811
 21
368.576067
 31
0.0
  0
LINE
  8
LC-004-002-----0
  6
CONTINUOUS
 62
     2
  5
2BA
 10
194.897573
 20
402.200969
 30
0.0
 11
179.897573
 21
402.200969
 31
0.0
  0
LINE
  8
LC-004-002-----0
  6
CONTINUOUS
 62
     2
  5
2BB
 10
179.897573
 20
402.200969
 30
0.0
 11
179.897573
 21
417.200969
 31
0.0
  0
LINE
  8
LC-004-002-----0
  6
CONTINUOUS
 62
     2
  5
2BC
 10
194.897573
 20
417.200969
 30
0.0
 11
179.897573
 21
417.200969
 31
0.0
  0
LINE
  8
LC-004-002-----0
  6
CONTINUOUS
 62
     2
  5
2BD
 10
194.897573
 20
402.200969
 30
0.0
 11
194.897573
 21
417.200969
 31
0.0
  0
CIRCLE
  8
LC-004-002-----0
  6
CONTINUOUS
  5
2BE
 10
570.681811
 20
385.597855
 30
0.0
 40
4.5
  0
LINE
  8
LC-004-002-----0
  6
CONTINUOUS
  5
2BF
 10
571.18181
 20
388.097855
 30
0.0
 11
570.18181
 21
388.097854
 31
0.0
  0
LINE
  8
LC-004-002-----0
  6
CONTINUOUS
  5
2C0
 10
570.18181
 20
388.097854
 30
0.0
 11
570.181811
 21
386.097854
 31
0.0
  0
LINE
  8
LC-004-002-----0
  6
CONTINUOUS
  5
2C1
 10
570.181813
 20
383.097854
 30
0.0
 11
571.181813
 21
383.097855
 31
0.0
  0
LINE
  8
LC-004-002-----0
  6
CONTINUOUS
  5
2C2
 10
571.181813
 20
383.097855
 30
0.0
 11
571.181811
 21
385.097855
 31
0.0
  0
LINE
  8
LC-004-002-----0
  6
CONTINUOUS
  5
2C3
 10
573.181811
 20
386.097856
 30
0.0
 11
573.181811
 21
385.097856
 31
0.0
  0
LINE
  8
LC-004-002-----0
  6
CONTINUOUS
  5
2C4
 10
259.369811
 20
363.575855
 30
0.0
 11
249.869811
 21
363.575855
 31
0.0
  0
LINE
  8
LC-004-002-----0
  6
CONTINUOUS
  5
2C5
 10
259.369811
 20
363.575855
 30
0.0
 11
260.869811
 21
363.575855
 31
0.0
  0
LINE
  8
LC-004-002-----0
  6
CONTINUOUS
  5
2C6
 10
265.869811
 20
363.575855
 30
0.0
 11
275.369811
 21
363.575855
 31
0.0
  0
LINE
  8
LC-004-002-----0
  6
CONTINUOUS
  5
2C7
 10
281.869811
 20
363.575855
 30
0.0
 11
291.369811
 21
363.575855
 31
0.0
  0
LINE
  8
LC-004-002-----0
  6
CONTINUOUS
  5
2C8
 10
275.369811
 20
363.575855
 30
0.0
 11
276.869811
 21
363.575855
 31
0.0
  0
LINE
  8
LC-004-002-----0
  6
CONTINUOUS
  5
2C9
 10
291.369811
 20
363.575855
 30
0.0
 11
292.869811
 21
363.575855
 31
0.0
  0
LINE
  8
LC-004-002-----0
  6
CONTINUOUS
  5
2CA
 10
300.869815
 20
363.575853
 30
0.0
 11
231.369815
 21
363.575853
 31
0.0
  0
LINE
  8
LC-004-002-----0
  6
CONTINUOUS
  5
2CB
 10
573.181811
 20
385.097856
 30
0.0
 11
571.181811
 21
385.097855
 31
0.0
  0
LINE
  8
LC-004-002-----0
  6
CONTINUOUS
  5
2CC
 10
251.369811
 20
365.575855
 30
0.0
 11
251.369811
 21
363.575855
 31
0.0
  0
ARC
  8
LC-004-002-----0
  6
CONTINUOUS
  5
2CD
 10
248.369811
 20
365.575855
 30
0.0
 40
3.0
 50
0.0
 51
89.999981
  0
LINE
  8
LC-004-002-----0
  6
CONTINUOUS
  5
2CE
 10
568.181811
 20
385.097853
 30
0.0
 11
568.181811
 21
386.097853
 31
0.0
  0
ARC
  8
LC-004-002-----0
  6
CONTINUOUS
  5
2CF
 10
262.369811
 20
365.575855
 30
0.0
 40
3.0
 50
90.0
 51
179.999848
  0
LINE
  8
LC-004-002-----0
  6
CONTINUOUS
  5
2D0
 10
259.369811
 20
365.575855
 30
0.0
 11
259.369811
 21
363.575855
 31
0.0
  0
LINE
  8
LC-004-002-----0
  6
CONTINUOUS
  5
2D1
 10
262.369811
 20
368.575855
 30
0.0
 11
278.369811
 21
368.575855
 31
0.0
  0
ARC
  8
LC-004-002-----0
  6
CONTINUOUS
  5
2D2
 10
264.369811
 20
365.575855
 30
0.0
 40
3.0
 50
0.0
 51
90.0
  0
LINE
  8
LC-004-002-----0
  6
CONTINUOUS
  5
2D3
 10
267.369811
 20
363.575855
 30
0.0
 11
267.369811
 21
365.575855
 31
0.0
  0
ARC
  8
LC-004-002-----0
  6
CONTINUOUS
  5
2D4
 10
278.369811
 20
365.575855
 30
0.0
 40
3.0
 50
90.0
 51
179.999848
  0
LINE
  8
LC-004-002-----0
  6
CONTINUOUS
  5
2D5
 10
275.369811
 20
365.575855
 30
0.0
 11
275.369811
 21
363.575855
 31
0.0
  0
LINE
  8
LC-004-002-----0
  6
CONTINUOUS
  5
2D6
 10
278.369811
 20
368.575855
 30
0.0
 11
294.369811
 21
368.575855
 31
0.0
  0
ARC
  8
LC-004-002-----0
  6
CONTINUOUS
  5
2D7
 10
280.369811
 20
365.575855
 30
0.0
 40
3.0
 50
0.0
 51
90.0
  0
LINE
  8
LC-004-002-----0
  6
CONTINUOUS
  5
2D8
 10
283.369811
 20
363.575855
 30
0.0
 11
283.369811
 21
365.575855
 31
0.0
  0
ARC
  8
LC-004-002-----0
  6
CONTINUOUS
  5
2D9
 10
294.369811
 20
365.575855
 30
0.0
 40
3.0
 50
90.0
 51
179.999848
  0
LINE
  8
LC-004-002-----0
  6
CONTINUOUS
  5
2DA
 10
291.369811
 20
365.575855
 30
0.0
 11
291.369811
 21
363.575855
 31
0.0
  0
LINE
  8
LC-004-002-----0
  6
CONTINUOUS
  5
2DB
 10
294.369811
 20
368.575855
 30
0.0
 11
297.869811
 21
368.575855
 31
0.0
  0
ARC
  8
LC-004-002-----0
  6
CONTINUOUS
  5
2DC
 10
297.869811
 20
365.575855
 30
0.0
 40
3.0
 50
0.0
 51
90.0
  0
LINE
  8
LC-004-002-----0
  6
CONTINUOUS
  5
2DD
 10
300.869811
 20
365.575855
 30
0.0
 11
300.869815
 21
363.575853
 31
0.0
  0
LINE
  8
LC-004-002-----0
  6
CONTINUOUS
  5
2DE
 10
249.869811
 20
363.575855
 30
0.0
 11
249.869811
 21
365.575855
 31
0.0
  0
ARC
  8
LC-004-002-----0
  6
CONTINUOUS
  5
2DF
 10
248.369811
 20
365.575855
 30
0.0
 40
1.5
 50
0.0
 51
89.999981
  0
LINE
  8
LC-004-002-----0
  6
CONTINUOUS
  5
2E0
 10
248.369811
 20
367.075855
 30
0.0
 11
231.369811
 21
367.075855
 31
0.0
  0
LINE
  8
LC-004-002-----0
  6
CONTINUOUS
  5
2E1
 10
260.869811
 20
363.575855
 30
0.0
 11
260.869811
 21
365.575855
 31
0.0
  0
ARC
  8
LC-004-002-----0
  6
CONTINUOUS
  5
2E2
 10
262.369811
 20
365.575855
 30
0.0
 40
1.5
 50
89.999981
 51
180.0
  0
LINE
  8
LC-004-002-----0
  6
CONTINUOUS
  5
2E3
 10
262.369811
 20
367.075855
 30
0.0
 11
264.369811
 21
367.075855
 31
0.0
  0
ARC
  8
LC-004-002-----0
  6
CONTINUOUS
  5
2E4
 10
264.369811
 20
365.575855
 30
0.0
 40
1.5
 50
0.0
 51
90.0
  0
LINE
  8
LC-004-002-----0
  6
CONTINUOUS
  5
2E5
 10
265.869811
 20
365.575855
 30
0.0
 11
265.869811
 21
363.575855
 31
0.0
  0
LINE
  8
LC-004-002-----0
  6
CONTINUOUS
  5
2E6
 10
276.869811
 20
363.575855
 30
0.0
 11
276.869811
 21
365.575855
 31
0.0
  0
ARC
  8
LC-004-002-----0
  6
CONTINUOUS
  5
2E7
 10
278.369811
 20
365.575855
 30
0.0
 40
1.5
 50
89.999981
 51
180.0
  0
LINE
  8
LC-004-002-----0
  6
CONTINUOUS
  5
2E8
 10
278.369811
 20
367.075855
 30
0.0
 11
280.369811
 21
367.075855
 31
0.0
  0
ARC
  8
LC-004-002-----0
  6
CONTINUOUS
  5
2E9
 10
280.369811
 20
365.575855
 30
0.0
 40
1.5
 50
0.0
 51
90.0
  0
LINE
  8
LC-004-002-----0
  6
CONTINUOUS
  5
2EA
 10
281.869811
 20
365.575855
 30
0.0
 11
281.869811
 21
363.575855
 31
0.0
  0
ARC
  8
LC-004-002-----0
  6
CONTINUOUS
  5
2EB
 10
294.369811
 20
365.575855
 30
0.0
 40
1.5
 50
90.0
 51
179.999848
  0
LINE
  8
LC-004-002-----0
  6
CONTINUOUS
  5
2EC
 10
292.869811
 20
363.575855
 30
0.0
 11
292.869811
 21
365.575855
 31
0.0
  0
LINE
  8
LC-004-002-----0
  6
CONTINUOUS
  5
2ED
 10
297.869811
 20
367.075855
 30
0.0
 11
294.369811
 21
367.075855
 31
0.0
  0
ARC
  8
LC-004-002-----0
  6
CONTINUOUS
  5
2EE
 10
297.869811
 20
365.575855
 30
0.0
 40
1.5
 50
0.0
 51
90.0
  0
LINE
  8
LC-004-002-----0
  6
CONTINUOUS
  5
2EF
 10
299.369815
 20
363.575853
 30
0.0
 11
299.369811
 21
365.575855
 31
0.0
  0
LINE
  8
LC-004-002-----0
  6
CONTINUOUS
  5
2F0
 10
203.370032
 20
363.576042
 30
0.0
 11
212.870032
 21
363.576036
 31
0.0
  0
LINE
  8
LC-004-002-----0
  6
CONTINUOUS
  5
2F1
 10
203.370032
 20
363.576042
 30
0.0
 11
201.870032
 21
363.576043
 31
0.0
  0
LINE
  8
LC-004-002-----0
  6
CONTINUOUS
  5
2F2
 10
196.870032
 20
363.576047
 30
0.0
 11
187.370032
 21
363.576053
 31
0.0
  0
LINE
  8
LC-004-002-----0
  6
CONTINUOUS
  5
2F3
 10
180.870032
 20
363.576057
 30
0.0
 11
171.370032
 21
363.576063
 31
0.0
  0
LINE
  8
LC-004-002-----0
  6
CONTINUOUS
  5
2F4
 10
187.370032
 20
363.576053
 30
0.0
 11
185.870032
 21
363.576054
 31
0.0
  0
LINE
  8
LC-004-002-----0
  6
CONTINUOUS
  5
2F5
 10
171.370032
 20
363.576063
 30
0.0
 11
169.870032
 21
363.576064
 31
0.0
  0
LINE
  8
LC-004-002-----0
  6
CONTINUOUS
  5
2F6
 10
161.870032
 20
363.576067
 30
0.0
 11
231.370032
 21
363.576022
 31
0.0
  0
LINE
  8
LC-004-002-----0
  6
CONTINUOUS
  5
2F7
 10
211.370034
 20
365.576037
 30
0.0
 11
211.370032
 21
363.576037
 31
0.0
  0
ARC
  8
LC-004-002-----0
  6
CONTINUOUS
  5
2F8
 10
214.370034
 20
365.576035
 30
0.0
 40
3.0
 50
89.999963
 51
179.999963
  0
ARC
  8
LC-004-002-----0
  6
CONTINUOUS
  5
2F9
 10
200.370034
 20
365.576044
 30
0.0
 40
3.0
 50
0.000096
 51
89.999963
  0
LINE
  8
LC-004-002-----0
  6
CONTINUOUS
  5
2FA
 10
203.370034
 20
365.576042
 30
0.0
 11
203.370032
 21
363.576042
 31
0.0
  0
ARC
  8
LC-004-002-----0
  6
CONTINUOUS
  5
2FB
 10
198.370034
 20
365.576046
 30
0.0
 40
3.0
 50
89.999963
 51
179.999944
  0
LINE
  8
LC-004-002-----0
  6
CONTINUOUS
  5
2FC
 10
195.370032
 20
363.576048
 30
0.0
 11
195.370034
 21
365.576048
 31
0.0
  0
ARC
  8
LC-004-002-----0
  6
CONTINUOUS
  5
2FD
 10
184.370034
 20
365.576055
 30
0.0
 40
3.0
 50
0.000096
 51
89.999963
  0
LINE
  8
LC-004-002-----0
  6
CONTINUOUS
  5
2FE
 10
187.370034
 20
365.576053
 30
0.0
 11
187.370032
 21
363.576053
 31
0.0
  0
ARC
  8
LC-004-002-----0
  6
CONTINUOUS
  5
2FF
 10
182.370034
 20
365.576056
 30
0.0
 40
3.0
 50
89.999963
 51
179.999944
  0
LINE
  8
LC-004-002-----0
  6
CONTINUOUS
  5
300
 10
179.370032
 20
363.576058
 30
0.0
 11
179.370034
 21
365.576058
 31
0.0
  0
ARC
  8
LC-004-002-----0
  6
CONTINUOUS
  5
301
 10
168.370034
 20
365.576065
 30
0.0
 40
3.0
 50
0.000096
 51
89.999963
  0
LINE
  8
LC-004-002-----0
  6
CONTINUOUS
  5
302
 10
171.370034
 20
365.576063
 30
0.0
 11
171.370032
 21
363.576063
 31
0.0
  0
ARC
  8
LC-004-002-----0
  6
CONTINUOUS
  5
303
 10
164.870034
 20
365.576067
 30
0.0
 40
3.0
 50
89.999963
 51
179.999944
  0
LINE
  8
LC-004-002-----0
  6
CONTINUOUS
  5
304
 10
212.870032
 20
363.576036
 30
0.0
 11
212.870034
 21
365.576036
 31
0.0
  0
ARC
  8
LC-004-002-----0
  6
CONTINUOUS
  5
305
 10
214.370034
 20
365.576035
 30
0.0
 40
1.5
 50
89.999963
 51
179.999963
  0
LINE
  8
LC-004-002-----0
  6
CONTINUOUS
  5
306
 10
214.370035
 20
367.076035
 30
0.0
 11
231.370035
 21
367.076024
 31
0.0
  0
LINE
  8
LC-004-002-----0
  6
CONTINUOUS
  5
307
 10
201.870032
 20
363.576043
 30
0.0
 11
201.870034
 21
365.576043
 31
0.0
  0
ARC
  8
LC-004-002-----0
  6
CONTINUOUS
  5
308
 10
200.370034
 20
365.576044
 30
0.0
 40
1.5
 50
359.999963
 51
89.999888
  0
LINE
  8
LC-004-002-----0
  6
CONTINUOUS
  5
309
 10
200.370035
 20
367.076044
 30
0.0
 11
198.370035
 21
367.076046
 31
0.0
  0
ARC
  8
LC-004-002-----0
  6
CONTINUOUS
  5
30A
 10
198.370034
 20
365.576046
 30
0.0
 40
1.5
 50
89.999963
 51
179.999944
  0
LINE
  8
LC-004-002-----0
  6
CONTINUOUS
  5
30B
 10
196.870034
 20
365.576047
 30
0.0
 11
196.870032
 21
363.576047
 31
0.0
  0
LINE
  8
LC-004-002-----0
  6
CONTINUOUS
  5
30C
 10
185.870032
 20
363.576054
 30
0.0
 11
185.870034
 21
365.576054
 31
0.0
  0
ARC
  8
LC-004-002-----0
  6
CONTINUOUS
  5
30D
 10
184.370034
 20
365.576055
 30
0.0
 40
1.5
 50
359.999963
 51
89.999888
  0
LINE
  8
LC-004-002-----0
  6
CONTINUOUS
  5
30E
 10
184.370035
 20
367.076055
 30
0.0
 11
182.370035
 21
367.076056
 31
0.0
  0
ARC
  8
LC-004-002-----0
  6
CONTINUOUS
  5
30F
 10
182.370034
 20
365.576056
 30
0.0
 40
1.5
 50
89.999963
 51
179.999944
  0
LINE
  8
LC-004-002-----0
  6
CONTINUOUS
  5
310
 10
180.870034
 20
365.576057
 30
0.0
 11
180.870032
 21
363.576057
 31
0.0
  0
ARC
  8
LC-004-002-----0
  6
CONTINUOUS
  5
311
 10
168.370034
 20
365.576065
 30
0.0
 40
1.5
 50
0.000096
 51
89.999963
  0
LINE
  8
LC-004-002-----0
  6
CONTINUOUS
  5
312
 10
169.870032
 20
363.576064
 30
0.0
 11
169.870034
 21
365.576064
 31
0.0
  0
LINE
  8
LC-004-002-----0
  6
CONTINUOUS
  5
313
 10
164.870035
 20
367.076067
 30
0.0
 11
168.370035
 21
367.076065
 31
0.0
  0
ARC
  8
LC-004-002-----0
  6
CONTINUOUS
  5
314
 10
164.870034
 20
365.576067
 30
0.0
 40
1.5
 50
89.999963
 51
179.999944
  0
LINE
  8
LC-004-002-----0
  6
CONTINUOUS
  5
315
 10
163.370032
 20
363.576066
 30
0.0
 11
163.370034
 21
365.576068
 31
0.0
  0
LINE
  8
LC-004-002-----0
  6
CONTINUOUS
  5
316
 10
161.870034
 20
365.576069
 30
0.0
 11
161.870032
 21
363.576067
 31
0.0
  0
LINE
  8
LC-004-002-----0
  6
CONTINUOUS
  5
317
 10
568.181811
 20
386.097853
 30
0.0
 11
570.181811
 21
386.097854
 31
0.0
  0
LINE
  8
LC-004-002-----0
  6
CONTINUOUS
  5
318
 10
571.181811
 20
386.097855
 30
0.0
 11
573.181811
 21
386.097856
 31
0.0
  0
LINE
  8
LC-004-002-----0
  6
CONTINUOUS
  5
319
 10
571.181811
 20
386.097855
 30
0.0
 11
571.18181
 21
388.097855
 31
0.0
  0
LINE
  8
LC-004-002-----0
  6
CONTINUOUS
  5
31A
 10
570.181811
 20
385.097854
 30
0.0
 11
570.181813
 21
383.097854
 31
0.0
  0
LINE
  8
LC-004-002-----0
  6
CONTINUOUS
  5
31B
 10
570.181811
 20
385.097854
 30
0.0
 11
568.181811
 21
385.097853
 31
0.0
  0
LINE
  8
LC-004-002-----0
  6
CONTINUOUS
  5
31C
 10
303.869811
 20
354.575853
 30
0.0
 11
303.869811
 21
340.486367
 31
0.0
  0
LINE
  8
LC-004-002-----0
  6
CONTINUOUS
  5
31D
 10
301.369811
 20
369.075853
 30
0.0
 11
231.369811
 21
369.075853
 31
0.0
  0
LINE
  8
LC-004-002-----0
  6
CONTINUOUS
  5
31E
 10
304.369811
 20
354.575853
 30
0.0
 11
303.869811
 21
354.575853
 31
0.0
  0
LINE
  8
LC-004-002-----0
  6
CONTINUOUS
  5
31F
 10
303.869811
 20
281.075853
 30
0.0
 11
303.333913
 21
279.075853
 31
0.0
  0
LINE
  8
LC-004-002-----0
  6
CONTINUOUS
  5
320
 10
304.369811
 20
369.075853
 30
0.0
 11
301.369811
 21
369.075853
 31
0.0
  0
LINE
  8
LC-004-002-----0
  6
CONTINUOUS
  5
321
 10
303.333913
 20
279.075853
 30
0.0
 11
301.869811
 21
279.075853
 31
0.0
  0
LINE
  8
LC-004-002-----0
  6
CONTINUOUS
  5
322
 10
301.869811
 20
279.075853
 30
0.0
 11
231.369811
 21
279.075853
 31
0.0
  0
LINE
  8
LC-004-002-----0
  6
CONTINUOUS
  5
323
 10
268.301984
 20
358.075853
 30
0.0
 11
231.369811
 21
358.075853
 31
0.0
  0
LINE
  8
LC-004-002-----0
  6
CONTINUOUS
  5
324
 10
300.869811
 20
358.075853
 30
0.0
 11
268.301984
 21
358.075853
 31
0.0
  0
CIRCLE
  8
LC-004-002-----0
  6
CONTINUOUS
  5
325
 10
449.847811
 20
264.763855
 30
0.0
 40
4.5
  0
LINE
  8
LC-004-002-----0
  6
CONTINUOUS
  5
326
 10
291.126953
 20
355.575853
 30
0.0
 11
268.301984
 21
355.575853
 31
0.0
  0
LINE
  8
LC-004-002-----0
  6
CONTINUOUS
  5
327
 10
268.301984
 20
355.575853
 30
0.0
 11
268.301984
 21
358.075853
 31
0.0
  0
LINE
  8
LC-004-002-----0
  6
CONTINUOUS
  5
328
 10
334.369811
 20
367.075853
 30
0.0
 11
304.369811
 21
367.075853
 31
0.0
  0
LINE
  8
LC-004-002-----0
  6
CONTINUOUS
  5
329
 10
334.369811
 20
364.075853
 30
0.0
 11
334.369811
 21
367.075853
 31
0.0
  0
LINE
  8
LC-004-002-----0
  6
CONTINUOUS
  5
32A
 10
334.369811
 20
364.075853
 30
0.0
 11
304.369811
 21
364.075853
 31
0.0
  0
ARC
  8
LC-004-002-----0
  6
CONTINUOUS
  5
32B
 10
550.869811
 20
380.575855
 30
0.0
 40
4.0
 50
270.000117
 51
90.00004
  0
ARC
  8
LC-004-002-----0
  6
CONTINUOUS
  5
32C
 10
534.869811
 20
364.575855
 30
0.0
 40
4.0
 50
270.000117
 51
90.00004
  0
ARC
  8
LC-004-002-----0
  6
CONTINUOUS
  5
32D
 10
518.869811
 20
348.575855
 30
0.0
 40
4.0
 50
270.000117
 51
90.00004
  0
LINE
  8
LC-004-002-----0
  6
CONTINUOUS
  5
32E
 10
518.869811
 20
344.575855
 30
0.0
 11
510.869811
 21
344.575855
 31
0.0
  0
LINE
  8
LC-004-002-----0
  6
CONTINUOUS
  5
32F
 10
518.869811
 20
352.575855
 30
0.0
 11
510.869811
 21
352.575855
 31
0.0
  0
LINE
  8
LC-004-002-----0
  6
CONTINUOUS
  5
330
 10
534.869811
 20
368.575855
 30
0.0
 11
510.869811
 21
368.575855
 31
0.0
  0
LINE
  8
LC-004-002-----0
  6
CONTINUOUS
  5
331
 10
534.869811
 20
360.575855
 30
0.0
 11
510.869811
 21
360.575855
 31
0.0
  0
LINE
  8
LC-004-002-----0
  6
CONTINUOUS
  5
332
 10
550.869811
 20
384.575855
 30
0.0
 11
510.869811
 21
384.575855
 31
0.0
  0
LINE
  8
LC-004-002-----0
  6
CONTINUOUS
  5
333
 10
550.869811
 20
376.575855
 30
0.0
 11
510.869811
 21
376.575855
 31
0.0
  0
ARC
  8
LC-004-002-----0
  6
CONTINUOUS
  5
334
 10
470.870098
 20
380.576272
 30
0.0
 40
4.0
 50
89.999829
 51
269.999846
  0
ARC
  8
LC-004-002-----0
  6
CONTINUOUS
  5
335
 10
486.870087
 20
364.576262
 30
0.0
 40
4.0
 50
89.999829
 51
269.999846
  0
ARC
  8
LC-004-002-----0
  6
CONTINUOUS
  5
336
 10
502.870077
 20
348.576251
 30
0.0
 40
4.0
 50
89.999829
 51
269.999846
  0
LINE
  8
LC-004-002-----0
  6
CONTINUOUS
  5
337
 10
502.870074
 20
344.576251
 30
0.0
 11
510.870074
 21
344.576246
 31
0.0
  0
LINE
  8
LC-004-002-----0
  6
CONTINUOUS
  5
338
 10
502.870079
 20
352.576251
 30
0.0
 11
510.870079
 21
352.576246
 31
0.0
  0
LINE
  8
LC-004-002-----0
  6
CONTINUOUS
  5
339
 10
486.87009
 20
368.576262
 30
0.0
 11
510.87009
 21
368.576246
 31
0.0
  0
LINE
  8
LC-004-002-----0
  6
CONTINUOUS
  5
33A
 10
486.870085
 20
360.576262
 30
0.0
 11
510.870085
 21
360.576246
 31
0.0
  0
LINE
  8
LC-004-002-----0
  6
CONTINUOUS
  5
33B
 10
470.8701
 20
384.576272
 30
0.0
 11
510.8701
 21
384.576246
 31
0.0
  0
LINE
  8
LC-004-002-----0
  6
CONTINUOUS
  5
33C
 10
470.870095
 20
376.576272
 30
0.0
 11
510.870095
 21
376.576246
 31
0.0
  0
ARC
  8
LC-004-002-----0
  6
CONTINUOUS
  5
33D
 10
470.86777
 20
268.572469
 30
0.0
 40
4.0
 50
89.99985
 51
269.999715
  0
ARC
  8
LC-004-002-----0
  6
CONTINUOUS
  5
33E
 10
486.867845
 20
284.572394
 30
0.0
 40
4.0
 50
89.99985
 51
269.999715
  0
ARC
  8
LC-004-002-----0
  6
CONTINUOUS
  5
33F
 10
502.867919
 20
300.57232
 30
0.0
 40
4.0
 50
89.99985
 51
269.999715
  0
LINE
  8
LC-004-002-----0
  6
CONTINUOUS
  5
340
 10
502.867938
 20
304.57232
 30
0.0
 11
510.867938
 21
304.572283
 31
0.0
  0
LINE
  8
LC-004-002-----0
  6
CONTINUOUS
  5
341
 10
502.867901
 20
296.57232
 30
0.0
 11
510.867901
 21
296.572283
 31
0.0
  0
LINE
  8
LC-004-002-----0
  6
CONTINUOUS
  5
342
 10
486.867826
 20
280.572394
 30
0.0
 11
510.867826
 21
280.572283
 31
0.0
  0
LINE
  8
LC-004-002-----0
  6
CONTINUOUS
  5
343
 10
486.867864
 20
288.572394
 30
0.0
 11
510.867864
 21
288.572283
 31
0.0
  0
LINE
  8
LC-004-002-----0
  6
CONTINUOUS
  5
344
 10
470.867752
 20
264.572469
 30
0.0
 11
510.867752
 21
264.572283
 31
0.0
  0
LINE
  8
LC-004-002-----0
  6
CONTINUOUS
  5
345
 10
470.867789
 20
272.572469
 30
0.0
 11
510.867789
 21
272.572283
 31
0.0
  0
ARC
  8
LC-004-002-----0
  6
CONTINUOUS
  5
346
 10
550.867484
 20
268.572462
 30
0.0
 40
4.0
 50
269.999715
 51
89.999579
  0
ARC
  8
LC-004-002-----0
  6
CONTINUOUS
  5
347
 10
534.867569
 20
284.572547
 30
0.0
 40
4.0
 50
269.999715
 51
89.999579
  0
ARC
  8
LC-004-002-----0
  6
CONTINUOUS
  5
348
 10
518.867654
 20
300.572632
 30
0.0
 40
4.0
 50
269.999715
 51
89.999579
  0
LINE
  8
LC-004-002-----0
  6
CONTINUOUS
  5
349
 10
518.867675
 20
304.572632
 30
0.0
 11
510.867675
 21
304.572674
 31
0.0
  0
LINE
  8
LC-004-002-----0
  6
CONTINUOUS
  5
34A
 10
518.867632
 20
296.572632
 30
0.0
 11
510.867632
 21
296.572674
 31
0.0
  0
LINE
  8
LC-004-002-----0
  6
CONTINUOUS
  5
34B
 10
534.867548
 20
280.572547
 30
0.0
 11
510.867548
 21
280.572674
 31
0.0
  0
LINE
  8
LC-004-002-----0
  6
CONTINUOUS
  5
34C
 10
534.86759
 20
288.572547
 30
0.0
 11
510.86759
 21
288.572674
 31
0.0
  0
LINE
  8
LC-004-002-----0
  6
CONTINUOUS
  5
34D
 10
550.867463
 20
264.572462
 30
0.0
 11
510.867463
 21
264.572674
 31
0.0
  0
LINE
  8
LC-004-002-----0
  6
CONTINUOUS
  5
34E
 10
550.867505
 20
272.572462
 30
0.0
 11
510.867505
 21
272.572674
 31
0.0
  0
ARC
  8
LC-004-002-----0
  6
CONTINUOUS
  5
34F
 10
454.86934
 20
284.576215
 30
0.0
 40
4.0
 50
179.999964
 51
359.99977
  0
ARC
  8
LC-004-002-----0
  6
CONTINUOUS
  5
350
 10
470.869372
 20
300.576184
 30
0.0
 40
4.0
 50
179.999964
 51
359.99977
  0
ARC
  8
LC-004-002-----0
  6
CONTINUOUS
  5
351
 10
486.869404
 20
316.576152
 30
0.0
 40
4.0
 50
179.999964
 51
359.99977
  0
LINE
  8
LC-004-002-----0
  6
CONTINUOUS
  5
352
 10
490.869404
 20
316.576144
 30
0.0
 11
490.869419
 21
324.576144
 31
0.0
  0
LINE
  8
LC-004-002-----0
  6
CONTINUOUS
  5
353
 10
482.869404
 20
316.57616
 30
0.0
 11
482.869419
 21
324.57616
 31
0.0
  0
LINE
  8
LC-004-002-----0
  6
CONTINUOUS
  5
354
 10
466.869372
 20
300.576192
 30
0.0
 11
466.869419
 21
324.576192
 31
0.0
  0
LINE
  8
LC-004-002-----0
  6
CONTINUOUS
  5
355
 10
474.869372
 20
300.576176
 30
0.0
 11
474.869419
 21
324.576176
 31
0.0
  0
LINE
  8
LC-004-002-----0
  6
CONTINUOUS
  5
356
 10
450.86934
 20
284.576223
 30
0.0
 11
450.869419
 21
324.576223
 31
0.0
  0
LINE
  8
LC-004-002-----0
  6
CONTINUOUS
  5
357
 10
458.86934
 20
284.576208
 30
0.0
 11
458.869419
 21
324.576208
 31
0.0
  0
ARC
  8
LC-004-002-----0
  6
CONTINUOUS
  5
358
 10
454.869864
 20
364.575929
 30
0.0
 40
4.0
 50
0.000041
 51
179.999905
  0
ARC
  8
LC-004-002-----0
  6
CONTINUOUS
  5
359
 10
470.869843
 20
348.575908
 30
0.0
 40
4.0
 50
0.000041
 51
179.999905
  0
ARC
  8
LC-004-002-----0
  6
CONTINUOUS
  5
35A
 10
486.869822
 20
332.575886
 30
0.0
 40
4.0
 50
0.000041
 51
179.999905
  0
LINE
  8
LC-004-002-----0
  6
CONTINUOUS
  5
35B
 10
490.869822
 20
332.575881
 30
0.0
 11
490.869811
 21
324.575881
 31
0.0
  0
LINE
  8
LC-004-002-----0
  6
CONTINUOUS
  5
35C
 10
482.869822
 20
332.575892
 30
0.0
 11
482.869811
 21
324.575892
 31
0.0
  0
LINE
  8
LC-004-002-----0
  6
CONTINUOUS
  5
35D
 10
466.869843
 20
348.575913
 30
0.0
 11
466.869811
 21
324.575913
 31
0.0
  0
LINE
  8
LC-004-002-----0
  6
CONTINUOUS
  5
35E
 10
474.869843
 20
348.575902
 30
0.0
 11
474.869811
 21
324.575902
 31
0.0
  0
LINE
  8
LC-004-002-----0
  6
CONTINUOUS
  5
35F
 10
450.869864
 20
364.575934
 30
0.0
 11
450.869811
 21
324.575934
 31
0.0
  0
LINE
  8
LC-004-002-----0
  6
CONTINUOUS
  5
360
 10
458.869864
 20
364.575924
 30
0.0
 11
458.869811
 21
324.575924
 31
0.0
  0
ARC
  8
LC-004-002-----0
  6
CONTINUOUS
  5
361
 10
566.869864
 20
284.575929
 30
0.0
 40
4.0
 50
180.000193
 51
359.999905
  0
ARC
  8
LC-004-002-----0
  6
CONTINUOUS
  5
362
 10
550.869843
 20
300.575908
 30
0.0
 40
4.0
 50
180.000193
 51
359.999905
  0
ARC
  8
LC-004-002-----0
  6
CONTINUOUS
  5
363
 10
534.869822
 20
316.575886
 30
0.0
 40
4.0
 50
180.000193
 51
359.999905
  0
LINE
  8
LC-004-002-----0
  6
CONTINUOUS
  5
364
 10
530.869822
 20
316.575881
 30
0.0
 11
530.869811
 21
324.575881
 31
0.0
  0
LINE
  8
LC-004-002-----0
  6
CONTINUOUS
  5
365
 10
538.869822
 20
316.575892
 30
0.0
 11
538.869811
 21
324.575892
 31
0.0
  0
LINE
  8
LC-004-002-----0
  6
CONTINUOUS
  5
366
 10
554.869843
 20
300.575913
 30
0.0
 11
554.869811
 21
324.575913
 31
0.0
  0
LINE
  8
LC-004-002-----0
  6
CONTINUOUS
  5
367
 10
546.869843
 20
300.575902
 30
0.0
 11
546.869811
 21
324.575902
 31
0.0
  0
LINE
  8
LC-004-002-----0
  6
CONTINUOUS
  5
368
 10
570.869864
 20
284.575934
 30
0.0
 11
570.869811
 21
324.575934
 31
0.0
  0
LINE
  8
LC-004-002-----0
  6
CONTINUOUS
  5
369
 10
562.869864
 20
284.575924
 30
0.0
 11
562.869811
 21
324.575924
 31
0.0
  0
ARC
  8
LC-004-002-----0
  6
CONTINUOUS
  5
36A
 10
550.870187
 20
348.575632
 30
0.0
 40
4.0
 50
0.000039
 51
179.999922
  0
ARC
  8
LC-004-002-----0
  6
CONTINUOUS
  5
36B
 10
534.870197
 20
332.575621
 30
0.0
 40
4.0
 50
0.000039
 51
179.999922
  0
LINE
  8
LC-004-002-----0
  6
CONTINUOUS
  5
36C
 10
530.870197
 20
332.575618
 30
0.0
 11
530.870203
 21
324.575618
 31
0.0
  0
LINE
  8
LC-004-002-----0
  6
CONTINUOUS
  5
36D
 10
538.870197
 20
332.575623
 30
0.0
 11
538.870203
 21
324.575623
 31
0.0
  0
LINE
  8
LC-004-002-----0
  6
CONTINUOUS
  5
36E
 10
554.870187
 20
348.575634
 30
0.0
 11
554.870203
 21
324.575634
 31
0.0
  0
LINE
  8
LC-004-002-----0
  6
CONTINUOUS
  5
36F
 10
546.870187
 20
348.575629
 30
0.0
 11
546.870203
 21
324.575629
 31
0.0
  0
LINE
  8
LC-004-002-----0
  6
CONTINUOUS
  5
370
 10
570.870176
 20
364.575645
 30
0.0
 11
570.870203
 21
324.575645
 31
0.0
  0
LINE
  8
LC-004-002-----0
  6
CONTINUOUS
  5
371
 10
562.870176
 20
364.57564
 30
0.0
 11
562.870203
 21
324.57564
 31
0.0
  0
ARC
  8
LC-004-002-----0
  6
CONTINUOUS
  5
372
 10
566.870176
 20
364.575642
 30
0.0
 40
4.0
 50
0.000039
 51
179.999922
  0
LINE
  8
LC-004-002-----0
  6
CONTINUOUS
  5
373
 10
304.369811
 20
364.075853
 30
0.0
 11
304.369811
 21
354.575853
 31
0.0
  0
LINE
  8
LC-004-002-----0
  6
CONTINUOUS
  5
374
 10
304.369811
 20
369.075853
 30
0.0
 11
304.369811
 21
367.075853
 31
0.0
  0
LINE
  8
LC-004-002-----0
  6
CONTINUOUS
  5
375
 10
300.869811
 20
369.075853
 30
0.0
 11
300.869811
 21
363.575853
 31
0.0
  0
LINE
  8
LC-004-002-----0
  6
CONTINUOUS
  5
376
 10
283.369811
 20
358.075853
 30
0.0
 11
283.369811
 21
363.575853
 31
0.0
  0
LINE
  8
LC-004-002-----0
  6
CONTINUOUS
  5
377
 10
283.369811
 20
363.575853
 30
0.0
 11
297.369811
 21
363.575853
 31
0.0
  0
LINE
  8
LC-004-002-----0
  6
CONTINUOUS
  5
378
 10
297.369811
 20
363.575853
 30
0.0
 11
297.369811
 21
358.075853
 31
0.0
  0
LINE
  8
LC-004-002-----0
  6
CONTINUOUS
  5
379
 10
303.869811
 20
340.486367
 30
0.0
 11
303.869811
 21
281.075853
 31
0.0
  0
LINE
  8
LC-004-002-----0
  6
CONTINUOUS
  5
37A
 10
291.126953
 20
355.575853
 30
0.0
 11
291.126953
 21
358.075853
 31
0.0
  0
LINE
  8
LC-004-002-----0
  6
CONTINUOUS
 62
     2
  5
37B
 10
179.897573
 20
444.200969
 30
0.0
 11
179.897573
 21
459.200969
 31
0.0
  0
LINE
  8
LC-004-002-----0
  6
CONTINUOUS
  5
37C
 10
447.347811
 20
264.263856
 30
0.0
 11
447.347811
 21
265.263856
 31
0.0
  0
LINE
  8
LC-004-002-----0
  6
CONTINUOUS
  5
37D
 10
447.347811
 20
265.263856
 30
0.0
 11
449.347811
 21
265.263855
 31
0.0
  0
LINE
  8
LC-004-002-----0
  6
CONTINUOUS
 62
     2
  5
37E
 10
194.897573
 20
444.200969
 30
0.0
 11
179.897573
 21
444.200969
 31
0.0
  0
LINE
  8
LC-007-007-KH--0
  5
381
 10
290.369811
 20
358.075853
 30
0.0
 11
292.869811
 21
358.075853
 31
0.0
  0
LINE
  8
LC-004-002-----0
  6
CONTINUOUS
  5
382
 10
158.869811
 20
354.575853
 30
0.0
 11
158.869811
 21
340.486367
 31
0.0
  0
LINE
  8
LC-004-002-----0
  6
CONTINUOUS
  5
383
 10
161.369811
 20
369.075853
 30
0.0
 11
231.369811
 21
369.075853
 31
0.0
  0
LINE
  8
LC-004-002-----0
  6
CONTINUOUS
  5
384
 10
300.869811
 20
363.575853
 30
0.0
 11
231.369811
 21
363.575853
 31
0.0
  0
LINE
  8
LC-004-002-----0
  6
CONTINUOUS
 62
     2
  5
385
 10
194.897573
 20
444.200969
 30
0.0
 11
194.897573
 21
459.200969
 31
0.0
  0
LINE
  8
LC-004-002-----0
  6
CONTINUOUS
 62
     2
  5
386
 10
194.897573
 20
459.200969
 30
0.0
 11
179.897573
 21
459.200969
 31
0.0
  0
LINE
  8
LC-004-002-----0
  6
CONTINUOUS
  5
387
 10
452.347811
 20
265.263853
 30
0.0
 11
452.347811
 21
264.263853
 31
0.0
  0
LINE
  8
LC-004-002-----0
  6
CONTINUOUS
  5
388
 10
452.347811
 20
264.263853
 30
0.0
 11
450.347811
 21
264.263854
 31
0.0
  0
LINE
  8
LC-004-002-----0
  6
CONTINUOUS
  5
389
 10
158.369811
 20
354.575853
 30
0.0
 11
158.869811
 21
354.575853
 31
0.0
  0
LINE
  8
LC-004-002-----0
  6
CONTINUOUS
  5
38A
 10
158.869811
 20
281.075853
 30
0.0
 11
159.40571
 21
279.075853
 31
0.0
  0
LINE
  8
LC-004-002-----0
  6
CONTINUOUS
  5
38B
 10
439.869811
 20
397.575855
 30
0.0
 11
581.869811
 21
397.575855
 31
0.0
  0
LINE
  8
LC-004-002-----0
  6
CONTINUOUS
  5
38C
 10
583.869811
 20
395.575855
 30
0.0
 11
583.869811
 21
253.575855
 31
0.0
  0
LINE
  8
LC-004-002-----0
  6
CONTINUOUS
  5
38D
 10
581.869811
 20
251.575855
 30
0.0
 11
439.869811
 21
251.575855
 31
0.0
  0
LINE
  8
LC-004-002-----0
  6
CONTINUOUS
  5
38E
 10
437.869811
 20
253.575855
 30
0.0
 11
437.869811
 21
395.575855
 31
0.0
  0
ARC
  8
LC-008-002-RND-0
  6
CONTINUOUS
  5
390
 10
439.869811
 20
395.575855
 30
0.0
 40
2.0
 50
90.0
 51
180.0
  0
ARC
  8
LC-008-002-RND-0
  6
CONTINUOUS
  5
391
 10
581.869811
 20
395.575855
 30
0.0
 40
2.0
 50
0.0
 51
90.0
  0
ARC
  8
LC-008-002-RND-0
  6
CONTINUOUS
  5
392
 10
581.869811
 20
253.575855
 30
0.0
 40
2.0
 50
270.0
 51
0.0
  0
ARC
  8
LC-008-002-RND-0
  6
CONTINUOUS
  5
393
 10
439.869811
 20
253.575855
 30
0.0
 40
2.0
 50
180.0
 51
270.0
  0
LINE
  8
LC-004-002-----0
  6
CONTINUOUS
  5
394
 10
158.369811
 20
369.075853
 30
0.0
 11
161.369811
 21
369.075853
 31
0.0
  0
LINE
  8
LC-004-002-----0
  6
CONTINUOUS
  5
395
 10
159.40571
 20
279.075853
 30
0.0
 11
160.869811
 21
279.075853
 31
0.0
  0
LINE
  8
LC-004-002-----0
  6
CONTINUOUS
  5
396
 10
247.922756
 20
358.075853
 30
0.0
 11
247.922756
 21
363.575853
 31
0.0
  0
LINE
  8
LC-004-002-----0
  6
CONTINUOUS
  5
397
 10
160.869811
 20
279.075853
 30
0.0
 11
231.369811
 21
279.075853
 31
0.0
  0
LINE
  8
LC-004-002-----0
  6
CONTINUOUS
  5
398
 10
298.869811
 20
363.575853
 30
0.0
 11
298.869811
 21
358.075853
 31
0.0
  0
LINE
  8
LC-004-002-----0
  6
CONTINUOUS
  5
399
 10
580.369811
 20
255.075855
 30
0.0
 11
580.369811
 21
394.075855
 31
0.0
  0
LINE
  8
LC-004-002-----0
  6
CONTINUOUS
  5
39A
 10
441.369811
 20
255.075855
 30
0.0
 11
441.369811
 21
394.075855
 31
0.0
  0
LINE
  8
LC-004-002-----0
  6
CONTINUOUS
  5
39B
 10
580.369811
 20
394.075855
 30
0.0
 11
441.369811
 21
394.075855
 31
0.0
  0
LINE
  8
LC-004-002-----0
  6
CONTINUOUS
  5
39C
 10
580.369811
 20
255.075855
 30
0.0
 11
441.369811
 21
255.075855
 31
0.0
  0
LINE
  8
LC-004-002-----0
  6
CONTINUOUS
  5
39D
 10
300.869811
 20
358.075853
 30
0.0
 11
300.869811
 21
279.075853
 31
0.0
  0
LINE
  8
LC-004-002-----0
  6
CONTINUOUS
  5
39E
 10
194.437639
 20
358.075853
 30
0.0
 11
231.369811
 21
358.075853
 31
0.0
  0
LINE
  8
LC-004-002-----0
  6
CONTINUOUS
  5
39F
 10
449.34781
 20
262.263855
 30
0.0
 11
450.34781
 21
262.263854
 31
0.0
  0
LINE
  8
LC-004-002-----0
  6
DASHDOT
 62
     2
  5
3A0
 10
231.369811
 20
369.075853
 30
0.0
 11
231.369811
 21
279.075853
 31
0.0
  0
LINE
  8
LC-004-002-----0
  6
CONTINUOUS
  5
3A1
 10
450.34781
 20
262.263854
 30
0.0
 11
450.347811
 21
264.263854
 31
0.0
  0
LINE
  8
LC-004-002-----0
  6
CONTINUOUS
  5
3A2
 10
450.347813
 20
267.263854
 30
0.0
 11
449.347813
 21
267.263855
 31
0.0
  0
LINE
  8
LC-004-002-----0
  6
CONTINUOUS
  5
3A3
 10
161.869811
 20
358.075853
 30
0.0
 11
194.437639
 21
358.075853
 31
0.0
  0
LINE
  8
LC-004-002-----0
  6
CONTINUOUS
  5
3A4
 10
449.347813
 20
267.263855
 30
0.0
 11
449.347811
 21
265.263855
 31
0.0
  0
LINE
  8
LC-004-002-----0
  6
CONTINUOUS
  5
3A5
 10
449.347811
 20
264.263855
 30
0.0
 11
449.34781
 21
262.263855
 31
0.0
  0
LINE
  8
LC-004-002-----0
  6
CONTINUOUS
  5
3A6
 10
449.347811
 20
264.263855
 30
0.0
 11
447.347811
 21
264.263856
 31
0.0
  0
LINE
  8
LC-004-002-----0
  6
CONTINUOUS
  5
3A7
 10
450.347811
 20
265.263854
 30
0.0
 11
452.347811
 21
265.263853
 31
0.0
  0
LINE
  8
LC-004-002-----0
  6
CONTINUOUS
  5
3A8
 10
450.347811
 20
265.263854
 30
0.0
 11
450.347813
 21
267.263854
 31
0.0
  0
LINE
  8
LC-004-002-----0
  6
CONTINUOUS
  5
3A9
 10
171.61267
 20
355.575853
 30
0.0
 11
194.437639
 21
355.575853
 31
0.0
  0
LINE
  8
LC-004-002-----0
  6
CONTINUOUS
  5
3AA
 10
194.437639
 20
355.575853
 30
0.0
 11
194.437639
 21
358.075853
 31
0.0
  0
LINE
  8
LC-004-002-----0
  6
CONTINUOUS
  5
3AB
 10
407.869811
 20
420.575855
 30
0.0
 11
407.869811
 21
228.575855
 31
0.0
  0
ARC
  8
LC-008-002-RND-0
  6
CONTINUOUS
  5
3AC
 10
414.869811
 20
420.575855
 30
0.0
 40
7.0
 50
90.0
 51
180.0
  0
LINE
  8
LC-004-002-----0
  6
CONTINUOUS
  5
3AD
 10
414.869811
 20
221.575855
 30
0.0
 11
606.869811
 21
221.575855
 31
0.0
  0
LINE
  8
LC-004-002-----0
  6
CONTINUOUS
  5
3AE
 10
613.869811
 20
228.575855
 30
0.0
 11
613.869811
 21
420.575855
 31
0.0
  0
ARC
  8
LC-008-002-RND-0
  6
CONTINUOUS
  5
3AF
 10
606.869811
 20
420.575855
 30
0.0
 40
7.0
 50
0.0
 51
90.0
  0
LINE
  8
LC-004-002-----0
  6
CONTINUOUS
  5
3B0
 10
128.369811
 20
367.075853
 30
0.0
 11
158.369811
 21
367.075853
 31
0.0
  0
LINE
  8
LC-004-002-----0
  6
CONTINUOUS
  5
3B1
 10
128.369811
 20
364.075853
 30
0.0
 11
128.369811
 21
367.075853
 31
0.0
  0
LINE
  8
LC-004-002-----0
  6
CONTINUOUS
  5
3B2
 10
128.369811
 20
364.075853
 30
0.0
 11
158.369811
 21
364.075853
 31
0.0
  0
ARC
  8
LC-008-002-RND-0
  6
CONTINUOUS
  5
3B3
 10
606.869811
 20
228.575855
 30
0.0
 40
7.0
 50
270.0
 51
0.0
  0
ARC
  8
LC-008-002-RND-0
  6
CONTINUOUS
  5
3B4
 10
414.869811
 20
228.575855
 30
0.0
 40
7.0
 50
180.0
 51
270.0
  0
LINE
  8
LC-004-002-----0
  6
CONTINUOUS
  5
3B5
 10
158.369811
 20
364.075853
 30
0.0
 11
158.369811
 21
354.575853
 31
0.0
  0
LINE
  8
LC-004-002-----0
  6
CONTINUOUS
  5
3B6
 10
414.869811
 20
427.575855
 30
0.0
 11
606.869811
 21
427.575855
 31
0.0
  0
LINE
  8
LC-004-002-----0
  6
CONTINUOUS
  5
3B7
 10
158.369811
 20
369.075853
 30
0.0
 11
158.369811
 21
367.075853
 31
0.0
  0
LINE
  8
LC-004-002-----0
  6
CONTINUOUS
  5
3B8
 10
161.869811
 20
369.075853
 30
0.0
 11
161.869811
 21
363.575853
 31
0.0
  0
LINE
  8
LC-004-002-----0
  6
CONTINUOUS
  5
3B9
 10
179.369811
 20
358.075853
 30
0.0
 11
179.369811
 21
363.575853
 31
0.0
  0
LINE
  8
LC-004-002-----0
  6
CONTINUOUS
  5
3BA
 10
179.369811
 20
363.575853
 30
0.0
 11
165.369811
 21
363.575853
 31
0.0
  0
LINE
  8
LC-004-002-----0
  6
CONTINUOUS
  5
3BB
 10
165.369811
 20
363.575853
 30
0.0
 11
165.369811
 21
358.075853
 31
0.0
  0
LINE
  8
LC-004-002-----0
  6
CONTINUOUS
  5
3BC
 10
158.869811
 20
340.486367
 30
0.0
 11
158.869811
 21
281.075853
 31
0.0
  0
LINE
  8
LC-004-002-----0
  6
CONTINUOUS
  5
3BD
 10
171.61267
 20
355.575853
 30
0.0
 11
171.61267
 21
358.075853
 31
0.0
  0
LINE
  8
LC-007-007-KH--0
  5
3BE
 10
172.369811
 20
358.075853
 30
0.0
 11
169.869811
 21
358.075853
 31
0.0
  0
LINE
  8
LC-004-002-----0
  6
CONTINUOUS
  5
3BF
 10
161.869811
 20
363.575853
 30
0.0
 11
231.369811
 21
363.575853
 31
0.0
  0
LINE
  8
LC-004-002-----0
  6
CONTINUOUS
  5
3C0
 10
214.816866
 20
358.075853
 30
0.0
 11
214.816866
 21
363.575853
 31
0.0
  0
LINE
  8
LC-004-002-----0
  6
CONTINUOUS
  5
3C1
 10
163.869811
 20
363.575853
 30
0.0
 11
163.869811
 21
358.075853
 31
0.0
  0
LINE
  8
LC-004-002-----0
  6
CONTINUOUS
  5
3C2
 10
161.869811
 20
358.075853
 30
0.0
 11
161.869811
 21
279.075853
 31
0.0
  0
LINE
  8
LC-004-002-----0
  6
CONTINUOUS
 62
     2
  5
3C3
 10
161.869811
 20
302.075853
 30
0.0
 11
300.869811
 21
302.075853
 31
0.0
  0
ENDSEC
  0
EOF
