  0
SECTION
  2
HEADER
  9
$ACADVER
  1
AC1015
  9
$ACADMAINTVER
 70
     6
  9
$DWGCODEPAGE
  3
DOS850
  9
$INSBASE
 10
565.273216
 20
7181.045
 30
0.0
  9
$EXTMIN
 10
565.273216
 20
7181.045
 30
0.0
  9
$EXTMAX
 10
1405.273216
 20
7775.045
 30
0.0
  9
$LIMMIN
 10
565.273216
 20
7181.045
  9
$LIMMAX
 10
1405.273216
 20
7775.045
  9
$ORTHOMODE
 70
     0
  9
$REGENMODE
 70
     1
  9
$FILLMODE
 70
     1
  9
$QTEXTMODE
 70
     0
  9
$MIRRTEXT
 70
     1
  9
$LTSCALE
 40
2.0
  9
$ATTMODE
 70
     1
  9
$TEXTSIZE
 40
2.5
  9
$TRACEWID
 40
1.0
  9
$TEXTSTYLE
  7
Standard
  9
$CLAYER
  8
0
  9
$CELTYPE
  6
ByLayer
  9
$CECOLOR
 62
     7
  9
$CELTSCALE
 40
1.0
  9
$DISPSILH
 70
     0
  9
$DIMSCALE
 40
2.0
  9
$DIMASZ
 40
3.5
  9
$DIMEXO
 40
0.625
  9
$DIMDLI
 40
3.75
  9
$DIMRND
 40
0.0
  9
$DIMDLE
 40
0.0
  9
$DIMEXE
 40
1.25
  9
$DIMTP
 40
0.0
  9
$DIMTM
 40
0.0
  9
$DIMTXT
 40
3.5
  9
$DIMCEN
 40
2.5
  9
$DIMTSZ
 40
0.0
  9
$DIMTOL
 70
     0
  9
$DIMLIM
 70
     0
  9
$DIMTIH
 70
     0
  9
$DIMTOH
 70
     0
  9
$DIMSE1
 70
     0
  9
$DIMSE2
 70
     0
  9
$DIMTAD
 70
     1
  9
$DIMZIN
 70
     8
  9
$DIMBLK
  1

  9
$DIMASO
 70
     1
  9
$DIMSHO
 70
     1
  9
$DIMPOST
  1

  9
$DIMAPOST
  1

  9
$DIMALT
 70
     0
  9
$DIMALTD
 70
     3
  9
$DIMALTF
 40
0.03937
  9
$DIMLFAC
 40
1.0
  9
$DIMTOFL
 70
     1
  9
$DIMTVP
 40
0.0
  9
$DIMTIX
 70
     0
  9
$DIMSOXD
 70
     0
  9
$DIMSAH
 70
     0
  9
$DIMBLK1
  1

  9
$DIMBLK2
  1

  9
$DIMSTYLE
  2
ISO-25
  9
$DIMCLRD
 70
     0
  9
$DIMCLRE
 70
     0
  9
$DIMCLRT
 70
     0
  9
$DIMTFAC
 40
1.0
  9
$DIMGAP
 40
0.625
  9
$DIMJUST
 70
     0
  9
$DIMSD1
 70
     0
  9
$DIMSD2
 70
     0
  9
$DIMTOLJ
 70
     0
  9
$DIMTZIN
 70
     8
  9
$DIMALTZ
 70
     0
  9
$DIMALTTZ
 70
     0
  9
$DIMUPT
 70
     0
  9
$DIMDEC
 70
     2
  9
$DIMTDEC
 70
     2
  9
$DIMALTU
 70
     2
  9
$DIMALTTD
 70
     3
  9
$DIMTXSTY
  7
Standard
  9
$DIMAUNIT
 70
     0
  9
$DIMADEC
 70
     0
  9
$DIMALTRND
 40
0.0
  9
$DIMAZIN
 70
     0
  9
$DIMDSEP
 70
    44
  9
$DIMATFIT
 70
     3
  9
$DIMFRAC
 70
     0
  9
$DIMLDRBLK
  1

  9
$DIMLUNIT
 70
     2
  9
$DIMLWD
 70
    -2
  9
$DIMLWE
 70
    -2
  9
$DIMTMOVE
 70
     0
  9
$LUNITS
 70
     2
  9
$LUPREC
 70
     4
  9
$SKETCHINC
 40
1.0
  9
$FILLETRAD
 40
10.0
  9
$AUNITS
 70
     0
  9
$AUPREC
 70
     0
  9
$MENU
  1
.
  9
$ELEVATION
 40
0.0
  9
$PELEVATION
 40
0.0
  9
$THICKNESS
 40
0.0
  9
$LIMCHECK
 70
     0
  9
$CHAMFERA
 40
10.0
  9
$CHAMFERB
 40
10.0
  9
$CHAMFERC
 40
20.0
  9
$CHAMFERD
 40
0.0
  9
$SKPOLY
 70
     0
  9
$TDCREATE
 40
2453788.450018958
  9
$TDUCREATE
 40
2453788.408352292
  9
$TDUPDATE
 40
2453788.45001897
  9
$TDUUPDATE
 40
2453788.408352303
  9
$TDINDWG
 40
0.0000000116
  9
$TDUSRTIMER
 40
0.0000000116
  9
$USRTIMER
 70
     1
  9
$ANGBASE
 50
0.0
  9
$ANGDIR
 70
     0
  9
$PDMODE
 70
     0
  9
$PDSIZE
 40
0.0
  9
$PLINEWID
 40
0.0
  9
$SPLFRAME
 70
     0
  9
$SPLINETYPE
 70
     6
  9
$SPLINESEGS
 70
     8
  9
$HANDSEED
  5
343
  9
$SURFTAB1
 70
     6
  9
$SURFTAB2
 70
     6
  9
$SURFTYPE
 70
     6
  9
$SURFU
 70
     6
  9
$SURFV
 70
     6
  9
$UCSBASE
  2

  9
$UCSNAME
  2

  9
$UCSORG
 10
0.0
 20
0.0
 30
0.0
  9
$UCSXDIR
 10
1.0
 20
0.0
 30
0.0
  9
$UCSYDIR
 10
0.0
 20
1.0
 30
0.0
  9
$UCSORTHOREF
  2

  9
$UCSORTHOVIEW
 70
     0
  9
$UCSORGTOP
 10
0.0
 20
0.0
 30
0.0
  9
$UCSORGBOTTOM
 10
0.0
 20
0.0
 30
0.0
  9
$UCSORGLEFT
 10
0.0
 20
0.0
 30
0.0
  9
$UCSORGRIGHT
 10
0.0
 20
0.0
 30
0.0
  9
$UCSORGFRONT
 10
0.0
 20
0.0
 30
0.0
  9
$UCSORGBACK
 10
0.0
 20
0.0
 30
0.0
  9
$PUCSBASE
  2

  9
$PUCSNAME
  2

  9
$PUCSORG
 10
0.0
 20
0.0
 30
0.0
  9
$PUCSXDIR
 10
1.0
 20
0.0
 30
0.0
  9
$PUCSYDIR
 10
0.0
 20
1.0
 30
0.0
  9
$PUCSORTHOREF
  2

  9
$PUCSORTHOVIEW
 70
     0
  9
$PUCSORGTOP
 10
0.0
 20
0.0
 30
0.0
  9
$PUCSORGBOTTOM
 10
0.0
 20
0.0
 30
0.0
  9
$PUCSORGLEFT
 10
0.0
 20
0.0
 30
0.0
  9
$PUCSORGRIGHT
 10
0.0
 20
0.0
 30
0.0
  9
$PUCSORGFRONT
 10
0.0
 20
0.0
 30
0.0
  9
$PUCSORGBACK
 10
0.0
 20
0.0
 30
0.0
  9
$USERI1
 70
     0
  9
$USERI2
 70
     0
  9
$USERI3
 70
     0
  9
$USERI4
 70
     0
  9
$USERI5
 70
     0
  9
$USERR1
 40
0.0
  9
$USERR2
 40
0.0
  9
$USERR3
 40
0.0
  9
$USERR4
 40
0.0
  9
$USERR5
 40
0.0
  9
$WORLDVIEW
 70
     1
  9
$SHADEDGE
 70
     3
  9
$SHADEDIF
 70
    70
  9
$TILEMODE
 70
     1
  9
$MAXACTVP
 70
    64
  9
$PINSBASE
 10
0.0
 20
0.0
 30
0.0
  9
$PLIMCHECK
 70
     0
  9
$PEXTMIN
 10
565.273216
 20
7181.045
 30
0.0
  9
$PEXTMAX
 10
1405.273216
 20
7775.045
 30
0.0
  9
$PLIMMIN
 10
565.273216
 20
7181.045
  9
$PLIMMAX
 10
1405.273216
 20
7775.045
  9
$UNITMODE
 70
     0
  9
$VISRETAIN
 70
     1
  9
$PLINEGEN
 70
     0
  9
$PSLTSCALE
 70
     1
  9
$TREEDEPTH
 70
  3020
  9
$CMLSTYLE
  2
Standard
  9
$CMLJUST
 70
     0
  9
$CMLSCALE
 40
20.0
  9
$PROXYGRAPHICS
 70
     1
  9
$MEASUREMENT
 70
     1
  9
$CELWEIGHT
370
    -1
  9
$ENDCAPS
280
     0
  9
$JOINSTYLE
280
     0
  9
$LWDISPLAY
290
     0
  9
$INSUNITS
 70
     4
  9
$HYPERLINKBASE
  1

  9
$STYLESHEET
  1

  9
$XEDIT
290
     1
  9
$CEPSNTYPE
380
     0
  9
$PSTYLEMODE
290
     1
  9
$FINGERPRINTGUID
  2
{FAEB1C30-E019-11D5-929B-00C0DF256EC4}
  9
$VERSIONGUID
  2
{FAEB1C32-E019-11D5-929B-00C0DF256EC4}
  9
$EXTNAMES
290
     1
  9
$PSVPSCALE
 40
0.0
  9
$OLESTARTUP
290
     0
  0
ENDSEC
  0
SECTION
  2
CLASSES
  0
CLASS
  1
ACDBDICTIONARYWDFLT
  2
AcDbDictionaryWithDefault
  3
ObjectDBX Classes
 90
        0
280
     0
281
     0
  0
CLASS
  1
ACDBPLACEHOLDER
  2
AcDbPlaceHolder
  3
ObjectDBX Classes
 90
        0
280
     0
281
     0
  0
CLASS
  1
LAYOUT
  2
AcDbLayout
  3
ObjectDBX Classes
 90
        0
280
     0
281
     0
  0
ENDSEC
  0
SECTION
  2
TABLES
  0
TABLE
  2
VPORT
  5
8
330
0
100
AcDbSymbolTable
 70
     2
  0
VPORT
  5
29
330
8
100
AcDbSymbolTableRecord
100
AcDbViewportTableRecord
  2
*ACTIVE
 70
     0
 10
0.0
 20
0.0
 11
1.0
 21
1.0
 12
985.273216
 22
7478.045
 13
0.0
 23
0.0
 14
1.0
 24
1.0
 15
0.0
 25
0.0
 16
0.0
 26
0.0
 36
1.0
 17
0.0
 27
0.0
 37
0.0
 40
594.0
 41
1.414141
 42
50.0
 43
0.0
 44
0.0
 50
0.0
 51
0.0
 71
    16
 72
   100
 73
     1
 74
     0
 75
     0
 76
     0
 77
     0
 78
     0
281
     0
 65
     0
110
0.0
120
0.0
130
0.0
111
1.0
121
0.0
131
0.0
112
0.0
122
1.0
132
0.0
 79
     0
146
0.0
  0
ENDTAB
  0
TABLE
  2
LTYPE
  5
5
330
0
100
AcDbSymbolTable
 70
     3
  0
LTYPE
  5
14
330
5
100
AcDbSymbolTableRecord
100
AcDbLinetypeTableRecord
  2
ByBlock
 70
     0
  3

 72
    65
 73
     0
 40
0.0
  0
LTYPE
  5
15
330
5
100
AcDbSymbolTableRecord
100
AcDbLinetypeTableRecord
  2
ByLayer
 70
     0
  3

 72
    65
 73
     0
 40
0.0
  0
LTYPE
  5
16
330
5
100
AcDbSymbolTableRecord
100
AcDbLinetypeTableRecord
  2
Continuous
 70
     0
  3
Solid line
 72
    65
 73
     0
 40
0.0
  0
LTYPE
  5
2A
330
5
100
AcDbSymbolTableRecord
100
AcDbLinetypeTableRecord
  2
DASHED
 70
     0
  3
__ __ __ __ __
 72
    65
 73
     2
 40
6.25
 49
5.0
 74
     4
 75
     0
340
0
 46
1.0
 50
0.0
 44
0.0
 45
0.0
 49
-1.25
 74
     4
 75
     0
340
0
 46
1.0
 50
0.0
 44
0.0
 45
0.0
  0
LTYPE
  5
30
330
5
100
AcDbSymbolTableRecord
100
AcDbLinetypeTableRecord
  2
DASHDOT
 70
     0
  3
__ . __ . __ . __ . __
 72
    65
 73
     4
 40
7.5
 49
5.0
 74
     4
 75
     0
340
0
 46
1.0
 50
0.0
 44
0.0
 45
0.0
 49
-1.25
 74
     4
 75
     0
340
0
 46
1.0
 50
0.0
 44
0.0
 45
0.0
 49
0.0
 74
     4
 75
     0
340
0
 46
1.0
 50
0.0
 44
0.0
 45
0.0
 49
-1.25
 74
     4
 75
     0
340
0
 46
1.0
 50
0.0
 44
0.0
 45
0.0
  0
ENDTAB
  0
TABLE
  2
LAYER
  5
2
330
0
100
AcDbSymbolTable
 70
    10
  0
LAYER
  5
10
330
2
100
AcDbSymbolTableRecord
100
AcDbLayerTableRecord
  2
0
 70
     0
 62
     7
  6
Continuous
370
    -3
390
F
  0
LAYER
  5
2B
330
2
100
AcDbSymbolTableRecord
100
AcDbLayerTableRecord
  2
LC-INFO-1-2-mm-A3-0
 70
     1
 62
     7
  6
ByBlock
370
    -3
390
F
  0
LAYER
  5
2C
330
2
100
AcDbSymbolTableRecord
100
AcDbLayerTableRecord
  2
LC-CUT-HIDDEN
 70
     0
 62
     7
  6
DASHED
370
    -3
390
F
  0
LAYER
  5
2D
330
2
100
AcDbSymbolTableRecord
100
AcDbLayerTableRecord
  2
LC-VIEWPORT
 70
     0
 62
     7
  6
ByBlock
370
    -3
390
F
  0
LAYER
  5
2E
330
2
100
AcDbSymbolTableRecord
100
AcDbLayerTableRecord
  2
LC-3D-HIDDEN
 70
     0
 62
     9
  6
DASHED
370
    -3
390
F
  0
LAYER
  5
31
330
2
100
AcDbSymbolTableRecord
100
AcDbLayerTableRecord
  2
LC-001-002-----0
 70
     0
 62
     2
  6
DASHDOT
370
    -3
390
F
  0
LAYER
  5
33
330
2
100
AcDbSymbolTableRecord
100
AcDbLayerTableRecord
  2
LC-002-002-RND-0
 70
     0
 62
     1
  6
ByBlock
370
    -3
390
F
  0
LAYER
  5
4F
330
2
100
AcDbSymbolTableRecord
100
AcDbLayerTableRecord
  2
LC-003-005-----0
 70
     0
 62
     2
  6
ByBlock
370
    -3
390
F
  0
LAYER
  5
79
330
2
100
AcDbSymbolTableRecord
100
AcDbLayerTableRecord
  2
LC-004-003-----0
 70
     0
 62
     2
  6
ByBlock
370
    -3
390
F
  0
LAYER
  5
7B
330
2
100
AcDbSymbolTableRecord
100
AcDbLayerTableRecord
  2
Defpoints
 70
     0
 62
     7
  6
Continuous
290
     0
370
    -3
390
F
  0
ENDTAB
  0
TABLE
  2
STYLE
  5
3
330
0
100
AcDbSymbolTable
 70
     3
  0
STYLE
  5
11
330
3
100
AcDbSymbolTableRecord
100
AcDbTextStyleTableRecord
  2
Standard
 70
     0
 40
0.0
 41
1.0
 50
0.0
 71
     0
 42
2.5
  3
txt
  4

  0
STYLE
  5
2F
330
3
100
AcDbSymbolTableRecord
100
AcDbTextStyleTableRecord
  2
LCTX15-400-0-0-Arial
 70
     0
 40
0.0
 41
0.9
 50
0.0
 71
     0
 42
3.5
  3

  4

1001
ACAD
1000
Arial
1071
 16777218
  0
STYLE
  5
77
330
3
100
AcDbSymbolTableRecord
100
AcDbTextStyleTableRecord
  2
LCTX15-400-0-0pDIN-Schrift
 70
     0
 40
2.5
 41
0.8
 50
15.0
 71
     0
 42
3.5
  3
STANDARD
  4

  0
ENDTAB
  0
TABLE
  2
VIEW
  5
6
330
0
100
AcDbSymbolTable
 70
     0
  0
ENDTAB
  0
TABLE
  2
UCS
  5
7
330
0
100
AcDbSymbolTable
 70
     0
  0
ENDTAB
  0
TABLE
  2
APPID
  5
9
330
0
100
AcDbSymbolTable
 70
     1
  0
APPID
  5
12
330
9
100
AcDbSymbolTableRecord
100
AcDbRegAppTableRecord
  2
ACAD
 70
     0
  0
ENDTAB
  0
TABLE
  2
DIMSTYLE
  5
A
330
0
100
AcDbSymbolTable
 70
     2
100
AcDbDimStyleTable
  0
DIMSTYLE
105
27
330
A
100
AcDbSymbolTableRecord
100
AcDbDimStyleTableRecord
  2
ISO-25
 70
     0
 41
2.5
 42
0.625
 43
3.75
 44
1.25
 73
     0
 74
     0
 77
     1
 78
     8
140
2.5
141
2.5
143
0.03937
147
0.625
171
     3
172
     1
271
     2
272
     2
274
     3
278
    44
283
     0
284
     8
340
11
  0
DIMSTYLE
105
78
102
{ACAD_REACTORS
330
7A
330
CB
330
DA
330
E7
330
F5
102
}
330
A
100
AcDbSymbolTableRecord
100
AcDbDimStyleTableRecord
  2
LC-DIM-L-0140-02-02
 70
     0
 40
2.0
 41
14.0
 42
0.0
 43
7.5
 44
1.8
 73
     0
 74
     0
 77
     1
 78
     8
 79
     2
140
14.0
141
0.0
146
0.71
147
1.5
176
     2
177
     2
178
     2
179
     2
271
     2
278
    44
289
     1
340
77
  0
ENDTAB
  0
TABLE
  2
BLOCK_RECORD
  5
1
330
0
100
AcDbSymbolTable
 70
    15
  0
BLOCK_RECORD
  5
1F
330
1
100
AcDbSymbolTableRecord
100
AcDbBlockTableRecord
  2
*Model_Space
340
22
  0
BLOCK_RECORD
  5
1B
330
1
100
AcDbSymbolTableRecord
100
AcDbBlockTableRecord
  2
*Paper_Space
340
1E
  0
BLOCK_RECORD
  5
23
330
1
100
AcDbSymbolTableRecord
100
AcDbBlockTableRecord
  2
*Paper_Space0
340
26
  0
BLOCK_RECORD
  5
4C
330
1
100
AcDbSymbolTableRecord
100
AcDbBlockTableRecord
  2
*X11
340
0
102
{BLKREFS
331
71
102
}
  0
BLOCK_RECORD
  5
7C
330
1
100
AcDbSymbolTableRecord
100
AcDbBlockTableRecord
  2
*D2
340
0
  0
BLOCK_RECORD
  5
9A
330
1
100
AcDbSymbolTableRecord
100
AcDbBlockTableRecord
  2
*X23
340
0
102
{BLKREFS
331
A7
102
}
  0
BLOCK_RECORD
  5
B1
330
1
100
AcDbSymbolTableRecord
100
AcDbBlockTableRecord
  2
*X34
340
0
102
{BLKREFS
331
BD
102
}
  0
BLOCK_RECORD
  5
CC
330
1
100
AcDbSymbolTableRecord
100
AcDbBlockTableRecord
  2
*D5
340
0
  0
BLOCK_RECORD
  5
DB
330
1
100
AcDbSymbolTableRecord
100
AcDbBlockTableRecord
  2
*D6
340
0
  0
BLOCK_RECORD
  5
E8
330
1
100
AcDbSymbolTableRecord
100
AcDbBlockTableRecord
  2
*D7
340
0
  0
BLOCK_RECORD
  5
F6
330
1
100
AcDbSymbolTableRecord
100
AcDbBlockTableRecord
  2
*D8
340
0
  0
BLOCK_RECORD
  5
119
330
1
100
AcDbSymbolTableRecord
100
AcDbBlockTableRecord
  2
*X49
340
0
102
{BLKREFS
331
144
102
}
  0
BLOCK_RECORD
  5
147
330
1
100
AcDbSymbolTableRecord
100
AcDbBlockTableRecord
  2
*X510
340
0
102
{BLKREFS
331
172
102
}
  0
BLOCK_RECORD
  5
1BD
330
1
100
AcDbSymbolTableRecord
100
AcDbBlockTableRecord
  2
*X611
340
0
102
{BLKREFS
331
1D0
102
}
  0
BLOCK_RECORD
  5
1D8
330
1
100
AcDbSymbolTableRecord
100
AcDbBlockTableRecord
  2
*X712
340
0
102
{BLKREFS
331
1ED
102
}
  0
BLOCK_RECORD
  5
204
330
1
100
AcDbSymbolTableRecord
100
AcDbBlockTableRecord
  2
*X813
340
0
102
{BLKREFS
331
21F
102
}
  0
BLOCK_RECORD
  5
220
330
1
100
AcDbSymbolTableRecord
100
AcDbBlockTableRecord
  2
*X914
340
0
102
{BLKREFS
331
23B
102
}
  0
ENDTAB
  0
ENDSEC
  0
SECTION
  2
BLOCKS
  0
BLOCK
  5
20
330
1F
100
AcDbEntity
  8
0
100
AcDbBlockBegin
  2
*Model_Space
 70
     0
 71
     0
 10
0.0
 20
0.0
 30
0.0
  3
*Model_Space
  1

  0
ENDBLK
  5
21
330
1F
100
AcDbEntity
  8
0
100
AcDbBlockEnd
  0
BLOCK
  5
1C
330
1B
100
AcDbEntity
 67
     1
  8
0
100
AcDbBlockBegin
  2
*Paper_Space
 70
     0
 71
     0
 10
0.0
 20
0.0
 30
0.0
  3
*Paper_Space
  1

  0
ENDBLK
  5
1D
330
1B
100
AcDbEntity
 67
     1
  8
0
100
AcDbBlockEnd
  0
BLOCK
  5
24
330
23
100
AcDbEntity
  8
0
100
AcDbBlockBegin
  2
*Paper_Space0
 70
     0
 71
     0
 10
0.0
 20
0.0
 30
0.0
  3
*Paper_Space0
  1

  0
ENDBLK
  5
25
330
23
100
AcDbEntity
  8
0
100
AcDbBlockEnd
  0
BLOCK
  5
4D
330
4C
100
AcDbEntity
  8
0
100
AcDbBlockBegin
  2
*X11
 70
     1
 71
     0
 10
0.0
 20
0.0
 30
0.0
  3
*X11
  1

  4
*X1
  0
LINE
  5
50
330
4C
100
AcDbEntity
  8
LC-003-005-----0
 62
     7
370
    25
100
AcDbLine
 10
903.022001
 20
7479.115066
 30
0.0
 11
906.844462
 21
7482.937527
 31
0.0
  0
LINE
  5
51
330
4C
100
AcDbEntity
  8
LC-003-005-----0
 62
     7
370
    25
100
AcDbLine
 10
898.77936
 20
7479.115066
 30
0.0
 11
903.77936
 21
7484.115066
 31
0.0
  0
LINE
  5
52
330
4C
100
AcDbEntity
  8
LC-003-005-----0
 62
     7
370
    25
100
AcDbLine
 10
894.536719
 20
7479.115066
 30
0.0
 11
899.536719
 21
7484.115066
 31
0.0
  0
LINE
  5
53
330
4C
100
AcDbEntity
  8
LC-003-005-----0
 62
     7
370
    25
100
AcDbLine
 10
890.294079
 20
7479.115066
 30
0.0
 11
895.294079
 21
7484.115066
 31
0.0
  0
LINE
  5
54
330
4C
100
AcDbEntity
  8
LC-003-005-----0
 62
     7
370
    25
100
AcDbLine
 10
886.051438
 20
7479.115066
 30
0.0
 11
891.051438
 21
7484.115066
 31
0.0
  0
LINE
  5
55
330
4C
100
AcDbEntity
  8
LC-003-005-----0
 62
     7
370
    25
100
AcDbLine
 10
881.808797
 20
7479.115066
 30
0.0
 11
886.808797
 21
7484.115066
 31
0.0
  0
LINE
  5
56
330
4C
100
AcDbEntity
  8
LC-003-005-----0
 62
     7
370
    25
100
AcDbLine
 10
877.566157
 20
7479.115066
 30
0.0
 11
882.566157
 21
7484.115066
 31
0.0
  0
LINE
  5
57
330
4C
100
AcDbEntity
  8
LC-003-005-----0
 62
     7
370
    25
100
AcDbLine
 10
873.323516
 20
7479.115066
 30
0.0
 11
878.323516
 21
7484.115066
 31
0.0
  0
LINE
  5
58
330
4C
100
AcDbEntity
  8
LC-003-005-----0
 62
     7
370
    25
100
AcDbLine
 10
869.080875
 20
7479.115066
 30
0.0
 11
874.080875
 21
7484.115066
 31
0.0
  0
LINE
  5
59
330
4C
100
AcDbEntity
  8
LC-003-005-----0
 62
     7
370
    25
100
AcDbLine
 10
864.838235
 20
7479.115066
 30
0.0
 11
869.838235
 21
7484.115066
 31
0.0
  0
LINE
  5
5A
330
4C
100
AcDbEntity
  8
LC-003-005-----0
 62
     7
370
    25
100
AcDbLine
 10
860.595594
 20
7479.115066
 30
0.0
 11
865.595594
 21
7484.115066
 31
0.0
  0
LINE
  5
5B
330
4C
100
AcDbEntity
  8
LC-003-005-----0
 62
     7
370
    25
100
AcDbLine
 10
856.352953
 20
7479.115066
 30
0.0
 11
861.352953
 21
7484.115066
 31
0.0
  0
LINE
  5
5C
330
4C
100
AcDbEntity
  8
LC-003-005-----0
 62
     7
370
    25
100
AcDbLine
 10
852.110312
 20
7479.115066
 30
0.0
 11
857.110312
 21
7484.115066
 31
0.0
  0
LINE
  5
5D
330
4C
100
AcDbEntity
  8
LC-003-005-----0
 62
     7
370
    25
100
AcDbLine
 10
847.867672
 20
7479.115066
 30
0.0
 11
852.867672
 21
7484.115066
 31
0.0
  0
LINE
  5
5E
330
4C
100
AcDbEntity
  8
LC-003-005-----0
 62
     7
370
    25
100
AcDbLine
 10
843.625031
 20
7479.115066
 30
0.0
 11
848.625031
 21
7484.115066
 31
0.0
  0
LINE
  5
5F
330
4C
100
AcDbEntity
  8
LC-003-005-----0
 62
     7
370
    25
100
AcDbLine
 10
839.38239
 20
7479.115066
 30
0.0
 11
844.38239
 21
7484.115066
 31
0.0
  0
LINE
  5
60
330
4C
100
AcDbEntity
  8
LC-003-005-----0
 62
     7
370
    25
100
AcDbLine
 10
835.13975
 20
7479.115066
 30
0.0
 11
840.13975
 21
7484.115066
 31
0.0
  0
LINE
  5
61
330
4C
100
AcDbEntity
  8
LC-003-005-----0
 62
     7
370
    25
100
AcDbLine
 10
830.897109
 20
7479.115066
 30
0.0
 11
835.897109
 21
7484.115066
 31
0.0
  0
LINE
  5
62
330
4C
100
AcDbEntity
  8
LC-003-005-----0
 62
     7
370
    25
100
AcDbLine
 10
826.654468
 20
7479.115066
 30
0.0
 11
831.654468
 21
7484.115066
 31
0.0
  0
LINE
  5
63
330
4C
100
AcDbEntity
  8
LC-003-005-----0
 62
     7
370
    25
100
AcDbLine
 10
822.411828
 20
7479.115066
 30
0.0
 11
827.411828
 21
7484.115066
 31
0.0
  0
LINE
  5
64
330
4C
100
AcDbEntity
  8
LC-003-005-----0
 62
     7
370
    25
100
AcDbLine
 10
818.169187
 20
7479.115066
 30
0.0
 11
823.169187
 21
7484.115066
 31
0.0
  0
LINE
  5
65
330
4C
100
AcDbEntity
  8
LC-003-005-----0
 62
     7
370
    25
100
AcDbLine
 10
813.926546
 20
7479.115066
 30
0.0
 11
818.926546
 21
7484.115066
 31
0.0
  0
LINE
  5
66
330
4C
100
AcDbEntity
  8
LC-003-005-----0
 62
     7
370
    25
100
AcDbLine
 10
809.683906
 20
7479.115066
 30
0.0
 11
814.683906
 21
7484.115066
 31
0.0
  0
LINE
  5
67
330
4C
100
AcDbEntity
  8
LC-003-005-----0
 62
     7
370
    25
100
AcDbLine
 10
805.441265
 20
7479.115066
 30
0.0
 11
810.441265
 21
7484.115066
 31
0.0
  0
LINE
  5
68
330
4C
100
AcDbEntity
  8
LC-003-005-----0
 62
     7
370
    25
100
AcDbLine
 10
801.198624
 20
7479.115066
 30
0.0
 11
806.198624
 21
7484.115066
 31
0.0
  0
LINE
  5
69
330
4C
100
AcDbEntity
  8
LC-003-005-----0
 62
     7
370
    25
100
AcDbLine
 10
796.955984
 20
7479.115066
 30
0.0
 11
801.955984
 21
7484.115066
 31
0.0
  0
LINE
  5
6A
330
4C
100
AcDbEntity
  8
LC-003-005-----0
 62
     7
370
    25
100
AcDbLine
 10
792.713343
 20
7479.115066
 30
0.0
 11
797.713343
 21
7484.115066
 31
0.0
  0
LINE
  5
6B
330
4C
100
AcDbEntity
  8
LC-003-005-----0
 62
     7
370
    25
100
AcDbLine
 10
788.470702
 20
7479.115066
 30
0.0
 11
793.470702
 21
7484.115066
 31
0.0
  0
LINE
  5
6C
330
4C
100
AcDbEntity
  8
LC-003-005-----0
 62
     7
370
    25
100
AcDbLine
 10
784.228061
 20
7479.115066
 30
0.0
 11
789.228061
 21
7484.115066
 31
0.0
  0
LINE
  5
6D
330
4C
100
AcDbEntity
  8
LC-003-005-----0
 62
     7
370
    25
100
AcDbLine
 10
779.985421
 20
7479.115066
 30
0.0
 11
784.985421
 21
7484.115066
 31
0.0
  0
LINE
  5
6E
330
4C
100
AcDbEntity
  8
LC-003-005-----0
 62
     7
370
    25
100
AcDbLine
 10
775.74278
 20
7479.115066
 30
0.0
 11
780.74278
 21
7484.115066
 31
0.0
  0
LINE
  5
6F
330
4C
100
AcDbEntity
  8
LC-003-005-----0
 62
     7
370
    25
100
AcDbLine
 10
771.500139
 20
7479.115066
 30
0.0
 11
776.500139
 21
7484.115066
 31
0.0
  0
LINE
  5
70
330
4C
100
AcDbEntity
  8
LC-003-005-----0
 62
     7
370
    25
100
AcDbLine
 10
768.844462
 20
7480.702029
 30
0.0
 11
772.257499
 21
7484.115066
 31
0.0
  0
ENDBLK
  5
4E
330
4C
100
AcDbEntity
  8
0
100
AcDbBlockEnd
  0
BLOCK
  5
86
330
7C
100
AcDbEntity
  8
0
100
AcDbBlockBegin
  2
*D2
 70
     1
 71
     0
 10
0.0
 20
0.0
 30
0.0
  3
*D2
  1

  0
LINE
  5
7D
330
7C
100
AcDbEntity
  8
LC-004-003-----0
 62
     2
370
    -2
100
AcDbLine
 10
782.819462
 20
7359.61517
 30
0.0
 11
782.819462
 21
7287.6
 31
0.0
  0
LINE
  5
7E
330
7C
100
AcDbEntity
  8
LC-004-003-----0
 62
     2
370
    -2
100
AcDbLine
 10
892.818977
 20
7365.615111
 30
0.0
 11
892.818977
 21
7287.6
 31
0.0
  0
LINE
  5
7F
330
7C
100
AcDbEntity
  8
LC-004-003-----0
 62
     2
370
    -2
100
AcDbLine
 10
810.819462
 20
7291.2
 30
0.0
 11
864.818977
 21
7291.2
 31
0.0
  0
SOLID
  5
80
330
7C
100
AcDbEntity
  8
LC-004-003-----0
 62
     2
100
AcDbTrace
 10
810.819462
 20
7295.866667
 30
0.0
 11
810.819462
 21
7286.533333
 31
0.0
 12
782.819462
 22
7291.2
 32
0.0
 13
782.819462
 23
7291.2
 33
0.0
  0
SOLID
  5
81
330
7C
100
AcDbEntity
  8
LC-004-003-----0
 62
     2
100
AcDbTrace
 10
864.818977
 20
7286.533333
 30
0.0
 11
864.818977
 21
7295.866667
 31
0.0
 12
892.818977
 22
7291.2
 32
0.0
 13
892.818977
 23
7291.2
 33
0.0
  0
MTEXT
  5
82
330
7C
100
AcDbEntity
  8
LC-004-003-----0
 62
     2
100
AcDbMText
 10
837.81922
 20
7322.0
 30
0.0
 40
28.0
 41
0.0
 71
     5
 72
     1
  1
\A1;%%c110
  7
LCTX15-400-0-0pDIN-Schrift
 73
     1
 44
1.0
  0
POINT
  5
83
330
7C
100
AcDbEntity
  8
Defpoints
 62
     0
100
AcDbPoint
 10
782.819462
 20
7359.61517
 30
0.0
  0
POINT
  5
84
330
7C
100
AcDbEntity
  8
Defpoints
 62
     0
100
AcDbPoint
 10
892.818977
 20
7365.615111
 30
0.0
  0
POINT
  5
85
330
7C
100
AcDbEntity
  8
Defpoints
 62
     0
100
AcDbPoint
 10
892.818977
 20
7291.2
 30
0.0
  0
ENDBLK
  5
87
330
7C
100
AcDbEntity
  8
0
100
AcDbBlockEnd
  0
BLOCK
  5
9B
330
9A
100
AcDbEntity
  8
0
100
AcDbBlockBegin
  2
*X23
 70
     1
 71
     0
 10
0.0
 20
0.0
 30
0.0
  3
*X23
  1

  4
*X2
  0
LINE
  5
9D
330
9A
100
AcDbEntity
  8
LC-003-005-----0
 62
     7
370
    25
100
AcDbLine
 10
785.178984
 20
7355.615195
 30
0.0
 11
785.8199
 21
7356.25611
 31
0.0
  0
LINE
  5
9E
330
9A
100
AcDbEntity
  8
LC-003-005-----0
 62
     7
370
    25
100
AcDbLine
 10
782.350557
 20
7355.615195
 30
0.0
 11
785.350532
 21
7358.61517
 31
0.0
  0
LINE
  5
9F
330
9A
100
AcDbEntity
  8
LC-003-005-----0
 62
     7
370
    25
100
AcDbLine
 10
779.52213
 20
7355.615195
 30
0.0
 11
782.819926
 21
7358.912991
 31
0.0
  0
LINE
  5
A0
330
9A
100
AcDbEntity
  8
LC-003-005-----0
 62
     7
370
    25
100
AcDbLine
 10
777.819855
 20
7356.741347
 30
0.0
 11
782.819934
 21
7361.741427
 31
0.0
  0
LINE
  5
A1
330
9A
100
AcDbEntity
  8
LC-003-005-----0
 62
     7
370
    25
100
AcDbLine
 10
777.819855
 20
7359.569774
 30
0.0
 11
782.819943
 21
7364.569862
 31
0.0
  0
LINE
  5
A2
330
9A
100
AcDbEntity
  8
LC-003-005-----0
 62
     7
370
    25
100
AcDbLine
 10
777.819855
 20
7362.398201
 30
0.0
 11
782.819952
 21
7367.398298
 31
0.0
  0
LINE
  5
A3
330
9A
100
AcDbEntity
  8
LC-003-005-----0
 62
     7
370
    25
100
AcDbLine
 10
777.819855
 20
7365.226628
 30
0.0
 11
778.208337
 21
7365.615111
 31
0.0
  0
LINE
  5
A4
330
9A
100
AcDbEntity
  8
LC-003-005-----0
 62
     7
370
    25
100
AcDbLine
 10
780.819949
 20
7368.226722
 30
0.0
 11
782.81996
 21
7370.226734
 31
0.0
  0
LINE
  5
A5
330
9A
100
AcDbEntity
  8
LC-003-005-----0
 62
     7
370
    25
100
AcDbLine
 10
780.819949
 20
7371.055149
 30
0.0
 11
782.819969
 21
7373.05517
 31
0.0
  0
LINE
  5
A6
330
9A
100
AcDbEntity
  8
LC-003-005-----0
 62
     7
370
    25
100
AcDbLine
 10
780.819949
 20
7373.883576
 30
0.0
 11
781.685674
 21
7374.749302
 31
0.0
  0
ENDBLK
  5
9C
330
9A
100
AcDbEntity
  8
0
100
AcDbBlockEnd
  0
BLOCK
  5
B2
330
B1
100
AcDbEntity
  8
0
100
AcDbBlockBegin
  2
*X34
 70
     1
 71
     0
 10
0.0
 20
0.0
 30
0.0
  3
*X34
  1

  4
*X3
  0
LINE
  5
B4
330
B1
100
AcDbEntity
  8
LC-003-005-----0
 62
     7
370
    25
100
AcDbLine
 10
895.487642
 20
7355.615195
 30
0.0
 11
897.819069
 21
7357.946622
 31
0.0
  0
LINE
  5
B5
330
B1
100
AcDbEntity
  8
LC-003-005-----0
 62
     7
370
    25
100
AcDbLine
 10
892.659215
 20
7355.615195
 30
0.0
 11
897.819069
 21
7360.775049
 31
0.0
  0
LINE
  5
B6
330
B1
100
AcDbEntity
  8
LC-003-005-----0
 62
     7
370
    25
100
AcDbLine
 10
889.830788
 20
7355.615195
 30
0.0
 11
897.819069
 21
7363.603476
 31
0.0
  0
LINE
  5
B7
330
B1
100
AcDbEntity
  8
LC-003-005-----0
 62
     7
370
    25
100
AcDbLine
 10
889.819024
 20
7358.431858
 30
0.0
 11
890.002336
 21
7358.61517
 31
0.0
  0
LINE
  5
B8
330
B1
100
AcDbEntity
  8
LC-003-005-----0
 62
     7
370
    25
100
AcDbLine
 10
892.81899
 20
7361.431824
 30
0.0
 11
897.002277
 21
7365.615111
 31
0.0
  0
LINE
  5
B9
330
B1
100
AcDbEntity
  8
LC-003-005-----0
 62
     7
370
    25
100
AcDbLine
 10
892.818981
 20
7364.260243
 30
0.0
 11
894.818975
 21
7366.260236
 31
0.0
  0
LINE
  5
BA
330
B1
100
AcDbEntity
  8
LC-003-005-----0
 62
     7
370
    25
100
AcDbLine
 10
892.818973
 20
7367.088661
 30
0.0
 11
894.818975
 21
7369.088664
 31
0.0
  0
LINE
  5
BB
330
B1
100
AcDbEntity
  8
LC-003-005-----0
 62
     7
370
    25
100
AcDbLine
 10
892.818964
 20
7369.91708
 30
0.0
 11
894.818975
 21
7371.917091
 31
0.0
  0
LINE
  5
BC
330
B1
100
AcDbEntity
  8
LC-003-005-----0
 62
     7
370
    25
100
AcDbLine
 10
892.818955
 20
7372.745498
 30
0.0
 11
894.818975
 21
7374.745518
 31
0.0
  0
ENDBLK
  5
B3
330
B1
100
AcDbEntity
  8
0
100
AcDbBlockEnd
  0
BLOCK
  5
D8
330
CC
100
AcDbEntity
  8
0
100
AcDbBlockBegin
  2
*D5
 70
     1
 71
     0
 10
0.0
 20
0.0
 30
0.0
  3
*D5
  1

  0
LINE
  5
CD
330
CC
100
AcDbEntity
  8
LC-004-003-----0
 62
     2
370
    -2
100
AcDbLine
 10
889.819024
 20
7358.61517
 30
0.0
 11
944.4
 21
7358.61517
 31
0.0
  0
LINE
  5
CE
330
CC
100
AcDbEntity
  8
LC-004-003-----0
 62
     2
370
    -2
100
AcDbLine
 10
890.319462
 20
7372.61517
 30
0.0
 11
944.4
 21
7372.61517
 31
0.0
  0
LINE
  5
CF
330
CC
100
AcDbEntity
  8
LC-004-003-----0
 62
     2
370
    -2
100
AcDbLine
 10
940.8
 20
7330.61517
 30
0.0
 11
940.8
 21
7302.61517
 31
0.0
  0
LINE
  5
D0
330
CC
100
AcDbEntity
  8
LC-004-003-----0
 62
     2
370
    -2
100
AcDbLine
 10
940.8
 20
7400.61517
 30
0.0
 11
940.8
 21
7428.61517
 31
0.0
  0
LINE
  5
D1
330
CC
100
AcDbEntity
  8
LC-004-003-----0
 62
     2
370
    -2
100
AcDbLine
 10
940.8
 20
7358.61517
 30
0.0
 11
940.8
 21
7372.61517
 31
0.0
  0
SOLID
  5
D2
330
CC
100
AcDbEntity
  8
LC-004-003-----0
 62
     2
100
AcDbTrace
 10
945.466667
 20
7330.61517
 30
0.0
 11
936.133333
 21
7330.61517
 31
0.0
 12
940.8
 22
7358.61517
 32
0.0
 13
940.8
 23
7358.61517
 33
0.0
  0
SOLID
  5
D3
330
CC
100
AcDbEntity
  8
LC-004-003-----0
 62
     2
100
AcDbTrace
 10
936.133333
 20
7400.61517
 30
0.0
 11
945.466667
 21
7400.61517
 31
0.0
 12
940.8
 22
7372.61517
 32
0.0
 13
940.8
 23
7372.61517
 33
0.0
  0
MTEXT
  5
D4
330
CC
100
AcDbEntity
  8
LC-004-003-----0
 62
     2
100
AcDbMText
 10
910.0
 20
7365.61517
 30
0.0
 40
28.0
 41
0.0
 71
     5
 72
     1
  1
\A1;14
  7
LCTX15-400-0-0pDIN-Schrift
 11
6.123031769111886E-17
 21
1.0
 31
0.0
 73
     1
 44
1.0
  0
POINT
  5
D5
330
CC
100
AcDbEntity
  8
Defpoints
 62
     0
100
AcDbPoint
 10
889.819024
 20
7358.61517
 30
0.0
  0
POINT
  5
D6
330
CC
100
AcDbEntity
  8
Defpoints
 62
     0
100
AcDbPoint
 10
890.319462
 20
7372.61517
 30
0.0
  0
POINT
  5
D7
330
CC
100
AcDbEntity
  8
Defpoints
 62
     0
100
AcDbPoint
 10
940.8
 20
7372.61517
 30
0.0
  0
ENDBLK
  5
D9
330
CC
100
AcDbEntity
  8
0
100
AcDbBlockEnd
  0
BLOCK
  5
E5
330
DB
100
AcDbEntity
  8
0
100
AcDbBlockBegin
  2
*D6
 70
     1
 71
     0
 10
0.0
 20
0.0
 30
0.0
  3
*D6
  1

  0
LINE
  5
DC
330
DB
100
AcDbEntity
  8
LC-004-003-----0
 62
     2
370
    -2
100
AcDbLine
 10
890.319462
 20
7372.61517
 30
0.0
 11
983.6
 21
7372.61517
 31
0.0
  0
LINE
  5
DD
330
DB
100
AcDbEntity
  8
LC-004-003-----0
 62
     2
370
    -2
100
AcDbLine
 10
910.319462
 20
7484.115066
 30
0.0
 11
983.6
 21
7484.115066
 31
0.0
  0
LINE
  5
DE
330
DB
100
AcDbEntity
  8
LC-004-003-----0
 62
     2
370
    -2
100
AcDbLine
 10
980.0
 20
7400.61517
 30
0.0
 11
980.0
 21
7456.115066
 31
0.0
  0
SOLID
  5
DF
330
DB
100
AcDbEntity
  8
LC-004-003-----0
 62
     2
100
AcDbTrace
 10
975.333333
 20
7400.61517
 30
0.0
 11
984.666667
 21
7400.61517
 31
0.0
 12
980.0
 22
7372.61517
 32
0.0
 13
980.0
 23
7372.61517
 33
0.0
  0
SOLID
  5
E0
330
DB
100
AcDbEntity
  8
LC-004-003-----0
 62
     2
100
AcDbTrace
 10
984.666667
 20
7456.115066
 30
0.0
 11
975.333333
 21
7456.115066
 31
0.0
 12
980.0
 22
7484.115066
 32
0.0
 13
980.0
 23
7484.115066
 33
0.0
  0
MTEXT
  5
E1
330
DB
100
AcDbEntity
  8
LC-004-003-----0
 62
     2
100
AcDbMText
 10
949.2
 20
7428.365118
 30
0.0
 40
28.0
 41
0.0
 71
     5
 72
     1
  1
\A1;14-111
  7
LCTX15-400-0-0pDIN-Schrift
 11
6.123031769111886E-17
 21
1.0
 31
0.0
 73
     1
 44
1.0
  0
POINT
  5
E2
330
DB
100
AcDbEntity
  8
Defpoints
 62
     0
100
AcDbPoint
 10
890.319462
 20
7372.61517
 30
0.0
  0
POINT
  5
E3
330
DB
100
AcDbEntity
  8
Defpoints
 62
     0
100
AcDbPoint
 10
910.319462
 20
7484.115066
 30
0.0
  0
POINT
  5
E4
330
DB
100
AcDbEntity
  8
Defpoints
 62
     0
100
AcDbPoint
 10
980.0
 20
7484.115066
 30
0.0
  0
ENDBLK
  5
E6
330
DB
100
AcDbEntity
  8
0
100
AcDbBlockEnd
  0
BLOCK
  5
F3
330
E8
100
AcDbEntity
  8
0
100
AcDbBlockBegin
  2
*D7
 70
     1
 71
     0
 10
0.0
 20
0.0
 30
0.0
  3
*D7
  1

  0
LINE
  5
E9
330
E8
100
AcDbEntity
  8
LC-004-003-----0
 62
     2
370
    -2
100
AcDbLine
 10
765.319462
 20
7484.115066
 30
0.0
 11
724.4
 21
7484.115066
 31
0.0
  0
LINE
  5
EA
330
E8
100
AcDbEntity
  8
LC-004-003-----0
 62
     2
370
    -2
100
AcDbLine
 10
761.328738
 20
7475.115066
 30
0.0
 11
724.4
 21
7475.115066
 31
0.0
  0
LINE
  5
EB
330
E8
100
AcDbEntity
  8
LC-004-003-----0
 62
     2
370
    -2
100
AcDbLine
 10
728.0
 20
7512.115066
 30
0.0
 11
728.0
 21
7540.115066
 31
0.0
  0
LINE
  5
EC
330
E8
100
AcDbEntity
  8
LC-004-003-----0
 62
     2
370
    -2
100
AcDbLine
 10
728.0
 20
7447.115066
 30
0.0
 11
728.0
 21
7424.324841
 31
0.0
  0
SOLID
  5
ED
330
E8
100
AcDbEntity
  8
LC-004-003-----0
 62
     2
100
AcDbTrace
 10
723.333333
 20
7512.115066
 30
0.0
 11
732.666667
 21
7512.115066
 31
0.0
 12
728.0
 22
7484.115066
 32
0.0
 13
728.0
 23
7484.115066
 33
0.0
  0
SOLID
  5
EE
330
E8
100
AcDbEntity
  8
LC-004-003-----0
 62
     2
100
AcDbTrace
 10
732.666667
 20
7447.115066
 30
0.0
 11
723.333333
 21
7447.115066
 31
0.0
 12
728.0
 22
7475.115066
 32
0.0
 13
728.0
 23
7475.115066
 33
0.0
  0
MTEXT
  5
EF
330
E8
100
AcDbEntity
  8
LC-004-003-----0
 62
     2
100
AcDbMText
 10
697.2
 20
7435.871
 30
0.0
 40
28.0
 41
0.0
 71
     5
 72
     1
  1
\A1;9
  7
LCTX15-400-0-0pDIN-Schrift
 11
6.123031769111886E-17
 21
1.0
 31
0.0
 73
     1
 44
1.0
  0
POINT
  5
F0
330
E8
100
AcDbEntity
  8
Defpoints
 62
     0
100
AcDbPoint
 10
765.319462
 20
7484.115066
 30
0.0
  0
POINT
  5
F1
330
E8
100
AcDbEntity
  8
Defpoints
 62
     0
100
AcDbPoint
 10
761.328738
 20
7475.115066
 30
0.0
  0
POINT
  5
F2
330
E8
100
AcDbEntity
  8
Defpoints
 62
     0
100
AcDbPoint
 10
728.0
 20
7475.115066
 30
0.0
  0
ENDBLK
  5
F4
330
E8
100
AcDbEntity
  8
0
100
AcDbBlockEnd
  0
BLOCK
  5
100
330
F6
100
AcDbEntity
  8
0
100
AcDbBlockBegin
  2
*D8
 70
     1
 71
     0
 10
0.0
 20
0.0
 30
0.0
  3
*D8
  1

  0
LINE
  5
F7
330
F6
100
AcDbEntity
  8
LC-004-003-----0
 62
     2
370
    -2
100
AcDbLine
 10
762.324673
 20
7481.291809
 30
0.0
 11
762.324673
 21
7507.6
 31
0.0
  0
LINE
  5
F8
330
F6
100
AcDbEntity
  8
LC-004-003-----0
 62
     2
370
    -2
100
AcDbLine
 10
913.314251
 20
7480.296995
 30
0.0
 11
913.314251
 21
7507.6
 31
0.0
  0
LINE
  5
F9
330
F6
100
AcDbEntity
  8
LC-004-003-----0
 62
     2
370
    -2
100
AcDbLine
 10
790.324673
 20
7504.0
 30
0.0
 11
885.314251
 21
7504.0
 31
0.0
  0
SOLID
  5
FA
330
F6
100
AcDbEntity
  8
LC-004-003-----0
 62
     2
100
AcDbTrace
 10
790.324673
 20
7508.666667
 30
0.0
 11
790.324673
 21
7499.333333
 31
0.0
 12
762.324673
 22
7504.0
 32
0.0
 13
762.324673
 23
7504.0
 33
0.0
  0
SOLID
  5
FB
330
F6
100
AcDbEntity
  8
LC-004-003-----0
 62
     2
100
AcDbTrace
 10
885.314251
 20
7499.333333
 30
0.0
 11
885.314251
 21
7508.666667
 31
0.0
 12
913.314251
 22
7504.0
 32
0.0
 13
913.314251
 23
7504.0
 33
0.0
  0
MTEXT
  5
FC
330
F6
100
AcDbEntity
  8
LC-004-003-----0
 62
     2
100
AcDbMText
 10
837.819462
 20
7534.8
 30
0.0
 40
28.0
 41
0.0
 71
     5
 72
     1
  1
\A1;150
  7
LCTX15-400-0-0pDIN-Schrift
 73
     1
 44
1.0
  0
POINT
  5
FD
330
F6
100
AcDbEntity
  8
Defpoints
 62
     0
100
AcDbPoint
 10
762.324673
 20
7481.291809
 30
0.0
  0
POINT
  5
FE
330
F6
100
AcDbEntity
  8
Defpoints
 62
     0
100
AcDbPoint
 10
913.314251
 20
7480.296995
 30
0.0
  0
POINT
  5
FF
330
F6
100
AcDbEntity
  8
Defpoints
 62
     0
100
AcDbPoint
 10
913.314251
 20
7504.0
 30
0.0
  0
ENDBLK
  5
101
330
F6
100
AcDbEntity
  8
0
100
AcDbBlockEnd
  0
BLOCK
  5
11A
330
119
100
AcDbEntity
  8
0
100
AcDbBlockBegin
  2
*X49
 70
     1
 71
     0
 10
0.0
 20
0.0
 30
0.0
  3
*X49
  1

  4
*X4
  0
LINE
  5
11C
330
119
100
AcDbEntity
  8
LC-003-005-----0
 62
     7
370
    25
100
AcDbLine
 10
890.319462
 20
7358.932296
 30
0.0
 11
892.819462
 21
7361.432296
 31
0.0
  0
LINE
  5
11D
330
119
100
AcDbEntity
  8
LC-003-005-----0
 62
     7
370
    25
100
AcDbLine
 10
890.319462
 20
7361.760723
 30
0.0
 11
892.819462
 21
7364.260723
 31
0.0
  0
LINE
  5
11E
330
119
100
AcDbEntity
  8
LC-003-005-----0
 62
     7
370
    25
100
AcDbLine
 10
890.319462
 20
7364.58915
 30
0.0
 11
892.819462
 21
7367.08915
 31
0.0
  0
LINE
  5
11F
330
119
100
AcDbEntity
  8
LC-003-005-----0
 62
     7
370
    25
100
AcDbLine
 10
890.319462
 20
7367.417577
 30
0.0
 11
892.819462
 21
7369.917577
 31
0.0
  0
LINE
  5
120
330
119
100
AcDbEntity
  8
LC-003-005-----0
 62
     7
370
    25
100
AcDbLine
 10
890.319462
 20
7370.246005
 30
0.0
 11
892.819462
 21
7372.746005
 31
0.0
  0
LINE
  5
121
330
119
100
AcDbEntity
  8
LC-003-005-----0
 62
     7
370
    25
100
AcDbLine
 10
890.319462
 20
7373.074432
 30
0.0
 11
892.819462
 21
7375.574432
 31
0.0
  0
LINE
  5
122
330
119
100
AcDbEntity
  8
LC-003-005-----0
 62
     7
370
    25
100
AcDbLine
 10
890.319462
 20
7375.902859
 30
0.0
 11
892.819462
 21
7378.402859
 31
0.0
  0
LINE
  5
123
330
119
100
AcDbEntity
  8
LC-003-005-----0
 62
     7
370
    25
100
AcDbLine
 10
890.319462
 20
7378.731286
 30
0.0
 11
892.819462
 21
7381.231286
 31
0.0
  0
LINE
  5
124
330
119
100
AcDbEntity
  8
LC-003-005-----0
 62
     7
370
    25
100
AcDbLine
 10
890.319462
 20
7381.559713
 30
0.0
 11
892.819462
 21
7384.059713
 31
0.0
  0
LINE
  5
125
330
119
100
AcDbEntity
  8
LC-003-005-----0
 62
     7
370
    25
100
AcDbLine
 10
890.319462
 20
7384.38814
 30
0.0
 11
892.819462
 21
7386.88814
 31
0.0
  0
LINE
  5
126
330
119
100
AcDbEntity
  8
LC-003-005-----0
 62
     7
370
    25
100
AcDbLine
 10
890.319462
 20
7387.216567
 30
0.0
 11
892.819462
 21
7389.716567
 31
0.0
  0
LINE
  5
127
330
119
100
AcDbEntity
  8
LC-003-005-----0
 62
     7
370
    25
100
AcDbLine
 10
890.319462
 20
7390.044994
 30
0.0
 11
892.819462
 21
7392.544994
 31
0.0
  0
LINE
  5
128
330
119
100
AcDbEntity
  8
LC-003-005-----0
 62
     7
370
    25
100
AcDbLine
 10
890.319462
 20
7392.873422
 30
0.0
 11
892.819462
 21
7395.373422
 31
0.0
  0
LINE
  5
129
330
119
100
AcDbEntity
  8
LC-003-005-----0
 62
     7
370
    25
100
AcDbLine
 10
890.319462
 20
7395.701849
 30
0.0
 11
892.819462
 21
7398.201849
 31
0.0
  0
LINE
  5
12A
330
119
100
AcDbEntity
  8
LC-003-005-----0
 62
     7
370
    25
100
AcDbLine
 10
890.319462
 20
7398.530276
 30
0.0
 11
892.819462
 21
7401.030276
 31
0.0
  0
LINE
  5
12B
330
119
100
AcDbEntity
  8
LC-003-005-----0
 62
     7
370
    25
100
AcDbLine
 10
890.319462
 20
7401.358703
 30
0.0
 11
892.819462
 21
7403.858703
 31
0.0
  0
LINE
  5
12C
330
119
100
AcDbEntity
  8
LC-003-005-----0
 62
     7
370
    25
100
AcDbLine
 10
890.319462
 20
7404.18713
 30
0.0
 11
892.819462
 21
7406.68713
 31
0.0
  0
LINE
  5
12D
330
119
100
AcDbEntity
  8
LC-003-005-----0
 62
     7
370
    25
100
AcDbLine
 10
890.319462
 20
7407.015557
 30
0.0
 11
892.819462
 21
7409.515557
 31
0.0
  0
LINE
  5
12E
330
119
100
AcDbEntity
  8
LC-003-005-----0
 62
     7
370
    25
100
AcDbLine
 10
890.319462
 20
7409.843984
 30
0.0
 11
892.819462
 21
7412.343984
 31
0.0
  0
LINE
  5
12F
330
119
100
AcDbEntity
  8
LC-003-005-----0
 62
     7
370
    25
100
AcDbLine
 10
890.319462
 20
7412.672411
 30
0.0
 11
892.819462
 21
7415.172411
 31
0.0
  0
LINE
  5
130
330
119
100
AcDbEntity
  8
LC-003-005-----0
 62
     7
370
    25
100
AcDbLine
 10
890.319462
 20
7415.500839
 30
0.0
 11
892.819462
 21
7418.000839
 31
0.0
  0
LINE
  5
131
330
119
100
AcDbEntity
  8
LC-003-005-----0
 62
     7
370
    25
100
AcDbLine
 10
890.319462
 20
7418.329266
 30
0.0
 11
892.819462
 21
7420.829266
 31
0.0
  0
LINE
  5
132
330
119
100
AcDbEntity
  8
LC-003-005-----0
 62
     7
370
    25
100
AcDbLine
 10
890.319462
 20
7421.157693
 30
0.0
 11
892.819462
 21
7423.657693
 31
0.0
  0
LINE
  5
133
330
119
100
AcDbEntity
  8
LC-003-005-----0
 62
     7
370
    25
100
AcDbLine
 10
890.319462
 20
7423.98612
 30
0.0
 11
892.819462
 21
7426.48612
 31
0.0
  0
LINE
  5
134
330
119
100
AcDbEntity
  8
LC-003-005-----0
 62
     7
370
    25
100
AcDbLine
 10
890.319462
 20
7426.814547
 30
0.0
 11
892.819462
 21
7429.314547
 31
0.0
  0
LINE
  5
135
330
119
100
AcDbEntity
  8
LC-003-005-----0
 62
     7
370
    25
100
AcDbLine
 10
890.319462
 20
7429.642974
 30
0.0
 11
892.819462
 21
7432.142974
 31
0.0
  0
LINE
  5
136
330
119
100
AcDbEntity
  8
LC-003-005-----0
 62
     7
370
    25
100
AcDbLine
 10
890.319462
 20
7432.471401
 30
0.0
 11
892.819462
 21
7434.971401
 31
0.0
  0
LINE
  5
137
330
119
100
AcDbEntity
  8
LC-003-005-----0
 62
     7
370
    25
100
AcDbLine
 10
890.319462
 20
7435.299828
 30
0.0
 11
892.819462
 21
7437.799828
 31
0.0
  0
LINE
  5
138
330
119
100
AcDbEntity
  8
LC-003-005-----0
 62
     7
370
    25
100
AcDbLine
 10
890.319462
 20
7438.128256
 30
0.0
 11
892.819462
 21
7440.628256
 31
0.0
  0
LINE
  5
139
330
119
100
AcDbEntity
  8
LC-003-005-----0
 62
     7
370
    25
100
AcDbLine
 10
890.319462
 20
7440.956683
 30
0.0
 11
892.819462
 21
7443.456683
 31
0.0
  0
LINE
  5
13A
330
119
100
AcDbEntity
  8
LC-003-005-----0
 62
     7
370
    25
100
AcDbLine
 10
890.319462
 20
7443.78511
 30
0.0
 11
892.819462
 21
7446.28511
 31
0.0
  0
LINE
  5
13B
330
119
100
AcDbEntity
  8
LC-003-005-----0
 62
     7
370
    25
100
AcDbLine
 10
890.319462
 20
7446.613537
 30
0.0
 11
892.819462
 21
7449.113537
 31
0.0
  0
LINE
  5
13C
330
119
100
AcDbEntity
  8
LC-003-005-----0
 62
     7
370
    25
100
AcDbLine
 10
890.319462
 20
7449.441964
 30
0.0
 11
892.819462
 21
7451.941964
 31
0.0
  0
LINE
  5
13D
330
119
100
AcDbEntity
  8
LC-003-005-----0
 62
     7
370
    25
100
AcDbLine
 10
890.319462
 20
7452.270391
 30
0.0
 11
892.819462
 21
7454.770391
 31
0.0
  0
LINE
  5
13E
330
119
100
AcDbEntity
  8
LC-003-005-----0
 62
     7
370
    25
100
AcDbLine
 10
890.319462
 20
7455.098818
 30
0.0
 11
892.819462
 21
7457.598818
 31
0.0
  0
LINE
  5
13F
330
119
100
AcDbEntity
  8
LC-003-005-----0
 62
     7
370
    25
100
AcDbLine
 10
890.319462
 20
7457.927245
 30
0.0
 11
892.819462
 21
7460.427245
 31
0.0
  0
LINE
  5
140
330
119
100
AcDbEntity
  8
LC-003-005-----0
 62
     7
370
    25
100
AcDbLine
 10
890.319462
 20
7460.755673
 30
0.0
 11
892.819462
 21
7463.255673
 31
0.0
  0
LINE
  5
141
330
119
100
AcDbEntity
  8
LC-003-005-----0
 62
     7
370
    25
100
AcDbLine
 10
890.319462
 20
7463.5841
 30
0.0
 11
892.819462
 21
7466.0841
 31
0.0
  0
LINE
  5
142
330
119
100
AcDbEntity
  8
LC-003-005-----0
 62
     7
370
    25
100
AcDbLine
 10
889.819462
 20
7465.912527
 30
0.0
 11
890.522105
 21
7466.61517
 31
0.0
  0
LINE
  5
143
330
119
100
AcDbEntity
  8
LC-003-005-----0
 62
     7
370
    25
100
AcDbLine
 10
891.569462
 20
7467.662527
 30
0.0
 11
892.522105
 21
7468.61517
 31
0.0
  0
ENDBLK
  5
11B
330
119
100
AcDbEntity
  8
0
100
AcDbBlockEnd
  0
BLOCK
  5
148
330
147
100
AcDbEntity
  8
0
100
AcDbBlockBegin
  2
*X510
 70
     1
 71
     0
 10
0.0
 20
0.0
 30
0.0
  3
*X510
  1

  4
*X5
  0
LINE
  5
14A
330
147
100
AcDbEntity
  8
LC-003-005-----0
 62
     7
370
    25
100
AcDbLine
 10
783.179273
 20
7359.272338
 30
0.0
 11
785.319462
 21
7361.412527
 31
0.0
  0
LINE
  5
14B
330
147
100
AcDbEntity
  8
LC-003-005-----0
 62
     7
370
    25
100
AcDbLine
 10
782.819462
 20
7361.740954
 30
0.0
 11
785.319462
 21
7364.240954
 31
0.0
  0
LINE
  5
14C
330
147
100
AcDbEntity
  8
LC-003-005-----0
 62
     7
370
    25
100
AcDbLine
 10
782.819462
 20
7364.569381
 30
0.0
 11
785.319462
 21
7367.069381
 31
0.0
  0
LINE
  5
14D
330
147
100
AcDbEntity
  8
LC-003-005-----0
 62
     7
370
    25
100
AcDbLine
 10
782.819462
 20
7367.397808
 30
0.0
 11
785.319462
 21
7369.897808
 31
0.0
  0
LINE
  5
14E
330
147
100
AcDbEntity
  8
LC-003-005-----0
 62
     7
370
    25
100
AcDbLine
 10
782.819462
 20
7370.226235
 30
0.0
 11
785.319462
 21
7372.726235
 31
0.0
  0
LINE
  5
14F
330
147
100
AcDbEntity
  8
LC-003-005-----0
 62
     7
370
    25
100
AcDbLine
 10
782.819462
 20
7373.054662
 30
0.0
 11
785.319462
 21
7375.554662
 31
0.0
  0
LINE
  5
150
330
147
100
AcDbEntity
  8
LC-003-005-----0
 62
     7
370
    25
100
AcDbLine
 10
782.819462
 20
7375.88309
 30
0.0
 11
785.319462
 21
7378.38309
 31
0.0
  0
LINE
  5
151
330
147
100
AcDbEntity
  8
LC-003-005-----0
 62
     7
370
    25
100
AcDbLine
 10
782.819462
 20
7378.711517
 30
0.0
 11
785.319462
 21
7381.211517
 31
0.0
  0
LINE
  5
152
330
147
100
AcDbEntity
  8
LC-003-005-----0
 62
     7
370
    25
100
AcDbLine
 10
782.819462
 20
7381.539944
 30
0.0
 11
785.319462
 21
7384.039944
 31
0.0
  0
LINE
  5
153
330
147
100
AcDbEntity
  8
LC-003-005-----0
 62
     7
370
    25
100
AcDbLine
 10
782.819462
 20
7384.368371
 30
0.0
 11
785.319462
 21
7386.868371
 31
0.0
  0
LINE
  5
154
330
147
100
AcDbEntity
  8
LC-003-005-----0
 62
     7
370
    25
100
AcDbLine
 10
782.819462
 20
7387.196798
 30
0.0
 11
785.319462
 21
7389.696798
 31
0.0
  0
LINE
  5
155
330
147
100
AcDbEntity
  8
LC-003-005-----0
 62
     7
370
    25
100
AcDbLine
 10
782.819462
 20
7390.025225
 30
0.0
 11
785.319462
 21
7392.525225
 31
0.0
  0
LINE
  5
156
330
147
100
AcDbEntity
  8
LC-003-005-----0
 62
     7
370
    25
100
AcDbLine
 10
782.819462
 20
7392.853652
 30
0.0
 11
785.319462
 21
7395.353652
 31
0.0
  0
LINE
  5
157
330
147
100
AcDbEntity
  8
LC-003-005-----0
 62
     7
370
    25
100
AcDbLine
 10
782.819462
 20
7395.682079
 30
0.0
 11
785.319462
 21
7398.182079
 31
0.0
  0
LINE
  5
158
330
147
100
AcDbEntity
  8
LC-003-005-----0
 62
     7
370
    25
100
AcDbLine
 10
782.819462
 20
7398.510507
 30
0.0
 11
785.319462
 21
7401.010507
 31
0.0
  0
LINE
  5
159
330
147
100
AcDbEntity
  8
LC-003-005-----0
 62
     7
370
    25
100
AcDbLine
 10
782.819462
 20
7401.338934
 30
0.0
 11
785.319462
 21
7403.838934
 31
0.0
  0
LINE
  5
15A
330
147
100
AcDbEntity
  8
LC-003-005-----0
 62
     7
370
    25
100
AcDbLine
 10
782.819462
 20
7404.167361
 30
0.0
 11
785.319462
 21
7406.667361
 31
0.0
  0
LINE
  5
15B
330
147
100
AcDbEntity
  8
LC-003-005-----0
 62
     7
370
    25
100
AcDbLine
 10
782.819462
 20
7406.995788
 30
0.0
 11
785.319462
 21
7409.495788
 31
0.0
  0
LINE
  5
15C
330
147
100
AcDbEntity
  8
LC-003-005-----0
 62
     7
370
    25
100
AcDbLine
 10
782.819462
 20
7409.824215
 30
0.0
 11
785.319462
 21
7412.324215
 31
0.0
  0
LINE
  5
15D
330
147
100
AcDbEntity
  8
LC-003-005-----0
 62
     7
370
    25
100
AcDbLine
 10
782.819462
 20
7412.652642
 30
0.0
 11
785.319462
 21
7415.152642
 31
0.0
  0
LINE
  5
15E
330
147
100
AcDbEntity
  8
LC-003-005-----0
 62
     7
370
    25
100
AcDbLine
 10
782.819462
 20
7415.481069
 30
0.0
 11
785.319462
 21
7417.981069
 31
0.0
  0
LINE
  5
15F
330
147
100
AcDbEntity
  8
LC-003-005-----0
 62
     7
370
    25
100
AcDbLine
 10
782.819462
 20
7418.309496
 30
0.0
 11
785.319462
 21
7420.809496
 31
0.0
  0
LINE
  5
160
330
147
100
AcDbEntity
  8
LC-003-005-----0
 62
     7
370
    25
100
AcDbLine
 10
782.819462
 20
7421.137924
 30
0.0
 11
785.319462
 21
7423.637924
 31
0.0
  0
LINE
  5
161
330
147
100
AcDbEntity
  8
LC-003-005-----0
 62
     7
370
    25
100
AcDbLine
 10
782.819462
 20
7423.966351
 30
0.0
 11
785.319462
 21
7426.466351
 31
0.0
  0
LINE
  5
162
330
147
100
AcDbEntity
  8
LC-003-005-----0
 62
     7
370
    25
100
AcDbLine
 10
782.819462
 20
7426.794778
 30
0.0
 11
785.319462
 21
7429.294778
 31
0.0
  0
LINE
  5
163
330
147
100
AcDbEntity
  8
LC-003-005-----0
 62
     7
370
    25
100
AcDbLine
 10
782.819462
 20
7429.623205
 30
0.0
 11
785.319462
 21
7432.123205
 31
0.0
  0
LINE
  5
164
330
147
100
AcDbEntity
  8
LC-003-005-----0
 62
     7
370
    25
100
AcDbLine
 10
782.819462
 20
7432.451632
 30
0.0
 11
785.319462
 21
7434.951632
 31
0.0
  0
LINE
  5
165
330
147
100
AcDbEntity
  8
LC-003-005-----0
 62
     7
370
    25
100
AcDbLine
 10
782.819462
 20
7435.280059
 30
0.0
 11
785.319462
 21
7437.780059
 31
0.0
  0
LINE
  5
166
330
147
100
AcDbEntity
  8
LC-003-005-----0
 62
     7
370
    25
100
AcDbLine
 10
782.819462
 20
7438.108486
 30
0.0
 11
785.319462
 21
7440.608486
 31
0.0
  0
LINE
  5
167
330
147
100
AcDbEntity
  8
LC-003-005-----0
 62
     7
370
    25
100
AcDbLine
 10
782.819462
 20
7440.936913
 30
0.0
 11
785.319462
 21
7443.436913
 31
0.0
  0
LINE
  5
168
330
147
100
AcDbEntity
  8
LC-003-005-----0
 62
     7
370
    25
100
AcDbLine
 10
782.819462
 20
7443.765341
 30
0.0
 11
785.319462
 21
7446.265341
 31
0.0
  0
LINE
  5
169
330
147
100
AcDbEntity
  8
LC-003-005-----0
 62
     7
370
    25
100
AcDbLine
 10
782.819462
 20
7446.593768
 30
0.0
 11
785.319462
 21
7449.093768
 31
0.0
  0
LINE
  5
16A
330
147
100
AcDbEntity
  8
LC-003-005-----0
 62
     7
370
    25
100
AcDbLine
 10
782.819462
 20
7449.422195
 30
0.0
 11
785.319462
 21
7451.922195
 31
0.0
  0
LINE
  5
16B
330
147
100
AcDbEntity
  8
LC-003-005-----0
 62
     7
370
    25
100
AcDbLine
 10
782.819462
 20
7452.250622
 30
0.0
 11
785.319462
 21
7454.750622
 31
0.0
  0
LINE
  5
16C
330
147
100
AcDbEntity
  8
LC-003-005-----0
 62
     7
370
    25
100
AcDbLine
 10
782.819462
 20
7455.079049
 30
0.0
 11
785.319462
 21
7457.579049
 31
0.0
  0
LINE
  5
16D
330
147
100
AcDbEntity
  8
LC-003-005-----0
 62
     7
370
    25
100
AcDbLine
 10
782.819462
 20
7457.907476
 30
0.0
 11
785.319462
 21
7460.407476
 31
0.0
  0
LINE
  5
16E
330
147
100
AcDbEntity
  8
LC-003-005-----0
 62
     7
370
    25
100
AcDbLine
 10
782.819462
 20
7460.735903
 30
0.0
 11
785.319462
 21
7463.235903
 31
0.0
  0
LINE
  5
16F
330
147
100
AcDbEntity
  8
LC-003-005-----0
 62
     7
370
    25
100
AcDbLine
 10
785.698728
 20
7463.61517
 30
0.0
 11
785.819462
 21
7463.735903
 31
0.0
  0
LINE
  5
170
330
147
100
AcDbEntity
  8
LC-003-005-----0
 62
     7
370
    25
100
AcDbLine
 10
782.819462
 20
7463.56433
 30
0.0
 11
785.594882
 21
7466.33975
 31
0.0
  0
LINE
  5
171
330
147
100
AcDbEntity
  8
LC-003-005-----0
 62
     7
370
    25
100
AcDbLine
 10
782.819462
 20
7466.392758
 30
0.0
 11
784.069462
 21
7467.642758
 31
0.0
  0
ENDBLK
  5
149
330
147
100
AcDbEntity
  8
0
100
AcDbBlockEnd
  0
BLOCK
  5
1BE
330
1BD
100
AcDbEntity
  8
0
100
AcDbBlockBegin
  2
*X611
 70
     1
 71
     0
 10
0.0
 20
0.0
 30
0.0
  3
*X611
  1

  4
*X6
  0
LINE
  5
1C0
330
1BD
100
AcDbEntity
  8
LC-003-005-----0
 62
     7
370
    25
100
AcDbLine
 10
787.419462
 20
7468.759315
 30
0.0
 11
786.563607
 21
7469.61517
 31
0.0
  0
LINE
  5
1C1
330
1BD
100
AcDbEntity
  8
LC-003-005-----0
 62
     7
370
    25
100
AcDbLine
 10
783.511139
 20
7472.667638
 30
0.0
 11
782.88634
 21
7473.292437
 31
0.0
  0
LINE
  5
1C2
330
1BD
100
AcDbEntity
  8
LC-003-005-----0
 62
     7
370
    25
100
AcDbLine
 10
787.419462
 20
7465.930888
 30
0.0
 11
786.419462
 21
7466.930888
 31
0.0
  0
LINE
  5
1C3
330
1BD
100
AcDbEntity
  8
LC-003-005-----0
 62
     7
370
    25
100
AcDbLine
 10
784.73518
 20
7468.61517
 30
0.0
 11
782.819462
 21
7470.530888
 31
0.0
  0
LINE
  5
1C4
330
1BD
100
AcDbEntity
  8
LC-003-005-----0
 62
     7
370
    25
100
AcDbLine
 10
780.309801
 20
7473.040549
 30
0.0
 11
778.895588
 21
7474.454762
 31
0.0
  0
LINE
  5
1C5
330
1BD
100
AcDbEntity
  8
LC-003-005-----0
 62
     7
370
    25
100
AcDbLine
 10
787.419462
 20
7463.102461
 30
0.0
 11
786.419462
 21
7464.102461
 31
0.0
  0
LINE
  5
1C6
330
1BD
100
AcDbEntity
  8
LC-003-005-----0
 62
     7
370
    25
100
AcDbLine
 10
776.446098
 20
7474.075825
 30
0.0
 11
775.031884
 21
7475.490038
 31
0.0
  0
LINE
  5
1C7
330
1BD
100
AcDbEntity
  8
LC-003-005-----0
 62
     7
370
    25
100
AcDbLine
 10
767.931754
 20
7482.590169
 30
0.0
 11
766.794565
 21
7483.727358
 31
0.0
  0
LINE
  5
1C8
330
1BD
100
AcDbEntity
  8
LC-003-005-----0
 62
     7
370
    25
100
AcDbLine
 10
787.748825
 20
7459.94467
 30
0.0
 11
786.136405
 21
7461.557091
 31
0.0
  0
LINE
  5
1C9
330
1BD
100
AcDbEntity
  8
LC-003-005-----0
 62
     7
370
    25
100
AcDbLine
 10
772.582395
 20
7475.111101
 30
0.0
 11
771.168181
 21
7476.525315
 31
0.0
  0
LINE
  5
1CA
330
1BD
100
AcDbEntity
  8
LC-003-005-----0
 62
     7
370
    25
100
AcDbLine
 10
768.319462
 20
7479.374034
 30
0.0
 11
767.319562
 21
7480.373934
 31
0.0
  0
LINE
  5
1CB
330
1BD
100
AcDbEntity
  8
LC-003-005-----0
 62
     7
370
    25
100
AcDbLine
 10
764.682532
 20
7483.010963
 30
0.0
 11
763.923175
 21
7483.770321
 31
0.0
  0
LINE
  5
1CC
330
1BD
100
AcDbEntity
  8
LC-003-005-----0
 62
     7
370
    25
100
AcDbLine
 10
768.715848
 20
7476.14922
 30
0.0
 11
767.412855
 21
7477.452213
 31
0.0
  0
LINE
  5
1CD
330
1BD
100
AcDbEntity
  8
LC-003-005-----0
 62
     7
370
    25
100
AcDbLine
 10
763.358197
 20
7481.506871
 30
0.0
 11
762.563895
 21
7482.301174
 31
0.0
  0
LINE
  5
1CE
330
1BD
100
AcDbEntity
  8
LC-003-005-----0
 62
     7
370
    25
100
AcDbLine
 10
763.274996
 20
7478.761645
 30
0.0
 11
762.324673
 21
7479.711969
 31
0.0
  0
LINE
  5
1CF
330
1BD
100
AcDbEntity
  8
LC-003-005-----0
 62
     7
370
    25
100
AcDbLine
 10
762.560318
 20
7476.647896
 30
0.0
 11
761.820245
 21
7477.38797
 31
0.0
  0
ENDBLK
  5
1BF
330
1BD
100
AcDbEntity
  8
0
100
AcDbBlockEnd
  0
BLOCK
  5
1D9
330
1D8
100
AcDbEntity
  8
0
100
AcDbBlockBegin
  2
*X712
 70
     1
 71
     0
 10
0.0
 20
0.0
 30
0.0
  3
*X712
  1

  4
*X7
  0
LINE
  5
1DB
330
1D8
100
AcDbEntity
  8
LC-003-005-----0
 62
     7
370
    25
100
AcDbLine
 10
913.29794
 20
7481.473766
 30
0.0
 11
910.678162
 21
7484.093544
 31
0.0
  0
LINE
  5
1DC
330
1D8
100
AcDbEntity
  8
LC-003-005-----0
 62
     7
370
    25
100
AcDbLine
 10
913.422543
 20
7478.520736
 30
0.0
 11
912.315989
 21
7479.62729
 31
0.0
  0
LINE
  5
1DD
330
1D8
100
AcDbEntity
  8
LC-003-005-----0
 62
     7
370
    25
100
AcDbLine
 10
909.182743
 20
7482.760536
 30
0.0
 11
908.467824
 21
7483.475455
 31
0.0
  0
LINE
  5
1DE
330
1D8
100
AcDbEntity
  8
LC-003-005-----0
 62
     7
370
    25
100
AcDbLine
 10
908.319362
 20
7480.79549
 30
0.0
 11
907.383455
 21
7481.731397
 31
0.0
  0
LINE
  5
1DF
330
1D8
100
AcDbEntity
  8
LC-003-005-----0
 62
     7
370
    25
100
AcDbLine
 10
908.31747
 20
7477.968955
 30
0.0
 11
907.319462
 21
7478.966963
 31
0.0
  0
LINE
  5
1E0
330
1D8
100
AcDbEntity
  8
LC-003-005-----0
 62
     7
370
    25
100
AcDbLine
 10
907.198492
 20
7476.259506
 30
0.0
 11
906.412414
 21
7477.045584
 31
0.0
  0
LINE
  5
1E1
330
1D8
100
AcDbEntity
  8
LC-003-005-----0
 62
     7
370
    25
100
AcDbLine
 10
904.9982
 20
7475.63137
 30
0.0
 11
904.181704
 21
7476.447867
 31
0.0
  0
LINE
  5
1E2
330
1D8
100
AcDbEntity
  8
LC-003-005-----0
 62
     7
370
    25
100
AcDbLine
 10
902.76749
 20
7475.033653
 30
0.0
 11
901.950994
 21
7475.85015
 31
0.0
  0
LINE
  5
1E3
330
1D8
100
AcDbEntity
  8
LC-003-005-----0
 62
     7
370
    25
100
AcDbLine
 10
900.53678
 20
7474.435936
 30
0.0
 11
899.720283
 21
7475.252433
 31
0.0
  0
LINE
  5
1E4
330
1D8
100
AcDbEntity
  8
LC-003-005-----0
 62
     7
370
    25
100
AcDbLine
 10
898.30607
 20
7473.838219
 30
0.0
 11
897.489573
 21
7474.654716
 31
0.0
  0
LINE
  5
1E5
330
1D8
100
AcDbEntity
  8
LC-003-005-----0
 62
     7
370
    25
100
AcDbLine
 10
896.07536
 20
7473.240502
 30
0.0
 11
895.258863
 21
7474.056999
 31
0.0
  0
LINE
  5
1E6
330
1D8
100
AcDbEntity
  8
LC-003-005-----0
 62
     7
370
    25
100
AcDbLine
 10
893.84465
 20
7472.642785
 30
0.0
 11
893.043387
 21
7473.444048
 31
0.0
  0
LINE
  5
1E7
330
1D8
100
AcDbEntity
  8
LC-003-005-----0
 62
     7
370
    25
100
AcDbLine
 10
892.819462
 20
7470.839546
 30
0.0
 11
891.832269
 21
7471.826739
 31
0.0
  0
LINE
  5
1E8
330
1D8
100
AcDbEntity
  8
LC-003-005-----0
 62
     7
370
    25
100
AcDbLine
 10
892.215411
 20
7468.61517
 30
0.0
 11
891.215411
 21
7469.61517
 31
0.0
  0
LINE
  5
1E9
330
1D8
100
AcDbEntity
  8
LC-003-005-----0
 62
     7
370
    25
100
AcDbLine
 10
889.386984
 20
7468.61517
 30
0.0
 11
888.459735
 21
7469.542419
 31
0.0
  0
LINE
  5
1EA
330
1D8
100
AcDbEntity
  8
LC-003-005-----0
 62
     7
370
    25
100
AcDbLine
 10
889.219462
 20
7465.954265
 30
0.0
 11
888.219462
 21
7466.954265
 31
0.0
  0
LINE
  5
1EB
330
1D8
100
AcDbEntity
  8
LC-003-005-----0
 62
     7
370
    25
100
AcDbLine
 10
889.842118
 20
7462.503181
 30
0.0
 11
888.219462
 21
7464.125838
 31
0.0
  0
LINE
  5
1EC
330
1D8
100
AcDbEntity
  8
LC-003-005-----0
 62
     7
370
    25
100
AcDbLine
 10
889.090845
 20
7460.426027
 30
0.0
 11
888.310639
 21
7461.206233
 31
0.0
  0
ENDBLK
  5
1DA
330
1D8
100
AcDbEntity
  8
0
100
AcDbBlockEnd
  0
BLOCK
  5
205
330
204
100
AcDbEntity
  8
0
100
AcDbBlockBegin
  2
*X813
 70
     1
 71
     0
 10
0.0
 20
0.0
 30
0.0
  3
*X813
  1

  4
*X8
  0
LINE
  5
207
330
204
100
AcDbEntity
  8
LC-003-005-----0
 62
     7
370
    25
100
AcDbLine
 10
836.26222
 20
7358.61517
 30
0.0
 11
837.844462
 21
7360.197411
 31
0.0
  0
LINE
  5
208
330
204
100
AcDbEntity
  8
LC-003-005-----0
 62
     7
370
    25
100
AcDbLine
 10
830.605366
 20
7358.61517
 30
0.0
 11
837.844462
 21
7365.854266
 31
0.0
  0
LINE
  5
209
330
204
100
AcDbEntity
  8
LC-003-005-----0
 62
     7
370
    25
100
AcDbLine
 10
824.948512
 20
7358.61517
 30
0.0
 11
837.844462
 21
7371.51112
 31
0.0
  0
LINE
  5
20A
330
204
100
AcDbEntity
  8
LC-003-005-----0
 62
     7
370
    25
100
AcDbLine
 10
819.291657
 20
7358.61517
 30
0.0
 11
833.291657
 21
7372.61517
 31
0.0
  0
LINE
  5
20B
330
204
100
AcDbEntity
  8
LC-003-005-----0
 62
     7
370
    25
100
AcDbLine
 10
813.634803
 20
7358.61517
 30
0.0
 11
827.634803
 21
7372.61517
 31
0.0
  0
LINE
  5
20C
330
204
100
AcDbEntity
  8
LC-003-005-----0
 62
     7
370
    25
100
AcDbLine
 10
807.977949
 20
7358.61517
 30
0.0
 11
821.977949
 21
7372.61517
 31
0.0
  0
LINE
  5
20D
330
204
100
AcDbEntity
  8
LC-003-005-----0
 62
     7
370
    25
100
AcDbLine
 10
802.321095
 20
7358.61517
 30
0.0
 11
816.321095
 21
7372.61517
 31
0.0
  0
LINE
  5
20E
330
204
100
AcDbEntity
  8
LC-003-005-----0
 62
     7
370
    25
100
AcDbLine
 10
796.66424
 20
7358.61517
 30
0.0
 11
810.66424
 21
7372.61517
 31
0.0
  0
LINE
  5
20F
330
204
100
AcDbEntity
  8
LC-003-005-----0
 62
     7
370
    25
100
AcDbLine
 10
791.007386
 20
7358.61517
 30
0.0
 11
805.007386
 21
7372.61517
 31
0.0
  0
LINE
  5
210
330
204
100
AcDbEntity
  8
LC-003-005-----0
 62
     7
370
    25
100
AcDbLine
 10
785.350532
 20
7358.61517
 30
0.0
 11
799.350532
 21
7372.61517
 31
0.0
  0
LINE
  5
211
330
204
100
AcDbEntity
  8
LC-003-005-----0
 62
     7
370
    25
100
AcDbLine
 10
785.344462
 20
7364.265954
 30
0.0
 11
793.693678
 21
7372.61517
 31
0.0
  0
LINE
  5
212
330
204
100
AcDbEntity
  8
LC-003-005-----0
 62
     7
370
    25
100
AcDbLine
 10
785.344462
 20
7369.922808
 30
0.0
 11
788.036823
 21
7372.61517
 31
0.0
  0
LINE
  5
213
330
204
100
AcDbEntity
  8
LC-003-005-----0
 62
     7
370
    25
100
AcDbLine
 10
837.844462
 20
7370.251054
 30
0.0
 11
835.480346
 21
7372.61517
 31
0.0
  0
LINE
  5
214
330
204
100
AcDbEntity
  8
LC-003-005-----0
 62
     7
370
    25
100
AcDbLine
 10
837.844462
 20
7364.5942
 30
0.0
 11
829.823492
 21
7372.61517
 31
0.0
  0
LINE
  5
215
330
204
100
AcDbEntity
  8
LC-003-005-----0
 62
     7
370
    25
100
AcDbLine
 10
837.844462
 20
7358.937346
 30
0.0
 11
824.166638
 21
7372.61517
 31
0.0
  0
LINE
  5
216
330
204
100
AcDbEntity
  8
LC-003-005-----0
 62
     7
370
    25
100
AcDbLine
 10
832.509783
 20
7358.61517
 30
0.0
 11
818.509783
 21
7372.61517
 31
0.0
  0
LINE
  5
217
330
204
100
AcDbEntity
  8
LC-003-005-----0
 62
     7
370
    25
100
AcDbLine
 10
826.852929
 20
7358.61517
 30
0.0
 11
812.852929
 21
7372.61517
 31
0.0
  0
LINE
  5
218
330
204
100
AcDbEntity
  8
LC-003-005-----0
 62
     7
370
    25
100
AcDbLine
 10
821.196075
 20
7358.61517
 30
0.0
 11
807.196075
 21
7372.61517
 31
0.0
  0
LINE
  5
219
330
204
100
AcDbEntity
  8
LC-003-005-----0
 62
     7
370
    25
100
AcDbLine
 10
815.539221
 20
7358.61517
 30
0.0
 11
801.539221
 21
7372.61517
 31
0.0
  0
LINE
  5
21A
330
204
100
AcDbEntity
  8
LC-003-005-----0
 62
     7
370
    25
100
AcDbLine
 10
809.882366
 20
7358.61517
 30
0.0
 11
795.882366
 21
7372.61517
 31
0.0
  0
LINE
  5
21B
330
204
100
AcDbEntity
  8
LC-003-005-----0
 62
     7
370
    25
100
AcDbLine
 10
804.225512
 20
7358.61517
 30
0.0
 11
790.225512
 21
7372.61517
 31
0.0
  0
LINE
  5
21C
330
204
100
AcDbEntity
  8
LC-003-005-----0
 62
     7
370
    25
100
AcDbLine
 10
798.568658
 20
7358.61517
 30
0.0
 11
785.344462
 21
7371.839366
 31
0.0
  0
LINE
  5
21D
330
204
100
AcDbEntity
  8
LC-003-005-----0
 62
     7
370
    25
100
AcDbLine
 10
792.911804
 20
7358.61517
 30
0.0
 11
785.344462
 21
7366.182512
 31
0.0
  0
LINE
  5
21E
330
204
100
AcDbEntity
  8
LC-003-005-----0
 62
     7
370
    25
100
AcDbLine
 10
787.254949
 20
7358.61517
 30
0.0
 11
785.344462
 21
7360.525657
 31
0.0
  0
ENDBLK
  5
206
330
204
100
AcDbEntity
  8
0
100
AcDbBlockEnd
  0
BLOCK
  5
221
330
220
100
AcDbEntity
  8
0
100
AcDbBlockBegin
  2
*X914
 70
     1
 71
     0
 10
0.0
 20
0.0
 30
0.0
  3
*X914
  1

  4
*X9
  0
LINE
  5
223
330
220
100
AcDbEntity
  8
LC-003-005-----0
 62
     7
370
    25
100
AcDbLine
 10
887.173908
 20
7358.61517
 30
0.0
 11
890.344462
 21
7361.785723
 31
0.0
  0
LINE
  5
224
330
220
100
AcDbEntity
  8
LC-003-005-----0
 62
     7
370
    25
100
AcDbLine
 10
881.517054
 20
7358.61517
 30
0.0
 11
890.344462
 21
7367.442577
 31
0.0
  0
LINE
  5
225
330
220
100
AcDbEntity
  8
LC-003-005-----0
 62
     7
370
    25
100
AcDbLine
 10
875.8602
 20
7358.61517
 30
0.0
 11
889.8602
 21
7372.61517
 31
0.0
  0
LINE
  5
226
330
220
100
AcDbEntity
  8
LC-003-005-----0
 62
     7
370
    25
100
AcDbLine
 10
870.203346
 20
7358.61517
 30
0.0
 11
884.203346
 21
7372.61517
 31
0.0
  0
LINE
  5
227
330
220
100
AcDbEntity
  8
LC-003-005-----0
 62
     7
370
    25
100
AcDbLine
 10
864.546491
 20
7358.61517
 30
0.0
 11
878.546491
 21
7372.61517
 31
0.0
  0
LINE
  5
228
330
220
100
AcDbEntity
  8
LC-003-005-----0
 62
     7
370
    25
100
AcDbLine
 10
858.889637
 20
7358.61517
 30
0.0
 11
872.889637
 21
7372.61517
 31
0.0
  0
LINE
  5
229
330
220
100
AcDbEntity
  8
LC-003-005-----0
 62
     7
370
    25
100
AcDbLine
 10
853.232783
 20
7358.61517
 30
0.0
 11
867.232783
 21
7372.61517
 31
0.0
  0
LINE
  5
22A
330
220
100
AcDbEntity
  8
LC-003-005-----0
 62
     7
370
    25
100
AcDbLine
 10
847.575929
 20
7358.61517
 30
0.0
 11
861.575929
 21
7372.61517
 31
0.0
  0
LINE
  5
22B
330
220
100
AcDbEntity
  8
LC-003-005-----0
 62
     7
370
    25
100
AcDbLine
 10
841.919074
 20
7358.61517
 30
0.0
 11
855.919074
 21
7372.61517
 31
0.0
  0
LINE
  5
22C
330
220
100
AcDbEntity
  8
LC-003-005-----0
 62
     7
370
    25
100
AcDbLine
 10
837.844462
 20
7360.197411
 30
0.0
 11
850.26222
 21
7372.61517
 31
0.0
  0
LINE
  5
22D
330
220
100
AcDbEntity
  8
LC-003-005-----0
 62
     7
370
    25
100
AcDbLine
 10
837.844462
 20
7365.854266
 30
0.0
 11
844.605366
 21
7372.61517
 31
0.0
  0
LINE
  5
22E
330
220
100
AcDbEntity
  8
LC-003-005-----0
 62
     7
370
    25
100
AcDbLine
 10
837.844462
 20
7371.51112
 30
0.0
 11
838.948512
 21
7372.61517
 31
0.0
  0
LINE
  5
22F
330
220
100
AcDbEntity
  8
LC-003-005-----0
 62
     7
370
    25
100
AcDbLine
 10
890.344462
 20
7368.662742
 30
0.0
 11
886.392034
 21
7372.61517
 31
0.0
  0
LINE
  5
230
330
220
100
AcDbEntity
  8
LC-003-005-----0
 62
     7
370
    25
100
AcDbLine
 10
890.344462
 20
7363.005888
 30
0.0
 11
880.73518
 21
7372.61517
 31
0.0
  0
LINE
  5
231
330
220
100
AcDbEntity
  8
LC-003-005-----0
 62
     7
370
    25
100
AcDbLine
 10
889.078326
 20
7358.61517
 30
0.0
 11
875.078326
 21
7372.61517
 31
0.0
  0
LINE
  5
232
330
220
100
AcDbEntity
  8
LC-003-005-----0
 62
     7
370
    25
100
AcDbLine
 10
883.421472
 20
7358.61517
 30
0.0
 11
869.421472
 21
7372.61517
 31
0.0
  0
LINE
  5
233
330
220
100
AcDbEntity
  8
LC-003-005-----0
 62
     7
370
    25
100
AcDbLine
 10
877.764617
 20
7358.61517
 30
0.0
 11
863.764617
 21
7372.61517
 31
0.0
  0
LINE
  5
234
330
220
100
AcDbEntity
  8
LC-003-005-----0
 62
     7
370
    25
100
AcDbLine
 10
872.107763
 20
7358.61517
 30
0.0
 11
858.107763
 21
7372.61517
 31
0.0
  0
LINE
  5
235
330
220
100
AcDbEntity
  8
LC-003-005-----0
 62
     7
370
    25
100
AcDbLine
 10
866.450909
 20
7358.61517
 30
0.0
 11
852.450909
 21
7372.61517
 31
0.0
  0
LINE
  5
236
330
220
100
AcDbEntity
  8
LC-003-005-----0
 62
     7
370
    25
100
AcDbLine
 10
860.794055
 20
7358.61517
 30
0.0
 11
846.794055
 21
7372.61517
 31
0.0
  0
LINE
  5
237
330
220
100
AcDbEntity
  8
LC-003-005-----0
 62
     7
370
    25
100
AcDbLine
 10
855.1372
 20
7358.61517
 30
0.0
 11
841.1372
 21
7372.61517
 31
0.0
  0
LINE
  5
238
330
220
100
AcDbEntity
  8
LC-003-005-----0
 62
     7
370
    25
100
AcDbLine
 10
849.480346
 20
7358.61517
 30
0.0
 11
837.844462
 21
7370.251054
 31
0.0
  0
LINE
  5
239
330
220
100
AcDbEntity
  8
LC-003-005-----0
 62
     7
370
    25
100
AcDbLine
 10
843.823492
 20
7358.61517
 30
0.0
 11
837.844462
 21
7364.5942
 31
0.0
  0
LINE
  5
23A
330
220
100
AcDbEntity
  8
LC-003-005-----0
 62
     7
370
    25
100
AcDbLine
 10
838.166638
 20
7358.61517
 30
0.0
 11
837.844462
 21
7358.937346
 31
0.0
  0
ENDBLK
  5
222
330
220
100
AcDbEntity
  8
0
100
AcDbBlockEnd
  0
ENDSEC
  0
SECTION
  2
ENTITIES
  0
LINE
  5
32
330
1F
100
AcDbEntity
  8
LC-001-002-----0
 62
     7
370
    25
100
AcDbLine
 10
837.819462
 20
7355.615195
 30
0.0
 11
837.819462
 21
7481.41517
 31
0.0
  0
ARC
  5
34
102
{ACAD_REACTORS
330
33D
102
}
330
1F
100
AcDbEntity
  8
LC-002-002-RND-0
 62
     7
370
    50
100
AcDbCircle
 10
1134.507462
 20
7484.953183
 30
0.0
 40
3.789999999999964
100
AcDbArc
 50
0.0
 51
90.0
  0
ARC
  5
35
102
{ACAD_REACTORS
330
33D
102
}
330
1F
100
AcDbEntity
  8
LC-002-002-RND-0
 62
     7
370
    50
100
AcDbCircle
 10
1004.131462
 20
7484.953183
 30
0.0
 40
3.789999999999964
100
AcDbArc
 50
90.0
 51
180.0
  0
ARC
  5
36
102
{ACAD_REACTORS
330
33D
102
}
330
1F
100
AcDbEntity
  8
LC-002-002-RND-0
 62
     7
370
    50
100
AcDbCircle
 10
1004.131462
 20
7354.577183
 30
0.0
 40
3.789999999999964
100
AcDbArc
 50
180.0
 51
270.0
  0
ARC
  5
37
102
{ACAD_REACTORS
330
33D
102
}
330
1F
100
AcDbEntity
  8
LC-002-002-RND-0
 62
     7
370
    50
100
AcDbCircle
 10
1134.507462
 20
7354.577183
 30
0.0
 40
3.789999999999964
100
AcDbArc
 50
270.0
 51
0.0
  0
LINE
  5
38
102
{ACAD_REACTORS
330
33D
102
}
330
1F
100
AcDbEntity
  8
LC-001-002-----0
  6
ByBlock
 62
     7
370
    50
100
AcDbLine
 10
1000.341462
 20
7354.577183
 30
0.0
 11
1000.341462
 21
7484.953183
 31
0.0
  0
LINE
  5
39
102
{ACAD_REACTORS
330
33D
102
}
330
1F
100
AcDbEntity
  8
LC-001-002-----0
  6
ByBlock
 62
     7
370
    50
100
AcDbLine
 10
1004.131462
 20
7488.743183
 30
0.0
 11
1134.507462
 21
7488.743183
 31
0.0
  0
LINE
  5
3A
102
{ACAD_REACTORS
330
33D
102
}
330
1F
100
AcDbEntity
  8
LC-001-002-----0
  6
ByBlock
 62
     7
370
    50
100
AcDbLine
 10
1138.297462
 20
7484.953183
 30
0.0
 11
1138.297462
 21
7354.577183
 31
0.0
  0
LINE
  5
3B
102
{ACAD_REACTORS
330
33D
102
}
330
1F
100
AcDbEntity
  8
LC-001-002-----0
  6
ByBlock
 62
     7
370
    50
100
AcDbLine
 10
1134.507462
 20
7350.787183
 30
0.0
 11
1004.131462
 21
7350.787183
 31
0.0
  0
ARC
  5
3C
102
{ACAD_REACTORS
330
33F
102
}
330
1F
100
AcDbEntity
  8
LC-002-002-RND-0
 62
     7
370
    50
100
AcDbCircle
 10
1002.819462
 20
7486.265183
 30
0.0
 40
3.0
100
AcDbArc
 50
90.0
 51
180.0
  0
ARC
  5
3D
102
{ACAD_REACTORS
330
33F
102
}
330
1F
100
AcDbEntity
  8
LC-002-002-RND-0
 62
     7
370
    50
100
AcDbCircle
 10
1135.819462
 20
7486.265183
 30
0.0
 40
3.0
100
AcDbArc
 50
0.0
 51
90.0
  0
LINE
  5
3E
102
{ACAD_REACTORS
330
33F
102
}
330
1F
100
AcDbEntity
  8
LC-001-002-----0
  6
ByBlock
 62
     7
370
    50
100
AcDbLine
 10
1138.819462
 20
7486.265183
 30
0.0
 11
1138.819462
 21
7353.265183
 31
0.0
  0
LINE
  5
3F
102
{ACAD_REACTORS
330
33F
102
}
330
1F
100
AcDbEntity
  8
LC-001-002-----0
  6
ByBlock
 62
     7
370
    50
100
AcDbLine
 10
1002.819462
 20
7489.265183
 30
0.0
 11
1135.819462
 21
7489.265183
 31
0.0
  0
LINE
  5
40
102
{ACAD_REACTORS
330
33F
102
}
330
1F
100
AcDbEntity
  8
LC-001-002-----0
  6
ByBlock
 62
     7
370
    50
100
AcDbLine
 10
999.819462
 20
7353.265183
 30
0.0
 11
999.819462
 21
7486.265183
 31
0.0
  0
LINE
  5
41
102
{ACAD_REACTORS
330
33F
102
}
330
1F
100
AcDbEntity
  8
LC-001-002-----0
  6
ByBlock
 62
     7
370
    50
100
AcDbLine
 10
1135.819462
 20
7350.265183
 30
0.0
 11
1002.819462
 21
7350.265183
 31
0.0
  0
ARC
  5
42
102
{ACAD_REACTORS
330
33F
102
}
330
1F
100
AcDbEntity
  8
LC-002-002-RND-0
 62
     7
370
    50
100
AcDbCircle
 10
1135.819462
 20
7353.265183
 30
0.0
 40
3.0
100
AcDbArc
 50
270.0
 51
0.0
  0
ARC
  5
43
102
{ACAD_REACTORS
330
33F
102
}
330
1F
100
AcDbEntity
  8
LC-002-002-RND-0
 62
     7
370
    50
100
AcDbCircle
 10
1002.819462
 20
7353.265183
 30
0.0
 40
3.0
100
AcDbArc
 50
180.0
 51
270.0
  0
ARC
  5
44
102
{ACAD_REACTORS
330
33F
102
}
330
1F
100
AcDbEntity
  8
LC-001-002-----0
  6
ByBlock
 62
     7
370
    50
100
AcDbCircle
 10
1002.819462
 20
7353.265183
 30
0.0
 40
6.999999999989086
100
AcDbArc
 50
180.0
 51
270.0
  0
ARC
  5
45
102
{ACAD_REACTORS
330
33F
102
}
330
1F
100
AcDbEntity
  8
LC-001-002-----0
  6
ByBlock
 62
     7
370
    50
100
AcDbCircle
 10
1135.819462
 20
7486.265183
 30
0.0
 40
6.999999999992724
100
AcDbArc
 50
0.0
 51
90.0
  0
ARC
  5
46
102
{ACAD_REACTORS
330
33F
102
}
330
1F
100
AcDbEntity
  8
LC-001-002-----0
  6
ByBlock
 62
     7
370
    50
100
AcDbCircle
 10
1135.819462
 20
7353.265183
 30
0.0
 40
6.999999999989086
100
AcDbArc
 50
270.0
 51
0.0
  0
ARC
  5
47
102
{ACAD_REACTORS
330
33F
102
}
330
1F
100
AcDbEntity
  8
LC-001-002-----0
  6
ByBlock
 62
     7
370
    50
100
AcDbCircle
 10
1002.819462
 20
7486.265183
 30
0.0
 40
6.999999999995453
100
AcDbArc
 50
90.0
 51
180.0
  0
LINE
  5
48
102
{ACAD_REACTORS
330
33F
102
}
330
1F
100
AcDbEntity
  8
LC-001-002-----0
  6
ByBlock
 62
     7
370
    50
100
AcDbLine
 10
1002.819462
 20
7493.265183
 30
0.0
 11
1135.819462
 21
7493.265183
 31
0.0
  0
LINE
  5
49
102
{ACAD_REACTORS
330
33F
102
}
330
1F
100
AcDbEntity
  8
LC-001-002-----0
  6
ByBlock
 62
     7
370
    50
100
AcDbLine
 10
1002.819462
 20
7346.265183
 30
0.0
 11
1135.819462
 21
7346.265183
 31
0.0
  0
LINE
  5
4A
102
{ACAD_REACTORS
330
33F
102
}
330
1F
100
AcDbEntity
  8
LC-001-002-----0
  6
ByBlock
 62
     7
370
    50
100
AcDbLine
 10
1142.819462
 20
7486.265183
 30
0.0
 11
1142.819462
 21
7353.265183
 31
0.0
  0
LINE
  5
4B
102
{ACAD_REACTORS
330
33F
102
}
330
1F
100
AcDbEntity
  8
LC-001-002-----0
  6
ByBlock
 62
     7
370
    50
100
AcDbLine
 10
995.819462
 20
7486.265183
 30
0.0
 11
995.819462
 21
7353.265183
 31
0.0
  0
INSERT
  5
71
330
1F
100
AcDbEntity
  8
LC-003-005-----0
 62
     7
370
    25
100
AcDbBlockReference
  2
*X11
 10
0.0
 20
0.0
 30
0.0
  0
LINE
  5
72
102
{ACAD_REACTORS
330
342
102
}
330
1F
100
AcDbEntity
  8
LC-001-002-----0
  6
ByBlock
 62
     7
370
    50
100
AcDbLine
 10
768.894462
 20
7479.115066
 30
0.0
 11
906.794462
 21
7479.115066
 31
0.0
  0
LINE
  5
73
102
{ACAD_REACTORS
330
341
102
}
330
1F
100
AcDbEntity
  8
LC-001-002-----0
  6
ByBlock
 62
     7
370
    50
100
AcDbLine
 10
768.894462
 20
7484.115066
 30
0.0
 11
768.894462
 21
7479.115066
 31
0.0
  0
LINE
  5
74
102
{ACAD_REACTORS
330
341
102
}
330
1F
100
AcDbEntity
  8
LC-001-002-----0
  6
ByBlock
 62
     7
370
    50
100
AcDbLine
 10
906.794462
 20
7484.115066
 30
0.0
 11
906.794462
 21
7479.115066
 31
0.0
  0
LINE
  5
75
330
1F
100
AcDbEntity
  8
LC-001-002-----0
  6
ByBlock
 62
     7
370
    25
100
AcDbLine
 10
798.990109
 20
7527.497
 30
0.0
 11
803.572928
 21
7527.497
 31
0.0
  0
LINE
  5
76
330
1F
100
AcDbEntity
  8
LC-001-002-----0
 62
     7
370
    25
100
AcDbLine
 10
837.819462
 20
7355.615195
 30
0.0
 11
837.819462
 21
7484.115066
 31
0.0
  0
DIMENSION
  5
7A
330
1F
100
AcDbEntity
  8
LC-004-003-----0
 62
     7
370
    25
100
AcDbDimension
  2
*D2
 10
892.818977
 20
7291.2
 30
0.0
 11
837.81922
 21
7322.0
 31
0.0
 70
   160
  1
%%c110
 71
     5
 42
109.999515
  3
LC-DIM-L-0140-02-02
100
AcDbAlignedDimension
 13
782.819462
 23
7359.61517
 33
0.0
 14
892.818977
 24
7365.615111
 34
0.0
100
AcDbRotatedDimension
  0
LINE
  5
88
330
1F
100
AcDbEntity
  8
LC-001-002-----0
  6
ByBlock
 62
     7
370
    25
100
AcDbLine
 10
798.990109
 20
7512.497
 30
0.0
 11
803.572928
 21
7512.497
 31
0.0
  0
LINE
  5
89
102
{ACAD_REACTORS
330
33E
102
}
330
1F
100
AcDbEntity
  8
LC-001-002-----0
  6
ByBlock
 62
     7
370
    50
100
AcDbLine
 10
892.818953
 20
7373.615005
 30
0.0
 11
892.818977
 21
7365.615111
 31
0.0
  0
LINE
  5
8A
102
{ACAD_REACTORS
330
33E
102
}
330
1F
100
AcDbEntity
  8
LC-001-002-----0
  6
ByBlock
 62
     7
370
    50
100
AcDbLine
 10
889.819024
 20
7355.615195
 30
0.0
 11
897.819069
 21
7355.615195
 31
0.0
  0
LINE
  5
8B
102
{ACAD_REACTORS
330
33E
102
}
330
1F
100
AcDbEntity
  8
LC-001-002-----0
  6
ByBlock
 62
     7
370
    50
100
AcDbLine
 10
802.126171
 20
7355.615195
 30
0.0
 11
802.126171
 21
7358.61517
 31
0.0
  0
LINE
  5
8C
102
{ACAD_REACTORS
330
33E
102
}
330
1F
100
AcDbEntity
  8
LC-001-002-----0
  6
ByBlock
 62
     7
370
    50
100
AcDbLine
 10
800.004869
 20
7355.615195
 30
0.0
 11
800.004869
 21
7358.61517
 31
0.0
  0
LINE
  5
8D
102
{ACAD_REACTORS
330
33E
102
}
330
1F
100
AcDbEntity
  8
LC-001-002-----0
  6
ByBlock
 62
     7
370
    50
100
AcDbLine
 10
897.819069
 20
7355.615195
 30
0.0
 11
897.819069
 21
7365.614421
 31
0.0
  0
LINE
  5
8E
102
{ACAD_REACTORS
330
33E
102
}
330
1F
100
AcDbEntity
  8
LC-001-002-----0
  6
ByBlock
 62
     7
370
    50
100
AcDbLine
 10
894.818975
 20
7375.615027
 30
0.0
 11
894.818975
 21
7365.615111
 31
0.0
  0
LINE
  5
8F
102
{ACAD_REACTORS
330
33E
102
}
330
1F
100
AcDbEntity
  8
LC-001-002-----0
  6
ByBlock
 62
     7
370
    50
100
AcDbLine
 10
896.319081
 20
7365.615111
 30
0.0
 11
897.819069
 21
7365.615111
 31
0.0
  0
LINE
  5
90
102
{ACAD_REACTORS
330
33E
102
}
330
1F
100
AcDbEntity
  8
LC-001-002-----0
  6
ByBlock
 62
     7
370
    50
100
AcDbLine
 10
894.818975
 20
7375.615027
 30
0.0
 11
892.818953
 21
7373.615005
 31
0.0
  0
LINE
  5
91
102
{ACAD_REACTORS
330
33E
102
}
330
1F
100
AcDbEntity
  8
LC-001-002-----0
  6
ByBlock
 62
     7
370
    50
100
AcDbLine
 10
896.319081
 20
7365.615111
 30
0.0
 11
894.818975
 21
7365.615111
 31
0.0
  0
LINE
  5
92
102
{ACAD_REACTORS
330
33E
102
}
330
1F
100
AcDbEntity
  8
LC-001-002-----0
  6
ByBlock
 62
     7
370
    50
100
AcDbLine
 10
836.319474
 20
7358.61517
 30
0.0
 11
839.319449
 21
7358.61517
 31
0.0
  0
LINE
  5
93
102
{ACAD_REACTORS
330
33E
102
}
330
1F
100
AcDbEntity
  8
LC-001-002-----0
  6
ByBlock
 62
     7
370
    50
100
AcDbLine
 10
839.319449
 20
7355.615195
 30
0.0
 11
839.319449
 21
7358.61517
 31
0.0
  0
LINE
  5
94
102
{ACAD_REACTORS
330
33E
102
}
330
1F
100
AcDbEntity
  8
LC-001-002-----0
  6
ByBlock
 62
     7
370
    50
100
AcDbLine
 10
795.404999
 20
7355.615195
 30
0.0
 11
795.404999
 21
7358.61517
 31
0.0
  0
LINE
  5
95
102
{ACAD_REACTORS
330
33E
102
}
330
1F
100
AcDbEntity
  8
LC-001-002-----0
  6
ByBlock
 62
     7
370
    50
100
AcDbLine
 10
795.404999
 20
7358.61517
 30
0.0
 11
802.126171
 21
7358.61517
 31
0.0
  0
LINE
  5
96
102
{ACAD_REACTORS
330
33E
102
}
330
1F
100
AcDbEntity
  8
LC-001-002-----0
  6
ByBlock
 62
     7
370
    50
100
AcDbLine
 10
785.8199
 20
7355.615195
 30
0.0
 11
839.319449
 21
7355.615195
 31
0.0
  0
LINE
  5
97
102
{ACAD_REACTORS
330
33E
102
}
330
1F
100
AcDbEntity
  8
LC-001-002-----0
  6
ByBlock
 62
     7
370
    50
100
AcDbLine
 10
839.319449
 20
7355.615195
 30
0.0
 11
873.512753
 21
7355.615195
 31
0.0
  0
LINE
  5
98
102
{ACAD_REACTORS
330
33E
102
}
330
1F
100
AcDbEntity
  8
LC-001-002-----0
  6
ByBlock
 62
     7
370
    50
100
AcDbLine
 10
873.512753
 20
7355.615195
 30
0.0
 11
889.797385
 21
7355.615195
 31
0.0
  0
LINE
  5
99
102
{ACAD_REACTORS
330
33E
102
}
330
1F
100
AcDbEntity
  8
LC-001-002-----0
  6
ByBlock
 62
     7
370
    50
100
AcDbLine
 10
836.319474
 20
7355.615195
 30
0.0
 11
836.319474
 21
7358.61517
 31
0.0
  0
INSERT
  5
A7
102
{ACAD_REACTORS
330
33E
102
}
330
1F
100
AcDbEntity
  8
LC-003-005-----0
 62
     7
370
    25
100
AcDbBlockReference
  2
*X23
 10
0.0
 20
0.0
 30
0.0
  0
LINE
  5
A8
102
{ACAD_REACTORS
330
33E
102
}
330
1F
100
AcDbEntity
  8
LC-001-002-----0
  6
ByBlock
 62
     7
370
    50
100
AcDbLine
 10
782.819971
 20
7373.615005
 30
0.0
 11
782.819925
 21
7358.61517
 31
0.0
  0
LINE
  5
A9
102
{ACAD_REACTORS
330
33E
102
}
330
1F
100
AcDbEntity
  8
LC-001-002-----0
  6
ByBlock
 62
     7
370
    50
100
AcDbLine
 10
785.8199
 20
7355.615195
 30
0.0
 11
777.819855
 21
7355.615195
 31
0.0
  0
LINE
  5
AA
102
{ACAD_REACTORS
330
33E
102
}
330
1F
100
AcDbEntity
  8
LC-001-002-----0
  6
ByBlock
 62
     7
370
    50
100
AcDbLine
 10
777.819855
 20
7355.615195
 30
0.0
 11
777.819855
 21
7365.614421
 31
0.0
  0
LINE
  5
AB
102
{ACAD_REACTORS
330
33E
102
}
330
1F
100
AcDbEntity
  8
LC-001-002-----0
  6
ByBlock
 62
     7
370
    50
100
AcDbLine
 10
780.819949
 20
7375.615027
 30
0.0
 11
780.819949
 21
7365.615111
 31
0.0
  0
LINE
  5
AC
102
{ACAD_REACTORS
330
33E
102
}
330
1F
100
AcDbEntity
  8
LC-001-002-----0
  6
ByBlock
 62
     7
370
    50
100
AcDbLine
 10
779.319842
 20
7365.615111
 30
0.0
 11
777.819855
 21
7365.615111
 31
0.0
  0
LINE
  5
AD
102
{ACAD_REACTORS
330
33E
102
}
330
1F
100
AcDbEntity
  8
LC-001-002-----0
  6
ByBlock
 62
     7
370
    50
100
AcDbLine
 10
780.819949
 20
7375.615027
 30
0.0
 11
782.819971
 21
7373.615005
 31
0.0
  0
LINE
  5
AE
102
{ACAD_REACTORS
330
33E
102
}
330
1F
100
AcDbEntity
  8
LC-001-002-----0
  6
ByBlock
 62
     7
370
    50
100
AcDbLine
 10
782.819925
 20
7358.61517
 30
0.0
 11
785.8199
 21
7358.61517
 31
0.0
  0
LINE
  5
AF
102
{ACAD_REACTORS
330
33E
102
}
330
1F
100
AcDbEntity
  8
LC-001-002-----0
  6
ByBlock
 62
     7
370
    50
100
AcDbLine
 10
785.8199
 20
7358.61517
 30
0.0
 11
785.8199
 21
7355.615195
 31
0.0
  0
LINE
  5
B0
102
{ACAD_REACTORS
330
33E
102
}
330
1F
100
AcDbEntity
  8
LC-001-002-----0
  6
ByBlock
 62
     7
370
    50
100
AcDbLine
 10
779.319842
 20
7365.615111
 30
0.0
 11
780.819949
 21
7365.615111
 31
0.0
  0
INSERT
  5
BD
102
{ACAD_REACTORS
330
33E
102
}
330
1F
100
AcDbEntity
  8
LC-003-005-----0
 62
     7
370
    25
100
AcDbBlockReference
  2
*X34
 10
0.0
 20
0.0
 30
0.0
  0
LINE
  5
BE
102
{ACAD_REACTORS
330
33E
102
}
330
1F
100
AcDbEntity
  8
LC-001-002-----0
  6
ByBlock
 62
     7
370
    50
100
AcDbLine
 10
892.818999
 20
7358.61517
 30
0.0
 11
889.819024
 21
7358.61517
 31
0.0
  0
LINE
  5
BF
102
{ACAD_REACTORS
330
33E
102
}
330
1F
100
AcDbEntity
  8
LC-001-002-----0
  6
ByBlock
 62
     7
370
    50
100
AcDbLine
 10
889.819024
 20
7358.61517
 30
0.0
 11
889.819024
 21
7355.615195
 31
0.0
  0
LINE
  5
C0
102
{ACAD_REACTORS
330
33E
102
}
330
1F
100
AcDbEntity
  8
LC-001-002-----0
  6
ByBlock
 62
     7
370
    50
100
AcDbLine
 10
892.818953
 20
7373.615005
 30
0.0
 11
892.818999
 21
7358.61517
 31
0.0
  0
LINE
  5
C1
102
{ACAD_REACTORS
330
33E
102
}
330
1F
100
AcDbEntity
  8
LC-001-002-----0
  6
ByBlock
 62
     7
370
    50
100
AcDbLine
 10
894.818975
 20
7375.615027
 30
0.0
 11
892.818953
 21
7373.615005
 31
0.0
  0
LINE
  5
C2
102
{ACAD_REACTORS
330
33E
102
}
330
1F
100
AcDbEntity
  8
LC-001-002-----0
  6
ByBlock
 62
     7
370
    50
100
AcDbLine
 10
894.818975
 20
7375.615027
 30
0.0
 11
894.818975
 21
7365.615111
 31
0.0
  0
LINE
  5
C3
102
{ACAD_REACTORS
330
33E
102
}
330
1F
100
AcDbEntity
  8
LC-001-002-----0
  6
ByBlock
 62
     7
370
    50
100
AcDbLine
 10
897.819069
 20
7355.615195
 30
0.0
 11
897.819069
 21
7365.614421
 31
0.0
  0
LINE
  5
C4
102
{ACAD_REACTORS
330
33E
102
}
330
1F
100
AcDbEntity
  8
LC-001-002-----0
  6
ByBlock
 62
     7
370
    50
100
AcDbLine
 10
889.819024
 20
7355.615195
 30
0.0
 11
897.819069
 21
7355.615195
 31
0.0
  0
LINE
  5
C5
102
{ACAD_REACTORS
330
33E
102
}
330
1F
100
AcDbEntity
  8
LC-001-002-----0
  6
ByBlock
 62
     7
370
    50
100
AcDbLine
 10
880.233924
 20
7355.615195
 30
0.0
 11
880.233924
 21
7358.61517
 31
0.0
  0
LINE
  5
C6
102
{ACAD_REACTORS
330
33E
102
}
330
1F
100
AcDbEntity
  8
LC-001-002-----0
  6
ByBlock
 62
     7
370
    50
100
AcDbLine
 10
880.233924
 20
7358.61517
 30
0.0
 11
873.512753
 21
7358.61517
 31
0.0
  0
LINE
  5
C7
102
{ACAD_REACTORS
330
33E
102
}
330
1F
100
AcDbEntity
  8
LC-001-002-----0
  6
ByBlock
 62
     7
370
    50
100
AcDbLine
 10
875.634055
 20
7355.615195
 30
0.0
 11
875.634055
 21
7358.61517
 31
0.0
  0
LINE
  5
C8
102
{ACAD_REACTORS
330
33E
102
}
330
1F
100
AcDbEntity
  8
LC-001-002-----0
  6
ByBlock
 62
     7
370
    50
100
AcDbLine
 10
873.512753
 20
7355.615195
 30
0.0
 11
873.512753
 21
7358.61517
 31
0.0
  0
LINE
  5
C9
330
1F
100
AcDbEntity
  8
LC-001-002-----0
  6
ByBlock
 62
     7
370
    50
100
AcDbLine
 10
890.319462
 20
7466.61517
 30
0.0
 11
889.819462
 21
7466.11517
 31
0.0
  0
LINE
  5
CA
330
1F
100
AcDbEntity
  8
LC-001-002-----0
  6
ByBlock
 62
     7
370
    25
100
AcDbLine
 10
798.990109
 20
7512.497
 30
0.0
 11
798.990109
 21
7527.497
 31
0.0
  0
DIMENSION
  5
CB
330
1F
100
AcDbEntity
  8
LC-004-003-----0
 62
     7
370
    25
100
AcDbDimension
  2
*D5
 10
940.8
 20
7372.61517
 30
0.0
 11
910.0
 21
7365.61517
 31
0.0
 70
   160
 71
     5
 42
14.0
 53
90.0
  3
LC-DIM-L-0140-02-02
100
AcDbAlignedDimension
 13
889.819024
 23
7358.61517
 33
0.0
 14
890.319462
 24
7372.61517
 34
0.0
 50
90.0
100
AcDbRotatedDimension
  0
DIMENSION
  5
DA
330
1F
100
AcDbEntity
  8
LC-004-003-----0
 62
     7
370
    25
100
AcDbDimension
  2
*D6
 10
980.0
 20
7484.115066
 30
0.0
 11
949.2
 21
7428.365118
 31
0.0
 70
   160
  1
14-111
 71
     5
 42
111.499896
 53
90.0
  3
LC-DIM-L-0140-02-02
100
AcDbAlignedDimension
 13
890.319462
 23
7372.61517
 33
0.0
 14
910.319462
 24
7484.115066
 34
0.0
 50
90.0
100
AcDbRotatedDimension
  0
DIMENSION
  5
E7
330
1F
100
AcDbEntity
  8
LC-004-003-----0
 62
     7
370
    25
100
AcDbDimension
  2
*D7
 10
728.0
 20
7475.115066
 30
0.0
 11
697.2
 21
7435.871
 31
0.0
 70
   160
 71
     5
 42
9.0
 53
90.0
  3
LC-DIM-L-0140-02-02
100
AcDbAlignedDimension
 13
765.319462
 23
7484.115066
 33
0.0
 14
761.328738
 24
7475.115066
 34
0.0
 50
90.0
100
AcDbRotatedDimension
  0
DIMENSION
  5
F5
330
1F
100
AcDbEntity
  8
LC-004-003-----0
 62
     7
370
    25
100
AcDbDimension
  2
*D8
 10
913.314251
 20
7504.0
 30
0.0
 11
837.819462
 21
7534.8
 31
0.0
 70
   160
  1
150
 71
     5
 42
150.989578
  3
LC-DIM-L-0140-02-02
100
AcDbAlignedDimension
 13
762.324673
 23
7481.291809
 33
0.0
 14
913.314251
 24
7480.296995
 34
0.0
100
AcDbRotatedDimension
  0
LINE
  5
102
102
{ACAD_REACTORS
330
340
102
}
330
1F
100
AcDbEntity
  8
LC-001-002-----0
  6
ByBlock
 62
     7
370
    50
100
AcDbLine
 10
890.319462
 20
7463.61517
 30
0.0
 11
890.319462
 21
7358.61517
 31
0.0
  0
LINE
  5
103
102
{ACAD_REACTORS
330
340
102
}
330
1F
100
AcDbEntity
  8
LC-001-002-----0
  6
ByBlock
 62
     7
370
    50
100
AcDbLine
 10
837.819462
 20
7358.61517
 30
0.0
 11
785.319462
 21
7358.61517
 31
0.0
  0
LINE
  5
104
102
{ACAD_REACTORS
330
340
102
}
330
1F
100
AcDbEntity
  8
LC-001-002-----0
  6
ByBlock
 62
     7
370
    50
100
AcDbLine
 10
892.819462
 20
7360.61517
 30
0.0
 11
892.283563
 21
7358.61517
 31
0.0
  0
LINE
  5
105
102
{ACAD_REACTORS
330
340
102
}
330
1F
100
AcDbEntity
  8
LC-001-002-----0
  6
ByBlock
 62
     7
370
    50
100
AcDbLine
 10
837.819462
 20
7358.61517
 30
0.0
 11
890.319462
 21
7358.61517
 31
0.0
  0
LINE
  5
106
102
{ACAD_REACTORS
330
340
102
}
330
1F
100
AcDbEntity
  8
LC-001-002-----0
  6
ByBlock
 62
     7
370
    50
100
AcDbLine
 10
891.569462
 20
7466.91517
 30
0.0
 11
891.569462
 21
7468.61517
 31
0.0
  0
LINE
  5
107
102
{ACAD_REACTORS
330
340
102
}
330
1F
100
AcDbEntity
  8
LC-001-002-----0
  6
ByBlock
 62
     7
370
    50
100
AcDbLine
 10
782.819462
 20
7360.61517
 30
0.0
 11
783.35536
 21
7358.61517
 31
0.0
  0
LINE
  5
108
102
{ACAD_REACTORS
330
340
102
}
330
1F
100
AcDbEntity
  8
LC-001-002-----0
  6
ByBlock
 62
     7
370
    50
100
AcDbLine
 10
785.319462
 20
7463.61517
 30
0.0
 11
785.319462
 21
7358.61517
 31
0.0
  0
LINE
  5
109
102
{ACAD_REACTORS
330
340
102
}
330
1F
100
AcDbEntity
  8
LC-001-002-----0
  6
ByBlock
 62
     7
370
    50
100
AcDbLine
 10
784.069462
 20
7466.91517
 30
0.0
 11
784.069462
 21
7468.61517
 31
0.0
  0
LINE
  5
10A
102
{ACAD_REACTORS
330
340
102
}
330
1F
100
AcDbEntity
  8
LC-001-002-----0
  6
ByBlock
 62
     7
370
    50
100
AcDbLine
 10
890.319462
 20
7463.61517
 30
0.0
 11
889.569462
 21
7463.61517
 31
0.0
  0
LINE
  5
10B
102
{ACAD_REACTORS
330
340
102
}
330
1F
100
AcDbEntity
  8
LC-001-002-----0
  6
ByBlock
 62
     7
370
    50
100
AcDbLine
 10
785.319462
 20
7463.61517
 30
0.0
 11
785.819462
 21
7463.61517
 31
0.0
  0
LINE
  5
10C
102
{ACAD_REACTORS
330
340
102
}
330
1F
100
AcDbEntity
  8
LC-001-002-----0
  6
ByBlock
 62
     7
370
    50
100
AcDbLine
 10
783.35536
 20
7358.61517
 30
0.0
 11
785.319462
 21
7358.61517
 31
0.0
  0
LINE
  5
10D
102
{ACAD_REACTORS
330
340
102
}
330
1F
100
AcDbEntity
  8
LC-001-002-----0
  6
ByBlock
 62
     7
370
    50
100
AcDbLine
 10
782.819462
 20
7468.61517
 30
0.0
 11
782.819462
 21
7360.61517
 31
0.0
  0
LINE
  5
10E
102
{ACAD_REACTORS
330
340
102
}
330
1F
100
AcDbEntity
  8
LC-001-002-----0
  6
ByBlock
 62
     7
370
    50
100
AcDbLine
 10
890.319462
 20
7466.61517
 30
0.0
 11
889.819462
 21
7466.11517
 31
0.0
  0
LINE
  5
10F
102
{ACAD_REACTORS
330
340
102
}
330
1F
100
AcDbEntity
  8
LC-001-002-----0
  6
ByBlock
 62
     7
370
    50
100
AcDbLine
 10
892.283563
 20
7358.61517
 30
0.0
 11
890.319462
 21
7358.61517
 31
0.0
  0
LINE
  5
110
102
{ACAD_REACTORS
330
340
102
}
330
1F
100
AcDbEntity
  8
LC-001-002-----0
  6
ByBlock
 62
     7
370
    50
100
AcDbLine
 10
892.819462
 20
7468.61517
 30
0.0
 11
892.819462
 21
7360.61517
 31
0.0
  0
LINE
  5
111
102
{ACAD_REACTORS
330
340
102
}
330
1F
100
AcDbEntity
  8
LC-001-002-----0
  6
ByBlock
 62
     7
370
    50
100
AcDbLine
 10
785.319462
 20
7466.61517
 30
0.0
 11
785.819462
 21
7466.11517
 31
0.0
  0
LINE
  5
112
102
{ACAD_REACTORS
330
340
102
}
330
1F
100
AcDbEntity
  8
LC-001-002-----0
  6
ByBlock
 62
     7
370
    50
100
AcDbLine
 10
890.319462
 20
7466.61517
 30
0.0
 11
891.269462
 21
7466.61517
 31
0.0
  0
LINE
  5
113
102
{ACAD_REACTORS
330
340
102
}
330
1F
100
AcDbEntity
  8
LC-001-002-----0
  6
ByBlock
 62
     7
370
    50
100
AcDbLine
 10
782.819462
 20
7468.61517
 30
0.0
 11
784.069462
 21
7468.61517
 31
0.0
  0
ARC
  5
114
102
{ACAD_REACTORS
330
340
102
}
330
1F
100
AcDbEntity
  8
LC-002-002-RND-0
 62
     7
370
    50
100
AcDbCircle
 10
891.269462
 20
7466.91517
 30
0.0
 40
0.3000000000001819
100
AcDbArc
 50
270.0
 51
0.0
  0
ARC
  5
115
102
{ACAD_REACTORS
330
340
102
}
330
1F
100
AcDbEntity
  8
LC-002-002-RND-0
 62
     7
370
    50
100
AcDbCircle
 10
784.369462
 20
7466.91517
 30
0.0
 40
0.3000000000000682
100
AcDbArc
 50
180.0
 51
270.0
  0
LINE
  5
116
102
{ACAD_REACTORS
330
340
102
}
330
1F
100
AcDbEntity
  8
LC-001-002-----0
  6
ByBlock
 62
     7
370
    50
100
AcDbLine
 10
785.819462
 20
7466.11517
 30
0.0
 11
785.819462
 21
7463.61517
 31
0.0
  0
LINE
  5
117
102
{ACAD_REACTORS
330
340
102
}
330
1F
100
AcDbEntity
  8
LC-001-002-----0
  6
ByBlock
 62
     7
370
    50
100
AcDbLine
 10
889.819462
 20
7466.11517
 30
0.0
 11
889.819462
 21
7463.61517
 31
0.0
  0
LINE
  5
118
102
{ACAD_REACTORS
330
340
102
}
330
1F
100
AcDbEntity
  8
LC-001-002-----0
  6
ByBlock
 62
     7
370
    50
100
AcDbLine
 10
890.319462
 20
7466.61517
 30
0.0
 11
889.819462
 21
7466.11517
 31
0.0
  0
INSERT
  5
144
102
{ACAD_REACTORS
330
340
102
}
330
1F
100
AcDbEntity
  8
LC-003-005-----0
 62
     7
370
    25
100
AcDbBlockReference
  2
*X49
 10
0.0
 20
0.0
 30
0.0
  0
LINE
  5
145
102
{ACAD_REACTORS
330
340
102
}
330
1F
100
AcDbEntity
  8
LC-001-002-----0
  6
ByBlock
 62
     7
370
    50
100
AcDbLine
 10
785.319462
 20
7466.61517
 30
0.0
 11
784.369462
 21
7466.61517
 31
0.0
  0
LINE
  5
146
102
{ACAD_REACTORS
330
340
102
}
330
1F
100
AcDbEntity
  8
LC-001-002-----0
  6
ByBlock
 62
     7
370
    50
100
AcDbLine
 10
891.569462
 20
7468.61517
 30
0.0
 11
892.819462
 21
7468.61517
 31
0.0
  0
INSERT
  5
172
102
{ACAD_REACTORS
330
340
102
}
330
1F
100
AcDbEntity
  8
LC-003-005-----0
 62
     7
370
    25
100
AcDbBlockReference
  2
*X510
 10
0.0
 20
0.0
 30
0.0
  0
ARC
  5
173
102
{ACAD_REACTORS
330
33C
102
}
330
1F
100
AcDbEntity
  8
LC-001-002-----0
  6
ByBlock
 62
     7
370
    50
100
AcDbCircle
 10
765.319362
 20
7481.115166
 30
0.0
 40
1.999900000000139
100
AcDbArc
 50
0.0
 51
183.376835
  0
LINE
  5
174
102
{ACAD_REACTORS
330
33C
102
}
330
1F
100
AcDbEntity
  8
LC-001-002-----0
  6
ByBlock
 62
     7
370
    50
100
AcDbLine
 10
782.078281
 20
7472.566686
 30
0.0
 11
768.801924
 21
7476.124075
 31
0.0
  0
LINE
  5
175
102
{ACAD_REACTORS
330
33C
102
}
330
1F
100
AcDbEntity
  8
LC-001-002-----0
  6
ByBlock
 62
     7
370
    50
100
AcDbLine
 10
782.3371
 20
7473.532612
 30
0.0
 11
769.060643
 21
7477.090028
 31
0.0
  0
ARC
  5
176
102
{ACAD_REACTORS
330
33C
102
}
330
1F
100
AcDbEntity
  8
LC-002-002-RND-0
 62
     7
370
    50
100
AcDbCircle
 10
769.319562
 20
7478.055927
 30
0.0
 40
2.0
100
AcDbArc
 50
180.0
 51
255.0
  0
ARC
  5
177
102
{ACAD_REACTORS
330
33C
102
}
330
1F
100
AcDbEntity
  8
LC-002-002-RND-0
 62
     7
370
    50
100
AcDbCircle
 10
769.319462
 20
7478.055954
 30
0.0
 40
1.0
100
AcDbArc
 50
180.0
 51
255.0
  0
LINE
  5
178
102
{ACAD_REACTORS
330
33C
102
}
330
1F
100
AcDbEntity
  8
LC-001-002-----0
  6
ByBlock
 62
     7
370
    50
100
AcDbLine
 10
787.419462
 20
7462.912381
 30
0.0
 11
837.819462
 21
7462.912381
 31
0.0
  0
ARC
  5
179
102
{ACAD_REACTORS
330
33C
102
}
330
1F
100
AcDbEntity
  8
LC-002-002-RND-0
 62
     7
370
    50
100
AcDbCircle
 10
768.819462
 20
7479.115066
 30
0.0
 40
0.5
100
AcDbArc
 50
180.0
 51
270.0
  0
ARC
  5
17A
102
{ACAD_REACTORS
330
33C
102
}
330
1F
100
AcDbEntity
  8
LC-002-002-RND-0
 62
     7
370
    50
100
AcDbCircle
 10
781.819462
 20
7471.60076
 30
0.0
 40
1.0
100
AcDbArc
 50
0.0
 51
75.0
  0
ARC
  5
17B
102
{ACAD_REACTORS
330
33C
102
}
330
1F
100
AcDbEntity
  8
LC-002-002-RND-0
 62
     7
370
    50
100
AcDbCircle
 10
781.819462
 20
7471.60076
 30
0.0
 40
1.999999999999886
100
AcDbArc
 50
0.0
 51
75.0
  0
LINE
  5
17C
102
{ACAD_REACTORS
330
33C
102
}
330
1F
100
AcDbEntity
  8
LC-004-003-----0
 62
     7
370
    25
100
AcDbLine
 10
783.819462
 20
7473.109862
 30
0.0
 11
837.819462
 21
7473.109862
 31
0.0
  0
ARC
  5
17D
102
{ACAD_REACTORS
330
33C
102
}
330
1F
100
AcDbEntity
  8
LC-001-002-----0
  6
ByBlock
 62
     7
370
    50
100
AcDbCircle
 10
910.319562
 20
7481.115166
 30
0.0
 40
1.999899999999792
100
AcDbArc
 50
356.623165
 51
180.0
  0
LINE
  5
17E
102
{ACAD_REACTORS
330
33C
102
}
330
1F
100
AcDbEntity
  8
LC-001-002-----0
  6
ByBlock
 62
     7
370
    50
100
AcDbLine
 10
893.560643
 20
7472.566686
 30
0.0
 11
906.837
 21
7476.124075
 31
0.0
  0
LINE
  5
17F
102
{ACAD_REACTORS
330
33C
102
}
330
1F
100
AcDbEntity
  8
LC-001-002-----0
  6
ByBlock
 62
     7
370
    50
100
AcDbLine
 10
893.301824
 20
7473.532612
 30
0.0
 11
906.578281
 21
7477.090028
 31
0.0
  0
ARC
  5
180
102
{ACAD_REACTORS
330
33C
102
}
330
1F
100
AcDbEntity
  8
LC-002-002-RND-0
 62
     7
370
    50
100
AcDbCircle
 10
906.319362
 20
7478.055927
 30
0.0
 40
2.000000000000091
100
AcDbArc
 50
285.0
 51
0.0
  0
LINE
  5
181
102
{ACAD_REACTORS
330
33C
102
}
330
1F
100
AcDbEntity
  8
LC-001-002-----0
  6
ByBlock
 62
     7
370
    50
100
AcDbLine
 10
787.782937
 20
7459.957086
 30
0.0
 11
837.819462
 21
7459.957086
 31
0.0
  0
ARC
  5
182
102
{ACAD_REACTORS
330
33C
102
}
330
1F
100
AcDbEntity
  8
LC-002-002-RND-0
 62
     7
370
    50
100
AcDbCircle
 10
906.319462
 20
7478.055954
 30
0.0
 40
1.00000000000003
100
AcDbArc
 50
285.0
 51
0.0
  0
LINE
  5
183
102
{ACAD_REACTORS
330
33C
102
}
330
1F
100
AcDbEntity
  8
LC-001-002-----0
  6
ByBlock
 62
     7
370
    50
100
AcDbLine
 10
888.219462
 20
7462.912381
 30
0.0
 11
837.819462
 21
7462.912381
 31
0.0
  0
ARC
  5
184
102
{ACAD_REACTORS
330
33C
102
}
330
1F
100
AcDbEntity
  8
LC-002-002-RND-0
 62
     7
370
    50
100
AcDbCircle
 10
906.819462
 20
7479.115066
 30
0.0
 40
0.5
100
AcDbArc
 50
270.0
 51
0.0
  0
LINE
  5
185
102
{ACAD_REACTORS
330
33C
102
}
330
1F
100
AcDbEntity
  8
LC-001-002-----0
  6
ByBlock
 62
     7
370
    50
100
AcDbLine
 10
786.843244
 20
7459.615066
 30
0.0
 11
837.819462
 21
7459.615066
 31
0.0
  0
ARC
  5
186
102
{ACAD_REACTORS
330
33C
102
}
330
1F
100
AcDbEntity
  8
LC-002-002-RND-0
 62
     7
370
    50
100
AcDbCircle
 10
893.819462
 20
7471.60076
 30
0.0
 40
1.00000000000006
100
AcDbArc
 50
105.0
 51
180.0
  0
LINE
  5
187
102
{ACAD_REACTORS
330
33C
102
}
330
1F
100
AcDbEntity
  8
LC-001-002-----0
  6
ByBlock
 62
     7
370
    50
100
AcDbLine
 10
767.319462
 20
7479.115066
 30
0.0
 11
767.319462
 21
7481.115166
 31
0.0
  0
ARC
  5
188
102
{ACAD_REACTORS
330
33C
102
}
330
1F
100
AcDbEntity
  8
LC-002-002-RND-0
 62
     7
370
    50
100
AcDbCircle
 10
893.819462
 20
7471.60076
 30
0.0
 40
2.000000000000091
100
AcDbArc
 50
105.0
 51
180.0
  0
LINE
  5
189
102
{ACAD_REACTORS
330
33C
102
}
330
1F
100
AcDbEntity
  8
LC-004-003-----0
 62
     7
370
    25
100
AcDbLine
 10
891.819462
 20
7473.109862
 30
0.0
 11
837.819462
 21
7473.109862
 31
0.0
  0
ARC
  5
18A
102
{ACAD_REACTORS
330
33C
102
}
330
1F
100
AcDbEntity
  8
LC-002-002-RND-0
 62
     7
370
    50
100
AcDbCircle
 10
765.319462
 20
7481.115066
 30
0.0
 40
3.000000000000341
100
AcDbArc
 50
0.0
 51
176.622493
  0
LINE
  5
18B
102
{ACAD_REACTORS
330
33C
102
}
330
1F
100
AcDbEntity
  8
LC-001-002-----0
  6
ByBlock
 62
     7
370
    50
100
AcDbLine
 10
763.322934
 20
7479.243336
 30
0.0
 11
763.322934
 21
7480.997366
 31
0.0
  0
LINE
  5
18C
102
{ACAD_REACTORS
330
33C
102
}
330
1F
100
AcDbEntity
  8
LC-001-002-----0
  6
ByBlock
 62
     7
370
    50
100
AcDbLine
 10
887.855987
 20
7459.957086
 30
0.0
 11
837.819462
 21
7459.957086
 31
0.0
  0
LINE
  5
18D
102
{ACAD_REACTORS
330
33C
102
}
330
1F
100
AcDbEntity
  8
LC-001-002-----0
  6
ByBlock
 62
     7
370
    50
100
AcDbLine
 10
888.79568
 20
7459.615066
 30
0.0
 11
837.819462
 21
7459.615066
 31
0.0
  0
LINE
  5
18E
102
{ACAD_REACTORS
330
33C
102
}
330
1F
100
AcDbEntity
  8
LC-001-002-----0
  6
ByBlock
 62
     7
370
    50
100
AcDbLine
 10
908.319462
 20
7479.115066
 30
0.0
 11
908.319462
 21
7481.115166
 31
0.0
  0
LINE
  5
18F
102
{ACAD_REACTORS
330
33C
102
}
330
1F
100
AcDbEntity
  8
LC-001-002-----0
  6
ByBlock
 62
     7
370
    50
100
AcDbLine
 10
837.819462
 20
7484.115066
 30
0.0
 11
765.319462
 21
7484.115066
 31
0.0
  0
ARC
  5
190
102
{ACAD_REACTORS
330
33C
102
}
330
1F
100
AcDbEntity
  8
LC-002-002-RND-0
 62
     7
370
    50
100
AcDbCircle
 10
910.319462
 20
7481.115066
 30
0.0
 40
2.999999999999992
100
AcDbArc
 50
3.377507
 51
180.0
  0
LINE
  5
191
102
{ACAD_REACTORS
330
33C
102
}
330
1F
100
AcDbEntity
  8
LC-001-002-----0
  6
ByBlock
 62
     7
370
    50
100
AcDbLine
 10
912.315989
 20
7479.243336
 30
0.0
 11
912.315989
 21
7480.997366
 31
0.0
  0
LINE
  5
192
102
{ACAD_REACTORS
330
33C
102
}
330
1F
100
AcDbEntity
  8
LC-001-002-----0
  6
ByBlock
 62
     7
370
    50
100
AcDbLine
 10
837.819462
 20
7484.115066
 30
0.0
 11
910.319462
 21
7484.115066
 31
0.0
  0
LINE
  5
193
102
{ACAD_REACTORS
330
33C
102
}
330
1F
100
AcDbEntity
  8
LC-001-002-----0
  6
ByBlock
 62
     7
370
    50
100
AcDbLine
 10
906.819462
 20
7478.615066
 30
0.0
 11
905.819462
 21
7478.615066
 31
0.0
  0
LINE
  5
194
102
{ACAD_REACTORS
330
33C
102
}
330
1F
100
AcDbEntity
  8
LC-001-002-----0
  6
ByBlock
 62
     7
370
    50
100
AcDbLine
 10
907.319462
 20
7479.115066
 30
0.0
 11
907.319462
 21
7481.115066
 31
0.0
  0
ARC
  5
195
102
{ACAD_REACTORS
330
33C
102
}
330
1F
100
AcDbEntity
  8
LC-001-002-----0
  6
ByBlock
 62
     7
370
    50
100
AcDbCircle
 10
918.319462
 20
7479.597573
 30
0.0
 40
6.013914195052041
100
AcDbArc
 50
183.376835
 51
228.189685
  0
LINE
  5
196
102
{ACAD_REACTORS
330
33C
102
}
330
1F
100
AcDbEntity
  8
LC-001-002-----0
  6
ByBlock
 62
     7
370
    50
100
AcDbLine
 10
768.819462
 20
7478.615066
 30
0.0
 11
769.819462
 21
7478.615066
 31
0.0
  0
LINE
  5
197
102
{ACAD_REACTORS
330
33C
102
}
330
1F
100
AcDbEntity
  8
LC-001-002-----0
  6
ByBlock
 62
     7
370
    50
100
AcDbLine
 10
907.215362
 20
7477.611698
 30
0.0
 11
837.819462
 21
7477.611698
 31
0.0
  0
LINE
  5
198
102
{ACAD_REACTORS
330
33C
102
}
330
1F
100
AcDbEntity
  8
LC-001-002-----0
  6
ByBlock
 62
     7
370
    50
100
AcDbLine
 10
914.310186
 20
7475.115066
 30
0.0
 11
903.071325
 21
7475.115066
 31
0.0
  0
LINE
  5
199
102
{ACAD_REACTORS
330
33C
102
}
330
1F
100
AcDbEntity
  8
LC-001-002-----0
  6
ByBlock
 62
     7
370
    50
100
AcDbLine
 10
908.319362
 20
7478.055927
 30
0.0
 11
908.319362
 21
7481.115166
 31
0.0
  0
LINE
  5
19A
102
{ACAD_REACTORS
330
33C
102
}
330
1F
100
AcDbEntity
  8
LC-001-002-----0
  6
ByBlock
 62
     7
370
    50
100
AcDbLine
 10
907.319462
 20
7478.055954
 30
0.0
 11
907.319462
 21
7479.115066
 31
0.0
  0
LINE
  5
19B
102
{ACAD_REACTORS
330
33C
102
}
330
1F
100
AcDbEntity
  8
LC-001-002-----0
  6
ByBlock
 62
     7
370
    50
100
AcDbLine
 10
905.819562
 20
7478.615066
 30
0.0
 11
891.319462
 21
7478.615066
 31
0.0
  0
LINE
  5
19C
102
{ACAD_REACTORS
330
33C
102
}
330
1F
100
AcDbEntity
  8
LC-001-002-----0
  6
ByBlock
 62
     7
370
    50
100
AcDbLine
 10
889.819462
 20
7478.615066
 30
0.0
 11
889.819462
 21
7478.815066
 31
0.0
  0
LINE
  5
19D
102
{ACAD_REACTORS
330
33C
102
}
330
1F
100
AcDbEntity
  8
LC-001-002-----0
  6
ByBlock
 62
     7
370
    50
100
AcDbLine
 10
768.319462
 20
7479.115066
 30
0.0
 11
768.319462
 21
7481.115066
 31
0.0
  0
LINE
  5
19E
102
{ACAD_REACTORS
330
33C
102
}
330
1F
100
AcDbEntity
  8
LC-001-002-----0
  6
ByBlock
 62
     7
370
    50
100
AcDbLine
 10
903.819462
 20
7478.615066
 30
0.0
 11
903.819462
 21
7478.815066
 31
0.0
  0
LINE
  5
19F
102
{ACAD_REACTORS
330
33C
102
}
330
1F
100
AcDbEntity
  8
LC-001-002-----0
  6
ByBlock
 62
     7
370
    50
100
AcDbLine
 10
903.519462
 20
7479.115066
 30
0.0
 11
890.119462
 21
7479.115066
 31
0.0
  0
ARC
  5
1A0
102
{ACAD_REACTORS
330
33C
102
}
330
1F
100
AcDbEntity
  8
LC-002-002-RND-0
 62
     7
370
    50
100
AcDbCircle
 10
890.119462
 20
7478.815066
 30
0.0
 40
0.3000000000001819
100
AcDbArc
 50
90.0
 51
180.0
  0
ARC
  5
1A1
102
{ACAD_REACTORS
330
33C
102
}
330
1F
100
AcDbEntity
  8
LC-002-002-RND-0
 62
     7
370
    50
100
AcDbCircle
 10
903.519462
 20
7478.815066
 30
0.0
 40
0.3000000000000682
100
AcDbArc
 50
0.0
 51
90.0
  0
LINE
  5
1A2
102
{ACAD_REACTORS
330
33C
102
}
330
1F
100
AcDbEntity
  8
LC-001-002-----0
  6
ByBlock
 62
     7
370
    50
100
AcDbLine
 10
863.452697
 20
7478.615066
 30
0.0
 11
891.319462
 21
7478.615066
 31
0.0
  0
ARC
  5
1A3
102
{ACAD_REACTORS
330
33C
102
}
330
1F
100
AcDbEntity
  8
LC-002-002-RND-0
 62
     7
370
    50
100
AcDbCircle
 10
858.53769
 20
7479.611698
 30
0.0
 40
2.0
100
AcDbArc
 50
270.0
 51
282.646496
  0
ARC
  5
1A4
102
{ACAD_REACTORS
330
33C
102
}
330
1F
100
AcDbEntity
  8
LC-002-002-RND-0
 62
     7
370
    50
100
AcDbCircle
 10
863.452697
 20
7476.615066
 30
0.0
 40
2.0
100
AcDbArc
 50
90.0
 51
102.646496
  0
LINE
  5
1A5
102
{ACAD_REACTORS
330
33C
102
}
330
1F
100
AcDbEntity
  8
LC-001-002-----0
  6
ByBlock
 62
     7
370
    50
100
AcDbLine
 10
863.014827
 20
7478.566545
 30
0.0
 11
858.97556
 21
7477.660219
 31
0.0
  0
LINE
  5
1A6
102
{ACAD_REACTORS
330
33C
102
}
330
1F
100
AcDbEntity
  8
LC-001-002-----0
  6
ByBlock
 62
     7
370
    50
100
AcDbLine
 10
888.719462
 20
7469.61517
 30
0.0
 11
837.819462
 21
7469.61517
 31
0.0
  0
LINE
  5
1A7
102
{ACAD_REACTORS
330
33C
102
}
330
1F
100
AcDbEntity
  8
LC-001-002-----0
  6
ByBlock
 62
     7
370
    50
100
AcDbLine
 10
891.819462
 20
7469.61517
 30
0.0
 11
888.719462
 21
7469.61517
 31
0.0
  0
LINE
  5
1A8
102
{ACAD_REACTORS
330
33C
102
}
330
1F
100
AcDbEntity
  8
LC-001-002-----0
  6
ByBlock
 62
     7
370
    50
100
AcDbLine
 10
889.219462
 20
7468.61517
 30
0.0
 11
892.319462
 21
7468.61517
 31
0.0
  0
LINE
  5
1A9
102
{ACAD_REACTORS
330
33C
102
}
330
1F
100
AcDbEntity
  8
LC-001-002-----0
  6
ByBlock
 62
     7
370
    50
100
AcDbLine
 10
891.819462
 20
7469.61517
 30
0.0
 11
891.819462
 21
7471.60076
 31
0.0
  0
LINE
  5
1AA
102
{ACAD_REACTORS
330
33C
102
}
330
1F
100
AcDbEntity
  8
LC-001-002-----0
  6
ByBlock
 62
     7
370
    50
100
AcDbLine
 10
892.819462
 20
7469.11517
 30
0.0
 11
892.819462
 21
7471.60076
 31
0.0
  0
ARC
  5
1AB
102
{ACAD_REACTORS
330
33C
102
}
330
1F
100
AcDbEntity
  8
LC-002-002-RND-0
 62
     7
370
    50
100
AcDbCircle
 10
892.319462
 20
7469.11517
 30
0.0
 40
0.5
100
AcDbArc
 50
270.0
 51
0.0
  0
ARC
  5
1AC
102
{ACAD_REACTORS
330
33C
102
}
330
1F
100
AcDbEntity
  8
LC-002-002-RND-0
 62
     7
370
    50
100
AcDbCircle
 10
888.719462
 20
7469.11517
 30
0.0
 40
0.5
100
AcDbArc
 50
90.0
 51
180.0
  0
ARC
  5
1AD
102
{ACAD_REACTORS
330
33C
102
}
330
1F
100
AcDbEntity
  8
LC-001-002-----0
  6
ByBlock
 62
     7
370
    50
100
AcDbCircle
 10
918.319462
 20
7479.597573
 30
0.0
 40
5.013919912252943
100
AcDbArc
 50
183.377507
 51
217.081467
  0
LINE
  5
1AE
102
{ACAD_REACTORS
330
33C
102
}
330
1F
100
AcDbEntity
  8
LC-001-002-----0
  6
ByBlock
 62
     7
370
    50
100
AcDbLine
 10
914.319462
 20
7476.57443
 30
0.0
 11
914.319462
 21
7475.125437
 31
0.0
  0
LINE
  5
1AF
102
{ACAD_REACTORS
330
33C
102
}
330
1F
100
AcDbEntity
  8
LC-001-002-----0
  6
ByBlock
 62
     7
370
    50
100
AcDbLine
 10
913.314251
 20
7481.291809
 30
0.0
 11
913.314251
 21
7479.30218
 31
0.0
  0
LINE
  5
1B0
102
{ACAD_REACTORS
330
33C
102
}
330
1F
100
AcDbEntity
  8
LC-001-002-----0
  6
ByBlock
 62
     7
370
    50
100
AcDbLine
 10
888.219462
 20
7462.912381
 30
0.0
 11
888.219462
 21
7469.11517
 31
0.0
  0
LINE
  5
1B1
102
{ACAD_REACTORS
330
33C
102
}
330
1F
100
AcDbEntity
  8
LC-001-002-----0
  6
ByBlock
 62
     7
370
    50
100
AcDbLine
 10
889.219462
 20
7463.792735
 30
0.0
 11
889.219462
 21
7468.61517
 31
0.0
  0
LINE
  5
1B2
102
{ACAD_REACTORS
330
33C
102
}
330
1F
100
AcDbEntity
  8
LC-001-002-----0
  6
ByBlock
 62
     7
370
    50
100
AcDbLine
 10
888.503182
 20
7462.912381
 30
0.0
 11
888.219462
 21
7462.912381
 31
0.0
  0
ARC
  5
1B3
102
{ACAD_REACTORS
330
33C
102
}
330
1F
100
AcDbEntity
  8
LC-001-002-----0
  6
ByBlock
 62
     7
370
    50
100
AcDbCircle
 10
757.319462
 20
7479.597573
 30
0.0
 40
6.013914195052355
100
AcDbArc
 50
311.810315
 51
356.623165
  0
LINE
  5
1B4
102
{ACAD_REACTORS
330
33C
102
}
330
1F
100
AcDbEntity
  8
LC-001-002-----0
  6
ByBlock
 62
     7
370
    50
100
AcDbLine
 10
768.423562
 20
7477.611698
 30
0.0
 11
837.819462
 21
7477.611698
 31
0.0
  0
LINE
  5
1B5
102
{ACAD_REACTORS
330
33C
102
}
330
1F
100
AcDbEntity
  8
LC-001-002-----0
  6
ByBlock
 62
     7
370
    50
100
AcDbLine
 10
888.78509
 20
7462.509775
 30
0.0
 11
887.855987
 21
7459.957086
 31
0.0
  0
ARC
  5
1B6
102
{ACAD_REACTORS
330
33C
102
}
330
1F
100
AcDbEntity
  8
LC-002-002-RND-0
 62
     7
370
    50
100
AcDbCircle
 10
888.503182
 20
7462.612381
 30
0.0
 40
0.3000000000000271
100
AcDbArc
 50
340.0
 51
90.0
  0
LINE
  5
1B7
102
{ACAD_REACTORS
330
33C
102
}
330
1F
100
AcDbEntity
  8
LC-001-002-----0
  6
ByBlock
 62
     7
370
    50
100
AcDbLine
 10
761.328738
 20
7475.115066
 30
0.0
 11
772.567598
 21
7475.115066
 31
0.0
  0
LINE
  5
1B8
102
{ACAD_REACTORS
330
33C
102
}
330
1F
100
AcDbEntity
  8
LC-001-002-----0
  6
ByBlock
 62
     7
370
    50
100
AcDbLine
 10
887.855987
 20
7459.957086
 30
0.0
 11
888.79568
 21
7459.615066
 31
0.0
  0
LINE
  5
1B9
102
{ACAD_REACTORS
330
33C
102
}
330
1F
100
AcDbEntity
  8
LC-001-002-----0
  6
ByBlock
 62
     7
370
    50
100
AcDbLine
 10
889.812457
 20
7462.408638
 30
0.0
 11
888.79568
 21
7459.615066
 31
0.0
  0
LINE
  5
1BA
102
{ACAD_REACTORS
330
33C
102
}
330
1F
100
AcDbEntity
  8
LC-001-002-----0
  6
ByBlock
 62
     7
370
    50
100
AcDbLine
 10
767.319562
 20
7478.055927
 30
0.0
 11
767.319562
 21
7481.115166
 31
0.0
  0
LINE
  5
1BB
102
{ACAD_REACTORS
330
33C
102
}
330
1F
100
AcDbEntity
  8
LC-001-002-----0
  6
ByBlock
 62
     7
370
    50
100
AcDbLine
 10
768.319462
 20
7478.055954
 30
0.0
 11
768.319462
 21
7479.115066
 31
0.0
  0
ARC
  5
1BC
102
{ACAD_REACTORS
330
33C
102
}
330
1F
100
AcDbEntity
  8
LC-001-002-----0
  6
ByBlock
 62
     7
370
    50
100
AcDbCircle
 10
888.778795
 20
7462.78486
 30
0.0
 40
1.100000000000064
100
AcDbArc
 50
340.0
 51
66.383903
  0
INSERT
  5
1D0
330
1F
100
AcDbEntity
  8
LC-003-005-----0
 62
     7
370
    25
100
AcDbBlockReference
  2
*X611
 10
0.0
 20
0.0
 30
0.0
  0
LINE
  5
1D1
102
{ACAD_REACTORS
330
33C
102
}
330
1F
100
AcDbEntity
  8
LC-001-002-----0
  6
ByBlock
 62
     7
370
    50
100
AcDbLine
 10
769.819362
 20
7478.615066
 30
0.0
 11
784.319462
 21
7478.615066
 31
0.0
  0
LINE
  5
1D2
102
{ACAD_REACTORS
330
33C
102
}
330
1F
100
AcDbEntity
  8
LC-001-002-----0
  6
ByBlock
 62
     7
370
    50
100
AcDbLine
 10
785.819462
 20
7478.615066
 30
0.0
 11
785.819462
 21
7478.815066
 31
0.0
  0
LINE
  5
1D3
102
{ACAD_REACTORS
330
33C
102
}
330
1F
100
AcDbEntity
  8
LC-001-002-----0
  6
ByBlock
 62
     7
370
    50
100
AcDbLine
 10
771.819462
 20
7478.615066
 30
0.0
 11
771.819462
 21
7478.815066
 31
0.0
  0
LINE
  5
1D4
102
{ACAD_REACTORS
330
33C
102
}
330
1F
100
AcDbEntity
  8
LC-001-002-----0
  6
ByBlock
 62
     7
370
    50
100
AcDbLine
 10
772.119462
 20
7479.115066
 30
0.0
 11
785.519462
 21
7479.115066
 31
0.0
  0
ARC
  5
1D5
102
{ACAD_REACTORS
330
33C
102
}
330
1F
100
AcDbEntity
  8
LC-002-002-RND-0
 62
     7
370
    50
100
AcDbCircle
 10
785.519462
 20
7478.815066
 30
0.0
 40
0.2999999999999545
100
AcDbArc
 50
0.0
 51
90.0
  0
ARC
  5
1D6
102
{ACAD_REACTORS
330
33C
102
}
330
1F
100
AcDbEntity
  8
LC-002-002-RND-0
 62
     7
370
    50
100
AcDbCircle
 10
772.119462
 20
7478.815066
 30
0.0
 40
0.3000000000001819
100
AcDbArc
 50
90.0
 51
180.0
  0
LINE
  5
1D7
102
{ACAD_REACTORS
330
33C
102
}
330
1F
100
AcDbEntity
  8
LC-001-002-----0
  6
ByBlock
 62
     7
370
    50
100
AcDbLine
 10
812.186227
 20
7478.615066
 30
0.0
 11
784.319462
 21
7478.615066
 31
0.0
  0
INSERT
  5
1ED
330
1F
100
AcDbEntity
  8
LC-003-005-----0
 62
     7
370
    25
100
AcDbBlockReference
  2
*X712
 10
0.0
 20
0.0
 30
0.0
  0
ARC
  5
1EE
102
{ACAD_REACTORS
330
33C
102
}
330
1F
100
AcDbEntity
  8
LC-002-002-RND-0
 62
     7
370
    50
100
AcDbCircle
 10
817.101233
 20
7479.611698
 30
0.0
 40
1.999999999999626
100
AcDbArc
 50
257.353504
 51
270.0
  0
ARC
  5
1EF
102
{ACAD_REACTORS
330
33C
102
}
330
1F
100
AcDbEntity
  8
LC-002-002-RND-0
 62
     7
370
    50
100
AcDbCircle
 10
812.186227
 20
7476.615066
 30
0.0
 40
1.999999999999601
100
AcDbArc
 50
77.353504
 51
90.0
  0
LINE
  5
1F0
102
{ACAD_REACTORS
330
33C
102
}
330
1F
100
AcDbEntity
  8
LC-001-002-----0
  6
ByBlock
 62
     7
370
    50
100
AcDbLine
 10
812.624097
 20
7478.566545
 30
0.0
 11
816.663363
 21
7477.660219
 31
0.0
  0
LINE
  5
1F1
102
{ACAD_REACTORS
330
33C
102
}
330
1F
100
AcDbEntity
  8
LC-001-002-----0
  6
ByBlock
 62
     7
370
    50
100
AcDbLine
 10
786.919462
 20
7469.61517
 30
0.0
 11
837.819462
 21
7469.61517
 31
0.0
  0
LINE
  5
1F2
102
{ACAD_REACTORS
330
33C
102
}
330
1F
100
AcDbEntity
  8
LC-001-002-----0
  6
ByBlock
 62
     7
370
    50
100
AcDbLine
 10
783.819462
 20
7469.61517
 30
0.0
 11
786.919462
 21
7469.61517
 31
0.0
  0
LINE
  5
1F3
102
{ACAD_REACTORS
330
33C
102
}
330
1F
100
AcDbEntity
  8
LC-001-002-----0
  6
ByBlock
 62
     7
370
    50
100
AcDbLine
 10
786.419462
 20
7468.61517
 30
0.0
 11
783.319462
 21
7468.61517
 31
0.0
  0
LINE
  5
1F4
102
{ACAD_REACTORS
330
33C
102
}
330
1F
100
AcDbEntity
  8
LC-001-002-----0
  6
ByBlock
 62
     7
370
    50
100
AcDbLine
 10
783.819462
 20
7469.61517
 30
0.0
 11
783.819462
 21
7471.60076
 31
0.0
  0
LINE
  5
1F5
102
{ACAD_REACTORS
330
33C
102
}
330
1F
100
AcDbEntity
  8
LC-001-002-----0
  6
ByBlock
 62
     7
370
    50
100
AcDbLine
 10
782.819462
 20
7469.11517
 30
0.0
 11
782.819462
 21
7471.60076
 31
0.0
  0
ARC
  5
1F6
102
{ACAD_REACTORS
330
33C
102
}
330
1F
100
AcDbEntity
  8
LC-002-002-RND-0
 62
     7
370
    50
100
AcDbCircle
 10
783.319462
 20
7469.11517
 30
0.0
 40
0.5
100
AcDbArc
 50
180.0
 51
270.0
  0
ARC
  5
1F7
102
{ACAD_REACTORS
330
33C
102
}
330
1F
100
AcDbEntity
  8
LC-002-002-RND-0
 62
     7
370
    50
100
AcDbCircle
 10
786.919462
 20
7469.11517
 30
0.0
 40
0.5
100
AcDbArc
 50
0.0
 51
90.0
  0
ARC
  5
1F8
102
{ACAD_REACTORS
330
33C
102
}
330
1F
100
AcDbEntity
  8
LC-001-002-----0
  6
ByBlock
 62
     7
370
    50
100
AcDbCircle
 10
757.319462
 20
7479.597573
 30
0.0
 40
5.01391991225308
100
AcDbArc
 50
322.918533
 51
356.622493
  0
LINE
  5
1F9
102
{ACAD_REACTORS
330
33C
102
}
330
1F
100
AcDbEntity
  8
LC-001-002-----0
  6
ByBlock
 62
     7
370
    50
100
AcDbLine
 10
761.319462
 20
7476.57443
 30
0.0
 11
761.319462
 21
7475.125437
 31
0.0
  0
LINE
  5
1FA
102
{ACAD_REACTORS
330
33C
102
}
330
1F
100
AcDbEntity
  8
LC-001-002-----0
  6
ByBlock
 62
     7
370
    50
100
AcDbLine
 10
762.324673
 20
7481.291809
 30
0.0
 11
762.324673
 21
7479.30218
 31
0.0
  0
LINE
  5
1FB
102
{ACAD_REACTORS
330
33C
102
}
330
1F
100
AcDbEntity
  8
LC-001-002-----0
  6
ByBlock
 62
     7
370
    50
100
AcDbLine
 10
787.419462
 20
7462.912381
 30
0.0
 11
787.419462
 21
7469.11517
 31
0.0
  0
LINE
  5
1FC
102
{ACAD_REACTORS
330
33C
102
}
330
1F
100
AcDbEntity
  8
LC-001-002-----0
  6
ByBlock
 62
     7
370
    50
100
AcDbLine
 10
786.419462
 20
7463.792735
 30
0.0
 11
786.419462
 21
7468.61517
 31
0.0
  0
LINE
  5
1FD
102
{ACAD_REACTORS
330
33C
102
}
330
1F
100
AcDbEntity
  8
LC-001-002-----0
  6
ByBlock
 62
     7
370
    50
100
AcDbLine
 10
787.135742
 20
7462.912381
 30
0.0
 11
787.419462
 21
7462.912381
 31
0.0
  0
LINE
  5
1FE
102
{ACAD_REACTORS
330
33C
102
}
330
1F
100
AcDbEntity
  8
LC-001-002-----0
  6
ByBlock
 62
     7
370
    50
100
AcDbLine
 10
786.853834
 20
7462.509775
 30
0.0
 11
787.782937
 21
7459.957086
 31
0.0
  0
ARC
  5
1FF
102
{ACAD_REACTORS
330
33C
102
}
330
1F
100
AcDbEntity
  8
LC-002-002-RND-0
 62
     7
370
    50
100
AcDbCircle
 10
787.135742
 20
7462.612381
 30
0.0
 40
0.3000000000001819
100
AcDbArc
 50
90.0
 51
200.0
  0
LINE
  5
200
102
{ACAD_REACTORS
330
33C
102
}
330
1F
100
AcDbEntity
  8
LC-001-002-----0
  6
ByBlock
 62
     7
370
    50
100
AcDbLine
 10
787.782937
 20
7459.957086
 30
0.0
 11
786.843244
 21
7459.615066
 31
0.0
  0
LINE
  5
201
102
{ACAD_REACTORS
330
33C
102
}
330
1F
100
AcDbEntity
  8
LC-001-002-----0
  6
ByBlock
 62
     7
370
    50
100
AcDbLine
 10
785.826467
 20
7462.408638
 30
0.0
 11
786.843244
 21
7459.615066
 31
0.0
  0
ARC
  5
202
102
{ACAD_REACTORS
330
33C
102
}
330
1F
100
AcDbEntity
  8
LC-001-002-----0
  6
ByBlock
 62
     7
370
    50
100
AcDbCircle
 10
786.860129
 20
7462.78486
 30
0.0
 40
1.100000000000531
100
AcDbArc
 50
113.616097
 51
200.0
  0
LINE
  5
203
330
1F
100
AcDbEntity
  8
LC-001-002-----0
  6
ByBlock
 62
     7
370
    25
100
AcDbLine
 10
890.344462
 20
7372.61517
 30
0.0
 11
785.344462
 21
7372.61517
 31
0.0
  0
INSERT
  5
21F
330
1F
100
AcDbEntity
  8
LC-003-005-----0
 62
     7
370
    25
100
AcDbBlockReference
  2
*X813
 10
0.0
 20
0.0
 30
0.0
  0
INSERT
  5
23B
330
1F
100
AcDbEntity
  8
LC-003-005-----0
 62
     7
370
    25
100
AcDbBlockReference
  2
*X914
 10
0.0
 20
0.0
 30
0.0
  0
LINE
  5
23C
330
1F
100
AcDbEntity
  8
LC-001-002-----0
  6
ByBlock
 62
     7
370
    50
100
AcDbLine
 10
1106.819462
 20
7449.765183
 30
0.0
 11
1099.319462
 21
7449.765183
 31
0.0
  0
LINE
  5
23D
330
1F
100
AcDbEntity
  8
LC-001-002-----0
  6
ByBlock
 62
     7
370
    50
100
AcDbLine
 10
1039.319462
 20
7457.265183
 30
0.0
 11
1039.319462
 21
7449.765183
 31
0.0
  0
LINE
  5
23E
330
1F
100
AcDbEntity
  8
LC-001-002-----0
  6
ByBlock
 62
     7
370
    50
100
AcDbLine
 10
1031.819462
 20
7457.265183
 30
0.0
 11
1031.819462
 21
7449.765183
 31
0.0
  0
LINE
  5
23F
330
1F
100
AcDbEntity
  8
LC-001-002-----0
  6
ByBlock
 62
     7
370
    50
100
AcDbLine
 10
1039.319462
 20
7449.765183
 30
0.0
 11
1031.819462
 21
7449.765183
 31
0.0
  0
LINE
  5
240
330
1F
100
AcDbEntity
  8
LC-001-002-----0
  6
ByBlock
 62
     7
370
    50
100
AcDbLine
 10
1039.319462
 20
7457.265183
 30
0.0
 11
1031.819462
 21
7457.265183
 31
0.0
  0
LINE
  5
241
330
1F
100
AcDbEntity
  8
LC-001-002-----0
  6
ByBlock
 62
     7
370
    50
100
AcDbLine
 10
1031.819462
 20
7389.765183
 30
0.0
 11
1039.319462
 21
7389.765183
 31
0.0
  0
LINE
  5
242
330
1F
100
AcDbEntity
  8
LC-001-002-----0
  6
ByBlock
 62
     7
370
    50
100
AcDbLine
 10
1031.819462
 20
7382.265183
 30
0.0
 11
1039.319462
 21
7382.265183
 31
0.0
  0
LINE
  5
243
330
1F
100
AcDbEntity
  8
LC-001-002-----0
  6
ByBlock
 62
     7
370
    50
100
AcDbLine
 10
1106.819462
 20
7457.265183
 30
0.0
 11
1099.319462
 21
7457.265183
 31
0.0
  0
LINE
  5
244
330
1F
100
AcDbEntity
  8
LC-001-002-----0
  6
ByBlock
 62
     7
370
    50
100
AcDbLine
 10
1099.319462
 20
7449.765183
 30
0.0
 11
1099.319462
 21
7457.265183
 31
0.0
  0
LINE
  5
245
330
1F
100
AcDbEntity
  8
LC-001-002-----0
  6
ByBlock
 62
     7
370
    50
100
AcDbLine
 10
1106.819462
 20
7449.765183
 30
0.0
 11
1106.819462
 21
7457.265183
 31
0.0
  0
LINE
  5
246
330
1F
100
AcDbEntity
  8
LC-001-002-----0
  6
ByBlock
 62
     7
370
    50
100
AcDbLine
 10
1039.319462
 20
7389.765183
 30
0.0
 11
1039.319462
 21
7382.265183
 31
0.0
  0
LINE
  5
247
330
1F
100
AcDbEntity
  8
LC-001-002-----0
  6
ByBlock
 62
     7
370
    50
100
AcDbLine
 10
1031.819462
 20
7389.765183
 30
0.0
 11
1031.819462
 21
7382.265183
 31
0.0
  0
LINE
  5
248
330
1F
100
AcDbEntity
  8
LC-001-002-----0
  6
ByBlock
 62
     7
370
    50
100
AcDbLine
 10
1099.319462
 20
7382.265183
 30
0.0
 11
1099.319462
 21
7389.765183
 31
0.0
  0
LINE
  5
249
330
1F
100
AcDbEntity
  8
LC-001-002-----0
  6
ByBlock
 62
     7
370
    50
100
AcDbLine
 10
1106.819462
 20
7382.265183
 30
0.0
 11
1106.819462
 21
7389.765183
 31
0.0
  0
LINE
  5
24A
330
1F
100
AcDbEntity
  8
LC-001-002-----0
  6
ByBlock
 62
     7
370
    50
100
AcDbLine
 10
1099.319462
 20
7389.765183
 30
0.0
 11
1106.819462
 21
7389.765183
 31
0.0
  0
LINE
  5
24B
330
1F
100
AcDbEntity
  8
LC-001-002-----0
  6
ByBlock
 62
     7
370
    50
100
AcDbLine
 10
1099.319462
 20
7382.265183
 30
0.0
 11
1106.819462
 21
7382.265183
 31
0.0
  0
LINE
  5
24C
330
1F
100
AcDbEntity
  8
LC-001-002-----0
  6
ByBlock
 62
     7
370
    50
100
AcDbLine
 10
1066.319462
 20
7457.265183
 30
0.0
 11
1066.319462
 21
7449.765183
 31
0.0
  0
LINE
  5
24D
330
1F
100
AcDbEntity
  8
LC-001-002-----0
  6
ByBlock
 62
     7
370
    50
100
AcDbLine
 10
1058.819462
 20
7457.265183
 30
0.0
 11
1066.319462
 21
7457.265183
 31
0.0
  0
LINE
  5
24E
330
1F
100
AcDbEntity
  8
LC-001-002-----0
  6
ByBlock
 62
     7
370
    50
100
AcDbLine
 10
1058.819462
 20
7449.765183
 30
0.0
 11
1066.319462
 21
7449.765183
 31
0.0
  0
LINE
  5
24F
330
1F
100
AcDbEntity
  8
LC-001-002-----0
  6
ByBlock
 62
     7
370
    50
100
AcDbLine
 10
1058.819462
 20
7457.265183
 30
0.0
 11
1058.819462
 21
7449.765183
 31
0.0
  0
LINE
  5
250
330
1F
100
AcDbEntity
  8
LC-001-002-----0
  6
ByBlock
 62
     7
370
    50
100
AcDbLine
 10
1072.319462
 20
7457.265183
 30
0.0
 11
1072.319462
 21
7449.765183
 31
0.0
  0
LINE
  5
251
330
1F
100
AcDbEntity
  8
LC-001-002-----0
  6
ByBlock
 62
     7
370
    50
100
AcDbLine
 10
1079.819462
 20
7457.265183
 30
0.0
 11
1072.319462
 21
7457.265183
 31
0.0
  0
LINE
  5
252
330
1F
100
AcDbEntity
  8
LC-001-002-----0
  6
ByBlock
 62
     7
370
    50
100
AcDbLine
 10
1079.819462
 20
7449.765183
 30
0.0
 11
1072.319462
 21
7449.765183
 31
0.0
  0
LINE
  5
253
330
1F
100
AcDbEntity
  8
LC-001-002-----0
  6
ByBlock
 62
     7
370
    50
100
AcDbLine
 10
1079.819462
 20
7457.265183
 30
0.0
 11
1079.819462
 21
7449.765183
 31
0.0
  0
LINE
  5
254
330
1F
100
AcDbEntity
  8
LC-001-002-----0
  6
ByBlock
 62
     7
370
    50
100
AcDbLine
 10
1093.319462
 20
7457.265183
 30
0.0
 11
1085.819462
 21
7457.265183
 31
0.0
  0
LINE
  5
255
330
1F
100
AcDbEntity
  8
LC-001-002-----0
  6
ByBlock
 62
     7
370
    50
100
AcDbLine
 10
1093.319462
 20
7449.765183
 30
0.0
 11
1085.819462
 21
7449.765183
 31
0.0
  0
LINE
  5
256
330
1F
100
AcDbEntity
  8
LC-001-002-----0
  6
ByBlock
 62
     7
370
    50
100
AcDbLine
 10
1085.819462
 20
7457.265183
 30
0.0
 11
1085.819462
 21
7449.765183
 31
0.0
  0
LINE
  5
257
330
1F
100
AcDbEntity
  8
LC-001-002-----0
  6
ByBlock
 62
     7
370
    50
100
AcDbLine
 10
1045.319462
 20
7457.265183
 30
0.0
 11
1052.819462
 21
7457.265183
 31
0.0
  0
LINE
  5
258
330
1F
100
AcDbEntity
  8
LC-001-002-----0
  6
ByBlock
 62
     7
370
    50
100
AcDbLine
 10
1045.319462
 20
7449.765183
 30
0.0
 11
1052.819462
 21
7449.765183
 31
0.0
  0
LINE
  5
259
330
1F
100
AcDbEntity
  8
LC-001-002-----0
  6
ByBlock
 62
     7
370
    50
100
AcDbLine
 10
1052.819462
 20
7457.265183
 30
0.0
 11
1052.819462
 21
7449.765183
 31
0.0
  0
LINE
  5
25A
330
1F
100
AcDbEntity
  8
LC-001-002-----0
  6
ByBlock
 62
     7
370
    50
100
AcDbLine
 10
1045.319462
 20
7457.265183
 30
0.0
 11
1045.319462
 21
7449.765183
 31
0.0
  0
LINE
  5
25B
330
1F
100
AcDbEntity
  8
LC-001-002-----0
  6
ByBlock
 62
     7
370
    50
100
AcDbLine
 10
1093.319462
 20
7457.265183
 30
0.0
 11
1093.319462
 21
7449.765183
 31
0.0
  0
LINE
  5
25C
330
1F
100
AcDbEntity
  8
LC-001-002-----0
  6
ByBlock
 62
     7
370
    50
100
AcDbLine
 10
1031.819462
 20
7416.765183
 30
0.0
 11
1039.319462
 21
7416.765183
 31
0.0
  0
LINE
  5
25D
330
1F
100
AcDbEntity
  8
LC-001-002-----0
  6
ByBlock
 62
     7
370
    50
100
AcDbLine
 10
1031.819462
 20
7409.265183
 30
0.0
 11
1031.819462
 21
7416.765183
 31
0.0
  0
LINE
  5
25E
330
1F
100
AcDbEntity
  8
LC-001-002-----0
  6
ByBlock
 62
     7
370
    50
100
AcDbLine
 10
1039.319462
 20
7409.265183
 30
0.0
 11
1039.319462
 21
7416.765183
 31
0.0
  0
LINE
  5
25F
330
1F
100
AcDbEntity
  8
LC-001-002-----0
  6
ByBlock
 62
     7
370
    50
100
AcDbLine
 10
1031.819462
 20
7409.265183
 30
0.0
 11
1039.319462
 21
7409.265183
 31
0.0
  0
LINE
  5
260
330
1F
100
AcDbEntity
  8
LC-001-002-----0
  6
ByBlock
 62
     7
370
    50
100
AcDbLine
 10
1031.819462
 20
7422.765183
 30
0.0
 11
1039.319462
 21
7422.765183
 31
0.0
  0
LINE
  5
261
330
1F
100
AcDbEntity
  8
LC-001-002-----0
  6
ByBlock
 62
     7
370
    50
100
AcDbLine
 10
1031.819462
 20
7430.265183
 30
0.0
 11
1031.819462
 21
7422.765183
 31
0.0
  0
LINE
  5
262
330
1F
100
AcDbEntity
  8
LC-001-002-----0
  6
ByBlock
 62
     7
370
    50
100
AcDbLine
 10
1039.319462
 20
7430.265183
 30
0.0
 11
1039.319462
 21
7422.765183
 31
0.0
  0
LINE
  5
263
330
1F
100
AcDbEntity
  8
LC-001-002-----0
  6
ByBlock
 62
     7
370
    50
100
AcDbLine
 10
1031.819462
 20
7430.265183
 30
0.0
 11
1039.319462
 21
7430.265183
 31
0.0
  0
LINE
  5
264
330
1F
100
AcDbEntity
  8
LC-001-002-----0
  6
ByBlock
 62
     7
370
    50
100
AcDbLine
 10
1031.819462
 20
7443.765183
 30
0.0
 11
1031.819462
 21
7436.265183
 31
0.0
  0
LINE
  5
265
330
1F
100
AcDbEntity
  8
LC-001-002-----0
  6
ByBlock
 62
     7
370
    50
100
AcDbLine
 10
1039.319462
 20
7443.765183
 30
0.0
 11
1039.319462
 21
7436.265183
 31
0.0
  0
LINE
  5
266
330
1F
100
AcDbEntity
  8
LC-001-002-----0
  6
ByBlock
 62
     7
370
    50
100
AcDbLine
 10
1031.819462
 20
7436.265183
 30
0.0
 11
1039.319462
 21
7436.265183
 31
0.0
  0
LINE
  5
267
330
1F
100
AcDbEntity
  8
LC-001-002-----0
  6
ByBlock
 62
     7
370
    50
100
AcDbLine
 10
1031.819462
 20
7395.765183
 30
0.0
 11
1031.819462
 21
7403.265183
 31
0.0
  0
LINE
  5
268
330
1F
100
AcDbEntity
  8
LC-001-002-----0
  6
ByBlock
 62
     7
370
    50
100
AcDbLine
 10
1039.319462
 20
7395.765183
 30
0.0
 11
1039.319462
 21
7403.265183
 31
0.0
  0
LINE
  5
269
330
1F
100
AcDbEntity
  8
LC-001-002-----0
  6
ByBlock
 62
     7
370
    50
100
AcDbLine
 10
1031.819462
 20
7403.265183
 30
0.0
 11
1039.319462
 21
7403.265183
 31
0.0
  0
LINE
  5
26A
330
1F
100
AcDbEntity
  8
LC-001-002-----0
  6
ByBlock
 62
     7
370
    50
100
AcDbLine
 10
1031.819462
 20
7395.765183
 30
0.0
 11
1039.319462
 21
7395.765183
 31
0.0
  0
LINE
  5
26B
330
1F
100
AcDbEntity
  8
LC-001-002-----0
  6
ByBlock
 62
     7
370
    50
100
AcDbLine
 10
1031.819462
 20
7443.765183
 30
0.0
 11
1039.319462
 21
7443.765183
 31
0.0
  0
LINE
  5
26C
330
1F
100
AcDbEntity
  8
LC-001-002-----0
  6
ByBlock
 62
     7
370
    50
100
AcDbLine
 10
1072.319462
 20
7382.265183
 30
0.0
 11
1072.319462
 21
7389.765183
 31
0.0
  0
LINE
  5
26D
330
1F
100
AcDbEntity
  8
LC-001-002-----0
  6
ByBlock
 62
     7
370
    50
100
AcDbLine
 10
1079.819462
 20
7382.265183
 30
0.0
 11
1072.319462
 21
7382.265183
 31
0.0
  0
LINE
  5
26E
330
1F
100
AcDbEntity
  8
LC-001-002-----0
  6
ByBlock
 62
     7
370
    50
100
AcDbLine
 10
1079.819462
 20
7389.765183
 30
0.0
 11
1072.319462
 21
7389.765183
 31
0.0
  0
LINE
  5
26F
330
1F
100
AcDbEntity
  8
LC-001-002-----0
  6
ByBlock
 62
     7
370
    50
100
AcDbLine
 10
1079.819462
 20
7382.265183
 30
0.0
 11
1079.819462
 21
7389.765183
 31
0.0
  0
LINE
  5
270
330
1F
100
AcDbEntity
  8
LC-001-002-----0
  6
ByBlock
 62
     7
370
    50
100
AcDbLine
 10
1066.319462
 20
7382.265183
 30
0.0
 11
1066.319462
 21
7389.765183
 31
0.0
  0
LINE
  5
271
330
1F
100
AcDbEntity
  8
LC-001-002-----0
  6
ByBlock
 62
     7
370
    50
100
AcDbLine
 10
1058.819462
 20
7382.265183
 30
0.0
 11
1066.319462
 21
7382.265183
 31
0.0
  0
LINE
  5
272
330
1F
100
AcDbEntity
  8
LC-001-002-----0
  6
ByBlock
 62
     7
370
    50
100
AcDbLine
 10
1058.819462
 20
7389.765183
 30
0.0
 11
1066.319462
 21
7389.765183
 31
0.0
  0
LINE
  5
273
330
1F
100
AcDbEntity
  8
LC-001-002-----0
  6
ByBlock
 62
     7
370
    50
100
AcDbLine
 10
1058.819462
 20
7382.265183
 30
0.0
 11
1058.819462
 21
7389.765183
 31
0.0
  0
LINE
  5
274
330
1F
100
AcDbEntity
  8
LC-001-002-----0
  6
ByBlock
 62
     7
370
    50
100
AcDbLine
 10
1045.319462
 20
7382.265183
 30
0.0
 11
1052.819462
 21
7382.265183
 31
0.0
  0
LINE
  5
275
330
1F
100
AcDbEntity
  8
LC-001-002-----0
  6
ByBlock
 62
     7
370
    50
100
AcDbLine
 10
1045.319462
 20
7389.765183
 30
0.0
 11
1052.819462
 21
7389.765183
 31
0.0
  0
LINE
  5
276
330
1F
100
AcDbEntity
  8
LC-001-002-----0
  6
ByBlock
 62
     7
370
    50
100
AcDbLine
 10
1052.819462
 20
7382.265183
 30
0.0
 11
1052.819462
 21
7389.765183
 31
0.0
  0
LINE
  5
277
330
1F
100
AcDbEntity
  8
LC-001-002-----0
  6
ByBlock
 62
     7
370
    50
100
AcDbLine
 10
1093.319462
 20
7382.265183
 30
0.0
 11
1085.819462
 21
7382.265183
 31
0.0
  0
LINE
  5
278
330
1F
100
AcDbEntity
  8
LC-001-002-----0
  6
ByBlock
 62
     7
370
    50
100
AcDbLine
 10
1093.319462
 20
7389.765183
 30
0.0
 11
1085.819462
 21
7389.765183
 31
0.0
  0
LINE
  5
279
330
1F
100
AcDbEntity
  8
LC-001-002-----0
  6
ByBlock
 62
     7
370
    50
100
AcDbLine
 10
1085.819462
 20
7382.265183
 30
0.0
 11
1085.819462
 21
7389.765183
 31
0.0
  0
LINE
  5
27A
330
1F
100
AcDbEntity
  8
LC-001-002-----0
  6
ByBlock
 62
     7
370
    50
100
AcDbLine
 10
1093.319462
 20
7382.265183
 30
0.0
 11
1093.319462
 21
7389.765183
 31
0.0
  0
LINE
  5
27B
330
1F
100
AcDbEntity
  8
LC-001-002-----0
  6
ByBlock
 62
     7
370
    50
100
AcDbLine
 10
1045.319462
 20
7382.265183
 30
0.0
 11
1045.319462
 21
7389.765183
 31
0.0
  0
LINE
  5
27C
330
1F
100
AcDbEntity
  8
LC-001-002-----0
  6
ByBlock
 62
     7
370
    50
100
AcDbLine
 10
1106.819462
 20
7422.765183
 30
0.0
 11
1099.319462
 21
7422.765183
 31
0.0
  0
LINE
  5
27D
330
1F
100
AcDbEntity
  8
LC-001-002-----0
  6
ByBlock
 62
     7
370
    50
100
AcDbLine
 10
1106.819462
 20
7430.265183
 30
0.0
 11
1106.819462
 21
7422.765183
 31
0.0
  0
LINE
  5
27E
330
1F
100
AcDbEntity
  8
LC-001-002-----0
  6
ByBlock
 62
     7
370
    50
100
AcDbLine
 10
1099.319462
 20
7430.265183
 30
0.0
 11
1099.319462
 21
7422.765183
 31
0.0
  0
LINE
  5
27F
330
1F
100
AcDbEntity
  8
LC-001-002-----0
  6
ByBlock
 62
     7
370
    50
100
AcDbLine
 10
1106.819462
 20
7430.265183
 30
0.0
 11
1099.319462
 21
7430.265183
 31
0.0
  0
LINE
  5
280
330
1F
100
AcDbEntity
  8
LC-001-002-----0
  6
ByBlock
 62
     7
370
    50
100
AcDbLine
 10
1106.819462
 20
7416.765183
 30
0.0
 11
1099.319462
 21
7416.765183
 31
0.0
  0
LINE
  5
281
330
1F
100
AcDbEntity
  8
LC-001-002-----0
  6
ByBlock
 62
     7
370
    50
100
AcDbLine
 10
1106.819462
 20
7409.265183
 30
0.0
 11
1106.819462
 21
7416.765183
 31
0.0
  0
LINE
  5
282
330
1F
100
AcDbEntity
  8
LC-001-002-----0
  6
ByBlock
 62
     7
370
    50
100
AcDbLine
 10
1099.319462
 20
7409.265183
 30
0.0
 11
1099.319462
 21
7416.765183
 31
0.0
  0
LINE
  5
283
330
1F
100
AcDbEntity
  8
LC-001-002-----0
  6
ByBlock
 62
     7
370
    50
100
AcDbLine
 10
1106.819462
 20
7409.265183
 30
0.0
 11
1099.319462
 21
7409.265183
 31
0.0
  0
LINE
  5
284
330
1F
100
AcDbEntity
  8
LC-001-002-----0
  6
ByBlock
 62
     7
370
    50
100
AcDbLine
 10
1106.819462
 20
7395.765183
 30
0.0
 11
1106.819462
 21
7403.265183
 31
0.0
  0
LINE
  5
285
330
1F
100
AcDbEntity
  8
LC-001-002-----0
  6
ByBlock
 62
     7
370
    50
100
AcDbLine
 10
1099.319462
 20
7395.765183
 30
0.0
 11
1099.319462
 21
7403.265183
 31
0.0
  0
LINE
  5
286
330
1F
100
AcDbEntity
  8
LC-001-002-----0
  6
ByBlock
 62
     7
370
    50
100
AcDbLine
 10
1106.819462
 20
7403.265183
 30
0.0
 11
1099.319462
 21
7403.265183
 31
0.0
  0
LINE
  5
287
330
1F
100
AcDbEntity
  8
LC-001-002-----0
  6
ByBlock
 62
     7
370
    50
100
AcDbLine
 10
1106.819462
 20
7443.765183
 30
0.0
 11
1106.819462
 21
7436.265183
 31
0.0
  0
LINE
  5
288
330
1F
100
AcDbEntity
  8
LC-001-002-----0
  6
ByBlock
 62
     7
370
    50
100
AcDbLine
 10
1099.319462
 20
7443.765183
 30
0.0
 11
1099.319462
 21
7436.265183
 31
0.0
  0
LINE
  5
289
330
1F
100
AcDbEntity
  8
LC-001-002-----0
  6
ByBlock
 62
     7
370
    50
100
AcDbLine
 10
1106.819462
 20
7436.265183
 30
0.0
 11
1099.319462
 21
7436.265183
 31
0.0
  0
LINE
  5
28A
330
1F
100
AcDbEntity
  8
LC-001-002-----0
  6
ByBlock
 62
     7
370
    50
100
AcDbLine
 10
1106.819462
 20
7443.765183
 30
0.0
 11
1099.319462
 21
7443.765183
 31
0.0
  0
LINE
  5
28B
330
1F
100
AcDbEntity
  8
LC-001-002-----0
  6
ByBlock
 62
     7
370
    50
100
AcDbLine
 10
1106.819462
 20
7395.765183
 30
0.0
 11
1099.319462
 21
7395.765183
 31
0.0
  0
LINE
  5
28C
330
1F
100
AcDbEntity
  8
LC-001-002-----0
  6
ByBlock
 62
     7
370
    50
100
AcDbLine
 10
1106.819462
 20
7463.265183
 30
0.0
 11
1099.319462
 21
7463.265183
 31
0.0
  0
LINE
  5
28D
330
1F
100
AcDbEntity
  8
LC-001-002-----0
  6
ByBlock
 62
     7
370
    50
100
AcDbLine
 10
1039.319462
 20
7470.765183
 30
0.0
 11
1039.319462
 21
7463.265183
 31
0.0
  0
LINE
  5
28E
330
1F
100
AcDbEntity
  8
LC-001-002-----0
  6
ByBlock
 62
     7
370
    50
100
AcDbLine
 10
1031.819462
 20
7470.765183
 30
0.0
 11
1031.819462
 21
7463.265183
 31
0.0
  0
LINE
  5
28F
330
1F
100
AcDbEntity
  8
LC-001-002-----0
  6
ByBlock
 62
     7
370
    50
100
AcDbLine
 10
1039.319462
 20
7463.265183
 30
0.0
 11
1031.819462
 21
7463.265183
 31
0.0
  0
LINE
  5
290
330
1F
100
AcDbEntity
  8
LC-001-002-----0
  6
ByBlock
 62
     7
370
    50
100
AcDbLine
 10
1039.319462
 20
7470.765183
 30
0.0
 11
1031.819462
 21
7470.765183
 31
0.0
  0
LINE
  5
291
330
1F
100
AcDbEntity
  8
LC-001-002-----0
  6
ByBlock
 62
     7
370
    50
100
AcDbLine
 10
1106.819462
 20
7470.765183
 30
0.0
 11
1099.319462
 21
7470.765183
 31
0.0
  0
LINE
  5
292
330
1F
100
AcDbEntity
  8
LC-001-002-----0
  6
ByBlock
 62
     7
370
    50
100
AcDbLine
 10
1099.319462
 20
7463.265183
 30
0.0
 11
1099.319462
 21
7470.765183
 31
0.0
  0
LINE
  5
293
330
1F
100
AcDbEntity
  8
LC-001-002-----0
  6
ByBlock
 62
     7
370
    50
100
AcDbLine
 10
1106.819462
 20
7463.265183
 30
0.0
 11
1106.819462
 21
7470.765183
 31
0.0
  0
LINE
  5
294
330
1F
100
AcDbEntity
  8
LC-001-002-----0
  6
ByBlock
 62
     7
370
    50
100
AcDbLine
 10
1066.319462
 20
7470.765183
 30
0.0
 11
1066.319462
 21
7463.265183
 31
0.0
  0
LINE
  5
295
330
1F
100
AcDbEntity
  8
LC-001-002-----0
  6
ByBlock
 62
     7
370
    50
100
AcDbLine
 10
1058.819462
 20
7470.765183
 30
0.0
 11
1066.319462
 21
7470.765183
 31
0.0
  0
LINE
  5
296
330
1F
100
AcDbEntity
  8
LC-001-002-----0
  6
ByBlock
 62
     7
370
    50
100
AcDbLine
 10
1058.819462
 20
7463.265183
 30
0.0
 11
1066.319462
 21
7463.265183
 31
0.0
  0
LINE
  5
297
330
1F
100
AcDbEntity
  8
LC-001-002-----0
  6
ByBlock
 62
     7
370
    50
100
AcDbLine
 10
1058.819462
 20
7470.765183
 30
0.0
 11
1058.819462
 21
7463.265183
 31
0.0
  0
LINE
  5
298
330
1F
100
AcDbEntity
  8
LC-001-002-----0
  6
ByBlock
 62
     7
370
    50
100
AcDbLine
 10
1072.319462
 20
7470.765183
 30
0.0
 11
1072.319462
 21
7463.265183
 31
0.0
  0
LINE
  5
299
330
1F
100
AcDbEntity
  8
LC-001-002-----0
  6
ByBlock
 62
     7
370
    50
100
AcDbLine
 10
1079.819462
 20
7470.765183
 30
0.0
 11
1072.319462
 21
7470.765183
 31
0.0
  0
LINE
  5
29A
330
1F
100
AcDbEntity
  8
LC-001-002-----0
  6
ByBlock
 62
     7
370
    50
100
AcDbLine
 10
1079.819462
 20
7463.265183
 30
0.0
 11
1072.319462
 21
7463.265183
 31
0.0
  0
LINE
  5
29B
330
1F
100
AcDbEntity
  8
LC-001-002-----0
  6
ByBlock
 62
     7
370
    50
100
AcDbLine
 10
1079.819462
 20
7470.765183
 30
0.0
 11
1079.819462
 21
7463.265183
 31
0.0
  0
LINE
  5
29C
330
1F
100
AcDbEntity
  8
LC-001-002-----0
  6
ByBlock
 62
     7
370
    50
100
AcDbLine
 10
1093.319462
 20
7470.765183
 30
0.0
 11
1085.819462
 21
7470.765183
 31
0.0
  0
LINE
  5
29D
330
1F
100
AcDbEntity
  8
LC-001-002-----0
  6
ByBlock
 62
     7
370
    50
100
AcDbLine
 10
1093.319462
 20
7463.265183
 30
0.0
 11
1085.819462
 21
7463.265183
 31
0.0
  0
LINE
  5
29E
330
1F
100
AcDbEntity
  8
LC-001-002-----0
  6
ByBlock
 62
     7
370
    50
100
AcDbLine
 10
1085.819462
 20
7470.765183
 30
0.0
 11
1085.819462
 21
7463.265183
 31
0.0
  0
LINE
  5
29F
330
1F
100
AcDbEntity
  8
LC-001-002-----0
  6
ByBlock
 62
     7
370
    50
100
AcDbLine
 10
1045.319462
 20
7470.765183
 30
0.0
 11
1052.819462
 21
7470.765183
 31
0.0
  0
LINE
  5
2A0
330
1F
100
AcDbEntity
  8
LC-001-002-----0
  6
ByBlock
 62
     7
370
    50
100
AcDbLine
 10
1045.319462
 20
7463.265183
 30
0.0
 11
1052.819462
 21
7463.265183
 31
0.0
  0
LINE
  5
2A1
330
1F
100
AcDbEntity
  8
LC-001-002-----0
  6
ByBlock
 62
     7
370
    50
100
AcDbLine
 10
1052.819462
 20
7470.765183
 30
0.0
 11
1052.819462
 21
7463.265183
 31
0.0
  0
LINE
  5
2A2
330
1F
100
AcDbEntity
  8
LC-001-002-----0
  6
ByBlock
 62
     7
370
    50
100
AcDbLine
 10
1045.319462
 20
7470.765183
 30
0.0
 11
1045.319462
 21
7463.265183
 31
0.0
  0
LINE
  5
2A3
330
1F
100
AcDbEntity
  8
LC-001-002-----0
  6
ByBlock
 62
     7
370
    50
100
AcDbLine
 10
1093.319462
 20
7470.765183
 30
0.0
 11
1093.319462
 21
7463.265183
 31
0.0
  0
LINE
  5
2A4
330
1F
100
AcDbEntity
  8
LC-001-002-----0
  6
ByBlock
 62
     7
370
    50
100
AcDbLine
 10
1025.819462
 20
7457.265183
 30
0.0
 11
1025.819462
 21
7449.765183
 31
0.0
  0
LINE
  5
2A5
330
1F
100
AcDbEntity
  8
LC-001-002-----0
  6
ByBlock
 62
     7
370
    50
100
AcDbLine
 10
1018.319462
 20
7389.765183
 30
0.0
 11
1025.819462
 21
7389.765183
 31
0.0
  0
LINE
  5
2A6
330
1F
100
AcDbEntity
  8
LC-001-002-----0
  6
ByBlock
 62
     7
370
    50
100
AcDbLine
 10
1018.319462
 20
7382.265183
 30
0.0
 11
1025.819462
 21
7382.265183
 31
0.0
  0
LINE
  5
2A7
330
1F
100
AcDbEntity
  8
LC-001-002-----0
  6
ByBlock
 62
     7
370
    50
100
AcDbLine
 10
1025.819462
 20
7389.765183
 30
0.0
 11
1025.819462
 21
7382.265183
 31
0.0
  0
LINE
  5
2A8
330
1F
100
AcDbEntity
  8
LC-001-002-----0
  6
ByBlock
 62
     7
370
    50
100
AcDbLine
 10
1018.319462
 20
7389.765183
 30
0.0
 11
1018.319462
 21
7382.265183
 31
0.0
  0
LINE
  5
2A9
330
1F
100
AcDbEntity
  8
LC-001-002-----0
  6
ByBlock
 62
     7
370
    50
100
AcDbLine
 10
1018.319462
 20
7457.265183
 30
0.0
 11
1018.319462
 21
7449.765183
 31
0.0
  0
LINE
  5
2AA
330
1F
100
AcDbEntity
  8
LC-001-002-----0
  6
ByBlock
 62
     7
370
    50
100
AcDbLine
 10
1025.819462
 20
7449.765183
 30
0.0
 11
1018.319462
 21
7449.765183
 31
0.0
  0
LINE
  5
2AB
330
1F
100
AcDbEntity
  8
LC-001-002-----0
  6
ByBlock
 62
     7
370
    50
100
AcDbLine
 10
1025.819462
 20
7457.265183
 30
0.0
 11
1018.319462
 21
7457.265183
 31
0.0
  0
LINE
  5
2AC
330
1F
100
AcDbEntity
  8
LC-001-002-----0
  6
ByBlock
 62
     7
370
    50
100
AcDbLine
 10
1018.319462
 20
7416.765183
 30
0.0
 11
1025.819462
 21
7416.765183
 31
0.0
  0
LINE
  5
2AD
330
1F
100
AcDbEntity
  8
LC-001-002-----0
  6
ByBlock
 62
     7
370
    50
100
AcDbLine
 10
1018.319462
 20
7409.265183
 30
0.0
 11
1018.319462
 21
7416.765183
 31
0.0
  0
LINE
  5
2AE
330
1F
100
AcDbEntity
  8
LC-001-002-----0
  6
ByBlock
 62
     7
370
    50
100
AcDbLine
 10
1025.819462
 20
7409.265183
 30
0.0
 11
1025.819462
 21
7416.765183
 31
0.0
  0
LINE
  5
2AF
330
1F
100
AcDbEntity
  8
LC-001-002-----0
  6
ByBlock
 62
     7
370
    50
100
AcDbLine
 10
1018.319462
 20
7409.265183
 30
0.0
 11
1025.819462
 21
7409.265183
 31
0.0
  0
LINE
  5
2B0
330
1F
100
AcDbEntity
  8
LC-001-002-----0
  6
ByBlock
 62
     7
370
    50
100
AcDbLine
 10
1018.319462
 20
7422.765183
 30
0.0
 11
1025.819462
 21
7422.765183
 31
0.0
  0
LINE
  5
2B1
330
1F
100
AcDbEntity
  8
LC-001-002-----0
  6
ByBlock
 62
     7
370
    50
100
AcDbLine
 10
1018.319462
 20
7430.265183
 30
0.0
 11
1018.319462
 21
7422.765183
 31
0.0
  0
LINE
  5
2B2
330
1F
100
AcDbEntity
  8
LC-001-002-----0
  6
ByBlock
 62
     7
370
    50
100
AcDbLine
 10
1025.819462
 20
7430.265183
 30
0.0
 11
1025.819462
 21
7422.765183
 31
0.0
  0
LINE
  5
2B3
330
1F
100
AcDbEntity
  8
LC-001-002-----0
  6
ByBlock
 62
     7
370
    50
100
AcDbLine
 10
1018.319462
 20
7430.265183
 30
0.0
 11
1025.819462
 21
7430.265183
 31
0.0
  0
LINE
  5
2B4
330
1F
100
AcDbEntity
  8
LC-001-002-----0
  6
ByBlock
 62
     7
370
    50
100
AcDbLine
 10
1018.319462
 20
7443.765183
 30
0.0
 11
1018.319462
 21
7436.265183
 31
0.0
  0
LINE
  5
2B5
330
1F
100
AcDbEntity
  8
LC-001-002-----0
  6
ByBlock
 62
     7
370
    50
100
AcDbLine
 10
1025.819462
 20
7443.765183
 30
0.0
 11
1025.819462
 21
7436.265183
 31
0.0
  0
LINE
  5
2B6
330
1F
100
AcDbEntity
  8
LC-001-002-----0
  6
ByBlock
 62
     7
370
    50
100
AcDbLine
 10
1018.319462
 20
7436.265183
 30
0.0
 11
1025.819462
 21
7436.265183
 31
0.0
  0
LINE
  5
2B7
330
1F
100
AcDbEntity
  8
LC-001-002-----0
  6
ByBlock
 62
     7
370
    50
100
AcDbLine
 10
1018.319462
 20
7395.765183
 30
0.0
 11
1018.319462
 21
7403.265183
 31
0.0
  0
LINE
  5
2B8
330
1F
100
AcDbEntity
  8
LC-001-002-----0
  6
ByBlock
 62
     7
370
    50
100
AcDbLine
 10
1025.819462
 20
7395.765183
 30
0.0
 11
1025.819462
 21
7403.265183
 31
0.0
  0
LINE
  5
2B9
330
1F
100
AcDbEntity
  8
LC-001-002-----0
  6
ByBlock
 62
     7
370
    50
100
AcDbLine
 10
1018.319462
 20
7403.265183
 30
0.0
 11
1025.819462
 21
7403.265183
 31
0.0
  0
LINE
  5
2BA
330
1F
100
AcDbEntity
  8
LC-001-002-----0
  6
ByBlock
 62
     7
370
    50
100
AcDbLine
 10
1018.319462
 20
7395.765183
 30
0.0
 11
1025.819462
 21
7395.765183
 31
0.0
  0
LINE
  5
2BB
330
1F
100
AcDbEntity
  8
LC-001-002-----0
  6
ByBlock
 62
     7
370
    50
100
AcDbLine
 10
1018.319462
 20
7443.765183
 30
0.0
 11
1025.819462
 21
7443.765183
 31
0.0
  0
LINE
  5
2BC
330
1F
100
AcDbEntity
  8
LC-001-002-----0
  6
ByBlock
 62
     7
370
    50
100
AcDbLine
 10
1031.819462
 20
7376.265183
 30
0.0
 11
1039.319462
 21
7376.265183
 31
0.0
  0
LINE
  5
2BD
330
1F
100
AcDbEntity
  8
LC-001-002-----0
  6
ByBlock
 62
     7
370
    50
100
AcDbLine
 10
1099.319462
 20
7368.765183
 30
0.0
 11
1099.319462
 21
7376.265183
 31
0.0
  0
LINE
  5
2BE
330
1F
100
AcDbEntity
  8
LC-001-002-----0
  6
ByBlock
 62
     7
370
    50
100
AcDbLine
 10
1106.819462
 20
7368.765183
 30
0.0
 11
1106.819462
 21
7376.265183
 31
0.0
  0
LINE
  5
2BF
330
1F
100
AcDbEntity
  8
LC-001-002-----0
  6
ByBlock
 62
     7
370
    50
100
AcDbLine
 10
1099.319462
 20
7376.265183
 30
0.0
 11
1106.819462
 21
7376.265183
 31
0.0
  0
LINE
  5
2C0
330
1F
100
AcDbEntity
  8
LC-001-002-----0
  6
ByBlock
 62
     7
370
    50
100
AcDbLine
 10
1099.319462
 20
7368.765183
 30
0.0
 11
1106.819462
 21
7368.765183
 31
0.0
  0
LINE
  5
2C1
330
1F
100
AcDbEntity
  8
LC-001-002-----0
  6
ByBlock
 62
     7
370
    50
100
AcDbLine
 10
1031.819462
 20
7368.765183
 30
0.0
 11
1039.319462
 21
7368.765183
 31
0.0
  0
LINE
  5
2C2
330
1F
100
AcDbEntity
  8
LC-001-002-----0
  6
ByBlock
 62
     7
370
    50
100
AcDbLine
 10
1039.319462
 20
7376.265183
 30
0.0
 11
1039.319462
 21
7368.765183
 31
0.0
  0
LINE
  5
2C3
330
1F
100
AcDbEntity
  8
LC-001-002-----0
  6
ByBlock
 62
     7
370
    50
100
AcDbLine
 10
1031.819462
 20
7376.265183
 30
0.0
 11
1031.819462
 21
7368.765183
 31
0.0
  0
LINE
  5
2C4
330
1F
100
AcDbEntity
  8
LC-001-002-----0
  6
ByBlock
 62
     7
370
    50
100
AcDbLine
 10
1072.319462
 20
7368.765183
 30
0.0
 11
1072.319462
 21
7376.265183
 31
0.0
  0
LINE
  5
2C5
330
1F
100
AcDbEntity
  8
LC-001-002-----0
  6
ByBlock
 62
     7
370
    50
100
AcDbLine
 10
1079.819462
 20
7368.765183
 30
0.0
 11
1072.319462
 21
7368.765183
 31
0.0
  0
LINE
  5
2C6
330
1F
100
AcDbEntity
  8
LC-001-002-----0
  6
ByBlock
 62
     7
370
    50
100
AcDbLine
 10
1079.819462
 20
7376.265183
 30
0.0
 11
1072.319462
 21
7376.265183
 31
0.0
  0
LINE
  5
2C7
330
1F
100
AcDbEntity
  8
LC-001-002-----0
  6
ByBlock
 62
     7
370
    50
100
AcDbLine
 10
1079.819462
 20
7368.765183
 30
0.0
 11
1079.819462
 21
7376.265183
 31
0.0
  0
LINE
  5
2C8
330
1F
100
AcDbEntity
  8
LC-001-002-----0
  6
ByBlock
 62
     7
370
    50
100
AcDbLine
 10
1066.319462
 20
7368.765183
 30
0.0
 11
1066.319462
 21
7376.265183
 31
0.0
  0
LINE
  5
2C9
330
1F
100
AcDbEntity
  8
LC-001-002-----0
  6
ByBlock
 62
     7
370
    50
100
AcDbLine
 10
1058.819462
 20
7368.765183
 30
0.0
 11
1066.319462
 21
7368.765183
 31
0.0
  0
LINE
  5
2CA
330
1F
100
AcDbEntity
  8
LC-001-002-----0
  6
ByBlock
 62
     7
370
    50
100
AcDbLine
 10
1058.819462
 20
7376.265183
 30
0.0
 11
1066.319462
 21
7376.265183
 31
0.0
  0
LINE
  5
2CB
330
1F
100
AcDbEntity
  8
LC-001-002-----0
  6
ByBlock
 62
     7
370
    50
100
AcDbLine
 10
1058.819462
 20
7368.765183
 30
0.0
 11
1058.819462
 21
7376.265183
 31
0.0
  0
LINE
  5
2CC
330
1F
100
AcDbEntity
  8
LC-001-002-----0
  6
ByBlock
 62
     7
370
    50
100
AcDbLine
 10
1045.319462
 20
7368.765183
 30
0.0
 11
1052.819462
 21
7368.765183
 31
0.0
  0
LINE
  5
2CD
330
1F
100
AcDbEntity
  8
LC-001-002-----0
  6
ByBlock
 62
     7
370
    50
100
AcDbLine
 10
1045.319462
 20
7376.265183
 30
0.0
 11
1052.819462
 21
7376.265183
 31
0.0
  0
LINE
  5
2CE
330
1F
100
AcDbEntity
  8
LC-001-002-----0
  6
ByBlock
 62
     7
370
    50
100
AcDbLine
 10
1052.819462
 20
7368.765183
 30
0.0
 11
1052.819462
 21
7376.265183
 31
0.0
  0
LINE
  5
2CF
330
1F
100
AcDbEntity
  8
LC-001-002-----0
  6
ByBlock
 62
     7
370
    50
100
AcDbLine
 10
1093.319462
 20
7368.765183
 30
0.0
 11
1085.819462
 21
7368.765183
 31
0.0
  0
LINE
  5
2D0
330
1F
100
AcDbEntity
  8
LC-001-002-----0
  6
ByBlock
 62
     7
370
    50
100
AcDbLine
 10
1093.319462
 20
7376.265183
 30
0.0
 11
1085.819462
 21
7376.265183
 31
0.0
  0
LINE
  5
2D1
330
1F
100
AcDbEntity
  8
LC-001-002-----0
  6
ByBlock
 62
     7
370
    50
100
AcDbLine
 10
1085.819462
 20
7368.765183
 30
0.0
 11
1085.819462
 21
7376.265183
 31
0.0
  0
LINE
  5
2D2
330
1F
100
AcDbEntity
  8
LC-001-002-----0
  6
ByBlock
 62
     7
370
    50
100
AcDbLine
 10
1093.319462
 20
7368.765183
 30
0.0
 11
1093.319462
 21
7376.265183
 31
0.0
  0
LINE
  5
2D3
330
1F
100
AcDbEntity
  8
LC-001-002-----0
  6
ByBlock
 62
     7
370
    50
100
AcDbLine
 10
1045.319462
 20
7368.765183
 30
0.0
 11
1045.319462
 21
7376.265183
 31
0.0
  0
LINE
  5
2D4
330
1F
100
AcDbEntity
  8
LC-001-002-----0
  6
ByBlock
 62
     7
370
    50
100
AcDbLine
 10
1112.819462
 20
7382.265183
 30
0.0
 11
1112.819462
 21
7389.765183
 31
0.0
  0
LINE
  5
2D5
330
1F
100
AcDbEntity
  8
LC-001-002-----0
  6
ByBlock
 62
     7
370
    50
100
AcDbLine
 10
1120.319462
 20
7449.765183
 30
0.0
 11
1112.819462
 21
7449.765183
 31
0.0
  0
LINE
  5
2D6
330
1F
100
AcDbEntity
  8
LC-001-002-----0
  6
ByBlock
 62
     7
370
    50
100
AcDbLine
 10
1120.319462
 20
7457.265183
 30
0.0
 11
1112.819462
 21
7457.265183
 31
0.0
  0
LINE
  5
2D7
330
1F
100
AcDbEntity
  8
LC-001-002-----0
  6
ByBlock
 62
     7
370
    50
100
AcDbLine
 10
1112.819462
 20
7449.765183
 30
0.0
 11
1112.819462
 21
7457.265183
 31
0.0
  0
LINE
  5
2D8
330
1F
100
AcDbEntity
  8
LC-001-002-----0
  6
ByBlock
 62
     7
370
    50
100
AcDbLine
 10
1120.319462
 20
7449.765183
 30
0.0
 11
1120.319462
 21
7457.265183
 31
0.0
  0
LINE
  5
2D9
330
1F
100
AcDbEntity
  8
LC-001-002-----0
  6
ByBlock
 62
     7
370
    50
100
AcDbLine
 10
1120.319462
 20
7382.265183
 30
0.0
 11
1120.319462
 21
7389.765183
 31
0.0
  0
LINE
  5
2DA
330
1F
100
AcDbEntity
  8
LC-001-002-----0
  6
ByBlock
 62
     7
370
    50
100
AcDbLine
 10
1112.819462
 20
7389.765183
 30
0.0
 11
1120.319462
 21
7389.765183
 31
0.0
  0
LINE
  5
2DB
330
1F
100
AcDbEntity
  8
LC-001-002-----0
  6
ByBlock
 62
     7
370
    50
100
AcDbLine
 10
1112.819462
 20
7382.265183
 30
0.0
 11
1120.319462
 21
7382.265183
 31
0.0
  0
LINE
  5
2DC
330
1F
100
AcDbEntity
  8
LC-001-002-----0
  6
ByBlock
 62
     7
370
    50
100
AcDbLine
 10
1120.319462
 20
7422.765183
 30
0.0
 11
1112.819462
 21
7422.765183
 31
0.0
  0
LINE
  5
2DD
330
1F
100
AcDbEntity
  8
LC-001-002-----0
  6
ByBlock
 62
     7
370
    50
100
AcDbLine
 10
1120.319462
 20
7430.265183
 30
0.0
 11
1120.319462
 21
7422.765183
 31
0.0
  0
LINE
  5
2DE
330
1F
100
AcDbEntity
  8
LC-001-002-----0
  6
ByBlock
 62
     7
370
    50
100
AcDbLine
 10
1112.819462
 20
7430.265183
 30
0.0
 11
1112.819462
 21
7422.765183
 31
0.0
  0
LINE
  5
2DF
330
1F
100
AcDbEntity
  8
LC-001-002-----0
  6
ByBlock
 62
     7
370
    50
100
AcDbLine
 10
1120.319462
 20
7430.265183
 30
0.0
 11
1112.819462
 21
7430.265183
 31
0.0
  0
LINE
  5
2E0
330
1F
100
AcDbEntity
  8
LC-001-002-----0
  6
ByBlock
 62
     7
370
    50
100
AcDbLine
 10
1120.319462
 20
7416.765183
 30
0.0
 11
1112.819462
 21
7416.765183
 31
0.0
  0
LINE
  5
2E1
330
1F
100
AcDbEntity
  8
LC-001-002-----0
  6
ByBlock
 62
     7
370
    50
100
AcDbLine
 10
1120.319462
 20
7409.265183
 30
0.0
 11
1120.319462
 21
7416.765183
 31
0.0
  0
LINE
  5
2E2
330
1F
100
AcDbEntity
  8
LC-001-002-----0
  6
ByBlock
 62
     7
370
    50
100
AcDbLine
 10
1112.819462
 20
7409.265183
 30
0.0
 11
1112.819462
 21
7416.765183
 31
0.0
  0
LINE
  5
2E3
330
1F
100
AcDbEntity
  8
LC-001-002-----0
  6
ByBlock
 62
     7
370
    50
100
AcDbLine
 10
1120.319462
 20
7409.265183
 30
0.0
 11
1112.819462
 21
7409.265183
 31
0.0
  0
LINE
  5
2E4
330
1F
100
AcDbEntity
  8
LC-001-002-----0
  6
ByBlock
 62
     7
370
    50
100
AcDbLine
 10
1120.319462
 20
7395.765183
 30
0.0
 11
1120.319462
 21
7403.265183
 31
0.0
  0
LINE
  5
2E5
330
1F
100
AcDbEntity
  8
LC-001-002-----0
  6
ByBlock
 62
     7
370
    50
100
AcDbLine
 10
1112.819462
 20
7395.765183
 30
0.0
 11
1112.819462
 21
7403.265183
 31
0.0
  0
LINE
  5
2E6
330
1F
100
AcDbEntity
  8
LC-001-002-----0
  6
ByBlock
 62
     7
370
    50
100
AcDbLine
 10
1120.319462
 20
7403.265183
 30
0.0
 11
1112.819462
 21
7403.265183
 31
0.0
  0
LINE
  5
2E7
330
1F
100
AcDbEntity
  8
LC-001-002-----0
  6
ByBlock
 62
     7
370
    50
100
AcDbLine
 10
1120.319462
 20
7443.765183
 30
0.0
 11
1120.319462
 21
7436.265183
 31
0.0
  0
LINE
  5
2E8
330
1F
100
AcDbEntity
  8
LC-001-002-----0
  6
ByBlock
 62
     7
370
    50
100
AcDbLine
 10
1112.819462
 20
7443.765183
 30
0.0
 11
1112.819462
 21
7436.265183
 31
0.0
  0
LINE
  5
2E9
330
1F
100
AcDbEntity
  8
LC-001-002-----0
  6
ByBlock
 62
     7
370
    50
100
AcDbLine
 10
1120.319462
 20
7436.265183
 30
0.0
 11
1112.819462
 21
7436.265183
 31
0.0
  0
LINE
  5
2EA
330
1F
100
AcDbEntity
  8
LC-001-002-----0
  6
ByBlock
 62
     7
370
    50
100
AcDbLine
 10
1120.319462
 20
7443.765183
 30
0.0
 11
1112.819462
 21
7443.765183
 31
0.0
  0
LINE
  5
2EB
330
1F
100
AcDbEntity
  8
LC-001-002-----0
  6
ByBlock
 62
     7
370
    50
100
AcDbLine
 10
1120.319462
 20
7395.765183
 30
0.0
 11
1112.819462
 21
7395.765183
 31
0.0
  0
LINE
  5
2EC
330
1F
100
AcDbEntity
  8
LC-001-002-----0
  6
ByBlock
 62
     7
370
    50
100
AcDbLine
 10
1112.819462
 20
7463.265183
 30
0.0
 11
1120.319462
 21
7463.265183
 31
0.0
  0
LINE
  5
2ED
330
1F
100
AcDbEntity
  8
LC-001-002-----0
  6
ByBlock
 62
     7
370
    50
100
AcDbLine
 10
1112.819462
 20
7463.265183
 30
0.0
 11
1112.819462
 21
7470.765183
 31
0.0
  0
LINE
  5
2EE
330
1F
100
AcDbEntity
  8
LC-001-002-----0
  6
ByBlock
 62
     7
370
    50
100
AcDbLine
 10
1112.819462
 20
7470.765183
 30
0.0
 11
1120.319462
 21
7470.765183
 31
0.0
  0
LINE
  5
2EF
330
1F
100
AcDbEntity
  8
LC-001-002-----0
  6
ByBlock
 62
     7
370
    50
100
AcDbLine
 10
1120.319462
 20
7463.265183
 30
0.0
 11
1120.319462
 21
7470.765183
 31
0.0
  0
LINE
  5
2F0
330
1F
100
AcDbEntity
  8
LC-001-002-----0
  6
ByBlock
 62
     7
370
    50
100
AcDbLine
 10
1025.819462
 20
7463.265183
 30
0.0
 11
1018.319462
 21
7463.265183
 31
0.0
  0
LINE
  5
2F1
330
1F
100
AcDbEntity
  8
LC-001-002-----0
  6
ByBlock
 62
     7
370
    50
100
AcDbLine
 10
1025.819462
 20
7463.265183
 30
0.0
 11
1025.819462
 21
7470.765183
 31
0.0
  0
LINE
  5
2F2
330
1F
100
AcDbEntity
  8
LC-001-002-----0
  6
ByBlock
 62
     7
370
    50
100
AcDbLine
 10
1025.819462
 20
7470.765183
 30
0.0
 11
1018.319462
 21
7470.765183
 31
0.0
  0
LINE
  5
2F3
330
1F
100
AcDbEntity
  8
LC-001-002-----0
  6
ByBlock
 62
     7
370
    50
100
AcDbLine
 10
1018.319462
 20
7463.265183
 30
0.0
 11
1018.319462
 21
7470.765183
 31
0.0
  0
LINE
  5
2F4
330
1F
100
AcDbEntity
  8
LC-001-002-----0
  6
ByBlock
 62
     7
370
    50
100
AcDbLine
 10
1025.819462
 20
7376.265183
 30
0.0
 11
1018.319462
 21
7376.265183
 31
0.0
  0
LINE
  5
2F5
330
1F
100
AcDbEntity
  8
LC-001-002-----0
  6
ByBlock
 62
     7
370
    50
100
AcDbLine
 10
1025.819462
 20
7376.265183
 30
0.0
 11
1025.819462
 21
7368.765183
 31
0.0
  0
LINE
  5
2F6
330
1F
100
AcDbEntity
  8
LC-001-002-----0
  6
ByBlock
 62
     7
370
    50
100
AcDbLine
 10
1025.819462
 20
7368.765183
 30
0.0
 11
1018.319462
 21
7368.765183
 31
0.0
  0
LINE
  5
2F7
330
1F
100
AcDbEntity
  8
LC-001-002-----0
  6
ByBlock
 62
     7
370
    50
100
AcDbLine
 10
1018.319462
 20
7376.265183
 30
0.0
 11
1018.319462
 21
7368.765183
 31
0.0
  0
LINE
  5
2F8
330
1F
100
AcDbEntity
  8
LC-001-002-----0
  6
ByBlock
 62
     7
370
    50
100
AcDbLine
 10
1112.819462
 20
7376.265183
 30
0.0
 11
1120.319462
 21
7376.265183
 31
0.0
  0
LINE
  5
2F9
330
1F
100
AcDbEntity
  8
LC-001-002-----0
  6
ByBlock
 62
     7
370
    50
100
AcDbLine
 10
1112.819462
 20
7376.265183
 30
0.0
 11
1112.819462
 21
7368.765183
 31
0.0
  0
LINE
  5
2FA
330
1F
100
AcDbEntity
  8
LC-001-002-----0
  6
ByBlock
 62
     7
370
    50
100
AcDbLine
 10
1112.819462
 20
7368.765183
 30
0.0
 11
1120.319462
 21
7368.765183
 31
0.0
  0
LINE
  5
2FB
330
1F
100
AcDbEntity
  8
LC-001-002-----0
  6
ByBlock
 62
     7
370
    50
100
AcDbLine
 10
1120.319462
 20
7376.265183
 30
0.0
 11
1120.319462
 21
7368.765183
 31
0.0
  0
LINE
  5
2FC
330
1F
100
AcDbEntity
  8
LC-001-002-----0
  6
ByBlock
 62
     7
370
    50
100
AcDbLine
 10
1066.319462
 20
7443.765183
 30
0.0
 11
1066.319462
 21
7436.265183
 31
0.0
  0
LINE
  5
2FD
330
1F
100
AcDbEntity
  8
LC-001-002-----0
  6
ByBlock
 62
     7
370
    50
100
AcDbLine
 10
1058.819462
 20
7443.765183
 30
0.0
 11
1066.319462
 21
7443.765183
 31
0.0
  0
LINE
  5
2FE
330
1F
100
AcDbEntity
  8
LC-001-002-----0
  6
ByBlock
 62
     7
370
    50
100
AcDbLine
 10
1058.819462
 20
7436.265183
 30
0.0
 11
1066.319462
 21
7436.265183
 31
0.0
  0
LINE
  5
2FF
330
1F
100
AcDbEntity
  8
LC-001-002-----0
  6
ByBlock
 62
     7
370
    50
100
AcDbLine
 10
1058.819462
 20
7443.765183
 30
0.0
 11
1058.819462
 21
7436.265183
 31
0.0
  0
LINE
  5
300
330
1F
100
AcDbEntity
  8
LC-001-002-----0
  6
ByBlock
 62
     7
370
    50
100
AcDbLine
 10
1072.319462
 20
7443.765183
 30
0.0
 11
1072.319462
 21
7436.265183
 31
0.0
  0
LINE
  5
301
330
1F
100
AcDbEntity
  8
LC-001-002-----0
  6
ByBlock
 62
     7
370
    50
100
AcDbLine
 10
1079.819462
 20
7443.765183
 30
0.0
 11
1072.319462
 21
7443.765183
 31
0.0
  0
LINE
  5
302
330
1F
100
AcDbEntity
  8
LC-001-002-----0
  6
ByBlock
 62
     7
370
    50
100
AcDbLine
 10
1079.819462
 20
7436.265183
 30
0.0
 11
1072.319462
 21
7436.265183
 31
0.0
  0
LINE
  5
303
330
1F
100
AcDbEntity
  8
LC-001-002-----0
  6
ByBlock
 62
     7
370
    50
100
AcDbLine
 10
1079.819462
 20
7443.765183
 30
0.0
 11
1079.819462
 21
7436.265183
 31
0.0
  0
LINE
  5
304
330
1F
100
AcDbEntity
  8
LC-001-002-----0
  6
ByBlock
 62
     7
370
    50
100
AcDbLine
 10
1093.319462
 20
7443.765183
 30
0.0
 11
1085.819462
 21
7443.765183
 31
0.0
  0
LINE
  5
305
330
1F
100
AcDbEntity
  8
LC-001-002-----0
  6
ByBlock
 62
     7
370
    50
100
AcDbLine
 10
1093.319462
 20
7436.265183
 30
0.0
 11
1085.819462
 21
7436.265183
 31
0.0
  0
LINE
  5
306
330
1F
100
AcDbEntity
  8
LC-001-002-----0
  6
ByBlock
 62
     7
370
    50
100
AcDbLine
 10
1085.819462
 20
7443.765183
 30
0.0
 11
1085.819462
 21
7436.265183
 31
0.0
  0
LINE
  5
307
330
1F
100
AcDbEntity
  8
LC-001-002-----0
  6
ByBlock
 62
     7
370
    50
100
AcDbLine
 10
1045.319462
 20
7443.765183
 30
0.0
 11
1052.819462
 21
7443.765183
 31
0.0
  0
LINE
  5
308
330
1F
100
AcDbEntity
  8
LC-001-002-----0
  6
ByBlock
 62
     7
370
    50
100
AcDbLine
 10
1045.319462
 20
7436.265183
 30
0.0
 11
1052.819462
 21
7436.265183
 31
0.0
  0
LINE
  5
309
330
1F
100
AcDbEntity
  8
LC-001-002-----0
  6
ByBlock
 62
     7
370
    50
100
AcDbLine
 10
1052.819462
 20
7443.765183
 30
0.0
 11
1052.819462
 21
7436.265183
 31
0.0
  0
LINE
  5
30A
330
1F
100
AcDbEntity
  8
LC-001-002-----0
  6
ByBlock
 62
     7
370
    50
100
AcDbLine
 10
1045.319462
 20
7443.765183
 30
0.0
 11
1045.319462
 21
7436.265183
 31
0.0
  0
LINE
  5
30B
330
1F
100
AcDbEntity
  8
LC-001-002-----0
  6
ByBlock
 62
     7
370
    50
100
AcDbLine
 10
1093.319462
 20
7443.765183
 30
0.0
 11
1093.319462
 21
7436.265183
 31
0.0
  0
LINE
  5
30C
330
1F
100
AcDbEntity
  8
LC-001-002-----0
  6
ByBlock
 62
     7
370
    50
100
AcDbLine
 10
1066.319462
 20
7430.265183
 30
0.0
 11
1066.319462
 21
7422.765183
 31
0.0
  0
LINE
  5
30D
330
1F
100
AcDbEntity
  8
LC-001-002-----0
  6
ByBlock
 62
     7
370
    50
100
AcDbLine
 10
1058.819462
 20
7430.265183
 30
0.0
 11
1066.319462
 21
7430.265183
 31
0.0
  0
LINE
  5
30E
330
1F
100
AcDbEntity
  8
LC-001-002-----0
  6
ByBlock
 62
     7
370
    50
100
AcDbLine
 10
1058.819462
 20
7422.765183
 30
0.0
 11
1066.319462
 21
7422.765183
 31
0.0
  0
LINE
  5
30F
330
1F
100
AcDbEntity
  8
LC-001-002-----0
  6
ByBlock
 62
     7
370
    50
100
AcDbLine
 10
1058.819462
 20
7430.265183
 30
0.0
 11
1058.819462
 21
7422.765183
 31
0.0
  0
LINE
  5
310
330
1F
100
AcDbEntity
  8
LC-001-002-----0
  6
ByBlock
 62
     7
370
    50
100
AcDbLine
 10
1072.319462
 20
7430.265183
 30
0.0
 11
1072.319462
 21
7422.765183
 31
0.0
  0
LINE
  5
311
330
1F
100
AcDbEntity
  8
LC-001-002-----0
  6
ByBlock
 62
     7
370
    50
100
AcDbLine
 10
1079.819462
 20
7430.265183
 30
0.0
 11
1072.319462
 21
7430.265183
 31
0.0
  0
LINE
  5
312
330
1F
100
AcDbEntity
  8
LC-001-002-----0
  6
ByBlock
 62
     7
370
    50
100
AcDbLine
 10
1079.819462
 20
7422.765183
 30
0.0
 11
1072.319462
 21
7422.765183
 31
0.0
  0
LINE
  5
313
330
1F
100
AcDbEntity
  8
LC-001-002-----0
  6
ByBlock
 62
     7
370
    50
100
AcDbLine
 10
1079.819462
 20
7430.265183
 30
0.0
 11
1079.819462
 21
7422.765183
 31
0.0
  0
LINE
  5
314
330
1F
100
AcDbEntity
  8
LC-001-002-----0
  6
ByBlock
 62
     7
370
    50
100
AcDbLine
 10
1093.319462
 20
7430.265183
 30
0.0
 11
1085.819462
 21
7430.265183
 31
0.0
  0
LINE
  5
315
330
1F
100
AcDbEntity
  8
LC-001-002-----0
  6
ByBlock
 62
     7
370
    50
100
AcDbLine
 10
1093.319462
 20
7422.765183
 30
0.0
 11
1085.819462
 21
7422.765183
 31
0.0
  0
LINE
  5
316
330
1F
100
AcDbEntity
  8
LC-001-002-----0
  6
ByBlock
 62
     7
370
    50
100
AcDbLine
 10
1085.819462
 20
7430.265183
 30
0.0
 11
1085.819462
 21
7422.765183
 31
0.0
  0
LINE
  5
317
330
1F
100
AcDbEntity
  8
LC-001-002-----0
  6
ByBlock
 62
     7
370
    50
100
AcDbLine
 10
1045.319462
 20
7430.265183
 30
0.0
 11
1052.819462
 21
7430.265183
 31
0.0
  0
LINE
  5
318
330
1F
100
AcDbEntity
  8
LC-001-002-----0
  6
ByBlock
 62
     7
370
    50
100
AcDbLine
 10
1045.319462
 20
7422.765183
 30
0.0
 11
1052.819462
 21
7422.765183
 31
0.0
  0
LINE
  5
319
330
1F
100
AcDbEntity
  8
LC-001-002-----0
  6
ByBlock
 62
     7
370
    50
100
AcDbLine
 10
1052.819462
 20
7430.265183
 30
0.0
 11
1052.819462
 21
7422.765183
 31
0.0
  0
LINE
  5
31A
330
1F
100
AcDbEntity
  8
LC-001-002-----0
  6
ByBlock
 62
     7
370
    50
100
AcDbLine
 10
1045.319462
 20
7430.265183
 30
0.0
 11
1045.319462
 21
7422.765183
 31
0.0
  0
LINE
  5
31B
330
1F
100
AcDbEntity
  8
LC-001-002-----0
  6
ByBlock
 62
     7
370
    50
100
AcDbLine
 10
1093.319462
 20
7430.265183
 30
0.0
 11
1093.319462
 21
7422.765183
 31
0.0
  0
LINE
  5
31C
330
1F
100
AcDbEntity
  8
LC-001-002-----0
  6
ByBlock
 62
     7
370
    50
100
AcDbLine
 10
1066.319462
 20
7416.765183
 30
0.0
 11
1066.319462
 21
7409.265183
 31
0.0
  0
LINE
  5
31D
330
1F
100
AcDbEntity
  8
LC-001-002-----0
  6
ByBlock
 62
     7
370
    50
100
AcDbLine
 10
1058.819462
 20
7416.765183
 30
0.0
 11
1066.319462
 21
7416.765183
 31
0.0
  0
LINE
  5
31E
330
1F
100
AcDbEntity
  8
LC-001-002-----0
  6
ByBlock
 62
     7
370
    50
100
AcDbLine
 10
1058.819462
 20
7409.265183
 30
0.0
 11
1066.319462
 21
7409.265183
 31
0.0
  0
LINE
  5
31F
330
1F
100
AcDbEntity
  8
LC-001-002-----0
  6
ByBlock
 62
     7
370
    50
100
AcDbLine
 10
1058.819462
 20
7416.765183
 30
0.0
 11
1058.819462
 21
7409.265183
 31
0.0
  0
LINE
  5
320
330
1F
100
AcDbEntity
  8
LC-001-002-----0
  6
ByBlock
 62
     7
370
    50
100
AcDbLine
 10
1072.319462
 20
7416.765183
 30
0.0
 11
1072.319462
 21
7409.265183
 31
0.0
  0
LINE
  5
321
330
1F
100
AcDbEntity
  8
LC-001-002-----0
  6
ByBlock
 62
     7
370
    50
100
AcDbLine
 10
1079.819462
 20
7416.765183
 30
0.0
 11
1072.319462
 21
7416.765183
 31
0.0
  0
LINE
  5
322
330
1F
100
AcDbEntity
  8
LC-001-002-----0
  6
ByBlock
 62
     7
370
    50
100
AcDbLine
 10
1079.819462
 20
7409.265183
 30
0.0
 11
1072.319462
 21
7409.265183
 31
0.0
  0
LINE
  5
323
330
1F
100
AcDbEntity
  8
LC-001-002-----0
  6
ByBlock
 62
     7
370
    50
100
AcDbLine
 10
1079.819462
 20
7416.765183
 30
0.0
 11
1079.819462
 21
7409.265183
 31
0.0
  0
LINE
  5
324
330
1F
100
AcDbEntity
  8
LC-001-002-----0
  6
ByBlock
 62
     7
370
    50
100
AcDbLine
 10
1093.319462
 20
7416.765183
 30
0.0
 11
1085.819462
 21
7416.765183
 31
0.0
  0
LINE
  5
325
330
1F
100
AcDbEntity
  8
LC-001-002-----0
  6
ByBlock
 62
     7
370
    50
100
AcDbLine
 10
1093.319462
 20
7409.265183
 30
0.0
 11
1085.819462
 21
7409.265183
 31
0.0
  0
LINE
  5
326
330
1F
100
AcDbEntity
  8
LC-001-002-----0
  6
ByBlock
 62
     7
370
    50
100
AcDbLine
 10
1085.819462
 20
7416.765183
 30
0.0
 11
1085.819462
 21
7409.265183
 31
0.0
  0
LINE
  5
327
330
1F
100
AcDbEntity
  8
LC-001-002-----0
  6
ByBlock
 62
     7
370
    50
100
AcDbLine
 10
1045.319462
 20
7416.765183
 30
0.0
 11
1052.819462
 21
7416.765183
 31
0.0
  0
LINE
  5
328
330
1F
100
AcDbEntity
  8
LC-001-002-----0
  6
ByBlock
 62
     7
370
    50
100
AcDbLine
 10
1045.319462
 20
7409.265183
 30
0.0
 11
1052.819462
 21
7409.265183
 31
0.0
  0
LINE
  5
329
330
1F
100
AcDbEntity
  8
LC-001-002-----0
  6
ByBlock
 62
     7
370
    50
100
AcDbLine
 10
1052.819462
 20
7416.765183
 30
0.0
 11
1052.819462
 21
7409.265183
 31
0.0
  0
LINE
  5
32A
330
1F
100
AcDbEntity
  8
LC-001-002-----0
  6
ByBlock
 62
     7
370
    50
100
AcDbLine
 10
1045.319462
 20
7416.765183
 30
0.0
 11
1045.319462
 21
7409.265183
 31
0.0
  0
LINE
  5
32B
330
1F
100
AcDbEntity
  8
LC-001-002-----0
  6
ByBlock
 62
     7
370
    50
100
AcDbLine
 10
1093.319462
 20
7416.765183
 30
0.0
 11
1093.319462
 21
7409.265183
 31
0.0
  0
LINE
  5
32C
330
1F
100
AcDbEntity
  8
LC-001-002-----0
  6
ByBlock
 62
     7
370
    50
100
AcDbLine
 10
1066.319462
 20
7403.265183
 30
0.0
 11
1066.319462
 21
7395.765183
 31
0.0
  0
LINE
  5
32D
330
1F
100
AcDbEntity
  8
LC-001-002-----0
  6
ByBlock
 62
     7
370
    50
100
AcDbLine
 10
1058.819462
 20
7403.265183
 30
0.0
 11
1066.319462
 21
7403.265183
 31
0.0
  0
LINE
  5
32E
330
1F
100
AcDbEntity
  8
LC-001-002-----0
  6
ByBlock
 62
     7
370
    50
100
AcDbLine
 10
1058.819462
 20
7395.765183
 30
0.0
 11
1066.319462
 21
7395.765183
 31
0.0
  0
LINE
  5
32F
330
1F
100
AcDbEntity
  8
LC-001-002-----0
  6
ByBlock
 62
     7
370
    50
100
AcDbLine
 10
1058.819462
 20
7403.265183
 30
0.0
 11
1058.819462
 21
7395.765183
 31
0.0
  0
LINE
  5
330
330
1F
100
AcDbEntity
  8
LC-001-002-----0
  6
ByBlock
 62
     7
370
    50
100
AcDbLine
 10
1072.319462
 20
7403.265183
 30
0.0
 11
1072.319462
 21
7395.765183
 31
0.0
  0
LINE
  5
331
330
1F
100
AcDbEntity
  8
LC-001-002-----0
  6
ByBlock
 62
     7
370
    50
100
AcDbLine
 10
1079.819462
 20
7403.265183
 30
0.0
 11
1072.319462
 21
7403.265183
 31
0.0
  0
LINE
  5
332
330
1F
100
AcDbEntity
  8
LC-001-002-----0
  6
ByBlock
 62
     7
370
    50
100
AcDbLine
 10
1079.819462
 20
7395.765183
 30
0.0
 11
1072.319462
 21
7395.765183
 31
0.0
  0
LINE
  5
333
330
1F
100
AcDbEntity
  8
LC-001-002-----0
  6
ByBlock
 62
     7
370
    50
100
AcDbLine
 10
1079.819462
 20
7403.265183
 30
0.0
 11
1079.819462
 21
7395.765183
 31
0.0
  0
LINE
  5
334
330
1F
100
AcDbEntity
  8
LC-001-002-----0
  6
ByBlock
 62
     7
370
    50
100
AcDbLine
 10
1093.319462
 20
7403.265183
 30
0.0
 11
1085.819462
 21
7403.265183
 31
0.0
  0
LINE
  5
335
330
1F
100
AcDbEntity
  8
LC-001-002-----0
  6
ByBlock
 62
     7
370
    50
100
AcDbLine
 10
1093.319462
 20
7395.765183
 30
0.0
 11
1085.819462
 21
7395.765183
 31
0.0
  0
LINE
  5
336
330
1F
100
AcDbEntity
  8
LC-001-002-----0
  6
ByBlock
 62
     7
370
    50
100
AcDbLine
 10
1085.819462
 20
7403.265183
 30
0.0
 11
1085.819462
 21
7395.765183
 31
0.0
  0
LINE
  5
337
330
1F
100
AcDbEntity
  8
LC-001-002-----0
  6
ByBlock
 62
     7
370
    50
100
AcDbLine
 10
1045.319462
 20
7403.265183
 30
0.0
 11
1052.819462
 21
7403.265183
 31
0.0
  0
LINE
  5
338
330
1F
100
AcDbEntity
  8
LC-001-002-----0
  6
ByBlock
 62
     7
370
    50
100
AcDbLine
 10
1045.319462
 20
7395.765183
 30
0.0
 11
1052.819462
 21
7395.765183
 31
0.0
  0
LINE
  5
339
330
1F
100
AcDbEntity
  8
LC-001-002-----0
  6
ByBlock
 62
     7
370
    50
100
AcDbLine
 10
1052.819462
 20
7403.265183
 30
0.0
 11
1052.819462
 21
7395.765183
 31
0.0
  0
LINE
  5
33A
330
1F
100
AcDbEntity
  8
LC-001-002-----0
  6
ByBlock
 62
     7
370
    50
100
AcDbLine
 10
1045.319462
 20
7403.265183
 30
0.0
 11
1045.319462
 21
7395.765183
 31
0.0
  0
LINE
  5
33B
330
1F
100
AcDbEntity
  8
LC-001-002-----0
  6
ByBlock
 62
     7
370
    50
100
AcDbLine
 10
1093.319462
 20
7403.265183
 30
0.0
 11
1093.319462
 21
7395.765183
 31
0.0
  0
ENDSEC
  0
SECTION
  2
OBJECTS
  0
DICTIONARY
  5
C
330
0
100
AcDbDictionary
281
     1
  3
ACAD_GROUP
350
D
  3
ACAD_LAYOUT
350
1A
  3
ACAD_MLINESTYLE
350
17
  3
ACAD_PLOTSETTINGS
350
19
  3
ACAD_PLOTSTYLENAME
350
E
  0
DICTIONARY
  5
D
102
{ACAD_REACTORS
330
C
102
}
330
C
100
AcDbDictionary
281
     1
  3
LCGROUP12484
350
342
  3
LCGROUP12485
350
341
  3
LCGROUP12568
350
33E
  3
LCGROUP12685
350
340
  3
LCGROUP12797
350
33C
  3
LCGROUP2994
350
33D
  3
LCGROUP5249
350
33F
  0
DICTIONARY
  5
1A
102
{ACAD_REACTORS
330
C
102
}
330
C
100
AcDbDictionary
281
     1
  3
Layout1
350
1E
  3
Layout2
350
26
  3
Model
350
22
  0
DICTIONARY
  5
17
102
{ACAD_REACTORS
330
C
102
}
330
C
100
AcDbDictionary
281
     1
  3
Standard
350
18
  0
DICTIONARY
  5
19
102
{ACAD_REACTORS
330
C
102
}
330
C
100
AcDbDictionary
281
     1
  0
ACDBDICTIONARYWDFLT
  5
E
102
{ACAD_REACTORS
330
C
102
}
330
C
100
AcDbDictionary
281
     1
  3
Normal
350
F
100
AcDbDictionaryWithDefault
340
F
  0
GROUP
  5
342
102
{ACAD_REACTORS
330
D
102
}
330
D
100
AcDbGroup
300
Q
 70
     1
 71
     1
340
72
  0
GROUP
  5
341
102
{ACAD_REACTORS
330
D
102
}
330
D
100
AcDbGroup
300
GRP12485
 70
     1
 71
     1
340
73
340
74
  0
GROUP
  5
33E
102
{ACAD_REACTORS
330
D
102
}
330
D
100
AcDbGroup
300
Zentrierring
 70
     1
 71
     1
340
89
340
8A
340
8B
340
8C
340
8D
340
8E
340
8F
340
90
340
91
340
92
340
93
340
94
340
95
340
96
340
97
340
98
340
99
340
A7
340
A8
340
A9
340
AA
340
AB
340
AC
340
AD
340
AE
340
AF
340
B0
340
BD
340
BE
340
BF
340
C0
340
C1
340
C2
340
C3
340
C4
340
C5
340
C6
340
C7
340
C8
  0
GROUP
  5
340
102
{ACAD_REACTORS
330
D
102
}
330
D
100
AcDbGroup
300
GRP12685
 70
     1
 71
     1
340
102
340
103
340
104
340
105
340
106
340
107
340
108
340
109
340
10A
340
10B
340
10C
340
10D
340
10E
340
10F
340
110
340
111
340
112
340
113
340
114
340
115
340
116
340
117
340
118
340
144
340
145
340
146
340
172
  0
GROUP
  5
33C
102
{ACAD_REACTORS
330
D
102
}
330
D
100
AcDbGroup
300
Rahmen SA
 70
     1
 71
     1
340
173
340
174
340
175
340
176
340
177
340
178
340
179
340
17A
340
17B
340
17C
340
17D
340
17E
340
17F
340
180
340
181
340
182
340
183
340
184
340
185
340
186
340
187
340
188
340
189
340
18A
340
18B
340
18C
340
18D
340
18E
340
18F
340
190
340
191
340
192
340
193
340
194
340
195
340
196
340
197
340
198
340
199
340
19A
340
19B
340
19C
340
19D
340
19E
340
19F
340
1A0
340
1A1
340
1A2
340
1A3
340
1A4
340
1A5
340
1A6
340
1A7
340
1A8
340
1A9
340
1AA
340
1AB
340
1AC
340
1AD
340
1AE
340
1AF
340
1B0
340
1B1
340
1B2
340
1B3
340
1B4
340
1B5
340
1B6
340
1B7
340
1B8
340
1B9
340
1BA
340
1BB
340
1BC
340
1D1
340
1D2
340
1D3
340
1D4
340
1D5
340
1D6
340
1D7
340
1EE
340
1EF
340
1F0
340
1F1
340
1F2
340
1F3
340
1F4
340
1F5
340
1F6
340
1F7
340
1F8
340
1F9
340
1FA
340
1FB
340
1FC
340
1FD
340
1FE
340
1FF
340
200
340
201
340
202
  0
GROUP
  5
33D
102
{ACAD_REACTORS
330
D
102
}
330
D
100
AcDbGroup
300
GRP2994
 70
     1
 71
     1
340
34
340
35
340
36
340
37
340
38
340
39
340
3A
340
3B
  0
GROUP
  5
33F
102
{ACAD_REACTORS
330
D
102
}
330
D
100
AcDbGroup
300
rahmen
 70
     1
 71
     1
340
3C
340
3D
340
3E
340
3F
340
40
340
41
340
42
340
43
340
44
340
45
340
46
340
47
340
48
340
49
340
4A
340
4B
  0
LAYOUT
  5
1E
102
{ACAD_REACTORS
330
1A
102
}
330
1A
100
AcDbPlotSettings
  1

  2

  4

  6

 40
0.0
 41
0.0
 42
0.0
 43
0.0
 44
0.0
 45
0.0
 46
0.0
 47
0.0
 48
0.0
 49
0.0
140
0.0
141
0.0
142
1.0
143
1.0
 70
   688
 72
     0
 73
     0
 74
     5
  7

 75
    16
147
1.0
148
0.0
149
0.0
100
AcDbLayout
  1
Layout1
 70
     1
 71
     1
 10
565.273216
 20
7181.045
 11
1405.273216
 21
7775.045
 12
0.0
 22
0.0
 32
0.0
 14
565.273216
 24
7181.045
 34
0.0
 15
1405.273216
 25
7775.045
 35
0.0
146
0.0
 13
0.0
 23
0.0
 33
0.0
 16
1.0
 26
0.0
 36
0.0
 17
0.0
 27
1.0
 37
0.0
 76
     0
330
1B
  0
LAYOUT
  5
26
102
{ACAD_REACTORS
330
1A
102
}
330
1A
100
AcDbPlotSettings
  1

  2

  4

  6

 40
0.0
 41
0.0
 42
0.0
 43
0.0
 44
0.0
 45
0.0
 46
0.0
 47
0.0
 48
0.0
 49
0.0
140
0.0
141
0.0
142
1.0
143
1.0
 70
   688
 72
     0
 73
     0
 74
     5
  7

 75
    16
147
1.0
148
0.0
149
0.0
100
AcDbLayout
  1
Layout2
 70
     1
 71
     2
 10
0.0
 20
0.0
 11
0.0
 21
0.0
 12
0.0
 22
0.0
 32
0.0
 14
0.0
 24
0.0
 34
0.0
 15
0.0
 25
0.0
 35
0.0
146
0.0
 13
0.0
 23
0.0
 33
0.0
 16
1.0
 26
0.0
 36
0.0
 17
0.0
 27
1.0
 37
0.0
 76
     0
330
23
  0
LAYOUT
  5
22
102
{ACAD_REACTORS
330
1A
102
}
330
1A
100
AcDbPlotSettings
  1

  2

  4

  6

 40
0.0
 41
0.0
 42
0.0
 43
0.0
 44
0.0
 45
0.0
 46
0.0
 47
0.0
 48
0.0
 49
0.0
140
0.0
141
0.0
142
1.0
143
1.0
 70
  1776
 72
     0
 73
     0
 74
     0
  7

 75
     0
147
1.0
148
0.0
149
0.0
100
AcDbLayout
  1
Model
 70
     1
 71
     0
 10
565.273216
 20
7181.045
 11
1405.273216
 21
7775.045
 12
565.273216
 22
7181.045
 32
0.0
 14
565.273216
 24
7181.045
 34
0.0
 15
1405.273216
 25
7775.045
 35
0.0
146
0.0
 13
0.0
 23
0.0
 33
0.0
 16
1.0
 26
0.0
 36
0.0
 17
0.0
 27
1.0
 37
0.0
 76
     0
330
1F
  0
MLINESTYLE
  5
18
102
{ACAD_REACTORS
330
17
102
}
330
17
100
AcDbMlineStyle
  2
Standard
 70
     0
  3

 62
   256
 51
90.0
 52
90.0
 71
     2
 49
0.5
 62
   256
  6
BYLAYER
 49
-0.5
 62
   256
  6
BYLAYER
  0
ACDBPLACEHOLDER
  5
F
102
{ACAD_REACTORS
330
E
102
}
330
E
  0
ENDSEC
  0
EOF
