  0
SECTION
  2
HEADER
  9
$ACADVER
  1
AC1015
  9
$ACADMAINTVER
 70
     6
  9
$DWGCODEPAGE
  3
ANSI_1252
  9
$INSBASE
 10
0.0
 20
0.0
 30
0.0
  9
$EXTMIN
 10
0.0
 20
0.0
 30
0.0
  9
$EXTMAX
 10
840.0
 20
594.0
 30
0.0
  9
$LIMMIN
 10
0.0
 20
0.0
  9
$LIMMAX
 10
840.0
 20
594.0
  9
$ORTHOMODE
 70
     0
  9
$REGENMODE
 70
     1
  9
$FILLMODE
 70
     1
  9
$QTEXTMODE
 70
     0
  9
$MIRRTEXT
 70
     1
  9
$LTSCALE
 40
2.0
  9
$ATTMODE
 70
     1
  9
$TEXTSIZE
 40
2.5
  9
$TRACEWID
 40
1.0
  9
$TEXTSTYLE
  7
Standard
  9
$CLAYER
  8
0
  9
$CELTYPE
  6
ByLayer
  9
$CECOLOR
 62
     7
  9
$CELTSCALE
 40
1.0
  9
$DISPSILH
 70
     0
  9
$DIMSCALE
 40
2.0
  9
$DIMASZ
 40
3.5
  9
$DIMEXO
 40
0.625
  9
$DIMDLI
 40
3.75
  9
$DIMRND
 40
0.0
  9
$DIMDLE
 40
0.0
  9
$DIMEXE
 40
1.25
  9
$DIMTP
 40
0.0
  9
$DIMTM
 40
0.0
  9
$DIMTXT
 40
3.5
  9
$DIMCEN
 40
2.5
  9
$DIMTSZ
 40
0.0
  9
$DIMTOL
 70
     0
  9
$DIMLIM
 70
     0
  9
$DIMTIH
 70
     0
  9
$DIMTOH
 70
     0
  9
$DIMSE1
 70
     0
  9
$DIMSE2
 70
     0
  9
$DIMTAD
 70
     1
  9
$DIMZIN
 70
     8
  9
$DIMBLK
  1

  9
$DIMASO
 70
     1
  9
$DIMSHO
 70
     1
  9
$DIMPOST
  1

  9
$DIMAPOST
  1

  9
$DIMALT
 70
     0
  9
$DIMALTD
 70
     3
  9
$DIMALTF
 40
0.03937
  9
$DIMLFAC
 40
1.0
  9
$DIMTOFL
 70
     1
  9
$DIMTVP
 40
0.0
  9
$DIMTIX
 70
     0
  9
$DIMSOXD
 70
     0
  9
$DIMSAH
 70
     0
  9
$DIMBLK1
  1

  9
$DIMBLK2
  1

  9
$DIMSTYLE
  2
ISO-25
  9
$DIMCLRD
 70
     0
  9
$DIMCLRE
 70
     0
  9
$DIMCLRT
 70
     0
  9
$DIMTFAC
 40
1.0
  9
$DIMGAP
 40
0.625
  9
$DIMJUST
 70
     0
  9
$DIMSD1
 70
     0
  9
$DIMSD2
 70
     0
  9
$DIMTOLJ
 70
     0
  9
$DIMTZIN
 70
     8
  9
$DIMALTZ
 70
     0
  9
$DIMALTTZ
 70
     0
  9
$DIMUPT
 70
     0
  9
$DIMDEC
 70
     2
  9
$DIMTDEC
 70
     2
  9
$DIMALTU
 70
     2
  9
$DIMALTTD
 70
     3
  9
$DIMTXSTY
  7
Standard
  9
$DIMAUNIT
 70
     0
  9
$DIMADEC
 70
     0
  9
$DIMALTRND
 40
0.0
  9
$DIMAZIN
 70
     0
  9
$DIMDSEP
 70
    44
  9
$DIMATFIT
 70
     3
  9
$DIMFRAC
 70
     0
  9
$DIMLDRBLK
  1

  9
$DIMLUNIT
 70
     2
  9
$DIMLWD
 70
    -2
  9
$DIMLWE
 70
    -2
  9
$DIMTMOVE
 70
     0
  9
$LUNITS
 70
     2
  9
$LUPREC
 70
     4
  9
$SKETCHINC
 40
1.0
  9
$FILLETRAD
 40
10.0
  9
$AUNITS
 70
     0
  9
$AUPREC
 70
     0
  9
$MENU
  1
.
  9
$ELEVATION
 40
0.0
  9
$PELEVATION
 40
0.0
  9
$THICKNESS
 40
0.0
  9
$LIMCHECK
 70
     0
  9
$CHAMFERA
 40
10.0
  9
$CHAMFERB
 40
10.0
  9
$CHAMFERC
 40
20.0
  9
$CHAMFERD
 40
0.0
  9
$SKPOLY
 70
     0
  9
$TDCREATE
 40
2455932.36127853
  9
$TDUCREATE
 40
2455932.319611863
  9
$TDUPDATE
 40
2455932.361278542
  9
$TDUUPDATE
 40
2455932.319611875
  9
$TDINDWG
 40
0.0000000116
  9
$TDUSRTIMER
 40
0.0000000116
  9
$USRTIMER
 70
     1
  9
$ANGBASE
 50
0.0
  9
$ANGDIR
 70
     0
  9
$PDMODE
 70
     0
  9
$PDSIZE
 40
0.0
  9
$PLINEWID
 40
0.0
  9
$SPLFRAME
 70
     0
  9
$SPLINETYPE
 70
     6
  9
$SPLINESEGS
 70
     8
  9
$HANDSEED
  5
6ED
  9
$SURFTAB1
 70
     6
  9
$SURFTAB2
 70
     6
  9
$SURFTYPE
 70
     6
  9
$SURFU
 70
     6
  9
$SURFV
 70
     6
  9
$UCSBASE
  2

  9
$UCSNAME
  2

  9
$UCSORG
 10
0.0
 20
0.0
 30
0.0
  9
$UCSXDIR
 10
1.0
 20
0.0
 30
0.0
  9
$UCSYDIR
 10
0.0
 20
1.0
 30
0.0
  9
$UCSORTHOREF
  2

  9
$UCSORTHOVIEW
 70
     0
  9
$UCSORGTOP
 10
0.0
 20
0.0
 30
0.0
  9
$UCSORGBOTTOM
 10
0.0
 20
0.0
 30
0.0
  9
$UCSORGLEFT
 10
0.0
 20
0.0
 30
0.0
  9
$UCSORGRIGHT
 10
0.0
 20
0.0
 30
0.0
  9
$UCSORGFRONT
 10
0.0
 20
0.0
 30
0.0
  9
$UCSORGBACK
 10
0.0
 20
0.0
 30
0.0
  9
$PUCSBASE
  2

  9
$PUCSNAME
  2

  9
$PUCSORG
 10
0.0
 20
0.0
 30
0.0
  9
$PUCSXDIR
 10
1.0
 20
0.0
 30
0.0
  9
$PUCSYDIR
 10
0.0
 20
1.0
 30
0.0
  9
$PUCSORTHOREF
  2

  9
$PUCSORTHOVIEW
 70
     0
  9
$PUCSORGTOP
 10
0.0
 20
0.0
 30
0.0
  9
$PUCSORGBOTTOM
 10
0.0
 20
0.0
 30
0.0
  9
$PUCSORGLEFT
 10
0.0
 20
0.0
 30
0.0
  9
$PUCSORGRIGHT
 10
0.0
 20
0.0
 30
0.0
  9
$PUCSORGFRONT
 10
0.0
 20
0.0
 30
0.0
  9
$PUCSORGBACK
 10
0.0
 20
0.0
 30
0.0
  9
$USERI1
 70
     0
  9
$USERI2
 70
     0
  9
$USERI3
 70
     0
  9
$USERI4
 70
     0
  9
$USERI5
 70
     0
  9
$USERR1
 40
0.0
  9
$USERR2
 40
0.0
  9
$USERR3
 40
0.0
  9
$USERR4
 40
0.0
  9
$USERR5
 40
0.0
  9
$WORLDVIEW
 70
     1
  9
$SHADEDGE
 70
     3
  9
$SHADEDIF
 70
    70
  9
$TILEMODE
 70
     1
  9
$MAXACTVP
 70
    64
  9
$PINSBASE
 10
0.0
 20
0.0
 30
0.0
  9
$PLIMCHECK
 70
     0
  9
$PEXTMIN
 10
0.0
 20
0.0
 30
0.0
  9
$PEXTMAX
 10
840.0
 20
594.0
 30
0.0
  9
$PLIMMIN
 10
0.0
 20
0.0
  9
$PLIMMAX
 10
840.0
 20
594.0
  9
$UNITMODE
 70
     0
  9
$VISRETAIN
 70
     1
  9
$PLINEGEN
 70
     0
  9
$PSLTSCALE
 70
     1
  9
$TREEDEPTH
 70
  3020
  9
$CMLSTYLE
  2
Standard
  9
$CMLJUST
 70
     0
  9
$CMLSCALE
 40
20.0
  9
$PROXYGRAPHICS
 70
     1
  9
$MEASUREMENT
 70
     1
  9
$CELWEIGHT
370
    -1
  9
$ENDCAPS
280
     0
  9
$JOINSTYLE
280
     0
  9
$LWDISPLAY
290
     0
  9
$INSUNITS
 70
     4
  9
$HYPERLINKBASE
  1

  9
$STYLESHEET
  1

  9
$XEDIT
290
     1
  9
$CEPSNTYPE
380
     0
  9
$PSTYLEMODE
290
     1
  9
$FINGERPRINTGUID
  2
{FAEB1C30-E019-11D5-929B-00C0DF256EC4}
  9
$VERSIONGUID
  2
{FAEB1C32-E019-11D5-929B-00C0DF256EC4}
  9
$EXTNAMES
290
     1
  9
$PSVPSCALE
 40
0.0
  9
$OLESTARTUP
290
     0
  0
ENDSEC
  0
SECTION
  2
CLASSES
  0
CLASS
  1
ACDBDICTIONARYWDFLT
  2
AcDbDictionaryWithDefault
  3
ObjectDBX Classes
 90
        0
280
     0
281
     0
  0
CLASS
  1
ACDBPLACEHOLDER
  2
AcDbPlaceHolder
  3
ObjectDBX Classes
 90
        0
280
     0
281
     0
  0
CLASS
  1
LAYOUT
  2
AcDbLayout
  3
ObjectDBX Classes
 90
        0
280
     0
281
     0
  0
ENDSEC
  0
SECTION
  2
TABLES
  0
TABLE
  2
VPORT
  5
8
330
0
100
AcDbSymbolTable
 70
     2
  0
VPORT
  5
29
330
8
100
AcDbSymbolTableRecord
100
AcDbViewportTableRecord
  2
*ACTIVE
 70
     0
 10
0.0
 20
0.0
 11
1.0
 21
1.0
 12
420.0
 22
297.0
 13
0.0
 23
0.0
 14
1.0
 24
1.0
 15
0.0
 25
0.0
 16
0.0
 26
0.0
 36
1.0
 17
0.0
 27
0.0
 37
0.0
 40
594.0
 41
1.414141
 42
50.0
 43
0.0
 44
0.0
 50
0.0
 51
0.0
 71
    16
 72
   100
 73
     1
 74
     0
 75
     0
 76
     0
 77
     0
 78
     0
281
     0
 65
     0
110
0.0
120
0.0
130
0.0
111
1.0
121
0.0
131
0.0
112
0.0
122
1.0
132
0.0
 79
     0
146
0.0
  0
ENDTAB
  0
TABLE
  2
LTYPE
  5
5
330
0
100
AcDbSymbolTable
 70
     3
  0
LTYPE
  5
14
330
5
100
AcDbSymbolTableRecord
100
AcDbLinetypeTableRecord
  2
ByBlock
 70
     0
  3

 72
    65
 73
     0
 40
0.0
  0
LTYPE
  5
15
330
5
100
AcDbSymbolTableRecord
100
AcDbLinetypeTableRecord
  2
ByLayer
 70
     0
  3

 72
    65
 73
     0
 40
0.0
  0
LTYPE
  5
16
330
5
100
AcDbSymbolTableRecord
100
AcDbLinetypeTableRecord
  2
Continuous
 70
     0
  3
Solid line
 72
    65
 73
     0
 40
0.0
  0
LTYPE
  5
2A
330
5
100
AcDbSymbolTableRecord
100
AcDbLinetypeTableRecord
  2
DASHED
 70
     0
  3
__ __ __ __ __
 72
    65
 73
     2
 40
6.25
 49
5.0
 74
     4
 75
     0
340
0
 46
1.0
 50
0.0
 44
0.0
 45
0.0
 49
-1.25
 74
     4
 75
     0
340
0
 46
1.0
 50
0.0
 44
0.0
 45
0.0
  0
LTYPE
  5
30
330
5
100
AcDbSymbolTableRecord
100
AcDbLinetypeTableRecord
  2
DASHDOT
 70
     0
  3
__ . __ . __ . __ . __
 72
    65
 73
     4
 40
7.5
 49
5.0
 74
     4
 75
     0
340
0
 46
1.0
 50
0.0
 44
0.0
 45
0.0
 49
-1.25
 74
     4
 75
     0
340
0
 46
1.0
 50
0.0
 44
0.0
 45
0.0
 49
0.0
 74
     4
 75
     0
340
0
 46
1.0
 50
0.0
 44
0.0
 45
0.0
 49
-1.25
 74
     4
 75
     0
340
0
 46
1.0
 50
0.0
 44
0.0
 45
0.0
  0
ENDTAB
  0
TABLE
  2
LAYER
  5
2
330
0
100
AcDbSymbolTable
 70
     8
  0
LAYER
  5
10
330
2
100
AcDbSymbolTableRecord
100
AcDbLayerTableRecord
  2
0
 70
     0
 62
     7
  6
Continuous
370
    -3
390
F
  0
LAYER
  5
2B
330
2
100
AcDbSymbolTableRecord
100
AcDbLayerTableRecord
  2
LC-INFO-1-2-mm-A3-0
 70
     1
 62
     7
  6
ByBlock
370
    -3
390
F
  0
LAYER
  5
2C
330
2
100
AcDbSymbolTableRecord
100
AcDbLayerTableRecord
  2
LC-CUT-HIDDEN
 70
     0
 62
     7
  6
DASHED
370
    -3
390
F
  0
LAYER
  5
2D
330
2
100
AcDbSymbolTableRecord
100
AcDbLayerTableRecord
  2
LC-VIEWPORT
 70
     0
 62
     7
  6
ByBlock
370
    -3
390
F
  0
LAYER
  5
2E
330
2
100
AcDbSymbolTableRecord
100
AcDbLayerTableRecord
  2
LC-3D-HIDDEN
 70
     0
 62
     9
  6
DASHED
370
    -3
390
F
  0
LAYER
  5
31
330
2
100
AcDbSymbolTableRecord
100
AcDbLayerTableRecord
  2
LC-001-100-D00-0
 70
     0
 62
     2
  6
DASHDOT
370
    -3
390
F
  0
LAYER
  5
59C
330
2
100
AcDbSymbolTableRecord
100
AcDbLayerTableRecord
  2
Defpoints
 70
     0
 62
     7
  6
Continuous
290
     0
370
    -3
390
F
  0
LAYER
  5
64E
330
2
100
AcDbSymbolTableRecord
100
AcDbLayerTableRecord
  2
LC-002-003-----0
 70
     0
 62
     2
  6
ByBlock
370
    -3
390
F
  0
ENDTAB
  0
TABLE
  2
STYLE
  5
3
330
0
100
AcDbSymbolTable
 70
     3
  0
STYLE
  5
11
330
3
100
AcDbSymbolTableRecord
100
AcDbTextStyleTableRecord
  2
Standard
 70
     0
 40
0.0
 41
1.0
 50
0.0
 71
     0
 42
2.5
  3
txt
  4

  0
STYLE
  5
2F
330
3
100
AcDbSymbolTableRecord
100
AcDbTextStyleTableRecord
  2
LCTX15-400-0-0-Arial
 70
     0
 40
0.0
 41
0.8
 50
0.0
 71
     0
 42
3.5
  3

  4

1001
ACAD
1000
Arial
1071
 16777218
  0
STYLE
  5
599
330
3
100
AcDbSymbolTableRecord
100
AcDbTextStyleTableRecord
  2
LCTX15-400-0-0pDIN-Schrift
 70
     0
 40
2.5
 41
0.8
 50
15.0
 71
     0
 42
3.5
  3
STANDARD
  4

  0
ENDTAB
  0
TABLE
  2
VIEW
  5
6
330
0
100
AcDbSymbolTable
 70
     0
  0
ENDTAB
  0
TABLE
  2
UCS
  5
7
330
0
100
AcDbSymbolTable
 70
     0
  0
ENDTAB
  0
TABLE
  2
APPID
  5
9
330
0
100
AcDbSymbolTable
 70
     1
  0
APPID
  5
12
330
9
100
AcDbSymbolTableRecord
100
AcDbRegAppTableRecord
  2
ACAD
 70
     0
  0
ENDTAB
  0
TABLE
  2
DIMSTYLE
  5
A
330
0
100
AcDbSymbolTable
 70
     2
100
AcDbDimStyleTable
  0
DIMSTYLE
105
27
330
A
100
AcDbSymbolTableRecord
100
AcDbDimStyleTableRecord
  2
ISO-25
 70
     0
 41
2.5
 42
0.625
 43
3.75
 44
1.25
 73
     0
 74
     0
 77
     1
 78
     8
140
2.5
141
2.5
143
0.03937
147
0.625
171
     3
172
     1
271
     2
272
     2
274
     3
278
    44
283
     0
284
     8
340
11
  0
DIMSTYLE
105
59A
102
{ACAD_REACTORS
330
59B
330
5AA
330
5B7
330
5C5
330
5D2
330
5E0
330
5ED
330
5FC
330
609
330
616
330
64F
102
}
330
A
100
AcDbSymbolTableRecord
100
AcDbDimStyleTableRecord
  2
LC-DIM-L-0140-02-02
 70
     0
 40
2.0
 41
14.0
 42
0.0
 43
7.5
 44
1.8
 73
     0
 74
     0
 77
     1
 78
     8
 79
     2
140
14.0
141
0.0
146
0.71
147
1.5
176
     2
177
     2
178
     2
179
     2
271
     2
278
    44
289
     1
340
599
  0
ENDTAB
  0
TABLE
  2
BLOCK_RECORD
  5
1
330
0
100
AcDbSymbolTable
 70
    67
  0
BLOCK_RECORD
  5
1F
330
1
100
AcDbSymbolTableRecord
100
AcDbBlockTableRecord
  2
*Model_Space
340
22
  0
BLOCK_RECORD
  5
1B
330
1
100
AcDbSymbolTableRecord
100
AcDbBlockTableRecord
  2
*Paper_Space
340
1E
  0
BLOCK_RECORD
  5
23
330
1
100
AcDbSymbolTableRecord
100
AcDbBlockTableRecord
  2
*Paper_Space0
340
26
  0
BLOCK_RECORD
  5
85
330
1
100
AcDbSymbolTableRecord
100
AcDbBlockTableRecord
  2
POLY1
340
0
102
{BLKREFS
331
94
102
}
  0
BLOCK_RECORD
  5
96
330
1
100
AcDbSymbolTableRecord
100
AcDbBlockTableRecord
  2
POLY2
340
0
102
{BLKREFS
331
A5
102
}
  0
BLOCK_RECORD
  5
A7
330
1
100
AcDbSymbolTableRecord
100
AcDbBlockTableRecord
  2
POLY3
340
0
102
{BLKREFS
331
B6
102
}
  0
BLOCK_RECORD
  5
BA
330
1
100
AcDbSymbolTableRecord
100
AcDbBlockTableRecord
  2
POLY4
340
0
102
{BLKREFS
331
C9
102
}
  0
BLOCK_RECORD
  5
CF
330
1
100
AcDbSymbolTableRecord
100
AcDbBlockTableRecord
  2
POLY5
340
0
102
{BLKREFS
331
DC
102
}
  0
BLOCK_RECORD
  5
DE
330
1
100
AcDbSymbolTableRecord
100
AcDbBlockTableRecord
  2
KLON1
340
0
102
{BLKREFS
331
E3
102
}
  0
BLOCK_RECORD
  5
E4
330
1
100
AcDbSymbolTableRecord
100
AcDbBlockTableRecord
  2
KLON2
340
0
102
{BLKREFS
331
E9
102
}
  0
BLOCK_RECORD
  5
EC
330
1
100
AcDbSymbolTableRecord
100
AcDbBlockTableRecord
  2
KLON3
340
0
102
{BLKREFS
331
F1
102
}
  0
BLOCK_RECORD
  5
F2
330
1
100
AcDbSymbolTableRecord
100
AcDbBlockTableRecord
  2
KLON4
340
0
102
{BLKREFS
331
F7
102
}
  0
BLOCK_RECORD
  5
20A
330
1
100
AcDbSymbolTableRecord
100
AcDbBlockTableRecord
  2
POLY6
340
0
102
{BLKREFS
331
217
102
}
  0
BLOCK_RECORD
  5
219
330
1
100
AcDbSymbolTableRecord
100
AcDbBlockTableRecord
  2
POLY7
340
0
102
{BLKREFS
331
224
102
}
  0
BLOCK_RECORD
  5
225
330
1
100
AcDbSymbolTableRecord
100
AcDbBlockTableRecord
  2
POLY8
340
0
102
{BLKREFS
331
230
102
}
  0
BLOCK_RECORD
  5
253
330
1
100
AcDbSymbolTableRecord
100
AcDbBlockTableRecord
  2
POLY9
340
0
102
{BLKREFS
331
264
102
}
  0
BLOCK_RECORD
  5
290
330
1
100
AcDbSymbolTableRecord
100
AcDbBlockTableRecord
  2
POLY10
340
0
102
{BLKREFS
331
29D
102
}
  0
BLOCK_RECORD
  5
37D
330
1
100
AcDbSymbolTableRecord
100
AcDbBlockTableRecord
  2
POLY11
340
0
102
{BLKREFS
331
390
102
}
  0
BLOCK_RECORD
  5
394
330
1
100
AcDbSymbolTableRecord
100
AcDbBlockTableRecord
  2
POLY12
340
0
102
{BLKREFS
331
39F
102
}
  0
BLOCK_RECORD
  5
3A8
330
1
100
AcDbSymbolTableRecord
100
AcDbBlockTableRecord
  2
POLY13
340
0
102
{BLKREFS
331
3B5
102
}
  0
BLOCK_RECORD
  5
3B8
330
1
100
AcDbSymbolTableRecord
100
AcDbBlockTableRecord
  2
POLY14
340
0
102
{BLKREFS
331
3C5
102
}
  0
BLOCK_RECORD
  5
3C8
330
1
100
AcDbSymbolTableRecord
100
AcDbBlockTableRecord
  2
POLY15
340
0
102
{BLKREFS
331
3D5
102
}
  0
BLOCK_RECORD
  5
3D7
330
1
100
AcDbSymbolTableRecord
100
AcDbBlockTableRecord
  2
POLY16
340
0
102
{BLKREFS
331
3E2
102
}
  0
BLOCK_RECORD
  5
3E5
330
1
100
AcDbSymbolTableRecord
100
AcDbBlockTableRecord
  2
POLY17
340
0
102
{BLKREFS
331
3F4
102
}
  0
BLOCK_RECORD
  5
419
330
1
100
AcDbSymbolTableRecord
100
AcDbBlockTableRecord
  2
POLY18
340
0
102
{BLKREFS
331
428
102
}
  0
BLOCK_RECORD
  5
42A
330
1
100
AcDbSymbolTableRecord
100
AcDbBlockTableRecord
  2
POLY19
340
0
102
{BLKREFS
331
435
102
}
  0
BLOCK_RECORD
  5
437
330
1
100
AcDbSymbolTableRecord
100
AcDbBlockTableRecord
  2
POLY20
340
0
102
{BLKREFS
331
446
102
}
  0
BLOCK_RECORD
  5
448
330
1
100
AcDbSymbolTableRecord
100
AcDbBlockTableRecord
  2
POLY21
340
0
102
{BLKREFS
331
457
102
}
  0
BLOCK_RECORD
  5
458
330
1
100
AcDbSymbolTableRecord
100
AcDbBlockTableRecord
  2
POLY22
340
0
102
{BLKREFS
331
467
102
}
  0
BLOCK_RECORD
  5
468
330
1
100
AcDbSymbolTableRecord
100
AcDbBlockTableRecord
  2
POLY23
340
0
102
{BLKREFS
331
477
102
}
  0
BLOCK_RECORD
  5
478
330
1
100
AcDbSymbolTableRecord
100
AcDbBlockTableRecord
  2
POLY24
340
0
102
{BLKREFS
331
487
102
}
  0
BLOCK_RECORD
  5
489
330
1
100
AcDbSymbolTableRecord
100
AcDbBlockTableRecord
  2
POLY25
340
0
102
{BLKREFS
331
498
102
}
  0
BLOCK_RECORD
  5
49A
330
1
100
AcDbSymbolTableRecord
100
AcDbBlockTableRecord
  2
POLY26
340
0
102
{BLKREFS
331
4A5
102
}
  0
BLOCK_RECORD
  5
4BF
330
1
100
AcDbSymbolTableRecord
100
AcDbBlockTableRecord
  2
KLON5
340
0
102
{BLKREFS
331
4DB
102
}
  0
BLOCK_RECORD
  5
4DC
330
1
100
AcDbSymbolTableRecord
100
AcDbBlockTableRecord
  2
KLON6
340
0
102
{BLKREFS
331
4E1
102
}
  0
BLOCK_RECORD
  5
4E2
330
1
100
AcDbSymbolTableRecord
100
AcDbBlockTableRecord
  2
KLON7
340
0
102
{BLKREFS
331
4E7
102
}
  0
BLOCK_RECORD
  5
4EA
330
1
100
AcDbSymbolTableRecord
100
AcDbBlockTableRecord
  2
KLON8
340
0
102
{BLKREFS
331
4F2
102
}
  0
BLOCK_RECORD
  5
4F3
330
1
100
AcDbSymbolTableRecord
100
AcDbBlockTableRecord
  2
KLON9
340
0
102
{BLKREFS
331
4FA
102
}
  0
BLOCK_RECORD
  5
4FB
330
1
100
AcDbSymbolTableRecord
100
AcDbBlockTableRecord
  2
KLON10
340
0
102
{BLKREFS
331
502
102
}
  0
BLOCK_RECORD
  5
503
330
1
100
AcDbSymbolTableRecord
100
AcDbBlockTableRecord
  2
KLON11
340
0
102
{BLKREFS
331
50A
102
}
  0
BLOCK_RECORD
  5
50B
330
1
100
AcDbSymbolTableRecord
100
AcDbBlockTableRecord
  2
KLON12
340
0
102
{BLKREFS
331
512
102
}
  0
BLOCK_RECORD
  5
514
330
1
100
AcDbSymbolTableRecord
100
AcDbBlockTableRecord
  2
KLON13
340
0
102
{BLKREFS
331
519
102
}
  0
BLOCK_RECORD
  5
51A
330
1
100
AcDbSymbolTableRecord
100
AcDbBlockTableRecord
  2
KLON14
340
0
102
{BLKREFS
331
522
102
}
  0
BLOCK_RECORD
  5
523
330
1
100
AcDbSymbolTableRecord
100
AcDbBlockTableRecord
  2
KLON15
340
0
102
{BLKREFS
331
52A
102
}
  0
BLOCK_RECORD
  5
52B
330
1
100
AcDbSymbolTableRecord
100
AcDbBlockTableRecord
  2
KLON16
340
0
102
{BLKREFS
331
553
102
}
  0
BLOCK_RECORD
  5
554
330
1
100
AcDbSymbolTableRecord
100
AcDbBlockTableRecord
  2
KLON17
340
0
102
{BLKREFS
331
57D
102
}
  0
BLOCK_RECORD
  5
57E
330
1
100
AcDbSymbolTableRecord
100
AcDbBlockTableRecord
  2
KLON18
340
0
102
{BLKREFS
331
58B
102
}
  0
BLOCK_RECORD
  5
58C
330
1
100
AcDbSymbolTableRecord
100
AcDbBlockTableRecord
  2
KLON19
340
0
102
{BLKREFS
331
598
102
}
  0
BLOCK_RECORD
  5
59D
330
1
100
AcDbSymbolTableRecord
100
AcDbBlockTableRecord
  2
*D46
340
0
  0
BLOCK_RECORD
  5
5AB
330
1
100
AcDbSymbolTableRecord
100
AcDbBlockTableRecord
  2
*D47
340
0
  0
BLOCK_RECORD
  5
5B8
330
1
100
AcDbSymbolTableRecord
100
AcDbBlockTableRecord
  2
*D48
340
0
  0
BLOCK_RECORD
  5
5C6
330
1
100
AcDbSymbolTableRecord
100
AcDbBlockTableRecord
  2
*D49
340
0
  0
BLOCK_RECORD
  5
5D3
330
1
100
AcDbSymbolTableRecord
100
AcDbBlockTableRecord
  2
*D50
340
0
  0
BLOCK_RECORD
  5
5E1
330
1
100
AcDbSymbolTableRecord
100
AcDbBlockTableRecord
  2
*D51
340
0
  0
BLOCK_RECORD
  5
5EE
330
1
100
AcDbSymbolTableRecord
100
AcDbBlockTableRecord
  2
*D52
340
0
  0
BLOCK_RECORD
  5
5FD
330
1
100
AcDbSymbolTableRecord
100
AcDbBlockTableRecord
  2
*D53
340
0
  0
BLOCK_RECORD
  5
60A
330
1
100
AcDbSymbolTableRecord
100
AcDbBlockTableRecord
  2
*D54
340
0
  0
BLOCK_RECORD
  5
617
330
1
100
AcDbSymbolTableRecord
100
AcDbBlockTableRecord
  2
*D55
340
0
  0
BLOCK_RECORD
  5
62D
330
1
100
AcDbSymbolTableRecord
100
AcDbBlockTableRecord
  2
POLY27
340
0
102
{BLKREFS
331
63E
102
}
  0
BLOCK_RECORD
  5
642
330
1
100
AcDbSymbolTableRecord
100
AcDbBlockTableRecord
  2
POLY28
340
0
102
{BLKREFS
331
64D
102
}
  0
BLOCK_RECORD
  5
650
330
1
100
AcDbSymbolTableRecord
100
AcDbBlockTableRecord
  2
*D58
340
0
  0
BLOCK_RECORD
  5
65D
330
1
100
AcDbSymbolTableRecord
100
AcDbBlockTableRecord
  2
POLY29
340
0
102
{BLKREFS
331
668
102
}
  0
BLOCK_RECORD
  5
66E
330
1
100
AcDbSymbolTableRecord
100
AcDbBlockTableRecord
  2
POLY30
340
0
102
{BLKREFS
331
67B
102
}
  0
BLOCK_RECORD
  5
67F
330
1
100
AcDbSymbolTableRecord
100
AcDbBlockTableRecord
  2
POLY31
340
0
102
{BLKREFS
331
690
102
}
  0
BLOCK_RECORD
  5
698
330
1
100
AcDbSymbolTableRecord
100
AcDbBlockTableRecord
  2
POLY32
340
0
102
{BLKREFS
331
6A9
102
}
  0
BLOCK_RECORD
  5
6AD
330
1
100
AcDbSymbolTableRecord
100
AcDbBlockTableRecord
  2
POLY33
340
0
102
{BLKREFS
331
6B8
102
}
  0
BLOCK_RECORD
  5
6B9
330
1
100
AcDbSymbolTableRecord
100
AcDbBlockTableRecord
  2
POLY34
340
0
102
{BLKREFS
331
6C4
102
}
  0
BLOCK_RECORD
  5
6CA
330
1
100
AcDbSymbolTableRecord
100
AcDbBlockTableRecord
  2
POLY35
340
0
102
{BLKREFS
331
6D7
102
}
  0
BLOCK_RECORD
  5
6DB
330
1
100
AcDbSymbolTableRecord
100
AcDbBlockTableRecord
  2
POLY36
340
0
102
{BLKREFS
331
6EC
102
}
  0
ENDTAB
  0
ENDSEC
  0
SECTION
  2
BLOCKS
  0
BLOCK
  5
20
330
1F
100
AcDbEntity
  8
0
100
AcDbBlockBegin
  2
*Model_Space
 70
     0
 71
     0
 10
0.0
 20
0.0
 30
0.0
  3
*Model_Space
  1

  0
ENDBLK
  5
21
330
1F
100
AcDbEntity
  8
0
100
AcDbBlockEnd
  0
BLOCK
  5
1C
330
1B
100
AcDbEntity
 67
     1
  8
0
100
AcDbBlockBegin
  2
*Paper_Space
 70
     0
 71
     0
 10
0.0
 20
0.0
 30
0.0
  3
*Paper_Space
  1

  0
ENDBLK
  5
1D
330
1B
100
AcDbEntity
 67
     1
  8
0
100
AcDbBlockEnd
  0
BLOCK
  5
24
330
23
100
AcDbEntity
  8
0
100
AcDbBlockBegin
  2
*Paper_Space0
 70
     0
 71
     0
 10
0.0
 20
0.0
 30
0.0
  3
*Paper_Space0
  1

  0
ENDBLK
  5
25
330
23
100
AcDbEntity
  8
0
100
AcDbBlockEnd
  0
BLOCK
  5
86
330
85
100
AcDbEntity
  8
0
100
AcDbBlockBegin
  2
POLY1
 70
     0
 71
     0
 10
0.0
 20
0.0
 30
0.0
  3
POLY1
  1

  4
POLY1
  0
LINE
  5
88
330
85
100
AcDbEntity
  8
LC-001-100-D00-0
  6
ByBlock
 62
     7
370
    50
100
AcDbLine
 10
492.501978
 20
158.234739
 30
0.0
 11
492.501978
 21
158.234739
 31
0.0
  0
LINE
  5
89
330
85
100
AcDbEntity
  8
LC-001-100-D00-0
  6
ByBlock
 62
     7
370
    50
100
AcDbLine
 10
492.501978
 20
158.234739
 30
0.0
 11
492.856419
 21
157.830915
 31
0.0
  0
LINE
  5
8A
330
85
100
AcDbEntity
  8
LC-001-100-D00-0
  6
ByBlock
 62
     7
370
    50
100
AcDbLine
 10
492.856419
 20
157.830915
 30
0.0
 11
492.856419
 21
157.830915
 31
0.0
  0
LINE
  5
8B
330
85
100
AcDbEntity
  8
LC-001-100-D00-0
  6
ByBlock
 62
     7
370
    50
100
AcDbLine
 10
492.856419
 20
157.830915
 30
0.0
 11
493.565412
 21
157.02314
 31
0.0
  0
LINE
  5
8C
330
85
100
AcDbEntity
  8
LC-001-100-D00-0
  6
ByBlock
 62
     7
370
    50
100
AcDbLine
 10
493.565412
 20
157.02314
 30
0.0
 11
493.565412
 21
157.02314
 31
0.0
  0
LINE
  5
8D
330
85
100
AcDbEntity
  8
LC-001-100-D00-0
  6
ByBlock
 62
     7
370
    50
100
AcDbLine
 10
493.565412
 20
157.02314
 30
0.0
 11
495.057533
 21
156.351356
 31
0.0
  0
LINE
  5
8E
330
85
100
AcDbEntity
  8
LC-001-100-D00-0
  6
ByBlock
 62
     7
370
    50
100
AcDbLine
 10
495.057533
 20
156.351356
 30
0.0
 11
495.057533
 21
156.351356
 31
0.0
  0
LINE
  5
8F
330
85
100
AcDbEntity
  8
LC-001-100-D00-0
  6
ByBlock
 62
     7
370
    50
100
AcDbLine
 10
495.057533
 20
156.351356
 30
0.0
 11
496.288949
 21
156.210715
 31
0.0
  0
LINE
  5
90
330
85
100
AcDbEntity
  8
LC-001-100-D00-0
  6
ByBlock
 62
     7
370
    50
100
AcDbLine
 10
496.288949
 20
156.210715
 30
0.0
 11
496.288949
 21
156.210715
 31
0.0
  0
LINE
  5
91
330
85
100
AcDbEntity
  8
LC-001-100-D00-0
  6
ByBlock
 62
     7
370
    50
100
AcDbLine
 10
496.288949
 20
156.210715
 30
0.0
 11
496.967406
 21
156.300867
 31
0.0
  0
LINE
  5
92
330
85
100
AcDbEntity
  8
LC-001-100-D00-0
  6
ByBlock
 62
     7
370
    50
100
AcDbLine
 10
496.967406
 20
156.300867
 30
0.0
 11
496.967406
 21
156.300867
 31
0.0
  0
LINE
  5
93
330
85
100
AcDbEntity
  8
LC-001-100-D00-0
  6
ByBlock
 62
     7
370
    50
100
AcDbLine
 10
496.967406
 20
156.300867
 30
0.0
 11
497.121375
 21
156.321326
 31
0.0
  0
ENDBLK
  5
87
330
85
100
AcDbEntity
  8
0
100
AcDbBlockEnd
  0
BLOCK
  5
97
330
96
100
AcDbEntity
  8
0
100
AcDbBlockBegin
  2
POLY2
 70
     0
 71
     0
 10
0.0
 20
0.0
 30
0.0
  3
POLY2
  1

  4
POLY2
  0
LINE
  5
99
330
96
100
AcDbEntity
  8
LC-001-100-D00-0
  6
ByBlock
 62
     7
370
    50
100
AcDbLine
 10
569.980275
 20
83.462419
 30
0.0
 11
569.980275
 21
83.462419
 31
0.0
  0
LINE
  5
9A
330
96
100
AcDbEntity
  8
LC-001-100-D00-0
  6
ByBlock
 62
     7
370
    50
100
AcDbLine
 10
569.980275
 20
83.462419
 30
0.0
 11
569.94536
 21
82.926245
 31
0.0
  0
LINE
  5
9B
330
96
100
AcDbEntity
  8
LC-001-100-D00-0
  6
ByBlock
 62
     7
370
    50
100
AcDbLine
 10
569.94536
 20
82.926245
 30
0.0
 11
569.94536
 21
82.926245
 31
0.0
  0
LINE
  5
9C
330
96
100
AcDbEntity
  8
LC-001-100-D00-0
  6
ByBlock
 62
     7
370
    50
100
AcDbLine
 10
569.94536
 20
82.926245
 30
0.0
 11
569.87552
 21
81.85373
 31
0.0
  0
LINE
  5
9D
330
96
100
AcDbEntity
  8
LC-001-100-D00-0
  6
ByBlock
 62
     7
370
    50
100
AcDbLine
 10
569.87552
 20
81.85373
 30
0.0
 11
569.87552
 21
81.85373
 31
0.0
  0
LINE
  5
9E
330
96
100
AcDbEntity
  8
LC-001-100-D00-0
  6
ByBlock
 62
     7
370
    50
100
AcDbLine
 10
569.87552
 20
81.85373
 30
0.0
 11
570.455565
 21
80.323613
 31
0.0
  0
LINE
  5
9F
330
96
100
AcDbEntity
  8
LC-001-100-D00-0
  6
ByBlock
 62
     7
370
    50
100
AcDbLine
 10
570.455565
 20
80.323613
 30
0.0
 11
570.455565
 21
80.323613
 31
0.0
  0
LINE
  5
A0
330
96
100
AcDbEntity
  8
LC-001-100-D00-0
  6
ByBlock
 62
     7
370
    50
100
AcDbLine
 10
570.455565
 20
80.323613
 30
0.0
 11
571.226868
 21
79.353426
 31
0.0
  0
LINE
  5
A1
330
96
100
AcDbEntity
  8
LC-001-100-D00-0
  6
ByBlock
 62
     7
370
    50
100
AcDbLine
 10
571.226868
 20
79.353426
 30
0.0
 11
571.226868
 21
79.353426
 31
0.0
  0
LINE
  5
A2
330
96
100
AcDbEntity
  8
LC-001-100-D00-0
  6
ByBlock
 62
     7
370
    50
100
AcDbLine
 10
571.226868
 20
79.353426
 30
0.0
 11
571.770356
 21
78.937429
 31
0.0
  0
LINE
  5
A3
330
96
100
AcDbEntity
  8
LC-001-100-D00-0
  6
ByBlock
 62
     7
370
    50
100
AcDbLine
 10
571.770356
 20
78.937429
 30
0.0
 11
571.770356
 21
78.937429
 31
0.0
  0
LINE
  5
A4
330
96
100
AcDbEntity
  8
LC-001-100-D00-0
  6
ByBlock
 62
     7
370
    50
100
AcDbLine
 10
571.770356
 20
78.937429
 30
0.0
 11
571.893696
 21
78.843021
 31
0.0
  0
ENDBLK
  5
98
330
96
100
AcDbEntity
  8
0
100
AcDbBlockEnd
  0
BLOCK
  5
A8
330
A7
100
AcDbEntity
  8
0
100
AcDbBlockBegin
  2
POLY3
 70
     0
 71
     0
 10
0.0
 20
0.0
 30
0.0
  3
POLY3
  1

  4
POLY3
  0
LINE
  5
AA
330
A7
100
AcDbEntity
  8
LC-001-100-D00-0
  6
ByBlock
 62
     7
370
    50
100
AcDbLine
 10
384.844538
 20
156.321326
 30
0.0
 11
384.844538
 21
156.321326
 31
0.0
  0
LINE
  5
AB
330
A7
100
AcDbEntity
  8
LC-001-100-D00-0
  6
ByBlock
 62
     7
370
    50
100
AcDbLine
 10
384.844538
 20
156.321326
 30
0.0
 11
385.38071
 21
156.286408
 31
0.0
  0
LINE
  5
AC
330
A7
100
AcDbEntity
  8
LC-001-100-D00-0
  6
ByBlock
 62
     7
370
    50
100
AcDbLine
 10
385.38071
 20
156.286408
 30
0.0
 11
385.38071
 21
156.286408
 31
0.0
  0
LINE
  5
AD
330
A7
100
AcDbEntity
  8
LC-001-100-D00-0
  6
ByBlock
 62
     7
370
    50
100
AcDbLine
 10
385.38071
 20
156.286408
 30
0.0
 11
386.453225
 21
156.216563
 31
0.0
  0
LINE
  5
AE
330
A7
100
AcDbEntity
  8
LC-001-100-D00-0
  6
ByBlock
 62
     7
370
    50
100
AcDbLine
 10
386.453225
 20
156.216563
 30
0.0
 11
386.453225
 21
156.216563
 31
0.0
  0
LINE
  5
AF
330
A7
100
AcDbEntity
  8
LC-001-100-D00-0
  6
ByBlock
 62
     7
370
    50
100
AcDbLine
 10
386.453225
 20
156.216563
 30
0.0
 11
387.983346
 21
156.796607
 31
0.0
  0
LINE
  5
B0
330
A7
100
AcDbEntity
  8
LC-001-100-D00-0
  6
ByBlock
 62
     7
370
    50
100
AcDbLine
 10
387.983346
 20
156.796607
 30
0.0
 11
387.983346
 21
156.796607
 31
0.0
  0
LINE
  5
B1
330
A7
100
AcDbEntity
  8
LC-001-100-D00-0
  6
ByBlock
 62
     7
370
    50
100
AcDbLine
 10
387.983346
 20
156.796607
 30
0.0
 11
388.953526
 21
157.567917
 31
0.0
  0
LINE
  5
B2
330
A7
100
AcDbEntity
  8
LC-001-100-D00-0
  6
ByBlock
 62
     7
370
    50
100
AcDbLine
 10
388.953526
 20
157.567917
 30
0.0
 11
388.953526
 21
157.567917
 31
0.0
  0
LINE
  5
B3
330
A7
100
AcDbEntity
  8
LC-001-100-D00-0
  6
ByBlock
 62
     7
370
    50
100
AcDbLine
 10
388.953526
 20
157.567917
 30
0.0
 11
389.369525
 21
158.111402
 31
0.0
  0
LINE
  5
B4
330
A7
100
AcDbEntity
  8
LC-001-100-D00-0
  6
ByBlock
 62
     7
370
    50
100
AcDbLine
 10
389.369525
 20
158.111402
 30
0.0
 11
389.369525
 21
158.111402
 31
0.0
  0
LINE
  5
B5
330
A7
100
AcDbEntity
  8
LC-001-100-D00-0
  6
ByBlock
 62
     7
370
    50
100
AcDbLine
 10
389.369525
 20
158.111402
 30
0.0
 11
389.463932
 21
158.234739
 31
0.0
  0
ENDBLK
  5
A9
330
A7
100
AcDbEntity
  8
0
100
AcDbBlockEnd
  0
BLOCK
  5
BB
330
BA
100
AcDbEntity
  8
0
100
AcDbBlockBegin
  2
POLY4
 70
     0
 71
     0
 10
0.0
 20
0.0
 30
0.0
  3
POLY4
  1

  4
POLY4
  0
LINE
  5
BD
330
BA
100
AcDbEntity
  8
LC-001-100-D00-0
  6
ByBlock
 62
     7
370
    50
100
AcDbLine
 10
310.072217
 20
78.843021
 30
0.0
 11
310.072217
 21
78.843021
 31
0.0
  0
LINE
  5
BE
330
BA
100
AcDbEntity
  8
LC-001-100-D00-0
  6
ByBlock
 62
     7
370
    50
100
AcDbLine
 10
310.072217
 20
78.843021
 30
0.0
 11
310.476042
 21
79.197464
 31
0.0
  0
LINE
  5
BF
330
BA
100
AcDbEntity
  8
LC-001-100-D00-0
  6
ByBlock
 62
     7
370
    50
100
AcDbLine
 10
310.476042
 20
79.197464
 30
0.0
 11
310.476042
 21
79.197464
 31
0.0
  0
LINE
  5
C0
330
BA
100
AcDbEntity
  8
LC-001-100-D00-0
  6
ByBlock
 62
     7
370
    50
100
AcDbLine
 10
310.476042
 20
79.197464
 30
0.0
 11
311.283816
 21
79.906459
 31
0.0
  0
LINE
  5
C1
330
BA
100
AcDbEntity
  8
LC-001-100-D00-0
  6
ByBlock
 62
     7
370
    50
100
AcDbLine
 10
311.283816
 20
79.906459
 30
0.0
 11
311.283816
 21
79.906459
 31
0.0
  0
LINE
  5
C2
330
BA
100
AcDbEntity
  8
LC-001-100-D00-0
  6
ByBlock
 62
     7
370
    50
100
AcDbLine
 10
311.283816
 20
79.906459
 30
0.0
 11
311.9556
 21
81.398578
 31
0.0
  0
LINE
  5
C3
330
BA
100
AcDbEntity
  8
LC-001-100-D00-0
  6
ByBlock
 62
     7
370
    50
100
AcDbLine
 10
311.9556
 20
81.398578
 30
0.0
 11
311.9556
 21
81.398578
 31
0.0
  0
LINE
  5
C4
330
BA
100
AcDbEntity
  8
LC-001-100-D00-0
  6
ByBlock
 62
     7
370
    50
100
AcDbLine
 10
311.9556
 20
81.398578
 30
0.0
 11
312.096242
 21
82.629993
 31
0.0
  0
LINE
  5
C5
330
BA
100
AcDbEntity
  8
LC-001-100-D00-0
  6
ByBlock
 62
     7
370
    50
100
AcDbLine
 10
312.096242
 20
82.629993
 30
0.0
 11
312.096242
 21
82.629993
 31
0.0
  0
LINE
  5
C6
330
BA
100
AcDbEntity
  8
LC-001-100-D00-0
  6
ByBlock
 62
     7
370
    50
100
AcDbLine
 10
312.096242
 20
82.629993
 30
0.0
 11
312.00609
 21
83.30845
 31
0.0
  0
LINE
  5
C7
330
BA
100
AcDbEntity
  8
LC-001-100-D00-0
  6
ByBlock
 62
     7
370
    50
100
AcDbLine
 10
312.00609
 20
83.30845
 30
0.0
 11
312.00609
 21
83.30845
 31
0.0
  0
LINE
  5
C8
330
BA
100
AcDbEntity
  8
LC-001-100-D00-0
  6
ByBlock
 62
     7
370
    50
100
AcDbLine
 10
312.00609
 20
83.30845
 30
0.0
 11
311.985631
 21
83.462419
 31
0.0
  0
ENDBLK
  5
BC
330
BA
100
AcDbEntity
  8
0
100
AcDbBlockEnd
  0
BLOCK
  5
D0
330
CF
100
AcDbEntity
  8
0
100
AcDbBlockBegin
  2
POLY5
 70
     0
 71
     0
 10
0.0
 20
0.0
 30
0.0
  3
POLY5
  1

  4
POLY5
  0
LINE
  5
D2
330
CF
100
AcDbEntity
  8
LC-001-100-D00-0
  6
ByBlock
 62
     7
370
    50
100
AcDbLine
 10
447.036054
 20
72.924001
 30
0.0
 11
447.036054
 21
72.924001
 31
0.0
  0
LINE
  5
D3
330
CF
100
AcDbEntity
  8
LC-001-100-D00-0
  6
ByBlock
 62
     7
370
    50
100
AcDbLine
 10
447.036054
 20
72.924001
 30
0.0
 11
446.241116
 21
73.016207
 31
0.0
  0
LINE
  5
D4
330
CF
100
AcDbEntity
  8
LC-001-100-D00-0
  6
ByBlock
 62
     7
370
    50
100
AcDbLine
 10
446.241116
 20
73.016207
 30
0.0
 11
446.241116
 21
73.016207
 31
0.0
  0
LINE
  5
D5
330
CF
100
AcDbEntity
  8
LC-001-100-D00-0
  6
ByBlock
 62
     7
370
    50
100
AcDbLine
 10
446.241116
 20
73.016207
 30
0.0
 11
444.105783
 21
73.263889
 31
0.0
  0
LINE
  5
D6
330
CF
100
AcDbEntity
  8
LC-001-100-D00-0
  6
ByBlock
 62
     7
370
    50
100
AcDbLine
 10
444.105783
 20
73.263889
 30
0.0
 11
444.105783
 21
73.263889
 31
0.0
  0
LINE
  5
D7
330
CF
100
AcDbEntity
  8
LC-001-100-D00-0
  6
ByBlock
 62
     7
370
    50
100
AcDbLine
 10
444.105783
 20
73.263889
 30
0.0
 11
440.052588
 21
73.418872
 31
0.0
  0
LINE
  5
D8
330
CF
100
AcDbEntity
  8
LC-001-100-D00-0
  6
ByBlock
 62
     7
370
    50
100
AcDbLine
 10
440.052588
 20
73.418872
 30
0.0
 11
440.052588
 21
73.418872
 31
0.0
  0
LINE
  5
D9
330
CF
100
AcDbEntity
  8
LC-001-100-D00-0
  6
ByBlock
 62
     7
370
    50
100
AcDbLine
 10
440.052588
 20
73.418872
 30
0.0
 11
436.818908
 21
73.106489
 31
0.0
  0
LINE
  5
DA
330
CF
100
AcDbEntity
  8
LC-001-100-D00-0
  6
ByBlock
 62
     7
370
    50
100
AcDbLine
 10
436.818908
 20
73.106489
 30
0.0
 11
436.818908
 21
73.106489
 31
0.0
  0
LINE
  5
DB
330
CF
100
AcDbEntity
  8
LC-001-100-D00-0
  6
ByBlock
 62
     7
370
    50
100
AcDbLine
 10
436.818908
 20
73.106489
 30
0.0
 11
434.929857
 21
72.924001
 31
0.0
  0
ENDBLK
  5
D1
330
CF
100
AcDbEntity
  8
0
100
AcDbBlockEnd
  0
BLOCK
  5
DF
330
DE
100
AcDbEntity
  8
0
100
AcDbBlockBegin
  2
KLON1
 70
     0
 71
     0
 10
0.0
 20
0.0
 30
0.0
  3
KLON1
  1

  4
KLON1
  0
LINE
  5
E1
330
DE
100
AcDbEntity
  8
LC-001-100-D00-0
  6
ByBlock
 62
     7
370
    15
100
AcDbLine
 10
416.590333
 20
66.324001
 30
0.0
 11
415.058591
 21
65.323045
 31
0.0
  0
LINE
  5
E2
330
DE
100
AcDbEntity
  8
LC-001-100-D00-0
  6
ByBlock
 62
     7
370
    15
100
AcDbLine
 10
415.058591
 20
65.323045
 30
0.0
 11
411.996246
 21
63.041931
 31
0.0
  0
ENDBLK
  5
E0
330
DE
100
AcDbEntity
  8
0
100
AcDbBlockEnd
  0
BLOCK
  5
E5
330
E4
100
AcDbEntity
  8
0
100
AcDbBlockBegin
  2
KLON2
 70
     0
 71
     0
 10
0.0
 20
0.0
 30
0.0
  3
KLON2
  1

  4
KLON2
  0
LINE
  5
E7
330
E4
100
AcDbEntity
  8
LC-001-100-D00-0
  6
ByBlock
 62
     7
370
    15
100
AcDbLine
 10
405.265022
 20
56.310711
 30
0.0
 11
402.983912
 21
53.248364
 31
0.0
  0
LINE
  5
E8
330
E4
100
AcDbEntity
  8
LC-001-100-D00-0
  6
ByBlock
 62
     7
370
    15
100
AcDbLine
 10
402.983912
 20
53.248364
 30
0.0
 11
401.982956
 21
51.716622
 31
0.0
  0
ENDBLK
  5
E6
330
E4
100
AcDbEntity
  8
0
100
AcDbBlockEnd
  0
BLOCK
  5
ED
330
EC
100
AcDbEntity
  8
0
100
AcDbBlockBegin
  2
KLON3
 70
     0
 71
     0
 10
0.0
 20
0.0
 30
0.0
  3
KLON3
  1

  4
KLON3
  0
LINE
  5
EF
330
EC
100
AcDbEntity
  8
LC-001-100-D00-0
  6
ByBlock
 62
     7
370
    15
100
AcDbLine
 10
479.982956
 20
51.716622
 30
0.0
 11
478.982
 21
53.248364
 31
0.0
  0
LINE
  5
F0
330
EC
100
AcDbEntity
  8
LC-001-100-D00-0
  6
ByBlock
 62
     7
370
    15
100
AcDbLine
 10
478.982
 20
53.248364
 30
0.0
 11
476.700887
 21
56.310711
 31
0.0
  0
ENDBLK
  5
EE
330
EC
100
AcDbEntity
  8
0
100
AcDbBlockEnd
  0
BLOCK
  5
F3
330
F2
100
AcDbEntity
  8
0
100
AcDbBlockBegin
  2
KLON4
 70
     0
 71
     0
 10
0.0
 20
0.0
 30
0.0
  3
KLON4
  1

  4
KLON4
  0
LINE
  5
F5
330
F2
100
AcDbEntity
  8
LC-001-100-D00-0
  6
ByBlock
 62
     7
370
    15
100
AcDbLine
 10
469.969666
 20
63.041931
 30
0.0
 11
466.907319
 21
65.323045
 31
0.0
  0
LINE
  5
F6
330
F2
100
AcDbEntity
  8
LC-001-100-D00-0
  6
ByBlock
 62
     7
370
    15
100
AcDbLine
 10
466.907319
 20
65.323045
 30
0.0
 11
465.375576
 21
66.324001
 31
0.0
  0
ENDBLK
  5
F4
330
F2
100
AcDbEntity
  8
0
100
AcDbBlockEnd
  0
BLOCK
  5
20B
330
20A
100
AcDbEntity
  8
0
100
AcDbBlockBegin
  2
POLY6
 70
     0
 71
     0
 10
0.0
 20
0.0
 30
0.0
  3
POLY6
  1

  4
POLY6
  0
LINE
  5
20D
330
20A
100
AcDbEntity
  8
LC-001-100-D00-0
  6
ByBlock
 62
     7
370
    50
100
AcDbLine
 10
447.036054
 20
496.712174
 30
0.0
 11
447.036054
 21
496.712174
 31
0.0
  0
LINE
  5
20E
330
20A
100
AcDbEntity
  8
LC-001-100-D00-0
  6
ByBlock
 62
     7
370
    50
100
AcDbLine
 10
447.036054
 20
496.712174
 30
0.0
 11
446.241116
 21
496.720673
 31
0.0
  0
LINE
  5
20F
330
20A
100
AcDbEntity
  8
LC-001-100-D00-0
  6
ByBlock
 62
     7
370
    50
100
AcDbLine
 10
446.241116
 20
496.720673
 30
0.0
 11
446.241116
 21
496.720673
 31
0.0
  0
LINE
  5
210
330
20A
100
AcDbEntity
  8
LC-001-100-D00-0
  6
ByBlock
 62
     7
370
    50
100
AcDbLine
 10
446.241116
 20
496.720673
 30
0.0
 11
444.105783
 21
496.743504
 31
0.0
  0
LINE
  5
211
330
20A
100
AcDbEntity
  8
LC-001-100-D00-0
  6
ByBlock
 62
     7
370
    50
100
AcDbLine
 10
444.105783
 20
496.743504
 30
0.0
 11
444.105783
 21
496.743504
 31
0.0
  0
LINE
  5
212
330
20A
100
AcDbEntity
  8
LC-001-100-D00-0
  6
ByBlock
 62
     7
370
    50
100
AcDbLine
 10
444.105783
 20
496.743504
 30
0.0
 11
440.052588
 21
496.808591
 31
0.0
  0
LINE
  5
213
330
20A
100
AcDbEntity
  8
LC-001-100-D00-0
  6
ByBlock
 62
     7
370
    50
100
AcDbLine
 10
440.052588
 20
496.808591
 30
0.0
 11
440.052588
 21
496.808591
 31
0.0
  0
LINE
  5
214
330
20A
100
AcDbEntity
  8
LC-001-100-D00-0
  6
ByBlock
 62
     7
370
    50
100
AcDbLine
 10
440.052588
 20
496.808591
 30
0.0
 11
436.818908
 21
496.747729
 31
0.0
  0
LINE
  5
215
330
20A
100
AcDbEntity
  8
LC-001-100-D00-0
  6
ByBlock
 62
     7
370
    50
100
AcDbLine
 10
436.818908
 20
496.747729
 30
0.0
 11
436.818908
 21
496.747729
 31
0.0
  0
LINE
  5
216
330
20A
100
AcDbEntity
  8
LC-001-100-D00-0
  6
ByBlock
 62
     7
370
    50
100
AcDbLine
 10
436.818908
 20
496.747729
 30
0.0
 11
434.929857
 21
496.712174
 31
0.0
  0
ENDBLK
  5
20C
330
20A
100
AcDbEntity
  8
0
100
AcDbBlockEnd
  0
BLOCK
  5
21A
330
219
100
AcDbEntity
  8
0
100
AcDbBlockBegin
  2
POLY7
 70
     0
 71
     0
 10
0.0
 20
0.0
 30
0.0
  3
POLY7
  1

  4
POLY7
  0
LINE
  5
21C
330
219
100
AcDbEntity
  8
LC-001-100-D00-0
  6
ByBlock
 62
     7
370
    50
100
AcDbLine
 10
486.982957
 20
496.780801
 30
0.0
 11
486.982957
 21
496.780801
 31
0.0
  0
LINE
  5
21D
330
219
100
AcDbEntity
  8
LC-001-100-D00-0
  6
ByBlock
 62
     7
370
    50
100
AcDbLine
 10
486.982957
 20
496.780801
 30
0.0
 11
486.982695
 21
496.780659
 31
0.0
  0
LINE
  5
21E
330
219
100
AcDbEntity
  8
LC-001-100-D00-0
  6
ByBlock
 62
     7
370
    50
100
AcDbLine
 10
486.982695
 20
496.780659
 30
0.0
 11
486.982695
 21
496.780659
 31
0.0
  0
LINE
  5
21F
330
219
100
AcDbEntity
  8
LC-001-100-D00-0
  6
ByBlock
 62
     7
370
    50
100
AcDbLine
 10
486.982695
 20
496.780659
 30
0.0
 11
486.97852
 21
496.77839
 31
0.0
  0
LINE
  5
220
330
219
100
AcDbEntity
  8
LC-001-100-D00-0
  6
ByBlock
 62
     7
370
    50
100
AcDbLine
 10
486.97852
 20
496.77839
 30
0.0
 11
486.97852
 21
496.77839
 31
0.0
  0
LINE
  5
221
330
219
100
AcDbEntity
  8
LC-001-100-D00-0
  6
ByBlock
 62
     7
370
    50
100
AcDbLine
 10
486.97852
 20
496.77839
 30
0.0
 11
486.774345
 21
496.744212
 31
0.0
  0
LINE
  5
222
330
219
100
AcDbEntity
  8
LC-001-100-D00-0
  6
ByBlock
 62
     7
370
    50
100
AcDbLine
 10
486.774345
 20
496.744212
 30
0.0
 11
486.774345
 21
496.744212
 31
0.0
  0
LINE
  5
223
330
219
100
AcDbEntity
  8
LC-001-100-D00-0
  6
ByBlock
 62
     7
370
    50
100
AcDbLine
 10
486.774345
 20
496.744212
 30
0.0
 11
486.582954
 21
496.712174
 31
0.0
  0
ENDBLK
  5
21B
330
219
100
AcDbEntity
  8
0
100
AcDbBlockEnd
  0
BLOCK
  5
226
330
225
100
AcDbEntity
  8
0
100
AcDbBlockBegin
  2
POLY8
 70
     0
 71
     0
 10
0.0
 20
0.0
 30
0.0
  3
POLY8
  1

  4
POLY8
  0
LINE
  5
228
330
225
100
AcDbEntity
  8
LC-001-100-D00-0
  6
ByBlock
 62
     7
370
    50
100
AcDbLine
 10
394.982957
 20
496.780801
 30
0.0
 11
394.982957
 21
496.780801
 31
0.0
  0
LINE
  5
229
330
225
100
AcDbEntity
  8
LC-001-100-D00-0
  6
ByBlock
 62
     7
370
    50
100
AcDbLine
 10
394.982957
 20
496.780801
 30
0.0
 11
394.983218
 21
496.780659
 31
0.0
  0
LINE
  5
22A
330
225
100
AcDbEntity
  8
LC-001-100-D00-0
  6
ByBlock
 62
     7
370
    50
100
AcDbLine
 10
394.983218
 20
496.780659
 30
0.0
 11
394.983218
 21
496.780659
 31
0.0
  0
LINE
  5
22B
330
225
100
AcDbEntity
  8
LC-001-100-D00-0
  6
ByBlock
 62
     7
370
    50
100
AcDbLine
 10
394.983218
 20
496.780659
 30
0.0
 11
394.987393
 21
496.77839
 31
0.0
  0
LINE
  5
22C
330
225
100
AcDbEntity
  8
LC-001-100-D00-0
  6
ByBlock
 62
     7
370
    50
100
AcDbLine
 10
394.987393
 20
496.77839
 30
0.0
 11
394.987393
 21
496.77839
 31
0.0
  0
LINE
  5
22D
330
225
100
AcDbEntity
  8
LC-001-100-D00-0
  6
ByBlock
 62
     7
370
    50
100
AcDbLine
 10
394.987393
 20
496.77839
 30
0.0
 11
395.191566
 21
496.744212
 31
0.0
  0
LINE
  5
22E
330
225
100
AcDbEntity
  8
LC-001-100-D00-0
  6
ByBlock
 62
     7
370
    50
100
AcDbLine
 10
395.191566
 20
496.744212
 30
0.0
 11
395.191566
 21
496.744212
 31
0.0
  0
LINE
  5
22F
330
225
100
AcDbEntity
  8
LC-001-100-D00-0
  6
ByBlock
 62
     7
370
    50
100
AcDbLine
 10
395.191566
 20
496.744212
 30
0.0
 11
395.382956
 21
496.712174
 31
0.0
  0
ENDBLK
  5
227
330
225
100
AcDbEntity
  8
0
100
AcDbBlockEnd
  0
BLOCK
  5
254
330
253
100
AcDbEntity
  8
0
100
AcDbBlockBegin
  2
POLY9
 70
     0
 71
     0
 10
0.0
 20
0.0
 30
0.0
  3
POLY9
  1

  4
POLY9
  0
LINE
  5
256
330
253
100
AcDbEntity
  8
LC-001-100-D00-0
  6
ByBlock
 62
     7
370
    50
100
AcDbLine
 10
431.433086
 20
496.712174
 30
0.0
 11
431.433086
 21
496.712174
 31
0.0
  0
LINE
  5
257
330
253
100
AcDbEntity
  8
LC-001-100-D00-0
  6
ByBlock
 62
     7
370
    50
100
AcDbLine
 10
431.433086
 20
496.712174
 30
0.0
 11
432.548149
 21
496.739458
 31
0.0
  0
LINE
  5
258
330
253
100
AcDbEntity
  8
LC-001-100-D00-0
  6
ByBlock
 62
     7
370
    50
100
AcDbLine
 10
432.548149
 20
496.739458
 30
0.0
 11
432.548149
 21
496.739458
 31
0.0
  0
LINE
  5
259
330
253
100
AcDbEntity
  8
LC-001-100-D00-0
  6
ByBlock
 62
     7
370
    50
100
AcDbLine
 10
432.548149
 20
496.739458
 30
0.0
 11
434.900778
 21
496.797025
 31
0.0
  0
LINE
  5
25A
330
253
100
AcDbEntity
  8
LC-001-100-D00-0
  6
ByBlock
 62
     7
370
    50
100
AcDbLine
 10
434.900778
 20
496.797025
 30
0.0
 11
434.900778
 21
496.797025
 31
0.0
  0
LINE
  5
25B
330
253
100
AcDbEntity
  8
LC-001-100-D00-0
  6
ByBlock
 62
     7
370
    50
100
AcDbLine
 10
434.900778
 20
496.797025
 30
0.0
 11
438.548543
 21
497.026065
 31
0.0
  0
LINE
  5
25C
330
253
100
AcDbEntity
  8
LC-001-100-D00-0
  6
ByBlock
 62
     7
370
    50
100
AcDbLine
 10
438.548543
 20
497.026065
 30
0.0
 11
438.548543
 21
497.026065
 31
0.0
  0
LINE
  5
25D
330
253
100
AcDbEntity
  8
LC-001-100-D00-0
  6
ByBlock
 62
     7
370
    50
100
AcDbLine
 10
438.548543
 20
497.026065
 30
0.0
 11
442.452368
 21
497.065719
 31
0.0
  0
LINE
  5
25E
330
253
100
AcDbEntity
  8
LC-001-100-D00-0
  6
ByBlock
 62
     7
370
    50
100
AcDbLine
 10
442.452368
 20
497.065719
 30
0.0
 11
442.452368
 21
497.065719
 31
0.0
  0
LINE
  5
25F
330
253
100
AcDbEntity
  8
LC-001-100-D00-0
  6
ByBlock
 62
     7
370
    50
100
AcDbLine
 10
442.452368
 20
497.065719
 30
0.0
 11
446.466763
 21
496.831213
 31
0.0
  0
LINE
  5
260
330
253
100
AcDbEntity
  8
LC-001-100-D00-0
  6
ByBlock
 62
     7
370
    50
100
AcDbLine
 10
446.466763
 20
496.831213
 30
0.0
 11
446.466763
 21
496.831213
 31
0.0
  0
LINE
  5
261
330
253
100
AcDbEntity
  8
LC-001-100-D00-0
  6
ByBlock
 62
     7
370
    50
100
AcDbLine
 10
446.466763
 20
496.831213
 30
0.0
 11
449.173912
 21
496.751958
 31
0.0
  0
LINE
  5
262
330
253
100
AcDbEntity
  8
LC-001-100-D00-0
  6
ByBlock
 62
     7
370
    50
100
AcDbLine
 10
449.173912
 20
496.751958
 30
0.0
 11
449.173912
 21
496.751958
 31
0.0
  0
LINE
  5
263
330
253
100
AcDbEntity
  8
LC-001-100-D00-0
  6
ByBlock
 62
     7
370
    50
100
AcDbLine
 10
449.173912
 20
496.751958
 30
0.0
 11
450.532825
 21
496.712174
 31
0.0
  0
ENDBLK
  5
255
330
253
100
AcDbEntity
  8
0
100
AcDbBlockEnd
  0
BLOCK
  5
291
330
290
100
AcDbEntity
  8
0
100
AcDbBlockBegin
  2
POLY10
 70
     0
 71
     0
 10
0.0
 20
0.0
 30
0.0
  3
POLY10
  1

  4
POLY10
  0
LINE
  5
293
330
290
100
AcDbEntity
  8
LC-001-100-D00-0
  6
ByBlock
 62
     7
370
    50
100
AcDbLine
 10
440.958628
 20
500.912178
 30
0.0
 11
440.958628
 21
500.912178
 31
0.0
  0
LINE
  5
294
330
290
100
AcDbEntity
  8
LC-001-100-D00-0
  6
ByBlock
 62
     7
370
    50
100
AcDbLine
 10
440.958628
 20
500.912178
 30
0.0
 11
440.812543
 21
500.912178
 31
0.0
  0
LINE
  5
295
330
290
100
AcDbEntity
  8
LC-001-100-D00-0
  6
ByBlock
 62
     7
370
    50
100
AcDbLine
 10
440.812543
 20
500.912178
 30
0.0
 11
440.812543
 21
500.912178
 31
0.0
  0
LINE
  5
296
330
290
100
AcDbEntity
  8
LC-001-100-D00-0
  6
ByBlock
 62
     7
370
    50
100
AcDbLine
 10
440.812543
 20
500.912178
 30
0.0
 11
440.60909
 21
500.912178
 31
0.0
  0
LINE
  5
297
330
290
100
AcDbEntity
  8
LC-001-100-D00-0
  6
ByBlock
 62
     7
370
    50
100
AcDbLine
 10
440.60909
 20
500.912178
 30
0.0
 11
440.60909
 21
500.912178
 31
0.0
  0
LINE
  5
298
330
290
100
AcDbEntity
  8
LC-001-100-D00-0
  6
ByBlock
 62
     7
370
    50
100
AcDbLine
 10
440.60909
 20
500.912178
 30
0.0
 11
440.428038
 21
500.912178
 31
0.0
  0
LINE
  5
299
330
290
100
AcDbEntity
  8
LC-001-100-D00-0
  6
ByBlock
 62
     7
370
    50
100
AcDbLine
 10
440.428038
 20
500.912178
 30
0.0
 11
440.428038
 21
500.912178
 31
0.0
  0
LINE
  5
29A
330
290
100
AcDbEntity
  8
LC-001-100-D00-0
  6
ByBlock
 62
     7
370
    50
100
AcDbLine
 10
440.428038
 20
500.912178
 30
0.0
 11
440.409085
 21
500.912178
 31
0.0
  0
LINE
  5
29B
330
290
100
AcDbEntity
  8
LC-001-100-D00-0
  6
ByBlock
 62
     7
370
    50
100
AcDbLine
 10
440.409085
 20
500.912178
 30
0.0
 11
440.409085
 21
500.912178
 31
0.0
  0
LINE
  5
29C
330
290
100
AcDbEntity
  8
LC-001-100-D00-0
  6
ByBlock
 62
     7
370
    50
100
AcDbLine
 10
440.409085
 20
500.912178
 30
0.0
 11
440.399622
 21
500.912178
 31
0.0
  0
ENDBLK
  5
292
330
290
100
AcDbEntity
  8
0
100
AcDbBlockEnd
  0
BLOCK
  5
37E
330
37D
100
AcDbEntity
  8
0
100
AcDbBlockBegin
  2
POLY11
 70
     0
 71
     0
 10
0.0
 20
0.0
 30
0.0
  3
POLY11
  1

  4
POLY11
  0
LINE
  5
380
330
37D
100
AcDbEntity
  8
LC-001-100-D00-0
  6
ByBlock
 62
     7
370
    50
100
AcDbLine
 10
460.767922
 20
444.712173
 30
0.0
 11
460.767922
 21
444.712173
 31
0.0
  0
LINE
  5
381
330
37D
100
AcDbEntity
  8
LC-001-100-D00-0
  6
ByBlock
 62
     7
370
    50
100
AcDbLine
 10
460.767922
 20
444.712173
 30
0.0
 11
460.76813
 21
444.749024
 31
0.0
  0
LINE
  5
382
330
37D
100
AcDbEntity
  8
LC-001-100-D00-0
  6
ByBlock
 62
     7
370
    50
100
AcDbLine
 10
460.76813
 20
444.749024
 30
0.0
 11
460.76813
 21
444.749024
 31
0.0
  0
LINE
  5
383
330
37D
100
AcDbEntity
  8
LC-001-100-D00-0
  6
ByBlock
 62
     7
370
    50
100
AcDbLine
 10
460.76813
 20
444.749024
 30
0.0
 11
460.774657
 21
445.904662
 31
0.0
  0
LINE
  5
384
330
37D
100
AcDbEntity
  8
LC-001-100-D00-0
  6
ByBlock
 62
     7
370
    50
100
AcDbLine
 10
460.774657
 20
445.904662
 30
0.0
 11
460.774657
 21
445.904662
 31
0.0
  0
LINE
  5
385
330
37D
100
AcDbEntity
  8
LC-001-100-D00-0
  6
ByBlock
 62
     7
370
    50
100
AcDbLine
 10
460.774657
 20
445.904662
 30
0.0
 11
460.58304
 21
448.192244
 31
0.0
  0
LINE
  5
386
330
37D
100
AcDbEntity
  8
LC-001-100-D00-0
  6
ByBlock
 62
     7
370
    50
100
AcDbLine
 10
460.58304
 20
448.192244
 30
0.0
 11
460.58304
 21
448.192244
 31
0.0
  0
LINE
  5
387
330
37D
100
AcDbEntity
  8
LC-001-100-D00-0
  6
ByBlock
 62
     7
370
    50
100
AcDbLine
 10
460.58304
 20
448.192244
 30
0.0
 11
459.759963
 21
451.166872
 31
0.0
  0
LINE
  5
388
330
37D
100
AcDbEntity
  8
LC-001-100-D00-0
  6
ByBlock
 62
     7
370
    50
100
AcDbLine
 10
459.759963
 20
451.166872
 30
0.0
 11
459.759963
 21
451.166872
 31
0.0
  0
LINE
  5
389
330
37D
100
AcDbEntity
  8
LC-001-100-D00-0
  6
ByBlock
 62
     7
370
    50
100
AcDbLine
 10
459.759963
 20
451.166872
 30
0.0
 11
458.48653
 21
453.401385
 31
0.0
  0
LINE
  5
38A
330
37D
100
AcDbEntity
  8
LC-001-100-D00-0
  6
ByBlock
 62
     7
370
    50
100
AcDbLine
 10
458.48653
 20
453.401385
 30
0.0
 11
458.48653
 21
453.401385
 31
0.0
  0
LINE
  5
38B
330
37D
100
AcDbEntity
  8
LC-001-100-D00-0
  6
ByBlock
 62
     7
370
    50
100
AcDbLine
 10
458.48653
 20
453.401385
 30
0.0
 11
457.101505
 21
454.553813
 31
0.0
  0
LINE
  5
38C
330
37D
100
AcDbEntity
  8
LC-001-100-D00-0
  6
ByBlock
 62
     7
370
    50
100
AcDbLine
 10
457.101505
 20
454.553813
 30
0.0
 11
457.101505
 21
454.553813
 31
0.0
  0
LINE
  5
38D
330
37D
100
AcDbEntity
  8
LC-001-100-D00-0
  6
ByBlock
 62
     7
370
    50
100
AcDbLine
 10
457.101505
 20
454.553813
 30
0.0
 11
456.190724
 21
454.668151
 31
0.0
  0
LINE
  5
38E
330
37D
100
AcDbEntity
  8
LC-001-100-D00-0
  6
ByBlock
 62
     7
370
    50
100
AcDbLine
 10
456.190724
 20
454.668151
 30
0.0
 11
456.190724
 21
454.668151
 31
0.0
  0
LINE
  5
38F
330
37D
100
AcDbEntity
  8
LC-001-100-D00-0
  6
ByBlock
 62
     7
370
    50
100
AcDbLine
 10
456.190724
 20
454.668151
 30
0.0
 11
455.840049
 21
454.712174
 31
0.0
  0
ENDBLK
  5
37F
330
37D
100
AcDbEntity
  8
0
100
AcDbBlockEnd
  0
BLOCK
  5
395
330
394
100
AcDbEntity
  8
0
100
AcDbBlockBegin
  2
POLY12
 70
     0
 71
     0
 10
0.0
 20
0.0
 30
0.0
  3
POLY12
  1

  4
POLY12
  0
LINE
  5
397
330
394
100
AcDbEntity
  8
LC-001-100-D00-0
  6
ByBlock
 62
     7
370
    50
100
AcDbLine
 10
454.881099
 20
456.812173
 30
0.0
 11
454.881099
 21
456.812173
 31
0.0
  0
LINE
  5
398
330
394
100
AcDbEntity
  8
LC-001-100-D00-0
  6
ByBlock
 62
     7
370
    50
100
AcDbLine
 10
454.881099
 20
456.812173
 30
0.0
 11
454.851767
 21
456.812173
 31
0.0
  0
LINE
  5
399
330
394
100
AcDbEntity
  8
LC-001-100-D00-0
  6
ByBlock
 62
     7
370
    50
100
AcDbLine
 10
454.851767
 20
456.812173
 30
0.0
 11
454.851767
 21
456.812173
 31
0.0
  0
LINE
  5
39A
330
394
100
AcDbEntity
  8
LC-001-100-D00-0
  6
ByBlock
 62
     7
370
    50
100
AcDbLine
 10
454.851767
 20
456.812173
 30
0.0
 11
454.806686
 21
456.812173
 31
0.0
  0
LINE
  5
39B
330
394
100
AcDbEntity
  8
LC-001-100-D00-0
  6
ByBlock
 62
     7
370
    50
100
AcDbLine
 10
454.806686
 20
456.812173
 30
0.0
 11
454.806686
 21
456.812173
 31
0.0
  0
LINE
  5
39C
330
394
100
AcDbEntity
  8
LC-001-100-D00-0
  6
ByBlock
 62
     7
370
    50
100
AcDbLine
 10
454.806686
 20
456.812173
 30
0.0
 11
454.752044
 21
456.812173
 31
0.0
  0
LINE
  5
39D
330
394
100
AcDbEntity
  8
LC-001-100-D00-0
  6
ByBlock
 62
     7
370
    50
100
AcDbLine
 10
454.752044
 20
456.812173
 30
0.0
 11
454.752044
 21
456.812173
 31
0.0
  0
LINE
  5
39E
330
394
100
AcDbEntity
  8
LC-001-100-D00-0
  6
ByBlock
 62
     7
370
    50
100
AcDbLine
 10
454.752044
 20
456.812173
 30
0.0
 11
454.732956
 21
456.812173
 31
0.0
  0
ENDBLK
  5
396
330
394
100
AcDbEntity
  8
0
100
AcDbBlockEnd
  0
BLOCK
  5
3A9
330
3A8
100
AcDbEntity
  8
0
100
AcDbBlockBegin
  2
POLY13
 70
     0
 71
     0
 10
0.0
 20
0.0
 30
0.0
  3
POLY13
  1

  4
POLY13
  0
LINE
  5
3AB
330
3A8
100
AcDbEntity
  8
LC-001-100-D00-0
  6
ByBlock
 62
     7
370
    50
100
AcDbLine
 10
432.909215
 20
456.812173
 30
0.0
 11
432.909215
 21
456.812173
 31
0.0
  0
LINE
  5
3AC
330
3A8
100
AcDbEntity
  8
LC-001-100-D00-0
  6
ByBlock
 62
     7
370
    50
100
AcDbLine
 10
432.909215
 20
456.812173
 30
0.0
 11
432.87264
 21
456.812173
 31
0.0
  0
LINE
  5
3AD
330
3A8
100
AcDbEntity
  8
LC-001-100-D00-0
  6
ByBlock
 62
     7
370
    50
100
AcDbLine
 10
432.87264
 20
456.812173
 30
0.0
 11
432.87264
 21
456.812173
 31
0.0
  0
LINE
  5
3AE
330
3A8
100
AcDbEntity
  8
LC-001-100-D00-0
  6
ByBlock
 62
     7
370
    50
100
AcDbLine
 10
432.87264
 20
456.812173
 30
0.0
 11
432.799505
 21
456.812173
 31
0.0
  0
LINE
  5
3AF
330
3A8
100
AcDbEntity
  8
LC-001-100-D00-0
  6
ByBlock
 62
     7
370
    50
100
AcDbLine
 10
432.799505
 20
456.812173
 30
0.0
 11
432.799505
 21
456.812173
 31
0.0
  0
LINE
  5
3B0
330
3A8
100
AcDbEntity
  8
LC-001-100-D00-0
  6
ByBlock
 62
     7
370
    50
100
AcDbLine
 10
432.799505
 20
456.812173
 30
0.0
 11
432.617176
 21
456.812173
 31
0.0
  0
LINE
  5
3B1
330
3A8
100
AcDbEntity
  8
LC-001-100-D00-0
  6
ByBlock
 62
     7
370
    50
100
AcDbLine
 10
432.617176
 20
456.812173
 30
0.0
 11
432.617176
 21
456.812173
 31
0.0
  0
LINE
  5
3B2
330
3A8
100
AcDbEntity
  8
LC-001-100-D00-0
  6
ByBlock
 62
     7
370
    50
100
AcDbLine
 10
432.617176
 20
456.812173
 30
0.0
 11
432.469862
 21
456.812173
 31
0.0
  0
LINE
  5
3B3
330
3A8
100
AcDbEntity
  8
LC-001-100-D00-0
  6
ByBlock
 62
     7
370
    50
100
AcDbLine
 10
432.469862
 20
456.812173
 30
0.0
 11
432.469862
 21
456.812173
 31
0.0
  0
LINE
  5
3B4
330
3A8
100
AcDbEntity
  8
LC-001-100-D00-0
  6
ByBlock
 62
     7
370
    50
100
AcDbLine
 10
432.469862
 20
456.812173
 30
0.0
 11
432.379911
 21
456.812173
 31
0.0
  0
ENDBLK
  5
3AA
330
3A8
100
AcDbEntity
  8
0
100
AcDbBlockEnd
  0
BLOCK
  5
3B9
330
3B8
100
AcDbEntity
  8
0
100
AcDbBlockBegin
  2
POLY14
 70
     0
 71
     0
 10
0.0
 20
0.0
 30
0.0
  3
POLY14
  1

  4
POLY14
  0
LINE
  5
3BB
330
3B8
100
AcDbEntity
  8
LC-001-100-D00-0
  6
ByBlock
 62
     7
370
    50
100
AcDbLine
 10
435.401801
 20
456.812173
 30
0.0
 11
435.401801
 21
456.812173
 31
0.0
  0
LINE
  5
3BC
330
3B8
100
AcDbEntity
  8
LC-001-100-D00-0
  6
ByBlock
 62
     7
370
    50
100
AcDbLine
 10
435.401801
 20
456.812173
 30
0.0
 11
435.354783
 21
456.812173
 31
0.0
  0
LINE
  5
3BD
330
3B8
100
AcDbEntity
  8
LC-001-100-D00-0
  6
ByBlock
 62
     7
370
    50
100
AcDbLine
 10
435.354783
 20
456.812173
 30
0.0
 11
435.354783
 21
456.812173
 31
0.0
  0
LINE
  5
3BE
330
3B8
100
AcDbEntity
  8
LC-001-100-D00-0
  6
ByBlock
 62
     7
370
    50
100
AcDbLine
 10
435.354783
 20
456.812173
 30
0.0
 11
435.260567
 21
456.812173
 31
0.0
  0
LINE
  5
3BF
330
3B8
100
AcDbEntity
  8
LC-001-100-D00-0
  6
ByBlock
 62
     7
370
    50
100
AcDbLine
 10
435.260567
 20
456.812173
 30
0.0
 11
435.260567
 21
456.812173
 31
0.0
  0
LINE
  5
3C0
330
3B8
100
AcDbEntity
  8
LC-001-100-D00-0
  6
ByBlock
 62
     7
370
    50
100
AcDbLine
 10
435.260567
 20
456.812173
 30
0.0
 11
434.944674
 21
456.812173
 31
0.0
  0
LINE
  5
3C1
330
3B8
100
AcDbEntity
  8
LC-001-100-D00-0
  6
ByBlock
 62
     7
370
    50
100
AcDbLine
 10
434.944674
 20
456.812173
 30
0.0
 11
434.944674
 21
456.812173
 31
0.0
  0
LINE
  5
3C2
330
3B8
100
AcDbEntity
  8
LC-001-100-D00-0
  6
ByBlock
 62
     7
370
    50
100
AcDbLine
 10
434.944674
 20
456.812173
 30
0.0
 11
434.697824
 21
456.812173
 31
0.0
  0
LINE
  5
3C3
330
3B8
100
AcDbEntity
  8
LC-001-100-D00-0
  6
ByBlock
 62
     7
370
    50
100
AcDbLine
 10
434.697824
 20
456.812173
 30
0.0
 11
434.697824
 21
456.812173
 31
0.0
  0
LINE
  5
3C4
330
3B8
100
AcDbEntity
  8
LC-001-100-D00-0
  6
ByBlock
 62
     7
370
    50
100
AcDbLine
 10
434.697824
 20
456.812173
 30
0.0
 11
434.54693
 21
456.812173
 31
0.0
  0
ENDBLK
  5
3BA
330
3B8
100
AcDbEntity
  8
0
100
AcDbBlockEnd
  0
BLOCK
  5
3C9
330
3C8
100
AcDbEntity
  8
0
100
AcDbBlockBegin
  2
POLY15
 70
     0
 71
     0
 10
0.0
 20
0.0
 30
0.0
  3
POLY15
  1

  4
POLY15
  0
LINE
  5
3CB
330
3C8
100
AcDbEntity
  8
LC-001-100-D00-0
  6
ByBlock
 62
     7
370
    50
100
AcDbLine
 10
445.253608
 20
456.812173
 30
0.0
 11
445.253608
 21
456.812173
 31
0.0
  0
LINE
  5
3CC
330
3C8
100
AcDbEntity
  8
LC-001-100-D00-0
  6
ByBlock
 62
     7
370
    50
100
AcDbLine
 10
445.253608
 20
456.812173
 30
0.0
 11
445.20659
 21
456.812173
 31
0.0
  0
LINE
  5
3CD
330
3C8
100
AcDbEntity
  8
LC-001-100-D00-0
  6
ByBlock
 62
     7
370
    50
100
AcDbLine
 10
445.20659
 20
456.812173
 30
0.0
 11
445.20659
 21
456.812173
 31
0.0
  0
LINE
  5
3CE
330
3C8
100
AcDbEntity
  8
LC-001-100-D00-0
  6
ByBlock
 62
     7
370
    50
100
AcDbLine
 10
445.20659
 20
456.812173
 30
0.0
 11
445.112374
 21
456.812173
 31
0.0
  0
LINE
  5
3CF
330
3C8
100
AcDbEntity
  8
LC-001-100-D00-0
  6
ByBlock
 62
     7
370
    50
100
AcDbLine
 10
445.112374
 20
456.812173
 30
0.0
 11
445.112374
 21
456.812173
 31
0.0
  0
LINE
  5
3D0
330
3C8
100
AcDbEntity
  8
LC-001-100-D00-0
  6
ByBlock
 62
     7
370
    50
100
AcDbLine
 10
445.112374
 20
456.812173
 30
0.0
 11
444.796481
 21
456.812173
 31
0.0
  0
LINE
  5
3D1
330
3C8
100
AcDbEntity
  8
LC-001-100-D00-0
  6
ByBlock
 62
     7
370
    50
100
AcDbLine
 10
444.796481
 20
456.812173
 30
0.0
 11
444.796481
 21
456.812173
 31
0.0
  0
LINE
  5
3D2
330
3C8
100
AcDbEntity
  8
LC-001-100-D00-0
  6
ByBlock
 62
     7
370
    50
100
AcDbLine
 10
444.796481
 20
456.812173
 30
0.0
 11
444.549631
 21
456.812173
 31
0.0
  0
LINE
  5
3D3
330
3C8
100
AcDbEntity
  8
LC-001-100-D00-0
  6
ByBlock
 62
     7
370
    50
100
AcDbLine
 10
444.549631
 20
456.812173
 30
0.0
 11
444.549631
 21
456.812173
 31
0.0
  0
LINE
  5
3D4
330
3C8
100
AcDbEntity
  8
LC-001-100-D00-0
  6
ByBlock
 62
     7
370
    50
100
AcDbLine
 10
444.549631
 20
456.812173
 30
0.0
 11
444.398737
 21
456.812173
 31
0.0
  0
ENDBLK
  5
3CA
330
3C8
100
AcDbEntity
  8
0
100
AcDbBlockEnd
  0
BLOCK
  5
3D8
330
3D7
100
AcDbEntity
  8
0
100
AcDbBlockBegin
  2
POLY16
 70
     0
 71
     0
 10
0.0
 20
0.0
 30
0.0
  3
POLY16
  1

  4
POLY16
  0
LINE
  5
3DA
330
3D7
100
AcDbEntity
  8
LC-001-100-D00-0
  6
ByBlock
 62
     7
370
    50
100
AcDbLine
 10
443.103465
 20
456.812173
 30
0.0
 11
443.103465
 21
456.812173
 31
0.0
  0
LINE
  5
3DB
330
3D7
100
AcDbEntity
  8
LC-001-100-D00-0
  6
ByBlock
 62
     7
370
    50
100
AcDbLine
 10
443.103465
 20
456.812173
 30
0.0
 11
442.908037
 21
456.812173
 31
0.0
  0
LINE
  5
3DC
330
3D7
100
AcDbEntity
  8
LC-001-100-D00-0
  6
ByBlock
 62
     7
370
    50
100
AcDbLine
 10
442.908037
 20
456.812173
 30
0.0
 11
442.908037
 21
456.812173
 31
0.0
  0
LINE
  5
3DD
330
3D7
100
AcDbEntity
  8
LC-001-100-D00-0
  6
ByBlock
 62
     7
370
    50
100
AcDbLine
 10
442.908037
 20
456.812173
 30
0.0
 11
442.558883
 21
456.812173
 31
0.0
  0
LINE
  5
3DE
330
3D7
100
AcDbEntity
  8
LC-001-100-D00-0
  6
ByBlock
 62
     7
370
    50
100
AcDbLine
 10
442.558883
 20
456.812173
 30
0.0
 11
442.558883
 21
456.812173
 31
0.0
  0
LINE
  5
3DF
330
3D7
100
AcDbEntity
  8
LC-001-100-D00-0
  6
ByBlock
 62
     7
370
    50
100
AcDbLine
 10
442.558883
 20
456.812173
 30
0.0
 11
442.167411
 21
456.812173
 31
0.0
  0
LINE
  5
3E0
330
3D7
100
AcDbEntity
  8
LC-001-100-D00-0
  6
ByBlock
 62
     7
370
    50
100
AcDbLine
 10
442.167411
 20
456.812173
 30
0.0
 11
442.167411
 21
456.812173
 31
0.0
  0
LINE
  5
3E1
330
3D7
100
AcDbEntity
  8
LC-001-100-D00-0
  6
ByBlock
 62
     7
370
    50
100
AcDbLine
 10
442.167411
 20
456.812173
 30
0.0
 11
441.995054
 21
456.812173
 31
0.0
  0
ENDBLK
  5
3D9
330
3D7
100
AcDbEntity
  8
0
100
AcDbBlockEnd
  0
BLOCK
  5
3E6
330
3E5
100
AcDbEntity
  8
0
100
AcDbBlockBegin
  2
POLY17
 70
     0
 71
     0
 10
0.0
 20
0.0
 30
0.0
  3
POLY17
  1

  4
POLY17
  0
LINE
  5
3E8
330
3E5
100
AcDbEntity
  8
LC-001-100-D00-0
  6
ByBlock
 62
     7
370
    50
100
AcDbLine
 10
450.504668
 20
456.812173
 30
0.0
 11
450.504668
 21
456.812173
 31
0.0
  0
LINE
  5
3E9
330
3E5
100
AcDbEntity
  8
LC-001-100-D00-0
  6
ByBlock
 62
     7
370
    50
100
AcDbLine
 10
450.504668
 20
456.812173
 30
0.0
 11
450.360266
 21
456.812173
 31
0.0
  0
LINE
  5
3EA
330
3E5
100
AcDbEntity
  8
LC-001-100-D00-0
  6
ByBlock
 62
     7
370
    50
100
AcDbLine
 10
450.360266
 20
456.812173
 30
0.0
 11
450.360266
 21
456.812173
 31
0.0
  0
LINE
  5
3EB
330
3E5
100
AcDbEntity
  8
LC-001-100-D00-0
  6
ByBlock
 62
     7
370
    50
100
AcDbLine
 10
450.360266
 20
456.812173
 30
0.0
 11
450.143555
 21
456.812173
 31
0.0
  0
LINE
  5
3EC
330
3E5
100
AcDbEntity
  8
LC-001-100-D00-0
  6
ByBlock
 62
     7
370
    50
100
AcDbLine
 10
450.143555
 20
456.812173
 30
0.0
 11
450.143555
 21
456.812173
 31
0.0
  0
LINE
  5
3ED
330
3E5
100
AcDbEntity
  8
LC-001-100-D00-0
  6
ByBlock
 62
     7
370
    50
100
AcDbLine
 10
450.143555
 20
456.812173
 30
0.0
 11
449.94479
 21
456.812173
 31
0.0
  0
LINE
  5
3EE
330
3E5
100
AcDbEntity
  8
LC-001-100-D00-0
  6
ByBlock
 62
     7
370
    50
100
AcDbLine
 10
449.94479
 20
456.812173
 30
0.0
 11
449.94479
 21
456.812173
 31
0.0
  0
LINE
  5
3EF
330
3E5
100
AcDbEntity
  8
LC-001-100-D00-0
  6
ByBlock
 62
     7
370
    50
100
AcDbLine
 10
449.94479
 20
456.812173
 30
0.0
 11
449.881412
 21
456.812173
 31
0.0
  0
LINE
  5
3F0
330
3E5
100
AcDbEntity
  8
LC-001-100-D00-0
  6
ByBlock
 62
     7
370
    50
100
AcDbLine
 10
449.881412
 20
456.812173
 30
0.0
 11
449.881412
 21
456.812173
 31
0.0
  0
LINE
  5
3F1
330
3E5
100
AcDbEntity
  8
LC-001-100-D00-0
  6
ByBlock
 62
     7
370
    50
100
AcDbLine
 10
449.881412
 20
456.812173
 30
0.0
 11
449.875998
 21
456.812173
 31
0.0
  0
LINE
  5
3F2
330
3E5
100
AcDbEntity
  8
LC-001-100-D00-0
  6
ByBlock
 62
     7
370
    50
100
AcDbLine
 10
449.875998
 20
456.812173
 30
0.0
 11
449.875998
 21
456.812173
 31
0.0
  0
LINE
  5
3F3
330
3E5
100
AcDbEntity
  8
LC-001-100-D00-0
  6
ByBlock
 62
     7
370
    50
100
AcDbLine
 10
449.875998
 20
456.812173
 30
0.0
 11
449.873289
 21
456.812173
 31
0.0
  0
ENDBLK
  5
3E7
330
3E5
100
AcDbEntity
  8
0
100
AcDbBlockEnd
  0
BLOCK
  5
41A
330
419
100
AcDbEntity
  8
0
100
AcDbBlockBegin
  2
POLY18
 70
     0
 71
     0
 10
0.0
 20
0.0
 30
0.0
  3
POLY18
  1

  4
POLY18
  0
LINE
  5
41C
330
419
100
AcDbEntity
  8
LC-001-100-D00-0
  6
ByBlock
 62
     7
370
    50
100
AcDbLine
 10
447.668816
 20
456.812173
 30
0.0
 11
447.668816
 21
456.812173
 31
0.0
  0
LINE
  5
41D
330
419
100
AcDbEntity
  8
LC-001-100-D00-0
  6
ByBlock
 62
     7
370
    50
100
AcDbLine
 10
447.668816
 20
456.812173
 30
0.0
 11
447.592752
 21
456.812173
 31
0.0
  0
LINE
  5
41E
330
419
100
AcDbEntity
  8
LC-001-100-D00-0
  6
ByBlock
 62
     7
370
    50
100
AcDbLine
 10
447.592752
 20
456.812173
 30
0.0
 11
447.592752
 21
456.812173
 31
0.0
  0
LINE
  5
41F
330
419
100
AcDbEntity
  8
LC-001-100-D00-0
  6
ByBlock
 62
     7
370
    50
100
AcDbLine
 10
447.592752
 20
456.812173
 30
0.0
 11
447.441302
 21
456.812173
 31
0.0
  0
LINE
  5
420
330
419
100
AcDbEntity
  8
LC-001-100-D00-0
  6
ByBlock
 62
     7
370
    50
100
AcDbLine
 10
447.441302
 20
456.812173
 30
0.0
 11
447.441302
 21
456.812173
 31
0.0
  0
LINE
  5
421
330
419
100
AcDbEntity
  8
LC-001-100-D00-0
  6
ByBlock
 62
     7
370
    50
100
AcDbLine
 10
447.441302
 20
456.812173
 30
0.0
 11
447.256681
 21
456.812173
 31
0.0
  0
LINE
  5
422
330
419
100
AcDbEntity
  8
LC-001-100-D00-0
  6
ByBlock
 62
     7
370
    50
100
AcDbLine
 10
447.256681
 20
456.812173
 30
0.0
 11
447.256681
 21
456.812173
 31
0.0
  0
LINE
  5
423
330
419
100
AcDbEntity
  8
LC-001-100-D00-0
  6
ByBlock
 62
     7
370
    50
100
AcDbLine
 10
447.256681
 20
456.812173
 30
0.0
 11
447.197718
 21
456.812173
 31
0.0
  0
LINE
  5
424
330
419
100
AcDbEntity
  8
LC-001-100-D00-0
  6
ByBlock
 62
     7
370
    50
100
AcDbLine
 10
447.197718
 20
456.812173
 30
0.0
 11
447.197718
 21
456.812173
 31
0.0
  0
LINE
  5
425
330
419
100
AcDbEntity
  8
LC-001-100-D00-0
  6
ByBlock
 62
     7
370
    50
100
AcDbLine
 10
447.197718
 20
456.812173
 30
0.0
 11
447.194314
 21
456.812173
 31
0.0
  0
LINE
  5
426
330
419
100
AcDbEntity
  8
LC-001-100-D00-0
  6
ByBlock
 62
     7
370
    50
100
AcDbLine
 10
447.194314
 20
456.812173
 30
0.0
 11
447.194314
 21
456.812173
 31
0.0
  0
LINE
  5
427
330
419
100
AcDbEntity
  8
LC-001-100-D00-0
  6
ByBlock
 62
     7
370
    50
100
AcDbLine
 10
447.194314
 20
456.812173
 30
0.0
 11
447.192607
 21
456.812173
 31
0.0
  0
ENDBLK
  5
41B
330
419
100
AcDbEntity
  8
0
100
AcDbBlockEnd
  0
BLOCK
  5
42B
330
42A
100
AcDbEntity
  8
0
100
AcDbBlockBegin
  2
POLY19
 70
     0
 71
     0
 10
0.0
 20
0.0
 30
0.0
  3
POLY19
  1

  4
POLY19
  0
LINE
  5
42D
330
42A
100
AcDbEntity
  8
LC-001-100-D00-0
  6
ByBlock
 62
     7
370
    50
100
AcDbLine
 10
446.02822
 20
456.812173
 30
0.0
 11
446.02822
 21
456.812173
 31
0.0
  0
LINE
  5
42E
330
42A
100
AcDbEntity
  8
LC-001-100-D00-0
  6
ByBlock
 62
     7
370
    50
100
AcDbLine
 10
446.02822
 20
456.812173
 30
0.0
 11
446.010604
 21
456.812173
 31
0.0
  0
LINE
  5
42F
330
42A
100
AcDbEntity
  8
LC-001-100-D00-0
  6
ByBlock
 62
     7
370
    50
100
AcDbLine
 10
446.010604
 20
456.812173
 30
0.0
 11
446.010604
 21
456.812173
 31
0.0
  0
LINE
  5
430
330
42A
100
AcDbEntity
  8
LC-001-100-D00-0
  6
ByBlock
 62
     7
370
    50
100
AcDbLine
 10
446.010604
 20
456.812173
 30
0.0
 11
445.979133
 21
456.812173
 31
0.0
  0
LINE
  5
431
330
42A
100
AcDbEntity
  8
LC-001-100-D00-0
  6
ByBlock
 62
     7
370
    50
100
AcDbLine
 10
445.979133
 20
456.812173
 30
0.0
 11
445.979133
 21
456.812173
 31
0.0
  0
LINE
  5
432
330
42A
100
AcDbEntity
  8
LC-001-100-D00-0
  6
ByBlock
 62
     7
370
    50
100
AcDbLine
 10
445.979133
 20
456.812173
 30
0.0
 11
445.976064
 21
456.812173
 31
0.0
  0
LINE
  5
433
330
42A
100
AcDbEntity
  8
LC-001-100-D00-0
  6
ByBlock
 62
     7
370
    50
100
AcDbLine
 10
445.976064
 20
456.812173
 30
0.0
 11
445.976064
 21
456.812173
 31
0.0
  0
LINE
  5
434
330
42A
100
AcDbEntity
  8
LC-001-100-D00-0
  6
ByBlock
 62
     7
370
    50
100
AcDbLine
 10
445.976064
 20
456.812173
 30
0.0
 11
445.974713
 21
456.812173
 31
0.0
  0
ENDBLK
  5
42C
330
42A
100
AcDbEntity
  8
0
100
AcDbBlockEnd
  0
BLOCK
  5
438
330
437
100
AcDbEntity
  8
0
100
AcDbBlockBegin
  2
POLY20
 70
     0
 71
     0
 10
0.0
 20
0.0
 30
0.0
  3
POLY20
  1

  4
POLY20
  0
LINE
  5
43A
330
437
100
AcDbEntity
  8
LC-001-100-D00-0
  6
ByBlock
 62
     7
370
    50
100
AcDbLine
 10
438.468967
 20
456.812173
 30
0.0
 11
438.468967
 21
456.812173
 31
0.0
  0
LINE
  5
43B
330
437
100
AcDbEntity
  8
LC-001-100-D00-0
  6
ByBlock
 62
     7
370
    50
100
AcDbLine
 10
438.468967
 20
456.812173
 30
0.0
 11
438.394596
 21
456.812173
 31
0.0
  0
LINE
  5
43C
330
437
100
AcDbEntity
  8
LC-001-100-D00-0
  6
ByBlock
 62
     7
370
    50
100
AcDbLine
 10
438.394596
 20
456.812173
 30
0.0
 11
438.394596
 21
456.812173
 31
0.0
  0
LINE
  5
43D
330
437
100
AcDbEntity
  8
LC-001-100-D00-0
  6
ByBlock
 62
     7
370
    50
100
AcDbLine
 10
438.394596
 20
456.812173
 30
0.0
 11
438.24635
 21
456.812173
 31
0.0
  0
LINE
  5
43E
330
437
100
AcDbEntity
  8
LC-001-100-D00-0
  6
ByBlock
 62
     7
370
    50
100
AcDbLine
 10
438.24635
 20
456.812173
 30
0.0
 11
438.24635
 21
456.812173
 31
0.0
  0
LINE
  5
43F
330
437
100
AcDbEntity
  8
LC-001-100-D00-0
  6
ByBlock
 62
     7
370
    50
100
AcDbLine
 10
438.24635
 20
456.812173
 30
0.0
 11
438.052062
 21
456.812173
 31
0.0
  0
LINE
  5
440
330
437
100
AcDbEntity
  8
LC-001-100-D00-0
  6
ByBlock
 62
     7
370
    50
100
AcDbLine
 10
438.052062
 20
456.812173
 30
0.0
 11
438.052062
 21
456.812173
 31
0.0
  0
LINE
  5
441
330
437
100
AcDbEntity
  8
LC-001-100-D00-0
  6
ByBlock
 62
     7
370
    50
100
AcDbLine
 10
438.052062
 20
456.812173
 30
0.0
 11
437.974196
 21
456.812173
 31
0.0
  0
LINE
  5
442
330
437
100
AcDbEntity
  8
LC-001-100-D00-0
  6
ByBlock
 62
     7
370
    50
100
AcDbLine
 10
437.974196
 20
456.812173
 30
0.0
 11
437.974196
 21
456.812173
 31
0.0
  0
LINE
  5
443
330
437
100
AcDbEntity
  8
LC-001-100-D00-0
  6
ByBlock
 62
     7
370
    50
100
AcDbLine
 10
437.974196
 20
456.812173
 30
0.0
 11
437.969289
 21
456.812173
 31
0.0
  0
LINE
  5
444
330
437
100
AcDbEntity
  8
LC-001-100-D00-0
  6
ByBlock
 62
     7
370
    50
100
AcDbLine
 10
437.969289
 20
456.812173
 30
0.0
 11
437.969289
 21
456.812173
 31
0.0
  0
LINE
  5
445
330
437
100
AcDbEntity
  8
LC-001-100-D00-0
  6
ByBlock
 62
     7
370
    50
100
AcDbLine
 10
437.969289
 20
456.812173
 30
0.0
 11
437.966827
 21
456.812173
 31
0.0
  0
ENDBLK
  5
439
330
437
100
AcDbEntity
  8
0
100
AcDbBlockEnd
  0
BLOCK
  5
449
330
448
100
AcDbEntity
  8
0
100
AcDbBlockBegin
  2
POLY21
 70
     0
 71
     0
 10
0.0
 20
0.0
 30
0.0
  3
POLY21
  1

  4
POLY21
  0
LINE
  5
44B
330
448
100
AcDbEntity
  8
LC-001-100-D00-0
  6
ByBlock
 62
     7
370
    50
100
AcDbLine
 10
448.798217
 20
456.812173
 30
0.0
 11
448.798217
 21
456.812173
 31
0.0
  0
LINE
  5
44C
330
448
100
AcDbEntity
  8
LC-001-100-D00-0
  6
ByBlock
 62
     7
370
    50
100
AcDbLine
 10
448.798217
 20
456.812173
 30
0.0
 11
448.730154
 21
456.812173
 31
0.0
  0
LINE
  5
44D
330
448
100
AcDbEntity
  8
LC-001-100-D00-0
  6
ByBlock
 62
     7
370
    50
100
AcDbLine
 10
448.730154
 20
456.812173
 30
0.0
 11
448.730154
 21
456.812173
 31
0.0
  0
LINE
  5
44E
330
448
100
AcDbEntity
  8
LC-001-100-D00-0
  6
ByBlock
 62
     7
370
    50
100
AcDbLine
 10
448.730154
 20
456.812173
 30
0.0
 11
448.594332
 21
456.812173
 31
0.0
  0
LINE
  5
44F
330
448
100
AcDbEntity
  8
LC-001-100-D00-0
  6
ByBlock
 62
     7
370
    50
100
AcDbLine
 10
448.594332
 20
456.812173
 30
0.0
 11
448.594332
 21
456.812173
 31
0.0
  0
LINE
  5
450
330
448
100
AcDbEntity
  8
LC-001-100-D00-0
  6
ByBlock
 62
     7
370
    50
100
AcDbLine
 10
448.594332
 20
456.812173
 30
0.0
 11
448.420584
 21
456.812173
 31
0.0
  0
LINE
  5
451
330
448
100
AcDbEntity
  8
LC-001-100-D00-0
  6
ByBlock
 62
     7
370
    50
100
AcDbLine
 10
448.420584
 20
456.812173
 30
0.0
 11
448.420584
 21
456.812173
 31
0.0
  0
LINE
  5
452
330
448
100
AcDbEntity
  8
LC-001-100-D00-0
  6
ByBlock
 62
     7
370
    50
100
AcDbLine
 10
448.420584
 20
456.812173
 30
0.0
 11
448.334086
 21
456.812173
 31
0.0
  0
LINE
  5
453
330
448
100
AcDbEntity
  8
LC-001-100-D00-0
  6
ByBlock
 62
     7
370
    50
100
AcDbLine
 10
448.334086
 20
456.812173
 30
0.0
 11
448.334086
 21
456.812173
 31
0.0
  0
LINE
  5
454
330
448
100
AcDbEntity
  8
LC-001-100-D00-0
  6
ByBlock
 62
     7
370
    50
100
AcDbLine
 10
448.334086
 20
456.812173
 30
0.0
 11
448.328234
 21
456.812173
 31
0.0
  0
LINE
  5
455
330
448
100
AcDbEntity
  8
LC-001-100-D00-0
  6
ByBlock
 62
     7
370
    50
100
AcDbLine
 10
448.328234
 20
456.812173
 30
0.0
 11
448.328234
 21
456.812173
 31
0.0
  0
LINE
  5
456
330
448
100
AcDbEntity
  8
LC-001-100-D00-0
  6
ByBlock
 62
     7
370
    50
100
AcDbLine
 10
448.328234
 20
456.812173
 30
0.0
 11
448.325301
 21
456.812173
 31
0.0
  0
ENDBLK
  5
44A
330
448
100
AcDbEntity
  8
0
100
AcDbBlockEnd
  0
BLOCK
  5
459
330
458
100
AcDbEntity
  8
0
100
AcDbBlockBegin
  2
POLY22
 70
     0
 71
     0
 10
0.0
 20
0.0
 30
0.0
  3
POLY22
  1

  4
POLY22
  0
LINE
  5
45B
330
458
100
AcDbEntity
  8
LC-001-100-D00-0
  6
ByBlock
 62
     7
370
    50
100
AcDbLine
 10
438.862446
 20
456.812173
 30
0.0
 11
438.862446
 21
456.812173
 31
0.0
  0
LINE
  5
45C
330
458
100
AcDbEntity
  8
LC-001-100-D00-0
  6
ByBlock
 62
     7
370
    50
100
AcDbLine
 10
438.862446
 20
456.812173
 30
0.0
 11
438.862378
 21
456.812173
 31
0.0
  0
LINE
  5
45D
330
458
100
AcDbEntity
  8
LC-001-100-D00-0
  6
ByBlock
 62
     7
370
    50
100
AcDbLine
 10
438.862378
 20
456.812173
 30
0.0
 11
438.862378
 21
456.812173
 31
0.0
  0
LINE
  5
45E
330
458
100
AcDbEntity
  8
LC-001-100-D00-0
  6
ByBlock
 62
     7
370
    50
100
AcDbLine
 10
438.862378
 20
456.812173
 30
0.0
 11
438.862245
 21
456.812173
 31
0.0
  0
LINE
  5
45F
330
458
100
AcDbEntity
  8
LC-001-100-D00-0
  6
ByBlock
 62
     7
370
    50
100
AcDbLine
 10
438.862245
 20
456.812173
 30
0.0
 11
438.862245
 21
456.812173
 31
0.0
  0
LINE
  5
460
330
458
100
AcDbEntity
  8
LC-001-100-D00-0
  6
ByBlock
 62
     7
370
    50
100
AcDbLine
 10
438.862245
 20
456.812173
 30
0.0
 11
438.75806
 21
456.812173
 31
0.0
  0
LINE
  5
461
330
458
100
AcDbEntity
  8
LC-001-100-D00-0
  6
ByBlock
 62
     7
370
    50
100
AcDbLine
 10
438.75806
 20
456.812173
 30
0.0
 11
438.75806
 21
456.812173
 31
0.0
  0
LINE
  5
462
330
458
100
AcDbEntity
  8
LC-001-100-D00-0
  6
ByBlock
 62
     7
370
    50
100
AcDbLine
 10
438.75806
 20
456.812173
 30
0.0
 11
438.610628
 21
456.812173
 31
0.0
  0
LINE
  5
463
330
458
100
AcDbEntity
  8
LC-001-100-D00-0
  6
ByBlock
 62
     7
370
    50
100
AcDbLine
 10
438.610628
 20
456.812173
 30
0.0
 11
438.610628
 21
456.812173
 31
0.0
  0
LINE
  5
464
330
458
100
AcDbEntity
  8
LC-001-100-D00-0
  6
ByBlock
 62
     7
370
    50
100
AcDbLine
 10
438.610628
 20
456.812173
 30
0.0
 11
438.516228
 21
456.812173
 31
0.0
  0
LINE
  5
465
330
458
100
AcDbEntity
  8
LC-001-100-D00-0
  6
ByBlock
 62
     7
370
    50
100
AcDbLine
 10
438.516228
 20
456.812173
 30
0.0
 11
438.516228
 21
456.812173
 31
0.0
  0
LINE
  5
466
330
458
100
AcDbEntity
  8
LC-001-100-D00-0
  6
ByBlock
 62
     7
370
    50
100
AcDbLine
 10
438.516228
 20
456.812173
 30
0.0
 11
438.468967
 21
456.812173
 31
0.0
  0
ENDBLK
  5
45A
330
458
100
AcDbEntity
  8
0
100
AcDbBlockEnd
  0
BLOCK
  5
469
330
468
100
AcDbEntity
  8
0
100
AcDbBlockBegin
  2
POLY23
 70
     0
 71
     0
 10
0.0
 20
0.0
 30
0.0
  3
POLY23
  1

  4
POLY23
  0
LINE
  5
46B
330
468
100
AcDbEntity
  8
LC-001-100-D00-0
  6
ByBlock
 62
     7
370
    50
100
AcDbLine
 10
449.141895
 20
456.812173
 30
0.0
 11
449.141895
 21
456.812173
 31
0.0
  0
LINE
  5
46C
330
468
100
AcDbEntity
  8
LC-001-100-D00-0
  6
ByBlock
 62
     7
370
    50
100
AcDbLine
 10
449.141895
 20
456.812173
 30
0.0
 11
449.142632
 21
456.812173
 31
0.0
  0
LINE
  5
46D
330
468
100
AcDbEntity
  8
LC-001-100-D00-0
  6
ByBlock
 62
     7
370
    50
100
AcDbLine
 10
449.142632
 20
456.812173
 30
0.0
 11
449.142632
 21
456.812173
 31
0.0
  0
LINE
  5
46E
330
468
100
AcDbEntity
  8
LC-001-100-D00-0
  6
ByBlock
 62
     7
370
    50
100
AcDbLine
 10
449.142632
 20
456.812173
 30
0.0
 11
449.144089
 21
456.812173
 31
0.0
  0
LINE
  5
46F
330
468
100
AcDbEntity
  8
LC-001-100-D00-0
  6
ByBlock
 62
     7
370
    50
100
AcDbLine
 10
449.144089
 20
456.812173
 30
0.0
 11
449.144089
 21
456.812173
 31
0.0
  0
LINE
  5
470
330
468
100
AcDbEntity
  8
LC-001-100-D00-0
  6
ByBlock
 62
     7
370
    50
100
AcDbLine
 10
449.144089
 20
456.812173
 30
0.0
 11
449.058467
 21
456.812173
 31
0.0
  0
LINE
  5
471
330
468
100
AcDbEntity
  8
LC-001-100-D00-0
  6
ByBlock
 62
     7
370
    50
100
AcDbLine
 10
449.058467
 20
456.812173
 30
0.0
 11
449.058467
 21
456.812173
 31
0.0
  0
LINE
  5
472
330
468
100
AcDbEntity
  8
LC-001-100-D00-0
  6
ByBlock
 62
     7
370
    50
100
AcDbLine
 10
449.058467
 20
456.812173
 30
0.0
 11
448.925548
 21
456.812173
 31
0.0
  0
LINE
  5
473
330
468
100
AcDbEntity
  8
LC-001-100-D00-0
  6
ByBlock
 62
     7
370
    50
100
AcDbLine
 10
448.925548
 20
456.812173
 30
0.0
 11
448.925548
 21
456.812173
 31
0.0
  0
LINE
  5
474
330
468
100
AcDbEntity
  8
LC-001-100-D00-0
  6
ByBlock
 62
     7
370
    50
100
AcDbLine
 10
448.925548
 20
456.812173
 30
0.0
 11
448.8407
 21
456.812173
 31
0.0
  0
LINE
  5
475
330
468
100
AcDbEntity
  8
LC-001-100-D00-0
  6
ByBlock
 62
     7
370
    50
100
AcDbLine
 10
448.8407
 20
456.812173
 30
0.0
 11
448.8407
 21
456.812173
 31
0.0
  0
LINE
  5
476
330
468
100
AcDbEntity
  8
LC-001-100-D00-0
  6
ByBlock
 62
     7
370
    50
100
AcDbLine
 10
448.8407
 20
456.812173
 30
0.0
 11
448.798217
 21
456.812173
 31
0.0
  0
ENDBLK
  5
46A
330
468
100
AcDbEntity
  8
0
100
AcDbBlockEnd
  0
BLOCK
  5
479
330
478
100
AcDbEntity
  8
0
100
AcDbBlockBegin
  2
POLY24
 70
     0
 71
     0
 10
0.0
 20
0.0
 30
0.0
  3
POLY24
  1

  4
POLY24
  0
LINE
  5
47B
330
478
100
AcDbEntity
  8
LC-001-100-D00-0
  6
ByBlock
 62
     7
370
    50
100
AcDbLine
 10
448.0092
 20
456.812173
 30
0.0
 11
448.0092
 21
456.812173
 31
0.0
  0
LINE
  5
47C
330
478
100
AcDbEntity
  8
LC-001-100-D00-0
  6
ByBlock
 62
     7
370
    50
100
AcDbLine
 10
448.0092
 20
456.812173
 30
0.0
 11
448.006655
 21
456.812173
 31
0.0
  0
LINE
  5
47D
330
478
100
AcDbEntity
  8
LC-001-100-D00-0
  6
ByBlock
 62
     7
370
    50
100
AcDbLine
 10
448.006655
 20
456.812173
 30
0.0
 11
448.006655
 21
456.812173
 31
0.0
  0
LINE
  5
47E
330
478
100
AcDbEntity
  8
LC-001-100-D00-0
  6
ByBlock
 62
     7
370
    50
100
AcDbLine
 10
448.006655
 20
456.812173
 30
0.0
 11
448.001593
 21
456.812173
 31
0.0
  0
LINE
  5
47F
330
478
100
AcDbEntity
  8
LC-001-100-D00-0
  6
ByBlock
 62
     7
370
    50
100
AcDbLine
 10
448.001593
 20
456.812173
 30
0.0
 11
448.001593
 21
456.812173
 31
0.0
  0
LINE
  5
480
330
478
100
AcDbEntity
  8
LC-001-100-D00-0
  6
ByBlock
 62
     7
370
    50
100
AcDbLine
 10
448.001593
 20
456.812173
 30
0.0
 11
447.916795
 21
456.812173
 31
0.0
  0
LINE
  5
481
330
478
100
AcDbEntity
  8
LC-001-100-D00-0
  6
ByBlock
 62
     7
370
    50
100
AcDbLine
 10
447.916795
 20
456.812173
 30
0.0
 11
447.916795
 21
456.812173
 31
0.0
  0
LINE
  5
482
330
478
100
AcDbEntity
  8
LC-001-100-D00-0
  6
ByBlock
 62
     7
370
    50
100
AcDbLine
 10
447.916795
 20
456.812173
 30
0.0
 11
447.789383
 21
456.812173
 31
0.0
  0
LINE
  5
483
330
478
100
AcDbEntity
  8
LC-001-100-D00-0
  6
ByBlock
 62
     7
370
    50
100
AcDbLine
 10
447.789383
 20
456.812173
 30
0.0
 11
447.789383
 21
456.812173
 31
0.0
  0
LINE
  5
484
330
478
100
AcDbEntity
  8
LC-001-100-D00-0
  6
ByBlock
 62
     7
370
    50
100
AcDbLine
 10
447.789383
 20
456.812173
 30
0.0
 11
447.709067
 21
456.812173
 31
0.0
  0
LINE
  5
485
330
478
100
AcDbEntity
  8
LC-001-100-D00-0
  6
ByBlock
 62
     7
370
    50
100
AcDbLine
 10
447.709067
 20
456.812173
 30
0.0
 11
447.709067
 21
456.812173
 31
0.0
  0
LINE
  5
486
330
478
100
AcDbEntity
  8
LC-001-100-D00-0
  6
ByBlock
 62
     7
370
    50
100
AcDbLine
 10
447.709067
 20
456.812173
 30
0.0
 11
447.668816
 21
456.812173
 31
0.0
  0
ENDBLK
  5
47A
330
478
100
AcDbEntity
  8
0
100
AcDbBlockEnd
  0
BLOCK
  5
48A
330
489
100
AcDbEntity
  8
0
100
AcDbBlockBegin
  2
POLY25
 70
     0
 71
     0
 10
0.0
 20
0.0
 30
0.0
  3
POLY25
  1

  4
POLY25
  0
LINE
  5
48C
330
489
100
AcDbEntity
  8
LC-001-100-D00-0
  6
ByBlock
 62
     7
370
    50
100
AcDbLine
 10
446.337324
 20
456.812173
 30
0.0
 11
446.337324
 21
456.812173
 31
0.0
  0
LINE
  5
48D
330
489
100
AcDbEntity
  8
LC-001-100-D00-0
  6
ByBlock
 62
     7
370
    50
100
AcDbLine
 10
446.337324
 20
456.812173
 30
0.0
 11
446.301121
 21
456.812173
 31
0.0
  0
LINE
  5
48E
330
489
100
AcDbEntity
  8
LC-001-100-D00-0
  6
ByBlock
 62
     7
370
    50
100
AcDbLine
 10
446.301121
 20
456.812173
 30
0.0
 11
446.301121
 21
456.812173
 31
0.0
  0
LINE
  5
48F
330
489
100
AcDbEntity
  8
LC-001-100-D00-0
  6
ByBlock
 62
     7
370
    50
100
AcDbLine
 10
446.301121
 20
456.812173
 30
0.0
 11
446.228756
 21
456.812173
 31
0.0
  0
LINE
  5
490
330
489
100
AcDbEntity
  8
LC-001-100-D00-0
  6
ByBlock
 62
     7
370
    50
100
AcDbLine
 10
446.228756
 20
456.812173
 30
0.0
 11
446.228756
 21
456.812173
 31
0.0
  0
LINE
  5
491
330
489
100
AcDbEntity
  8
LC-001-100-D00-0
  6
ByBlock
 62
     7
370
    50
100
AcDbLine
 10
446.228756
 20
456.812173
 30
0.0
 11
446.136414
 21
456.812173
 31
0.0
  0
LINE
  5
492
330
489
100
AcDbEntity
  8
LC-001-100-D00-0
  6
ByBlock
 62
     7
370
    50
100
AcDbLine
 10
446.136414
 20
456.812173
 30
0.0
 11
446.136414
 21
456.812173
 31
0.0
  0
LINE
  5
493
330
489
100
AcDbEntity
  8
LC-001-100-D00-0
  6
ByBlock
 62
     7
370
    50
100
AcDbLine
 10
446.136414
 20
456.812173
 30
0.0
 11
446.06577
 21
456.812173
 31
0.0
  0
LINE
  5
494
330
489
100
AcDbEntity
  8
LC-001-100-D00-0
  6
ByBlock
 62
     7
370
    50
100
AcDbLine
 10
446.06577
 20
456.812173
 30
0.0
 11
446.06577
 21
456.812173
 31
0.0
  0
LINE
  5
495
330
489
100
AcDbEntity
  8
LC-001-100-D00-0
  6
ByBlock
 62
     7
370
    50
100
AcDbLine
 10
446.06577
 20
456.812173
 30
0.0
 11
446.040738
 21
456.812173
 31
0.0
  0
LINE
  5
496
330
489
100
AcDbEntity
  8
LC-001-100-D00-0
  6
ByBlock
 62
     7
370
    50
100
AcDbLine
 10
446.040738
 20
456.812173
 30
0.0
 11
446.040738
 21
456.812173
 31
0.0
  0
LINE
  5
497
330
489
100
AcDbEntity
  8
LC-001-100-D00-0
  6
ByBlock
 62
     7
370
    50
100
AcDbLine
 10
446.040738
 20
456.812173
 30
0.0
 11
446.02822
 21
456.812173
 31
0.0
  0
ENDBLK
  5
48B
330
489
100
AcDbEntity
  8
0
100
AcDbBlockEnd
  0
BLOCK
  5
49B
330
49A
100
AcDbEntity
  8
0
100
AcDbBlockBegin
  2
POLY26
 70
     0
 71
     0
 10
0.0
 20
0.0
 30
0.0
  3
POLY26
  1

  4
POLY26
  0
LINE
  5
49D
330
49A
100
AcDbEntity
  8
LC-001-100-D00-0
  6
ByBlock
 62
     7
370
    50
100
AcDbLine
 10
446.572753
 20
456.812173
 30
0.0
 11
446.572753
 21
456.812173
 31
0.0
  0
LINE
  5
49E
330
49A
100
AcDbEntity
  8
LC-001-100-D00-0
  6
ByBlock
 62
     7
370
    50
100
AcDbLine
 10
446.572753
 20
456.812173
 30
0.0
 11
446.530957
 21
456.812173
 31
0.0
  0
LINE
  5
49F
330
49A
100
AcDbEntity
  8
LC-001-100-D00-0
  6
ByBlock
 62
     7
370
    50
100
AcDbLine
 10
446.530957
 20
456.812173
 30
0.0
 11
446.530957
 21
456.812173
 31
0.0
  0
LINE
  5
4A0
330
49A
100
AcDbEntity
  8
LC-001-100-D00-0
  6
ByBlock
 62
     7
370
    50
100
AcDbLine
 10
446.530957
 20
456.812173
 30
0.0
 11
446.456312
 21
456.812173
 31
0.0
  0
LINE
  5
4A1
330
49A
100
AcDbEntity
  8
LC-001-100-D00-0
  6
ByBlock
 62
     7
370
    50
100
AcDbLine
 10
446.456312
 20
456.812173
 30
0.0
 11
446.456312
 21
456.812173
 31
0.0
  0
LINE
  5
4A2
330
49A
100
AcDbEntity
  8
LC-001-100-D00-0
  6
ByBlock
 62
     7
370
    50
100
AcDbLine
 10
446.456312
 20
456.812173
 30
0.0
 11
446.373685
 21
456.812173
 31
0.0
  0
LINE
  5
4A3
330
49A
100
AcDbEntity
  8
LC-001-100-D00-0
  6
ByBlock
 62
     7
370
    50
100
AcDbLine
 10
446.373685
 20
456.812173
 30
0.0
 11
446.373685
 21
456.812173
 31
0.0
  0
LINE
  5
4A4
330
49A
100
AcDbEntity
  8
LC-001-100-D00-0
  6
ByBlock
 62
     7
370
    50
100
AcDbLine
 10
446.373685
 20
456.812173
 30
0.0
 11
446.337324
 21
456.812173
 31
0.0
  0
ENDBLK
  5
49C
330
49A
100
AcDbEntity
  8
0
100
AcDbBlockEnd
  0
BLOCK
  5
4C0
330
4BF
100
AcDbEntity
  8
0
100
AcDbBlockBegin
  2
KLON5
 70
     0
 71
     0
 10
0.0
 20
0.0
 30
0.0
  3
KLON5
  1

  4
KLON5
  0
LINE
  5
4C2
330
4BF
100
AcDbEntity
  8
LC-001-100-D00-0
  6
ByBlock
 62
     7
370
    25
100
AcDbLine
 10
478.982955
 20
397.807864
 30
0.0
 11
480.482955
 21
399.307864
 31
0.0
  0
LINE
  5
4C3
330
4BF
100
AcDbEntity
  8
LC-001-100-D00-0
  6
ByBlock
 62
     7
370
    25
100
AcDbLine
 10
478.982955
 20
406.78812
 30
0.0
 11
480.482955
 21
408.28812
 31
0.0
  0
LINE
  5
4C4
330
4BF
100
AcDbEntity
  8
LC-001-100-D00-0
  6
ByBlock
 62
     7
370
    25
100
AcDbLine
 10
478.982955
 20
415.768376
 30
0.0
 11
480.482955
 21
417.268376
 31
0.0
  0
LINE
  5
4C5
330
4BF
100
AcDbEntity
  8
LC-001-100-D00-0
  6
ByBlock
 62
     7
370
    25
100
AcDbLine
 10
478.982955
 20
424.748632
 30
0.0
 11
480.482955
 21
426.248632
 31
0.0
  0
LINE
  5
4C6
330
4BF
100
AcDbEntity
  8
LC-001-100-D00-0
  6
ByBlock
 62
     7
370
    25
100
AcDbLine
 10
478.982955
 20
433.728889
 30
0.0
 11
480.482955
 21
435.228889
 31
0.0
  0
LINE
  5
4C7
330
4BF
100
AcDbEntity
  8
LC-001-100-D00-0
  6
ByBlock
 62
     7
370
    25
100
AcDbLine
 10
478.982955
 20
442.709145
 30
0.0
 11
480.482955
 21
444.209145
 31
0.0
  0
LINE
  5
4C8
330
4BF
100
AcDbEntity
  8
LC-001-100-D00-0
  6
ByBlock
 62
     7
370
    25
100
AcDbLine
 10
477.401998
 20
450.108443
 30
0.0
 11
478.544795
 21
451.25124
 31
0.0
  0
LINE
  5
4C9
330
4BF
100
AcDbEntity
  8
LC-001-100-D00-0
  6
ByBlock
 62
     7
370
    25
100
AcDbLine
 10
472.417256
 20
454.103957
 30
0.0
 11
473.788763
 21
455.475464
 31
0.0
  0
LINE
  5
4CA
330
4BF
100
AcDbEntity
  8
LC-001-100-D00-0
  6
ByBlock
 62
     7
370
    25
100
AcDbLine
 10
401.482955
 20
392.149913
 30
0.0
 11
402.982955
 21
393.649913
 31
0.0
  0
LINE
  5
4CB
330
4BF
100
AcDbEntity
  8
LC-001-100-D00-0
  6
ByBlock
 62
     7
370
    25
100
AcDbLine
 10
464.045217
 20
454.712174
 30
0.0
 11
466.045217
 21
456.712174
 31
0.0
  0
LINE
  5
4CC
330
4BF
100
AcDbEntity
  8
LC-001-100-D00-0
  6
ByBlock
 62
     7
370
    25
100
AcDbLine
 10
401.482955
 20
401.130169
 30
0.0
 11
402.982955
 21
402.630169
 31
0.0
  0
LINE
  5
4CD
330
4BF
100
AcDbEntity
  8
LC-001-100-D00-0
  6
ByBlock
 62
     7
370
    25
100
AcDbLine
 10
455.064961
 20
454.712174
 30
0.0
 11
457.064961
 21
456.712174
 31
0.0
  0
LINE
  5
4CE
330
4BF
100
AcDbEntity
  8
LC-001-100-D00-0
  6
ByBlock
 62
     7
370
    25
100
AcDbLine
 10
401.482955
 20
410.110425
 30
0.0
 11
402.982955
 21
411.610425
 31
0.0
  0
LINE
  5
4CF
330
4BF
100
AcDbEntity
  8
LC-001-100-D00-0
  6
ByBlock
 62
     7
370
    25
100
AcDbLine
 10
446.084705
 20
454.712174
 30
0.0
 11
453.548166
 21
462.175636
 31
0.0
  0
LINE
  5
4D0
330
4BF
100
AcDbEntity
  8
LC-001-100-D00-0
  6
ByBlock
 62
     7
370
    25
100
AcDbLine
 10
401.482955
 20
419.090681
 30
0.0
 11
402.982955
 21
420.590681
 31
0.0
  0
LINE
  5
4D1
330
4BF
100
AcDbEntity
  8
LC-001-100-D00-0
  6
ByBlock
 62
     7
370
    25
100
AcDbLine
 10
409.104448
 20
426.712174
 30
0.0
 11
416.482955
 21
434.090681
 31
0.0
  0
LINE
  5
4D2
330
4BF
100
AcDbEntity
  8
LC-001-100-D00-0
  6
ByBlock
 62
     7
370
    25
100
AcDbLine
 10
419.604448
 20
437.212174
 30
0.0
 11
422.982955
 21
440.590681
 31
0.0
  0
LINE
  5
4D3
330
4BF
100
AcDbEntity
  8
LC-001-100-D00-0
  6
ByBlock
 62
     7
370
    25
100
AcDbLine
 10
437.104448
 20
454.712174
 30
0.0
 11
448.626589
 21
466.234315
 31
0.0
  0
LINE
  5
4D4
330
4BF
100
AcDbEntity
  8
LC-001-100-D00-0
  6
ByBlock
 62
     7
370
    25
100
AcDbLine
 10
401.482955
 20
428.070937
 30
0.0
 11
422.982955
 21
449.570937
 31
0.0
  0
LINE
  5
4D5
330
4BF
100
AcDbEntity
  8
LC-001-100-D00-0
  6
ByBlock
 62
     7
370
    25
100
AcDbLine
 10
428.124192
 20
454.712174
 30
0.0
 11
440.124192
 21
466.712174
 31
0.0
  0
LINE
  5
4D6
330
4BF
100
AcDbEntity
  8
LC-001-100-D00-0
  6
ByBlock
 62
     7
370
    25
100
AcDbLine
 10
401.482955
 20
437.051194
 30
0.0
 11
421.143936
 21
456.712174
 31
0.0
  0
LINE
  5
4D7
330
4BF
100
AcDbEntity
  8
LC-001-100-D00-0
  6
ByBlock
 62
     7
370
    25
100
AcDbLine
 10
401.565065
 20
446.113559
 30
0.0
 11
412.081571
 21
456.630065
 31
0.0
  0
LINE
  5
4D8
330
4BF
100
AcDbEntity
  8
LC-001-100-D00-0
  6
ByBlock
 62
     7
370
    25
100
AcDbLine
 10
448.084705
 20
456.712174
 30
0.0
 11
450.521938
 21
459.149408
 31
0.0
  0
LINE
  5
4D9
330
4BF
100
AcDbEntity
  8
LC-001-100-D00-0
  6
ByBlock
 62
     7
370
    25
100
AcDbLine
 10
439.104448
 20
456.712174
 30
0.0
 11
445.104448
 21
462.712174
 31
0.0
  0
LINE
  5
4DA
330
4BF
100
AcDbEntity
  8
LC-001-100-D00-0
  6
ByBlock
 62
     7
370
    25
100
AcDbLine
 10
431.234165
 20
457.822147
 30
0.0
 11
436.122983
 21
462.710965
 31
0.0
  0
ENDBLK
  5
4C1
330
4BF
100
AcDbEntity
  8
0
100
AcDbBlockEnd
  0
BLOCK
  5
4DD
330
4DC
100
AcDbEntity
  8
0
100
AcDbBlockBegin
  2
KLON6
 70
     0
 71
     0
 10
0.0
 20
0.0
 30
0.0
  3
KLON6
  1

  4
KLON6
  0
LINE
  5
4DF
330
4DC
100
AcDbEntity
  8
LC-001-100-D00-0
  6
ByBlock
 62
     7
370
    25
100
AcDbLine
 10
480.804448
 20
498.412174
 30
0.0
 11
481.482955
 21
499.090681
 31
0.0
  0
LINE
  5
4E0
330
4DC
100
AcDbEntity
  8
LC-001-100-D00-0
  6
ByBlock
 62
     7
370
    25
100
AcDbLine
 10
483.304448
 20
500.912174
 30
0.0
 11
484.699547
 21
502.307273
 31
0.0
  0
ENDBLK
  5
4DE
330
4DC
100
AcDbEntity
  8
0
100
AcDbBlockEnd
  0
BLOCK
  5
4E3
330
4E2
100
AcDbEntity
  8
0
100
AcDbBlockBegin
  2
KLON7
 70
     0
 71
     0
 10
0.0
 20
0.0
 30
0.0
  3
KLON7
  1

  4
KLON7
  0
LINE
  5
4E5
330
4E2
100
AcDbEntity
  8
LC-001-100-D00-0
  6
ByBlock
 62
     7
370
    25
100
AcDbLine
 10
408.962399
 20
498.412174
 30
0.0
 11
409.482955
 21
498.93273
 31
0.0
  0
LINE
  5
4E6
330
4E2
100
AcDbEntity
  8
LC-001-100-D00-0
  6
ByBlock
 62
     7
370
    25
100
AcDbLine
 10
411.462399
 20
500.912174
 30
0.0
 11
412.665195
 21
502.11497
 31
0.0
  0
ENDBLK
  5
4E4
330
4E2
100
AcDbEntity
  8
0
100
AcDbBlockEnd
  0
BLOCK
  5
4EB
330
4EA
100
AcDbEntity
  8
0
100
AcDbBlockBegin
  2
KLON8
 70
     0
 71
     0
 10
0.0
 20
0.0
 30
0.0
  3
KLON8
  1

  4
KLON8
  0
LINE
  5
4ED
330
4EA
100
AcDbEntity
  8
LC-001-100-D00-0
  6
ByBlock
 62
     7
370
    25
100
AcDbLine
 10
456.36368
 20
500.912174
 30
0.0
 11
457.86368
 21
502.412174
 31
0.0
  0
LINE
  5
4EE
330
4EA
100
AcDbEntity
  8
LC-001-100-D00-0
  6
ByBlock
 62
     7
370
    25
100
AcDbLine
 10
447.383424
 20
500.912174
 30
0.0
 11
448.783424
 21
502.312174
 31
0.0
  0
LINE
  5
4EF
330
4EA
100
AcDbEntity
  8
LC-001-100-D00-0
  6
ByBlock
 62
     7
370
    25
100
AcDbLine
 10
438.403168
 20
500.912174
 30
0.0
 11
439.903168
 21
502.412174
 31
0.0
  0
LINE
  5
4F0
330
4EA
100
AcDbEntity
  8
LC-001-100-D00-0
  6
ByBlock
 62
     7
370
    25
100
AcDbLine
 10
429.422912
 20
500.912174
 30
0.0
 11
430.922912
 21
502.412174
 31
0.0
  0
LINE
  5
4F1
330
4EA
100
AcDbEntity
  8
LC-001-100-D00-0
  6
ByBlock
 62
     7
370
    25
100
AcDbLine
 10
420.060506
 20
500.530025
 30
0.0
 11
421.865105
 21
502.334624
 31
0.0
  0
ENDBLK
  5
4EC
330
4EA
100
AcDbEntity
  8
0
100
AcDbBlockEnd
  0
BLOCK
  5
4F4
330
4F3
100
AcDbEntity
  8
0
100
AcDbBlockBegin
  2
KLON9
 70
     0
 71
     0
 10
0.0
 20
0.0
 30
0.0
  3
KLON9
  1

  4
KLON9
  0
LINE
  5
4F6
330
4F3
100
AcDbEntity
  8
LC-001-100-D00-0
  6
ByBlock
 62
     7
370
    25
100
AcDbLine
 10
520.346497
 20
466.112174
 30
0.0
 11
523.346497
 21
469.112174
 31
0.0
  0
LINE
  5
4F7
330
4F3
100
AcDbEntity
  8
LC-001-100-D00-0
  6
ByBlock
 62
     7
370
    25
100
AcDbLine
 10
511.366241
 20
466.112174
 30
0.0
 11
514.366241
 21
469.112174
 31
0.0
  0
LINE
  5
4F8
330
4F3
100
AcDbEntity
  8
LC-001-100-D00-0
  6
ByBlock
 62
     7
370
    25
100
AcDbLine
 10
502.385985
 20
466.112174
 30
0.0
 11
505.385985
 21
469.112174
 31
0.0
  0
LINE
  5
4F9
330
4F3
100
AcDbEntity
  8
LC-001-100-D00-0
  6
ByBlock
 62
     7
370
    25
100
AcDbLine
 10
493.405729
 20
466.112174
 30
0.0
 11
496.405729
 21
469.112174
 31
0.0
  0
ENDBLK
  5
4F5
330
4F3
100
AcDbEntity
  8
0
100
AcDbBlockEnd
  0
BLOCK
  5
4FC
330
4FB
100
AcDbEntity
  8
0
100
AcDbBlockBegin
  2
KLON10
 70
     0
 71
     0
 10
0.0
 20
0.0
 30
0.0
  3
KLON10
  1

  4
KLON10
  0
LINE
  5
4FE
330
4FB
100
AcDbEntity
  8
LC-001-100-D00-0
  6
ByBlock
 62
     7
370
    25
100
AcDbLine
 10
385.642656
 20
466.112174
 30
0.0
 11
388.642656
 21
469.112174
 31
0.0
  0
LINE
  5
4FF
330
4FB
100
AcDbEntity
  8
LC-001-100-D00-0
  6
ByBlock
 62
     7
370
    25
100
AcDbLine
 10
376.662399
 20
466.112174
 30
0.0
 11
379.662399
 21
469.112174
 31
0.0
  0
LINE
  5
500
330
4FB
100
AcDbEntity
  8
LC-001-100-D00-0
  6
ByBlock
 62
     7
370
    25
100
AcDbLine
 10
367.682143
 20
466.112174
 30
0.0
 11
370.682143
 21
469.112174
 31
0.0
  0
LINE
  5
501
330
4FB
100
AcDbEntity
  8
LC-001-100-D00-0
  6
ByBlock
 62
     7
370
    25
100
AcDbLine
 10
358.701887
 20
466.112174
 30
0.0
 11
361.701887
 21
469.112174
 31
0.0
  0
ENDBLK
  5
4FD
330
4FB
100
AcDbEntity
  8
0
100
AcDbBlockEnd
  0
BLOCK
  5
504
330
503
100
AcDbEntity
  8
0
100
AcDbBlockBegin
  2
KLON11
 70
     0
 71
     0
 10
0.0
 20
0.0
 30
0.0
  3
KLON11
  1

  4
KLON11
  0
LINE
  5
506
330
503
100
AcDbEntity
  8
LC-001-100-D00-0
  6
ByBlock
 62
     7
370
    50
100
AcDbLine
 10
523.355497
 20
469.121174
 30
0.0
 11
523.455497
 21
469.221174
 31
0.0
  0
LINE
  5
507
330
503
100
AcDbEntity
  8
LC-001-100-D00-0
  6
ByBlock
 62
     7
370
    50
100
AcDbLine
 10
514.375241
 20
469.121174
 30
0.0
 11
514.475241
 21
469.221174
 31
0.0
  0
LINE
  5
508
330
503
100
AcDbEntity
  8
LC-001-100-D00-0
  6
ByBlock
 62
     7
370
    50
100
AcDbLine
 10
505.394985
 20
469.121174
 30
0.0
 11
505.494985
 21
469.221174
 31
0.0
  0
LINE
  5
509
330
503
100
AcDbEntity
  8
LC-001-100-D00-0
  6
ByBlock
 62
     7
370
    50
100
AcDbLine
 10
496.414729
 20
469.121174
 30
0.0
 11
496.514729
 21
469.221174
 31
0.0
  0
ENDBLK
  5
505
330
503
100
AcDbEntity
  8
0
100
AcDbBlockEnd
  0
BLOCK
  5
50C
330
50B
100
AcDbEntity
  8
0
100
AcDbBlockBegin
  2
KLON12
 70
     0
 71
     0
 10
0.0
 20
0.0
 30
0.0
  3
KLON12
  1

  4
KLON12
  0
LINE
  5
50E
330
50B
100
AcDbEntity
  8
LC-001-100-D00-0
  6
ByBlock
 62
     7
370
    50
100
AcDbLine
 10
388.651656
 20
469.121174
 30
0.0
 11
388.751656
 21
469.221174
 31
0.0
  0
LINE
  5
50F
330
50B
100
AcDbEntity
  8
LC-001-100-D00-0
  6
ByBlock
 62
     7
370
    50
100
AcDbLine
 10
379.671399
 20
469.121174
 30
0.0
 11
379.771399
 21
469.221174
 31
0.0
  0
LINE
  5
510
330
50B
100
AcDbEntity
  8
LC-001-100-D00-0
  6
ByBlock
 62
     7
370
    50
100
AcDbLine
 10
370.691143
 20
469.121174
 30
0.0
 11
370.791143
 21
469.221174
 31
0.0
  0
LINE
  5
511
330
50B
100
AcDbEntity
  8
LC-001-100-D00-0
  6
ByBlock
 62
     7
370
    50
100
AcDbLine
 10
361.710887
 20
469.121174
 30
0.0
 11
361.810887
 21
469.221174
 31
0.0
  0
ENDBLK
  5
50D
330
50B
100
AcDbEntity
  8
0
100
AcDbBlockEnd
  0
BLOCK
  5
515
330
514
100
AcDbEntity
  8
0
100
AcDbBlockBegin
  2
KLON13
 70
     0
 71
     0
 10
0.0
 20
0.0
 30
0.0
  3
KLON13
  1

  4
KLON13
  0
LINE
  5
517
330
514
100
AcDbEntity
  8
LC-001-100-D00-0
  6
ByBlock
 62
     7
370
    25
100
AcDbLine
 10
390.976039
 20
498.386326
 30
0.0
 11
391.682955
 21
499.093243
 31
0.0
  0
LINE
  5
518
330
514
100
AcDbEntity
  8
LC-001-100-D00-0
  6
ByBlock
 62
     7
370
    25
100
AcDbLine
 10
394.168909
 20
501.579196
 30
0.0
 11
394.722615
 21
502.132902
 31
0.0
  0
ENDBLK
  5
516
330
514
100
AcDbEntity
  8
0
100
AcDbBlockEnd
  0
BLOCK
  5
51B
330
51A
100
AcDbEntity
  8
0
100
AcDbBlockBegin
  2
KLON14
 70
     0
 71
     0
 10
0.0
 20
0.0
 30
0.0
  3
KLON14
  1

  4
KLON14
  0
LINE
  5
51D
330
51A
100
AcDbEntity
  8
LC-001-100-D00-0
  6
ByBlock
 62
     7
370
    25
100
AcDbLine
 10
488.482955
 20
470.169657
 30
0.0
 11
488.825473
 21
470.512174
 31
0.0
  0
LINE
  5
51E
330
51A
100
AcDbEntity
  8
LC-001-100-D00-0
  6
ByBlock
 62
     7
370
    25
100
AcDbLine
 10
488.482955
 20
479.149913
 30
0.0
 11
489.445217
 21
480.112174
 31
0.0
  0
LINE
  5
51F
330
51A
100
AcDbEntity
  8
LC-001-100-D00-0
  6
ByBlock
 62
     7
370
    25
100
AcDbLine
 10
488.482955
 20
488.130169
 30
0.0
 11
488.782955
 21
488.430169
 31
0.0
  0
LINE
  5
520
330
51A
100
AcDbEntity
  8
LC-001-100-D00-0
  6
ByBlock
 62
     7
370
    25
100
AcDbLine
 10
488.864961
 20
488.512174
 30
0.0
 11
489.982955
 21
489.630169
 31
0.0
  0
LINE
  5
521
330
51A
100
AcDbEntity
  8
LC-001-100-D00-0
  6
ByBlock
 62
     7
370
    25
100
AcDbLine
 10
487.084705
 20
495.712174
 30
0.0
 11
490.282955
 21
498.910425
 31
0.0
  0
ENDBLK
  5
51C
330
51A
100
AcDbEntity
  8
0
100
AcDbBlockEnd
  0
BLOCK
  5
524
330
523
100
AcDbEntity
  8
0
100
AcDbBlockBegin
  2
KLON15
 70
     0
 71
     0
 10
0.0
 20
0.0
 30
0.0
  3
KLON15
  1

  4
KLON15
  0
LINE
  5
526
330
523
100
AcDbEntity
  8
LC-001-100-D00-0
  6
ByBlock
 62
     7
370
    25
100
AcDbLine
 10
392.042656
 20
472.512174
 30
0.0
 11
393.482955
 21
473.952474
 31
0.0
  0
LINE
  5
527
330
523
100
AcDbEntity
  8
LC-001-100-D00-0
  6
ByBlock
 62
     7
370
    25
100
AcDbLine
 10
392.662399
 20
482.112174
 30
0.0
 11
393.482955
 21
482.93273
 31
0.0
  0
LINE
  5
528
330
523
100
AcDbEntity
  8
LC-001-100-D00-0
  6
ByBlock
 62
     7
370
    25
100
AcDbLine
 10
393.182955
 20
491.612986
 30
0.0
 11
393.482955
 21
491.912986
 31
0.0
  0
LINE
  5
529
330
523
100
AcDbEntity
  8
LC-001-100-D00-0
  6
ByBlock
 62
     7
370
    25
100
AcDbLine
 10
391.682955
 20
499.093243
 30
0.0
 11
394.168909
 21
501.579196
 31
0.0
  0
ENDBLK
  5
525
330
523
100
AcDbEntity
  8
0
100
AcDbBlockEnd
  0
BLOCK
  5
52C
330
52B
100
AcDbEntity
  8
0
100
AcDbBlockBegin
  2
KLON16
 70
     0
 71
     0
 10
0.0
 20
0.0
 30
0.0
  3
KLON16
  1

  4
KLON16
  0
LINE
  5
52E
330
52B
100
AcDbEntity
  8
LC-001-100-D00-0
  6
ByBlock
 62
     7
370
    25
100
AcDbLine
 10
463.249059
 20
319.212174
 30
0.0
 11
465.885555
 21
321.848671
 31
0.0
  0
LINE
  5
52F
330
52B
100
AcDbEntity
  8
LC-001-100-D00-0
  6
ByBlock
 62
     7
370
    25
100
AcDbLine
 10
462.982955
 20
327.926327
 30
0.0
 11
465.982955
 21
330.926327
 31
0.0
  0
LINE
  5
530
330
52B
100
AcDbEntity
  8
LC-001-100-D00-0
  6
ByBlock
 62
     7
370
    25
100
AcDbLine
 10
462.982955
 20
336.906583
 30
0.0
 11
465.982955
 21
339.906583
 31
0.0
  0
LINE
  5
531
330
52B
100
AcDbEntity
  8
LC-001-100-D00-0
  6
ByBlock
 62
     7
370
    25
100
AcDbLine
 10
592.988546
 20
466.912174
 30
0.0
 11
595.988546
 21
469.912174
 31
0.0
  0
LINE
  5
532
330
52B
100
AcDbEntity
  8
LC-001-100-D00-0
  6
ByBlock
 62
     7
370
    25
100
AcDbLine
 10
462.982955
 20
345.88684
 30
0.0
 11
465.982955
 21
348.88684
 31
0.0
  0
LINE
  5
533
330
52B
100
AcDbEntity
  8
LC-001-100-D00-0
  6
ByBlock
 62
     7
370
    25
100
AcDbLine
 10
584.00829
 20
466.912174
 30
0.0
 11
587.00829
 21
469.912174
 31
0.0
  0
LINE
  5
534
330
52B
100
AcDbEntity
  8
LC-001-100-D00-0
  6
ByBlock
 62
     7
370
    25
100
AcDbLine
 10
462.982955
 20
354.867096
 30
0.0
 11
465.982955
 21
357.867096
 31
0.0
  0
LINE
  5
535
330
52B
100
AcDbEntity
  8
LC-001-100-D00-0
  6
ByBlock
 62
     7
370
    25
100
AcDbLine
 10
485.328034
 20
377.212174
 30
0.0
 11
488.475271
 21
380.359412
 31
0.0
  0
LINE
  5
536
330
52B
100
AcDbEntity
  8
LC-001-100-D00-0
  6
ByBlock
 62
     7
370
    25
100
AcDbLine
 10
490.399732
 20
382.283872
 30
0.0
 11
494.50372
 21
386.387861
 31
0.0
  0
LINE
  5
537
330
52B
100
AcDbEntity
  8
LC-001-100-D00-0
  6
ByBlock
 62
     7
370
    25
100
AcDbLine
 10
575.028034
 20
466.912174
 30
0.0
 11
578.028034
 21
469.912174
 31
0.0
  0
LINE
  5
538
330
52B
100
AcDbEntity
  8
LC-001-100-D00-0
  6
ByBlock
 62
     7
370
    25
100
AcDbLine
 10
462.982955
 20
363.847352
 30
0.0
 11
465.982955
 21
366.847352
 31
0.0
  0
LINE
  5
539
330
52B
100
AcDbEntity
  8
LC-001-100-D00-0
  6
ByBlock
 62
     7
370
    25
100
AcDbLine
 10
476.347778
 20
377.212174
 30
0.0
 11
479.347778
 21
380.212174
 31
0.0
  0
LINE
  5
53A
330
52B
100
AcDbEntity
  8
LC-001-100-D00-0
  6
ByBlock
 62
     7
370
    25
100
AcDbLine
 10
492.982955
 20
393.847352
 30
0.0
 11
495.982955
 21
396.847352
 31
0.0
  0
LINE
  5
53B
330
52B
100
AcDbEntity
  8
LC-001-100-D00-0
  6
ByBlock
 62
     7
370
    25
100
AcDbLine
 10
566.047778
 20
466.912174
 30
0.0
 11
568.547778
 21
469.412174
 31
0.0
  0
LINE
  5
53C
330
52B
100
AcDbEntity
  8
LC-001-100-D00-0
  6
ByBlock
 62
     7
370
    25
100
AcDbLine
 10
462.982955
 20
372.827608
 30
0.0
 11
465.982955
 21
375.827608
 31
0.0
  0
LINE
  5
53D
330
52B
100
AcDbEntity
  8
LC-001-100-D00-0
  6
ByBlock
 62
     7
370
    25
100
AcDbLine
 10
467.367522
 20
377.212174
 30
0.0
 11
470.367522
 21
380.212174
 31
0.0
  0
LINE
  5
53E
330
52B
100
AcDbEntity
  8
LC-001-100-D00-0
  6
ByBlock
 62
     7
370
    25
100
AcDbLine
 10
492.982955
 20
402.827608
 30
0.0
 11
495.982955
 21
405.827608
 31
0.0
  0
LINE
  5
53F
330
52B
100
AcDbEntity
  8
LC-001-100-D00-0
  6
ByBlock
 62
     7
370
    25
100
AcDbLine
 10
557.067522
 20
466.912174
 30
0.0
 11
559.567522
 21
469.412174
 31
0.0
  0
LINE
  5
540
330
52B
100
AcDbEntity
  8
LC-001-100-D00-0
  6
ByBlock
 62
     7
370
    25
100
AcDbLine
 10
462.982955
 20
381.807864
 30
0.0
 11
465.482955
 21
384.307864
 31
0.0
  0
LINE
  5
541
330
52B
100
AcDbEntity
  8
LC-001-100-D00-0
  6
ByBlock
 62
     7
370
    25
100
AcDbLine
 10
492.982955
 20
411.807864
 30
0.0
 11
495.982955
 21
414.807864
 31
0.0
  0
LINE
  5
542
330
52B
100
AcDbEntity
  8
LC-001-100-D00-0
  6
ByBlock
 62
     7
370
    25
100
AcDbLine
 10
548.087266
 20
466.912174
 30
0.0
 11
550.587266
 21
469.412174
 31
0.0
  0
LINE
  5
543
330
52B
100
AcDbEntity
  8
LC-001-100-D00-0
  6
ByBlock
 62
     7
370
    25
100
AcDbLine
 10
462.982955
 20
390.78812
 30
0.0
 11
465.482955
 21
393.28812
 31
0.0
  0
LINE
  5
544
330
52B
100
AcDbEntity
  8
LC-001-100-D00-0
  6
ByBlock
 62
     7
370
    25
100
AcDbLine
 10
492.982955
 20
420.78812
 30
0.0
 11
495.982955
 21
423.78812
 31
0.0
  0
LINE
  5
545
330
52B
100
AcDbEntity
  8
LC-001-100-D00-0
  6
ByBlock
 62
     7
370
    25
100
AcDbLine
 10
539.10701
 20
466.912174
 30
0.0
 11
541.60701
 21
469.412174
 31
0.0
  0
LINE
  5
546
330
52B
100
AcDbEntity
  8
LC-001-100-D00-0
  6
ByBlock
 62
     7
370
    25
100
AcDbLine
 10
462.982955
 20
399.768376
 30
0.0
 11
465.482955
 21
402.268376
 31
0.0
  0
LINE
  5
547
330
52B
100
AcDbEntity
  8
LC-001-100-D00-0
  6
ByBlock
 62
     7
370
    25
100
AcDbLine
 10
492.982955
 20
429.768376
 30
0.0
 11
495.982955
 21
432.768376
 31
0.0
  0
LINE
  5
548
330
52B
100
AcDbEntity
  8
LC-001-100-D00-0
  6
ByBlock
 62
     7
370
    25
100
AcDbLine
 10
497.426754
 20
434.212174
 30
0.0
 11
503.982955
 21
440.768376
 31
0.0
  0
LINE
  5
549
330
52B
100
AcDbEntity
  8
LC-001-100-D00-0
  6
ByBlock
 62
     7
370
    25
100
AcDbLine
 10
526.126754
 20
462.912174
 30
0.0
 11
528.626754
 21
465.412174
 31
0.0
  0
LINE
  5
54A
330
52B
100
AcDbEntity
  8
LC-001-100-D00-0
  6
ByBlock
 62
     7
370
    25
100
AcDbLine
 10
532.518574
 20
469.303995
 30
0.0
 11
532.626754
 21
469.412174
 31
0.0
  0
LINE
  5
54B
330
52B
100
AcDbEntity
  8
LC-001-100-D00-0
  6
ByBlock
 62
     7
370
    25
100
AcDbLine
 10
462.982955
 20
408.748632
 30
0.0
 11
465.482955
 21
411.248632
 31
0.0
  0
LINE
  5
54C
330
52B
100
AcDbEntity
  8
LC-001-100-D00-0
  6
ByBlock
 62
     7
370
    25
100
AcDbLine
 10
500.982955
 20
446.748632
 30
0.0
 11
503.982955
 21
449.748632
 31
0.0
  0
LINE
  5
54D
330
52B
100
AcDbEntity
  8
LC-001-100-D00-0
  6
ByBlock
 62
     7
370
    25
100
AcDbLine
 10
517.146497
 20
462.912174
 30
0.0
 11
519.646497
 21
465.412174
 31
0.0
  0
LINE
  5
54E
330
52B
100
AcDbEntity
  8
LC-001-100-D00-0
  6
ByBlock
 62
     7
370
    25
100
AcDbLine
 10
462.982955
 20
417.728889
 30
0.0
 11
465.482955
 21
420.228889
 31
0.0
  0
LINE
  5
54F
330
52B
100
AcDbEntity
  8
LC-001-100-D00-0
  6
ByBlock
 62
     7
370
    25
100
AcDbLine
 10
500.982955
 20
455.728889
 30
0.0
 11
503.982955
 21
458.728889
 31
0.0
  0
LINE
  5
550
330
52B
100
AcDbEntity
  8
LC-001-100-D00-0
  6
ByBlock
 62
     7
370
    25
100
AcDbLine
 10
508.166241
 20
462.912174
 30
0.0
 11
510.666241
 21
465.412174
 31
0.0
  0
LINE
  5
551
330
52B
100
AcDbEntity
  8
LC-001-100-D00-0
  6
ByBlock
 62
     7
370
    25
100
AcDbLine
 10
462.982955
 20
426.709145
 30
0.0
 11
465.482955
 21
429.209145
 31
0.0
  0
LINE
  5
552
330
52B
100
AcDbEntity
  8
LC-001-100-D00-0
  6
ByBlock
 62
     7
370
    25
100
AcDbLine
 10
462.982955
 20
435.689401
 30
0.0
 11
465.482955
 21
438.189401
 31
0.0
  0
ENDBLK
  5
52D
330
52B
100
AcDbEntity
  8
0
100
AcDbBlockEnd
  0
BLOCK
  5
555
330
554
100
AcDbEntity
  8
0
100
AcDbBlockBegin
  2
KLON17
 70
     0
 71
     0
 10
0.0
 20
0.0
 30
0.0
  3
KLON17
  1

  4
KLON17
  0
LINE
  5
557
330
554
100
AcDbEntity
  8
LC-001-100-D00-0
  6
ByBlock
 62
     7
370
    25
100
AcDbLine
 10
418.347778
 20
319.212174
 30
0.0
 11
418.982955
 21
319.847352
 31
0.0
  0
LINE
  5
558
330
554
100
AcDbEntity
  8
LC-001-100-D00-0
  6
ByBlock
 62
     7
370
    25
100
AcDbLine
 10
415.982955
 20
325.827608
 30
0.0
 11
418.982955
 21
328.827608
 31
0.0
  0
LINE
  5
559
330
554
100
AcDbEntity
  8
LC-001-100-D00-0
  6
ByBlock
 62
     7
370
    25
100
AcDbLine
 10
415.982955
 20
334.807864
 30
0.0
 11
418.982955
 21
337.807864
 31
0.0
  0
LINE
  5
55A
330
554
100
AcDbEntity
  8
LC-001-100-D00-0
  6
ByBlock
 62
     7
370
    25
100
AcDbLine
 10
415.982955
 20
343.78812
 30
0.0
 11
418.982955
 21
346.78812
 31
0.0
  0
LINE
  5
55B
330
554
100
AcDbEntity
  8
LC-001-100-D00-0
  6
ByBlock
 62
     7
370
    25
100
AcDbLine
 10
415.982955
 20
352.768376
 30
0.0
 11
418.982955
 21
355.768376
 31
0.0
  0
LINE
  5
55C
330
554
100
AcDbEntity
  8
LC-001-100-D00-0
  6
ByBlock
 62
     7
370
    25
100
AcDbLine
 10
415.982955
 20
361.748632
 30
0.0
 11
418.982955
 21
364.748632
 31
0.0
  0
LINE
  5
55D
330
554
100
AcDbEntity
  8
LC-001-100-D00-0
  6
ByBlock
 62
     7
370
    25
100
AcDbLine
 10
415.982955
 20
370.728889
 30
0.0
 11
418.982955
 21
373.728889
 31
0.0
  0
LINE
  5
55E
330
554
100
AcDbEntity
  8
LC-001-100-D00-0
  6
ByBlock
 62
     7
370
    25
100
AcDbLine
 10
413.485985
 20
377.212174
 30
0.0
 11
418.982955
 21
382.709145
 31
0.0
  0
LINE
  5
55F
330
554
100
AcDbEntity
  8
LC-001-100-D00-0
  6
ByBlock
 62
     7
370
    25
100
AcDbLine
 10
404.505729
 20
377.212174
 30
0.0
 11
407.505729
 21
380.212174
 31
0.0
  0
LINE
  5
560
330
554
100
AcDbEntity
  8
LC-001-100-D00-0
  6
ByBlock
 62
     7
370
    25
100
AcDbLine
 10
416.482955
 20
389.189401
 30
0.0
 11
418.982955
 21
391.689401
 31
0.0
  0
LINE
  5
561
330
554
100
AcDbEntity
  8
LC-001-100-D00-0
  6
ByBlock
 62
     7
370
    25
100
AcDbLine
 10
395.525473
 20
377.212174
 30
0.0
 11
398.525473
 21
380.212174
 31
0.0
  0
LINE
  5
562
330
554
100
AcDbEntity
  8
LC-001-100-D00-0
  6
ByBlock
 62
     7
370
    25
100
AcDbLine
 10
416.482955
 20
398.169657
 30
0.0
 11
418.982955
 21
400.669657
 31
0.0
  0
LINE
  5
563
330
554
100
AcDbEntity
  8
LC-001-100-D00-0
  6
ByBlock
 62
     7
370
    25
100
AcDbLine
 10
389.207462
 20
379.874419
 30
0.0
 11
391.578848
 21
382.245806
 31
0.0
  0
LINE
  5
564
330
554
100
AcDbEntity
  8
LC-001-100-D00-0
  6
ByBlock
 62
     7
370
    25
100
AcDbLine
 10
416.482955
 20
407.149913
 30
0.0
 11
418.982955
 21
409.649913
 31
0.0
  0
LINE
  5
565
330
554
100
AcDbEntity
  8
LC-001-100-D00-0
  6
ByBlock
 62
     7
370
    25
100
AcDbLine
 10
387.30971
 20
386.956924
 30
0.0
 11
389.675736
 21
389.32295
 31
0.0
  0
LINE
  5
566
330
554
100
AcDbEntity
  8
LC-001-100-D00-0
  6
ByBlock
 62
     7
370
    25
100
AcDbLine
 10
416.482955
 20
416.130169
 30
0.0
 11
418.982955
 21
418.630169
 31
0.0
  0
LINE
  5
567
330
554
100
AcDbEntity
  8
LC-001-100-D00-0
  6
ByBlock
 62
     7
370
    25
100
AcDbLine
 10
385.982955
 20
394.610425
 30
0.0
 11
388.982955
 21
397.610425
 31
0.0
  0
LINE
  5
568
330
554
100
AcDbEntity
  8
LC-001-100-D00-0
  6
ByBlock
 62
     7
370
    25
100
AcDbLine
 10
416.482955
 20
425.110425
 30
0.0
 11
418.982955
 21
427.610425
 31
0.0
  0
LINE
  5
569
330
554
100
AcDbEntity
  8
LC-001-100-D00-0
  6
ByBlock
 62
     7
370
    25
100
AcDbLine
 10
385.982955
 20
403.590681
 30
0.0
 11
388.982955
 21
406.590681
 31
0.0
  0
LINE
  5
56A
330
554
100
AcDbEntity
  8
LC-001-100-D00-0
  6
ByBlock
 62
     7
370
    25
100
AcDbLine
 10
416.482955
 20
434.090681
 30
0.0
 11
418.982955
 21
436.590681
 31
0.0
  0
LINE
  5
56B
330
554
100
AcDbEntity
  8
LC-001-100-D00-0
  6
ByBlock
 62
     7
370
    25
100
AcDbLine
 10
385.982955
 20
412.570937
 30
0.0
 11
388.982955
 21
415.570937
 31
0.0
  0
LINE
  5
56C
330
554
100
AcDbEntity
  8
LC-001-100-D00-0
  6
ByBlock
 62
     7
370
    25
100
AcDbLine
 10
385.982955
 20
421.551194
 30
0.0
 11
388.982955
 21
424.551194
 31
0.0
  0
LINE
  5
56D
330
554
100
AcDbEntity
  8
LC-001-100-D00-0
  6
ByBlock
 62
     7
370
    25
100
AcDbLine
 10
385.982955
 20
430.53145
 30
0.0
 11
388.982955
 21
433.53145
 31
0.0
  0
LINE
  5
56E
330
554
100
AcDbEntity
  8
LC-001-100-D00-0
  6
ByBlock
 62
     7
370
    25
100
AcDbLine
 10
380.697076
 20
434.225827
 30
0.0
 11
384.683424
 21
438.212174
 31
0.0
  0
LINE
  5
56F
330
554
100
AcDbEntity
  8
LC-001-100-D00-0
  6
ByBlock
 62
     7
370
    25
100
AcDbLine
 10
377.982955
 20
440.491962
 30
0.0
 11
380.982955
 21
443.491962
 31
0.0
  0
LINE
  5
570
330
554
100
AcDbEntity
  8
LC-001-100-D00-0
  6
ByBlock
 62
     7
370
    25
100
AcDbLine
 10
377.982955
 20
449.472218
 30
0.0
 11
380.982955
 21
452.472218
 31
0.0
  0
LINE
  5
571
330
554
100
AcDbEntity
  8
LC-001-100-D00-0
  6
ByBlock
 62
     7
370
    25
100
AcDbLine
 10
377.982955
 20
458.452474
 30
0.0
 11
380.859252
 21
461.328771
 31
0.0
  0
LINE
  5
572
330
554
100
AcDbEntity
  8
LC-001-100-D00-0
  6
ByBlock
 62
     7
370
    25
100
AcDbLine
 10
373.462399
 20
462.912174
 30
0.0
 11
375.962399
 21
465.412174
 31
0.0
  0
LINE
  5
573
330
554
100
AcDbEntity
  8
LC-001-100-D00-0
  6
ByBlock
 62
     7
370
    25
100
AcDbLine
 10
364.482143
 20
462.912174
 30
0.0
 11
366.982143
 21
465.412174
 31
0.0
  0
LINE
  5
574
330
554
100
AcDbEntity
  8
LC-001-100-D00-0
  6
ByBlock
 62
     7
370
    25
100
AcDbLine
 10
355.501887
 20
462.912174
 30
0.0
 11
358.001887
 21
465.412174
 31
0.0
  0
LINE
  5
575
330
554
100
AcDbEntity
  8
LC-001-100-D00-0
  6
ByBlock
 62
     7
370
    25
100
AcDbLine
 10
348.874516
 20
465.26506
 30
0.0
 11
350.716023
 21
467.106566
 31
0.0
  0
LINE
  5
576
330
554
100
AcDbEntity
  8
LC-001-100-D00-0
  6
ByBlock
 62
     7
370
    25
100
AcDbLine
 10
341.541375
 20
466.912174
 30
0.0
 11
344.041375
 21
469.412174
 31
0.0
  0
LINE
  5
577
330
554
100
AcDbEntity
  8
LC-001-100-D00-0
  6
ByBlock
 62
     7
370
    25
100
AcDbLine
 10
332.561119
 20
466.912174
 30
0.0
 11
335.061119
 21
469.412174
 31
0.0
  0
LINE
  5
578
330
554
100
AcDbEntity
  8
LC-001-100-D00-0
  6
ByBlock
 62
     7
370
    25
100
AcDbLine
 10
323.580863
 20
466.912174
 30
0.0
 11
326.080863
 21
469.412174
 31
0.0
  0
LINE
  5
579
330
554
100
AcDbEntity
  8
LC-001-100-D00-0
  6
ByBlock
 62
     7
370
    25
100
AcDbLine
 10
314.600607
 20
466.912174
 30
0.0
 11
317.100607
 21
469.412174
 31
0.0
  0
LINE
  5
57A
330
554
100
AcDbEntity
  8
LC-001-100-D00-0
  6
ByBlock
 62
     7
370
    25
100
AcDbLine
 10
305.620351
 20
466.912174
 30
0.0
 11
308.120351
 21
469.412174
 31
0.0
  0
LINE
  5
57B
330
554
100
AcDbEntity
  8
LC-001-100-D00-0
  6
ByBlock
 62
     7
370
    25
100
AcDbLine
 10
296.640094
 20
466.912174
 30
0.0
 11
299.640094
 21
469.912174
 31
0.0
  0
LINE
  5
57C
330
554
100
AcDbEntity
  8
LC-001-100-D00-0
  6
ByBlock
 62
     7
370
    25
100
AcDbLine
 10
287.659838
 20
466.912174
 30
0.0
 11
290.659838
 21
469.912174
 31
0.0
  0
ENDBLK
  5
556
330
554
100
AcDbEntity
  8
0
100
AcDbBlockEnd
  0
BLOCK
  5
57F
330
57E
100
AcDbEntity
  8
0
100
AcDbBlockBegin
  2
KLON18
 70
     0
 71
     0
 10
0.0
 20
0.0
 30
0.0
  3
KLON18
  1

  4
KLON18
  0
LINE
  5
581
330
57E
100
AcDbEntity
  8
LC-001-100-D00-0
  6
ByBlock
 62
     7
370
    50
100
AcDbLine
 10
380.859252
 20
461.328771
 30
0.0
 11
380.982955
 21
461.452474
 31
0.0
  0
LINE
  5
582
330
57E
100
AcDbEntity
  8
LC-001-100-D00-0
  6
ByBlock
 62
     7
370
    50
100
AcDbLine
 10
375.962399
 20
465.412174
 30
0.0
 11
376.462399
 21
465.912174
 31
0.0
  0
LINE
  5
583
330
57E
100
AcDbEntity
  8
LC-001-100-D00-0
  6
ByBlock
 62
     7
370
    50
100
AcDbLine
 10
366.982143
 20
465.412174
 30
0.0
 11
367.482143
 21
465.912174
 31
0.0
  0
LINE
  5
584
330
57E
100
AcDbEntity
  8
LC-001-100-D00-0
  6
ByBlock
 62
     7
370
    50
100
AcDbLine
 10
358.001887
 20
465.412174
 30
0.0
 11
358.501887
 21
465.912174
 31
0.0
  0
LINE
  5
585
330
57E
100
AcDbEntity
  8
LC-001-100-D00-0
  6
ByBlock
 62
     7
370
    50
100
AcDbLine
 10
350.715886
 20
467.106429
 30
0.0
 11
351.0819
 21
467.472443
 31
0.0
  0
LINE
  5
586
330
57E
100
AcDbEntity
  8
LC-001-100-D00-0
  6
ByBlock
 62
     7
370
    50
100
AcDbLine
 10
344.041375
 20
469.412174
 30
0.0
 11
344.541375
 21
469.912174
 31
0.0
  0
LINE
  5
587
330
57E
100
AcDbEntity
  8
LC-001-100-D00-0
  6
ByBlock
 62
     7
370
    50
100
AcDbLine
 10
335.061119
 20
469.412174
 30
0.0
 11
335.561119
 21
469.912174
 31
0.0
  0
LINE
  5
588
330
57E
100
AcDbEntity
  8
LC-001-100-D00-0
  6
ByBlock
 62
     7
370
    50
100
AcDbLine
 10
326.080863
 20
469.412174
 30
0.0
 11
326.580863
 21
469.912174
 31
0.0
  0
LINE
  5
589
330
57E
100
AcDbEntity
  8
LC-001-100-D00-0
  6
ByBlock
 62
     7
370
    50
100
AcDbLine
 10
317.100607
 20
469.412174
 30
0.0
 11
317.600607
 21
469.912174
 31
0.0
  0
LINE
  5
58A
330
57E
100
AcDbEntity
  8
LC-001-100-D00-0
  6
ByBlock
 62
     7
370
    50
100
AcDbLine
 10
308.120351
 20
469.412174
 30
0.0
 11
308.620351
 21
469.912174
 31
0.0
  0
ENDBLK
  5
580
330
57E
100
AcDbEntity
  8
0
100
AcDbBlockEnd
  0
BLOCK
  5
58D
330
58C
100
AcDbEntity
  8
0
100
AcDbBlockBegin
  2
KLON19
 70
     0
 71
     0
 10
0.0
 20
0.0
 30
0.0
  3
KLON19
  1

  4
KLON19
  0
LINE
  5
58F
330
58C
100
AcDbEntity
  8
LC-001-100-D00-0
  6
ByBlock
 62
     7
370
    50
100
AcDbLine
 10
568.547778
 20
469.412174
 30
0.0
 11
569.047778
 21
469.912174
 31
0.0
  0
LINE
  5
590
330
58C
100
AcDbEntity
  8
LC-001-100-D00-0
  6
ByBlock
 62
     7
370
    50
100
AcDbLine
 10
559.567522
 20
469.412174
 30
0.0
 11
560.067522
 21
469.912174
 31
0.0
  0
LINE
  5
591
330
58C
100
AcDbEntity
  8
LC-001-100-D00-0
  6
ByBlock
 62
     7
370
    50
100
AcDbLine
 10
550.587266
 20
469.412174
 30
0.0
 11
551.087266
 21
469.912174
 31
0.0
  0
LINE
  5
592
330
58C
100
AcDbEntity
  8
LC-001-100-D00-0
  6
ByBlock
 62
     7
370
    50
100
AcDbLine
 10
541.60701
 20
469.412174
 30
0.0
 11
542.10701
 21
469.912174
 31
0.0
  0
LINE
  5
593
330
58C
100
AcDbEntity
  8
LC-001-100-D00-0
  6
ByBlock
 62
     7
370
    50
100
AcDbLine
 10
528.626754
 20
465.412174
 30
0.0
 11
529.126754
 21
465.912174
 31
0.0
  0
LINE
  5
594
330
58C
100
AcDbEntity
  8
LC-001-100-D00-0
  6
ByBlock
 62
     7
370
    50
100
AcDbLine
 10
531.153267
 20
467.938688
 30
0.0
 11
532.519865
 21
469.305286
 31
0.0
  0
LINE
  5
595
330
58C
100
AcDbEntity
  8
LC-001-100-D00-0
  6
ByBlock
 62
     7
370
    50
100
AcDbLine
 10
532.626754
 20
469.412174
 30
0.0
 11
533.126754
 21
469.912174
 31
0.0
  0
LINE
  5
596
330
58C
100
AcDbEntity
  8
LC-001-100-D00-0
  6
ByBlock
 62
     7
370
    50
100
AcDbLine
 10
519.646497
 20
465.412174
 30
0.0
 11
520.146497
 21
465.912174
 31
0.0
  0
LINE
  5
597
330
58C
100
AcDbEntity
  8
LC-001-100-D00-0
  6
ByBlock
 62
     7
370
    50
100
AcDbLine
 10
510.666241
 20
465.412174
 30
0.0
 11
511.166241
 21
465.912174
 31
0.0
  0
ENDBLK
  5
58E
330
58C
100
AcDbEntity
  8
0
100
AcDbBlockEnd
  0
BLOCK
  5
5A8
330
59D
100
AcDbEntity
  8
0
100
AcDbBlockBegin
  2
*D46
 70
     1
 71
     0
 10
0.0
 20
0.0
 30
0.0
  3
*D46
  1

  0
LINE
  5
59E
330
59D
100
AcDbEntity
  8
LC-001-100-D00-0
 62
     2
370
    -2
100
AcDbLine
 10
415.982955
 20
322.212174
 30
0.0
 11
415.982955
 21
295.776
 31
0.0
  0
LINE
  5
59F
330
59D
100
AcDbEntity
  8
LC-001-100-D00-0
 62
     2
370
    -2
100
AcDbLine
 10
465.982955
 20
322.212174
 30
0.0
 11
465.982955
 21
295.776
 31
0.0
  0
LINE
  5
5A0
330
59D
100
AcDbEntity
  8
LC-001-100-D00-0
 62
     2
370
    -2
100
AcDbLine
 10
387.982955
 20
299.376
 30
0.0
 11
359.982955
 21
299.376
 31
0.0
  0
LINE
  5
5A1
330
59D
100
AcDbEntity
  8
LC-001-100-D00-0
 62
     2
370
    -2
100
AcDbLine
 10
493.982955
 20
299.376
 30
0.0
 11
596.348482
 21
299.376
 31
0.0
  0
SOLID
  5
5A2
330
59D
100
AcDbEntity
  8
LC-001-100-D00-0
 62
     2
100
AcDbTrace
 10
387.982955
 20
294.709333
 30
0.0
 11
387.982955
 21
304.042667
 31
0.0
 12
415.982955
 22
299.376
 32
0.0
 13
415.982955
 23
299.376
 33
0.0
  0
SOLID
  5
5A3
330
59D
100
AcDbEntity
  8
LC-001-100-D00-0
 62
     2
100
AcDbTrace
 10
493.982955
 20
304.042667
 30
0.0
 11
493.982955
 21
294.709333
 31
0.0
 12
465.982955
 22
299.376
 32
0.0
 13
465.982955
 23
299.376
 33
0.0
  0
MTEXT
  5
5A4
330
59D
100
AcDbEntity
  8
LC-001-100-D00-0
 62
     2
100
AcDbMText
 10
550.311724
 20
330.176
 30
0.0
 40
28.0
 41
0.0
 71
     5
 72
     1
  1
\A1;DN50
  7
LCTX15-400-0-0pDIN-Schrift
 73
     1
 44
1.0
  0
POINT
  5
5A5
330
59D
100
AcDbEntity
  8
Defpoints
 62
     0
100
AcDbPoint
 10
415.982955
 20
322.212174
 30
0.0
  0
POINT
  5
5A6
330
59D
100
AcDbEntity
  8
Defpoints
 62
     0
100
AcDbPoint
 10
465.982955
 20
322.212174
 30
0.0
  0
POINT
  5
5A7
330
59D
100
AcDbEntity
  8
Defpoints
 62
     0
100
AcDbPoint
 10
465.982955
 20
299.376
 30
0.0
  0
ENDBLK
  5
5A9
330
59D
100
AcDbEntity
  8
0
100
AcDbBlockEnd
  0
BLOCK
  5
5B5
330
5AB
100
AcDbEntity
  8
0
100
AcDbBlockBegin
  2
*D47
 70
     1
 71
     0
 10
0.0
 20
0.0
 30
0.0
  3
*D47
  1

  0
LINE
  5
5AC
330
5AB
100
AcDbEntity
  8
LC-001-100-D00-0
 62
     2
370
    -2
100
AcDbLine
 10
385.982955
 20
391.908441
 30
0.0
 11
385.982955
 21
247.662
 31
0.0
  0
LINE
  5
5AD
330
5AB
100
AcDbEntity
  8
LC-001-100-D00-0
 62
     2
370
    -2
100
AcDbLine
 10
495.982955
 20
391.908441
 30
0.0
 11
495.982955
 21
247.662
 31
0.0
  0
LINE
  5
5AE
330
5AB
100
AcDbEntity
  8
LC-001-100-D00-0
 62
     2
370
    -2
100
AcDbLine
 10
413.982955
 20
251.262
 30
0.0
 11
467.982955
 21
251.262
 31
0.0
  0
SOLID
  5
5AF
330
5AB
100
AcDbEntity
  8
LC-001-100-D00-0
 62
     2
100
AcDbTrace
 10
413.982955
 20
255.928667
 30
0.0
 11
413.982955
 21
246.595333
 31
0.0
 12
385.982955
 22
251.262
 32
0.0
 13
385.982955
 23
251.262
 33
0.0
  0
SOLID
  5
5B0
330
5AB
100
AcDbEntity
  8
LC-001-100-D00-0
 62
     2
100
AcDbTrace
 10
467.982955
 20
246.595333
 30
0.0
 11
467.982955
 21
255.928667
 31
0.0
 12
495.982955
 22
251.262
 32
0.0
 13
495.982955
 23
251.262
 33
0.0
  0
MTEXT
  5
5B1
330
5AB
100
AcDbEntity
  8
LC-001-100-D00-0
 62
     2
100
AcDbMText
 10
437.729486
 20
282.062
 30
0.0
 40
28.0
 41
0.0
 71
     5
 72
     1
  1
\A1;%%c110
  7
LCTX15-400-0-0pDIN-Schrift
 73
     1
 44
1.0
  0
POINT
  5
5B2
330
5AB
100
AcDbEntity
  8
Defpoints
 62
     0
100
AcDbPoint
 10
385.982955
 20
391.908441
 30
0.0
  0
POINT
  5
5B3
330
5AB
100
AcDbEntity
  8
Defpoints
 62
     0
100
AcDbPoint
 10
495.982955
 20
391.908441
 30
0.0
  0
POINT
  5
5B4
330
5AB
100
AcDbEntity
  8
Defpoints
 62
     0
100
AcDbPoint
 10
495.982955
 20
251.262
 30
0.0
  0
ENDBLK
  5
5B6
330
5AB
100
AcDbEntity
  8
0
100
AcDbBlockEnd
  0
BLOCK
  5
5C3
330
5B8
100
AcDbEntity
  8
0
100
AcDbBlockBegin
  2
*D48
 70
     1
 71
     0
 10
0.0
 20
0.0
 30
0.0
  3
*D48
  1

  0
LINE
  5
5B9
330
5B8
100
AcDbEntity
  8
LC-001-100-D00-0
 62
     2
370
    -2
100
AcDbLine
 10
489.282955
 20
503.112174
 30
0.0
 11
625.716144
 21
503.112174
 31
0.0
  0
LINE
  5
5BA
330
5B8
100
AcDbEntity
  8
LC-001-100-D00-0
 62
     2
370
    -2
100
AcDbLine
 10
598.482955
 20
469.912174
 30
0.0
 11
625.716144
 21
469.912174
 31
0.0
  0
LINE
  5
5BB
330
5B8
100
AcDbEntity
  8
LC-001-100-D00-0
 62
     2
370
    -2
100
AcDbLine
 10
622.116144
 20
531.112174
 30
0.0
 11
622.116144
 21
559.112174
 31
0.0
  0
LINE
  5
5BC
330
5B8
100
AcDbEntity
  8
LC-001-100-D00-0
 62
     2
370
    -2
100
AcDbLine
 10
622.116144
 20
441.912174
 30
0.0
 11
622.116144
 21
400.631943
 31
0.0
  0
SOLID
  5
5BD
330
5B8
100
AcDbEntity
  8
LC-001-100-D00-0
 62
     2
100
AcDbTrace
 10
617.449477
 20
531.112174
 30
0.0
 11
626.782811
 21
531.112174
 31
0.0
 12
622.116144
 22
503.112174
 32
0.0
 13
622.116144
 23
503.112174
 33
0.0
  0
SOLID
  5
5BE
330
5B8
100
AcDbEntity
  8
LC-001-100-D00-0
 62
     2
100
AcDbTrace
 10
626.782811
 20
441.912174
 30
0.0
 11
617.449477
 21
441.912174
 31
0.0
 12
622.116144
 22
469.912174
 32
0.0
 13
622.116144
 23
469.912174
 33
0.0
  0
MTEXT
  5
5BF
330
5B8
100
AcDbEntity
  8
LC-001-100-D00-0
 62
     2
100
AcDbMText
 10
591.316144
 20
463.914
 30
0.0
 40
28.0
 41
0.0
 71
     5
 72
     1
  1
\A1;6,5-33
  7
LCTX15-400-0-0pDIN-Schrift
 11
6.123031769111886E-17
 21
1.0
 31
0.0
 73
     1
 44
1.0
  0
POINT
  5
5C0
330
5B8
100
AcDbEntity
  8
Defpoints
 62
     0
100
AcDbPoint
 10
489.282955
 20
503.112174
 30
0.0
  0
POINT
  5
5C1
330
5B8
100
AcDbEntity
  8
Defpoints
 62
     0
100
AcDbPoint
 10
598.482955
 20
469.912174
 30
0.0
  0
POINT
  5
5C2
330
5B8
100
AcDbEntity
  8
Defpoints
 62
     0
100
AcDbPoint
 10
622.116144
 20
469.912174
 30
0.0
  0
ENDBLK
  5
5C4
330
5B8
100
AcDbEntity
  8
0
100
AcDbBlockEnd
  0
BLOCK
  5
5D0
330
5C6
100
AcDbEntity
  8
0
100
AcDbBlockBegin
  2
*D49
 70
     1
 71
     0
 10
0.0
 20
0.0
 30
0.0
  3
*D49
  1

  0
LINE
  5
5C7
330
5C6
100
AcDbEntity
  8
LC-001-100-D00-0
 62
     2
370
    -2
100
AcDbLine
 10
377.982955
 20
437.212174
 30
0.0
 11
377.982955
 21
203.706
 31
0.0
  0
LINE
  5
5C8
330
5C6
100
AcDbEntity
  8
LC-001-100-D00-0
 62
     2
370
    -2
100
AcDbLine
 10
503.982955
 20
437.212174
 30
0.0
 11
503.982955
 21
203.706
 31
0.0
  0
LINE
  5
5C9
330
5C6
100
AcDbEntity
  8
LC-001-100-D00-0
 62
     2
370
    -2
100
AcDbLine
 10
405.982955
 20
207.306
 30
0.0
 11
475.982955
 21
207.306
 31
0.0
  0
SOLID
  5
5CA
330
5C6
100
AcDbEntity
  8
LC-001-100-D00-0
 62
     2
100
AcDbTrace
 10
405.982955
 20
211.972667
 30
0.0
 11
405.982955
 21
202.639333
 31
0.0
 12
377.982955
 22
207.306
 32
0.0
 13
377.982955
 23
207.306
 33
0.0
  0
SOLID
  5
5CB
330
5C6
100
AcDbEntity
  8
LC-001-100-D00-0
 62
     2
100
AcDbTrace
 10
475.982955
 20
202.639333
 30
0.0
 11
475.982955
 21
211.972667
 31
0.0
 12
503.982955
 22
207.306
 32
0.0
 13
503.982955
 23
207.306
 33
0.0
  0
MTEXT
  5
5CC
330
5C6
100
AcDbEntity
  8
LC-001-100-D00-0
 62
     2
100
AcDbMText
 10
436.843012
 20
238.106
 30
0.0
 40
28.0
 41
0.0
 71
     5
 72
     1
  1
\A1;%%c126
  7
LCTX15-400-0-0pDIN-Schrift
 73
     1
 44
1.0
  0
POINT
  5
5CD
330
5C6
100
AcDbEntity
  8
Defpoints
 62
     0
100
AcDbPoint
 10
377.982955
 20
437.212174
 30
0.0
  0
POINT
  5
5CE
330
5C6
100
AcDbEntity
  8
Defpoints
 62
     0
100
AcDbPoint
 10
503.982955
 20
437.212174
 30
0.0
  0
POINT
  5
5CF
330
5C6
100
AcDbEntity
  8
Defpoints
 62
     0
100
AcDbPoint
 10
503.982955
 20
207.306
 30
0.0
  0
ENDBLK
  5
5D1
330
5C6
100
AcDbEntity
  8
0
100
AcDbBlockEnd
  0
BLOCK
  5
5DE
330
5D3
100
AcDbEntity
  8
0
100
AcDbBlockBegin
  2
*D50
 70
     1
 71
     0
 10
0.0
 20
0.0
 30
0.0
  3
*D50
  1

  0
LINE
  5
5D4
330
5D3
100
AcDbEntity
  8
LC-001-100-D00-0
 62
     2
370
    -2
100
AcDbLine
 10
283.482955
 20
469.912174
 30
0.0
 11
247.96988
 21
469.912174
 31
0.0
  0
LINE
  5
5D5
330
5D3
100
AcDbEntity
  8
LC-001-100-D00-0
 62
     2
370
    -2
100
AcDbLine
 10
380.982955
 20
434.212174
 30
0.0
 11
247.96988
 21
434.212174
 31
0.0
  0
LINE
  5
5D6
330
5D3
100
AcDbEntity
  8
LC-001-100-D00-0
 62
     2
370
    -2
100
AcDbLine
 10
251.56988
 20
497.912174
 30
0.0
 11
251.56988
 21
525.912174
 31
0.0
  0
LINE
  5
5D7
330
5D3
100
AcDbEntity
  8
LC-001-100-D00-0
 62
     2
370
    -2
100
AcDbLine
 10
251.56988
 20
406.212174
 30
0.0
 11
251.56988
 21
394.481141
 31
0.0
  0
SOLID
  5
5D8
330
5D3
100
AcDbEntity
  8
LC-001-100-D00-0
 62
     2
100
AcDbTrace
 10
246.903213
 20
497.912174
 30
0.0
 11
256.236547
 21
497.912174
 31
0.0
 12
251.56988
 22
469.912174
 32
0.0
 13
251.56988
 23
469.912174
 33
0.0
  0
SOLID
  5
5D9
330
5D3
100
AcDbEntity
  8
LC-001-100-D00-0
 62
     2
100
AcDbTrace
 10
256.236547
 20
406.212174
 30
0.0
 11
246.903213
 21
406.212174
 31
0.0
 12
251.56988
 22
434.212174
 32
0.0
 13
251.56988
 23
434.212174
 33
0.0
  0
MTEXT
  5
5DA
330
5D3
100
AcDbEntity
  8
LC-001-100-D00-0
 62
     2
100
AcDbMText
 10
220.76988
 20
417.582
 30
0.0
 40
28.0
 41
0.0
 71
     5
 72
     1
  1
\A1;36
  7
LCTX15-400-0-0pDIN-Schrift
 11
6.123031769111886E-17
 21
1.0
 31
0.0
 73
     1
 44
1.0
  0
POINT
  5
5DB
330
5D3
100
AcDbEntity
  8
Defpoints
 62
     0
100
AcDbPoint
 10
283.482955
 20
469.912174
 30
0.0
  0
POINT
  5
5DC
330
5D3
100
AcDbEntity
  8
Defpoints
 62
     0
100
AcDbPoint
 10
380.982955
 20
434.212174
 30
0.0
  0
POINT
  5
5DD
330
5D3
100
AcDbEntity
  8
Defpoints
 62
     0
100
AcDbPoint
 10
251.56988
 20
434.212174
 30
0.0
  0
ENDBLK
  5
5DF
330
5D3
100
AcDbEntity
  8
0
100
AcDbBlockEnd
  0
BLOCK
  5
5EB
330
5E1
100
AcDbEntity
  8
0
100
AcDbBlockBegin
  2
*D51
 70
     1
 71
     0
 10
0.0
 20
0.0
 30
0.0
  3
*D51
  1

  0
LINE
  5
5E2
330
5E1
100
AcDbEntity
  8
LC-001-100-D00-0
 62
     2
370
    -2
100
AcDbLine
 10
283.482955
 20
469.912174
 30
0.0
 11
199.213793
 21
469.912174
 31
0.0
  0
LINE
  5
5E3
330
5E1
100
AcDbEntity
  8
LC-001-100-D00-0
 62
     2
370
    -2
100
AcDbLine
 10
392.222789
 20
377.212174
 30
0.0
 11
199.213793
 21
377.212174
 31
0.0
  0
LINE
  5
5E4
330
5E1
100
AcDbEntity
  8
LC-001-100-D00-0
 62
     2
370
    -2
100
AcDbLine
 10
202.813793
 20
441.912174
 30
0.0
 11
202.813793
 21
405.212174
 31
0.0
  0
SOLID
  5
5E5
330
5E1
100
AcDbEntity
  8
LC-001-100-D00-0
 62
     2
100
AcDbTrace
 10
207.480459
 20
441.912174
 30
0.0
 11
198.147126
 21
441.912174
 31
0.0
 12
202.813793
 22
469.912174
 32
0.0
 13
202.813793
 23
469.912174
 33
0.0
  0
SOLID
  5
5E6
330
5E1
100
AcDbEntity
  8
LC-001-100-D00-0
 62
     2
100
AcDbTrace
 10
198.147126
 20
405.212174
 30
0.0
 11
207.480459
 21
405.212174
 31
0.0
 12
202.813793
 22
377.212174
 32
0.0
 13
202.813793
 23
377.212174
 33
0.0
  0
MTEXT
  5
5E7
330
5E1
100
AcDbEntity
  8
LC-001-100-D00-0
 62
     2
100
AcDbMText
 10
172.013793
 20
419.958
 30
0.0
 40
28.0
 41
0.0
 71
     5
 72
     1
  1
\A1;93
  7
LCTX15-400-0-0pDIN-Schrift
 11
6.123031769111886E-17
 21
1.0
 31
0.0
 73
     1
 44
1.0
  0
POINT
  5
5E8
330
5E1
100
AcDbEntity
  8
Defpoints
 62
     0
100
AcDbPoint
 10
283.482955
 20
469.912174
 30
0.0
  0
POINT
  5
5E9
330
5E1
100
AcDbEntity
  8
Defpoints
 62
     0
100
AcDbPoint
 10
392.222789
 20
377.212174
 30
0.0
  0
POINT
  5
5EA
330
5E1
100
AcDbEntity
  8
Defpoints
 62
     0
100
AcDbPoint
 10
202.813793
 20
377.212174
 30
0.0
  0
ENDBLK
  5
5EC
330
5E1
100
AcDbEntity
  8
0
100
AcDbBlockEnd
  0
BLOCK
  5
5FA
330
5EE
100
AcDbEntity
  8
0
100
AcDbBlockBegin
  2
*D52
 70
     1
 71
     0
 10
0.0
 20
0.0
 30
0.0
  3
*D52
  1

  0
LINE
  5
5EF
330
5EE
100
AcDbEntity
  8
LC-001-100-D00-0
 62
     2
370
    -2
100
AcDbLine
 10
392.222789
 20
377.212174
 30
0.0
 11
288.747699
 21
377.212174
 31
0.0
  0
LINE
  5
5F0
330
5EE
100
AcDbEntity
  8
LC-001-100-D00-0
 62
     2
370
    -2
100
AcDbLine
 10
416.786803
 20
319.212174
 30
0.0
 11
288.747699
 21
319.212174
 31
0.0
  0
LINE
  5
5F1
330
5EE
100
AcDbEntity
  8
LC-001-100-D00-0
 62
     2
370
    -2
100
AcDbLine
 10
292.347699
 20
405.212174
 30
0.0
 11
292.347699
 21
433.212174
 31
0.0
  0
LINE
  5
5F2
330
5EE
100
AcDbEntity
  8
LC-001-100-D00-0
 62
     2
370
    -2
100
AcDbLine
 10
292.347699
 20
291.212174
 30
0.0
 11
292.347699
 21
263.212174
 31
0.0
  0
LINE
  5
5F3
330
5EE
100
AcDbEntity
  8
LC-001-100-D00-0
 62
     2
370
    -2
100
AcDbLine
 10
292.347699
 20
377.212174
 30
0.0
 11
292.347699
 21
319.212174
 31
0.0
  0
SOLID
  5
5F4
330
5EE
100
AcDbEntity
  8
LC-001-100-D00-0
 62
     2
100
AcDbTrace
 10
287.681032
 20
405.212174
 30
0.0
 11
297.014365
 21
405.212174
 31
0.0
 12
292.347699
 22
377.212174
 32
0.0
 13
292.347699
 23
377.212174
 33
0.0
  0
SOLID
  5
5F5
330
5EE
100
AcDbEntity
  8
LC-001-100-D00-0
 62
     2
100
AcDbTrace
 10
297.014365
 20
291.212174
 30
0.0
 11
287.681032
 21
291.212174
 31
0.0
 12
292.347699
 22
319.212174
 32
0.0
 13
292.347699
 23
319.212174
 33
0.0
  0
MTEXT
  5
5F6
330
5EE
100
AcDbEntity
  8
LC-001-100-D00-0
 62
     2
100
AcDbMText
 10
261.547699
 20
334.422
 30
0.0
 40
28.0
 41
0.0
 71
     5
 72
     1
  1
\A1;58
  7
LCTX15-400-0-0pDIN-Schrift
 11
6.123031769111886E-17
 21
1.0
 31
0.0
 73
     1
 44
1.0
  0
POINT
  5
5F7
330
5EE
100
AcDbEntity
  8
Defpoints
 62
     0
100
AcDbPoint
 10
392.222789
 20
377.212174
 30
0.0
  0
POINT
  5
5F8
330
5EE
100
AcDbEntity
  8
Defpoints
 62
     0
100
AcDbPoint
 10
416.786803
 20
319.212174
 30
0.0
  0
POINT
  5
5F9
330
5EE
100
AcDbEntity
  8
Defpoints
 62
     0
100
AcDbPoint
 10
292.347699
 20
319.212174
 30
0.0
  0
ENDBLK
  5
5FB
330
5EE
100
AcDbEntity
  8
0
100
AcDbBlockEnd
  0
BLOCK
  5
607
330
5FD
100
AcDbEntity
  8
0
100
AcDbBlockBegin
  2
*D53
 70
     1
 71
     0
 10
0.0
 20
0.0
 30
0.0
  3
*D53
  1

  0
LINE
  5
5FE
330
5FD
100
AcDbEntity
  8
LC-001-100-D00-0
 62
     2
370
    -2
100
AcDbLine
 10
283.482955
 20
466.912174
 30
0.0
 11
283.482955
 21
558.99
 31
0.0
  0
LINE
  5
5FF
330
5FD
100
AcDbEntity
  8
LC-001-100-D00-0
 62
     2
370
    -2
100
AcDbLine
 10
598.482955
 20
466.912174
 30
0.0
 11
598.482955
 21
558.99
 31
0.0
  0
LINE
  5
600
330
5FD
100
AcDbEntity
  8
LC-001-100-D00-0
 62
     2
370
    -2
100
AcDbLine
 10
311.482955
 20
555.39
 30
0.0
 11
570.482955
 21
555.39
 31
0.0
  0
SOLID
  5
601
330
5FD
100
AcDbEntity
  8
LC-001-100-D00-0
 62
     2
100
AcDbTrace
 10
311.482955
 20
560.056667
 30
0.0
 11
311.482955
 21
550.723333
 31
0.0
 12
283.482955
 22
555.39
 32
0.0
 13
283.482955
 23
555.39
 33
0.0
  0
SOLID
  5
602
330
5FD
100
AcDbEntity
  8
LC-001-100-D00-0
 62
     2
100
AcDbTrace
 10
570.482955
 20
550.723333
 30
0.0
 11
570.482955
 21
560.056667
 31
0.0
 12
598.482955
 22
555.39
 32
0.0
 13
598.482955
 23
555.39
 33
0.0
  0
MTEXT
  5
603
330
5FD
100
AcDbEntity
  8
LC-001-100-D00-0
 62
     2
100
AcDbMText
 10
437.729486
 20
586.19
 30
0.0
 40
28.0
 41
0.0
 71
     5
 72
     1
  1
\A1;%%c315
  7
LCTX15-400-0-0pDIN-Schrift
 73
     1
 44
1.0
  0
POINT
  5
604
330
5FD
100
AcDbEntity
  8
Defpoints
 62
     0
100
AcDbPoint
 10
283.482955
 20
466.912174
 30
0.0
  0
POINT
  5
605
330
5FD
100
AcDbEntity
  8
Defpoints
 62
     0
100
AcDbPoint
 10
598.482955
 20
466.912174
 30
0.0
  0
POINT
  5
606
330
5FD
100
AcDbEntity
  8
Defpoints
 62
     0
100
AcDbPoint
 10
598.482955
 20
555.39
 30
0.0
  0
ENDBLK
  5
608
330
5FD
100
AcDbEntity
  8
0
100
AcDbBlockEnd
  0
BLOCK
  5
614
330
60A
100
AcDbEntity
  8
0
100
AcDbBlockBegin
  2
*D54
 70
     1
 71
     0
 10
0.0
 20
0.0
 30
0.0
  3
*D54
  1

  0
LINE
  5
60B
330
60A
100
AcDbEntity
  8
LC-001-100-D00-0
 62
     2
370
    -2
100
AcDbLine
 10
390.982955
 20
501.412174
 30
0.0
 11
390.982955
 21
517.41
 31
0.0
  0
LINE
  5
60C
330
60A
100
AcDbEntity
  8
LC-001-100-D00-0
 62
     2
370
    -2
100
AcDbLine
 10
490.982955
 20
501.412174
 30
0.0
 11
490.982955
 21
517.41
 31
0.0
  0
LINE
  5
60D
330
60A
100
AcDbEntity
  8
LC-001-100-D00-0
 62
     2
370
    -2
100
AcDbLine
 10
418.982955
 20
513.81
 30
0.0
 11
462.982955
 21
513.81
 31
0.0
  0
SOLID
  5
60E
330
60A
100
AcDbEntity
  8
LC-001-100-D00-0
 62
     2
100
AcDbTrace
 10
418.982955
 20
518.476667
 30
0.0
 11
418.982955
 21
509.143333
 31
0.0
 12
390.982955
 22
513.81
 32
0.0
 13
390.982955
 23
513.81
 33
0.0
  0
SOLID
  5
60F
330
60A
100
AcDbEntity
  8
LC-001-100-D00-0
 62
     2
100
AcDbTrace
 10
462.982955
 20
509.143333
 30
0.0
 11
462.982955
 21
518.476667
 31
0.0
 12
490.982955
 22
513.81
 32
0.0
 13
490.982955
 23
513.81
 33
0.0
  0
MTEXT
  5
610
330
60A
100
AcDbEntity
  8
LC-001-100-D00-0
 62
     2
100
AcDbMText
 10
457.231921
 20
544.61
 30
0.0
 40
28.0
 41
0.0
 71
     5
 72
     1
  1
\A1;100
  7
LCTX15-400-0-0pDIN-Schrift
 73
     1
 44
1.0
  0
POINT
  5
611
330
60A
100
AcDbEntity
  8
Defpoints
 62
     0
100
AcDbPoint
 10
390.982955
 20
501.412174
 30
0.0
  0
POINT
  5
612
330
60A
100
AcDbEntity
  8
Defpoints
 62
     0
100
AcDbPoint
 10
490.982955
 20
501.412174
 30
0.0
  0
POINT
  5
613
330
60A
100
AcDbEntity
  8
Defpoints
 62
     0
100
AcDbPoint
 10
490.982955
 20
513.81
 30
0.0
  0
ENDBLK
  5
615
330
60A
100
AcDbEntity
  8
0
100
AcDbBlockEnd
  0
BLOCK
  5
623
330
617
100
AcDbEntity
  8
0
100
AcDbBlockBegin
  2
*D55
 70
     1
 71
     0
 10
0.0
 20
0.0
 30
0.0
  3
*D55
  1

  0
LINE
  5
618
330
617
100
AcDbEntity
  8
LC-001-100-D00-0
 62
     2
370
    -2
100
AcDbLine
 10
401.482955
 20
391.712174
 30
0.0
 11
346.368529
 21
391.712174
 31
0.0
  0
LINE
  5
619
330
617
100
AcDbEntity
  8
LC-001-100-D00-0
 62
     2
370
    -2
100
AcDbLine
 10
416.482955
 20
441.712174
 30
0.0
 11
346.368529
 21
441.712174
 31
0.0
  0
LINE
  5
61A
330
617
100
AcDbEntity
  8
LC-001-100-D00-0
 62
     2
370
    -2
100
AcDbLine
 10
349.968529
 20
363.712174
 30
0.0
 11
349.968529
 21
335.712174
 31
0.0
  0
LINE
  5
61B
330
617
100
AcDbEntity
  8
LC-001-100-D00-0
 62
     2
370
    -2
100
AcDbLine
 10
349.968529
 20
469.712174
 30
0.0
 11
349.968529
 21
497.712174
 31
0.0
  0
LINE
  5
61C
330
617
100
AcDbEntity
  8
LC-001-100-D00-0
 62
     2
370
    -2
100
AcDbLine
 10
349.968529
 20
391.712174
 30
0.0
 11
349.968529
 21
441.712174
 31
0.0
  0
SOLID
  5
61D
330
617
100
AcDbEntity
  8
LC-001-100-D00-0
 62
     2
100
AcDbTrace
 10
354.635196
 20
363.712174
 30
0.0
 11
345.301862
 21
363.712174
 31
0.0
 12
349.968529
 22
391.712174
 32
0.0
 13
349.968529
 23
391.712174
 33
0.0
  0
SOLID
  5
61E
330
617
100
AcDbEntity
  8
LC-001-100-D00-0
 62
     2
100
AcDbTrace
 10
345.301862
 20
469.712174
 30
0.0
 11
354.635196
 21
469.712174
 31
0.0
 12
349.968529
 22
441.712174
 32
0.0
 13
349.968529
 23
441.712174
 33
0.0
  0
MTEXT
  5
61F
330
617
100
AcDbEntity
  8
LC-001-100-D00-0
 62
     2
100
AcDbMText
 10
319.168529
 20
400.356
 30
0.0
 40
28.0
 41
0.0
 71
     5
 72
     1
  1
\A1;50
  7
LCTX15-400-0-0pDIN-Schrift
 11
6.123031769111886E-17
 21
1.0
 31
0.0
 73
     1
 44
1.0
  0
POINT
  5
620
330
617
100
AcDbEntity
  8
Defpoints
 62
     0
100
AcDbPoint
 10
401.482955
 20
391.712174
 30
0.0
  0
POINT
  5
621
330
617
100
AcDbEntity
  8
Defpoints
 62
     0
100
AcDbPoint
 10
416.482955
 20
441.712174
 30
0.0
  0
POINT
  5
622
330
617
100
AcDbEntity
  8
Defpoints
 62
     0
100
AcDbPoint
 10
349.968529
 20
441.712174
 30
0.0
  0
ENDBLK
  5
624
330
617
100
AcDbEntity
  8
0
100
AcDbBlockEnd
  0
BLOCK
  5
62E
330
62D
100
AcDbEntity
  8
0
100
AcDbBlockBegin
  2
POLY27
 70
     0
 71
     0
 10
0.0
 20
0.0
 30
0.0
  3
POLY27
  1

  4
POLY27
  0
LINE
  5
630
330
62D
100
AcDbEntity
  8
LC-001-100-D00-0
  6
ByBlock
 62
     7
370
    50
100
AcDbLine
 10
298.218698
 20
451.912838
 30
0.0
 11
298.218698
 21
451.912838
 31
0.0
  0
LINE
  5
631
330
62D
100
AcDbEntity
  8
LC-001-100-D00-0
  6
ByBlock
 62
     7
370
    50
100
AcDbLine
 10
298.218698
 20
451.912838
 30
0.0
 11
298.219632
 21
451.912842
 31
0.0
  0
LINE
  5
632
330
62D
100
AcDbEntity
  8
LC-001-100-D00-0
  6
ByBlock
 62
     7
370
    50
100
AcDbLine
 10
298.219632
 20
451.912842
 30
0.0
 11
298.219632
 21
451.912842
 31
0.0
  0
LINE
  5
633
330
62D
100
AcDbEntity
  8
LC-001-100-D00-0
  6
ByBlock
 62
     7
370
    50
100
AcDbLine
 10
298.219632
 20
451.912842
 30
0.0
 11
298.279398
 21
451.913085
 31
0.0
  0
LINE
  5
634
330
62D
100
AcDbEntity
  8
LC-001-100-D00-0
  6
ByBlock
 62
     7
370
    50
100
AcDbLine
 10
298.279398
 20
451.913085
 30
0.0
 11
298.279398
 21
451.913085
 31
0.0
  0
LINE
  5
635
330
62D
100
AcDbEntity
  8
LC-001-100-D00-0
  6
ByBlock
 62
     7
370
    50
100
AcDbLine
 10
298.279398
 20
451.913085
 30
0.0
 11
298.384754
 21
451.95364
 31
0.0
  0
LINE
  5
636
330
62D
100
AcDbEntity
  8
LC-001-100-D00-0
  6
ByBlock
 62
     7
370
    50
100
AcDbLine
 10
298.384754
 20
451.95364
 30
0.0
 11
298.384754
 21
451.95364
 31
0.0
  0
LINE
  5
637
330
62D
100
AcDbEntity
  8
LC-001-100-D00-0
  6
ByBlock
 62
     7
370
    50
100
AcDbLine
 10
298.384754
 20
451.95364
 30
0.0
 11
298.510592
 21
452.118537
 31
0.0
  0
LINE
  5
638
330
62D
100
AcDbEntity
  8
LC-001-100-D00-0
  6
ByBlock
 62
     7
370
    50
100
AcDbLine
 10
298.510592
 20
452.118537
 30
0.0
 11
298.510592
 21
452.118537
 31
0.0
  0
LINE
  5
639
330
62D
100
AcDbEntity
  8
LC-001-100-D00-0
  6
ByBlock
 62
     7
370
    50
100
AcDbLine
 10
298.510592
 20
452.118537
 30
0.0
 11
298.602625
 21
452.351042
 31
0.0
  0
LINE
  5
63A
330
62D
100
AcDbEntity
  8
LC-001-100-D00-0
  6
ByBlock
 62
     7
370
    50
100
AcDbLine
 10
298.602625
 20
452.351042
 30
0.0
 11
298.602625
 21
452.351042
 31
0.0
  0
LINE
  5
63B
330
62D
100
AcDbEntity
  8
LC-001-100-D00-0
  6
ByBlock
 62
     7
370
    50
100
AcDbLine
 10
298.602625
 20
452.351042
 30
0.0
 11
298.632959
 21
452.552926
 31
0.0
  0
LINE
  5
63C
330
62D
100
AcDbEntity
  8
LC-001-100-D00-0
  6
ByBlock
 62
     7
370
    50
100
AcDbLine
 10
298.632959
 20
452.552926
 30
0.0
 11
298.632959
 21
452.552926
 31
0.0
  0
LINE
  5
63D
330
62D
100
AcDbEntity
  8
LC-001-100-D00-0
  6
ByBlock
 62
     7
370
    50
100
AcDbLine
 10
298.632959
 20
452.552926
 30
0.0
 11
298.64815
 21
452.65402
 31
0.0
  0
ENDBLK
  5
62F
330
62D
100
AcDbEntity
  8
0
100
AcDbBlockEnd
  0
BLOCK
  5
643
330
642
100
AcDbEntity
  8
0
100
AcDbBlockBegin
  2
POLY28
 70
     0
 71
     0
 10
0.0
 20
0.0
 30
0.0
  3
POLY28
  1

  4
POLY28
  0
LINE
  5
645
330
642
100
AcDbEntity
  8
LC-001-100-D00-0
  6
ByBlock
 62
     7
370
    50
100
AcDbLine
 10
301.765428
 20
451.912838
 30
0.0
 11
301.765428
 21
451.912838
 31
0.0
  0
LINE
  5
646
330
642
100
AcDbEntity
  8
LC-001-100-D00-0
  6
ByBlock
 62
     7
370
    50
100
AcDbLine
 10
301.765428
 20
451.912838
 30
0.0
 11
301.765301
 21
451.912838
 31
0.0
  0
LINE
  5
647
330
642
100
AcDbEntity
  8
LC-001-100-D00-0
  6
ByBlock
 62
     7
370
    50
100
AcDbLine
 10
301.765301
 20
451.912838
 30
0.0
 11
301.765301
 21
451.912838
 31
0.0
  0
LINE
  5
648
330
642
100
AcDbEntity
  8
LC-001-100-D00-0
  6
ByBlock
 62
     7
370
    50
100
AcDbLine
 10
301.765301
 20
451.912838
 30
0.0
 11
301.764981
 21
451.912838
 31
0.0
  0
LINE
  5
649
330
642
100
AcDbEntity
  8
LC-001-100-D00-0
  6
ByBlock
 62
     7
370
    50
100
AcDbLine
 10
301.764981
 20
451.912838
 30
0.0
 11
301.764981
 21
451.912838
 31
0.0
  0
LINE
  5
64A
330
642
100
AcDbEntity
  8
LC-001-100-D00-0
  6
ByBlock
 62
     7
370
    50
100
AcDbLine
 10
301.764981
 20
451.912838
 30
0.0
 11
301.508678
 21
451.912838
 31
0.0
  0
LINE
  5
64B
330
642
100
AcDbEntity
  8
LC-001-100-D00-0
  6
ByBlock
 62
     7
370
    50
100
AcDbLine
 10
301.508678
 20
451.912838
 30
0.0
 11
301.508678
 21
451.912838
 31
0.0
  0
LINE
  5
64C
330
642
100
AcDbEntity
  8
LC-001-100-D00-0
  6
ByBlock
 62
     7
370
    50
100
AcDbLine
 10
301.508678
 20
451.912838
 30
0.0
 11
301.354126
 21
451.912838
 31
0.0
  0
ENDBLK
  5
644
330
642
100
AcDbEntity
  8
0
100
AcDbBlockEnd
  0
BLOCK
  5
65B
330
650
100
AcDbEntity
  8
0
100
AcDbBlockBegin
  2
*D58
 70
     1
 71
     0
 10
0.0
 20
0.0
 30
0.0
  3
*D58
  1

  0
LINE
  5
651
330
650
100
AcDbEntity
  8
LC-002-003-----0
 62
     2
370
    -2
100
AcDbLine
 10
282.860421
 20
469.912173
 30
0.0
 11
266.55735
 21
469.912173
 31
0.0
  0
LINE
  5
652
330
650
100
AcDbEntity
  8
LC-002-003-----0
 62
     2
370
    -2
100
AcDbLine
 10
291.816623
 20
451.912838
 30
0.0
 11
266.55735
 21
451.912838
 31
0.0
  0
LINE
  5
653
330
650
100
AcDbEntity
  8
LC-002-003-----0
 62
     2
370
    -2
100
AcDbLine
 10
270.15735
 20
423.912838
 30
0.0
 11
270.15735
 21
395.912838
 31
0.0
  0
LINE
  5
654
330
650
100
AcDbEntity
  8
LC-002-003-----0
 62
     2
370
    -2
100
AcDbLine
 10
270.15735
 20
497.912173
 30
0.0
 11
270.15735
 21
497.4969
 31
0.0
  0
SOLID
  5
655
330
650
100
AcDbEntity
  8
LC-002-003-----0
 62
     2
100
AcDbTrace
 10
265.490684
 20
497.912173
 30
0.0
 11
274.824017
 21
497.912173
 31
0.0
 12
270.15735
 22
469.912173
 32
0.0
 13
270.15735
 23
469.912173
 33
0.0
  0
SOLID
  5
656
330
650
100
AcDbEntity
  8
LC-002-003-----0
 62
     2
100
AcDbTrace
 10
274.824017
 20
423.912838
 30
0.0
 11
265.490684
 21
423.912838
 31
0.0
 12
270.15735
 22
451.912838
 32
0.0
 13
270.15735
 23
451.912838
 33
0.0
  0
MTEXT
  5
657
330
650
100
AcDbEntity
  8
LC-002-003-----0
 62
     2
100
AcDbMText
 10
239.35735
 20
477.948177
 30
0.0
 40
28.0
 41
0.0
 71
     5
 72
     1
  1
\A1;18
  7
LCTX15-400-0-0pDIN-Schrift
 11
6.123031769111886E-17
 21
1.0
 31
0.0
 73
     1
 44
1.0
  0
POINT
  5
658
330
650
100
AcDbEntity
  8
Defpoints
 62
     0
100
AcDbPoint
 10
282.860421
 20
469.912173
 30
0.0
  0
POINT
  5
659
330
650
100
AcDbEntity
  8
Defpoints
 62
     0
100
AcDbPoint
 10
291.816623
 20
451.912838
 30
0.0
  0
POINT
  5
65A
330
650
100
AcDbEntity
  8
Defpoints
 62
     0
100
AcDbPoint
 10
270.15735
 20
451.912838
 30
0.0
  0
ENDBLK
  5
65C
330
650
100
AcDbEntity
  8
0
100
AcDbBlockEnd
  0
BLOCK
  5
65E
330
65D
100
AcDbEntity
  8
0
100
AcDbBlockBegin
  2
POLY29
 70
     0
 71
     0
 10
0.0
 20
0.0
 30
0.0
  3
POLY29
  1

  4
POLY29
  0
LINE
  5
660
330
65D
100
AcDbEntity
  8
LC-001-100-D00-0
  6
ByBlock
 62
     7
370
    50
100
AcDbLine
 10
524.002208
 20
452.748458
 30
0.0
 11
524.002208
 21
452.748458
 31
0.0
  0
LINE
  5
661
330
65D
100
AcDbEntity
  8
LC-001-100-D00-0
  6
ByBlock
 62
     7
370
    50
100
AcDbLine
 10
524.002208
 20
452.748458
 30
0.0
 11
523.971136
 21
452.934881
 31
0.0
  0
LINE
  5
662
330
65D
100
AcDbEntity
  8
LC-001-100-D00-0
  6
ByBlock
 62
     7
370
    50
100
AcDbLine
 10
523.971136
 20
452.934881
 30
0.0
 11
523.971136
 21
452.934881
 31
0.0
  0
LINE
  5
663
330
65D
100
AcDbEntity
  8
LC-001-100-D00-0
  6
ByBlock
 62
     7
370
    50
100
AcDbLine
 10
523.971136
 20
452.934881
 30
0.0
 11
523.628667
 21
454.989574
 31
0.0
  0
LINE
  5
664
330
65D
100
AcDbEntity
  8
LC-001-100-D00-0
  6
ByBlock
 62
     7
370
    50
100
AcDbLine
 10
523.628667
 20
454.989574
 30
0.0
 11
523.628667
 21
454.989574
 31
0.0
  0
LINE
  5
665
330
65D
100
AcDbEntity
  8
LC-001-100-D00-0
  6
ByBlock
 62
     7
370
    50
100
AcDbLine
 10
523.628667
 20
454.989574
 30
0.0
 11
522.000508
 21
461.043761
 31
0.0
  0
LINE
  5
666
330
65D
100
AcDbEntity
  8
LC-001-100-D00-0
  6
ByBlock
 62
     7
370
    50
100
AcDbLine
 10
522.000508
 20
461.043761
 30
0.0
 11
522.000508
 21
461.043761
 31
0.0
  0
LINE
  5
667
330
65D
100
AcDbEntity
  8
LC-001-100-D00-0
  6
ByBlock
 62
     7
370
    50
100
AcDbLine
 10
522.000508
 20
461.043761
 30
0.0
 11
521.689414
 21
462.912174
 31
0.0
  0
ENDBLK
  5
65F
330
65D
100
AcDbEntity
  8
0
100
AcDbBlockEnd
  0
BLOCK
  5
66F
330
66E
100
AcDbEntity
  8
0
100
AcDbBlockBegin
  2
POLY30
 70
     0
 71
     0
 10
0.0
 20
0.0
 30
0.0
  3
POLY30
  1

  4
POLY30
  0
LINE
  5
671
330
66E
100
AcDbEntity
  8
LC-001-100-D00-0
  6
ByBlock
 62
     7
370
    50
100
AcDbLine
 10
524.988591
 20
451.912838
 30
0.0
 11
524.988591
 21
451.912838
 31
0.0
  0
LINE
  5
672
330
66E
100
AcDbEntity
  8
LC-001-100-D00-0
  6
ByBlock
 62
     7
370
    50
100
AcDbLine
 10
524.988591
 20
451.912838
 30
0.0
 11
525.067939
 21
451.912838
 31
0.0
  0
LINE
  5
673
330
66E
100
AcDbEntity
  8
LC-001-100-D00-0
  6
ByBlock
 62
     7
370
    50
100
AcDbLine
 10
525.067939
 20
451.912838
 30
0.0
 11
525.067939
 21
451.912838
 31
0.0
  0
LINE
  5
674
330
66E
100
AcDbEntity
  8
LC-001-100-D00-0
  6
ByBlock
 62
     7
370
    50
100
AcDbLine
 10
525.067939
 20
451.912838
 30
0.0
 11
525.392075
 21
451.912838
 31
0.0
  0
LINE
  5
675
330
66E
100
AcDbEntity
  8
LC-001-100-D00-0
  6
ByBlock
 62
     7
370
    50
100
AcDbLine
 10
525.392075
 20
451.912838
 30
0.0
 11
525.392075
 21
451.912838
 31
0.0
  0
LINE
  5
676
330
66E
100
AcDbEntity
  8
LC-001-100-D00-0
  6
ByBlock
 62
     7
370
    50
100
AcDbLine
 10
525.392075
 20
451.912838
 30
0.0
 11
526.135659
 21
451.912838
 31
0.0
  0
LINE
  5
677
330
66E
100
AcDbEntity
  8
LC-001-100-D00-0
  6
ByBlock
 62
     7
370
    50
100
AcDbLine
 10
526.135659
 20
451.912838
 30
0.0
 11
526.135659
 21
451.912838
 31
0.0
  0
LINE
  5
678
330
66E
100
AcDbEntity
  8
LC-001-100-D00-0
  6
ByBlock
 62
     7
370
    50
100
AcDbLine
 10
526.135659
 20
451.912838
 30
0.0
 11
526.920253
 21
451.912838
 31
0.0
  0
LINE
  5
679
330
66E
100
AcDbEntity
  8
LC-001-100-D00-0
  6
ByBlock
 62
     7
370
    50
100
AcDbLine
 10
526.920253
 20
451.912838
 30
0.0
 11
526.920253
 21
451.912838
 31
0.0
  0
LINE
  5
67A
330
66E
100
AcDbEntity
  8
LC-001-100-D00-0
  6
ByBlock
 62
     7
370
    50
100
AcDbLine
 10
526.920253
 20
451.912838
 30
0.0
 11
527.367017
 21
451.912838
 31
0.0
  0
ENDBLK
  5
670
330
66E
100
AcDbEntity
  8
0
100
AcDbBlockEnd
  0
BLOCK
  5
680
330
67F
100
AcDbEntity
  8
0
100
AcDbBlockBegin
  2
POLY31
 70
     0
 71
     0
 10
0.0
 20
0.0
 30
0.0
  3
POLY31
  1

  4
POLY31
  0
LINE
  5
682
330
67F
100
AcDbEntity
  8
LC-001-100-D00-0
  6
ByBlock
 62
     7
370
    50
100
AcDbLine
 10
529.294229
 20
451.912838
 30
0.0
 11
529.294229
 21
451.912838
 31
0.0
  0
LINE
  5
683
330
67F
100
AcDbEntity
  8
LC-001-100-D00-0
  6
ByBlock
 62
     7
370
    50
100
AcDbLine
 10
529.294229
 20
451.912838
 30
0.0
 11
529.294996
 21
451.912842
 31
0.0
  0
LINE
  5
684
330
67F
100
AcDbEntity
  8
LC-001-100-D00-0
  6
ByBlock
 62
     7
370
    50
100
AcDbLine
 10
529.294996
 20
451.912842
 30
0.0
 11
529.294996
 21
451.912842
 31
0.0
  0
LINE
  5
685
330
67F
100
AcDbEntity
  8
LC-001-100-D00-0
  6
ByBlock
 62
     7
370
    50
100
AcDbLine
 10
529.294996
 20
451.912842
 30
0.0
 11
529.344144
 21
451.913086
 31
0.0
  0
LINE
  5
686
330
67F
100
AcDbEntity
  8
LC-001-100-D00-0
  6
ByBlock
 62
     7
370
    50
100
AcDbLine
 10
529.344144
 20
451.913086
 30
0.0
 11
529.344144
 21
451.913086
 31
0.0
  0
LINE
  5
687
330
67F
100
AcDbEntity
  8
LC-001-100-D00-0
  6
ByBlock
 62
     7
370
    50
100
AcDbLine
 10
529.344144
 20
451.913086
 30
0.0
 11
529.438725
 21
451.953637
 31
0.0
  0
LINE
  5
688
330
67F
100
AcDbEntity
  8
LC-001-100-D00-0
  6
ByBlock
 62
     7
370
    50
100
AcDbLine
 10
529.438725
 20
451.953637
 30
0.0
 11
529.438725
 21
451.953637
 31
0.0
  0
LINE
  5
689
330
67F
100
AcDbEntity
  8
LC-001-100-D00-0
  6
ByBlock
 62
     7
370
    50
100
AcDbLine
 10
529.438725
 20
451.953637
 30
0.0
 11
529.565492
 21
452.118541
 31
0.0
  0
LINE
  5
68A
330
67F
100
AcDbEntity
  8
LC-001-100-D00-0
  6
ByBlock
 62
     7
370
    50
100
AcDbLine
 10
529.565492
 20
452.118541
 30
0.0
 11
529.565492
 21
452.118541
 31
0.0
  0
LINE
  5
68B
330
67F
100
AcDbEntity
  8
LC-001-100-D00-0
  6
ByBlock
 62
     7
370
    50
100
AcDbLine
 10
529.565492
 20
452.118541
 30
0.0
 11
529.666368
 21
452.35104
 31
0.0
  0
LINE
  5
68C
330
67F
100
AcDbEntity
  8
LC-001-100-D00-0
  6
ByBlock
 62
     7
370
    50
100
AcDbLine
 10
529.666368
 20
452.35104
 30
0.0
 11
529.666368
 21
452.35104
 31
0.0
  0
LINE
  5
68D
330
67F
100
AcDbEntity
  8
LC-001-100-D00-0
  6
ByBlock
 62
     7
370
    50
100
AcDbLine
 10
529.666368
 20
452.35104
 30
0.0
 11
529.701499
 21
452.552925
 31
0.0
  0
LINE
  5
68E
330
67F
100
AcDbEntity
  8
LC-001-100-D00-0
  6
ByBlock
 62
     7
370
    50
100
AcDbLine
 10
529.701499
 20
452.552925
 30
0.0
 11
529.701499
 21
452.552925
 31
0.0
  0
LINE
  5
68F
330
67F
100
AcDbEntity
  8
LC-001-100-D00-0
  6
ByBlock
 62
     7
370
    50
100
AcDbLine
 10
529.701499
 20
452.552925
 30
0.0
 11
529.719091
 21
452.65402
 31
0.0
  0
ENDBLK
  5
681
330
67F
100
AcDbEntity
  8
0
100
AcDbBlockEnd
  0
BLOCK
  5
699
330
698
100
AcDbEntity
  8
0
100
AcDbBlockBegin
  2
POLY32
 70
     0
 71
     0
 10
0.0
 20
0.0
 30
0.0
  3
POLY32
  1

  4
POLY32
  0
LINE
  5
69B
330
698
100
AcDbEntity
  8
LC-001-100-D00-0
  6
ByBlock
 62
     7
370
    50
100
AcDbLine
 10
582.50214
 20
451.912838
 30
0.0
 11
582.50214
 21
451.912838
 31
0.0
  0
LINE
  5
69C
330
698
100
AcDbEntity
  8
LC-001-100-D00-0
  6
ByBlock
 62
     7
370
    50
100
AcDbLine
 10
582.50214
 20
451.912838
 30
0.0
 11
582.501206
 21
451.912842
 31
0.0
  0
LINE
  5
69D
330
698
100
AcDbEntity
  8
LC-001-100-D00-0
  6
ByBlock
 62
     7
370
    50
100
AcDbLine
 10
582.501206
 20
451.912842
 30
0.0
 11
582.501206
 21
451.912842
 31
0.0
  0
LINE
  5
69E
330
698
100
AcDbEntity
  8
LC-001-100-D00-0
  6
ByBlock
 62
     7
370
    50
100
AcDbLine
 10
582.501206
 20
451.912842
 30
0.0
 11
582.44144
 21
451.913085
 31
0.0
  0
LINE
  5
69F
330
698
100
AcDbEntity
  8
LC-001-100-D00-0
  6
ByBlock
 62
     7
370
    50
100
AcDbLine
 10
582.44144
 20
451.913085
 30
0.0
 11
582.44144
 21
451.913085
 31
0.0
  0
LINE
  5
6A0
330
698
100
AcDbEntity
  8
LC-001-100-D00-0
  6
ByBlock
 62
     7
370
    50
100
AcDbLine
 10
582.44144
 20
451.913085
 30
0.0
 11
582.336084
 21
451.95364
 31
0.0
  0
LINE
  5
6A1
330
698
100
AcDbEntity
  8
LC-001-100-D00-0
  6
ByBlock
 62
     7
370
    50
100
AcDbLine
 10
582.336084
 20
451.95364
 30
0.0
 11
582.336084
 21
451.95364
 31
0.0
  0
LINE
  5
6A2
330
698
100
AcDbEntity
  8
LC-001-100-D00-0
  6
ByBlock
 62
     7
370
    50
100
AcDbLine
 10
582.336084
 20
451.95364
 30
0.0
 11
582.210247
 21
452.118537
 31
0.0
  0
LINE
  5
6A3
330
698
100
AcDbEntity
  8
LC-001-100-D00-0
  6
ByBlock
 62
     7
370
    50
100
AcDbLine
 10
582.210247
 20
452.118537
 30
0.0
 11
582.210247
 21
452.118537
 31
0.0
  0
LINE
  5
6A4
330
698
100
AcDbEntity
  8
LC-001-100-D00-0
  6
ByBlock
 62
     7
370
    50
100
AcDbLine
 10
582.210247
 20
452.118537
 30
0.0
 11
582.118214
 21
452.351042
 31
0.0
  0
LINE
  5
6A5
330
698
100
AcDbEntity
  8
LC-001-100-D00-0
  6
ByBlock
 62
     7
370
    50
100
AcDbLine
 10
582.118214
 20
452.351042
 30
0.0
 11
582.118214
 21
452.351042
 31
0.0
  0
LINE
  5
6A6
330
698
100
AcDbEntity
  8
LC-001-100-D00-0
  6
ByBlock
 62
     7
370
    50
100
AcDbLine
 10
582.118214
 20
452.351042
 30
0.0
 11
582.087879
 21
452.552926
 31
0.0
  0
LINE
  5
6A7
330
698
100
AcDbEntity
  8
LC-001-100-D00-0
  6
ByBlock
 62
     7
370
    50
100
AcDbLine
 10
582.087879
 20
452.552926
 30
0.0
 11
582.087879
 21
452.552926
 31
0.0
  0
LINE
  5
6A8
330
698
100
AcDbEntity
  8
LC-001-100-D00-0
  6
ByBlock
 62
     7
370
    50
100
AcDbLine
 10
582.087879
 20
452.552926
 30
0.0
 11
582.072689
 21
452.65402
 31
0.0
  0
ENDBLK
  5
69A
330
698
100
AcDbEntity
  8
0
100
AcDbBlockEnd
  0
BLOCK
  5
6AE
330
6AD
100
AcDbEntity
  8
0
100
AcDbBlockBegin
  2
POLY33
 70
     0
 71
     0
 10
0.0
 20
0.0
 30
0.0
  3
POLY33
  1

  4
POLY33
  0
LINE
  5
6B0
330
6AD
100
AcDbEntity
  8
LC-001-100-D00-0
  6
ByBlock
 62
     7
370
    50
100
AcDbLine
 10
578.955411
 20
451.912838
 30
0.0
 11
578.955411
 21
451.912838
 31
0.0
  0
LINE
  5
6B1
330
6AD
100
AcDbEntity
  8
LC-001-100-D00-0
  6
ByBlock
 62
     7
370
    50
100
AcDbLine
 10
578.955411
 20
451.912838
 30
0.0
 11
578.955538
 21
451.912838
 31
0.0
  0
LINE
  5
6B2
330
6AD
100
AcDbEntity
  8
LC-001-100-D00-0
  6
ByBlock
 62
     7
370
    50
100
AcDbLine
 10
578.955538
 20
451.912838
 30
0.0
 11
578.955538
 21
451.912838
 31
0.0
  0
LINE
  5
6B3
330
6AD
100
AcDbEntity
  8
LC-001-100-D00-0
  6
ByBlock
 62
     7
370
    50
100
AcDbLine
 10
578.955538
 20
451.912838
 30
0.0
 11
578.955858
 21
451.912838
 31
0.0
  0
LINE
  5
6B4
330
6AD
100
AcDbEntity
  8
LC-001-100-D00-0
  6
ByBlock
 62
     7
370
    50
100
AcDbLine
 10
578.955858
 20
451.912838
 30
0.0
 11
578.955858
 21
451.912838
 31
0.0
  0
LINE
  5
6B5
330
6AD
100
AcDbEntity
  8
LC-001-100-D00-0
  6
ByBlock
 62
     7
370
    50
100
AcDbLine
 10
578.955858
 20
451.912838
 30
0.0
 11
579.21216
 21
451.912838
 31
0.0
  0
LINE
  5
6B6
330
6AD
100
AcDbEntity
  8
LC-001-100-D00-0
  6
ByBlock
 62
     7
370
    50
100
AcDbLine
 10
579.21216
 20
451.912838
 30
0.0
 11
579.21216
 21
451.912838
 31
0.0
  0
LINE
  5
6B7
330
6AD
100
AcDbEntity
  8
LC-001-100-D00-0
  6
ByBlock
 62
     7
370
    50
100
AcDbLine
 10
579.21216
 20
451.912838
 30
0.0
 11
579.366713
 21
451.912838
 31
0.0
  0
ENDBLK
  5
6AF
330
6AD
100
AcDbEntity
  8
0
100
AcDbBlockEnd
  0
BLOCK
  5
6BA
330
6B9
100
AcDbEntity
  8
0
100
AcDbBlockBegin
  2
POLY34
 70
     0
 71
     0
 10
0.0
 20
0.0
 30
0.0
  3
POLY34
  1

  4
POLY34
  0
LINE
  5
6BC
330
6B9
100
AcDbEntity
  8
LC-001-100-D00-0
  6
ByBlock
 62
     7
370
    50
100
AcDbLine
 10
356.71863
 20
452.748458
 30
0.0
 11
356.71863
 21
452.748458
 31
0.0
  0
LINE
  5
6BD
330
6B9
100
AcDbEntity
  8
LC-001-100-D00-0
  6
ByBlock
 62
     7
370
    50
100
AcDbLine
 10
356.71863
 20
452.748458
 30
0.0
 11
356.749703
 21
452.934881
 31
0.0
  0
LINE
  5
6BE
330
6B9
100
AcDbEntity
  8
LC-001-100-D00-0
  6
ByBlock
 62
     7
370
    50
100
AcDbLine
 10
356.749703
 20
452.934881
 30
0.0
 11
356.749703
 21
452.934881
 31
0.0
  0
LINE
  5
6BF
330
6B9
100
AcDbEntity
  8
LC-001-100-D00-0
  6
ByBlock
 62
     7
370
    50
100
AcDbLine
 10
356.749703
 20
452.934881
 30
0.0
 11
357.092172
 21
454.989574
 31
0.0
  0
LINE
  5
6C0
330
6B9
100
AcDbEntity
  8
LC-001-100-D00-0
  6
ByBlock
 62
     7
370
    50
100
AcDbLine
 10
357.092172
 20
454.989574
 30
0.0
 11
357.092172
 21
454.989574
 31
0.0
  0
LINE
  5
6C1
330
6B9
100
AcDbEntity
  8
LC-001-100-D00-0
  6
ByBlock
 62
     7
370
    50
100
AcDbLine
 10
357.092172
 20
454.989574
 30
0.0
 11
358.72033
 21
461.043761
 31
0.0
  0
LINE
  5
6C2
330
6B9
100
AcDbEntity
  8
LC-001-100-D00-0
  6
ByBlock
 62
     7
370
    50
100
AcDbLine
 10
358.72033
 20
461.043761
 30
0.0
 11
358.72033
 21
461.043761
 31
0.0
  0
LINE
  5
6C3
330
6B9
100
AcDbEntity
  8
LC-001-100-D00-0
  6
ByBlock
 62
     7
370
    50
100
AcDbLine
 10
358.72033
 20
461.043761
 30
0.0
 11
359.031425
 21
462.912174
 31
0.0
  0
ENDBLK
  5
6BB
330
6B9
100
AcDbEntity
  8
0
100
AcDbBlockEnd
  0
BLOCK
  5
6CB
330
6CA
100
AcDbEntity
  8
0
100
AcDbBlockBegin
  2
POLY35
 70
     0
 71
     0
 10
0.0
 20
0.0
 30
0.0
  3
POLY35
  1

  4
POLY35
  0
LINE
  5
6CD
330
6CA
100
AcDbEntity
  8
LC-001-100-D00-0
  6
ByBlock
 62
     7
370
    50
100
AcDbLine
 10
355.732248
 20
451.912838
 30
0.0
 11
355.732248
 21
451.912838
 31
0.0
  0
LINE
  5
6CE
330
6CA
100
AcDbEntity
  8
LC-001-100-D00-0
  6
ByBlock
 62
     7
370
    50
100
AcDbLine
 10
355.732248
 20
451.912838
 30
0.0
 11
355.6529
 21
451.912838
 31
0.0
  0
LINE
  5
6CF
330
6CA
100
AcDbEntity
  8
LC-001-100-D00-0
  6
ByBlock
 62
     7
370
    50
100
AcDbLine
 10
355.6529
 20
451.912838
 30
0.0
 11
355.6529
 21
451.912838
 31
0.0
  0
LINE
  5
6D0
330
6CA
100
AcDbEntity
  8
LC-001-100-D00-0
  6
ByBlock
 62
     7
370
    50
100
AcDbLine
 10
355.6529
 20
451.912838
 30
0.0
 11
355.328763
 21
451.912838
 31
0.0
  0
LINE
  5
6D1
330
6CA
100
AcDbEntity
  8
LC-001-100-D00-0
  6
ByBlock
 62
     7
370
    50
100
AcDbLine
 10
355.328763
 20
451.912838
 30
0.0
 11
355.328763
 21
451.912838
 31
0.0
  0
LINE
  5
6D2
330
6CA
100
AcDbEntity
  8
LC-001-100-D00-0
  6
ByBlock
 62
     7
370
    50
100
AcDbLine
 10
355.328763
 20
451.912838
 30
0.0
 11
354.585179
 21
451.912838
 31
0.0
  0
LINE
  5
6D3
330
6CA
100
AcDbEntity
  8
LC-001-100-D00-0
  6
ByBlock
 62
     7
370
    50
100
AcDbLine
 10
354.585179
 20
451.912838
 30
0.0
 11
354.585179
 21
451.912838
 31
0.0
  0
LINE
  5
6D4
330
6CA
100
AcDbEntity
  8
LC-001-100-D00-0
  6
ByBlock
 62
     7
370
    50
100
AcDbLine
 10
354.585179
 20
451.912838
 30
0.0
 11
353.800586
 21
451.912838
 31
0.0
  0
LINE
  5
6D5
330
6CA
100
AcDbEntity
  8
LC-001-100-D00-0
  6
ByBlock
 62
     7
370
    50
100
AcDbLine
 10
353.800586
 20
451.912838
 30
0.0
 11
353.800586
 21
451.912838
 31
0.0
  0
LINE
  5
6D6
330
6CA
100
AcDbEntity
  8
LC-001-100-D00-0
  6
ByBlock
 62
     7
370
    50
100
AcDbLine
 10
353.800586
 20
451.912838
 30
0.0
 11
353.353822
 21
451.912838
 31
0.0
  0
ENDBLK
  5
6CC
330
6CA
100
AcDbEntity
  8
0
100
AcDbBlockEnd
  0
BLOCK
  5
6DC
330
6DB
100
AcDbEntity
  8
0
100
AcDbBlockBegin
  2
POLY36
 70
     0
 71
     0
 10
0.0
 20
0.0
 30
0.0
  3
POLY36
  1

  4
POLY36
  0
LINE
  5
6DE
330
6DB
100
AcDbEntity
  8
LC-001-100-D00-0
  6
ByBlock
 62
     7
370
    50
100
AcDbLine
 10
351.42661
 20
451.912838
 30
0.0
 11
351.42661
 21
451.912838
 31
0.0
  0
LINE
  5
6DF
330
6DB
100
AcDbEntity
  8
LC-001-100-D00-0
  6
ByBlock
 62
     7
370
    50
100
AcDbLine
 10
351.42661
 20
451.912838
 30
0.0
 11
351.425843
 21
451.912842
 31
0.0
  0
LINE
  5
6E0
330
6DB
100
AcDbEntity
  8
LC-001-100-D00-0
  6
ByBlock
 62
     7
370
    50
100
AcDbLine
 10
351.425843
 20
451.912842
 30
0.0
 11
351.425843
 21
451.912842
 31
0.0
  0
LINE
  5
6E1
330
6DB
100
AcDbEntity
  8
LC-001-100-D00-0
  6
ByBlock
 62
     7
370
    50
100
AcDbLine
 10
351.425843
 20
451.912842
 30
0.0
 11
351.376694
 21
451.913086
 31
0.0
  0
LINE
  5
6E2
330
6DB
100
AcDbEntity
  8
LC-001-100-D00-0
  6
ByBlock
 62
     7
370
    50
100
AcDbLine
 10
351.376694
 20
451.913086
 30
0.0
 11
351.376694
 21
451.913086
 31
0.0
  0
LINE
  5
6E3
330
6DB
100
AcDbEntity
  8
LC-001-100-D00-0
  6
ByBlock
 62
     7
370
    50
100
AcDbLine
 10
351.376694
 20
451.913086
 30
0.0
 11
351.282113
 21
451.953637
 31
0.0
  0
LINE
  5
6E4
330
6DB
100
AcDbEntity
  8
LC-001-100-D00-0
  6
ByBlock
 62
     7
370
    50
100
AcDbLine
 10
351.282113
 20
451.953637
 30
0.0
 11
351.282113
 21
451.953637
 31
0.0
  0
LINE
  5
6E5
330
6DB
100
AcDbEntity
  8
LC-001-100-D00-0
  6
ByBlock
 62
     7
370
    50
100
AcDbLine
 10
351.282113
 20
451.953637
 30
0.0
 11
351.155346
 21
452.118541
 31
0.0
  0
LINE
  5
6E6
330
6DB
100
AcDbEntity
  8
LC-001-100-D00-0
  6
ByBlock
 62
     7
370
    50
100
AcDbLine
 10
351.155346
 20
452.118541
 30
0.0
 11
351.155346
 21
452.118541
 31
0.0
  0
LINE
  5
6E7
330
6DB
100
AcDbEntity
  8
LC-001-100-D00-0
  6
ByBlock
 62
     7
370
    50
100
AcDbLine
 10
351.155346
 20
452.118541
 30
0.0
 11
351.054471
 21
452.35104
 31
0.0
  0
LINE
  5
6E8
330
6DB
100
AcDbEntity
  8
LC-001-100-D00-0
  6
ByBlock
 62
     7
370
    50
100
AcDbLine
 10
351.054471
 20
452.35104
 30
0.0
 11
351.054471
 21
452.35104
 31
0.0
  0
LINE
  5
6E9
330
6DB
100
AcDbEntity
  8
LC-001-100-D00-0
  6
ByBlock
 62
     7
370
    50
100
AcDbLine
 10
351.054471
 20
452.35104
 30
0.0
 11
351.01934
 21
452.552925
 31
0.0
  0
LINE
  5
6EA
330
6DB
100
AcDbEntity
  8
LC-001-100-D00-0
  6
ByBlock
 62
     7
370
    50
100
AcDbLine
 10
351.01934
 20
452.552925
 30
0.0
 11
351.01934
 21
452.552925
 31
0.0
  0
LINE
  5
6EB
330
6DB
100
AcDbEntity
  8
LC-001-100-D00-0
  6
ByBlock
 62
     7
370
    50
100
AcDbLine
 10
351.01934
 20
452.552925
 30
0.0
 11
351.001748
 21
452.65402
 31
0.0
  0
ENDBLK
  5
6DD
330
6DB
100
AcDbEntity
  8
0
100
AcDbBlockEnd
  0
ENDSEC
  0
SECTION
  2
ENTITIES
  0
LINE
  5
32
330
1F
100
AcDbEntity
  8
LC-001-100-D00-0
 62
     7
370
    25
100
AcDbLine
 10
440.982955
 20
502.412174
 30
0.0
 11
440.982955
 21
319.212172
 31
0.0
  0
ARC
  5
33
330
1F
100
AcDbEntity
  8
LC-001-100-D00-0
  6
ByBlock
 62
     7
370
    50
100
AcDbCircle
 10
440.982955
 20
27.324
 30
0.0
 40
89.0
100
AcDbArc
 50
0.0
 51
180.0
  0
ARC
  5
34
330
1F
100
AcDbEntity
  8
LC-001-100-D00-0
  6
ByBlock
 62
     7
370
    50
100
AcDbCircle
 10
440.982955
 20
27.324
 30
0.0
 40
91.30999999999995
100
AcDbArc
 50
0.0
 51
180.0
  0
ARC
  5
35
330
1F
100
AcDbEntity
  8
LC-001-100-D00-0
  6
ByBlock
 62
     7
370
    50
100
AcDbCircle
 10
440.982955
 20
27.324
 30
0.0
 40
135.0
100
AcDbArc
 50
0.0
 51
180.0
  0
ARC
  5
36
330
1F
100
AcDbEntity
  8
LC-001-100-D00-0
  6
ByBlock
 62
     7
370
    50
100
AcDbCircle
 10
440.982955
 20
27.324
 30
0.0
 40
152.4999999999998
100
AcDbArc
 50
31.639355
 51
38.360645
  0
ARC
  5
37
330
1F
100
AcDbEntity
  8
LC-001-100-D00-0
  6
ByBlock
 62
     7
370
    50
100
AcDbCircle
 10
440.982955
 20
27.324
 30
0.0
 40
151.4080892972013
100
AcDbArc
 50
31.639355
 51
38.360645
  0
ARC
  5
38
330
1F
100
AcDbEntity
  8
LC-001-100-D00-0
  6
ByBlock
 62
     7
370
    50
100
AcDbCircle
 10
440.982955
 20
27.324
 30
0.0
 40
152.5
100
AcDbArc
 50
76.639355
 51
83.360645
  0
ARC
  5
39
330
1F
100
AcDbEntity
  8
LC-001-100-D00-0
  6
ByBlock
 62
     7
370
    50
100
AcDbCircle
 10
440.982955
 20
27.324
 30
0.0
 40
151.4080892972014
100
AcDbArc
 50
76.639355
 51
83.360645
  0
CIRCLE
  5
3A
330
1F
100
AcDbEntity
  8
LC-001-100-D00-0
  6
ByBlock
 62
     7
370
    50
100
AcDbCircle
 10
338.452472
 20
129.854483
 30
0.0
 40
2.0
  0
CIRCLE
  5
3B
330
1F
100
AcDbEntity
  8
LC-001-100-D00-0
  6
ByBlock
 62
     7
370
    50
100
AcDbCircle
 10
338.452472
 20
129.854483
 30
0.0
 40
4.500000000000114
  0
ARC
  5
3C
330
1F
100
AcDbEntity
  8
LC-001-100-D00-0
  6
ByBlock
 62
     7
370
    50
100
AcDbCircle
 10
327.285566
 20
117.312353
 30
0.0
 40
7.500000000000073
100
AcDbArc
 50
321.639355
 51
141.639355
  0
ARC
  5
3D
330
1F
100
AcDbEntity
  8
LC-001-100-D00-0
  6
ByBlock
 62
     7
370
    50
100
AcDbCircle
 10
327.285566
 20
117.312353
 30
0.0
 40
6.408089297201365
100
AcDbArc
 50
321.639355
 51
141.639355
  0
ARC
  5
3E
330
1F
100
AcDbEntity
  8
LC-001-100-D00-0
  6
ByBlock
 62
     7
370
    50
100
AcDbCircle
 10
474.489508
 20
168.399551
 30
0.0
 40
7.500000000000103
100
AcDbArc
 50
256.639355
 51
76.639355
  0
ARC
  5
3F
330
1F
100
AcDbEntity
  8
LC-001-100-D00-0
  6
ByBlock
 62
     7
370
    50
100
AcDbCircle
 10
474.489508
 20
168.399551
 30
0.0
 40
6.408089297201419
100
AcDbArc
 50
256.639355
 51
76.639355
  0
CIRCLE
  5
40
330
1F
100
AcDbEntity
  8
LC-001-100-D00-0
  6
ByBlock
 62
     7
370
    50
100
AcDbCircle
 10
543.513439
 20
129.854483
 30
0.0
 40
4.5
  0
CIRCLE
  5
41
330
1F
100
AcDbEntity
  8
LC-001-100-D00-0
  6
ByBlock
 62
     7
370
    50
100
AcDbCircle
 10
496.472053
 20
161.286532
 30
0.0
 40
8.000000000000114
  0
CIRCLE
  5
42
330
1F
100
AcDbEntity
  8
LC-001-100-D00-0
  6
ByBlock
 62
     7
370
    50
100
AcDbCircle
 10
385.493858
 20
161.286532
 30
0.0
 40
8.000000000000057
  0
CIRCLE
  5
43
330
1F
100
AcDbEntity
  8
LC-001-100-D00-0
  6
ByBlock
 62
     7
370
    50
100
AcDbCircle
 10
307.020423
 20
82.813098
 30
0.0
 40
8.0
  0
CIRCLE
  5
44
330
1F
100
AcDbEntity
  8
LC-001-100-D00-0
  6
ByBlock
 62
     7
370
    50
100
AcDbCircle
 10
574.945488
 20
82.813098
 30
0.0
 40
8.0
  0
ARC
  5
45
330
1F
100
AcDbEntity
  8
LC-001-100-D00-0
  6
ByBlock
 62
     7
370
    50
100
AcDbCircle
 10
440.982955
 20
27.324
 30
0.0
 40
152.4999999999999
100
AcDbArc
 50
121.639355
 51
128.360645
  0
ARC
  5
46
330
1F
100
AcDbEntity
  8
LC-001-100-D00-0
  6
ByBlock
 62
     7
370
    50
100
AcDbCircle
 10
350.994602
 20
141.021389
 30
0.0
 40
7.500000000000117
100
AcDbArc
 50
128.360645
 51
308.360645
  0
ARC
  5
47
330
1F
100
AcDbEntity
  8
LC-001-100-D00-0
  6
ByBlock
 62
     7
370
    50
100
AcDbCircle
 10
440.982955
 20
27.324
 30
0.0
 40
137.4999999999999
100
AcDbArc
 50
121.639355
 51
128.360645
  0
ARC
  5
48
330
1F
100
AcDbEntity
  8
LC-001-100-D00-0
  6
ByBlock
 62
     7
370
    50
100
AcDbCircle
 10
364.920187
 20
150.772189
 30
0.0
 40
7.499999999999958
100
AcDbArc
 50
301.639355
 51
121.639355
  0
ARC
  5
49
330
1F
100
AcDbEntity
  8
LC-001-100-D00-0
  6
ByBlock
 62
     7
370
    50
100
AcDbCircle
 10
440.982955
 20
27.324
 30
0.0
 40
152.4999999999999
100
AcDbArc
 50
141.639355
 51
148.360645
  0
ARC
  5
4A
330
1F
100
AcDbEntity
  8
LC-001-100-D00-0
  6
ByBlock
 62
     7
370
    50
100
AcDbCircle
 10
317.534767
 20
103.386768
 30
0.0
 40
7.500000000000084
100
AcDbArc
 50
148.360645
 51
328.360645
  0
ARC
  5
4B
330
1F
100
AcDbEntity
  8
LC-001-100-D00-0
  6
ByBlock
 62
     7
370
    50
100
AcDbCircle
 10
440.982955
 20
27.324
 30
0.0
 40
137.4999999999999
100
AcDbArc
 50
141.639355
 51
148.360645
  0
ARC
  5
4C
330
1F
100
AcDbEntity
  8
LC-001-100-D00-0
  6
ByBlock
 62
     7
370
    50
100
AcDbCircle
 10
440.982955
 20
27.324
 30
0.0
 40
152.4999999999999
100
AcDbArc
 50
6.639355
 51
13.360645
  0
ARC
  5
4D
330
1F
100
AcDbEntity
  8
LC-001-100-D00-0
  6
ByBlock
 62
     7
370
    50
100
AcDbCircle
 10
582.058506
 20
60.830552
 30
0.0
 40
7.500000000000103
100
AcDbArc
 50
13.360645
 51
193.360645
  0
ARC
  5
4E
330
1F
100
AcDbEntity
  8
LC-001-100-D00-0
  6
ByBlock
 62
     7
370
    50
100
AcDbCircle
 10
440.982955
 20
27.324
 30
0.0
 40
137.5
100
AcDbArc
 50
6.639355
 51
13.360645
  0
ARC
  5
4F
330
1F
100
AcDbEntity
  8
LC-001-100-D00-0
  6
ByBlock
 62
     7
370
    50
100
AcDbCircle
 10
585.010525
 20
44.08882
 30
0.0
 40
7.500000000000203
100
AcDbArc
 50
186.639355
 51
6.639355
  0
ARC
  5
50
330
1F
100
AcDbEntity
  8
LC-001-100-D00-0
  6
ByBlock
 62
     7
370
    50
100
AcDbCircle
 10
440.982955
 20
27.324
 30
0.0
 40
152.4999999999999
100
AcDbArc
 50
51.639355
 51
58.360645
  0
ARC
  5
51
330
1F
100
AcDbEntity
  8
LC-001-100-D00-0
  6
ByBlock
 62
     7
370
    50
100
AcDbCircle
 10
517.045724
 20
150.772189
 30
0.0
 40
7.500000000000084
100
AcDbArc
 50
58.360645
 51
238.360645
  0
ARC
  5
52
330
1F
100
AcDbEntity
  8
LC-001-100-D00-0
  6
ByBlock
 62
     7
370
    50
100
AcDbCircle
 10
440.982955
 20
27.324
 30
0.0
 40
137.4999999999998
100
AcDbArc
 50
51.639355
 51
58.360645
  0
ARC
  5
53
330
1F
100
AcDbEntity
  8
LC-001-100-D00-0
  6
ByBlock
 62
     7
370
    50
100
AcDbCircle
 10
530.971308
 20
141.021389
 30
0.0
 40
7.500000000000117
100
AcDbArc
 50
231.639355
 51
51.639355
  0
ARC
  5
54
330
1F
100
AcDbEntity
  8
LC-001-100-D00-0
  6
ByBlock
 62
     7
370
    50
100
AcDbCircle
 10
440.982955
 20
27.324
 30
0.0
 40
152.4999999999999
100
AcDbArc
 50
96.639355
 51
103.360645
  0
ARC
  5
55
330
1F
100
AcDbEntity
  8
LC-001-100-D00-0
  6
ByBlock
 62
     7
370
    50
100
AcDbCircle
 10
407.476403
 20
168.399551
 30
0.0
 40
7.49999999999998
100
AcDbArc
 50
103.360645
 51
283.360645
  0
ARC
  5
56
330
1F
100
AcDbEntity
  8
LC-001-100-D00-0
  6
ByBlock
 62
     7
370
    50
100
AcDbCircle
 10
440.982955
 20
27.324
 30
0.0
 40
137.4999999999999
100
AcDbArc
 50
96.639355
 51
103.360645
  0
ARC
  5
57
330
1F
100
AcDbEntity
  8
LC-001-100-D00-0
  6
ByBlock
 62
     7
370
    50
100
AcDbCircle
 10
424.218135
 20
171.35157
 30
0.0
 40
7.500000000000203
100
AcDbArc
 50
276.639355
 51
96.639355
  0
ARC
  5
58
330
1F
100
AcDbEntity
  8
LC-001-100-D00-0
  6
ByBlock
 62
     7
370
    50
100
AcDbCircle
 10
440.982955
 20
27.324
 30
0.0
 40
152.4999999999999
100
AcDbArc
 50
166.639355
 51
173.360645
  0
ARC
  5
59
330
1F
100
AcDbEntity
  8
LC-001-100-D00-0
  6
ByBlock
 62
     7
370
    50
100
AcDbCircle
 10
296.955386
 20
44.08882
 30
0.0
 40
7.500000000000033
100
AcDbArc
 50
173.360645
 51
353.360645
  0
ARC
  5
5A
330
1F
100
AcDbEntity
  8
LC-001-100-D00-0
  6
ByBlock
 62
     7
370
    50
100
AcDbCircle
 10
440.982955
 20
27.324
 30
0.0
 40
137.4999999999998
100
AcDbArc
 50
166.639355
 51
173.360645
  0
ARC
  5
5B
330
1F
100
AcDbEntity
  8
LC-001-100-D00-0
  6
ByBlock
 62
     7
370
    50
100
AcDbCircle
 10
299.907405
 20
60.830552
 30
0.0
 40
7.50000000000009
100
AcDbArc
 50
346.639355
 51
166.639355
  0
ARC
  5
5C
330
1F
100
AcDbEntity
  8
LC-001-100-D00-0
  6
ByBlock
 62
     7
370
    50
100
AcDbCircle
 10
554.680345
 20
117.312353
 30
0.0
 40
7.500000000000117
100
AcDbArc
 50
38.360645
 51
218.360645
  0
ARC
  5
5D
330
1F
100
AcDbEntity
  8
LC-001-100-D00-0
  6
ByBlock
 62
     7
370
    50
100
AcDbCircle
 10
440.982955
 20
27.324
 30
0.0
 40
137.4999999999999
100
AcDbArc
 50
31.639355
 51
38.360645
  0
ARC
  5
5E
330
1F
100
AcDbEntity
  8
LC-001-100-D00-0
  6
ByBlock
 62
     7
370
    50
100
AcDbCircle
 10
564.431144
 20
103.386768
 30
0.0
 40
7.500000000000123
100
AcDbArc
 50
211.639355
 51
31.639355
  0
ARC
  5
5F
330
1F
100
AcDbEntity
  8
LC-001-100-D00-0
  6
ByBlock
 62
     7
370
    50
100
AcDbCircle
 10
457.747776
 20
171.35157
 30
0.0
 40
7.50000000000009
100
AcDbArc
 50
83.360645
 51
263.360645
  0
ARC
  5
60
330
1F
100
AcDbEntity
  8
LC-001-100-D00-0
  6
ByBlock
 62
     7
370
    50
100
AcDbCircle
 10
440.982955
 20
27.324
 30
0.0
 40
137.4999999999998
100
AcDbArc
 50
76.639355
 51
83.360645
  0
ARC
  5
61
330
1F
100
AcDbEntity
  8
LC-001-100-D00-0
  6
ByBlock
 62
     7
370
    50
100
AcDbCircle
 10
440.982955
 20
27.324
 30
0.0
 40
157.5
100
AcDbArc
 50
0.0
 51
180.0
  0
ARC
  5
62
330
1F
100
AcDbEntity
  8
LC-001-100-D00-0
  6
ByBlock
 62
     7
370
    50
100
AcDbCircle
 10
457.747776
 20
171.35157
 30
0.0
 40
6.408089297201368
100
AcDbArc
 50
83.360645
 51
263.360645
  0
ARC
  5
63
330
1F
100
AcDbEntity
  8
LC-001-100-D00-0
  6
ByBlock
 62
     7
370
    50
100
AcDbCircle
 10
350.994602
 20
141.021389
 30
0.0
 40
6.408089297201355
100
AcDbArc
 50
128.360645
 51
308.360645
  0
ARC
  5
64
330
1F
100
AcDbEntity
  8
LC-001-100-D00-0
  6
ByBlock
 62
     7
370
    50
100
AcDbCircle
 10
424.218135
 20
171.35157
 30
0.0
 40
6.408089297201368
100
AcDbArc
 50
276.639355
 51
96.639355
  0
ARC
  5
65
330
1F
100
AcDbEntity
  8
LC-001-100-D00-0
  6
ByBlock
 62
     7
370
    50
100
AcDbCircle
 10
440.982955
 20
27.324
 30
0.0
 40
151.4080892972012
100
AcDbArc
 50
121.639355
 51
128.360645
  0
ARC
  5
66
330
1F
100
AcDbEntity
  8
LC-001-100-D00-0
  6
ByBlock
 62
     7
370
    50
100
AcDbCircle
 10
407.476403
 20
168.399551
 30
0.0
 40
6.408089297201419
100
AcDbArc
 50
103.360645
 51
283.360645
  0
ARC
  5
67
330
1F
100
AcDbEntity
  8
LC-001-100-D00-0
  6
ByBlock
 62
     7
370
    50
100
AcDbCircle
 10
440.982955
 20
27.324
 30
0.0
 40
138.5919107027986
100
AcDbArc
 50
141.639355
 51
148.360645
  0
ARC
  5
68
330
1F
100
AcDbEntity
  8
LC-001-100-D00-0
  6
ByBlock
 62
     7
370
    50
100
AcDbCircle
 10
317.534767
 20
103.386768
 30
0.0
 40
6.40808929720145
100
AcDbArc
 50
148.360645
 51
328.360645
  0
ARC
  5
69
330
1F
100
AcDbEntity
  8
LC-001-100-D00-0
  6
ByBlock
 62
     7
370
    50
100
AcDbCircle
 10
307.020423
 20
82.813098
 30
0.0
 40
7.196152422706641
100
AcDbArc
 50
357.828851
 51
317.171149
  0
ARC
  5
6A
330
1F
100
AcDbEntity
  8
LC-001-100-D00-0
  6
ByBlock
 62
     7
370
    50
100
AcDbCircle
 10
554.680345
 20
117.312353
 30
0.0
 40
6.408089297201391
100
AcDbArc
 50
38.360645
 51
218.360645
  0
ARC
  5
6B
330
1F
100
AcDbEntity
  8
LC-001-100-D00-0
  6
ByBlock
 62
     7
370
    50
100
AcDbCircle
 10
440.982955
 20
27.324
 30
0.0
 40
151.4080892972012
100
AcDbArc
 50
6.639355
 51
13.360645
  0
ARC
  5
6C
330
1F
100
AcDbEntity
  8
LC-001-100-D00-0
  6
ByBlock
 62
     7
370
    50
100
AcDbCircle
 10
530.971308
 20
141.021389
 30
0.0
 40
6.408089297201391
100
AcDbArc
 50
231.639355
 51
51.639355
  0
ARC
  5
6D
330
1F
100
AcDbEntity
  8
LC-001-100-D00-0
  6
ByBlock
 62
     7
370
    50
100
AcDbCircle
 10
440.982955
 20
27.324
 30
0.0
 40
138.5919107027985
100
AcDbArc
 50
51.639355
 51
58.360645
  0
ARC
  5
6E
330
1F
100
AcDbEntity
  8
LC-001-100-D00-0
  6
ByBlock
 62
     7
370
    50
100
AcDbCircle
 10
440.982955
 20
27.324
 30
0.0
 40
138.5919107027985
100
AcDbArc
 50
76.639355
 51
83.360645
  0
ARC
  5
6F
330
1F
100
AcDbEntity
  8
LC-001-100-D00-0
  6
ByBlock
 62
     7
370
    50
100
AcDbCircle
 10
440.982955
 20
27.324
 30
0.0
 40
151.4080892972013
100
AcDbArc
 50
51.639355
 51
58.360645
  0
ARC
  5
70
330
1F
100
AcDbEntity
  8
LC-001-100-D00-0
  6
ByBlock
 62
     7
370
    50
100
AcDbCircle
 10
440.982955
 20
27.324
 30
0.0
 40
138.5919107027985
100
AcDbArc
 50
96.639355
 51
103.360645
  0
ARC
  5
71
330
1F
100
AcDbEntity
  8
LC-001-100-D00-0
  6
ByBlock
 62
     7
370
    50
100
AcDbCircle
 10
440.982955
 20
27.324
 30
0.0
 40
151.4080892972012
100
AcDbArc
 50
96.639355
 51
103.360645
  0
ARC
  5
72
330
1F
100
AcDbEntity
  8
LC-001-100-D00-0
  6
ByBlock
 62
     7
370
    50
100
AcDbCircle
 10
299.907405
 20
60.830552
 30
0.0
 40
6.408089297201488
100
AcDbArc
 50
346.639355
 51
166.639355
  0
ARC
  5
73
330
1F
100
AcDbEntity
  8
LC-001-100-D00-0
  6
ByBlock
 62
     7
370
    50
100
AcDbCircle
 10
440.982955
 20
27.324
 30
0.0
 40
138.5919107027985
100
AcDbArc
 50
166.639355
 51
173.360645
  0
ARC
  5
74
330
1F
100
AcDbEntity
  8
LC-001-100-D00-0
  6
ByBlock
 62
     7
370
    50
100
AcDbCircle
 10
296.955386
 20
44.08882
 30
0.0
 40
6.408089297201425
100
AcDbArc
 50
173.360645
 51
353.360645
  0
ARC
  5
75
330
1F
100
AcDbEntity
  8
LC-001-100-D00-0
  6
ByBlock
 62
     7
370
    50
100
AcDbCircle
 10
440.982955
 20
27.324
 30
0.0
 40
151.4080892972014
100
AcDbArc
 50
166.639355
 51
173.360645
  0
ARC
  5
76
330
1F
100
AcDbEntity
  8
LC-001-100-D00-0
  6
ByBlock
 62
     7
370
    50
100
AcDbCircle
 10
574.945488
 20
82.813098
 30
0.0
 40
7.196152422706789
100
AcDbArc
 50
222.828851
 51
182.171149
  0
ARC
  5
77
330
1F
100
AcDbEntity
  8
LC-001-100-D00-0
  6
ByBlock
 62
     7
370
    50
100
AcDbCircle
 10
564.431144
 20
103.386768
 30
0.0
 40
6.408089297201595
100
AcDbArc
 50
211.639355
 51
31.639355
  0
ARC
  5
78
330
1F
100
AcDbEntity
  8
LC-001-100-D00-0
  6
ByBlock
 62
     7
370
    50
100
AcDbCircle
 10
440.982955
 20
27.324
 30
0.0
 40
138.5919107027985
100
AcDbArc
 50
31.639355
 51
38.360645
  0
ARC
  5
79
330
1F
100
AcDbEntity
  8
LC-001-100-D00-0
  6
ByBlock
 62
     7
370
    50
100
AcDbCircle
 10
582.058506
 20
60.830552
 30
0.0
 40
6.408089297201543
100
AcDbArc
 50
13.360645
 51
193.360645
  0
ARC
  5
7A
330
1F
100
AcDbEntity
  8
LC-001-100-D00-0
  6
ByBlock
 62
     7
370
    50
100
AcDbCircle
 10
364.920187
 20
150.772189
 30
0.0
 40
6.408089297201498
100
AcDbArc
 50
301.639355
 51
121.639355
  0
ARC
  5
7B
330
1F
100
AcDbEntity
  8
LC-001-100-D00-0
  6
ByBlock
 62
     7
370
    50
100
AcDbCircle
 10
440.982955
 20
27.324
 30
0.0
 40
138.5919107027984
100
AcDbArc
 50
121.639355
 51
128.360645
  0
ARC
  5
7C
330
1F
100
AcDbEntity
  8
LC-001-100-D00-0
  6
ByBlock
 62
     7
370
    50
100
AcDbCircle
 10
385.493858
 20
161.286532
 30
0.0
 40
7.196152422706706
100
AcDbArc
 50
312.828851
 51
272.171149
  0
ARC
  5
7D
330
1F
100
AcDbEntity
  8
LC-001-100-D00-0
  6
ByBlock
 62
     7
370
    50
100
AcDbCircle
 10
440.982955
 20
27.324
 30
0.0
 40
138.5919107027985
100
AcDbArc
 50
6.639355
 51
13.360645
  0
ARC
  5
7E
330
1F
100
AcDbEntity
  8
LC-001-100-D00-0
  6
ByBlock
 62
     7
370
    50
100
AcDbCircle
 10
496.472053
 20
161.286532
 30
0.0
 40
7.196152422706638
100
AcDbArc
 50
267.828851
 51
227.171149
  0
ARC
  5
7F
330
1F
100
AcDbEntity
  8
LC-001-100-D00-0
  6
ByBlock
 62
     7
370
    50
100
AcDbCircle
 10
440.982955
 20
27.324
 30
0.0
 40
151.4080892972014
100
AcDbArc
 50
141.639355
 51
148.360645
  0
CIRCLE
  5
80
330
1F
100
AcDbEntity
  8
LC-001-100-D00-0
  6
ByBlock
 62
     7
370
    50
100
AcDbCircle
 10
543.513439
 20
129.854483
 30
0.0
 40
2.0
  0
ARC
  5
81
330
1F
100
AcDbEntity
  8
LC-001-100-D00-0
  6
ByBlock
 62
     7
370
    50
100
AcDbCircle
 10
585.010525
 20
44.08882
 30
0.0
 40
6.408089297201482
100
AcDbArc
 50
186.639355
 51
6.639355
  0
ARC
  5
82
330
1F
100
AcDbEntity
  8
LC-001-100-D00-0
  6
ByBlock
 62
     7
370
    50
100
AcDbCircle
 10
517.045724
 20
150.772189
 30
0.0
 40
6.408089297201558
100
AcDbArc
 50
58.360645
 51
238.360645
  0
LINE
  5
83
330
1F
100
AcDbEntity
  8
LC-001-100-D00-0
  6
ByBlock
 62
     7
370
    50
100
AcDbLine
 10
496.199429
 20
154.095539
 30
0.0
 11
497.121375
 21
156.321326
 31
0.0
  0
LINE
  5
84
330
1F
100
AcDbEntity
  8
LC-001-100-D00-0
  6
ByBlock
 62
     7
370
    50
100
AcDbLine
 10
492.501978
 20
158.234739
 30
0.0
 11
491.580032
 21
156.008968
 31
0.0
  0
INSERT
  5
94
330
1F
100
AcDbEntity
  8
LC-001-100-D00-0
  6
ByBlock
 62
     7
370
    50
100
AcDbBlockReference
  2
POLY1
 10
0.0
 20
0.0
 30
0.0
  0
LINE
  5
95
330
1F
100
AcDbEntity
  8
LC-001-100-D00-0
  6
ByBlock
 62
     7
370
    50
100
AcDbLine
 10
569.980275
 20
83.462419
 30
0.0
 11
567.754504
 21
82.540473
 31
0.0
  0
INSERT
  5
A5
330
1F
100
AcDbEntity
  8
LC-001-100-D00-0
  6
ByBlock
 62
     7
370
    50
100
AcDbBlockReference
  2
POLY2
 10
0.0
 20
0.0
 30
0.0
  0
LINE
  5
A6
330
1F
100
AcDbEntity
  8
LC-001-100-D00-0
  6
ByBlock
 62
     7
370
    50
100
AcDbLine
 10
569.667917
 20
77.921075
 30
0.0
 11
571.893696
 21
78.843021
 31
0.0
  0
INSERT
  5
B6
330
1F
100
AcDbEntity
  8
LC-001-100-D00-0
  6
ByBlock
 62
     7
370
    50
100
AcDbBlockReference
  2
POLY3
 10
0.0
 20
0.0
 30
0.0
  0
LINE
  5
B7
330
1F
100
AcDbEntity
  8
LC-001-100-D00-0
  6
ByBlock
 62
     7
370
    50
100
AcDbLine
 10
390.385878
 20
156.008968
 30
0.0
 11
389.463932
 21
158.234739
 31
0.0
  0
LINE
  5
B8
330
1F
100
AcDbEntity
  8
LC-001-100-D00-0
  6
ByBlock
 62
     7
370
    50
100
AcDbLine
 10
384.844538
 20
156.321326
 30
0.0
 11
385.76648
 21
154.095539
 31
0.0
  0
LINE
  5
B9
330
1F
100
AcDbEntity
  8
LC-001-100-D00-0
  6
ByBlock
 62
     7
370
    50
100
AcDbLine
 10
314.211402
 20
82.540473
 30
0.0
 11
311.985631
 21
83.462419
 31
0.0
  0
INSERT
  5
C9
330
1F
100
AcDbEntity
  8
LC-001-100-D00-0
  6
ByBlock
 62
     7
370
    50
100
AcDbBlockReference
  2
POLY4
 10
0.0
 20
0.0
 30
0.0
  0
LINE
  5
CA
330
1F
100
AcDbEntity
  8
LC-001-100-D00-0
  6
ByBlock
 62
     7
370
    50
100
AcDbLine
 10
310.072217
 20
78.843021
 30
0.0
 11
312.297989
 21
77.921075
 31
0.0
  0
ARC
  5
CB
330
1F
100
AcDbEntity
  8
LC-001-100-D00-0
  6
ByBlock
 62
     7
370
    50
100
AcDbCircle
 10
574.945488
 20
82.813098
 30
0.0
 40
5.052558883257768
100
AcDbArc
 50
232.156483
 51
172.843517
  0
ARC
  5
CC
330
1F
100
AcDbEntity
  8
LC-001-100-D00-0
  6
ByBlock
 62
     7
370
    50
100
AcDbCircle
 10
385.493858
 20
161.286532
 30
0.0
 40
5.052558883257653
100
AcDbArc
 50
322.156483
 51
262.843517
  0
ARC
  5
CD
330
1F
100
AcDbEntity
  8
LC-001-100-D00-0
  6
ByBlock
 62
     7
370
    50
100
AcDbCircle
 10
496.472053
 20
161.286532
 30
0.0
 40
5.05255888325761
100
AcDbArc
 50
277.156483
 51
217.843517
  0
ARC
  5
CE
330
1F
100
AcDbEntity
  8
LC-001-100-D00-0
  6
ByBlock
 62
     7
370
    50
100
AcDbCircle
 10
307.020423
 20
82.813098
 30
0.0
 40
5.052558883257722
100
AcDbArc
 50
7.156483
 51
307.843517
  0
INSERT
  5
DC
330
1F
100
AcDbEntity
  8
LC-001-100-D00-0
  6
ByBlock
 62
     7
370
    50
100
AcDbBlockReference
  2
POLY5
 10
0.0
 20
0.0
 30
0.0
  0
LINE
  5
DD
330
1F
100
AcDbEntity
  8
LC-001-100-D00-0
  6
ByBlock
 62
     7
370
    50
100
AcDbLine
 10
434.929857
 20
72.924001
 30
0.0
 11
434.219081
 21
72.823999
 31
0.0
  0
INSERT
  5
E3
330
1F
100
AcDbEntity
  8
LC-001-100-D00-0
  6
ByBlock
 62
     7
370
    50
100
AcDbBlockReference
  2
KLON1
 10
0.0
 20
0.0
 30
0.0
  0
INSERT
  5
E9
330
1F
100
AcDbEntity
  8
LC-001-100-D00-0
  6
ByBlock
 62
     7
370
    50
100
AcDbBlockReference
  2
KLON2
 10
0.0
 20
0.0
 30
0.0
  0
LINE
  5
EA
330
1F
100
AcDbEntity
  8
LC-001-100-D00-0
  6
ByBlock
 62
     7
370
    50
100
AcDbLine
 10
395.482954
 20
34.087875
 30
0.0
 11
395.382956
 21
33.377098
 31
0.0
  0
LINE
  5
EB
330
1F
100
AcDbEntity
  8
LC-001-100-D00-0
  6
ByBlock
 62
     7
370
    50
100
AcDbLine
 10
486.582954
 20
33.377098
 30
0.0
 11
486.482956
 21
34.087875
 31
0.0
  0
INSERT
  5
F1
330
1F
100
AcDbEntity
  8
LC-001-100-D00-0
  6
ByBlock
 62
     7
370
    50
100
AcDbBlockReference
  2
KLON3
 10
0.0
 20
0.0
 30
0.0
  0
INSERT
  5
F7
330
1F
100
AcDbEntity
  8
LC-001-100-D00-0
  6
ByBlock
 62
     7
370
    50
100
AcDbBlockReference
  2
KLON4
 10
0.0
 20
0.0
 30
0.0
  0
LINE
  5
F8
330
1F
100
AcDbEntity
  8
LC-001-100-D00-0
  6
ByBlock
 62
     7
370
    50
100
AcDbLine
 10
447.74683
 20
72.823999
 30
0.0
 11
447.036054
 21
72.924001
 31
0.0
  0
ARC
  5
F9
330
1F
100
AcDbEntity
  8
LC-001-100-D00-0
  6
ByBlock
 62
     7
370
    50
100
AcDbCircle
 10
485.482955
 20
71.824
 30
0.0
 40
5.5
100
AcDbArc
 50
0.0
 51
90.0
  0
LINE
  5
FA
330
1F
100
AcDbEntity
  8
LC-001-100-D00-0
  6
ByBlock
 62
     7
370
    50
100
AcDbLine
 10
396.482956
 20
77.324001
 30
0.0
 11
485.482954
 21
77.324001
 31
0.0
  0
LINE
  5
FB
330
1F
100
AcDbEntity
  8
LC-001-100-D00-0
  6
ByBlock
 62
     7
370
    50
100
AcDbLine
 10
390.982956
 20
27.324
 30
0.0
 11
390.982956
 21
71.824001
 31
0.0
  0
LINE
  5
FC
330
1F
100
AcDbEntity
  8
LC-001-100-D00-0
  6
ByBlock
 62
     7
370
    50
100
AcDbLine
 10
487.082955
 20
27.315646
 30
0.0
 11
487.082955
 21
70.623999
 31
0.0
  0
ARC
  5
FD
330
1F
100
AcDbEntity
  8
LC-001-100-D00-0
  6
ByBlock
 62
     7
370
    50
100
AcDbCircle
 10
484.282955
 20
70.624
 30
0.0
 40
2.800000000000068
100
AcDbArc
 50
0.0
 51
90.0
  0
LINE
  5
FE
330
1F
100
AcDbEntity
  8
LC-001-100-D00-0
  6
ByBlock
 62
     7
370
    50
100
AcDbLine
 10
484.282956
 20
73.424002
 30
0.0
 11
397.682954
 21
73.424002
 31
0.0
  0
LINE
  5
FF
330
1F
100
AcDbEntity
  8
LC-001-100-D00-0
  6
ByBlock
 62
     7
370
    50
100
AcDbLine
 10
394.882955
 20
70.623999
 30
0.0
 11
394.882955
 21
27.324
 31
0.0
  0
ARC
  5
100
330
1F
100
AcDbEntity
  8
LC-001-100-D00-0
  6
ByBlock
 62
     7
370
    50
100
AcDbCircle
 10
397.682955
 20
70.624
 30
0.0
 40
2.800000000000068
100
AcDbArc
 50
90.0
 51
180.0
  0
LINE
  5
101
330
1F
100
AcDbEntity
  8
LC-001-100-D00-0
  6
ByBlock
 62
     7
370
    50
100
AcDbLine
 10
490.982954
 20
71.824001
 30
0.0
 11
490.982954
 21
27.324
 31
0.0
  0
ARC
  5
102
330
1F
100
AcDbEntity
  8
LC-001-100-D00-0
  6
ByBlock
 62
     7
370
    50
100
AcDbCircle
 10
396.482955
 20
71.824
 30
0.0
 40
5.5
100
AcDbArc
 50
90.0
 51
180.0
  0
ARC
  5
103
330
1F
100
AcDbEntity
  8
LC-001-100-D00-0
  6
ByBlock
 62
     7
370
    50
100
AcDbCircle
 10
440.982955
 20
27.324
 30
0.0
 40
46.09999999999999
100
AcDbArc
 50
359.989617
 51
0.0
  0
ARC
  5
104
330
1F
100
AcDbEntity
  8
LC-001-100-D00-0
  6
ByBlock
 62
     7
370
    50
100
AcDbCircle
 10
440.982955
 20
27.324
 30
0.0
 40
46.10000000000002
100
AcDbArc
 50
0.0
 51
9.254116
  0
ARC
  5
105
330
1F
100
AcDbEntity
  8
LC-001-100-D00-0
  6
ByBlock
 62
     7
370
    50
100
AcDbCircle
 10
440.982955
 20
27.324
 30
0.0
 40
46.09999999999997
100
AcDbArc
 50
170.745884
 51
180.0
  0
ARC
  5
106
330
1F
100
AcDbEntity
  8
LC-001-100-D00-0
  6
ByBlock
 62
     7
370
    50
100
AcDbCircle
 10
440.982955
 20
27.324
 30
0.0
 40
46.10000000000002
100
AcDbArc
 50
90.0
 51
99.254116
  0
ARC
  5
107
330
1F
100
AcDbEntity
  8
LC-001-100-D00-0
  6
ByBlock
 62
     7
370
    50
100
AcDbCircle
 10
440.982955
 20
27.324
 30
0.0
 40
46.09999999999999
100
AcDbArc
 50
80.745884
 51
90.0
  0
LINE
  5
108
330
1F
100
AcDbEntity
  8
LC-001-100-D00-0
  6
ByBlock
 62
     7
370
    50
100
AcDbLine
 10
491.482955
 20
27.324
 30
0.0
 11
491.482955
 21
71.824001
 31
0.0
  0
ARC
  5
109
330
1F
100
AcDbEntity
  8
LC-001-100-D00-0
  6
ByBlock
 62
     7
370
    50
100
AcDbCircle
 10
396.482955
 20
71.824
 30
0.0
 40
6.0
100
AcDbArc
 50
90.0
 51
180.0
  0
LINE
  5
10A
330
1F
100
AcDbEntity
  8
LC-001-100-D00-0
  6
ByBlock
 62
     7
370
    50
100
AcDbLine
 10
485.482954
 20
77.824002
 30
0.0
 11
396.482956
 21
77.824002
 31
0.0
  0
LINE
  5
10B
330
1F
100
AcDbEntity
  8
LC-001-100-D00-0
  6
ByBlock
 62
     7
370
    50
100
AcDbLine
 10
390.482955
 20
71.824001
 30
0.0
 11
390.482955
 21
27.324
 31
0.0
  0
ARC
  5
10C
330
1F
100
AcDbEntity
  8
LC-001-100-D00-0
  6
ByBlock
 62
     7
370
    50
100
AcDbCircle
 10
485.482955
 20
71.824
 30
0.0
 40
6.0
100
AcDbArc
 50
0.0
 51
90.0
  0
ARC
  5
10D
330
1F
100
AcDbEntity
  8
LC-001-100-D00-0
  6
ByBlock
 62
     7
370
    50
100
AcDbCircle
 10
440.982955
 20
27.324
 30
0.0
 40
46.10000000000004
100
AcDbArc
 50
32.222162
 51
38.974458
  0
ARC
  5
10E
330
1F
100
AcDbEntity
  8
LC-001-100-D00-0
  6
ByBlock
 62
     7
370
    50
100
AcDbCircle
 10
440.982955
 20
27.324
 30
0.0
 40
46.10000000000011
100
AcDbArc
 50
51.025542
 51
57.777838
  0
ARC
  5
10F
330
1F
100
AcDbEntity
  8
LC-001-100-D00-0
  6
ByBlock
 62
     7
370
    50
100
AcDbCircle
 10
440.982955
 20
27.324
 30
0.0
 40
46.10000000000004
100
AcDbArc
 50
122.222162
 51
128.974458
  0
ARC
  5
110
330
1F
100
AcDbEntity
  8
LC-001-100-D00-0
  6
ByBlock
 62
     7
370
    50
100
AcDbCircle
 10
440.982955
 20
27.324
 30
0.0
 40
46.10000000000004
100
AcDbArc
 50
141.025542
 51
147.777838
  0
ARC
  5
111
330
1F
100
AcDbEntity
  8
LC-001-100-D00-0
  6
ByBlock
 62
     7
370
    50
100
AcDbCircle
 10
440.982955
 20
27.324
 30
0.0
 40
83.5
100
AcDbArc
 50
0.0
 51
180.0
  0
ARC
  5
112
330
1F
100
AcDbEntity
  8
LC-001-100-D00-0
  6
ByBlock
 62
     7
370
    50
100
AcDbCircle
 10
440.982955
 20
76.324
 30
0.0
 40
2.000000000000018
100
AcDbArc
 50
48.590378
 51
131.409622
  0
ARC
  5
113
330
1F
100
AcDbEntity
  8
LC-001-100-D00-0
  6
ByBlock
 62
     7
370
    50
100
AcDbCircle
 10
391.982955
 20
27.324
 30
0.0
 40
1.999999999999981
100
AcDbArc
 50
138.590378
 51
180.0
  0
ARC
  5
114
330
1F
100
AcDbEntity
  8
LC-001-100-D00-0
  6
ByBlock
 62
     7
370
    50
100
AcDbCircle
 10
489.982955
 20
27.324
 30
0.0
 40
2.000000000002444
100
AcDbArc
 50
0.0
 51
41.409622
  0
ARC
  5
115
330
1F
100
AcDbEntity
  8
LC-001-100-D00-0
  6
ByBlock
 62
     7
370
    50
100
AcDbCircle
 10
437.482955
 20
39.324
 30
0.0
 40
3.000000000000227
100
AcDbArc
 50
90.0
 51
270.0
  0
LINE
  5
116
330
1F
100
AcDbEntity
  8
LC-001-100-D00-0
  6
ByBlock
 62
     7
370
    50
100
AcDbLine
 10
437.482955
 20
36.324
 30
0.0
 11
444.482955
 21
36.324
 31
0.0
  0
LINE
  5
117
330
1F
100
AcDbEntity
  8
LC-001-100-D00-0
  6
ByBlock
 62
     7
370
    50
100
AcDbLine
 10
479.982956
 20
27.324
 30
0.0
 11
479.982956
 21
53.324001
 31
0.0
  0
ARC
  5
118
330
1F
100
AcDbEntity
  8
LC-001-100-D00-0
  6
ByBlock
 62
     7
370
    50
100
AcDbCircle
 10
404.982955
 20
53.324
 30
0.0
 40
3.000000000000114
100
AcDbArc
 50
0.0
 51
180.0
  0
LINE
  5
119
330
1F
100
AcDbEntity
  8
LC-001-100-D00-0
  6
ByBlock
 62
     7
370
    50
100
AcDbLine
 10
401.982956
 20
53.324001
 30
0.0
 11
401.982956
 21
27.324
 31
0.0
  0
LINE
  5
11A
330
1F
100
AcDbEntity
  8
LC-001-100-D00-0
  6
ByBlock
 62
     7
370
    50
100
AcDbLine
 10
467.982955
 20
27.324
 30
0.0
 11
467.982955
 21
42.324
 31
0.0
  0
LINE
  5
11B
330
1F
100
AcDbEntity
  8
LC-001-100-D00-0
  6
ByBlock
 62
     7
370
    50
100
AcDbLine
 10
486.482956
 20
70.324001
 30
0.0
 11
486.482956
 21
27.324
 31
0.0
  0
LINE
  5
11C
330
1F
100
AcDbEntity
  8
LC-001-100-D00-0
  6
ByBlock
 62
     7
370
    50
100
AcDbLine
 10
397.982955
 20
72.823999
 30
0.0
 11
483.982954
 21
72.823999
 31
0.0
  0
LINE
  5
11D
330
1F
100
AcDbEntity
  8
LC-001-100-D00-0
  6
ByBlock
 62
     7
370
    50
100
AcDbLine
 10
414.982956
 20
60.324
 30
0.0
 11
466.982955
 21
60.324
 31
0.0
  0
ARC
  5
11E
330
1F
100
AcDbEntity
  8
LC-001-100-D00-0
  6
ByBlock
 62
     7
370
    50
100
AcDbCircle
 10
466.982955
 20
63.324
 30
0.0
 40
3.000000000000114
100
AcDbArc
 50
270.0
 51
90.0
  0
ARC
  5
11F
330
1F
100
AcDbEntity
  8
LC-001-100-D00-0
  6
ByBlock
 62
     7
370
    50
100
AcDbCircle
 10
425.982955
 20
51.324
 30
0.0
 40
3.000000000000227
100
AcDbArc
 50
90.0
 51
270.0
  0
ARC
  5
120
330
1F
100
AcDbEntity
  8
LC-001-100-D00-0
  6
ByBlock
 62
     7
370
    50
100
AcDbCircle
 10
476.982955
 20
53.324
 30
0.0
 40
3.0
100
AcDbArc
 50
0.0
 51
180.0
  0
ARC
  5
121
330
1F
100
AcDbEntity
  8
LC-001-100-D00-0
  6
ByBlock
 62
     7
370
    50
100
AcDbCircle
 10
444.482955
 20
39.324
 30
0.0
 40
3.000000000000057
100
AcDbArc
 50
270.0
 51
90.0
  0
LINE
  5
122
330
1F
100
AcDbEntity
  8
LC-001-100-D00-0
  6
ByBlock
 62
     7
370
    50
100
AcDbLine
 10
461.982955
 20
42.324
 30
0.0
 11
461.982955
 21
27.324
 31
0.0
  0
LINE
  5
123
330
1F
100
AcDbEntity
  8
LC-001-100-D00-0
  6
ByBlock
 62
     7
370
    50
100
AcDbLine
 10
425.982956
 20
48.324
 30
0.0
 11
455.982955
 21
48.324
 31
0.0
  0
LINE
  5
124
330
1F
100
AcDbEntity
  8
LC-001-100-D00-0
  6
ByBlock
 62
     7
370
    50
100
AcDbLine
 10
444.482955
 20
42.324
 30
0.0
 11
437.482955
 21
42.324
 31
0.0
  0
LINE
  5
125
330
1F
100
AcDbEntity
  8
LC-001-100-D00-0
  6
ByBlock
 62
     7
370
    50
100
AcDbLine
 10
473.982955
 20
53.324001
 30
0.0
 11
473.982955
 21
27.324
 31
0.0
  0
LINE
  5
126
330
1F
100
AcDbEntity
  8
LC-001-100-D00-0
  6
ByBlock
 62
     7
370
    50
100
AcDbLine
 10
466.982955
 20
66.324001
 30
0.0
 11
414.982956
 21
66.324001
 31
0.0
  0
ARC
  5
127
330
1F
100
AcDbEntity
  8
LC-001-100-D00-0
  6
ByBlock
 62
     7
370
    50
100
AcDbCircle
 10
414.982955
 20
63.324
 30
0.0
 40
3.0
100
AcDbArc
 50
90.0
 51
270.0
  0
LINE
  5
128
330
1F
100
AcDbEntity
  8
LC-001-100-D00-0
  6
ByBlock
 62
     7
370
    50
100
AcDbLine
 10
407.982957
 20
27.324
 30
0.0
 11
407.982957
 21
53.324001
 31
0.0
  0
ARC
  5
129
330
1F
100
AcDbEntity
  8
LC-001-100-D00-0
  6
ByBlock
 62
     7
370
    50
100
AcDbCircle
 10
397.982955
 20
70.324
 30
0.0
 40
2.500000000000114
100
AcDbArc
 50
90.0
 51
180.0
  0
ARC
  5
12A
330
1F
100
AcDbEntity
  8
LC-001-100-D00-0
  6
ByBlock
 62
     7
370
    50
100
AcDbCircle
 10
455.982955
 20
51.324
 30
0.0
 40
3.000000000000114
100
AcDbArc
 50
270.0
 51
90.0
  0
LINE
  5
12B
330
1F
100
AcDbEntity
  8
LC-001-100-D00-0
  6
ByBlock
 62
     7
370
    50
100
AcDbLine
 10
413.982954
 20
42.324
 30
0.0
 11
413.982954
 21
27.324
 31
0.0
  0
ARC
  5
12C
330
1F
100
AcDbEntity
  8
LC-001-100-D00-0
  6
ByBlock
 62
     7
370
    50
100
AcDbCircle
 10
416.982955
 20
42.324
 30
0.0
 40
3.0
100
AcDbArc
 50
0.0
 51
180.0
  0
LINE
  5
12D
330
1F
100
AcDbEntity
  8
LC-001-100-D00-0
  6
ByBlock
 62
     7
370
    50
100
AcDbLine
 10
419.982955
 20
27.324
 30
0.0
 11
419.982955
 21
42.324
 31
0.0
  0
ARC
  5
12E
330
1F
100
AcDbEntity
  8
LC-001-100-D00-0
  6
ByBlock
 62
     7
370
    50
100
AcDbCircle
 10
483.982955
 20
70.324
 30
0.0
 40
2.5
100
AcDbArc
 50
0.0
 51
90.0
  0
ARC
  5
12F
330
1F
100
AcDbEntity
  8
LC-001-100-D00-0
  6
ByBlock
 62
     7
370
    50
100
AcDbCircle
 10
464.982955
 20
42.324
 30
0.0
 40
3.0
100
AcDbArc
 50
0.0
 51
180.0
  0
LINE
  5
130
330
1F
100
AcDbEntity
  8
LC-001-100-D00-0
  6
ByBlock
 62
     7
370
    50
100
AcDbLine
 10
455.982955
 20
54.324001
 30
0.0
 11
425.982956
 21
54.324001
 31
0.0
  0
ARC
  5
131
330
1F
100
AcDbEntity
  8
LC-001-100-D00-0
  6
ByBlock
 62
     7
370
    50
100
AcDbCircle
 10
440.982955
 20
27.324
 30
0.0
 40
39.50000000000002
100
AcDbArc
 50
56.661999
 51
80.873941
  0
ARC
  5
132
330
1F
100
AcDbEntity
  8
LC-001-100-D00-0
  6
ByBlock
 62
     7
370
    50
100
AcDbCircle
 10
440.982955
 20
27.324
 30
0.0
 40
39.50000000000009
100
AcDbArc
 50
9.126059
 51
33.338001
  0
ARC
  5
133
330
1F
100
AcDbEntity
  8
LC-001-100-D00-0
  6
ByBlock
 62
     7
370
    50
100
AcDbCircle
 10
440.982955
 20
27.324
 30
0.0
 40
39.49999999999995
100
AcDbArc
 50
146.661999
 51
170.873941
  0
ARC
  5
134
330
1F
100
AcDbEntity
  8
LC-001-100-D00-0
  6
ByBlock
 62
     7
370
    50
100
AcDbCircle
 10
440.982955
 20
27.324
 30
0.0
 40
39.50000000000003
100
AcDbArc
 50
99.126059
 51
123.338001
  0
LINE
  5
135
330
1F
100
AcDbEntity
  8
LC-001-100-D00-0
 62
     7
370
    25
100
AcDbLine
 10
283.482955
 20
27.324
 30
0.0
 11
598.482955
 21
27.324
 31
0.0
  0
ARC
  5
136
330
1F
100
AcDbEntity
  8
LC-001-100-D00-0
  6
ByBlock
 62
     7
370
    50
100
AcDbCircle
 10
395.882932
 20
498.411953
 30
0.0
 40
0.9999776520401724
100
AcDbArc
 50
180.025
 51
246.422602
  0
ARC
  5
137
330
1F
100
AcDbEntity
  8
LC-001-100-D00-0
  6
ByBlock
 62
     7
370
    50
100
AcDbCircle
 10
486.082984
 20
498.411949
 30
0.0
 40
0.999971132103983
100
AcDbArc
 50
293.577154
 51
359.975245
  0
ARC
  5
138
330
1F
100
AcDbEntity
  8
LC-001-100-D00-0
  6
ByBlock
 62
     7
370
    50
100
AcDbCircle
 10
431.982955
 20
499.912174
 30
0.0
 40
1.000000000000227
100
AcDbArc
 50
0.0
 51
90.0
  0
ARC
  5
139
330
1F
100
AcDbEntity
  8
LC-001-100-D00-0
  6
ByBlock
 62
     7
370
    50
100
AcDbCircle
 10
449.982955
 20
499.912174
 30
0.0
 40
1.000000000000227
100
AcDbArc
 50
90.0
 51
180.0
  0
LINE
  5
13A
330
1F
100
AcDbEntity
  8
LC-001-100-D00-0
  6
ByBlock
 62
     7
370
    50
100
AcDbLine
 10
448.982955
 20
498.412173
 30
0.0
 11
448.982955
 21
499.912176
 31
0.0
  0
LINE
  5
13B
330
1F
100
AcDbEntity
  8
LC-001-100-D00-0
  6
ByBlock
 62
     7
370
    50
100
AcDbLine
 10
432.982955
 20
499.912176
 30
0.0
 11
432.982955
 21
498.412173
 31
0.0
  0
ARC
  5
13C
330
1F
100
AcDbEntity
  8
LC-001-100-D00-0
  6
ByBlock
 62
     7
370
    50
100
AcDbCircle
 10
409.482955
 20
499.912174
 30
0.0
 40
1.000000000000171
100
AcDbArc
 50
0.0
 51
60.0
  0
ARC
  5
13D
330
1F
100
AcDbEntity
  8
LC-001-100-D00-0
  6
ByBlock
 62
     7
370
    50
100
AcDbCircle
 10
472.482955
 20
499.912174
 30
0.0
 40
1.000000000000082
100
AcDbArc
 50
120.0
 51
180.0
  0
LINE
  5
13E
330
1F
100
AcDbEntity
  8
LC-001-100-D00-0
  6
ByBlock
 62
     7
370
    50
100
AcDbLine
 10
410.482954
 20
499.912176
 30
0.0
 11
410.482954
 21
498.412173
 31
0.0
  0
LINE
  5
13F
330
1F
100
AcDbEntity
  8
LC-001-100-D00-0
  6
ByBlock
 62
     7
370
    50
100
AcDbLine
 10
471.482955
 20
498.412173
 30
0.0
 11
471.482955
 21
499.912176
 31
0.0
  0
LINE
  5
140
330
1F
100
AcDbEntity
  8
LC-001-100-D00-0
  6
ByBlock
 62
     7
370
    50
100
AcDbLine
 10
425.232103
 20
456.812173
 30
0.0
 11
425.232103
 21
456.712175
 31
0.0
  0
LINE
  5
141
330
1F
100
AcDbEntity
  8
LC-001-100-D00-0
  6
ByBlock
 62
     7
370
    50
100
AcDbLine
 10
529.982958
 20
465.912174
 30
0.0
 11
532.292959
 21
469.912175
 31
0.0
  0
LINE
  5
142
330
1F
100
AcDbEntity
  8
LC-001-100-D00-0
  6
ByBlock
 62
     7
370
    50
100
AcDbLine
 10
349.672955
 20
469.912175
 30
0.0
 11
351.982955
 21
465.912174
 31
0.0
  0
LINE
  5
143
330
1F
100
AcDbEntity
  8
LC-001-100-D00-0
  6
ByBlock
 62
     7
370
    50
100
AcDbLine
 10
349.672955
 20
469.912175
 30
0.0
 11
391.982954
 21
469.912175
 31
0.0
  0
LINE
  5
144
330
1F
100
AcDbEntity
  8
LC-001-100-D00-0
  6
ByBlock
 62
     7
370
    50
100
AcDbLine
 10
489.982955
 20
469.912175
 30
0.0
 11
532.292959
 21
469.912175
 31
0.0
  0
LINE
  5
145
330
1F
100
AcDbEntity
  8
LC-001-100-D00-0
  6
ByBlock
 62
     7
370
    50
100
AcDbLine
 10
305.982951
 20
469.412174
 30
0.0
 11
305.982951
 21
469.912175
 31
0.0
  0
LINE
  5
146
330
1F
100
AcDbEntity
  8
LC-001-100-D00-0
  6
ByBlock
 62
     7
370
    50
100
AcDbLine
 10
575.982962
 20
469.912175
 30
0.0
 11
575.982962
 21
469.412174
 31
0.0
  0
LINE
  5
147
330
1F
100
AcDbEntity
  8
LC-001-100-D00-0
  6
ByBlock
 62
     7
370
    50
100
AcDbLine
 10
380.982954
 20
461.912173
 30
0.0
 11
380.982954
 21
461.205068
 31
0.0
  0
LINE
  5
148
330
1F
100
AcDbEntity
  8
LC-001-100-D00-0
  6
ByBlock
 62
     7
370
    50
100
AcDbLine
 10
380.982954
 20
461.912173
 30
0.0
 11
428.273056
 21
461.912173
 31
0.0
  0
LINE
  5
149
330
1F
100
AcDbEntity
  8
LC-001-100-D00-0
  6
ByBlock
 62
     7
370
    50
100
AcDbLine
 10
433.520023
 20
461.912173
 30
0.0
 11
448.445887
 21
461.912173
 31
0.0
  0
LINE
  5
14A
330
1F
100
AcDbEntity
  8
LC-001-100-D00-0
  6
ByBlock
 62
     7
370
    50
100
AcDbLine
 10
453.692855
 20
461.912173
 30
0.0
 11
500.982955
 21
461.912173
 31
0.0
  0
LINE
  5
14B
330
1F
100
AcDbEntity
  8
LC-001-100-D00-0
  6
ByBlock
 62
     7
370
    50
100
AcDbLine
 10
500.982955
 20
461.205068
 30
0.0
 11
500.982955
 21
461.912173
 31
0.0
  0
LINE
  5
14C
330
1F
100
AcDbEntity
  8
LC-001-100-D00-0
  6
ByBlock
 62
     7
370
    50
100
AcDbLine
 10
380.982954
 20
461.205068
 30
0.0
 11
427.938396
 21
461.205068
 31
0.0
  0
LINE
  5
14D
330
1F
100
AcDbEntity
  8
LC-001-100-D00-0
  6
ByBlock
 62
     7
370
    50
100
AcDbLine
 10
432.65529
 20
461.205068
 30
0.0
 11
449.310622
 21
461.205068
 31
0.0
  0
LINE
  5
14E
330
1F
100
AcDbEntity
  8
LC-001-100-D00-0
  6
ByBlock
 62
     7
370
    50
100
AcDbLine
 10
454.027514
 20
461.205068
 30
0.0
 11
500.982955
 21
461.205068
 31
0.0
  0
LINE
  5
14F
330
1F
100
AcDbEntity
  8
LC-001-100-D00-0
  6
ByBlock
 62
     7
370
    50
100
AcDbLine
 10
532.581594
 20
469.412174
 30
0.0
 11
530.271594
 21
465.412173
 31
0.0
  0
LINE
  5
150
330
1F
100
AcDbEntity
  8
LC-001-100-D00-0
  6
ByBlock
 62
     7
370
    50
100
AcDbLine
 10
351.69432
 20
465.412173
 30
0.0
 11
349.384319
 21
469.412174
 31
0.0
  0
LINE
  5
151
330
1F
100
AcDbEntity
  8
LC-001-100-D00-0
  6
ByBlock
 62
     7
370
    50
100
AcDbLine
 10
505.190063
 20
465.412173
 30
0.0
 11
500.982955
 21
461.205068
 31
0.0
  0
LINE
  5
152
330
1F
100
AcDbEntity
  8
LC-001-100-D00-0
  6
ByBlock
 62
     7
370
    50
100
AcDbLine
 10
380.982954
 20
461.205068
 30
0.0
 11
376.77585
 21
465.412173
 31
0.0
  0
LINE
  5
153
330
1F
100
AcDbEntity
  8
LC-001-100-D00-0
  6
ByBlock
 62
     7
370
    50
100
AcDbLine
 10
500.982955
 20
461.912173
 30
0.0
 11
504.982956
 21
465.912174
 31
0.0
  0
LINE
  5
154
330
1F
100
AcDbEntity
  8
LC-001-100-D00-0
  6
ByBlock
 62
     7
370
    50
100
AcDbLine
 10
376.982954
 20
465.912174
 30
0.0
 11
380.982954
 21
461.912173
 31
0.0
  0
LINE
  5
155
330
1F
100
AcDbEntity
  8
LC-001-100-D00-0
  6
ByBlock
 62
     7
370
    50
100
AcDbLine
 10
376.982954
 20
465.912174
 30
0.0
 11
432.523508
 21
465.912174
 31
0.0
  0
LINE
  5
156
330
1F
100
AcDbEntity
  8
LC-001-100-D00-0
  6
ByBlock
 62
     7
370
    50
100
AcDbLine
 10
449.442403
 20
465.912174
 30
0.0
 11
504.982956
 21
465.912174
 31
0.0
  0
LINE
  5
157
330
1F
100
AcDbEntity
  8
LC-001-100-D00-0
  6
ByBlock
 62
     7
370
    50
100
AcDbLine
 10
575.982962
 20
469.412174
 30
0.0
 11
532.581594
 21
469.412174
 31
0.0
  0
LINE
  5
158
330
1F
100
AcDbEntity
  8
LC-001-100-D00-0
  6
ByBlock
 62
     7
370
    50
100
AcDbLine
 10
504.982956
 20
465.912174
 30
0.0
 11
529.982958
 21
465.912174
 31
0.0
  0
LINE
  5
159
330
1F
100
AcDbEntity
  8
LC-001-100-D00-0
  6
ByBlock
 62
     7
370
    50
100
AcDbLine
 10
530.271594
 20
465.412173
 30
0.0
 11
505.190063
 21
465.412173
 31
0.0
  0
LINE
  5
15A
330
1F
100
AcDbEntity
  8
LC-001-100-D00-0
  6
ByBlock
 62
     7
370
    50
100
AcDbLine
 10
532.292959
 20
469.912175
 30
0.0
 11
575.982962
 21
469.912175
 31
0.0
  0
LINE
  5
15B
330
1F
100
AcDbEntity
  8
LC-001-100-D00-0
  6
ByBlock
 62
     7
370
    50
100
AcDbLine
 10
349.384319
 20
469.412174
 30
0.0
 11
305.982951
 21
469.412174
 31
0.0
  0
LINE
  5
15C
330
1F
100
AcDbEntity
  8
LC-001-100-D00-0
  6
ByBlock
 62
     7
370
    50
100
AcDbLine
 10
351.982955
 20
465.912174
 30
0.0
 11
376.982954
 21
465.912174
 31
0.0
  0
LINE
  5
15D
330
1F
100
AcDbEntity
  8
LC-001-100-D00-0
  6
ByBlock
 62
     7
370
    50
100
AcDbLine
 10
376.77585
 20
465.412173
 30
0.0
 11
351.69432
 21
465.412173
 31
0.0
  0
LINE
  5
15E
330
1F
100
AcDbEntity
  8
LC-001-100-D00-0
  6
ByBlock
 62
     7
370
    50
100
AcDbLine
 10
305.982951
 20
469.912175
 30
0.0
 11
349.672955
 21
469.912175
 31
0.0
  0
ARC
  5
15F
330
1F
100
AcDbEntity
  8
LC-001-100-D00-0
  6
ByBlock
 62
     7
370
    50
100
AcDbCircle
 10
380.982955
 20
437.212174
 30
0.0
 40
3.0
100
AcDbArc
 50
180.0
 51
270.0
  0
ARC
  5
160
330
1F
100
AcDbEntity
  8
LC-001-100-D00-0
  6
ByBlock
 62
     7
370
    50
100
AcDbCircle
 10
500.982955
 20
437.212174
 30
0.0
 40
3.0
100
AcDbArc
 50
270.0
 51
0.0
  0
LINE
  5
161
330
1F
100
AcDbEntity
  8
LC-001-100-D00-0
  6
ByBlock
 62
     7
370
    50
100
AcDbLine
 10
416.786801
 20
319.212172
 30
0.0
 11
418.982955
 21
319.212172
 31
0.0
  0
LINE
  5
162
330
1F
100
AcDbEntity
  8
LC-001-100-D00-0
  6
ByBlock
 62
     7
370
    50
100
AcDbLine
 10
415.982954
 20
322.212178
 30
0.0
 11
416.786801
 21
319.212172
 31
0.0
  0
LINE
  5
163
330
1F
100
AcDbEntity
  8
LC-001-100-D00-0
  6
ByBlock
 62
     7
370
    50
100
AcDbLine
 10
415.982954
 20
377.212174
 30
0.0
 11
415.982954
 21
322.212178
 31
0.0
  0
ARC
  5
164
330
1F
100
AcDbEntity
  8
LC-001-100-D00-0
  6
ByBlock
 62
     7
370
    50
100
AcDbCircle
 10
392.222789
 20
380.212174
 30
0.0
 40
3.000000000000007
100
AcDbArc
 50
195.0
 51
270.0
  0
LINE
  5
165
330
1F
100
AcDbEntity
  8
LC-001-100-D00-0
  6
ByBlock
 62
     7
370
    50
100
AcDbLine
 10
385.982957
 20
391.908442
 30
0.0
 11
389.325012
 21
379.435718
 31
0.0
  0
LINE
  5
166
330
1F
100
AcDbEntity
  8
LC-001-100-D00-0
  6
ByBlock
 62
     7
370
    50
100
AcDbLine
 10
385.982957
 20
434.212174
 30
0.0
 11
385.982957
 21
391.908442
 31
0.0
  0
LINE
  5
167
330
1F
100
AcDbEntity
  8
LC-001-100-D00-0
  6
ByBlock
 62
     7
370
    50
100
AcDbLine
 10
380.982954
 20
434.212174
 30
0.0
 11
385.982957
 21
434.212174
 31
0.0
  0
LINE
  5
168
330
1F
100
AcDbEntity
  8
LC-001-100-D00-0
  6
ByBlock
 62
     7
370
    50
100
AcDbLine
 10
377.982956
 20
460.669532
 30
0.0
 11
377.982956
 21
437.212174
 31
0.0
  0
LINE
  5
169
330
1F
100
AcDbEntity
  8
LC-001-100-D00-0
  6
ByBlock
 62
     7
370
    50
100
AcDbLine
 10
375.740316
 20
462.912175
 30
0.0
 11
377.982956
 21
460.669532
 31
0.0
  0
LINE
  5
16A
330
1F
100
AcDbEntity
  8
LC-001-100-D00-0
  6
ByBlock
 62
     7
370
    50
100
AcDbLine
 10
350.232955
 20
462.912175
 30
0.0
 11
375.740316
 21
462.912175
 31
0.0
  0
LINE
  5
16B
330
1F
100
AcDbEntity
  8
LC-001-100-D00-0
  6
ByBlock
 62
     7
370
    50
100
AcDbLine
 10
347.923551
 20
466.912176
 30
0.0
 11
350.232955
 21
462.912175
 31
0.0
  0
LINE
  5
16C
330
1F
100
AcDbEntity
  8
LC-001-100-D00-0
  6
ByBlock
 62
     7
370
    50
100
AcDbLine
 10
347.923551
 20
466.912176
 30
0.0
 11
283.482958
 21
466.912176
 31
0.0
  0
LINE
  5
16D
330
1F
100
AcDbEntity
  8
LC-001-100-D00-0
  6
ByBlock
 62
     7
370
    50
100
AcDbLine
 10
283.482958
 20
466.912176
 30
0.0
 11
283.482958
 21
469.912175
 31
0.0
  0
LINE
  5
16E
330
1F
100
AcDbEntity
  8
LC-001-100-D00-0
  6
ByBlock
 62
     7
370
    50
100
AcDbLine
 10
305.982951
 20
469.912175
 30
0.0
 11
283.482958
 21
469.912175
 31
0.0
  0
LINE
  5
16F
330
1F
100
AcDbEntity
  8
LC-001-100-D00-0
  6
ByBlock
 62
     7
370
    50
100
AcDbLine
 10
305.982951
 20
469.412174
 30
0.0
 11
349.384878
 21
469.412174
 31
0.0
  0
LINE
  5
170
330
1F
100
AcDbEntity
  8
LC-001-100-D00-0
  6
ByBlock
 62
     7
370
    50
100
AcDbLine
 10
349.384878
 20
469.412174
 30
0.0
 11
351.694282
 21
465.412173
 31
0.0
  0
LINE
  5
171
330
1F
100
AcDbEntity
  8
LC-001-100-D00-0
  6
ByBlock
 62
     7
370
    50
100
AcDbLine
 10
351.694282
 20
465.412173
 30
0.0
 11
376.77585
 21
465.412173
 31
0.0
  0
LINE
  5
172
330
1F
100
AcDbEntity
  8
LC-001-100-D00-0
  6
ByBlock
 62
     7
370
    50
100
AcDbLine
 10
380.982954
 20
438.212174
 30
0.0
 11
380.982954
 21
461.205068
 31
0.0
  0
LINE
  5
173
330
1F
100
AcDbEntity
  8
LC-001-100-D00-0
  6
ByBlock
 62
     7
370
    50
100
AcDbLine
 10
388.982956
 20
438.212174
 30
0.0
 11
380.982954
 21
438.212174
 31
0.0
  0
LINE
  5
174
330
1F
100
AcDbEntity
  8
LC-001-100-D00-0
  6
ByBlock
 62
     7
370
    50
100
AcDbLine
 10
388.982956
 20
391.908442
 30
0.0
 11
388.982956
 21
438.212174
 31
0.0
  0
LINE
  5
175
330
1F
100
AcDbEntity
  8
LC-001-100-D00-0
  6
ByBlock
 62
     7
370
    50
100
AcDbLine
 10
391.521163
 20
382.435718
 30
0.0
 11
388.982956
 21
391.908442
 31
0.0
  0
ARC
  5
176
330
1F
100
AcDbEntity
  8
LC-001-100-D00-0
  6
ByBlock
 62
     7
370
    50
100
AcDbCircle
 10
394.418942
 20
383.212174
 30
0.0
 40
3.000000000000007
100
AcDbArc
 50
195.0
 51
270.0
  0
LINE
  5
177
330
1F
100
AcDbEntity
  8
LC-001-100-D00-0
  6
ByBlock
 62
     7
370
    50
100
AcDbLine
 10
416.482955
 20
380.212176
 30
0.0
 11
394.41894
 21
380.212176
 31
0.0
  0
LINE
  5
178
330
1F
100
AcDbEntity
  8
LC-001-100-D00-0
  6
ByBlock
 62
     7
370
    50
100
AcDbLine
 10
416.482955
 20
441.712174
 30
0.0
 11
416.482955
 21
380.212176
 31
0.0
  0
LINE
  5
179
330
1F
100
AcDbEntity
  8
LC-001-100-D00-0
  6
ByBlock
 62
     7
370
    50
100
AcDbLine
 10
418.982955
 20
441.712174
 30
0.0
 11
416.482955
 21
441.712174
 31
0.0
  0
LINE
  5
17A
330
1F
100
AcDbEntity
  8
LC-001-100-D00-0
  6
ByBlock
 62
     7
370
    50
100
AcDbLine
 10
418.982955
 20
319.212172
 30
0.0
 11
418.982955
 21
441.712174
 31
0.0
  0
LINE
  5
17B
330
1F
100
AcDbEntity
  8
LC-001-100-D00-0
  6
ByBlock
 62
     7
370
    50
100
AcDbLine
 10
392.222788
 20
377.212174
 30
0.0
 11
415.982954
 21
377.212174
 31
0.0
  0
LINE
  5
17C
330
1F
100
AcDbEntity
  8
LC-001-100-D00-0
  6
ByBlock
 62
     7
370
    50
100
AcDbLine
 10
487.546969
 20
380.212176
 30
0.0
 11
465.482956
 21
380.212176
 31
0.0
  0
ARC
  5
17D
330
1F
100
AcDbEntity
  8
LC-001-100-D00-0
  6
ByBlock
 62
     7
370
    50
100
AcDbCircle
 10
487.546969
 20
383.212174
 30
0.0
 40
3.0
100
AcDbArc
 50
270.0
 51
345.0
  0
LINE
  5
17E
330
1F
100
AcDbEntity
  8
LC-001-100-D00-0
  6
ByBlock
 62
     7
370
    50
100
AcDbLine
 10
492.982954
 20
391.908442
 30
0.0
 11
490.444746
 21
382.435718
 31
0.0
  0
LINE
  5
17F
330
1F
100
AcDbEntity
  8
LC-001-100-D00-0
  6
ByBlock
 62
     7
370
    50
100
AcDbLine
 10
492.982954
 20
438.212174
 30
0.0
 11
492.982954
 21
391.908442
 31
0.0
  0
LINE
  5
180
330
1F
100
AcDbEntity
  8
LC-001-100-D00-0
  6
ByBlock
 62
     7
370
    50
100
AcDbLine
 10
500.982955
 20
438.212174
 30
0.0
 11
492.982954
 21
438.212174
 31
0.0
  0
LINE
  5
181
330
1F
100
AcDbEntity
  8
LC-001-100-D00-0
  6
ByBlock
 62
     7
370
    50
100
AcDbLine
 10
500.982955
 20
461.205068
 30
0.0
 11
500.982955
 21
438.212174
 31
0.0
  0
LINE
  5
182
330
1F
100
AcDbEntity
  8
LC-001-100-D00-0
  6
ByBlock
 62
     7
370
    50
100
AcDbLine
 10
505.190063
 20
465.412173
 30
0.0
 11
530.271631
 21
465.412173
 31
0.0
  0
LINE
  5
183
330
1F
100
AcDbEntity
  8
LC-001-100-D00-0
  6
ByBlock
 62
     7
370
    50
100
AcDbLine
 10
530.271631
 20
465.412173
 30
0.0
 11
532.581035
 21
469.412174
 31
0.0
  0
LINE
  5
184
330
1F
100
AcDbEntity
  8
LC-001-100-D00-0
  6
ByBlock
 62
     7
370
    50
100
AcDbLine
 10
532.581035
 20
469.412174
 30
0.0
 11
575.982962
 21
469.412174
 31
0.0
  0
LINE
  5
185
330
1F
100
AcDbEntity
  8
LC-001-100-D00-0
  6
ByBlock
 62
     7
370
    50
100
AcDbLine
 10
598.482955
 20
469.912175
 30
0.0
 11
575.982962
 21
469.912175
 31
0.0
  0
LINE
  5
186
330
1F
100
AcDbEntity
  8
LC-001-100-D00-0
  6
ByBlock
 62
     7
370
    50
100
AcDbLine
 10
598.482955
 20
469.912175
 30
0.0
 11
598.482955
 21
466.912176
 31
0.0
  0
LINE
  5
187
330
1F
100
AcDbEntity
  8
LC-001-100-D00-0
  6
ByBlock
 62
     7
370
    50
100
AcDbLine
 10
598.482955
 20
466.912176
 30
0.0
 11
534.042355
 21
466.912176
 31
0.0
  0
LINE
  5
188
330
1F
100
AcDbEntity
  8
LC-001-100-D00-0
  6
ByBlock
 62
     7
370
    50
100
AcDbLine
 10
531.732958
 20
462.912175
 30
0.0
 11
534.042355
 21
466.912176
 31
0.0
  0
LINE
  5
189
330
1F
100
AcDbEntity
  8
LC-001-100-D00-0
  6
ByBlock
 62
     7
370
    50
100
AcDbLine
 10
506.225597
 20
462.912175
 30
0.0
 11
531.732958
 21
462.912175
 31
0.0
  0
LINE
  5
18A
330
1F
100
AcDbEntity
  8
LC-001-100-D00-0
  6
ByBlock
 62
     7
370
    50
100
AcDbLine
 10
503.982954
 20
460.669532
 30
0.0
 11
506.225597
 21
462.912175
 31
0.0
  0
LINE
  5
18B
330
1F
100
AcDbEntity
  8
LC-001-100-D00-0
  6
ByBlock
 62
     7
370
    50
100
AcDbLine
 10
503.982954
 20
437.212174
 30
0.0
 11
503.982954
 21
460.669532
 31
0.0
  0
LINE
  5
18C
330
1F
100
AcDbEntity
  8
LC-001-100-D00-0
  6
ByBlock
 62
     7
370
    50
100
AcDbLine
 10
495.982956
 20
434.212174
 30
0.0
 11
500.982955
 21
434.212174
 31
0.0
  0
LINE
  5
18D
330
1F
100
AcDbEntity
  8
LC-001-100-D00-0
  6
ByBlock
 62
     7
370
    50
100
AcDbLine
 10
495.982956
 20
391.908442
 30
0.0
 11
495.982956
 21
434.212174
 31
0.0
  0
LINE
  5
18E
330
1F
100
AcDbEntity
  8
LC-001-100-D00-0
  6
ByBlock
 62
     7
370
    50
100
AcDbLine
 10
492.640898
 20
379.435718
 30
0.0
 11
495.982956
 21
391.908442
 31
0.0
  0
ARC
  5
18F
330
1F
100
AcDbEntity
  8
LC-001-100-D00-0
  6
ByBlock
 62
     7
370
    50
100
AcDbCircle
 10
489.743122
 20
380.212174
 30
0.0
 40
3.0
100
AcDbArc
 50
270.0
 51
345.0
  0
LINE
  5
190
330
1F
100
AcDbEntity
  8
LC-001-100-D00-0
  6
ByBlock
 62
     7
370
    50
100
AcDbLine
 10
465.982955
 20
322.212178
 30
0.0
 11
465.982955
 21
377.212174
 31
0.0
  0
LINE
  5
191
330
1F
100
AcDbEntity
  8
LC-001-100-D00-0
  6
ByBlock
 62
     7
370
    50
100
AcDbLine
 10
465.179108
 20
319.212172
 30
0.0
 11
465.982955
 21
322.212178
 31
0.0
  0
LINE
  5
192
330
1F
100
AcDbEntity
  8
LC-001-100-D00-0
  6
ByBlock
 62
     7
370
    50
100
AcDbLine
 10
462.982956
 20
319.212172
 30
0.0
 11
465.179108
 21
319.212172
 31
0.0
  0
LINE
  5
193
330
1F
100
AcDbEntity
  8
LC-001-100-D00-0
  6
ByBlock
 62
     7
370
    50
100
AcDbLine
 10
462.982956
 20
441.712174
 30
0.0
 11
462.982956
 21
319.212172
 31
0.0
  0
LINE
  5
194
330
1F
100
AcDbEntity
  8
LC-001-100-D00-0
  6
ByBlock
 62
     7
370
    50
100
AcDbLine
 10
465.482956
 20
441.712174
 30
0.0
 11
462.982956
 21
441.712174
 31
0.0
  0
LINE
  5
195
330
1F
100
AcDbEntity
  8
LC-001-100-D00-0
  6
ByBlock
 62
     7
370
    50
100
AcDbLine
 10
465.482956
 20
380.212176
 30
0.0
 11
465.482956
 21
441.712174
 31
0.0
  0
LINE
  5
196
330
1F
100
AcDbEntity
  8
LC-001-100-D00-0
  6
ByBlock
 62
     7
370
    50
100
AcDbLine
 10
465.982955
 20
377.212174
 30
0.0
 11
489.743121
 21
377.212174
 31
0.0
  0
LINE
  5
197
330
1F
100
AcDbEntity
  8
LC-001-100-D00-0
  6
ByBlock
 62
     7
370
    50
100
AcDbLine
 10
462.982956
 20
441.712174
 30
0.0
 11
452.750731
 21
441.712174
 31
0.0
  0
LINE
  5
198
330
1F
100
AcDbEntity
  8
LC-001-100-D00-0
  6
ByBlock
 62
     7
370
    50
100
AcDbLine
 10
449.21518
 20
441.712174
 30
0.0
 11
422.982956
 21
441.712174
 31
0.0
  0
LINE
  5
199
330
1F
100
AcDbEntity
  8
LC-001-100-D00-0
  6
ByBlock
 62
     7
370
    50
100
AcDbLine
 10
462.982956
 20
319.212172
 30
0.0
 11
418.982955
 21
319.212172
 31
0.0
  0
LINE
  5
19A
330
1F
100
AcDbEntity
  8
LC-001-100-D00-0
  6
ByBlock
 62
     7
370
    50
100
AcDbLine
 10
484.284036
 20
438.212174
 30
0.0
 11
484.284036
 21
437.212174
 31
0.0
  0
LINE
  5
19B
330
1F
100
AcDbEntity
  8
LC-001-100-D00-0
  6
ByBlock
 62
     7
370
    50
100
AcDbLine
 10
397.681873
 20
438.212174
 30
0.0
 11
397.681873
 21
437.212174
 31
0.0
  0
LINE
  5
19C
330
1F
100
AcDbEntity
  8
LC-001-100-D00-0
  6
ByBlock
 62
     7
370
    50
100
AcDbLine
 10
388.997983
 20
438.212174
 30
0.0
 11
388.997983
 21
437.212174
 31
0.0
  0
LINE
  5
19D
330
1F
100
AcDbEntity
  8
LC-001-100-D00-0
  6
ByBlock
 62
     7
370
    50
100
AcDbLine
 10
401.482955
 20
437.212174
 30
0.0
 11
388.997983
 21
437.212174
 31
0.0
  0
LINE
  5
19E
330
1F
100
AcDbEntity
  8
LC-001-100-D00-0
  6
ByBlock
 62
     7
370
    50
100
AcDbLine
 10
492.96793
 20
437.212174
 30
0.0
 11
480.482955
 21
437.212174
 31
0.0
  0
LINE
  5
19F
330
1F
100
AcDbEntity
  8
LC-001-100-D00-0
  6
ByBlock
 62
     7
370
    50
100
AcDbLine
 10
492.96793
 20
438.212174
 30
0.0
 11
492.96793
 21
437.212174
 31
0.0
  0
LINE
  5
1A0
330
1F
100
AcDbEntity
  8
LC-001-100-D00-0
  6
ByBlock
 62
     7
370
    50
100
AcDbLine
 10
492.982954
 20
391.908442
 30
0.0
 11
480.482955
 21
391.908442
 31
0.0
  0
LINE
  5
1A1
330
1F
100
AcDbEntity
  8
LC-001-100-D00-0
  6
ByBlock
 62
     7
370
    50
100
AcDbLine
 10
401.482955
 20
391.908442
 30
0.0
 11
388.982956
 21
391.908442
 31
0.0
  0
LINE
  5
1A2
330
1F
100
AcDbEntity
  8
LC-001-100-D00-0
  6
ByBlock
 62
     7
370
    50
100
AcDbLine
 10
388.982956
 20
438.212174
 30
0.0
 11
388.997983
 21
438.212174
 31
0.0
  0
LINE
  5
1A3
330
1F
100
AcDbEntity
  8
LC-001-100-D00-0
  6
ByBlock
 62
     7
370
    50
100
AcDbLine
 10
492.96793
 20
438.212174
 30
0.0
 11
492.982954
 21
438.212174
 31
0.0
  0
LINE
  5
1A4
330
1F
100
AcDbEntity
  8
LC-001-100-D00-0
  6
ByBlock
 62
     7
370
    50
100
AcDbLine
 10
480.482955
 20
438.212174
 30
0.0
 11
484.284036
 21
438.212174
 31
0.0
  0
LINE
  5
1A5
330
1F
100
AcDbEntity
  8
LC-001-100-D00-0
  6
ByBlock
 62
     7
370
    50
100
AcDbLine
 10
397.681873
 20
438.212174
 30
0.0
 11
401.482955
 21
438.212174
 31
0.0
  0
LINE
  5
1A6
330
1F
100
AcDbEntity
  8
LC-001-100-D00-0
  6
ByBlock
 62
     7
370
    50
100
AcDbLine
 10
391.982954
 20
482.112172
 30
0.0
 11
391.982954
 21
483.312178
 31
0.0
  0
LINE
  5
1A7
330
1F
100
AcDbEntity
  8
LC-001-100-D00-0
  6
ByBlock
 62
     7
370
    50
100
AcDbLine
 10
393.182956
 20
483.312178
 30
0.0
 11
391.982954
 21
483.312178
 31
0.0
  0
LINE
  5
1A8
330
1F
100
AcDbEntity
  8
LC-001-100-D00-0
  6
ByBlock
 62
     7
370
    50
100
AcDbLine
 10
393.182956
 20
485.312175
 30
0.0
 11
393.182956
 21
483.312178
 31
0.0
  0
LINE
  5
1A9
330
1F
100
AcDbEntity
  8
LC-001-100-D00-0
  6
ByBlock
 62
     7
370
    50
100
AcDbLine
 10
391.982954
 20
485.312175
 30
0.0
 11
393.182956
 21
485.312175
 31
0.0
  0
LINE
  5
1AA
330
1F
100
AcDbEntity
  8
LC-001-100-D00-0
  6
ByBlock
 62
     7
370
    50
100
AcDbLine
 10
391.982954
 20
485.312175
 30
0.0
 11
391.982954
 21
486.512172
 31
0.0
  0
LINE
  5
1AB
330
1F
100
AcDbEntity
  8
LC-001-100-D00-0
  6
ByBlock
 62
     7
370
    50
100
AcDbLine
 10
393.182956
 20
486.512172
 30
0.0
 11
391.982954
 21
486.512172
 31
0.0
  0
LINE
  5
1AC
330
1F
100
AcDbEntity
  8
LC-001-100-D00-0
  6
ByBlock
 62
     7
370
    50
100
AcDbLine
 10
393.182956
 20
488.512177
 30
0.0
 11
393.182956
 21
486.512172
 31
0.0
  0
LINE
  5
1AD
330
1F
100
AcDbEntity
  8
LC-001-100-D00-0
  6
ByBlock
 62
     7
370
    50
100
AcDbLine
 10
391.982954
 20
488.512177
 30
0.0
 11
393.182956
 21
488.512177
 31
0.0
  0
LINE
  5
1AE
330
1F
100
AcDbEntity
  8
LC-001-100-D00-0
  6
ByBlock
 62
     7
370
    50
100
AcDbLine
 10
391.982954
 20
488.512177
 30
0.0
 11
391.982954
 21
489.712174
 31
0.0
  0
LINE
  5
1AF
330
1F
100
AcDbEntity
  8
LC-001-100-D00-0
  6
ByBlock
 62
     7
370
    50
100
AcDbLine
 10
393.182956
 20
489.712174
 30
0.0
 11
391.982954
 21
489.712174
 31
0.0
  0
LINE
  5
1B0
330
1F
100
AcDbEntity
  8
LC-001-100-D00-0
  6
ByBlock
 62
     7
370
    50
100
AcDbLine
 10
393.182956
 20
491.712171
 30
0.0
 11
393.182956
 21
489.712174
 31
0.0
  0
LINE
  5
1B1
330
1F
100
AcDbEntity
  8
LC-001-100-D00-0
  6
ByBlock
 62
     7
370
    50
100
AcDbLine
 10
391.982954
 20
491.712171
 30
0.0
 11
393.182956
 21
491.712171
 31
0.0
  0
LINE
  5
1B2
330
1F
100
AcDbEntity
  8
LC-001-100-D00-0
  6
ByBlock
 62
     7
370
    50
100
AcDbLine
 10
391.982954
 20
491.712171
 30
0.0
 11
391.982954
 21
492.912176
 31
0.0
  0
LINE
  5
1B3
330
1F
100
AcDbEntity
  8
LC-001-100-D00-0
  6
ByBlock
 62
     7
370
    50
100
AcDbLine
 10
393.182956
 20
492.912176
 30
0.0
 11
391.982954
 21
492.912176
 31
0.0
  0
LINE
  5
1B4
330
1F
100
AcDbEntity
  8
LC-001-100-D00-0
  6
ByBlock
 62
     7
370
    50
100
AcDbLine
 10
393.182956
 20
494.912173
 30
0.0
 11
393.182956
 21
492.912176
 31
0.0
  0
LINE
  5
1B5
330
1F
100
AcDbEntity
  8
LC-001-100-D00-0
  6
ByBlock
 62
     7
370
    50
100
AcDbLine
 10
391.982954
 20
494.912173
 30
0.0
 11
393.182956
 21
494.912173
 31
0.0
  0
LINE
  5
1B6
330
1F
100
AcDbEntity
  8
LC-001-100-D00-0
  6
ByBlock
 62
     7
370
    50
100
AcDbLine
 10
391.982954
 20
494.912173
 30
0.0
 11
391.982954
 21
496.712174
 31
0.0
  0
LINE
  5
1B7
330
1F
100
AcDbEntity
  8
LC-001-100-D00-0
  6
ByBlock
 62
     7
370
    50
100
AcDbLine
 10
391.982954
 20
496.712174
 30
0.0
 11
390.482955
 21
496.712174
 31
0.0
  0
ARC
  5
1B8
330
1F
100
AcDbEntity
  8
LC-001-100-D00-0
  6
ByBlock
 62
     7
370
    50
100
AcDbCircle
 10
392.682955
 20
501.412174
 30
0.0
 40
1.0
100
AcDbArc
 50
90.0
 51
180.0
  0
LINE
  5
1B9
330
1F
100
AcDbEntity
  8
LC-001-100-D00-0
  6
ByBlock
 62
     7
370
    50
100
AcDbLine
 10
393.182956
 20
502.412173
 30
0.0
 11
392.682955
 21
502.412173
 31
0.0
  0
ARC
  5
1BA
330
1F
100
AcDbEntity
  8
LC-001-100-D00-0
  6
ByBlock
 62
     7
370
    50
100
AcDbCircle
 10
393.182955
 20
501.412174
 30
0.0
 40
1.0
100
AcDbArc
 50
0.0
 51
90.0
  0
LINE
  5
1BB
330
1F
100
AcDbEntity
  8
LC-001-100-D00-0
  6
ByBlock
 62
     7
370
    50
100
AcDbLine
 10
394.982957
 20
495.712172
 30
0.0
 11
394.982957
 21
496.780801
 31
0.0
  0
LINE
  5
1BC
330
1F
100
AcDbEntity
  8
LC-001-100-D00-0
  6
ByBlock
 62
     7
370
    50
100
AcDbLine
 10
394.982957
 20
495.712172
 30
0.0
 11
393.482957
 21
495.712172
 31
0.0
  0
LINE
  5
1BD
330
1F
100
AcDbEntity
  8
LC-001-100-D00-0
  6
ByBlock
 62
     7
370
    50
100
AcDbLine
 10
393.482957
 20
466.112174
 30
0.0
 11
393.482957
 21
495.712172
 31
0.0
  0
LINE
  5
1BE
330
1F
100
AcDbEntity
  8
LC-001-100-D00-0
  6
ByBlock
 62
     7
370
    50
100
AcDbLine
 10
391.982954
 20
466.112174
 30
0.0
 11
393.482957
 21
466.112174
 31
0.0
  0
LINE
  5
1BF
330
1F
100
AcDbEntity
  8
LC-001-100-D00-0
  6
ByBlock
 62
     7
370
    50
100
AcDbLine
 10
391.982954
 20
466.112174
 30
0.0
 11
391.982954
 21
467.312175
 31
0.0
  0
LINE
  5
1C0
330
1F
100
AcDbEntity
  8
LC-001-100-D00-0
  6
ByBlock
 62
     7
370
    50
100
AcDbLine
 10
393.182956
 20
467.312175
 30
0.0
 11
391.982954
 21
467.312175
 31
0.0
  0
LINE
  5
1C1
330
1F
100
AcDbEntity
  8
LC-001-100-D00-0
  6
ByBlock
 62
     7
370
    50
100
AcDbLine
 10
393.182956
 20
469.312176
 30
0.0
 11
393.182956
 21
467.312175
 31
0.0
  0
LINE
  5
1C2
330
1F
100
AcDbEntity
  8
LC-001-100-D00-0
  6
ByBlock
 62
     7
370
    50
100
AcDbLine
 10
391.982954
 20
469.312176
 30
0.0
 11
393.182956
 21
469.312176
 31
0.0
  0
LINE
  5
1C3
330
1F
100
AcDbEntity
  8
LC-001-100-D00-0
  6
ByBlock
 62
     7
370
    50
100
AcDbLine
 10
391.982954
 20
469.312176
 30
0.0
 11
391.982954
 21
470.512174
 31
0.0
  0
LINE
  5
1C4
330
1F
100
AcDbEntity
  8
LC-001-100-D00-0
  6
ByBlock
 62
     7
370
    50
100
AcDbLine
 10
393.182956
 20
470.512174
 30
0.0
 11
391.982954
 21
470.512174
 31
0.0
  0
LINE
  5
1C5
330
1F
100
AcDbEntity
  8
LC-001-100-D00-0
  6
ByBlock
 62
     7
370
    50
100
AcDbLine
 10
393.182956
 20
472.512174
 30
0.0
 11
393.182956
 21
470.512174
 31
0.0
  0
LINE
  5
1C6
330
1F
100
AcDbEntity
  8
LC-001-100-D00-0
  6
ByBlock
 62
     7
370
    50
100
AcDbLine
 10
391.982954
 20
472.512174
 30
0.0
 11
393.182956
 21
472.512174
 31
0.0
  0
LINE
  5
1C7
330
1F
100
AcDbEntity
  8
LC-001-100-D00-0
  6
ByBlock
 62
     7
370
    50
100
AcDbLine
 10
391.982954
 20
472.512174
 30
0.0
 11
391.982954
 21
473.712176
 31
0.0
  0
LINE
  5
1C8
330
1F
100
AcDbEntity
  8
LC-001-100-D00-0
  6
ByBlock
 62
     7
370
    50
100
AcDbLine
 10
393.182956
 20
473.712176
 30
0.0
 11
391.982954
 21
473.712176
 31
0.0
  0
LINE
  5
1C9
330
1F
100
AcDbEntity
  8
LC-001-100-D00-0
  6
ByBlock
 62
     7
370
    50
100
AcDbLine
 10
393.182956
 20
475.712176
 30
0.0
 11
393.182956
 21
473.712176
 31
0.0
  0
LINE
  5
1CA
330
1F
100
AcDbEntity
  8
LC-001-100-D00-0
  6
ByBlock
 62
     7
370
    50
100
AcDbLine
 10
391.982954
 20
475.712176
 30
0.0
 11
393.182956
 21
475.712176
 31
0.0
  0
LINE
  5
1CB
330
1F
100
AcDbEntity
  8
LC-001-100-D00-0
  6
ByBlock
 62
     7
370
    50
100
AcDbLine
 10
391.982954
 20
475.712176
 30
0.0
 11
391.982954
 21
476.912174
 31
0.0
  0
LINE
  5
1CC
330
1F
100
AcDbEntity
  8
LC-001-100-D00-0
  6
ByBlock
 62
     7
370
    50
100
AcDbLine
 10
393.182956
 20
476.912174
 30
0.0
 11
391.982954
 21
476.912174
 31
0.0
  0
LINE
  5
1CD
330
1F
100
AcDbEntity
  8
LC-001-100-D00-0
  6
ByBlock
 62
     7
370
    50
100
AcDbLine
 10
393.182956
 20
478.912178
 30
0.0
 11
393.182956
 21
476.912174
 31
0.0
  0
LINE
  5
1CE
330
1F
100
AcDbEntity
  8
LC-001-100-D00-0
  6
ByBlock
 62
     7
370
    50
100
AcDbLine
 10
391.982954
 20
478.912178
 30
0.0
 11
393.182956
 21
478.912178
 31
0.0
  0
LINE
  5
1CF
330
1F
100
AcDbEntity
  8
LC-001-100-D00-0
  6
ByBlock
 62
     7
370
    50
100
AcDbLine
 10
391.982954
 20
478.912178
 30
0.0
 11
391.982954
 21
480.112176
 31
0.0
  0
LINE
  5
1D0
330
1F
100
AcDbEntity
  8
LC-001-100-D00-0
  6
ByBlock
 62
     7
370
    50
100
AcDbLine
 10
393.182956
 20
480.112176
 30
0.0
 11
391.982954
 21
480.112176
 31
0.0
  0
LINE
  5
1D1
330
1F
100
AcDbEntity
  8
LC-001-100-D00-0
  6
ByBlock
 62
     7
370
    50
100
AcDbLine
 10
393.182956
 20
482.112172
 30
0.0
 11
393.182956
 21
480.112176
 31
0.0
  0
LINE
  5
1D2
330
1F
100
AcDbEntity
  8
LC-001-100-D00-0
  6
ByBlock
 62
     7
370
    50
100
AcDbLine
 10
391.982954
 20
482.112172
 30
0.0
 11
393.182956
 21
482.112172
 31
0.0
  0
LINE
  5
1D3
330
1F
100
AcDbEntity
  8
LC-001-100-D00-0
  6
ByBlock
 62
     7
370
    50
100
AcDbLine
 10
394.182954
 20
497.912172
 30
0.0
 11
394.182954
 21
501.412171
 31
0.0
  0
ARC
  5
1D4
330
1F
100
AcDbEntity
  8
LC-001-100-D00-0
  6
ByBlock
 62
     7
370
    50
100
AcDbCircle
 10
390.482955
 20
497.912174
 30
0.0
 40
1.200000000000046
100
AcDbArc
 50
270.0
 51
0.0
  0
LINE
  5
1D5
330
1F
100
AcDbEntity
  8
LC-001-100-D00-0
  6
ByBlock
 62
     7
370
    50
100
AcDbLine
 10
391.682957
 20
497.912172
 30
0.0
 11
391.682957
 21
501.412171
 31
0.0
  0
ARC
  5
1D6
330
1F
100
AcDbEntity
  8
LC-001-100-D00-0
  6
ByBlock
 62
     7
370
    50
100
AcDbCircle
 10
395.382955
 20
497.912174
 30
0.0
 40
1.200000000000046
100
AcDbArc
 50
180.0
 51
250.528779
  0
LINE
  5
1D7
330
1F
100
AcDbEntity
  8
LC-001-100-D00-0
  6
ByBlock
 62
     7
370
    50
100
AcDbLine
 10
488.782954
 20
472.512174
 30
0.0
 11
489.982955
 21
472.512174
 31
0.0
  0
LINE
  5
1D8
330
1F
100
AcDbEntity
  8
LC-001-100-D00-0
  6
ByBlock
 62
     7
370
    50
100
AcDbLine
 10
488.782954
 20
472.512174
 30
0.0
 11
488.782954
 21
470.512174
 31
0.0
  0
LINE
  5
1D9
330
1F
100
AcDbEntity
  8
LC-001-100-D00-0
  6
ByBlock
 62
     7
370
    50
100
AcDbLine
 10
489.982955
 20
470.512174
 30
0.0
 11
488.782954
 21
470.512174
 31
0.0
  0
LINE
  5
1DA
330
1F
100
AcDbEntity
  8
LC-001-100-D00-0
  6
ByBlock
 62
     7
370
    50
100
AcDbLine
 10
489.982955
 20
470.512174
 30
0.0
 11
489.982955
 21
469.312176
 31
0.0
  0
LINE
  5
1DB
330
1F
100
AcDbEntity
  8
LC-001-100-D00-0
  6
ByBlock
 62
     7
370
    50
100
AcDbLine
 10
488.782954
 20
469.312176
 30
0.0
 11
489.982955
 21
469.312176
 31
0.0
  0
LINE
  5
1DC
330
1F
100
AcDbEntity
  8
LC-001-100-D00-0
  6
ByBlock
 62
     7
370
    50
100
AcDbLine
 10
488.782954
 20
469.312176
 30
0.0
 11
488.782954
 21
467.312175
 31
0.0
  0
LINE
  5
1DD
330
1F
100
AcDbEntity
  8
LC-001-100-D00-0
  6
ByBlock
 62
     7
370
    50
100
AcDbLine
 10
489.982955
 20
467.312175
 30
0.0
 11
488.782954
 21
467.312175
 31
0.0
  0
LINE
  5
1DE
330
1F
100
AcDbEntity
  8
LC-001-100-D00-0
  6
ByBlock
 62
     7
370
    50
100
AcDbLine
 10
489.982955
 20
467.312175
 30
0.0
 11
489.982955
 21
466.112174
 31
0.0
  0
LINE
  5
1DF
330
1F
100
AcDbEntity
  8
LC-001-100-D00-0
  6
ByBlock
 62
     7
370
    50
100
AcDbLine
 10
488.482956
 20
466.112174
 30
0.0
 11
489.982955
 21
466.112174
 31
0.0
  0
LINE
  5
1E0
330
1F
100
AcDbEntity
  8
LC-001-100-D00-0
  6
ByBlock
 62
     7
370
    50
100
AcDbLine
 10
488.482956
 20
495.712172
 30
0.0
 11
488.482956
 21
466.112174
 31
0.0
  0
LINE
  5
1E1
330
1F
100
AcDbEntity
  8
LC-001-100-D00-0
  6
ByBlock
 62
     7
370
    50
100
AcDbLine
 10
488.482956
 20
495.712172
 30
0.0
 11
486.982957
 21
495.712172
 31
0.0
  0
LINE
  5
1E2
330
1F
100
AcDbEntity
  8
LC-001-100-D00-0
  6
ByBlock
 62
     7
370
    50
100
AcDbLine
 10
486.982957
 20
496.780801
 30
0.0
 11
486.982957
 21
495.712172
 31
0.0
  0
ARC
  5
1E3
330
1F
100
AcDbEntity
  8
LC-001-100-D00-0
  6
ByBlock
 62
     7
370
    50
100
AcDbCircle
 10
488.782955
 20
501.412174
 30
0.0
 40
1.0
100
AcDbArc
 50
90.0
 51
180.0
  0
LINE
  5
1E4
330
1F
100
AcDbEntity
  8
LC-001-100-D00-0
  6
ByBlock
 62
     7
370
    50
100
AcDbLine
 10
489.282955
 20
502.412173
 30
0.0
 11
488.782954
 21
502.412173
 31
0.0
  0
ARC
  5
1E5
330
1F
100
AcDbEntity
  8
LC-001-100-D00-0
  6
ByBlock
 62
     7
370
    50
100
AcDbCircle
 10
489.282955
 20
501.412174
 30
0.0
 40
1.000000000000057
100
AcDbArc
 50
0.0
 51
90.0
  0
LINE
  5
1E6
330
1F
100
AcDbEntity
  8
LC-001-100-D00-0
  6
ByBlock
 62
     7
370
    50
100
AcDbLine
 10
491.482955
 20
496.712174
 30
0.0
 11
489.982955
 21
496.712174
 31
0.0
  0
LINE
  5
1E7
330
1F
100
AcDbEntity
  8
LC-001-100-D00-0
  6
ByBlock
 62
     7
370
    50
100
AcDbLine
 10
489.982955
 20
496.712174
 30
0.0
 11
489.982955
 21
494.912173
 31
0.0
  0
LINE
  5
1E8
330
1F
100
AcDbEntity
  8
LC-001-100-D00-0
  6
ByBlock
 62
     7
370
    50
100
AcDbLine
 10
488.782954
 20
494.912173
 30
0.0
 11
489.982955
 21
494.912173
 31
0.0
  0
LINE
  5
1E9
330
1F
100
AcDbEntity
  8
LC-001-100-D00-0
  6
ByBlock
 62
     7
370
    50
100
AcDbLine
 10
488.782954
 20
494.912173
 30
0.0
 11
488.782954
 21
492.912176
 31
0.0
  0
LINE
  5
1EA
330
1F
100
AcDbEntity
  8
LC-001-100-D00-0
  6
ByBlock
 62
     7
370
    50
100
AcDbLine
 10
489.982955
 20
492.912176
 30
0.0
 11
488.782954
 21
492.912176
 31
0.0
  0
LINE
  5
1EB
330
1F
100
AcDbEntity
  8
LC-001-100-D00-0
  6
ByBlock
 62
     7
370
    50
100
AcDbLine
 10
489.982955
 20
492.912176
 30
0.0
 11
489.982955
 21
491.712171
 31
0.0
  0
LINE
  5
1EC
330
1F
100
AcDbEntity
  8
LC-001-100-D00-0
  6
ByBlock
 62
     7
370
    50
100
AcDbLine
 10
488.782954
 20
491.712171
 30
0.0
 11
489.982955
 21
491.712171
 31
0.0
  0
LINE
  5
1ED
330
1F
100
AcDbEntity
  8
LC-001-100-D00-0
  6
ByBlock
 62
     7
370
    50
100
AcDbLine
 10
488.782954
 20
491.712171
 30
0.0
 11
488.782954
 21
489.712174
 31
0.0
  0
LINE
  5
1EE
330
1F
100
AcDbEntity
  8
LC-001-100-D00-0
  6
ByBlock
 62
     7
370
    50
100
AcDbLine
 10
489.982955
 20
489.712174
 30
0.0
 11
488.782954
 21
489.712174
 31
0.0
  0
LINE
  5
1EF
330
1F
100
AcDbEntity
  8
LC-001-100-D00-0
  6
ByBlock
 62
     7
370
    50
100
AcDbLine
 10
489.982955
 20
489.712174
 30
0.0
 11
489.982955
 21
488.512177
 31
0.0
  0
LINE
  5
1F0
330
1F
100
AcDbEntity
  8
LC-001-100-D00-0
  6
ByBlock
 62
     7
370
    50
100
AcDbLine
 10
488.782954
 20
488.512177
 30
0.0
 11
489.982955
 21
488.512177
 31
0.0
  0
LINE
  5
1F1
330
1F
100
AcDbEntity
  8
LC-001-100-D00-0
  6
ByBlock
 62
     7
370
    50
100
AcDbLine
 10
488.782954
 20
488.512177
 30
0.0
 11
488.782954
 21
486.512172
 31
0.0
  0
LINE
  5
1F2
330
1F
100
AcDbEntity
  8
LC-001-100-D00-0
  6
ByBlock
 62
     7
370
    50
100
AcDbLine
 10
489.982955
 20
486.512172
 30
0.0
 11
488.782954
 21
486.512172
 31
0.0
  0
LINE
  5
1F3
330
1F
100
AcDbEntity
  8
LC-001-100-D00-0
  6
ByBlock
 62
     7
370
    50
100
AcDbLine
 10
489.982955
 20
486.512172
 30
0.0
 11
489.982955
 21
485.312175
 31
0.0
  0
LINE
  5
1F4
330
1F
100
AcDbEntity
  8
LC-001-100-D00-0
  6
ByBlock
 62
     7
370
    50
100
AcDbLine
 10
488.782954
 20
485.312175
 30
0.0
 11
489.982955
 21
485.312175
 31
0.0
  0
LINE
  5
1F5
330
1F
100
AcDbEntity
  8
LC-001-100-D00-0
  6
ByBlock
 62
     7
370
    50
100
AcDbLine
 10
488.782954
 20
485.312175
 30
0.0
 11
488.782954
 21
483.312178
 31
0.0
  0
LINE
  5
1F6
330
1F
100
AcDbEntity
  8
LC-001-100-D00-0
  6
ByBlock
 62
     7
370
    50
100
AcDbLine
 10
489.982955
 20
483.312178
 30
0.0
 11
488.782954
 21
483.312178
 31
0.0
  0
LINE
  5
1F7
330
1F
100
AcDbEntity
  8
LC-001-100-D00-0
  6
ByBlock
 62
     7
370
    50
100
AcDbLine
 10
489.982955
 20
483.312178
 30
0.0
 11
489.982955
 21
482.112172
 31
0.0
  0
LINE
  5
1F8
330
1F
100
AcDbEntity
  8
LC-001-100-D00-0
  6
ByBlock
 62
     7
370
    50
100
AcDbLine
 10
488.782954
 20
482.112172
 30
0.0
 11
489.982955
 21
482.112172
 31
0.0
  0
LINE
  5
1F9
330
1F
100
AcDbEntity
  8
LC-001-100-D00-0
  6
ByBlock
 62
     7
370
    50
100
AcDbLine
 10
488.782954
 20
482.112172
 30
0.0
 11
488.782954
 21
480.112176
 31
0.0
  0
LINE
  5
1FA
330
1F
100
AcDbEntity
  8
LC-001-100-D00-0
  6
ByBlock
 62
     7
370
    50
100
AcDbLine
 10
489.982955
 20
480.112176
 30
0.0
 11
488.782954
 21
480.112176
 31
0.0
  0
LINE
  5
1FB
330
1F
100
AcDbEntity
  8
LC-001-100-D00-0
  6
ByBlock
 62
     7
370
    50
100
AcDbLine
 10
489.982955
 20
480.112176
 30
0.0
 11
489.982955
 21
478.912178
 31
0.0
  0
LINE
  5
1FC
330
1F
100
AcDbEntity
  8
LC-001-100-D00-0
  6
ByBlock
 62
     7
370
    50
100
AcDbLine
 10
488.782954
 20
478.912178
 30
0.0
 11
489.982955
 21
478.912178
 31
0.0
  0
LINE
  5
1FD
330
1F
100
AcDbEntity
  8
LC-001-100-D00-0
  6
ByBlock
 62
     7
370
    50
100
AcDbLine
 10
488.782954
 20
478.912178
 30
0.0
 11
488.782954
 21
476.912174
 31
0.0
  0
LINE
  5
1FE
330
1F
100
AcDbEntity
  8
LC-001-100-D00-0
  6
ByBlock
 62
     7
370
    50
100
AcDbLine
 10
489.982955
 20
476.912174
 30
0.0
 11
488.782954
 21
476.912174
 31
0.0
  0
LINE
  5
1FF
330
1F
100
AcDbEntity
  8
LC-001-100-D00-0
  6
ByBlock
 62
     7
370
    50
100
AcDbLine
 10
489.982955
 20
476.912174
 30
0.0
 11
489.982955
 21
475.712176
 31
0.0
  0
LINE
  5
200
330
1F
100
AcDbEntity
  8
LC-001-100-D00-0
  6
ByBlock
 62
     7
370
    50
100
AcDbLine
 10
488.782954
 20
475.712176
 30
0.0
 11
489.982955
 21
475.712176
 31
0.0
  0
LINE
  5
201
330
1F
100
AcDbEntity
  8
LC-001-100-D00-0
  6
ByBlock
 62
     7
370
    50
100
AcDbLine
 10
488.782954
 20
475.712176
 30
0.0
 11
488.782954
 21
473.712176
 31
0.0
  0
LINE
  5
202
330
1F
100
AcDbEntity
  8
LC-001-100-D00-0
  6
ByBlock
 62
     7
370
    50
100
AcDbLine
 10
489.982955
 20
473.712176
 30
0.0
 11
488.782954
 21
473.712176
 31
0.0
  0
LINE
  5
203
330
1F
100
AcDbEntity
  8
LC-001-100-D00-0
  6
ByBlock
 62
     7
370
    50
100
AcDbLine
 10
489.982955
 20
473.712176
 30
0.0
 11
489.982955
 21
472.512174
 31
0.0
  0
ARC
  5
204
330
1F
100
AcDbEntity
  8
LC-001-100-D00-0
  6
ByBlock
 62
     7
370
    50
100
AcDbCircle
 10
491.482955
 20
497.912174
 30
0.0
 40
1.200000000000046
100
AcDbArc
 50
180.0
 51
270.0
  0
LINE
  5
205
330
1F
100
AcDbEntity
  8
LC-001-100-D00-0
  6
ByBlock
 62
     7
370
    50
100
AcDbLine
 10
490.282957
 20
501.412171
 30
0.0
 11
490.282957
 21
497.912172
 31
0.0
  0
LINE
  5
206
330
1F
100
AcDbEntity
  8
LC-001-100-D00-0
  6
ByBlock
 62
     7
370
    50
100
AcDbLine
 10
487.782955
 20
501.412171
 30
0.0
 11
487.782955
 21
497.912172
 31
0.0
  0
ARC
  5
207
330
1F
100
AcDbEntity
  8
LC-001-100-D00-0
  6
ByBlock
 62
     7
370
    50
100
AcDbCircle
 10
486.582955
 20
497.912174
 30
0.0
 40
1.20000000000012
100
AcDbArc
 50
289.471221
 51
0.0
  0
LINE
  5
208
330
1F
100
AcDbEntity
  8
LC-001-100-D00-0
  6
ByBlock
 62
     7
370
    50
100
AcDbLine
 10
486.982957
 20
495.712172
 30
0.0
 11
394.982957
 21
495.712172
 31
0.0
  0
LINE
  5
209
330
1F
100
AcDbEntity
  8
LC-001-100-D00-0
  6
ByBlock
 62
     7
370
    50
100
AcDbLine
 10
434.929857
 20
496.712174
 30
0.0
 11
395.382956
 21
496.712174
 31
0.0
  0
INSERT
  5
217
330
1F
100
AcDbEntity
  8
LC-001-100-D00-0
  6
ByBlock
 62
     7
370
    50
100
AcDbBlockReference
  2
POLY6
 10
0.0
 20
0.0
 30
0.0
  0
LINE
  5
218
330
1F
100
AcDbEntity
  8
LC-001-100-D00-0
  6
ByBlock
 62
     7
370
    50
100
AcDbLine
 10
486.582954
 20
496.712174
 30
0.0
 11
447.036054
 21
496.712174
 31
0.0
  0
INSERT
  5
224
330
1F
100
AcDbEntity
  8
LC-001-100-D00-0
  6
ByBlock
 62
     7
370
    50
100
AcDbBlockReference
  2
POLY7
 10
0.0
 20
0.0
 30
0.0
  0
INSERT
  5
230
330
1F
100
AcDbEntity
  8
LC-001-100-D00-0
  6
ByBlock
 62
     7
370
    50
100
AcDbBlockReference
  2
POLY8
 10
0.0
 20
0.0
 30
0.0
  0
LINE
  5
231
330
1F
100
AcDbEntity
  8
LC-001-100-D00-0
  6
ByBlock
 62
     7
370
    50
100
AcDbLine
 10
393.482957
 20
466.112174
 30
0.0
 11
394.426964
 21
466.112174
 31
0.0
  0
LINE
  5
232
330
1F
100
AcDbEntity
  8
LC-001-100-D00-0
  6
ByBlock
 62
     7
370
    50
100
AcDbLine
 10
487.538945
 20
466.112174
 30
0.0
 11
488.482956
 21
466.112174
 31
0.0
  0
LINE
  5
233
330
1F
100
AcDbEntity
  8
LC-001-100-D00-0
  6
ByBlock
 62
     7
370
    50
100
AcDbLine
 10
487.062987
 20
466.112174
 30
0.0
 11
487.538945
 21
466.112174
 31
0.0
  0
LINE
  5
234
330
1F
100
AcDbEntity
  8
LC-001-100-D00-0
  6
ByBlock
 62
     7
370
    50
100
AcDbLine
 10
394.426964
 20
466.112174
 30
0.0
 11
394.902922
 21
466.112174
 31
0.0
  0
LINE
  5
235
330
1F
100
AcDbEntity
  8
LC-001-100-D00-0
  6
ByBlock
 62
     7
370
    50
100
AcDbLine
 10
468.165312
 20
466.112174
 30
0.0
 11
487.062987
 21
466.112174
 31
0.0
  0
LINE
  5
236
330
1F
100
AcDbEntity
  8
LC-001-100-D00-0
  6
ByBlock
 62
     7
370
    50
100
AcDbLine
 10
394.902922
 20
466.112174
 30
0.0
 11
413.800597
 21
466.112174
 31
0.0
  0
LINE
  5
237
330
1F
100
AcDbEntity
  8
LC-001-100-D00-0
  6
ByBlock
 62
     7
370
    50
100
AcDbLine
 10
466.64419
 20
466.112174
 30
0.0
 11
468.165312
 21
466.112174
 31
0.0
  0
LINE
  5
238
330
1F
100
AcDbEntity
  8
LC-001-100-D00-0
  6
ByBlock
 62
     7
370
    50
100
AcDbLine
 10
413.800597
 20
466.112174
 30
0.0
 11
415.321719
 21
466.112174
 31
0.0
  0
LINE
  5
239
330
1F
100
AcDbEntity
  8
LC-001-100-D00-0
  6
ByBlock
 62
     7
370
    50
100
AcDbLine
 10
415.321719
 20
466.112174
 30
0.0
 11
433.001857
 21
466.112174
 31
0.0
  0
LINE
  5
23A
330
1F
100
AcDbEntity
  8
LC-001-100-D00-0
  6
ByBlock
 62
     7
370
    50
100
AcDbLine
 10
448.964054
 20
466.112174
 30
0.0
 11
466.64419
 21
466.112174
 31
0.0
  0
LINE
  5
23B
330
1F
100
AcDbEntity
  8
LC-001-100-D00-0
  6
ByBlock
 62
     7
370
    50
100
AcDbLine
 10
395.482954
 20
497.412171
 30
0.0
 11
394.882955
 21
497.412171
 31
0.0
  0
ARC
  5
23C
330
1F
100
AcDbEntity
  8
LC-001-100-D00-0
  6
ByBlock
 62
     7
370
    50
100
AcDbCircle
 10
488.782955
 20
501.412174
 30
0.0
 40
1.700000000000046
100
AcDbArc
 50
90.0
 51
180.0
  0
LINE
  5
23D
330
1F
100
AcDbEntity
  8
LC-001-100-D00-0
  6
ByBlock
 62
     7
370
    50
100
AcDbLine
 10
488.782954
 20
503.112178
 30
0.0
 11
489.282955
 21
503.112178
 31
0.0
  0
ARC
  5
23E
330
1F
100
AcDbEntity
  8
LC-001-100-D00-0
  6
ByBlock
 62
     7
370
    50
100
AcDbCircle
 10
489.282955
 20
501.412174
 30
0.0
 40
1.700000000000046
100
AcDbArc
 50
0.0
 51
90.0
  0
LINE
  5
23F
330
1F
100
AcDbEntity
  8
LC-001-100-D00-0
  6
ByBlock
 62
     7
370
    50
100
AcDbLine
 10
490.982954
 20
501.412171
 30
0.0
 11
490.982954
 21
498.530205
 31
0.0
  0
ARC
  5
240
330
1F
100
AcDbEntity
  8
LC-001-100-D00-0
  6
ByBlock
 62
     7
370
    50
100
AcDbCircle
 10
492.482955
 20
498.530208
 30
0.0
 40
1.5
100
AcDbArc
 50
180.0
 51
228.189685
  0
LINE
  5
241
330
1F
100
AcDbEntity
  8
LC-001-100-D00-0
  6
ByBlock
 62
     7
370
    50
100
AcDbLine
 10
491.482955
 20
497.412171
 30
0.0
 11
491.482955
 21
496.712174
 31
0.0
  0
LINE
  5
242
330
1F
100
AcDbEntity
  8
LC-001-100-D00-0
  6
ByBlock
 62
     7
370
    50
100
AcDbLine
 10
487.782955
 20
498.412173
 30
0.0
 11
487.782955
 21
501.412171
 31
0.0
  0
ARC
  5
243
330
1F
100
AcDbEntity
  8
LC-001-100-D00-0
  6
ByBlock
 62
     7
370
    50
100
AcDbCircle
 10
486.082955
 20
498.412174
 30
0.0
 40
1.700000000000005
100
AcDbArc
 50
306.031879
 51
0.0
  0
LINE
  5
244
330
1F
100
AcDbEntity
  8
LC-001-100-D00-0
  6
ByBlock
 62
     7
370
    50
100
AcDbLine
 10
487.082955
 20
497.037399
 30
0.0
 11
487.082955
 21
497.412171
 31
0.0
  0
LINE
  5
245
330
1F
100
AcDbEntity
  8
LC-001-100-D00-0
  6
ByBlock
 62
     7
370
    50
100
AcDbLine
 10
487.082955
 20
497.412171
 30
0.0
 11
487.082955
 21
501.412171
 31
0.0
  0
LINE
  5
246
330
1F
100
AcDbEntity
  8
LC-001-100-D00-0
  6
ByBlock
 62
     7
370
    50
100
AcDbLine
 10
394.882955
 20
497.412171
 30
0.0
 11
394.882955
 21
497.037399
 31
0.0
  0
ARC
  5
247
330
1F
100
AcDbEntity
  8
LC-001-100-D00-0
  6
ByBlock
 62
     7
370
    50
100
AcDbCircle
 10
395.882955
 20
498.412174
 30
0.0
 40
1.699999999999989
100
AcDbArc
 50
180.0
 51
233.968121
  0
LINE
  5
248
330
1F
100
AcDbEntity
  8
LC-001-100-D00-0
  6
ByBlock
 62
     7
370
    50
100
AcDbLine
 10
394.182954
 20
501.412171
 30
0.0
 11
394.182954
 21
498.412173
 31
0.0
  0
LINE
  5
249
330
1F
100
AcDbEntity
  8
LC-001-100-D00-0
  6
ByBlock
 62
     7
370
    50
100
AcDbLine
 10
390.482955
 20
496.712174
 30
0.0
 11
390.482955
 21
497.412171
 31
0.0
  0
ARC
  5
24A
330
1F
100
AcDbEntity
  8
LC-001-100-D00-0
  6
ByBlock
 62
     7
370
    50
100
AcDbCircle
 10
389.482955
 20
498.530208
 30
0.0
 40
1.499999999999899
100
AcDbArc
 50
311.810315
 51
0.0
  0
LINE
  5
24B
330
1F
100
AcDbEntity
  8
LC-001-100-D00-0
  6
ByBlock
 62
     7
370
    50
100
AcDbLine
 10
390.982956
 20
498.530205
 30
0.0
 11
390.982956
 21
501.412171
 31
0.0
  0
ARC
  5
24C
330
1F
100
AcDbEntity
  8
LC-001-100-D00-0
  6
ByBlock
 62
     7
370
    50
100
AcDbCircle
 10
392.682955
 20
501.412174
 30
0.0
 40
1.700000000000046
100
AcDbArc
 50
90.0
 51
180.0
  0
LINE
  5
24D
330
1F
100
AcDbEntity
  8
LC-001-100-D00-0
  6
ByBlock
 62
     7
370
    50
100
AcDbLine
 10
392.682955
 20
503.112178
 30
0.0
 11
393.182956
 21
503.112178
 31
0.0
  0
ARC
  5
24E
330
1F
100
AcDbEntity
  8
LC-001-100-D00-0
  6
ByBlock
 62
     7
370
    50
100
AcDbCircle
 10
393.182955
 20
501.412174
 30
0.0
 40
1.700000000000046
100
AcDbArc
 50
0.0
 51
90.0
  0
LINE
  5
24F
330
1F
100
AcDbEntity
  8
LC-001-100-D00-0
  6
ByBlock
 62
     7
370
    50
100
AcDbLine
 10
394.882955
 20
501.412171
 30
0.0
 11
394.882955
 21
497.412171
 31
0.0
  0
LINE
  5
250
330
1F
100
AcDbEntity
  8
LC-001-100-D00-0
  6
ByBlock
 62
     7
370
    50
100
AcDbLine
 10
427.227592
 20
497.412171
 30
0.0
 11
396.982957
 21
497.412171
 31
0.0
  0
LINE
  5
251
330
1F
100
AcDbEntity
  8
LC-001-100-D00-0
  6
ByBlock
 62
     7
370
    50
100
AcDbLine
 10
484.982956
 20
497.412171
 30
0.0
 11
454.738318
 21
497.412171
 31
0.0
  0
LINE
  5
252
330
1F
100
AcDbEntity
  8
LC-001-100-D00-0
  6
ByBlock
 62
     7
370
    50
100
AcDbLine
 10
487.082955
 20
497.412171
 30
0.0
 11
486.482956
 21
497.412171
 31
0.0
  0
INSERT
  5
264
330
1F
100
AcDbEntity
  8
LC-001-100-D00-0
  6
ByBlock
 62
     7
370
    50
100
AcDbBlockReference
  2
POLY9
 10
0.0
 20
0.0
 30
0.0
  0
LINE
  5
265
330
1F
100
AcDbEntity
  8
LC-001-100-D00-0
  6
ByBlock
 62
     7
370
    50
100
AcDbLine
 10
484.282956
 20
503.112178
 30
0.0
 11
488.782954
 21
503.112178
 31
0.0
  0
LINE
  5
266
330
1F
100
AcDbEntity
  8
LC-001-100-D00-0
  6
ByBlock
 62
     7
370
    50
100
AcDbLine
 10
393.182956
 20
503.112178
 30
0.0
 11
397.682954
 21
503.112178
 31
0.0
  0
LINE
  5
267
330
1F
100
AcDbEntity
  8
LC-001-100-D00-0
  6
ByBlock
 62
     7
370
    50
100
AcDbLine
 10
397.682954
 20
503.112178
 30
0.0
 11
484.282956
 21
503.112178
 31
0.0
  0
LINE
  5
268
330
1F
100
AcDbEntity
  8
LC-001-100-D00-0
  6
ByBlock
 62
     7
370
    50
100
AcDbLine
 10
489.977248
 20
469.121173
 30
0.0
 11
489.977248
 21
469.221174
 31
0.0
  0
LINE
  5
269
330
1F
100
AcDbEntity
  8
LC-001-100-D00-0
  6
ByBlock
 62
     7
370
    50
100
AcDbLine
 10
491.982956
 20
469.221174
 30
0.0
 11
489.977248
 21
469.221174
 31
0.0
  0
LINE
  5
26A
330
1F
100
AcDbEntity
  8
LC-001-100-D00-0
  6
ByBlock
 62
     7
370
    50
100
AcDbLine
 10
491.982956
 20
469.121173
 30
0.0
 11
491.982956
 21
469.221174
 31
0.0
  0
LINE
  5
26B
330
1F
100
AcDbEntity
  8
LC-001-100-D00-0
  6
ByBlock
 62
     7
370
    50
100
AcDbLine
 10
491.982956
 20
469.121173
 30
0.0
 11
489.977248
 21
469.121173
 31
0.0
  0
LINE
  5
26C
330
1F
100
AcDbEntity
  8
LC-001-100-D00-0
  6
ByBlock
 62
     7
370
    50
100
AcDbLine
 10
357.482959
 20
469.121173
 30
0.0
 11
389.982954
 21
469.121173
 31
0.0
  0
LINE
  5
26D
330
1F
100
AcDbEntity
  8
LC-001-100-D00-0
  6
ByBlock
 62
     7
370
    50
100
AcDbLine
 10
357.482959
 20
469.221174
 30
0.0
 11
357.482959
 21
469.121173
 31
0.0
  0
LINE
  5
26E
330
1F
100
AcDbEntity
  8
LC-001-100-D00-0
  6
ByBlock
 62
     7
370
    50
100
AcDbLine
 10
389.982954
 20
469.221174
 30
0.0
 11
357.482959
 21
469.221174
 31
0.0
  0
LINE
  5
26F
330
1F
100
AcDbEntity
  8
LC-001-100-D00-0
  6
ByBlock
 62
     7
370
    50
100
AcDbLine
 10
389.982954
 20
469.221174
 30
0.0
 11
389.982954
 21
469.121173
 31
0.0
  0
LINE
  5
270
330
1F
100
AcDbEntity
  8
LC-001-100-D00-0
  6
ByBlock
 62
     7
370
    50
100
AcDbLine
 10
391.988661
 20
469.221174
 30
0.0
 11
391.988661
 21
469.121173
 31
0.0
  0
LINE
  5
271
330
1F
100
AcDbEntity
  8
LC-001-100-D00-0
  6
ByBlock
 62
     7
370
    50
100
AcDbLine
 10
391.988661
 20
469.121173
 30
0.0
 11
389.982954
 21
469.121173
 31
0.0
  0
LINE
  5
272
330
1F
100
AcDbEntity
  8
LC-001-100-D00-0
  6
ByBlock
 62
     7
370
    50
100
AcDbLine
 10
391.988661
 20
469.221174
 30
0.0
 11
389.982954
 21
469.221174
 31
0.0
  0
LINE
  5
273
330
1F
100
AcDbEntity
  8
LC-001-100-D00-0
  6
ByBlock
 62
     7
370
    50
100
AcDbLine
 10
491.982956
 20
469.121173
 30
0.0
 11
524.482954
 21
469.121173
 31
0.0
  0
LINE
  5
274
330
1F
100
AcDbEntity
  8
LC-001-100-D00-0
  6
ByBlock
 62
     7
370
    50
100
AcDbLine
 10
524.482954
 20
469.221174
 30
0.0
 11
491.982956
 21
469.221174
 31
0.0
  0
LINE
  5
275
330
1F
100
AcDbEntity
  8
LC-001-100-D00-0
  6
ByBlock
 62
     7
370
    50
100
AcDbLine
 10
524.482954
 20
469.121173
 30
0.0
 11
524.482954
 21
469.221174
 31
0.0
  0
LINE
  5
276
330
1F
100
AcDbEntity
  8
LC-001-100-D00-0
  6
ByBlock
 62
     7
370
    50
100
AcDbLine
 10
392.931815
 20
469.221174
 30
0.0
 11
391.988661
 21
469.221174
 31
0.0
  0
LINE
  5
277
330
1F
100
AcDbEntity
  8
LC-001-100-D00-0
  6
ByBlock
 62
     7
370
    50
100
AcDbLine
 10
391.988661
 20
469.121173
 30
0.0
 11
392.931815
 21
469.121173
 31
0.0
  0
LINE
  5
278
330
1F
100
AcDbEntity
  8
LC-001-100-D00-0
  6
ByBlock
 62
     7
370
    50
100
AcDbLine
 10
489.977248
 20
469.221174
 30
0.0
 11
489.034098
 21
469.221174
 31
0.0
  0
LINE
  5
279
330
1F
100
AcDbEntity
  8
LC-001-100-D00-0
  6
ByBlock
 62
     7
370
    50
100
AcDbLine
 10
489.034098
 20
469.121173
 30
0.0
 11
489.977248
 21
469.121173
 31
0.0
  0
LINE
  5
27A
330
1F
100
AcDbEntity
  8
LC-001-100-D00-0
  6
ByBlock
 62
     7
370
    50
100
AcDbLine
 10
393.182956
 20
469.221174
 30
0.0
 11
392.931815
 21
469.221174
 31
0.0
  0
LINE
  5
27B
330
1F
100
AcDbEntity
  8
LC-001-100-D00-0
  6
ByBlock
 62
     7
370
    50
100
AcDbLine
 10
392.931815
 20
469.121173
 30
0.0
 11
393.182956
 21
469.121173
 31
0.0
  0
LINE
  5
27C
330
1F
100
AcDbEntity
  8
LC-001-100-D00-0
  6
ByBlock
 62
     7
370
    50
100
AcDbLine
 10
489.034098
 20
469.221174
 30
0.0
 11
488.782954
 21
469.221174
 31
0.0
  0
LINE
  5
27D
330
1F
100
AcDbEntity
  8
LC-001-100-D00-0
  6
ByBlock
 62
     7
370
    50
100
AcDbLine
 10
488.782954
 20
469.121173
 30
0.0
 11
489.034098
 21
469.121173
 31
0.0
  0
LINE
  5
27E
330
1F
100
AcDbEntity
  8
LC-001-100-D00-0
  6
ByBlock
 62
     7
370
    50
100
AcDbLine
 10
391.988661
 20
469.112176
 30
0.0
 11
391.988661
 21
467.312175
 31
0.0
  0
LINE
  5
27F
330
1F
100
AcDbEntity
  8
LC-001-100-D00-0
  6
ByBlock
 62
     7
370
    50
100
AcDbLine
 10
391.988661
 20
466.112174
 30
0.0
 11
389.982954
 21
466.112174
 31
0.0
  0
LINE
  5
280
330
1F
100
AcDbEntity
  8
LC-001-100-D00-0
  6
ByBlock
 62
     7
370
    50
100
AcDbLine
 10
389.982954
 20
469.112176
 30
0.0
 11
389.982954
 21
466.112174
 31
0.0
  0
LINE
  5
281
330
1F
100
AcDbEntity
  8
LC-001-100-D00-0
  6
ByBlock
 62
     7
370
    50
100
AcDbLine
 10
391.988661
 20
469.112176
 30
0.0
 11
389.982954
 21
469.112176
 31
0.0
  0
LINE
  5
282
330
1F
100
AcDbEntity
  8
LC-001-100-D00-0
  6
ByBlock
 62
     7
370
    50
100
AcDbLine
 10
489.977248
 20
467.312175
 30
0.0
 11
489.977248
 21
469.112176
 31
0.0
  0
LINE
  5
283
330
1F
100
AcDbEntity
  8
LC-001-100-D00-0
  6
ByBlock
 62
     7
370
    50
100
AcDbLine
 10
491.982956
 20
469.112176
 30
0.0
 11
489.977248
 21
469.112176
 31
0.0
  0
LINE
  5
284
330
1F
100
AcDbEntity
  8
LC-001-100-D00-0
  6
ByBlock
 62
     7
370
    50
100
AcDbLine
 10
491.982956
 20
466.112174
 30
0.0
 11
491.982956
 21
469.112176
 31
0.0
  0
LINE
  5
285
330
1F
100
AcDbEntity
  8
LC-001-100-D00-0
  6
ByBlock
 62
     7
370
    50
100
AcDbLine
 10
491.982956
 20
466.112174
 30
0.0
 11
489.977248
 21
466.112174
 31
0.0
  0
LINE
  5
286
330
1F
100
AcDbEntity
  8
LC-001-100-D00-0
  6
ByBlock
 62
     7
370
    50
100
AcDbLine
 10
357.482959
 20
466.112174
 30
0.0
 11
389.982954
 21
466.112174
 31
0.0
  0
LINE
  5
287
330
1F
100
AcDbEntity
  8
LC-001-100-D00-0
  6
ByBlock
 62
     7
370
    50
100
AcDbLine
 10
357.482959
 20
469.112176
 30
0.0
 11
357.482959
 21
466.112174
 31
0.0
  0
LINE
  5
288
330
1F
100
AcDbEntity
  8
LC-001-100-D00-0
  6
ByBlock
 62
     7
370
    50
100
AcDbLine
 10
389.982954
 20
469.112176
 30
0.0
 11
357.482959
 21
469.112176
 31
0.0
  0
LINE
  5
289
330
1F
100
AcDbEntity
  8
LC-001-100-D00-0
  6
ByBlock
 62
     7
370
    50
100
AcDbLine
 10
524.482954
 20
466.112174
 30
0.0
 11
524.482954
 21
469.112176
 31
0.0
  0
LINE
  5
28A
330
1F
100
AcDbEntity
  8
LC-001-100-D00-0
  6
ByBlock
 62
     7
370
    50
100
AcDbLine
 10
491.982956
 20
466.112174
 30
0.0
 11
524.482954
 21
466.112174
 31
0.0
  0
LINE
  5
28B
330
1F
100
AcDbEntity
  8
LC-001-100-D00-0
  6
ByBlock
 62
     7
370
    50
100
AcDbLine
 10
524.482954
 20
469.112176
 30
0.0
 11
491.982956
 21
469.112176
 31
0.0
  0
LINE
  5
28C
330
1F
100
AcDbEntity
  8
LC-001-100-D00-0
  6
ByBlock
 62
     7
370
    50
100
AcDbLine
 10
392.931815
 20
469.112176
 30
0.0
 11
391.988661
 21
469.112176
 31
0.0
  0
LINE
  5
28D
330
1F
100
AcDbEntity
  8
LC-001-100-D00-0
  6
ByBlock
 62
     7
370
    50
100
AcDbLine
 10
489.977248
 20
469.112176
 30
0.0
 11
489.034098
 21
469.112176
 31
0.0
  0
LINE
  5
28E
330
1F
100
AcDbEntity
  8
LC-001-100-D00-0
  6
ByBlock
 62
     7
370
    50
100
AcDbLine
 10
393.182956
 20
469.112176
 30
0.0
 11
392.931815
 21
469.112176
 31
0.0
  0
LINE
  5
28F
330
1F
100
AcDbEntity
  8
LC-001-100-D00-0
  6
ByBlock
 62
     7
370
    50
100
AcDbLine
 10
489.034098
 20
469.112176
 30
0.0
 11
488.782954
 21
469.112176
 31
0.0
  0
INSERT
  5
29D
330
1F
100
AcDbEntity
  8
LC-001-100-D00-0
  6
ByBlock
 62
     7
370
    50
100
AcDbBlockReference
  2
POLY10
 10
0.0
 20
0.0
 30
0.0
  0
LINE
  5
29E
330
1F
100
AcDbEntity
  8
LC-001-100-D00-0
  6
ByBlock
 62
     7
370
    50
100
AcDbLine
 10
440.399622
 20
501.012172
 30
0.0
 11
440.399622
 21
500.912178
 31
0.0
  0
LINE
  5
29F
330
1F
100
AcDbEntity
  8
LC-001-100-D00-0
  6
ByBlock
 62
     7
370
    50
100
AcDbLine
 10
440.958628
 20
501.012172
 30
0.0
 11
440.958628
 21
500.912178
 31
0.0
  0
LINE
  5
2A0
330
1F
100
AcDbEntity
  8
LC-001-100-D00-0
  6
ByBlock
 62
     7
370
    50
100
AcDbLine
 10
441.268664
 20
502.312172
 30
0.0
 11
440.982956
 21
502.312172
 31
0.0
  0
LINE
  5
2A1
330
1F
100
AcDbEntity
  8
LC-001-100-D00-0
  6
ByBlock
 62
     7
370
    50
100
AcDbLine
 10
441.268664
 20
502.412173
 30
0.0
 11
441.268664
 21
502.312172
 31
0.0
  0
LINE
  5
2A2
330
1F
100
AcDbEntity
  8
LC-001-100-D00-0
  6
ByBlock
 62
     7
370
    50
100
AcDbLine
 10
442.001566
 20
502.412173
 30
0.0
 11
441.268664
 21
502.412173
 31
0.0
  0
LINE
  5
2A3
330
1F
100
AcDbEntity
  8
LC-001-100-D00-0
  6
ByBlock
 62
     7
370
    50
100
AcDbLine
 10
442.001566
 20
502.312172
 30
0.0
 11
442.001566
 21
502.412173
 31
0.0
  0
LINE
  5
2A4
330
1F
100
AcDbEntity
  8
LC-001-100-D00-0
  6
ByBlock
 62
     7
370
    50
100
AcDbLine
 10
442.287275
 20
502.312172
 30
0.0
 11
442.001566
 21
502.312172
 31
0.0
  0
LINE
  5
2A5
330
1F
100
AcDbEntity
  8
LC-001-100-D00-0
  6
ByBlock
 62
     7
370
    50
100
AcDbLine
 10
442.287275
 20
502.412173
 30
0.0
 11
442.287275
 21
502.312172
 31
0.0
  0
LINE
  5
2A6
330
1F
100
AcDbEntity
  8
LC-001-100-D00-0
  6
ByBlock
 62
     7
370
    50
100
AcDbLine
 10
443.229283
 20
502.412173
 30
0.0
 11
442.287275
 21
502.412173
 31
0.0
  0
LINE
  5
2A7
330
1F
100
AcDbEntity
  8
LC-001-100-D00-0
  6
ByBlock
 62
     7
370
    50
100
AcDbLine
 10
443.229283
 20
502.412173
 30
0.0
 11
443.229283
 21
502.312172
 31
0.0
  0
LINE
  5
2A8
330
1F
100
AcDbEntity
  8
LC-001-100-D00-0
  6
ByBlock
 62
     7
370
    50
100
AcDbLine
 10
443.514992
 20
502.312172
 30
0.0
 11
443.229283
 21
502.312172
 31
0.0
  0
LINE
  5
2A9
330
1F
100
AcDbEntity
  8
LC-001-100-D00-0
  6
ByBlock
 62
     7
370
    50
100
AcDbLine
 10
443.514992
 20
502.412173
 30
0.0
 11
443.514992
 21
502.312172
 31
0.0
  0
LINE
  5
2AA
330
1F
100
AcDbEntity
  8
LC-001-100-D00-0
  6
ByBlock
 62
     7
370
    50
100
AcDbLine
 10
444.320357
 20
502.412173
 30
0.0
 11
443.514992
 21
502.412173
 31
0.0
  0
LINE
  5
2AB
330
1F
100
AcDbEntity
  8
LC-001-100-D00-0
  6
ByBlock
 62
     7
370
    50
100
AcDbLine
 10
444.320357
 20
502.312172
 30
0.0
 11
444.320357
 21
502.412173
 31
0.0
  0
LINE
  5
2AC
330
1F
100
AcDbEntity
  8
LC-001-100-D00-0
  6
ByBlock
 62
     7
370
    50
100
AcDbLine
 10
444.606065
 20
502.312172
 30
0.0
 11
444.320357
 21
502.312172
 31
0.0
  0
LINE
  5
2AD
330
1F
100
AcDbEntity
  8
LC-001-100-D00-0
  6
ByBlock
 62
     7
370
    50
100
AcDbLine
 10
444.606065
 20
502.412173
 30
0.0
 11
444.606065
 21
502.312172
 31
0.0
  0
LINE
  5
2AE
330
1F
100
AcDbEntity
  8
LC-001-100-D00-0
  6
ByBlock
 62
     7
370
    50
100
AcDbLine
 10
445.548074
 20
502.412173
 30
0.0
 11
444.606065
 21
502.412173
 31
0.0
  0
LINE
  5
2AF
330
1F
100
AcDbEntity
  8
LC-001-100-D00-0
  6
ByBlock
 62
     7
370
    50
100
AcDbLine
 10
445.548074
 20
502.412173
 30
0.0
 11
445.548074
 21
502.312172
 31
0.0
  0
LINE
  5
2B0
330
1F
100
AcDbEntity
  8
LC-001-100-D00-0
  6
ByBlock
 62
     7
370
    50
100
AcDbLine
 10
445.833783
 20
502.312172
 30
0.0
 11
445.548074
 21
502.312172
 31
0.0
  0
LINE
  5
2B1
330
1F
100
AcDbEntity
  8
LC-001-100-D00-0
  6
ByBlock
 62
     7
370
    50
100
AcDbLine
 10
445.833783
 20
502.412173
 30
0.0
 11
445.833783
 21
502.312172
 31
0.0
  0
LINE
  5
2B2
330
1F
100
AcDbEntity
  8
LC-001-100-D00-0
  6
ByBlock
 62
     7
370
    50
100
AcDbLine
 10
446.566685
 20
502.412173
 30
0.0
 11
445.833783
 21
502.412173
 31
0.0
  0
LINE
  5
2B3
330
1F
100
AcDbEntity
  8
LC-001-100-D00-0
  6
ByBlock
 62
     7
370
    50
100
AcDbLine
 10
446.566685
 20
502.312172
 30
0.0
 11
446.566685
 21
502.412173
 31
0.0
  0
LINE
  5
2B4
330
1F
100
AcDbEntity
  8
LC-001-100-D00-0
  6
ByBlock
 62
     7
370
    50
100
AcDbLine
 10
446.852394
 20
502.312172
 30
0.0
 11
446.566685
 21
502.312172
 31
0.0
  0
LINE
  5
2B5
330
1F
100
AcDbEntity
  8
LC-001-100-D00-0
  6
ByBlock
 62
     7
370
    50
100
AcDbLine
 10
446.852394
 20
502.412173
 30
0.0
 11
446.852394
 21
502.312172
 31
0.0
  0
LINE
  5
2B6
330
1F
100
AcDbEntity
  8
LC-001-100-D00-0
  6
ByBlock
 62
     7
370
    50
100
AcDbLine
 10
447.432091
 20
502.412173
 30
0.0
 11
446.852394
 21
502.412173
 31
0.0
  0
LINE
  5
2B7
330
1F
100
AcDbEntity
  8
LC-001-100-D00-0
  6
ByBlock
 62
     7
370
    50
100
AcDbLine
 10
447.432091
 20
502.412173
 30
0.0
 11
447.432091
 21
502.312172
 31
0.0
  0
LINE
  5
2B8
330
1F
100
AcDbEntity
  8
LC-001-100-D00-0
  6
ByBlock
 62
     7
370
    50
100
AcDbLine
 10
447.7178
 20
502.312172
 30
0.0
 11
447.432091
 21
502.312172
 31
0.0
  0
LINE
  5
2B9
330
1F
100
AcDbEntity
  8
LC-001-100-D00-0
  6
ByBlock
 62
     7
370
    50
100
AcDbLine
 10
447.7178
 20
502.412173
 30
0.0
 11
447.7178
 21
502.312172
 31
0.0
  0
LINE
  5
2BA
330
1F
100
AcDbEntity
  8
LC-001-100-D00-0
  6
ByBlock
 62
     7
370
    50
100
AcDbLine
 10
448.450702
 20
502.412173
 30
0.0
 11
447.7178
 21
502.412173
 31
0.0
  0
LINE
  5
2BB
330
1F
100
AcDbEntity
  8
LC-001-100-D00-0
  6
ByBlock
 62
     7
370
    50
100
AcDbLine
 10
448.450702
 20
502.312172
 30
0.0
 11
448.450702
 21
502.412173
 31
0.0
  0
LINE
  5
2BC
330
1F
100
AcDbEntity
  8
LC-001-100-D00-0
  6
ByBlock
 62
     7
370
    50
100
AcDbLine
 10
450.620428
 20
502.312172
 30
0.0
 11
448.450702
 21
502.312172
 31
0.0
  0
LINE
  5
2BD
330
1F
100
AcDbEntity
  8
LC-001-100-D00-0
  6
ByBlock
 62
     7
370
    50
100
AcDbLine
 10
450.620428
 20
502.412173
 30
0.0
 11
450.620428
 21
502.312172
 31
0.0
  0
LINE
  5
2BE
330
1F
100
AcDbEntity
  8
LC-001-100-D00-0
  6
ByBlock
 62
     7
370
    50
100
AcDbLine
 10
451.417513
 20
502.412173
 30
0.0
 11
450.620428
 21
502.412173
 31
0.0
  0
LINE
  5
2BF
330
1F
100
AcDbEntity
  8
LC-001-100-D00-0
  6
ByBlock
 62
     7
370
    50
100
AcDbLine
 10
451.417513
 20
502.412173
 30
0.0
 11
451.417513
 21
502.312172
 31
0.0
  0
LINE
  5
2C0
330
1F
100
AcDbEntity
  8
LC-001-100-D00-0
  6
ByBlock
 62
     7
370
    50
100
AcDbLine
 10
451.703221
 20
502.312172
 30
0.0
 11
451.417513
 21
502.312172
 31
0.0
  0
LINE
  5
2C1
330
1F
100
AcDbEntity
  8
LC-001-100-D00-0
  6
ByBlock
 62
     7
370
    50
100
AcDbLine
 10
451.703221
 20
502.412173
 30
0.0
 11
451.703221
 21
502.312172
 31
0.0
  0
LINE
  5
2C2
330
1F
100
AcDbEntity
  8
LC-001-100-D00-0
  6
ByBlock
 62
     7
370
    50
100
AcDbLine
 10
454.776861
 20
502.412173
 30
0.0
 11
451.703221
 21
502.412173
 31
0.0
  0
LINE
  5
2C3
330
1F
100
AcDbEntity
  8
LC-001-100-D00-0
  6
ByBlock
 62
     7
370
    50
100
AcDbLine
 10
454.776861
 20
502.312172
 30
0.0
 11
454.776861
 21
502.412173
 31
0.0
  0
LINE
  5
2C4
330
1F
100
AcDbEntity
  8
LC-001-100-D00-0
  6
ByBlock
 62
     7
370
    50
100
AcDbLine
 10
455.160565
 20
502.312172
 30
0.0
 11
454.776861
 21
502.312172
 31
0.0
  0
LINE
  5
2C5
330
1F
100
AcDbEntity
  8
LC-001-100-D00-0
  6
ByBlock
 62
     7
370
    50
100
AcDbLine
 10
455.160565
 20
502.312172
 30
0.0
 11
455.160565
 21
502.412173
 31
0.0
  0
LINE
  5
2C6
330
1F
100
AcDbEntity
  8
LC-001-100-D00-0
  6
ByBlock
 62
     7
370
    50
100
AcDbLine
 10
459.482955
 20
502.412173
 30
0.0
 11
455.160565
 21
502.412173
 31
0.0
  0
ARC
  5
2C7
330
1F
100
AcDbEntity
  8
LC-001-100-D00-0
  6
ByBlock
 62
     7
370
    50
100
AcDbCircle
 10
459.482955
 20
499.912174
 30
0.0
 40
2.500000000000227
100
AcDbArc
 50
0.0
 51
90.0
  0
LINE
  5
2C8
330
1F
100
AcDbEntity
  8
LC-001-100-D00-0
  6
ByBlock
 62
     7
370
    50
100
AcDbLine
 10
461.982955
 20
498.412173
 30
0.0
 11
461.982955
 21
499.912176
 31
0.0
  0
LINE
  5
2C9
330
1F
100
AcDbEntity
  8
LC-001-100-D00-0
  6
ByBlock
 62
     7
370
    50
100
AcDbLine
 10
460.482955
 20
498.412173
 30
0.0
 11
461.982955
 21
498.412173
 31
0.0
  0
LINE
  5
2CA
330
1F
100
AcDbEntity
  8
LC-001-100-D00-0
  6
ByBlock
 62
     7
370
    50
100
AcDbLine
 10
460.482955
 20
498.412173
 30
0.0
 11
460.482955
 21
499.912176
 31
0.0
  0
ARC
  5
2CB
330
1F
100
AcDbEntity
  8
LC-001-100-D00-0
  6
ByBlock
 62
     7
370
    50
100
AcDbCircle
 10
459.482955
 20
499.912174
 30
0.0
 40
1.000000000000227
100
AcDbArc
 50
0.0
 51
90.0
  0
ARC
  5
2CC
330
1F
100
AcDbEntity
  8
LC-001-100-D00-0
  6
ByBlock
 62
     7
370
    50
100
AcDbCircle
 10
422.482955
 20
499.912174
 30
0.0
 40
1.0
100
AcDbArc
 50
90.0
 51
180.0
  0
LINE
  5
2CD
330
1F
100
AcDbEntity
  8
LC-001-100-D00-0
  6
ByBlock
 62
     7
370
    50
100
AcDbLine
 10
421.482956
 20
499.912176
 30
0.0
 11
421.482956
 21
498.412173
 31
0.0
  0
LINE
  5
2CE
330
1F
100
AcDbEntity
  8
LC-001-100-D00-0
  6
ByBlock
 62
     7
370
    50
100
AcDbLine
 10
419.982955
 20
498.412173
 30
0.0
 11
421.482956
 21
498.412173
 31
0.0
  0
LINE
  5
2CF
330
1F
100
AcDbEntity
  8
LC-001-100-D00-0
  6
ByBlock
 62
     7
370
    50
100
AcDbLine
 10
419.982955
 20
499.912176
 30
0.0
 11
419.982955
 21
498.412173
 31
0.0
  0
ARC
  5
2D0
330
1F
100
AcDbEntity
  8
LC-001-100-D00-0
  6
ByBlock
 62
     7
370
    50
100
AcDbCircle
 10
422.482955
 20
499.912174
 30
0.0
 40
2.500000000000227
100
AcDbArc
 50
90.0
 51
180.0
  0
LINE
  5
2D1
330
1F
100
AcDbEntity
  8
LC-001-100-D00-0
  6
ByBlock
 62
     7
370
    50
100
AcDbLine
 10
425.910818
 20
502.412173
 30
0.0
 11
422.482955
 21
502.412173
 31
0.0
  0
LINE
  5
2D2
330
1F
100
AcDbEntity
  8
LC-001-100-D00-0
  6
ByBlock
 62
     7
370
    50
100
AcDbLine
 10
425.910818
 20
502.412173
 30
0.0
 11
425.910818
 21
502.312172
 31
0.0
  0
LINE
  5
2D3
330
1F
100
AcDbEntity
  8
LC-001-100-D00-0
  6
ByBlock
 62
     7
370
    50
100
AcDbLine
 10
426.196525
 20
502.312172
 30
0.0
 11
425.910818
 21
502.312172
 31
0.0
  0
LINE
  5
2D4
330
1F
100
AcDbEntity
  8
LC-001-100-D00-0
  6
ByBlock
 62
     7
370
    50
100
AcDbLine
 10
426.196525
 20
502.412173
 30
0.0
 11
426.196525
 21
502.312172
 31
0.0
  0
LINE
  5
2D5
330
1F
100
AcDbEntity
  8
LC-001-100-D00-0
  6
ByBlock
 62
     7
370
    50
100
AcDbLine
 10
427.00189
 20
502.412173
 30
0.0
 11
426.196525
 21
502.412173
 31
0.0
  0
LINE
  5
2D6
330
1F
100
AcDbEntity
  8
LC-001-100-D00-0
  6
ByBlock
 62
     7
370
    50
100
AcDbLine
 10
427.00189
 20
502.312172
 30
0.0
 11
427.00189
 21
502.412173
 31
0.0
  0
LINE
  5
2D7
330
1F
100
AcDbEntity
  8
LC-001-100-D00-0
  6
ByBlock
 62
     7
370
    50
100
AcDbLine
 10
427.287597
 20
502.312172
 30
0.0
 11
427.00189
 21
502.312172
 31
0.0
  0
LINE
  5
2D8
330
1F
100
AcDbEntity
  8
LC-001-100-D00-0
  6
ByBlock
 62
     7
370
    50
100
AcDbLine
 10
427.287597
 20
502.412173
 30
0.0
 11
427.287597
 21
502.312172
 31
0.0
  0
LINE
  5
2D9
330
1F
100
AcDbEntity
  8
LC-001-100-D00-0
  6
ByBlock
 62
     7
370
    50
100
AcDbLine
 10
428.250319
 20
502.412173
 30
0.0
 11
427.287597
 21
502.412173
 31
0.0
  0
LINE
  5
2DA
330
1F
100
AcDbEntity
  8
LC-001-100-D00-0
  6
ByBlock
 62
     7
370
    50
100
AcDbLine
 10
428.250319
 20
502.412173
 30
0.0
 11
428.250319
 21
502.312172
 31
0.0
  0
LINE
  5
2DB
330
1F
100
AcDbEntity
  8
LC-001-100-D00-0
  6
ByBlock
 62
     7
370
    50
100
AcDbLine
 10
428.536028
 20
502.312172
 30
0.0
 11
428.250319
 21
502.312172
 31
0.0
  0
LINE
  5
2DC
330
1F
100
AcDbEntity
  8
LC-001-100-D00-0
  6
ByBlock
 62
     7
370
    50
100
AcDbLine
 10
428.536028
 20
502.412173
 30
0.0
 11
428.536028
 21
502.312172
 31
0.0
  0
LINE
  5
2DD
330
1F
100
AcDbEntity
  8
LC-001-100-D00-0
  6
ByBlock
 62
     7
370
    50
100
AcDbLine
 10
429.196468
 20
502.412173
 30
0.0
 11
428.536028
 21
502.412173
 31
0.0
  0
LINE
  5
2DE
330
1F
100
AcDbEntity
  8
LC-001-100-D00-0
  6
ByBlock
 62
     7
370
    50
100
AcDbLine
 10
429.196468
 20
502.312172
 30
0.0
 11
429.196468
 21
502.412173
 31
0.0
  0
LINE
  5
2DF
330
1F
100
AcDbEntity
  8
LC-001-100-D00-0
  6
ByBlock
 62
     7
370
    50
100
AcDbLine
 10
429.482175
 20
502.312172
 30
0.0
 11
429.196468
 21
502.312172
 31
0.0
  0
LINE
  5
2E0
330
1F
100
AcDbEntity
  8
LC-001-100-D00-0
  6
ByBlock
 62
     7
370
    50
100
AcDbLine
 10
429.482175
 20
502.412173
 30
0.0
 11
429.482175
 21
502.312172
 31
0.0
  0
LINE
  5
2E1
330
1F
100
AcDbEntity
  8
LC-001-100-D00-0
  6
ByBlock
 62
     7
370
    50
100
AcDbLine
 10
430.113625
 20
502.412173
 30
0.0
 11
429.482175
 21
502.412173
 31
0.0
  0
LINE
  5
2E2
330
1F
100
AcDbEntity
  8
LC-001-100-D00-0
  6
ByBlock
 62
     7
370
    50
100
AcDbLine
 10
430.113625
 20
502.412173
 30
0.0
 11
430.113625
 21
502.312172
 31
0.0
  0
LINE
  5
2E3
330
1F
100
AcDbEntity
  8
LC-001-100-D00-0
  6
ByBlock
 62
     7
370
    50
100
AcDbLine
 10
430.399332
 20
502.312172
 30
0.0
 11
430.113625
 21
502.312172
 31
0.0
  0
LINE
  5
2E4
330
1F
100
AcDbEntity
  8
LC-001-100-D00-0
  6
ByBlock
 62
     7
370
    50
100
AcDbLine
 10
430.399332
 20
502.412173
 30
0.0
 11
430.399332
 21
502.312172
 31
0.0
  0
LINE
  5
2E5
330
1F
100
AcDbEntity
  8
LC-001-100-D00-0
  6
ByBlock
 62
     7
370
    50
100
AcDbLine
 10
433.740875
 20
502.412173
 30
0.0
 11
430.399332
 21
502.412173
 31
0.0
  0
LINE
  5
2E6
330
1F
100
AcDbEntity
  8
LC-001-100-D00-0
  6
ByBlock
 62
     7
370
    50
100
AcDbLine
 10
433.740875
 20
502.312172
 30
0.0
 11
433.740875
 21
502.412173
 31
0.0
  0
LINE
  5
2E7
330
1F
100
AcDbEntity
  8
LC-001-100-D00-0
  6
ByBlock
 62
     7
370
    50
100
AcDbLine
 10
434.026584
 20
502.312172
 30
0.0
 11
433.740875
 21
502.312172
 31
0.0
  0
LINE
  5
2E8
330
1F
100
AcDbEntity
  8
LC-001-100-D00-0
  6
ByBlock
 62
     7
370
    50
100
AcDbLine
 10
434.026584
 20
502.412173
 30
0.0
 11
434.026584
 21
502.312172
 31
0.0
  0
LINE
  5
2E9
330
1F
100
AcDbEntity
  8
LC-001-100-D00-0
  6
ByBlock
 62
     7
370
    50
100
AcDbLine
 10
434.751206
 20
502.412173
 30
0.0
 11
434.026584
 21
502.412173
 31
0.0
  0
LINE
  5
2EA
330
1F
100
AcDbEntity
  8
LC-001-100-D00-0
  6
ByBlock
 62
     7
370
    50
100
AcDbLine
 10
434.751206
 20
502.412173
 30
0.0
 11
434.751206
 21
502.312172
 31
0.0
  0
LINE
  5
2EB
330
1F
100
AcDbEntity
  8
LC-001-100-D00-0
  6
ByBlock
 62
     7
370
    50
100
AcDbLine
 10
435.036915
 20
502.312172
 30
0.0
 11
434.751206
 21
502.312172
 31
0.0
  0
LINE
  5
2EC
330
1F
100
AcDbEntity
  8
LC-001-100-D00-0
  6
ByBlock
 62
     7
370
    50
100
AcDbLine
 10
435.036915
 20
502.412173
 30
0.0
 11
435.036915
 21
502.312172
 31
0.0
  0
LINE
  5
2ED
330
1F
100
AcDbEntity
  8
LC-001-100-D00-0
  6
ByBlock
 62
     7
370
    50
100
AcDbLine
 10
435.769817
 20
502.412173
 30
0.0
 11
435.036915
 21
502.412173
 31
0.0
  0
LINE
  5
2EE
330
1F
100
AcDbEntity
  8
LC-001-100-D00-0
  6
ByBlock
 62
     7
370
    50
100
AcDbLine
 10
435.769817
 20
502.312172
 30
0.0
 11
435.769817
 21
502.412173
 31
0.0
  0
LINE
  5
2EF
330
1F
100
AcDbEntity
  8
LC-001-100-D00-0
  6
ByBlock
 62
     7
370
    50
100
AcDbLine
 10
436.055525
 20
502.312172
 30
0.0
 11
435.769817
 21
502.312172
 31
0.0
  0
LINE
  5
2F0
330
1F
100
AcDbEntity
  8
LC-001-100-D00-0
  6
ByBlock
 62
     7
370
    50
100
AcDbLine
 10
436.055525
 20
502.412173
 30
0.0
 11
436.055525
 21
502.312172
 31
0.0
  0
LINE
  5
2F1
330
1F
100
AcDbEntity
  8
LC-001-100-D00-0
  6
ByBlock
 62
     7
370
    50
100
AcDbLine
 10
437.86708
 20
502.412173
 30
0.0
 11
436.055525
 21
502.412173
 31
0.0
  0
LINE
  5
2F2
330
1F
100
AcDbEntity
  8
LC-001-100-D00-0
  6
ByBlock
 62
     7
370
    50
100
AcDbLine
 10
437.86708
 20
502.412173
 30
0.0
 11
437.86708
 21
502.312172
 31
0.0
  0
LINE
  5
2F3
330
1F
100
AcDbEntity
  8
LC-001-100-D00-0
  6
ByBlock
 62
     7
370
    50
100
AcDbLine
 10
438.152789
 20
502.312172
 30
0.0
 11
437.86708
 21
502.312172
 31
0.0
  0
LINE
  5
2F4
330
1F
100
AcDbEntity
  8
LC-001-100-D00-0
  6
ByBlock
 62
     7
370
    50
100
AcDbLine
 10
438.152789
 20
502.412173
 30
0.0
 11
438.152789
 21
502.312172
 31
0.0
  0
LINE
  5
2F5
330
1F
100
AcDbEntity
  8
LC-001-100-D00-0
  6
ByBlock
 62
     7
370
    50
100
AcDbLine
 10
438.885691
 20
502.412173
 30
0.0
 11
438.152789
 21
502.412173
 31
0.0
  0
LINE
  5
2F6
330
1F
100
AcDbEntity
  8
LC-001-100-D00-0
  6
ByBlock
 62
     7
370
    50
100
AcDbLine
 10
438.885691
 20
502.312172
 30
0.0
 11
438.885691
 21
502.412173
 31
0.0
  0
LINE
  5
2F7
330
1F
100
AcDbEntity
  8
LC-001-100-D00-0
  6
ByBlock
 62
     7
370
    50
100
AcDbLine
 10
439.1714
 20
502.312172
 30
0.0
 11
438.885691
 21
502.312172
 31
0.0
  0
LINE
  5
2F8
330
1F
100
AcDbEntity
  8
LC-001-100-D00-0
  6
ByBlock
 62
     7
370
    50
100
AcDbLine
 10
439.1714
 20
502.412173
 30
0.0
 11
439.1714
 21
502.312172
 31
0.0
  0
LINE
  5
2F9
330
1F
100
AcDbEntity
  8
LC-001-100-D00-0
  6
ByBlock
 62
     7
370
    50
100
AcDbLine
 10
440.982956
 20
502.412173
 30
0.0
 11
439.1714
 21
502.412173
 31
0.0
  0
LINE
  5
2FA
330
1F
100
AcDbEntity
  8
LC-001-100-D00-0
  6
ByBlock
 62
     7
370
    50
100
AcDbLine
 10
440.982956
 20
502.412173
 30
0.0
 11
440.982956
 21
502.312172
 31
0.0
  0
LINE
  5
2FB
330
1F
100
AcDbEntity
  8
LC-001-100-D00-0
  6
ByBlock
 62
     7
370
    50
100
AcDbLine
 10
440.338795
 20
500.912178
 30
0.0
 11
440.338795
 21
501.012172
 31
0.0
  0
LINE
  5
2FC
330
1F
100
AcDbEntity
  8
LC-001-100-D00-0
  6
ByBlock
 62
     7
370
    50
100
AcDbLine
 10
440.338795
 20
500.912178
 30
0.0
 11
422.482955
 21
500.912178
 31
0.0
  0
LINE
  5
2FD
330
1F
100
AcDbEntity
  8
LC-001-100-D00-0
  6
ByBlock
 62
     7
370
    50
100
AcDbLine
 10
459.482955
 20
500.912178
 30
0.0
 11
440.958628
 21
500.912178
 31
0.0
  0
LINE
  5
2FE
330
1F
100
AcDbEntity
  8
LC-001-100-D00-0
  6
ByBlock
 62
     7
370
    50
100
AcDbLine
 10
440.338795
 20
501.012172
 30
0.0
 11
440.958628
 21
501.012172
 31
0.0
  0
LINE
  5
2FF
330
1F
100
AcDbEntity
  8
LC-001-100-D00-0
  6
ByBlock
 62
     7
370
    50
100
AcDbLine
 10
484.982956
 20
499.912176
 30
0.0
 11
484.982956
 21
497.412171
 31
0.0
  0
ARC
  5
300
330
1F
100
AcDbEntity
  8
LC-001-100-D00-0
  6
ByBlock
 62
     7
370
    50
100
AcDbCircle
 10
483.982955
 20
499.912174
 30
0.0
 40
1.000000000000227
100
AcDbArc
 50
0.0
 51
90.0
  0
ARC
  5
301
330
1F
100
AcDbEntity
  8
LC-001-100-D00-0
  6
ByBlock
 62
     7
370
    50
100
AcDbCircle
 10
482.482955
 20
499.912174
 30
0.0
 40
1.0
100
AcDbArc
 50
90.0
 51
180.0
  0
LINE
  5
302
330
1F
100
AcDbEntity
  8
LC-001-100-D00-0
  6
ByBlock
 62
     7
370
    50
100
AcDbLine
 10
481.482957
 20
499.912176
 30
0.0
 11
481.482957
 21
498.412173
 31
0.0
  0
LINE
  5
303
330
1F
100
AcDbEntity
  8
LC-001-100-D00-0
  6
ByBlock
 62
     7
370
    50
100
AcDbLine
 10
479.982956
 20
498.412173
 30
0.0
 11
481.482957
 21
498.412173
 31
0.0
  0
LINE
  5
304
330
1F
100
AcDbEntity
  8
LC-001-100-D00-0
  6
ByBlock
 62
     7
370
    50
100
AcDbLine
 10
479.982956
 20
499.912176
 30
0.0
 11
479.982956
 21
498.412173
 31
0.0
  0
ARC
  5
305
330
1F
100
AcDbEntity
  8
LC-001-100-D00-0
  6
ByBlock
 62
     7
370
    50
100
AcDbCircle
 10
482.482955
 20
499.912174
 30
0.0
 40
2.5
100
AcDbArc
 50
90.0
 51
180.0
  0
LINE
  5
306
330
1F
100
AcDbEntity
  8
LC-001-100-D00-0
  6
ByBlock
 62
     7
370
    50
100
AcDbLine
 10
483.982954
 20
502.412173
 30
0.0
 11
482.482955
 21
502.412173
 31
0.0
  0
ARC
  5
307
330
1F
100
AcDbEntity
  8
LC-001-100-D00-0
  6
ByBlock
 62
     7
370
    50
100
AcDbCircle
 10
483.982955
 20
499.912174
 30
0.0
 40
2.500000000000227
100
AcDbArc
 50
0.0
 51
90.0
  0
LINE
  5
308
330
1F
100
AcDbEntity
  8
LC-001-100-D00-0
  6
ByBlock
 62
     7
370
    50
100
AcDbLine
 10
486.482956
 20
499.912176
 30
0.0
 11
486.482956
 21
497.412171
 31
0.0
  0
LINE
  5
309
330
1F
100
AcDbEntity
  8
LC-001-100-D00-0
  6
ByBlock
 62
     7
370
    50
100
AcDbLine
 10
486.482956
 20
497.412171
 30
0.0
 11
484.982956
 21
497.412171
 31
0.0
  0
LINE
  5
30A
330
1F
100
AcDbEntity
  8
LC-001-100-D00-0
  6
ByBlock
 62
     7
370
    50
100
AcDbLine
 10
483.982954
 20
500.912178
 30
0.0
 11
482.482955
 21
500.912178
 31
0.0
  0
LINE
  5
30B
330
1F
100
AcDbEntity
  8
LC-001-100-D00-0
  6
ByBlock
 62
     7
370
    50
100
AcDbLine
 10
395.482954
 20
497.412171
 30
0.0
 11
395.482954
 21
499.912176
 31
0.0
  0
ARC
  5
30C
330
1F
100
AcDbEntity
  8
LC-001-100-D00-0
  6
ByBlock
 62
     7
370
    50
100
AcDbCircle
 10
397.982955
 20
499.912174
 30
0.0
 40
2.5
100
AcDbArc
 50
90.0
 51
180.0
  0
ARC
  5
30D
330
1F
100
AcDbEntity
  8
LC-001-100-D00-0
  6
ByBlock
 62
     7
370
    50
100
AcDbCircle
 10
399.482955
 20
499.912174
 30
0.0
 40
2.500000000000114
100
AcDbArc
 50
0.0
 51
90.0
  0
LINE
  5
30E
330
1F
100
AcDbEntity
  8
LC-001-100-D00-0
  6
ByBlock
 62
     7
370
    50
100
AcDbLine
 10
401.982956
 20
498.412173
 30
0.0
 11
401.982956
 21
499.912176
 31
0.0
  0
LINE
  5
30F
330
1F
100
AcDbEntity
  8
LC-001-100-D00-0
  6
ByBlock
 62
     7
370
    50
100
AcDbLine
 10
400.482957
 20
498.412173
 30
0.0
 11
401.982956
 21
498.412173
 31
0.0
  0
LINE
  5
310
330
1F
100
AcDbEntity
  8
LC-001-100-D00-0
  6
ByBlock
 62
     7
370
    50
100
AcDbLine
 10
400.482957
 20
498.412173
 30
0.0
 11
400.482957
 21
499.912176
 31
0.0
  0
ARC
  5
311
330
1F
100
AcDbEntity
  8
LC-001-100-D00-0
  6
ByBlock
 62
     7
370
    50
100
AcDbCircle
 10
399.482955
 20
499.912174
 30
0.0
 40
1.0
100
AcDbArc
 50
0.0
 51
90.0
  0
ARC
  5
312
330
1F
100
AcDbEntity
  8
LC-001-100-D00-0
  6
ByBlock
 62
     7
370
    50
100
AcDbCircle
 10
397.982955
 20
499.912174
 30
0.0
 40
1.0
100
AcDbArc
 50
90.0
 51
180.0
  0
LINE
  5
313
330
1F
100
AcDbEntity
  8
LC-001-100-D00-0
  6
ByBlock
 62
     7
370
    50
100
AcDbLine
 10
396.982957
 20
497.412171
 30
0.0
 11
396.982957
 21
499.912176
 31
0.0
  0
LINE
  5
314
330
1F
100
AcDbEntity
  8
LC-001-100-D00-0
  6
ByBlock
 62
     7
370
    50
100
AcDbLine
 10
399.482954
 20
502.412173
 30
0.0
 11
397.982955
 21
502.412173
 31
0.0
  0
LINE
  5
315
330
1F
100
AcDbEntity
  8
LC-001-100-D00-0
  6
ByBlock
 62
     7
370
    50
100
AcDbLine
 10
396.982957
 20
497.412171
 30
0.0
 11
395.482954
 21
497.412171
 31
0.0
  0
LINE
  5
316
330
1F
100
AcDbEntity
  8
LC-001-100-D00-0
  6
ByBlock
 62
     7
370
    50
100
AcDbLine
 10
399.482954
 20
500.912178
 30
0.0
 11
397.982955
 21
500.912178
 31
0.0
  0
ARC
  5
317
330
1F
100
AcDbEntity
  8
LC-001-100-D00-0
  6
ByBlock
 62
     7
370
    50
100
AcDbCircle
 10
471.482955
 20
499.912174
 30
0.0
 40
1.000000000000227
100
AcDbArc
 50
0.0
 51
90.0
  0
ARC
  5
318
330
1F
100
AcDbEntity
  8
LC-001-100-D00-0
  6
ByBlock
 62
     7
370
    50
100
AcDbCircle
 10
470.482955
 20
499.912174
 30
0.0
 40
1.000000000000227
100
AcDbArc
 50
90.0
 51
180.0
  0
LINE
  5
319
330
1F
100
AcDbEntity
  8
LC-001-100-D00-0
  6
ByBlock
 62
     7
370
    50
100
AcDbLine
 10
469.482955
 20
499.912176
 30
0.0
 11
469.482955
 21
498.412173
 31
0.0
  0
LINE
  5
31A
330
1F
100
AcDbEntity
  8
LC-001-100-D00-0
  6
ByBlock
 62
     7
370
    50
100
AcDbLine
 10
467.982955
 20
498.412173
 30
0.0
 11
469.482955
 21
498.412173
 31
0.0
  0
LINE
  5
31B
330
1F
100
AcDbEntity
  8
LC-001-100-D00-0
  6
ByBlock
 62
     7
370
    50
100
AcDbLine
 10
467.982955
 20
499.912176
 30
0.0
 11
467.982955
 21
498.412173
 31
0.0
  0
ARC
  5
31C
330
1F
100
AcDbEntity
  8
LC-001-100-D00-0
  6
ByBlock
 62
     7
370
    50
100
AcDbCircle
 10
470.482955
 20
499.912174
 30
0.0
 40
2.500000000000227
100
AcDbArc
 50
90.0
 51
180.0
  0
LINE
  5
31D
330
1F
100
AcDbEntity
  8
LC-001-100-D00-0
  6
ByBlock
 62
     7
370
    50
100
AcDbLine
 10
473.982955
 20
498.412173
 30
0.0
 11
473.982955
 21
499.912176
 31
0.0
  0
LINE
  5
31E
330
1F
100
AcDbEntity
  8
LC-001-100-D00-0
  6
ByBlock
 62
     7
370
    50
100
AcDbLine
 10
472.482955
 20
498.412173
 30
0.0
 11
472.482955
 21
499.912176
 31
0.0
  0
ARC
  5
31F
330
1F
100
AcDbEntity
  8
LC-001-100-D00-0
  6
ByBlock
 62
     7
370
    50
100
AcDbCircle
 10
471.482955
 20
499.912174
 30
0.0
 40
2.5
100
AcDbArc
 50
0.0
 51
90.0
  0
LINE
  5
320
330
1F
100
AcDbEntity
  8
LC-001-100-D00-0
  6
ByBlock
 62
     7
370
    50
100
AcDbLine
 10
472.482955
 20
498.412173
 30
0.0
 11
473.982955
 21
498.412173
 31
0.0
  0
LINE
  5
321
330
1F
100
AcDbEntity
  8
LC-001-100-D00-0
  6
ByBlock
 62
     7
370
    50
100
AcDbLine
 10
471.482955
 20
502.412173
 30
0.0
 11
470.482955
 21
502.412173
 31
0.0
  0
LINE
  5
322
330
1F
100
AcDbEntity
  8
LC-001-100-D00-0
  6
ByBlock
 62
     7
370
    50
100
AcDbLine
 10
471.482955
 20
500.912178
 30
0.0
 11
470.482955
 21
500.912178
 31
0.0
  0
LINE
  5
323
330
1F
100
AcDbEntity
  8
LC-001-100-D00-0
  6
ByBlock
 62
     7
370
    50
100
AcDbLine
 10
455.082555
 20
502.312172
 30
0.0
 11
455.082555
 21
502.412173
 31
0.0
  0
LINE
  5
324
330
1F
100
AcDbEntity
  8
LC-001-100-D00-0
  6
ByBlock
 62
     7
370
    50
100
AcDbLine
 10
455.160565
 20
502.412173
 30
0.0
 11
455.082555
 21
502.412173
 31
0.0
  0
ARC
  5
325
330
1F
100
AcDbEntity
  8
LC-001-100-D00-0
  6
ByBlock
 62
     7
370
    50
100
AcDbCircle
 10
411.482955
 20
499.912174
 30
0.0
 40
1.000000000000227
100
AcDbArc
 50
0.0
 51
90.0
  0
ARC
  5
326
330
1F
100
AcDbEntity
  8
LC-001-100-D00-0
  6
ByBlock
 62
     7
370
    50
100
AcDbCircle
 10
410.482955
 20
499.912174
 30
0.0
 40
1.000000000000227
100
AcDbArc
 50
90.0
 51
180.0
  0
LINE
  5
327
330
1F
100
AcDbEntity
  8
LC-001-100-D00-0
  6
ByBlock
 62
     7
370
    50
100
AcDbLine
 10
409.482956
 20
499.912176
 30
0.0
 11
409.482956
 21
498.412173
 31
0.0
  0
LINE
  5
328
330
1F
100
AcDbEntity
  8
LC-001-100-D00-0
  6
ByBlock
 62
     7
370
    50
100
AcDbLine
 10
407.982957
 20
498.412173
 30
0.0
 11
409.482956
 21
498.412173
 31
0.0
  0
LINE
  5
329
330
1F
100
AcDbEntity
  8
LC-001-100-D00-0
  6
ByBlock
 62
     7
370
    50
100
AcDbLine
 10
407.982957
 20
499.912176
 30
0.0
 11
407.982957
 21
498.412173
 31
0.0
  0
ARC
  5
32A
330
1F
100
AcDbEntity
  8
LC-001-100-D00-0
  6
ByBlock
 62
     7
370
    50
100
AcDbCircle
 10
410.482955
 20
499.912174
 30
0.0
 40
2.5
100
AcDbArc
 50
90.0
 51
180.0
  0
ARC
  5
32B
330
1F
100
AcDbEntity
  8
LC-001-100-D00-0
  6
ByBlock
 62
     7
370
    50
100
AcDbCircle
 10
411.482955
 20
499.912174
 30
0.0
 40
2.500000000000227
100
AcDbArc
 50
0.0
 51
90.0
  0
LINE
  5
32C
330
1F
100
AcDbEntity
  8
LC-001-100-D00-0
  6
ByBlock
 62
     7
370
    50
100
AcDbLine
 10
413.982954
 20
498.412173
 30
0.0
 11
413.982954
 21
499.912176
 31
0.0
  0
LINE
  5
32D
330
1F
100
AcDbEntity
  8
LC-001-100-D00-0
  6
ByBlock
 62
     7
370
    50
100
AcDbLine
 10
412.482955
 20
498.412173
 30
0.0
 11
413.982954
 21
498.412173
 31
0.0
  0
LINE
  5
32E
330
1F
100
AcDbEntity
  8
LC-001-100-D00-0
  6
ByBlock
 62
     7
370
    50
100
AcDbLine
 10
412.482955
 20
498.412173
 30
0.0
 11
412.482955
 21
499.912176
 31
0.0
  0
LINE
  5
32F
330
1F
100
AcDbEntity
  8
LC-001-100-D00-0
  6
ByBlock
 62
     7
370
    50
100
AcDbLine
 10
411.482956
 20
502.412173
 30
0.0
 11
410.482954
 21
502.412173
 31
0.0
  0
LINE
  5
330
330
1F
100
AcDbEntity
  8
LC-001-100-D00-0
  6
ByBlock
 62
     7
370
    50
100
AcDbLine
 10
411.482956
 20
500.912178
 30
0.0
 11
410.482954
 21
500.912178
 31
0.0
  0
LINE
  5
331
330
1F
100
AcDbEntity
  8
LC-001-100-D00-0
  6
ByBlock
 62
     7
370
    50
100
AcDbLine
 10
443.229284
 20
502.312172
 30
0.0
 11
443.229284
 21
502.412173
 31
0.0
  0
LINE
  5
332
330
1F
100
AcDbEntity
  8
LC-001-100-D00-0
  6
ByBlock
 62
     7
370
    50
100
AcDbLine
 10
443.229284
 20
502.412173
 30
0.0
 11
443.229284
 21
502.412173
 31
0.0
  0
LINE
  5
333
330
1F
100
AcDbEntity
  8
LC-001-100-D00-0
  6
ByBlock
 62
     7
370
    50
100
AcDbLine
 10
455.044763
 20
502.312172
 30
0.0
 11
455.044763
 21
502.412173
 31
0.0
  0
LINE
  5
334
330
1F
100
AcDbEntity
  8
LC-001-100-D00-0
  6
ByBlock
 62
     7
370
    50
100
AcDbLine
 10
454.776861
 20
502.412173
 30
0.0
 11
455.044763
 21
502.412173
 31
0.0
  0
LINE
  5
335
330
1F
100
AcDbEntity
  8
LC-001-100-D00-0
  6
ByBlock
 62
     7
370
    50
100
AcDbLine
 10
450.33472
 20
502.312172
 30
0.0
 11
450.33472
 21
502.412173
 31
0.0
  0
LINE
  5
336
330
1F
100
AcDbEntity
  8
LC-001-100-D00-0
  6
ByBlock
 62
     7
370
    50
100
AcDbLine
 10
448.450702
 20
502.412173
 30
0.0
 11
450.33472
 21
502.412173
 31
0.0
  0
LINE
  5
337
330
1F
100
AcDbEntity
  8
LC-001-100-D00-0
  6
ByBlock
 62
     7
370
    50
100
AcDbLine
 10
450.620428
 20
502.412173
 30
0.0
 11
450.33472
 21
502.412173
 31
0.0
  0
LINE
  5
338
330
1F
100
AcDbEntity
  8
LC-001-100-D00-0
  6
ByBlock
 62
     7
370
    50
100
AcDbLine
 10
428.536028
 20
502.412173
 30
0.0
 11
428.250319
 21
502.412173
 31
0.0
  0
LINE
  5
339
330
1F
100
AcDbEntity
  8
LC-001-100-D00-0
  6
ByBlock
 62
     7
370
    50
100
AcDbLine
 10
445.833784
 20
502.412173
 30
0.0
 11
445.548074
 21
502.412173
 31
0.0
  0
LINE
  5
33A
330
1F
100
AcDbEntity
  8
LC-001-100-D00-0
  6
ByBlock
 62
     7
370
    50
100
AcDbLine
 10
445.833784
 20
502.312172
 30
0.0
 11
445.833784
 21
502.412173
 31
0.0
  0
LINE
  5
33B
330
1F
100
AcDbEntity
  8
LC-001-100-D00-0
  6
ByBlock
 62
     7
370
    50
100
AcDbLine
 10
443.514993
 20
502.412173
 30
0.0
 11
443.229284
 21
502.412173
 31
0.0
  0
LINE
  5
33C
330
1F
100
AcDbEntity
  8
LC-001-100-D00-0
  6
ByBlock
 62
     7
370
    50
100
AcDbLine
 10
443.514993
 20
502.312172
 30
0.0
 11
443.514993
 21
502.412173
 31
0.0
  0
LINE
  5
33D
330
1F
100
AcDbEntity
  8
LC-001-100-D00-0
  6
ByBlock
 62
     7
370
    50
100
AcDbLine
 10
444.606065
 20
502.412173
 30
0.0
 11
444.320357
 21
502.412173
 31
0.0
  0
LINE
  5
33E
330
1F
100
AcDbEntity
  8
LC-001-100-D00-0
  6
ByBlock
 62
     7
370
    50
100
AcDbLine
 10
442.287275
 20
502.412173
 30
0.0
 11
442.001566
 21
502.412173
 31
0.0
  0
LINE
  5
33F
330
1F
100
AcDbEntity
  8
LC-001-100-D00-0
  6
ByBlock
 62
     7
370
    50
100
AcDbLine
 10
427.00189
 20
502.412173
 30
0.0
 11
427.287597
 21
502.412173
 31
0.0
  0
LINE
  5
340
330
1F
100
AcDbEntity
  8
LC-001-100-D00-0
  6
ByBlock
 62
     7
370
    50
100
AcDbLine
 10
434.026584
 20
502.412173
 30
0.0
 11
433.740875
 21
502.412173
 31
0.0
  0
LINE
  5
341
330
1F
100
AcDbEntity
  8
LC-001-100-D00-0
  6
ByBlock
 62
     7
370
    50
100
AcDbLine
 10
430.399332
 20
502.412173
 30
0.0
 11
430.113625
 21
502.412173
 31
0.0
  0
LINE
  5
342
330
1F
100
AcDbEntity
  8
LC-001-100-D00-0
  6
ByBlock
 62
     7
370
    50
100
AcDbLine
 10
446.852394
 20
502.412173
 30
0.0
 11
446.566685
 21
502.412173
 31
0.0
  0
LINE
  5
343
330
1F
100
AcDbEntity
  8
LC-001-100-D00-0
  6
ByBlock
 62
     7
370
    50
100
AcDbLine
 10
455.082555
 20
502.412173
 30
0.0
 11
455.044763
 21
502.412173
 31
0.0
  0
LINE
  5
344
330
1F
100
AcDbEntity
  8
LC-001-100-D00-0
  6
ByBlock
 62
     7
370
    50
100
AcDbLine
 10
429.482175
 20
502.412173
 30
0.0
 11
429.196468
 21
502.412173
 31
0.0
  0
LINE
  5
345
330
1F
100
AcDbEntity
  8
LC-001-100-D00-0
  6
ByBlock
 62
     7
370
    50
100
AcDbLine
 10
441.268664
 20
502.412173
 30
0.0
 11
440.982956
 21
502.412173
 31
0.0
  0
LINE
  5
346
330
1F
100
AcDbEntity
  8
LC-001-100-D00-0
  6
ByBlock
 62
     7
370
    50
100
AcDbLine
 10
451.417513
 20
502.412173
 30
0.0
 11
451.703221
 21
502.412173
 31
0.0
  0
LINE
  5
347
330
1F
100
AcDbEntity
  8
LC-001-100-D00-0
  6
ByBlock
 62
     7
370
    50
100
AcDbLine
 10
425.910818
 20
502.412173
 30
0.0
 11
426.196525
 21
502.412173
 31
0.0
  0
LINE
  5
348
330
1F
100
AcDbEntity
  8
LC-001-100-D00-0
  6
ByBlock
 62
     7
370
    50
100
AcDbLine
 10
447.432091
 20
502.412173
 30
0.0
 11
447.7178
 21
502.412173
 31
0.0
  0
LINE
  5
349
330
1F
100
AcDbEntity
  8
LC-001-100-D00-0
  6
ByBlock
 62
     7
370
    50
100
AcDbLine
 10
434.751206
 20
502.412173
 30
0.0
 11
435.036915
 21
502.412173
 31
0.0
  0
LINE
  5
34A
330
1F
100
AcDbEntity
  8
LC-001-100-D00-0
  6
ByBlock
 62
     7
370
    50
100
AcDbLine
 10
435.769817
 20
502.412173
 30
0.0
 11
436.055525
 21
502.412173
 31
0.0
  0
LINE
  5
34B
330
1F
100
AcDbEntity
  8
LC-001-100-D00-0
  6
ByBlock
 62
     7
370
    50
100
AcDbLine
 10
437.86708
 20
502.412173
 30
0.0
 11
438.152789
 21
502.412173
 31
0.0
  0
LINE
  5
34C
330
1F
100
AcDbEntity
  8
LC-001-100-D00-0
  6
ByBlock
 62
     7
370
    50
100
AcDbLine
 10
438.885691
 20
502.412173
 30
0.0
 11
439.1714
 21
502.412173
 31
0.0
  0
LINE
  5
34D
330
1F
100
AcDbEntity
  8
LC-001-100-D00-0
  6
ByBlock
 62
     7
370
    50
100
AcDbLine
 10
448.982955
 20
498.412173
 30
0.0
 11
444.482955
 21
498.412173
 31
0.0
  0
LINE
  5
34E
330
1F
100
AcDbEntity
  8
LC-001-100-D00-0
  6
ByBlock
 62
     7
370
    50
100
AcDbLine
 10
444.482955
 20
498.412173
 30
0.0
 11
437.482955
 21
498.412173
 31
0.0
  0
LINE
  5
34F
330
1F
100
AcDbEntity
  8
LC-001-100-D00-0
  6
ByBlock
 62
     7
370
    50
100
AcDbLine
 10
437.482955
 20
498.412173
 30
0.0
 11
432.982955
 21
498.412173
 31
0.0
  0
LINE
  5
350
330
1F
100
AcDbEntity
  8
LC-001-100-D00-0
  6
ByBlock
 62
     7
370
    50
100
AcDbLine
 10
461.982955
 20
498.412173
 30
0.0
 11
467.982955
 21
498.412173
 31
0.0
  0
LINE
  5
351
330
1F
100
AcDbEntity
  8
LC-001-100-D00-0
  6
ByBlock
 62
     7
370
    50
100
AcDbLine
 10
411.482956
 20
502.412173
 30
0.0
 11
422.482955
 21
502.412173
 31
0.0
  0
LINE
  5
352
330
1F
100
AcDbEntity
  8
LC-001-100-D00-0
  6
ByBlock
 62
     7
370
    50
100
AcDbLine
 10
413.982954
 20
498.412173
 30
0.0
 11
419.982955
 21
498.412173
 31
0.0
  0
LINE
  5
353
330
1F
100
AcDbEntity
  8
LC-001-100-D00-0
  6
ByBlock
 62
     7
370
    50
100
AcDbLine
 10
459.482955
 20
502.412173
 30
0.0
 11
470.482955
 21
502.412173
 31
0.0
  0
LINE
  5
354
330
1F
100
AcDbEntity
  8
LC-001-100-D00-0
  6
ByBlock
 62
     7
370
    50
100
AcDbLine
 10
425.982956
 20
498.412173
 30
0.0
 11
421.482956
 21
498.412173
 31
0.0
  0
LINE
  5
355
330
1F
100
AcDbEntity
  8
LC-001-100-D00-0
  6
ByBlock
 62
     7
370
    50
100
AcDbLine
 10
455.982955
 20
498.412173
 30
0.0
 11
448.982955
 21
498.412173
 31
0.0
  0
LINE
  5
356
330
1F
100
AcDbEntity
  8
LC-001-100-D00-0
  6
ByBlock
 62
     7
370
    50
100
AcDbLine
 10
432.982955
 20
498.412173
 30
0.0
 11
425.982956
 21
498.412173
 31
0.0
  0
LINE
  5
357
330
1F
100
AcDbEntity
  8
LC-001-100-D00-0
  6
ByBlock
 62
     7
370
    50
100
AcDbLine
 10
460.482955
 20
498.412173
 30
0.0
 11
455.982955
 21
498.412173
 31
0.0
  0
LINE
  5
358
330
1F
100
AcDbEntity
  8
LC-001-100-D00-0
  6
ByBlock
 62
     7
370
    50
100
AcDbLine
 10
401.982956
 20
498.412173
 30
0.0
 11
407.982957
 21
498.412173
 31
0.0
  0
LINE
  5
359
330
1F
100
AcDbEntity
  8
LC-001-100-D00-0
  6
ByBlock
 62
     7
370
    50
100
AcDbLine
 10
471.482955
 20
502.412173
 30
0.0
 11
482.482955
 21
502.412173
 31
0.0
  0
LINE
  5
35A
330
1F
100
AcDbEntity
  8
LC-001-100-D00-0
  6
ByBlock
 62
     7
370
    50
100
AcDbLine
 10
473.982955
 20
498.412173
 30
0.0
 11
479.982956
 21
498.412173
 31
0.0
  0
LINE
  5
35B
330
1F
100
AcDbEntity
  8
LC-001-100-D00-0
  6
ByBlock
 62
     7
370
    50
100
AcDbLine
 10
399.482954
 20
502.412173
 30
0.0
 11
410.482954
 21
502.412173
 31
0.0
  0
LINE
  5
35C
330
1F
100
AcDbEntity
  8
LC-001-100-D00-0
  6
ByBlock
 62
     7
370
    50
100
AcDbLine
 10
412.482955
 20
498.412173
 30
0.0
 11
410.482954
 21
498.412173
 31
0.0
  0
LINE
  5
35D
330
1F
100
AcDbEntity
  8
LC-001-100-D00-0
  6
ByBlock
 62
     7
370
    50
100
AcDbLine
 10
471.482955
 20
498.412173
 30
0.0
 11
469.482955
 21
498.412173
 31
0.0
  0
LINE
  5
35E
330
1F
100
AcDbEntity
  8
LC-001-100-D00-0
  6
ByBlock
 62
     7
370
    50
100
AcDbLine
 10
454.738318
 20
497.412171
 30
0.0
 11
427.227592
 21
497.412171
 31
0.0
  0
LINE
  5
35F
330
1F
100
AcDbEntity
  8
LC-001-100-D00-0
  6
ByBlock
 62
     7
370
    50
100
AcDbLine
 10
450.732955
 20
457.712173
 30
0.0
 11
450.732955
 21
456.712175
 31
0.0
  0
ARC
  5
360
330
1F
100
AcDbEntity
  8
LC-001-100-D00-0
  6
ByBlock
 62
     7
370
    50
100
AcDbCircle
 10
445.732955
 20
457.712174
 30
0.0
 40
5.0
100
AcDbArc
 50
0.0
 51
90.0
  0
LINE
  5
361
330
1F
100
AcDbEntity
  8
LC-001-100-D00-0
  6
ByBlock
 62
     7
370
    50
100
AcDbLine
 10
436.232955
 20
462.712176
 30
0.0
 11
445.732956
 21
462.712176
 31
0.0
  0
ARC
  5
362
330
1F
100
AcDbEntity
  8
LC-001-100-D00-0
  6
ByBlock
 62
     7
370
    50
100
AcDbCircle
 10
436.232955
 20
457.712174
 30
0.0
 40
5.0
100
AcDbArc
 50
90.0
 51
180.0
  0
LINE
  5
363
330
1F
100
AcDbEntity
  8
LC-001-100-D00-0
  6
ByBlock
 62
     7
370
    50
100
AcDbLine
 10
431.232955
 20
457.712173
 30
0.0
 11
431.232955
 21
456.712175
 31
0.0
  0
LINE
  5
364
330
1F
100
AcDbEntity
  8
LC-001-100-D00-0
  6
ByBlock
 62
     7
370
    50
100
AcDbLine
 10
431.232955
 20
456.712175
 30
0.0
 11
450.732955
 21
456.712175
 31
0.0
  0
ARC
  5
365
330
1F
100
AcDbEntity
  8
LC-001-100-D00-0
  6
ByBlock
 62
     7
370
    50
100
AcDbCircle
 10
468.482955
 20
444.712174
 30
0.0
 40
12.0
100
AcDbArc
 50
0.0
 51
90.0
  0
LINE
  5
366
330
1F
100
AcDbEntity
  8
LC-001-100-D00-0
  6
ByBlock
 62
     7
370
    50
100
AcDbLine
 10
480.482955
 20
444.712173
 30
0.0
 11
480.482955
 21
391.712175
 31
0.0
  0
LINE
  5
367
330
1F
100
AcDbEntity
  8
LC-001-100-D00-0
  6
ByBlock
 62
     7
370
    50
100
AcDbLine
 10
480.482955
 20
391.712175
 30
0.0
 11
478.982955
 21
391.712175
 31
0.0
  0
LINE
  5
368
330
1F
100
AcDbEntity
  8
LC-001-100-D00-0
  6
ByBlock
 62
     7
370
    50
100
AcDbLine
 10
478.982955
 20
391.712175
 30
0.0
 11
478.982955
 21
444.712173
 31
0.0
  0
ARC
  5
369
330
1F
100
AcDbEntity
  8
LC-001-100-D00-0
  6
ByBlock
 62
     7
370
    50
100
AcDbCircle
 10
468.982955
 20
444.712174
 30
0.0
 40
10.0
100
AcDbArc
 50
0.0
 51
90.0
  0
LINE
  5
36A
330
1F
100
AcDbEntity
  8
LC-001-100-D00-0
  6
ByBlock
 62
     7
370
    50
100
AcDbLine
 10
468.982956
 20
454.712174
 30
0.0
 11
422.982956
 21
454.712174
 31
0.0
  0
LINE
  5
36B
330
1F
100
AcDbEntity
  8
LC-001-100-D00-0
  6
ByBlock
 62
     7
370
    50
100
AcDbLine
 10
422.982956
 20
454.712174
 30
0.0
 11
422.982956
 21
437.212174
 31
0.0
  0
LINE
  5
36C
330
1F
100
AcDbEntity
  8
LC-001-100-D00-0
  6
ByBlock
 62
     7
370
    50
100
AcDbLine
 10
419.518855
 20
437.212174
 30
0.0
 11
422.982956
 21
437.212174
 31
0.0
  0
LINE
  5
36D
330
1F
100
AcDbEntity
  8
LC-001-100-D00-0
  6
ByBlock
 62
     7
370
    50
100
AcDbLine
 10
418.982955
 20
439.212175
 30
0.0
 11
419.518855
 21
437.212174
 31
0.0
  0
LINE
  5
36E
330
1F
100
AcDbEntity
  8
LC-001-100-D00-0
  6
ByBlock
 62
     7
370
    50
100
AcDbLine
 10
418.982955
 20
441.712174
 30
0.0
 11
418.982955
 21
439.212175
 31
0.0
  0
LINE
  5
36F
330
1F
100
AcDbEntity
  8
LC-001-100-D00-0
  6
ByBlock
 62
     7
370
    50
100
AcDbLine
 10
416.482955
 20
441.712174
 30
0.0
 11
416.482955
 21
432.212175
 31
0.0
  0
LINE
  5
370
330
1F
100
AcDbEntity
  8
LC-001-100-D00-0
  6
ByBlock
 62
     7
370
    50
100
AcDbLine
 10
416.482955
 20
432.212175
 30
0.0
 11
415.009234
 21
426.712174
 31
0.0
  0
LINE
  5
371
330
1F
100
AcDbEntity
  8
LC-001-100-D00-0
  6
ByBlock
 62
     7
370
    50
100
AcDbLine
 10
415.009234
 20
426.712174
 30
0.0
 11
402.982954
 21
426.712174
 31
0.0
  0
LINE
  5
372
330
1F
100
AcDbEntity
  8
LC-001-100-D00-0
  6
ByBlock
 62
     7
370
    50
100
AcDbLine
 10
402.982954
 20
426.712174
 30
0.0
 11
402.982954
 21
391.712175
 31
0.0
  0
LINE
  5
373
330
1F
100
AcDbEntity
  8
LC-001-100-D00-0
  6
ByBlock
 62
     7
370
    50
100
AcDbLine
 10
402.982954
 20
391.712175
 30
0.0
 11
401.482955
 21
391.712175
 31
0.0
  0
LINE
  5
374
330
1F
100
AcDbEntity
  8
LC-001-100-D00-0
  6
ByBlock
 62
     7
370
    50
100
AcDbLine
 10
401.482955
 20
391.712175
 30
0.0
 11
401.482955
 21
444.712173
 31
0.0
  0
ARC
  5
375
330
1F
100
AcDbEntity
  8
LC-001-100-D00-0
  6
ByBlock
 62
     7
370
    50
100
AcDbCircle
 10
413.482955
 20
444.712174
 30
0.0
 40
12.0
100
AcDbArc
 50
90.0
 51
180.0
  0
LINE
  5
376
330
1F
100
AcDbEntity
  8
LC-001-100-D00-0
  6
ByBlock
 62
     7
370
    50
100
AcDbLine
 10
413.482957
 20
456.712175
 30
0.0
 11
427.232955
 21
456.712175
 31
0.0
  0
LINE
  5
377
330
1F
100
AcDbEntity
  8
LC-001-100-D00-0
  6
ByBlock
 62
     7
370
    50
100
AcDbLine
 10
427.232955
 20
456.712175
 30
0.0
 11
427.232955
 21
457.712173
 31
0.0
  0
ARC
  5
378
330
1F
100
AcDbEntity
  8
LC-001-100-D00-0
  6
ByBlock
 62
     7
370
    50
100
AcDbCircle
 10
436.232955
 20
457.712174
 30
0.0
 40
9.0
100
AcDbArc
 50
90.0
 51
180.0
  0
LINE
  5
379
330
1F
100
AcDbEntity
  8
LC-001-100-D00-0
  6
ByBlock
 62
     7
370
    50
100
AcDbLine
 10
445.732956
 20
466.712173
 30
0.0
 11
436.232955
 21
466.712173
 31
0.0
  0
ARC
  5
37A
330
1F
100
AcDbEntity
  8
LC-001-100-D00-0
  6
ByBlock
 62
     7
370
    50
100
AcDbCircle
 10
445.732955
 20
457.712174
 30
0.0
 40
9.0
100
AcDbArc
 50
0.0
 51
90.0
  0
LINE
  5
37B
330
1F
100
AcDbEntity
  8
LC-001-100-D00-0
  6
ByBlock
 62
     7
370
    50
100
AcDbLine
 10
454.732956
 20
456.712175
 30
0.0
 11
454.732956
 21
457.712173
 31
0.0
  0
LINE
  5
37C
330
1F
100
AcDbEntity
  8
LC-001-100-D00-0
  6
ByBlock
 62
     7
370
    50
100
AcDbLine
 10
454.732956
 20
456.712175
 30
0.0
 11
468.482955
 21
456.712175
 31
0.0
  0
INSERT
  5
390
330
1F
100
AcDbEntity
  8
LC-001-100-D00-0
  6
ByBlock
 62
     7
370
    50
100
AcDbBlockReference
  2
POLY11
 10
0.0
 20
0.0
 30
0.0
  0
LINE
  5
391
330
1F
100
AcDbEntity
  8
LC-001-100-D00-0
  6
ByBlock
 62
     7
370
    50
100
AcDbLine
 10
402.982954
 20
391.712175
 30
0.0
 11
416.482955
 21
391.712175
 31
0.0
  0
LINE
  5
392
330
1F
100
AcDbEntity
  8
LC-001-100-D00-0
  6
ByBlock
 62
     7
370
    50
100
AcDbLine
 10
465.482956
 20
391.712175
 30
0.0
 11
478.982955
 21
391.712175
 31
0.0
  0
LINE
  5
393
330
1F
100
AcDbEntity
  8
LC-001-100-D00-0
  6
ByBlock
 62
     7
370
    50
100
AcDbLine
 10
454.881099
 20
456.812173
 30
0.0
 11
454.881099
 21
456.712175
 31
0.0
  0
INSERT
  5
39F
330
1F
100
AcDbEntity
  8
LC-001-100-D00-0
  6
ByBlock
 62
     7
370
    50
100
AcDbBlockReference
  2
POLY12
 10
0.0
 20
0.0
 30
0.0
  0
LINE
  5
3A0
330
1F
100
AcDbEntity
  8
LC-001-100-D00-0
  6
ByBlock
 62
     7
370
    50
100
AcDbLine
 10
455.55446
 20
456.812173
 30
0.0
 11
455.55446
 21
456.712175
 31
0.0
  0
LINE
  5
3A1
330
1F
100
AcDbEntity
  8
LC-001-100-D00-0
  6
ByBlock
 62
     7
370
    50
100
AcDbLine
 10
455.55446
 20
456.812173
 30
0.0
 11
454.881099
 21
456.812173
 31
0.0
  0
LINE
  5
3A2
330
1F
100
AcDbEntity
  8
LC-001-100-D00-0
  6
ByBlock
 62
     7
370
    50
100
AcDbLine
 10
433.620442
 20
456.812173
 30
0.0
 11
433.620442
 21
456.712175
 31
0.0
  0
LINE
  5
3A3
330
1F
100
AcDbEntity
  8
LC-001-100-D00-0
  6
ByBlock
 62
     7
370
    50
100
AcDbLine
 10
434.54693
 20
456.812173
 30
0.0
 11
434.54693
 21
456.712175
 31
0.0
  0
LINE
  5
3A4
330
1F
100
AcDbEntity
  8
LC-001-100-D00-0
  6
ByBlock
 62
     7
370
    50
100
AcDbLine
 10
443.472249
 20
456.812173
 30
0.0
 11
443.472249
 21
456.712175
 31
0.0
  0
LINE
  5
3A5
330
1F
100
AcDbEntity
  8
LC-001-100-D00-0
  6
ByBlock
 62
     7
370
    50
100
AcDbLine
 10
444.398737
 20
456.812173
 30
0.0
 11
444.398737
 21
456.712175
 31
0.0
  0
LINE
  5
3A6
330
1F
100
AcDbEntity
  8
LC-001-100-D00-0
  6
ByBlock
 62
     7
370
    50
100
AcDbLine
 10
431.565788
 20
456.812173
 30
0.0
 11
431.565788
 21
456.712175
 31
0.0
  0
LINE
  5
3A7
330
1F
100
AcDbEntity
  8
LC-001-100-D00-0
  6
ByBlock
 62
     7
370
    50
100
AcDbLine
 10
432.379911
 20
456.812173
 30
0.0
 11
432.379911
 21
456.712175
 31
0.0
  0
INSERT
  5
3B5
330
1F
100
AcDbEntity
  8
LC-001-100-D00-0
  6
ByBlock
 62
     7
370
    50
100
AcDbBlockReference
  2
POLY13
 10
0.0
 20
0.0
 30
0.0
  0
LINE
  5
3B6
330
1F
100
AcDbEntity
  8
LC-001-100-D00-0
  6
ByBlock
 62
     7
370
    50
100
AcDbLine
 10
440.627342
 20
456.812173
 30
0.0
 11
440.627342
 21
456.712175
 31
0.0
  0
LINE
  5
3B7
330
1F
100
AcDbEntity
  8
LC-001-100-D00-0
  6
ByBlock
 62
     7
370
    50
100
AcDbLine
 10
441.995054
 20
456.812173
 30
0.0
 11
441.995054
 21
456.712175
 31
0.0
  0
INSERT
  5
3C5
330
1F
100
AcDbEntity
  8
LC-001-100-D00-0
  6
ByBlock
 62
     7
370
    50
100
AcDbBlockReference
  2
POLY14
 10
0.0
 20
0.0
 30
0.0
  0
LINE
  5
3C6
330
1F
100
AcDbEntity
  8
LC-001-100-D00-0
  6
ByBlock
 62
     7
370
    50
100
AcDbLine
 10
435.401801
 20
456.812173
 30
0.0
 11
435.401801
 21
456.712175
 31
0.0
  0
LINE
  5
3C7
330
1F
100
AcDbEntity
  8
LC-001-100-D00-0
  6
ByBlock
 62
     7
370
    50
100
AcDbLine
 10
445.253608
 20
456.812173
 30
0.0
 11
445.253608
 21
456.712175
 31
0.0
  0
INSERT
  5
3D5
330
1F
100
AcDbEntity
  8
LC-001-100-D00-0
  6
ByBlock
 62
     7
370
    50
100
AcDbBlockReference
  2
POLY15
 10
0.0
 20
0.0
 30
0.0
  0
LINE
  5
3D6
330
1F
100
AcDbEntity
  8
LC-001-100-D00-0
  6
ByBlock
 62
     7
370
    50
100
AcDbLine
 10
443.103465
 20
456.812173
 30
0.0
 11
443.103465
 21
456.712175
 31
0.0
  0
INSERT
  5
3E2
330
1F
100
AcDbEntity
  8
LC-001-100-D00-0
  6
ByBlock
 62
     7
370
    50
100
AcDbBlockReference
  2
POLY16
 10
0.0
 20
0.0
 30
0.0
  0
LINE
  5
3E3
330
1F
100
AcDbEntity
  8
LC-001-100-D00-0
  6
ByBlock
 62
     7
370
    50
100
AcDbLine
 10
449.873289
 20
456.812173
 30
0.0
 11
449.873289
 21
456.712175
 31
0.0
  0
LINE
  5
3E4
330
1F
100
AcDbEntity
  8
LC-001-100-D00-0
  6
ByBlock
 62
     7
370
    50
100
AcDbLine
 10
450.504668
 20
456.812173
 30
0.0
 11
450.504668
 21
456.712175
 31
0.0
  0
INSERT
  5
3F4
330
1F
100
AcDbEntity
  8
LC-001-100-D00-0
  6
ByBlock
 62
     7
370
    50
100
AcDbBlockReference
  2
POLY17
 10
0.0
 20
0.0
 30
0.0
  0
LINE
  5
3F5
330
1F
100
AcDbEntity
  8
LC-001-100-D00-0
  6
ByBlock
 62
     7
370
    50
100
AcDbLine
 10
450.721164
 20
456.812173
 30
0.0
 11
450.504668
 21
456.812173
 31
0.0
  0
LINE
  5
3F6
330
1F
100
AcDbEntity
  8
LC-001-100-D00-0
  6
ByBlock
 62
     7
370
    50
100
AcDbLine
 10
446.876506
 20
456.812173
 30
0.0
 11
446.876506
 21
456.712175
 31
0.0
  0
LINE
  5
3F7
330
1F
100
AcDbEntity
  8
LC-001-100-D00-0
  6
ByBlock
 62
     7
370
    50
100
AcDbLine
 10
447.192607
 20
456.812173
 30
0.0
 11
446.876506
 21
456.812173
 31
0.0
  0
LINE
  5
3F8
330
1F
100
AcDbEntity
  8
LC-001-100-D00-0
  6
ByBlock
 62
     7
370
    50
100
AcDbLine
 10
447.192607
 20
456.812173
 30
0.0
 11
447.192607
 21
456.712175
 31
0.0
  0
LINE
  5
3F9
330
1F
100
AcDbEntity
  8
LC-001-100-D00-0
  6
ByBlock
 62
     7
370
    50
100
AcDbLine
 10
438.862446
 20
456.812173
 30
0.0
 11
438.862446
 21
456.712175
 31
0.0
  0
LINE
  5
3FA
330
1F
100
AcDbEntity
  8
LC-001-100-D00-0
  6
ByBlock
 62
     7
370
    50
100
AcDbLine
 10
439.178547
 20
456.812173
 30
0.0
 11
438.862446
 21
456.812173
 31
0.0
  0
LINE
  5
3FB
330
1F
100
AcDbEntity
  8
LC-001-100-D00-0
  6
ByBlock
 62
     7
370
    50
100
AcDbLine
 10
439.178547
 20
456.812173
 30
0.0
 11
439.178547
 21
456.712175
 31
0.0
  0
LINE
  5
3FC
330
1F
100
AcDbEntity
  8
LC-001-100-D00-0
  6
ByBlock
 62
     7
370
    50
100
AcDbLine
 10
437.650726
 20
456.812173
 30
0.0
 11
437.650726
 21
456.712175
 31
0.0
  0
LINE
  5
3FD
330
1F
100
AcDbEntity
  8
LC-001-100-D00-0
  6
ByBlock
 62
     7
370
    50
100
AcDbLine
 10
437.966827
 20
456.812173
 30
0.0
 11
437.650726
 21
456.812173
 31
0.0
  0
LINE
  5
3FE
330
1F
100
AcDbEntity
  8
LC-001-100-D00-0
  6
ByBlock
 62
     7
370
    50
100
AcDbLine
 10
437.966827
 20
456.812173
 30
0.0
 11
437.966827
 21
456.712175
 31
0.0
  0
LINE
  5
3FF
330
1F
100
AcDbEntity
  8
LC-001-100-D00-0
  6
ByBlock
 62
     7
370
    50
100
AcDbLine
 10
449.141895
 20
456.812173
 30
0.0
 11
449.141895
 21
456.712175
 31
0.0
  0
LINE
  5
400
330
1F
100
AcDbEntity
  8
LC-001-100-D00-0
  6
ByBlock
 62
     7
370
    50
100
AcDbLine
 10
449.457996
 20
456.812173
 30
0.0
 11
449.457996
 21
456.712175
 31
0.0
  0
LINE
  5
401
330
1F
100
AcDbEntity
  8
LC-001-100-D00-0
  6
ByBlock
 62
     7
370
    50
100
AcDbLine
 10
449.457996
 20
456.812173
 30
0.0
 11
449.141895
 21
456.812173
 31
0.0
  0
LINE
  5
402
330
1F
100
AcDbEntity
  8
LC-001-100-D00-0
  6
ByBlock
 62
     7
370
    50
100
AcDbLine
 10
436.834132
 20
456.812173
 30
0.0
 11
436.834132
 21
456.712175
 31
0.0
  0
LINE
  5
403
330
1F
100
AcDbEntity
  8
LC-001-100-D00-0
  6
ByBlock
 62
     7
370
    50
100
AcDbLine
 10
437.150234
 20
456.812173
 30
0.0
 11
436.834132
 21
456.812173
 31
0.0
  0
LINE
  5
404
330
1F
100
AcDbEntity
  8
LC-001-100-D00-0
  6
ByBlock
 62
     7
370
    50
100
AcDbLine
 10
437.150234
 20
456.812173
 30
0.0
 11
437.150234
 21
456.712175
 31
0.0
  0
LINE
  5
405
330
1F
100
AcDbEntity
  8
LC-001-100-D00-0
  6
ByBlock
 62
     7
370
    50
100
AcDbLine
 10
426.9033
 20
456.812173
 30
0.0
 11
426.9033
 21
456.712175
 31
0.0
  0
LINE
  5
406
330
1F
100
AcDbEntity
  8
LC-001-100-D00-0
  6
ByBlock
 62
     7
370
    50
100
AcDbLine
 10
426.9033
 20
456.812173
 30
0.0
 11
426.560858
 21
456.812173
 31
0.0
  0
LINE
  5
407
330
1F
100
AcDbEntity
  8
LC-001-100-D00-0
  6
ByBlock
 62
     7
370
    50
100
AcDbLine
 10
426.560858
 20
456.812173
 30
0.0
 11
426.560858
 21
456.712175
 31
0.0
  0
LINE
  5
408
330
1F
100
AcDbEntity
  8
LC-001-100-D00-0
  6
ByBlock
 62
     7
370
    50
100
AcDbLine
 10
431.276027
 20
456.812173
 30
0.0
 11
431.276027
 21
456.712175
 31
0.0
  0
LINE
  5
409
330
1F
100
AcDbEntity
  8
LC-001-100-D00-0
  6
ByBlock
 62
     7
370
    50
100
AcDbLine
 10
431.276027
 20
456.812173
 30
0.0
 11
431.232955
 21
456.812173
 31
0.0
  0
LINE
  5
40A
330
1F
100
AcDbEntity
  8
LC-001-100-D00-0
  6
ByBlock
 62
     7
370
    50
100
AcDbLine
 10
448.325301
 20
456.812173
 30
0.0
 11
448.325301
 21
456.712175
 31
0.0
  0
LINE
  5
40B
330
1F
100
AcDbEntity
  8
LC-001-100-D00-0
  6
ByBlock
 62
     7
370
    50
100
AcDbLine
 10
448.0092
 20
456.812173
 30
0.0
 11
448.0092
 21
456.712175
 31
0.0
  0
LINE
  5
40C
330
1F
100
AcDbEntity
  8
LC-001-100-D00-0
  6
ByBlock
 62
     7
370
    50
100
AcDbLine
 10
448.325301
 20
456.812173
 30
0.0
 11
448.0092
 21
456.812173
 31
0.0
  0
LINE
  5
40D
330
1F
100
AcDbEntity
  8
LC-001-100-D00-0
  6
ByBlock
 62
     7
370
    50
100
AcDbLine
 10
445.658612
 20
456.812173
 30
0.0
 11
445.658612
 21
456.712175
 31
0.0
  0
LINE
  5
40E
330
1F
100
AcDbEntity
  8
LC-001-100-D00-0
  6
ByBlock
 62
     7
370
    50
100
AcDbLine
 10
445.974713
 20
456.812173
 30
0.0
 11
445.974713
 21
456.712175
 31
0.0
  0
LINE
  5
40F
330
1F
100
AcDbEntity
  8
LC-001-100-D00-0
  6
ByBlock
 62
     7
370
    50
100
AcDbLine
 10
445.974713
 20
456.812173
 30
0.0
 11
445.658612
 21
456.812173
 31
0.0
  0
LINE
  5
410
330
1F
100
AcDbEntity
  8
LC-001-100-D00-0
  6
ByBlock
 62
     7
370
    50
100
AcDbLine
 10
427.232955
 20
456.812173
 30
0.0
 11
426.9033
 21
456.812173
 31
0.0
  0
LINE
  5
411
330
1F
100
AcDbEntity
  8
LC-001-100-D00-0
  6
ByBlock
 62
     7
370
    50
100
AcDbLine
 10
433.225315
 20
456.812173
 30
0.0
 11
433.225315
 21
456.712175
 31
0.0
  0
LINE
  5
412
330
1F
100
AcDbEntity
  8
LC-001-100-D00-0
  6
ByBlock
 62
     7
370
    50
100
AcDbLine
 10
432.909215
 20
456.812173
 30
0.0
 11
432.909215
 21
456.712175
 31
0.0
  0
LINE
  5
413
330
1F
100
AcDbEntity
  8
LC-001-100-D00-0
  6
ByBlock
 62
     7
370
    50
100
AcDbLine
 10
433.225315
 20
456.812173
 30
0.0
 11
432.909215
 21
456.812173
 31
0.0
  0
LINE
  5
414
330
1F
100
AcDbEntity
  8
LC-001-100-D00-0
  6
ByBlock
 62
     7
370
    50
100
AcDbLine
 10
435.410033
 20
456.812173
 30
0.0
 11
435.410033
 21
456.712175
 31
0.0
  0
LINE
  5
415
330
1F
100
AcDbEntity
  8
LC-001-100-D00-0
  6
ByBlock
 62
     7
370
    50
100
AcDbLine
 10
435.41168
 20
456.812173
 30
0.0
 11
435.41168
 21
456.712175
 31
0.0
  0
LINE
  5
416
330
1F
100
AcDbEntity
  8
LC-001-100-D00-0
  6
ByBlock
 62
     7
370
    50
100
AcDbLine
 10
445.26184
 20
456.812173
 30
0.0
 11
445.26184
 21
456.712175
 31
0.0
  0
LINE
  5
417
330
1F
100
AcDbEntity
  8
LC-001-100-D00-0
  6
ByBlock
 62
     7
370
    50
100
AcDbLine
 10
445.263487
 20
456.812173
 30
0.0
 11
445.263487
 21
456.712175
 31
0.0
  0
LINE
  5
418
330
1F
100
AcDbEntity
  8
LC-001-100-D00-0
  6
ByBlock
 62
     7
370
    50
100
AcDbLine
 10
447.668816
 20
456.812173
 30
0.0
 11
447.668816
 21
456.712175
 31
0.0
  0
INSERT
  5
428
330
1F
100
AcDbEntity
  8
LC-001-100-D00-0
  6
ByBlock
 62
     7
370
    50
100
AcDbBlockReference
  2
POLY18
 10
0.0
 20
0.0
 30
0.0
  0
LINE
  5
429
330
1F
100
AcDbEntity
  8
LC-001-100-D00-0
  6
ByBlock
 62
     7
370
    50
100
AcDbLine
 10
446.02822
 20
456.812173
 30
0.0
 11
446.02822
 21
456.712175
 31
0.0
  0
INSERT
  5
435
330
1F
100
AcDbEntity
  8
LC-001-100-D00-0
  6
ByBlock
 62
     7
370
    50
100
AcDbBlockReference
  2
POLY19
 10
0.0
 20
0.0
 30
0.0
  0
LINE
  5
436
330
1F
100
AcDbEntity
  8
LC-001-100-D00-0
  6
ByBlock
 62
     7
370
    50
100
AcDbLine
 10
438.468967
 20
456.812173
 30
0.0
 11
438.468967
 21
456.712175
 31
0.0
  0
INSERT
  5
446
330
1F
100
AcDbEntity
  8
LC-001-100-D00-0
  6
ByBlock
 62
     7
370
    50
100
AcDbBlockReference
  2
POLY20
 10
0.0
 20
0.0
 30
0.0
  0
LINE
  5
447
330
1F
100
AcDbEntity
  8
LC-001-100-D00-0
  6
ByBlock
 62
     7
370
    50
100
AcDbLine
 10
448.798217
 20
456.812173
 30
0.0
 11
448.798217
 21
456.712175
 31
0.0
  0
INSERT
  5
457
330
1F
100
AcDbEntity
  8
LC-001-100-D00-0
  6
ByBlock
 62
     7
370
    50
100
AcDbBlockReference
  2
POLY21
 10
0.0
 20
0.0
 30
0.0
  0
INSERT
  5
467
330
1F
100
AcDbEntity
  8
LC-001-100-D00-0
  6
ByBlock
 62
     7
370
    50
100
AcDbBlockReference
  2
POLY22
 10
0.0
 20
0.0
 30
0.0
  0
INSERT
  5
477
330
1F
100
AcDbEntity
  8
LC-001-100-D00-0
  6
ByBlock
 62
     7
370
    50
100
AcDbBlockReference
  2
POLY23
 10
0.0
 20
0.0
 30
0.0
  0
INSERT
  5
487
330
1F
100
AcDbEntity
  8
LC-001-100-D00-0
  6
ByBlock
 62
     7
370
    50
100
AcDbBlockReference
  2
POLY24
 10
0.0
 20
0.0
 30
0.0
  0
LINE
  5
488
330
1F
100
AcDbEntity
  8
LC-001-100-D00-0
  6
ByBlock
 62
     7
370
    50
100
AcDbLine
 10
446.337324
 20
456.812173
 30
0.0
 11
446.337324
 21
456.712175
 31
0.0
  0
INSERT
  5
498
330
1F
100
AcDbEntity
  8
LC-001-100-D00-0
  6
ByBlock
 62
     7
370
    50
100
AcDbBlockReference
  2
POLY25
 10
0.0
 20
0.0
 30
0.0
  0
LINE
  5
499
330
1F
100
AcDbEntity
  8
LC-001-100-D00-0
  6
ByBlock
 62
     7
370
    50
100
AcDbLine
 10
446.572753
 20
456.812173
 30
0.0
 11
446.572753
 21
456.712175
 31
0.0
  0
INSERT
  5
4A5
330
1F
100
AcDbEntity
  8
LC-001-100-D00-0
  6
ByBlock
 62
     7
370
    50
100
AcDbBlockReference
  2
POLY26
 10
0.0
 20
0.0
 30
0.0
  0
LINE
  5
4A6
330
1F
100
AcDbEntity
  8
LC-001-100-D00-0
  6
ByBlock
 62
     7
370
    50
100
AcDbLine
 10
446.68594
 20
456.812173
 30
0.0
 11
446.68594
 21
456.712175
 31
0.0
  0
LINE
  5
4A7
330
1F
100
AcDbEntity
  8
LC-001-100-D00-0
  6
ByBlock
 62
     7
370
    50
100
AcDbLine
 10
446.68594
 20
456.812173
 30
0.0
 11
446.572753
 21
456.812173
 31
0.0
  0
LINE
  5
4A8
330
1F
100
AcDbEntity
  8
LC-001-100-D00-0
  6
ByBlock
 62
     7
370
    50
100
AcDbLine
 10
426.560858
 20
456.812173
 30
0.0
 11
425.243262
 21
456.812173
 31
0.0
  0
LINE
  5
4A9
330
1F
100
AcDbEntity
  8
LC-001-100-D00-0
  6
ByBlock
 62
     7
370
    50
100
AcDbLine
 10
433.225315
 20
456.812173
 30
0.0
 11
433.636932
 21
456.812173
 31
0.0
  0
LINE
  5
4AA
330
1F
100
AcDbEntity
  8
LC-001-100-D00-0
  6
ByBlock
 62
     7
370
    50
100
AcDbLine
 10
435.985515
 20
456.812173
 30
0.0
 11
435.985515
 21
456.712175
 31
0.0
  0
LINE
  5
4AB
330
1F
100
AcDbEntity
  8
LC-001-100-D00-0
  6
ByBlock
 62
     7
370
    50
100
AcDbLine
 10
435.475924
 20
456.812173
 30
0.0
 11
435.985515
 21
456.812173
 31
0.0
  0
LINE
  5
4AC
330
1F
100
AcDbEntity
  8
LC-001-100-D00-0
  6
ByBlock
 62
     7
370
    50
100
AcDbLine
 10
437.150234
 20
456.812173
 30
0.0
 11
437.650726
 21
456.812173
 31
0.0
  0
LINE
  5
4AD
330
1F
100
AcDbEntity
  8
LC-001-100-D00-0
  6
ByBlock
 62
     7
370
    50
100
AcDbLine
 10
437.966827
 20
456.812173
 30
0.0
 11
438.072413
 21
456.812173
 31
0.0
  0
LINE
  5
4AE
330
1F
100
AcDbEntity
  8
LC-001-100-D00-0
  6
ByBlock
 62
     7
370
    50
100
AcDbLine
 10
439.178547
 20
456.812173
 30
0.0
 11
440.970882
 21
456.812173
 31
0.0
  0
LINE
  5
4AF
330
1F
100
AcDbEntity
  8
LC-001-100-D00-0
  6
ByBlock
 62
     7
370
    50
100
AcDbLine
 10
443.463566
 20
456.812173
 30
0.0
 11
443.463566
 21
456.712175
 31
0.0
  0
LINE
  5
4B0
330
1F
100
AcDbEntity
  8
LC-001-100-D00-0
  6
ByBlock
 62
     7
370
    50
100
AcDbLine
 10
443.188945
 20
456.812173
 30
0.0
 11
443.463566
 21
456.812173
 31
0.0
  0
LINE
  5
4B1
330
1F
100
AcDbEntity
  8
LC-001-100-D00-0
  6
ByBlock
 62
     7
370
    50
100
AcDbLine
 10
445.434525
 20
456.812173
 30
0.0
 11
445.658612
 21
456.812173
 31
0.0
  0
LINE
  5
4B2
330
1F
100
AcDbEntity
  8
LC-001-100-D00-0
  6
ByBlock
 62
     7
370
    50
100
AcDbLine
 10
445.434525
 20
456.812173
 30
0.0
 11
445.434525
 21
456.712175
 31
0.0
  0
LINE
  5
4B3
330
1F
100
AcDbEntity
  8
LC-001-100-D00-0
  6
ByBlock
 62
     7
370
    50
100
AcDbLine
 10
449.457996
 20
456.812173
 30
0.0
 11
449.817904
 21
456.812173
 31
0.0
  0
LINE
  5
4B4
330
1F
100
AcDbEntity
  8
LC-001-100-D00-0
  6
ByBlock
 62
     7
370
    50
100
AcDbLine
 10
448.325301
 20
456.812173
 30
0.0
 11
448.332994
 21
456.812173
 31
0.0
  0
LINE
  5
4B5
330
1F
100
AcDbEntity
  8
LC-001-100-D00-0
  6
ByBlock
 62
     7
370
    50
100
AcDbLine
 10
435.985515
 20
456.812173
 30
0.0
 11
436.834132
 21
456.812173
 31
0.0
  0
LINE
  5
4B6
330
1F
100
AcDbEntity
  8
LC-001-100-D00-0
  6
ByBlock
 62
     7
370
    50
100
AcDbLine
 10
450.716721
 20
437.212174
 30
0.0
 11
450.848981
 21
454.712174
 31
0.0
  0
LINE
  5
4B7
330
1F
100
AcDbEntity
  8
LC-001-100-D00-0
  6
ByBlock
 62
     7
370
    50
100
AcDbLine
 10
449.24919
 20
437.212174
 30
0.0
 11
450.716721
 21
437.212174
 31
0.0
  0
LINE
  5
4B8
330
1F
100
AcDbEntity
  8
LC-001-100-D00-0
  6
ByBlock
 62
     7
370
    50
100
AcDbLine
 10
449.24919
 20
437.212174
 30
0.0
 11
449.11693
 21
454.712174
 31
0.0
  0
LINE
  5
4B9
330
1F
100
AcDbEntity
  8
LC-001-100-D00-0
  6
ByBlock
 62
     7
370
    50
100
AcDbLine
 10
452.448772
 20
437.212174
 30
0.0
 11
452.722868
 21
439.148806
 31
0.0
  0
LINE
  5
4BA
330
1F
100
AcDbEntity
  8
LC-001-100-D00-0
  6
ByBlock
 62
     7
370
    50
100
AcDbLine
 10
452.448772
 20
437.212174
 30
0.0
 11
450.716721
 21
437.212174
 31
0.0
  0
LINE
  5
4BB
330
1F
100
AcDbEntity
  8
LC-001-100-D00-0
  6
ByBlock
 62
     7
370
    50
100
AcDbLine
 10
425.232103
 20
456.812173
 30
0.0
 11
425.243262
 21
456.812173
 31
0.0
  0
LINE
  5
4BC
330
1F
100
AcDbEntity
  8
LC-001-100-D00-0
  6
ByBlock
 62
     7
370
    50
100
AcDbLine
 10
446.572753
 20
456.812173
 30
0.0
 11
446.535943
 21
456.812173
 31
0.0
  0
LINE
  5
4BD
330
1F
100
AcDbEntity
  8
LC-001-100-D00-0
  6
ByBlock
 62
     7
370
    50
100
AcDbLine
 10
445.434525
 20
456.812173
 30
0.0
 11
445.318586
 21
456.812173
 31
0.0
  0
LINE
  5
4BE
330
1F
100
AcDbEntity
  8
LC-001-100-D00-0
  6
ByBlock
 62
     7
370
    50
100
AcDbLine
 10
446.68594
 20
456.812173
 30
0.0
 11
446.876506
 21
456.812173
 31
0.0
  0
INSERT
  5
4DB
330
1F
100
AcDbEntity
  8
LC-001-100-D00-0
  6
ByBlock
 62
     7
370
    25
100
AcDbBlockReference
  2
KLON5
 10
0.0
 20
0.0
 30
0.0
  0
INSERT
  5
4E1
330
1F
100
AcDbEntity
  8
LC-001-100-D00-0
  6
ByBlock
 62
     7
370
    25
100
AcDbBlockReference
  2
KLON6
 10
0.0
 20
0.0
 30
0.0
  0
INSERT
  5
4E7
330
1F
100
AcDbEntity
  8
LC-001-100-D00-0
  6
ByBlock
 62
     7
370
    25
100
AcDbBlockReference
  2
KLON7
 10
0.0
 20
0.0
 30
0.0
  0
LINE
  5
4E8
330
1F
100
AcDbEntity
  8
LC-001-100-D00-0
  6
ByBlock
 62
     7
370
    25
100
AcDbLine
 10
400.482955
 20
498.912986
 30
0.0
 11
401.940566
 21
500.370597
 31
0.0
  0
LINE
  5
4E9
330
1F
100
AcDbEntity
  8
LC-001-100-D00-0
  6
ByBlock
 62
     7
370
    25
100
AcDbLine
 10
472.482955
 20
499.070937
 30
0.0
 11
473.9127
 21
500.500682
 31
0.0
  0
INSERT
  5
4F2
330
1F
100
AcDbEntity
  8
LC-001-100-D00-0
  6
ByBlock
 62
     7
370
    25
100
AcDbBlockReference
  2
KLON8
 10
0.0
 20
0.0
 30
0.0
  0
INSERT
  5
4FA
330
1F
100
AcDbEntity
  8
LC-001-100-D00-0
  6
ByBlock
 62
     7
370
    25
100
AcDbBlockReference
  2
KLON9
 10
0.0
 20
0.0
 30
0.0
  0
INSERT
  5
502
330
1F
100
AcDbEntity
  8
LC-001-100-D00-0
  6
ByBlock
 62
     7
370
    25
100
AcDbBlockReference
  2
KLON10
 10
0.0
 20
0.0
 30
0.0
  0
INSERT
  5
50A
330
1F
100
AcDbEntity
  8
LC-001-100-D00-0
  6
ByBlock
 62
     7
370
    50
100
AcDbBlockReference
  2
KLON11
 10
0.0
 20
0.0
 30
0.0
  0
INSERT
  5
512
330
1F
100
AcDbEntity
  8
LC-001-100-D00-0
  6
ByBlock
 62
     7
370
    50
100
AcDbBlockReference
  2
KLON12
 10
0.0
 20
0.0
 30
0.0
  0
LINE
  5
513
330
1F
100
AcDbEntity
  8
LC-001-100-D00-0
  6
ByBlock
 62
     7
370
    25
100
AcDbLine
 10
490.282955
 20
498.910425
 30
0.0
 11
490.982955
 21
499.610425
 31
0.0
  0
INSERT
  5
519
330
1F
100
AcDbEntity
  8
LC-001-100-D00-0
  6
ByBlock
 62
     7
370
    25
100
AcDbBlockReference
  2
KLON13
 10
0.0
 20
0.0
 30
0.0
  0
INSERT
  5
522
330
1F
100
AcDbEntity
  8
LC-001-100-D00-0
  6
ByBlock
 62
     7
370
    25
100
AcDbBlockReference
  2
KLON14
 10
0.0
 20
0.0
 30
0.0
  0
INSERT
  5
52A
330
1F
100
AcDbEntity
  8
LC-001-100-D00-0
  6
ByBlock
 62
     7
370
    25
100
AcDbBlockReference
  2
KLON15
 10
0.0
 20
0.0
 30
0.0
  0
INSERT
  5
553
330
1F
100
AcDbEntity
  8
LC-001-100-D00-0
  6
ByBlock
 62
     7
370
    25
100
AcDbBlockReference
  2
KLON16
 10
0.0
 20
0.0
 30
0.0
  0
INSERT
  5
57D
330
1F
100
AcDbEntity
  8
LC-001-100-D00-0
  6
ByBlock
 62
     7
370
    25
100
AcDbBlockReference
  2
KLON17
 10
0.0
 20
0.0
 30
0.0
  0
INSERT
  5
58B
330
1F
100
AcDbEntity
  8
LC-001-100-D00-0
  6
ByBlock
 62
     7
370
    50
100
AcDbBlockReference
  2
KLON18
 10
0.0
 20
0.0
 30
0.0
  0
INSERT
  5
598
330
1F
100
AcDbEntity
  8
LC-001-100-D00-0
  6
ByBlock
 62
     7
370
    50
100
AcDbBlockReference
  2
KLON19
 10
0.0
 20
0.0
 30
0.0
  0
DIMENSION
  5
59B
330
1F
100
AcDbEntity
  8
LC-001-100-D00-0
  6
ByBlock
 62
     7
370
    25
100
AcDbDimension
  2
*D46
 10
465.982955
 20
299.376
 30
0.0
 11
550.311724
 21
330.176
 31
0.0
 70
   160
  1
DN50
 71
     5
 42
50.0
  3
LC-DIM-L-0140-02-02
100
AcDbAlignedDimension
 13
415.982955
 23
322.212174
 33
0.0
 14
465.982955
 24
322.212174
 34
0.0
100
AcDbRotatedDimension
  0
DIMENSION
  5
5AA
330
1F
100
AcDbEntity
  8
LC-001-100-D00-0
  6
ByBlock
 62
     7
370
    25
100
AcDbDimension
  2
*D47
 10
495.982955
 20
251.262
 30
0.0
 11
437.729486
 21
282.062
 31
0.0
 70
   160
  1
%%c110
 71
     5
 42
110.0
  3
LC-DIM-L-0140-02-02
100
AcDbAlignedDimension
 13
385.982955
 23
391.908441
 33
0.0
 14
495.982955
 24
391.908441
 34
0.0
100
AcDbRotatedDimension
  0
DIMENSION
  5
5B7
330
1F
100
AcDbEntity
  8
LC-001-100-D00-0
  6
ByBlock
 62
     7
370
    25
100
AcDbDimension
  2
*D48
 10
622.116144
 20
469.912174
 30
0.0
 11
591.316144
 21
463.914
 31
0.0
 70
   160
  1
6,5-33
 71
     5
 42
33.2
 53
90.0
  3
LC-DIM-L-0140-02-02
100
AcDbAlignedDimension
 13
489.282955
 23
503.112174
 33
0.0
 14
598.482955
 24
469.912174
 34
0.0
 50
90.0
100
AcDbRotatedDimension
  0
DIMENSION
  5
5C5
330
1F
100
AcDbEntity
  8
LC-001-100-D00-0
  6
ByBlock
 62
     7
370
    25
100
AcDbDimension
  2
*D49
 10
503.982955
 20
207.306
 30
0.0
 11
436.843012
 21
238.106
 31
0.0
 70
   160
  1
%%c126
 71
     5
 42
126.0
  3
LC-DIM-L-0140-02-02
100
AcDbAlignedDimension
 13
377.982955
 23
437.212174
 33
0.0
 14
503.982955
 24
437.212174
 34
0.0
100
AcDbRotatedDimension
  0
DIMENSION
  5
5D2
330
1F
100
AcDbEntity
  8
LC-001-100-D00-0
  6
ByBlock
 62
     7
370
    25
100
AcDbDimension
  2
*D50
 10
251.56988
 20
434.212174
 30
0.0
 11
220.76988
 21
417.582
 31
0.0
 70
   160
  1
36
 71
     5
 42
35.7
 53
90.0
  3
LC-DIM-L-0140-02-02
100
AcDbAlignedDimension
 13
283.482955
 23
469.912174
 33
0.0
 14
380.982955
 24
434.212174
 34
0.0
 50
90.0
100
AcDbRotatedDimension
  0
DIMENSION
  5
5E0
330
1F
100
AcDbEntity
  8
LC-001-100-D00-0
  6
ByBlock
 62
     7
370
    25
100
AcDbDimension
  2
*D51
 10
202.813793
 20
377.212174
 30
0.0
 11
172.013793
 21
419.958
 31
0.0
 70
   160
  1
93
 71
     5
 42
92.7
 53
90.0
  3
LC-DIM-L-0140-02-02
100
AcDbAlignedDimension
 13
283.482955
 23
469.912174
 33
0.0
 14
392.222789
 24
377.212174
 34
0.0
 50
90.0
100
AcDbRotatedDimension
  0
DIMENSION
  5
5ED
330
1F
100
AcDbEntity
  8
LC-001-100-D00-0
  6
ByBlock
 62
     7
370
    25
100
AcDbDimension
  2
*D52
 10
292.347699
 20
319.212174
 30
0.0
 11
261.547699
 21
334.422
 31
0.0
 70
   160
  1
58
 71
     5
 42
58.0
 53
90.0
  3
LC-DIM-L-0140-02-02
100
AcDbAlignedDimension
 13
392.222789
 23
377.212174
 33
0.0
 14
416.786803
 24
319.212174
 34
0.0
 50
90.0
100
AcDbRotatedDimension
  0
DIMENSION
  5
5FC
330
1F
100
AcDbEntity
  8
LC-001-100-D00-0
  6
ByBlock
 62
     7
370
    25
100
AcDbDimension
  2
*D53
 10
598.482955
 20
555.39
 30
0.0
 11
437.729486
 21
586.19
 31
0.0
 70
   160
  1
%%c315
 71
     5
 42
315.0
  3
LC-DIM-L-0140-02-02
100
AcDbAlignedDimension
 13
283.482955
 23
466.912174
 33
0.0
 14
598.482955
 24
466.912174
 34
0.0
100
AcDbRotatedDimension
  0
DIMENSION
  5
609
330
1F
100
AcDbEntity
  8
LC-001-100-D00-0
  6
ByBlock
 62
     7
370
    25
100
AcDbDimension
  2
*D54
 10
490.982955
 20
513.81
 30
0.0
 11
457.231921
 21
544.61
 31
0.0
 70
   160
  1
100
 71
     5
 42
100.0
  3
LC-DIM-L-0140-02-02
100
AcDbAlignedDimension
 13
390.982955
 23
501.412174
 33
0.0
 14
490.982955
 24
501.412174
 34
0.0
100
AcDbRotatedDimension
  0
DIMENSION
  5
616
330
1F
100
AcDbEntity
  8
LC-001-100-D00-0
  6
ByBlock
 62
     7
370
    25
100
AcDbDimension
  2
*D55
 10
349.968529
 20
441.712174
 30
0.0
 11
319.168529
 21
400.356
 31
0.0
 70
   160
  1
50
 71
     5
 42
50.0
 53
90.0
  3
LC-DIM-L-0140-02-02
100
AcDbAlignedDimension
 13
401.482955
 23
391.712174
 33
0.0
 14
416.482955
 24
441.712174
 34
0.0
 50
90.0
100
AcDbRotatedDimension
  0
LINE
  5
625
330
1F
100
AcDbEntity
  8
LC-001-100-D00-0
  6
ByBlock
 62
     7
370
    50
100
AcDbLine
 10
395.482954
 20
27.324
 30
0.0
 11
395.482954
 21
70.324001
 31
0.0
  0
LINE
  5
626
330
1F
100
AcDbEntity
  8
LC-001-100-D00-0
  6
ByBlock
 62
     7
370
    50
100
AcDbLine
 10
290.245459
 20
454.912839
 30
0.0
 11
290.8507
 21
452.65402
 31
0.0
  0
ARC
  5
627
330
1F
100
AcDbEntity
  8
LC-001-100-D00-0
  6
ByBlock
 62
     7
370
    50
100
AcDbCircle
 10
291.816627
 20
452.912838
 30
0.0
 40
1.00000000000003
100
AcDbArc
 50
195.0
 51
270.0
  0
LINE
  5
628
330
1F
100
AcDbEntity
  8
LC-001-100-D00-0
  6
ByBlock
 62
     7
370
    50
100
AcDbLine
 10
302.686574
 20
452.493166
 30
0.0
 11
306.758829
 21
466.912174
 31
0.0
  0
ARC
  5
629
330
1F
100
AcDbEntity
  8
LC-001-100-D00-0
  6
ByBlock
 62
     7
370
    50
100
AcDbCircle
 10
301.778898
 20
452.912838
 30
0.0
 40
1.00000002306029
100
AcDbArc
 50
269.998205
 51
344.729719
  0
LINE
  5
62A
330
1F
100
AcDbEntity
  8
LC-001-100-D00-0
  6
ByBlock
 62
     7
370
    50
100
AcDbLine
 10
298.70385
 20
452.912838
 30
0.0
 11
299.327568
 21
454.912839
 31
0.0
  0
LINE
  5
62B
330
1F
100
AcDbEntity
  8
LC-001-100-D00-0
  6
ByBlock
 62
     7
370
    50
100
AcDbLine
 10
298.64815
 20
452.65402
 30
0.0
 11
298.70385
 21
452.912838
 31
0.0
  0
LINE
  5
62C
330
1F
100
AcDbEntity
  8
LC-001-100-D00-0
  6
ByBlock
 62
     7
370
    50
100
AcDbLine
 10
290.245459
 20
454.912839
 30
0.0
 11
299.327568
 21
454.912839
 31
0.0
  0
INSERT
  5
63E
330
1F
100
AcDbEntity
  8
LC-001-100-D00-0
  6
ByBlock
 62
     7
370
    50
100
AcDbBlockReference
  2
POLY27
 10
0.0
 20
0.0
 30
0.0
  0
LINE
  5
63F
330
1F
100
AcDbEntity
  8
LC-001-100-D00-0
  6
ByBlock
 62
     7
370
    50
100
AcDbLine
 10
301.778898
 20
451.912838
 30
0.0
 11
291.816623
 21
451.912838
 31
0.0
  0
LINE
  5
640
330
1F
100
AcDbEntity
  8
LC-001-100-D00-0
  6
ByBlock
 62
     7
370
    50
100
AcDbLine
 10
299.27607
 20
454.912839
 30
0.0
 11
302.950927
 21
466.912174
 31
0.0
  0
LINE
  5
641
330
1F
100
AcDbEntity
  8
LC-001-100-D00-0
  6
ByBlock
 62
     7
370
    50
100
AcDbLine
 10
302.702443
 20
452.654415
 30
0.0
 11
302.721993
 21
452.654802
 31
0.0
  0
INSERT
  5
64D
330
1F
100
AcDbEntity
  8
LC-001-100-D00-0
  6
ByBlock
 62
     7
370
    50
100
AcDbBlockReference
  2
POLY28
 10
0.0
 20
0.0
 30
0.0
  0
DIMENSION
  5
64F
330
1F
100
AcDbEntity
  8
LC-002-003-----0
 62
     7
370
    25
100
AcDbDimension
  2
*D58
 10
270.15735
 20
451.912838
 30
0.0
 11
239.35735
 21
477.948177
 31
0.0
 70
   160
 71
     5
 42
17.999335
 53
90.0
  3
LC-DIM-L-0140-02-02
100
AcDbAlignedDimension
 13
282.860421
 23
469.912173
 33
0.0
 14
291.816623
 24
451.912838
 34
0.0
 50
90.0
100
AcDbRotatedDimension
  0
INSERT
  5
668
330
1F
100
AcDbEntity
  8
LC-001-100-D00-0
  6
ByBlock
 62
     7
370
    50
100
AcDbBlockReference
  2
POLY29
 10
0.0
 20
0.0
 30
0.0
  0
LINE
  5
669
330
1F
100
AcDbEntity
  8
LC-001-100-D00-0
  6
ByBlock
 62
     7
370
    50
100
AcDbLine
 10
535.072325
 20
454.912839
 30
0.0
 11
534.467078
 21
452.65402
 31
0.0
  0
ARC
  5
66A
330
1F
100
AcDbEntity
  8
LC-001-100-D00-0
  6
ByBlock
 62
     7
370
    50
100
AcDbCircle
 10
533.501152
 20
452.912838
 30
0.0
 40
1.000000000000057
100
AcDbArc
 50
270.0
 51
345.0
  0
ARC
  5
66B
330
1F
100
AcDbEntity
  8
LC-001-100-D00-0
  6
ByBlock
 62
     7
370
    50
100
AcDbCircle
 10
524.988589
 20
452.912838
 30
0.0
 40
0.999999999999954
100
AcDbArc
 50
189.461573
 51
270.0
  0
LINE
  5
66C
330
1F
100
AcDbEntity
  8
LC-001-100-D00-0
  6
ByBlock
 62
     7
370
    50
100
AcDbLine
 10
529.357432
 20
454.912839
 30
0.0
 11
527.337252
 21
462.912174
 31
0.0
  0
LINE
  5
66D
330
1F
100
AcDbEntity
  8
LC-001-100-D00-0
  6
ByBlock
 62
     7
370
    50
100
AcDbLine
 10
529.709152
 20
452.912838
 30
0.0
 11
529.325775
 21
454.912839
 31
0.0
  0
INSERT
  5
67B
330
1F
100
AcDbEntity
  8
LC-001-100-D00-0
  6
ByBlock
 62
     7
370
    50
100
AcDbBlockReference
  2
POLY30
 10
0.0
 20
0.0
 30
0.0
  0
LINE
  5
67C
330
1F
100
AcDbEntity
  8
LC-001-100-D00-0
  6
ByBlock
 62
     7
370
    50
100
AcDbLine
 10
529.719091
 20
452.65402
 30
0.0
 11
529.709152
 21
452.912838
 31
0.0
  0
LINE
  5
67D
330
1F
100
AcDbEntity
  8
LC-001-100-D00-0
  6
ByBlock
 62
     7
370
    50
100
AcDbLine
 10
535.072325
 20
454.912839
 30
0.0
 11
529.325775
 21
454.912839
 31
0.0
  0
LINE
  5
67E
330
1F
100
AcDbEntity
  8
LC-001-100-D00-0
  6
ByBlock
 62
     7
370
    50
100
AcDbLine
 10
526.920253
 20
451.912838
 30
0.0
 11
533.501152
 21
451.912838
 31
0.0
  0
INSERT
  5
690
330
1F
100
AcDbEntity
  8
LC-001-100-D00-0
  6
ByBlock
 62
     7
370
    50
100
AcDbBlockReference
  2
POLY31
 10
0.0
 20
0.0
 30
0.0
  0
LINE
  5
691
330
1F
100
AcDbEntity
  8
LC-001-100-D00-0
  6
ByBlock
 62
     7
370
    50
100
AcDbLine
 10
590.475379
 20
454.912839
 30
0.0
 11
589.870139
 21
452.65402
 31
0.0
  0
ARC
  5
692
330
1F
100
AcDbEntity
  8
LC-001-100-D00-0
  6
ByBlock
 62
     7
370
    50
100
AcDbCircle
 10
588.904212
 20
452.912838
 30
0.0
 40
1.0
100
AcDbArc
 50
270.0
 51
345.0
  0
LINE
  5
693
330
1F
100
AcDbEntity
  8
LC-001-100-D00-0
  6
ByBlock
 62
     7
370
    50
100
AcDbLine
 10
578.034265
 20
452.493166
 30
0.0
 11
573.962009
 21
466.912174
 31
0.0
  0
ARC
  5
694
330
1F
100
AcDbEntity
  8
LC-001-100-D00-0
  6
ByBlock
 62
     7
370
    50
100
AcDbCircle
 10
578.94194
 20
452.912838
 30
0.0
 40
1.000000023060274
100
AcDbArc
 50
195.270281
 51
270.001795
  0
LINE
  5
695
330
1F
100
AcDbEntity
  8
LC-001-100-D00-0
  6
ByBlock
 62
     7
370
    50
100
AcDbLine
 10
582.016988
 20
452.912838
 30
0.0
 11
581.393271
 21
454.912839
 31
0.0
  0
LINE
  5
696
330
1F
100
AcDbEntity
  8
LC-001-100-D00-0
  6
ByBlock
 62
     7
370
    50
100
AcDbLine
 10
582.072689
 20
452.65402
 30
0.0
 11
582.016988
 21
452.912838
 31
0.0
  0
LINE
  5
697
330
1F
100
AcDbEntity
  8
LC-001-100-D00-0
  6
ByBlock
 62
     7
370
    50
100
AcDbLine
 10
590.475379
 20
454.912839
 30
0.0
 11
581.393271
 21
454.912839
 31
0.0
  0
INSERT
  5
6A9
330
1F
100
AcDbEntity
  8
LC-001-100-D00-0
  6
ByBlock
 62
     7
370
    50
100
AcDbBlockReference
  2
POLY32
 10
0.0
 20
0.0
 30
0.0
  0
LINE
  5
6AA
330
1F
100
AcDbEntity
  8
LC-001-100-D00-0
  6
ByBlock
 62
     7
370
    50
100
AcDbLine
 10
578.94194
 20
451.912838
 30
0.0
 11
588.904216
 21
451.912838
 31
0.0
  0
LINE
  5
6AB
330
1F
100
AcDbEntity
  8
LC-001-100-D00-0
  6
ByBlock
 62
     7
370
    50
100
AcDbLine
 10
581.444769
 20
454.912839
 30
0.0
 11
577.769912
 21
466.912174
 31
0.0
  0
LINE
  5
6AC
330
1F
100
AcDbEntity
  8
LC-001-100-D00-0
  6
ByBlock
 62
     7
370
    50
100
AcDbLine
 10
578.018396
 20
452.654415
 30
0.0
 11
577.998846
 21
452.654802
 31
0.0
  0
INSERT
  5
6B8
330
1F
100
AcDbEntity
  8
LC-001-100-D00-0
  6
ByBlock
 62
     7
370
    50
100
AcDbBlockReference
  2
POLY33
 10
0.0
 20
0.0
 30
0.0
  0
INSERT
  5
6C4
330
1F
100
AcDbEntity
  8
LC-001-100-D00-0
  6
ByBlock
 62
     7
370
    50
100
AcDbBlockReference
  2
POLY34
 10
0.0
 20
0.0
 30
0.0
  0
LINE
  5
6C5
330
1F
100
AcDbEntity
  8
LC-001-100-D00-0
  6
ByBlock
 62
     7
370
    50
100
AcDbLine
 10
345.648513
 20
454.912839
 30
0.0
 11
346.253761
 21
452.65402
 31
0.0
  0
ARC
  5
6C6
330
1F
100
AcDbEntity
  8
LC-001-100-D00-0
  6
ByBlock
 62
     7
370
    50
100
AcDbCircle
 10
347.219686
 20
452.912838
 30
0.0
 40
1.00000000000003
100
AcDbArc
 50
195.0
 51
270.0
  0
ARC
  5
6C7
330
1F
100
AcDbEntity
  8
LC-001-100-D00-0
  6
ByBlock
 62
     7
370
    50
100
AcDbCircle
 10
355.732249
 20
452.912838
 30
0.0
 40
1.0
100
AcDbArc
 50
270.0
 51
350.538427
  0
LINE
  5
6C8
330
1F
100
AcDbEntity
  8
LC-001-100-D00-0
  6
ByBlock
 62
     7
370
    50
100
AcDbLine
 10
351.363406
 20
454.912839
 30
0.0
 11
353.383587
 21
462.912174
 31
0.0
  0
LINE
  5
6C9
330
1F
100
AcDbEntity
  8
LC-001-100-D00-0
  6
ByBlock
 62
     7
370
    50
100
AcDbLine
 10
351.011687
 20
452.912838
 30
0.0
 11
351.395064
 21
454.912839
 31
0.0
  0
INSERT
  5
6D7
330
1F
100
AcDbEntity
  8
LC-001-100-D00-0
  6
ByBlock
 62
     7
370
    50
100
AcDbBlockReference
  2
POLY35
 10
0.0
 20
0.0
 30
0.0
  0
LINE
  5
6D8
330
1F
100
AcDbEntity
  8
LC-001-100-D00-0
  6
ByBlock
 62
     7
370
    50
100
AcDbLine
 10
351.001748
 20
452.65402
 30
0.0
 11
351.011687
 21
452.912838
 31
0.0
  0
LINE
  5
6D9
330
1F
100
AcDbEntity
  8
LC-001-100-D00-0
  6
ByBlock
 62
     7
370
    50
100
AcDbLine
 10
345.648513
 20
454.912839
 30
0.0
 11
351.395064
 21
454.912839
 31
0.0
  0
LINE
  5
6DA
330
1F
100
AcDbEntity
  8
LC-001-100-D00-0
  6
ByBlock
 62
     7
370
    50
100
AcDbLine
 10
353.800586
 20
451.912838
 30
0.0
 11
347.219686
 21
451.912838
 31
0.0
  0
INSERT
  5
6EC
330
1F
100
AcDbEntity
  8
LC-001-100-D00-0
  6
ByBlock
 62
     7
370
    50
100
AcDbBlockReference
  2
POLY36
 10
0.0
 20
0.0
 30
0.0
  0
ENDSEC
  0
SECTION
  2
OBJECTS
  0
DICTIONARY
  5
C
330
0
100
AcDbDictionary
281
     1
  3
ACAD_GROUP
350
D
  3
ACAD_LAYOUT
350
1A
  3
ACAD_MLINESTYLE
350
17
  3
ACAD_PLOTSETTINGS
350
19
  3
ACAD_PLOTSTYLENAME
350
E
  0
DICTIONARY
  5
D
102
{ACAD_REACTORS
330
C
102
}
330
C
100
AcDbDictionary
281
     1
  0
DICTIONARY
  5
1A
102
{ACAD_REACTORS
330
C
102
}
330
C
100
AcDbDictionary
281
     1
  3
Layout1
350
1E
  3
Layout2
350
26
  3
Model
350
22
  0
DICTIONARY
  5
17
102
{ACAD_REACTORS
330
C
102
}
330
C
100
AcDbDictionary
281
     1
  3
Standard
350
18
  0
DICTIONARY
  5
19
102
{ACAD_REACTORS
330
C
102
}
330
C
100
AcDbDictionary
281
     1
  0
ACDBDICTIONARYWDFLT
  5
E
102
{ACAD_REACTORS
330
C
102
}
330
C
100
AcDbDictionary
281
     1
  3
Normal
350
F
100
AcDbDictionaryWithDefault
340
F
  0
LAYOUT
  5
1E
102
{ACAD_REACTORS
330
1A
102
}
330
1A
100
AcDbPlotSettings
  1

  2

  4

  6

 40
0.0
 41
0.0
 42
0.0
 43
0.0
 44
0.0
 45
0.0
 46
0.0
 47
0.0
 48
0.0
 49
0.0
140
0.0
141
0.0
142
1.0
143
1.0
 70
   688
 72
     0
 73
     0
 74
     5
  7

 75
    16
147
1.0
148
0.0
149
0.0
100
AcDbLayout
  1
Layout1
 70
     1
 71
     1
 10
0.0
 20
0.0
 11
840.0
 21
594.0
 12
0.0
 22
0.0
 32
0.0
 14
0.0
 24
0.0
 34
0.0
 15
840.0
 25
594.0
 35
0.0
146
0.0
 13
0.0
 23
0.0
 33
0.0
 16
1.0
 26
0.0
 36
0.0
 17
0.0
 27
1.0
 37
0.0
 76
     0
330
1B
  0
LAYOUT
  5
26
102
{ACAD_REACTORS
330
1A
102
}
330
1A
100
AcDbPlotSettings
  1

  2

  4

  6

 40
0.0
 41
0.0
 42
0.0
 43
0.0
 44
0.0
 45
0.0
 46
0.0
 47
0.0
 48
0.0
 49
0.0
140
0.0
141
0.0
142
1.0
143
1.0
 70
   688
 72
     0
 73
     0
 74
     5
  7

 75
    16
147
1.0
148
0.0
149
0.0
100
AcDbLayout
  1
Layout2
 70
     1
 71
     2
 10
0.0
 20
0.0
 11
0.0
 21
0.0
 12
0.0
 22
0.0
 32
0.0
 14
0.0
 24
0.0
 34
0.0
 15
0.0
 25
0.0
 35
0.0
146
0.0
 13
0.0
 23
0.0
 33
0.0
 16
1.0
 26
0.0
 36
0.0
 17
0.0
 27
1.0
 37
0.0
 76
     0
330
23
  0
LAYOUT
  5
22
102
{ACAD_REACTORS
330
1A
102
}
330
1A
100
AcDbPlotSettings
  1

  2

  4

  6

 40
0.0
 41
0.0
 42
0.0
 43
0.0
 44
0.0
 45
0.0
 46
0.0
 47
0.0
 48
0.0
 49
0.0
140
0.0
141
0.0
142
1.0
143
1.0
 70
  1776
 72
     0
 73
     0
 74
     0
  7

 75
     0
147
1.0
148
0.0
149
0.0
100
AcDbLayout
  1
Model
 70
     1
 71
     0
 10
0.0
 20
0.0
 11
840.0
 21
594.0
 12
0.0
 22
0.0
 32
0.0
 14
0.0
 24
0.0
 34
0.0
 15
840.0
 25
594.0
 35
0.0
146
0.0
 13
0.0
 23
0.0
 33
0.0
 16
1.0
 26
0.0
 36
0.0
 17
0.0
 27
1.0
 37
0.0
 76
     0
330
1F
  0
MLINESTYLE
  5
18
102
{ACAD_REACTORS
330
17
102
}
330
17
100
AcDbMlineStyle
  2
Standard
 70
     0
  3

 62
   256
 51
90.0
 52
90.0
 71
     2
 49
0.5
 62
   256
  6
BYLAYER
 49
-0.5
 62
   256
  6
BYLAYER
  0
ACDBPLACEHOLDER
  5
F
102
{ACAD_REACTORS
330
E
102
}
330
E
  0
ENDSEC
  0
EOF
