  0
SECTION
  2
HEADER
  9
$ACADVER
  1
AC1027
  9
$ACADMAINTVER
 70
   105
  9
$DWGCODEPAGE
  3
ANSI_1252
  9
$REQUIREDVERSIONS
160
                 0
  9
$INSBASE
 10
0.0
 20
0.0
 30
0.0
  9
$EXTMIN
 10
0.0
 20
0.0
 30
0.0
  9
$EXTMAX
 10
840.0
 20
594.0
 30
0.0
  9
$LIMMIN
 10
0.0
 20
0.0
  9
$LIMMAX
 10
840.0
 20
594.0
  9
$ORTHOMODE
 70
     0
  9
$REGENMODE
 70
     1
  9
$FILLMODE
 70
     1
  9
$QTEXTMODE
 70
     0
  9
$MIRRTEXT
 70
     1
  9
$LTSCALE
 40
2.0
  9
$ATTMODE
 70
     1
  9
$TEXTSIZE
 40
7.0
  9
$TRACEWID
 40
1.0
  9
$TEXTSTYLE
  7
Standard
  9
$CLAYER
  8
0
  9
$CELTYPE
  6
ByLayer
  9
$CECOLOR
 62
   256
  9
$CELTSCALE
 40
1.0
  9
$DISPSILH
 70
     0
  9
$DIMSCALE
 40
1.0
  9
$DIMASZ
 40
14.0
  9
$DIMEXO
 40
2.0
  9
$DIMDLI
 40
3.75
  9
$DIMRND
 40
0.0
  9
$DIMDLE
 40
0.0
  9
$DIMEXE
 40
2.0
  9
$DIMTP
 40
0.0
  9
$DIMTM
 40
0.0
  9
$DIMTXT
 40
14.0
  9
$DIMCEN
 40
2.5
  9
$DIMTSZ
 40
0.0
  9
$DIMTOL
 70
     0
  9
$DIMLIM
 70
     0
  9
$DIMTIH
 70
     1
  9
$DIMTOH
 70
     1
  9
$DIMSE1
 70
     0
  9
$DIMSE2
 70
     0
  9
$DIMTAD
 70
     1
  9
$DIMZIN
 70
     1
  9
$DIMBLK
  1

  9
$DIMASO
 70
     1
  9
$DIMSHO
 70
     1
  9
$DIMPOST
  1

  9
$DIMAPOST
  1

  9
$DIMALT
 70
     0
  9
$DIMALTD
 70
     3
  9
$DIMALTF
 40
0.0393700787
  9
$DIMLFAC
 40
1.0
  9
$DIMTOFL
 70
     1
  9
$DIMTVP
 40
0.0
  9
$DIMTIX
 70
     0
  9
$DIMSOXD
 70
     0
  9
$DIMSAH
 70
     0
  9
$DIMBLK1
  1

  9
$DIMBLK2
  1

  9
$DIMSTYLE
  2
ISO-25
  9
$DIMCLRD
 70
     0
  9
$DIMCLRE
 70
     0
  9
$DIMCLRT
 70
     0
  9
$DIMTFAC
 40
1.0
  9
$DIMGAP
 40
3.048
  9
$DIMJUST
 70
     0
  9
$DIMSD1
 70
     0
  9
$DIMSD2
 70
     0
  9
$DIMTOLJ
 70
     0
  9
$DIMTZIN
 70
     1
  9
$DIMALTZ
 70
     0
  9
$DIMALTTZ
 70
     0
  9
$DIMUPT
 70
     0
  9
$DIMDEC
 70
     2
  9
$DIMTDEC
 70
     2
  9
$DIMALTU
 70
     2
  9
$DIMALTTD
 70
     3
  9
$DIMTXSTY
  7
Standard
  9
$DIMAUNIT
 70
     0
  9
$DIMADEC
 70
     2
  9
$DIMALTRND
 40
0.0
  9
$DIMAZIN
 70
     0
  9
$DIMDSEP
 70
    44
  9
$DIMATFIT
 70
     3
  9
$DIMFRAC
 70
     0
  9
$DIMLDRBLK
  1

  9
$DIMLUNIT
 70
     2
  9
$DIMLWD
 70
    -2
  9
$DIMLWE
 70
    -2
  9
$DIMTMOVE
 70
     0
  9
$DIMFXL
 40
1.0
  9
$DIMFXLON
 70
     0
  9
$DIMJOGANG
 40
0.7853981634
  9
$DIMTFILL
 70
     0
  9
$DIMTFILLCLR
 70
     0
  9
$DIMARCSYM
 70
     0
  9
$DIMLTYPE
  6

  9
$DIMLTEX1
  6

  9
$DIMLTEX2
  6

  9
$DIMTXTDIRECTION
 70
     0
  9
$LUNITS
 70
     2
  9
$LUPREC
 70
     2
  9
$SKETCHINC
 40
1.0
  9
$FILLETRAD
 40
10.0
  9
$AUNITS
 70
     0
  9
$AUPREC
 70
     2
  9
$MENU
  1
.
  9
$ELEVATION
 40
0.0
  9
$PELEVATION
 40
0.0
  9
$THICKNESS
 40
0.0
  9
$LIMCHECK
 70
     0
  9
$CHAMFERA
 40
0.0
  9
$CHAMFERB
 40
0.0
  9
$CHAMFERC
 40
0.0
  9
$CHAMFERD
 40
0.0
  9
$SKPOLY
 70
     0
  9
$TDCREATE
 40
2458897.312815521
  9
$TDUCREATE
 40
2458897.271148854
  9
$TDUPDATE
 40
2458897.312817326
  9
$TDUUPDATE
 40
2458897.27115066
  9
$TDINDWG
 40
0.0000000116
  9
$TDUSRTIMER
 40
0.0000000116
  9
$USRTIMER
 70
     1
  9
$ANGBASE
 50
0.0
  9
$ANGDIR
 70
     0
  9
$PDMODE
 70
     0
  9
$PDSIZE
 40
-1.0
  9
$PLINEWID
 40
0.0
  9
$SPLFRAME
 70
     0
  9
$SPLINETYPE
 70
     6
  9
$SPLINESEGS
 70
     8
  9
$HANDSEED
  5
291
  9
$SURFTAB1
 70
     6
  9
$SURFTAB2
 70
     6
  9
$SURFTYPE
 70
     6
  9
$SURFU
 70
     6
  9
$SURFV
 70
     6
  9
$UCSBASE
  2

  9
$UCSNAME
  2

  9
$UCSORG
 10
0.0
 20
0.0
 30
0.0
  9
$UCSXDIR
 10
1.0
 20
0.0
 30
0.0
  9
$UCSYDIR
 10
0.0
 20
1.0
 30
0.0
  9
$UCSORTHOREF
  2

  9
$UCSORTHOVIEW
 70
     0
  9
$UCSORGTOP
 10
0.0
 20
0.0
 30
0.0
  9
$UCSORGBOTTOM
 10
0.0
 20
0.0
 30
0.0
  9
$UCSORGLEFT
 10
0.0
 20
0.0
 30
0.0
  9
$UCSORGRIGHT
 10
0.0
 20
0.0
 30
0.0
  9
$UCSORGFRONT
 10
0.0
 20
0.0
 30
0.0
  9
$UCSORGBACK
 10
0.0
 20
0.0
 30
0.0
  9
$PUCSBASE
  2

  9
$PUCSNAME
  2

  9
$PUCSORG
 10
0.0
 20
0.0
 30
0.0
  9
$PUCSXDIR
 10
1.0
 20
0.0
 30
0.0
  9
$PUCSYDIR
 10
0.0
 20
1.0
 30
0.0
  9
$PUCSORTHOREF
  2

  9
$PUCSORTHOVIEW
 70
     0
  9
$PUCSORGTOP
 10
0.0
 20
0.0
 30
0.0
  9
$PUCSORGBOTTOM
 10
0.0
 20
0.0
 30
0.0
  9
$PUCSORGLEFT
 10
0.0
 20
0.0
 30
0.0
  9
$PUCSORGRIGHT
 10
0.0
 20
0.0
 30
0.0
  9
$PUCSORGFRONT
 10
0.0
 20
0.0
 30
0.0
  9
$PUCSORGBACK
 10
0.0
 20
0.0
 30
0.0
  9
$USERI1
 70
     0
  9
$USERI2
 70
     0
  9
$USERI3
 70
     0
  9
$USERI4
 70
     0
  9
$USERI5
 70
     0
  9
$USERR1
 40
0.0
  9
$USERR2
 40
0.0
  9
$USERR3
 40
0.0
  9
$USERR4
 40
0.0
  9
$USERR5
 40
0.0
  9
$WORLDVIEW
 70
     1
  9
$SHADEDGE
 70
     3
  9
$SHADEDIF
 70
    70
  9
$TILEMODE
 70
     1
  9
$MAXACTVP
 70
    64
  9
$PINSBASE
 10
0.0
 20
0.0
 30
0.0
  9
$PLIMCHECK
 70
     0
  9
$PEXTMIN
 10
1.0000000000E+20
 20
1.0000000000E+20
 30
1.0000000000E+20
  9
$PEXTMAX
 10
-1.0000000000E+20
 20
-1.0000000000E+20
 30
-1.0000000000E+20
  9
$PLIMMIN
 10
0.0
 20
0.0
  9
$PLIMMAX
 10
420.0
 20
297.0
  9
$UNITMODE
 70
     0
  9
$VISRETAIN
 70
     1
  9
$PLINEGEN
 70
     0
  9
$PSLTSCALE
 70
     1
  9
$TREEDEPTH
 70
  3020
  9
$CMLSTYLE
  2
Standard
  9
$CMLJUST
 70
     0
  9
$CMLSCALE
 40
20.0
  9
$PROXYGRAPHICS
 70
     1
  9
$MEASUREMENT
 70
     1
  9
$CELWEIGHT
370
    -1
  9
$ENDCAPS
280
     0
  9
$JOINSTYLE
280
     0
  9
$LWDISPLAY
290
     1
  9
$INSUNITS
 70
     4
  9
$HYPERLINKBASE
  1

  9
$STYLESHEET
  1

  9
$XEDIT
290
     1
  9
$CEPSNTYPE
380
     0
  9
$PSTYLEMODE
290
     1
  9
$FINGERPRINTGUID
  2
{14BB1DD5-F1BC-4693-834F-62A767262F0D}
  9
$VERSIONGUID
  2
{FAEB1C32-E019-11D5-929B-00C0DF256EC4}
  9
$EXTNAMES
290
     1
  9
$PSVPSCALE
 40
0.0
  9
$OLESTARTUP
290
     0
  9
$SORTENTS
280
   127
  9
$INDEXCTL
280
     0
  9
$HIDETEXT
280
     1
  9
$XCLIPFRAME
280
     2
  9
$HALOGAP
280
     0
  9
$OBSCOLOR
 70
   257
  9
$OBSLTYPE
280
     0
  9
$INTERSECTIONDISPLAY
280
     0
  9
$INTERSECTIONCOLOR
 70
   257
  9
$DIMASSOC
280
     2
  9
$PROJECTNAME
  1

  9
$CAMERADISPLAY
290
     0
  9
$LENSLENGTH
 40
50.0
  9
$CAMERAHEIGHT
 40
0.0
  9
$STEPSPERSEC
 40
2.0
  9
$STEPSIZE
 40
6.0
  9
$3DDWFPREC
 40
2.0
  9
$PSOLWIDTH
 40
5.0
  9
$PSOLHEIGHT
 40
80.0
  9
$LOFTANG1
 40
1.5707963268
  9
$LOFTANG2
 40
1.5707963268
  9
$LOFTMAG1
 40
0.0
  9
$LOFTMAG2
 40
0.0
  9
$LOFTPARAM
 70
     7
  9
$LOFTNORMALS
280
     1
  9
$LATITUDE
 40
37.795
  9
$LONGITUDE
 40
-122.394
  9
$NORTHDIRECTION
 40
0.0
  9
$TIMEZONE
 70
 -8000
  9
$LIGHTGLYPHDISPLAY
280
     1
  9
$TILEMODELIGHTSYNCH
280
     1
  9
$CMATERIAL
347
44
  9
$SOLIDHIST
280
     0
  9
$SHOWHIST
280
     1
  9
$DWFFRAME
280
     2
  9
$DGNFRAME
280
     2
  9
$REALWORLDSCALE
290
     1
  9
$INTERFERECOLOR
 62
   256
  9
$CSHADOW
280
     0
  9
$SHADOWPLANELOCATION
 40
0.0
  0
ENDSEC
  0
SECTION
  2
CLASSES
  0
CLASS
  1
ACDBDICTIONARYWDFLT
  2
AcDbDictionaryWithDefault
  3
ObjectDBX Classes
 90
        0
 91
        4
280
     0
281
     0
  0
CLASS
  1
VISUALSTYLE
  2
AcDbVisualStyle
  3
ObjectDBX Classes
 90
     4095
 91
        4
280
     0
281
     0
  0
CLASS
  1
MATERIAL
  2
AcDbMaterial
  3
ObjectDBX Classes
 90
     1153
 91
        4
280
     0
281
     0
  0
CLASS
  1
SCALE
  2
AcDbScale
  3
ObjectDBX Classes
 90
     1153
 91
        4
280
     0
281
     0
  0
CLASS
  1
TABLESTYLE
  2
AcDbTableStyle
  3
ObjectDBX Classes
 90
     4095
 91
        4
280
     0
281
     0
  0
CLASS
  1
MLEADERSTYLE
  2
AcDbMLeaderStyle
  3
ACDB_MLEADERSTYLE_CLASS
 90
     4095
 91
        4
280
     0
281
     0
  0
CLASS
  1
SUN
  2
AcDbSun
  3
SCENEOE
 90
     1153
 91
        4
280
     0
281
     0
  0
CLASS
  1
DICTIONARYVAR
  2
AcDbDictionaryVar
  3
ObjectDBX Classes
 90
        0
 91
        4
280
     0
281
     0
  0
CLASS
  1
CELLSTYLEMAP
  2
AcDbCellStyleMap
  3
ObjectDBX Classes
 90
     1152
 91
        4
280
     0
281
     0
  0
ENDSEC
  0
SECTION
  2
TABLES
  0
TABLE
  2
VPORT
  5
8
330
0
100
AcDbSymbolTable
 70
     1
  0
VPORT
  5
29
330
8
100
AcDbSymbolTableRecord
100
AcDbViewportTableRecord
  2
*Active
 70
     0
 10
0.0
 20
0.0
 11
1.0
 21
1.0
 12
420.0
 22
297.0
 13
0.0
 23
0.0
 14
10.0
 24
10.0
 15
10.0
 25
10.0
 16
0.0
 26
0.0
 36
1.0
 17
0.0
 27
0.0
 37
0.0
 40
594.0
 41
1.4141414141
 42
50.0
 43
0.0
 44
0.0
 50
0.0
 51
0.0
 71
     0
 72
  2000
 73
     1
 74
     3
 75
     0
 76
     0
 77
     0
 78
     0
281
     0
 65
     1
110
0.0
120
0.0
130
0.0
111
1.0
121
0.0
131
0.0
112
0.0
122
1.0
132
0.0
 79
     0
146
0.0
348
2F
 60
     3
 61
     5
292
     1
282
     1
141
0.0
142
0.0
 63
   250
361
6D
  0
ENDTAB
  0
TABLE
  2
LTYPE
  5
5
330
0
100
AcDbSymbolTable
 70
     8
  0
LTYPE
  5
14
330
5
100
AcDbSymbolTableRecord
100
AcDbLinetypeTableRecord
  2
ByBlock
 70
     0
  3

 72
    65
 73
     0
 40
0.0
  0
LTYPE
  5
15
330
5
100
AcDbSymbolTableRecord
100
AcDbLinetypeTableRecord
  2
ByLayer
 70
     0
  3

 72
    65
 73
     0
 40
0.0
  0
LTYPE
  5
16
330
5
100
AcDbSymbolTableRecord
100
AcDbLinetypeTableRecord
  2
Continuous
 70
     0
  3
Solid line
 72
    65
 73
     0
 40
0.0
  0
LTYPE
  5
6E
330
5
100
AcDbSymbolTableRecord
100
AcDbLinetypeTableRecord
  2
SLD-Durchgehend
 70
     0
  3
SolidWorks Line Style
 72
    65
 73
     0
 40
0.0
  0
LTYPE
  5
6F
330
5
100
AcDbSymbolTableRecord
100
AcDbLinetypeTableRecord
  2
SLD-Gestrichelt
 70
     0
  3
SolidWorks Line Style
 72
    65
 73
     2
 40
1.905
 49
1.27
 74
     0
 49
-0.635
 74
     0
  0
LTYPE
  5
70
330
5
100
AcDbSymbolTableRecord
100
AcDbLinetypeTableRecord
  2
SLD-Phantom
 70
     0
  3
SolidWorks Line Style
 72
    65
 73
     6
 40
12.7
 49
6.35
 74
     0
 49
-1.27
 74
     0
 49
1.27
 74
     0
 49
-1.27
 74
     0
 49
1.27
 74
     0
 49
-1.27
 74
     0
  0
LTYPE
  5
71
330
5
100
AcDbSymbolTableRecord
100
AcDbLinetypeTableRecord
  2
SLD-Kette
 70
     0
  3
SolidWorks Line Style
 72
    65
 73
     4
 40
10.16
 49
6.35
 74
     0
 49
-1.27
 74
     0
 49
1.27
 74
     0
 49
-1.27
 74
     0
  0
LTYPE
  5
72
330
5
100
AcDbSymbolTableRecord
100
AcDbLinetypeTableRecord
  2
SLD-Punktstrich
 70
     0
  3
SolidWorks Line Style
 72
    65
 73
     4
 40
19.05
 49
15.24
 74
     0
 49
-1.27
 74
     0
 49
1.27
 74
     0
 49
-1.27
 74
     0
  0
LTYPE
  5
73
330
5
100
AcDbSymbolTableRecord
100
AcDbLinetypeTableRecord
  2
SLD-Naht
 70
     0
  3
SolidWorks Line Style
 72
    65
 73
     2
 40
0.635
 49
0.0
 74
     0
 49
-0.635
 74
     0
  0
LTYPE
  5
74
330
5
100
AcDbSymbolTableRecord
100
AcDbLinetypeTableRecord
  2
SLD-Dicke-Dünne-Kette
 70
     0
  3
SolidWorks Line Style
 72
    65
 73
     4
 40
10.16
 49
6.35
 74
     0
 49
-1.27
 74
     0
 49
1.27
 74
     0
 49
-1.27
 74
     0
  0
ENDTAB
  0
TABLE
  2
LAYER
  5
2
330
0
100
AcDbSymbolTable
 70
     1
  0
LAYER
  5
10
330
2
100
AcDbSymbolTableRecord
100
AcDbLayerTableRecord
  2
0
 70
     0
 62
     7
  6
Continuous
370
    -3
390
F
347
46
348
0
  0
ENDTAB
  0
TABLE
  2
STYLE
  5
3
330
0
100
AcDbSymbolTable
 70
     3
  0
STYLE
  5
11
330
3
100
AcDbSymbolTableRecord
100
AcDbTextStyleTableRecord
  2
Standard
 70
     0
 40
0.0
 41
1.0
 50
0.0
 71
     0
 42
7.0
  3
txt
  4

  0
STYLE
  5
110
330
3
100
AcDbSymbolTableRecord
100
AcDbTextStyleTableRecord
  2
SLDTEXTSTYLE0
 70
     0
 40
0.0
 41
0.75
 50
0.0
 71
     0
 42
7.0
  3
TXT
  4

  0
STYLE
  5
257
330
3
100
AcDbSymbolTableRecord
100
AcDbTextStyleTableRecord
  2
SLDTEXTSTYLE1
 70
     0
 40
0.0
 41
0.605
 50
0.0
 71
     0
 42
7.0
  3
TXT
  4

  0
ENDTAB
  0
TABLE
  2
VIEW
  5
6
330
0
100
AcDbSymbolTable
 70
     0
  0
ENDTAB
  0
TABLE
  2
UCS
  5
7
330
0
100
AcDbSymbolTable
 70
     0
  0
ENDTAB
  0
TABLE
  2
APPID
  5
9
330
0
100
AcDbSymbolTable
 70
     1
  0
APPID
  5
12
330
9
100
AcDbSymbolTableRecord
100
AcDbRegAppTableRecord
  2
ACAD
 70
     0
  0
ENDTAB
  0
TABLE
  2
DIMSTYLE
  5
A
330
0
100
AcDbSymbolTable
 70
     4
100
AcDbDimStyleTable
  0
DIMSTYLE
105
27
330
A
100
AcDbSymbolTableRecord
100
AcDbDimStyleTableRecord
  2
ISO-25
 70
     0
 41
2.5
 42
0.625
 43
3.75
 44
1.25
 73
     0
 74
     0
 77
     1
 78
     8
140
2.5
141
2.5
143
0.0393700787
147
0.625
171
     3
172
     1
178
     0
271
     2
272
     2
274
     3
278
    44
283
     0
284
     8
340
11
  0
DIMSTYLE
105
258
102
{ACAD_REACTORS
330
256
330
27B
102
}
330
A
100
AcDbSymbolTableRecord
100
AcDbDimStyleTableRecord
  2
SLDDIMSTYLE0
 70
     0
 41
14.0
 44
0.0
 45
0.000000001
 73
     0
 74
     0
 77
     1
 78
    12
 79
     3
140
14.0
147
3.5
173
     1
178
     0
271
     0
272
     0
276
     2
284
    12
340
257
  0
DIMSTYLE
105
264
102
{ACAD_REACTORS
330
263
102
}
330
A
100
AcDbSymbolTableRecord
100
AcDbDimStyleTableRecord
  2
SLDDIMSTYLE1
 70
     0
 41
14.0
 44
0.0
 45
0.000000001
 73
     0
 74
     0
 77
     1
 78
    12
 79
     3
140
14.0
147
3.5
172
     1
173
     1
178
     0
271
     1
272
     1
276
     2
284
    12
289
     0
340
257
  0
DIMSTYLE
105
271
102
{ACAD_REACTORS
330
270
102
}
330
A
100
AcDbSymbolTableRecord
100
AcDbDimStyleTableRecord
  2
SLDDIMSTYLE2
 70
     0
 41
14.0
 44
0.0
 45
0.000000001
 73
     0
 74
     0
 77
     1
 78
    12
 79
     3
140
14.0
147
3.5
173
     1
178
     0
271
     1
272
     1
276
     2
284
    12
340
257
  0
ENDTAB
  0
TABLE
  2
BLOCK_RECORD
  5
1
330
0
100
AcDbSymbolTable
 70
     5
  0
BLOCK_RECORD
  5
1F
330
1
100
AcDbSymbolTableRecord
100
AcDbBlockTableRecord
  2
*Model_Space
340
22
 70
     0
280
     1
281
     0
  0
BLOCK_RECORD
  5
1B
330
1
100
AcDbSymbolTableRecord
100
AcDbBlockTableRecord
  2
*Paper_Space
340
1E
 70
     0
280
     1
281
     0
  0
BLOCK_RECORD
  5
23
330
1
100
AcDbSymbolTableRecord
100
AcDbBlockTableRecord
  2
*Paper_Space0
340
26
 70
     0
280
     1
281
     0
  0
BLOCK_RECORD
  5
259
330
1
100
AcDbSymbolTableRecord
100
AcDbBlockTableRecord
  2
_D
340
0
 70
     0
280
     1
281
     0
  0
BLOCK_RECORD
  5
265
330
1
100
AcDbSymbolTableRecord
100
AcDbBlockTableRecord
  2
_D_1
340
0
 70
     0
280
     1
281
     0
  0
BLOCK_RECORD
  5
272
330
1
100
AcDbSymbolTableRecord
100
AcDbBlockTableRecord
  2
_D_2
340
0
 70
     0
280
     1
281
     0
  0
BLOCK_RECORD
  5
27C
330
1
100
AcDbSymbolTableRecord
100
AcDbBlockTableRecord
  2
_D_3
340
0
 70
     0
280
     1
281
     0
  0
ENDTAB
  0
ENDSEC
  0
SECTION
  2
BLOCKS
  0
BLOCK
  5
20
330
1F
100
AcDbEntity
  8
0
100
AcDbBlockBegin
  2
*Model_Space
 70
     0
 10
0.0
 20
0.0
 30
0.0
  3
*Model_Space
  1

  0
ENDBLK
  5
21
330
1F
100
AcDbEntity
  8
0
100
AcDbBlockEnd
  0
BLOCK
  5
1C
330
1B
100
AcDbEntity
 67
     1
  8
0
100
AcDbBlockBegin
  2
*Paper_Space
 70
     0
 10
0.0
 20
0.0
 30
0.0
  3
*Paper_Space
  1

  0
ENDBLK
  5
1D
330
1B
100
AcDbEntity
 67
     1
  8
0
100
AcDbBlockEnd
  0
BLOCK
  5
24
330
23
100
AcDbEntity
  8
0
100
AcDbBlockBegin
  2
*Paper_Space0
 70
     0
 10
0.0
 20
0.0
 30
0.0
  3
*Paper_Space0
  1

  0
ENDBLK
  5
25
330
23
100
AcDbEntity
  8
0
100
AcDbBlockEnd
  0
BLOCK
  5
25A
330
259
100
AcDbEntity
  8
0
100
AcDbBlockBegin
  2
_D
 70
     0
 10
0.0
 20
0.0
 30
0.0
  3
_D
  1

  0
SOLID
  5
25C
330
259
100
AcDbEntity
  8
0
  6
SLD-Durchgehend
 62
     7
370
    18
100
AcDbTrace
 10
322.9244008409
 20
435.5669333527
 30
0.0
 11
336.9244008409
 21
433.4130871989
 31
0.0
 12
336.9244008409
 22
437.7207795065
 32
0.0
 13
336.9244008409
 23
437.7207795065
 33
0.0
  0
SOLID
  5
25D
330
259
100
AcDbEntity
  8
0
  6
SLD-Durchgehend
 62
     7
370
    18
100
AcDbTrace
 10
441.9244008409
 20
435.5669333527
 30
0.0
 11
427.9244008409
 21
437.7207795065
 31
0.0
 12
427.9244008409
 22
433.4130871989
 32
0.0
 13
427.9244008409
 23
433.4130871989
 33
0.0
  0
LINE
  5
25E
330
259
100
AcDbEntity
  8
0
  6
SLD-Durchgehend
 62
     7
370
    18
100
AcDbLine
 10
322.9244008409
 20
427.7315444984
 30
0.0
 11
322.9244008409
 21
437.5669333527
 31
0.0
  0
LINE
  5
25F
330
259
100
AcDbEntity
  8
0
  6
SLD-Durchgehend
 62
     7
370
    18
100
AcDbLine
 10
441.9244008409
 20
427.7315444984
 30
0.0
 11
441.9244008409
 21
437.5669333527
 31
0.0
  0
LINE
  5
260
330
259
100
AcDbEntity
  8
0
  6
SLD-Durchgehend
 62
     7
370
    18
100
AcDbLine
 10
322.9244008409
 20
435.5669333527
 30
0.0
 11
441.9244008409
 21
435.5669333527
 31
0.0
  0
MTEXT
  5
261
330
259
100
AcDbEntity
  8
0
  6
SLD-Durchgehend
 62
     7
370
    18
100
AcDbMText
 10
354.8369002656
 20
453.6138817095
 30
0.0
 40
14.0
 41
0.0
 46
0.0
 71
     1
 72
     1
  1
%%c
  7
SLDTEXTSTYLE1
 73
     1
 44
1.0
  0
MTEXT
  5
262
330
259
100
AcDbEntity
  8
0
  6
SLD-Durchgehend
 62
     7
370
    18
100
AcDbMText
 10
375.2487064467
 20
453.7111043357
 30
0.0
 40
14.0
 41
0.0
 46
0.0
 71
     1
 72
     1
  1
120
  7
SLDTEXTSTYLE1
 73
     1
 44
1.0
  0
ENDBLK
  5
25B
330
259
100
AcDbEntity
  8
0
100
AcDbBlockEnd
  0
BLOCK
  5
266
330
265
100
AcDbEntity
  8
0
100
AcDbBlockBegin
  2
_D_1
 70
     0
 10
0.0
 20
0.0
 30
0.0
  3
_D_1
  1

  0
SOLID
  5
268
330
265
100
AcDbEntity
  8
0
  6
SLD-Durchgehend
 62
     7
370
    18
100
AcDbTrace
 10
474.044458232
 20
418.2315444984
 30
0.0
 11
471.8906120781
 21
404.2315444984
 31
0.0
 12
476.1983043858
 22
404.2315444984
 32
0.0
 13
476.1983043858
 23
404.2315444984
 33
0.0
  0
SOLID
  5
269
330
265
100
AcDbEntity
  8
0
  6
SLD-Durchgehend
 62
     7
370
    18
100
AcDbTrace
 10
474.044458232
 20
425.7315444984
 30
0.0
 11
476.1983043858
 21
439.7315444984
 31
0.0
 12
471.8906120781
 22
439.7315444984
 32
0.0
 13
471.8906120781
 23
439.7315444984
 33
0.0
  0
LINE
  5
26A
330
265
100
AcDbEntity
  8
0
  6
SLD-Durchgehend
 62
     7
370
    18
100
AcDbLine
 10
443.4244008409
 20
418.2315444984
 30
0.0
 11
476.044458232
 21
418.2315444984
 31
0.0
  0
LINE
  5
26B
330
265
100
AcDbEntity
  8
0
  6
SLD-Durchgehend
 62
     7
370
    18
100
AcDbLine
 10
443.9244008409
 20
425.7315444984
 30
0.0
 11
476.044458232
 21
425.7315444984
 31
0.0
  0
LINE
  5
26C
330
265
100
AcDbEntity
  8
0
  6
SLD-Durchgehend
 62
     7
370
    18
100
AcDbLine
 10
474.044458232
 20
418.2315444984
 30
0.0
 11
474.044458232
 21
391.8678852926
 31
0.0
  0
LINE
  5
26D
330
265
100
AcDbEntity
  8
0
  6
SLD-Durchgehend
 62
     7
370
    18
100
AcDbLine
 10
474.044458232
 20
418.2315444984
 30
0.0
 11
474.044458232
 21
425.7315444984
 31
0.0
  0
LINE
  5
26E
330
265
100
AcDbEntity
  8
0
  6
SLD-Durchgehend
 62
     7
370
    18
100
AcDbLine
 10
474.044458232
 20
425.7315444984
 30
0.0
 11
474.044458232
 21
452.6546214215
 31
0.0
  0
MTEXT
  5
26F
330
265
100
AcDbEntity
  8
0
  6
SLD-Durchgehend
 62
     7
370
    18
100
AcDbMText
 10
455.9975098752
 20
391.8678852926
 30
0.0
 40
14.0
 41
0.0
 46
0.0
 71
     1
 72
     1
  1
7,5
  7
SLDTEXTSTYLE1
 11
1.382799784530931E-14
 21
1.0
 31
0.0
 73
     1
 44
1.0
  0
ENDBLK
  5
267
330
265
100
AcDbEntity
  8
0
100
AcDbBlockEnd
  0
BLOCK
  5
273
330
272
100
AcDbEntity
  8
0
100
AcDbBlockBegin
  2
_D_2
 70
     0
 10
0.0
 20
0.0
 30
0.0
  3
_D_2
  1

  0
SOLID
  5
275
330
272
100
AcDbEntity
  8
0
  6
SLD-Durchgehend
 62
     7
370
    18
100
AcDbTrace
 10
504.9718704106
 20
425.7315444984
 30
0.0
 11
502.8180242568
 21
411.7315444984
 31
0.0
 12
507.1257165645
 22
411.7315444984
 32
0.0
 13
507.1257165645
 23
411.7315444984
 33
0.0
  0
SOLID
  5
276
330
272
100
AcDbEntity
  8
0
  6
SLD-Durchgehend
 62
     7
370
    18
100
AcDbTrace
 10
504.9718704106
 20
387.2315444984
 30
0.0
 11
507.1257165645
 21
401.2315444984
 31
0.0
 12
502.8180242568
 22
401.2315444984
 32
0.0
 13
502.8180242568
 23
401.2315444984
 33
0.0
  0
LINE
  5
277
330
272
100
AcDbEntity
  8
0
  6
SLD-Durchgehend
 62
     7
370
    18
100
AcDbLine
 10
442.4244008409
 20
425.7315444984
 30
0.0
 11
506.9718704106
 21
425.7315444984
 31
0.0
  0
LINE
  5
278
330
272
100
AcDbEntity
  8
0
  6
SLD-Durchgehend
 62
     7
370
    18
100
AcDbLine
 10
440.0244008409
 20
387.2315444984
 30
0.0
 11
506.9718704106
 21
387.2315444984
 31
0.0
  0
LINE
  5
279
330
272
100
AcDbEntity
  8
0
  6
SLD-Durchgehend
 62
     7
370
    18
100
AcDbLine
 10
504.9718704106
 20
425.7315444984
 30
0.0
 11
504.9718704106
 21
387.2315444984
 31
0.0
  0
MTEXT
  5
27A
330
272
100
AcDbEntity
  8
0
  6
SLD-Durchgehend
 62
     7
370
    18
100
AcDbMText
 10
486.9249220538
 20
386.5206632028
 30
0.0
 40
14.0
 41
0.0
 46
0.0
 71
     1
 72
     1
  1
38,5
  7
SLDTEXTSTYLE1
 11
-7.044195017643634E-15
 21
1.0
 31
0.0
 73
     1
 44
1.0
  0
ENDBLK
  5
274
330
272
100
AcDbEntity
  8
0
100
AcDbBlockEnd
  0
BLOCK
  5
27D
330
27C
100
AcDbEntity
  8
0
100
AcDbBlockBegin
  2
_D_3
 70
     0
 10
0.0
 20
0.0
 30
0.0
  3
_D_3
  1

  0
SOLID
  5
27F
330
27C
100
AcDbEntity
  8
0
  6
SLD-Durchgehend
 62
     7
370
    18
100
AcDbTrace
 10
324.9244008409
 20
367.2315444984
 30
0.0
 11
338.9244008409
 21
365.0776983446
 31
0.0
 12
338.9244008409
 22
369.3853906523
 32
0.0
 13
338.9244008409
 23
369.3853906523
 33
0.0
  0
SOLID
  5
280
330
27C
100
AcDbEntity
  8
0
  6
SLD-Durchgehend
 62
     7
370
    18
100
AcDbTrace
 10
439.9244008409
 20
367.2315444984
 30
0.0
 11
425.9244008409
 21
369.3853906523
 31
0.0
 12
425.9244008409
 22
365.0776983446
 32
0.0
 13
425.9244008409
 23
365.0776983446
 33
0.0
  0
LINE
  5
281
330
27C
100
AcDbEntity
  8
0
  6
SLD-Durchgehend
 62
     7
370
    18
100
AcDbLine
 10
324.9244008409
 20
385.4815444984
 30
0.0
 11
324.9244008409
 21
365.2315444984
 31
0.0
  0
LINE
  5
282
330
27C
100
AcDbEntity
  8
0
  6
SLD-Durchgehend
 62
     7
370
    18
100
AcDbLine
 10
439.9244008409
 20
385.4815444984
 30
0.0
 11
439.9244008409
 21
365.2315444984
 31
0.0
  0
LINE
  5
283
330
27C
100
AcDbEntity
  8
0
  6
SLD-Durchgehend
 62
     7
370
    18
100
AcDbLine
 10
324.9244008409
 20
367.2315444984
 30
0.0
 11
439.9244008409
 21
367.2315444984
 31
0.0
  0
MTEXT
  5
284
330
27C
100
AcDbEntity
  8
0
  6
SLD-Durchgehend
 62
     7
370
    18
100
AcDbMText
 10
351.6554925734
 20
385.2784928552
 30
0.0
 40
14.0
 41
0.0
 46
0.0
 71
     1
 72
     1
  1
%%c
  7
SLDTEXTSTYLE1
 73
     1
 44
1.0
  0
MTEXT
  5
285
330
27C
100
AcDbEntity
  8
0
  6
SLD-Durchgehend
 62
     7
370
    18
100
AcDbMText
 10
372.0672987544
 20
385.3757154814
 30
0.0
 40
14.0
 41
0.0
 46
0.0
 71
     1
 72
     1
  1
115
  7
SLDTEXTSTYLE1
 73
     1
 44
1.0
  0
ENDBLK
  5
27E
330
27C
100
AcDbEntity
  8
0
100
AcDbBlockEnd
  0
ENDSEC
  0
SECTION
  2
ENTITIES
  0
ARC
  5
75
330
1F
100
AcDbEntity
  8
0
  6
SLD-Durchgehend
 62
     7
370
    25
100
AcDbCircle
 10
335.1891331259
 20
307.3152300978
 30
0.0
 40
3.000000000000004
100
AcDbArc
 50
173.9480380235
 51
353.9480380235
  0
ARC
  5
76
330
1F
100
AcDbEntity
  8
0
  6
SLD-Durchgehend
 62
     7
370
    25
100
AcDbCircle
 10
348.4241406364
 20
308.1581260786
 30
0.0
 40
3.000000000000024
100
AcDbArc
 50
170.23604689
 51
350.23604689
  0
ARC
  5
77
330
1F
100
AcDbEntity
  8
0
  6
SLD-Durchgehend
 62
     7
370
    25
100
AcDbCircle
 10
382.4244008409
 20
302.3072880168
 30
0.0
 40
50.50000000000008
100
AcDbArc
 50
103.3400948198
 51
173.9480380235
  0
ARC
  5
78
330
1F
100
AcDbEntity
  8
0
  6
SLD-Durchgehend
 62
     7
370
    25
100
AcDbCircle
 10
371.464692669
 20
348.5256263338
 30
0.0
 40
3.000000000000054
100
AcDbArc
 50
283.3400948198
 51
103.3400948198
  0
ARC
  5
79
330
1F
100
AcDbEntity
  8
0
  6
SLD-Durchgehend
 62
     7
370
    25
100
AcDbCircle
 10
382.4244008409
 20
302.3072880168
 30
0.0
 40
31.5
100
AcDbArc
 50
107.0520859533
 51
170.23604689
  0
ARC
  5
7A
330
1F
100
AcDbEntity
  8
0
  6
SLD-Durchgehend
 62
     7
370
    25
100
AcDbCircle
 10
372.3075886498
 20
335.2906188233
 30
0.0
 40
3.000000000000059
100
AcDbArc
 50
287.0520859533
 51
107.0520859533
  0
ARC
  5
7B
330
1F
100
AcDbEntity
  8
0
  6
SLD-Durchgehend
 62
     7
370
    25
100
AcDbCircle
 10
373.1721976812
 20
321.7146767307
 30
0.0
 40
3.00000000000006
100
AcDbArc
 50
295.4888239074
 51
115.4888239074
  0
ARC
  5
7C
330
1F
100
AcDbEntity
  8
0
  6
SLD-Durchgehend
 62
     7
370
    25
100
AcDbCircle
 10
382.4244008409
 20
302.3072880168
 30
0.0
 40
24.50000000000005
100
AcDbArc
 50
115.4888239074
 51
161.7993089359
  0
ARC
  5
7D
330
1F
100
AcDbEntity
  8
0
  6
SLD-Durchgehend
 62
     7
370
    25
100
AcDbCircle
 10
382.4244008409
 20
302.3072880168
 30
0.0
 40
18.50000000000002
100
AcDbArc
 50
115.4888239074
 51
161.7993089359
  0
ARC
  5
7E
330
1F
100
AcDbEntity
  8
0
  6
SLD-Durchgehend
 62
     7
370
    25
100
AcDbCircle
 10
377.41645876
 20
255.0720203018
 30
0.0
 40
3.000000000000016
100
AcDbArc
 50
263.9480380235
 51
83.9480380235
  0
ARC
  5
7F
330
1F
100
AcDbEntity
  8
0
  6
SLD-Durchgehend
 62
     7
370
    25
100
AcDbCircle
 10
376.5735627792
 20
268.3070278123
 30
0.0
 40
3.00000000000006
100
AcDbArc
 50
260.23604689
 51
80.23604689
  0
ARC
  5
80
330
1F
100
AcDbEntity
  8
0
  6
SLD-Durchgehend
 62
     7
370
    25
100
AcDbCircle
 10
382.4244008409
 20
302.3072880168
 30
0.0
 40
50.50000000000007
100
AcDbArc
 50
193.3400948198
 51
263.9480380235
  0
ARC
  5
81
330
1F
100
AcDbEntity
  8
0
  6
SLD-Durchgehend
 62
     7
370
    25
100
AcDbCircle
 10
336.2060625239
 20
291.3475798449
 30
0.0
 40
3.000000000000054
100
AcDbArc
 50
13.3400948198
 51
193.3400948198
  0
ARC
  5
82
330
1F
100
AcDbEntity
  8
0
  6
SLD-Durchgehend
 62
     7
370
    25
100
AcDbCircle
 10
382.4244008409
 20
302.3072880168
 30
0.0
 40
44.50000000000004
100
AcDbArc
 50
193.3400948198
 51
263.9480380235
  0
ARC
  5
83
330
1F
100
AcDbEntity
  8
0
  6
SLD-Durchgehend
 62
     7
370
    25
100
AcDbCircle
 10
382.4244008409
 20
302.3072880168
 30
0.0
 40
37.50000000000006
100
AcDbArc
 50
197.0520859533
 51
260.23604689
  0
ARC
  5
84
330
1F
100
AcDbEntity
  8
0
  6
SLD-Durchgehend
 62
     7
370
    25
100
AcDbCircle
 10
382.4244008409
 20
302.3072880168
 30
0.0
 40
31.50000000000006
100
AcDbArc
 50
197.0520859533
 51
260.23604689
  0
ARC
  5
85
330
1F
100
AcDbEntity
  8
0
  6
SLD-Durchgehend
 62
     7
370
    25
100
AcDbCircle
 10
349.4410700345
 20
292.1904758257
 30
0.0
 40
3.000000000000005
100
AcDbArc
 50
17.0520859533
 51
197.0520859533
  0
ARC
  5
86
330
1F
100
AcDbEntity
  8
0
  6
SLD-Durchgehend
 62
     7
370
    25
100
AcDbCircle
 10
363.017012127
 20
293.0550848571
 30
0.0
 40
3.00000000000006
100
AcDbArc
 50
25.4888239074
 51
205.4888239074
  0
ARC
  5
87
330
1F
100
AcDbEntity
  8
0
  6
SLD-Durchgehend
 62
     7
370
    25
100
AcDbCircle
 10
382.4244008409
 20
302.3072880168
 30
0.0
 40
24.50000000000005
100
AcDbArc
 50
205.4888239074
 51
251.7993089359
  0
ARC
  5
88
330
1F
100
AcDbEntity
  8
0
  6
SLD-Durchgehend
 62
     7
370
    25
100
AcDbCircle
 10
382.4244008409
 20
302.3072880168
 30
0.0
 40
18.50000000000004
100
AcDbArc
 50
205.4888239074
 51
251.7993089359
  0
ARC
  5
89
330
1F
100
AcDbEntity
  8
0
  6
SLD-Durchgehend
 62
     7
370
    25
100
AcDbCircle
 10
375.7089537477
 20
281.8829699049
 30
0.0
 40
3.000000000000001
100
AcDbArc
 50
251.7993089359
 51
71.7993089359
  0
ARC
  5
8A
330
1F
100
AcDbEntity
  8
0
  6
SLD-Durchgehend
 62
     7
370
    25
100
AcDbCircle
 10
429.659668556
 20
297.2993459359
 30
0.0
 40
3.00000000000001
100
AcDbArc
 50
353.9480380235
 51
173.9480380235
  0
ARC
  5
8B
330
1F
100
AcDbEntity
  8
0
  6
SLD-Durchgehend
 62
     7
370
    25
100
AcDbCircle
 10
416.4246610454
 20
296.4564499551
 30
0.0
 40
3.000000000000014
100
AcDbArc
 50
350.23604689
 51
170.23604689
  0
ARC
  5
8C
330
1F
100
AcDbEntity
  8
0
  6
SLD-Durchgehend
 62
     7
370
    25
100
AcDbCircle
 10
382.4244008409
 20
302.3072880168
 30
0.0
 40
18.50000000000006
100
AcDbArc
 50
295.4888239074
 51
341.7993089359
  0
LINE
  5
8D
330
1F
100
AcDbEntity
  8
0
  6
SLD-Durchgehend
 62
     7
370
    25
100
AcDbLine
 10
369.8247369412
 20
302.9455354661
 30
0.0
 11
368.8843366971
 21
302.8856443338
 31
0.0
  0
LINE
  5
8E
330
1F
100
AcDbEntity
  8
0
  6
SLD-Durchgehend
 62
     7
370
    25
100
AcDbLine
 10
368.8843366971
 20
302.8856443338
 30
0.0
 11
369.0660595657
 21
300.0322631511
 31
0.0
  0
LINE
  5
8F
330
1F
100
AcDbEntity
  8
0
  6
SLD-Durchgehend
 62
     7
370
    25
100
AcDbLine
 10
369.0660595657
 20
300.0322631511
 30
0.0
 11
370.0121288893
 21
300.0925153293
 31
0.0
  0
SPLINE
  5
90
330
1F
100
AcDbEntity
  8
0
  6
SLD-Durchgehend
 62
     7
370
    25
100
AcDbSpline
210
0.0
220
0.0
230
1.0
 70
     8
 71
     3
 72
    11
 73
     7
 74
     0
 42
0.000000001
 43
0.00000001
 40
0.0
 40
0.0
 40
0.0
 40
0.0
 40
0.2812497544593543
 40
0.5529773269316968
 40
0.7707968828816535
 40
1.0
 40
1.0
 40
1.0
 40
1.0
 10
370.0121288892501
 20
300.092515329286
 30
0.0
 10
370.0771841545063
 20
300.1040511985726
 30
0.0
 10
370.2050921299403
 20
300.12673237095
 30
0.0
 10
370.3481151664704
 20
300.2443794640365
 30
0.0
 10
370.4387037980342
 20
300.3874433678076
 30
0.0
 10
370.4576515114808
 20
300.4900907518922
 30
0.0
 10
370.4673666226953
 20
300.54272141654
 30
0.0
  0
LINE
  5
91
330
1F
100
AcDbEntity
  8
0
  6
SLD-Durchgehend
 62
     7
370
    25
100
AcDbLine
 10
370.4673666227
 20
300.5427214165
 30
0.0
 11
370.3432624215
 21
302.4913842083
 31
0.0
  0
SPLINE
  5
92
330
1F
100
AcDbEntity
  8
0
  6
SLD-Durchgehend
 62
     7
370
    25
100
AcDbSpline
210
0.0
220
0.0
230
1.0
 70
     8
 71
     3
 72
    11
 73
     7
 74
     0
 42
0.000000001
 43
0.00000001
 40
0.0
 40
0.0
 40
0.0
 40
0.0
 40
0.2747250492094324
 40
0.5494453099087189
 40
0.770882412748463
 40
1.0
 40
1.0
 40
1.0
 40
1.0
 10
370.3432624214848
 20
302.4913842083074
 30
0.0
 10
370.3290434970788
 20
302.5602341234001
 30
0.0
 10
370.3006058961053
 20
302.6979327535183
 30
0.0
 10
370.1602554619576
 20
302.8433811760298
 30
0.0
 10
369.9967355062005
 20
302.9312330990282
 30
0.0
 10
369.8827176732814
 20
302.9407141368304
 30
0.0
 10
369.8247369411824
 20
302.9455354660801
 30
0.0
  0
LINE
  5
93
330
1F
100
AcDbEntity
  8
0
  6
SLD-Durchgehend
 62
     7
370
    25
100
AcDbLine
 10
374.3157985743
 20
303.2278738551
 30
0.0
 11
373.8271739439
 21
303.19675489
 31
0.0
  0
SPLINE
  5
94
330
1F
100
AcDbEntity
  8
0
  6
SLD-Durchgehend
 62
     7
370
    25
100
AcDbSpline
210
0.0
220
0.0
230
1.0
 70
     8
 71
     3
 72
    11
 73
     7
 74
     0
 42
0.000000001
 43
0.00000001
 40
0.0
 40
0.0
 40
0.0
 40
0.0
 40
0.2919495674567549
 40
0.5660717013347669
 40
0.779250167582124
 40
1.0
 40
1.0
 40
1.0
 40
1.0
 10
373.8271739438895
 20
303.1967548899961
 30
0.0
 10
373.7550489739488
 20
303.1837158098416
 30
0.0
 10
373.6152032300464
 20
303.1584338601158
 30
0.0
 10
373.463687563901
 20
303.0270661931869
 30
0.0
 10
373.3777582764984
 20
302.8694391233747
 30
0.0
 10
373.3734546178101
 20
302.7609934351956
 30
0.0
 10
373.371265242429
 20
302.7058244877783
 30
0.0
  0
LINE
  5
95
330
1F
100
AcDbEntity
  8
0
  6
SLD-Durchgehend
 62
     7
370
    25
100
AcDbLine
 10
373.3712652424
 20
302.7058244878
 30
0.0
 11
373.4491661904
 21
301.4826372199
 31
0.0
  0
LINE
  5
96
330
1F
100
AcDbEntity
  8
0
  6
SLD-Durchgehend
 62
     7
370
    25
100
AcDbLine
 10
373.4491661904
 20
301.4826372199
 30
0.0
 11
374.9081204698
 21
301.575553427
 31
0.0
  0
LINE
  5
97
330
1F
100
AcDbEntity
  8
0
  6
SLD-Durchgehend
 62
     7
370
    25
100
AcDbLine
 10
374.9081204698
 20
301.575553427
 30
0.0
 11
374.8330654125
 21
302.7540550095
 31
0.0
  0
SPLINE
  5
98
330
1F
100
AcDbEntity
  8
0
  6
SLD-Durchgehend
 62
     7
370
    25
100
AcDbSpline
210
0.0
220
0.0
230
1.0
 70
     8
 71
     3
 72
    11
 73
     7
 74
     0
 42
0.000000001
 43
0.00000001
 40
0.0
 40
0.0
 40
0.0
 40
0.0
 40
0.2923590658637921
 40
0.5666087142990051
 40
0.7800972401032075
 40
1.0
 40
1.0
 40
1.0
 40
1.0
 10
374.8330654125136
 20
302.7540550094794
 30
0.0
 10
374.8191692852705
 20
302.8296745552294
 30
0.0
 10
374.7922377900293
 20
302.976229591813
 30
0.0
 10
374.6521897376454
 20
303.1331766347735
 30
0.0
 10
374.4866029603472
 20
303.2212500056947
 30
0.0
 10
374.3732923722796
 20
303.2256442270038
 30
0.0
 10
374.3157985742644
 20
303.2278738551144
 30
0.0
  0
ARC
  5
99
330
1F
100
AcDbEntity
  8
0
  6
SLD-Durchgehend
 62
     7
370
    25
100
AcDbCircle
 10
382.4244008409
 20
302.3072880168
 30
0.0
 40
37.50000000000008
100
AcDbArc
 50
287.0520859533
 51
350.23604689
  0
ARC
  5
9A
330
1F
100
AcDbEntity
  8
0
  6
SLD-Durchgehend
 62
     7
370
    25
100
AcDbCircle
 10
382.4244008409
 20
302.3072880168
 30
0.0
 40
24.50000000000004
100
AcDbArc
 50
295.4888239074
 51
341.7993089359
  0
SPLINE
  5
9B
330
1F
100
AcDbEntity
  8
0
  6
SLD-Durchgehend
 62
     7
370
    25
100
AcDbSpline
210
0.0
220
0.0
230
1.0
 70
     8
 71
     3
 72
    11
 73
     7
 74
     0
 42
0.000000001
 43
0.00000001
 40
0.0
 40
0.0
 40
0.0
 40
0.0
 40
0.2882526378998041
 40
0.5667226730079998
 40
0.7824309356463792
 40
1.0
 40
1.0
 40
1.0
 40
1.0
 10
395.4653660388711
 20
303.2318287692744
 30
0.0
 10
395.536701193449
 20
303.249076286963
 30
0.0
 10
395.6769505586462
 20
303.2829859829796
 30
0.0
 10
395.8251977226224
 20
303.4223389451212
 30
0.0
 10
395.9124200517202
 20
303.5829328283992
 30
0.0
 10
395.9174692871255
 20
303.6927921992509
 30
0.0
 10
395.9200047473363
 20
303.747957791904
 30
0.0
  0
LINE
  5
9C
330
1F
100
AcDbEntity
  8
0
  6
SLD-Durchgehend
 62
     7
370
    25
100
AcDbLine
 10
394.5731529704
 20
303.1750065265
 30
0.0
 11
395.4653660389
 21
303.2318287693
 31
0.0
  0
LINE
  5
9D
330
1F
100
AcDbEntity
  8
0
  6
SLD-Durchgehend
 62
     7
370
    25
100
AcDbLine
 10
394.4880311057
 20
304.5115753841
 30
0.0
 11
394.5731529704
 21
303.1750065265
 31
0.0
  0
LINE
  5
9E
330
1F
100
AcDbEntity
  8
0
  6
SLD-Durchgehend
 62
     7
370
    25
100
AcDbLine
 10
395.3782433226
 20
304.5682701989
 30
0.0
 11
394.4880311057
 21
304.5115753841
 31
0.0
  0
SPLINE
  5
9F
330
1F
100
AcDbEntity
  8
0
  6
SLD-Durchgehend
 62
     7
370
    25
100
AcDbSpline
210
0.0
220
0.0
230
1.0
 70
     8
 71
     3
 72
    11
 73
     7
 74
     0
 42
0.000000001
 43
0.00000001
 40
0.0
 40
0.0
 40
0.0
 40
0.0
 40
0.2709510930982694
 40
0.5362243368417785
 40
0.7543071012679073
 40
1.0
 40
1.0
 40
1.0
 40
1.0
 10
395.8966748151183
 20
304.1142803692573
 30
0.0
 10
395.8846185850539
 20
304.1835121580725
 30
0.0
 10
395.8607587663051
 20
304.320524965887
 30
0.0
 10
395.7317095788754
 20
304.4751833238857
 30
0.0
 10
395.5618667800707
 20
304.5639702450129
 30
0.0
 10
395.4418331445838
 20
304.5667811010122
 30
0.0
 10
395.378243322627
 20
304.5682701988956
 30
0.0
  0
LINE
  5
A0
330
1F
100
AcDbEntity
  8
0
  6
SLD-Durchgehend
 62
     7
370
    25
100
AcDbLine
 10
395.9200047473
 20
303.7479577919
 30
0.0
 11
395.8966748151
 21
304.1142803693
 31
0.0
  0
ARC
  5
A1
330
1F
100
AcDbEntity
  8
0
  6
SLD-Durchgehend
 62
     7
370
    25
100
AcDbCircle
 10
402.8487189529
 20
295.5918409236
 30
0.0
 40
3.000000000000074
100
AcDbArc
 50
341.7993089359
 51
161.7993089359
  0
SPLINE
  5
A2
330
1F
100
AcDbEntity
  8
0
  6
SLD-Durchgehend
 62
     7
370
    25
100
AcDbSpline
210
0.0
220
0.0
230
1.0
 70
     8
 71
     3
 72
    11
 73
     7
 74
     0
 42
0.000000001
 43
0.00000001
 40
0.0
 40
0.0
 40
0.0
 40
0.0
 40
0.1991911293572145
 40
0.4625571095361277
 40
0.7086041765618475
 40
1.0
 40
1.0
 40
1.0
 40
1.0
 10
386.0964568958516
 20
304.6593541624651
 30
0.0
 10
386.0623396742423
 20
304.7024108832426
 30
0.0
 10
385.983113438295
 20
304.8023962208085
 30
0.0
 10
385.8218043406721
 20
304.9167749359096
 30
0.0
 10
385.6128490244755
 20
304.9966077815636
 30
0.0
 10
385.4639305512983
 20
304.9978205659708
 30
0.0
 10
385.3831885377998
 20
304.9984781247873
 30
0.0
  0
LINE
  5
A3
330
1F
100
AcDbEntity
  8
0
  6
SLD-Durchgehend
 62
     7
370
    25
100
AcDbLine
 10
385.3831885378
 20
304.9984781248
 30
0.0
 11
384.8669675099
 21
304.9656016319
 31
0.0
  0
SPLINE
  5
A4
330
1F
100
AcDbEntity
  8
0
  6
SLD-Durchgehend
 62
     7
370
    25
100
AcDbSpline
210
0.0
220
0.0
230
1.0
 70
     8
 71
     3
 72
    14
 73
    10
 74
     0
 42
0.000000001
 43
0.00000001
 40
0.0
 40
0.0
 40
0.0
 40
0.0
 40
0.1668439206458624
 40
0.3025425056681473
 40
0.4150564027276238
 40
0.5191619694587472
 40
0.6413065304085618
 40
0.7970413868896138
 40
1.0
 40
1.0
 40
1.0
 40
1.0
 10
384.866967509874
 20
304.9656016319484
 30
0.0
 10
384.729761385895
 20
304.9551692498451
 30
0.0
 10
384.4809618828568
 20
304.9362519347314
 30
0.0
 10
384.1444668040839
 20
304.86770160426
 30
0.0
 10
383.8755872202718
 20
304.7463534683181
 30
0.0
 10
383.6769326981356
 20
304.5392964016991
 30
0.0
 10
383.5647002232755
 20
304.2384299344379
 30
0.0
 10
383.522994737642
 20
303.8422190063645
 30
0.0
 10
383.5366571261771
 20
303.5466014839332
 30
0.0
 10
383.5443876807145
 20
303.3793329734914
 30
0.0
  0
LINE
  5
A5
330
1F
100
AcDbEntity
  8
0
  6
SLD-Durchgehend
 62
     7
370
    25
100
AcDbLine
 10
383.5443876807
 20
303.3793329735
 30
0.0
 11
383.7707829981
 21
299.8876016038
 31
0.0
  0
LINE
  5
A6
330
1F
100
AcDbEntity
  8
0
  6
SLD-Durchgehend
 62
     7
370
    25
100
AcDbLine
 10
384.835402778
 20
299.9554038875
 30
0.0
 11
384.6049174775
 21
303.5744443768
 31
0.0
  0
SPLINE
  5
A7
330
1F
100
AcDbEntity
  8
0
  6
SLD-Durchgehend
 62
     7
370
    25
100
AcDbSpline
210
0.0
220
0.0
230
1.0
 70
     8
 71
     3
 72
    10
 73
     6
 74
     0
 42
0.000000001
 43
0.00000001
 40
0.0
 40
0.0
 40
0.0
 40
0.0
 40
0.6958504163507673
 40
0.8599558154716009
 40
1.0
 40
1.0
 40
1.0
 40
1.0
 10
384.6049174775161
 20
303.5744443767793
 30
0.0
 10
384.6012944277707
 20
303.6172694379263
 30
0.0
 10
384.5968169386076
 20
303.6701941175932
 30
0.0
 10
384.6073293850677
 20
303.7320533659403
 30
0.0
 10
384.6176843719727
 20
303.7478998264464
 30
0.0
 10
384.622452274922
 20
303.7551962514902
 30
0.0
  0
SPLINE
  5
A8
330
1F
100
AcDbEntity
  8
0
  6
SLD-Durchgehend
 62
     7
370
    25
100
AcDbSpline
210
0.0
220
0.0
230
1.0
 70
     8
 71
     3
 72
    10
 73
     6
 74
     0
 42
0.000000001
 43
0.00000001
 40
0.0
 40
0.0
 40
0.0
 40
0.0
 40
0.2312025287503112
 40
0.4918310759404824
 40
1.0
 40
1.0
 40
1.0
 40
1.0
 10
384.622452274922
 20
303.7551962514902
 30
0.0
 10
384.6296375700032
 20
303.7619578517445
 30
0.0
 10
384.6449226597893
 20
303.7763416266372
 30
0.0
 10
384.6862168493165
 20
303.7890747278584
 30
0.0
 10
384.7184760705672
 20
303.7917232289241
 30
0.0
 10
384.7397991554719
 20
303.7934738667542
 30
0.0
  0
LINE
  5
A9
330
1F
100
AcDbEntity
  8
0
  6
SLD-Durchgehend
 62
     7
370
    25
100
AcDbLine
 10
384.7397991555
 20
303.7934738668
 30
0.0
 11
385.46752555
 21
303.8398204708
 31
0.0
  0
SPLINE
  5
AA
330
1F
100
AcDbEntity
  8
0
  6
SLD-Durchgehend
 62
     7
370
    25
100
AcDbSpline
210
0.0
220
0.0
230
1.0
 70
     8
 71
     3
 72
     9
 73
     5
 74
     0
 42
0.000000001
 43
0.00000001
 40
0.0
 40
0.0
 40
0.0
 40
0.0
 40
0.6137454904782519
 40
1.0
 40
1.0
 40
1.0
 40
1.0
 10
385.4675255500366
 20
303.8398204708351
 30
0.0
 10
385.4924701280183
 20
303.8417506441368
 30
0.0
 10
385.5331133235591
 20
303.8448955524606
 30
0.0
 10
385.5678341100154
 20
303.8246001762491
 30
0.0
 10
385.5812451703583
 20
303.8167609956649
 30
0.0
  0
SPLINE
  5
AB
330
1F
100
AcDbEntity
  8
0
  6
SLD-Durchgehend
 62
     7
370
    25
100
AcDbSpline
210
0.0
220
0.0
230
1.0
 70
     8
 71
     3
 72
    10
 73
     6
 74
     0
 42
0.000000001
 43
0.00000001
 40
0.0
 40
0.0
 40
0.0
 40
0.0
 40
0.189404348477943
 40
0.4199151876309326
 40
1.0
 40
1.0
 40
1.0
 40
1.0
 10
385.5812451703583
 20
303.8167609956649
 30
0.0
 10
385.5892797318813
 20
303.8077912629242
 30
0.0
 10
385.6070925985688
 20
303.7879050932714
 30
0.0
 10
385.619554567538
 20
303.7247605390476
 30
0.0
 10
385.6226730174513
 20
303.674520355475
 30
0.0
 10
385.624904667016
 20
303.6385670816
 30
0.0
  0
LINE
  5
AC
330
1F
100
AcDbEntity
  8
0
  6
SLD-Durchgehend
 62
     7
370
    25
100
AcDbLine
 10
385.624904667
 20
303.6385670816
 30
0.0
 11
385.8553368635
 21
300.0203604216
 31
0.0
  0
SPLINE
  5
AD
330
1F
100
AcDbEntity
  8
0
  6
SLD-Durchgehend
 62
     7
370
    25
100
AcDbSpline
210
0.0
220
0.0
230
1.0
 70
     8
 71
     3
 72
    11
 73
     7
 74
     0
 42
0.000000001
 43
0.00000001
 40
0.0
 40
0.0
 40
0.0
 40
0.0
 40
0.1992186042567479
 40
0.4625865760426267
 40
0.7086378742852806
 40
1.0
 40
1.0
 40
1.0
 40
1.0
 10
396.5826570636107
 20
302.8774193663517
 30
0.0
 10
396.6257422069158
 20
302.9115553137512
 30
0.0
 10
396.7257861209577
 20
302.9908191510139
 30
0.0
 10
396.8401193894233
 20
303.1522935238622
 30
0.0
 10
396.9198970187899
 20
303.3613594514464
 30
0.0
 10
396.921101474874
 20
303.5103359868102
 30
0.0
 10
396.9217544784451
 20
303.5911045684834
 30
0.0
  0
SPLINE
  5
AE
330
1F
100
AcDbEntity
  8
0
  6
SLD-Durchgehend
 62
     7
370
    25
100
AcDbSpline
210
0.0
220
0.0
230
1.0
 70
     8
 71
     3
 72
     9
 73
     5
 74
     0
 42
0.000000001
 43
0.00000001
 40
0.0
 40
0.0
 40
0.0
 40
0.0
 40
0.5019771459250496
 40
1.0
 40
1.0
 40
1.0
 40
1.0
 10
396.9217544784451
 20
303.5911045684834
 30
0.0
 10
396.9138492805242
 20
303.7140810207881
 30
0.0
 10
396.8981011573578
 20
303.9590651865075
 30
0.0
 10
396.88197614631
 20
304.2040248335254
 30
0.0
 10
396.8739455222861
 20
304.3260203360666
 30
0.0
  0
SPLINE
  5
AF
330
1F
100
AcDbEntity
  8
0
  6
SLD-Durchgehend
 62
     7
370
    25
100
AcDbSpline
210
0.0
220
0.0
230
1.0
 70
     8
 71
     3
 72
    13
 73
     9
 74
     0
 42
0.000000001
 43
0.00000001
 40
0.0
 40
0.0
 40
0.0
 40
0.0
 40
0.1941657261233332
 40
0.3470249713928881
 40
0.4706668946820248
 40
0.5811375112837301
 40
0.7664103779903065
 40
1.0
 40
1.0
 40
1.0
 40
1.0
 10
396.8739455222861
 20
304.3260203360666
 30
0.0
 10
396.8609037767104
 20
304.4741644039494
 30
0.0
 10
396.8375947639629
 20
304.7389366268618
 30
0.0
 10
396.7417982421869
 20
305.0886019983697
 30
0.0
 10
396.5939957273649
 20
305.3503722599499
 30
0.0
 10
396.3423388751618
 20
305.5610760874661
 30
0.0
 10
395.9361204660727
 20
305.6614464965508
 30
0.0
 10
395.6160073033977
 20
305.6466960117458
 30
0.0
 10
395.4374878258033
 20
305.6384700181015
 30
0.0
  0
LINE
  5
B0
330
1F
100
AcDbEntity
  8
0
  6
SLD-Durchgehend
 62
     7
370
    25
100
AcDbLine
 10
395.4374878258
 20
305.6384700181
 30
0.0
 11
393.3490988194
 21
305.505467094
 31
0.0
  0
LINE
  5
B1
330
1F
100
AcDbEntity
  8
0
  6
SLD-Durchgehend
 62
     7
370
    25
100
AcDbLine
 10
393.66676606
 20
300.5175107968
 30
0.0
 11
394.7384233653
 21
300.5857612783
 31
0.0
  0
LINE
  5
B2
330
1F
100
AcDbEntity
  8
0
  6
SLD-Durchgehend
 62
     7
370
    25
100
AcDbLine
 10
394.7384233653
 20
300.5857612783
 30
0.0
 11
394.63798004
 21
302.16762024
 31
0.0
  0
LINE
  5
B3
330
1F
100
AcDbEntity
  8
0
  6
SLD-Durchgehend
 62
     7
370
    25
100
AcDbLine
 10
394.63798004
 20
302.16762024
 30
0.0
 11
395.519855391
 21
302.223784106
 31
0.0
  0
SPLINE
  5
B4
330
1F
100
AcDbEntity
  8
0
  6
SLD-Durchgehend
 62
     7
370
    25
100
AcDbSpline
210
0.0
220
0.0
230
1.0
 70
     8
 71
     3
 72
    13
 73
     9
 74
     0
 42
0.000000001
 43
0.00000001
 40
0.0
 40
0.0
 40
0.0
 40
0.0
 40
0.1786987827384233
 40
0.3258270793141536
 40
0.4518927463934508
 40
0.5696190978301102
 40
0.7655101285646126
 40
1.0
 40
1.0
 40
1.0
 40
1.0
 10
395.5198553909988
 20
302.223784106029
 30
0.0
 10
395.5688801307061
 20
302.2252691768595
 30
0.0
 10
395.6582684718475
 20
302.2279769529499
 30
0.0
 10
395.7810117626741
 20
302.204465329023
 30
0.0
 10
395.8789695679629
 20
302.1576098710858
 30
0.0
 10
395.9669114513894
 20
302.0724205680884
 30
0.0
 10
396.0290806931155
 20
301.9309683607381
 30
0.0
 10
396.0405471696038
 20
301.8133341090359
 30
0.0
 10
396.0467945950448
 20
301.7492419515564
 30
0.0
  0
LINE
  5
B5
330
1F
100
AcDbEntity
  8
0
  6
SLD-Durchgehend
 62
     7
370
    25
100
AcDbLine
 10
396.046794595
 20
301.7492419516
 30
0.0
 11
396.115549422
 21
300.6722942059
 31
0.0
  0
LINE
  5
B6
330
1F
100
AcDbEntity
  8
0
  6
SLD-Durchgehend
 62
     7
370
    25
100
AcDbLine
 10
396.115549422
 20
300.6722942059
 30
0.0
 11
397.1039701041
 21
300.7352436088
 31
0.0
  0
LINE
  5
B7
330
1F
100
AcDbEntity
  8
0
  6
SLD-Durchgehend
 62
     7
370
    25
100
AcDbLine
 10
397.1039701041
 20
300.7352436088
 30
0.0
 11
397.0106291348
 21
302.2008674314
 31
0.0
  0
SPLINE
  5
B8
330
1F
100
AcDbEntity
  8
0
  6
SLD-Durchgehend
 62
     7
370
    25
100
AcDbSpline
210
0.0
220
0.0
230
1.0
 70
     8
 71
     3
 72
    12
 73
     8
 74
     0
 42
0.000000001
 43
0.00000001
 40
0.0
 40
0.0
 40
0.0
 40
0.0
 40
0.2586060014828596
 40
0.4768740222596432
 40
0.6654196460658754
 40
0.8538040147583551
 40
1.0
 40
1.0
 40
1.0
 40
1.0
 10
397.0106291347896
 20
302.2008674314295
 30
0.0
 10
397.0018713422982
 20
302.2730121935483
 30
0.0
 10
396.9857218186693
 20
302.4060484057756
 30
0.0
 10
396.9100766781542
 20
302.5789322815126
 30
0.0
 10
396.810816746534
 20
302.7136371309438
 30
0.0
 10
396.7006268145812
 20
302.8123350707734
 30
0.0
 10
396.6185296774781
 20
302.8576283285229
 30
0.0
 10
396.5826570636107
 20
302.8774193663517
 30
0.0
  0
LINE
  5
B9
330
1F
100
AcDbEntity
  8
0
  6
SLD-Durchgehend
 62
     7
370
    25
100
AcDbLine
 10
392.7069923937
 20
300.4568880739
 30
0.0
 11
392.6386910172
 21
301.5293445225
 31
0.0
  0
LINE
  5
BA
330
1F
100
AcDbEntity
  8
0
  6
SLD-Durchgehend
 62
     7
370
    25
100
AcDbLine
 10
392.6386910172
 20
301.5293445225
 30
0.0
 11
390.9953249169
 21
301.4246837069
 31
0.0
  0
LINE
  5
BB
330
1F
100
AcDbEntity
  8
0
  6
SLD-Durchgehend
 62
     7
370
    25
100
AcDbLine
 10
390.9953249169
 20
301.4246837069
 30
0.0
 11
390.938916815
 21
302.3103940077
 31
0.0
  0
LINE
  5
BC
330
1F
100
AcDbEntity
  8
0
  6
SLD-Durchgehend
 62
     7
370
    25
100
AcDbLine
 10
390.938916815
 20
302.3103940077
 30
0.0
 11
392.5822829153
 21
302.4150548233
 31
0.0
  0
LINE
  5
BD
330
1F
100
AcDbEntity
  8
0
  6
SLD-Durchgehend
 62
     7
370
    25
100
AcDbLine
 10
392.5822829153
 20
302.4150548233
 30
0.0
 11
392.5139921578
 21
303.4873445343
 31
0.0
  0
LINE
  5
BE
330
1F
100
AcDbEntity
  8
0
  6
SLD-Durchgehend
 62
     7
370
    25
100
AcDbLine
 10
392.5139921578
 20
303.4873445343
 30
0.0
 11
390.8706260575
 21
303.3826837187
 31
0.0
  0
LINE
  5
BF
330
1F
100
AcDbEntity
  8
0
  6
SLD-Durchgehend
 62
     7
370
    25
100
AcDbLine
 10
390.8706260575
 20
303.3826837187
 30
0.0
 11
390.8142285746
 21
304.2682272819
 31
0.0
  0
LINE
  5
C0
330
1F
100
AcDbEntity
  8
0
  6
SLD-Durchgehend
 62
     7
370
    25
100
AcDbLine
 10
390.8142285746
 20
304.2682272819
 30
0.0
 11
392.4575946749
 21
304.3728880975
 31
0.0
  0
LINE
  5
C1
330
1F
100
AcDbEntity
  8
0
  6
SLD-Durchgehend
 62
     7
370
    25
100
AcDbLine
 10
392.4575946749
 20
304.3728880975
 30
0.0
 11
392.3893039175
 21
305.4451778084
 31
0.0
  0
LINE
  5
C2
330
1F
100
AcDbEntity
  8
0
  6
SLD-Durchgehend
 62
     7
370
    25
100
AcDbLine
 10
392.3893039175
 20
305.4451778084
 30
0.0
 11
389.672814418
 21
305.2721731404
 31
0.0
  0
LINE
  5
C3
330
1F
100
AcDbEntity
  8
0
  6
SLD-Durchgehend
 62
     7
370
    25
100
AcDbLine
 10
389.672814418
 20
305.2721731404
 30
0.0
 11
389.9905028942
 21
300.2838834059
 31
0.0
  0
LINE
  5
C4
330
1F
100
AcDbEntity
  8
0
  6
SLD-Durchgehend
 62
     7
370
    25
100
AcDbLine
 10
389.9905028942
 20
300.2838834059
 30
0.0
 11
392.7069923937
 21
300.4568880739
 31
0.0
  0
SPLINE
  5
C5
330
1F
100
AcDbEntity
  8
0
  6
SLD-Durchgehend
 62
     7
370
    25
100
AcDbSpline
210
0.0
220
0.0
230
1.0
 70
     8
 71
     3
 72
    14
 73
    10
 74
     0
 42
0.000000001
 43
0.00000001
 40
0.0
 40
0.0
 40
0.0
 40
0.0
 40
0.1948363021374177
 40
0.3461853534454076
 40
0.4655428980217857
 40
0.5700830422527728
 40
0.6859658879948681
 40
0.8260627731951056
 40
1.0
 40
1.0
 40
1.0
 40
1.0
 10
388.8021895520056
 20
303.7145206574156
 30
0.0
 10
388.7892807983837
 20
303.8747449532486
 30
0.0
 10
388.7663445109152
 20
304.1594316562654
 30
0.0
 10
388.6811614931451
 20
304.5353698375532
 30
0.0
 10
388.5446224533643
 20
304.8183799619217
 30
0.0
 10
388.3320599809747
 20
305.0124379197142
 30
0.0
 10
388.0455476707045
 20
305.1112313315832
 30
0.0
 10
387.6907779674245
 20
305.1406222823812
 30
0.0
 10
387.4320928769531
 20
305.127464159489
 30
0.0
 10
387.2888123684597
 20
305.1201761378431
 30
0.0
  0
LINE
  5
C6
330
1F
100
AcDbEntity
  8
0
  6
SLD-Durchgehend
 62
     7
370
    25
100
AcDbLine
 10
387.2888123685
 20
305.1201761378
 30
0.0
 11
386.7726753555
 21
305.0873049957
 31
0.0
  0
SPLINE
  5
C7
330
1F
100
AcDbEntity
  8
0
  6
SLD-Durchgehend
 62
     7
370
    25
100
AcDbSpline
210
0.0
220
0.0
230
1.0
 70
     8
 71
     3
 72
    12
 73
     8
 74
     0
 42
0.000000001
 43
0.00000001
 40
0.0
 40
0.0
 40
0.0
 40
0.0
 40
0.2585139589177041
 40
0.4767397343402721
 40
0.6652911032508835
 40
0.8537276706446619
 40
0.9999999999999999
 40
0.9999999999999999
 40
0.9999999999999999
 40
0.9999999999999999
 10
386.77267535551
 20
305.0873049956538
 30
0.0
 10
386.7005838568012
 20
305.0785499076781
 30
0.0
 10
386.5676359800734
 20
305.0624041709714
 30
0.0
 10
386.3948684061262
 20
304.986759926478
 30
0.0
 10
386.2602359644907
 20
304.8875019979186
 30
0.0
 10
386.161574318132
 20
304.7773106167931
 30
0.0
 10
386.1162599079478
 20
304.6952261765909
 30
0.0
 10
386.0964568958516
 20
304.6593541624651
 30
0.0
  0
LINE
  5
C8
330
1F
100
AcDbEntity
  8
0
  6
SLD-Durchgehend
 62
     7
370
    25
100
AcDbLine
 10
382.9886895165
 20
299.837959945
 30
0.0
 11
382.9203881401
 21
300.9104163936
 31
0.0
  0
LINE
  5
C9
330
1F
100
AcDbEntity
  8
0
  6
SLD-Durchgehend
 62
     7
370
    25
100
AcDbLine
 10
382.9203881401
 20
300.9104163936
 30
0.0
 11
381.4416754513
 21
300.8162418356
 31
0.0
  0
LINE
  5
CA
330
1F
100
AcDbEntity
  8
0
  6
SLD-Durchgehend
 62
     7
370
    25
100
AcDbLine
 10
381.4416754513
 20
300.8162418356
 30
0.0
 11
381.1922883516
 21
304.7320751215
 31
0.0
  0
LINE
  5
CB
330
1F
100
AcDbEntity
  8
0
  6
SLD-Durchgehend
 62
     7
370
    25
100
AcDbLine
 10
381.1922883516
 20
304.7320751215
 30
0.0
 11
380.1193316901
 21
304.6637418881
 31
0.0
  0
LINE
  5
CC
330
1F
100
AcDbEntity
  8
0
  6
SLD-Durchgehend
 62
     7
370
    25
100
AcDbLine
 10
380.1193316901
 20
304.6637418881
 30
0.0
 11
380.4370201663
 21
299.6754521536
 31
0.0
  0
LINE
  5
CD
330
1F
100
AcDbEntity
  8
0
  6
SLD-Durchgehend
 62
     7
370
    25
100
AcDbLine
 10
380.4370201663
 20
299.6754521536
 30
0.0
 11
382.9886895165
 21
299.837959945
 31
0.0
  0
LINE
  5
CE
330
1F
100
AcDbEntity
  8
0
  6
SLD-Durchgehend
 62
     7
370
    25
100
AcDbLine
 10
393.3490988194
 20
305.505467094
 30
0.0
 11
393.66676606
 21
300.5175107968
 31
0.0
  0
LINE
  5
CF
330
1F
100
AcDbEntity
  8
0
  6
SLD-Durchgehend
 62
     7
370
    25
100
AcDbLine
 10
379.6970385558
 20
299.6283250534
 30
0.0
 11
379.6287371793
 21
300.700781502
 31
0.0
  0
LINE
  5
D0
330
1F
100
AcDbEntity
  8
0
  6
SLD-Durchgehend
 62
     7
370
    25
100
AcDbLine
 10
379.6287371793
 20
300.700781502
 30
0.0
 11
378.1501078594
 21
300.6066122535
 31
0.0
  0
LINE
  5
D1
330
1F
100
AcDbEntity
  8
0
  6
SLD-Durchgehend
 62
     7
370
    25
100
AcDbLine
 10
378.1501078594
 20
300.6066122535
 30
0.0
 11
377.9007207596
 21
304.5224455394
 31
0.0
  0
LINE
  5
D2
330
1F
100
AcDbEntity
  8
0
  6
SLD-Durchgehend
 62
     7
370
    25
100
AcDbLine
 10
377.9007207596
 20
304.5224455394
 30
0.0
 11
376.8276807293
 21
304.4541069965
 31
0.0
  0
LINE
  5
D3
330
1F
100
AcDbEntity
  8
0
  6
SLD-Durchgehend
 62
     7
370
    25
100
AcDbLine
 10
376.8276807293
 20
304.4541069965
 30
0.0
 11
377.1453692055
 21
299.465817262
 31
0.0
  0
LINE
  5
D4
330
1F
100
AcDbEntity
  8
0
  6
SLD-Durchgehend
 62
     7
370
    25
100
AcDbLine
 10
377.1453692055
 20
299.465817262
 30
0.0
 11
379.6970385558
 21
299.6283250534
 31
0.0
  0
LINE
  5
D5
330
1F
100
AcDbEntity
  8
0
  6
SLD-Durchgehend
 62
     7
370
    25
100
AcDbLine
 10
383.7707829981
 20
299.8876016038
 30
0.0
 11
384.835402778
 21
299.9554038875
 31
0.0
  0
LINE
  5
D6
330
1F
100
AcDbEntity
  8
0
  6
SLD-Durchgehend
 62
     7
370
    25
100
AcDbLine
 10
372.2968051642
 20
302.6926421008
 30
0.0
 11
372.5208128656
 21
299.1753117552
 31
0.0
  0
LINE
  5
D7
330
1F
100
AcDbEntity
  8
0
  6
SLD-Durchgehend
 62
     7
370
    25
100
AcDbLine
 10
372.5208128656
 20
299.1753117552
 30
0.0
 11
373.5916019379
 21
299.2435069417
 31
0.0
  0
LINE
  5
D8
330
1F
100
AcDbEntity
  8
0
  6
SLD-Durchgehend
 62
     7
370
    25
100
AcDbLine
 10
373.5916019379
 20
299.2435069417
 30
0.0
 11
373.5168229745
 21
300.4176733458
 31
0.0
  0
LINE
  5
D9
330
1F
100
AcDbEntity
  8
0
  6
SLD-Durchgehend
 62
     7
370
    25
100
AcDbLine
 10
373.5168229745
 20
300.4176733458
 30
0.0
 11
374.9756105257
 21
300.5105789345
 31
0.0
  0
LINE
  5
DA
330
1F
100
AcDbEntity
  8
0
  6
SLD-Durchgehend
 62
     7
370
    25
100
AcDbLine
 10
374.9756105257
 20
300.5105789345
 30
0.0
 11
375.050867344
 21
299.328909337
 31
0.0
  0
LINE
  5
DB
330
1F
100
AcDbEntity
  8
0
  6
SLD-Durchgehend
 62
     7
370
    25
100
AcDbLine
 10
375.050867344
 20
299.328909337
 30
0.0
 11
376.1221566196
 21
299.3971363798
 31
0.0
  0
LINE
  5
DC
330
1F
100
AcDbEntity
  8
0
  6
SLD-Durchgehend
 62
     7
370
    25
100
AcDbLine
 10
376.1221566196
 20
299.3971363798
 30
0.0
 11
375.8992851506
 21
302.8966257988
 31
0.0
  0
SPLINE
  5
DD
330
1F
100
AcDbEntity
  8
0
  6
SLD-Durchgehend
 62
     7
370
    25
100
AcDbSpline
210
0.0
220
0.0
230
1.0
 70
     8
 71
     3
 72
    12
 73
     8
 74
     0
 42
0.000000001
 43
0.00000001
 40
0.0
 40
0.0
 40
0.0
 40
0.0
 40
0.2114134532755191
 40
0.3895527681210751
 40
0.5523169649032844
 40
0.7549862544514424
 40
1.0
 40
1.0
 40
1.0
 40
1.0
 10
375.8992851505979
 20
302.8966257987995
 30
0.0
 10
375.8801645453723
 20
303.0674263088454
 30
0.0
 10
375.8449327066298
 20
303.3821452184227
 30
0.0
 10
375.6606495276924
 20
303.7996874252571
 30
0.0
 10
375.3448948098152
 20
304.1206600178182
 30
0.0
 10
374.8682218340295
 20
304.3047043325662
 30
0.0
 10
374.5035427135509
 20
304.2997651969713
 30
0.0
 10
374.3039564209577
 20
304.2970620431391
 30
0.0
  0
LINE
  5
DE
330
1F
100
AcDbEntity
  8
0
  6
SLD-Durchgehend
 62
     7
370
    25
100
AcDbLine
 10
374.303956421
 20
304.2970620431
 30
0.0
 11
373.6958642773
 21
304.258334568
 31
0.0
  0
SPLINE
  5
DF
330
1F
100
AcDbEntity
  8
0
  6
SLD-Durchgehend
 62
     7
370
    25
100
AcDbSpline
210
0.0
220
0.0
230
1.0
 70
     8
 71
     3
 72
    12
 73
     8
 74
     0
 42
0.000000001
 43
0.00000001
 40
0.0
 40
0.0
 40
0.0
 40
0.0
 40
0.2125693766514624
 40
0.39146585348559
 40
0.554377879271658
 40
0.7563584015614679
 40
1.0
 40
1.0
 40
1.0
 40
1.0
 10
373.6958642773039
 20
304.258334568037
 30
0.0
 10
373.5259768202945
 20
304.2399023464911
 30
0.0
 10
373.2131136064003
 20
304.2059577329594
 30
0.0
 10
372.7975506953932
 20
304.0259738316853
 30
0.0
 10
372.4770520261466
 20
303.7166652340126
 30
0.0
 10
372.2915418137832
 20
303.2480602188392
 30
0.0
 10
372.2949446700322
 20
302.8889718282095
 30
0.0
 10
372.2968051641531
 20
302.6926421008371
 30
0.0
  0
SPLINE
  5
E0
330
1F
100
AcDbEntity
  8
0
  6
SLD-Durchgehend
 62
     7
370
    25
100
AcDbSpline
210
0.0
220
0.0
230
1.0
 70
     8
 71
     3
 72
     9
 73
     5
 74
     0
 42
0.000000001
 43
0.00000001
 40
0.0
 40
0.0
 40
0.0
 40
0.0
 40
0.5967093862650595
 40
1.0
 40
1.0
 40
1.0
 40
1.0
 10
370.1112165059375
 20
299.0203452384454
 30
0.0
 10
370.3316890775005
 20
299.0456455470228
 30
0.0
 10
370.7011697269384
 20
299.0880452631321
 30
0.0
 10
370.9947543701837
 20
299.3108715007298
 30
0.0
 10
371.1131543011413
 20
299.4007352308467
 30
0.0
  0
SPLINE
  5
E1
330
1F
100
AcDbEntity
  8
0
  6
SLD-Durchgehend
 62
     7
370
    25
100
AcDbSpline
210
0.0
220
0.0
230
1.0
 70
     8
 71
     3
 72
    10
 73
     6
 74
     0
 42
0.000000001
 43
0.00000001
 40
0.0
 40
0.0
 40
0.0
 40
0.0
 40
0.2528872714856206
 40
0.518462117555277
 40
1.0
 40
1.0
 40
1.0
 40
1.0
 10
371.1131543011413
 20
299.4007352308467
 30
0.0
 10
371.1833543779153
 20
299.4814791461729
 30
0.0
 10
371.3272765304338
 20
299.6470179693562
 30
0.0
 10
371.4777876166639
 20
300.0499949788573
 30
0.0
 10
371.4779336169414
 20
300.3665567249474
 30
0.0
 10
371.4780277187573
 20
300.570590824565
 30
0.0
  0
LINE
  5
E2
330
1F
100
AcDbEntity
  8
0
  6
SLD-Durchgehend
 62
     7
370
    25
100
AcDbLine
 10
371.4780277188
 20
300.5705908246
 30
0.0
 11
371.3484122276
 21
302.6057909422
 31
0.0
  0
SPLINE
  5
E3
330
1F
100
AcDbEntity
  8
0
  6
SLD-Durchgehend
 62
     7
370
    25
100
AcDbSpline
210
0.0
220
0.0
230
1.0
 70
     8
 71
     3
 72
    12
 73
     8
 74
     0
 42
0.000000001
 43
0.00000001
 40
0.0
 40
0.0
 40
0.0
 40
0.0
 40
0.2177775398264641
 40
0.3984647405276026
 40
0.5601427979986201
 40
0.7588538422333005
 40
1.0
 40
1.0
 40
1.0
 40
1.0
 10
371.3484122275735
 20
302.6057909422327
 30
0.0
 10
371.3303649517418
 20
302.7782862760939
 30
0.0
 10
371.2973440851859
 20
303.0938987515767
 30
0.0
 10
371.1257056035357
 20
303.5130821821606
 30
0.0
 10
370.8267294261103
 20
303.8357183240778
 30
0.0
 10
370.367315558042
 20
304.0195519220699
 30
0.0
 10
370.0159380037785
 20
304.0144826714488
 30
0.0
 10
369.8232996958218
 20
304.0117035187954
 30
0.0
  0
LINE
  5
E4
330
1F
100
AcDbEntity
  8
0
  6
SLD-Durchgehend
 62
     7
370
    25
100
AcDbLine
 10
369.8232996958
 20
304.0117035188
 30
0.0
 11
367.7448315778
 21
303.8793324248
 31
0.0
  0
LINE
  5
E5
330
1F
100
AcDbEntity
  8
0
  6
SLD-Durchgehend
 62
     7
370
    25
100
AcDbLine
 10
367.7448315778
 20
303.8793324248
 30
0.0
 11
368.062498816
 21
298.8913761656
 31
0.0
  0
LINE
  5
E6
330
1F
100
AcDbEntity
  8
0
  6
SLD-Durchgehend
 62
     7
370
    25
100
AcDbLine
 10
368.062498816
 20
298.8913761656
 30
0.0
 11
370.0257512406
 21
299.0164095346
 31
0.0
  0
SPLINE
  5
E7
330
1F
100
AcDbEntity
  8
0
  6
SLD-Durchgehend
 62
     7
370
    25
100
AcDbSpline
210
0.0
220
0.0
230
1.0
 70
     8
 71
     3
 72
     9
 73
     5
 74
     0
 42
0.000000001
 43
0.00000001
 40
0.0
 40
0.0
 40
0.0
 40
0.0
 40
0.561149244885231
 40
1.0
 40
1.0
 40
1.0
 40
1.0
 10
370.0257512405851
 20
299.0164095346104
 30
0.0
 10
370.0417484182028
 20
299.0169147220798
 30
0.0
 10
370.0702563022703
 20
299.0178149949999
 30
0.0
 10
370.0987236075288
 20
299.0195735119527
 30
0.0
 10
370.1112165059375
 20
299.0203452384454
 30
0.0
  0
LINE
  5
E8
330
1F
100
AcDbEntity
  8
0
  6
SLD-Durchgehend
 62
     7
370
    25
100
AcDbLine
 10
389.0246045504
 20
300.2221986616
 30
0.0
 11
388.802189552
 21
303.7145206574
 31
0.0
  0
LINE
  5
E9
330
1F
100
AcDbEntity
  8
0
  6
SLD-Durchgehend
 62
     7
370
    25
100
AcDbLine
 10
386.8410092772
 20
303.9262865396
 30
0.0
 11
387.5688190405
 21
303.9726384532
 31
0.0
  0
SPLINE
  5
EA
330
1F
100
AcDbEntity
  8
0
  6
SLD-Durchgehend
 62
     7
370
    25
100
AcDbSpline
210
0.0
220
0.0
230
1.0
 70
     8
 71
     3
 72
    10
 73
     6
 74
     0
 42
0.000000001
 43
0.00000001
 40
0.0
 40
0.0
 40
0.0
 40
0.0
 40
0.6237435782698814
 40
0.8187871131398979
 40
1.0
 40
1.0
 40
1.0
 40
1.0
 10
387.5688190405359
 20
303.9726384531796
 30
0.0
 10
387.595240416669
 20
303.9739849276973
 30
0.0
 10
387.6299237112838
 20
303.9757524424608
 30
0.0
 10
387.6712033028671
 20
303.964120753653
 30
0.0
 10
387.6838761957414
 20
303.9543998409525
 30
0.0
 10
387.6899797234688
 20
303.9497180480272
 30
0.0
  0
LINE
  5
EB
330
1F
100
AcDbEntity
  8
0
  6
SLD-Durchgehend
 62
     7
370
    25
100
AcDbLine
 10
385.8553368635
 20
300.0203604216
 30
0.0
 11
385.8610914508
 21
300.0207246089
 31
0.0
  0
LINE
  5
EC
330
1F
100
AcDbEntity
  8
0
  6
SLD-Durchgehend
 62
     7
370
    25
100
AcDbLine
 10
385.8610914508
 20
300.0207246089
 30
0.0
 11
386.9408009863
 21
300.0894879116
 31
0.0
  0
LINE
  5
ED
330
1F
100
AcDbEntity
  8
0
  6
SLD-Durchgehend
 62
     7
370
    25
100
AcDbLine
 10
386.9408009863
 20
300.0894879116
 30
0.0
 11
386.7104218848
 21
303.7068608835
 31
0.0
  0
SPLINE
  5
EE
330
1F
100
AcDbEntity
  8
0
  6
SLD-Durchgehend
 62
     7
370
    25
100
AcDbSpline
210
0.0
220
0.0
230
1.0
 70
     8
 71
     3
 72
    10
 73
     6
 74
     0
 42
0.000000001
 43
0.00000001
 40
0.0
 40
0.0
 40
0.0
 40
0.0
 40
0.6880866687026383
 40
0.8520806273578161
 40
1.0
 40
1.0
 40
1.0
 40
1.0
 10
386.710421884794
 20
303.7068608834733
 30
0.0
 10
386.7065221341827
 20
303.7498004055458
 30
0.0
 10
386.701692943183
 20
303.8029738451285
 30
0.0
 10
386.7135941620036
 20
303.8657002965726
 30
0.0
 10
386.7254350383594
 20
303.881492506618
 30
0.0
 10
386.7310503642411
 20
303.8889816825145
 30
0.0
  0
SPLINE
  5
EF
330
1F
100
AcDbEntity
  8
0
  6
SLD-Durchgehend
 62
     7
370
    25
100
AcDbSpline
210
0.0
220
0.0
230
1.0
 70
     8
 71
     3
 72
    10
 73
     6
 74
     0
 42
0.000000001
 43
0.00000001
 40
0.0
 40
0.0
 40
0.0
 40
0.0
 40
0.2440703980436016
 40
0.50182584227518
 40
0.9999999999999999
 40
0.9999999999999999
 40
0.9999999999999999
 40
0.9999999999999999
 10
386.7310503642411
 20
303.8889816825146
 30
0.0
 10
386.7382705518715
 20
303.8955617159683
 30
0.0
 10
386.753115763614
 20
303.9090907258629
 30
0.0
 10
386.7913982951221
 20
303.922269425687
 30
0.0
 10
386.821302048788
 20
303.9246908005522
 30
0.0
 10
386.8410092771553
 20
303.9262865396011
 30
0.0
  0
SPLINE
  5
F0
330
1F
100
AcDbEntity
  8
0
  6
SLD-Durchgehend
 62
     7
370
    25
100
AcDbSpline
210
0.0
220
0.0
230
1.0
 70
     8
 71
     3
 72
    10
 73
     6
 74
     0
 42
0.000000001
 43
0.00000001
 40
0.0
 40
0.0
 40
0.0
 40
0.0
 40
0.1807043028123127
 40
0.4132783874660678
 40
1.0
 40
1.0
 40
1.0
 40
1.0
 10
387.6899797234688
 20
303.9497180480272
 30
0.0
 10
387.6969639706914
 20
303.9408640270847
 30
0.0
 10
387.7129372396448
 20
303.9206145065101
 30
0.0
 10
387.7249460925242
 20
303.8586558101191
 30
0.0
 10
387.7281161105385
 20
303.8085433048714
 30
0.0
 10
387.7303862531591
 20
303.7726562741109
 30
0.0
  0
LINE
  5
F1
330
1F
100
AcDbEntity
  8
0
  6
SLD-Durchgehend
 62
     7
370
    25
100
AcDbLine
 10
387.7303862532
 20
303.7726562741
 30
0.0
 11
387.9608184587
 21
300.1544494729
 31
0.0
  0
LINE
  5
F2
330
1F
100
AcDbEntity
  8
0
  6
SLD-Durchgehend
 62
     7
370
    25
100
AcDbLine
 10
387.9608184587
 20
300.1544494729
 30
0.0
 11
389.0246045504
 21
300.2221986616
 31
0.0
  0
CIRCLE
  5
F3
330
1F
100
AcDbEntity
  8
0
  6
SLD-Durchgehend
 62
     7
370
    25
100
AcDbCircle
 10
382.4244008409
 20
302.3072880168
 30
0.0
 40
57.50000000000005
  0
ARC
  5
F4
330
1F
100
AcDbEntity
  8
0
  6
SLD-Durchgehend
 62
     7
370
    25
100
AcDbCircle
 10
428.6427391579
 20
313.2669961888
 30
0.0
 40
3.000000000000054
100
AcDbArc
 50
193.3400948198
 51
13.3400948198
  0
ARC
  5
F5
330
1F
100
AcDbEntity
  8
0
  6
SLD-Durchgehend
 62
     7
370
    25
100
AcDbCircle
 10
382.4244008409
 20
302.3072880168
 30
0.0
 40
44.5
100
AcDbArc
 50
13.3400948198
 51
83.9480380235
  0
ARC
  5
F6
330
1F
100
AcDbEntity
  8
0
  6
SLD-Durchgehend
 62
     7
370
    25
100
AcDbCircle
 10
382.4244008409
 20
302.3072880168
 30
0.0
 40
50.50000000000004
100
AcDbArc
 50
13.3400948198
 51
83.9480380235
  0
ARC
  5
F7
330
1F
100
AcDbEntity
  8
0
  6
SLD-Durchgehend
 62
     7
370
    25
100
AcDbCircle
 10
387.4323429219
 20
349.5425557319
 30
0.0
 40
3.00000000000001
100
AcDbArc
 50
83.9480380235
 51
263.9480380235
  0
ARC
  5
F8
330
1F
100
AcDbEntity
  8
0
  6
SLD-Durchgehend
 62
     7
370
    25
100
AcDbCircle
 10
382.4244008409
 20
302.3072880168
 30
0.0
 40
44.50000000000004
100
AcDbArc
 50
103.3400948198
 51
173.9480380235
  0
ARC
  5
F9
330
1F
100
AcDbEntity
  8
0
  6
SLD-Durchgehend
 62
     7
370
    25
100
AcDbCircle
 10
382.4244008409
 20
302.3072880168
 30
0.0
 40
37.50000000000004
100
AcDbArc
 50
107.0520859533
 51
170.23604689
  0
ARC
  5
FA
330
1F
100
AcDbEntity
  8
0
  6
SLD-Durchgehend
 62
     7
370
    25
100
AcDbCircle
 10
389.1398479342
 20
322.7316061288
 30
0.0
 40
2.999999999999984
100
AcDbArc
 50
71.7993089359
 51
251.7993089359
  0
ARC
  5
FB
330
1F
100
AcDbEntity
  8
0
  6
SLD-Durchgehend
 62
     7
370
    25
100
AcDbCircle
 10
362.000082729
 20
309.0227351101
 30
0.0
 40
3.00000000000002
100
AcDbArc
 50
161.7993089359
 51
341.7993089359
  0
ARC
  5
FC
330
1F
100
AcDbEntity
  8
0
  6
SLD-Durchgehend
 62
     7
370
    25
100
AcDbCircle
 10
382.4244008409
 20
302.3072880168
 30
0.0
 40
50.50000000000005
100
AcDbArc
 50
283.3400948198
 51
353.9480380235
  0
ARC
  5
FD
330
1F
100
AcDbEntity
  8
0
  6
SLD-Durchgehend
 62
     7
370
    25
100
AcDbCircle
 10
393.3841090129
 20
256.0889496998
 30
0.0
 40
3.000000000000054
100
AcDbArc
 50
103.3400948198
 51
283.3400948198
  0
ARC
  5
FE
330
1F
100
AcDbEntity
  8
0
  6
SLD-Durchgehend
 62
     7
370
    25
100
AcDbCircle
 10
382.4244008409
 20
302.3072880168
 30
0.0
 40
44.50000000000006
100
AcDbArc
 50
283.3400948198
 51
353.9480380235
  0
ARC
  5
FF
330
1F
100
AcDbEntity
  8
0
  6
SLD-Durchgehend
 62
     7
370
    25
100
AcDbCircle
 10
382.4244008409
 20
302.3072880168
 30
0.0
 40
31.50000000000003
100
AcDbArc
 50
287.0520859533
 51
350.23604689
  0
ARC
  5
100
330
1F
100
AcDbEntity
  8
0
  6
SLD-Durchgehend
 62
     7
370
    25
100
AcDbCircle
 10
392.5412130321
 20
269.3239572104
 30
0.0
 40
3.000000000000042
100
AcDbArc
 50
107.0520859533
 51
287.0520859533
  0
ARC
  5
101
330
1F
100
AcDbEntity
  8
0
  6
SLD-Durchgehend
 62
     7
370
    25
100
AcDbCircle
 10
391.6766040006
 20
282.8998993029
 30
0.0
 40
3.000000000000007
100
AcDbArc
 50
115.4888239074
 51
295.4888239074
  0
ARC
  5
102
330
1F
100
AcDbEntity
  8
0
  6
SLD-Durchgehend
 62
     7
370
    25
100
AcDbCircle
 10
382.4244008409
 20
302.3072880168
 30
0.0
 40
37.50000000000004
100
AcDbArc
 50
17.0520859533
 51
80.23604689
  0
ARC
  5
103
330
1F
100
AcDbEntity
  8
0
  6
SLD-Durchgehend
 62
     7
370
    25
100
AcDbCircle
 10
382.4244008409
 20
302.3072880168
 30
0.0
 40
24.49999999999999
100
AcDbArc
 50
25.4888239074
 51
71.7993089359
  0
ARC
  5
104
330
1F
100
AcDbEntity
  8
0
  6
SLD-Durchgehend
 62
     7
370
    25
100
AcDbCircle
 10
382.4244008409
 20
302.3072880168
 30
0.0
 40
18.50000000000003
100
AcDbArc
 50
25.4888239074
 51
71.7993089359
  0
ARC
  5
105
330
1F
100
AcDbEntity
  8
0
  6
SLD-Durchgehend
 62
     7
370
    25
100
AcDbCircle
 10
388.2752389027
 20
336.3075482213
 30
0.0
 40
3.000000000000014
100
AcDbArc
 50
80.23604689
 51
260.23604689
  0
ARC
  5
106
330
1F
100
AcDbEntity
  8
0
  6
SLD-Durchgehend
 62
     7
370
    25
100
AcDbCircle
 10
382.4244008409
 20
302.3072880168
 30
0.0
 40
31.50000000000006
100
AcDbArc
 50
17.0520859533
 51
80.23604689
  0
ARC
  5
107
330
1F
100
AcDbEntity
  8
0
  6
SLD-Durchgehend
 62
     7
370
    25
100
AcDbCircle
 10
415.4077316474
 20
312.424100208
 30
0.0
 40
3.000000000000042
100
AcDbArc
 50
197.0520859533
 51
17.0520859533
  0
ARC
  5
108
330
1F
100
AcDbEntity
  8
0
  6
SLD-Durchgehend
 62
     7
370
    25
100
AcDbCircle
 10
401.8317895548
 20
311.5594911765
 30
0.0
 40
2.999999999999982
100
AcDbArc
 50
205.4888239074
 51
25.4888239074
  0
CIRCLE
  5
109
330
1F
100
AcDbEntity
  8
0
  6
SLD-Durchgehend
 62
     7
370
    25
100
AcDbCircle
 10
382.4244008409
 20
302.3072880168
 30
0.0
 40
59.50000000000004
  0
CIRCLE
  5
10A
330
1F
100
AcDbEntity
  8
0
  6
SLD-Durchgehend
 62
     7
370
    25
100
AcDbCircle
 10
382.4244008409
 20
302.3072880168
 30
0.0
 40
58.00000000000005
  0
LINE
  5
10B
330
1F
100
AcDbEntity
  8
0
  6
SLD-Phantom
 62
     7
370
    35
100
AcDbLine
 10
460.7445437565
 20
302.3072880168
 30
0.0
 11
304.1042579254
 21
302.3072880168
 31
0.0
  0
LINE
  5
10C
330
1F
100
AcDbEntity
  8
0
  6
SLD-Durchgehend
 62
     7
370
    35
100
AcDbLine
 10
456.7445437565
 20
276.9072880168
 30
0.0
 11
456.7445437565
 21
302.3072880168
 31
0.0
  0
SOLID
  5
10D
330
1F
100
AcDbEntity
  8
0
  6
SLD-Durchgehend
 62
     7
370
    35
100
AcDbTrace
 10
456.7445437565
 20
302.3072880168
 30
0.0
 11
454.7125437565
 21
289.6072880168
 31
0.0
 12
458.7765437565
 22
289.6072880168
 32
0.0
 13
458.7765437565
 23
289.6072880168
 33
0.0
  0
LINE
  5
10E
330
1F
100
AcDbEntity
  8
0
  6
SLD-Durchgehend
 62
     7
370
    35
100
AcDbLine
 10
308.1042579254
 20
276.9072880168
 30
0.0
 11
308.1042579254
 21
302.3072880168
 31
0.0
  0
SOLID
  5
10F
330
1F
100
AcDbEntity
  8
0
  6
SLD-Durchgehend
 62
     7
370
    35
100
AcDbTrace
 10
308.1042579254
 20
302.3072880168
 30
0.0
 11
306.0722579254
 21
289.6072880168
 31
0.0
 12
310.1362579254
 22
289.6072880168
 32
0.0
 13
310.1362579254
 23
289.6072880168
 33
0.0
  0
MTEXT
  5
111
330
1F
100
AcDbEntity
  8
0
  6
Continuous
 62
     7
100
AcDbMText
 10
459.5060056333
 20
288.0263079012
 30
0.0
 40
7.0
 41
0.0
 46
0.0
 71
     1
 72
     1
  1
A
  7
SLDTEXTSTYLE0
 73
     1
 44
1.0
  0
MTEXT
  5
112
330
1F
100
AcDbEntity
  8
0
  6
Continuous
 62
     7
100
AcDbMText
 10
298.4391413563
 20
288.0263079012
 30
0.0
 40
7.0
 41
0.0
 46
0.0
 71
     1
 72
     1
  1
A
  7
SLDTEXTSTYLE0
 73
     1
 44
1.0
  0
ARC
  5
113
330
1F
100
AcDbEntity
  8
0
  6
SLD-Durchgehend
 62
     7
370
    25
100
AcDbCircle
 10
329.9391331259
 20
422.9815444984
 30
0.0
 40
0.75
100
AcDbArc
 50
0.0
 51
90.0
  0
LINE
  5
114
330
1F
100
AcDbEntity
  8
0
  6
SLD-Durchgehend
 62
     7
370
    25
100
AcDbLine
 10
330.6891331259
 20
422.9815444984
 30
0.0
 11
330.6891331259
 21
421.0315444984
 31
0.0
  0
ARC
  5
115
330
1F
100
AcDbEntity
  8
0
  6
SLD-Durchgehend
 62
     7
370
    25
100
AcDbCircle
 10
343.1741406364
 20
422.9815444984
 30
0.0
 40
0.75
100
AcDbArc
 50
0.0
 51
90.0
  0
LINE
  5
116
330
1F
100
AcDbEntity
  8
0
  6
SLD-Durchgehend
 62
     7
370
    25
100
AcDbLine
 10
373.3703233245
 20
425.2565444984
 30
0.0
 11
373.3703233245
 21
425.0315444984
 31
0.0
  0
LINE
  5
117
330
1F
100
AcDbEntity
  8
0
  6
SLD-Durchgehend
 62
     7
370
    25
100
AcDbLine
 10
395.920900078
 20
425.0315444984
 30
0.0
 11
395.920900078
 21
425.2565444984
 31
0.0
  0
LINE
  5
118
330
1F
100
AcDbEntity
  8
0
  6
SLD-Durchgehend
 62
     7
370
    25
100
AcDbLine
 10
343.9241406364
 20
422.9815444984
 30
0.0
 11
343.9241406364
 21
421.0315444984
 31
0.0
  0
ARC
  5
119
330
1F
100
AcDbEntity
  8
0
  6
SLD-Durchgehend
 62
     7
370
    25
100
AcDbCircle
 10
356.750082729
 20
422.9815444984
 30
0.0
 40
0.7500000000000568
100
AcDbArc
 50
0.0
 51
90.0
  0
LINE
  5
11A
330
1F
100
AcDbEntity
  8
0
  6
SLD-Durchgehend
 62
     7
370
    25
100
AcDbLine
 10
384.6009907904
 20
425.2315444984
 30
0.0
 11
384.6009907904
 21
425.0315444984
 31
0.0
  0
LINE
  5
11B
330
1F
100
AcDbEntity
  8
0
  6
SLD-Durchgehend
 62
     7
370
    25
100
AcDbLine
 10
386.7065594116
 20
425.2315444984
 30
0.0
 11
386.7065594116
 21
425.0315444984
 31
0.0
  0
LINE
  5
11C
330
1F
100
AcDbEntity
  8
0
  6
SLD-Durchgehend
 62
     7
370
    25
100
AcDbLine
 10
423.2466975533
 20
423.7065444984
 30
0.0
 11
423.2466975533
 21
423.7315444984
 31
0.0
  0
LINE
  5
11D
330
1F
100
AcDbEntity
  8
0
  6
SLD-Durchgehend
 62
     7
370
    25
100
AcDbLine
 10
357.500082729
 20
422.9815444984
 30
0.0
 11
357.500082729
 21
421.0315444984
 31
0.0
  0
LINE
  5
11E
330
1F
100
AcDbEntity
  8
0
  6
SLD-Durchgehend
 62
     7
370
    25
100
AcDbLine
 10
422.4462072955
 20
423.7315444984
 30
0.0
 11
422.4462072955
 21
423.7065444984
 31
0.0
  0
LINE
  5
11F
330
1F
100
AcDbEntity
  8
0
  6
SLD-Durchgehend
 62
     7
370
    25
100
AcDbLine
 10
427.3373844051
 20
423.7315444984
 30
0.0
 11
427.3373844051
 21
423.7065444984
 31
0.0
  0
ARC
  5
120
330
1F
100
AcDbEntity
  8
0
  6
SLD-Durchgehend
 62
     7
370
    25
100
AcDbCircle
 10
407.0817895548
 20
422.9815444984
 30
0.0
 40
0.75
100
AcDbArc
 50
90.0
 51
180.0
  0
LINE
  5
121
330
1F
100
AcDbEntity
  8
0
  6
SLD-Durchgehend
 62
     7
370
    25
100
AcDbLine
 10
406.3317895548
 20
421.0315444984
 30
0.0
 11
406.3317895548
 21
422.9815444984
 31
0.0
  0
ARC
  5
122
330
1F
100
AcDbEntity
  8
0
  6
SLD-Durchgehend
 62
     7
370
    25
100
AcDbCircle
 10
420.6577316474
 20
422.9815444984
 30
0.0
 40
0.75
100
AcDbArc
 50
90.0
 51
180.0
  0
LINE
  5
123
330
1F
100
AcDbEntity
  8
0
  6
SLD-Durchgehend
 62
     7
370
    25
100
AcDbLine
 10
419.9077316474
 20
421.0315444984
 30
0.0
 11
419.9077316474
 21
422.9815444984
 31
0.0
  0
ARC
  5
124
330
1F
100
AcDbEntity
  8
0
  6
SLD-Durchgehend
 62
     7
370
    25
100
AcDbCircle
 10
433.8927391579
 20
422.9815444984
 30
0.0
 40
0.7500000000000568
100
AcDbArc
 50
90.0
 51
180.0
  0
LINE
  5
125
330
1F
100
AcDbEntity
  8
0
  6
SLD-Durchgehend
 62
     7
370
    25
100
AcDbLine
 10
433.1427391579
 20
421.0315444984
 30
0.0
 11
433.1427391579
 21
422.9815444984
 31
0.0
  0
ARC
  5
126
330
1F
100
AcDbEntity
  8
0
  6
SLD-Durchgehend
 62
     7
370
    25
100
AcDbCircle
 10
378.4221976812
 20
422.9815444984
 30
0.0
 40
0.75
100
AcDbArc
 50
90.0
 51
180.0
  0
LINE
  5
127
330
1F
100
AcDbEntity
  8
0
  6
SLD-Durchgehend
 62
     7
370
    25
100
AcDbLine
 10
377.6721976812
 20
421.0315444984
 30
0.0
 11
377.6721976812
 21
422.9815444984
 31
0.0
  0
ARC
  5
128
330
1F
100
AcDbEntity
  8
0
  6
SLD-Durchgehend
 62
     7
370
    25
100
AcDbCircle
 10
383.8898479342
 20
422.9815444984
 30
0.0
 40
0.75
100
AcDbArc
 50
0.0
 51
90.0
  0
LINE
  5
129
330
1F
100
AcDbEntity
  8
0
  6
SLD-Durchgehend
 62
     7
370
    25
100
AcDbLine
 10
384.6398479342
 20
422.9815444984
 30
0.0
 11
384.6398479342
 21
421.0315444984
 31
0.0
  0
ARC
  5
12A
330
1F
100
AcDbEntity
  8
0
  6
SLD-Durchgehend
 62
     7
370
    25
100
AcDbCircle
 10
383.0252389027
 20
422.9815444984
 30
0.0
 40
0.75
100
AcDbArc
 50
0.0
 51
90.0
  0
LINE
  5
12B
330
1F
100
AcDbEntity
  8
0
  6
SLD-Durchgehend
 62
     7
370
    25
100
AcDbLine
 10
383.7752389027
 20
422.9815444984
 30
0.0
 11
383.7752389027
 21
421.0315444984
 31
0.0
  0
ARC
  5
12C
330
1F
100
AcDbEntity
  8
0
  6
SLD-Durchgehend
 62
     7
370
    25
100
AcDbCircle
 10
382.1823429219
 20
422.9815444984
 30
0.0
 40
0.75
100
AcDbArc
 50
0.0
 51
90.0
  0
LINE
  5
12D
330
1F
100
AcDbEntity
  8
0
  6
SLD-Durchgehend
 62
     7
370
    25
100
AcDbLine
 10
382.9323429219
 20
422.9815444984
 30
0.0
 11
382.9323429219
 21
421.0315444984
 31
0.0
  0
ARC
  5
12E
330
1F
100
AcDbEntity
  8
0
  6
SLD-Durchgehend
 62
     7
370
    25
100
AcDbCircle
 10
327.1744008409
 20
422.9815444984
 30
0.0
 40
2.250000000000057
100
AcDbArc
 50
90.0
 51
180.0
  0
ARC
  5
12F
330
1F
100
AcDbEntity
  8
0
  6
SLD-Durchgehend
 62
     7
370
    25
100
AcDbCircle
 10
437.6744008409
 20
422.9815444984
 30
0.0
 40
2.25
100
AcDbArc
 50
0.0
 51
90.0
  0
LINE
  5
130
330
1F
100
AcDbEntity
  8
0
  6
SLD-Durchgehend
 62
     7
370
    25
100
AcDbLine
 10
371.3674229396
 20
425.2315444984
 30
0.0
 11
372.3213471531
 21
425.2315444984
 31
0.0
  0
LINE
  5
131
330
1F
100
AcDbEntity
  8
0
  6
SLD-Durchgehend
 62
     7
370
    25
100
AcDbLine
 10
372.3213471531
 20
425.0315444984
 30
0.0
 11
372.3213471531
 21
425.2315444984
 31
0.0
  0
LINE
  5
132
330
1F
100
AcDbEntity
  8
0
  6
SLD-Durchgehend
 62
     7
370
    25
100
AcDbLine
 10
373.3966467762
 20
425.0315444984
 30
0.0
 11
372.3213471531
 21
425.0315444984
 31
0.0
  0
LINE
  5
133
330
1F
100
AcDbEntity
  8
0
  6
SLD-Durchgehend
 62
     7
370
    25
100
AcDbLine
 10
373.3966467762
 20
425.0315444984
 30
0.0
 11
373.3966467762
 21
425.2315444984
 31
0.0
  0
LINE
  5
134
330
1F
100
AcDbEntity
  8
0
  6
SLD-Durchgehend
 62
     7
370
    25
100
AcDbLine
 10
373.3966467762
 20
425.2315444984
 30
0.0
 11
374.8615185964
 21
425.2315444984
 31
0.0
  0
LINE
  5
135
330
1F
100
AcDbEntity
  8
0
  6
SLD-Durchgehend
 62
     7
370
    25
100
AcDbLine
 10
374.8615185964
 20
425.2315444984
 30
0.0
 11
374.8615185964
 21
425.0315444984
 31
0.0
  0
LINE
  5
136
330
1F
100
AcDbEntity
  8
0
  6
SLD-Durchgehend
 62
     7
370
    25
100
AcDbLine
 10
375.9368182194
 20
425.0315444984
 30
0.0
 11
374.8615185964
 21
425.0315444984
 31
0.0
  0
LINE
  5
137
330
1F
100
AcDbEntity
  8
0
  6
SLD-Durchgehend
 62
     7
370
    25
100
AcDbLine
 10
375.9368182194
 20
425.2315444984
 30
0.0
 11
375.9368182194
 21
425.0315444984
 31
0.0
  0
LINE
  5
138
330
1F
100
AcDbEntity
  8
0
  6
SLD-Durchgehend
 62
     7
370
    25
100
AcDbLine
 10
375.9368182194
 20
425.2315444984
 30
0.0
 11
376.9644048746
 21
425.2315444984
 31
0.0
  0
LINE
  5
139
330
1F
100
AcDbEntity
  8
0
  6
SLD-Durchgehend
 62
     7
370
    25
100
AcDbLine
 10
376.9644048746
 20
425.0315444984
 30
0.0
 11
376.9644048746
 21
425.2315444984
 31
0.0
  0
LINE
  5
13A
330
1F
100
AcDbEntity
  8
0
  6
SLD-Durchgehend
 62
     7
370
    25
100
AcDbLine
 10
376.9644048746
 20
425.0315444984
 30
0.0
 11
378.0417971716
 21
425.0315444984
 31
0.0
  0
LINE
  5
13B
330
1F
100
AcDbEntity
  8
0
  6
SLD-Durchgehend
 62
     7
370
    25
100
AcDbLine
 10
378.0417971716
 20
425.2315444984
 30
0.0
 11
378.0417971716
 21
425.0315444984
 31
0.0
  0
LINE
  5
13C
330
1F
100
AcDbEntity
  8
0
  6
SLD-Durchgehend
 62
     7
370
    25
100
AcDbLine
 10
378.0417971716
 20
425.2315444984
 30
0.0
 11
380.2694068219
 21
425.2315444984
 31
0.0
  0
LINE
  5
13D
330
1F
100
AcDbEntity
  8
0
  6
SLD-Durchgehend
 62
     7
370
    25
100
AcDbLine
 10
380.2694068219
 20
425.0315444984
 30
0.0
 11
380.2694068219
 21
425.2315444984
 31
0.0
  0
LINE
  5
13E
330
1F
100
AcDbEntity
  8
0
  6
SLD-Durchgehend
 62
     7
370
    25
100
AcDbLine
 10
380.2694068219
 20
425.0315444984
 30
0.0
 11
381.346715412
 21
425.0315444984
 31
0.0
  0
LINE
  5
13F
330
1F
100
AcDbEntity
  8
0
  6
SLD-Durchgehend
 62
     7
370
    25
100
AcDbLine
 10
381.346715412
 20
425.2315444984
 30
0.0
 11
381.346715412
 21
425.0315444984
 31
0.0
  0
LINE
  5
140
330
1F
100
AcDbEntity
  8
0
  6
SLD-Durchgehend
 62
     7
370
    25
100
AcDbLine
 10
381.346715412
 20
425.2315444984
 30
0.0
 11
383.6138964523
 21
425.2315444984
 31
0.0
  0
LINE
  5
141
330
1F
100
AcDbEntity
  8
0
  6
SLD-Durchgehend
 62
     7
370
    25
100
AcDbLine
 10
383.6138964523
 20
425.0315444984
 30
0.0
 11
383.6138964523
 21
425.2315444984
 31
0.0
  0
LINE
  5
142
330
1F
100
AcDbEntity
  8
0
  6
SLD-Durchgehend
 62
     7
370
    25
100
AcDbLine
 10
384.6856186786
 20
425.0315444984
 30
0.0
 11
383.6138964523
 21
425.0315444984
 31
0.0
  0
LINE
  5
143
330
1F
100
AcDbEntity
  8
0
  6
SLD-Durchgehend
 62
     7
370
    25
100
AcDbLine
 10
384.6856186786
 20
425.2315444984
 30
0.0
 11
384.6856186786
 21
425.0315444984
 31
0.0
  0
LINE
  5
144
330
1F
100
AcDbEntity
  8
0
  6
SLD-Durchgehend
 62
     7
370
    25
100
AcDbLine
 10
384.6856186786
 20
425.2315444984
 30
0.0
 11
385.7096896414
 21
425.2315444984
 31
0.0
  0
LINE
  5
145
330
1F
100
AcDbEntity
  8
0
  6
SLD-Durchgehend
 62
     7
370
    25
100
AcDbLine
 10
385.7096896414
 20
425.0315444984
 30
0.0
 11
385.7096896414
 21
425.2315444984
 31
0.0
  0
LINE
  5
146
330
1F
100
AcDbEntity
  8
0
  6
SLD-Durchgehend
 62
     7
370
    25
100
AcDbLine
 10
386.7995562765
 20
425.0315444984
 30
0.0
 11
385.7096896414
 21
425.0315444984
 31
0.0
  0
LINE
  5
147
330
1F
100
AcDbEntity
  8
0
  6
SLD-Durchgehend
 62
     7
370
    25
100
AcDbLine
 10
386.7995562765
 20
425.2315444984
 30
0.0
 11
386.7995562765
 21
425.0315444984
 31
0.0
  0
LINE
  5
148
330
1F
100
AcDbEntity
  8
0
  6
SLD-Durchgehend
 62
     7
370
    25
100
AcDbLine
 10
386.7995562765
 20
425.2315444984
 30
0.0
 11
387.8237109463
 21
425.2315444984
 31
0.0
  0
LINE
  5
149
330
1F
100
AcDbEntity
  8
0
  6
SLD-Durchgehend
 62
     7
370
    25
100
AcDbLine
 10
387.8237109463
 20
425.0315444984
 30
0.0
 11
387.8237109463
 21
425.2315444984
 31
0.0
  0
LINE
  5
14A
330
1F
100
AcDbEntity
  8
0
  6
SLD-Durchgehend
 62
     7
370
    25
100
AcDbLine
 10
388.8918117706
 20
425.0315444984
 30
0.0
 11
387.8237109463
 21
425.0315444984
 31
0.0
  0
LINE
  5
14B
330
1F
100
AcDbEntity
  8
0
  6
SLD-Durchgehend
 62
     7
370
    25
100
AcDbLine
 10
388.8918117706
 20
425.2315444984
 30
0.0
 11
388.8918117706
 21
425.0315444984
 31
0.0
  0
LINE
  5
14C
330
1F
100
AcDbEntity
  8
0
  6
SLD-Durchgehend
 62
     7
370
    25
100
AcDbLine
 10
388.8918117706
 20
425.2315444984
 30
0.0
 11
389.8616386218
 21
425.2315444984
 31
0.0
  0
LINE
  5
14D
330
1F
100
AcDbEntity
  8
0
  6
SLD-Durchgehend
 62
     7
370
    25
100
AcDbLine
 10
389.8616386218
 20
425.0315444984
 30
0.0
 11
389.8616386218
 21
425.2315444984
 31
0.0
  0
LINE
  5
14E
330
1F
100
AcDbEntity
  8
0
  6
SLD-Durchgehend
 62
     7
370
    25
100
AcDbLine
 10
389.8616386218
 20
425.0315444984
 30
0.0
 11
390.9391146258
 21
425.0315444984
 31
0.0
  0
LINE
  5
14F
330
1F
100
AcDbEntity
  8
0
  6
SLD-Durchgehend
 62
     7
370
    25
100
AcDbLine
 10
390.9391146258
 20
425.2315444984
 30
0.0
 11
390.9391146258
 21
425.0315444984
 31
0.0
  0
LINE
  5
150
330
1F
100
AcDbEntity
  8
0
  6
SLD-Durchgehend
 62
     7
370
    25
100
AcDbLine
 10
390.9391146258
 20
425.2315444984
 30
0.0
 11
393.5527807809
 21
425.2315444984
 31
0.0
  0
LINE
  5
151
330
1F
100
AcDbEntity
  8
0
  6
SLD-Durchgehend
 62
     7
370
    25
100
AcDbLine
 10
393.5527807809
 20
425.0315444984
 30
0.0
 11
393.5527807809
 21
425.2315444984
 31
0.0
  0
LINE
  5
152
330
1F
100
AcDbEntity
  8
0
  6
SLD-Durchgehend
 62
     7
370
    25
100
AcDbLine
 10
396.998305368
 20
425.0315444984
 30
0.0
 11
393.5527807809
 21
425.0315444984
 31
0.0
  0
LINE
  5
153
330
1F
100
AcDbEntity
  8
0
  6
SLD-Durchgehend
 62
     7
370
    25
100
AcDbLine
 10
396.9983053683
 20
425.2315444984
 30
0.0
 11
396.998305368
 21
425.0315444984
 31
0.0
  0
LINE
  5
154
330
1F
100
AcDbEntity
  8
0
  6
SLD-Durchgehend
 62
     7
370
    25
100
AcDbLine
 10
396.9983053683
 20
425.2315444984
 30
0.0
 11
428.0839096551
 21
425.2315444984
 31
0.0
  0
SPLINE
  5
155
330
1F
100
AcDbEntity
  8
0
  6
SLD-Durchgehend
 62
     7
370
    25
100
AcDbSpline
210
0.0
220
0.0
230
1.0
 70
     8
 71
     3
 72
     9
 73
     5
 74
     0
 42
0.000000001
 43
0.00000001
 40
0.0
 40
0.0
 40
0.0
 40
0.0
 40
0.3315658800494602
 40
1.0
 40
1.0
 40
1.0
 40
1.0
 10
428.0839096550751
 20
425.2315444984166
 30
0.0
 10
428.4322111421025
 20
425.227301188858
 30
0.0
 10
429.4826855967584
 20
425.2145034017093
 30
0.0
 10
430.5332166541054
 20
425.2247172282569
 30
0.0
 10
431.2354274569038
 20
425.2315444984166
 30
0.0
  0
LINE
  5
156
330
1F
100
AcDbEntity
  8
0
  6
SLD-Durchgehend
 62
     7
370
    25
100
AcDbLine
 10
431.2354274569
 20
425.2315444984
 30
0.0
 11
437.6744008409
 21
425.2315444984
 31
0.0
  0
LINE
  5
157
330
1F
100
AcDbEntity
  8
0
  6
SLD-Durchgehend
 62
     7
370
    25
100
AcDbLine
 10
439.9244008409
 20
420.2315444984
 30
0.0
 11
439.9244008409
 21
422.9815444984
 31
0.0
  0
LINE
  5
158
330
1F
100
AcDbEntity
  8
0
  6
SLD-Durchgehend
 62
     7
370
    25
100
AcDbLine
 10
438.4244008409
 20
420.2315444984
 30
0.0
 11
439.9244008409
 21
420.2315444984
 31
0.0
  0
LINE
  5
159
330
1F
100
AcDbEntity
  8
0
  6
SLD-Durchgehend
 62
     7
370
    25
100
AcDbLine
 10
438.4244008409
 20
420.2315444984
 30
0.0
 11
438.4244008409
 21
422.9815444984
 31
0.0
  0
ARC
  5
15A
330
1F
100
AcDbEntity
  8
0
  6
SLD-Durchgehend
 62
     7
370
    25
100
AcDbCircle
 10
437.6744008409
 20
422.9815444984
 30
0.0
 40
0.7500000000000568
100
AcDbArc
 50
0.0
 51
90.0
  0
LINE
  5
15B
330
1F
100
AcDbEntity
  8
0
  6
SLD-Durchgehend
 62
     7
370
    25
100
AcDbLine
 10
431.2354274569
 20
423.7315444984
 30
0.0
 11
437.6744008409
 21
423.7315444984
 31
0.0
  0
SPLINE
  5
15C
330
1F
100
AcDbEntity
  8
0
  6
SLD-Durchgehend
 62
     7
370
    25
100
AcDbSpline
210
0.0
220
0.0
230
1.0
 70
     8
 71
     3
 72
    11
 73
     7
 74
     0
 42
0.000000001
 43
0.00000001
 40
0.0
 40
0.0
 40
0.0
 40
0.0
 40
0.1109474105142828
 40
0.5890256435082182
 40
0.9051877035789254
 40
1.0
 40
1.0
 40
1.0
 40
1.0
 10
428.0839096550751
 20
423.7315444984166
 30
0.0
 10
428.2004782579439
 20
423.7298685828196
 30
0.0
 10
428.8193471076032
 20
423.720971058683
 30
0.0
 10
429.7705391753585
 20
423.6680319346439
 30
0.0
 10
430.7039591700756
 20
423.7256495319538
 30
0.0
 10
431.1358010067811
 20
423.730439456786
 30
0.0
 10
431.2354274569038
 20
423.7315444984166
 30
0.0
  0
LINE
  5
15D
330
1F
100
AcDbEntity
  8
0
  6
SLD-Durchgehend
 62
     7
370
    25
100
AcDbLine
 10
336.7648920268
 20
423.7315444984
 30
0.0
 11
428.0839096551
 21
423.7315444984
 31
0.0
  0
SPLINE
  5
15E
330
1F
100
AcDbEntity
  8
0
  6
SLD-Durchgehend
 62
     7
370
    25
100
AcDbSpline
210
0.0
220
0.0
230
1.0
 70
     8
 71
     3
 72
    11
 73
     7
 74
     0
 42
0.000000001
 43
0.00000001
 40
0.0
 40
0.0
 40
0.0
 40
0.0
 40
0.1109474105143734
 40
0.5890256435084776
 40
0.9051877035792905
 40
1.0
 40
1.0
 40
1.0
 40
1.0
 10
333.6133742249471
 20
423.7315444984166
 30
0.0
 10
333.7299428278159
 20
423.7298685828196
 30
0.0
 10
334.3488116774751
 20
423.720971058683
 30
0.0
 10
335.3000037452301
 20
423.668031934644
 30
0.0
 10
336.2334237399465
 20
423.7256495319538
 30
0.0
 10
336.6652655766514
 20
423.730439456786
 30
0.0
 10
336.7648920267737
 20
423.7315444984166
 30
0.0
  0
LINE
  5
15F
330
1F
100
AcDbEntity
  8
0
  6
SLD-Durchgehend
 62
     7
370
    25
100
AcDbLine
 10
327.1744008409
 20
423.7315444984
 30
0.0
 11
333.6133742249
 21
423.7315444984
 31
0.0
  0
ARC
  5
160
330
1F
100
AcDbEntity
  8
0
  6
SLD-Durchgehend
 62
     7
370
    25
100
AcDbCircle
 10
327.1744008409
 20
422.9815444984
 30
0.0
 40
0.75
100
AcDbArc
 50
90.0
 51
180.0
  0
LINE
  5
161
330
1F
100
AcDbEntity
  8
0
  6
SLD-Durchgehend
 62
     7
370
    25
100
AcDbLine
 10
326.4244008409
 20
422.9815444984
 30
0.0
 11
326.4244008409
 21
420.2315444984
 31
0.0
  0
LINE
  5
162
330
1F
100
AcDbEntity
  8
0
  6
SLD-Durchgehend
 62
     7
370
    25
100
AcDbLine
 10
324.9244008409
 20
420.2315444984
 30
0.0
 11
326.4244008409
 21
420.2315444984
 31
0.0
  0
LINE
  5
163
330
1F
100
AcDbEntity
  8
0
  6
SLD-Durchgehend
 62
     7
370
    25
100
AcDbLine
 10
324.9244008409
 20
422.9815444984
 30
0.0
 11
324.9244008409
 21
420.2315444984
 31
0.0
  0
LINE
  5
164
330
1F
100
AcDbEntity
  8
0
  6
SLD-Durchgehend
 62
     7
370
    25
100
AcDbLine
 10
327.1744008409
 20
425.2315444984
 30
0.0
 11
333.6133742249
 21
425.2315444984
 31
0.0
  0
SPLINE
  5
165
330
1F
100
AcDbEntity
  8
0
  6
SLD-Durchgehend
 62
     7
370
    25
100
AcDbSpline
210
0.0
220
0.0
230
1.0
 70
     8
 71
     3
 72
    10
 73
     6
 74
     0
 42
0.000000001
 43
0.00000001
 40
0.0
 40
0.0
 40
0.0
 40
0.0
 40
0.3261022517939619
 40
0.6630255870955261
 40
0.9999999999999999
 40
0.9999999999999999
 40
0.9999999999999999
 40
0.9999999999999999
 10
333.6133742249471
 20
425.2315444984166
 30
0.0
 10
333.9559357562469
 20
425.22758153574
 30
0.0
 10
334.6524260722656
 20
425.2195241070017
 30
0.0
 10
335.7029988198267
 20
425.2189939167819
 30
0.0
 10
336.4109097392557
 20
425.2273607598187
 30
0.0
 10
336.7648920267737
 20
425.2315444984166
 30
0.0
  0
LINE
  5
166
330
1F
100
AcDbEntity
  8
0
  6
SLD-Durchgehend
 62
     7
370
    25
100
AcDbLine
 10
336.7648920268
 20
425.2315444984
 30
0.0
 11
367.8449501393
 21
425.2315444984
 31
0.0
  0
LINE
  5
167
330
1F
100
AcDbEntity
  8
0
  6
SLD-Durchgehend
 62
     7
370
    25
100
AcDbLine
 10
367.8449501393
 20
425.0315444984
 30
0.0
 11
367.8449501393
 21
425.2315444984
 31
0.0
  0
LINE
  5
168
330
1F
100
AcDbEntity
  8
0
  6
SLD-Durchgehend
 62
     7
370
    25
100
AcDbLine
 10
368.921170391
 20
425.0315444984
 30
0.0
 11
367.8449501393
 21
425.0315444984
 31
0.0
  0
LINE
  5
169
330
1F
100
AcDbEntity
  8
0
  6
SLD-Durchgehend
 62
     7
370
    25
100
AcDbLine
 10
368.921170391
 20
425.0315444984
 30
0.0
 11
368.921170391
 21
425.2315444984
 31
0.0
  0
LINE
  5
16A
330
1F
100
AcDbEntity
  8
0
  6
SLD-Durchgehend
 62
     7
370
    25
100
AcDbLine
 10
368.921170391
 20
425.2315444984
 30
0.0
 11
370.3549869286
 21
425.2315444984
 31
0.0
  0
LINE
  5
16B
330
1F
100
AcDbEntity
  8
0
  6
SLD-Durchgehend
 62
     7
370
    25
100
AcDbLine
 10
370.3549869286
 20
425.2315444984
 30
0.0
 11
370.3549869286
 21
425.0315444984
 31
0.0
  0
LINE
  5
16C
330
1F
100
AcDbEntity
  8
0
  6
SLD-Durchgehend
 62
     7
370
    25
100
AcDbLine
 10
371.3674229396
 20
425.0315444984
 30
0.0
 11
370.3549869286
 21
425.0315444984
 31
0.0
  0
LINE
  5
16D
330
1F
100
AcDbEntity
  8
0
  6
SLD-Durchgehend
 62
     7
370
    25
100
AcDbLine
 10
371.3674229396
 20
425.2315444984
 30
0.0
 11
371.3674229396
 21
425.0315444984
 31
0.0
  0
LINE
  5
16E
330
1F
100
AcDbEntity
  8
0
  6
SLD-Durchgehend
 62
     7
370
    25
100
AcDbLine
 10
438.4244008409
 20
420.2315444984
 30
0.0
 11
326.4244008409
 21
420.2315444984
 31
0.0
  0
LINE
  5
16F
330
1F
100
AcDbEntity
  8
0
  6
SLD-Durchgehend
 62
     7
370
    25
100
AcDbLine
 10
428.0839096551
 20
425.2315444984
 30
0.0
 11
431.2354274569
 21
425.2315444984
 31
0.0
  0
LINE
  5
170
330
1F
100
AcDbEntity
  8
0
  6
SLD-Durchgehend
 62
     7
370
    25
100
AcDbLine
 10
396.5826570636
 20
425.0315444984
 30
0.0
 11
396.5826570636
 21
425.2315444984
 31
0.0
  0
SPLINE
  5
171
330
1F
100
AcDbEntity
  8
0
  6
SLD-Durchgehend
 62
     7
370
    25
100
AcDbSpline
210
0.0
220
0.0
230
1.0
 70
    24
 71
     3
 72
    11
 73
     7
 74
     0
 42
0.000000001
 43
0.00000001
 40
0.0
 40
0.0
 40
0.0
 40
0.0
 40
0.3622095502170687
 40
0.6569985629998456
 40
0.849066569385156
 40
1.0
 40
1.0
 40
1.0
 40
1.0
 10
396.9983053682765
 20
425.2315444984166
 30
0.0
 10
396.976218007596
 20
425.2315444984166
 30
0.0
 10
396.9361545575328
 20
425.2315444984166
 30
0.0
 10
396.8078187064945
 20
425.2315444984166
 30
0.0
 10
396.6886053067991
 20
425.2315444984166
 30
0.0
 10
396.6150320443227
 20
425.2315444984166
 30
0.0
 10
396.5826570636107
 20
425.2315444984166
 30
0.0
  0
LINE
  5
172
330
1F
100
AcDbEntity
  8
0
  6
SLD-Durchgehend
 62
     7
370
    25
100
AcDbLine
 10
373.3712652424
 20
425.2315444984
 30
0.0
 11
373.3966467762
 21
425.2315444984
 31
0.0
  0
LINE
  5
173
330
1F
100
AcDbEntity
  8
0
  6
SLD-Durchgehend
 62
     7
370
    25
100
AcDbLine
 10
371.3674229396
 20
425.2315444984
 30
0.0
 11
371.3484122276
 21
425.2315444984
 31
0.0
  0
LINE
  5
174
330
1F
100
AcDbEntity
  8
0
  6
SLD-Durchgehend
 62
     7
370
    25
100
AcDbLine
 10
375.9368182194
 20
425.2315444984
 30
0.0
 11
375.8992851506
 21
425.2315444984
 31
0.0
  0
LINE
  5
175
330
1F
100
AcDbEntity
  8
0
  6
SLD-Durchgehend
 62
     7
370
    25
100
AcDbLine
 10
377.9007207596
 20
425.0315444984
 30
0.0
 11
377.9007207596
 21
425.2315444984
 31
0.0
  0
LINE
  5
176
330
1F
100
AcDbEntity
  8
0
  6
SLD-Durchgehend
 62
     7
370
    25
100
AcDbLine
 10
378.0417971716
 20
425.2315444984
 30
0.0
 11
377.9007207596
 21
425.2315444984
 31
0.0
  0
LINE
  5
177
330
1F
100
AcDbEntity
  8
0
  6
SLD-Durchgehend
 62
     7
370
    25
100
AcDbLine
 10
368.8843366971
 20
425.0315444984
 30
0.0
 11
368.8843366971
 21
425.2315444984
 31
0.0
  0
LINE
  5
178
330
1F
100
AcDbEntity
  8
0
  6
SLD-Durchgehend
 62
     7
370
    25
100
AcDbLine
 10
368.8843366971
 20
425.2315444984
 30
0.0
 11
368.921170391
 21
425.2315444984
 31
0.0
  0
LINE
  5
179
330
1F
100
AcDbEntity
  8
0
  6
SLD-Durchgehend
 62
     7
370
    25
100
AcDbLine
 10
386.7995562765
 20
425.2315444984
 30
0.0
 11
386.7104218848
 21
425.2315444984
 31
0.0
  0
LINE
  5
17A
330
1F
100
AcDbEntity
  8
0
  6
SLD-Durchgehend
 62
     7
370
    25
100
AcDbLine
 10
381.1922883516
 20
425.0315444984
 30
0.0
 11
381.1922883516
 21
425.2315444984
 31
0.0
  0
LINE
  5
17B
330
1F
100
AcDbEntity
  8
0
  6
SLD-Durchgehend
 62
     7
370
    25
100
AcDbLine
 10
381.346715412
 20
425.2315444984
 30
0.0
 11
381.1922883516
 21
425.2315444984
 31
0.0
  0
LINE
  5
17C
330
1F
100
AcDbEntity
  8
0
  6
SLD-Durchgehend
 62
     7
370
    25
100
AcDbLine
 10
388.8918117706
 20
425.2315444984
 30
0.0
 11
388.802189552
 21
425.2315444984
 31
0.0
  0
LINE
  5
17D
330
1F
100
AcDbEntity
  8
0
  6
SLD-Durchgehend
 62
     7
370
    25
100
AcDbLine
 10
390.938916815
 20
425.0315444984
 30
0.0
 11
390.938916815
 21
425.2315444984
 31
0.0
  0
LINE
  5
17E
330
1F
100
AcDbEntity
  8
0
  6
SLD-Durchgehend
 62
     7
370
    25
100
AcDbLine
 10
390.9391146258
 20
425.2315444984
 30
0.0
 11
390.938916815
 21
425.2315444984
 31
0.0
  0
LINE
  5
17F
330
1F
100
AcDbEntity
  8
0
  6
SLD-Durchgehend
 62
     7
370
    25
100
AcDbLine
 10
384.6856186786
 20
425.2315444984
 30
0.0
 11
384.6049174775
 21
425.2315444984
 31
0.0
  0
SPLINE
  5
180
330
1F
100
AcDbEntity
  8
0
  6
SLD-Durchgehend
 62
     7
370
    25
100
AcDbSpline
210
0.0
220
0.0
230
1.0
 70
    24
 71
     3
 72
    11
 73
     7
 74
     0
 42
0.000000001
 43
0.00000001
 40
0.0
 40
0.0
 40
0.0
 40
0.0
 40
0.1334316292338012
 40
0.4249048192050316
 40
0.6857136588824743
 40
1.0
 40
1.0
 40
1.0
 40
1.0
 10
371.2983326913158
 20
425.2315444984166
 30
0.0
 10
371.2901204359663
 20
425.2315444984166
 30
0.0
 10
371.2639690137393
 20
425.2315444984166
 30
0.0
 10
371.1230302627825
 20
425.2315444984166
 30
0.0
 10
370.8304578590576
 20
425.2315444984166
 30
0.0
 10
370.55539616307
 20
425.2315444984166
 30
0.0
 10
370.4050764648697
 20
425.2315444984166
 30
0.0
  0
LINE
  5
181
330
1F
100
AcDbEntity
  8
0
  6
SLD-Durchgehend
 62
     7
370
    25
100
AcDbLine
 10
339.6640532252
 20
421.0315444984
 30
0.0
 11
330.6891331259
 21
421.0315444984
 31
0.0
  0
SPLINE
  5
182
330
1F
100
AcDbEntity
  8
0
  6
SLD-Durchgehend
 62
     7
370
    25
100
AcDbSpline
210
0.0
220
0.0
230
1.0
 70
    24
 71
     3
 72
    12
 73
     8
 74
     0
 42
0.000000001
 43
0.00000001
 40
0.0
 40
0.0
 40
0.0
 40
0.0
 40
0.0947969892938618
 40
0.3201626070967468
 40
0.5253917428993429
 40
0.7798375877562989
 40
1.0
 40
1.0
 40
1.0
 40
1.0
 10
373.3703233245085
 20
425.2315444984166
 30
0.0
 10
373.3104828956381
 20
425.2315444984166
 30
0.0
 10
373.108380826156
 20
425.2315444984166
 30
0.0
 10
372.7978027180851
 20
425.2315444984166
 30
0.0
 10
372.4780571530175
 20
425.2315444984166
 30
0.0
 10
372.3072346995533
 20
425.2315444984166
 30
0.0
 10
372.3070707002133
 20
425.2315444984166
 30
0.0
 10
372.3069946238077
 20
425.2315444984166
 30
0.0
  0
SPLINE
  5
183
330
1F
100
AcDbEntity
  8
0
  6
SLD-Durchgehend
 62
     7
370
    25
100
AcDbSpline
210
0.0
220
0.0
230
1.0
 70
    24
 71
     3
 72
    11
 73
     7
 74
     0
 42
0.000000001
 43
0.00000001
 40
0.0
 40
0.0
 40
0.0
 40
0.0
 40
0.139626050351357
 40
0.4247188508911337
 40
0.6852054297717024
 40
1.0
 40
1.0
 40
1.0
 40
1.0
 10
375.8492056143403
 20
425.2315444984166
 30
0.0
 10
375.8398846073657
 20
425.2315444984166
 30
0.0
 10
375.8115316792307
 20
425.2315444984166
 30
0.0
 10
375.6579452325037
 20
425.2315444984166
 30
0.0
 10
375.3500264503488
 20
425.2315444984166
 30
0.0
 10
375.0666642732767
 20
425.2315444984166
 30
0.0
 10
374.9116081326601
 20
425.2315444984166
 30
0.0
  0
LINE
  5
184
330
1F
100
AcDbEntity
  8
0
  6
SLD-Durchgehend
 62
     7
370
    25
100
AcDbLine
 10
394.5731529704
 20
425.0315444984
 30
0.0
 11
394.5731529704
 21
425.2315444984
 31
0.0
  0
LINE
  5
185
330
1F
100
AcDbEntity
  8
0
  6
SLD-Durchgehend
 62
     7
370
    25
100
AcDbLine
 10
394.4880311057
 20
425.0315444984
 30
0.0
 11
394.4880311057
 21
425.2315444984
 31
0.0
  0
LINE
  5
186
330
1F
100
AcDbEntity
  8
0
  6
SLD-Durchgehend
 62
     7
370
    25
100
AcDbLine
 10
394.4880311057
 20
425.2315444984
 30
0.0
 11
394.5731529704
 21
425.2315444984
 31
0.0
  0
LINE
  5
187
330
1F
100
AcDbEntity
  8
0
  6
SLD-Durchgehend
 62
     7
370
    25
100
AcDbLine
 10
395.4653660389
 20
425.0315444984
 30
0.0
 11
395.4653660389
 21
425.2315444984
 31
0.0
  0
LINE
  5
188
330
1F
100
AcDbEntity
  8
0
  6
SLD-Durchgehend
 62
     7
370
    25
100
AcDbLine
 10
394.5731529704
 20
425.2315444984
 30
0.0
 11
395.4653660389
 21
425.2315444984
 31
0.0
  0
SPLINE
  5
189
330
1F
100
AcDbEntity
  8
0
  6
SLD-Durchgehend
 62
     7
370
    25
100
AcDbSpline
210
0.0
220
0.0
230
1.0
 70
    24
 71
     3
 72
    11
 73
     7
 74
     0
 42
0.000000001
 43
0.00000001
 40
0.0
 40
0.0
 40
0.0
 40
0.0
 40
0.288252637899806
 40
0.5667226730079996
 40
0.7824309356463801
 40
1.0
 40
1.0
 40
1.0
 40
1.0
 10
395.4653660388711
 20
425.2315444984166
 30
0.0
 10
395.536701193449
 20
425.2315444984166
 30
0.0
 10
395.6769505586462
 20
425.2315444984166
 30
0.0
 10
395.8251977226224
 20
425.2315444984166
 30
0.0
 10
395.9124200517202
 20
425.2315444984166
 30
0.0
 10
395.9174692871255
 20
425.2315444984166
 30
0.0
 10
395.9200047473363
 20
425.2315444984166
 30
0.0
  0
SPLINE
  5
18A
330
1F
100
AcDbEntity
  8
0
  6
SLD-Durchgehend
 62
     7
370
    25
100
AcDbSpline
210
0.0
220
0.0
230
1.0
 70
    24
 71
     3
 72
    12
 73
     8
 74
     0
 42
0.000000001
 43
0.00000001
 40
0.0
 40
0.0
 40
0.0
 40
0.0
 40
0.0745821483931956
 40
0.3557286017374216
 40
0.5888399720955894
 40
0.8045305841608461
 40
0.9999999999999999
 40
0.9999999999999999
 40
0.9999999999999999
 40
0.9999999999999999
 10
384.5449991344996
 20
425.2315444984166
 30
0.0
 10
384.5154468017098
 20
425.2315444984166
 30
0.0
 10
384.3744933664989
 20
425.2315444984166
 30
0.0
 10
384.1441121229788
 20
425.2315444984166
 30
0.0
 10
383.8769460919294
 20
425.2315444984166
 30
0.0
 10
383.6886573746812
 20
425.2315444984166
 30
0.0
 10
383.6367356438215
 20
425.2315444984166
 30
0.0
 10
383.6120515556035
 20
425.2315444984166
 30
0.0
  0
LINE
  5
18B
330
1F
100
AcDbEntity
  8
0
  6
SLD-Durchgehend
 62
     7
370
    25
100
AcDbLine
 10
352.8589571848
 20
421.0315444984
 30
0.0
 11
343.9241406364
 21
421.0315444984
 31
0.0
  0
LINE
  5
18C
330
1F
100
AcDbEntity
  8
0
  6
SLD-Durchgehend
 62
     7
370
    25
100
AcDbLine
 10
390.8706260575
 20
425.0315444984
 30
0.0
 11
390.8706260575
 21
425.2315444984
 31
0.0
  0
LINE
  5
18D
330
1F
100
AcDbEntity
  8
0
  6
SLD-Durchgehend
 62
     7
370
    25
100
AcDbLine
 10
390.8142285746
 20
425.0315444984
 30
0.0
 11
390.8142285746
 21
425.2315444984
 31
0.0
  0
LINE
  5
18E
330
1F
100
AcDbEntity
  8
0
  6
SLD-Durchgehend
 62
     7
370
    25
100
AcDbLine
 10
390.8706260575
 20
425.2315444984
 30
0.0
 11
390.8142285746
 21
425.2315444984
 31
0.0
  0
LINE
  5
18F
330
1F
100
AcDbEntity
  8
0
  6
SLD-Durchgehend
 62
     7
370
    25
100
AcDbLine
 10
390.938916815
 20
425.2315444984
 30
0.0
 11
390.8706260575
 21
425.2315444984
 31
0.0
  0
SPLINE
  5
190
330
1F
100
AcDbEntity
  8
0
  6
SLD-Durchgehend
 62
     7
370
    25
100
AcDbSpline
210
0.0
220
0.0
230
1.0
 70
    24
 71
     3
 72
    13
 73
     9
 74
     0
 42
0.000000001
 43
0.00000001
 40
0.0
 40
0.0
 40
0.0
 40
0.0
 40
0.2553528791912398
 40
0.4537112733425512
 40
0.6101415295443888
 40
0.747152068789905
 40
0.8990283771805654
 40
1.0
 40
1.0
 40
1.0
 40
1.0
 10
388.8021895520056
 20
425.2315444984166
 30
0.0
 10
388.7892826351969
 20
425.2315444984166
 30
0.0
 10
388.76634961138
 20
425.2315444984166
 30
0.0
 10
388.6811475879413
 20
425.2315444984166
 30
0.0
 10
388.5446606849093
 20
425.2315444984166
 30
0.0
 10
388.3319302680217
 20
425.2315444984166
 30
0.0
 10
388.0961263686512
 20
425.2315444984166
 30
0.0
 10
387.9372469632694
 20
425.2315444984166
 30
0.0
 10
387.873800482544
 20
425.2315444984166
 30
0.0
  0
LINE
  5
191
330
1F
100
AcDbEntity
  8
0
  6
SLD-Durchgehend
 62
     7
370
    25
100
AcDbLine
 10
368.8843366971
 20
425.2315444984
 30
0.0
 11
367.8449501393
 21
425.2315444984
 31
0.0
  0
SPLINE
  5
192
330
1F
100
AcDbEntity
  8
0
  6
SLD-Durchgehend
 62
     7
370
    25
100
AcDbSpline
210
0.0
220
0.0
230
1.0
 70
    24
 71
     3
 72
    10
 73
     6
 74
     0
 42
0.000000001
 43
0.00000001
 40
0.0
 40
0.0
 40
0.0
 40
0.0
 40
0.0238875742427631
 40
0.4167391952681896
 40
1.0
 40
1.0
 40
1.0
 40
1.0
 10
396.5826570636107
 20
425.2315444984166
 30
0.0
 10
396.5800469407566
 20
425.2315444984166
 30
0.0
 10
396.53451111168
 20
425.2315444984166
 30
0.0
 10
396.3490156013
 20
425.2315444984166
 30
0.0
 10
396.1431535112782
 20
425.2315444984166
 30
0.0
 10
396.0201438198516
 20
425.2315444984166
 30
0.0
  0
LINE
  5
193
330
1F
100
AcDbEntity
  8
0
  6
SLD-Durchgehend
 62
     7
370
    25
100
AcDbLine
 10
357.500082729
 20
421.0315444984
 30
0.0
 11
366.2749400082
 21
421.0315444984
 31
0.0
  0
LINE
  5
194
330
1F
100
AcDbEntity
  8
0
  6
SLD-Durchgehend
 62
     7
370
    25
100
AcDbLine
 10
377.9007207596
 20
425.2315444984
 30
0.0
 11
376.9644048746
 21
425.2315444984
 31
0.0
  0
LINE
  5
195
330
1F
100
AcDbEntity
  8
0
  6
SLD-Durchgehend
 62
     7
370
    25
100
AcDbLine
 10
386.0964568959
 20
425.0315444984
 30
0.0
 11
386.0964568959
 21
425.2315444984
 31
0.0
  0
SPLINE
  5
196
330
1F
100
AcDbEntity
  8
0
  6
SLD-Durchgehend
 62
     7
370
    25
100
AcDbSpline
210
0.0
220
0.0
230
1.0
 70
    24
 71
     3
 72
    10
 73
     6
 74
     0
 42
0.000000001
 43
0.00000001
 40
0.0
 40
0.0
 40
0.0
 40
0.0
 40
0.3746069392991395
 40
0.8699037131500191
 40
1.0
 40
1.0
 40
1.0
 40
1.0
 10
386.0964568958516
 20
425.2315444984166
 30
0.0
 10
386.0621449977379
 20
425.2315444984166
 30
0.0
 10
385.9824666884406
 20
425.2315444984166
 30
0.0
 10
385.864521698091
 20
425.2315444984166
 30
0.0
 10
385.7778159812746
 20
425.2315444984166
 30
0.0
 10
385.7597791776781
 20
425.2315444984166
 30
0.0
  0
SPLINE
  5
197
330
1F
100
AcDbEntity
  8
0
  6
SLD-Durchgehend
 62
     7
370
    25
100
AcDbSpline
210
0.0
220
0.0
230
1.0
 70
    24
 71
     3
 72
    12
 73
     8
 74
     0
 42
0.000000001
 43
0.00000001
 40
0.0
 40
0.0
 40
0.0
 40
0.0
 40
0.1298523581295837
 40
0.3859443590014059
 40
0.6072128926470668
 40
0.8283467045803588
 40
1.0
 40
1.0
 40
1.0
 40
1.0
 10
386.6505111491422
 20
425.2315444984166
 30
0.0
 10
386.6197915680945
 20
425.2315444984166
 30
0.0
 10
386.5284874964006
 20
425.2315444984166
 30
0.0
 10
386.3950852072394
 20
425.2315444984166
 30
0.0
 10
386.2601813372982
 20
425.2315444984166
 30
0.0
 10
386.1615844713214
 20
425.2315444984166
 30
0.0
 10
386.116262995658
 20
425.2315444984166
 30
0.0
 10
386.0964568958516
 20
425.2315444984166
 30
0.0
  0
LINE
  5
198
330
1F
100
AcDbEntity
  8
0
  6
SLD-Durchgehend
 62
     7
370
    25
100
AcDbLine
 10
381.1922883516
 20
425.2315444984
 30
0.0
 11
380.2694068219
 21
425.2315444984
 31
0.0
  0
LINE
  5
199
330
1F
100
AcDbEntity
  8
0
  6
SLD-Durchgehend
 62
     7
370
    25
100
AcDbLine
 10
390.8142285746
 20
425.2315444984
 30
0.0
 11
389.8616386218
 21
425.2315444984
 31
0.0
  0
LINE
  5
19A
330
1F
100
AcDbEntity
  8
0
  6
SLD-Durchgehend
 62
     7
370
    25
100
AcDbLine
 10
394.4880311057
 20
425.2315444984
 30
0.0
 11
393.5527807809
 21
425.2315444984
 31
0.0
  0
LINE
  5
19B
330
1F
100
AcDbEntity
  8
0
  6
SLD-Durchgehend
 62
     7
370
    25
100
AcDbLine
 10
397.7697779635
 20
421.0315444984
 30
0.0
 11
406.3317895548
 21
421.0315444984
 31
0.0
  0
LINE
  5
19C
330
1F
100
AcDbEntity
  8
0
  6
SLD-Durchgehend
 62
     7
370
    25
100
AcDbLine
 10
343.9241406364
 20
421.0315444984
 30
0.0
 11
339.6640532252
 21
421.0315444984
 31
0.0
  0
LINE
  5
19D
330
1F
100
AcDbEntity
  8
0
  6
SLD-Durchgehend
 62
     7
370
    25
100
AcDbLine
 10
357.500082729
 20
421.0315444984
 30
0.0
 11
352.8589571848
 21
421.0315444984
 31
0.0
  0
LINE
  5
19E
330
1F
100
AcDbEntity
  8
0
  6
SLD-Durchgehend
 62
     7
370
    25
100
AcDbLine
 10
366.2749400082
 20
421.0315444984
 30
0.0
 11
375.1087053193
 21
421.0315444984
 31
0.0
  0
LINE
  5
19F
330
1F
100
AcDbEntity
  8
0
  6
SLD-Durchgehend
 62
     7
370
    25
100
AcDbLine
 10
419.9077316474
 20
421.0315444984
 30
0.0
 11
411.1055580639
 21
421.0315444984
 31
0.0
  0
LINE
  5
1A0
330
1F
100
AcDbEntity
  8
0
  6
SLD-Durchgehend
 62
     7
370
    25
100
AcDbLine
 10
433.1427391579
 20
421.0315444984
 30
0.0
 11
424.2641597384
 21
421.0315444984
 31
0.0
  0
LINE
  5
1A1
330
1F
100
AcDbEntity
  8
0
  6
SLD-Durchgehend
 62
     7
370
    25
100
AcDbLine
 10
387.7342892402
 20
421.0315444984
 30
0.0
 11
397.7697779635
 21
421.0315444984
 31
0.0
  0
LINE
  5
1A2
330
1F
100
AcDbEntity
  8
0
  6
SLD-Durchgehend
 62
     7
370
    25
100
AcDbLine
 10
411.1055580639
 20
421.0315444984
 30
0.0
 11
406.3317895548
 21
421.0315444984
 31
0.0
  0
LINE
  5
1A3
330
1F
100
AcDbEntity
  8
0
  6
SLD-Durchgehend
 62
     7
370
    25
100
AcDbLine
 10
424.2641597384
 20
421.0315444984
 30
0.0
 11
419.9077316474
 21
421.0315444984
 31
0.0
  0
LINE
  5
1A4
330
1F
100
AcDbEntity
  8
0
  6
SLD-Durchgehend
 62
     7
370
    25
100
AcDbLine
 10
375.1087053193
 20
421.0315444984
 30
0.0
 11
377.6721976812
 21
421.0315444984
 31
0.0
  0
LINE
  5
1A5
330
1F
100
AcDbEntity
  8
0
  6
SLD-Durchgehend
 62
     7
370
    25
100
AcDbLine
 10
384.6398479342
 20
421.0315444984
 30
0.0
 11
387.7342892402
 21
421.0315444984
 31
0.0
  0
LINE
  5
1A6
330
1F
100
AcDbEntity
  8
0
  6
SLD-Durchgehend
 62
     7
370
    25
100
AcDbLine
 10
384.6398479342
 20
421.0315444984
 30
0.0
 11
383.7752389027
 21
421.0315444984
 31
0.0
  0
LINE
  5
1A7
330
1F
100
AcDbEntity
  8
0
  6
SLD-Durchgehend
 62
     7
370
    25
100
AcDbLine
 10
383.7752389027
 20
421.0315444984
 30
0.0
 11
382.9323429219
 21
421.0315444984
 31
0.0
  0
LINE
  5
1A8
330
1F
100
AcDbEntity
  8
0
  6
SLD-Durchgehend
 62
     7
370
    25
100
AcDbLine
 10
322.9244008409
 20
418.7315444984
 30
0.0
 11
322.9244008409
 21
425.7315444984
 31
0.0
  0
LINE
  5
1A9
330
1F
100
AcDbEntity
  8
0
  6
SLD-Durchgehend
 62
     7
370
    25
100
AcDbLine
 10
441.9244008409
 20
425.7315444984
 30
0.0
 11
441.9244008409
 21
418.7315444984
 31
0.0
  0
ARC
  5
1AA
330
1F
100
AcDbEntity
  8
0
  6
SLD-Durchgehend
 62
     7
370
    25
100
AcDbCircle
 10
441.4244008409
 20
418.7315444984
 30
0.0
 40
0.5
100
AcDbArc
 50
270.0
 51
0.0
  0
ARC
  5
1AB
330
1F
100
AcDbEntity
  8
0
  6
SLD-Durchgehend
 62
     7
370
    25
100
AcDbCircle
 10
323.4244008409
 20
418.7315444984
 30
0.0
 40
0.5
100
AcDbArc
 50
180.0
 51
270.0
  0
LINE
  5
1AC
330
1F
100
AcDbEntity
  8
0
  6
SLD-Durchgehend
 62
     7
370
    25
100
AcDbLine
 10
324.4244008409
 20
425.7315444984
 30
0.0
 11
324.4244008409
 21
420.2315444984
 31
0.0
  0
LINE
  5
1AD
330
1F
100
AcDbEntity
  8
0
  6
SLD-Durchgehend
 62
     7
370
    25
100
AcDbLine
 10
440.4244008409
 20
420.2315444984
 30
0.0
 11
440.4244008409
 21
425.7315444984
 31
0.0
  0
LINE
  5
1AE
330
1F
100
AcDbEntity
  8
0
  6
SLD-Durchgehend
 62
     7
370
    25
100
AcDbLine
 10
440.4244008409
 20
425.7315444984
 30
0.0
 11
324.4244008409
 21
425.7315444984
 31
0.0
  0
ARC
  5
1AF
330
1F
100
AcDbEntity
  8
0
  6
SLD-Durchgehend
 62
     7
370
    25
100
AcDbCircle
 10
440.1744008409
 20
417.9815444984
 30
0.0
 40
0.2500000000000568
100
AcDbArc
 50
90.0
 51
180.0
  0
ARC
  5
1B0
330
1F
100
AcDbEntity
  8
0
  6
SLD-Durchgehend
 62
     7
370
    25
100
AcDbCircle
 10
324.6744008409
 20
417.9815444984
 30
0.0
 40
0.25
100
AcDbArc
 50
0.0
 51
90.0
  0
ARC
  5
1B1
330
1F
100
AcDbEntity
  8
0
  6
SLD-Durchgehend
 62
     7
370
    25
100
AcDbCircle
 10
439.6744008409
 20
406.7743625545
 30
0.0
 40
0.2500000000000386
100
AcDbArc
 50
274.9999999999
 51
0.0
  0
ARC
  5
1B2
330
1F
100
AcDbEntity
  8
0
  6
SLD-Durchgehend
 62
     7
370
    25
100
AcDbCircle
 10
325.1744008409
 20
406.7743625545
 30
0.0
 40
0.2500000000000568
100
AcDbArc
 50
180.0
 51
265.0000000001
  0
LINE
  5
1B3
330
1F
100
AcDbEntity
  8
0
  6
SLD-Durchgehend
 62
     7
370
    25
100
AcDbLine
 10
324.9244008409
 20
406.7743625545
 30
0.0
 11
324.9244008409
 21
407.2887264423
 31
0.0
  0
LINE
  5
1B4
330
1F
100
AcDbEntity
  8
0
  6
SLD-Durchgehend
 62
     7
370
    25
100
AcDbLine
 10
439.9244008409
 20
407.2887264423
 30
0.0
 11
439.9244008409
 21
406.7743625545
 31
0.0
  0
ARC
  5
1B5
330
1F
100
AcDbEntity
  8
0
  6
SLD-Durchgehend
 62
     7
370
    25
100
AcDbCircle
 10
439.6744008409
 20
400.8887264423
 30
0.0
 40
0.2500000000000018
100
AcDbArc
 50
0.0
 51
85.0
  0
ARC
  5
1B6
330
1F
100
AcDbEntity
  8
0
  6
SLD-Durchgehend
 62
     7
370
    25
100
AcDbCircle
 10
325.1744008409
 20
400.8887264423
 30
0.0
 40
0.2500000000000018
100
AcDbArc
 50
95.0
 51
180.0
  0
ARC
  5
1B7
330
1F
100
AcDbEntity
  8
0
  6
SLD-Durchgehend
 62
     7
370
    25
100
AcDbCircle
 10
439.6744008409
 20
403.5743625545
 30
0.0
 40
0.25
100
AcDbArc
 50
274.9999999999
 51
0.0
  0
ARC
  5
1B8
330
1F
100
AcDbEntity
  8
0
  6
SLD-Durchgehend
 62
     7
370
    25
100
AcDbCircle
 10
325.1744008409
 20
403.5743625545
 30
0.0
 40
0.25
100
AcDbArc
 50
180.0
 51
265.0000000001
  0
ARC
  5
1B9
330
1F
100
AcDbEntity
  8
0
  6
SLD-Durchgehend
 62
     7
370
    25
100
AcDbCircle
 10
439.6744008409
 20
394.4887264423
 30
0.0
 40
0.2500000000000386
100
AcDbArc
 50
0.0
 51
85.0000000001
  0
ARC
  5
1BA
330
1F
100
AcDbEntity
  8
0
  6
SLD-Durchgehend
 62
     7
370
    25
100
AcDbCircle
 10
325.1744008409
 20
394.4887264423
 30
0.0
 40
0.2500000000000386
100
AcDbArc
 50
94.9999999999
 51
180.0
  0
ARC
  5
1BB
330
1F
100
AcDbEntity
  8
0
  6
SLD-Durchgehend
 62
     7
370
    25
100
AcDbCircle
 10
439.6744008409
 20
391.2887264423
 30
0.0
 40
0.2500000000000336
100
AcDbArc
 50
0.0
 51
85.0000000001
  0
ARC
  5
1BC
330
1F
100
AcDbEntity
  8
0
  6
SLD-Durchgehend
 62
     7
370
    25
100
AcDbCircle
 10
325.1744008409
 20
391.2887264423
 30
0.0
 40
0.2500000000000287
100
AcDbArc
 50
94.9999999999
 51
180.0
  0
ARC
  5
1BD
330
1F
100
AcDbEntity
  8
0
  6
SLD-Durchgehend
 62
     7
370
    25
100
AcDbCircle
 10
439.6744008409
 20
397.6887264423
 30
0.0
 40
0.25
100
AcDbArc
 50
0.0
 51
85.0000000001
  0
ARC
  5
1BE
330
1F
100
AcDbEntity
  8
0
  6
SLD-Durchgehend
 62
     7
370
    25
100
AcDbCircle
 10
325.1744008409
 20
397.6887264423
 30
0.0
 40
0.25
100
AcDbArc
 50
94.9999999999
 51
180.0
  0
ARC
  5
1BF
330
1F
100
AcDbEntity
  8
0
  6
SLD-Durchgehend
 62
     7
370
    25
100
AcDbCircle
 10
439.6744008409
 20
409.9743625545
 30
0.0
 40
0.2500000000000238
100
AcDbArc
 50
274.9999999999
 51
0.0
  0
ARC
  5
1C0
330
1F
100
AcDbEntity
  8
0
  6
SLD-Durchgehend
 62
     7
370
    25
100
AcDbCircle
 10
325.1744008409
 20
409.9743625545
 30
0.0
 40
0.2500000000000568
100
AcDbArc
 50
180.0
 51
265.0000000001
  0
ARC
  5
1C1
330
1F
100
AcDbEntity
  8
0
  6
SLD-Durchgehend
 62
     7
370
    25
100
AcDbCircle
 10
439.6744008409
 20
413.1743625545
 30
0.0
 40
0.2500000000000188
100
AcDbArc
 50
274.9999999999
 51
0.0
  0
ARC
  5
1C2
330
1F
100
AcDbEntity
  8
0
  6
SLD-Durchgehend
 62
     7
370
    25
100
AcDbCircle
 10
325.1744008409
 20
413.1743625545
 30
0.0
 40
0.2500000000000568
100
AcDbArc
 50
180.0
 51
265.0000000001
  0
ARC
  5
1C3
330
1F
100
AcDbEntity
  8
0
  6
SLD-Durchgehend
 62
     7
370
    25
100
AcDbCircle
 10
439.6744008409
 20
416.3743625545
 30
0.0
 40
0.2500000000000068
100
AcDbArc
 50
275.0
 51
0.0
  0
ARC
  5
1C4
330
1F
100
AcDbEntity
  8
0
  6
SLD-Durchgehend
 62
     7
370
    25
100
AcDbCircle
 10
325.1744008409
 20
416.3743625545
 30
0.0
 40
0.2500000000000568
100
AcDbArc
 50
180.0
 51
265.0
  0
ARC
  5
1C5
330
1F
100
AcDbEntity
  8
0
  6
SLD-Durchgehend
 62
     7
370
    25
100
AcDbCircle
 10
439.6744008409
 20
388.0887264423
 30
0.0
 40
0.25
100
AcDbArc
 50
0.0
 51
85.0
  0
ARC
  5
1C6
330
1F
100
AcDbEntity
  8
0
  6
SLD-Durchgehend
 62
     7
370
    25
100
AcDbCircle
 10
325.1744008409
 20
388.0887264423
 30
0.0
 40
0.25
100
AcDbArc
 50
95.0
 51
180.0
  0
ARC
  5
1C7
330
1F
100
AcDbEntity
  8
0
  6
SLD-Durchgehend
 62
     7
370
    25
100
AcDbCircle
 10
439.6744008409
 20
397.1743625545
 30
0.0
 40
0.250000000000011
100
AcDbArc
 50
274.9999999997
 51
0.0
  0
ARC
  5
1C8
330
1F
100
AcDbEntity
  8
0
  6
SLD-Durchgehend
 62
     7
370
    25
100
AcDbCircle
 10
325.1744008409
 20
397.1743625545
 30
0.0
 40
0.250000000000011
100
AcDbArc
 50
180.0
 51
265.0000000003
  0
ARC
  5
1C9
330
1F
100
AcDbEntity
  8
0
  6
SLD-Durchgehend
 62
     7
370
    25
100
AcDbCircle
 10
439.6744008409
 20
404.0887264423
 30
0.0
 40
0.2500000000000068
100
AcDbArc
 50
0.0
 51
85.0
  0
ARC
  5
1CA
330
1F
100
AcDbEntity
  8
0
  6
SLD-Durchgehend
 62
     7
370
    25
100
AcDbCircle
 10
325.1744008409
 20
404.0887264423
 30
0.0
 40
0.2500000000000683
100
AcDbArc
 50
95.0
 51
180.0
  0
ARC
  5
1CB
330
1F
100
AcDbEntity
  8
0
  6
SLD-Durchgehend
 62
     7
370
    25
100
AcDbCircle
 10
439.6744008409
 20
413.6887264423
 30
0.0
 40
0.2499999999999523
100
AcDbArc
 50
0.0
 51
85.0000000002
  0
ARC
  5
1CC
330
1F
100
AcDbEntity
  8
0
  6
SLD-Durchgehend
 62
     7
370
    25
100
AcDbCircle
 10
325.1744008409
 20
413.6887264423
 30
0.0
 40
0.2500000000000138
100
AcDbArc
 50
94.9999999998
 51
180.0
  0
ARC
  5
1CD
330
1F
100
AcDbEntity
  8
0
  6
SLD-Durchgehend
 62
     7
370
    25
100
AcDbCircle
 10
439.6744008409
 20
410.4887264423
 30
0.0
 40
0.2499999999999891
100
AcDbArc
 50
0.0
 51
85.0000000002
  0
ARC
  5
1CE
330
1F
100
AcDbEntity
  8
0
  6
SLD-Durchgehend
 62
     7
370
    25
100
AcDbCircle
 10
325.1744008409
 20
410.4887264423
 30
0.0
 40
0.25
100
AcDbArc
 50
94.9999999998
 51
180.0
  0
LINE
  5
1CF
330
1F
100
AcDbEntity
  8
0
  6
SLD-Durchgehend
 62
     7
370
    25
100
AcDbLine
 10
324.9244008409
 20
413.1743625545
 30
0.0
 11
324.9244008409
 21
413.6887264423
 31
0.0
  0
LINE
  5
1D0
330
1F
100
AcDbEntity
  8
0
  6
SLD-Durchgehend
 62
     7
370
    25
100
AcDbLine
 10
439.9244008409
 20
413.6887264423
 30
0.0
 11
439.9244008409
 21
413.1743625545
 31
0.0
  0
LINE
  5
1D1
330
1F
100
AcDbEntity
  8
0
  6
SLD-Durchgehend
 62
     7
370
    25
100
AcDbLine
 10
324.9244008409
 20
393.9743625545
 30
0.0
 11
324.9244008409
 21
394.4887264423
 31
0.0
  0
LINE
  5
1D2
330
1F
100
AcDbEntity
  8
0
  6
SLD-Durchgehend
 62
     7
370
    25
100
AcDbLine
 10
439.9244008409
 20
394.4887264423
 30
0.0
 11
439.9244008409
 21
393.9743625545
 31
0.0
  0
LINE
  5
1D3
330
1F
100
AcDbEntity
  8
0
  6
SLD-Durchgehend
 62
     7
370
    25
100
AcDbLine
 10
324.9244008409
 20
416.3743625545
 30
0.0
 11
324.9244008409
 21
417.9815444984
 31
0.0
  0
LINE
  5
1D4
330
1F
100
AcDbEntity
  8
0
  6
SLD-Durchgehend
 62
     7
370
    25
100
AcDbLine
 10
439.9244008409
 20
417.9815444984
 30
0.0
 11
439.9244008409
 21
416.3743625545
 31
0.0
  0
LINE
  5
1D5
330
1F
100
AcDbEntity
  8
0
  6
SLD-Durchgehend
 62
     7
370
    25
100
AcDbLine
 10
324.9244008409
 20
403.5743625545
 30
0.0
 11
324.9244008409
 21
404.0887264423
 31
0.0
  0
LINE
  5
1D6
330
1F
100
AcDbEntity
  8
0
  6
SLD-Durchgehend
 62
     7
370
    25
100
AcDbLine
 10
439.9244008409
 20
404.0887264423
 30
0.0
 11
439.9244008409
 21
403.5743625545
 31
0.0
  0
LINE
  5
1D7
330
1F
100
AcDbEntity
  8
0
  6
SLD-Durchgehend
 62
     7
370
    25
100
AcDbLine
 10
324.9244008409
 20
400.3743625545
 30
0.0
 11
324.9244008409
 21
400.8887264423
 31
0.0
  0
LINE
  5
1D8
330
1F
100
AcDbEntity
  8
0
  6
SLD-Durchgehend
 62
     7
370
    25
100
AcDbLine
 10
439.9244008409
 20
400.8887264423
 30
0.0
 11
439.9244008409
 21
400.3743625545
 31
0.0
  0
ARC
  5
1D9
330
1F
100
AcDbEntity
  8
0
  6
SLD-Durchgehend
 62
     7
370
    25
100
AcDbCircle
 10
439.6744008409
 20
400.3743625545
 30
0.0
 40
0.2500000000000436
100
AcDbArc
 50
274.9999999999
 51
0.0
  0
ARC
  5
1DA
330
1F
100
AcDbEntity
  8
0
  6
SLD-Durchgehend
 62
     7
370
    25
100
AcDbCircle
 10
325.1744008409
 20
400.3743625545
 30
0.0
 40
0.2500000000000485
100
AcDbArc
 50
180.0
 51
265.0000000001
  0
LINE
  5
1DB
330
1F
100
AcDbEntity
  8
0
  6
SLD-Durchgehend
 62
     7
370
    25
100
AcDbLine
 10
324.9244008409
 20
397.1743625545
 30
0.0
 11
324.9244008409
 21
397.6887264423
 31
0.0
  0
LINE
  5
1DC
330
1F
100
AcDbEntity
  8
0
  6
SLD-Durchgehend
 62
     7
370
    25
100
AcDbLine
 10
439.9244008409
 20
397.6887264423
 30
0.0
 11
439.9244008409
 21
397.1743625545
 31
0.0
  0
LINE
  5
1DD
330
1F
100
AcDbEntity
  8
0
  6
SLD-Durchgehend
 62
     7
370
    25
100
AcDbLine
 10
324.9244008409
 20
390.7743625545
 30
0.0
 11
324.9244008409
 21
391.2887264423
 31
0.0
  0
LINE
  5
1DE
330
1F
100
AcDbEntity
  8
0
  6
SLD-Durchgehend
 62
     7
370
    25
100
AcDbLine
 10
439.9244008409
 20
391.2887264423
 30
0.0
 11
439.9244008409
 21
390.7743625545
 31
0.0
  0
ARC
  5
1DF
330
1F
100
AcDbEntity
  8
0
  6
SLD-Durchgehend
 62
     7
370
    25
100
AcDbCircle
 10
439.6744008409
 20
390.7743625545
 30
0.0
 40
0.249999999999994
100
AcDbArc
 50
274.9999999998
 51
0.0
  0
ARC
  5
1E0
330
1F
100
AcDbEntity
  8
0
  6
SLD-Durchgehend
 62
     7
370
    25
100
AcDbCircle
 10
325.1744008409
 20
390.7743625545
 30
0.0
 40
0.25
100
AcDbArc
 50
180.0
 51
265.0000000002
  0
ARC
  5
1E1
330
1F
100
AcDbEntity
  8
0
  6
SLD-Durchgehend
 62
     7
370
    25
100
AcDbCircle
 10
439.6744008409
 20
407.2887264423
 30
0.0
 40
0.2500000000000266
100
AcDbArc
 50
0.0
 51
85.0
  0
ARC
  5
1E2
330
1F
100
AcDbEntity
  8
0
  6
SLD-Durchgehend
 62
     7
370
    25
100
AcDbCircle
 10
325.1744008409
 20
407.2887264423
 30
0.0
 40
0.2500000000000315
100
AcDbArc
 50
95.0
 51
180.0
  0
LINE
  5
1E3
330
1F
100
AcDbEntity
  8
0
  6
SLD-Durchgehend
 62
     7
370
    25
100
AcDbLine
 10
324.9244008409
 20
387.4815444984
 30
0.0
 11
324.9244008409
 21
388.0887264423
 31
0.0
  0
LINE
  5
1E4
330
1F
100
AcDbEntity
  8
0
  6
SLD-Durchgehend
 62
     7
370
    25
100
AcDbLine
 10
439.9244008409
 20
388.0887264423
 30
0.0
 11
439.9244008409
 21
387.4815444984
 31
0.0
  0
ARC
  5
1E5
330
1F
100
AcDbEntity
  8
0
  6
SLD-Durchgehend
 62
     7
370
    25
100
AcDbCircle
 10
439.6744008409
 20
387.4815444984
 30
0.0
 40
0.25
100
AcDbArc
 50
270.0
 51
0.0
  0
ARC
  5
1E6
330
1F
100
AcDbEntity
  8
0
  6
SLD-Durchgehend
 62
     7
370
    25
100
AcDbCircle
 10
325.1744008409
 20
387.4815444984
 30
0.0
 40
0.25
100
AcDbArc
 50
180.0
 51
270.0
  0
LINE
  5
1E7
330
1F
100
AcDbEntity
  8
0
  6
SLD-Durchgehend
 62
     7
370
    25
100
AcDbLine
 10
324.9244008409
 20
409.9743625545
 30
0.0
 11
324.9244008409
 21
410.4887264423
 31
0.0
  0
LINE
  5
1E8
330
1F
100
AcDbEntity
  8
0
  6
SLD-Durchgehend
 62
     7
370
    25
100
AcDbLine
 10
439.9244008409
 20
410.4887264423
 30
0.0
 11
439.9244008409
 21
409.9743625545
 31
0.0
  0
ARC
  5
1E9
330
1F
100
AcDbEntity
  8
0
  6
SLD-Durchgehend
 62
     7
370
    25
100
AcDbCircle
 10
439.6744008409
 20
393.9743625545
 30
0.0
 40
0.2499999999999742
100
AcDbArc
 50
274.9999999997
 51
0.0
  0
ARC
  5
1EA
330
1F
100
AcDbEntity
  8
0
  6
SLD-Durchgehend
 62
     7
370
    25
100
AcDbCircle
 10
325.1744008409
 20
393.9743625545
 30
0.0
 40
0.25
100
AcDbArc
 50
180.0
 51
265.0000000002
  0
LINE
  5
1EB
330
1F
100
AcDbEntity
  8
0
  6
SLD-Durchgehend
 62
     7
370
    25
100
AcDbLine
 10
439.6961897766
 20
407.5377751169
 30
0.0
 11
438.8526119052
 21
407.6115786174
 31
0.0
  0
LINE
  5
1EC
330
1F
100
AcDbEntity
  8
0
  6
SLD-Durchgehend
 62
     7
370
    25
100
AcDbLine
 10
325.9961897766
 20
407.6115786174
 30
0.0
 11
325.1526119052
 21
407.5377751169
 31
0.0
  0
LINE
  5
1ED
330
1F
100
AcDbEntity
  8
0
  6
SLD-Durchgehend
 62
     7
370
    25
100
AcDbLine
 10
439.6961897766
 20
388.3377751169
 30
0.0
 11
438.8526119052
 21
388.4115786174
 31
0.0
  0
LINE
  5
1EE
330
1F
100
AcDbEntity
  8
0
  6
SLD-Durchgehend
 62
     7
370
    25
100
AcDbLine
 10
325.9961897766
 20
388.4115786174
 30
0.0
 11
325.1526119052
 21
388.3377751169
 31
0.0
  0
LINE
  5
1EF
330
1F
100
AcDbEntity
  8
0
  6
SLD-Durchgehend
 62
     7
370
    25
100
AcDbLine
 10
325.1526119052
 20
416.12531388
 30
0.0
 11
325.9961897766
 21
416.0515103794
 31
0.0
  0
LINE
  5
1F0
330
1F
100
AcDbEntity
  8
0
  6
SLD-Durchgehend
 62
     7
370
    25
100
AcDbLine
 10
438.8526119052
 20
416.0515103794
 30
0.0
 11
439.6961897766
 21
416.12531388
 31
0.0
  0
LINE
  5
1F1
330
1F
100
AcDbEntity
  8
0
  6
SLD-Durchgehend
 62
     7
370
    25
100
AcDbLine
 10
439.6961897766
 20
404.3377751169
 30
0.0
 11
438.8526119052
 21
404.4115786174
 31
0.0
  0
LINE
  5
1F2
330
1F
100
AcDbEntity
  8
0
  6
SLD-Durchgehend
 62
     7
370
    25
100
AcDbLine
 10
325.9961897766
 20
404.4115786174
 30
0.0
 11
325.1526119052
 21
404.3377751169
 31
0.0
  0
LINE
  5
1F3
330
1F
100
AcDbEntity
  8
0
  6
SLD-Durchgehend
 62
     7
370
    25
100
AcDbLine
 10
439.6961897766
 20
401.1377751169
 30
0.0
 11
438.8526119052
 21
401.2115786174
 31
0.0
  0
LINE
  5
1F4
330
1F
100
AcDbEntity
  8
0
  6
SLD-Durchgehend
 62
     7
370
    25
100
AcDbLine
 10
325.9961897766
 20
401.2115786174
 30
0.0
 11
325.1526119052
 21
401.1377751169
 31
0.0
  0
LINE
  5
1F5
330
1F
100
AcDbEntity
  8
0
  6
SLD-Durchgehend
 62
     7
370
    25
100
AcDbLine
 10
325.1526119052
 20
403.32531388
 30
0.0
 11
325.9961897766
 21
403.2515103794
 31
0.0
  0
LINE
  5
1F6
330
1F
100
AcDbEntity
  8
0
  6
SLD-Durchgehend
 62
     7
370
    25
100
AcDbLine
 10
438.8526119052
 20
403.2515103794
 30
0.0
 11
439.6961897766
 21
403.32531388
 31
0.0
  0
LINE
  5
1F7
330
1F
100
AcDbEntity
  8
0
  6
SLD-Durchgehend
 62
     7
370
    25
100
AcDbLine
 10
439.6961897766
 20
397.9377751169
 30
0.0
 11
438.8526119052
 21
398.0115786174
 31
0.0
  0
LINE
  5
1F8
330
1F
100
AcDbEntity
  8
0
  6
SLD-Durchgehend
 62
     7
370
    25
100
AcDbLine
 10
325.9961897766
 20
398.0115786174
 30
0.0
 11
325.1526119052
 21
397.9377751169
 31
0.0
  0
LINE
  5
1F9
330
1F
100
AcDbEntity
  8
0
  6
SLD-Durchgehend
 62
     7
370
    25
100
AcDbLine
 10
325.1526119052
 20
400.12531388
 30
0.0
 11
325.9961897766
 21
400.0515103794
 31
0.0
  0
LINE
  5
1FA
330
1F
100
AcDbEntity
  8
0
  6
SLD-Durchgehend
 62
     7
370
    25
100
AcDbLine
 10
438.8526119052
 20
400.0515103794
 30
0.0
 11
439.6961897766
 21
400.12531388
 31
0.0
  0
LINE
  5
1FB
330
1F
100
AcDbEntity
  8
0
  6
SLD-Durchgehend
 62
     7
370
    25
100
AcDbLine
 10
439.6961897766
 20
394.7377751169
 30
0.0
 11
438.8526119052
 21
394.8115786174
 31
0.0
  0
LINE
  5
1FC
330
1F
100
AcDbEntity
  8
0
  6
SLD-Durchgehend
 62
     7
370
    25
100
AcDbLine
 10
325.9961897766
 20
394.8115786174
 30
0.0
 11
325.1526119052
 21
394.7377751169
 31
0.0
  0
LINE
  5
1FD
330
1F
100
AcDbEntity
  8
0
  6
SLD-Durchgehend
 62
     7
370
    25
100
AcDbLine
 10
325.1526119052
 20
406.52531388
 30
0.0
 11
325.9961897766
 21
406.4515103794
 31
0.0
  0
LINE
  5
1FE
330
1F
100
AcDbEntity
  8
0
  6
SLD-Durchgehend
 62
     7
370
    25
100
AcDbLine
 10
438.8526119052
 20
406.4515103794
 30
0.0
 11
439.6961897766
 21
406.52531388
 31
0.0
  0
LINE
  5
1FF
330
1F
100
AcDbEntity
  8
0
  6
SLD-Durchgehend
 62
     7
370
    25
100
AcDbLine
 10
439.6961897766
 20
391.5377751169
 30
0.0
 11
438.8526119052
 21
391.6115786174
 31
0.0
  0
LINE
  5
200
330
1F
100
AcDbEntity
  8
0
  6
SLD-Durchgehend
 62
     7
370
    25
100
AcDbLine
 10
325.9961897766
 20
391.6115786174
 30
0.0
 11
325.1526119052
 21
391.5377751169
 31
0.0
  0
LINE
  5
201
330
1F
100
AcDbEntity
  8
0
  6
SLD-Durchgehend
 62
     7
370
    25
100
AcDbLine
 10
325.1526119052
 20
409.72531388
 30
0.0
 11
325.9961897766
 21
409.6515103794
 31
0.0
  0
LINE
  5
202
330
1F
100
AcDbEntity
  8
0
  6
SLD-Durchgehend
 62
     7
370
    25
100
AcDbLine
 10
438.8526119052
 20
409.6515103794
 30
0.0
 11
439.6961897766
 21
409.72531388
 31
0.0
  0
LINE
  5
203
330
1F
100
AcDbEntity
  8
0
  6
SLD-Durchgehend
 62
     7
370
    25
100
AcDbLine
 10
325.1526119052
 20
412.92531388
 30
0.0
 11
325.9961897766
 21
412.8515103794
 31
0.0
  0
LINE
  5
204
330
1F
100
AcDbEntity
  8
0
  6
SLD-Durchgehend
 62
     7
370
    25
100
AcDbLine
 10
438.8526119052
 20
412.8515103794
 30
0.0
 11
439.6961897766
 21
412.92531388
 31
0.0
  0
LINE
  5
205
330
1F
100
AcDbEntity
  8
0
  6
SLD-Durchgehend
 62
     7
370
    25
100
AcDbLine
 10
439.6961897766
 20
413.9377751169
 30
0.0
 11
438.8526119052
 21
414.0115786174
 31
0.0
  0
LINE
  5
206
330
1F
100
AcDbEntity
  8
0
  6
SLD-Durchgehend
 62
     7
370
    25
100
AcDbLine
 10
325.9961897766
 20
414.0115786174
 30
0.0
 11
325.1526119052
 21
413.9377751169
 31
0.0
  0
LINE
  5
207
330
1F
100
AcDbEntity
  8
0
  6
SLD-Durchgehend
 62
     7
370
    25
100
AcDbLine
 10
325.1526119052
 20
390.52531388
 30
0.0
 11
325.9961897766
 21
390.4515103794
 31
0.0
  0
LINE
  5
208
330
1F
100
AcDbEntity
  8
0
  6
SLD-Durchgehend
 62
     7
370
    25
100
AcDbLine
 10
438.8526119052
 20
390.4515103794
 30
0.0
 11
439.6961897766
 21
390.52531388
 31
0.0
  0
LINE
  5
209
330
1F
100
AcDbEntity
  8
0
  6
SLD-Durchgehend
 62
     7
370
    25
100
AcDbLine
 10
439.6961897766
 20
410.7377751169
 30
0.0
 11
438.8526119052
 21
410.8115786174
 31
0.0
  0
LINE
  5
20A
330
1F
100
AcDbEntity
  8
0
  6
SLD-Durchgehend
 62
     7
370
    25
100
AcDbLine
 10
325.9961897766
 20
410.8115786174
 30
0.0
 11
325.1526119052
 21
410.7377751169
 31
0.0
  0
LINE
  5
20B
330
1F
100
AcDbEntity
  8
0
  6
SLD-Durchgehend
 62
     7
370
    25
100
AcDbLine
 10
325.1526119052
 20
393.72531388
 30
0.0
 11
325.9961897766
 21
393.6515103794
 31
0.0
  0
LINE
  5
20C
330
1F
100
AcDbEntity
  8
0
  6
SLD-Durchgehend
 62
     7
370
    25
100
AcDbLine
 10
438.8526119052
 20
393.6515103794
 30
0.0
 11
439.6961897766
 21
393.72531388
 31
0.0
  0
LINE
  5
20D
330
1F
100
AcDbEntity
  8
0
  6
SLD-Durchgehend
 62
     7
370
    25
100
AcDbLine
 10
325.1526119052
 20
396.92531388
 30
0.0
 11
325.9961897766
 21
396.8515103794
 31
0.0
  0
LINE
  5
20E
330
1F
100
AcDbEntity
  8
0
  6
SLD-Durchgehend
 62
     7
370
    25
100
AcDbLine
 10
438.8526119052
 20
396.8515103794
 30
0.0
 11
439.6961897766
 21
396.92531388
 31
0.0
  0
ARC
  5
20F
330
1F
100
AcDbEntity
  8
0
  6
SLD-Durchgehend
 62
     7
370
    25
100
AcDbCircle
 10
325.9744008409
 20
388.6606272919
 30
0.0
 40
0.250000000000011
100
AcDbArc
 50
274.9999999997
 51
0.0
  0
ARC
  5
210
330
1F
100
AcDbEntity
  8
0
  6
SLD-Durchgehend
 62
     7
370
    25
100
AcDbCircle
 10
438.8744008409
 20
388.6606272919
 30
0.0
 40
0.250000000000011
100
AcDbArc
 50
180.0
 51
265.0000000003
  0
ARC
  5
211
330
1F
100
AcDbEntity
  8
0
  6
SLD-Durchgehend
 62
     7
370
    25
100
AcDbCircle
 10
325.9744008409
 20
398.2606272919
 30
0.0
 40
0.2500000000000089
100
AcDbArc
 50
274.9999999998
 51
0.0
  0
ARC
  5
212
330
1F
100
AcDbEntity
  8
0
  6
SLD-Durchgehend
 62
     7
370
    25
100
AcDbCircle
 10
438.8744008409
 20
398.2606272919
 30
0.0
 40
0.2500000000000039
100
AcDbArc
 50
180.0
 51
265.0000000002
  0
ARC
  5
213
330
1F
100
AcDbEntity
  8
0
  6
SLD-Durchgehend
 62
     7
370
    25
100
AcDbCircle
 10
325.9744008409
 20
407.8606272919
 30
0.0
 40
0.2500000000001271
100
AcDbArc
 50
274.9999999998
 51
0.0
  0
ARC
  5
214
330
1F
100
AcDbEntity
  8
0
  6
SLD-Durchgehend
 62
     7
370
    25
100
AcDbCircle
 10
438.8744008409
 20
407.8606272919
 30
0.0
 40
0.2500000000001221
100
AcDbArc
 50
180.0
 51
265.0000000002
  0
ARC
  5
215
330
1F
100
AcDbEntity
  8
0
  6
SLD-Durchgehend
 62
     7
370
    25
100
AcDbCircle
 10
325.9744008409
 20
404.6606272919
 30
0.0
 40
0.2500000000000804
100
AcDbArc
 50
274.9999999999
 51
0.0
  0
ARC
  5
216
330
1F
100
AcDbEntity
  8
0
  6
SLD-Durchgehend
 62
     7
370
    25
100
AcDbCircle
 10
438.8744008409
 20
404.6606272919
 30
0.0
 40
0.2500000000000754
100
AcDbArc
 50
180.0
 51
265.0000000001
  0
ARC
  5
217
330
1F
100
AcDbEntity
  8
0
  6
SLD-Durchgehend
 62
     7
370
    25
100
AcDbCircle
 10
325.9744008409
 20
395.0606272919
 30
0.0
 40
0.2499999999999721
100
AcDbArc
 50
274.9999999999
 51
0.0
  0
ARC
  5
218
330
1F
100
AcDbEntity
  8
0
  6
SLD-Durchgehend
 62
     7
370
    25
100
AcDbCircle
 10
438.8744008409
 20
395.0606272919
 30
0.0
 40
0.2499999999999671
100
AcDbArc
 50
180.0
 51
265.0000000001
  0
ARC
  5
219
330
1F
100
AcDbEntity
  8
0
  6
SLD-Durchgehend
 62
     7
370
    25
100
AcDbCircle
 10
325.9744008409
 20
401.4606272919
 30
0.0
 40
0.2500000000000336
100
AcDbArc
 50
274.9999999999
 51
0.0
  0
ARC
  5
21A
330
1F
100
AcDbEntity
  8
0
  6
SLD-Durchgehend
 62
     7
370
    25
100
AcDbCircle
 10
438.8744008409
 20
401.4606272919
 30
0.0
 40
0.2500000000000287
100
AcDbArc
 50
180.0
 51
265.0000000001
  0
ARC
  5
21B
330
1F
100
AcDbEntity
  8
0
  6
SLD-Durchgehend
 62
     7
370
    25
100
AcDbCircle
 10
325.9744008409
 20
391.8606272919
 30
0.0
 40
0.2499999999999919
100
AcDbArc
 50
274.9999999999
 51
0.0
  0
ARC
  5
21C
330
1F
100
AcDbEntity
  8
0
  6
SLD-Durchgehend
 62
     7
370
    25
100
AcDbCircle
 10
438.8744008409
 20
391.8606272919
 30
0.0
 40
0.249999999999987
100
AcDbArc
 50
180.0
 51
265.0000000001
  0
ARC
  5
21D
330
1F
100
AcDbEntity
  8
0
  6
SLD-Durchgehend
 62
     7
370
    25
100
AcDbCircle
 10
325.9744008409
 20
414.2606272919
 30
0.0
 40
0.2500000000000485
100
AcDbArc
 50
274.9999999999
 51
0.0
  0
ARC
  5
21E
330
1F
100
AcDbEntity
  8
0
  6
SLD-Durchgehend
 62
     7
370
    25
100
AcDbCircle
 10
438.8744008409
 20
414.2606272919
 30
0.0
 40
0.2500000000000436
100
AcDbArc
 50
180.0
 51
265.0000000001
  0
ARC
  5
21F
330
1F
100
AcDbEntity
  8
0
  6
SLD-Durchgehend
 62
     7
370
    25
100
AcDbCircle
 10
325.9744008409
 20
411.0606272919
 30
0.0
 40
0.2500000000000018
100
AcDbArc
 50
275.0
 51
0.0
  0
ARC
  5
220
330
1F
100
AcDbEntity
  8
0
  6
SLD-Durchgehend
 62
     7
370
    25
100
AcDbCircle
 10
438.8744008409
 20
411.0606272919
 30
0.0
 40
0.2499999999999969
100
AcDbArc
 50
180.0
 51
265.0000000001
  0
ARC
  5
221
330
1F
100
AcDbEntity
  8
0
  6
SLD-Durchgehend
 62
     7
370
    25
100
AcDbCircle
 10
325.9744008409
 20
396.6024617049
 30
0.0
 40
0.2499999999999601
100
AcDbArc
 50
0.0
 51
85.0
  0
ARC
  5
222
330
1F
100
AcDbEntity
  8
0
  6
SLD-Durchgehend
 62
     7
370
    25
100
AcDbCircle
 10
438.8744008409
 20
396.6024617049
 30
0.0
 40
0.2499999999999551
100
AcDbArc
 50
95.0
 51
180.0
  0
ARC
  5
223
330
1F
100
AcDbEntity
  8
0
  6
SLD-Durchgehend
 62
     7
370
    25
100
AcDbCircle
 10
325.9744008409
 20
415.8024617049
 30
0.0
 40
0.249999999999965
100
AcDbArc
 50
0.0
 51
85.0
  0
ARC
  5
224
330
1F
100
AcDbEntity
  8
0
  6
SLD-Durchgehend
 62
     7
370
    25
100
AcDbCircle
 10
438.8744008409
 20
415.8024617049
 30
0.0
 40
0.2499999999999601
100
AcDbArc
 50
95.0
 51
180.0
  0
ARC
  5
225
330
1F
100
AcDbEntity
  8
0
  6
SLD-Durchgehend
 62
     7
370
    25
100
AcDbCircle
 10
325.9744008409
 20
399.8024617049
 30
0.0
 40
0.2500000000000216
100
AcDbArc
 50
0.0
 51
85.0
  0
ARC
  5
226
330
1F
100
AcDbEntity
  8
0
  6
SLD-Durchgehend
 62
     7
370
    25
100
AcDbCircle
 10
438.8744008409
 20
399.8024617049
 30
0.0
 40
0.2500000000000216
100
AcDbArc
 50
95.0
 51
180.0
  0
ARC
  5
227
330
1F
100
AcDbEntity
  8
0
  6
SLD-Durchgehend
 62
     7
370
    25
100
AcDbCircle
 10
325.9744008409
 20
390.2024617049
 30
0.0
 40
0.2499999999999432
100
AcDbArc
 50
0.0
 51
84.9999999999
  0
ARC
  5
228
330
1F
100
AcDbEntity
  8
0
  6
SLD-Durchgehend
 62
     7
370
    25
100
AcDbCircle
 10
438.8744008409
 20
390.2024617049
 30
0.0
 40
0.2499999999999432
100
AcDbArc
 50
95.0000000001
 51
180.0
  0
ARC
  5
229
330
1F
100
AcDbEntity
  8
0
  6
SLD-Durchgehend
 62
     7
370
    25
100
AcDbCircle
 10
325.9744008409
 20
403.0024617049
 30
0.0
 40
0.2499999999999947
100
AcDbArc
 50
0.0
 51
84.9999999999
  0
ARC
  5
22A
330
1F
100
AcDbEntity
  8
0
  6
SLD-Durchgehend
 62
     7
370
    25
100
AcDbCircle
 10
438.8744008409
 20
403.0024617049
 30
0.0
 40
0.2499999999999947
100
AcDbArc
 50
95.0000000001
 51
180.0
  0
ARC
  5
22B
330
1F
100
AcDbEntity
  8
0
  6
SLD-Durchgehend
 62
     7
370
    25
100
AcDbCircle
 10
325.9744008409
 20
393.4024617049
 30
0.0
 40
0.249999999999948
100
AcDbArc
 50
0.0
 51
84.9999999999
  0
ARC
  5
22C
330
1F
100
AcDbEntity
  8
0
  6
SLD-Durchgehend
 62
     7
370
    25
100
AcDbCircle
 10
438.8744008409
 20
393.4024617049
 30
0.0
 40
0.249999999999948
100
AcDbArc
 50
95.0000000001
 51
180.0
  0
ARC
  5
22D
330
1F
100
AcDbEntity
  8
0
  6
SLD-Durchgehend
 62
     7
370
    25
100
AcDbCircle
 10
325.9744008409
 20
406.2024617049
 30
0.0
 40
0.2499999999999629
100
AcDbArc
 50
0.0
 51
84.9999999998
  0
ARC
  5
22E
330
1F
100
AcDbEntity
  8
0
  6
SLD-Durchgehend
 62
     7
370
    25
100
AcDbCircle
 10
438.8744008409
 20
406.2024617049
 30
0.0
 40
0.2499999999999629
100
AcDbArc
 50
95.0000000002
 51
180.0
  0
ARC
  5
22F
330
1F
100
AcDbEntity
  8
0
  6
SLD-Durchgehend
 62
     7
370
    25
100
AcDbCircle
 10
325.9744008409
 20
409.4024617049
 30
0.0
 40
0.2499999999999827
100
AcDbArc
 50
0.0
 51
84.9999999998
  0
ARC
  5
230
330
1F
100
AcDbEntity
  8
0
  6
SLD-Durchgehend
 62
     7
370
    25
100
AcDbCircle
 10
438.8744008409
 20
409.4024617049
 30
0.0
 40
0.2499999999999827
100
AcDbArc
 50
95.0000000002
 51
180.0
  0
ARC
  5
231
330
1F
100
AcDbEntity
  8
0
  6
SLD-Durchgehend
 62
     7
370
    25
100
AcDbCircle
 10
325.9744008409
 20
412.6024617049
 30
0.0
 40
0.2500000000000025
100
AcDbArc
 50
0.0
 51
84.9999999997
  0
ARC
  5
232
330
1F
100
AcDbEntity
  8
0
  6
SLD-Durchgehend
 62
     7
370
    25
100
AcDbCircle
 10
438.8744008409
 20
412.6024617049
 30
0.0
 40
0.2500000000000025
100
AcDbArc
 50
95.0000000003
 51
180.0
  0
LINE
  5
233
330
1F
100
AcDbEntity
  8
0
  6
SLD-Durchgehend
 62
     7
370
    25
100
AcDbLine
 10
326.2244008409
 20
399.8024617049
 30
0.0
 11
326.2244008409
 21
398.2606272919
 31
0.0
  0
LINE
  5
234
330
1F
100
AcDbEntity
  8
0
  6
SLD-Durchgehend
 62
     7
370
    25
100
AcDbLine
 10
438.6244008409
 20
398.2606272919
 30
0.0
 11
438.6244008409
 21
399.8024617049
 31
0.0
  0
LINE
  5
235
330
1F
100
AcDbEntity
  8
0
  6
SLD-Durchgehend
 62
     7
370
    25
100
AcDbLine
 10
326.2244008409
 20
403.0024617049
 30
0.0
 11
326.2244008409
 21
401.4606272919
 31
0.0
  0
LINE
  5
236
330
1F
100
AcDbEntity
  8
0
  6
SLD-Durchgehend
 62
     7
370
    25
100
AcDbLine
 10
438.6244008409
 20
401.4606272919
 30
0.0
 11
438.6244008409
 21
403.0024617049
 31
0.0
  0
LINE
  5
237
330
1F
100
AcDbEntity
  8
0
  6
SLD-Durchgehend
 62
     7
370
    25
100
AcDbLine
 10
326.2244008409
 20
406.2024617049
 30
0.0
 11
326.2244008409
 21
404.6606272919
 31
0.0
  0
LINE
  5
238
330
1F
100
AcDbEntity
  8
0
  6
SLD-Durchgehend
 62
     7
370
    25
100
AcDbLine
 10
438.6244008409
 20
404.6606272919
 30
0.0
 11
438.6244008409
 21
406.2024617049
 31
0.0
  0
LINE
  5
239
330
1F
100
AcDbEntity
  8
0
  6
SLD-Durchgehend
 62
     7
370
    25
100
AcDbLine
 10
326.2244008409
 20
409.4024617049
 30
0.0
 11
326.2244008409
 21
407.8606272919
 31
0.0
  0
LINE
  5
23A
330
1F
100
AcDbEntity
  8
0
  6
SLD-Durchgehend
 62
     7
370
    25
100
AcDbLine
 10
438.6244008409
 20
407.8606272919
 30
0.0
 11
438.6244008409
 21
409.4024617049
 31
0.0
  0
LINE
  5
23B
330
1F
100
AcDbEntity
  8
0
  6
SLD-Durchgehend
 62
     7
370
    25
100
AcDbLine
 10
326.2244008409
 20
412.6024617049
 30
0.0
 11
326.2244008409
 21
411.0606272919
 31
0.0
  0
LINE
  5
23C
330
1F
100
AcDbEntity
  8
0
  6
SLD-Durchgehend
 62
     7
370
    25
100
AcDbLine
 10
438.6244008409
 20
411.0606272919
 30
0.0
 11
438.6244008409
 21
412.6024617049
 31
0.0
  0
LINE
  5
23D
330
1F
100
AcDbEntity
  8
0
  6
SLD-Durchgehend
 62
     7
370
    25
100
AcDbLine
 10
326.2244008409
 20
415.8024617049
 30
0.0
 11
326.2244008409
 21
414.2606272919
 31
0.0
  0
LINE
  5
23E
330
1F
100
AcDbEntity
  8
0
  6
SLD-Durchgehend
 62
     7
370
    25
100
AcDbLine
 10
438.6244008409
 20
414.2606272919
 30
0.0
 11
438.6244008409
 21
415.8024617049
 31
0.0
  0
LINE
  5
23F
330
1F
100
AcDbEntity
  8
0
  6
SLD-Durchgehend
 62
     7
370
    25
100
AcDbLine
 10
326.2244008409
 20
390.2024617049
 30
0.0
 11
326.2244008409
 21
388.6606272919
 31
0.0
  0
LINE
  5
240
330
1F
100
AcDbEntity
  8
0
  6
SLD-Durchgehend
 62
     7
370
    25
100
AcDbLine
 10
438.6244008409
 20
388.6606272919
 30
0.0
 11
438.6244008409
 21
390.2024617049
 31
0.0
  0
LINE
  5
241
330
1F
100
AcDbEntity
  8
0
  6
SLD-Durchgehend
 62
     7
370
    25
100
AcDbLine
 10
326.2244008409
 20
393.4024617049
 30
0.0
 11
326.2244008409
 21
391.8606272919
 31
0.0
  0
LINE
  5
242
330
1F
100
AcDbEntity
  8
0
  6
SLD-Durchgehend
 62
     7
370
    25
100
AcDbLine
 10
438.6244008409
 20
391.8606272919
 30
0.0
 11
438.6244008409
 21
393.4024617049
 31
0.0
  0
LINE
  5
243
330
1F
100
AcDbEntity
  8
0
  6
SLD-Durchgehend
 62
     7
370
    25
100
AcDbLine
 10
326.2244008409
 20
396.6024617049
 30
0.0
 11
326.2244008409
 21
395.0606272919
 31
0.0
  0
LINE
  5
244
330
1F
100
AcDbEntity
  8
0
  6
SLD-Durchgehend
 62
     7
370
    25
100
AcDbLine
 10
438.6244008409
 20
395.0606272919
 30
0.0
 11
438.6244008409
 21
396.6024617049
 31
0.0
  0
LINE
  5
245
330
1F
100
AcDbEntity
  8
0
  6
SLD-Durchgehend
 62
     7
370
    25
100
AcDbLine
 10
326.3244008409
 20
420.2315444984
 30
0.0
 11
326.8244008409
 21
419.7315444984
 31
0.0
  0
LINE
  5
246
330
1F
100
AcDbEntity
  8
0
  6
SLD-Durchgehend
 62
     7
370
    25
100
AcDbLine
 10
438.0244008409
 20
419.7315444984
 30
0.0
 11
438.5244008409
 21
420.2315444984
 31
0.0
  0
LINE
  5
247
330
1F
100
AcDbEntity
  8
0
  6
SLD-Durchgehend
 62
     7
370
    25
100
AcDbLine
 10
438.0244008409
 20
419.7315444984
 30
0.0
 11
326.8244008409
 21
419.7315444984
 31
0.0
  0
LINE
  5
248
330
1F
100
AcDbEntity
  8
0
  6
SLD-Durchgehend
 62
     7
370
    25
100
AcDbLine
 10
326.8244008409
 20
419.7315444984
 30
0.0
 11
326.8244008409
 21
387.2315444984
 31
0.0
  0
LINE
  5
249
330
1F
100
AcDbEntity
  8
0
  6
SLD-Durchgehend
 62
     7
370
    25
100
AcDbLine
 10
438.0244008409
 20
387.2315444984
 30
0.0
 11
438.0244008409
 21
419.7315444984
 31
0.0
  0
LINE
  5
24A
330
1F
100
AcDbEntity
  8
0
  6
SLD-Durchgehend
 62
     7
370
    25
100
AcDbLine
 10
438.0244008409
 20
387.2315444984
 30
0.0
 11
326.8244008409
 21
387.2315444984
 31
0.0
  0
LINE
  5
24B
330
1F
100
AcDbEntity
  8
0
  6
SLD-Durchgehend
 62
     7
370
    25
100
AcDbLine
 10
439.6744008409
 20
387.2315444984
 30
0.0
 11
438.0244008409
 21
387.2315444984
 31
0.0
  0
LINE
  5
24C
330
1F
100
AcDbEntity
  8
0
  6
SLD-Durchgehend
 62
     7
370
    25
100
AcDbLine
 10
438.5244008409
 20
420.2315444984
 30
0.0
 11
440.4244008409
 21
420.2315444984
 31
0.0
  0
LINE
  5
24D
330
1F
100
AcDbEntity
  8
0
  6
SLD-Durchgehend
 62
     7
370
    25
100
AcDbLine
 10
441.4244008409
 20
418.2315444984
 30
0.0
 11
440.1744008409
 21
418.2315444984
 31
0.0
  0
LINE
  5
24E
330
1F
100
AcDbEntity
  8
0
  6
SLD-Durchgehend
 62
     7
370
    25
100
AcDbLine
 10
440.4244008409
 20
425.7315444984
 30
0.0
 11
441.9244008409
 21
425.7315444984
 31
0.0
  0
LINE
  5
24F
330
1F
100
AcDbEntity
  8
0
  6
SLD-Durchgehend
 62
     7
370
    25
100
AcDbLine
 10
326.8244008409
 20
387.2315444984
 30
0.0
 11
325.1744008409
 21
387.2315444984
 31
0.0
  0
LINE
  5
250
330
1F
100
AcDbEntity
  8
0
  6
SLD-Durchgehend
 62
     7
370
    25
100
AcDbLine
 10
324.4244008409
 20
420.2315444984
 30
0.0
 11
326.3244008409
 21
420.2315444984
 31
0.0
  0
LINE
  5
251
330
1F
100
AcDbEntity
  8
0
  6
SLD-Durchgehend
 62
     7
370
    25
100
AcDbLine
 10
324.6744008409
 20
418.2315444984
 30
0.0
 11
323.4244008409
 21
418.2315444984
 31
0.0
  0
LINE
  5
252
330
1F
100
AcDbEntity
  8
0
  6
SLD-Durchgehend
 62
     7
370
    25
100
AcDbLine
 10
322.9244008409
 20
425.7315444984
 30
0.0
 11
324.4244008409
 21
425.7315444984
 31
0.0
  0
HATCH
  5
253
330
1F
100
AcDbEntity
  8
0
  6
SLD-Durchgehend
 62
     7
370
    18
100
AcDbHatch
 10
0.0
 20
0.0
 30
0.0
210
0.0
220
0.0
230
1.0
  2
ANSI31
 70
     0
 71
     0
 91
        1
 92
        0
 93
       84
 72
     2
 10
325.9744008409248
 20
401.4606272919209
 40
0.25
 50
0.0
 51
85.00000000010549
 73
     0
 72
     1
 10
325.9961897766113
 20
401.2115786173979
 11
325.1526119052381
 21
401.1377751168515
 72
     2
 10
325.1744008409248
 20
400.8887264423285
 40
0.25
 50
94.99999999996054
 51
180.0
 73
     1
 72
     1
 10
324.9244008409248
 20
400.8887264423285
 11
324.9244008409248
 21
400.3743625545046
 72
     2
 10
325.1744008409248
 20
400.3743625545046
 40
0.25
 50
180.0
 51
265.0000000000674
 73
     1
 72
     1
 10
325.1526119052382
 20
400.1253138799816
 11
325.9961897766118
 21
400.0515103794351
 72
     2
 10
325.9744008409248
 20
399.8024617049122
 40
0.25
 50
275.0000000000132
 51
360.0000000000008
 73
     0
 72
     1
 10
326.2244008409248
 20
399.8024617049122
 11
326.2244008409248
 21
398.2606272919209
 72
     2
 10
325.9744008409248
 20
398.2606272919209
 40
0.25
 50
0.0
 51
85.00000000017039
 73
     0
 72
     1
 10
325.996189776611
 20
398.0115786173979
 11
325.1526119052382
 21
397.9377751168515
 72
     2
 10
325.1744008409248
 20
397.6887264423285
 40
0.25
 50
94.99999999993457
 51
180.0
 73
     1
 72
     1
 10
324.9244008409248
 20
397.6887264423285
 11
324.9244008409248
 21
397.1743625545046
 72
     2
 10
325.1744008409248
 20
397.1743625545046
 40
0.25
 50
180.0
 51
265.0000000003151
 73
     1
 72
     1
 10
325.1526119052393
 20
396.9253138799816
 11
325.9961897766117
 21
396.8515103794351
 72
     2
 10
325.9744008409248
 20
396.6024617049122
 40
0.25
 50
274.9999999999884
 51
360.0000000000008
 73
     0
 72
     1
 10
326.2244008409248
 20
396.6024617049122
 11
326.2244008409248
 21
395.0606272919209
 72
     2
 10
325.9744008409248
 20
395.0606272919209
 40
0.25
 50
0.0
 51
85.00000000011849
 73
     0
 72
     1
 10
325.9961897766112
 20
394.8115786173979
 11
325.1526119052382
 21
394.7377751168515
 72
     2
 10
325.1744008409248
 20
394.4887264423285
 40
0.25
 50
94.9999999999216
 51
180.0
 73
     1
 72
     1
 10
324.9244008409248
 20
394.4887264423285
 11
324.9244008409248
 21
393.9743625545046
 72
     2
 10
325.1744008409248
 20
393.9743625545046
 40
0.25
 50
180.0
 51
265.000000000249
 73
     1
 72
     1
 10
325.152611905239
 20
393.7253138799816
 11
325.9961897766123
 21
393.651510379435
 72
     2
 10
325.9744008409248
 20
393.4024617049122
 40
0.25
 50
275.0000000001205
 51
360.0000000000008
 73
     0
 72
     1
 10
326.2244008409248
 20
393.4024617049122
 11
326.2244008409248
 21
391.8606272919209
 72
     2
 10
325.9744008409248
 20
391.8606272919209
 40
0.25
 50
0.0
 51
85.00000000007842
 73
     0
 72
     1
 10
325.9961897766114
 20
391.6115786173979
 11
325.1526119052384
 21
391.5377751168515
 72
     2
 10
325.1744008409248
 20
391.2887264423285
 40
0.25
 50
94.99999999988151
 51
180.0
 73
     1
 72
     1
 10
324.9244008409248
 20
391.2887264423285
 11
324.9244008409248
 21
390.7743625545046
 72
     2
 10
325.1744008409248
 20
390.7743625545046
 40
0.25
 50
180.0
 51
265.0000000001971
 73
     1
 72
     1
 10
325.1526119052388
 20
390.5253138799816
 11
325.9961897766121
 21
390.451510379435
 72
     2
 10
325.9744008409248
 20
390.2024617049122
 40
0.25
 50
275.0000000000934
 51
360.0000000000008
 73
     0
 72
     1
 10
326.2244008409248
 20
390.2024617049122
 11
326.2244008409248
 21
388.6606272919209
 72
     2
 10
325.9744008409248
 20
388.6606272919209
 40
0.25
 50
0.0
 51
85.00000000031429
 73
     0
 72
     1
 10
325.9961897766104
 20
388.4115786173978
 11
325.1526119052379
 21
388.3377751168514
 72
     2
 10
325.1744008409248
 20
388.0887264423285
 40
0.25
 50
95.0000000000006
 51
180.0
 73
     1
 72
     1
 10
324.9244008409248
 20
388.0887264423285
 11
324.9244008409248
 21
387.4815444984166
 72
     2
 10
325.1744008409248
 20
387.4815444984166
 40
0.25
 50
180.0
 51
270.0000000000008
 73
     1
 72
     1
 10
325.1744008409248
 20
387.2315444984166
 11
326.8244008409248
 21
387.2315444984166
 72
     1
 10
326.8244008409248
 20
387.2315444984166
 11
326.8244008409248
 21
419.7315444984166
 72
     1
 10
326.8244008409248
 20
419.7315444984166
 11
326.3244008409249
 21
420.2315444984166
 72
     1
 10
326.3244008409249
 20
420.2315444984166
 11
324.4244008409247
 21
420.2315444984166
 72
     1
 10
324.4244008409247
 20
420.2315444984166
 11
324.4244008409247
 21
425.7315444984166
 72
     1
 10
324.4244008409247
 20
425.7315444984166
 11
322.9244008409248
 21
425.7315444984166
 72
     1
 10
322.9244008409248
 20
425.7315444984166
 11
322.9244008409248
 21
418.7315444984166
 72
     2
 10
323.4244008409248
 20
418.7315444984166
 40
0.5
 50
180.0
 51
270.0000000000008
 73
     1
 72
     1
 10
323.4244008409248
 20
418.2315444984166
 11
324.6744008409248
 21
418.2315444984166
 72
     2
 10
324.6744008409248
 20
417.9815444984166
 40
0.25
 50
270.0000000000008
 51
360.0000000000008
 73
     0
 72
     1
 10
324.9244008409248
 20
417.9815444984166
 11
324.9244008409248
 21
416.3743625545046
 72
     2
 10
325.1744008409248
 20
416.3743625545046
 40
0.25
 50
180.0
 51
265.0000000000014
 73
     1
 72
     1
 10
325.1526119052379
 20
416.1253138799817
 11
325.9961897766117
 21
416.0515103794351
 72
     2
 10
325.9744008409248
 20
415.8024617049122
 40
0.25
 50
275.0000000000014
 51
360.0000000000008
 73
     0
 72
     1
 10
326.2244008409248
 20
415.8024617049122
 11
326.2244008409248
 21
414.2606272919209
 72
     2
 10
325.9744008409248
 20
414.2606272919209
 40
0.25
 50
0.0
 51
85.00000000006656
 73
     0
 72
     1
 10
325.9961897766115
 20
414.0115786173979
 11
325.1526119052386
 21
413.9377751168515
 72
     2
 10
325.1744008409248
 20
413.6887264423285
 40
0.25
 50
94.99999999984372
 51
180.0
 73
     1
 72
     1
 10
324.9244008409248
 20
413.6887264423285
 11
324.9244008409248
 21
413.1743625545046
 72
     2
 10
325.1744008409248
 20
413.1743625545046
 40
0.25
 50
180.0
 51
265.0000000001204
 73
     1
 72
     1
 10
325.1526119052384
 20
412.9253138799816
 11
325.9961897766129
 21
412.851510379435
 72
     2
 10
325.9744008409248
 20
412.6024617049122
 40
0.25
 50
275.0000000002632
 51
360.0000000000008
 73
     0
 72
     1
 10
326.2244008409248
 20
412.6024617049122
 11
326.2244008409248
 21
411.0606272919209
 72
     2
 10
325.9744008409248
 20
411.0606272919209
 40
0.25
 50
0.0
 51
85.00000000003949
 73
     0
 72
     1
 10
325.9961897766116
 20
410.8115786173979
 11
325.1526119052388
 21
410.7377751168515
 72
     2
 10
325.1744008409248
 20
410.4887264423285
 40
0.25
 50
94.99999999979067
 51
180.0
 73
     1
 72
     1
 10
324.9244008409248
 20
410.4887264423285
 11
324.9244008409248
 21
409.9743625545046
 72
     2
 10
325.1744008409248
 20
409.9743625545046
 40
0.25
 50
180.0
 51
265.0000000001063
 73
     1
 72
     1
 10
325.1526119052384
 20
409.7253138799816
 11
325.9961897766127
 21
409.651510379435
 72
     2
 10
325.9744008409248
 20
409.4024617049122
 40
0.25
 50
275.0000000002113
 51
360.0000000000008
 73
     0
 72
     1
 10
326.2244008409248
 20
409.4024617049122
 11
326.2244008409248
 21
407.8606272919209
 72
     2
 10
325.9744008409248
 20
407.8606272919209
 40
0.25
 50
0.0
 51
85.00000000015967
 73
     0
 72
     1
 10
325.9961897766111
 20
407.6115786173978
 11
325.1526119052377
 21
407.5377751168514
 72
     2
 10
325.1744008409248
 20
407.2887264423285
 40
0.25
 50
95.00000000003841
 51
180.0
 73
     1
 72
     1
 10
324.9244008409248
 20
407.2887264423285
 11
324.9244008409248
 21
406.7743625545046
 72
     2
 10
325.1744008409248
 20
406.7743625545046
 40
0.25
 50
180.0
 51
265.0000000000804
 73
     1
 72
     1
 10
325.1526119052382
 20
406.5253138799816
 11
325.9961897766124
 21
406.451510379435
 72
     2
 10
325.9744008409248
 20
406.2024617049122
 40
0.25
 50
275.0000000001453
 51
360.0000000000008
 73
     0
 72
     1
 10
326.2244008409248
 20
406.2024617049122
 11
326.2244008409248
 21
404.6606272919209
 72
     2
 10
325.9744008409248
 20
404.6606272919209
 40
0.25
 50
0.0
 51
85.00000000013372
 73
     0
 72
     1
 10
325.9961897766112
 20
404.4115786173978
 11
325.152611905238
 21
404.3377751168514
 72
     2
 10
325.1744008409248
 20
404.0887264423285
 40
0.25
 50
94.9999999999865
 51
180.0
 73
     1
 72
     1
 10
324.9244008409248
 20
404.0887264423285
 11
324.9244008409248
 21
403.5743625545046
 72
     2
 10
325.1744008409248
 20
403.5743625545046
 40
0.25
 50
180.0
 51
265.0000000000544
 73
     1
 72
     1
 10
325.1526119052381
 20
403.3253138799816
 11
325.9961897766121
 21
403.251510379435
 72
     2
 10
325.9744008409248
 20
403.0024617049122
 40
0.25
 50
275.0000000000934
 51
360.0000000000008
 73
     0
 72
     1
 10
326.2244008409248
 20
403.0024617049122
 11
326.2244008409248
 21
401.4606272919209
 97
        0
 75
     0
 76
     1
 52
0.0
 41
2.0
 77
     0
 78
     1
 53
45.0
 43
0.0
 44
0.0
 45
-4.490128060534577
 46
4.490128060534577
 79
     0
 98
        1
 10
0.0
 20
0.0
  0
HATCH
  5
254
330
1F
100
AcDbEntity
  8
0
  6
SLD-Durchgehend
 62
     7
370
    18
100
AcDbHatch
 10
0.0
 20
0.0
 30
0.0
210
0.0
220
0.0
230
1.0
  2
ANSI31
 70
     0
 71
     0
 91
        1
 92
        0
 93
       84
 72
     2
 10
439.674400840925
 20
400.8887264423285
 40
0.25
 50
0.0
 51
85.0000000000265
 73
     1
 72
     1
 10
439.6961897766118
 20
401.1377751168515
 11
438.8526119052386
 21
401.2115786173979
 72
     2
 10
438.874400840925
 20
401.4606272919209
 40
0.25
 50
94.99999999988151
 51
180.0
 73
     0
 72
     1
 10
438.6244008409251
 20
401.4606272919209
 11
438.6244008409251
 21
403.0024617049122
 72
     2
 10
438.874400840925
 20
403.0024617049122
 40
0.25
 50
180.0
 51
264.9999999999083
 73
     0
 72
     1
 10
438.8526119052377
 20
403.251510379435
 11
439.6961897766117
 21
403.3253138799816
 72
     2
 10
439.674400840925
 20
403.5743625545046
 40
0.25
 50
274.9999999999472
 51
360.0000000000008
 73
     1
 72
     1
 10
439.9244008409251
 20
403.5743625545046
 11
439.924400840925
 21
404.0887264423285
 72
     2
 10
439.674400840925
 20
404.0887264423285
 40
0.25
 50
0.0
 51
85.00000000001351
 73
     1
 72
     1
 10
439.6961897766119
 20
404.3377751168514
 11
438.8526119052387
 21
404.4115786173978
 72
     2
 10
438.874400840925
 20
404.6606272919209
 40
0.25
 50
94.9999999998533
 51
180.0
 73
     0
 72
     1
 10
438.6244008409251
 20
404.6606272919209
 11
438.6244008409251
 21
406.2024617049122
 72
     2
 10
438.874400840925
 20
406.2024617049122
 40
0.25
 50
180.0
 51
264.9999999998434
 73
     0
 72
     1
 10
438.8526119052374
 20
406.451510379435
 11
439.6961897766116
 21
406.5253138799816
 72
     2
 10
439.674400840925
 20
406.7743625545046
 40
0.25
 50
274.9999999999083
 51
360.0000000000008
 73
     1
 72
     1
 10
439.9244008409251
 20
406.7743625545046
 11
439.924400840925
 21
407.2887264423285
 72
     2
 10
439.674400840925
 20
407.2887264423285
 40
0.25
 50
0.0
 51
84.9999999999616
 73
     1
 72
     1
 10
439.6961897766121
 20
407.5377751168514
 11
438.8526119052389
 21
407.6115786173978
 72
     2
 10
438.874400840925
 20
407.8606272919209
 40
0.25
 50
94.99999999982734
 51
180.0
 73
     0
 72
     1
 10
438.6244008409251
 20
407.8606272919209
 11
438.6244008409251
 21
409.4024617049122
 72
     2
 10
438.874400840925
 20
409.4024617049122
 40
0.25
 50
180.0
 51
264.9999999997903
 73
     0
 72
     1
 10
438.8526119052372
 20
409.651510379435
 11
439.6961897766114
 21
409.7253138799816
 72
     2
 10
439.674400840925
 20
409.9743625545046
 40
0.25
 50
274.9999999998823
 51
360.0000000000008
 73
     1
 72
     1
 10
439.9244008409251
 20
409.9743625545046
 11
439.924400840925
 21
410.4887264423285
 72
     2
 10
439.674400840925
 20
410.4887264423285
 40
0.25
 50
0.0
 51
85.00000000022118
 73
     1
 72
     1
 10
439.696189776611
 20
410.7377751168515
 11
438.8526119052383
 21
410.8115786173979
 72
     2
 10
438.874400840925
 20
411.0606272919209
 40
0.25
 50
94.99999999994755
 51
180.0
 73
     0
 72
     1
 10
438.6244008409251
 20
411.0606272919209
 11
438.6244008409251
 21
412.6024617049122
 72
     2
 10
438.874400840925
 20
412.6024617049122
 40
0.25
 50
180.0
 51
264.9999999997384
 73
     0
 72
     1
 10
438.852611905237
 20
412.851510379435
 11
439.6961897766114
 21
412.9253138799816
 72
     2
 10
439.674400840925
 20
413.1743625545046
 40
0.25
 50
274.9999999998682
 51
360.0000000000008
 73
     1
 72
     1
 10
439.9244008409251
 20
413.1743625545046
 11
439.924400840925
 21
413.6887264423285
 72
     2
 10
439.674400840925
 20
413.6887264423285
 40
0.25
 50
0.0
 51
85.00000000015628
 73
     1
 72
     1
 10
439.6961897766113
 20
413.9377751168515
 11
438.8526119052385
 21
414.0115786173979
 72
     2
 10
438.874400840925
 20
414.2606272919209
 40
0.25
 50
94.99999999992045
 51
180.0
 73
     0
 72
     1
 10
438.6244008409251
 20
414.2606272919209
 11
438.6244008409251
 21
415.8024617049122
 72
     2
 10
438.874400840925
 20
415.8024617049122
 40
0.25
 50
180.0
 51
264.9999999999872
 73
     0
 72
     1
 10
438.8526119052381
 20
416.0515103794351
 11
439.6961897766119
 21
416.1253138799817
 72
     2
 10
439.674400840925
 20
416.3743625545046
 40
0.25
 50
274.9999999999873
 51
360.0000000000008
 73
     1
 72
     1
 10
439.9244008409251
 20
416.3743625545046
 11
439.924400840925
 21
417.9815444984166
 72
     2
 10
440.174400840925
 20
417.9815444984166
 40
0.25
 50
180.0
 51
270.0000000000008
 73
     0
 72
     1
 10
440.174400840925
 20
418.2315444984166
 11
441.424400840925
 21
418.2315444984166
 72
     2
 10
441.424400840925
 20
418.7315444984166
 40
0.5
 50
270.0000000000008
 51
360.0000000000008
 73
     1
 72
     1
 10
441.924400840925
 20
418.7315444984166
 11
441.9244008409251
 21
425.7315444984166
 72
     1
 10
441.9244008409251
 20
425.7315444984166
 11
440.4244008409251
 21
425.7315444984166
 72
     1
 10
440.4244008409251
 20
425.7315444984166
 11
440.4244008409251
 21
420.2315444984166
 72
     1
 10
440.4244008409251
 20
420.2315444984166
 11
438.524400840925
 21
420.2315444984166
 72
     1
 10
438.524400840925
 20
420.2315444984166
 11
438.024400840925
 21
419.7315444984166
 72
     1
 10
438.024400840925
 20
419.7315444984166
 11
438.0244008409251
 21
387.2315444984166
 72
     1
 10
438.0244008409251
 20
387.2315444984166
 11
439.674400840925
 21
387.2315444984166
 72
     2
 10
439.674400840925
 20
387.4815444984166
 40
0.25
 50
270.0000000000008
 51
360.0000000000008
 73
     1
 72
     1
 10
439.924400840925
 20
387.4815444984166
 11
439.9244008409251
 21
388.0887264423285
 72
     2
 10
439.674400840925
 20
388.0887264423285
 40
0.25
 50
0.0
 51
84.99999999997345
 73
     1
 72
     1
 10
439.6961897766121
 20
388.3377751168514
 11
438.8526119052395
 21
388.4115786173978
 72
     2
 10
438.874400840925
 20
388.6606272919209
 40
0.25
 50
94.99999999968571
 51
180.0
 73
     0
 72
     1
 10
438.6244008409251
 20
388.6606272919209
 11
438.6244008409251
 21
390.2024617049122
 72
     2
 10
438.874400840925
 20
390.2024617049122
 40
0.25
 50
180.0
 51
264.9999999999083
 73
     0
 72
     1
 10
438.8526119052377
 20
390.451510379435
 11
439.6961897766111
 21
390.5253138799816
 72
     2
 10
439.674400840925
 20
390.7743625545046
 40
0.25
 50
274.9999999998045
 51
360.0000000000008
 73
     1
 72
     1
 10
439.924400840925
 20
390.7743625545046
 11
439.9244008409251
 21
391.2887264423285
 72
     2
 10
439.674400840925
 20
391.2887264423285
 40
0.25
 50
0.0
 51
85.00000000010549
 73
     1
 72
     1
 10
439.6961897766115
 20
391.5377751168515
 11
438.8526119052385
 21
391.6115786173979
 72
     2
 10
438.874400840925
 20
391.8606272919209
 40
0.25
 50
94.9999999999216
 51
180.0
 73
     0
 72
     1
 10
438.6244008409251
 20
391.8606272919209
 11
438.6244008409251
 21
393.4024617049122
 72
     2
 10
438.874400840925
 20
393.4024617049122
 40
0.25
 50
180.0
 51
264.9999999998811
 73
     0
 72
     1
 10
438.8526119052376
 20
393.651510379435
 11
439.6961897766109
 21
393.7253138799816
 72
     2
 10
439.674400840925
 20
393.9743625545046
 40
0.25
 50
274.9999999997514
 51
360.0000000000008
 73
     1
 72
     1
 10
439.924400840925
 20
393.9743625545046
 11
439.9244008409251
 21
394.4887264423285
 72
     2
 10
439.674400840925
 20
394.4887264423285
 40
0.25
 50
0.0
 51
85.00000000007842
 73
     1
 72
     1
 10
439.6961897766116
 20
394.7377751168515
 11
438.8526119052387
 21
394.8115786173979
 72
     2
 10
438.874400840925
 20
395.0606272919209
 40
0.25
 50
94.99999999986855
 51
180.0
 73
     0
 72
     1
 10
438.6244008409251
 20
395.0606272919209
 11
438.6244008409251
 21
396.6024617049122
 72
     2
 10
438.874400840925
 20
396.6024617049122
 40
0.25
 50
180.0
 51
265.0000000000002
 73
     0
 72
     1
 10
438.8526119052381
 20
396.8515103794351
 11
439.6961897766107
 21
396.9253138799816
 72
     2
 10
439.674400840925
 20
397.1743625545046
 40
0.25
 50
274.9999999996995
 51
360.0000000000008
 73
     1
 72
     1
 10
439.924400840925
 20
397.1743625545046
 11
439.9244008409251
 21
397.6887264423285
 72
     2
 10
439.674400840925
 20
397.6887264423285
 40
0.25
 50
0.0
 51
85.00000000005245
 73
     1
 72
     1
 10
439.6961897766117
 20
397.9377751168515
 11
438.8526119052389
 21
398.0115786173979
 72
     2
 10
438.874400840925
 20
398.2606272919209
 40
0.25
 50
94.99999999982961
 51
180.0
 73
     0
 72
     1
 10
438.6244008409251
 20
398.2606272919209
 11
438.6244008409251
 21
399.8024617049122
 72
     2
 10
438.874400840925
 20
399.8024617049122
 40
0.25
 50
180.0
 51
264.9999999999884
 73
     0
 72
     1
 10
438.8526119052381
 20
400.0515103794351
 11
439.6961897766117
 21
400.1253138799816
 72
     2
 10
439.674400840925
 20
400.3743625545046
 40
0.25
 50
274.9999999999342
 51
360.0000000000008
 73
     1
 72
     1
 10
439.924400840925
 20
400.3743625545046
 11
439.9244008409251
 21
400.8887264423285
 97
        0
 75
     0
 76
     1
 52
0.0
 41
2.0
 77
     0
 78
     1
 53
45.0
 43
0.0
 44
0.0
 45
-4.490128060534577
 46
4.490128060534577
 79
     0
 98
        1
 10
0.0
 20
0.0
  0
HATCH
  5
255
330
1F
100
AcDbEntity
  8
0
  6
SLD-Durchgehend
 62
     7
370
    18
100
AcDbHatch
 10
0.0
 20
0.0
 30
0.0
210
0.0
220
0.0
230
1.0
  2
ANSI31
 70
     0
 71
     0
 91
        1
 92
        0
 93
       64
 72
     1
 10
371.3674229395725
 20
425.2315444984166
 11
371.3674229395725
 21
425.0315444984166
 72
     1
 10
371.3674229395725
 20
425.0315444984166
 11
370.354986928612
 21
425.0315444984166
 72
     1
 10
370.354986928612
 20
425.0315444984166
 11
370.354986928612
 21
425.2315444984166
 72
     1
 10
370.354986928612
 20
425.2315444984166
 11
368.9211703909598
 21
425.2315444984166
 72
     1
 10
368.9211703909598
 20
425.2315444984166
 11
368.9211703909598
 21
425.0315444984166
 72
     1
 10
368.9211703909598
 20
425.0315444984166
 11
367.8449501392624
 21
425.0315444984166
 72
     1
 10
367.8449501392624
 20
425.0315444984166
 11
367.8449501392624
 21
425.2315444984166
 72
     1
 10
367.8449501392624
 20
425.2315444984166
 11
336.7648920267737
 21
425.2315444984166
 72
     4
 94
        3
 73
     1
 74
     0
 95
       11
 96
        7
 40
0.0024105106448509
 40
0.0024105106448509
 40
0.0024105106448509
 40
0.0024105106448509
 40
0.0045289702483595
 40
0.0045289702483595
 40
0.0045289702483595
 40
0.0055551070619162
 40
0.0055551070619162
 40
0.0055551070619162
 40
0.0055551070619162
 10
336.7648920267737
 20
425.2315444984166
 42
1.0
 10
336.0569450835872
 20
425.2315444984166
 42
1.0
 10
335.3489842216758
 20
425.214225541454
 42
1.0
 10
334.6410748564346
 20
425.2215197152247
 42
1.0
 10
334.2985098661165
 20
425.2250494447209
 42
1.0
 10
333.955957399639
 20
425.2315444984166
 42
1.0
 10
333.6133742249471
 20
425.2315444984166
 42
1.0
 97
        0
 72
     1
 10
333.6133742249471
 20
425.2315444984166
 11
327.1744008409248
 21
425.2315444984166
 72
     2
 10
327.1744008409248
 20
422.9815444984166
 40
2.25
 50
90.0
 51
180.0
 73
     1
 72
     1
 10
324.9244008409248
 20
422.9815444984166
 11
324.9244008409248
 21
420.2315444984166
 72
     1
 10
324.9244008409248
 20
420.2315444984166
 11
326.4244008409248
 21
420.2315444984166
 72
     1
 10
326.4244008409248
 20
420.2315444984166
 11
326.4244008409248
 21
422.9815444984166
 72
     2
 10
327.1744008409248
 20
422.9815444984166
 40
0.7499999999999998
 50
180.0
 51
270.0000000000008
 73
     0
 72
     1
 10
327.1744008409248
 20
423.7315444984166
 11
333.6133742249471
 21
423.7315444984166
 72
     4
 94
        3
 73
     1
 74
     0
 95
       17
 96
       13
 40
0.0020531238511588
 40
0.0020531238511588
 40
0.0020531238511588
 40
0.0020531238511588
 40
0.00240502837946
 40
0.00240502837946
 40
0.00240502837946
 40
0.0039196182484749
 40
0.0039196182484749
 40
0.0039196182484749
 40
0.004920578488533
 40
0.004920578488533
 40
0.004920578488533
 40
0.0052208522938816
 40
0.0052208522938816
 40
0.0052208522938816
 40
0.0052208522938816
 10
333.6133742249471
 20
423.7315444984166
 42
1.0
 10
333.7299607079034
 20
423.7315444984166
 42
1.0
 10
333.8465495987142
 20
423.7291170854986
 42
1.0
 10
333.9630833277489
 20
423.7256102342921
 42
1.0
 10
334.4652333013522
 20
423.7104990278173
 42
1.0
 10
334.9675922727777
 20
423.6848009323259
 42
1.0
 10
335.4698845619441
 20
423.694042187375
 42
1.0
 10
335.8020598293809
 20
423.7001536018514
 42
1.0
 10
336.133922364241
 20
423.7180600205572
 42
1.0
 10
336.466031738686
 20
423.7270667452328
 42
1.0
 10
336.565626397346
 20
423.7297677279171
 42
1.0
 10
336.6652607498521
 20
423.7315444984166
 42
1.0
 10
336.7648920267737
 20
423.7315444984166
 42
1.0
 97
        0
 72
     1
 10
336.7648920267737
 20
423.7315444984166
 11
428.0839096550752
 21
423.7315444984166
 72
     4
 94
        3
 73
     1
 74
     0
 95
       17
 96
       13
 40
0.0020531238511582
 40
0.0020531238511582
 40
0.0020531238511582
 40
0.0020531238511582
 40
0.0024050283794594
 40
0.0024050283794594
 40
0.0024050283794594
 40
0.0039196182484747
 40
0.0039196182484747
 40
0.0039196182484747
 40
0.0049205784885332
 40
0.0049205784885332
 40
0.0049205784885332
 40
0.0052208522938832
 40
0.0052208522938832
 40
0.0052208522938832
 40
0.0052208522938832
 10
428.0839096550752
 20
423.7315444984166
 42
1.0
 10
428.2004961380314
 20
423.7315444984166
 42
1.0
 10
428.3170850288421
 20
423.7291170854986
 42
1.0
 10
428.4336187578769
 20
423.7256102342921
 42
1.0
 10
428.9357687314804
 20
423.7104990278173
 42
1.0
 10
429.4381277029059
 20
423.6848009323258
 42
1.0
 10
429.9404199920726
 20
423.6940421873749
 42
1.0
 10
430.2725952595094
 20
423.7001536018513
 42
1.0
 10
430.6044577943697
 20
423.7180600205571
 42
1.0
 10
430.9365671688148
 20
423.7270667452327
 42
1.0
 10
431.0361618274752
 20
423.7297677279171
 42
1.0
 10
431.1357961799817
 20
423.7315444984166
 42
1.0
 10
431.2354274569038
 20
423.7315444984166
 42
1.0
 97
        0
 72
     1
 10
431.2354274569038
 20
423.7315444984166
 11
437.674400840925
 21
423.7315444984166
 72
     2
 10
437.674400840925
 20
422.9815444984166
 40
0.7499999999999998
 50
270.0000000000008
 51
360.0000000000008
 73
     0
 72
     1
 10
438.424400840925
 20
422.9815444984166
 11
438.424400840925
 21
420.2315444984166
 72
     1
 10
438.424400840925
 20
420.2315444984166
 11
439.9244008409251
 21
420.2315444984166
 72
     1
 10
439.9244008409251
 20
420.2315444984166
 11
439.924400840925
 21
422.9815444984166
 72
     2
 10
437.674400840925
 20
422.9815444984166
 40
2.25
 50
0.0
 51
90.0
 73
     1
 72
     1
 10
437.674400840925
 20
425.2315444984166
 11
431.2354274569038
 21
425.2315444984166
 72
     4
 94
        3
 73
     1
 74
     0
 95
       11
 96
        7
 40
0.0035770568744358
 40
0.0035770568744358
 40
0.0035770568744358
 40
0.0035770568744358
 40
0.0056922452281688
 40
0.0056922452281688
 40
0.0056922452281688
 40
0.0067414136668576
 40
0.0067414136668576
 40
0.0067414136668576
 40
0.0067414136668576
 10
431.2354274569038
 20
425.2315444984166
 42
1.0
 10
430.533216852812
 20
425.2315444984166
 42
1.0
 10
429.8309953316123
 20
425.2142724562359
 42
1.0
 10
429.1288203388271
 20
425.221344372958
 42
1.0
 10
428.7805178472536
 20
425.2248522822965
 42
1.0
 10
428.4322298110585
 20
425.2315444984166
 42
1.0
 10
428.0839096550752
 20
425.2315444984166
 42
1.0
 97
        0
 72
     1
 10
428.0839096550752
 20
425.2315444984166
 11
396.9983053682765
 21
425.2315444984166
 72
     1
 10
396.9983053682765
 20
425.2315444984166
 11
396.9983053679621
 21
425.0315444984166
 72
     1
 10
396.9983053679621
 20
425.0315444984166
 11
393.5527807809148
 21
425.0315444984166
 72
     1
 10
393.5527807809148
 20
425.0315444984166
 11
393.5527807809148
 21
425.2315444984166
 72
     1
 10
393.5527807809148
 20
425.2315444984166
 11
390.9391146257597
 21
425.2315444984166
 72
     1
 10
390.9391146257597
 20
425.2315444984166
 11
390.9391146257597
 21
425.0315444984166
 72
     1
 10
390.9391146257597
 20
425.0315444984166
 11
389.8616386217513
 21
425.0315444984166
 72
     1
 10
389.8616386217513
 20
425.0315444984166
 11
389.8616386217513
 21
425.2315444984166
 72
     1
 10
389.8616386217513
 20
425.2315444984166
 11
388.8918117706452
 21
425.2315444984166
 72
     1
 10
388.8918117706452
 20
425.2315444984166
 11
388.8918117706452
 21
425.0315444984166
 72
     1
 10
388.8918117706452
 20
425.0315444984166
 11
387.8237109462864
 21
425.0315444984166
 72
     1
 10
387.8237109462864
 20
425.0315444984166
 11
387.8237109462864
 21
425.2315444984166
 72
     1
 10
387.8237109462864
 20
425.2315444984166
 11
386.7995562765348
 21
425.2315444984166
 72
     1
 10
386.7995562765348
 20
425.2315444984166
 11
386.7995562765348
 21
425.0315444984166
 72
     1
 10
386.7995562765348
 20
425.0315444984166
 11
385.7096896414204
 21
425.0315444984166
 72
     1
 10
385.7096896414204
 20
425.0315444984166
 11
385.7096896414204
 21
425.2315444984166
 72
     1
 10
385.7096896414204
 20
425.2315444984166
 11
384.68561867863
 21
425.2315444984166
 72
     1
 10
384.68561867863
 20
425.2315444984166
 11
384.68561867863
 21
425.0315444984166
 72
     1
 10
384.68561867863
 20
425.0315444984166
 11
383.6138964523022
 21
425.0315444984166
 72
     1
 10
383.6138964523022
 20
425.0315444984166
 11
383.6138964523022
 21
425.2315444984166
 72
     1
 10
383.6138964523022
 20
425.2315444984166
 11
381.3467154120137
 21
425.2315444984166
 72
     1
 10
381.3467154120137
 20
425.2315444984166
 11
381.3467154120137
 21
425.0315444984166
 72
     1
 10
381.3467154120137
 20
425.0315444984166
 11
380.2694068219276
 21
425.0315444984166
 72
     1
 10
380.2694068219276
 20
425.0315444984166
 11
380.2694068219276
 21
425.2315444984166
 72
     1
 10
380.2694068219276
 20
425.2315444984166
 11
378.041797171627
 21
425.2315444984166
 72
     1
 10
378.041797171627
 20
425.2315444984166
 11
378.041797171627
 21
425.0315444984166
 72
     1
 10
378.041797171627
 20
425.0315444984166
 11
376.9644048745797
 21
425.0315444984166
 72
     1
 10
376.9644048745797
 20
425.0315444984166
 11
376.9644048745797
 21
425.2315444984166
 72
     1
 10
376.9644048745797
 20
425.2315444984166
 11
375.9368182194207
 21
425.2315444984166
 72
     1
 10
375.9368182194207
 20
425.2315444984166
 11
375.9368182194207
 21
425.0315444984166
 72
     1
 10
375.9368182194207
 20
425.0315444984166
 11
374.8615185964024
 21
425.0315444984166
 72
     1
 10
374.8615185964024
 20
425.0315444984166
 11
374.8615185964024
 21
425.2315444984166
 72
     1
 10
374.8615185964024
 20
425.2315444984166
 11
373.3966467761611
 21
425.2315444984166
 72
     1
 10
373.3966467761611
 20
425.2315444984166
 11
373.3966467761611
 21
425.0315444984166
 72
     1
 10
373.3966467761611
 20
425.0315444984166
 11
372.3213471531429
 21
425.0315444984166
 72
     1
 10
372.3213471531429
 20
425.0315444984166
 11
372.3213471531429
 21
425.2315444984166
 72
     1
 10
372.3213471531429
 20
425.2315444984166
 11
371.3674229395725
 21
425.2315444984166
 97
        0
 75
     0
 76
     1
 52
0.0
 41
2.0
 77
     0
 78
     1
 53
45.0
 43
0.0
 44
0.0
 45
-4.490128060534577
 46
4.490128060534577
 79
     0
 98
        1
 10
0.0
 20
0.0
  0
DIMENSION
  5
256
330
1F
100
AcDbEntity
  8
0
  6
SLD-Durchgehend
 62
     7
370
    18
100
AcDbDimension
280
     0
  2
_D
 10
441.9244008409
 20
435.5669333527
 30
0.0
 11
381.0844686941
 21
435.5669333527
 31
0.0
 70
   160
  1
%%c<>
 71
     2
 42
-1.0
 73
     0
 74
     0
 75
     0
  3
SLDDIMSTYLE0
100
AcDbAlignedDimension
 13
322.9244008409
 23
425.7315444984
 33
0.0
 14
441.9244008409
 24
425.7315444984
 34
0.0
 50
0.0
100
AcDbRotatedDimension
  0
DIMENSION
  5
263
330
1F
100
AcDbEntity
  8
0
  6
SLD-Durchgehend
 62
     7
370
    18
100
AcDbDimension
280
     0
  2
_D_1
 10
474.044458232
 20
425.7315444984
 30
0.0
 11
474.044458232
 21
405.235940517
 31
0.0
 70
   160
  1
<>
 71
     2
 42
-1.0
 73
     0
 74
     0
 75
     0
  3
SLDDIMSTYLE1
100
AcDbAlignedDimension
 13
441.4244008409
 23
418.2315444984
 33
0.0
 14
441.9244008409
 24
425.7315444984
 34
0.0
 50
90.0
100
AcDbRotatedDimension
  0
DIMENSION
  5
270
330
1F
100
AcDbEntity
  8
0
  6
SLD-Durchgehend
 62
     7
370
    18
100
AcDbDimension
280
     0
  2
_D_2
 10
504.9718704106
 20
387.2315444984
 30
0.0
 11
504.9718704106
 21
405.235940517
 31
0.0
 70
   160
  1
<>
 71
     2
 42
-1.0
 73
     0
 74
     0
 75
     0
  3
SLDDIMSTYLE2
100
AcDbAlignedDimension
 13
440.4244008409
 23
425.7315444984
 33
0.0
 14
438.0244008409
 24
387.2315444984
 34
0.0
 50
90.0
100
AcDbRotatedDimension
  0
DIMENSION
  5
27B
330
1F
100
AcDbEntity
  8
0
  6
SLD-Durchgehend
 62
     7
370
    18
100
AcDbDimension
280
     0
  2
_D_3
 10
439.9244008409
 20
367.2315444984
 30
0.0
 11
377.9030610019
 21
367.2315444984
 31
0.0
 70
   160
  1
%%c<>
 71
     2
 42
-1.0
 73
     0
 74
     0
 75
     0
  3
SLDDIMSTYLE0
100
AcDbAlignedDimension
 13
324.9244008409
 23
387.4815444984
 33
0.0
 14
439.9244008409
 24
387.4815444984
 34
0.0
 50
0.0
100
AcDbRotatedDimension
  0
LINE
  5
286
330
1F
100
AcDbEntity
  8
0
  6
SLD-Punktstrich
 62
     7
370
    18
100
AcDbLine
 10
382.4244008409
 20
387.3533858768
 30
0.0
 11
382.4244008409
 21
423.7315444984
 31
0.0
  0
ENDSEC
  0
SECTION
  2
OBJECTS
  0
DICTIONARY
  5
C
330
0
100
AcDbDictionary
281
     1
  3
ACAD_DETAILVIEWSTYLE
350
28E
  3
ACAD_GROUP
350
D
  3
ACAD_LAYOUT
350
1A
  3
ACAD_MATERIAL
350
43
  3
ACAD_MLEADERSTYLE
350
6B
  3
ACAD_MLINESTYLE
350
17
  3
ACAD_PLOTSETTINGS
350
19
  3
ACAD_PLOTSTYLENAME
350
E
  3
ACAD_SCALELIST
350
47
  3
ACAD_SECTIONVIEWSTYLE
350
28F
  3
ACAD_TABLESTYLE
350
69
  3
ACAD_VISUALSTYLE
350
2A
  3
ACDB_RECOMPOSE_DATA
350
28B
  3
AcDbVariableDictionary
350
287
  0
SUN
  5
6D
330
29
100
AcDbSun
 90
        1
290
     0
 63
     7
421
 16777215
 40
1.0
291
     1
 91
  2455826
 92
 54000000
292
     0
 70
     2
 71
   256
280
     1
  0
DICTIONARY
  5
28E
102
{ACAD_REACTORS
330
C
102
}
330
C
100
AcDbDictionary
281
     1
  0
DICTIONARY
  5
D
102
{ACAD_REACTORS
330
C
102
}
330
C
100
AcDbDictionary
281
     1
  0
DICTIONARY
  5
1A
102
{ACAD_REACTORS
330
C
102
}
330
C
100
AcDbDictionary
281
     1
  3
Layout1
350
1E
  3
Layout2
350
26
  3
Model
350
22
  0
DICTIONARY
  5
43
102
{ACAD_REACTORS
330
C
102
}
330
C
100
AcDbDictionary
281
     1
  3
ByBlock
350
45
  3
ByLayer
350
44
  3
Global
350
46
  0
DICTIONARY
  5
6B
102
{ACAD_REACTORS
330
C
102
}
330
C
100
AcDbDictionary
281
     1
  3
Standard
350
6C
  0
DICTIONARY
  5
17
102
{ACAD_REACTORS
330
C
102
}
330
C
100
AcDbDictionary
281
     1
  3
Standard
350
18
  0
DICTIONARY
  5
19
102
{ACAD_REACTORS
330
C
102
}
330
C
100
AcDbDictionary
281
     1
  0
ACDBDICTIONARYWDFLT
  5
E
102
{ACAD_REACTORS
330
C
102
}
330
C
100
AcDbDictionary
281
     1
  3
Normal
350
F
100
AcDbDictionaryWithDefault
340
F
  0
DICTIONARY
  5
47
102
{ACAD_REACTORS
330
C
102
}
330
C
100
AcDbDictionary
281
     1
  3
A0
350
48
  3
A1
350
49
  3
A2
350
4A
  3
A3
350
4B
  3
A4
350
4C
  3
A5
350
4D
  3
A6
350
4E
  3
A7
350
4F
  3
A8
350
50
  3
A9
350
51
  3
B0
350
52
  3
B1
350
53
  3
B2
350
54
  3
B3
350
55
  3
B4
350
56
  3
B5
350
57
  3
B6
350
58
  3
B7
350
59
  3
B8
350
5A
  3
B9
350
5B
  3
C0
350
5C
  3
C1
350
5D
  3
C2
350
5E
  3
C3
350
5F
  3
C4
350
60
  3
C5
350
61
  3
C6
350
62
  3
C7
350
63
  3
C8
350
64
  3
C9
350
65
  3
D0
350
66
  3
D1
350
67
  3
D2
350
68
  0
DICTIONARY
  5
28F
102
{ACAD_REACTORS
330
C
102
}
330
C
100
AcDbDictionary
281
     1
  0
DICTIONARY
  5
69
102
{ACAD_REACTORS
330
C
102
}
330
C
100
AcDbDictionary
281
     1
  3
Standard
350
6A
  0
DICTIONARY
  5
2A
102
{ACAD_REACTORS
330
C
102
}
330
C
100
AcDbDictionary
281
     1
  3
2dWireframe
350
2F
  3
Basic
350
32
  3
Brighten
350
36
  3
ColorChange
350
3A
  3
Conceptual
350
34
  3
Dim
350
35
  3
EdgeColorOff
350
3D
  3
Facepattern
350
39
  3
Flat
350
2B
  3
FlatWithEdges
350
2C
  3
Gouraud
350
2D
  3
GouraudWithEdges
350
2E
  3
Hidden
350
31
  3
JitterOff
350
3B
  3
Linepattern
350
38
  3
OverhangOff
350
3C
  3
Realistic
350
33
  3
Shaded
350
42
  3
Shaded with edges
350
41
  3
Shades of Gray
350
3E
  3
Sketchy
350
3F
  3
Thicken
350
37
  3
Wireframe
350
30
  3
X-Ray
350
40
  0
XRECORD
  5
28B
102
{ACAD_REACTORS
330
C
102
}
330
C
100
AcDbXrecord
280
     1
 90
        1
330
6A
  0
DICTIONARY
  5
287
102
{ACAD_REACTORS
330
C
102
}
330
C
100
AcDbDictionary
281
     1
  3
CANNOSCALE
350
288
  3
CMLEADERSTYLE
350
28D
  3
CTABLESTYLE
350
28C
  3
SECTIONTHICKNESSINC
350
290
  0
LAYOUT
  5
1E
102
{ACAD_REACTORS
330
1A
102
}
330
1A
100
AcDbPlotSettings
  1

  2
none_device
  4

  6

 40
0.0
 41
0.0
 42
0.0
 43
0.0
 44
0.0
 45
0.0
 46
0.0
 47
0.0
 48
0.0
 49
0.0
140
0.0
141
0.0
142
1.0
143
1.0
 70
   688
 72
     1
 73
     0
 74
     5
  7

 75
    16
 76
     0
 77
     2
 78
   300
147
1.0
148
0.0
149
0.0
100
AcDbLayout
  1
Layout1
 70
     1
 71
     1
 10
0.0
 20
0.0
 11
420.0
 21
297.0
 12
0.0
 22
0.0
 32
0.0
 14
1.0000000000E+20
 24
1.0000000000E+20
 34
1.0000000000E+20
 15
-1.0000000000E+20
 25
-1.0000000000E+20
 35
-1.0000000000E+20
146
0.0
 13
0.0
 23
0.0
 33
0.0
 16
1.0
 26
0.0
 36
0.0
 17
0.0
 27
1.0
 37
0.0
 76
     0
330
1B
  0
LAYOUT
  5
26
102
{ACAD_REACTORS
330
1A
102
}
330
1A
100
AcDbPlotSettings
  1

  2
none_device
  4

  6

 40
0.0
 41
0.0
 42
0.0
 43
0.0
 44
0.0
 45
0.0
 46
0.0
 47
0.0
 48
0.0
 49
0.0
140
0.0
141
0.0
142
1.0
143
1.0
 70
   688
 72
     1
 73
     0
 74
     5
  7

 75
    16
 76
     0
 77
     2
 78
   300
147
1.0
148
0.0
149
0.0
100
AcDbLayout
  1
Layout2
 70
     1
 71
     2
 10
0.0
 20
0.0
 11
0.0
 21
0.0
 12
0.0
 22
0.0
 32
0.0
 14
0.0
 24
0.0
 34
0.0
 15
0.0
 25
0.0
 35
0.0
146
0.0
 13
0.0
 23
0.0
 33
0.0
 16
1.0
 26
0.0
 36
0.0
 17
0.0
 27
1.0
 37
0.0
 76
     0
330
23
  0
LAYOUT
  5
22
102
{ACAD_REACTORS
330
1A
102
}
330
1A
100
AcDbPlotSettings
  1

  2
none_device
  4
Letter_(8.50_x_11.00_Inches)
  6

 40
6.35
 41
6.35
 42
6.35000508
 43
6.35000508
 44
215.9
 45
279.4
 46
0.0
 47
0.0
 48
0.0
 49
0.0
140
0.0
141
0.0
142
1.0
143
1.0
 70
  1712
 72
     1
 73
     0
 74
     0
  7

 75
     0
 76
     0
 77
     2
 78
   300
147
1.0
148
0.0
149
0.0
100
AcDbLayout
  1
Model
 70
     1
 71
     0
 10
0.0
 20
0.0
 11
840.0
 21
594.0
 12
0.0
 22
0.0
 32
0.0
 14
0.0
 24
0.0
 34
0.0
 15
840.0
 25
594.0
 35
0.0
146
0.0
 13
0.0
 23
0.0
 33
0.0
 16
1.0
 26
0.0
 36
0.0
 17
0.0
 27
1.0
 37
0.0
 76
     0
330
1F
331
29
  0
MATERIAL
  5
45
102
{ACAD_REACTORS
330
43
102
}
330
43
100
AcDbMaterial
  1
ByBlock
 72
     1
 94
      127
  0
MATERIAL
  5
44
102
{ACAD_REACTORS
330
43
102
}
330
43
100
AcDbMaterial
  1
ByLayer
 72
     1
 94
      127
  0
MATERIAL
  5
46
102
{ACAD_REACTORS
330
43
102
}
330
43
100
AcDbMaterial
  1
Global
 72
     1
 94
      127
  0
MLEADERSTYLE
  5
6C
102
{ACAD_REACTORS
330
6B
102
}
330
6B
100
AcDbMLeaderStyle
179
     2
170
     2
171
     1
172
     0
 90
        2
 40
0.0
 41
0.0
173
     1
 91
-1056964608
340
14
 92
       -2
290
     1
 42
2.0
291
     1
 43
8.0
  3
Standard
341
0
 44
4.0
300

342
11
174
     1
178
     6
175
     1
176
     0
 93
-1056964608
 45
4.0
292
     0
297
     0
 46
4.0
343
0
 94
-1056964608
 47
1.0
 49
1.0
140
1.0
293
     1
141
0.0
294
     1
177
     0
142
1.0
295
     0
296
     0
143
3.75
271
     0
272
     9
273
     9
298
     0
  0
MLINESTYLE
  5
18
102
{ACAD_REACTORS
330
17
102
}
330
17
100
AcDbMlineStyle
  2
Standard
 70
     0
  3

 62
   256
 51
90.0
 52
90.0
 71
     2
 49
0.5
 62
   256
  6
BYLAYER
 49
-0.5
 62
   256
  6
BYLAYER
  0
ACDBPLACEHOLDER
  5
F
102
{ACAD_REACTORS
330
E
102
}
330
E
  0
SCALE
  5
48
102
{ACAD_REACTORS
330
47
102
}
330
47
100
AcDbScale
 70
     0
300
1:1
140
1.0
141
1.0
290
     1
  0
SCALE
  5
49
102
{ACAD_REACTORS
330
47
102
}
330
47
100
AcDbScale
 70
     0
300
1:2
140
1.0
141
2.0
290
     0
  0
SCALE
  5
4A
102
{ACAD_REACTORS
330
47
102
}
330
47
100
AcDbScale
 70
     0
300
1:4
140
1.0
141
4.0
290
     0
  0
SCALE
  5
4B
102
{ACAD_REACTORS
330
47
102
}
330
47
100
AcDbScale
 70
     0
300
1:5
140
1.0
141
5.0
290
     0
  0
SCALE
  5
4C
102
{ACAD_REACTORS
330
47
102
}
330
47
100
AcDbScale
 70
     0
300
1:8
140
1.0
141
8.0
290
     0
  0
SCALE
  5
4D
102
{ACAD_REACTORS
330
47
102
}
330
47
100
AcDbScale
 70
     0
300
1:10
140
1.0
141
10.0
290
     0
  0
SCALE
  5
4E
102
{ACAD_REACTORS
330
47
102
}
330
47
100
AcDbScale
 70
     0
300
1:16
140
1.0
141
16.0
290
     0
  0
SCALE
  5
4F
102
{ACAD_REACTORS
330
47
102
}
330
47
100
AcDbScale
 70
     0
300
1:20
140
1.0
141
20.0
290
     0
  0
SCALE
  5
50
102
{ACAD_REACTORS
330
47
102
}
330
47
100
AcDbScale
 70
     0
300
1:30
140
1.0
141
30.0
290
     0
  0
SCALE
  5
51
102
{ACAD_REACTORS
330
47
102
}
330
47
100
AcDbScale
 70
     0
300
1:40
140
1.0
141
40.0
290
     0
  0
SCALE
  5
52
102
{ACAD_REACTORS
330
47
102
}
330
47
100
AcDbScale
 70
     0
300
1:50
140
1.0
141
50.0
290
     0
  0
SCALE
  5
53
102
{ACAD_REACTORS
330
47
102
}
330
47
100
AcDbScale
 70
     0
300
1:100
140
1.0
141
100.0
290
     0
  0
SCALE
  5
54
102
{ACAD_REACTORS
330
47
102
}
330
47
100
AcDbScale
 70
     0
300
2:1
140
2.0
141
1.0
290
     0
  0
SCALE
  5
55
102
{ACAD_REACTORS
330
47
102
}
330
47
100
AcDbScale
 70
     0
300
4:1
140
4.0
141
1.0
290
     0
  0
SCALE
  5
56
102
{ACAD_REACTORS
330
47
102
}
330
47
100
AcDbScale
 70
     0
300
8:1
140
8.0
141
1.0
290
     0
  0
SCALE
  5
57
102
{ACAD_REACTORS
330
47
102
}
330
47
100
AcDbScale
 70
     0
300
10:1
140
10.0
141
1.0
290
     0
  0
SCALE
  5
58
102
{ACAD_REACTORS
330
47
102
}
330
47
100
AcDbScale
 70
     0
300
100:1
140
100.0
141
1.0
290
     0
  0
SCALE
  5
59
102
{ACAD_REACTORS
330
47
102
}
330
47
100
AcDbScale
 70
     0
300
1/128" = 1'-0"
140
0.0078125
141
12.0
290
     0
  0
SCALE
  5
5A
102
{ACAD_REACTORS
330
47
102
}
330
47
100
AcDbScale
 70
     0
300
1/64" = 1'-0"
140
0.015625
141
12.0
290
     0
  0
SCALE
  5
5B
102
{ACAD_REACTORS
330
47
102
}
330
47
100
AcDbScale
 70
     0
300
1/32" = 1'-0"
140
0.03125
141
12.0
290
     0
  0
SCALE
  5
5C
102
{ACAD_REACTORS
330
47
102
}
330
47
100
AcDbScale
 70
     0
300
1/16" = 1'-0"
140
0.0625
141
12.0
290
     0
  0
SCALE
  5
5D
102
{ACAD_REACTORS
330
47
102
}
330
47
100
AcDbScale
 70
     0
300
3/32" = 1'-0"
140
0.09375
141
12.0
290
     0
  0
SCALE
  5
5E
102
{ACAD_REACTORS
330
47
102
}
330
47
100
AcDbScale
 70
     0
300
1/8" = 1'-0"
140
0.125
141
12.0
290
     0
  0
SCALE
  5
5F
102
{ACAD_REACTORS
330
47
102
}
330
47
100
AcDbScale
 70
     0
300
3/16" = 1'-0"
140
0.1875
141
12.0
290
     0
  0
SCALE
  5
60
102
{ACAD_REACTORS
330
47
102
}
330
47
100
AcDbScale
 70
     0
300
1/4" = 1'-0"
140
0.25
141
12.0
290
     0
  0
SCALE
  5
61
102
{ACAD_REACTORS
330
47
102
}
330
47
100
AcDbScale
 70
     0
300
3/8" = 1'-0"
140
0.375
141
12.0
290
     0
  0
SCALE
  5
62
102
{ACAD_REACTORS
330
47
102
}
330
47
100
AcDbScale
 70
     0
300
1/2" = 1'-0"
140
0.5
141
12.0
290
     0
  0
SCALE
  5
63
102
{ACAD_REACTORS
330
47
102
}
330
47
100
AcDbScale
 70
     0
300
3/4" = 1'-0"
140
0.75
141
12.0
290
     0
  0
SCALE
  5
64
102
{ACAD_REACTORS
330
47
102
}
330
47
100
AcDbScale
 70
     0
300
1" = 1'-0"
140
1.0
141
12.0
290
     0
  0
SCALE
  5
65
102
{ACAD_REACTORS
330
47
102
}
330
47
100
AcDbScale
 70
     0
300
1-1/2" = 1'-0"
140
1.5
141
12.0
290
     0
  0
SCALE
  5
66
102
{ACAD_REACTORS
330
47
102
}
330
47
100
AcDbScale
 70
     0
300
3" = 1'-0"
140
3.0
141
12.0
290
     0
  0
SCALE
  5
67
102
{ACAD_REACTORS
330
47
102
}
330
47
100
AcDbScale
 70
     0
300
6" = 1'-0"
140
6.0
141
12.0
290
     0
  0
SCALE
  5
68
102
{ACAD_REACTORS
330
47
102
}
330
47
100
AcDbScale
 70
     0
300
1'-0" = 1'-0"
140
12.0
141
12.0
290
     0
  0
TABLESTYLE
  5
6A
102
{ACAD_REACTORS
330
69
102
}
102
{ACAD_XDICTIONARY
360
289
102
}
330
69
100
AcDbTableStyle
  3
Standard
 70
     0
 71
     0
 40
0.06
 41
0.06
280
     0
281
     0
  7
Standard
140
4.5
170
     2
 62
     0
 63
   257
283
     0
 90
        4
 91
        0
  1

274
    -2
284
     1
 64
     0
275
    -2
285
     1
 65
     0
276
    -2
286
     1
 66
     0
277
    -2
287
     1
 67
     0
278
    -2
288
     1
 68
     0
279
    -2
289
     1
 69
     0
  7
Standard
140
6.0
170
     5
 62
     0
 63
   257
283
     0
 90
        4
 91
        0
  1

274
    -2
284
     1
 64
     0
275
    -2
285
     1
 65
     0
276
    -2
286
     1
 66
     0
277
    -2
287
     1
 67
     0
278
    -2
288
     1
 68
     0
279
    -2
289
     1
 69
     0
  7
Standard
140
4.5
170
     5
 62
     0
 63
   257
283
     0
 90
        4
 91
        0
  1

274
    -2
284
     1
 64
     0
275
    -2
285
     1
 65
     0
276
    -2
286
     1
 66
     0
277
    -2
287
     1
 67
     0
278
    -2
288
     1
 68
     0
279
    -2
289
     1
 69
     0
  0
VISUALSTYLE
  5
2F
102
{ACAD_REACTORS
330
2A
102
}
330
2A
100
AcDbVisualStyle
  2
2dWireframe
 70
     4
177
     3
291
     0
 70
    58
 90
        0
176
     1
 90
        2
176
     1
 90
        0
176
     1
 90
        0
176
     1
 40
0.6
176
     1
 40
30.0
176
     1
 62
     7
420
 16777215
176
     1
 90
        1
176
     1
 90
        4
176
     1
 62
     7
176
     1
 62
   257
176
     1
 90
        1
176
     1
 90
        1
176
     1
 40
1.0
176
     1
 90
        0
176
     1
 62
   257
176
     1
 40
1.0
176
     1
 90
        1
176
     1
 90
        6
176
     1
 90
        2
176
     1
 62
     7
176
     1
 90
        5
176
     1
 90
        0
176
     1
 90
        0
176
     1
290
     0
176
     1
 90
        1
176
     1
 40
0.0
176
     1
 90
        0
176
     1
290
     1
176
     1
290
     1
176
     1
290
     0
176
     1
290
     0
176
     1
290
     0
176
     1
290
     0
176
     1
290
     0
176
     1
290
     0
176
     1
290
     0
176
     1
 90
       50
176
     1
 40
0.0
176
     1
 40
1.0
176
     1
 90
        0
176
     1
 62
    18
420
        0
176
     1
 90
       50
176
     1
 90
        3
176
     1
 62
     5
420
      255
176
     1
290
     0
176
     1
 90
       50
176
     1
 90
       50
176
     1
 90
       50
176
     1
290
     0
176
     1
 90
       50
176
     1
 62
   256
176
     0
 40
1.0
176
     0
 90
        2
176
     1
  1
strokes_ogs.tif
176
     1
290
     0
176
     1
 40
1.0
176
     1
 40
1.0
176
     1
  0
VISUALSTYLE
  5
32
102
{ACAD_REACTORS
330
2A
102
}
330
2A
100
AcDbVisualStyle
  2
Basic
 70
     7
177
     3
291
     1
 70
    58
 90
        1
176
     1
 90
        0
176
     1
 90
        1
176
     1
 90
        0
176
     1
 40
0.6
176
     1
 40
30.0
176
     1
 62
     7
420
 16777215
176
     1
 90
        0
176
     1
 90
        4
176
     1
 62
     7
176
     1
 62
   257
176
     1
 90
        1
176
     1
 90
        1
176
     1
 40
1.0
176
     1
 90
        8
176
     1
 62
     7
176
     1
 40
1.0
176
     1
 90
        1
176
     1
 90
        6
176
     1
 90
        2
176
     1
 62
     7
176
     1
 90
        5
176
     1
 90
        0
176
     1
 90
        0
176
     1
290
     0
176
     1
 90
        1
176
     1
 40
0.0
176
     1
 90
        0
176
     1
290
     0
176
     1
290
     1
176
     1
290
     1
176
     1
290
     0
176
     1
290
     0
176
     1
290
     0
176
     1
290
     0
176
     1
290
     0
176
     1
290
     0
176
     1
 90
       50
176
     1
 40
0.0
176
     1
 40
1.0
176
     1
 90
        0
176
     1
 62
    18
420
        0
176
     1
 90
       50
176
     1
 90
        3
176
     1
 62
     5
420
      255
176
     1
290
     0
176
     1
 90
       50
176
     1
 90
       50
176
     1
 90
       50
176
     1
290
     0
176
     1
 90
       50
176
     1
 62
   256
176
     0
 40
1.0
176
     0
 90
        2
176
     1
  1
strokes_ogs.tif
176
     1
290
     0
176
     1
 40
1.0
176
     1
 40
1.0
176
     1
  0
VISUALSTYLE
  5
36
102
{ACAD_REACTORS
330
2A
102
}
330
2A
100
AcDbVisualStyle
  2
Brighten
 70
    12
177
     3
291
     1
 70
    58
 90
        2
176
     1
 90
        2
176
     1
 90
        0
176
     1
 90
        0
176
     1
 40
0.6
176
     1
 40
30.0
176
     1
 62
     7
420
 16777215
176
     1
 90
        1
176
     1
 90
        4
176
     1
 62
     7
176
     1
 62
   257
176
     1
 90
        1
176
     1
 90
        1
176
     1
 40
1.0
176
     1
 90
        8
176
     1
 62
     7
176
     1
 40
1.0
176
     1
 90
        1
176
     1
 90
        6
176
     1
 90
        2
176
     1
 62
     7
176
     1
 90
        5
176
     1
 90
        0
176
     1
 90
        0
176
     1
290
     0
176
     1
 90
        1
176
     1
 40
50.0
176
     1
 90
        0
176
     1
290
     0
176
     1
290
     1
176
     1
290
     1
176
     1
290
     0
176
     1
290
     0
176
     1
290
     0
176
     1
290
     0
176
     1
290
     0
176
     1
290
     0
176
     1
 90
       50
176
     1
 40
0.0
176
     1
 40
1.0
176
     1
 90
        0
176
     1
 62
    18
420
        0
176
     1
 90
       50
176
     1
 90
        3
176
     1
 62
     5
420
      255
176
     1
290
     0
176
     1
 90
       50
176
     1
 90
       50
176
     1
 90
       50
176
     1
290
     0
176
     1
 90
       50
176
     1
 62
   256
176
     0
 40
1.0
176
     0
 90
        2
176
     1
  1
strokes_ogs.tif
176
     1
290
     0
176
     1
 40
1.0
176
     1
 40
1.0
176
     1
  0
VISUALSTYLE
  5
3A
102
{ACAD_REACTORS
330
2A
102
}
330
2A
100
AcDbVisualStyle
  2
ColorChange
 70
    16
177
     3
291
     1
 70
    58
 90
        2
176
     1
 90
        2
176
     1
 90
        3
176
     1
 90
        0
176
     1
 40
0.6
176
     1
 40
30.0
176
     1
 62
     8
420
  8421504
176
     1
 90
        1
176
     1
 90
        4
176
     1
 62
     7
176
     1
 62
   257
176
     1
 90
        1
176
     1
 90
        1
176
     1
 40
1.0
176
     1
 90
        8
176
     1
 62
     8
420
  8421504
176
     1
 40
1.0
176
     1
 90
        1
176
     1
 90
        6
176
     1
 90
        2
176
     1
 62
     7
176
     1
 90
        5
176
     1
 90
        0
176
     1
 90
        0
176
     1
290
     0
176
     1
 90
        1
176
     1
 40
0.0
176
     1
 90
        0
176
     1
290
     0
176
     1
290
     1
176
     1
290
     1
176
     1
290
     0
176
     1
290
     0
176
     1
290
     0
176
     1
290
     0
176
     1
290
     0
176
     1
290
     0
176
     1
 90
       50
176
     1
 40
0.0
176
     1
 40
1.0
176
     1
 90
        0
176
     1
 62
    18
420
        0
176
     1
 90
       50
176
     1
 90
        3
176
     1
 62
     5
420
      255
176
     1
290
     0
176
     1
 90
       50
176
     1
 90
       50
176
     1
 90
       50
176
     1
290
     0
176
     1
 90
       50
176
     1
 62
   256
176
     0
 40
1.0
176
     0
 90
        2
176
     1
  1
strokes_ogs.tif
176
     1
290
     0
176
     1
 40
1.0
176
     1
 40
1.0
176
     1
  0
VISUALSTYLE
  5
34
102
{ACAD_REACTORS
330
2A
102
}
330
2A
100
AcDbVisualStyle
  2
Conceptual
 70
     9
177
     3
291
     0
 70
    58
 90
        3
176
     1
 90
        2
176
     1
 90
        0
176
     1
 90
        0
176
     1
 40
0.6
176
     1
 40
30.0
176
     1
 62
     7
420
 16777215
176
     1
 90
        2
176
     1
 90
        2
176
     1
 62
     7
176
     1
 62
   257
176
     1
 90
        1
176
     1
 90
        1
176
     1
 40
179.0
176
     1
 90
        8
176
     1
 62
     7
176
     1
 40
1.0
176
     1
 90
        1
176
     1
 90
        6
176
     1
 90
        2
176
     1
 62
     7
176
     1
 90
        3
176
     1
 90
        0
176
     1
 90
        0
176
     1
290
     0
176
     1
 90
        1
176
     1
 40
0.0
176
     1
 90
        0
176
     1
290
     0
176
     1
290
     1
176
     1
290
     1
176
     1
290
     0
176
     1
290
     0
176
     1
290
     0
176
     1
290
     0
176
     1
290
     0
176
     1
290
     0
176
     1
 90
       50
176
     1
 40
0.0
176
     1
 40
1.0
176
     1
 90
        0
176
     1
 62
    18
420
        0
176
     1
 90
       50
176
     1
 90
        3
176
     1
 62
     5
420
      255
176
     1
290
     0
176
     1
 90
       50
176
     1
 90
       50
176
     1
 90
       50
176
     1
290
     0
176
     1
 90
       50
176
     1
 62
   256
176
     0
 40
1.0
176
     0
 90
        2
176
     1
  1
strokes_ogs.tif
176
     1
290
     0
176
     1
 40
1.0
176
     1
 40
1.0
176
     1
  0
VISUALSTYLE
  5
35
102
{ACAD_REACTORS
330
2A
102
}
330
2A
100
AcDbVisualStyle
  2
Dim
 70
    11
177
     3
291
     1
 70
    58
 90
        2
176
     1
 90
        2
176
     1
 90
        0
176
     1
 90
        0
176
     1
 40
0.6
176
     1
 40
30.0
176
     1
 62
     7
420
 16777215
176
     1
 90
        1
176
     1
 90
        4
176
     1
 62
     7
176
     1
 62
   257
176
     1
 90
        1
176
     1
 90
        1
176
     1
 40
1.0
176
     1
 90
        8
176
     1
 62
     7
176
     1
 40
1.0
176
     1
 90
        1
176
     1
 90
        6
176
     1
 90
        2
176
     1
 62
     7
176
     1
 90
        5
176
     1
 90
        0
176
     1
 90
        0
176
     1
290
     0
176
     1
 90
        1
176
     1
 40
-50.0
176
     1
 90
        0
176
     1
290
     0
176
     1
290
     1
176
     1
290
     1
176
     1
290
     0
176
     1
290
     0
176
     1
290
     0
176
     1
290
     0
176
     1
290
     0
176
     1
290
     0
176
     1
 90
       50
176
     1
 40
0.0
176
     1
 40
1.0
176
     1
 90
        0
176
     1
 62
    18
420
        0
176
     1
 90
       50
176
     1
 90
        3
176
     1
 62
     5
420
      255
176
     1
290
     0
176
     1
 90
       50
176
     1
 90
       50
176
     1
 90
       50
176
     1
290
     0
176
     1
 90
       50
176
     1
 62
   256
176
     0
 40
1.0
176
     0
 90
        2
176
     1
  1
strokes_ogs.tif
176
     1
290
     0
176
     1
 40
1.0
176
     1
 40
1.0
176
     1
  0
VISUALSTYLE
  5
3D
102
{ACAD_REACTORS
330
2A
102
}
330
2A
100
AcDbVisualStyle
  2
EdgeColorOff
 70
    22
177
     3
291
     1
 70
    58
 90
        2
176
     0
 90
        2
176
     0
 90
        0
176
     0
 90
        0
176
     0
 40
0.6
176
     0
 40
30.0
176
     0
 62
     7
420
 16777215
176
     0
 90
        1
176
     0
 90
        4
176
     0
 62
     7
176
     0
 62
   257
176
     0
 90
        1
176
     0
 90
        1
176
     0
 40
1.0
176
     0
 90
        8
176
     2
 62
     7
176
     0
 40
1.0
176
     0
 90
        1
176
     0
 90
        6
176
     0
 90
        2
176
     0
 62
     7
176
     0
 90
        5
176
     0
 90
        0
176
     0
 90
        0
176
     0
290
     0
176
     0
 90
        1
176
     0
 40
0.0
176
     0
 90
        0
176
     0
290
     0
176
     0
290
     1
176
     0
290
     1
176
     0
290
     0
176
     0
290
     0
176
     0
290
     0
176
     0
290
     0
176
     0
290
     0
176
     0
290
     0
176
     0
 90
       50
176
     0
 40
0.0
176
     0
 40
1.0
176
     0
 90
        0
176
     0
 62
    18
420
        0
176
     0
 90
       50
176
     0
 90
        3
176
     0
 62
     5
420
      255
176
     0
290
     0
176
     0
 90
       50
176
     0
 90
       50
176
     0
 90
       50
176
     0
290
     0
176
     0
 90
       50
176
     0
 62
   256
176
     0
 40
1.0
176
     0
 90
        2
176
     0
  1
strokes_ogs.tif
176
     0
290
     0
176
     0
 40
1.0
176
     0
 40
1.0
176
     0
  0
VISUALSTYLE
  5
39
102
{ACAD_REACTORS
330
2A
102
}
330
2A
100
AcDbVisualStyle
  2
Facepattern
 70
    15
177
     3
291
     1
 70
    58
 90
        2
176
     1
 90
        2
176
     1
 90
        0
176
     1
 90
        0
176
     1
 40
0.6
176
     1
 40
30.0
176
     1
 62
     7
420
 16777215
176
     1
 90
        1
176
     1
 90
        4
176
     1
 62
     7
176
     1
 62
   257
176
     1
 90
        1
176
     1
 90
        1
176
     1
 40
1.0
176
     1
 90
        8
176
     1
 62
     7
176
     1
 40
1.0
176
     1
 90
        1
176
     1
 90
        6
176
     1
 90
        2
176
     1
 62
     7
176
     1
 90
        5
176
     1
 90
        0
176
     1
 90
        0
176
     1
290
     0
176
     1
 90
        1
176
     1
 40
0.0
176
     1
 90
        0
176
     1
290
     0
176
     1
290
     1
176
     1
290
     1
176
     1
290
     0
176
     1
290
     0
176
     1
290
     0
176
     1
290
     0
176
     1
290
     0
176
     1
290
     0
176
     1
 90
       50
176
     1
 40
0.0
176
     1
 40
1.0
176
     1
 90
        0
176
     1
 62
    18
420
        0
176
     1
 90
       50
176
     1
 90
        3
176
     1
 62
     5
420
      255
176
     1
290
     0
176
     1
 90
       50
176
     1
 90
       50
176
     1
 90
       50
176
     1
290
     0
176
     1
 90
       50
176
     1
 62
   256
176
     0
 40
1.0
176
     0
 90
        2
176
     1
  1
strokes_ogs.tif
176
     1
290
     0
176
     1
 40
1.0
176
     1
 40
1.0
176
     1
  0
VISUALSTYLE
  5
2B
102
{ACAD_REACTORS
330
2A
102
}
330
2A
100
AcDbVisualStyle
  2
Flat
 70
     0
177
     3
291
     1
 70
    58
 90
        2
176
     1
 90
        1
176
     1
 90
        1
176
     1
 90
        2
176
     1
 40
0.6
176
     1
 40
30.0
176
     1
 62
     7
420
 16777215
176
     1
 90
        0
176
     1
 90
        0
176
     1
 62
     7
176
     1
 62
   257
176
     1
 90
        1
176
     1
 90
        1
176
     1
 40
1.0
176
     1
 90
        8
176
     1
 62
     7
176
     1
 40
1.0
176
     1
 90
        1
176
     1
 90
        6
176
     1
 90
        2
176
     1
 62
     7
176
     1
 90
        5
176
     1
 90
        0
176
     1
 90
        0
176
     1
290
     0
176
     1
 90
       13
176
     1
 40
0.0
176
     1
 90
        0
176
     1
290
     0
176
     1
290
     1
176
     1
290
     1
176
     1
290
     0
176
     1
290
     0
176
     1
290
     0
176
     1
290
     0
176
     1
290
     0
176
     1
290
     0
176
     1
 90
       50
176
     1
 40
0.0
176
     1
 40
1.0
176
     1
 90
        0
176
     1
 62
    18
420
        0
176
     1
 90
       50
176
     1
 90
        3
176
     1
 62
     5
420
      255
176
     1
290
     0
176
     1
 90
       50
176
     1
 90
       50
176
     1
 90
       50
176
     1
290
     0
176
     1
 90
       50
176
     1
 62
   256
176
     0
 40
1.0
176
     0
 90
        2
176
     1
  1
strokes_ogs.tif
176
     1
290
     0
176
     1
 40
1.0
176
     1
 40
1.0
176
     1
  0
VISUALSTYLE
  5
2C
102
{ACAD_REACTORS
330
2A
102
}
330
2A
100
AcDbVisualStyle
  2
FlatWithEdges
 70
     1
177
     3
291
     1
 70
    58
 90
        2
176
     1
 90
        1
176
     1
 90
        1
176
     1
 90
        2
176
     1
 40
0.6
176
     1
 40
30.0
176
     1
 62
     7
420
 16777215
176
     1
 90
        1
176
     1
 90
        0
176
     1
 62
     7
176
     1
 62
   257
176
     1
 90
        1
176
     1
 90
        1
176
     1
 40
1.0
176
     1
 90
        0
176
     1
 62
   257
176
     1
 40
1.0
176
     1
 90
        1
176
     1
 90
        6
176
     1
 90
        2
176
     1
 62
     7
176
     1
 90
        5
176
     1
 90
        0
176
     1
 90
        0
176
     1
290
     0
176
     1
 90
       13
176
     1
 40
0.0
176
     1
 90
        0
176
     1
290
     0
176
     1
290
     1
176
     1
290
     1
176
     1
290
     0
176
     1
290
     0
176
     1
290
     0
176
     1
290
     0
176
     1
290
     0
176
     1
290
     0
176
     1
 90
       50
176
     1
 40
0.0
176
     1
 40
1.0
176
     1
 90
        0
176
     1
 62
    18
420
        0
176
     1
 90
       50
176
     1
 90
        3
176
     1
 62
     5
420
      255
176
     1
290
     0
176
     1
 90
       50
176
     1
 90
       50
176
     1
 90
       50
176
     1
290
     0
176
     1
 90
       50
176
     1
 62
   256
176
     0
 40
1.0
176
     0
 90
        2
176
     1
  1
strokes_ogs.tif
176
     1
290
     0
176
     1
 40
1.0
176
     1
 40
1.0
176
     1
  0
VISUALSTYLE
  5
2D
102
{ACAD_REACTORS
330
2A
102
}
330
2A
100
AcDbVisualStyle
  2
Gouraud
 70
     2
177
     3
291
     1
 70
    58
 90
        2
176
     1
 90
        2
176
     1
 90
        1
176
     1
 90
        2
176
     1
 40
0.6
176
     1
 40
30.0
176
     1
 62
     7
420
 16777215
176
     1
 90
        0
176
     1
 90
        0
176
     1
 62
     7
176
     1
 62
   257
176
     1
 90
        1
176
     1
 90
        1
176
     1
 40
1.0
176
     1
 90
        0
176
     1
 62
     7
176
     1
 40
1.0
176
     1
 90
        1
176
     1
 90
        6
176
     1
 90
        2
176
     1
 62
     7
176
     1
 90
        5
176
     1
 90
        0
176
     1
 90
        0
176
     1
290
     0
176
     1
 90
       13
176
     1
 40
0.0
176
     1
 90
        0
176
     1
290
     0
176
     1
290
     1
176
     1
290
     1
176
     1
290
     0
176
     1
290
     0
176
     1
290
     0
176
     1
290
     0
176
     1
290
     0
176
     1
290
     0
176
     1
 90
       50
176
     1
 40
0.0
176
     1
 40
1.0
176
     1
 90
        0
176
     1
 62
    18
420
        0
176
     1
 90
       50
176
     1
 90
        3
176
     1
 62
     5
420
      255
176
     1
290
     0
176
     1
 90
       50
176
     1
 90
       50
176
     1
 90
       50
176
     1
290
     0
176
     1
 90
       50
176
     1
 62
   256
176
     0
 40
1.0
176
     0
 90
        2
176
     1
  1
strokes_ogs.tif
176
     1
290
     0
176
     1
 40
1.0
176
     1
 40
1.0
176
     1
  0
VISUALSTYLE
  5
2E
102
{ACAD_REACTORS
330
2A
102
}
330
2A
100
AcDbVisualStyle
  2
GouraudWithEdges
 70
     3
177
     3
291
     1
 70
    58
 90
        2
176
     1
 90
        2
176
     1
 90
        1
176
     1
 90
        2
176
     1
 40
0.6
176
     1
 40
30.0
176
     1
 62
     7
420
 16777215
176
     1
 90
        1
176
     1
 90
        0
176
     1
 62
     7
176
     1
 62
   257
176
     1
 90
        1
176
     1
 90
        1
176
     1
 40
1.0
176
     1
 90
        0
176
     1
 62
   257
176
     1
 40
1.0
176
     1
 90
        1
176
     1
 90
        6
176
     1
 90
        2
176
     1
 62
     7
176
     1
 90
        5
176
     1
 90
        0
176
     1
 90
        0
176
     1
290
     0
176
     1
 90
       13
176
     1
 40
0.0
176
     1
 90
        0
176
     1
290
     0
176
     1
290
     1
176
     1
290
     1
176
     1
290
     0
176
     1
290
     0
176
     1
290
     0
176
     1
290
     0
176
     1
290
     0
176
     1
290
     0
176
     1
 90
       50
176
     1
 40
0.0
176
     1
 40
1.0
176
     1
 90
        0
176
     1
 62
    18
420
        0
176
     1
 90
       50
176
     1
 90
        3
176
     1
 62
     5
420
      255
176
     1
290
     0
176
     1
 90
       50
176
     1
 90
       50
176
     1
 90
       50
176
     1
290
     0
176
     1
 90
       50
176
     1
 62
   256
176
     0
 40
1.0
176
     0
 90
        2
176
     1
  1
strokes_ogs.tif
176
     1
290
     0
176
     1
 40
1.0
176
     1
 40
1.0
176
     1
  0
VISUALSTYLE
  5
31
102
{ACAD_REACTORS
330
2A
102
}
330
2A
100
AcDbVisualStyle
  2
Hidden
 70
     6
177
     3
291
     0
 70
    58
 90
        1
176
     1
 90
        2
176
     1
 90
        2
176
     1
 90
        0
176
     1
 40
0.6
176
     1
 40
30.0
176
     1
 62
     7
420
 16777215
176
     1
 90
        2
176
     1
 90
        2
176
     1
 62
     7
176
     1
 62
   257
176
     1
 90
        2
176
     1
 90
        1
176
     1
 40
40.0
176
     1
 90
        0
176
     1
 62
   257
176
     1
 40
1.0
176
     1
 90
        1
176
     1
 90
        6
176
     1
 90
        2
176
     1
 62
     7
176
     1
 90
        3
176
     1
 90
        0
176
     1
 90
        0
176
     1
290
     0
176
     1
 90
        1
176
     1
 40
0.0
176
     1
 90
        0
176
     1
290
     0
176
     1
290
     1
176
     1
290
     1
176
     1
290
     0
176
     1
290
     0
176
     1
290
     0
176
     1
290
     0
176
     1
290
     0
176
     1
290
     0
176
     1
 90
       50
176
     1
 40
0.0
176
     1
 40
1.0
176
     1
 90
        0
176
     1
 62
    18
420
        0
176
     1
 90
       50
176
     1
 90
        3
176
     1
 62
     5
420
      255
176
     1
290
     0
176
     1
 90
       50
176
     1
 90
       50
176
     1
 90
       50
176
     1
290
     0
176
     1
 90
       50
176
     1
 62
   256
176
     0
 40
1.0
176
     0
 90
        2
176
     1
  1
strokes_ogs.tif
176
     1
290
     0
176
     1
 40
1.0
176
     1
 40
1.0
176
     1
  0
VISUALSTYLE
  5
3B
102
{ACAD_REACTORS
330
2A
102
}
330
2A
100
AcDbVisualStyle
  2
JitterOff
 70
    20
177
     3
291
     1
 70
    58
 90
        2
176
     0
 90
        2
176
     0
 90
        0
176
     0
 90
        0
176
     0
 40
0.6
176
     0
 40
30.0
176
     0
 62
     7
420
 16777215
176
     0
 90
        1
176
     0
 90
        4
176
     0
 62
     7
176
     0
 62
   257
176
     0
 90
        1
176
     0
 90
        1
176
     0
 40
1.0
176
     0
 90
       10
176
     2
 62
     7
176
     0
 40
1.0
176
     0
 90
        1
176
     0
 90
        6
176
     0
 90
        2
176
     0
 62
     7
176
     0
 90
        5
176
     0
 90
        0
176
     0
 90
        0
176
     0
290
     0
176
     0
 90
        1
176
     0
 40
0.0
176
     0
 90
        0
176
     0
290
     0
176
     0
290
     1
176
     0
290
     1
176
     0
290
     0
176
     0
290
     0
176
     0
290
     0
176
     0
290
     0
176
     0
290
     0
176
     0
290
     0
176
     0
 90
       50
176
     0
 40
0.0
176
     0
 40
1.0
176
     0
 90
        0
176
     0
 62
    18
420
        0
176
     0
 90
       50
176
     0
 90
        3
176
     0
 62
     5
420
      255
176
     0
290
     0
176
     0
 90
       50
176
     0
 90
       50
176
     0
 90
       50
176
     0
290
     0
176
     0
 90
       50
176
     0
 62
   256
176
     0
 40
1.0
176
     0
 90
        2
176
     0
  1
strokes_ogs.tif
176
     0
290
     0
176
     0
 40
1.0
176
     0
 40
1.0
176
     0
  0
VISUALSTYLE
  5
38
102
{ACAD_REACTORS
330
2A
102
}
330
2A
100
AcDbVisualStyle
  2
Linepattern
 70
    14
177
     3
291
     1
 70
    58
 90
        2
176
     1
 90
        2
176
     1
 90
        0
176
     1
 90
        0
176
     1
 40
0.6
176
     1
 40
30.0
176
     1
 62
     7
420
 16777215
176
     1
 90
        1
176
     1
 90
        4
176
     1
 62
     7
176
     1
 62
   257
176
     1
 90
        7
176
     1
 90
        7
176
     1
 40
1.0
176
     1
 90
        8
176
     1
 62
     7
176
     1
 40
1.0
176
     1
 90
        1
176
     1
 90
        6
176
     1
 90
        2
176
     1
 62
     7
176
     1
 90
        5
176
     1
 90
        0
176
     1
 90
        0
176
     1
290
     0
176
     1
 90
        1
176
     1
 40
0.0
176
     1
 90
        0
176
     1
290
     0
176
     1
290
     1
176
     1
290
     1
176
     1
290
     0
176
     1
290
     0
176
     1
290
     0
176
     1
290
     0
176
     1
290
     0
176
     1
290
     0
176
     1
 90
       50
176
     1
 40
0.0
176
     1
 40
1.0
176
     1
 90
        0
176
     1
 62
    18
420
        0
176
     1
 90
       50
176
     1
 90
        3
176
     1
 62
     5
420
      255
176
     1
290
     0
176
     1
 90
       50
176
     1
 90
       50
176
     1
 90
       50
176
     1
290
     0
176
     1
 90
       50
176
     1
 62
   256
176
     0
 40
1.0
176
     0
 90
        2
176
     1
  1
strokes_ogs.tif
176
     1
290
     0
176
     1
 40
1.0
176
     1
 40
1.0
176
     1
  0
VISUALSTYLE
  5
3C
102
{ACAD_REACTORS
330
2A
102
}
330
2A
100
AcDbVisualStyle
  2
OverhangOff
 70
    21
177
     3
291
     1
 70
    58
 90
        2
176
     0
 90
        2
176
     0
 90
        0
176
     0
 90
        0
176
     0
 40
0.6
176
     0
 40
30.0
176
     0
 62
     7
420
 16777215
176
     0
 90
        1
176
     0
 90
        4
176
     0
 62
     7
176
     0
 62
   257
176
     0
 90
        1
176
     0
 90
        1
176
     0
 40
1.0
176
     0
 90
        9
176
     2
 62
     7
176
     0
 40
1.0
176
     0
 90
        1
176
     0
 90
        6
176
     0
 90
        2
176
     0
 62
     7
176
     0
 90
        5
176
     0
 90
        0
176
     0
 90
        0
176
     0
290
     0
176
     0
 90
        1
176
     0
 40
0.0
176
     0
 90
        0
176
     0
290
     0
176
     0
290
     1
176
     0
290
     1
176
     0
290
     0
176
     0
290
     0
176
     0
290
     0
176
     0
290
     0
176
     0
290
     0
176
     0
290
     0
176
     0
 90
       50
176
     0
 40
0.0
176
     0
 40
1.0
176
     0
 90
        0
176
     0
 62
    18
420
        0
176
     0
 90
       50
176
     0
 90
        3
176
     0
 62
     5
420
      255
176
     0
290
     0
176
     0
 90
       50
176
     0
 90
       50
176
     0
 90
       50
176
     0
290
     0
176
     0
 90
       50
176
     0
 62
   256
176
     0
 40
1.0
176
     0
 90
        2
176
     0
  1
strokes_ogs.tif
176
     0
290
     0
176
     0
 40
1.0
176
     0
 40
1.0
176
     0
  0
VISUALSTYLE
  5
33
102
{ACAD_REACTORS
330
2A
102
}
330
2A
100
AcDbVisualStyle
  2
Realistic
 70
     8
177
     3
291
     0
 70
    58
 90
        2
176
     1
 90
        3
176
     1
 90
        0
176
     1
 90
        2
176
     1
 40
0.6
176
     1
 40
30.0
176
     1
 62
     7
420
 16777215
176
     1
 90
        0
176
     1
 90
        0
176
     1
 62
     7
176
     1
 62
   257
176
     1
 90
        1
176
     1
 90
        1
176
     1
 40
1.0
176
     1
 90
        8
176
     1
 62
   257
176
     1
 40
1.0
176
     1
 90
        1
176
     1
 90
        6
176
     1
 90
        2
176
     1
 62
     7
176
     1
 90
        3
176
     1
 90
        0
176
     1
 90
        0
176
     1
290
     0
176
     1
 90
       13
176
     1
 40
0.0
176
     1
 90
        0
176
     1
290
     0
176
     1
290
     1
176
     1
290
     1
176
     1
290
     0
176
     1
290
     0
176
     1
290
     0
176
     1
290
     0
176
     1
290
     0
176
     1
290
     0
176
     1
 90
       50
176
     1
 40
0.0
176
     1
 40
1.0
176
     1
 90
        0
176
     1
 62
    18
420
        0
176
     1
 90
       50
176
     1
 90
        3
176
     1
 62
     5
420
      255
176
     1
290
     0
176
     1
 90
       50
176
     1
 90
       50
176
     1
 90
       50
176
     1
290
     0
176
     1
 90
       50
176
     1
 62
   256
176
     0
 40
1.0
176
     0
 90
        2
176
     1
  1
strokes_ogs.tif
176
     1
290
     0
176
     1
 40
1.0
176
     1
 40
1.0
176
     1
  0
VISUALSTYLE
  5
42
102
{ACAD_REACTORS
330
2A
102
}
330
2A
100
AcDbVisualStyle
  2
Shaded
 70
    27
177
     3
291
     0
 70
    58
 90
        2
176
     1
 90
        2
176
     1
 90
        1
176
     1
 90
        2
176
     1
 40
0.6
176
     1
 40
30.0
176
     1
 62
     7
420
 16777215
176
     1
 90
        0
176
     1
 90
        4
176
     1
 62
     7
176
     1
 62
   257
176
     1
 90
        1
176
     1
 90
        1
176
     1
 40
1.0
176
     1
 90
        8
176
     1
 62
   257
176
     1
 40
1.0
176
     1
 90
        1
176
     1
 90
        6
176
     1
 90
        2
176
     1
 62
     8
420
  7895160
176
     1
 90
        3
176
     1
 90
        0
176
     1
 90
        0
176
     1
290
     0
176
     1
 90
        5
176
     1
 40
0.0
176
     1
 90
        0
176
     1
290
     0
176
     1
290
     1
176
     1
290
     1
176
     1
290
     0
176
     1
290
     0
176
     1
290
     0
176
     1
290
     0
176
     1
290
     0
176
     1
290
     0
176
     1
 90
       50
176
     1
 40
0.0
176
     1
 40
1.0
176
     1
 90
        0
176
     1
 62
    18
420
        0
176
     1
 90
       50
176
     1
 90
        3
176
     1
 62
     5
420
      255
176
     1
290
     0
176
     1
 90
       50
176
     1
 90
       50
176
     1
 90
       50
176
     1
290
     0
176
     1
 90
       50
176
     1
 62
   256
176
     0
 40
1.0
176
     0
 90
        2
176
     1
  1
strokes_ogs.tif
176
     1
290
     0
176
     1
 40
1.0
176
     1
 40
1.0
176
     1
  0
VISUALSTYLE
  5
41
102
{ACAD_REACTORS
330
2A
102
}
330
2A
100
AcDbVisualStyle
  2
Shaded with edges
 70
    26
177
     3
291
     0
 70
    58
 90
        2
176
     1
 90
        2
176
     1
 90
        1
176
     1
 90
        2
176
     1
 40
0.6
176
     1
 40
30.0
176
     1
 62
     7
420
 16777215
176
     1
 90
        1
176
     1
 90
       10
176
     1
 62
     7
176
     1
 62
   257
176
     1
 90
        2
176
     1
 90
        1
176
     1
 40
1.0
176
     1
 90
        8
176
     1
 62
   257
176
     1
 40
1.0
176
     1
 90
        1
176
     1
 90
        6
176
     1
 90
        2
176
     1
 62
     7
176
     1
 90
        3
176
     1
 90
        0
176
     1
 90
        0
176
     1
290
     0
176
     1
 90
        5
176
     1
 40
0.0
176
     1
 90
        0
176
     1
290
     0
176
     1
290
     1
176
     1
290
     1
176
     1
290
     0
176
     1
290
     0
176
     1
290
     0
176
     1
290
     0
176
     1
290
     0
176
     1
290
     0
176
     1
 90
       50
176
     1
 40
0.0
176
     1
 40
1.0
176
     1
 90
        0
176
     1
 62
    18
420
        0
176
     1
 90
       50
176
     1
 90
        3
176
     1
 62
     5
420
      255
176
     1
290
     0
176
     1
 90
       50
176
     1
 90
       50
176
     1
 90
       50
176
     1
290
     0
176
     1
 90
       50
176
     1
 62
   256
176
     0
 40
1.0
176
     0
 90
        2
176
     1
  1
strokes_ogs.tif
176
     1
290
     0
176
     1
 40
1.0
176
     1
 40
1.0
176
     1
  0
VISUALSTYLE
  5
3E
102
{ACAD_REACTORS
330
2A
102
}
330
2A
100
AcDbVisualStyle
  2
Shades of Gray
 70
    23
177
     3
291
     0
 70
    58
 90
        2
176
     1
 90
        2
176
     1
 90
        3
176
     1
 90
        0
176
     1
 40
0.6
176
     1
 40
30.0
176
     1
 62
     7
420
 16777215
176
     1
 90
        2
176
     1
 90
        2
176
     1
 62
     7
176
     1
 62
     7
176
     1
 90
        1
176
     1
 90
        1
176
     1
 40
40.0
176
     1
 90
        8
176
     1
 62
     7
176
     1
 40
1.0
176
     1
 90
        1
176
     1
 90
        6
176
     1
 90
        2
176
     1
 62
     7
176
     1
 90
        3
176
     1
 90
        0
176
     1
 90
        0
176
     1
290
     0
176
     1
 90
        1
176
     1
 40
0.0
176
     1
 90
        0
176
     1
290
     0
176
     1
290
     1
176
     1
290
     1
176
     1
290
     0
176
     1
290
     0
176
     1
290
     0
176
     1
290
     0
176
     1
290
     0
176
     1
290
     0
176
     1
 90
       50
176
     1
 40
0.0
176
     1
 40
1.0
176
     1
 90
        0
176
     1
 62
    18
420
        0
176
     1
 90
       50
176
     1
 90
        3
176
     1
 62
     5
420
      255
176
     1
290
     0
176
     1
 90
       50
176
     1
 90
       50
176
     1
 90
       50
176
     1
290
     0
176
     1
 90
       50
176
     1
 62
   256
176
     0
 40
1.0
176
     0
 90
        2
176
     1
  1
strokes_ogs.tif
176
     1
290
     0
176
     1
 40
1.0
176
     1
 40
1.0
176
     1
  0
VISUALSTYLE
  5
3F
102
{ACAD_REACTORS
330
2A
102
}
330
2A
100
AcDbVisualStyle
  2
Sketchy
 70
    24
177
     3
291
     0
 70
    58
 90
        1
176
     1
 90
        2
176
     1
 90
        2
176
     1
 90
        0
176
     1
 40
0.6
176
     1
 40
30.0
176
     1
 62
     7
420
 16777215
176
     1
 90
        2
176
     1
 90
        2
176
     1
 62
     7
176
     1
 62
     7
176
     1
 90
        1
176
     1
 90
        1
176
     1
 40
40.0
176
     1
 90
       11
176
     1
 62
     7
176
     1
 40
1.0
176
     1
 90
        1
176
     1
 90
        6
176
     1
 90
        2
176
     1
 62
     7
176
     1
 90
        6
176
     1
 90
        0
176
     1
 90
        0
176
     1
290
     0
176
     1
 90
        1
176
     1
 40
0.0
176
     1
 90
        0
176
     1
290
     0
176
     1
290
     1
176
     1
290
     1
176
     1
290
     0
176
     1
290
     0
176
     1
290
     0
176
     1
290
     0
176
     1
290
     0
176
     1
290
     0
176
     1
 90
       50
176
     1
 40
0.0
176
     1
 40
1.0
176
     1
 90
        0
176
     1
 62
    18
420
        0
176
     1
 90
       50
176
     1
 90
        3
176
     1
 62
     5
420
      255
176
     1
290
     0
176
     1
 90
       50
176
     1
 90
       50
176
     1
 90
       50
176
     1
290
     0
176
     1
 90
       50
176
     1
 62
   256
176
     0
 40
1.0
176
     0
 90
        2
176
     1
  1
strokes_ogs.tif
176
     1
290
     0
176
     1
 40
1.0
176
     1
 40
1.0
176
     1
  0
VISUALSTYLE
  5
37
102
{ACAD_REACTORS
330
2A
102
}
330
2A
100
AcDbVisualStyle
  2
Thicken
 70
    13
177
     3
291
     1
 70
    58
 90
        2
176
     1
 90
        2
176
     1
 90
        0
176
     1
 90
        0
176
     1
 40
0.6
176
     1
 40
30.0
176
     1
 62
     7
420
 16777215
176
     1
 90
        1
176
     1
 90
        4
176
     1
 62
     7
176
     1
 62
   257
176
     1
 90
        1
176
     1
 90
        1
176
     1
 40
1.0
176
     1
 90
       12
176
     1
 62
     7
176
     1
 40
1.0
176
     1
 90
        1
176
     1
 90
        6
176
     1
 90
        2
176
     1
 62
     7
176
     1
 90
        5
176
     1
 90
        0
176
     1
 90
        0
176
     1
290
     0
176
     1
 90
        1
176
     1
 40
0.0
176
     1
 90
        0
176
     1
290
     0
176
     1
290
     1
176
     1
290
     1
176
     1
290
     0
176
     1
290
     0
176
     1
290
     0
176
     1
290
     0
176
     1
290
     0
176
     1
290
     0
176
     1
 90
       50
176
     1
 40
0.0
176
     1
 40
1.0
176
     1
 90
        0
176
     1
 62
    18
420
        0
176
     1
 90
       50
176
     1
 90
        3
176
     1
 62
     5
420
      255
176
     1
290
     0
176
     1
 90
       50
176
     1
 90
       50
176
     1
 90
       50
176
     1
290
     0
176
     1
 90
       50
176
     1
 62
   256
176
     0
 40
1.0
176
     0
 90
        2
176
     1
  1
strokes_ogs.tif
176
     1
290
     0
176
     1
 40
1.0
176
     1
 40
1.0
176
     1
  0
VISUALSTYLE
  5
30
102
{ACAD_REACTORS
330
2A
102
}
330
2A
100
AcDbVisualStyle
  2
Wireframe
 70
     5
177
     3
291
     0
 70
    58
 90
        0
176
     1
 90
        2
176
     1
 90
        0
176
     1
 90
        0
176
     1
 40
0.6
176
     1
 40
30.0
176
     1
 62
     7
420
 16777215
176
     1
 90
        1
176
     1
 90
        4
176
     1
 62
     7
176
     1
 62
   257
176
     1
 90
        1
176
     1
 90
        1
176
     1
 40
1.0
176
     1
 90
        0
176
     1
 62
   257
176
     1
 40
1.0
176
     1
 90
        1
176
     1
 90
        6
176
     1
 90
        2
176
     1
 62
     7
176
     1
 90
        3
176
     1
 90
        0
176
     1
 90
        0
176
     1
290
     0
176
     1
 90
        1
176
     1
 40
0.0
176
     1
 90
        0
176
     1
290
     0
176
     1
290
     1
176
     1
290
     1
176
     1
290
     0
176
     1
290
     0
176
     1
290
     0
176
     1
290
     0
176
     1
290
     0
176
     1
290
     0
176
     1
 90
       50
176
     1
 40
0.0
176
     1
 40
1.0
176
     1
 90
        0
176
     1
 62
    18
420
        0
176
     1
 90
       50
176
     1
 90
        3
176
     1
 62
     5
420
      255
176
     1
290
     0
176
     1
 90
       50
176
     1
 90
       50
176
     1
 90
       50
176
     1
290
     0
176
     1
 90
       50
176
     1
 62
   256
176
     0
 40
1.0
176
     0
 90
        2
176
     1
  1
strokes_ogs.tif
176
     1
290
     0
176
     1
 40
1.0
176
     1
 40
1.0
176
     1
  0
VISUALSTYLE
  5
40
102
{ACAD_REACTORS
330
2A
102
}
330
2A
100
AcDbVisualStyle
  2
X-Ray
 70
    25
177
     3
291
     0
 70
    58
 90
        2
176
     1
 90
        2
176
     1
 90
        1
176
     1
 90
        1
176
     1
 40
0.5
176
     1
 40
30.0
176
     1
 62
     7
420
 16777215
176
     1
 90
        1
176
     1
 90
        0
176
     1
 62
     7
176
     1
 62
   257
176
     1
 90
        1
176
     1
 90
        1
176
     1
 40
1.0
176
     1
 90
        8
176
     1
 62
     7
176
     1
 40
1.0
176
     1
 90
        1
176
     1
 90
        6
176
     1
 90
        2
176
     1
 62
     7
176
     1
 90
        3
176
     1
 90
        0
176
     1
 90
        0
176
     1
290
     0
176
     1
 90
       13
176
     1
 40
0.0
176
     1
 90
        0
176
     1
290
     0
176
     1
290
     1
176
     1
290
     1
176
     1
290
     0
176
     1
290
     0
176
     1
290
     0
176
     1
290
     0
176
     1
290
     0
176
     1
290
     0
176
     1
 90
       50
176
     1
 40
0.0
176
     1
 40
1.0
176
     1
 90
        0
176
     1
 62
    18
420
        0
176
     1
 90
       50
176
     1
 90
        3
176
     1
 62
     5
420
      255
176
     1
290
     0
176
     1
 90
       50
176
     1
 90
       50
176
     1
 90
       50
176
     1
290
     0
176
     1
 90
       50
176
     1
 62
   256
176
     0
 40
1.0
176
     0
 90
        2
176
     1
  1
strokes_ogs.tif
176
     1
290
     0
176
     1
 40
1.0
176
     1
 40
1.0
176
     1
  0
DICTIONARYVAR
  5
288
102
{ACAD_REACTORS
330
287
102
}
330
287
100
DictionaryVariables
280
     0
  1
1:1
  0
DICTIONARYVAR
  5
28D
102
{ACAD_REACTORS
330
287
102
}
330
287
100
DictionaryVariables
280
     0
  1
Standard
  0
DICTIONARYVAR
  5
28C
102
{ACAD_REACTORS
330
287
102
}
330
287
100
DictionaryVariables
280
     0
  1
Standard
  0
DICTIONARYVAR
  5
290
102
{ACAD_REACTORS
330
287
102
}
330
287
100
DictionaryVariables
280
     0
  1
6.000000
  0
DICTIONARY
  5
289
330
6A
100
AcDbDictionary
280
     1
281
     1
  3
ACAD_ROUNDTRIP_2008_TABLESTYLE_CELLSTYLEMAP
360
28A
  0
CELLSTYLEMAP
  5
28A
102
{ACAD_REACTORS
330
289
102
}
330
289
100
AcDbCellStyleMap
 90
        3
300
CELLSTYLE
  1
TABLEFORMAT_BEGIN
 90
        5
170
     1
 91
        0
 92
    32768
 62
   257
 93
        1
300
CONTENTFORMAT
  1
CONTENTFORMAT_BEGIN
 90
        0
 91
        0
 92
        4
 93
        0
300

 40
0.0
140
1.0
 94
        5
 62
     0
340
11
144
6.0
309
CONTENTFORMAT_END
171
     1
301
MARGIN
  1
CELLMARGIN_BEGIN
 40
1.5
 40
1.5
 40
1.5
 40
1.5
 40
1.5
 40
1.5
309
CELLMARGIN_END
 94
        6
 95
        1
302
GRIDFORMAT
  1
GRIDFORMAT_BEGIN
 90
        0
 91
        1
 62
     0
 92
       -2
340
14
 93
        0
 40
0.045
309
GRIDFORMAT_END
 95
        2
302
GRIDFORMAT
  1
GRIDFORMAT_BEGIN
 90
        0
 91
        1
 62
     0
 92
       -2
340
14
 93
        0
 40
0.045
309
GRIDFORMAT_END
 95
        4
302
GRIDFORMAT
  1
GRIDFORMAT_BEGIN
 90
        0
 91
        1
 62
     0
 92
       -2
340
14
 93
        0
 40
0.045
309
GRIDFORMAT_END
 95
        8
302
GRIDFORMAT
  1
GRIDFORMAT_BEGIN
 90
        0
 91
        1
 62
     0
 92
       -2
340
14
 93
        0
 40
0.045
309
GRIDFORMAT_END
 95
       16
302
GRIDFORMAT
  1
GRIDFORMAT_BEGIN
 90
        0
 91
        1
 62
     0
 92
       -2
340
14
 93
        0
 40
0.045
309
GRIDFORMAT_END
 95
       32
302
GRIDFORMAT
  1
GRIDFORMAT_BEGIN
 90
        0
 91
        1
 62
     0
 92
       -2
340
14
 93
        0
 40
0.045
309
GRIDFORMAT_END
309
TABLEFORMAT_END
  1
CELLSTYLE_BEGIN
 90
        1
 91
        1
300
_TITLE
309
CELLSTYLE_END
300
CELLSTYLE
  1
TABLEFORMAT_BEGIN
 90
        5
170
     1
 91
        0
 92
        0
 62
   257
 93
        1
300
CONTENTFORMAT
  1
CONTENTFORMAT_BEGIN
 90
        0
 91
        0
 92
        4
 93
        0
300

 40
0.0
140
1.0
 94
        5
 62
     0
340
11
144
4.5
309
CONTENTFORMAT_END
171
     1
301
MARGIN
  1
CELLMARGIN_BEGIN
 40
1.5
 40
1.5
 40
1.5
 40
1.5
 40
1.5
 40
1.5
309
CELLMARGIN_END
 94
        6
 95
        1
302
GRIDFORMAT
  1
GRIDFORMAT_BEGIN
 90
        0
 91
        1
 62
     0
 92
       -2
340
14
 93
        0
 40
0.045
309
GRIDFORMAT_END
 95
        2
302
GRIDFORMAT
  1
GRIDFORMAT_BEGIN
 90
        0
 91
        1
 62
     0
 92
       -2
340
14
 93
        0
 40
0.045
309
GRIDFORMAT_END
 95
        4
302
GRIDFORMAT
  1
GRIDFORMAT_BEGIN
 90
        0
 91
        1
 62
     0
 92
       -2
340
14
 93
        0
 40
0.045
309
GRIDFORMAT_END
 95
        8
302
GRIDFORMAT
  1
GRIDFORMAT_BEGIN
 90
        0
 91
        1
 62
     0
 92
       -2
340
14
 93
        0
 40
0.045
309
GRIDFORMAT_END
 95
       16
302
GRIDFORMAT
  1
GRIDFORMAT_BEGIN
 90
        0
 91
        1
 62
     0
 92
       -2
340
14
 93
        0
 40
0.045
309
GRIDFORMAT_END
 95
       32
302
GRIDFORMAT
  1
GRIDFORMAT_BEGIN
 90
        0
 91
        1
 62
     0
 92
       -2
340
14
 93
        0
 40
0.045
309
GRIDFORMAT_END
309
TABLEFORMAT_END
  1
CELLSTYLE_BEGIN
 90
        2
 91
        1
300
_HEADER
309
CELLSTYLE_END
300
CELLSTYLE
  1
TABLEFORMAT_BEGIN
 90
        5
170
     1
 91
        0
 92
        0
 62
   257
 93
        1
300
CONTENTFORMAT
  1
CONTENTFORMAT_BEGIN
 90
        0
 91
        0
 92
        4
 93
        0
300

 40
0.0
140
1.0
 94
        2
 62
     0
340
11
144
4.5
309
CONTENTFORMAT_END
171
     1
301
MARGIN
  1
CELLMARGIN_BEGIN
 40
1.5
 40
1.5
 40
1.5
 40
1.5
 40
1.5
 40
1.5
309
CELLMARGIN_END
 94
        6
 95
        1
302
GRIDFORMAT
  1
GRIDFORMAT_BEGIN
 90
        0
 91
        1
 62
     0
 92
       -2
340
14
 93
        0
 40
0.045
309
GRIDFORMAT_END
 95
        2
302
GRIDFORMAT
  1
GRIDFORMAT_BEGIN
 90
        0
 91
        1
 62
     0
 92
       -2
340
14
 93
        0
 40
0.045
309
GRIDFORMAT_END
 95
        4
302
GRIDFORMAT
  1
GRIDFORMAT_BEGIN
 90
        0
 91
        1
 62
     0
 92
       -2
340
14
 93
        0
 40
0.045
309
GRIDFORMAT_END
 95
        8
302
GRIDFORMAT
  1
GRIDFORMAT_BEGIN
 90
        0
 91
        1
 62
     0
 92
       -2
340
14
 93
        0
 40
0.045
309
GRIDFORMAT_END
 95
       16
302
GRIDFORMAT
  1
GRIDFORMAT_BEGIN
 90
        0
 91
        1
 62
     0
 92
       -2
340
14
 93
        0
 40
0.045
309
GRIDFORMAT_END
 95
       32
302
GRIDFORMAT
  1
GRIDFORMAT_BEGIN
 90
        0
 91
        1
 62
     0
 92
       -2
340
14
 93
        0
 40
0.045
309
GRIDFORMAT_END
309
TABLEFORMAT_END
  1
CELLSTYLE_BEGIN
 90
        3
 91
        2
300
_DATA
309
CELLSTYLE_END
  0
ENDSEC
  0
EOF
