  0
SECTION
  2
HEADER
  9
$ACADVER
  1
AC1015
  9
$ACADMAINTVER
 70
     6
  9
$DWGCODEPAGE
  3
ANSI_1252
  9
$INSBASE
 10
0.0
 20
0.0
 30
0.0
  9
$EXTMIN
 10
-215.007064
 20
-150.200467
 30
0.0
  9
$EXTMAX
 10
624.992936
 20
443.799533
 30
0.0
  9
$LIMMIN
 10
-215.007064
 20
-150.200467
  9
$LIMMAX
 10
624.992936
 20
443.799533
  9
$ORTHOMODE
 70
     0
  9
$REGENMODE
 70
     1
  9
$FILLMODE
 70
     1
  9
$QTEXTMODE
 70
     0
  9
$MIRRTEXT
 70
     1
  9
$LTSCALE
 40
2.0
  9
$ATTMODE
 70
     1
  9
$TEXTSIZE
 40
2.5
  9
$TRACEWID
 40
1.0
  9
$TEXTSTYLE
  7
Standard
  9
$CLAYER
  8
0
  9
$CELTYPE
  6
ByLayer
  9
$CECOLOR
 62
     7
  9
$CELTSCALE
 40
1.0
  9
$DISPSILH
 70
     0
  9
$DIMSCALE
 40
2.0
  9
$DIMASZ
 40
3.5
  9
$DIMEXO
 40
0.625
  9
$DIMDLI
 40
3.75
  9
$DIMRND
 40
0.0
  9
$DIMDLE
 40
0.0
  9
$DIMEXE
 40
1.25
  9
$DIMTP
 40
0.0
  9
$DIMTM
 40
0.0
  9
$DIMTXT
 40
3.5
  9
$DIMCEN
 40
2.5
  9
$DIMTSZ
 40
0.0
  9
$DIMTOL
 70
     0
  9
$DIMLIM
 70
     0
  9
$DIMTIH
 70
     0
  9
$DIMTOH
 70
     0
  9
$DIMSE1
 70
     0
  9
$DIMSE2
 70
     0
  9
$DIMTAD
 70
     1
  9
$DIMZIN
 70
     8
  9
$DIMBLK
  1

  9
$DIMASO
 70
     1
  9
$DIMSHO
 70
     1
  9
$DIMPOST
  1

  9
$DIMAPOST
  1

  9
$DIMALT
 70
     0
  9
$DIMALTD
 70
     3
  9
$DIMALTF
 40
0.03937
  9
$DIMLFAC
 40
1.0
  9
$DIMTOFL
 70
     1
  9
$DIMTVP
 40
0.0
  9
$DIMTIX
 70
     0
  9
$DIMSOXD
 70
     0
  9
$DIMSAH
 70
     0
  9
$DIMBLK1
  1

  9
$DIMBLK2
  1

  9
$DIMSTYLE
  2
ISO-25
  9
$DIMCLRD
 70
     0
  9
$DIMCLRE
 70
     0
  9
$DIMCLRT
 70
     0
  9
$DIMTFAC
 40
1.0
  9
$DIMGAP
 40
0.625
  9
$DIMJUST
 70
     0
  9
$DIMSD1
 70
     0
  9
$DIMSD2
 70
     0
  9
$DIMTOLJ
 70
     0
  9
$DIMTZIN
 70
     8
  9
$DIMALTZ
 70
     0
  9
$DIMALTTZ
 70
     0
  9
$DIMUPT
 70
     0
  9
$DIMDEC
 70
     2
  9
$DIMTDEC
 70
     2
  9
$DIMALTU
 70
     2
  9
$DIMALTTD
 70
     3
  9
$DIMTXSTY
  7
Standard
  9
$DIMAUNIT
 70
     0
  9
$DIMADEC
 70
     0
  9
$DIMALTRND
 40
0.0
  9
$DIMAZIN
 70
     0
  9
$DIMDSEP
 70
    44
  9
$DIMATFIT
 70
     3
  9
$DIMFRAC
 70
     0
  9
$DIMLDRBLK
  1

  9
$DIMLUNIT
 70
     2
  9
$DIMLWD
 70
    -2
  9
$DIMLWE
 70
    -2
  9
$DIMTMOVE
 70
     0
  9
$LUNITS
 70
     2
  9
$LUPREC
 70
     4
  9
$SKETCHINC
 40
1.0
  9
$FILLETRAD
 40
10.0
  9
$AUNITS
 70
     0
  9
$AUPREC
 70
     0
  9
$MENU
  1
.
  9
$ELEVATION
 40
0.0
  9
$PELEVATION
 40
0.0
  9
$THICKNESS
 40
0.0
  9
$LIMCHECK
 70
     0
  9
$CHAMFERA
 40
10.0
  9
$CHAMFERB
 40
10.0
  9
$CHAMFERC
 40
20.0
  9
$CHAMFERD
 40
0.0
  9
$SKPOLY
 70
     0
  9
$TDCREATE
 40
2455901.574160544
  9
$TDUCREATE
 40
2455901.532493877
  9
$TDUPDATE
 40
2455901.574160555
  9
$TDUUPDATE
 40
2455901.532493889
  9
$TDINDWG
 40
0.0000000116
  9
$TDUSRTIMER
 40
0.0000000116
  9
$USRTIMER
 70
     1
  9
$ANGBASE
 50
0.0
  9
$ANGDIR
 70
     0
  9
$PDMODE
 70
     0
  9
$PDSIZE
 40
0.0
  9
$PLINEWID
 40
0.0
  9
$SPLFRAME
 70
     0
  9
$SPLINETYPE
 70
     6
  9
$SPLINESEGS
 70
     8
  9
$HANDSEED
  5
733
  9
$SURFTAB1
 70
     6
  9
$SURFTAB2
 70
     6
  9
$SURFTYPE
 70
     6
  9
$SURFU
 70
     6
  9
$SURFV
 70
     6
  9
$UCSBASE
  2

  9
$UCSNAME
  2

  9
$UCSORG
 10
0.0
 20
0.0
 30
0.0
  9
$UCSXDIR
 10
1.0
 20
0.0
 30
0.0
  9
$UCSYDIR
 10
0.0
 20
1.0
 30
0.0
  9
$UCSORTHOREF
  2

  9
$UCSORTHOVIEW
 70
     0
  9
$UCSORGTOP
 10
0.0
 20
0.0
 30
0.0
  9
$UCSORGBOTTOM
 10
0.0
 20
0.0
 30
0.0
  9
$UCSORGLEFT
 10
0.0
 20
0.0
 30
0.0
  9
$UCSORGRIGHT
 10
0.0
 20
0.0
 30
0.0
  9
$UCSORGFRONT
 10
0.0
 20
0.0
 30
0.0
  9
$UCSORGBACK
 10
0.0
 20
0.0
 30
0.0
  9
$PUCSBASE
  2

  9
$PUCSNAME
  2

  9
$PUCSORG
 10
0.0
 20
0.0
 30
0.0
  9
$PUCSXDIR
 10
1.0
 20
0.0
 30
0.0
  9
$PUCSYDIR
 10
0.0
 20
1.0
 30
0.0
  9
$PUCSORTHOREF
  2

  9
$PUCSORTHOVIEW
 70
     0
  9
$PUCSORGTOP
 10
0.0
 20
0.0
 30
0.0
  9
$PUCSORGBOTTOM
 10
0.0
 20
0.0
 30
0.0
  9
$PUCSORGLEFT
 10
0.0
 20
0.0
 30
0.0
  9
$PUCSORGRIGHT
 10
0.0
 20
0.0
 30
0.0
  9
$PUCSORGFRONT
 10
0.0
 20
0.0
 30
0.0
  9
$PUCSORGBACK
 10
0.0
 20
0.0
 30
0.0
  9
$USERI1
 70
     0
  9
$USERI2
 70
     0
  9
$USERI3
 70
     0
  9
$USERI4
 70
     0
  9
$USERI5
 70
     0
  9
$USERR1
 40
0.0
  9
$USERR2
 40
0.0
  9
$USERR3
 40
0.0
  9
$USERR4
 40
0.0
  9
$USERR5
 40
0.0
  9
$WORLDVIEW
 70
     1
  9
$SHADEDGE
 70
     3
  9
$SHADEDIF
 70
    70
  9
$TILEMODE
 70
     1
  9
$MAXACTVP
 70
    64
  9
$PINSBASE
 10
0.0
 20
0.0
 30
0.0
  9
$PLIMCHECK
 70
     0
  9
$PEXTMIN
 10
-215.007064
 20
-150.200467
 30
0.0
  9
$PEXTMAX
 10
624.992936
 20
443.799533
 30
0.0
  9
$PLIMMIN
 10
-215.007064
 20
-150.200467
  9
$PLIMMAX
 10
624.992936
 20
443.799533
  9
$UNITMODE
 70
     0
  9
$VISRETAIN
 70
     1
  9
$PLINEGEN
 70
     0
  9
$PSLTSCALE
 70
     1
  9
$TREEDEPTH
 70
  3020
  9
$CMLSTYLE
  2
Standard
  9
$CMLJUST
 70
     0
  9
$CMLSCALE
 40
20.0
  9
$PROXYGRAPHICS
 70
     1
  9
$MEASUREMENT
 70
     1
  9
$CELWEIGHT
370
    -1
  9
$ENDCAPS
280
     0
  9
$JOINSTYLE
280
     0
  9
$LWDISPLAY
290
     0
  9
$INSUNITS
 70
     4
  9
$HYPERLINKBASE
  1

  9
$STYLESHEET
  1

  9
$XEDIT
290
     1
  9
$CEPSNTYPE
380
     0
  9
$PSTYLEMODE
290
     1
  9
$FINGERPRINTGUID
  2
{FAEB1C30-E019-11D5-929B-00C0DF256EC4}
  9
$VERSIONGUID
  2
{FAEB1C32-E019-11D5-929B-00C0DF256EC4}
  9
$EXTNAMES
290
     1
  9
$PSVPSCALE
 40
0.0
  9
$OLESTARTUP
290
     0
  0
ENDSEC
  0
SECTION
  2
CLASSES
  0
CLASS
  1
ACDBDICTIONARYWDFLT
  2
AcDbDictionaryWithDefault
  3
ObjectDBX Classes
 90
        0
280
     0
281
     0
  0
CLASS
  1
ACDBPLACEHOLDER
  2
AcDbPlaceHolder
  3
ObjectDBX Classes
 90
        0
280
     0
281
     0
  0
CLASS
  1
LAYOUT
  2
AcDbLayout
  3
ObjectDBX Classes
 90
        0
280
     0
281
     0
  0
ENDSEC
  0
SECTION
  2
TABLES
  0
TABLE
  2
VPORT
  5
8
330
0
100
AcDbSymbolTable
 70
     2
  0
VPORT
  5
29
330
8
100
AcDbSymbolTableRecord
100
AcDbViewportTableRecord
  2
*ACTIVE
 70
     0
 10
0.0
 20
0.0
 11
1.0
 21
1.0
 12
204.992936
 22
146.799533
 13
0.0
 23
0.0
 14
1.0
 24
1.0
 15
0.0
 25
0.0
 16
0.0
 26
0.0
 36
1.0
 17
0.0
 27
0.0
 37
0.0
 40
594.0
 41
1.414141
 42
50.0
 43
0.0
 44
0.0
 50
0.0
 51
0.0
 71
    16
 72
   100
 73
     1
 74
     0
 75
     0
 76
     0
 77
     0
 78
     0
281
     0
 65
     0
110
0.0
120
0.0
130
0.0
111
1.0
121
0.0
131
0.0
112
0.0
122
1.0
132
0.0
 79
     0
146
0.0
  0
ENDTAB
  0
TABLE
  2
LTYPE
  5
5
330
0
100
AcDbSymbolTable
 70
     3
  0
LTYPE
  5
14
330
5
100
AcDbSymbolTableRecord
100
AcDbLinetypeTableRecord
  2
ByBlock
 70
     0
  3

 72
    65
 73
     0
 40
0.0
  0
LTYPE
  5
15
330
5
100
AcDbSymbolTableRecord
100
AcDbLinetypeTableRecord
  2
ByLayer
 70
     0
  3

 72
    65
 73
     0
 40
0.0
  0
LTYPE
  5
16
330
5
100
AcDbSymbolTableRecord
100
AcDbLinetypeTableRecord
  2
Continuous
 70
     0
  3
Solid line
 72
    65
 73
     0
 40
0.0
  0
LTYPE
  5
2A
330
5
100
AcDbSymbolTableRecord
100
AcDbLinetypeTableRecord
  2
DASHED
 70
     0
  3
__ __ __ __ __
 72
    65
 73
     2
 40
6.25
 49
5.0
 74
     4
 75
     0
340
0
 46
1.0
 50
0.0
 44
0.0
 45
0.0
 49
-1.25
 74
     4
 75
     0
340
0
 46
1.0
 50
0.0
 44
0.0
 45
0.0
  0
LTYPE
  5
353
330
5
100
AcDbSymbolTableRecord
100
AcDbLinetypeTableRecord
  2
DASHDOT
 70
     0
  3
__ . __ . __ . __ . __
 72
    65
 73
     4
 40
7.5
 49
5.0
 74
     4
 75
     0
340
0
 46
1.0
 50
0.0
 44
0.0
 45
0.0
 49
-1.25
 74
     4
 75
     0
340
0
 46
1.0
 50
0.0
 44
0.0
 45
0.0
 49
0.0
 74
     4
 75
     0
340
0
 46
1.0
 50
0.0
 44
0.0
 45
0.0
 49
-1.25
 74
     4
 75
     0
340
0
 46
1.0
 50
0.0
 44
0.0
 45
0.0
  0
ENDTAB
  0
TABLE
  2
LAYER
  5
2
330
0
100
AcDbSymbolTable
 70
     8
  0
LAYER
  5
10
330
2
100
AcDbSymbolTableRecord
100
AcDbLayerTableRecord
  2
0
 70
     0
 62
     7
  6
Continuous
370
    -3
390
F
  0
LAYER
  5
2B
330
2
100
AcDbSymbolTableRecord
100
AcDbLayerTableRecord
  2
LC-INFO-1-2-mm-A3-0
 70
     1
 62
     7
  6
ByBlock
370
    -3
390
F
  0
LAYER
  5
2C
330
2
100
AcDbSymbolTableRecord
100
AcDbLayerTableRecord
  2
LC-CUT-HIDDEN
 70
     0
 62
     7
  6
DASHED
370
    -3
390
F
  0
LAYER
  5
2D
330
2
100
AcDbSymbolTableRecord
100
AcDbLayerTableRecord
  2
LC-VIEWPORT
 70
     0
 62
     7
  6
ByBlock
370
    -3
390
F
  0
LAYER
  5
2E
330
2
100
AcDbSymbolTableRecord
100
AcDbLayerTableRecord
  2
LC-3D-HIDDEN
 70
     0
 62
     9
  6
DASHED
370
    -3
390
F
  0
LAYER
  5
30
330
2
100
AcDbSymbolTableRecord
100
AcDbLayerTableRecord
  2
LC-001-100-D00-0
 70
     0
 62
     1
  6
ByBlock
370
    -3
390
F
  0
LAYER
  5
358
330
2
100
AcDbSymbolTableRecord
100
AcDbLayerTableRecord
  2
Defpoints
 70
     0
 62
     7
  6
Continuous
290
     0
370
    -3
390
F
  0
LAYER
  5
6EF
330
2
100
AcDbSymbolTableRecord
100
AcDbLayerTableRecord
  2
LC-002-003-----0
 70
     0
 62
     2
  6
ByBlock
370
    -3
390
F
  0
ENDTAB
  0
TABLE
  2
STYLE
  5
3
330
0
100
AcDbSymbolTable
 70
     3
  0
STYLE
  5
11
330
3
100
AcDbSymbolTableRecord
100
AcDbTextStyleTableRecord
  2
Standard
 70
     0
 40
0.0
 41
1.0
 50
0.0
 71
     0
 42
2.5
  3
txt
  4

  0
STYLE
  5
2F
330
3
100
AcDbSymbolTableRecord
100
AcDbTextStyleTableRecord
  2
LCTX15-400-0-0-Arial
 70
     0
 40
0.0
 41
0.8
 50
0.0
 71
     0
 42
3.5
  3

  4

1001
ACAD
1000
Arial
1071
 16777218
  0
STYLE
  5
355
330
3
100
AcDbSymbolTableRecord
100
AcDbTextStyleTableRecord
  2
LCTX15-400-0-0pDIN-Schrift
 70
     0
 40
2.5
 41
0.8
 50
15.0
 71
     0
 42
3.5
  3
STANDARD
  4

  0
ENDTAB
  0
TABLE
  2
VIEW
  5
6
330
0
100
AcDbSymbolTable
 70
     0
  0
ENDTAB
  0
TABLE
  2
UCS
  5
7
330
0
100
AcDbSymbolTable
 70
     0
  0
ENDTAB
  0
TABLE
  2
APPID
  5
9
330
0
100
AcDbSymbolTable
 70
     1
  0
APPID
  5
12
330
9
100
AcDbSymbolTableRecord
100
AcDbRegAppTableRecord
  2
ACAD
 70
     0
  0
ENDTAB
  0
TABLE
  2
DIMSTYLE
  5
A
330
0
100
AcDbSymbolTable
 70
     2
100
AcDbDimStyleTable
  0
DIMSTYLE
105
27
330
A
100
AcDbSymbolTableRecord
100
AcDbDimStyleTableRecord
  2
ISO-25
 70
     0
 41
2.5
 42
0.625
 43
3.75
 44
1.25
 73
     0
 74
     0
 77
     1
 78
     8
140
2.5
141
2.5
143
0.03937
147
0.625
171
     3
172
     1
271
     2
272
     2
274
     3
278
    44
283
     0
284
     8
340
11
  0
DIMSTYLE
105
356
102
{ACAD_REACTORS
330
357
330
365
330
372
330
6F0
330
6FD
330
70B
330
718
330
726
102
}
330
A
100
AcDbSymbolTableRecord
100
AcDbDimStyleTableRecord
  2
LC-DIM-L-0140-02-02
 70
     0
 40
2.0
 41
14.0
 42
0.0
 43
7.5
 44
1.8
 73
     0
 74
     0
 77
     1
 78
     8
 79
     2
140
14.0
141
0.0
146
0.71
147
1.5
176
     2
177
     2
178
     2
179
     2
271
     2
278
    44
289
     1
340
355
  0
ENDTAB
  0
TABLE
  2
BLOCK_RECORD
  5
1
330
0
100
AcDbSymbolTable
 70
    56
  0
BLOCK_RECORD
  5
1F
330
1
100
AcDbSymbolTableRecord
100
AcDbBlockTableRecord
  2
*Model_Space
340
22
  0
BLOCK_RECORD
  5
1B
330
1
100
AcDbSymbolTableRecord
100
AcDbBlockTableRecord
  2
*Paper_Space
340
1E
  0
BLOCK_RECORD
  5
23
330
1
100
AcDbSymbolTableRecord
100
AcDbBlockTableRecord
  2
*Paper_Space0
340
26
  0
BLOCK_RECORD
  5
1EC
330
1
100
AcDbSymbolTableRecord
100
AcDbBlockTableRecord
  2
POLY1
340
0
102
{BLKREFS
331
1FB
102
}
  0
BLOCK_RECORD
  5
1FD
330
1
100
AcDbSymbolTableRecord
100
AcDbBlockTableRecord
  2
POLY2
340
0
102
{BLKREFS
331
20C
102
}
  0
BLOCK_RECORD
  5
210
330
1
100
AcDbSymbolTableRecord
100
AcDbBlockTableRecord
  2
POLY3
340
0
102
{BLKREFS
331
21F
102
}
  0
BLOCK_RECORD
  5
221
330
1
100
AcDbSymbolTableRecord
100
AcDbBlockTableRecord
  2
POLY4
340
0
102
{BLKREFS
331
230
102
}
  0
BLOCK_RECORD
  5
233
330
1
100
AcDbSymbolTableRecord
100
AcDbBlockTableRecord
  2
POLY5
340
0
102
{BLKREFS
331
242
102
}
  0
BLOCK_RECORD
  5
245
330
1
100
AcDbSymbolTableRecord
100
AcDbBlockTableRecord
  2
POLY6
340
0
102
{BLKREFS
331
254
102
}
  0
BLOCK_RECORD
  5
258
330
1
100
AcDbSymbolTableRecord
100
AcDbBlockTableRecord
  2
POLY7
340
0
102
{BLKREFS
331
267
102
}
  0
BLOCK_RECORD
  5
26A
330
1
100
AcDbSymbolTableRecord
100
AcDbBlockTableRecord
  2
POLY8
340
0
102
{BLKREFS
331
279
102
}
  0
BLOCK_RECORD
  5
27B
330
1
100
AcDbSymbolTableRecord
100
AcDbBlockTableRecord
  2
POLY9
340
0
102
{BLKREFS
331
28A
102
}
  0
BLOCK_RECORD
  5
28D
330
1
100
AcDbSymbolTableRecord
100
AcDbBlockTableRecord
  2
POLY10
340
0
102
{BLKREFS
331
29C
102
}
  0
BLOCK_RECORD
  5
29F
330
1
100
AcDbSymbolTableRecord
100
AcDbBlockTableRecord
  2
POLY11
340
0
102
{BLKREFS
331
2AE
102
}
  0
BLOCK_RECORD
  5
2B1
330
1
100
AcDbSymbolTableRecord
100
AcDbBlockTableRecord
  2
POLY12
340
0
102
{BLKREFS
331
2C0
102
}
  0
BLOCK_RECORD
  5
2D3
330
1
100
AcDbSymbolTableRecord
100
AcDbBlockTableRecord
  2
POLY13
340
0
102
{BLKREFS
331
2DE
102
}
  0
BLOCK_RECORD
  5
2E0
330
1
100
AcDbSymbolTableRecord
100
AcDbBlockTableRecord
  2
POLY14
340
0
102
{BLKREFS
331
2EB
102
}
  0
BLOCK_RECORD
  5
2ED
330
1
100
AcDbSymbolTableRecord
100
AcDbBlockTableRecord
  2
POLY15
340
0
102
{BLKREFS
331
2F8
102
}
  0
BLOCK_RECORD
  5
2FB
330
1
100
AcDbSymbolTableRecord
100
AcDbBlockTableRecord
  2
POLY16
340
0
102
{BLKREFS
331
306
102
}
  0
BLOCK_RECORD
  5
30D
330
1
100
AcDbSymbolTableRecord
100
AcDbBlockTableRecord
  2
POLY17
340
0
102
{BLKREFS
331
318
102
}
  0
BLOCK_RECORD
  5
319
330
1
100
AcDbSymbolTableRecord
100
AcDbBlockTableRecord
  2
POLY18
340
0
102
{BLKREFS
331
324
102
}
  0
BLOCK_RECORD
  5
325
330
1
100
AcDbSymbolTableRecord
100
AcDbBlockTableRecord
  2
POLY19
340
0
102
{BLKREFS
331
332
102
}
  0
BLOCK_RECORD
  5
333
330
1
100
AcDbSymbolTableRecord
100
AcDbBlockTableRecord
  2
POLY20
340
0
102
{BLKREFS
331
340
102
}
  0
BLOCK_RECORD
  5
359
330
1
100
AcDbSymbolTableRecord
100
AcDbBlockTableRecord
  2
*D21
340
0
  0
BLOCK_RECORD
  5
366
330
1
100
AcDbSymbolTableRecord
100
AcDbBlockTableRecord
  2
*D22
340
0
  0
BLOCK_RECORD
  5
373
330
1
100
AcDbSymbolTableRecord
100
AcDbBlockTableRecord
  2
*D23
340
0
  0
BLOCK_RECORD
  5
3E8
330
1
100
AcDbSymbolTableRecord
100
AcDbBlockTableRecord
  2
POLY21
340
0
102
{BLKREFS
331
3F5
102
}
  0
BLOCK_RECORD
  5
3F7
330
1
100
AcDbSymbolTableRecord
100
AcDbBlockTableRecord
  2
POLY22
340
0
102
{BLKREFS
331
404
102
}
  0
BLOCK_RECORD
  5
4BF
330
1
100
AcDbSymbolTableRecord
100
AcDbBlockTableRecord
  2
KLON1
340
0
102
{BLKREFS
331
4C4
102
}
  0
BLOCK_RECORD
  5
4C5
330
1
100
AcDbSymbolTableRecord
100
AcDbBlockTableRecord
  2
KLON2
340
0
102
{BLKREFS
331
4CA
102
}
  0
BLOCK_RECORD
  5
4CB
330
1
100
AcDbSymbolTableRecord
100
AcDbBlockTableRecord
  2
POLY23
340
0
102
{BLKREFS
331
4D6
102
}
  0
BLOCK_RECORD
  5
4D7
330
1
100
AcDbSymbolTableRecord
100
AcDbBlockTableRecord
  2
POLY24
340
0
102
{BLKREFS
331
4E2
102
}
  0
BLOCK_RECORD
  5
4EB
330
1
100
AcDbSymbolTableRecord
100
AcDbBlockTableRecord
  2
KLON3
340
0
102
{BLKREFS
331
4F3
102
}
  0
BLOCK_RECORD
  5
4F4
330
1
100
AcDbSymbolTableRecord
100
AcDbBlockTableRecord
  2
KLON4
340
0
102
{BLKREFS
331
4FC
102
}
  0
BLOCK_RECORD
  5
509
330
1
100
AcDbSymbolTableRecord
100
AcDbBlockTableRecord
  2
POLY25
340
0
102
{BLKREFS
331
51C
102
}
  0
BLOCK_RECORD
  5
51F
330
1
100
AcDbSymbolTableRecord
100
AcDbBlockTableRecord
  2
POLY26
340
0
102
{BLKREFS
331
532
102
}
  0
BLOCK_RECORD
  5
53D
330
1
100
AcDbSymbolTableRecord
100
AcDbBlockTableRecord
  2
POLY27
340
0
102
{BLKREFS
331
54A
102
}
  0
BLOCK_RECORD
  5
54B
330
1
100
AcDbSymbolTableRecord
100
AcDbBlockTableRecord
  2
POLY28
340
0
102
{BLKREFS
331
558
102
}
  0
BLOCK_RECORD
  5
569
330
1
100
AcDbSymbolTableRecord
100
AcDbBlockTableRecord
  2
POLY29
340
0
102
{BLKREFS
331
58A
102
}
  0
BLOCK_RECORD
  5
58B
330
1
100
AcDbSymbolTableRecord
100
AcDbBlockTableRecord
  2
POLY30
340
0
102
{BLKREFS
331
5B2
102
}
  0
BLOCK_RECORD
  5
5B5
330
1
100
AcDbSymbolTableRecord
100
AcDbBlockTableRecord
  2
POLY31
340
0
102
{BLKREFS
331
5C0
102
}
  0
BLOCK_RECORD
  5
603
330
1
100
AcDbSymbolTableRecord
100
AcDbBlockTableRecord
  2
KLON5
340
0
102
{BLKREFS
331
621
102
}
  0
BLOCK_RECORD
  5
622
330
1
100
AcDbSymbolTableRecord
100
AcDbBlockTableRecord
  2
KLON6
340
0
102
{BLKREFS
331
62B
102
}
  0
BLOCK_RECORD
  5
62D
330
1
100
AcDbSymbolTableRecord
100
AcDbBlockTableRecord
  2
KLON7
340
0
102
{BLKREFS
331
648
102
}
  0
BLOCK_RECORD
  5
649
330
1
100
AcDbSymbolTableRecord
100
AcDbBlockTableRecord
  2
KLON8
340
0
102
{BLKREFS
331
664
102
}
  0
BLOCK_RECORD
  5
666
330
1
100
AcDbSymbolTableRecord
100
AcDbBlockTableRecord
  2
KLON9
340
0
102
{BLKREFS
331
66E
102
}
  0
BLOCK_RECORD
  5
66F
330
1
100
AcDbSymbolTableRecord
100
AcDbBlockTableRecord
  2
KLON10
340
0
102
{BLKREFS
331
677
102
}
  0
BLOCK_RECORD
  5
678
330
1
100
AcDbSymbolTableRecord
100
AcDbBlockTableRecord
  2
KLON11
340
0
102
{BLKREFS
331
684
102
}
  0
BLOCK_RECORD
  5
685
330
1
100
AcDbSymbolTableRecord
100
AcDbBlockTableRecord
  2
KLON12
340
0
102
{BLKREFS
331
692
102
}
  0
BLOCK_RECORD
  5
693
330
1
100
AcDbSymbolTableRecord
100
AcDbBlockTableRecord
  2
KLON13
340
0
102
{BLKREFS
331
6B0
102
}
  0
BLOCK_RECORD
  5
6B1
330
1
100
AcDbSymbolTableRecord
100
AcDbBlockTableRecord
  2
KLON14
340
0
102
{BLKREFS
331
6BA
102
}
  0
BLOCK_RECORD
  5
6BB
330
1
100
AcDbSymbolTableRecord
100
AcDbBlockTableRecord
  2
KLON15
340
0
102
{BLKREFS
331
6C7
102
}
  0
BLOCK_RECORD
  5
6C8
330
1
100
AcDbSymbolTableRecord
100
AcDbBlockTableRecord
  2
KLON16
340
0
102
{BLKREFS
331
6EC
102
}
  0
BLOCK_RECORD
  5
6F1
330
1
100
AcDbSymbolTableRecord
100
AcDbBlockTableRecord
  2
*D51
340
0
  0
BLOCK_RECORD
  5
6FE
330
1
100
AcDbSymbolTableRecord
100
AcDbBlockTableRecord
  2
*D52
340
0
  0
BLOCK_RECORD
  5
70C
330
1
100
AcDbSymbolTableRecord
100
AcDbBlockTableRecord
  2
*D53
340
0
  0
BLOCK_RECORD
  5
719
330
1
100
AcDbSymbolTableRecord
100
AcDbBlockTableRecord
  2
*D54
340
0
  0
BLOCK_RECORD
  5
727
330
1
100
AcDbSymbolTableRecord
100
AcDbBlockTableRecord
  2
*D55
340
0
  0
ENDTAB
  0
ENDSEC
  0
SECTION
  2
BLOCKS
  0
BLOCK
  5
20
330
1F
100
AcDbEntity
  8
0
100
AcDbBlockBegin
  2
*Model_Space
 70
     0
 71
     0
 10
0.0
 20
0.0
 30
0.0
  3
*Model_Space
  1

  0
ENDBLK
  5
21
330
1F
100
AcDbEntity
  8
0
100
AcDbBlockEnd
  0
BLOCK
  5
1C
330
1B
100
AcDbEntity
 67
     1
  8
0
100
AcDbBlockBegin
  2
*Paper_Space
 70
     0
 71
     0
 10
0.0
 20
0.0
 30
0.0
  3
*Paper_Space
  1

  0
ENDBLK
  5
1D
330
1B
100
AcDbEntity
 67
     1
  8
0
100
AcDbBlockEnd
  0
BLOCK
  5
24
330
23
100
AcDbEntity
  8
0
100
AcDbBlockBegin
  2
*Paper_Space0
 70
     0
 71
     0
 10
0.0
 20
0.0
 30
0.0
  3
*Paper_Space0
  1

  0
ENDBLK
  5
25
330
23
100
AcDbEntity
  8
0
100
AcDbBlockEnd
  0
BLOCK
  5
1ED
330
1EC
100
AcDbEntity
  8
0
100
AcDbBlockBegin
  2
POLY1
 70
     0
 71
     0
 10
0.0
 20
0.0
 30
0.0
  3
POLY1
  1

  4
POLY1
  0
LINE
  5
1EF
330
1EC
100
AcDbEntity
  8
LC-001-100-D00-0
 62
     7
370
    50
100
AcDbLine
 10
281.836365
 20
22.917351
 30
0.0
 11
281.836365
 21
22.917351
 31
0.0
  0
LINE
  5
1F0
330
1EC
100
AcDbEntity
  8
LC-001-100-D00-0
 62
     7
370
    50
100
AcDbLine
 10
281.836365
 20
22.917351
 30
0.0
 11
281.388074
 21
22.619466
 31
0.0
  0
LINE
  5
1F1
330
1EC
100
AcDbEntity
  8
LC-001-100-D00-0
 62
     7
370
    50
100
AcDbLine
 10
281.388074
 20
22.619466
 30
0.0
 11
281.388074
 21
22.619466
 31
0.0
  0
LINE
  5
1F2
330
1EC
100
AcDbEntity
  8
LC-001-100-D00-0
 62
     7
370
    50
100
AcDbLine
 10
281.388074
 20
22.619466
 30
0.0
 11
280.49139
 21
22.023626
 31
0.0
  0
LINE
  5
1F3
330
1EC
100
AcDbEntity
  8
LC-001-100-D00-0
 62
     7
370
    50
100
AcDbLine
 10
280.49139
 20
22.023626
 30
0.0
 11
280.49139
 21
22.023626
 31
0.0
  0
LINE
  5
1F4
330
1EC
100
AcDbEntity
  8
LC-001-100-D00-0
 62
     7
370
    50
100
AcDbLine
 10
280.49139
 20
22.023626
 30
0.0
 11
278.876218
 21
21.766622
 31
0.0
  0
LINE
  5
1F5
330
1EC
100
AcDbEntity
  8
LC-001-100-D00-0
 62
     7
370
    50
100
AcDbLine
 10
278.876218
 20
21.766622
 30
0.0
 11
278.876218
 21
21.766622
 31
0.0
  0
LINE
  5
1F6
330
1EC
100
AcDbEntity
  8
LC-001-100-D00-0
 62
     7
370
    50
100
AcDbLine
 10
278.876218
 20
21.766622
 30
0.0
 11
277.229658
 21
22.000932
 31
0.0
  0
LINE
  5
1F7
330
1EC
100
AcDbEntity
  8
LC-001-100-D00-0
 62
     7
370
    50
100
AcDbLine
 10
277.229658
 20
22.000932
 30
0.0
 11
277.229658
 21
22.000932
 31
0.0
  0
LINE
  5
1F8
330
1EC
100
AcDbEntity
  8
LC-001-100-D00-0
 62
     7
370
    50
100
AcDbLine
 10
277.229658
 20
22.000932
 30
0.0
 11
276.308982
 21
22.606495
 31
0.0
  0
LINE
  5
1F9
330
1EC
100
AcDbEntity
  8
LC-001-100-D00-0
 62
     7
370
    50
100
AcDbLine
 10
276.308982
 20
22.606495
 30
0.0
 11
276.308982
 21
22.606495
 31
0.0
  0
LINE
  5
1FA
330
1EC
100
AcDbEntity
  8
LC-001-100-D00-0
 62
     7
370
    50
100
AcDbLine
 10
276.308982
 20
22.606495
 30
0.0
 11
275.836367
 21
22.917351
 31
0.0
  0
ENDBLK
  5
1EE
330
1EC
100
AcDbEntity
  8
0
100
AcDbBlockEnd
  0
BLOCK
  5
1FE
330
1FD
100
AcDbEntity
  8
0
100
AcDbBlockBegin
  2
POLY2
 70
     0
 71
     0
 10
0.0
 20
0.0
 30
0.0
  3
POLY2
  1

  4
POLY2
  0
LINE
  5
200
330
1FD
100
AcDbEntity
  8
LC-001-100-D00-0
 62
     7
370
    50
100
AcDbLine
 10
401.836362
 20
-129.43829
 30
0.0
 11
401.836362
 21
-129.43829
 31
0.0
  0
LINE
  5
201
330
1FD
100
AcDbEntity
  8
LC-001-100-D00-0
 62
     7
370
    50
100
AcDbLine
 10
401.836362
 20
-129.43829
 30
0.0
 11
401.388069
 21
-129.140401
 31
0.0
  0
LINE
  5
202
330
1FD
100
AcDbEntity
  8
LC-001-100-D00-0
 62
     7
370
    50
100
AcDbLine
 10
401.388069
 20
-129.140401
 30
0.0
 11
401.388069
 21
-129.140401
 31
0.0
  0
LINE
  5
203
330
1FD
100
AcDbEntity
  8
LC-001-100-D00-0
 62
     7
370
    50
100
AcDbLine
 10
401.388069
 20
-129.140401
 30
0.0
 11
400.491387
 21
-128.544559
 31
0.0
  0
LINE
  5
204
330
1FD
100
AcDbEntity
  8
LC-001-100-D00-0
 62
     7
370
    50
100
AcDbLine
 10
400.491387
 20
-128.544559
 30
0.0
 11
400.491387
 21
-128.544559
 31
0.0
  0
LINE
  5
205
330
1FD
100
AcDbEntity
  8
LC-001-100-D00-0
 62
     7
370
    50
100
AcDbLine
 10
400.491387
 20
-128.544559
 30
0.0
 11
398.876216
 21
-128.28756
 31
0.0
  0
LINE
  5
206
330
1FD
100
AcDbEntity
  8
LC-001-100-D00-0
 62
     7
370
    50
100
AcDbLine
 10
398.876216
 20
-128.28756
 30
0.0
 11
398.876216
 21
-128.28756
 31
0.0
  0
LINE
  5
207
330
1FD
100
AcDbEntity
  8
LC-001-100-D00-0
 62
     7
370
    50
100
AcDbLine
 10
398.876216
 20
-128.28756
 30
0.0
 11
397.229655
 21
-128.521859
 31
0.0
  0
LINE
  5
208
330
1FD
100
AcDbEntity
  8
LC-001-100-D00-0
 62
     7
370
    50
100
AcDbLine
 10
397.229655
 20
-128.521859
 30
0.0
 11
397.229655
 21
-128.521859
 31
0.0
  0
LINE
  5
209
330
1FD
100
AcDbEntity
  8
LC-001-100-D00-0
 62
     7
370
    50
100
AcDbLine
 10
397.229655
 20
-128.521859
 30
0.0
 11
396.308979
 21
-129.12743
 31
0.0
  0
LINE
  5
20A
330
1FD
100
AcDbEntity
  8
LC-001-100-D00-0
 62
     7
370
    50
100
AcDbLine
 10
396.308979
 20
-129.12743
 30
0.0
 11
396.308979
 21
-129.12743
 31
0.0
  0
LINE
  5
20B
330
1FD
100
AcDbEntity
  8
LC-001-100-D00-0
 62
     7
370
    50
100
AcDbLine
 10
396.308979
 20
-129.12743
 30
0.0
 11
395.836365
 21
-129.43829
 31
0.0
  0
ENDBLK
  5
1FF
330
1FD
100
AcDbEntity
  8
0
100
AcDbBlockEnd
  0
BLOCK
  5
211
330
210
100
AcDbEntity
  8
0
100
AcDbBlockBegin
  2
POLY3
 70
     0
 71
     0
 10
0.0
 20
0.0
 30
0.0
  3
POLY3
  1

  4
POLY3
  0
LINE
  5
213
330
210
100
AcDbEntity
  8
LC-001-100-D00-0
 62
     7
370
    50
100
AcDbLine
 10
419.014182
 20
-6.260467
 30
0.0
 11
419.014182
 21
-6.260467
 31
0.0
  0
LINE
  5
214
330
210
100
AcDbEntity
  8
LC-001-100-D00-0
 62
     7
370
    50
100
AcDbLine
 10
419.014182
 20
-6.260467
 30
0.0
 11
418.716301
 21
-5.812175
 31
0.0
  0
LINE
  5
215
330
210
100
AcDbEntity
  8
LC-001-100-D00-0
 62
     7
370
    50
100
AcDbLine
 10
418.716301
 20
-5.812175
 30
0.0
 11
418.716301
 21
-5.812175
 31
0.0
  0
LINE
  5
216
330
210
100
AcDbEntity
  8
LC-001-100-D00-0
 62
     7
370
    50
100
AcDbLine
 10
418.716301
 20
-5.812175
 30
0.0
 11
418.120469
 21
-4.915488
 31
0.0
  0
LINE
  5
217
330
210
100
AcDbEntity
  8
LC-001-100-D00-0
 62
     7
370
    50
100
AcDbLine
 10
418.120469
 20
-4.915488
 30
0.0
 11
418.120469
 21
-4.915488
 31
0.0
  0
LINE
  5
218
330
210
100
AcDbEntity
  8
LC-001-100-D00-0
 62
     7
370
    50
100
AcDbLine
 10
418.120469
 20
-4.915488
 30
0.0
 11
417.863453
 21
-3.30032
 31
0.0
  0
LINE
  5
219
330
210
100
AcDbEntity
  8
LC-001-100-D00-0
 62
     7
370
    50
100
AcDbLine
 10
417.863453
 20
-3.30032
 30
0.0
 11
417.863453
 21
-3.30032
 31
0.0
  0
LINE
  5
21A
330
210
100
AcDbEntity
  8
LC-001-100-D00-0
 62
     7
370
    50
100
AcDbLine
 10
417.863453
 20
-3.30032
 30
0.0
 11
418.097774
 21
-1.653761
 31
0.0
  0
LINE
  5
21B
330
210
100
AcDbEntity
  8
LC-001-100-D00-0
 62
     7
370
    50
100
AcDbLine
 10
418.097774
 20
-1.653761
 30
0.0
 11
418.097774
 21
-1.653761
 31
0.0
  0
LINE
  5
21C
330
210
100
AcDbEntity
  8
LC-001-100-D00-0
 62
     7
370
    50
100
AcDbLine
 10
418.097774
 20
-1.653761
 30
0.0
 11
418.70333
 21
-0.733082
 31
0.0
  0
LINE
  5
21D
330
210
100
AcDbEntity
  8
LC-001-100-D00-0
 62
     7
370
    50
100
AcDbLine
 10
418.70333
 20
-0.733082
 30
0.0
 11
418.70333
 21
-0.733082
 31
0.0
  0
LINE
  5
21E
330
210
100
AcDbEntity
  8
LC-001-100-D00-0
 62
     7
370
    50
100
AcDbLine
 10
418.70333
 20
-0.733082
 30
0.0
 11
419.014182
 21
-0.260466
 31
0.0
  0
ENDBLK
  5
212
330
210
100
AcDbEntity
  8
0
100
AcDbBlockEnd
  0
BLOCK
  5
222
330
221
100
AcDbEntity
  8
0
100
AcDbBlockBegin
  2
POLY4
 70
     0
 71
     0
 10
0.0
 20
0.0
 30
0.0
  3
POLY4
  1

  4
POLY4
  0
LINE
  5
224
330
221
100
AcDbEntity
  8
LC-001-100-D00-0
 62
     7
370
    50
100
AcDbLine
 10
41.836363
 20
-129.43829
 30
0.0
 11
41.836363
 21
-129.43829
 31
0.0
  0
LINE
  5
225
330
221
100
AcDbEntity
  8
LC-001-100-D00-0
 62
     7
370
    50
100
AcDbLine
 10
41.836363
 20
-129.43829
 30
0.0
 11
41.38807
 21
-129.140401
 31
0.0
  0
LINE
  5
226
330
221
100
AcDbEntity
  8
LC-001-100-D00-0
 62
     7
370
    50
100
AcDbLine
 10
41.38807
 20
-129.140401
 30
0.0
 11
41.38807
 21
-129.140401
 31
0.0
  0
LINE
  5
227
330
221
100
AcDbEntity
  8
LC-001-100-D00-0
 62
     7
370
    50
100
AcDbLine
 10
41.38807
 20
-129.140401
 30
0.0
 11
40.491388
 21
-128.544559
 31
0.0
  0
LINE
  5
228
330
221
100
AcDbEntity
  8
LC-001-100-D00-0
 62
     7
370
    50
100
AcDbLine
 10
40.491388
 20
-128.544559
 30
0.0
 11
40.491388
 21
-128.544559
 31
0.0
  0
LINE
  5
229
330
221
100
AcDbEntity
  8
LC-001-100-D00-0
 62
     7
370
    50
100
AcDbLine
 10
40.491388
 20
-128.544559
 30
0.0
 11
38.876217
 21
-128.28756
 31
0.0
  0
LINE
  5
22A
330
221
100
AcDbEntity
  8
LC-001-100-D00-0
 62
     7
370
    50
100
AcDbLine
 10
38.876217
 20
-128.28756
 30
0.0
 11
38.876217
 21
-128.28756
 31
0.0
  0
LINE
  5
22B
330
221
100
AcDbEntity
  8
LC-001-100-D00-0
 62
     7
370
    50
100
AcDbLine
 10
38.876217
 20
-128.28756
 30
0.0
 11
37.229655
 21
-128.521859
 31
0.0
  0
LINE
  5
22C
330
221
100
AcDbEntity
  8
LC-001-100-D00-0
 62
     7
370
    50
100
AcDbLine
 10
37.229655
 20
-128.521859
 30
0.0
 11
37.229655
 21
-128.521859
 31
0.0
  0
LINE
  5
22D
330
221
100
AcDbEntity
  8
LC-001-100-D00-0
 62
     7
370
    50
100
AcDbLine
 10
37.229655
 20
-128.521859
 30
0.0
 11
36.308979
 21
-129.12743
 31
0.0
  0
LINE
  5
22E
330
221
100
AcDbEntity
  8
LC-001-100-D00-0
 62
     7
370
    50
100
AcDbLine
 10
36.308979
 20
-129.12743
 30
0.0
 11
36.308979
 21
-129.12743
 31
0.0
  0
LINE
  5
22F
330
221
100
AcDbEntity
  8
LC-001-100-D00-0
 62
     7
370
    50
100
AcDbLine
 10
36.308979
 20
-129.12743
 30
0.0
 11
35.836365
 21
-129.43829
 31
0.0
  0
ENDBLK
  5
223
330
221
100
AcDbEntity
  8
0
100
AcDbBlockEnd
  0
BLOCK
  5
234
330
233
100
AcDbEntity
  8
0
100
AcDbBlockBegin
  2
POLY5
 70
     0
 71
     0
 10
0.0
 20
0.0
 30
0.0
  3
POLY5
  1

  4
POLY5
  0
LINE
  5
236
330
233
100
AcDbEntity
  8
LC-001-100-D00-0
 62
     7
370
    50
100
AcDbLine
 10
281.836365
 20
-129.43829
 30
0.0
 11
281.836365
 21
-129.43829
 31
0.0
  0
LINE
  5
237
330
233
100
AcDbEntity
  8
LC-001-100-D00-0
 62
     7
370
    50
100
AcDbLine
 10
281.836365
 20
-129.43829
 30
0.0
 11
281.388075
 21
-129.140401
 31
0.0
  0
LINE
  5
238
330
233
100
AcDbEntity
  8
LC-001-100-D00-0
 62
     7
370
    50
100
AcDbLine
 10
281.388075
 20
-129.140401
 30
0.0
 11
281.388075
 21
-129.140401
 31
0.0
  0
LINE
  5
239
330
233
100
AcDbEntity
  8
LC-001-100-D00-0
 62
     7
370
    50
100
AcDbLine
 10
281.388075
 20
-129.140401
 30
0.0
 11
280.491392
 21
-128.544555
 31
0.0
  0
LINE
  5
23A
330
233
100
AcDbEntity
  8
LC-001-100-D00-0
 62
     7
370
    50
100
AcDbLine
 10
280.491392
 20
-128.544555
 30
0.0
 11
280.491392
 21
-128.544555
 31
0.0
  0
LINE
  5
23B
330
233
100
AcDbEntity
  8
LC-001-100-D00-0
 62
     7
370
    50
100
AcDbLine
 10
280.491392
 20
-128.544555
 30
0.0
 11
278.876218
 21
-128.28756
 31
0.0
  0
LINE
  5
23C
330
233
100
AcDbEntity
  8
LC-001-100-D00-0
 62
     7
370
    50
100
AcDbLine
 10
278.876218
 20
-128.28756
 30
0.0
 11
278.876218
 21
-128.28756
 31
0.0
  0
LINE
  5
23D
330
233
100
AcDbEntity
  8
LC-001-100-D00-0
 62
     7
370
    50
100
AcDbLine
 10
278.876218
 20
-128.28756
 30
0.0
 11
277.229655
 21
-128.52186
 31
0.0
  0
LINE
  5
23E
330
233
100
AcDbEntity
  8
LC-001-100-D00-0
 62
     7
370
    50
100
AcDbLine
 10
277.229655
 20
-128.52186
 30
0.0
 11
277.229655
 21
-128.52186
 31
0.0
  0
LINE
  5
23F
330
233
100
AcDbEntity
  8
LC-001-100-D00-0
 62
     7
370
    50
100
AcDbLine
 10
277.229655
 20
-128.52186
 30
0.0
 11
276.308981
 21
-129.12743
 31
0.0
  0
LINE
  5
240
330
233
100
AcDbEntity
  8
LC-001-100-D00-0
 62
     7
370
    50
100
AcDbLine
 10
276.308981
 20
-129.12743
 30
0.0
 11
276.308981
 21
-129.12743
 31
0.0
  0
LINE
  5
241
330
233
100
AcDbEntity
  8
LC-001-100-D00-0
 62
     7
370
    50
100
AcDbLine
 10
276.308981
 20
-129.12743
 30
0.0
 11
275.836367
 21
-129.43829
 31
0.0
  0
ENDBLK
  5
235
330
233
100
AcDbEntity
  8
0
100
AcDbBlockEnd
  0
BLOCK
  5
246
330
245
100
AcDbEntity
  8
0
100
AcDbBlockBegin
  2
POLY6
 70
     0
 71
     0
 10
0.0
 20
0.0
 30
0.0
  3
POLY6
  1

  4
POLY6
  0
LINE
  5
248
330
245
100
AcDbEntity
  8
LC-001-100-D00-0
 62
     7
370
    50
100
AcDbLine
 10
419.014182
 20
-100.260468
 30
0.0
 11
419.014182
 21
-100.260468
 31
0.0
  0
LINE
  5
249
330
245
100
AcDbEntity
  8
LC-001-100-D00-0
 62
     7
370
    50
100
AcDbLine
 10
419.014182
 20
-100.260468
 30
0.0
 11
418.716301
 21
-100.708761
 31
0.0
  0
LINE
  5
24A
330
245
100
AcDbEntity
  8
LC-001-100-D00-0
 62
     7
370
    50
100
AcDbLine
 10
418.716301
 20
-100.708761
 30
0.0
 11
418.716301
 21
-100.708761
 31
0.0
  0
LINE
  5
24B
330
245
100
AcDbEntity
  8
LC-001-100-D00-0
 62
     7
370
    50
100
AcDbLine
 10
418.716301
 20
-100.708761
 30
0.0
 11
418.12047
 21
-101.605449
 31
0.0
  0
LINE
  5
24C
330
245
100
AcDbEntity
  8
LC-001-100-D00-0
 62
     7
370
    50
100
AcDbLine
 10
418.12047
 20
-101.605449
 30
0.0
 11
418.12047
 21
-101.605449
 31
0.0
  0
LINE
  5
24D
330
245
100
AcDbEntity
  8
LC-001-100-D00-0
 62
     7
370
    50
100
AcDbLine
 10
418.12047
 20
-101.605449
 30
0.0
 11
417.863453
 21
-103.220616
 31
0.0
  0
LINE
  5
24E
330
245
100
AcDbEntity
  8
LC-001-100-D00-0
 62
     7
370
    50
100
AcDbLine
 10
417.863453
 20
-103.220616
 30
0.0
 11
417.863453
 21
-103.220616
 31
0.0
  0
LINE
  5
24F
330
245
100
AcDbEntity
  8
LC-001-100-D00-0
 62
     7
370
    50
100
AcDbLine
 10
417.863453
 20
-103.220616
 30
0.0
 11
418.097773
 21
-104.867173
 31
0.0
  0
LINE
  5
250
330
245
100
AcDbEntity
  8
LC-001-100-D00-0
 62
     7
370
    50
100
AcDbLine
 10
418.097773
 20
-104.867173
 30
0.0
 11
418.097773
 21
-104.867173
 31
0.0
  0
LINE
  5
251
330
245
100
AcDbEntity
  8
LC-001-100-D00-0
 62
     7
370
    50
100
AcDbLine
 10
418.097773
 20
-104.867173
 30
0.0
 11
418.70333
 21
-105.78785
 31
0.0
  0
LINE
  5
252
330
245
100
AcDbEntity
  8
LC-001-100-D00-0
 62
     7
370
    50
100
AcDbLine
 10
418.70333
 20
-105.78785
 30
0.0
 11
418.70333
 21
-105.78785
 31
0.0
  0
LINE
  5
253
330
245
100
AcDbEntity
  8
LC-001-100-D00-0
 62
     7
370
    50
100
AcDbLine
 10
418.70333
 20
-105.78785
 30
0.0
 11
419.014182
 21
-106.260465
 31
0.0
  0
ENDBLK
  5
247
330
245
100
AcDbEntity
  8
0
100
AcDbBlockEnd
  0
BLOCK
  5
259
330
258
100
AcDbEntity
  8
0
100
AcDbBlockBegin
  2
POLY7
 70
     0
 71
     0
 10
0.0
 20
0.0
 30
0.0
  3
POLY7
  1

  4
POLY7
  0
LINE
  5
25B
330
258
100
AcDbEntity
  8
LC-001-100-D00-0
 62
     7
370
    50
100
AcDbLine
 10
161.836367
 20
22.917351
 30
0.0
 11
161.836367
 21
22.917351
 31
0.0
  0
LINE
  5
25C
330
258
100
AcDbEntity
  8
LC-001-100-D00-0
 62
     7
370
    50
100
AcDbLine
 10
161.836367
 20
22.917351
 30
0.0
 11
161.388075
 21
22.619466
 31
0.0
  0
LINE
  5
25D
330
258
100
AcDbEntity
  8
LC-001-100-D00-0
 62
     7
370
    50
100
AcDbLine
 10
161.388075
 20
22.619466
 30
0.0
 11
161.388075
 21
22.619466
 31
0.0
  0
LINE
  5
25E
330
258
100
AcDbEntity
  8
LC-001-100-D00-0
 62
     7
370
    50
100
AcDbLine
 10
161.388075
 20
22.619466
 30
0.0
 11
160.491389
 21
22.023628
 31
0.0
  0
LINE
  5
25F
330
258
100
AcDbEntity
  8
LC-001-100-D00-0
 62
     7
370
    50
100
AcDbLine
 10
160.491389
 20
22.023628
 30
0.0
 11
160.491389
 21
22.023628
 31
0.0
  0
LINE
  5
260
330
258
100
AcDbEntity
  8
LC-001-100-D00-0
 62
     7
370
    50
100
AcDbLine
 10
160.491389
 20
22.023628
 30
0.0
 11
158.876219
 21
21.766622
 31
0.0
  0
LINE
  5
261
330
258
100
AcDbEntity
  8
LC-001-100-D00-0
 62
     7
370
    50
100
AcDbLine
 10
158.876219
 20
21.766622
 30
0.0
 11
158.876219
 21
21.766622
 31
0.0
  0
LINE
  5
262
330
258
100
AcDbEntity
  8
LC-001-100-D00-0
 62
     7
370
    50
100
AcDbLine
 10
158.876219
 20
21.766622
 30
0.0
 11
157.229658
 21
22.000932
 31
0.0
  0
LINE
  5
263
330
258
100
AcDbEntity
  8
LC-001-100-D00-0
 62
     7
370
    50
100
AcDbLine
 10
157.229658
 20
22.000932
 30
0.0
 11
157.229658
 21
22.000932
 31
0.0
  0
LINE
  5
264
330
258
100
AcDbEntity
  8
LC-001-100-D00-0
 62
     7
370
    50
100
AcDbLine
 10
157.229658
 20
22.000932
 30
0.0
 11
156.308981
 21
22.606495
 31
0.0
  0
LINE
  5
265
330
258
100
AcDbEntity
  8
LC-001-100-D00-0
 62
     7
370
    50
100
AcDbLine
 10
156.308981
 20
22.606495
 30
0.0
 11
156.308981
 21
22.606495
 31
0.0
  0
LINE
  5
266
330
258
100
AcDbEntity
  8
LC-001-100-D00-0
 62
     7
370
    50
100
AcDbLine
 10
156.308981
 20
22.606495
 30
0.0
 11
155.836366
 21
22.917351
 31
0.0
  0
ENDBLK
  5
25A
330
258
100
AcDbEntity
  8
0
100
AcDbBlockEnd
  0
BLOCK
  5
26B
330
26A
100
AcDbEntity
  8
0
100
AcDbBlockBegin
  2
POLY8
 70
     0
 71
     0
 10
0.0
 20
0.0
 30
0.0
  3
POLY8
  1

  4
POLY8
  0
LINE
  5
26D
330
26A
100
AcDbEntity
  8
LC-001-100-D00-0
 62
     7
370
    50
100
AcDbLine
 10
401.836362
 20
22.917351
 30
0.0
 11
401.836362
 21
22.917351
 31
0.0
  0
LINE
  5
26E
330
26A
100
AcDbEntity
  8
LC-001-100-D00-0
 62
     7
370
    50
100
AcDbLine
 10
401.836362
 20
22.917351
 30
0.0
 11
401.388069
 21
22.619466
 31
0.0
  0
LINE
  5
26F
330
26A
100
AcDbEntity
  8
LC-001-100-D00-0
 62
     7
370
    50
100
AcDbLine
 10
401.388069
 20
22.619466
 30
0.0
 11
401.388069
 21
22.619466
 31
0.0
  0
LINE
  5
270
330
26A
100
AcDbEntity
  8
LC-001-100-D00-0
 62
     7
370
    50
100
AcDbLine
 10
401.388069
 20
22.619466
 30
0.0
 11
400.491385
 21
22.023631
 31
0.0
  0
LINE
  5
271
330
26A
100
AcDbEntity
  8
LC-001-100-D00-0
 62
     7
370
    50
100
AcDbLine
 10
400.491385
 20
22.023631
 30
0.0
 11
400.491385
 21
22.023631
 31
0.0
  0
LINE
  5
272
330
26A
100
AcDbEntity
  8
LC-001-100-D00-0
 62
     7
370
    50
100
AcDbLine
 10
400.491385
 20
22.023631
 30
0.0
 11
398.876216
 21
21.766622
 31
0.0
  0
LINE
  5
273
330
26A
100
AcDbEntity
  8
LC-001-100-D00-0
 62
     7
370
    50
100
AcDbLine
 10
398.876216
 20
21.766622
 30
0.0
 11
398.876216
 21
21.766622
 31
0.0
  0
LINE
  5
274
330
26A
100
AcDbEntity
  8
LC-001-100-D00-0
 62
     7
370
    50
100
AcDbLine
 10
398.876216
 20
21.766622
 30
0.0
 11
397.229657
 21
22.000931
 31
0.0
  0
LINE
  5
275
330
26A
100
AcDbEntity
  8
LC-001-100-D00-0
 62
     7
370
    50
100
AcDbLine
 10
397.229657
 20
22.000931
 30
0.0
 11
397.229657
 21
22.000931
 31
0.0
  0
LINE
  5
276
330
26A
100
AcDbEntity
  8
LC-001-100-D00-0
 62
     7
370
    50
100
AcDbLine
 10
397.229657
 20
22.000931
 30
0.0
 11
396.308979
 21
22.606495
 31
0.0
  0
LINE
  5
277
330
26A
100
AcDbEntity
  8
LC-001-100-D00-0
 62
     7
370
    50
100
AcDbLine
 10
396.308979
 20
22.606495
 30
0.0
 11
396.308979
 21
22.606495
 31
0.0
  0
LINE
  5
278
330
26A
100
AcDbEntity
  8
LC-001-100-D00-0
 62
     7
370
    50
100
AcDbLine
 10
396.308979
 20
22.606495
 30
0.0
 11
395.836365
 21
22.917351
 31
0.0
  0
ENDBLK
  5
26C
330
26A
100
AcDbEntity
  8
0
100
AcDbBlockEnd
  0
BLOCK
  5
27C
330
27B
100
AcDbEntity
  8
0
100
AcDbBlockBegin
  2
POLY9
 70
     0
 71
     0
 10
0.0
 20
0.0
 30
0.0
  3
POLY9
  1

  4
POLY9
  0
LINE
  5
27E
330
27B
100
AcDbEntity
  8
LC-001-100-D00-0
 62
     7
370
    50
100
AcDbLine
 10
161.836367
 20
-129.43829
 30
0.0
 11
161.836367
 21
-129.43829
 31
0.0
  0
LINE
  5
27F
330
27B
100
AcDbEntity
  8
LC-001-100-D00-0
 62
     7
370
    50
100
AcDbLine
 10
161.836367
 20
-129.43829
 30
0.0
 11
161.388075
 21
-129.140401
 31
0.0
  0
LINE
  5
280
330
27B
100
AcDbEntity
  8
LC-001-100-D00-0
 62
     7
370
    50
100
AcDbLine
 10
161.388075
 20
-129.140401
 30
0.0
 11
161.388075
 21
-129.140401
 31
0.0
  0
LINE
  5
281
330
27B
100
AcDbEntity
  8
LC-001-100-D00-0
 62
     7
370
    50
100
AcDbLine
 10
161.388075
 20
-129.140401
 30
0.0
 11
160.491392
 21
-128.544557
 31
0.0
  0
LINE
  5
282
330
27B
100
AcDbEntity
  8
LC-001-100-D00-0
 62
     7
370
    50
100
AcDbLine
 10
160.491392
 20
-128.544557
 30
0.0
 11
160.491392
 21
-128.544557
 31
0.0
  0
LINE
  5
283
330
27B
100
AcDbEntity
  8
LC-001-100-D00-0
 62
     7
370
    50
100
AcDbLine
 10
160.491392
 20
-128.544557
 30
0.0
 11
158.876219
 21
-128.28756
 31
0.0
  0
LINE
  5
284
330
27B
100
AcDbEntity
  8
LC-001-100-D00-0
 62
     7
370
    50
100
AcDbLine
 10
158.876219
 20
-128.28756
 30
0.0
 11
158.876219
 21
-128.28756
 31
0.0
  0
LINE
  5
285
330
27B
100
AcDbEntity
  8
LC-001-100-D00-0
 62
     7
370
    50
100
AcDbLine
 10
158.876219
 20
-128.28756
 30
0.0
 11
157.229656
 21
-128.52186
 31
0.0
  0
LINE
  5
286
330
27B
100
AcDbEntity
  8
LC-001-100-D00-0
 62
     7
370
    50
100
AcDbLine
 10
157.229656
 20
-128.52186
 30
0.0
 11
157.229656
 21
-128.52186
 31
0.0
  0
LINE
  5
287
330
27B
100
AcDbEntity
  8
LC-001-100-D00-0
 62
     7
370
    50
100
AcDbLine
 10
157.229656
 20
-128.52186
 30
0.0
 11
156.308981
 21
-129.12743
 31
0.0
  0
LINE
  5
288
330
27B
100
AcDbEntity
  8
LC-001-100-D00-0
 62
     7
370
    50
100
AcDbLine
 10
156.308981
 20
-129.12743
 30
0.0
 11
156.308981
 21
-129.12743
 31
0.0
  0
LINE
  5
289
330
27B
100
AcDbEntity
  8
LC-001-100-D00-0
 62
     7
370
    50
100
AcDbLine
 10
156.308981
 20
-129.12743
 30
0.0
 11
155.836366
 21
-129.43829
 31
0.0
  0
ENDBLK
  5
27D
330
27B
100
AcDbEntity
  8
0
100
AcDbBlockEnd
  0
BLOCK
  5
28E
330
28D
100
AcDbEntity
  8
0
100
AcDbBlockBegin
  2
POLY10
 70
     0
 71
     0
 10
0.0
 20
0.0
 30
0.0
  3
POLY10
  1

  4
POLY10
  0
LINE
  5
290
330
28D
100
AcDbEntity
  8
LC-001-100-D00-0
 62
     7
370
    50
100
AcDbLine
 10
18.658545
 20
-6.260467
 30
0.0
 11
18.658545
 21
-6.260467
 31
0.0
  0
LINE
  5
291
330
28D
100
AcDbEntity
  8
LC-001-100-D00-0
 62
     7
370
    50
100
AcDbLine
 10
18.658545
 20
-6.260467
 30
0.0
 11
18.956433
 21
-5.812176
 31
0.0
  0
LINE
  5
292
330
28D
100
AcDbEntity
  8
LC-001-100-D00-0
 62
     7
370
    50
100
AcDbLine
 10
18.956433
 20
-5.812176
 30
0.0
 11
18.956433
 21
-5.812176
 31
0.0
  0
LINE
  5
293
330
28D
100
AcDbEntity
  8
LC-001-100-D00-0
 62
     7
370
    50
100
AcDbLine
 10
18.956433
 20
-5.812176
 30
0.0
 11
19.552276
 21
-4.915492
 31
0.0
  0
LINE
  5
294
330
28D
100
AcDbEntity
  8
LC-001-100-D00-0
 62
     7
370
    50
100
AcDbLine
 10
19.552276
 20
-4.915492
 30
0.0
 11
19.552276
 21
-4.915492
 31
0.0
  0
LINE
  5
295
330
28D
100
AcDbEntity
  8
LC-001-100-D00-0
 62
     7
370
    50
100
AcDbLine
 10
19.552276
 20
-4.915492
 30
0.0
 11
19.809288
 21
-3.30032
 31
0.0
  0
LINE
  5
296
330
28D
100
AcDbEntity
  8
LC-001-100-D00-0
 62
     7
370
    50
100
AcDbLine
 10
19.809288
 20
-3.30032
 30
0.0
 11
19.809288
 21
-3.30032
 31
0.0
  0
LINE
  5
297
330
28D
100
AcDbEntity
  8
LC-001-100-D00-0
 62
     7
370
    50
100
AcDbLine
 10
19.809288
 20
-3.30032
 30
0.0
 11
19.574971
 21
-1.653758
 31
0.0
  0
LINE
  5
298
330
28D
100
AcDbEntity
  8
LC-001-100-D00-0
 62
     7
370
    50
100
AcDbLine
 10
19.574971
 20
-1.653758
 30
0.0
 11
19.574971
 21
-1.653758
 31
0.0
  0
LINE
  5
299
330
28D
100
AcDbEntity
  8
LC-001-100-D00-0
 62
     7
370
    50
100
AcDbLine
 10
19.574971
 20
-1.653758
 30
0.0
 11
18.969404
 21
-0.733082
 31
0.0
  0
LINE
  5
29A
330
28D
100
AcDbEntity
  8
LC-001-100-D00-0
 62
     7
370
    50
100
AcDbLine
 10
18.969404
 20
-0.733082
 30
0.0
 11
18.969404
 21
-0.733082
 31
0.0
  0
LINE
  5
29B
330
28D
100
AcDbEntity
  8
LC-001-100-D00-0
 62
     7
370
    50
100
AcDbLine
 10
18.969404
 20
-0.733082
 30
0.0
 11
18.658545
 21
-0.260466
 31
0.0
  0
ENDBLK
  5
28F
330
28D
100
AcDbEntity
  8
0
100
AcDbBlockEnd
  0
BLOCK
  5
2A0
330
29F
100
AcDbEntity
  8
0
100
AcDbBlockBegin
  2
POLY11
 70
     0
 71
     0
 10
0.0
 20
0.0
 30
0.0
  3
POLY11
  1

  4
POLY11
  0
LINE
  5
2A2
330
29F
100
AcDbEntity
  8
LC-001-100-D00-0
 62
     7
370
    50
100
AcDbLine
 10
18.658545
 20
-100.260468
 30
0.0
 11
18.658545
 21
-100.260468
 31
0.0
  0
LINE
  5
2A3
330
29F
100
AcDbEntity
  8
LC-001-100-D00-0
 62
     7
370
    50
100
AcDbLine
 10
18.658545
 20
-100.260468
 30
0.0
 11
18.956433
 21
-100.70876
 31
0.0
  0
LINE
  5
2A4
330
29F
100
AcDbEntity
  8
LC-001-100-D00-0
 62
     7
370
    50
100
AcDbLine
 10
18.956433
 20
-100.70876
 30
0.0
 11
18.956433
 21
-100.70876
 31
0.0
  0
LINE
  5
2A5
330
29F
100
AcDbEntity
  8
LC-001-100-D00-0
 62
     7
370
    50
100
AcDbLine
 10
18.956433
 20
-100.70876
 30
0.0
 11
19.552275
 21
-101.605445
 31
0.0
  0
LINE
  5
2A6
330
29F
100
AcDbEntity
  8
LC-001-100-D00-0
 62
     7
370
    50
100
AcDbLine
 10
19.552275
 20
-101.605445
 30
0.0
 11
19.552275
 21
-101.605445
 31
0.0
  0
LINE
  5
2A7
330
29F
100
AcDbEntity
  8
LC-001-100-D00-0
 62
     7
370
    50
100
AcDbLine
 10
19.552275
 20
-101.605445
 30
0.0
 11
19.809288
 21
-103.220616
 31
0.0
  0
LINE
  5
2A8
330
29F
100
AcDbEntity
  8
LC-001-100-D00-0
 62
     7
370
    50
100
AcDbLine
 10
19.809288
 20
-103.220616
 30
0.0
 11
19.809288
 21
-103.220616
 31
0.0
  0
LINE
  5
2A9
330
29F
100
AcDbEntity
  8
LC-001-100-D00-0
 62
     7
370
    50
100
AcDbLine
 10
19.809288
 20
-103.220616
 30
0.0
 11
19.574971
 21
-104.867176
 31
0.0
  0
LINE
  5
2AA
330
29F
100
AcDbEntity
  8
LC-001-100-D00-0
 62
     7
370
    50
100
AcDbLine
 10
19.574971
 20
-104.867176
 30
0.0
 11
19.574971
 21
-104.867176
 31
0.0
  0
LINE
  5
2AB
330
29F
100
AcDbEntity
  8
LC-001-100-D00-0
 62
     7
370
    50
100
AcDbLine
 10
19.574971
 20
-104.867176
 30
0.0
 11
18.969404
 21
-105.787851
 31
0.0
  0
LINE
  5
2AC
330
29F
100
AcDbEntity
  8
LC-001-100-D00-0
 62
     7
370
    50
100
AcDbLine
 10
18.969404
 20
-105.787851
 30
0.0
 11
18.969404
 21
-105.787851
 31
0.0
  0
LINE
  5
2AD
330
29F
100
AcDbEntity
  8
LC-001-100-D00-0
 62
     7
370
    50
100
AcDbLine
 10
18.969404
 20
-105.787851
 30
0.0
 11
18.658545
 21
-106.260465
 31
0.0
  0
ENDBLK
  5
2A1
330
29F
100
AcDbEntity
  8
0
100
AcDbBlockEnd
  0
BLOCK
  5
2B2
330
2B1
100
AcDbEntity
  8
0
100
AcDbBlockBegin
  2
POLY12
 70
     0
 71
     0
 10
0.0
 20
0.0
 30
0.0
  3
POLY12
  1

  4
POLY12
  0
LINE
  5
2B4
330
2B1
100
AcDbEntity
  8
LC-001-100-D00-0
 62
     7
370
    50
100
AcDbLine
 10
41.836363
 20
22.917351
 30
0.0
 11
41.836363
 21
22.917351
 31
0.0
  0
LINE
  5
2B5
330
2B1
100
AcDbEntity
  8
LC-001-100-D00-0
 62
     7
370
    50
100
AcDbLine
 10
41.836363
 20
22.917351
 30
0.0
 11
41.38807
 21
22.619466
 31
0.0
  0
LINE
  5
2B6
330
2B1
100
AcDbEntity
  8
LC-001-100-D00-0
 62
     7
370
    50
100
AcDbLine
 10
41.38807
 20
22.619466
 30
0.0
 11
41.38807
 21
22.619466
 31
0.0
  0
LINE
  5
2B7
330
2B1
100
AcDbEntity
  8
LC-001-100-D00-0
 62
     7
370
    50
100
AcDbLine
 10
41.38807
 20
22.619466
 30
0.0
 11
40.491386
 21
22.023631
 31
0.0
  0
LINE
  5
2B8
330
2B1
100
AcDbEntity
  8
LC-001-100-D00-0
 62
     7
370
    50
100
AcDbLine
 10
40.491386
 20
22.023631
 30
0.0
 11
40.491386
 21
22.023631
 31
0.0
  0
LINE
  5
2B9
330
2B1
100
AcDbEntity
  8
LC-001-100-D00-0
 62
     7
370
    50
100
AcDbLine
 10
40.491386
 20
22.023631
 30
0.0
 11
38.876217
 21
21.766622
 31
0.0
  0
LINE
  5
2BA
330
2B1
100
AcDbEntity
  8
LC-001-100-D00-0
 62
     7
370
    50
100
AcDbLine
 10
38.876217
 20
21.766622
 30
0.0
 11
38.876217
 21
21.766622
 31
0.0
  0
LINE
  5
2BB
330
2B1
100
AcDbEntity
  8
LC-001-100-D00-0
 62
     7
370
    50
100
AcDbLine
 10
38.876217
 20
21.766622
 30
0.0
 11
37.229657
 21
22.000931
 31
0.0
  0
LINE
  5
2BC
330
2B1
100
AcDbEntity
  8
LC-001-100-D00-0
 62
     7
370
    50
100
AcDbLine
 10
37.229657
 20
22.000931
 30
0.0
 11
37.229657
 21
22.000931
 31
0.0
  0
LINE
  5
2BD
330
2B1
100
AcDbEntity
  8
LC-001-100-D00-0
 62
     7
370
    50
100
AcDbLine
 10
37.229657
 20
22.000931
 30
0.0
 11
36.30898
 21
22.606495
 31
0.0
  0
LINE
  5
2BE
330
2B1
100
AcDbEntity
  8
LC-001-100-D00-0
 62
     7
370
    50
100
AcDbLine
 10
36.30898
 20
22.606495
 30
0.0
 11
36.30898
 21
22.606495
 31
0.0
  0
LINE
  5
2BF
330
2B1
100
AcDbEntity
  8
LC-001-100-D00-0
 62
     7
370
    50
100
AcDbLine
 10
36.30898
 20
22.606495
 30
0.0
 11
35.836365
 21
22.917351
 31
0.0
  0
ENDBLK
  5
2B3
330
2B1
100
AcDbEntity
  8
0
100
AcDbBlockEnd
  0
BLOCK
  5
2D4
330
2D3
100
AcDbEntity
  8
0
100
AcDbBlockBegin
  2
POLY13
 70
     0
 71
     0
 10
0.0
 20
0.0
 30
0.0
  3
POLY13
  1

  4
POLY13
  0
LINE
  5
2D6
330
2D3
100
AcDbEntity
  8
LC-001-100-D00-0
 62
     7
370
    50
100
AcDbLine
 10
138.894495
 20
-73.441075
 30
0.0
 11
138.894495
 21
-73.441075
 31
0.0
  0
LINE
  5
2D7
330
2D3
100
AcDbEntity
  8
LC-001-100-D00-0
 62
     7
370
    50
100
AcDbLine
 10
138.894495
 20
-73.441075
 30
0.0
 11
138.850965
 21
-73.396723
 31
0.0
  0
LINE
  5
2D8
330
2D3
100
AcDbEntity
  8
LC-001-100-D00-0
 62
     7
370
    50
100
AcDbLine
 10
138.850965
 20
-73.396723
 30
0.0
 11
138.850965
 21
-73.396723
 31
0.0
  0
LINE
  5
2D9
330
2D3
100
AcDbEntity
  8
LC-001-100-D00-0
 62
     7
370
    50
100
AcDbLine
 10
138.850965
 20
-73.396723
 30
0.0
 11
138.80448
 21
-73.349361
 31
0.0
  0
LINE
  5
2DA
330
2D3
100
AcDbEntity
  8
LC-001-100-D00-0
 62
     7
370
    50
100
AcDbLine
 10
138.80448
 20
-73.349361
 30
0.0
 11
138.80448
 21
-73.349361
 31
0.0
  0
LINE
  5
2DB
330
2D3
100
AcDbEntity
  8
LC-001-100-D00-0
 62
     7
370
    50
100
AcDbLine
 10
138.80448
 20
-73.349361
 30
0.0
 11
138.75446
 21
-73.305845
 31
0.0
  0
LINE
  5
2DC
330
2D3
100
AcDbEntity
  8
LC-001-100-D00-0
 62
     7
370
    50
100
AcDbLine
 10
138.75446
 20
-73.305845
 30
0.0
 11
138.75446
 21
-73.305845
 31
0.0
  0
LINE
  5
2DD
330
2D3
100
AcDbEntity
  8
LC-001-100-D00-0
 62
     7
370
    50
100
AcDbLine
 10
138.75446
 20
-73.305845
 30
0.0
 11
138.75128
 21
-73.303079
 31
0.0
  0
ENDBLK
  5
2D5
330
2D3
100
AcDbEntity
  8
0
100
AcDbBlockEnd
  0
BLOCK
  5
2E1
330
2E0
100
AcDbEntity
  8
0
100
AcDbBlockBegin
  2
POLY14
 70
     0
 71
     0
 10
0.0
 20
0.0
 30
0.0
  3
POLY14
  1

  4
POLY14
  0
LINE
  5
2E3
330
2E0
100
AcDbEntity
  8
LC-001-100-D00-0
 62
     7
370
    50
100
AcDbLine
 10
298.77824
 20
-73.441075
 30
0.0
 11
298.77824
 21
-73.441075
 31
0.0
  0
LINE
  5
2E4
330
2E0
100
AcDbEntity
  8
LC-001-100-D00-0
 62
     7
370
    50
100
AcDbLine
 10
298.77824
 20
-73.441075
 30
0.0
 11
298.821775
 21
-73.396728
 31
0.0
  0
LINE
  5
2E5
330
2E0
100
AcDbEntity
  8
LC-001-100-D00-0
 62
     7
370
    50
100
AcDbLine
 10
298.821775
 20
-73.396728
 30
0.0
 11
298.821775
 21
-73.396728
 31
0.0
  0
LINE
  5
2E6
330
2E0
100
AcDbEntity
  8
LC-001-100-D00-0
 62
     7
370
    50
100
AcDbLine
 10
298.821775
 20
-73.396728
 30
0.0
 11
298.868265
 21
-73.349371
 31
0.0
  0
LINE
  5
2E7
330
2E0
100
AcDbEntity
  8
LC-001-100-D00-0
 62
     7
370
    50
100
AcDbLine
 10
298.868265
 20
-73.349371
 30
0.0
 11
298.868265
 21
-73.349371
 31
0.0
  0
LINE
  5
2E8
330
2E0
100
AcDbEntity
  8
LC-001-100-D00-0
 62
     7
370
    50
100
AcDbLine
 10
298.868265
 20
-73.349371
 30
0.0
 11
298.918276
 21
-73.305845
 31
0.0
  0
LINE
  5
2E9
330
2E0
100
AcDbEntity
  8
LC-001-100-D00-0
 62
     7
370
    50
100
AcDbLine
 10
298.918276
 20
-73.305845
 30
0.0
 11
298.918276
 21
-73.305845
 31
0.0
  0
LINE
  5
2EA
330
2E0
100
AcDbEntity
  8
LC-001-100-D00-0
 62
     7
370
    50
100
AcDbLine
 10
298.918276
 20
-73.305845
 30
0.0
 11
298.921455
 21
-73.303079
 31
0.0
  0
ENDBLK
  5
2E2
330
2E0
100
AcDbEntity
  8
0
100
AcDbBlockEnd
  0
BLOCK
  5
2EE
330
2ED
100
AcDbEntity
  8
0
100
AcDbBlockBegin
  2
POLY15
 70
     0
 71
     0
 10
0.0
 20
0.0
 30
0.0
  3
POLY15
  1

  4
POLY15
  0
LINE
  5
2F0
330
2ED
100
AcDbEntity
  8
LC-001-100-D00-0
 62
     7
370
    50
100
AcDbLine
 10
298.921455
 20
-33.217859
 30
0.0
 11
298.921455
 21
-33.217859
 31
0.0
  0
LINE
  5
2F1
330
2ED
100
AcDbEntity
  8
LC-001-100-D00-0
 62
     7
370
    50
100
AcDbLine
 10
298.921455
 20
-33.217859
 30
0.0
 11
298.918276
 21
-33.215092
 31
0.0
  0
LINE
  5
2F2
330
2ED
100
AcDbEntity
  8
LC-001-100-D00-0
 62
     7
370
    50
100
AcDbLine
 10
298.918276
 20
-33.215092
 30
0.0
 11
298.918276
 21
-33.215092
 31
0.0
  0
LINE
  5
2F3
330
2ED
100
AcDbEntity
  8
LC-001-100-D00-0
 62
     7
370
    50
100
AcDbLine
 10
298.918276
 20
-33.215092
 30
0.0
 11
298.868266
 21
-33.171565
 31
0.0
  0
LINE
  5
2F4
330
2ED
100
AcDbEntity
  8
LC-001-100-D00-0
 62
     7
370
    50
100
AcDbLine
 10
298.868266
 20
-33.171565
 30
0.0
 11
298.868266
 21
-33.171565
 31
0.0
  0
LINE
  5
2F5
330
2ED
100
AcDbEntity
  8
LC-001-100-D00-0
 62
     7
370
    50
100
AcDbLine
 10
298.868266
 20
-33.171565
 30
0.0
 11
298.821775
 21
-33.124208
 31
0.0
  0
LINE
  5
2F6
330
2ED
100
AcDbEntity
  8
LC-001-100-D00-0
 62
     7
370
    50
100
AcDbLine
 10
298.821775
 20
-33.124208
 30
0.0
 11
298.821775
 21
-33.124208
 31
0.0
  0
LINE
  5
2F7
330
2ED
100
AcDbEntity
  8
LC-001-100-D00-0
 62
     7
370
    50
100
AcDbLine
 10
298.821775
 20
-33.124208
 30
0.0
 11
298.77824
 21
-33.079861
 31
0.0
  0
ENDBLK
  5
2EF
330
2ED
100
AcDbEntity
  8
0
100
AcDbBlockEnd
  0
BLOCK
  5
2FC
330
2FB
100
AcDbEntity
  8
0
100
AcDbBlockBegin
  2
POLY16
 70
     0
 71
     0
 10
0.0
 20
0.0
 30
0.0
  3
POLY16
  1

  4
POLY16
  0
LINE
  5
2FE
330
2FB
100
AcDbEntity
  8
LC-001-100-D00-0
 62
     7
370
    50
100
AcDbLine
 10
138.75128
 20
-33.217859
 30
0.0
 11
138.75128
 21
-33.217859
 31
0.0
  0
LINE
  5
2FF
330
2FB
100
AcDbEntity
  8
LC-001-100-D00-0
 62
     7
370
    50
100
AcDbLine
 10
138.75128
 20
-33.217859
 30
0.0
 11
138.75446
 21
-33.215092
 31
0.0
  0
LINE
  5
300
330
2FB
100
AcDbEntity
  8
LC-001-100-D00-0
 62
     7
370
    50
100
AcDbLine
 10
138.75446
 20
-33.215092
 30
0.0
 11
138.75446
 21
-33.215092
 31
0.0
  0
LINE
  5
301
330
2FB
100
AcDbEntity
  8
LC-001-100-D00-0
 62
     7
370
    50
100
AcDbLine
 10
138.75446
 20
-33.215092
 30
0.0
 11
138.804479
 21
-33.171575
 31
0.0
  0
LINE
  5
302
330
2FB
100
AcDbEntity
  8
LC-001-100-D00-0
 62
     7
370
    50
100
AcDbLine
 10
138.804479
 20
-33.171575
 30
0.0
 11
138.804479
 21
-33.171575
 31
0.0
  0
LINE
  5
303
330
2FB
100
AcDbEntity
  8
LC-001-100-D00-0
 62
     7
370
    50
100
AcDbLine
 10
138.804479
 20
-33.171575
 30
0.0
 11
138.850965
 21
-33.124212
 31
0.0
  0
LINE
  5
304
330
2FB
100
AcDbEntity
  8
LC-001-100-D00-0
 62
     7
370
    50
100
AcDbLine
 10
138.850965
 20
-33.124212
 30
0.0
 11
138.850965
 21
-33.124212
 31
0.0
  0
LINE
  5
305
330
2FB
100
AcDbEntity
  8
LC-001-100-D00-0
 62
     7
370
    50
100
AcDbLine
 10
138.850965
 20
-33.124212
 30
0.0
 11
138.894495
 21
-33.079861
 31
0.0
  0
ENDBLK
  5
2FD
330
2FB
100
AcDbEntity
  8
0
100
AcDbBlockEnd
  0
BLOCK
  5
30E
330
30D
100
AcDbEntity
  8
0
100
AcDbBlockBegin
  2
POLY17
 70
     0
 71
     0
 10
0.0
 20
0.0
 30
0.0
  3
POLY17
  1

  4
POLY17
  0
LINE
  5
310
330
30D
100
AcDbEntity
  8
LC-001-100-D00-0
 62
     7
370
    50
100
AcDbLine
 10
138.894495
 20
-33.079861
 30
0.0
 11
138.894495
 21
-33.079861
 31
0.0
  0
LINE
  5
311
330
30D
100
AcDbEntity
  8
LC-001-100-D00-0
 62
     7
370
    50
100
AcDbLine
 10
138.894495
 20
-33.079861
 30
0.0
 11
138.879668
 21
-33.113364
 31
0.0
  0
LINE
  5
312
330
30D
100
AcDbEntity
  8
LC-001-100-D00-0
 62
     7
370
    50
100
AcDbLine
 10
138.879668
 20
-33.113364
 30
0.0
 11
138.879668
 21
-33.113364
 31
0.0
  0
LINE
  5
313
330
30D
100
AcDbEntity
  8
LC-001-100-D00-0
 62
     7
370
    50
100
AcDbLine
 10
138.879668
 20
-33.113364
 30
0.0
 11
138.854015
 21
-33.171332
 31
0.0
  0
LINE
  5
314
330
30D
100
AcDbEntity
  8
LC-001-100-D00-0
 62
     7
370
    50
100
AcDbLine
 10
138.854015
 20
-33.171332
 30
0.0
 11
138.854015
 21
-33.171332
 31
0.0
  0
LINE
  5
315
330
30D
100
AcDbEntity
  8
LC-001-100-D00-0
 62
     7
370
    50
100
AcDbLine
 10
138.854015
 20
-33.171332
 30
0.0
 11
138.860033
 21
-33.234013
 31
0.0
  0
LINE
  5
316
330
30D
100
AcDbEntity
  8
LC-001-100-D00-0
 62
     7
370
    50
100
AcDbLine
 10
138.860033
 20
-33.234013
 30
0.0
 11
138.860033
 21
-33.234013
 31
0.0
  0
LINE
  5
317
330
30D
100
AcDbEntity
  8
LC-001-100-D00-0
 62
     7
370
    50
100
AcDbLine
 10
138.860033
 20
-33.234013
 30
0.0
 11
138.862573
 21
-33.260468
 31
0.0
  0
ENDBLK
  5
30F
330
30D
100
AcDbEntity
  8
0
100
AcDbBlockEnd
  0
BLOCK
  5
31A
330
319
100
AcDbEntity
  8
0
100
AcDbBlockBegin
  2
POLY18
 70
     0
 71
     0
 10
0.0
 20
0.0
 30
0.0
  3
POLY18
  1

  4
POLY18
  0
LINE
  5
31C
330
319
100
AcDbEntity
  8
LC-001-100-D00-0
 62
     7
370
    50
100
AcDbLine
 10
298.77824
 20
-33.079861
 30
0.0
 11
298.77824
 21
-33.079861
 31
0.0
  0
LINE
  5
31D
330
319
100
AcDbEntity
  8
LC-001-100-D00-0
 62
     7
370
    50
100
AcDbLine
 10
298.77824
 20
-33.079861
 30
0.0
 11
298.793067
 21
-33.113364
 31
0.0
  0
LINE
  5
31E
330
319
100
AcDbEntity
  8
LC-001-100-D00-0
 62
     7
370
    50
100
AcDbLine
 10
298.793067
 20
-33.113364
 30
0.0
 11
298.793067
 21
-33.113364
 31
0.0
  0
LINE
  5
31F
330
319
100
AcDbEntity
  8
LC-001-100-D00-0
 62
     7
370
    50
100
AcDbLine
 10
298.793067
 20
-33.113364
 30
0.0
 11
298.818721
 21
-33.171332
 31
0.0
  0
LINE
  5
320
330
319
100
AcDbEntity
  8
LC-001-100-D00-0
 62
     7
370
    50
100
AcDbLine
 10
298.818721
 20
-33.171332
 30
0.0
 11
298.818721
 21
-33.171332
 31
0.0
  0
LINE
  5
321
330
319
100
AcDbEntity
  8
LC-001-100-D00-0
 62
     7
370
    50
100
AcDbLine
 10
298.818721
 20
-33.171332
 30
0.0
 11
298.8127
 21
-33.234013
 31
0.0
  0
LINE
  5
322
330
319
100
AcDbEntity
  8
LC-001-100-D00-0
 62
     7
370
    50
100
AcDbLine
 10
298.8127
 20
-33.234013
 30
0.0
 11
298.8127
 21
-33.234013
 31
0.0
  0
LINE
  5
323
330
319
100
AcDbEntity
  8
LC-001-100-D00-0
 62
     7
370
    50
100
AcDbLine
 10
298.8127
 20
-33.234013
 30
0.0
 11
298.810158
 21
-33.260468
 31
0.0
  0
ENDBLK
  5
31B
330
319
100
AcDbEntity
  8
0
100
AcDbBlockEnd
  0
BLOCK
  5
326
330
325
100
AcDbEntity
  8
0
100
AcDbBlockBegin
  2
POLY19
 70
     0
 71
     0
 10
0.0
 20
0.0
 30
0.0
  3
POLY19
  1

  4
POLY19
  0
LINE
  5
328
330
325
100
AcDbEntity
  8
LC-001-100-D00-0
 62
     7
370
    50
100
AcDbLine
 10
298.806843
 20
-73.260469
 30
0.0
 11
298.806843
 21
-73.260469
 31
0.0
  0
LINE
  5
329
330
325
100
AcDbEntity
  8
LC-001-100-D00-0
 62
     7
370
    50
100
AcDbLine
 10
298.806843
 20
-73.260469
 30
0.0
 11
298.810557
 21
-73.2775
 31
0.0
  0
LINE
  5
32A
330
325
100
AcDbEntity
  8
LC-001-100-D00-0
 62
     7
370
    50
100
AcDbLine
 10
298.810557
 20
-73.2775
 30
0.0
 11
298.810557
 21
-73.2775
 31
0.0
  0
LINE
  5
32B
330
325
100
AcDbEntity
  8
LC-001-100-D00-0
 62
     7
370
    50
100
AcDbLine
 10
298.810557
 20
-73.2775
 30
0.0
 11
298.82091
 21
-73.324964
 31
0.0
  0
LINE
  5
32C
330
325
100
AcDbEntity
  8
LC-001-100-D00-0
 62
     7
370
    50
100
AcDbLine
 10
298.82091
 20
-73.324964
 30
0.0
 11
298.82091
 21
-73.324964
 31
0.0
  0
LINE
  5
32D
330
325
100
AcDbEntity
  8
LC-001-100-D00-0
 62
     7
370
    50
100
AcDbLine
 10
298.82091
 20
-73.324964
 30
0.0
 11
298.802126
 21
-73.387244
 31
0.0
  0
LINE
  5
32E
330
325
100
AcDbEntity
  8
LC-001-100-D00-0
 62
     7
370
    50
100
AcDbLine
 10
298.802126
 20
-73.387244
 30
0.0
 11
298.802126
 21
-73.387244
 31
0.0
  0
LINE
  5
32F
330
325
100
AcDbEntity
  8
LC-001-100-D00-0
 62
     7
370
    50
100
AcDbLine
 10
298.802126
 20
-73.387244
 30
0.0
 11
298.783954
 21
-73.428196
 31
0.0
  0
LINE
  5
330
330
325
100
AcDbEntity
  8
LC-001-100-D00-0
 62
     7
370
    50
100
AcDbLine
 10
298.783954
 20
-73.428196
 30
0.0
 11
298.783954
 21
-73.428196
 31
0.0
  0
LINE
  5
331
330
325
100
AcDbEntity
  8
LC-001-100-D00-0
 62
     7
370
    50
100
AcDbLine
 10
298.783954
 20
-73.428196
 30
0.0
 11
298.77824
 21
-73.441075
 31
0.0
  0
ENDBLK
  5
327
330
325
100
AcDbEntity
  8
0
100
AcDbBlockEnd
  0
BLOCK
  5
334
330
333
100
AcDbEntity
  8
0
100
AcDbBlockBegin
  2
POLY20
 70
     0
 71
     0
 10
0.0
 20
0.0
 30
0.0
  3
POLY20
  1

  4
POLY20
  0
LINE
  5
336
330
333
100
AcDbEntity
  8
LC-001-100-D00-0
 62
     7
370
    50
100
AcDbLine
 10
138.865896
 20
-73.260469
 30
0.0
 11
138.865896
 21
-73.260469
 31
0.0
  0
LINE
  5
337
330
333
100
AcDbEntity
  8
LC-001-100-D00-0
 62
     7
370
    50
100
AcDbLine
 10
138.865896
 20
-73.260469
 30
0.0
 11
138.86218
 21
-73.2775
 31
0.0
  0
LINE
  5
338
330
333
100
AcDbEntity
  8
LC-001-100-D00-0
 62
     7
370
    50
100
AcDbLine
 10
138.86218
 20
-73.2775
 30
0.0
 11
138.86218
 21
-73.2775
 31
0.0
  0
LINE
  5
339
330
333
100
AcDbEntity
  8
LC-001-100-D00-0
 62
     7
370
    50
100
AcDbLine
 10
138.86218
 20
-73.2775
 30
0.0
 11
138.851824
 21
-73.324963
 31
0.0
  0
LINE
  5
33A
330
333
100
AcDbEntity
  8
LC-001-100-D00-0
 62
     7
370
    50
100
AcDbLine
 10
138.851824
 20
-73.324963
 30
0.0
 11
138.851824
 21
-73.324963
 31
0.0
  0
LINE
  5
33B
330
333
100
AcDbEntity
  8
LC-001-100-D00-0
 62
     7
370
    50
100
AcDbLine
 10
138.851824
 20
-73.324963
 30
0.0
 11
138.870603
 21
-73.387246
 31
0.0
  0
LINE
  5
33C
330
333
100
AcDbEntity
  8
LC-001-100-D00-0
 62
     7
370
    50
100
AcDbLine
 10
138.870603
 20
-73.387246
 30
0.0
 11
138.870603
 21
-73.387246
 31
0.0
  0
LINE
  5
33D
330
333
100
AcDbEntity
  8
LC-001-100-D00-0
 62
     7
370
    50
100
AcDbLine
 10
138.870603
 20
-73.387246
 30
0.0
 11
138.888779
 21
-73.428196
 31
0.0
  0
LINE
  5
33E
330
333
100
AcDbEntity
  8
LC-001-100-D00-0
 62
     7
370
    50
100
AcDbLine
 10
138.888779
 20
-73.428196
 30
0.0
 11
138.888779
 21
-73.428196
 31
0.0
  0
LINE
  5
33F
330
333
100
AcDbEntity
  8
LC-001-100-D00-0
 62
     7
370
    50
100
AcDbLine
 10
138.888779
 20
-73.428196
 30
0.0
 11
138.894495
 21
-73.441075
 31
0.0
  0
ENDBLK
  5
335
330
333
100
AcDbEntity
  8
0
100
AcDbBlockEnd
  0
BLOCK
  5
363
330
359
100
AcDbEntity
  8
0
100
AcDbBlockBegin
  2
*D21
 70
     1
 71
     0
 10
0.0
 20
0.0
 30
0.0
  3
*D21
  1

  0
LINE
  5
35A
330
359
100
AcDbEntity
  8
LC-001-100-D00-0
 62
     2
370
    -2
100
AcDbLine
 10
433.836367
 20
246.200357
 30
0.0
 11
433.836367
 21
335.133533
 31
0.0
  0
LINE
  5
35B
330
359
100
AcDbEntity
  8
LC-001-100-D00-0
 62
     2
370
    -2
100
AcDbLine
 10
3.836367
 20
246.200357
 30
0.0
 11
3.836367
 21
335.133533
 31
0.0
  0
LINE
  5
35C
330
359
100
AcDbEntity
  8
LC-001-100-D00-0
 62
     2
370
    -2
100
AcDbLine
 10
405.836367
 20
331.533533
 30
0.0
 11
31.836367
 21
331.533533
 31
0.0
  0
SOLID
  5
35D
330
359
100
AcDbEntity
  8
LC-001-100-D00-0
 62
     2
100
AcDbTrace
 10
405.836367
 20
326.866866
 30
0.0
 11
405.836367
 21
336.200199
 31
0.0
 12
433.836367
 22
331.533533
 32
0.0
 13
433.836367
 23
331.533533
 33
0.0
  0
SOLID
  5
35E
330
359
100
AcDbEntity
  8
LC-001-100-D00-0
 62
     2
100
AcDbTrace
 10
31.836367
 20
336.200199
 30
0.0
 11
31.836367
 21
326.866866
 31
0.0
 12
3.836367
 22
331.533533
 32
0.0
 13
3.836367
 23
331.533533
 33
0.0
  0
MTEXT
  5
35F
330
359
100
AcDbEntity
  8
LC-001-100-D00-0
 62
     2
100
AcDbMText
 10
226.290517
 20
362.333533
 30
0.0
 40
28.0
 41
0.0
 71
     5
 72
     1
  1
\A1;430x182
  7
LCTX15-400-0-0pDIN-Schrift
 73
     1
 44
1.0
  0
POINT
  5
360
330
359
100
AcDbEntity
  8
Defpoints
 62
     0
100
AcDbPoint
 10
433.836367
 20
246.200357
 30
0.0
  0
POINT
  5
361
330
359
100
AcDbEntity
  8
Defpoints
 62
     0
100
AcDbPoint
 10
3.836367
 20
246.200357
 30
0.0
  0
POINT
  5
362
330
359
100
AcDbEntity
  8
Defpoints
 62
     0
100
AcDbPoint
 10
3.836367
 20
331.533533
 30
0.0
  0
ENDBLK
  5
364
330
359
100
AcDbEntity
  8
0
100
AcDbBlockEnd
  0
BLOCK
  5
370
330
366
100
AcDbEntity
  8
0
100
AcDbBlockBegin
  2
*D22
 70
     1
 71
     0
 10
0.0
 20
0.0
 30
0.0
  3
*D22
  1

  0
LINE
  5
367
330
366
100
AcDbEntity
  8
LC-001-100-D00-0
 62
     2
370
    -2
100
AcDbLine
 10
366.836367
 20
252.200357
 30
0.0
 11
366.836367
 21
280.43967
 31
0.0
  0
LINE
  5
368
330
366
100
AcDbEntity
  8
LC-001-100-D00-0
 62
     2
370
    -2
100
AcDbLine
 10
70.836367
 20
252.200357
 30
0.0
 11
70.836367
 21
280.43967
 31
0.0
  0
LINE
  5
369
330
366
100
AcDbEntity
  8
LC-001-100-D00-0
 62
     2
370
    -2
100
AcDbLine
 10
338.836367
 20
276.83967
 30
0.0
 11
98.836367
 21
276.83967
 31
0.0
  0
SOLID
  5
36A
330
366
100
AcDbEntity
  8
LC-001-100-D00-0
 62
     2
100
AcDbTrace
 10
338.836367
 20
272.173003
 30
0.0
 11
338.836367
 21
281.506337
 31
0.0
 12
366.836367
 22
276.83967
 32
0.0
 13
366.836367
 23
276.83967
 33
0.0
  0
SOLID
  5
36B
330
366
100
AcDbEntity
  8
LC-001-100-D00-0
 62
     2
100
AcDbTrace
 10
98.836367
 20
281.506337
 30
0.0
 11
98.836367
 21
272.173003
 31
0.0
 12
70.836367
 22
276.83967
 32
0.0
 13
70.836367
 23
276.83967
 33
0.0
  0
MTEXT
  5
36C
330
366
100
AcDbEntity
  8
LC-001-100-D00-0
 62
     2
100
AcDbMText
 10
228.106139
 20
307.63967
 30
0.0
 40
28.0
 41
0.0
 71
     5
 72
     1
  1
\A1;296x40
  7
LCTX15-400-0-0pDIN-Schrift
 73
     1
 44
1.0
  0
POINT
  5
36D
330
366
100
AcDbEntity
  8
Defpoints
 62
     0
100
AcDbPoint
 10
366.836367
 20
252.200357
 30
0.0
  0
POINT
  5
36E
330
366
100
AcDbEntity
  8
Defpoints
 62
     0
100
AcDbPoint
 10
70.836367
 20
252.200357
 30
0.0
  0
POINT
  5
36F
330
366
100
AcDbEntity
  8
Defpoints
 62
     0
100
AcDbPoint
 10
70.836367
 20
276.83967
 30
0.0
  0
ENDBLK
  5
371
330
366
100
AcDbEntity
  8
0
100
AcDbBlockEnd
  0
BLOCK
  5
37E
330
373
100
AcDbEntity
  8
0
100
AcDbBlockBegin
  2
*D23
 70
     1
 71
     0
 10
0.0
 20
0.0
 30
0.0
  3
*D23
  1

  0
LINE
  5
374
330
373
100
AcDbEntity
  8
LC-001-100-D00-0
 62
     2
370
    -2
100
AcDbLine
 10
3.836367
 20
246.200357
 30
0.0
 11
-17.972149
 21
246.200357
 31
0.0
  0
LINE
  5
375
330
373
100
AcDbEntity
  8
LC-001-100-D00-0
 62
     2
370
    -2
100
AcDbLine
 10
11.235389
 20
228.200357
 30
0.0
 11
-17.972149
 21
228.200357
 31
0.0
  0
LINE
  5
376
330
373
100
AcDbEntity
  8
LC-001-100-D00-0
 62
     2
370
    -2
100
AcDbLine
 10
-14.372149
 20
200.200357
 30
0.0
 11
-14.372149
 21
172.200357
 31
0.0
  0
LINE
  5
377
330
373
100
AcDbEntity
  8
LC-001-100-D00-0
 62
     2
370
    -2
100
AcDbLine
 10
-14.372149
 20
274.200357
 30
0.0
 11
-14.372149
 21
283.960256
 31
0.0
  0
SOLID
  5
378
330
373
100
AcDbEntity
  8
LC-001-100-D00-0
 62
     2
100
AcDbTrace
 10
-19.038816
 20
274.200357
 30
0.0
 11
-9.705482
 21
274.200357
 31
0.0
 12
-14.372149
 22
246.200357
 32
0.0
 13
-14.372149
 23
246.200357
 33
0.0
  0
SOLID
  5
379
330
373
100
AcDbEntity
  8
LC-001-100-D00-0
 62
     2
100
AcDbTrace
 10
-9.705482
 20
200.200357
 30
0.0
 11
-19.038816
 21
200.200357
 31
0.0
 12
-14.372149
 22
228.200357
 32
0.0
 13
-14.372149
 23
228.200357
 33
0.0
  0
MTEXT
  5
37A
330
373
100
AcDbEntity
  8
LC-001-100-D00-0
 62
     2
100
AcDbMText
 10
-45.172149
 20
264.411533
 30
0.0
 40
28.0
 41
0.0
 71
     5
 72
     1
  1
\A1;18
  7
LCTX15-400-0-0pDIN-Schrift
 11
6.123031769111886E-17
 21
1.0
 31
0.0
 73
     1
 44
1.0
  0
POINT
  5
37B
330
373
100
AcDbEntity
  8
Defpoints
 62
     0
100
AcDbPoint
 10
3.836367
 20
246.200357
 30
0.0
  0
POINT
  5
37C
330
373
100
AcDbEntity
  8
Defpoints
 62
     0
100
AcDbPoint
 10
11.235389
 20
228.200357
 30
0.0
  0
POINT
  5
37D
330
373
100
AcDbEntity
  8
Defpoints
 62
     0
100
AcDbPoint
 10
-14.372149
 20
228.200357
 30
0.0
  0
ENDBLK
  5
37F
330
373
100
AcDbEntity
  8
0
100
AcDbBlockEnd
  0
BLOCK
  5
3E9
330
3E8
100
AcDbEntity
  8
0
100
AcDbBlockBegin
  2
POLY21
 70
     0
 71
     0
 10
0.0
 20
0.0
 30
0.0
  3
POLY21
  1

  4
POLY21
  0
LINE
  5
3EB
330
3E8
100
AcDbEntity
  8
LC-001-100-D00-0
 62
     7
370
    50
100
AcDbLine
 10
258.329246
 20
212.069744
 30
0.0
 11
258.329246
 21
212.069744
 31
0.0
  0
LINE
  5
3EC
330
3E8
100
AcDbEntity
  8
LC-001-100-D00-0
 62
     7
370
    50
100
AcDbLine
 10
258.329246
 20
212.069744
 30
0.0
 11
258.340506
 21
212.181908
 31
0.0
  0
LINE
  5
3ED
330
3E8
100
AcDbEntity
  8
LC-001-100-D00-0
 62
     7
370
    50
100
AcDbLine
 10
258.340506
 20
212.181908
 30
0.0
 11
258.340506
 21
212.181908
 31
0.0
  0
LINE
  5
3EE
330
3E8
100
AcDbEntity
  8
LC-001-100-D00-0
 62
     7
370
    50
100
AcDbLine
 10
258.340506
 20
212.181908
 30
0.0
 11
258.363025
 21
212.406235
 31
0.0
  0
LINE
  5
3EF
330
3E8
100
AcDbEntity
  8
LC-001-100-D00-0
 62
     7
370
    50
100
AcDbLine
 10
258.363025
 20
212.406235
 30
0.0
 11
258.363025
 21
212.406235
 31
0.0
  0
LINE
  5
3F0
330
3E8
100
AcDbEntity
  8
LC-001-100-D00-0
 62
     7
370
    50
100
AcDbLine
 10
258.363025
 20
212.406235
 30
0.0
 11
258.519625
 21
212.687215
 31
0.0
  0
LINE
  5
3F1
330
3E8
100
AcDbEntity
  8
LC-001-100-D00-0
 62
     7
370
    50
100
AcDbLine
 10
258.519625
 20
212.687215
 30
0.0
 11
258.519625
 21
212.687215
 31
0.0
  0
LINE
  5
3F2
330
3E8
100
AcDbEntity
  8
LC-001-100-D00-0
 62
     7
370
    50
100
AcDbLine
 10
258.519625
 20
212.687215
 30
0.0
 11
258.669962
 21
212.81766
 31
0.0
  0
LINE
  5
3F3
330
3E8
100
AcDbEntity
  8
LC-001-100-D00-0
 62
     7
370
    50
100
AcDbLine
 10
258.669962
 20
212.81766
 30
0.0
 11
258.669962
 21
212.81766
 31
0.0
  0
LINE
  5
3F4
330
3E8
100
AcDbEntity
  8
LC-001-100-D00-0
 62
     7
370
    50
100
AcDbLine
 10
258.669962
 20
212.81766
 30
0.0
 11
258.735504
 21
212.874531
 31
0.0
  0
ENDBLK
  5
3EA
330
3E8
100
AcDbEntity
  8
0
100
AcDbBlockEnd
  0
BLOCK
  5
3F8
330
3F7
100
AcDbEntity
  8
0
100
AcDbBlockBegin
  2
POLY22
 70
     0
 71
     0
 10
0.0
 20
0.0
 30
0.0
  3
POLY22
  1

  4
POLY22
  0
LINE
  5
3FA
330
3F7
100
AcDbEntity
  8
LC-001-100-D00-0
 62
     7
370
    50
100
AcDbLine
 10
178.937232
 20
212.874531
 30
0.0
 11
178.937232
 21
212.874531
 31
0.0
  0
LINE
  5
3FB
330
3F7
100
AcDbEntity
  8
LC-001-100-D00-0
 62
     7
370
    50
100
AcDbLine
 10
178.937232
 20
212.874531
 30
0.0
 11
179.020808
 21
212.798837
 31
0.0
  0
LINE
  5
3FC
330
3F7
100
AcDbEntity
  8
LC-001-100-D00-0
 62
     7
370
    50
100
AcDbLine
 10
179.020808
 20
212.798837
 30
0.0
 11
179.020808
 21
212.798837
 31
0.0
  0
LINE
  5
3FD
330
3F7
100
AcDbEntity
  8
LC-001-100-D00-0
 62
     7
370
    50
100
AcDbLine
 10
179.020808
 20
212.798837
 30
0.0
 11
179.187959
 21
212.647449
 31
0.0
  0
LINE
  5
3FE
330
3F7
100
AcDbEntity
  8
LC-001-100-D00-0
 62
     7
370
    50
100
AcDbLine
 10
179.187959
 20
212.647449
 30
0.0
 11
179.187959
 21
212.647449
 31
0.0
  0
LINE
  5
3FF
330
3F7
100
AcDbEntity
  8
LC-001-100-D00-0
 62
     7
370
    50
100
AcDbLine
 10
179.187959
 20
212.647449
 30
0.0
 11
179.32101
 21
212.354578
 31
0.0
  0
LINE
  5
400
330
3F7
100
AcDbEntity
  8
LC-001-100-D00-0
 62
     7
370
    50
100
AcDbLine
 10
179.32101
 20
212.354578
 30
0.0
 11
179.32101
 21
212.354578
 31
0.0
  0
LINE
  5
401
330
3F7
100
AcDbEntity
  8
LC-001-100-D00-0
 62
     7
370
    50
100
AcDbLine
 10
179.32101
 20
212.354578
 30
0.0
 11
179.336666
 21
212.156187
 31
0.0
  0
LINE
  5
402
330
3F7
100
AcDbEntity
  8
LC-001-100-D00-0
 62
     7
370
    50
100
AcDbLine
 10
179.336666
 20
212.156187
 30
0.0
 11
179.336666
 21
212.156187
 31
0.0
  0
LINE
  5
403
330
3F7
100
AcDbEntity
  8
LC-001-100-D00-0
 62
     7
370
    50
100
AcDbLine
 10
179.336666
 20
212.156187
 30
0.0
 11
179.343488
 21
212.069744
 31
0.0
  0
ENDBLK
  5
3F9
330
3F7
100
AcDbEntity
  8
0
100
AcDbBlockEnd
  0
BLOCK
  5
4C0
330
4BF
100
AcDbEntity
  8
0
100
AcDbBlockBegin
  2
KLON1
 70
     0
 71
     0
 10
0.0
 20
0.0
 30
0.0
  3
KLON1
  1

  4
KLON1
  0
LINE
  5
4C2
330
4BF
100
AcDbEntity
  8
LC-001-100-D00-0
 62
     7
370
    15
100
AcDbLine
 10
108.586367
 20
224.373063
 30
0.0
 11
132.189047
 21
223.458055
 31
0.0
  0
LINE
  5
4C3
330
4BF
100
AcDbEntity
  8
LC-001-100-D00-0
 62
     7
370
    15
100
AcDbLine
 10
132.189047
 20
223.458055
 30
0.0
 11
138.635066
 21
223.208161
 31
0.0
  0
ENDBLK
  5
4C1
330
4BF
100
AcDbEntity
  8
0
100
AcDbBlockEnd
  0
BLOCK
  5
4C6
330
4C5
100
AcDbEntity
  8
0
100
AcDbBlockBegin
  2
KLON2
 70
     0
 71
     0
 10
0.0
 20
0.0
 30
0.0
  3
KLON2
  1

  4
KLON2
  0
LINE
  5
4C8
330
4C5
100
AcDbEntity
  8
LC-001-100-D00-0
 62
     7
370
    15
100
AcDbLine
 10
329.08636
 20
224.373063
 30
0.0
 11
305.483688
 21
223.458055
 31
0.0
  0
LINE
  5
4C9
330
4C5
100
AcDbEntity
  8
LC-001-100-D00-0
 62
     7
370
    15
100
AcDbLine
 10
305.483688
 20
223.458055
 30
0.0
 11
299.037669
 21
223.208161
 31
0.0
  0
ENDBLK
  5
4C7
330
4C5
100
AcDbEntity
  8
0
100
AcDbBlockEnd
  0
BLOCK
  5
4CC
330
4CB
100
AcDbEntity
  8
0
100
AcDbBlockBegin
  2
POLY23
 70
     0
 71
     0
 10
0.0
 20
0.0
 30
0.0
  3
POLY23
  1

  4
POLY23
  0
LINE
  5
4CE
330
4CB
100
AcDbEntity
  8
LC-001-100-D00-0
 62
     7
370
    50
100
AcDbLine
 10
367.991325
 20
225.881295
 30
0.0
 11
367.991325
 21
225.881295
 31
0.0
  0
LINE
  5
4CF
330
4CB
100
AcDbEntity
  8
LC-001-100-D00-0
 62
     7
370
    50
100
AcDbLine
 10
367.991325
 20
225.881295
 30
0.0
 11
367.044167
 21
225.844577
 31
0.0
  0
LINE
  5
4D0
330
4CB
100
AcDbEntity
  8
LC-001-100-D00-0
 62
     7
370
    50
100
AcDbLine
 10
367.044167
 20
225.844577
 30
0.0
 11
367.044167
 21
225.844577
 31
0.0
  0
LINE
  5
4D1
330
4CB
100
AcDbEntity
  8
LC-001-100-D00-0
 62
     7
370
    50
100
AcDbLine
 10
367.044167
 20
225.844577
 30
0.0
 11
360.575791
 21
225.593823
 31
0.0
  0
LINE
  5
4D2
330
4CB
100
AcDbEntity
  8
LC-001-100-D00-0
 62
     7
370
    50
100
AcDbLine
 10
360.575791
 20
225.593823
 30
0.0
 11
360.575791
 21
225.593823
 31
0.0
  0
LINE
  5
4D3
330
4CB
100
AcDbEntity
  8
LC-001-100-D00-0
 62
     7
370
    50
100
AcDbLine
 10
360.575791
 20
225.593823
 30
0.0
 11
354.107504
 21
225.343063
 31
0.0
  0
LINE
  5
4D4
330
4CB
100
AcDbEntity
  8
LC-001-100-D00-0
 62
     7
370
    50
100
AcDbLine
 10
354.107504
 20
225.343063
 30
0.0
 11
354.107504
 21
225.343063
 31
0.0
  0
LINE
  5
4D5
330
4CB
100
AcDbEntity
  8
LC-001-100-D00-0
 62
     7
370
    50
100
AcDbLine
 10
354.107504
 20
225.343063
 30
0.0
 11
348.586362
 21
225.129021
 31
0.0
  0
ENDBLK
  5
4CD
330
4CB
100
AcDbEntity
  8
0
100
AcDbBlockEnd
  0
BLOCK
  5
4D8
330
4D7
100
AcDbEntity
  8
0
100
AcDbBlockBegin
  2
POLY24
 70
     0
 71
     0
 10
0.0
 20
0.0
 30
0.0
  3
POLY24
  1

  4
POLY24
  0
LINE
  5
4DA
330
4D7
100
AcDbEntity
  8
LC-001-100-D00-0
 62
     7
370
    50
100
AcDbLine
 10
69.681417
 20
225.881295
 30
0.0
 11
69.681417
 21
225.881295
 31
0.0
  0
LINE
  5
4DB
330
4D7
100
AcDbEntity
  8
LC-001-100-D00-0
 62
     7
370
    50
100
AcDbLine
 10
69.681417
 20
225.881295
 30
0.0
 11
70.628571
 21
225.844577
 31
0.0
  0
LINE
  5
4DC
330
4D7
100
AcDbEntity
  8
LC-001-100-D00-0
 62
     7
370
    50
100
AcDbLine
 10
70.628571
 20
225.844577
 30
0.0
 11
70.628571
 21
225.844577
 31
0.0
  0
LINE
  5
4DD
330
4D7
100
AcDbEntity
  8
LC-001-100-D00-0
 62
     7
370
    50
100
AcDbLine
 10
70.628571
 20
225.844577
 30
0.0
 11
77.096941
 21
225.593822
 31
0.0
  0
LINE
  5
4DE
330
4D7
100
AcDbEntity
  8
LC-001-100-D00-0
 62
     7
370
    50
100
AcDbLine
 10
77.096941
 20
225.593822
 30
0.0
 11
77.096941
 21
225.593822
 31
0.0
  0
LINE
  5
4DF
330
4D7
100
AcDbEntity
  8
LC-001-100-D00-0
 62
     7
370
    50
100
AcDbLine
 10
77.096941
 20
225.593822
 30
0.0
 11
83.565223
 21
225.343062
 31
0.0
  0
LINE
  5
4E0
330
4D7
100
AcDbEntity
  8
LC-001-100-D00-0
 62
     7
370
    50
100
AcDbLine
 10
83.565223
 20
225.343062
 30
0.0
 11
83.565223
 21
225.343062
 31
0.0
  0
LINE
  5
4E1
330
4D7
100
AcDbEntity
  8
LC-001-100-D00-0
 62
     7
370
    50
100
AcDbLine
 10
83.565223
 20
225.343062
 30
0.0
 11
89.086365
 21
225.129021
 31
0.0
  0
ENDBLK
  5
4D9
330
4D7
100
AcDbEntity
  8
0
100
AcDbBlockEnd
  0
BLOCK
  5
4EC
330
4EB
100
AcDbEntity
  8
0
100
AcDbBlockBegin
  2
KLON3
 70
     0
 71
     0
 10
0.0
 20
0.0
 30
0.0
  3
KLON3
  1

  4
KLON3
  0
LINE
  5
4EE
330
4EB
100
AcDbEntity
  8
LC-001-100-D00-0
 62
     7
370
    15
100
AcDbLine
 10
138.913874
 20
227.200357
 30
0.0
 11
138.910093
 21
227.005267
 31
0.0
  0
LINE
  5
4EF
330
4EB
100
AcDbEntity
  8
LC-001-100-D00-0
 62
     7
370
    15
100
AcDbLine
 10
138.910093
 20
227.005267
 30
0.0
 11
138.906457
 21
226.817673
 31
0.0
  0
LINE
  5
4F0
330
4EB
100
AcDbEntity
  8
LC-001-100-D00-0
 62
     7
370
    15
100
AcDbLine
 10
138.906457
 20
226.817673
 30
0.0
 11
138.903108
 21
226.644786
 31
0.0
  0
LINE
  5
4F1
330
4EB
100
AcDbEntity
  8
LC-001-100-D00-0
 62
     7
370
    15
100
AcDbLine
 10
138.903108
 20
226.644786
 30
0.0
 11
138.900172
 21
226.493252
 31
0.0
  0
LINE
  5
4F2
330
4EB
100
AcDbEntity
  8
LC-001-100-D00-0
 62
     7
370
    15
100
AcDbLine
 10
138.900172
 20
226.493252
 30
0.0
 11
138.89993
 21
226.48085
 31
0.0
  0
ENDBLK
  5
4ED
330
4EB
100
AcDbEntity
  8
0
100
AcDbBlockEnd
  0
BLOCK
  5
4F5
330
4F4
100
AcDbEntity
  8
0
100
AcDbBlockBegin
  2
KLON4
 70
     0
 71
     0
 10
0.0
 20
0.0
 30
0.0
  3
KLON4
  1

  4
KLON4
  0
LINE
  5
4F7
330
4F4
100
AcDbEntity
  8
LC-001-100-D00-0
 62
     7
370
    15
100
AcDbLine
 10
298.758861
 20
227.200357
 30
0.0
 11
298.762646
 21
227.005267
 31
0.0
  0
LINE
  5
4F8
330
4F4
100
AcDbEntity
  8
LC-001-100-D00-0
 62
     7
370
    15
100
AcDbLine
 10
298.762646
 20
227.005267
 30
0.0
 11
298.766274
 21
226.817673
 31
0.0
  0
LINE
  5
4F9
330
4F4
100
AcDbEntity
  8
LC-001-100-D00-0
 62
     7
370
    15
100
AcDbLine
 10
298.766274
 20
226.817673
 30
0.0
 11
298.769627
 21
226.644786
 31
0.0
  0
LINE
  5
4FA
330
4F4
100
AcDbEntity
  8
LC-001-100-D00-0
 62
     7
370
    15
100
AcDbLine
 10
298.769627
 20
226.644786
 30
0.0
 11
298.772563
 21
226.493252
 31
0.0
  0
LINE
  5
4FB
330
4F4
100
AcDbEntity
  8
LC-001-100-D00-0
 62
     7
370
    15
100
AcDbLine
 10
298.772563
 20
226.493252
 30
0.0
 11
298.772801
 21
226.48085
 31
0.0
  0
ENDBLK
  5
4F6
330
4F4
100
AcDbEntity
  8
0
100
AcDbBlockEnd
  0
BLOCK
  5
50A
330
509
100
AcDbEntity
  8
0
100
AcDbBlockBegin
  2
POLY25
 70
     0
 71
     0
 10
0.0
 20
0.0
 30
0.0
  3
POLY25
  1

  4
POLY25
  0
LINE
  5
50C
330
509
100
AcDbEntity
  8
LC-001-100-D00-0
 62
     7
370
    50
100
AcDbLine
 10
18.320304
 20
229.061184
 30
0.0
 11
18.320304
 21
229.061184
 31
0.0
  0
LINE
  5
50D
330
509
100
AcDbEntity
  8
LC-001-100-D00-0
 62
     7
370
    50
100
AcDbLine
 10
18.320304
 20
229.061184
 30
0.0
 11
18.308918
 21
228.957062
 31
0.0
  0
LINE
  5
50E
330
509
100
AcDbEntity
  8
LC-001-100-D00-0
 62
     7
370
    50
100
AcDbLine
 10
18.308918
 20
228.957062
 30
0.0
 11
18.308918
 21
228.957062
 31
0.0
  0
LINE
  5
50F
330
509
100
AcDbEntity
  8
LC-001-100-D00-0
 62
     7
370
    50
100
AcDbLine
 10
18.308918
 20
228.957062
 30
0.0
 11
18.28617
 21
228.749016
 31
0.0
  0
LINE
  5
510
330
509
100
AcDbEntity
  8
LC-001-100-D00-0
 62
     7
370
    50
100
AcDbLine
 10
18.28617
 20
228.749016
 30
0.0
 11
18.28617
 21
228.749016
 31
0.0
  0
LINE
  5
511
330
509
100
AcDbEntity
  8
LC-001-100-D00-0
 62
     7
370
    50
100
AcDbLine
 10
18.28617
 20
228.749016
 30
0.0
 11
18.197009
 21
228.490229
 31
0.0
  0
LINE
  5
512
330
509
100
AcDbEntity
  8
LC-001-100-D00-0
 62
     7
370
    50
100
AcDbLine
 10
18.197009
 20
228.490229
 30
0.0
 11
18.197009
 21
228.490229
 31
0.0
  0
LINE
  5
513
330
509
100
AcDbEntity
  8
LC-001-100-D00-0
 62
     7
370
    50
100
AcDbLine
 10
18.197009
 20
228.490229
 30
0.0
 11
18.07293
 21
228.297047
 31
0.0
  0
LINE
  5
514
330
509
100
AcDbEntity
  8
LC-001-100-D00-0
 62
     7
370
    50
100
AcDbLine
 10
18.07293
 20
228.297047
 30
0.0
 11
18.07293
 21
228.297047
 31
0.0
  0
LINE
  5
515
330
509
100
AcDbEntity
  8
LC-001-100-D00-0
 62
     7
370
    50
100
AcDbLine
 10
18.07293
 20
228.297047
 30
0.0
 11
17.944653
 21
228.213613
 31
0.0
  0
LINE
  5
516
330
509
100
AcDbEntity
  8
LC-001-100-D00-0
 62
     7
370
    50
100
AcDbLine
 10
17.944653
 20
228.213613
 30
0.0
 11
17.944653
 21
228.213613
 31
0.0
  0
LINE
  5
517
330
509
100
AcDbEntity
  8
LC-001-100-D00-0
 62
     7
370
    50
100
AcDbLine
 10
17.944653
 20
228.213613
 30
0.0
 11
17.859894
 21
228.200468
 31
0.0
  0
LINE
  5
518
330
509
100
AcDbEntity
  8
LC-001-100-D00-0
 62
     7
370
    50
100
AcDbLine
 10
17.859894
 20
228.200468
 30
0.0
 11
17.859894
 21
228.200468
 31
0.0
  0
LINE
  5
519
330
509
100
AcDbEntity
  8
LC-001-100-D00-0
 62
     7
370
    50
100
AcDbLine
 10
17.859894
 20
228.200468
 30
0.0
 11
17.831963
 21
228.200363
 31
0.0
  0
LINE
  5
51A
330
509
100
AcDbEntity
  8
LC-001-100-D00-0
 62
     7
370
    50
100
AcDbLine
 10
17.831963
 20
228.200363
 30
0.0
 11
17.831963
 21
228.200363
 31
0.0
  0
LINE
  5
51B
330
509
100
AcDbEntity
  8
LC-001-100-D00-0
 62
     7
370
    50
100
AcDbLine
 10
17.831963
 20
228.200363
 30
0.0
 11
17.830875
 21
228.200359
 31
0.0
  0
ENDBLK
  5
50B
330
509
100
AcDbEntity
  8
0
100
AcDbBlockEnd
  0
BLOCK
  5
520
330
51F
100
AcDbEntity
  8
0
100
AcDbBlockBegin
  2
POLY26
 70
     0
 71
     0
 10
0.0
 20
0.0
 30
0.0
  3
POLY26
  1

  4
POLY26
  0
LINE
  5
522
330
51F
100
AcDbEntity
  8
LC-001-100-D00-0
 62
     7
370
    50
100
AcDbLine
 10
419.352424
 20
229.061184
 30
0.0
 11
419.352424
 21
229.061184
 31
0.0
  0
LINE
  5
523
330
51F
100
AcDbEntity
  8
LC-001-100-D00-0
 62
     7
370
    50
100
AcDbLine
 10
419.352424
 20
229.061184
 30
0.0
 11
419.363808
 21
228.957062
 31
0.0
  0
LINE
  5
524
330
51F
100
AcDbEntity
  8
LC-001-100-D00-0
 62
     7
370
    50
100
AcDbLine
 10
419.363808
 20
228.957062
 30
0.0
 11
419.363808
 21
228.957062
 31
0.0
  0
LINE
  5
525
330
51F
100
AcDbEntity
  8
LC-001-100-D00-0
 62
     7
370
    50
100
AcDbLine
 10
419.363808
 20
228.957062
 30
0.0
 11
419.386555
 21
228.749016
 31
0.0
  0
LINE
  5
526
330
51F
100
AcDbEntity
  8
LC-001-100-D00-0
 62
     7
370
    50
100
AcDbLine
 10
419.386555
 20
228.749016
 30
0.0
 11
419.386555
 21
228.749016
 31
0.0
  0
LINE
  5
527
330
51F
100
AcDbEntity
  8
LC-001-100-D00-0
 62
     7
370
    50
100
AcDbLine
 10
419.386555
 20
228.749016
 30
0.0
 11
419.475728
 21
228.490229
 31
0.0
  0
LINE
  5
528
330
51F
100
AcDbEntity
  8
LC-001-100-D00-0
 62
     7
370
    50
100
AcDbLine
 10
419.475728
 20
228.490229
 30
0.0
 11
419.475728
 21
228.490229
 31
0.0
  0
LINE
  5
529
330
51F
100
AcDbEntity
  8
LC-001-100-D00-0
 62
     7
370
    50
100
AcDbLine
 10
419.475728
 20
228.490229
 30
0.0
 11
419.599761
 21
228.297045
 31
0.0
  0
LINE
  5
52A
330
51F
100
AcDbEntity
  8
LC-001-100-D00-0
 62
     7
370
    50
100
AcDbLine
 10
419.599761
 20
228.297045
 30
0.0
 11
419.599761
 21
228.297045
 31
0.0
  0
LINE
  5
52B
330
51F
100
AcDbEntity
  8
LC-001-100-D00-0
 62
     7
370
    50
100
AcDbLine
 10
419.599761
 20
228.297045
 30
0.0
 11
419.728195
 21
228.213614
 31
0.0
  0
LINE
  5
52C
330
51F
100
AcDbEntity
  8
LC-001-100-D00-0
 62
     7
370
    50
100
AcDbLine
 10
419.728195
 20
228.213614
 30
0.0
 11
419.728195
 21
228.213614
 31
0.0
  0
LINE
  5
52D
330
51F
100
AcDbEntity
  8
LC-001-100-D00-0
 62
     7
370
    50
100
AcDbLine
 10
419.728195
 20
228.213614
 30
0.0
 11
419.812741
 21
228.200468
 31
0.0
  0
LINE
  5
52E
330
51F
100
AcDbEntity
  8
LC-001-100-D00-0
 62
     7
370
    50
100
AcDbLine
 10
419.812741
 20
228.200468
 30
0.0
 11
419.812741
 21
228.200468
 31
0.0
  0
LINE
  5
52F
330
51F
100
AcDbEntity
  8
LC-001-100-D00-0
 62
     7
370
    50
100
AcDbLine
 10
419.812741
 20
228.200468
 30
0.0
 11
419.840774
 21
228.200363
 31
0.0
  0
LINE
  5
530
330
51F
100
AcDbEntity
  8
LC-001-100-D00-0
 62
     7
370
    50
100
AcDbLine
 10
419.840774
 20
228.200363
 30
0.0
 11
419.840774
 21
228.200363
 31
0.0
  0
LINE
  5
531
330
51F
100
AcDbEntity
  8
LC-001-100-D00-0
 62
     7
370
    50
100
AcDbLine
 10
419.840774
 20
228.200363
 30
0.0
 11
419.841867
 21
228.200359
 31
0.0
  0
ENDBLK
  5
521
330
51F
100
AcDbEntity
  8
0
100
AcDbBlockEnd
  0
BLOCK
  5
53E
330
53D
100
AcDbEntity
  8
0
100
AcDbBlockBegin
  2
POLY27
 70
     0
 71
     0
 10
0.0
 20
0.0
 30
0.0
  3
POLY27
  1

  4
POLY27
  0
LINE
  5
540
330
53D
100
AcDbEntity
  8
LC-001-100-D00-0
 62
     7
370
    50
100
AcDbLine
 10
400.83636
 20
228.200359
 30
0.0
 11
400.83636
 21
228.200359
 31
0.0
  0
LINE
  5
541
330
53D
100
AcDbEntity
  8
LC-001-100-D00-0
 62
     7
370
    50
100
AcDbLine
 10
400.83636
 20
228.200359
 30
0.0
 11
400.173091
 21
228.200359
 31
0.0
  0
LINE
  5
542
330
53D
100
AcDbEntity
  8
LC-001-100-D00-0
 62
     7
370
    50
100
AcDbLine
 10
400.173091
 20
228.200359
 30
0.0
 11
400.173091
 21
228.200359
 31
0.0
  0
LINE
  5
543
330
53D
100
AcDbEntity
  8
LC-001-100-D00-0
 62
     7
370
    50
100
AcDbLine
 10
400.173091
 20
228.200359
 30
0.0
 11
398.969868
 21
228.200359
 31
0.0
  0
LINE
  5
544
330
53D
100
AcDbEntity
  8
LC-001-100-D00-0
 62
     7
370
    50
100
AcDbLine
 10
398.969868
 20
228.200359
 30
0.0
 11
398.969868
 21
228.200359
 31
0.0
  0
LINE
  5
545
330
53D
100
AcDbEntity
  8
LC-001-100-D00-0
 62
     7
370
    50
100
AcDbLine
 10
398.969868
 20
228.200359
 30
0.0
 11
397.604964
 21
228.200359
 31
0.0
  0
LINE
  5
546
330
53D
100
AcDbEntity
  8
LC-001-100-D00-0
 62
     7
370
    50
100
AcDbLine
 10
397.604964
 20
228.200359
 30
0.0
 11
397.604964
 21
228.200359
 31
0.0
  0
LINE
  5
547
330
53D
100
AcDbEntity
  8
LC-001-100-D00-0
 62
     7
370
    50
100
AcDbLine
 10
397.604964
 20
228.200359
 30
0.0
 11
396.957646
 21
228.200359
 31
0.0
  0
LINE
  5
548
330
53D
100
AcDbEntity
  8
LC-001-100-D00-0
 62
     7
370
    50
100
AcDbLine
 10
396.957646
 20
228.200359
 30
0.0
 11
396.957646
 21
228.200359
 31
0.0
  0
LINE
  5
549
330
53D
100
AcDbEntity
  8
LC-001-100-D00-0
 62
     7
370
    50
100
AcDbLine
 10
396.957646
 20
228.200359
 30
0.0
 11
396.836367
 21
228.200359
 31
0.0
  0
ENDBLK
  5
53F
330
53D
100
AcDbEntity
  8
0
100
AcDbBlockEnd
  0
BLOCK
  5
54C
330
54B
100
AcDbEntity
  8
0
100
AcDbBlockBegin
  2
POLY28
 70
     0
 71
     0
 10
0.0
 20
0.0
 30
0.0
  3
POLY28
  1

  4
POLY28
  0
LINE
  5
54E
330
54B
100
AcDbEntity
  8
LC-001-100-D00-0
 62
     7
370
    50
100
AcDbLine
 10
40.836361
 20
228.200359
 30
0.0
 11
40.836361
 21
228.200359
 31
0.0
  0
LINE
  5
54F
330
54B
100
AcDbEntity
  8
LC-001-100-D00-0
 62
     7
370
    50
100
AcDbLine
 10
40.836361
 20
228.200359
 30
0.0
 11
40.173092
 21
228.200359
 31
0.0
  0
LINE
  5
550
330
54B
100
AcDbEntity
  8
LC-001-100-D00-0
 62
     7
370
    50
100
AcDbLine
 10
40.173092
 20
228.200359
 30
0.0
 11
40.173092
 21
228.200359
 31
0.0
  0
LINE
  5
551
330
54B
100
AcDbEntity
  8
LC-001-100-D00-0
 62
     7
370
    50
100
AcDbLine
 10
40.173092
 20
228.200359
 30
0.0
 11
38.969869
 21
228.200359
 31
0.0
  0
LINE
  5
552
330
54B
100
AcDbEntity
  8
LC-001-100-D00-0
 62
     7
370
    50
100
AcDbLine
 10
38.969869
 20
228.200359
 30
0.0
 11
38.969869
 21
228.200359
 31
0.0
  0
LINE
  5
553
330
54B
100
AcDbEntity
  8
LC-001-100-D00-0
 62
     7
370
    50
100
AcDbLine
 10
38.969869
 20
228.200359
 30
0.0
 11
37.604965
 21
228.200359
 31
0.0
  0
LINE
  5
554
330
54B
100
AcDbEntity
  8
LC-001-100-D00-0
 62
     7
370
    50
100
AcDbLine
 10
37.604965
 20
228.200359
 30
0.0
 11
37.604965
 21
228.200359
 31
0.0
  0
LINE
  5
555
330
54B
100
AcDbEntity
  8
LC-001-100-D00-0
 62
     7
370
    50
100
AcDbLine
 10
37.604965
 20
228.200359
 30
0.0
 11
36.957647
 21
228.200359
 31
0.0
  0
LINE
  5
556
330
54B
100
AcDbEntity
  8
LC-001-100-D00-0
 62
     7
370
    50
100
AcDbLine
 10
36.957647
 20
228.200359
 30
0.0
 11
36.957647
 21
228.200359
 31
0.0
  0
LINE
  5
557
330
54B
100
AcDbEntity
  8
LC-001-100-D00-0
 62
     7
370
    50
100
AcDbLine
 10
36.957647
 20
228.200359
 30
0.0
 11
36.836367
 21
228.200359
 31
0.0
  0
ENDBLK
  5
54D
330
54B
100
AcDbEntity
  8
0
100
AcDbBlockEnd
  0
BLOCK
  5
56A
330
569
100
AcDbEntity
  8
0
100
AcDbBlockBegin
  2
POLY29
 70
     0
 71
     0
 10
0.0
 20
0.0
 30
0.0
  3
POLY29
  1

  4
POLY29
  0
LINE
  5
56C
330
569
100
AcDbEntity
  8
LC-001-100-D00-0
 62
     7
370
    50
100
AcDbLine
 10
292.336364
 20
145.700356
 30
0.0
 11
292.336364
 21
145.700356
 31
0.0
  0
LINE
  5
56D
330
569
100
AcDbEntity
  8
LC-001-100-D00-0
 62
     7
370
    50
100
AcDbLine
 10
292.336364
 20
145.700356
 30
0.0
 11
292.335457
 21
145.700362
 31
0.0
  0
LINE
  5
56E
330
569
100
AcDbEntity
  8
LC-001-100-D00-0
 62
     7
370
    50
100
AcDbLine
 10
292.335457
 20
145.700362
 30
0.0
 11
292.335457
 21
145.700362
 31
0.0
  0
LINE
  5
56F
330
569
100
AcDbEntity
  8
LC-001-100-D00-0
 62
     7
370
    50
100
AcDbLine
 10
292.335457
 20
145.700362
 30
0.0
 11
292.333056
 21
145.700381
 31
0.0
  0
LINE
  5
570
330
569
100
AcDbEntity
  8
LC-001-100-D00-0
 62
     7
370
    50
100
AcDbLine
 10
292.333056
 20
145.700381
 30
0.0
 11
292.333056
 21
145.700381
 31
0.0
  0
LINE
  5
571
330
569
100
AcDbEntity
  8
LC-001-100-D00-0
 62
     7
370
    50
100
AcDbLine
 10
292.333056
 20
145.700381
 30
0.0
 11
292.327743
 21
145.700615
 31
0.0
  0
LINE
  5
572
330
569
100
AcDbEntity
  8
LC-001-100-D00-0
 62
     7
370
    50
100
AcDbLine
 10
292.327743
 20
145.700615
 30
0.0
 11
292.327743
 21
145.700615
 31
0.0
  0
LINE
  5
573
330
569
100
AcDbEntity
  8
LC-001-100-D00-0
 62
     7
370
    50
100
AcDbLine
 10
292.327743
 20
145.700615
 30
0.0
 11
292.32247
 21
145.701099
 31
0.0
  0
LINE
  5
574
330
569
100
AcDbEntity
  8
LC-001-100-D00-0
 62
     7
370
    50
100
AcDbLine
 10
292.32247
 20
145.701099
 30
0.0
 11
292.32247
 21
145.701099
 31
0.0
  0
LINE
  5
575
330
569
100
AcDbEntity
  8
LC-001-100-D00-0
 62
     7
370
    50
100
AcDbLine
 10
292.32247
 20
145.701099
 30
0.0
 11
292.318472
 21
145.701643
 31
0.0
  0
LINE
  5
576
330
569
100
AcDbEntity
  8
LC-001-100-D00-0
 62
     7
370
    50
100
AcDbLine
 10
292.318472
 20
145.701643
 30
0.0
 11
292.318472
 21
145.701643
 31
0.0
  0
LINE
  5
577
330
569
100
AcDbEntity
  8
LC-001-100-D00-0
 62
     7
370
    50
100
AcDbLine
 10
292.318472
 20
145.701643
 30
0.0
 11
292.317485
 21
145.701782
 31
0.0
  0
LINE
  5
578
330
569
100
AcDbEntity
  8
LC-001-100-D00-0
 62
     7
370
    50
100
AcDbLine
 10
292.317485
 20
145.701782
 30
0.0
 11
292.317485
 21
145.701782
 31
0.0
  0
LINE
  5
579
330
569
100
AcDbEntity
  8
LC-001-100-D00-0
 62
     7
370
    50
100
AcDbLine
 10
292.317485
 20
145.701782
 30
0.0
 11
292.283192
 21
145.706943
 31
0.0
  0
LINE
  5
57A
330
569
100
AcDbEntity
  8
LC-001-100-D00-0
 62
     7
370
    50
100
AcDbLine
 10
292.283192
 20
145.706943
 30
0.0
 11
292.283192
 21
145.706943
 31
0.0
  0
LINE
  5
57B
330
569
100
AcDbEntity
  8
LC-001-100-D00-0
 62
     7
370
    50
100
AcDbLine
 10
292.283192
 20
145.706943
 30
0.0
 11
292.096251
 21
145.784901
 31
0.0
  0
LINE
  5
57C
330
569
100
AcDbEntity
  8
LC-001-100-D00-0
 62
     7
370
    50
100
AcDbLine
 10
292.096251
 20
145.784901
 30
0.0
 11
292.096251
 21
145.784901
 31
0.0
  0
LINE
  5
57D
330
569
100
AcDbEntity
  8
LC-001-100-D00-0
 62
     7
370
    50
100
AcDbLine
 10
292.096251
 20
145.784901
 30
0.0
 11
291.503158
 21
146.361169
 31
0.0
  0
LINE
  5
57E
330
569
100
AcDbEntity
  8
LC-001-100-D00-0
 62
     7
370
    50
100
AcDbLine
 10
291.503158
 20
146.361169
 30
0.0
 11
291.503158
 21
146.361169
 31
0.0
  0
LINE
  5
57F
330
569
100
AcDbEntity
  8
LC-001-100-D00-0
 62
     7
370
    50
100
AcDbLine
 10
291.503158
 20
146.361169
 30
0.0
 11
290.30527
 21
147.81871
 31
0.0
  0
LINE
  5
580
330
569
100
AcDbEntity
  8
LC-001-100-D00-0
 62
     7
370
    50
100
AcDbLine
 10
290.30527
 20
147.81871
 30
0.0
 11
290.30527
 21
147.81871
 31
0.0
  0
LINE
  5
581
330
569
100
AcDbEntity
  8
LC-001-100-D00-0
 62
     7
370
    50
100
AcDbLine
 10
290.30527
 20
147.81871
 30
0.0
 11
288.767817
 21
149.864981
 31
0.0
  0
LINE
  5
582
330
569
100
AcDbEntity
  8
LC-001-100-D00-0
 62
     7
370
    50
100
AcDbLine
 10
288.767817
 20
149.864981
 30
0.0
 11
288.767817
 21
149.864981
 31
0.0
  0
LINE
  5
583
330
569
100
AcDbEntity
  8
LC-001-100-D00-0
 62
     7
370
    50
100
AcDbLine
 10
288.767817
 20
149.864981
 30
0.0
 11
286.796906
 21
152.702701
 31
0.0
  0
LINE
  5
584
330
569
100
AcDbEntity
  8
LC-001-100-D00-0
 62
     7
370
    50
100
AcDbLine
 10
286.796906
 20
152.702701
 30
0.0
 11
286.796906
 21
152.702701
 31
0.0
  0
LINE
  5
585
330
569
100
AcDbEntity
  8
LC-001-100-D00-0
 62
     7
370
    50
100
AcDbLine
 10
286.796906
 20
152.702701
 30
0.0
 11
285.220924
 21
155.167921
 31
0.0
  0
LINE
  5
586
330
569
100
AcDbEntity
  8
LC-001-100-D00-0
 62
     7
370
    50
100
AcDbLine
 10
285.220924
 20
155.167921
 30
0.0
 11
285.220924
 21
155.167921
 31
0.0
  0
LINE
  5
587
330
569
100
AcDbEntity
  8
LC-001-100-D00-0
 62
     7
370
    50
100
AcDbLine
 10
285.220924
 20
155.167921
 30
0.0
 11
284.347753
 21
156.510354
 31
0.0
  0
LINE
  5
588
330
569
100
AcDbEntity
  8
LC-001-100-D00-0
 62
     7
370
    50
100
AcDbLine
 10
284.347753
 20
156.510354
 30
0.0
 11
284.347753
 21
156.510354
 31
0.0
  0
LINE
  5
589
330
569
100
AcDbEntity
  8
LC-001-100-D00-0
 62
     7
370
    50
100
AcDbLine
 10
284.347753
 20
156.510354
 30
0.0
 11
284.311656
 21
156.56585
 31
0.0
  0
ENDBLK
  5
56B
330
569
100
AcDbEntity
  8
0
100
AcDbBlockEnd
  0
BLOCK
  5
58C
330
58B
100
AcDbEntity
  8
0
100
AcDbBlockBegin
  2
POLY30
 70
     0
 71
     0
 10
0.0
 20
0.0
 30
0.0
  3
POLY30
  1

  4
POLY30
  0
LINE
  5
58E
330
58B
100
AcDbEntity
  8
LC-001-100-D00-0
 62
     7
370
    50
100
AcDbLine
 10
284.311656
 20
156.56585
 30
0.0
 11
284.311656
 21
156.56585
 31
0.0
  0
LINE
  5
58F
330
58B
100
AcDbEntity
  8
LC-001-100-D00-0
 62
     7
370
    50
100
AcDbLine
 10
284.311656
 20
156.56585
 30
0.0
 11
284.057068
 21
157.346899
 31
0.0
  0
LINE
  5
590
330
58B
100
AcDbEntity
  8
LC-001-100-D00-0
 62
     7
370
    50
100
AcDbLine
 10
284.057068
 20
157.346899
 30
0.0
 11
284.057068
 21
157.346899
 31
0.0
  0
LINE
  5
591
330
58B
100
AcDbEntity
  8
LC-001-100-D00-0
 62
     7
370
    50
100
AcDbLine
 10
284.057068
 20
157.346899
 30
0.0
 11
283.544068
 21
158.920724
 31
0.0
  0
LINE
  5
592
330
58B
100
AcDbEntity
  8
LC-001-100-D00-0
 62
     7
370
    50
100
AcDbLine
 10
283.544068
 20
158.920724
 30
0.0
 11
283.544068
 21
158.920724
 31
0.0
  0
LINE
  5
593
330
58B
100
AcDbEntity
  8
LC-001-100-D00-0
 62
     7
370
    50
100
AcDbLine
 10
283.544068
 20
158.920724
 30
0.0
 11
282.876211
 21
161.632296
 31
0.0
  0
LINE
  5
594
330
58B
100
AcDbEntity
  8
LC-001-100-D00-0
 62
     7
370
    50
100
AcDbLine
 10
282.876211
 20
161.632296
 30
0.0
 11
282.876211
 21
161.632296
 31
0.0
  0
LINE
  5
595
330
58B
100
AcDbEntity
  8
LC-001-100-D00-0
 62
     7
370
    50
100
AcDbLine
 10
282.876211
 20
161.632296
 30
0.0
 11
282.362545
 21
164.666033
 31
0.0
  0
LINE
  5
596
330
58B
100
AcDbEntity
  8
LC-001-100-D00-0
 62
     7
370
    50
100
AcDbLine
 10
282.362545
 20
164.666033
 30
0.0
 11
282.362545
 21
164.666033
 31
0.0
  0
LINE
  5
597
330
58B
100
AcDbEntity
  8
LC-001-100-D00-0
 62
     7
370
    50
100
AcDbLine
 10
282.362545
 20
164.666033
 30
0.0
 11
282.124279
 21
167.96058
 31
0.0
  0
LINE
  5
598
330
58B
100
AcDbEntity
  8
LC-001-100-D00-0
 62
     7
370
    50
100
AcDbLine
 10
282.124279
 20
167.96058
 30
0.0
 11
282.124279
 21
167.96058
 31
0.0
  0
LINE
  5
599
330
58B
100
AcDbEntity
  8
LC-001-100-D00-0
 62
     7
370
    50
100
AcDbLine
 10
282.124279
 20
167.96058
 30
0.0
 11
282.219206
 21
171.309716
 31
0.0
  0
LINE
  5
59A
330
58B
100
AcDbEntity
  8
LC-001-100-D00-0
 62
     7
370
    50
100
AcDbLine
 10
282.219206
 20
171.309716
 30
0.0
 11
282.219206
 21
171.309716
 31
0.0
  0
LINE
  5
59B
330
58B
100
AcDbEntity
  8
LC-001-100-D00-0
 62
     7
370
    50
100
AcDbLine
 10
282.219206
 20
171.309716
 30
0.0
 11
282.630757
 21
174.534632
 31
0.0
  0
LINE
  5
59C
330
58B
100
AcDbEntity
  8
LC-001-100-D00-0
 62
     7
370
    50
100
AcDbLine
 10
282.630757
 20
174.534632
 30
0.0
 11
282.630757
 21
174.534632
 31
0.0
  0
LINE
  5
59D
330
58B
100
AcDbEntity
  8
LC-001-100-D00-0
 62
     7
370
    50
100
AcDbLine
 10
282.630757
 20
174.534632
 30
0.0
 11
283.301494
 21
177.604149
 31
0.0
  0
LINE
  5
59E
330
58B
100
AcDbEntity
  8
LC-001-100-D00-0
 62
     7
370
    50
100
AcDbLine
 10
283.301494
 20
177.604149
 30
0.0
 11
283.301494
 21
177.604149
 31
0.0
  0
LINE
  5
59F
330
58B
100
AcDbEntity
  8
LC-001-100-D00-0
 62
     7
370
    50
100
AcDbLine
 10
283.301494
 20
177.604149
 30
0.0
 11
284.182706
 21
180.559036
 31
0.0
  0
LINE
  5
5A0
330
58B
100
AcDbEntity
  8
LC-001-100-D00-0
 62
     7
370
    50
100
AcDbLine
 10
284.182706
 20
180.559036
 30
0.0
 11
284.182706
 21
180.559036
 31
0.0
  0
LINE
  5
5A1
330
58B
100
AcDbEntity
  8
LC-001-100-D00-0
 62
     7
370
    50
100
AcDbLine
 10
284.182706
 20
180.559036
 30
0.0
 11
285.235539
 21
183.390234
 31
0.0
  0
LINE
  5
5A2
330
58B
100
AcDbEntity
  8
LC-001-100-D00-0
 62
     7
370
    50
100
AcDbLine
 10
285.235539
 20
183.390234
 30
0.0
 11
285.235539
 21
183.390234
 31
0.0
  0
LINE
  5
5A3
330
58B
100
AcDbEntity
  8
LC-001-100-D00-0
 62
     7
370
    50
100
AcDbLine
 10
285.235539
 20
183.390234
 30
0.0
 11
286.403337
 21
186.070022
 31
0.0
  0
LINE
  5
5A4
330
58B
100
AcDbEntity
  8
LC-001-100-D00-0
 62
     7
370
    50
100
AcDbLine
 10
286.403337
 20
186.070022
 30
0.0
 11
286.403337
 21
186.070022
 31
0.0
  0
LINE
  5
5A5
330
58B
100
AcDbEntity
  8
LC-001-100-D00-0
 62
     7
370
    50
100
AcDbLine
 10
286.403337
 20
186.070022
 30
0.0
 11
287.551125
 21
188.415969
 31
0.0
  0
LINE
  5
5A6
330
58B
100
AcDbEntity
  8
LC-001-100-D00-0
 62
     7
370
    50
100
AcDbLine
 10
287.551125
 20
188.415969
 30
0.0
 11
287.551125
 21
188.415969
 31
0.0
  0
LINE
  5
5A7
330
58B
100
AcDbEntity
  8
LC-001-100-D00-0
 62
     7
370
    50
100
AcDbLine
 10
287.551125
 20
188.415969
 30
0.0
 11
288.466394
 21
190.141186
 31
0.0
  0
LINE
  5
5A8
330
58B
100
AcDbEntity
  8
LC-001-100-D00-0
 62
     7
370
    50
100
AcDbLine
 10
288.466394
 20
190.141186
 30
0.0
 11
288.466394
 21
190.141186
 31
0.0
  0
LINE
  5
5A9
330
58B
100
AcDbEntity
  8
LC-001-100-D00-0
 62
     7
370
    50
100
AcDbLine
 10
288.466394
 20
190.141186
 30
0.0
 11
289.067621
 21
191.226521
 31
0.0
  0
LINE
  5
5AA
330
58B
100
AcDbEntity
  8
LC-001-100-D00-0
 62
     7
370
    50
100
AcDbLine
 10
289.067621
 20
191.226521
 30
0.0
 11
289.067621
 21
191.226521
 31
0.0
  0
LINE
  5
5AB
330
58B
100
AcDbEntity
  8
LC-001-100-D00-0
 62
     7
370
    50
100
AcDbLine
 10
289.067621
 20
191.226521
 30
0.0
 11
289.298574
 21
191.633763
 31
0.0
  0
LINE
  5
5AC
330
58B
100
AcDbEntity
  8
LC-001-100-D00-0
 62
     7
370
    50
100
AcDbLine
 10
289.298574
 20
191.633763
 30
0.0
 11
289.298574
 21
191.633763
 31
0.0
  0
LINE
  5
5AD
330
58B
100
AcDbEntity
  8
LC-001-100-D00-0
 62
     7
370
    50
100
AcDbLine
 10
289.298574
 20
191.633763
 30
0.0
 11
289.335667
 21
191.699135
 31
0.0
  0
LINE
  5
5AE
330
58B
100
AcDbEntity
  8
LC-001-100-D00-0
 62
     7
370
    50
100
AcDbLine
 10
289.335667
 20
191.699135
 30
0.0
 11
289.335667
 21
191.699135
 31
0.0
  0
LINE
  5
5AF
330
58B
100
AcDbEntity
  8
LC-001-100-D00-0
 62
     7
370
    50
100
AcDbLine
 10
289.335667
 20
191.699135
 30
0.0
 11
289.336305
 21
191.700252
 31
0.0
  0
LINE
  5
5B0
330
58B
100
AcDbEntity
  8
LC-001-100-D00-0
 62
     7
370
    50
100
AcDbLine
 10
289.336305
 20
191.700252
 30
0.0
 11
289.336305
 21
191.700252
 31
0.0
  0
LINE
  5
5B1
330
58B
100
AcDbEntity
  8
LC-001-100-D00-0
 62
     7
370
    50
100
AcDbLine
 10
289.336305
 20
191.700252
 30
0.0
 11
289.336365
 21
191.700357
 31
0.0
  0
ENDBLK
  5
58D
330
58B
100
AcDbEntity
  8
0
100
AcDbBlockEnd
  0
BLOCK
  5
5B6
330
5B5
100
AcDbEntity
  8
0
100
AcDbBlockBegin
  2
POLY31
 70
     0
 71
     0
 10
0.0
 20
0.0
 30
0.0
  3
POLY31
  1

  4
POLY31
  0
LINE
  5
5B8
330
5B5
100
AcDbEntity
  8
LC-001-100-D00-0
 62
     7
370
    50
100
AcDbLine
 10
283.653822
 20
155.200356
 30
0.0
 11
283.653822
 21
155.200356
 31
0.0
  0
LINE
  5
5B9
330
5B5
100
AcDbEntity
  8
LC-001-100-D00-0
 62
     7
370
    50
100
AcDbLine
 10
283.653822
 20
155.200356
 30
0.0
 11
283.656082
 21
155.205116
 31
0.0
  0
LINE
  5
5BA
330
5B5
100
AcDbEntity
  8
LC-001-100-D00-0
 62
     7
370
    50
100
AcDbLine
 10
283.656082
 20
155.205116
 30
0.0
 11
283.656082
 21
155.205116
 31
0.0
  0
LINE
  5
5BB
330
5B5
100
AcDbEntity
  8
LC-001-100-D00-0
 62
     7
370
    50
100
AcDbLine
 10
283.656082
 20
155.205116
 30
0.0
 11
283.876603
 21
155.669578
 31
0.0
  0
LINE
  5
5BC
330
5B5
100
AcDbEntity
  8
LC-001-100-D00-0
 62
     7
370
    50
100
AcDbLine
 10
283.876603
 20
155.669578
 30
0.0
 11
283.876603
 21
155.669578
 31
0.0
  0
LINE
  5
5BD
330
5B5
100
AcDbEntity
  8
LC-001-100-D00-0
 62
     7
370
    50
100
AcDbLine
 10
283.876603
 20
155.669578
 30
0.0
 11
284.09525
 21
156.120023
 31
0.0
  0
LINE
  5
5BE
330
5B5
100
AcDbEntity
  8
LC-001-100-D00-0
 62
     7
370
    50
100
AcDbLine
 10
284.09525
 20
156.120023
 30
0.0
 11
284.09525
 21
156.120023
 31
0.0
  0
LINE
  5
5BF
330
5B5
100
AcDbEntity
  8
LC-001-100-D00-0
 62
     7
370
    50
100
AcDbLine
 10
284.09525
 20
156.120023
 30
0.0
 11
284.311656
 21
156.56585
 31
0.0
  0
ENDBLK
  5
5B7
330
5B5
100
AcDbEntity
  8
0
100
AcDbBlockEnd
  0
BLOCK
  5
604
330
603
100
AcDbEntity
  8
0
100
AcDbBlockBegin
  2
KLON5
 70
     0
 71
     0
 10
0.0
 20
0.0
 30
0.0
  3
KLON5
  1

  4
KLON5
  0
LINE
  5
606
330
603
100
AcDbEntity
  8
LC-001-100-D00-0
 62
     7
370
    25
100
AcDbLine
 10
145.336367
 20
158.330456
 30
0.0
 11
148.336367
 21
155.330456
 31
0.0
  0
LINE
  5
607
330
603
100
AcDbEntity
  8
LC-001-100-D00-0
 62
     7
370
    25
100
AcDbLine
 10
157.966466
 20
145.700357
 30
0.0
 11
161.462314
 21
142.204509
 31
0.0
  0
LINE
  5
608
330
603
100
AcDbEntity
  8
LC-001-100-D00-0
 62
     7
370
    25
100
AcDbLine
 10
164.340519
 20
139.326304
 30
0.0
 11
167.466466
 21
136.200357
 31
0.0
  0
LINE
  5
609
330
603
100
AcDbEntity
  8
LC-001-100-D00-0
 62
     7
370
    25
100
AcDbLine
 10
145.336367
 20
167.310712
 30
0.0
 11
148.336367
 21
164.310712
 31
0.0
  0
LINE
  5
60A
330
603
100
AcDbEntity
  8
LC-001-100-D00-0
 62
     7
370
    25
100
AcDbLine
 10
173.446722
 20
139.200357
 30
0.0
 11
176.446722
 21
136.200357
 31
0.0
  0
LINE
  5
60B
330
603
100
AcDbEntity
  8
LC-001-100-D00-0
 62
     7
370
    25
100
AcDbLine
 10
145.336367
 20
176.290968
 30
0.0
 11
148.336367
 21
173.290968
 31
0.0
  0
LINE
  5
60C
330
603
100
AcDbEntity
  8
LC-001-100-D00-0
 62
     7
370
    25
100
AcDbLine
 10
182.426978
 20
139.200357
 30
0.0
 11
185.426978
 21
136.200357
 31
0.0
  0
LINE
  5
60D
330
603
100
AcDbEntity
  8
LC-001-100-D00-0
 62
     7
370
    25
100
AcDbLine
 10
145.336367
 20
185.271224
 30
0.0
 11
148.336367
 21
182.271224
 31
0.0
  0
LINE
  5
60E
330
603
100
AcDbEntity
  8
LC-001-100-D00-0
 62
     7
370
    25
100
AcDbLine
 10
191.407235
 20
139.200357
 30
0.0
 11
194.407235
 21
136.200357
 31
0.0
  0
LINE
  5
60F
330
603
100
AcDbEntity
  8
LC-001-100-D00-0
 62
     7
370
    25
100
AcDbLine
 10
145.336367
 20
194.25148
 30
0.0
 11
148.336367
 21
191.25148
 31
0.0
  0
LINE
  5
610
330
603
100
AcDbEntity
  8
LC-001-100-D00-0
 62
     7
370
    25
100
AcDbLine
 10
200.387491
 20
139.200357
 30
0.0
 11
203.387491
 21
136.200357
 31
0.0
  0
LINE
  5
611
330
603
100
AcDbEntity
  8
LC-001-100-D00-0
 62
     7
370
    25
100
AcDbLine
 10
209.367747
 20
139.200357
 30
0.0
 11
212.367747
 21
136.200357
 31
0.0
  0
LINE
  5
612
330
603
100
AcDbEntity
  8
LC-001-100-D00-0
 62
     7
370
    25
100
AcDbLine
 10
218.348003
 20
139.200357
 30
0.0
 11
221.348003
 21
136.200357
 31
0.0
  0
LINE
  5
613
330
603
100
AcDbEntity
  8
LC-001-100-D00-0
 62
     7
370
    25
100
AcDbLine
 10
227.328259
 20
139.200357
 30
0.0
 11
230.328259
 21
136.200357
 31
0.0
  0
LINE
  5
614
330
603
100
AcDbEntity
  8
LC-001-100-D00-0
 62
     7
370
    25
100
AcDbLine
 10
236.308515
 20
139.200357
 30
0.0
 11
239.308515
 21
136.200357
 31
0.0
  0
LINE
  5
615
330
603
100
AcDbEntity
  8
LC-001-100-D00-0
 62
     7
370
    25
100
AcDbLine
 10
245.288771
 20
139.200357
 30
0.0
 11
248.288771
 21
136.200357
 31
0.0
  0
LINE
  5
616
330
603
100
AcDbEntity
  8
LC-001-100-D00-0
 62
     7
370
    25
100
AcDbLine
 10
254.269027
 20
139.200357
 30
0.0
 11
257.269027
 21
136.200357
 31
0.0
  0
LINE
  5
617
330
603
100
AcDbEntity
  8
LC-001-100-D00-0
 62
     7
370
    25
100
AcDbLine
 10
263.249283
 20
139.200357
 30
0.0
 11
266.249283
 21
136.200357
 31
0.0
  0
LINE
  5
618
330
603
100
AcDbEntity
  8
LC-001-100-D00-0
 62
     7
370
    25
100
AcDbLine
 10
272.22954
 20
139.200357
 30
0.0
 11
274.791526
 21
136.63837
 31
0.0
  0
LINE
  5
619
330
603
100
AcDbEntity
  8
LC-001-100-D00-0
 62
     7
370
    25
100
AcDbLine
 10
276.336367
 20
144.073785
 30
0.0
 11
279.095479
 21
141.314674
 31
0.0
  0
LINE
  5
61A
330
603
100
AcDbEntity
  8
LC-001-100-D00-0
 62
     7
370
    25
100
AcDbLine
 10
283.690052
 20
145.700357
 30
0.0
 11
286.690052
 21
142.700357
 31
0.0
  0
LINE
  5
61B
330
603
100
AcDbEntity
  8
LC-001-100-D00-0
 62
     7
370
    25
100
AcDbLine
 10
292.670308
 20
145.700357
 30
0.0
 11
295.670308
 21
142.700357
 31
0.0
  0
LINE
  5
61C
330
603
100
AcDbEntity
  8
LC-001-100-D00-0
 62
     7
370
    25
100
AcDbLine
 10
301.650564
 20
145.700357
 30
0.0
 11
306.150564
 21
141.200357
 31
0.0
  0
LINE
  5
61D
330
603
100
AcDbEntity
  8
LC-001-100-D00-0
 62
     7
370
    25
100
AcDbLine
 10
310.63082
 20
145.700357
 30
0.0
 11
316.887608
 21
139.443569
 31
0.0
  0
LINE
  5
61E
330
603
100
AcDbEntity
  8
LC-001-100-D00-0
 62
     7
370
    25
100
AcDbLine
 10
319.611076
 20
145.700357
 30
0.0
 11
325.963803
 21
139.34763
 31
0.0
  0
LINE
  5
61F
330
603
100
AcDbEntity
  8
LC-001-100-D00-0
 62
     7
370
    25
100
AcDbLine
 10
328.591332
 20
145.700357
 30
0.0
 11
330.741332
 21
143.550357
 31
0.0
  0
LINE
  5
620
330
603
100
AcDbEntity
  8
LC-001-100-D00-0
 62
     7
370
    25
100
AcDbLine
 10
332.333974
 20
141.957716
 30
0.0
 11
333.01426
 21
141.277429
 31
0.0
  0
ENDBLK
  5
605
330
603
100
AcDbEntity
  8
0
100
AcDbBlockEnd
  0
BLOCK
  5
623
330
622
100
AcDbEntity
  8
0
100
AcDbBlockBegin
  2
KLON6
 70
     0
 71
     0
 10
0.0
 20
0.0
 30
0.0
  3
KLON6
  1

  4
KLON6
  0
LINE
  5
625
330
622
100
AcDbEntity
  8
LC-001-100-D00-0
 62
     7
370
    25
100
AcDbLine
 10
289.336367
 20
193.935578
 30
0.0
 11
291.571589
 21
191.700357
 31
0.0
  0
LINE
  5
626
330
622
100
AcDbEntity
  8
LC-001-100-D00-0
 62
     7
370
    25
100
AcDbLine
 10
297.551845
 20
194.700357
 30
0.0
 11
300.551845
 21
191.700357
 31
0.0
  0
LINE
  5
627
330
622
100
AcDbEntity
  8
LC-001-100-D00-0
 62
     7
370
    25
100
AcDbLine
 10
305.032101
 20
196.200357
 30
0.0
 11
309.532101
 21
191.700357
 31
0.0
  0
LINE
  5
628
330
622
100
AcDbEntity
  8
LC-001-100-D00-0
 62
     7
370
    25
100
AcDbLine
 10
311.023415
 20
199.189299
 30
0.0
 11
318.512357
 21
191.700357
 31
0.0
  0
LINE
  5
629
330
622
100
AcDbEntity
  8
LC-001-100-D00-0
 62
     7
370
    25
100
AcDbLine
 10
320.849482
 20
198.343489
 30
0.0
 11
327.492613
 21
191.700357
 31
0.0
  0
LINE
  5
62A
330
622
100
AcDbEntity
  8
LC-001-100-D00-0
 62
     7
370
    25
100
AcDbLine
 10
332.35926
 20
195.813966
 30
0.0
 11
335.471334
 21
192.701892
 31
0.0
  0
ENDBLK
  5
624
330
622
100
AcDbEntity
  8
0
100
AcDbBlockEnd
  0
BLOCK
  5
62E
330
62D
100
AcDbEntity
  8
0
100
AcDbBlockBegin
  2
KLON7
 70
     0
 71
     0
 10
0.0
 20
0.0
 30
0.0
  3
KLON7
  1

  4
KLON7
  0
LINE
  5
630
330
62D
100
AcDbEntity
  8
LC-001-100-D00-0
 62
     7
370
    25
100
AcDbLine
 10
21.545442
 20
246.200357
 30
0.0
 11
24.545442
 21
243.200357
 31
0.0
  0
LINE
  5
631
330
62D
100
AcDbEntity
  8
LC-001-100-D00-0
 62
     7
370
    25
100
AcDbLine
 10
31.025698
 20
245.700357
 30
0.0
 11
33.525698
 21
243.200357
 31
0.0
  0
LINE
  5
632
330
62D
100
AcDbEntity
  8
LC-001-100-D00-0
 62
     7
370
    25
100
AcDbLine
 10
40.005954
 20
245.700357
 30
0.0
 11
42.505954
 21
243.200357
 31
0.0
  0
LINE
  5
633
330
62D
100
AcDbEntity
  8
LC-001-100-D00-0
 62
     7
370
    25
100
AcDbLine
 10
48.98621
 20
245.700357
 30
0.0
 11
51.48621
 21
243.200357
 31
0.0
  0
LINE
  5
634
330
62D
100
AcDbEntity
  8
LC-001-100-D00-0
 62
     7
370
    25
100
AcDbLine
 10
57.966466
 20
245.700357
 30
0.0
 11
60.466466
 21
243.200357
 31
0.0
  0
LINE
  5
635
330
62D
100
AcDbEntity
  8
LC-001-100-D00-0
 62
     7
370
    25
100
AcDbLine
 10
65.836367
 20
237.830456
 30
0.0
 11
68.836367
 21
234.830456
 31
0.0
  0
LINE
  5
636
330
62D
100
AcDbEntity
  8
LC-001-100-D00-0
 62
     7
370
    25
100
AcDbLine
 10
72.466466
 20
231.200357
 30
0.0
 11
75.466466
 21
228.200357
 31
0.0
  0
LINE
  5
637
330
62D
100
AcDbEntity
  8
LC-001-100-D00-0
 62
     7
370
    25
100
AcDbLine
 10
66.946722
 20
245.700357
 30
0.0
 11
68.836367
 21
243.810712
 31
0.0
  0
LINE
  5
638
330
62D
100
AcDbEntity
  8
LC-001-100-D00-0
 62
     7
370
    25
100
AcDbLine
 10
81.446722
 20
231.200357
 30
0.0
 11
84.446722
 21
228.200357
 31
0.0
  0
LINE
  5
639
330
62D
100
AcDbEntity
  8
LC-001-100-D00-0
 62
     7
370
    25
100
AcDbLine
 10
89.086367
 20
223.560712
 30
0.0
 11
91.446722
 21
221.200357
 31
0.0
  0
LINE
  5
63A
330
62D
100
AcDbEntity
  8
LC-001-100-D00-0
 62
     7
370
    25
100
AcDbLine
 10
90.426978
 20
231.200357
 30
0.0
 11
92.485514
 21
229.141821
 31
0.0
  0
LINE
  5
63B
330
62D
100
AcDbEntity
  8
LC-001-100-D00-0
 62
     7
370
    25
100
AcDbLine
 10
96.926978
 20
224.700357
 30
0.0
 11
100.426978
 21
221.200357
 31
0.0
  0
LINE
  5
63C
330
62D
100
AcDbEntity
  8
LC-001-100-D00-0
 62
     7
370
    25
100
AcDbLine
 10
105.18722
 20
225.420371
 30
0.0
 11
107.996801
 21
222.610791
 31
0.0
  0
LINE
  5
63D
330
62D
100
AcDbEntity
  8
LC-001-100-D00-0
 62
     7
370
    25
100
AcDbLine
 10
108.387491
 20
231.200357
 30
0.0
 11
111.387491
 21
228.200357
 31
0.0
  0
LINE
  5
63E
330
62D
100
AcDbEntity
  8
LC-001-100-D00-0
 62
     7
370
    25
100
AcDbLine
 10
145.336367
 20
194.25148
 30
0.0
 11
145.387491
 21
194.200357
 31
0.0
  0
LINE
  5
63F
330
62D
100
AcDbEntity
  8
LC-001-100-D00-0
 62
     7
370
    25
100
AcDbLine
 10
117.367747
 20
231.200357
 30
0.0
 11
120.367747
 21
228.200357
 31
0.0
  0
LINE
  5
640
330
62D
100
AcDbEntity
  8
LC-001-100-D00-0
 62
     7
370
    25
100
AcDbLine
 10
145.336367
 20
203.231737
 30
0.0
 11
148.336367
 21
200.231737
 31
0.0
  0
LINE
  5
641
330
62D
100
AcDbEntity
  8
LC-001-100-D00-0
 62
     7
370
    25
100
AcDbLine
 10
126.348003
 20
231.200357
 30
0.0
 11
130.426345
 21
227.122015
 31
0.0
  0
LINE
  5
642
330
62D
100
AcDbEntity
  8
LC-001-100-D00-0
 62
     7
370
    25
100
AcDbLine
 10
145.336367
 20
212.211993
 30
0.0
 11
148.336367
 21
209.211993
 31
0.0
  0
LINE
  5
643
330
62D
100
AcDbEntity
  8
LC-001-100-D00-0
 62
     7
370
    25
100
AcDbLine
 10
140.328259
 20
226.200357
 30
0.0
 11
143.328259
 21
223.200357
 31
0.0
  0
LINE
  5
644
330
62D
100
AcDbEntity
  8
LC-001-100-D00-0
 62
     7
370
    25
100
AcDbLine
 10
145.336367
 20
221.192249
 30
0.0
 11
148.336367
 21
218.192249
 31
0.0
  0
LINE
  5
645
330
62D
100
AcDbEntity
  8
LC-001-100-D00-0
 62
     7
370
    25
100
AcDbLine
 10
149.308515
 20
226.200357
 30
0.0
 11
152.308515
 21
223.200357
 31
0.0
  0
LINE
  5
646
330
62D
100
AcDbEntity
  8
LC-001-100-D00-0
 62
     7
370
    25
100
AcDbLine
 10
159.336367
 20
216.172505
 30
0.0
 11
159.808515
 21
215.700357
 31
0.0
  0
LINE
  5
647
330
62D
100
AcDbEntity
  8
LC-001-100-D00-0
 62
     7
370
    25
100
AcDbLine
 10
158.288771
 20
226.200357
 30
0.0
 11
163.536367
 21
220.952761
 31
0.0
  0
ENDBLK
  5
62F
330
62D
100
AcDbEntity
  8
0
100
AcDbBlockEnd
  0
BLOCK
  5
64A
330
649
100
AcDbEntity
  8
0
100
AcDbBlockBegin
  2
KLON8
 70
     0
 71
     0
 10
0.0
 20
0.0
 30
0.0
  3
KLON8
  1

  4
KLON8
  0
LINE
  5
64C
330
649
100
AcDbEntity
  8
LC-001-100-D00-0
 62
     7
370
    25
100
AcDbLine
 10
274.136367
 20
218.115834
 30
0.0
 11
276.551845
 21
215.700357
 31
0.0
  0
LINE
  5
64D
330
649
100
AcDbEntity
  8
LC-001-100-D00-0
 62
     7
370
    25
100
AcDbLine
 10
289.336367
 20
202.915834
 30
0.0
 11
292.336367
 21
199.915834
 31
0.0
  0
LINE
  5
64E
330
649
100
AcDbEntity
  8
LC-001-100-D00-0
 62
     7
370
    25
100
AcDbLine
 10
275.032101
 20
226.200357
 30
0.0
 11
278.336367
 21
222.896091
 31
0.0
  0
LINE
  5
64F
330
649
100
AcDbEntity
  8
LC-001-100-D00-0
 62
     7
370
    25
100
AcDbLine
 10
289.336367
 20
211.896091
 30
0.0
 11
292.336367
 21
208.896091
 31
0.0
  0
LINE
  5
650
330
649
100
AcDbEntity
  8
LC-001-100-D00-0
 62
     7
370
    25
100
AcDbLine
 10
284.012357
 20
226.200357
 30
0.0
 11
287.012357
 21
223.200357
 31
0.0
  0
LINE
  5
651
330
649
100
AcDbEntity
  8
LC-001-100-D00-0
 62
     7
370
    25
100
AcDbLine
 10
289.336367
 20
220.876347
 30
0.0
 11
292.336367
 21
217.876347
 31
0.0
  0
LINE
  5
652
330
649
100
AcDbEntity
  8
LC-001-100-D00-0
 62
     7
370
    25
100
AcDbLine
 10
292.992613
 20
226.200357
 30
0.0
 11
295.992613
 21
223.200357
 31
0.0
  0
LINE
  5
653
330
649
100
AcDbEntity
  8
LC-001-100-D00-0
 62
     7
370
    25
100
AcDbLine
 10
300.763908
 20
227.409318
 30
0.0
 11
303.02137
 21
225.151856
 31
0.0
  0
LINE
  5
654
330
649
100
AcDbEntity
  8
LC-001-100-D00-0
 62
     7
370
    25
100
AcDbLine
 10
306.888309
 20
230.265173
 30
0.0
 11
309.145771
 21
228.007711
 31
0.0
  0
LINE
  5
655
330
649
100
AcDbEntity
  8
LC-001-100-D00-0
 62
     7
370
    25
100
AcDbLine
 10
314.933381
 20
231.200357
 30
0.0
 11
317.933381
 21
228.200357
 31
0.0
  0
LINE
  5
656
330
649
100
AcDbEntity
  8
LC-001-100-D00-0
 62
     7
370
    25
100
AcDbLine
 10
323.913638
 20
231.200357
 30
0.0
 11
326.913638
 21
228.200357
 31
0.0
  0
LINE
  5
657
330
649
100
AcDbEntity
  8
LC-001-100-D00-0
 62
     7
370
    25
100
AcDbLine
 10
329.086367
 20
226.027627
 30
0.0
 11
333.913638
 21
221.200357
 31
0.0
  0
LINE
  5
658
330
649
100
AcDbEntity
  8
LC-001-100-D00-0
 62
     7
370
    25
100
AcDbLine
 10
339.393894
 20
224.700357
 30
0.0
 11
342.893894
 21
221.200357
 31
0.0
  0
LINE
  5
659
330
649
100
AcDbEntity
  8
LC-001-100-D00-0
 62
     7
370
    25
100
AcDbLine
 10
345.18722
 20
227.887287
 30
0.0
 11
348.586367
 21
224.48814
 31
0.0
  0
LINE
  5
65A
330
649
100
AcDbEntity
  8
LC-001-100-D00-0
 62
     7
370
    25
100
AcDbLine
 10
350.854406
 20
231.200357
 30
0.0
 11
353.854406
 21
228.200357
 31
0.0
  0
LINE
  5
65B
330
649
100
AcDbEntity
  8
LC-001-100-D00-0
 62
     7
370
    25
100
AcDbLine
 10
359.834662
 20
231.200357
 30
0.0
 11
362.834662
 21
228.200357
 31
0.0
  0
LINE
  5
65C
330
649
100
AcDbEntity
  8
LC-001-100-D00-0
 62
     7
370
    25
100
AcDbLine
 10
368.532668
 20
231.482607
 30
0.0
 11
370.654049
 21
229.361226
 31
0.0
  0
LINE
  5
65D
330
649
100
AcDbEntity
  8
LC-001-100-D00-0
 62
     7
370
    25
100
AcDbLine
 10
368.836367
 20
240.159164
 30
0.0
 11
371.836367
 21
237.159164
 31
0.0
  0
LINE
  5
65E
330
649
100
AcDbEntity
  8
LC-001-100-D00-0
 62
     7
370
    25
100
AcDbLine
 10
372.27543
 20
245.700357
 30
0.0
 11
374.77543
 21
243.200357
 31
0.0
  0
LINE
  5
65F
330
649
100
AcDbEntity
  8
LC-001-100-D00-0
 62
     7
370
    25
100
AcDbLine
 10
381.255687
 20
245.700357
 30
0.0
 11
383.755687
 21
243.200357
 31
0.0
  0
LINE
  5
660
330
649
100
AcDbEntity
  8
LC-001-100-D00-0
 62
     7
370
    25
100
AcDbLine
 10
390.235943
 20
245.700357
 30
0.0
 11
392.735943
 21
243.200357
 31
0.0
  0
LINE
  5
661
330
649
100
AcDbEntity
  8
LC-001-100-D00-0
 62
     7
370
    25
100
AcDbLine
 10
399.216199
 20
245.700357
 30
0.0
 11
401.716199
 21
243.200357
 31
0.0
  0
LINE
  5
662
330
649
100
AcDbEntity
  8
LC-001-100-D00-0
 62
     7
370
    25
100
AcDbLine
 10
408.196455
 20
245.700357
 30
0.0
 11
410.696455
 21
243.200357
 31
0.0
  0
LINE
  5
663
330
649
100
AcDbEntity
  8
LC-001-100-D00-0
 62
     7
370
    25
100
AcDbLine
 10
416.676711
 20
246.200357
 30
0.0
 11
419.676711
 21
243.200357
 31
0.0
  0
ENDBLK
  5
64B
330
649
100
AcDbEntity
  8
0
100
AcDbBlockEnd
  0
BLOCK
  5
667
330
666
100
AcDbEntity
  8
0
100
AcDbBlockBegin
  2
KLON9
 70
     0
 71
     0
 10
0.0
 20
0.0
 30
0.0
  3
KLON9
  1

  4
KLON9
  0
LINE
  5
669
330
666
100
AcDbEntity
  8
LC-001-100-D00-0
 62
     7
370
    50
100
AcDbLine
 10
371.77543
 20
246.200357
 30
0.0
 11
372.27543
 21
245.700357
 31
0.0
  0
LINE
  5
66A
330
666
100
AcDbEntity
  8
LC-001-100-D00-0
 62
     7
370
    50
100
AcDbLine
 10
380.755687
 20
246.200357
 30
0.0
 11
381.255687
 21
245.700357
 31
0.0
  0
LINE
  5
66B
330
666
100
AcDbEntity
  8
LC-001-100-D00-0
 62
     7
370
    50
100
AcDbLine
 10
389.735943
 20
246.200357
 30
0.0
 11
390.235943
 21
245.700357
 31
0.0
  0
LINE
  5
66C
330
666
100
AcDbEntity
  8
LC-001-100-D00-0
 62
     7
370
    50
100
AcDbLine
 10
398.716199
 20
246.200357
 30
0.0
 11
399.216199
 21
245.700357
 31
0.0
  0
LINE
  5
66D
330
666
100
AcDbEntity
  8
LC-001-100-D00-0
 62
     7
370
    50
100
AcDbLine
 10
407.696455
 20
246.200357
 30
0.0
 11
408.196455
 21
245.700357
 31
0.0
  0
ENDBLK
  5
668
330
666
100
AcDbEntity
  8
0
100
AcDbBlockEnd
  0
BLOCK
  5
670
330
66F
100
AcDbEntity
  8
0
100
AcDbBlockBegin
  2
KLON10
 70
     0
 71
     0
 10
0.0
 20
0.0
 30
0.0
  3
KLON10
  1

  4
KLON10
  0
LINE
  5
672
330
66F
100
AcDbEntity
  8
LC-001-100-D00-0
 62
     7
370
    50
100
AcDbLine
 10
30.525698
 20
246.200357
 30
0.0
 11
31.025698
 21
245.700357
 31
0.0
  0
LINE
  5
673
330
66F
100
AcDbEntity
  8
LC-001-100-D00-0
 62
     7
370
    50
100
AcDbLine
 10
39.505954
 20
246.200357
 30
0.0
 11
40.005954
 21
245.700357
 31
0.0
  0
LINE
  5
674
330
66F
100
AcDbEntity
  8
LC-001-100-D00-0
 62
     7
370
    50
100
AcDbLine
 10
48.48621
 20
246.200357
 30
0.0
 11
48.98621
 21
245.700357
 31
0.0
  0
LINE
  5
675
330
66F
100
AcDbEntity
  8
LC-001-100-D00-0
 62
     7
370
    50
100
AcDbLine
 10
57.466466
 20
246.200357
 30
0.0
 11
57.966466
 21
245.700357
 31
0.0
  0
LINE
  5
676
330
66F
100
AcDbEntity
  8
LC-001-100-D00-0
 62
     7
370
    50
100
AcDbLine
 10
66.446722
 20
246.200357
 30
0.0
 11
66.946722
 21
245.700357
 31
0.0
  0
ENDBLK
  5
671
330
66F
100
AcDbEntity
  8
0
100
AcDbBlockEnd
  0
BLOCK
  5
679
330
678
100
AcDbEntity
  8
0
100
AcDbBlockBegin
  2
KLON11
 70
     0
 71
     0
 10
0.0
 20
0.0
 30
0.0
  3
KLON11
  1

  4
KLON11
  0
LINE
  5
67B
330
678
100
AcDbEntity
  8
LC-001-100-D00-0
 62
     7
370
    25
100
AcDbLine
 10
189.836367
 20
167.711993
 30
0.0
 11
191.336367
 21
166.211993
 31
0.0
  0
LINE
  5
67C
330
678
100
AcDbEntity
  8
LC-001-100-D00-0
 62
     7
370
    25
100
AcDbLine
 10
189.836367
 20
176.692249
 30
0.0
 11
191.336367
 21
175.192249
 31
0.0
  0
LINE
  5
67D
330
678
100
AcDbEntity
  8
LC-001-100-D00-0
 62
     7
370
    25
100
AcDbLine
 10
189.836367
 20
185.672505
 30
0.0
 11
191.336367
 21
184.172505
 31
0.0
  0
LINE
  5
67E
330
678
100
AcDbEntity
  8
LC-001-100-D00-0
 62
     7
370
    25
100
AcDbLine
 10
189.836367
 20
194.652761
 30
0.0
 11
191.336367
 21
193.152761
 31
0.0
  0
LINE
  5
67F
330
678
100
AcDbEntity
  8
LC-001-100-D00-0
 62
     7
370
    25
100
AcDbLine
 10
166.769027
 20
226.700357
 30
0.0
 11
172.769027
 21
220.700357
 31
0.0
  0
LINE
  5
680
330
678
100
AcDbEntity
  8
LC-001-100-D00-0
 62
     7
370
    25
100
AcDbLine
 10
189.836367
 20
203.633017
 30
0.0
 11
191.336367
 21
202.133017
 31
0.0
  0
LINE
  5
681
330
678
100
AcDbEntity
  8
LC-001-100-D00-0
 62
     7
370
    25
100
AcDbLine
 10
175.749283
 20
226.700357
 30
0.0
 11
181.982234
 21
220.467406
 31
0.0
  0
LINE
  5
682
330
678
100
AcDbEntity
  8
LC-001-100-D00-0
 62
     7
370
    25
100
AcDbLine
 10
189.603417
 20
212.846224
 30
0.0
 11
191.336367
 21
211.113273
 31
0.0
  0
LINE
  5
683
330
678
100
AcDbEntity
  8
LC-001-100-D00-0
 62
     7
370
    25
100
AcDbLine
 10
184.72954
 20
226.700357
 30
0.0
 11
191.336367
 21
220.093529
 31
0.0
  0
ENDBLK
  5
67A
330
678
100
AcDbEntity
  8
0
100
AcDbBlockEnd
  0
BLOCK
  5
686
330
685
100
AcDbEntity
  8
0
100
AcDbBlockBegin
  2
KLON12
 70
     0
 71
     0
 10
0.0
 20
0.0
 30
0.0
  3
KLON12
  1

  4
KLON12
  0
LINE
  5
688
330
685
100
AcDbEntity
  8
LC-001-100-D00-0
 62
     7
370
    25
100
AcDbLine
 10
246.336367
 20
165.093529
 30
0.0
 11
247.836367
 21
163.593529
 31
0.0
  0
LINE
  5
689
330
685
100
AcDbEntity
  8
LC-001-100-D00-0
 62
     7
370
    25
100
AcDbLine
 10
246.336367
 20
174.073785
 30
0.0
 11
247.836367
 21
172.573785
 31
0.0
  0
LINE
  5
68A
330
685
100
AcDbEntity
  8
LC-001-100-D00-0
 62
     7
370
    25
100
AcDbLine
 10
246.336367
 20
183.054042
 30
0.0
 11
247.836367
 21
181.554042
 31
0.0
  0
LINE
  5
68B
330
685
100
AcDbEntity
  8
LC-001-100-D00-0
 62
     7
370
    25
100
AcDbLine
 10
246.336367
 20
192.034298
 30
0.0
 11
247.836367
 21
190.534298
 31
0.0
  0
LINE
  5
68C
330
685
100
AcDbEntity
  8
LC-001-100-D00-0
 62
     7
370
    25
100
AcDbLine
 10
246.336367
 20
201.014554
 30
0.0
 11
247.836367
 21
199.514554
 31
0.0
  0
LINE
  5
68D
330
685
100
AcDbEntity
  8
LC-001-100-D00-0
 62
     7
370
    25
100
AcDbLine
 10
246.336367
 20
209.99481
 30
0.0
 11
247.836367
 21
208.49481
 31
0.0
  0
LINE
  5
68E
330
685
100
AcDbEntity
  8
LC-001-100-D00-0
 62
     7
370
    25
100
AcDbLine
 10
246.336367
 20
218.975066
 30
0.0
 11
249.339001
 21
215.972432
 31
0.0
  0
LINE
  5
68F
330
685
100
AcDbEntity
  8
LC-001-100-D00-0
 62
     7
370
    25
100
AcDbLine
 10
247.696465
 20
226.595225
 30
0.0
 11
254.25474
 21
220.036949
 31
0.0
  0
LINE
  5
690
330
685
100
AcDbEntity
  8
LC-001-100-D00-0
 62
     7
370
    25
100
AcDbLine
 10
256.571589
 20
226.700357
 30
0.0
 11
262.571589
 21
220.700357
 31
0.0
  0
LINE
  5
691
330
685
100
AcDbEntity
  8
LC-001-100-D00-0
 62
     7
370
    25
100
AcDbLine
 10
265.551845
 20
226.700357
 30
0.0
 11
271.551845
 21
220.700357
 31
0.0
  0
ENDBLK
  5
687
330
685
100
AcDbEntity
  8
0
100
AcDbBlockEnd
  0
BLOCK
  5
694
330
693
100
AcDbEntity
  8
0
100
AcDbBlockBegin
  2
KLON13
 70
     0
 71
     0
 10
0.0
 20
0.0
 30
0.0
  3
KLON13
  1

  4
KLON13
  0
LINE
  5
696
330
693
100
AcDbEntity
  8
LC-001-100-D00-0
 62
     7
370
    25
100
AcDbLine
 10
177.836367
 20
152.771224
 30
0.0
 11
179.336367
 21
151.271224
 31
0.0
  0
LINE
  5
697
330
693
100
AcDbEntity
  8
LC-001-100-D00-0
 62
     7
370
    25
100
AcDbLine
 10
183.907235
 20
146.700357
 30
0.0
 11
185.407235
 21
145.200357
 31
0.0
  0
LINE
  5
698
330
693
100
AcDbEntity
  8
LC-001-100-D00-0
 62
     7
370
    25
100
AcDbLine
 10
177.836367
 20
161.75148
 30
0.0
 11
179.336367
 21
160.25148
 31
0.0
  0
LINE
  5
699
330
693
100
AcDbEntity
  8
LC-001-100-D00-0
 62
     7
370
    25
100
AcDbLine
 10
192.887491
 20
146.700357
 30
0.0
 11
194.387491
 21
145.200357
 31
0.0
  0
LINE
  5
69A
330
693
100
AcDbEntity
  8
LC-001-100-D00-0
 62
     7
370
    25
100
AcDbLine
 10
177.836367
 20
170.731737
 30
0.0
 11
179.336367
 21
169.231737
 31
0.0
  0
LINE
  5
69B
330
693
100
AcDbEntity
  8
LC-001-100-D00-0
 62
     7
370
    25
100
AcDbLine
 10
201.867747
 20
146.700357
 30
0.0
 11
203.367747
 21
145.200357
 31
0.0
  0
LINE
  5
69C
330
693
100
AcDbEntity
  8
LC-001-100-D00-0
 62
     7
370
    25
100
AcDbLine
 10
177.836367
 20
179.711993
 30
0.0
 11
179.336367
 21
178.211993
 31
0.0
  0
LINE
  5
69D
330
693
100
AcDbEntity
  8
LC-001-100-D00-0
 62
     7
370
    25
100
AcDbLine
 10
210.848003
 20
146.700357
 30
0.0
 11
212.348003
 21
145.200357
 31
0.0
  0
LINE
  5
69E
330
693
100
AcDbEntity
  8
LC-001-100-D00-0
 62
     7
370
    25
100
AcDbLine
 10
177.836367
 20
188.692249
 30
0.0
 11
179.336367
 21
187.192249
 31
0.0
  0
LINE
  5
69F
330
693
100
AcDbEntity
  8
LC-001-100-D00-0
 62
     7
370
    25
100
AcDbLine
 10
219.828259
 20
146.700357
 30
0.0
 11
221.328259
 21
145.200357
 31
0.0
  0
LINE
  5
6A0
330
693
100
AcDbEntity
  8
LC-001-100-D00-0
 62
     7
370
    25
100
AcDbLine
 10
177.836367
 20
197.672505
 30
0.0
 11
179.336367
 21
196.172505
 31
0.0
  0
LINE
  5
6A1
330
693
100
AcDbEntity
  8
LC-001-100-D00-0
 62
     7
370
    25
100
AcDbLine
 10
228.808515
 20
146.700357
 30
0.0
 11
230.308515
 21
145.200357
 31
0.0
  0
LINE
  5
6A2
330
693
100
AcDbEntity
  8
LC-001-100-D00-0
 62
     7
370
    25
100
AcDbLine
 10
163.788771
 20
220.700357
 30
0.0
 11
179.336367
 21
205.152761
 31
0.0
  0
LINE
  5
6A3
330
693
100
AcDbEntity
  8
LC-001-100-D00-0
 62
     7
370
    25
100
AcDbLine
 10
237.788771
 20
146.700357
 30
0.0
 11
239.288771
 21
145.200357
 31
0.0
  0
LINE
  5
6A4
330
693
100
AcDbEntity
  8
LC-001-100-D00-0
 62
     7
370
    25
100
AcDbLine
 10
246.769027
 20
146.700357
 30
0.0
 11
248.269027
 21
145.200357
 31
0.0
  0
LINE
  5
6A5
330
693
100
AcDbEntity
  8
LC-001-100-D00-0
 62
     7
370
    25
100
AcDbLine
 10
255.652742
 20
146.796898
 30
0.0
 11
256.833228
 21
145.616412
 31
0.0
  0
LINE
  5
6A6
330
693
100
AcDbEntity
  8
LC-001-100-D00-0
 62
     7
370
    25
100
AcDbLine
 10
258.336367
 20
153.093529
 30
0.0
 11
259.836367
 21
151.593529
 31
0.0
  0
LINE
  5
6A7
330
693
100
AcDbEntity
  8
LC-001-100-D00-0
 62
     7
370
    25
100
AcDbLine
 10
258.336367
 20
162.073785
 30
0.0
 11
259.836367
 21
160.573785
 31
0.0
  0
LINE
  5
6A8
330
693
100
AcDbEntity
  8
LC-001-100-D00-0
 62
     7
370
    25
100
AcDbLine
 10
258.336367
 20
171.054042
 30
0.0
 11
259.836367
 21
169.554042
 31
0.0
  0
LINE
  5
6A9
330
693
100
AcDbEntity
  8
LC-001-100-D00-0
 62
     7
370
    25
100
AcDbLine
 10
258.336367
 20
180.034298
 30
0.0
 11
259.836367
 21
178.534298
 31
0.0
  0
LINE
  5
6AA
330
693
100
AcDbEntity
  8
LC-001-100-D00-0
 62
     7
370
    25
100
AcDbLine
 10
258.336367
 20
189.014554
 30
0.0
 11
259.836367
 21
187.514554
 31
0.0
  0
LINE
  5
6AB
330
693
100
AcDbEntity
  8
LC-001-100-D00-0
 62
     7
370
    25
100
AcDbLine
 10
258.336367
 20
197.99481
 30
0.0
 11
259.836367
 21
196.49481
 31
0.0
  0
LINE
  5
6AC
330
693
100
AcDbEntity
  8
LC-001-100-D00-0
 62
     7
370
    25
100
AcDbLine
 10
258.336367
 20
206.975066
 30
0.0
 11
261.957542
 21
203.353891
 31
0.0
  0
LINE
  5
6AD
330
693
100
AcDbEntity
  8
LC-001-100-D00-0
 62
     7
370
    25
100
AcDbLine
 10
260.278257
 20
214.013432
 30
0.0
 11
267.123879
 21
207.167811
 31
0.0
  0
LINE
  5
6AE
330
693
100
AcDbEntity
  8
LC-001-100-D00-0
 62
     7
370
    25
100
AcDbLine
 10
265.444594
 20
217.827352
 30
0.0
 11
272.290215
 21
210.98173
 31
0.0
  0
LINE
  5
6AF
330
693
100
AcDbEntity
  8
LC-001-100-D00-0
 62
     7
370
    25
100
AcDbLine
 10
271.551845
 20
220.700357
 30
0.0
 11
273.551845
 21
218.700357
 31
0.0
  0
ENDBLK
  5
695
330
693
100
AcDbEntity
  8
0
100
AcDbBlockEnd
  0
BLOCK
  5
6B2
330
6B1
100
AcDbEntity
  8
0
100
AcDbBlockBegin
  2
KLON14
 70
     0
 71
     0
 10
0.0
 20
0.0
 30
0.0
  3
KLON14
  1

  4
KLON14
  0
LINE
  5
6B4
330
6B1
100
AcDbEntity
  8
LC-001-100-D00-0
 62
     7
370
    25
100
AcDbLine
 10
318.046806
 20
201.146164
 30
0.0
 11
320.810334
 21
198.382636
 31
0.0
  0
LINE
  5
6B5
330
6B1
100
AcDbEntity
  8
LC-001-100-D00-0
 62
     7
370
    25
100
AcDbLine
 10
328.089899
 20
200.083327
 30
0.0
 11
331.331716
 21
196.84151
 31
0.0
  0
LINE
  5
6B6
330
6B1
100
AcDbEntity
  8
LC-001-100-D00-0
 62
     7
370
    25
100
AcDbLine
 10
338.303125
 20
198.850357
 30
0.0
 11
340.553125
 21
196.600357
 31
0.0
  0
LINE
  5
6B7
330
6B1
100
AcDbEntity
  8
LC-001-100-D00-0
 62
     7
370
    25
100
AcDbLine
 10
347.283381
 20
198.850357
 30
0.0
 11
349.533381
 21
196.600357
 31
0.0
  0
LINE
  5
6B8
330
6B1
100
AcDbEntity
  8
LC-001-100-D00-0
 62
     7
370
    25
100
AcDbLine
 10
356.263638
 20
198.850357
 30
0.0
 11
358.513638
 21
196.600357
 31
0.0
  0
LINE
  5
6B9
330
6B1
100
AcDbEntity
  8
LC-001-100-D00-0
 62
     7
370
    25
100
AcDbLine
 10
365.243894
 20
198.850357
 30
0.0
 11
367.493894
 21
196.600357
 31
0.0
  0
ENDBLK
  5
6B3
330
6B1
100
AcDbEntity
  8
0
100
AcDbBlockEnd
  0
BLOCK
  5
6BC
330
6BB
100
AcDbEntity
  8
0
100
AcDbBlockBegin
  2
KLON15
 70
     0
 71
     0
 10
0.0
 20
0.0
 30
0.0
  3
KLON15
  1

  4
KLON15
  0
LINE
  5
6BE
330
6BB
100
AcDbEntity
  8
LC-001-100-D00-0
 62
     7
370
    25
100
AcDbLine
 10
313.336164
 20
134.014757
 30
0.0
 11
315.336164
 21
132.014757
 31
0.0
  0
LINE
  5
6BF
330
6BB
100
AcDbEntity
  8
LC-001-100-D00-0
 62
     7
370
    25
100
AcDbLine
 10
316.921339
 20
139.409838
 30
0.0
 11
319.862962
 21
136.468215
 31
0.0
  0
LINE
  5
6C0
330
6BB
100
AcDbEntity
  8
LC-001-100-D00-0
 62
     7
370
    25
100
AcDbLine
 10
326.015545
 20
139.295888
 30
0.0
 11
328.02622
 21
137.285214
 31
0.0
  0
LINE
  5
6C1
330
6BB
100
AcDbEntity
  8
LC-001-100-D00-0
 62
     7
370
    25
100
AcDbLine
 10
333.080507
 20
141.211182
 30
0.0
 11
335.741332
 21
138.550357
 31
0.0
  0
LINE
  5
6C2
330
6BB
100
AcDbEntity
  8
LC-001-100-D00-0
 62
     7
370
    25
100
AcDbLine
 10
338.888448
 20
144.383498
 30
0.0
 11
340.65739
 21
142.614556
 31
0.0
  0
LINE
  5
6C3
330
6BB
100
AcDbEntity
  8
LC-001-100-D00-0
 62
     7
370
    25
100
AcDbLine
 10
342.471589
 20
140.800357
 30
0.0
 11
344.721589
 21
138.550357
 31
0.0
  0
LINE
  5
6C4
330
6BB
100
AcDbEntity
  8
LC-001-100-D00-0
 62
     7
370
    25
100
AcDbLine
 10
351.451845
 20
140.800357
 30
0.0
 11
353.701845
 21
138.550357
 31
0.0
  0
LINE
  5
6C5
330
6BB
100
AcDbEntity
  8
LC-001-100-D00-0
 62
     7
370
    25
100
AcDbLine
 10
360.432101
 20
140.800357
 30
0.0
 11
362.682101
 21
138.550357
 31
0.0
  0
LINE
  5
6C6
330
6BB
100
AcDbEntity
  8
LC-001-100-D00-0
 62
     7
370
    25
100
AcDbLine
 10
369.412357
 20
140.800357
 30
0.0
 11
371.662357
 21
138.550357
 31
0.0
  0
ENDBLK
  5
6BD
330
6BB
100
AcDbEntity
  8
0
100
AcDbBlockEnd
  0
BLOCK
  5
6C9
330
6C8
100
AcDbEntity
  8
0
100
AcDbBlockBegin
  2
KLON16
 70
     0
 71
     0
 10
0.0
 20
0.0
 30
0.0
  3
KLON16
  1

  4
KLON16
  0
LINE
  5
6CB
330
6C8
100
AcDbEntity
  8
LC-001-100-D00-0
 62
     7
370
    25
100
AcDbLine
 10
75.426978
 20
246.200357
 30
0.0
 11
76.926978
 21
244.700357
 31
0.0
  0
LINE
  5
6CC
330
6C8
100
AcDbEntity
  8
LC-001-100-D00-0
 62
     7
370
    25
100
AcDbLine
 10
84.407235
 20
246.200357
 30
0.0
 11
85.907235
 21
244.700357
 31
0.0
  0
LINE
  5
6CD
330
6C8
100
AcDbEntity
  8
LC-001-100-D00-0
 62
     7
370
    25
100
AcDbLine
 10
93.387491
 20
246.200357
 30
0.0
 11
94.887491
 21
244.700357
 31
0.0
  0
LINE
  5
6CE
330
6C8
100
AcDbEntity
  8
LC-001-100-D00-0
 62
     7
370
    25
100
AcDbLine
 10
102.367747
 20
246.200357
 30
0.0
 11
103.867747
 21
244.700357
 31
0.0
  0
LINE
  5
6CF
330
6C8
100
AcDbEntity
  8
LC-001-100-D00-0
 62
     7
370
    25
100
AcDbLine
 10
111.348003
 20
246.200357
 30
0.0
 11
112.848003
 21
244.700357
 31
0.0
  0
LINE
  5
6D0
330
6C8
100
AcDbEntity
  8
LC-001-100-D00-0
 62
     7
370
    25
100
AcDbLine
 10
120.328259
 20
246.200357
 30
0.0
 11
121.828259
 21
244.700357
 31
0.0
  0
LINE
  5
6D1
330
6C8
100
AcDbEntity
  8
LC-001-100-D00-0
 62
     7
370
    25
100
AcDbLine
 10
129.308515
 20
246.200357
 30
0.0
 11
130.808515
 21
244.700357
 31
0.0
  0
LINE
  5
6D2
330
6C8
100
AcDbEntity
  8
LC-001-100-D00-0
 62
     7
370
    25
100
AcDbLine
 10
138.288771
 20
246.200357
 30
0.0
 11
139.788771
 21
244.700357
 31
0.0
  0
LINE
  5
6D3
330
6C8
100
AcDbEntity
  8
LC-001-100-D00-0
 62
     7
370
    25
100
AcDbLine
 10
147.269027
 20
246.200357
 30
0.0
 11
148.769027
 21
244.700357
 31
0.0
  0
LINE
  5
6D4
330
6C8
100
AcDbEntity
  8
LC-001-100-D00-0
 62
     7
370
    25
100
AcDbLine
 10
156.249283
 20
246.200357
 30
0.0
 11
157.749283
 21
244.700357
 31
0.0
  0
LINE
  5
6D5
330
6C8
100
AcDbEntity
  8
LC-001-100-D00-0
 62
     7
370
    25
100
AcDbLine
 10
165.22954
 20
246.200357
 30
0.0
 11
166.72954
 21
244.700357
 31
0.0
  0
LINE
  5
6D6
330
6C8
100
AcDbEntity
  8
LC-001-100-D00-0
 62
     7
370
    25
100
AcDbLine
 10
174.209796
 20
246.200357
 30
0.0
 11
175.709796
 21
244.700357
 31
0.0
  0
LINE
  5
6D7
330
6C8
100
AcDbEntity
  8
LC-001-100-D00-0
 62
     7
370
    25
100
AcDbLine
 10
183.190052
 20
246.200357
 30
0.0
 11
184.690052
 21
244.700357
 31
0.0
  0
LINE
  5
6D8
330
6C8
100
AcDbEntity
  8
LC-001-100-D00-0
 62
     7
370
    25
100
AcDbLine
 10
192.170308
 20
246.200357
 30
0.0
 11
193.670308
 21
244.700357
 31
0.0
  0
LINE
  5
6D9
330
6C8
100
AcDbEntity
  8
LC-001-100-D00-0
 62
     7
370
    25
100
AcDbLine
 10
201.150564
 20
246.200357
 30
0.0
 11
202.650564
 21
244.700357
 31
0.0
  0
LINE
  5
6DA
330
6C8
100
AcDbEntity
  8
LC-001-100-D00-0
 62
     7
370
    25
100
AcDbLine
 10
210.13082
 20
246.200357
 30
0.0
 11
211.63082
 21
244.700357
 31
0.0
  0
LINE
  5
6DB
330
6C8
100
AcDbEntity
  8
LC-001-100-D00-0
 62
     7
370
    25
100
AcDbLine
 10
219.111076
 20
246.200357
 30
0.0
 11
220.611076
 21
244.700357
 31
0.0
  0
LINE
  5
6DC
330
6C8
100
AcDbEntity
  8
LC-001-100-D00-0
 62
     7
370
    25
100
AcDbLine
 10
228.091332
 20
246.200357
 30
0.0
 11
229.591332
 21
244.700357
 31
0.0
  0
LINE
  5
6DD
330
6C8
100
AcDbEntity
  8
LC-001-100-D00-0
 62
     7
370
    25
100
AcDbLine
 10
237.071589
 20
246.200357
 30
0.0
 11
238.571589
 21
244.700357
 31
0.0
  0
LINE
  5
6DE
330
6C8
100
AcDbEntity
  8
LC-001-100-D00-0
 62
     7
370
    25
100
AcDbLine
 10
246.051845
 20
246.200357
 30
0.0
 11
247.551845
 21
244.700357
 31
0.0
  0
LINE
  5
6DF
330
6C8
100
AcDbEntity
  8
LC-001-100-D00-0
 62
     7
370
    25
100
AcDbLine
 10
255.032101
 20
246.200357
 30
0.0
 11
256.532101
 21
244.700357
 31
0.0
  0
LINE
  5
6E0
330
6C8
100
AcDbEntity
  8
LC-001-100-D00-0
 62
     7
370
    25
100
AcDbLine
 10
264.012357
 20
246.200357
 30
0.0
 11
265.512357
 21
244.700357
 31
0.0
  0
LINE
  5
6E1
330
6C8
100
AcDbEntity
  8
LC-001-100-D00-0
 62
     7
370
    25
100
AcDbLine
 10
272.992613
 20
246.200357
 30
0.0
 11
274.492613
 21
244.700357
 31
0.0
  0
LINE
  5
6E2
330
6C8
100
AcDbEntity
  8
LC-001-100-D00-0
 62
     7
370
    25
100
AcDbLine
 10
281.972869
 20
246.200357
 30
0.0
 11
283.472869
 21
244.700357
 31
0.0
  0
LINE
  5
6E3
330
6C8
100
AcDbEntity
  8
LC-001-100-D00-0
 62
     7
370
    25
100
AcDbLine
 10
290.953125
 20
246.200357
 30
0.0
 11
292.453125
 21
244.700357
 31
0.0
  0
LINE
  5
6E4
330
6C8
100
AcDbEntity
  8
LC-001-100-D00-0
 62
     7
370
    25
100
AcDbLine
 10
299.933381
 20
246.200357
 30
0.0
 11
301.433381
 21
244.700357
 31
0.0
  0
LINE
  5
6E5
330
6C8
100
AcDbEntity
  8
LC-001-100-D00-0
 62
     7
370
    25
100
AcDbLine
 10
308.913638
 20
246.200357
 30
0.0
 11
310.413638
 21
244.700357
 31
0.0
  0
LINE
  5
6E6
330
6C8
100
AcDbEntity
  8
LC-001-100-D00-0
 62
     7
370
    25
100
AcDbLine
 10
317.893894
 20
246.200357
 30
0.0
 11
319.393894
 21
244.700357
 31
0.0
  0
LINE
  5
6E7
330
6C8
100
AcDbEntity
  8
LC-001-100-D00-0
 62
     7
370
    25
100
AcDbLine
 10
326.87415
 20
246.200357
 30
0.0
 11
328.37415
 21
244.700357
 31
0.0
  0
LINE
  5
6E8
330
6C8
100
AcDbEntity
  8
LC-001-100-D00-0
 62
     7
370
    25
100
AcDbLine
 10
335.854406
 20
246.200357
 30
0.0
 11
337.354406
 21
244.700357
 31
0.0
  0
LINE
  5
6E9
330
6C8
100
AcDbEntity
  8
LC-001-100-D00-0
 62
     7
370
    25
100
AcDbLine
 10
344.834662
 20
246.200357
 30
0.0
 11
346.334662
 21
244.700357
 31
0.0
  0
LINE
  5
6EA
330
6C8
100
AcDbEntity
  8
LC-001-100-D00-0
 62
     7
370
    25
100
AcDbLine
 10
353.814918
 20
246.200357
 30
0.0
 11
355.314918
 21
244.700357
 31
0.0
  0
LINE
  5
6EB
330
6C8
100
AcDbEntity
  8
LC-001-100-D00-0
 62
     7
370
    25
100
AcDbLine
 10
362.795174
 20
246.200357
 30
0.0
 11
364.295174
 21
244.700357
 31
0.0
  0
ENDBLK
  5
6CA
330
6C8
100
AcDbEntity
  8
0
100
AcDbBlockEnd
  0
BLOCK
  5
6FB
330
6F1
100
AcDbEntity
  8
0
100
AcDbBlockBegin
  2
*D51
 70
     1
 71
     0
 10
0.0
 20
0.0
 30
0.0
  3
*D51
  1

  0
LINE
  5
6F2
330
6F1
100
AcDbEntity
  8
LC-002-003-----0
 62
     2
370
    -2
100
AcDbLine
 10
3.836367
 20
246.200357
 30
0.0
 11
-59.502432
 21
246.200357
 31
0.0
  0
LINE
  5
6F3
330
6F1
100
AcDbEntity
  8
LC-002-003-----0
 62
     2
370
    -2
100
AcDbLine
 10
165.318487
 20
136.200357
 30
0.0
 11
-59.502432
 21
136.200357
 31
0.0
  0
LINE
  5
6F4
330
6F1
100
AcDbEntity
  8
LC-002-003-----0
 62
     2
370
    -2
100
AcDbLine
 10
-55.902432
 20
218.200357
 30
0.0
 11
-55.902432
 21
164.200357
 31
0.0
  0
SOLID
  5
6F5
330
6F1
100
AcDbEntity
  8
LC-002-003-----0
 62
     2
100
AcDbTrace
 10
-51.235765
 20
218.200357
 30
0.0
 11
-60.569099
 21
218.200357
 31
0.0
 12
-55.902432
 22
246.200357
 32
0.0
 13
-55.902432
 23
246.200357
 33
0.0
  0
SOLID
  5
6F6
330
6F1
100
AcDbEntity
  8
LC-002-003-----0
 62
     2
100
AcDbTrace
 10
-60.569099
 20
164.200357
 30
0.0
 11
-51.235765
 21
164.200357
 31
0.0
 12
-55.902432
 22
136.200357
 32
0.0
 13
-55.902432
 23
136.200357
 33
0.0
  0
MTEXT
  5
6F7
330
6F1
100
AcDbEntity
  8
LC-002-003-----0
 62
     2
100
AcDbMText
 10
-86.702432
 20
189.567533
 30
0.0
 40
28.0
 41
0.0
 71
     5
 72
     1
  1
\A1;110
  7
LCTX15-400-0-0pDIN-Schrift
 11
6.123031769111886E-17
 21
1.0
 31
0.0
 73
     1
 44
1.0
  0
POINT
  5
6F8
330
6F1
100
AcDbEntity
  8
Defpoints
 62
     0
100
AcDbPoint
 10
3.836367
 20
246.200357
 30
0.0
  0
POINT
  5
6F9
330
6F1
100
AcDbEntity
  8
Defpoints
 62
     0
100
AcDbPoint
 10
165.318487
 20
136.200357
 30
0.0
  0
POINT
  5
6FA
330
6F1
100
AcDbEntity
  8
Defpoints
 62
     0
100
AcDbPoint
 10
-55.902432
 20
136.200357
 30
0.0
  0
ENDBLK
  5
6FC
330
6F1
100
AcDbEntity
  8
0
100
AcDbBlockEnd
  0
BLOCK
  5
709
330
6FE
100
AcDbEntity
  8
0
100
AcDbBlockBegin
  2
*D52
 70
     1
 71
     0
 10
0.0
 20
0.0
 30
0.0
  3
*D52
  1

  0
LINE
  5
6FF
330
6FE
100
AcDbEntity
  8
LC-002-003-----0
 62
     2
370
    -2
100
AcDbLine
 10
179.836367
 20
210.700357
 30
0.0
 11
115.137733
 21
210.700357
 31
0.0
  0
LINE
  5
700
330
6FE
100
AcDbEntity
  8
LC-002-003-----0
 62
     2
370
    -2
100
AcDbLine
 10
189.836367
 20
160.800358
 30
0.0
 11
115.137733
 21
160.800358
 31
0.0
  0
LINE
  5
701
330
6FE
100
AcDbEntity
  8
LC-002-003-----0
 62
     2
370
    -2
100
AcDbLine
 10
118.737733
 20
238.700357
 30
0.0
 11
118.737733
 21
266.700357
 31
0.0
  0
LINE
  5
702
330
6FE
100
AcDbEntity
  8
LC-002-003-----0
 62
     2
370
    -2
100
AcDbLine
 10
118.737733
 20
132.800358
 30
0.0
 11
118.737733
 21
101.305306
 31
0.0
  0
SOLID
  5
703
330
6FE
100
AcDbEntity
  8
LC-002-003-----0
 62
     2
100
AcDbTrace
 10
114.071066
 20
238.700357
 30
0.0
 11
123.404399
 21
238.700357
 31
0.0
 12
118.737733
 22
210.700357
 32
0.0
 13
118.737733
 23
210.700357
 33
0.0
  0
SOLID
  5
704
330
6FE
100
AcDbEntity
  8
LC-002-003-----0
 62
     2
100
AcDbTrace
 10
123.404399
 20
132.800358
 30
0.0
 11
114.071066
 21
132.800358
 31
0.0
 12
118.737733
 22
160.800358
 32
0.0
 13
118.737733
 23
160.800358
 33
0.0
  0
MTEXT
  5
705
330
6FE
100
AcDbEntity
  8
LC-002-003-----0
 62
     2
100
AcDbMText
 10
87.937733
 20
124.227533
 30
0.0
 40
28.0
 41
0.0
 71
     5
 72
     1
  1
\A1;50
  7
LCTX15-400-0-0pDIN-Schrift
 11
6.123031769111886E-17
 21
1.0
 31
0.0
 73
     1
 44
1.0
  0
POINT
  5
706
330
6FE
100
AcDbEntity
  8
Defpoints
 62
     0
100
AcDbPoint
 10
179.836367
 20
210.700357
 30
0.0
  0
POINT
  5
707
330
6FE
100
AcDbEntity
  8
Defpoints
 62
     0
100
AcDbPoint
 10
189.836367
 20
160.800358
 30
0.0
  0
POINT
  5
708
330
6FE
100
AcDbEntity
  8
Defpoints
 62
     0
100
AcDbPoint
 10
118.737733
 20
160.800358
 30
0.0
  0
ENDBLK
  5
70A
330
6FE
100
AcDbEntity
  8
0
100
AcDbBlockEnd
  0
BLOCK
  5
716
330
70C
100
AcDbEntity
  8
0
100
AcDbBlockBegin
  2
*D53
 70
     1
 71
     0
 10
0.0
 20
0.0
 30
0.0
  3
*D53
  1

  0
LINE
  5
70D
330
70C
100
AcDbEntity
  8
LC-002-003-----0
 62
     2
370
    -2
100
AcDbLine
 10
433.836367
 20
246.200358
 30
0.0
 11
478.007336
 21
246.200358
 31
0.0
  0
LINE
  5
70E
330
70C
100
AcDbEntity
  8
LC-002-003-----0
 62
     2
370
    -2
100
AcDbLine
 10
372.836169
 20
168.700357
 30
0.0
 11
478.007336
 21
168.700357
 31
0.0
  0
LINE
  5
70F
330
70C
100
AcDbEntity
  8
LC-002-003-----0
 62
     2
370
    -2
100
AcDbLine
 10
474.407336
 20
218.200358
 30
0.0
 11
474.407336
 21
196.700357
 31
0.0
  0
SOLID
  5
710
330
70C
100
AcDbEntity
  8
LC-002-003-----0
 62
     2
100
AcDbTrace
 10
479.074003
 20
218.200358
 30
0.0
 11
469.74067
 21
218.200358
 31
0.0
 12
474.407336
 22
246.200358
 32
0.0
 13
474.407336
 23
246.200358
 33
0.0
  0
SOLID
  5
711
330
70C
100
AcDbEntity
  8
LC-002-003-----0
 62
     2
100
AcDbTrace
 10
469.74067
 20
196.700357
 30
0.0
 11
479.074003
 21
196.700357
 31
0.0
 12
474.407336
 22
168.700357
 32
0.0
 13
474.407336
 23
168.700357
 33
0.0
  0
MTEXT
  5
712
330
70C
100
AcDbEntity
  8
LC-002-003-----0
 62
     2
100
AcDbMText
 10
443.607336
 20
194.319533
 30
0.0
 40
28.0
 41
0.0
 71
     5
 72
     1
  1
\A1;78
  7
LCTX15-400-0-0pDIN-Schrift
 11
6.123031769111886E-17
 21
1.0
 31
0.0
 73
     1
 44
1.0
  0
POINT
  5
713
330
70C
100
AcDbEntity
  8
Defpoints
 62
     0
100
AcDbPoint
 10
433.836367
 20
246.200358
 30
0.0
  0
POINT
  5
714
330
70C
100
AcDbEntity
  8
Defpoints
 62
     0
100
AcDbPoint
 10
372.836169
 20
168.700357
 30
0.0
  0
POINT
  5
715
330
70C
100
AcDbEntity
  8
Defpoints
 62
     0
100
AcDbPoint
 10
474.407336
 20
168.700357
 30
0.0
  0
ENDBLK
  5
717
330
70C
100
AcDbEntity
  8
0
100
AcDbBlockEnd
  0
BLOCK
  5
724
330
719
100
AcDbEntity
  8
0
100
AcDbBlockBegin
  2
*D54
 70
     1
 71
     0
 10
0.0
 20
0.0
 30
0.0
  3
*D54
  1

  0
LINE
  5
71A
330
719
100
AcDbEntity
  8
LC-002-003-----0
 62
     2
370
    -2
100
AcDbLine
 10
372.836169
 20
196.600357
 30
0.0
 11
528.056652
 21
196.600357
 31
0.0
  0
LINE
  5
71B
330
719
100
AcDbEntity
  8
LC-002-003-----0
 62
     2
370
    -2
100
AcDbLine
 10
372.836169
 20
140.800358
 30
0.0
 11
528.056652
 21
140.800358
 31
0.0
  0
LINE
  5
71C
330
719
100
AcDbEntity
  8
LC-002-003-----0
 62
     2
370
    -2
100
AcDbLine
 10
524.456652
 20
112.800358
 30
0.0
 11
524.456652
 21
84.800358
 31
0.0
  0
LINE
  5
71D
330
719
100
AcDbEntity
  8
LC-002-003-----0
 62
     2
370
    -2
100
AcDbLine
 10
524.456652
 20
224.600357
 30
0.0
 11
524.456652
 21
246.526392
 31
0.0
  0
SOLID
  5
71E
330
719
100
AcDbEntity
  8
LC-002-003-----0
 62
     2
100
AcDbTrace
 10
519.789985
 20
224.600357
 30
0.0
 11
529.123319
 21
224.600357
 31
0.0
 12
524.456652
 22
196.600357
 32
0.0
 13
524.456652
 23
196.600357
 33
0.0
  0
SOLID
  5
71F
330
719
100
AcDbEntity
  8
LC-002-003-----0
 62
     2
100
AcDbTrace
 10
529.123319
 20
112.800358
 30
0.0
 11
519.789985
 21
112.800358
 31
0.0
 12
524.456652
 22
140.800358
 32
0.0
 13
524.456652
 23
140.800358
 33
0.0
  0
MTEXT
  5
720
330
719
100
AcDbEntity
  8
LC-002-003-----0
 62
     2
100
AcDbMText
 10
493.656652
 20
223.425533
 30
0.0
 40
28.0
 41
0.0
 71
     5
 72
     1
  1
\A1;%%c56
  7
LCTX15-400-0-0pDIN-Schrift
 11
6.123031769111886E-17
 21
1.0
 31
0.0
 73
     1
 44
1.0
  0
POINT
  5
721
330
719
100
AcDbEntity
  8
Defpoints
 62
     0
100
AcDbPoint
 10
372.836169
 20
196.600357
 30
0.0
  0
POINT
  5
722
330
719
100
AcDbEntity
  8
Defpoints
 62
     0
100
AcDbPoint
 10
372.836169
 20
140.800358
 30
0.0
  0
POINT
  5
723
330
719
100
AcDbEntity
  8
Defpoints
 62
     0
100
AcDbPoint
 10
524.456652
 20
140.800358
 30
0.0
  0
ENDBLK
  5
725
330
719
100
AcDbEntity
  8
0
100
AcDbBlockEnd
  0
BLOCK
  5
731
330
727
100
AcDbEntity
  8
0
100
AcDbBlockBegin
  2
*D55
 70
     1
 71
     0
 10
0.0
 20
0.0
 30
0.0
  3
*D55
  1

  0
LINE
  5
728
330
727
100
AcDbEntity
  8
LC-002-003-----0
 62
     2
370
    -2
100
AcDbLine
 10
373.336163
 20
168.700357
 30
0.0
 11
373.336163
 21
71.325533
 31
0.0
  0
LINE
  5
729
330
727
100
AcDbEntity
  8
LC-002-003-----0
 62
     2
370
    -2
100
AcDbLine
 10
218.836367
 20
160.800358
 30
0.0
 11
218.836367
 21
71.325533
 31
0.0
  0
LINE
  5
72A
330
727
100
AcDbEntity
  8
LC-002-003-----0
 62
     2
370
    -2
100
AcDbLine
 10
345.336163
 20
74.925533
 30
0.0
 11
246.836367
 21
74.925533
 31
0.0
  0
SOLID
  5
72B
330
727
100
AcDbEntity
  8
LC-002-003-----0
 62
     2
100
AcDbTrace
 10
345.336163
 20
70.258866
 30
0.0
 11
345.336163
 21
79.592199
 31
0.0
 12
373.336163
 22
74.925533
 32
0.0
 13
373.336163
 23
74.925533
 33
0.0
  0
SOLID
  5
72C
330
727
100
AcDbEntity
  8
LC-002-003-----0
 62
     2
100
AcDbTrace
 10
246.836367
 20
79.592199
 30
0.0
 11
246.836367
 21
70.258866
 31
0.0
 12
218.836367
 22
74.925533
 32
0.0
 13
218.836367
 23
74.925533
 33
0.0
  0
MTEXT
  5
72D
330
727
100
AcDbEntity
  8
LC-002-003-----0
 62
     2
100
AcDbMText
 10
295.507656
 20
105.725533
 30
0.0
 40
28.0
 41
0.0
 71
     5
 72
     1
  1
\A1;154,5
  7
LCTX15-400-0-0pDIN-Schrift
 73
     1
 44
1.0
  0
POINT
  5
72E
330
727
100
AcDbEntity
  8
Defpoints
 62
     0
100
AcDbPoint
 10
373.336163
 20
168.700357
 30
0.0
  0
POINT
  5
72F
330
727
100
AcDbEntity
  8
Defpoints
 62
     0
100
AcDbPoint
 10
218.836367
 20
160.800358
 30
0.0
  0
POINT
  5
730
330
727
100
AcDbEntity
  8
Defpoints
 62
     0
100
AcDbPoint
 10
218.836367
 20
74.925533
 30
0.0
  0
ENDBLK
  5
732
330
727
100
AcDbEntity
  8
0
100
AcDbBlockEnd
  0
ENDSEC
  0
SECTION
  2
ENTITIES
  0
ARC
  5
31
330
1F
100
AcDbEntity
  8
LC-001-100-D00-0
 62
     7
370
    50
100
AcDbCircle
 10
339.357886
 20
-64.060552
 30
0.0
 40
0.7999800020904786
100
AcDbArc
 50
0.0
 51
90.000007
  0
LINE
  5
32
330
1F
100
AcDbEntity
  8
LC-001-100-D00-0
 62
     7
370
    50
100
AcDbLine
 10
337.300804
 20
-63.260571
 30
0.0
 11
339.357879
 21
-63.260571
 31
0.0
  0
LINE
  5
33
330
1F
100
AcDbEntity
  8
LC-001-100-D00-0
 62
     7
370
    50
100
AcDbLine
 10
337.300804
 20
-63.260571
 30
0.0
 11
337.300804
 21
-67.260468
 31
0.0
  0
LINE
  5
34
330
1F
100
AcDbEntity
  8
LC-001-100-D00-0
 62
     7
370
    50
100
AcDbLine
 10
337.300804
 20
-67.260468
 30
0.0
 11
339.357879
 21
-67.26047
 31
0.0
  0
ARC
  5
35
330
1F
100
AcDbEntity
  8
LC-001-100-D00-0
 62
     7
370
    50
100
AcDbCircle
 10
339.357886
 20
-66.46049
 30
0.0
 40
0.7999792512193895
100
AcDbArc
 50
269.999993
 51
0.0
  0
LINE
  5
36
330
1F
100
AcDbEntity
  8
LC-001-100-D00-0
 62
     7
370
    50
100
AcDbLine
 10
340.157863
 20
-64.060551
 30
0.0
 11
340.157863
 21
-66.46049
 31
0.0
  0
LINE
  5
37
330
1F
100
AcDbEntity
  8
LC-001-100-D00-0
 62
     7
370
    50
100
AcDbLine
 10
344.373059
 20
-63.260573
 30
0.0
 11
344.373059
 21
-67.260468
 31
0.0
  0
LINE
  5
38
330
1F
100
AcDbEntity
  8
LC-001-100-D00-0
 62
     7
370
    50
100
AcDbLine
 10
344.373059
 20
-67.260468
 30
0.0
 11
346.691843
 21
-67.260468
 31
0.0
  0
LINE
  5
39
330
1F
100
AcDbEntity
  8
LC-001-100-D00-0
 62
     7
370
    50
100
AcDbLine
 10
346.691843
 20
-66.21702
 30
0.0
 11
346.691843
 21
-67.260468
 31
0.0
  0
LINE
  5
3A
330
1F
100
AcDbEntity
  8
LC-001-100-D00-0
 62
     7
370
    50
100
AcDbLine
 10
345.416513
 20
-66.21702
 30
0.0
 11
346.691843
 21
-66.21702
 31
0.0
  0
LINE
  5
3B
330
1F
100
AcDbEntity
  8
LC-001-100-D00-0
 62
     7
370
    50
100
AcDbLine
 10
345.416513
 20
-63.260573
 30
0.0
 11
345.416513
 21
-66.21702
 31
0.0
  0
LINE
  5
3C
330
1F
100
AcDbEntity
  8
LC-001-100-D00-0
 62
     7
370
    50
100
AcDbLine
 10
344.373059
 20
-63.260573
 30
0.0
 11
345.416513
 21
-63.260573
 31
0.0
  0
LINE
  5
3D
330
1F
100
AcDbEntity
  8
LC-001-100-D00-0
 62
     7
370
    50
100
AcDbLine
 10
353.010502
 20
-64.41996
 30
0.0
 11
353.010502
 21
-67.260468
 31
0.0
  0
LINE
  5
3E
330
1F
100
AcDbEntity
  8
LC-001-100-D00-0
 62
     7
370
    50
100
AcDbLine
 10
353.010502
 20
-67.260468
 30
0.0
 11
354.053956
 21
-67.260468
 31
0.0
  0
LINE
  5
3F
330
1F
100
AcDbEntity
  8
LC-001-100-D00-0
 62
     7
370
    50
100
AcDbLine
 10
354.053956
 20
-64.060551
 30
0.0
 11
354.053956
 21
-67.260468
 31
0.0
  0
ARC
  5
40
330
1F
100
AcDbEntity
  8
LC-001-100-D00-0
 62
     7
370
    50
100
AcDbCircle
 10
353.25397
 20
-64.060551
 30
0.0
 40
0.7999793452700033
100
AcDbArc
 50
0.0
 51
90.0
  0
LINE
  5
41
330
1F
100
AcDbEntity
  8
LC-001-100-D00-0
 62
     7
370
    50
100
AcDbLine
 10
352.266055
 20
-63.260571
 30
0.0
 11
353.253972
 21
-63.260571
 31
0.0
  0
ARC
  5
42
330
1F
100
AcDbEntity
  8
LC-001-100-D00-0
 62
     7
370
    50
100
AcDbCircle
 10
352.266059
 20
-64.060551
 30
0.0
 40
0.7999794705314116
100
AcDbArc
 50
90.0
 51
134.415343
  0
ARC
  5
43
330
1F
100
AcDbEntity
  8
LC-001-100-D00-0
 62
     7
370
    50
100
AcDbCircle
 10
351.146321
 20
-64.060552
 30
0.0
 40
0.7999790289936334
100
AcDbArc
 50
45.584717
 51
89.999985
  0
LINE
  5
44
330
1F
100
AcDbEntity
  8
LC-001-100-D00-0
 62
     7
370
    50
100
AcDbLine
 10
350.158405
 20
-63.260573
 30
0.0
 11
351.146322
 21
-63.260573
 31
0.0
  0
ARC
  5
45
330
1F
100
AcDbEntity
  8
LC-001-100-D00-0
 62
     7
370
    50
100
AcDbCircle
 10
350.158408
 20
-64.060552
 30
0.0
 40
0.7999792512194094
100
AcDbArc
 50
89.999985
 51
180.000004
  0
LINE
  5
46
330
1F
100
AcDbEntity
  8
LC-001-100-D00-0
 62
     7
370
    50
100
AcDbLine
 10
349.358436
 20
-64.060551
 30
0.0
 11
349.358436
 21
-67.260468
 31
0.0
  0
LINE
  5
47
330
1F
100
AcDbEntity
  8
LC-001-100-D00-0
 62
     7
370
    50
100
AcDbLine
 10
349.358436
 20
-67.260468
 30
0.0
 11
350.401875
 21
-67.260468
 31
0.0
  0
LINE
  5
48
330
1F
100
AcDbEntity
  8
LC-001-100-D00-0
 62
     7
370
    50
100
AcDbLine
 10
350.401875
 20
-64.41996
 30
0.0
 11
350.401875
 21
-67.260468
 31
0.0
  0
ARC
  5
49
330
1F
100
AcDbEntity
  8
LC-001-100-D00-0
 62
     7
370
    50
100
AcDbCircle
 10
350.517816
 20
-64.41996
 30
0.0
 40
0.1159387737142197
100
AcDbArc
 50
90.0
 51
180.000016
  0
LINE
  5
4A
330
1F
100
AcDbEntity
  8
LC-001-100-D00-0
 62
     7
370
    50
100
AcDbLine
 10
350.517821
 20
-64.304022
 30
0.0
 11
351.03954
 21
-64.304022
 31
0.0
  0
ARC
  5
4B
330
1F
100
AcDbEntity
  8
LC-001-100-D00-0
 62
     7
370
    50
100
AcDbCircle
 10
351.039541
 20
-64.41996
 30
0.0
 40
0.1159387737141064
100
AcDbArc
 50
0.000005
 51
90.0
  0
LINE
  5
4C
330
1F
100
AcDbEntity
  8
LC-001-100-D00-0
 62
     7
370
    50
100
AcDbLine
 10
351.155486
 20
-64.41996
 30
0.0
 11
351.155486
 21
-67.260468
 31
0.0
  0
LINE
  5
4D
330
1F
100
AcDbEntity
  8
LC-001-100-D00-0
 62
     7
370
    50
100
AcDbLine
 10
351.155486
 20
-67.260468
 30
0.0
 11
352.256906
 21
-67.260468
 31
0.0
  0
LINE
  5
4E
330
1F
100
AcDbEntity
  8
LC-001-100-D00-0
 62
     7
370
    50
100
AcDbLine
 10
352.256906
 20
-64.41996
 30
0.0
 11
352.256906
 21
-67.260468
 31
0.0
  0
ARC
  5
4F
330
1F
100
AcDbEntity
  8
LC-001-100-D00-0
 62
     7
370
    50
100
AcDbCircle
 10
352.372837
 20
-64.41996
 30
0.0
 40
0.1159387737127418
100
AcDbArc
 50
90.0
 51
180.0
  0
LINE
  5
50
330
1F
100
AcDbEntity
  8
LC-001-100-D00-0
 62
     7
370
    50
100
AcDbLine
 10
352.372837
 20
-64.304022
 30
0.0
 11
352.894556
 21
-64.304022
 31
0.0
  0
ARC
  5
51
330
1F
100
AcDbEntity
  8
LC-001-100-D00-0
 62
     7
370
    50
100
AcDbCircle
 10
352.894561
 20
-64.41996
 30
0.0
 40
0.1159387737127418
100
AcDbArc
 50
0.0
 51
90.0
  0
LINE
  5
52
330
1F
100
AcDbEntity
  8
LC-001-100-D00-0
 62
     7
370
    50
100
AcDbLine
 10
359.792914
 20
-66.390927
 30
0.0
 11
359.792914
 21
-67.260468
 31
0.0
  0
LINE
  5
53
330
1F
100
AcDbEntity
  8
LC-001-100-D00-0
 62
     7
370
    50
100
AcDbLine
 10
359.792914
 20
-67.260468
 30
0.0
 11
360.836368
 21
-67.260468
 31
0.0
  0
LINE
  5
54
330
1F
100
AcDbEntity
  8
LC-001-100-D00-0
 62
     7
370
    50
100
AcDbLine
 10
360.836368
 20
-66.106602
 30
0.0
 11
360.836368
 21
-67.260468
 31
0.0
  0
ARC
  5
55
330
1F
100
AcDbEntity
  8
LC-001-100-D00-0
 62
     7
370
    50
100
AcDbCircle
 10
360.036388
 20
-66.106602
 30
0.0
 40
0.7999792512174697
100
AcDbArc
 50
359.999988
 51
41.229305
  0
ARC
  5
56
330
1F
100
AcDbEntity
  8
LC-001-100-D00-0
 62
     7
370
    50
100
AcDbCircle
 10
360.036388
 20
-65.05211
 30
0.0
 40
0.7999794823737485
100
AcDbArc
 50
318.770707
 51
359.999985
  0
LINE
  5
57
330
1F
100
AcDbEntity
  8
LC-001-100-D00-0
 62
     7
370
    50
100
AcDbLine
 10
360.836368
 20
-64.060551
 30
0.0
 11
360.836368
 21
-65.05211
 31
0.0
  0
ARC
  5
58
330
1F
100
AcDbEntity
  8
LC-001-100-D00-0
 62
     7
370
    50
100
AcDbCircle
 10
360.036388
 20
-64.060552
 30
0.0
 40
0.7999796966757032
100
AcDbArc
 50
359.999985
 51
90.0
  0
LINE
  5
59
330
1F
100
AcDbEntity
  8
LC-001-100-D00-0
 62
     7
370
    50
100
AcDbLine
 10
357.706022
 20
-63.260571
 30
0.0
 11
360.036385
 21
-63.260571
 31
0.0
  0
LINE
  5
5A
330
1F
100
AcDbEntity
  8
LC-001-100-D00-0
 62
     7
370
    50
100
AcDbLine
 10
357.706022
 20
-63.260571
 30
0.0
 11
357.706022
 21
-67.260468
 31
0.0
  0
LINE
  5
5B
330
1F
100
AcDbEntity
  8
LC-001-100-D00-0
 62
     7
370
    50
100
AcDbLine
 10
357.706022
 20
-67.260468
 30
0.0
 11
358.749476
 21
-67.260468
 31
0.0
  0
LINE
  5
5C
330
1F
100
AcDbEntity
  8
LC-001-100-D00-0
 62
     7
370
    50
100
AcDbLine
 10
358.749476
 20
-66.21702
 30
0.0
 11
358.749476
 21
-67.260468
 31
0.0
  0
LINE
  5
5D
330
1F
100
AcDbEntity
  8
LC-001-100-D00-0
 62
     7
370
    50
100
AcDbLine
 10
358.749476
 20
-66.21702
 30
0.0
 11
359.619003
 21
-66.21702
 31
0.0
  0
ARC
  5
5E
330
1F
100
AcDbEntity
  8
LC-001-100-D00-0
 62
     7
370
    50
100
AcDbCircle
 10
359.61901
 20
-66.390927
 30
0.0
 40
0.1739081605712727
100
AcDbArc
 50
0.0
 51
90.0
  0
LINE
  5
5F
330
1F
100
AcDbEntity
  8
LC-001-100-D00-0
 62
     7
370
    50
100
AcDbLine
 10
366.836366
 20
-33.260468
 30
0.0
 11
70.836369
 21
-33.260468
 31
0.0
  0
LINE
  5
60
330
1F
100
AcDbEntity
  8
LC-001-100-D00-0
 62
     7
370
    50
100
AcDbLine
 10
366.836366
 20
-73.260469
 30
0.0
 11
366.836366
 21
-33.260468
 31
0.0
  0
LINE
  5
61
330
1F
100
AcDbEntity
  8
LC-001-100-D00-0
 62
     7
370
    50
100
AcDbLine
 10
70.836369
 20
-73.260469
 30
0.0
 11
366.836366
 21
-73.260469
 31
0.0
  0
LINE
  5
62
330
1F
100
AcDbEntity
  8
LC-001-100-D00-0
 62
     7
370
    50
100
AcDbLine
 10
357.068356
 20
-64.767785
 30
0.0
 11
355.561149
 21
-64.767785
 31
0.0
  0
LINE
  5
63
330
1F
100
AcDbEntity
  8
LC-001-100-D00-0
 62
     7
370
    50
100
AcDbLine
 10
355.561149
 20
-64.304029
 30
0.0
 11
355.561149
 21
-64.767785
 31
0.0
  0
LINE
  5
64
330
1F
100
AcDbEntity
  8
LC-001-100-D00-0
 62
     7
370
    50
100
AcDbLine
 10
355.561149
 20
-64.304029
 30
0.0
 11
357.068356
 21
-64.304029
 31
0.0
  0
LINE
  5
65
330
1F
100
AcDbEntity
  8
LC-001-100-D00-0
 62
     7
370
    50
100
AcDbLine
 10
357.068356
 20
-63.260573
 30
0.0
 11
357.068356
 21
-64.304029
 31
0.0
  0
LINE
  5
66
330
1F
100
AcDbEntity
  8
LC-001-100-D00-0
 62
     7
370
    50
100
AcDbLine
 10
354.51771
 20
-63.260573
 30
0.0
 11
357.068356
 21
-63.260573
 31
0.0
  0
LINE
  5
67
330
1F
100
AcDbEntity
  8
LC-001-100-D00-0
 62
     7
370
    50
100
AcDbLine
 10
354.51771
 20
-63.260573
 30
0.0
 11
354.51771
 21
-67.260468
 31
0.0
  0
LINE
  5
68
330
1F
100
AcDbEntity
  8
LC-001-100-D00-0
 62
     7
370
    50
100
AcDbLine
 10
354.51771
 20
-67.260468
 30
0.0
 11
357.068356
 21
-67.260468
 31
0.0
  0
LINE
  5
69
330
1F
100
AcDbEntity
  8
LC-001-100-D00-0
 62
     7
370
    50
100
AcDbLine
 10
357.068356
 20
-66.21702
 30
0.0
 11
357.068356
 21
-67.260468
 31
0.0
  0
LINE
  5
6A
330
1F
100
AcDbEntity
  8
LC-001-100-D00-0
 62
     7
370
    50
100
AcDbLine
 10
355.561149
 20
-66.21702
 30
0.0
 11
357.068356
 21
-66.21702
 31
0.0
  0
LINE
  5
6B
330
1F
100
AcDbEntity
  8
LC-001-100-D00-0
 62
     7
370
    50
100
AcDbLine
 10
355.561149
 20
-65.757807
 30
0.0
 11
355.561149
 21
-66.21702
 31
0.0
  0
LINE
  5
6C
330
1F
100
AcDbEntity
  8
LC-001-100-D00-0
 62
     7
370
    50
100
AcDbLine
 10
357.068356
 20
-65.757807
 30
0.0
 11
355.561149
 21
-65.757807
 31
0.0
  0
LINE
  5
6D
330
1F
100
AcDbEntity
  8
LC-001-100-D00-0
 62
     7
370
    50
100
AcDbLine
 10
357.068356
 20
-64.767785
 30
0.0
 11
357.068356
 21
-65.757807
 31
0.0
  0
LINE
  5
6E
330
1F
100
AcDbEntity
  8
LC-001-100-D00-0
 62
     7
370
    50
100
AcDbLine
 10
346.86574
 20
-63.260573
 30
0.0
 11
346.86574
 21
-67.260468
 31
0.0
  0
LINE
  5
6F
330
1F
100
AcDbEntity
  8
LC-001-100-D00-0
 62
     7
370
    50
100
AcDbLine
 10
346.86574
 20
-67.260468
 30
0.0
 11
349.184525
 21
-67.260468
 31
0.0
  0
LINE
  5
70
330
1F
100
AcDbEntity
  8
LC-001-100-D00-0
 62
     7
370
    50
100
AcDbLine
 10
349.184525
 20
-66.21702
 30
0.0
 11
349.184525
 21
-67.260468
 31
0.0
  0
LINE
  5
71
330
1F
100
AcDbEntity
  8
LC-001-100-D00-0
 62
     7
370
    50
100
AcDbLine
 10
347.909194
 20
-66.21702
 30
0.0
 11
349.184525
 21
-66.21702
 31
0.0
  0
LINE
  5
72
330
1F
100
AcDbEntity
  8
LC-001-100-D00-0
 62
     7
370
    50
100
AcDbLine
 10
347.909194
 20
-63.260573
 30
0.0
 11
347.909194
 21
-66.21702
 31
0.0
  0
LINE
  5
73
330
1F
100
AcDbEntity
  8
LC-001-100-D00-0
 62
     7
370
    50
100
AcDbLine
 10
346.86574
 20
-63.260573
 30
0.0
 11
347.909194
 21
-63.260573
 31
0.0
  0
ARC
  5
74
330
1F
100
AcDbEntity
  8
LC-001-100-D00-0
 62
     7
370
    50
100
AcDbCircle
 10
342.993388
 20
-64.060552
 30
0.0
 40
0.7999793757835505
100
AcDbArc
 50
0.0
 51
90.0
  0
LINE
  5
75
330
1F
100
AcDbEntity
  8
LC-001-100-D00-0
 62
     7
370
    50
100
AcDbLine
 10
341.462996
 20
-63.260573
 30
0.0
 11
342.99339
 21
-63.260573
 31
0.0
  0
ARC
  5
76
330
1F
100
AcDbEntity
  8
LC-001-100-D00-0
 62
     7
370
    50
100
AcDbCircle
 10
341.463
 20
-64.060552
 30
0.0
 40
0.7999792512192698
100
AcDbArc
 50
90.0
 51
180.0
  0
LINE
  5
77
330
1F
100
AcDbEntity
  8
LC-001-100-D00-0
 62
     7
370
    50
100
AcDbLine
 10
340.663027
 20
-64.060551
 30
0.0
 11
340.663027
 21
-67.260468
 31
0.0
  0
LINE
  5
78
330
1F
100
AcDbEntity
  8
LC-001-100-D00-0
 62
     7
370
    50
100
AcDbLine
 10
340.663027
 20
-67.260468
 30
0.0
 11
341.706466
 21
-67.260468
 31
0.0
  0
LINE
  5
79
330
1F
100
AcDbEntity
  8
LC-001-100-D00-0
 62
     7
370
    50
100
AcDbLine
 10
341.706466
 20
-66.101072
 30
0.0
 11
341.706466
 21
-67.260468
 31
0.0
  0
LINE
  5
7A
330
1F
100
AcDbEntity
  8
LC-001-100-D00-0
 62
     7
370
    50
100
AcDbLine
 10
341.706466
 20
-66.101072
 30
0.0
 11
342.74992
 21
-66.101072
 31
0.0
  0
LINE
  5
7B
330
1F
100
AcDbEntity
  8
LC-001-100-D00-0
 62
     7
370
    50
100
AcDbLine
 10
342.74992
 20
-66.101072
 30
0.0
 11
342.74992
 21
-67.260468
 31
0.0
  0
LINE
  5
7C
330
1F
100
AcDbEntity
  8
LC-001-100-D00-0
 62
     7
370
    50
100
AcDbLine
 10
342.74992
 20
-67.260468
 30
0.0
 11
343.793374
 21
-67.260468
 31
0.0
  0
LINE
  5
7D
330
1F
100
AcDbEntity
  8
LC-001-100-D00-0
 62
     7
370
    50
100
AcDbLine
 10
343.793374
 20
-64.060551
 30
0.0
 11
343.793374
 21
-67.260468
 31
0.0
  0
LINE
  5
7E
330
1F
100
AcDbEntity
  8
LC-001-100-D00-0
 62
     7
370
    50
100
AcDbLine
 10
331.014987
 20
-64.356235
 30
0.0
 11
334.724408
 21
-62.547031
 31
0.0
  0
ARC
  5
7F
330
1F
100
AcDbEntity
  8
LC-001-100-D00-0
 62
     7
370
    50
100
AcDbCircle
 10
331.063324
 20
-64.455342
 30
0.0
 40
0.1102658895153461
100
AcDbArc
 50
116.000012
 51
205.999975
  0
LINE
  5
80
330
1F
100
AcDbEntity
  8
LC-001-100-D00-0
 62
     7
370
    50
100
AcDbLine
 10
331.868824
 20
-66.358387
 30
0.0
 11
330.964219
 21
-64.503678
 31
0.0
  0
LINE
  5
81
330
1F
100
AcDbEntity
  8
LC-001-100-D00-0
 62
     7
370
    50
100
AcDbLine
 10
331.868824
 20
-66.358387
 30
0.0
 11
332.773414
 21
-68.213095
 31
0.0
  0
ARC
  5
82
330
1F
100
AcDbEntity
  8
LC-001-100-D00-0
 62
     7
370
    50
100
AcDbCircle
 10
332.872527
 20
-68.164758
 30
0.0
 40
0.1102658895162708
100
AcDbArc
 50
206.000012
 51
296.000012
  0
LINE
  5
83
330
1F
100
AcDbEntity
  8
LC-001-100-D00-0
 62
     7
370
    50
100
AcDbLine
 10
334.775578
 20
-67.359263
 30
0.0
 11
332.920861
 21
-68.263865
 31
0.0
  0
LINE
  5
84
330
1F
100
AcDbEntity
  8
LC-001-100-D00-0
 62
     7
370
    50
100
AcDbLine
 10
334.775578
 20
-67.359263
 30
0.0
 11
336.630281
 21
-66.454661
 31
0.0
  0
ARC
  5
85
330
1F
100
AcDbEntity
  8
LC-001-100-D00-0
 62
     7
370
    50
100
AcDbCircle
 10
336.581943
 20
-66.355555
 30
0.0
 40
0.1102658895163098
100
AcDbArc
 50
295.999987
 51
25.999987
  0
LINE
  5
86
330
1F
100
AcDbEntity
  8
LC-001-100-D00-0
 62
     7
370
    50
100
AcDbLine
 10
336.68105
 20
-66.307218
 30
0.0
 11
334.87184
 21
-62.597801
 31
0.0
  0
ARC
  5
87
330
1F
100
AcDbEntity
  8
LC-001-100-D00-0
 62
     7
370
    50
100
AcDbCircle
 10
334.77274
 20
-62.646138
 30
0.0
 40
0.1102658895164003
100
AcDbArc
 50
25.999999
 51
116.000012
  0
LINE
  5
88
330
1F
100
AcDbEntity
  8
LC-001-100-D00-0
 62
     7
370
    50
100
AcDbLine
 10
70.836369
 20
-33.260468
 30
0.0
 11
70.836369
 21
-73.260469
 31
0.0
  0
LINE
  5
89
330
1F
100
AcDbEntity
  8
LC-001-100-D00-0
 62
     7
370
    50
100
AcDbLine
 10
335.190308
 20
-64.73839
 30
0.0
 11
335.714426
 21
-65.812988
 31
0.0
  0
ARC
  5
8A
330
1F
100
AcDbEntity
  8
LC-001-100-D00-0
 62
     7
370
    50
100
AcDbCircle
 10
335.812111
 20
-65.765342
 30
0.0
 40
0.1086907098111071
100
AcDbArc
 50
206.000023
 51
25.99998
  0
LINE
  5
8B
330
1F
100
AcDbEntity
  8
LC-001-100-D00-0
 62
     7
370
    50
100
AcDbLine
 10
335.385692
 20
-64.643097
 30
0.0
 11
335.909795
 21
-65.717695
 31
0.0
  0
LINE
  5
8C
330
1F
100
AcDbEntity
  8
LC-001-100-D00-0
 62
     7
370
    50
100
AcDbLine
 10
335.385692
 20
-64.643097
 30
0.0
 11
334.861573
 21
-63.568498
 31
0.0
  0
ARC
  5
8D
330
1F
100
AcDbEntity
  8
LC-001-100-D00-0
 62
     7
370
    50
100
AcDbCircle
 10
334.763878
 20
-63.616145
 30
0.0
 40
0.1086907098110717
100
AcDbArc
 50
26.000002
 51
206.000002
  0
LINE
  5
8E
330
1F
100
AcDbEntity
  8
LC-001-100-D00-0
 62
     7
370
    50
100
AcDbLine
 10
335.190308
 20
-64.73839
 30
0.0
 11
334.666189
 21
-63.663793
 31
0.0
  0
LINE
  5
8F
330
1F
100
AcDbEntity
  8
LC-001-100-D00-0
 62
     7
370
    50
100
AcDbLine
 10
334.994924
 20
-64.833685
 30
0.0
 11
335.304629
 21
-65.468674
 31
0.0
  0
LINE
  5
90
330
1F
100
AcDbEntity
  8
LC-001-100-D00-0
 62
     7
370
    50
100
AcDbLine
 10
334.994924
 20
-64.833685
 30
0.0
 11
334.685218
 21
-64.198695
 31
0.0
  0
ARC
  5
91
330
1F
100
AcDbEntity
  8
LC-001-100-D00-0
 62
     7
370
    50
100
AcDbCircle
 10
334.587526
 20
-64.246342
 30
0.0
 40
0.1086907098111361
100
AcDbArc
 50
26.000013
 51
206.000013
  0
LINE
  5
92
330
1F
100
AcDbEntity
  8
LC-001-100-D00-0
 62
     7
370
    50
100
AcDbLine
 10
334.489834
 20
-64.293989
 30
0.0
 11
335.109245
 21
-65.563969
 31
0.0
  0
ARC
  5
93
330
1F
100
AcDbEntity
  8
LC-001-100-D00-0
 62
     7
370
    50
100
AcDbCircle
 10
335.206936
 20
-65.516322
 30
0.0
 40
0.108691159208133
100
AcDbArc
 50
205.999977
 51
25.999977
  0
ARC
  5
94
330
1F
100
AcDbEntity
  8
LC-001-100-D00-0
 62
     7
370
    50
100
AcDbCircle
 10
334.411174
 20
-64.876538
 30
0.0
 40
0.1086908952052499
100
AcDbArc
 50
26.000018
 51
206.000018
  0
LINE
  5
95
330
1F
100
AcDbEntity
  8
LC-001-100-D00-0
 62
     7
370
    50
100
AcDbLine
 10
334.504064
 20
-65.314948
 30
0.0
 11
334.313479
 21
-64.924184
 31
0.0
  0
ARC
  5
96
330
1F
100
AcDbEntity
  8
LC-001-100-D00-0
 62
     7
370
    50
100
AcDbCircle
 10
334.601762
 20
-65.267301
 30
0.0
 40
0.1086911143912692
100
AcDbArc
 50
206.000076
 51
26.000076
  0
LINE
  5
97
330
1F
100
AcDbEntity
  8
LC-001-100-D00-0
 62
     7
370
    50
100
AcDbLine
 10
334.508863
 20
-64.828891
 30
0.0
 11
334.699448
 21
-65.219653
 31
0.0
  0
LINE
  5
98
330
1F
100
AcDbEntity
  8
LC-001-100-D00-0
 62
     7
370
    50
100
AcDbLine
 10
332.845729
 20
-65.881917
 30
0.0
 11
332.536023
 21
-65.246928
 31
0.0
  0
ARC
  5
99
330
1F
100
AcDbEntity
  8
LC-001-100-D00-0
 62
     7
370
    50
100
AcDbCircle
 10
332.43833
 20
-65.294575
 30
0.0
 40
0.1086908952081573
100
AcDbArc
 50
26.000013
 51
206.000013
  0
LINE
  5
9A
330
1F
100
AcDbEntity
  8
LC-001-100-D00-0
 62
     7
370
    50
100
AcDbLine
 10
332.960051
 20
-66.612202
 30
0.0
 11
332.340639
 21
-65.342221
 31
0.0
  0
ARC
  5
9B
330
1F
100
AcDbEntity
  8
LC-001-100-D00-0
 62
     7
370
    50
100
AcDbCircle
 10
333.05774
 20
-66.564555
 30
0.0
 40
0.1086913446049
100
AcDbArc
 50
205.999977
 51
25.999977
  0
LINE
  5
9C
330
1F
100
AcDbEntity
  8
LC-001-100-D00-0
 62
     7
370
    50
100
AcDbLine
 10
332.845729
 20
-65.881917
 30
0.0
 11
333.155435
 21
-66.516907
 31
0.0
  0
LINE
  5
9D
330
1F
100
AcDbEntity
  8
LC-001-100-D00-0
 62
     7
370
    50
100
AcDbLine
 10
336.390373
 20
-66.207129
 30
0.0
 11
334.771764
 21
-62.888476
 31
0.0
  0
ARC
  5
9E
330
1F
100
AcDbEntity
  8
LC-001-100-D00-0
 62
     7
370
    50
100
AcDbCircle
 10
336.291268
 20
-66.255467
 30
0.0
 40
0.1102658895160934
100
AcDbArc
 50
296.000004
 51
26.000004
  0
LINE
  5
9F
330
1F
100
AcDbEntity
  8
LC-001-100-D00-0
 62
     7
370
    50
100
AcDbLine
 10
333.020952
 20
-67.973188
 30
0.0
 11
336.339604
 21
-66.354574
 31
0.0
  0
ARC
  5
A0
330
1F
100
AcDbEntity
  8
LC-001-100-D00-0
 62
     7
370
    50
100
AcDbCircle
 10
332.972614
 20
-67.874083
 30
0.0
 40
0.1102658895151265
100
AcDbArc
 50
206.000004
 51
296.000004
  0
LINE
  5
A1
330
1F
100
AcDbEntity
  8
LC-001-100-D00-0
 62
     7
370
    50
100
AcDbLine
 10
331.254896
 20
-64.603766
 30
0.0
 11
332.873505
 21
-67.92242
 31
0.0
  0
ARC
  5
A2
330
1F
100
AcDbEntity
  8
LC-001-100-D00-0
 62
     7
370
    50
100
AcDbCircle
 10
331.353998
 20
-64.555429
 30
0.0
 40
0.1102658895160909
100
AcDbArc
 50
116.000004
 51
206.000004
  0
LINE
  5
A3
330
1F
100
AcDbEntity
  8
LC-001-100-D00-0
 62
     7
370
    50
100
AcDbLine
 10
332.964983
 20
-63.647014
 30
0.0
 11
331.305664
 21
-64.456323
 31
0.0
  0
LINE
  5
A4
330
1F
100
AcDbEntity
  8
LC-001-100-D00-0
 62
     7
370
    50
100
AcDbLine
 10
332.964983
 20
-63.647014
 30
0.0
 11
334.624317
 21
-62.837708
 31
0.0
  0
ARC
  5
A5
330
1F
100
AcDbEntity
  8
LC-001-100-D00-0
 62
     7
370
    50
100
AcDbCircle
 10
334.672652
 20
-62.936814
 30
0.0
 40
0.1102658895155065
100
AcDbArc
 50
26.000018
 51
115.999976
  0
LINE
  5
A6
330
1F
100
AcDbEntity
  8
LC-001-100-D00-0
 62
     7
370
    50
100
AcDbLine
 10
332.454961
 20
-66.072506
 30
0.0
 11
331.930843
 21
-64.997907
 31
0.0
  0
ARC
  5
A7
330
1F
100
AcDbEntity
  8
LC-001-100-D00-0
 62
     7
370
    50
100
AcDbCircle
 10
331.833156
 20
-65.045555
 30
0.0
 40
0.1086908952080903
100
AcDbArc
 50
26.000002
 51
206.000002
  0
LINE
  5
A8
330
1F
100
AcDbEntity
  8
LC-001-100-D00-0
 62
     7
370
    50
100
AcDbLine
 10
332.259577
 20
-66.167799
 30
0.0
 11
331.735458
 21
-65.093202
 31
0.0
  0
LINE
  5
A9
330
1F
100
AcDbEntity
  8
LC-001-100-D00-0
 62
     7
370
    50
100
AcDbLine
 10
332.259577
 20
-66.167799
 30
0.0
 11
332.783696
 21
-67.242398
 31
0.0
  0
ARC
  5
AA
330
1F
100
AcDbEntity
  8
LC-001-100-D00-0
 62
     7
370
    50
100
AcDbCircle
 10
332.881389
 20
-67.194751
 30
0.0
 40
0.108690895208076
100
AcDbArc
 50
206.000023
 51
25.99998
  0
LINE
  5
AB
330
1F
100
AcDbEntity
  8
LC-001-100-D00-0
 62
     7
370
    50
100
AcDbLine
 10
332.454961
 20
-66.072506
 30
0.0
 11
332.97908
 21
-67.147104
 31
0.0
  0
ARC
  5
AC
330
1F
100
AcDbEntity
  8
LC-001-100-D00-0
 62
     7
370
    50
100
AcDbCircle
 10
333.234092
 20
-65.934359
 30
0.0
 40
0.1086907098091445
100
AcDbArc
 50
205.99996
 51
25.999723
  0
LINE
  5
AD
330
1F
100
AcDbEntity
  8
LC-001-100-D00-0
 62
     7
370
    50
100
AcDbLine
 10
333.236482
 20
-65.691329
 30
0.0
 11
333.33179
 21
-65.886713
 31
0.0
  0
LINE
  5
AE
330
1F
100
AcDbEntity
  8
LC-001-100-D00-0
 62
     7
370
    50
100
AcDbLine
 10
333.236482
 20
-65.691329
 30
0.0
 11
333.141189
 21
-65.495949
 31
0.0
  0
ARC
  5
AF
330
1F
100
AcDbEntity
  8
LC-001-100-D00-0
 62
     7
370
    50
100
AcDbCircle
 10
333.043504
 20
-65.543596
 30
0.0
 40
0.1086911592080879
100
AcDbArc
 50
26.000076
 51
206.000076
  0
LINE
  5
B0
330
1F
100
AcDbEntity
  8
LC-001-100-D00-0
 62
     7
370
    50
100
AcDbLine
 10
333.136406
 20
-65.982006
 30
0.0
 11
332.94582
 21
-65.591243
 31
0.0
  0
LINE
  5
B1
330
1F
100
AcDbEntity
  8
LC-001-100-D00-0
 62
     7
370
    50
100
AcDbLine
 10
334.39919
 20
-66.09168
 30
0.0
 11
334.008422
 21
-66.282268
 31
0.0
  0
ARC
  5
B2
330
1F
100
AcDbEntity
  8
LC-001-100-D00-0
 62
     7
370
    50
100
AcDbCircle
 10
334.351543
 20
-65.99399
 30
0.0
 40
0.1086911592077469
100
AcDbArc
 50
295.999839
 51
116.000076
  0
LINE
  5
B3
330
1F
100
AcDbEntity
  8
LC-001-100-D00-0
 62
     7
370
    50
100
AcDbLine
 10
334.303897
 20
-65.896298
 30
0.0
 11
333.913129
 21
-66.086886
 31
0.0
  0
ARC
  5
B4
330
1F
100
AcDbEntity
  8
LC-001-100-D00-0
 62
     7
370
    50
100
AcDbCircle
 10
333.96078
 20
-66.184577
 30
0.0
 40
0.1086907098109737
100
AcDbArc
 50
115.99996
 51
295.99996
  0
LINE
  5
B5
330
1F
100
AcDbEntity
  8
LC-001-100-D00-0
 62
     7
370
    50
100
AcDbLine
 10
334.394392
 20
-66.577736
 30
0.0
 11
333.759409
 21
-66.887443
 31
0.0
  0
LINE
  5
B6
330
1F
100
AcDbEntity
  8
LC-001-100-D00-0
 62
     7
370
    50
100
AcDbLine
 10
334.394392
 20
-66.577736
 30
0.0
 11
335.02939
 21
-66.268032
 31
0.0
  0
ARC
  5
B7
330
1F
100
AcDbEntity
  8
LC-001-100-D00-0
 62
     7
370
    50
100
AcDbCircle
 10
334.981739
 20
-66.170341
 30
0.0
 40
0.1086907098109701
100
AcDbArc
 50
295.999977
 51
115.999977
  0
LINE
  5
B8
330
1F
100
AcDbEntity
  8
LC-001-100-D00-0
 62
     7
370
    50
100
AcDbLine
 10
334.934097
 20
-66.07265
 30
0.0
 11
333.664116
 21
-66.692061
 31
0.0
  0
ARC
  5
B9
330
1F
100
AcDbEntity
  8
LC-001-100-D00-0
 62
     7
370
    50
100
AcDbCircle
 10
333.71176
 20
-66.789752
 30
0.0
 40
0.1086911592078939
100
AcDbArc
 50
116.000049
 51
296.000049
  0
LINE
  5
BA
330
1F
100
AcDbEntity
  8
LC-001-100-D00-0
 62
     7
370
    50
100
AcDbLine
 10
334.584978
 20
-66.9685
 30
0.0
 11
335.659575
 21
-66.444383
 31
0.0
  0
ARC
  5
BB
330
1F
100
AcDbEntity
  8
LC-001-100-D00-0
 62
     7
370
    50
100
AcDbCircle
 10
335.611935
 20
-66.346692
 30
0.0
 40
0.1086908952082746
100
AcDbArc
 50
295.99998
 51
116.000023
  0
LINE
  5
BC
330
1F
100
AcDbEntity
  8
LC-001-100-D00-0
 62
     7
370
    50
100
AcDbLine
 10
334.489685
 20
-66.773118
 30
0.0
 11
335.564282
 21
-66.249001
 31
0.0
  0
LINE
  5
BD
330
1F
100
AcDbEntity
  8
LC-001-100-D00-0
 62
     7
370
    50
100
AcDbLine
 10
334.489685
 20
-66.773118
 30
0.0
 11
333.415088
 21
-67.297235
 31
0.0
  0
ARC
  5
BE
330
1F
100
AcDbEntity
  8
LC-001-100-D00-0
 62
     7
370
    50
100
AcDbCircle
 10
333.462739
 20
-67.394925
 30
0.0
 40
0.1086908952083446
100
AcDbArc
 50
116.000002
 51
296.000233
  0
LINE
  5
BF
330
1F
100
AcDbEntity
  8
LC-001-100-D00-0
 62
     7
370
    50
100
AcDbLine
 10
334.584978
 20
-66.9685
 30
0.0
 11
333.51038
 21
-67.492615
 31
0.0
  0
ARC
  5
C0
330
1F
100
AcDbEntity
  8
LC-001-100-D00-0
 62
     7
370
    50
100
AcDbCircle
 10
333.684486
 20
-64.626319
 30
0.0
 40
0.1086908952079451
100
AcDbArc
 50
295.99996
 51
115.99996
  0
LINE
  5
C1
330
1F
100
AcDbEntity
  8
LC-001-100-D00-0
 62
     7
370
    50
100
AcDbLine
 10
333.246079
 20
-64.719216
 30
0.0
 11
333.636847
 21
-64.528629
 31
0.0
  0
ARC
  5
C2
330
1F
100
AcDbEntity
  8
LC-001-100-D00-0
 62
     7
370
    50
100
AcDbCircle
 10
333.293723
 20
-64.816907
 30
0.0
 40
0.1086908952080508
100
AcDbArc
 50
116.000076
 51
296.000076
  0
LINE
  5
C3
330
1F
100
AcDbEntity
  8
LC-001-100-D00-0
 62
     7
370
    50
100
AcDbLine
 10
333.73214
 20
-64.724011
 30
0.0
 11
333.341372
 21
-64.914599
 31
0.0
  0
LINE
  5
C4
330
1F
100
AcDbEntity
  8
LC-001-100-D00-0
 62
     7
370
    50
100
AcDbLine
 10
333.34617
 20
-64.428539
 30
0.0
 11
333.981153
 21
-64.118836
 31
0.0
  0
ARC
  5
C5
330
1F
100
AcDbEntity
  8
LC-001-100-D00-0
 62
     7
370
    50
100
AcDbCircle
 10
333.933506
 20
-64.021145
 30
0.0
 40
0.1086904458111847
100
AcDbArc
 50
295.999977
 51
115.999977
  0
LINE
  5
C6
330
1F
100
AcDbEntity
  8
LC-001-100-D00-0
 62
     7
370
    50
100
AcDbLine
 10
332.615879
 20
-64.542865
 30
0.0
 11
333.88586
 21
-63.923455
 31
0.0
  0
ARC
  5
C7
330
1F
100
AcDbEntity
  8
LC-001-100-D00-0
 62
     7
370
    50
100
AcDbCircle
 10
332.663527
 20
-64.640555
 30
0.0
 40
0.1086908952077048
100
AcDbArc
 50
116.000049
 51
296.000393
  0
LINE
  5
C8
330
1F
100
AcDbEntity
  8
LC-001-100-D00-0
 62
     7
370
    50
100
AcDbLine
 10
333.34617
 20
-64.428539
 30
0.0
 11
332.711172
 21
-64.738245
 31
0.0
  0
LINE
  5
C9
330
1F
100
AcDbEntity
  8
LC-001-100-D00-0
 62
     7
370
    50
100
AcDbLine
 10
333.060276
 20
-63.842397
 30
0.0
 11
331.985679
 21
-64.366513
 31
0.0
  0
ARC
  5
CA
330
1F
100
AcDbEntity
  8
LC-001-100-D00-0
 62
     7
370
    50
100
AcDbCircle
 10
332.033331
 20
-64.464204
 30
0.0
 40
0.1086911592080776
100
AcDbArc
 50
116.000002
 51
296.000002
  0
LINE
  5
CB
330
1F
100
AcDbEntity
  8
LC-001-100-D00-0
 62
     7
370
    50
100
AcDbLine
 10
333.155569
 20
-64.037777
 30
0.0
 11
332.080972
 21
-64.561895
 31
0.0
  0
LINE
  5
CC
330
1F
100
AcDbEntity
  8
LC-001-100-D00-0
 62
     7
370
    50
100
AcDbLine
 10
333.155569
 20
-64.037777
 30
0.0
 11
334.230181
 21
-63.513662
 31
0.0
  0
ARC
  5
CD
330
1F
100
AcDbEntity
  8
LC-001-100-D00-0
 62
     7
370
    50
100
AcDbCircle
 10
334.182527
 20
-63.415971
 30
0.0
 40
0.1086911592081597
100
AcDbArc
 50
295.99998
 51
116.000023
  0
LINE
  5
CE
330
1F
100
AcDbEntity
  8
LC-001-100-D00-0
 62
     7
370
    50
100
AcDbLine
 10
333.060276
 20
-63.842397
 30
0.0
 11
334.134873
 21
-63.31828
 31
0.0
  0
ARC
  5
CF
330
1F
100
AcDbEntity
  8
LC-001-100-D00-0
 62
     7
370
    50
100
AcDbCircle
 10
338.995165
 20
-66.0398
 30
0.0
 40
0.4057857079998514
100
AcDbArc
 50
270.00002
 51
0.0
  0
LINE
  5
D0
330
1F
100
AcDbEntity
  8
LC-001-100-D00-0
 62
     7
370
    50
100
AcDbLine
 10
339.400944
 20
-64.516032
 30
0.0
 11
339.400944
 21
-66.0398
 31
0.0
  0
ARC
  5
D1
330
1F
100
AcDbEntity
  8
LC-001-100-D00-0
 62
     7
370
    50
100
AcDbCircle
 10
338.995165
 20
-64.516032
 30
0.0
 40
0.405785707999712
100
AcDbArc
 50
0.0
 51
89.99998
  0
LINE
  5
D2
330
1F
100
AcDbEntity
  8
LC-001-100-D00-0
 62
     7
370
    50
100
AcDbLine
 10
338.173654
 20
-64.110245
 30
0.0
 11
338.99517
 21
-64.110247
 31
0.0
  0
LINE
  5
D3
330
1F
100
AcDbEntity
  8
LC-001-100-D00-0
 62
     7
370
    50
100
AcDbLine
 10
338.173654
 20
-66.445585
 30
0.0
 11
338.173654
 21
-64.110245
 31
0.0
  0
LINE
  5
D4
330
1F
100
AcDbEntity
  8
LC-001-100-D00-0
 62
     7
370
    50
100
AcDbLine
 10
338.99517
 20
-66.445585
 30
0.0
 11
338.173654
 21
-66.445585
 31
0.0
  0
LINE
  5
D5
330
1F
100
AcDbEntity
  8
LC-001-100-D00-0
 62
     7
370
    50
100
AcDbLine
 10
339.929294
 20
-66.46049
 30
0.0
 11
339.929294
 21
-64.060551
 31
0.0
  0
ARC
  5
D6
330
1F
100
AcDbEntity
  8
LC-001-100-D00-0
 62
     7
370
    50
100
AcDbCircle
 10
339.357886
 20
-66.46049
 30
0.0
 40
0.5714135010451855
100
AcDbArc
 50
270.0
 51
0.000018
  0
LINE
  5
D7
330
1F
100
AcDbEntity
  8
LC-001-100-D00-0
 62
     7
370
    50
100
AcDbLine
 10
337.529358
 20
-67.031903
 30
0.0
 11
339.357879
 21
-67.031903
 31
0.0
  0
LINE
  5
D8
330
1F
100
AcDbEntity
  8
LC-001-100-D00-0
 62
     7
370
    50
100
AcDbLine
 10
337.529358
 20
-63.489139
 30
0.0
 11
337.529358
 21
-67.031903
 31
0.0
  0
LINE
  5
D9
330
1F
100
AcDbEntity
  8
LC-001-100-D00-0
 62
     7
370
    50
100
AcDbLine
 10
339.357879
 20
-63.489139
 30
0.0
 11
337.529358
 21
-63.489139
 31
0.0
  0
ARC
  5
DA
330
1F
100
AcDbEntity
  8
LC-001-100-D00-0
 62
     7
370
    50
100
AcDbCircle
 10
339.357886
 20
-64.060552
 30
0.0
 40
0.5714135010453272
100
AcDbArc
 50
0.000018
 51
89.999992
  0
LINE
  5
DB
330
1F
100
AcDbEntity
  8
LC-001-100-D00-0
 62
     7
370
    50
100
AcDbLine
 10
338.402208
 20
-66.21702
 30
0.0
 11
338.998478
 21
-66.21702
 31
0.0
  0
LINE
  5
DC
330
1F
100
AcDbEntity
  8
LC-001-100-D00-0
 62
     7
370
    50
100
AcDbLine
 10
338.402208
 20
-64.338812
 30
0.0
 11
338.402208
 21
-66.21702
 31
0.0
  0
LINE
  5
DD
330
1F
100
AcDbEntity
  8
LC-001-100-D00-0
 62
     7
370
    50
100
AcDbLine
 10
338.402208
 20
-64.338812
 30
0.0
 11
338.998478
 21
-64.338812
 31
0.0
  0
ARC
  5
DE
330
1F
100
AcDbEntity
  8
LC-001-100-D00-0
 62
     7
370
    50
100
AcDbCircle
 10
338.998477
 20
-64.51272
 30
0.0
 40
0.1739081605712727
100
AcDbArc
 50
0.0
 51
90.0
  0
LINE
  5
DF
330
1F
100
AcDbEntity
  8
LC-001-100-D00-0
 62
     7
370
    50
100
AcDbLine
 10
339.17239
 20
-64.51272
 30
0.0
 11
339.17239
 21
-66.043112
 31
0.0
  0
ARC
  5
E0
330
1F
100
AcDbEntity
  8
LC-001-100-D00-0
 62
     7
370
    50
100
AcDbCircle
 10
338.998477
 20
-66.043111
 30
0.0
 40
0.1739081605712727
100
AcDbArc
 50
270.0
 51
0.0
  0
LINE
  5
E1
330
1F
100
AcDbEntity
  8
LC-001-100-D00-0
 62
     7
370
    50
100
AcDbLine
 10
341.477897
 20
-65.279148
 30
0.0
 11
341.477897
 21
-64.481241
 31
0.0
  0
LINE
  5
E2
330
1F
100
AcDbEntity
  8
LC-001-100-D00-0
 62
     7
370
    50
100
AcDbLine
 10
342.978489
 20
-65.279148
 30
0.0
 11
341.477897
 21
-65.279148
 31
0.0
  0
LINE
  5
E3
330
1F
100
AcDbEntity
  8
LC-001-100-D00-0
 62
     7
370
    50
100
AcDbLine
 10
342.978489
 20
-64.481241
 30
0.0
 11
342.978489
 21
-65.279148
 31
0.0
  0
ARC
  5
E4
330
1F
100
AcDbEntity
  8
LC-001-100-D00-0
 62
     7
370
    50
100
AcDbCircle
 10
342.572698
 20
-64.481242
 30
0.0
 40
0.4057857079998529
100
AcDbArc
 50
0.000021
 51
90.0
  0
LINE
  5
E5
330
1F
100
AcDbEntity
  8
LC-001-100-D00-0
 62
     7
370
    50
100
AcDbLine
 10
341.883686
 20
-64.075456
 30
0.0
 11
342.5727
 21
-64.075456
 31
0.0
  0
LINE
  5
E6
330
1F
100
AcDbEntity
  8
LC-001-100-D00-0
 62
     7
370
    50
100
AcDbLine
 10
342.99339
 20
-63.489139
 30
0.0
 11
341.462996
 21
-63.489137
 31
0.0
  0
ARC
  5
E7
330
1F
100
AcDbEntity
  8
LC-001-100-D00-0
 62
     7
370
    50
100
AcDbCircle
 10
342.993388
 20
-64.060552
 30
0.0
 40
0.5714140010452411
100
AcDbArc
 50
0.0
 51
89.999991
  0
LINE
  5
E8
330
1F
100
AcDbEntity
  8
LC-001-100-D00-0
 62
     7
370
    50
100
AcDbLine
 10
343.564805
 20
-67.031903
 30
0.0
 11
343.564805
 21
-64.060551
 31
0.0
  0
LINE
  5
E9
330
1F
100
AcDbEntity
  8
LC-001-100-D00-0
 62
     7
370
    50
100
AcDbLine
 10
342.978489
 20
-67.031903
 30
0.0
 11
343.564805
 21
-67.031903
 31
0.0
  0
LINE
  5
EA
330
1F
100
AcDbEntity
  8
LC-001-100-D00-0
 62
     7
370
    50
100
AcDbLine
 10
342.978489
 20
-65.872507
 30
0.0
 11
342.978489
 21
-67.031903
 31
0.0
  0
LINE
  5
EB
330
1F
100
AcDbEntity
  8
LC-001-100-D00-0
 62
     7
370
    50
100
AcDbLine
 10
341.477897
 20
-65.872507
 30
0.0
 11
342.978489
 21
-65.872507
 31
0.0
  0
LINE
  5
EC
330
1F
100
AcDbEntity
  8
LC-001-100-D00-0
 62
     7
370
    50
100
AcDbLine
 10
341.477897
 20
-67.031903
 30
0.0
 11
341.477897
 21
-65.872507
 31
0.0
  0
LINE
  5
ED
330
1F
100
AcDbEntity
  8
LC-001-100-D00-0
 62
     7
370
    50
100
AcDbLine
 10
340.891581
 20
-67.031903
 30
0.0
 11
341.477897
 21
-67.031903
 31
0.0
  0
LINE
  5
EE
330
1F
100
AcDbEntity
  8
LC-001-100-D00-0
 62
     7
370
    50
100
AcDbLine
 10
340.891581
 20
-64.060551
 30
0.0
 11
340.891581
 21
-67.031903
 31
0.0
  0
ARC
  5
EF
330
1F
100
AcDbEntity
  8
LC-001-100-D00-0
 62
     7
370
    50
100
AcDbCircle
 10
341.88369
 20
-64.481242
 30
0.0
 40
0.4057857079995983
100
AcDbArc
 50
90.0
 51
179.999979
  0
ARC
  5
F0
330
1F
100
AcDbEntity
  8
LC-001-100-D00-0
 62
     7
370
    50
100
AcDbCircle
 10
341.463
 20
-64.060552
 30
0.0
 40
0.571414125609643
100
AcDbArc
 50
89.999991
 51
180.0
  0
LINE
  5
F1
330
1F
100
AcDbEntity
  8
LC-001-100-D00-0
 62
     7
370
    50
100
AcDbLine
 10
342.74992
 20
-64.477929
 30
0.0
 11
342.74992
 21
-65.050581
 31
0.0
  0
LINE
  5
F2
330
1F
100
AcDbEntity
  8
LC-001-100-D00-0
 62
     7
370
    50
100
AcDbLine
 10
341.706466
 20
-65.050581
 30
0.0
 11
342.74992
 21
-65.050581
 31
0.0
  0
LINE
  5
F3
330
1F
100
AcDbEntity
  8
LC-001-100-D00-0
 62
     7
370
    50
100
AcDbLine
 10
341.706466
 20
-64.477929
 30
0.0
 11
341.706466
 21
-65.050581
 31
0.0
  0
ARC
  5
F4
330
1F
100
AcDbEntity
  8
LC-001-100-D00-0
 62
     7
370
    50
100
AcDbCircle
 10
341.880378
 20
-64.47793
 30
0.0
 40
0.1739081605712727
100
AcDbArc
 50
90.0
 51
180.0
  0
LINE
  5
F5
330
1F
100
AcDbEntity
  8
LC-001-100-D00-0
 62
     7
370
    50
100
AcDbLine
 10
341.880378
 20
-64.304022
 30
0.0
 11
342.576009
 21
-64.304022
 31
0.0
  0
ARC
  5
F6
330
1F
100
AcDbEntity
  8
LC-001-100-D00-0
 62
     7
370
    50
100
AcDbCircle
 10
342.57601
 20
-64.47793
 30
0.0
 40
0.173908160571159
100
AcDbArc
 50
0.0
 51
90.0
  0
LINE
  5
F7
330
1F
100
AcDbEntity
  8
LC-001-100-D00-0
 62
     7
370
    50
100
AcDbLine
 10
346.463274
 20
-66.445585
 30
0.0
 11
345.187944
 21
-66.445585
 31
0.0
  0
LINE
  5
F8
330
1F
100
AcDbEntity
  8
LC-001-100-D00-0
 62
     7
370
    50
100
AcDbLine
 10
346.463274
 20
-67.031903
 30
0.0
 11
346.463274
 21
-66.445585
 31
0.0
  0
LINE
  5
F9
330
1F
100
AcDbEntity
  8
LC-001-100-D00-0
 62
     7
370
    50
100
AcDbLine
 10
344.601628
 20
-67.031903
 30
0.0
 11
346.463274
 21
-67.031903
 31
0.0
  0
LINE
  5
FA
330
1F
100
AcDbEntity
  8
LC-001-100-D00-0
 62
     7
370
    50
100
AcDbLine
 10
344.601628
 20
-63.489139
 30
0.0
 11
344.601628
 21
-67.031903
 31
0.0
  0
LINE
  5
FB
330
1F
100
AcDbEntity
  8
LC-001-100-D00-0
 62
     7
370
    50
100
AcDbLine
 10
345.187944
 20
-66.445585
 30
0.0
 11
345.187944
 21
-63.489139
 31
0.0
  0
LINE
  5
FC
330
1F
100
AcDbEntity
  8
LC-001-100-D00-0
 62
     7
370
    50
100
AcDbLine
 10
345.187944
 20
-63.489139
 30
0.0
 11
344.601628
 21
-63.489139
 31
0.0
  0
ARC
  5
FD
330
1F
100
AcDbEntity
  8
LC-001-100-D00-0
 62
     7
370
    50
100
AcDbCircle
 10
351.146321
 20
-64.060552
 30
0.0
 40
0.5714137798644881
100
AcDbArc
 50
11.536989
 51
89.999986
  0
ARC
  5
FE
330
1F
100
AcDbEntity
  8
LC-001-100-D00-0
 62
     7
370
    50
100
AcDbCircle
 10
352.266059
 20
-64.060551
 30
0.0
 40
0.5714138754356282
100
AcDbArc
 50
89.999986
 51
168.463041
  0
LINE
  5
FF
330
1F
100
AcDbEntity
  8
LC-001-100-D00-0
 62
     7
370
    50
100
AcDbLine
 10
353.253972
 20
-63.489139
 30
0.0
 11
352.266055
 21
-63.489137
 31
0.0
  0
ARC
  5
100
330
1F
100
AcDbEntity
  8
LC-001-100-D00-0
 62
     7
370
    50
100
AcDbCircle
 10
353.25397
 20
-64.060551
 30
0.0
 40
0.5714135010452992
100
AcDbArc
 50
0.0
 51
89.999986
  0
LINE
  5
101
330
1F
100
AcDbEntity
  8
LC-001-100-D00-0
 62
     7
370
    50
100
AcDbLine
 10
353.825387
 20
-67.031903
 30
0.0
 11
353.825387
 21
-64.060551
 31
0.0
  0
LINE
  5
102
330
1F
100
AcDbEntity
  8
LC-001-100-D00-0
 62
     7
370
    50
100
AcDbLine
 10
353.239071
 20
-67.031903
 30
0.0
 11
353.825387
 21
-67.031903
 31
0.0
  0
LINE
  5
103
330
1F
100
AcDbEntity
  8
LC-001-100-D00-0
 62
     7
370
    50
100
AcDbLine
 10
353.239071
 20
-64.423272
 30
0.0
 11
353.239071
 21
-67.031903
 31
0.0
  0
ARC
  5
104
330
1F
100
AcDbEntity
  8
LC-001-100-D00-0
 62
     7
370
    50
100
AcDbCircle
 10
352.891249
 20
-64.423272
 30
0.0
 40
0.3478163211423206
100
AcDbArc
 50
359.999993
 51
90.000076
  0
LINE
  5
105
330
1F
100
AcDbEntity
  8
LC-001-100-D00-0
 62
     7
370
    50
100
AcDbLine
 10
352.376145
 20
-64.075456
 30
0.0
 11
352.891248
 21
-64.075456
 31
0.0
  0
ARC
  5
106
330
1F
100
AcDbEntity
  8
LC-001-100-D00-0
 62
     7
370
    50
100
AcDbCircle
 10
352.376149
 20
-64.423273
 30
0.0
 40
0.3478163211418242
100
AcDbArc
 50
90.000076
 51
180.0
  0
LINE
  5
107
330
1F
100
AcDbEntity
  8
LC-001-100-D00-0
 62
     7
370
    50
100
AcDbLine
 10
352.028337
 20
-67.031903
 30
0.0
 11
352.028337
 21
-64.423272
 31
0.0
  0
LINE
  5
108
330
1F
100
AcDbEntity
  8
LC-001-100-D00-0
 62
     7
370
    50
100
AcDbLine
 10
351.38404
 20
-67.031903
 30
0.0
 11
352.028337
 21
-67.031903
 31
0.0
  0
LINE
  5
109
330
1F
100
AcDbEntity
  8
LC-001-100-D00-0
 62
     7
370
    50
100
AcDbLine
 10
351.38404
 20
-64.423272
 30
0.0
 11
351.38404
 21
-67.031903
 31
0.0
  0
ARC
  5
10A
330
1F
100
AcDbEntity
  8
LC-001-100-D00-0
 62
     7
370
    50
100
AcDbCircle
 10
351.036229
 20
-64.423272
 30
0.0
 40
0.3478163211423206
100
AcDbArc
 50
359.999993
 51
90.000076
  0
LINE
  5
10B
330
1F
100
AcDbEntity
  8
LC-001-100-D00-0
 62
     7
370
    50
100
AcDbLine
 10
350.521129
 20
-64.075456
 30
0.0
 11
351.036232
 21
-64.075456
 31
0.0
  0
ARC
  5
10C
330
1F
100
AcDbEntity
  8
LC-001-100-D00-0
 62
     7
370
    50
100
AcDbCircle
 10
350.521129
 20
-64.423273
 30
0.0
 40
0.34781632114262
100
AcDbArc
 50
90.000076
 51
180.0
  0
LINE
  5
10D
330
1F
100
AcDbEntity
  8
LC-001-100-D00-0
 62
     7
370
    50
100
AcDbLine
 10
350.173306
 20
-67.031903
 30
0.0
 11
350.173306
 21
-64.423272
 31
0.0
  0
LINE
  5
10E
330
1F
100
AcDbEntity
  8
LC-001-100-D00-0
 62
     7
370
    50
100
AcDbLine
 10
349.58699
 20
-67.031903
 30
0.0
 11
350.173306
 21
-67.031903
 31
0.0
  0
LINE
  5
10F
330
1F
100
AcDbEntity
  8
LC-001-100-D00-0
 62
     7
370
    50
100
AcDbLine
 10
349.58699
 20
-64.060551
 30
0.0
 11
349.58699
 21
-67.031903
 31
0.0
  0
ARC
  5
110
330
1F
100
AcDbEntity
  8
LC-001-100-D00-0
 62
     7
370
    50
100
AcDbCircle
 10
350.158408
 20
-64.060552
 30
0.0
 40
0.5714139999999088
100
AcDbArc
 50
89.999986
 51
180.0
  0
LINE
  5
111
330
1F
100
AcDbEntity
  8
LC-001-100-D00-0
 62
     7
370
    50
100
AcDbLine
 10
351.146322
 20
-63.489139
 30
0.0
 11
350.158405
 21
-63.489139
 31
0.0
  0
LINE
  5
112
330
1F
100
AcDbEntity
  8
LC-001-100-D00-0
 62
     7
370
    50
100
AcDbLine
 10
347.680625
 20
-66.445585
 30
0.0
 11
347.680625
 21
-63.489139
 31
0.0
  0
LINE
  5
113
330
1F
100
AcDbEntity
  8
LC-001-100-D00-0
 62
     7
370
    50
100
AcDbLine
 10
348.955956
 20
-66.445585
 30
0.0
 11
347.680625
 21
-66.445585
 31
0.0
  0
LINE
  5
114
330
1F
100
AcDbEntity
  8
LC-001-100-D00-0
 62
     7
370
    50
100
AcDbLine
 10
348.955956
 20
-67.031903
 30
0.0
 11
348.955956
 21
-66.445585
 31
0.0
  0
LINE
  5
115
330
1F
100
AcDbEntity
  8
LC-001-100-D00-0
 62
     7
370
    50
100
AcDbLine
 10
347.094309
 20
-67.031903
 30
0.0
 11
348.955956
 21
-67.031903
 31
0.0
  0
LINE
  5
116
330
1F
100
AcDbEntity
  8
LC-001-100-D00-0
 62
     7
370
    50
100
AcDbLine
 10
347.094309
 20
-63.489139
 30
0.0
 11
347.094309
 21
-67.031903
 31
0.0
  0
LINE
  5
117
330
1F
100
AcDbEntity
  8
LC-001-100-D00-0
 62
     7
370
    50
100
AcDbLine
 10
347.680625
 20
-63.489139
 30
0.0
 11
347.094309
 21
-63.489139
 31
0.0
  0
LINE
  5
118
330
1F
100
AcDbEntity
  8
LC-001-100-D00-0
 62
     7
370
    50
100
AcDbLine
 10
356.839787
 20
-64.075464
 30
0.0
 11
356.839787
 21
-63.489139
 31
0.0
  0
LINE
  5
119
330
1F
100
AcDbEntity
  8
LC-001-100-D00-0
 62
     7
370
    50
100
AcDbLine
 10
355.332595
 20
-64.075464
 30
0.0
 11
356.839787
 21
-64.075464
 31
0.0
  0
LINE
  5
11A
330
1F
100
AcDbEntity
  8
LC-001-100-D00-0
 62
     7
370
    50
100
AcDbLine
 10
355.332595
 20
-64.99635
 30
0.0
 11
355.332595
 21
-64.075464
 31
0.0
  0
LINE
  5
11B
330
1F
100
AcDbEntity
  8
LC-001-100-D00-0
 62
     7
370
    50
100
AcDbLine
 10
356.839787
 20
-64.99635
 30
0.0
 11
355.332595
 21
-64.99635
 31
0.0
  0
LINE
  5
11C
330
1F
100
AcDbEntity
  8
LC-001-100-D00-0
 62
     7
370
    50
100
AcDbLine
 10
356.839787
 20
-65.52924
 30
0.0
 11
356.839787
 21
-64.99635
 31
0.0
  0
LINE
  5
11D
330
1F
100
AcDbEntity
  8
LC-001-100-D00-0
 62
     7
370
    50
100
AcDbLine
 10
355.332595
 20
-65.52924
 30
0.0
 11
356.839787
 21
-65.52924
 31
0.0
  0
LINE
  5
11E
330
1F
100
AcDbEntity
  8
LC-001-100-D00-0
 62
     7
370
    50
100
AcDbLine
 10
355.332595
 20
-66.445585
 30
0.0
 11
355.332595
 21
-65.52924
 31
0.0
  0
LINE
  5
11F
330
1F
100
AcDbEntity
  8
LC-001-100-D00-0
 62
     7
370
    50
100
AcDbLine
 10
356.839787
 20
-66.445585
 30
0.0
 11
355.332595
 21
-66.445585
 31
0.0
  0
LINE
  5
120
330
1F
100
AcDbEntity
  8
LC-001-100-D00-0
 62
     7
370
    50
100
AcDbLine
 10
356.839787
 20
-67.031903
 30
0.0
 11
356.839787
 21
-66.445585
 31
0.0
  0
LINE
  5
121
330
1F
100
AcDbEntity
  8
LC-001-100-D00-0
 62
     7
370
    50
100
AcDbLine
 10
354.746264
 20
-67.031903
 30
0.0
 11
356.839787
 21
-67.031903
 31
0.0
  0
LINE
  5
122
330
1F
100
AcDbEntity
  8
LC-001-100-D00-0
 62
     7
370
    50
100
AcDbLine
 10
354.746264
 20
-63.489139
 30
0.0
 11
354.746264
 21
-67.031903
 31
0.0
  0
LINE
  5
123
330
1F
100
AcDbEntity
  8
LC-001-100-D00-0
 62
     7
370
    50
100
AcDbLine
 10
356.839787
 20
-63.489139
 30
0.0
 11
354.746264
 21
-63.489139
 31
0.0
  0
LINE
  5
124
330
1F
100
AcDbEntity
  8
LC-001-100-D00-0
 62
     7
370
    50
100
AcDbLine
 10
358.749476
 20
-65.057631
 30
0.0
 11
359.619003
 21
-65.057631
 31
0.0
  0
LINE
  5
125
330
1F
100
AcDbEntity
  8
LC-001-100-D00-0
 62
     7
370
    50
100
AcDbLine
 10
358.749476
 20
-64.304029
 30
0.0
 11
358.749476
 21
-65.057631
 31
0.0
  0
LINE
  5
126
330
1F
100
AcDbEntity
  8
LC-001-100-D00-0
 62
     7
370
    50
100
AcDbLine
 10
358.749476
 20
-64.304029
 30
0.0
 11
359.619003
 21
-64.304029
 31
0.0
  0
ARC
  5
127
330
1F
100
AcDbEntity
  8
LC-001-100-D00-0
 62
     7
370
    50
100
AcDbCircle
 10
359.61901
 20
-64.477938
 30
0.0
 40
0.173908160571159
100
AcDbArc
 50
0.0
 51
90.0
  0
LINE
  5
128
330
1F
100
AcDbEntity
  8
LC-001-100-D00-0
 62
     7
370
    50
100
AcDbLine
 10
359.792914
 20
-64.477939
 30
0.0
 11
359.792914
 21
-64.883723
 31
0.0
  0
ARC
  5
129
330
1F
100
AcDbEntity
  8
LC-001-100-D00-0
 62
     7
370
    50
100
AcDbCircle
 10
359.61901
 20
-64.883723
 30
0.0
 40
0.1739081605713864
100
AcDbArc
 50
270.0
 51
0.0
  0
ARC
  5
12A
330
1F
100
AcDbEntity
  8
LC-001-100-D00-0
 62
     7
370
    50
100
AcDbCircle
 10
359.615699
 20
-64.880412
 30
0.0
 40
0.405785707999712
100
AcDbArc
 50
270.0
 51
0.0
  0
LINE
  5
12B
330
1F
100
AcDbEntity
  8
LC-001-100-D00-0
 62
     7
370
    50
100
AcDbLine
 10
360.021483
 20
-64.48125
 30
0.0
 11
360.021483
 21
-64.880412
 31
0.0
  0
ARC
  5
12C
330
1F
100
AcDbEntity
  8
LC-001-100-D00-0
 62
     7
370
    50
100
AcDbCircle
 10
359.615699
 20
-64.48125
 30
0.0
 40
0.405785707999371
100
AcDbArc
 50
0.0
 51
90.0
  0
LINE
  5
12D
330
1F
100
AcDbEntity
  8
LC-001-100-D00-0
 62
     7
370
    50
100
AcDbLine
 10
358.520907
 20
-64.075464
 30
0.0
 11
359.615695
 21
-64.075464
 31
0.0
  0
LINE
  5
12E
330
1F
100
AcDbEntity
  8
LC-001-100-D00-0
 62
     7
370
    50
100
AcDbLine
 10
358.520907
 20
-65.286198
 30
0.0
 11
358.520907
 21
-64.075464
 31
0.0
  0
LINE
  5
12F
330
1F
100
AcDbEntity
  8
LC-001-100-D00-0
 62
     7
370
    50
100
AcDbLine
 10
359.615695
 20
-65.286198
 30
0.0
 11
358.520907
 21
-65.286198
 31
0.0
  0
ARC
  5
130
330
1F
100
AcDbEntity
  8
LC-001-100-D00-0
 62
     7
370
    50
100
AcDbCircle
 10
359.615698
 20
-66.39424
 30
0.0
 40
0.4057857079992573
100
AcDbArc
 50
0.0
 51
90.0
  0
LINE
  5
131
330
1F
100
AcDbEntity
  8
LC-001-100-D00-0
 62
     7
370
    50
100
AcDbLine
 10
358.520907
 20
-65.988454
 30
0.0
 11
359.615695
 21
-65.988454
 31
0.0
  0
LINE
  5
132
330
1F
100
AcDbEntity
  8
LC-001-100-D00-0
 62
     7
370
    50
100
AcDbLine
 10
358.520907
 20
-67.031903
 30
0.0
 11
358.520907
 21
-65.988454
 31
0.0
  0
LINE
  5
133
330
1F
100
AcDbEntity
  8
LC-001-100-D00-0
 62
     7
370
    50
100
AcDbLine
 10
357.934591
 20
-67.031903
 30
0.0
 11
358.520907
 21
-67.031903
 31
0.0
  0
LINE
  5
134
330
1F
100
AcDbEntity
  8
LC-001-100-D00-0
 62
     7
370
    50
100
AcDbLine
 10
357.934591
 20
-63.489137
 30
0.0
 11
357.934591
 21
-67.031903
 31
0.0
  0
LINE
  5
135
330
1F
100
AcDbEntity
  8
LC-001-100-D00-0
 62
     7
370
    50
100
AcDbLine
 10
360.036385
 20
-63.489139
 30
0.0
 11
357.934591
 21
-63.489137
 31
0.0
  0
ARC
  5
136
330
1F
100
AcDbEntity
  8
LC-001-100-D00-0
 62
     7
370
    50
100
AcDbCircle
 10
360.036388
 20
-64.060552
 30
0.0
 40
0.5714140010452591
100
AcDbArc
 50
359.999986
 51
89.999993
  0
LINE
  5
137
330
1F
100
AcDbEntity
  8
LC-001-100-D00-0
 62
     7
370
    50
100
AcDbLine
 10
360.607799
 20
-65.05211
 30
0.0
 11
360.607799
 21
-64.060551
 31
0.0
  0
ARC
  5
138
330
1F
100
AcDbEntity
  8
LC-001-100-D00-0
 62
     7
370
    50
100
AcDbCircle
 10
360.036388
 20
-65.05211
 30
0.0
 40
0.5714137888340765
100
AcDbArc
 50
292.675404
 51
359.999986
  0
ARC
  5
139
330
1F
100
AcDbEntity
  8
LC-001-100-D00-0
 62
     7
370
    50
100
AcDbCircle
 10
360.036388
 20
-66.106602
 30
0.0
 40
0.5714138754353826
100
AcDbArc
 50
0.0
 51
67.324631
  0
LINE
  5
13A
330
1F
100
AcDbEntity
  8
LC-001-100-D00-0
 62
     7
370
    50
100
AcDbLine
 10
360.607799
 20
-67.031903
 30
0.0
 11
360.607799
 21
-66.106602
 31
0.0
  0
LINE
  5
13B
330
1F
100
AcDbEntity
  8
LC-001-100-D00-0
 62
     7
370
    50
100
AcDbLine
 10
360.021483
 20
-67.031903
 30
0.0
 11
360.607799
 21
-67.031903
 31
0.0
  0
LINE
  5
13C
330
1F
100
AcDbEntity
  8
LC-001-100-D00-0
 62
     7
370
    50
100
AcDbLine
 10
360.021483
 20
-66.394241
 30
0.0
 11
360.021483
 21
-67.031903
 31
0.0
  0
ARC
  5
13D
330
1F
100
AcDbEntity
  8
LC-001-100-D00-0
 62
     7
370
    50
100
AcDbCircle
 10
188.336367
 20
-53.260468
 30
0.0
 40
24.0
100
AcDbArc
 50
90.0
 51
123.55731
  0
ARC
  5
13E
330
1F
100
AcDbEntity
  8
LC-001-100-D00-0
 62
     7
370
    50
100
AcDbCircle
 10
188.336367
 20
-53.260468
 30
0.0
 40
24.0000000000001
100
AcDbArc
 50
236.44269
 51
270.0
  0
LINE
  5
13F
330
1F
100
AcDbEntity
  8
LC-001-100-D00-0
 62
     7
370
    50
100
AcDbLine
 10
249.336366
 20
-29.260468
 30
0.0
 11
188.336367
 21
-29.260468
 31
0.0
  0
ARC
  5
140
330
1F
100
AcDbEntity
  8
LC-001-100-D00-0
 62
     7
370
    50
100
AcDbCircle
 10
249.336367
 20
-53.260468
 30
0.0
 40
24.00000000000011
100
AcDbArc
 50
270.0
 51
303.55731
  0
ARC
  5
141
330
1F
100
AcDbEntity
  8
LC-001-100-D00-0
 62
     7
370
    50
100
AcDbCircle
 10
249.336367
 20
-53.260468
 30
0.0
 40
24.0
100
AcDbArc
 50
56.44269
 51
90.0
  0
LINE
  5
142
330
1F
100
AcDbEntity
  8
LC-001-100-D00-0
 62
     7
370
    50
100
AcDbLine
 10
188.336367
 20
-77.260469
 30
0.0
 11
249.336366
 21
-77.260469
 31
0.0
  0
LINE
  5
143
330
1F
100
AcDbEntity
  8
LC-001-100-D00-0
 62
     7
370
    50
100
AcDbLine
 10
368.83637
 20
-79.260466
 30
0.0
 11
68.836365
 21
-79.260466
 31
0.0
  0
LINE
  5
144
330
1F
100
AcDbEntity
  8
LC-001-100-D00-0
 62
     7
370
    50
100
AcDbLine
 10
368.83637
 20
-27.260468
 30
0.0
 11
368.83637
 21
-79.260466
 31
0.0
  0
LINE
  5
145
330
1F
100
AcDbEntity
  8
LC-001-100-D00-0
 62
     7
370
    50
100
AcDbLine
 10
68.836365
 20
-27.260468
 30
0.0
 11
368.83637
 21
-27.260468
 31
0.0
  0
LINE
  5
146
330
1F
100
AcDbEntity
  8
LC-001-100-D00-0
 62
     7
370
    50
100
AcDbLine
 10
68.836365
 20
-79.260466
 30
0.0
 11
68.836365
 21
-27.260468
 31
0.0
  0
LINE
  5
147
330
1F
100
AcDbEntity
  8
LC-001-100-D00-0
 62
     7
370
    50
100
AcDbLine
 10
22.836369
 20
18.739531
 30
0.0
 11
414.836373
 21
18.739531
 31
0.0
  0
LINE
  5
148
330
1F
100
AcDbEntity
  8
LC-001-100-D00-0
 62
     7
370
    50
100
AcDbLine
 10
414.836373
 20
18.739531
 30
0.0
 11
414.836373
 21
-125.260466
 31
0.0
  0
LINE
  5
149
330
1F
100
AcDbEntity
  8
LC-001-100-D00-0
 62
     7
370
    50
100
AcDbLine
 10
414.836373
 20
-125.260466
 30
0.0
 11
22.836369
 21
-125.260466
 31
0.0
  0
LINE
  5
14A
330
1F
100
AcDbEntity
  8
LC-001-100-D00-0
 62
     7
370
    50
100
AcDbLine
 10
22.836369
 20
-125.260466
 30
0.0
 11
22.836369
 21
18.739531
 31
0.0
  0
LINE
  5
14B
330
1F
100
AcDbEntity
  8
LC-001-100-D00-0
 62
     7
370
    50
100
AcDbLine
 10
259.836365
 20
29.647625
 30
0.0
 11
227.836367
 21
29.647625
 31
0.0
  0
LINE
  5
14C
330
1F
100
AcDbEntity
  8
LC-001-100-D00-0
 62
     7
370
    50
100
AcDbLine
 10
259.836365
 20
30.73953
 30
0.0
 11
227.836367
 21
30.73953
 31
0.0
  0
ARC
  5
14D
330
1F
100
AcDbEntity
  8
LC-001-100-D00-0
 62
     7
370
    50
100
AcDbCircle
 10
177.836367
 20
26.739532
 30
0.0
 40
2.90808929720157
100
AcDbArc
 50
90.0
 51
270.0
  0
ARC
  5
14E
330
1F
100
AcDbEntity
  8
LC-001-100-D00-0
 62
     7
370
    50
100
AcDbCircle
 10
177.836367
 20
26.739532
 30
0.0
 40
4.000000000000114
100
AcDbArc
 50
90.0
 51
270.0
  0
LINE
  5
14F
330
1F
100
AcDbEntity
  8
LC-001-100-D00-0
 62
     7
370
    50
100
AcDbLine
 10
139.836367
 20
29.647625
 30
0.0
 11
107.83637
 21
29.647625
 31
0.0
  0
LINE
  5
150
330
1F
100
AcDbEntity
  8
LC-001-100-D00-0
 62
     7
370
    50
100
AcDbLine
 10
139.836367
 20
30.73953
 30
0.0
 11
107.83637
 21
30.73953
 31
0.0
  0
LINE
  5
151
330
1F
100
AcDbEntity
  8
LC-001-100-D00-0
 62
     7
370
    50
100
AcDbLine
 10
177.836367
 20
23.831441
 30
0.0
 11
209.836368
 21
23.831441
 31
0.0
  0
LINE
  5
152
330
1F
100
AcDbEntity
  8
LC-001-100-D00-0
 62
     7
370
    50
100
AcDbLine
 10
177.836367
 20
22.739536
 30
0.0
 11
209.836368
 21
22.739536
 31
0.0
  0
ARC
  5
153
330
1F
100
AcDbEntity
  8
LC-001-100-D00-0
 62
     7
370
    50
100
AcDbCircle
 10
259.836367
 20
26.739532
 30
0.0
 40
2.908089297201514
100
AcDbArc
 50
270.0
 51
90.0
  0
ARC
  5
154
330
1F
100
AcDbEntity
  8
LC-001-100-D00-0
 62
     7
370
    50
100
AcDbCircle
 10
259.836367
 20
26.739532
 30
0.0
 40
4.000000000000114
100
AcDbArc
 50
270.0
 51
90.0
  0
ARC
  5
155
330
1F
100
AcDbEntity
  8
LC-001-100-D00-0
 62
     7
370
    50
100
AcDbCircle
 10
57.836367
 20
26.739532
 30
0.0
 40
2.908089297201343
100
AcDbArc
 50
90.0
 51
270.0
  0
ARC
  5
156
330
1F
100
AcDbEntity
  8
LC-001-100-D00-0
 62
     7
370
    50
100
AcDbCircle
 10
57.836367
 20
26.739532
 30
0.0
 40
3.999999999999943
100
AcDbArc
 50
90.0
 51
270.0
  0
ARC
  5
157
330
1F
100
AcDbEntity
  8
LC-001-100-D00-0
 62
     7
370
    50
100
AcDbCircle
 10
107.836367
 20
26.739532
 30
0.0
 40
2.908089297201627
100
AcDbArc
 50
90.0
 51
270.0
  0
ARC
  5
158
330
1F
100
AcDbEntity
  8
LC-001-100-D00-0
 62
     7
370
    50
100
AcDbCircle
 10
107.836367
 20
26.739532
 30
0.0
 40
4.000000000000227
100
AcDbArc
 50
90.0
 51
270.0
  0
LINE
  5
159
330
1F
100
AcDbEntity
  8
LC-001-100-D00-0
 62
     7
370
    50
100
AcDbLine
 10
57.836365
 20
23.831441
 30
0.0
 11
89.83637
 21
23.831441
 31
0.0
  0
LINE
  5
15A
330
1F
100
AcDbEntity
  8
LC-001-100-D00-0
 62
     7
370
    50
100
AcDbLine
 10
57.836365
 20
22.739536
 30
0.0
 11
89.83637
 21
22.739536
 31
0.0
  0
LINE
  5
15B
330
1F
100
AcDbEntity
  8
LC-001-100-D00-0
 62
     7
370
    50
100
AcDbLine
 10
379.836362
 20
29.647625
 30
0.0
 11
347.836372
 21
29.647625
 31
0.0
  0
LINE
  5
15C
330
1F
100
AcDbEntity
  8
LC-001-100-D00-0
 62
     7
370
    50
100
AcDbLine
 10
379.836362
 20
30.73953
 30
0.0
 11
347.836372
 21
30.73953
 31
0.0
  0
ARC
  5
15D
330
1F
100
AcDbEntity
  8
LC-001-100-D00-0
 62
     7
370
    50
100
AcDbCircle
 10
297.836367
 20
26.739532
 30
0.0
 40
2.908089297201627
100
AcDbArc
 50
90.0
 51
270.0
  0
ARC
  5
15E
330
1F
100
AcDbEntity
  8
LC-001-100-D00-0
 62
     7
370
    50
100
AcDbCircle
 10
297.836367
 20
26.739532
 30
0.0
 40
4.000000000000227
100
AcDbArc
 50
90.0
 51
270.0
  0
LINE
  5
15F
330
1F
100
AcDbEntity
  8
LC-001-100-D00-0
 62
     7
370
    50
100
AcDbLine
 10
227.836367
 20
23.831441
 30
0.0
 11
259.836365
 21
23.831441
 31
0.0
  0
LINE
  5
160
330
1F
100
AcDbEntity
  8
LC-001-100-D00-0
 62
     7
370
    50
100
AcDbLine
 10
227.836367
 20
22.739536
 30
0.0
 11
259.836365
 21
22.739536
 31
0.0
  0
ARC
  5
161
330
1F
100
AcDbEntity
  8
LC-001-100-D00-0
 62
     7
370
    50
100
AcDbCircle
 10
209.836367
 20
26.739532
 30
0.0
 40
2.90808929720157
100
AcDbArc
 50
270.0
 51
90.0
  0
ARC
  5
162
330
1F
100
AcDbEntity
  8
LC-001-100-D00-0
 62
     7
370
    50
100
AcDbCircle
 10
209.836367
 20
26.739532
 30
0.0
 40
4.000000000000171
100
AcDbArc
 50
270.0
 51
90.0
  0
LINE
  5
163
330
1F
100
AcDbEntity
  8
LC-001-100-D00-0
 62
     7
370
    50
100
AcDbLine
 10
297.836367
 20
23.831441
 30
0.0
 11
329.836365
 21
23.831441
 31
0.0
  0
LINE
  5
164
330
1F
100
AcDbEntity
  8
LC-001-100-D00-0
 62
     7
370
    50
100
AcDbLine
 10
297.836367
 20
22.739536
 30
0.0
 11
329.836365
 21
22.739536
 31
0.0
  0
CIRCLE
  5
165
330
1F
100
AcDbEntity
  8
LC-001-100-D00-0
 62
     7
370
    50
100
AcDbCircle
 10
38.836367
 20
26.739532
 30
0.0
 40
7.0
  0
CIRCLE
  5
166
330
1F
100
AcDbEntity
  8
LC-001-100-D00-0
 62
     7
370
    50
100
AcDbCircle
 10
158.836367
 20
26.739532
 30
0.0
 40
7.0
  0
ARC
  5
167
330
1F
100
AcDbEntity
  8
LC-001-100-D00-0
 62
     7
370
    50
100
AcDbCircle
 10
423.836367
 20
27.739532
 30
0.0
 40
10.0
100
AcDbArc
 50
0.0
 51
90.0
  0
LINE
  5
168
330
1F
100
AcDbEntity
  8
LC-001-100-D00-0
 62
     7
370
    50
100
AcDbLine
 10
433.836367
 20
-134.260469
 30
0.0
 11
433.836367
 21
27.739531
 31
0.0
  0
ARC
  5
169
330
1F
100
AcDbEntity
  8
LC-001-100-D00-0
 62
     7
370
    50
100
AcDbCircle
 10
423.836367
 20
-134.260468
 30
0.0
 40
10.0
100
AcDbArc
 50
270.0
 51
0.0
  0
LINE
  5
16A
330
1F
100
AcDbEntity
  8
LC-001-100-D00-0
 62
     7
370
    50
100
AcDbLine
 10
13.836365
 20
-144.260467
 30
0.0
 11
423.836362
 21
-144.260467
 31
0.0
  0
ARC
  5
16B
330
1F
100
AcDbEntity
  8
LC-001-100-D00-0
 62
     7
370
    50
100
AcDbCircle
 10
13.836367
 20
-134.260468
 30
0.0
 40
10.0
100
AcDbArc
 50
180.0
 51
270.0
  0
LINE
  5
16C
330
1F
100
AcDbEntity
  8
LC-001-100-D00-0
 62
     7
370
    50
100
AcDbLine
 10
3.83636
 20
-134.260469
 30
0.0
 11
3.83636
 21
27.739531
 31
0.0
  0
ARC
  5
16D
330
1F
100
AcDbEntity
  8
LC-001-100-D00-0
 62
     7
370
    50
100
AcDbCircle
 10
13.836367
 20
27.739532
 30
0.0
 40
10.0
100
AcDbArc
 50
90.0
 51
180.0
  0
LINE
  5
16E
330
1F
100
AcDbEntity
  8
LC-001-100-D00-0
 62
     7
370
    50
100
AcDbLine
 10
423.836362
 20
37.739529
 30
0.0
 11
13.836365
 21
37.739529
 31
0.0
  0
ARC
  5
16F
330
1F
100
AcDbEntity
  8
LC-001-100-D00-0
 62
     7
370
    50
100
AcDbCircle
 10
422.836367
 20
-69.260468
 30
0.0
 40
4.000000000000114
100
AcDbArc
 50
180.0
 51
0.0
  0
LINE
  5
170
330
1F
100
AcDbEntity
  8
LC-001-100-D00-0
 62
     7
370
    50
100
AcDbLine
 10
426.836368
 20
-69.260468
 30
0.0
 11
426.836368
 21
-37.260468
 31
0.0
  0
ARC
  5
171
330
1F
100
AcDbEntity
  8
LC-001-100-D00-0
 62
     7
370
    50
100
AcDbCircle
 10
422.836367
 20
-37.260468
 30
0.0
 40
4.0
100
AcDbArc
 50
0.0
 51
180.0
  0
LINE
  5
172
330
1F
100
AcDbEntity
  8
LC-001-100-D00-0
 62
     7
370
    50
100
AcDbLine
 10
418.836367
 20
-37.260468
 30
0.0
 11
418.836367
 21
-69.260468
 31
0.0
  0
ARC
  5
173
330
1F
100
AcDbEntity
  8
LC-001-100-D00-0
 62
     7
370
    50
100
AcDbCircle
 10
347.836367
 20
-133.260468
 30
0.0
 40
4.0
100
AcDbArc
 50
90.0
 51
270.0
  0
LINE
  5
174
330
1F
100
AcDbEntity
  8
LC-001-100-D00-0
 62
     7
370
    50
100
AcDbLine
 10
347.836372
 20
-137.260468
 30
0.0
 11
379.836362
 21
-137.260468
 31
0.0
  0
ARC
  5
175
330
1F
100
AcDbEntity
  8
LC-001-100-D00-0
 62
     7
370
    50
100
AcDbCircle
 10
379.836367
 20
-133.260468
 30
0.0
 40
4.0
100
AcDbArc
 50
270.0
 51
90.0
  0
LINE
  5
176
330
1F
100
AcDbEntity
  8
LC-001-100-D00-0
 62
     7
370
    50
100
AcDbLine
 10
379.836362
 20
-129.260467
 30
0.0
 11
347.836372
 21
-129.260467
 31
0.0
  0
ARC
  5
177
330
1F
100
AcDbEntity
  8
LC-001-100-D00-0
 62
     7
370
    50
100
AcDbCircle
 10
329.836367
 20
-133.260468
 30
0.0
 40
4.000000000000227
100
AcDbArc
 50
270.0
 51
90.0
  0
LINE
  5
178
330
1F
100
AcDbEntity
  8
LC-001-100-D00-0
 62
     7
370
    50
100
AcDbLine
 10
329.836365
 20
-129.260467
 30
0.0
 11
297.836367
 21
-129.260467
 31
0.0
  0
ARC
  5
179
330
1F
100
AcDbEntity
  8
LC-001-100-D00-0
 62
     7
370
    50
100
AcDbCircle
 10
297.836367
 20
-133.260468
 30
0.0
 40
4.000000000000227
100
AcDbArc
 50
90.0
 51
270.0
  0
LINE
  5
17A
330
1F
100
AcDbEntity
  8
LC-001-100-D00-0
 62
     7
370
    50
100
AcDbLine
 10
297.836367
 20
-137.260468
 30
0.0
 11
329.836365
 21
-137.260468
 31
0.0
  0
ARC
  5
17B
330
1F
100
AcDbEntity
  8
LC-001-100-D00-0
 62
     7
370
    50
100
AcDbCircle
 10
177.836367
 20
-133.260468
 30
0.0
 40
4.000000000000114
100
AcDbArc
 50
90.0
 51
270.0
  0
LINE
  5
17C
330
1F
100
AcDbEntity
  8
LC-001-100-D00-0
 62
     7
370
    50
100
AcDbLine
 10
177.836367
 20
-137.260468
 30
0.0
 11
209.836368
 21
-137.260468
 31
0.0
  0
ARC
  5
17D
330
1F
100
AcDbEntity
  8
LC-001-100-D00-0
 62
     7
370
    50
100
AcDbCircle
 10
209.836367
 20
-133.260468
 30
0.0
 40
4.000000000000114
100
AcDbArc
 50
270.0
 51
90.0
  0
LINE
  5
17E
330
1F
100
AcDbEntity
  8
LC-001-100-D00-0
 62
     7
370
    50
100
AcDbLine
 10
209.836368
 20
-129.260467
 30
0.0
 11
177.836367
 21
-129.260467
 31
0.0
  0
ARC
  5
17F
330
1F
100
AcDbEntity
  8
LC-001-100-D00-0
 62
     7
370
    50
100
AcDbCircle
 10
259.836367
 20
-133.260468
 30
0.0
 40
4.000000000000114
100
AcDbArc
 50
270.0
 51
90.0
  0
LINE
  5
180
330
1F
100
AcDbEntity
  8
LC-001-100-D00-0
 62
     7
370
    50
100
AcDbLine
 10
259.836365
 20
-129.260467
 30
0.0
 11
227.836367
 21
-129.260467
 31
0.0
  0
ARC
  5
181
330
1F
100
AcDbEntity
  8
LC-001-100-D00-0
 62
     7
370
    50
100
AcDbCircle
 10
227.836367
 20
-133.260468
 30
0.0
 40
4.000000000000114
100
AcDbArc
 50
90.0
 51
270.0
  0
LINE
  5
182
330
1F
100
AcDbEntity
  8
LC-001-100-D00-0
 62
     7
370
    50
100
AcDbLine
 10
227.836367
 20
-137.260468
 30
0.0
 11
259.836365
 21
-137.260468
 31
0.0
  0
ARC
  5
183
330
1F
100
AcDbEntity
  8
LC-001-100-D00-0
 62
     7
370
    50
100
AcDbCircle
 10
107.836367
 20
-133.260468
 30
0.0
 40
4.000000000000227
100
AcDbArc
 50
90.0
 51
270.0
  0
LINE
  5
184
330
1F
100
AcDbEntity
  8
LC-001-100-D00-0
 62
     7
370
    50
100
AcDbLine
 10
107.83637
 20
-137.260468
 30
0.0
 11
139.836367
 21
-137.260468
 31
0.0
  0
ARC
  5
185
330
1F
100
AcDbEntity
  8
LC-001-100-D00-0
 62
     7
370
    50
100
AcDbCircle
 10
139.836367
 20
-133.260468
 30
0.0
 40
4.000000000000227
100
AcDbArc
 50
270.0
 51
90.0
  0
LINE
  5
186
330
1F
100
AcDbEntity
  8
LC-001-100-D00-0
 62
     7
370
    50
100
AcDbLine
 10
139.836367
 20
-129.260467
 30
0.0
 11
107.83637
 21
-129.260467
 31
0.0
  0
ARC
  5
187
330
1F
100
AcDbEntity
  8
LC-001-100-D00-0
 62
     7
370
    50
100
AcDbCircle
 10
89.836367
 20
-133.260468
 30
0.0
 40
4.0
100
AcDbArc
 50
270.0
 51
90.0
  0
LINE
  5
188
330
1F
100
AcDbEntity
  8
LC-001-100-D00-0
 62
     7
370
    50
100
AcDbLine
 10
89.83637
 20
-129.260467
 30
0.0
 11
57.836365
 21
-129.260467
 31
0.0
  0
ARC
  5
189
330
1F
100
AcDbEntity
  8
LC-001-100-D00-0
 62
     7
370
    50
100
AcDbCircle
 10
57.836367
 20
-133.260468
 30
0.0
 40
4.0
100
AcDbArc
 50
90.0
 51
270.0
  0
LINE
  5
18A
330
1F
100
AcDbEntity
  8
LC-001-100-D00-0
 62
     7
370
    50
100
AcDbLine
 10
57.836365
 20
-137.260468
 30
0.0
 11
89.83637
 21
-137.260468
 31
0.0
  0
ARC
  5
18B
330
1F
100
AcDbEntity
  8
LC-001-100-D00-0
 62
     7
370
    50
100
AcDbCircle
 10
347.836367
 20
26.739532
 30
0.0
 40
3.999999999999943
100
AcDbArc
 50
90.0
 51
270.0
  0
LINE
  5
18C
330
1F
100
AcDbEntity
  8
LC-001-100-D00-0
 62
     7
370
    50
100
AcDbLine
 10
347.836372
 20
22.739536
 30
0.0
 11
379.836362
 21
22.739536
 31
0.0
  0
ARC
  5
18D
330
1F
100
AcDbEntity
  8
LC-001-100-D00-0
 62
     7
370
    50
100
AcDbCircle
 10
379.836367
 20
26.739532
 30
0.0
 40
3.999999999999943
100
AcDbArc
 50
270.0
 51
90.0
  0
ARC
  5
18E
330
1F
100
AcDbEntity
  8
LC-001-100-D00-0
 62
     7
370
    50
100
AcDbCircle
 10
329.836367
 20
26.739532
 30
0.0
 40
4.000000000000171
100
AcDbArc
 50
270.0
 51
90.0
  0
LINE
  5
18F
330
1F
100
AcDbEntity
  8
LC-001-100-D00-0
 62
     7
370
    50
100
AcDbLine
 10
329.836365
 20
30.73953
 30
0.0
 11
297.836367
 21
30.73953
 31
0.0
  0
ARC
  5
190
330
1F
100
AcDbEntity
  8
LC-001-100-D00-0
 62
     7
370
    50
100
AcDbCircle
 10
227.836367
 20
26.739532
 30
0.0
 40
4.000000000000171
100
AcDbArc
 50
90.0
 51
270.0
  0
LINE
  5
191
330
1F
100
AcDbEntity
  8
LC-001-100-D00-0
 62
     7
370
    50
100
AcDbLine
 10
209.836368
 20
30.73953
 30
0.0
 11
177.836367
 21
30.73953
 31
0.0
  0
LINE
  5
192
330
1F
100
AcDbEntity
  8
LC-001-100-D00-0
 62
     7
370
    50
100
AcDbLine
 10
107.83637
 20
22.739536
 30
0.0
 11
139.836367
 21
22.739536
 31
0.0
  0
ARC
  5
193
330
1F
100
AcDbEntity
  8
LC-001-100-D00-0
 62
     7
370
    50
100
AcDbCircle
 10
139.836367
 20
26.739532
 30
0.0
 40
4.000000000000227
100
AcDbArc
 50
270.0
 51
90.0
  0
ARC
  5
194
330
1F
100
AcDbEntity
  8
LC-001-100-D00-0
 62
     7
370
    50
100
AcDbCircle
 10
89.836367
 20
26.739532
 30
0.0
 40
3.999999999999943
100
AcDbArc
 50
270.0
 51
90.0
  0
LINE
  5
195
330
1F
100
AcDbEntity
  8
LC-001-100-D00-0
 62
     7
370
    50
100
AcDbLine
 10
89.83637
 20
30.73953
 30
0.0
 11
57.836365
 21
30.73953
 31
0.0
  0
ARC
  5
196
330
1F
100
AcDbEntity
  8
LC-001-100-D00-0
 62
     7
370
    50
100
AcDbCircle
 10
14.836367
 20
-69.260468
 30
0.0
 40
4.000000000000028
100
AcDbArc
 50
180.0
 51
0.0
  0
LINE
  5
197
330
1F
100
AcDbEntity
  8
LC-001-100-D00-0
 62
     7
370
    50
100
AcDbLine
 10
18.836361
 20
-69.260468
 30
0.0
 11
18.836361
 21
-37.260468
 31
0.0
  0
ARC
  5
198
330
1F
100
AcDbEntity
  8
LC-001-100-D00-0
 62
     7
370
    50
100
AcDbCircle
 10
14.836367
 20
-37.260468
 30
0.0
 40
4.000000000000028
100
AcDbArc
 50
0.0
 51
180.0
  0
LINE
  5
199
330
1F
100
AcDbEntity
  8
LC-001-100-D00-0
 62
     7
370
    50
100
AcDbLine
 10
10.836374
 20
-37.260468
 30
0.0
 11
10.836374
 21
-69.260468
 31
0.0
  0
CIRCLE
  5
19A
330
1F
100
AcDbEntity
  8
LC-001-100-D00-0
 62
     7
370
    50
100
AcDbCircle
 10
422.836367
 20
-3.260468
 30
0.0
 40
7.000000000000057
  0
CIRCLE
  5
19B
330
1F
100
AcDbEntity
  8
LC-001-100-D00-0
 62
     7
370
    50
100
AcDbCircle
 10
398.836367
 20
26.739532
 30
0.0
 40
7.0
  0
CIRCLE
  5
19C
330
1F
100
AcDbEntity
  8
LC-001-100-D00-0
 62
     7
370
    50
100
AcDbCircle
 10
278.836367
 20
26.739532
 30
0.0
 40
7.0
  0
CIRCLE
  5
19D
330
1F
100
AcDbEntity
  8
LC-001-100-D00-0
 62
     7
370
    50
100
AcDbCircle
 10
398.836367
 20
-133.260468
 30
0.0
 40
7.0
  0
CIRCLE
  5
19E
330
1F
100
AcDbEntity
  8
LC-001-100-D00-0
 62
     7
370
    50
100
AcDbCircle
 10
278.836367
 20
-133.260468
 30
0.0
 40
7.0
  0
CIRCLE
  5
19F
330
1F
100
AcDbEntity
  8
LC-001-100-D00-0
 62
     7
370
    50
100
AcDbCircle
 10
158.836367
 20
-133.260468
 30
0.0
 40
7.0
  0
CIRCLE
  5
1A0
330
1F
100
AcDbEntity
  8
LC-001-100-D00-0
 62
     7
370
    50
100
AcDbCircle
 10
38.836367
 20
-133.260468
 30
0.0
 40
7.0
  0
CIRCLE
  5
1A1
330
1F
100
AcDbEntity
  8
LC-001-100-D00-0
 62
     7
370
    50
100
AcDbCircle
 10
422.836367
 20
-103.260468
 30
0.0
 40
7.0
  0
CIRCLE
  5
1A2
330
1F
100
AcDbEntity
  8
LC-001-100-D00-0
 62
     7
370
    50
100
AcDbCircle
 10
14.836367
 20
-3.260468
 30
0.0
 40
7.000000000000057
  0
CIRCLE
  5
1A3
330
1F
100
AcDbEntity
  8
LC-001-100-D00-0
 62
     7
370
    50
100
AcDbCircle
 10
14.836367
 20
-103.260468
 30
0.0
 40
7.0
  0
CIRCLE
  5
1A4
330
1F
100
AcDbEntity
  8
LC-001-100-D00-0
 62
     7
370
    50
100
AcDbCircle
 10
422.836367
 20
26.739532
 30
0.0
 40
5.000000000000284
  0
CIRCLE
  5
1A5
330
1F
100
AcDbEntity
  8
LC-001-100-D00-0
 62
     7
370
    50
100
AcDbCircle
 10
422.836367
 20
-133.260468
 30
0.0
 40
4.999999999999773
  0
CIRCLE
  5
1A6
330
1F
100
AcDbEntity
  8
LC-001-100-D00-0
 62
     7
370
    50
100
AcDbCircle
 10
14.836367
 20
-133.260468
 30
0.0
 40
5.000000000000227
  0
CIRCLE
  5
1A7
330
1F
100
AcDbEntity
  8
LC-001-100-D00-0
 62
     7
370
    50
100
AcDbCircle
 10
14.836367
 20
26.739532
 30
0.0
 40
4.99999999999983
  0
ARC
  5
1A8
330
1F
100
AcDbEntity
  8
LC-001-100-D00-0
 62
     7
370
    50
100
AcDbCircle
 10
278.836367
 20
-133.260468
 30
0.0
 40
6.578377495892726
100
AcDbArc
 50
117.131838
 51
62.868162
  0
ARC
  5
1A9
330
1F
100
AcDbEntity
  8
LC-001-100-D00-0
 62
     7
370
    50
100
AcDbCircle
 10
158.836367
 20
-133.260468
 30
0.0
 40
6.5783774958927
100
AcDbArc
 50
117.131838
 51
62.868162
  0
LINE
  5
1AA
330
1F
100
AcDbEntity
  8
LC-001-100-D00-0
 62
     7
370
    50
100
AcDbLine
 10
89.83637
 20
29.647625
 30
0.0
 11
57.836365
 21
29.647625
 31
0.0
  0
ARC
  5
1AB
330
1F
100
AcDbEntity
  8
LC-001-100-D00-0
 62
     7
370
    50
100
AcDbCircle
 10
89.836367
 20
26.739532
 30
0.0
 40
2.908089297201343
100
AcDbArc
 50
270.0
 51
90.0
  0
ARC
  5
1AC
330
1F
100
AcDbEntity
  8
LC-001-100-D00-0
 62
     7
370
    50
100
AcDbCircle
 10
347.836367
 20
26.739532
 30
0.0
 40
2.9080892972014
100
AcDbArc
 50
90.0
 51
270.0
  0
ARC
  5
1AD
330
1F
100
AcDbEntity
  8
LC-001-100-D00-0
 62
     7
370
    50
100
AcDbCircle
 10
398.836367
 20
-133.260468
 30
0.0
 40
6.578377495892752
100
AcDbArc
 50
117.131838
 51
62.868162
  0
ARC
  5
1AE
330
1F
100
AcDbEntity
  8
LC-001-100-D00-0
 62
     7
370
    50
100
AcDbCircle
 10
278.836367
 20
26.739532
 30
0.0
 40
6.578377495892777
100
AcDbArc
 50
297.131838
 51
242.868162
  0
ARC
  5
1AF
330
1F
100
AcDbEntity
  8
LC-001-100-D00-0
 62
     7
370
    50
100
AcDbCircle
 10
158.836367
 20
26.739532
 30
0.0
 40
6.578377495892803
100
AcDbArc
 50
297.131838
 51
242.868162
  0
ARC
  5
1B0
330
1F
100
AcDbEntity
  8
LC-001-100-D00-0
 62
     7
370
    50
100
AcDbCircle
 10
38.836367
 20
26.739532
 30
0.0
 40
6.578377495892803
100
AcDbArc
 50
297.131838
 51
242.868162
  0
LINE
  5
1B1
330
1F
100
AcDbEntity
  8
LC-001-100-D00-0
 62
     7
370
    50
100
AcDbLine
 10
107.83637
 20
23.831441
 30
0.0
 11
139.836367
 21
23.831441
 31
0.0
  0
CIRCLE
  5
1B2
330
1F
100
AcDbEntity
  8
LC-001-100-D00-0
 62
     7
370
    50
100
AcDbCircle
 10
422.836367
 20
26.739532
 30
0.0
 40
2.0
  0
ARC
  5
1B3
330
1F
100
AcDbEntity
  8
LC-001-100-D00-0
 62
     7
370
    50
100
AcDbCircle
 10
227.836367
 20
26.739532
 30
0.0
 40
2.90808929720157
100
AcDbArc
 50
90.0
 51
270.0
  0
CIRCLE
  5
1B4
330
1F
100
AcDbEntity
  8
LC-001-100-D00-0
 62
     7
370
    50
100
AcDbCircle
 10
14.836367
 20
26.739532
 30
0.0
 40
2.0
  0
ARC
  5
1B5
330
1F
100
AcDbEntity
  8
LC-001-100-D00-0
 62
     7
370
    50
100
AcDbCircle
 10
379.836367
 20
26.739532
 30
0.0
 40
2.908089297201343
100
AcDbArc
 50
270.0
 51
90.0
  0
LINE
  5
1B6
330
1F
100
AcDbEntity
  8
LC-001-100-D00-0
 62
     7
370
    50
100
AcDbLine
 10
347.836372
 20
23.831441
 30
0.0
 11
379.836362
 21
23.831441
 31
0.0
  0
ARC
  5
1B7
330
1F
100
AcDbEntity
  8
LC-001-100-D00-0
 62
     7
370
    50
100
AcDbCircle
 10
139.836367
 20
26.739532
 30
0.0
 40
2.908089297201627
100
AcDbArc
 50
270.0
 51
90.0
  0
LINE
  5
1B8
330
1F
100
AcDbEntity
  8
LC-001-100-D00-0
 62
     7
370
    50
100
AcDbLine
 10
329.836365
 20
29.647625
 30
0.0
 11
297.836367
 21
29.647625
 31
0.0
  0
ARC
  5
1B9
330
1F
100
AcDbEntity
  8
LC-001-100-D00-0
 62
     7
370
    50
100
AcDbCircle
 10
329.836367
 20
26.739532
 30
0.0
 40
2.908089297201627
100
AcDbArc
 50
270.0
 51
90.0
  0
ARC
  5
1BA
330
1F
100
AcDbEntity
  8
LC-001-100-D00-0
 62
     7
370
    50
100
AcDbCircle
 10
398.836367
 20
26.739532
 30
0.0
 40
6.578377495892751
100
AcDbArc
 50
297.131838
 51
242.868162
  0
LINE
  5
1BB
330
1F
100
AcDbEntity
  8
LC-001-100-D00-0
 62
     7
370
    50
100
AcDbLine
 10
209.836368
 20
29.647625
 30
0.0
 11
177.836367
 21
29.647625
 31
0.0
  0
ARC
  5
1BC
330
1F
100
AcDbEntity
  8
LC-001-100-D00-0
 62
     7
370
    50
100
AcDbCircle
 10
38.836367
 20
-133.260468
 30
0.0
 40
6.578377495892726
100
AcDbArc
 50
117.131838
 51
62.868162
  0
ARC
  5
1BD
330
1F
100
AcDbEntity
  8
LC-001-100-D00-0
 62
     7
370
    50
100
AcDbCircle
 10
14.836367
 20
-103.260468
 30
0.0
 40
6.578377495892803
100
AcDbArc
 50
27.131838
 51
332.868162
  0
ARC
  5
1BE
330
1F
100
AcDbEntity
  8
LC-001-100-D00-0
 62
     7
370
    50
100
AcDbCircle
 10
14.836367
 20
-3.260468
 30
0.0
 40
6.578377495892828
100
AcDbArc
 50
27.131838
 51
332.868162
  0
ARC
  5
1BF
330
1F
100
AcDbEntity
  8
LC-001-100-D00-0
 62
     7
370
    50
100
AcDbCircle
 10
422.836367
 20
-103.260468
 30
0.0
 40
6.578377495892854
100
AcDbArc
 50
207.131838
 51
152.868162
  0
ARC
  5
1C0
330
1F
100
AcDbEntity
  8
LC-001-100-D00-0
 62
     7
370
    50
100
AcDbCircle
 10
422.836367
 20
-3.260468
 30
0.0
 40
6.578377495892955
100
AcDbArc
 50
207.131838
 51
152.868162
  0
LINE
  5
1C1
330
1F
100
AcDbEntity
  8
LC-001-100-D00-0
 62
     7
370
    50
100
AcDbLine
 10
17.744463
 20
-69.260468
 30
0.0
 11
17.744463
 21
-37.260468
 31
0.0
  0
ARC
  5
1C2
330
1F
100
AcDbEntity
  8
LC-001-100-D00-0
 62
     7
370
    50
100
AcDbCircle
 10
14.836367
 20
-69.260468
 30
0.0
 40
2.908089297201428
100
AcDbArc
 50
180.0
 51
0.0
  0
ARC
  5
1C3
330
1F
100
AcDbEntity
  8
LC-001-100-D00-0
 62
     7
370
    50
100
AcDbCircle
 10
422.836367
 20
-69.260468
 30
0.0
 40
2.908089297201514
100
AcDbArc
 50
180.0
 51
0.0
  0
ARC
  5
1C4
330
1F
100
AcDbEntity
  8
LC-001-100-D00-0
 62
     7
370
    50
100
AcDbCircle
 10
422.836367
 20
-37.260468
 30
0.0
 40
2.908089297201286
100
AcDbArc
 50
0.0
 51
180.0
  0
ARC
  5
1C5
330
1F
100
AcDbEntity
  8
LC-001-100-D00-0
 62
     7
370
    50
100
AcDbCircle
 10
14.836367
 20
-37.260468
 30
0.0
 40
2.908089297201428
100
AcDbArc
 50
0.0
 51
180.0
  0
LINE
  5
1C6
330
1F
100
AcDbEntity
  8
LC-001-100-D00-0
 62
     7
370
    50
100
AcDbLine
 10
419.928279
 20
-37.260468
 30
0.0
 11
419.928279
 21
-69.260468
 31
0.0
  0
LINE
  5
1C7
330
1F
100
AcDbEntity
  8
LC-001-100-D00-0
 62
     7
370
    50
100
AcDbLine
 10
11.928272
 20
-37.260468
 30
0.0
 11
11.928272
 21
-69.260468
 31
0.0
  0
LINE
  5
1C8
330
1F
100
AcDbEntity
  8
LC-001-100-D00-0
 62
     7
370
    50
100
AcDbLine
 10
425.744456
 20
-69.260468
 30
0.0
 11
425.744456
 21
-37.260468
 31
0.0
  0
ARC
  5
1C9
330
1F
100
AcDbEntity
  8
LC-001-100-D00-0
 62
     7
370
    50
100
AcDbCircle
 10
227.836367
 20
-133.260468
 30
0.0
 40
2.908089297201627
100
AcDbArc
 50
90.0
 51
270.0
  0
LINE
  5
1CA
330
1F
100
AcDbEntity
  8
LC-001-100-D00-0
 62
     7
370
    50
100
AcDbLine
 10
209.836368
 20
-130.352379
 30
0.0
 11
177.836367
 21
-130.352379
 31
0.0
  0
LINE
  5
1CB
330
1F
100
AcDbEntity
  8
LC-001-100-D00-0
 62
     7
370
    50
100
AcDbLine
 10
329.836365
 20
-130.352379
 30
0.0
 11
297.836367
 21
-130.352379
 31
0.0
  0
ARC
  5
1CC
330
1F
100
AcDbEntity
  8
LC-001-100-D00-0
 62
     7
370
    50
100
AcDbCircle
 10
329.836367
 20
-133.260468
 30
0.0
 40
2.908089297201741
100
AcDbArc
 50
270.0
 51
90.0
  0
LINE
  5
1CD
330
1F
100
AcDbEntity
  8
LC-001-100-D00-0
 62
     7
370
    50
100
AcDbLine
 10
347.836372
 20
-136.168556
 30
0.0
 11
379.836362
 21
-136.168556
 31
0.0
  0
LINE
  5
1CE
330
1F
100
AcDbEntity
  8
LC-001-100-D00-0
 62
     7
370
    50
100
AcDbLine
 10
177.836367
 20
-136.168556
 30
0.0
 11
209.836368
 21
-136.168556
 31
0.0
  0
ARC
  5
1CF
330
1F
100
AcDbEntity
  8
LC-001-100-D00-0
 62
     7
370
    50
100
AcDbCircle
 10
379.836367
 20
-133.260468
 30
0.0
 40
2.9080892972014
100
AcDbArc
 50
270.0
 51
90.0
  0
LINE
  5
1D0
330
1F
100
AcDbEntity
  8
LC-001-100-D00-0
 62
     7
370
    50
100
AcDbLine
 10
89.83637
 20
-130.352379
 30
0.0
 11
57.836365
 21
-130.352379
 31
0.0
  0
LINE
  5
1D1
330
1F
100
AcDbEntity
  8
LC-001-100-D00-0
 62
     7
370
    50
100
AcDbLine
 10
297.836367
 20
-136.168556
 30
0.0
 11
329.836365
 21
-136.168556
 31
0.0
  0
LINE
  5
1D2
330
1F
100
AcDbEntity
  8
LC-001-100-D00-0
 62
     7
370
    50
100
AcDbLine
 10
107.83637
 20
-136.168556
 30
0.0
 11
139.836367
 21
-136.168556
 31
0.0
  0
ARC
  5
1D3
330
1F
100
AcDbEntity
  8
LC-001-100-D00-0
 62
     7
370
    50
100
AcDbCircle
 10
259.836367
 20
-133.260468
 30
0.0
 40
2.908089297201627
100
AcDbArc
 50
270.0
 51
90.0
  0
ARC
  5
1D4
330
1F
100
AcDbEntity
  8
LC-001-100-D00-0
 62
     7
370
    50
100
AcDbCircle
 10
177.836367
 20
-133.260468
 30
0.0
 40
2.908089297201627
100
AcDbArc
 50
90.0
 51
270.0
  0
ARC
  5
1D5
330
1F
100
AcDbEntity
  8
LC-001-100-D00-0
 62
     7
370
    50
100
AcDbCircle
 10
57.836367
 20
-133.260468
 30
0.0
 40
2.9080892972014
100
AcDbArc
 50
90.0
 51
270.0
  0
ARC
  5
1D6
330
1F
100
AcDbEntity
  8
LC-001-100-D00-0
 62
     7
370
    50
100
AcDbCircle
 10
209.836367
 20
-133.260468
 30
0.0
 40
2.908089297201627
100
AcDbArc
 50
270.0
 51
90.0
  0
LINE
  5
1D7
330
1F
100
AcDbEntity
  8
LC-001-100-D00-0
 62
     7
370
    50
100
AcDbLine
 10
139.836367
 20
-130.352379
 30
0.0
 11
107.83637
 21
-130.352379
 31
0.0
  0
LINE
  5
1D8
330
1F
100
AcDbEntity
  8
LC-001-100-D00-0
 62
     7
370
    50
100
AcDbLine
 10
227.836367
 20
-136.168556
 30
0.0
 11
259.836365
 21
-136.168556
 31
0.0
  0
ARC
  5
1D9
330
1F
100
AcDbEntity
  8
LC-001-100-D00-0
 62
     7
370
    50
100
AcDbCircle
 10
139.836367
 20
-133.260468
 30
0.0
 40
2.908089297201741
100
AcDbArc
 50
270.0
 51
90.0
  0
ARC
  5
1DA
330
1F
100
AcDbEntity
  8
LC-001-100-D00-0
 62
     7
370
    50
100
AcDbCircle
 10
107.836367
 20
-133.260468
 30
0.0
 40
2.908089297201741
100
AcDbArc
 50
90.0
 51
270.0
  0
LINE
  5
1DB
330
1F
100
AcDbEntity
  8
LC-001-100-D00-0
 62
     7
370
    50
100
AcDbLine
 10
259.836365
 20
-130.352379
 30
0.0
 11
227.836367
 21
-130.352379
 31
0.0
  0
ARC
  5
1DC
330
1F
100
AcDbEntity
  8
LC-001-100-D00-0
 62
     7
370
    50
100
AcDbCircle
 10
347.836367
 20
-133.260468
 30
0.0
 40
2.9080892972014
100
AcDbArc
 50
90.0
 51
270.0
  0
LINE
  5
1DD
330
1F
100
AcDbEntity
  8
LC-001-100-D00-0
 62
     7
370
    50
100
AcDbLine
 10
379.836362
 20
-130.352379
 30
0.0
 11
347.836372
 21
-130.352379
 31
0.0
  0
ARC
  5
1DE
330
1F
100
AcDbEntity
  8
LC-001-100-D00-0
 62
     7
370
    50
100
AcDbCircle
 10
89.836367
 20
-133.260468
 30
0.0
 40
2.9080892972014
100
AcDbArc
 50
270.0
 51
90.0
  0
LINE
  5
1DF
330
1F
100
AcDbEntity
  8
LC-001-100-D00-0
 62
     7
370
    50
100
AcDbLine
 10
57.836365
 20
-136.168556
 30
0.0
 11
89.83637
 21
-136.168556
 31
0.0
  0
ARC
  5
1E0
330
1F
100
AcDbEntity
  8
LC-001-100-D00-0
 62
     7
370
    50
100
AcDbCircle
 10
297.836367
 20
-133.260468
 30
0.0
 40
2.908089297201741
100
AcDbArc
 50
90.0
 51
270.0
  0
CIRCLE
  5
1E1
330
1F
100
AcDbEntity
  8
LC-001-100-D00-0
 62
     7
370
    50
100
AcDbCircle
 10
422.836367
 20
-133.260468
 30
0.0
 40
2.0
  0
CIRCLE
  5
1E2
330
1F
100
AcDbEntity
  8
LC-001-100-D00-0
 62
     7
370
    50
100
AcDbCircle
 10
14.836367
 20
-133.260468
 30
0.0
 40
2.0
  0
ARC
  5
1E3
330
1F
100
AcDbEntity
  8
LC-001-100-D00-0
 62
     7
370
    50
100
AcDbCircle
 10
69.836367
 20
-78.260468
 30
0.0
 40
1.133974596215558
100
AcDbArc
 50
208.133178
 51
241.866822
  0
ARC
  5
1E4
330
1F
100
AcDbEntity
  8
LC-001-100-D00-0
 62
     7
370
    50
100
AcDbCircle
 10
367.836367
 20
-78.260468
 30
0.0
 40
1.133974596215454
100
AcDbArc
 50
298.133178
 51
331.866822
  0
ARC
  5
1E5
330
1F
100
AcDbEntity
  8
LC-001-100-D00-0
 62
     7
370
    50
100
AcDbCircle
 10
367.836367
 20
-28.260468
 30
0.0
 40
1.133974596215507
100
AcDbArc
 50
28.133178
 51
61.866822
  0
ARC
  5
1E6
330
1F
100
AcDbEntity
  8
LC-001-100-D00-0
 62
     7
370
    50
100
AcDbCircle
 10
69.836367
 20
-28.260468
 30
0.0
 40
1.133974596215554
100
AcDbArc
 50
118.133178
 51
151.866822
  0
ARC
  5
1E7
330
1F
100
AcDbEntity
  8
LC-001-100-D00-0
 62
     7
370
    50
100
AcDbCircle
 10
69.836367
 20
-78.260468
 30
0.0
 40
1.0
100
AcDbArc
 50
180.0
 51
270.0
  0
ARC
  5
1E8
330
1F
100
AcDbEntity
  8
LC-001-100-D00-0
 62
     7
370
    50
100
AcDbCircle
 10
367.836367
 20
-28.260468
 30
0.0
 40
1.0
100
AcDbArc
 50
0.0
 51
90.0
  0
ARC
  5
1E9
330
1F
100
AcDbEntity
  8
LC-001-100-D00-0
 62
     7
370
    50
100
AcDbCircle
 10
367.836367
 20
-78.260468
 30
0.0
 40
1.0
100
AcDbArc
 50
270.0
 51
0.0
  0
ARC
  5
1EA
330
1F
100
AcDbEntity
  8
LC-001-100-D00-0
 62
     7
370
    50
100
AcDbCircle
 10
69.836367
 20
-28.260468
 30
0.0
 40
1.0
100
AcDbArc
 50
90.0
 51
180.0
  0
LINE
  5
1EB
330
1F
100
AcDbEntity
  8
LC-001-100-D00-0
 62
     7
370
    50
100
AcDbLine
 10
275.836367
 20
22.917351
 30
0.0
 11
275.836367
 21
20.885042
 31
0.0
  0
INSERT
  5
1FB
330
1F
100
AcDbEntity
  8
LC-001-100-D00-0
 62
     7
370
    50
100
AcDbBlockReference
  2
POLY1
 10
0.0
 20
0.0
 30
0.0
  0
LINE
  5
1FC
330
1F
100
AcDbEntity
  8
LC-001-100-D00-0
 62
     7
370
    50
100
AcDbLine
 10
281.836365
 20
20.885042
 30
0.0
 11
281.836365
 21
22.917351
 31
0.0
  0
INSERT
  5
20C
330
1F
100
AcDbEntity
  8
LC-001-100-D00-0
 62
     7
370
    50
100
AcDbBlockReference
  2
POLY2
 10
0.0
 20
0.0
 30
0.0
  0
LINE
  5
20D
330
1F
100
AcDbEntity
  8
LC-001-100-D00-0
 62
     7
370
    50
100
AcDbLine
 10
395.836365
 20
-129.43829
 30
0.0
 11
395.836365
 21
-127.40598
 31
0.0
  0
LINE
  5
20E
330
1F
100
AcDbEntity
  8
LC-001-100-D00-0
 62
     7
370
    50
100
AcDbLine
 10
401.836362
 20
-127.40598
 30
0.0
 11
401.836362
 21
-129.43829
 31
0.0
  0
LINE
  5
20F
330
1F
100
AcDbEntity
  8
LC-001-100-D00-0
 62
     7
370
    50
100
AcDbLine
 10
419.014182
 20
-0.260466
 30
0.0
 11
416.981872
 21
-0.260466
 31
0.0
  0
INSERT
  5
21F
330
1F
100
AcDbEntity
  8
LC-001-100-D00-0
 62
     7
370
    50
100
AcDbBlockReference
  2
POLY3
 10
0.0
 20
0.0
 30
0.0
  0
LINE
  5
220
330
1F
100
AcDbEntity
  8
LC-001-100-D00-0
 62
     7
370
    50
100
AcDbLine
 10
419.014182
 20
-6.260467
 30
0.0
 11
416.981872
 21
-6.260467
 31
0.0
  0
INSERT
  5
230
330
1F
100
AcDbEntity
  8
LC-001-100-D00-0
 62
     7
370
    50
100
AcDbBlockReference
  2
POLY4
 10
0.0
 20
0.0
 30
0.0
  0
LINE
  5
231
330
1F
100
AcDbEntity
  8
LC-001-100-D00-0
 62
     7
370
    50
100
AcDbLine
 10
35.836365
 20
-129.43829
 30
0.0
 11
35.836365
 21
-127.40598
 31
0.0
  0
LINE
  5
232
330
1F
100
AcDbEntity
  8
LC-001-100-D00-0
 62
     7
370
    50
100
AcDbLine
 10
41.836363
 20
-127.40598
 30
0.0
 11
41.836363
 21
-129.43829
 31
0.0
  0
INSERT
  5
242
330
1F
100
AcDbEntity
  8
LC-001-100-D00-0
 62
     7
370
    50
100
AcDbBlockReference
  2
POLY5
 10
0.0
 20
0.0
 30
0.0
  0
LINE
  5
243
330
1F
100
AcDbEntity
  8
LC-001-100-D00-0
 62
     7
370
    50
100
AcDbLine
 10
275.836367
 20
-129.43829
 30
0.0
 11
275.836367
 21
-127.40598
 31
0.0
  0
LINE
  5
244
330
1F
100
AcDbEntity
  8
LC-001-100-D00-0
 62
     7
370
    50
100
AcDbLine
 10
281.836365
 20
-127.40598
 30
0.0
 11
281.836365
 21
-129.43829
 31
0.0
  0
INSERT
  5
254
330
1F
100
AcDbEntity
  8
LC-001-100-D00-0
 62
     7
370
    50
100
AcDbBlockReference
  2
POLY6
 10
0.0
 20
0.0
 30
0.0
  0
LINE
  5
255
330
1F
100
AcDbEntity
  8
LC-001-100-D00-0
 62
     7
370
    50
100
AcDbLine
 10
419.014182
 20
-106.260465
 30
0.0
 11
416.981872
 21
-106.260465
 31
0.0
  0
LINE
  5
256
330
1F
100
AcDbEntity
  8
LC-001-100-D00-0
 62
     7
370
    50
100
AcDbLine
 10
419.014182
 20
-100.260468
 30
0.0
 11
416.981872
 21
-100.260468
 31
0.0
  0
LINE
  5
257
330
1F
100
AcDbEntity
  8
LC-001-100-D00-0
 62
     7
370
    50
100
AcDbLine
 10
155.836366
 20
22.917351
 30
0.0
 11
155.836366
 21
20.885042
 31
0.0
  0
INSERT
  5
267
330
1F
100
AcDbEntity
  8
LC-001-100-D00-0
 62
     7
370
    50
100
AcDbBlockReference
  2
POLY7
 10
0.0
 20
0.0
 30
0.0
  0
LINE
  5
268
330
1F
100
AcDbEntity
  8
LC-001-100-D00-0
 62
     7
370
    50
100
AcDbLine
 10
161.836367
 20
20.885042
 30
0.0
 11
161.836367
 21
22.917351
 31
0.0
  0
LINE
  5
269
330
1F
100
AcDbEntity
  8
LC-001-100-D00-0
 62
     7
370
    50
100
AcDbLine
 10
395.836365
 20
22.917351
 30
0.0
 11
395.836365
 21
20.885042
 31
0.0
  0
INSERT
  5
279
330
1F
100
AcDbEntity
  8
LC-001-100-D00-0
 62
     7
370
    50
100
AcDbBlockReference
  2
POLY8
 10
0.0
 20
0.0
 30
0.0
  0
LINE
  5
27A
330
1F
100
AcDbEntity
  8
LC-001-100-D00-0
 62
     7
370
    50
100
AcDbLine
 10
401.836362
 20
20.885042
 30
0.0
 11
401.836362
 21
22.917351
 31
0.0
  0
INSERT
  5
28A
330
1F
100
AcDbEntity
  8
LC-001-100-D00-0
 62
     7
370
    50
100
AcDbBlockReference
  2
POLY9
 10
0.0
 20
0.0
 30
0.0
  0
LINE
  5
28B
330
1F
100
AcDbEntity
  8
LC-001-100-D00-0
 62
     7
370
    50
100
AcDbLine
 10
155.836366
 20
-129.43829
 30
0.0
 11
155.836366
 21
-127.40598
 31
0.0
  0
LINE
  5
28C
330
1F
100
AcDbEntity
  8
LC-001-100-D00-0
 62
     7
370
    50
100
AcDbLine
 10
161.836367
 20
-127.40598
 30
0.0
 11
161.836367
 21
-129.43829
 31
0.0
  0
INSERT
  5
29C
330
1F
100
AcDbEntity
  8
LC-001-100-D00-0
 62
     7
370
    50
100
AcDbBlockReference
  2
POLY10
 10
0.0
 20
0.0
 30
0.0
  0
LINE
  5
29D
330
1F
100
AcDbEntity
  8
LC-001-100-D00-0
 62
     7
370
    50
100
AcDbLine
 10
18.658545
 20
-0.260466
 30
0.0
 11
20.690855
 21
-0.260466
 31
0.0
  0
LINE
  5
29E
330
1F
100
AcDbEntity
  8
LC-001-100-D00-0
 62
     7
370
    50
100
AcDbLine
 10
18.658545
 20
-6.260467
 30
0.0
 11
20.690855
 21
-6.260467
 31
0.0
  0
INSERT
  5
2AE
330
1F
100
AcDbEntity
  8
LC-001-100-D00-0
 62
     7
370
    50
100
AcDbBlockReference
  2
POLY11
 10
0.0
 20
0.0
 30
0.0
  0
LINE
  5
2AF
330
1F
100
AcDbEntity
  8
LC-001-100-D00-0
 62
     7
370
    50
100
AcDbLine
 10
18.658545
 20
-106.260465
 30
0.0
 11
20.690855
 21
-106.260465
 31
0.0
  0
LINE
  5
2B0
330
1F
100
AcDbEntity
  8
LC-001-100-D00-0
 62
     7
370
    50
100
AcDbLine
 10
18.658545
 20
-100.260468
 30
0.0
 11
20.690855
 21
-100.260468
 31
0.0
  0
INSERT
  5
2C0
330
1F
100
AcDbEntity
  8
LC-001-100-D00-0
 62
     7
370
    50
100
AcDbBlockReference
  2
POLY12
 10
0.0
 20
0.0
 30
0.0
  0
LINE
  5
2C1
330
1F
100
AcDbEntity
  8
LC-001-100-D00-0
 62
     7
370
    50
100
AcDbLine
 10
35.836365
 20
22.917351
 30
0.0
 11
35.836365
 21
20.885042
 31
0.0
  0
LINE
  5
2C2
330
1F
100
AcDbEntity
  8
LC-001-100-D00-0
 62
     7
370
    50
100
AcDbLine
 10
41.836363
 20
20.885042
 30
0.0
 11
41.836363
 21
22.917351
 31
0.0
  0
ARC
  5
2C3
330
1F
100
AcDbEntity
  8
LC-001-100-D00-0
 62
     7
370
    50
100
AcDbCircle
 10
278.836367
 20
26.739532
 30
0.0
 40
4.891887479464102
100
AcDbArc
 50
307.825613
 51
232.174387
  0
ARC
  5
2C4
330
1F
100
AcDbEntity
  8
LC-001-100-D00-0
 62
     7
370
    50
100
AcDbCircle
 10
422.836367
 20
-3.260468
 30
0.0
 40
4.891887479464102
100
AcDbArc
 50
217.825613
 51
142.174387
  0
ARC
  5
2C5
330
1F
100
AcDbEntity
  8
LC-001-100-D00-0
 62
     7
370
    50
100
AcDbCircle
 10
14.836367
 20
-103.260468
 30
0.0
 40
4.891887479464102
100
AcDbArc
 50
37.825613
 51
322.174387
  0
ARC
  5
2C6
330
1F
100
AcDbEntity
  8
LC-001-100-D00-0
 62
     7
370
    50
100
AcDbCircle
 10
158.836367
 20
26.739532
 30
0.0
 40
4.891887479464102
100
AcDbArc
 50
307.825613
 51
232.174387
  0
ARC
  5
2C7
330
1F
100
AcDbEntity
  8
LC-001-100-D00-0
 62
     7
370
    50
100
AcDbCircle
 10
278.836367
 20
-133.260468
 30
0.0
 40
4.891887479463978
100
AcDbArc
 50
127.825613
 51
52.174387
  0
ARC
  5
2C8
330
1F
100
AcDbEntity
  8
LC-001-100-D00-0
 62
     7
370
    50
100
AcDbCircle
 10
38.836367
 20
26.739532
 30
0.0
 40
4.891887479464102
100
AcDbArc
 50
307.825613
 51
232.174387
  0
ARC
  5
2C9
330
1F
100
AcDbEntity
  8
LC-001-100-D00-0
 62
     7
370
    50
100
AcDbCircle
 10
158.836367
 20
-133.260468
 30
0.0
 40
4.891887479463943
100
AcDbArc
 50
127.825613
 51
52.174387
  0
ARC
  5
2CA
330
1F
100
AcDbEntity
  8
LC-001-100-D00-0
 62
     7
370
    50
100
AcDbCircle
 10
398.836367
 20
26.739532
 30
0.0
 40
4.891887479464033
100
AcDbArc
 50
307.825613
 51
232.174387
  0
ARC
  5
2CB
330
1F
100
AcDbEntity
  8
LC-001-100-D00-0
 62
     7
370
    50
100
AcDbCircle
 10
14.836367
 20
-3.260468
 30
0.0
 40
4.89188747946416
100
AcDbArc
 50
37.825613
 51
322.174387
  0
ARC
  5
2CC
330
1F
100
AcDbEntity
  8
LC-001-100-D00-0
 62
     7
370
    50
100
AcDbCircle
 10
38.836367
 20
-133.260468
 30
0.0
 40
4.891887479463978
100
AcDbArc
 50
127.825613
 51
52.174387
  0
ARC
  5
2CD
330
1F
100
AcDbEntity
  8
LC-001-100-D00-0
 62
     7
370
    50
100
AcDbCircle
 10
398.836367
 20
-133.260468
 30
0.0
 40
4.891887479464012
100
AcDbArc
 50
127.825613
 51
52.174387
  0
ARC
  5
2CE
330
1F
100
AcDbEntity
  8
LC-001-100-D00-0
 62
     7
370
    50
100
AcDbCircle
 10
422.836367
 20
-103.260468
 30
0.0
 40
4.891887479464102
100
AcDbArc
 50
217.825613
 51
142.174387
  0
ELLIPSE
  5
2CF
330
1F
100
AcDbEntity
  8
LC-001-100-D00-0
 62
     7
370
    50
100
AcDbEllipse
 10
138.913872
 20
-28.260468
 30
0.0
 11
0.0
 21
-1.0
 31
0.0
210
0.0
220
0.0
230
1.0
 40
0.019376
 41
0.0000000000029337
 42
1.570796326794893
  0
ELLIPSE
  5
2D0
330
1F
100
AcDbEntity
  8
LC-001-100-D00-0
 62
     7
370
    50
100
AcDbEllipse
 10
298.758862
 20
-28.260468
 30
0.0
 11
0.0
 21
-1.0
 31
0.0
210
0.0
220
0.0
230
1.0
 40
0.019376
 41
4.712388980384693
 42
6.283185307179586
  0
ELLIPSE
  5
2D1
330
1F
100
AcDbEntity
  8
LC-001-100-D00-0
 62
     7
370
    50
100
AcDbEllipse
 10
138.913872
 20
-78.260468
 30
0.0
 11
0.0
 21
-1.0
 31
0.0
210
0.0
220
0.0
230
1.0
 40
0.019376
 41
1.570796326794868
 42
3.141592653589793
  0
ELLIPSE
  5
2D2
330
1F
100
AcDbEntity
  8
LC-001-100-D00-0
 62
     7
370
    50
100
AcDbEllipse
 10
298.758862
 20
-78.260468
 30
0.0
 11
0.0
 21
-1.0
 31
0.0
210
0.0
220
0.0
230
1.0
 40
0.019376
 41
3.141592653589793
 42
4.712388980384676
  0
INSERT
  5
2DE
330
1F
100
AcDbEntity
  8
LC-001-100-D00-0
 62
     7
370
    50
100
AcDbBlockReference
  2
POLY13
 10
0.0
 20
0.0
 30
0.0
  0
LINE
  5
2DF
330
1F
100
AcDbEntity
  8
LC-001-100-D00-0
 62
     7
370
    50
100
AcDbLine
 10
138.894495
 20
-78.260468
 30
0.0
 11
138.894495
 21
-73.441075
 31
0.0
  0
INSERT
  5
2EB
330
1F
100
AcDbEntity
  8
LC-001-100-D00-0
 62
     7
370
    50
100
AcDbBlockReference
  2
POLY14
 10
0.0
 20
0.0
 30
0.0
  0
LINE
  5
2EC
330
1F
100
AcDbEntity
  8
LC-001-100-D00-0
 62
     7
370
    50
100
AcDbLine
 10
298.77824
 20
-78.260468
 30
0.0
 11
298.77824
 21
-73.441075
 31
0.0
  0
INSERT
  5
2F8
330
1F
100
AcDbEntity
  8
LC-001-100-D00-0
 62
     7
370
    50
100
AcDbBlockReference
  2
POLY15
 10
0.0
 20
0.0
 30
0.0
  0
LINE
  5
2F9
330
1F
100
AcDbEntity
  8
LC-001-100-D00-0
 62
     7
370
    50
100
AcDbLine
 10
298.77824
 20
-33.079861
 30
0.0
 11
298.77824
 21
-28.260468
 31
0.0
  0
LINE
  5
2FA
330
1F
100
AcDbEntity
  8
LC-001-100-D00-0
 62
     7
370
    50
100
AcDbLine
 10
138.894495
 20
-33.079861
 30
0.0
 11
138.894495
 21
-28.260468
 31
0.0
  0
INSERT
  5
306
330
1F
100
AcDbEntity
  8
LC-001-100-D00-0
 62
     7
370
    50
100
AcDbBlockReference
  2
POLY16
 10
0.0
 20
0.0
 30
0.0
  0
LINE
  5
307
330
1F
100
AcDbEntity
  8
LC-001-100-D00-0
 62
     7
370
    50
100
AcDbLine
 10
186.491895
 20
-28.260468
 30
0.0
 11
188.336367
 21
-28.226493
 31
0.0
  0
LINE
  5
308
330
1F
100
AcDbEntity
  8
LC-001-100-D00-0
 62
     7
370
    50
100
AcDbLine
 10
249.336366
 20
-28.226493
 30
0.0
 11
251.180839
 21
-28.260468
 31
0.0
  0
LINE
  5
309
330
1F
100
AcDbEntity
  8
LC-001-100-D00-0
 62
     7
370
    50
100
AcDbLine
 10
188.336367
 20
-28.226493
 30
0.0
 11
249.336366
 21
-28.226493
 31
0.0
  0
LINE
  5
30A
330
1F
100
AcDbEntity
  8
LC-001-100-D00-0
 62
     7
370
    50
100
AcDbLine
 10
188.336367
 20
-78.294442
 30
0.0
 11
186.491895
 21
-78.260468
 31
0.0
  0
LINE
  5
30B
330
1F
100
AcDbEntity
  8
LC-001-100-D00-0
 62
     7
370
    50
100
AcDbLine
 10
249.336366
 20
-78.294442
 30
0.0
 11
188.336367
 21
-78.294442
 31
0.0
  0
LINE
  5
30C
330
1F
100
AcDbEntity
  8
LC-001-100-D00-0
 62
     7
370
    50
100
AcDbLine
 10
251.180839
 20
-78.260468
 30
0.0
 11
249.336366
 21
-78.294442
 31
0.0
  0
INSERT
  5
318
330
1F
100
AcDbEntity
  8
LC-001-100-D00-0
 62
     7
370
    50
100
AcDbBlockReference
  2
POLY17
 10
0.0
 20
0.0
 30
0.0
  0
INSERT
  5
324
330
1F
100
AcDbEntity
  8
LC-001-100-D00-0
 62
     7
370
    50
100
AcDbBlockReference
  2
POLY18
 10
0.0
 20
0.0
 30
0.0
  0
INSERT
  5
332
330
1F
100
AcDbEntity
  8
LC-001-100-D00-0
 62
     7
370
    50
100
AcDbBlockReference
  2
POLY19
 10
0.0
 20
0.0
 30
0.0
  0
INSERT
  5
340
330
1F
100
AcDbEntity
  8
LC-001-100-D00-0
 62
     7
370
    50
100
AcDbBlockReference
  2
POLY20
 10
0.0
 20
0.0
 30
0.0
  0
LINE
  5
341
330
1F
100
AcDbEntity
  8
LC-001-100-D00-0
 62
     7
370
    50
100
AcDbLine
 10
249.336366
 20
-78.060468
 30
0.0
 11
251.161125
 21
-77.993245
 31
0.0
  0
LINE
  5
342
330
1F
100
AcDbEntity
  8
LC-001-100-D00-0
 62
     7
370
    50
100
AcDbLine
 10
251.180839
 20
-78.260468
 30
0.0
 11
251.161125
 21
-77.993245
 31
0.0
  0
LINE
  5
343
330
1F
100
AcDbEntity
  8
LC-001-100-D00-0
 62
     7
370
    50
100
AcDbLine
 10
188.336367
 20
-78.060468
 30
0.0
 11
249.336366
 21
-78.060468
 31
0.0
  0
LINE
  5
344
330
1F
100
AcDbEntity
  8
LC-001-100-D00-0
 62
     7
370
    50
100
AcDbLine
 10
249.336366
 20
-28.460468
 30
0.0
 11
188.336367
 21
-28.460468
 31
0.0
  0
LINE
  5
345
330
1F
100
AcDbEntity
  8
LC-001-100-D00-0
 62
     7
370
    50
100
AcDbLine
 10
186.511611
 20
-77.993245
 30
0.0
 11
188.336367
 21
-78.060468
 31
0.0
  0
LINE
  5
346
330
1F
100
AcDbEntity
  8
LC-001-100-D00-0
 62
     7
370
    50
100
AcDbLine
 10
186.511611
 20
-77.993245
 30
0.0
 11
186.491895
 21
-78.260468
 31
0.0
  0
LINE
  5
347
330
1F
100
AcDbEntity
  8
LC-001-100-D00-0
 62
     7
370
    50
100
AcDbLine
 10
251.180839
 20
-28.260468
 30
0.0
 11
251.161125
 21
-28.52769
 31
0.0
  0
LINE
  5
348
330
1F
100
AcDbEntity
  8
LC-001-100-D00-0
 62
     7
370
    50
100
AcDbLine
 10
251.161125
 20
-28.52769
 30
0.0
 11
249.336366
 21
-28.460468
 31
0.0
  0
LINE
  5
349
330
1F
100
AcDbEntity
  8
LC-001-100-D00-0
 62
     7
370
    50
100
AcDbLine
 10
188.336367
 20
-28.460468
 30
0.0
 11
186.511611
 21
-28.52769
 31
0.0
  0
LINE
  5
34A
330
1F
100
AcDbEntity
  8
LC-001-100-D00-0
 62
     7
370
    50
100
AcDbLine
 10
186.511611
 20
-28.52769
 30
0.0
 11
186.491895
 21
-28.260468
 31
0.0
  0
ARC
  5
34B
330
1F
100
AcDbEntity
  8
LC-001-100-D00-0
 62
     7
370
    50
100
AcDbCircle
 10
249.336367
 20
-53.260468
 30
0.0
 40
25.06794919243121
100
AcDbArc
 50
52.923524
 51
85.780427
  0
ARC
  5
34C
330
1F
100
AcDbEntity
  8
LC-001-100-D00-0
 62
     7
370
    50
100
AcDbCircle
 10
249.336367
 20
-53.260468
 30
0.0
 40
25.06794919243115
100
AcDbArc
 50
274.219573
 51
307.076476
  0
ARC
  5
34D
330
1F
100
AcDbEntity
  8
LC-001-100-D00-0
 62
     7
370
    50
100
AcDbCircle
 10
188.336367
 20
-53.260468
 30
0.0
 40
24.80000000000011
100
AcDbArc
 50
94.219573
 51
126.249321
  0
ARC
  5
34E
330
1F
100
AcDbEntity
  8
LC-001-100-D00-0
 62
     7
370
    50
100
AcDbCircle
 10
188.336367
 20
-53.260468
 30
0.0
 40
24.80000000000005
100
AcDbArc
 50
233.750679
 51
265.780427
  0
ARC
  5
34F
330
1F
100
AcDbEntity
  8
LC-001-100-D00-0
 62
     7
370
    50
100
AcDbCircle
 10
188.336367
 20
-53.260468
 30
0.0
 40
25.06794919243117
100
AcDbArc
 50
232.923524
 51
265.780427
  0
ARC
  5
350
330
1F
100
AcDbEntity
  8
LC-001-100-D00-0
 62
     7
370
    50
100
AcDbCircle
 10
188.336367
 20
-53.260468
 30
0.0
 40
25.06794919243126
100
AcDbArc
 50
94.219573
 51
127.076476
  0
ARC
  5
351
330
1F
100
AcDbEntity
  8
LC-001-100-D00-0
 62
     7
370
    50
100
AcDbCircle
 10
249.336367
 20
-53.260468
 30
0.0
 40
24.79999999999999
100
AcDbArc
 50
274.219573
 51
306.249321
  0
ARC
  5
352
330
1F
100
AcDbEntity
  8
LC-001-100-D00-0
 62
     7
370
    50
100
AcDbCircle
 10
249.336367
 20
-53.260468
 30
0.0
 40
24.80000000000009
100
AcDbArc
 50
53.750679
 51
85.780427
  0
LINE
  5
354
330
1F
100
AcDbEntity
  8
LC-001-100-D00-0
  6
DASHDOT
 62
     7
370
    25
100
AcDbLine
 10
433.836367
 20
-53.260468
 30
0.0
 11
3.83636
 21
-53.260468
 31
0.0
  0
DIMENSION
  5
357
330
1F
100
AcDbEntity
  8
LC-001-100-D00-0
 62
     7
370
    25
100
AcDbDimension
  2
*D21
 10
3.836367
 20
331.533533
 30
0.0
 11
226.290517
 21
362.333533
 31
0.0
 70
   160
  1
430x182
 71
     5
 42
430.0
 53
360.0
  3
LC-DIM-L-0140-02-02
100
AcDbAlignedDimension
 13
433.836367
 23
246.200357
 33
0.0
 14
3.836367
 24
246.200357
 34
0.0
 50
360.0
100
AcDbRotatedDimension
  0
DIMENSION
  5
365
330
1F
100
AcDbEntity
  8
LC-001-100-D00-0
 62
     7
370
    25
100
AcDbDimension
  2
*D22
 10
70.836367
 20
276.83967
 30
0.0
 11
228.106139
 21
307.63967
 31
0.0
 70
   160
  1
296x40
 71
     5
 42
296.0
 53
360.0
  3
LC-DIM-L-0140-02-02
100
AcDbAlignedDimension
 13
366.836367
 23
252.200357
 33
0.0
 14
70.836367
 24
252.200357
 34
0.0
 50
360.0
100
AcDbRotatedDimension
  0
DIMENSION
  5
372
330
1F
100
AcDbEntity
  8
LC-001-100-D00-0
 62
     7
370
    25
100
AcDbDimension
  2
*D23
 10
-14.372149
 20
228.200357
 30
0.0
 11
-45.172149
 21
264.411533
 31
0.0
 70
   160
  1
18
 71
     5
 42
18.0
 53
90.0
  3
LC-DIM-L-0140-02-02
100
AcDbAlignedDimension
 13
3.836367
 23
246.200357
 33
0.0
 14
11.235389
 24
228.200357
 34
0.0
 50
90.0
100
AcDbRotatedDimension
  0
LINE
  5
380
330
1F
100
AcDbEntity
  8
LC-001-100-D00-0
 62
     7
370
    50
100
AcDbLine
 10
328.084167
 20
195.700357
 30
0.0
 11
328.084167
 21
193.917436
 31
0.0
  0
LINE
  5
381
330
1F
100
AcDbEntity
  8
LC-001-100-D00-0
 62
     7
370
    50
100
AcDbLine
 10
328.084167
 20
143.483279
 30
0.0
 11
328.084167
 21
141.700359
 31
0.0
  0
LINE
  5
382
330
1F
100
AcDbEntity
  8
LC-001-100-D00-0
 62
     7
370
    50
100
AcDbLine
 10
332.084161
 20
141.700359
 30
0.0
 11
332.084161
 21
143.483279
 31
0.0
  0
LINE
  5
383
330
1F
100
AcDbEntity
  8
LC-001-100-D00-0
 62
     7
370
    50
100
AcDbLine
 10
332.084161
 20
193.917436
 30
0.0
 11
332.084161
 21
195.700357
 31
0.0
  0
ARC
  5
384
330
1F
100
AcDbEntity
  8
LC-001-100-D00-0
 62
     7
370
    50
100
AcDbCircle
 10
138.596272
 20
222.208157
 30
0.0
 40
1.000755890195773
100
AcDbArc
 50
82.129532
 51
87.830674
  0
ARC
  5
385
330
1F
100
AcDbEntity
  8
LC-001-100-D00-0
 62
     7
370
    50
100
AcDbCircle
 10
299.076373
 20
222.209337
 30
0.0
 40
0.9995733768648374
100
AcDbArc
 50
93.026676
 51
97.888
  0
ARC
  5
386
330
1F
100
AcDbEntity
  8
LC-001-100-D00-0
 62
     7
370
    50
100
AcDbCircle
 10
299.07676
 20
222.201926
 30
0.0
 40
1.006994072229402
100
AcDbArc
 50
92.2451
 51
93.026373
  0
LINE
  5
387
330
1F
100
AcDbEntity
  8
LC-001-100-D00-0
 62
     7
370
    50
100
AcDbLine
 10
9.94448
 20
231.200357
 30
0.0
 11
10.245126
 21
229.061184
 31
0.0
  0
LINE
  5
388
330
1F
100
AcDbEntity
  8
LC-001-100-D00-0
 62
     7
370
    50
100
AcDbLine
 10
427.427616
 20
229.061184
 30
0.0
 11
427.728262
 21
231.200357
 31
0.0
  0
ARC
  5
389
330
1F
100
AcDbEntity
  8
LC-001-100-D00-0
 62
     7
370
    50
100
AcDbCircle
 10
11.235389
 20
229.200357
 30
0.0
 40
1.000000000000017
100
AcDbArc
 50
188.0
 51
270.0
  0
ARC
  5
38A
330
1F
100
AcDbEntity
  8
LC-001-100-D00-0
 62
     7
370
    50
100
AcDbCircle
 10
426.437345
 20
229.200357
 30
0.0
 40
1.0
100
AcDbArc
 50
270.0
 51
352.0
  0
LINE
  5
38B
330
1F
100
AcDbEntity
  8
LC-001-100-D00-0
 62
     7
370
    50
100
AcDbLine
 10
413.257983
 20
243.200356
 30
0.0
 11
415.257242
 21
228.974925
 31
0.0
  0
LINE
  5
38C
330
1F
100
AcDbEntity
  8
LC-001-100-D00-0
 62
     7
370
    50
100
AcDbLine
 10
22.415485
 20
228.974925
 30
0.0
 11
24.414744
 21
243.200356
 31
0.0
  0
ARC
  5
38D
330
1F
100
AcDbEntity
  8
LC-001-100-D00-0
 62
     7
370
    50
100
AcDbCircle
 10
416.235389
 20
229.200357
 30
0.0
 40
1.000000000000129
100
AcDbArc
 50
187.991922
 51
270.0
  0
ARC
  5
38E
330
1F
100
AcDbEntity
  8
LC-001-100-D00-0
 62
     7
370
    50
100
AcDbCircle
 10
21.437345
 20
229.200357
 30
0.0
 40
1.000000000000114
100
AcDbArc
 50
270.0
 51
352.024988
  0
LINE
  5
38F
330
1F
100
AcDbEntity
  8
LC-001-100-D00-0
 62
     7
370
    50
100
AcDbLine
 10
393.944484
 20
231.200357
 30
0.0
 11
394.245114
 21
229.061184
 31
0.0
  0
LINE
  5
390
330
1F
100
AcDbEntity
  8
LC-001-100-D00-0
 62
     7
370
    50
100
AcDbLine
 10
403.427612
 20
229.061184
 30
0.0
 11
403.728258
 21
231.200357
 31
0.0
  0
LINE
  5
391
330
1F
100
AcDbEntity
  8
LC-001-100-D00-0
 62
     7
370
    50
100
AcDbLine
 10
33.944484
 20
231.200357
 30
0.0
 11
34.245115
 21
229.061184
 31
0.0
  0
LINE
  5
392
330
1F
100
AcDbEntity
  8
LC-001-100-D00-0
 62
     7
370
    50
100
AcDbLine
 10
43.427613
 20
229.061184
 30
0.0
 11
43.728259
 21
231.200357
 31
0.0
  0
ARC
  5
393
330
1F
100
AcDbEntity
  8
LC-001-100-D00-0
 62
     7
370
    50
100
AcDbCircle
 10
402.437345
 20
229.200357
 30
0.0
 40
1.0
100
AcDbArc
 50
270.0
 51
352.0
  0
ARC
  5
394
330
1F
100
AcDbEntity
  8
LC-001-100-D00-0
 62
     7
370
    50
100
AcDbCircle
 10
395.235389
 20
229.200357
 30
0.0
 40
0.9999999999999885
100
AcDbArc
 50
188.0
 51
270.0
  0
ARC
  5
395
330
1F
100
AcDbEntity
  8
LC-001-100-D00-0
 62
     7
370
    50
100
AcDbCircle
 10
42.437345
 20
229.200357
 30
0.0
 40
1.0
100
AcDbArc
 50
270.0
 51
352.0
  0
ARC
  5
396
330
1F
100
AcDbEntity
  8
LC-001-100-D00-0
 62
     7
370
    50
100
AcDbCircle
 10
35.235389
 20
229.200357
 30
0.0
 40
1.000000000000017
100
AcDbArc
 50
188.0
 51
270.0
  0
LINE
  5
397
330
1F
100
AcDbEntity
  8
LC-001-100-D00-0
 62
     7
370
    50
100
AcDbLine
 10
366.836366
 20
246.200358
 30
0.0
 11
70.836369
 21
246.200358
 31
0.0
  0
LINE
  5
398
330
1F
100
AcDbEntity
  8
LC-001-100-D00-0
 62
     7
370
    50
100
AcDbLine
 10
70.836369
 20
244.700359
 30
0.0
 11
366.836366
 21
244.700359
 31
0.0
  0
LINE
  5
399
330
1F
100
AcDbEntity
  8
LC-001-100-D00-0
 62
     7
370
    50
100
AcDbLine
 10
366.836366
 20
244.700359
 30
0.0
 11
366.836366
 21
246.200358
 31
0.0
  0
LINE
  5
39A
330
1F
100
AcDbEntity
  8
LC-001-100-D00-0
 62
     7
370
    50
100
AcDbLine
 10
70.836369
 20
244.700359
 30
0.0
 11
70.836369
 21
246.200358
 31
0.0
  0
LINE
  5
39B
330
1F
100
AcDbEntity
  8
LC-001-100-D00-0
 62
     7
370
    50
100
AcDbLine
 10
366.836366
 20
242.200357
 30
0.0
 11
366.836366
 21
244.700359
 31
0.0
  0
LINE
  5
39C
330
1F
100
AcDbEntity
  8
LC-001-100-D00-0
 62
     7
370
    50
100
AcDbLine
 10
70.836369
 20
242.200357
 30
0.0
 11
70.836369
 21
244.700359
 31
0.0
  0
LINE
  5
39D
330
1F
100
AcDbEntity
  8
LC-001-100-D00-0
 62
     7
370
    50
100
AcDbLine
 10
135.212437
 20
228.200359
 30
0.0
 11
302.460294
 21
228.200359
 31
0.0
  0
ARC
  5
39E
330
1F
100
AcDbEntity
  8
LC-001-100-D00-0
 62
     7
370
    50
100
AcDbCircle
 10
356.836367
 20
238.200357
 30
0.0
 40
9.999999999999989
100
AcDbArc
 50
315.233787
 51
0.0
  0
ARC
  5
39F
330
1F
100
AcDbEntity
  8
LC-001-100-D00-0
 62
     7
370
    50
100
AcDbCircle
 10
80.836367
 20
238.200357
 30
0.0
 40
10.0
100
AcDbArc
 50
180.0
 51
224.766152
  0
LINE
  5
3A0
330
1F
100
AcDbEntity
  8
LC-001-100-D00-0
 62
     7
370
    50
100
AcDbLine
 10
366.836366
 20
238.200357
 30
0.0
 11
366.836366
 21
242.200357
 31
0.0
  0
LINE
  5
3A1
330
1F
100
AcDbEntity
  8
LC-001-100-D00-0
 62
     7
370
    50
100
AcDbLine
 10
70.836369
 20
238.200357
 30
0.0
 11
70.836369
 21
242.200357
 31
0.0
  0
ARC
  5
3A2
330
1F
100
AcDbEntity
  8
LC-001-100-D00-0
 62
     7
370
    50
100
AcDbCircle
 10
321.836164
 20
168.700357
 30
0.0
 40
32.0
100
AcDbArc
 50
270.0
 51
276.033181
  0
ARC
  5
3A3
330
1F
100
AcDbEntity
  8
LC-001-100-D00-0
 62
     7
370
    50
100
AcDbCircle
 10
321.836164
 20
168.700357
 30
0.0
 40
31.99999999999995
100
AcDbArc
 50
289.072328
 51
289.577776
  0
ARC
  5
3A4
330
1F
100
AcDbEntity
  8
LC-001-100-D00-0
 62
     7
370
    50
100
AcDbCircle
 10
321.836164
 20
168.700357
 30
0.0
 40
32.00000000000008
100
AcDbArc
 50
70.422224
 51
90.0
  0
LINE
  5
3A5
330
1F
100
AcDbEntity
  8
LC-001-100-D00-0
 62
     7
370
    50
100
AcDbLine
 10
325.187888
 20
136.876372
 30
0.0
 11
325.287145
 21
136.876372
 31
0.0
  0
LINE
  5
3A6
330
1F
100
AcDbEntity
  8
LC-001-100-D00-0
 62
     7
370
    50
100
AcDbLine
 10
325.299498
 20
136.877598
 30
0.0
 11
325.199511
 21
136.877598
 31
0.0
  0
ARC
  5
3A7
330
1F
100
AcDbEntity
  8
LC-001-100-D00-0
 62
     7
370
    50
100
AcDbCircle
 10
325.190474
 20
137.91359
 30
0.0
 40
1.041713148140898
100
AcDbArc
 50
275.324722
 51
276.007499
  0
ARC
  5
3A8
330
1F
100
AcDbEntity
  8
LC-001-100-D00-0
 62
     7
370
    50
100
AcDbCircle
 10
321.936164
 20
168.700357
 30
0.0
 40
31.99999999999995
100
AcDbArc
 50
276.033181
 51
289.072328
  0
LINE
  5
3A9
330
1F
100
AcDbEntity
  8
LC-001-100-D00-0
 62
     7
370
    50
100
AcDbLine
 10
338.338223
 20
140.800358
 30
0.0
 11
372.836169
 21
140.800358
 31
0.0
  0
LINE
  5
3AA
330
1F
100
AcDbEntity
  8
LC-001-100-D00-0
 62
     7
370
    50
100
AcDbLine
 10
372.836169
 20
140.800358
 30
0.0
 11
373.336163
 21
140.300357
 31
0.0
  0
LINE
  5
3AB
330
1F
100
AcDbEntity
  8
LC-001-100-D00-0
 62
     7
370
    50
100
AcDbLine
 10
373.336163
 20
140.300357
 30
0.0
 11
373.336163
 21
139.050358
 31
0.0
  0
LINE
  5
3AC
330
1F
100
AcDbEntity
  8
LC-001-100-D00-0
 62
     7
370
    50
100
AcDbLine
 10
373.336163
 20
139.050358
 30
0.0
 11
372.836169
 21
138.550357
 31
0.0
  0
LINE
  5
3AD
330
1F
100
AcDbEntity
  8
LC-001-100-D00-0
 62
     7
370
    50
100
AcDbLine
 10
372.836169
 20
138.550357
 30
0.0
 11
332.558926
 21
138.550357
 31
0.0
  0
LINE
  5
3AE
330
1F
100
AcDbEntity
  8
LC-001-100-D00-0
 62
     7
370
    50
100
AcDbLine
 10
321.83617
 20
136.700356
 30
0.0
 11
315.336164
 21
135.935651
 31
0.0
  0
LINE
  5
3AF
330
1F
100
AcDbEntity
  8
LC-001-100-D00-0
 62
     7
370
    50
100
AcDbLine
 10
315.336164
 20
126.700354
 30
0.0
 11
315.336164
 21
135.935651
 31
0.0
  0
LINE
  5
3B0
330
1F
100
AcDbEntity
  8
LC-001-100-D00-0
 62
     7
370
    50
100
AcDbLine
 10
315.336164
 20
126.700354
 30
0.0
 11
313.33616
 21
126.700354
 31
0.0
  0
LINE
  5
3B1
330
1F
100
AcDbEntity
  8
LC-001-100-D00-0
 62
     7
370
    50
100
AcDbLine
 10
313.33616
 20
126.700354
 30
0.0
 11
313.33616
 21
138.930575
 31
0.0
  0
ARC
  5
3B2
330
1F
100
AcDbEntity
  8
LC-001-100-D00-0
 62
     7
370
    50
100
AcDbCircle
 10
314.336164
 20
138.930574
 30
0.0
 40
0.9999999999999754
100
AcDbArc
 50
75.85955
 51
180.0
  0
ARC
  5
3B3
330
1F
100
AcDbEntity
  8
LC-001-100-D00-0
 62
     7
370
    50
100
AcDbCircle
 10
321.836164
 20
168.700357
 30
0.0
 40
29.69999999999995
100
AcDbArc
 50
255.85955
 51
311.04372
  0
LINE
  5
3B4
330
1F
100
AcDbEntity
  8
LC-001-100-D00-0
 62
     7
370
    50
100
AcDbLine
 10
341.338214
 20
146.300358
 30
0.0
 11
341.338214
 21
143.000358
 31
0.0
  0
LINE
  5
3B5
330
1F
100
AcDbEntity
  8
LC-001-100-D00-0
 62
     7
370
    50
100
AcDbLine
 10
341.338214
 20
143.000358
 30
0.0
 11
338.338223
 21
141.300356
 31
0.0
  0
LINE
  5
3B6
330
1F
100
AcDbEntity
  8
LC-001-100-D00-0
 62
     7
370
    50
100
AcDbLine
 10
338.338223
 20
141.300356
 30
0.0
 11
338.338223
 21
140.800358
 31
0.0
  0
LINE
  5
3B7
330
1F
100
AcDbEntity
  8
LC-001-100-D00-0
 62
     7
370
    50
100
AcDbLine
 10
332.292538
 20
138.456938
 30
0.0
 11
332.392525
 21
138.456938
 31
0.0
  0
ARC
  5
3B8
330
1F
100
AcDbEntity
  8
LC-001-100-D00-0
 62
     7
370
    50
100
AcDbCircle
 10
314.336164
 20
198.47014
 30
0.0
 40
1.0
100
AcDbArc
 50
180.0
 51
284.14045
  0
LINE
  5
3B9
330
1F
100
AcDbEntity
  8
LC-001-100-D00-0
 62
     7
370
    50
100
AcDbLine
 10
313.33616
 20
140.260504
 30
0.0
 11
313.33616
 21
138.930575
 31
0.0
  0
ARC
  5
3BA
330
1F
100
AcDbEntity
  8
LC-001-100-D00-0
 62
     7
370
    50
100
AcDbCircle
 10
321.836164
 20
168.700357
 30
0.0
 40
29.70000000000002
100
AcDbArc
 50
48.95628
 51
104.14045
  0
LINE
  5
3BB
330
1F
100
AcDbEntity
  8
LC-001-100-D00-0
 62
     7
370
    50
100
AcDbLine
 10
341.338214
 20
191.100357
 30
0.0
 11
341.338214
 21
146.300358
 31
0.0
  0
LINE
  5
3BC
330
1F
100
AcDbEntity
  8
LC-001-100-D00-0
 62
     7
370
    50
100
AcDbLine
 10
313.33616
 20
201.700357
 30
0.0
 11
321.83617
 21
200.700357
 31
0.0
  0
LINE
  5
3BD
330
1F
100
AcDbEntity
  8
LC-001-100-D00-0
 62
     7
370
    50
100
AcDbLine
 10
332.558926
 20
198.850357
 30
0.0
 11
372.836169
 21
198.850357
 31
0.0
  0
LINE
  5
3BE
330
1F
100
AcDbEntity
  8
LC-001-100-D00-0
 62
     7
370
    50
100
AcDbLine
 10
372.836169
 20
198.850357
 30
0.0
 11
373.336163
 21
198.350357
 31
0.0
  0
LINE
  5
3BF
330
1F
100
AcDbEntity
  8
LC-001-100-D00-0
 62
     7
370
    50
100
AcDbLine
 10
373.336163
 20
197.100357
 30
0.0
 11
372.836169
 21
196.600357
 31
0.0
  0
LINE
  5
3C0
330
1F
100
AcDbEntity
  8
LC-001-100-D00-0
 62
     7
370
    50
100
AcDbLine
 10
372.836169
 20
140.800358
 30
0.0
 11
372.836169
 21
196.600357
 31
0.0
  0
LINE
  5
3C1
330
1F
100
AcDbEntity
  8
LC-001-100-D00-0
 62
     7
370
    50
100
AcDbLine
 10
373.336163
 20
197.100357
 30
0.0
 11
373.336163
 21
140.300357
 31
0.0
  0
LINE
  5
3C2
330
1F
100
AcDbEntity
  8
LC-001-100-D00-0
 62
     7
370
    50
100
AcDbLine
 10
372.836169
 20
196.600357
 30
0.0
 11
338.338223
 21
196.600357
 31
0.0
  0
LINE
  5
3C3
330
1F
100
AcDbEntity
  8
LC-001-100-D00-0
 62
     7
370
    50
100
AcDbLine
 10
338.338223
 20
196.100357
 30
0.0
 11
341.338214
 21
194.400357
 31
0.0
  0
LINE
  5
3C4
330
1F
100
AcDbEntity
  8
LC-001-100-D00-0
 62
     7
370
    50
100
AcDbLine
 10
341.338214
 20
194.400357
 30
0.0
 11
341.338214
 21
191.100357
 31
0.0
  0
LINE
  5
3C5
330
1F
100
AcDbEntity
  8
LC-001-100-D00-0
 62
     7
370
    50
100
AcDbLine
 10
338.338223
 20
196.600357
 30
0.0
 11
338.338223
 21
196.100357
 31
0.0
  0
LINE
  5
3C6
330
1F
100
AcDbEntity
  8
LC-001-100-D00-0
 62
     7
370
    50
100
AcDbLine
 10
373.336163
 20
198.350357
 30
0.0
 11
373.336163
 21
197.100357
 31
0.0
  0
LINE
  5
3C7
330
1F
100
AcDbEntity
  8
LC-001-100-D00-0
 62
     7
370
    50
100
AcDbLine
 10
313.33616
 20
198.47014
 30
0.0
 11
313.33616
 21
201.700357
 31
0.0
  0
CIRCLE
  5
3C8
330
1F
100
AcDbEntity
  8
LC-001-100-D00-0
 62
     7
370
    50
100
AcDbCircle
 10
164.586367
 20
223.450357
 30
0.0
 40
1.75
  0
CIRCLE
  5
3C9
330
1F
100
AcDbEntity
  8
LC-001-100-D00-0
 62
     7
370
    50
100
AcDbCircle
 10
273.086367
 20
223.450357
 30
0.0
 40
1.749999999999943
  0
LINE
  5
3CA
330
1F
100
AcDbEntity
  8
LC-001-100-D00-0
 62
     7
370
    50
100
AcDbLine
 10
165.086367
 20
218.700356
 30
0.0
 11
165.086367
 21
211.200358
 31
0.0
  0
LINE
  5
3CB
330
1F
100
AcDbEntity
  8
LC-001-100-D00-0
 62
     7
370
    50
100
AcDbLine
 10
165.086367
 20
218.700356
 30
0.0
 11
163.586367
 21
218.700356
 31
0.0
  0
LINE
  5
3CC
330
1F
100
AcDbEntity
  8
LC-001-100-D00-0
 62
     7
370
    50
100
AcDbLine
 10
163.586367
 20
220.700357
 30
0.0
 11
163.586367
 21
218.700356
 31
0.0
  0
LINE
  5
3CD
330
1F
100
AcDbEntity
  8
LC-001-100-D00-0
 62
     7
370
    50
100
AcDbLine
 10
167.348982
 20
220.700357
 30
0.0
 11
163.586367
 21
220.700357
 31
0.0
  0
ARC
  5
3CE
330
1F
100
AcDbEntity
  8
LC-001-100-D00-0
 62
     7
370
    50
100
AcDbCircle
 10
167.348982
 20
217.700357
 30
0.0
 40
2.999999999999994
100
AcDbArc
 50
53.564324
 51
90.0
  0
LINE
  5
3CF
330
1F
100
AcDbEntity
  8
LC-001-100-D00-0
 62
     7
370
    50
100
AcDbLine
 10
178.930287
 20
212.879659
 30
0.0
 11
169.130742
 21
220.113929
 31
0.0
  0
ARC
  5
3D0
330
1F
100
AcDbEntity
  8
LC-001-100-D00-0
 62
     7
370
    50
100
AcDbCircle
 10
178.336367
 20
212.075135
 30
0.0
 40
1.0
100
AcDbArc
 50
0.0
 51
53.564324
  0
LINE
  5
3D1
330
1F
100
AcDbEntity
  8
LC-001-100-D00-0
 62
     7
370
    50
100
AcDbLine
 10
179.336367
 20
212.075134
 30
0.0
 11
179.336367
 21
150.200357
 31
0.0
  0
ARC
  5
3D2
330
1F
100
AcDbEntity
  8
LC-001-100-D00-0
 62
     7
370
    50
100
AcDbCircle
 10
182.836367
 20
150.200357
 30
0.0
 40
3.5
100
AcDbArc
 50
180.0
 51
270.0
  0
LINE
  5
3D3
330
1F
100
AcDbEntity
  8
LC-001-100-D00-0
 62
     7
370
    50
100
AcDbLine
 10
182.836367
 20
146.700358
 30
0.0
 11
254.83637
 21
146.700358
 31
0.0
  0
ARC
  5
3D4
330
1F
100
AcDbEntity
  8
LC-001-100-D00-0
 62
     7
370
    50
100
AcDbCircle
 10
254.836367
 20
150.200357
 30
0.0
 40
3.5
100
AcDbArc
 50
270.0
 51
0.0
  0
LINE
  5
3D5
330
1F
100
AcDbEntity
  8
LC-001-100-D00-0
 62
     7
370
    50
100
AcDbLine
 10
258.336369
 20
150.200357
 30
0.0
 11
258.336369
 21
212.075134
 31
0.0
  0
ARC
  5
3D6
330
1F
100
AcDbEntity
  8
LC-001-100-D00-0
 62
     7
370
    50
100
AcDbCircle
 10
259.336367
 20
212.075135
 30
0.0
 40
0.999999999999994
100
AcDbArc
 50
126.435676
 51
180.0
  0
LINE
  5
3D7
330
1F
100
AcDbEntity
  8
LC-001-100-D00-0
 62
     7
370
    50
100
AcDbLine
 10
258.742448
 20
212.879659
 30
0.0
 11
268.541996
 21
220.113929
 31
0.0
  0
ARC
  5
3D8
330
1F
100
AcDbEntity
  8
LC-001-100-D00-0
 62
     7
370
    50
100
AcDbCircle
 10
270.323752
 20
217.700357
 30
0.0
 40
3.0
100
AcDbArc
 50
90.0
 51
126.435676
  0
LINE
  5
3D9
330
1F
100
AcDbEntity
  8
LC-001-100-D00-0
 62
     7
370
    50
100
AcDbLine
 10
274.086368
 20
220.700357
 30
0.0
 11
270.32375
 21
220.700357
 31
0.0
  0
LINE
  5
3DA
330
1F
100
AcDbEntity
  8
LC-001-100-D00-0
 62
     7
370
    50
100
AcDbLine
 10
274.086368
 20
218.700356
 30
0.0
 11
274.086368
 21
220.700357
 31
0.0
  0
LINE
  5
3DB
330
1F
100
AcDbEntity
  8
LC-001-100-D00-0
 62
     7
370
    50
100
AcDbLine
 10
274.086368
 20
218.700356
 30
0.0
 11
272.586365
 21
218.700356
 31
0.0
  0
LINE
  5
3DC
330
1F
100
AcDbEntity
  8
LC-001-100-D00-0
 62
     7
370
    50
100
AcDbLine
 10
272.586365
 20
218.700356
 30
0.0
 11
272.586365
 21
211.200358
 31
0.0
  0
LINE
  5
3DD
330
1F
100
AcDbEntity
  8
LC-001-100-D00-0
 62
     7
370
    50
100
AcDbLine
 10
259.836365
 20
201.787986
 30
0.0
 11
272.586365
 21
211.200358
 31
0.0
  0
LINE
  5
3DE
330
1F
100
AcDbEntity
  8
LC-001-100-D00-0
 62
     7
370
    50
100
AcDbLine
 10
259.836365
 20
150.200357
 30
0.0
 11
259.836365
 21
201.787986
 31
0.0
  0
ARC
  5
3DF
330
1F
100
AcDbEntity
  8
LC-001-100-D00-0
 62
     7
370
    50
100
AcDbCircle
 10
254.836367
 20
150.200357
 30
0.0
 40
5.0
100
AcDbArc
 50
270.0
 51
0.0
  0
LINE
  5
3E0
330
1F
100
AcDbEntity
  8
LC-001-100-D00-0
 62
     7
370
    50
100
AcDbLine
 10
182.836367
 20
145.200358
 30
0.0
 11
254.83637
 21
145.200358
 31
0.0
  0
ARC
  5
3E1
330
1F
100
AcDbEntity
  8
LC-001-100-D00-0
 62
     7
370
    50
100
AcDbCircle
 10
182.836367
 20
150.200357
 30
0.0
 40
5.0
100
AcDbArc
 50
180.0
 51
270.0
  0
LINE
  5
3E2
330
1F
100
AcDbEntity
  8
LC-001-100-D00-0
 62
     7
370
    50
100
AcDbLine
 10
177.836367
 20
201.787986
 30
0.0
 11
177.836367
 21
150.200357
 31
0.0
  0
LINE
  5
3E3
330
1F
100
AcDbEntity
  8
LC-001-100-D00-0
 62
     7
370
    50
100
AcDbLine
 10
177.836367
 20
201.787986
 30
0.0
 11
165.086367
 21
211.200358
 31
0.0
  0
LINE
  5
3E4
330
1F
100
AcDbEntity
  8
LC-001-100-D00-0
 62
     7
370
    50
100
AcDbLine
 10
258.329246
 20
211.200358
 30
0.0
 11
253.915761
 21
211.200358
 31
0.0
  0
LINE
  5
3E5
330
1F
100
AcDbEntity
  8
LC-001-100-D00-0
 62
     7
370
    50
100
AcDbLine
 10
258.329246
 20
212.069744
 30
0.0
 11
258.329246
 21
211.200358
 31
0.0
  0
LINE
  5
3E6
330
1F
100
AcDbEntity
  8
LC-001-100-D00-0
 62
     7
370
    50
100
AcDbLine
 10
179.343488
 20
212.069744
 30
0.0
 11
179.343488
 21
211.200358
 31
0.0
  0
LINE
  5
3E7
330
1F
100
AcDbEntity
  8
LC-001-100-D00-0
 62
     7
370
    50
100
AcDbLine
 10
183.756972
 20
211.200358
 30
0.0
 11
179.343488
 21
211.200358
 31
0.0
  0
INSERT
  5
3F5
330
1F
100
AcDbEntity
  8
LC-001-100-D00-0
 62
     7
370
    50
100
AcDbBlockReference
  2
POLY21
 10
0.0
 20
0.0
 30
0.0
  0
LINE
  5
3F6
330
1F
100
AcDbEntity
  8
LC-001-100-D00-0
 62
     7
370
    50
100
AcDbLine
 10
258.735504
 20
212.874531
 30
0.0
 11
258.742448
 21
212.879659
 31
0.0
  0
INSERT
  5
404
330
1F
100
AcDbEntity
  8
LC-001-100-D00-0
 62
     7
370
    50
100
AcDbBlockReference
  2
POLY22
 10
0.0
 20
0.0
 30
0.0
  0
LINE
  5
405
330
1F
100
AcDbEntity
  8
LC-001-100-D00-0
 62
     7
370
    50
100
AcDbLine
 10
185.908003
 20
218.646125
 30
0.0
 11
185.908003
 21
211.200358
 31
0.0
  0
LINE
  5
406
330
1F
100
AcDbEntity
  8
LC-001-100-D00-0
 62
     7
370
    50
100
AcDbLine
 10
184.836367
 20
218.700356
 30
0.0
 11
185.908003
 21
218.700356
 31
0.0
  0
LINE
  5
407
330
1F
100
AcDbEntity
  8
LC-001-100-D00-0
 62
     7
370
    50
100
AcDbLine
 10
251.764734
 20
218.646125
 30
0.0
 11
251.764734
 21
211.200358
 31
0.0
  0
LINE
  5
408
330
1F
100
AcDbEntity
  8
LC-001-100-D00-0
 62
     7
370
    50
100
AcDbLine
 10
251.764734
 20
218.700356
 30
0.0
 11
252.836366
 21
218.700356
 31
0.0
  0
LINE
  5
409
330
1F
100
AcDbEntity
  8
LC-001-100-D00-0
 62
     7
370
    50
100
AcDbLine
 10
189.82386
 20
211.200358
 30
0.0
 11
183.756972
 21
211.200358
 31
0.0
  0
LINE
  5
40A
330
1F
100
AcDbEntity
  8
LC-001-100-D00-0
 62
     7
370
    50
100
AcDbLine
 10
253.915761
 20
211.200358
 30
0.0
 11
247.848872
 21
211.200358
 31
0.0
  0
LINE
  5
40B
330
1F
100
AcDbEntity
  8
LC-001-100-D00-0
 62
     7
370
    50
100
AcDbLine
 10
273.33637
 20
225.200356
 30
0.0
 11
271.336366
 21
225.200356
 31
0.0
  0
LINE
  5
40C
330
1F
100
AcDbEntity
  8
LC-001-100-D00-0
 62
     7
370
    50
100
AcDbLine
 10
271.336366
 20
221.700357
 30
0.0
 11
271.336366
 21
225.200356
 31
0.0
  0
LINE
  5
40D
330
1F
100
AcDbEntity
  8
LC-001-100-D00-0
 62
     7
370
    50
100
AcDbLine
 10
273.33637
 20
221.700357
 30
0.0
 11
271.336366
 21
221.700357
 31
0.0
  0
LINE
  5
40E
330
1F
100
AcDbEntity
  8
LC-001-100-D00-0
 62
     7
370
    50
100
AcDbLine
 10
273.33637
 20
220.700357
 30
0.0
 11
273.33637
 21
221.700357
 31
0.0
  0
LINE
  5
40F
330
1F
100
AcDbEntity
  8
LC-001-100-D00-0
 62
     7
370
    50
100
AcDbLine
 10
273.33637
 20
220.700357
 30
0.0
 11
257.836368
 21
220.700357
 31
0.0
  0
ARC
  5
410
330
1F
100
AcDbEntity
  8
LC-001-100-D00-0
 62
     7
370
    50
100
AcDbCircle
 10
257.836367
 20
210.700357
 30
0.0
 40
10.0
100
AcDbArc
 50
90.0
 51
180.0
  0
LINE
  5
411
330
1F
100
AcDbEntity
  8
LC-001-100-D00-0
 62
     7
370
    50
100
AcDbLine
 10
247.83637
 20
160.800358
 30
0.0
 11
247.83637
 21
210.700357
 31
0.0
  0
LINE
  5
412
330
1F
100
AcDbEntity
  8
LC-001-100-D00-0
 62
     7
370
    50
100
AcDbLine
 10
247.83637
 20
160.800358
 30
0.0
 11
246.336367
 21
160.800358
 31
0.0
  0
LINE
  5
413
330
1F
100
AcDbEntity
  8
LC-001-100-D00-0
 62
     7
370
    50
100
AcDbLine
 10
246.336367
 20
160.800358
 30
0.0
 11
246.336367
 21
224.700357
 31
0.0
  0
ARC
  5
414
330
1F
100
AcDbEntity
  8
LC-001-100-D00-0
 62
     7
370
    50
100
AcDbCircle
 10
248.336367
 20
224.700357
 30
0.0
 40
2.0
100
AcDbArc
 50
90.0
 51
180.0
  0
LINE
  5
415
330
1F
100
AcDbEntity
  8
LC-001-100-D00-0
 62
     7
370
    50
100
AcDbLine
 10
273.33637
 20
226.700356
 30
0.0
 11
248.336364
 21
226.700356
 31
0.0
  0
LINE
  5
416
330
1F
100
AcDbEntity
  8
LC-001-100-D00-0
 62
     7
370
    50
100
AcDbLine
 10
273.33637
 20
226.700356
 30
0.0
 11
273.33637
 21
225.200356
 31
0.0
  0
LINE
  5
417
330
1F
100
AcDbEntity
  8
LC-001-100-D00-0
 62
     7
370
    50
100
AcDbLine
 10
191.336368
 20
224.700357
 30
0.0
 11
191.336368
 21
160.800358
 31
0.0
  0
LINE
  5
418
330
1F
100
AcDbEntity
  8
LC-001-100-D00-0
 62
     7
370
    50
100
AcDbLine
 10
191.336368
 20
160.800358
 30
0.0
 11
189.836367
 21
160.800358
 31
0.0
  0
LINE
  5
419
330
1F
100
AcDbEntity
  8
LC-001-100-D00-0
 62
     7
370
    50
100
AcDbLine
 10
189.836367
 20
210.700357
 30
0.0
 11
189.836367
 21
160.800358
 31
0.0
  0
ARC
  5
41A
330
1F
100
AcDbEntity
  8
LC-001-100-D00-0
 62
     7
370
    50
100
AcDbCircle
 10
179.836367
 20
210.700357
 30
0.0
 40
10.0
100
AcDbArc
 50
0.0
 51
90.0
  0
LINE
  5
41B
330
1F
100
AcDbEntity
  8
LC-001-100-D00-0
 62
     7
370
    50
100
AcDbLine
 10
179.836367
 20
220.700357
 30
0.0
 11
164.336367
 21
220.700357
 31
0.0
  0
LINE
  5
41C
330
1F
100
AcDbEntity
  8
LC-001-100-D00-0
 62
     7
370
    50
100
AcDbLine
 10
164.336367
 20
221.700357
 30
0.0
 11
164.336367
 21
220.700357
 31
0.0
  0
LINE
  5
41D
330
1F
100
AcDbEntity
  8
LC-001-100-D00-0
 62
     7
370
    50
100
AcDbLine
 10
166.336367
 20
221.700357
 30
0.0
 11
164.336367
 21
221.700357
 31
0.0
  0
LINE
  5
41E
330
1F
100
AcDbEntity
  8
LC-001-100-D00-0
 62
     7
370
    50
100
AcDbLine
 10
166.336367
 20
225.200356
 30
0.0
 11
166.336367
 21
221.700357
 31
0.0
  0
LINE
  5
41F
330
1F
100
AcDbEntity
  8
LC-001-100-D00-0
 62
     7
370
    50
100
AcDbLine
 10
166.336367
 20
225.200356
 30
0.0
 11
164.336367
 21
225.200356
 31
0.0
  0
LINE
  5
420
330
1F
100
AcDbEntity
  8
LC-001-100-D00-0
 62
     7
370
    50
100
AcDbLine
 10
164.336367
 20
225.200356
 30
0.0
 11
164.336367
 21
226.700356
 31
0.0
  0
LINE
  5
421
330
1F
100
AcDbEntity
  8
LC-001-100-D00-0
 62
     7
370
    50
100
AcDbLine
 10
189.336367
 20
226.700356
 30
0.0
 11
164.336367
 21
226.700356
 31
0.0
  0
ARC
  5
422
330
1F
100
AcDbEntity
  8
LC-001-100-D00-0
 62
     7
370
    50
100
AcDbCircle
 10
189.336367
 20
224.700357
 30
0.0
 40
2.000000000000057
100
AcDbArc
 50
0.0
 51
90.0
  0
LINE
  5
423
330
1F
100
AcDbEntity
  8
LC-001-100-D00-0
 62
     7
370
    50
100
AcDbLine
 10
230.336368
 20
160.800358
 30
0.0
 11
246.336367
 21
160.800358
 31
0.0
  0
LINE
  5
424
330
1F
100
AcDbEntity
  8
LC-001-100-D00-0
 62
     7
370
    50
100
AcDbLine
 10
191.336368
 20
160.800358
 30
0.0
 11
207.336366
 21
160.800358
 31
0.0
  0
LINE
  5
425
330
1F
100
AcDbEntity
  8
LC-001-100-D00-0
 62
     7
370
    50
100
AcDbLine
 10
189.336367
 20
226.700356
 30
0.0
 11
207.336366
 21
226.700356
 31
0.0
  0
LINE
  5
426
330
1F
100
AcDbEntity
  8
LC-001-100-D00-0
 62
     7
370
    50
100
AcDbLine
 10
230.336368
 20
226.700356
 30
0.0
 11
248.336364
 21
226.700356
 31
0.0
  0
LINE
  5
427
330
1F
100
AcDbEntity
  8
LC-001-100-D00-0
 62
     7
370
    50
100
AcDbLine
 10
207.336366
 20
160.800358
 30
0.0
 11
230.336368
 21
160.800358
 31
0.0
  0
LINE
  5
428
330
1F
100
AcDbEntity
  8
LC-001-100-D00-0
 62
     7
370
    50
100
AcDbLine
 10
207.336366
 20
226.700356
 30
0.0
 11
230.336368
 21
226.700356
 31
0.0
  0
CIRCLE
  5
429
330
1F
100
AcDbEntity
  8
LC-001-100-D00-0
 62
     7
370
    50
100
AcDbCircle
 10
330.084163
 20
141.700357
 30
0.0
 40
2.0
  0
CIRCLE
  5
42A
330
1F
100
AcDbEntity
  8
LC-001-100-D00-0
 62
     7
370
    50
100
AcDbCircle
 10
330.084163
 20
195.700357
 30
0.0
 40
2.0
  0
LINE
  5
42B
330
1F
100
AcDbEntity
  8
LC-001-100-D00-0
 62
     7
370
    50
100
AcDbLine
 10
68.836365
 20
246.200358
 30
0.0
 11
68.836365
 21
245.700357
 31
0.0
  0
LINE
  5
42C
330
1F
100
AcDbEntity
  8
LC-001-100-D00-0
 62
     7
370
    50
100
AcDbLine
 10
22.836369
 20
246.200358
 30
0.0
 11
22.836369
 21
245.700357
 31
0.0
  0
LINE
  5
42D
330
1F
100
AcDbEntity
  8
LC-001-100-D00-0
 62
     7
370
    50
100
AcDbLine
 10
68.836365
 20
246.200358
 30
0.0
 11
22.836369
 21
246.200358
 31
0.0
  0
LINE
  5
42E
330
1F
100
AcDbEntity
  8
LC-001-100-D00-0
 62
     7
370
    50
100
AcDbLine
 10
68.836365
 20
245.700357
 30
0.0
 11
22.836369
 21
245.700357
 31
0.0
  0
LINE
  5
42F
330
1F
100
AcDbEntity
  8
LC-001-100-D00-0
 62
     7
370
    50
100
AcDbLine
 10
368.83637
 20
245.700357
 30
0.0
 11
368.83637
 21
246.200358
 31
0.0
  0
LINE
  5
430
330
1F
100
AcDbEntity
  8
LC-001-100-D00-0
 62
     7
370
    50
100
AcDbLine
 10
414.836373
 20
245.700357
 30
0.0
 11
414.836373
 21
246.200358
 31
0.0
  0
LINE
  5
431
330
1F
100
AcDbEntity
  8
LC-001-100-D00-0
 62
     7
370
    50
100
AcDbLine
 10
414.836373
 20
246.200358
 30
0.0
 11
368.83637
 21
246.200358
 31
0.0
  0
LINE
  5
432
330
1F
100
AcDbEntity
  8
LC-001-100-D00-0
 62
     7
370
    50
100
AcDbLine
 10
414.836373
 20
245.700357
 30
0.0
 11
368.83637
 21
245.700357
 31
0.0
  0
LINE
  5
433
330
1F
100
AcDbEntity
  8
LC-001-100-D00-0
 62
     7
370
    50
100
AcDbLine
 10
68.836365
 20
246.200358
 30
0.0
 11
70.836369
 21
246.200358
 31
0.0
  0
LINE
  5
434
330
1F
100
AcDbEntity
  8
LC-001-100-D00-0
 62
     7
370
    50
100
AcDbLine
 10
366.836366
 20
246.200358
 30
0.0
 11
368.83637
 21
246.200358
 31
0.0
  0
LINE
  5
435
330
1F
100
AcDbEntity
  8
LC-001-100-D00-0
 62
     7
370
    50
100
AcDbLine
 10
69.301676
 20
245.700357
 30
0.0
 11
70.836369
 21
245.700357
 31
0.0
  0
LINE
  5
436
330
1F
100
AcDbEntity
  8
LC-001-100-D00-0
 62
     7
370
    50
100
AcDbLine
 10
366.836366
 20
245.700357
 30
0.0
 11
368.371066
 21
245.700357
 31
0.0
  0
LINE
  5
437
330
1F
100
AcDbEntity
  8
LC-001-100-D00-0
 62
     7
370
    50
100
AcDbLine
 10
92.485514
 20
226.900355
 30
0.0
 11
92.485514
 21
224.700357
 31
0.0
  0
LINE
  5
438
330
1F
100
AcDbEntity
  8
LC-001-100-D00-0
 62
     7
370
    50
100
AcDbLine
 10
94.086368
 20
226.900355
 30
0.0
 11
92.485514
 21
226.900355
 31
0.0
  0
LINE
  5
439
330
1F
100
AcDbEntity
  8
LC-001-100-D00-0
 62
     7
370
    50
100
AcDbLine
 10
94.086368
 20
229.700358
 30
0.0
 11
94.086368
 21
226.900355
 31
0.0
  0
LINE
  5
43A
330
1F
100
AcDbEntity
  8
LC-001-100-D00-0
 62
     7
370
    50
100
AcDbLine
 10
94.086368
 20
229.700358
 30
0.0
 11
92.485514
 21
229.700358
 31
0.0
  0
LINE
  5
43B
330
1F
100
AcDbEntity
  8
LC-001-100-D00-0
 62
     7
370
    50
100
AcDbLine
 10
92.485514
 20
231.200357
 30
0.0
 11
92.485514
 21
229.700358
 31
0.0
  0
LINE
  5
43C
330
1F
100
AcDbEntity
  8
LC-001-100-D00-0
 62
     7
370
    50
100
AcDbLine
 10
94.836366
 20
231.200357
 30
0.0
 11
92.485514
 21
231.200357
 31
0.0
  0
LINE
  5
43D
330
1F
100
AcDbEntity
  8
LC-001-100-D00-0
 62
     7
370
    50
100
AcDbLine
 10
94.836366
 20
244.751482
 30
0.0
 11
94.836366
 21
231.200357
 31
0.0
  0
LINE
  5
43E
330
1F
100
AcDbEntity
  8
LC-001-100-D00-0
 62
     7
370
    50
100
AcDbLine
 10
101.836365
 20
246.200358
 30
0.0
 11
95.836368
 21
246.200358
 31
0.0
  0
LINE
  5
43F
330
1F
100
AcDbEntity
  8
LC-001-100-D00-0
 62
     7
370
    50
100
AcDbLine
 10
102.836367
 20
231.200357
 30
0.0
 11
102.836367
 21
244.700359
 31
0.0
  0
LINE
  5
440
330
1F
100
AcDbEntity
  8
LC-001-100-D00-0
 62
     7
370
    50
100
AcDbLine
 10
105.187219
 20
231.200357
 30
0.0
 11
102.836367
 21
231.200357
 31
0.0
  0
LINE
  5
441
330
1F
100
AcDbEntity
  8
LC-001-100-D00-0
 62
     7
370
    50
100
AcDbLine
 10
105.187219
 20
229.700358
 30
0.0
 11
105.187219
 21
231.200357
 31
0.0
  0
LINE
  5
442
330
1F
100
AcDbEntity
  8
LC-001-100-D00-0
 62
     7
370
    50
100
AcDbLine
 10
105.187219
 20
229.700358
 30
0.0
 11
103.586365
 21
229.700358
 31
0.0
  0
LINE
  5
443
330
1F
100
AcDbEntity
  8
LC-001-100-D00-0
 62
     7
370
    50
100
AcDbLine
 10
103.586365
 20
226.900355
 30
0.0
 11
103.586365
 21
229.700358
 31
0.0
  0
LINE
  5
444
330
1F
100
AcDbEntity
  8
LC-001-100-D00-0
 62
     7
370
    50
100
AcDbLine
 10
105.187219
 20
226.900355
 30
0.0
 11
103.586365
 21
226.900355
 31
0.0
  0
LINE
  5
445
330
1F
100
AcDbEntity
  8
LC-001-100-D00-0
 62
     7
370
    50
100
AcDbLine
 10
105.187219
 20
224.700357
 30
0.0
 11
105.187219
 21
226.900355
 31
0.0
  0
LINE
  5
446
330
1F
100
AcDbEntity
  8
LC-001-100-D00-0
 62
     7
370
    50
100
AcDbLine
 10
105.187219
 20
224.700357
 30
0.0
 11
92.485514
 21
224.700357
 31
0.0
  0
LINE
  5
447
330
1F
100
AcDbEntity
  8
LC-001-100-D00-0
 62
     7
370
    50
100
AcDbLine
 10
332.485508
 20
226.900355
 30
0.0
 11
332.485508
 21
224.700357
 31
0.0
  0
LINE
  5
448
330
1F
100
AcDbEntity
  8
LC-001-100-D00-0
 62
     7
370
    50
100
AcDbLine
 10
334.08637
 20
226.900355
 30
0.0
 11
332.485508
 21
226.900355
 31
0.0
  0
LINE
  5
449
330
1F
100
AcDbEntity
  8
LC-001-100-D00-0
 62
     7
370
    50
100
AcDbLine
 10
334.08637
 20
229.700358
 30
0.0
 11
334.08637
 21
226.900355
 31
0.0
  0
LINE
  5
44A
330
1F
100
AcDbEntity
  8
LC-001-100-D00-0
 62
     7
370
    50
100
AcDbLine
 10
334.08637
 20
229.700358
 30
0.0
 11
332.485508
 21
229.700358
 31
0.0
  0
LINE
  5
44B
330
1F
100
AcDbEntity
  8
LC-001-100-D00-0
 62
     7
370
    50
100
AcDbLine
 10
332.485508
 20
231.200357
 30
0.0
 11
332.485508
 21
229.700358
 31
0.0
  0
LINE
  5
44C
330
1F
100
AcDbEntity
  8
LC-001-100-D00-0
 62
     7
370
    50
100
AcDbLine
 10
334.83636
 20
231.200357
 30
0.0
 11
332.485508
 21
231.200357
 31
0.0
  0
LINE
  5
44D
330
1F
100
AcDbEntity
  8
LC-001-100-D00-0
 62
     7
370
    50
100
AcDbLine
 10
334.83636
 20
244.700359
 30
0.0
 11
334.83636
 21
231.200357
 31
0.0
  0
LINE
  5
44E
330
1F
100
AcDbEntity
  8
LC-001-100-D00-0
 62
     7
370
    50
100
AcDbLine
 10
341.836375
 20
246.200358
 30
0.0
 11
335.836362
 21
246.200358
 31
0.0
  0
LINE
  5
44F
330
1F
100
AcDbEntity
  8
LC-001-100-D00-0
 62
     7
370
    50
100
AcDbLine
 10
342.836362
 20
231.200357
 30
0.0
 11
342.836362
 21
244.700359
 31
0.0
  0
LINE
  5
450
330
1F
100
AcDbEntity
  8
LC-001-100-D00-0
 62
     7
370
    50
100
AcDbLine
 10
345.187214
 20
231.200357
 30
0.0
 11
342.836362
 21
231.200357
 31
0.0
  0
LINE
  5
451
330
1F
100
AcDbEntity
  8
LC-001-100-D00-0
 62
     7
370
    50
100
AcDbLine
 10
345.187214
 20
229.700358
 30
0.0
 11
345.187214
 21
231.200357
 31
0.0
  0
LINE
  5
452
330
1F
100
AcDbEntity
  8
LC-001-100-D00-0
 62
     7
370
    50
100
AcDbLine
 10
345.187214
 20
229.700358
 30
0.0
 11
343.586367
 21
229.700358
 31
0.0
  0
LINE
  5
453
330
1F
100
AcDbEntity
  8
LC-001-100-D00-0
 62
     7
370
    50
100
AcDbLine
 10
343.586367
 20
226.900355
 30
0.0
 11
343.586367
 21
229.700358
 31
0.0
  0
LINE
  5
454
330
1F
100
AcDbEntity
  8
LC-001-100-D00-0
 62
     7
370
    50
100
AcDbLine
 10
345.187214
 20
226.900355
 30
0.0
 11
343.586367
 21
226.900355
 31
0.0
  0
LINE
  5
455
330
1F
100
AcDbEntity
  8
LC-001-100-D00-0
 62
     7
370
    50
100
AcDbLine
 10
345.187214
 20
224.700357
 30
0.0
 11
345.187214
 21
226.900355
 31
0.0
  0
LINE
  5
456
330
1F
100
AcDbEntity
  8
LC-001-100-D00-0
 62
     7
370
    50
100
AcDbLine
 10
345.187214
 20
224.700357
 30
0.0
 11
332.485508
 21
224.700357
 31
0.0
  0
LINE
  5
457
330
1F
100
AcDbEntity
  8
LC-001-100-D00-0
 62
     7
370
    50
100
AcDbLine
 10
272.810612
 20
215.700358
 30
0.0
 11
274.136368
 21
215.700358
 31
0.0
  0
LINE
  5
458
330
1F
100
AcDbEntity
  8
LC-001-100-D00-0
 62
     7
370
    50
100
AcDbLine
 10
272.810612
 20
215.700358
 30
0.0
 11
272.810612
 21
218.700356
 31
0.0
  0
LINE
  5
459
330
1F
100
AcDbEntity
  8
LC-001-100-D00-0
 62
     7
370
    50
100
AcDbLine
 10
274.136368
 20
225.200356
 30
0.0
 11
273.33637
 21
225.200356
 31
0.0
  0
LINE
  5
45A
330
1F
100
AcDbEntity
  8
LC-001-100-D00-0
 62
     7
370
    50
100
AcDbLine
 10
274.136368
 20
225.200356
 30
0.0
 11
274.136368
 21
215.700358
 31
0.0
  0
LINE
  5
45B
330
1F
100
AcDbEntity
  8
LC-001-100-D00-0
 62
     7
370
    50
100
AcDbLine
 10
164.336367
 20
225.200356
 30
0.0
 11
163.536366
 21
225.200356
 31
0.0
  0
LINE
  5
45C
330
1F
100
AcDbEntity
  8
LC-001-100-D00-0
 62
     7
370
    50
100
AcDbLine
 10
164.862126
 20
215.700358
 30
0.0
 11
164.862126
 21
218.700356
 31
0.0
  0
LINE
  5
45D
330
1F
100
AcDbEntity
  8
LC-001-100-D00-0
 62
     7
370
    50
100
AcDbLine
 10
164.862126
 20
215.700358
 30
0.0
 11
163.536366
 21
215.700358
 31
0.0
  0
LINE
  5
45E
330
1F
100
AcDbEntity
  8
LC-001-100-D00-0
 62
     7
370
    50
100
AcDbLine
 10
163.536366
 20
215.700358
 30
0.0
 11
163.536366
 21
225.200356
 31
0.0
  0
LINE
  5
45F
330
1F
100
AcDbEntity
  8
LC-001-100-D00-0
 62
     7
370
    50
100
AcDbLine
 10
163.268417
 20
226.200358
 30
0.0
 11
163.536366
 21
225.200356
 31
0.0
  0
LINE
  5
460
330
1F
100
AcDbEntity
  8
LC-001-100-D00-0
 62
     7
370
    50
100
AcDbLine
 10
163.268417
 20
226.200358
 30
0.0
 11
164.336367
 21
226.200358
 31
0.0
  0
LINE
  5
461
330
1F
100
AcDbEntity
  8
LC-001-100-D00-0
 62
     7
370
    50
100
AcDbLine
 10
273.33637
 20
226.200358
 30
0.0
 11
274.404314
 21
226.200358
 31
0.0
  0
LINE
  5
462
330
1F
100
AcDbEntity
  8
LC-001-100-D00-0
 62
     7
370
    50
100
AcDbLine
 10
274.136368
 20
225.200356
 30
0.0
 11
274.404314
 21
226.200358
 31
0.0
  0
LINE
  5
463
330
1F
100
AcDbEntity
  8
LC-001-100-D00-0
 62
     7
370
    50
100
AcDbLine
 10
345.187214
 20
224.700357
 30
0.0
 11
345.187214
 21
231.200357
 31
0.0
  0
LINE
  5
464
330
1F
100
AcDbEntity
  8
LC-001-100-D00-0
 62
     7
370
    50
100
AcDbLine
 10
345.187214
 20
231.200357
 30
0.0
 11
367.836368
 21
231.200357
 31
0.0
  0
ARC
  5
465
330
1F
100
AcDbEntity
  8
LC-001-100-D00-0
 62
     7
370
    50
100
AcDbCircle
 10
367.836367
 20
232.200357
 30
0.0
 40
1.0
100
AcDbArc
 50
270.0
 51
0.0
  0
LINE
  5
466
330
1F
100
AcDbEntity
  8
LC-001-100-D00-0
 62
     7
370
    50
100
AcDbLine
 10
368.83637
 20
245.200356
 30
0.0
 11
368.83637
 21
232.200356
 31
0.0
  0
ARC
  5
467
330
1F
100
AcDbEntity
  8
LC-001-100-D00-0
 62
     7
370
    50
100
AcDbCircle
 10
369.836367
 20
245.200357
 30
0.0
 40
0.9999999999999836
100
AcDbArc
 50
150.0
 51
180.0
  0
LINE
  5
468
330
1F
100
AcDbEntity
  8
LC-001-100-D00-0
 62
     7
370
    50
100
AcDbLine
 10
414.836373
 20
245.700357
 30
0.0
 11
368.970346
 21
245.700357
 31
0.0
  0
LINE
  5
469
330
1F
100
AcDbEntity
  8
LC-001-100-D00-0
 62
     7
370
    50
100
AcDbLine
 10
418.836367
 20
246.200358
 30
0.0
 11
414.836373
 21
246.200358
 31
0.0
  0
LINE
  5
46A
330
1F
100
AcDbEntity
  8
LC-001-100-D00-0
 62
     7
370
    50
100
AcDbLine
 10
419.928279
 20
243.200356
 30
0.0
 11
418.836367
 21
246.200358
 31
0.0
  0
LINE
  5
46B
330
1F
100
AcDbEntity
  8
LC-001-100-D00-0
 62
     7
370
    50
100
AcDbLine
 10
419.928279
 20
243.200356
 30
0.0
 11
373.336371
 21
243.200356
 31
0.0
  0
ARC
  5
46C
330
1F
100
AcDbEntity
  8
LC-001-100-D00-0
 62
     7
370
    50
100
AcDbCircle
 10
373.336367
 20
241.700357
 30
0.0
 40
1.5
100
AcDbArc
 50
90.0
 51
180.0
  0
LINE
  5
46D
330
1F
100
AcDbEntity
  8
LC-001-100-D00-0
 62
     7
370
    50
100
AcDbLine
 10
371.836361
 20
241.700356
 30
0.0
 11
371.836361
 21
232.200356
 31
0.0
  0
ARC
  5
46E
330
1F
100
AcDbEntity
  8
LC-001-100-D00-0
 62
     7
370
    50
100
AcDbCircle
 10
367.836367
 20
232.200357
 30
0.0
 40
4.0
100
AcDbArc
 50
270.0
 51
0.0
  0
LINE
  5
46F
330
1F
100
AcDbEntity
  8
LC-001-100-D00-0
 62
     7
370
    50
100
AcDbLine
 10
348.586362
 20
228.200359
 30
0.0
 11
367.836368
 21
228.200359
 31
0.0
  0
LINE
  5
470
330
1F
100
AcDbEntity
  8
LC-001-100-D00-0
 62
     7
370
    50
100
AcDbLine
 10
348.586362
 20
223.200356
 30
0.0
 11
348.586362
 21
228.200359
 31
0.0
  0
LINE
  5
471
330
1F
100
AcDbEntity
  8
LC-001-100-D00-0
 62
     7
370
    50
100
AcDbLine
 10
348.586362
 20
223.200356
 30
0.0
 11
346.586373
 21
221.200358
 31
0.0
  0
LINE
  5
472
330
1F
100
AcDbEntity
  8
LC-001-100-D00-0
 62
     7
370
    50
100
AcDbLine
 10
346.586373
 20
221.200358
 30
0.0
 11
331.086364
 21
221.200358
 31
0.0
  0
LINE
  5
473
330
1F
100
AcDbEntity
  8
LC-001-100-D00-0
 62
     7
370
    50
100
AcDbLine
 10
331.086364
 20
221.200358
 30
0.0
 11
329.08636
 21
223.200356
 31
0.0
  0
LINE
  5
474
330
1F
100
AcDbEntity
  8
LC-001-100-D00-0
 62
     7
370
    50
100
AcDbLine
 10
329.08636
 20
228.200359
 30
0.0
 11
329.08636
 21
223.200356
 31
0.0
  0
LINE
  5
475
330
1F
100
AcDbEntity
  8
LC-001-100-D00-0
 62
     7
370
    50
100
AcDbLine
 10
309.780594
 20
228.200359
 30
0.0
 11
329.08636
 21
228.200359
 31
0.0
  0
ARC
  5
476
330
1F
100
AcDbEntity
  8
LC-001-100-D00-0
 62
     7
370
    50
100
AcDbCircle
 10
309.780596
 20
227.200357
 30
0.0
 40
1.0
100
AcDbArc
 50
90.0
 51
115.0
  0
LINE
  5
477
330
1F
100
AcDbEntity
  8
LC-001-100-D00-0
 62
     7
370
    50
100
AcDbLine
 10
298.836369
 20
223.200356
 30
0.0
 11
309.357982
 21
228.106664
 31
0.0
  0
LINE
  5
478
330
1F
100
AcDbEntity
  8
LC-001-100-D00-0
 62
     7
370
    50
100
AcDbLine
 10
298.836369
 20
223.200356
 30
0.0
 11
293.336366
 21
223.200356
 31
0.0
  0
ARC
  5
479
330
1F
100
AcDbEntity
  8
LC-001-100-D00-0
 62
     7
370
    50
100
AcDbCircle
 10
293.336367
 20
222.200357
 30
0.0
 40
1.0
100
AcDbArc
 50
90.0
 51
180.0
  0
LINE
  5
47A
330
1F
100
AcDbEntity
  8
LC-001-100-D00-0
 62
     7
370
    50
100
AcDbLine
 10
292.336364
 20
194.200357
 30
0.0
 11
292.336364
 21
222.200358
 31
0.0
  0
LINE
  5
47B
330
1F
100
AcDbEntity
  8
LC-001-100-D00-0
 62
     7
370
    50
100
AcDbLine
 10
292.336364
 20
194.200357
 30
0.0
 11
289.336365
 21
194.200357
 31
0.0
  0
LINE
  5
47C
330
1F
100
AcDbEntity
  8
LC-001-100-D00-0
 62
     7
370
    50
100
AcDbLine
 10
289.336365
 20
194.200357
 30
0.0
 11
289.336365
 21
222.200358
 31
0.0
  0
ARC
  5
47D
330
1F
100
AcDbEntity
  8
LC-001-100-D00-0
 62
     7
370
    50
100
AcDbCircle
 10
288.336367
 20
222.200357
 30
0.0
 40
1.0
100
AcDbArc
 50
0.0
 51
90.0
  0
LINE
  5
47E
330
1F
100
AcDbEntity
  8
LC-001-100-D00-0
 62
     7
370
    50
100
AcDbLine
 10
288.33637
 20
223.200356
 30
0.0
 11
278.336365
 21
223.200356
 31
0.0
  0
LINE
  5
47F
330
1F
100
AcDbEntity
  8
LC-001-100-D00-0
 62
     7
370
    50
100
AcDbLine
 10
278.336365
 20
223.200356
 30
0.0
 11
278.336365
 21
215.700358
 31
0.0
  0
LINE
  5
480
330
1F
100
AcDbEntity
  8
LC-001-100-D00-0
 62
     7
370
    50
100
AcDbLine
 10
278.336365
 20
215.700358
 30
0.0
 11
274.136368
 21
215.700358
 31
0.0
  0
LINE
  5
481
330
1F
100
AcDbEntity
  8
LC-001-100-D00-0
 62
     7
370
    50
100
AcDbLine
 10
298.171286
 20
226.200358
 30
0.0
 11
308.090117
 21
230.82559
 31
0.0
  0
ARC
  5
482
330
1F
100
AcDbEntity
  8
LC-001-100-D00-0
 62
     7
370
    50
100
AcDbCircle
 10
309.780596
 20
227.200357
 30
0.0
 40
4.0
100
AcDbArc
 50
90.0
 51
115.0
  0
LINE
  5
483
330
1F
100
AcDbEntity
  8
LC-001-100-D00-0
 62
     7
370
    50
100
AcDbLine
 10
309.780594
 20
231.200357
 30
0.0
 11
332.485508
 21
231.200357
 31
0.0
  0
LINE
  5
484
330
1F
100
AcDbEntity
  8
LC-001-100-D00-0
 62
     7
370
    50
100
AcDbLine
 10
332.485508
 20
224.700357
 30
0.0
 11
332.485508
 21
231.200357
 31
0.0
  0
LINE
  5
485
330
1F
100
AcDbEntity
  8
LC-001-100-D00-0
 62
     7
370
    50
100
AcDbLine
 10
298.171286
 20
226.200358
 30
0.0
 11
274.404314
 21
226.200358
 31
0.0
  0
LINE
  5
486
330
1F
100
AcDbEntity
  8
LC-001-100-D00-0
 62
     7
370
    50
100
AcDbLine
 10
105.187219
 20
224.700357
 30
0.0
 11
105.187219
 21
231.200357
 31
0.0
  0
LINE
  5
487
330
1F
100
AcDbEntity
  8
LC-001-100-D00-0
 62
     7
370
    50
100
AcDbLine
 10
105.187219
 20
231.200357
 30
0.0
 11
127.892137
 21
231.200357
 31
0.0
  0
ARC
  5
488
330
1F
100
AcDbEntity
  8
LC-001-100-D00-0
 62
     7
370
    50
100
AcDbCircle
 10
127.892138
 20
227.200357
 30
0.0
 40
4.000000000000002
100
AcDbArc
 50
65.0
 51
90.0
  0
LINE
  5
489
330
1F
100
AcDbEntity
  8
LC-001-100-D00-0
 62
     7
370
    50
100
AcDbLine
 10
129.58261
 20
230.82559
 30
0.0
 11
139.501453
 21
226.200358
 31
0.0
  0
LINE
  5
48A
330
1F
100
AcDbEntity
  8
LC-001-100-D00-0
 62
     7
370
    50
100
AcDbLine
 10
163.536366
 20
215.700358
 30
0.0
 11
159.336368
 21
215.700358
 31
0.0
  0
LINE
  5
48B
330
1F
100
AcDbEntity
  8
LC-001-100-D00-0
 62
     7
370
    50
100
AcDbLine
 10
159.336368
 20
215.700358
 30
0.0
 11
159.336368
 21
223.200356
 31
0.0
  0
LINE
  5
48C
330
1F
100
AcDbEntity
  8
LC-001-100-D00-0
 62
     7
370
    50
100
AcDbLine
 10
159.336368
 20
223.200356
 30
0.0
 11
149.336368
 21
223.200356
 31
0.0
  0
ARC
  5
48D
330
1F
100
AcDbEntity
  8
LC-001-100-D00-0
 62
     7
370
    50
100
AcDbCircle
 10
149.336367
 20
222.200357
 30
0.0
 40
1.0
100
AcDbArc
 50
90.0
 51
180.0
  0
LINE
  5
48E
330
1F
100
AcDbEntity
  8
LC-001-100-D00-0
 62
     7
370
    50
100
AcDbLine
 10
148.336366
 20
222.200358
 30
0.0
 11
148.336366
 21
194.200357
 31
0.0
  0
LINE
  5
48F
330
1F
100
AcDbEntity
  8
LC-001-100-D00-0
 62
     7
370
    50
100
AcDbLine
 10
148.336366
 20
194.200357
 30
0.0
 11
145.336367
 21
194.200357
 31
0.0
  0
LINE
  5
490
330
1F
100
AcDbEntity
  8
LC-001-100-D00-0
 62
     7
370
    50
100
AcDbLine
 10
145.336367
 20
222.200358
 30
0.0
 11
145.336367
 21
194.200357
 31
0.0
  0
ARC
  5
491
330
1F
100
AcDbEntity
  8
LC-001-100-D00-0
 62
     7
370
    50
100
AcDbCircle
 10
144.336367
 20
222.200357
 30
0.0
 40
1.0
100
AcDbArc
 50
0.0
 51
90.0
  0
LINE
  5
492
330
1F
100
AcDbEntity
  8
LC-001-100-D00-0
 62
     7
370
    50
100
AcDbLine
 10
144.336365
 20
223.200356
 30
0.0
 11
138.836365
 21
223.200356
 31
0.0
  0
LINE
  5
493
330
1F
100
AcDbEntity
  8
LC-001-100-D00-0
 62
     7
370
    50
100
AcDbLine
 10
128.314756
 20
228.106664
 30
0.0
 11
138.836365
 21
223.200356
 31
0.0
  0
ARC
  5
494
330
1F
100
AcDbEntity
  8
LC-001-100-D00-0
 62
     7
370
    50
100
AcDbCircle
 10
127.892138
 20
227.200357
 30
0.0
 40
1.000000000000013
100
AcDbArc
 50
65.0
 51
90.0
  0
LINE
  5
495
330
1F
100
AcDbEntity
  8
LC-001-100-D00-0
 62
     7
370
    50
100
AcDbLine
 10
108.586367
 20
228.200359
 30
0.0
 11
127.892137
 21
228.200359
 31
0.0
  0
LINE
  5
496
330
1F
100
AcDbEntity
  8
LC-001-100-D00-0
 62
     7
370
    50
100
AcDbLine
 10
108.586367
 20
228.200359
 30
0.0
 11
108.586367
 21
223.200356
 31
0.0
  0
LINE
  5
497
330
1F
100
AcDbEntity
  8
LC-001-100-D00-0
 62
     7
370
    50
100
AcDbLine
 10
108.586367
 20
223.200356
 30
0.0
 11
106.586371
 21
221.200358
 31
0.0
  0
LINE
  5
498
330
1F
100
AcDbEntity
  8
LC-001-100-D00-0
 62
     7
370
    50
100
AcDbLine
 10
106.586371
 20
221.200358
 30
0.0
 11
91.086369
 21
221.200358
 31
0.0
  0
LINE
  5
499
330
1F
100
AcDbEntity
  8
LC-001-100-D00-0
 62
     7
370
    50
100
AcDbLine
 10
91.086369
 20
221.200358
 30
0.0
 11
89.086365
 21
223.200356
 31
0.0
  0
LINE
  5
49A
330
1F
100
AcDbEntity
  8
LC-001-100-D00-0
 62
     7
370
    50
100
AcDbLine
 10
89.086365
 20
223.200356
 30
0.0
 11
89.086365
 21
228.200359
 31
0.0
  0
LINE
  5
49B
330
1F
100
AcDbEntity
  8
LC-001-100-D00-0
 62
     7
370
    50
100
AcDbLine
 10
69.836367
 20
228.200359
 30
0.0
 11
89.086365
 21
228.200359
 31
0.0
  0
ARC
  5
49C
330
1F
100
AcDbEntity
  8
LC-001-100-D00-0
 62
     7
370
    50
100
AcDbCircle
 10
69.836367
 20
232.200357
 30
0.0
 40
4.0
100
AcDbArc
 50
180.0
 51
270.0
  0
LINE
  5
49D
330
1F
100
AcDbEntity
  8
LC-001-100-D00-0
 62
     7
370
    50
100
AcDbLine
 10
65.836367
 20
232.200356
 30
0.0
 11
65.836367
 21
241.700356
 31
0.0
  0
ARC
  5
49E
330
1F
100
AcDbEntity
  8
LC-001-100-D00-0
 62
     7
370
    50
100
AcDbCircle
 10
64.336367
 20
241.700357
 30
0.0
 40
1.5
100
AcDbArc
 50
0.0
 51
90.0
  0
LINE
  5
49F
330
1F
100
AcDbEntity
  8
LC-001-100-D00-0
 62
     7
370
    50
100
AcDbLine
 10
64.336371
 20
243.200356
 30
0.0
 11
17.744463
 21
243.200356
 31
0.0
  0
LINE
  5
4A0
330
1F
100
AcDbEntity
  8
LC-001-100-D00-0
 62
     7
370
    50
100
AcDbLine
 10
18.836361
 20
246.200358
 30
0.0
 11
17.744463
 21
243.200356
 31
0.0
  0
LINE
  5
4A1
330
1F
100
AcDbEntity
  8
LC-001-100-D00-0
 62
     7
370
    50
100
AcDbLine
 10
22.836369
 20
246.200358
 30
0.0
 11
18.836361
 21
246.200358
 31
0.0
  0
LINE
  5
4A2
330
1F
100
AcDbEntity
  8
LC-001-100-D00-0
 62
     7
370
    50
100
AcDbLine
 10
68.702396
 20
245.700357
 30
0.0
 11
22.836369
 21
245.700357
 31
0.0
  0
ARC
  5
4A3
330
1F
100
AcDbEntity
  8
LC-001-100-D00-0
 62
     7
370
    50
100
AcDbCircle
 10
67.836367
 20
245.200357
 30
0.0
 40
1.0
100
AcDbArc
 50
0.0
 51
30.0
  0
LINE
  5
4A4
330
1F
100
AcDbEntity
  8
LC-001-100-D00-0
 62
     7
370
    50
100
AcDbLine
 10
68.836365
 20
232.200356
 30
0.0
 11
68.836365
 21
245.200356
 31
0.0
  0
ARC
  5
4A5
330
1F
100
AcDbEntity
  8
LC-001-100-D00-0
 62
     7
370
    50
100
AcDbCircle
 10
69.836367
 20
232.200357
 30
0.0
 40
1.0
100
AcDbArc
 50
180.0
 51
270.0
  0
LINE
  5
4A6
330
1F
100
AcDbEntity
  8
LC-001-100-D00-0
 62
     7
370
    50
100
AcDbLine
 10
69.836367
 20
231.200357
 30
0.0
 11
92.485514
 21
231.200357
 31
0.0
  0
LINE
  5
4A7
330
1F
100
AcDbEntity
  8
LC-001-100-D00-0
 62
     7
370
    50
100
AcDbLine
 10
92.485514
 20
224.700357
 30
0.0
 11
92.485514
 21
231.200357
 31
0.0
  0
LINE
  5
4A8
330
1F
100
AcDbEntity
  8
LC-001-100-D00-0
 62
     7
370
    50
100
AcDbLine
 10
163.268417
 20
226.200358
 30
0.0
 11
139.501453
 21
226.200358
 31
0.0
  0
LINE
  5
4A9
330
1F
100
AcDbEntity
  8
LC-001-100-D00-0
 62
     7
370
    50
100
AcDbLine
 10
270.101387
 20
194.200357
 30
0.0
 11
289.336365
 21
194.200357
 31
0.0
  0
LINE
  5
4AA
330
1F
100
AcDbEntity
  8
LC-001-100-D00-0
 62
     7
370
    50
100
AcDbLine
 10
148.336366
 20
194.200357
 30
0.0
 11
167.571347
 21
194.200357
 31
0.0
  0
LINE
  5
4AB
330
1F
100
AcDbEntity
  8
LC-001-100-D00-0
 62
     7
370
    50
100
AcDbLine
 10
10.836374
 20
246.200358
 30
0.0
 11
3.83636
 21
246.200358
 31
0.0
  0
LINE
  5
4AC
330
1F
100
AcDbEntity
  8
LC-001-100-D00-0
 62
     7
370
    50
100
AcDbLine
 10
11.928272
 20
243.200356
 30
0.0
 11
10.836374
 21
246.200358
 31
0.0
  0
LINE
  5
4AD
330
1F
100
AcDbEntity
  8
LC-001-100-D00-0
 62
     7
370
    50
100
AcDbLine
 10
3.83636
 20
243.200356
 30
0.0
 11
3.83636
 21
246.200358
 31
0.0
  0
LINE
  5
4AE
330
1F
100
AcDbEntity
  8
LC-001-100-D00-0
 62
     7
370
    50
100
AcDbLine
 10
11.928272
 20
243.200356
 30
0.0
 11
3.83636
 21
243.200356
 31
0.0
  0
LINE
  5
4AF
330
1F
100
AcDbEntity
  8
LC-001-100-D00-0
 62
     7
370
    50
100
AcDbLine
 10
426.836368
 20
246.200358
 30
0.0
 11
425.744456
 21
243.200356
 31
0.0
  0
LINE
  5
4B0
330
1F
100
AcDbEntity
  8
LC-001-100-D00-0
 62
     7
370
    50
100
AcDbLine
 10
433.836367
 20
246.200358
 30
0.0
 11
426.836368
 21
246.200358
 31
0.0
  0
LINE
  5
4B1
330
1F
100
AcDbEntity
  8
LC-001-100-D00-0
 62
     7
370
    50
100
AcDbLine
 10
433.836367
 20
246.200358
 30
0.0
 11
433.836367
 21
243.200356
 31
0.0
  0
LINE
  5
4B2
330
1F
100
AcDbEntity
  8
LC-001-100-D00-0
 62
     7
370
    50
100
AcDbLine
 10
433.836367
 20
243.200356
 30
0.0
 11
425.744456
 21
243.200356
 31
0.0
  0
LINE
  5
4B3
330
1F
100
AcDbEntity
  8
LC-001-100-D00-0
 62
     7
370
    50
100
AcDbLine
 10
165.086367
 20
215.700358
 30
0.0
 11
164.862126
 21
215.700358
 31
0.0
  0
LINE
  5
4B4
330
1F
100
AcDbEntity
  8
LC-001-100-D00-0
 62
     7
370
    50
100
AcDbLine
 10
272.586365
 20
215.700358
 30
0.0
 11
272.810612
 21
215.700358
 31
0.0
  0
LINE
  5
4B5
330
1F
100
AcDbEntity
  8
LC-001-100-D00-0
 62
     7
370
    50
100
AcDbLine
 10
184.026633
 20
218.700356
 30
0.0
 11
171.045568
 21
218.700356
 31
0.0
  0
LINE
  5
4B6
330
1F
100
AcDbEntity
  8
LC-001-100-D00-0
 62
     7
370
    50
100
AcDbLine
 10
184.026633
 20
215.700358
 30
0.0
 11
175.109369
 21
215.700358
 31
0.0
  0
LINE
  5
4B7
330
1F
100
AcDbEntity
  8
LC-001-100-D00-0
 62
     7
370
    50
100
AcDbLine
 10
253.646102
 20
218.700356
 30
0.0
 11
266.627167
 21
218.700356
 31
0.0
  0
LINE
  5
4B8
330
1F
100
AcDbEntity
  8
LC-001-100-D00-0
 62
     7
370
    50
100
AcDbLine
 10
253.646102
 20
215.700358
 30
0.0
 11
262.563367
 21
215.700358
 31
0.0
  0
LINE
  5
4B9
330
1F
100
AcDbEntity
  8
LC-001-100-D00-0
 62
     7
370
    50
100
AcDbLine
 10
65.836367
 20
231.937198
 30
0.0
 11
65.836367
 21
229.982031
 31
0.0
  0
LINE
  5
4BA
330
1F
100
AcDbEntity
  8
LC-001-100-D00-0
 62
     7
370
    50
100
AcDbLine
 10
371.836361
 20
231.937198
 30
0.0
 11
371.836361
 21
229.982031
 31
0.0
  0
LINE
  5
4BB
330
1F
100
AcDbEntity
  8
LC-001-100-D00-0
 62
     7
370
    50
100
AcDbLine
 10
18.836361
 20
246.200358
 30
0.0
 11
10.836374
 21
246.200358
 31
0.0
  0
LINE
  5
4BC
330
1F
100
AcDbEntity
  8
LC-001-100-D00-0
 62
     7
370
    50
100
AcDbLine
 10
17.744463
 20
243.200356
 30
0.0
 11
11.928272
 21
243.200356
 31
0.0
  0
LINE
  5
4BD
330
1F
100
AcDbEntity
  8
LC-001-100-D00-0
 62
     7
370
    50
100
AcDbLine
 10
426.836368
 20
246.200358
 30
0.0
 11
418.836367
 21
246.200358
 31
0.0
  0
LINE
  5
4BE
330
1F
100
AcDbEntity
  8
LC-001-100-D00-0
 62
     7
370
    50
100
AcDbLine
 10
425.744456
 20
243.200356
 30
0.0
 11
419.928279
 21
243.200356
 31
0.0
  0
INSERT
  5
4C4
330
1F
100
AcDbEntity
  8
LC-001-100-D00-0
 62
     7
370
    50
100
AcDbBlockReference
  2
KLON1
 10
0.0
 20
0.0
 30
0.0
  0
INSERT
  5
4CA
330
1F
100
AcDbEntity
  8
LC-001-100-D00-0
 62
     7
370
    50
100
AcDbBlockReference
  2
KLON2
 10
0.0
 20
0.0
 30
0.0
  0
INSERT
  5
4D6
330
1F
100
AcDbEntity
  8
LC-001-100-D00-0
 62
     7
370
    50
100
AcDbBlockReference
  2
POLY23
 10
0.0
 20
0.0
 30
0.0
  0
INSERT
  5
4E2
330
1F
100
AcDbEntity
  8
LC-001-100-D00-0
 62
     7
370
    50
100
AcDbBlockReference
  2
POLY24
 10
0.0
 20
0.0
 30
0.0
  0
ARC
  5
4E3
330
1F
100
AcDbEntity
  8
LC-001-100-D00-0
 62
     7
370
    50
100
AcDbCircle
 10
69.836367
 20
229.878293
 30
0.0
 40
4.0
100
AcDbArc
 50
180.0
 51
267.779919
  0
ARC
  5
4E4
330
1F
100
AcDbEntity
  8
LC-001-100-D00-0
 62
     7
370
    50
100
AcDbCircle
 10
367.836367
 20
229.878293
 30
0.0
 40
4.0
100
AcDbArc
 50
272.220081
 51
0.0
  0
LINE
  5
4E5
330
1F
100
AcDbEntity
  8
LC-001-100-D00-0
 62
     7
370
    50
100
AcDbLine
 10
252.836366
 20
215.700358
 30
0.0
 11
252.836366
 21
218.700356
 31
0.0
  0
LINE
  5
4E6
330
1F
100
AcDbEntity
  8
LC-001-100-D00-0
 62
     7
370
    50
100
AcDbLine
 10
252.836366
 20
218.700356
 30
0.0
 11
253.646102
 21
218.700356
 31
0.0
  0
LINE
  5
4E7
330
1F
100
AcDbEntity
  8
LC-001-100-D00-0
 62
     7
370
    50
100
AcDbLine
 10
253.646102
 20
215.700358
 30
0.0
 11
252.836366
 21
215.700358
 31
0.0
  0
LINE
  5
4E8
330
1F
100
AcDbEntity
  8
LC-001-100-D00-0
 62
     7
370
    50
100
AcDbLine
 10
184.836367
 20
218.700356
 30
0.0
 11
184.836367
 21
215.700358
 31
0.0
  0
LINE
  5
4E9
330
1F
100
AcDbEntity
  8
LC-001-100-D00-0
 62
     7
370
    50
100
AcDbLine
 10
184.026633
 20
218.700356
 30
0.0
 11
184.836367
 21
218.700356
 31
0.0
  0
LINE
  5
4EA
330
1F
100
AcDbEntity
  8
LC-001-100-D00-0
 62
     7
370
    50
100
AcDbLine
 10
184.836367
 20
215.700358
 30
0.0
 11
184.026633
 21
215.700358
 31
0.0
  0
INSERT
  5
4F3
330
1F
100
AcDbEntity
  8
LC-001-100-D00-0
 62
     7
370
    50
100
AcDbBlockReference
  2
KLON3
 10
0.0
 20
0.0
 30
0.0
  0
INSERT
  5
4FC
330
1F
100
AcDbEntity
  8
LC-001-100-D00-0
 62
     7
370
    50
100
AcDbBlockReference
  2
KLON4
 10
0.0
 20
0.0
 30
0.0
  0
LINE
  5
4FD
330
1F
100
AcDbEntity
  8
LC-001-100-D00-0
 62
     7
370
    50
100
AcDbLine
 10
68.836365
 20
245.700357
 30
0.0
 11
69.301676
 21
245.700357
 31
0.0
  0
LINE
  5
4FE
330
1F
100
AcDbEntity
  8
LC-001-100-D00-0
 62
     7
370
    50
100
AcDbLine
 10
368.371066
 20
245.700357
 30
0.0
 11
368.83637
 21
245.700357
 31
0.0
  0
LINE
  5
4FF
330
1F
100
AcDbEntity
  8
LC-001-100-D00-0
 62
     7
370
    50
100
AcDbLine
 10
261.175331
 20
194.200357
 30
0.0
 11
270.101387
 21
194.200357
 31
0.0
  0
LINE
  5
500
330
1F
100
AcDbEntity
  8
LC-001-100-D00-0
 62
     7
370
    50
100
AcDbLine
 10
167.571347
 20
194.200357
 30
0.0
 11
176.497405
 21
194.200357
 31
0.0
  0
LINE
  5
501
330
1F
100
AcDbEntity
  8
LC-001-100-D00-0
 62
     7
370
    50
100
AcDbLine
 10
176.497405
 20
194.200357
 30
0.0
 11
177.836367
 21
194.200357
 31
0.0
  0
LINE
  5
502
330
1F
100
AcDbEntity
  8
LC-001-100-D00-0
 62
     7
370
    50
100
AcDbLine
 10
259.836365
 20
194.200357
 30
0.0
 11
261.175331
 21
194.200357
 31
0.0
  0
LINE
  5
503
330
1F
100
AcDbEntity
  8
LC-001-100-D00-0
 62
     7
370
    50
100
AcDbLine
 10
18.337723
 20
229.200357
 30
0.0
 11
18.320304
 21
229.061184
 31
0.0
  0
LINE
  5
504
330
1F
100
AcDbEntity
  8
LC-001-100-D00-0
 62
     7
370
    50
100
AcDbLine
 10
9.94448
 20
231.200357
 30
0.0
 11
18.700373
 21
231.200357
 31
0.0
  0
LINE
  5
505
330
1F
100
AcDbEntity
  8
LC-001-100-D00-0
 62
     7
370
    50
100
AcDbLine
 10
18.700373
 20
231.200357
 30
0.0
 11
18.337723
 21
229.200357
 31
0.0
  0
LINE
  5
506
330
1F
100
AcDbEntity
  8
LC-001-100-D00-0
 62
     7
370
    50
100
AcDbLine
 10
427.728262
 20
231.200357
 30
0.0
 11
418.972355
 21
231.200357
 31
0.0
  0
LINE
  5
507
330
1F
100
AcDbEntity
  8
LC-001-100-D00-0
 62
     7
370
    50
100
AcDbLine
 10
419.335004
 20
229.200357
 30
0.0
 11
419.352424
 21
229.061184
 31
0.0
  0
LINE
  5
508
330
1F
100
AcDbEntity
  8
LC-001-100-D00-0
 62
     7
370
    50
100
AcDbLine
 10
418.972355
 20
231.200357
 30
0.0
 11
419.335004
 21
229.200357
 31
0.0
  0
INSERT
  5
51C
330
1F
100
AcDbEntity
  8
LC-001-100-D00-0
 62
     7
370
    50
100
AcDbBlockReference
  2
POLY25
 10
0.0
 20
0.0
 30
0.0
  0
LINE
  5
51D
330
1F
100
AcDbEntity
  8
LC-001-100-D00-0
 62
     7
370
    50
100
AcDbLine
 10
11.235383
 20
228.200359
 30
0.0
 11
17.830875
 21
228.200359
 31
0.0
  0
LINE
  5
51E
330
1F
100
AcDbEntity
  8
LC-001-100-D00-0
 62
     7
370
    50
100
AcDbLine
 10
426.437345
 20
228.200359
 30
0.0
 11
419.841867
 21
228.200359
 31
0.0
  0
INSERT
  5
532
330
1F
100
AcDbEntity
  8
LC-001-100-D00-0
 62
     7
370
    50
100
AcDbBlockReference
  2
POLY26
 10
0.0
 20
0.0
 30
0.0
  0
LINE
  5
533
330
1F
100
AcDbEntity
  8
LC-001-100-D00-0
 62
     7
370
    50
100
AcDbLine
 10
18.658545
 20
231.200357
 30
0.0
 11
20.690855
 21
243.200356
 31
0.0
  0
LINE
  5
534
330
1F
100
AcDbEntity
  8
LC-001-100-D00-0
 62
     7
370
    50
100
AcDbLine
 10
419.841867
 20
228.200359
 30
0.0
 11
416.547071
 21
228.200359
 31
0.0
  0
LINE
  5
535
330
1F
100
AcDbEntity
  8
LC-001-100-D00-0
 62
     7
370
    50
100
AcDbLine
 10
17.830875
 20
228.200359
 30
0.0
 11
21.125671
 21
228.200359
 31
0.0
  0
LINE
  5
536
330
1F
100
AcDbEntity
  8
LC-001-100-D00-0
 62
     7
370
    50
100
AcDbLine
 10
419.014182
 20
231.200357
 30
0.0
 11
416.981872
 21
243.200356
 31
0.0
  0
LINE
  5
537
330
1F
100
AcDbEntity
  8
LC-001-100-D00-0
 62
     7
370
    50
100
AcDbLine
 10
416.547071
 20
228.200359
 30
0.0
 11
416.235399
 21
228.200359
 31
0.0
  0
LINE
  5
538
330
1F
100
AcDbEntity
  8
LC-001-100-D00-0
 62
     7
370
    50
100
AcDbLine
 10
21.125671
 20
228.200359
 30
0.0
 11
21.437343
 21
228.200359
 31
0.0
  0
LINE
  5
539
330
1F
100
AcDbEntity
  8
LC-001-100-D00-0
 62
     7
370
    50
100
AcDbLine
 10
35.836365
 20
229.200357
 30
0.0
 11
35.836365
 21
243.200356
 31
0.0
  0
LINE
  5
53A
330
1F
100
AcDbEntity
  8
LC-001-100-D00-0
 62
     7
370
    50
100
AcDbLine
 10
401.836362
 20
243.200356
 30
0.0
 11
401.836362
 21
229.200357
 31
0.0
  0
LINE
  5
53B
330
1F
100
AcDbEntity
  8
LC-001-100-D00-0
 62
     7
370
    50
100
AcDbLine
 10
395.836365
 20
229.200357
 30
0.0
 11
395.836365
 21
243.200356
 31
0.0
  0
LINE
  5
53C
330
1F
100
AcDbEntity
  8
LC-001-100-D00-0
 62
     7
370
    50
100
AcDbLine
 10
41.836363
 20
243.200356
 30
0.0
 11
41.836363
 21
229.200357
 31
0.0
  0
INSERT
  5
54A
330
1F
100
AcDbEntity
  8
LC-001-100-D00-0
 62
     7
370
    50
100
AcDbBlockReference
  2
POLY27
 10
0.0
 20
0.0
 30
0.0
  0
INSERT
  5
558
330
1F
100
AcDbEntity
  8
LC-001-100-D00-0
 62
     7
370
    50
100
AcDbBlockReference
  2
POLY28
 10
0.0
 20
0.0
 30
0.0
  0
ARC
  5
559
330
1F
100
AcDbEntity
  8
LC-001-100-D00-0
 62
     7
370
    50
100
AcDbCircle
 10
400.836367
 20
229.200357
 30
0.0
 40
1.000000000000114
100
AcDbArc
 50
270.0
 51
0.0
  0
ARC
  5
55A
330
1F
100
AcDbEntity
  8
LC-001-100-D00-0
 62
     7
370
    50
100
AcDbCircle
 10
40.836367
 20
229.200357
 30
0.0
 40
1.0
100
AcDbArc
 50
270.0
 51
0.0
  0
ARC
  5
55B
330
1F
100
AcDbEntity
  8
LC-001-100-D00-0
 62
     7
370
    50
100
AcDbCircle
 10
36.836367
 20
229.200357
 30
0.0
 40
1.0
100
AcDbArc
 50
180.0
 51
270.0
  0
ARC
  5
55C
330
1F
100
AcDbEntity
  8
LC-001-100-D00-0
 62
     7
370
    50
100
AcDbCircle
 10
396.836367
 20
229.200357
 30
0.0
 40
1.0
100
AcDbArc
 50
180.0
 51
270.0
  0
LINE
  5
55D
330
1F
100
AcDbEntity
  8
LC-001-100-D00-0
 62
     7
370
    50
100
AcDbLine
 10
395.836365
 20
231.200357
 30
0.0
 11
393.944484
 21
231.200357
 31
0.0
  0
LINE
  5
55E
330
1F
100
AcDbEntity
  8
LC-001-100-D00-0
 62
     7
370
    50
100
AcDbLine
 10
403.728258
 20
231.200357
 30
0.0
 11
401.836362
 21
231.200357
 31
0.0
  0
LINE
  5
55F
330
1F
100
AcDbEntity
  8
LC-001-100-D00-0
 62
     7
370
    50
100
AcDbLine
 10
35.836365
 20
231.200357
 30
0.0
 11
33.944484
 21
231.200357
 31
0.0
  0
LINE
  5
560
330
1F
100
AcDbEntity
  8
LC-001-100-D00-0
 62
     7
370
    50
100
AcDbLine
 10
43.728259
 20
231.200357
 30
0.0
 11
41.836363
 21
231.200357
 31
0.0
  0
LINE
  5
561
330
1F
100
AcDbEntity
  8
LC-001-100-D00-0
 62
     7
370
    50
100
AcDbLine
 10
396.836367
 20
228.200359
 30
0.0
 11
395.235386
 21
228.200359
 31
0.0
  0
LINE
  5
562
330
1F
100
AcDbEntity
  8
LC-001-100-D00-0
 62
     7
370
    50
100
AcDbLine
 10
402.437341
 20
228.200359
 30
0.0
 11
400.83636
 21
228.200359
 31
0.0
  0
LINE
  5
563
330
1F
100
AcDbEntity
  8
LC-001-100-D00-0
 62
     7
370
    50
100
AcDbLine
 10
36.836367
 20
228.200359
 30
0.0
 11
35.235387
 21
228.200359
 31
0.0
  0
LINE
  5
564
330
1F
100
AcDbEntity
  8
LC-001-100-D00-0
 62
     7
370
    50
100
AcDbLine
 10
42.437341
 20
228.200359
 30
0.0
 11
40.836361
 21
228.200359
 31
0.0
  0
LINE
  5
565
330
1F
100
AcDbEntity
  8
LC-001-100-D00-0
 62
     7
370
    50
100
AcDbLine
 10
292.336364
 20
142.700357
 30
0.0
 11
303.836365
 21
142.700357
 31
0.0
  0
LINE
  5
566
330
1F
100
AcDbEntity
  8
LC-001-100-D00-0
 62
     7
370
    50
100
AcDbLine
 10
303.836365
 20
194.700357
 30
0.0
 11
292.336364
 21
194.700357
 31
0.0
  0
LINE
  5
567
330
1F
100
AcDbEntity
  8
LC-001-100-D00-0
 62
     7
370
    50
100
AcDbLine
 10
292.336364
 20
194.700357
 30
0.0
 11
292.336364
 21
195.450357
 31
0.0
  0
LINE
  5
568
330
1F
100
AcDbEntity
  8
LC-001-100-D00-0
 62
     7
370
    50
100
AcDbLine
 10
292.336364
 20
145.700356
 30
0.0
 11
331.733551
 21
145.700356
 31
0.0
  0
INSERT
  5
58A
330
1F
100
AcDbEntity
  8
LC-001-100-D00-0
 62
     7
370
    50
100
AcDbBlockReference
  2
POLY29
 10
0.0
 20
0.0
 30
0.0
  0
INSERT
  5
5B2
330
1F
100
AcDbEntity
  8
LC-001-100-D00-0
 62
     7
370
    50
100
AcDbBlockReference
  2
POLY30
 10
0.0
 20
0.0
 30
0.0
  0
LINE
  5
5B3
330
1F
100
AcDbEntity
  8
LC-001-100-D00-0
 62
     7
370
    50
100
AcDbLine
 10
331.733551
 20
191.700357
 30
0.0
 11
289.336365
 21
191.700357
 31
0.0
  0
LINE
  5
5B4
330
1F
100
AcDbEntity
  8
LC-001-100-D00-0
 62
     7
370
    50
100
AcDbLine
 10
331.733551
 20
145.700356
 30
0.0
 11
331.733551
 21
191.700357
 31
0.0
  0
INSERT
  5
5C0
330
1F
100
AcDbEntity
  8
LC-001-100-D00-0
 62
     7
370
    50
100
AcDbBlockReference
  2
POLY31
 10
0.0
 20
0.0
 30
0.0
  0
LINE
  5
5C1
330
1F
100
AcDbEntity
  8
LC-001-100-D00-0
 62
     7
370
    50
100
AcDbLine
 10
289.336365
 20
195.450357
 30
0.0
 11
270.101387
 21
195.450357
 31
0.0
  0
LINE
  5
5C2
330
1F
100
AcDbEntity
  8
LC-001-100-D00-0
 62
     7
370
    50
100
AcDbLine
 10
289.336365
 20
191.700357
 30
0.0
 11
289.336365
 21
195.450357
 31
0.0
  0
LINE
  5
5C3
330
1F
100
AcDbEntity
  8
LC-001-100-D00-0
 62
     7
370
    50
100
AcDbLine
 10
292.336364
 20
142.700357
 30
0.0
 11
279.336367
 21
142.700357
 31
0.0
  0
ARC
  5
5C4
330
1F
100
AcDbEntity
  8
LC-001-100-D00-0
 62
     7
370
    50
100
AcDbCircle
 10
272.354247
 20
143.200357
 30
0.0
 40
7.000000000000057
100
AcDbArc
 50
270.0
 51
355.903956
  0
LINE
  5
5C5
330
1F
100
AcDbEntity
  8
LC-001-100-D00-0
 62
     7
370
    50
100
AcDbLine
 10
165.318487
 20
136.200359
 30
0.0
 11
272.354249
 21
136.200359
 31
0.0
  0
ARC
  5
5C6
330
1F
100
AcDbEntity
  8
LC-001-100-D00-0
 62
     7
370
    50
100
AcDbCircle
 10
165.318487
 20
143.200357
 30
0.0
 40
7.000000000000004
100
AcDbArc
 50
184.096044
 51
270.0
  0
LINE
  5
5C7
330
1F
100
AcDbEntity
  8
LC-001-100-D00-0
 62
     7
370
    50
100
AcDbLine
 10
158.336368
 20
142.700357
 30
0.0
 11
157.836367
 21
142.700357
 31
0.0
  0
ARC
  5
5C8
330
1F
100
AcDbEntity
  8
LC-001-100-D00-0
 62
     7
370
    50
100
AcDbCircle
 10
157.836367
 20
155.200357
 30
0.0
 40
12.5
100
AcDbArc
 50
180.0
 51
270.0
  0
LINE
  5
5C9
330
1F
100
AcDbEntity
  8
LC-001-100-D00-0
 62
     7
370
    50
100
AcDbLine
 10
145.336367
 20
195.450357
 30
0.0
 11
145.336367
 21
155.200356
 31
0.0
  0
LINE
  5
5CA
330
1F
100
AcDbEntity
  8
LC-001-100-D00-0
 62
     7
370
    50
100
AcDbLine
 10
148.336366
 20
195.450357
 30
0.0
 11
145.336367
 21
195.450357
 31
0.0
  0
LINE
  5
5CB
330
1F
100
AcDbEntity
  8
LC-001-100-D00-0
 62
     7
370
    50
100
AcDbLine
 10
148.336366
 20
195.450357
 30
0.0
 11
148.336366
 21
155.200356
 31
0.0
  0
ARC
  5
5CC
330
1F
100
AcDbEntity
  8
LC-001-100-D00-0
 62
     7
370
    50
100
AcDbCircle
 10
157.836367
 20
155.200357
 30
0.0
 40
9.5
100
AcDbArc
 50
180.0
 51
270.0
  0
LINE
  5
5CD
330
1F
100
AcDbEntity
  8
LC-001-100-D00-0
 62
     7
370
    50
100
AcDbLine
 10
160.336368
 20
145.700356
 30
0.0
 11
157.836367
 21
145.700356
 31
0.0
  0
ARC
  5
5CE
330
1F
100
AcDbEntity
  8
LC-001-100-D00-0
 62
     7
370
    50
100
AcDbCircle
 10
160.336367
 20
144.700357
 30
0.0
 40
1.0
100
AcDbArc
 50
0.0
 51
90.0
  0
LINE
  5
5CF
330
1F
100
AcDbEntity
  8
LC-001-100-D00-0
 62
     7
370
    50
100
AcDbLine
 10
161.336366
 20
143.200358
 30
0.0
 11
161.336366
 21
144.700357
 31
0.0
  0
ARC
  5
5D0
330
1F
100
AcDbEntity
  8
LC-001-100-D00-0
 62
     7
370
    50
100
AcDbCircle
 10
165.336367
 20
143.200357
 30
0.0
 40
4.0
100
AcDbArc
 50
180.0
 51
270.0
  0
LINE
  5
5D1
330
1F
100
AcDbEntity
  8
LC-001-100-D00-0
 62
     7
370
    50
100
AcDbLine
 10
165.336367
 20
139.200357
 30
0.0
 11
272.336368
 21
139.200357
 31
0.0
  0
ARC
  5
5D2
330
1F
100
AcDbEntity
  8
LC-001-100-D00-0
 62
     7
370
    50
100
AcDbCircle
 10
272.336367
 20
143.200357
 30
0.0
 40
4.0
100
AcDbArc
 50
270.0
 51
0.0
  0
LINE
  5
5D3
330
1F
100
AcDbEntity
  8
LC-001-100-D00-0
 62
     7
370
    50
100
AcDbLine
 10
276.336368
 20
144.700357
 30
0.0
 11
276.336368
 21
143.200358
 31
0.0
  0
ARC
  5
5D4
330
1F
100
AcDbEntity
  8
LC-001-100-D00-0
 62
     7
370
    50
100
AcDbCircle
 10
277.336367
 20
144.700357
 30
0.0
 40
1.0
100
AcDbArc
 50
90.0
 51
180.0
  0
LINE
  5
5D5
330
1F
100
AcDbEntity
  8
LC-001-100-D00-0
 62
     7
370
    50
100
AcDbLine
 10
292.336364
 20
145.700356
 30
0.0
 11
277.33637
 21
145.700356
 31
0.0
  0
LINE
  5
5D6
330
1F
100
AcDbEntity
  8
LC-001-100-D00-0
 62
     7
370
    50
100
AcDbLine
 10
331.733551
 20
145.700356
 30
0.0
 11
337.333557
 21
144.199842
 31
0.0
  0
LINE
  5
5D7
330
1F
100
AcDbEntity
  8
LC-001-100-D00-0
 62
     7
370
    50
100
AcDbLine
 10
337.333557
 20
144.199842
 30
0.0
 11
337.333557
 21
143.767466
 31
0.0
  0
ARC
  5
5D8
330
1F
100
AcDbEntity
  8
LC-001-100-D00-0
 62
     7
370
    50
100
AcDbCircle
 10
336.833595
 20
143.767466
 30
0.0
 40
0.4999578796800374
100
AcDbArc
 50
301.255529
 51
0.0
  0
ARC
  5
5D9
330
1F
100
AcDbEntity
  8
LC-001-100-D00-0
 62
     7
370
    50
100
AcDbCircle
 10
321.734871
 20
168.643981
 30
0.0
 40
29.60000000000006
100
AcDbArc
 50
292.421078
 51
301.255529
  0
ARC
  5
5DA
330
1F
100
AcDbEntity
  8
LC-001-100-D00-0
 62
     7
370
    50
100
AcDbCircle
 10
332.833931
 20
141.743733
 30
0.0
 40
0.4999578796800961
100
AcDbArc
 50
180.0
 51
292.421078
  0
LINE
  5
5DB
330
1F
100
AcDbEntity
  8
LC-001-100-D00-0
 62
     7
370
    50
100
AcDbLine
 10
332.333979
 20
141.743732
 30
0.0
 11
332.333979
 21
143.0504
 31
0.0
  0
ARC
  5
5DC
330
1F
100
AcDbEntity
  8
LC-001-100-D00-0
 62
     7
370
    50
100
AcDbCircle
 10
331.834016
 20
143.050399
 30
0.0
 40
0.4999578796800961
100
AcDbArc
 50
0.0
 51
90.0
  0
LINE
  5
5DD
330
1F
100
AcDbEntity
  8
LC-001-100-D00-0
 62
     7
370
    50
100
AcDbLine
 10
331.834015
 20
143.550356
 30
0.0
 11
328.334313
 21
143.550356
 31
0.0
  0
ARC
  5
5DE
330
1F
100
AcDbEntity
  8
LC-001-100-D00-0
 62
     7
370
    50
100
AcDbCircle
 10
328.334311
 20
143.050399
 30
0.0
 40
0.4999578796800392
100
AcDbArc
 50
90.0
 51
180.0
  0
LINE
  5
5DF
330
1F
100
AcDbEntity
  8
LC-001-100-D00-0
 62
     7
370
    50
100
AcDbLine
 10
327.834349
 20
143.0504
 30
0.0
 11
327.834349
 21
140.087759
 31
0.0
  0
ARC
  5
5E0
330
1F
100
AcDbEntity
  8
LC-001-100-D00-0
 62
     7
370
    50
100
AcDbCircle
 10
327.334395
 20
140.087759
 30
0.0
 40
0.4999578796800182
100
AcDbArc
 50
281.094235
 51
0.0
  0
ARC
  5
5E1
330
1F
100
AcDbEntity
  8
LC-001-100-D00-0
 62
     7
370
    50
100
AcDbCircle
 10
321.734871
 20
168.643981
 30
0.0
 40
29.59999999999998
100
AcDbArc
 50
241.219879
 51
281.094235
  0
LINE
  5
5E2
330
1F
100
AcDbEntity
  8
LC-001-100-D00-0
 62
     7
370
    50
100
AcDbLine
 10
307.483968
 20
142.700357
 30
0.0
 11
306.336161
 21
142.700357
 31
0.0
  0
LINE
  5
5E3
330
1F
100
AcDbEntity
  8
LC-001-100-D00-0
 62
     7
370
    50
100
AcDbLine
 10
306.336161
 20
142.700357
 30
0.0
 11
306.336161
 21
141.200358
 31
0.0
  0
LINE
  5
5E4
330
1F
100
AcDbEntity
  8
LC-001-100-D00-0
 62
     7
370
    50
100
AcDbLine
 10
306.336161
 20
141.200358
 30
0.0
 11
303.836365
 21
141.200358
 31
0.0
  0
LINE
  5
5E5
330
1F
100
AcDbEntity
  8
LC-001-100-D00-0
 62
     7
370
    50
100
AcDbLine
 10
303.836365
 20
141.200358
 30
0.0
 11
303.836365
 21
142.700357
 31
0.0
  0
ARC
  5
5E6
330
1F
100
AcDbEntity
  8
LC-001-100-D00-0
 62
     7
370
    50
100
AcDbCircle
 10
321.734871
 20
168.756733
 30
0.0
 40
29.60000000000006
100
AcDbArc
 50
78.905765
 51
106.483552
  0
ARC
  5
5E7
330
1F
100
AcDbEntity
  8
LC-001-100-D00-0
 62
     7
370
    50
100
AcDbCircle
 10
327.334395
 20
197.312955
 30
0.0
 40
0.4999578796800961
100
AcDbArc
 50
0.0
 51
78.905765
  0
ARC
  5
5E8
330
1F
100
AcDbEntity
  8
LC-001-100-D00-0
 62
     7
370
    50
100
AcDbCircle
 10
321.734871
 20
168.756733
 30
0.0
 40
29.60000000000007
100
AcDbArc
 50
58.744471
 51
67.578922
  0
ARC
  5
5E9
330
1F
100
AcDbEntity
  8
LC-001-100-D00-0
 62
     7
370
    50
100
AcDbCircle
 10
332.833931
 20
195.65698
 30
0.0
 40
0.4999578796800265
100
AcDbArc
 50
67.578922
 51
180.0
  0
ARC
  5
5EA
330
1F
100
AcDbEntity
  8
LC-001-100-D00-0
 62
     7
370
    50
100
AcDbCircle
 10
331.834016
 20
194.350315
 30
0.0
 40
0.4999578796800392
100
AcDbArc
 50
270.0
 51
0.0
  0
ARC
  5
5EB
330
1F
100
AcDbEntity
  8
LC-001-100-D00-0
 62
     7
370
    50
100
AcDbCircle
 10
336.833595
 20
193.633248
 30
0.0
 40
0.4999578796799824
100
AcDbArc
 50
0.0
 51
58.744471
  0
LINE
  5
5EC
330
1F
100
AcDbEntity
  8
LC-001-100-D00-0
 62
     7
370
    50
100
AcDbLine
 10
328.334313
 20
193.850357
 30
0.0
 11
331.834015
 21
193.850357
 31
0.0
  0
ARC
  5
5ED
330
1F
100
AcDbEntity
  8
LC-001-100-D00-0
 62
     7
370
    50
100
AcDbCircle
 10
328.334311
 20
194.350315
 30
0.0
 40
0.4999578796799824
100
AcDbArc
 50
180.0
 51
270.0
  0
LINE
  5
5EE
330
1F
100
AcDbEntity
  8
LC-001-100-D00-0
 62
     7
370
    50
100
AcDbLine
 10
160.336368
 20
145.700356
 30
0.0
 11
173.872093
 21
145.700356
 31
0.0
  0
LINE
  5
5EF
330
1F
100
AcDbEntity
  8
LC-001-100-D00-0
 62
     7
370
    50
100
AcDbLine
 10
263.80064
 20
145.700356
 30
0.0
 11
277.33637
 21
145.700356
 31
0.0
  0
LINE
  5
5F0
330
1F
100
AcDbEntity
  8
LC-001-100-D00-0
 62
     7
370
    50
100
AcDbLine
 10
303.836365
 20
196.200357
 30
0.0
 11
306.336161
 21
196.200357
 31
0.0
  0
LINE
  5
5F1
330
1F
100
AcDbEntity
  8
LC-001-100-D00-0
 62
     7
370
    50
100
AcDbLine
 10
337.333557
 20
193.200872
 30
0.0
 11
331.733551
 21
191.700357
 31
0.0
  0
LINE
  5
5F2
330
1F
100
AcDbEntity
  8
LC-001-100-D00-0
 62
     7
370
    50
100
AcDbLine
 10
337.333557
 20
193.200872
 30
0.0
 11
337.333557
 21
144.199842
 31
0.0
  0
LINE
  5
5F3
330
1F
100
AcDbEntity
  8
LC-001-100-D00-0
 62
     7
370
    50
100
AcDbLine
 10
167.571347
 20
195.450357
 30
0.0
 11
148.336366
 21
195.450357
 31
0.0
  0
LINE
  5
5F4
330
1F
100
AcDbEntity
  8
LC-001-100-D00-0
 62
     7
370
    50
100
AcDbLine
 10
292.336364
 20
195.450357
 30
0.0
 11
289.336365
 21
195.450357
 31
0.0
  0
ARC
  5
5F5
330
1F
100
AcDbEntity
  8
LC-001-100-D00-0
 62
     7
370
    50
100
AcDbCircle
 10
327.168831
 20
168.700357
 30
0.0
 40
34.50000000000003
100
AcDbArc
 50
113.637385
 51
127.145804
  0
LINE
  5
5F6
330
1F
100
AcDbEntity
  8
LC-001-100-D00-0
 62
     7
370
    50
100
AcDbLine
 10
313.33616
 20
197.14021
 30
0.0
 11
313.33616
 21
200.305852
 31
0.0
  0
LINE
  5
5F7
330
1F
100
AcDbEntity
  8
LC-001-100-D00-0
 62
     7
370
    50
100
AcDbLine
 10
337.333557
 20
193.633248
 30
0.0
 11
337.333557
 21
193.200872
 31
0.0
  0
LINE
  5
5F8
330
1F
100
AcDbEntity
  8
LC-001-100-D00-0
 62
     7
370
    50
100
AcDbLine
 10
303.836365
 20
194.700357
 30
0.0
 11
303.836365
 21
196.200357
 31
0.0
  0
LINE
  5
5F9
330
1F
100
AcDbEntity
  8
LC-001-100-D00-0
 62
     7
370
    50
100
AcDbLine
 10
332.333979
 20
194.350315
 30
0.0
 11
332.333979
 21
195.656981
 31
0.0
  0
LINE
  5
5FA
330
1F
100
AcDbEntity
  8
LC-001-100-D00-0
 62
     7
370
    50
100
AcDbLine
 10
327.834349
 20
197.312955
 30
0.0
 11
327.834349
 21
194.350315
 31
0.0
  0
LINE
  5
5FB
330
1F
100
AcDbEntity
  8
LC-001-100-D00-0
 62
     7
370
    50
100
AcDbLine
 10
173.872093
 20
145.700356
 30
0.0
 11
176.497405
 21
145.700356
 31
0.0
  0
LINE
  5
5FC
330
1F
100
AcDbEntity
  8
LC-001-100-D00-0
 62
     7
370
    50
100
AcDbLine
 10
261.175331
 20
145.700356
 30
0.0
 11
263.80064
 21
145.700356
 31
0.0
  0
LINE
  5
5FD
330
1F
100
AcDbEntity
  8
LC-001-100-D00-0
 62
     7
370
    50
100
AcDbLine
 10
176.497405
 20
145.700356
 30
0.0
 11
180.656918
 21
145.700356
 31
0.0
  0
LINE
  5
5FE
330
1F
100
AcDbEntity
  8
LC-001-100-D00-0
 62
     7
370
    50
100
AcDbLine
 10
257.015813
 20
145.700356
 30
0.0
 11
261.175331
 21
145.700356
 31
0.0
  0
LINE
  5
5FF
330
1F
100
AcDbEntity
  8
LC-001-100-D00-0
 62
     7
370
    50
100
AcDbLine
 10
176.497405
 20
195.450357
 30
0.0
 11
167.571347
 21
195.450357
 31
0.0
  0
LINE
  5
600
330
1F
100
AcDbEntity
  8
LC-001-100-D00-0
 62
     7
370
    50
100
AcDbLine
 10
270.101387
 20
195.450357
 30
0.0
 11
261.175331
 21
195.450357
 31
0.0
  0
LINE
  5
601
330
1F
100
AcDbEntity
  8
LC-001-100-D00-0
 62
     7
370
    50
100
AcDbLine
 10
261.175331
 20
195.450357
 30
0.0
 11
259.836365
 21
195.450357
 31
0.0
  0
LINE
  5
602
330
1F
100
AcDbEntity
  8
LC-001-100-D00-0
 62
     7
370
    50
100
AcDbLine
 10
177.836367
 20
195.450357
 30
0.0
 11
176.497405
 21
195.450357
 31
0.0
  0
INSERT
  5
621
330
1F
100
AcDbEntity
  8
LC-001-100-D00-0
 62
     7
370
    25
100
AcDbBlockReference
  2
KLON5
 10
0.0
 20
0.0
 30
0.0
  0
INSERT
  5
62B
330
1F
100
AcDbEntity
  8
LC-001-100-D00-0
 62
     7
370
    25
100
AcDbBlockReference
  2
KLON6
 10
0.0
 20
0.0
 30
0.0
  0
LINE
  5
62C
330
1F
100
AcDbEntity
  8
LC-001-100-D00-0
 62
     7
370
    25
100
AcDbLine
 10
426.521649
 20
245.335675
 30
0.0
 11
428.656967
 21
243.200357
 31
0.0
  0
INSERT
  5
648
330
1F
100
AcDbEntity
  8
LC-001-100-D00-0
 62
     7
370
    25
100
AcDbBlockReference
  2
KLON7
 10
0.0
 20
0.0
 30
0.0
  0
INSERT
  5
664
330
1F
100
AcDbEntity
  8
LC-001-100-D00-0
 62
     7
370
    25
100
AcDbBlockReference
  2
KLON8
 10
0.0
 20
0.0
 30
0.0
  0
LINE
  5
665
330
1F
100
AcDbEntity
  8
LC-001-100-D00-0
 62
     7
370
    25
100
AcDbLine
 10
3.836367
 20
245.948919
 30
0.0
 11
6.584929
 21
243.200357
 31
0.0
  0
INSERT
  5
66E
330
1F
100
AcDbEntity
  8
LC-001-100-D00-0
 62
     7
370
    50
100
AcDbBlockReference
  2
KLON9
 10
0.0
 20
0.0
 30
0.0
  0
INSERT
  5
677
330
1F
100
AcDbEntity
  8
LC-001-100-D00-0
 62
     7
370
    50
100
AcDbBlockReference
  2
KLON10
 10
0.0
 20
0.0
 30
0.0
  0
INSERT
  5
684
330
1F
100
AcDbEntity
  8
LC-001-100-D00-0
 62
     7
370
    25
100
AcDbBlockReference
  2
KLON11
 10
0.0
 20
0.0
 30
0.0
  0
INSERT
  5
692
330
1F
100
AcDbEntity
  8
LC-001-100-D00-0
 62
     7
370
    25
100
AcDbBlockReference
  2
KLON12
 10
0.0
 20
0.0
 30
0.0
  0
INSERT
  5
6B0
330
1F
100
AcDbEntity
  8
LC-001-100-D00-0
 62
     7
370
    25
100
AcDbBlockReference
  2
KLON13
 10
0.0
 20
0.0
 30
0.0
  0
INSERT
  5
6BA
330
1F
100
AcDbEntity
  8
LC-001-100-D00-0
 62
     7
370
    25
100
AcDbBlockReference
  2
KLON14
 10
0.0
 20
0.0
 30
0.0
  0
INSERT
  5
6C7
330
1F
100
AcDbEntity
  8
LC-001-100-D00-0
 62
     7
370
    25
100
AcDbBlockReference
  2
KLON15
 10
0.0
 20
0.0
 30
0.0
  0
INSERT
  5
6EC
330
1F
100
AcDbEntity
  8
LC-001-100-D00-0
 62
     7
370
    25
100
AcDbBlockReference
  2
KLON16
 10
0.0
 20
0.0
 30
0.0
  0
LINE
  5
6ED
330
1F
100
AcDbEntity
  8
LC-001-100-D00-0
  6
DASHDOT
 62
     7
370
    25
100
AcDbLine
 10
334.338215
 20
168.700357
 30
0.0
 11
376.836164
 21
168.700357
 31
0.0
  0
LINE
  5
6EE
330
1F
100
AcDbEntity
  8
LC-001-100-D00-0
  6
DASHDOT
 62
     7
370
    25
100
AcDbLine
 10
218.836367
 20
228.700357
 30
0.0
 11
218.836367
 21
156.800357
 31
0.0
  0
DIMENSION
  5
6F0
330
1F
100
AcDbEntity
  8
LC-002-003-----0
 62
     7
370
    25
100
AcDbDimension
  2
*D51
 10
-55.902432
 20
136.200357
 30
0.0
 11
-86.702432
 21
189.567533
 31
0.0
 70
   160
 71
     5
 42
110.0
 53
90.0
  3
LC-DIM-L-0140-02-02
100
AcDbAlignedDimension
 13
3.836367
 23
246.200357
 33
0.0
 14
165.318487
 24
136.200357
 34
0.0
 50
90.0
100
AcDbRotatedDimension
  0
DIMENSION
  5
6FD
330
1F
100
AcDbEntity
  8
LC-002-003-----0
 62
     7
370
    25
100
AcDbDimension
  2
*D52
 10
118.737733
 20
160.800358
 30
0.0
 11
87.937733
 21
124.227533
 31
0.0
 70
   160
  1
50
 71
     5
 42
49.899999
 53
90.0
  3
LC-DIM-L-0140-02-02
100
AcDbAlignedDimension
 13
179.836367
 23
210.700357
 33
0.0
 14
189.836367
 24
160.800358
 34
0.0
 50
90.0
100
AcDbRotatedDimension
  0
DIMENSION
  5
70B
330
1F
100
AcDbEntity
  8
LC-002-003-----0
 62
     7
370
    25
100
AcDbDimension
  2
*D53
 10
474.407336
 20
168.700357
 30
0.0
 11
443.607336
 21
194.319533
 31
0.0
 70
   160
  1
78
 71
     5
 42
77.500001
 53
90.0
  3
LC-DIM-L-0140-02-02
100
AcDbAlignedDimension
 13
433.836367
 23
246.200358
 33
0.0
 14
372.836169
 24
168.700357
 34
0.0
 50
90.0
100
AcDbRotatedDimension
  0
DIMENSION
  5
718
330
1F
100
AcDbEntity
  8
LC-002-003-----0
 62
     7
370
    25
100
AcDbDimension
  2
*D54
 10
524.456652
 20
140.800358
 30
0.0
 11
493.656652
 21
223.425533
 31
0.0
 70
   160
  1
%%c56
 71
     5
 42
55.799999
 53
90.0
  3
LC-DIM-L-0140-02-02
100
AcDbAlignedDimension
 13
372.836169
 23
196.600357
 33
0.0
 14
372.836169
 24
140.800358
 34
0.0
 50
90.0
100
AcDbRotatedDimension
  0
DIMENSION
  5
726
330
1F
100
AcDbEntity
  8
LC-002-003-----0
 62
     7
370
    25
100
AcDbDimension
  2
*D55
 10
218.836367
 20
74.925533
 30
0.0
 11
295.507656
 21
105.725533
 31
0.0
 70
   160
 71
     5
 42
154.499795
  3
LC-DIM-L-0140-02-02
100
AcDbAlignedDimension
 13
373.336163
 23
168.700357
 33
0.0
 14
218.836367
 24
160.800358
 34
0.0
100
AcDbRotatedDimension
  0
ENDSEC
  0
SECTION
  2
OBJECTS
  0
DICTIONARY
  5
C
330
0
100
AcDbDictionary
281
     1
  3
ACAD_GROUP
350
D
  3
ACAD_LAYOUT
350
1A
  3
ACAD_MLINESTYLE
350
17
  3
ACAD_PLOTSETTINGS
350
19
  3
ACAD_PLOTSTYLENAME
350
E
  0
DICTIONARY
  5
D
102
{ACAD_REACTORS
330
C
102
}
330
C
100
AcDbDictionary
281
     1
  0
DICTIONARY
  5
1A
102
{ACAD_REACTORS
330
C
102
}
330
C
100
AcDbDictionary
281
     1
  3
Layout1
350
1E
  3
Layout2
350
26
  3
Model
350
22
  0
DICTIONARY
  5
17
102
{ACAD_REACTORS
330
C
102
}
330
C
100
AcDbDictionary
281
     1
  3
Standard
350
18
  0
DICTIONARY
  5
19
102
{ACAD_REACTORS
330
C
102
}
330
C
100
AcDbDictionary
281
     1
  0
ACDBDICTIONARYWDFLT
  5
E
102
{ACAD_REACTORS
330
C
102
}
330
C
100
AcDbDictionary
281
     1
  3
Normal
350
F
100
AcDbDictionaryWithDefault
340
F
  0
LAYOUT
  5
1E
102
{ACAD_REACTORS
330
1A
102
}
330
1A
100
AcDbPlotSettings
  1

  2

  4

  6

 40
0.0
 41
0.0
 42
0.0
 43
0.0
 44
0.0
 45
0.0
 46
0.0
 47
0.0
 48
0.0
 49
0.0
140
0.0
141
0.0
142
1.0
143
1.0
 70
   688
 72
     0
 73
     0
 74
     5
  7

 75
    16
147
1.0
148
0.0
149
0.0
100
AcDbLayout
  1
Layout1
 70
     1
 71
     1
 10
-215.007064
 20
-150.200467
 11
624.992936
 21
443.799533
 12
0.0
 22
0.0
 32
0.0
 14
-215.007064
 24
-150.200467
 34
0.0
 15
624.992936
 25
443.799533
 35
0.0
146
0.0
 13
0.0
 23
0.0
 33
0.0
 16
1.0
 26
0.0
 36
0.0
 17
0.0
 27
1.0
 37
0.0
 76
     0
330
1B
  0
LAYOUT
  5
26
102
{ACAD_REACTORS
330
1A
102
}
330
1A
100
AcDbPlotSettings
  1

  2

  4

  6

 40
0.0
 41
0.0
 42
0.0
 43
0.0
 44
0.0
 45
0.0
 46
0.0
 47
0.0
 48
0.0
 49
0.0
140
0.0
141
0.0
142
1.0
143
1.0
 70
   688
 72
     0
 73
     0
 74
     5
  7

 75
    16
147
1.0
148
0.0
149
0.0
100
AcDbLayout
  1
Layout2
 70
     1
 71
     2
 10
0.0
 20
0.0
 11
0.0
 21
0.0
 12
0.0
 22
0.0
 32
0.0
 14
0.0
 24
0.0
 34
0.0
 15
0.0
 25
0.0
 35
0.0
146
0.0
 13
0.0
 23
0.0
 33
0.0
 16
1.0
 26
0.0
 36
0.0
 17
0.0
 27
1.0
 37
0.0
 76
     0
330
23
  0
LAYOUT
  5
22
102
{ACAD_REACTORS
330
1A
102
}
330
1A
100
AcDbPlotSettings
  1

  2

  4

  6

 40
0.0
 41
0.0
 42
0.0
 43
0.0
 44
0.0
 45
0.0
 46
0.0
 47
0.0
 48
0.0
 49
0.0
140
0.0
141
0.0
142
1.0
143
1.0
 70
  1776
 72
     0
 73
     0
 74
     0
  7

 75
     0
147
1.0
148
0.0
149
0.0
100
AcDbLayout
  1
Model
 70
     1
 71
     0
 10
-215.007064
 20
-150.200467
 11
624.992936
 21
443.799533
 12
0.0
 22
0.0
 32
0.0
 14
-215.007064
 24
-150.200467
 34
0.0
 15
624.992936
 25
443.799533
 35
0.0
146
0.0
 13
0.0
 23
0.0
 33
0.0
 16
1.0
 26
0.0
 36
0.0
 17
0.0
 27
1.0
 37
0.0
 76
     0
330
1F
  0
MLINESTYLE
  5
18
102
{ACAD_REACTORS
330
17
102
}
330
17
100
AcDbMlineStyle
  2
Standard
 70
     0
  3

 62
   256
 51
90.0
 52
90.0
 71
     2
 49
0.5
 62
   256
  6
BYLAYER
 49
-0.5
 62
   256
  6
BYLAYER
  0
ACDBPLACEHOLDER
  5
F
102
{ACAD_REACTORS
330
E
102
}
330
E
  0
ENDSEC
  0
EOF
