  0
SECTION
  2
HEADER
  9
$ACADVER
  1
AC1009
  9
$INSBASE
 10
0.0
 20
0.0
 30
0.0
  9
$EXTMIN
 10
0.0
 20
0.0
 30
0.0
  9
$EXTMAX
 10
840.0
 20
594.0
 30
0.0
  9
$LIMMIN
 10
0.0
 20
0.0
  9
$LIMMAX
 10
840.0
 20
594.0
  9
$ORTHOMODE
 70
     0
  9
$REGENMODE
 70
     1
  9
$FILLMODE
 70
     1
  9
$QTEXTMODE
 70
     0
  9
$MIRRTEXT
 70
     1
  9
$DRAGMODE
 70
     2
  9
$LTSCALE
 40
2.0
  9
$OSMODE
 70
     0
  9
$ATTMODE
 70
     1
  9
$TEXTSIZE
 40
0.2
  9
$TRACEWID
 40
0.05
  9
$TEXTSTYLE
  7
STANDARD
  9
$CLAYER
  8
0
  9
$CELTYPE
  6
BYLAYER
  9
$CECOLOR
 62
     7
  9
$DIMSCALE
 40
2.0
  9
$DIMASZ
 40
3.5
  9
$DIMEXO
 40
0.0625
  9
$DIMDLI
 40
0.38
  9
$DIMRND
 40
0.0
  9
$DIMDLE
 40
0.0
  9
$DIMEXE
 40
0.18
  9
$DIMTP
 40
0.0
  9
$DIMTM
 40
0.0
  9
$DIMTXT
 40
3.5
  9
$DIMCEN
 40
0.09
  9
$DIMTSZ
 40
0.0
  9
$DIMTOL
 70
     0
  9
$DIMLIM
 70
     0
  9
$DIMTIH
 70
     1
  9
$DIMTOH
 70
     1
  9
$DIMSE1
 70
     0
  9
$DIMSE2
 70
     0
  9
$DIMTAD
 70
     1
  9
$DIMZIN
 70
     0
  9
$DIMBLK
  1

  9
$DIMASO
 70
     1
  9
$DIMSHO
 70
     1
  9
$DIMPOST
  1

  9
$DIMAPOST
  1

  9
$DIMALT
 70
     0
  9
$DIMALTD
 70
     2
  9
$DIMALTF
 40
25.4
  9
$DIMLFAC
 40
1.0
  9
$DIMTOFL
 70
     0
  9
$DIMTVP
 40
0.0
  9
$DIMTIX
 70
     0
  9
$DIMSOXD
 70
     0
  9
$DIMSAH
 70
     0
  9
$DIMBLK1
  1

  9
$DIMBLK2
  1

  9
$DIMSTYLE
  2
STANDARD
  9
$DIMCLRD
 70
     0
  9
$DIMCLRE
 70
     0
  9
$DIMCLRT
 70
     0
  9
$DIMTFAC
 40
1.0
  9
$DIMGAP
 40
0.09
  9
$LUNITS
 70
     2
  9
$LUPREC
 70
     2
  9
$AXISMODE
 70
     0
  9
$AXISUNIT
 10
0.0
 20
0.0
  9
$SKETCHINC
 40
0.1
  9
$FILLETRAD
 40
0.0
  9
$AUNITS
 70
     0
  9
$AUPREC
 70
     0
  9
$MENU
  1
acad
  9
$ELEVATION
 40
0.0
  9
$PELEVATION
 40
0.0
  9
$THICKNESS
 40
0.0
  9
$LIMCHECK
 70
     0
  9
$BLIPMODE
 70
     1
  9
$CHAMFERA
 40
0.0
  9
$CHAMFERB
 40
0.0
  9
$SKPOLY
 70
     0
  9
$TDCREATE
 40
0.000000000
  9
$TDUPDATE
 40
0.000000000
  9
$TDINDWG
 40
0.0000000000
  9
$TDUSRTIMER
 40
0.0000000000
  9
$USRTIMER
 70
     1
  9
$ANGBASE
 50
0.0
  9
$ANGDIR
 70
     0
  9
$PDMODE
 70
     0
  9
$PDSIZE
 40
0.0
  9
$PLINEWID
 40
0.0
  9
$COORDS
 70
     0
  9
$SPLFRAME
 70
     0
  9
$SPLINETYPE
 70
     6
  9
$SPLINESEGS
 70
     8
  9
$ATTDIA
 70
     0
  9
$ATTREQ
 70
     1
  9
$HANDLING
 70
     1
  9
$HANDSEED
  5
C8
  9
$SURFTAB1
 70
     6
  9
$SURFTAB2
 70
     6
  9
$SURFTYPE
 70
     6
  9
$SURFU
 70
     6
  9
$SURFV
 70
     6
  9
$UCSNAME
  2

  9
$UCSORG
 10
0.0
 20
0.0
 30
0.0
  9
$UCSXDIR
 10
1.0
 20
0.0
 30
0.0
  9
$UCSYDIR
 10
0.0
 20
1.0
 30
0.0
  9
$PUCSNAME
  2

  9
$PUCSORG
 10
0.0
 20
0.0
 30
0.0
  9
$PUCSXDIR
 10
1.0
 20
0.0
 30
0.0
  9
$PUCSYDIR
 10
0.0
 20
1.0
 30
0.0
  9
$USERI1
 70
     0
  9
$USERI2
 70
     0
  9
$USERI3
 70
     0
  9
$USERI4
 70
     0
  9
$USERI5
 70
     0
  9
$USERR1
 40
0.0
  9
$USERR2
 40
0.0
  9
$USERR3
 40
0.0
  9
$USERR4
 40
0.0
  9
$USERR5
 40
0.0
  9
$WORLDVIEW
 70
     1
  9
$SHADEDGE
 70
     3
  9
$SHADEDIF
 70
    70
  9
$TILEMODE
 70
     1
  9
$MAXACTVP
 70
    16
  9
$PINSBASE
 10
0.0
 20
0.0
 30
0.0
  9
$PLIMCHECK
 70
     0
  9
$PEXTMIN
 10
1.000000E+20
 20
1.000000E+20
 30
1.000000E+20
  9
$PEXTMAX
 10
-1.000000E+20
 20
-1.000000E+20
 30
-1.000000E+20
  9
$PLIMMIN
 10
0.0
 20
0.0
  9
$PLIMMAX
 10
840.0
 20
594.0
  9
$UNITMODE
 70
     0
  9
$VISRETAIN
 70
     0
  9
$PLINEGEN
 70
     1
  9
$PSLTSCALE
 70
     0
  9
$TREEDEPTH
 70
  3020
  9
$DWGCODEPAGE
  3
dos850
  0
ENDSEC
  0
SECTION
  2
TABLES
  0
TABLE
  2
VPORT
 70
     1
  0
VPORT
  2
*ACTIVE
 70
     0
 10
0.0
 20
0.0
 11
1.0
 21
1.0
 12
420.0
 22
297.0
 13
0.0
 23
0.0
 14
1.0
 24
1.0
 15
0.0
 25
0.0
 16
0.0
 26
0.0
 36
1.0
 17
0.0
 27
0.0
 37
0.0
 40
594.0
 41
1.604229
 42
50.0
 43
0.0
 44
0.0
 50
0.0
 51
0.0
 71
     0
 72
   100
 73
     1
 74
     1
 75
     0
 76
     0
 77
     0
 78
     0
  0
ENDTAB
  0
TABLE
  2
LTYPE
 70
     2
  0
LTYPE
  2
CONTINUOUS
 70
    64
  3
Solid line
 72
    65
 73
     0
 40
0.0
  0
LTYPE
  2
DASHDOT
 70
    64
  3
__ . __ . __ . __ . __
 72
    65
 73
     4
 40
7.5
 49
5.0
 49
-1.25
 49
0.0
 49
-1.25
  0
ENDTAB
  0
TABLE
  2
LAYER
 70
     9
  0
LAYER
  2
0
 70
     0
 62
     7
  6
CONTINUOUS
  0
LAYER
  2
LC-INFO-1-2-MM-A3-0
 70
     1
 62
    -1
  6
CONTINUOUS
  0
LAYER
  2
LC-004-003-MTH-0
 70
     0
 62
     2
  6
CONTINUOUS
  0
LAYER
  2
LC-003-003-----0
 70
     0
 62
     2
  6
CONTINUOUS
  0
LAYER
  2
LC-005-003-MTG-0
 70
     0
 62
     2
  6
CONTINUOUS
  0
LAYER
  2
LC-006-005-----0
 70
     0
 62
     2
  6
CONTINUOUS
  0
LAYER
  2
LC-001-002-----0
 70
     0
 62
     2
  6
CONTINUOUS
  0
LAYER
  2
LC-002-002-RND-0
 70
     0
 62
     1
  6
CONTINUOUS
  0
LAYER
  2
LC-000
 70
     0
 62
     7
  6
CONTINUOUS
  0
ENDTAB
  0
TABLE
  2
STYLE
 70
     4
  0
STYLE
  2
STANDARD
 70
     0
 40
0.0
 41
1.0
 50
0.0
 71
     0
 42
0.0
  3
txt
  4

  0
STYLE
  2
LC-STANDARD
 70
    64
 40
0.0
 41
1.0
 50
0.0
 71
     0
 42
3.5
  3
MONOTXT
  4

  0
STYLE
  2
LC-TXTSTYLE-150-400-0-0-A2
 70
    64
 40
0.0
 41
1.0
 50
15.0
 71
     0
 42
3.5
  3
MONOTXT
  4

  0
STYLE
  2
LC-TXTSTYLE-150-400-0-0-D3
 70
    64
 40
0.0
 41
1.0
 50
15.0
 71
     0
 42
3.5
  3
LC-STANDARD
  4

  0
ENDTAB
  0
TABLE
  2
VIEW
 70
     0
  0
ENDTAB
  0
TABLE
  2
UCS
 70
     0
  0
ENDTAB
  0
TABLE
  2
APPID
 70
     1
  0
APPID
  2
ACAD
 70
     0
  0
ENDTAB
  0
TABLE
  2
DIMSTYLE
 70
     3
  0
DIMSTYLE
  2
STANDARD
 70
     0
  3

  4

  5

  6

  7

 40
1.0
 41
0.18
 42
0.0625
 43
0.38
 44
0.18
 45
0.0
 46
0.0
 47
0.0
 48
0.0
 71
     0
 72
     0
 73
     1
 74
     1
 75
     0
 76
     0
 77
     0
 78
     0
140
0.18
141
0.09
142
0.0
143
25.4
144
1.0
145
0.0
146
1.0
147
0.09
170
     0
171
     2
172
     0
173
     0
174
     0
175
     0
176
     0
177
     0
178
     0
  0
DIMSTYLE
  2
LC-STANDARD
 70
     0
  3

  4

  5

  6

  7

 40
1.0
 41
3.5
 42
0.0
 43
7.5
 44
1.8
 45
0.0
 46
0.0
 47
0.0
 48
0.0
 71
     0
 72
     0
 73
     0
 74
     0
 75
     0
 76
     0
 77
     1
 78
     8
140
3.5
141
0.0
142
0.0
143
25.4
144
1.0
145
0.0
146
0.71
147
1.5
170
     0
171
     2
172
     1
173
     0
174
     0
175
     0
176
     0
177
     0
178
     3
  0
DIMSTYLE
  2
LC-DIM-L-0140-02-02
 70
     0
  3

  4

  5

  6

  7

 40
2.0
 41
3.5
 42
0.0
 43
7.5
 44
1.8
 45
0.0
 46
0.0
 47
0.0
 48
0.0
 71
     0
 72
     0
 73
     0
 74
     0
 75
     0
 76
     0
 77
     1
 78
     8
140
14.0
141
0.0
142
0.0
143
25.4
144
1.0
145
0.0
146
0.71
147
1.5
170
     0
171
     2
172
     0
173
     0
174
     0
175
     0
176
     2
177
     2
178
     8
  0
ENDTAB
  0
ENDSEC
  0
SECTION
  2
BLOCKS
  0
BLOCK
  8
0
  5
23
  2
*D0
 70
    65
 10
0.0
 20
0.0
 30
0.0
  3
*D0
  0
LINE
  8
LC-004-003-MTH-0
  6
CONTINUOUS
  5
25
 10
239.29419
 20
408.802201
 30
0.0
 11
179.2
 21
408.802201
 31
0.0
  0
LINE
  8
LC-004-003-MTH-0
  6
CONTINUOUS
  5
26
 10
240.922013
 20
427.302488
 30
0.0
 11
179.2
 21
427.302488
 31
0.0
  0
LINE
  8
LC-003-003-----0
  6
CONTINUOUS
  5
28
 10
199.654733
 20
381.041744
 30
0.0
 11
196.0
 21
408.802201
 31
0.0
  0
LINE
  8
LC-003-003-----0
  6
CONTINUOUS
  5
29
 10
196.0
 20
408.802201
 30
0.0
 11
192.345267
 21
381.041744
 31
0.0
  0
LINE
  8
LC-003-003-----0
  6
CONTINUOUS
  5
2A
 10
192.345267
 20
381.041744
 30
0.0
 11
199.654733
 21
381.041744
 31
0.0
  0
LINE
  8
LC-003-003-----0
  6
CONTINUOUS
  5
2B
 10
198.704503
 20
380.979463
 30
0.0
 11
196.0
 21
401.522201
 31
0.0
  0
LINE
  8
LC-003-003-----0
  6
CONTINUOUS
  5
2C
 10
196.0
 20
401.522201
 30
0.0
 11
193.295497
 21
380.979463
 31
0.0
  0
LINE
  8
LC-003-003-----0
  6
CONTINUOUS
  5
2D
 10
197.754272
 20
380.917182
 30
0.0
 11
196.0
 21
394.242201
 31
0.0
  0
LINE
  8
LC-003-003-----0
  6
CONTINUOUS
  5
2E
 10
196.0
 20
394.242201
 30
0.0
 11
194.245728
 21
380.917182
 31
0.0
  0
LINE
  8
LC-003-003-----0
  6
CONTINUOUS
  5
2F
 10
196.804041
 20
380.8549
 30
0.0
 11
196.0
 21
386.962201
 31
0.0
  0
LINE
  8
LC-003-003-----0
  6
CONTINUOUS
  5
30
 10
196.0
 20
386.962201
 30
0.0
 11
195.195959
 21
380.8549
 31
0.0
  0
LINE
  8
LC-003-003-----0
  6
CONTINUOUS
  5
31
 10
192.345267
 20
455.062944
 30
0.0
 11
196.0
 21
427.302488
 31
0.0
  0
LINE
  8
LC-003-003-----0
  6
CONTINUOUS
  5
32
 10
196.0
 20
427.302488
 30
0.0
 11
199.654733
 21
455.062944
 31
0.0
  0
LINE
  8
LC-003-003-----0
  6
CONTINUOUS
  5
33
 10
199.654733
 20
455.062944
 30
0.0
 11
192.345267
 21
455.062944
 31
0.0
  0
LINE
  8
LC-003-003-----0
  6
CONTINUOUS
  5
34
 10
193.295497
 20
455.125226
 30
0.0
 11
196.0
 21
434.582488
 31
0.0
  0
LINE
  8
LC-003-003-----0
  6
CONTINUOUS
  5
35
 10
196.0
 20
434.582488
 30
0.0
 11
198.704503
 21
455.125226
 31
0.0
  0
LINE
  8
LC-003-003-----0
  6
CONTINUOUS
  5
36
 10
194.245728
 20
455.187507
 30
0.0
 11
196.0
 21
441.862488
 31
0.0
  0
LINE
  8
LC-003-003-----0
  6
CONTINUOUS
  5
37
 10
196.0
 20
441.862488
 30
0.0
 11
197.754272
 21
455.187507
 31
0.0
  0
LINE
  8
LC-003-003-----0
  6
CONTINUOUS
  5
38
 10
195.195959
 20
455.249788
 30
0.0
 11
196.0
 21
449.142488
 31
0.0
  0
LINE
  8
LC-003-003-----0
  6
CONTINUOUS
  5
39
 10
196.0
 20
449.142488
 30
0.0
 11
196.804041
 21
455.249788
 31
0.0
  0
LINE
  8
LC-005-003-MTG-0
  6
CONTINUOUS
  5
3B
 10
196.0
 20
299.034501
 30
0.0
 11
196.0
 21
466.502488
 31
0.0
  0
TEXT
  8
LC-003-003-----0
  6
CONTINUOUS
 62
     8
  5
3D
 10
188.172446
 20
305.224691
 30
0.0
 40
28.0
  1
18,5
 50
90.0
 41
0.9
 51
15.0
  7
LC-TXTSTYLE-150-400-0-0-D0
 72
     2
 11
188.172446
 21
375.070361
 31
0.0
  0
ENDBLK
  8
0
  5
3E
  0
BLOCK
  8
0
  5
40
  2
*X1
 70
    65
 10
238.792704
 20
408.802243
 30
0.0
  3
*X1
  0
LINE
  8
LC-006-005-----0
  6
CONTINUOUS
  5
42
 10
245.295128
 20
409.343902
 30
0.0
 11
246.168245
 21
410.217018
 31
0.0
  0
LINE
  8
LC-006-005-----0
  6
CONTINUOUS
  5
43
 10
241.925506
 20
408.802707
 30
0.0
 11
243.299409
 21
410.17661
 31
0.0
  0
LINE
  8
LC-006-005-----0
  6
CONTINUOUS
  5
44
 10
243.720345
 20
410.597545
 30
0.0
 11
245.268763
 21
412.145963
 31
0.0
  0
LINE
  8
LC-006-005-----0
  6
CONTINUOUS
  5
45
 10
239.294155
 20
408.999782
 30
0.0
 11
244.369281
 21
414.074908
 31
0.0
  0
LINE
  8
LC-006-005-----0
  6
CONTINUOUS
  5
46
 10
245.717576
 20
415.423204
 30
0.0
 11
246.436264
 21
416.141891
 31
0.0
  0
LINE
  8
LC-006-005-----0
  6
CONTINUOUS
  5
47
 10
239.293656
 20
411.827711
 30
0.0
 11
243.469799
 21
416.003853
 31
0.0
  0
LINE
  8
LC-006-005-----0
  6
CONTINUOUS
  5
48
 10
244.302302
 20
416.836356
 30
0.0
 11
245.536782
 21
418.070836
 31
0.0
  0
LINE
  8
LC-006-005-----0
  6
CONTINUOUS
  5
49
 10
239.293157
 20
414.655639
 30
0.0
 11
244.6373
 21
419.999782
 31
0.0
  0
LINE
  8
LC-006-005-----0
  6
CONTINUOUS
  5
4A
 10
245.949368
 20
421.31185
 30
0.0
 11
246.533915
 21
421.896397
 31
0.0
  0
LINE
  8
LC-006-005-----0
  6
CONTINUOUS
  5
4B
 10
238.804486
 20
416.995395
 30
0.0
 11
243.737818
 21
421.928727
 31
0.0
  0
LINE
  8
LC-006-005-----0
  6
CONTINUOUS
  5
4C
 10
244.473727
 20
422.664636
 30
0.0
 11
245.645903
 21
423.836812
 31
0.0
  0
LINE
  8
LC-006-005-----0
  6
CONTINUOUS
  5
4D
 10
239.551188
 20
420.570524
 30
0.0
 11
244.746421
 21
425.765757
 31
0.0
  0
LINE
  8
LC-006-005-----0
  6
CONTINUOUS
  5
4E
 10
238.859183
 20
422.706946
 30
0.0
 11
243.455172
 21
427.302935
 31
0.0
  0
ENDBLK
  8
0
  5
4F
  0
BLOCK
  8
0
  5
51
  2
*X2
 70
    65
 10
382.28935
 20
408.802243
 30
0.0
  3
*X2
  0
LINE
  8
LC-006-005-----0
  6
CONTINUOUS
  5
52
 10
394.660306
 20
408.802442
 30
0.0
 11
395.788062
 21
409.930198
 31
0.0
  0
LINE
  8
LC-006-005-----0
  6
CONTINUOUS
  5
53
 10
391.832378
 20
408.80294
 30
0.0
 11
395.788561
 21
412.759124
 31
0.0
  0
LINE
  8
LC-006-005-----0
  6
CONTINUOUS
  5
54
 10
389.005585
 20
408.804575
 30
0.0
 11
396.133497
 21
415.932487
 31
0.0
  0
LINE
  8
LC-006-005-----0
  6
CONTINUOUS
  5
55
 10
390.07082
 20
412.698237
 30
0.0
 11
396.152306
 21
418.779723
 31
0.0
  0
LINE
  8
LC-006-005-----0
  6
CONTINUOUS
  5
56
 10
391.523854
 20
416.979698
 30
0.0
 11
395.549212
 21
421.005056
 31
0.0
  0
LINE
  8
LC-006-005-----0
  6
CONTINUOUS
  5
57
 10
389.334444
 20
417.618715
 30
0.0
 11
396.179875
 21
424.464146
 31
0.0
  0
LINE
  8
LC-006-005-----0
  6
CONTINUOUS
  5
58
 10
391.409778
 20
422.522477
 30
0.0
 11
395.246063
 21
426.358761
 31
0.0
  0
LINE
  8
LC-006-005-----0
  6
CONTINUOUS
  5
59
 10
389.034636
 20
422.975761
 30
0.0
 11
393.361503
 21
427.302629
 31
0.0
  0
ENDBLK
  8
0
  5
5A
  0
BLOCK
  8
0
  5
5C
  2
*D3
 70
    65
 10
0.0
 20
0.0
 30
0.0
  3
*D3
  0
LINE
  8
LC-004-003-MTH-0
  6
CONTINUOUS
  5
5D
 10
238.792704
 20
417.401379
 30
0.0
 11
238.792704
 21
487.2
 31
0.0
  0
LINE
  8
LC-004-003-MTH-0
  6
CONTINUOUS
  5
5E
 10
396.28935
 20
417.401379
 30
0.0
 11
396.28935
 21
487.2
 31
0.0
  0
LINE
  8
LC-005-003-MTG-0
  6
CONTINUOUS
  5
5F
 10
238.792704
 20
470.4
 30
0.0
 11
396.28935
 21
470.4
 31
0.0
  0
LINE
  8
LC-003-003-----0
  6
CONTINUOUS
  5
60
 10
266.55316
 20
474.054733
 30
0.0
 11
238.792704
 21
470.4
 31
0.0
  0
LINE
  8
LC-003-003-----0
  6
CONTINUOUS
  5
61
 10
238.792704
 20
470.4
 30
0.0
 11
266.55316
 21
466.745267
 31
0.0
  0
LINE
  8
LC-003-003-----0
  6
CONTINUOUS
  5
62
 10
266.55316
 20
466.745267
 30
0.0
 11
266.55316
 21
474.054733
 31
0.0
  0
LINE
  8
LC-003-003-----0
  6
CONTINUOUS
  5
63
 10
266.615441
 20
473.104503
 30
0.0
 11
246.072704
 21
470.4
 31
0.0
  0
LINE
  8
LC-003-003-----0
  6
CONTINUOUS
  5
64
 10
246.072704
 20
470.4
 30
0.0
 11
266.615441
 21
467.695497
 31
0.0
  0
LINE
  8
LC-003-003-----0
  6
CONTINUOUS
  5
65
 10
266.677722
 20
472.154272
 30
0.0
 11
253.352704
 21
470.4
 31
0.0
  0
LINE
  8
LC-003-003-----0
  6
CONTINUOUS
  5
66
 10
253.352704
 20
470.4
 30
0.0
 11
266.677722
 21
468.645728
 31
0.0
  0
LINE
  8
LC-003-003-----0
  6
CONTINUOUS
  5
67
 10
266.740004
 20
471.204041
 30
0.0
 11
260.632704
 21
470.4
 31
0.0
  0
LINE
  8
LC-003-003-----0
  6
CONTINUOUS
  5
68
 10
260.632704
 20
470.4
 30
0.0
 11
266.740004
 21
469.595959
 31
0.0
  0
LINE
  8
LC-003-003-----0
  6
CONTINUOUS
  5
69
 10
368.528893
 20
466.745267
 30
0.0
 11
396.28935
 21
470.4
 31
0.0
  0
LINE
  8
LC-003-003-----0
  6
CONTINUOUS
  5
6A
 10
396.28935
 20
470.4
 30
0.0
 11
368.528893
 21
474.054733
 31
0.0
  0
LINE
  8
LC-003-003-----0
  6
CONTINUOUS
  5
6B
 10
368.528893
 20
474.054733
 30
0.0
 11
368.528893
 21
466.745267
 31
0.0
  0
LINE
  8
LC-003-003-----0
  6
CONTINUOUS
  5
6C
 10
368.466612
 20
467.695497
 30
0.0
 11
389.00935
 21
470.4
 31
0.0
  0
LINE
  8
LC-003-003-----0
  6
CONTINUOUS
  5
6D
 10
389.00935
 20
470.4
 30
0.0
 11
368.466612
 21
473.104503
 31
0.0
  0
LINE
  8
LC-003-003-----0
  6
CONTINUOUS
  5
6E
 10
368.404331
 20
468.645728
 30
0.0
 11
381.72935
 21
470.4
 31
0.0
  0
LINE
  8
LC-003-003-----0
  6
CONTINUOUS
  5
6F
 10
381.72935
 20
470.4
 30
0.0
 11
368.404331
 21
472.154272
 31
0.0
  0
LINE
  8
LC-003-003-----0
  6
CONTINUOUS
  5
70
 10
368.342049
 20
469.595959
 30
0.0
 11
374.44935
 21
470.4
 31
0.0
  0
LINE
  8
LC-003-003-----0
  6
CONTINUOUS
  5
71
 10
374.44935
 20
470.4
 30
0.0
 11
368.342049
 21
471.204041
 31
0.0
  0
TEXT
  8
LC-003-003-----0
  6
CONTINUOUS
 62
     8
  5
72
 10
267.322257
 20
478.227554
 30
0.0
 40
28.0
  1
Ø157,5
 51
15.0
  7
LC-TXTSTYLE-150-400-0-0-D0
 72
     1
 11
321.889186
 21
478.227554
 31
0.0
  0
ENDBLK
  8
0
  5
73
  0
BLOCK
  8
0
  5
75
  2
*D4
 70
    65
 10
0.0
 20
0.0
 30
0.0
  3
*D4
  0
LINE
  8
LC-004-003-MTH-0
  6
CONTINUOUS
  5
76
 10
246.500443
 20
409.504617
 30
0.0
 11
246.500443
 21
336.0
 31
0.0
  0
LINE
  8
LC-004-003-MTH-0
  6
CONTINUOUS
  5
77
 10
388.58161
 20
409.504617
 30
0.0
 11
388.58161
 21
336.0
 31
0.0
  0
LINE
  8
LC-005-003-MTG-0
  6
CONTINUOUS
  5
78
 10
246.500443
 20
352.8
 30
0.0
 11
388.58161
 21
352.8
 31
0.0
  0
LINE
  8
LC-003-003-----0
  6
CONTINUOUS
  5
79
 10
274.260899
 20
356.454733
 30
0.0
 11
246.500443
 21
352.8
 31
0.0
  0
LINE
  8
LC-003-003-----0
  6
CONTINUOUS
  5
7A
 10
246.500443
 20
352.8
 30
0.0
 11
274.260899
 21
349.145267
 31
0.0
  0
LINE
  8
LC-003-003-----0
  6
CONTINUOUS
  5
7B
 10
274.260899
 20
349.145267
 30
0.0
 11
274.260899
 21
356.454733
 31
0.0
  0
LINE
  8
LC-003-003-----0
  6
CONTINUOUS
  5
7C
 10
274.32318
 20
355.504503
 30
0.0
 11
253.780443
 21
352.8
 31
0.0
  0
LINE
  8
LC-003-003-----0
  6
CONTINUOUS
  5
7D
 10
253.780443
 20
352.8
 30
0.0
 11
274.32318
 21
350.095497
 31
0.0
  0
LINE
  8
LC-003-003-----0
  6
CONTINUOUS
  5
7E
 10
274.385462
 20
354.554272
 30
0.0
 11
261.060443
 21
352.8
 31
0.0
  0
LINE
  8
LC-003-003-----0
  6
CONTINUOUS
  5
7F
 10
261.060443
 20
352.8
 30
0.0
 11
274.385462
 21
351.045728
 31
0.0
  0
LINE
  8
LC-003-003-----0
  6
CONTINUOUS
  5
80
 10
274.447743
 20
353.604041
 30
0.0
 11
268.340443
 21
352.8
 31
0.0
  0
LINE
  8
LC-003-003-----0
  6
CONTINUOUS
  5
81
 10
268.340443
 20
352.8
 30
0.0
 11
274.447743
 21
351.995959
 31
0.0
  0
LINE
  8
LC-003-003-----0
  6
CONTINUOUS
  5
82
 10
360.821154
 20
349.145267
 30
0.0
 11
388.58161
 21
352.8
 31
0.0
  0
LINE
  8
LC-003-003-----0
  6
CONTINUOUS
  5
83
 10
388.58161
 20
352.8
 30
0.0
 11
360.821154
 21
356.454733
 31
0.0
  0
LINE
  8
LC-003-003-----0
  6
CONTINUOUS
  5
84
 10
360.821154
 20
356.454733
 30
0.0
 11
360.821154
 21
349.145267
 31
0.0
  0
LINE
  8
LC-003-003-----0
  6
CONTINUOUS
  5
85
 10
360.758873
 20
350.095497
 30
0.0
 11
381.30161
 21
352.8
 31
0.0
  0
LINE
  8
LC-003-003-----0
  6
CONTINUOUS
  5
86
 10
381.30161
 20
352.8
 30
0.0
 11
360.758873
 21
355.504503
 31
0.0
  0
LINE
  8
LC-003-003-----0
  6
CONTINUOUS
  5
87
 10
360.696591
 20
351.045728
 30
0.0
 11
374.02161
 21
352.8
 31
0.0
  0
LINE
  8
LC-003-003-----0
  6
CONTINUOUS
  5
88
 10
374.02161
 20
352.8
 30
0.0
 11
360.696591
 21
354.554272
 31
0.0
  0
LINE
  8
LC-003-003-----0
  6
CONTINUOUS
  5
89
 10
360.63431
 20
351.995959
 30
0.0
 11
366.74161
 21
352.8
 31
0.0
  0
LINE
  8
LC-003-003-----0
  6
CONTINUOUS
  5
8A
 10
366.74161
 20
352.8
 30
0.0
 11
360.63431
 21
353.604041
 31
0.0
  0
TEXT
  8
LC-003-003-----0
  6
CONTINUOUS
 62
     8
  5
8B
 10
283.791549
 20
360.627554
 30
0.0
 40
28.0
  1
Ø145
 51
15.0
  7
LC-TXTSTYLE-150-400-0-0-D0
 72
     1
 11
321.889186
 21
360.627554
 31
0.0
  0
ENDBLK
  8
0
  5
8C
  0
ENDSEC
  0
SECTION
  2
ENTITIES
  0
VIEWPORT
  8
LC-000
  5
C4
 67
     1
 68
     1
 10
420.0
 20
297.0
 30
0.0
 40
840.0
 41
594.0
 69
     1
1001
ACAD
1000
MVIEW
1002
{
1070
    16
1010
0.0
1020
0.0
1030
0.0
1010
0.0
1020
0.0
1030
1.0
1040
0.0
1040
594.0
1040
420.0
1040
297.0
1040
50.0
1040
0.0
1040
0.0
1070
     0
1070
   100
1070
     1
1070
     1
1070
     0
1070
     0
1070
     0
1070
     0
1040
0.0
1040
0.0
1040
0.0
1040
1.0
1040
1.0
1040
0.0
1040
0.0
1070
     0
1002
{
1002
}
1002
}
  0
VIEWPORT
  8
0
  5
C5
 67
     1
 68
     1
 10
0.0
 20
0.0
 30
0.0
 40
0.0
 41
0.0
 69
     1
1001
ACAD
1000
MVIEW
1002
{
1070
    16
1010
0.0
1020
0.0
1030
0.0
1010
0.0
1020
0.0
1030
1.0
1040
0.0
1040
594.0
1040
0.0
1040
0.0
1040
50.0
1040
0.0
1040
0.0
1070
     0
1070
   100
1070
     0
1070
     1
1070
     0
1070
     0
1070
     0
1070
     0
1040
0.0
1040
0.0
1040
0.0
1040
0.5
1040
0.5
1040
0.5
1040
0.5
1070
     0
1002
{
1002
}
1002
}
  0
DIMENSION
  8
0
  5
8D
  2
*D0
 10
196.0
 20
414.305874
 30
0.0
 11
196.0
 21
414.305874
 31
0.0
 13
240.922013
 23
427.302488
 33
0.0
 14
239.29419
 24
408.802201
 34
0.0
 50
90.0
  3
LC-DIM-L-0140-02-02
  0
INSERT
  8
0
  5
8E
  2
*X1
 10
238.792704
 20
408.802243
 30
0.0
  0
INSERT
  8
0
  5
8F
  2
*X2
 10
382.28935
 20
408.802243
 30
0.0
  0
DIMENSION
  8
0
  5
90
  2
*D3
 10
317.541027
 20
470.4
 30
0.0
 11
317.541027
 21
470.4
 31
0.0
  1
%%c<>
 13
238.792704
 23
417.401379
 33
0.0
 14
396.28935
 24
417.401379
 34
0.0
  3
LC-DIM-L-0140-02-02
  0
DIMENSION
  8
0
  5
91
  2
*D4
 10
317.541027
 20
352.8
 30
0.0
 11
317.541027
 21
352.8
 31
0.0
  1
%%c145
 13
246.500443
 23
409.504617
 33
0.0
 14
388.58161
 24
409.504617
 34
0.0
  3
LC-DIM-L-0140-02-02
  0
LINE
  8
LC-001-002-----0
  6
CONTINUOUS
  5
93
 10
246.042704
 20
421.303062
 30
0.0
 11
388.53935
 21
421.303062
 31
0.0
  0
LINE
  8
LC-001-002-----0
  6
CONTINUOUS
  5
94
 10
246.042704
 20
415.303062
 30
0.0
 11
389.03935
 21
415.303062
 31
0.0
  0
LINE
  8
LC-001-002-----0
  6
CONTINUOUS
 62
     1
  5
95
 10
243.29419
 20
408.802948
 30
0.0
 11
239.29419
 21
408.802243
 31
0.0
  0
ARC
  8
LC-001-002-----0
  6
CONTINUOUS
 62
     1
  5
96
 10
246.042704
 20
409.303433
 30
0.0
 40
0.5
 50
225.0
 51
23.726263
  0
ARC
  8
LC-002-002-RND-0
  6
CONTINUOUS
  5
98
 10
243.79396
 20
410.102994
 30
0.0
 40
0.5
 50
90.010108
 51
180.010108
  0
ARC
  8
LC-002-002-RND-0
  6
CONTINUOUS
  5
99
 10
243.828923
 20
410.103001
 30
0.0
 40
0.5
 50
45.0
 51
90.010108
  0
ARC
  8
LC-001-002-----0
  6
CONTINUOUS
 62
     1
  5
9A
 10
246.042704
 20
415.803062
 30
0.0
 40
0.5
 50
225.0
 51
23.726263
  0
LINE
  8
LC-001-002-----0
  6
CONTINUOUS
 62
     1
  5
9B
 10
244.182476
 20
410.456554
 30
0.0
 11
245.68915
 21
408.94988
 31
0.0
  0
LINE
  8
LC-001-002-----0
  6
CONTINUOUS
 62
     1
  5
9C
 10
243.828834
 20
410.603001
 30
0.0
 11
243.793872
 21
410.602994
 31
0.0
  0
ARC
  8
LC-001-002-----0
  6
CONTINUOUS
 62
     1
  5
9D
 10
246.042704
 20
421.803062
 30
0.0
 40
0.5
 50
225.0
 51
23.726263
  0
ARC
  8
LC-001-002-----0
  6
CONTINUOUS
 62
     1
  5
9E
 10
245.792704
 20
417.401379
 30
0.0
 40
7.0
 50
150.932725
 51
201.796223
  0
LINE
  8
LC-001-002-----0
  6
CONTINUOUS
 62
     1
  5
9F
 10
244.141266
 20
427.303056
 30
0.0
 11
240.922013
 21
427.302488
 31
0.0
  0
LINE
  8
LC-001-002-----0
  6
CONTINUOUS
 62
     1
  5
A0
 10
239.293131
 20
414.802232
 30
0.0
 11
239.29419
 21
408.802201
 31
0.0
  0
LINE
  8
LC-001-002-----0
  6
CONTINUOUS
 62
     1
  5
A1
 10
244.141309
 20
427.302961
 30
0.0
 11
391.04606
 21
427.302961
 31
0.0
  0
LINE
  8
LC-001-002-----0
  6
DASHDOT
  5
A3
 10
317.541027
 20
427.302961
 30
0.0
 11
317.541027
 21
408.802948
 31
0.0
  0
LINE
  8
LC-001-002-----0
  6
CONTINUOUS
 62
     1
  5
A4
 10
243.29419
 20
408.802948
 30
0.0
 11
391.787863
 21
408.802948
 31
0.0
  0
CIRCLE
  8
LC-001-002-----0
  6
CONTINUOUS
 62
     1
  5
A5
 10
241.30688
 20
111.91132
 30
0.0
 40
0.000088
  0
LINE
  8
LC-001-002-----0
  6
CONTINUOUS
 62
     1
  5
A6
 10
246.500448
 20
416.004248
 30
0.0
 11
243.666398
 21
422.081888
 31
0.0
  0
ARC
  8
LC-001-002-----0
  6
CONTINUOUS
 62
     1
  5
A7
 10
244.125764
 20
422.296094
 30
0.0
 40
0.506855
 50
45.0
 51
205.0
  0
LINE
  8
LC-001-002-----0
  6
CONTINUOUS
 62
     1
  5
A8
 10
244.484164
 20
422.654494
 30
0.0
 11
245.68915
 21
421.449508
 31
0.0
  0
LINE
  8
LC-001-002-----0
  6
CONTINUOUS
 62
     1
  5
A9
 10
246.500443
 20
422.004245
 30
0.0
 11
244.029576
 21
427.303036
 31
0.0
  0
ARC
  8
LC-001-002-----0
  6
CONTINUOUS
 62
     1
  5
AA
 10
243.292704
 20
423.477592
 30
0.0
 40
4.5
 50
121.790849
 51
216.478736
  0
LINE
  8
LC-001-002-----0
  6
CONTINUOUS
 62
     1
  5
AB
 10
391.787863
 20
408.802948
 30
0.0
 11
395.787863
 21
408.802243
 31
0.0
  0
LINE
  8
LC-001-002-----0
  6
CONTINUOUS
 62
     1
  5
AC
 10
391.788093
 20
410.102906
 30
0.0
 11
391.787863
 21
408.802906
 31
0.0
  0
LINE
  8
LC-001-002-----0
  6
CONTINUOUS
 62
     1
  5
AD
 10
388.58161
 20
409.504617
 30
0.0
 11
391.73724
 21
416.271886
 31
0.0
  0
LINE
  8
LC-001-002-----0
  6
CONTINUOUS
 62
     1
  5
AE
 10
388.581605
 20
416.004248
 30
0.0
 11
391.415655
 21
422.081888
 31
0.0
  0
ARC
  8
LC-001-002-----0
  6
CONTINUOUS
 62
     1
  5
AF
 10
389.03935
 20
409.303433
 30
0.0
 40
0.5
 50
156.273737
 51
315.0
  0
ARC
  8
LC-002-002-RND-0
  6
CONTINUOUS
  5
B0
 10
391.288093
 20
410.102994
 30
0.0
 40
0.5
 50
359.989892
 51
89.989892
  0
ARC
  8
LC-001-002-----0
  6
CONTINUOUS
 62
     1
  5
B1
 10
391.234398
 20
416.506364
 30
0.0
 40
0.554824
 50
335.0
 51
135.0
  0
ARC
  8
LC-002-002-RND-0
  6
CONTINUOUS
  5
B2
 10
391.25313
 20
410.103001
 30
0.0
 40
0.5
 50
89.989892
 51
135.0
  0
ARC
  8
LC-001-002-----0
  6
CONTINUOUS
 62
     1
  5
B3
 10
391.78935
 20
423.477592
 30
0.0
 40
4.5
 50
323.521264
 51
58.209151
  0
LINE
  8
LC-001-002-----0
  6
CONTINUOUS
 62
     1
  5
B4
 10
390.842079
 20
416.898684
 30
0.0
 11
389.392903
 21
415.449508
 31
0.0
  0
ARC
  8
LC-001-002-----0
  6
CONTINUOUS
 62
     1
  5
B5
 10
389.03935
 20
415.803062
 30
0.0
 40
0.5
 50
156.273737
 51
315.0
  0
LINE
  8
LC-001-002-----0
  6
CONTINUOUS
 62
     1
  5
B6
 10
390.899577
 20
410.456554
 30
0.0
 11
389.392903
 21
408.94988
 31
0.0
  0
ARC
  8
LC-001-002-----0
  6
CONTINUOUS
 62
     1
  5
B7
 10
390.956289
 20
422.296094
 30
0.0
 40
0.506855
 50
335.0
 51
135.0
  0
LINE
  8
LC-001-002-----0
  6
CONTINUOUS
 62
     1
  5
B8
 10
391.253219
 20
410.603001
 30
0.0
 11
391.288181
 21
410.602994
 31
0.0
  0
ARC
  8
LC-001-002-----0
  6
CONTINUOUS
 62
     1
  5
B9
 10
389.03935
 20
421.803062
 30
0.0
 40
0.5
 50
156.273737
 51
315.0
  0
LINE
  8
LC-001-002-----0
  6
CONTINUOUS
 62
     1
  5
BA
 10
388.58161
 20
422.004245
 30
0.0
 11
391.052477
 21
427.303036
 31
0.0
  0
LINE
  8
LC-001-002-----0
  6
CONTINUOUS
 62
     1
  5
BB
 10
390.597889
 20
422.654494
 30
0.0
 11
389.392903
 21
421.449508
 31
0.0
  0
ARC
  8
LC-001-002-----0
  6
CONTINUOUS
 62
     1
  5
BC
 10
389.28935
 20
417.401379
 30
0.0
 40
7.0
 50
338.203777
 51
29.067275
  0
LINE
  8
LC-001-002-----0
  6
CONTINUOUS
 62
     1
  5
BD
 10
390.940787
 20
427.303056
 30
0.0
 11
394.16004
 21
427.302488
 31
0.0
  0
LINE
  8
LC-001-002-----0
  6
CONTINUOUS
 62
     1
  5
BE
 10
395.788922
 20
414.802232
 30
0.0
 11
395.787863
 21
408.802201
 31
0.0
  0
LINE
  8
LC-001-002-----0
  6
CONTINUOUS
 62
     1
  5
BF
 10
244.239974
 20
416.898684
 30
0.0
 11
245.68915
 21
415.449508
 31
0.0
  0
LINE
  8
LC-001-002-----0
  6
CONTINUOUS
 62
     1
  5
C0
 10
243.29396
 20
410.102994
 30
0.0
 11
243.29419
 21
408.802906
 31
0.0
  0
ARC
  8
LC-001-002-----0
  6
CONTINUOUS
 62
     1
  5
C1
 10
243.847655
 20
416.506364
 30
0.0
 40
0.554824
 50
45.0
 51
205.0
  0
LINE
  8
LC-001-002-----0
  6
CONTINUOUS
 62
     1
  5
C2
 10
246.500443
 20
409.504617
 30
0.0
 11
243.344813
 21
416.271886
 31
0.0
  0
ENDSEC
  0
EOF
