  0
SECTION
  2
HEADER
  9
$ACADVER
  1
AC1009
  9
$INSBASE
 10
0.0
 20
0.0
 30
0.0
  9
$EXTMIN
 10
0.0
 20
0.0
 30
0.0
  9
$EXTMAX
 10
840.0
 20
594.0
 30
0.0
  9
$LIMMIN
 10
0.0
 20
0.0
  9
$LIMMAX
 10
840.0
 20
594.0
  9
$ORTHOMODE
 70
     0
  9
$REGENMODE
 70
     1
  9
$FILLMODE
 70
     1
  9
$QTEXTMODE
 70
     0
  9
$MIRRTEXT
 70
     1
  9
$DRAGMODE
 70
     2
  9
$LTSCALE
 40
2.0
  9
$OSMODE
 70
     0
  9
$ATTMODE
 70
     1
  9
$TEXTSIZE
 40
0.2
  9
$TRACEWID
 40
0.05
  9
$TEXTSTYLE
  7
STANDARD
  9
$CLAYER
  8
0
  9
$CELTYPE
  6
BYLAYER
  9
$CECOLOR
 62
     7
  9
$DIMSCALE
 40
2.0
  9
$DIMASZ
 40
3.5
  9
$DIMEXO
 40
0.0625
  9
$DIMDLI
 40
0.38
  9
$DIMRND
 40
0.0
  9
$DIMDLE
 40
0.0
  9
$DIMEXE
 40
0.18
  9
$DIMTP
 40
0.0
  9
$DIMTM
 40
0.0
  9
$DIMTXT
 40
3.5
  9
$DIMCEN
 40
0.09
  9
$DIMTSZ
 40
0.0
  9
$DIMTOL
 70
     0
  9
$DIMLIM
 70
     0
  9
$DIMTIH
 70
     1
  9
$DIMTOH
 70
     1
  9
$DIMSE1
 70
     0
  9
$DIMSE2
 70
     0
  9
$DIMTAD
 70
     1
  9
$DIMZIN
 70
     0
  9
$DIMBLK
  1

  9
$DIMASO
 70
     1
  9
$DIMSHO
 70
     1
  9
$DIMPOST
  1

  9
$DIMAPOST
  1

  9
$DIMALT
 70
     0
  9
$DIMALTD
 70
     2
  9
$DIMALTF
 40
25.4
  9
$DIMLFAC
 40
1.0
  9
$DIMTOFL
 70
     0
  9
$DIMTVP
 40
0.0
  9
$DIMTIX
 70
     0
  9
$DIMSOXD
 70
     0
  9
$DIMSAH
 70
     0
  9
$DIMBLK1
  1

  9
$DIMBLK2
  1

  9
$DIMSTYLE
  2
STANDARD
  9
$DIMCLRD
 70
     0
  9
$DIMCLRE
 70
     0
  9
$DIMCLRT
 70
     0
  9
$DIMTFAC
 40
1.0
  9
$DIMGAP
 40
0.09
  9
$LUNITS
 70
     2
  9
$LUPREC
 70
     2
  9
$AXISMODE
 70
     0
  9
$AXISUNIT
 10
0.0
 20
0.0
  9
$SKETCHINC
 40
0.1
  9
$FILLETRAD
 40
0.0
  9
$AUNITS
 70
     0
  9
$AUPREC
 70
     0
  9
$MENU
  1
acad
  9
$ELEVATION
 40
0.0
  9
$PELEVATION
 40
0.0
  9
$THICKNESS
 40
0.0
  9
$LIMCHECK
 70
     0
  9
$BLIPMODE
 70
     1
  9
$CHAMFERA
 40
0.0
  9
$CHAMFERB
 40
0.0
  9
$SKPOLY
 70
     0
  9
$TDCREATE
 40
0.000000000
  9
$TDUPDATE
 40
0.000000000
  9
$TDINDWG
 40
0.0000000000
  9
$TDUSRTIMER
 40
0.0000000000
  9
$USRTIMER
 70
     1
  9
$ANGBASE
 50
0.0
  9
$ANGDIR
 70
     0
  9
$PDMODE
 70
     0
  9
$PDSIZE
 40
0.0
  9
$PLINEWID
 40
0.0
  9
$COORDS
 70
     0
  9
$SPLFRAME
 70
     0
  9
$SPLINETYPE
 70
     6
  9
$SPLINESEGS
 70
     8
  9
$ATTDIA
 70
     0
  9
$ATTREQ
 70
     1
  9
$HANDLING
 70
     1
  9
$HANDSEED
  5
231
  9
$SURFTAB1
 70
     6
  9
$SURFTAB2
 70
     6
  9
$SURFTYPE
 70
     6
  9
$SURFU
 70
     6
  9
$SURFV
 70
     6
  9
$UCSNAME
  2

  9
$UCSORG
 10
0.0
 20
0.0
 30
0.0
  9
$UCSXDIR
 10
1.0
 20
0.0
 30
0.0
  9
$UCSYDIR
 10
0.0
 20
1.0
 30
0.0
  9
$PUCSNAME
  2

  9
$PUCSORG
 10
0.0
 20
0.0
 30
0.0
  9
$PUCSXDIR
 10
1.0
 20
0.0
 30
0.0
  9
$PUCSYDIR
 10
0.0
 20
1.0
 30
0.0
  9
$USERI1
 70
     0
  9
$USERI2
 70
     0
  9
$USERI3
 70
     0
  9
$USERI4
 70
     0
  9
$USERI5
 70
     0
  9
$USERR1
 40
0.0
  9
$USERR2
 40
0.0
  9
$USERR3
 40
0.0
  9
$USERR4
 40
0.0
  9
$USERR5
 40
0.0
  9
$WORLDVIEW
 70
     1
  9
$SHADEDGE
 70
     3
  9
$SHADEDIF
 70
    70
  9
$TILEMODE
 70
     1
  9
$MAXACTVP
 70
    16
  9
$PINSBASE
 10
0.0
 20
0.0
 30
0.0
  9
$PLIMCHECK
 70
     0
  9
$PEXTMIN
 10
1.000000E+20
 20
1.000000E+20
 30
1.000000E+20
  9
$PEXTMAX
 10
-1.000000E+20
 20
-1.000000E+20
 30
-1.000000E+20
  9
$PLIMMIN
 10
0.0
 20
0.0
  9
$PLIMMAX
 10
840.0
 20
594.0
  9
$UNITMODE
 70
     0
  9
$VISRETAIN
 70
     0
  9
$PLINEGEN
 70
     1
  9
$PSLTSCALE
 70
     0
  9
$TREEDEPTH
 70
  3020
  9
$DWGCODEPAGE
  3
dos850
  0
ENDSEC
  0
SECTION
  2
TABLES
  0
TABLE
  2
VPORT
 70
     1
  0
VPORT
  2
*ACTIVE
 70
     0
 10
0.0
 20
0.0
 11
1.0
 21
1.0
 12
420.0
 22
297.0
 13
0.0
 23
0.0
 14
1.0
 24
1.0
 15
0.0
 25
0.0
 16
0.0
 26
0.0
 36
1.0
 17
0.0
 27
0.0
 37
0.0
 40
594.0
 41
1.604229
 42
50.0
 43
0.0
 44
0.0
 50
0.0
 51
0.0
 71
     0
 72
   100
 73
     1
 74
     1
 75
     0
 76
     0
 77
     0
 78
     0
  0
ENDTAB
  0
TABLE
  2
LTYPE
 70
     3
  0
LTYPE
  2
CONTINUOUS
 70
    64
  3
Solid line
 72
    65
 73
     0
 40
0.0
  0
LTYPE
  2
DASHED
 70
    64
  3
__ __ __ __ __
 72
    65
 73
     2
 40
6.25
 49
5.0
 49
-1.25
  0
LTYPE
  2
DASHDOT
 70
    64
  3
__ . __ . __ . __ . __
 72
    65
 73
     4
 40
7.5
 49
5.0
 49
-1.25
 49
0.0
 49
-1.25
  0
ENDTAB
  0
TABLE
  2
LAYER
 70
    11
  0
LAYER
  2
0
 70
     0
 62
     7
  6
CONTINUOUS
  0
LAYER
  2
LC-INFO-1-2-MM-A3-0
 70
     1
 62
    -1
  6
CONTINUOUS
  0
LAYER
  2
LC-003-003-MTH-0
 70
     0
 62
     2
  6
CONTINUOUS
  0
LAYER
  2
LC-004-003-MTG-0
 70
     0
 62
     2
  6
CONTINUOUS
  0
LAYER
  2
LC-002-003-----0
 70
     0
 62
     2
  6
CONTINUOUS
  0
LAYER
  2
LC-007-005-----0
 70
     0
 62
     2
  6
CONTINUOUS
  0
LAYER
  2
LC-008-000-----0
 70
     0
 62
     7
  6
CONTINUOUS
  0
LAYER
  2
LC-001-002-----0
 70
     0
 62
     1
  6
CONTINUOUS
  0
LAYER
  2
LC-005-002-RND-0
 70
     0
 62
     1
  6
CONTINUOUS
  0
LAYER
  2
LC-006-002-___-0
 70
     0
 62
     2
  6
DASHED
  0
LAYER
  2
LC-000
 70
     0
 62
     7
  6
CONTINUOUS
  0
ENDTAB
  0
TABLE
  2
STYLE
 70
     3
  0
STYLE
  2
STANDARD
 70
     0
 40
0.0
 41
1.0
 50
0.0
 71
     0
 42
0.0
  3
txt
  4

  0
STYLE
  2
LC-TXTSTYLE-150-400-0-0-A1
 70
    64
 40
0.0
 41
1.0
 50
15.0
 71
     0
 42
3.5
  3
Arial
  4

  0
STYLE
  2
LC-STANDARD
 70
    64
 40
0.0
 41
1.0
 50
0.0
 71
     0
 42
3.5
  3
MONOTXT
  4

  0
ENDTAB
  0
TABLE
  2
VIEW
 70
     0
  0
ENDTAB
  0
TABLE
  2
UCS
 70
     0
  0
ENDTAB
  0
TABLE
  2
APPID
 70
     1
  0
APPID
  2
ACAD
 70
     0
  0
ENDTAB
  0
TABLE
  2
DIMSTYLE
 70
     3
  0
DIMSTYLE
  2
STANDARD
 70
     0
  3

  4

  5

  6

  7

 40
1.0
 41
0.18
 42
0.0625
 43
0.38
 44
0.18
 45
0.0
 46
0.0
 47
0.0
 48
0.0
 71
     0
 72
     0
 73
     1
 74
     1
 75
     0
 76
     0
 77
     0
 78
     0
140
0.18
141
0.09
142
0.0
143
25.4
144
1.0
145
0.0
146
1.0
147
0.09
170
     0
171
     2
172
     0
173
     0
174
     0
175
     0
176
     0
177
     0
178
     0
  0
DIMSTYLE
  2
LC-STANDARD
 70
     0
  3

  4

  5

  6

  7

 40
1.0
 41
3.5
 42
0.0
 43
7.5
 44
1.8
 45
0.0
 46
0.0
 47
0.0
 48
0.0
 71
     0
 72
     0
 73
     0
 74
     0
 75
     0
 76
     0
 77
     1
 78
     8
140
3.5
141
0.0
142
0.0
143
25.4
144
1.0
145
0.0
146
0.71
147
1.5
170
     0
171
     2
172
     1
173
     0
174
     0
175
     0
176
     0
177
     0
178
     3
  0
DIMSTYLE
  2
LC-DIM-L-0140-02-02
 70
     0
  3

  4

  5

  6

  7

 40
2.0
 41
3.5
 42
0.0
 43
7.5
 44
1.8
 45
0.0
 46
0.0
 47
0.0
 48
0.0
 71
     0
 72
     0
 73
     0
 74
     0
 75
     0
 76
     0
 77
     1
 78
     8
140
14.0
141
0.0
142
0.0
143
25.4
144
1.0
145
0.0
146
0.71
147
1.5
170
     0
171
     2
172
     0
173
     0
174
     0
175
     0
176
     2
177
     2
178
     8
  0
ENDTAB
  0
ENDSEC
  0
SECTION
  2
BLOCKS
  0
BLOCK
  8
0
  5
23
  2
*D0
 70
    65
 10
0.0
 20
0.0
 30
0.0
  3
*D0
  0
LINE
  8
LC-003-003-MTH-0
  6
CONTINUOUS
  5
25
 10
380.070564
 20
279.731229
 30
0.0
 11
456.8
 21
279.731229
 31
0.0
  0
LINE
  8
LC-003-003-MTH-0
  6
CONTINUOUS
  5
26
 10
346.126086
 20
354.731134
 30
0.0
 11
456.8
 21
354.731134
 31
0.0
  0
LINE
  8
LC-004-003-MTG-0
  6
CONTINUOUS
  5
28
 10
440.0
 20
279.731229
 30
0.0
 11
440.0
 21
354.731134
 31
0.0
  0
LINE
  8
LC-002-003-----0
  6
CONTINUOUS
  5
2A
 10
436.345267
 20
307.491685
 30
0.0
 11
440.0
 21
279.731229
 31
0.0
  0
LINE
  8
LC-002-003-----0
  6
CONTINUOUS
  5
2B
 10
440.0
 20
279.731229
 30
0.0
 11
443.654733
 21
307.491685
 31
0.0
  0
LINE
  8
LC-002-003-----0
  6
CONTINUOUS
  5
2C
 10
443.654733
 20
307.491685
 30
0.0
 11
436.345267
 21
307.491685
 31
0.0
  0
LINE
  8
LC-002-003-----0
  6
CONTINUOUS
  5
2D
 10
437.295497
 20
307.553966
 30
0.0
 11
440.0
 21
287.011229
 31
0.0
  0
LINE
  8
LC-002-003-----0
  6
CONTINUOUS
  5
2E
 10
440.0
 20
287.011229
 30
0.0
 11
442.704503
 21
307.553966
 31
0.0
  0
LINE
  8
LC-002-003-----0
  6
CONTINUOUS
  5
2F
 10
438.245728
 20
307.616247
 30
0.0
 11
440.0
 21
294.291229
 31
0.0
  0
LINE
  8
LC-002-003-----0
  6
CONTINUOUS
  5
30
 10
440.0
 20
294.291229
 30
0.0
 11
441.754272
 21
307.616247
 31
0.0
  0
LINE
  8
LC-002-003-----0
  6
CONTINUOUS
  5
31
 10
439.195959
 20
307.678529
 30
0.0
 11
440.0
 21
301.571229
 31
0.0
  0
LINE
  8
LC-002-003-----0
  6
CONTINUOUS
  5
32
 10
440.0
 20
301.571229
 30
0.0
 11
440.804041
 21
307.678529
 31
0.0
  0
LINE
  8
LC-002-003-----0
  6
CONTINUOUS
  5
33
 10
443.654733
 20
326.970678
 30
0.0
 11
440.0
 21
354.731134
 31
0.0
  0
LINE
  8
LC-002-003-----0
  6
CONTINUOUS
  5
34
 10
440.0
 20
354.731134
 30
0.0
 11
436.345267
 21
326.970678
 31
0.0
  0
LINE
  8
LC-002-003-----0
  6
CONTINUOUS
  5
35
 10
436.345267
 20
326.970678
 30
0.0
 11
443.654733
 21
326.970678
 31
0.0
  0
LINE
  8
LC-002-003-----0
  6
CONTINUOUS
  5
36
 10
442.704503
 20
326.908397
 30
0.0
 11
440.0
 21
347.451134
 31
0.0
  0
LINE
  8
LC-002-003-----0
  6
CONTINUOUS
  5
37
 10
440.0
 20
347.451134
 30
0.0
 11
437.295497
 21
326.908397
 31
0.0
  0
LINE
  8
LC-002-003-----0
  6
CONTINUOUS
  5
38
 10
441.754272
 20
326.846115
 30
0.0
 11
440.0
 21
340.171134
 31
0.0
  0
LINE
  8
LC-002-003-----0
  6
CONTINUOUS
  5
39
 10
440.0
 20
340.171134
 30
0.0
 11
438.245728
 21
326.846115
 31
0.0
  0
LINE
  8
LC-002-003-----0
  6
CONTINUOUS
  5
3A
 10
440.804041
 20
326.783834
 30
0.0
 11
440.0
 21
332.891134
 31
0.0
  0
LINE
  8
LC-002-003-----0
  6
CONTINUOUS
  5
3B
 10
440.0
 20
332.891134
 30
0.0
 11
439.195959
 21
326.783834
 31
0.0
  0
TEXT
  8
LC-002-003-----0
  6
CONTINUOUS
 62
     8
  5
3C
 10
432.172446
 20
303.977141
 30
0.0
 40
28.0
  1
75
 50
90.0
 41
0.9
 51
15.0
  7
LC-TXTSTYLE-150-400-0-0-A0
 72
     1
 11
432.172446
 21
321.579341
 31
0.0
  0
ENDBLK
  8
0
  5
3D
  0
BLOCK
  8
0
  5
3F
  2
*D1
 70
    65
 10
0.0
 20
0.0
 30
0.0
  3
*D1
  0
LINE
  8
LC-003-003-MTH-0
  6
CONTINUOUS
  5
40
 10
212.091994
 20
281.555327
 30
0.0
 11
212.091994
 21
183.2
 31
0.0
  0
LINE
  8
LC-003-003-MTH-0
  6
CONTINUOUS
  5
41
 10
383.263126
 20
281.555561
 30
0.0
 11
383.263126
 21
183.2
 31
0.0
  0
LINE
  8
LC-004-003-MTG-0
  6
CONTINUOUS
  5
42
 10
212.091994
 20
200.0
 30
0.0
 11
383.263126
 21
200.0
 31
0.0
  0
LINE
  8
LC-002-003-----0
  6
CONTINUOUS
  5
43
 10
239.85245
 20
203.654733
 30
0.0
 11
212.091994
 21
200.0
 31
0.0
  0
LINE
  8
LC-002-003-----0
  6
CONTINUOUS
  5
44
 10
212.091994
 20
200.0
 30
0.0
 11
239.85245
 21
196.345267
 31
0.0
  0
LINE
  8
LC-002-003-----0
  6
CONTINUOUS
  5
45
 10
239.85245
 20
196.345267
 30
0.0
 11
239.85245
 21
203.654733
 31
0.0
  0
LINE
  8
LC-002-003-----0
  6
CONTINUOUS
  5
46
 10
239.914732
 20
202.704503
 30
0.0
 11
219.371994
 21
200.0
 31
0.0
  0
LINE
  8
LC-002-003-----0
  6
CONTINUOUS
  5
47
 10
219.371994
 20
200.0
 30
0.0
 11
239.914732
 21
197.295497
 31
0.0
  0
LINE
  8
LC-002-003-----0
  6
CONTINUOUS
  5
48
 10
239.977013
 20
201.754272
 30
0.0
 11
226.651994
 21
200.0
 31
0.0
  0
LINE
  8
LC-002-003-----0
  6
CONTINUOUS
  5
49
 10
226.651994
 20
200.0
 30
0.0
 11
239.977013
 21
198.245728
 31
0.0
  0
LINE
  8
LC-002-003-----0
  6
CONTINUOUS
  5
4A
 10
240.039295
 20
200.804041
 30
0.0
 11
233.931994
 21
200.0
 31
0.0
  0
LINE
  8
LC-002-003-----0
  6
CONTINUOUS
  5
4B
 10
233.931994
 20
200.0
 30
0.0
 11
240.039295
 21
199.195959
 31
0.0
  0
LINE
  8
LC-002-003-----0
  6
CONTINUOUS
  5
4C
 10
355.50267
 20
196.345267
 30
0.0
 11
383.263126
 21
200.0
 31
0.0
  0
LINE
  8
LC-002-003-----0
  6
CONTINUOUS
  5
4D
 10
383.263126
 20
200.0
 30
0.0
 11
355.50267
 21
203.654733
 31
0.0
  0
LINE
  8
LC-002-003-----0
  6
CONTINUOUS
  5
4E
 10
355.50267
 20
203.654733
 30
0.0
 11
355.50267
 21
196.345267
 31
0.0
  0
LINE
  8
LC-002-003-----0
  6
CONTINUOUS
  5
4F
 10
355.440388
 20
197.295497
 30
0.0
 11
375.983126
 21
200.0
 31
0.0
  0
LINE
  8
LC-002-003-----0
  6
CONTINUOUS
  5
50
 10
375.983126
 20
200.0
 30
0.0
 11
355.440388
 21
202.704503
 31
0.0
  0
LINE
  8
LC-002-003-----0
  6
CONTINUOUS
  5
51
 10
355.378107
 20
198.245728
 30
0.0
 11
368.703126
 21
200.0
 31
0.0
  0
LINE
  8
LC-002-003-----0
  6
CONTINUOUS
  5
52
 10
368.703126
 20
200.0
 30
0.0
 11
355.378107
 21
201.754272
 31
0.0
  0
LINE
  8
LC-002-003-----0
  6
CONTINUOUS
  5
53
 10
355.315826
 20
199.195959
 30
0.0
 11
361.423126
 21
200.0
 31
0.0
  0
LINE
  8
LC-002-003-----0
  6
CONTINUOUS
  5
54
 10
361.423126
 20
200.0
 30
0.0
 11
355.315826
 21
200.804041
 31
0.0
  0
TEXT
  8
LC-002-003-----0
  6
CONTINUOUS
 62
     8
  5
55
 10
263.75427
 20
207.827554
 30
0.0
 40
28.0
  1
Ø170
 41
0.9
 51
15.0
  7
LC-TXTSTYLE-150-400-0-0-A0
 72
     1
 11
302.02572
 21
207.827554
 31
0.0
  0
ENDBLK
  8
0
  5
56
  0
BLOCK
  8
0
  5
58
  2
*X2
 70
    65
 10
222.277864
 20
250.731002
 30
0.0
  3
*X2
  0
LINE
  8
LC-007-005-----0
  6
CONTINUOUS
  5
5A
 10
225.275158
 20
250.731002
 30
0.0
 11
226.677864
 21
252.133708
 31
0.0
  0
LINE
  8
LC-007-005-----0
  6
CONTINUOUS
  5
5B
 10
222.66025
 20
250.944521
 30
0.0
 11
226.67786
 21
254.962131
 31
0.0
  0
LINE
  8
LC-007-005-----0
  6
CONTINUOUS
  5
5C
 10
223.77786
 20
254.890558
 30
0.0
 11
226.677856
 21
257.790554
 31
0.0
  0
LINE
  8
LC-007-005-----0
  6
CONTINUOUS
  5
5D
 10
223.777856
 20
257.718981
 30
0.0
 11
226.677852
 21
260.618977
 31
0.0
  0
LINE
  8
LC-007-005-----0
  6
CONTINUOUS
  5
5E
 10
223.777852
 20
260.547405
 30
0.0
 11
226.677848
 21
263.447401
 31
0.0
  0
LINE
  8
LC-007-005-----0
  6
CONTINUOUS
  5
5F
 10
223.777848
 20
263.375828
 30
0.0
 11
226.677844
 21
266.275824
 31
0.0
  0
LINE
  8
LC-007-005-----0
  6
CONTINUOUS
  5
60
 10
223.777844
 20
266.204251
 30
0.0
 11
226.67784
 21
269.104247
 31
0.0
  0
LINE
  8
LC-007-005-----0
  6
CONTINUOUS
  5
61
 10
223.77784
 20
269.032674
 30
0.0
 11
226.677836
 21
271.93267
 31
0.0
  0
LINE
  8
LC-007-005-----0
  6
CONTINUOUS
  5
62
 10
226.776168
 20
272.031002
 30
0.0
 11
227.177836
 21
272.43267
 31
0.0
  0
LINE
  8
LC-007-005-----0
  6
CONTINUOUS
  5
63
 10
223.777836
 20
271.861098
 30
0.0
 11
227.177832
 21
275.261093
 31
0.0
  0
LINE
  8
LC-007-005-----0
  6
CONTINUOUS
  5
64
 10
223.777833
 20
274.689521
 30
0.0
 11
227.177828
 21
278.089516
 31
0.0
  0
LINE
  8
LC-007-005-----0
  6
CONTINUOUS
  5
65
 10
223.777829
 20
277.517944
 30
0.0
 11
225.990887
 21
279.731002
 31
0.0
  0
ENDBLK
  8
0
  5
66
  0
BLOCK
  8
0
  5
68
  2
BLK1
 70
    64
 10
0.0
 20
0.0
 30
0.0
  3
BLK1
  0
ENDBLK
  8
0
  5
69
  0
BLOCK
  8
0
  5
6B
  2
*X4
 70
    65
 10
239.784911
 20
314.368685
 30
0.0
  3
*X4
  0
LINE
  8
LC-007-005-----0
  6
CONTINUOUS
  5
6C
 10
241.053216
 20
314.592321
 30
0.0
 11
241.481856
 21
315.020961
 31
0.0
  0
LINE
  8
LC-007-005-----0
  6
CONTINUOUS
  5
6D
 10
240.805673
 20
317.173205
 30
0.0
 11
241.481856
 21
317.849388
 31
0.0
  0
LINE
  8
LC-007-005-----0
  6
CONTINUOUS
  5
6E
 10
254.327096
 20
350.493618
 30
0.0
 11
255.5976
 21
351.764123
 31
0.0
  0
LINE
  8
LC-007-005-----0
  6
CONTINUOUS
  5
6F
 10
253.754291
 20
352.74924
 30
0.0
 11
255.736061
 21
354.73101
 31
0.0
  0
ENDBLK
  8
0
  5
70
  0
BLOCK
  8
0
  5
72
  2
*X5
 70
    65
 10
338.67746
 20
314.368844
 30
0.0
  3
*X5
  0
LINE
  8
LC-007-005-----0
  6
CONTINUOUS
  5
73
 10
354.207148
 20
314.609168
 30
0.0
 11
355.142283
 21
315.544303
 31
0.0
  0
LINE
  8
LC-007-005-----0
  6
CONTINUOUS
  5
74
 10
353.873167
 20
317.103614
 30
0.0
 11
354.387523
 21
317.617971
 31
0.0
  0
LINE
  8
LC-007-005-----0
  6
CONTINUOUS
  5
75
 10
341.861467
 20
350.346748
 30
0.0
 11
342.311369
 21
350.79665
 31
0.0
  0
LINE
  8
LC-007-005-----0
  6
CONTINUOUS
  5
76
 10
339.942307
 20
351.256015
 30
0.0
 11
341.556609
 21
352.870318
 31
0.0
  0
LINE
  8
LC-007-005-----0
  6
CONTINUOUS
  5
77
 10
339.187547
 20
353.329683
 30
0.0
 11
340.588991
 21
354.731127
 31
0.0
  0
ENDBLK
  8
0
  5
78
  0
BLOCK
  8
0
  5
7A
  2
*X6
 70
    65
 10
368.177299
 20
250.731197
 30
0.0
  3
*X6
  0
LINE
  8
LC-007-005-----0
  6
CONTINUOUS
  5
7B
 10
372.410815
 20
250.788448
 30
0.0
 11
373.020096
 21
251.39773
 31
0.0
  0
LINE
  8
LC-007-005-----0
  6
CONTINUOUS
  5
7C
 10
369.525139
 20
250.7312
 30
0.0
 11
371.698652
 21
252.904713
 31
0.0
  0
LINE
  8
LC-007-005-----0
  6
CONTINUOUS
  5
7D
 10
368.677337
 20
252.711824
 30
0.0
 11
371.577333
 21
255.61182
 31
0.0
  0
LINE
  8
LC-007-005-----0
  6
CONTINUOUS
  5
7E
 10
368.677333
 20
255.540248
 30
0.0
 11
371.577329
 21
258.440244
 31
0.0
  0
LINE
  8
LC-007-005-----0
  6
CONTINUOUS
  5
7F
 10
368.677329
 20
258.368671
 30
0.0
 11
371.577325
 21
261.268667
 31
0.0
  0
LINE
  8
LC-007-005-----0
  6
CONTINUOUS
  5
80
 10
368.677325
 20
261.197094
 30
0.0
 11
371.577321
 21
264.09709
 31
0.0
  0
LINE
  8
LC-007-005-----0
  6
CONTINUOUS
  5
81
 10
368.677321
 20
264.025517
 30
0.0
 11
371.577317
 21
266.925513
 31
0.0
  0
LINE
  8
LC-007-005-----0
  6
CONTINUOUS
  5
82
 10
368.677317
 20
266.853941
 30
0.0
 11
371.577313
 21
269.753937
 31
0.0
  0
LINE
  8
LC-007-005-----0
  6
CONTINUOUS
  5
83
 10
368.677313
 20
269.682364
 30
0.0
 11
371.577309
 21
272.58236
 31
0.0
  0
LINE
  8
LC-007-005-----0
  6
CONTINUOUS
  5
84
 10
368.197718
 20
272.031196
 30
0.0
 11
371.577305
 21
275.410783
 31
0.0
  0
LINE
  8
LC-007-005-----0
  6
CONTINUOUS
  5
85
 10
368.177306
 20
274.839211
 30
0.0
 11
371.577302
 21
278.239206
 31
0.0
  0
LINE
  8
LC-007-005-----0
  6
CONTINUOUS
  5
86
 10
368.177302
 20
277.667634
 30
0.0
 11
370.24087
 21
279.731202
 31
0.0
  0
ENDBLK
  8
0
  5
87
  0
BLOCK
  8
0
  5
89
  2
BLK2
 70
    64
 10
0.0
 20
0.0
 30
0.0
  3
BLK2
  0
ENDBLK
  8
0
  5
8A
  0
ENDSEC
  0
SECTION
  2
ENTITIES
  0
VIEWPORT
  8
LC-000
  5
22B
 67
     1
 68
     1
 10
420.0
 20
297.0
 30
0.0
 40
840.0
 41
594.0
 69
     1
1001
ACAD
1000
MVIEW
1002
{
1070
    16
1010
0.0
1020
0.0
1030
0.0
1010
0.0
1020
0.0
1030
1.0
1040
0.0
1040
594.0
1040
420.0
1040
297.0
1040
50.0
1040
0.0
1040
0.0
1070
     0
1070
   100
1070
     1
1070
     1
1070
     0
1070
     0
1070
     0
1070
     0
1040
0.0
1040
0.0
1040
0.0
1040
1.0
1040
1.0
1040
0.0
1040
0.0
1070
     0
1002
{
1002
}
1002
}
  0
VIEWPORT
  8
0
  5
22C
 67
     1
 68
     1
 10
0.0
 20
0.0
 30
0.0
 40
0.0
 41
0.0
 69
     1
1001
ACAD
1000
MVIEW
1002
{
1070
    16
1010
0.0
1020
0.0
1030
0.0
1010
0.0
1020
0.0
1030
1.0
1040
0.0
1040
594.0
1040
0.0
1040
0.0
1040
50.0
1040
0.0
1040
0.0
1070
     0
1070
   100
1070
     0
1070
     1
1070
     0
1070
     0
1070
     0
1070
     0
1040
0.0
1040
0.0
1040
0.0
1040
0.5
1040
0.5
1040
0.5
1040
0.5
1070
     0
1002
{
1002
}
1002
}
  0
DIMENSION
  8
LC-002-003-----0
  6
CONTINUOUS
  5
8B
  2
*D0
 10
440.0
 20
317.231181
 30
0.0
 11
440.0
 21
317.231181
 31
0.0
 13
380.070564
 23
279.731229
 33
0.0
 14
346.126086
 24
354.731134
 34
0.0
 50
90.0
  3
LC-DIM-L-0140-02-02
  0
DIMENSION
  8
LC-002-003-----0
  6
CONTINUOUS
  5
8C
  2
*D1
 10
297.67756
 20
200.0
 30
0.0
 11
297.67756
 21
200.0
 31
0.0
  1
%%c170
 13
212.091994
 23
281.555327
 33
0.0
 14
383.263126
 24
281.555561
 34
0.0
  3
LC-DIM-L-0140-02-02
  0
INSERT
  8
LC-007-005-----0
  6
CONTINUOUS
  5
8D
  2
*X2
 10
222.277864
 20
250.731002
 30
0.0
  0
INSERT
  8
LC-008-000-----0
  5
8F
  2
BLK1
 10
0.0
 20
0.0
 30
0.0
  0
INSERT
  8
LC-007-005-----0
  6
CONTINUOUS
  5
90
  2
*X4
 10
239.784911
 20
314.368685
 30
0.0
  0
INSERT
  8
LC-007-005-----0
  6
CONTINUOUS
  5
91
  2
*X5
 10
338.67746
 20
314.368844
 30
0.0
  0
INSERT
  8
LC-007-005-----0
  6
CONTINUOUS
  5
92
  2
*X6
 10
368.177299
 20
250.731197
 30
0.0
  0
INSERT
  8
LC-008-000-----0
  5
93
  2
BLK2
 10
0.0
 20
0.0
 30
0.0
  0
ARC
  8
LC-001-002-----0
  6
CONTINUOUS
  5
95
 10
561.677267
 20
302.73128
 30
0.0
 40
3.5
 50
64.18209
 51
70.81791
  0
ARC
  8
LC-001-002-----0
  6
CONTINUOUS
  5
96
 10
561.677267
 20
302.73128
 30
0.0
 40
3.5
 50
19.18209
 51
25.81791
  0
ARC
  8
LC-001-002-----0
  6
CONTINUOUS
  5
97
 10
561.677267
 20
302.73128
 30
0.0
 40
3.5
 50
334.18209
 51
340.81791
  0
ARC
  8
LC-001-002-----0
  6
CONTINUOUS
  5
98
 10
561.677267
 20
302.73128
 30
0.0
 40
3.5
 50
289.18209
 51
295.81791
  0
ARC
  8
LC-001-002-----0
  6
CONTINUOUS
  5
99
 10
561.677267
 20
302.73128
 30
0.0
 40
3.5
 50
244.18209
 51
250.81791
  0
ARC
  8
LC-001-002-----0
  6
CONTINUOUS
  5
9A
 10
561.677267
 20
302.73128
 30
0.0
 40
3.5
 50
199.18209
 51
205.81791
  0
ARC
  8
LC-001-002-----0
  6
CONTINUOUS
  5
9B
 10
561.677267
 20
302.73128
 30
0.0
 40
3.5
 50
154.18209
 51
160.81791
  0
LINE
  8
LC-001-002-----0
  6
CONTINUOUS
  5
9C
 10
294.372146
 20
339.931063
 30
0.0
 11
294.372146
 21
354.731063
 31
0.0
  0
LINE
  8
LC-001-002-----0
  6
CONTINUOUS
  5
9D
 10
300.982814
 20
339.931072
 30
0.0
 11
300.982773
 21
354.731072
 31
0.0
  0
ARC
  8
LC-005-002-RND-0
  6
CONTINUOUS
  5
9F
 10
346.126086
 20
339.731134
 30
0.0
 40
15.0
 50
20.000157
 51
90.000079
  0
LINE
  8
LC-001-002-----0
  6
CONTINUOUS
  5
A0
 10
212.091994
 20
281.555327
 30
0.0
 11
235.133486
 21
344.861303
 31
0.0
  0
ARC
  8
LC-005-002-RND-0
  6
CONTINUOUS
  5
A1
 10
249.228875
 20
339.731001
 30
0.0
 40
15.0
 50
90.000079
 51
160.0
  0
LINE
  8
LC-001-002-----0
  6
CONTINUOUS
  5
A2
 10
383.263126
 20
281.555561
 30
0.0
 11
360.221461
 21
344.861475
 31
0.0
  0
ARC
  8
LC-001-002-----0
  6
CONTINUOUS
  5
A3
 10
561.677267
 20
302.73128
 30
0.0
 40
85.6
 50
164.230232
 51
165.769768
  0
ARC
  8
LC-001-002-----0
  6
CONTINUOUS
  5
A4
 10
561.677267
 20
302.73128
 30
0.0
 40
85.6
 50
149.230232
 51
150.769768
  0
ARC
  8
LC-001-002-----0
  6
CONTINUOUS
  5
A5
 10
561.677267
 20
302.73128
 30
0.0
 40
85.6
 50
179.230232
 51
180.769768
  0
ARC
  8
LC-001-002-----0
  6
CONTINUOUS
  5
A6
 10
561.677267
 20
302.73128
 30
0.0
 40
85.6
 50
194.230232
 51
195.769768
  0
ARC
  8
LC-001-002-----0
  6
CONTINUOUS
  5
A7
 10
561.677267
 20
302.73128
 30
0.0
 40
85.6
 50
209.230232
 51
210.769768
  0
ARC
  8
LC-001-002-----0
  6
CONTINUOUS
  5
A8
 10
561.677267
 20
302.73128
 30
0.0
 40
85.6
 50
224.230232
 51
225.769768
  0
ARC
  8
LC-001-002-----0
  6
CONTINUOUS
  5
A9
 10
561.677267
 20
302.73128
 30
0.0
 40
85.6
 50
239.230232
 51
240.769768
  0
ARC
  8
LC-001-002-----0
  6
CONTINUOUS
  5
AA
 10
561.677267
 20
302.73128
 30
0.0
 40
85.6
 50
254.230232
 51
255.769768
  0
ARC
  8
LC-001-002-----0
  6
CONTINUOUS
  5
AB
 10
561.677267
 20
302.73128
 30
0.0
 40
85.6
 50
269.230232
 51
270.769768
  0
ARC
  8
LC-001-002-----0
  6
CONTINUOUS
  5
AC
 10
561.677267
 20
302.73128
 30
0.0
 40
85.6
 50
134.230232
 51
135.769768
  0
ARC
  8
LC-001-002-----0
  6
CONTINUOUS
  5
AD
 10
561.677267
 20
302.73128
 30
0.0
 40
85.6
 50
119.230232
 51
120.769768
  0
ARC
  8
LC-001-002-----0
  6
CONTINUOUS
  5
AE
 10
561.677267
 20
302.73128
 30
0.0
 40
85.6
 50
104.230232
 51
105.769768
  0
ARC
  8
LC-001-002-----0
  6
CONTINUOUS
  5
AF
 10
561.677267
 20
302.73128
 30
0.0
 40
85.6
 50
89.230232
 51
90.769768
  0
ARC
  8
LC-001-002-----0
  6
CONTINUOUS
  5
B0
 10
561.677267
 20
302.73128
 30
0.0
 40
85.6
 50
74.230232
 51
75.769768
  0
ARC
  8
LC-001-002-----0
  6
CONTINUOUS
  5
B1
 10
561.677267
 20
302.73128
 30
0.0
 40
85.6
 50
59.230232
 51
60.769768
  0
ARC
  8
LC-001-002-----0
  6
CONTINUOUS
  5
B2
 10
561.677267
 20
302.73128
 30
0.0
 40
85.6
 50
44.230232
 51
45.769768
  0
ARC
  8
LC-001-002-----0
  6
CONTINUOUS
  5
B3
 10
561.677267
 20
302.73128
 30
0.0
 40
85.6
 50
29.230232
 51
30.769768
  0
ARC
  8
LC-001-002-----0
  6
CONTINUOUS
  5
B4
 10
561.677267
 20
302.73128
 30
0.0
 40
85.6
 50
14.230232
 51
15.769768
  0
ARC
  8
LC-001-002-----0
  6
CONTINUOUS
  5
B5
 10
561.677267
 20
302.73128
 30
0.0
 40
85.6
 50
359.230232
 51
0.769768
  0
ARC
  8
LC-001-002-----0
  6
CONTINUOUS
  5
B6
 10
561.677267
 20
302.73128
 30
0.0
 40
85.6
 50
284.230232
 51
285.769768
  0
ARC
  8
LC-001-002-----0
  6
CONTINUOUS
  5
B7
 10
561.677267
 20
302.73128
 30
0.0
 40
85.6
 50
299.230232
 51
300.769768
  0
ARC
  8
LC-001-002-----0
  6
CONTINUOUS
  5
B8
 10
561.677267
 20
302.73128
 30
0.0
 40
85.6
 50
314.230232
 51
315.769768
  0
ARC
  8
LC-001-002-----0
  6
CONTINUOUS
  5
B9
 10
561.677267
 20
302.73128
 30
0.0
 40
85.6
 50
329.230232
 51
330.769768
  0
ARC
  8
LC-001-002-----0
  6
CONTINUOUS
  5
BA
 10
561.677267
 20
302.73128
 30
0.0
 40
85.6
 50
344.230232
 51
345.769768
  0
ARC
  8
LC-001-002-----0
  6
CONTINUOUS
  5
BB
 10
561.677267
 20
302.73128
 30
0.0
 40
3.5
 50
109.18209
 51
115.81791
  0
LINE
  8
LC-001-002-----0
  6
CONTINUOUS
  5
BC
 10
249.228854
 20
354.731001
 30
0.0
 11
345.23911
 21
354.731133
 31
0.0
  0
LINE
  8
LC-001-002-----0
  6
CONTINUOUS
  5
BD
 10
368.177299
 20
279.731196
 30
0.0
 11
340.879324
 21
354.731127
 31
0.0
  0
LINE
  8
LC-001-002-----0
  6
CONTINUOUS
  5
BE
 10
340.164339
 20
350.645993
 30
0.0
 11
338.67746
 21
354.731124
 31
0.0
  0
LINE
  8
LC-001-002-----0
  6
CONTINUOUS
  5
BF
 10
342.517205
 20
350.231125
 30
0.0
 11
340.164339
 21
350.645993
 31
0.0
  0
LINE
  8
LC-001-002-----0
  6
CONTINUOUS
  5
C0
 10
227.177826
 20
279.731002
 30
0.0
 11
254.475595
 21
354.731008
 31
0.0
  0
LINE
  8
LC-001-002-----0
  6
CONTINUOUS
  5
C1
 10
255.190592
 20
350.645876
 30
0.0
 11
256.67746
 21
354.731011
 31
0.0
  0
LINE
  8
LC-001-002-----0
  6
CONTINUOUS
  5
C2
 10
252.837727
 20
350.231002
 30
0.0
 11
255.190592
 21
350.645876
 31
0.0
  0
LINE
  8
LC-006-002-___-0
  6
DASHED
  5
C5
 10
366.659511
 20
263.031192
 30
0.0
 11
368.677322
 21
263.031197
 31
0.0
  0
LINE
  8
LC-001-002-----0
  6
CONTINUOUS
  5
C6
 10
476.084992
 20
303.88128
 30
0.0
 11
518.492577
 21
303.88128
 31
0.0
  0
LINE
  8
LC-001-002-----0
  6
CONTINUOUS
  5
C7
 10
380.070564
 20
279.731229
 30
0.0
 11
383.263126
 21
281.555561
 31
0.0
  0
ARC
  8
LC-005-002-RND-0
  6
CONTINUOUS
  5
C8
 10
372.077338
 20
251.731207
 30
0.0
 40
1.0
 50
0.000079
 51
90.000157
  0
LINE
  8
LC-006-002-___-0
  6
DASHED
  5
C9
 10
228.69566
 20
263.031002
 30
0.0
 11
226.677849
 21
263.031002
 31
0.0
  0
LINE
  8
LC-001-002-----0
  6
CONTINUOUS
  5
CA
 10
353.873161
 20
319.031157
 30
0.0
 11
353.873173
 21
314.668056
 31
0.0
  0
ARC
  8
LC-005-002-RND-0
  6
CONTINUOUS
  5
CB
 10
372.077338
 20
251.731207
 30
0.0
 40
1.0
 50
270.000157
 51
0.000079
  0
LINE
  8
LC-001-002-----0
  6
CONTINUOUS
  5
CC
 10
372.177341
 20
250.731207
 30
0.0
 11
370.677339
 21
250.731203
 31
0.0
  0
LINE
  8
LC-001-002-----0
  6
CONTINUOUS
  5
CD
 10
215.284561
 20
279.731002
 30
0.0
 11
212.091994
 21
281.555327
 31
0.0
  0
LINE
  8
LC-001-002-----0
  6
CONTINUOUS
  5
CE
 10
375.577322
 20
263.031216
 30
0.0
 11
371.577322
 21
263.031205
 31
0.0
  0
ARC
  8
LC-005-002-RND-0
  6
CONTINUOUS
  5
CF
 10
372.077336
 20
253.231207
 30
0.0
 40
0.5
 50
180.000079
 51
270.000157
  0
LINE
  8
LC-001-002-----0
  6
CONTINUOUS
  5
D0
 10
372.077341
 20
250.731207
 30
0.0
 11
368.677339
 21
250.731197
 31
0.0
  0
LINE
  8
LC-001-002-----0
  6
CONTINUOUS
  5
D1
 10
355.669604
 20
314.351302
 30
0.0
 11
353.873173
 21
314.668056
 31
0.0
  0
ARC
  8
LC-005-002-RND-0
  6
CONTINUOUS
  5
D2
 10
375.577321
 20
263.531216
 30
0.0
 40
0.5
 50
270.000157
 51
0.000079
  0
LINE
  8
LC-001-002-----0
  6
CONTINUOUS
  5
D3
 10
368.67731
 20
272.031197
 30
0.0
 11
368.677339
 21
250.731197
 31
0.0
  0
LINE
  8
LC-001-002-----0
  6
CONTINUOUS
  5
D4
 10
376.077299
 20
279.731218
 30
0.0
 11
376.077321
 21
263.531217
 31
0.0
  0
LINE
  8
LC-001-002-----0
  6
CONTINUOUS
  5
D5
 10
368.67731
 20
272.031197
 30
0.0
 11
368.17731
 21
272.031196
 31
0.0
  0
LINE
  8
LC-001-002-----0
  6
CONTINUOUS
  5
D6
 10
368.177299
 20
279.731196
 30
0.0
 11
368.17731
 21
272.031196
 31
0.0
  0
LINE
  8
LC-001-002-----0
  6
CONTINUOUS
  5
D7
 10
371.577299
 20
279.731205
 30
0.0
 11
371.577336
 21
253.231206
 31
0.0
  0
ARC
  8
LC-001-002-----0
  6
CONTINUOUS
  5
D8
 10
561.677267
 20
302.73128
 30
0.0
 40
41.0
 50
138.081133
 51
176.918867
  0
CIRCLE
  8
LC-001-002-----0
  6
CONTINUOUS
  5
D9
 10
561.677267
 20
302.73128
 30
0.0
 40
43.2
  0
LINE
  8
LC-001-002-----0
  6
CONTINUOUS
  5
DA
 10
476.084992
 20
301.58128
 30
0.0
 11
518.492577
 21
301.58128
 31
0.0
  0
LINE
  8
LC-001-002-----0
  6
CONTINUOUS
  5
DB
 10
521.73509
 20
301.58128
 30
0.0
 11
558.37159
 21
301.58128
 31
0.0
  0
LINE
  8
LC-001-002-----0
  6
CONTINUOUS
  5
DC
 10
521.73509
 20
303.88128
 30
0.0
 11
558.37159
 21
303.88128
 31
0.0
  0
ARC
  8
LC-005-002-RND-0
  6
CONTINUOUS
  5
DD
 10
521.73509
 20
304.88128
 30
0.0
 40
1.0
 50
176.918867
 51
270.0
  0
ARC
  8
LC-005-002-RND-0
  6
CONTINUOUS
  5
DE
 10
521.73509
 20
300.58128
 30
0.0
 40
1.0
 50
90.0
 51
183.081133
  0
ARC
  8
LC-001-002-----0
  6
CONTINUOUS
  5
DF
 10
561.677267
 20
302.73128
 30
0.0
 40
44.84
 50
166.469611
 51
178.530389
  0
LINE
  8
LC-001-002-----0
  6
CONTINUOUS
  5
E0
 10
479.29912
 20
325.995005
 30
0.0
 11
520.261701
 21
315.019115
 31
0.0
  0
LINE
  8
LC-001-002-----0
  6
CONTINUOUS
  5
E1
 10
478.703837
 20
323.773376
 30
0.0
 11
519.666417
 21
312.797485
 31
0.0
  0
LINE
  8
LC-001-002-----0
  6
CONTINUOUS
  5
E2
 10
486.977183
 20
344.531488
 30
0.0
 11
523.703228
 21
323.327696
 31
0.0
  0
LINE
  8
LC-001-002-----0
  6
CONTINUOUS
  5
E3
 10
488.127183
 20
346.523346
 30
0.0
 11
524.853228
 21
325.319554
 31
0.0
  0
LINE
  8
LC-001-002-----0
  6
DASHDOT
 62
     2
  5
E5
 10
297.67746
 20
354.731068
 30
0.0
 11
297.677602
 21
250.731002
 31
0.0
  0
LINE
  8
LC-001-002-----0
  6
CONTINUOUS
  5
E6
 10
501.967562
 20
364.067331
 30
0.0
 11
531.954252
 21
334.08064
 31
0.0
  0
LINE
  8
LC-001-002-----0
  6
CONTINUOUS
  5
E7
 10
500.341217
 20
362.440985
 30
0.0
 11
530.327907
 21
332.454295
 31
0.0
  0
LINE
  8
LC-001-002-----0
  6
CONTINUOUS
  5
E8
 10
519.877059
 20
377.431364
 30
0.0
 11
541.080851
 21
340.705319
 31
0.0
  0
LINE
  8
LC-001-002-----0
  6
CONTINUOUS
  5
E9
 10
517.885201
 20
376.281364
 30
0.0
 11
539.088993
 21
339.555319
 31
0.0
  0
LINE
  8
LC-001-002-----0
  6
CONTINUOUS
  5
EA
 10
538.413542
 20
385.109427
 30
0.0
 11
549.389432
 21
344.146846
 31
0.0
  0
LINE
  8
LC-001-002-----0
  6
CONTINUOUS
  5
EB
 10
540.635171
 20
385.70471
 30
0.0
 11
551.611062
 21
344.74213
 31
0.0
  0
LINE
  8
LC-001-002-----0
  6
CONTINUOUS
  5
EC
 10
298.827823
 20
339.931069
 30
0.0
 11
298.827823
 21
319.031002
 31
0.0
  0
LINE
  8
LC-001-002-----0
  6
CONTINUOUS
  5
ED
 10
296.527823
 20
339.931066
 30
0.0
 11
296.527823
 21
319.031002
 31
0.0
  0
LINE
  8
LC-001-002-----0
  6
CONTINUOUS
  5
EE
 10
534.247056
 20
331.787837
 30
0.0
 11
560.152973
 21
305.881919
 31
0.0
  0
ARC
  8
LC-005-002-RND-0
  6
CONTINUOUS
  5
EF
 10
534.954163
 20
332.494944
 30
0.0
 40
1.0
 50
131.918867
 51
225.0
  0
ARC
  8
LC-005-002-RND-0
  6
CONTINUOUS
  5
F0
 10
531.913603
 20
329.454384
 30
0.0
 40
1.0
 50
45.0
 51
138.081133
  0
LINE
  8
LC-001-002-----0
  6
CONTINUOUS
  5
F1
 10
532.62071
 20
330.161491
 30
0.0
 11
558.526628
 21
304.255574
 31
0.0
  0
LINE
  8
LC-001-002-----0
  6
CONTINUOUS
  5
F2
 10
562.827267
 20
310.715149
 30
0.0
 11
562.827267
 21
306.036957
 31
0.0
  0
LINE
  8
LC-001-002-----0
  6
CONTINUOUS
  5
F3
 10
560.527267
 20
342.917041
 30
0.0
 11
560.527267
 21
336.715149
 31
0.0
  0
ARC
  8
LC-005-002-RND-0
  6
CONTINUOUS
  5
F4
 10
563.827267
 20
342.673457
 30
0.0
 40
1.0
 50
86.918867
 51
180.0
  0
ARC
  8
LC-005-002-RND-0
  6
CONTINUOUS
  5
F5
 10
559.527267
 20
342.673457
 30
0.0
 40
1.0
 50
0.0
 51
93.081133
  0
LINE
  8
LC-001-002-----0
  6
CONTINUOUS
  5
F6
 10
590.733824
 20
330.161491
 30
0.0
 11
564.827907
 21
304.255574
 31
0.0
  0
LINE
  8
LC-001-002-----0
  6
CONTINUOUS
  5
F7
 10
589.107479
 20
331.787837
 30
0.0
 11
563.201561
 21
305.881919
 31
0.0
  0
ARC
  8
LC-005-002-RND-0
  6
CONTINUOUS
  5
F8
 10
591.440931
 20
329.454384
 30
0.0
 40
1.0
 50
41.918867
 51
135.0
  0
LINE
  8
LC-001-002-----0
  6
CONTINUOUS
  5
F9
 10
486.977183
 20
260.931072
 30
0.0
 11
523.703228
 21
282.134864
 31
0.0
  0
ARC
  8
LC-005-002-RND-0
  6
CONTINUOUS
  5
FA
 10
588.400372
 20
332.494944
 30
0.0
 40
1.0
 50
315.0
 51
48.081133
  0
LINE
  8
LC-001-002-----0
  6
CONTINUOUS
  5
FB
 10
601.619444
 20
301.58128
 30
0.0
 11
564.982944
 21
301.58128
 31
0.0
  0
LINE
  8
LC-001-002-----0
  6
CONTINUOUS
  5
FC
 10
601.619444
 20
303.88128
 30
0.0
 11
564.982944
 21
303.88128
 31
0.0
  0
ARC
  8
LC-005-002-RND-0
  6
CONTINUOUS
  5
FD
 10
601.619444
 20
300.58128
 30
0.0
 40
1.0
 50
356.918867
 51
90.0
  0
ARC
  8
LC-005-002-RND-0
  6
CONTINUOUS
  5
FE
 10
601.619444
 20
304.88128
 30
0.0
 40
1.0
 50
270.0
 51
3.081133
  0
ARC
  8
LC-001-002-----0
  6
CONTINUOUS
  5
FF
 10
561.677267
 20
302.73128
 30
0.0
 40
44.84
 50
151.469611
 51
163.530389
  0
ARC
  8
LC-001-002-----0
  6
CONTINUOUS
  5
100
 10
561.677267
 20
302.73128
 30
0.0
 40
44.84
 50
136.469611
 51
148.530389
  0
ARC
  8
LC-001-002-----0
  6
CONTINUOUS
  5
101
 10
561.677267
 20
302.73128
 30
0.0
 40
44.84
 50
121.469611
 51
133.474585
  0
ARC
  8
LC-005-002-RND-0
  6
CONTINUOUS
  5
102
 10
223.277864
 20
251.731002
 30
0.0
 40
1.0
 50
90.0
 51
180.000079
  0
ARC
  8
LC-001-002-----0
  6
CONTINUOUS
  5
103
 10
561.677267
 20
302.73128
 30
0.0
 40
44.84
 50
106.469611
 51
118.530389
  0
LINE
  8
LC-001-002-----0
  6
CONTINUOUS
  5
104
 10
241.481856
 20
319.031002
 30
0.0
 11
241.481856
 21
314.667902
 31
0.0
  0
ARC
  8
LC-001-002-----0
  6
CONTINUOUS
  5
105
 10
561.677267
 20
302.73128
 30
0.0
 40
44.84
 50
91.469611
 51
103.530389
  0
ARC
  8
LC-001-002-----0
  6
CONTINUOUS
  5
106
 10
561.677267
 20
302.73128
 30
0.0
 40
44.84
 50
76.469611
 51
88.530389
  0
ARC
  8
LC-001-002-----0
  6
CONTINUOUS
  5
107
 10
561.677267
 20
302.73128
 30
0.0
 40
41.0
 50
93.081133
 51
131.918867
  0
ARC
  8
LC-001-002-----0
  6
CONTINUOUS
  5
108
 10
561.677267
 20
302.73128
 30
0.0
 40
41.0
 50
48.081133
 51
86.918867
  0
ARC
  8
LC-001-002-----0
  6
CONTINUOUS
  5
109
 10
561.677267
 20
302.73128
 30
0.0
 40
41.0
 50
3.081133
 51
41.918867
  0
ARC
  8
LC-001-002-----0
  6
CONTINUOUS
  5
10A
 10
561.677267
 20
302.73128
 30
0.0
 40
41.0
 50
318.081133
 51
356.918867
  0
LINE
  8
LC-001-002-----0
  6
CONTINUOUS
  5
10B
 10
582.719363
 20
385.70471
 30
0.0
 11
571.743473
 21
344.74213
 31
0.0
  0
LINE
  8
LC-001-002-----0
  6
CONTINUOUS
  5
10C
 10
584.940993
 20
385.109427
 30
0.0
 11
573.965102
 21
344.146846
 31
0.0
  0
ARC
  8
LC-005-002-RND-0
  6
CONTINUOUS
  5
10D
 10
223.277864
 20
251.731002
 30
0.0
 40
1.0
 50
180.000079
 51
270.0
  0
LINE
  8
LC-001-002-----0
  6
CONTINUOUS
  5
10E
 10
223.177864
 20
250.731002
 30
0.0
 11
224.677866
 21
250.731002
 31
0.0
  0
LINE
  8
LC-001-002-----0
  6
CONTINUOUS
  5
10F
 10
219.777849
 20
263.031002
 30
0.0
 11
223.777849
 21
263.031002
 31
0.0
  0
ARC
  8
LC-005-002-RND-0
  6
CONTINUOUS
  5
110
 10
223.277862
 20
253.231002
 30
0.0
 40
0.5
 50
270.0
 51
0.000079
  0
LINE
  8
LC-001-002-----0
  6
CONTINUOUS
  5
111
 10
223.277864
 20
250.731002
 30
0.0
 11
226.677865
 21
250.731002
 31
0.0
  0
LINE
  8
LC-001-002-----0
  6
CONTINUOUS
  5
112
 10
603.477475
 20
377.431364
 30
0.0
 11
582.273683
 21
340.705319
 31
0.0
  0
LINE
  8
LC-001-002-----0
  6
CONTINUOUS
  5
113
 10
605.469334
 20
376.281364
 30
0.0
 11
584.265542
 21
339.555319
 31
0.0
  0
LINE
  8
LC-001-002-----0
  6
CONTINUOUS
  5
114
 10
621.386972
 20
364.067331
 30
0.0
 11
591.400282
 21
334.08064
 31
0.0
  0
LINE
  8
LC-001-002-----0
  6
CONTINUOUS
  5
115
 10
623.013318
 20
362.440985
 30
0.0
 11
593.026628
 21
332.454295
 31
0.0
  0
LINE
  8
LC-001-002-----0
  6
CONTINUOUS
  5
116
 10
636.377352
 20
344.531488
 30
0.0
 11
599.651306
 21
323.327696
 31
0.0
  0
LINE
  8
LC-001-002-----0
  6
CONTINUOUS
  5
117
 10
635.227352
 20
346.523346
 30
0.0
 11
598.501306
 21
325.319554
 31
0.0
  0
LINE
  8
LC-001-002-----0
  6
CONTINUOUS
  5
118
 10
644.055414
 20
325.995005
 30
0.0
 11
603.092833
 21
315.019115
 31
0.0
  0
LINE
  8
LC-001-002-----0
  6
CONTINUOUS
  5
119
 10
644.650698
 20
323.773376
 30
0.0
 11
603.688117
 21
312.797485
 31
0.0
  0
LINE
  8
LC-001-002-----0
  6
CONTINUOUS
  5
11A
 10
647.269542
 20
303.88128
 30
0.0
 11
604.861958
 21
303.88128
 31
0.0
  0
LINE
  8
LC-001-002-----0
  6
CONTINUOUS
  5
11B
 10
647.269542
 20
301.58128
 30
0.0
 11
604.861958
 21
301.58128
 31
0.0
  0
LINE
  8
LC-001-002-----0
  6
CONTINUOUS
  5
11C
 10
239.784911
 20
314.368685
 30
0.0
 11
241.481856
 21
314.667902
 31
0.0
  0
LINE
  8
LC-001-002-----0
  6
CONTINUOUS
  5
11D
 10
478.703837
 20
281.689184
 30
0.0
 11
519.666417
 21
292.665074
 31
0.0
  0
LINE
  8
LC-001-002-----0
  6
CONTINUOUS
  5
11E
 10
479.29912
 20
279.467554
 30
0.0
 11
520.261701
 21
290.443445
 31
0.0
  0
LINE
  8
LC-001-002-----0
  6
CONTINUOUS
  5
11F
 10
488.127183
 20
258.939213
 30
0.0
 11
524.853228
 21
280.143005
 31
0.0
  0
LINE
  8
LC-001-002-----0
  6
CONTINUOUS
  5
120
 10
500.341217
 20
243.021575
 30
0.0
 11
530.327907
 21
273.008265
 31
0.0
  0
LINE
  8
LC-001-002-----0
  6
CONTINUOUS
  5
121
 10
501.967562
 20
241.395229
 30
0.0
 11
531.954252
 21
271.381919
 31
0.0
  0
LINE
  8
LC-001-002-----0
  6
CONTINUOUS
  5
122
 10
517.885201
 20
229.181195
 30
0.0
 11
539.088993
 21
265.907241
 31
0.0
  0
LINE
  8
LC-001-002-----0
  6
CONTINUOUS
  5
123
 10
519.877059
 20
228.031195
 30
0.0
 11
541.080851
 21
264.757241
 31
0.0
  0
LINE
  8
LC-001-002-----0
  6
CONTINUOUS
  5
124
 10
538.413542
 20
220.353133
 30
0.0
 11
549.389432
 21
261.315714
 31
0.0
  0
LINE
  8
LC-001-002-----0
  6
CONTINUOUS
  5
125
 10
540.635171
 20
219.757849
 30
0.0
 11
551.611062
 21
260.72043
 31
0.0
  0
ARC
  8
LC-005-002-RND-0
  6
CONTINUOUS
  5
126
 10
219.777849
 20
263.531002
 30
0.0
 40
0.5
 50
180.000079
 51
270.0
  0
LINE
  8
LC-001-002-----0
  6
CONTINUOUS
  5
127
 10
226.677836
 20
272.031002
 30
0.0
 11
226.677865
 21
250.731002
 31
0.0
  0
LINE
  8
LC-001-002-----0
  6
CONTINUOUS
  5
128
 10
226.677849
 20
263.031002
 30
0.0
 11
283.877585
 21
263.031002
 31
0.0
  0
LINE
  8
LC-001-002-----0
  6
CONTINUOUS
  5
129
 10
219.277826
 20
279.731002
 30
0.0
 11
219.277849
 21
263.531002
 31
0.0
  0
LINE
  8
LC-001-002-----0
  6
CONTINUOUS
  5
12A
 10
562.827267
 20
217.139005
 30
0.0
 11
562.827267
 21
259.546589
 31
0.0
  0
LINE
  8
LC-001-002-----0
  6
CONTINUOUS
  5
12B
 10
560.527267
 20
217.139005
 30
0.0
 11
560.527267
 21
259.546589
 31
0.0
  0
LINE
  8
LC-001-002-----0
  6
CONTINUOUS
  5
12C
 10
584.940993
 20
220.353133
 30
0.0
 11
573.965102
 21
261.315714
 31
0.0
  0
LINE
  8
LC-001-002-----0
  6
CONTINUOUS
  5
12D
 10
582.719363
 20
219.757849
 30
0.0
 11
571.743473
 21
260.72043
 31
0.0
  0
LINE
  8
LC-001-002-----0
  6
CONTINUOUS
  5
12E
 10
603.477475
 20
228.031195
 30
0.0
 11
582.273683
 21
264.757241
 31
0.0
  0
LINE
  8
LC-001-002-----0
  6
CONTINUOUS
  5
12F
 10
605.469334
 20
229.181195
 30
0.0
 11
584.265542
 21
265.907241
 31
0.0
  0
LINE
  8
LC-001-002-----0
  6
CONTINUOUS
  5
130
 10
621.386972
 20
241.395229
 30
0.0
 11
591.400282
 21
271.381919
 31
0.0
  0
LINE
  8
LC-001-002-----0
  6
CONTINUOUS
  5
131
 10
623.013318
 20
243.021575
 30
0.0
 11
593.026628
 21
273.008265
 31
0.0
  0
LINE
  8
LC-001-002-----0
  6
CONTINUOUS
  5
132
 10
644.650698
 20
281.689184
 30
0.0
 11
603.688117
 21
292.665074
 31
0.0
  0
LINE
  8
LC-001-002-----0
  6
CONTINUOUS
  5
133
 10
644.055414
 20
279.467554
 30
0.0
 11
603.092833
 21
290.443445
 31
0.0
  0
LINE
  8
LC-001-002-----0
  6
CONTINUOUS
  5
134
 10
636.377352
 20
260.931072
 30
0.0
 11
599.651306
 21
282.134864
 31
0.0
  0
LINE
  8
LC-001-002-----0
  6
CONTINUOUS
  5
135
 10
635.227352
 20
258.939213
 30
0.0
 11
598.501306
 21
280.143005
 31
0.0
  0
LINE
  8
LC-001-002-----0
  6
CONTINUOUS
  5
136
 10
532.62071
 20
275.301068
 30
0.0
 11
558.526628
 21
301.206986
 31
0.0
  0
LINE
  8
LC-001-002-----0
  6
CONTINUOUS
  5
137
 10
534.247056
 20
273.674723
 30
0.0
 11
560.152973
 21
299.58064
 31
0.0
  0
ARC
  8
LC-005-002-RND-0
  6
CONTINUOUS
  5
138
 10
531.913603
 20
276.008175
 30
0.0
 40
1.0
 50
221.918867
 51
315.0
  0
ARC
  8
LC-005-002-RND-0
  6
CONTINUOUS
  5
139
 10
534.954163
 20
272.967616
 30
0.0
 40
1.0
 50
135.0
 51
228.081133
  0
LINE
  8
LC-001-002-----0
  6
CONTINUOUS
  5
13A
 10
589.107479
 20
273.674723
 30
0.0
 11
563.201561
 21
299.58064
 31
0.0
  0
LINE
  8
LC-001-002-----0
  6
CONTINUOUS
  5
13B
 10
590.733824
 20
275.301068
 30
0.0
 11
564.827907
 21
301.206986
 31
0.0
  0
ARC
  8
LC-005-002-RND-0
  6
CONTINUOUS
  5
13C
 10
591.440931
 20
276.008175
 30
0.0
 40
1.0
 50
225.0
 51
318.081133
  0
ARC
  8
LC-005-002-RND-0
  6
CONTINUOUS
  5
13D
 10
588.400372
 20
272.967616
 30
0.0
 40
1.0
 50
311.918867
 51
45.0
  0
ARC
  8
LC-001-002-----0
  6
CONTINUOUS
  5
13E
 10
561.677267
 20
302.73128
 30
0.0
 40
41.0
 50
183.081133
 51
221.918867
  0
ARC
  8
LC-001-002-----0
  6
CONTINUOUS
  5
13F
 10
561.677267
 20
302.73128
 30
0.0
 40
41.0
 50
273.081133
 51
311.918867
  0
LINE
  8
LC-001-002-----0
  6
CONTINUOUS
  5
140
 10
560.527267
 20
262.789103
 30
0.0
 11
560.527267
 21
268.747411
 31
0.0
  0
LINE
  8
LC-001-002-----0
  6
CONTINUOUS
  5
141
 10
562.827267
 20
262.789103
 30
0.0
 11
562.827267
 21
268.747411
 31
0.0
  0
ARC
  8
LC-005-002-RND-0
  6
CONTINUOUS
  5
142
 10
563.827267
 20
262.789103
 30
0.0
 40
1.0
 50
180.0
 51
273.081133
  0
ARC
  8
LC-005-002-RND-0
  6
CONTINUOUS
  5
143
 10
559.527267
 20
262.789103
 30
0.0
 40
1.0
 50
266.918867
 51
0.0
  0
ARC
  8
LC-001-002-----0
  6
CONTINUOUS
  5
144
 10
561.677267
 20
302.73128
 30
0.0
 40
41.0
 50
228.081133
 51
266.918867
  0
ARC
  8
LC-001-002-----0
  6
CONTINUOUS
  5
145
 10
561.677267
 20
302.73128
 30
0.0
 40
44.84
 50
181.469611
 51
193.530389
  0
ARC
  8
LC-001-002-----0
  6
CONTINUOUS
  5
146
 10
561.677267
 20
302.73128
 30
0.0
 40
44.84
 50
196.469611
 51
208.530389
  0
ARC
  8
LC-001-002-----0
  6
CONTINUOUS
  5
147
 10
561.677267
 20
302.73128
 30
0.0
 40
44.84
 50
211.469611
 51
223.530389
  0
ARC
  8
LC-001-002-----0
  6
CONTINUOUS
  5
148
 10
561.677267
 20
302.73128
 30
0.0
 40
44.84
 50
226.469611
 51
238.530389
  0
ARC
  8
LC-001-002-----0
  6
CONTINUOUS
  5
149
 10
561.677267
 20
302.73128
 30
0.0
 40
44.84
 50
241.469611
 51
253.530389
  0
ARC
  8
LC-001-002-----0
  6
CONTINUOUS
  5
14A
 10
561.677267
 20
302.73128
 30
0.0
 40
44.84
 50
256.469611
 51
268.530389
  0
ARC
  8
LC-001-002-----0
  6
CONTINUOUS
  5
14B
 10
561.677267
 20
302.73128
 30
0.0
 40
44.84
 50
271.469611
 51
283.530389
  0
ARC
  8
LC-001-002-----0
  6
CONTINUOUS
  5
14C
 10
561.677267
 20
302.73128
 30
0.0
 40
44.84
 50
286.469611
 51
298.530389
  0
ARC
  8
LC-001-002-----0
  6
CONTINUOUS
  5
14D
 10
561.677267
 20
302.73128
 30
0.0
 40
44.84
 50
301.469611
 51
313.530389
  0
ARC
  8
LC-001-002-----0
  6
CONTINUOUS
  5
14E
 10
561.677267
 20
302.73128
 30
0.0
 40
44.84
 50
316.469611
 51
328.530389
  0
ARC
  8
LC-001-002-----0
  6
CONTINUOUS
  5
14F
 10
561.677267
 20
302.73128
 30
0.0
 40
44.84
 50
331.469611
 51
343.530389
  0
ARC
  8
LC-001-002-----0
  6
CONTINUOUS
  5
150
 10
561.677267
 20
302.73128
 30
0.0
 40
44.84
 50
346.469611
 51
358.530389
  0
ARC
  8
LC-001-002-----0
  6
CONTINUOUS
  5
151
 10
561.677267
 20
302.73128
 30
0.0
 40
44.84
 50
1.469611
 51
13.530389
  0
ARC
  8
LC-001-002-----0
  6
CONTINUOUS
  5
152
 10
561.677267
 20
302.73128
 30
0.0
 40
44.84
 50
16.469611
 51
28.530389
  0
ARC
  8
LC-001-002-----0
  6
CONTINUOUS
  5
153
 10
561.677267
 20
302.73128
 30
0.0
 40
44.84
 50
31.469611
 51
43.530389
  0
ARC
  8
LC-001-002-----0
  6
CONTINUOUS
  5
154
 10
561.677267
 20
302.73128
 30
0.0
 40
44.84
 50
46.469611
 51
58.530389
  0
ARC
  8
LC-001-002-----0
  6
CONTINUOUS
  5
155
 10
561.677267
 20
302.73128
 30
0.0
 40
44.84
 50
61.469611
 51
73.530389
  0
LINE
  8
LC-001-002-----0
  6
CONTINUOUS
  5
156
 10
563.877267
 20
311.715149
 30
0.0
 11
563.877267
 21
335.715149
 31
0.0
  0
ARC
  8
LC-005-002-RND-0
  6
CONTINUOUS
  5
157
 10
562.877267
 20
335.715149
 30
0.0
 40
1.0
 50
0.0
 51
90.0
  0
LINE
  8
LC-001-002-----0
  6
CONTINUOUS
  5
158
 10
560.477267
 20
336.715149
 30
0.0
 11
560.527267
 21
336.715149
 31
0.0
  0
LINE
  8
LC-001-002-----0
  6
CONTINUOUS
  5
159
 10
559.477267
 20
311.715149
 30
0.0
 11
559.477267
 21
335.715149
 31
0.0
  0
ARC
  8
LC-005-002-RND-0
  6
CONTINUOUS
  5
15A
 10
560.477267
 20
335.715149
 30
0.0
 40
1.0
 50
90.0
 51
180.0
  0
LINE
  8
LC-001-002-----0
  6
CONTINUOUS
  5
15B
 10
562.827267
 20
336.715149
 30
0.0
 11
562.877267
 21
336.715149
 31
0.0
  0
LINE
  8
LC-001-002-----0
  6
CONTINUOUS
  5
15C
 10
560.477267
 20
310.715149
 30
0.0
 11
560.527267
 21
310.715149
 31
0.0
  0
LINE
  8
LC-001-002-----0
  6
CONTINUOUS
  5
15D
 10
562.877267
 20
310.715149
 30
0.0
 11
562.827267
 21
310.715149
 31
0.0
  0
ARC
  8
LC-005-002-RND-0
  6
CONTINUOUS
  5
15E
 10
560.477267
 20
311.715149
 30
0.0
 40
1.0
 50
180.0
 51
270.0
  0
ARC
  8
LC-005-002-RND-0
  6
CONTINUOUS
  5
15F
 10
562.877267
 20
311.715149
 30
0.0
 40
1.0
 50
270.0
 51
0.0
  0
LINE
  8
LC-001-002-----0
  6
CONTINUOUS
  5
160
 10
560.527267
 20
310.715149
 30
0.0
 11
560.527267
 21
306.036957
 31
0.0
  0
LINE
  8
LC-001-002-----0
  6
CONTINUOUS
  5
161
 10
562.827267
 20
342.917041
 30
0.0
 11
562.827267
 21
336.715149
 31
0.0
  0
LINE
  8
LC-001-002-----0
  6
CONTINUOUS
  5
162
 10
563.877267
 20
293.747411
 30
0.0
 11
563.877267
 21
269.747411
 31
0.0
  0
ARC
  8
LC-005-002-RND-0
  6
CONTINUOUS
  5
163
 10
562.877267
 20
269.747411
 30
0.0
 40
1.0
 50
270.0
 51
0.0
  0
LINE
  8
LC-001-002-----0
  6
CONTINUOUS
  5
164
 10
560.477267
 20
268.747411
 30
0.0
 11
560.527267
 21
268.747411
 31
0.0
  0
LINE
  8
LC-001-002-----0
  6
CONTINUOUS
  5
165
 10
559.477267
 20
293.747411
 30
0.0
 11
559.477267
 21
269.747411
 31
0.0
  0
ARC
  8
LC-005-002-RND-0
  6
CONTINUOUS
  5
166
 10
560.477267
 20
269.747411
 30
0.0
 40
1.0
 50
180.0
 51
270.0
  0
LINE
  8
LC-001-002-----0
  6
CONTINUOUS
  5
167
 10
562.827267
 20
268.747411
 30
0.0
 11
562.877267
 21
268.747411
 31
0.0
  0
LINE
  8
LC-001-002-----0
  6
CONTINUOUS
  5
168
 10
560.477267
 20
294.747411
 30
0.0
 11
560.527267
 21
294.747411
 31
0.0
  0
LINE
  8
LC-001-002-----0
  6
CONTINUOUS
  5
169
 10
562.877267
 20
294.747411
 30
0.0
 11
562.827267
 21
294.747411
 31
0.0
  0
ARC
  8
LC-005-002-RND-0
  6
CONTINUOUS
  5
16A
 10
560.477267
 20
293.747411
 30
0.0
 40
1.0
 50
90.0
 51
180.0
  0
ARC
  8
LC-005-002-RND-0
  6
CONTINUOUS
  5
16B
 10
562.877267
 20
293.747411
 30
0.0
 40
1.0
 50
0.0
 51
90.0
  0
LINE
  8
LC-001-002-----0
  6
CONTINUOUS
  5
16C
 10
560.527267
 20
294.747411
 30
0.0
 11
560.527267
 21
299.425603
 31
0.0
  0
LINE
  8
LC-001-002-----0
  6
CONTINUOUS
  5
16D
 10
562.827267
 20
294.747411
 30
0.0
 11
562.827267
 21
299.425603
 31
0.0
  0
ARC
  8
LC-001-002-----0
  6
CONTINUOUS
  5
16E
 10
561.677267
 20
302.73128
 30
0.0
 40
75.4
 50
180.873909
 51
189.003725
  0
LINE
  8
LC-001-002-----0
  6
CONTINUOUS
  5
16F
 10
487.206333
 20
314.53128
 30
0.0
 11
489.637278
 21
314.53128
 31
0.0
  0
ARC
  8
LC-001-002-----0
  6
CONTINUOUS
  5
170
 10
561.677267
 20
302.73128
 30
0.0
 40
70.5
 50
165.934653
 51
179.065347
  0
ARC
  8
LC-001-002-----0
  6
CONTINUOUS
  5
171
 10
561.677267
 20
302.73128
 30
0.0
 40
73.9
 50
180.891648
 51
189.188046
  0
ARC
  8
LC-001-002-----0
  6
CONTINUOUS
  5
172
 10
561.677267
 20
302.73128
 30
0.0
 40
73.0
 50
165.902642
 51
179.097358
  0
LINE
  8
LC-001-002-----0
  6
CONTINUOUS
  5
173
 10
487.206333
 20
290.93128
 30
0.0
 11
489.637278
 21
290.93128
 31
0.0
  0
ARC
  8
LC-001-002-----0
  6
CONTINUOUS
  5
174
 10
561.677267
 20
302.73128
 30
0.0
 40
73.0
 50
75.902642
 51
89.097358
  0
ARC
  8
LC-001-002-----0
  6
CONTINUOUS
  5
175
 10
561.677267
 20
302.73128
 30
0.0
 40
70.5
 50
75.934653
 51
89.065347
  0
ARC
  8
LC-001-002-----0
  6
CONTINUOUS
  5
176
 10
561.677267
 20
302.73128
 30
0.0
 40
75.4
 50
170.996275
 51
179.126091
  0
ARC
  8
LC-001-002-----0
  6
CONTINUOUS
  5
177
 10
561.677267
 20
302.73128
 30
0.0
 40
73.9
 50
170.811954
 51
179.108352
  0
ARC
  8
LC-001-002-----0
  6
CONTINUOUS
  5
178
 10
561.677267
 20
302.73128
 30
0.0
 40
75.4
 50
90.873909
 51
99.003725
  0
LINE
  8
LC-001-002-----0
  6
CONTINUOUS
  5
179
 10
573.477267
 20
377.202214
 30
0.0
 11
573.477267
 21
374.771269
 31
0.0
  0
ARC
  8
LC-001-002-----0
  6
CONTINUOUS
  5
17A
 10
561.677267
 20
302.73128
 30
0.0
 40
73.9
 50
90.891648
 51
99.188046
  0
LINE
  8
LC-001-002-----0
  6
CONTINUOUS
  5
17B
 10
549.877267
 20
377.202214
 30
0.0
 11
549.877267
 21
374.771269
 31
0.0
  0
ARC
  8
LC-001-002-----0
  6
CONTINUOUS
  5
17C
 10
561.677267
 20
302.73128
 30
0.0
 40
75.4
 50
80.996275
 51
89.126091
  0
ARC
  8
LC-001-002-----0
  6
CONTINUOUS
  5
17D
 10
561.677267
 20
302.73128
 30
0.0
 40
73.9
 50
80.811954
 51
89.108352
  0
ARC
  8
LC-001-002-----0
  6
CONTINUOUS
  5
17E
 10
561.677267
 20
302.73128
 30
0.0
 40
75.4
 50
0.873909
 51
9.003725
  0
LINE
  8
LC-001-002-----0
  6
CONTINUOUS
  5
17F
 10
636.148202
 20
290.93128
 30
0.0
 11
633.717256
 21
290.93128
 31
0.0
  0
ARC
  8
LC-001-002-----0
  6
CONTINUOUS
  5
180
 10
561.677267
 20
302.73128
 30
0.0
 40
73.9
 50
0.891648
 51
9.188046
  0
LINE
  8
LC-001-002-----0
  6
CONTINUOUS
  5
181
 10
636.148202
 20
314.53128
 30
0.0
 11
633.717256
 21
314.53128
 31
0.0
  0
ARC
  8
LC-001-002-----0
  6
CONTINUOUS
  5
182
 10
561.677267
 20
302.73128
 30
0.0
 40
75.4
 50
350.996275
 51
359.126091
  0
ARC
  8
LC-001-002-----0
  6
CONTINUOUS
  5
183
 10
561.677267
 20
302.73128
 30
0.0
 40
73.9
 50
350.811954
 51
359.108352
  0
ARC
  8
LC-001-002-----0
  6
CONTINUOUS
  5
184
 10
561.677267
 20
302.73128
 30
0.0
 40
75.4
 50
270.873909
 51
279.003725
  0
LINE
  8
LC-001-002-----0
  6
CONTINUOUS
  5
185
 10
549.877267
 20
228.260345
 30
0.0
 11
549.877267
 21
230.691291
 31
0.0
  0
ARC
  8
LC-001-002-----0
  6
CONTINUOUS
  5
186
 10
561.677267
 20
302.73128
 30
0.0
 40
73.9
 50
270.891648
 51
279.188046
  0
LINE
  8
LC-001-002-----0
  6
CONTINUOUS
  5
187
 10
573.477267
 20
228.260345
 30
0.0
 11
573.477267
 21
230.691291
 31
0.0
  0
ARC
  8
LC-001-002-----0
  6
CONTINUOUS
  5
188
 10
561.677267
 20
302.73128
 30
0.0
 40
75.4
 50
260.996275
 51
269.126091
  0
ARC
  8
LC-001-002-----0
  6
CONTINUOUS
  5
189
 10
561.677267
 20
302.73128
 30
0.0
 40
73.9
 50
260.811954
 51
269.108352
  0
ARC
  8
LC-001-002-----0
  6
CONTINUOUS
  5
18A
 10
561.677267
 20
302.73128
 30
0.0
 40
70.5
 50
255.934653
 51
269.065347
  0
ARC
  8
LC-001-002-----0
  6
CONTINUOUS
  5
18B
 10
561.677267
 20
302.73128
 30
0.0
 40
73.0
 50
255.902642
 51
269.097358
  0
ARC
  8
LC-001-002-----0
  6
CONTINUOUS
  5
18C
 10
561.677267
 20
302.73128
 30
0.0
 40
70.5
 50
345.934653
 51
359.065347
  0
ARC
  8
LC-001-002-----0
  6
CONTINUOUS
  5
18D
 10
561.677267
 20
302.73128
 30
0.0
 40
73.0
 50
345.902642
 51
359.097358
  0
ARC
  8
LC-001-002-----0
  6
DASHED
 62
     2
  5
18E
 10
561.677267
 20
302.73128
 30
0.0
 40
78.4
 50
164.159534
 51
165.840466
  0
ARC
  8
LC-001-002-----0
  6
DASHED
 62
     2
  5
18F
 10
561.677267
 20
302.73128
 30
0.0
 40
78.4
 50
14.159534
 51
15.840466
  0
ARC
  8
LC-001-002-----0
  6
DASHED
 62
     2
  5
190
 10
561.677267
 20
302.73128
 30
0.0
 40
78.4
 50
224.159534
 51
225.840466
  0
ARC
  8
LC-001-002-----0
  6
DASHED
 62
     2
  5
191
 10
561.677267
 20
302.73128
 30
0.0
 40
78.4
 50
314.159534
 51
315.840466
  0
LINE
  8
LC-001-002-----0
  6
CONTINUOUS
  5
192
 10
249.088833
 20
339.931001
 30
0.0
 11
346.266127
 21
339.931134
 31
0.0
  0
LINE
  8
LC-001-002-----0
  6
CONTINUOUS
  5
193
 10
241.481856
 20
319.031002
 30
0.0
 11
353.873161
 21
319.031002
 31
0.0
  0
LINE
  8
LC-001-002-----0
  6
CONTINUOUS
  5
194
 10
239.784911
 20
314.368685
 30
0.0
 11
355.570119
 21
314.368685
 31
0.0
  0
LINE
  8
LC-001-002-----0
  6
CONTINUOUS
  5
195
 10
309.477574
 20
271.031036
 30
0.0
 11
309.477602
 21
250.731002
 31
0.0
  0
LINE
  8
LC-001-002-----0
  6
CONTINUOUS
  5
196
 10
285.877602
 20
250.731002
 30
0.0
 11
309.477602
 21
250.731002
 31
0.0
  0
LINE
  8
LC-001-002-----0
  6
CONTINUOUS
  5
197
 10
285.877574
 20
271.031004
 30
0.0
 11
285.877602
 21
250.731002
 31
0.0
  0
LINE
  8
LC-001-002-----0
  6
CONTINUOUS
  5
198
 10
227.177836
 20
272.031002
 30
0.0
 11
285.028491
 21
272.031002
 31
0.0
  0
LINE
  8
LC-001-002-----0
  6
CONTINUOUS
  5
199
 10
283.877574
 20
271.031001
 30
0.0
 11
283.877585
 21
263.031002
 31
0.0
  0
LINE
  8
LC-001-002-----0
  6
CONTINUOUS
  5
19A
 10
560.527267
 20
388.323555
 30
0.0
 11
560.527267
 21
345.91597
 31
0.0
  0
LINE
  8
LC-001-002-----0
  6
CONTINUOUS
  5
19B
 10
311.477574
 20
271.031039
 30
0.0
 11
311.477585
 21
263.03104
 31
0.0
  0
ARC
  8
LC-005-002-RND-0
  6
CONTINUOUS
  5
19C
 10
284.877574
 20
271.031002
 30
0.0
 40
1.0
 50
90.0
 51
180.000079
  0
LINE
  8
LC-001-002-----0
  6
CONTINUOUS
  5
19D
 10
284.139672
 20
272.031002
 30
0.0
 11
368.17731
 21
272.031002
 31
0.0
  0
ARC
  8
LC-005-002-RND-0
  6
CONTINUOUS
  5
19E
 10
284.877574
 20
271.031002
 30
0.0
 40
1.0
 50
0.000079
 51
90.0
  0
ARC
  8
LC-005-002-RND-0
  6
CONTINUOUS
  5
19F
 10
310.477574
 20
271.031038
 30
0.0
 40
1.0
 50
0.000079
 51
90.000157
  0
ARC
  8
LC-005-002-RND-0
  6
CONTINUOUS
  5
1A0
 10
310.477574
 20
271.031038
 30
0.0
 40
1.0
 50
90.000157
 51
180.000079
  0
LINE
  8
LC-001-002-----0
  6
CONTINUOUS
  5
1A1
 10
311.477585
 20
263.031002
 30
0.0
 11
368.677322
 21
263.031002
 31
0.0
  0
LINE
  8
LC-001-002-----0
  6
CONTINUOUS
  5
1A2
 10
562.827267
 20
388.323555
 30
0.0
 11
562.827267
 21
345.91597
 31
0.0
  0
LINE
  8
LC-001-002-----0
  6
CONTINUOUS
  5
1A3
 10
296.527823
 20
314.368685
 30
0.0
 11
296.527823
 21
279.731002
 31
0.0
  0
LINE
  8
LC-001-002-----0
  6
CONTINUOUS
  5
1A4
 10
298.827823
 20
314.368685
 30
0.0
 11
298.827823
 21
279.731002
 31
0.0
  0
ARC
  8
LC-001-002-----0
  6
CONTINUOUS
  5
1A5
 10
561.677267
 20
302.73128
 30
0.0
 40
73.0
 50
150.902642
 51
164.097358
  0
ARC
  8
LC-001-002-----0
  6
CONTINUOUS
  5
1A6
 10
561.677267
 20
302.73128
 30
0.0
 40
70.5
 50
150.934653
 51
164.065347
  0
ARC
  8
LC-001-002-----0
  6
CONTINUOUS
  5
1A7
 10
561.677267
 20
302.73128
 30
0.0
 40
70.5
 50
135.934653
 51
149.065347
  0
ARC
  8
LC-001-002-----0
  6
CONTINUOUS
  5
1A8
 10
561.677267
 20
302.73128
 30
0.0
 40
73.0
 50
135.902642
 51
149.097358
  0
ARC
  8
LC-001-002-----0
  6
CONTINUOUS
  5
1A9
 10
561.677267
 20
302.73128
 30
0.0
 40
70.5
 50
120.934653
 51
134.065347
  0
ARC
  8
LC-001-002-----0
  6
CONTINUOUS
  5
1AA
 10
561.677267
 20
302.73128
 30
0.0
 40
73.0
 50
120.902642
 51
134.097358
  0
ARC
  8
LC-001-002-----0
  6
CONTINUOUS
  5
1AB
 10
561.677267
 20
302.73128
 30
0.0
 40
70.5
 50
105.934653
 51
119.065347
  0
ARC
  8
LC-001-002-----0
  6
CONTINUOUS
  5
1AC
 10
561.677267
 20
302.73128
 30
0.0
 40
73.0
 50
105.902642
 51
119.097358
  0
ARC
  8
LC-001-002-----0
  6
CONTINUOUS
  5
1AD
 10
561.677267
 20
302.73128
 30
0.0
 40
70.5
 50
90.934653
 51
104.065347
  0
LINE
  8
LC-001-002-----0
  6
CONTINUOUS
  5
1AE
 10
226.677836
 20
272.031002
 30
0.0
 11
227.177836
 21
272.031002
 31
0.0
  0
ARC
  8
LC-001-002-----0
  6
CONTINUOUS
  5
1AF
 10
561.677267
 20
302.73128
 30
0.0
 40
73.0
 50
90.902642
 51
104.097358
  0
ARC
  8
LC-001-002-----0
  6
CONTINUOUS
  5
1B0
 10
561.677267
 20
302.73128
 30
0.0
 40
70.5
 50
60.934653
 51
74.065347
  0
LINE
  8
LC-001-002-----0
  6
CONTINUOUS
  5
1B1
 10
215.284561
 20
279.731002
 30
0.0
 11
380.070168
 21
279.731002
 31
0.0
  0
ARC
  8
LC-001-002-----0
  6
CONTINUOUS
  5
1B2
 10
561.677267
 20
302.73128
 30
0.0
 40
70.5
 50
45.934653
 51
59.065347
  0
LINE
  8
LC-001-002-----0
  6
CONTINUOUS
  5
1B3
 10
227.177826
 20
279.731002
 30
0.0
 11
227.177836
 21
272.031002
 31
0.0
  0
ARC
  8
LC-001-002-----0
  6
CONTINUOUS
  5
1B4
 10
561.677267
 20
302.73128
 30
0.0
 40
70.5
 50
30.934653
 51
44.065347
  0
ARC
  8
LC-001-002-----0
  6
CONTINUOUS
  5
1B5
 10
561.677267
 20
302.73128
 30
0.0
 40
73.0
 50
60.902642
 51
74.097358
  0
LINE
  8
LC-001-002-----0
  6
CONTINUOUS
  5
1B6
 10
223.777826
 20
279.731002
 30
0.0
 11
223.777862
 21
253.231003
 31
0.0
  0
ARC
  8
LC-001-002-----0
  6
CONTINUOUS
  5
1B7
 10
561.677267
 20
302.73128
 30
0.0
 40
73.0
 50
45.902642
 51
59.097358
  0
ARC
  8
LC-001-002-----0
  6
CONTINUOUS
  5
1B8
 10
561.677267
 20
302.73128
 30
0.0
 40
73.0
 50
30.902642
 51
44.097358
  0
ARC
  8
LC-001-002-----0
  6
CONTINUOUS
  5
1B9
 10
561.677267
 20
302.73128
 30
0.0
 40
70.5
 50
15.934653
 51
29.065347
  0
ARC
  8
LC-001-002-----0
  6
CONTINUOUS
  5
1BA
 10
561.677267
 20
302.73128
 30
0.0
 40
73.0
 50
15.902642
 51
29.097358
  0
ARC
  8
LC-001-002-----0
  6
CONTINUOUS
  5
1BB
 10
561.677267
 20
302.73128
 30
0.0
 40
70.5
 50
0.934653
 51
14.065347
  0
ARC
  8
LC-001-002-----0
  6
CONTINUOUS
  5
1BC
 10
561.677267
 20
302.73128
 30
0.0
 40
73.0
 50
0.902642
 51
14.097358
  0
ARC
  8
LC-001-002-----0
  6
CONTINUOUS
  5
1BD
 10
561.677267
 20
302.73128
 30
0.0
 40
70.5
 50
330.934653
 51
344.065347
  0
ARC
  8
LC-001-002-----0
  6
CONTINUOUS
  5
1BE
 10
561.677267
 20
302.73128
 30
0.0
 40
73.0
 50
330.902642
 51
344.097358
  0
ARC
  8
LC-001-002-----0
  6
CONTINUOUS
  5
1BF
 10
561.677267
 20
302.73128
 30
0.0
 40
70.5
 50
315.934653
 51
329.065347
  0
ARC
  8
LC-001-002-----0
  6
CONTINUOUS
  5
1C0
 10
561.677267
 20
302.73128
 30
0.0
 40
73.0
 50
315.902642
 51
329.097358
  0
ARC
  8
LC-001-002-----0
  6
CONTINUOUS
  5
1C1
 10
561.677267
 20
302.73128
 30
0.0
 40
70.5
 50
300.934653
 51
314.065347
  0
ARC
  8
LC-001-002-----0
  6
CONTINUOUS
  5
1C2
 10
561.677267
 20
302.73128
 30
0.0
 40
73.0
 50
300.902642
 51
314.097358
  0
ARC
  8
LC-001-002-----0
  6
CONTINUOUS
  5
1C3
 10
561.677267
 20
302.73128
 30
0.0
 40
70.5
 50
285.934653
 51
299.065347
  0
ARC
  8
LC-001-002-----0
  6
CONTINUOUS
  5
1C4
 10
561.677267
 20
302.73128
 30
0.0
 40
73.0
 50
285.902642
 51
299.097358
  0
ARC
  8
LC-001-002-----0
  6
CONTINUOUS
  5
1C5
 10
561.677267
 20
302.73128
 30
0.0
 40
70.5
 50
270.934653
 51
284.065347
  0
ARC
  8
LC-001-002-----0
  6
CONTINUOUS
  5
1C6
 10
561.677267
 20
302.73128
 30
0.0
 40
73.0
 50
270.902642
 51
284.097358
  0
ARC
  8
LC-001-002-----0
  6
CONTINUOUS
  5
1C7
 10
561.677267
 20
302.73128
 30
0.0
 40
70.5
 50
240.934653
 51
254.065347
  0
ARC
  8
LC-001-002-----0
  6
CONTINUOUS
  5
1C8
 10
561.677267
 20
302.73128
 30
0.0
 40
73.0
 50
240.902642
 51
254.097358
  0
ARC
  8
LC-001-002-----0
  6
CONTINUOUS
  5
1C9
 10
561.677267
 20
302.73128
 30
0.0
 40
70.5
 50
225.934653
 51
239.065347
  0
ARC
  8
LC-001-002-----0
  6
CONTINUOUS
  5
1CA
 10
561.677267
 20
302.73128
 30
0.0
 40
73.0
 50
225.902642
 51
239.097358
  0
ARC
  8
LC-001-002-----0
  6
CONTINUOUS
  5
1CB
 10
561.677267
 20
302.73128
 30
0.0
 40
70.5
 50
210.934653
 51
224.065347
  0
ARC
  8
LC-001-002-----0
  6
CONTINUOUS
  5
1CC
 10
561.677267
 20
302.73128
 30
0.0
 40
73.0
 50
210.902642
 51
224.097358
  0
ARC
  8
LC-001-002-----0
  6
CONTINUOUS
  5
1CD
 10
561.677267
 20
302.73128
 30
0.0
 40
73.0
 50
180.902642
 51
194.097358
  0
ARC
  8
LC-001-002-----0
  6
CONTINUOUS
  5
1CE
 10
561.677267
 20
302.73128
 30
0.0
 40
70.5
 50
180.934653
 51
194.065347
  0
ARC
  8
LC-001-002-----0
  6
CONTINUOUS
  5
1CF
 10
561.677267
 20
302.73128
 30
0.0
 40
73.0
 50
195.902642
 51
209.097358
  0
ARC
  8
LC-001-002-----0
  6
CONTINUOUS
  5
1D0
 10
561.677267
 20
302.73128
 30
0.0
 40
70.5
 50
195.934653
 51
209.065347
  0
ARC
  8
LC-001-002-----0
  6
CONTINUOUS
  5
1D1
 10
561.677267
 20
302.73128
 30
0.0
 40
56.2
 50
151.172504
 51
163.827496
  0
ARC
  8
LC-001-002-----0
  6
CONTINUOUS
  5
1D2
 10
561.677267
 20
302.73128
 30
0.0
 40
57.9
 50
151.138074
 51
163.861926
  0
ARC
  8
LC-001-002-----0
  6
CONTINUOUS
  5
1D3
 10
561.677267
 20
302.73128
 30
0.0
 40
56.2
 50
136.172504
 51
148.827496
  0
ARC
  8
LC-001-002-----0
  6
CONTINUOUS
  5
1D4
 10
561.677267
 20
302.73128
 30
0.0
 40
57.9
 50
136.138074
 51
148.861926
  0
ARC
  8
LC-001-002-----0
  6
CONTINUOUS
  5
1D5
 10
561.677267
 20
302.73128
 30
0.0
 40
56.2
 50
121.172504
 51
133.827496
  0
ARC
  8
LC-001-002-----0
  6
CONTINUOUS
  5
1D6
 10
561.677267
 20
302.73128
 30
0.0
 40
57.9
 50
121.138074
 51
133.861926
  0
ARC
  8
LC-001-002-----0
  6
CONTINUOUS
  5
1D7
 10
561.677267
 20
302.73128
 30
0.0
 40
56.2
 50
106.172504
 51
118.827496
  0
ARC
  8
LC-001-002-----0
  6
CONTINUOUS
  5
1D8
 10
561.677267
 20
302.73128
 30
0.0
 40
57.9
 50
106.138074
 51
118.861926
  0
ARC
  8
LC-001-002-----0
  6
CONTINUOUS
  5
1D9
 10
561.677267
 20
302.73128
 30
0.0
 40
56.2
 50
91.172504
 51
103.827496
  0
ARC
  8
LC-001-002-----0
  6
CONTINUOUS
  5
1DA
 10
561.677267
 20
302.73128
 30
0.0
 40
57.9
 50
91.138074
 51
103.861926
  0
ARC
  8
LC-001-002-----0
  6
CONTINUOUS
  5
1DB
 10
561.677267
 20
302.73128
 30
0.0
 40
56.2
 50
76.172504
 51
88.827496
  0
ARC
  8
LC-001-002-----0
  6
CONTINUOUS
  5
1DC
 10
561.677267
 20
302.73128
 30
0.0
 40
57.9
 50
76.138074
 51
88.861926
  0
ARC
  8
LC-001-002-----0
  6
CONTINUOUS
  5
1DD
 10
561.677267
 20
302.73128
 30
0.0
 40
57.9
 50
61.138074
 51
73.861926
  0
ARC
  8
LC-001-002-----0
  6
CONTINUOUS
  5
1DE
 10
561.677267
 20
302.73128
 30
0.0
 40
56.2
 50
61.172504
 51
73.827496
  0
ARC
  8
LC-001-002-----0
  6
CONTINUOUS
  5
1DF
 10
561.677267
 20
302.73128
 30
0.0
 40
57.9
 50
46.138074
 51
58.03765
  0
ARC
  8
LC-001-002-----0
  6
CONTINUOUS
  5
1E0
 10
561.677267
 20
302.73128
 30
0.0
 40
56.2
 50
46.172504
 51
58.827496
  0
ARC
  8
LC-001-002-----0
  6
CONTINUOUS
  5
1E1
 10
561.677267
 20
302.73128
 30
0.0
 40
57.9
 50
31.138074
 51
43.861926
  0
ARC
  8
LC-001-002-----0
  6
CONTINUOUS
  5
1E2
 10
561.677267
 20
302.73128
 30
0.0
 40
56.2
 50
31.172504
 51
43.827496
  0
ARC
  8
LC-001-002-----0
  6
CONTINUOUS
  5
1E3
 10
561.677267
 20
302.73128
 30
0.0
 40
57.9
 50
16.138074
 51
28.861926
  0
ARC
  8
LC-001-002-----0
  6
CONTINUOUS
  5
1E4
 10
561.677267
 20
302.73128
 30
0.0
 40
56.2
 50
16.172504
 51
28.827496
  0
ARC
  8
LC-001-002-----0
  6
CONTINUOUS
  5
1E5
 10
561.677267
 20
302.73128
 30
0.0
 40
57.9
 50
1.138074
 51
13.861926
  0
ARC
  8
LC-001-002-----0
  6
CONTINUOUS
  5
1E6
 10
561.677267
 20
302.73128
 30
0.0
 40
56.2
 50
1.172504
 51
13.827496
  0
ARC
  8
LC-001-002-----0
  6
CONTINUOUS
  5
1E7
 10
561.677267
 20
302.73128
 30
0.0
 40
56.2
 50
346.172504
 51
358.827496
  0
ARC
  8
LC-001-002-----0
  6
CONTINUOUS
  5
1E8
 10
561.677267
 20
302.73128
 30
0.0
 40
57.9
 50
346.138074
 51
358.861926
  0
ARC
  8
LC-001-002-----0
  6
CONTINUOUS
  5
1E9
 10
561.677267
 20
302.73128
 30
0.0
 40
57.9
 50
331.138074
 51
343.861926
  0
ARC
  8
LC-001-002-----0
  6
CONTINUOUS
  5
1EA
 10
561.677267
 20
302.73128
 30
0.0
 40
56.2
 50
331.172504
 51
343.827496
  0
ARC
  8
LC-001-002-----0
  6
CONTINUOUS
  5
1EB
 10
561.677267
 20
302.73128
 30
0.0
 40
57.9
 50
316.138074
 51
328.861926
  0
ARC
  8
LC-001-002-----0
  6
CONTINUOUS
  5
1EC
 10
561.677267
 20
302.73128
 30
0.0
 40
56.2
 50
316.172504
 51
328.827496
  0
ARC
  8
LC-001-002-----0
  6
CONTINUOUS
  5
1ED
 10
561.677267
 20
302.73128
 30
0.0
 40
57.9
 50
301.138074
 51
313.861926
  0
ARC
  8
LC-001-002-----0
  6
CONTINUOUS
  5
1EE
 10
561.677267
 20
302.73128
 30
0.0
 40
56.2
 50
301.172504
 51
313.827496
  0
ARC
  8
LC-001-002-----0
  6
CONTINUOUS
  5
1EF
 10
561.677267
 20
302.73128
 30
0.0
 40
57.9
 50
286.138074
 51
298.861926
  0
ARC
  8
LC-001-002-----0
  6
CONTINUOUS
  5
1F0
 10
561.677267
 20
302.73128
 30
0.0
 40
56.2
 50
286.172504
 51
298.827496
  0
ARC
  8
LC-001-002-----0
  6
CONTINUOUS
  5
1F1
 10
561.677267
 20
302.73128
 30
0.0
 40
56.2
 50
271.172504
 51
283.827496
  0
ARC
  8
LC-001-002-----0
  6
CONTINUOUS
  5
1F2
 10
561.677267
 20
302.73128
 30
0.0
 40
57.9
 50
271.138074
 51
283.861926
  0
ARC
  8
LC-001-002-----0
  6
CONTINUOUS
  5
1F3
 10
561.677267
 20
302.73128
 30
0.0
 40
56.2
 50
256.172504
 51
268.827496
  0
ARC
  8
LC-001-002-----0
  6
CONTINUOUS
  5
1F4
 10
561.677267
 20
302.73128
 30
0.0
 40
57.9
 50
256.138074
 51
268.861926
  0
ARC
  8
LC-001-002-----0
  6
CONTINUOUS
  5
1F5
 10
561.677267
 20
302.73128
 30
0.0
 40
56.2
 50
241.172504
 51
253.827496
  0
ARC
  8
LC-001-002-----0
  6
CONTINUOUS
  5
1F6
 10
561.677267
 20
302.73128
 30
0.0
 40
57.9
 50
241.138074
 51
253.861926
  0
ARC
  8
LC-001-002-----0
  6
CONTINUOUS
  5
1F7
 10
561.677267
 20
302.73128
 30
0.0
 40
56.2
 50
226.172504
 51
238.827496
  0
ARC
  8
LC-001-002-----0
  6
CONTINUOUS
  5
1F8
 10
561.677267
 20
302.73128
 30
0.0
 40
57.9
 50
226.138074
 51
238.861926
  0
ARC
  8
LC-001-002-----0
  6
CONTINUOUS
  5
1F9
 10
561.677267
 20
302.73128
 30
0.0
 40
56.2
 50
211.172504
 51
223.827496
  0
ARC
  8
LC-001-002-----0
  6
CONTINUOUS
  5
1FA
 10
561.677267
 20
302.73128
 30
0.0
 40
57.9
 50
211.138074
 51
223.861926
  0
ARC
  8
LC-001-002-----0
  6
CONTINUOUS
  5
1FB
 10
561.677267
 20
302.73128
 30
0.0
 40
56.2
 50
196.172504
 51
208.827496
  0
ARC
  8
LC-001-002-----0
  6
CONTINUOUS
  5
1FC
 10
561.677267
 20
302.73128
 30
0.0
 40
57.9
 50
196.138074
 51
208.861926
  0
ARC
  8
LC-001-002-----0
  6
CONTINUOUS
  5
1FD
 10
561.677267
 20
302.73128
 30
0.0
 40
56.2
 50
181.172504
 51
193.827496
  0
ARC
  8
LC-001-002-----0
  6
CONTINUOUS
  5
1FE
 10
561.677267
 20
302.73128
 30
0.0
 40
57.9
 50
181.138074
 51
193.861926
  0
ARC
  8
LC-001-002-----0
  6
CONTINUOUS
  5
1FF
 10
561.677267
 20
302.73128
 30
0.0
 40
56.2
 50
166.172504
 51
178.827496
  0
ARC
  8
LC-001-002-----0
  6
CONTINUOUS
  5
200
 10
561.677267
 20
302.73128
 30
0.0
 40
57.9
 50
166.138074
 51
178.861926
  0
LINE
  8
LC-001-002-----0
  6
CONTINUOUS
  5
201
 10
246.070808
 20
319.031002
 30
0.0
 11
254.677598
 21
339.931009
 31
0.0
  0
LINE
  8
LC-001-002-----0
  6
CONTINUOUS
  5
202
 10
237.206156
 20
279.731002
 30
0.0
 11
249.994973
 21
314.368685
 31
0.0
  0
LINE
  8
LC-001-002-----0
  6
CONTINUOUS
  5
203
 10
263.428442
 20
279.731002
 30
0.0
 11
270.812067
 21
314.368685
 31
0.0
  0
LINE
  8
LC-001-002-----0
  6
CONTINUOUS
  5
204
 10
261.436584
 20
279.731002
 30
0.0
 11
268.820209
 21
314.368685
 31
0.0
  0
LINE
  8
LC-001-002-----0
  6
CONTINUOUS
  5
205
 10
278.322694
 20
279.731002
 30
0.0
 11
282.144738
 21
314.368685
 31
0.0
  0
LINE
  8
LC-001-002-----0
  6
CONTINUOUS
  5
206
 10
280.544323
 20
279.731002
 30
0.0
 11
284.366367
 21
314.368685
 31
0.0
  0
LINE
  8
LC-001-002-----0
  6
CONTINUOUS
  5
207
 10
236.056156
 20
279.731002
 30
0.0
 11
248.844973
 21
314.368685
 31
0.0
  0
LINE
  8
LC-001-002-----0
  6
CONTINUOUS
  5
208
 10
245.475525
 20
319.031002
 30
0.0
 11
254.082314
 21
339.931008
 31
0.0
  0
LINE
  8
LC-001-002-----0
  6
CONTINUOUS
  5
209
 10
248.646601
 20
279.731002
 30
0.0
 11
259.106851
 21
314.368685
 31
0.0
  0
LINE
  8
LC-001-002-----0
  6
CONTINUOUS
  5
20A
 10
247.020255
 20
279.731002
 30
0.0
 11
257.462279
 21
314.368685
 31
0.0
  0
LINE
  8
LC-001-002-----0
  6
CONTINUOUS
  5
20B
 10
250.56638
 20
319.031002
 30
0.0
 11
258.283017
 21
339.931014
 31
0.0
  0
LINE
  8
LC-001-002-----0
  6
CONTINUOUS
  5
20C
 10
251.71638
 20
319.031002
 30
0.0
 11
259.433017
 21
339.931015
 31
0.0
  0
LINE
  8
LC-001-002-----0
  6
CONTINUOUS
  5
20D
 10
229.886755
 20
279.731002
 30
0.0
 11
244.150829
 21
314.368685
 31
0.0
  0
LINE
  8
LC-001-002-----0
  6
CONTINUOUS
  5
20E
 10
229.291471
 20
279.731002
 30
0.0
 11
243.555545
 21
314.368685
 31
0.0
  0
LINE
  8
LC-001-002-----0
  6
CONTINUOUS
  5
20F
 10
258.867802
 20
319.031002
 30
0.0
 11
265.168412
 21
339.931023
 31
0.0
  0
LINE
  8
LC-001-002-----0
  6
CONTINUOUS
  5
210
 10
260.514827
 20
319.031002
 30
0.0
 11
266.826435
 21
339.931025
 31
0.0
  0
LINE
  8
LC-001-002-----0
  6
CONTINUOUS
  5
211
 10
269.814063
 20
319.031002
 30
0.0
 11
274.269269
 21
339.931036
 31
0.0
  0
LINE
  8
LC-001-002-----0
  6
CONTINUOUS
  5
212
 10
271.805921
 20
319.031002
 30
0.0
 11
276.261127
 21
339.931038
 31
0.0
  0
LINE
  8
LC-001-002-----0
  6
CONTINUOUS
  5
213
 10
282.659195
 20
319.031002
 30
0.0
 11
284.96538
 21
339.93105
 31
0.0
  0
LINE
  8
LC-001-002-----0
  6
CONTINUOUS
  5
214
 10
284.880824
 20
319.031002
 30
0.0
 11
287.187009
 21
339.931053
 31
0.0
  0
LINE
  8
LC-001-002-----0
  6
CONTINUOUS
  5
215
 10
314.810802
 20
279.731049
 30
0.0
 11
310.988663
 21
314.368721
 31
0.0
  0
LINE
  8
LC-001-002-----0
  6
CONTINUOUS
  5
216
 10
317.032432
 20
279.731056
 30
0.0
 11
313.210292
 21
314.368727
 31
0.0
  0
LINE
  8
LC-001-002-----0
  6
CONTINUOUS
  5
217
 10
310.474193
 20
319.031038
 30
0.0
 11
308.167951
 21
339.931082
 31
0.0
  0
LINE
  8
LC-001-002-----0
  6
CONTINUOUS
  5
218
 10
312.695823
 20
319.031044
 30
0.0
 11
310.38958
 21
339.931085
 31
0.0
  0
LINE
  8
LC-001-002-----0
  6
CONTINUOUS
  5
219
 10
323.549096
 20
319.031073
 30
0.0
 11
319.093833
 21
339.931097
 31
0.0
  0
LINE
  8
LC-001-002-----0
  6
CONTINUOUS
  5
21A
 10
325.540954
 20
319.031079
 30
0.0
 11
321.085691
 21
339.9311
 31
0.0
  0
LINE
  8
LC-001-002-----0
  6
CONTINUOUS
  5
21B
 10
334.840191
 20
319.031104
 30
0.0
 11
328.528525
 21
339.93111
 31
0.0
  0
LINE
  8
LC-001-002-----0
  6
CONTINUOUS
  5
21C
 10
336.487216
 20
319.031109
 30
0.0
 11
330.186548
 21
339.931112
 31
0.0
  0
LINE
  8
LC-001-002-----0
  6
CONTINUOUS
  5
21D
 10
333.918541
 20
279.731102
 30
0.0
 11
326.534821
 21
314.368764
 31
0.0
  0
LINE
  8
LC-001-002-----0
  6
CONTINUOUS
  5
21E
 10
331.926683
 20
279.731096
 30
0.0
 11
324.542963
 21
314.368759
 31
0.0
  0
LINE
  8
LC-001-002-----0
  6
CONTINUOUS
  5
21F
 10
346.708525
 20
279.731137
 30
0.0
 11
336.248179
 21
314.368791
 31
0.0
  0
LINE
  8
LC-001-002-----0
  6
CONTINUOUS
  5
220
 10
348.33487
 20
279.731141
 30
0.0
 11
337.892751
 21
314.368795
 31
0.0
  0
LINE
  8
LC-001-002-----0
  6
CONTINUOUS
  5
221
 10
358.14897
 20
279.731168
 30
0.0
 11
345.360057
 21
314.368816
 31
0.0
  0
LINE
  8
LC-001-002-----0
  6
CONTINUOUS
  5
222
 10
359.29897
 20
279.731172
 30
0.0
 11
346.510057
 21
314.368819
 31
0.0
  0
LINE
  8
LC-001-002-----0
  6
CONTINUOUS
  5
223
 10
343.638638
 20
319.031129
 30
0.0
 11
335.921943
 21
339.93112
 31
0.0
  0
LINE
  8
LC-001-002-----0
  6
CONTINUOUS
  5
224
 10
344.788637
 20
319.031132
 30
0.0
 11
337.071943
 21
339.931122
 31
0.0
  0
LINE
  8
LC-001-002-----0
  6
CONTINUOUS
  5
225
 10
349.284209
 20
319.031144
 30
0.0
 11
340.677362
 21
339.931127
 31
0.0
  0
LINE
  8
LC-001-002-----0
  6
CONTINUOUS
  5
226
 10
349.284209
 20
319.031144
 30
0.0
 11
340.677362
 21
339.931127
 31
0.0
  0
LINE
  8
LC-001-002-----0
  6
CONTINUOUS
  5
227
 10
349.879492
 20
319.031146
 30
0.0
 11
341.272646
 21
339.931128
 31
0.0
  0
LINE
  8
LC-001-002-----0
  6
CONTINUOUS
  5
228
 10
365.46837
 20
279.731188
 30
0.0
 11
351.204201
 21
314.368832
 31
0.0
  0
LINE
  8
LC-001-002-----0
  6
CONTINUOUS
  5
229
 10
366.063654
 20
279.73119
 30
0.0
 11
351.799485
 21
314.368833
 31
0.0
  0
ENDSEC
  0
EOF
