  0
SECTION
  2
HEADER
  9
$ACADVER
  1
AC1015
  9
$ACADMAINTVER
 70
     6
  9
$DWGCODEPAGE
  3
ANSI_1252
  9
$INSBASE
 10
19.512808
 20
11.753976
 30
0.0
  9
$EXTMIN
 10
19.512808
 20
11.753976
 30
0.0
  9
$EXTMAX
 10
859.512808
 20
605.753976
 30
0.0
  9
$LIMMIN
 10
19.512808
 20
11.753976
  9
$LIMMAX
 10
859.512808
 20
605.753976
  9
$ORTHOMODE
 70
     0
  9
$REGENMODE
 70
     1
  9
$FILLMODE
 70
     1
  9
$QTEXTMODE
 70
     0
  9
$MIRRTEXT
 70
     1
  9
$LTSCALE
 40
2.0
  9
$ATTMODE
 70
     1
  9
$TEXTSIZE
 40
2.5
  9
$TRACEWID
 40
1.0
  9
$TEXTSTYLE
  7
Standard
  9
$CLAYER
  8
0
  9
$CELTYPE
  6
ByLayer
  9
$CECOLOR
 62
     7
  9
$CELTSCALE
 40
1.0
  9
$DISPSILH
 70
     0
  9
$DIMSCALE
 40
2.0
  9
$DIMASZ
 40
3.5
  9
$DIMEXO
 40
0.625
  9
$DIMDLI
 40
3.75
  9
$DIMRND
 40
0.0
  9
$DIMDLE
 40
0.0
  9
$DIMEXE
 40
1.25
  9
$DIMTP
 40
0.0
  9
$DIMTM
 40
0.0
  9
$DIMTXT
 40
3.5
  9
$DIMCEN
 40
2.5
  9
$DIMTSZ
 40
0.0
  9
$DIMTOL
 70
     0
  9
$DIMLIM
 70
     0
  9
$DIMTIH
 70
     0
  9
$DIMTOH
 70
     0
  9
$DIMSE1
 70
     0
  9
$DIMSE2
 70
     0
  9
$DIMTAD
 70
     1
  9
$DIMZIN
 70
     8
  9
$DIMBLK
  1

  9
$DIMASO
 70
     1
  9
$DIMSHO
 70
     1
  9
$DIMPOST
  1

  9
$DIMAPOST
  1

  9
$DIMALT
 70
     0
  9
$DIMALTD
 70
     3
  9
$DIMALTF
 40
0.03937
  9
$DIMLFAC
 40
1.0
  9
$DIMTOFL
 70
     1
  9
$DIMTVP
 40
0.0
  9
$DIMTIX
 70
     0
  9
$DIMSOXD
 70
     0
  9
$DIMSAH
 70
     0
  9
$DIMBLK1
  1

  9
$DIMBLK2
  1

  9
$DIMSTYLE
  2
ISO-25
  9
$DIMCLRD
 70
     0
  9
$DIMCLRE
 70
     0
  9
$DIMCLRT
 70
     0
  9
$DIMTFAC
 40
1.0
  9
$DIMGAP
 40
0.625
  9
$DIMJUST
 70
     0
  9
$DIMSD1
 70
     0
  9
$DIMSD2
 70
     0
  9
$DIMTOLJ
 70
     0
  9
$DIMTZIN
 70
     8
  9
$DIMALTZ
 70
     0
  9
$DIMALTTZ
 70
     0
  9
$DIMUPT
 70
     0
  9
$DIMDEC
 70
     2
  9
$DIMTDEC
 70
     2
  9
$DIMALTU
 70
     2
  9
$DIMALTTD
 70
     3
  9
$DIMTXSTY
  7
Standard
  9
$DIMAUNIT
 70
     0
  9
$DIMADEC
 70
     0
  9
$DIMALTRND
 40
0.0
  9
$DIMAZIN
 70
     0
  9
$DIMDSEP
 70
    44
  9
$DIMATFIT
 70
     3
  9
$DIMFRAC
 70
     0
  9
$DIMLDRBLK
  1

  9
$DIMLUNIT
 70
     2
  9
$DIMLWD
 70
    -2
  9
$DIMLWE
 70
    -2
  9
$DIMTMOVE
 70
     0
  9
$LUNITS
 70
     2
  9
$LUPREC
 70
     4
  9
$SKETCHINC
 40
1.0
  9
$FILLETRAD
 40
10.0
  9
$AUNITS
 70
     0
  9
$AUPREC
 70
     0
  9
$MENU
  1
.
  9
$ELEVATION
 40
0.0
  9
$PELEVATION
 40
0.0
  9
$THICKNESS
 40
0.0
  9
$LIMCHECK
 70
     0
  9
$CHAMFERA
 40
10.0
  9
$CHAMFERB
 40
10.0
  9
$CHAMFERC
 40
20.0
  9
$CHAMFERD
 40
0.0
  9
$SKPOLY
 70
     0
  9
$TDCREATE
 40
2455565.377822523
  9
$TDUCREATE
 40
2455565.336155857
  9
$TDUPDATE
 40
2455565.377822535
  9
$TDUUPDATE
 40
2455565.336155868
  9
$TDINDWG
 40
0.0000000116
  9
$TDUSRTIMER
 40
0.0000000116
  9
$USRTIMER
 70
     1
  9
$ANGBASE
 50
0.0
  9
$ANGDIR
 70
     0
  9
$PDMODE
 70
     0
  9
$PDSIZE
 40
0.0
  9
$PLINEWID
 40
0.0
  9
$SPLFRAME
 70
     0
  9
$SPLINETYPE
 70
     6
  9
$SPLINESEGS
 70
     8
  9
$HANDSEED
  5
78E
  9
$SURFTAB1
 70
     6
  9
$SURFTAB2
 70
     6
  9
$SURFTYPE
 70
     6
  9
$SURFU
 70
     6
  9
$SURFV
 70
     6
  9
$UCSBASE
  2

  9
$UCSNAME
  2

  9
$UCSORG
 10
0.0
 20
0.0
 30
0.0
  9
$UCSXDIR
 10
1.0
 20
0.0
 30
0.0
  9
$UCSYDIR
 10
0.0
 20
1.0
 30
0.0
  9
$UCSORTHOREF
  2

  9
$UCSORTHOVIEW
 70
     0
  9
$UCSORGTOP
 10
0.0
 20
0.0
 30
0.0
  9
$UCSORGBOTTOM
 10
0.0
 20
0.0
 30
0.0
  9
$UCSORGLEFT
 10
0.0
 20
0.0
 30
0.0
  9
$UCSORGRIGHT
 10
0.0
 20
0.0
 30
0.0
  9
$UCSORGFRONT
 10
0.0
 20
0.0
 30
0.0
  9
$UCSORGBACK
 10
0.0
 20
0.0
 30
0.0
  9
$PUCSBASE
  2

  9
$PUCSNAME
  2

  9
$PUCSORG
 10
0.0
 20
0.0
 30
0.0
  9
$PUCSXDIR
 10
1.0
 20
0.0
 30
0.0
  9
$PUCSYDIR
 10
0.0
 20
1.0
 30
0.0
  9
$PUCSORTHOREF
  2

  9
$PUCSORTHOVIEW
 70
     0
  9
$PUCSORGTOP
 10
0.0
 20
0.0
 30
0.0
  9
$PUCSORGBOTTOM
 10
0.0
 20
0.0
 30
0.0
  9
$PUCSORGLEFT
 10
0.0
 20
0.0
 30
0.0
  9
$PUCSORGRIGHT
 10
0.0
 20
0.0
 30
0.0
  9
$PUCSORGFRONT
 10
0.0
 20
0.0
 30
0.0
  9
$PUCSORGBACK
 10
0.0
 20
0.0
 30
0.0
  9
$USERI1
 70
     0
  9
$USERI2
 70
     0
  9
$USERI3
 70
     0
  9
$USERI4
 70
     0
  9
$USERI5
 70
     0
  9
$USERR1
 40
0.0
  9
$USERR2
 40
0.0
  9
$USERR3
 40
0.0
  9
$USERR4
 40
0.0
  9
$USERR5
 40
0.0
  9
$WORLDVIEW
 70
     1
  9
$SHADEDGE
 70
     3
  9
$SHADEDIF
 70
    70
  9
$TILEMODE
 70
     1
  9
$MAXACTVP
 70
    64
  9
$PINSBASE
 10
0.0
 20
0.0
 30
0.0
  9
$PLIMCHECK
 70
     0
  9
$PEXTMIN
 10
19.512808
 20
11.753976
 30
0.0
  9
$PEXTMAX
 10
859.512808
 20
605.753976
 30
0.0
  9
$PLIMMIN
 10
19.512808
 20
11.753976
  9
$PLIMMAX
 10
859.512808
 20
605.753976
  9
$UNITMODE
 70
     0
  9
$VISRETAIN
 70
     1
  9
$PLINEGEN
 70
     0
  9
$PSLTSCALE
 70
     1
  9
$TREEDEPTH
 70
  3020
  9
$CMLSTYLE
  2
Standard
  9
$CMLJUST
 70
     0
  9
$CMLSCALE
 40
20.0
  9
$PROXYGRAPHICS
 70
     1
  9
$MEASUREMENT
 70
     1
  9
$CELWEIGHT
370
    -1
  9
$ENDCAPS
280
     0
  9
$JOINSTYLE
280
     0
  9
$LWDISPLAY
290
     0
  9
$INSUNITS
 70
     4
  9
$HYPERLINKBASE
  1

  9
$STYLESHEET
  1

  9
$XEDIT
290
     1
  9
$CEPSNTYPE
380
     0
  9
$PSTYLEMODE
290
     1
  9
$FINGERPRINTGUID
  2
{FAEB1C30-E019-11D5-929B-00C0DF256EC4}
  9
$VERSIONGUID
  2
{FAEB1C32-E019-11D5-929B-00C0DF256EC4}
  9
$EXTNAMES
290
     1
  9
$PSVPSCALE
 40
0.0
  9
$OLESTARTUP
290
     0
  0
ENDSEC
  0
SECTION
  2
CLASSES
  0
CLASS
  1
ACDBDICTIONARYWDFLT
  2
AcDbDictionaryWithDefault
  3
ObjectDBX Classes
 90
        0
280
     0
281
     0
  0
CLASS
  1
ACDBPLACEHOLDER
  2
AcDbPlaceHolder
  3
ObjectDBX Classes
 90
        0
280
     0
281
     0
  0
CLASS
  1
LAYOUT
  2
AcDbLayout
  3
ObjectDBX Classes
 90
        0
280
     0
281
     0
  0
ENDSEC
  0
SECTION
  2
TABLES
  0
TABLE
  2
VPORT
  5
8
330
0
100
AcDbSymbolTable
 70
     2
  0
VPORT
  5
29
330
8
100
AcDbSymbolTableRecord
100
AcDbViewportTableRecord
  2
*ACTIVE
 70
     0
 10
0.0
 20
0.0
 11
1.0
 21
1.0
 12
439.512808
 22
308.753976
 13
0.0
 23
0.0
 14
1.0
 24
1.0
 15
0.0
 25
0.0
 16
0.0
 26
0.0
 36
1.0
 17
0.0
 27
0.0
 37
0.0
 40
594.0
 41
1.414141
 42
50.0
 43
0.0
 44
0.0
 50
0.0
 51
0.0
 71
    16
 72
   100
 73
     1
 74
     0
 75
     0
 76
     0
 77
     0
 78
     0
281
     0
 65
     0
110
0.0
120
0.0
130
0.0
111
1.0
121
0.0
131
0.0
112
0.0
122
1.0
132
0.0
 79
     0
146
0.0
  0
ENDTAB
  0
TABLE
  2
LTYPE
  5
5
330
0
100
AcDbSymbolTable
 70
     3
  0
LTYPE
  5
14
330
5
100
AcDbSymbolTableRecord
100
AcDbLinetypeTableRecord
  2
ByBlock
 70
     0
  3

 72
    65
 73
     0
 40
0.0
  0
LTYPE
  5
15
330
5
100
AcDbSymbolTableRecord
100
AcDbLinetypeTableRecord
  2
ByLayer
 70
     0
  3

 72
    65
 73
     0
 40
0.0
  0
LTYPE
  5
16
330
5
100
AcDbSymbolTableRecord
100
AcDbLinetypeTableRecord
  2
Continuous
 70
     0
  3
Solid line
 72
    65
 73
     0
 40
0.0
  0
LTYPE
  5
2A
330
5
100
AcDbSymbolTableRecord
100
AcDbLinetypeTableRecord
  2
DASHED
 70
     0
  3
__ __ __ __ __
 72
    65
 73
     2
 40
6.25
 49
5.0
 74
     4
 75
     0
340
0
 46
1.0
 50
0.0
 44
0.0
 45
0.0
 49
-1.25
 74
     4
 75
     0
340
0
 46
1.0
 50
0.0
 44
0.0
 45
0.0
  0
LTYPE
  5
4E1
330
5
100
AcDbSymbolTableRecord
100
AcDbLinetypeTableRecord
  2
DASHDOT
 70
     0
  3
__ . __ . __ . __ . __
 72
    65
 73
     4
 40
7.5
 49
5.0
 74
     4
 75
     0
340
0
 46
1.0
 50
0.0
 44
0.0
 45
0.0
 49
-1.25
 74
     4
 75
     0
340
0
 46
1.0
 50
0.0
 44
0.0
 45
0.0
 49
0.0
 74
     4
 75
     0
340
0
 46
1.0
 50
0.0
 44
0.0
 45
0.0
 49
-1.25
 74
     4
 75
     0
340
0
 46
1.0
 50
0.0
 44
0.0
 45
0.0
  0
ENDTAB
  0
TABLE
  2
LAYER
  5
2
330
0
100
AcDbSymbolTable
 70
    11
  0
LAYER
  5
10
330
2
100
AcDbSymbolTableRecord
100
AcDbLayerTableRecord
  2
0
 70
     0
 62
     7
  6
Continuous
370
    -3
390
F
  0
LAYER
  5
2B
330
2
100
AcDbSymbolTableRecord
100
AcDbLayerTableRecord
  2
LC-INFO-1-2-mm-A3-0
 70
     1
 62
     7
  6
ByBlock
370
    -3
390
F
  0
LAYER
  5
2C
330
2
100
AcDbSymbolTableRecord
100
AcDbLayerTableRecord
  2
LC-CUT-HIDDEN
 70
     0
 62
     7
  6
DASHED
370
    -3
390
F
  0
LAYER
  5
2D
330
2
100
AcDbSymbolTableRecord
100
AcDbLayerTableRecord
  2
LC-VIEWPORT
 70
     0
 62
     7
  6
ByBlock
370
    -3
390
F
  0
LAYER
  5
2E
330
2
100
AcDbSymbolTableRecord
100
AcDbLayerTableRecord
  2
LC-3D-HIDDEN
 70
     0
 62
     9
  6
DASHED
370
    -3
390
F
  0
LAYER
  5
30
330
2
100
AcDbSymbolTableRecord
100
AcDbLayerTableRecord
  2
LC-001-002-----0
 70
     0
 62
     1
  6
ByBlock
370
    -3
390
F
  0
LAYER
  5
32
330
2
100
AcDbSymbolTableRecord
100
AcDbLayerTableRecord
  2
LC-002-100-D00-0
 70
     0
 62
     7
  6
ByBlock
370
    -3
390
F
  0
LAYER
  5
34
330
2
100
AcDbSymbolTableRecord
100
AcDbLayerTableRecord
  2
LC-003-105-D00-0
 70
     0
 62
     2
  6
ByBlock
370
    -3
390
F
  0
LAYER
  5
4F1
330
2
100
AcDbSymbolTableRecord
100
AcDbLayerTableRecord
  2
LC-004-005-----0
 70
     0
 62
     2
  6
ByBlock
370
    -3
390
F
  0
LAYER
  5
6E9
330
2
100
AcDbSymbolTableRecord
100
AcDbLayerTableRecord
  2
LC-005-003-----0
 70
     0
 62
     2
  6
ByBlock
370
    -3
390
F
  0
LAYER
  5
6EB
330
2
100
AcDbSymbolTableRecord
100
AcDbLayerTableRecord
  2
Defpoints
 70
     0
 62
     7
  6
Continuous
290
     0
370
    -3
390
F
  0
ENDTAB
  0
TABLE
  2
STYLE
  5
3
330
0
100
AcDbSymbolTable
 70
     3
  0
STYLE
  5
11
330
3
100
AcDbSymbolTableRecord
100
AcDbTextStyleTableRecord
  2
Standard
 70
     0
 40
0.0
 41
1.0
 50
0.0
 71
     0
 42
2.5
  3
txt
  4

  0
STYLE
  5
2F
330
3
100
AcDbSymbolTableRecord
100
AcDbTextStyleTableRecord
  2
LCTX15-400-0-0-Arial
 70
     0
 40
0.0
 41
0.8
 50
0.0
 71
     0
 42
3.5
  3

  4

1001
ACAD
1000
Arial
1071
 16777218
  0
STYLE
  5
6E7
330
3
100
AcDbSymbolTableRecord
100
AcDbTextStyleTableRecord
  2
LCTX15-400-0-0pDIN-Schrift
 70
     0
 40
2.5
 41
0.8
 50
15.0
 71
     0
 42
3.5
  3
STANDARD
  4

  0
ENDTAB
  0
TABLE
  2
VIEW
  5
6
330
0
100
AcDbSymbolTable
 70
     0
  0
ENDTAB
  0
TABLE
  2
UCS
  5
7
330
0
100
AcDbSymbolTable
 70
     0
  0
ENDTAB
  0
TABLE
  2
APPID
  5
9
330
0
100
AcDbSymbolTable
 70
     1
  0
APPID
  5
12
330
9
100
AcDbSymbolTableRecord
100
AcDbRegAppTableRecord
  2
ACAD
 70
     0
  0
ENDTAB
  0
TABLE
  2
DIMSTYLE
  5
A
330
0
100
AcDbSymbolTable
 70
     2
100
AcDbDimStyleTable
  0
DIMSTYLE
105
27
330
A
100
AcDbSymbolTableRecord
100
AcDbDimStyleTableRecord
  2
ISO-25
 70
     0
 41
2.5
 42
0.625
 43
3.75
 44
1.25
 73
     0
 74
     0
 77
     1
 78
     8
140
2.5
141
2.5
143
0.03937
147
0.625
171
     3
172
     1
271
     2
272
     2
274
     3
278
    44
283
     0
284
     8
340
11
  0
DIMSTYLE
105
6E8
102
{ACAD_REACTORS
330
6EA
330
6F8
330
705
330
712
330
720
330
72D
102
}
330
A
100
AcDbSymbolTableRecord
100
AcDbDimStyleTableRecord
  2
LC-DIM-L-0140-02-02
 70
     0
 40
2.0
 41
14.0
 42
0.0
 43
7.5
 44
1.8
 73
     0
 74
     0
 77
     1
 78
     8
 79
     2
140
14.0
141
0.0
146
0.71
147
1.5
176
     2
177
     2
178
     2
179
     2
271
     2
278
    44
289
     1
340
6E7
  0
ENDTAB
  0
TABLE
  2
BLOCK_RECORD
  5
1
330
0
100
AcDbSymbolTable
 70
    78
  0
BLOCK_RECORD
  5
1F
330
1
100
AcDbSymbolTableRecord
100
AcDbBlockTableRecord
  2
*Model_Space
340
22
  0
BLOCK_RECORD
  5
1B
330
1
100
AcDbSymbolTableRecord
100
AcDbBlockTableRecord
  2
*Paper_Space
340
1E
  0
BLOCK_RECORD
  5
23
330
1
100
AcDbSymbolTableRecord
100
AcDbBlockTableRecord
  2
*Paper_Space0
340
26
  0
BLOCK_RECORD
  5
38
330
1
100
AcDbSymbolTableRecord
100
AcDbBlockTableRecord
  2
POLY1
340
0
102
{BLKREFS
331
43
102
}
  0
BLOCK_RECORD
  5
44
330
1
100
AcDbSymbolTableRecord
100
AcDbBlockTableRecord
  2
POLY2
340
0
102
{BLKREFS
331
4F
102
}
  0
BLOCK_RECORD
  5
50
330
1
100
AcDbSymbolTableRecord
100
AcDbBlockTableRecord
  2
POLY3
340
0
102
{BLKREFS
331
5B
102
}
  0
BLOCK_RECORD
  5
5C
330
1
100
AcDbSymbolTableRecord
100
AcDbBlockTableRecord
  2
POLY4
340
0
102
{BLKREFS
331
67
102
}
  0
BLOCK_RECORD
  5
68
330
1
100
AcDbSymbolTableRecord
100
AcDbBlockTableRecord
  2
POLY5
340
0
102
{BLKREFS
331
73
102
}
  0
BLOCK_RECORD
  5
74
330
1
100
AcDbSymbolTableRecord
100
AcDbBlockTableRecord
  2
POLY6
340
0
102
{BLKREFS
331
7F
102
}
  0
BLOCK_RECORD
  5
80
330
1
100
AcDbSymbolTableRecord
100
AcDbBlockTableRecord
  2
POLY7
340
0
102
{BLKREFS
331
8B
102
}
  0
BLOCK_RECORD
  5
8D
330
1
100
AcDbSymbolTableRecord
100
AcDbBlockTableRecord
  2
POLY8
340
0
102
{BLKREFS
331
98
102
}
  0
BLOCK_RECORD
  5
99
330
1
100
AcDbSymbolTableRecord
100
AcDbBlockTableRecord
  2
POLY9
340
0
102
{BLKREFS
331
A4
102
}
  0
BLOCK_RECORD
  5
11B
330
1
100
AcDbSymbolTableRecord
100
AcDbBlockTableRecord
  2
POLY10
340
0
102
{BLKREFS
331
12C
102
}
  0
BLOCK_RECORD
  5
12D
330
1
100
AcDbSymbolTableRecord
100
AcDbBlockTableRecord
  2
POLY11
340
0
102
{BLKREFS
331
13E
102
}
  0
BLOCK_RECORD
  5
18A
330
1
100
AcDbSymbolTableRecord
100
AcDbBlockTableRecord
  2
POLY12
340
0
102
{BLKREFS
331
19B
102
}
  0
BLOCK_RECORD
  5
19C
330
1
100
AcDbSymbolTableRecord
100
AcDbBlockTableRecord
  2
POLY13
340
0
102
{BLKREFS
331
1AD
102
}
  0
BLOCK_RECORD
  5
1B1
330
1
100
AcDbSymbolTableRecord
100
AcDbBlockTableRecord
  2
POLY14
340
0
102
{BLKREFS
331
1C2
102
}
  0
BLOCK_RECORD
  5
1C3
330
1
100
AcDbSymbolTableRecord
100
AcDbBlockTableRecord
  2
POLY15
340
0
102
{BLKREFS
331
1D4
102
}
  0
BLOCK_RECORD
  5
213
330
1
100
AcDbSymbolTableRecord
100
AcDbBlockTableRecord
  2
POLY16
340
0
102
{BLKREFS
331
224
102
}
  0
BLOCK_RECORD
  5
228
330
1
100
AcDbSymbolTableRecord
100
AcDbBlockTableRecord
  2
POLY17
340
0
102
{BLKREFS
331
239
102
}
  0
BLOCK_RECORD
  5
245
330
1
100
AcDbSymbolTableRecord
100
AcDbBlockTableRecord
  2
KLON1
340
0
102
{BLKREFS
331
24B
102
}
  0
BLOCK_RECORD
  5
24C
330
1
100
AcDbSymbolTableRecord
100
AcDbBlockTableRecord
  2
KLON2
340
0
102
{BLKREFS
331
252
102
}
  0
BLOCK_RECORD
  5
254
330
1
100
AcDbSymbolTableRecord
100
AcDbBlockTableRecord
  2
KLON3
340
0
102
{BLKREFS
331
25A
102
}
  0
BLOCK_RECORD
  5
25B
330
1
100
AcDbSymbolTableRecord
100
AcDbBlockTableRecord
  2
KLON4
340
0
102
{BLKREFS
331
261
102
}
  0
BLOCK_RECORD
  5
263
330
1
100
AcDbSymbolTableRecord
100
AcDbBlockTableRecord
  2
KLON5
340
0
102
{BLKREFS
331
269
102
}
  0
BLOCK_RECORD
  5
26A
330
1
100
AcDbSymbolTableRecord
100
AcDbBlockTableRecord
  2
KLON6
340
0
102
{BLKREFS
331
270
102
}
  0
BLOCK_RECORD
  5
272
330
1
100
AcDbSymbolTableRecord
100
AcDbBlockTableRecord
  2
KLON7
340
0
102
{BLKREFS
331
278
102
}
  0
BLOCK_RECORD
  5
279
330
1
100
AcDbSymbolTableRecord
100
AcDbBlockTableRecord
  2
KLON8
340
0
102
{BLKREFS
331
27F
102
}
  0
BLOCK_RECORD
  5
284
330
1
100
AcDbSymbolTableRecord
100
AcDbBlockTableRecord
  2
KLON9
340
0
102
{BLKREFS
331
28A
102
}
  0
BLOCK_RECORD
  5
28B
330
1
100
AcDbSymbolTableRecord
100
AcDbBlockTableRecord
  2
KLON10
340
0
102
{BLKREFS
331
291
102
}
  0
BLOCK_RECORD
  5
293
330
1
100
AcDbSymbolTableRecord
100
AcDbBlockTableRecord
  2
KLON11
340
0
102
{BLKREFS
331
299
102
}
  0
BLOCK_RECORD
  5
29A
330
1
100
AcDbSymbolTableRecord
100
AcDbBlockTableRecord
  2
KLON12
340
0
102
{BLKREFS
331
2A0
102
}
  0
BLOCK_RECORD
  5
2A2
330
1
100
AcDbSymbolTableRecord
100
AcDbBlockTableRecord
  2
KLON13
340
0
102
{BLKREFS
331
2A8
102
}
  0
BLOCK_RECORD
  5
2A9
330
1
100
AcDbSymbolTableRecord
100
AcDbBlockTableRecord
  2
KLON14
340
0
102
{BLKREFS
331
2AF
102
}
  0
BLOCK_RECORD
  5
2B1
330
1
100
AcDbSymbolTableRecord
100
AcDbBlockTableRecord
  2
KLON15
340
0
102
{BLKREFS
331
2B7
102
}
  0
BLOCK_RECORD
  5
2B8
330
1
100
AcDbSymbolTableRecord
100
AcDbBlockTableRecord
  2
KLON16
340
0
102
{BLKREFS
331
2BE
102
}
  0
BLOCK_RECORD
  5
2C0
330
1
100
AcDbSymbolTableRecord
100
AcDbBlockTableRecord
  2
KLON17
340
0
102
{BLKREFS
331
2C6
102
}
  0
BLOCK_RECORD
  5
2C7
330
1
100
AcDbSymbolTableRecord
100
AcDbBlockTableRecord
  2
KLON18
340
0
102
{BLKREFS
331
2CD
102
}
  0
BLOCK_RECORD
  5
2D8
330
1
100
AcDbSymbolTableRecord
100
AcDbBlockTableRecord
  2
POLY18
340
0
102
{BLKREFS
331
2E3
102
}
  0
BLOCK_RECORD
  5
2E5
330
1
100
AcDbSymbolTableRecord
100
AcDbBlockTableRecord
  2
POLY19
340
0
102
{BLKREFS
331
2F0
102
}
  0
BLOCK_RECORD
  5
2F2
330
1
100
AcDbSymbolTableRecord
100
AcDbBlockTableRecord
  2
POLY20
340
0
102
{BLKREFS
331
2FD
102
}
  0
BLOCK_RECORD
  5
2FF
330
1
100
AcDbSymbolTableRecord
100
AcDbBlockTableRecord
  2
POLY21
340
0
102
{BLKREFS
331
30A
102
}
  0
BLOCK_RECORD
  5
30C
330
1
100
AcDbSymbolTableRecord
100
AcDbBlockTableRecord
  2
POLY22
340
0
102
{BLKREFS
331
317
102
}
  0
BLOCK_RECORD
  5
378
330
1
100
AcDbSymbolTableRecord
100
AcDbBlockTableRecord
  2
POLY23
340
0
102
{BLKREFS
331
383
102
}
  0
BLOCK_RECORD
  5
384
330
1
100
AcDbSymbolTableRecord
100
AcDbBlockTableRecord
  2
POLY24
340
0
102
{BLKREFS
331
391
102
}
  0
BLOCK_RECORD
  5
395
330
1
100
AcDbSymbolTableRecord
100
AcDbBlockTableRecord
  2
POLY25
340
0
102
{BLKREFS
331
3A0
102
}
  0
BLOCK_RECORD
  5
450
330
1
100
AcDbSymbolTableRecord
100
AcDbBlockTableRecord
  2
KLON19
340
0
102
{BLKREFS
331
476
102
}
  0
BLOCK_RECORD
  5
477
330
1
100
AcDbSymbolTableRecord
100
AcDbBlockTableRecord
  2
KLON20
340
0
102
{BLKREFS
331
4A3
102
}
  0
BLOCK_RECORD
  5
4A4
330
1
100
AcDbSymbolTableRecord
100
AcDbBlockTableRecord
  2
KLON21
340
0
102
{BLKREFS
331
4A9
102
}
  0
BLOCK_RECORD
  5
4AA
330
1
100
AcDbSymbolTableRecord
100
AcDbBlockTableRecord
  2
KLON22
340
0
102
{BLKREFS
331
4AF
102
}
  0
BLOCK_RECORD
  5
4B0
330
1
100
AcDbSymbolTableRecord
100
AcDbBlockTableRecord
  2
KLON23
340
0
102
{BLKREFS
331
4B9
102
}
  0
BLOCK_RECORD
  5
4BA
330
1
100
AcDbSymbolTableRecord
100
AcDbBlockTableRecord
  2
KLON24
340
0
102
{BLKREFS
331
4C4
102
}
  0
BLOCK_RECORD
  5
4C5
330
1
100
AcDbSymbolTableRecord
100
AcDbBlockTableRecord
  2
KLON25
340
0
102
{BLKREFS
331
4D0
102
}
  0
BLOCK_RECORD
  5
4D1
330
1
100
AcDbSymbolTableRecord
100
AcDbBlockTableRecord
  2
KLON26
340
0
102
{BLKREFS
331
4D7
102
}
  0
BLOCK_RECORD
  5
4D8
330
1
100
AcDbSymbolTableRecord
100
AcDbBlockTableRecord
  2
KLON27
340
0
102
{BLKREFS
331
4E0
102
}
  0
BLOCK_RECORD
  5
4EE
330
1
100
AcDbSymbolTableRecord
100
AcDbBlockTableRecord
  2
*X153
340
0
102
{BLKREFS
331
50C
102
}
  0
BLOCK_RECORD
  5
50D
330
1
100
AcDbSymbolTableRecord
100
AcDbBlockTableRecord
  2
*X254
340
0
102
{BLKREFS
331
52A
102
}
  0
BLOCK_RECORD
  5
52B
330
1
100
AcDbSymbolTableRecord
100
AcDbBlockTableRecord
  2
*X355
340
0
102
{BLKREFS
331
548
102
}
  0
BLOCK_RECORD
  5
549
330
1
100
AcDbSymbolTableRecord
100
AcDbBlockTableRecord
  2
*X456
340
0
102
{BLKREFS
331
566
102
}
  0
BLOCK_RECORD
  5
567
330
1
100
AcDbSymbolTableRecord
100
AcDbBlockTableRecord
  2
*X557
340
0
102
{BLKREFS
331
584
102
}
  0
BLOCK_RECORD
  5
588
330
1
100
AcDbSymbolTableRecord
100
AcDbBlockTableRecord
  2
*X658
340
0
102
{BLKREFS
331
5A5
102
}
  0
BLOCK_RECORD
  5
5AA
330
1
100
AcDbSymbolTableRecord
100
AcDbBlockTableRecord
  2
*X759
340
0
102
{BLKREFS
331
5CC
102
}
  0
BLOCK_RECORD
  5
5CD
330
1
100
AcDbSymbolTableRecord
100
AcDbBlockTableRecord
  2
*X860
340
0
102
{BLKREFS
331
5EF
102
}
  0
BLOCK_RECORD
  5
5F9
330
1
100
AcDbSymbolTableRecord
100
AcDbBlockTableRecord
  2
*X961
340
0
102
{BLKREFS
331
616
102
}
  0
BLOCK_RECORD
  5
617
330
1
100
AcDbSymbolTableRecord
100
AcDbBlockTableRecord
  2
*X1062
340
0
102
{BLKREFS
331
634
102
}
  0
BLOCK_RECORD
  5
635
330
1
100
AcDbSymbolTableRecord
100
AcDbBlockTableRecord
  2
*X1163
340
0
102
{BLKREFS
331
652
102
}
  0
BLOCK_RECORD
  5
653
330
1
100
AcDbSymbolTableRecord
100
AcDbBlockTableRecord
  2
*X1264
340
0
102
{BLKREFS
331
670
102
}
  0
BLOCK_RECORD
  5
671
330
1
100
AcDbSymbolTableRecord
100
AcDbBlockTableRecord
  2
*X1365
340
0
102
{BLKREFS
331
68E
102
}
  0
BLOCK_RECORD
  5
691
330
1
100
AcDbSymbolTableRecord
100
AcDbBlockTableRecord
  2
*X1466
340
0
102
{BLKREFS
331
6AE
102
}
  0
BLOCK_RECORD
  5
6B0
330
1
100
AcDbSymbolTableRecord
100
AcDbBlockTableRecord
  2
*X1567
340
0
102
{BLKREFS
331
6C9
102
}
  0
BLOCK_RECORD
  5
6CD
330
1
100
AcDbSymbolTableRecord
100
AcDbBlockTableRecord
  2
*X1668
340
0
102
{BLKREFS
331
6E6
102
}
  0
BLOCK_RECORD
  5
6EC
330
1
100
AcDbSymbolTableRecord
100
AcDbBlockTableRecord
  2
*D69
340
0
  0
BLOCK_RECORD
  5
6F9
330
1
100
AcDbSymbolTableRecord
100
AcDbBlockTableRecord
  2
*D70
340
0
  0
BLOCK_RECORD
  5
706
330
1
100
AcDbSymbolTableRecord
100
AcDbBlockTableRecord
  2
*D71
340
0
  0
BLOCK_RECORD
  5
713
330
1
100
AcDbSymbolTableRecord
100
AcDbBlockTableRecord
  2
*D72
340
0
  0
BLOCK_RECORD
  5
721
330
1
100
AcDbSymbolTableRecord
100
AcDbBlockTableRecord
  2
*D73
340
0
  0
BLOCK_RECORD
  5
72E
330
1
100
AcDbSymbolTableRecord
100
AcDbBlockTableRecord
  2
*D74
340
0
  0
BLOCK_RECORD
  5
73F
330
1
100
AcDbSymbolTableRecord
100
AcDbBlockTableRecord
  2
KLON28
340
0
102
{BLKREFS
331
75C
102
}
  0
BLOCK_RECORD
  5
76E
330
1
100
AcDbSymbolTableRecord
100
AcDbBlockTableRecord
  2
KLON29
340
0
102
{BLKREFS
331
774
102
}
  0
BLOCK_RECORD
  5
775
330
1
100
AcDbSymbolTableRecord
100
AcDbBlockTableRecord
  2
KLON30
340
0
102
{BLKREFS
331
77B
102
}
  0
ENDTAB
  0
ENDSEC
  0
SECTION
  2
BLOCKS
  0
BLOCK
  5
20
330
1F
100
AcDbEntity
  8
0
100
AcDbBlockBegin
  2
*Model_Space
 70
     0
 71
     0
 10
0.0
 20
0.0
 30
0.0
  3
*Model_Space
  1

  0
ENDBLK
  5
21
330
1F
100
AcDbEntity
  8
0
100
AcDbBlockEnd
  0
BLOCK
  5
1C
330
1B
100
AcDbEntity
 67
     1
  8
0
100
AcDbBlockBegin
  2
*Paper_Space
 70
     0
 71
     0
 10
0.0
 20
0.0
 30
0.0
  3
*Paper_Space
  1

  0
ENDBLK
  5
1D
330
1B
100
AcDbEntity
 67
     1
  8
0
100
AcDbBlockEnd
  0
BLOCK
  5
24
330
23
100
AcDbEntity
  8
0
100
AcDbBlockBegin
  2
*Paper_Space0
 70
     0
 71
     0
 10
0.0
 20
0.0
 30
0.0
  3
*Paper_Space0
  1

  0
ENDBLK
  5
25
330
23
100
AcDbEntity
  8
0
100
AcDbBlockEnd
  0
BLOCK
  5
39
330
38
100
AcDbEntity
  8
0
100
AcDbBlockBegin
  2
POLY1
 70
     0
 71
     0
 10
0.0
 20
0.0
 30
0.0
  3
POLY1
  1

  4
POLY1
  0
LINE
  5
3B
330
38
100
AcDbEntity
  8
LC-002-100-D00-0
 62
     7
370
    50
100
AcDbLine
 10
354.179688
 20
335.947546
 30
0.0
 11
354.179688
 21
335.947546
 31
0.0
  0
LINE
  5
3C
330
38
100
AcDbEntity
  8
LC-002-100-D00-0
 62
     7
370
    50
100
AcDbLine
 10
354.179688
 20
335.947546
 30
0.0
 11
353.940909
 21
336.074894
 31
0.0
  0
LINE
  5
3D
330
38
100
AcDbEntity
  8
LC-002-100-D00-0
 62
     7
370
    50
100
AcDbLine
 10
353.940909
 20
336.074894
 30
0.0
 11
353.940909
 21
336.074894
 31
0.0
  0
LINE
  5
3E
330
38
100
AcDbEntity
  8
LC-002-100-D00-0
 62
     7
370
    50
100
AcDbLine
 10
353.940909
 20
336.074894
 30
0.0
 11
353.579148
 21
336.267833
 31
0.0
  0
LINE
  5
3F
330
38
100
AcDbEntity
  8
LC-002-100-D00-0
 62
     7
370
    50
100
AcDbLine
 10
353.579148
 20
336.267833
 30
0.0
 11
353.579148
 21
336.267833
 31
0.0
  0
LINE
  5
40
330
38
100
AcDbEntity
  8
LC-002-100-D00-0
 62
     7
370
    50
100
AcDbLine
 10
353.579148
 20
336.267833
 30
0.0
 11
353.219818
 21
336.472652
 31
0.0
  0
LINE
  5
41
330
38
100
AcDbEntity
  8
LC-002-100-D00-0
 62
     7
370
    50
100
AcDbLine
 10
353.219818
 20
336.472652
 30
0.0
 11
353.219818
 21
336.472652
 31
0.0
  0
LINE
  5
42
330
38
100
AcDbEntity
  8
LC-002-100-D00-0
 62
     7
370
    50
100
AcDbLine
 10
353.219818
 20
336.472652
 30
0.0
 11
353.097663
 21
336.542281
 31
0.0
  0
ENDBLK
  5
3A
330
38
100
AcDbEntity
  8
0
100
AcDbBlockEnd
  0
BLOCK
  5
45
330
44
100
AcDbEntity
  8
0
100
AcDbBlockBegin
  2
POLY2
 70
     0
 71
     0
 10
0.0
 20
0.0
 30
0.0
  3
POLY2
  1

  4
POLY2
  0
LINE
  5
47
330
44
100
AcDbEntity
  8
LC-002-100-D00-0
 62
     7
370
    50
100
AcDbLine
 10
348.011486
 20
331.148656
 30
0.0
 11
348.011486
 21
331.148656
 31
0.0
  0
LINE
  5
48
330
44
100
AcDbEntity
  8
LC-002-100-D00-0
 62
     7
370
    50
100
AcDbLine
 10
348.011486
 20
331.148656
 30
0.0
 11
348.250328
 21
331.021516
 31
0.0
  0
LINE
  5
49
330
44
100
AcDbEntity
  8
LC-002-100-D00-0
 62
     7
370
    50
100
AcDbLine
 10
348.250328
 20
331.021516
 30
0.0
 11
348.250328
 21
331.021516
 31
0.0
  0
LINE
  5
4A
330
44
100
AcDbEntity
  8
LC-002-100-D00-0
 62
     7
370
    50
100
AcDbLine
 10
348.250328
 20
331.021516
 30
0.0
 11
348.613242
 21
330.82833
 31
0.0
  0
LINE
  5
4B
330
44
100
AcDbEntity
  8
LC-002-100-D00-0
 62
     7
370
    50
100
AcDbLine
 10
348.613242
 20
330.82833
 30
0.0
 11
348.613242
 21
330.82833
 31
0.0
  0
LINE
  5
4C
330
44
100
AcDbEntity
  8
LC-002-100-D00-0
 62
     7
370
    50
100
AcDbLine
 10
348.613242
 20
330.82833
 30
0.0
 11
348.974243
 21
330.622712
 31
0.0
  0
LINE
  5
4D
330
44
100
AcDbEntity
  8
LC-002-100-D00-0
 62
     7
370
    50
100
AcDbLine
 10
348.974243
 20
330.622712
 30
0.0
 11
348.974243
 21
330.622712
 31
0.0
  0
LINE
  5
4E
330
44
100
AcDbEntity
  8
LC-002-100-D00-0
 62
     7
370
    50
100
AcDbLine
 10
348.974243
 20
330.622712
 30
0.0
 11
349.097662
 21
330.552416
 31
0.0
  0
ENDBLK
  5
46
330
44
100
AcDbEntity
  8
0
100
AcDbBlockEnd
  0
BLOCK
  5
51
330
50
100
AcDbEntity
  8
0
100
AcDbBlockBegin
  2
POLY3
 70
     0
 71
     0
 10
0.0
 20
0.0
 30
0.0
  3
POLY3
  1

  4
POLY3
  0
LINE
  5
53
330
50
100
AcDbEntity
  8
LC-002-100-D00-0
 62
     7
370
    50
100
AcDbLine
 10
354.179688
 20
332.947539
 30
0.0
 11
354.179688
 21
332.947539
 31
0.0
  0
LINE
  5
54
330
50
100
AcDbEntity
  8
LC-002-100-D00-0
 62
     7
370
    50
100
AcDbLine
 10
354.179688
 20
332.947539
 30
0.0
 11
353.940909
 21
333.074888
 31
0.0
  0
LINE
  5
55
330
50
100
AcDbEntity
  8
LC-002-100-D00-0
 62
     7
370
    50
100
AcDbLine
 10
353.940909
 20
333.074888
 30
0.0
 11
353.940909
 21
333.074888
 31
0.0
  0
LINE
  5
56
330
50
100
AcDbEntity
  8
LC-002-100-D00-0
 62
     7
370
    50
100
AcDbLine
 10
353.940909
 20
333.074888
 30
0.0
 11
353.579148
 21
333.267827
 31
0.0
  0
LINE
  5
57
330
50
100
AcDbEntity
  8
LC-002-100-D00-0
 62
     7
370
    50
100
AcDbLine
 10
353.579148
 20
333.267827
 30
0.0
 11
353.579148
 21
333.267827
 31
0.0
  0
LINE
  5
58
330
50
100
AcDbEntity
  8
LC-002-100-D00-0
 62
     7
370
    50
100
AcDbLine
 10
353.579148
 20
333.267827
 30
0.0
 11
353.219818
 21
333.472646
 31
0.0
  0
LINE
  5
59
330
50
100
AcDbEntity
  8
LC-002-100-D00-0
 62
     7
370
    50
100
AcDbLine
 10
353.219818
 20
333.472646
 30
0.0
 11
353.219818
 21
333.472646
 31
0.0
  0
LINE
  5
5A
330
50
100
AcDbEntity
  8
LC-002-100-D00-0
 62
     7
370
    50
100
AcDbLine
 10
353.219818
 20
333.472646
 30
0.0
 11
353.097663
 21
333.542275
 31
0.0
  0
ENDBLK
  5
52
330
50
100
AcDbEntity
  8
0
100
AcDbBlockEnd
  0
BLOCK
  5
5D
330
5C
100
AcDbEntity
  8
0
100
AcDbBlockBegin
  2
POLY4
 70
     0
 71
     0
 10
0.0
 20
0.0
 30
0.0
  3
POLY4
  1

  4
POLY4
  0
LINE
  5
5F
330
5C
100
AcDbEntity
  8
LC-002-100-D00-0
 62
     7
370
    50
100
AcDbLine
 10
354.179688
 20
329.947533
 30
0.0
 11
354.179688
 21
329.947533
 31
0.0
  0
LINE
  5
60
330
5C
100
AcDbEntity
  8
LC-002-100-D00-0
 62
     7
370
    50
100
AcDbLine
 10
354.179688
 20
329.947533
 30
0.0
 11
353.94091
 21
330.074888
 31
0.0
  0
LINE
  5
61
330
5C
100
AcDbEntity
  8
LC-002-100-D00-0
 62
     7
370
    50
100
AcDbLine
 10
353.94091
 20
330.074888
 30
0.0
 11
353.94091
 21
330.074888
 31
0.0
  0
LINE
  5
62
330
5C
100
AcDbEntity
  8
LC-002-100-D00-0
 62
     7
370
    50
100
AcDbLine
 10
353.94091
 20
330.074888
 30
0.0
 11
353.579151
 21
330.267836
 31
0.0
  0
LINE
  5
63
330
5C
100
AcDbEntity
  8
LC-002-100-D00-0
 62
     7
370
    50
100
AcDbLine
 10
353.579151
 20
330.267836
 30
0.0
 11
353.579151
 21
330.267836
 31
0.0
  0
LINE
  5
64
330
5C
100
AcDbEntity
  8
LC-002-100-D00-0
 62
     7
370
    50
100
AcDbLine
 10
353.579151
 20
330.267836
 30
0.0
 11
353.219818
 21
330.472655
 31
0.0
  0
LINE
  5
65
330
5C
100
AcDbEntity
  8
LC-002-100-D00-0
 62
     7
370
    50
100
AcDbLine
 10
353.219818
 20
330.472655
 30
0.0
 11
353.219818
 21
330.472655
 31
0.0
  0
LINE
  5
66
330
5C
100
AcDbEntity
  8
LC-002-100-D00-0
 62
     7
370
    50
100
AcDbLine
 10
353.219818
 20
330.472655
 30
0.0
 11
353.097663
 21
330.542283
 31
0.0
  0
ENDBLK
  5
5E
330
5C
100
AcDbEntity
  8
0
100
AcDbBlockEnd
  0
BLOCK
  5
69
330
68
100
AcDbEntity
  8
0
100
AcDbBlockBegin
  2
POLY5
 70
     0
 71
     0
 10
0.0
 20
0.0
 30
0.0
  3
POLY5
  1

  4
POLY5
  0
LINE
  5
6B
330
68
100
AcDbEntity
  8
LC-002-100-D00-0
 62
     7
370
    50
100
AcDbLine
 10
348.011486
 20
334.148662
 30
0.0
 11
348.011486
 21
334.148662
 31
0.0
  0
LINE
  5
6C
330
68
100
AcDbEntity
  8
LC-002-100-D00-0
 62
     7
370
    50
100
AcDbLine
 10
348.011486
 20
334.148662
 30
0.0
 11
348.250327
 21
334.021516
 31
0.0
  0
LINE
  5
6D
330
68
100
AcDbEntity
  8
LC-002-100-D00-0
 62
     7
370
    50
100
AcDbLine
 10
348.250327
 20
334.021516
 30
0.0
 11
348.250327
 21
334.021516
 31
0.0
  0
LINE
  5
6E
330
68
100
AcDbEntity
  8
LC-002-100-D00-0
 62
     7
370
    50
100
AcDbLine
 10
348.250327
 20
334.021516
 30
0.0
 11
348.613239
 21
333.828321
 31
0.0
  0
LINE
  5
6F
330
68
100
AcDbEntity
  8
LC-002-100-D00-0
 62
     7
370
    50
100
AcDbLine
 10
348.613239
 20
333.828321
 30
0.0
 11
348.613239
 21
333.828321
 31
0.0
  0
LINE
  5
70
330
68
100
AcDbEntity
  8
LC-002-100-D00-0
 62
     7
370
    50
100
AcDbLine
 10
348.613239
 20
333.828321
 30
0.0
 11
348.974243
 21
333.622703
 31
0.0
  0
LINE
  5
71
330
68
100
AcDbEntity
  8
LC-002-100-D00-0
 62
     7
370
    50
100
AcDbLine
 10
348.974243
 20
333.622703
 30
0.0
 11
348.974243
 21
333.622703
 31
0.0
  0
LINE
  5
72
330
68
100
AcDbEntity
  8
LC-002-100-D00-0
 62
     7
370
    50
100
AcDbLine
 10
348.974243
 20
333.622703
 30
0.0
 11
349.097662
 21
333.552407
 31
0.0
  0
ENDBLK
  5
6A
330
68
100
AcDbEntity
  8
0
100
AcDbBlockEnd
  0
BLOCK
  5
75
330
74
100
AcDbEntity
  8
0
100
AcDbBlockBegin
  2
POLY6
 70
     0
 71
     0
 10
0.0
 20
0.0
 30
0.0
  3
POLY6
  1

  4
POLY6
  0
LINE
  5
77
330
74
100
AcDbEntity
  8
LC-002-100-D00-0
 62
     7
370
    50
100
AcDbLine
 10
348.011486
 20
337.148654
 30
0.0
 11
348.011486
 21
337.148654
 31
0.0
  0
LINE
  5
78
330
74
100
AcDbEntity
  8
LC-002-100-D00-0
 62
     7
370
    50
100
AcDbLine
 10
348.011486
 20
337.148654
 30
0.0
 11
348.250328
 21
337.021514
 31
0.0
  0
LINE
  5
79
330
74
100
AcDbEntity
  8
LC-002-100-D00-0
 62
     7
370
    50
100
AcDbLine
 10
348.250328
 20
337.021514
 30
0.0
 11
348.250328
 21
337.021514
 31
0.0
  0
LINE
  5
7A
330
74
100
AcDbEntity
  8
LC-002-100-D00-0
 62
     7
370
    50
100
AcDbLine
 10
348.250328
 20
337.021514
 30
0.0
 11
348.613242
 21
336.828327
 31
0.0
  0
LINE
  5
7B
330
74
100
AcDbEntity
  8
LC-002-100-D00-0
 62
     7
370
    50
100
AcDbLine
 10
348.613242
 20
336.828327
 30
0.0
 11
348.613242
 21
336.828327
 31
0.0
  0
LINE
  5
7C
330
74
100
AcDbEntity
  8
LC-002-100-D00-0
 62
     7
370
    50
100
AcDbLine
 10
348.613242
 20
336.828327
 30
0.0
 11
348.974243
 21
336.62271
 31
0.0
  0
LINE
  5
7D
330
74
100
AcDbEntity
  8
LC-002-100-D00-0
 62
     7
370
    50
100
AcDbLine
 10
348.974243
 20
336.62271
 30
0.0
 11
348.974243
 21
336.62271
 31
0.0
  0
LINE
  5
7E
330
74
100
AcDbEntity
  8
LC-002-100-D00-0
 62
     7
370
    50
100
AcDbLine
 10
348.974243
 20
336.62271
 30
0.0
 11
349.097662
 21
336.552413
 31
0.0
  0
ENDBLK
  5
76
330
74
100
AcDbEntity
  8
0
100
AcDbBlockEnd
  0
BLOCK
  5
81
330
80
100
AcDbEntity
  8
0
100
AcDbBlockBegin
  2
POLY7
 70
     0
 71
     0
 10
0.0
 20
0.0
 30
0.0
  3
POLY7
  1

  4
POLY7
  0
LINE
  5
83
330
80
100
AcDbEntity
  8
LC-002-100-D00-0
 62
     7
370
    50
100
AcDbLine
 10
353.893578
 20
327.102425
 30
0.0
 11
353.893578
 21
327.102425
 31
0.0
  0
LINE
  5
84
330
80
100
AcDbEntity
  8
LC-002-100-D00-0
 62
     7
370
    50
100
AcDbLine
 10
353.893578
 20
327.102425
 30
0.0
 11
353.75035
 21
327.179028
 31
0.0
  0
LINE
  5
85
330
80
100
AcDbEntity
  8
LC-002-100-D00-0
 62
     7
370
    50
100
AcDbLine
 10
353.75035
 20
327.179028
 30
0.0
 11
353.75035
 21
327.179028
 31
0.0
  0
LINE
  5
86
330
80
100
AcDbEntity
  8
LC-002-100-D00-0
 62
     7
370
    50
100
AcDbLine
 10
353.75035
 20
327.179028
 30
0.0
 11
353.484174
 21
327.321386
 31
0.0
  0
LINE
  5
87
330
80
100
AcDbEntity
  8
LC-002-100-D00-0
 62
     7
370
    50
100
AcDbLine
 10
353.484174
 20
327.321386
 30
0.0
 11
353.484174
 21
327.321386
 31
0.0
  0
LINE
  5
88
330
80
100
AcDbEntity
  8
LC-002-100-D00-0
 62
     7
370
    50
100
AcDbLine
 10
353.484174
 20
327.321386
 30
0.0
 11
353.219785
 21
327.472485
 31
0.0
  0
LINE
  5
89
330
80
100
AcDbEntity
  8
LC-002-100-D00-0
 62
     7
370
    50
100
AcDbLine
 10
353.219785
 20
327.472485
 30
0.0
 11
353.219785
 21
327.472485
 31
0.0
  0
LINE
  5
8A
330
80
100
AcDbEntity
  8
LC-002-100-D00-0
 62
     7
370
    50
100
AcDbLine
 10
353.219785
 20
327.472485
 30
0.0
 11
353.097663
 21
327.542277
 31
0.0
  0
ENDBLK
  5
82
330
80
100
AcDbEntity
  8
0
100
AcDbBlockEnd
  0
BLOCK
  5
8E
330
8D
100
AcDbEntity
  8
0
100
AcDbBlockBegin
  2
POLY8
 70
     0
 71
     0
 10
0.0
 20
0.0
 30
0.0
  3
POLY8
  1

  4
POLY8
  0
LINE
  5
90
330
8D
100
AcDbEntity
  8
LC-002-100-D00-0
 62
     7
370
    50
100
AcDbLine
 10
348.297768
 20
327.993932
 30
0.0
 11
348.297768
 21
327.993932
 31
0.0
  0
LINE
  5
91
330
8D
100
AcDbEntity
  8
LC-002-100-D00-0
 62
     7
370
    50
100
AcDbLine
 10
348.297768
 20
327.993932
 30
0.0
 11
348.44104
 21
327.917446
 31
0.0
  0
LINE
  5
92
330
8D
100
AcDbEntity
  8
LC-002-100-D00-0
 62
     7
370
    50
100
AcDbLine
 10
348.44104
 20
327.917446
 30
0.0
 11
348.44104
 21
327.917446
 31
0.0
  0
LINE
  5
93
330
8D
100
AcDbEntity
  8
LC-002-100-D00-0
 62
     7
370
    50
100
AcDbLine
 10
348.44104
 20
327.917446
 30
0.0
 11
348.708359
 21
327.77474
 31
0.0
  0
LINE
  5
94
330
8D
100
AcDbEntity
  8
LC-002-100-D00-0
 62
     7
370
    50
100
AcDbLine
 10
348.708359
 20
327.77474
 30
0.0
 11
348.708359
 21
327.77474
 31
0.0
  0
LINE
  5
95
330
8D
100
AcDbEntity
  8
LC-002-100-D00-0
 62
     7
370
    50
100
AcDbLine
 10
348.708359
 20
327.77474
 30
0.0
 11
348.97427
 21
327.622879
 31
0.0
  0
LINE
  5
96
330
8D
100
AcDbEntity
  8
LC-002-100-D00-0
 62
     7
370
    50
100
AcDbLine
 10
348.97427
 20
327.622879
 30
0.0
 11
348.97427
 21
327.622879
 31
0.0
  0
LINE
  5
97
330
8D
100
AcDbEntity
  8
LC-002-100-D00-0
 62
     7
370
    50
100
AcDbLine
 10
348.97427
 20
327.622879
 30
0.0
 11
349.097662
 21
327.55241
 31
0.0
  0
ENDBLK
  5
8F
330
8D
100
AcDbEntity
  8
0
100
AcDbBlockEnd
  0
BLOCK
  5
9A
330
99
100
AcDbEntity
  8
0
100
AcDbBlockBegin
  2
POLY9
 70
     0
 71
     0
 10
0.0
 20
0.0
 30
0.0
  3
POLY9
  1

  4
POLY9
  0
LINE
  5
9C
330
99
100
AcDbEntity
  8
LC-002-100-D00-0
 62
     7
370
    50
100
AcDbLine
 10
348.403342
 20
324.950608
 30
0.0
 11
348.403342
 21
324.950608
 31
0.0
  0
LINE
  5
9D
330
99
100
AcDbEntity
  8
LC-002-100-D00-0
 62
     7
370
    50
100
AcDbLine
 10
348.403342
 20
324.950608
 30
0.0
 11
348.526593
 21
324.881651
 31
0.0
  0
LINE
  5
9E
330
99
100
AcDbEntity
  8
LC-002-100-D00-0
 62
     7
370
    50
100
AcDbLine
 10
348.526593
 20
324.881651
 30
0.0
 11
348.526593
 21
324.881651
 31
0.0
  0
LINE
  5
9F
330
99
100
AcDbEntity
  8
LC-002-100-D00-0
 62
     7
370
    50
100
AcDbLine
 10
348.526593
 20
324.881651
 30
0.0
 11
348.76268
 21
324.749565
 31
0.0
  0
LINE
  5
A0
330
99
100
AcDbEntity
  8
LC-002-100-D00-0
 62
     7
370
    50
100
AcDbLine
 10
348.76268
 20
324.749565
 30
0.0
 11
348.76268
 21
324.749565
 31
0.0
  0
LINE
  5
A1
330
99
100
AcDbEntity
  8
LC-002-100-D00-0
 62
     7
370
    50
100
AcDbLine
 10
348.76268
 20
324.749565
 30
0.0
 11
348.989334
 21
324.616425
 31
0.0
  0
LINE
  5
A2
330
99
100
AcDbEntity
  8
LC-002-100-D00-0
 62
     7
370
    50
100
AcDbLine
 10
348.989334
 20
324.616425
 30
0.0
 11
348.989334
 21
324.616425
 31
0.0
  0
LINE
  5
A3
330
99
100
AcDbEntity
  8
LC-002-100-D00-0
 62
     7
370
    50
100
AcDbLine
 10
348.989334
 20
324.616425
 30
0.0
 11
349.097662
 21
324.552791
 31
0.0
  0
ENDBLK
  5
9B
330
99
100
AcDbEntity
  8
0
100
AcDbBlockEnd
  0
BLOCK
  5
11C
330
11B
100
AcDbEntity
  8
0
100
AcDbBlockBegin
  2
POLY10
 70
     0
 71
     0
 10
0.0
 20
0.0
 30
0.0
  3
POLY10
  1

  4
POLY10
  0
LINE
  5
11E
330
11B
100
AcDbEntity
  8
LC-002-100-D00-0
 62
     7
370
    50
100
AcDbLine
 10
514.934331
 20
329.85157
 30
0.0
 11
514.934331
 21
329.85157
 31
0.0
  0
LINE
  5
11F
330
11B
100
AcDbEntity
  8
LC-002-100-D00-0
 62
     7
370
    50
100
AcDbLine
 10
514.934331
 20
329.85157
 30
0.0
 11
514.954993
 21
329.84029
 31
0.0
  0
LINE
  5
120
330
11B
100
AcDbEntity
  8
LC-002-100-D00-0
 62
     7
370
    50
100
AcDbLine
 10
514.954993
 20
329.84029
 30
0.0
 11
514.954993
 21
329.84029
 31
0.0
  0
LINE
  5
121
330
11B
100
AcDbEntity
  8
LC-002-100-D00-0
 62
     7
370
    50
100
AcDbLine
 10
514.954993
 20
329.84029
 30
0.0
 11
514.996323
 21
329.817728
 31
0.0
  0
LINE
  5
122
330
11B
100
AcDbEntity
  8
LC-002-100-D00-0
 62
     7
370
    50
100
AcDbLine
 10
514.996323
 20
329.817728
 30
0.0
 11
514.996323
 21
329.817728
 31
0.0
  0
LINE
  5
123
330
11B
100
AcDbEntity
  8
LC-002-100-D00-0
 62
     7
370
    50
100
AcDbLine
 10
514.996323
 20
329.817728
 30
0.0
 11
515.049425
 21
329.641186
 31
0.0
  0
LINE
  5
124
330
11B
100
AcDbEntity
  8
LC-002-100-D00-0
 62
     7
370
    50
100
AcDbLine
 10
515.049425
 20
329.641186
 30
0.0
 11
515.049425
 21
329.641186
 31
0.0
  0
LINE
  5
125
330
11B
100
AcDbEntity
  8
LC-002-100-D00-0
 62
     7
370
    50
100
AcDbLine
 10
515.049425
 20
329.641186
 30
0.0
 11
515.088243
 21
329.382131
 31
0.0
  0
LINE
  5
126
330
11B
100
AcDbEntity
  8
LC-002-100-D00-0
 62
     7
370
    50
100
AcDbLine
 10
515.088243
 20
329.382131
 30
0.0
 11
515.088243
 21
329.382131
 31
0.0
  0
LINE
  5
127
330
11B
100
AcDbEntity
  8
LC-002-100-D00-0
 62
     7
370
    50
100
AcDbLine
 10
515.088243
 20
329.382131
 30
0.0
 11
515.107629
 21
329.101859
 31
0.0
  0
LINE
  5
128
330
11B
100
AcDbEntity
  8
LC-002-100-D00-0
 62
     7
370
    50
100
AcDbLine
 10
515.107629
 20
329.101859
 30
0.0
 11
515.107629
 21
329.101859
 31
0.0
  0
LINE
  5
129
330
11B
100
AcDbEntity
  8
LC-002-100-D00-0
 62
     7
370
    50
100
AcDbLine
 10
515.107629
 20
329.101859
 30
0.0
 11
515.109521
 21
328.920461
 31
0.0
  0
LINE
  5
12A
330
11B
100
AcDbEntity
  8
LC-002-100-D00-0
 62
     7
370
    50
100
AcDbLine
 10
515.109521
 20
328.920461
 30
0.0
 11
515.109521
 21
328.920461
 31
0.0
  0
LINE
  5
12B
330
11B
100
AcDbEntity
  8
LC-002-100-D00-0
 62
     7
370
    50
100
AcDbLine
 10
515.109521
 20
328.920461
 30
0.0
 11
515.11024
 21
328.851568
 31
0.0
  0
ENDBLK
  5
11D
330
11B
100
AcDbEntity
  8
0
100
AcDbBlockEnd
  0
BLOCK
  5
12E
330
12D
100
AcDbEntity
  8
0
100
AcDbBlockBegin
  2
POLY11
 70
     0
 71
     0
 10
0.0
 20
0.0
 30
0.0
  3
POLY11
  1

  4
POLY11
  0
LINE
  5
130
330
12D
100
AcDbEntity
  8
LC-002-100-D00-0
 62
     7
370
    50
100
AcDbLine
 10
375.085108
 20
328.851568
 30
0.0
 11
375.085108
 21
328.851568
 31
0.0
  0
LINE
  5
131
330
12D
100
AcDbEntity
  8
LC-002-100-D00-0
 62
     7
370
    50
100
AcDbLine
 10
375.085108
 20
328.851568
 30
0.0
 11
375.086929
 21
328.962805
 31
0.0
  0
LINE
  5
132
330
12D
100
AcDbEntity
  8
LC-002-100-D00-0
 62
     7
370
    50
100
AcDbLine
 10
375.086929
 20
328.962805
 30
0.0
 11
375.086929
 21
328.962805
 31
0.0
  0
LINE
  5
133
330
12D
100
AcDbEntity
  8
LC-002-100-D00-0
 62
     7
370
    50
100
AcDbLine
 10
375.086929
 20
328.962805
 30
0.0
 11
375.090569
 21
329.185254
 31
0.0
  0
LINE
  5
134
330
12D
100
AcDbEntity
  8
LC-002-100-D00-0
 62
     7
370
    50
100
AcDbLine
 10
375.090569
 20
329.185254
 30
0.0
 11
375.090569
 21
329.185254
 31
0.0
  0
LINE
  5
135
330
12D
100
AcDbEntity
  8
LC-002-100-D00-0
 62
     7
370
    50
100
AcDbLine
 10
375.090569
 20
329.185254
 30
0.0
 11
375.11919
 21
329.482137
 31
0.0
  0
LINE
  5
136
330
12D
100
AcDbEntity
  8
LC-002-100-D00-0
 62
     7
370
    50
100
AcDbLine
 10
375.11919
 20
329.482137
 30
0.0
 11
375.11919
 21
329.482137
 31
0.0
  0
LINE
  5
137
330
12D
100
AcDbEntity
  8
LC-002-100-D00-0
 62
     7
370
    50
100
AcDbLine
 10
375.11919
 20
329.482137
 30
0.0
 11
375.162242
 21
329.708244
 31
0.0
  0
LINE
  5
138
330
12D
100
AcDbEntity
  8
LC-002-100-D00-0
 62
     7
370
    50
100
AcDbLine
 10
375.162242
 20
329.708244
 30
0.0
 11
375.162242
 21
329.708244
 31
0.0
  0
LINE
  5
139
330
12D
100
AcDbEntity
  8
LC-002-100-D00-0
 62
     7
370
    50
100
AcDbLine
 10
375.162242
 20
329.708244
 30
0.0
 11
375.212117
 21
329.832854
 31
0.0
  0
LINE
  5
13A
330
12D
100
AcDbEntity
  8
LC-002-100-D00-0
 62
     7
370
    50
100
AcDbLine
 10
375.212117
 20
329.832854
 30
0.0
 11
375.212117
 21
329.832854
 31
0.0
  0
LINE
  5
13B
330
12D
100
AcDbEntity
  8
LC-002-100-D00-0
 62
     7
370
    50
100
AcDbLine
 10
375.212117
 20
329.832854
 30
0.0
 11
375.2467
 21
329.84609
 31
0.0
  0
LINE
  5
13C
330
12D
100
AcDbEntity
  8
LC-002-100-D00-0
 62
     7
370
    50
100
AcDbLine
 10
375.2467
 20
329.84609
 30
0.0
 11
375.2467
 21
329.84609
 31
0.0
  0
LINE
  5
13D
330
12D
100
AcDbEntity
  8
LC-002-100-D00-0
 62
     7
370
    50
100
AcDbLine
 10
375.2467
 20
329.84609
 30
0.0
 11
375.261016
 21
329.85157
 31
0.0
  0
ENDBLK
  5
12F
330
12D
100
AcDbEntity
  8
0
100
AcDbBlockEnd
  0
BLOCK
  5
18B
330
18A
100
AcDbEntity
  8
0
100
AcDbBlockBegin
  2
POLY12
 70
     0
 71
     0
 10
0.0
 20
0.0
 30
0.0
  3
POLY12
  1

  4
POLY12
  0
LINE
  5
18D
330
18A
100
AcDbEntity
  8
LC-002-100-D00-0
 62
     7
370
    50
100
AcDbLine
 10
375.261016
 20
329.85157
 30
0.0
 11
375.261016
 21
329.85157
 31
0.0
  0
LINE
  5
18E
330
18A
100
AcDbEntity
  8
LC-002-100-D00-0
 62
     7
370
    50
100
AcDbLine
 10
375.261016
 20
329.85157
 30
0.0
 11
375.282081
 21
329.840217
 31
0.0
  0
LINE
  5
18F
330
18A
100
AcDbEntity
  8
LC-002-100-D00-0
 62
     7
370
    50
100
AcDbLine
 10
375.282081
 20
329.840217
 30
0.0
 11
375.282081
 21
329.840217
 31
0.0
  0
LINE
  5
190
330
18A
100
AcDbEntity
  8
LC-002-100-D00-0
 62
     7
370
    50
100
AcDbLine
 10
375.282081
 20
329.840217
 30
0.0
 11
375.324214
 21
329.817509
 31
0.0
  0
LINE
  5
191
330
18A
100
AcDbEntity
  8
LC-002-100-D00-0
 62
     7
370
    50
100
AcDbLine
 10
375.324214
 20
329.817509
 30
0.0
 11
375.324214
 21
329.817509
 31
0.0
  0
LINE
  5
192
330
18A
100
AcDbEntity
  8
LC-002-100-D00-0
 62
     7
370
    50
100
AcDbLine
 10
375.324214
 20
329.817509
 30
0.0
 11
375.382158
 21
329.64028
 31
0.0
  0
LINE
  5
193
330
18A
100
AcDbEntity
  8
LC-002-100-D00-0
 62
     7
370
    50
100
AcDbLine
 10
375.382158
 20
329.64028
 30
0.0
 11
375.382158
 21
329.64028
 31
0.0
  0
LINE
  5
194
330
18A
100
AcDbEntity
  8
LC-002-100-D00-0
 62
     7
370
    50
100
AcDbLine
 10
375.382158
 20
329.64028
 30
0.0
 11
375.426198
 21
329.380324
 31
0.0
  0
LINE
  5
195
330
18A
100
AcDbEntity
  8
LC-002-100-D00-0
 62
     7
370
    50
100
AcDbLine
 10
375.426198
 20
329.380324
 30
0.0
 11
375.426198
 21
329.380324
 31
0.0
  0
LINE
  5
196
330
18A
100
AcDbEntity
  8
LC-002-100-D00-0
 62
     7
370
    50
100
AcDbLine
 10
375.426198
 20
329.380324
 30
0.0
 11
375.448721
 21
329.100028
 31
0.0
  0
LINE
  5
197
330
18A
100
AcDbEntity
  8
LC-002-100-D00-0
 62
     7
370
    50
100
AcDbLine
 10
375.448721
 20
329.100028
 30
0.0
 11
375.448721
 21
329.100028
 31
0.0
  0
LINE
  5
198
330
18A
100
AcDbEntity
  8
LC-002-100-D00-0
 62
     7
370
    50
100
AcDbLine
 10
375.448721
 20
329.100028
 30
0.0
 11
375.450903
 21
328.919385
 31
0.0
  0
LINE
  5
199
330
18A
100
AcDbEntity
  8
LC-002-100-D00-0
 62
     7
370
    50
100
AcDbLine
 10
375.450903
 20
328.919385
 30
0.0
 11
375.450903
 21
328.919385
 31
0.0
  0
LINE
  5
19A
330
18A
100
AcDbEntity
  8
LC-002-100-D00-0
 62
     7
370
    50
100
AcDbLine
 10
375.450903
 20
328.919385
 30
0.0
 11
375.451721
 21
328.851568
 31
0.0
  0
ENDBLK
  5
18C
330
18A
100
AcDbEntity
  8
0
100
AcDbBlockEnd
  0
BLOCK
  5
19D
330
19C
100
AcDbEntity
  8
0
100
AcDbBlockBegin
  2
POLY13
 70
     0
 71
     0
 10
0.0
 20
0.0
 30
0.0
  3
POLY13
  1

  4
POLY13
  0
LINE
  5
19F
330
19C
100
AcDbEntity
  8
LC-002-100-D00-0
 62
     7
370
    50
100
AcDbLine
 10
431.297681
 20
328.851568
 30
0.0
 11
431.297681
 21
328.851568
 31
0.0
  0
LINE
  5
1A0
330
19C
100
AcDbEntity
  8
LC-002-100-D00-0
 62
     7
370
    50
100
AcDbLine
 10
431.297681
 20
328.851568
 30
0.0
 11
431.308446
 21
328.962435
 31
0.0
  0
LINE
  5
1A1
330
19C
100
AcDbEntity
  8
LC-002-100-D00-0
 62
     7
370
    50
100
AcDbLine
 10
431.308446
 20
328.962435
 30
0.0
 11
431.308446
 21
328.962435
 31
0.0
  0
LINE
  5
1A2
330
19C
100
AcDbEntity
  8
LC-002-100-D00-0
 62
     7
370
    50
100
AcDbLine
 10
431.308446
 20
328.962435
 30
0.0
 11
431.329972
 21
329.184131
 31
0.0
  0
LINE
  5
1A3
330
19C
100
AcDbEntity
  8
LC-002-100-D00-0
 62
     7
370
    50
100
AcDbLine
 10
431.329972
 20
329.184131
 30
0.0
 11
431.329972
 21
329.184131
 31
0.0
  0
LINE
  5
1A4
330
19C
100
AcDbEntity
  8
LC-002-100-D00-0
 62
     7
370
    50
100
AcDbLine
 10
431.329972
 20
329.184131
 30
0.0
 11
431.497481
 21
329.480213
 31
0.0
  0
LINE
  5
1A5
330
19C
100
AcDbEntity
  8
LC-002-100-D00-0
 62
     7
370
    50
100
AcDbLine
 10
431.497481
 20
329.480213
 30
0.0
 11
431.497481
 21
329.480213
 31
0.0
  0
LINE
  5
1A6
330
19C
100
AcDbEntity
  8
LC-002-100-D00-0
 62
     7
370
    50
100
AcDbLine
 10
431.497481
 20
329.480213
 30
0.0
 11
431.744992
 21
329.706553
 31
0.0
  0
LINE
  5
1A7
330
19C
100
AcDbEntity
  8
LC-002-100-D00-0
 62
     7
370
    50
100
AcDbLine
 10
431.744992
 20
329.706553
 30
0.0
 11
431.744992
 21
329.706553
 31
0.0
  0
LINE
  5
1A8
330
19C
100
AcDbEntity
  8
LC-002-100-D00-0
 62
     7
370
    50
100
AcDbLine
 10
431.744992
 20
329.706553
 30
0.0
 11
432.027117
 21
329.832469
 31
0.0
  0
LINE
  5
1A9
330
19C
100
AcDbEntity
  8
LC-002-100-D00-0
 62
     7
370
    50
100
AcDbLine
 10
432.027117
 20
329.832469
 30
0.0
 11
432.027117
 21
329.832469
 31
0.0
  0
LINE
  5
1AA
330
19C
100
AcDbEntity
  8
LC-002-100-D00-0
 62
     7
370
    50
100
AcDbLine
 10
432.027117
 20
329.832469
 30
0.0
 11
432.218199
 21
329.845959
 31
0.0
  0
LINE
  5
1AB
330
19C
100
AcDbEntity
  8
LC-002-100-D00-0
 62
     7
370
    50
100
AcDbLine
 10
432.218199
 20
329.845959
 30
0.0
 11
432.218199
 21
329.845959
 31
0.0
  0
LINE
  5
1AC
330
19C
100
AcDbEntity
  8
LC-002-100-D00-0
 62
     7
370
    50
100
AcDbLine
 10
432.218199
 20
329.845959
 30
0.0
 11
432.29768
 21
329.85157
 31
0.0
  0
ENDBLK
  5
19E
330
19C
100
AcDbEntity
  8
0
100
AcDbBlockEnd
  0
BLOCK
  5
1B2
330
1B1
100
AcDbEntity
  8
0
100
AcDbBlockBegin
  2
POLY14
 70
     0
 71
     0
 10
0.0
 20
0.0
 30
0.0
  3
POLY14
  1

  4
POLY14
  0
LINE
  5
1B4
330
1B1
100
AcDbEntity
  8
LC-002-100-D00-0
 62
     7
370
    50
100
AcDbLine
 10
514.743626
 20
328.851568
 30
0.0
 11
514.743626
 21
328.851568
 31
0.0
  0
LINE
  5
1B5
330
1B1
100
AcDbEntity
  8
LC-002-100-D00-0
 62
     7
370
    50
100
AcDbLine
 10
514.743626
 20
328.851568
 30
0.0
 11
514.745766
 21
328.962435
 31
0.0
  0
LINE
  5
1B6
330
1B1
100
AcDbEntity
  8
LC-002-100-D00-0
 62
     7
370
    50
100
AcDbLine
 10
514.745766
 20
328.962435
 30
0.0
 11
514.745766
 21
328.962435
 31
0.0
  0
LINE
  5
1B7
330
1B1
100
AcDbEntity
  8
LC-002-100-D00-0
 62
     7
370
    50
100
AcDbLine
 10
514.745766
 20
328.962435
 30
0.0
 11
514.750046
 21
329.184131
 31
0.0
  0
LINE
  5
1B8
330
1B1
100
AcDbEntity
  8
LC-002-100-D00-0
 62
     7
370
    50
100
AcDbLine
 10
514.750046
 20
329.184131
 30
0.0
 11
514.750046
 21
329.184131
 31
0.0
  0
LINE
  5
1B9
330
1B1
100
AcDbEntity
  8
LC-002-100-D00-0
 62
     7
370
    50
100
AcDbLine
 10
514.750046
 20
329.184131
 30
0.0
 11
514.783029
 21
329.480213
 31
0.0
  0
LINE
  5
1BA
330
1B1
100
AcDbEntity
  8
LC-002-100-D00-0
 62
     7
370
    50
100
AcDbLine
 10
514.783029
 20
329.480213
 30
0.0
 11
514.783029
 21
329.480213
 31
0.0
  0
LINE
  5
1BB
330
1B1
100
AcDbEntity
  8
LC-002-100-D00-0
 62
     7
370
    50
100
AcDbLine
 10
514.783029
 20
329.480213
 30
0.0
 11
514.830957
 21
329.706553
 31
0.0
  0
LINE
  5
1BC
330
1B1
100
AcDbEntity
  8
LC-002-100-D00-0
 62
     7
370
    50
100
AcDbLine
 10
514.830957
 20
329.706553
 30
0.0
 11
514.830957
 21
329.706553
 31
0.0
  0
LINE
  5
1BD
330
1B1
100
AcDbEntity
  8
LC-002-100-D00-0
 62
     7
370
    50
100
AcDbLine
 10
514.830957
 20
329.706553
 30
0.0
 11
514.884455
 21
329.832469
 31
0.0
  0
LINE
  5
1BE
330
1B1
100
AcDbEntity
  8
LC-002-100-D00-0
 62
     7
370
    50
100
AcDbLine
 10
514.884455
 20
329.832469
 30
0.0
 11
514.884455
 21
329.832469
 31
0.0
  0
LINE
  5
1BF
330
1B1
100
AcDbEntity
  8
LC-002-100-D00-0
 62
     7
370
    50
100
AcDbLine
 10
514.884455
 20
329.832469
 30
0.0
 11
514.91968
 21
329.845959
 31
0.0
  0
LINE
  5
1C0
330
1B1
100
AcDbEntity
  8
LC-002-100-D00-0
 62
     7
370
    50
100
AcDbLine
 10
514.91968
 20
329.845959
 30
0.0
 11
514.91968
 21
329.845959
 31
0.0
  0
LINE
  5
1C1
330
1B1
100
AcDbEntity
  8
LC-002-100-D00-0
 62
     7
370
    50
100
AcDbLine
 10
514.91968
 20
329.845959
 30
0.0
 11
514.934331
 21
329.85157
 31
0.0
  0
ENDBLK
  5
1B3
330
1B1
100
AcDbEntity
  8
0
100
AcDbBlockEnd
  0
BLOCK
  5
1C4
330
1C3
100
AcDbEntity
  8
0
100
AcDbBlockBegin
  2
POLY15
 70
     0
 71
     0
 10
0.0
 20
0.0
 30
0.0
  3
POLY15
  1

  4
POLY15
  0
LINE
  5
1C6
330
1C3
100
AcDbEntity
  8
LC-002-100-D00-0
 62
     7
370
    50
100
AcDbLine
 10
457.897759
 20
329.85157
 30
0.0
 11
457.897759
 21
329.85157
 31
0.0
  0
LINE
  5
1C7
330
1C3
100
AcDbEntity
  8
LC-002-100-D00-0
 62
     7
370
    50
100
AcDbLine
 10
457.897759
 20
329.85157
 30
0.0
 11
458.011745
 21
329.840217
 31
0.0
  0
LINE
  5
1C8
330
1C3
100
AcDbEntity
  8
LC-002-100-D00-0
 62
     7
370
    50
100
AcDbLine
 10
458.011745
 20
329.840217
 30
0.0
 11
458.011745
 21
329.840217
 31
0.0
  0
LINE
  5
1C9
330
1C3
100
AcDbEntity
  8
LC-002-100-D00-0
 62
     7
370
    50
100
AcDbLine
 10
458.011745
 20
329.840217
 30
0.0
 11
458.239742
 21
329.817509
 31
0.0
  0
LINE
  5
1CA
330
1C3
100
AcDbEntity
  8
LC-002-100-D00-0
 62
     7
370
    50
100
AcDbLine
 10
458.239742
 20
329.817509
 30
0.0
 11
458.239742
 21
329.817509
 31
0.0
  0
LINE
  5
1CB
330
1C3
100
AcDbEntity
  8
LC-002-100-D00-0
 62
     7
370
    50
100
AcDbLine
 10
458.239742
 20
329.817509
 30
0.0
 11
458.542757
 21
329.64028
 31
0.0
  0
LINE
  5
1CC
330
1C3
100
AcDbEntity
  8
LC-002-100-D00-0
 62
     7
370
    50
100
AcDbLine
 10
458.542757
 20
329.64028
 30
0.0
 11
458.542757
 21
329.64028
 31
0.0
  0
LINE
  5
1CD
330
1C3
100
AcDbEntity
  8
LC-002-100-D00-0
 62
     7
370
    50
100
AcDbLine
 10
458.542757
 20
329.64028
 30
0.0
 11
458.768738
 21
329.380324
 31
0.0
  0
LINE
  5
1CE
330
1C3
100
AcDbEntity
  8
LC-002-100-D00-0
 62
     7
370
    50
100
AcDbLine
 10
458.768738
 20
329.380324
 30
0.0
 11
458.768738
 21
329.380324
 31
0.0
  0
LINE
  5
1CF
330
1C3
100
AcDbEntity
  8
LC-002-100-D00-0
 62
     7
370
    50
100
AcDbLine
 10
458.768738
 20
329.380324
 30
0.0
 11
458.882644
 21
329.100028
 31
0.0
  0
LINE
  5
1D0
330
1C3
100
AcDbEntity
  8
LC-002-100-D00-0
 62
     7
370
    50
100
AcDbLine
 10
458.882644
 20
329.100028
 30
0.0
 11
458.882644
 21
329.100028
 31
0.0
  0
LINE
  5
1D1
330
1C3
100
AcDbEntity
  8
LC-002-100-D00-0
 62
     7
370
    50
100
AcDbLine
 10
458.882644
 20
329.100028
 30
0.0
 11
458.893634
 21
328.919385
 31
0.0
  0
LINE
  5
1D2
330
1C3
100
AcDbEntity
  8
LC-002-100-D00-0
 62
     7
370
    50
100
AcDbLine
 10
458.893634
 20
328.919385
 30
0.0
 11
458.893634
 21
328.919385
 31
0.0
  0
LINE
  5
1D3
330
1C3
100
AcDbEntity
  8
LC-002-100-D00-0
 62
     7
370
    50
100
AcDbLine
 10
458.893634
 20
328.919385
 30
0.0
 11
458.897759
 21
328.851568
 31
0.0
  0
ENDBLK
  5
1C5
330
1C3
100
AcDbEntity
  8
0
100
AcDbBlockEnd
  0
BLOCK
  5
214
330
213
100
AcDbEntity
  8
0
100
AcDbBlockBegin
  2
POLY16
 70
     0
 71
     0
 10
0.0
 20
0.0
 30
0.0
  3
POLY16
  1

  4
POLY16
  0
LINE
  5
216
330
213
100
AcDbEntity
  8
LC-002-100-D00-0
 62
     7
370
    50
100
AcDbLine
 10
456.89776
 20
328.851568
 30
0.0
 11
456.89776
 21
328.851568
 31
0.0
  0
LINE
  5
217
330
213
100
AcDbEntity
  8
LC-002-100-D00-0
 62
     7
370
    50
100
AcDbLine
 10
456.89776
 20
328.851568
 30
0.0
 11
456.908593
 21
328.962805
 31
0.0
  0
LINE
  5
218
330
213
100
AcDbEntity
  8
LC-002-100-D00-0
 62
     7
370
    50
100
AcDbLine
 10
456.908593
 20
328.962805
 30
0.0
 11
456.908593
 21
328.962805
 31
0.0
  0
LINE
  5
219
330
213
100
AcDbEntity
  8
LC-002-100-D00-0
 62
     7
370
    50
100
AcDbLine
 10
456.908593
 20
328.962805
 30
0.0
 11
456.930255
 21
329.185254
 31
0.0
  0
LINE
  5
21A
330
213
100
AcDbEntity
  8
LC-002-100-D00-0
 62
     7
370
    50
100
AcDbLine
 10
456.930255
 20
329.185254
 30
0.0
 11
456.930255
 21
329.185254
 31
0.0
  0
LINE
  5
21B
330
213
100
AcDbEntity
  8
LC-002-100-D00-0
 62
     7
370
    50
100
AcDbLine
 10
456.930255
 20
329.185254
 30
0.0
 11
457.098907
 21
329.482137
 31
0.0
  0
LINE
  5
21C
330
213
100
AcDbEntity
  8
LC-002-100-D00-0
 62
     7
370
    50
100
AcDbLine
 10
457.098907
 20
329.482137
 30
0.0
 11
457.098907
 21
329.482137
 31
0.0
  0
LINE
  5
21D
330
213
100
AcDbEntity
  8
LC-002-100-D00-0
 62
     7
370
    50
100
AcDbLine
 10
457.098907
 20
329.482137
 30
0.0
 11
457.347627
 21
329.708244
 31
0.0
  0
LINE
  5
21E
330
213
100
AcDbEntity
  8
LC-002-100-D00-0
 62
     7
370
    50
100
AcDbLine
 10
457.347627
 20
329.708244
 30
0.0
 11
457.347627
 21
329.708244
 31
0.0
  0
LINE
  5
21F
330
213
100
AcDbEntity
  8
LC-002-100-D00-0
 62
     7
370
    50
100
AcDbLine
 10
457.347627
 20
329.708244
 30
0.0
 11
457.629445
 21
329.832854
 31
0.0
  0
LINE
  5
220
330
213
100
AcDbEntity
  8
LC-002-100-D00-0
 62
     7
370
    50
100
AcDbLine
 10
457.629445
 20
329.832854
 30
0.0
 11
457.629445
 21
329.832854
 31
0.0
  0
LINE
  5
221
330
213
100
AcDbEntity
  8
LC-002-100-D00-0
 62
     7
370
    50
100
AcDbLine
 10
457.629445
 20
329.832854
 30
0.0
 11
457.819204
 21
329.84609
 31
0.0
  0
LINE
  5
222
330
213
100
AcDbEntity
  8
LC-002-100-D00-0
 62
     7
370
    50
100
AcDbLine
 10
457.819204
 20
329.84609
 30
0.0
 11
457.819204
 21
329.84609
 31
0.0
  0
LINE
  5
223
330
213
100
AcDbEntity
  8
LC-002-100-D00-0
 62
     7
370
    50
100
AcDbLine
 10
457.819204
 20
329.84609
 30
0.0
 11
457.897759
 21
329.85157
 31
0.0
  0
ENDBLK
  5
215
330
213
100
AcDbEntity
  8
0
100
AcDbBlockEnd
  0
BLOCK
  5
229
330
228
100
AcDbEntity
  8
0
100
AcDbBlockBegin
  2
POLY17
 70
     0
 71
     0
 10
0.0
 20
0.0
 30
0.0
  3
POLY17
  1

  4
POLY17
  0
LINE
  5
22B
330
228
100
AcDbEntity
  8
LC-002-100-D00-0
 62
     7
370
    50
100
AcDbLine
 10
432.29768
 20
329.85157
 30
0.0
 11
432.29768
 21
329.85157
 31
0.0
  0
LINE
  5
22C
330
228
100
AcDbEntity
  8
LC-002-100-D00-0
 62
     7
370
    50
100
AcDbLine
 10
432.29768
 20
329.85157
 30
0.0
 11
432.411353
 21
329.84029
 31
0.0
  0
LINE
  5
22D
330
228
100
AcDbEntity
  8
LC-002-100-D00-0
 62
     7
370
    50
100
AcDbLine
 10
432.411353
 20
329.84029
 30
0.0
 11
432.411353
 21
329.84029
 31
0.0
  0
LINE
  5
22E
330
228
100
AcDbEntity
  8
LC-002-100-D00-0
 62
     7
370
    50
100
AcDbLine
 10
432.411353
 20
329.84029
 30
0.0
 11
432.638734
 21
329.817728
 31
0.0
  0
LINE
  5
22F
330
228
100
AcDbEntity
  8
LC-002-100-D00-0
 62
     7
370
    50
100
AcDbLine
 10
432.638734
 20
329.817728
 30
0.0
 11
432.638734
 21
329.817728
 31
0.0
  0
LINE
  5
230
330
228
100
AcDbEntity
  8
LC-002-100-D00-0
 62
     7
370
    50
100
AcDbLine
 10
432.638734
 20
329.817728
 30
0.0
 11
432.941466
 21
329.641186
 31
0.0
  0
LINE
  5
231
330
228
100
AcDbEntity
  8
LC-002-100-D00-0
 62
     7
370
    50
100
AcDbLine
 10
432.941466
 20
329.641186
 30
0.0
 11
432.941466
 21
329.641186
 31
0.0
  0
LINE
  5
232
330
228
100
AcDbEntity
  8
LC-002-100-D00-0
 62
     7
370
    50
100
AcDbLine
 10
432.941466
 20
329.641186
 30
0.0
 11
433.167424
 21
329.382131
 31
0.0
  0
LINE
  5
233
330
228
100
AcDbEntity
  8
LC-002-100-D00-0
 62
     7
370
    50
100
AcDbLine
 10
433.167424
 20
329.382131
 30
0.0
 11
433.167424
 21
329.382131
 31
0.0
  0
LINE
  5
234
330
228
100
AcDbEntity
  8
LC-002-100-D00-0
 62
     7
370
    50
100
AcDbLine
 10
433.167424
 20
329.382131
 30
0.0
 11
433.282229
 21
329.101859
 31
0.0
  0
LINE
  5
235
330
228
100
AcDbEntity
  8
LC-002-100-D00-0
 62
     7
370
    50
100
AcDbLine
 10
433.282229
 20
329.101859
 30
0.0
 11
433.282229
 21
329.101859
 31
0.0
  0
LINE
  5
236
330
228
100
AcDbEntity
  8
LC-002-100-D00-0
 62
     7
370
    50
100
AcDbLine
 10
433.282229
 20
329.101859
 30
0.0
 11
433.293427
 21
328.920461
 31
0.0
  0
LINE
  5
237
330
228
100
AcDbEntity
  8
LC-002-100-D00-0
 62
     7
370
    50
100
AcDbLine
 10
433.293427
 20
328.920461
 30
0.0
 11
433.293427
 21
328.920461
 31
0.0
  0
LINE
  5
238
330
228
100
AcDbEntity
  8
LC-002-100-D00-0
 62
     7
370
    50
100
AcDbLine
 10
433.293427
 20
328.920461
 30
0.0
 11
433.29768
 21
328.851568
 31
0.0
  0
ENDBLK
  5
22A
330
228
100
AcDbEntity
  8
0
100
AcDbBlockEnd
  0
BLOCK
  5
246
330
245
100
AcDbEntity
  8
0
100
AcDbBlockBegin
  2
KLON1
 70
     0
 71
     0
 10
0.0
 20
0.0
 30
0.0
  3
KLON1
  1

  4
KLON1
  0
LINE
  5
248
330
245
100
AcDbEntity
  8
LC-002-100-D00-0
 62
     7
370
    15
100
AcDbLine
 10
353.097663
 20
336.445587
 30
0.0
 11
353.448756
 21
336.262824
 31
0.0
  0
LINE
  5
249
330
245
100
AcDbEntity
  8
LC-002-100-D00-0
 62
     7
370
    15
100
AcDbLine
 10
353.448756
 20
336.262824
 30
0.0
 11
353.79985
 21
336.080047
 31
0.0
  0
LINE
  5
24A
330
245
100
AcDbEntity
  8
LC-002-100-D00-0
 62
     7
370
    15
100
AcDbLine
 10
353.79985
 20
336.080047
 30
0.0
 11
354.347661
 21
335.794883
 31
0.0
  0
ENDBLK
  5
247
330
245
100
AcDbEntity
  8
0
100
AcDbBlockEnd
  0
BLOCK
  5
24D
330
24C
100
AcDbEntity
  8
0
100
AcDbBlockBegin
  2
KLON2
 70
     0
 71
     0
 10
0.0
 20
0.0
 30
0.0
  3
KLON2
  1

  4
KLON2
  0
LINE
  5
24F
330
24C
100
AcDbEntity
  8
LC-002-100-D00-0
 62
     7
370
    15
100
AcDbLine
 10
354.347661
 20
335.794883
 30
0.0
 11
353.996568
 21
335.61212
 31
0.0
  0
LINE
  5
250
330
24C
100
AcDbEntity
  8
LC-002-100-D00-0
 62
     7
370
    15
100
AcDbLine
 10
353.996568
 20
335.61212
 30
0.0
 11
353.645474
 21
335.429343
 31
0.0
  0
LINE
  5
251
330
24C
100
AcDbEntity
  8
LC-002-100-D00-0
 62
     7
370
    15
100
AcDbLine
 10
353.645474
 20
335.429343
 30
0.0
 11
353.097663
 21
335.144179
 31
0.0
  0
ENDBLK
  5
24E
330
24C
100
AcDbEntity
  8
0
100
AcDbBlockEnd
  0
BLOCK
  5
255
330
254
100
AcDbEntity
  8
0
100
AcDbBlockBegin
  2
KLON3
 70
     0
 71
     0
 10
0.0
 20
0.0
 30
0.0
  3
KLON3
  1

  4
KLON3
  0
LINE
  5
257
330
254
100
AcDbEntity
  8
LC-002-100-D00-0
 62
     7
370
    15
100
AcDbLine
 10
353.097663
 20
333.445596
 30
0.0
 11
353.448756
 21
333.262818
 31
0.0
  0
LINE
  5
258
330
254
100
AcDbEntity
  8
LC-002-100-D00-0
 62
     7
370
    15
100
AcDbLine
 10
353.448756
 20
333.262818
 30
0.0
 11
353.79985
 21
333.080055
 31
0.0
  0
LINE
  5
259
330
254
100
AcDbEntity
  8
LC-002-100-D00-0
 62
     7
370
    15
100
AcDbLine
 10
353.79985
 20
333.080055
 30
0.0
 11
354.347661
 21
332.794877
 31
0.0
  0
ENDBLK
  5
256
330
254
100
AcDbEntity
  8
0
100
AcDbBlockEnd
  0
BLOCK
  5
25C
330
25B
100
AcDbEntity
  8
0
100
AcDbBlockBegin
  2
KLON4
 70
     0
 71
     0
 10
0.0
 20
0.0
 30
0.0
  3
KLON4
  1

  4
KLON4
  0
LINE
  5
25E
330
25B
100
AcDbEntity
  8
LC-002-100-D00-0
 62
     7
370
    15
100
AcDbLine
 10
354.347661
 20
332.794877
 30
0.0
 11
353.996568
 21
332.612114
 31
0.0
  0
LINE
  5
25F
330
25B
100
AcDbEntity
  8
LC-002-100-D00-0
 62
     7
370
    15
100
AcDbLine
 10
353.996568
 20
332.612114
 30
0.0
 11
353.645474
 21
332.429352
 31
0.0
  0
LINE
  5
260
330
25B
100
AcDbEntity
  8
LC-002-100-D00-0
 62
     7
370
    15
100
AcDbLine
 10
353.645474
 20
332.429352
 30
0.0
 11
353.097663
 21
332.144173
 31
0.0
  0
ENDBLK
  5
25D
330
25B
100
AcDbEntity
  8
0
100
AcDbBlockEnd
  0
BLOCK
  5
264
330
263
100
AcDbEntity
  8
0
100
AcDbBlockBegin
  2
KLON5
 70
     0
 71
     0
 10
0.0
 20
0.0
 30
0.0
  3
KLON5
  1

  4
KLON5
  0
LINE
  5
266
330
263
100
AcDbEntity
  8
LC-002-100-D00-0
 62
     7
370
    15
100
AcDbLine
 10
353.097663
 20
330.44559
 30
0.0
 11
353.448756
 21
330.262827
 31
0.0
  0
LINE
  5
267
330
263
100
AcDbEntity
  8
LC-002-100-D00-0
 62
     7
370
    15
100
AcDbLine
 10
353.448756
 20
330.262827
 30
0.0
 11
353.79985
 21
330.080049
 31
0.0
  0
LINE
  5
268
330
263
100
AcDbEntity
  8
LC-002-100-D00-0
 62
     7
370
    15
100
AcDbLine
 10
353.79985
 20
330.080049
 30
0.0
 11
354.347661
 21
329.794886
 31
0.0
  0
ENDBLK
  5
265
330
263
100
AcDbEntity
  8
0
100
AcDbBlockEnd
  0
BLOCK
  5
26B
330
26A
100
AcDbEntity
  8
0
100
AcDbBlockBegin
  2
KLON6
 70
     0
 71
     0
 10
0.0
 20
0.0
 30
0.0
  3
KLON6
  1

  4
KLON6
  0
LINE
  5
26D
330
26A
100
AcDbEntity
  8
LC-002-100-D00-0
 62
     7
370
    15
100
AcDbLine
 10
354.347661
 20
329.794886
 30
0.0
 11
353.996568
 21
329.612108
 31
0.0
  0
LINE
  5
26E
330
26A
100
AcDbEntity
  8
LC-002-100-D00-0
 62
     7
370
    15
100
AcDbLine
 10
353.996568
 20
329.612108
 30
0.0
 11
353.645474
 21
329.429346
 31
0.0
  0
LINE
  5
26F
330
26A
100
AcDbEntity
  8
LC-002-100-D00-0
 62
     7
370
    15
100
AcDbLine
 10
353.645474
 20
329.429346
 30
0.0
 11
353.097663
 21
329.144167
 31
0.0
  0
ENDBLK
  5
26C
330
26A
100
AcDbEntity
  8
0
100
AcDbBlockEnd
  0
BLOCK
  5
273
330
272
100
AcDbEntity
  8
0
100
AcDbBlockBegin
  2
KLON7
 70
     0
 71
     0
 10
0.0
 20
0.0
 30
0.0
  3
KLON7
  1

  4
KLON7
  0
LINE
  5
275
330
272
100
AcDbEntity
  8
LC-002-100-D00-0
 62
     7
370
    15
100
AcDbLine
 10
353.097663
 20
327.445584
 30
0.0
 11
353.448756
 21
327.262821
 31
0.0
  0
LINE
  5
276
330
272
100
AcDbEntity
  8
LC-002-100-D00-0
 62
     7
370
    15
100
AcDbLine
 10
353.448756
 20
327.262821
 30
0.0
 11
353.79985
 21
327.080058
 31
0.0
  0
LINE
  5
277
330
272
100
AcDbEntity
  8
LC-002-100-D00-0
 62
     7
370
    15
100
AcDbLine
 10
353.79985
 20
327.080058
 30
0.0
 11
354.347661
 21
326.79488
 31
0.0
  0
ENDBLK
  5
274
330
272
100
AcDbEntity
  8
0
100
AcDbBlockEnd
  0
BLOCK
  5
27A
330
279
100
AcDbEntity
  8
0
100
AcDbBlockBegin
  2
KLON8
 70
     0
 71
     0
 10
0.0
 20
0.0
 30
0.0
  3
KLON8
  1

  4
KLON8
  0
LINE
  5
27C
330
279
100
AcDbEntity
  8
LC-002-100-D00-0
 62
     7
370
    15
100
AcDbLine
 10
354.347661
 20
326.79488
 30
0.0
 11
353.996568
 21
326.612117
 31
0.0
  0
LINE
  5
27D
330
279
100
AcDbEntity
  8
LC-002-100-D00-0
 62
     7
370
    15
100
AcDbLine
 10
353.996568
 20
326.612117
 30
0.0
 11
353.645474
 21
326.429339
 31
0.0
  0
LINE
  5
27E
330
279
100
AcDbEntity
  8
LC-002-100-D00-0
 62
     7
370
    15
100
AcDbLine
 10
353.645474
 20
326.429339
 30
0.0
 11
353.097663
 21
326.144176
 31
0.0
  0
ENDBLK
  5
27B
330
279
100
AcDbEntity
  8
0
100
AcDbBlockEnd
  0
BLOCK
  5
285
330
284
100
AcDbEntity
  8
0
100
AcDbBlockBegin
  2
KLON9
 70
     0
 71
     0
 10
0.0
 20
0.0
 30
0.0
  3
KLON9
  1

  4
KLON9
  0
LINE
  5
287
330
284
100
AcDbEntity
  8
LC-002-100-D00-0
 62
     7
370
    15
100
AcDbLine
 10
349.097662
 20
324.64418
 30
0.0
 11
348.746568
 21
324.826943
 31
0.0
  0
LINE
  5
288
330
284
100
AcDbEntity
  8
LC-002-100-D00-0
 62
     7
370
    15
100
AcDbLine
 10
348.746568
 20
324.826943
 30
0.0
 11
348.395475
 21
325.009706
 31
0.0
  0
LINE
  5
289
330
284
100
AcDbEntity
  8
LC-002-100-D00-0
 62
     7
370
    15
100
AcDbLine
 10
348.395475
 20
325.009706
 30
0.0
 11
347.847663
 21
325.294884
 31
0.0
  0
ENDBLK
  5
286
330
284
100
AcDbEntity
  8
0
100
AcDbBlockEnd
  0
BLOCK
  5
28C
330
28B
100
AcDbEntity
  8
0
100
AcDbBlockBegin
  2
KLON10
 70
     0
 71
     0
 10
0.0
 20
0.0
 30
0.0
  3
KLON10
  1

  4
KLON10
  0
LINE
  5
28E
330
28B
100
AcDbEntity
  8
LC-002-100-D00-0
 62
     7
370
    15
100
AcDbLine
 10
347.847663
 20
325.294884
 30
0.0
 11
348.198757
 21
325.477647
 31
0.0
  0
LINE
  5
28F
330
28B
100
AcDbEntity
  8
LC-002-100-D00-0
 62
     7
370
    15
100
AcDbLine
 10
348.198757
 20
325.477647
 30
0.0
 11
348.549851
 21
325.660425
 31
0.0
  0
LINE
  5
290
330
28B
100
AcDbEntity
  8
LC-002-100-D00-0
 62
     7
370
    15
100
AcDbLine
 10
348.549851
 20
325.660425
 30
0.0
 11
349.097662
 21
325.945588
 31
0.0
  0
ENDBLK
  5
28D
330
28B
100
AcDbEntity
  8
0
100
AcDbBlockEnd
  0
BLOCK
  5
294
330
293
100
AcDbEntity
  8
0
100
AcDbBlockBegin
  2
KLON11
 70
     0
 71
     0
 10
0.0
 20
0.0
 30
0.0
  3
KLON11
  1

  4
KLON11
  0
LINE
  5
296
330
293
100
AcDbEntity
  8
LC-002-100-D00-0
 62
     7
370
    15
100
AcDbLine
 10
349.097662
 20
327.644171
 30
0.0
 11
348.746568
 21
327.826949
 31
0.0
  0
LINE
  5
297
330
293
100
AcDbEntity
  8
LC-002-100-D00-0
 62
     7
370
    15
100
AcDbLine
 10
348.746568
 20
327.826949
 30
0.0
 11
348.395475
 21
328.009712
 31
0.0
  0
LINE
  5
298
330
293
100
AcDbEntity
  8
LC-002-100-D00-0
 62
     7
370
    15
100
AcDbLine
 10
348.395475
 20
328.009712
 30
0.0
 11
347.847663
 21
328.294875
 31
0.0
  0
ENDBLK
  5
295
330
293
100
AcDbEntity
  8
0
100
AcDbBlockEnd
  0
BLOCK
  5
29B
330
29A
100
AcDbEntity
  8
0
100
AcDbBlockBegin
  2
KLON12
 70
     0
 71
     0
 10
0.0
 20
0.0
 30
0.0
  3
KLON12
  1

  4
KLON12
  0
LINE
  5
29D
330
29A
100
AcDbEntity
  8
LC-002-100-D00-0
 62
     7
370
    15
100
AcDbLine
 10
347.847663
 20
328.294875
 30
0.0
 11
348.198757
 21
328.477653
 31
0.0
  0
LINE
  5
29E
330
29A
100
AcDbEntity
  8
LC-002-100-D00-0
 62
     7
370
    15
100
AcDbLine
 10
348.198757
 20
328.477653
 30
0.0
 11
348.549851
 21
328.660416
 31
0.0
  0
LINE
  5
29F
330
29A
100
AcDbEntity
  8
LC-002-100-D00-0
 62
     7
370
    15
100
AcDbLine
 10
348.549851
 20
328.660416
 30
0.0
 11
349.097662
 21
328.945594
 31
0.0
  0
ENDBLK
  5
29C
330
29A
100
AcDbEntity
  8
0
100
AcDbBlockEnd
  0
BLOCK
  5
2A3
330
2A2
100
AcDbEntity
  8
0
100
AcDbBlockBegin
  2
KLON13
 70
     0
 71
     0
 10
0.0
 20
0.0
 30
0.0
  3
KLON13
  1

  4
KLON13
  0
LINE
  5
2A5
330
2A2
100
AcDbEntity
  8
LC-002-100-D00-0
 62
     7
370
    15
100
AcDbLine
 10
349.097662
 20
330.644178
 30
0.0
 11
348.746568
 21
330.82694
 31
0.0
  0
LINE
  5
2A6
330
2A2
100
AcDbEntity
  8
LC-002-100-D00-0
 62
     7
370
    15
100
AcDbLine
 10
348.746568
 20
330.82694
 30
0.0
 11
348.395475
 21
331.009703
 31
0.0
  0
LINE
  5
2A7
330
2A2
100
AcDbEntity
  8
LC-002-100-D00-0
 62
     7
370
    15
100
AcDbLine
 10
348.395475
 20
331.009703
 30
0.0
 11
347.847663
 21
331.294881
 31
0.0
  0
ENDBLK
  5
2A4
330
2A2
100
AcDbEntity
  8
0
100
AcDbBlockEnd
  0
BLOCK
  5
2AA
330
2A9
100
AcDbEntity
  8
0
100
AcDbBlockBegin
  2
KLON14
 70
     0
 71
     0
 10
0.0
 20
0.0
 30
0.0
  3
KLON14
  1

  4
KLON14
  0
LINE
  5
2AC
330
2A9
100
AcDbEntity
  8
LC-002-100-D00-0
 62
     7
370
    15
100
AcDbLine
 10
347.847663
 20
331.294881
 30
0.0
 11
348.198757
 21
331.477644
 31
0.0
  0
LINE
  5
2AD
330
2A9
100
AcDbEntity
  8
LC-002-100-D00-0
 62
     7
370
    15
100
AcDbLine
 10
348.198757
 20
331.477644
 30
0.0
 11
348.549851
 21
331.660422
 31
0.0
  0
LINE
  5
2AE
330
2A9
100
AcDbEntity
  8
LC-002-100-D00-0
 62
     7
370
    15
100
AcDbLine
 10
348.549851
 20
331.660422
 30
0.0
 11
349.097662
 21
331.945585
 31
0.0
  0
ENDBLK
  5
2AB
330
2A9
100
AcDbEntity
  8
0
100
AcDbBlockEnd
  0
BLOCK
  5
2B2
330
2B1
100
AcDbEntity
  8
0
100
AcDbBlockBegin
  2
KLON15
 70
     0
 71
     0
 10
0.0
 20
0.0
 30
0.0
  3
KLON15
  1

  4
KLON15
  0
LINE
  5
2B4
330
2B1
100
AcDbEntity
  8
LC-002-100-D00-0
 62
     7
370
    15
100
AcDbLine
 10
349.097662
 20
333.644169
 30
0.0
 11
348.746568
 21
333.826946
 31
0.0
  0
LINE
  5
2B5
330
2B1
100
AcDbEntity
  8
LC-002-100-D00-0
 62
     7
370
    15
100
AcDbLine
 10
348.746568
 20
333.826946
 30
0.0
 11
348.395475
 21
334.009709
 31
0.0
  0
LINE
  5
2B6
330
2B1
100
AcDbEntity
  8
LC-002-100-D00-0
 62
     7
370
    15
100
AcDbLine
 10
348.395475
 20
334.009709
 30
0.0
 11
347.847663
 21
334.294888
 31
0.0
  0
ENDBLK
  5
2B3
330
2B1
100
AcDbEntity
  8
0
100
AcDbBlockEnd
  0
BLOCK
  5
2B9
330
2B8
100
AcDbEntity
  8
0
100
AcDbBlockBegin
  2
KLON16
 70
     0
 71
     0
 10
0.0
 20
0.0
 30
0.0
  3
KLON16
  1

  4
KLON16
  0
LINE
  5
2BB
330
2B8
100
AcDbEntity
  8
LC-002-100-D00-0
 62
     7
370
    15
100
AcDbLine
 10
347.847663
 20
334.294888
 30
0.0
 11
348.198757
 21
334.47765
 31
0.0
  0
LINE
  5
2BC
330
2B8
100
AcDbEntity
  8
LC-002-100-D00-0
 62
     7
370
    15
100
AcDbLine
 10
348.198757
 20
334.47765
 30
0.0
 11
348.549851
 21
334.660413
 31
0.0
  0
LINE
  5
2BD
330
2B8
100
AcDbEntity
  8
LC-002-100-D00-0
 62
     7
370
    15
100
AcDbLine
 10
348.549851
 20
334.660413
 30
0.0
 11
349.097662
 21
334.945591
 31
0.0
  0
ENDBLK
  5
2BA
330
2B8
100
AcDbEntity
  8
0
100
AcDbBlockEnd
  0
BLOCK
  5
2C1
330
2C0
100
AcDbEntity
  8
0
100
AcDbBlockBegin
  2
KLON17
 70
     0
 71
     0
 10
0.0
 20
0.0
 30
0.0
  3
KLON17
  1

  4
KLON17
  0
LINE
  5
2C3
330
2C0
100
AcDbEntity
  8
LC-002-100-D00-0
 62
     7
370
    15
100
AcDbLine
 10
349.097662
 20
336.644175
 30
0.0
 11
348.746568
 21
336.826938
 31
0.0
  0
LINE
  5
2C4
330
2C0
100
AcDbEntity
  8
LC-002-100-D00-0
 62
     7
370
    15
100
AcDbLine
 10
348.746568
 20
336.826938
 30
0.0
 11
348.395475
 21
337.009715
 31
0.0
  0
LINE
  5
2C5
330
2C0
100
AcDbEntity
  8
LC-002-100-D00-0
 62
     7
370
    15
100
AcDbLine
 10
348.395475
 20
337.009715
 30
0.0
 11
347.847663
 21
337.294879
 31
0.0
  0
ENDBLK
  5
2C2
330
2C0
100
AcDbEntity
  8
0
100
AcDbBlockEnd
  0
BLOCK
  5
2C8
330
2C7
100
AcDbEntity
  8
0
100
AcDbBlockBegin
  2
KLON18
 70
     0
 71
     0
 10
0.0
 20
0.0
 30
0.0
  3
KLON18
  1

  4
KLON18
  0
LINE
  5
2CA
330
2C7
100
AcDbEntity
  8
LC-002-100-D00-0
 62
     7
370
    15
100
AcDbLine
 10
347.847663
 20
337.294879
 30
0.0
 11
348.198757
 21
337.477656
 31
0.0
  0
LINE
  5
2CB
330
2C7
100
AcDbEntity
  8
LC-002-100-D00-0
 62
     7
370
    15
100
AcDbLine
 10
348.198757
 20
337.477656
 30
0.0
 11
348.549851
 21
337.660419
 31
0.0
  0
LINE
  5
2CC
330
2C7
100
AcDbEntity
  8
LC-002-100-D00-0
 62
     7
370
    15
100
AcDbLine
 10
348.549851
 20
337.660419
 30
0.0
 11
349.097662
 21
337.945598
 31
0.0
  0
ENDBLK
  5
2C9
330
2C7
100
AcDbEntity
  8
0
100
AcDbBlockEnd
  0
BLOCK
  5
2D9
330
2D8
100
AcDbEntity
  8
0
100
AcDbBlockBegin
  2
POLY18
 70
     0
 71
     0
 10
0.0
 20
0.0
 30
0.0
  3
POLY18
  1

  4
POLY18
  0
LINE
  5
2DB
330
2D8
100
AcDbEntity
  8
LC-002-100-D00-0
 62
     7
370
    50
100
AcDbLine
 10
347.847663
 20
337.294879
 30
0.0
 11
347.847663
 21
337.294879
 31
0.0
  0
LINE
  5
2DC
330
2D8
100
AcDbEntity
  8
LC-002-100-D00-0
 62
     7
370
    50
100
AcDbLine
 10
347.847663
 20
337.294879
 30
0.0
 11
347.846185
 21
337.250915
 31
0.0
  0
LINE
  5
2DD
330
2D8
100
AcDbEntity
  8
LC-002-100-D00-0
 62
     7
370
    50
100
AcDbLine
 10
347.846185
 20
337.250915
 30
0.0
 11
347.846185
 21
337.250915
 31
0.0
  0
LINE
  5
2DE
330
2D8
100
AcDbEntity
  8
LC-002-100-D00-0
 62
     7
370
    50
100
AcDbLine
 10
347.846185
 20
337.250915
 30
0.0
 11
347.844607
 21
337.203987
 31
0.0
  0
LINE
  5
2DF
330
2D8
100
AcDbEntity
  8
LC-002-100-D00-0
 62
     7
370
    50
100
AcDbLine
 10
347.844607
 20
337.203987
 30
0.0
 11
347.844607
 21
337.203987
 31
0.0
  0
LINE
  5
2E0
330
2D8
100
AcDbEntity
  8
LC-002-100-D00-0
 62
     7
370
    50
100
AcDbLine
 10
347.844607
 20
337.203987
 30
0.0
 11
348.014165
 21
337.150778
 31
0.0
  0
LINE
  5
2E1
330
2D8
100
AcDbEntity
  8
LC-002-100-D00-0
 62
     7
370
    50
100
AcDbLine
 10
348.014165
 20
337.150778
 30
0.0
 11
348.014165
 21
337.150778
 31
0.0
  0
LINE
  5
2E2
330
2D8
100
AcDbEntity
  8
LC-002-100-D00-0
 62
     7
370
    50
100
AcDbLine
 10
348.014165
 20
337.150778
 30
0.0
 11
348.024875
 21
337.147417
 31
0.0
  0
ENDBLK
  5
2DA
330
2D8
100
AcDbEntity
  8
0
100
AcDbBlockEnd
  0
BLOCK
  5
2E6
330
2E5
100
AcDbEntity
  8
0
100
AcDbBlockBegin
  2
POLY19
 70
     0
 71
     0
 10
0.0
 20
0.0
 30
0.0
  3
POLY19
  1

  4
POLY19
  0
LINE
  5
2E8
330
2E5
100
AcDbEntity
  8
LC-002-100-D00-0
 62
     7
370
    50
100
AcDbLine
 10
347.847663
 20
331.294881
 30
0.0
 11
347.847663
 21
331.294881
 31
0.0
  0
LINE
  5
2E9
330
2E5
100
AcDbEntity
  8
LC-002-100-D00-0
 62
     7
370
    50
100
AcDbLine
 10
347.847663
 20
331.294881
 30
0.0
 11
347.846185
 21
331.250918
 31
0.0
  0
LINE
  5
2EA
330
2E5
100
AcDbEntity
  8
LC-002-100-D00-0
 62
     7
370
    50
100
AcDbLine
 10
347.846185
 20
331.250918
 30
0.0
 11
347.846185
 21
331.250918
 31
0.0
  0
LINE
  5
2EB
330
2E5
100
AcDbEntity
  8
LC-002-100-D00-0
 62
     7
370
    50
100
AcDbLine
 10
347.846185
 20
331.250918
 30
0.0
 11
347.844607
 21
331.20399
 31
0.0
  0
LINE
  5
2EC
330
2E5
100
AcDbEntity
  8
LC-002-100-D00-0
 62
     7
370
    50
100
AcDbLine
 10
347.844607
 20
331.20399
 30
0.0
 11
347.844607
 21
331.20399
 31
0.0
  0
LINE
  5
2ED
330
2E5
100
AcDbEntity
  8
LC-002-100-D00-0
 62
     7
370
    50
100
AcDbLine
 10
347.844607
 20
331.20399
 30
0.0
 11
348.014165
 21
331.150781
 31
0.0
  0
LINE
  5
2EE
330
2E5
100
AcDbEntity
  8
LC-002-100-D00-0
 62
     7
370
    50
100
AcDbLine
 10
348.014165
 20
331.150781
 30
0.0
 11
348.014165
 21
331.150781
 31
0.0
  0
LINE
  5
2EF
330
2E5
100
AcDbEntity
  8
LC-002-100-D00-0
 62
     7
370
    50
100
AcDbLine
 10
348.014165
 20
331.150781
 30
0.0
 11
348.024875
 21
331.14742
 31
0.0
  0
ENDBLK
  5
2E7
330
2E5
100
AcDbEntity
  8
0
100
AcDbBlockEnd
  0
BLOCK
  5
2F3
330
2F2
100
AcDbEntity
  8
0
100
AcDbBlockBegin
  2
POLY20
 70
     0
 71
     0
 10
0.0
 20
0.0
 30
0.0
  3
POLY20
  1

  4
POLY20
  0
LINE
  5
2F5
330
2F2
100
AcDbEntity
  8
LC-002-100-D00-0
 62
     7
370
    50
100
AcDbLine
 10
347.847663
 20
334.294888
 30
0.0
 11
347.847663
 21
334.294888
 31
0.0
  0
LINE
  5
2F6
330
2F2
100
AcDbEntity
  8
LC-002-100-D00-0
 62
     7
370
    50
100
AcDbLine
 10
347.847663
 20
334.294888
 30
0.0
 11
347.846185
 21
334.250917
 31
0.0
  0
LINE
  5
2F7
330
2F2
100
AcDbEntity
  8
LC-002-100-D00-0
 62
     7
370
    50
100
AcDbLine
 10
347.846185
 20
334.250917
 30
0.0
 11
347.846185
 21
334.250917
 31
0.0
  0
LINE
  5
2F8
330
2F2
100
AcDbEntity
  8
LC-002-100-D00-0
 62
     7
370
    50
100
AcDbLine
 10
347.846185
 20
334.250917
 30
0.0
 11
347.844607
 21
334.203981
 31
0.0
  0
LINE
  5
2F9
330
2F2
100
AcDbEntity
  8
LC-002-100-D00-0
 62
     7
370
    50
100
AcDbLine
 10
347.844607
 20
334.203981
 30
0.0
 11
347.844607
 21
334.203981
 31
0.0
  0
LINE
  5
2FA
330
2F2
100
AcDbEntity
  8
LC-002-100-D00-0
 62
     7
370
    50
100
AcDbLine
 10
347.844607
 20
334.203981
 30
0.0
 11
348.014165
 21
334.150772
 31
0.0
  0
LINE
  5
2FB
330
2F2
100
AcDbEntity
  8
LC-002-100-D00-0
 62
     7
370
    50
100
AcDbLine
 10
348.014165
 20
334.150772
 30
0.0
 11
348.014165
 21
334.150772
 31
0.0
  0
LINE
  5
2FC
330
2F2
100
AcDbEntity
  8
LC-002-100-D00-0
 62
     7
370
    50
100
AcDbLine
 10
348.014165
 20
334.150772
 30
0.0
 11
348.024875
 21
334.147411
 31
0.0
  0
ENDBLK
  5
2F4
330
2F2
100
AcDbEntity
  8
0
100
AcDbBlockEnd
  0
BLOCK
  5
300
330
2FF
100
AcDbEntity
  8
0
100
AcDbBlockBegin
  2
POLY21
 70
     0
 71
     0
 10
0.0
 20
0.0
 30
0.0
  3
POLY21
  1

  4
POLY21
  0
LINE
  5
302
330
2FF
100
AcDbEntity
  8
LC-002-100-D00-0
 62
     7
370
    50
100
AcDbLine
 10
347.847663
 20
328.294875
 30
0.0
 11
347.847663
 21
328.294875
 31
0.0
  0
LINE
  5
303
330
2FF
100
AcDbEntity
  8
LC-002-100-D00-0
 62
     7
370
    50
100
AcDbLine
 10
347.847663
 20
328.294875
 30
0.0
 11
347.846185
 21
328.250912
 31
0.0
  0
LINE
  5
304
330
2FF
100
AcDbEntity
  8
LC-002-100-D00-0
 62
     7
370
    50
100
AcDbLine
 10
347.846185
 20
328.250912
 30
0.0
 11
347.846185
 21
328.250912
 31
0.0
  0
LINE
  5
305
330
2FF
100
AcDbEntity
  8
LC-002-100-D00-0
 62
     7
370
    50
100
AcDbLine
 10
347.846185
 20
328.250912
 30
0.0
 11
347.844607
 21
328.203984
 31
0.0
  0
LINE
  5
306
330
2FF
100
AcDbEntity
  8
LC-002-100-D00-0
 62
     7
370
    50
100
AcDbLine
 10
347.844607
 20
328.203984
 30
0.0
 11
347.844607
 21
328.203984
 31
0.0
  0
LINE
  5
307
330
2FF
100
AcDbEntity
  8
LC-002-100-D00-0
 62
     7
370
    50
100
AcDbLine
 10
347.844607
 20
328.203984
 30
0.0
 11
348.014165
 21
328.150775
 31
0.0
  0
LINE
  5
308
330
2FF
100
AcDbEntity
  8
LC-002-100-D00-0
 62
     7
370
    50
100
AcDbLine
 10
348.014165
 20
328.150775
 30
0.0
 11
348.014165
 21
328.150775
 31
0.0
  0
LINE
  5
309
330
2FF
100
AcDbEntity
  8
LC-002-100-D00-0
 62
     7
370
    50
100
AcDbLine
 10
348.014165
 20
328.150775
 30
0.0
 11
348.024875
 21
328.147414
 31
0.0
  0
ENDBLK
  5
301
330
2FF
100
AcDbEntity
  8
0
100
AcDbBlockEnd
  0
BLOCK
  5
30D
330
30C
100
AcDbEntity
  8
0
100
AcDbBlockBegin
  2
POLY22
 70
     0
 71
     0
 10
0.0
 20
0.0
 30
0.0
  3
POLY22
  1

  4
POLY22
  0
LINE
  5
30F
330
30C
100
AcDbEntity
  8
LC-002-100-D00-0
 62
     7
370
    50
100
AcDbLine
 10
351.52255
 20
342.530566
 30
0.0
 11
351.52255
 21
342.530566
 31
0.0
  0
LINE
  5
310
330
30C
100
AcDbEntity
  8
LC-002-100-D00-0
 62
     7
370
    50
100
AcDbLine
 10
351.52255
 20
342.530566
 30
0.0
 11
351.516035
 21
342.538981
 31
0.0
  0
LINE
  5
311
330
30C
100
AcDbEntity
  8
LC-002-100-D00-0
 62
     7
370
    50
100
AcDbLine
 10
351.516035
 20
342.538981
 30
0.0
 11
351.516035
 21
342.538981
 31
0.0
  0
LINE
  5
312
330
30C
100
AcDbEntity
  8
LC-002-100-D00-0
 62
     7
370
    50
100
AcDbLine
 10
351.516035
 20
342.538981
 30
0.0
 11
351.5072
 21
342.550392
 31
0.0
  0
LINE
  5
313
330
30C
100
AcDbEntity
  8
LC-002-100-D00-0
 62
     7
370
    50
100
AcDbLine
 10
351.5072
 20
342.550392
 30
0.0
 11
351.5072
 21
342.550392
 31
0.0
  0
LINE
  5
314
330
30C
100
AcDbEntity
  8
LC-002-100-D00-0
 62
     7
370
    50
100
AcDbLine
 10
351.5072
 20
342.550392
 30
0.0
 11
351.497824
 21
342.55133
 31
0.0
  0
LINE
  5
315
330
30C
100
AcDbEntity
  8
LC-002-100-D00-0
 62
     7
370
    50
100
AcDbLine
 10
351.497824
 20
342.55133
 30
0.0
 11
351.497824
 21
342.55133
 31
0.0
  0
LINE
  5
316
330
30C
100
AcDbEntity
  8
LC-002-100-D00-0
 62
     7
370
    50
100
AcDbLine
 10
351.497824
 20
342.55133
 30
0.0
 11
351.495363
 21
342.551576
 31
0.0
  0
ENDBLK
  5
30E
330
30C
100
AcDbEntity
  8
0
100
AcDbBlockEnd
  0
BLOCK
  5
379
330
378
100
AcDbEntity
  8
0
100
AcDbBlockBegin
  2
POLY23
 70
     0
 71
     0
 10
0.0
 20
0.0
 30
0.0
  3
POLY23
  1

  4
POLY23
  0
LINE
  5
37B
330
378
100
AcDbEntity
  8
LC-002-100-D00-0
 62
     7
370
    50
100
AcDbLine
 10
536.786087
 20
337.551566
 30
0.0
 11
536.786087
 21
337.551566
 31
0.0
  0
LINE
  5
37C
330
378
100
AcDbEntity
  8
LC-002-100-D00-0
 62
     7
370
    50
100
AcDbLine
 10
536.786087
 20
337.551566
 30
0.0
 11
536.813086
 21
337.551566
 31
0.0
  0
LINE
  5
37D
330
378
100
AcDbEntity
  8
LC-002-100-D00-0
 62
     7
370
    50
100
AcDbLine
 10
536.813086
 20
337.551566
 30
0.0
 11
536.813086
 21
337.551566
 31
0.0
  0
LINE
  5
37E
330
378
100
AcDbEntity
  8
LC-002-100-D00-0
 62
     7
370
    50
100
AcDbLine
 10
536.813086
 20
337.551566
 30
0.0
 11
536.861299
 21
337.551566
 31
0.0
  0
LINE
  5
37F
330
378
100
AcDbEntity
  8
LC-002-100-D00-0
 62
     7
370
    50
100
AcDbLine
 10
536.861299
 20
337.551566
 30
0.0
 11
536.861299
 21
337.551566
 31
0.0
  0
LINE
  5
380
330
378
100
AcDbEntity
  8
LC-002-100-D00-0
 62
     7
370
    50
100
AcDbLine
 10
536.861299
 20
337.551566
 30
0.0
 11
536.910101
 21
337.551566
 31
0.0
  0
LINE
  5
381
330
378
100
AcDbEntity
  8
LC-002-100-D00-0
 62
     7
370
    50
100
AcDbLine
 10
536.910101
 20
337.551566
 30
0.0
 11
536.910101
 21
337.551566
 31
0.0
  0
LINE
  5
382
330
378
100
AcDbEntity
  8
LC-002-100-D00-0
 62
     7
370
    50
100
AcDbLine
 10
536.910101
 20
337.551566
 30
0.0
 11
536.931575
 21
337.551566
 31
0.0
  0
ENDBLK
  5
37A
330
378
100
AcDbEntity
  8
0
100
AcDbBlockEnd
  0
BLOCK
  5
385
330
384
100
AcDbEntity
  8
0
100
AcDbBlockBegin
  2
POLY24
 70
     0
 71
     0
 10
0.0
 20
0.0
 30
0.0
  3
POLY24
  1

  4
POLY24
  0
LINE
  5
387
330
384
100
AcDbEntity
  8
LC-002-100-D00-0
 62
     7
370
    50
100
AcDbLine
 10
538.592324
 20
337.551566
 30
0.0
 11
538.592324
 21
337.551566
 31
0.0
  0
LINE
  5
388
330
384
100
AcDbEntity
  8
LC-002-100-D00-0
 62
     7
370
    50
100
AcDbLine
 10
538.592324
 20
337.551566
 30
0.0
 11
538.641003
 21
337.551566
 31
0.0
  0
LINE
  5
389
330
384
100
AcDbEntity
  8
LC-002-100-D00-0
 62
     7
370
    50
100
AcDbLine
 10
538.641003
 20
337.551566
 30
0.0
 11
538.641003
 21
337.551566
 31
0.0
  0
LINE
  5
38A
330
384
100
AcDbEntity
  8
LC-002-100-D00-0
 62
     7
370
    50
100
AcDbLine
 10
538.641003
 20
337.551566
 30
0.0
 11
538.774935
 21
337.551566
 31
0.0
  0
LINE
  5
38B
330
384
100
AcDbEntity
  8
LC-002-100-D00-0
 62
     7
370
    50
100
AcDbLine
 10
538.774935
 20
337.551566
 30
0.0
 11
538.774935
 21
337.551566
 31
0.0
  0
LINE
  5
38C
330
384
100
AcDbEntity
  8
LC-002-100-D00-0
 62
     7
370
    50
100
AcDbLine
 10
538.774935
 20
337.551566
 30
0.0
 11
538.903671
 21
337.551566
 31
0.0
  0
LINE
  5
38D
330
384
100
AcDbEntity
  8
LC-002-100-D00-0
 62
     7
370
    50
100
AcDbLine
 10
538.903671
 20
337.551566
 30
0.0
 11
538.903671
 21
337.551566
 31
0.0
  0
LINE
  5
38E
330
384
100
AcDbEntity
  8
LC-002-100-D00-0
 62
     7
370
    50
100
AcDbLine
 10
538.903671
 20
337.551566
 30
0.0
 11
538.940535
 21
337.551566
 31
0.0
  0
LINE
  5
38F
330
384
100
AcDbEntity
  8
LC-002-100-D00-0
 62
     7
370
    50
100
AcDbLine
 10
538.940535
 20
337.551566
 30
0.0
 11
538.940535
 21
337.551566
 31
0.0
  0
LINE
  5
390
330
384
100
AcDbEntity
  8
LC-002-100-D00-0
 62
     7
370
    50
100
AcDbLine
 10
538.940535
 20
337.551566
 30
0.0
 11
538.958982
 21
337.551566
 31
0.0
  0
ENDBLK
  5
386
330
384
100
AcDbEntity
  8
0
100
AcDbBlockEnd
  0
BLOCK
  5
396
330
395
100
AcDbEntity
  8
0
100
AcDbBlockBegin
  2
POLY25
 70
     0
 71
     0
 10
0.0
 20
0.0
 30
0.0
  3
POLY25
  1

  4
POLY25
  0
LINE
  5
398
330
395
100
AcDbEntity
  8
LC-002-100-D00-0
 62
     7
370
    50
100
AcDbLine
 10
535.575703
 20
337.551566
 30
0.0
 11
535.575703
 21
337.551566
 31
0.0
  0
LINE
  5
399
330
395
100
AcDbEntity
  8
LC-002-100-D00-0
 62
     7
370
    50
100
AcDbLine
 10
535.575703
 20
337.551566
 30
0.0
 11
535.632196
 21
337.551566
 31
0.0
  0
LINE
  5
39A
330
395
100
AcDbEntity
  8
LC-002-100-D00-0
 62
     7
370
    50
100
AcDbLine
 10
535.632196
 20
337.551566
 30
0.0
 11
535.632196
 21
337.551566
 31
0.0
  0
LINE
  5
39B
330
395
100
AcDbEntity
  8
LC-002-100-D00-0
 62
     7
370
    50
100
AcDbLine
 10
535.632196
 20
337.551566
 30
0.0
 11
535.733113
 21
337.551566
 31
0.0
  0
LINE
  5
39C
330
395
100
AcDbEntity
  8
LC-002-100-D00-0
 62
     7
370
    50
100
AcDbLine
 10
535.733113
 20
337.551566
 30
0.0
 11
535.733113
 21
337.551566
 31
0.0
  0
LINE
  5
39D
330
395
100
AcDbEntity
  8
LC-002-100-D00-0
 62
     7
370
    50
100
AcDbLine
 10
535.733113
 20
337.551566
 30
0.0
 11
535.826417
 21
337.551566
 31
0.0
  0
LINE
  5
39E
330
395
100
AcDbEntity
  8
LC-002-100-D00-0
 62
     7
370
    50
100
AcDbLine
 10
535.826417
 20
337.551566
 30
0.0
 11
535.826417
 21
337.551566
 31
0.0
  0
LINE
  5
39F
330
395
100
AcDbEntity
  8
LC-002-100-D00-0
 62
     7
370
    50
100
AcDbLine
 10
535.826417
 20
337.551566
 30
0.0
 11
535.86749
 21
337.551566
 31
0.0
  0
ENDBLK
  5
397
330
395
100
AcDbEntity
  8
0
100
AcDbBlockEnd
  0
BLOCK
  5
451
330
450
100
AcDbEntity
  8
0
100
AcDbBlockBegin
  2
KLON19
 70
     0
 71
     0
 10
0.0
 20
0.0
 30
0.0
  3
KLON19
  1

  4
KLON19
  0
LINE
  5
453
330
450
100
AcDbEntity
  8
LC-002-100-D00-0
 62
     7
370
    25
100
AcDbLine
 10
480.097663
 20
180.978798
 30
0.0
 11
482.597663
 21
183.478798
 31
0.0
  0
LINE
  5
454
330
450
100
AcDbEntity
  8
LC-002-100-D00-0
 62
     7
370
    25
100
AcDbLine
 10
480.097663
 20
189.959054
 30
0.0
 11
482.597663
 21
192.459054
 31
0.0
  0
LINE
  5
455
330
450
100
AcDbEntity
  8
LC-002-100-D00-0
 62
     7
370
    25
100
AcDbLine
 10
480.097663
 20
198.93931
 30
0.0
 11
482.597663
 21
201.43931
 31
0.0
  0
LINE
  5
456
330
450
100
AcDbEntity
  8
LC-002-100-D00-0
 62
     7
370
    25
100
AcDbLine
 10
614.882331
 20
333.723978
 30
0.0
 11
617.882331
 21
336.723978
 31
0.0
  0
LINE
  5
457
330
450
100
AcDbEntity
  8
LC-002-100-D00-0
 62
     7
370
    25
100
AcDbLine
 10
480.097663
 20
207.919566
 30
0.0
 11
482.597663
 21
210.419566
 31
0.0
  0
LINE
  5
458
330
450
100
AcDbEntity
  8
LC-002-100-D00-0
 62
     7
370
    25
100
AcDbLine
 10
522.597663
 20
250.419566
 30
0.0
 11
525.097663
 21
252.919566
 31
0.0
  0
LINE
  5
459
330
450
100
AcDbEntity
  8
LC-002-100-D00-0
 62
     7
370
    25
100
AcDbLine
 10
605.902075
 20
333.723978
 30
0.0
 11
608.902075
 21
336.723978
 31
0.0
  0
LINE
  5
45A
330
450
100
AcDbEntity
  8
LC-002-100-D00-0
 62
     7
370
    25
100
AcDbLine
 10
480.097663
 20
216.899822
 30
0.0
 11
482.597663
 21
219.399822
 31
0.0
  0
LINE
  5
45B
330
450
100
AcDbEntity
  8
LC-002-100-D00-0
 62
     7
370
    25
100
AcDbLine
 10
507.921819
 20
244.723978
 30
0.0
 11
512.847663
 21
249.649822
 31
0.0
  0
LINE
  5
45C
330
450
100
AcDbEntity
  8
LC-002-100-D00-0
 62
     7
370
    25
100
AcDbLine
 10
522.597663
 20
259.399822
 30
0.0
 11
525.097663
 21
261.899822
 31
0.0
  0
LINE
  5
45D
330
450
100
AcDbEntity
  8
LC-002-100-D00-0
 62
     7
370
    25
100
AcDbLine
 10
596.921819
 20
333.723978
 30
0.0
 11
599.921819
 21
336.723978
 31
0.0
  0
LINE
  5
45E
330
450
100
AcDbEntity
  8
LC-002-100-D00-0
 62
     7
370
    25
100
AcDbLine
 10
480.097663
 20
225.880078
 30
0.0
 11
482.597663
 21
228.380078
 31
0.0
  0
LINE
  5
45F
330
450
100
AcDbEntity
  8
LC-002-100-D00-0
 62
     7
370
    25
100
AcDbLine
 10
498.941562
 20
244.723978
 30
0.0
 11
503.8591
 21
249.641516
 31
0.0
  0
LINE
  5
460
330
450
100
AcDbEntity
  8
LC-002-100-D00-0
 62
     7
370
    25
100
AcDbLine
 10
509.597663
 20
255.380078
 30
0.0
 11
512.847663
 21
258.630078
 31
0.0
  0
LINE
  5
461
330
450
100
AcDbEntity
  8
LC-002-100-D00-0
 62
     7
370
    25
100
AcDbLine
 10
522.597663
 20
268.380078
 30
0.0
 11
525.097663
 21
270.880078
 31
0.0
  0
LINE
  5
462
330
450
100
AcDbEntity
  8
LC-002-100-D00-0
 62
     7
370
    25
100
AcDbLine
 10
587.941562
 20
333.723978
 30
0.0
 11
590.941562
 21
336.723978
 31
0.0
  0
LINE
  5
463
330
450
100
AcDbEntity
  8
LC-002-100-D00-0
 62
     7
370
    25
100
AcDbLine
 10
480.097663
 20
234.860335
 30
0.0
 11
482.597663
 21
237.360335
 31
0.0
  0
LINE
  5
464
330
450
100
AcDbEntity
  8
LC-002-100-D00-0
 62
     7
370
    25
100
AcDbLine
 10
489.961306
 20
244.723978
 30
0.0
 11
493.62187
 21
248.384542
 31
0.0
  0
LINE
  5
465
330
450
100
AcDbEntity
  8
LC-002-100-D00-0
 62
     7
370
    25
100
AcDbLine
 10
509.597663
 20
264.360335
 30
0.0
 11
512.847663
 21
267.610335
 31
0.0
  0
LINE
  5
466
330
450
100
AcDbEntity
  8
LC-002-100-D00-0
 62
     7
370
    25
100
AcDbLine
 10
522.597663
 20
277.360335
 30
0.0
 11
525.097663
 21
279.860335
 31
0.0
  0
LINE
  5
467
330
450
100
AcDbEntity
  8
LC-002-100-D00-0
 62
     7
370
    25
100
AcDbLine
 10
578.961306
 20
333.723978
 30
0.0
 11
581.961306
 21
336.723978
 31
0.0
  0
LINE
  5
468
330
450
100
AcDbEntity
  8
LC-002-100-D00-0
 62
     7
370
    25
100
AcDbLine
 10
480.097663
 20
243.840591
 30
0.0
 11
483.38464
 21
247.127568
 31
0.0
  0
LINE
  5
469
330
450
100
AcDbEntity
  8
LC-002-100-D00-0
 62
     7
370
    25
100
AcDbLine
 10
509.597663
 20
273.340591
 30
0.0
 11
512.886286
 21
276.629214
 31
0.0
  0
LINE
  5
46A
330
450
100
AcDbEntity
  8
LC-002-100-D00-0
 62
     7
370
    25
100
AcDbLine
 10
513.572427
 20
277.315355
 30
0.0
 11
518.147663
 21
281.890591
 31
0.0
  0
LINE
  5
46B
330
450
100
AcDbEntity
  8
LC-002-100-D00-0
 62
     7
370
    25
100
AcDbLine
 10
522.597663
 20
286.340591
 30
0.0
 11
525.097663
 21
288.840591
 31
0.0
  0
LINE
  5
46C
330
450
100
AcDbEntity
  8
LC-002-100-D00-0
 62
     7
370
    25
100
AcDbLine
 10
540.80105
 20
304.543978
 30
0.0
 11
542.097663
 21
305.840591
 31
0.0
  0
LINE
  5
46D
330
450
100
AcDbEntity
  8
LC-002-100-D00-0
 62
     7
370
    25
100
AcDbLine
 10
568.318336
 20
332.061264
 30
0.0
 11
572.98105
 21
336.723978
 31
0.0
  0
LINE
  5
46E
330
450
100
AcDbEntity
  8
LC-002-100-D00-0
 62
     7
370
    25
100
AcDbLine
 10
515.597663
 20
288.320847
 30
0.0
 11
525.097663
 21
297.820847
 31
0.0
  0
LINE
  5
46F
330
450
100
AcDbEntity
  8
LC-002-100-D00-0
 62
     7
370
    25
100
AcDbLine
 10
536.097663
 20
308.820847
 30
0.0
 11
539.820794
 21
312.543978
 31
0.0
  0
LINE
  5
470
330
450
100
AcDbEntity
  8
LC-002-100-D00-0
 62
     7
370
    25
100
AcDbLine
 10
542.097663
 20
314.820847
 30
0.0
 11
545.072663
 21
317.795847
 31
0.0
  0
LINE
  5
471
330
450
100
AcDbEntity
  8
LC-002-100-D00-0
 62
     7
370
    25
100
AcDbLine
 10
554.199097
 20
326.922282
 30
0.0
 11
559.067985
 21
331.791169
 31
0.0
  0
LINE
  5
472
330
450
100
AcDbEntity
  8
LC-002-100-D00-0
 62
     7
370
    25
100
AcDbLine
 10
522.597663
 20
304.301103
 30
0.0
 11
536.097663
 21
317.801103
 31
0.0
  0
LINE
  5
473
330
450
100
AcDbEntity
  8
LC-002-100-D00-0
 62
     7
370
    25
100
AcDbLine
 10
542.097663
 20
323.801103
 30
0.0
 11
546.340538
 21
328.043978
 31
0.0
  0
LINE
  5
474
330
450
100
AcDbEntity
  8
LC-002-100-D00-0
 62
     7
370
    25
100
AcDbLine
 10
527.597663
 20
318.281359
 30
0.0
 11
536.097663
 21
326.781359
 31
0.0
  0
LINE
  5
475
330
450
100
AcDbEntity
  8
LC-002-100-D00-0
 62
     7
370
    25
100
AcDbLine
 10
527.597663
 20
327.261615
 30
0.0
 11
528.380026
 21
328.043978
 31
0.0
  0
ENDBLK
  5
452
330
450
100
AcDbEntity
  8
0
100
AcDbBlockEnd
  0
BLOCK
  5
478
330
477
100
AcDbEntity
  8
0
100
AcDbBlockBegin
  2
KLON20
 70
     0
 71
     0
 10
0.0
 20
0.0
 30
0.0
  3
KLON20
  1

  4
KLON20
  0
LINE
  5
47A
330
477
100
AcDbEntity
  8
LC-002-100-D00-0
 62
     7
370
    25
100
AcDbLine
 10
407.999842
 20
180.723026
 30
0.0
 11
410.097663
 21
182.820847
 31
0.0
  0
LINE
  5
47B
330
477
100
AcDbEntity
  8
LC-002-100-D00-0
 62
     7
370
    25
100
AcDbLine
 10
407.597663
 20
189.301103
 30
0.0
 11
410.097663
 21
191.801103
 31
0.0
  0
LINE
  5
47C
330
477
100
AcDbEntity
  8
LC-002-100-D00-0
 62
     7
370
    25
100
AcDbLine
 10
407.597663
 20
198.281359
 30
0.0
 11
410.097663
 21
200.781359
 31
0.0
  0
LINE
  5
47D
330
477
100
AcDbEntity
  8
LC-002-100-D00-0
 62
     7
370
    25
100
AcDbLine
 10
407.597663
 20
207.261615
 30
0.0
 11
410.097663
 21
209.761615
 31
0.0
  0
LINE
  5
47E
330
477
100
AcDbEntity
  8
LC-002-100-D00-0
 62
     7
370
    25
100
AcDbLine
 10
407.597663
 20
216.241871
 30
0.0
 11
410.097663
 21
218.741871
 31
0.0
  0
LINE
  5
47F
330
477
100
AcDbEntity
  8
LC-002-100-D00-0
 62
     7
370
    25
100
AcDbLine
 10
407.597663
 20
225.222127
 30
0.0
 11
410.097663
 21
227.722127
 31
0.0
  0
LINE
  5
480
330
477
100
AcDbEntity
  8
LC-002-100-D00-0
 62
     7
370
    25
100
AcDbLine
 10
407.597663
 20
234.202384
 30
0.0
 11
410.097663
 21
236.702384
 31
0.0
  0
LINE
  5
481
330
477
100
AcDbEntity
  8
LC-002-100-D00-0
 62
     7
370
    25
100
AcDbLine
 10
407.597663
 20
243.18264
 30
0.0
 11
410.097663
 21
245.68264
 31
0.0
  0
LINE
  5
482
330
477
100
AcDbEntity
  8
LC-002-100-D00-0
 62
     7
370
    25
100
AcDbLine
 10
400.158745
 20
244.723978
 30
0.0
 11
403.026923
 21
247.592156
 31
0.0
  0
LINE
  5
483
330
477
100
AcDbEntity
  8
LC-002-100-D00-0
 62
     7
370
    25
100
AcDbLine
 10
391.178489
 20
244.723978
 30
0.0
 11
395.028722
 21
248.574211
 31
0.0
  0
LINE
  5
484
330
477
100
AcDbEntity
  8
LC-002-100-D00-0
 62
     7
370
    25
100
AcDbLine
 10
382.198233
 20
244.723978
 30
0.0
 11
387.030522
 21
249.556267
 31
0.0
  0
LINE
  5
485
330
477
100
AcDbEntity
  8
LC-002-100-D00-0
 62
     7
370
    25
100
AcDbLine
 10
377.347663
 20
248.853664
 30
0.0
 11
380.597663
 21
252.103664
 31
0.0
  0
LINE
  5
486
330
477
100
AcDbEntity
  8
LC-002-100-D00-0
 62
     7
370
    25
100
AcDbLine
 10
365.097663
 20
245.58392
 30
0.0
 11
367.597663
 21
248.08392
 31
0.0
  0
LINE
  5
487
330
477
100
AcDbEntity
  8
LC-002-100-D00-0
 62
     7
370
    25
100
AcDbLine
 10
377.347663
 20
257.83392
 30
0.0
 11
380.597663
 21
261.08392
 31
0.0
  0
LINE
  5
488
330
477
100
AcDbEntity
  8
LC-002-100-D00-0
 62
     7
370
    25
100
AcDbLine
 10
365.097663
 20
254.564176
 30
0.0
 11
367.597663
 21
257.064176
 31
0.0
  0
LINE
  5
489
330
477
100
AcDbEntity
  8
LC-002-100-D00-0
 62
     7
370
    25
100
AcDbLine
 10
377.347663
 20
266.814176
 30
0.0
 11
380.597663
 21
270.064176
 31
0.0
  0
LINE
  5
48A
330
477
100
AcDbEntity
  8
LC-002-100-D00-0
 62
     7
370
    25
100
AcDbLine
 10
365.097663
 20
263.544433
 30
0.0
 11
367.597663
 21
266.044433
 31
0.0
  0
LINE
  5
48B
330
477
100
AcDbEntity
  8
LC-002-100-D00-0
 62
     7
370
    25
100
AcDbLine
 10
377.347663
 20
275.794433
 30
0.0
 11
380.597663
 21
279.044433
 31
0.0
  0
LINE
  5
48C
330
477
100
AcDbEntity
  8
LC-002-100-D00-0
 62
     7
370
    25
100
AcDbLine
 10
365.097663
 20
272.524689
 30
0.0
 11
367.597663
 21
275.024689
 31
0.0
  0
LINE
  5
48D
330
477
100
AcDbEntity
  8
LC-002-100-D00-0
 62
     7
370
    25
100
AcDbLine
 10
372.072865
 20
279.499891
 30
0.0
 11
374.597663
 21
282.024689
 31
0.0
  0
LINE
  5
48E
330
477
100
AcDbEntity
  8
LC-002-100-D00-0
 62
     7
370
    25
100
AcDbLine
 10
365.097663
 20
281.504945
 30
0.0
 11
367.597663
 21
284.004945
 31
0.0
  0
LINE
  5
48F
330
477
100
AcDbEntity
  8
LC-002-100-D00-0
 62
     7
370
    25
100
AcDbLine
 10
372.047663
 20
288.454945
 30
0.0
 11
374.597663
 21
291.004945
 31
0.0
  0
LINE
  5
490
330
477
100
AcDbEntity
  8
LC-002-100-D00-0
 62
     7
370
    25
100
AcDbLine
 10
365.097663
 20
290.485201
 30
0.0
 11
370.46644
 21
295.853978
 31
0.0
  0
LINE
  5
491
330
477
100
AcDbEntity
  8
LC-002-100-D00-0
 62
     7
370
    25
100
AcDbLine
 10
365.097663
 20
299.465457
 30
0.0
 11
367.597663
 21
301.965457
 31
0.0
  0
LINE
  5
492
330
477
100
AcDbEntity
  8
LC-002-100-D00-0
 62
     7
370
    25
100
AcDbLine
 10
363.815928
 20
307.163978
 30
0.0
 11
365.276795
 21
308.624846
 31
0.0
  0
LINE
  5
493
330
477
100
AcDbEntity
  8
LC-002-100-D00-0
 62
     7
370
    25
100
AcDbLine
 10
352.215672
 20
304.543978
 30
0.0
 11
354.097663
 21
306.425969
 31
0.0
  0
LINE
  5
494
330
477
100
AcDbEntity
  8
LC-002-100-D00-0
 62
     7
370
    25
100
AcDbLine
 10
357.215672
 20
309.543978
 30
0.0
 11
362.597663
 21
314.925969
 31
0.0
  0
LINE
  5
495
330
477
100
AcDbEntity
  8
LC-002-100-D00-0
 62
     7
370
    25
100
AcDbLine
 10
348.097663
 20
309.406225
 30
0.0
 11
351.235416
 21
312.543978
 31
0.0
  0
LINE
  5
496
330
477
100
AcDbEntity
  8
LC-002-100-D00-0
 62
     7
370
    25
100
AcDbLine
 10
354.097663
 20
315.406225
 30
0.0
 11
362.597663
 21
323.906225
 31
0.0
  0
LINE
  5
497
330
477
100
AcDbEntity
  8
LC-002-100-D00-0
 62
     7
370
    25
100
AcDbLine
 10
345.122663
 20
315.411482
 30
0.0
 11
348.097663
 21
318.386482
 31
0.0
  0
LINE
  5
498
330
477
100
AcDbEntity
  8
LC-002-100-D00-0
 62
     7
370
    25
100
AcDbLine
 10
354.097663
 20
324.386482
 30
0.0
 11
357.755159
 21
328.043978
 31
0.0
  0
LINE
  5
499
330
477
100
AcDbEntity
  8
LC-002-100-D00-0
 62
     7
370
    25
100
AcDbLine
 10
345.122663
 20
324.391738
 30
0.0
 11
348.097663
 21
327.366738
 31
0.0
  0
LINE
  5
49A
330
477
100
AcDbEntity
  8
LC-002-100-D00-0
 62
     7
370
    25
100
AcDbLine
 10
337.958677
 20
326.208008
 30
0.0
 11
340.229077
 21
328.478408
 31
0.0
  0
LINE
  5
49B
330
477
100
AcDbEntity
  8
LC-002-100-D00-0
 62
     7
370
    25
100
AcDbLine
 10
331.374768
 20
328.604355
 30
0.0
 11
333.645168
 21
330.874755
 31
0.0
  0
LINE
  5
49C
330
477
100
AcDbEntity
  8
LC-002-100-D00-0
 62
     7
370
    25
100
AcDbLine
 10
324.790859
 20
331.000702
 30
0.0
 11
327.061259
 21
333.271102
 31
0.0
  0
LINE
  5
49D
330
477
100
AcDbEntity
  8
LC-002-100-D00-0
 62
     7
370
    25
100
AcDbLine
 10
318.20695
 20
333.397049
 30
0.0
 11
320.477349
 21
335.667449
 31
0.0
  0
LINE
  5
49E
330
477
100
AcDbEntity
  8
LC-002-100-D00-0
 62
     7
370
    25
100
AcDbLine
 10
309.553623
 20
333.723978
 30
0.0
 11
312.553623
 21
336.723978
 31
0.0
  0
LINE
  5
49F
330
477
100
AcDbEntity
  8
LC-002-100-D00-0
 62
     7
370
    25
100
AcDbLine
 10
300.573367
 20
333.723978
 30
0.0
 11
303.573367
 21
336.723978
 31
0.0
  0
LINE
  5
4A0
330
477
100
AcDbEntity
  8
LC-002-100-D00-0
 62
     7
370
    25
100
AcDbLine
 10
291.59311
 20
333.723978
 30
0.0
 11
294.59311
 21
336.723978
 31
0.0
  0
LINE
  5
4A1
330
477
100
AcDbEntity
  8
LC-002-100-D00-0
 62
     7
370
    25
100
AcDbLine
 10
282.612854
 20
333.723978
 30
0.0
 11
285.612854
 21
336.723978
 31
0.0
  0
LINE
  5
4A2
330
477
100
AcDbEntity
  8
LC-002-100-D00-0
 62
     7
370
    25
100
AcDbLine
 10
273.632598
 20
333.723978
 30
0.0
 11
276.632598
 21
336.723978
 31
0.0
  0
ENDBLK
  5
479
330
477
100
AcDbEntity
  8
0
100
AcDbBlockEnd
  0
BLOCK
  5
4A5
330
4A4
100
AcDbEntity
  8
0
100
AcDbBlockBegin
  2
KLON21
 70
     0
 71
     0
 10
0.0
 20
0.0
 30
0.0
  3
KLON21
  1

  4
KLON21
  0
LINE
  5
4A7
330
4A4
100
AcDbEntity
  8
LC-002-100-D00-0
 62
     7
370
    25
100
AcDbLine
 10
521.294842
 20
295.853978
 30
0.0
 11
515.794842
 21
301.353978
 31
0.0
  0
LINE
  5
4A8
330
4A4
100
AcDbEntity
  8
LC-002-100-D00-0
 62
     7
370
    25
100
AcDbLine
 10
513.847663
 20
294.320901
 30
0.0
 11
510.399543
 21
297.769021
 31
0.0
  0
ENDBLK
  5
4A6
330
4A4
100
AcDbEntity
  8
0
100
AcDbBlockEnd
  0
BLOCK
  5
4AB
330
4AA
100
AcDbEntity
  8
0
100
AcDbBlockBegin
  2
KLON22
 70
     0
 71
     0
 10
0.0
 20
0.0
 30
0.0
  3
KLON22
  1

  4
KLON22
  0
LINE
  5
4AD
330
4AA
100
AcDbEntity
  8
LC-002-100-D00-0
 62
     7
370
    25
100
AcDbLine
 10
380.110744
 20
293.353978
 30
0.0
 11
376.347663
 21
297.11706
 31
0.0
  0
LINE
  5
4AE
330
4AA
100
AcDbEntity
  8
LC-002-100-D00-0
 62
     7
370
    25
100
AcDbLine
 10
375.610744
 20
297.853978
 30
0.0
 11
372.110744
 21
301.353978
 31
0.0
  0
ENDBLK
  5
4AC
330
4AA
100
AcDbEntity
  8
0
100
AcDbBlockEnd
  0
BLOCK
  5
4B1
330
4B0
100
AcDbEntity
  8
0
100
AcDbBlockBegin
  2
KLON23
 70
     0
 71
     0
 10
0.0
 20
0.0
 30
0.0
  3
KLON23
  1

  4
KLON23
  0
LINE
  5
4B3
330
4B0
100
AcDbEntity
  8
LC-002-100-D00-0
 62
     7
370
    25
100
AcDbLine
 10
402.81972
 20
234.723978
 30
0.0
 11
400.31972
 21
237.223978
 31
0.0
  0
LINE
  5
4B4
330
4B0
100
AcDbEntity
  8
LC-002-100-D00-0
 62
     7
370
    25
100
AcDbLine
 10
393.839464
 20
234.723978
 30
0.0
 11
391.339464
 21
237.223978
 31
0.0
  0
LINE
  5
4B5
330
4B0
100
AcDbEntity
  8
LC-002-100-D00-0
 62
     7
370
    25
100
AcDbLine
 10
384.859207
 20
234.723978
 30
0.0
 11
382.359207
 21
237.223978
 31
0.0
  0
LINE
  5
4B6
330
4B0
100
AcDbEntity
  8
LC-002-100-D00-0
 62
     7
370
    25
100
AcDbLine
 10
370.097663
 20
249.485523
 30
0.0
 11
367.597663
 21
251.985523
 31
0.0
  0
LINE
  5
4B7
330
4B0
100
AcDbEntity
  8
LC-002-100-D00-0
 62
     7
370
    25
100
AcDbLine
 10
375.878951
 20
234.723978
 30
0.0
 11
373.378951
 21
237.223978
 31
0.0
  0
LINE
  5
4B8
330
4B0
100
AcDbEntity
  8
LC-002-100-D00-0
 62
     7
370
    25
100
AcDbLine
 10
370.097663
 20
240.505267
 30
0.0
 11
365.878951
 21
244.723978
 31
0.0
  0
ENDBLK
  5
4B2
330
4B0
100
AcDbEntity
  8
0
100
AcDbBlockEnd
  0
BLOCK
  5
4BB
330
4BA
100
AcDbEntity
  8
0
100
AcDbBlockBegin
  2
KLON24
 70
     0
 71
     0
 10
0.0
 20
0.0
 30
0.0
  3
KLON24
  1

  4
KLON24
  0
LINE
  5
4BD
330
4BA
100
AcDbEntity
  8
LC-002-100-D00-0
 62
     7
370
    25
100
AcDbLine
 10
522.597663
 20
249.649877
 30
0.0
 11
520.097663
 21
252.149877
 31
0.0
  0
LINE
  5
4BE
330
4BA
100
AcDbEntity
  8
LC-002-100-D00-0
 62
     7
370
    25
100
AcDbLine
 10
524.208609
 20
239.058675
 30
0.0
 11
520.097663
 21
243.169621
 31
0.0
  0
LINE
  5
4BF
330
4BA
100
AcDbEntity
  8
LC-002-100-D00-0
 62
     7
370
    25
100
AcDbLine
 10
519.264119
 20
235.022909
 30
0.0
 11
517.063049
 21
237.223978
 31
0.0
  0
LINE
  5
4C0
330
4BA
100
AcDbEntity
  8
LC-002-100-D00-0
 62
     7
370
    25
100
AcDbLine
 10
510.582793
 20
234.723978
 30
0.0
 11
508.082793
 21
237.223978
 31
0.0
  0
LINE
  5
4C1
330
4BA
100
AcDbEntity
  8
LC-002-100-D00-0
 62
     7
370
    25
100
AcDbLine
 10
501.602537
 20
234.723978
 30
0.0
 11
499.102537
 21
237.223978
 31
0.0
  0
LINE
  5
4C2
330
4BA
100
AcDbEntity
  8
LC-002-100-D00-0
 62
     7
370
    25
100
AcDbLine
 10
492.622281
 20
234.723978
 30
0.0
 11
490.122281
 21
237.223978
 31
0.0
  0
LINE
  5
4C3
330
4BA
100
AcDbEntity
  8
LC-002-100-D00-0
 62
     7
370
    25
100
AcDbLine
 10
483.642025
 20
234.723978
 30
0.0
 11
482.597663
 21
235.76834
 31
0.0
  0
ENDBLK
  5
4BC
330
4BA
100
AcDbEntity
  8
0
100
AcDbBlockEnd
  0
BLOCK
  5
4C6
330
4C5
100
AcDbEntity
  8
0
100
AcDbBlockBegin
  2
KLON25
 70
     0
 71
     0
 10
0.0
 20
0.0
 30
0.0
  3
KLON25
  1

  4
KLON25
  0
LINE
  5
4C8
330
4C5
100
AcDbEntity
  8
LC-002-100-D00-0
 62
     7
370
    25
100
AcDbLine
 10
566.372522
 20
339.095706
 30
0.0
 11
566.934324
 21
339.657508
 31
0.0
  0
LINE
  5
4C9
330
4C5
100
AcDbEntity
  8
LC-002-100-D00-0
 62
     7
370
    25
100
AcDbLine
 10
556.337548
 20
338.040988
 30
0.0
 11
556.89935
 21
338.60279
 31
0.0
  0
LINE
  5
4CA
330
4C5
100
AcDbEntity
  8
LC-002-100-D00-0
 62
     7
370
    25
100
AcDbLine
 10
520.097663
 20
310.781359
 30
0.0
 11
520.597663
 21
311.281359
 31
0.0
  0
LINE
  5
4CB
330
4C5
100
AcDbEntity
  8
LC-002-100-D00-0
 62
     7
370
    25
100
AcDbLine
 10
546.367874
 20
337.05157
 30
0.0
 11
546.867874
 21
337.55157
 31
0.0
  0
LINE
  5
4CC
330
4C5
100
AcDbEntity
  8
LC-002-100-D00-0
 62
     7
370
    25
100
AcDbLine
 10
524.347663
 20
324.011615
 30
0.0
 11
524.847663
 21
324.511615
 31
0.0
  0
LINE
  5
4CD
330
4C5
100
AcDbEntity
  8
LC-002-100-D00-0
 62
     7
370
    25
100
AcDbLine
 10
537.387618
 20
337.05157
 30
0.0
 11
537.887618
 21
337.55157
 31
0.0
  0
LINE
  5
4CE
330
4C5
100
AcDbEntity
  8
LC-002-100-D00-0
 62
     7
370
    25
100
AcDbLine
 10
524.347663
 20
332.991871
 30
0.0
 11
524.847663
 21
333.491871
 31
0.0
  0
LINE
  5
4CF
330
4C5
100
AcDbEntity
  8
LC-002-100-D00-0
 62
     7
370
    25
100
AcDbLine
 10
528.407362
 20
337.05157
 30
0.0
 11
528.907362
 21
337.55157
 31
0.0
  0
ENDBLK
  5
4C7
330
4C5
100
AcDbEntity
  8
0
100
AcDbBlockEnd
  0
BLOCK
  5
4D2
330
4D1
100
AcDbEntity
  8
0
100
AcDbBlockBegin
  2
KLON26
 70
     0
 71
     0
 10
0.0
 20
0.0
 30
0.0
  3
KLON26
  1

  4
KLON26
  0
LINE
  5
4D4
330
4D1
100
AcDbEntity
  8
LC-002-100-D00-0
 62
     7
370
    25
100
AcDbLine
 10
340.150056
 20
337.379643
 30
0.0
 11
340.604994
 21
337.834581
 31
0.0
  0
LINE
  5
4D5
330
4D1
100
AcDbEntity
  8
LC-002-100-D00-0
 62
     7
370
    25
100
AcDbLine
 10
332.023894
 20
338.233737
 30
0.0
 11
332.478832
 21
338.688675
 31
0.0
  0
LINE
  5
4D6
330
4D1
100
AcDbEntity
  8
LC-002-100-D00-0
 62
     7
370
    25
100
AcDbLine
 10
323.897732
 20
339.087831
 30
0.0
 11
324.35267
 21
339.542769
 31
0.0
  0
ENDBLK
  5
4D3
330
4D1
100
AcDbEntity
  8
0
100
AcDbBlockEnd
  0
BLOCK
  5
4D9
330
4D8
100
AcDbEntity
  8
0
100
AcDbBlockBegin
  2
KLON27
 70
     0
 71
     0
 10
0.0
 20
0.0
 30
0.0
  3
KLON27
  1

  4
KLON27
  0
LINE
  5
4DB
330
4D8
100
AcDbEntity
  8
LC-002-100-D00-0
 62
     7
370
    25
100
AcDbLine
 10
369.597663
 20
312.945713
 30
0.0
 11
370.097663
 21
313.445713
 31
0.0
  0
LINE
  5
4DC
330
4D8
100
AcDbEntity
  8
LC-002-100-D00-0
 62
     7
370
    25
100
AcDbLine
 10
365.347663
 20
317.675969
 30
0.0
 11
365.847663
 21
318.175969
 31
0.0
  0
LINE
  5
4DD
330
4D8
100
AcDbEntity
  8
LC-002-100-D00-0
 62
     7
370
    25
100
AcDbLine
 10
365.347663
 20
326.656225
 30
0.0
 11
365.847663
 21
327.156225
 31
0.0
  0
LINE
  5
4DE
330
4D8
100
AcDbEntity
  8
LC-002-100-D00-0
 62
     7
370
    25
100
AcDbLine
 10
365.175201
 20
335.46402
 30
0.0
 11
365.555052
 21
335.843871
 31
0.0
  0
LINE
  5
4DF
330
4D8
100
AcDbEntity
  8
LC-002-100-D00-0
 62
     7
370
    25
100
AcDbLine
 10
357.848219
 20
337.117294
 30
0.0
 11
358.282495
 21
337.55157
 31
0.0
  0
ENDBLK
  5
4DA
330
4D8
100
AcDbEntity
  8
0
100
AcDbBlockEnd
  0
BLOCK
  5
4EF
330
4EE
100
AcDbEntity
  8
0
100
AcDbBlockBegin
  2
*X153
 70
     1
 71
     0
 10
0.0
 20
0.0
 30
0.0
  3
*X153
  1

  4
*X1
  0
LINE
  5
4F2
330
4EE
100
AcDbEntity
  8
LC-004-005-----0
 62
     7
370
    25
100
AcDbLine
 10
204.919281
 20
336.723985
 30
0.0
 11
205.097663
 21
336.902367
 31
0.0
  0
LINE
  5
4F3
330
4EE
100
AcDbEntity
  8
LC-004-005-----0
 62
     7
370
    25
100
AcDbLine
 10
204.353596
 20
336.723985
 30
0.0
 11
205.097663
 21
337.468052
 31
0.0
  0
LINE
  5
4F4
330
4EE
100
AcDbEntity
  8
LC-004-005-----0
 62
     7
370
    25
100
AcDbLine
 10
203.787911
 20
336.723985
 30
0.0
 11
205.097663
 21
338.033738
 31
0.0
  0
LINE
  5
4F5
330
4EE
100
AcDbEntity
  8
LC-004-005-----0
 62
     7
370
    25
100
AcDbLine
 10
203.222225
 20
336.723985
 30
0.0
 11
205.097663
 21
338.599423
 31
0.0
  0
LINE
  5
4F6
330
4EE
100
AcDbEntity
  8
LC-004-005-----0
 62
     7
370
    25
100
AcDbLine
 10
202.65654
 20
336.723985
 30
0.0
 11
205.097663
 21
339.165108
 31
0.0
  0
LINE
  5
4F7
330
4EE
100
AcDbEntity
  8
LC-004-005-----0
 62
     7
370
    25
100
AcDbLine
 10
202.090854
 20
336.723985
 30
0.0
 11
205.097663
 21
339.730794
 31
0.0
  0
LINE
  5
4F8
330
4EE
100
AcDbEntity
  8
LC-004-005-----0
 62
     7
370
    25
100
AcDbLine
 10
201.525169
 20
336.723985
 30
0.0
 11
205.097663
 21
340.296479
 31
0.0
  0
LINE
  5
4F9
330
4EE
100
AcDbEntity
  8
LC-004-005-----0
 62
     7
370
    25
100
AcDbLine
 10
200.959483
 20
336.723985
 30
0.0
 11
205.097663
 21
340.862165
 31
0.0
  0
LINE
  5
4FA
330
4EE
100
AcDbEntity
  8
LC-004-005-----0
 62
     7
370
    25
100
AcDbLine
 10
200.393798
 20
336.723985
 30
0.0
 11
205.093798
 21
341.423985
 31
0.0
  0
LINE
  5
4FB
330
4EE
100
AcDbEntity
  8
LC-004-005-----0
 62
     7
370
    25
100
AcDbLine
 10
199.828113
 20
336.723985
 30
0.0
 11
204.528113
 21
341.423985
 31
0.0
  0
LINE
  5
4FC
330
4EE
100
AcDbEntity
  8
LC-004-005-----0
 62
     7
370
    25
100
AcDbLine
 10
199.262427
 20
336.723985
 30
0.0
 11
203.962427
 21
341.423985
 31
0.0
  0
LINE
  5
4FD
330
4EE
100
AcDbEntity
  8
LC-004-005-----0
 62
     7
370
    25
100
AcDbLine
 10
198.696742
 20
336.723985
 30
0.0
 11
203.396742
 21
341.423985
 31
0.0
  0
LINE
  5
4FE
330
4EE
100
AcDbEntity
  8
LC-004-005-----0
 62
     7
370
    25
100
AcDbLine
 10
198.131056
 20
336.723985
 30
0.0
 11
202.831056
 21
341.423985
 31
0.0
  0
LINE
  5
4FF
330
4EE
100
AcDbEntity
  8
LC-004-005-----0
 62
     7
370
    25
100
AcDbLine
 10
197.565371
 20
336.723985
 30
0.0
 11
202.265371
 21
341.423985
 31
0.0
  0
LINE
  5
500
330
4EE
100
AcDbEntity
  8
LC-004-005-----0
 62
     7
370
    25
100
AcDbLine
 10
196.999685
 20
336.723985
 30
0.0
 11
201.699685
 21
341.423985
 31
0.0
  0
LINE
  5
501
330
4EE
100
AcDbEntity
  8
LC-004-005-----0
 62
     7
370
    25
100
AcDbLine
 10
196.434
 20
336.723985
 30
0.0
 11
201.134
 21
341.423985
 31
0.0
  0
LINE
  5
502
330
4EE
100
AcDbEntity
  8
LC-004-005-----0
 62
     7
370
    25
100
AcDbLine
 10
195.868315
 20
336.723985
 30
0.0
 11
200.568315
 21
341.423985
 31
0.0
  0
LINE
  5
503
330
4EE
100
AcDbEntity
  8
LC-004-005-----0
 62
     7
370
    25
100
AcDbLine
 10
195.302629
 20
336.723985
 30
0.0
 11
200.002629
 21
341.423985
 31
0.0
  0
LINE
  5
504
330
4EE
100
AcDbEntity
  8
LC-004-005-----0
 62
     7
370
    25
100
AcDbLine
 10
195.097663
 20
337.084704
 30
0.0
 11
199.436944
 21
341.423985
 31
0.0
  0
LINE
  5
505
330
4EE
100
AcDbEntity
  8
LC-004-005-----0
 62
     7
370
    25
100
AcDbLine
 10
195.097663
 20
337.65039
 30
0.0
 11
198.871258
 21
341.423985
 31
0.0
  0
LINE
  5
506
330
4EE
100
AcDbEntity
  8
LC-004-005-----0
 62
     7
370
    25
100
AcDbLine
 10
195.097663
 20
338.216075
 30
0.0
 11
198.305573
 21
341.423985
 31
0.0
  0
LINE
  5
507
330
4EE
100
AcDbEntity
  8
LC-004-005-----0
 62
     7
370
    25
100
AcDbLine
 10
195.097663
 20
338.781761
 30
0.0
 11
197.739888
 21
341.423985
 31
0.0
  0
LINE
  5
508
330
4EE
100
AcDbEntity
  8
LC-004-005-----0
 62
     7
370
    25
100
AcDbLine
 10
195.097663
 20
339.347446
 30
0.0
 11
197.174202
 21
341.423985
 31
0.0
  0
LINE
  5
509
330
4EE
100
AcDbEntity
  8
LC-004-005-----0
 62
     7
370
    25
100
AcDbLine
 10
195.097663
 20
339.913132
 30
0.0
 11
196.608517
 21
341.423985
 31
0.0
  0
LINE
  5
50A
330
4EE
100
AcDbEntity
  8
LC-004-005-----0
 62
     7
370
    25
100
AcDbLine
 10
195.097663
 20
340.478817
 30
0.0
 11
196.042831
 21
341.423985
 31
0.0
  0
LINE
  5
50B
330
4EE
100
AcDbEntity
  8
LC-004-005-----0
 62
     7
370
    25
100
AcDbLine
 10
195.097663
 20
341.044502
 30
0.0
 11
195.477146
 21
341.423985
 31
0.0
  0
ENDBLK
  5
4F0
330
4EE
100
AcDbEntity
  8
0
100
AcDbBlockEnd
  0
BLOCK
  5
50E
330
50D
100
AcDbEntity
  8
0
100
AcDbBlockBegin
  2
*X254
 70
     1
 71
     0
 10
0.0
 20
0.0
 30
0.0
  3
*X254
  1

  4
*X2
  0
LINE
  5
510
330
50D
100
AcDbEntity
  8
LC-004-005-----0
 62
     7
370
    25
100
AcDbLine
 10
224.718271
 20
336.723985
 30
0.0
 11
225.097663
 21
337.103377
 31
0.0
  0
LINE
  5
511
330
50D
100
AcDbEntity
  8
LC-004-005-----0
 62
     7
370
    25
100
AcDbLine
 10
224.152586
 20
336.723985
 30
0.0
 11
225.097663
 21
337.669062
 31
0.0
  0
LINE
  5
512
330
50D
100
AcDbEntity
  8
LC-004-005-----0
 62
     7
370
    25
100
AcDbLine
 10
223.5869
 20
336.723985
 30
0.0
 11
225.097663
 21
338.234748
 31
0.0
  0
LINE
  5
513
330
50D
100
AcDbEntity
  8
LC-004-005-----0
 62
     7
370
    25
100
AcDbLine
 10
223.021215
 20
336.723985
 30
0.0
 11
225.097663
 21
338.800433
 31
0.0
  0
LINE
  5
514
330
50D
100
AcDbEntity
  8
LC-004-005-----0
 62
     7
370
    25
100
AcDbLine
 10
222.45553
 20
336.723985
 30
0.0
 11
225.097663
 21
339.366119
 31
0.0
  0
LINE
  5
515
330
50D
100
AcDbEntity
  8
LC-004-005-----0
 62
     7
370
    25
100
AcDbLine
 10
221.889844
 20
336.723985
 30
0.0
 11
225.097663
 21
339.931804
 31
0.0
  0
LINE
  5
516
330
50D
100
AcDbEntity
  8
LC-004-005-----0
 62
     7
370
    25
100
AcDbLine
 10
221.324159
 20
336.723985
 30
0.0
 11
225.097663
 21
340.497489
 31
0.0
  0
LINE
  5
517
330
50D
100
AcDbEntity
  8
LC-004-005-----0
 62
     7
370
    25
100
AcDbLine
 10
220.758473
 20
336.723985
 30
0.0
 11
225.097663
 21
341.063175
 31
0.0
  0
LINE
  5
518
330
50D
100
AcDbEntity
  8
LC-004-005-----0
 62
     7
370
    25
100
AcDbLine
 10
220.192788
 20
336.723985
 30
0.0
 11
224.892788
 21
341.423985
 31
0.0
  0
LINE
  5
519
330
50D
100
AcDbEntity
  8
LC-004-005-----0
 62
     7
370
    25
100
AcDbLine
 10
219.627102
 20
336.723985
 30
0.0
 11
224.327102
 21
341.423985
 31
0.0
  0
LINE
  5
51A
330
50D
100
AcDbEntity
  8
LC-004-005-----0
 62
     7
370
    25
100
AcDbLine
 10
219.061417
 20
336.723985
 30
0.0
 11
223.761417
 21
341.423985
 31
0.0
  0
LINE
  5
51B
330
50D
100
AcDbEntity
  8
LC-004-005-----0
 62
     7
370
    25
100
AcDbLine
 10
218.495732
 20
336.723985
 30
0.0
 11
223.195732
 21
341.423985
 31
0.0
  0
LINE
  5
51C
330
50D
100
AcDbEntity
  8
LC-004-005-----0
 62
     7
370
    25
100
AcDbLine
 10
217.930046
 20
336.723985
 30
0.0
 11
222.630046
 21
341.423985
 31
0.0
  0
LINE
  5
51D
330
50D
100
AcDbEntity
  8
LC-004-005-----0
 62
     7
370
    25
100
AcDbLine
 10
217.364361
 20
336.723985
 30
0.0
 11
222.064361
 21
341.423985
 31
0.0
  0
LINE
  5
51E
330
50D
100
AcDbEntity
  8
LC-004-005-----0
 62
     7
370
    25
100
AcDbLine
 10
216.798675
 20
336.723985
 30
0.0
 11
221.498675
 21
341.423985
 31
0.0
  0
LINE
  5
51F
330
50D
100
AcDbEntity
  8
LC-004-005-----0
 62
     7
370
    25
100
AcDbLine
 10
216.23299
 20
336.723985
 30
0.0
 11
220.93299
 21
341.423985
 31
0.0
  0
LINE
  5
520
330
50D
100
AcDbEntity
  8
LC-004-005-----0
 62
     7
370
    25
100
AcDbLine
 10
215.667305
 20
336.723985
 30
0.0
 11
220.367305
 21
341.423985
 31
0.0
  0
LINE
  5
521
330
50D
100
AcDbEntity
  8
LC-004-005-----0
 62
     7
370
    25
100
AcDbLine
 10
215.101619
 20
336.723985
 30
0.0
 11
219.801619
 21
341.423985
 31
0.0
  0
LINE
  5
522
330
50D
100
AcDbEntity
  8
LC-004-005-----0
 62
     7
370
    25
100
AcDbLine
 10
215.097663
 20
337.285715
 30
0.0
 11
219.235934
 21
341.423985
 31
0.0
  0
LINE
  5
523
330
50D
100
AcDbEntity
  8
LC-004-005-----0
 62
     7
370
    25
100
AcDbLine
 10
215.097663
 20
337.8514
 30
0.0
 11
218.670248
 21
341.423985
 31
0.0
  0
LINE
  5
524
330
50D
100
AcDbEntity
  8
LC-004-005-----0
 62
     7
370
    25
100
AcDbLine
 10
215.097663
 20
338.417085
 30
0.0
 11
218.104563
 21
341.423985
 31
0.0
  0
LINE
  5
525
330
50D
100
AcDbEntity
  8
LC-004-005-----0
 62
     7
370
    25
100
AcDbLine
 10
215.097663
 20
338.982771
 30
0.0
 11
217.538877
 21
341.423985
 31
0.0
  0
LINE
  5
526
330
50D
100
AcDbEntity
  8
LC-004-005-----0
 62
     7
370
    25
100
AcDbLine
 10
215.097663
 20
339.548456
 30
0.0
 11
216.973192
 21
341.423985
 31
0.0
  0
LINE
  5
527
330
50D
100
AcDbEntity
  8
LC-004-005-----0
 62
     7
370
    25
100
AcDbLine
 10
215.097663
 20
340.114142
 30
0.0
 11
216.407507
 21
341.423985
 31
0.0
  0
LINE
  5
528
330
50D
100
AcDbEntity
  8
LC-004-005-----0
 62
     7
370
    25
100
AcDbLine
 10
215.097663
 20
340.679827
 30
0.0
 11
215.841821
 21
341.423985
 31
0.0
  0
LINE
  5
529
330
50D
100
AcDbEntity
  8
LC-004-005-----0
 62
     7
370
    25
100
AcDbLine
 10
215.097663
 20
341.245513
 30
0.0
 11
215.276136
 21
341.423985
 31
0.0
  0
ENDBLK
  5
50F
330
50D
100
AcDbEntity
  8
0
100
AcDbBlockEnd
  0
BLOCK
  5
52C
330
52B
100
AcDbEntity
  8
0
100
AcDbBlockBegin
  2
*X355
 70
     1
 71
     0
 10
0.0
 20
0.0
 30
0.0
  3
*X355
  1

  4
*X3
  0
LINE
  5
52E
330
52B
100
AcDbEntity
  8
LC-004-005-----0
 62
     7
370
    25
100
AcDbLine
 10
245.082947
 20
336.723985
 30
0.0
 11
245.097663
 21
336.738702
 31
0.0
  0
LINE
  5
52F
330
52B
100
AcDbEntity
  8
LC-004-005-----0
 62
     7
370
    25
100
AcDbLine
 10
244.517261
 20
336.723985
 30
0.0
 11
245.097663
 21
337.304387
 31
0.0
  0
LINE
  5
530
330
52B
100
AcDbEntity
  8
LC-004-005-----0
 62
     7
370
    25
100
AcDbLine
 10
243.951576
 20
336.723985
 30
0.0
 11
245.097663
 21
337.870072
 31
0.0
  0
LINE
  5
531
330
52B
100
AcDbEntity
  8
LC-004-005-----0
 62
     7
370
    25
100
AcDbLine
 10
243.38589
 20
336.723985
 30
0.0
 11
245.097663
 21
338.435758
 31
0.0
  0
LINE
  5
532
330
52B
100
AcDbEntity
  8
LC-004-005-----0
 62
     7
370
    25
100
AcDbLine
 10
242.820205
 20
336.723985
 30
0.0
 11
245.097663
 21
339.001443
 31
0.0
  0
LINE
  5
533
330
52B
100
AcDbEntity
  8
LC-004-005-----0
 62
     7
370
    25
100
AcDbLine
 10
242.254519
 20
336.723985
 30
0.0
 11
245.097663
 21
339.567129
 31
0.0
  0
LINE
  5
534
330
52B
100
AcDbEntity
  8
LC-004-005-----0
 62
     7
370
    25
100
AcDbLine
 10
241.688834
 20
336.723985
 30
0.0
 11
245.097663
 21
340.132814
 31
0.0
  0
LINE
  5
535
330
52B
100
AcDbEntity
  8
LC-004-005-----0
 62
     7
370
    25
100
AcDbLine
 10
241.123149
 20
336.723985
 30
0.0
 11
245.097663
 21
340.6985
 31
0.0
  0
LINE
  5
536
330
52B
100
AcDbEntity
  8
LC-004-005-----0
 62
     7
370
    25
100
AcDbLine
 10
240.557463
 20
336.723985
 30
0.0
 11
245.097663
 21
341.264185
 31
0.0
  0
LINE
  5
537
330
52B
100
AcDbEntity
  8
LC-004-005-----0
 62
     7
370
    25
100
AcDbLine
 10
239.991778
 20
336.723985
 30
0.0
 11
244.691778
 21
341.423985
 31
0.0
  0
LINE
  5
538
330
52B
100
AcDbEntity
  8
LC-004-005-----0
 62
     7
370
    25
100
AcDbLine
 10
239.426092
 20
336.723985
 30
0.0
 11
244.126092
 21
341.423985
 31
0.0
  0
LINE
  5
539
330
52B
100
AcDbEntity
  8
LC-004-005-----0
 62
     7
370
    25
100
AcDbLine
 10
238.860407
 20
336.723985
 30
0.0
 11
243.560407
 21
341.423985
 31
0.0
  0
LINE
  5
53A
330
52B
100
AcDbEntity
  8
LC-004-005-----0
 62
     7
370
    25
100
AcDbLine
 10
238.294722
 20
336.723985
 30
0.0
 11
242.994722
 21
341.423985
 31
0.0
  0
LINE
  5
53B
330
52B
100
AcDbEntity
  8
LC-004-005-----0
 62
     7
370
    25
100
AcDbLine
 10
237.729036
 20
336.723985
 30
0.0
 11
242.429036
 21
341.423985
 31
0.0
  0
LINE
  5
53C
330
52B
100
AcDbEntity
  8
LC-004-005-----0
 62
     7
370
    25
100
AcDbLine
 10
237.163351
 20
336.723985
 30
0.0
 11
241.863351
 21
341.423985
 31
0.0
  0
LINE
  5
53D
330
52B
100
AcDbEntity
  8
LC-004-005-----0
 62
     7
370
    25
100
AcDbLine
 10
236.597665
 20
336.723985
 30
0.0
 11
241.297665
 21
341.423985
 31
0.0
  0
LINE
  5
53E
330
52B
100
AcDbEntity
  8
LC-004-005-----0
 62
     7
370
    25
100
AcDbLine
 10
236.03198
 20
336.723985
 30
0.0
 11
240.73198
 21
341.423985
 31
0.0
  0
LINE
  5
53F
330
52B
100
AcDbEntity
  8
LC-004-005-----0
 62
     7
370
    25
100
AcDbLine
 10
235.466294
 20
336.723985
 30
0.0
 11
240.166294
 21
341.423985
 31
0.0
  0
LINE
  5
540
330
52B
100
AcDbEntity
  8
LC-004-005-----0
 62
     7
370
    25
100
AcDbLine
 10
235.097663
 20
336.921039
 30
0.0
 11
239.600609
 21
341.423985
 31
0.0
  0
LINE
  5
541
330
52B
100
AcDbEntity
  8
LC-004-005-----0
 62
     7
370
    25
100
AcDbLine
 10
235.097663
 20
337.486725
 30
0.0
 11
239.034924
 21
341.423985
 31
0.0
  0
LINE
  5
542
330
52B
100
AcDbEntity
  8
LC-004-005-----0
 62
     7
370
    25
100
AcDbLine
 10
235.097663
 20
338.05241
 30
0.0
 11
238.469238
 21
341.423985
 31
0.0
  0
LINE
  5
543
330
52B
100
AcDbEntity
  8
LC-004-005-----0
 62
     7
370
    25
100
AcDbLine
 10
235.097663
 20
338.618096
 30
0.0
 11
237.903553
 21
341.423985
 31
0.0
  0
LINE
  5
544
330
52B
100
AcDbEntity
  8
LC-004-005-----0
 62
     7
370
    25
100
AcDbLine
 10
235.097663
 20
339.183781
 30
0.0
 11
237.337867
 21
341.423985
 31
0.0
  0
LINE
  5
545
330
52B
100
AcDbEntity
  8
LC-004-005-----0
 62
     7
370
    25
100
AcDbLine
 10
235.097663
 20
339.749466
 30
0.0
 11
236.772182
 21
341.423985
 31
0.0
  0
LINE
  5
546
330
52B
100
AcDbEntity
  8
LC-004-005-----0
 62
     7
370
    25
100
AcDbLine
 10
235.097663
 20
340.315152
 30
0.0
 11
236.206496
 21
341.423985
 31
0.0
  0
LINE
  5
547
330
52B
100
AcDbEntity
  8
LC-004-005-----0
 62
     7
370
    25
100
AcDbLine
 10
235.097663
 20
340.880837
 30
0.0
 11
235.640811
 21
341.423985
 31
0.0
  0
ENDBLK
  5
52D
330
52B
100
AcDbEntity
  8
0
100
AcDbBlockEnd
  0
BLOCK
  5
54A
330
549
100
AcDbEntity
  8
0
100
AcDbBlockBegin
  2
*X456
 70
     1
 71
     0
 10
0.0
 20
0.0
 30
0.0
  3
*X456
  1

  4
*X4
  0
LINE
  5
54C
330
549
100
AcDbEntity
  8
LC-004-005-----0
 62
     7
370
    25
100
AcDbLine
 10
264.881936
 20
336.723985
 30
0.0
 11
265.097663
 21
336.939712
 31
0.0
  0
LINE
  5
54D
330
549
100
AcDbEntity
  8
LC-004-005-----0
 62
     7
370
    25
100
AcDbLine
 10
264.316251
 20
336.723985
 30
0.0
 11
265.097663
 21
337.505397
 31
0.0
  0
LINE
  5
54E
330
549
100
AcDbEntity
  8
LC-004-005-----0
 62
     7
370
    25
100
AcDbLine
 10
263.750566
 20
336.723985
 30
0.0
 11
265.097663
 21
338.071083
 31
0.0
  0
LINE
  5
54F
330
549
100
AcDbEntity
  8
LC-004-005-----0
 62
     7
370
    25
100
AcDbLine
 10
263.18488
 20
336.723985
 30
0.0
 11
265.097663
 21
338.636768
 31
0.0
  0
LINE
  5
550
330
549
100
AcDbEntity
  8
LC-004-005-----0
 62
     7
370
    25
100
AcDbLine
 10
262.619195
 20
336.723985
 30
0.0
 11
265.097663
 21
339.202453
 31
0.0
  0
LINE
  5
551
330
549
100
AcDbEntity
  8
LC-004-005-----0
 62
     7
370
    25
100
AcDbLine
 10
262.053509
 20
336.723985
 30
0.0
 11
265.097663
 21
339.768139
 31
0.0
  0
LINE
  5
552
330
549
100
AcDbEntity
  8
LC-004-005-----0
 62
     7
370
    25
100
AcDbLine
 10
261.487824
 20
336.723985
 30
0.0
 11
265.097663
 21
340.333824
 31
0.0
  0
LINE
  5
553
330
549
100
AcDbEntity
  8
LC-004-005-----0
 62
     7
370
    25
100
AcDbLine
 10
260.922139
 20
336.723985
 30
0.0
 11
265.097663
 21
340.89951
 31
0.0
  0
LINE
  5
554
330
549
100
AcDbEntity
  8
LC-004-005-----0
 62
     7
370
    25
100
AcDbLine
 10
260.356453
 20
336.723985
 30
0.0
 11
265.056453
 21
341.423985
 31
0.0
  0
LINE
  5
555
330
549
100
AcDbEntity
  8
LC-004-005-----0
 62
     7
370
    25
100
AcDbLine
 10
259.790768
 20
336.723985
 30
0.0
 11
264.490768
 21
341.423985
 31
0.0
  0
LINE
  5
556
330
549
100
AcDbEntity
  8
LC-004-005-----0
 62
     7
370
    25
100
AcDbLine
 10
259.225082
 20
336.723985
 30
0.0
 11
263.925082
 21
341.423985
 31
0.0
  0
LINE
  5
557
330
549
100
AcDbEntity
  8
LC-004-005-----0
 62
     7
370
    25
100
AcDbLine
 10
258.659397
 20
336.723985
 30
0.0
 11
263.359397
 21
341.423985
 31
0.0
  0
LINE
  5
558
330
549
100
AcDbEntity
  8
LC-004-005-----0
 62
     7
370
    25
100
AcDbLine
 10
258.093711
 20
336.723985
 30
0.0
 11
262.793711
 21
341.423985
 31
0.0
  0
LINE
  5
559
330
549
100
AcDbEntity
  8
LC-004-005-----0
 62
     7
370
    25
100
AcDbLine
 10
257.528026
 20
336.723985
 30
0.0
 11
262.228026
 21
341.423985
 31
0.0
  0
LINE
  5
55A
330
549
100
AcDbEntity
  8
LC-004-005-----0
 62
     7
370
    25
100
AcDbLine
 10
256.962341
 20
336.723985
 30
0.0
 11
261.662341
 21
341.423985
 31
0.0
  0
LINE
  5
55B
330
549
100
AcDbEntity
  8
LC-004-005-----0
 62
     7
370
    25
100
AcDbLine
 10
256.396655
 20
336.723985
 30
0.0
 11
261.096655
 21
341.423985
 31
0.0
  0
LINE
  5
55C
330
549
100
AcDbEntity
  8
LC-004-005-----0
 62
     7
370
    25
100
AcDbLine
 10
255.83097
 20
336.723985
 30
0.0
 11
260.53097
 21
341.423985
 31
0.0
  0
LINE
  5
55D
330
549
100
AcDbEntity
  8
LC-004-005-----0
 62
     7
370
    25
100
AcDbLine
 10
255.265284
 20
336.723985
 30
0.0
 11
259.965284
 21
341.423985
 31
0.0
  0
LINE
  5
55E
330
549
100
AcDbEntity
  8
LC-004-005-----0
 62
     7
370
    25
100
AcDbLine
 10
255.097663
 20
337.122049
 30
0.0
 11
259.399599
 21
341.423985
 31
0.0
  0
LINE
  5
55F
330
549
100
AcDbEntity
  8
LC-004-005-----0
 62
     7
370
    25
100
AcDbLine
 10
255.097663
 20
337.687735
 30
0.0
 11
258.833913
 21
341.423985
 31
0.0
  0
LINE
  5
560
330
549
100
AcDbEntity
  8
LC-004-005-----0
 62
     7
370
    25
100
AcDbLine
 10
255.097663
 20
338.25342
 30
0.0
 11
258.268228
 21
341.423985
 31
0.0
  0
LINE
  5
561
330
549
100
AcDbEntity
  8
LC-004-005-----0
 62
     7
370
    25
100
AcDbLine
 10
255.097663
 20
338.819106
 30
0.0
 11
257.702543
 21
341.423985
 31
0.0
  0
LINE
  5
562
330
549
100
AcDbEntity
  8
LC-004-005-----0
 62
     7
370
    25
100
AcDbLine
 10
255.097663
 20
339.384791
 30
0.0
 11
257.136857
 21
341.423985
 31
0.0
  0
LINE
  5
563
330
549
100
AcDbEntity
  8
LC-004-005-----0
 62
     7
370
    25
100
AcDbLine
 10
255.097663
 20
339.950476
 30
0.0
 11
256.571172
 21
341.423985
 31
0.0
  0
LINE
  5
564
330
549
100
AcDbEntity
  8
LC-004-005-----0
 62
     7
370
    25
100
AcDbLine
 10
255.097663
 20
340.516162
 30
0.0
 11
256.005486
 21
341.423985
 31
0.0
  0
LINE
  5
565
330
549
100
AcDbEntity
  8
LC-004-005-----0
 62
     7
370
    25
100
AcDbLine
 10
255.097663
 20
341.081847
 30
0.0
 11
255.439801
 21
341.423985
 31
0.0
  0
ENDBLK
  5
54B
330
549
100
AcDbEntity
  8
0
100
AcDbBlockEnd
  0
BLOCK
  5
568
330
567
100
AcDbEntity
  8
0
100
AcDbBlockBegin
  2
*X557
 70
     1
 71
     0
 10
0.0
 20
0.0
 30
0.0
  3
*X557
  1

  4
*X5
  0
LINE
  5
56A
330
567
100
AcDbEntity
  8
LC-004-005-----0
 62
     7
370
    25
100
AcDbLine
 10
284.680926
 20
336.723985
 30
0.0
 11
285.097663
 21
337.140722
 31
0.0
  0
LINE
  5
56B
330
567
100
AcDbEntity
  8
LC-004-005-----0
 62
     7
370
    25
100
AcDbLine
 10
284.115241
 20
336.723985
 30
0.0
 11
285.097663
 21
337.706407
 31
0.0
  0
LINE
  5
56C
330
567
100
AcDbEntity
  8
LC-004-005-----0
 62
     7
370
    25
100
AcDbLine
 10
283.549556
 20
336.723985
 30
0.0
 11
285.097663
 21
338.272093
 31
0.0
  0
LINE
  5
56D
330
567
100
AcDbEntity
  8
LC-004-005-----0
 62
     7
370
    25
100
AcDbLine
 10
282.98387
 20
336.723985
 30
0.0
 11
285.097663
 21
338.837778
 31
0.0
  0
LINE
  5
56E
330
567
100
AcDbEntity
  8
LC-004-005-----0
 62
     7
370
    25
100
AcDbLine
 10
282.418185
 20
336.723985
 30
0.0
 11
285.097663
 21
339.403464
 31
0.0
  0
LINE
  5
56F
330
567
100
AcDbEntity
  8
LC-004-005-----0
 62
     7
370
    25
100
AcDbLine
 10
281.852499
 20
336.723985
 30
0.0
 11
285.097663
 21
339.969149
 31
0.0
  0
LINE
  5
570
330
567
100
AcDbEntity
  8
LC-004-005-----0
 62
     7
370
    25
100
AcDbLine
 10
281.286814
 20
336.723985
 30
0.0
 11
285.097663
 21
340.534834
 31
0.0
  0
LINE
  5
571
330
567
100
AcDbEntity
  8
LC-004-005-----0
 62
     7
370
    25
100
AcDbLine
 10
280.721128
 20
336.723985
 30
0.0
 11
285.097663
 21
341.10052
 31
0.0
  0
LINE
  5
572
330
567
100
AcDbEntity
  8
LC-004-005-----0
 62
     7
370
    25
100
AcDbLine
 10
280.155443
 20
336.723985
 30
0.0
 11
284.855443
 21
341.423985
 31
0.0
  0
LINE
  5
573
330
567
100
AcDbEntity
  8
LC-004-005-----0
 62
     7
370
    25
100
AcDbLine
 10
279.589758
 20
336.723985
 30
0.0
 11
284.289758
 21
341.423985
 31
0.0
  0
LINE
  5
574
330
567
100
AcDbEntity
  8
LC-004-005-----0
 62
     7
370
    25
100
AcDbLine
 10
279.024072
 20
336.723985
 30
0.0
 11
283.724072
 21
341.423985
 31
0.0
  0
LINE
  5
575
330
567
100
AcDbEntity
  8
LC-004-005-----0
 62
     7
370
    25
100
AcDbLine
 10
278.458387
 20
336.723985
 30
0.0
 11
283.158387
 21
341.423985
 31
0.0
  0
LINE
  5
576
330
567
100
AcDbEntity
  8
LC-004-005-----0
 62
     7
370
    25
100
AcDbLine
 10
277.892701
 20
336.723985
 30
0.0
 11
282.592701
 21
341.423985
 31
0.0
  0
LINE
  5
577
330
567
100
AcDbEntity
  8
LC-004-005-----0
 62
     7
370
    25
100
AcDbLine
 10
277.327016
 20
336.723985
 30
0.0
 11
282.027016
 21
341.423985
 31
0.0
  0
LINE
  5
578
330
567
100
AcDbEntity
  8
LC-004-005-----0
 62
     7
370
    25
100
AcDbLine
 10
276.76133
 20
336.723985
 30
0.0
 11
281.46133
 21
341.423985
 31
0.0
  0
LINE
  5
579
330
567
100
AcDbEntity
  8
LC-004-005-----0
 62
     7
370
    25
100
AcDbLine
 10
276.195645
 20
336.723985
 30
0.0
 11
280.895645
 21
341.423985
 31
0.0
  0
LINE
  5
57A
330
567
100
AcDbEntity
  8
LC-004-005-----0
 62
     7
370
    25
100
AcDbLine
 10
275.62996
 20
336.723985
 30
0.0
 11
280.32996
 21
341.423985
 31
0.0
  0
LINE
  5
57B
330
567
100
AcDbEntity
  8
LC-004-005-----0
 62
     7
370
    25
100
AcDbLine
 10
275.097663
 20
336.757374
 30
0.0
 11
279.764274
 21
341.423985
 31
0.0
  0
LINE
  5
57C
330
567
100
AcDbEntity
  8
LC-004-005-----0
 62
     7
370
    25
100
AcDbLine
 10
275.097663
 20
337.32306
 30
0.0
 11
279.198589
 21
341.423985
 31
0.0
  0
LINE
  5
57D
330
567
100
AcDbEntity
  8
LC-004-005-----0
 62
     7
370
    25
100
AcDbLine
 10
275.097663
 20
337.888745
 30
0.0
 11
278.632903
 21
341.423985
 31
0.0
  0
LINE
  5
57E
330
567
100
AcDbEntity
  8
LC-004-005-----0
 62
     7
370
    25
100
AcDbLine
 10
275.097663
 20
338.45443
 30
0.0
 11
278.067218
 21
341.423985
 31
0.0
  0
LINE
  5
57F
330
567
100
AcDbEntity
  8
LC-004-005-----0
 62
     7
370
    25
100
AcDbLine
 10
275.097663
 20
339.020116
 30
0.0
 11
277.501532
 21
341.423985
 31
0.0
  0
LINE
  5
580
330
567
100
AcDbEntity
  8
LC-004-005-----0
 62
     7
370
    25
100
AcDbLine
 10
275.097663
 20
339.585801
 30
0.0
 11
276.935847
 21
341.423985
 31
0.0
  0
LINE
  5
581
330
567
100
AcDbEntity
  8
LC-004-005-----0
 62
     7
370
    25
100
AcDbLine
 10
275.097663
 20
340.151487
 30
0.0
 11
276.370162
 21
341.423985
 31
0.0
  0
LINE
  5
582
330
567
100
AcDbEntity
  8
LC-004-005-----0
 62
     7
370
    25
100
AcDbLine
 10
275.097663
 20
340.717172
 30
0.0
 11
275.804476
 21
341.423985
 31
0.0
  0
LINE
  5
583
330
567
100
AcDbEntity
  8
LC-004-005-----0
 62
     7
370
    25
100
AcDbLine
 10
275.097663
 20
341.282857
 30
0.0
 11
275.238791
 21
341.423985
 31
0.0
  0
ENDBLK
  5
569
330
567
100
AcDbEntity
  8
0
100
AcDbBlockEnd
  0
BLOCK
  5
589
330
588
100
AcDbEntity
  8
0
100
AcDbBlockBegin
  2
*X658
 70
     1
 71
     0
 10
0.0
 20
0.0
 30
0.0
  3
*X658
  1

  4
*X6
  0
LINE
  5
58B
330
588
100
AcDbEntity
  8
LC-004-005-----0
 62
     7
370
    25
100
AcDbLine
 10
305.045602
 20
336.723985
 30
0.0
 11
305.097663
 21
336.776047
 31
0.0
  0
LINE
  5
58C
330
588
100
AcDbEntity
  8
LC-004-005-----0
 62
     7
370
    25
100
AcDbLine
 10
304.479916
 20
336.723985
 30
0.0
 11
305.097663
 21
337.341732
 31
0.0
  0
LINE
  5
58D
330
588
100
AcDbEntity
  8
LC-004-005-----0
 62
     7
370
    25
100
AcDbLine
 10
303.914231
 20
336.723985
 30
0.0
 11
305.097663
 21
337.907417
 31
0.0
  0
LINE
  5
58E
330
588
100
AcDbEntity
  8
LC-004-005-----0
 62
     7
370
    25
100
AcDbLine
 10
303.348545
 20
336.723985
 30
0.0
 11
305.097663
 21
338.473103
 31
0.0
  0
LINE
  5
58F
330
588
100
AcDbEntity
  8
LC-004-005-----0
 62
     7
370
    25
100
AcDbLine
 10
302.78286
 20
336.723985
 30
0.0
 11
305.097663
 21
339.038788
 31
0.0
  0
LINE
  5
590
330
588
100
AcDbEntity
  8
LC-004-005-----0
 62
     7
370
    25
100
AcDbLine
 10
302.217175
 20
336.723985
 30
0.0
 11
305.097663
 21
339.604474
 31
0.0
  0
LINE
  5
591
330
588
100
AcDbEntity
  8
LC-004-005-----0
 62
     7
370
    25
100
AcDbLine
 10
301.651489
 20
336.723985
 30
0.0
 11
305.097663
 21
340.170159
 31
0.0
  0
LINE
  5
592
330
588
100
AcDbEntity
  8
LC-004-005-----0
 62
     7
370
    25
100
AcDbLine
 10
301.085804
 20
336.723985
 30
0.0
 11
305.097663
 21
340.735845
 31
0.0
  0
LINE
  5
593
330
588
100
AcDbEntity
  8
LC-004-005-----0
 62
     7
370
    25
100
AcDbLine
 10
300.520118
 20
336.723985
 30
0.0
 11
305.097663
 21
341.30153
 31
0.0
  0
LINE
  5
594
330
588
100
AcDbEntity
  8
LC-004-005-----0
 62
     7
370
    25
100
AcDbLine
 10
299.954433
 20
336.723985
 30
0.0
 11
304.654433
 21
341.423985
 31
0.0
  0
LINE
  5
595
330
588
100
AcDbEntity
  8
LC-004-005-----0
 62
     7
370
    25
100
AcDbLine
 10
299.388747
 20
336.723985
 30
0.0
 11
304.088747
 21
341.423985
 31
0.0
  0
LINE
  5
596
330
588
100
AcDbEntity
  8
LC-004-005-----0
 62
     7
370
    25
100
AcDbLine
 10
298.823062
 20
336.723985
 30
0.0
 11
303.523062
 21
341.423985
 31
0.0
  0
LINE
  5
597
330
588
100
AcDbEntity
  8
LC-004-005-----0
 62
     7
370
    25
100
AcDbLine
 10
298.257377
 20
336.723985
 30
0.0
 11
302.957377
 21
341.423985
 31
0.0
  0
LINE
  5
598
330
588
100
AcDbEntity
  8
LC-004-005-----0
 62
     7
370
    25
100
AcDbLine
 10
297.691691
 20
336.723985
 30
0.0
 11
302.391691
 21
341.423985
 31
0.0
  0
LINE
  5
599
330
588
100
AcDbEntity
  8
LC-004-005-----0
 62
     7
370
    25
100
AcDbLine
 10
297.126006
 20
336.723985
 30
0.0
 11
301.826006
 21
341.423985
 31
0.0
  0
LINE
  5
59A
330
588
100
AcDbEntity
  8
LC-004-005-----0
 62
     7
370
    25
100
AcDbLine
 10
296.56032
 20
336.723985
 30
0.0
 11
301.26032
 21
341.423985
 31
0.0
  0
LINE
  5
59B
330
588
100
AcDbEntity
  8
LC-004-005-----0
 62
     7
370
    25
100
AcDbLine
 10
295.994635
 20
336.723985
 30
0.0
 11
300.694635
 21
341.423985
 31
0.0
  0
LINE
  5
59C
330
588
100
AcDbEntity
  8
LC-004-005-----0
 62
     7
370
    25
100
AcDbLine
 10
295.428949
 20
336.723985
 30
0.0
 11
300.128949
 21
341.423985
 31
0.0
  0
LINE
  5
59D
330
588
100
AcDbEntity
  8
LC-004-005-----0
 62
     7
370
    25
100
AcDbLine
 10
295.097663
 20
336.958384
 30
0.0
 11
299.563264
 21
341.423985
 31
0.0
  0
LINE
  5
59E
330
588
100
AcDbEntity
  8
LC-004-005-----0
 62
     7
370
    25
100
AcDbLine
 10
295.097663
 20
337.52407
 30
0.0
 11
298.997579
 21
341.423985
 31
0.0
  0
LINE
  5
59F
330
588
100
AcDbEntity
  8
LC-004-005-----0
 62
     7
370
    25
100
AcDbLine
 10
295.097663
 20
338.089755
 30
0.0
 11
298.431893
 21
341.423985
 31
0.0
  0
LINE
  5
5A0
330
588
100
AcDbEntity
  8
LC-004-005-----0
 62
     7
370
    25
100
AcDbLine
 10
295.097663
 20
338.65544
 30
0.0
 11
297.866208
 21
341.423985
 31
0.0
  0
LINE
  5
5A1
330
588
100
AcDbEntity
  8
LC-004-005-----0
 62
     7
370
    25
100
AcDbLine
 10
295.097663
 20
339.221126
 30
0.0
 11
297.300522
 21
341.423985
 31
0.0
  0
LINE
  5
5A2
330
588
100
AcDbEntity
  8
LC-004-005-----0
 62
     7
370
    25
100
AcDbLine
 10
295.097663
 20
339.786811
 30
0.0
 11
296.734837
 21
341.423985
 31
0.0
  0
LINE
  5
5A3
330
588
100
AcDbEntity
  8
LC-004-005-----0
 62
     7
370
    25
100
AcDbLine
 10
295.097663
 20
340.352497
 30
0.0
 11
296.169151
 21
341.423985
 31
0.0
  0
LINE
  5
5A4
330
588
100
AcDbEntity
  8
LC-004-005-----0
 62
     7
370
    25
100
AcDbLine
 10
295.097663
 20
340.918182
 30
0.0
 11
295.603466
 21
341.423985
 31
0.0
  0
ENDBLK
  5
58A
330
588
100
AcDbEntity
  8
0
100
AcDbBlockEnd
  0
BLOCK
  5
5AB
330
5AA
100
AcDbEntity
  8
0
100
AcDbBlockBegin
  2
*X759
 70
     1
 71
     0
 10
0.0
 20
0.0
 30
0.0
  3
*X759
  1

  4
*X7
  0
LINE
  5
5AD
330
5AA
100
AcDbEntity
  8
LC-004-005-----0
 62
     7
370
    25
100
AcDbLine
 10
345.014547
 20
328.043985
 30
0.0
 11
345.097663
 21
328.1271
 31
0.0
  0
LINE
  5
5AE
330
5AA
100
AcDbEntity
  8
LC-004-005-----0
 62
     7
370
    25
100
AcDbLine
 10
344.448862
 20
328.043985
 30
0.0
 11
345.097663
 21
328.692785
 31
0.0
  0
LINE
  5
5AF
330
5AA
100
AcDbEntity
  8
LC-004-005-----0
 62
     7
370
    25
100
AcDbLine
 10
343.883176
 20
328.043985
 30
0.0
 11
345.097663
 21
329.258471
 31
0.0
  0
LINE
  5
5B0
330
5AA
100
AcDbEntity
  8
LC-004-005-----0
 62
     7
370
    25
100
AcDbLine
 10
343.317491
 20
328.043985
 30
0.0
 11
345.097663
 21
329.824156
 31
0.0
  0
LINE
  5
5B1
330
5AA
100
AcDbEntity
  8
LC-004-005-----0
 62
     7
370
    25
100
AcDbLine
 10
342.751806
 20
328.043985
 30
0.0
 11
345.097663
 21
330.389842
 31
0.0
  0
LINE
  5
5B2
330
5AA
100
AcDbEntity
  8
LC-004-005-----0
 62
     7
370
    25
100
AcDbLine
 10
342.18612
 20
328.043985
 30
0.0
 11
345.097663
 21
330.955527
 31
0.0
  0
LINE
  5
5B3
330
5AA
100
AcDbEntity
  8
LC-004-005-----0
 62
     7
370
    25
100
AcDbLine
 10
341.620435
 20
328.043985
 30
0.0
 11
345.097663
 21
331.521213
 31
0.0
  0
LINE
  5
5B4
330
5AA
100
AcDbEntity
  8
LC-004-005-----0
 62
     7
370
    25
100
AcDbLine
 10
341.152926
 20
328.142161
 30
0.0
 11
345.097663
 21
332.086898
 31
0.0
  0
LINE
  5
5B5
330
5AA
100
AcDbEntity
  8
LC-004-005-----0
 62
     7
370
    25
100
AcDbLine
 10
340.738191
 20
328.293112
 30
0.0
 11
345.097663
 21
332.652583
 31
0.0
  0
LINE
  5
5B6
330
5AA
100
AcDbEntity
  8
LC-004-005-----0
 62
     7
370
    25
100
AcDbLine
 10
340.323457
 20
328.444063
 30
0.0
 11
344.553378
 21
332.673984
 31
0.0
  0
LINE
  5
5B7
330
5AA
100
AcDbEntity
  8
LC-004-005-----0
 62
     7
370
    25
100
AcDbLine
 10
339.908722
 20
328.595014
 30
0.0
 11
343.987692
 21
332.673984
 31
0.0
  0
LINE
  5
5B8
330
5AA
100
AcDbEntity
  8
LC-004-005-----0
 62
     7
370
    25
100
AcDbLine
 10
339.493988
 20
328.745965
 30
0.0
 11
343.422007
 21
332.673984
 31
0.0
  0
LINE
  5
5B9
330
5AA
100
AcDbEntity
  8
LC-004-005-----0
 62
     7
370
    25
100
AcDbLine
 10
339.079253
 20
328.896916
 30
0.0
 11
342.856322
 21
332.673984
 31
0.0
  0
LINE
  5
5BA
330
5AA
100
AcDbEntity
  8
LC-004-005-----0
 62
     7
370
    25
100
AcDbLine
 10
338.664519
 20
329.047867
 30
0.0
 11
342.290636
 21
332.673984
 31
0.0
  0
LINE
  5
5BB
330
5AA
100
AcDbEntity
  8
LC-004-005-----0
 62
     7
370
    25
100
AcDbLine
 10
338.249784
 20
329.198818
 30
0.0
 11
341.864103
 21
332.813136
 31
0.0
  0
LINE
  5
5BC
330
5AA
100
AcDbEntity
  8
LC-004-005-----0
 62
     7
370
    25
100
AcDbLine
 10
337.83505
 20
329.349769
 30
0.0
 11
341.44937
 21
332.964089
 31
0.0
  0
LINE
  5
5BD
330
5AA
100
AcDbEntity
  8
LC-004-005-----0
 62
     7
370
    25
100
AcDbLine
 10
337.420315
 20
329.50072
 30
0.0
 11
341.034638
 21
333.115042
 31
0.0
  0
LINE
  5
5BE
330
5AA
100
AcDbEntity
  8
LC-004-005-----0
 62
     7
370
    25
100
AcDbLine
 10
337.005581
 20
329.651671
 30
0.0
 11
340.619905
 21
333.265994
 31
0.0
  0
LINE
  5
5BF
330
5AA
100
AcDbEntity
  8
LC-004-005-----0
 62
     7
370
    25
100
AcDbLine
 10
336.590847
 20
329.802621
 30
0.0
 11
340.205172
 21
333.416947
 31
0.0
  0
LINE
  5
5C0
330
5AA
100
AcDbEntity
  8
LC-004-005-----0
 62
     7
370
    25
100
AcDbLine
 10
336.176112
 20
329.953572
 30
0.0
 11
339.79044
 21
333.5679
 31
0.0
  0
LINE
  5
5C1
330
5AA
100
AcDbEntity
  8
LC-004-005-----0
 62
     7
370
    25
100
AcDbLine
 10
335.761378
 20
330.104523
 30
0.0
 11
339.375707
 21
333.718853
 31
0.0
  0
LINE
  5
5C2
330
5AA
100
AcDbEntity
  8
LC-004-005-----0
 62
     7
370
    25
100
AcDbLine
 10
335.346643
 20
330.255474
 30
0.0
 11
338.960975
 21
333.869806
 31
0.0
  0
LINE
  5
5C3
330
5AA
100
AcDbEntity
  8
LC-004-005-----0
 62
     7
370
    25
100
AcDbLine
 10
335.097663
 20
330.572179
 30
0.0
 11
338.546242
 21
334.020759
 31
0.0
  0
LINE
  5
5C4
330
5AA
100
AcDbEntity
  8
LC-004-005-----0
 62
     7
370
    25
100
AcDbLine
 10
335.097663
 20
331.137865
 30
0.0
 11
338.131509
 21
334.171711
 31
0.0
  0
LINE
  5
5C5
330
5AA
100
AcDbEntity
  8
LC-004-005-----0
 62
     7
370
    25
100
AcDbLine
 10
335.097663
 20
331.70355
 30
0.0
 11
337.716777
 21
334.322664
 31
0.0
  0
LINE
  5
5C6
330
5AA
100
AcDbEntity
  8
LC-004-005-----0
 62
     7
370
    25
100
AcDbLine
 10
335.097663
 20
332.269236
 30
0.0
 11
337.302044
 21
334.473617
 31
0.0
  0
LINE
  5
5C7
330
5AA
100
AcDbEntity
  8
LC-004-005-----0
 62
     7
370
    25
100
AcDbLine
 10
335.097663
 20
332.834921
 30
0.0
 11
336.887312
 21
334.62457
 31
0.0
  0
LINE
  5
5C8
330
5AA
100
AcDbEntity
  8
LC-004-005-----0
 62
     7
370
    25
100
AcDbLine
 10
335.097663
 20
333.400606
 30
0.0
 11
336.472579
 21
334.775523
 31
0.0
  0
LINE
  5
5C9
330
5AA
100
AcDbEntity
  8
LC-004-005-----0
 62
     7
370
    25
100
AcDbLine
 10
335.097663
 20
333.966292
 30
0.0
 11
336.057846
 21
334.926476
 31
0.0
  0
LINE
  5
5CA
330
5AA
100
AcDbEntity
  8
LC-004-005-----0
 62
     7
370
    25
100
AcDbLine
 10
335.097663
 20
334.531977
 30
0.0
 11
335.643114
 21
335.077428
 31
0.0
  0
LINE
  5
5CB
330
5AA
100
AcDbEntity
  8
LC-004-005-----0
 62
     7
370
    25
100
AcDbLine
 10
335.097663
 20
335.097663
 30
0.0
 11
335.228381
 21
335.228381
 31
0.0
  0
ENDBLK
  5
5AC
330
5AA
100
AcDbEntity
  8
0
100
AcDbBlockEnd
  0
BLOCK
  5
5CE
330
5CD
100
AcDbEntity
  8
0
100
AcDbBlockBegin
  2
*X860
 70
     1
 71
     0
 10
0.0
 20
0.0
 30
0.0
  3
*X860
  1

  4
*X8
  0
LINE
  5
5D0
330
5CD
100
AcDbEntity
  8
LC-004-005-----0
 62
     7
370
    25
100
AcDbLine
 10
324.978282
 20
334.029249
 30
0.0
 11
325.097663
 21
334.14863
 31
0.0
  0
LINE
  5
5D1
330
5CD
100
AcDbEntity
  8
LC-004-005-----0
 62
     7
370
    25
100
AcDbLine
 10
324.563548
 20
334.1802
 30
0.0
 11
325.097663
 21
334.714315
 31
0.0
  0
LINE
  5
5D2
330
5CD
100
AcDbEntity
  8
LC-004-005-----0
 62
     7
370
    25
100
AcDbLine
 10
324.148813
 20
334.331151
 30
0.0
 11
325.097663
 21
335.28
 31
0.0
  0
LINE
  5
5D3
330
5CD
100
AcDbEntity
  8
LC-004-005-----0
 62
     7
370
    25
100
AcDbLine
 10
323.734079
 20
334.482102
 30
0.0
 11
325.097663
 21
335.845686
 31
0.0
  0
LINE
  5
5D4
330
5CD
100
AcDbEntity
  8
LC-004-005-----0
 62
     7
370
    25
100
AcDbLine
 10
323.319344
 20
334.633053
 30
0.0
 11
325.097663
 21
336.411371
 31
0.0
  0
LINE
  5
5D5
330
5CD
100
AcDbEntity
  8
LC-004-005-----0
 62
     7
370
    25
100
AcDbLine
 10
322.90461
 20
334.784004
 30
0.0
 11
325.097663
 21
336.977057
 31
0.0
  0
LINE
  5
5D6
330
5CD
100
AcDbEntity
  8
LC-004-005-----0
 62
     7
370
    25
100
AcDbLine
 10
322.489875
 20
334.934955
 30
0.0
 11
325.097663
 21
337.542742
 31
0.0
  0
LINE
  5
5D7
330
5CD
100
AcDbEntity
  8
LC-004-005-----0
 62
     7
370
    25
100
AcDbLine
 10
322.075141
 20
335.085906
 30
0.0
 11
325.097663
 21
338.108428
 31
0.0
  0
LINE
  5
5D8
330
5CD
100
AcDbEntity
  8
LC-004-005-----0
 62
     7
370
    25
100
AcDbLine
 10
321.660407
 20
335.236857
 30
0.0
 11
325.097663
 21
338.674113
 31
0.0
  0
LINE
  5
5D9
330
5CD
100
AcDbEntity
  8
LC-004-005-----0
 62
     7
370
    25
100
AcDbLine
 10
321.245672
 20
335.387808
 30
0.0
 11
324.84602
 21
338.988156
 31
0.0
  0
LINE
  5
5DA
330
5CD
100
AcDbEntity
  8
LC-004-005-----0
 62
     7
370
    25
100
AcDbLine
 10
320.830938
 20
335.538759
 30
0.0
 11
324.334136
 21
339.041957
 31
0.0
  0
LINE
  5
5DB
330
5CD
100
AcDbEntity
  8
LC-004-005-----0
 62
     7
370
    25
100
AcDbLine
 10
320.416203
 20
335.68971
 30
0.0
 11
323.822252
 21
339.095758
 31
0.0
  0
LINE
  5
5DC
330
5CD
100
AcDbEntity
  8
LC-004-005-----0
 62
     7
370
    25
100
AcDbLine
 10
320.001469
 20
335.840661
 30
0.0
 11
323.310367
 21
339.149559
 31
0.0
  0
LINE
  5
5DD
330
5CD
100
AcDbEntity
  8
LC-004-005-----0
 62
     7
370
    25
100
AcDbLine
 10
319.586734
 20
335.991612
 30
0.0
 11
322.800887
 21
339.205765
 31
0.0
  0
LINE
  5
5DE
330
5CD
100
AcDbEntity
  8
LC-004-005-----0
 62
     7
370
    25
100
AcDbLine
 10
319.172
 20
336.142563
 30
0.0
 11
322.340721
 21
339.311283
 31
0.0
  0
LINE
  5
5DF
330
5CD
100
AcDbEntity
  8
LC-004-005-----0
 62
     7
370
    25
100
AcDbLine
 10
318.757265
 20
336.293514
 30
0.0
 11
321.935445
 21
339.471693
 31
0.0
  0
LINE
  5
5E0
330
5CD
100
AcDbEntity
  8
LC-004-005-----0
 62
     7
370
    25
100
AcDbLine
 10
318.342531
 20
336.444465
 30
0.0
 11
321.575345
 21
339.677278
 31
0.0
  0
LINE
  5
5E1
330
5CD
100
AcDbEntity
  8
LC-004-005-----0
 62
     7
370
    25
100
AcDbLine
 10
317.927796
 20
336.595416
 30
0.0
 11
321.255469
 21
339.923088
 31
0.0
  0
LINE
  5
5E2
330
5CD
100
AcDbEntity
  8
LC-004-005-----0
 62
     7
370
    25
100
AcDbLine
 10
317.490681
 20
336.723985
 30
0.0
 11
320.973704
 21
340.207009
 31
0.0
  0
LINE
  5
5E3
330
5CD
100
AcDbEntity
  8
LC-004-005-----0
 62
     7
370
    25
100
AcDbLine
 10
316.924996
 20
336.723985
 30
0.0
 11
320.71274
 21
340.51173
 31
0.0
  0
LINE
  5
5E4
330
5CD
100
AcDbEntity
  8
LC-004-005-----0
 62
     7
370
    25
100
AcDbLine
 10
316.35931
 20
336.723985
 30
0.0
 11
320.298008
 21
340.662683
 31
0.0
  0
LINE
  5
5E5
330
5CD
100
AcDbEntity
  8
LC-004-005-----0
 62
     7
370
    25
100
AcDbLine
 10
315.793625
 20
336.723985
 30
0.0
 11
319.883275
 21
340.813636
 31
0.0
  0
LINE
  5
5E6
330
5CD
100
AcDbEntity
  8
LC-004-005-----0
 62
     7
370
    25
100
AcDbLine
 10
315.227939
 20
336.723985
 30
0.0
 11
319.468542
 21
340.964588
 31
0.0
  0
LINE
  5
5E7
330
5CD
100
AcDbEntity
  8
LC-004-005-----0
 62
     7
370
    25
100
AcDbLine
 10
315.097663
 20
337.159394
 30
0.0
 11
319.05381
 21
341.115541
 31
0.0
  0
LINE
  5
5E8
330
5CD
100
AcDbEntity
  8
LC-004-005-----0
 62
     7
370
    25
100
AcDbLine
 10
315.097663
 20
337.72508
 30
0.0
 11
318.639077
 21
341.266494
 31
0.0
  0
LINE
  5
5E9
330
5CD
100
AcDbEntity
  8
LC-004-005-----0
 62
     7
370
    25
100
AcDbLine
 10
315.097663
 20
338.290765
 30
0.0
 11
318.224345
 21
341.417447
 31
0.0
  0
LINE
  5
5EA
330
5CD
100
AcDbEntity
  8
LC-004-005-----0
 62
     7
370
    25
100
AcDbLine
 10
315.097663
 20
338.856451
 30
0.0
 11
317.665188
 21
341.423976
 31
0.0
  0
LINE
  5
5EB
330
5CD
100
AcDbEntity
  8
LC-004-005-----0
 62
     7
370
    25
100
AcDbLine
 10
315.097663
 20
339.422136
 30
0.0
 11
317.099502
 21
341.423976
 31
0.0
  0
LINE
  5
5EC
330
5CD
100
AcDbEntity
  8
LC-004-005-----0
 62
     7
370
    25
100
AcDbLine
 10
315.097663
 20
339.987821
 30
0.0
 11
316.533817
 21
341.423976
 31
0.0
  0
LINE
  5
5ED
330
5CD
100
AcDbEntity
  8
LC-004-005-----0
 62
     7
370
    25
100
AcDbLine
 10
315.097663
 20
340.553507
 30
0.0
 11
315.968131
 21
341.423976
 31
0.0
  0
LINE
  5
5EE
330
5CD
100
AcDbEntity
  8
LC-004-005-----0
 62
     7
370
    25
100
AcDbLine
 10
315.097663
 20
341.119192
 30
0.0
 11
315.402446
 21
341.423976
 31
0.0
  0
ENDBLK
  5
5CF
330
5CD
100
AcDbEntity
  8
0
100
AcDbBlockEnd
  0
BLOCK
  5
5FA
330
5F9
100
AcDbEntity
  8
0
100
AcDbBlockBegin
  2
*X961
 70
     1
 71
     0
 10
0.0
 20
0.0
 30
0.0
  3
*X961
  1

  4
*X9
  0
LINE
  5
5FC
330
5F9
100
AcDbEntity
  8
LC-004-005-----0
 62
     7
370
    25
100
AcDbLine
 10
694.802859
 20
336.723985
 30
0.0
 11
695.097663
 21
337.018789
 31
0.0
  0
LINE
  5
5FD
330
5F9
100
AcDbEntity
  8
LC-004-005-----0
 62
     7
370
    25
100
AcDbLine
 10
694.237174
 20
336.723985
 30
0.0
 11
695.097663
 21
337.584474
 31
0.0
  0
LINE
  5
5FE
330
5F9
100
AcDbEntity
  8
LC-004-005-----0
 62
     7
370
    25
100
AcDbLine
 10
693.671489
 20
336.723985
 30
0.0
 11
695.097663
 21
338.15016
 31
0.0
  0
LINE
  5
5FF
330
5F9
100
AcDbEntity
  8
LC-004-005-----0
 62
     7
370
    25
100
AcDbLine
 10
693.105803
 20
336.723985
 30
0.0
 11
695.097663
 21
338.715845
 31
0.0
  0
LINE
  5
600
330
5F9
100
AcDbEntity
  8
LC-004-005-----0
 62
     7
370
    25
100
AcDbLine
 10
692.540118
 20
336.723985
 30
0.0
 11
695.097663
 21
339.28153
 31
0.0
  0
LINE
  5
601
330
5F9
100
AcDbEntity
  8
LC-004-005-----0
 62
     7
370
    25
100
AcDbLine
 10
691.974432
 20
336.723985
 30
0.0
 11
695.097663
 21
339.847216
 31
0.0
  0
LINE
  5
602
330
5F9
100
AcDbEntity
  8
LC-004-005-----0
 62
     7
370
    25
100
AcDbLine
 10
691.408747
 20
336.723985
 30
0.0
 11
695.097663
 21
340.412901
 31
0.0
  0
LINE
  5
603
330
5F9
100
AcDbEntity
  8
LC-004-005-----0
 62
     7
370
    25
100
AcDbLine
 10
690.843061
 20
336.723985
 30
0.0
 11
695.097663
 21
340.978587
 31
0.0
  0
LINE
  5
604
330
5F9
100
AcDbEntity
  8
LC-004-005-----0
 62
     7
370
    25
100
AcDbLine
 10
690.277376
 20
336.723985
 30
0.0
 11
694.977376
 21
341.423985
 31
0.0
  0
LINE
  5
605
330
5F9
100
AcDbEntity
  8
LC-004-005-----0
 62
     7
370
    25
100
AcDbLine
 10
689.711691
 20
336.723985
 30
0.0
 11
694.411691
 21
341.423985
 31
0.0
  0
LINE
  5
606
330
5F9
100
AcDbEntity
  8
LC-004-005-----0
 62
     7
370
    25
100
AcDbLine
 10
689.146005
 20
336.723985
 30
0.0
 11
693.846005
 21
341.423985
 31
0.0
  0
LINE
  5
607
330
5F9
100
AcDbEntity
  8
LC-004-005-----0
 62
     7
370
    25
100
AcDbLine
 10
688.58032
 20
336.723985
 30
0.0
 11
693.28032
 21
341.423985
 31
0.0
  0
LINE
  5
608
330
5F9
100
AcDbEntity
  8
LC-004-005-----0
 62
     7
370
    25
100
AcDbLine
 10
688.014634
 20
336.723985
 30
0.0
 11
692.714634
 21
341.423985
 31
0.0
  0
LINE
  5
609
330
5F9
100
AcDbEntity
  8
LC-004-005-----0
 62
     7
370
    25
100
AcDbLine
 10
687.448949
 20
336.723985
 30
0.0
 11
692.148949
 21
341.423985
 31
0.0
  0
LINE
  5
60A
330
5F9
100
AcDbEntity
  8
LC-004-005-----0
 62
     7
370
    25
100
AcDbLine
 10
686.883264
 20
336.723985
 30
0.0
 11
691.583264
 21
341.423985
 31
0.0
  0
LINE
  5
60B
330
5F9
100
AcDbEntity
  8
LC-004-005-----0
 62
     7
370
    25
100
AcDbLine
 10
686.317578
 20
336.723985
 30
0.0
 11
691.017578
 21
341.423985
 31
0.0
  0
LINE
  5
60C
330
5F9
100
AcDbEntity
  8
LC-004-005-----0
 62
     7
370
    25
100
AcDbLine
 10
685.751893
 20
336.723985
 30
0.0
 11
690.451893
 21
341.423985
 31
0.0
  0
LINE
  5
60D
330
5F9
100
AcDbEntity
  8
LC-004-005-----0
 62
     7
370
    25
100
AcDbLine
 10
685.186207
 20
336.723985
 30
0.0
 11
689.886207
 21
341.423985
 31
0.0
  0
LINE
  5
60E
330
5F9
100
AcDbEntity
  8
LC-004-005-----0
 62
     7
370
    25
100
AcDbLine
 10
685.097663
 20
337.201126
 30
0.0
 11
689.320522
 21
341.423985
 31
0.0
  0
LINE
  5
60F
330
5F9
100
AcDbEntity
  8
LC-004-005-----0
 62
     7
370
    25
100
AcDbLine
 10
685.097663
 20
337.766812
 30
0.0
 11
688.754836
 21
341.423985
 31
0.0
  0
LINE
  5
610
330
5F9
100
AcDbEntity
  8
LC-004-005-----0
 62
     7
370
    25
100
AcDbLine
 10
685.097663
 20
338.332497
 30
0.0
 11
688.189151
 21
341.423985
 31
0.0
  0
LINE
  5
611
330
5F9
100
AcDbEntity
  8
LC-004-005-----0
 62
     7
370
    25
100
AcDbLine
 10
685.097663
 20
338.898183
 30
0.0
 11
687.623466
 21
341.423985
 31
0.0
  0
LINE
  5
612
330
5F9
100
AcDbEntity
  8
LC-004-005-----0
 62
     7
370
    25
100
AcDbLine
 10
685.097663
 20
339.463868
 30
0.0
 11
687.05778
 21
341.423985
 31
0.0
  0
LINE
  5
613
330
5F9
100
AcDbEntity
  8
LC-004-005-----0
 62
     7
370
    25
100
AcDbLine
 10
685.097663
 20
340.029554
 30
0.0
 11
686.492095
 21
341.423985
 31
0.0
  0
LINE
  5
614
330
5F9
100
AcDbEntity
  8
LC-004-005-----0
 62
     7
370
    25
100
AcDbLine
 10
685.097663
 20
340.595239
 30
0.0
 11
685.926409
 21
341.423985
 31
0.0
  0
LINE
  5
615
330
5F9
100
AcDbEntity
  8
LC-004-005-----0
 62
     7
370
    25
100
AcDbLine
 10
685.097663
 20
341.160924
 30
0.0
 11
685.360724
 21
341.423985
 31
0.0
  0
ENDBLK
  5
5FB
330
5F9
100
AcDbEntity
  8
0
100
AcDbBlockEnd
  0
BLOCK
  5
618
330
617
100
AcDbEntity
  8
0
100
AcDbBlockBegin
  2
*X1062
 70
     1
 71
     0
 10
0.0
 20
0.0
 30
0.0
  3
*X1062
  1

  4
*X10
  0
LINE
  5
61A
330
617
100
AcDbEntity
  8
LC-004-005-----0
 62
     7
370
    25
100
AcDbLine
 10
675.00387
 20
336.723985
 30
0.0
 11
675.097663
 21
336.817779
 31
0.0
  0
LINE
  5
61B
330
617
100
AcDbEntity
  8
LC-004-005-----0
 62
     7
370
    25
100
AcDbLine
 10
674.438184
 20
336.723985
 30
0.0
 11
675.097663
 21
337.383464
 31
0.0
  0
LINE
  5
61C
330
617
100
AcDbEntity
  8
LC-004-005-----0
 62
     7
370
    25
100
AcDbLine
 10
673.872499
 20
336.723985
 30
0.0
 11
675.097663
 21
337.949149
 31
0.0
  0
LINE
  5
61D
330
617
100
AcDbEntity
  8
LC-004-005-----0
 62
     7
370
    25
100
AcDbLine
 10
673.306813
 20
336.723985
 30
0.0
 11
675.097663
 21
338.514835
 31
0.0
  0
LINE
  5
61E
330
617
100
AcDbEntity
  8
LC-004-005-----0
 62
     7
370
    25
100
AcDbLine
 10
672.741128
 20
336.723985
 30
0.0
 11
675.097663
 21
339.08052
 31
0.0
  0
LINE
  5
61F
330
617
100
AcDbEntity
  8
LC-004-005-----0
 62
     7
370
    25
100
AcDbLine
 10
672.175442
 20
336.723985
 30
0.0
 11
675.097663
 21
339.646206
 31
0.0
  0
LINE
  5
620
330
617
100
AcDbEntity
  8
LC-004-005-----0
 62
     7
370
    25
100
AcDbLine
 10
671.609757
 20
336.723985
 30
0.0
 11
675.097663
 21
340.211891
 31
0.0
  0
LINE
  5
621
330
617
100
AcDbEntity
  8
LC-004-005-----0
 62
     7
370
    25
100
AcDbLine
 10
671.044072
 20
336.723985
 30
0.0
 11
675.097663
 21
340.777577
 31
0.0
  0
LINE
  5
622
330
617
100
AcDbEntity
  8
LC-004-005-----0
 62
     7
370
    25
100
AcDbLine
 10
670.478386
 20
336.723985
 30
0.0
 11
675.097663
 21
341.343262
 31
0.0
  0
LINE
  5
623
330
617
100
AcDbEntity
  8
LC-004-005-----0
 62
     7
370
    25
100
AcDbLine
 10
669.912701
 20
336.723985
 30
0.0
 11
674.612701
 21
341.423985
 31
0.0
  0
LINE
  5
624
330
617
100
AcDbEntity
  8
LC-004-005-----0
 62
     7
370
    25
100
AcDbLine
 10
669.347015
 20
336.723985
 30
0.0
 11
674.047015
 21
341.423985
 31
0.0
  0
LINE
  5
625
330
617
100
AcDbEntity
  8
LC-004-005-----0
 62
     7
370
    25
100
AcDbLine
 10
668.78133
 20
336.723985
 30
0.0
 11
673.48133
 21
341.423985
 31
0.0
  0
LINE
  5
626
330
617
100
AcDbEntity
  8
LC-004-005-----0
 62
     7
370
    25
100
AcDbLine
 10
668.215644
 20
336.723985
 30
0.0
 11
672.915644
 21
341.423985
 31
0.0
  0
LINE
  5
627
330
617
100
AcDbEntity
  8
LC-004-005-----0
 62
     7
370
    25
100
AcDbLine
 10
667.649959
 20
336.723985
 30
0.0
 11
672.349959
 21
341.423985
 31
0.0
  0
LINE
  5
628
330
617
100
AcDbEntity
  8
LC-004-005-----0
 62
     7
370
    25
100
AcDbLine
 10
667.084274
 20
336.723985
 30
0.0
 11
671.784274
 21
341.423985
 31
0.0
  0
LINE
  5
629
330
617
100
AcDbEntity
  8
LC-004-005-----0
 62
     7
370
    25
100
AcDbLine
 10
666.518588
 20
336.723985
 30
0.0
 11
671.218588
 21
341.423985
 31
0.0
  0
LINE
  5
62A
330
617
100
AcDbEntity
  8
LC-004-005-----0
 62
     7
370
    25
100
AcDbLine
 10
665.952903
 20
336.723985
 30
0.0
 11
670.652903
 21
341.423985
 31
0.0
  0
LINE
  5
62B
330
617
100
AcDbEntity
  8
LC-004-005-----0
 62
     7
370
    25
100
AcDbLine
 10
665.387217
 20
336.723985
 30
0.0
 11
670.087217
 21
341.423985
 31
0.0
  0
LINE
  5
62C
330
617
100
AcDbEntity
  8
LC-004-005-----0
 62
     7
370
    25
100
AcDbLine
 10
665.097663
 20
337.000116
 30
0.0
 11
669.521532
 21
341.423985
 31
0.0
  0
LINE
  5
62D
330
617
100
AcDbEntity
  8
LC-004-005-----0
 62
     7
370
    25
100
AcDbLine
 10
665.097663
 20
337.565802
 30
0.0
 11
668.955847
 21
341.423985
 31
0.0
  0
LINE
  5
62E
330
617
100
AcDbEntity
  8
LC-004-005-----0
 62
     7
370
    25
100
AcDbLine
 10
665.097663
 20
338.131487
 30
0.0
 11
668.390161
 21
341.423985
 31
0.0
  0
LINE
  5
62F
330
617
100
AcDbEntity
  8
LC-004-005-----0
 62
     7
370
    25
100
AcDbLine
 10
665.097663
 20
338.697173
 30
0.0
 11
667.824476
 21
341.423985
 31
0.0
  0
LINE
  5
630
330
617
100
AcDbEntity
  8
LC-004-005-----0
 62
     7
370
    25
100
AcDbLine
 10
665.097663
 20
339.262858
 30
0.0
 11
667.25879
 21
341.423985
 31
0.0
  0
LINE
  5
631
330
617
100
AcDbEntity
  8
LC-004-005-----0
 62
     7
370
    25
100
AcDbLine
 10
665.097663
 20
339.828543
 30
0.0
 11
666.693105
 21
341.423985
 31
0.0
  0
LINE
  5
632
330
617
100
AcDbEntity
  8
LC-004-005-----0
 62
     7
370
    25
100
AcDbLine
 10
665.097663
 20
340.394229
 30
0.0
 11
666.127419
 21
341.423985
 31
0.0
  0
LINE
  5
633
330
617
100
AcDbEntity
  8
LC-004-005-----0
 62
     7
370
    25
100
AcDbLine
 10
665.097663
 20
340.959914
 30
0.0
 11
665.561734
 21
341.423985
 31
0.0
  0
ENDBLK
  5
619
330
617
100
AcDbEntity
  8
0
100
AcDbBlockEnd
  0
BLOCK
  5
636
330
635
100
AcDbEntity
  8
0
100
AcDbBlockBegin
  2
*X1163
 70
     1
 71
     0
 10
0.0
 20
0.0
 30
0.0
  3
*X1163
  1

  4
*X11
  0
LINE
  5
638
330
635
100
AcDbEntity
  8
LC-004-005-----0
 62
     7
370
    25
100
AcDbLine
 10
654.639194
 20
336.723985
 30
0.0
 11
655.097663
 21
337.182454
 31
0.0
  0
LINE
  5
639
330
635
100
AcDbEntity
  8
LC-004-005-----0
 62
     7
370
    25
100
AcDbLine
 10
654.073509
 20
336.723985
 30
0.0
 11
655.097663
 21
337.748139
 31
0.0
  0
LINE
  5
63A
330
635
100
AcDbEntity
  8
LC-004-005-----0
 62
     7
370
    25
100
AcDbLine
 10
653.507823
 20
336.723985
 30
0.0
 11
655.097663
 21
338.313825
 31
0.0
  0
LINE
  5
63B
330
635
100
AcDbEntity
  8
LC-004-005-----0
 62
     7
370
    25
100
AcDbLine
 10
652.942138
 20
336.723985
 30
0.0
 11
655.097663
 21
338.87951
 31
0.0
  0
LINE
  5
63C
330
635
100
AcDbEntity
  8
LC-004-005-----0
 62
     7
370
    25
100
AcDbLine
 10
652.376453
 20
336.723985
 30
0.0
 11
655.097663
 21
339.445196
 31
0.0
  0
LINE
  5
63D
330
635
100
AcDbEntity
  8
LC-004-005-----0
 62
     7
370
    25
100
AcDbLine
 10
651.810767
 20
336.723985
 30
0.0
 11
655.097663
 21
340.010881
 31
0.0
  0
LINE
  5
63E
330
635
100
AcDbEntity
  8
LC-004-005-----0
 62
     7
370
    25
100
AcDbLine
 10
651.245082
 20
336.723985
 30
0.0
 11
655.097663
 21
340.576566
 31
0.0
  0
LINE
  5
63F
330
635
100
AcDbEntity
  8
LC-004-005-----0
 62
     7
370
    25
100
AcDbLine
 10
650.679396
 20
336.723985
 30
0.0
 11
655.097663
 21
341.142252
 31
0.0
  0
LINE
  5
640
330
635
100
AcDbEntity
  8
LC-004-005-----0
 62
     7
370
    25
100
AcDbLine
 10
650.113711
 20
336.723985
 30
0.0
 11
654.813711
 21
341.423985
 31
0.0
  0
LINE
  5
641
330
635
100
AcDbEntity
  8
LC-004-005-----0
 62
     7
370
    25
100
AcDbLine
 10
649.548025
 20
336.723985
 30
0.0
 11
654.248025
 21
341.423985
 31
0.0
  0
LINE
  5
642
330
635
100
AcDbEntity
  8
LC-004-005-----0
 62
     7
370
    25
100
AcDbLine
 10
648.98234
 20
336.723985
 30
0.0
 11
653.68234
 21
341.423985
 31
0.0
  0
LINE
  5
643
330
635
100
AcDbEntity
  8
LC-004-005-----0
 62
     7
370
    25
100
AcDbLine
 10
648.416655
 20
336.723985
 30
0.0
 11
653.116655
 21
341.423985
 31
0.0
  0
LINE
  5
644
330
635
100
AcDbEntity
  8
LC-004-005-----0
 62
     7
370
    25
100
AcDbLine
 10
647.850969
 20
336.723985
 30
0.0
 11
652.550969
 21
341.423985
 31
0.0
  0
LINE
  5
645
330
635
100
AcDbEntity
  8
LC-004-005-----0
 62
     7
370
    25
100
AcDbLine
 10
647.285284
 20
336.723985
 30
0.0
 11
651.985284
 21
341.423985
 31
0.0
  0
LINE
  5
646
330
635
100
AcDbEntity
  8
LC-004-005-----0
 62
     7
370
    25
100
AcDbLine
 10
646.719598
 20
336.723985
 30
0.0
 11
651.419598
 21
341.423985
 31
0.0
  0
LINE
  5
647
330
635
100
AcDbEntity
  8
LC-004-005-----0
 62
     7
370
    25
100
AcDbLine
 10
646.153913
 20
336.723985
 30
0.0
 11
650.853913
 21
341.423985
 31
0.0
  0
LINE
  5
648
330
635
100
AcDbEntity
  8
LC-004-005-----0
 62
     7
370
    25
100
AcDbLine
 10
645.588227
 20
336.723985
 30
0.0
 11
650.288227
 21
341.423985
 31
0.0
  0
LINE
  5
649
330
635
100
AcDbEntity
  8
LC-004-005-----0
 62
     7
370
    25
100
AcDbLine
 10
645.097663
 20
336.799106
 30
0.0
 11
649.722542
 21
341.423985
 31
0.0
  0
LINE
  5
64A
330
635
100
AcDbEntity
  8
LC-004-005-----0
 62
     7
370
    25
100
AcDbLine
 10
645.097663
 20
337.364792
 30
0.0
 11
649.156857
 21
341.423985
 31
0.0
  0
LINE
  5
64B
330
635
100
AcDbEntity
  8
LC-004-005-----0
 62
     7
370
    25
100
AcDbLine
 10
645.097663
 20
337.930477
 30
0.0
 11
648.591171
 21
341.423985
 31
0.0
  0
LINE
  5
64C
330
635
100
AcDbEntity
  8
LC-004-005-----0
 62
     7
370
    25
100
AcDbLine
 10
645.097663
 20
338.496162
 30
0.0
 11
648.025486
 21
341.423985
 31
0.0
  0
LINE
  5
64D
330
635
100
AcDbEntity
  8
LC-004-005-----0
 62
     7
370
    25
100
AcDbLine
 10
645.097663
 20
339.061848
 30
0.0
 11
647.4598
 21
341.423985
 31
0.0
  0
LINE
  5
64E
330
635
100
AcDbEntity
  8
LC-004-005-----0
 62
     7
370
    25
100
AcDbLine
 10
645.097663
 20
339.627533
 30
0.0
 11
646.894115
 21
341.423985
 31
0.0
  0
LINE
  5
64F
330
635
100
AcDbEntity
  8
LC-004-005-----0
 62
     7
370
    25
100
AcDbLine
 10
645.097663
 20
340.193219
 30
0.0
 11
646.32843
 21
341.423985
 31
0.0
  0
LINE
  5
650
330
635
100
AcDbEntity
  8
LC-004-005-----0
 62
     7
370
    25
100
AcDbLine
 10
645.097663
 20
340.758904
 30
0.0
 11
645.762744
 21
341.423985
 31
0.0
  0
LINE
  5
651
330
635
100
AcDbEntity
  8
LC-004-005-----0
 62
     7
370
    25
100
AcDbLine
 10
645.097663
 20
341.32459
 30
0.0
 11
645.197059
 21
341.423985
 31
0.0
  0
ENDBLK
  5
637
330
635
100
AcDbEntity
  8
0
100
AcDbBlockEnd
  0
BLOCK
  5
654
330
653
100
AcDbEntity
  8
0
100
AcDbBlockBegin
  2
*X1264
 70
     1
 71
     0
 10
0.0
 20
0.0
 30
0.0
  3
*X1264
  1

  4
*X12
  0
LINE
  5
656
330
653
100
AcDbEntity
  8
LC-004-005-----0
 62
     7
370
    25
100
AcDbLine
 10
634.840204
 20
336.723985
 30
0.0
 11
635.097663
 21
336.981444
 31
0.0
  0
LINE
  5
657
330
653
100
AcDbEntity
  8
LC-004-005-----0
 62
     7
370
    25
100
AcDbLine
 10
634.274519
 20
336.723985
 30
0.0
 11
635.097663
 21
337.547129
 31
0.0
  0
LINE
  5
658
330
653
100
AcDbEntity
  8
LC-004-005-----0
 62
     7
370
    25
100
AcDbLine
 10
633.708834
 20
336.723985
 30
0.0
 11
635.097663
 21
338.112815
 31
0.0
  0
LINE
  5
659
330
653
100
AcDbEntity
  8
LC-004-005-----0
 62
     7
370
    25
100
AcDbLine
 10
633.143148
 20
336.723985
 30
0.0
 11
635.097663
 21
338.6785
 31
0.0
  0
LINE
  5
65A
330
653
100
AcDbEntity
  8
LC-004-005-----0
 62
     7
370
    25
100
AcDbLine
 10
632.577463
 20
336.723985
 30
0.0
 11
635.097663
 21
339.244186
 31
0.0
  0
LINE
  5
65B
330
653
100
AcDbEntity
  8
LC-004-005-----0
 62
     7
370
    25
100
AcDbLine
 10
632.011777
 20
336.723985
 30
0.0
 11
635.097663
 21
339.809871
 31
0.0
  0
LINE
  5
65C
330
653
100
AcDbEntity
  8
LC-004-005-----0
 62
     7
370
    25
100
AcDbLine
 10
631.446092
 20
336.723985
 30
0.0
 11
635.097663
 21
340.375556
 31
0.0
  0
LINE
  5
65D
330
653
100
AcDbEntity
  8
LC-004-005-----0
 62
     7
370
    25
100
AcDbLine
 10
630.880406
 20
336.723985
 30
0.0
 11
635.097663
 21
340.941242
 31
0.0
  0
LINE
  5
65E
330
653
100
AcDbEntity
  8
LC-004-005-----0
 62
     7
370
    25
100
AcDbLine
 10
630.314721
 20
336.723985
 30
0.0
 11
635.014721
 21
341.423985
 31
0.0
  0
LINE
  5
65F
330
653
100
AcDbEntity
  8
LC-004-005-----0
 62
     7
370
    25
100
AcDbLine
 10
629.749036
 20
336.723985
 30
0.0
 11
634.449036
 21
341.423985
 31
0.0
  0
LINE
  5
660
330
653
100
AcDbEntity
  8
LC-004-005-----0
 62
     7
370
    25
100
AcDbLine
 10
629.18335
 20
336.723985
 30
0.0
 11
633.88335
 21
341.423985
 31
0.0
  0
LINE
  5
661
330
653
100
AcDbEntity
  8
LC-004-005-----0
 62
     7
370
    25
100
AcDbLine
 10
628.617665
 20
336.723985
 30
0.0
 11
633.317665
 21
341.423985
 31
0.0
  0
LINE
  5
662
330
653
100
AcDbEntity
  8
LC-004-005-----0
 62
     7
370
    25
100
AcDbLine
 10
628.051979
 20
336.723985
 30
0.0
 11
632.751979
 21
341.423985
 31
0.0
  0
LINE
  5
663
330
653
100
AcDbEntity
  8
LC-004-005-----0
 62
     7
370
    25
100
AcDbLine
 10
627.486294
 20
336.723985
 30
0.0
 11
632.186294
 21
341.423985
 31
0.0
  0
LINE
  5
664
330
653
100
AcDbEntity
  8
LC-004-005-----0
 62
     7
370
    25
100
AcDbLine
 10
626.920608
 20
336.723985
 30
0.0
 11
631.620608
 21
341.423985
 31
0.0
  0
LINE
  5
665
330
653
100
AcDbEntity
  8
LC-004-005-----0
 62
     7
370
    25
100
AcDbLine
 10
626.354923
 20
336.723985
 30
0.0
 11
631.054923
 21
341.423985
 31
0.0
  0
LINE
  5
666
330
653
100
AcDbEntity
  8
LC-004-005-----0
 62
     7
370
    25
100
AcDbLine
 10
625.789238
 20
336.723985
 30
0.0
 11
630.489238
 21
341.423985
 31
0.0
  0
LINE
  5
667
330
653
100
AcDbEntity
  8
LC-004-005-----0
 62
     7
370
    25
100
AcDbLine
 10
625.223552
 20
336.723985
 30
0.0
 11
629.923552
 21
341.423985
 31
0.0
  0
LINE
  5
668
330
653
100
AcDbEntity
  8
LC-004-005-----0
 62
     7
370
    25
100
AcDbLine
 10
625.097663
 20
337.163781
 30
0.0
 11
629.357867
 21
341.423985
 31
0.0
  0
LINE
  5
669
330
653
100
AcDbEntity
  8
LC-004-005-----0
 62
     7
370
    25
100
AcDbLine
 10
625.097663
 20
337.729467
 30
0.0
 11
628.792181
 21
341.423985
 31
0.0
  0
LINE
  5
66A
330
653
100
AcDbEntity
  8
LC-004-005-----0
 62
     7
370
    25
100
AcDbLine
 10
625.097663
 20
338.295152
 30
0.0
 11
628.226496
 21
341.423985
 31
0.0
  0
LINE
  5
66B
330
653
100
AcDbEntity
  8
LC-004-005-----0
 62
     7
370
    25
100
AcDbLine
 10
625.097663
 20
338.860838
 30
0.0
 11
627.66081
 21
341.423985
 31
0.0
  0
LINE
  5
66C
330
653
100
AcDbEntity
  8
LC-004-005-----0
 62
     7
370
    25
100
AcDbLine
 10
625.097663
 20
339.426523
 30
0.0
 11
627.095125
 21
341.423985
 31
0.0
  0
LINE
  5
66D
330
653
100
AcDbEntity
  8
LC-004-005-----0
 62
     7
370
    25
100
AcDbLine
 10
625.097663
 20
339.992209
 30
0.0
 11
626.52944
 21
341.423985
 31
0.0
  0
LINE
  5
66E
330
653
100
AcDbEntity
  8
LC-004-005-----0
 62
     7
370
    25
100
AcDbLine
 10
625.097663
 20
340.557894
 30
0.0
 11
625.963754
 21
341.423985
 31
0.0
  0
LINE
  5
66F
330
653
100
AcDbEntity
  8
LC-004-005-----0
 62
     7
370
    25
100
AcDbLine
 10
625.097663
 20
341.123579
 30
0.0
 11
625.398069
 21
341.423985
 31
0.0
  0
ENDBLK
  5
655
330
653
100
AcDbEntity
  8
0
100
AcDbBlockEnd
  0
BLOCK
  5
672
330
671
100
AcDbEntity
  8
0
100
AcDbBlockBegin
  2
*X1365
 70
     1
 71
     0
 10
0.0
 20
0.0
 30
0.0
  3
*X1365
  1

  4
*X13
  0
LINE
  5
674
330
671
100
AcDbEntity
  8
LC-004-005-----0
 62
     7
370
    25
100
AcDbLine
 10
615.041215
 20
336.723985
 30
0.0
 11
615.097663
 21
336.780434
 31
0.0
  0
LINE
  5
675
330
671
100
AcDbEntity
  8
LC-004-005-----0
 62
     7
370
    25
100
AcDbLine
 10
614.475529
 20
336.723985
 30
0.0
 11
615.097663
 21
337.346119
 31
0.0
  0
LINE
  5
676
330
671
100
AcDbEntity
  8
LC-004-005-----0
 62
     7
370
    25
100
AcDbLine
 10
613.909844
 20
336.723985
 30
0.0
 11
615.097663
 21
337.911805
 31
0.0
  0
LINE
  5
677
330
671
100
AcDbEntity
  8
LC-004-005-----0
 62
     7
370
    25
100
AcDbLine
 10
613.344158
 20
336.723985
 30
0.0
 11
615.097663
 21
338.47749
 31
0.0
  0
LINE
  5
678
330
671
100
AcDbEntity
  8
LC-004-005-----0
 62
     7
370
    25
100
AcDbLine
 10
612.778473
 20
336.723985
 30
0.0
 11
615.097663
 21
339.043175
 31
0.0
  0
LINE
  5
679
330
671
100
AcDbEntity
  8
LC-004-005-----0
 62
     7
370
    25
100
AcDbLine
 10
612.212787
 20
336.723985
 30
0.0
 11
615.097663
 21
339.608861
 31
0.0
  0
LINE
  5
67A
330
671
100
AcDbEntity
  8
LC-004-005-----0
 62
     7
370
    25
100
AcDbLine
 10
611.647102
 20
336.723985
 30
0.0
 11
615.097663
 21
340.174546
 31
0.0
  0
LINE
  5
67B
330
671
100
AcDbEntity
  8
LC-004-005-----0
 62
     7
370
    25
100
AcDbLine
 10
611.081417
 20
336.723985
 30
0.0
 11
615.097663
 21
340.740232
 31
0.0
  0
LINE
  5
67C
330
671
100
AcDbEntity
  8
LC-004-005-----0
 62
     7
370
    25
100
AcDbLine
 10
610.515731
 20
336.723985
 30
0.0
 11
615.097663
 21
341.305917
 31
0.0
  0
LINE
  5
67D
330
671
100
AcDbEntity
  8
LC-004-005-----0
 62
     7
370
    25
100
AcDbLine
 10
609.950046
 20
336.723985
 30
0.0
 11
614.650046
 21
341.423985
 31
0.0
  0
LINE
  5
67E
330
671
100
AcDbEntity
  8
LC-004-005-----0
 62
     7
370
    25
100
AcDbLine
 10
609.38436
 20
336.723985
 30
0.0
 11
614.08436
 21
341.423985
 31
0.0
  0
LINE
  5
67F
330
671
100
AcDbEntity
  8
LC-004-005-----0
 62
     7
370
    25
100
AcDbLine
 10
608.818675
 20
336.723985
 30
0.0
 11
613.518675
 21
341.423985
 31
0.0
  0
LINE
  5
680
330
671
100
AcDbEntity
  8
LC-004-005-----0
 62
     7
370
    25
100
AcDbLine
 10
608.252989
 20
336.723985
 30
0.0
 11
612.952989
 21
341.423985
 31
0.0
  0
LINE
  5
681
330
671
100
AcDbEntity
  8
LC-004-005-----0
 62
     7
370
    25
100
AcDbLine
 10
607.687304
 20
336.723985
 30
0.0
 11
612.387304
 21
341.423985
 31
0.0
  0
LINE
  5
682
330
671
100
AcDbEntity
  8
LC-004-005-----0
 62
     7
370
    25
100
AcDbLine
 10
607.121619
 20
336.723985
 30
0.0
 11
611.821619
 21
341.423985
 31
0.0
  0
LINE
  5
683
330
671
100
AcDbEntity
  8
LC-004-005-----0
 62
     7
370
    25
100
AcDbLine
 10
606.555933
 20
336.723985
 30
0.0
 11
611.255933
 21
341.423985
 31
0.0
  0
LINE
  5
684
330
671
100
AcDbEntity
  8
LC-004-005-----0
 62
     7
370
    25
100
AcDbLine
 10
605.990248
 20
336.723985
 30
0.0
 11
610.690248
 21
341.423985
 31
0.0
  0
LINE
  5
685
330
671
100
AcDbEntity
  8
LC-004-005-----0
 62
     7
370
    25
100
AcDbLine
 10
605.424562
 20
336.723985
 30
0.0
 11
610.124562
 21
341.423985
 31
0.0
  0
LINE
  5
686
330
671
100
AcDbEntity
  8
LC-004-005-----0
 62
     7
370
    25
100
AcDbLine
 10
605.097663
 20
336.962771
 30
0.0
 11
609.558877
 21
341.423985
 31
0.0
  0
LINE
  5
687
330
671
100
AcDbEntity
  8
LC-004-005-----0
 62
     7
370
    25
100
AcDbLine
 10
605.097663
 20
337.528457
 30
0.0
 11
608.993191
 21
341.423985
 31
0.0
  0
LINE
  5
688
330
671
100
AcDbEntity
  8
LC-004-005-----0
 62
     7
370
    25
100
AcDbLine
 10
605.097663
 20
338.094142
 30
0.0
 11
608.427506
 21
341.423985
 31
0.0
  0
LINE
  5
689
330
671
100
AcDbEntity
  8
LC-004-005-----0
 62
     7
370
    25
100
AcDbLine
 10
605.097663
 20
338.659828
 30
0.0
 11
607.861821
 21
341.423985
 31
0.0
  0
LINE
  5
68A
330
671
100
AcDbEntity
  8
LC-004-005-----0
 62
     7
370
    25
100
AcDbLine
 10
605.097663
 20
339.225513
 30
0.0
 11
607.296135
 21
341.423985
 31
0.0
  0
LINE
  5
68B
330
671
100
AcDbEntity
  8
LC-004-005-----0
 62
     7
370
    25
100
AcDbLine
 10
605.097663
 20
339.791198
 30
0.0
 11
606.73045
 21
341.423985
 31
0.0
  0
LINE
  5
68C
330
671
100
AcDbEntity
  8
LC-004-005-----0
 62
     7
370
    25
100
AcDbLine
 10
605.097663
 20
340.356884
 30
0.0
 11
606.164764
 21
341.423985
 31
0.0
  0
LINE
  5
68D
330
671
100
AcDbEntity
  8
LC-004-005-----0
 62
     7
370
    25
100
AcDbLine
 10
605.097663
 20
340.922569
 30
0.0
 11
605.599079
 21
341.423985
 31
0.0
  0
ENDBLK
  5
673
330
671
100
AcDbEntity
  8
0
100
AcDbBlockEnd
  0
BLOCK
  5
692
330
691
100
AcDbEntity
  8
0
100
AcDbBlockBegin
  2
*X1466
 70
     1
 71
     0
 10
0.0
 20
0.0
 30
0.0
  3
*X1466
  1

  4
*X14
  0
LINE
  5
694
330
691
100
AcDbEntity
  8
LC-004-005-----0
 62
     7
370
    25
100
AcDbLine
 10
594.676539
 20
336.723985
 30
0.0
 11
595.097663
 21
337.145109
 31
0.0
  0
LINE
  5
695
330
691
100
AcDbEntity
  8
LC-004-005-----0
 62
     7
370
    25
100
AcDbLine
 10
594.110854
 20
336.723985
 30
0.0
 11
595.097663
 21
337.710794
 31
0.0
  0
LINE
  5
696
330
691
100
AcDbEntity
  8
LC-004-005-----0
 62
     7
370
    25
100
AcDbLine
 10
593.545168
 20
336.723985
 30
0.0
 11
595.097663
 21
338.27648
 31
0.0
  0
LINE
  5
697
330
691
100
AcDbEntity
  8
LC-004-005-----0
 62
     7
370
    25
100
AcDbLine
 10
592.979483
 20
336.723985
 30
0.0
 11
595.097663
 21
338.842165
 31
0.0
  0
LINE
  5
698
330
691
100
AcDbEntity
  8
LC-004-005-----0
 62
     7
370
    25
100
AcDbLine
 10
592.413798
 20
336.723985
 30
0.0
 11
595.097663
 21
339.407851
 31
0.0
  0
LINE
  5
699
330
691
100
AcDbEntity
  8
LC-004-005-----0
 62
     7
370
    25
100
AcDbLine
 10
591.848112
 20
336.723985
 30
0.0
 11
595.097663
 21
339.973536
 31
0.0
  0
LINE
  5
69A
330
691
100
AcDbEntity
  8
LC-004-005-----0
 62
     7
370
    25
100
AcDbLine
 10
591.282427
 20
336.723985
 30
0.0
 11
595.097663
 21
340.539222
 31
0.0
  0
LINE
  5
69B
330
691
100
AcDbEntity
  8
LC-004-005-----0
 62
     7
370
    25
100
AcDbLine
 10
590.716741
 20
336.723985
 30
0.0
 11
595.097663
 21
341.104907
 31
0.0
  0
LINE
  5
69C
330
691
100
AcDbEntity
  8
LC-004-005-----0
 62
     7
370
    25
100
AcDbLine
 10
590.151056
 20
336.723985
 30
0.0
 11
594.851056
 21
341.423985
 31
0.0
  0
LINE
  5
69D
330
691
100
AcDbEntity
  8
LC-004-005-----0
 62
     7
370
    25
100
AcDbLine
 10
589.58537
 20
336.723985
 30
0.0
 11
594.28537
 21
341.423985
 31
0.0
  0
LINE
  5
69E
330
691
100
AcDbEntity
  8
LC-004-005-----0
 62
     7
370
    25
100
AcDbLine
 10
589.019685
 20
336.723985
 30
0.0
 11
593.719685
 21
341.423985
 31
0.0
  0
LINE
  5
69F
330
691
100
AcDbEntity
  8
LC-004-005-----0
 62
     7
370
    25
100
AcDbLine
 10
588.454
 20
336.723985
 30
0.0
 11
593.154
 21
341.423985
 31
0.0
  0
LINE
  5
6A0
330
691
100
AcDbEntity
  8
LC-004-005-----0
 62
     7
370
    25
100
AcDbLine
 10
587.888314
 20
336.723985
 30
0.0
 11
592.588314
 21
341.423985
 31
0.0
  0
LINE
  5
6A1
330
691
100
AcDbEntity
  8
LC-004-005-----0
 62
     7
370
    25
100
AcDbLine
 10
587.322629
 20
336.723985
 30
0.0
 11
592.022629
 21
341.423985
 31
0.0
  0
LINE
  5
6A2
330
691
100
AcDbEntity
  8
LC-004-005-----0
 62
     7
370
    25
100
AcDbLine
 10
586.756943
 20
336.723985
 30
0.0
 11
591.456943
 21
341.423985
 31
0.0
  0
LINE
  5
6A3
330
691
100
AcDbEntity
  8
LC-004-005-----0
 62
     7
370
    25
100
AcDbLine
 10
586.191258
 20
336.723985
 30
0.0
 11
590.891258
 21
341.423985
 31
0.0
  0
LINE
  5
6A4
330
691
100
AcDbEntity
  8
LC-004-005-----0
 62
     7
370
    25
100
AcDbLine
 10
585.625572
 20
336.723985
 30
0.0
 11
590.325572
 21
341.423985
 31
0.0
  0
LINE
  5
6A5
330
691
100
AcDbEntity
  8
LC-004-005-----0
 62
     7
370
    25
100
AcDbLine
 10
585.097663
 20
336.761761
 30
0.0
 11
589.759887
 21
341.423985
 31
0.0
  0
LINE
  5
6A6
330
691
100
AcDbEntity
  8
LC-004-005-----0
 62
     7
370
    25
100
AcDbLine
 10
585.097663
 20
337.327447
 30
0.0
 11
589.194202
 21
341.423985
 31
0.0
  0
LINE
  5
6A7
330
691
100
AcDbEntity
  8
LC-004-005-----0
 62
     7
370
    25
100
AcDbLine
 10
585.097663
 20
337.893132
 30
0.0
 11
588.628516
 21
341.423985
 31
0.0
  0
LINE
  5
6A8
330
691
100
AcDbEntity
  8
LC-004-005-----0
 62
     7
370
    25
100
AcDbLine
 10
585.097663
 20
338.458817
 30
0.0
 11
588.062831
 21
341.423985
 31
0.0
  0
LINE
  5
6A9
330
691
100
AcDbEntity
  8
LC-004-005-----0
 62
     7
370
    25
100
AcDbLine
 10
585.097663
 20
339.024503
 30
0.0
 11
587.497145
 21
341.423985
 31
0.0
  0
LINE
  5
6AA
330
691
100
AcDbEntity
  8
LC-004-005-----0
 62
     7
370
    25
100
AcDbLine
 10
585.097663
 20
339.590188
 30
0.0
 11
586.93146
 21
341.423985
 31
0.0
  0
LINE
  5
6AB
330
691
100
AcDbEntity
  8
LC-004-005-----0
 62
     7
370
    25
100
AcDbLine
 10
585.097663
 20
340.155874
 30
0.0
 11
586.365774
 21
341.423985
 31
0.0
  0
LINE
  5
6AC
330
691
100
AcDbEntity
  8
LC-004-005-----0
 62
     7
370
    25
100
AcDbLine
 10
585.097663
 20
340.721559
 30
0.0
 11
585.800089
 21
341.423985
 31
0.0
  0
LINE
  5
6AD
330
691
100
AcDbEntity
  8
LC-004-005-----0
 62
     7
370
    25
100
AcDbLine
 10
585.097663
 20
341.287245
 30
0.0
 11
585.234404
 21
341.423985
 31
0.0
  0
ENDBLK
  5
693
330
691
100
AcDbEntity
  8
0
100
AcDbBlockEnd
  0
BLOCK
  5
6B1
330
6B0
100
AcDbEntity
  8
0
100
AcDbBlockBegin
  2
*X1567
 70
     1
 71
     0
 10
0.0
 20
0.0
 30
0.0
  3
*X1567
  1

  4
*X15
  0
LINE
  5
6B3
330
6B0
100
AcDbEntity
  8
LC-004-005-----0
 62
     7
370
    25
100
AcDbLine
 10
574.877549
 20
336.723985
 30
0.0
 11
575.097663
 21
336.944099
 31
0.0
  0
LINE
  5
6B4
330
6B0
100
AcDbEntity
  8
LC-004-005-----0
 62
     7
370
    25
100
AcDbLine
 10
574.311864
 20
336.723985
 30
0.0
 11
575.097663
 21
337.509784
 31
0.0
  0
LINE
  5
6B5
330
6B0
100
AcDbEntity
  8
LC-004-005-----0
 62
     7
370
    25
100
AcDbLine
 10
573.746179
 20
336.723985
 30
0.0
 11
575.097663
 21
338.07547
 31
0.0
  0
LINE
  5
6B6
330
6B0
100
AcDbEntity
  8
LC-004-005-----0
 62
     7
370
    25
100
AcDbLine
 10
573.180493
 20
336.723985
 30
0.0
 11
575.097663
 21
338.641155
 31
0.0
  0
LINE
  5
6B7
330
6B0
100
AcDbEntity
  8
LC-004-005-----0
 62
     7
370
    25
100
AcDbLine
 10
572.611395
 20
336.720572
 30
0.0
 11
575.097663
 21
339.206841
 31
0.0
  0
LINE
  5
6B8
330
6B0
100
AcDbEntity
  8
LC-004-005-----0
 62
     7
370
    25
100
AcDbLine
 10
571.721994
 20
336.396857
 30
0.0
 11
575.097663
 21
339.772526
 31
0.0
  0
LINE
  5
6B9
330
6B0
100
AcDbEntity
  8
LC-004-005-----0
 62
     7
370
    25
100
AcDbLine
 10
570.832593
 20
336.073142
 30
0.0
 11
575.097663
 21
340.338211
 31
0.0
  0
LINE
  5
6BA
330
6B0
100
AcDbEntity
  8
LC-004-005-----0
 62
     7
370
    25
100
AcDbLine
 10
569.943192
 20
335.749426
 30
0.0
 11
575.097663
 21
340.903897
 31
0.0
  0
LINE
  5
6BB
330
6B0
100
AcDbEntity
  8
LC-004-005-----0
 62
     7
370
    25
100
AcDbLine
 10
569.053791
 20
335.425711
 30
0.0
 11
575.052056
 21
341.423976
 31
0.0
  0
LINE
  5
6BC
330
6B0
100
AcDbEntity
  8
LC-004-005-----0
 62
     7
370
    25
100
AcDbLine
 10
568.16439
 20
335.101995
 30
0.0
 11
574.486371
 21
341.423976
 31
0.0
  0
LINE
  5
6BD
330
6B0
100
AcDbEntity
  8
LC-004-005-----0
 62
     7
370
    25
100
AcDbLine
 10
567.27499
 20
334.77828
 30
0.0
 11
573.920685
 21
341.423976
 31
0.0
  0
LINE
  5
6BE
330
6B0
100
AcDbEntity
  8
LC-004-005-----0
 62
     7
370
    25
100
AcDbLine
 10
566.385589
 20
334.454565
 30
0.0
 11
573.355
 21
341.423976
 31
0.0
  0
LINE
  5
6BF
330
6B0
100
AcDbEntity
  8
LC-004-005-----0
 62
     7
370
    25
100
AcDbLine
 10
565.496188
 20
334.130849
 30
0.0
 11
572.789314
 21
341.423976
 31
0.0
  0
LINE
  5
6C0
330
6B0
100
AcDbEntity
  8
LC-004-005-----0
 62
     7
370
    25
100
AcDbLine
 10
565.097663
 20
334.298009
 30
0.0
 11
572.223629
 21
341.423976
 31
0.0
  0
LINE
  5
6C1
330
6B0
100
AcDbEntity
  8
LC-004-005-----0
 62
     7
370
    25
100
AcDbLine
 10
565.097663
 20
334.863695
 30
0.0
 11
571.468537
 21
341.234569
 31
0.0
  0
LINE
  5
6C2
330
6B0
100
AcDbEntity
  8
LC-004-005-----0
 62
     7
370
    25
100
AcDbLine
 10
565.097663
 20
335.42938
 30
0.0
 11
570.579128
 21
340.910845
 31
0.0
  0
LINE
  5
6C3
330
6B0
100
AcDbEntity
  8
LC-004-005-----0
 62
     7
370
    25
100
AcDbLine
 10
565.097663
 20
335.995066
 30
0.0
 11
569.689719
 21
340.587122
 31
0.0
  0
LINE
  5
6C4
330
6B0
100
AcDbEntity
  8
LC-004-005-----0
 62
     7
370
    25
100
AcDbLine
 10
565.097663
 20
336.560751
 30
0.0
 11
567.845286
 21
339.308375
 31
0.0
  0
LINE
  5
6C5
330
6B0
100
AcDbEntity
  8
LC-004-005-----0
 62
     7
370
    25
100
AcDbLine
 10
565.097663
 20
337.126437
 30
0.0
 11
567.148483
 21
339.177256
 31
0.0
  0
LINE
  5
6C6
330
6B0
100
AcDbEntity
  8
LC-004-005-----0
 62
     7
370
    25
100
AcDbLine
 10
565.097663
 20
337.692122
 30
0.0
 11
566.516359
 21
339.110818
 31
0.0
  0
LINE
  5
6C7
330
6B0
100
AcDbEntity
  8
LC-004-005-----0
 62
     7
370
    25
100
AcDbLine
 10
565.097663
 20
338.257807
 30
0.0
 11
565.884235
 21
339.044379
 31
0.0
  0
LINE
  5
6C8
330
6B0
100
AcDbEntity
  8
LC-004-005-----0
 62
     7
370
    25
100
AcDbLine
 10
565.097663
 20
338.823493
 30
0.0
 11
565.242672
 21
338.968502
 31
0.0
  0
ENDBLK
  5
6B2
330
6B0
100
AcDbEntity
  8
0
100
AcDbBlockEnd
  0
BLOCK
  5
6CE
330
6CD
100
AcDbEntity
  8
0
100
AcDbBlockBegin
  2
*X1668
 70
     1
 71
     0
 10
0.0
 20
0.0
 30
0.0
  3
*X1668
  1

  4
*X16
  0
LINE
  5
6D0
330
6CD
100
AcDbEntity
  8
LC-004-005-----0
 62
     7
370
    25
100
AcDbLine
 10
554.823378
 20
330.246265
 30
0.0
 11
555.097663
 21
330.520549
 31
0.0
  0
LINE
  5
6D1
330
6CD
100
AcDbEntity
  8
LC-004-005-----0
 62
     7
370
    25
100
AcDbLine
 10
553.933977
 20
329.922549
 30
0.0
 11
555.097663
 21
331.086234
 31
0.0
  0
LINE
  5
6D2
330
6CD
100
AcDbEntity
  8
LC-004-005-----0
 62
     7
370
    25
100
AcDbLine
 10
553.044577
 20
329.598834
 30
0.0
 11
555.097663
 21
331.65192
 31
0.0
  0
LINE
  5
6D3
330
6CD
100
AcDbEntity
  8
LC-004-005-----0
 62
     7
370
    25
100
AcDbLine
 10
552.155176
 20
329.275118
 30
0.0
 11
555.097663
 21
332.217605
 31
0.0
  0
LINE
  5
6D4
330
6CD
100
AcDbEntity
  8
LC-004-005-----0
 62
     7
370
    25
100
AcDbLine
 10
551.265775
 20
328.951403
 30
0.0
 11
555.097663
 21
332.783291
 31
0.0
  0
LINE
  5
6D5
330
6CD
100
AcDbEntity
  8
LC-004-005-----0
 62
     7
370
    25
100
AcDbLine
 10
550.376374
 20
328.627688
 30
0.0
 11
555.097663
 21
333.348976
 31
0.0
  0
LINE
  5
6D6
330
6CD
100
AcDbEntity
  8
LC-004-005-----0
 62
     7
370
    25
100
AcDbLine
 10
549.486973
 20
328.303972
 30
0.0
 11
555.097663
 21
333.914662
 31
0.0
  0
LINE
  5
6D7
330
6CD
100
AcDbEntity
  8
LC-004-005-----0
 62
     7
370
    25
100
AcDbLine
 10
548.6613
 20
328.043985
 30
0.0
 11
555.097663
 21
334.480347
 31
0.0
  0
LINE
  5
6D8
330
6CD
100
AcDbEntity
  8
LC-004-005-----0
 62
     7
370
    25
100
AcDbLine
 10
548.095615
 20
328.043985
 30
0.0
 11
555.097663
 21
335.046032
 31
0.0
  0
LINE
  5
6D9
330
6CD
100
AcDbEntity
  8
LC-004-005-----0
 62
     7
370
    25
100
AcDbLine
 10
547.529929
 20
328.043985
 30
0.0
 11
554.569761
 21
335.083816
 31
0.0
  0
LINE
  5
6DA
330
6CD
100
AcDbEntity
  8
LC-004-005-----0
 62
     7
370
    25
100
AcDbLine
 10
546.964244
 20
328.043985
 30
0.0
 11
553.680351
 21
334.760092
 31
0.0
  0
LINE
  5
6DB
330
6CD
100
AcDbEntity
  8
LC-004-005-----0
 62
     7
370
    25
100
AcDbLine
 10
546.398559
 20
328.043985
 30
0.0
 11
552.790942
 21
334.436368
 31
0.0
  0
LINE
  5
6DC
330
6CD
100
AcDbEntity
  8
LC-004-005-----0
 62
     7
370
    25
100
AcDbLine
 10
545.832873
 20
328.043985
 30
0.0
 11
551.901533
 21
334.112644
 31
0.0
  0
LINE
  5
6DD
330
6CD
100
AcDbEntity
  8
LC-004-005-----0
 62
     7
370
    25
100
AcDbLine
 10
545.267188
 20
328.043985
 30
0.0
 11
551.012123
 21
333.78892
 31
0.0
  0
LINE
  5
6DE
330
6CD
100
AcDbEntity
  8
LC-004-005-----0
 62
     7
370
    25
100
AcDbLine
 10
545.097663
 20
328.440145
 30
0.0
 11
550.122714
 21
333.465196
 31
0.0
  0
LINE
  5
6DF
330
6CD
100
AcDbEntity
  8
LC-004-005-----0
 62
     7
370
    25
100
AcDbLine
 10
545.097663
 20
329.00583
 30
0.0
 11
549.233305
 21
333.141472
 31
0.0
  0
LINE
  5
6E0
330
6CD
100
AcDbEntity
  8
LC-004-005-----0
 62
     7
370
    25
100
AcDbLine
 10
545.097663
 20
329.571516
 30
0.0
 11
548.343895
 21
332.817749
 31
0.0
  0
LINE
  5
6E1
330
6CD
100
AcDbEntity
  8
LC-004-005-----0
 62
     7
370
    25
100
AcDbLine
 10
545.097663
 20
330.137201
 30
0.0
 11
547.634445
 21
332.673984
 31
0.0
  0
LINE
  5
6E2
330
6CD
100
AcDbEntity
  8
LC-004-005-----0
 62
     7
370
    25
100
AcDbLine
 10
545.097663
 20
330.702887
 30
0.0
 11
547.06876
 21
332.673984
 31
0.0
  0
LINE
  5
6E3
330
6CD
100
AcDbEntity
  8
LC-004-005-----0
 62
     7
370
    25
100
AcDbLine
 10
545.097663
 20
331.268572
 30
0.0
 11
546.503075
 21
332.673984
 31
0.0
  0
LINE
  5
6E4
330
6CD
100
AcDbEntity
  8
LC-004-005-----0
 62
     7
370
    25
100
AcDbLine
 10
545.097663
 20
331.834258
 30
0.0
 11
545.937389
 21
332.673984
 31
0.0
  0
LINE
  5
6E5
330
6CD
100
AcDbEntity
  8
LC-004-005-----0
 62
     7
370
    25
100
AcDbLine
 10
545.097663
 20
332.399943
 30
0.0
 11
545.371704
 21
332.673984
 31
0.0
  0
ENDBLK
  5
6CF
330
6CD
100
AcDbEntity
  8
0
100
AcDbBlockEnd
  0
BLOCK
  5
6F6
330
6EC
100
AcDbEntity
  8
0
100
AcDbBlockBegin
  2
*D69
 70
     1
 71
     0
 10
0.0
 20
0.0
 30
0.0
  3
*D69
  1

  0
LINE
  5
6ED
330
6EC
100
AcDbEntity
  8
LC-005-003-----0
 62
     2
370
    -2
100
AcDbLine
 10
195.097663
 20
336.723985
 30
0.0
 11
195.097663
 21
477.485976
 31
0.0
  0
LINE
  5
6EE
330
6EC
100
AcDbEntity
  8
LC-005-003-----0
 62
     2
370
    -2
100
AcDbLine
 10
695.097663
 20
336.723985
 30
0.0
 11
695.097663
 21
477.485976
 31
0.0
  0
LINE
  5
6EF
330
6EC
100
AcDbEntity
  8
LC-005-003-----0
 62
     2
370
    -2
100
AcDbLine
 10
223.097663
 20
473.885976
 30
0.0
 11
667.097663
 21
473.885976
 31
0.0
  0
SOLID
  5
6F0
330
6EC
100
AcDbEntity
  8
LC-005-003-----0
 62
     2
100
AcDbTrace
 10
223.097663
 20
478.552642
 30
0.0
 11
223.097663
 21
469.219309
 31
0.0
 12
195.097663
 22
473.885976
 32
0.0
 13
195.097663
 23
473.885976
 33
0.0
  0
SOLID
  5
6F1
330
6EC
100
AcDbEntity
  8
LC-005-003-----0
 62
     2
100
AcDbTrace
 10
667.097663
 20
469.219309
 30
0.0
 11
667.097663
 21
478.552642
 31
0.0
 12
695.097663
 22
473.885976
 32
0.0
 13
695.097663
 23
473.885976
 33
0.0
  0
MTEXT
  5
6F2
330
6EC
100
AcDbEntity
  8
LC-005-003-----0
 62
     2
100
AcDbMText
 10
448.377551
 20
504.685976
 30
0.0
 40
28.0
 41
0.0
 71
     5
 72
     1
  1
\A1;500
  7
LCTX15-400-0-0pDIN-Schrift
 73
     1
 44
1.0
  0
POINT
  5
6F3
330
6EC
100
AcDbEntity
  8
Defpoints
 62
     0
100
AcDbPoint
 10
195.097663
 20
336.723985
 30
0.0
  0
POINT
  5
6F4
330
6EC
100
AcDbEntity
  8
Defpoints
 62
     0
100
AcDbPoint
 10
695.097663
 20
336.723985
 30
0.0
  0
POINT
  5
6F5
330
6EC
100
AcDbEntity
  8
Defpoints
 62
     0
100
AcDbPoint
 10
695.097663
 20
473.885976
 30
0.0
  0
ENDBLK
  5
6F7
330
6EC
100
AcDbEntity
  8
0
100
AcDbBlockEnd
  0
BLOCK
  5
703
330
6F9
100
AcDbEntity
  8
0
100
AcDbBlockBegin
  2
*D70
 70
     1
 71
     0
 10
0.0
 20
0.0
 30
0.0
  3
*D70
  1

  0
LINE
  5
6FA
330
6F9
100
AcDbEntity
  8
LC-005-003-----0
 62
     2
370
    -2
100
AcDbLine
 10
268.097662
 20
333.723979
 30
0.0
 11
268.097662
 21
422.243976
 31
0.0
  0
LINE
  5
6FB
330
6F9
100
AcDbEntity
  8
LC-005-003-----0
 62
     2
370
    -2
100
AcDbLine
 10
622.097664
 20
333.723979
 30
0.0
 11
622.097664
 21
422.243976
 31
0.0
  0
LINE
  5
6FC
330
6F9
100
AcDbEntity
  8
LC-005-003-----0
 62
     2
370
    -2
100
AcDbLine
 10
296.097662
 20
418.643976
 30
0.0
 11
594.097664
 21
418.643976
 31
0.0
  0
SOLID
  5
6FD
330
6F9
100
AcDbEntity
  8
LC-005-003-----0
 62
     2
100
AcDbTrace
 10
296.097662
 20
423.310642
 30
0.0
 11
296.097662
 21
413.977309
 31
0.0
 12
268.097662
 22
418.643976
 32
0.0
 13
268.097662
 23
418.643976
 33
0.0
  0
SOLID
  5
6FE
330
6F9
100
AcDbEntity
  8
LC-005-003-----0
 62
     2
100
AcDbTrace
 10
594.097664
 20
413.977309
 30
0.0
 11
594.097664
 21
423.310642
 31
0.0
 12
622.097664
 22
418.643976
 32
0.0
 13
622.097664
 23
418.643976
 33
0.0
  0
MTEXT
  5
6FF
330
6F9
100
AcDbEntity
  8
LC-005-003-----0
 62
     2
100
AcDbMText
 10
435.96691
 20
449.443976
 30
0.0
 40
28.0
 41
0.0
 71
     5
 72
     1
  1
%%c\A1;354
  7
LCTX15-400-0-0pDIN-Schrift
 73
     1
 44
1.0
  0
POINT
  5
700
330
6F9
100
AcDbEntity
  8
Defpoints
 62
     0
100
AcDbPoint
 10
268.097662
 20
333.723979
 30
0.0
  0
POINT
  5
701
330
6F9
100
AcDbEntity
  8
Defpoints
 62
     0
100
AcDbPoint
 10
622.097664
 20
333.723979
 30
0.0
  0
POINT
  5
702
330
6F9
100
AcDbEntity
  8
Defpoints
 62
     0
100
AcDbPoint
 10
622.097664
 20
418.643976
 30
0.0
  0
ENDBLK
  5
704
330
6F9
100
AcDbEntity
  8
0
100
AcDbBlockEnd
  0
BLOCK
  5
710
330
706
100
AcDbEntity
  8
0
100
AcDbBlockBegin
  2
*D71
 70
     1
 71
     0
 10
0.0
 20
0.0
 30
0.0
  3
*D71
  1

  0
LINE
  5
707
330
706
100
AcDbEntity
  8
LC-005-003-----0
 62
     2
370
    -2
100
AcDbLine
 10
365.097665
 20
244.723978
 30
0.0
 11
365.097665
 21
95.471976
 31
0.0
  0
LINE
  5
708
330
706
100
AcDbEntity
  8
LC-005-003-----0
 62
     2
370
    -2
100
AcDbLine
 10
525.097661
 20
244.723978
 30
0.0
 11
525.097661
 21
95.471976
 31
0.0
  0
LINE
  5
709
330
706
100
AcDbEntity
  8
LC-005-003-----0
 62
     2
370
    -2
100
AcDbLine
 10
393.097665
 20
99.071976
 30
0.0
 11
497.097661
 21
99.071976
 31
0.0
  0
SOLID
  5
70A
330
706
100
AcDbEntity
  8
LC-005-003-----0
 62
     2
100
AcDbTrace
 10
393.097665
 20
103.738642
 30
0.0
 11
393.097665
 21
94.405309
 31
0.0
 12
365.097665
 22
99.071976
 32
0.0
 13
365.097665
 23
99.071976
 33
0.0
  0
SOLID
  5
70B
330
706
100
AcDbEntity
  8
LC-005-003-----0
 62
     2
100
AcDbTrace
 10
497.097661
 20
94.405309
 30
0.0
 11
497.097661
 21
103.738642
 31
0.0
 12
525.097661
 22
99.071976
 32
0.0
 13
525.097661
 23
99.071976
 33
0.0
  0
MTEXT
  5
70C
330
706
100
AcDbEntity
  8
LC-005-003-----0
 62
     2
100
AcDbMText
 10
481.048092
 20
129.871976
 30
0.0
 40
28.0
 41
0.0
 71
     5
 72
     1
  1
%%c\A1;160
  7
LCTX15-400-0-0pDIN-Schrift
 73
     1
 44
1.0
  0
POINT
  5
70D
330
706
100
AcDbEntity
  8
Defpoints
 62
     0
100
AcDbPoint
 10
365.097665
 20
244.723978
 30
0.0
  0
POINT
  5
70E
330
706
100
AcDbEntity
  8
Defpoints
 62
     0
100
AcDbPoint
 10
525.097661
 20
244.723978
 30
0.0
  0
POINT
  5
70F
330
706
100
AcDbEntity
  8
Defpoints
 62
     0
100
AcDbPoint
 10
525.097661
 20
99.071976
 30
0.0
  0
ENDBLK
  5
711
330
706
100
AcDbEntity
  8
0
100
AcDbBlockEnd
  0
BLOCK
  5
71E
330
713
100
AcDbEntity
  8
0
100
AcDbBlockBegin
  2
*D72
 70
     1
 71
     0
 10
0.0
 20
0.0
 30
0.0
  3
*D72
  1

  0
LINE
  5
714
330
713
100
AcDbEntity
  8
LC-005-003-----0
 62
     2
370
    -2
100
AcDbLine
 10
407.597663
 20
189.301103
 30
0.0
 11
407.597663
 21
159.029976
 31
0.0
  0
LINE
  5
715
330
713
100
AcDbEntity
  8
LC-005-003-----0
 62
     2
370
    -2
100
AcDbLine
 10
482.597663
 20
183.478798
 30
0.0
 11
482.597663
 21
159.029976
 31
0.0
  0
LINE
  5
716
330
713
100
AcDbEntity
  8
LC-005-003-----0
 62
     2
370
    -2
100
AcDbLine
 10
435.597663
 20
162.629976
 30
0.0
 11
454.597663
 21
162.629976
 31
0.0
  0
LINE
  5
717
330
713
100
AcDbEntity
  8
LC-005-003-----0
 62
     2
370
    -2
100
AcDbLine
 10
482.597663
 20
162.629976
 30
0.0
 11
602.564175
 21
162.629976
 31
0.0
  0
SOLID
  5
718
330
713
100
AcDbEntity
  8
LC-005-003-----0
 62
     2
100
AcDbTrace
 10
435.597663
 20
167.296642
 30
0.0
 11
435.597663
 21
157.963309
 31
0.0
 12
407.597663
 22
162.629976
 32
0.0
 13
407.597663
 23
162.629976
 33
0.0
  0
SOLID
  5
719
330
713
100
AcDbEntity
  8
LC-005-003-----0
 62
     2
100
AcDbTrace
 10
454.597663
 20
157.963309
 30
0.0
 11
454.597663
 21
167.296642
 31
0.0
 12
482.597663
 22
162.629976
 32
0.0
 13
482.597663
 23
162.629976
 33
0.0
  0
MTEXT
  5
71A
330
713
100
AcDbEntity
  8
LC-005-003-----0
 62
     2
100
AcDbMText
 10
556.527417
 20
193.429976
 30
0.0
 40
28.0
 41
0.0
 71
     5
 72
     1
  1
\A1;DN70
  7
LCTX15-400-0-0pDIN-Schrift
 73
     1
 44
1.0
  0
POINT
  5
71B
330
713
100
AcDbEntity
  8
Defpoints
 62
     0
100
AcDbPoint
 10
407.597663
 20
189.301103
 30
0.0
  0
POINT
  5
71C
330
713
100
AcDbEntity
  8
Defpoints
 62
     0
100
AcDbPoint
 10
482.597663
 20
183.478798
 30
0.0
  0
POINT
  5
71D
330
713
100
AcDbEntity
  8
Defpoints
 62
     0
100
AcDbPoint
 10
482.597663
 20
162.629976
 30
0.0
  0
ENDBLK
  5
71F
330
713
100
AcDbEntity
  8
0
100
AcDbBlockEnd
  0
BLOCK
  5
72B
330
721
100
AcDbEntity
  8
0
100
AcDbBlockBegin
  2
*D73
 70
     1
 71
     0
 10
0.0
 20
0.0
 30
0.0
  3
*D73
  1

  0
LINE
  5
722
330
721
100
AcDbEntity
  8
LC-005-003-----0
 62
     2
370
    -2
100
AcDbLine
 10
195.097663
 20
336.723985
 30
0.0
 11
253.407304
 21
336.723985
 31
0.0
  0
LINE
  5
723
330
721
100
AcDbEntity
  8
LC-005-003-----0
 62
     2
370
    -2
100
AcDbLine
 10
375.878951
 20
234.723978
 30
0.0
 11
246.207304
 21
234.723978
 31
0.0
  0
LINE
  5
724
330
721
100
AcDbEntity
  8
LC-005-003-----0
 62
     2
370
    -2
100
AcDbLine
 10
249.807304
 20
308.723985
 30
0.0
 11
249.807304
 21
262.723978
 31
0.0
  0
SOLID
  5
725
330
721
100
AcDbEntity
  8
LC-005-003-----0
 62
     2
100
AcDbTrace
 10
254.473971
 20
308.723985
 30
0.0
 11
245.140637
 21
308.723985
 31
0.0
 12
249.807304
 22
336.723985
 32
0.0
 13
249.807304
 23
336.723985
 33
0.0
  0
SOLID
  5
726
330
721
100
AcDbEntity
  8
LC-005-003-----0
 62
     2
100
AcDbTrace
 10
245.140637
 20
262.723978
 30
0.0
 11
254.473971
 21
262.723978
 31
0.0
 12
249.807304
 22
234.723978
 32
0.0
 13
249.807304
 23
234.723978
 33
0.0
  0
MTEXT
  5
727
330
721
100
AcDbEntity
  8
LC-005-003-----0
 62
     2
100
AcDbMText
 10
219.007304
 20
284.399976
 30
0.0
 40
28.0
 41
0.0
 71
     5
 72
     1
  1
\A1;102
  7
LCTX15-400-0-0pDIN-Schrift
 11
6.123031769111886E-17
 21
1.0
 31
0.0
 73
     1
 44
1.0
  0
POINT
  5
728
330
721
100
AcDbEntity
  8
Defpoints
 62
     0
100
AcDbPoint
 10
195.097663
 20
336.723985
 30
0.0
  0
POINT
  5
729
330
721
100
AcDbEntity
  8
Defpoints
 62
     0
100
AcDbPoint
 10
375.878951
 20
234.723978
 30
0.0
  0
POINT
  5
72A
330
721
100
AcDbEntity
  8
Defpoints
 62
     0
100
AcDbPoint
 10
249.807304
 20
234.723978
 30
0.0
  0
ENDBLK
  5
72C
330
721
100
AcDbEntity
  8
0
100
AcDbBlockEnd
  0
BLOCK
  5
73A
330
72E
100
AcDbEntity
  8
0
100
AcDbBlockBegin
  2
*D74
 70
     1
 71
     0
 10
0.0
 20
0.0
 30
0.0
  3
*D74
  1

  0
LINE
  5
72F
330
72E
100
AcDbEntity
  8
LC-005-003-----0
 62
     2
370
    -2
100
AcDbLine
 10
375.878951
 20
234.723978
 30
0.0
 11
305.601083
 21
234.723978
 31
0.0
  0
LINE
  5
730
330
72E
100
AcDbEntity
  8
LC-005-003-----0
 62
     2
370
    -2
100
AcDbLine
 10
410.097663
 20
178.723978
 30
0.0
 11
305.601083
 21
178.723978
 31
0.0
  0
LINE
  5
731
330
72E
100
AcDbEntity
  8
LC-005-003-----0
 62
     2
370
    -2
100
AcDbLine
 10
309.201083
 20
262.723978
 30
0.0
 11
309.201083
 21
290.723978
 31
0.0
  0
LINE
  5
732
330
72E
100
AcDbEntity
  8
LC-005-003-----0
 62
     2
370
    -2
100
AcDbLine
 10
309.201083
 20
150.723978
 30
0.0
 11
309.201083
 21
122.723978
 31
0.0
  0
LINE
  5
733
330
72E
100
AcDbEntity
  8
LC-005-003-----0
 62
     2
370
    -2
100
AcDbLine
 10
309.201083
 20
234.723978
 30
0.0
 11
309.201083
 21
178.723978
 31
0.0
  0
SOLID
  5
734
330
72E
100
AcDbEntity
  8
LC-005-003-----0
 62
     2
100
AcDbTrace
 10
304.534417
 20
262.723978
 30
0.0
 11
313.86775
 21
262.723978
 31
0.0
 12
309.201083
 22
234.723978
 32
0.0
 13
309.201083
 23
234.723978
 33
0.0
  0
SOLID
  5
735
330
72E
100
AcDbEntity
  8
LC-005-003-----0
 62
     2
100
AcDbTrace
 10
313.86775
 20
150.723978
 30
0.0
 11
304.534417
 21
150.723978
 31
0.0
 12
309.201083
 22
178.723978
 32
0.0
 13
309.201083
 23
178.723978
 33
0.0
  0
MTEXT
  5
736
330
72E
100
AcDbEntity
  8
LC-005-003-----0
 62
     2
100
AcDbMText
 10
278.401083
 20
197.675976
 30
0.0
 40
28.0
 41
0.0
 71
     5
 72
     1
  1
\A1;56
  7
LCTX15-400-0-0pDIN-Schrift
 11
6.123031769111886E-17
 21
1.0
 31
0.0
 73
     1
 44
1.0
  0
POINT
  5
737
330
72E
100
AcDbEntity
  8
Defpoints
 62
     0
100
AcDbPoint
 10
375.878951
 20
234.723978
 30
0.0
  0
POINT
  5
738
330
72E
100
AcDbEntity
  8
Defpoints
 62
     0
100
AcDbPoint
 10
410.097663
 20
178.723978
 30
0.0
  0
POINT
  5
739
330
72E
100
AcDbEntity
  8
Defpoints
 62
     0
100
AcDbPoint
 10
309.201083
 20
178.723978
 30
0.0
  0
ENDBLK
  5
73B
330
72E
100
AcDbEntity
  8
0
100
AcDbBlockEnd
  0
BLOCK
  5
740
330
73F
100
AcDbEntity
  8
0
100
AcDbBlockBegin
  2
KLON28
 70
     0
 71
     0
 10
0.0
 20
0.0
 30
0.0
  3
KLON28
  1

  4
KLON28
  0
LINE
  5
742
330
73F
100
AcDbEntity
  8
LC-002-100-D00-0
 62
     7
370
    25
100
AcDbLine
 10
394.097663
 20
65.516079
 30
0.0
 11
400.097663
 21
71.516079
 31
0.0
  0
LINE
  5
743
330
73F
100
AcDbEntity
  8
LC-002-100-D00-0
 62
     7
370
    25
100
AcDbLine
 10
394.097663
 20
74.496335
 30
0.0
 11
400.097663
 21
80.496335
 31
0.0
  0
LINE
  5
744
330
73F
100
AcDbEntity
  8
LC-002-100-D00-0
 62
     7
370
    25
100
AcDbLine
 10
394.097663
 20
83.476592
 30
0.0
 11
400.097663
 21
89.476592
 31
0.0
  0
LINE
  5
745
330
73F
100
AcDbEntity
  8
LC-002-100-D00-0
 62
     7
370
    25
100
AcDbLine
 10
394.097663
 20
92.456848
 30
0.0
 11
400.097663
 21
98.456848
 31
0.0
  0
LINE
  5
746
330
73F
100
AcDbEntity
  8
LC-002-100-D00-0
 62
     7
370
    25
100
AcDbLine
 10
394.097663
 20
101.437104
 30
0.0
 11
400.097663
 21
107.437104
 31
0.0
  0
LINE
  5
747
330
73F
100
AcDbEntity
  8
LC-002-100-D00-0
 62
     7
370
    25
100
AcDbLine
 10
394.097663
 20
110.41736
 30
0.0
 11
400.097663
 21
116.41736
 31
0.0
  0
LINE
  5
748
330
73F
100
AcDbEntity
  8
LC-002-100-D00-0
 62
     7
370
    25
100
AcDbLine
 10
394.097663
 20
119.397616
 30
0.0
 11
400.097663
 21
125.397616
 31
0.0
  0
LINE
  5
749
330
73F
100
AcDbEntity
  8
LC-002-100-D00-0
 62
     7
370
    25
100
AcDbLine
 10
394.097663
 20
128.377872
 30
0.0
 11
400.097663
 21
134.377872
 31
0.0
  0
LINE
  5
74A
330
73F
100
AcDbEntity
  8
LC-002-100-D00-0
 62
     7
370
    25
100
AcDbLine
 10
394.097663
 20
137.358128
 30
0.0
 11
400.097663
 21
143.358128
 31
0.0
  0
LINE
  5
74B
330
73F
100
AcDbEntity
  8
LC-002-100-D00-0
 62
     7
370
    25
100
AcDbLine
 10
394.097663
 20
146.338384
 30
0.0
 11
400.097663
 21
152.338384
 31
0.0
  0
LINE
  5
74C
330
73F
100
AcDbEntity
  8
LC-002-100-D00-0
 62
     7
370
    25
100
AcDbLine
 10
394.097663
 20
155.318641
 30
0.0
 11
400.097663
 21
161.318641
 31
0.0
  0
LINE
  5
74D
330
73F
100
AcDbEntity
  8
LC-002-100-D00-0
 62
     7
370
    25
100
AcDbLine
 10
394.097663
 20
164.298897
 30
0.0
 11
400.097663
 21
170.298897
 31
0.0
  0
LINE
  5
74E
330
73F
100
AcDbEntity
  8
LC-002-100-D00-0
 62
     7
370
    25
100
AcDbLine
 10
394.097663
 20
173.279153
 30
0.0
 11
400.097663
 21
179.279153
 31
0.0
  0
LINE
  5
74F
330
73F
100
AcDbEntity
  8
LC-002-100-D00-0
 62
     7
370
    25
100
AcDbLine
 10
394.097663
 20
182.259409
 30
0.0
 11
400.097663
 21
188.259409
 31
0.0
  0
LINE
  5
750
330
73F
100
AcDbEntity
  8
LC-002-100-D00-0
 62
     7
370
    25
100
AcDbLine
 10
394.097663
 20
191.239665
 30
0.0
 11
400.097663
 21
197.239665
 31
0.0
  0
LINE
  5
751
330
73F
100
AcDbEntity
  8
LC-002-100-D00-0
 62
     7
370
    25
100
AcDbLine
 10
394.097663
 20
200.219921
 30
0.0
 11
400.097663
 21
206.219921
 31
0.0
  0
LINE
  5
752
330
73F
100
AcDbEntity
  8
LC-002-100-D00-0
 62
     7
370
    25
100
AcDbLine
 10
394.097663
 20
209.200177
 30
0.0
 11
400.097663
 21
215.200177
 31
0.0
  0
LINE
  5
753
330
73F
100
AcDbEntity
  8
LC-002-100-D00-0
 62
     7
370
    25
100
AcDbLine
 10
394.097663
 20
218.180433
 30
0.0
 11
400.097663
 21
224.180433
 31
0.0
  0
LINE
  5
754
330
73F
100
AcDbEntity
  8
LC-002-100-D00-0
 62
     7
370
    25
100
AcDbLine
 10
394.097663
 20
227.16069
 30
0.0
 11
400.097663
 21
233.16069
 31
0.0
  0
LINE
  5
755
330
73F
100
AcDbEntity
  8
LC-002-100-D00-0
 62
     7
370
    25
100
AcDbLine
 10
394.097663
 20
236.140946
 30
0.0
 11
399.167462
 21
241.210745
 31
0.0
  0
LINE
  5
756
330
73F
100
AcDbEntity
  8
LC-002-100-D00-0
 62
     7
370
    25
100
AcDbLine
 10
387.700439
 20
238.723978
 30
0.0
 11
393.676468
 21
244.700007
 31
0.0
  0
LINE
  5
757
330
73F
100
AcDbEntity
  8
LC-002-100-D00-0
 62
     7
370
    25
100
AcDbLine
 10
378.720183
 20
238.723978
 30
0.0
 11
384.720183
 21
244.723978
 31
0.0
  0
LINE
  5
758
330
73F
100
AcDbEntity
  8
LC-002-100-D00-0
 62
     7
370
    25
100
AcDbLine
 10
372.515822
 20
241.499874
 30
0.0
 11
377.097663
 21
246.081714
 31
0.0
  0
LINE
  5
759
330
73F
100
AcDbEntity
  8
LC-002-100-D00-0
 62
     7
370
    25
100
AcDbLine
 10
371.097663
 20
249.06197
 30
0.0
 11
376.759671
 21
254.723978
 31
0.0
  0
LINE
  5
75A
330
73F
100
AcDbEntity
  8
LC-002-100-D00-0
 62
     7
370
    25
100
AcDbLine
 10
376.950725
 20
254.915032
 30
0.0
 11
377.906609
 21
255.870916
 31
0.0
  0
LINE
  5
75B
330
73F
100
AcDbEntity
  8
LC-002-100-D00-0
 62
     7
370
    25
100
AcDbLine
 10
370.097663
 20
257.042226
 30
0.0
 11
378.075608
 21
265.020172
 31
0.0
  0
ENDBLK
  5
741
330
73F
100
AcDbEntity
  8
0
100
AcDbBlockEnd
  0
BLOCK
  5
76F
330
76E
100
AcDbEntity
  8
0
100
AcDbBlockBegin
  2
KLON29
 70
     0
 71
     0
 10
0.0
 20
0.0
 30
0.0
  3
KLON29
  1

  4
KLON29
  0
LINE
  5
771
330
76E
100
AcDbEntity
  8
LC-002-100-D00-0
 62
     7
370
    25
100
AcDbLine
 10
400.647663
 20
215.750177
 30
0.0
 11
401.347663
 21
216.450177
 31
0.0
  0
LINE
  5
772
330
76E
100
AcDbEntity
  8
LC-002-100-D00-0
 62
     7
370
    25
100
AcDbLine
 10
400.647663
 20
224.730433
 30
0.0
 11
401.347663
 21
225.430433
 31
0.0
  0
LINE
  5
773
330
76E
100
AcDbEntity
  8
LC-002-100-D00-0
 62
     7
370
    25
100
AcDbLine
 10
400.647663
 20
233.71069
 30
0.0
 11
401.347663
 21
234.41069
 31
0.0
  0
ENDBLK
  5
770
330
76E
100
AcDbEntity
  8
0
100
AcDbBlockEnd
  0
BLOCK
  5
776
330
775
100
AcDbEntity
  8
0
100
AcDbBlockBegin
  2
KLON30
 70
     0
 71
     0
 10
0.0
 20
0.0
 30
0.0
  3
KLON30
  1

  4
KLON30
  0
LINE
  5
778
330
775
100
AcDbEntity
  8
LC-002-100-D00-0
 62
     7
370
    25
100
AcDbLine
 10
392.847663
 20
216.930433
 30
0.0
 11
393.547663
 21
217.630433
 31
0.0
  0
LINE
  5
779
330
775
100
AcDbEntity
  8
LC-002-100-D00-0
 62
     7
370
    25
100
AcDbLine
 10
392.847663
 20
225.91069
 30
0.0
 11
393.547663
 21
226.61069
 31
0.0
  0
LINE
  5
77A
330
775
100
AcDbEntity
  8
LC-002-100-D00-0
 62
     7
370
    25
100
AcDbLine
 10
392.847663
 20
234.890946
 30
0.0
 11
393.547663
 21
235.590946
 31
0.0
  0
ENDBLK
  5
777
330
775
100
AcDbEntity
  8
0
100
AcDbBlockEnd
  0
ENDSEC
  0
SECTION
  2
ENTITIES
  0
LINE
  5
31
330
1F
100
AcDbEntity
  8
LC-001-002-----0
 62
     7
370
    50
100
AcDbLine
 10
378.097663
 20
238.723978
 30
0.0
 11
393.097663
 21
238.723978
 31
0.0
  0
LINE
  5
33
330
1F
100
AcDbEntity
  8
LC-002-100-D00-0
 62
     7
370
    -2
100
AcDbLine
 10
406.481716
 20
11.942928
 30
0.0
 11
215.481716
 21
11.942928
 31
0.0
  0
LINE
  5
35
330
1F
100
AcDbEntity
  8
LC-003-105-D00-0
 62
     7
370
    30
100
AcDbLine
 10
215.481716
 20
11.942928
 30
0.0
 11
406.481716
 21
11.942928
 31
0.0
  0
ARC
  5
36
330
1F
100
AcDbEntity
  8
LC-002-100-D00-0
 62
     7
370
    50
100
AcDbCircle
 10
492.097663
 20
336.42657
 30
0.0
 40
6.820236432851901
100
AcDbArc
 50
116.493736
 51
123.008786
  0
ARC
  5
37
330
1F
100
AcDbEntity
  8
LC-002-100-D00-0
 62
     7
370
    50
100
AcDbCircle
 10
489.144376
 20
342.35157
 30
0.0
 40
0.2000000000000455
100
AcDbArc
 50
90.0
 51
116.493736
  0
INSERT
  5
43
330
1F
100
AcDbEntity
  8
LC-002-100-D00-0
 62
     7
370
    50
100
AcDbBlockReference
  2
POLY1
 10
0.0
 20
0.0
 30
0.0
  0
INSERT
  5
4F
330
1F
100
AcDbEntity
  8
LC-002-100-D00-0
 62
     7
370
    50
100
AcDbBlockReference
  2
POLY2
 10
0.0
 20
0.0
 30
0.0
  0
INSERT
  5
5B
330
1F
100
AcDbEntity
  8
LC-002-100-D00-0
 62
     7
370
    50
100
AcDbBlockReference
  2
POLY3
 10
0.0
 20
0.0
 30
0.0
  0
INSERT
  5
67
330
1F
100
AcDbEntity
  8
LC-002-100-D00-0
 62
     7
370
    50
100
AcDbBlockReference
  2
POLY4
 10
0.0
 20
0.0
 30
0.0
  0
INSERT
  5
73
330
1F
100
AcDbEntity
  8
LC-002-100-D00-0
 62
     7
370
    50
100
AcDbBlockReference
  2
POLY5
 10
0.0
 20
0.0
 30
0.0
  0
INSERT
  5
7F
330
1F
100
AcDbEntity
  8
LC-002-100-D00-0
 62
     7
370
    50
100
AcDbBlockReference
  2
POLY6
 10
0.0
 20
0.0
 30
0.0
  0
INSERT
  5
8B
330
1F
100
AcDbEntity
  8
LC-002-100-D00-0
 62
     7
370
    50
100
AcDbBlockReference
  2
POLY7
 10
0.0
 20
0.0
 30
0.0
  0
LINE
  5
8C
330
1F
100
AcDbEntity
  8
LC-002-100-D00-0
 62
     7
370
    50
100
AcDbLine
 10
348.011486
 20
328.14865
 30
0.0
 11
348.205172
 21
328.043985
 31
0.0
  0
INSERT
  5
98
330
1F
100
AcDbEntity
  8
LC-002-100-D00-0
 62
     7
370
    50
100
AcDbBlockReference
  2
POLY8
 10
0.0
 20
0.0
 30
0.0
  0
INSERT
  5
A4
330
1F
100
AcDbEntity
  8
LC-002-100-D00-0
 62
     7
370
    50
100
AcDbBlockReference
  2
POLY9
 10
0.0
 20
0.0
 30
0.0
  0
LINE
  5
A5
330
1F
100
AcDbEntity
  8
LC-002-100-D00-0
 62
     7
370
    50
100
AcDbLine
 10
350.162305
 20
340.551572
 30
0.0
 11
350.162305
 21
342.551576
 31
0.0
  0
LINE
  5
A6
330
1F
100
AcDbEntity
  8
LC-002-100-D00-0
 62
     7
370
    50
100
AcDbLine
 10
488.490384
 20
341.551574
 30
0.0
 11
493.105792
 21
341.551574
 31
0.0
  0
LINE
  5
A7
330
1F
100
AcDbEntity
  8
LC-002-100-D00-0
 62
     7
370
    50
100
AcDbLine
 10
489.144374
 20
342.551576
 30
0.0
 11
492.848426
 21
342.551576
 31
0.0
  0
LINE
  5
A8
330
1F
100
AcDbEntity
  8
LC-002-100-D00-0
 62
     7
370
    50
100
AcDbLine
 10
548.777662
 20
327.973979
 30
0.0
 11
572.817661
 21
336.723985
 31
0.0
  0
LINE
  5
A9
330
1F
100
AcDbEntity
  8
LC-002-100-D00-0
 62
     7
370
    50
100
AcDbLine
 10
317.377664
 20
336.723985
 30
0.0
 11
341.417663
 21
327.973979
 31
0.0
  0
LINE
  5
AA
330
1F
100
AcDbEntity
  8
LC-002-100-D00-0
 62
     7
370
    50
100
AcDbLine
 10
571.988918
 20
341.423976
 30
0.0
 11
547.948912
 21
332.673984
 31
0.0
  0
LINE
  5
AB
330
1F
100
AcDbEntity
  8
LC-002-100-D00-0
 62
     7
370
    50
100
AcDbLine
 10
342.246413
 20
332.673984
 30
0.0
 11
318.206407
 21
341.423976
 31
0.0
  0
LINE
  5
AC
330
1F
100
AcDbEntity
  8
LC-002-100-D00-0
 62
     7
370
    50
100
AcDbLine
 10
318.206407
 20
341.423976
 30
0.0
 11
345.861227
 21
341.423976
 31
0.0
  0
LINE
  5
AD
330
1F
100
AcDbEntity
  8
LC-002-100-D00-0
 62
     7
370
    50
100
AcDbLine
 10
356.334098
 20
341.423976
 30
0.0
 11
360.257641
 21
341.423976
 31
0.0
  0
LINE
  5
AE
330
1F
100
AcDbEntity
  8
LC-002-100-D00-0
 62
     7
370
    50
100
AcDbLine
 10
397.056695
 20
341.423976
 30
0.0
 11
401.681721
 21
341.423976
 31
0.0
  0
LINE
  5
AF
330
1F
100
AcDbEntity
  8
LC-002-100-D00-0
 62
     7
370
    50
100
AcDbLine
 10
411.548499
 20
341.423976
 30
0.0
 11
422.028635
 21
341.423976
 31
0.0
  0
LINE
  5
B0
330
1F
100
AcDbEntity
  8
LC-002-100-D00-0
 62
     7
370
    50
100
AcDbLine
 10
428.326622
 20
341.423976
 30
0.0
 11
443.947663
 21
341.423976
 31
0.0
  0
LINE
  5
B1
330
1F
100
AcDbEntity
  8
LC-002-100-D00-0
 62
     7
370
    50
100
AcDbLine
 10
446.247663
 20
341.423976
 30
0.0
 11
461.868704
 21
341.423976
 31
0.0
  0
LINE
  5
B2
330
1F
100
AcDbEntity
  8
LC-002-100-D00-0
 62
     7
370
    50
100
AcDbLine
 10
468.166691
 20
341.423976
 30
0.0
 11
478.646826
 21
341.423976
 31
0.0
  0
LINE
  5
B3
330
1F
100
AcDbEntity
  8
LC-002-100-D00-0
 62
     7
370
    50
100
AcDbLine
 10
529.937685
 20
341.423976
 30
0.0
 11
571.988918
 21
341.423976
 31
0.0
  0
LINE
  5
B4
330
1F
100
AcDbEntity
  8
LC-002-100-D00-0
 62
     7
370
    50
100
AcDbLine
 10
195.097663
 20
341.423976
 30
0.0
 11
195.097663
 21
336.723985
 31
0.0
  0
LINE
  5
B5
330
1F
100
AcDbEntity
  8
LC-002-100-D00-0
 62
     7
370
    50
100
AcDbLine
 10
347.097665
 20
332.673984
 30
0.0
 11
347.097665
 21
327.973979
 31
0.0
  0
LINE
  5
B6
330
1F
100
AcDbEntity
  8
LC-002-100-D00-0
 62
     7
370
    50
100
AcDbLine
 10
347.097665
 20
332.673984
 30
0.0
 11
342.246413
 21
332.673984
 31
0.0
  0
LINE
  5
B7
330
1F
100
AcDbEntity
  8
LC-002-100-D00-0
 62
     7
370
    50
100
AcDbLine
 10
341.417663
 20
327.973979
 30
0.0
 11
347.097665
 21
327.973979
 31
0.0
  0
LINE
  5
B8
330
1F
100
AcDbEntity
  8
LC-002-100-D00-0
 62
     7
370
    50
100
AcDbLine
 10
195.097663
 20
336.723985
 30
0.0
 11
317.377664
 21
336.723985
 31
0.0
  0
LINE
  5
B9
330
1F
100
AcDbEntity
  8
LC-002-100-D00-0
 62
     7
370
    50
100
AcDbLine
 10
318.206407
 20
341.423976
 30
0.0
 11
195.097663
 21
341.423976
 31
0.0
  0
LINE
  5
BA
330
1F
100
AcDbEntity
  8
LC-002-100-D00-0
 62
     7
370
    50
100
AcDbLine
 10
543.09766
 20
327.973979
 30
0.0
 11
543.09766
 21
332.673984
 31
0.0
  0
LINE
  5
BB
330
1F
100
AcDbEntity
  8
LC-002-100-D00-0
 62
     7
370
    50
100
AcDbLine
 10
695.097663
 20
336.723985
 30
0.0
 11
695.097663
 21
341.423976
 31
0.0
  0
LINE
  5
BC
330
1F
100
AcDbEntity
  8
LC-002-100-D00-0
 62
     7
370
    50
100
AcDbLine
 10
547.948912
 20
332.673984
 30
0.0
 11
543.09766
 21
332.673984
 31
0.0
  0
LINE
  5
BD
330
1F
100
AcDbEntity
  8
LC-002-100-D00-0
 62
     7
370
    50
100
AcDbLine
 10
543.09766
 20
327.973979
 30
0.0
 11
548.777662
 21
327.973979
 31
0.0
  0
LINE
  5
BE
330
1F
100
AcDbEntity
  8
LC-002-100-D00-0
 62
     7
370
    50
100
AcDbLine
 10
572.817661
 20
336.723985
 30
0.0
 11
695.097663
 21
336.723985
 31
0.0
  0
LINE
  5
BF
330
1F
100
AcDbEntity
  8
LC-002-100-D00-0
 62
     7
370
    50
100
AcDbLine
 10
695.097663
 20
341.423976
 30
0.0
 11
571.988918
 21
341.423976
 31
0.0
  0
LINE
  5
C0
330
1F
100
AcDbEntity
  8
LC-002-100-D00-0
 62
     7
370
    50
100
AcDbLine
 10
539.012559
 20
328.043985
 30
0.0
 11
539.012559
 21
332.673984
 31
0.0
  0
LINE
  5
C1
330
1F
100
AcDbEntity
  8
LC-002-100-D00-0
 62
     7
370
    50
100
AcDbLine
 10
543.09766
 20
332.673984
 30
0.0
 11
539.012559
 21
332.673984
 31
0.0
  0
LINE
  5
C2
330
1F
100
AcDbEntity
  8
LC-002-100-D00-0
 62
     7
370
    50
100
AcDbLine
 10
349.097662
 20
332.673984
 30
0.0
 11
347.097665
 21
332.673984
 31
0.0
  0
LINE
  5
C3
330
1F
100
AcDbEntity
  8
LC-002-100-D00-0
 62
     7
370
    50
100
AcDbLine
 10
527.500682
 20
327.973979
 30
0.0
 11
527.500682
 21
332.673984
 31
0.0
  0
LINE
  5
C4
330
1F
100
AcDbEntity
  8
LC-002-100-D00-0
 62
     7
370
    50
100
AcDbLine
 10
524.847664
 20
332.673984
 30
0.0
 11
527.500682
 21
332.673984
 31
0.0
  0
LINE
  5
C5
330
1F
100
AcDbEntity
  8
LC-002-100-D00-0
 62
     7
370
    50
100
AcDbLine
 10
524.847664
 20
327.973979
 30
0.0
 11
527.500682
 21
327.973979
 31
0.0
  0
LINE
  5
C6
330
1F
100
AcDbEntity
  8
LC-002-100-D00-0
 62
     7
370
    50
100
AcDbLine
 10
539.012559
 20
332.673984
 30
0.0
 11
527.500682
 21
332.673984
 31
0.0
  0
LINE
  5
C7
330
1F
100
AcDbEntity
  8
LC-002-100-D00-0
 62
     7
370
    50
100
AcDbLine
 10
362.694644
 20
332.673984
 30
0.0
 11
362.694644
 21
327.973979
 31
0.0
  0
LINE
  5
C8
330
1F
100
AcDbEntity
  8
LC-002-100-D00-0
 62
     7
370
    50
100
AcDbLine
 10
362.694644
 20
332.673984
 30
0.0
 11
354.115412
 21
332.673984
 31
0.0
  0
LINE
  5
C9
330
1F
100
AcDbEntity
  8
LC-002-100-D00-0
 62
     7
370
    50
100
AcDbLine
 10
362.694644
 20
332.673984
 30
0.0
 11
365.347661
 21
332.673984
 31
0.0
  0
LINE
  5
CA
330
1F
100
AcDbEntity
  8
LC-002-100-D00-0
 62
     7
370
    50
100
AcDbLine
 10
362.694644
 20
327.973979
 30
0.0
 11
365.347661
 21
327.973979
 31
0.0
  0
LINE
  5
CB
330
1F
100
AcDbEntity
  8
LC-002-100-D00-0
 62
     7
370
    50
100
AcDbLine
 10
501.297664
 20
376.839476
 30
0.0
 11
493.546244
 21
398.136335
 31
0.0
  0
LINE
  5
CC
330
1F
100
AcDbEntity
  8
LC-002-100-D00-0
 62
     7
370
    50
100
AcDbLine
 10
493.546244
 20
398.136335
 30
0.0
 11
493.546244
 21
397.751572
 31
0.0
  0
LINE
  5
CD
330
1F
100
AcDbEntity
  8
LC-002-100-D00-0
 62
     7
370
    50
100
AcDbLine
 10
493.546244
 20
397.751572
 30
0.0
 11
396.649082
 21
397.751572
 31
0.0
  0
LINE
  5
CE
330
1F
100
AcDbEntity
  8
LC-002-100-D00-0
 62
     7
370
    50
100
AcDbLine
 10
396.649082
 20
397.751572
 30
0.0
 11
396.649082
 21
398.136335
 31
0.0
  0
LINE
  5
CF
330
1F
100
AcDbEntity
  8
LC-002-100-D00-0
 62
     7
370
    50
100
AcDbLine
 10
396.649082
 20
398.136335
 30
0.0
 11
388.897661
 21
376.839476
 31
0.0
  0
LINE
  5
D0
330
1F
100
AcDbEntity
  8
LC-002-100-D00-0
 62
     7
370
    50
100
AcDbLine
 10
388.897661
 20
376.839476
 30
0.0
 11
388.897661
 21
372.15163
 31
0.0
  0
LINE
  5
D1
330
1F
100
AcDbEntity
  8
LC-002-100-D00-0
 62
     7
370
    50
100
AcDbLine
 10
388.897661
 20
372.15163
 30
0.0
 11
387.191426
 21
372.15163
 31
0.0
  0
LINE
  5
D2
330
1F
100
AcDbEntity
  8
LC-002-100-D00-0
 62
     7
370
    50
100
AcDbLine
 10
387.191426
 20
372.15163
 30
0.0
 11
374.598034
 21
337.551566
 31
0.0
  0
LINE
  5
D3
330
1F
100
AcDbEntity
  8
LC-002-100-D00-0
 62
     7
370
    50
100
AcDbLine
 10
374.598034
 20
337.551566
 30
0.0
 11
374.597661
 21
337.551566
 31
0.0
  0
LINE
  5
D4
330
1F
100
AcDbEntity
  8
LC-002-100-D00-0
 62
     7
370
    50
100
AcDbLine
 10
374.597661
 20
329.85157
 30
0.0
 11
374.597661
 21
337.551566
 31
0.0
  0
LINE
  5
D5
330
1F
100
AcDbEntity
  8
LC-002-100-D00-0
 62
     7
370
    50
100
AcDbLine
 10
374.09766
 20
329.85157
 30
0.0
 11
374.597661
 21
329.85157
 31
0.0
  0
LINE
  5
D6
330
1F
100
AcDbEntity
  8
LC-002-100-D00-0
 62
     7
370
    50
100
AcDbLine
 10
374.09766
 20
308.551567
 30
0.0
 11
374.09766
 21
329.85157
 31
0.0
  0
LINE
  5
D7
330
1F
100
AcDbEntity
  8
LC-002-100-D00-0
 62
     7
370
    50
100
AcDbLine
 10
370.697662
 20
308.551567
 30
0.0
 11
374.09766
 21
308.551567
 31
0.0
  0
ARC
  5
D8
330
1F
100
AcDbEntity
  8
LC-002-100-D00-0
 62
     7
370
    50
100
AcDbCircle
 10
370.697663
 20
309.55157
 30
0.0
 40
1.0
100
AcDbArc
 50
180.0
 51
270.0
  0
ARC
  5
D9
330
1F
100
AcDbEntity
  8
LC-002-100-D00-0
 62
     7
370
    50
100
AcDbCircle
 10
370.697663
 20
309.55157
 30
0.0
 40
1.000000000000114
100
AcDbArc
 50
90.0
 51
180.0
  0
LINE
  5
DA
330
1F
100
AcDbEntity
  8
LC-002-100-D00-0
 62
     7
370
    50
100
AcDbLine
 10
370.697662
 20
310.551571
 30
0.0
 11
371.197663
 21
310.551571
 31
0.0
  0
LINE
  5
DB
330
1F
100
AcDbEntity
  8
LC-002-100-D00-0
 62
     7
370
    50
100
AcDbLine
 10
371.197663
 20
310.551571
 30
0.0
 11
371.197663
 21
337.551566
 31
0.0
  0
LINE
  5
DC
330
1F
100
AcDbEntity
  8
LC-002-100-D00-0
 62
     7
370
    50
100
AcDbLine
 10
371.197663
 20
337.551566
 30
0.0
 11
362.704762
 21
337.551566
 31
0.0
  0
LINE
  5
DD
330
1F
100
AcDbEntity
  8
LC-002-100-D00-0
 62
     7
370
    50
100
AcDbLine
 10
359.512195
 20
339.3759
 30
0.0
 11
362.704762
 21
337.551566
 31
0.0
  0
LINE
  5
DE
330
1F
100
AcDbEntity
  8
LC-002-100-D00-0
 62
     7
370
    50
100
AcDbLine
 10
382.553689
 20
402.681874
 30
0.0
 11
359.512195
 21
339.3759
 31
0.0
  0
ARC
  5
DF
330
1F
100
AcDbEntity
  8
LC-002-100-D00-0
 62
     7
370
    50
100
AcDbCircle
 10
396.649081
 20
397.551576
 30
0.0
 40
15.0
100
AcDbArc
 50
90.0
 51
160.0
  0
LINE
  5
E0
330
1F
100
AcDbEntity
  8
LC-002-100-D00-0
 62
     7
370
    50
100
AcDbLine
 10
396.649082
 20
412.551569
 30
0.0
 11
456.899927
 21
412.551569
 31
0.0
  0
LINE
  5
E1
330
1F
100
AcDbEntity
  8
LC-002-100-D00-0
 62
     7
370
    50
100
AcDbLine
 10
456.899927
 20
412.551569
 30
0.0
 11
456.899927
 21
412.651571
 31
0.0
  0
LINE
  5
E2
330
1F
100
AcDbEntity
  8
LC-002-100-D00-0
 62
     7
370
    50
100
AcDbLine
 10
457.725981
 20
412.651571
 30
0.0
 11
456.899927
 21
412.651571
 31
0.0
  0
LINE
  5
E3
330
1F
100
AcDbEntity
  8
LC-002-100-D00-0
 62
     7
370
    50
100
AcDbLine
 10
457.725981
 20
412.551569
 30
0.0
 11
457.725981
 21
412.651571
 31
0.0
  0
LINE
  5
E4
330
1F
100
AcDbEntity
  8
LC-002-100-D00-0
 62
     7
370
    50
100
AcDbLine
 10
457.725981
 20
412.551569
 30
0.0
 11
458.303604
 21
412.551569
 31
0.0
  0
LINE
  5
E5
330
1F
100
AcDbEntity
  8
LC-002-100-D00-0
 62
     7
370
    50
100
AcDbLine
 10
458.303604
 20
412.651571
 30
0.0
 11
458.303604
 21
412.551569
 31
0.0
  0
LINE
  5
E6
330
1F
100
AcDbEntity
  8
LC-002-100-D00-0
 62
     7
370
    50
100
AcDbLine
 10
459.042705
 20
412.651571
 30
0.0
 11
458.303604
 21
412.651571
 31
0.0
  0
LINE
  5
E7
330
1F
100
AcDbEntity
  8
LC-002-100-D00-0
 62
     7
370
    50
100
AcDbLine
 10
459.042705
 20
412.651571
 30
0.0
 11
459.042705
 21
412.551569
 31
0.0
  0
LINE
  5
E8
330
1F
100
AcDbEntity
  8
LC-002-100-D00-0
 62
     7
370
    50
100
AcDbLine
 10
459.042705
 20
412.551569
 30
0.0
 11
459.421569
 21
412.551569
 31
0.0
  0
LINE
  5
E9
330
1F
100
AcDbEntity
  8
LC-002-100-D00-0
 62
     7
370
    50
100
AcDbLine
 10
459.421569
 20
412.551569
 30
0.0
 11
459.421569
 21
412.651571
 31
0.0
  0
LINE
  5
EA
330
1F
100
AcDbEntity
  8
LC-002-100-D00-0
 62
     7
370
    50
100
AcDbLine
 10
461.769302
 20
412.651571
 30
0.0
 11
459.421569
 21
412.651571
 31
0.0
  0
LINE
  5
EB
330
1F
100
AcDbEntity
  8
LC-002-100-D00-0
 62
     7
370
    50
100
AcDbLine
 10
461.769302
 20
412.651571
 30
0.0
 11
461.769302
 21
412.551569
 31
0.0
  0
LINE
  5
EC
330
1F
100
AcDbEntity
  8
LC-002-100-D00-0
 62
     7
370
    50
100
AcDbLine
 10
461.769302
 20
412.551569
 30
0.0
 11
462.204069
 21
412.551569
 31
0.0
  0
LINE
  5
ED
330
1F
100
AcDbEntity
  8
LC-002-100-D00-0
 62
     7
370
    50
100
AcDbLine
 10
462.204069
 20
412.551569
 30
0.0
 11
462.204069
 21
412.651571
 31
0.0
  0
LINE
  5
EE
330
1F
100
AcDbEntity
  8
LC-002-100-D00-0
 62
     7
370
    50
100
AcDbLine
 10
462.204069
 20
412.651571
 30
0.0
 11
462.986646
 21
412.651571
 31
0.0
  0
LINE
  5
EF
330
1F
100
AcDbEntity
  8
LC-002-100-D00-0
 62
     7
370
    50
100
AcDbLine
 10
462.986646
 20
412.651571
 30
0.0
 11
462.986646
 21
412.551569
 31
0.0
  0
LINE
  5
F0
330
1F
100
AcDbEntity
  8
LC-002-100-D00-0
 62
     7
370
    50
100
AcDbLine
 10
462.986646
 20
412.551569
 30
0.0
 11
464.07356
 21
412.551569
 31
0.0
  0
LINE
  5
F1
330
1F
100
AcDbEntity
  8
LC-002-100-D00-0
 62
     7
370
    50
100
AcDbLine
 10
464.07356
 20
412.551569
 30
0.0
 11
464.07356
 21
412.651571
 31
0.0
  0
LINE
  5
F2
330
1F
100
AcDbEntity
  8
LC-002-100-D00-0
 62
     7
370
    50
100
AcDbLine
 10
464.07356
 20
412.651571
 30
0.0
 11
464.856139
 21
412.651571
 31
0.0
  0
LINE
  5
F3
330
1F
100
AcDbEntity
  8
LC-002-100-D00-0
 62
     7
370
    50
100
AcDbLine
 10
464.856139
 20
412.651571
 30
0.0
 11
464.856139
 21
412.551569
 31
0.0
  0
LINE
  5
F4
330
1F
100
AcDbEntity
  8
LC-002-100-D00-0
 62
     7
370
    50
100
AcDbLine
 10
464.856139
 20
412.551569
 30
0.0
 11
465.943054
 21
412.551569
 31
0.0
  0
LINE
  5
F5
330
1F
100
AcDbEntity
  8
LC-002-100-D00-0
 62
     7
370
    50
100
AcDbLine
 10
465.943054
 20
412.551569
 30
0.0
 11
465.943054
 21
412.651571
 31
0.0
  0
LINE
  5
F6
330
1F
100
AcDbEntity
  8
LC-002-100-D00-0
 62
     7
370
    50
100
AcDbLine
 10
466.725631
 20
412.651571
 30
0.0
 11
465.943054
 21
412.651571
 31
0.0
  0
LINE
  5
F7
330
1F
100
AcDbEntity
  8
LC-002-100-D00-0
 62
     7
370
    50
100
AcDbLine
 10
466.725631
 20
412.651571
 30
0.0
 11
466.725631
 21
412.551569
 31
0.0
  0
LINE
  5
F8
330
1F
100
AcDbEntity
  8
LC-002-100-D00-0
 62
     7
370
    50
100
AcDbLine
 10
466.725631
 20
412.551569
 30
0.0
 11
467.290826
 21
412.551569
 31
0.0
  0
LINE
  5
F9
330
1F
100
AcDbEntity
  8
LC-002-100-D00-0
 62
     7
370
    50
100
AcDbLine
 10
467.290826
 20
412.551569
 30
0.0
 11
467.290826
 21
412.651571
 31
0.0
  0
LINE
  5
FA
330
1F
100
AcDbEntity
  8
LC-002-100-D00-0
 62
     7
370
    50
100
AcDbLine
 10
468.116882
 20
412.651571
 30
0.0
 11
467.290826
 21
412.651571
 31
0.0
  0
LINE
  5
FB
330
1F
100
AcDbEntity
  8
LC-002-100-D00-0
 62
     7
370
    50
100
AcDbLine
 10
468.116882
 20
412.651571
 30
0.0
 11
468.116882
 21
412.551569
 31
0.0
  0
LINE
  5
FC
330
1F
100
AcDbEntity
  8
LC-002-100-D00-0
 62
     7
370
    50
100
AcDbLine
 10
468.116882
 20
412.551569
 30
0.0
 11
468.682077
 21
412.551569
 31
0.0
  0
LINE
  5
FD
330
1F
100
AcDbEntity
  8
LC-002-100-D00-0
 62
     7
370
    50
100
AcDbLine
 10
468.682077
 20
412.551569
 30
0.0
 11
468.682077
 21
412.651571
 31
0.0
  0
LINE
  5
FE
330
1F
100
AcDbEntity
  8
LC-002-100-D00-0
 62
     7
370
    50
100
AcDbLine
 10
469.464654
 20
412.651571
 30
0.0
 11
468.682077
 21
412.651571
 31
0.0
  0
LINE
  5
FF
330
1F
100
AcDbEntity
  8
LC-002-100-D00-0
 62
     7
370
    50
100
AcDbLine
 10
469.464654
 20
412.651571
 30
0.0
 11
469.464654
 21
412.551569
 31
0.0
  0
LINE
  5
100
330
1F
100
AcDbEntity
  8
LC-002-100-D00-0
 62
     7
370
    50
100
AcDbLine
 10
469.464654
 20
412.551569
 30
0.0
 11
469.812468
 21
412.551569
 31
0.0
  0
LINE
  5
101
330
1F
100
AcDbEntity
  8
LC-002-100-D00-0
 62
     7
370
    50
100
AcDbLine
 10
469.812468
 20
412.551569
 30
0.0
 11
469.812468
 21
412.651571
 31
0.0
  0
LINE
  5
102
330
1F
100
AcDbEntity
  8
LC-002-100-D00-0
 62
     7
370
    50
100
AcDbLine
 10
469.812468
 20
412.651571
 30
0.0
 11
471.725438
 21
412.651571
 31
0.0
  0
LINE
  5
103
330
1F
100
AcDbEntity
  8
LC-002-100-D00-0
 62
     7
370
    50
100
AcDbLine
 10
471.725438
 20
412.651571
 30
0.0
 11
471.725438
 21
412.551569
 31
0.0
  0
LINE
  5
104
330
1F
100
AcDbEntity
  8
LC-002-100-D00-0
 62
     7
370
    50
100
AcDbLine
 10
471.725438
 20
412.551569
 30
0.0
 11
472.203678
 21
412.551569
 31
0.0
  0
LINE
  5
105
330
1F
100
AcDbEntity
  8
LC-002-100-D00-0
 62
     7
370
    50
100
AcDbLine
 10
472.203678
 20
412.551569
 30
0.0
 11
472.203678
 21
412.651571
 31
0.0
  0
LINE
  5
106
330
1F
100
AcDbEntity
  8
LC-002-100-D00-0
 62
     7
370
    50
100
AcDbLine
 10
474.526745
 20
412.651571
 30
0.0
 11
472.203678
 21
412.651571
 31
0.0
  0
LINE
  5
107
330
1F
100
AcDbEntity
  8
LC-002-100-D00-0
 62
     7
370
    50
100
AcDbLine
 10
474.526745
 20
412.651571
 30
0.0
 11
474.526745
 21
412.551569
 31
0.0
  0
LINE
  5
108
330
1F
100
AcDbEntity
  8
LC-002-100-D00-0
 62
     7
370
    50
100
AcDbLine
 10
474.526745
 20
412.551569
 30
0.0
 11
493.546244
 21
412.551569
 31
0.0
  0
ARC
  5
109
330
1F
100
AcDbEntity
  8
LC-002-100-D00-0
 62
     7
370
    50
100
AcDbCircle
 10
493.546245
 20
397.551576
 30
0.0
 40
14.99999999999998
100
AcDbArc
 50
20.0
 51
90.0
  0
LINE
  5
10A
330
1F
100
AcDbEntity
  8
LC-002-100-D00-0
 62
     7
370
    50
100
AcDbLine
 10
530.68313
 20
339.3759
 30
0.0
 11
507.641636
 21
402.681874
 31
0.0
  0
LINE
  5
10B
330
1F
100
AcDbEntity
  8
LC-002-100-D00-0
 62
     7
370
    50
100
AcDbLine
 10
527.490564
 20
337.551566
 30
0.0
 11
530.68313
 21
339.3759
 31
0.0
  0
LINE
  5
10C
330
1F
100
AcDbEntity
  8
LC-002-100-D00-0
 62
     7
370
    50
100
AcDbLine
 10
527.490564
 20
337.551566
 30
0.0
 11
518.997662
 21
337.551566
 31
0.0
  0
LINE
  5
10D
330
1F
100
AcDbEntity
  8
LC-002-100-D00-0
 62
     7
370
    50
100
AcDbLine
 10
518.997662
 20
337.551566
 30
0.0
 11
518.997662
 21
310.551571
 31
0.0
  0
LINE
  5
10E
330
1F
100
AcDbEntity
  8
LC-002-100-D00-0
 62
     7
370
    50
100
AcDbLine
 10
518.997662
 20
310.551571
 30
0.0
 11
519.497663
 21
310.551571
 31
0.0
  0
ARC
  5
10F
330
1F
100
AcDbEntity
  8
LC-002-100-D00-0
 62
     7
370
    50
100
AcDbCircle
 10
519.497663
 20
309.55157
 30
0.0
 40
1.000000000000114
100
AcDbArc
 50
0.0
 51
90.0
  0
ARC
  5
110
330
1F
100
AcDbEntity
  8
LC-002-100-D00-0
 62
     7
370
    50
100
AcDbCircle
 10
519.497663
 20
309.55157
 30
0.0
 40
1.0
100
AcDbArc
 50
270.0
 51
0.0
  0
LINE
  5
111
330
1F
100
AcDbEntity
  8
LC-002-100-D00-0
 62
     7
370
    50
100
AcDbLine
 10
516.097665
 20
308.551567
 30
0.0
 11
519.497663
 21
308.551567
 31
0.0
  0
LINE
  5
112
330
1F
100
AcDbEntity
  8
LC-002-100-D00-0
 62
     7
370
    50
100
AcDbLine
 10
516.097665
 20
329.85157
 30
0.0
 11
516.097665
 21
308.551567
 31
0.0
  0
LINE
  5
113
330
1F
100
AcDbEntity
  8
LC-002-100-D00-0
 62
     7
370
    50
100
AcDbLine
 10
515.597664
 20
329.85157
 30
0.0
 11
516.097665
 21
329.85157
 31
0.0
  0
LINE
  5
114
330
1F
100
AcDbEntity
  8
LC-002-100-D00-0
 62
     7
370
    50
100
AcDbLine
 10
515.597664
 20
337.551566
 30
0.0
 11
515.597664
 21
329.85157
 31
0.0
  0
LINE
  5
115
330
1F
100
AcDbEntity
  8
LC-002-100-D00-0
 62
     7
370
    50
100
AcDbLine
 10
515.597664
 20
337.551566
 30
0.0
 11
515.597292
 21
337.551566
 31
0.0
  0
LINE
  5
116
330
1F
100
AcDbEntity
  8
LC-002-100-D00-0
 62
     7
370
    50
100
AcDbLine
 10
515.597292
 20
337.551566
 30
0.0
 11
503.003899
 21
372.15163
 31
0.0
  0
LINE
  5
117
330
1F
100
AcDbEntity
  8
LC-002-100-D00-0
 62
     7
370
    50
100
AcDbLine
 10
503.003899
 20
372.15163
 30
0.0
 11
501.297664
 21
372.15163
 31
0.0
  0
LINE
  5
118
330
1F
100
AcDbEntity
  8
LC-002-100-D00-0
 62
     7
370
    50
100
AcDbLine
 10
501.297664
 20
372.15163
 30
0.0
 11
501.297664
 21
376.839476
 31
0.0
  0
LINE
  5
119
330
1F
100
AcDbEntity
  8
LC-002-100-D00-0
 62
     7
370
    50
100
AcDbLine
 10
515.11024
 20
308.551567
 30
0.0
 11
516.097665
 21
308.551567
 31
0.0
  0
LINE
  5
11A
330
1F
100
AcDbEntity
  8
LC-002-100-D00-0
 62
     7
370
    50
100
AcDbLine
 10
515.11024
 20
308.551567
 30
0.0
 11
515.11024
 21
328.851568
 31
0.0
  0
INSERT
  5
12C
330
1F
100
AcDbEntity
  8
LC-002-100-D00-0
 62
     7
370
    50
100
AcDbBlockReference
  2
POLY10
 10
0.0
 20
0.0
 30
0.0
  0
INSERT
  5
13E
330
1F
100
AcDbEntity
  8
LC-002-100-D00-0
 62
     7
370
    50
100
AcDbBlockReference
  2
POLY11
 10
0.0
 20
0.0
 30
0.0
  0
LINE
  5
13F
330
1F
100
AcDbEntity
  8
LC-002-100-D00-0
 62
     7
370
    50
100
AcDbLine
 10
375.085108
 20
328.851568
 30
0.0
 11
375.085108
 21
308.551567
 31
0.0
  0
LINE
  5
140
330
1F
100
AcDbEntity
  8
LC-002-100-D00-0
 62
     7
370
    50
100
AcDbLine
 10
374.09766
 20
308.551567
 30
0.0
 11
375.085108
 21
308.551567
 31
0.0
  0
LINE
  5
141
330
1F
100
AcDbEntity
  8
LC-002-100-D00-0
 62
     7
370
    50
100
AcDbLine
 10
374.598034
 20
337.551566
 30
0.0
 11
376.940996
 21
337.551566
 31
0.0
  0
LINE
  5
142
330
1F
100
AcDbEntity
  8
LC-002-100-D00-0
 62
     7
370
    50
100
AcDbLine
 10
377.059512
 20
337.551566
 30
0.0
 11
383.928716
 21
337.551566
 31
0.0
  0
LINE
  5
143
330
1F
100
AcDbEntity
  8
LC-002-100-D00-0
 62
     7
370
    50
100
AcDbLine
 10
384.157669
 20
337.551566
 30
0.0
 11
395.085003
 21
337.551566
 31
0.0
  0
LINE
  5
144
330
1F
100
AcDbEntity
  8
LC-002-100-D00-0
 62
     7
370
    50
100
AcDbLine
 10
395.408791
 20
337.551566
 30
0.0
 11
409.64957
 21
337.551566
 31
0.0
  0
LINE
  5
145
330
1F
100
AcDbEntity
  8
LC-002-100-D00-0
 62
     7
370
    50
100
AcDbLine
 10
410.046127
 20
337.551566
 30
0.0
 11
426.629864
 21
337.551566
 31
0.0
  0
LINE
  5
146
330
1F
100
AcDbEntity
  8
LC-002-100-D00-0
 62
     7
370
    50
100
AcDbLine
 10
427.072168
 20
337.551566
 30
0.0
 11
444.868709
 21
337.551566
 31
0.0
  0
LINE
  5
147
330
1F
100
AcDbEntity
  8
LC-002-100-D00-0
 62
     7
370
    50
100
AcDbLine
 10
445.326616
 20
337.551566
 30
0.0
 11
463.123158
 21
337.551566
 31
0.0
  0
LINE
  5
148
330
1F
100
AcDbEntity
  8
LC-002-100-D00-0
 62
     7
370
    50
100
AcDbLine
 10
463.565462
 20
337.551566
 30
0.0
 11
480.149199
 21
337.551566
 31
0.0
  0
LINE
  5
149
330
1F
100
AcDbEntity
  8
LC-002-100-D00-0
 62
     7
370
    50
100
AcDbLine
 10
480.545756
 20
337.551566
 30
0.0
 11
494.786535
 21
337.551566
 31
0.0
  0
LINE
  5
14A
330
1F
100
AcDbEntity
  8
LC-002-100-D00-0
 62
     7
370
    50
100
AcDbLine
 10
495.110322
 20
337.551566
 30
0.0
 11
506.037656
 21
337.551566
 31
0.0
  0
LINE
  5
14B
330
1F
100
AcDbEntity
  8
LC-002-100-D00-0
 62
     7
370
    50
100
AcDbLine
 10
506.266609
 20
337.551566
 30
0.0
 11
513.135813
 21
337.551566
 31
0.0
  0
LINE
  5
14C
330
1F
100
AcDbEntity
  8
LC-002-100-D00-0
 62
     7
370
    50
100
AcDbLine
 10
513.25433
 20
337.551566
 30
0.0
 11
515.597292
 21
337.551566
 31
0.0
  0
LINE
  5
14D
330
1F
100
AcDbEntity
  8
LC-002-100-D00-0
 62
     7
370
    50
100
AcDbLine
 10
374.597661
 20
329.85157
 30
0.0
 11
515.597664
 21
329.85157
 31
0.0
  0
LINE
  5
14E
330
1F
100
AcDbEntity
  8
LC-002-100-D00-0
 62
     7
370
    50
100
AcDbLine
 10
390.526355
 20
377.458336
 30
0.0
 11
389.122907
 21
377.458336
 31
0.0
  0
LINE
  5
14F
330
1F
100
AcDbEntity
  8
LC-002-100-D00-0
 62
     7
370
    50
100
AcDbLine
 10
390.526355
 20
377.458336
 30
0.0
 11
390.526355
 21
376.871812
 31
0.0
  0
ELLIPSE
  5
150
330
1F
100
AcDbEntity
  8
LC-002-100-D00-0
 62
     7
370
    50
100
AcDbEllipse
 10
445.097663
 20
531.247746
 30
0.0
 11
-54.69271162376123
 21
-154.3402810314084
 31
0.0
210
0.0
220
0.0
230
1.0
 40
0.083767
 41
3.150803750597174
 42
3.19173187407301
  0
LINE
  5
151
330
1F
100
AcDbEntity
  8
LC-002-100-D00-0
 62
     7
370
    50
100
AcDbLine
 10
395.862226
 20
377.458336
 30
0.0
 11
391.327843
 21
377.458336
 31
0.0
  0
LINE
  5
152
330
1F
100
AcDbEntity
  8
LC-002-100-D00-0
 62
     7
370
    50
100
AcDbLine
 10
395.862226
 20
377.458336
 30
0.0
 11
395.862226
 21
376.871812
 31
0.0
  0
ELLIPSE
  5
153
330
1F
100
AcDbEntity
  8
LC-002-100-D00-0
 62
     7
370
    50
100
AcDbEllipse
 10
445.097663
 20
531.247746
 30
0.0
 11
-50.10599910012033
 21
-154.1865670813407
 31
0.0
210
0.0
220
0.0
230
1.0
 40
0.165076
 41
3.174721918189715
 42
3.215650041665552
  0
LINE
  5
154
330
1F
100
AcDbEntity
  8
LC-002-100-D00-0
 62
     7
370
    50
100
AcDbLine
 10
404.55341
 20
377.458336
 30
0.0
 11
397.197105
 21
377.458336
 31
0.0
  0
LINE
  5
155
330
1F
100
AcDbEntity
  8
LC-002-100-D00-0
 62
     7
370
    50
100
AcDbLine
 10
404.55341
 20
377.458336
 30
0.0
 11
404.55341
 21
376.871812
 31
0.0
  0
ELLIPSE
  5
156
330
1F
100
AcDbEntity
  8
LC-002-100-D00-0
 62
     7
370
    50
100
AcDbEllipse
 10
445.097663
 20
531.247746
 30
0.0
 11
-42.26835833949055
 21
-154.0735723013211
 31
0.0
210
0.0
220
0.0
230
0.9999999999999999
 40
0.240393
 41
3.186982284715618
 42
3.227910408191463
  0
LINE
  5
157
330
1F
100
AcDbEntity
  8
LC-002-100-D00-0
 62
     7
370
    50
100
AcDbLine
 10
416.007618
 20
377.458336
 30
0.0
 11
406.330709
 21
377.458336
 31
0.0
  0
LINE
  5
158
330
1F
100
AcDbEntity
  8
LC-002-100-D00-0
 62
     7
370
    50
100
AcDbLine
 10
416.007618
 20
377.458336
 30
0.0
 11
416.007618
 21
376.871812
 31
0.0
  0
ELLIPSE
  5
159
330
1F
100
AcDbEntity
  8
LC-002-100-D00-0
 62
     7
370
    50
100
AcDbEllipse
 10
445.097663
 20
531.247746
 30
0.0
 11
-31.02069845648502
 21
-154.1198904247443
 31
0.0
210
0.0
220
0.0
230
1.0
 40
0.30407
 41
3.182254375888671
 42
3.223182499364512
  0
LINE
  5
15A
330
1F
100
AcDbEntity
  8
LC-002-100-D00-0
 62
     7
370
    50
100
AcDbLine
 10
429.444263
 20
377.458336
 30
0.0
 11
417.999476
 21
377.458336
 31
0.0
  0
LINE
  5
15B
330
1F
100
AcDbEntity
  8
LC-002-100-D00-0
 62
     7
370
    50
100
AcDbLine
 10
429.444263
 20
377.458336
 30
0.0
 11
429.444263
 21
376.871812
 31
0.0
  0
ELLIPSE
  5
15C
330
1F
100
AcDbEntity
  8
LC-002-100-D00-0
 62
     7
370
    50
100
AcDbEllipse
 10
445.097663
 20
531.247746
 30
0.0
 11
-16.5620746345929
 21
-154.3006263193121
 31
0.0
210
0.0
220
0.0
230
1.0
 40
0.348049
 41
3.158469548149914
 42
3.199397671625752
  0
LINE
  5
15D
330
1F
100
AcDbEntity
  8
LC-002-100-D00-0
 62
     7
370
    50
100
AcDbLine
 10
443.947663
 20
377.458336
 30
0.0
 11
431.665893
 21
377.458336
 31
0.0
  0
ELLIPSE
  5
15E
330
1F
100
AcDbEntity
  8
LC-002-100-D00-0
 62
     7
370
    50
100
AcDbEllipse
 10
445.097663
 20
531.247746
 30
0.0
 11
0.0
 21
-154.4082631621037
 31
0.0
210
0.0
220
0.0
230
0.9999999999999999
 40
0.36397
 41
3.121128591851881
 42
3.162056715327758
  0
LINE
  5
15F
330
1F
100
AcDbEntity
  8
LC-002-100-D00-0
 62
     7
370
    50
100
AcDbLine
 10
458.529433
 20
377.458336
 30
0.0
 11
446.247663
 21
377.458336
 31
0.0
  0
ELLIPSE
  5
160
330
1F
100
AcDbEntity
  8
LC-002-100-D00-0
 62
     7
370
    50
100
AcDbEllipse
 10
445.097663
 20
531.247746
 30
0.0
 11
16.56207463459313
 21
-154.3006263193103
 31
0.0
210
0.0
220
0.0
230
1.0
 40
0.348049
 41
3.083787635553878
 42
3.124715759029721
  0
LINE
  5
161
330
1F
100
AcDbEntity
  8
LC-002-100-D00-0
 62
     7
370
    50
100
AcDbLine
 10
460.751063
 20
377.458336
 30
0.0
 11
460.751063
 21
376.871812
 31
0.0
  0
LINE
  5
162
330
1F
100
AcDbEntity
  8
LC-002-100-D00-0
 62
     7
370
    50
100
AcDbLine
 10
472.195849
 20
377.458336
 30
0.0
 11
460.751063
 21
377.458336
 31
0.0
  0
ELLIPSE
  5
163
330
1F
100
AcDbEntity
  8
LC-002-100-D00-0
 62
     7
370
    50
100
AcDbEllipse
 10
445.097663
 20
531.247746
 30
0.0
 11
31.02069845648632
 21
-154.1198904247489
 31
0.0
210
0.0
220
0.0
230
0.9999999999999999
 40
0.30407
 41
3.060002807815113
 42
3.100930931290956
  0
LINE
  5
164
330
1F
100
AcDbEntity
  8
LC-002-100-D00-0
 62
     7
370
    50
100
AcDbLine
 10
474.187708
 20
377.458336
 30
0.0
 11
474.187708
 21
376.871812
 31
0.0
  0
LINE
  5
165
330
1F
100
AcDbEntity
  8
LC-002-100-D00-0
 62
     7
370
    50
100
AcDbLine
 10
483.864617
 20
377.458336
 30
0.0
 11
474.187708
 21
377.458336
 31
0.0
  0
ELLIPSE
  5
166
330
1F
100
AcDbEntity
  8
LC-002-100-D00-0
 62
     7
370
    50
100
AcDbEllipse
 10
445.097663
 20
531.247746
 30
0.0
 11
42.26835833950241
 21
-154.0735723013633
 31
0.0
210
0.0
220
0.0
230
1.0
 40
0.240393
 41
3.055274898988163
 42
3.096203022464007
  0
LINE
  5
167
330
1F
100
AcDbEntity
  8
LC-002-100-D00-0
 62
     7
370
    50
100
AcDbLine
 10
485.641916
 20
377.458336
 30
0.0
 11
485.641916
 21
376.871812
 31
0.0
  0
LINE
  5
168
330
1F
100
AcDbEntity
  8
LC-002-100-D00-0
 62
     7
370
    50
100
AcDbLine
 10
492.99822
 20
377.458336
 30
0.0
 11
485.641916
 21
377.458336
 31
0.0
  0
ELLIPSE
  5
169
330
1F
100
AcDbEntity
  8
LC-002-100-D00-0
 62
     7
370
    50
100
AcDbEllipse
 10
445.097663
 20
531.247746
 30
0.0
 11
50.10599910013102
 21
-154.1865670813729
 31
0.0
210
0.0
220
0.0
230
1.0
 40
0.165076
 41
3.06753526551408
 42
3.108463388989923
  0
LINE
  5
16A
330
1F
100
AcDbEntity
  8
LC-002-100-D00-0
 62
     7
370
    50
100
AcDbLine
 10
494.3331
 20
377.458336
 30
0.0
 11
494.3331
 21
376.871812
 31
0.0
  0
LINE
  5
16B
330
1F
100
AcDbEntity
  8
LC-002-100-D00-0
 62
     7
370
    50
100
AcDbLine
 10
498.867482
 20
377.458336
 30
0.0
 11
494.3331
 21
377.458336
 31
0.0
  0
ELLIPSE
  5
16C
330
1F
100
AcDbEntity
  8
LC-002-100-D00-0
 62
     7
370
    50
100
AcDbEllipse
 10
445.097663
 20
531.247746
 30
0.0
 11
54.69271162388613
 21
-154.3402810317606
 31
0.0
210
0.0
220
0.0
230
1.0
 40
0.083767
 41
3.091453433106485
 42
3.132381556582329
  0
LINE
  5
16D
330
1F
100
AcDbEntity
  8
LC-002-100-D00-0
 62
     7
370
    50
100
AcDbLine
 10
499.668971
 20
377.458336
 30
0.0
 11
499.668971
 21
376.871812
 31
0.0
  0
LINE
  5
16E
330
1F
100
AcDbEntity
  8
LC-002-100-D00-0
 62
     7
370
    50
100
AcDbLine
 10
501.072418
 20
377.458336
 30
0.0
 11
499.668971
 21
377.458336
 31
0.0
  0
LINE
  5
16F
330
1F
100
AcDbEntity
  8
LC-002-100-D00-0
 62
     7
370
    50
100
AcDbLine
 10
501.297664
 20
372.15163
 30
0.0
 11
388.897661
 21
372.15163
 31
0.0
  0
LINE
  5
170
330
1F
100
AcDbEntity
  8
LC-002-100-D00-0
 62
     7
370
    50
100
AcDbLine
 10
474.551413
 20
412.651571
 30
0.0
 11
474.551413
 21
412.551569
 31
0.0
  0
LINE
  5
171
330
1F
100
AcDbEntity
  8
LC-002-100-D00-0
 62
     7
370
    50
100
AcDbLine
 10
474.526745
 20
412.651571
 30
0.0
 11
474.551413
 21
412.651571
 31
0.0
  0
LINE
  5
172
330
1F
100
AcDbEntity
  8
LC-002-100-D00-0
 62
     7
370
    50
100
AcDbLine
 10
458.303604
 20
412.651571
 30
0.0
 11
458.173175
 21
412.651571
 31
0.0
  0
LINE
  5
173
330
1F
100
AcDbEntity
  8
LC-002-100-D00-0
 62
     7
370
    50
100
AcDbLine
 10
468.116882
 20
412.651571
 30
0.0
 11
468.203835
 21
412.651571
 31
0.0
  0
LINE
  5
174
330
1F
100
AcDbEntity
  8
LC-002-100-D00-0
 62
     7
370
    50
100
AcDbLine
 10
467.203873
 20
412.651571
 30
0.0
 11
467.290826
 21
412.651571
 31
0.0
  0
LINE
  5
175
330
1F
100
AcDbEntity
  8
LC-002-100-D00-0
 62
     7
370
    50
100
AcDbLine
 10
466.725631
 20
412.651571
 30
0.0
 11
466.812585
 21
412.651571
 31
0.0
  0
LINE
  5
176
330
1F
100
AcDbEntity
  8
LC-002-100-D00-0
 62
     7
370
    50
100
AcDbLine
 10
468.595123
 20
412.651571
 30
0.0
 11
468.682077
 21
412.651571
 31
0.0
  0
LINE
  5
177
330
1F
100
AcDbEntity
  8
LC-002-100-D00-0
 62
     7
370
    50
100
AcDbLine
 10
458.173175
 20
412.651571
 30
0.0
 11
457.725981
 21
412.651571
 31
0.0
  0
LINE
  5
178
330
1F
100
AcDbEntity
  8
LC-002-100-D00-0
 62
     7
370
    50
100
AcDbLine
 10
466.812585
 20
412.651571
 30
0.0
 11
467.203873
 21
412.651571
 31
0.0
  0
LINE
  5
179
330
1F
100
AcDbEntity
  8
LC-002-100-D00-0
 62
     7
370
    50
100
AcDbLine
 10
468.203835
 20
412.651571
 30
0.0
 11
468.595123
 21
412.651571
 31
0.0
  0
LINE
  5
17A
330
1F
100
AcDbEntity
  8
LC-002-100-D00-0
 62
     7
370
    50
100
AcDbLine
 10
485.641916
 20
376.871812
 30
0.0
 11
480.268181
 21
397.751572
 31
0.0
  0
LINE
  5
17B
330
1F
100
AcDbEntity
  8
LC-002-100-D00-0
 62
     7
370
    50
100
AcDbLine
 10
504.171413
 20
337.551566
 30
0.0
 11
505.291753
 21
338.456946
 31
0.0
  0
LINE
  5
17C
330
1F
100
AcDbEntity
  8
LC-002-100-D00-0
 62
     7
370
    50
100
AcDbLine
 10
495.7616
 20
337.551566
 30
0.0
 11
486.856729
 21
372.15163
 31
0.0
  0
LINE
  5
17D
330
1F
100
AcDbEntity
  8
LC-002-100-D00-0
 62
     7
370
    50
100
AcDbLine
 10
386.023913
 20
337.551566
 30
0.0
 11
384.903573
 21
338.456946
 31
0.0
  0
LINE
  5
17E
330
1F
100
AcDbEntity
  8
LC-002-100-D00-0
 62
     7
370
    50
100
AcDbLine
 10
404.55341
 20
376.871812
 30
0.0
 11
409.927145
 21
397.751572
 31
0.0
  0
LINE
  5
17F
330
1F
100
AcDbEntity
  8
LC-002-100-D00-0
 62
     7
370
    50
100
AcDbLine
 10
394.433726
 20
337.551566
 30
0.0
 11
403.338596
 21
372.15163
 31
0.0
  0
LINE
  5
180
330
1F
100
AcDbEntity
  8
LC-002-100-D00-0
 62
     7
370
    50
100
AcDbLine
 10
371.197663
 20
320.851567
 30
0.0
 11
369.079583
 21
320.851567
 31
0.0
  0
LINE
  5
181
330
1F
100
AcDbEntity
  8
LC-002-100-D00-0
 62
     7
370
    50
100
AcDbLine
 10
369.079583
 20
320.851567
 30
0.0
 11
369.079583
 21
337.551566
 31
0.0
  0
LINE
  5
182
330
1F
100
AcDbEntity
  8
LC-002-100-D00-0
 62
     7
370
    50
100
AcDbLine
 10
390.526355
 20
376.871812
 30
0.0
 11
397.867017
 21
397.751572
 31
0.0
  0
LINE
  5
183
330
1F
100
AcDbEntity
  8
LC-002-100-D00-0
 62
     7
370
    50
100
AcDbLine
 10
376.702607
 20
337.551566
 30
0.0
 11
388.86689
 21
372.15163
 31
0.0
  0
LINE
  5
184
330
1F
100
AcDbEntity
  8
LC-002-100-D00-0
 62
     7
370
    50
100
AcDbLine
 10
499.668971
 20
376.871812
 30
0.0
 11
492.328309
 21
397.751572
 31
0.0
  0
LINE
  5
185
330
1F
100
AcDbEntity
  8
LC-002-100-D00-0
 62
     7
370
    50
100
AcDbLine
 10
521.115743
 20
320.851567
 30
0.0
 11
521.115743
 21
337.551566
 31
0.0
  0
LINE
  5
186
330
1F
100
AcDbEntity
  8
LC-002-100-D00-0
 62
     7
370
    50
100
AcDbLine
 10
521.115743
 20
320.851567
 30
0.0
 11
518.997662
 21
320.851567
 31
0.0
  0
LINE
  5
187
330
1F
100
AcDbEntity
  8
LC-002-100-D00-0
 62
     7
370
    50
100
AcDbLine
 10
513.492719
 20
337.551566
 30
0.0
 11
501.328435
 21
372.15163
 31
0.0
  0
LINE
  5
188
330
1F
100
AcDbEntity
  8
LC-002-100-D00-0
 62
     7
370
    50
100
AcDbLine
 10
499.073684
 20
376.871812
 30
0.0
 11
491.733026
 21
397.751572
 31
0.0
  0
LINE
  5
189
330
1F
100
AcDbEntity
  8
LC-002-100-D00-0
 62
     7
370
    50
100
AcDbLine
 10
391.121641
 20
376.871812
 30
0.0
 11
398.4623
 21
397.751572
 31
0.0
  0
INSERT
  5
19B
330
1F
100
AcDbEntity
  8
LC-002-100-D00-0
 62
     7
370
    50
100
AcDbBlockReference
  2
POLY12
 10
0.0
 20
0.0
 30
0.0
  0
INSERT
  5
1AD
330
1F
100
AcDbEntity
  8
LC-002-100-D00-0
 62
     7
370
    50
100
AcDbBlockReference
  2
POLY13
 10
0.0
 20
0.0
 30
0.0
  0
LINE
  5
1AE
330
1F
100
AcDbEntity
  8
LC-002-100-D00-0
 62
     7
370
    50
100
AcDbLine
 10
431.297681
 20
328.851568
 30
0.0
 11
431.297681
 21
320.851567
 31
0.0
  0
LINE
  5
1AF
330
1F
100
AcDbEntity
  8
LC-002-100-D00-0
 62
     7
370
    50
100
AcDbLine
 10
375.451721
 20
320.851567
 30
0.0
 11
431.297681
 21
320.851567
 31
0.0
  0
LINE
  5
1B0
330
1F
100
AcDbEntity
  8
LC-002-100-D00-0
 62
     7
370
    50
100
AcDbLine
 10
375.451721
 20
320.851567
 30
0.0
 11
375.451721
 21
328.851568
 31
0.0
  0
INSERT
  5
1C2
330
1F
100
AcDbEntity
  8
LC-002-100-D00-0
 62
     7
370
    50
100
AcDbBlockReference
  2
POLY14
 10
0.0
 20
0.0
 30
0.0
  0
INSERT
  5
1D4
330
1F
100
AcDbEntity
  8
LC-002-100-D00-0
 62
     7
370
    50
100
AcDbBlockReference
  2
POLY15
 10
0.0
 20
0.0
 30
0.0
  0
LINE
  5
1D5
330
1F
100
AcDbEntity
  8
LC-002-100-D00-0
 62
     7
370
    50
100
AcDbLine
 10
514.743626
 20
328.851568
 30
0.0
 11
514.743626
 21
320.851567
 31
0.0
  0
LINE
  5
1D6
330
1F
100
AcDbEntity
  8
LC-002-100-D00-0
 62
     7
370
    50
100
AcDbLine
 10
458.897759
 20
320.851567
 30
0.0
 11
514.743626
 21
320.851567
 31
0.0
  0
LINE
  5
1D7
330
1F
100
AcDbEntity
  8
LC-002-100-D00-0
 62
     7
370
    50
100
AcDbLine
 10
458.897759
 20
320.851567
 30
0.0
 11
458.897759
 21
328.851568
 31
0.0
  0
LINE
  5
1D8
330
1F
100
AcDbEntity
  8
LC-002-100-D00-0
 62
     7
370
    50
100
AcDbLine
 10
514.743626
 20
320.851567
 30
0.0
 11
515.11024
 21
320.851567
 31
0.0
  0
LINE
  5
1D9
330
1F
100
AcDbEntity
  8
LC-002-100-D00-0
 62
     7
370
    50
100
AcDbLine
 10
375.085108
 20
320.851567
 30
0.0
 11
375.451721
 21
320.851567
 31
0.0
  0
LINE
  5
1DA
330
1F
100
AcDbEntity
  8
LC-002-100-D00-0
 62
     7
370
    50
100
AcDbLine
 10
513.135813
 20
337.551566
 30
0.0
 11
513.25433
 21
337.551566
 31
0.0
  0
LINE
  5
1DB
330
1F
100
AcDbEntity
  8
LC-002-100-D00-0
 62
     7
370
    50
100
AcDbLine
 10
512.897432
 20
337.551566
 30
0.0
 11
500.733149
 21
372.15163
 31
0.0
  0
LINE
  5
1DC
330
1F
100
AcDbEntity
  8
LC-002-100-D00-0
 62
     7
370
    50
100
AcDbLine
 10
376.940996
 20
337.551566
 30
0.0
 11
377.059512
 21
337.551566
 31
0.0
  0
LINE
  5
1DD
330
1F
100
AcDbEntity
  8
LC-002-100-D00-0
 62
     7
370
    50
100
AcDbLine
 10
377.297893
 20
337.551566
 30
0.0
 11
389.462177
 21
372.15163
 31
0.0
  0
LINE
  5
1DE
330
1F
100
AcDbEntity
  8
LC-002-100-D00-0
 62
     7
370
    50
100
AcDbLine
 10
494.3331
 20
376.871812
 30
0.0
 11
487.751644
 21
397.751572
 31
0.0
  0
LINE
  5
1DF
330
1F
100
AcDbEntity
  8
LC-002-100-D00-0
 62
     7
370
    50
100
AcDbLine
 10
506.727133
 20
337.551566
 30
0.0
 11
495.820936
 21
372.15163
 31
0.0
  0
LINE
  5
1E0
330
1F
100
AcDbEntity
  8
LC-002-100-D00-0
 62
     7
370
    50
100
AcDbLine
 10
395.862226
 20
376.871812
 30
0.0
 11
402.443681
 21
397.751572
 31
0.0
  0
LINE
  5
1E1
330
1F
100
AcDbEntity
  8
LC-002-100-D00-0
 62
     7
370
    50
100
AcDbLine
 10
383.468192
 20
337.551566
 30
0.0
 11
394.374389
 21
372.15163
 31
0.0
  0
LINE
  5
1E2
330
1F
100
AcDbEntity
  8
LC-002-100-D00-0
 62
     7
370
    50
100
AcDbLine
 10
493.183099
 20
376.871812
 30
0.0
 11
486.601644
 21
397.751572
 31
0.0
  0
LINE
  5
1E3
330
1F
100
AcDbEntity
  8
LC-002-100-D00-0
 62
     7
370
    50
100
AcDbLine
 10
397.012227
 20
376.871812
 30
0.0
 11
403.593682
 21
397.751572
 31
0.0
  0
LINE
  5
1E4
330
1F
100
AcDbEntity
  8
LC-002-100-D00-0
 62
     7
370
    50
100
AcDbLine
 10
506.037656
 20
337.551566
 30
0.0
 11
506.266609
 21
337.551566
 31
0.0
  0
LINE
  5
1E5
330
1F
100
AcDbEntity
  8
LC-002-100-D00-0
 62
     7
370
    50
100
AcDbLine
 10
505.577132
 20
337.551566
 30
0.0
 11
494.670935
 21
372.15163
 31
0.0
  0
LINE
  5
1E6
330
1F
100
AcDbEntity
  8
LC-002-100-D00-0
 62
     7
370
    50
100
AcDbLine
 10
383.928716
 20
337.551566
 30
0.0
 11
384.157669
 21
337.551566
 31
0.0
  0
LINE
  5
1E7
330
1F
100
AcDbEntity
  8
LC-002-100-D00-0
 62
     7
370
    50
100
AcDbLine
 10
384.618193
 20
337.551566
 30
0.0
 11
395.52439
 21
372.15163
 31
0.0
  0
LINE
  5
1E8
330
1F
100
AcDbEntity
  8
LC-002-100-D00-0
 62
     7
370
    50
100
AcDbLine
 10
484.015569
 20
376.871812
 30
0.0
 11
478.641834
 21
397.751572
 31
0.0
  0
LINE
  5
1E9
330
1F
100
AcDbEntity
  8
LC-002-100-D00-0
 62
     7
370
    50
100
AcDbLine
 10
406.179756
 20
376.871812
 30
0.0
 11
411.553491
 21
397.751572
 31
0.0
  0
LINE
  5
1EA
330
1F
100
AcDbEntity
  8
LC-002-100-D00-0
 62
     7
370
    50
100
AcDbLine
 10
474.187708
 20
376.871812
 30
0.0
 11
470.387902
 21
397.751572
 31
0.0
  0
LINE
  5
1EB
330
1F
100
AcDbEntity
  8
LC-002-100-D00-0
 62
     7
370
    50
100
AcDbLine
 10
488.886323
 20
339.3759
 30
0.0
 11
482.921627
 21
372.15163
 31
0.0
  0
LINE
  5
1EC
330
1F
100
AcDbEntity
  8
LC-002-100-D00-0
 62
     7
370
    50
100
AcDbLine
 10
481.955886
 20
377.458336
 30
0.0
 11
478.26282
 21
397.751572
 31
0.0
  0
LINE
  5
1ED
330
1F
100
AcDbEntity
  8
LC-002-100-D00-0
 62
     7
370
    50
100
AcDbLine
 10
487.29004
 20
337.551566
 30
0.0
 11
488.886323
 21
339.3759
 31
0.0
  0
LINE
  5
1EE
330
1F
100
AcDbEntity
  8
LC-002-100-D00-0
 62
     7
370
    50
100
AcDbLine
 10
481.343407
 20
337.551566
 30
0.0
 11
475.046709
 21
372.15163
 31
0.0
  0
LINE
  5
1EF
330
1F
100
AcDbEntity
  8
LC-002-100-D00-0
 62
     7
370
    50
100
AcDbLine
 10
402.905286
 20
337.551566
 30
0.0
 11
401.309002
 21
339.3759
 31
0.0
  0
LINE
  5
1F0
330
1F
100
AcDbEntity
  8
LC-002-100-D00-0
 62
     7
370
    50
100
AcDbLine
 10
401.309002
 20
339.3759
 30
0.0
 11
407.273699
 21
372.15163
 31
0.0
  0
LINE
  5
1F1
330
1F
100
AcDbEntity
  8
LC-002-100-D00-0
 62
     7
370
    50
100
AcDbLine
 10
408.239439
 20
377.458336
 30
0.0
 11
411.932506
 21
397.751572
 31
0.0
  0
LINE
  5
1F2
330
1F
100
AcDbEntity
  8
LC-002-100-D00-0
 62
     7
370
    50
100
AcDbLine
 10
416.007618
 20
376.871812
 30
0.0
 11
419.807423
 21
397.751572
 31
0.0
  0
LINE
  5
1F3
330
1F
100
AcDbEntity
  8
LC-002-100-D00-0
 62
     7
370
    50
100
AcDbLine
 10
408.851918
 20
337.551566
 30
0.0
 11
415.148616
 21
372.15163
 31
0.0
  0
LINE
  5
1F4
330
1F
100
AcDbEntity
  8
LC-002-100-D00-0
 62
     7
370
    50
100
AcDbLine
 10
472.195849
 20
376.871812
 30
0.0
 11
468.396046
 21
397.751572
 31
0.0
  0
LINE
  5
1F5
330
1F
100
AcDbEntity
  8
LC-002-100-D00-0
 62
     7
370
    50
100
AcDbLine
 10
417.999476
 20
376.871812
 30
0.0
 11
421.79928
 21
397.751572
 31
0.0
  0
LINE
  5
1F6
330
1F
100
AcDbEntity
  8
LC-002-100-D00-0
 62
     7
370
    50
100
AcDbLine
 10
494.786535
 20
337.551566
 30
0.0
 11
495.110322
 21
337.551566
 31
0.0
  0
LINE
  5
1F7
330
1F
100
AcDbEntity
  8
LC-002-100-D00-0
 62
     7
370
    50
100
AcDbLine
 10
494.135253
 20
337.551566
 30
0.0
 11
485.230383
 21
372.15163
 31
0.0
  0
LINE
  5
1F8
330
1F
100
AcDbEntity
  8
LC-002-100-D00-0
 62
     7
370
    50
100
AcDbLine
 10
395.085003
 20
337.551566
 30
0.0
 11
395.408791
 21
337.551566
 31
0.0
  0
LINE
  5
1F9
330
1F
100
AcDbEntity
  8
LC-002-100-D00-0
 62
     7
370
    50
100
AcDbLine
 10
396.060072
 20
337.551566
 30
0.0
 11
404.964943
 21
372.15163
 31
0.0
  0
LINE
  5
1FA
330
1F
100
AcDbEntity
  8
LC-002-100-D00-0
 62
     7
370
    50
100
AcDbLine
 10
460.751063
 20
376.871812
 30
0.0
 11
458.784138
 21
397.751572
 31
0.0
  0
LINE
  5
1FB
330
1F
100
AcDbEntity
  8
LC-002-100-D00-0
 62
     7
370
    50
100
AcDbLine
 10
468.359625
 20
339.3759
 30
0.0
 11
465.272071
 21
372.15163
 31
0.0
  0
LINE
  5
1FC
330
1F
100
AcDbEntity
  8
LC-002-100-D00-0
 62
     7
370
    50
100
AcDbLine
 10
464.772167
 20
377.458336
 30
0.0
 11
462.860495
 21
397.751572
 31
0.0
  0
LINE
  5
1FD
330
1F
100
AcDbEntity
  8
LC-002-100-D00-0
 62
     7
370
    50
100
AcDbLine
 10
467.533328
 20
337.551566
 30
0.0
 11
468.359625
 21
339.3759
 31
0.0
  0
LINE
  5
1FE
330
1F
100
AcDbEntity
  8
LC-002-100-D00-0
 62
     7
370
    50
100
AcDbLine
 10
464.455124
 20
337.551566
 30
0.0
 11
461.195715
 21
372.15163
 31
0.0
  0
LINE
  5
1FF
330
1F
100
AcDbEntity
  8
LC-002-100-D00-0
 62
     7
370
    50
100
AcDbLine
 10
422.661998
 20
337.551566
 30
0.0
 11
421.8357
 21
339.3759
 31
0.0
  0
LINE
  5
200
330
1F
100
AcDbEntity
  8
LC-002-100-D00-0
 62
     7
370
    50
100
AcDbLine
 10
421.8357
 20
339.3759
 30
0.0
 11
424.923254
 21
372.15163
 31
0.0
  0
LINE
  5
201
330
1F
100
AcDbEntity
  8
LC-002-100-D00-0
 62
     7
370
    50
100
AcDbLine
 10
425.423159
 20
377.458336
 30
0.0
 11
427.33483
 21
397.751572
 31
0.0
  0
LINE
  5
202
330
1F
100
AcDbEntity
  8
LC-002-100-D00-0
 62
     7
370
    50
100
AcDbLine
 10
429.444263
 20
376.871812
 30
0.0
 11
431.411187
 21
397.751572
 31
0.0
  0
LINE
  5
203
330
1F
100
AcDbEntity
  8
LC-002-100-D00-0
 62
     7
370
    50
100
AcDbLine
 10
425.740201
 20
337.551566
 30
0.0
 11
428.99961
 21
372.15163
 31
0.0
  0
LINE
  5
204
330
1F
100
AcDbEntity
  8
LC-002-100-D00-0
 62
     7
370
    50
100
AcDbLine
 10
458.529433
 20
376.871812
 30
0.0
 11
456.562509
 21
397.751572
 31
0.0
  0
LINE
  5
205
330
1F
100
AcDbEntity
  8
LC-002-100-D00-0
 62
     7
370
    50
100
AcDbLine
 10
431.665893
 20
376.871812
 30
0.0
 11
433.632816
 21
397.751572
 31
0.0
  0
LINE
  5
206
330
1F
100
AcDbEntity
  8
LC-002-100-D00-0
 62
     7
370
    50
100
AcDbLine
 10
443.947663
 20
376.871812
 30
0.0
 11
443.947663
 21
397.751572
 31
0.0
  0
LINE
  5
207
330
1F
100
AcDbEntity
  8
LC-002-100-D00-0
 62
     7
370
    50
100
AcDbLine
 10
446.247663
 20
376.871812
 30
0.0
 11
446.247663
 21
397.751572
 31
0.0
  0
LINE
  5
208
330
1F
100
AcDbEntity
  8
LC-002-100-D00-0
 62
     7
370
    50
100
AcDbLine
 10
480.149199
 20
337.551566
 30
0.0
 11
480.545756
 21
337.551566
 31
0.0
  0
LINE
  5
209
330
1F
100
AcDbEntity
  8
LC-002-100-D00-0
 62
     7
370
    50
100
AcDbLine
 10
479.351547
 20
337.551566
 30
0.0
 11
473.054853
 21
372.15163
 31
0.0
  0
LINE
  5
20A
330
1F
100
AcDbEntity
  8
LC-002-100-D00-0
 62
     7
370
    50
100
AcDbLine
 10
409.64957
 20
337.551566
 30
0.0
 11
410.046127
 21
337.551566
 31
0.0
  0
LINE
  5
20B
330
1F
100
AcDbEntity
  8
LC-002-100-D00-0
 62
     7
370
    50
100
AcDbLine
 10
410.843779
 20
337.551566
 30
0.0
 11
417.140473
 21
372.15163
 31
0.0
  0
LINE
  5
20C
330
1F
100
AcDbEntity
  8
LC-002-100-D00-0
 62
     7
370
    50
100
AcDbLine
 10
463.123158
 20
337.551566
 30
0.0
 11
463.565462
 21
337.551566
 31
0.0
  0
LINE
  5
20D
330
1F
100
AcDbEntity
  8
LC-002-100-D00-0
 62
     7
370
    50
100
AcDbLine
 10
462.233495
 20
337.551566
 30
0.0
 11
458.974085
 21
372.15163
 31
0.0
  0
LINE
  5
20E
330
1F
100
AcDbEntity
  8
LC-002-100-D00-0
 62
     7
370
    50
100
AcDbLine
 10
426.629864
 20
337.551566
 30
0.0
 11
427.072168
 21
337.551566
 31
0.0
  0
LINE
  5
20F
330
1F
100
AcDbEntity
  8
LC-002-100-D00-0
 62
     7
370
    50
100
AcDbLine
 10
427.96183
 20
337.551566
 30
0.0
 11
431.22124
 21
372.15163
 31
0.0
  0
LINE
  5
210
330
1F
100
AcDbEntity
  8
LC-002-100-D00-0
 62
     7
370
    50
100
AcDbLine
 10
444.868709
 20
337.551566
 30
0.0
 11
445.326616
 21
337.551566
 31
0.0
  0
LINE
  5
211
330
1F
100
AcDbEntity
  8
LC-002-100-D00-0
 62
     7
370
    50
100
AcDbLine
 10
443.947663
 20
337.551566
 30
0.0
 11
443.947663
 21
372.15163
 31
0.0
  0
LINE
  5
212
330
1F
100
AcDbEntity
  8
LC-002-100-D00-0
 62
     7
370
    50
100
AcDbLine
 10
446.247663
 20
337.551566
 30
0.0
 11
446.247663
 21
372.15163
 31
0.0
  0
INSERT
  5
224
330
1F
100
AcDbEntity
  8
LC-002-100-D00-0
 62
     7
370
    50
100
AcDbBlockReference
  2
POLY16
 10
0.0
 20
0.0
 30
0.0
  0
LINE
  5
225
330
1F
100
AcDbEntity
  8
LC-002-100-D00-0
 62
     7
370
    50
100
AcDbLine
 10
456.89776
 20
328.851568
 30
0.0
 11
456.89776
 21
308.551567
 31
0.0
  0
LINE
  5
226
330
1F
100
AcDbEntity
  8
LC-002-100-D00-0
 62
     7
370
    50
100
AcDbLine
 10
433.29768
 20
308.551567
 30
0.0
 11
456.89776
 21
308.551567
 31
0.0
  0
LINE
  5
227
330
1F
100
AcDbEntity
  8
LC-002-100-D00-0
 62
     7
370
    50
100
AcDbLine
 10
433.29768
 20
308.551567
 30
0.0
 11
433.29768
 21
328.851568
 31
0.0
  0
INSERT
  5
239
330
1F
100
AcDbEntity
  8
LC-002-100-D00-0
 62
     7
370
    50
100
AcDbBlockReference
  2
POLY17
 10
0.0
 20
0.0
 30
0.0
  0
LINE
  5
23A
330
1F
100
AcDbEntity
  8
LC-002-100-D00-0
 62
     7
370
    50
100
AcDbLine
 10
349.949487
 20
340.551572
 30
0.0
 11
349.949487
 21
342.551576
 31
0.0
  0
LINE
  5
23B
330
1F
100
AcDbEntity
  8
LC-002-100-D00-0
 62
     7
370
    50
100
AcDbLine
 10
352.245838
 20
340.551572
 30
0.0
 11
349.949487
 21
340.551572
 31
0.0
  0
LINE
  5
23C
330
1F
100
AcDbEntity
  8
LC-002-100-D00-0
 62
     7
370
    50
100
AcDbLine
 10
352.245838
 20
340.551572
 30
0.0
 11
352.245838
 21
342.551576
 31
0.0
  0
LINE
  5
23D
330
1F
100
AcDbEntity
  8
LC-002-100-D00-0
 62
     7
370
    50
100
AcDbLine
 10
354.050949
 20
342.551576
 30
0.0
 11
352.245838
 21
342.551576
 31
0.0
  0
ARC
  5
23E
330
1F
100
AcDbEntity
  8
LC-002-100-D00-0
 62
     7
370
    50
100
AcDbCircle
 10
354.05095
 20
342.35157
 30
0.0
 40
0.2000000000000533
100
AcDbArc
 50
63.506264
 51
90.0
  0
ARC
  5
23F
330
1F
100
AcDbEntity
  8
LC-002-100-D00-0
 62
     7
370
    50
100
AcDbCircle
 10
351.097663
 20
336.42657
 30
0.0
 40
6.820236432851812
100
AcDbArc
 50
48.715289
 51
63.506264
  0
LINE
  5
240
330
1F
100
AcDbEntity
  8
LC-002-100-D00-0
 62
     7
370
    50
100
AcDbLine
 10
356.147662
 20
341.551574
 30
0.0
 11
355.59766
 21
341.551574
 31
0.0
  0
ARC
  5
241
330
1F
100
AcDbEntity
  8
LC-002-100-D00-0
 62
     7
370
    50
100
AcDbCircle
 10
356.147663
 20
341.35157
 30
0.0
 40
0.2000000000000455
100
AcDbArc
 50
0.0
 51
90.0
  0
LINE
  5
242
330
1F
100
AcDbEntity
  8
LC-002-100-D00-0
 62
     7
370
    50
100
AcDbLine
 10
356.347665
 20
338.551568
 30
0.0
 11
356.347665
 21
341.351571
 31
0.0
  0
LINE
  5
243
330
1F
100
AcDbEntity
  8
LC-002-100-D00-0
 62
     7
370
    50
100
AcDbLine
 10
353.097663
 20
338.551568
 30
0.0
 11
356.347665
 21
338.551568
 31
0.0
  0
LINE
  5
244
330
1F
100
AcDbEntity
  8
LC-002-100-D00-0
 62
     7
370
    50
100
AcDbLine
 10
353.097663
 20
336.445587
 30
0.0
 11
353.097663
 21
338.551568
 31
0.0
  0
INSERT
  5
24B
330
1F
100
AcDbEntity
  8
LC-002-100-D00-0
 62
     7
370
    50
100
AcDbBlockReference
  2
KLON1
 10
0.0
 20
0.0
 30
0.0
  0
INSERT
  5
252
330
1F
100
AcDbEntity
  8
LC-002-100-D00-0
 62
     7
370
    50
100
AcDbBlockReference
  2
KLON2
 10
0.0
 20
0.0
 30
0.0
  0
LINE
  5
253
330
1F
100
AcDbEntity
  8
LC-002-100-D00-0
 62
     7
370
    50
100
AcDbLine
 10
353.097663
 20
333.445596
 30
0.0
 11
353.097663
 21
335.144179
 31
0.0
  0
INSERT
  5
25A
330
1F
100
AcDbEntity
  8
LC-002-100-D00-0
 62
     7
370
    50
100
AcDbBlockReference
  2
KLON3
 10
0.0
 20
0.0
 30
0.0
  0
INSERT
  5
261
330
1F
100
AcDbEntity
  8
LC-002-100-D00-0
 62
     7
370
    50
100
AcDbBlockReference
  2
KLON4
 10
0.0
 20
0.0
 30
0.0
  0
LINE
  5
262
330
1F
100
AcDbEntity
  8
LC-002-100-D00-0
 62
     7
370
    50
100
AcDbLine
 10
353.097663
 20
330.44559
 30
0.0
 11
353.097663
 21
332.144173
 31
0.0
  0
INSERT
  5
269
330
1F
100
AcDbEntity
  8
LC-002-100-D00-0
 62
     7
370
    50
100
AcDbBlockReference
  2
KLON5
 10
0.0
 20
0.0
 30
0.0
  0
INSERT
  5
270
330
1F
100
AcDbEntity
  8
LC-002-100-D00-0
 62
     7
370
    50
100
AcDbBlockReference
  2
KLON6
 10
0.0
 20
0.0
 30
0.0
  0
LINE
  5
271
330
1F
100
AcDbEntity
  8
LC-002-100-D00-0
 62
     7
370
    50
100
AcDbLine
 10
353.097663
 20
327.445584
 30
0.0
 11
353.097663
 21
329.144167
 31
0.0
  0
INSERT
  5
278
330
1F
100
AcDbEntity
  8
LC-002-100-D00-0
 62
     7
370
    50
100
AcDbBlockReference
  2
KLON7
 10
0.0
 20
0.0
 30
0.0
  0
INSERT
  5
27F
330
1F
100
AcDbEntity
  8
LC-002-100-D00-0
 62
     7
370
    50
100
AcDbBlockReference
  2
KLON8
 10
0.0
 20
0.0
 30
0.0
  0
LINE
  5
280
330
1F
100
AcDbEntity
  8
LC-002-100-D00-0
 62
     7
370
    50
100
AcDbLine
 10
353.097663
 20
322.95199
 30
0.0
 11
353.097663
 21
326.144176
 31
0.0
  0
LINE
  5
281
330
1F
100
AcDbEntity
  8
LC-002-100-D00-0
 62
     7
370
    50
100
AcDbLine
 10
351.097666
 20
321.551564
 30
0.0
 11
353.097663
 21
322.95199
 31
0.0
  0
LINE
  5
282
330
1F
100
AcDbEntity
  8
LC-002-100-D00-0
 62
     7
370
    50
100
AcDbLine
 10
349.097662
 20
322.95199
 30
0.0
 11
351.097666
 21
321.551564
 31
0.0
  0
LINE
  5
283
330
1F
100
AcDbEntity
  8
LC-002-100-D00-0
 62
     7
370
    50
100
AcDbLine
 10
349.097662
 20
324.64418
 30
0.0
 11
349.097662
 21
322.95199
 31
0.0
  0
INSERT
  5
28A
330
1F
100
AcDbEntity
  8
LC-002-100-D00-0
 62
     7
370
    50
100
AcDbBlockReference
  2
KLON9
 10
0.0
 20
0.0
 30
0.0
  0
INSERT
  5
291
330
1F
100
AcDbEntity
  8
LC-002-100-D00-0
 62
     7
370
    50
100
AcDbBlockReference
  2
KLON10
 10
0.0
 20
0.0
 30
0.0
  0
LINE
  5
292
330
1F
100
AcDbEntity
  8
LC-002-100-D00-0
 62
     7
370
    50
100
AcDbLine
 10
349.097662
 20
327.644171
 30
0.0
 11
349.097662
 21
325.945588
 31
0.0
  0
INSERT
  5
299
330
1F
100
AcDbEntity
  8
LC-002-100-D00-0
 62
     7
370
    50
100
AcDbBlockReference
  2
KLON11
 10
0.0
 20
0.0
 30
0.0
  0
INSERT
  5
2A0
330
1F
100
AcDbEntity
  8
LC-002-100-D00-0
 62
     7
370
    50
100
AcDbBlockReference
  2
KLON12
 10
0.0
 20
0.0
 30
0.0
  0
LINE
  5
2A1
330
1F
100
AcDbEntity
  8
LC-002-100-D00-0
 62
     7
370
    50
100
AcDbLine
 10
349.097662
 20
330.644178
 30
0.0
 11
349.097662
 21
328.945594
 31
0.0
  0
INSERT
  5
2A8
330
1F
100
AcDbEntity
  8
LC-002-100-D00-0
 62
     7
370
    50
100
AcDbBlockReference
  2
KLON13
 10
0.0
 20
0.0
 30
0.0
  0
INSERT
  5
2AF
330
1F
100
AcDbEntity
  8
LC-002-100-D00-0
 62
     7
370
    50
100
AcDbBlockReference
  2
KLON14
 10
0.0
 20
0.0
 30
0.0
  0
LINE
  5
2B0
330
1F
100
AcDbEntity
  8
LC-002-100-D00-0
 62
     7
370
    50
100
AcDbLine
 10
349.097662
 20
333.644169
 30
0.0
 11
349.097662
 21
331.945585
 31
0.0
  0
INSERT
  5
2B7
330
1F
100
AcDbEntity
  8
LC-002-100-D00-0
 62
     7
370
    50
100
AcDbBlockReference
  2
KLON15
 10
0.0
 20
0.0
 30
0.0
  0
INSERT
  5
2BE
330
1F
100
AcDbEntity
  8
LC-002-100-D00-0
 62
     7
370
    50
100
AcDbBlockReference
  2
KLON16
 10
0.0
 20
0.0
 30
0.0
  0
LINE
  5
2BF
330
1F
100
AcDbEntity
  8
LC-002-100-D00-0
 62
     7
370
    50
100
AcDbLine
 10
349.097662
 20
336.644175
 30
0.0
 11
349.097662
 21
334.945591
 31
0.0
  0
INSERT
  5
2C6
330
1F
100
AcDbEntity
  8
LC-002-100-D00-0
 62
     7
370
    50
100
AcDbBlockReference
  2
KLON17
 10
0.0
 20
0.0
 30
0.0
  0
INSERT
  5
2CD
330
1F
100
AcDbEntity
  8
LC-002-100-D00-0
 62
     7
370
    50
100
AcDbBlockReference
  2
KLON18
 10
0.0
 20
0.0
 30
0.0
  0
LINE
  5
2CE
330
1F
100
AcDbEntity
  8
LC-002-100-D00-0
 62
     7
370
    50
100
AcDbLine
 10
349.097662
 20
338.551568
 30
0.0
 11
349.097662
 21
337.945598
 31
0.0
  0
LINE
  5
2CF
330
1F
100
AcDbEntity
  8
LC-002-100-D00-0
 62
     7
370
    50
100
AcDbLine
 10
345.847659
 20
338.551568
 30
0.0
 11
349.097662
 21
338.551568
 31
0.0
  0
LINE
  5
2D0
330
1F
100
AcDbEntity
  8
LC-002-100-D00-0
 62
     7
370
    50
100
AcDbLine
 10
345.847659
 20
341.351571
 30
0.0
 11
345.847659
 21
338.551568
 31
0.0
  0
ARC
  5
2D1
330
1F
100
AcDbEntity
  8
LC-002-100-D00-0
 62
     7
370
    50
100
AcDbCircle
 10
346.047663
 20
341.35157
 30
0.0
 40
0.1999999999999318
100
AcDbArc
 50
90.0
 51
180.0
  0
LINE
  5
2D2
330
1F
100
AcDbEntity
  8
LC-002-100-D00-0
 62
     7
370
    50
100
AcDbLine
 10
346.597664
 20
341.551574
 30
0.0
 11
346.047662
 21
341.551574
 31
0.0
  0
ARC
  5
2D3
330
1F
100
AcDbEntity
  8
LC-002-100-D00-0
 62
     7
370
    50
100
AcDbCircle
 10
351.097663
 20
336.42657
 30
0.0
 40
6.820236432851774
100
AcDbArc
 50
116.493736
 51
131.284711
  0
ARC
  5
2D4
330
1F
100
AcDbEntity
  8
LC-002-100-D00-0
 62
     7
370
    50
100
AcDbCircle
 10
348.144376
 20
342.35157
 30
0.0
 40
0.2000000000000455
100
AcDbArc
 50
90.0
 51
116.493736
  0
LINE
  5
2D5
330
1F
100
AcDbEntity
  8
LC-002-100-D00-0
 62
     7
370
    50
100
AcDbLine
 10
349.949487
 20
342.551576
 30
0.0
 11
348.144375
 21
342.551576
 31
0.0
  0
ARC
  5
2D6
330
1F
100
AcDbEntity
  8
LC-002-100-D00-0
 62
     7
370
    50
100
AcDbCircle
 10
352.233307
 20
336.786974
 30
0.0
 40
5.336531216073401
100
AcDbArc
 50
91.351543
 51
95.222403
  0
ARC
  5
2D7
330
1F
100
AcDbEntity
  8
LC-002-100-D00-0
 62
     7
370
    50
100
AcDbCircle
 10
348.099025
 20
340.462194
 30
0.0
 40
3.999836186985379
100
AcDbArc
 50
24.192684
 51
31.138877
  0
INSERT
  5
2E3
330
1F
100
AcDbEntity
  8
LC-002-100-D00-0
 62
     7
370
    50
100
AcDbBlockReference
  2
POLY18
 10
0.0
 20
0.0
 30
0.0
  0
LINE
  5
2E4
330
1F
100
AcDbEntity
  8
LC-002-100-D00-0
 62
     7
370
    50
100
AcDbLine
 10
354.092486
 20
335.955235
 30
0.0
 11
354.347661
 21
335.794883
 31
0.0
  0
INSERT
  5
2F0
330
1F
100
AcDbEntity
  8
LC-002-100-D00-0
 62
     7
370
    50
100
AcDbBlockReference
  2
POLY19
 10
0.0
 20
0.0
 30
0.0
  0
LINE
  5
2F1
330
1F
100
AcDbEntity
  8
LC-002-100-D00-0
 62
     7
370
    50
100
AcDbLine
 10
354.092486
 20
329.955237
 30
0.0
 11
354.347661
 21
329.794886
 31
0.0
  0
INSERT
  5
2FD
330
1F
100
AcDbEntity
  8
LC-002-100-D00-0
 62
     7
370
    50
100
AcDbBlockReference
  2
POLY20
 10
0.0
 20
0.0
 30
0.0
  0
LINE
  5
2FE
330
1F
100
AcDbEntity
  8
LC-002-100-D00-0
 62
     7
370
    50
100
AcDbLine
 10
354.092486
 20
332.955228
 30
0.0
 11
354.347661
 21
332.794877
 31
0.0
  0
INSERT
  5
30A
330
1F
100
AcDbEntity
  8
LC-002-100-D00-0
 62
     7
370
    50
100
AcDbBlockReference
  2
POLY21
 10
0.0
 20
0.0
 30
0.0
  0
LINE
  5
30B
330
1F
100
AcDbEntity
  8
LC-002-100-D00-0
 62
     7
370
    50
100
AcDbLine
 10
353.758365
 20
323.895725
 30
0.0
 11
353.097663
 21
323.507922
 31
0.0
  0
INSERT
  5
317
330
1F
100
AcDbEntity
  8
LC-002-100-D00-0
 62
     7
370
    50
100
AcDbBlockReference
  2
POLY22
 10
0.0
 20
0.0
 30
0.0
  0
LINE
  5
318
330
1F
100
AcDbEntity
  8
LC-002-100-D00-0
 62
     7
370
    50
100
AcDbLine
 10
349.949487
 20
342.551576
 30
0.0
 11
350.162305
 21
342.551576
 31
0.0
  0
LINE
  5
319
330
1F
100
AcDbEntity
  8
LC-002-100-D00-0
 62
     7
370
    50
100
AcDbLine
 10
353.097663
 20
324.543806
 30
0.0
 11
353.758365
 21
324.156003
 31
0.0
  0
LINE
  5
31A
330
1F
100
AcDbEntity
  8
LC-002-100-D00-0
 62
     7
370
    50
100
AcDbLine
 10
351.15365
 20
342.551576
 30
0.0
 11
351.15365
 21
341.051566
 31
0.0
  0
LINE
  5
31B
330
1F
100
AcDbEntity
  8
LC-002-100-D00-0
 62
     7
370
    50
100
AcDbLine
 10
352.107436
 20
341.051566
 30
0.0
 11
351.15365
 21
341.051566
 31
0.0
  0
LINE
  5
31C
330
1F
100
AcDbEntity
  8
LC-002-100-D00-0
 62
     7
370
    50
100
AcDbLine
 10
352.107436
 20
341.051566
 30
0.0
 11
352.107436
 21
342.551576
 31
0.0
  0
LINE
  5
31D
330
1F
100
AcDbEntity
  8
LC-002-100-D00-0
 62
     7
370
    50
100
AcDbLine
 10
352.245838
 20
342.551576
 30
0.0
 11
352.107436
 21
342.551576
 31
0.0
  0
LINE
  5
31E
330
1F
100
AcDbEntity
  8
LC-002-100-D00-0
 62
     7
370
    50
100
AcDbLine
 10
351.15365
 20
342.551576
 30
0.0
 11
350.233682
 21
342.551576
 31
0.0
  0
LINE
  5
31F
330
1F
100
AcDbEntity
  8
LC-002-100-D00-0
 62
     7
370
    50
100
AcDbLine
 10
350.162305
 20
342.551576
 30
0.0
 11
350.233682
 21
342.551576
 31
0.0
  0
LINE
  5
320
330
1F
100
AcDbEntity
  8
LC-002-100-D00-0
 62
     7
370
    50
100
AcDbLine
 10
351.747565
 20
341.051566
 30
0.0
 11
351.747565
 21
342.101353
 31
0.0
  0
LINE
  5
321
330
1F
100
AcDbEntity
  8
LC-002-100-D00-0
 62
     7
370
    50
100
AcDbLine
 10
351.495363
 20
342.551576
 30
0.0
 11
351.15365
 21
342.551576
 31
0.0
  0
ARC
  5
322
330
1F
100
AcDbEntity
  8
LC-002-100-D00-0
 62
     7
370
    50
100
AcDbCircle
 10
566.956086
 20
342.173566
 30
0.0
 40
3.000000000000016
100
AcDbArc
 50
276.0
 51
331.705828
  0
ARC
  5
323
330
1F
100
AcDbEntity
  8
LC-002-100-D00-0
 62
     7
370
    50
100
AcDbCircle
 10
323.239239
 20
342.173566
 30
0.0
 40
3.000000000000136
100
AcDbArc
 50
208.294172
 51
264.0
  0
ARC
  5
324
330
1F
100
AcDbEntity
  8
LC-002-100-D00-0
 62
     7
370
    50
100
AcDbCircle
 10
566.956086
 20
342.173566
 30
0.0
 40
2.500000000000018
100
AcDbArc
 50
276.0
 51
325.333525
  0
ARC
  5
325
330
1F
100
AcDbEntity
  8
LC-002-100-D00-0
 62
     7
370
    50
100
AcDbCircle
 10
323.239239
 20
342.173566
 30
0.0
 40
2.499999999999987
100
AcDbArc
 50
214.666475
 51
264.0
  0
LINE
  5
326
330
1F
100
AcDbEntity
  8
LC-002-100-D00-0
 62
     7
370
    50
100
AcDbLine
 10
569.012277
 20
340.751576
 30
0.0
 11
530.182421
 21
340.751576
 31
0.0
  0
LINE
  5
327
330
1F
100
AcDbEntity
  8
LC-002-100-D00-0
 62
     7
370
    50
100
AcDbLine
 10
478.769195
 20
340.751576
 30
0.0
 11
468.230034
 21
340.751576
 31
0.0
  0
LINE
  5
328
330
1F
100
AcDbEntity
  8
LC-002-100-D00-0
 62
     7
370
    50
100
AcDbLine
 10
461.932047
 20
340.751576
 30
0.0
 11
446.247663
 21
340.751576
 31
0.0
  0
LINE
  5
329
330
1F
100
AcDbEntity
  8
LC-002-100-D00-0
 62
     7
370
    50
100
AcDbLine
 10
443.947663
 20
340.751576
 30
0.0
 11
428.263279
 21
340.751576
 31
0.0
  0
LINE
  5
32A
330
1F
100
AcDbEntity
  8
LC-002-100-D00-0
 62
     7
370
    50
100
AcDbLine
 10
421.965292
 20
340.751576
 30
0.0
 11
411.426131
 21
340.751576
 31
0.0
  0
LINE
  5
32B
330
1F
100
AcDbEntity
  8
LC-002-100-D00-0
 62
     7
370
    50
100
AcDbLine
 10
401.559353
 20
340.751576
 30
0.0
 11
396.883641
 21
340.751576
 31
0.0
  0
LINE
  5
32C
330
1F
100
AcDbEntity
  8
LC-002-100-D00-0
 62
     7
370
    50
100
AcDbLine
 10
360.012904
 20
340.751576
 30
0.0
 11
356.347665
 21
340.751576
 31
0.0
  0
LINE
  5
32D
330
1F
100
AcDbEntity
  8
LC-002-100-D00-0
 62
     7
370
    50
100
AcDbLine
 10
345.847659
 20
340.751576
 30
0.0
 11
321.183048
 21
340.751576
 31
0.0
  0
LINE
  5
32E
330
1F
100
AcDbEntity
  8
LC-002-100-D00-0
 62
     7
370
    50
100
AcDbLine
 10
567.269668
 20
339.189994
 30
0.0
 11
546.923869
 21
337.051573
 31
0.0
  0
LINE
  5
32F
330
1F
100
AcDbEntity
  8
LC-002-100-D00-0
 62
     7
370
    50
100
AcDbLine
 10
343.271457
 20
337.051573
 30
0.0
 11
322.925657
 21
339.189994
 31
0.0
  0
LINE
  5
330
330
1F
100
AcDbEntity
  8
LC-002-100-D00-0
 62
     7
370
    50
100
AcDbLine
 10
546.897665
 20
337.551566
 30
0.0
 11
567.21741
 21
339.68726
 31
0.0
  0
LINE
  5
331
330
1F
100
AcDbEntity
  8
LC-002-100-D00-0
 62
     7
370
    50
100
AcDbLine
 10
322.977916
 20
339.68726
 30
0.0
 11
343.297661
 21
337.551566
 31
0.0
  0
ARC
  5
332
330
1F
100
AcDbEntity
  8
LC-002-100-D00-0
 62
     7
370
    50
100
AcDbCircle
 10
527.347663
 20
334.55157
 30
0.0
 40
3.0
100
AcDbArc
 50
90.0
 51
180.0
  0
ARC
  5
333
330
1F
100
AcDbEntity
  8
LC-002-100-D00-0
 62
     7
370
    50
100
AcDbCircle
 10
362.847663
 20
334.55157
 30
0.0
 40
3.000000000000057
100
AcDbArc
 50
0.0
 51
90.0
  0
ARC
  5
334
330
1F
100
AcDbEntity
  8
LC-002-100-D00-0
 62
     7
370
    50
100
AcDbCircle
 10
527.347663
 20
334.55157
 30
0.0
 40
2.5
100
AcDbArc
 50
90.0
 51
180.0
  0
ARC
  5
335
330
1F
100
AcDbEntity
  8
LC-002-100-D00-0
 62
     7
370
    50
100
AcDbCircle
 10
362.847663
 20
334.55157
 30
0.0
 40
2.5
100
AcDbArc
 50
0.0
 51
90.0
  0
LINE
  5
336
330
1F
100
AcDbEntity
  8
LC-002-100-D00-0
 62
     7
370
    50
100
AcDbLine
 10
524.847664
 20
334.551575
 30
0.0
 11
524.847664
 21
317.251565
 31
0.0
  0
LINE
  5
337
330
1F
100
AcDbEntity
  8
LC-002-100-D00-0
 62
     7
370
    50
100
AcDbLine
 10
365.347661
 20
317.251565
 30
0.0
 11
365.347661
 21
334.551575
 31
0.0
  0
ARC
  5
338
330
1F
100
AcDbEntity
  8
LC-002-100-D00-0
 62
     7
370
    50
100
AcDbCircle
 10
522.347663
 20
317.25157
 30
0.0
 40
2.500000000000114
100
AcDbArc
 50
270.0
 51
0.0
  0
ARC
  5
339
330
1F
100
AcDbEntity
  8
LC-002-100-D00-0
 62
     7
370
    50
100
AcDbCircle
 10
367.847663
 20
317.25157
 30
0.0
 40
2.5
100
AcDbArc
 50
180.0
 51
270.0
  0
LINE
  5
33A
330
1F
100
AcDbEntity
  8
LC-002-100-D00-0
 62
     7
370
    50
100
AcDbLine
 10
524.347663
 20
317.251565
 30
0.0
 11
524.347663
 21
334.551575
 31
0.0
  0
LINE
  5
33B
330
1F
100
AcDbEntity
  8
LC-002-100-D00-0
 62
     7
370
    50
100
AcDbLine
 10
365.847662
 20
334.551575
 30
0.0
 11
365.847662
 21
317.251565
 31
0.0
  0
ARC
  5
33C
330
1F
100
AcDbEntity
  8
LC-002-100-D00-0
 62
     7
370
    50
100
AcDbCircle
 10
522.347663
 20
317.25157
 30
0.0
 40
2.0
100
AcDbArc
 50
270.0
 51
0.0
  0
ARC
  5
33D
330
1F
100
AcDbEntity
  8
LC-002-100-D00-0
 62
     7
370
    50
100
AcDbCircle
 10
367.847663
 20
317.25157
 30
0.0
 40
2.0
100
AcDbArc
 50
180.0
 51
270.0
  0
ARC
  5
33E
330
1F
100
AcDbEntity
  8
LC-002-100-D00-0
 62
     7
370
    50
100
AcDbCircle
 10
521.597663
 20
313.75157
 30
0.0
 40
1.500000000000114
100
AcDbArc
 50
90.0
 51
180.0
  0
ARC
  5
33F
330
1F
100
AcDbEntity
  8
LC-002-100-D00-0
 62
     7
370
    50
100
AcDbCircle
 10
368.597663
 20
313.75157
 30
0.0
 40
1.5
100
AcDbArc
 50
0.0
 51
90.0
  0
LINE
  5
340
330
1F
100
AcDbEntity
  8
LC-002-100-D00-0
 62
     7
370
    50
100
AcDbLine
 10
521.597661
 20
315.251576
 30
0.0
 11
518.997662
 21
315.251576
 31
0.0
  0
LINE
  5
341
330
1F
100
AcDbEntity
  8
LC-002-100-D00-0
 62
     7
370
    50
100
AcDbLine
 10
515.11024
 20
315.251576
 30
0.0
 11
456.89776
 21
315.251576
 31
0.0
  0
LINE
  5
342
330
1F
100
AcDbEntity
  8
LC-002-100-D00-0
 62
     7
370
    50
100
AcDbLine
 10
433.29768
 20
315.251576
 30
0.0
 11
375.085108
 21
315.251576
 31
0.0
  0
LINE
  5
343
330
1F
100
AcDbEntity
  8
LC-002-100-D00-0
 62
     7
370
    50
100
AcDbLine
 10
371.197663
 20
315.251576
 30
0.0
 11
368.597664
 21
315.251576
 31
0.0
  0
ARC
  5
344
330
1F
100
AcDbEntity
  8
LC-002-100-D00-0
 62
     7
370
    50
100
AcDbCircle
 10
521.597663
 20
313.75157
 30
0.0
 40
1.0
100
AcDbArc
 50
90.0
 51
180.0
  0
ARC
  5
345
330
1F
100
AcDbEntity
  8
LC-002-100-D00-0
 62
     7
370
    50
100
AcDbCircle
 10
368.597663
 20
313.75157
 30
0.0
 40
1.0
100
AcDbArc
 50
0.0
 51
90.0
  0
LINE
  5
346
330
1F
100
AcDbEntity
  8
LC-002-100-D00-0
 62
     7
370
    50
100
AcDbLine
 10
520.597659
 20
313.751566
 30
0.0
 11
520.597659
 21
309.751572
 31
0.0
  0
LINE
  5
347
330
1F
100
AcDbEntity
  8
LC-002-100-D00-0
 62
     7
370
    50
100
AcDbLine
 10
369.597666
 20
309.751572
 30
0.0
 11
369.597666
 21
313.751566
 31
0.0
  0
LINE
  5
348
330
1F
100
AcDbEntity
  8
LC-002-100-D00-0
 62
     7
370
    50
100
AcDbLine
 10
520.097666
 20
309.751572
 30
0.0
 11
520.097666
 21
313.751566
 31
0.0
  0
LINE
  5
349
330
1F
100
AcDbEntity
  8
LC-002-100-D00-0
 62
     7
370
    50
100
AcDbLine
 10
370.09766
 20
313.751566
 30
0.0
 11
370.09766
 21
309.751572
 31
0.0
  0
LINE
  5
34A
330
1F
100
AcDbEntity
  8
LC-002-100-D00-0
 62
     7
370
    50
100
AcDbLine
 10
515.11024
 20
309.751572
 30
0.0
 11
456.89776
 21
309.751572
 31
0.0
  0
LINE
  5
34B
330
1F
100
AcDbEntity
  8
LC-002-100-D00-0
 62
     7
370
    50
100
AcDbLine
 10
433.29768
 20
309.751572
 30
0.0
 11
375.085108
 21
309.751572
 31
0.0
  0
LINE
  5
34C
330
1F
100
AcDbEntity
  8
LC-002-100-D00-0
 62
     7
370
    50
100
AcDbLine
 10
535.477348
 20
337.451564
 30
0.0
 11
535.477348
 21
337.551566
 31
0.0
  0
LINE
  5
34D
330
1F
100
AcDbEntity
  8
LC-002-100-D00-0
 62
     7
370
    50
100
AcDbLine
 10
535.889797
 20
337.451564
 30
0.0
 11
535.477348
 21
337.451564
 31
0.0
  0
LINE
  5
34E
330
1F
100
AcDbEntity
  8
LC-002-100-D00-0
 62
     7
370
    50
100
AcDbLine
 10
535.889797
 20
337.551566
 30
0.0
 11
535.889797
 21
337.451564
 31
0.0
  0
LINE
  5
34F
330
1F
100
AcDbEntity
  8
LC-002-100-D00-0
 62
     7
370
    50
100
AcDbLine
 10
535.889797
 20
337.551566
 30
0.0
 11
536.43889
 21
337.551566
 31
0.0
  0
LINE
  5
350
330
1F
100
AcDbEntity
  8
LC-002-100-D00-0
 62
     7
370
    50
100
AcDbLine
 10
536.43889
 20
337.451564
 30
0.0
 11
536.43889
 21
337.551566
 31
0.0
  0
LINE
  5
351
330
1F
100
AcDbEntity
  8
LC-002-100-D00-0
 62
     7
370
    50
100
AcDbLine
 10
536.931575
 20
337.451564
 30
0.0
 11
536.43889
 21
337.451564
 31
0.0
  0
LINE
  5
352
330
1F
100
AcDbEntity
  8
LC-002-100-D00-0
 62
     7
370
    50
100
AcDbLine
 10
536.931575
 20
337.551566
 30
0.0
 11
536.931575
 21
337.451564
 31
0.0
  0
LINE
  5
353
330
1F
100
AcDbEntity
  8
LC-002-100-D00-0
 62
     7
370
    50
100
AcDbLine
 10
538.592324
 20
337.451564
 30
0.0
 11
538.592324
 21
337.551566
 31
0.0
  0
LINE
  5
354
330
1F
100
AcDbEntity
  8
LC-002-100-D00-0
 62
     7
370
    50
100
AcDbLine
 10
538.958982
 20
337.451564
 30
0.0
 11
538.592324
 21
337.451564
 31
0.0
  0
LINE
  5
355
330
1F
100
AcDbEntity
  8
LC-002-100-D00-0
 62
     7
370
    50
100
AcDbLine
 10
538.958982
 20
337.551566
 30
0.0
 11
538.958982
 21
337.451564
 31
0.0
  0
LINE
  5
356
330
1F
100
AcDbEntity
  8
LC-002-100-D00-0
 62
     7
370
    50
100
AcDbLine
 10
520.597659
 20
309.751572
 30
0.0
 11
520.097666
 21
309.751572
 31
0.0
  0
LINE
  5
357
330
1F
100
AcDbEntity
  8
LC-002-100-D00-0
 62
     7
370
    50
100
AcDbLine
 10
521.597661
 20
315.251576
 30
0.0
 11
522.347659
 21
315.251576
 31
0.0
  0
LINE
  5
358
330
1F
100
AcDbEntity
  8
LC-002-100-D00-0
 62
     7
370
    50
100
AcDbLine
 10
522.347659
 20
314.751568
 30
0.0
 11
521.597661
 21
314.751568
 31
0.0
  0
LINE
  5
359
330
1F
100
AcDbEntity
  8
LC-002-100-D00-0
 62
     7
370
    50
100
AcDbLine
 10
538.958982
 20
337.551566
 30
0.0
 11
546.897665
 21
337.551566
 31
0.0
  0
LINE
  5
35A
330
1F
100
AcDbEntity
  8
LC-002-100-D00-0
 62
     7
370
    50
100
AcDbLine
 10
536.931575
 20
337.551566
 30
0.0
 11
538.592324
 21
337.551566
 31
0.0
  0
LINE
  5
35B
330
1F
100
AcDbEntity
  8
LC-002-100-D00-0
 62
     7
370
    50
100
AcDbLine
 10
527.347662
 20
337.551566
 30
0.0
 11
535.477348
 21
337.551566
 31
0.0
  0
LINE
  5
35C
330
1F
100
AcDbEntity
  8
LC-002-100-D00-0
 62
     7
370
    50
100
AcDbLine
 10
546.923869
 20
337.051573
 30
0.0
 11
527.347662
 21
337.051573
 31
0.0
  0
LINE
  5
35D
330
1F
100
AcDbEntity
  8
LC-002-100-D00-0
 62
     7
370
    50
100
AcDbLine
 10
569.012277
 20
340.751576
 30
0.0
 11
569.597662
 21
340.751576
 31
0.0
  0
ARC
  5
35E
330
1F
100
AcDbEntity
  8
LC-002-100-D00-0
 62
     7
370
    50
100
AcDbCircle
 10
343.990556
 20
338.05157
 30
0.0
 40
1.0
100
AcDbArc
 50
270.0
 51
315.0
  0
LINE
  5
35F
330
1F
100
AcDbEntity
  8
LC-002-100-D00-0
 62
     7
370
    50
100
AcDbLine
 10
344.197661
 20
337.551566
 30
0.0
 11
344.904773
 21
338.258671
 31
0.0
  0
ARC
  5
360
330
1F
100
AcDbEntity
  8
LC-002-100-D00-0
 62
     7
370
    50
100
AcDbCircle
 10
345.611876
 20
337.55157
 30
0.0
 40
1.000000000000114
100
AcDbArc
 50
90.0
 51
135.0
  0
LINE
  5
361
330
1F
100
AcDbEntity
  8
LC-002-100-D00-0
 62
     7
370
    50
100
AcDbLine
 10
345.611878
 20
338.551568
 30
0.0
 11
347.347662
 21
338.551568
 31
0.0
  0
LINE
  5
362
330
1F
100
AcDbEntity
  8
LC-002-100-D00-0
 62
     7
370
    50
100
AcDbLine
 10
347.347662
 20
338.551568
 30
0.0
 11
347.347662
 21
338.051575
 31
0.0
  0
LINE
  5
363
330
1F
100
AcDbEntity
  8
LC-002-100-D00-0
 62
     7
370
    50
100
AcDbLine
 10
347.347662
 20
338.051575
 30
0.0
 11
345.404767
 21
338.051575
 31
0.0
  0
LINE
  5
364
330
1F
100
AcDbEntity
  8
LC-002-100-D00-0
 62
     7
370
    50
100
AcDbLine
 10
345.404767
 20
338.051575
 30
0.0
 11
344.697662
 21
337.34447
 31
0.0
  0
LINE
  5
365
330
1F
100
AcDbEntity
  8
LC-002-100-D00-0
 62
     7
370
    50
100
AcDbLine
 10
343.297661
 20
337.551566
 30
0.0
 11
344.197661
 21
337.551566
 31
0.0
  0
LINE
  5
366
330
1F
100
AcDbEntity
  8
LC-002-100-D00-0
 62
     7
370
    50
100
AcDbLine
 10
343.990557
 20
337.051573
 30
0.0
 11
343.271457
 21
337.051573
 31
0.0
  0
LINE
  5
367
330
1F
100
AcDbEntity
  8
LC-002-100-D00-0
 62
     7
370
    50
100
AcDbLine
 10
320.597664
 20
340.751576
 30
0.0
 11
321.183048
 21
340.751576
 31
0.0
  0
ARC
  5
368
330
1F
100
AcDbEntity
  8
LC-002-100-D00-0
 62
     7
370
    50
100
AcDbCircle
 10
358.20477
 20
338.05157
 30
0.0
 40
1.000000000000008
100
AcDbArc
 50
225.0
 51
270.0
  0
LINE
  5
369
330
1F
100
AcDbEntity
  8
LC-002-100-D00-0
 62
     7
370
    50
100
AcDbLine
 10
357.497663
 20
337.34447
 30
0.0
 11
356.790558
 21
338.051575
 31
0.0
  0
LINE
  5
36A
330
1F
100
AcDbEntity
  8
LC-002-100-D00-0
 62
     7
370
    50
100
AcDbLine
 10
356.790558
 20
338.051575
 30
0.0
 11
354.847662
 21
338.051575
 31
0.0
  0
LINE
  5
36B
330
1F
100
AcDbEntity
  8
LC-002-100-D00-0
 62
     7
370
    50
100
AcDbLine
 10
354.847662
 20
338.051575
 30
0.0
 11
354.847662
 21
338.551568
 31
0.0
  0
LINE
  5
36C
330
1F
100
AcDbEntity
  8
LC-002-100-D00-0
 62
     7
370
    50
100
AcDbLine
 10
354.847662
 20
338.551568
 30
0.0
 11
356.583447
 21
338.551568
 31
0.0
  0
ARC
  5
36D
330
1F
100
AcDbEntity
  8
LC-002-100-D00-0
 62
     7
370
    50
100
AcDbCircle
 10
356.583449
 20
337.55157
 30
0.0
 40
1.000000000000129
100
AcDbArc
 50
45.0
 51
90.0
  0
LINE
  5
36E
330
1F
100
AcDbEntity
  8
LC-002-100-D00-0
 62
     7
370
    50
100
AcDbLine
 10
357.290559
 20
338.258671
 30
0.0
 11
357.997664
 21
337.551566
 31
0.0
  0
LINE
  5
36F
330
1F
100
AcDbEntity
  8
LC-002-100-D00-0
 62
     7
370
    50
100
AcDbLine
 10
370.09766
 20
309.751572
 30
0.0
 11
369.597666
 21
309.751572
 31
0.0
  0
LINE
  5
370
330
1F
100
AcDbEntity
  8
LC-002-100-D00-0
 62
     7
370
    50
100
AcDbLine
 10
367.847666
 20
315.251576
 30
0.0
 11
368.597664
 21
315.251576
 31
0.0
  0
LINE
  5
371
330
1F
100
AcDbEntity
  8
LC-002-100-D00-0
 62
     7
370
    50
100
AcDbLine
 10
368.597664
 20
314.751568
 30
0.0
 11
367.847666
 21
314.751568
 31
0.0
  0
LINE
  5
372
330
1F
100
AcDbEntity
  8
LC-002-100-D00-0
 62
     7
370
    50
100
AcDbLine
 10
357.997664
 20
337.551566
 30
0.0
 11
362.847664
 21
337.551566
 31
0.0
  0
LINE
  5
373
330
1F
100
AcDbEntity
  8
LC-002-100-D00-0
 62
     7
370
    50
100
AcDbLine
 10
362.847664
 20
337.051573
 30
0.0
 11
358.204767
 21
337.051573
 31
0.0
  0
LINE
  5
374
330
1F
100
AcDbEntity
  8
LC-002-100-D00-0
 62
     7
370
    50
100
AcDbLine
 10
358.204767
 20
337.051573
 30
0.0
 11
353.097663
 21
337.051573
 31
0.0
  0
LINE
  5
375
330
1F
100
AcDbEntity
  8
LC-002-100-D00-0
 62
     7
370
    50
100
AcDbLine
 10
348.186873
 20
337.051573
 30
0.0
 11
343.990557
 21
337.051573
 31
0.0
  0
LINE
  5
376
330
1F
100
AcDbEntity
  8
LC-002-100-D00-0
 62
     7
370
    50
100
AcDbLine
 10
354.847662
 20
338.051575
 30
0.0
 11
353.097663
 21
338.051575
 31
0.0
  0
LINE
  5
377
330
1F
100
AcDbEntity
  8
LC-002-100-D00-0
 62
     7
370
    50
100
AcDbLine
 10
349.097662
 20
338.051575
 30
0.0
 11
347.347662
 21
338.051575
 31
0.0
  0
INSERT
  5
383
330
1F
100
AcDbEntity
  8
LC-002-100-D00-0
 62
     7
370
    50
100
AcDbBlockReference
  2
POLY23
 10
0.0
 20
0.0
 30
0.0
  0
INSERT
  5
391
330
1F
100
AcDbEntity
  8
LC-002-100-D00-0
 62
     7
370
    50
100
AcDbBlockReference
  2
POLY24
 10
0.0
 20
0.0
 30
0.0
  0
LINE
  5
392
330
1F
100
AcDbEntity
  8
LC-002-100-D00-0
 62
     7
370
    50
100
AcDbLine
 10
535.575703
 20
337.451564
 30
0.0
 11
535.575703
 21
337.551566
 31
0.0
  0
LINE
  5
393
330
1F
100
AcDbEntity
  8
LC-002-100-D00-0
 62
     7
370
    50
100
AcDbLine
 10
535.477348
 20
337.551566
 30
0.0
 11
535.575703
 21
337.551566
 31
0.0
  0
LINE
  5
394
330
1F
100
AcDbEntity
  8
LC-002-100-D00-0
 62
     7
370
    50
100
AcDbLine
 10
535.86749
 20
337.451564
 30
0.0
 11
535.86749
 21
337.551566
 31
0.0
  0
INSERT
  5
3A0
330
1F
100
AcDbEntity
  8
LC-002-100-D00-0
 62
     7
370
    50
100
AcDbBlockReference
  2
POLY25
 10
0.0
 20
0.0
 30
0.0
  0
LINE
  5
3A1
330
1F
100
AcDbEntity
  8
LC-002-100-D00-0
 62
     7
370
    50
100
AcDbLine
 10
488.16504
 20
338.551568
 30
0.0
 11
493.877888
 21
338.551568
 31
0.0
  0
ARC
  5
3A2
330
1F
100
AcDbEntity
  8
LC-002-100-D00-0
 62
     7
370
    50
100
AcDbCircle
 10
373.097663
 20
242.723978
 30
0.0
 40
8.0
100
AcDbArc
 50
180.0
 51
270.0
  0
ARC
  5
3A3
330
1F
100
AcDbEntity
  8
LC-002-100-D00-0
 62
     7
370
    50
100
AcDbCircle
 10
517.097663
 20
242.723978
 30
0.0
 40
8.0
100
AcDbArc
 50
270.0
 51
0.0
  0
LINE
  5
3A4
330
1F
100
AcDbEntity
  8
LC-002-100-D00-0
 62
     7
370
    50
100
AcDbLine
 10
365.097665
 20
244.723978
 30
0.0
 11
365.097665
 21
242.723981
 31
0.0
  0
LINE
  5
3A5
330
1F
100
AcDbEntity
  8
LC-002-100-D00-0
 62
     7
370
    50
100
AcDbLine
 10
525.097661
 20
242.723981
 30
0.0
 11
525.097661
 21
244.723978
 31
0.0
  0
LINE
  5
3A6
330
1F
100
AcDbEntity
  8
LC-002-100-D00-0
 62
     7
370
    50
100
AcDbLine
 10
367.597662
 20
253.723981
 30
0.0
 11
367.597662
 21
244.723978
 31
0.0
  0
LINE
  5
3A7
330
1F
100
AcDbEntity
  8
LC-002-100-D00-0
 62
     7
370
    50
100
AcDbLine
 10
522.597663
 20
244.723978
 30
0.0
 11
522.597663
 21
253.723981
 31
0.0
  0
LINE
  5
3A8
330
1F
100
AcDbEntity
  8
LC-002-100-D00-0
 62
     7
370
    50
100
AcDbLine
 10
369.797662
 20
252.223978
 30
0.0
 11
369.797662
 21
253.723981
 31
0.0
  0
LINE
  5
3A9
330
1F
100
AcDbEntity
  8
LC-002-100-D00-0
 62
     7
370
    50
100
AcDbLine
 10
520.397663
 20
253.723981
 30
0.0
 11
520.397663
 21
252.223978
 31
0.0
  0
LINE
  5
3AA
330
1F
100
AcDbEntity
  8
LC-002-100-D00-0
 62
     7
370
    50
100
AcDbLine
 10
369.797662
 20
253.723981
 30
0.0
 11
371.097662
 21
253.723981
 31
0.0
  0
LINE
  5
3AB
330
1F
100
AcDbEntity
  8
LC-002-100-D00-0
 62
     7
370
    50
100
AcDbLine
 10
512.847662
 20
253.723981
 30
0.0
 11
520.397663
 21
253.723981
 31
0.0
  0
LINE
  5
3AC
330
1F
100
AcDbEntity
  8
LC-002-100-D00-0
 62
     7
370
    50
100
AcDbLine
 10
370.09766
 20
239.723979
 30
0.0
 11
370.09766
 21
252.223978
 31
0.0
  0
LINE
  5
3AD
330
1F
100
AcDbEntity
  8
LC-002-100-D00-0
 62
     7
370
    50
100
AcDbLine
 10
520.097666
 20
252.223978
 30
0.0
 11
520.097666
 21
239.723979
 31
0.0
  0
LINE
  5
3AE
330
1F
100
AcDbEntity
  8
LC-002-100-D00-0
 62
     7
370
    50
100
AcDbLine
 10
370.09766
 20
252.223978
 30
0.0
 11
371.097662
 21
252.223978
 31
0.0
  0
LINE
  5
3AF
330
1F
100
AcDbEntity
  8
LC-002-100-D00-0
 62
     7
370
    50
100
AcDbLine
 10
512.847662
 20
252.223978
 30
0.0
 11
520.097666
 21
252.223978
 31
0.0
  0
ARC
  5
3B0
330
1F
100
AcDbEntity
  8
LC-002-100-D00-0
 62
     7
370
    50
100
AcDbCircle
 10
372.597663
 20
239.723978
 30
0.0
 40
2.5
100
AcDbArc
 50
180.0
 51
270.0
  0
ARC
  5
3B1
330
1F
100
AcDbEntity
  8
LC-002-100-D00-0
 62
     7
370
    50
100
AcDbCircle
 10
517.597663
 20
239.723978
 30
0.0
 40
2.5
100
AcDbArc
 50
270.0
 51
0.0
  0
LINE
  5
3B2
330
1F
100
AcDbEntity
  8
LC-002-100-D00-0
 62
     7
370
    50
100
AcDbLine
 10
407.597661
 20
234.72398
 30
0.0
 11
407.597661
 21
237.223978
 31
0.0
  0
LINE
  5
3B3
330
1F
100
AcDbEntity
  8
LC-002-100-D00-0
 62
     7
370
    50
100
AcDbLine
 10
482.597664
 20
237.223978
 30
0.0
 11
482.597664
 21
234.72398
 31
0.0
  0
LINE
  5
3B4
330
1F
100
AcDbEntity
  8
LC-002-100-D00-0
 62
     7
370
    50
100
AcDbLine
 10
373.097666
 20
234.72398
 30
0.0
 11
392.847661
 21
234.72398
 31
0.0
  0
LINE
  5
3B5
330
1F
100
AcDbEntity
  8
LC-002-100-D00-0
 62
     7
370
    50
100
AcDbLine
 10
407.597661
 20
237.223978
 30
0.0
 11
403.447662
 21
237.223978
 31
0.0
  0
LINE
  5
3B6
330
1F
100
AcDbEntity
  8
LC-002-100-D00-0
 62
     7
370
    50
100
AcDbLine
 10
370.09766
 20
252.223978
 30
0.0
 11
369.797662
 21
252.223978
 31
0.0
  0
LINE
  5
3B7
330
1F
100
AcDbEntity
  8
LC-002-100-D00-0
 62
     7
370
    50
100
AcDbLine
 10
369.797662
 20
253.723981
 30
0.0
 11
367.597662
 21
253.723981
 31
0.0
  0
LINE
  5
3B8
330
1F
100
AcDbEntity
  8
LC-002-100-D00-0
 62
     7
370
    50
100
AcDbLine
 10
367.597662
 20
244.723978
 30
0.0
 11
365.097665
 21
244.723978
 31
0.0
  0
LINE
  5
3B9
330
1F
100
AcDbEntity
  8
LC-002-100-D00-0
 62
     7
370
    50
100
AcDbLine
 10
482.597664
 20
234.72398
 30
0.0
 11
517.09766
 21
234.72398
 31
0.0
  0
LINE
  5
3BA
330
1F
100
AcDbEntity
  8
LC-002-100-D00-0
 62
     7
370
    50
100
AcDbLine
 10
517.597661
 20
237.223978
 30
0.0
 11
482.597664
 21
237.223978
 31
0.0
  0
LINE
  5
3BB
330
1F
100
AcDbEntity
  8
LC-002-100-D00-0
 62
     7
370
    50
100
AcDbLine
 10
520.397663
 20
252.223978
 30
0.0
 11
520.097666
 21
252.223978
 31
0.0
  0
LINE
  5
3BC
330
1F
100
AcDbEntity
  8
LC-002-100-D00-0
 62
     7
370
    50
100
AcDbLine
 10
522.597663
 20
253.723981
 30
0.0
 11
520.397663
 21
253.723981
 31
0.0
  0
LINE
  5
3BD
330
1F
100
AcDbEntity
  8
LC-002-100-D00-0
 62
     7
370
    50
100
AcDbLine
 10
525.097661
 20
244.723978
 30
0.0
 11
522.597663
 21
244.723978
 31
0.0
  0
LINE
  5
3BE
330
1F
100
AcDbEntity
  8
LC-002-100-D00-0
 62
     7
370
    50
100
AcDbLine
 10
388.041806
 20
232.223979
 30
0.0
 11
388.041806
 21
234.72398
 31
0.0
  0
LINE
  5
3BF
330
1F
100
AcDbEntity
  8
LC-002-100-D00-0
 62
     7
370
    50
100
AcDbLine
 10
392.847661
 20
232.223979
 30
0.0
 11
388.041806
 21
232.223979
 31
0.0
  0
LINE
  5
3C0
330
1F
100
AcDbEntity
  8
LC-002-100-D00-0
 62
     7
370
    50
100
AcDbLine
 10
482.853562
 20
232.223979
 30
0.0
 11
482.853562
 21
234.72398
 31
0.0
  0
LINE
  5
3C1
330
1F
100
AcDbEntity
  8
LC-002-100-D00-0
 62
     7
370
    50
100
AcDbLine
 10
482.853562
 20
232.223979
 30
0.0
 11
482.597664
 21
232.223979
 31
0.0
  0
LINE
  5
3C2
330
1F
100
AcDbEntity
  8
LC-002-100-D00-0
 62
     7
370
    50
100
AcDbLine
 10
518.347666
 20
297.853979
 30
0.0
 11
518.347666
 21
295.853975
 31
0.0
  0
LINE
  5
3C3
330
1F
100
AcDbEntity
  8
LC-002-100-D00-0
 62
     7
370
    50
100
AcDbLine
 10
371.84766
 20
295.853975
 30
0.0
 11
371.84766
 21
297.853979
 31
0.0
  0
LINE
  5
3C4
330
1F
100
AcDbEntity
  8
LC-002-100-D00-0
 62
     7
370
    50
100
AcDbLine
 10
510.847666
 20
301.353978
 30
0.0
 11
379.34766
 21
301.353978
 31
0.0
  0
LINE
  5
3C5
330
1F
100
AcDbEntity
  8
LC-002-100-D00-0
 62
     7
370
    50
100
AcDbLine
 10
510.847666
 20
301.353978
 30
0.0
 11
509.847664
 21
293.353977
 31
0.0
  0
LINE
  5
3C6
330
1F
100
AcDbEntity
  8
LC-002-100-D00-0
 62
     7
370
    50
100
AcDbLine
 10
509.847664
 20
293.353977
 30
0.0
 11
380.347662
 21
293.353977
 31
0.0
  0
LINE
  5
3C7
330
1F
100
AcDbEntity
  8
LC-002-100-D00-0
 62
     7
370
    50
100
AcDbLine
 10
380.347662
 20
293.353977
 30
0.0
 11
379.34766
 21
301.353978
 31
0.0
  0
LINE
  5
3C8
330
1F
100
AcDbEntity
  8
LC-002-100-D00-0
 62
     7
370
    50
100
AcDbLine
 10
522.347659
 20
296.853977
 30
0.0
 11
522.347659
 21
300.353976
 31
0.0
  0
LINE
  5
3C9
330
1F
100
AcDbEntity
  8
LC-002-100-D00-0
 62
     7
370
    50
100
AcDbLine
 10
367.847666
 20
300.353976
 30
0.0
 11
367.847666
 21
296.853977
 31
0.0
  0
LINE
  5
3CA
330
1F
100
AcDbEntity
  8
LC-002-100-D00-0
 62
     7
370
    50
100
AcDbLine
 10
371.84766
 20
297.853979
 30
0.0
 11
376.347661
 21
297.853979
 31
0.0
  0
LINE
  5
3CB
330
1F
100
AcDbEntity
  8
LC-002-100-D00-0
 62
     7
370
    50
100
AcDbLine
 10
367.847666
 20
296.853977
 30
0.0
 11
368.847661
 21
295.853975
 31
0.0
  0
LINE
  5
3CC
330
1F
100
AcDbEntity
  8
LC-002-100-D00-0
 62
     7
370
    50
100
AcDbLine
 10
368.847661
 20
300.353976
 30
0.0
 11
367.847666
 21
300.353976
 31
0.0
  0
LINE
  5
3CD
330
1F
100
AcDbEntity
  8
LC-002-100-D00-0
 62
     7
370
    50
100
AcDbLine
 10
368.847661
 20
301.353978
 30
0.0
 11
368.847661
 21
300.353976
 31
0.0
  0
LINE
  5
3CE
330
1F
100
AcDbEntity
  8
LC-002-100-D00-0
 62
     7
370
    50
100
AcDbLine
 10
376.347661
 20
293.353977
 30
0.0
 11
380.347662
 21
293.353977
 31
0.0
  0
LINE
  5
3CF
330
1F
100
AcDbEntity
  8
LC-002-100-D00-0
 62
     7
370
    50
100
AcDbLine
 10
376.347661
 20
297.853979
 30
0.0
 11
376.347661
 21
293.353977
 31
0.0
  0
LINE
  5
3D0
330
1F
100
AcDbEntity
  8
LC-002-100-D00-0
 62
     7
370
    50
100
AcDbLine
 10
379.34766
 20
301.353978
 30
0.0
 11
368.847661
 21
301.353978
 31
0.0
  0
LINE
  5
3D1
330
1F
100
AcDbEntity
  8
LC-002-100-D00-0
 62
     7
370
    50
100
AcDbLine
 10
368.847661
 20
295.853975
 30
0.0
 11
371.84766
 21
295.853975
 31
0.0
  0
LINE
  5
3D2
330
1F
100
AcDbEntity
  8
LC-002-100-D00-0
 62
     7
370
    50
100
AcDbLine
 10
521.347665
 20
295.853975
 30
0.0
 11
522.347659
 21
296.853977
 31
0.0
  0
LINE
  5
3D3
330
1F
100
AcDbEntity
  8
LC-002-100-D00-0
 62
     7
370
    50
100
AcDbLine
 10
513.847664
 20
293.353977
 30
0.0
 11
513.847664
 21
297.853979
 31
0.0
  0
LINE
  5
3D4
330
1F
100
AcDbEntity
  8
LC-002-100-D00-0
 62
     7
370
    50
100
AcDbLine
 10
521.347665
 20
300.353976
 30
0.0
 11
521.347665
 21
301.353978
 31
0.0
  0
LINE
  5
3D5
330
1F
100
AcDbEntity
  8
LC-002-100-D00-0
 62
     7
370
    50
100
AcDbLine
 10
522.347659
 20
300.353976
 30
0.0
 11
521.347665
 21
300.353976
 31
0.0
  0
LINE
  5
3D6
330
1F
100
AcDbEntity
  8
LC-002-100-D00-0
 62
     7
370
    50
100
AcDbLine
 10
509.847664
 20
293.353977
 30
0.0
 11
513.847664
 21
293.353977
 31
0.0
  0
LINE
  5
3D7
330
1F
100
AcDbEntity
  8
LC-002-100-D00-0
 62
     7
370
    50
100
AcDbLine
 10
513.847664
 20
297.853979
 30
0.0
 11
518.347666
 21
297.853979
 31
0.0
  0
LINE
  5
3D8
330
1F
100
AcDbEntity
  8
LC-002-100-D00-0
 62
     7
370
    50
100
AcDbLine
 10
521.347665
 20
301.353978
 30
0.0
 11
510.847666
 21
301.353978
 31
0.0
  0
LINE
  5
3D9
330
1F
100
AcDbEntity
  8
LC-002-100-D00-0
 62
     7
370
    50
100
AcDbLine
 10
518.347666
 20
295.853975
 30
0.0
 11
521.347665
 21
295.853975
 31
0.0
  0
LINE
  5
3DA
330
1F
100
AcDbEntity
  8
LC-002-100-D00-0
 62
     7
370
    50
100
AcDbLine
 10
354.097665
 20
312.543975
 30
0.0
 11
348.09766
 21
312.543975
 31
0.0
  0
LINE
  5
3DB
330
1F
100
AcDbEntity
  8
LC-002-100-D00-0
 62
     7
370
    50
100
AcDbLine
 10
354.097665
 20
312.543975
 30
0.0
 11
354.097665
 21
328.043985
 31
0.0
  0
LINE
  5
3DC
330
1F
100
AcDbEntity
  8
LC-002-100-D00-0
 62
     7
370
    50
100
AcDbLine
 10
362.597659
 20
328.043985
 30
0.0
 11
354.097665
 21
328.043985
 31
0.0
  0
LINE
  5
3DD
330
1F
100
AcDbEntity
  8
LC-002-100-D00-0
 62
     7
370
    50
100
AcDbLine
 10
362.597659
 20
311.303975
 30
0.0
 11
362.597659
 21
328.043985
 31
0.0
  0
LINE
  5
3DE
330
1F
100
AcDbEntity
  8
LC-002-100-D00-0
 62
     7
370
    50
100
AcDbLine
 10
367.597662
 20
306.30398
 30
0.0
 11
362.597659
 21
311.303975
 31
0.0
  0
LINE
  5
3DF
330
1F
100
AcDbEntity
  8
LC-002-100-D00-0
 62
     7
370
    50
100
AcDbLine
 10
367.597662
 20
296.853977
 30
0.0
 11
367.597662
 21
306.30398
 31
0.0
  0
ARC
  5
3E0
330
1F
100
AcDbEntity
  8
LC-002-100-D00-0
 62
     7
370
    50
100
AcDbCircle
 10
368.597663
 20
296.853978
 30
0.0
 40
1.0
100
AcDbArc
 50
180.0
 51
270.0
  0
LINE
  5
3E1
330
1F
100
AcDbEntity
  8
LC-002-100-D00-0
 62
     7
370
    50
100
AcDbLine
 10
373.597659
 20
295.853975
 30
0.0
 11
368.597664
 21
295.853975
 31
0.0
  0
ARC
  5
3E2
330
1F
100
AcDbEntity
  8
LC-002-100-D00-0
 62
     7
370
    50
100
AcDbCircle
 10
373.597663
 20
294.853978
 30
0.0
 40
1.0
100
AcDbArc
 50
0.0
 51
90.0
  0
LINE
  5
3E3
330
1F
100
AcDbEntity
  8
LC-002-100-D00-0
 62
     7
370
    50
100
AcDbLine
 10
374.597661
 20
280.853981
 30
0.0
 11
374.597661
 21
294.85398
 31
0.0
  0
LINE
  5
3E4
330
1F
100
AcDbEntity
  8
LC-002-100-D00-0
 62
     7
370
    50
100
AcDbLine
 10
379.597664
 20
280.853981
 30
0.0
 11
374.597661
 21
280.853981
 31
0.0
  0
ARC
  5
3E5
330
1F
100
AcDbEntity
  8
LC-002-100-D00-0
 62
     7
370
    50
100
AcDbCircle
 10
379.597663
 20
279.853978
 30
0.0
 40
1.0
100
AcDbArc
 50
0.0
 51
90.0
  0
LINE
  5
3E6
330
1F
100
AcDbEntity
  8
LC-002-100-D00-0
 62
     7
370
    50
100
AcDbLine
 10
380.597666
 20
251.230846
 30
0.0
 11
380.597666
 21
279.853979
 31
0.0
  0
ARC
  5
3E7
330
1F
100
AcDbEntity
  8
LC-002-100-D00-0
 62
     7
370
    50
100
AcDbCircle
 10
381.597663
 20
251.230848
 30
0.0
 40
1.000000000000057
100
AcDbArc
 50
180.0
 51
263.0
  0
LINE
  5
3E8
330
1F
100
AcDbEntity
  8
LC-002-100-D00-0
 62
     7
370
    50
100
AcDbLine
 10
410.097663
 20
246.723982
 30
0.0
 11
381.475792
 21
250.238302
 31
0.0
  0
LINE
  5
3E9
330
1F
100
AcDbEntity
  8
LC-002-100-D00-0
 62
     7
370
    50
100
AcDbLine
 10
410.097663
 20
178.723978
 30
0.0
 11
410.097663
 21
246.723982
 31
0.0
  0
LINE
  5
3EA
330
1F
100
AcDbEntity
  8
LC-002-100-D00-0
 62
     7
370
    50
100
AcDbLine
 10
408.535484
 20
178.723978
 30
0.0
 11
410.097663
 21
178.723978
 31
0.0
  0
LINE
  5
3EB
330
1F
100
AcDbEntity
  8
LC-002-100-D00-0
 62
     7
370
    50
100
AcDbLine
 10
407.597661
 20
182.223978
 30
0.0
 11
408.535484
 21
178.723978
 31
0.0
  0
LINE
  5
3EC
330
1F
100
AcDbEntity
  8
LC-002-100-D00-0
 62
     7
370
    50
100
AcDbLine
 10
407.597661
 20
244.481476
 30
0.0
 11
407.597661
 21
182.223978
 31
0.0
  0
LINE
  5
3ED
330
1F
100
AcDbEntity
  8
LC-002-100-D00-0
 62
     7
370
    50
100
AcDbLine
 10
405.622661
 20
244.723978
 30
0.0
 11
407.597661
 21
244.481476
 31
0.0
  0
LINE
  5
3EE
330
1F
100
AcDbEntity
  8
LC-002-100-D00-0
 62
     7
370
    50
100
AcDbLine
 10
377.347663
 20
244.723978
 30
0.0
 11
405.622661
 21
244.723978
 31
0.0
  0
LINE
  5
3EF
330
1F
100
AcDbEntity
  8
LC-002-100-D00-0
 62
     7
370
    50
100
AcDbLine
 10
377.347663
 20
276.35398
 30
0.0
 11
377.347663
 21
266.723978
 31
0.0
  0
ARC
  5
3F0
330
1F
100
AcDbEntity
  8
LC-002-100-D00-0
 62
     7
370
    50
100
AcDbCircle
 10
376.347663
 20
276.353978
 30
0.0
 40
1.0
100
AcDbArc
 50
0.0
 51
90.0
  0
LINE
  5
3F1
330
1F
100
AcDbEntity
  8
LC-002-100-D00-0
 62
     7
370
    50
100
AcDbLine
 10
374.547661
 20
277.353982
 30
0.0
 11
376.347661
 21
277.353982
 31
0.0
  0
ARC
  5
3F2
330
1F
100
AcDbEntity
  8
LC-002-100-D00-0
 62
     7
370
    50
100
AcDbCircle
 10
374.547663
 20
279.853978
 30
0.0
 40
2.5
100
AcDbArc
 50
180.0
 51
270.0
  0
LINE
  5
3F3
330
1F
100
AcDbEntity
  8
LC-002-100-D00-0
 62
     7
370
    50
100
AcDbLine
 10
372.047663
 20
290.253977
 30
0.0
 11
372.047663
 21
279.853979
 31
0.0
  0
ARC
  5
3F4
330
1F
100
AcDbEntity
  8
LC-002-100-D00-0
 62
     7
370
    50
100
AcDbCircle
 10
371.047663
 20
290.253978
 30
0.0
 40
1.0
100
AcDbArc
 50
0.0
 51
90.0
  0
LINE
  5
3F5
330
1F
100
AcDbEntity
  8
LC-002-100-D00-0
 62
     7
370
    50
100
AcDbLine
 10
368.597664
 20
291.253979
 30
0.0
 11
371.047661
 21
291.253979
 31
0.0
  0
ARC
  5
3F6
330
1F
100
AcDbEntity
  8
LC-002-100-D00-0
 62
     7
370
    50
100
AcDbCircle
 10
368.597663
 20
290.253978
 30
0.0
 40
1.0
100
AcDbArc
 50
90.0
 51
180.0
  0
LINE
  5
3F7
330
1F
100
AcDbEntity
  8
LC-002-100-D00-0
 62
     7
370
    50
100
AcDbLine
 10
367.597662
 20
244.723978
 30
0.0
 11
367.597662
 21
290.253977
 31
0.0
  0
LINE
  5
3F8
330
1F
100
AcDbEntity
  8
LC-002-100-D00-0
 62
     7
370
    50
100
AcDbLine
 10
365.097665
 20
306.163984
 30
0.0
 11
365.097665
 21
244.723978
 31
0.0
  0
LINE
  5
3F9
330
1F
100
AcDbEntity
  8
LC-002-100-D00-0
 62
     7
370
    50
100
AcDbLine
 10
364.097663
 20
307.163971
 30
0.0
 11
365.097665
 21
306.163984
 31
0.0
  0
LINE
  5
3FA
330
1F
100
AcDbEntity
  8
LC-002-100-D00-0
 62
     7
370
    50
100
AcDbLine
 10
360.097662
 20
307.163971
 30
0.0
 11
364.097663
 21
307.163971
 31
0.0
  0
LINE
  5
3FB
330
1F
100
AcDbEntity
  8
LC-002-100-D00-0
 62
     7
370
    50
100
AcDbLine
 10
360.097662
 20
309.543984
 30
0.0
 11
360.097662
 21
307.163971
 31
0.0
  0
LINE
  5
3FC
330
1F
100
AcDbEntity
  8
LC-002-100-D00-0
 62
     7
370
    50
100
AcDbLine
 10
354.097665
 20
309.543984
 30
0.0
 11
360.097662
 21
309.543984
 31
0.0
  0
LINE
  5
3FD
330
1F
100
AcDbEntity
  8
LC-002-100-D00-0
 62
     7
370
    50
100
AcDbLine
 10
354.097665
 20
309.543984
 30
0.0
 11
354.097665
 21
305.543976
 31
0.0
  0
LINE
  5
3FE
330
1F
100
AcDbEntity
  8
LC-002-100-D00-0
 62
     7
370
    50
100
AcDbLine
 10
353.097663
 20
304.543974
 30
0.0
 11
354.097665
 21
305.543976
 31
0.0
  0
LINE
  5
3FF
330
1F
100
AcDbEntity
  8
LC-002-100-D00-0
 62
     7
370
    50
100
AcDbLine
 10
349.097662
 20
304.543974
 30
0.0
 11
353.097663
 21
304.543974
 31
0.0
  0
LINE
  5
400
330
1F
100
AcDbEntity
  8
LC-002-100-D00-0
 62
     7
370
    50
100
AcDbLine
 10
348.09766
 20
305.543976
 30
0.0
 11
349.097662
 21
304.543974
 31
0.0
  0
LINE
  5
401
330
1F
100
AcDbEntity
  8
LC-002-100-D00-0
 62
     7
370
    50
100
AcDbLine
 10
348.09766
 20
305.543976
 30
0.0
 11
348.09766
 21
309.543984
 31
0.0
  0
LINE
  5
402
330
1F
100
AcDbEntity
  8
LC-002-100-D00-0
 62
     7
370
    50
100
AcDbLine
 10
345.622666
 20
309.543984
 30
0.0
 11
348.09766
 21
309.543984
 31
0.0
  0
ARC
  5
403
330
1F
100
AcDbEntity
  8
LC-002-100-D00-0
 62
     7
370
    50
100
AcDbCircle
 10
345.622663
 20
310.043978
 30
0.0
 40
0.5
100
AcDbArc
 50
180.0
 51
270.0
  0
LINE
  5
404
330
1F
100
AcDbEntity
  8
LC-002-100-D00-0
 62
     7
370
    50
100
AcDbLine
 10
345.122665
 20
310.043978
 30
0.0
 11
345.122665
 21
325.543972
 31
0.0
  0
LINE
  5
405
330
1F
100
AcDbEntity
  8
LC-002-100-D00-0
 62
     7
370
    50
100
AcDbLine
 10
339.783088
 20
325.543972
 30
0.0
 11
345.122665
 21
325.543972
 31
0.0
  0
LINE
  5
406
330
1F
100
AcDbEntity
  8
LC-002-100-D00-0
 62
     7
370
    50
100
AcDbLine
 10
317.308717
 20
333.723979
 30
0.0
 11
339.783088
 21
325.543972
 31
0.0
  0
LINE
  5
407
330
1F
100
AcDbEntity
  8
LC-002-100-D00-0
 62
     7
370
    50
100
AcDbLine
 10
268.097662
 20
333.723979
 30
0.0
 11
317.308717
 21
333.723979
 31
0.0
  0
LINE
  5
408
330
1F
100
AcDbEntity
  8
LC-002-100-D00-0
 62
     7
370
    50
100
AcDbLine
 10
268.097662
 20
334.723981
 30
0.0
 11
268.097662
 21
333.723979
 31
0.0
  0
ARC
  5
409
330
1F
100
AcDbEntity
  8
LC-002-100-D00-0
 62
     7
370
    50
100
AcDbCircle
 10
270.097663
 20
334.723978
 30
0.0
 40
2.0
100
AcDbArc
 50
90.0
 51
180.0
  0
LINE
  5
40A
330
1F
100
AcDbEntity
  8
LC-002-100-D00-0
 62
     7
370
    50
100
AcDbLine
 10
317.574553
 20
336.723985
 30
0.0
 11
270.097666
 21
336.723985
 31
0.0
  0
LINE
  5
40B
330
1F
100
AcDbEntity
  8
LC-002-100-D00-0
 62
     7
370
    50
100
AcDbLine
 10
341.422662
 20
328.043985
 30
0.0
 11
317.574553
 21
336.723985
 31
0.0
  0
LINE
  5
40C
330
1F
100
AcDbEntity
  8
LC-002-100-D00-0
 62
     7
370
    50
100
AcDbLine
 10
348.09766
 20
328.043985
 30
0.0
 11
341.422662
 21
328.043985
 31
0.0
  0
LINE
  5
40D
330
1F
100
AcDbEntity
  8
LC-002-100-D00-0
 62
     7
370
    50
100
AcDbLine
 10
348.09766
 20
328.043985
 30
0.0
 11
348.09766
 21
312.543975
 31
0.0
  0
LINE
  5
40E
330
1F
100
AcDbEntity
  8
LC-002-100-D00-0
 62
     7
370
    50
100
AcDbLine
 10
379.597664
 20
280.853981
 30
0.0
 11
510.597661
 21
280.853981
 31
0.0
  0
ARC
  5
40F
330
1F
100
AcDbEntity
  8
LC-002-100-D00-0
 62
     7
370
    50
100
AcDbCircle
 10
510.597663
 20
279.853978
 30
0.0
 40
1.0
100
AcDbArc
 50
90.0
 51
180.0
  0
LINE
  5
410
330
1F
100
AcDbEntity
  8
LC-002-100-D00-0
 62
     7
370
    50
100
AcDbLine
 10
362.597659
 20
311.303975
 30
0.0
 11
369.597666
 21
311.303975
 31
0.0
  0
LINE
  5
411
330
1F
100
AcDbEntity
  8
LC-002-100-D00-0
 62
     7
370
    50
100
AcDbLine
 10
520.597659
 20
311.303975
 30
0.0
 11
527.597666
 21
311.303975
 31
0.0
  0
LINE
  5
412
330
1F
100
AcDbEntity
  8
LC-002-100-D00-0
 62
     7
370
    50
100
AcDbLine
 10
527.597666
 20
311.303975
 30
0.0
 11
522.597663
 21
306.30398
 31
0.0
  0
LINE
  5
413
330
1F
100
AcDbEntity
  8
LC-002-100-D00-0
 62
     7
370
    50
100
AcDbLine
 10
367.597662
 20
306.30398
 30
0.0
 11
522.597663
 21
306.30398
 31
0.0
  0
LINE
  5
414
330
1F
100
AcDbEntity
  8
LC-002-100-D00-0
 62
     7
370
    50
100
AcDbLine
 10
515.597664
 20
294.85398
 30
0.0
 11
515.597664
 21
280.853981
 31
0.0
  0
LINE
  5
415
330
1F
100
AcDbEntity
  8
LC-002-100-D00-0
 62
     7
370
    50
100
AcDbLine
 10
354.097665
 20
328.043985
 30
0.0
 11
353.097663
 21
328.043985
 31
0.0
  0
LINE
  5
416
330
1F
100
AcDbEntity
  8
LC-002-100-D00-0
 62
     7
370
    50
100
AcDbLine
 10
348.20313
 20
328.043985
 30
0.0
 11
348.09766
 21
328.043985
 31
0.0
  0
LINE
  5
417
330
1F
100
AcDbEntity
  8
LC-002-100-D00-0
 62
     7
370
    50
100
AcDbLine
 10
527.597666
 20
328.043985
 30
0.0
 11
527.597666
 21
311.303975
 31
0.0
  0
LINE
  5
418
330
1F
100
AcDbEntity
  8
LC-002-100-D00-0
 62
     7
370
    50
100
AcDbLine
 10
362.597659
 20
328.043985
 30
0.0
 11
365.347661
 21
328.043985
 31
0.0
  0
LINE
  5
419
330
1F
100
AcDbEntity
  8
LC-002-100-D00-0
 62
     7
370
    50
100
AcDbLine
 10
524.847664
 20
328.043985
 30
0.0
 11
527.597666
 21
328.043985
 31
0.0
  0
LINE
  5
41A
330
1F
100
AcDbEntity
  8
LC-002-100-D00-0
 62
     7
370
    50
100
AcDbLine
 10
373.597659
 20
295.853975
 30
0.0
 11
376.347661
 21
295.853975
 31
0.0
  0
LINE
  5
41B
330
1F
100
AcDbEntity
  8
LC-002-100-D00-0
 62
     7
370
    50
100
AcDbLine
 10
513.847664
 20
295.853975
 30
0.0
 11
516.597666
 21
295.853975
 31
0.0
  0
ARC
  5
41C
330
1F
100
AcDbEntity
  8
LC-002-100-D00-0
 62
     7
370
    50
100
AcDbCircle
 10
516.597663
 20
294.853978
 30
0.0
 40
1.0
100
AcDbArc
 50
90.0
 51
180.0
  0
LINE
  5
41D
330
1F
100
AcDbEntity
  8
LC-002-100-D00-0
 62
     7
370
    50
100
AcDbLine
 10
381.475792
 20
250.238302
 30
0.0
 11
508.719534
 21
250.238302
 31
0.0
  0
LINE
  5
41E
330
1F
100
AcDbEntity
  8
LC-002-100-D00-0
 62
     7
370
    50
100
AcDbLine
 10
508.719534
 20
250.238302
 30
0.0
 11
480.097663
 21
246.723982
 31
0.0
  0
LINE
  5
41F
330
1F
100
AcDbEntity
  8
LC-002-100-D00-0
 62
     7
370
    50
100
AcDbLine
 10
410.097663
 20
246.723982
 30
0.0
 11
480.097663
 21
246.723982
 31
0.0
  0
LINE
  5
420
330
1F
100
AcDbEntity
  8
LC-002-100-D00-0
 62
     7
370
    50
100
AcDbLine
 10
525.097661
 20
244.723978
 30
0.0
 11
525.097661
 21
306.163984
 31
0.0
  0
LINE
  5
421
330
1F
100
AcDbEntity
  8
LC-002-100-D00-0
 62
     7
370
    50
100
AcDbLine
 10
525.097661
 20
306.163984
 30
0.0
 11
526.097663
 21
307.163971
 31
0.0
  0
LINE
  5
422
330
1F
100
AcDbEntity
  8
LC-002-100-D00-0
 62
     7
370
    50
100
AcDbLine
 10
509.597659
 20
279.853979
 30
0.0
 11
509.597659
 21
251.230846
 31
0.0
  0
LINE
  5
423
330
1F
100
AcDbEntity
  8
LC-002-100-D00-0
 62
     7
370
    50
100
AcDbLine
 10
541.097664
 20
304.543974
 30
0.0
 11
542.097666
 21
305.543976
 31
0.0
  0
LINE
  5
424
330
1F
100
AcDbEntity
  8
LC-002-100-D00-0
 62
     7
370
    50
100
AcDbLine
 10
536.097661
 20
305.543976
 30
0.0
 11
537.097663
 21
304.543974
 31
0.0
  0
LINE
  5
425
330
1F
100
AcDbEntity
  8
LC-002-100-D00-0
 62
     7
370
    50
100
AcDbLine
 10
550.412238
 20
325.543972
 30
0.0
 11
572.886609
 21
333.723979
 31
0.0
  0
LINE
  5
426
330
1F
100
AcDbEntity
  8
LC-002-100-D00-0
 62
     7
370
    50
100
AcDbLine
 10
572.620772
 20
336.723985
 30
0.0
 11
548.772663
 21
328.043985
 31
0.0
  0
ARC
  5
427
330
1F
100
AcDbEntity
  8
LC-002-100-D00-0
 62
     7
370
    50
100
AcDbCircle
 10
620.097663
 20
334.723978
 30
0.0
 40
2.0
100
AcDbArc
 50
0.0
 51
90.0
  0
ARC
  5
428
330
1F
100
AcDbEntity
  8
LC-002-100-D00-0
 62
     7
370
    50
100
AcDbCircle
 10
519.147663
 20
290.253978
 30
0.0
 40
1.0
100
AcDbArc
 50
90.0
 51
180.0
  0
ARC
  5
429
330
1F
100
AcDbEntity
  8
LC-002-100-D00-0
 62
     7
370
    50
100
AcDbCircle
 10
521.597663
 20
296.853978
 30
0.0
 40
1.0
100
AcDbArc
 50
270.0
 51
0.0
  0
ARC
  5
42A
330
1F
100
AcDbEntity
  8
LC-002-100-D00-0
 62
     7
370
    50
100
AcDbCircle
 10
544.572663
 20
310.043978
 30
0.0
 40
0.5000000000001137
100
AcDbArc
 50
270.0
 51
0.0
  0
LINE
  5
42B
330
1F
100
AcDbEntity
  8
LC-002-100-D00-0
 62
     7
370
    50
100
AcDbLine
 10
622.097664
 20
333.723979
 30
0.0
 11
622.097664
 21
334.723981
 31
0.0
  0
LINE
  5
42C
330
1F
100
AcDbEntity
  8
LC-002-100-D00-0
 62
     7
370
    50
100
AcDbLine
 10
545.07266
 20
325.543972
 30
0.0
 11
545.07266
 21
310.043978
 31
0.0
  0
LINE
  5
42D
330
1F
100
AcDbEntity
  8
LC-002-100-D00-0
 62
     7
370
    50
100
AcDbLine
 10
542.097666
 20
309.543984
 30
0.0
 11
542.097666
 21
305.543976
 31
0.0
  0
LINE
  5
42E
330
1F
100
AcDbEntity
  8
LC-002-100-D00-0
 62
     7
370
    50
100
AcDbLine
 10
537.097663
 20
304.543974
 30
0.0
 11
541.097664
 21
304.543974
 31
0.0
  0
LINE
  5
42F
330
1F
100
AcDbEntity
  8
LC-002-100-D00-0
 62
     7
370
    50
100
AcDbLine
 10
536.097661
 20
305.543976
 30
0.0
 11
536.097661
 21
309.543984
 31
0.0
  0
LINE
  5
430
330
1F
100
AcDbEntity
  8
LC-002-100-D00-0
 62
     7
370
    50
100
AcDbLine
 10
530.097664
 20
307.163971
 30
0.0
 11
530.097664
 21
309.543984
 31
0.0
  0
LINE
  5
431
330
1F
100
AcDbEntity
  8
LC-002-100-D00-0
 62
     7
370
    50
100
AcDbLine
 10
522.597663
 20
290.253977
 30
0.0
 11
522.597663
 21
244.723978
 31
0.0
  0
ARC
  5
432
330
1F
100
AcDbEntity
  8
LC-002-100-D00-0
 62
     7
370
    50
100
AcDbCircle
 10
521.597663
 20
290.253978
 30
0.0
 40
1.0
100
AcDbArc
 50
0.0
 51
90.0
  0
LINE
  5
433
330
1F
100
AcDbEntity
  8
LC-002-100-D00-0
 62
     7
370
    50
100
AcDbLine
 10
519.147665
 20
291.253979
 30
0.0
 11
521.597661
 21
291.253979
 31
0.0
  0
LINE
  5
434
330
1F
100
AcDbEntity
  8
LC-002-100-D00-0
 62
     7
370
    50
100
AcDbLine
 10
518.147663
 20
279.853979
 30
0.0
 11
518.147663
 21
290.253977
 31
0.0
  0
ARC
  5
435
330
1F
100
AcDbEntity
  8
LC-002-100-D00-0
 62
     7
370
    50
100
AcDbCircle
 10
515.647663
 20
279.853978
 30
0.0
 40
2.5
100
AcDbArc
 50
270.0
 51
0.0
  0
ARC
  5
436
330
1F
100
AcDbEntity
  8
LC-002-100-D00-0
 62
     7
370
    50
100
AcDbCircle
 10
513.847663
 20
276.353978
 30
0.0
 40
1.0
100
AcDbArc
 50
90.0
 51
180.0
  0
LINE
  5
437
330
1F
100
AcDbEntity
  8
LC-002-100-D00-0
 62
     7
370
    50
100
AcDbLine
 10
512.847662
 20
244.723978
 30
0.0
 11
512.847662
 21
276.35398
 31
0.0
  0
LINE
  5
438
330
1F
100
AcDbEntity
  8
LC-002-100-D00-0
 62
     7
370
    50
100
AcDbLine
 10
484.572664
 20
244.723978
 30
0.0
 11
512.847662
 21
244.723978
 31
0.0
  0
LINE
  5
439
330
1F
100
AcDbEntity
  8
LC-002-100-D00-0
 62
     7
370
    50
100
AcDbLine
 10
482.597664
 20
244.481476
 30
0.0
 11
484.572664
 21
244.723978
 31
0.0
  0
LINE
  5
43A
330
1F
100
AcDbEntity
  8
LC-002-100-D00-0
 62
     7
370
    50
100
AcDbLine
 10
482.597664
 20
182.223978
 30
0.0
 11
482.597664
 21
244.481476
 31
0.0
  0
LINE
  5
43B
330
1F
100
AcDbEntity
  8
LC-002-100-D00-0
 62
     7
370
    50
100
AcDbLine
 10
481.659841
 20
178.723978
 30
0.0
 11
482.597664
 21
182.223978
 31
0.0
  0
LINE
  5
43C
330
1F
100
AcDbEntity
  8
LC-002-100-D00-0
 62
     7
370
    50
100
AcDbLine
 10
480.097663
 20
178.723978
 30
0.0
 11
481.659841
 21
178.723978
 31
0.0
  0
LINE
  5
43D
330
1F
100
AcDbEntity
  8
LC-002-100-D00-0
 62
     7
370
    50
100
AcDbLine
 10
480.097663
 20
246.723982
 30
0.0
 11
480.097663
 21
178.723978
 31
0.0
  0
ARC
  5
43E
330
1F
100
AcDbEntity
  8
LC-002-100-D00-0
 62
     7
370
    50
100
AcDbCircle
 10
508.597663
 20
251.230848
 30
0.0
 40
1.00000000000004
100
AcDbArc
 50
277.0
 51
0.0
  0
LINE
  5
43F
330
1F
100
AcDbEntity
  8
LC-002-100-D00-0
 62
     7
370
    50
100
AcDbLine
 10
522.597663
 20
306.30398
 30
0.0
 11
522.597663
 21
296.853977
 31
0.0
  0
LINE
  5
440
330
1F
100
AcDbEntity
  8
LC-002-100-D00-0
 62
     7
370
    50
100
AcDbLine
 10
536.097661
 20
328.043985
 30
0.0
 11
536.097661
 21
312.543975
 31
0.0
  0
LINE
  5
441
330
1F
100
AcDbEntity
  8
LC-002-100-D00-0
 62
     7
370
    50
100
AcDbLine
 10
542.097666
 20
312.543975
 30
0.0
 11
536.097661
 21
312.543975
 31
0.0
  0
LINE
  5
442
330
1F
100
AcDbEntity
  8
LC-002-100-D00-0
 62
     7
370
    50
100
AcDbLine
 10
542.097666
 20
312.543975
 30
0.0
 11
542.097666
 21
328.043985
 31
0.0
  0
LINE
  5
443
330
1F
100
AcDbEntity
  8
LC-002-100-D00-0
 62
     7
370
    50
100
AcDbLine
 10
513.847664
 20
277.353982
 30
0.0
 11
515.647665
 21
277.353982
 31
0.0
  0
LINE
  5
444
330
1F
100
AcDbEntity
  8
LC-002-100-D00-0
 62
     7
370
    50
100
AcDbLine
 10
526.097663
 20
307.163971
 30
0.0
 11
530.097664
 21
307.163971
 31
0.0
  0
LINE
  5
445
330
1F
100
AcDbEntity
  8
LC-002-100-D00-0
 62
     7
370
    50
100
AcDbLine
 10
620.09766
 20
336.723985
 30
0.0
 11
572.620772
 21
336.723985
 31
0.0
  0
LINE
  5
446
330
1F
100
AcDbEntity
  8
LC-002-100-D00-0
 62
     7
370
    50
100
AcDbLine
 10
521.597661
 20
295.853975
 30
0.0
 11
516.597666
 21
295.853975
 31
0.0
  0
LINE
  5
447
330
1F
100
AcDbEntity
  8
LC-002-100-D00-0
 62
     7
370
    50
100
AcDbLine
 10
572.886609
 20
333.723979
 30
0.0
 11
622.097664
 21
333.723979
 31
0.0
  0
LINE
  5
448
330
1F
100
AcDbEntity
  8
LC-002-100-D00-0
 62
     7
370
    50
100
AcDbLine
 10
536.097661
 20
328.043985
 30
0.0
 11
527.597666
 21
328.043985
 31
0.0
  0
LINE
  5
449
330
1F
100
AcDbEntity
  8
LC-002-100-D00-0
 62
     7
370
    50
100
AcDbLine
 10
548.772663
 20
328.043985
 30
0.0
 11
542.097666
 21
328.043985
 31
0.0
  0
LINE
  5
44A
330
1F
100
AcDbEntity
  8
LC-002-100-D00-0
 62
     7
370
    50
100
AcDbLine
 10
545.07266
 20
325.543972
 30
0.0
 11
550.412238
 21
325.543972
 31
0.0
  0
LINE
  5
44B
330
1F
100
AcDbEntity
  8
LC-002-100-D00-0
 62
     7
370
    50
100
AcDbLine
 10
515.597664
 20
280.853981
 30
0.0
 11
510.597661
 21
280.853981
 31
0.0
  0
LINE
  5
44C
330
1F
100
AcDbEntity
  8
LC-002-100-D00-0
 62
     7
370
    50
100
AcDbLine
 10
542.097666
 20
309.543984
 30
0.0
 11
544.572659
 21
309.543984
 31
0.0
  0
LINE
  5
44D
330
1F
100
AcDbEntity
  8
LC-002-100-D00-0
 62
     7
370
    50
100
AcDbLine
 10
530.097664
 20
309.543984
 30
0.0
 11
536.097661
 21
309.543984
 31
0.0
  0
LINE
  5
44E
330
1F
100
AcDbEntity
  8
LC-002-100-D00-0
 62
     7
370
    50
100
AcDbLine
 10
410.097663
 20
178.723978
 30
0.0
 11
480.097663
 21
178.723978
 31
0.0
  0
LINE
  5
44F
330
1F
100
AcDbEntity
  8
LC-002-100-D00-0
 62
     7
370
    50
100
AcDbLine
 10
542.097666
 20
328.043985
 30
0.0
 11
536.097661
 21
328.043985
 31
0.0
  0
INSERT
  5
476
330
1F
100
AcDbEntity
  8
LC-002-100-D00-0
 62
     7
370
    25
100
AcDbBlockReference
  2
KLON19
 10
0.0
 20
0.0
 30
0.0
  0
INSERT
  5
4A3
330
1F
100
AcDbEntity
  8
LC-002-100-D00-0
 62
     7
370
    25
100
AcDbBlockReference
  2
KLON20
 10
0.0
 20
0.0
 30
0.0
  0
INSERT
  5
4A9
330
1F
100
AcDbEntity
  8
LC-002-100-D00-0
 62
     7
370
    25
100
AcDbBlockReference
  2
KLON21
 10
0.0
 20
0.0
 30
0.0
  0
INSERT
  5
4AF
330
1F
100
AcDbEntity
  8
LC-002-100-D00-0
 62
     7
370
    25
100
AcDbBlockReference
  2
KLON22
 10
0.0
 20
0.0
 30
0.0
  0
INSERT
  5
4B9
330
1F
100
AcDbEntity
  8
LC-002-100-D00-0
 62
     7
370
    25
100
AcDbBlockReference
  2
KLON23
 10
0.0
 20
0.0
 30
0.0
  0
INSERT
  5
4C4
330
1F
100
AcDbEntity
  8
LC-002-100-D00-0
 62
     7
370
    25
100
AcDbBlockReference
  2
KLON24
 10
0.0
 20
0.0
 30
0.0
  0
INSERT
  5
4D0
330
1F
100
AcDbEntity
  8
LC-002-100-D00-0
 62
     7
370
    25
100
AcDbBlockReference
  2
KLON25
 10
0.0
 20
0.0
 30
0.0
  0
INSERT
  5
4D7
330
1F
100
AcDbEntity
  8
LC-002-100-D00-0
 62
     7
370
    25
100
AcDbBlockReference
  2
KLON26
 10
0.0
 20
0.0
 30
0.0
  0
INSERT
  5
4E0
330
1F
100
AcDbEntity
  8
LC-002-100-D00-0
 62
     7
370
    25
100
AcDbBlockReference
  2
KLON27
 10
0.0
 20
0.0
 30
0.0
  0
LINE
  5
4E2
330
1F
100
AcDbEntity
  8
LC-002-100-D00-0
  6
DASHDOT
 62
     7
370
    25
100
AcDbLine
 10
445.097663
 20
412.273346
 30
0.0
 11
445.097663
 21
174.723978
 31
0.0
  0
LINE
  5
4E3
330
1F
100
AcDbEntity
  8
LC-002-100-D00-0
  6
DASHDOT
 62
     7
370
    25
100
AcDbLine
 10
351.097663
 20
304.110587
 30
0.0
 11
351.097663
 21
341.395286
 31
0.0
  0
LINE
  5
4E4
330
1F
100
AcDbEntity
  8
LC-002-100-D00-0
  6
DASHDOT
 62
     7
370
    25
100
AcDbLine
 10
539.097663
 20
302.660774
 30
0.0
 11
539.097663
 21
333.443403
 31
0.0
  0
LINE
  5
4E5
330
1F
100
AcDbEntity
  8
LC-001-002-----0
 62
     7
370
    50
100
AcDbLine
 10
205.097663
 20
341.423985
 30
0.0
 11
205.097663
 21
336.723985
 31
0.0
  0
LINE
  5
4E6
330
1F
100
AcDbEntity
  8
LC-001-002-----0
 62
     7
370
    50
100
AcDbLine
 10
215.097663
 20
341.423985
 30
0.0
 11
215.097663
 21
336.723985
 31
0.0
  0
LINE
  5
4E7
330
1F
100
AcDbEntity
  8
LC-001-002-----0
 62
     7
370
    50
100
AcDbLine
 10
225.097663
 20
341.423985
 30
0.0
 11
225.097663
 21
336.723985
 31
0.0
  0
LINE
  5
4E8
330
1F
100
AcDbEntity
  8
LC-001-002-----0
 62
     7
370
    50
100
AcDbLine
 10
235.097663
 20
341.423985
 30
0.0
 11
235.097663
 21
336.723985
 31
0.0
  0
LINE
  5
4E9
330
1F
100
AcDbEntity
  8
LC-001-002-----0
 62
     7
370
    50
100
AcDbLine
 10
245.097663
 20
341.423985
 30
0.0
 11
245.097663
 21
336.723985
 31
0.0
  0
LINE
  5
4EA
330
1F
100
AcDbEntity
  8
LC-001-002-----0
 62
     7
370
    50
100
AcDbLine
 10
255.097663
 20
341.423985
 30
0.0
 11
255.097663
 21
336.723985
 31
0.0
  0
LINE
  5
4EB
330
1F
100
AcDbEntity
  8
LC-001-002-----0
 62
     7
370
    50
100
AcDbLine
 10
265.097663
 20
341.423985
 30
0.0
 11
265.097663
 21
336.723985
 31
0.0
  0
LINE
  5
4EC
330
1F
100
AcDbEntity
  8
LC-001-002-----0
 62
     7
370
    50
100
AcDbLine
 10
275.097663
 20
341.423985
 30
0.0
 11
275.097663
 21
336.723985
 31
0.0
  0
LINE
  5
4ED
330
1F
100
AcDbEntity
  8
LC-001-002-----0
 62
     7
370
    50
100
AcDbLine
 10
285.097663
 20
341.423985
 30
0.0
 11
285.097663
 21
336.723985
 31
0.0
  0
INSERT
  5
50C
330
1F
100
AcDbEntity
  8
LC-004-005-----0
 62
     7
370
    25
100
AcDbBlockReference
  2
*X153
 10
0.0
 20
0.0
 30
0.0
  0
INSERT
  5
52A
330
1F
100
AcDbEntity
  8
LC-004-005-----0
 62
     7
370
    25
100
AcDbBlockReference
  2
*X254
 10
0.0
 20
0.0
 30
0.0
  0
INSERT
  5
548
330
1F
100
AcDbEntity
  8
LC-004-005-----0
 62
     7
370
    25
100
AcDbBlockReference
  2
*X355
 10
0.0
 20
0.0
 30
0.0
  0
INSERT
  5
566
330
1F
100
AcDbEntity
  8
LC-004-005-----0
 62
     7
370
    25
100
AcDbBlockReference
  2
*X456
 10
0.0
 20
0.0
 30
0.0
  0
INSERT
  5
584
330
1F
100
AcDbEntity
  8
LC-004-005-----0
 62
     7
370
    25
100
AcDbBlockReference
  2
*X557
 10
0.0
 20
0.0
 30
0.0
  0
LINE
  5
585
330
1F
100
AcDbEntity
  8
LC-001-002-----0
 62
     7
370
    50
100
AcDbLine
 10
195.097663
 20
341.423985
 30
0.0
 11
195.097663
 21
336.723985
 31
0.0
  0
LINE
  5
586
330
1F
100
AcDbEntity
  8
LC-001-002-----0
 62
     7
370
    50
100
AcDbLine
 10
295.097663
 20
341.423985
 30
0.0
 11
295.097663
 21
336.723985
 31
0.0
  0
LINE
  5
587
330
1F
100
AcDbEntity
  8
LC-001-002-----0
 62
     7
370
    50
100
AcDbLine
 10
305.097663
 20
341.423985
 30
0.0
 11
305.097663
 21
336.723985
 31
0.0
  0
INSERT
  5
5A5
330
1F
100
AcDbEntity
  8
LC-004-005-----0
 62
     7
370
    25
100
AcDbBlockReference
  2
*X658
 10
0.0
 20
0.0
 30
0.0
  0
LINE
  5
5A6
330
1F
100
AcDbEntity
  8
LC-001-002-----0
 62
     7
370
    50
100
AcDbLine
 10
315.097663
 20
341.423985
 30
0.0
 11
315.097663
 21
336.723985
 31
0.0
  0
LINE
  5
5A7
330
1F
100
AcDbEntity
  8
LC-001-002-----0
 62
     7
370
    50
100
AcDbLine
 10
325.097663
 20
338.915722
 30
0.0
 11
325.097663
 21
333.985798
 31
0.0
  0
LINE
  5
5A8
330
1F
100
AcDbEntity
  8
LC-001-002-----0
 62
     7
370
    50
100
AcDbLine
 10
345.097663
 20
332.673984
 30
0.0
 11
345.097663
 21
328.043985
 31
0.0
  0
LINE
  5
5A9
330
1F
100
AcDbEntity
  8
LC-001-002-----0
 62
     7
370
    50
100
AcDbLine
 10
335.097663
 20
335.27596
 30
0.0
 11
335.097663
 21
330.346096
 31
0.0
  0
INSERT
  5
5CC
330
1F
100
AcDbEntity
  8
LC-004-005-----0
 62
     7
370
    25
100
AcDbBlockReference
  2
*X759
 10
0.0
 20
0.0
 30
0.0
  0
INSERT
  5
5EF
330
1F
100
AcDbEntity
  8
LC-004-005-----0
 62
     7
370
    25
100
AcDbBlockReference
  2
*X860
 10
0.0
 20
0.0
 30
0.0
  0
LINE
  5
5F0
330
1F
100
AcDbEntity
  8
LC-001-002-----0
 62
     7
370
    50
100
AcDbLine
 10
685.097663
 20
341.423985
 30
0.0
 11
685.097663
 21
336.723985
 31
0.0
  0
LINE
  5
5F1
330
1F
100
AcDbEntity
  8
LC-001-002-----0
 62
     7
370
    50
100
AcDbLine
 10
675.097663
 20
341.423985
 30
0.0
 11
675.097663
 21
336.723985
 31
0.0
  0
LINE
  5
5F2
330
1F
100
AcDbEntity
  8
LC-001-002-----0
 62
     7
370
    50
100
AcDbLine
 10
665.097663
 20
341.423985
 30
0.0
 11
665.097663
 21
336.723985
 31
0.0
  0
LINE
  5
5F3
330
1F
100
AcDbEntity
  8
LC-001-002-----0
 62
     7
370
    50
100
AcDbLine
 10
655.097663
 20
341.423985
 30
0.0
 11
655.097663
 21
336.723985
 31
0.0
  0
LINE
  5
5F4
330
1F
100
AcDbEntity
  8
LC-001-002-----0
 62
     7
370
    50
100
AcDbLine
 10
645.097663
 20
341.423985
 30
0.0
 11
645.097663
 21
336.723985
 31
0.0
  0
LINE
  5
5F5
330
1F
100
AcDbEntity
  8
LC-001-002-----0
 62
     7
370
    50
100
AcDbLine
 10
635.097663
 20
341.423985
 30
0.0
 11
635.097663
 21
336.723985
 31
0.0
  0
LINE
  5
5F6
330
1F
100
AcDbEntity
  8
LC-001-002-----0
 62
     7
370
    50
100
AcDbLine
 10
625.097663
 20
341.423985
 30
0.0
 11
625.097663
 21
336.723985
 31
0.0
  0
LINE
  5
5F7
330
1F
100
AcDbEntity
  8
LC-001-002-----0
 62
     7
370
    50
100
AcDbLine
 10
615.097663
 20
341.423985
 30
0.0
 11
615.097663
 21
336.723985
 31
0.0
  0
LINE
  5
5F8
330
1F
100
AcDbEntity
  8
LC-001-002-----0
 62
     7
370
    50
100
AcDbLine
 10
605.097663
 20
341.423985
 30
0.0
 11
605.097663
 21
336.723985
 31
0.0
  0
INSERT
  5
616
330
1F
100
AcDbEntity
  8
LC-004-005-----0
 62
     7
370
    25
100
AcDbBlockReference
  2
*X961
 10
0.0
 20
0.0
 30
0.0
  0
INSERT
  5
634
330
1F
100
AcDbEntity
  8
LC-004-005-----0
 62
     7
370
    25
100
AcDbBlockReference
  2
*X1062
 10
0.0
 20
0.0
 30
0.0
  0
INSERT
  5
652
330
1F
100
AcDbEntity
  8
LC-004-005-----0
 62
     7
370
    25
100
AcDbBlockReference
  2
*X1163
 10
0.0
 20
0.0
 30
0.0
  0
INSERT
  5
670
330
1F
100
AcDbEntity
  8
LC-004-005-----0
 62
     7
370
    25
100
AcDbBlockReference
  2
*X1264
 10
0.0
 20
0.0
 30
0.0
  0
INSERT
  5
68E
330
1F
100
AcDbEntity
  8
LC-004-005-----0
 62
     7
370
    25
100
AcDbBlockReference
  2
*X1365
 10
0.0
 20
0.0
 30
0.0
  0
LINE
  5
68F
330
1F
100
AcDbEntity
  8
LC-001-002-----0
 62
     7
370
    50
100
AcDbLine
 10
595.097663
 20
341.423985
 30
0.0
 11
595.097663
 21
336.723985
 31
0.0
  0
LINE
  5
690
330
1F
100
AcDbEntity
  8
LC-001-002-----0
 62
     7
370
    50
100
AcDbLine
 10
585.097663
 20
341.423985
 30
0.0
 11
585.097663
 21
336.723985
 31
0.0
  0
INSERT
  5
6AE
330
1F
100
AcDbEntity
  8
LC-004-005-----0
 62
     7
370
    25
100
AcDbBlockReference
  2
*X1466
 10
0.0
 20
0.0
 30
0.0
  0
LINE
  5
6AF
330
1F
100
AcDbEntity
  8
LC-001-002-----0
 62
     7
370
    50
100
AcDbLine
 10
575.097663
 20
341.423985
 30
0.0
 11
575.097663
 21
336.723985
 31
0.0
  0
INSERT
  5
6C9
330
1F
100
AcDbEntity
  8
LC-004-005-----0
 62
     7
370
    25
100
AcDbBlockReference
  2
*X1567
 10
0.0
 20
0.0
 30
0.0
  0
LINE
  5
6CA
330
1F
100
AcDbEntity
  8
LC-001-002-----0
 62
     7
370
    50
100
AcDbLine
 10
565.097663
 20
338.915722
 30
0.0
 11
565.097663
 21
333.985798
 31
0.0
  0
LINE
  5
6CB
330
1F
100
AcDbEntity
  8
LC-001-002-----0
 62
     7
370
    50
100
AcDbLine
 10
555.097663
 20
335.27596
 30
0.0
 11
555.097663
 21
330.346096
 31
0.0
  0
LINE
  5
6CC
330
1F
100
AcDbEntity
  8
LC-001-002-----0
 62
     7
370
    50
100
AcDbLine
 10
545.097663
 20
332.673984
 30
0.0
 11
545.097663
 21
328.043985
 31
0.0
  0
INSERT
  5
6E6
330
1F
100
AcDbEntity
  8
LC-004-005-----0
 62
     7
370
    25
100
AcDbBlockReference
  2
*X1668
 10
0.0
 20
0.0
 30
0.0
  0
DIMENSION
  5
6EA
330
1F
100
AcDbEntity
  8
LC-005-003-----0
 62
     7
370
    25
100
AcDbDimension
  2
*D69
 10
695.097663
 20
473.885976
 30
0.0
 11
448.377551
 21
504.685976
 31
0.0
 70
   160
 71
     5
 42
500.0
  3
LC-DIM-L-0140-02-02
100
AcDbAlignedDimension
 13
195.097663
 23
336.723985
 33
0.0
 14
695.097663
 24
336.723985
 34
0.0
100
AcDbRotatedDimension
  0
DIMENSION
  5
6F8
330
1F
100
AcDbEntity
  8
LC-005-003-----0
 62
     7
370
    25
100
AcDbDimension
  2
*D70
 10
622.097664
 20
418.643976
 30
0.0
 11
435.96691
 21
449.443976
 31
0.0
 70
   160
  1
%%c<>
 71
     5
 42
354.000002
  3
LC-DIM-L-0140-02-02
100
AcDbAlignedDimension
 13
268.097662
 23
333.723979
 33
0.0
 14
622.097664
 24
333.723979
 34
0.0
100
AcDbRotatedDimension
  0
DIMENSION
  5
705
330
1F
100
AcDbEntity
  8
LC-005-003-----0
 62
     7
370
    25
100
AcDbDimension
  2
*D71
 10
525.097661
 20
99.071976
 30
0.0
 11
481.048092
 21
129.871976
 31
0.0
 70
   160
  1
%%c<>
 71
     5
 42
159.999996
  3
LC-DIM-L-0140-02-02
100
AcDbAlignedDimension
 13
365.097665
 23
244.723978
 33
0.0
 14
525.097661
 24
244.723978
 34
0.0
100
AcDbRotatedDimension
  0
DIMENSION
  5
712
330
1F
100
AcDbEntity
  8
LC-005-003-----0
 62
     7
370
    25
100
AcDbDimension
  2
*D72
 10
482.597663
 20
162.629976
 30
0.0
 11
556.527417
 21
193.429976
 31
0.0
 70
   160
  1
DN70
 71
     5
 42
75.0
  3
LC-DIM-L-0140-02-02
100
AcDbAlignedDimension
 13
407.597663
 23
189.301103
 33
0.0
 14
482.597663
 24
183.478798
 34
0.0
100
AcDbRotatedDimension
  0
DIMENSION
  5
720
330
1F
100
AcDbEntity
  8
LC-005-003-----0
 62
     7
370
    25
100
AcDbDimension
  2
*D73
 10
249.807304
 20
234.723978
 30
0.0
 11
219.007304
 21
284.399976
 31
0.0
 70
   160
 71
     5
 42
102.000007
 53
90.0
  3
LC-DIM-L-0140-02-02
100
AcDbAlignedDimension
 13
195.097663
 23
336.723985
 33
0.0
 14
375.878951
 24
234.723978
 34
0.0
 50
90.0
100
AcDbRotatedDimension
  0
DIMENSION
  5
72D
330
1F
100
AcDbEntity
  8
LC-005-003-----0
 62
     7
370
    25
100
AcDbDimension
  2
*D74
 10
309.201083
 20
178.723978
 30
0.0
 11
278.401083
 21
197.675976
 31
0.0
 70
   160
 71
     5
 42
56.0
 53
90.0
  3
LC-DIM-L-0140-02-02
100
AcDbAlignedDimension
 13
375.878951
 23
234.723978
 33
0.0
 14
410.097663
 24
178.723978
 34
0.0
 50
90.0
100
AcDbRotatedDimension
  0
LINE
  5
73C
330
1F
100
AcDbEntity
  8
LC-002-100-D00-0
 62
     7
370
    50
100
AcDbLine
 10
394.097664
 20
237.723979
 30
0.0
 11
394.097664
 21
64.487243
 31
0.0
  0
LINE
  5
73D
330
1F
100
AcDbEntity
  8
LC-002-100-D00-0
 62
     7
370
    50
100
AcDbLine
 10
400.097661
 20
64.487243
 30
0.0
 11
400.097661
 21
237.723979
 31
0.0
  0
LINE
  5
73E
330
1F
100
AcDbEntity
  8
LC-002-100-D00-0
 62
     7
370
    50
100
AcDbLine
 10
394.097664
 20
64.487243
 30
0.0
 11
400.097661
 21
64.487243
 31
0.0
  0
INSERT
  5
75C
330
1F
100
AcDbEntity
  8
LC-002-100-D00-0
 62
     7
370
    25
100
AcDbBlockReference
  2
KLON28
 10
0.0
 20
0.0
 30
0.0
  0
LINE
  5
75D
330
1F
100
AcDbEntity
  8
LC-002-100-D00-0
 62
     7
370
    50
100
AcDbLine
 10
403.447662
 20
237.223978
 30
0.0
 11
403.447662
 21
239.723979
 31
0.0
  0
LINE
  5
75E
330
1F
100
AcDbEntity
  8
LC-002-100-D00-0
 62
     7
370
    50
100
AcDbLine
 10
390.747663
 20
239.723979
 30
0.0
 11
390.747663
 21
237.223978
 31
0.0
  0
LINE
  5
75F
330
1F
100
AcDbEntity
  8
LC-002-100-D00-0
 62
     7
370
    50
100
AcDbLine
 10
401.347664
 20
214.723977
 30
0.0
 11
401.347664
 21
237.223978
 31
0.0
  0
LINE
  5
760
330
1F
100
AcDbEntity
  8
LC-002-100-D00-0
 62
     7
370
    50
100
AcDbLine
 10
392.847661
 20
237.223978
 30
0.0
 11
392.847661
 21
214.723977
 31
0.0
  0
LINE
  5
761
330
1F
100
AcDbEntity
  8
LC-002-100-D00-0
 62
     7
370
    50
100
AcDbLine
 10
400.647663
 20
239.723979
 30
0.0
 11
400.647663
 21
214.723977
 31
0.0
  0
LINE
  5
762
330
1F
100
AcDbEntity
  8
LC-002-100-D00-0
 62
     7
370
    50
100
AcDbLine
 10
393.547662
 20
214.723977
 30
0.0
 11
393.547662
 21
239.723979
 31
0.0
  0
LINE
  5
763
330
1F
100
AcDbEntity
  8
LC-002-100-D00-0
 62
     7
370
    15
100
AcDbLine
 10
400.647663
 20
214.723977
 30
0.0
 11
400.097661
 21
214.723977
 31
0.0
  0
LINE
  5
764
330
1F
100
AcDbEntity
  8
LC-002-100-D00-0
 62
     7
370
    15
100
AcDbLine
 10
394.097664
 20
214.723977
 30
0.0
 11
393.547662
 21
214.723977
 31
0.0
  0
LINE
  5
765
330
1F
100
AcDbEntity
  8
LC-002-100-D00-0
 62
     7
370
    50
100
AcDbLine
 10
400.647663
 20
239.723979
 30
0.0
 11
399.805866
 21
239.723979
 31
0.0
  0
LINE
  5
766
330
1F
100
AcDbEntity
  8
LC-002-100-D00-0
 62
     7
370
    50
100
AcDbLine
 10
392.847661
 20
214.723977
 30
0.0
 11
393.547662
 21
214.723977
 31
0.0
  0
LINE
  5
767
330
1F
100
AcDbEntity
  8
LC-002-100-D00-0
 62
     7
370
    50
100
AcDbLine
 10
393.547662
 20
239.723979
 30
0.0
 11
390.747663
 21
239.723979
 31
0.0
  0
LINE
  5
768
330
1F
100
AcDbEntity
  8
LC-002-100-D00-0
 62
     7
370
    15
100
AcDbLine
 10
390.747663
 20
237.223978
 30
0.0
 11
392.847661
 21
237.223978
 31
0.0
  0
LINE
  5
769
330
1F
100
AcDbEntity
  8
LC-002-100-D00-0
 62
     7
370
    50
100
AcDbLine
 10
400.647663
 20
214.723977
 30
0.0
 11
401.347664
 21
214.723977
 31
0.0
  0
LINE
  5
76A
330
1F
100
AcDbEntity
  8
LC-002-100-D00-0
 62
     7
370
    50
100
AcDbLine
 10
403.447662
 20
239.723979
 30
0.0
 11
400.647663
 21
239.723979
 31
0.0
  0
LINE
  5
76B
330
1F
100
AcDbEntity
  8
LC-002-100-D00-0
 62
     7
370
    15
100
AcDbLine
 10
401.347664
 20
237.223978
 30
0.0
 11
403.447662
 21
237.223978
 31
0.0
  0
ARC
  5
76C
330
1F
100
AcDbEntity
  8
LC-002-100-D00-0
 62
     7
370
    50
100
AcDbCircle
 10
393.097663
 20
237.723978
 30
0.0
 40
1.0
100
AcDbArc
 50
0.0
 51
90.0
  0
ARC
  5
76D
330
1F
100
AcDbEntity
  8
LC-002-100-D00-0
 62
     7
370
    50
100
AcDbCircle
 10
393.097663
 20
237.723978
 30
0.0
 40
7.0
100
AcDbArc
 50
0.0
 51
90.0
  0
INSERT
  5
774
330
1F
100
AcDbEntity
  8
LC-002-100-D00-0
 62
     7
370
    25
100
AcDbBlockReference
  2
KLON29
 10
0.0
 20
0.0
 30
0.0
  0
INSERT
  5
77B
330
1F
100
AcDbEntity
  8
LC-002-100-D00-0
 62
     7
370
    25
100
AcDbBlockReference
  2
KLON30
 10
0.0
 20
0.0
 30
0.0
  0
ARC
  5
77C
330
1F
100
AcDbEntity
  8
LC-002-100-D00-0
 62
     7
370
    50
100
AcDbCircle
 10
378.097663
 20
245.723978
 30
0.0
 40
7.0
100
AcDbArc
 50
180.0
 51
270.0
  0
LINE
  5
77D
330
1F
100
AcDbEntity
  8
LC-002-100-D00-0
 62
     7
370
    50
100
AcDbLine
 10
371.097662
 20
245.72398
 30
0.0
 11
371.097662
 21
254.723976
 31
0.0
  0
LINE
  5
77E
330
1F
100
AcDbEntity
  8
LC-002-100-D00-0
 62
     7
370
    50
100
AcDbLine
 10
378.097661
 20
264.723981
 30
0.0
 11
378.097661
 21
256.72398
 31
0.0
  0
LINE
  5
77F
330
1F
100
AcDbEntity
  8
LC-002-100-D00-0
 62
     7
370
    50
100
AcDbLine
 10
370.09766
 20
256.72398
 30
0.0
 11
370.09766
 21
264.723981
 31
0.0
  0
ARC
  5
780
330
1F
100
AcDbEntity
  8
LC-002-100-D00-0
 62
     7
370
    50
100
AcDbCircle
 10
376.097663
 20
264.723978
 30
0.0
 40
2.0
100
AcDbArc
 50
0.0
 51
90.0
  0
LINE
  5
781
330
1F
100
AcDbEntity
  8
LC-002-100-D00-0
 62
     7
370
    50
100
AcDbLine
 10
377.347663
 20
266.723978
 30
0.0
 11
376.097664
 21
266.723978
 31
0.0
  0
ARC
  5
782
330
1F
100
AcDbEntity
  8
LC-002-100-D00-0
 62
     7
370
    50
100
AcDbCircle
 10
372.097663
 20
264.723978
 30
0.0
 40
2.0
100
AcDbArc
 50
90.0
 51
180.0
  0
LINE
  5
783
330
1F
100
AcDbEntity
  8
LC-002-100-D00-0
 62
     7
370
    15
100
AcDbLine
 10
377.347663
 20
254.723976
 30
0.0
 11
377.097659
 21
254.723976
 31
0.0
  0
ARC
  5
784
330
1F
100
AcDbEntity
  8
LC-002-100-D00-0
 62
     7
370
    50
100
AcDbCircle
 10
376.097663
 20
256.723978
 30
0.0
 40
1.999999999999972
100
AcDbArc
 50
270.0
 51
0.0
  0
ARC
  5
785
330
1F
100
AcDbEntity
  8
LC-002-100-D00-0
 62
     7
370
    50
100
AcDbCircle
 10
372.097663
 20
256.723978
 30
0.0
 40
2.0
100
AcDbArc
 50
180.0
 51
270.0
  0
LINE
  5
786
330
1F
100
AcDbEntity
  8
LC-002-100-D00-0
 62
     7
370
    15
100
AcDbLine
 10
376.097664
 20
254.723976
 30
0.0
 11
377.097659
 21
254.723976
 31
0.0
  0
LINE
  5
787
330
1F
100
AcDbEntity
  8
LC-002-100-D00-0
 62
     7
370
    50
100
AcDbLine
 10
376.097664
 20
266.723978
 30
0.0
 11
372.097664
 21
266.723978
 31
0.0
  0
LINE
  5
788
330
1F
100
AcDbEntity
  8
LC-002-100-D00-0
 62
     7
370
    50
100
AcDbLine
 10
371.097662
 20
254.723976
 30
0.0
 11
372.097664
 21
254.723976
 31
0.0
  0
LINE
  5
789
330
1F
100
AcDbEntity
  8
LC-002-100-D00-0
 62
     7
370
    50
100
AcDbLine
 10
377.097659
 20
254.723976
 30
0.0
 11
377.097659
 21
245.72398
 31
0.0
  0
ARC
  5
78A
330
1F
100
AcDbEntity
  8
LC-002-100-D00-0
 62
     7
370
    15
100
AcDbCircle
 10
378.097663
 20
245.723978
 30
0.0
 40
1.0
100
AcDbArc
 50
180.0
 51
270.0
  0
LINE
  5
78B
330
1F
100
AcDbEntity
  8
LC-002-100-D00-0
 62
     7
370
    50
100
AcDbLine
 10
377.347663
 20
255.162729
 30
0.0
 11
377.347663
 21
244.723978
 31
0.0
  0
LINE
  5
78C
330
1F
100
AcDbEntity
  8
LC-002-100-D00-0
 62
     7
370
    50
100
AcDbLine
 10
401.347664
 20
234.72398
 30
0.0
 11
407.597661
 21
234.72398
 31
0.0
  0
LINE
  5
78D
330
1F
100
AcDbEntity
  8
LC-002-100-D00-0
 62
     7
370
    50
100
AcDbLine
 10
390.747663
 20
237.223978
 30
0.0
 11
372.597665
 21
237.223978
 31
0.0
  0
ENDSEC
  0
SECTION
  2
OBJECTS
  0
DICTIONARY
  5
C
330
0
100
AcDbDictionary
281
     1
  3
ACAD_GROUP
350
D
  3
ACAD_LAYOUT
350
1A
  3
ACAD_MLINESTYLE
350
17
  3
ACAD_PLOTSETTINGS
350
19
  3
ACAD_PLOTSTYLENAME
350
E
  0
DICTIONARY
  5
D
102
{ACAD_REACTORS
330
C
102
}
330
C
100
AcDbDictionary
281
     1
  0
DICTIONARY
  5
1A
102
{ACAD_REACTORS
330
C
102
}
330
C
100
AcDbDictionary
281
     1
  3
Layout1
350
1E
  3
Layout2
350
26
  3
Model
350
22
  0
DICTIONARY
  5
17
102
{ACAD_REACTORS
330
C
102
}
330
C
100
AcDbDictionary
281
     1
  3
Standard
350
18
  0
DICTIONARY
  5
19
102
{ACAD_REACTORS
330
C
102
}
330
C
100
AcDbDictionary
281
     1
  0
ACDBDICTIONARYWDFLT
  5
E
102
{ACAD_REACTORS
330
C
102
}
330
C
100
AcDbDictionary
281
     1
  3
Normal
350
F
100
AcDbDictionaryWithDefault
340
F
  0
LAYOUT
  5
1E
102
{ACAD_REACTORS
330
1A
102
}
330
1A
100
AcDbPlotSettings
  1

  2

  4

  6

 40
0.0
 41
0.0
 42
0.0
 43
0.0
 44
0.0
 45
0.0
 46
0.0
 47
0.0
 48
0.0
 49
0.0
140
0.0
141
0.0
142
1.0
143
1.0
 70
   688
 72
     0
 73
     0
 74
     5
  7

 75
    16
147
1.0
148
0.0
149
0.0
100
AcDbLayout
  1
Layout1
 70
     1
 71
     1
 10
19.512808
 20
11.753976
 11
859.512808
 21
605.753976
 12
0.0
 22
0.0
 32
0.0
 14
19.512808
 24
11.753976
 34
0.0
 15
859.512808
 25
605.753976
 35
0.0
146
0.0
 13
0.0
 23
0.0
 33
0.0
 16
1.0
 26
0.0
 36
0.0
 17
0.0
 27
1.0
 37
0.0
 76
     0
330
1B
  0
LAYOUT
  5
26
102
{ACAD_REACTORS
330
1A
102
}
330
1A
100
AcDbPlotSettings
  1

  2

  4

  6

 40
0.0
 41
0.0
 42
0.0
 43
0.0
 44
0.0
 45
0.0
 46
0.0
 47
0.0
 48
0.0
 49
0.0
140
0.0
141
0.0
142
1.0
143
1.0
 70
   688
 72
     0
 73
     0
 74
     5
  7

 75
    16
147
1.0
148
0.0
149
0.0
100
AcDbLayout
  1
Layout2
 70
     1
 71
     2
 10
0.0
 20
0.0
 11
0.0
 21
0.0
 12
0.0
 22
0.0
 32
0.0
 14
0.0
 24
0.0
 34
0.0
 15
0.0
 25
0.0
 35
0.0
146
0.0
 13
0.0
 23
0.0
 33
0.0
 16
1.0
 26
0.0
 36
0.0
 17
0.0
 27
1.0
 37
0.0
 76
     0
330
23
  0
LAYOUT
  5
22
102
{ACAD_REACTORS
330
1A
102
}
330
1A
100
AcDbPlotSettings
  1

  2

  4

  6

 40
0.0
 41
0.0
 42
0.0
 43
0.0
 44
0.0
 45
0.0
 46
0.0
 47
0.0
 48
0.0
 49
0.0
140
0.0
141
0.0
142
1.0
143
1.0
 70
  1776
 72
     0
 73
     0
 74
     0
  7

 75
     0
147
1.0
148
0.0
149
0.0
100
AcDbLayout
  1
Model
 70
     1
 71
     0
 10
19.512808
 20
11.753976
 11
859.512808
 21
605.753976
 12
19.512808
 22
11.753976
 32
0.0
 14
19.512808
 24
11.753976
 34
0.0
 15
859.512808
 25
605.753976
 35
0.0
146
0.0
 13
0.0
 23
0.0
 33
0.0
 16
1.0
 26
0.0
 36
0.0
 17
0.0
 27
1.0
 37
0.0
 76
     0
330
1F
  0
MLINESTYLE
  5
18
102
{ACAD_REACTORS
330
17
102
}
330
17
100
AcDbMlineStyle
  2
Standard
 70
     0
  3

 62
   256
 51
90.0
 52
90.0
 71
     2
 49
0.5
 62
   256
  6
BYLAYER
 49
-0.5
 62
   256
  6
BYLAYER
  0
ACDBPLACEHOLDER
  5
F
102
{ACAD_REACTORS
330
E
102
}
330
E
  0
ENDSEC
  0
EOF
