  0
SECTION
  2
HEADER
  9
$ACADVER
  1
AC1015
  9
$ACADMAINTVER
 70
     6
  9
$DWGCODEPAGE
  3
ANSI_1252
  9
$INSBASE
 10
19.512808
 20
11.753976
 30
0.0
  9
$EXTMIN
 10
19.512808
 20
11.753976
 30
0.0
  9
$EXTMAX
 10
859.512808
 20
605.753976
 30
0.0
  9
$LIMMIN
 10
19.512808
 20
11.753976
  9
$LIMMAX
 10
859.512808
 20
605.753976
  9
$ORTHOMODE
 70
     0
  9
$REGENMODE
 70
     1
  9
$FILLMODE
 70
     1
  9
$QTEXTMODE
 70
     0
  9
$MIRRTEXT
 70
     1
  9
$LTSCALE
 40
2.0
  9
$ATTMODE
 70
     1
  9
$TEXTSIZE
 40
2.5
  9
$TRACEWID
 40
1.0
  9
$TEXTSTYLE
  7
Standard
  9
$CLAYER
  8
0
  9
$CELTYPE
  6
ByLayer
  9
$CECOLOR
 62
     7
  9
$CELTSCALE
 40
1.0
  9
$DISPSILH
 70
     0
  9
$DIMSCALE
 40
2.0
  9
$DIMASZ
 40
3.5
  9
$DIMEXO
 40
0.625
  9
$DIMDLI
 40
3.75
  9
$DIMRND
 40
0.0
  9
$DIMDLE
 40
0.0
  9
$DIMEXE
 40
1.25
  9
$DIMTP
 40
0.0
  9
$DIMTM
 40
0.0
  9
$DIMTXT
 40
3.5
  9
$DIMCEN
 40
2.5
  9
$DIMTSZ
 40
0.0
  9
$DIMTOL
 70
     0
  9
$DIMLIM
 70
     0
  9
$DIMTIH
 70
     0
  9
$DIMTOH
 70
     0
  9
$DIMSE1
 70
     0
  9
$DIMSE2
 70
     0
  9
$DIMTAD
 70
     1
  9
$DIMZIN
 70
     8
  9
$DIMBLK
  1

  9
$DIMASO
 70
     1
  9
$DIMSHO
 70
     1
  9
$DIMPOST
  1

  9
$DIMAPOST
  1

  9
$DIMALT
 70
     0
  9
$DIMALTD
 70
     3
  9
$DIMALTF
 40
0.03937
  9
$DIMLFAC
 40
1.0
  9
$DIMTOFL
 70
     1
  9
$DIMTVP
 40
0.0
  9
$DIMTIX
 70
     0
  9
$DIMSOXD
 70
     0
  9
$DIMSAH
 70
     0
  9
$DIMBLK1
  1

  9
$DIMBLK2
  1

  9
$DIMSTYLE
  2
ISO-25
  9
$DIMCLRD
 70
     0
  9
$DIMCLRE
 70
     0
  9
$DIMCLRT
 70
     0
  9
$DIMTFAC
 40
1.0
  9
$DIMGAP
 40
0.625
  9
$DIMJUST
 70
     0
  9
$DIMSD1
 70
     0
  9
$DIMSD2
 70
     0
  9
$DIMTOLJ
 70
     0
  9
$DIMTZIN
 70
     8
  9
$DIMALTZ
 70
     0
  9
$DIMALTTZ
 70
     0
  9
$DIMUPT
 70
     0
  9
$DIMDEC
 70
     2
  9
$DIMTDEC
 70
     2
  9
$DIMALTU
 70
     2
  9
$DIMALTTD
 70
     3
  9
$DIMTXSTY
  7
Standard
  9
$DIMAUNIT
 70
     0
  9
$DIMADEC
 70
     0
  9
$DIMALTRND
 40
0.0
  9
$DIMAZIN
 70
     0
  9
$DIMDSEP
 70
    44
  9
$DIMATFIT
 70
     3
  9
$DIMFRAC
 70
     0
  9
$DIMLDRBLK
  1

  9
$DIMLUNIT
 70
     2
  9
$DIMLWD
 70
    -2
  9
$DIMLWE
 70
    -2
  9
$DIMTMOVE
 70
     0
  9
$LUNITS
 70
     2
  9
$LUPREC
 70
     4
  9
$SKETCHINC
 40
1.0
  9
$FILLETRAD
 40
10.0
  9
$AUNITS
 70
     0
  9
$AUPREC
 70
     0
  9
$MENU
  1
.
  9
$ELEVATION
 40
0.0
  9
$PELEVATION
 40
0.0
  9
$THICKNESS
 40
0.0
  9
$LIMCHECK
 70
     0
  9
$CHAMFERA
 40
10.0
  9
$CHAMFERB
 40
10.0
  9
$CHAMFERC
 40
20.0
  9
$CHAMFERD
 40
0.0
  9
$SKPOLY
 70
     0
  9
$TDCREATE
 40
2455565.386040556
  9
$TDUCREATE
 40
2455565.344373889
  9
$TDUPDATE
 40
2455565.386040567
  9
$TDUUPDATE
 40
2455565.3443739
  9
$TDINDWG
 40
0.0000000116
  9
$TDUSRTIMER
 40
0.0000000116
  9
$USRTIMER
 70
     1
  9
$ANGBASE
 50
0.0
  9
$ANGDIR
 70
     0
  9
$PDMODE
 70
     0
  9
$PDSIZE
 40
0.0
  9
$PLINEWID
 40
0.0
  9
$SPLFRAME
 70
     0
  9
$SPLINETYPE
 70
     6
  9
$SPLINESEGS
 70
     8
  9
$HANDSEED
  5
797
  9
$SURFTAB1
 70
     6
  9
$SURFTAB2
 70
     6
  9
$SURFTYPE
 70
     6
  9
$SURFU
 70
     6
  9
$SURFV
 70
     6
  9
$UCSBASE
  2

  9
$UCSNAME
  2

  9
$UCSORG
 10
0.0
 20
0.0
 30
0.0
  9
$UCSXDIR
 10
1.0
 20
0.0
 30
0.0
  9
$UCSYDIR
 10
0.0
 20
1.0
 30
0.0
  9
$UCSORTHOREF
  2

  9
$UCSORTHOVIEW
 70
     0
  9
$UCSORGTOP
 10
0.0
 20
0.0
 30
0.0
  9
$UCSORGBOTTOM
 10
0.0
 20
0.0
 30
0.0
  9
$UCSORGLEFT
 10
0.0
 20
0.0
 30
0.0
  9
$UCSORGRIGHT
 10
0.0
 20
0.0
 30
0.0
  9
$UCSORGFRONT
 10
0.0
 20
0.0
 30
0.0
  9
$UCSORGBACK
 10
0.0
 20
0.0
 30
0.0
  9
$PUCSBASE
  2

  9
$PUCSNAME
  2

  9
$PUCSORG
 10
0.0
 20
0.0
 30
0.0
  9
$PUCSXDIR
 10
1.0
 20
0.0
 30
0.0
  9
$PUCSYDIR
 10
0.0
 20
1.0
 30
0.0
  9
$PUCSORTHOREF
  2

  9
$PUCSORTHOVIEW
 70
     0
  9
$PUCSORGTOP
 10
0.0
 20
0.0
 30
0.0
  9
$PUCSORGBOTTOM
 10
0.0
 20
0.0
 30
0.0
  9
$PUCSORGLEFT
 10
0.0
 20
0.0
 30
0.0
  9
$PUCSORGRIGHT
 10
0.0
 20
0.0
 30
0.0
  9
$PUCSORGFRONT
 10
0.0
 20
0.0
 30
0.0
  9
$PUCSORGBACK
 10
0.0
 20
0.0
 30
0.0
  9
$USERI1
 70
     0
  9
$USERI2
 70
     0
  9
$USERI3
 70
     0
  9
$USERI4
 70
     0
  9
$USERI5
 70
     0
  9
$USERR1
 40
0.0
  9
$USERR2
 40
0.0
  9
$USERR3
 40
0.0
  9
$USERR4
 40
0.0
  9
$USERR5
 40
0.0
  9
$WORLDVIEW
 70
     1
  9
$SHADEDGE
 70
     3
  9
$SHADEDIF
 70
    70
  9
$TILEMODE
 70
     1
  9
$MAXACTVP
 70
    64
  9
$PINSBASE
 10
0.0
 20
0.0
 30
0.0
  9
$PLIMCHECK
 70
     0
  9
$PEXTMIN
 10
19.512808
 20
11.753976
 30
0.0
  9
$PEXTMAX
 10
859.512808
 20
605.753976
 30
0.0
  9
$PLIMMIN
 10
19.512808
 20
11.753976
  9
$PLIMMAX
 10
859.512808
 20
605.753976
  9
$UNITMODE
 70
     0
  9
$VISRETAIN
 70
     1
  9
$PLINEGEN
 70
     0
  9
$PSLTSCALE
 70
     1
  9
$TREEDEPTH
 70
  3020
  9
$CMLSTYLE
  2
Standard
  9
$CMLJUST
 70
     0
  9
$CMLSCALE
 40
20.0
  9
$PROXYGRAPHICS
 70
     1
  9
$MEASUREMENT
 70
     1
  9
$CELWEIGHT
370
    -1
  9
$ENDCAPS
280
     0
  9
$JOINSTYLE
280
     0
  9
$LWDISPLAY
290
     0
  9
$INSUNITS
 70
     4
  9
$HYPERLINKBASE
  1

  9
$STYLESHEET
  1

  9
$XEDIT
290
     1
  9
$CEPSNTYPE
380
     0
  9
$PSTYLEMODE
290
     1
  9
$FINGERPRINTGUID
  2
{FAEB1C30-E019-11D5-929B-00C0DF256EC4}
  9
$VERSIONGUID
  2
{FAEB1C32-E019-11D5-929B-00C0DF256EC4}
  9
$EXTNAMES
290
     1
  9
$PSVPSCALE
 40
0.0
  9
$OLESTARTUP
290
     0
  0
ENDSEC
  0
SECTION
  2
CLASSES
  0
CLASS
  1
ACDBDICTIONARYWDFLT
  2
AcDbDictionaryWithDefault
  3
ObjectDBX Classes
 90
        0
280
     0
281
     0
  0
CLASS
  1
ACDBPLACEHOLDER
  2
AcDbPlaceHolder
  3
ObjectDBX Classes
 90
        0
280
     0
281
     0
  0
CLASS
  1
LAYOUT
  2
AcDbLayout
  3
ObjectDBX Classes
 90
        0
280
     0
281
     0
  0
ENDSEC
  0
SECTION
  2
TABLES
  0
TABLE
  2
VPORT
  5
8
330
0
100
AcDbSymbolTable
 70
     2
  0
VPORT
  5
29
330
8
100
AcDbSymbolTableRecord
100
AcDbViewportTableRecord
  2
*ACTIVE
 70
     0
 10
0.0
 20
0.0
 11
1.0
 21
1.0
 12
439.512808
 22
308.753976
 13
0.0
 23
0.0
 14
1.0
 24
1.0
 15
0.0
 25
0.0
 16
0.0
 26
0.0
 36
1.0
 17
0.0
 27
0.0
 37
0.0
 40
594.0
 41
1.414141
 42
50.0
 43
0.0
 44
0.0
 50
0.0
 51
0.0
 71
    16
 72
   100
 73
     1
 74
     0
 75
     0
 76
     0
 77
     0
 78
     0
281
     0
 65
     0
110
0.0
120
0.0
130
0.0
111
1.0
121
0.0
131
0.0
112
0.0
122
1.0
132
0.0
 79
     0
146
0.0
  0
ENDTAB
  0
TABLE
  2
LTYPE
  5
5
330
0
100
AcDbSymbolTable
 70
     3
  0
LTYPE
  5
14
330
5
100
AcDbSymbolTableRecord
100
AcDbLinetypeTableRecord
  2
ByBlock
 70
     0
  3

 72
    65
 73
     0
 40
0.0
  0
LTYPE
  5
15
330
5
100
AcDbSymbolTableRecord
100
AcDbLinetypeTableRecord
  2
ByLayer
 70
     0
  3

 72
    65
 73
     0
 40
0.0
  0
LTYPE
  5
16
330
5
100
AcDbSymbolTableRecord
100
AcDbLinetypeTableRecord
  2
Continuous
 70
     0
  3
Solid line
 72
    65
 73
     0
 40
0.0
  0
LTYPE
  5
2A
330
5
100
AcDbSymbolTableRecord
100
AcDbLinetypeTableRecord
  2
DASHED
 70
     0
  3
__ __ __ __ __
 72
    65
 73
     2
 40
6.25
 49
5.0
 74
     4
 75
     0
340
0
 46
1.0
 50
0.0
 44
0.0
 45
0.0
 49
-1.25
 74
     4
 75
     0
340
0
 46
1.0
 50
0.0
 44
0.0
 45
0.0
  0
LTYPE
  5
540
330
5
100
AcDbSymbolTableRecord
100
AcDbLinetypeTableRecord
  2
DASHDOT
 70
     0
  3
__ . __ . __ . __ . __
 72
    65
 73
     4
 40
7.5
 49
5.0
 74
     4
 75
     0
340
0
 46
1.0
 50
0.0
 44
0.0
 45
0.0
 49
-1.25
 74
     4
 75
     0
340
0
 46
1.0
 50
0.0
 44
0.0
 45
0.0
 49
0.0
 74
     4
 75
     0
340
0
 46
1.0
 50
0.0
 44
0.0
 45
0.0
 49
-1.25
 74
     4
 75
     0
340
0
 46
1.0
 50
0.0
 44
0.0
 45
0.0
  0
ENDTAB
  0
TABLE
  2
LAYER
  5
2
330
0
100
AcDbSymbolTable
 70
    11
  0
LAYER
  5
10
330
2
100
AcDbSymbolTableRecord
100
AcDbLayerTableRecord
  2
0
 70
     0
 62
     7
  6
Continuous
370
    -3
390
F
  0
LAYER
  5
2B
330
2
100
AcDbSymbolTableRecord
100
AcDbLayerTableRecord
  2
LC-INFO-1-2-mm-A3-0
 70
     1
 62
     7
  6
ByBlock
370
    -3
390
F
  0
LAYER
  5
2C
330
2
100
AcDbSymbolTableRecord
100
AcDbLayerTableRecord
  2
LC-CUT-HIDDEN
 70
     0
 62
     7
  6
DASHED
370
    -3
390
F
  0
LAYER
  5
2D
330
2
100
AcDbSymbolTableRecord
100
AcDbLayerTableRecord
  2
LC-VIEWPORT
 70
     0
 62
     7
  6
ByBlock
370
    -3
390
F
  0
LAYER
  5
2E
330
2
100
AcDbSymbolTableRecord
100
AcDbLayerTableRecord
  2
LC-3D-HIDDEN
 70
     0
 62
     9
  6
DASHED
370
    -3
390
F
  0
LAYER
  5
31
330
2
100
AcDbSymbolTableRecord
100
AcDbLayerTableRecord
  2
LC-001-100-D00-0
 70
     0
 62
     7
  6
ByBlock
370
    -3
390
F
  0
LAYER
  5
33
330
2
100
AcDbSymbolTableRecord
100
AcDbLayerTableRecord
  2
LC-002-101-D00-0
 70
     0
 62
     2
  6
ByBlock
370
    -3
390
F
  0
LAYER
  5
544
330
2
100
AcDbSymbolTableRecord
100
AcDbLayerTableRecord
  2
LC-003-002-----0
 70
     0
 62
     1
  6
ByBlock
370
    -3
390
F
  0
LAYER
  5
551
330
2
100
AcDbSymbolTableRecord
100
AcDbLayerTableRecord
  2
LC-004-005-----0
 70
     0
 62
     2
  6
ByBlock
370
    -3
390
F
  0
LAYER
  5
747
330
2
100
AcDbSymbolTableRecord
100
AcDbLayerTableRecord
  2
LC-005-003-----0
 70
     0
 62
     2
  6
ByBlock
370
    -3
390
F
  0
LAYER
  5
749
330
2
100
AcDbSymbolTableRecord
100
AcDbLayerTableRecord
  2
Defpoints
 70
     0
 62
     7
  6
Continuous
290
     0
370
    -3
390
F
  0
ENDTAB
  0
TABLE
  2
STYLE
  5
3
330
0
100
AcDbSymbolTable
 70
     4
  0
STYLE
  5
11
330
3
100
AcDbSymbolTableRecord
100
AcDbTextStyleTableRecord
  2
Standard
 70
     0
 40
0.0
 41
1.0
 50
0.0
 71
     0
 42
2.5
  3
txt
  4

  0
STYLE
  5
2F
330
3
100
AcDbSymbolTableRecord
100
AcDbTextStyleTableRecord
  2
LCTX0-400-0-0pDIN-Schrift
 70
     0
 40
0.0
 41
0.75
 50
0.0
 71
     0
 42
3.5
  3
TXT
  4

  0
STYLE
  5
30
330
3
100
AcDbSymbolTableRecord
100
AcDbTextStyleTableRecord
  2
LCTX15-400-0-0-Arial
 70
     0
 40
0.0
 41
0.8
 50
0.0
 71
     0
 42
3.5
  3

  4

1001
ACAD
1000
Arial
1071
 16777218
  0
STYLE
  5
745
330
3
100
AcDbSymbolTableRecord
100
AcDbTextStyleTableRecord
  2
LCTX15-400-0-0pDIN-Schrift
 70
     0
 40
2.5
 41
0.8
 50
15.0
 71
     0
 42
3.5
  3
STANDARD
  4

  0
ENDTAB
  0
TABLE
  2
VIEW
  5
6
330
0
100
AcDbSymbolTable
 70
     0
  0
ENDTAB
  0
TABLE
  2
UCS
  5
7
330
0
100
AcDbSymbolTable
 70
     0
  0
ENDTAB
  0
TABLE
  2
APPID
  5
9
330
0
100
AcDbSymbolTable
 70
     1
  0
APPID
  5
12
330
9
100
AcDbSymbolTableRecord
100
AcDbRegAppTableRecord
  2
ACAD
 70
     0
  0
ENDTAB
  0
TABLE
  2
DIMSTYLE
  5
A
330
0
100
AcDbSymbolTable
 70
     2
100
AcDbDimStyleTable
  0
DIMSTYLE
105
27
330
A
100
AcDbSymbolTableRecord
100
AcDbDimStyleTableRecord
  2
ISO-25
 70
     0
 41
2.5
 42
0.625
 43
3.75
 44
1.25
 73
     0
 74
     0
 77
     1
 78
     8
140
2.5
141
2.5
143
0.03937
147
0.625
171
     3
172
     1
271
     2
272
     2
274
     3
278
    44
283
     0
284
     8
340
11
  0
DIMSTYLE
105
746
102
{ACAD_REACTORS
330
748
330
756
330
763
330
770
330
77D
330
78A
102
}
330
A
100
AcDbSymbolTableRecord
100
AcDbDimStyleTableRecord
  2
LC-DIM-L-0140-02-02
 70
     0
 40
2.0
 41
14.0
 42
0.0
 43
7.5
 44
1.8
 73
     0
 74
     0
 77
     1
 78
     8
 79
     2
140
14.0
141
0.0
146
0.71
147
1.5
176
     2
177
     2
178
     2
179
     2
271
     2
278
    44
289
     1
340
745
  0
ENDTAB
  0
TABLE
  2
BLOCK_RECORD
  5
1
330
0
100
AcDbSymbolTable
 70
    82
  0
BLOCK_RECORD
  5
1F
330
1
100
AcDbSymbolTableRecord
100
AcDbBlockTableRecord
  2
*Model_Space
340
22
  0
BLOCK_RECORD
  5
1B
330
1
100
AcDbSymbolTableRecord
100
AcDbBlockTableRecord
  2
*Paper_Space
340
1E
  0
BLOCK_RECORD
  5
23
330
1
100
AcDbSymbolTableRecord
100
AcDbBlockTableRecord
  2
*Paper_Space0
340
26
  0
BLOCK_RECORD
  5
35
330
1
100
AcDbSymbolTableRecord
100
AcDbBlockTableRecord
  2
POLY1
340
0
102
{BLKREFS
331
40
102
}
  0
BLOCK_RECORD
  5
41
330
1
100
AcDbSymbolTableRecord
100
AcDbBlockTableRecord
  2
POLY2
340
0
102
{BLKREFS
331
4C
102
}
  0
BLOCK_RECORD
  5
4D
330
1
100
AcDbSymbolTableRecord
100
AcDbBlockTableRecord
  2
POLY3
340
0
102
{BLKREFS
331
58
102
}
  0
BLOCK_RECORD
  5
59
330
1
100
AcDbSymbolTableRecord
100
AcDbBlockTableRecord
  2
POLY4
340
0
102
{BLKREFS
331
64
102
}
  0
BLOCK_RECORD
  5
65
330
1
100
AcDbSymbolTableRecord
100
AcDbBlockTableRecord
  2
POLY5
340
0
102
{BLKREFS
331
70
102
}
  0
BLOCK_RECORD
  5
71
330
1
100
AcDbSymbolTableRecord
100
AcDbBlockTableRecord
  2
POLY6
340
0
102
{BLKREFS
331
7C
102
}
  0
BLOCK_RECORD
  5
7D
330
1
100
AcDbSymbolTableRecord
100
AcDbBlockTableRecord
  2
POLY7
340
0
102
{BLKREFS
331
88
102
}
  0
BLOCK_RECORD
  5
89
330
1
100
AcDbSymbolTableRecord
100
AcDbBlockTableRecord
  2
POLY8
340
0
102
{BLKREFS
331
94
102
}
  0
BLOCK_RECORD
  5
95
330
1
100
AcDbSymbolTableRecord
100
AcDbBlockTableRecord
  2
POLY9
340
0
102
{BLKREFS
331
A0
102
}
  0
BLOCK_RECORD
  5
A1
330
1
100
AcDbSymbolTableRecord
100
AcDbBlockTableRecord
  2
POLY10
340
0
102
{BLKREFS
331
AC
102
}
  0
BLOCK_RECORD
  5
D8
330
1
100
AcDbSymbolTableRecord
100
AcDbBlockTableRecord
  2
KLON1
340
0
102
{BLKREFS
331
DE
102
}
  0
BLOCK_RECORD
  5
DF
330
1
100
AcDbSymbolTableRecord
100
AcDbBlockTableRecord
  2
KLON2
340
0
102
{BLKREFS
331
E5
102
}
  0
BLOCK_RECORD
  5
E6
330
1
100
AcDbSymbolTableRecord
100
AcDbBlockTableRecord
  2
POLY11
340
0
102
{BLKREFS
331
F1
102
}
  0
BLOCK_RECORD
  5
F3
330
1
100
AcDbSymbolTableRecord
100
AcDbBlockTableRecord
  2
KLON3
340
0
102
{BLKREFS
331
F9
102
}
  0
BLOCK_RECORD
  5
FA
330
1
100
AcDbSymbolTableRecord
100
AcDbBlockTableRecord
  2
KLON4
340
0
102
{BLKREFS
331
100
102
}
  0
BLOCK_RECORD
  5
101
330
1
100
AcDbSymbolTableRecord
100
AcDbBlockTableRecord
  2
POLY12
340
0
102
{BLKREFS
331
10C
102
}
  0
BLOCK_RECORD
  5
10E
330
1
100
AcDbSymbolTableRecord
100
AcDbBlockTableRecord
  2
KLON5
340
0
102
{BLKREFS
331
114
102
}
  0
BLOCK_RECORD
  5
115
330
1
100
AcDbSymbolTableRecord
100
AcDbBlockTableRecord
  2
KLON6
340
0
102
{BLKREFS
331
11B
102
}
  0
BLOCK_RECORD
  5
11C
330
1
100
AcDbSymbolTableRecord
100
AcDbBlockTableRecord
  2
KLON7
340
0
102
{BLKREFS
331
122
102
}
  0
BLOCK_RECORD
  5
123
330
1
100
AcDbSymbolTableRecord
100
AcDbBlockTableRecord
  2
KLON8
340
0
102
{BLKREFS
331
129
102
}
  0
BLOCK_RECORD
  5
12A
330
1
100
AcDbSymbolTableRecord
100
AcDbBlockTableRecord
  2
POLY13
340
0
102
{BLKREFS
331
135
102
}
  0
BLOCK_RECORD
  5
137
330
1
100
AcDbSymbolTableRecord
100
AcDbBlockTableRecord
  2
KLON9
340
0
102
{BLKREFS
331
13D
102
}
  0
BLOCK_RECORD
  5
13E
330
1
100
AcDbSymbolTableRecord
100
AcDbBlockTableRecord
  2
KLON10
340
0
102
{BLKREFS
331
144
102
}
  0
BLOCK_RECORD
  5
145
330
1
100
AcDbSymbolTableRecord
100
AcDbBlockTableRecord
  2
POLY14
340
0
102
{BLKREFS
331
150
102
}
  0
BLOCK_RECORD
  5
15C
330
1
100
AcDbSymbolTableRecord
100
AcDbBlockTableRecord
  2
KLON11
340
0
102
{BLKREFS
331
162
102
}
  0
BLOCK_RECORD
  5
164
330
1
100
AcDbSymbolTableRecord
100
AcDbBlockTableRecord
  2
KLON12
340
0
102
{BLKREFS
331
16A
102
}
  0
BLOCK_RECORD
  5
16C
330
1
100
AcDbSymbolTableRecord
100
AcDbBlockTableRecord
  2
KLON13
340
0
102
{BLKREFS
331
172
102
}
  0
BLOCK_RECORD
  5
174
330
1
100
AcDbSymbolTableRecord
100
AcDbBlockTableRecord
  2
KLON14
340
0
102
{BLKREFS
331
17A
102
}
  0
BLOCK_RECORD
  5
17B
330
1
100
AcDbSymbolTableRecord
100
AcDbBlockTableRecord
  2
KLON15
340
0
102
{BLKREFS
331
181
102
}
  0
BLOCK_RECORD
  5
186
330
1
100
AcDbSymbolTableRecord
100
AcDbBlockTableRecord
  2
KLON16
340
0
102
{BLKREFS
331
18C
102
}
  0
BLOCK_RECORD
  5
18D
330
1
100
AcDbSymbolTableRecord
100
AcDbBlockTableRecord
  2
KLON17
340
0
102
{BLKREFS
331
193
102
}
  0
BLOCK_RECORD
  5
195
330
1
100
AcDbSymbolTableRecord
100
AcDbBlockTableRecord
  2
KLON18
340
0
102
{BLKREFS
331
19B
102
}
  0
BLOCK_RECORD
  5
19D
330
1
100
AcDbSymbolTableRecord
100
AcDbBlockTableRecord
  2
KLON19
340
0
102
{BLKREFS
331
1A3
102
}
  0
BLOCK_RECORD
  5
1A5
330
1
100
AcDbSymbolTableRecord
100
AcDbBlockTableRecord
  2
KLON20
340
0
102
{BLKREFS
331
1AB
102
}
  0
BLOCK_RECORD
  5
1B8
330
1
100
AcDbSymbolTableRecord
100
AcDbBlockTableRecord
  2
POLY15
340
0
102
{BLKREFS
331
1C3
102
}
  0
BLOCK_RECORD
  5
1C6
330
1
100
AcDbSymbolTableRecord
100
AcDbBlockTableRecord
  2
POLY16
340
0
102
{BLKREFS
331
1D1
102
}
  0
BLOCK_RECORD
  5
340
330
1
100
AcDbSymbolTableRecord
100
AcDbBlockTableRecord
  2
POLY17
340
0
102
{BLKREFS
331
351
102
}
  0
BLOCK_RECORD
  5
355
330
1
100
AcDbSymbolTableRecord
100
AcDbBlockTableRecord
  2
POLY18
340
0
102
{BLKREFS
331
366
102
}
  0
BLOCK_RECORD
  5
3B3
330
1
100
AcDbSymbolTableRecord
100
AcDbBlockTableRecord
  2
POLY19
340
0
102
{BLKREFS
331
3C4
102
}
  0
BLOCK_RECORD
  5
3C5
330
1
100
AcDbSymbolTableRecord
100
AcDbBlockTableRecord
  2
POLY20
340
0
102
{BLKREFS
331
3D6
102
}
  0
BLOCK_RECORD
  5
3DA
330
1
100
AcDbSymbolTableRecord
100
AcDbBlockTableRecord
  2
POLY21
340
0
102
{BLKREFS
331
3EB
102
}
  0
BLOCK_RECORD
  5
3EC
330
1
100
AcDbSymbolTableRecord
100
AcDbBlockTableRecord
  2
POLY22
340
0
102
{BLKREFS
331
3FD
102
}
  0
BLOCK_RECORD
  5
43C
330
1
100
AcDbSymbolTableRecord
100
AcDbBlockTableRecord
  2
POLY23
340
0
102
{BLKREFS
331
44D
102
}
  0
BLOCK_RECORD
  5
451
330
1
100
AcDbSymbolTableRecord
100
AcDbBlockTableRecord
  2
POLY24
340
0
102
{BLKREFS
331
462
102
}
  0
BLOCK_RECORD
  5
468
330
1
100
AcDbSymbolTableRecord
100
AcDbBlockTableRecord
  2
POLY25
340
0
102
{BLKREFS
331
473
102
}
  0
BLOCK_RECORD
  5
475
330
1
100
AcDbSymbolTableRecord
100
AcDbBlockTableRecord
  2
POLY26
340
0
102
{BLKREFS
331
480
102
}
  0
BLOCK_RECORD
  5
484
330
1
100
AcDbSymbolTableRecord
100
AcDbBlockTableRecord
  2
KLON21
340
0
102
{BLKREFS
331
48C
102
}
  0
BLOCK_RECORD
  5
48D
330
1
100
AcDbSymbolTableRecord
100
AcDbBlockTableRecord
  2
KLON22
340
0
102
{BLKREFS
331
494
102
}
  0
BLOCK_RECORD
  5
495
330
1
100
AcDbSymbolTableRecord
100
AcDbBlockTableRecord
  2
KLON23
340
0
102
{BLKREFS
331
4BF
102
}
  0
BLOCK_RECORD
  5
4C0
330
1
100
AcDbSymbolTableRecord
100
AcDbBlockTableRecord
  2
KLON24
340
0
102
{BLKREFS
331
4E8
102
}
  0
BLOCK_RECORD
  5
4E9
330
1
100
AcDbSymbolTableRecord
100
AcDbBlockTableRecord
  2
KLON25
340
0
102
{BLKREFS
331
4EF
102
}
  0
BLOCK_RECORD
  5
4F0
330
1
100
AcDbSymbolTableRecord
100
AcDbBlockTableRecord
  2
KLON26
340
0
102
{BLKREFS
331
4F5
102
}
  0
BLOCK_RECORD
  5
4F6
330
1
100
AcDbSymbolTableRecord
100
AcDbBlockTableRecord
  2
KLON27
340
0
102
{BLKREFS
331
502
102
}
  0
BLOCK_RECORD
  5
503
330
1
100
AcDbSymbolTableRecord
100
AcDbBlockTableRecord
  2
KLON28
340
0
102
{BLKREFS
331
509
102
}
  0
BLOCK_RECORD
  5
50A
330
1
100
AcDbSymbolTableRecord
100
AcDbBlockTableRecord
  2
KLON29
340
0
102
{BLKREFS
331
50F
102
}
  0
BLOCK_RECORD
  5
510
330
1
100
AcDbSymbolTableRecord
100
AcDbBlockTableRecord
  2
KLON30
340
0
102
{BLKREFS
331
516
102
}
  0
BLOCK_RECORD
  5
517
330
1
100
AcDbSymbolTableRecord
100
AcDbBlockTableRecord
  2
KLON31
340
0
102
{BLKREFS
331
51D
102
}
  0
BLOCK_RECORD
  5
51E
330
1
100
AcDbSymbolTableRecord
100
AcDbBlockTableRecord
  2
KLON32
340
0
102
{BLKREFS
331
523
102
}
  0
BLOCK_RECORD
  5
524
330
1
100
AcDbSymbolTableRecord
100
AcDbBlockTableRecord
  2
KLON33
340
0
102
{BLKREFS
331
53F
102
}
  0
BLOCK_RECORD
  5
54E
330
1
100
AcDbSymbolTableRecord
100
AcDbBlockTableRecord
  2
*X160
340
0
102
{BLKREFS
331
56C
102
}
  0
BLOCK_RECORD
  5
56D
330
1
100
AcDbSymbolTableRecord
100
AcDbBlockTableRecord
  2
*X261
340
0
102
{BLKREFS
331
58A
102
}
  0
BLOCK_RECORD
  5
58B
330
1
100
AcDbSymbolTableRecord
100
AcDbBlockTableRecord
  2
*X362
340
0
102
{BLKREFS
331
5A8
102
}
  0
BLOCK_RECORD
  5
5A9
330
1
100
AcDbSymbolTableRecord
100
AcDbBlockTableRecord
  2
*X463
340
0
102
{BLKREFS
331
5C6
102
}
  0
BLOCK_RECORD
  5
5C7
330
1
100
AcDbSymbolTableRecord
100
AcDbBlockTableRecord
  2
*X564
340
0
102
{BLKREFS
331
5E4
102
}
  0
BLOCK_RECORD
  5
5E7
330
1
100
AcDbSymbolTableRecord
100
AcDbBlockTableRecord
  2
*X665
340
0
102
{BLKREFS
331
604
102
}
  0
BLOCK_RECORD
  5
606
330
1
100
AcDbSymbolTableRecord
100
AcDbBlockTableRecord
  2
*X766
340
0
102
{BLKREFS
331
628
102
}
  0
BLOCK_RECORD
  5
62B
330
1
100
AcDbSymbolTableRecord
100
AcDbBlockTableRecord
  2
*X867
340
0
102
{BLKREFS
331
64C
102
}
  0
BLOCK_RECORD
  5
658
330
1
100
AcDbSymbolTableRecord
100
AcDbBlockTableRecord
  2
*X968
340
0
102
{BLKREFS
331
675
102
}
  0
BLOCK_RECORD
  5
676
330
1
100
AcDbSymbolTableRecord
100
AcDbBlockTableRecord
  2
*X1069
340
0
102
{BLKREFS
331
693
102
}
  0
BLOCK_RECORD
  5
694
330
1
100
AcDbSymbolTableRecord
100
AcDbBlockTableRecord
  2
*X1170
340
0
102
{BLKREFS
331
6B1
102
}
  0
BLOCK_RECORD
  5
6B2
330
1
100
AcDbSymbolTableRecord
100
AcDbBlockTableRecord
  2
*X1271
340
0
102
{BLKREFS
331
6CF
102
}
  0
BLOCK_RECORD
  5
6D0
330
1
100
AcDbSymbolTableRecord
100
AcDbBlockTableRecord
  2
*X1372
340
0
102
{BLKREFS
331
6ED
102
}
  0
BLOCK_RECORD
  5
6F0
330
1
100
AcDbSymbolTableRecord
100
AcDbBlockTableRecord
  2
*X1473
340
0
102
{BLKREFS
331
70D
102
}
  0
BLOCK_RECORD
  5
70F
330
1
100
AcDbSymbolTableRecord
100
AcDbBlockTableRecord
  2
*X1574
340
0
102
{BLKREFS
331
727
102
}
  0
BLOCK_RECORD
  5
72A
330
1
100
AcDbSymbolTableRecord
100
AcDbBlockTableRecord
  2
*X1675
340
0
102
{BLKREFS
331
743
102
}
  0
BLOCK_RECORD
  5
74A
330
1
100
AcDbSymbolTableRecord
100
AcDbBlockTableRecord
  2
*D76
340
0
  0
BLOCK_RECORD
  5
757
330
1
100
AcDbSymbolTableRecord
100
AcDbBlockTableRecord
  2
*D77
340
0
  0
BLOCK_RECORD
  5
764
330
1
100
AcDbSymbolTableRecord
100
AcDbBlockTableRecord
  2
*D78
340
0
  0
BLOCK_RECORD
  5
771
330
1
100
AcDbSymbolTableRecord
100
AcDbBlockTableRecord
  2
*D79
340
0
  0
BLOCK_RECORD
  5
77E
330
1
100
AcDbSymbolTableRecord
100
AcDbBlockTableRecord
  2
*D80
340
0
  0
BLOCK_RECORD
  5
78B
330
1
100
AcDbSymbolTableRecord
100
AcDbBlockTableRecord
  2
*D81
340
0
  0
ENDTAB
  0
ENDSEC
  0
SECTION
  2
BLOCKS
  0
BLOCK
  5
20
330
1F
100
AcDbEntity
  8
0
100
AcDbBlockBegin
  2
*Model_Space
 70
     0
 71
     0
 10
0.0
 20
0.0
 30
0.0
  3
*Model_Space
  1

  0
ENDBLK
  5
21
330
1F
100
AcDbEntity
  8
0
100
AcDbBlockEnd
  0
BLOCK
  5
1C
330
1B
100
AcDbEntity
 67
     1
  8
0
100
AcDbBlockBegin
  2
*Paper_Space
 70
     0
 71
     0
 10
0.0
 20
0.0
 30
0.0
  3
*Paper_Space
  1

  0
ENDBLK
  5
1D
330
1B
100
AcDbEntity
 67
     1
  8
0
100
AcDbBlockEnd
  0
BLOCK
  5
24
330
23
100
AcDbEntity
  8
0
100
AcDbBlockBegin
  2
*Paper_Space0
 70
     0
 71
     0
 10
0.0
 20
0.0
 30
0.0
  3
*Paper_Space0
  1

  0
ENDBLK
  5
25
330
23
100
AcDbEntity
  8
0
100
AcDbBlockEnd
  0
BLOCK
  5
36
330
35
100
AcDbEntity
  8
0
100
AcDbBlockBegin
  2
POLY1
 70
     0
 71
     0
 10
0.0
 20
0.0
 30
0.0
  3
POLY1
  1

  4
POLY1
  0
LINE
  5
38
330
35
100
AcDbEntity
  8
LC-001-100-D00-0
 62
     7
370
    50
100
AcDbLine
 10
283.88938
 20
398.176069
 30
0.0
 11
283.88938
 21
398.176069
 31
0.0
  0
LINE
  5
39
330
35
100
AcDbEntity
  8
LC-001-100-D00-0
 62
     7
370
    50
100
AcDbLine
 10
283.88938
 20
398.176069
 30
0.0
 11
283.675583
 21
398.292703
 31
0.0
  0
LINE
  5
3A
330
35
100
AcDbEntity
  8
LC-001-100-D00-0
 62
     7
370
    50
100
AcDbLine
 10
283.675583
 20
398.292703
 30
0.0
 11
283.675583
 21
398.292703
 31
0.0
  0
LINE
  5
3B
330
35
100
AcDbEntity
  8
LC-001-100-D00-0
 62
     7
370
    50
100
AcDbLine
 10
283.675583
 20
398.292703
 30
0.0
 11
283.312348
 21
398.490862
 31
0.0
  0
LINE
  5
3C
330
35
100
AcDbEntity
  8
LC-001-100-D00-0
 62
     7
370
    50
100
AcDbLine
 10
283.312348
 20
398.490862
 30
0.0
 11
283.312348
 21
398.490862
 31
0.0
  0
LINE
  5
3D
330
35
100
AcDbEntity
  8
LC-001-100-D00-0
 62
     7
370
    50
100
AcDbLine
 10
283.312348
 20
398.490862
 30
0.0
 11
282.959569
 21
398.691274
 31
0.0
  0
LINE
  5
3E
330
35
100
AcDbEntity
  8
LC-001-100-D00-0
 62
     7
370
    50
100
AcDbLine
 10
282.959569
 20
398.691274
 30
0.0
 11
282.959569
 21
398.691274
 31
0.0
  0
LINE
  5
3F
330
35
100
AcDbEntity
  8
LC-001-100-D00-0
 62
     7
370
    50
100
AcDbLine
 10
282.959569
 20
398.691274
 30
0.0
 11
282.814433
 21
398.773725
 31
0.0
  0
ENDBLK
  5
37
330
35
100
AcDbEntity
  8
0
100
AcDbBlockEnd
  0
BLOCK
  5
42
330
41
100
AcDbEntity
  8
0
100
AcDbBlockBegin
  2
POLY2
 70
     0
 71
     0
 10
0.0
 20
0.0
 30
0.0
  3
POLY2
  1

  4
POLY2
  0
LINE
  5
44
330
41
100
AcDbEntity
  8
LC-001-100-D00-0
 62
     7
370
    50
100
AcDbLine
 10
283.88938
 20
395.17607
 30
0.0
 11
283.88938
 21
395.17607
 31
0.0
  0
LINE
  5
45
330
41
100
AcDbEntity
  8
LC-001-100-D00-0
 62
     7
370
    50
100
AcDbLine
 10
283.88938
 20
395.17607
 30
0.0
 11
283.675583
 21
395.292705
 31
0.0
  0
LINE
  5
46
330
41
100
AcDbEntity
  8
LC-001-100-D00-0
 62
     7
370
    50
100
AcDbLine
 10
283.675583
 20
395.292705
 30
0.0
 11
283.675583
 21
395.292705
 31
0.0
  0
LINE
  5
47
330
41
100
AcDbEntity
  8
LC-001-100-D00-0
 62
     7
370
    50
100
AcDbLine
 10
283.675583
 20
395.292705
 30
0.0
 11
283.312348
 21
395.490863
 31
0.0
  0
LINE
  5
48
330
41
100
AcDbEntity
  8
LC-001-100-D00-0
 62
     7
370
    50
100
AcDbLine
 10
283.312348
 20
395.490863
 30
0.0
 11
283.312348
 21
395.490863
 31
0.0
  0
LINE
  5
49
330
41
100
AcDbEntity
  8
LC-001-100-D00-0
 62
     7
370
    50
100
AcDbLine
 10
283.312348
 20
395.490863
 30
0.0
 11
282.959569
 21
395.691275
 31
0.0
  0
LINE
  5
4A
330
41
100
AcDbEntity
  8
LC-001-100-D00-0
 62
     7
370
    50
100
AcDbLine
 10
282.959569
 20
395.691275
 30
0.0
 11
282.959569
 21
395.691275
 31
0.0
  0
LINE
  5
4B
330
41
100
AcDbEntity
  8
LC-001-100-D00-0
 62
     7
370
    50
100
AcDbLine
 10
282.959569
 20
395.691275
 30
0.0
 11
282.814433
 21
395.773726
 31
0.0
  0
ENDBLK
  5
43
330
41
100
AcDbEntity
  8
0
100
AcDbBlockEnd
  0
BLOCK
  5
4E
330
4D
100
AcDbEntity
  8
0
100
AcDbBlockBegin
  2
POLY3
 70
     0
 71
     0
 10
0.0
 20
0.0
 30
0.0
  3
POLY3
  1

  4
POLY3
  0
LINE
  5
50
330
4D
100
AcDbEntity
  8
LC-001-100-D00-0
 62
     7
370
    50
100
AcDbLine
 10
283.379165
 20
389.456617
 30
0.0
 11
283.379165
 21
389.456617
 31
0.0
  0
LINE
  5
51
330
4D
100
AcDbEntity
  8
LC-001-100-D00-0
 62
     7
370
    50
100
AcDbLine
 10
283.379165
 20
389.456617
 30
0.0
 11
283.336555
 21
389.479975
 31
0.0
  0
LINE
  5
52
330
4D
100
AcDbEntity
  8
LC-001-100-D00-0
 62
     7
370
    50
100
AcDbLine
 10
283.336555
 20
389.479975
 30
0.0
 11
283.336555
 21
389.479975
 31
0.0
  0
LINE
  5
53
330
4D
100
AcDbEntity
  8
LC-001-100-D00-0
 62
     7
370
    50
100
AcDbLine
 10
283.336555
 20
389.479975
 30
0.0
 11
283.145029
 21
389.584965
 31
0.0
  0
LINE
  5
54
330
4D
100
AcDbEntity
  8
LC-001-100-D00-0
 62
     7
370
    50
100
AcDbLine
 10
283.145029
 20
389.584965
 30
0.0
 11
283.145029
 21
389.584965
 31
0.0
  0
LINE
  5
55
330
4D
100
AcDbEntity
  8
LC-001-100-D00-0
 62
     7
370
    50
100
AcDbLine
 10
283.145029
 20
389.584965
 30
0.0
 11
282.959043
 21
389.69116
 31
0.0
  0
LINE
  5
56
330
4D
100
AcDbEntity
  8
LC-001-100-D00-0
 62
     7
370
    50
100
AcDbLine
 10
282.959043
 20
389.69116
 30
0.0
 11
282.959043
 21
389.69116
 31
0.0
  0
LINE
  5
57
330
4D
100
AcDbEntity
  8
LC-001-100-D00-0
 62
     7
370
    50
100
AcDbLine
 10
282.959043
 20
389.69116
 30
0.0
 11
282.814433
 21
389.773729
 31
0.0
  0
ENDBLK
  5
4F
330
4D
100
AcDbEntity
  8
0
100
AcDbBlockEnd
  0
BLOCK
  5
5A
330
59
100
AcDbEntity
  8
0
100
AcDbBlockBegin
  2
POLY4
 70
     0
 71
     0
 10
0.0
 20
0.0
 30
0.0
  3
POLY4
  1

  4
POLY4
  0
LINE
  5
5C
330
59
100
AcDbEntity
  8
LC-001-100-D00-0
 62
     7
370
    50
100
AcDbLine
 10
283.88938
 20
401.176075
 30
0.0
 11
283.88938
 21
401.176075
 31
0.0
  0
LINE
  5
5D
330
59
100
AcDbEntity
  8
LC-001-100-D00-0
 62
     7
370
    50
100
AcDbLine
 10
283.88938
 20
401.176075
 30
0.0
 11
283.675582
 21
401.292706
 31
0.0
  0
LINE
  5
5E
330
59
100
AcDbEntity
  8
LC-001-100-D00-0
 62
     7
370
    50
100
AcDbLine
 10
283.675582
 20
401.292706
 30
0.0
 11
283.675582
 21
401.292706
 31
0.0
  0
LINE
  5
5F
330
59
100
AcDbEntity
  8
LC-001-100-D00-0
 62
     7
370
    50
100
AcDbLine
 10
283.675582
 20
401.292706
 30
0.0
 11
283.312344
 21
401.490858
 31
0.0
  0
LINE
  5
60
330
59
100
AcDbEntity
  8
LC-001-100-D00-0
 62
     7
370
    50
100
AcDbLine
 10
283.312344
 20
401.490858
 30
0.0
 11
283.312344
 21
401.490858
 31
0.0
  0
LINE
  5
61
330
59
100
AcDbEntity
  8
LC-001-100-D00-0
 62
     7
370
    50
100
AcDbLine
 10
283.312344
 20
401.490858
 30
0.0
 11
282.959569
 21
401.691277
 31
0.0
  0
LINE
  5
62
330
59
100
AcDbEntity
  8
LC-001-100-D00-0
 62
     7
370
    50
100
AcDbLine
 10
282.959569
 20
401.691277
 30
0.0
 11
282.959569
 21
401.691277
 31
0.0
  0
LINE
  5
63
330
59
100
AcDbEntity
  8
LC-001-100-D00-0
 62
     7
370
    50
100
AcDbLine
 10
282.959569
 20
401.691277
 30
0.0
 11
282.814433
 21
401.773731
 31
0.0
  0
ENDBLK
  5
5B
330
59
100
AcDbEntity
  8
0
100
AcDbBlockEnd
  0
BLOCK
  5
66
330
65
100
AcDbEntity
  8
0
100
AcDbBlockBegin
  2
POLY5
 70
     0
 71
     0
 10
0.0
 20
0.0
 30
0.0
  3
POLY5
  1

  4
POLY5
  0
LINE
  5
68
330
65
100
AcDbEntity
  8
LC-001-100-D00-0
 62
     7
370
    50
100
AcDbLine
 10
283.88938
 20
392.176072
 30
0.0
 11
283.88938
 21
392.176072
 31
0.0
  0
LINE
  5
69
330
65
100
AcDbEntity
  8
LC-001-100-D00-0
 62
     7
370
    50
100
AcDbLine
 10
283.88938
 20
392.176072
 30
0.0
 11
283.675582
 21
392.292702
 31
0.0
  0
LINE
  5
6A
330
65
100
AcDbEntity
  8
LC-001-100-D00-0
 62
     7
370
    50
100
AcDbLine
 10
283.675582
 20
392.292702
 30
0.0
 11
283.675582
 21
392.292702
 31
0.0
  0
LINE
  5
6B
330
65
100
AcDbEntity
  8
LC-001-100-D00-0
 62
     7
370
    50
100
AcDbLine
 10
283.675582
 20
392.292702
 30
0.0
 11
283.312344
 21
392.490855
 31
0.0
  0
LINE
  5
6C
330
65
100
AcDbEntity
  8
LC-001-100-D00-0
 62
     7
370
    50
100
AcDbLine
 10
283.312344
 20
392.490855
 30
0.0
 11
283.312344
 21
392.490855
 31
0.0
  0
LINE
  5
6D
330
65
100
AcDbEntity
  8
LC-001-100-D00-0
 62
     7
370
    50
100
AcDbLine
 10
283.312344
 20
392.490855
 30
0.0
 11
282.959569
 21
392.691273
 31
0.0
  0
LINE
  5
6E
330
65
100
AcDbEntity
  8
LC-001-100-D00-0
 62
     7
370
    50
100
AcDbLine
 10
282.959569
 20
392.691273
 30
0.0
 11
282.959569
 21
392.691273
 31
0.0
  0
LINE
  5
6F
330
65
100
AcDbEntity
  8
LC-001-100-D00-0
 62
     7
370
    50
100
AcDbLine
 10
282.959569
 20
392.691273
 30
0.0
 11
282.814433
 21
392.773728
 31
0.0
  0
ENDBLK
  5
67
330
65
100
AcDbEntity
  8
0
100
AcDbBlockEnd
  0
BLOCK
  5
72
330
71
100
AcDbEntity
  8
0
100
AcDbBlockBegin
  2
POLY6
 70
     0
 71
     0
 10
0.0
 20
0.0
 30
0.0
  3
POLY6
  1

  4
POLY6
  0
LINE
  5
74
330
71
100
AcDbEntity
  8
LC-001-100-D00-0
 62
     7
370
    50
100
AcDbLine
 10
277.72401
 20
399.368914
 30
0.0
 11
277.72401
 21
399.368914
 31
0.0
  0
LINE
  5
75
330
71
100
AcDbEntity
  8
LC-001-100-D00-0
 62
     7
370
    50
100
AcDbLine
 10
277.72401
 20
399.368914
 30
0.0
 11
277.963908
 21
399.242784
 31
0.0
  0
LINE
  5
76
330
71
100
AcDbEntity
  8
LC-001-100-D00-0
 62
     7
370
    50
100
AcDbLine
 10
277.963908
 20
399.242784
 30
0.0
 11
277.963908
 21
399.242784
 31
0.0
  0
LINE
  5
77
330
71
100
AcDbEntity
  8
LC-001-100-D00-0
 62
     7
370
    50
100
AcDbLine
 10
277.963908
 20
399.242784
 30
0.0
 11
278.327754
 21
399.051486
 31
0.0
  0
LINE
  5
78
330
71
100
AcDbEntity
  8
LC-001-100-D00-0
 62
     7
370
    50
100
AcDbLine
 10
278.327754
 20
399.051486
 30
0.0
 11
278.327754
 21
399.051486
 31
0.0
  0
LINE
  5
79
330
71
100
AcDbEntity
  8
LC-001-100-D00-0
 62
     7
370
    50
100
AcDbLine
 10
278.327754
 20
399.051486
 30
0.0
 11
278.690767
 21
398.846216
 31
0.0
  0
LINE
  5
7A
330
71
100
AcDbEntity
  8
LC-001-100-D00-0
 62
     7
370
    50
100
AcDbLine
 10
278.690767
 20
398.846216
 30
0.0
 11
278.690767
 21
398.846216
 31
0.0
  0
LINE
  5
7B
330
71
100
AcDbEntity
  8
LC-001-100-D00-0
 62
     7
370
    50
100
AcDbLine
 10
278.690767
 20
398.846216
 30
0.0
 11
278.814432
 21
398.776288
 31
0.0
  0
ENDBLK
  5
73
330
71
100
AcDbEntity
  8
0
100
AcDbBlockEnd
  0
BLOCK
  5
7E
330
7D
100
AcDbEntity
  8
0
100
AcDbBlockBegin
  2
POLY7
 70
     0
 71
     0
 10
0.0
 20
0.0
 30
0.0
  3
POLY7
  1

  4
POLY7
  0
LINE
  5
80
330
7D
100
AcDbEntity
  8
LC-001-100-D00-0
 62
     7
370
    50
100
AcDbLine
 10
277.72401
 20
393.368917
 30
0.0
 11
277.72401
 21
393.368917
 31
0.0
  0
LINE
  5
81
330
7D
100
AcDbEntity
  8
LC-001-100-D00-0
 62
     7
370
    50
100
AcDbLine
 10
277.72401
 20
393.368917
 30
0.0
 11
277.963907
 21
393.242783
 31
0.0
  0
LINE
  5
82
330
7D
100
AcDbEntity
  8
LC-001-100-D00-0
 62
     7
370
    50
100
AcDbLine
 10
277.963907
 20
393.242783
 30
0.0
 11
277.963907
 21
393.242783
 31
0.0
  0
LINE
  5
83
330
7D
100
AcDbEntity
  8
LC-001-100-D00-0
 62
     7
370
    50
100
AcDbLine
 10
277.963907
 20
393.242783
 30
0.0
 11
278.32775
 21
393.051479
 31
0.0
  0
LINE
  5
84
330
7D
100
AcDbEntity
  8
LC-001-100-D00-0
 62
     7
370
    50
100
AcDbLine
 10
278.32775
 20
393.051479
 30
0.0
 11
278.32775
 21
393.051479
 31
0.0
  0
LINE
  5
85
330
7D
100
AcDbEntity
  8
LC-001-100-D00-0
 62
     7
370
    50
100
AcDbLine
 10
278.32775
 20
393.051479
 30
0.0
 11
278.690767
 21
392.846215
 31
0.0
  0
LINE
  5
86
330
7D
100
AcDbEntity
  8
LC-001-100-D00-0
 62
     7
370
    50
100
AcDbLine
 10
278.690767
 20
392.846215
 30
0.0
 11
278.690767
 21
392.846215
 31
0.0
  0
LINE
  5
87
330
7D
100
AcDbEntity
  8
LC-001-100-D00-0
 62
     7
370
    50
100
AcDbLine
 10
278.690767
 20
392.846215
 30
0.0
 11
278.814432
 21
392.776291
 31
0.0
  0
ENDBLK
  5
7F
330
7D
100
AcDbEntity
  8
0
100
AcDbBlockEnd
  0
BLOCK
  5
8A
330
89
100
AcDbEntity
  8
0
100
AcDbBlockBegin
  2
POLY8
 70
     0
 71
     0
 10
0.0
 20
0.0
 30
0.0
  3
POLY8
  1

  4
POLY8
  0
LINE
  5
8C
330
89
100
AcDbEntity
  8
LC-001-100-D00-0
 62
     7
370
    50
100
AcDbLine
 10
278.299478
 20
390.061336
 30
0.0
 11
278.299478
 21
390.061336
 31
0.0
  0
LINE
  5
8D
330
89
100
AcDbEntity
  8
LC-001-100-D00-0
 62
     7
370
    50
100
AcDbLine
 10
278.299478
 20
390.061336
 30
0.0
 11
278.347443
 21
390.035878
 31
0.0
  0
LINE
  5
8E
330
89
100
AcDbEntity
  8
LC-001-100-D00-0
 62
     7
370
    50
100
AcDbLine
 10
278.347443
 20
390.035878
 30
0.0
 11
278.347443
 21
390.035878
 31
0.0
  0
LINE
  5
8F
330
89
100
AcDbEntity
  8
LC-001-100-D00-0
 62
     7
370
    50
100
AcDbLine
 10
278.347443
 20
390.035878
 30
0.0
 11
278.519319
 21
389.944649
 31
0.0
  0
LINE
  5
90
330
89
100
AcDbEntity
  8
LC-001-100-D00-0
 62
     7
370
    50
100
AcDbLine
 10
278.519319
 20
389.944649
 30
0.0
 11
278.519319
 21
389.944649
 31
0.0
  0
LINE
  5
91
330
89
100
AcDbEntity
  8
LC-001-100-D00-0
 62
     7
370
    50
100
AcDbLine
 10
278.519319
 20
389.944649
 30
0.0
 11
278.690803
 21
389.84682
 31
0.0
  0
LINE
  5
92
330
89
100
AcDbEntity
  8
LC-001-100-D00-0
 62
     7
370
    50
100
AcDbLine
 10
278.690803
 20
389.84682
 30
0.0
 11
278.690803
 21
389.84682
 31
0.0
  0
LINE
  5
93
330
89
100
AcDbEntity
  8
LC-001-100-D00-0
 62
     7
370
    50
100
AcDbLine
 10
278.690803
 20
389.84682
 30
0.0
 11
278.814432
 21
389.776292
 31
0.0
  0
ENDBLK
  5
8B
330
89
100
AcDbEntity
  8
0
100
AcDbBlockEnd
  0
BLOCK
  5
96
330
95
100
AcDbEntity
  8
0
100
AcDbBlockBegin
  2
POLY9
 70
     0
 71
     0
 10
0.0
 20
0.0
 30
0.0
  3
POLY9
  1

  4
POLY9
  0
LINE
  5
98
330
95
100
AcDbEntity
  8
LC-001-100-D00-0
 62
     7
370
    50
100
AcDbLine
 10
277.72401
 20
402.368913
 30
0.0
 11
277.72401
 21
402.368913
 31
0.0
  0
LINE
  5
99
330
95
100
AcDbEntity
  8
LC-001-100-D00-0
 62
     7
370
    50
100
AcDbLine
 10
277.72401
 20
402.368913
 30
0.0
 11
277.963908
 21
402.242783
 31
0.0
  0
LINE
  5
9A
330
95
100
AcDbEntity
  8
LC-001-100-D00-0
 62
     7
370
    50
100
AcDbLine
 10
277.963908
 20
402.242783
 30
0.0
 11
277.963908
 21
402.242783
 31
0.0
  0
LINE
  5
9B
330
95
100
AcDbEntity
  8
LC-001-100-D00-0
 62
     7
370
    50
100
AcDbLine
 10
277.963908
 20
402.242783
 30
0.0
 11
278.327754
 21
402.051484
 31
0.0
  0
LINE
  5
9C
330
95
100
AcDbEntity
  8
LC-001-100-D00-0
 62
     7
370
    50
100
AcDbLine
 10
278.327754
 20
402.051484
 30
0.0
 11
278.327754
 21
402.051484
 31
0.0
  0
LINE
  5
9D
330
95
100
AcDbEntity
  8
LC-001-100-D00-0
 62
     7
370
    50
100
AcDbLine
 10
278.327754
 20
402.051484
 30
0.0
 11
278.690767
 21
401.846214
 31
0.0
  0
LINE
  5
9E
330
95
100
AcDbEntity
  8
LC-001-100-D00-0
 62
     7
370
    50
100
AcDbLine
 10
278.690767
 20
401.846214
 30
0.0
 11
278.690767
 21
401.846214
 31
0.0
  0
LINE
  5
9F
330
95
100
AcDbEntity
  8
LC-001-100-D00-0
 62
     7
370
    50
100
AcDbLine
 10
278.690767
 20
401.846214
 30
0.0
 11
278.814432
 21
401.776286
 31
0.0
  0
ENDBLK
  5
97
330
95
100
AcDbEntity
  8
0
100
AcDbBlockEnd
  0
BLOCK
  5
A2
330
A1
100
AcDbEntity
  8
0
100
AcDbBlockBegin
  2
POLY10
 70
     0
 71
     0
 10
0.0
 20
0.0
 30
0.0
  3
POLY10
  1

  4
POLY10
  0
LINE
  5
A4
330
A1
100
AcDbEntity
  8
LC-001-100-D00-0
 62
     7
370
    50
100
AcDbLine
 10
277.72401
 20
396.368916
 30
0.0
 11
277.72401
 21
396.368916
 31
0.0
  0
LINE
  5
A5
330
A1
100
AcDbEntity
  8
LC-001-100-D00-0
 62
     7
370
    50
100
AcDbLine
 10
277.72401
 20
396.368916
 30
0.0
 11
277.963907
 21
396.242781
 31
0.0
  0
LINE
  5
A6
330
A1
100
AcDbEntity
  8
LC-001-100-D00-0
 62
     7
370
    50
100
AcDbLine
 10
277.963907
 20
396.242781
 30
0.0
 11
277.963907
 21
396.242781
 31
0.0
  0
LINE
  5
A7
330
A1
100
AcDbEntity
  8
LC-001-100-D00-0
 62
     7
370
    50
100
AcDbLine
 10
277.963907
 20
396.242781
 30
0.0
 11
278.32775
 21
396.051477
 31
0.0
  0
LINE
  5
A8
330
A1
100
AcDbEntity
  8
LC-001-100-D00-0
 62
     7
370
    50
100
AcDbLine
 10
278.32775
 20
396.051477
 30
0.0
 11
278.32775
 21
396.051477
 31
0.0
  0
LINE
  5
A9
330
A1
100
AcDbEntity
  8
LC-001-100-D00-0
 62
     7
370
    50
100
AcDbLine
 10
278.32775
 20
396.051477
 30
0.0
 11
278.690767
 21
395.846214
 31
0.0
  0
LINE
  5
AA
330
A1
100
AcDbEntity
  8
LC-001-100-D00-0
 62
     7
370
    50
100
AcDbLine
 10
278.690767
 20
395.846214
 30
0.0
 11
278.690767
 21
395.846214
 31
0.0
  0
LINE
  5
AB
330
A1
100
AcDbEntity
  8
LC-001-100-D00-0
 62
     7
370
    50
100
AcDbLine
 10
278.690767
 20
395.846214
 30
0.0
 11
278.814432
 21
395.776289
 31
0.0
  0
ENDBLK
  5
A3
330
A1
100
AcDbEntity
  8
0
100
AcDbBlockEnd
  0
BLOCK
  5
D9
330
D8
100
AcDbEntity
  8
0
100
AcDbBlockBegin
  2
KLON1
 70
     0
 71
     0
 10
0.0
 20
0.0
 30
0.0
  3
KLON1
  1

  4
KLON1
  0
LINE
  5
DB
330
D8
100
AcDbEntity
  8
LC-001-100-D00-0
 62
     7
370
    15
100
AcDbLine
 10
282.814433
 20
398.663441
 30
0.0
 11
283.165527
 21
398.480679
 31
0.0
  0
LINE
  5
DC
330
D8
100
AcDbEntity
  8
LC-001-100-D00-0
 62
     7
370
    15
100
AcDbLine
 10
283.165527
 20
398.480679
 30
0.0
 11
283.51662
 21
398.297908
 31
0.0
  0
LINE
  5
DD
330
D8
100
AcDbEntity
  8
LC-001-100-D00-0
 62
     7
370
    15
100
AcDbLine
 10
283.51662
 20
398.297908
 30
0.0
 11
284.064432
 21
398.012737
 31
0.0
  0
ENDBLK
  5
DA
330
D8
100
AcDbEntity
  8
0
100
AcDbBlockEnd
  0
BLOCK
  5
E0
330
DF
100
AcDbEntity
  8
0
100
AcDbBlockBegin
  2
KLON2
 70
     0
 71
     0
 10
0.0
 20
0.0
 30
0.0
  3
KLON2
  1

  4
KLON2
  0
LINE
  5
E2
330
DF
100
AcDbEntity
  8
LC-001-100-D00-0
 62
     7
370
    15
100
AcDbLine
 10
277.564433
 20
399.512733
 30
0.0
 11
277.915527
 21
399.695503
 31
0.0
  0
LINE
  5
E3
330
DF
100
AcDbEntity
  8
LC-001-100-D00-0
 62
     7
370
    15
100
AcDbLine
 10
277.915527
 20
399.695503
 30
0.0
 11
278.266621
 21
399.878273
 31
0.0
  0
LINE
  5
E4
330
DF
100
AcDbEntity
  8
LC-001-100-D00-0
 62
     7
370
    15
100
AcDbLine
 10
278.266621
 20
399.878273
 30
0.0
 11
278.814432
 21
400.163444
 31
0.0
  0
ENDBLK
  5
E1
330
DF
100
AcDbEntity
  8
0
100
AcDbBlockEnd
  0
BLOCK
  5
E7
330
E6
100
AcDbEntity
  8
0
100
AcDbBlockBegin
  2
POLY11
 70
     0
 71
     0
 10
0.0
 20
0.0
 30
0.0
  3
POLY11
  1

  4
POLY11
  0
LINE
  5
E9
330
E6
100
AcDbEntity
  8
LC-001-100-D00-0
 62
     7
370
    50
100
AcDbLine
 10
277.564433
 20
399.512733
 30
0.0
 11
277.564433
 21
399.512733
 31
0.0
  0
LINE
  5
EA
330
E6
100
AcDbEntity
  8
LC-001-100-D00-0
 62
     7
370
    50
100
AcDbLine
 10
277.564433
 20
399.512733
 30
0.0
 11
277.564439
 21
399.512
 31
0.0
  0
LINE
  5
EB
330
E6
100
AcDbEntity
  8
LC-001-100-D00-0
 62
     7
370
    50
100
AcDbLine
 10
277.564439
 20
399.512
 30
0.0
 11
277.564439
 21
399.512
 31
0.0
  0
LINE
  5
EC
330
E6
100
AcDbEntity
  8
LC-001-100-D00-0
 62
     7
370
    50
100
AcDbLine
 10
277.564439
 20
399.512
 30
0.0
 11
277.564824
 21
399.461093
 31
0.0
  0
LINE
  5
ED
330
E6
100
AcDbEntity
  8
LC-001-100-D00-0
 62
     7
370
    50
100
AcDbLine
 10
277.564824
 20
399.461093
 30
0.0
 11
277.564824
 21
399.461093
 31
0.0
  0
LINE
  5
EE
330
E6
100
AcDbEntity
  8
LC-001-100-D00-0
 62
     7
370
    50
100
AcDbLine
 10
277.564824
 20
399.461093
 30
0.0
 11
277.664668
 21
399.413709
 31
0.0
  0
LINE
  5
EF
330
E6
100
AcDbEntity
  8
LC-001-100-D00-0
 62
     7
370
    50
100
AcDbLine
 10
277.664668
 20
399.413709
 30
0.0
 11
277.664668
 21
399.413709
 31
0.0
  0
LINE
  5
F0
330
E6
100
AcDbEntity
  8
LC-001-100-D00-0
 62
     7
370
    50
100
AcDbLine
 10
277.664668
 20
399.413709
 30
0.0
 11
277.763073
 21
399.367007
 31
0.0
  0
ENDBLK
  5
E8
330
E6
100
AcDbEntity
  8
0
100
AcDbBlockEnd
  0
BLOCK
  5
F4
330
F3
100
AcDbEntity
  8
0
100
AcDbBlockBegin
  2
KLON3
 70
     0
 71
     0
 10
0.0
 20
0.0
 30
0.0
  3
KLON3
  1

  4
KLON3
  0
LINE
  5
F6
330
F3
100
AcDbEntity
  8
LC-001-100-D00-0
 62
     7
370
    15
100
AcDbLine
 10
282.814433
 20
395.663443
 30
0.0
 11
283.165527
 21
395.480673
 31
0.0
  0
LINE
  5
F7
330
F3
100
AcDbEntity
  8
LC-001-100-D00-0
 62
     7
370
    15
100
AcDbLine
 10
283.165527
 20
395.480673
 30
0.0
 11
283.51662
 21
395.29791
 31
0.0
  0
LINE
  5
F8
330
F3
100
AcDbEntity
  8
LC-001-100-D00-0
 62
     7
370
    15
100
AcDbLine
 10
283.51662
 20
395.29791
 30
0.0
 11
284.064432
 21
395.012731
 31
0.0
  0
ENDBLK
  5
F5
330
F3
100
AcDbEntity
  8
0
100
AcDbBlockEnd
  0
BLOCK
  5
FB
330
FA
100
AcDbEntity
  8
0
100
AcDbBlockBegin
  2
KLON4
 70
     0
 71
     0
 10
0.0
 20
0.0
 30
0.0
  3
KLON4
  1

  4
KLON4
  0
LINE
  5
FD
330
FA
100
AcDbEntity
  8
LC-001-100-D00-0
 62
     7
370
    15
100
AcDbLine
 10
277.564433
 20
396.512734
 30
0.0
 11
277.915527
 21
396.695505
 31
0.0
  0
LINE
  5
FE
330
FA
100
AcDbEntity
  8
LC-001-100-D00-0
 62
     7
370
    15
100
AcDbLine
 10
277.915527
 20
396.695505
 30
0.0
 11
278.266621
 21
396.878275
 31
0.0
  0
LINE
  5
FF
330
FA
100
AcDbEntity
  8
LC-001-100-D00-0
 62
     7
370
    15
100
AcDbLine
 10
278.266621
 20
396.878275
 30
0.0
 11
278.814432
 21
397.163446
 31
0.0
  0
ENDBLK
  5
FC
330
FA
100
AcDbEntity
  8
0
100
AcDbBlockEnd
  0
BLOCK
  5
102
330
101
100
AcDbEntity
  8
0
100
AcDbBlockBegin
  2
POLY12
 70
     0
 71
     0
 10
0.0
 20
0.0
 30
0.0
  3
POLY12
  1

  4
POLY12
  0
LINE
  5
104
330
101
100
AcDbEntity
  8
LC-001-100-D00-0
 62
     7
370
    50
100
AcDbLine
 10
277.564433
 20
396.512734
 30
0.0
 11
277.564433
 21
396.512734
 31
0.0
  0
LINE
  5
105
330
101
100
AcDbEntity
  8
LC-001-100-D00-0
 62
     7
370
    50
100
AcDbLine
 10
277.564433
 20
396.512734
 30
0.0
 11
277.564439
 21
396.511999
 31
0.0
  0
LINE
  5
106
330
101
100
AcDbEntity
  8
LC-001-100-D00-0
 62
     7
370
    50
100
AcDbLine
 10
277.564439
 20
396.511999
 30
0.0
 11
277.564439
 21
396.511999
 31
0.0
  0
LINE
  5
107
330
101
100
AcDbEntity
  8
LC-001-100-D00-0
 62
     7
370
    50
100
AcDbLine
 10
277.564439
 20
396.511999
 30
0.0
 11
277.564824
 21
396.460922
 31
0.0
  0
LINE
  5
108
330
101
100
AcDbEntity
  8
LC-001-100-D00-0
 62
     7
370
    50
100
AcDbLine
 10
277.564824
 20
396.460922
 30
0.0
 11
277.564824
 21
396.460922
 31
0.0
  0
LINE
  5
109
330
101
100
AcDbEntity
  8
LC-001-100-D00-0
 62
     7
370
    50
100
AcDbLine
 10
277.564824
 20
396.460922
 30
0.0
 11
277.664668
 21
396.413625
 31
0.0
  0
LINE
  5
10A
330
101
100
AcDbEntity
  8
LC-001-100-D00-0
 62
     7
370
    50
100
AcDbLine
 10
277.664668
 20
396.413625
 30
0.0
 11
277.664668
 21
396.413625
 31
0.0
  0
LINE
  5
10B
330
101
100
AcDbEntity
  8
LC-001-100-D00-0
 62
     7
370
    50
100
AcDbLine
 10
277.664668
 20
396.413625
 30
0.0
 11
277.763073
 21
396.367008
 31
0.0
  0
ENDBLK
  5
103
330
101
100
AcDbEntity
  8
0
100
AcDbBlockEnd
  0
BLOCK
  5
10F
330
10E
100
AcDbEntity
  8
0
100
AcDbBlockBegin
  2
KLON5
 70
     0
 71
     0
 10
0.0
 20
0.0
 30
0.0
  3
KLON5
  1

  4
KLON5
  0
LINE
  5
111
330
10E
100
AcDbEntity
  8
LC-001-100-D00-0
 62
     7
370
    15
100
AcDbLine
 10
282.814433
 20
389.663445
 30
0.0
 11
283.165527
 21
389.480675
 31
0.0
  0
LINE
  5
112
330
10E
100
AcDbEntity
  8
LC-001-100-D00-0
 62
     7
370
    15
100
AcDbLine
 10
283.165527
 20
389.480675
 30
0.0
 11
283.51662
 21
389.297905
 31
0.0
  0
LINE
  5
113
330
10E
100
AcDbEntity
  8
LC-001-100-D00-0
 62
     7
370
    15
100
AcDbLine
 10
283.51662
 20
389.297905
 30
0.0
 11
284.064432
 21
389.012734
 31
0.0
  0
ENDBLK
  5
110
330
10E
100
AcDbEntity
  8
0
100
AcDbBlockEnd
  0
BLOCK
  5
116
330
115
100
AcDbEntity
  8
0
100
AcDbBlockBegin
  2
KLON6
 70
     0
 71
     0
 10
0.0
 20
0.0
 30
0.0
  3
KLON6
  1

  4
KLON6
  0
LINE
  5
118
330
115
100
AcDbEntity
  8
LC-001-100-D00-0
 62
     7
370
    15
100
AcDbLine
 10
277.564433
 20
390.512737
 30
0.0
 11
277.915527
 21
390.6955
 31
0.0
  0
LINE
  5
119
330
115
100
AcDbEntity
  8
LC-001-100-D00-0
 62
     7
370
    15
100
AcDbLine
 10
277.915527
 20
390.6955
 30
0.0
 11
278.266621
 21
390.87827
 31
0.0
  0
LINE
  5
11A
330
115
100
AcDbEntity
  8
LC-001-100-D00-0
 62
     7
370
    15
100
AcDbLine
 10
278.266621
 20
390.87827
 30
0.0
 11
278.814432
 21
391.163441
 31
0.0
  0
ENDBLK
  5
117
330
115
100
AcDbEntity
  8
0
100
AcDbBlockEnd
  0
BLOCK
  5
11D
330
11C
100
AcDbEntity
  8
0
100
AcDbBlockBegin
  2
KLON7
 70
     0
 71
     0
 10
0.0
 20
0.0
 30
0.0
  3
KLON7
  1

  4
KLON7
  0
LINE
  5
11F
330
11C
100
AcDbEntity
  8
LC-001-100-D00-0
 62
     7
370
    15
100
AcDbLine
 10
282.814433
 20
401.66344
 30
0.0
 11
283.165527
 21
401.480677
 31
0.0
  0
LINE
  5
120
330
11C
100
AcDbEntity
  8
LC-001-100-D00-0
 62
     7
370
    15
100
AcDbLine
 10
283.165527
 20
401.480677
 30
0.0
 11
283.51662
 21
401.297907
 31
0.0
  0
LINE
  5
121
330
11C
100
AcDbEntity
  8
LC-001-100-D00-0
 62
     7
370
    15
100
AcDbLine
 10
283.51662
 20
401.297907
 30
0.0
 11
284.064432
 21
401.012736
 31
0.0
  0
ENDBLK
  5
11E
330
11C
100
AcDbEntity
  8
0
100
AcDbBlockEnd
  0
BLOCK
  5
124
330
123
100
AcDbEntity
  8
0
100
AcDbBlockBegin
  2
KLON8
 70
     0
 71
     0
 10
0.0
 20
0.0
 30
0.0
  3
KLON8
  1

  4
KLON8
  0
LINE
  5
126
330
123
100
AcDbEntity
  8
LC-001-100-D00-0
 62
     7
370
    15
100
AcDbLine
 10
277.564433
 20
402.512732
 30
0.0
 11
277.915527
 21
402.695502
 31
0.0
  0
LINE
  5
127
330
123
100
AcDbEntity
  8
LC-001-100-D00-0
 62
     7
370
    15
100
AcDbLine
 10
277.915527
 20
402.695502
 30
0.0
 11
278.266621
 21
402.878272
 31
0.0
  0
LINE
  5
128
330
123
100
AcDbEntity
  8
LC-001-100-D00-0
 62
     7
370
    15
100
AcDbLine
 10
278.266621
 20
402.878272
 30
0.0
 11
278.814432
 21
403.163443
 31
0.0
  0
ENDBLK
  5
125
330
123
100
AcDbEntity
  8
0
100
AcDbBlockEnd
  0
BLOCK
  5
12B
330
12A
100
AcDbEntity
  8
0
100
AcDbBlockBegin
  2
POLY13
 70
     0
 71
     0
 10
0.0
 20
0.0
 30
0.0
  3
POLY13
  1

  4
POLY13
  0
LINE
  5
12D
330
12A
100
AcDbEntity
  8
LC-001-100-D00-0
 62
     7
370
    50
100
AcDbLine
 10
277.564433
 20
402.512732
 30
0.0
 11
277.564433
 21
402.512732
 31
0.0
  0
LINE
  5
12E
330
12A
100
AcDbEntity
  8
LC-001-100-D00-0
 62
     7
370
    50
100
AcDbLine
 10
277.564433
 20
402.512732
 30
0.0
 11
277.564439
 21
402.511999
 31
0.0
  0
LINE
  5
12F
330
12A
100
AcDbEntity
  8
LC-001-100-D00-0
 62
     7
370
    50
100
AcDbLine
 10
277.564439
 20
402.511999
 30
0.0
 11
277.564439
 21
402.511999
 31
0.0
  0
LINE
  5
130
330
12A
100
AcDbEntity
  8
LC-001-100-D00-0
 62
     7
370
    50
100
AcDbLine
 10
277.564439
 20
402.511999
 30
0.0
 11
277.564824
 21
402.461091
 31
0.0
  0
LINE
  5
131
330
12A
100
AcDbEntity
  8
LC-001-100-D00-0
 62
     7
370
    50
100
AcDbLine
 10
277.564824
 20
402.461091
 30
0.0
 11
277.564824
 21
402.461091
 31
0.0
  0
LINE
  5
132
330
12A
100
AcDbEntity
  8
LC-001-100-D00-0
 62
     7
370
    50
100
AcDbLine
 10
277.564824
 20
402.461091
 30
0.0
 11
277.664668
 21
402.413711
 31
0.0
  0
LINE
  5
133
330
12A
100
AcDbEntity
  8
LC-001-100-D00-0
 62
     7
370
    50
100
AcDbLine
 10
277.664668
 20
402.413711
 30
0.0
 11
277.664668
 21
402.413711
 31
0.0
  0
LINE
  5
134
330
12A
100
AcDbEntity
  8
LC-001-100-D00-0
 62
     7
370
    50
100
AcDbLine
 10
277.664668
 20
402.413711
 30
0.0
 11
277.763073
 21
402.367013
 31
0.0
  0
ENDBLK
  5
12C
330
12A
100
AcDbEntity
  8
0
100
AcDbBlockEnd
  0
BLOCK
  5
138
330
137
100
AcDbEntity
  8
0
100
AcDbBlockBegin
  2
KLON9
 70
     0
 71
     0
 10
0.0
 20
0.0
 30
0.0
  3
KLON9
  1

  4
KLON9
  0
LINE
  5
13A
330
137
100
AcDbEntity
  8
LC-001-100-D00-0
 62
     7
370
    15
100
AcDbLine
 10
282.814433
 20
392.663444
 30
0.0
 11
283.165527
 21
392.480674
 31
0.0
  0
LINE
  5
13B
330
137
100
AcDbEntity
  8
LC-001-100-D00-0
 62
     7
370
    15
100
AcDbLine
 10
283.165527
 20
392.480674
 30
0.0
 11
283.51662
 21
392.297904
 31
0.0
  0
LINE
  5
13C
330
137
100
AcDbEntity
  8
LC-001-100-D00-0
 62
     7
370
    15
100
AcDbLine
 10
283.51662
 20
392.297904
 30
0.0
 11
284.064432
 21
392.012733
 31
0.0
  0
ENDBLK
  5
139
330
137
100
AcDbEntity
  8
0
100
AcDbBlockEnd
  0
BLOCK
  5
13F
330
13E
100
AcDbEntity
  8
0
100
AcDbBlockBegin
  2
KLON10
 70
     0
 71
     0
 10
0.0
 20
0.0
 30
0.0
  3
KLON10
  1

  4
KLON10
  0
LINE
  5
141
330
13E
100
AcDbEntity
  8
LC-001-100-D00-0
 62
     7
370
    15
100
AcDbLine
 10
277.564433
 20
393.512736
 30
0.0
 11
277.915527
 21
393.695506
 31
0.0
  0
LINE
  5
142
330
13E
100
AcDbEntity
  8
LC-001-100-D00-0
 62
     7
370
    15
100
AcDbLine
 10
277.915527
 20
393.695506
 30
0.0
 11
278.266621
 21
393.878269
 31
0.0
  0
LINE
  5
143
330
13E
100
AcDbEntity
  8
LC-001-100-D00-0
 62
     7
370
    15
100
AcDbLine
 10
278.266621
 20
393.878269
 30
0.0
 11
278.814432
 21
394.163447
 31
0.0
  0
ENDBLK
  5
140
330
13E
100
AcDbEntity
  8
0
100
AcDbBlockEnd
  0
BLOCK
  5
146
330
145
100
AcDbEntity
  8
0
100
AcDbBlockBegin
  2
POLY14
 70
     0
 71
     0
 10
0.0
 20
0.0
 30
0.0
  3
POLY14
  1

  4
POLY14
  0
LINE
  5
148
330
145
100
AcDbEntity
  8
LC-001-100-D00-0
 62
     7
370
    50
100
AcDbLine
 10
277.564433
 20
393.512736
 30
0.0
 11
277.564433
 21
393.512736
 31
0.0
  0
LINE
  5
149
330
145
100
AcDbEntity
  8
LC-001-100-D00-0
 62
     7
370
    50
100
AcDbLine
 10
277.564433
 20
393.512736
 30
0.0
 11
277.564439
 21
393.512
 31
0.0
  0
LINE
  5
14A
330
145
100
AcDbEntity
  8
LC-001-100-D00-0
 62
     7
370
    50
100
AcDbLine
 10
277.564439
 20
393.512
 30
0.0
 11
277.564439
 21
393.512
 31
0.0
  0
LINE
  5
14B
330
145
100
AcDbEntity
  8
LC-001-100-D00-0
 62
     7
370
    50
100
AcDbLine
 10
277.564439
 20
393.512
 30
0.0
 11
277.564824
 21
393.460923
 31
0.0
  0
LINE
  5
14C
330
145
100
AcDbEntity
  8
LC-001-100-D00-0
 62
     7
370
    50
100
AcDbLine
 10
277.564824
 20
393.460923
 30
0.0
 11
277.564824
 21
393.460923
 31
0.0
  0
LINE
  5
14D
330
145
100
AcDbEntity
  8
LC-001-100-D00-0
 62
     7
370
    50
100
AcDbLine
 10
277.564824
 20
393.460923
 30
0.0
 11
277.664668
 21
393.413626
 31
0.0
  0
LINE
  5
14E
330
145
100
AcDbEntity
  8
LC-001-100-D00-0
 62
     7
370
    50
100
AcDbLine
 10
277.664668
 20
393.413626
 30
0.0
 11
277.664668
 21
393.413626
 31
0.0
  0
LINE
  5
14F
330
145
100
AcDbEntity
  8
LC-001-100-D00-0
 62
     7
370
    50
100
AcDbLine
 10
277.664668
 20
393.413626
 30
0.0
 11
277.763073
 21
393.36701
 31
0.0
  0
ENDBLK
  5
147
330
145
100
AcDbEntity
  8
0
100
AcDbBlockEnd
  0
BLOCK
  5
15D
330
15C
100
AcDbEntity
  8
0
100
AcDbBlockBegin
  2
KLON11
 70
     0
 71
     0
 10
0.0
 20
0.0
 30
0.0
  3
KLON11
  1

  4
KLON11
  0
LINE
  5
15F
330
15C
100
AcDbEntity
  8
LC-001-100-D00-0
 62
     7
370
    15
100
AcDbLine
 10
284.064432
 20
401.012736
 30
0.0
 11
283.713338
 21
400.829966
 31
0.0
  0
LINE
  5
160
330
15C
100
AcDbEntity
  8
LC-001-100-D00-0
 62
     7
370
    15
100
AcDbLine
 10
283.713338
 20
400.829966
 30
0.0
 11
283.362244
 21
400.647196
 31
0.0
  0
LINE
  5
161
330
15C
100
AcDbEntity
  8
LC-001-100-D00-0
 62
     7
370
    15
100
AcDbLine
 10
283.362244
 20
400.647196
 30
0.0
 11
282.814433
 21
400.362025
 31
0.0
  0
ENDBLK
  5
15E
330
15C
100
AcDbEntity
  8
0
100
AcDbBlockEnd
  0
BLOCK
  5
165
330
164
100
AcDbEntity
  8
0
100
AcDbBlockBegin
  2
KLON12
 70
     0
 71
     0
 10
0.0
 20
0.0
 30
0.0
  3
KLON12
  1

  4
KLON12
  0
LINE
  5
167
330
164
100
AcDbEntity
  8
LC-001-100-D00-0
 62
     7
370
    15
100
AcDbLine
 10
284.064432
 20
398.012737
 30
0.0
 11
283.713338
 21
397.829967
 31
0.0
  0
LINE
  5
168
330
164
100
AcDbEntity
  8
LC-001-100-D00-0
 62
     7
370
    15
100
AcDbLine
 10
283.713338
 20
397.829967
 30
0.0
 11
283.362244
 21
397.647197
 31
0.0
  0
LINE
  5
169
330
164
100
AcDbEntity
  8
LC-001-100-D00-0
 62
     7
370
    15
100
AcDbLine
 10
283.362244
 20
397.647197
 30
0.0
 11
282.814433
 21
397.362026
 31
0.0
  0
ENDBLK
  5
166
330
164
100
AcDbEntity
  8
0
100
AcDbBlockEnd
  0
BLOCK
  5
16D
330
16C
100
AcDbEntity
  8
0
100
AcDbBlockBegin
  2
KLON13
 70
     0
 71
     0
 10
0.0
 20
0.0
 30
0.0
  3
KLON13
  1

  4
KLON13
  0
LINE
  5
16F
330
16C
100
AcDbEntity
  8
LC-001-100-D00-0
 62
     7
370
    15
100
AcDbLine
 10
284.064432
 20
395.012731
 30
0.0
 11
283.713338
 21
394.829969
 31
0.0
  0
LINE
  5
170
330
16C
100
AcDbEntity
  8
LC-001-100-D00-0
 62
     7
370
    15
100
AcDbLine
 10
283.713338
 20
394.829969
 30
0.0
 11
283.362244
 21
394.647198
 31
0.0
  0
LINE
  5
171
330
16C
100
AcDbEntity
  8
LC-001-100-D00-0
 62
     7
370
    15
100
AcDbLine
 10
283.362244
 20
394.647198
 30
0.0
 11
282.814433
 21
394.362027
 31
0.0
  0
ENDBLK
  5
16E
330
16C
100
AcDbEntity
  8
0
100
AcDbBlockEnd
  0
BLOCK
  5
175
330
174
100
AcDbEntity
  8
0
100
AcDbBlockBegin
  2
KLON14
 70
     0
 71
     0
 10
0.0
 20
0.0
 30
0.0
  3
KLON14
  1

  4
KLON14
  0
LINE
  5
177
330
174
100
AcDbEntity
  8
LC-001-100-D00-0
 62
     7
370
    15
100
AcDbLine
 10
284.064432
 20
392.012733
 30
0.0
 11
283.713338
 21
391.829963
 31
0.0
  0
LINE
  5
178
330
174
100
AcDbEntity
  8
LC-001-100-D00-0
 62
     7
370
    15
100
AcDbLine
 10
283.713338
 20
391.829963
 30
0.0
 11
283.362244
 21
391.6472
 31
0.0
  0
LINE
  5
179
330
174
100
AcDbEntity
  8
LC-001-100-D00-0
 62
     7
370
    15
100
AcDbLine
 10
283.362244
 20
391.6472
 30
0.0
 11
282.814433
 21
391.362029
 31
0.0
  0
ENDBLK
  5
176
330
174
100
AcDbEntity
  8
0
100
AcDbBlockEnd
  0
BLOCK
  5
17C
330
17B
100
AcDbEntity
  8
0
100
AcDbBlockBegin
  2
KLON15
 70
     0
 71
     0
 10
0.0
 20
0.0
 30
0.0
  3
KLON15
  1

  4
KLON15
  0
LINE
  5
17E
330
17B
100
AcDbEntity
  8
LC-001-100-D00-0
 62
     7
370
    15
100
AcDbLine
 10
284.064432
 20
389.012734
 30
0.0
 11
283.713338
 21
388.829964
 31
0.0
  0
LINE
  5
17F
330
17B
100
AcDbEntity
  8
LC-001-100-D00-0
 62
     7
370
    15
100
AcDbLine
 10
283.713338
 20
388.829964
 30
0.0
 11
283.362244
 21
388.647201
 31
0.0
  0
LINE
  5
180
330
17B
100
AcDbEntity
  8
LC-001-100-D00-0
 62
     7
370
    15
100
AcDbLine
 10
283.362244
 20
388.647201
 30
0.0
 11
282.814433
 21
388.362023
 31
0.0
  0
ENDBLK
  5
17D
330
17B
100
AcDbEntity
  8
0
100
AcDbBlockEnd
  0
BLOCK
  5
187
330
186
100
AcDbEntity
  8
0
100
AcDbBlockBegin
  2
KLON16
 70
     0
 71
     0
 10
0.0
 20
0.0
 30
0.0
  3
KLON16
  1

  4
KLON16
  0
LINE
  5
189
330
186
100
AcDbEntity
  8
LC-001-100-D00-0
 62
     7
370
    15
100
AcDbLine
 10
278.814432
 20
389.862026
 30
0.0
 11
278.463339
 21
390.044796
 31
0.0
  0
LINE
  5
18A
330
186
100
AcDbEntity
  8
LC-001-100-D00-0
 62
     7
370
    15
100
AcDbLine
 10
278.463339
 20
390.044796
 30
0.0
 11
278.112245
 21
390.227566
 31
0.0
  0
LINE
  5
18B
330
186
100
AcDbEntity
  8
LC-001-100-D00-0
 62
     7
370
    15
100
AcDbLine
 10
278.112245
 20
390.227566
 30
0.0
 11
277.564433
 21
390.512737
 31
0.0
  0
ENDBLK
  5
188
330
186
100
AcDbEntity
  8
0
100
AcDbBlockEnd
  0
BLOCK
  5
18E
330
18D
100
AcDbEntity
  8
0
100
AcDbBlockBegin
  2
KLON17
 70
     0
 71
     0
 10
0.0
 20
0.0
 30
0.0
  3
KLON17
  1

  4
KLON17
  0
LINE
  5
190
330
18D
100
AcDbEntity
  8
LC-001-100-D00-0
 62
     7
370
    15
100
AcDbLine
 10
278.814432
 20
392.862024
 30
0.0
 11
278.463339
 21
393.044795
 31
0.0
  0
LINE
  5
191
330
18D
100
AcDbEntity
  8
LC-001-100-D00-0
 62
     7
370
    15
100
AcDbLine
 10
278.463339
 20
393.044795
 30
0.0
 11
278.112245
 21
393.227565
 31
0.0
  0
LINE
  5
192
330
18D
100
AcDbEntity
  8
LC-001-100-D00-0
 62
     7
370
    15
100
AcDbLine
 10
278.112245
 20
393.227565
 30
0.0
 11
277.564433
 21
393.512736
 31
0.0
  0
ENDBLK
  5
18F
330
18D
100
AcDbEntity
  8
0
100
AcDbBlockEnd
  0
BLOCK
  5
196
330
195
100
AcDbEntity
  8
0
100
AcDbBlockBegin
  2
KLON18
 70
     0
 71
     0
 10
0.0
 20
0.0
 30
0.0
  3
KLON18
  1

  4
KLON18
  0
LINE
  5
198
330
195
100
AcDbEntity
  8
LC-001-100-D00-0
 62
     7
370
    15
100
AcDbLine
 10
278.814432
 20
395.862023
 30
0.0
 11
278.463339
 21
396.044793
 31
0.0
  0
LINE
  5
199
330
195
100
AcDbEntity
  8
LC-001-100-D00-0
 62
     7
370
    15
100
AcDbLine
 10
278.463339
 20
396.044793
 30
0.0
 11
278.112245
 21
396.227563
 31
0.0
  0
LINE
  5
19A
330
195
100
AcDbEntity
  8
LC-001-100-D00-0
 62
     7
370
    15
100
AcDbLine
 10
278.112245
 20
396.227563
 30
0.0
 11
277.564433
 21
396.512734
 31
0.0
  0
ENDBLK
  5
197
330
195
100
AcDbEntity
  8
0
100
AcDbBlockEnd
  0
BLOCK
  5
19E
330
19D
100
AcDbEntity
  8
0
100
AcDbBlockBegin
  2
KLON19
 70
     0
 71
     0
 10
0.0
 20
0.0
 30
0.0
  3
KLON19
  1

  4
KLON19
  0
LINE
  5
1A0
330
19D
100
AcDbEntity
  8
LC-001-100-D00-0
 62
     7
370
    15
100
AcDbLine
 10
278.814432
 20
398.862029
 30
0.0
 11
278.463339
 21
399.044792
 31
0.0
  0
LINE
  5
1A1
330
19D
100
AcDbEntity
  8
LC-001-100-D00-0
 62
     7
370
    15
100
AcDbLine
 10
278.463339
 20
399.044792
 30
0.0
 11
278.112245
 21
399.227562
 31
0.0
  0
LINE
  5
1A2
330
19D
100
AcDbEntity
  8
LC-001-100-D00-0
 62
     7
370
    15
100
AcDbLine
 10
278.112245
 20
399.227562
 30
0.0
 11
277.564433
 21
399.512733
 31
0.0
  0
ENDBLK
  5
19F
330
19D
100
AcDbEntity
  8
0
100
AcDbBlockEnd
  0
BLOCK
  5
1A6
330
1A5
100
AcDbEntity
  8
0
100
AcDbBlockBegin
  2
KLON20
 70
     0
 71
     0
 10
0.0
 20
0.0
 30
0.0
  3
KLON20
  1

  4
KLON20
  0
LINE
  5
1A8
330
1A5
100
AcDbEntity
  8
LC-001-100-D00-0
 62
     7
370
    15
100
AcDbLine
 10
278.814432
 20
401.862028
 30
0.0
 11
278.463339
 21
402.044798
 31
0.0
  0
LINE
  5
1A9
330
1A5
100
AcDbEntity
  8
LC-001-100-D00-0
 62
     7
370
    15
100
AcDbLine
 10
278.463339
 20
402.044798
 30
0.0
 11
278.112245
 21
402.227561
 31
0.0
  0
LINE
  5
1AA
330
1A5
100
AcDbEntity
  8
LC-001-100-D00-0
 62
     7
370
    15
100
AcDbLine
 10
278.112245
 20
402.227561
 30
0.0
 11
277.564433
 21
402.512732
 31
0.0
  0
ENDBLK
  5
1A7
330
1A5
100
AcDbEntity
  8
0
100
AcDbBlockEnd
  0
BLOCK
  5
1B9
330
1B8
100
AcDbEntity
  8
0
100
AcDbBlockBegin
  2
POLY15
 70
     0
 71
     0
 10
0.0
 20
0.0
 30
0.0
  3
POLY15
  1

  4
POLY15
  0
LINE
  5
1BB
330
1B8
100
AcDbEntity
  8
LC-001-100-D00-0
 62
     7
370
    50
100
AcDbLine
 10
277.903778
 20
407.167854
 30
0.0
 11
277.903778
 21
407.167854
 31
0.0
  0
LINE
  5
1BC
330
1B8
100
AcDbEntity
  8
LC-001-100-D00-0
 62
     7
370
    50
100
AcDbLine
 10
277.903778
 20
407.167854
 30
0.0
 11
277.880612
 21
407.165862
 31
0.0
  0
LINE
  5
1BD
330
1B8
100
AcDbEntity
  8
LC-001-100-D00-0
 62
     7
370
    50
100
AcDbLine
 10
277.880612
 20
407.165862
 30
0.0
 11
277.880612
 21
407.165862
 31
0.0
  0
LINE
  5
1BE
330
1B8
100
AcDbEntity
  8
LC-001-100-D00-0
 62
     7
370
    50
100
AcDbLine
 10
277.880612
 20
407.165862
 30
0.0
 11
277.849202
 21
407.163161
 31
0.0
  0
LINE
  5
1BF
330
1B8
100
AcDbEntity
  8
LC-001-100-D00-0
 62
     7
370
    50
100
AcDbLine
 10
277.849202
 20
407.163161
 30
0.0
 11
277.849202
 21
407.163161
 31
0.0
  0
LINE
  5
1C0
330
1B8
100
AcDbEntity
  8
LC-001-100-D00-0
 62
     7
370
    50
100
AcDbLine
 10
277.849202
 20
407.163161
 30
0.0
 11
277.820757
 21
407.150242
 31
0.0
  0
LINE
  5
1C1
330
1B8
100
AcDbEntity
  8
LC-001-100-D00-0
 62
     7
370
    50
100
AcDbLine
 10
277.820757
 20
407.150242
 30
0.0
 11
277.820757
 21
407.150242
 31
0.0
  0
LINE
  5
1C2
330
1B8
100
AcDbEntity
  8
LC-001-100-D00-0
 62
     7
370
    50
100
AcDbLine
 10
277.820757
 20
407.150242
 30
0.0
 11
277.81329
 21
407.146851
 31
0.0
  0
ENDBLK
  5
1BA
330
1B8
100
AcDbEntity
  8
0
100
AcDbBlockEnd
  0
BLOCK
  5
1C7
330
1C6
100
AcDbEntity
  8
0
100
AcDbBlockBegin
  2
POLY16
 70
     0
 71
     0
 10
0.0
 20
0.0
 30
0.0
  3
POLY16
  1

  4
POLY16
  0
LINE
  5
1C9
330
1C6
100
AcDbEntity
  8
LC-001-100-D00-0
 62
     7
370
    50
100
AcDbLine
 10
283.815575
 20
407.146851
 30
0.0
 11
283.815575
 21
407.146851
 31
0.0
  0
LINE
  5
1CA
330
1C6
100
AcDbEntity
  8
LC-001-100-D00-0
 62
     7
370
    50
100
AcDbLine
 10
283.815575
 20
407.146851
 30
0.0
 11
283.793901
 21
407.155263
 31
0.0
  0
LINE
  5
1CB
330
1C6
100
AcDbEntity
  8
LC-001-100-D00-0
 62
     7
370
    50
100
AcDbLine
 10
283.793901
 20
407.155263
 30
0.0
 11
283.793901
 21
407.155263
 31
0.0
  0
LINE
  5
1CC
330
1C6
100
AcDbEntity
  8
LC-001-100-D00-0
 62
     7
370
    50
100
AcDbLine
 10
283.793901
 20
407.155263
 30
0.0
 11
283.764512
 21
407.16667
 31
0.0
  0
LINE
  5
1CD
330
1C6
100
AcDbEntity
  8
LC-001-100-D00-0
 62
     7
370
    50
100
AcDbLine
 10
283.764512
 20
407.16667
 30
0.0
 11
283.764512
 21
407.16667
 31
0.0
  0
LINE
  5
1CE
330
1C6
100
AcDbEntity
  8
LC-001-100-D00-0
 62
     7
370
    50
100
AcDbLine
 10
283.764512
 20
407.16667
 30
0.0
 11
283.733286
 21
407.167608
 31
0.0
  0
LINE
  5
1CF
330
1C6
100
AcDbEntity
  8
LC-001-100-D00-0
 62
     7
370
    50
100
AcDbLine
 10
283.733286
 20
407.167608
 30
0.0
 11
283.733286
 21
407.167608
 31
0.0
  0
LINE
  5
1D0
330
1C6
100
AcDbEntity
  8
LC-001-100-D00-0
 62
     7
370
    50
100
AcDbLine
 10
283.733286
 20
407.167608
 30
0.0
 11
283.725088
 21
407.167854
 31
0.0
  0
ENDBLK
  5
1C8
330
1C6
100
AcDbEntity
  8
0
100
AcDbBlockEnd
  0
BLOCK
  5
341
330
340
100
AcDbEntity
  8
0
100
AcDbBlockBegin
  2
POLY17
 70
     0
 71
     0
 10
0.0
 20
0.0
 30
0.0
  3
POLY17
  1

  4
POLY17
  0
LINE
  5
343
330
340
100
AcDbEntity
  8
LC-001-100-D00-0
 62
     7
370
    50
100
AcDbLine
 10
304.801879
 20
393.467853
 30
0.0
 11
304.801879
 21
393.467853
 31
0.0
  0
LINE
  5
344
330
340
100
AcDbEntity
  8
LC-001-100-D00-0
 62
     7
370
    50
100
AcDbLine
 10
304.801879
 20
393.467853
 30
0.0
 11
304.803699
 21
393.579091
 31
0.0
  0
LINE
  5
345
330
340
100
AcDbEntity
  8
LC-001-100-D00-0
 62
     7
370
    50
100
AcDbLine
 10
304.803699
 20
393.579091
 30
0.0
 11
304.803699
 21
393.579091
 31
0.0
  0
LINE
  5
346
330
340
100
AcDbEntity
  8
LC-001-100-D00-0
 62
     7
370
    50
100
AcDbLine
 10
304.803699
 20
393.579091
 30
0.0
 11
304.80734
 21
393.801539
 31
0.0
  0
LINE
  5
347
330
340
100
AcDbEntity
  8
LC-001-100-D00-0
 62
     7
370
    50
100
AcDbLine
 10
304.80734
 20
393.801539
 30
0.0
 11
304.80734
 21
393.801539
 31
0.0
  0
LINE
  5
348
330
340
100
AcDbEntity
  8
LC-001-100-D00-0
 62
     7
370
    50
100
AcDbLine
 10
304.80734
 20
393.801539
 30
0.0
 11
304.835961
 21
394.098421
 31
0.0
  0
LINE
  5
349
330
340
100
AcDbEntity
  8
LC-001-100-D00-0
 62
     7
370
    50
100
AcDbLine
 10
304.835961
 20
394.098421
 30
0.0
 11
304.835961
 21
394.098421
 31
0.0
  0
LINE
  5
34A
330
340
100
AcDbEntity
  8
LC-001-100-D00-0
 62
     7
370
    50
100
AcDbLine
 10
304.835961
 20
394.098421
 30
0.0
 11
304.879012
 21
394.324532
 31
0.0
  0
LINE
  5
34B
330
340
100
AcDbEntity
  8
LC-001-100-D00-0
 62
     7
370
    50
100
AcDbLine
 10
304.879012
 20
394.324532
 30
0.0
 11
304.879012
 21
394.324532
 31
0.0
  0
LINE
  5
34C
330
340
100
AcDbEntity
  8
LC-001-100-D00-0
 62
     7
370
    50
100
AcDbLine
 10
304.879012
 20
394.324532
 30
0.0
 11
304.928888
 21
394.449128
 31
0.0
  0
LINE
  5
34D
330
340
100
AcDbEntity
  8
LC-001-100-D00-0
 62
     7
370
    50
100
AcDbLine
 10
304.928888
 20
394.449128
 30
0.0
 11
304.928888
 21
394.449128
 31
0.0
  0
LINE
  5
34E
330
340
100
AcDbEntity
  8
LC-001-100-D00-0
 62
     7
370
    50
100
AcDbLine
 10
304.928888
 20
394.449128
 30
0.0
 11
304.96347
 21
394.462372
 31
0.0
  0
LINE
  5
34F
330
340
100
AcDbEntity
  8
LC-001-100-D00-0
 62
     7
370
    50
100
AcDbLine
 10
304.96347
 20
394.462372
 30
0.0
 11
304.96347
 21
394.462372
 31
0.0
  0
LINE
  5
350
330
340
100
AcDbEntity
  8
LC-001-100-D00-0
 62
     7
370
    50
100
AcDbLine
 10
304.96347
 20
394.462372
 30
0.0
 11
304.977787
 21
394.467856
 31
0.0
  0
ENDBLK
  5
342
330
340
100
AcDbEntity
  8
0
100
AcDbBlockEnd
  0
BLOCK
  5
356
330
355
100
AcDbEntity
  8
0
100
AcDbBlockBegin
  2
POLY18
 70
     0
 71
     0
 10
0.0
 20
0.0
 30
0.0
  3
POLY18
  1

  4
POLY18
  0
LINE
  5
358
330
355
100
AcDbEntity
  8
LC-001-100-D00-0
 62
     7
370
    50
100
AcDbLine
 10
444.651102
 20
394.467856
 30
0.0
 11
444.651102
 21
394.467856
 31
0.0
  0
LINE
  5
359
330
355
100
AcDbEntity
  8
LC-001-100-D00-0
 62
     7
370
    50
100
AcDbLine
 10
444.651102
 20
394.467856
 30
0.0
 11
444.671765
 21
394.456572
 31
0.0
  0
LINE
  5
35A
330
355
100
AcDbEntity
  8
LC-001-100-D00-0
 62
     7
370
    50
100
AcDbLine
 10
444.671765
 20
394.456572
 30
0.0
 11
444.671765
 21
394.456572
 31
0.0
  0
LINE
  5
35B
330
355
100
AcDbEntity
  8
LC-001-100-D00-0
 62
     7
370
    50
100
AcDbLine
 10
444.671765
 20
394.456572
 30
0.0
 11
444.713099
 21
394.434003
 31
0.0
  0
LINE
  5
35C
330
355
100
AcDbEntity
  8
LC-001-100-D00-0
 62
     7
370
    50
100
AcDbLine
 10
444.713099
 20
394.434003
 30
0.0
 11
444.713099
 21
394.434003
 31
0.0
  0
LINE
  5
35D
330
355
100
AcDbEntity
  8
LC-001-100-D00-0
 62
     7
370
    50
100
AcDbLine
 10
444.713099
 20
394.434003
 30
0.0
 11
444.766194
 21
394.257473
 31
0.0
  0
LINE
  5
35E
330
355
100
AcDbEntity
  8
LC-001-100-D00-0
 62
     7
370
    50
100
AcDbLine
 10
444.766194
 20
394.257473
 30
0.0
 11
444.766194
 21
394.257473
 31
0.0
  0
LINE
  5
35F
330
355
100
AcDbEntity
  8
LC-001-100-D00-0
 62
     7
370
    50
100
AcDbLine
 10
444.766194
 20
394.257473
 30
0.0
 11
444.805013
 21
393.998416
 31
0.0
  0
LINE
  5
360
330
355
100
AcDbEntity
  8
LC-001-100-D00-0
 62
     7
370
    50
100
AcDbLine
 10
444.805013
 20
393.998416
 30
0.0
 11
444.805013
 21
393.998416
 31
0.0
  0
LINE
  5
361
330
355
100
AcDbEntity
  8
LC-001-100-D00-0
 62
     7
370
    50
100
AcDbLine
 10
444.805013
 20
393.998416
 30
0.0
 11
444.824401
 21
393.718145
 31
0.0
  0
LINE
  5
362
330
355
100
AcDbEntity
  8
LC-001-100-D00-0
 62
     7
370
    50
100
AcDbLine
 10
444.824401
 20
393.718145
 30
0.0
 11
444.824401
 21
393.718145
 31
0.0
  0
LINE
  5
363
330
355
100
AcDbEntity
  8
LC-001-100-D00-0
 62
     7
370
    50
100
AcDbLine
 10
444.824401
 20
393.718145
 30
0.0
 11
444.826289
 21
393.536746
 31
0.0
  0
LINE
  5
364
330
355
100
AcDbEntity
  8
LC-001-100-D00-0
 62
     7
370
    50
100
AcDbLine
 10
444.826289
 20
393.536746
 30
0.0
 11
444.826289
 21
393.536746
 31
0.0
  0
LINE
  5
365
330
355
100
AcDbEntity
  8
LC-001-100-D00-0
 62
     7
370
    50
100
AcDbLine
 10
444.826289
 20
393.536746
 30
0.0
 11
444.827006
 21
393.467853
 31
0.0
  0
ENDBLK
  5
357
330
355
100
AcDbEntity
  8
0
100
AcDbBlockEnd
  0
BLOCK
  5
3B4
330
3B3
100
AcDbEntity
  8
0
100
AcDbBlockBegin
  2
POLY19
 70
     0
 71
     0
 10
0.0
 20
0.0
 30
0.0
  3
POLY19
  1

  4
POLY19
  0
LINE
  5
3B6
330
3B3
100
AcDbEntity
  8
LC-001-100-D00-0
 62
     7
370
    50
100
AcDbLine
 10
304.977787
 20
394.467856
 30
0.0
 11
304.977787
 21
394.467856
 31
0.0
  0
LINE
  5
3B7
330
3B3
100
AcDbEntity
  8
LC-001-100-D00-0
 62
     7
370
    50
100
AcDbLine
 10
304.977787
 20
394.467856
 30
0.0
 11
304.998851
 21
394.4565
 31
0.0
  0
LINE
  5
3B8
330
3B3
100
AcDbEntity
  8
LC-001-100-D00-0
 62
     7
370
    50
100
AcDbLine
 10
304.998851
 20
394.4565
 30
0.0
 11
304.998851
 21
394.4565
 31
0.0
  0
LINE
  5
3B9
330
3B3
100
AcDbEntity
  8
LC-001-100-D00-0
 62
     7
370
    50
100
AcDbLine
 10
304.998851
 20
394.4565
 30
0.0
 11
305.040985
 21
394.433785
 31
0.0
  0
LINE
  5
3BA
330
3B3
100
AcDbEntity
  8
LC-001-100-D00-0
 62
     7
370
    50
100
AcDbLine
 10
305.040985
 20
394.433785
 30
0.0
 11
305.040985
 21
394.433785
 31
0.0
  0
LINE
  5
3BB
330
3B3
100
AcDbEntity
  8
LC-001-100-D00-0
 62
     7
370
    50
100
AcDbLine
 10
305.040985
 20
394.433785
 30
0.0
 11
305.098928
 21
394.256558
 31
0.0
  0
LINE
  5
3BC
330
3B3
100
AcDbEntity
  8
LC-001-100-D00-0
 62
     7
370
    50
100
AcDbLine
 10
305.098928
 20
394.256558
 30
0.0
 11
305.098928
 21
394.256558
 31
0.0
  0
LINE
  5
3BD
330
3B3
100
AcDbEntity
  8
LC-001-100-D00-0
 62
     7
370
    50
100
AcDbLine
 10
305.098928
 20
394.256558
 30
0.0
 11
305.142969
 21
393.996609
 31
0.0
  0
LINE
  5
3BE
330
3B3
100
AcDbEntity
  8
LC-001-100-D00-0
 62
     7
370
    50
100
AcDbLine
 10
305.142969
 20
393.996609
 30
0.0
 11
305.142969
 21
393.996609
 31
0.0
  0
LINE
  5
3BF
330
3B3
100
AcDbEntity
  8
LC-001-100-D00-0
 62
     7
370
    50
100
AcDbLine
 10
305.142969
 20
393.996609
 30
0.0
 11
305.165492
 21
393.716313
 31
0.0
  0
LINE
  5
3C0
330
3B3
100
AcDbEntity
  8
LC-001-100-D00-0
 62
     7
370
    50
100
AcDbLine
 10
305.165492
 20
393.716313
 30
0.0
 11
305.165492
 21
393.716313
 31
0.0
  0
LINE
  5
3C1
330
3B3
100
AcDbEntity
  8
LC-001-100-D00-0
 62
     7
370
    50
100
AcDbLine
 10
305.165492
 20
393.716313
 30
0.0
 11
305.167673
 21
393.535671
 31
0.0
  0
LINE
  5
3C2
330
3B3
100
AcDbEntity
  8
LC-001-100-D00-0
 62
     7
370
    50
100
AcDbLine
 10
305.167673
 20
393.535671
 30
0.0
 11
305.167673
 21
393.535671
 31
0.0
  0
LINE
  5
3C3
330
3B3
100
AcDbEntity
  8
LC-001-100-D00-0
 62
     7
370
    50
100
AcDbLine
 10
305.167673
 20
393.535671
 30
0.0
 11
305.168492
 21
393.467853
 31
0.0
  0
ENDBLK
  5
3B5
330
3B3
100
AcDbEntity
  8
0
100
AcDbBlockEnd
  0
BLOCK
  5
3C6
330
3C5
100
AcDbEntity
  8
0
100
AcDbBlockBegin
  2
POLY20
 70
     0
 71
     0
 10
0.0
 20
0.0
 30
0.0
  3
POLY20
  1

  4
POLY20
  0
LINE
  5
3C8
330
3C5
100
AcDbEntity
  8
LC-001-100-D00-0
 62
     7
370
    50
100
AcDbLine
 10
361.014449
 20
393.467853
 30
0.0
 11
361.014449
 21
393.467853
 31
0.0
  0
LINE
  5
3C9
330
3C5
100
AcDbEntity
  8
LC-001-100-D00-0
 62
     7
370
    50
100
AcDbLine
 10
361.014449
 20
393.467853
 30
0.0
 11
361.025216
 21
393.578718
 31
0.0
  0
LINE
  5
3CA
330
3C5
100
AcDbEntity
  8
LC-001-100-D00-0
 62
     7
370
    50
100
AcDbLine
 10
361.025216
 20
393.578718
 30
0.0
 11
361.025216
 21
393.578718
 31
0.0
  0
LINE
  5
3CB
330
3C5
100
AcDbEntity
  8
LC-001-100-D00-0
 62
     7
370
    50
100
AcDbLine
 10
361.025216
 20
393.578718
 30
0.0
 11
361.046747
 21
393.800412
 31
0.0
  0
LINE
  5
3CC
330
3C5
100
AcDbEntity
  8
LC-001-100-D00-0
 62
     7
370
    50
100
AcDbLine
 10
361.046747
 20
393.800412
 30
0.0
 11
361.046747
 21
393.800412
 31
0.0
  0
LINE
  5
3CD
330
3C5
100
AcDbEntity
  8
LC-001-100-D00-0
 62
     7
370
    50
100
AcDbLine
 10
361.046747
 20
393.800412
 30
0.0
 11
361.21425
 21
394.096497
 31
0.0
  0
LINE
  5
3CE
330
3C5
100
AcDbEntity
  8
LC-001-100-D00-0
 62
     7
370
    50
100
AcDbLine
 10
361.21425
 20
394.096497
 30
0.0
 11
361.21425
 21
394.096497
 31
0.0
  0
LINE
  5
3CF
330
3C5
100
AcDbEntity
  8
LC-001-100-D00-0
 62
     7
370
    50
100
AcDbLine
 10
361.21425
 20
394.096497
 30
0.0
 11
361.461756
 21
394.32285
 31
0.0
  0
LINE
  5
3D0
330
3C5
100
AcDbEntity
  8
LC-001-100-D00-0
 62
     7
370
    50
100
AcDbLine
 10
361.461756
 20
394.32285
 30
0.0
 11
361.461756
 21
394.32285
 31
0.0
  0
LINE
  5
3D1
330
3C5
100
AcDbEntity
  8
LC-001-100-D00-0
 62
     7
370
    50
100
AcDbLine
 10
361.461756
 20
394.32285
 30
0.0
 11
361.743891
 21
394.448742
 31
0.0
  0
LINE
  5
3D2
330
3C5
100
AcDbEntity
  8
LC-001-100-D00-0
 62
     7
370
    50
100
AcDbLine
 10
361.743891
 20
394.448742
 30
0.0
 11
361.743891
 21
394.448742
 31
0.0
  0
LINE
  5
3D3
330
3C5
100
AcDbEntity
  8
LC-001-100-D00-0
 62
     7
370
    50
100
AcDbLine
 10
361.743891
 20
394.448742
 30
0.0
 11
361.93497
 21
394.462241
 31
0.0
  0
LINE
  5
3D4
330
3C5
100
AcDbEntity
  8
LC-001-100-D00-0
 62
     7
370
    50
100
AcDbLine
 10
361.93497
 20
394.462241
 30
0.0
 11
361.93497
 21
394.462241
 31
0.0
  0
LINE
  5
3D5
330
3C5
100
AcDbEntity
  8
LC-001-100-D00-0
 62
     7
370
    50
100
AcDbLine
 10
361.93497
 20
394.462241
 30
0.0
 11
362.014451
 21
394.467856
 31
0.0
  0
ENDBLK
  5
3C7
330
3C5
100
AcDbEntity
  8
0
100
AcDbBlockEnd
  0
BLOCK
  5
3DB
330
3DA
100
AcDbEntity
  8
0
100
AcDbBlockBegin
  2
POLY21
 70
     0
 71
     0
 10
0.0
 20
0.0
 30
0.0
  3
POLY21
  1

  4
POLY21
  0
LINE
  5
3DD
330
3DA
100
AcDbEntity
  8
LC-001-100-D00-0
 62
     7
370
    50
100
AcDbLine
 10
444.4604
 20
393.467853
 30
0.0
 11
444.4604
 21
393.467853
 31
0.0
  0
LINE
  5
3DE
330
3DA
100
AcDbEntity
  8
LC-001-100-D00-0
 62
     7
370
    50
100
AcDbLine
 10
444.4604
 20
393.467853
 30
0.0
 11
444.462537
 21
393.578718
 31
0.0
  0
LINE
  5
3DF
330
3DA
100
AcDbEntity
  8
LC-001-100-D00-0
 62
     7
370
    50
100
AcDbLine
 10
444.462537
 20
393.578718
 30
0.0
 11
444.462537
 21
393.578718
 31
0.0
  0
LINE
  5
3E0
330
3DA
100
AcDbEntity
  8
LC-001-100-D00-0
 62
     7
370
    50
100
AcDbLine
 10
444.462537
 20
393.578718
 30
0.0
 11
444.466809
 21
393.800414
 31
0.0
  0
LINE
  5
3E1
330
3DA
100
AcDbEntity
  8
LC-001-100-D00-0
 62
     7
370
    50
100
AcDbLine
 10
444.466809
 20
393.800414
 30
0.0
 11
444.466809
 21
393.800414
 31
0.0
  0
LINE
  5
3E2
330
3DA
100
AcDbEntity
  8
LC-001-100-D00-0
 62
     7
370
    50
100
AcDbLine
 10
444.466809
 20
393.800414
 30
0.0
 11
444.499803
 21
394.096495
 31
0.0
  0
LINE
  5
3E3
330
3DA
100
AcDbEntity
  8
LC-001-100-D00-0
 62
     7
370
    50
100
AcDbLine
 10
444.499803
 20
394.096495
 30
0.0
 11
444.499803
 21
394.096495
 31
0.0
  0
LINE
  5
3E4
330
3DA
100
AcDbEntity
  8
LC-001-100-D00-0
 62
     7
370
    50
100
AcDbLine
 10
444.499803
 20
394.096495
 30
0.0
 11
444.547719
 21
394.322851
 31
0.0
  0
LINE
  5
3E5
330
3DA
100
AcDbEntity
  8
LC-001-100-D00-0
 62
     7
370
    50
100
AcDbLine
 10
444.547719
 20
394.322851
 30
0.0
 11
444.547719
 21
394.322851
 31
0.0
  0
LINE
  5
3E6
330
3DA
100
AcDbEntity
  8
LC-001-100-D00-0
 62
     7
370
    50
100
AcDbLine
 10
444.547719
 20
394.322851
 30
0.0
 11
444.601227
 21
394.448741
 31
0.0
  0
LINE
  5
3E7
330
3DA
100
AcDbEntity
  8
LC-001-100-D00-0
 62
     7
370
    50
100
AcDbLine
 10
444.601227
 20
394.448741
 30
0.0
 11
444.601227
 21
394.448741
 31
0.0
  0
LINE
  5
3E8
330
3DA
100
AcDbEntity
  8
LC-001-100-D00-0
 62
     7
370
    50
100
AcDbLine
 10
444.601227
 20
394.448741
 30
0.0
 11
444.63645
 21
394.46224
 31
0.0
  0
LINE
  5
3E9
330
3DA
100
AcDbEntity
  8
LC-001-100-D00-0
 62
     7
370
    50
100
AcDbLine
 10
444.63645
 20
394.46224
 30
0.0
 11
444.63645
 21
394.46224
 31
0.0
  0
LINE
  5
3EA
330
3DA
100
AcDbEntity
  8
LC-001-100-D00-0
 62
     7
370
    50
100
AcDbLine
 10
444.63645
 20
394.46224
 30
0.0
 11
444.651102
 21
394.467856
 31
0.0
  0
ENDBLK
  5
3DC
330
3DA
100
AcDbEntity
  8
0
100
AcDbBlockEnd
  0
BLOCK
  5
3ED
330
3EC
100
AcDbEntity
  8
0
100
AcDbBlockBegin
  2
POLY22
 70
     0
 71
     0
 10
0.0
 20
0.0
 30
0.0
  3
POLY22
  1

  4
POLY22
  0
LINE
  5
3EF
330
3EC
100
AcDbEntity
  8
LC-001-100-D00-0
 62
     7
370
    50
100
AcDbLine
 10
387.614531
 20
394.467856
 30
0.0
 11
387.614531
 21
394.467856
 31
0.0
  0
LINE
  5
3F0
330
3EC
100
AcDbEntity
  8
LC-001-100-D00-0
 62
     7
370
    50
100
AcDbLine
 10
387.614531
 20
394.467856
 30
0.0
 11
387.728516
 21
394.4565
 31
0.0
  0
LINE
  5
3F1
330
3EC
100
AcDbEntity
  8
LC-001-100-D00-0
 62
     7
370
    50
100
AcDbLine
 10
387.728516
 20
394.4565
 30
0.0
 11
387.728516
 21
394.4565
 31
0.0
  0
LINE
  5
3F2
330
3EC
100
AcDbEntity
  8
LC-001-100-D00-0
 62
     7
370
    50
100
AcDbLine
 10
387.728516
 20
394.4565
 30
0.0
 11
387.956512
 21
394.433785
 31
0.0
  0
LINE
  5
3F3
330
3EC
100
AcDbEntity
  8
LC-001-100-D00-0
 62
     7
370
    50
100
AcDbLine
 10
387.956512
 20
394.433785
 30
0.0
 11
387.956512
 21
394.433785
 31
0.0
  0
LINE
  5
3F4
330
3EC
100
AcDbEntity
  8
LC-001-100-D00-0
 62
     7
370
    50
100
AcDbLine
 10
387.956512
 20
394.433785
 30
0.0
 11
388.259525
 21
394.256558
 31
0.0
  0
LINE
  5
3F5
330
3EC
100
AcDbEntity
  8
LC-001-100-D00-0
 62
     7
370
    50
100
AcDbLine
 10
388.259525
 20
394.256558
 30
0.0
 11
388.259525
 21
394.256558
 31
0.0
  0
LINE
  5
3F6
330
3EC
100
AcDbEntity
  8
LC-001-100-D00-0
 62
     7
370
    50
100
AcDbLine
 10
388.259525
 20
394.256558
 30
0.0
 11
388.485511
 21
393.996609
 31
0.0
  0
LINE
  5
3F7
330
3EC
100
AcDbEntity
  8
LC-001-100-D00-0
 62
     7
370
    50
100
AcDbLine
 10
388.485511
 20
393.996609
 30
0.0
 11
388.485511
 21
393.996609
 31
0.0
  0
LINE
  5
3F8
330
3EC
100
AcDbEntity
  8
LC-001-100-D00-0
 62
     7
370
    50
100
AcDbLine
 10
388.485511
 20
393.996609
 30
0.0
 11
388.599414
 21
393.716313
 31
0.0
  0
LINE
  5
3F9
330
3EC
100
AcDbEntity
  8
LC-001-100-D00-0
 62
     7
370
    50
100
AcDbLine
 10
388.599414
 20
393.716313
 30
0.0
 11
388.599414
 21
393.716313
 31
0.0
  0
LINE
  5
3FA
330
3EC
100
AcDbEntity
  8
LC-001-100-D00-0
 62
     7
370
    50
100
AcDbLine
 10
388.599414
 20
393.716313
 30
0.0
 11
388.610404
 21
393.535671
 31
0.0
  0
LINE
  5
3FB
330
3EC
100
AcDbEntity
  8
LC-001-100-D00-0
 62
     7
370
    50
100
AcDbLine
 10
388.610404
 20
393.535671
 30
0.0
 11
388.610404
 21
393.535671
 31
0.0
  0
LINE
  5
3FC
330
3EC
100
AcDbEntity
  8
LC-001-100-D00-0
 62
     7
370
    50
100
AcDbLine
 10
388.610404
 20
393.535671
 30
0.0
 11
388.61453
 21
393.467853
 31
0.0
  0
ENDBLK
  5
3EE
330
3EC
100
AcDbEntity
  8
0
100
AcDbBlockEnd
  0
BLOCK
  5
43D
330
43C
100
AcDbEntity
  8
0
100
AcDbBlockBegin
  2
POLY23
 70
     0
 71
     0
 10
0.0
 20
0.0
 30
0.0
  3
POLY23
  1

  4
POLY23
  0
LINE
  5
43F
330
43C
100
AcDbEntity
  8
LC-001-100-D00-0
 62
     7
370
    50
100
AcDbLine
 10
386.61453
 20
393.467853
 30
0.0
 11
386.61453
 21
393.467853
 31
0.0
  0
LINE
  5
440
330
43C
100
AcDbEntity
  8
LC-001-100-D00-0
 62
     7
370
    50
100
AcDbLine
 10
386.61453
 20
393.467853
 30
0.0
 11
386.625363
 21
393.579091
 31
0.0
  0
LINE
  5
441
330
43C
100
AcDbEntity
  8
LC-001-100-D00-0
 62
     7
370
    50
100
AcDbLine
 10
386.625363
 20
393.579091
 30
0.0
 11
386.625363
 21
393.579091
 31
0.0
  0
LINE
  5
442
330
43C
100
AcDbEntity
  8
LC-001-100-D00-0
 62
     7
370
    50
100
AcDbLine
 10
386.625363
 20
393.579091
 30
0.0
 11
386.647025
 21
393.80154
 31
0.0
  0
LINE
  5
443
330
43C
100
AcDbEntity
  8
LC-001-100-D00-0
 62
     7
370
    50
100
AcDbLine
 10
386.647025
 20
393.80154
 30
0.0
 11
386.647025
 21
393.80154
 31
0.0
  0
LINE
  5
444
330
43C
100
AcDbEntity
  8
LC-001-100-D00-0
 62
     7
370
    50
100
AcDbLine
 10
386.647025
 20
393.80154
 30
0.0
 11
386.815679
 21
394.098421
 31
0.0
  0
LINE
  5
445
330
43C
100
AcDbEntity
  8
LC-001-100-D00-0
 62
     7
370
    50
100
AcDbLine
 10
386.815679
 20
394.098421
 30
0.0
 11
386.815679
 21
394.098421
 31
0.0
  0
LINE
  5
446
330
43C
100
AcDbEntity
  8
LC-001-100-D00-0
 62
     7
370
    50
100
AcDbLine
 10
386.815679
 20
394.098421
 30
0.0
 11
387.064395
 21
394.324533
 31
0.0
  0
LINE
  5
447
330
43C
100
AcDbEntity
  8
LC-001-100-D00-0
 62
     7
370
    50
100
AcDbLine
 10
387.064395
 20
394.324533
 30
0.0
 11
387.064395
 21
394.324533
 31
0.0
  0
LINE
  5
448
330
43C
100
AcDbEntity
  8
LC-001-100-D00-0
 62
     7
370
    50
100
AcDbLine
 10
387.064395
 20
394.324533
 30
0.0
 11
387.346218
 21
394.449128
 31
0.0
  0
LINE
  5
449
330
43C
100
AcDbEntity
  8
LC-001-100-D00-0
 62
     7
370
    50
100
AcDbLine
 10
387.346218
 20
394.449128
 30
0.0
 11
387.346218
 21
394.449128
 31
0.0
  0
LINE
  5
44A
330
43C
100
AcDbEntity
  8
LC-001-100-D00-0
 62
     7
370
    50
100
AcDbLine
 10
387.346218
 20
394.449128
 30
0.0
 11
387.535975
 21
394.462372
 31
0.0
  0
LINE
  5
44B
330
43C
100
AcDbEntity
  8
LC-001-100-D00-0
 62
     7
370
    50
100
AcDbLine
 10
387.535975
 20
394.462372
 30
0.0
 11
387.535975
 21
394.462372
 31
0.0
  0
LINE
  5
44C
330
43C
100
AcDbEntity
  8
LC-001-100-D00-0
 62
     7
370
    50
100
AcDbLine
 10
387.535975
 20
394.462372
 30
0.0
 11
387.614531
 21
394.467856
 31
0.0
  0
ENDBLK
  5
43E
330
43C
100
AcDbEntity
  8
0
100
AcDbBlockEnd
  0
BLOCK
  5
452
330
451
100
AcDbEntity
  8
0
100
AcDbBlockBegin
  2
POLY24
 70
     0
 71
     0
 10
0.0
 20
0.0
 30
0.0
  3
POLY24
  1

  4
POLY24
  0
LINE
  5
454
330
451
100
AcDbEntity
  8
LC-001-100-D00-0
 62
     7
370
    50
100
AcDbLine
 10
362.014451
 20
394.467856
 30
0.0
 11
362.014451
 21
394.467856
 31
0.0
  0
LINE
  5
455
330
451
100
AcDbEntity
  8
LC-001-100-D00-0
 62
     7
370
    50
100
AcDbLine
 10
362.014451
 20
394.467856
 30
0.0
 11
362.128124
 21
394.456572
 31
0.0
  0
LINE
  5
456
330
451
100
AcDbEntity
  8
LC-001-100-D00-0
 62
     7
370
    50
100
AcDbLine
 10
362.128124
 20
394.456572
 30
0.0
 11
362.128124
 21
394.456572
 31
0.0
  0
LINE
  5
457
330
451
100
AcDbEntity
  8
LC-001-100-D00-0
 62
     7
370
    50
100
AcDbLine
 10
362.128124
 20
394.456572
 30
0.0
 11
362.355503
 21
394.434002
 31
0.0
  0
LINE
  5
458
330
451
100
AcDbEntity
  8
LC-001-100-D00-0
 62
     7
370
    50
100
AcDbLine
 10
362.355503
 20
394.434002
 30
0.0
 11
362.355503
 21
394.434002
 31
0.0
  0
LINE
  5
459
330
451
100
AcDbEntity
  8
LC-001-100-D00-0
 62
     7
370
    50
100
AcDbLine
 10
362.355503
 20
394.434002
 30
0.0
 11
362.658239
 21
394.257473
 31
0.0
  0
LINE
  5
45A
330
451
100
AcDbEntity
  8
LC-001-100-D00-0
 62
     7
370
    50
100
AcDbLine
 10
362.658239
 20
394.257473
 30
0.0
 11
362.658239
 21
394.257473
 31
0.0
  0
LINE
  5
45B
330
451
100
AcDbEntity
  8
LC-001-100-D00-0
 62
     7
370
    50
100
AcDbLine
 10
362.658239
 20
394.257473
 30
0.0
 11
362.884193
 21
393.998416
 31
0.0
  0
LINE
  5
45C
330
451
100
AcDbEntity
  8
LC-001-100-D00-0
 62
     7
370
    50
100
AcDbLine
 10
362.884193
 20
393.998416
 30
0.0
 11
362.884193
 21
393.998416
 31
0.0
  0
LINE
  5
45D
330
451
100
AcDbEntity
  8
LC-001-100-D00-0
 62
     7
370
    50
100
AcDbLine
 10
362.884193
 20
393.998416
 30
0.0
 11
362.999
 21
393.718145
 31
0.0
  0
LINE
  5
45E
330
451
100
AcDbEntity
  8
LC-001-100-D00-0
 62
     7
370
    50
100
AcDbLine
 10
362.999
 20
393.718145
 30
0.0
 11
362.999
 21
393.718145
 31
0.0
  0
LINE
  5
45F
330
451
100
AcDbEntity
  8
LC-001-100-D00-0
 62
     7
370
    50
100
AcDbLine
 10
362.999
 20
393.718145
 30
0.0
 11
363.010197
 21
393.536746
 31
0.0
  0
LINE
  5
460
330
451
100
AcDbEntity
  8
LC-001-100-D00-0
 62
     7
370
    50
100
AcDbLine
 10
363.010197
 20
393.536746
 30
0.0
 11
363.010197
 21
393.536746
 31
0.0
  0
LINE
  5
461
330
451
100
AcDbEntity
  8
LC-001-100-D00-0
 62
     7
370
    50
100
AcDbLine
 10
363.010197
 20
393.536746
 30
0.0
 11
363.014449
 21
393.467853
 31
0.0
  0
ENDBLK
  5
453
330
451
100
AcDbEntity
  8
0
100
AcDbBlockEnd
  0
BLOCK
  5
469
330
468
100
AcDbEntity
  8
0
100
AcDbBlockBegin
  2
POLY25
 70
     0
 71
     0
 10
0.0
 20
0.0
 30
0.0
  3
POLY25
  1

  4
POLY25
  0
LINE
  5
46B
330
468
100
AcDbEntity
  8
LC-001-100-D00-0
 62
     7
370
    50
100
AcDbLine
 10
420.746875
 20
407.146851
 30
0.0
 11
420.746875
 21
407.146851
 31
0.0
  0
LINE
  5
46C
330
468
100
AcDbEntity
  8
LC-001-100-D00-0
 62
     7
370
    50
100
AcDbLine
 10
420.746875
 20
407.146851
 30
0.0
 11
420.757711
 21
407.155263
 31
0.0
  0
LINE
  5
46D
330
468
100
AcDbEntity
  8
LC-001-100-D00-0
 62
     7
370
    50
100
AcDbLine
 10
420.757711
 20
407.155263
 30
0.0
 11
420.757711
 21
407.155263
 31
0.0
  0
LINE
  5
46E
330
468
100
AcDbEntity
  8
LC-001-100-D00-0
 62
     7
370
    50
100
AcDbLine
 10
420.757711
 20
407.155263
 30
0.0
 11
420.772404
 21
407.166669
 31
0.0
  0
LINE
  5
46F
330
468
100
AcDbEntity
  8
LC-001-100-D00-0
 62
     7
370
    50
100
AcDbLine
 10
420.772404
 20
407.166669
 30
0.0
 11
420.772404
 21
407.166669
 31
0.0
  0
LINE
  5
470
330
468
100
AcDbEntity
  8
LC-001-100-D00-0
 62
     7
370
    50
100
AcDbLine
 10
420.772404
 20
407.166669
 30
0.0
 11
420.78802
 21
407.167608
 31
0.0
  0
LINE
  5
471
330
468
100
AcDbEntity
  8
LC-001-100-D00-0
 62
     7
370
    50
100
AcDbLine
 10
420.78802
 20
407.167608
 30
0.0
 11
420.78802
 21
407.167608
 31
0.0
  0
LINE
  5
472
330
468
100
AcDbEntity
  8
LC-001-100-D00-0
 62
     7
370
    50
100
AcDbLine
 10
420.78802
 20
407.167608
 30
0.0
 11
420.792119
 21
407.167854
 31
0.0
  0
ENDBLK
  5
46A
330
468
100
AcDbEntity
  8
0
100
AcDbBlockEnd
  0
BLOCK
  5
476
330
475
100
AcDbEntity
  8
0
100
AcDbBlockBegin
  2
POLY26
 70
     0
 71
     0
 10
0.0
 20
0.0
 30
0.0
  3
POLY26
  1

  4
POLY26
  0
LINE
  5
478
330
475
100
AcDbEntity
  8
LC-001-100-D00-0
 62
     7
370
    50
100
AcDbLine
 10
419.926093
 20
407.167854
 30
0.0
 11
419.926093
 21
407.167854
 31
0.0
  0
LINE
  5
479
330
475
100
AcDbEntity
  8
LC-001-100-D00-0
 62
     7
370
    50
100
AcDbLine
 10
419.926093
 20
407.167854
 30
0.0
 11
419.91451
 21
407.165862
 31
0.0
  0
LINE
  5
47A
330
475
100
AcDbEntity
  8
LC-001-100-D00-0
 62
     7
370
    50
100
AcDbLine
 10
419.91451
 20
407.165862
 30
0.0
 11
419.91451
 21
407.165862
 31
0.0
  0
LINE
  5
47B
330
475
100
AcDbEntity
  8
LC-001-100-D00-0
 62
     7
370
    50
100
AcDbLine
 10
419.91451
 20
407.165862
 30
0.0
 11
419.898803
 21
407.16316
 31
0.0
  0
LINE
  5
47C
330
475
100
AcDbEntity
  8
LC-001-100-D00-0
 62
     7
370
    50
100
AcDbLine
 10
419.898803
 20
407.16316
 30
0.0
 11
419.898803
 21
407.16316
 31
0.0
  0
LINE
  5
47D
330
475
100
AcDbEntity
  8
LC-001-100-D00-0
 62
     7
370
    50
100
AcDbLine
 10
419.898803
 20
407.16316
 30
0.0
 11
419.884583
 21
407.150242
 31
0.0
  0
LINE
  5
47E
330
475
100
AcDbEntity
  8
LC-001-100-D00-0
 62
     7
370
    50
100
AcDbLine
 10
419.884583
 20
407.150242
 30
0.0
 11
419.884583
 21
407.150242
 31
0.0
  0
LINE
  5
47F
330
475
100
AcDbEntity
  8
LC-001-100-D00-0
 62
     7
370
    50
100
AcDbLine
 10
419.884583
 20
407.150242
 30
0.0
 11
419.880849
 21
407.146851
 31
0.0
  0
ENDBLK
  5
477
330
475
100
AcDbEntity
  8
0
100
AcDbBlockEnd
  0
BLOCK
  5
485
330
484
100
AcDbEntity
  8
0
100
AcDbBlockBegin
  2
KLON21
 70
     0
 71
     0
 10
0.0
 20
0.0
 30
0.0
  3
KLON21
  1

  4
KLON21
  0
LINE
  5
487
330
484
100
AcDbEntity
  8
LC-001-100-D00-0
 62
     7
370
    25
100
AcDbLine
 10
310.078749
 20
296.323977
 30
0.0
 11
315.078749
 21
301.323977
 31
0.0
  0
LINE
  5
488
330
484
100
AcDbEntity
  8
LC-001-100-D00-0
 62
     7
370
    25
100
AcDbLine
 10
303.598493
 20
298.823977
 30
0.0
 11
306.098493
 21
301.323977
 31
0.0
  0
LINE
  5
489
330
484
100
AcDbEntity
  8
LC-001-100-D00-0
 62
     7
370
    25
100
AcDbLine
 10
297.060332
 20
301.266072
 30
0.0
 11
299.814433
 21
304.020174
 31
0.0
  0
LINE
  5
48A
330
484
100
AcDbEntity
  8
LC-001-100-D00-0
 62
     7
370
    25
100
AcDbLine
 10
294.814433
 20
308.00043
 30
0.0
 11
295.637981
 21
308.823977
 31
0.0
  0
LINE
  5
48B
330
484
100
AcDbEntity
  8
LC-001-100-D00-0
 62
     7
370
    25
100
AcDbLine
 10
297.314433
 20
310.50043
 30
0.0
 11
299.814433
 21
313.00043
 31
0.0
  0
ENDBLK
  5
486
330
484
100
AcDbEntity
  8
0
100
AcDbBlockEnd
  0
BLOCK
  5
48E
330
48D
100
AcDbEntity
  8
0
100
AcDbBlockBegin
  2
KLON22
 70
     0
 71
     0
 10
0.0
 20
0.0
 30
0.0
  3
KLON22
  1

  4
KLON22
  0
LINE
  5
490
330
48D
100
AcDbEntity
  8
LC-001-100-D00-0
 62
     7
370
    25
100
AcDbLine
 10
447.297169
 20
298.838555
 30
0.0
 11
454.799856
 21
306.341242
 31
0.0
  0
LINE
  5
491
330
48D
100
AcDbEntity
  8
LC-001-100-D00-0
 62
     7
370
    25
100
AcDbLine
 10
435.802335
 20
296.323977
 30
0.0
 11
440.802335
 21
301.323977
 31
0.0
  0
LINE
  5
492
330
48D
100
AcDbEntity
  8
LC-001-100-D00-0
 62
     7
370
    25
100
AcDbLine
 10
449.814433
 20
310.336076
 30
0.0
 11
452.314433
 21
312.836076
 31
0.0
  0
LINE
  5
493
330
48D
100
AcDbEntity
  8
LC-001-100-D00-0
 62
     7
370
    25
100
AcDbLine
 10
429.814433
 20
299.316332
 30
0.0
 11
431.822079
 21
301.323977
 31
0.0
  0
ENDBLK
  5
48F
330
48D
100
AcDbEntity
  8
0
100
AcDbBlockEnd
  0
BLOCK
  5
496
330
495
100
AcDbEntity
  8
0
100
AcDbBlockBegin
  2
KLON23
 70
     0
 71
     0
 10
0.0
 20
0.0
 30
0.0
  3
KLON23
  1

  4
KLON23
  0
LINE
  5
498
330
495
100
AcDbEntity
  8
LC-001-100-D00-0
 62
     7
370
    25
100
AcDbLine
 10
544.899524
 20
397.823977
 30
0.0
 11
541.899524
 21
400.823977
 31
0.0
  0
LINE
  5
499
330
495
100
AcDbEntity
  8
LC-001-100-D00-0
 62
     7
370
    25
100
AcDbLine
 10
535.919268
 20
397.823977
 30
0.0
 11
532.919268
 21
400.823977
 31
0.0
  0
LINE
  5
49A
330
495
100
AcDbEntity
  8
LC-001-100-D00-0
 62
     7
370
    25
100
AcDbLine
 10
526.939012
 20
397.823977
 30
0.0
 11
523.939012
 21
400.823977
 31
0.0
  0
LINE
  5
49B
330
495
100
AcDbEntity
  8
LC-001-100-D00-0
 62
     7
370
    25
100
AcDbLine
 10
517.958756
 20
397.823977
 30
0.0
 11
514.958756
 21
400.823977
 31
0.0
  0
LINE
  5
49C
330
495
100
AcDbEntity
  8
LC-001-100-D00-0
 62
     7
370
    25
100
AcDbLine
 10
508.9785
 20
397.823977
 30
0.0
 11
505.9785
 21
400.823977
 31
0.0
  0
LINE
  5
49D
330
495
100
AcDbEntity
  8
LC-001-100-D00-0
 62
     7
370
    25
100
AcDbLine
 10
500.693413
 20
397.128808
 30
0.0
 11
498.423014
 21
399.399207
 31
0.0
  0
LINE
  5
49E
330
495
100
AcDbEntity
  8
LC-001-100-D00-0
 62
     7
370
    25
100
AcDbLine
 10
494.109504
 20
394.732461
 30
0.0
 11
491.839105
 21
397.00286
 31
0.0
  0
LINE
  5
49F
330
495
100
AcDbEntity
  8
LC-001-100-D00-0
 62
     7
370
    25
100
AcDbLine
 10
487.525595
 20
392.336114
 30
0.0
 11
485.255196
 21
394.606513
 31
0.0
  0
LINE
  5
4A0
330
495
100
AcDbEntity
  8
LC-001-100-D00-0
 62
     7
370
    25
100
AcDbLine
 10
480.941686
 20
389.939767
 30
0.0
 11
478.671286
 21
392.210166
 31
0.0
  0
LINE
  5
4A1
330
495
100
AcDbEntity
  8
LC-001-100-D00-0
 62
     7
370
    25
100
AcDbLine
 10
474.789433
 20
387.111763
 30
0.0
 11
471.564433
 21
390.336763
 31
0.0
  0
LINE
  5
4A2
330
495
100
AcDbEntity
  8
LC-001-100-D00-0
 62
     7
370
    25
100
AcDbLine
 10
474.789433
 20
378.131507
 30
0.0
 11
471.564433
 21
381.356507
 31
0.0
  0
LINE
  5
4A3
330
495
100
AcDbEntity
  8
LC-001-100-D00-0
 62
     7
370
    25
100
AcDbLine
 10
466.064433
 20
386.856507
 30
0.0
 11
460.776963
 21
392.143977
 31
0.0
  0
LINE
  5
4A4
330
495
100
AcDbEntity
  8
LC-001-100-D00-0
 62
     7
370
    25
100
AcDbLine
 10
471.814433
 20
372.126251
 30
0.0
 11
467.296707
 21
376.643977
 31
0.0
  0
LINE
  5
4A5
330
495
100
AcDbEntity
  8
LC-001-100-D00-0
 62
     7
370
    25
100
AcDbLine
 10
466.064433
 20
377.876251
 30
0.0
 11
457.314433
 21
386.626251
 31
0.0
  0
LINE
  5
4A6
330
495
100
AcDbEntity
  8
LC-001-100-D00-0
 62
     7
370
    25
100
AcDbLine
 10
461.316451
 20
373.643977
 30
0.0
 11
457.314433
 21
377.645995
 31
0.0
  0
LINE
  5
4A7
330
495
100
AcDbEntity
  8
LC-001-100-D00-0
 62
     7
370
    25
100
AcDbLine
 10
455.265314
 20
370.714858
 30
0.0
 11
453.945314
 21
372.034858
 31
0.0
  0
LINE
  5
4A8
330
495
100
AcDbEntity
  8
LC-001-100-D00-0
 62
     7
370
    25
100
AcDbLine
 10
454.814433
 20
362.185482
 30
0.0
 11
452.314433
 21
364.685482
 31
0.0
  0
LINE
  5
4A9
330
495
100
AcDbEntity
  8
LC-001-100-D00-0
 62
     7
370
    25
100
AcDbLine
 10
454.814433
 20
353.205226
 30
0.0
 11
448.065683
 21
359.953977
 31
0.0
  0
LINE
  5
4AA
330
495
100
AcDbEntity
  8
LC-001-100-D00-0
 62
     7
370
    25
100
AcDbLine
 10
454.814433
 20
344.22497
 30
0.0
 11
452.314433
 21
346.72497
 31
0.0
  0
LINE
  5
4AB
330
495
100
AcDbEntity
  8
LC-001-100-D00-0
 62
     7
370
    25
100
AcDbLine
 10
447.864433
 20
351.17497
 30
0.0
 11
445.314433
 21
353.72497
 31
0.0
  0
LINE
  5
4AC
330
495
100
AcDbEntity
  8
LC-001-100-D00-0
 62
     7
370
    25
100
AcDbLine
 10
454.814433
 20
335.244714
 30
0.0
 11
452.314433
 21
337.744714
 31
0.0
  0
LINE
  5
4AD
330
495
100
AcDbEntity
  8
LC-001-100-D00-0
 62
     7
370
    25
100
AcDbLine
 10
447.463335
 20
342.595812
 30
0.0
 11
445.10517
 21
344.953977
 31
0.0
  0
LINE
  5
4AE
330
495
100
AcDbEntity
  8
LC-001-100-D00-0
 62
     7
370
    25
100
AcDbLine
 10
454.814433
 20
326.264458
 30
0.0
 11
452.314433
 21
328.764458
 31
0.0
  0
LINE
  5
4AF
330
495
100
AcDbEntity
  8
LC-001-100-D00-0
 62
     7
370
    25
100
AcDbLine
 10
442.564433
 20
338.514458
 30
0.0
 11
439.314433
 21
341.764458
 31
0.0
  0
LINE
  5
4B0
330
495
100
AcDbEntity
  8
LC-001-100-D00-0
 62
     7
370
    25
100
AcDbLine
 10
454.814433
 20
317.284202
 30
0.0
 11
452.314433
 21
319.784202
 31
0.0
  0
LINE
  5
4B1
330
495
100
AcDbEntity
  8
LC-001-100-D00-0
 62
     7
370
    25
100
AcDbLine
 10
442.564433
 20
329.534202
 30
0.0
 11
439.314433
 21
332.784202
 31
0.0
  0
LINE
  5
4B2
330
495
100
AcDbEntity
  8
LC-001-100-D00-0
 62
     7
370
    25
100
AcDbLine
 10
454.294402
 20
308.823977
 30
0.0
 11
452.314433
 21
310.803946
 31
0.0
  0
LINE
  5
4B3
330
495
100
AcDbEntity
  8
LC-001-100-D00-0
 62
     7
370
    25
100
AcDbLine
 10
442.564433
 20
320.553946
 30
0.0
 11
439.314433
 21
323.803946
 31
0.0
  0
LINE
  5
4B4
330
495
100
AcDbEntity
  8
LC-001-100-D00-0
 62
     7
370
    25
100
AcDbLine
 10
442.564433
 20
311.57369
 30
0.0
 11
439.249386
 21
314.888737
 31
0.0
  0
LINE
  5
4B5
330
495
100
AcDbEntity
  8
LC-001-100-D00-0
 62
     7
370
    25
100
AcDbLine
 10
436.33389
 20
308.823977
 30
0.0
 11
431.730297
 21
313.427569
 31
0.0
  0
LINE
  5
4B6
330
495
100
AcDbEntity
  8
LC-001-100-D00-0
 62
     7
370
    25
100
AcDbLine
 10
429.814433
 20
306.363177
 30
0.0
 11
426.814433
 21
309.363177
 31
0.0
  0
LINE
  5
4B7
330
495
100
AcDbEntity
  8
LC-001-100-D00-0
 62
     7
370
    25
100
AcDbLine
 10
429.814433
 20
297.382921
 30
0.0
 11
426.814433
 21
300.382921
 31
0.0
  0
LINE
  5
4B8
330
495
100
AcDbEntity
  8
LC-001-100-D00-0
 62
     7
370
    25
100
AcDbLine
 10
429.814433
 20
288.402665
 30
0.0
 11
426.814433
 21
291.402665
 31
0.0
  0
LINE
  5
4B9
330
495
100
AcDbEntity
  8
LC-001-100-D00-0
 62
     7
370
    25
100
AcDbLine
 10
429.814433
 20
279.422409
 30
0.0
 11
426.814433
 21
282.422409
 31
0.0
  0
LINE
  5
4BA
330
495
100
AcDbEntity
  8
LC-001-100-D00-0
 62
     7
370
    25
100
AcDbLine
 10
429.814433
 20
270.442153
 30
0.0
 11
426.814433
 21
273.442153
 31
0.0
  0
LINE
  5
4BB
330
495
100
AcDbEntity
  8
LC-001-100-D00-0
 62
     7
370
    25
100
AcDbLine
 10
429.814433
 20
261.461897
 30
0.0
 11
426.814433
 21
264.461897
 31
0.0
  0
LINE
  5
4BC
330
495
100
AcDbEntity
  8
LC-001-100-D00-0
 62
     7
370
    25
100
AcDbLine
 10
429.814433
 20
252.481641
 30
0.0
 11
426.814433
 21
255.481641
 31
0.0
  0
LINE
  5
4BD
330
495
100
AcDbEntity
  8
LC-001-100-D00-0
 62
     7
370
    25
100
AcDbLine
 10
429.814433
 20
243.501384
 30
0.0
 11
426.814433
 21
246.501384
 31
0.0
  0
LINE
  5
4BE
330
495
100
AcDbEntity
  8
LC-001-100-D00-0
 62
     7
370
    25
100
AcDbLine
 10
429.222122
 20
235.11344
 30
0.0
 11
426.814433
 21
237.521128
 31
0.0
  0
ENDBLK
  5
497
330
495
100
AcDbEntity
  8
0
100
AcDbBlockEnd
  0
BLOCK
  5
4C1
330
4C0
100
AcDbEntity
  8
0
100
AcDbBlockBegin
  2
KLON24
 70
     0
 71
     0
 10
0.0
 20
0.0
 30
0.0
  3
KLON24
  1

  4
KLON24
  0
LINE
  5
4C3
330
4C0
100
AcDbEntity
  8
LC-001-100-D00-0
 62
     7
370
    25
100
AcDbLine
 10
292.314433
 20
389.981641
 30
0.0
 11
290.152097
 21
392.143977
 31
0.0
  0
LINE
  5
4C4
330
4C0
100
AcDbEntity
  8
LC-001-100-D00-0
 62
     7
370
    25
100
AcDbLine
 10
292.314433
 20
381.001384
 30
0.0
 11
283.564433
 21
389.751384
 31
0.0
  0
LINE
  5
4C5
330
4C0
100
AcDbEntity
  8
LC-001-100-D00-0
 62
     7
370
    25
100
AcDbLine
 10
297.314433
 20
367.021128
 30
0.0
 11
294.814433
 21
369.521128
 31
0.0
  0
LINE
  5
4C6
330
4C0
100
AcDbEntity
  8
LC-001-100-D00-0
 62
     7
370
    25
100
AcDbLine
 10
293.071585
 20
371.263977
 30
0.0
 11
283.564433
 21
380.771128
 31
0.0
  0
LINE
  5
4C7
330
4C0
100
AcDbEntity
  8
LC-001-100-D00-0
 62
     7
370
    25
100
AcDbLine
 10
278.064433
 20
386.271128
 30
0.0
 11
274.839433
 21
389.496128
 31
0.0
  0
LINE
  5
4C8
330
4C0
100
AcDbEntity
  8
LC-001-100-D00-0
 62
     7
370
    25
100
AcDbLine
 10
274.691585
 20
389.643977
 30
0.0
 11
272.191585
 21
392.143977
 31
0.0
  0
LINE
  5
4C9
330
4C0
100
AcDbEntity
  8
LC-001-100-D00-0
 62
     7
370
    25
100
AcDbLine
 10
304.314433
 20
351.040872
 30
0.0
 11
301.764433
 21
353.590872
 31
0.0
  0
LINE
  5
4CA
330
4C0
100
AcDbEntity
  8
LC-001-100-D00-0
 62
     7
370
    25
100
AcDbLine
 10
300.001328
 20
355.353977
 30
0.0
 11
294.814433
 21
360.540872
 31
0.0
  0
LINE
  5
4CB
330
4C0
100
AcDbEntity
  8
LC-001-100-D00-0
 62
     7
370
    25
100
AcDbLine
 10
283.814433
 20
371.540872
 30
0.0
 11
278.711328
 21
376.643977
 31
0.0
  0
LINE
  5
4CC
330
4C0
100
AcDbEntity
  8
LC-001-100-D00-0
 62
     7
370
    25
100
AcDbLine
 10
278.064433
 20
377.290872
 30
0.0
 11
274.839433
 21
380.515872
 31
0.0
  0
LINE
  5
4CD
330
4C0
100
AcDbEntity
  8
LC-001-100-D00-0
 62
     7
370
    25
100
AcDbLine
 10
263.54333
 20
391.811975
 30
0.0
 11
258.674443
 21
396.680863
 31
0.0
  0
LINE
  5
4CE
330
4C0
100
AcDbEntity
  8
LC-001-100-D00-0
 62
     7
370
    25
100
AcDbLine
 10
310.314433
 20
336.060616
 30
0.0
 11
307.064433
 21
339.310616
 31
0.0
  0
LINE
  5
4CF
330
4C0
100
AcDbEntity
  8
LC-001-100-D00-0
 62
     7
370
    25
100
AcDbLine
 10
304.921072
 20
341.453977
 30
0.0
 11
301.764433
 21
344.610616
 31
0.0
  0
LINE
  5
4D0
330
4C0
100
AcDbEntity
  8
LC-001-100-D00-0
 62
     7
370
    25
100
AcDbLine
 10
297.314433
 20
349.060616
 30
0.0
 11
294.814433
 21
351.560616
 31
0.0
  0
LINE
  5
4D1
330
4C0
100
AcDbEntity
  8
LC-001-100-D00-0
 62
     7
370
    25
100
AcDbLine
 10
249.424092
 20
396.950958
 30
0.0
 11
245.551072
 21
400.823977
 31
0.0
  0
LINE
  5
4D2
330
4C0
100
AcDbEntity
  8
LC-001-100-D00-0
 62
     7
370
    25
100
AcDbLine
 10
310.314433
 20
327.08036
 30
0.0
 11
307.064433
 21
330.33036
 31
0.0
  0
LINE
  5
4D3
330
4C0
100
AcDbEntity
  8
LC-001-100-D00-0
 62
     7
370
    25
100
AcDbLine
 10
297.314433
 20
340.08036
 30
0.0
 11
294.814433
 21
342.58036
 31
0.0
  0
LINE
  5
4D4
330
4C0
100
AcDbEntity
  8
LC-001-100-D00-0
 62
     7
370
    25
100
AcDbLine
 10
239.570816
 20
397.823977
 30
0.0
 11
236.570816
 21
400.823977
 31
0.0
  0
LINE
  5
4D5
330
4C0
100
AcDbEntity
  8
LC-001-100-D00-0
 62
     7
370
    25
100
AcDbLine
 10
322.814433
 20
305.600104
 30
0.0
 11
319.814433
 21
308.600104
 31
0.0
  0
LINE
  5
4D6
330
4C0
100
AcDbEntity
  8
LC-001-100-D00-0
 62
     7
370
    25
100
AcDbLine
 10
319.59056
 20
308.823977
 30
0.0
 11
314.579429
 21
313.835109
 31
0.0
  0
LINE
  5
4D7
330
4C0
100
AcDbEntity
  8
LC-001-100-D00-0
 62
     7
370
    25
100
AcDbLine
 10
310.314433
 20
318.100104
 30
0.0
 11
307.064433
 21
321.350104
 31
0.0
  0
LINE
  5
4D8
330
4C0
100
AcDbEntity
  8
LC-001-100-D00-0
 62
     7
370
    25
100
AcDbLine
 10
297.314433
 20
331.100104
 30
0.0
 11
294.814433
 21
333.600104
 31
0.0
  0
LINE
  5
4D9
330
4C0
100
AcDbEntity
  8
LC-001-100-D00-0
 62
     7
370
    25
100
AcDbLine
 10
230.59056
 20
397.823977
 30
0.0
 11
227.59056
 21
400.823977
 31
0.0
  0
LINE
  5
4DA
330
4C0
100
AcDbEntity
  8
LC-001-100-D00-0
 62
     7
370
    25
100
AcDbLine
 10
322.814433
 20
296.619848
 30
0.0
 11
319.814433
 21
299.619848
 31
0.0
  0
LINE
  5
4DB
330
4C0
100
AcDbEntity
  8
LC-001-100-D00-0
 62
     7
370
    25
100
AcDbLine
 10
310.610304
 20
308.823977
 30
0.0
 11
307.064433
 21
312.369848
 31
0.0
  0
LINE
  5
4DC
330
4C0
100
AcDbEntity
  8
LC-001-100-D00-0
 62
     7
370
    25
100
AcDbLine
 10
297.314433
 20
322.119848
 30
0.0
 11
294.814433
 21
324.619848
 31
0.0
  0
LINE
  5
4DD
330
4C0
100
AcDbEntity
  8
LC-001-100-D00-0
 62
     7
370
    25
100
AcDbLine
 10
221.610304
 20
397.823977
 30
0.0
 11
218.610304
 21
400.823977
 31
0.0
  0
LINE
  5
4DE
330
4C0
100
AcDbEntity
  8
LC-001-100-D00-0
 62
     7
370
    25
100
AcDbLine
 10
322.814433
 20
287.639592
 30
0.0
 11
319.814433
 21
290.639592
 31
0.0
  0
LINE
  5
4DF
330
4C0
100
AcDbEntity
  8
LC-001-100-D00-0
 62
     7
370
    25
100
AcDbLine
 10
297.314433
 20
313.139592
 30
0.0
 11
294.814433
 21
315.639592
 31
0.0
  0
LINE
  5
4E0
330
4C0
100
AcDbEntity
  8
LC-001-100-D00-0
 62
     7
370
    25
100
AcDbLine
 10
212.630048
 20
397.823977
 30
0.0
 11
209.630048
 21
400.823977
 31
0.0
  0
LINE
  5
4E1
330
4C0
100
AcDbEntity
  8
LC-001-100-D00-0
 62
     7
370
    25
100
AcDbLine
 10
322.814433
 20
278.659335
 30
0.0
 11
319.814433
 21
281.659335
 31
0.0
  0
LINE
  5
4E2
330
4C0
100
AcDbEntity
  8
LC-001-100-D00-0
 62
     7
370
    25
100
AcDbLine
 10
203.649792
 20
397.823977
 30
0.0
 11
200.649792
 21
400.823977
 31
0.0
  0
LINE
  5
4E3
330
4C0
100
AcDbEntity
  8
LC-001-100-D00-0
 62
     7
370
    25
100
AcDbLine
 10
322.814433
 20
269.679079
 30
0.0
 11
319.814433
 21
272.679079
 31
0.0
  0
LINE
  5
4E4
330
4C0
100
AcDbEntity
  8
LC-001-100-D00-0
 62
     7
370
    25
100
AcDbLine
 10
322.814433
 20
260.698823
 30
0.0
 11
319.814433
 21
263.698823
 31
0.0
  0
LINE
  5
4E5
330
4C0
100
AcDbEntity
  8
LC-001-100-D00-0
 62
     7
370
    25
100
AcDbLine
 10
322.814433
 20
251.718567
 30
0.0
 11
319.814433
 21
254.718567
 31
0.0
  0
LINE
  5
4E6
330
4C0
100
AcDbEntity
  8
LC-001-100-D00-0
 62
     7
370
    25
100
AcDbLine
 10
322.814433
 20
242.738311
 30
0.0
 11
319.814433
 21
245.738311
 31
0.0
  0
LINE
  5
4E7
330
4C0
100
AcDbEntity
  8
LC-001-100-D00-0
 62
     7
370
    25
100
AcDbLine
 10
322.814433
 20
233.758055
 30
0.0
 11
320.021575
 21
236.550913
 31
0.0
  0
ENDBLK
  5
4C2
330
4C0
100
AcDbEntity
  8
0
100
AcDbBlockEnd
  0
BLOCK
  5
4EA
330
4E9
100
AcDbEntity
  8
0
100
AcDbBlockBegin
  2
KLON25
 70
     0
 71
     0
 10
0.0
 20
0.0
 30
0.0
  3
KLON25
  1

  4
KLON25
  0
LINE
  5
4EC
330
4E9
100
AcDbEntity
  8
LC-001-100-D00-0
 62
     7
370
    25
100
AcDbLine
 10
443.050798
 20
357.453977
 30
0.0
 11
443.564433
 21
357.967612
 31
0.0
  0
LINE
  5
4ED
330
4E9
100
AcDbEntity
  8
LC-001-100-D00-0
 62
     7
370
    25
100
AcDbLine
 10
447.550798
 20
361.953977
 30
0.0
 11
451.050798
 21
365.453977
 31
0.0
  0
LINE
  5
4EE
330
4E9
100
AcDbEntity
  8
LC-001-100-D00-0
 62
     7
370
    25
100
AcDbLine
 10
440.349275
 20
363.73271
 30
0.0
 11
442.070542
 21
365.453977
 31
0.0
  0
ENDBLK
  5
4EB
330
4E9
100
AcDbEntity
  8
0
100
AcDbBlockEnd
  0
BLOCK
  5
4F1
330
4F0
100
AcDbEntity
  8
0
100
AcDbBlockBegin
  2
KLON26
 70
     0
 71
     0
 10
0.0
 20
0.0
 30
0.0
  3
KLON26
  1

  4
KLON26
  0
LINE
  5
4F3
330
4F0
100
AcDbEntity
  8
LC-001-100-D00-0
 62
     7
370
    25
100
AcDbLine
 10
308.346956
 20
357.453977
 30
0.0
 11
309.873603
 21
358.980624
 31
0.0
  0
LINE
  5
4F4
330
4F0
100
AcDbEntity
  8
LC-001-100-D00-0
 62
     7
370
    25
100
AcDbLine
 10
303.8667
 20
361.953977
 30
0.0
 11
307.3667
 21
365.453977
 31
0.0
  0
ENDBLK
  5
4F2
330
4F0
100
AcDbEntity
  8
0
100
AcDbBlockEnd
  0
BLOCK
  5
4F7
330
4F6
100
AcDbEntity
  8
0
100
AcDbBlockBegin
  2
KLON27
 70
     0
 71
     0
 10
0.0
 20
0.0
 30
0.0
  3
KLON27
  1

  4
KLON27
  0
LINE
  5
4F9
330
4F6
100
AcDbEntity
  8
LC-001-100-D00-0
 62
     7
370
    25
100
AcDbLine
 10
494.298456
 20
403.523765
 30
0.0
 11
493.843518
 21
403.978703
 31
0.0
  0
LINE
  5
4FA
330
4F6
100
AcDbEntity
  8
LC-001-100-D00-0
 62
     7
370
    25
100
AcDbLine
 10
486.172294
 20
402.669671
 30
0.0
 11
485.717356
 21
403.124609
 31
0.0
  0
LINE
  5
4FB
330
4F6
100
AcDbEntity
  8
LC-001-100-D00-0
 62
     7
370
    25
100
AcDbLine
 10
478.046132
 20
401.815577
 30
0.0
 11
477.591194
 21
402.270515
 31
0.0
  0
LINE
  5
4FC
330
4F6
100
AcDbEntity
  8
LC-001-100-D00-0
 62
     7
370
    25
100
AcDbLine
 10
469.213599
 20
401.667853
 30
0.0
 11
468.713599
 21
402.167853
 31
0.0
  0
LINE
  5
4FD
330
4F6
100
AcDbEntity
  8
LC-001-100-D00-0
 62
     7
370
    25
100
AcDbLine
 10
460.233343
 20
401.667853
 30
0.0
 11
459.733343
 21
402.167853
 31
0.0
  0
LINE
  5
4FE
330
4F6
100
AcDbEntity
  8
LC-001-100-D00-0
 62
     7
370
    25
100
AcDbLine
 10
454.564433
 20
398.356507
 30
0.0
 11
454.064433
 21
398.856507
 31
0.0
  0
LINE
  5
4FF
330
4F6
100
AcDbEntity
  8
LC-001-100-D00-0
 62
     7
370
    25
100
AcDbLine
 10
454.564433
 20
389.376251
 30
0.0
 11
454.064433
 21
389.876251
 31
0.0
  0
LINE
  5
500
330
4F6
100
AcDbEntity
  8
LC-001-100-D00-0
 62
     7
370
    25
100
AcDbLine
 10
454.269874
 20
380.690554
 30
0.0
 11
453.895976
 21
381.064452
 31
0.0
  0
LINE
  5
501
330
4F6
100
AcDbEntity
  8
LC-001-100-D00-0
 62
     7
370
    25
100
AcDbLine
 10
450.314433
 20
375.665738
 30
0.0
 11
449.814433
 21
376.165738
 31
0.0
  0
ENDBLK
  5
4F8
330
4F6
100
AcDbEntity
  8
0
100
AcDbBlockEnd
  0
BLOCK
  5
504
330
503
100
AcDbEntity
  8
0
100
AcDbBlockBegin
  2
KLON28
 70
     0
 71
     0
 10
0.0
 20
0.0
 30
0.0
  3
KLON28
  1

  4
KLON28
  0
LINE
  5
506
330
503
100
AcDbEntity
  8
LC-001-100-D00-0
 62
     7
370
    25
100
AcDbLine
 10
295.564433
 20
395.711897
 30
0.0
 11
295.064433
 21
396.211897
 31
0.0
  0
LINE
  5
507
330
503
100
AcDbEntity
  8
LC-001-100-D00-0
 62
     7
370
    25
100
AcDbLine
 10
289.608477
 20
401.667853
 30
0.0
 11
289.108477
 21
402.167853
 31
0.0
  0
LINE
  5
508
330
503
100
AcDbEntity
  8
LC-001-100-D00-0
 62
     7
370
    25
100
AcDbLine
 10
295.564433
 20
386.731641
 30
0.0
 11
295.064433
 21
387.231641
 31
0.0
  0
ENDBLK
  5
505
330
503
100
AcDbEntity
  8
0
100
AcDbBlockEnd
  0
BLOCK
  5
50B
330
50A
100
AcDbEntity
  8
0
100
AcDbBlockBegin
  2
KLON29
 70
     0
 71
     0
 10
0.0
 20
0.0
 30
0.0
  3
KLON29
  1

  4
KLON29
  0
LINE
  5
50D
330
50A
100
AcDbEntity
  8
LC-001-100-D00-0
 62
     7
370
    25
100
AcDbLine
 10
271.490552
 20
401.825265
 30
0.0
 11
270.928751
 21
402.387067
 31
0.0
  0
LINE
  5
50E
330
50A
100
AcDbEntity
  8
LC-001-100-D00-0
 62
     7
370
    25
100
AcDbLine
 10
261.455578
 20
402.879984
 30
0.0
 11
260.893776
 21
403.441786
 31
0.0
  0
ENDBLK
  5
50C
330
50A
100
AcDbEntity
  8
0
100
AcDbBlockEnd
  0
BLOCK
  5
511
330
510
100
AcDbEntity
  8
0
100
AcDbBlockBegin
  2
KLON30
 70
     0
 71
     0
 10
0.0
 20
0.0
 30
0.0
  3
KLON30
  1

  4
KLON30
  0
LINE
  5
513
330
510
100
AcDbEntity
  8
LC-001-100-D00-0
 62
     7
370
    25
100
AcDbLine
 10
309.130048
 20
301.323977
 30
0.0
 11
307.300917
 21
303.153108
 31
0.0
  0
LINE
  5
514
330
510
100
AcDbEntity
  8
LC-001-100-D00-0
 62
     7
370
    25
100
AcDbLine
 10
308.000945
 20
293.472824
 30
0.0
 11
307.300917
 21
294.172852
 31
0.0
  0
LINE
  5
515
330
510
100
AcDbEntity
  8
LC-001-100-D00-0
 62
     7
370
    25
100
AcDbLine
 10
308.000945
 20
284.492568
 30
0.0
 11
307.300917
 21
285.192596
 31
0.0
  0
ENDBLK
  5
512
330
510
100
AcDbEntity
  8
0
100
AcDbBlockEnd
  0
BLOCK
  5
518
330
517
100
AcDbEntity
  8
0
100
AcDbBlockBegin
  2
KLON31
 70
     0
 71
     0
 10
0.0
 20
0.0
 30
0.0
  3
KLON31
  1

  4
KLON31
  0
LINE
  5
51A
330
517
100
AcDbEntity
  8
LC-001-100-D00-0
 62
     7
370
    25
100
AcDbLine
 10
300.201264
 20
301.272505
 30
0.0
 11
297.649792
 21
303.823977
 31
0.0
  0
LINE
  5
51B
330
517
100
AcDbEntity
  8
LC-001-100-D00-0
 62
     7
370
    25
100
AcDbLine
 10
300.201264
 20
292.292249
 30
0.0
 11
299.501235
 21
292.992278
 31
0.0
  0
LINE
  5
51C
330
517
100
AcDbEntity
  8
LC-001-100-D00-0
 62
     7
370
    25
100
AcDbLine
 10
300.201264
 20
283.311993
 30
0.0
 11
299.501235
 21
284.012022
 31
0.0
  0
ENDBLK
  5
519
330
517
100
AcDbEntity
  8
0
100
AcDbBlockEnd
  0
BLOCK
  5
51F
330
51E
100
AcDbEntity
  8
0
100
AcDbBlockBegin
  2
KLON32
 70
     0
 71
     0
 10
0.0
 20
0.0
 30
0.0
  3
KLON32
  1

  4
KLON32
  0
LINE
  5
521
330
51E
100
AcDbEntity
  8
LC-001-100-D00-0
 62
     7
370
    25
100
AcDbLine
 10
448.385638
 20
308.907281
 30
0.0
 11
449.73113
 21
310.252772
 31
0.0
  0
LINE
  5
522
330
51E
100
AcDbEntity
  8
LC-001-100-D00-0
 62
     7
370
    25
100
AcDbLine
 10
441.814433
 20
311.316332
 30
0.0
 11
449.764814
 21
319.266713
 31
0.0
  0
ENDBLK
  5
520
330
51E
100
AcDbEntity
  8
0
100
AcDbBlockEnd
  0
BLOCK
  5
525
330
524
100
AcDbEntity
  8
0
100
AcDbBlockBegin
  2
KLON33
 70
     0
 71
     0
 10
0.0
 20
0.0
 30
0.0
  3
KLON33
  1

  4
KLON33
  0
LINE
  5
527
330
524
100
AcDbEntity
  8
LC-001-100-D00-0
 62
     7
370
    25
100
AcDbLine
 10
302.183871
 20
108.823977
 30
0.0
 11
306.750885
 21
113.39099
 31
0.0
  0
LINE
  5
528
330
524
100
AcDbEntity
  8
LC-001-100-D00-0
 62
     7
370
    25
100
AcDbLine
 10
300.751295
 20
116.371657
 30
0.0
 11
306.750885
 21
122.371247
 31
0.0
  0
LINE
  5
529
330
524
100
AcDbEntity
  8
LC-001-100-D00-0
 62
     7
370
    25
100
AcDbLine
 10
300.751295
 20
125.351913
 30
0.0
 11
306.750885
 21
131.351503
 31
0.0
  0
LINE
  5
52A
330
524
100
AcDbEntity
  8
LC-001-100-D00-0
 62
     7
370
    25
100
AcDbLine
 10
300.751295
 20
134.332169
 30
0.0
 11
306.750885
 21
140.331759
 31
0.0
  0
LINE
  5
52B
330
524
100
AcDbEntity
  8
LC-001-100-D00-0
 62
     7
370
    25
100
AcDbLine
 10
300.751295
 20
143.312425
 30
0.0
 11
306.750885
 21
149.312015
 31
0.0
  0
LINE
  5
52C
330
524
100
AcDbEntity
  8
LC-001-100-D00-0
 62
     7
370
    25
100
AcDbLine
 10
300.751295
 20
152.292682
 30
0.0
 11
306.750885
 21
158.292271
 31
0.0
  0
LINE
  5
52D
330
524
100
AcDbEntity
  8
LC-001-100-D00-0
 62
     7
370
    25
100
AcDbLine
 10
300.751295
 20
161.272938
 30
0.0
 11
306.750885
 21
167.272527
 31
0.0
  0
LINE
  5
52E
330
524
100
AcDbEntity
  8
LC-001-100-D00-0
 62
     7
370
    25
100
AcDbLine
 10
300.751295
 20
170.253194
 30
0.0
 11
306.750885
 21
176.252783
 31
0.0
  0
LINE
  5
52F
330
524
100
AcDbEntity
  8
LC-001-100-D00-0
 62
     7
370
    25
100
AcDbLine
 10
300.751295
 20
179.23345
 30
0.0
 11
306.750885
 21
185.233039
 31
0.0
  0
LINE
  5
530
330
524
100
AcDbEntity
  8
LC-001-100-D00-0
 62
     7
370
    25
100
AcDbLine
 10
300.751295
 20
188.213706
 30
0.0
 11
306.750885
 21
194.213296
 31
0.0
  0
LINE
  5
531
330
524
100
AcDbEntity
  8
LC-001-100-D00-0
 62
     7
370
    25
100
AcDbLine
 10
300.751295
 20
197.193962
 30
0.0
 11
306.750885
 21
203.193552
 31
0.0
  0
LINE
  5
532
330
524
100
AcDbEntity
  8
LC-001-100-D00-0
 62
     7
370
    25
100
AcDbLine
 10
300.751295
 20
206.174218
 30
0.0
 11
306.750885
 21
212.173808
 31
0.0
  0
LINE
  5
533
330
524
100
AcDbEntity
  8
LC-001-100-D00-0
 62
     7
370
    25
100
AcDbLine
 10
300.751295
 20
215.154474
 30
0.0
 11
306.750885
 21
221.154064
 31
0.0
  0
LINE
  5
534
330
524
100
AcDbEntity
  8
LC-001-100-D00-0
 62
     7
370
    25
100
AcDbLine
 10
300.751295
 20
224.134731
 30
0.0
 11
306.750885
 21
230.13432
 31
0.0
  0
LINE
  5
535
330
524
100
AcDbEntity
  8
LC-001-100-D00-0
 62
     7
370
    25
100
AcDbLine
 10
300.751295
 20
233.114987
 30
0.0
 11
306.750885
 21
239.114576
 31
0.0
  0
LINE
  5
536
330
524
100
AcDbEntity
  8
LC-001-100-D00-0
 62
     7
370
    25
100
AcDbLine
 10
300.751295
 20
242.095243
 30
0.0
 11
306.750885
 21
248.094832
 31
0.0
  0
LINE
  5
537
330
524
100
AcDbEntity
  8
LC-001-100-D00-0
 62
     7
370
    25
100
AcDbLine
 10
300.751295
 20
251.075499
 30
0.0
 11
306.750885
 21
257.075088
 31
0.0
  0
LINE
  5
538
330
524
100
AcDbEntity
  8
LC-001-100-D00-0
 62
     7
370
    25
100
AcDbLine
 10
300.751295
 20
260.055755
 30
0.0
 11
306.750885
 21
266.055344
 31
0.0
  0
LINE
  5
539
330
524
100
AcDbEntity
  8
LC-001-100-D00-0
 62
     7
370
    25
100
AcDbLine
 10
300.751295
 20
269.036011
 30
0.0
 11
306.750885
 21
275.035601
 31
0.0
  0
LINE
  5
53A
330
524
100
AcDbEntity
  8
LC-001-100-D00-0
 62
     7
370
    25
100
AcDbLine
 10
300.751295
 20
278.016267
 30
0.0
 11
306.750885
 21
284.015857
 31
0.0
  0
LINE
  5
53B
330
524
100
AcDbEntity
  8
LC-001-100-D00-0
 62
     7
370
    25
100
AcDbLine
 10
300.751295
 20
286.996523
 30
0.0
 11
306.750885
 21
292.996113
 31
0.0
  0
LINE
  5
53C
330
524
100
AcDbEntity
  8
LC-001-100-D00-0
 62
     7
370
    25
100
AcDbLine
 10
300.751295
 20
295.976779
 30
0.0
 11
306.750885
 21
301.976369
 31
0.0
  0
LINE
  5
53D
330
524
100
AcDbEntity
  8
LC-001-100-D00-0
 62
     7
370
    25
100
AcDbLine
 10
300.751295
 20
304.957036
 30
0.0
 11
307.814433
 21
312.020174
 31
0.0
  0
LINE
  5
53E
330
524
100
AcDbEntity
  8
LC-001-100-D00-0
 62
     7
370
    25
100
AcDbLine
 10
299.814433
 20
313.00043
 30
0.0
 11
307.137666
 21
320.323662
 31
0.0
  0
ENDBLK
  5
526
330
524
100
AcDbEntity
  8
0
100
AcDbBlockEnd
  0
BLOCK
  5
54F
330
54E
100
AcDbEntity
  8
0
100
AcDbBlockBegin
  2
*X160
 70
     1
 71
     0
 10
0.0
 20
0.0
 30
0.0
  3
*X160
  1

  4
*X1
  0
LINE
  5
552
330
54E
100
AcDbEntity
  8
LC-004-005-----0
 62
     7
370
    25
100
AcDbLine
 10
134.38614
 20
400.823976
 30
0.0
 11
134.814426
 21
401.252261
 31
0.0
  0
LINE
  5
553
330
54E
100
AcDbEntity
  8
LC-004-005-----0
 62
     7
370
    25
100
AcDbLine
 10
133.820455
 20
400.823976
 30
0.0
 11
134.814426
 21
401.817946
 31
0.0
  0
LINE
  5
554
330
54E
100
AcDbEntity
  8
LC-004-005-----0
 62
     7
370
    25
100
AcDbLine
 10
133.25477
 20
400.823976
 30
0.0
 11
134.814426
 21
402.383632
 31
0.0
  0
LINE
  5
555
330
54E
100
AcDbEntity
  8
LC-004-005-----0
 62
     7
370
    25
100
AcDbLine
 10
132.689084
 20
400.823976
 30
0.0
 11
134.814426
 21
402.949317
 31
0.0
  0
LINE
  5
556
330
54E
100
AcDbEntity
  8
LC-004-005-----0
 62
     7
370
    25
100
AcDbLine
 10
132.123399
 20
400.823976
 30
0.0
 11
134.814426
 21
403.515003
 31
0.0
  0
LINE
  5
557
330
54E
100
AcDbEntity
  8
LC-004-005-----0
 62
     7
370
    25
100
AcDbLine
 10
131.557713
 20
400.823976
 30
0.0
 11
134.814426
 21
404.080688
 31
0.0
  0
LINE
  5
558
330
54E
100
AcDbEntity
  8
LC-004-005-----0
 62
     7
370
    25
100
AcDbLine
 10
130.992028
 20
400.823976
 30
0.0
 11
134.814426
 21
404.646373
 31
0.0
  0
LINE
  5
559
330
54E
100
AcDbEntity
  8
LC-004-005-----0
 62
     7
370
    25
100
AcDbLine
 10
130.426342
 20
400.823976
 30
0.0
 11
134.814426
 21
405.212059
 31
0.0
  0
LINE
  5
55A
330
54E
100
AcDbEntity
  8
LC-004-005-----0
 62
     7
370
    25
100
AcDbLine
 10
129.860657
 20
400.823976
 30
0.0
 11
134.560657
 21
405.523976
 31
0.0
  0
LINE
  5
55B
330
54E
100
AcDbEntity
  8
LC-004-005-----0
 62
     7
370
    25
100
AcDbLine
 10
129.294972
 20
400.823976
 30
0.0
 11
133.994972
 21
405.523976
 31
0.0
  0
LINE
  5
55C
330
54E
100
AcDbEntity
  8
LC-004-005-----0
 62
     7
370
    25
100
AcDbLine
 10
128.729286
 20
400.823976
 30
0.0
 11
133.429286
 21
405.523976
 31
0.0
  0
LINE
  5
55D
330
54E
100
AcDbEntity
  8
LC-004-005-----0
 62
     7
370
    25
100
AcDbLine
 10
128.163601
 20
400.823976
 30
0.0
 11
132.863601
 21
405.523976
 31
0.0
  0
LINE
  5
55E
330
54E
100
AcDbEntity
  8
LC-004-005-----0
 62
     7
370
    25
100
AcDbLine
 10
127.597915
 20
400.823976
 30
0.0
 11
132.297915
 21
405.523976
 31
0.0
  0
LINE
  5
55F
330
54E
100
AcDbEntity
  8
LC-004-005-----0
 62
     7
370
    25
100
AcDbLine
 10
127.03223
 20
400.823976
 30
0.0
 11
131.73223
 21
405.523976
 31
0.0
  0
LINE
  5
560
330
54E
100
AcDbEntity
  8
LC-004-005-----0
 62
     7
370
    25
100
AcDbLine
 10
126.466545
 20
400.823976
 30
0.0
 11
131.166545
 21
405.523976
 31
0.0
  0
LINE
  5
561
330
54E
100
AcDbEntity
  8
LC-004-005-----0
 62
     7
370
    25
100
AcDbLine
 10
125.900859
 20
400.823976
 30
0.0
 11
130.600859
 21
405.523976
 31
0.0
  0
LINE
  5
562
330
54E
100
AcDbEntity
  8
LC-004-005-----0
 62
     7
370
    25
100
AcDbLine
 10
125.335174
 20
400.823976
 30
0.0
 11
130.035174
 21
405.523976
 31
0.0
  0
LINE
  5
563
330
54E
100
AcDbEntity
  8
LC-004-005-----0
 62
     7
370
    25
100
AcDbLine
 10
124.814426
 20
400.868913
 30
0.0
 11
129.469488
 21
405.523976
 31
0.0
  0
LINE
  5
564
330
54E
100
AcDbEntity
  8
LC-004-005-----0
 62
     7
370
    25
100
AcDbLine
 10
124.814426
 20
401.434598
 30
0.0
 11
128.903803
 21
405.523976
 31
0.0
  0
LINE
  5
565
330
54E
100
AcDbEntity
  8
LC-004-005-----0
 62
     7
370
    25
100
AcDbLine
 10
124.814426
 20
402.000284
 30
0.0
 11
128.338117
 21
405.523976
 31
0.0
  0
LINE
  5
566
330
54E
100
AcDbEntity
  8
LC-004-005-----0
 62
     7
370
    25
100
AcDbLine
 10
124.814426
 20
402.565969
 30
0.0
 11
127.772432
 21
405.523976
 31
0.0
  0
LINE
  5
567
330
54E
100
AcDbEntity
  8
LC-004-005-----0
 62
     7
370
    25
100
AcDbLine
 10
124.814426
 20
403.131655
 30
0.0
 11
127.206747
 21
405.523976
 31
0.0
  0
LINE
  5
568
330
54E
100
AcDbEntity
  8
LC-004-005-----0
 62
     7
370
    25
100
AcDbLine
 10
124.814426
 20
403.69734
 30
0.0
 11
126.641061
 21
405.523976
 31
0.0
  0
LINE
  5
569
330
54E
100
AcDbEntity
  8
LC-004-005-----0
 62
     7
370
    25
100
AcDbLine
 10
124.814426
 20
404.263026
 30
0.0
 11
126.075376
 21
405.523976
 31
0.0
  0
LINE
  5
56A
330
54E
100
AcDbEntity
  8
LC-004-005-----0
 62
     7
370
    25
100
AcDbLine
 10
124.814426
 20
404.828711
 30
0.0
 11
125.50969
 21
405.523976
 31
0.0
  0
LINE
  5
56B
330
54E
100
AcDbEntity
  8
LC-004-005-----0
 62
     7
370
    25
100
AcDbLine
 10
124.814426
 20
405.394396
 30
0.0
 11
124.944005
 21
405.523976
 31
0.0
  0
ENDBLK
  5
550
330
54E
100
AcDbEntity
  8
0
100
AcDbBlockEnd
  0
BLOCK
  5
56E
330
56D
100
AcDbEntity
  8
0
100
AcDbBlockBegin
  2
*X261
 70
     1
 71
     0
 10
0.0
 20
0.0
 30
0.0
  3
*X261
  1

  4
*X2
  0
LINE
  5
570
330
56D
100
AcDbEntity
  8
LC-004-005-----0
 62
     7
370
    25
100
AcDbLine
 10
154.750816
 20
400.823976
 30
0.0
 11
154.814426
 21
400.887586
 31
0.0
  0
LINE
  5
571
330
56D
100
AcDbEntity
  8
LC-004-005-----0
 62
     7
370
    25
100
AcDbLine
 10
154.18513
 20
400.823976
 30
0.0
 11
154.814426
 21
401.453271
 31
0.0
  0
LINE
  5
572
330
56D
100
AcDbEntity
  8
LC-004-005-----0
 62
     7
370
    25
100
AcDbLine
 10
153.619445
 20
400.823976
 30
0.0
 11
154.814426
 21
402.018956
 31
0.0
  0
LINE
  5
573
330
56D
100
AcDbEntity
  8
LC-004-005-----0
 62
     7
370
    25
100
AcDbLine
 10
153.053759
 20
400.823976
 30
0.0
 11
154.814426
 21
402.584642
 31
0.0
  0
LINE
  5
574
330
56D
100
AcDbEntity
  8
LC-004-005-----0
 62
     7
370
    25
100
AcDbLine
 10
152.488074
 20
400.823976
 30
0.0
 11
154.814426
 21
403.150327
 31
0.0
  0
LINE
  5
575
330
56D
100
AcDbEntity
  8
LC-004-005-----0
 62
     7
370
    25
100
AcDbLine
 10
151.922389
 20
400.823976
 30
0.0
 11
154.814426
 21
403.716013
 31
0.0
  0
LINE
  5
576
330
56D
100
AcDbEntity
  8
LC-004-005-----0
 62
     7
370
    25
100
AcDbLine
 10
151.356703
 20
400.823976
 30
0.0
 11
154.814426
 21
404.281698
 31
0.0
  0
LINE
  5
577
330
56D
100
AcDbEntity
  8
LC-004-005-----0
 62
     7
370
    25
100
AcDbLine
 10
150.791018
 20
400.823976
 30
0.0
 11
154.814426
 21
404.847383
 31
0.0
  0
LINE
  5
578
330
56D
100
AcDbEntity
  8
LC-004-005-----0
 62
     7
370
    25
100
AcDbLine
 10
150.225332
 20
400.823976
 30
0.0
 11
154.814426
 21
405.413069
 31
0.0
  0
LINE
  5
579
330
56D
100
AcDbEntity
  8
LC-004-005-----0
 62
     7
370
    25
100
AcDbLine
 10
149.659647
 20
400.823976
 30
0.0
 11
154.359647
 21
405.523976
 31
0.0
  0
LINE
  5
57A
330
56D
100
AcDbEntity
  8
LC-004-005-----0
 62
     7
370
    25
100
AcDbLine
 10
149.093962
 20
400.823976
 30
0.0
 11
153.793962
 21
405.523976
 31
0.0
  0
LINE
  5
57B
330
56D
100
AcDbEntity
  8
LC-004-005-----0
 62
     7
370
    25
100
AcDbLine
 10
148.528276
 20
400.823976
 30
0.0
 11
153.228276
 21
405.523976
 31
0.0
  0
LINE
  5
57C
330
56D
100
AcDbEntity
  8
LC-004-005-----0
 62
     7
370
    25
100
AcDbLine
 10
147.962591
 20
400.823976
 30
0.0
 11
152.662591
 21
405.523976
 31
0.0
  0
LINE
  5
57D
330
56D
100
AcDbEntity
  8
LC-004-005-----0
 62
     7
370
    25
100
AcDbLine
 10
147.396905
 20
400.823976
 30
0.0
 11
152.096905
 21
405.523976
 31
0.0
  0
LINE
  5
57E
330
56D
100
AcDbEntity
  8
LC-004-005-----0
 62
     7
370
    25
100
AcDbLine
 10
146.83122
 20
400.823976
 30
0.0
 11
151.53122
 21
405.523976
 31
0.0
  0
LINE
  5
57F
330
56D
100
AcDbEntity
  8
LC-004-005-----0
 62
     7
370
    25
100
AcDbLine
 10
146.265534
 20
400.823976
 30
0.0
 11
150.965534
 21
405.523976
 31
0.0
  0
LINE
  5
580
330
56D
100
AcDbEntity
  8
LC-004-005-----0
 62
     7
370
    25
100
AcDbLine
 10
145.699849
 20
400.823976
 30
0.0
 11
150.399849
 21
405.523976
 31
0.0
  0
LINE
  5
581
330
56D
100
AcDbEntity
  8
LC-004-005-----0
 62
     7
370
    25
100
AcDbLine
 10
145.134164
 20
400.823976
 30
0.0
 11
149.834164
 21
405.523976
 31
0.0
  0
LINE
  5
582
330
56D
100
AcDbEntity
  8
LC-004-005-----0
 62
     7
370
    25
100
AcDbLine
 10
144.814426
 20
401.069923
 30
0.0
 11
149.268478
 21
405.523976
 31
0.0
  0
LINE
  5
583
330
56D
100
AcDbEntity
  8
LC-004-005-----0
 62
     7
370
    25
100
AcDbLine
 10
144.814426
 20
401.635609
 30
0.0
 11
148.702793
 21
405.523976
 31
0.0
  0
LINE
  5
584
330
56D
100
AcDbEntity
  8
LC-004-005-----0
 62
     7
370
    25
100
AcDbLine
 10
144.814426
 20
402.201294
 30
0.0
 11
148.137107
 21
405.523976
 31
0.0
  0
LINE
  5
585
330
56D
100
AcDbEntity
  8
LC-004-005-----0
 62
     7
370
    25
100
AcDbLine
 10
144.814426
 20
402.766979
 30
0.0
 11
147.571422
 21
405.523976
 31
0.0
  0
LINE
  5
586
330
56D
100
AcDbEntity
  8
LC-004-005-----0
 62
     7
370
    25
100
AcDbLine
 10
144.814426
 20
403.332665
 30
0.0
 11
147.005736
 21
405.523976
 31
0.0
  0
LINE
  5
587
330
56D
100
AcDbEntity
  8
LC-004-005-----0
 62
     7
370
    25
100
AcDbLine
 10
144.814426
 20
403.89835
 30
0.0
 11
146.440051
 21
405.523976
 31
0.0
  0
LINE
  5
588
330
56D
100
AcDbEntity
  8
LC-004-005-----0
 62
     7
370
    25
100
AcDbLine
 10
144.814426
 20
404.464036
 30
0.0
 11
145.874366
 21
405.523976
 31
0.0
  0
LINE
  5
589
330
56D
100
AcDbEntity
  8
LC-004-005-----0
 62
     7
370
    25
100
AcDbLine
 10
144.814426
 20
405.029721
 30
0.0
 11
145.30868
 21
405.523976
 31
0.0
  0
ENDBLK
  5
56F
330
56D
100
AcDbEntity
  8
0
100
AcDbBlockEnd
  0
BLOCK
  5
58C
330
58B
100
AcDbEntity
  8
0
100
AcDbBlockBegin
  2
*X362
 70
     1
 71
     0
 10
0.0
 20
0.0
 30
0.0
  3
*X362
  1

  4
*X3
  0
LINE
  5
58E
330
58B
100
AcDbEntity
  8
LC-004-005-----0
 62
     7
370
    25
100
AcDbLine
 10
174.549806
 20
400.823976
 30
0.0
 11
174.814426
 21
401.088596
 31
0.0
  0
LINE
  5
58F
330
58B
100
AcDbEntity
  8
LC-004-005-----0
 62
     7
370
    25
100
AcDbLine
 10
173.98412
 20
400.823976
 30
0.0
 11
174.814426
 21
401.654281
 31
0.0
  0
LINE
  5
590
330
58B
100
AcDbEntity
  8
LC-004-005-----0
 62
     7
370
    25
100
AcDbLine
 10
173.418435
 20
400.823976
 30
0.0
 11
174.814426
 21
402.219966
 31
0.0
  0
LINE
  5
591
330
58B
100
AcDbEntity
  8
LC-004-005-----0
 62
     7
370
    25
100
AcDbLine
 10
172.852749
 20
400.823976
 30
0.0
 11
174.814426
 21
402.785652
 31
0.0
  0
LINE
  5
592
330
58B
100
AcDbEntity
  8
LC-004-005-----0
 62
     7
370
    25
100
AcDbLine
 10
172.287064
 20
400.823976
 30
0.0
 11
174.814426
 21
403.351337
 31
0.0
  0
LINE
  5
593
330
58B
100
AcDbEntity
  8
LC-004-005-----0
 62
     7
370
    25
100
AcDbLine
 10
171.721379
 20
400.823976
 30
0.0
 11
174.814426
 21
403.917023
 31
0.0
  0
LINE
  5
594
330
58B
100
AcDbEntity
  8
LC-004-005-----0
 62
     7
370
    25
100
AcDbLine
 10
171.155693
 20
400.823976
 30
0.0
 11
174.814426
 21
404.482708
 31
0.0
  0
LINE
  5
595
330
58B
100
AcDbEntity
  8
LC-004-005-----0
 62
     7
370
    25
100
AcDbLine
 10
170.590008
 20
400.823976
 30
0.0
 11
174.814426
 21
405.048394
 31
0.0
  0
LINE
  5
596
330
58B
100
AcDbEntity
  8
LC-004-005-----0
 62
     7
370
    25
100
AcDbLine
 10
170.024322
 20
400.823976
 30
0.0
 11
174.724322
 21
405.523976
 31
0.0
  0
LINE
  5
597
330
58B
100
AcDbEntity
  8
LC-004-005-----0
 62
     7
370
    25
100
AcDbLine
 10
169.458637
 20
400.823976
 30
0.0
 11
174.158637
 21
405.523976
 31
0.0
  0
LINE
  5
598
330
58B
100
AcDbEntity
  8
LC-004-005-----0
 62
     7
370
    25
100
AcDbLine
 10
168.892951
 20
400.823976
 30
0.0
 11
173.592951
 21
405.523976
 31
0.0
  0
LINE
  5
599
330
58B
100
AcDbEntity
  8
LC-004-005-----0
 62
     7
370
    25
100
AcDbLine
 10
168.327266
 20
400.823976
 30
0.0
 11
173.027266
 21
405.523976
 31
0.0
  0
LINE
  5
59A
330
58B
100
AcDbEntity
  8
LC-004-005-----0
 62
     7
370
    25
100
AcDbLine
 10
167.761581
 20
400.823976
 30
0.0
 11
172.461581
 21
405.523976
 31
0.0
  0
LINE
  5
59B
330
58B
100
AcDbEntity
  8
LC-004-005-----0
 62
     7
370
    25
100
AcDbLine
 10
167.195895
 20
400.823976
 30
0.0
 11
171.895895
 21
405.523976
 31
0.0
  0
LINE
  5
59C
330
58B
100
AcDbEntity
  8
LC-004-005-----0
 62
     7
370
    25
100
AcDbLine
 10
166.63021
 20
400.823976
 30
0.0
 11
171.33021
 21
405.523976
 31
0.0
  0
LINE
  5
59D
330
58B
100
AcDbEntity
  8
LC-004-005-----0
 62
     7
370
    25
100
AcDbLine
 10
166.064524
 20
400.823976
 30
0.0
 11
170.764524
 21
405.523976
 31
0.0
  0
LINE
  5
59E
330
58B
100
AcDbEntity
  8
LC-004-005-----0
 62
     7
370
    25
100
AcDbLine
 10
165.498839
 20
400.823976
 30
0.0
 11
170.198839
 21
405.523976
 31
0.0
  0
LINE
  5
59F
330
58B
100
AcDbEntity
  8
LC-004-005-----0
 62
     7
370
    25
100
AcDbLine
 10
164.933153
 20
400.823976
 30
0.0
 11
169.633153
 21
405.523976
 31
0.0
  0
LINE
  5
5A0
330
58B
100
AcDbEntity
  8
LC-004-005-----0
 62
     7
370
    25
100
AcDbLine
 10
164.814426
 20
401.270933
 30
0.0
 11
169.067468
 21
405.523976
 31
0.0
  0
LINE
  5
5A1
330
58B
100
AcDbEntity
  8
LC-004-005-----0
 62
     7
370
    25
100
AcDbLine
 10
164.814426
 20
401.836619
 30
0.0
 11
168.501783
 21
405.523976
 31
0.0
  0
LINE
  5
5A2
330
58B
100
AcDbEntity
  8
LC-004-005-----0
 62
     7
370
    25
100
AcDbLine
 10
164.814426
 20
402.402304
 30
0.0
 11
167.936097
 21
405.523976
 31
0.0
  0
LINE
  5
5A3
330
58B
100
AcDbEntity
  8
LC-004-005-----0
 62
     7
370
    25
100
AcDbLine
 10
164.814426
 20
402.96799
 30
0.0
 11
167.370412
 21
405.523976
 31
0.0
  0
LINE
  5
5A4
330
58B
100
AcDbEntity
  8
LC-004-005-----0
 62
     7
370
    25
100
AcDbLine
 10
164.814426
 20
403.533675
 30
0.0
 11
166.804726
 21
405.523976
 31
0.0
  0
LINE
  5
5A5
330
58B
100
AcDbEntity
  8
LC-004-005-----0
 62
     7
370
    25
100
AcDbLine
 10
164.814426
 20
404.09936
 30
0.0
 11
166.239041
 21
405.523976
 31
0.0
  0
LINE
  5
5A6
330
58B
100
AcDbEntity
  8
LC-004-005-----0
 62
     7
370
    25
100
AcDbLine
 10
164.814426
 20
404.665046
 30
0.0
 11
165.673355
 21
405.523976
 31
0.0
  0
LINE
  5
5A7
330
58B
100
AcDbEntity
  8
LC-004-005-----0
 62
     7
370
    25
100
AcDbLine
 10
164.814426
 20
405.230731
 30
0.0
 11
165.10767
 21
405.523976
 31
0.0
  0
ENDBLK
  5
58D
330
58B
100
AcDbEntity
  8
0
100
AcDbBlockEnd
  0
BLOCK
  5
5AA
330
5A9
100
AcDbEntity
  8
0
100
AcDbBlockBegin
  2
*X463
 70
     1
 71
     0
 10
0.0
 20
0.0
 30
0.0
  3
*X463
  1

  4
*X4
  0
LINE
  5
5AC
330
5A9
100
AcDbEntity
  8
LC-004-005-----0
 62
     7
370
    25
100
AcDbLine
 10
194.348796
 20
400.823976
 30
0.0
 11
194.814426
 21
401.289606
 31
0.0
  0
LINE
  5
5AD
330
5A9
100
AcDbEntity
  8
LC-004-005-----0
 62
     7
370
    25
100
AcDbLine
 10
193.78311
 20
400.823976
 30
0.0
 11
194.814426
 21
401.855291
 31
0.0
  0
LINE
  5
5AE
330
5A9
100
AcDbEntity
  8
LC-004-005-----0
 62
     7
370
    25
100
AcDbLine
 10
193.217425
 20
400.823976
 30
0.0
 11
194.814426
 21
402.420977
 31
0.0
  0
LINE
  5
5AF
330
5A9
100
AcDbEntity
  8
LC-004-005-----0
 62
     7
370
    25
100
AcDbLine
 10
192.651739
 20
400.823976
 30
0.0
 11
194.814426
 21
402.986662
 31
0.0
  0
LINE
  5
5B0
330
5A9
100
AcDbEntity
  8
LC-004-005-----0
 62
     7
370
    25
100
AcDbLine
 10
192.086054
 20
400.823976
 30
0.0
 11
194.814426
 21
403.552347
 31
0.0
  0
LINE
  5
5B1
330
5A9
100
AcDbEntity
  8
LC-004-005-----0
 62
     7
370
    25
100
AcDbLine
 10
191.520368
 20
400.823976
 30
0.0
 11
194.814426
 21
404.118033
 31
0.0
  0
LINE
  5
5B2
330
5A9
100
AcDbEntity
  8
LC-004-005-----0
 62
     7
370
    25
100
AcDbLine
 10
190.954683
 20
400.823976
 30
0.0
 11
194.814426
 21
404.683718
 31
0.0
  0
LINE
  5
5B3
330
5A9
100
AcDbEntity
  8
LC-004-005-----0
 62
     7
370
    25
100
AcDbLine
 10
190.388998
 20
400.823976
 30
0.0
 11
194.814426
 21
405.249404
 31
0.0
  0
LINE
  5
5B4
330
5A9
100
AcDbEntity
  8
LC-004-005-----0
 62
     7
370
    25
100
AcDbLine
 10
189.823312
 20
400.823976
 30
0.0
 11
194.523312
 21
405.523976
 31
0.0
  0
LINE
  5
5B5
330
5A9
100
AcDbEntity
  8
LC-004-005-----0
 62
     7
370
    25
100
AcDbLine
 10
189.257627
 20
400.823976
 30
0.0
 11
193.957627
 21
405.523976
 31
0.0
  0
LINE
  5
5B6
330
5A9
100
AcDbEntity
  8
LC-004-005-----0
 62
     7
370
    25
100
AcDbLine
 10
188.691941
 20
400.823976
 30
0.0
 11
193.391941
 21
405.523976
 31
0.0
  0
LINE
  5
5B7
330
5A9
100
AcDbEntity
  8
LC-004-005-----0
 62
     7
370
    25
100
AcDbLine
 10
188.126256
 20
400.823976
 30
0.0
 11
192.826256
 21
405.523976
 31
0.0
  0
LINE
  5
5B8
330
5A9
100
AcDbEntity
  8
LC-004-005-----0
 62
     7
370
    25
100
AcDbLine
 10
187.56057
 20
400.823976
 30
0.0
 11
192.26057
 21
405.523976
 31
0.0
  0
LINE
  5
5B9
330
5A9
100
AcDbEntity
  8
LC-004-005-----0
 62
     7
370
    25
100
AcDbLine
 10
186.994885
 20
400.823976
 30
0.0
 11
191.694885
 21
405.523976
 31
0.0
  0
LINE
  5
5BA
330
5A9
100
AcDbEntity
  8
LC-004-005-----0
 62
     7
370
    25
100
AcDbLine
 10
186.4292
 20
400.823976
 30
0.0
 11
191.1292
 21
405.523976
 31
0.0
  0
LINE
  5
5BB
330
5A9
100
AcDbEntity
  8
LC-004-005-----0
 62
     7
370
    25
100
AcDbLine
 10
185.863514
 20
400.823976
 30
0.0
 11
190.563514
 21
405.523976
 31
0.0
  0
LINE
  5
5BC
330
5A9
100
AcDbEntity
  8
LC-004-005-----0
 62
     7
370
    25
100
AcDbLine
 10
185.297829
 20
400.823976
 30
0.0
 11
189.997829
 21
405.523976
 31
0.0
  0
LINE
  5
5BD
330
5A9
100
AcDbEntity
  8
LC-004-005-----0
 62
     7
370
    25
100
AcDbLine
 10
184.814426
 20
400.906258
 30
0.0
 11
189.432143
 21
405.523976
 31
0.0
  0
LINE
  5
5BE
330
5A9
100
AcDbEntity
  8
LC-004-005-----0
 62
     7
370
    25
100
AcDbLine
 10
184.814426
 20
401.471943
 30
0.0
 11
188.866458
 21
405.523976
 31
0.0
  0
LINE
  5
5BF
330
5A9
100
AcDbEntity
  8
LC-004-005-----0
 62
     7
370
    25
100
AcDbLine
 10
184.814426
 20
402.037629
 30
0.0
 11
188.300772
 21
405.523976
 31
0.0
  0
LINE
  5
5C0
330
5A9
100
AcDbEntity
  8
LC-004-005-----0
 62
     7
370
    25
100
AcDbLine
 10
184.814426
 20
402.603314
 30
0.0
 11
187.735087
 21
405.523976
 31
0.0
  0
LINE
  5
5C1
330
5A9
100
AcDbEntity
  8
LC-004-005-----0
 62
     7
370
    25
100
AcDbLine
 10
184.814426
 20
403.169
 30
0.0
 11
187.169402
 21
405.523976
 31
0.0
  0
LINE
  5
5C2
330
5A9
100
AcDbEntity
  8
LC-004-005-----0
 62
     7
370
    25
100
AcDbLine
 10
184.814426
 20
403.734685
 30
0.0
 11
186.603716
 21
405.523976
 31
0.0
  0
LINE
  5
5C3
330
5A9
100
AcDbEntity
  8
LC-004-005-----0
 62
     7
370
    25
100
AcDbLine
 10
184.814426
 20
404.300371
 30
0.0
 11
186.038031
 21
405.523976
 31
0.0
  0
LINE
  5
5C4
330
5A9
100
AcDbEntity
  8
LC-004-005-----0
 62
     7
370
    25
100
AcDbLine
 10
184.814426
 20
404.866056
 30
0.0
 11
185.472345
 21
405.523976
 31
0.0
  0
LINE
  5
5C5
330
5A9
100
AcDbEntity
  8
LC-004-005-----0
 62
     7
370
    25
100
AcDbLine
 10
184.814426
 20
405.431741
 30
0.0
 11
184.90666
 21
405.523976
 31
0.0
  0
ENDBLK
  5
5AB
330
5A9
100
AcDbEntity
  8
0
100
AcDbBlockEnd
  0
BLOCK
  5
5C8
330
5C7
100
AcDbEntity
  8
0
100
AcDbBlockBegin
  2
*X564
 70
     1
 71
     0
 10
0.0
 20
0.0
 30
0.0
  3
*X564
  1

  4
*X5
  0
LINE
  5
5CA
330
5C7
100
AcDbEntity
  8
LC-004-005-----0
 62
     7
370
    25
100
AcDbLine
 10
214.713471
 20
400.823976
 30
0.0
 11
214.814426
 21
400.92493
 31
0.0
  0
LINE
  5
5CB
330
5C7
100
AcDbEntity
  8
LC-004-005-----0
 62
     7
370
    25
100
AcDbLine
 10
214.147785
 20
400.823976
 30
0.0
 11
214.814426
 21
401.490616
 31
0.0
  0
LINE
  5
5CC
330
5C7
100
AcDbEntity
  8
LC-004-005-----0
 62
     7
370
    25
100
AcDbLine
 10
213.5821
 20
400.823976
 30
0.0
 11
214.814426
 21
402.056301
 31
0.0
  0
LINE
  5
5CD
330
5C7
100
AcDbEntity
  8
LC-004-005-----0
 62
     7
370
    25
100
AcDbLine
 10
213.016415
 20
400.823976
 30
0.0
 11
214.814426
 21
402.621987
 31
0.0
  0
LINE
  5
5CE
330
5C7
100
AcDbEntity
  8
LC-004-005-----0
 62
     7
370
    25
100
AcDbLine
 10
212.450729
 20
400.823976
 30
0.0
 11
214.814426
 21
403.187672
 31
0.0
  0
LINE
  5
5CF
330
5C7
100
AcDbEntity
  8
LC-004-005-----0
 62
     7
370
    25
100
AcDbLine
 10
211.885044
 20
400.823976
 30
0.0
 11
214.814426
 21
403.753358
 31
0.0
  0
LINE
  5
5D0
330
5C7
100
AcDbEntity
  8
LC-004-005-----0
 62
     7
370
    25
100
AcDbLine
 10
211.319358
 20
400.823976
 30
0.0
 11
214.814426
 21
404.319043
 31
0.0
  0
LINE
  5
5D1
330
5C7
100
AcDbEntity
  8
LC-004-005-----0
 62
     7
370
    25
100
AcDbLine
 10
210.753673
 20
400.823976
 30
0.0
 11
214.814426
 21
404.884728
 31
0.0
  0
LINE
  5
5D2
330
5C7
100
AcDbEntity
  8
LC-004-005-----0
 62
     7
370
    25
100
AcDbLine
 10
210.187987
 20
400.823976
 30
0.0
 11
214.814426
 21
405.450414
 31
0.0
  0
LINE
  5
5D3
330
5C7
100
AcDbEntity
  8
LC-004-005-----0
 62
     7
370
    25
100
AcDbLine
 10
209.622302
 20
400.823976
 30
0.0
 11
214.322302
 21
405.523976
 31
0.0
  0
LINE
  5
5D4
330
5C7
100
AcDbEntity
  8
LC-004-005-----0
 62
     7
370
    25
100
AcDbLine
 10
209.056617
 20
400.823976
 30
0.0
 11
213.756617
 21
405.523976
 31
0.0
  0
LINE
  5
5D5
330
5C7
100
AcDbEntity
  8
LC-004-005-----0
 62
     7
370
    25
100
AcDbLine
 10
208.490931
 20
400.823976
 30
0.0
 11
213.190931
 21
405.523976
 31
0.0
  0
LINE
  5
5D6
330
5C7
100
AcDbEntity
  8
LC-004-005-----0
 62
     7
370
    25
100
AcDbLine
 10
207.925246
 20
400.823976
 30
0.0
 11
212.625246
 21
405.523976
 31
0.0
  0
LINE
  5
5D7
330
5C7
100
AcDbEntity
  8
LC-004-005-----0
 62
     7
370
    25
100
AcDbLine
 10
207.35956
 20
400.823976
 30
0.0
 11
212.05956
 21
405.523976
 31
0.0
  0
LINE
  5
5D8
330
5C7
100
AcDbEntity
  8
LC-004-005-----0
 62
     7
370
    25
100
AcDbLine
 10
206.793875
 20
400.823976
 30
0.0
 11
211.493875
 21
405.523976
 31
0.0
  0
LINE
  5
5D9
330
5C7
100
AcDbEntity
  8
LC-004-005-----0
 62
     7
370
    25
100
AcDbLine
 10
206.228189
 20
400.823976
 30
0.0
 11
210.928189
 21
405.523976
 31
0.0
  0
LINE
  5
5DA
330
5C7
100
AcDbEntity
  8
LC-004-005-----0
 62
     7
370
    25
100
AcDbLine
 10
205.662504
 20
400.823976
 30
0.0
 11
210.362504
 21
405.523976
 31
0.0
  0
LINE
  5
5DB
330
5C7
100
AcDbEntity
  8
LC-004-005-----0
 62
     7
370
    25
100
AcDbLine
 10
205.096819
 20
400.823976
 30
0.0
 11
209.796819
 21
405.523976
 31
0.0
  0
LINE
  5
5DC
330
5C7
100
AcDbEntity
  8
LC-004-005-----0
 62
     7
370
    25
100
AcDbLine
 10
204.814426
 20
401.107268
 30
0.0
 11
209.231133
 21
405.523976
 31
0.0
  0
LINE
  5
5DD
330
5C7
100
AcDbEntity
  8
LC-004-005-----0
 62
     7
370
    25
100
AcDbLine
 10
204.814426
 20
401.672954
 30
0.0
 11
208.665448
 21
405.523976
 31
0.0
  0
LINE
  5
5DE
330
5C7
100
AcDbEntity
  8
LC-004-005-----0
 62
     7
370
    25
100
AcDbLine
 10
204.814426
 20
402.238639
 30
0.0
 11
208.099762
 21
405.523976
 31
0.0
  0
LINE
  5
5DF
330
5C7
100
AcDbEntity
  8
LC-004-005-----0
 62
     7
370
    25
100
AcDbLine
 10
204.814426
 20
402.804324
 30
0.0
 11
207.534077
 21
405.523976
 31
0.0
  0
LINE
  5
5E0
330
5C7
100
AcDbEntity
  8
LC-004-005-----0
 62
     7
370
    25
100
AcDbLine
 10
204.814426
 20
403.37001
 30
0.0
 11
206.968391
 21
405.523976
 31
0.0
  0
LINE
  5
5E1
330
5C7
100
AcDbEntity
  8
LC-004-005-----0
 62
     7
370
    25
100
AcDbLine
 10
204.814426
 20
403.935695
 30
0.0
 11
206.402706
 21
405.523976
 31
0.0
  0
LINE
  5
5E2
330
5C7
100
AcDbEntity
  8
LC-004-005-----0
 62
     7
370
    25
100
AcDbLine
 10
204.814426
 20
404.501381
 30
0.0
 11
205.837021
 21
405.523976
 31
0.0
  0
LINE
  5
5E3
330
5C7
100
AcDbEntity
  8
LC-004-005-----0
 62
     7
370
    25
100
AcDbLine
 10
204.814426
 20
405.067066
 30
0.0
 11
205.271335
 21
405.523976
 31
0.0
  0
ENDBLK
  5
5C9
330
5C7
100
AcDbEntity
  8
0
100
AcDbBlockEnd
  0
BLOCK
  5
5E8
330
5E7
100
AcDbEntity
  8
0
100
AcDbBlockBegin
  2
*X665
 70
     1
 71
     0
 10
0.0
 20
0.0
 30
0.0
  3
*X665
  1

  4
*X6
  0
LINE
  5
5EA
330
5E7
100
AcDbEntity
  8
LC-004-005-----0
 62
     7
370
    25
100
AcDbLine
 10
234.512461
 20
400.823976
 30
0.0
 11
234.814426
 21
401.125941
 31
0.0
  0
LINE
  5
5EB
330
5E7
100
AcDbEntity
  8
LC-004-005-----0
 62
     7
370
    25
100
AcDbLine
 10
233.946775
 20
400.823976
 30
0.0
 11
234.814426
 21
401.691626
 31
0.0
  0
LINE
  5
5EC
330
5E7
100
AcDbEntity
  8
LC-004-005-----0
 62
     7
370
    25
100
AcDbLine
 10
233.38109
 20
400.823976
 30
0.0
 11
234.814426
 21
402.257311
 31
0.0
  0
LINE
  5
5ED
330
5E7
100
AcDbEntity
  8
LC-004-005-----0
 62
     7
370
    25
100
AcDbLine
 10
232.815404
 20
400.823976
 30
0.0
 11
234.814426
 21
402.822997
 31
0.0
  0
LINE
  5
5EE
330
5E7
100
AcDbEntity
  8
LC-004-005-----0
 62
     7
370
    25
100
AcDbLine
 10
232.249719
 20
400.823976
 30
0.0
 11
234.814426
 21
403.388682
 31
0.0
  0
LINE
  5
5EF
330
5E7
100
AcDbEntity
  8
LC-004-005-----0
 62
     7
370
    25
100
AcDbLine
 10
231.684034
 20
400.823976
 30
0.0
 11
234.814426
 21
403.954368
 31
0.0
  0
LINE
  5
5F0
330
5E7
100
AcDbEntity
  8
LC-004-005-----0
 62
     7
370
    25
100
AcDbLine
 10
231.118348
 20
400.823976
 30
0.0
 11
234.814426
 21
404.520053
 31
0.0
  0
LINE
  5
5F1
330
5E7
100
AcDbEntity
  8
LC-004-005-----0
 62
     7
370
    25
100
AcDbLine
 10
230.552663
 20
400.823976
 30
0.0
 11
234.814426
 21
405.085739
 31
0.0
  0
LINE
  5
5F2
330
5E7
100
AcDbEntity
  8
LC-004-005-----0
 62
     7
370
    25
100
AcDbLine
 10
229.986977
 20
400.823976
 30
0.0
 11
234.686977
 21
405.523976
 31
0.0
  0
LINE
  5
5F3
330
5E7
100
AcDbEntity
  8
LC-004-005-----0
 62
     7
370
    25
100
AcDbLine
 10
229.421292
 20
400.823976
 30
0.0
 11
234.121292
 21
405.523976
 31
0.0
  0
LINE
  5
5F4
330
5E7
100
AcDbEntity
  8
LC-004-005-----0
 62
     7
370
    25
100
AcDbLine
 10
228.855606
 20
400.823976
 30
0.0
 11
233.555606
 21
405.523976
 31
0.0
  0
LINE
  5
5F5
330
5E7
100
AcDbEntity
  8
LC-004-005-----0
 62
     7
370
    25
100
AcDbLine
 10
228.289921
 20
400.823976
 30
0.0
 11
232.989921
 21
405.523976
 31
0.0
  0
LINE
  5
5F6
330
5E7
100
AcDbEntity
  8
LC-004-005-----0
 62
     7
370
    25
100
AcDbLine
 10
227.724236
 20
400.823976
 30
0.0
 11
232.424236
 21
405.523976
 31
0.0
  0
LINE
  5
5F7
330
5E7
100
AcDbEntity
  8
LC-004-005-----0
 62
     7
370
    25
100
AcDbLine
 10
227.15855
 20
400.823976
 30
0.0
 11
231.85855
 21
405.523976
 31
0.0
  0
LINE
  5
5F8
330
5E7
100
AcDbEntity
  8
LC-004-005-----0
 62
     7
370
    25
100
AcDbLine
 10
226.592865
 20
400.823976
 30
0.0
 11
231.292865
 21
405.523976
 31
0.0
  0
LINE
  5
5F9
330
5E7
100
AcDbEntity
  8
LC-004-005-----0
 62
     7
370
    25
100
AcDbLine
 10
226.027179
 20
400.823976
 30
0.0
 11
230.727179
 21
405.523976
 31
0.0
  0
LINE
  5
5FA
330
5E7
100
AcDbEntity
  8
LC-004-005-----0
 62
     7
370
    25
100
AcDbLine
 10
225.461494
 20
400.823976
 30
0.0
 11
230.161494
 21
405.523976
 31
0.0
  0
LINE
  5
5FB
330
5E7
100
AcDbEntity
  8
LC-004-005-----0
 62
     7
370
    25
100
AcDbLine
 10
224.895808
 20
400.823976
 30
0.0
 11
229.595808
 21
405.523976
 31
0.0
  0
LINE
  5
5FC
330
5E7
100
AcDbEntity
  8
LC-004-005-----0
 62
     7
370
    25
100
AcDbLine
 10
224.814426
 20
401.308278
 30
0.0
 11
229.030123
 21
405.523976
 31
0.0
  0
LINE
  5
5FD
330
5E7
100
AcDbEntity
  8
LC-004-005-----0
 62
     7
370
    25
100
AcDbLine
 10
224.814426
 20
401.873964
 30
0.0
 11
228.464438
 21
405.523976
 31
0.0
  0
LINE
  5
5FE
330
5E7
100
AcDbEntity
  8
LC-004-005-----0
 62
     7
370
    25
100
AcDbLine
 10
224.814426
 20
402.439649
 30
0.0
 11
227.898752
 21
405.523976
 31
0.0
  0
LINE
  5
5FF
330
5E7
100
AcDbEntity
  8
LC-004-005-----0
 62
     7
370
    25
100
AcDbLine
 10
224.814426
 20
403.005335
 30
0.0
 11
227.333067
 21
405.523976
 31
0.0
  0
LINE
  5
600
330
5E7
100
AcDbEntity
  8
LC-004-005-----0
 62
     7
370
    25
100
AcDbLine
 10
224.814426
 20
403.57102
 30
0.0
 11
226.767381
 21
405.523976
 31
0.0
  0
LINE
  5
601
330
5E7
100
AcDbEntity
  8
LC-004-005-----0
 62
     7
370
    25
100
AcDbLine
 10
224.814426
 20
404.136705
 30
0.0
 11
226.201696
 21
405.523976
 31
0.0
  0
LINE
  5
602
330
5E7
100
AcDbEntity
  8
LC-004-005-----0
 62
     7
370
    25
100
AcDbLine
 10
224.814426
 20
404.702391
 30
0.0
 11
225.63601
 21
405.523976
 31
0.0
  0
LINE
  5
603
330
5E7
100
AcDbEntity
  8
LC-004-005-----0
 62
     7
370
    25
100
AcDbLine
 10
224.814426
 20
405.268076
 30
0.0
 11
225.070325
 21
405.523976
 31
0.0
  0
ENDBLK
  5
5E9
330
5E7
100
AcDbEntity
  8
0
100
AcDbBlockEnd
  0
BLOCK
  5
607
330
606
100
AcDbEntity
  8
0
100
AcDbBlockBegin
  2
*X766
 70
     1
 71
     0
 10
0.0
 20
0.0
 30
0.0
  3
*X766
  1

  4
*X7
  0
LINE
  5
609
330
606
100
AcDbEntity
  8
LC-004-005-----0
 62
     7
370
    25
100
AcDbLine
 10
254.511827
 20
398.195925
 30
0.0
 11
254.814426
 21
398.498524
 31
0.0
  0
LINE
  5
60A
330
606
100
AcDbEntity
  8
LC-004-005-----0
 62
     7
370
    25
100
AcDbLine
 10
254.097093
 20
398.346876
 30
0.0
 11
254.814426
 21
399.064209
 31
0.0
  0
LINE
  5
60B
330
606
100
AcDbEntity
  8
LC-004-005-----0
 62
     7
370
    25
100
AcDbLine
 10
253.682358
 20
398.497827
 30
0.0
 11
254.814426
 21
399.629894
 31
0.0
  0
LINE
  5
60C
330
606
100
AcDbEntity
  8
LC-004-005-----0
 62
     7
370
    25
100
AcDbLine
 10
253.267624
 20
398.648778
 30
0.0
 11
254.814426
 21
400.19558
 31
0.0
  0
LINE
  5
60D
330
606
100
AcDbEntity
  8
LC-004-005-----0
 62
     7
370
    25
100
AcDbLine
 10
252.852889
 20
398.799729
 30
0.0
 11
254.814426
 21
400.761265
 31
0.0
  0
LINE
  5
60E
330
606
100
AcDbEntity
  8
LC-004-005-----0
 62
     7
370
    25
100
AcDbLine
 10
252.438155
 20
398.95068
 30
0.0
 11
254.814426
 21
401.326951
 31
0.0
  0
LINE
  5
60F
330
606
100
AcDbEntity
  8
LC-004-005-----0
 62
     7
370
    25
100
AcDbLine
 10
252.02342
 20
399.101631
 30
0.0
 11
254.814426
 21
401.892636
 31
0.0
  0
LINE
  5
610
330
606
100
AcDbEntity
  8
LC-004-005-----0
 62
     7
370
    25
100
AcDbLine
 10
251.608686
 20
399.252582
 30
0.0
 11
254.814426
 21
402.458322
 31
0.0
  0
LINE
  5
611
330
606
100
AcDbEntity
  8
LC-004-005-----0
 62
     7
370
    25
100
AcDbLine
 10
251.193951
 20
399.403533
 30
0.0
 11
254.808344
 21
403.017926
 31
0.0
  0
LINE
  5
612
330
606
100
AcDbEntity
  8
LC-004-005-----0
 62
     7
370
    25
100
AcDbLine
 10
250.779217
 20
399.554484
 30
0.0
 11
254.336647
 21
403.111914
 31
0.0
  0
LINE
  5
613
330
606
100
AcDbEntity
  8
LC-004-005-----0
 62
     7
370
    25
100
AcDbLine
 10
250.364483
 20
399.705435
 30
0.0
 11
253.824763
 21
403.165715
 31
0.0
  0
LINE
  5
614
330
606
100
AcDbEntity
  8
LC-004-005-----0
 62
     7
370
    25
100
AcDbLine
 10
249.949748
 20
399.856386
 30
0.0
 11
253.312878
 21
403.219516
 31
0.0
  0
LINE
  5
615
330
606
100
AcDbEntity
  8
LC-004-005-----0
 62
     7
370
    25
100
AcDbLine
 10
249.535014
 20
400.007337
 30
0.0
 11
252.800994
 21
403.273317
 31
0.0
  0
LINE
  5
616
330
606
100
AcDbEntity
  8
LC-004-005-----0
 62
     7
370
    25
100
AcDbLine
 10
249.120279
 20
400.158288
 30
0.0
 11
252.306664
 21
403.344673
 31
0.0
  0
LINE
  5
617
330
606
100
AcDbEntity
  8
LC-004-005-----0
 62
     7
370
    25
100
AcDbLine
 10
248.705545
 20
400.309239
 30
0.0
 11
251.872399
 21
403.476093
 31
0.0
  0
LINE
  5
618
330
606
100
AcDbEntity
  8
LC-004-005-----0
 62
     7
370
    25
100
AcDbLine
 10
248.29081
 20
400.46019
 30
0.0
 11
251.487928
 21
403.657308
 31
0.0
  0
LINE
  5
619
330
606
100
AcDbEntity
  8
LC-004-005-----0
 62
     7
370
    25
100
AcDbLine
 10
247.876076
 20
400.611141
 30
0.0
 11
251.146015
 21
403.88108
 31
0.0
  0
LINE
  5
61A
330
606
100
AcDbEntity
  8
LC-004-005-----0
 62
     7
370
    25
100
AcDbLine
 10
247.461341
 20
400.762092
 30
0.0
 11
250.843101
 21
404.143851
 31
0.0
  0
LINE
  5
61B
330
606
100
AcDbEntity
  8
LC-004-005-----0
 62
     7
370
    25
100
AcDbLine
 10
246.95754
 20
400.823976
 30
0.0
 11
250.578069
 21
404.444504
 31
0.0
  0
LINE
  5
61C
330
606
100
AcDbEntity
  8
LC-004-005-----0
 62
     7
370
    25
100
AcDbLine
 10
246.391855
 20
400.823976
 30
0.0
 11
250.246286
 21
404.678407
 31
0.0
  0
LINE
  5
61D
330
606
100
AcDbEntity
  8
LC-004-005-----0
 62
     7
370
    25
100
AcDbLine
 10
245.826169
 20
400.823976
 30
0.0
 11
249.831553
 21
404.82936
 31
0.0
  0
LINE
  5
61E
330
606
100
AcDbEntity
  8
LC-004-005-----0
 62
     7
370
    25
100
AcDbLine
 10
245.260484
 20
400.823976
 30
0.0
 11
249.416821
 21
404.980312
 31
0.0
  0
LINE
  5
61F
330
606
100
AcDbEntity
  8
LC-004-005-----0
 62
     7
370
    25
100
AcDbLine
 10
244.814426
 20
400.943603
 30
0.0
 11
249.002088
 21
405.131265
 31
0.0
  0
LINE
  5
620
330
606
100
AcDbEntity
  8
LC-004-005-----0
 62
     7
370
    25
100
AcDbLine
 10
244.814426
 20
401.509288
 30
0.0
 11
248.587355
 21
405.282218
 31
0.0
  0
LINE
  5
621
330
606
100
AcDbEntity
  8
LC-004-005-----0
 62
     7
370
    25
100
AcDbLine
 10
244.814426
 20
402.074974
 30
0.0
 11
248.172623
 21
405.433171
 31
0.0
  0
LINE
  5
622
330
606
100
AcDbEntity
  8
LC-004-005-----0
 62
     7
370
    25
100
AcDbLine
 10
244.814426
 20
402.640659
 30
0.0
 11
247.697732
 21
405.523966
 31
0.0
  0
LINE
  5
623
330
606
100
AcDbEntity
  8
LC-004-005-----0
 62
     7
370
    25
100
AcDbLine
 10
244.814426
 20
403.206345
 30
0.0
 11
247.132047
 21
405.523966
 31
0.0
  0
LINE
  5
624
330
606
100
AcDbEntity
  8
LC-004-005-----0
 62
     7
370
    25
100
AcDbLine
 10
244.814426
 20
403.77203
 30
0.0
 11
246.566361
 21
405.523966
 31
0.0
  0
LINE
  5
625
330
606
100
AcDbEntity
  8
LC-004-005-----0
 62
     7
370
    25
100
AcDbLine
 10
244.814426
 20
404.337715
 30
0.0
 11
246.000676
 21
405.523966
 31
0.0
  0
LINE
  5
626
330
606
100
AcDbEntity
  8
LC-004-005-----0
 62
     7
370
    25
100
AcDbLine
 10
244.814426
 20
404.903401
 30
0.0
 11
245.434991
 21
405.523966
 31
0.0
  0
LINE
  5
627
330
606
100
AcDbEntity
  8
LC-004-005-----0
 62
     7
370
    25
100
AcDbLine
 10
244.814426
 20
405.469086
 30
0.0
 11
244.869305
 21
405.523966
 31
0.0
  0
ENDBLK
  5
608
330
606
100
AcDbEntity
  8
0
100
AcDbBlockEnd
  0
BLOCK
  5
62C
330
62B
100
AcDbEntity
  8
0
100
AcDbBlockBegin
  2
*X867
 70
     1
 71
     0
 10
0.0
 20
0.0
 30
0.0
  3
*X867
  1

  4
*X8
  0
LINE
  5
62E
330
62B
100
AcDbEntity
  8
LC-004-005-----0
 62
     7
370
    25
100
AcDbLine
 10
274.481406
 20
392.143975
 30
0.0
 11
274.814426
 21
392.476994
 31
0.0
  0
LINE
  5
62F
330
62B
100
AcDbEntity
  8
LC-004-005-----0
 62
     7
370
    25
100
AcDbLine
 10
273.915721
 20
392.143975
 30
0.0
 11
274.814426
 21
393.042679
 31
0.0
  0
LINE
  5
630
330
62B
100
AcDbEntity
  8
LC-004-005-----0
 62
     7
370
    25
100
AcDbLine
 10
273.350035
 20
392.143975
 30
0.0
 11
274.814426
 21
393.608365
 31
0.0
  0
LINE
  5
631
330
62B
100
AcDbEntity
  8
LC-004-005-----0
 62
     7
370
    25
100
AcDbLine
 10
272.78435
 20
392.143975
 30
0.0
 11
274.814426
 21
394.17405
 31
0.0
  0
LINE
  5
632
330
62B
100
AcDbEntity
  8
LC-004-005-----0
 62
     7
370
    25
100
AcDbLine
 10
272.218665
 20
392.143975
 30
0.0
 11
274.814426
 21
394.739736
 31
0.0
  0
LINE
  5
633
330
62B
100
AcDbEntity
  8
LC-004-005-----0
 62
     7
370
    25
100
AcDbLine
 10
271.652979
 20
392.143975
 30
0.0
 11
274.814426
 21
395.305421
 31
0.0
  0
LINE
  5
634
330
62B
100
AcDbEntity
  8
LC-004-005-----0
 62
     7
370
    25
100
AcDbLine
 10
271.101205
 20
392.157886
 30
0.0
 11
274.814426
 21
395.871107
 31
0.0
  0
LINE
  5
635
330
62B
100
AcDbEntity
  8
LC-004-005-----0
 62
     7
370
    25
100
AcDbLine
 10
270.68647
 20
392.308837
 30
0.0
 11
274.814426
 21
396.436792
 31
0.0
  0
LINE
  5
636
330
62B
100
AcDbEntity
  8
LC-004-005-----0
 62
     7
370
    25
100
AcDbLine
 10
270.271736
 20
392.459788
 30
0.0
 11
274.585922
 21
396.773974
 31
0.0
  0
LINE
  5
637
330
62B
100
AcDbEntity
  8
LC-004-005-----0
 62
     7
370
    25
100
AcDbLine
 10
269.857002
 20
392.610739
 30
0.0
 11
274.020237
 21
396.773974
 31
0.0
  0
LINE
  5
638
330
62B
100
AcDbEntity
  8
LC-004-005-----0
 62
     7
370
    25
100
AcDbLine
 10
269.442267
 20
392.76169
 30
0.0
 11
273.454551
 21
396.773974
 31
0.0
  0
LINE
  5
639
330
62B
100
AcDbEntity
  8
LC-004-005-----0
 62
     7
370
    25
100
AcDbLine
 10
269.027533
 20
392.912641
 30
0.0
 11
272.888866
 21
396.773974
 31
0.0
  0
LINE
  5
63A
330
62B
100
AcDbEntity
  8
LC-004-005-----0
 62
     7
370
    25
100
AcDbLine
 10
268.612798
 20
393.063592
 30
0.0
 11
272.323181
 21
396.773974
 31
0.0
  0
LINE
  5
63B
330
62B
100
AcDbEntity
  8
LC-004-005-----0
 62
     7
370
    25
100
AcDbLine
 10
268.198064
 20
393.214543
 30
0.0
 11
271.812381
 21
396.82886
 31
0.0
  0
LINE
  5
63C
330
62B
100
AcDbEntity
  8
LC-004-005-----0
 62
     7
370
    25
100
AcDbLine
 10
267.783329
 20
393.365494
 30
0.0
 11
271.397648
 21
396.979813
 31
0.0
  0
LINE
  5
63D
330
62B
100
AcDbEntity
  8
LC-004-005-----0
 62
     7
370
    25
100
AcDbLine
 10
267.368595
 20
393.516445
 30
0.0
 11
270.982916
 21
397.130766
 31
0.0
  0
LINE
  5
63E
330
62B
100
AcDbEntity
  8
LC-004-005-----0
 62
     7
370
    25
100
AcDbLine
 10
266.95386
 20
393.667396
 30
0.0
 11
270.568183
 21
397.281718
 31
0.0
  0
LINE
  5
63F
330
62B
100
AcDbEntity
  8
LC-004-005-----0
 62
     7
370
    25
100
AcDbLine
 10
266.539126
 20
393.818347
 30
0.0
 11
270.153451
 21
397.432671
 31
0.0
  0
LINE
  5
640
330
62B
100
AcDbEntity
  8
LC-004-005-----0
 62
     7
370
    25
100
AcDbLine
 10
266.124392
 20
393.969298
 30
0.0
 11
269.738718
 21
397.583624
 31
0.0
  0
LINE
  5
641
330
62B
100
AcDbEntity
  8
LC-004-005-----0
 62
     7
370
    25
100
AcDbLine
 10
265.709657
 20
394.120249
 30
0.0
 11
269.323985
 21
397.734577
 31
0.0
  0
LINE
  5
642
330
62B
100
AcDbEntity
  8
LC-004-005-----0
 62
     7
370
    25
100
AcDbLine
 10
265.294923
 20
394.271199
 30
0.0
 11
268.909253
 21
397.88553
 31
0.0
  0
LINE
  5
643
330
62B
100
AcDbEntity
  8
LC-004-005-----0
 62
     7
370
    25
100
AcDbLine
 10
264.880188
 20
394.42215
 30
0.0
 11
268.49452
 21
398.036483
 31
0.0
  0
LINE
  5
644
330
62B
100
AcDbEntity
  8
LC-004-005-----0
 62
     7
370
    25
100
AcDbLine
 10
264.814426
 20
394.922073
 30
0.0
 11
268.079788
 21
398.187435
 31
0.0
  0
LINE
  5
645
330
62B
100
AcDbEntity
  8
LC-004-005-----0
 62
     7
370
    25
100
AcDbLine
 10
264.814426
 20
395.487759
 30
0.0
 11
267.665055
 21
398.338388
 31
0.0
  0
LINE
  5
646
330
62B
100
AcDbEntity
  8
LC-004-005-----0
 62
     7
370
    25
100
AcDbLine
 10
264.814426
 20
396.053444
 30
0.0
 11
267.250322
 21
398.489341
 31
0.0
  0
LINE
  5
647
330
62B
100
AcDbEntity
  8
LC-004-005-----0
 62
     7
370
    25
100
AcDbLine
 10
264.814426
 20
396.61913
 30
0.0
 11
266.83559
 21
398.640294
 31
0.0
  0
LINE
  5
648
330
62B
100
AcDbEntity
  8
LC-004-005-----0
 62
     7
370
    25
100
AcDbLine
 10
264.814426
 20
397.184815
 30
0.0
 11
266.420857
 21
398.791247
 31
0.0
  0
LINE
  5
649
330
62B
100
AcDbEntity
  8
LC-004-005-----0
 62
     7
370
    25
100
AcDbLine
 10
264.814426
 20
397.750501
 30
0.0
 11
266.006125
 21
398.9422
 31
0.0
  0
LINE
  5
64A
330
62B
100
AcDbEntity
  8
LC-004-005-----0
 62
     7
370
    25
100
AcDbLine
 10
264.814426
 20
398.316186
 30
0.0
 11
265.591392
 21
399.093152
 31
0.0
  0
LINE
  5
64B
330
62B
100
AcDbEntity
  8
LC-004-005-----0
 62
     7
370
    25
100
AcDbLine
 10
264.814426
 20
398.881871
 30
0.0
 11
265.176659
 21
399.244105
 31
0.0
  0
ENDBLK
  5
62D
330
62B
100
AcDbEntity
  8
0
100
AcDbBlockEnd
  0
BLOCK
  5
659
330
658
100
AcDbEntity
  8
0
100
AcDbBlockBegin
  2
*X968
 70
     1
 71
     0
 10
0.0
 20
0.0
 30
0.0
  3
*X968
  1

  4
*X9
  0
LINE
  5
65B
330
658
100
AcDbEntity
  8
LC-004-005-----0
 62
     7
370
    25
100
AcDbLine
 10
624.269718
 20
400.823976
 30
0.0
 11
624.814441
 21
401.368698
 31
0.0
  0
LINE
  5
65C
330
658
100
AcDbEntity
  8
LC-004-005-----0
 62
     7
370
    25
100
AcDbLine
 10
623.704033
 20
400.823976
 30
0.0
 11
624.814441
 21
401.934384
 31
0.0
  0
LINE
  5
65D
330
658
100
AcDbEntity
  8
LC-004-005-----0
 62
     7
370
    25
100
AcDbLine
 10
623.138348
 20
400.823976
 30
0.0
 11
624.814441
 21
402.500069
 31
0.0
  0
LINE
  5
65E
330
658
100
AcDbEntity
  8
LC-004-005-----0
 62
     7
370
    25
100
AcDbLine
 10
622.572662
 20
400.823976
 30
0.0
 11
624.814441
 21
403.065755
 31
0.0
  0
LINE
  5
65F
330
658
100
AcDbEntity
  8
LC-004-005-----0
 62
     7
370
    25
100
AcDbLine
 10
622.006977
 20
400.823976
 30
0.0
 11
624.814441
 21
403.63144
 31
0.0
  0
LINE
  5
660
330
658
100
AcDbEntity
  8
LC-004-005-----0
 62
     7
370
    25
100
AcDbLine
 10
621.441291
 20
400.823976
 30
0.0
 11
624.814441
 21
404.197125
 31
0.0
  0
LINE
  5
661
330
658
100
AcDbEntity
  8
LC-004-005-----0
 62
     7
370
    25
100
AcDbLine
 10
620.875606
 20
400.823976
 30
0.0
 11
624.814441
 21
404.762811
 31
0.0
  0
LINE
  5
662
330
658
100
AcDbEntity
  8
LC-004-005-----0
 62
     7
370
    25
100
AcDbLine
 10
620.30992
 20
400.823976
 30
0.0
 11
624.814441
 21
405.328496
 31
0.0
  0
LINE
  5
663
330
658
100
AcDbEntity
  8
LC-004-005-----0
 62
     7
370
    25
100
AcDbLine
 10
619.744235
 20
400.823976
 30
0.0
 11
624.444235
 21
405.523976
 31
0.0
  0
LINE
  5
664
330
658
100
AcDbEntity
  8
LC-004-005-----0
 62
     7
370
    25
100
AcDbLine
 10
619.17855
 20
400.823976
 30
0.0
 11
623.87855
 21
405.523976
 31
0.0
  0
LINE
  5
665
330
658
100
AcDbEntity
  8
LC-004-005-----0
 62
     7
370
    25
100
AcDbLine
 10
618.612864
 20
400.823976
 30
0.0
 11
623.312864
 21
405.523976
 31
0.0
  0
LINE
  5
666
330
658
100
AcDbEntity
  8
LC-004-005-----0
 62
     7
370
    25
100
AcDbLine
 10
618.047179
 20
400.823976
 30
0.0
 11
622.747179
 21
405.523976
 31
0.0
  0
LINE
  5
667
330
658
100
AcDbEntity
  8
LC-004-005-----0
 62
     7
370
    25
100
AcDbLine
 10
617.481493
 20
400.823976
 30
0.0
 11
622.181493
 21
405.523976
 31
0.0
  0
LINE
  5
668
330
658
100
AcDbEntity
  8
LC-004-005-----0
 62
     7
370
    25
100
AcDbLine
 10
616.915808
 20
400.823976
 30
0.0
 11
621.615808
 21
405.523976
 31
0.0
  0
LINE
  5
669
330
658
100
AcDbEntity
  8
LC-004-005-----0
 62
     7
370
    25
100
AcDbLine
 10
616.350123
 20
400.823976
 30
0.0
 11
621.050123
 21
405.523976
 31
0.0
  0
LINE
  5
66A
330
658
100
AcDbEntity
  8
LC-004-005-----0
 62
     7
370
    25
100
AcDbLine
 10
615.784437
 20
400.823976
 30
0.0
 11
620.484437
 21
405.523976
 31
0.0
  0
LINE
  5
66B
330
658
100
AcDbEntity
  8
LC-004-005-----0
 62
     7
370
    25
100
AcDbLine
 10
615.218752
 20
400.823976
 30
0.0
 11
619.918752
 21
405.523976
 31
0.0
  0
LINE
  5
66C
330
658
100
AcDbEntity
  8
LC-004-005-----0
 62
     7
370
    25
100
AcDbLine
 10
614.814441
 20
400.985351
 30
0.0
 11
619.353066
 21
405.523976
 31
0.0
  0
LINE
  5
66D
330
658
100
AcDbEntity
  8
LC-004-005-----0
 62
     7
370
    25
100
AcDbLine
 10
614.814441
 20
401.551036
 30
0.0
 11
618.787381
 21
405.523976
 31
0.0
  0
LINE
  5
66E
330
658
100
AcDbEntity
  8
LC-004-005-----0
 62
     7
370
    25
100
AcDbLine
 10
614.814441
 20
402.116721
 30
0.0
 11
618.221695
 21
405.523976
 31
0.0
  0
LINE
  5
66F
330
658
100
AcDbEntity
  8
LC-004-005-----0
 62
     7
370
    25
100
AcDbLine
 10
614.814441
 20
402.682407
 30
0.0
 11
617.65601
 21
405.523976
 31
0.0
  0
LINE
  5
670
330
658
100
AcDbEntity
  8
LC-004-005-----0
 62
     7
370
    25
100
AcDbLine
 10
614.814441
 20
403.248092
 30
0.0
 11
617.090325
 21
405.523976
 31
0.0
  0
LINE
  5
671
330
658
100
AcDbEntity
  8
LC-004-005-----0
 62
     7
370
    25
100
AcDbLine
 10
614.814441
 20
403.813778
 30
0.0
 11
616.524639
 21
405.523976
 31
0.0
  0
LINE
  5
672
330
658
100
AcDbEntity
  8
LC-004-005-----0
 62
     7
370
    25
100
AcDbLine
 10
614.814441
 20
404.379463
 30
0.0
 11
615.958954
 21
405.523976
 31
0.0
  0
LINE
  5
673
330
658
100
AcDbEntity
  8
LC-004-005-----0
 62
     7
370
    25
100
AcDbLine
 10
614.814441
 20
404.945149
 30
0.0
 11
615.393268
 21
405.523976
 31
0.0
  0
LINE
  5
674
330
658
100
AcDbEntity
  8
LC-004-005-----0
 62
     7
370
    25
100
AcDbLine
 10
614.814441
 20
405.510834
 30
0.0
 11
614.827583
 21
405.523976
 31
0.0
  0
ENDBLK
  5
65A
330
658
100
AcDbEntity
  8
0
100
AcDbBlockEnd
  0
BLOCK
  5
677
330
676
100
AcDbEntity
  8
0
100
AcDbBlockBegin
  2
*X1069
 70
     1
 71
     0
 10
0.0
 20
0.0
 30
0.0
  3
*X1069
  1

  4
*X10
  0
LINE
  5
679
330
676
100
AcDbEntity
  8
LC-004-005-----0
 62
     7
370
    25
100
AcDbLine
 10
604.470729
 20
400.823976
 30
0.0
 11
604.814441
 21
401.167688
 31
0.0
  0
LINE
  5
67A
330
676
100
AcDbEntity
  8
LC-004-005-----0
 62
     7
370
    25
100
AcDbLine
 10
603.905043
 20
400.823976
 30
0.0
 11
604.814441
 21
401.733374
 31
0.0
  0
LINE
  5
67B
330
676
100
AcDbEntity
  8
LC-004-005-----0
 62
     7
370
    25
100
AcDbLine
 10
603.339358
 20
400.823976
 30
0.0
 11
604.814441
 21
402.299059
 31
0.0
  0
LINE
  5
67C
330
676
100
AcDbEntity
  8
LC-004-005-----0
 62
     7
370
    25
100
AcDbLine
 10
602.773672
 20
400.823976
 30
0.0
 11
604.814441
 21
402.864744
 31
0.0
  0
LINE
  5
67D
330
676
100
AcDbEntity
  8
LC-004-005-----0
 62
     7
370
    25
100
AcDbLine
 10
602.207987
 20
400.823976
 30
0.0
 11
604.814441
 21
403.43043
 31
0.0
  0
LINE
  5
67E
330
676
100
AcDbEntity
  8
LC-004-005-----0
 62
     7
370
    25
100
AcDbLine
 10
601.642301
 20
400.823976
 30
0.0
 11
604.814441
 21
403.996115
 31
0.0
  0
LINE
  5
67F
330
676
100
AcDbEntity
  8
LC-004-005-----0
 62
     7
370
    25
100
AcDbLine
 10
601.076616
 20
400.823976
 30
0.0
 11
604.814441
 21
404.561801
 31
0.0
  0
LINE
  5
680
330
676
100
AcDbEntity
  8
LC-004-005-----0
 62
     7
370
    25
100
AcDbLine
 10
600.510931
 20
400.823976
 30
0.0
 11
604.814441
 21
405.127486
 31
0.0
  0
LINE
  5
681
330
676
100
AcDbEntity
  8
LC-004-005-----0
 62
     7
370
    25
100
AcDbLine
 10
599.945245
 20
400.823976
 30
0.0
 11
604.645245
 21
405.523976
 31
0.0
  0
LINE
  5
682
330
676
100
AcDbEntity
  8
LC-004-005-----0
 62
     7
370
    25
100
AcDbLine
 10
599.37956
 20
400.823976
 30
0.0
 11
604.07956
 21
405.523976
 31
0.0
  0
LINE
  5
683
330
676
100
AcDbEntity
  8
LC-004-005-----0
 62
     7
370
    25
100
AcDbLine
 10
598.813874
 20
400.823976
 30
0.0
 11
603.513874
 21
405.523976
 31
0.0
  0
LINE
  5
684
330
676
100
AcDbEntity
  8
LC-004-005-----0
 62
     7
370
    25
100
AcDbLine
 10
598.248189
 20
400.823976
 30
0.0
 11
602.948189
 21
405.523976
 31
0.0
  0
LINE
  5
685
330
676
100
AcDbEntity
  8
LC-004-005-----0
 62
     7
370
    25
100
AcDbLine
 10
597.682503
 20
400.823976
 30
0.0
 11
602.382503
 21
405.523976
 31
0.0
  0
LINE
  5
686
330
676
100
AcDbEntity
  8
LC-004-005-----0
 62
     7
370
    25
100
AcDbLine
 10
597.116818
 20
400.823976
 30
0.0
 11
601.816818
 21
405.523976
 31
0.0
  0
LINE
  5
687
330
676
100
AcDbEntity
  8
LC-004-005-----0
 62
     7
370
    25
100
AcDbLine
 10
596.551133
 20
400.823976
 30
0.0
 11
601.251133
 21
405.523976
 31
0.0
  0
LINE
  5
688
330
676
100
AcDbEntity
  8
LC-004-005-----0
 62
     7
370
    25
100
AcDbLine
 10
595.985447
 20
400.823976
 30
0.0
 11
600.685447
 21
405.523976
 31
0.0
  0
LINE
  5
689
330
676
100
AcDbEntity
  8
LC-004-005-----0
 62
     7
370
    25
100
AcDbLine
 10
595.419762
 20
400.823976
 30
0.0
 11
600.119762
 21
405.523976
 31
0.0
  0
LINE
  5
68A
330
676
100
AcDbEntity
  8
LC-004-005-----0
 62
     7
370
    25
100
AcDbLine
 10
594.854076
 20
400.823976
 30
0.0
 11
599.554076
 21
405.523976
 31
0.0
  0
LINE
  5
68B
330
676
100
AcDbEntity
  8
LC-004-005-----0
 62
     7
370
    25
100
AcDbLine
 10
594.814441
 20
401.350026
 30
0.0
 11
598.988391
 21
405.523976
 31
0.0
  0
LINE
  5
68C
330
676
100
AcDbEntity
  8
LC-004-005-----0
 62
     7
370
    25
100
AcDbLine
 10
594.814441
 20
401.915711
 30
0.0
 11
598.422706
 21
405.523976
 31
0.0
  0
LINE
  5
68D
330
676
100
AcDbEntity
  8
LC-004-005-----0
 62
     7
370
    25
100
AcDbLine
 10
594.814441
 20
402.481397
 30
0.0
 11
597.85702
 21
405.523976
 31
0.0
  0
LINE
  5
68E
330
676
100
AcDbEntity
  8
LC-004-005-----0
 62
     7
370
    25
100
AcDbLine
 10
594.814441
 20
403.047082
 30
0.0
 11
597.291335
 21
405.523976
 31
0.0
  0
LINE
  5
68F
330
676
100
AcDbEntity
  8
LC-004-005-----0
 62
     7
370
    25
100
AcDbLine
 10
594.814441
 20
403.612768
 30
0.0
 11
596.725649
 21
405.523976
 31
0.0
  0
LINE
  5
690
330
676
100
AcDbEntity
  8
LC-004-005-----0
 62
     7
370
    25
100
AcDbLine
 10
594.814441
 20
404.178453
 30
0.0
 11
596.159964
 21
405.523976
 31
0.0
  0
LINE
  5
691
330
676
100
AcDbEntity
  8
LC-004-005-----0
 62
     7
370
    25
100
AcDbLine
 10
594.814441
 20
404.744138
 30
0.0
 11
595.594278
 21
405.523976
 31
0.0
  0
LINE
  5
692
330
676
100
AcDbEntity
  8
LC-004-005-----0
 62
     7
370
    25
100
AcDbLine
 10
594.814441
 20
405.309824
 30
0.0
 11
595.028593
 21
405.523976
 31
0.0
  0
ENDBLK
  5
678
330
676
100
AcDbEntity
  8
0
100
AcDbBlockEnd
  0
BLOCK
  5
695
330
694
100
AcDbEntity
  8
0
100
AcDbBlockBegin
  2
*X1170
 70
     1
 71
     0
 10
0.0
 20
0.0
 30
0.0
  3
*X1170
  1

  4
*X11
  0
LINE
  5
697
330
694
100
AcDbEntity
  8
LC-004-005-----0
 62
     7
370
    25
100
AcDbLine
 10
584.671739
 20
400.823976
 30
0.0
 11
584.814441
 21
400.966678
 31
0.0
  0
LINE
  5
698
330
694
100
AcDbEntity
  8
LC-004-005-----0
 62
     7
370
    25
100
AcDbLine
 10
584.106053
 20
400.823976
 30
0.0
 11
584.814441
 21
401.532363
 31
0.0
  0
LINE
  5
699
330
694
100
AcDbEntity
  8
LC-004-005-----0
 62
     7
370
    25
100
AcDbLine
 10
583.540368
 20
400.823976
 30
0.0
 11
584.814441
 21
402.098049
 31
0.0
  0
LINE
  5
69A
330
694
100
AcDbEntity
  8
LC-004-005-----0
 62
     7
370
    25
100
AcDbLine
 10
582.974682
 20
400.823976
 30
0.0
 11
584.814441
 21
402.663734
 31
0.0
  0
LINE
  5
69B
330
694
100
AcDbEntity
  8
LC-004-005-----0
 62
     7
370
    25
100
AcDbLine
 10
582.408997
 20
400.823976
 30
0.0
 11
584.814441
 21
403.22942
 31
0.0
  0
LINE
  5
69C
330
694
100
AcDbEntity
  8
LC-004-005-----0
 62
     7
370
    25
100
AcDbLine
 10
581.843312
 20
400.823976
 30
0.0
 11
584.814441
 21
403.795105
 31
0.0
  0
LINE
  5
69D
330
694
100
AcDbEntity
  8
LC-004-005-----0
 62
     7
370
    25
100
AcDbLine
 10
581.277626
 20
400.823976
 30
0.0
 11
584.814441
 21
404.360791
 31
0.0
  0
LINE
  5
69E
330
694
100
AcDbEntity
  8
LC-004-005-----0
 62
     7
370
    25
100
AcDbLine
 10
580.711941
 20
400.823976
 30
0.0
 11
584.814441
 21
404.926476
 31
0.0
  0
LINE
  5
69F
330
694
100
AcDbEntity
  8
LC-004-005-----0
 62
     7
370
    25
100
AcDbLine
 10
580.146255
 20
400.823976
 30
0.0
 11
584.814441
 21
405.492161
 31
0.0
  0
LINE
  5
6A0
330
694
100
AcDbEntity
  8
LC-004-005-----0
 62
     7
370
    25
100
AcDbLine
 10
579.58057
 20
400.823976
 30
0.0
 11
584.28057
 21
405.523976
 31
0.0
  0
LINE
  5
6A1
330
694
100
AcDbEntity
  8
LC-004-005-----0
 62
     7
370
    25
100
AcDbLine
 10
579.014884
 20
400.823976
 30
0.0
 11
583.714884
 21
405.523976
 31
0.0
  0
LINE
  5
6A2
330
694
100
AcDbEntity
  8
LC-004-005-----0
 62
     7
370
    25
100
AcDbLine
 10
578.449199
 20
400.823976
 30
0.0
 11
583.149199
 21
405.523976
 31
0.0
  0
LINE
  5
6A3
330
694
100
AcDbEntity
  8
LC-004-005-----0
 62
     7
370
    25
100
AcDbLine
 10
577.883514
 20
400.823976
 30
0.0
 11
582.583514
 21
405.523976
 31
0.0
  0
LINE
  5
6A4
330
694
100
AcDbEntity
  8
LC-004-005-----0
 62
     7
370
    25
100
AcDbLine
 10
577.317828
 20
400.823976
 30
0.0
 11
582.017828
 21
405.523976
 31
0.0
  0
LINE
  5
6A5
330
694
100
AcDbEntity
  8
LC-004-005-----0
 62
     7
370
    25
100
AcDbLine
 10
576.752143
 20
400.823976
 30
0.0
 11
581.452143
 21
405.523976
 31
0.0
  0
LINE
  5
6A6
330
694
100
AcDbEntity
  8
LC-004-005-----0
 62
     7
370
    25
100
AcDbLine
 10
576.186457
 20
400.823976
 30
0.0
 11
580.886457
 21
405.523976
 31
0.0
  0
LINE
  5
6A7
330
694
100
AcDbEntity
  8
LC-004-005-----0
 62
     7
370
    25
100
AcDbLine
 10
575.620772
 20
400.823976
 30
0.0
 11
580.320772
 21
405.523976
 31
0.0
  0
LINE
  5
6A8
330
694
100
AcDbEntity
  8
LC-004-005-----0
 62
     7
370
    25
100
AcDbLine
 10
575.055086
 20
400.823976
 30
0.0
 11
579.755086
 21
405.523976
 31
0.0
  0
LINE
  5
6A9
330
694
100
AcDbEntity
  8
LC-004-005-----0
 62
     7
370
    25
100
AcDbLine
 10
574.814441
 20
401.149016
 30
0.0
 11
579.189401
 21
405.523976
 31
0.0
  0
LINE
  5
6AA
330
694
100
AcDbEntity
  8
LC-004-005-----0
 62
     7
370
    25
100
AcDbLine
 10
574.814441
 20
401.714701
 30
0.0
 11
578.623716
 21
405.523976
 31
0.0
  0
LINE
  5
6AB
330
694
100
AcDbEntity
  8
LC-004-005-----0
 62
     7
370
    25
100
AcDbLine
 10
574.814441
 20
402.280387
 30
0.0
 11
578.05803
 21
405.523976
 31
0.0
  0
LINE
  5
6AC
330
694
100
AcDbEntity
  8
LC-004-005-----0
 62
     7
370
    25
100
AcDbLine
 10
574.814441
 20
402.846072
 30
0.0
 11
577.492345
 21
405.523976
 31
0.0
  0
LINE
  5
6AD
330
694
100
AcDbEntity
  8
LC-004-005-----0
 62
     7
370
    25
100
AcDbLine
 10
574.814441
 20
403.411757
 30
0.0
 11
576.926659
 21
405.523976
 31
0.0
  0
LINE
  5
6AE
330
694
100
AcDbEntity
  8
LC-004-005-----0
 62
     7
370
    25
100
AcDbLine
 10
574.814441
 20
403.977443
 30
0.0
 11
576.360974
 21
405.523976
 31
0.0
  0
LINE
  5
6AF
330
694
100
AcDbEntity
  8
LC-004-005-----0
 62
     7
370
    25
100
AcDbLine
 10
574.814441
 20
404.543128
 30
0.0
 11
575.795289
 21
405.523976
 31
0.0
  0
LINE
  5
6B0
330
694
100
AcDbEntity
  8
LC-004-005-----0
 62
     7
370
    25
100
AcDbLine
 10
574.814441
 20
405.108814
 30
0.0
 11
575.229603
 21
405.523976
 31
0.0
  0
ENDBLK
  5
696
330
694
100
AcDbEntity
  8
0
100
AcDbBlockEnd
  0
BLOCK
  5
6B3
330
6B2
100
AcDbEntity
  8
0
100
AcDbBlockBegin
  2
*X1271
 70
     1
 71
     0
 10
0.0
 20
0.0
 30
0.0
  3
*X1271
  1

  4
*X12
  0
LINE
  5
6B5
330
6B2
100
AcDbEntity
  8
LC-004-005-----0
 62
     7
370
    25
100
AcDbLine
 10
564.307063
 20
400.823976
 30
0.0
 11
564.814441
 21
401.331353
 31
0.0
  0
LINE
  5
6B6
330
6B2
100
AcDbEntity
  8
LC-004-005-----0
 62
     7
370
    25
100
AcDbLine
 10
563.741378
 20
400.823976
 30
0.0
 11
564.814441
 21
401.897039
 31
0.0
  0
LINE
  5
6B7
330
6B2
100
AcDbEntity
  8
LC-004-005-----0
 62
     7
370
    25
100
AcDbLine
 10
563.175693
 20
400.823976
 30
0.0
 11
564.814441
 21
402.462724
 31
0.0
  0
LINE
  5
6B8
330
6B2
100
AcDbEntity
  8
LC-004-005-----0
 62
     7
370
    25
100
AcDbLine
 10
562.610007
 20
400.823976
 30
0.0
 11
564.814441
 21
403.02841
 31
0.0
  0
LINE
  5
6B9
330
6B2
100
AcDbEntity
  8
LC-004-005-----0
 62
     7
370
    25
100
AcDbLine
 10
562.044322
 20
400.823976
 30
0.0
 11
564.814441
 21
403.594095
 31
0.0
  0
LINE
  5
6BA
330
6B2
100
AcDbEntity
  8
LC-004-005-----0
 62
     7
370
    25
100
AcDbLine
 10
561.478636
 20
400.823976
 30
0.0
 11
564.814441
 21
404.15978
 31
0.0
  0
LINE
  5
6BB
330
6B2
100
AcDbEntity
  8
LC-004-005-----0
 62
     7
370
    25
100
AcDbLine
 10
560.912951
 20
400.823976
 30
0.0
 11
564.814441
 21
404.725466
 31
0.0
  0
LINE
  5
6BC
330
6B2
100
AcDbEntity
  8
LC-004-005-----0
 62
     7
370
    25
100
AcDbLine
 10
560.347265
 20
400.823976
 30
0.0
 11
564.814441
 21
405.291151
 31
0.0
  0
LINE
  5
6BD
330
6B2
100
AcDbEntity
  8
LC-004-005-----0
 62
     7
370
    25
100
AcDbLine
 10
559.78158
 20
400.823976
 30
0.0
 11
564.48158
 21
405.523976
 31
0.0
  0
LINE
  5
6BE
330
6B2
100
AcDbEntity
  8
LC-004-005-----0
 62
     7
370
    25
100
AcDbLine
 10
559.215895
 20
400.823976
 30
0.0
 11
563.915895
 21
405.523976
 31
0.0
  0
LINE
  5
6BF
330
6B2
100
AcDbEntity
  8
LC-004-005-----0
 62
     7
370
    25
100
AcDbLine
 10
558.650209
 20
400.823976
 30
0.0
 11
563.350209
 21
405.523976
 31
0.0
  0
LINE
  5
6C0
330
6B2
100
AcDbEntity
  8
LC-004-005-----0
 62
     7
370
    25
100
AcDbLine
 10
558.084524
 20
400.823976
 30
0.0
 11
562.784524
 21
405.523976
 31
0.0
  0
LINE
  5
6C1
330
6B2
100
AcDbEntity
  8
LC-004-005-----0
 62
     7
370
    25
100
AcDbLine
 10
557.518838
 20
400.823976
 30
0.0
 11
562.218838
 21
405.523976
 31
0.0
  0
LINE
  5
6C2
330
6B2
100
AcDbEntity
  8
LC-004-005-----0
 62
     7
370
    25
100
AcDbLine
 10
556.953153
 20
400.823976
 30
0.0
 11
561.653153
 21
405.523976
 31
0.0
  0
LINE
  5
6C3
330
6B2
100
AcDbEntity
  8
LC-004-005-----0
 62
     7
370
    25
100
AcDbLine
 10
556.387467
 20
400.823976
 30
0.0
 11
561.087467
 21
405.523976
 31
0.0
  0
LINE
  5
6C4
330
6B2
100
AcDbEntity
  8
LC-004-005-----0
 62
     7
370
    25
100
AcDbLine
 10
555.821782
 20
400.823976
 30
0.0
 11
560.521782
 21
405.523976
 31
0.0
  0
LINE
  5
6C5
330
6B2
100
AcDbEntity
  8
LC-004-005-----0
 62
     7
370
    25
100
AcDbLine
 10
555.256097
 20
400.823976
 30
0.0
 11
559.956097
 21
405.523976
 31
0.0
  0
LINE
  5
6C6
330
6B2
100
AcDbEntity
  8
LC-004-005-----0
 62
     7
370
    25
100
AcDbLine
 10
554.814441
 20
400.948006
 30
0.0
 11
559.390411
 21
405.523976
 31
0.0
  0
LINE
  5
6C7
330
6B2
100
AcDbEntity
  8
LC-004-005-----0
 62
     7
370
    25
100
AcDbLine
 10
554.814441
 20
401.513691
 30
0.0
 11
558.824726
 21
405.523976
 31
0.0
  0
LINE
  5
6C8
330
6B2
100
AcDbEntity
  8
LC-004-005-----0
 62
     7
370
    25
100
AcDbLine
 10
554.814441
 20
402.079376
 30
0.0
 11
558.25904
 21
405.523976
 31
0.0
  0
LINE
  5
6C9
330
6B2
100
AcDbEntity
  8
LC-004-005-----0
 62
     7
370
    25
100
AcDbLine
 10
554.814441
 20
402.645062
 30
0.0
 11
557.693355
 21
405.523976
 31
0.0
  0
LINE
  5
6CA
330
6B2
100
AcDbEntity
  8
LC-004-005-----0
 62
     7
370
    25
100
AcDbLine
 10
554.814441
 20
403.210747
 30
0.0
 11
557.127669
 21
405.523976
 31
0.0
  0
LINE
  5
6CB
330
6B2
100
AcDbEntity
  8
LC-004-005-----0
 62
     7
370
    25
100
AcDbLine
 10
554.814441
 20
403.776433
 30
0.0
 11
556.561984
 21
405.523976
 31
0.0
  0
LINE
  5
6CC
330
6B2
100
AcDbEntity
  8
LC-004-005-----0
 62
     7
370
    25
100
AcDbLine
 10
554.814441
 20
404.342118
 30
0.0
 11
555.996299
 21
405.523976
 31
0.0
  0
LINE
  5
6CD
330
6B2
100
AcDbEntity
  8
LC-004-005-----0
 62
     7
370
    25
100
AcDbLine
 10
554.814441
 20
404.907804
 30
0.0
 11
555.430613
 21
405.523976
 31
0.0
  0
LINE
  5
6CE
330
6B2
100
AcDbEntity
  8
LC-004-005-----0
 62
     7
370
    25
100
AcDbLine
 10
554.814441
 20
405.473489
 30
0.0
 11
554.864928
 21
405.523976
 31
0.0
  0
ENDBLK
  5
6B4
330
6B2
100
AcDbEntity
  8
0
100
AcDbBlockEnd
  0
BLOCK
  5
6D1
330
6D0
100
AcDbEntity
  8
0
100
AcDbBlockBegin
  2
*X1372
 70
     1
 71
     0
 10
0.0
 20
0.0
 30
0.0
  3
*X1372
  1

  4
*X13
  0
LINE
  5
6D3
330
6D0
100
AcDbEntity
  8
LC-004-005-----0
 62
     7
370
    25
100
AcDbLine
 10
544.508074
 20
400.823976
 30
0.0
 11
544.814441
 21
401.130343
 31
0.0
  0
LINE
  5
6D4
330
6D0
100
AcDbEntity
  8
LC-004-005-----0
 62
     7
370
    25
100
AcDbLine
 10
543.942388
 20
400.823976
 30
0.0
 11
544.814441
 21
401.696029
 31
0.0
  0
LINE
  5
6D5
330
6D0
100
AcDbEntity
  8
LC-004-005-----0
 62
     7
370
    25
100
AcDbLine
 10
543.376703
 20
400.823976
 30
0.0
 11
544.814441
 21
402.261714
 31
0.0
  0
LINE
  5
6D6
330
6D0
100
AcDbEntity
  8
LC-004-005-----0
 62
     7
370
    25
100
AcDbLine
 10
542.811017
 20
400.823976
 30
0.0
 11
544.814441
 21
402.8274
 31
0.0
  0
LINE
  5
6D7
330
6D0
100
AcDbEntity
  8
LC-004-005-----0
 62
     7
370
    25
100
AcDbLine
 10
542.245332
 20
400.823976
 30
0.0
 11
544.814441
 21
403.393085
 31
0.0
  0
LINE
  5
6D8
330
6D0
100
AcDbEntity
  8
LC-004-005-----0
 62
     7
370
    25
100
AcDbLine
 10
541.679646
 20
400.823976
 30
0.0
 11
544.814441
 21
403.95877
 31
0.0
  0
LINE
  5
6D9
330
6D0
100
AcDbEntity
  8
LC-004-005-----0
 62
     7
370
    25
100
AcDbLine
 10
541.113961
 20
400.823976
 30
0.0
 11
544.814441
 21
404.524456
 31
0.0
  0
LINE
  5
6DA
330
6D0
100
AcDbEntity
  8
LC-004-005-----0
 62
     7
370
    25
100
AcDbLine
 10
540.548276
 20
400.823976
 30
0.0
 11
544.814441
 21
405.090141
 31
0.0
  0
LINE
  5
6DB
330
6D0
100
AcDbEntity
  8
LC-004-005-----0
 62
     7
370
    25
100
AcDbLine
 10
539.98259
 20
400.823976
 30
0.0
 11
544.68259
 21
405.523976
 31
0.0
  0
LINE
  5
6DC
330
6D0
100
AcDbEntity
  8
LC-004-005-----0
 62
     7
370
    25
100
AcDbLine
 10
539.416905
 20
400.823976
 30
0.0
 11
544.116905
 21
405.523976
 31
0.0
  0
LINE
  5
6DD
330
6D0
100
AcDbEntity
  8
LC-004-005-----0
 62
     7
370
    25
100
AcDbLine
 10
538.851219
 20
400.823976
 30
0.0
 11
543.551219
 21
405.523976
 31
0.0
  0
LINE
  5
6DE
330
6D0
100
AcDbEntity
  8
LC-004-005-----0
 62
     7
370
    25
100
AcDbLine
 10
538.285534
 20
400.823976
 30
0.0
 11
542.985534
 21
405.523976
 31
0.0
  0
LINE
  5
6DF
330
6D0
100
AcDbEntity
  8
LC-004-005-----0
 62
     7
370
    25
100
AcDbLine
 10
537.719848
 20
400.823976
 30
0.0
 11
542.419848
 21
405.523976
 31
0.0
  0
LINE
  5
6E0
330
6D0
100
AcDbEntity
  8
LC-004-005-----0
 62
     7
370
    25
100
AcDbLine
 10
537.154163
 20
400.823976
 30
0.0
 11
541.854163
 21
405.523976
 31
0.0
  0
LINE
  5
6E1
330
6D0
100
AcDbEntity
  8
LC-004-005-----0
 62
     7
370
    25
100
AcDbLine
 10
536.588478
 20
400.823976
 30
0.0
 11
541.288478
 21
405.523976
 31
0.0
  0
LINE
  5
6E2
330
6D0
100
AcDbEntity
  8
LC-004-005-----0
 62
     7
370
    25
100
AcDbLine
 10
536.022792
 20
400.823976
 30
0.0
 11
540.722792
 21
405.523976
 31
0.0
  0
LINE
  5
6E3
330
6D0
100
AcDbEntity
  8
LC-004-005-----0
 62
     7
370
    25
100
AcDbLine
 10
535.457107
 20
400.823976
 30
0.0
 11
540.157107
 21
405.523976
 31
0.0
  0
LINE
  5
6E4
330
6D0
100
AcDbEntity
  8
LC-004-005-----0
 62
     7
370
    25
100
AcDbLine
 10
534.891421
 20
400.823976
 30
0.0
 11
539.591421
 21
405.523976
 31
0.0
  0
LINE
  5
6E5
330
6D0
100
AcDbEntity
  8
LC-004-005-----0
 62
     7
370
    25
100
AcDbLine
 10
534.814441
 20
401.312681
 30
0.0
 11
539.025736
 21
405.523976
 31
0.0
  0
LINE
  5
6E6
330
6D0
100
AcDbEntity
  8
LC-004-005-----0
 62
     7
370
    25
100
AcDbLine
 10
534.814441
 20
401.878366
 30
0.0
 11
538.46005
 21
405.523976
 31
0.0
  0
LINE
  5
6E7
330
6D0
100
AcDbEntity
  8
LC-004-005-----0
 62
     7
370
    25
100
AcDbLine
 10
534.814441
 20
402.444052
 30
0.0
 11
537.894365
 21
405.523976
 31
0.0
  0
LINE
  5
6E8
330
6D0
100
AcDbEntity
  8
LC-004-005-----0
 62
     7
370
    25
100
AcDbLine
 10
534.814441
 20
403.009737
 30
0.0
 11
537.32868
 21
405.523976
 31
0.0
  0
LINE
  5
6E9
330
6D0
100
AcDbEntity
  8
LC-004-005-----0
 62
     7
370
    25
100
AcDbLine
 10
534.814441
 20
403.575423
 30
0.0
 11
536.762994
 21
405.523976
 31
0.0
  0
LINE
  5
6EA
330
6D0
100
AcDbEntity
  8
LC-004-005-----0
 62
     7
370
    25
100
AcDbLine
 10
534.814441
 20
404.141108
 30
0.0
 11
536.197309
 21
405.523976
 31
0.0
  0
LINE
  5
6EB
330
6D0
100
AcDbEntity
  8
LC-004-005-----0
 62
     7
370
    25
100
AcDbLine
 10
534.814441
 20
404.706793
 30
0.0
 11
535.631623
 21
405.523976
 31
0.0
  0
LINE
  5
6EC
330
6D0
100
AcDbEntity
  8
LC-004-005-----0
 62
     7
370
    25
100
AcDbLine
 10
534.814441
 20
405.272479
 30
0.0
 11
535.065938
 21
405.523976
 31
0.0
  0
ENDBLK
  5
6D2
330
6D0
100
AcDbEntity
  8
0
100
AcDbBlockEnd
  0
BLOCK
  5
6F1
330
6F0
100
AcDbEntity
  8
0
100
AcDbBlockBegin
  2
*X1473
 70
     1
 71
     0
 10
0.0
 20
0.0
 30
0.0
  3
*X1473
  1

  4
*X14
  0
LINE
  5
6F3
330
6F0
100
AcDbEntity
  8
LC-004-005-----0
 62
     7
370
    25
100
AcDbLine
 10
524.709084
 20
400.823976
 30
0.0
 11
524.814441
 21
400.929333
 31
0.0
  0
LINE
  5
6F4
330
6F0
100
AcDbEntity
  8
LC-004-005-----0
 62
     7
370
    25
100
AcDbLine
 10
524.143398
 20
400.823976
 30
0.0
 11
524.814441
 21
401.495019
 31
0.0
  0
LINE
  5
6F5
330
6F0
100
AcDbEntity
  8
LC-004-005-----0
 62
     7
370
    25
100
AcDbLine
 10
523.577713
 20
400.823976
 30
0.0
 11
524.814441
 21
402.060704
 31
0.0
  0
LINE
  5
6F6
330
6F0
100
AcDbEntity
  8
LC-004-005-----0
 62
     7
370
    25
100
AcDbLine
 10
523.012027
 20
400.823976
 30
0.0
 11
524.814441
 21
402.626389
 31
0.0
  0
LINE
  5
6F7
330
6F0
100
AcDbEntity
  8
LC-004-005-----0
 62
     7
370
    25
100
AcDbLine
 10
522.446342
 20
400.823976
 30
0.0
 11
524.814441
 21
403.192075
 31
0.0
  0
LINE
  5
6F8
330
6F0
100
AcDbEntity
  8
LC-004-005-----0
 62
     7
370
    25
100
AcDbLine
 10
521.880657
 20
400.823976
 30
0.0
 11
524.814441
 21
403.75776
 31
0.0
  0
LINE
  5
6F9
330
6F0
100
AcDbEntity
  8
LC-004-005-----0
 62
     7
370
    25
100
AcDbLine
 10
521.314971
 20
400.823976
 30
0.0
 11
524.814441
 21
404.323446
 31
0.0
  0
LINE
  5
6FA
330
6F0
100
AcDbEntity
  8
LC-004-005-----0
 62
     7
370
    25
100
AcDbLine
 10
520.749286
 20
400.823976
 30
0.0
 11
524.814441
 21
404.889131
 31
0.0
  0
LINE
  5
6FB
330
6F0
100
AcDbEntity
  8
LC-004-005-----0
 62
     7
370
    25
100
AcDbLine
 10
520.1836
 20
400.823976
 30
0.0
 11
524.814441
 21
405.454817
 31
0.0
  0
LINE
  5
6FC
330
6F0
100
AcDbEntity
  8
LC-004-005-----0
 62
     7
370
    25
100
AcDbLine
 10
519.617915
 20
400.823976
 30
0.0
 11
524.317915
 21
405.523976
 31
0.0
  0
LINE
  5
6FD
330
6F0
100
AcDbEntity
  8
LC-004-005-----0
 62
     7
370
    25
100
AcDbLine
 10
519.052229
 20
400.823976
 30
0.0
 11
523.752229
 21
405.523976
 31
0.0
  0
LINE
  5
6FE
330
6F0
100
AcDbEntity
  8
LC-004-005-----0
 62
     7
370
    25
100
AcDbLine
 10
518.486544
 20
400.823976
 30
0.0
 11
523.186544
 21
405.523976
 31
0.0
  0
LINE
  5
6FF
330
6F0
100
AcDbEntity
  8
LC-004-005-----0
 62
     7
370
    25
100
AcDbLine
 10
517.920859
 20
400.823976
 30
0.0
 11
522.620859
 21
405.523976
 31
0.0
  0
LINE
  5
700
330
6F0
100
AcDbEntity
  8
LC-004-005-----0
 62
     7
370
    25
100
AcDbLine
 10
517.355173
 20
400.823976
 30
0.0
 11
522.055173
 21
405.523976
 31
0.0
  0
LINE
  5
701
330
6F0
100
AcDbEntity
  8
LC-004-005-----0
 62
     7
370
    25
100
AcDbLine
 10
516.789488
 20
400.823976
 30
0.0
 11
521.489488
 21
405.523976
 31
0.0
  0
LINE
  5
702
330
6F0
100
AcDbEntity
  8
LC-004-005-----0
 62
     7
370
    25
100
AcDbLine
 10
516.223802
 20
400.823976
 30
0.0
 11
520.923802
 21
405.523976
 31
0.0
  0
LINE
  5
703
330
6F0
100
AcDbEntity
  8
LC-004-005-----0
 62
     7
370
    25
100
AcDbLine
 10
515.658117
 20
400.823976
 30
0.0
 11
520.358117
 21
405.523976
 31
0.0
  0
LINE
  5
704
330
6F0
100
AcDbEntity
  8
LC-004-005-----0
 62
     7
370
    25
100
AcDbLine
 10
515.092431
 20
400.823976
 30
0.0
 11
519.792431
 21
405.523976
 31
0.0
  0
LINE
  5
705
330
6F0
100
AcDbEntity
  8
LC-004-005-----0
 62
     7
370
    25
100
AcDbLine
 10
514.814441
 20
401.111671
 30
0.0
 11
519.226746
 21
405.523976
 31
0.0
  0
LINE
  5
706
330
6F0
100
AcDbEntity
  8
LC-004-005-----0
 62
     7
370
    25
100
AcDbLine
 10
514.814441
 20
401.677356
 30
0.0
 11
518.661061
 21
405.523976
 31
0.0
  0
LINE
  5
707
330
6F0
100
AcDbEntity
  8
LC-004-005-----0
 62
     7
370
    25
100
AcDbLine
 10
514.814441
 20
402.243042
 30
0.0
 11
518.095375
 21
405.523976
 31
0.0
  0
LINE
  5
708
330
6F0
100
AcDbEntity
  8
LC-004-005-----0
 62
     7
370
    25
100
AcDbLine
 10
514.814441
 20
402.808727
 30
0.0
 11
517.52969
 21
405.523976
 31
0.0
  0
LINE
  5
709
330
6F0
100
AcDbEntity
  8
LC-004-005-----0
 62
     7
370
    25
100
AcDbLine
 10
514.814441
 20
403.374412
 30
0.0
 11
516.964004
 21
405.523976
 31
0.0
  0
LINE
  5
70A
330
6F0
100
AcDbEntity
  8
LC-004-005-----0
 62
     7
370
    25
100
AcDbLine
 10
514.814441
 20
403.940098
 30
0.0
 11
516.398319
 21
405.523976
 31
0.0
  0
LINE
  5
70B
330
6F0
100
AcDbEntity
  8
LC-004-005-----0
 62
     7
370
    25
100
AcDbLine
 10
514.814441
 20
404.505783
 30
0.0
 11
515.832633
 21
405.523976
 31
0.0
  0
LINE
  5
70C
330
6F0
100
AcDbEntity
  8
LC-004-005-----0
 62
     7
370
    25
100
AcDbLine
 10
514.814441
 20
405.071469
 30
0.0
 11
515.266948
 21
405.523976
 31
0.0
  0
ENDBLK
  5
6F2
330
6F0
100
AcDbEntity
  8
0
100
AcDbBlockEnd
  0
BLOCK
  5
710
330
70F
100
AcDbEntity
  8
0
100
AcDbBlockBegin
  2
*X1574
 70
     1
 71
     0
 10
0.0
 20
0.0
 30
0.0
  3
*X1574
  1

  4
*X15
  0
LINE
  5
712
330
70F
100
AcDbEntity
  8
LC-004-005-----0
 62
     7
370
    25
100
AcDbLine
 10
504.344408
 20
400.823976
 30
0.0
 11
504.814441
 21
401.294008
 31
0.0
  0
LINE
  5
713
330
70F
100
AcDbEntity
  8
LC-004-005-----0
 62
     7
370
    25
100
AcDbLine
 10
503.778723
 20
400.823976
 30
0.0
 11
504.814441
 21
401.859694
 31
0.0
  0
LINE
  5
714
330
70F
100
AcDbEntity
  8
LC-004-005-----0
 62
     7
370
    25
100
AcDbLine
 10
503.213038
 20
400.823976
 30
0.0
 11
504.814441
 21
402.425379
 31
0.0
  0
LINE
  5
715
330
70F
100
AcDbEntity
  8
LC-004-005-----0
 62
     7
370
    25
100
AcDbLine
 10
502.647352
 20
400.823976
 30
0.0
 11
504.814441
 21
402.991065
 31
0.0
  0
LINE
  5
716
330
70F
100
AcDbEntity
  8
LC-004-005-----0
 62
     7
370
    25
100
AcDbLine
 10
501.935236
 20
400.677545
 30
0.0
 11
504.814441
 21
403.55675
 31
0.0
  0
LINE
  5
717
330
70F
100
AcDbEntity
  8
LC-004-005-----0
 62
     7
370
    25
100
AcDbLine
 10
501.045835
 20
400.35383
 30
0.0
 11
504.814441
 21
404.122436
 31
0.0
  0
LINE
  5
718
330
70F
100
AcDbEntity
  8
LC-004-005-----0
 62
     7
370
    25
100
AcDbLine
 10
500.156435
 20
400.030114
 30
0.0
 11
504.814441
 21
404.688121
 31
0.0
  0
LINE
  5
719
330
70F
100
AcDbEntity
  8
LC-004-005-----0
 62
     7
370
    25
100
AcDbLine
 10
499.267034
 20
399.706399
 30
0.0
 11
504.814441
 21
405.253806
 31
0.0
  0
LINE
  5
71A
330
70F
100
AcDbEntity
  8
LC-004-005-----0
 62
     7
370
    25
100
AcDbLine
 10
498.377633
 20
399.382684
 30
0.0
 11
504.518915
 21
405.523966
 31
0.0
  0
LINE
  5
71B
330
70F
100
AcDbEntity
  8
LC-004-005-----0
 62
     7
370
    25
100
AcDbLine
 10
497.488232
 20
399.058968
 30
0.0
 11
503.95323
 21
405.523966
 31
0.0
  0
LINE
  5
71C
330
70F
100
AcDbEntity
  8
LC-004-005-----0
 62
     7
370
    25
100
AcDbLine
 10
496.598831
 20
398.735253
 30
0.0
 11
503.387544
 21
405.523966
 31
0.0
  0
LINE
  5
71D
330
70F
100
AcDbEntity
  8
LC-004-005-----0
 62
     7
370
    25
100
AcDbLine
 10
495.709431
 20
398.411538
 30
0.0
 11
502.821859
 21
405.523966
 31
0.0
  0
LINE
  5
71E
330
70F
100
AcDbEntity
  8
LC-004-005-----0
 62
     7
370
    25
100
AcDbLine
 10
494.82003
 20
398.087822
 30
0.0
 11
502.256173
 21
405.523966
 31
0.0
  0
LINE
  5
71F
330
70F
100
AcDbEntity
  8
LC-004-005-----0
 62
     7
370
    25
100
AcDbLine
 10
494.814441
 20
398.647919
 30
0.0
 11
501.681785
 21
405.515262
 31
0.0
  0
LINE
  5
720
330
70F
100
AcDbEntity
  8
LC-004-005-----0
 62
     7
370
    25
100
AcDbLine
 10
494.814441
 20
399.213604
 30
0.0
 11
500.792375
 21
405.191539
 31
0.0
  0
LINE
  5
721
330
70F
100
AcDbEntity
  8
LC-004-005-----0
 62
     7
370
    25
100
AcDbLine
 10
494.814441
 20
399.77929
 30
0.0
 11
499.902966
 21
404.867815
 31
0.0
  0
LINE
  5
722
330
70F
100
AcDbEntity
  8
LC-004-005-----0
 62
     7
370
    25
100
AcDbLine
 10
494.814441
 20
400.344975
 30
0.0
 11
498.109234
 21
403.639768
 31
0.0
  0
LINE
  5
723
330
70F
100
AcDbEntity
  8
LC-004-005-----0
 62
     7
370
    25
100
AcDbLine
 10
494.814441
 20
400.910661
 30
0.0
 11
497.229413
 21
403.325633
 31
0.0
  0
LINE
  5
724
330
70F
100
AcDbEntity
  8
LC-004-005-----0
 62
     7
370
    25
100
AcDbLine
 10
494.814441
 20
401.476346
 30
0.0
 11
496.585989
 21
403.247894
 31
0.0
  0
LINE
  5
725
330
70F
100
AcDbEntity
  8
LC-004-005-----0
 62
     7
370
    25
100
AcDbLine
 10
494.814441
 20
402.042031
 30
0.0
 11
495.953865
 21
403.181455
 31
0.0
  0
LINE
  5
726
330
70F
100
AcDbEntity
  8
LC-004-005-----0
 62
     7
370
    25
100
AcDbLine
 10
494.814441
 20
402.607717
 30
0.0
 11
495.321741
 21
403.115017
 31
0.0
  0
ENDBLK
  5
711
330
70F
100
AcDbEntity
  8
0
100
AcDbBlockEnd
  0
BLOCK
  5
72B
330
72A
100
AcDbEntity
  8
0
100
AcDbBlockBegin
  2
*X1675
 70
     1
 71
     0
 10
0.0
 20
0.0
 30
0.0
  3
*X1675
  1

  4
*X16
  0
LINE
  5
72D
330
72A
100
AcDbEntity
  8
LC-004-005-----0
 62
     7
370
    25
100
AcDbLine
 10
484.14722
 20
394.203237
 30
0.0
 11
484.814441
 21
394.870459
 31
0.0
  0
LINE
  5
72E
330
72A
100
AcDbEntity
  8
LC-004-005-----0
 62
     7
370
    25
100
AcDbLine
 10
483.257819
 20
393.879522
 30
0.0
 11
484.814441
 21
395.436144
 31
0.0
  0
LINE
  5
72F
330
72A
100
AcDbEntity
  8
LC-004-005-----0
 62
     7
370
    25
100
AcDbLine
 10
482.368418
 20
393.555807
 30
0.0
 11
484.814441
 21
396.001829
 31
0.0
  0
LINE
  5
730
330
72A
100
AcDbEntity
  8
LC-004-005-----0
 62
     7
370
    25
100
AcDbLine
 10
481.479018
 20
393.232091
 30
0.0
 11
484.814441
 21
396.567515
 31
0.0
  0
LINE
  5
731
330
72A
100
AcDbEntity
  8
LC-004-005-----0
 62
     7
370
    25
100
AcDbLine
 10
480.589617
 20
392.908376
 30
0.0
 11
484.814441
 21
397.1332
 31
0.0
  0
LINE
  5
732
330
72A
100
AcDbEntity
  8
LC-004-005-----0
 62
     7
370
    25
100
AcDbLine
 10
479.700216
 20
392.584661
 30
0.0
 11
484.814441
 21
397.698886
 31
0.0
  0
LINE
  5
733
330
72A
100
AcDbEntity
  8
LC-004-005-----0
 62
     7
370
    25
100
AcDbLine
 10
478.810815
 20
392.260945
 30
0.0
 11
484.814441
 21
398.264571
 31
0.0
  0
LINE
  5
734
330
72A
100
AcDbEntity
  8
LC-004-005-----0
 62
     7
370
    25
100
AcDbLine
 10
478.128159
 20
392.143975
 30
0.0
 11
484.814441
 21
398.830257
 31
0.0
  0
LINE
  5
735
330
72A
100
AcDbEntity
  8
LC-004-005-----0
 62
     7
370
    25
100
AcDbLine
 10
477.562474
 20
392.143975
 30
0.0
 11
484.783008
 21
399.364509
 31
0.0
  0
LINE
  5
736
330
72A
100
AcDbEntity
  8
LC-004-005-----0
 62
     7
370
    25
100
AcDbLine
 10
476.996788
 20
392.143975
 30
0.0
 11
483.893599
 21
399.040785
 31
0.0
  0
LINE
  5
737
330
72A
100
AcDbEntity
  8
LC-004-005-----0
 62
     7
370
    25
100
AcDbLine
 10
476.431103
 20
392.143975
 30
0.0
 11
483.004189
 21
398.717061
 31
0.0
  0
LINE
  5
738
330
72A
100
AcDbEntity
  8
LC-004-005-----0
 62
     7
370
    25
100
AcDbLine
 10
475.865418
 20
392.143975
 30
0.0
 11
482.11478
 21
398.393337
 31
0.0
  0
LINE
  5
739
330
72A
100
AcDbEntity
  8
LC-004-005-----0
 62
     7
370
    25
100
AcDbLine
 10
475.299732
 20
392.143975
 30
0.0
 11
481.225371
 21
398.069613
 31
0.0
  0
LINE
  5
73A
330
72A
100
AcDbEntity
  8
LC-004-005-----0
 62
     7
370
    25
100
AcDbLine
 10
474.814441
 20
392.224369
 30
0.0
 11
480.335961
 21
397.745889
 31
0.0
  0
LINE
  5
73B
330
72A
100
AcDbEntity
  8
LC-004-005-----0
 62
     7
370
    25
100
AcDbLine
 10
474.814441
 20
392.790055
 30
0.0
 11
479.446552
 21
397.422165
 31
0.0
  0
LINE
  5
73C
330
72A
100
AcDbEntity
  8
LC-004-005-----0
 62
     7
370
    25
100
AcDbLine
 10
474.814441
 20
393.35574
 30
0.0
 11
478.557143
 21
397.098442
 31
0.0
  0
LINE
  5
73D
330
72A
100
AcDbEntity
  8
LC-004-005-----0
 62
     7
370
    25
100
AcDbLine
 10
474.814441
 20
393.921425
 30
0.0
 11
477.667733
 21
396.774718
 31
0.0
  0
LINE
  5
73E
330
72A
100
AcDbEntity
  8
LC-004-005-----0
 62
     7
370
    25
100
AcDbLine
 10
474.814441
 20
394.487111
 30
0.0
 11
477.101304
 21
396.773974
 31
0.0
  0
LINE
  5
73F
330
72A
100
AcDbEntity
  8
LC-004-005-----0
 62
     7
370
    25
100
AcDbLine
 10
474.814441
 20
395.052796
 30
0.0
 11
476.535619
 21
396.773974
 31
0.0
  0
LINE
  5
740
330
72A
100
AcDbEntity
  8
LC-004-005-----0
 62
     7
370
    25
100
AcDbLine
 10
474.814441
 20
395.618482
 30
0.0
 11
475.969934
 21
396.773974
 31
0.0
  0
LINE
  5
741
330
72A
100
AcDbEntity
  8
LC-004-005-----0
 62
     7
370
    25
100
AcDbLine
 10
474.814441
 20
396.184167
 30
0.0
 11
475.404248
 21
396.773974
 31
0.0
  0
LINE
  5
742
330
72A
100
AcDbEntity
  8
LC-004-005-----0
 62
     7
370
    25
100
AcDbLine
 10
474.814441
 20
396.749853
 30
0.0
 11
474.838563
 21
396.773974
 31
0.0
  0
ENDBLK
  5
72C
330
72A
100
AcDbEntity
  8
0
100
AcDbBlockEnd
  0
BLOCK
  5
754
330
74A
100
AcDbEntity
  8
0
100
AcDbBlockBegin
  2
*D76
 70
     1
 71
     0
 10
0.0
 20
0.0
 30
0.0
  3
*D76
  1

  0
LINE
  5
74B
330
74A
100
AcDbEntity
  8
LC-005-003-----0
 62
     2
370
    -2
100
AcDbLine
 10
124.814426
 20
400.823976
 30
0.0
 11
124.814426
 21
552.329976
 31
0.0
  0
LINE
  5
74C
330
74A
100
AcDbEntity
  8
LC-005-003-----0
 62
     2
370
    -2
100
AcDbLine
 10
624.814441
 20
400.823976
 30
0.0
 11
624.814441
 21
552.329976
 31
0.0
  0
LINE
  5
74D
330
74A
100
AcDbEntity
  8
LC-005-003-----0
 62
     2
370
    -2
100
AcDbLine
 10
152.814426
 20
548.729976
 30
0.0
 11
596.814441
 21
548.729976
 31
0.0
  0
SOLID
  5
74E
330
74A
100
AcDbEntity
  8
LC-005-003-----0
 62
     2
100
AcDbTrace
 10
152.814426
 20
553.396642
 30
0.0
 11
152.814426
 21
544.063309
 31
0.0
 12
124.814426
 22
548.729976
 32
0.0
 13
124.814426
 23
548.729976
 33
0.0
  0
SOLID
  5
74F
330
74A
100
AcDbEntity
  8
LC-005-003-----0
 62
     2
100
AcDbTrace
 10
596.814441
 20
544.063309
 30
0.0
 11
596.814441
 21
553.396642
 31
0.0
 12
624.814441
 22
548.729976
 32
0.0
 13
624.814441
 23
548.729976
 33
0.0
  0
MTEXT
  5
750
330
74A
100
AcDbEntity
  8
LC-005-003-----0
 62
     2
100
AcDbMText
 10
373.027234
 20
579.529976
 30
0.0
 40
28.0
 41
0.0
 71
     5
 72
     1
  1
\A1;500
  7
LCTX15-400-0-0pDIN-Schrift
 73
     1
 44
1.0
  0
POINT
  5
751
330
74A
100
AcDbEntity
  8
Defpoints
 62
     0
100
AcDbPoint
 10
124.814426
 20
400.823976
 30
0.0
  0
POINT
  5
752
330
74A
100
AcDbEntity
  8
Defpoints
 62
     0
100
AcDbPoint
 10
624.814441
 20
400.823976
 30
0.0
  0
POINT
  5
753
330
74A
100
AcDbEntity
  8
Defpoints
 62
     0
100
AcDbPoint
 10
624.814441
 20
548.729976
 30
0.0
  0
ENDBLK
  5
755
330
74A
100
AcDbEntity
  8
0
100
AcDbBlockEnd
  0
BLOCK
  5
761
330
757
100
AcDbEntity
  8
0
100
AcDbBlockBegin
  2
*D77
 70
     1
 71
     0
 10
0.0
 20
0.0
 30
0.0
  3
*D77
  1

  0
LINE
  5
758
330
757
100
AcDbEntity
  8
LC-005-003-----0
 62
     2
370
    -2
100
AcDbLine
 10
197.814439
 20
397.823977
 30
0.0
 11
197.814439
 21
503.027976
 31
0.0
  0
LINE
  5
759
330
757
100
AcDbEntity
  8
LC-005-003-----0
 62
     2
370
    -2
100
AcDbLine
 10
551.814427
 20
397.823977
 30
0.0
 11
551.814427
 21
503.027976
 31
0.0
  0
LINE
  5
75A
330
757
100
AcDbEntity
  8
LC-005-003-----0
 62
     2
370
    -2
100
AcDbLine
 10
225.814439
 20
499.427976
 30
0.0
 11
523.814427
 21
499.427976
 31
0.0
  0
SOLID
  5
75B
330
757
100
AcDbEntity
  8
LC-005-003-----0
 62
     2
100
AcDbTrace
 10
225.814439
 20
504.094642
 30
0.0
 11
225.814439
 21
494.761309
 31
0.0
 12
197.814439
 22
499.427976
 32
0.0
 13
197.814439
 23
499.427976
 33
0.0
  0
SOLID
  5
75C
330
757
100
AcDbEntity
  8
LC-005-003-----0
 62
     2
100
AcDbTrace
 10
523.814427
 20
494.761309
 30
0.0
 11
523.814427
 21
504.094642
 31
0.0
 12
551.814427
 22
499.427976
 32
0.0
 13
551.814427
 23
499.427976
 33
0.0
  0
MTEXT
  5
75D
330
757
100
AcDbEntity
  8
LC-005-003-----0
 62
     2
100
AcDbMText
 10
367.708388
 20
530.227976
 30
0.0
 40
28.0
 41
0.0
 71
     5
 72
     1
  1
%%c\A1;354
  7
LCTX15-400-0-0pDIN-Schrift
 73
     1
 44
1.0
  0
POINT
  5
75E
330
757
100
AcDbEntity
  8
Defpoints
 62
     0
100
AcDbPoint
 10
197.814439
 20
397.823977
 30
0.0
  0
POINT
  5
75F
330
757
100
AcDbEntity
  8
Defpoints
 62
     0
100
AcDbPoint
 10
551.814427
 20
397.823977
 30
0.0
  0
POINT
  5
760
330
757
100
AcDbEntity
  8
Defpoints
 62
     0
100
AcDbPoint
 10
551.814427
 20
499.427976
 30
0.0
  0
ENDBLK
  5
762
330
757
100
AcDbEntity
  8
0
100
AcDbBlockEnd
  0
BLOCK
  5
76E
330
764
100
AcDbEntity
  8
0
100
AcDbBlockBegin
  2
*D78
 70
     1
 71
     0
 10
0.0
 20
0.0
 30
0.0
  3
*D78
  1

  0
LINE
  5
765
330
764
100
AcDbEntity
  8
LC-005-003-----0
 62
     2
370
    -2
100
AcDbLine
 10
294.814435
 20
308.823977
 30
0.0
 11
294.814435
 21
118.043976
 31
0.0
  0
LINE
  5
766
330
764
100
AcDbEntity
  8
LC-005-003-----0
 62
     2
370
    -2
100
AcDbLine
 10
454.814435
 20
308.823977
 30
0.0
 11
454.814435
 21
118.043976
 31
0.0
  0
LINE
  5
767
330
764
100
AcDbEntity
  8
LC-005-003-----0
 62
     2
370
    -2
100
AcDbLine
 10
322.814435
 20
121.643976
 30
0.0
 11
426.814435
 21
121.643976
 31
0.0
  0
SOLID
  5
768
330
764
100
AcDbEntity
  8
LC-005-003-----0
 62
     2
100
AcDbTrace
 10
322.814435
 20
126.310642
 30
0.0
 11
322.814435
 21
116.977309
 31
0.0
 12
294.814435
 22
121.643976
 32
0.0
 13
294.814435
 23
121.643976
 33
0.0
  0
SOLID
  5
769
330
764
100
AcDbEntity
  8
LC-005-003-----0
 62
     2
100
AcDbTrace
 10
426.814435
 20
116.977309
 30
0.0
 11
426.814435
 21
126.310642
 31
0.0
 12
454.814435
 22
121.643976
 32
0.0
 13
454.814435
 23
121.643976
 33
0.0
  0
MTEXT
  5
76A
330
764
100
AcDbEntity
  8
LC-005-003-----0
 62
     2
100
AcDbMText
 10
373.027234
 20
152.443976
 30
0.0
 40
28.0
 41
0.0
 71
     5
 72
     1
  1
%%c\A1;160
  7
LCTX15-400-0-0pDIN-Schrift
 73
     1
 44
1.0
  0
POINT
  5
76B
330
764
100
AcDbEntity
  8
Defpoints
 62
     0
100
AcDbPoint
 10
294.814435
 20
308.823977
 30
0.0
  0
POINT
  5
76C
330
764
100
AcDbEntity
  8
Defpoints
 62
     0
100
AcDbPoint
 10
454.814435
 20
308.823977
 30
0.0
  0
POINT
  5
76D
330
764
100
AcDbEntity
  8
Defpoints
 62
     0
100
AcDbPoint
 10
454.814435
 20
121.643976
 30
0.0
  0
ENDBLK
  5
76F
330
764
100
AcDbEntity
  8
0
100
AcDbBlockEnd
  0
BLOCK
  5
77B
330
771
100
AcDbEntity
  8
0
100
AcDbBlockBegin
  2
*D79
 70
     1
 71
     0
 10
0.0
 20
0.0
 30
0.0
  3
*D79
  1

  0
LINE
  5
772
330
771
100
AcDbEntity
  8
LC-005-003-----0
 62
     2
370
    -2
100
AcDbLine
 10
319.814433
 20
237.323976
 30
0.0
 11
319.814433
 21
171.503976
 31
0.0
  0
LINE
  5
773
330
771
100
AcDbEntity
  8
LC-005-003-----0
 62
     2
370
    -2
100
AcDbLine
 10
429.814433
 20
237.323976
 30
0.0
 11
429.814433
 21
171.503976
 31
0.0
  0
LINE
  5
774
330
771
100
AcDbEntity
  8
LC-005-003-----0
 62
     2
370
    -2
100
AcDbLine
 10
347.814433
 20
175.103976
 30
0.0
 11
401.814433
 21
175.103976
 31
0.0
  0
SOLID
  5
775
330
771
100
AcDbEntity
  8
LC-005-003-----0
 62
     2
100
AcDbTrace
 10
347.814433
 20
179.770642
 30
0.0
 11
347.814433
 21
170.437309
 31
0.0
 12
319.814433
 22
175.103976
 32
0.0
 13
319.814433
 23
175.103976
 33
0.0
  0
SOLID
  5
776
330
771
100
AcDbEntity
  8
LC-005-003-----0
 62
     2
100
AcDbTrace
 10
401.814433
 20
170.437309
 30
0.0
 11
401.814433
 21
179.770642
 31
0.0
 12
429.814433
 22
175.103976
 32
0.0
 13
429.814433
 23
175.103976
 33
0.0
  0
MTEXT
  5
777
330
771
100
AcDbEntity
  8
LC-005-003-----0
 62
     2
100
AcDbMText
 10
366.821914
 20
205.903976
 30
0.0
 40
28.0
 41
0.0
 71
     5
 72
     1
  1
\A1;DN100
  7
LCTX15-400-0-0pDIN-Schrift
 73
     1
 44
1.0
  0
POINT
  5
778
330
771
100
AcDbEntity
  8
Defpoints
 62
     0
100
AcDbPoint
 10
319.814433
 20
237.323976
 30
0.0
  0
POINT
  5
779
330
771
100
AcDbEntity
  8
Defpoints
 62
     0
100
AcDbPoint
 10
429.814433
 20
237.323976
 30
0.0
  0
POINT
  5
77A
330
771
100
AcDbEntity
  8
Defpoints
 62
     0
100
AcDbPoint
 10
429.814433
 20
175.103976
 30
0.0
  0
ENDBLK
  5
77C
330
771
100
AcDbEntity
  8
0
100
AcDbBlockEnd
  0
BLOCK
  5
788
330
77E
100
AcDbEntity
  8
0
100
AcDbBlockBegin
  2
*D80
 70
     1
 71
     0
 10
0.0
 20
0.0
 30
0.0
  3
*D80
  1

  0
LINE
  5
77F
330
77E
100
AcDbEntity
  8
LC-005-003-----0
 62
     2
370
    -2
100
AcDbLine
 10
124.814426
 20
400.823976
 30
0.0
 11
167.419296
 21
400.823976
 31
0.0
  0
LINE
  5
780
330
77E
100
AcDbEntity
  8
LC-005-003-----0
 62
     2
370
    -2
100
AcDbLine
 10
302.814433
 20
298.823977
 30
0.0
 11
160.219296
 21
298.823977
 31
0.0
  0
LINE
  5
781
330
77E
100
AcDbEntity
  8
LC-005-003-----0
 62
     2
370
    -2
100
AcDbLine
 10
163.819296
 20
372.823976
 30
0.0
 11
163.819296
 21
326.823977
 31
0.0
  0
SOLID
  5
782
330
77E
100
AcDbEntity
  8
LC-005-003-----0
 62
     2
100
AcDbTrace
 10
168.485962
 20
372.823976
 30
0.0
 11
159.152629
 21
372.823976
 31
0.0
 12
163.819296
 22
400.823976
 32
0.0
 13
163.819296
 23
400.823976
 33
0.0
  0
SOLID
  5
783
330
77E
100
AcDbEntity
  8
LC-005-003-----0
 62
     2
100
AcDbTrace
 10
159.152629
 20
326.823977
 30
0.0
 11
168.485962
 21
326.823977
 31
0.0
 12
163.819296
 22
298.823977
 32
0.0
 13
163.819296
 23
298.823977
 33
0.0
  0
MTEXT
  5
784
330
77E
100
AcDbEntity
  8
LC-005-003-----0
 62
     2
100
AcDbMText
 10
133.019296
 20
354.491976
 30
0.0
 40
28.0
 41
0.0
 71
     5
 72
     1
  1
\A1;102
  7
LCTX15-400-0-0pDIN-Schrift
 11
6.123031769111886E-17
 21
1.0
 31
0.0
 73
     1
 44
1.0
  0
POINT
  5
785
330
77E
100
AcDbEntity
  8
Defpoints
 62
     0
100
AcDbPoint
 10
124.814426
 20
400.823976
 30
0.0
  0
POINT
  5
786
330
77E
100
AcDbEntity
  8
Defpoints
 62
     0
100
AcDbPoint
 10
302.814433
 20
298.823977
 30
0.0
  0
POINT
  5
787
330
77E
100
AcDbEntity
  8
Defpoints
 62
     0
100
AcDbPoint
 10
163.819296
 20
298.823977
 30
0.0
  0
ENDBLK
  5
789
330
77E
100
AcDbEntity
  8
0
100
AcDbBlockEnd
  0
BLOCK
  5
795
330
78B
100
AcDbEntity
  8
0
100
AcDbBlockBegin
  2
*D81
 70
     1
 71
     0
 10
0.0
 20
0.0
 30
0.0
  3
*D81
  1

  0
LINE
  5
78C
330
78B
100
AcDbEntity
  8
LC-005-003-----0
 62
     2
370
    -2
100
AcDbLine
 10
303.598493
 20
298.823977
 30
0.0
 11
224.981563
 21
298.823977
 31
0.0
  0
LINE
  5
78D
330
78B
100
AcDbEntity
  8
LC-005-003-----0
 62
     2
370
    -2
100
AcDbLine
 10
321.917319
 20
232.823978
 30
0.0
 11
224.981563
 21
232.823978
 31
0.0
  0
LINE
  5
78E
330
78B
100
AcDbEntity
  8
LC-005-003-----0
 62
     2
370
    -2
100
AcDbLine
 10
228.581563
 20
270.823977
 30
0.0
 11
228.581563
 21
260.823978
 31
0.0
  0
SOLID
  5
78F
330
78B
100
AcDbEntity
  8
LC-005-003-----0
 62
     2
100
AcDbTrace
 10
233.24823
 20
270.823977
 30
0.0
 11
223.914896
 21
270.823977
 31
0.0
 12
228.581563
 22
298.823977
 32
0.0
 13
228.581563
 23
298.823977
 33
0.0
  0
SOLID
  5
790
330
78B
100
AcDbEntity
  8
LC-005-003-----0
 62
     2
100
AcDbTrace
 10
223.914896
 20
260.823978
 30
0.0
 11
233.24823
 21
260.823978
 31
0.0
 12
228.581563
 22
232.823978
 32
0.0
 13
228.581563
 23
232.823978
 33
0.0
  0
MTEXT
  5
791
330
78B
100
AcDbEntity
  8
LC-005-003-----0
 62
     2
100
AcDbMText
 10
197.781563
 20
264.649853
 30
0.0
 40
28.0
 41
0.0
 71
     5
 72
     1
  1
\A1;66
  7
LCTX15-400-0-0pDIN-Schrift
 11
6.123031769111886E-17
 21
1.0
 31
0.0
 73
     1
 44
1.0
  0
POINT
  5
792
330
78B
100
AcDbEntity
  8
Defpoints
 62
     0
100
AcDbPoint
 10
303.598493
 20
298.823977
 30
0.0
  0
POINT
  5
793
330
78B
100
AcDbEntity
  8
Defpoints
 62
     0
100
AcDbPoint
 10
321.917319
 20
232.823978
 30
0.0
  0
POINT
  5
794
330
78B
100
AcDbEntity
  8
Defpoints
 62
     0
100
AcDbPoint
 10
228.581563
 20
232.823978
 30
0.0
  0
ENDBLK
  5
796
330
78B
100
AcDbEntity
  8
0
100
AcDbBlockEnd
  0
ENDSEC
  0
SECTION
  2
ENTITIES
  0
LINE
  5
32
330
1F
100
AcDbEntity
  8
LC-001-100-D00-0
 62
     7
370
    -2
100
AcDbLine
 10
406.481716
 20
11.942928
 30
0.0
 11
215.481716
 21
11.942928
 31
0.0
  0
LINE
  5
34
330
1F
100
AcDbEntity
  8
LC-002-101-D00-0
 62
     7
370
    30
100
AcDbLine
 10
215.481716
 20
11.942928
 30
0.0
 11
406.481716
 21
11.942928
 31
0.0
  0
INSERT
  5
40
330
1F
100
AcDbEntity
  8
LC-001-100-D00-0
 62
     7
370
    50
100
AcDbBlockReference
  2
POLY1
 10
0.0
 20
0.0
 30
0.0
  0
INSERT
  5
4C
330
1F
100
AcDbEntity
  8
LC-001-100-D00-0
 62
     7
370
    50
100
AcDbBlockReference
  2
POLY2
 10
0.0
 20
0.0
 30
0.0
  0
INSERT
  5
58
330
1F
100
AcDbEntity
  8
LC-001-100-D00-0
 62
     7
370
    50
100
AcDbBlockReference
  2
POLY3
 10
0.0
 20
0.0
 30
0.0
  0
INSERT
  5
64
330
1F
100
AcDbEntity
  8
LC-001-100-D00-0
 62
     7
370
    50
100
AcDbBlockReference
  2
POLY4
 10
0.0
 20
0.0
 30
0.0
  0
INSERT
  5
70
330
1F
100
AcDbEntity
  8
LC-001-100-D00-0
 62
     7
370
    50
100
AcDbBlockReference
  2
POLY5
 10
0.0
 20
0.0
 30
0.0
  0
INSERT
  5
7C
330
1F
100
AcDbEntity
  8
LC-001-100-D00-0
 62
     7
370
    50
100
AcDbBlockReference
  2
POLY6
 10
0.0
 20
0.0
 30
0.0
  0
INSERT
  5
88
330
1F
100
AcDbEntity
  8
LC-001-100-D00-0
 62
     7
370
    50
100
AcDbBlockReference
  2
POLY7
 10
0.0
 20
0.0
 30
0.0
  0
INSERT
  5
94
330
1F
100
AcDbEntity
  8
LC-001-100-D00-0
 62
     7
370
    50
100
AcDbBlockReference
  2
POLY8
 10
0.0
 20
0.0
 30
0.0
  0
INSERT
  5
A0
330
1F
100
AcDbEntity
  8
LC-001-100-D00-0
 62
     7
370
    50
100
AcDbBlockReference
  2
POLY9
 10
0.0
 20
0.0
 30
0.0
  0
INSERT
  5
AC
330
1F
100
AcDbEntity
  8
LC-001-100-D00-0
 62
     7
370
    50
100
AcDbBlockReference
  2
POLY10
 10
0.0
 20
0.0
 30
0.0
  0
LINE
  5
AD
330
1F
100
AcDbEntity
  8
LC-001-100-D00-0
 62
     7
370
    50
100
AcDbLine
 10
327.879173
 20
402.180354
 30
0.0
 11
327.879173
 21
402.167852
 31
0.0
  0
ARC
  5
AE
330
1F
100
AcDbEntity
  8
LC-001-100-D00-0
 62
     7
370
    50
100
AcDbCircle
 10
421.814433
 20
401.042853
 30
0.0
 40
6.820236432851799
100
AcDbArc
 50
116.493736
 51
123.008786
  0
ARC
  5
AF
330
1F
100
AcDbEntity
  8
LC-001-100-D00-0
 62
     7
370
    50
100
AcDbCircle
 10
418.861146
 20
406.967853
 30
0.0
 40
0.2000000000000455
100
AcDbArc
 50
90.0
 51
116.493736
  0
ARC
  5
B0
330
1F
100
AcDbEntity
  8
LC-001-100-D00-0
 62
     7
370
    50
100
AcDbCircle
 10
447.814433
 20
318.823977
 30
0.0
 40
2.000000000000114
100
AcDbArc
 50
0.0
 51
90.0
  0
ARC
  5
B1
330
1F
100
AcDbEntity
  8
LC-001-100-D00-0
 62
     7
370
    50
100
AcDbCircle
 10
301.814433
 20
318.823977
 30
0.0
 40
2.0
100
AcDbArc
 50
90.0
 51
180.0
  0
ARC
  5
B2
330
1F
100
AcDbEntity
  8
LC-001-100-D00-0
 62
     7
370
    50
100
AcDbCircle
 10
447.814433
 20
310.823977
 30
0.0
 40
2.000000000000114
100
AcDbArc
 50
270.0
 51
0.0
  0
ARC
  5
B3
330
1F
100
AcDbEntity
  8
LC-001-100-D00-0
 62
     7
370
    50
100
AcDbCircle
 10
301.814433
 20
310.823977
 30
0.0
 40
2.000000000000057
100
AcDbArc
 50
180.0
 51
270.0
  0
LINE
  5
B4
330
1F
100
AcDbEntity
  8
LC-001-100-D00-0
 62
     7
370
    50
100
AcDbLine
 10
449.814432
 20
310.823977
 30
0.0
 11
449.814432
 21
318.823977
 31
0.0
  0
LINE
  5
B5
330
1F
100
AcDbEntity
  8
LC-001-100-D00-0
 62
     7
370
    50
100
AcDbLine
 10
299.81443
 20
318.823977
 30
0.0
 11
299.81443
 21
310.823977
 31
0.0
  0
ARC
  5
B6
330
1F
100
AcDbEntity
  8
LC-001-100-D00-0
 62
     7
370
    50
100
AcDbCircle
 10
443.814433
 20
318.823977
 30
0.0
 40
2.0
100
AcDbArc
 50
90.0
 51
180.0
  0
ARC
  5
B7
330
1F
100
AcDbEntity
  8
LC-001-100-D00-0
 62
     7
370
    50
100
AcDbCircle
 10
305.814433
 20
318.823977
 30
0.0
 40
2.0
100
AcDbArc
 50
0.0
 51
90.0
  0
LINE
  5
B8
330
1F
100
AcDbEntity
  8
LC-001-100-D00-0
 62
     7
370
    50
100
AcDbLine
 10
443.814435
 20
320.823977
 30
0.0
 11
442.564433
 21
320.823977
 31
0.0
  0
LINE
  5
B9
330
1F
100
AcDbEntity
  8
LC-001-100-D00-0
 62
     7
370
    50
100
AcDbLine
 10
307.064434
 20
320.823977
 30
0.0
 11
305.814435
 21
320.823977
 31
0.0
  0
ARC
  5
BA
330
1F
100
AcDbEntity
  8
LC-001-100-D00-0
 62
     7
370
    50
100
AcDbCircle
 10
443.814433
 20
310.823977
 30
0.0
 40
2.0
100
AcDbArc
 50
180.0
 51
270.0
  0
ARC
  5
BB
330
1F
100
AcDbEntity
  8
LC-001-100-D00-0
 62
     7
370
    50
100
AcDbCircle
 10
305.814433
 20
310.823977
 30
0.0
 40
2.0
100
AcDbArc
 50
270.0
 51
0.0
  0
LINE
  5
BC
330
1F
100
AcDbEntity
  8
LC-001-100-D00-0
 62
     7
370
    50
100
AcDbLine
 10
443.814435
 20
308.823977
 30
0.0
 11
442.564433
 21
308.823977
 31
0.0
  0
LINE
  5
BD
330
1F
100
AcDbEntity
  8
LC-001-100-D00-0
 62
     7
370
    50
100
AcDbLine
 10
307.064434
 20
308.823977
 30
0.0
 11
306.750883
 21
308.823977
 31
0.0
  0
LINE
  5
BE
330
1F
100
AcDbEntity
  8
LC-001-100-D00-0
 62
     7
370
    50
100
AcDbLine
 10
441.814435
 20
318.823977
 30
0.0
 11
441.814435
 21
310.823977
 31
0.0
  0
LINE
  5
BF
330
1F
100
AcDbEntity
  8
LC-001-100-D00-0
 62
     7
370
    50
100
AcDbLine
 10
307.814431
 20
310.823977
 30
0.0
 11
307.814431
 21
318.823977
 31
0.0
  0
LINE
  5
C0
330
1F
100
AcDbEntity
  8
LC-001-100-D00-0
 62
     7
370
    50
100
AcDbLine
 10
305.814435
 20
308.823977
 30
0.0
 11
306.750883
 21
308.823977
 31
0.0
  0
LINE
  5
C1
330
1F
100
AcDbEntity
  8
LC-001-100-D00-0
 62
     7
370
    50
100
AcDbLine
 10
306.750883
 20
308.823977
 30
0.0
 11
306.750883
 21
108.82398
 31
0.0
  0
LINE
  5
C2
330
1F
100
AcDbEntity
  8
LC-001-100-D00-0
 62
     7
370
    50
100
AcDbLine
 10
300.751296
 20
108.82398
 30
0.0
 11
306.750883
 21
108.82398
 31
0.0
  0
LINE
  5
C3
330
1F
100
AcDbEntity
  8
LC-001-100-D00-0
 62
     7
370
    50
100
AcDbLine
 10
300.751296
 20
108.82398
 30
0.0
 11
300.751296
 21
308.823977
 31
0.0
  0
LINE
  5
C4
330
1F
100
AcDbEntity
  8
LC-001-100-D00-0
 62
     7
370
    50
100
AcDbLine
 10
300.751296
 20
308.823977
 30
0.0
 11
301.814434
 21
308.823977
 31
0.0
  0
LINE
  5
C5
330
1F
100
AcDbEntity
  8
LC-001-100-D00-0
 62
     7
370
    50
100
AcDbLine
 10
305.814435
 20
320.823977
 30
0.0
 11
301.814434
 21
320.823977
 31
0.0
  0
LINE
  5
C6
330
1F
100
AcDbEntity
  8
LC-001-100-D00-0
 62
     7
370
    50
100
AcDbLine
 10
443.814435
 20
308.823977
 30
0.0
 11
447.814432
 21
308.823977
 31
0.0
  0
LINE
  5
C7
330
1F
100
AcDbEntity
  8
LC-001-100-D00-0
 62
     7
370
    50
100
AcDbLine
 10
447.814432
 20
320.823977
 30
0.0
 11
443.814435
 21
320.823977
 31
0.0
  0
LINE
  5
C8
330
1F
100
AcDbEntity
  8
LC-001-100-D00-0
 62
     7
370
    50
100
AcDbLine
 10
310.100992
 20
301.323977
 30
0.0
 11
310.100992
 21
303.823977
 31
0.0
  0
LINE
  5
C9
330
1F
100
AcDbEntity
  8
LC-001-100-D00-0
 62
     7
370
    50
100
AcDbLine
 10
297.401187
 20
303.823977
 30
0.0
 11
297.401187
 21
301.323977
 31
0.0
  0
LINE
  5
CA
330
1F
100
AcDbEntity
  8
LC-001-100-D00-0
 62
     7
370
    50
100
AcDbLine
 10
308.000942
 20
278.823978
 30
0.0
 11
308.000942
 21
301.323977
 31
0.0
  0
LINE
  5
CB
330
1F
100
AcDbEntity
  8
LC-001-100-D00-0
 62
     7
370
    50
100
AcDbLine
 10
299.501238
 20
301.323977
 30
0.0
 11
299.501238
 21
278.823978
 31
0.0
  0
LINE
  5
CC
330
1F
100
AcDbEntity
  8
LC-001-100-D00-0
 62
     7
370
    50
100
AcDbLine
 10
307.300915
 20
303.823977
 30
0.0
 11
307.300915
 21
278.823978
 31
0.0
  0
LINE
  5
CD
330
1F
100
AcDbEntity
  8
LC-001-100-D00-0
 62
     7
370
    50
100
AcDbLine
 10
300.201264
 20
278.823978
 30
0.0
 11
300.201264
 21
303.823977
 31
0.0
  0
LINE
  5
CE
330
1F
100
AcDbEntity
  8
LC-001-100-D00-0
 62
     7
370
    50
100
AcDbLine
 10
307.300915
 20
278.823978
 30
0.0
 11
306.750883
 21
278.823978
 31
0.0
  0
LINE
  5
CF
330
1F
100
AcDbEntity
  8
LC-001-100-D00-0
 62
     7
370
    50
100
AcDbLine
 10
300.751296
 20
278.823978
 30
0.0
 11
300.201264
 21
278.823978
 31
0.0
  0
LINE
  5
D0
330
1F
100
AcDbEntity
  8
LC-001-100-D00-0
 62
     7
370
    50
100
AcDbLine
 10
307.300915
 20
303.823977
 30
0.0
 11
306.750883
 21
303.823977
 31
0.0
  0
LINE
  5
D1
330
1F
100
AcDbEntity
  8
LC-001-100-D00-0
 62
     7
370
    50
100
AcDbLine
 10
300.751296
 20
303.823977
 30
0.0
 11
300.201264
 21
303.823977
 31
0.0
  0
LINE
  5
D2
330
1F
100
AcDbEntity
  8
LC-001-100-D00-0
 62
     7
370
    50
100
AcDbLine
 10
299.501238
 20
278.823978
 30
0.0
 11
300.201264
 21
278.823978
 31
0.0
  0
LINE
  5
D3
330
1F
100
AcDbEntity
  8
LC-001-100-D00-0
 62
     7
370
    50
100
AcDbLine
 10
300.201264
 20
303.823977
 30
0.0
 11
297.401187
 21
303.823977
 31
0.0
  0
LINE
  5
D4
330
1F
100
AcDbEntity
  8
LC-001-100-D00-0
 62
     7
370
    50
100
AcDbLine
 10
297.401187
 20
301.323977
 30
0.0
 11
299.501238
 21
301.323977
 31
0.0
  0
LINE
  5
D5
330
1F
100
AcDbEntity
  8
LC-001-100-D00-0
 62
     7
370
    50
100
AcDbLine
 10
307.300915
 20
278.823978
 30
0.0
 11
308.000942
 21
278.823978
 31
0.0
  0
LINE
  5
D6
330
1F
100
AcDbEntity
  8
LC-001-100-D00-0
 62
     7
370
    50
100
AcDbLine
 10
310.100992
 20
303.823977
 30
0.0
 11
307.300915
 21
303.823977
 31
0.0
  0
LINE
  5
D7
330
1F
100
AcDbEntity
  8
LC-001-100-D00-0
 62
     7
370
    50
100
AcDbLine
 10
308.000942
 20
301.323977
 30
0.0
 11
310.100992
 21
301.323977
 31
0.0
  0
INSERT
  5
DE
330
1F
100
AcDbEntity
  8
LC-001-100-D00-0
 62
     7
370
    50
100
AcDbBlockReference
  2
KLON1
 10
0.0
 20
0.0
 30
0.0
  0
INSERT
  5
E5
330
1F
100
AcDbEntity
  8
LC-001-100-D00-0
 62
     7
370
    50
100
AcDbBlockReference
  2
KLON2
 10
0.0
 20
0.0
 30
0.0
  0
INSERT
  5
F1
330
1F
100
AcDbEntity
  8
LC-001-100-D00-0
 62
     7
370
    50
100
AcDbBlockReference
  2
POLY11
 10
0.0
 20
0.0
 30
0.0
  0
LINE
  5
F2
330
1F
100
AcDbEntity
  8
LC-001-100-D00-0
 62
     7
370
    50
100
AcDbLine
 10
283.852858
 20
398.177112
 30
0.0
 11
284.064432
 21
398.012737
 31
0.0
  0
INSERT
  5
F9
330
1F
100
AcDbEntity
  8
LC-001-100-D00-0
 62
     7
370
    50
100
AcDbBlockReference
  2
KLON3
 10
0.0
 20
0.0
 30
0.0
  0
INSERT
  5
100
330
1F
100
AcDbEntity
  8
LC-001-100-D00-0
 62
     7
370
    50
100
AcDbBlockReference
  2
KLON4
 10
0.0
 20
0.0
 30
0.0
  0
INSERT
  5
10C
330
1F
100
AcDbEntity
  8
LC-001-100-D00-0
 62
     7
370
    50
100
AcDbBlockReference
  2
POLY12
 10
0.0
 20
0.0
 30
0.0
  0
LINE
  5
10D
330
1F
100
AcDbEntity
  8
LC-001-100-D00-0
 62
     7
370
    50
100
AcDbLine
 10
283.852858
 20
395.177114
 30
0.0
 11
284.064432
 21
395.012731
 31
0.0
  0
INSERT
  5
114
330
1F
100
AcDbEntity
  8
LC-001-100-D00-0
 62
     7
370
    50
100
AcDbBlockReference
  2
KLON5
 10
0.0
 20
0.0
 30
0.0
  0
INSERT
  5
11B
330
1F
100
AcDbEntity
  8
LC-001-100-D00-0
 62
     7
370
    50
100
AcDbBlockReference
  2
KLON6
 10
0.0
 20
0.0
 30
0.0
  0
INSERT
  5
122
330
1F
100
AcDbEntity
  8
LC-001-100-D00-0
 62
     7
370
    50
100
AcDbBlockReference
  2
KLON7
 10
0.0
 20
0.0
 30
0.0
  0
INSERT
  5
129
330
1F
100
AcDbEntity
  8
LC-001-100-D00-0
 62
     7
370
    50
100
AcDbBlockReference
  2
KLON8
 10
0.0
 20
0.0
 30
0.0
  0
INSERT
  5
135
330
1F
100
AcDbEntity
  8
LC-001-100-D00-0
 62
     7
370
    50
100
AcDbBlockReference
  2
POLY13
 10
0.0
 20
0.0
 30
0.0
  0
LINE
  5
136
330
1F
100
AcDbEntity
  8
LC-001-100-D00-0
 62
     7
370
    50
100
AcDbLine
 10
283.852858
 20
401.177111
 30
0.0
 11
284.064432
 21
401.012736
 31
0.0
  0
INSERT
  5
13D
330
1F
100
AcDbEntity
  8
LC-001-100-D00-0
 62
     7
370
    50
100
AcDbBlockReference
  2
KLON9
 10
0.0
 20
0.0
 30
0.0
  0
INSERT
  5
144
330
1F
100
AcDbEntity
  8
LC-001-100-D00-0
 62
     7
370
    50
100
AcDbBlockReference
  2
KLON10
 10
0.0
 20
0.0
 30
0.0
  0
INSERT
  5
150
330
1F
100
AcDbEntity
  8
LC-001-100-D00-0
 62
     7
370
    50
100
AcDbBlockReference
  2
POLY14
 10
0.0
 20
0.0
 30
0.0
  0
LINE
  5
151
330
1F
100
AcDbEntity
  8
LC-001-100-D00-0
 62
     7
370
    50
100
AcDbLine
 10
282.814433
 20
389.663445
 30
0.0
 11
282.814433
 21
391.362029
 31
0.0
  0
LINE
  5
152
330
1F
100
AcDbEntity
  8
LC-001-100-D00-0
 62
     7
370
    50
100
AcDbLine
 10
278.814432
 20
392.862024
 30
0.0
 11
278.814432
 21
391.163441
 31
0.0
  0
LINE
  5
153
330
1F
100
AcDbEntity
  8
LC-001-100-D00-0
 62
     7
370
    50
100
AcDbLine
 10
282.587868
 20
405.16785
 30
0.0
 11
282.587868
 21
405.667851
 31
0.0
  0
LINE
  5
154
330
1F
100
AcDbEntity
  8
LC-001-100-D00-0
 62
     7
370
    50
100
AcDbLine
 10
284.564433
 20
405.667851
 30
0.0
 11
282.587868
 21
405.667851
 31
0.0
  0
LINE
  5
155
330
1F
100
AcDbEntity
  8
LC-001-100-D00-0
 62
     7
370
    50
100
AcDbLine
 10
284.564433
 20
405.667851
 30
0.0
 11
284.564433
 21
406.739617
 31
0.0
  0
ARC
  5
156
330
1F
100
AcDbEntity
  8
LC-001-100-D00-0
 62
     7
370
    50
100
AcDbCircle
 10
280.814433
 20
401.042853
 30
0.0
 40
6.820236432852132
100
AcDbArc
 50
48.715289
 51
56.644353
  0
LINE
  5
157
330
1F
100
AcDbEntity
  8
LC-001-100-D00-0
 62
     7
370
    50
100
AcDbLine
 10
285.864432
 20
406.167852
 30
0.0
 11
285.314431
 21
406.167852
 31
0.0
  0
ARC
  5
158
330
1F
100
AcDbEntity
  8
LC-001-100-D00-0
 62
     7
370
    50
100
AcDbCircle
 10
285.864433
 20
405.967853
 30
0.0
 40
0.2000000000002729
100
AcDbArc
 50
0.0
 51
90.0
  0
LINE
  5
159
330
1F
100
AcDbEntity
  8
LC-001-100-D00-0
 62
     7
370
    50
100
AcDbLine
 10
286.064436
 20
403.167854
 30
0.0
 11
286.064436
 21
405.967856
 31
0.0
  0
LINE
  5
15A
330
1F
100
AcDbEntity
  8
LC-001-100-D00-0
 62
     7
370
    50
100
AcDbLine
 10
282.814433
 20
403.167854
 30
0.0
 11
286.064436
 21
403.167854
 31
0.0
  0
LINE
  5
15B
330
1F
100
AcDbEntity
  8
LC-001-100-D00-0
 62
     7
370
    50
100
AcDbLine
 10
282.814433
 20
401.66344
 30
0.0
 11
282.814433
 21
403.167854
 31
0.0
  0
INSERT
  5
162
330
1F
100
AcDbEntity
  8
LC-001-100-D00-0
 62
     7
370
    50
100
AcDbBlockReference
  2
KLON11
 10
0.0
 20
0.0
 30
0.0
  0
LINE
  5
163
330
1F
100
AcDbEntity
  8
LC-001-100-D00-0
 62
     7
370
    50
100
AcDbLine
 10
282.814433
 20
398.663441
 30
0.0
 11
282.814433
 21
400.362025
 31
0.0
  0
INSERT
  5
16A
330
1F
100
AcDbEntity
  8
LC-001-100-D00-0
 62
     7
370
    50
100
AcDbBlockReference
  2
KLON12
 10
0.0
 20
0.0
 30
0.0
  0
LINE
  5
16B
330
1F
100
AcDbEntity
  8
LC-001-100-D00-0
 62
     7
370
    50
100
AcDbLine
 10
282.814433
 20
395.663443
 30
0.0
 11
282.814433
 21
397.362026
 31
0.0
  0
INSERT
  5
172
330
1F
100
AcDbEntity
  8
LC-001-100-D00-0
 62
     7
370
    50
100
AcDbBlockReference
  2
KLON13
 10
0.0
 20
0.0
 30
0.0
  0
LINE
  5
173
330
1F
100
AcDbEntity
  8
LC-001-100-D00-0
 62
     7
370
    50
100
AcDbLine
 10
282.814433
 20
392.663444
 30
0.0
 11
282.814433
 21
394.362027
 31
0.0
  0
INSERT
  5
17A
330
1F
100
AcDbEntity
  8
LC-001-100-D00-0
 62
     7
370
    50
100
AcDbBlockReference
  2
KLON14
 10
0.0
 20
0.0
 30
0.0
  0
INSERT
  5
181
330
1F
100
AcDbEntity
  8
LC-001-100-D00-0
 62
     7
370
    50
100
AcDbBlockReference
  2
KLON15
 10
0.0
 20
0.0
 30
0.0
  0
LINE
  5
182
330
1F
100
AcDbEntity
  8
LC-001-100-D00-0
 62
     7
370
    50
100
AcDbLine
 10
282.814433
 20
387.568268
 30
0.0
 11
282.814433
 21
388.362023
 31
0.0
  0
LINE
  5
183
330
1F
100
AcDbEntity
  8
LC-001-100-D00-0
 62
     7
370
    50
100
AcDbLine
 10
280.814436
 20
386.167857
 30
0.0
 11
282.814433
 21
387.568268
 31
0.0
  0
LINE
  5
184
330
1F
100
AcDbEntity
  8
LC-001-100-D00-0
 62
     7
370
    50
100
AcDbLine
 10
278.814432
 20
387.568268
 30
0.0
 11
280.814436
 21
386.167857
 31
0.0
  0
LINE
  5
185
330
1F
100
AcDbEntity
  8
LC-001-100-D00-0
 62
     7
370
    50
100
AcDbLine
 10
278.814432
 20
389.862026
 30
0.0
 11
278.814432
 21
387.568268
 31
0.0
  0
INSERT
  5
18C
330
1F
100
AcDbEntity
  8
LC-001-100-D00-0
 62
     7
370
    50
100
AcDbBlockReference
  2
KLON16
 10
0.0
 20
0.0
 30
0.0
  0
INSERT
  5
193
330
1F
100
AcDbEntity
  8
LC-001-100-D00-0
 62
     7
370
    50
100
AcDbBlockReference
  2
KLON17
 10
0.0
 20
0.0
 30
0.0
  0
LINE
  5
194
330
1F
100
AcDbEntity
  8
LC-001-100-D00-0
 62
     7
370
    50
100
AcDbLine
 10
278.814432
 20
395.862023
 30
0.0
 11
278.814432
 21
394.163447
 31
0.0
  0
INSERT
  5
19B
330
1F
100
AcDbEntity
  8
LC-001-100-D00-0
 62
     7
370
    50
100
AcDbBlockReference
  2
KLON18
 10
0.0
 20
0.0
 30
0.0
  0
LINE
  5
19C
330
1F
100
AcDbEntity
  8
LC-001-100-D00-0
 62
     7
370
    50
100
AcDbLine
 10
278.814432
 20
398.862029
 30
0.0
 11
278.814432
 21
397.163446
 31
0.0
  0
INSERT
  5
1A3
330
1F
100
AcDbEntity
  8
LC-001-100-D00-0
 62
     7
370
    50
100
AcDbBlockReference
  2
KLON19
 10
0.0
 20
0.0
 30
0.0
  0
LINE
  5
1A4
330
1F
100
AcDbEntity
  8
LC-001-100-D00-0
 62
     7
370
    50
100
AcDbLine
 10
278.814432
 20
401.862028
 30
0.0
 11
278.814432
 21
400.163444
 31
0.0
  0
INSERT
  5
1AB
330
1F
100
AcDbEntity
  8
LC-001-100-D00-0
 62
     7
370
    50
100
AcDbBlockReference
  2
KLON20
 10
0.0
 20
0.0
 30
0.0
  0
LINE
  5
1AC
330
1F
100
AcDbEntity
  8
LC-001-100-D00-0
 62
     7
370
    50
100
AcDbLine
 10
278.814432
 20
403.167854
 30
0.0
 11
278.814432
 21
403.163443
 31
0.0
  0
LINE
  5
1AD
330
1F
100
AcDbEntity
  8
LC-001-100-D00-0
 62
     7
370
    50
100
AcDbLine
 10
275.564437
 20
403.167854
 30
0.0
 11
278.814432
 21
403.167854
 31
0.0
  0
LINE
  5
1AE
330
1F
100
AcDbEntity
  8
LC-001-100-D00-0
 62
     7
370
    50
100
AcDbLine
 10
275.564437
 20
405.967856
 30
0.0
 11
275.564437
 21
403.167854
 31
0.0
  0
ARC
  5
1AF
330
1F
100
AcDbEntity
  8
LC-001-100-D00-0
 62
     7
370
    50
100
AcDbCircle
 10
275.764433
 20
405.967853
 30
0.0
 40
0.2000000000002729
100
AcDbArc
 50
90.0
 51
180.0
  0
LINE
  5
1B0
330
1F
100
AcDbEntity
  8
LC-001-100-D00-0
 62
     7
370
    50
100
AcDbLine
 10
276.314435
 20
406.167852
 30
0.0
 11
275.764433
 21
406.167852
 31
0.0
  0
ARC
  5
1B1
330
1F
100
AcDbEntity
  8
LC-001-100-D00-0
 62
     7
370
    50
100
AcDbCircle
 10
280.814433
 20
401.042853
 30
0.0
 40
6.820236432852042
100
AcDbArc
 50
123.355647
 51
131.284711
  0
LINE
  5
1B2
330
1F
100
AcDbEntity
  8
LC-001-100-D00-0
 62
     7
370
    50
100
AcDbLine
 10
277.064432
 20
406.739617
 30
0.0
 11
277.064432
 21
405.667851
 31
0.0
  0
LINE
  5
1B3
330
1F
100
AcDbEntity
  8
LC-001-100-D00-0
 62
     7
370
    50
100
AcDbLine
 10
279.041004
 20
405.667851
 30
0.0
 11
277.064432
 21
405.667851
 31
0.0
  0
LINE
  5
1B4
330
1F
100
AcDbEntity
  8
LC-001-100-D00-0
 62
     7
370
    50
100
AcDbLine
 10
279.041004
 20
405.16785
 30
0.0
 11
279.041004
 21
405.667851
 31
0.0
  0
LINE
  5
1B5
330
1F
100
AcDbEntity
  8
LC-001-100-D00-0
 62
     7
370
    50
100
AcDbLine
 10
282.587868
 20
405.16785
 30
0.0
 11
279.041004
 21
405.16785
 31
0.0
  0
ARC
  5
1B6
330
1F
100
AcDbEntity
  8
LC-001-100-D00-0
 62
     7
370
    50
100
AcDbCircle
 10
280.814433
 20
401.042853
 30
0.0
 40
6.801883930206413
100
AcDbArc
 50
56.54253
 51
63.818118
  0
ARC
  5
1B7
330
1F
100
AcDbEntity
  8
LC-001-100-D00-0
 62
     7
370
    50
100
AcDbCircle
 10
280.814433
 20
401.042853
 30
0.0
 40
6.80188393020646
100
AcDbArc
 50
116.181882
 51
123.45747
  0
INSERT
  5
1C3
330
1F
100
AcDbEntity
  8
LC-001-100-D00-0
 62
     7
370
    50
100
AcDbBlockReference
  2
POLY15
 10
0.0
 20
0.0
 30
0.0
  0
LINE
  5
1C4
330
1F
100
AcDbEntity
  8
LC-001-100-D00-0
 62
     7
370
    50
100
AcDbLine
 10
279.041004
 20
407.167854
 30
0.0
 11
277.903778
 21
407.167854
 31
0.0
  0
LINE
  5
1C5
330
1F
100
AcDbEntity
  8
LC-001-100-D00-0
 62
     7
370
    50
100
AcDbLine
 10
279.041004
 20
407.167854
 30
0.0
 11
279.041004
 21
405.667851
 31
0.0
  0
INSERT
  5
1D1
330
1F
100
AcDbEntity
  8
LC-001-100-D00-0
 62
     7
370
    50
100
AcDbBlockReference
  2
POLY16
 10
0.0
 20
0.0
 30
0.0
  0
LINE
  5
1D2
330
1F
100
AcDbEntity
  8
LC-001-100-D00-0
 62
     7
370
    50
100
AcDbLine
 10
283.725088
 20
407.167854
 30
0.0
 11
282.587868
 21
407.167854
 31
0.0
  0
LINE
  5
1D3
330
1F
100
AcDbEntity
  8
LC-001-100-D00-0
 62
     7
370
    50
100
AcDbLine
 10
282.587868
 20
407.167854
 30
0.0
 11
282.587868
 21
405.667851
 31
0.0
  0
LINE
  5
1D4
330
1F
100
AcDbEntity
  8
LC-001-100-D00-0
 62
     7
370
    50
100
AcDbLine
 10
280.144882
 20
407.167854
 30
0.0
 11
281.483983
 21
407.167854
 31
0.0
  0
LINE
  5
1D5
330
1F
100
AcDbEntity
  8
LC-001-100-D00-0
 62
     7
370
    50
100
AcDbLine
 10
281.787095
 20
407.167854
 30
0.0
 11
281.483983
 21
407.167854
 31
0.0
  0
LINE
  5
1D6
330
1F
100
AcDbEntity
  8
LC-001-100-D00-0
 62
     7
370
    50
100
AcDbLine
 10
279.84177
 20
407.167854
 30
0.0
 11
280.144882
 21
407.167854
 31
0.0
  0
LINE
  5
1D7
330
1F
100
AcDbEntity
  8
LC-001-100-D00-0
 62
     7
370
    50
100
AcDbLine
 10
281.787095
 20
407.167854
 30
0.0
 11
282.587868
 21
407.167854
 31
0.0
  0
LINE
  5
1D8
330
1F
100
AcDbEntity
  8
LC-001-100-D00-0
 62
     7
370
    50
100
AcDbLine
 10
279.84177
 20
407.167854
 30
0.0
 11
279.041004
 21
407.167854
 31
0.0
  0
LINE
  5
1D9
330
1F
100
AcDbEntity
  8
LC-001-100-D00-0
 62
     7
370
    50
100
AcDbLine
 10
478.494433
 20
392.073977
 30
0.0
 11
502.534431
 21
400.823976
 31
0.0
  0
LINE
  5
1DA
330
1F
100
AcDbEntity
  8
LC-001-100-D00-0
 62
     7
370
    50
100
AcDbLine
 10
247.094427
 20
400.823976
 30
0.0
 11
271.134433
 21
392.073977
 31
0.0
  0
LINE
  5
1DB
330
1F
100
AcDbEntity
  8
LC-001-100-D00-0
 62
     7
370
    50
100
AcDbLine
 10
501.705681
 20
405.523981
 30
0.0
 11
477.665682
 21
396.773974
 31
0.0
  0
LINE
  5
1DC
330
1F
100
AcDbEntity
  8
LC-001-100-D00-0
 62
     7
370
    50
100
AcDbLine
 10
271.963184
 20
396.773974
 30
0.0
 11
247.923185
 21
405.523981
 31
0.0
  0
LINE
  5
1DD
330
1F
100
AcDbEntity
  8
LC-001-100-D00-0
 62
     7
370
    50
100
AcDbLine
 10
247.923185
 20
405.523981
 30
0.0
 11
275.564437
 21
405.523981
 31
0.0
  0
LINE
  5
1DE
330
1F
100
AcDbEntity
  8
LC-001-100-D00-0
 62
     7
370
    50
100
AcDbLine
 10
286.064436
 20
405.523981
 30
0.0
 11
289.7865
 21
405.523981
 31
0.0
  0
LINE
  5
1DF
330
1F
100
AcDbEntity
  8
LC-001-100-D00-0
 62
     7
370
    50
100
AcDbLine
 10
326.640596
 20
405.523981
 30
0.0
 11
331.30454
 21
405.523981
 31
0.0
  0
LINE
  5
1E0
330
1F
100
AcDbEntity
  8
LC-001-100-D00-0
 62
     7
370
    50
100
AcDbLine
 10
341.171314
 20
405.523981
 30
0.0
 11
351.696768
 21
405.523981
 31
0.0
  0
LINE
  5
1E1
330
1F
100
AcDbEntity
  8
LC-001-100-D00-0
 62
     7
370
    50
100
AcDbLine
 10
357.994755
 20
405.523981
 30
0.0
 11
373.664434
 21
405.523981
 31
0.0
  0
LINE
  5
1E2
330
1F
100
AcDbEntity
  8
LC-001-100-D00-0
 62
     7
370
    50
100
AcDbLine
 10
375.964434
 20
405.523981
 30
0.0
 11
391.63411
 21
405.523981
 31
0.0
  0
LINE
  5
1E3
330
1F
100
AcDbEntity
  8
LC-001-100-D00-0
 62
     7
370
    50
100
AcDbLine
 10
397.932097
 20
405.523981
 30
0.0
 11
408.457554
 21
405.523981
 31
0.0
  0
LINE
  5
1E4
330
1F
100
AcDbEntity
  8
LC-001-100-D00-0
 62
     7
370
    50
100
AcDbLine
 10
459.842366
 20
405.523981
 30
0.0
 11
501.705681
 21
405.523981
 31
0.0
  0
LINE
  5
1E5
330
1F
100
AcDbEntity
  8
LC-001-100-D00-0
 62
     7
370
    50
100
AcDbLine
 10
124.814426
 20
405.523981
 30
0.0
 11
124.814426
 21
400.823976
 31
0.0
  0
LINE
  5
1E6
330
1F
100
AcDbEntity
  8
LC-001-100-D00-0
 62
     7
370
    50
100
AcDbLine
 10
276.814436
 20
396.773974
 30
0.0
 11
276.814436
 21
392.073977
 31
0.0
  0
LINE
  5
1E7
330
1F
100
AcDbEntity
  8
LC-001-100-D00-0
 62
     7
370
    50
100
AcDbLine
 10
276.814436
 20
396.773974
 30
0.0
 11
271.963184
 21
396.773974
 31
0.0
  0
LINE
  5
1E8
330
1F
100
AcDbEntity
  8
LC-001-100-D00-0
 62
     7
370
    50
100
AcDbLine
 10
271.134433
 20
392.073977
 30
0.0
 11
276.814436
 21
392.073977
 31
0.0
  0
LINE
  5
1E9
330
1F
100
AcDbEntity
  8
LC-001-100-D00-0
 62
     7
370
    50
100
AcDbLine
 10
124.814426
 20
400.823976
 30
0.0
 11
247.094427
 21
400.823976
 31
0.0
  0
LINE
  5
1EA
330
1F
100
AcDbEntity
  8
LC-001-100-D00-0
 62
     7
370
    50
100
AcDbLine
 10
247.923185
 20
405.523981
 30
0.0
 11
124.814426
 21
405.523981
 31
0.0
  0
LINE
  5
1EB
330
1F
100
AcDbEntity
  8
LC-001-100-D00-0
 62
     7
370
    50
100
AcDbLine
 10
472.814431
 20
392.073977
 30
0.0
 11
472.814431
 21
396.773974
 31
0.0
  0
LINE
  5
1EC
330
1F
100
AcDbEntity
  8
LC-001-100-D00-0
 62
     7
370
    50
100
AcDbLine
 10
624.814441
 20
400.823976
 30
0.0
 11
624.814441
 21
405.523981
 31
0.0
  0
LINE
  5
1ED
330
1F
100
AcDbEntity
  8
LC-001-100-D00-0
 62
     7
370
    50
100
AcDbLine
 10
477.665682
 20
396.773974
 30
0.0
 11
472.814431
 21
396.773974
 31
0.0
  0
LINE
  5
1EE
330
1F
100
AcDbEntity
  8
LC-001-100-D00-0
 62
     7
370
    50
100
AcDbLine
 10
472.814431
 20
392.073977
 30
0.0
 11
478.494433
 21
392.073977
 31
0.0
  0
LINE
  5
1EF
330
1F
100
AcDbEntity
  8
LC-001-100-D00-0
 62
     7
370
    50
100
AcDbLine
 10
502.534431
 20
400.823976
 30
0.0
 11
624.814441
 21
400.823976
 31
0.0
  0
LINE
  5
1F0
330
1F
100
AcDbEntity
  8
LC-001-100-D00-0
 62
     7
370
    50
100
AcDbLine
 10
624.814441
 20
405.523981
 30
0.0
 11
501.705681
 21
405.523981
 31
0.0
  0
LINE
  5
1F1
330
1F
100
AcDbEntity
  8
LC-001-100-D00-0
 62
     7
370
    50
100
AcDbLine
 10
278.057394
 20
396.773974
 30
0.0
 11
276.814436
 21
396.773974
 31
0.0
  0
LINE
  5
1F2
330
1F
100
AcDbEntity
  8
LC-001-100-D00-0
 62
     7
370
    50
100
AcDbLine
 10
468.729329
 20
392.143975
 30
0.0
 11
468.729329
 21
396.773974
 31
0.0
  0
LINE
  5
1F3
330
1F
100
AcDbEntity
  8
LC-001-100-D00-0
 62
     7
370
    50
100
AcDbLine
 10
472.814431
 20
396.773974
 30
0.0
 11
468.729329
 21
396.773974
 31
0.0
  0
LINE
  5
1F4
330
1F
100
AcDbEntity
  8
LC-001-100-D00-0
 62
     7
370
    50
100
AcDbLine
 10
457.217452
 20
392.073977
 30
0.0
 11
457.217452
 21
396.773974
 31
0.0
  0
LINE
  5
1F5
330
1F
100
AcDbEntity
  8
LC-001-100-D00-0
 62
     7
370
    50
100
AcDbLine
 10
468.729329
 20
396.773974
 30
0.0
 11
457.217452
 21
396.773974
 31
0.0
  0
LINE
  5
1F6
330
1F
100
AcDbEntity
  8
LC-001-100-D00-0
 62
     7
370
    50
100
AcDbLine
 10
454.564435
 20
396.773974
 30
0.0
 11
457.217452
 21
396.773974
 31
0.0
  0
LINE
  5
1F7
330
1F
100
AcDbEntity
  8
LC-001-100-D00-0
 62
     7
370
    50
100
AcDbLine
 10
454.564435
 20
392.073977
 30
0.0
 11
457.217452
 21
392.073977
 31
0.0
  0
LINE
  5
1F8
330
1F
100
AcDbEntity
  8
LC-001-100-D00-0
 62
     7
370
    50
100
AcDbLine
 10
292.411414
 20
396.773974
 30
0.0
 11
292.411414
 21
392.073977
 31
0.0
  0
LINE
  5
1F9
330
1F
100
AcDbEntity
  8
LC-001-100-D00-0
 62
     7
370
    50
100
AcDbLine
 10
292.411414
 20
396.773974
 30
0.0
 11
295.064432
 21
396.773974
 31
0.0
  0
LINE
  5
1FA
330
1F
100
AcDbEntity
  8
LC-001-100-D00-0
 62
     7
370
    50
100
AcDbLine
 10
292.411414
 20
392.073977
 30
0.0
 11
295.064432
 21
392.073977
 31
0.0
  0
LINE
  5
1FB
330
1F
100
AcDbEntity
  8
LC-001-100-D00-0
 62
     7
370
    50
100
AcDbLine
 10
292.411414
 20
396.773974
 30
0.0
 11
282.814433
 21
396.773974
 31
0.0
  0
ARC
  5
1FC
330
1F
100
AcDbEntity
  8
LC-001-100-D00-0
 62
     7
370
    50
100
AcDbCircle
 10
496.672857
 20
406.789849
 30
0.0
 40
2.500000000000131
100
AcDbArc
 50
276.0
 51
325.333525
  0
ARC
  5
1FD
330
1F
100
AcDbEntity
  8
LC-001-100-D00-0
 62
     7
370
    50
100
AcDbCircle
 10
252.95601
 20
406.789849
 30
0.0
 40
2.499999999999987
100
AcDbArc
 50
214.666475
 51
264.0
  0
LINE
  5
1FE
330
1F
100
AcDbEntity
  8
LC-001-100-D00-0
 62
     7
370
    50
100
AcDbLine
 10
498.729047
 20
405.367854
 30
0.0
 11
459.899192
 21
405.367854
 31
0.0
  0
LINE
  5
1FF
330
1F
100
AcDbEntity
  8
LC-001-100-D00-0
 62
     7
370
    50
100
AcDbLine
 10
408.485966
 20
405.367854
 30
0.0
 11
397.946804
 21
405.367854
 31
0.0
  0
LINE
  5
200
330
1F
100
AcDbEntity
  8
LC-001-100-D00-0
 62
     7
370
    50
100
AcDbLine
 10
391.648817
 20
405.367854
 30
0.0
 11
375.964434
 21
405.367854
 31
0.0
  0
LINE
  5
201
330
1F
100
AcDbEntity
  8
LC-001-100-D00-0
 62
     7
370
    50
100
AcDbLine
 10
373.664434
 20
405.367854
 30
0.0
 11
357.980051
 21
405.367854
 31
0.0
  0
LINE
  5
202
330
1F
100
AcDbEntity
  8
LC-001-100-D00-0
 62
     7
370
    50
100
AcDbLine
 10
351.682064
 20
405.367854
 30
0.0
 11
341.142901
 21
405.367854
 31
0.0
  0
LINE
  5
203
330
1F
100
AcDbEntity
  8
LC-001-100-D00-0
 62
     7
370
    50
100
AcDbLine
 10
331.276123
 20
405.367854
 30
0.0
 11
326.600415
 21
405.367854
 31
0.0
  0
LINE
  5
204
330
1F
100
AcDbEntity
  8
LC-001-100-D00-0
 62
     7
370
    50
100
AcDbLine
 10
289.729674
 20
405.367854
 30
0.0
 11
286.064436
 21
405.367854
 31
0.0
  0
LINE
  5
205
330
1F
100
AcDbEntity
  8
LC-001-100-D00-0
 62
     7
370
    50
100
AcDbLine
 10
275.564437
 20
405.367854
 30
0.0
 11
250.899811
 21
405.367854
 31
0.0
  0
ARC
  5
206
330
1F
100
AcDbEntity
  8
LC-001-100-D00-0
 62
     7
370
    50
100
AcDbCircle
 10
496.672857
 20
406.789849
 30
0.0
 40
3.00000000000013
100
AcDbArc
 50
276.0
 51
331.705828
  0
ARC
  5
207
330
1F
100
AcDbEntity
  8
LC-001-100-D00-0
 62
     7
370
    50
100
AcDbCircle
 10
252.95601
 20
406.789849
 30
0.0
 40
2.999999999999982
100
AcDbArc
 50
208.294172
 51
264.0
  0
LINE
  5
208
330
1F
100
AcDbEntity
  8
LC-001-100-D00-0
 62
     7
370
    50
100
AcDbLine
 10
496.986439
 20
403.806287
 30
0.0
 11
476.640639
 21
401.667851
 31
0.0
  0
LINE
  5
209
330
1F
100
AcDbEntity
  8
LC-001-100-D00-0
 62
     7
370
    50
100
AcDbLine
 10
272.988227
 20
401.667851
 30
0.0
 11
252.642428
 21
403.806287
 31
0.0
  0
LINE
  5
20A
330
1F
100
AcDbEntity
  8
LC-001-100-D00-0
 62
     7
370
    50
100
AcDbLine
 10
476.614435
 20
402.167852
 30
0.0
 11
496.93418
 21
404.303546
 31
0.0
  0
LINE
  5
20B
330
1F
100
AcDbEntity
  8
LC-001-100-D00-0
 62
     7
370
    50
100
AcDbLine
 10
252.694686
 20
404.303546
 30
0.0
 11
273.014431
 21
402.167852
 31
0.0
  0
ARC
  5
20C
330
1F
100
AcDbEntity
  8
LC-001-100-D00-0
 62
     7
370
    50
100
AcDbCircle
 10
457.064433
 20
399.167853
 30
0.0
 40
2.5
100
AcDbArc
 50
90.0
 51
180.0
  0
ARC
  5
20D
330
1F
100
AcDbEntity
  8
LC-001-100-D00-0
 62
     7
370
    50
100
AcDbCircle
 10
292.564433
 20
399.167853
 30
0.0
 40
2.5
100
AcDbArc
 50
0.0
 51
90.0
  0
LINE
  5
20E
330
1F
100
AcDbEntity
  8
LC-001-100-D00-0
 62
     7
370
    50
100
AcDbLine
 10
454.564435
 20
399.167853
 30
0.0
 11
454.564435
 21
381.867851
 31
0.0
  0
LINE
  5
20F
330
1F
100
AcDbEntity
  8
LC-001-100-D00-0
 62
     7
370
    50
100
AcDbLine
 10
295.064432
 20
381.867851
 30
0.0
 11
295.064432
 21
399.167853
 31
0.0
  0
ARC
  5
210
330
1F
100
AcDbEntity
  8
LC-001-100-D00-0
 62
     7
370
    50
100
AcDbCircle
 10
457.064433
 20
399.167853
 30
0.0
 40
3.0
100
AcDbArc
 50
90.0
 51
180.0
  0
ARC
  5
211
330
1F
100
AcDbEntity
  8
LC-001-100-D00-0
 62
     7
370
    50
100
AcDbCircle
 10
292.564433
 20
399.167853
 30
0.0
 40
3.0
100
AcDbArc
 50
0.0
 51
90.0
  0
LINE
  5
212
330
1F
100
AcDbEntity
  8
LC-001-100-D00-0
 62
     7
370
    50
100
AcDbLine
 10
454.064434
 20
381.867851
 30
0.0
 11
454.064434
 21
399.167853
 31
0.0
  0
LINE
  5
213
330
1F
100
AcDbEntity
  8
LC-001-100-D00-0
 62
     7
370
    50
100
AcDbLine
 10
295.564433
 20
399.167853
 30
0.0
 11
295.564433
 21
381.867851
 31
0.0
  0
ARC
  5
214
330
1F
100
AcDbEntity
  8
LC-001-100-D00-0
 62
     7
370
    50
100
AcDbCircle
 10
452.064433
 20
381.867853
 30
0.0
 40
2.0
100
AcDbArc
 50
270.0
 51
0.0
  0
ARC
  5
215
330
1F
100
AcDbEntity
  8
LC-001-100-D00-0
 62
     7
370
    50
100
AcDbCircle
 10
297.564433
 20
381.867853
 30
0.0
 40
2.0
100
AcDbArc
 50
180.0
 51
270.0
  0
ARC
  5
216
330
1F
100
AcDbEntity
  8
LC-001-100-D00-0
 62
     7
370
    50
100
AcDbCircle
 10
452.064433
 20
381.867853
 30
0.0
 40
2.5
100
AcDbArc
 50
270.0
 51
0.0
  0
ARC
  5
217
330
1F
100
AcDbEntity
  8
LC-001-100-D00-0
 62
     7
370
    50
100
AcDbCircle
 10
297.564433
 20
381.867853
 30
0.0
 40
2.5
100
AcDbArc
 50
180.0
 51
270.0
  0
ARC
  5
218
330
1F
100
AcDbEntity
  8
LC-001-100-D00-0
 62
     7
370
    50
100
AcDbCircle
 10
451.314433
 20
378.367853
 30
0.0
 40
1.0
100
AcDbArc
 50
90.0
 51
180.0
  0
ARC
  5
219
330
1F
100
AcDbEntity
  8
LC-001-100-D00-0
 62
     7
370
    50
100
AcDbCircle
 10
298.314433
 20
378.367853
 30
0.0
 40
1.0
100
AcDbArc
 50
0.0
 51
90.0
  0
ARC
  5
21A
330
1F
100
AcDbEntity
  8
LC-001-100-D00-0
 62
     7
370
    50
100
AcDbCircle
 10
451.314433
 20
378.367853
 30
0.0
 40
1.5
100
AcDbArc
 50
90.0
 51
180.0
  0
ARC
  5
21B
330
1F
100
AcDbEntity
  8
LC-001-100-D00-0
 62
     7
370
    50
100
AcDbCircle
 10
298.314433
 20
378.367853
 30
0.0
 40
1.5
100
AcDbArc
 50
0.0
 51
90.0
  0
LINE
  5
21C
330
1F
100
AcDbEntity
  8
LC-001-100-D00-0
 62
     7
370
    50
100
AcDbLine
 10
451.314432
 20
379.867854
 30
0.0
 11
448.714432
 21
379.867854
 31
0.0
  0
LINE
  5
21D
330
1F
100
AcDbEntity
  8
LC-001-100-D00-0
 62
     7
370
    50
100
AcDbLine
 10
444.827006
 20
379.867854
 30
0.0
 11
386.61453
 21
379.867854
 31
0.0
  0
LINE
  5
21E
330
1F
100
AcDbEntity
  8
LC-001-100-D00-0
 62
     7
370
    50
100
AcDbLine
 10
363.014449
 20
379.867854
 30
0.0
 11
304.801879
 21
379.867854
 31
0.0
  0
LINE
  5
21F
330
1F
100
AcDbEntity
  8
LC-001-100-D00-0
 62
     7
370
    50
100
AcDbLine
 10
300.914434
 20
379.867854
 30
0.0
 11
298.314435
 21
379.867854
 31
0.0
  0
LINE
  5
220
330
1F
100
AcDbEntity
  8
LC-001-100-D00-0
 62
     7
370
    50
100
AcDbLine
 10
450.314433
 20
378.367851
 30
0.0
 11
450.314433
 21
374.367851
 31
0.0
  0
LINE
  5
221
330
1F
100
AcDbEntity
  8
LC-001-100-D00-0
 62
     7
370
    50
100
AcDbLine
 10
299.314437
 20
374.367851
 30
0.0
 11
299.314437
 21
378.367851
 31
0.0
  0
LINE
  5
222
330
1F
100
AcDbEntity
  8
LC-001-100-D00-0
 62
     7
370
    50
100
AcDbLine
 10
449.814432
 20
374.367851
 30
0.0
 11
449.814432
 21
378.367851
 31
0.0
  0
LINE
  5
223
330
1F
100
AcDbEntity
  8
LC-001-100-D00-0
 62
     7
370
    50
100
AcDbLine
 10
299.81443
 20
378.367851
 30
0.0
 11
299.81443
 21
374.367851
 31
0.0
  0
LINE
  5
224
330
1F
100
AcDbEntity
  8
LC-001-100-D00-0
 62
     7
370
    50
100
AcDbLine
 10
444.827006
 20
374.367851
 30
0.0
 11
386.61453
 21
374.367851
 31
0.0
  0
LINE
  5
225
330
1F
100
AcDbEntity
  8
LC-001-100-D00-0
 62
     7
370
    50
100
AcDbLine
 10
363.014449
 20
374.367851
 30
0.0
 11
304.801879
 21
374.367851
 31
0.0
  0
LINE
  5
226
330
1F
100
AcDbEntity
  8
LC-001-100-D00-0
 62
     7
370
    50
100
AcDbLine
 10
450.314433
 20
374.367851
 30
0.0
 11
449.814432
 21
374.367851
 31
0.0
  0
LINE
  5
227
330
1F
100
AcDbEntity
  8
LC-001-100-D00-0
 62
     7
370
    50
100
AcDbLine
 10
451.314432
 20
379.867854
 30
0.0
 11
452.064433
 21
379.867854
 31
0.0
  0
LINE
  5
228
330
1F
100
AcDbEntity
  8
LC-001-100-D00-0
 62
     7
370
    50
100
AcDbLine
 10
452.064433
 20
379.367853
 30
0.0
 11
451.314432
 21
379.367853
 31
0.0
  0
LINE
  5
229
330
1F
100
AcDbEntity
  8
LC-001-100-D00-0
 62
     7
370
    50
100
AcDbLine
 10
457.064432
 20
402.167852
 30
0.0
 11
476.614435
 21
402.167852
 31
0.0
  0
LINE
  5
22A
330
1F
100
AcDbEntity
  8
LC-001-100-D00-0
 62
     7
370
    50
100
AcDbLine
 10
476.640639
 20
401.667851
 30
0.0
 11
457.064432
 21
401.667851
 31
0.0
  0
LINE
  5
22B
330
1F
100
AcDbEntity
  8
LC-001-100-D00-0
 62
     7
370
    50
100
AcDbLine
 10
498.729047
 20
405.367854
 30
0.0
 11
499.314432
 21
405.367854
 31
0.0
  0
ARC
  5
22C
330
1F
100
AcDbEntity
  8
LC-001-100-D00-0
 62
     7
370
    50
100
AcDbCircle
 10
273.707327
 20
402.667853
 30
0.0
 40
1.0
100
AcDbArc
 50
270.0
 51
315.0
  0
LINE
  5
22D
330
1F
100
AcDbEntity
  8
LC-001-100-D00-0
 62
     7
370
    50
100
AcDbLine
 10
273.914431
 20
402.167852
 30
0.0
 11
274.621544
 21
402.874957
 31
0.0
  0
ARC
  5
22E
330
1F
100
AcDbEntity
  8
LC-001-100-D00-0
 62
     7
370
    50
100
AcDbCircle
 10
275.328647
 20
402.167853
 30
0.0
 40
1.0
100
AcDbArc
 50
90.0
 51
135.0
  0
LINE
  5
22F
330
1F
100
AcDbEntity
  8
LC-001-100-D00-0
 62
     7
370
    50
100
AcDbLine
 10
275.328648
 20
403.167854
 30
0.0
 11
277.064432
 21
403.167854
 31
0.0
  0
LINE
  5
230
330
1F
100
AcDbEntity
  8
LC-001-100-D00-0
 62
     7
370
    50
100
AcDbLine
 10
277.064432
 20
403.167854
 30
0.0
 11
277.064432
 21
402.667853
 31
0.0
  0
LINE
  5
231
330
1F
100
AcDbEntity
  8
LC-001-100-D00-0
 62
     7
370
    50
100
AcDbLine
 10
277.064432
 20
402.667853
 30
0.0
 11
275.121537
 21
402.667853
 31
0.0
  0
LINE
  5
232
330
1F
100
AcDbEntity
  8
LC-001-100-D00-0
 62
     7
370
    50
100
AcDbLine
 10
275.121537
 20
402.667853
 30
0.0
 11
274.414432
 21
401.960748
 31
0.0
  0
LINE
  5
233
330
1F
100
AcDbEntity
  8
LC-001-100-D00-0
 62
     7
370
    50
100
AcDbLine
 10
273.014431
 20
402.167852
 30
0.0
 11
273.914431
 21
402.167852
 31
0.0
  0
LINE
  5
234
330
1F
100
AcDbEntity
  8
LC-001-100-D00-0
 62
     7
370
    50
100
AcDbLine
 10
273.707327
 20
401.667851
 30
0.0
 11
272.988227
 21
401.667851
 31
0.0
  0
LINE
  5
235
330
1F
100
AcDbEntity
  8
LC-001-100-D00-0
 62
     7
370
    50
100
AcDbLine
 10
250.314434
 20
405.367854
 30
0.0
 11
250.899811
 21
405.367854
 31
0.0
  0
ARC
  5
236
330
1F
100
AcDbEntity
  8
LC-001-100-D00-0
 62
     7
370
    50
100
AcDbCircle
 10
287.92154
 20
402.667853
 30
0.0
 40
1.000000000000008
100
AcDbArc
 50
225.0
 51
270.0
  0
LINE
  5
237
330
1F
100
AcDbEntity
  8
LC-001-100-D00-0
 62
     7
370
    50
100
AcDbLine
 10
287.214433
 20
401.960748
 30
0.0
 11
286.507328
 21
402.667853
 31
0.0
  0
LINE
  5
238
330
1F
100
AcDbEntity
  8
LC-001-100-D00-0
 62
     7
370
    50
100
AcDbLine
 10
286.507328
 20
402.667853
 30
0.0
 11
284.564433
 21
402.667853
 31
0.0
  0
LINE
  5
239
330
1F
100
AcDbEntity
  8
LC-001-100-D00-0
 62
     7
370
    50
100
AcDbLine
 10
284.564433
 20
402.667853
 30
0.0
 11
284.564433
 21
403.167854
 31
0.0
  0
LINE
  5
23A
330
1F
100
AcDbEntity
  8
LC-001-100-D00-0
 62
     7
370
    50
100
AcDbLine
 10
284.564433
 20
403.167854
 30
0.0
 11
286.300217
 21
403.167854
 31
0.0
  0
ARC
  5
23B
330
1F
100
AcDbEntity
  8
LC-001-100-D00-0
 62
     7
370
    50
100
AcDbCircle
 10
286.30022
 20
402.167853
 30
0.0
 40
1.000000000000008
100
AcDbArc
 50
45.0
 51
90.0
  0
LINE
  5
23C
330
1F
100
AcDbEntity
  8
LC-001-100-D00-0
 62
     7
370
    50
100
AcDbLine
 10
287.007329
 20
402.874957
 30
0.0
 11
287.714434
 21
402.167852
 31
0.0
  0
LINE
  5
23D
330
1F
100
AcDbEntity
  8
LC-001-100-D00-0
 62
     7
370
    50
100
AcDbLine
 10
299.81443
 20
374.367851
 30
0.0
 11
299.314437
 21
374.367851
 31
0.0
  0
LINE
  5
23E
330
1F
100
AcDbEntity
  8
LC-001-100-D00-0
 62
     7
370
    50
100
AcDbLine
 10
297.564437
 20
379.867854
 30
0.0
 11
298.314435
 21
379.867854
 31
0.0
  0
LINE
  5
23F
330
1F
100
AcDbEntity
  8
LC-001-100-D00-0
 62
     7
370
    50
100
AcDbLine
 10
298.314435
 20
379.367853
 30
0.0
 11
297.564437
 21
379.367853
 31
0.0
  0
LINE
  5
240
330
1F
100
AcDbEntity
  8
LC-001-100-D00-0
 62
     7
370
    50
100
AcDbLine
 10
287.714434
 20
402.167852
 30
0.0
 11
292.564434
 21
402.167852
 31
0.0
  0
LINE
  5
241
330
1F
100
AcDbEntity
  8
LC-001-100-D00-0
 62
     7
370
    50
100
AcDbLine
 10
292.564434
 20
401.667851
 30
0.0
 11
287.921538
 21
401.667851
 31
0.0
  0
LINE
  5
242
330
1F
100
AcDbEntity
  8
LC-001-100-D00-0
 62
     7
370
    50
100
AcDbLine
 10
284.564433
 20
402.667853
 30
0.0
 11
282.814433
 21
402.667853
 31
0.0
  0
LINE
  5
243
330
1F
100
AcDbEntity
  8
LC-001-100-D00-0
 62
     7
370
    50
100
AcDbLine
 10
277.817619
 20
402.667853
 30
0.0
 11
277.064432
 21
402.667853
 31
0.0
  0
LINE
  5
244
330
1F
100
AcDbEntity
  8
LC-001-100-D00-0
 62
     7
370
    50
100
AcDbLine
 10
287.921538
 20
401.667851
 30
0.0
 11
283.01609
 21
401.667851
 31
0.0
  0
LINE
  5
245
330
1F
100
AcDbEntity
  8
LC-001-100-D00-0
 62
     7
370
    50
100
AcDbLine
 10
278.814432
 20
401.667851
 30
0.0
 11
273.707327
 21
401.667851
 31
0.0
  0
LINE
  5
246
330
1F
100
AcDbEntity
  8
LC-001-100-D00-0
 62
     7
370
    50
100
AcDbLine
 10
417.881812
 20
403.167854
 30
0.0
 11
423.59466
 21
403.167854
 31
0.0
  0
LINE
  5
247
330
1F
100
AcDbEntity
  8
LC-001-100-D00-0
 62
     7
370
    50
100
AcDbLine
 10
301.56443
 20
361.953976
 30
0.0
 11
306.064432
 21
361.953976
 31
0.0
  0
LINE
  5
248
330
1F
100
AcDbEntity
  8
LC-001-100-D00-0
 62
     7
370
    50
100
AcDbLine
 10
301.56443
 20
359.953976
 30
0.0
 11
301.56443
 21
361.953976
 31
0.0
  0
LINE
  5
249
330
1F
100
AcDbEntity
  8
LC-001-100-D00-0
 62
     7
370
    50
100
AcDbLine
 10
298.564431
 20
359.953976
 30
0.0
 11
301.56443
 21
359.953976
 31
0.0
  0
LINE
  5
24A
330
1F
100
AcDbEntity
  8
LC-001-100-D00-0
 62
     7
370
    50
100
AcDbLine
 10
297.564437
 20
360.953974
 30
0.0
 11
298.564431
 21
359.953976
 31
0.0
  0
LINE
  5
24B
330
1F
100
AcDbEntity
  8
LC-001-100-D00-0
 62
     7
370
    50
100
AcDbLine
 10
297.564437
 20
364.453974
 30
0.0
 11
297.564437
 21
360.953974
 31
0.0
  0
LINE
  5
24C
330
1F
100
AcDbEntity
  8
LC-001-100-D00-0
 62
     7
370
    50
100
AcDbLine
 10
298.564431
 20
364.453974
 30
0.0
 11
297.564437
 21
364.453974
 31
0.0
  0
LINE
  5
24D
330
1F
100
AcDbEntity
  8
LC-001-100-D00-0
 62
     7
370
    50
100
AcDbLine
 10
298.564431
 20
365.453976
 30
0.0
 11
298.564431
 21
364.453974
 31
0.0
  0
LINE
  5
24E
330
1F
100
AcDbEntity
  8
LC-001-100-D00-0
 62
     7
370
    50
100
AcDbLine
 10
309.06443
 20
365.453976
 30
0.0
 11
298.564431
 21
365.453976
 31
0.0
  0
LINE
  5
24F
330
1F
100
AcDbEntity
  8
LC-001-100-D00-0
 62
     7
370
    50
100
AcDbLine
 10
310.064432
 20
357.453978
 30
0.0
 11
309.06443
 21
365.453976
 31
0.0
  0
LINE
  5
250
330
1F
100
AcDbEntity
  8
LC-001-100-D00-0
 62
     7
370
    50
100
AcDbLine
 10
306.064432
 20
357.453978
 30
0.0
 11
310.064432
 21
357.453978
 31
0.0
  0
LINE
  5
251
330
1F
100
AcDbEntity
  8
LC-001-100-D00-0
 62
     7
370
    50
100
AcDbLine
 10
306.064432
 20
361.953976
 30
0.0
 11
306.064432
 21
357.453978
 31
0.0
  0
LINE
  5
252
330
1F
100
AcDbEntity
  8
LC-001-100-D00-0
 62
     7
370
    50
100
AcDbLine
 10
451.064435
 20
365.453976
 30
0.0
 11
440.564432
 21
365.453976
 31
0.0
  0
LINE
  5
253
330
1F
100
AcDbEntity
  8
LC-001-100-D00-0
 62
     7
370
    50
100
AcDbLine
 10
451.064435
 20
364.453974
 30
0.0
 11
451.064435
 21
365.453976
 31
0.0
  0
LINE
  5
254
330
1F
100
AcDbEntity
  8
LC-001-100-D00-0
 62
     7
370
    50
100
AcDbLine
 10
452.064433
 20
364.453974
 30
0.0
 11
451.064435
 21
364.453974
 31
0.0
  0
LINE
  5
255
330
1F
100
AcDbEntity
  8
LC-001-100-D00-0
 62
     7
370
    50
100
AcDbLine
 10
452.064433
 20
360.953974
 30
0.0
 11
452.064433
 21
364.453974
 31
0.0
  0
LINE
  5
256
330
1F
100
AcDbEntity
  8
LC-001-100-D00-0
 62
     7
370
    50
100
AcDbLine
 10
451.064435
 20
359.953976
 30
0.0
 11
452.064433
 21
360.953974
 31
0.0
  0
LINE
  5
257
330
1F
100
AcDbEntity
  8
LC-001-100-D00-0
 62
     7
370
    50
100
AcDbLine
 10
448.064433
 20
359.953976
 30
0.0
 11
451.064435
 21
359.953976
 31
0.0
  0
LINE
  5
258
330
1F
100
AcDbEntity
  8
LC-001-100-D00-0
 62
     7
370
    50
100
AcDbLine
 10
448.064433
 20
361.953976
 30
0.0
 11
448.064433
 21
359.953976
 31
0.0
  0
LINE
  5
259
330
1F
100
AcDbEntity
  8
LC-001-100-D00-0
 62
     7
370
    50
100
AcDbLine
 10
443.564435
 20
361.953976
 30
0.0
 11
448.064433
 21
361.953976
 31
0.0
  0
LINE
  5
25A
330
1F
100
AcDbEntity
  8
LC-001-100-D00-0
 62
     7
370
    50
100
AcDbLine
 10
443.564435
 20
357.453978
 30
0.0
 11
443.564435
 21
361.953976
 31
0.0
  0
LINE
  5
25B
330
1F
100
AcDbEntity
  8
LC-001-100-D00-0
 62
     7
370
    50
100
AcDbLine
 10
439.564434
 20
357.453978
 30
0.0
 11
443.564435
 21
357.453978
 31
0.0
  0
LINE
  5
25C
330
1F
100
AcDbEntity
  8
LC-001-100-D00-0
 62
     7
370
    50
100
AcDbLine
 10
440.564432
 20
365.453976
 30
0.0
 11
439.564434
 21
357.453978
 31
0.0
  0
LINE
  5
25D
330
1F
100
AcDbEntity
  8
LC-001-100-D00-0
 62
     7
370
    50
100
AcDbLine
 10
440.564432
 20
365.453976
 30
0.0
 11
309.06443
 21
365.453976
 31
0.0
  0
LINE
  5
25E
330
1F
100
AcDbEntity
  8
LC-001-100-D00-0
 62
     7
370
    50
100
AcDbLine
 10
439.564434
 20
357.453978
 30
0.0
 11
310.064432
 21
357.453978
 31
0.0
  0
LINE
  5
25F
330
1F
100
AcDbEntity
  8
LC-001-100-D00-0
 62
     7
370
    50
100
AcDbLine
 10
283.564431
 20
376.643981
 30
0.0
 11
278.064434
 21
376.643981
 31
0.0
  0
LINE
  5
260
330
1F
100
AcDbEntity
  8
LC-001-100-D00-0
 62
     7
370
    50
100
AcDbLine
 10
283.564431
 20
376.643981
 30
0.0
 11
283.564431
 21
392.143975
 31
0.0
  0
LINE
  5
261
330
1F
100
AcDbEntity
  8
LC-001-100-D00-0
 62
     7
370
    50
100
AcDbLine
 10
292.31443
 20
392.143975
 30
0.0
 11
283.564431
 21
392.143975
 31
0.0
  0
LINE
  5
262
330
1F
100
AcDbEntity
  8
LC-001-100-D00-0
 62
     7
370
    50
100
AcDbLine
 10
292.31443
 20
375.40398
 30
0.0
 11
292.31443
 21
392.143975
 31
0.0
  0
LINE
  5
263
330
1F
100
AcDbEntity
  8
LC-001-100-D00-0
 62
     7
370
    50
100
AcDbLine
 10
297.314433
 20
370.403978
 30
0.0
 11
292.31443
 21
375.40398
 31
0.0
  0
LINE
  5
264
330
1F
100
AcDbEntity
  8
LC-001-100-D00-0
 62
     7
370
    50
100
AcDbLine
 10
297.314433
 20
360.953974
 30
0.0
 11
297.314433
 21
370.403978
 31
0.0
  0
ARC
  5
265
330
1F
100
AcDbEntity
  8
LC-001-100-D00-0
 62
     7
370
    50
100
AcDbCircle
 10
298.314433
 20
360.953977
 30
0.0
 40
1.0
100
AcDbArc
 50
180.0
 51
270.0
  0
LINE
  5
266
330
1F
100
AcDbEntity
  8
LC-001-100-D00-0
 62
     7
370
    50
100
AcDbLine
 10
303.31443
 20
359.953976
 30
0.0
 11
298.314435
 21
359.953976
 31
0.0
  0
ARC
  5
267
330
1F
100
AcDbEntity
  8
LC-001-100-D00-0
 62
     7
370
    50
100
AcDbCircle
 10
303.314433
 20
358.953977
 30
0.0
 40
1.000000000000057
100
AcDbArc
 50
0.0
 51
90.0
  0
LINE
  5
268
330
1F
100
AcDbEntity
  8
LC-001-100-D00-0
 62
     7
370
    50
100
AcDbLine
 10
304.314432
 20
344.953975
 30
0.0
 11
304.314432
 21
358.953978
 31
0.0
  0
LINE
  5
269
330
1F
100
AcDbEntity
  8
LC-001-100-D00-0
 62
     7
370
    50
100
AcDbLine
 10
309.314434
 20
344.953975
 30
0.0
 11
304.314432
 21
344.953975
 31
0.0
  0
ARC
  5
26A
330
1F
100
AcDbEntity
  8
LC-001-100-D00-0
 62
     7
370
    50
100
AcDbCircle
 10
309.314433
 20
343.953977
 30
0.0
 40
1.0
100
AcDbArc
 50
0.0
 51
90.0
  0
LINE
  5
26B
330
1F
100
AcDbEntity
  8
LC-001-100-D00-0
 62
     7
370
    50
100
AcDbLine
 10
310.314437
 20
315.243509
 30
0.0
 11
310.314437
 21
343.953977
 31
0.0
  0
ARC
  5
26C
330
1F
100
AcDbEntity
  8
LC-001-100-D00-0
 62
     7
370
    50
100
AcDbCircle
 10
311.314433
 20
315.243509
 30
0.0
 40
1.000000000000057
100
AcDbArc
 50
180.0
 51
263.0
  0
LINE
  5
26D
330
1F
100
AcDbEntity
  8
LC-001-100-D00-0
 62
     7
370
    50
100
AcDbLine
 10
322.814432
 20
312.823977
 30
0.0
 11
311.192562
 21
314.250963
 31
0.0
  0
LINE
  5
26E
330
1F
100
AcDbEntity
  8
LC-001-100-D00-0
 62
     7
370
    50
100
AcDbLine
 10
322.814432
 20
232.823978
 30
0.0
 11
322.814432
 21
312.823977
 31
0.0
  0
LINE
  5
26F
330
1F
100
AcDbEntity
  8
LC-001-100-D00-0
 62
     7
370
    50
100
AcDbLine
 10
321.020206
 20
232.823978
 30
0.0
 11
322.814432
 21
232.823978
 31
0.0
  0
LINE
  5
270
330
1F
100
AcDbEntity
  8
LC-001-100-D00-0
 62
     7
370
    50
100
AcDbLine
 10
319.814433
 20
237.323976
 30
0.0
 11
321.020206
 21
232.823978
 31
0.0
  0
LINE
  5
271
330
1F
100
AcDbEntity
  8
LC-001-100-D00-0
 62
     7
370
    50
100
AcDbLine
 10
319.814433
 20
308.823977
 30
0.0
 11
319.814433
 21
237.323976
 31
0.0
  0
LINE
  5
272
330
1F
100
AcDbEntity
  8
LC-001-100-D00-0
 62
     7
370
    50
100
AcDbLine
 10
307.064434
 20
308.823977
 30
0.0
 11
319.814433
 21
308.823977
 31
0.0
  0
LINE
  5
273
330
1F
100
AcDbEntity
  8
LC-001-100-D00-0
 62
     7
370
    50
100
AcDbLine
 10
307.064434
 20
340.453977
 30
0.0
 11
307.064434
 21
308.823977
 31
0.0
  0
ARC
  5
274
330
1F
100
AcDbEntity
  8
LC-001-100-D00-0
 62
     7
370
    50
100
AcDbCircle
 10
306.064433
 20
340.453977
 30
0.0
 40
1.0
100
AcDbArc
 50
0.0
 51
90.0
  0
LINE
  5
275
330
1F
100
AcDbEntity
  8
LC-001-100-D00-0
 62
     7
370
    50
100
AcDbLine
 10
304.264431
 20
341.453976
 30
0.0
 11
306.064432
 21
341.453976
 31
0.0
  0
ARC
  5
276
330
1F
100
AcDbEntity
  8
LC-001-100-D00-0
 62
     7
370
    50
100
AcDbCircle
 10
304.264433
 20
343.953977
 30
0.0
 40
2.500000000000114
100
AcDbArc
 50
180.0
 51
270.0
  0
LINE
  5
277
330
1F
100
AcDbEntity
  8
LC-001-100-D00-0
 62
     7
370
    50
100
AcDbLine
 10
301.764433
 20
354.353978
 30
0.0
 11
301.764433
 21
343.953977
 31
0.0
  0
ARC
  5
278
330
1F
100
AcDbEntity
  8
LC-001-100-D00-0
 62
     7
370
    50
100
AcDbCircle
 10
300.764433
 20
354.353977
 30
0.0
 40
1.0
100
AcDbArc
 50
0.0
 51
90.0
  0
LINE
  5
279
330
1F
100
AcDbEntity
  8
LC-001-100-D00-0
 62
     7
370
    50
100
AcDbLine
 10
298.314435
 20
355.353976
 30
0.0
 11
300.764431
 21
355.353976
 31
0.0
  0
ARC
  5
27A
330
1F
100
AcDbEntity
  8
LC-001-100-D00-0
 62
     7
370
    50
100
AcDbCircle
 10
298.314433
 20
354.353977
 30
0.0
 40
1.0
100
AcDbArc
 50
90.0
 51
180.0
  0
LINE
  5
27B
330
1F
100
AcDbEntity
  8
LC-001-100-D00-0
 62
     7
370
    50
100
AcDbLine
 10
297.314433
 20
308.823977
 30
0.0
 11
297.314433
 21
354.353978
 31
0.0
  0
LINE
  5
27C
330
1F
100
AcDbEntity
  8
LC-001-100-D00-0
 62
     7
370
    50
100
AcDbLine
 10
294.814435
 20
308.823977
 30
0.0
 11
297.314433
 21
308.823977
 31
0.0
  0
LINE
  5
27D
330
1F
100
AcDbEntity
  8
LC-001-100-D00-0
 62
     7
370
    50
100
AcDbLine
 10
294.814435
 20
370.263974
 30
0.0
 11
294.814435
 21
308.823977
 31
0.0
  0
LINE
  5
27E
330
1F
100
AcDbEntity
  8
LC-001-100-D00-0
 62
     7
370
    50
100
AcDbLine
 10
293.814433
 20
371.263976
 30
0.0
 11
294.814435
 21
370.263974
 31
0.0
  0
LINE
  5
27F
330
1F
100
AcDbEntity
  8
LC-001-100-D00-0
 62
     7
370
    50
100
AcDbLine
 10
289.814432
 20
371.263976
 30
0.0
 11
293.814433
 21
371.263976
 31
0.0
  0
LINE
  5
280
330
1F
100
AcDbEntity
  8
LC-001-100-D00-0
 62
     7
370
    50
100
AcDbLine
 10
289.814432
 20
373.643974
 30
0.0
 11
289.814432
 21
371.263976
 31
0.0
  0
LINE
  5
281
330
1F
100
AcDbEntity
  8
LC-001-100-D00-0
 62
     7
370
    50
100
AcDbLine
 10
283.814435
 20
373.643974
 30
0.0
 11
289.814432
 21
373.643974
 31
0.0
  0
LINE
  5
282
330
1F
100
AcDbEntity
  8
LC-001-100-D00-0
 62
     7
370
    50
100
AcDbLine
 10
283.814435
 20
373.643974
 30
0.0
 11
283.814435
 21
370.643976
 31
0.0
  0
LINE
  5
283
330
1F
100
AcDbEntity
  8
LC-001-100-D00-0
 62
     7
370
    50
100
AcDbLine
 10
282.814433
 20
369.643974
 30
0.0
 11
283.814435
 21
370.643976
 31
0.0
  0
LINE
  5
284
330
1F
100
AcDbEntity
  8
LC-001-100-D00-0
 62
     7
370
    50
100
AcDbLine
 10
278.814432
 20
369.643974
 30
0.0
 11
282.814433
 21
369.643974
 31
0.0
  0
LINE
  5
285
330
1F
100
AcDbEntity
  8
LC-001-100-D00-0
 62
     7
370
    50
100
AcDbLine
 10
277.81443
 20
370.643976
 30
0.0
 11
278.814432
 21
369.643974
 31
0.0
  0
LINE
  5
286
330
1F
100
AcDbEntity
  8
LC-001-100-D00-0
 62
     7
370
    50
100
AcDbLine
 10
277.81443
 20
370.643976
 30
0.0
 11
277.81443
 21
373.643974
 31
0.0
  0
LINE
  5
287
330
1F
100
AcDbEntity
  8
LC-001-100-D00-0
 62
     7
370
    50
100
AcDbLine
 10
275.339437
 20
373.643974
 30
0.0
 11
277.81443
 21
373.643974
 31
0.0
  0
ARC
  5
288
330
1F
100
AcDbEntity
  8
LC-001-100-D00-0
 62
     7
370
    50
100
AcDbCircle
 10
275.339433
 20
374.143977
 30
0.0
 40
0.5000000000001137
100
AcDbArc
 50
180.0
 51
270.0
  0
LINE
  5
289
330
1F
100
AcDbEntity
  8
LC-001-100-D00-0
 62
     7
370
    50
100
AcDbLine
 10
274.839436
 20
374.143975
 30
0.0
 11
274.839436
 21
389.643977
 31
0.0
  0
LINE
  5
28A
330
1F
100
AcDbEntity
  8
LC-001-100-D00-0
 62
     7
370
    50
100
AcDbLine
 10
269.499858
 20
389.643977
 30
0.0
 11
274.839436
 21
389.643977
 31
0.0
  0
LINE
  5
28B
330
1F
100
AcDbEntity
  8
LC-001-100-D00-0
 62
     7
370
    50
100
AcDbLine
 10
247.025495
 20
397.823977
 30
0.0
 11
269.499858
 21
389.643977
 31
0.0
  0
LINE
  5
28C
330
1F
100
AcDbEntity
  8
LC-001-100-D00-0
 62
     7
370
    50
100
AcDbLine
 10
197.814439
 20
397.823977
 30
0.0
 11
247.025495
 21
397.823977
 31
0.0
  0
LINE
  5
28D
330
1F
100
AcDbEntity
  8
LC-001-100-D00-0
 62
     7
370
    50
100
AcDbLine
 10
197.814439
 20
398.823979
 30
0.0
 11
197.814439
 21
397.823977
 31
0.0
  0
ARC
  5
28E
330
1F
100
AcDbEntity
  8
LC-001-100-D00-0
 62
     7
370
    50
100
AcDbCircle
 10
199.814433
 20
398.823977
 30
0.0
 40
2.0
100
AcDbArc
 50
90.0
 51
180.0
  0
LINE
  5
28F
330
1F
100
AcDbEntity
  8
LC-001-100-D00-0
 62
     7
370
    50
100
AcDbLine
 10
247.291331
 20
400.823976
 30
0.0
 11
199.814429
 21
400.823976
 31
0.0
  0
LINE
  5
290
330
1F
100
AcDbEntity
  8
LC-001-100-D00-0
 62
     7
370
    50
100
AcDbLine
 10
271.139433
 20
392.143975
 30
0.0
 11
247.291331
 21
400.823976
 31
0.0
  0
LINE
  5
291
330
1F
100
AcDbEntity
  8
LC-001-100-D00-0
 62
     7
370
    50
100
AcDbLine
 10
278.064434
 20
392.143975
 30
0.0
 11
271.139433
 21
392.143975
 31
0.0
  0
LINE
  5
292
330
1F
100
AcDbEntity
  8
LC-001-100-D00-0
 62
     7
370
    50
100
AcDbLine
 10
278.064434
 20
392.143975
 30
0.0
 11
278.064434
 21
376.643981
 31
0.0
  0
LINE
  5
293
330
1F
100
AcDbEntity
  8
LC-001-100-D00-0
 62
     7
370
    50
100
AcDbLine
 10
549.814438
 20
400.823976
 30
0.0
 11
502.337535
 21
400.823976
 31
0.0
  0
ARC
  5
294
330
1F
100
AcDbEntity
  8
LC-001-100-D00-0
 62
     7
370
    50
100
AcDbCircle
 10
549.814433
 20
398.823977
 30
0.0
 40
2.0
100
AcDbArc
 50
0.0
 51
90.0
  0
LINE
  5
295
330
1F
100
AcDbEntity
  8
LC-001-100-D00-0
 62
     7
370
    50
100
AcDbLine
 10
551.814427
 20
397.823977
 30
0.0
 11
551.814427
 21
398.823979
 31
0.0
  0
LINE
  5
296
330
1F
100
AcDbEntity
  8
LC-001-100-D00-0
 62
     7
370
    50
100
AcDbLine
 10
502.603379
 20
397.823977
 30
0.0
 11
551.814427
 21
397.823977
 31
0.0
  0
LINE
  5
297
330
1F
100
AcDbEntity
  8
LC-001-100-D00-0
 62
     7
370
    50
100
AcDbLine
 10
480.129008
 20
389.643977
 30
0.0
 11
502.603379
 21
397.823977
 31
0.0
  0
LINE
  5
298
330
1F
100
AcDbEntity
  8
LC-001-100-D00-0
 62
     7
370
    50
100
AcDbLine
 10
474.78943
 20
389.643977
 30
0.0
 11
480.129008
 21
389.643977
 31
0.0
  0
LINE
  5
299
330
1F
100
AcDbEntity
  8
LC-001-100-D00-0
 62
     7
370
    50
100
AcDbLine
 10
474.78943
 20
389.643977
 30
0.0
 11
474.78943
 21
374.143975
 31
0.0
  0
ARC
  5
29A
330
1F
100
AcDbEntity
  8
LC-001-100-D00-0
 62
     7
370
    50
100
AcDbCircle
 10
474.289433
 20
374.143977
 30
0.0
 40
0.5000000000001137
100
AcDbArc
 50
270.0
 51
0.0
  0
LINE
  5
29B
330
1F
100
AcDbEntity
  8
LC-001-100-D00-0
 62
     7
370
    50
100
AcDbLine
 10
471.814436
 20
373.643974
 30
0.0
 11
474.289437
 21
373.643974
 31
0.0
  0
LINE
  5
29C
330
1F
100
AcDbEntity
  8
LC-001-100-D00-0
 62
     7
370
    50
100
AcDbLine
 10
471.814436
 20
373.643974
 30
0.0
 11
471.814436
 21
370.643976
 31
0.0
  0
LINE
  5
29D
330
1F
100
AcDbEntity
  8
LC-001-100-D00-0
 62
     7
370
    50
100
AcDbLine
 10
470.814434
 20
369.643974
 30
0.0
 11
471.814436
 21
370.643976
 31
0.0
  0
LINE
  5
29E
330
1F
100
AcDbEntity
  8
LC-001-100-D00-0
 62
     7
370
    50
100
AcDbLine
 10
466.814433
 20
369.643974
 30
0.0
 11
470.814434
 21
369.643974
 31
0.0
  0
LINE
  5
29F
330
1F
100
AcDbEntity
  8
LC-001-100-D00-0
 62
     7
370
    50
100
AcDbLine
 10
465.814431
 20
370.643976
 30
0.0
 11
466.814433
 21
369.643974
 31
0.0
  0
LINE
  5
2A0
330
1F
100
AcDbEntity
  8
LC-001-100-D00-0
 62
     7
370
    50
100
AcDbLine
 10
465.814431
 20
370.643976
 30
0.0
 11
465.814431
 21
373.643974
 31
0.0
  0
LINE
  5
2A1
330
1F
100
AcDbEntity
  8
LC-001-100-D00-0
 62
     7
370
    50
100
AcDbLine
 10
459.814434
 20
373.643974
 30
0.0
 11
465.814431
 21
373.643974
 31
0.0
  0
LINE
  5
2A2
330
1F
100
AcDbEntity
  8
LC-001-100-D00-0
 62
     7
370
    50
100
AcDbLine
 10
459.814434
 20
371.263976
 30
0.0
 11
459.814434
 21
373.643974
 31
0.0
  0
LINE
  5
2A3
330
1F
100
AcDbEntity
  8
LC-001-100-D00-0
 62
     7
370
    50
100
AcDbLine
 10
455.814433
 20
371.263976
 30
0.0
 11
459.814434
 21
371.263976
 31
0.0
  0
LINE
  5
2A4
330
1F
100
AcDbEntity
  8
LC-001-100-D00-0
 62
     7
370
    50
100
AcDbLine
 10
454.814435
 20
370.263974
 30
0.0
 11
455.814433
 21
371.263976
 31
0.0
  0
LINE
  5
2A5
330
1F
100
AcDbEntity
  8
LC-001-100-D00-0
 62
     7
370
    50
100
AcDbLine
 10
454.814435
 20
308.823977
 30
0.0
 11
454.814435
 21
370.263974
 31
0.0
  0
LINE
  5
2A6
330
1F
100
AcDbEntity
  8
LC-001-100-D00-0
 62
     7
370
    50
100
AcDbLine
 10
452.314434
 20
308.823977
 30
0.0
 11
454.814435
 21
308.823977
 31
0.0
  0
LINE
  5
2A7
330
1F
100
AcDbEntity
  8
LC-001-100-D00-0
 62
     7
370
    50
100
AcDbLine
 10
452.314434
 20
354.353978
 30
0.0
 11
452.314434
 21
308.823977
 31
0.0
  0
ARC
  5
2A8
330
1F
100
AcDbEntity
  8
LC-001-100-D00-0
 62
     7
370
    50
100
AcDbCircle
 10
451.314433
 20
354.353977
 30
0.0
 40
1.0
100
AcDbArc
 50
0.0
 51
90.0
  0
LINE
  5
2A9
330
1F
100
AcDbEntity
  8
LC-001-100-D00-0
 62
     7
370
    50
100
AcDbLine
 10
448.864435
 20
355.353976
 30
0.0
 11
451.314432
 21
355.353976
 31
0.0
  0
ARC
  5
2AA
330
1F
100
AcDbEntity
  8
LC-001-100-D00-0
 62
     7
370
    50
100
AcDbCircle
 10
448.864433
 20
354.353977
 30
0.0
 40
1.0
100
AcDbArc
 50
90.0
 51
180.0
  0
LINE
  5
2AB
330
1F
100
AcDbEntity
  8
LC-001-100-D00-0
 62
     7
370
    50
100
AcDbLine
 10
447.864433
 20
343.953977
 30
0.0
 11
447.864433
 21
354.353978
 31
0.0
  0
ARC
  5
2AC
330
1F
100
AcDbEntity
  8
LC-001-100-D00-0
 62
     7
370
    50
100
AcDbCircle
 10
445.364433
 20
343.953977
 30
0.0
 40
2.500000000000114
100
AcDbArc
 50
270.0
 51
0.0
  0
LINE
  5
2AD
330
1F
100
AcDbEntity
  8
LC-001-100-D00-0
 62
     7
370
    50
100
AcDbLine
 10
443.564435
 20
341.453976
 30
0.0
 11
445.364435
 21
341.453976
 31
0.0
  0
ARC
  5
2AE
330
1F
100
AcDbEntity
  8
LC-001-100-D00-0
 62
     7
370
    50
100
AcDbCircle
 10
443.564433
 20
340.453977
 30
0.0
 40
1.000000000000114
100
AcDbArc
 50
90.0
 51
180.0
  0
LINE
  5
2AF
330
1F
100
AcDbEntity
  8
LC-001-100-D00-0
 62
     7
370
    50
100
AcDbLine
 10
442.564433
 20
308.823977
 30
0.0
 11
442.564433
 21
340.453977
 31
0.0
  0
LINE
  5
2B0
330
1F
100
AcDbEntity
  8
LC-001-100-D00-0
 62
     7
370
    50
100
AcDbLine
 10
429.814433
 20
308.823977
 30
0.0
 11
442.564433
 21
308.823977
 31
0.0
  0
LINE
  5
2B1
330
1F
100
AcDbEntity
  8
LC-001-100-D00-0
 62
     7
370
    50
100
AcDbLine
 10
429.814433
 20
237.323976
 30
0.0
 11
429.814433
 21
308.823977
 31
0.0
  0
LINE
  5
2B2
330
1F
100
AcDbEntity
  8
LC-001-100-D00-0
 62
     7
370
    50
100
AcDbLine
 10
428.608661
 20
232.823978
 30
0.0
 11
429.814433
 21
237.323976
 31
0.0
  0
LINE
  5
2B3
330
1F
100
AcDbEntity
  8
LC-001-100-D00-0
 62
     7
370
    50
100
AcDbLine
 10
426.814434
 20
232.823978
 30
0.0
 11
428.608661
 21
232.823978
 31
0.0
  0
LINE
  5
2B4
330
1F
100
AcDbEntity
  8
LC-001-100-D00-0
 62
     7
370
    50
100
AcDbLine
 10
426.814434
 20
312.823977
 30
0.0
 11
426.814434
 21
232.823978
 31
0.0
  0
LINE
  5
2B5
330
1F
100
AcDbEntity
  8
LC-001-100-D00-0
 62
     7
370
    50
100
AcDbLine
 10
438.436304
 20
314.250963
 30
0.0
 11
426.814434
 21
312.823977
 31
0.0
  0
ARC
  5
2B6
330
1F
100
AcDbEntity
  8
LC-001-100-D00-0
 62
     7
370
    50
100
AcDbCircle
 10
438.314433
 20
315.243509
 30
0.0
 40
1.00000000000004
100
AcDbArc
 50
277.0
 51
0.0
  0
LINE
  5
2B7
330
1F
100
AcDbEntity
  8
LC-001-100-D00-0
 62
     7
370
    50
100
AcDbLine
 10
439.314433
 20
343.953977
 30
0.0
 11
439.314433
 21
315.243509
 31
0.0
  0
ARC
  5
2B8
330
1F
100
AcDbEntity
  8
LC-001-100-D00-0
 62
     7
370
    50
100
AcDbCircle
 10
440.314433
 20
343.953977
 30
0.0
 40
1.0
100
AcDbArc
 50
90.0
 51
180.0
  0
LINE
  5
2B9
330
1F
100
AcDbEntity
  8
LC-001-100-D00-0
 62
     7
370
    50
100
AcDbLine
 10
445.314434
 20
344.953975
 30
0.0
 11
440.314432
 21
344.953975
 31
0.0
  0
LINE
  5
2BA
330
1F
100
AcDbEntity
  8
LC-001-100-D00-0
 62
     7
370
    50
100
AcDbLine
 10
445.314434
 20
358.953978
 30
0.0
 11
445.314434
 21
344.953975
 31
0.0
  0
ARC
  5
2BB
330
1F
100
AcDbEntity
  8
LC-001-100-D00-0
 62
     7
370
    50
100
AcDbCircle
 10
446.314433
 20
358.953977
 30
0.0
 40
1.0
100
AcDbArc
 50
90.0
 51
180.0
  0
LINE
  5
2BC
330
1F
100
AcDbEntity
  8
LC-001-100-D00-0
 62
     7
370
    50
100
AcDbLine
 10
451.314432
 20
359.953976
 30
0.0
 11
446.314433
 21
359.953976
 31
0.0
  0
ARC
  5
2BD
330
1F
100
AcDbEntity
  8
LC-001-100-D00-0
 62
     7
370
    50
100
AcDbCircle
 10
451.314433
 20
360.953977
 30
0.0
 40
1.0
100
AcDbArc
 50
270.0
 51
0.0
  0
LINE
  5
2BE
330
1F
100
AcDbEntity
  8
LC-001-100-D00-0
 62
     7
370
    50
100
AcDbLine
 10
452.314434
 20
370.403978
 30
0.0
 11
452.314434
 21
360.953974
 31
0.0
  0
LINE
  5
2BF
330
1F
100
AcDbEntity
  8
LC-001-100-D00-0
 62
     7
370
    50
100
AcDbLine
 10
457.314436
 20
375.40398
 30
0.0
 11
452.314434
 21
370.403978
 31
0.0
  0
LINE
  5
2C0
330
1F
100
AcDbEntity
  8
LC-001-100-D00-0
 62
     7
370
    50
100
AcDbLine
 10
457.314436
 20
392.143975
 30
0.0
 11
457.314436
 21
375.40398
 31
0.0
  0
LINE
  5
2C1
330
1F
100
AcDbEntity
  8
LC-001-100-D00-0
 62
     7
370
    50
100
AcDbLine
 10
466.064435
 20
392.143975
 30
0.0
 11
457.314436
 21
392.143975
 31
0.0
  0
LINE
  5
2C2
330
1F
100
AcDbEntity
  8
LC-001-100-D00-0
 62
     7
370
    50
100
AcDbLine
 10
466.064435
 20
392.143975
 30
0.0
 11
466.064435
 21
376.643981
 31
0.0
  0
LINE
  5
2C3
330
1F
100
AcDbEntity
  8
LC-001-100-D00-0
 62
     7
370
    50
100
AcDbLine
 10
471.564432
 20
376.643981
 30
0.0
 11
466.064435
 21
376.643981
 31
0.0
  0
LINE
  5
2C4
330
1F
100
AcDbEntity
  8
LC-001-100-D00-0
 62
     7
370
    50
100
AcDbLine
 10
471.564432
 20
376.643981
 30
0.0
 11
471.564432
 21
392.143975
 31
0.0
  0
LINE
  5
2C5
330
1F
100
AcDbEntity
  8
LC-001-100-D00-0
 62
     7
370
    50
100
AcDbLine
 10
478.489433
 20
392.143975
 30
0.0
 11
471.564432
 21
392.143975
 31
0.0
  0
LINE
  5
2C6
330
1F
100
AcDbEntity
  8
LC-001-100-D00-0
 62
     7
370
    50
100
AcDbLine
 10
502.337535
 20
400.823976
 30
0.0
 11
478.489433
 21
392.143975
 31
0.0
  0
LINE
  5
2C7
330
1F
100
AcDbEntity
  8
LC-001-100-D00-0
 62
     7
370
    50
100
AcDbLine
 10
311.192562
 20
314.250963
 30
0.0
 11
438.436304
 21
314.250963
 31
0.0
  0
LINE
  5
2C8
330
1F
100
AcDbEntity
  8
LC-001-100-D00-0
 62
     7
370
    50
100
AcDbLine
 10
309.314434
 20
344.953975
 30
0.0
 11
440.314432
 21
344.953975
 31
0.0
  0
LINE
  5
2C9
330
1F
100
AcDbEntity
  8
LC-001-100-D00-0
 62
     7
370
    50
100
AcDbLine
 10
303.31443
 20
359.953976
 30
0.0
 11
306.064432
 21
359.953976
 31
0.0
  0
LINE
  5
2CA
330
1F
100
AcDbEntity
  8
LC-001-100-D00-0
 62
     7
370
    50
100
AcDbLine
 10
443.564435
 20
359.953976
 30
0.0
 11
446.314433
 21
359.953976
 31
0.0
  0
LINE
  5
2CB
330
1F
100
AcDbEntity
  8
LC-001-100-D00-0
 62
     7
370
    50
100
AcDbLine
 10
297.314433
 20
370.403978
 30
0.0
 11
452.314434
 21
370.403978
 31
0.0
  0
LINE
  5
2CC
330
1F
100
AcDbEntity
  8
LC-001-100-D00-0
 62
     7
370
    50
100
AcDbLine
 10
292.31443
 20
375.40398
 30
0.0
 11
299.314437
 21
375.40398
 31
0.0
  0
LINE
  5
2CD
330
1F
100
AcDbEntity
  8
LC-001-100-D00-0
 62
     7
370
    50
100
AcDbLine
 10
450.314433
 20
375.40398
 30
0.0
 11
457.314436
 21
375.40398
 31
0.0
  0
LINE
  5
2CE
330
1F
100
AcDbEntity
  8
LC-001-100-D00-0
 62
     7
370
    50
100
AcDbLine
 10
322.814432
 20
312.823977
 30
0.0
 11
426.814434
 21
312.823977
 31
0.0
  0
LINE
  5
2CF
330
1F
100
AcDbEntity
  8
LC-001-100-D00-0
 62
     7
370
    50
100
AcDbLine
 10
292.31443
 20
392.143975
 30
0.0
 11
295.064432
 21
392.143975
 31
0.0
  0
LINE
  5
2D0
330
1F
100
AcDbEntity
  8
LC-001-100-D00-0
 62
     7
370
    50
100
AcDbLine
 10
454.564435
 20
392.143975
 30
0.0
 11
457.314436
 21
392.143975
 31
0.0
  0
LINE
  5
2D1
330
1F
100
AcDbEntity
  8
LC-001-100-D00-0
 62
     7
370
    50
100
AcDbLine
 10
322.814432
 20
232.823978
 30
0.0
 11
426.814434
 21
232.823978
 31
0.0
  0
LINE
  5
2D2
330
1F
100
AcDbEntity
  8
LC-001-100-D00-0
 62
     7
370
    50
100
AcDbLine
 10
278.814432
 20
392.143975
 30
0.0
 11
278.064434
 21
392.143975
 31
0.0
  0
LINE
  5
2D3
330
1F
100
AcDbEntity
  8
LC-001-100-D00-0
 62
     7
370
    50
100
AcDbLine
 10
471.564432
 20
392.143975
 30
0.0
 11
466.064435
 21
392.143975
 31
0.0
  0
ARC
  5
2D4
330
1F
100
AcDbEntity
  8
LC-001-100-D00-0
 62
     7
370
    50
100
AcDbCircle
 10
446.814433
 20
306.823977
 30
0.0
 40
8.0
100
AcDbArc
 50
270.0
 51
0.0
  0
LINE
  5
2D5
330
1F
100
AcDbEntity
  8
LC-001-100-D00-0
 62
     7
370
    50
100
AcDbLine
 10
442.314432
 20
298.823977
 30
0.0
 11
446.814434
 21
298.823977
 31
0.0
  0
LINE
  5
2D6
330
1F
100
AcDbEntity
  8
LC-001-100-D00-0
 62
     7
370
    50
100
AcDbLine
 10
442.314432
 20
298.823977
 30
0.0
 11
442.314432
 21
296.323977
 31
0.0
  0
LINE
  5
2D7
330
1F
100
AcDbEntity
  8
LC-001-100-D00-0
 62
     7
370
    50
100
AcDbLine
 10
432.314434
 20
296.323977
 30
0.0
 11
442.314432
 21
296.323977
 31
0.0
  0
LINE
  5
2D8
330
1F
100
AcDbEntity
  8
LC-001-100-D00-0
 62
     7
370
    50
100
AcDbLine
 10
432.314434
 20
296.323977
 30
0.0
 11
432.314434
 21
298.823977
 31
0.0
  0
LINE
  5
2D9
330
1F
100
AcDbEntity
  8
LC-001-100-D00-0
 62
     7
370
    50
100
AcDbLine
 10
429.814433
 20
298.823977
 30
0.0
 11
432.314434
 21
298.823977
 31
0.0
  0
LINE
  5
2DA
330
1F
100
AcDbEntity
  8
LC-001-100-D00-0
 62
     7
370
    50
100
AcDbLine
 10
429.814433
 20
301.323977
 30
0.0
 11
429.814433
 21
298.823977
 31
0.0
  0
LINE
  5
2DB
330
1F
100
AcDbEntity
  8
LC-001-100-D00-0
 62
     7
370
    50
100
AcDbLine
 10
447.314435
 20
301.323977
 30
0.0
 11
429.814433
 21
301.323977
 31
0.0
  0
ARC
  5
2DC
330
1F
100
AcDbEntity
  8
LC-001-100-D00-0
 62
     7
370
    50
100
AcDbCircle
 10
447.314433
 20
303.823977
 30
0.0
 40
2.500000000000114
100
AcDbArc
 50
270.0
 51
0.0
  0
LINE
  5
2DD
330
1F
100
AcDbEntity
  8
LC-001-100-D00-0
 62
     7
370
    50
100
AcDbLine
 10
449.814432
 20
316.323978
 30
0.0
 11
449.814432
 21
303.823977
 31
0.0
  0
LINE
  5
2DE
330
1F
100
AcDbEntity
  8
LC-001-100-D00-0
 62
     7
370
    50
100
AcDbLine
 10
450.114434
 20
316.323978
 30
0.0
 11
449.814432
 21
316.323978
 31
0.0
  0
LINE
  5
2DF
330
1F
100
AcDbEntity
  8
LC-001-100-D00-0
 62
     7
370
    50
100
AcDbLine
 10
450.114434
 20
317.823977
 30
0.0
 11
450.114434
 21
316.323978
 31
0.0
  0
LINE
  5
2E0
330
1F
100
AcDbEntity
  8
LC-001-100-D00-0
 62
     7
370
    50
100
AcDbLine
 10
452.314434
 20
317.823977
 30
0.0
 11
450.114434
 21
317.823977
 31
0.0
  0
LINE
  5
2E1
330
1F
100
AcDbEntity
  8
LC-001-100-D00-0
 62
     7
370
    50
100
AcDbLine
 10
452.314434
 20
308.823977
 30
0.0
 11
452.314434
 21
317.823977
 31
0.0
  0
LINE
  5
2E2
330
1F
100
AcDbEntity
  8
LC-001-100-D00-0
 62
     7
370
    50
100
AcDbLine
 10
454.814435
 20
306.823977
 30
0.0
 11
454.814435
 21
308.823977
 31
0.0
  0
LINE
  5
2E3
330
1F
100
AcDbEntity
  8
LC-001-100-D00-0
 62
     7
370
    50
100
AcDbLine
 10
299.514432
 20
317.823977
 30
0.0
 11
297.314433
 21
317.823977
 31
0.0
  0
LINE
  5
2E4
330
1F
100
AcDbEntity
  8
LC-001-100-D00-0
 62
     7
370
    50
100
AcDbLine
 10
299.514432
 20
316.323978
 30
0.0
 11
299.514432
 21
317.823977
 31
0.0
  0
LINE
  5
2E5
330
1F
100
AcDbEntity
  8
LC-001-100-D00-0
 62
     7
370
    50
100
AcDbLine
 10
299.81443
 20
316.323978
 30
0.0
 11
299.514432
 21
316.323978
 31
0.0
  0
LINE
  5
2E6
330
1F
100
AcDbEntity
  8
LC-001-100-D00-0
 62
     7
370
    50
100
AcDbLine
 10
299.81443
 20
303.823977
 30
0.0
 11
299.81443
 21
316.323978
 31
0.0
  0
ARC
  5
2E7
330
1F
100
AcDbEntity
  8
LC-001-100-D00-0
 62
     7
370
    50
100
AcDbCircle
 10
302.314433
 20
303.823977
 30
0.0
 40
2.500000000000114
100
AcDbArc
 50
180.0
 51
270.0
  0
LINE
  5
2E8
330
1F
100
AcDbEntity
  8
LC-001-100-D00-0
 62
     7
370
    50
100
AcDbLine
 10
319.814433
 20
301.323977
 30
0.0
 11
302.314435
 21
301.323977
 31
0.0
  0
LINE
  5
2E9
330
1F
100
AcDbEntity
  8
LC-001-100-D00-0
 62
     7
370
    50
100
AcDbLine
 10
319.814433
 20
298.823977
 30
0.0
 11
319.814433
 21
301.323977
 31
0.0
  0
LINE
  5
2EA
330
1F
100
AcDbEntity
  8
LC-001-100-D00-0
 62
     7
370
    50
100
AcDbLine
 10
317.314436
 20
298.823977
 30
0.0
 11
319.814433
 21
298.823977
 31
0.0
  0
LINE
  5
2EB
330
1F
100
AcDbEntity
  8
LC-001-100-D00-0
 62
     7
370
    50
100
AcDbLine
 10
317.314436
 20
298.823977
 30
0.0
 11
317.314436
 21
296.323977
 31
0.0
  0
LINE
  5
2EC
330
1F
100
AcDbEntity
  8
LC-001-100-D00-0
 62
     7
370
    50
100
AcDbLine
 10
307.31443
 20
296.323977
 30
0.0
 11
317.314436
 21
296.323977
 31
0.0
  0
LINE
  5
2ED
330
1F
100
AcDbEntity
  8
LC-001-100-D00-0
 62
     7
370
    50
100
AcDbLine
 10
307.31443
 20
296.323977
 30
0.0
 11
307.31443
 21
298.823977
 31
0.0
  0
LINE
  5
2EE
330
1F
100
AcDbEntity
  8
LC-001-100-D00-0
 62
     7
370
    50
100
AcDbLine
 10
302.814436
 20
298.823977
 30
0.0
 11
307.31443
 21
298.823977
 31
0.0
  0
ARC
  5
2EF
330
1F
100
AcDbEntity
  8
LC-001-100-D00-0
 62
     7
370
    50
100
AcDbCircle
 10
302.814433
 20
306.823977
 30
0.0
 40
8.0
100
AcDbArc
 50
180.0
 51
270.0
  0
LINE
  5
2F0
330
1F
100
AcDbEntity
  8
LC-001-100-D00-0
 62
     7
370
    50
100
AcDbLine
 10
294.814435
 20
308.823977
 30
0.0
 11
294.814435
 21
306.823977
 31
0.0
  0
LINE
  5
2F1
330
1F
100
AcDbEntity
  8
LC-001-100-D00-0
 62
     7
370
    50
100
AcDbLine
 10
297.314433
 20
317.823977
 30
0.0
 11
297.314433
 21
308.823977
 31
0.0
  0
LINE
  5
2F2
330
1F
100
AcDbEntity
  8
LC-001-100-D00-0
 62
     7
370
    50
100
AcDbLine
 10
431.014434
 20
441.455762
 30
0.0
 11
423.263016
 21
462.75262
 31
0.0
  0
LINE
  5
2F3
330
1F
100
AcDbEntity
  8
LC-001-100-D00-0
 62
     7
370
    50
100
AcDbLine
 10
423.263016
 20
462.75262
 30
0.0
 11
423.263016
 21
462.367858
 31
0.0
  0
LINE
  5
2F4
330
1F
100
AcDbEntity
  8
LC-001-100-D00-0
 62
     7
370
    50
100
AcDbLine
 10
423.263016
 20
462.367858
 30
0.0
 11
326.365848
 21
462.367858
 31
0.0
  0
LINE
  5
2F5
330
1F
100
AcDbEntity
  8
LC-001-100-D00-0
 62
     7
370
    50
100
AcDbLine
 10
326.365848
 20
462.367858
 30
0.0
 11
326.365848
 21
462.75262
 31
0.0
  0
LINE
  5
2F6
330
1F
100
AcDbEntity
  8
LC-001-100-D00-0
 62
     7
370
    50
100
AcDbLine
 10
326.365848
 20
462.75262
 30
0.0
 11
318.614435
 21
441.455762
 31
0.0
  0
LINE
  5
2F7
330
1F
100
AcDbEntity
  8
LC-001-100-D00-0
 62
     7
370
    50
100
AcDbLine
 10
318.614435
 20
441.455762
 30
0.0
 11
318.614435
 21
436.767916
 31
0.0
  0
LINE
  5
2F8
330
1F
100
AcDbEntity
  8
LC-001-100-D00-0
 62
     7
370
    50
100
AcDbLine
 10
318.614435
 20
436.767916
 30
0.0
 11
316.9082
 21
436.767916
 31
0.0
  0
LINE
  5
2F9
330
1F
100
AcDbEntity
  8
LC-001-100-D00-0
 62
     7
370
    50
100
AcDbLine
 10
316.9082
 20
436.767916
 30
0.0
 11
304.314804
 21
402.167852
 31
0.0
  0
LINE
  5
2FA
330
1F
100
AcDbEntity
  8
LC-001-100-D00-0
 62
     7
370
    50
100
AcDbLine
 10
304.314804
 20
402.167852
 30
0.0
 11
304.314432
 21
402.167852
 31
0.0
  0
LINE
  5
2FB
330
1F
100
AcDbEntity
  8
LC-001-100-D00-0
 62
     7
370
    50
100
AcDbLine
 10
304.314432
 20
394.467856
 30
0.0
 11
304.314432
 21
402.167852
 31
0.0
  0
LINE
  5
2FC
330
1F
100
AcDbEntity
  8
LC-001-100-D00-0
 62
     7
370
    50
100
AcDbLine
 10
303.814431
 20
394.467856
 30
0.0
 11
304.314432
 21
394.467856
 31
0.0
  0
LINE
  5
2FD
330
1F
100
AcDbEntity
  8
LC-001-100-D00-0
 62
     7
370
    50
100
AcDbLine
 10
303.814431
 20
373.167853
 30
0.0
 11
303.814431
 21
394.467856
 31
0.0
  0
LINE
  5
2FE
330
1F
100
AcDbEntity
  8
LC-001-100-D00-0
 62
     7
370
    50
100
AcDbLine
 10
300.414433
 20
373.167853
 30
0.0
 11
303.814431
 21
373.167853
 31
0.0
  0
ARC
  5
2FF
330
1F
100
AcDbEntity
  8
LC-001-100-D00-0
 62
     7
370
    50
100
AcDbCircle
 10
300.414433
 20
374.167853
 30
0.0
 40
1.0
100
AcDbArc
 50
180.0
 51
270.0
  0
ARC
  5
300
330
1F
100
AcDbEntity
  8
LC-001-100-D00-0
 62
     7
370
    50
100
AcDbCircle
 10
300.414433
 20
374.167853
 30
0.0
 40
1.0
100
AcDbArc
 50
90.0
 51
180.0
  0
LINE
  5
301
330
1F
100
AcDbEntity
  8
LC-001-100-D00-0
 62
     7
370
    50
100
AcDbLine
 10
300.414433
 20
375.167857
 30
0.0
 11
300.914434
 21
375.167857
 31
0.0
  0
LINE
  5
302
330
1F
100
AcDbEntity
  8
LC-001-100-D00-0
 62
     7
370
    50
100
AcDbLine
 10
300.914434
 20
375.167857
 30
0.0
 11
300.914434
 21
402.167852
 31
0.0
  0
LINE
  5
303
330
1F
100
AcDbEntity
  8
LC-001-100-D00-0
 62
     7
370
    50
100
AcDbLine
 10
300.914434
 20
402.167852
 30
0.0
 11
292.421532
 21
402.167852
 31
0.0
  0
LINE
  5
304
330
1F
100
AcDbEntity
  8
LC-001-100-D00-0
 62
     7
370
    50
100
AcDbLine
 10
289.228966
 20
403.992179
 30
0.0
 11
292.421532
 21
402.167852
 31
0.0
  0
LINE
  5
305
330
1F
100
AcDbEntity
  8
LC-001-100-D00-0
 62
     7
370
    50
100
AcDbLine
 10
312.27046
 20
467.29816
 30
0.0
 11
289.228966
 21
403.992179
 31
0.0
  0
ARC
  5
306
330
1F
100
AcDbEntity
  8
LC-001-100-D00-0
 62
     7
370
    50
100
AcDbCircle
 10
326.365852
 20
462.167859
 30
0.0
 40
15.0
100
AcDbArc
 50
90.0
 51
160.0
  0
LINE
  5
307
330
1F
100
AcDbEntity
  8
LC-001-100-D00-0
 62
     7
370
    50
100
AcDbLine
 10
326.365848
 20
477.167855
 30
0.0
 11
386.616698
 21
477.167855
 31
0.0
  0
LINE
  5
308
330
1F
100
AcDbEntity
  8
LC-001-100-D00-0
 62
     7
370
    50
100
AcDbLine
 10
386.616698
 20
477.167855
 30
0.0
 11
386.616698
 21
477.267856
 31
0.0
  0
LINE
  5
309
330
1F
100
AcDbEntity
  8
LC-001-100-D00-0
 62
     7
370
    50
100
AcDbLine
 10
387.442752
 20
477.267856
 30
0.0
 11
386.616698
 21
477.267856
 31
0.0
  0
LINE
  5
30A
330
1F
100
AcDbEntity
  8
LC-001-100-D00-0
 62
     7
370
    50
100
AcDbLine
 10
387.442752
 20
477.167855
 30
0.0
 11
387.442752
 21
477.267856
 31
0.0
  0
LINE
  5
30B
330
1F
100
AcDbEntity
  8
LC-001-100-D00-0
 62
     7
370
    50
100
AcDbLine
 10
387.442752
 20
477.167855
 30
0.0
 11
388.020374
 21
477.167855
 31
0.0
  0
LINE
  5
30C
330
1F
100
AcDbEntity
  8
LC-001-100-D00-0
 62
     7
370
    50
100
AcDbLine
 10
388.020374
 20
477.267856
 30
0.0
 11
388.020374
 21
477.167855
 31
0.0
  0
LINE
  5
30D
330
1F
100
AcDbEntity
  8
LC-001-100-D00-0
 62
     7
370
    50
100
AcDbLine
 10
388.759476
 20
477.267856
 30
0.0
 11
388.020374
 21
477.267856
 31
0.0
  0
LINE
  5
30E
330
1F
100
AcDbEntity
  8
LC-001-100-D00-0
 62
     7
370
    50
100
AcDbLine
 10
388.759476
 20
477.267856
 30
0.0
 11
388.759476
 21
477.167855
 31
0.0
  0
LINE
  5
30F
330
1F
100
AcDbEntity
  8
LC-001-100-D00-0
 62
     7
370
    50
100
AcDbLine
 10
388.759476
 20
477.167855
 30
0.0
 11
389.138339
 21
477.167855
 31
0.0
  0
LINE
  5
310
330
1F
100
AcDbEntity
  8
LC-001-100-D00-0
 62
     7
370
    50
100
AcDbLine
 10
389.138339
 20
477.167855
 30
0.0
 11
389.138339
 21
477.267856
 31
0.0
  0
LINE
  5
311
330
1F
100
AcDbEntity
  8
LC-001-100-D00-0
 62
     7
370
    50
100
AcDbLine
 10
391.486073
 20
477.267856
 30
0.0
 11
389.138339
 21
477.267856
 31
0.0
  0
LINE
  5
312
330
1F
100
AcDbEntity
  8
LC-001-100-D00-0
 62
     7
370
    50
100
AcDbLine
 10
391.486073
 20
477.267856
 30
0.0
 11
391.486073
 21
477.167855
 31
0.0
  0
LINE
  5
313
330
1F
100
AcDbEntity
  8
LC-001-100-D00-0
 62
     7
370
    50
100
AcDbLine
 10
391.486073
 20
477.167855
 30
0.0
 11
391.920839
 21
477.167855
 31
0.0
  0
LINE
  5
314
330
1F
100
AcDbEntity
  8
LC-001-100-D00-0
 62
     7
370
    50
100
AcDbLine
 10
391.920839
 20
477.167855
 30
0.0
 11
391.920839
 21
477.267856
 31
0.0
  0
LINE
  5
315
330
1F
100
AcDbEntity
  8
LC-001-100-D00-0
 62
     7
370
    50
100
AcDbLine
 10
391.920839
 20
477.267856
 30
0.0
 11
392.703417
 21
477.267856
 31
0.0
  0
LINE
  5
316
330
1F
100
AcDbEntity
  8
LC-001-100-D00-0
 62
     7
370
    50
100
AcDbLine
 10
392.703417
 20
477.267856
 30
0.0
 11
392.703417
 21
477.167855
 31
0.0
  0
LINE
  5
317
330
1F
100
AcDbEntity
  8
LC-001-100-D00-0
 62
     7
370
    50
100
AcDbLine
 10
392.703417
 20
477.167855
 30
0.0
 11
393.790331
 21
477.167855
 31
0.0
  0
LINE
  5
318
330
1F
100
AcDbEntity
  8
LC-001-100-D00-0
 62
     7
370
    50
100
AcDbLine
 10
393.790331
 20
477.167855
 30
0.0
 11
393.790331
 21
477.267856
 31
0.0
  0
LINE
  5
319
330
1F
100
AcDbEntity
  8
LC-001-100-D00-0
 62
     7
370
    50
100
AcDbLine
 10
393.790331
 20
477.267856
 30
0.0
 11
394.57291
 21
477.267856
 31
0.0
  0
LINE
  5
31A
330
1F
100
AcDbEntity
  8
LC-001-100-D00-0
 62
     7
370
    50
100
AcDbLine
 10
394.57291
 20
477.267856
 30
0.0
 11
394.57291
 21
477.167855
 31
0.0
  0
LINE
  5
31B
330
1F
100
AcDbEntity
  8
LC-001-100-D00-0
 62
     7
370
    50
100
AcDbLine
 10
394.57291
 20
477.167855
 30
0.0
 11
395.659824
 21
477.167855
 31
0.0
  0
LINE
  5
31C
330
1F
100
AcDbEntity
  8
LC-001-100-D00-0
 62
     7
370
    50
100
AcDbLine
 10
395.659824
 20
477.167855
 30
0.0
 11
395.659824
 21
477.267856
 31
0.0
  0
LINE
  5
31D
330
1F
100
AcDbEntity
  8
LC-001-100-D00-0
 62
     7
370
    50
100
AcDbLine
 10
396.442402
 20
477.267856
 30
0.0
 11
395.659824
 21
477.267856
 31
0.0
  0
LINE
  5
31E
330
1F
100
AcDbEntity
  8
LC-001-100-D00-0
 62
     7
370
    50
100
AcDbLine
 10
396.442402
 20
477.267856
 30
0.0
 11
396.442402
 21
477.167855
 31
0.0
  0
LINE
  5
31F
330
1F
100
AcDbEntity
  8
LC-001-100-D00-0
 62
     7
370
    50
100
AcDbLine
 10
396.442402
 20
477.167855
 30
0.0
 11
397.007597
 21
477.167855
 31
0.0
  0
LINE
  5
320
330
1F
100
AcDbEntity
  8
LC-001-100-D00-0
 62
     7
370
    50
100
AcDbLine
 10
397.007597
 20
477.167855
 30
0.0
 11
397.007597
 21
477.267856
 31
0.0
  0
LINE
  5
321
330
1F
100
AcDbEntity
  8
LC-001-100-D00-0
 62
     7
370
    50
100
AcDbLine
 10
397.833652
 20
477.267856
 30
0.0
 11
397.007597
 21
477.267856
 31
0.0
  0
LINE
  5
322
330
1F
100
AcDbEntity
  8
LC-001-100-D00-0
 62
     7
370
    50
100
AcDbLine
 10
397.833652
 20
477.267856
 30
0.0
 11
397.833652
 21
477.167855
 31
0.0
  0
LINE
  5
323
330
1F
100
AcDbEntity
  8
LC-001-100-D00-0
 62
     7
370
    50
100
AcDbLine
 10
397.833652
 20
477.167855
 30
0.0
 11
398.398848
 21
477.167855
 31
0.0
  0
LINE
  5
324
330
1F
100
AcDbEntity
  8
LC-001-100-D00-0
 62
     7
370
    50
100
AcDbLine
 10
398.398848
 20
477.167855
 30
0.0
 11
398.398848
 21
477.267856
 31
0.0
  0
LINE
  5
325
330
1F
100
AcDbEntity
  8
LC-001-100-D00-0
 62
     7
370
    50
100
AcDbLine
 10
399.181425
 20
477.267856
 30
0.0
 11
398.398848
 21
477.267856
 31
0.0
  0
LINE
  5
326
330
1F
100
AcDbEntity
  8
LC-001-100-D00-0
 62
     7
370
    50
100
AcDbLine
 10
399.181425
 20
477.267856
 30
0.0
 11
399.181425
 21
477.167855
 31
0.0
  0
LINE
  5
327
330
1F
100
AcDbEntity
  8
LC-001-100-D00-0
 62
     7
370
    50
100
AcDbLine
 10
399.181425
 20
477.167855
 30
0.0
 11
399.529239
 21
477.167855
 31
0.0
  0
LINE
  5
328
330
1F
100
AcDbEntity
  8
LC-001-100-D00-0
 62
     7
370
    50
100
AcDbLine
 10
399.529239
 20
477.167855
 30
0.0
 11
399.529239
 21
477.267856
 31
0.0
  0
LINE
  5
329
330
1F
100
AcDbEntity
  8
LC-001-100-D00-0
 62
     7
370
    50
100
AcDbLine
 10
399.529239
 20
477.267856
 30
0.0
 11
401.442208
 21
477.267856
 31
0.0
  0
LINE
  5
32A
330
1F
100
AcDbEntity
  8
LC-001-100-D00-0
 62
     7
370
    50
100
AcDbLine
 10
401.442208
 20
477.267856
 30
0.0
 11
401.442208
 21
477.167855
 31
0.0
  0
LINE
  5
32B
330
1F
100
AcDbEntity
  8
LC-001-100-D00-0
 62
     7
370
    50
100
AcDbLine
 10
401.442208
 20
477.167855
 30
0.0
 11
401.920449
 21
477.167855
 31
0.0
  0
LINE
  5
32C
330
1F
100
AcDbEntity
  8
LC-001-100-D00-0
 62
     7
370
    50
100
AcDbLine
 10
401.920449
 20
477.167855
 30
0.0
 11
401.920449
 21
477.267856
 31
0.0
  0
LINE
  5
32D
330
1F
100
AcDbEntity
  8
LC-001-100-D00-0
 62
     7
370
    50
100
AcDbLine
 10
404.243516
 20
477.267856
 30
0.0
 11
401.920449
 21
477.267856
 31
0.0
  0
LINE
  5
32E
330
1F
100
AcDbEntity
  8
LC-001-100-D00-0
 62
     7
370
    50
100
AcDbLine
 10
404.243516
 20
477.267856
 30
0.0
 11
404.243516
 21
477.167855
 31
0.0
  0
LINE
  5
32F
330
1F
100
AcDbEntity
  8
LC-001-100-D00-0
 62
     7
370
    50
100
AcDbLine
 10
404.243516
 20
477.167855
 30
0.0
 11
423.263016
 21
477.167855
 31
0.0
  0
ARC
  5
330
330
1F
100
AcDbEntity
  8
LC-001-100-D00-0
 62
     7
370
    50
100
AcDbCircle
 10
423.263015
 20
462.167859
 30
0.0
 40
14.99999999999998
100
AcDbArc
 50
20.0
 51
90.0
  0
LINE
  5
331
330
1F
100
AcDbEntity
  8
LC-001-100-D00-0
 62
     7
370
    50
100
AcDbLine
 10
460.399901
 20
403.992179
 30
0.0
 11
437.358406
 21
467.29816
 31
0.0
  0
LINE
  5
332
330
1F
100
AcDbEntity
  8
LC-001-100-D00-0
 62
     7
370
    50
100
AcDbLine
 10
457.207334
 20
402.167852
 30
0.0
 11
460.399901
 21
403.992179
 31
0.0
  0
LINE
  5
333
330
1F
100
AcDbEntity
  8
LC-001-100-D00-0
 62
     7
370
    50
100
AcDbLine
 10
457.207334
 20
402.167852
 30
0.0
 11
448.714432
 21
402.167852
 31
0.0
  0
LINE
  5
334
330
1F
100
AcDbEntity
  8
LC-001-100-D00-0
 62
     7
370
    50
100
AcDbLine
 10
448.714432
 20
402.167852
 30
0.0
 11
448.714432
 21
375.167857
 31
0.0
  0
LINE
  5
335
330
1F
100
AcDbEntity
  8
LC-001-100-D00-0
 62
     7
370
    50
100
AcDbLine
 10
448.714432
 20
375.167857
 30
0.0
 11
449.214433
 21
375.167857
 31
0.0
  0
ARC
  5
336
330
1F
100
AcDbEntity
  8
LC-001-100-D00-0
 62
     7
370
    50
100
AcDbCircle
 10
449.214433
 20
374.167853
 30
0.0
 40
1.0
100
AcDbArc
 50
0.0
 51
90.0
  0
ARC
  5
337
330
1F
100
AcDbEntity
  8
LC-001-100-D00-0
 62
     7
370
    50
100
AcDbCircle
 10
449.214433
 20
374.167853
 30
0.0
 40
1.0
100
AcDbArc
 50
270.0
 51
0.0
  0
LINE
  5
338
330
1F
100
AcDbEntity
  8
LC-001-100-D00-0
 62
     7
370
    50
100
AcDbLine
 10
445.814432
 20
373.167853
 30
0.0
 11
449.214433
 21
373.167853
 31
0.0
  0
LINE
  5
339
330
1F
100
AcDbEntity
  8
LC-001-100-D00-0
 62
     7
370
    50
100
AcDbLine
 10
445.814432
 20
394.467856
 30
0.0
 11
445.814432
 21
373.167853
 31
0.0
  0
LINE
  5
33A
330
1F
100
AcDbEntity
  8
LC-001-100-D00-0
 62
     7
370
    50
100
AcDbLine
 10
445.314434
 20
394.467856
 30
0.0
 11
445.814432
 21
394.467856
 31
0.0
  0
LINE
  5
33B
330
1F
100
AcDbEntity
  8
LC-001-100-D00-0
 62
     7
370
    50
100
AcDbLine
 10
445.314434
 20
402.167852
 30
0.0
 11
445.314434
 21
394.467856
 31
0.0
  0
LINE
  5
33C
330
1F
100
AcDbEntity
  8
LC-001-100-D00-0
 62
     7
370
    50
100
AcDbLine
 10
445.314434
 20
402.167852
 30
0.0
 11
445.314062
 21
402.167852
 31
0.0
  0
LINE
  5
33D
330
1F
100
AcDbEntity
  8
LC-001-100-D00-0
 62
     7
370
    50
100
AcDbLine
 10
445.314062
 20
402.167852
 30
0.0
 11
432.72067
 21
436.767916
 31
0.0
  0
LINE
  5
33E
330
1F
100
AcDbEntity
  8
LC-001-100-D00-0
 62
     7
370
    50
100
AcDbLine
 10
432.72067
 20
436.767916
 30
0.0
 11
431.014434
 21
436.767916
 31
0.0
  0
LINE
  5
33F
330
1F
100
AcDbEntity
  8
LC-001-100-D00-0
 62
     7
370
    50
100
AcDbLine
 10
431.014434
 20
436.767916
 30
0.0
 11
431.014434
 21
441.455762
 31
0.0
  0
INSERT
  5
351
330
1F
100
AcDbEntity
  8
LC-001-100-D00-0
 62
     7
370
    50
100
AcDbBlockReference
  2
POLY17
 10
0.0
 20
0.0
 30
0.0
  0
LINE
  5
352
330
1F
100
AcDbEntity
  8
LC-001-100-D00-0
 62
     7
370
    50
100
AcDbLine
 10
304.801879
 20
393.467853
 30
0.0
 11
304.801879
 21
373.167853
 31
0.0
  0
LINE
  5
353
330
1F
100
AcDbEntity
  8
LC-001-100-D00-0
 62
     7
370
    50
100
AcDbLine
 10
303.814431
 20
373.167853
 30
0.0
 11
304.801879
 21
373.167853
 31
0.0
  0
LINE
  5
354
330
1F
100
AcDbEntity
  8
LC-001-100-D00-0
 62
     7
370
    50
100
AcDbLine
 10
444.827006
 20
373.167853
 30
0.0
 11
444.827006
 21
393.467853
 31
0.0
  0
INSERT
  5
366
330
1F
100
AcDbEntity
  8
LC-001-100-D00-0
 62
     7
370
    50
100
AcDbBlockReference
  2
POLY18
 10
0.0
 20
0.0
 30
0.0
  0
LINE
  5
367
330
1F
100
AcDbEntity
  8
LC-001-100-D00-0
 62
     7
370
    50
100
AcDbLine
 10
444.827006
 20
373.167853
 30
0.0
 11
445.814432
 21
373.167853
 31
0.0
  0
LINE
  5
368
330
1F
100
AcDbEntity
  8
LC-001-100-D00-0
 62
     7
370
    50
100
AcDbLine
 10
304.314804
 20
402.167852
 30
0.0
 11
306.657766
 21
402.167852
 31
0.0
  0
LINE
  5
369
330
1F
100
AcDbEntity
  8
LC-001-100-D00-0
 62
     7
370
    50
100
AcDbLine
 10
306.776282
 20
402.167852
 30
0.0
 11
313.645487
 21
402.167852
 31
0.0
  0
LINE
  5
36A
330
1F
100
AcDbEntity
  8
LC-001-100-D00-0
 62
     7
370
    50
100
AcDbLine
 10
313.874443
 20
402.167852
 30
0.0
 11
324.80177
 21
402.167852
 31
0.0
  0
LINE
  5
36B
330
1F
100
AcDbEntity
  8
LC-001-100-D00-0
 62
     7
370
    50
100
AcDbLine
 10
325.125565
 20
402.167852
 30
0.0
 11
339.36634
 21
402.167852
 31
0.0
  0
LINE
  5
36C
330
1F
100
AcDbEntity
  8
LC-001-100-D00-0
 62
     7
370
    50
100
AcDbLine
 10
339.762897
 20
402.167852
 30
0.0
 11
356.346634
 21
402.167852
 31
0.0
  0
LINE
  5
36D
330
1F
100
AcDbEntity
  8
LC-001-100-D00-0
 62
     7
370
    50
100
AcDbLine
 10
356.788938
 20
402.167852
 30
0.0
 11
374.58548
 21
402.167852
 31
0.0
  0
LINE
  5
36E
330
1F
100
AcDbEntity
  8
LC-001-100-D00-0
 62
     7
370
    50
100
AcDbLine
 10
375.043388
 20
402.167852
 30
0.0
 11
392.839928
 21
402.167852
 31
0.0
  0
LINE
  5
36F
330
1F
100
AcDbEntity
  8
LC-001-100-D00-0
 62
     7
370
    50
100
AcDbLine
 10
393.282232
 20
402.167852
 30
0.0
 11
409.865968
 21
402.167852
 31
0.0
  0
LINE
  5
370
330
1F
100
AcDbEntity
  8
LC-001-100-D00-0
 62
     7
370
    50
100
AcDbLine
 10
410.262527
 20
402.167852
 30
0.0
 11
424.503303
 21
402.167852
 31
0.0
  0
LINE
  5
371
330
1F
100
AcDbEntity
  8
LC-001-100-D00-0
 62
     7
370
    50
100
AcDbLine
 10
424.827092
 20
402.167852
 30
0.0
 11
435.754427
 21
402.167852
 31
0.0
  0
LINE
  5
372
330
1F
100
AcDbEntity
  8
LC-001-100-D00-0
 62
     7
370
    50
100
AcDbLine
 10
435.983379
 20
402.167852
 30
0.0
 11
442.852588
 21
402.167852
 31
0.0
  0
LINE
  5
373
330
1F
100
AcDbEntity
  8
LC-001-100-D00-0
 62
     7
370
    50
100
AcDbLine
 10
442.971104
 20
402.167852
 30
0.0
 11
445.314062
 21
402.167852
 31
0.0
  0
LINE
  5
374
330
1F
100
AcDbEntity
  8
LC-001-100-D00-0
 62
     7
370
    50
100
AcDbLine
 10
304.314432
 20
394.467856
 30
0.0
 11
445.314434
 21
394.467856
 31
0.0
  0
LINE
  5
375
330
1F
100
AcDbEntity
  8
LC-001-100-D00-0
 62
     7
370
    50
100
AcDbLine
 10
397.007597
 20
477.267856
 30
0.0
 11
397.007597
 21
477.167855
 31
0.0
  0
LINE
  5
376
330
1F
100
AcDbEntity
  8
LC-001-100-D00-0
 62
     7
370
    50
100
AcDbLine
 10
397.007597
 20
477.267856
 30
0.0
 11
397.007597
 21
477.267856
 31
0.0
  0
LINE
  5
377
330
1F
100
AcDbEntity
  8
LC-001-100-D00-0
 62
     7
370
    50
100
AcDbLine
 10
404.268185
 20
477.267856
 30
0.0
 11
404.268185
 21
477.167855
 31
0.0
  0
LINE
  5
378
330
1F
100
AcDbEntity
  8
LC-001-100-D00-0
 62
     7
370
    50
100
AcDbLine
 10
404.243516
 20
477.267856
 30
0.0
 11
404.268185
 21
477.267856
 31
0.0
  0
LINE
  5
379
330
1F
100
AcDbEntity
  8
LC-001-100-D00-0
 62
     7
370
    50
100
AcDbLine
 10
320.243125
 20
442.074622
 30
0.0
 11
318.839681
 21
442.074622
 31
0.0
  0
LINE
  5
37A
330
1F
100
AcDbEntity
  8
LC-001-100-D00-0
 62
     7
370
    50
100
AcDbLine
 10
320.243125
 20
442.074622
 30
0.0
 11
320.243125
 21
441.488097
 31
0.0
  0
ELLIPSE
  5
37B
330
1F
100
AcDbEntity
  8
LC-001-100-D00-0
 62
     7
370
    50
100
AcDbEllipse
 10
374.814433
 20
595.864029
 30
0.0
 11
-54.69271162372861
 21
-154.3402810313167
 31
0.0
210
0.0
220
0.0
230
1.0
 40
0.083767
 41
3.150803750597182
 42
3.191731874073027
  0
LINE
  5
37C
330
1F
100
AcDbEntity
  8
LC-001-100-D00-0
 62
     7
370
    50
100
AcDbLine
 10
325.579
 20
442.074622
 30
0.0
 11
321.044614
 21
442.074622
 31
0.0
  0
LINE
  5
37D
330
1F
100
AcDbEntity
  8
LC-001-100-D00-0
 62
     7
370
    50
100
AcDbLine
 10
325.579
 20
442.074622
 30
0.0
 11
325.579
 21
441.488097
 31
0.0
  0
ELLIPSE
  5
37E
330
1F
100
AcDbEntity
  8
LC-001-100-D00-0
 62
     7
370
    50
100
AcDbEllipse
 10
374.814433
 20
595.864029
 30
0.0
 11
-50.10599910011244
 21
-154.1865670813168
 31
0.0
210
0.0
220
0.0
230
1.0
 40
0.165076
 41
3.174721918189744
 42
3.21565004166558
  0
LINE
  5
37F
330
1F
100
AcDbEntity
  8
LC-001-100-D00-0
 62
     7
370
    50
100
AcDbLine
 10
334.27018
 20
442.074622
 30
0.0
 11
326.913876
 21
442.074622
 31
0.0
  0
LINE
  5
380
330
1F
100
AcDbEntity
  8
LC-001-100-D00-0
 62
     7
370
    50
100
AcDbLine
 10
334.27018
 20
442.074622
 30
0.0
 11
334.27018
 21
441.488097
 31
0.0
  0
ELLIPSE
  5
381
330
1F
100
AcDbEntity
  8
LC-001-100-D00-0
 62
     7
370
    50
100
AcDbEllipse
 10
374.814433
 20
595.864029
 30
0.0
 11
-42.26835833949225
 21
-154.0735723013279
 31
0.0
210
0.0
220
0.0
230
1.0
 40
0.240393
 41
3.186982284715612
 42
3.227910408191453
  0
LINE
  5
382
330
1F
100
AcDbEntity
  8
LC-001-100-D00-0
 62
     7
370
    50
100
AcDbLine
 10
345.724386
 20
442.074622
 30
0.0
 11
336.047479
 21
442.074622
 31
0.0
  0
LINE
  5
383
330
1F
100
AcDbEntity
  8
LC-001-100-D00-0
 62
     7
370
    50
100
AcDbLine
 10
345.724386
 20
442.074622
 30
0.0
 11
345.724386
 21
441.488097
 31
0.0
  0
ELLIPSE
  5
384
330
1F
100
AcDbEntity
  8
LC-001-100-D00-0
 62
     7
370
    50
100
AcDbEllipse
 10
374.814433
 20
595.864029
 30
0.0
 11
-31.02069845648416
 21
-154.1198904247403
 31
0.0
210
0.0
220
0.0
230
1.0
 40
0.30407
 41
3.182254375888675
 42
3.223182499364514
  0
LINE
  5
385
330
1F
100
AcDbEntity
  8
LC-001-100-D00-0
 62
     7
370
    50
100
AcDbLine
 10
359.161035
 20
442.074622
 30
0.0
 11
347.716247
 21
442.074622
 31
0.0
  0
LINE
  5
386
330
1F
100
AcDbEntity
  8
LC-001-100-D00-0
 62
     7
370
    50
100
AcDbLine
 10
359.161035
 20
442.074622
 30
0.0
 11
359.161035
 21
441.488097
 31
0.0
  0
ELLIPSE
  5
387
330
1F
100
AcDbEntity
  8
LC-001-100-D00-0
 62
     7
370
    50
100
AcDbEllipse
 10
374.814433
 20
595.864029
 30
0.0
 11
-16.56207463459362
 21
-154.3006263193186
 31
0.0
210
0.0
220
0.0
230
1.0
 40
0.348049
 41
3.158469548149908
 42
3.19939767162575
  0
LINE
  5
388
330
1F
100
AcDbEntity
  8
LC-001-100-D00-0
 62
     7
370
    50
100
AcDbLine
 10
373.664434
 20
442.074622
 30
0.0
 11
361.382664
 21
442.074622
 31
0.0
  0
ELLIPSE
  5
389
330
1F
100
AcDbEntity
  8
LC-001-100-D00-0
 62
     7
370
    50
100
AcDbEllipse
 10
374.814433
 20
595.864029
 30
0.0
 11
0.0
 21
-154.4082631621093
 31
0.0
210
0.0
220
0.0
230
1.0
 40
0.36397
 41
3.121128591851877
 42
3.162056715327756
  0
LINE
  5
38A
330
1F
100
AcDbEntity
  8
LC-001-100-D00-0
 62
     7
370
    50
100
AcDbLine
 10
388.246203
 20
442.074622
 30
0.0
 11
375.964434
 21
442.074622
 31
0.0
  0
ELLIPSE
  5
38B
330
1F
100
AcDbEntity
  8
LC-001-100-D00-0
 62
     7
370
    50
100
AcDbEllipse
 10
374.814433
 20
595.864029
 30
0.0
 11
16.56207463459386
 21
-154.3006263193168
 31
0.0
210
0.0
220
0.0
230
1.0
 40
0.348049
 41
3.083787635553871
 42
3.12471575902971
  0
LINE
  5
38C
330
1F
100
AcDbEntity
  8
LC-001-100-D00-0
 62
     7
370
    50
100
AcDbLine
 10
390.467833
 20
442.074622
 30
0.0
 11
390.467833
 21
441.488097
 31
0.0
  0
LINE
  5
38D
330
1F
100
AcDbEntity
  8
LC-001-100-D00-0
 62
     7
370
    50
100
AcDbLine
 10
401.91262
 20
442.074622
 30
0.0
 11
390.467833
 21
442.074622
 31
0.0
  0
ELLIPSE
  5
38E
330
1F
100
AcDbEntity
  8
LC-001-100-D00-0
 62
     7
370
    50
100
AcDbEllipse
 10
374.814433
 20
595.864029
 30
0.0
 11
31.0206984564859
 21
-154.1198904247473
 31
0.0
210
0.0
220
0.0
230
1.0
 40
0.30407
 41
3.060002807815107
 42
3.100930931290945
  0
LINE
  5
38F
330
1F
100
AcDbEntity
  8
LC-001-100-D00-0
 62
     7
370
    50
100
AcDbLine
 10
403.904479
 20
442.074622
 30
0.0
 11
403.904479
 21
441.488097
 31
0.0
  0
LINE
  5
390
330
1F
100
AcDbEntity
  8
LC-001-100-D00-0
 62
     7
370
    50
100
AcDbLine
 10
413.581389
 20
442.074622
 30
0.0
 11
403.904479
 21
442.074622
 31
0.0
  0
ELLIPSE
  5
391
330
1F
100
AcDbEntity
  8
LC-001-100-D00-0
 62
     7
370
    50
100
AcDbEllipse
 10
374.814433
 20
595.864029
 30
0.0
 11
42.26835833949546
 21
-154.0735723013387
 31
0.0
210
0.0
220
0.0
230
1.0
 40
0.240393
 41
3.055274898988184
 42
3.096203022464024
  0
LINE
  5
392
330
1F
100
AcDbEntity
  8
LC-001-100-D00-0
 62
     7
370
    50
100
AcDbLine
 10
415.358686
 20
442.074622
 30
0.0
 11
415.358686
 21
441.488097
 31
0.0
  0
LINE
  5
393
330
1F
100
AcDbEntity
  8
LC-001-100-D00-0
 62
     7
370
    50
100
AcDbLine
 10
422.714992
 20
442.074622
 30
0.0
 11
415.358686
 21
442.074622
 31
0.0
  0
ELLIPSE
  5
394
330
1F
100
AcDbEntity
  8
LC-001-100-D00-0
 62
     7
370
    50
100
AcDbEllipse
 10
374.814433
 20
595.864029
 30
0.0
 11
50.10599910012051
 21
-154.1865670813411
 31
0.0
210
0.0
220
0.0
230
1.0
 40
0.165076
 41
3.067535265514126
 42
3.108463388989964
  0
LINE
  5
395
330
1F
100
AcDbEntity
  8
LC-001-100-D00-0
 62
     7
370
    50
100
AcDbLine
 10
424.04987
 20
442.074622
 30
0.0
 11
424.04987
 21
441.488097
 31
0.0
  0
LINE
  5
396
330
1F
100
AcDbEntity
  8
LC-001-100-D00-0
 62
     7
370
    50
100
AcDbLine
 10
428.584253
 20
442.074622
 30
0.0
 11
424.04987
 21
442.074622
 31
0.0
  0
ELLIPSE
  5
397
330
1F
100
AcDbEntity
  8
LC-001-100-D00-0
 62
     7
370
    50
100
AcDbEllipse
 10
374.814433
 20
595.864029
 30
0.0
 11
54.69271162457887
 21
-154.3402810337155
 31
0.0
210
0.0
220
0.0
230
1.0
 40
0.083767
 41
3.091453433106987
 42
3.13238155658283
  0
LINE
  5
398
330
1F
100
AcDbEntity
  8
LC-001-100-D00-0
 62
     7
370
    50
100
AcDbLine
 10
429.385741
 20
442.074622
 30
0.0
 11
429.385741
 21
441.488097
 31
0.0
  0
LINE
  5
399
330
1F
100
AcDbEntity
  8
LC-001-100-D00-0
 62
     7
370
    50
100
AcDbLine
 10
430.789189
 20
442.074622
 30
0.0
 11
429.385741
 21
442.074622
 31
0.0
  0
LINE
  5
39A
330
1F
100
AcDbEntity
  8
LC-001-100-D00-0
 62
     7
370
    50
100
AcDbLine
 10
431.014434
 20
436.767916
 30
0.0
 11
318.614435
 21
436.767916
 31
0.0
  0
LINE
  5
39B
330
1F
100
AcDbEntity
  8
LC-001-100-D00-0
 62
     7
370
    50
100
AcDbLine
 10
388.020374
 20
477.267856
 30
0.0
 11
387.889945
 21
477.267856
 31
0.0
  0
LINE
  5
39C
330
1F
100
AcDbEntity
  8
LC-001-100-D00-0
 62
     7
370
    50
100
AcDbLine
 10
397.833652
 20
477.267856
 30
0.0
 11
397.920606
 21
477.267856
 31
0.0
  0
LINE
  5
39D
330
1F
100
AcDbEntity
  8
LC-001-100-D00-0
 62
     7
370
    50
100
AcDbLine
 10
396.920644
 20
477.267856
 30
0.0
 11
397.007597
 21
477.267856
 31
0.0
  0
LINE
  5
39E
330
1F
100
AcDbEntity
  8
LC-001-100-D00-0
 62
     7
370
    50
100
AcDbLine
 10
396.442402
 20
477.267856
 30
0.0
 11
396.529355
 21
477.267856
 31
0.0
  0
LINE
  5
39F
330
1F
100
AcDbEntity
  8
LC-001-100-D00-0
 62
     7
370
    50
100
AcDbLine
 10
398.311894
 20
477.267856
 30
0.0
 11
398.398848
 21
477.267856
 31
0.0
  0
LINE
  5
3A0
330
1F
100
AcDbEntity
  8
LC-001-100-D00-0
 62
     7
370
    50
100
AcDbLine
 10
387.889945
 20
477.267856
 30
0.0
 11
387.442752
 21
477.267856
 31
0.0
  0
LINE
  5
3A1
330
1F
100
AcDbEntity
  8
LC-001-100-D00-0
 62
     7
370
    50
100
AcDbLine
 10
396.529355
 20
477.267856
 30
0.0
 11
396.920644
 21
477.267856
 31
0.0
  0
LINE
  5
3A2
330
1F
100
AcDbEntity
  8
LC-001-100-D00-0
 62
     7
370
    50
100
AcDbLine
 10
397.920606
 20
477.267856
 30
0.0
 11
398.311894
 21
477.267856
 31
0.0
  0
LINE
  5
3A3
330
1F
100
AcDbEntity
  8
LC-001-100-D00-0
 62
     7
370
    50
100
AcDbLine
 10
415.358686
 20
441.488097
 30
0.0
 11
409.98495
 21
462.367858
 31
0.0
  0
LINE
  5
3A4
330
1F
100
AcDbEntity
  8
LC-001-100-D00-0
 62
     7
370
    50
100
AcDbLine
 10
433.888183
 20
402.167852
 30
0.0
 11
435.008523
 21
403.073224
 31
0.0
  0
LINE
  5
3A5
330
1F
100
AcDbEntity
  8
LC-001-100-D00-0
 62
     7
370
    50
100
AcDbLine
 10
425.478372
 20
402.167852
 30
0.0
 11
416.573499
 21
436.767916
 31
0.0
  0
LINE
  5
3A6
330
1F
100
AcDbEntity
  8
LC-001-100-D00-0
 62
     7
370
    50
100
AcDbLine
 10
315.740687
 20
402.167852
 30
0.0
 11
314.620343
 21
403.073224
 31
0.0
  0
LINE
  5
3A7
330
1F
100
AcDbEntity
  8
LC-001-100-D00-0
 62
     7
370
    50
100
AcDbLine
 10
334.27018
 20
441.488097
 30
0.0
 11
339.643915
 21
462.367858
 31
0.0
  0
LINE
  5
3A8
330
1F
100
AcDbEntity
  8
LC-001-100-D00-0
 62
     7
370
    50
100
AcDbLine
 10
324.150492
 20
402.167852
 30
0.0
 11
333.055367
 21
436.767916
 31
0.0
  0
LINE
  5
3A9
330
1F
100
AcDbEntity
  8
LC-001-100-D00-0
 62
     7
370
    50
100
AcDbLine
 10
300.914434
 20
385.467852
 30
0.0
 11
298.796353
 21
385.467852
 31
0.0
  0
LINE
  5
3AA
330
1F
100
AcDbEntity
  8
LC-001-100-D00-0
 62
     7
370
    50
100
AcDbLine
 10
298.796353
 20
385.467852
 30
0.0
 11
298.796353
 21
402.167852
 31
0.0
  0
LINE
  5
3AB
330
1F
100
AcDbEntity
  8
LC-001-100-D00-0
 62
     7
370
    50
100
AcDbLine
 10
320.243125
 20
441.488097
 30
0.0
 11
327.583787
 21
462.367858
 31
0.0
  0
LINE
  5
3AC
330
1F
100
AcDbEntity
  8
LC-001-100-D00-0
 62
     7
370
    50
100
AcDbLine
 10
306.419377
 20
402.167852
 30
0.0
 11
318.583665
 21
436.767916
 31
0.0
  0
LINE
  5
3AD
330
1F
100
AcDbEntity
  8
LC-001-100-D00-0
 62
     7
370
    50
100
AcDbLine
 10
429.385741
 20
441.488097
 30
0.0
 11
422.045081
 21
462.367858
 31
0.0
  0
LINE
  5
3AE
330
1F
100
AcDbEntity
  8
LC-001-100-D00-0
 62
     7
370
    50
100
AcDbLine
 10
450.832513
 20
385.467852
 30
0.0
 11
450.832513
 21
402.167852
 31
0.0
  0
LINE
  5
3AF
330
1F
100
AcDbEntity
  8
LC-001-100-D00-0
 62
     7
370
    50
100
AcDbLine
 10
450.832513
 20
385.467852
 30
0.0
 11
448.714432
 21
385.467852
 31
0.0
  0
LINE
  5
3B0
330
1F
100
AcDbEntity
  8
LC-001-100-D00-0
 62
     7
370
    50
100
AcDbLine
 10
443.209485
 20
402.167852
 30
0.0
 11
431.045205
 21
436.767916
 31
0.0
  0
LINE
  5
3B1
330
1F
100
AcDbEntity
  8
LC-001-100-D00-0
 62
     7
370
    50
100
AcDbLine
 10
428.790455
 20
441.488097
 30
0.0
 11
421.449796
 21
462.367858
 31
0.0
  0
LINE
  5
3B2
330
1F
100
AcDbEntity
  8
LC-001-100-D00-0
 62
     7
370
    50
100
AcDbLine
 10
320.838411
 20
441.488097
 30
0.0
 11
328.179074
 21
462.367858
 31
0.0
  0
INSERT
  5
3C4
330
1F
100
AcDbEntity
  8
LC-001-100-D00-0
 62
     7
370
    50
100
AcDbBlockReference
  2
POLY19
 10
0.0
 20
0.0
 30
0.0
  0
INSERT
  5
3D6
330
1F
100
AcDbEntity
  8
LC-001-100-D00-0
 62
     7
370
    50
100
AcDbBlockReference
  2
POLY20
 10
0.0
 20
0.0
 30
0.0
  0
LINE
  5
3D7
330
1F
100
AcDbEntity
  8
LC-001-100-D00-0
 62
     7
370
    50
100
AcDbLine
 10
361.014449
 20
393.467853
 30
0.0
 11
361.014449
 21
385.467852
 31
0.0
  0
LINE
  5
3D8
330
1F
100
AcDbEntity
  8
LC-001-100-D00-0
 62
     7
370
    50
100
AcDbLine
 10
305.168492
 20
385.467852
 30
0.0
 11
361.014449
 21
385.467852
 31
0.0
  0
LINE
  5
3D9
330
1F
100
AcDbEntity
  8
LC-001-100-D00-0
 62
     7
370
    50
100
AcDbLine
 10
305.168492
 20
385.467852
 30
0.0
 11
305.168492
 21
393.467853
 31
0.0
  0
INSERT
  5
3EB
330
1F
100
AcDbEntity
  8
LC-001-100-D00-0
 62
     7
370
    50
100
AcDbBlockReference
  2
POLY21
 10
0.0
 20
0.0
 30
0.0
  0
INSERT
  5
3FD
330
1F
100
AcDbEntity
  8
LC-001-100-D00-0
 62
     7
370
    50
100
AcDbBlockReference
  2
POLY22
 10
0.0
 20
0.0
 30
0.0
  0
LINE
  5
3FE
330
1F
100
AcDbEntity
  8
LC-001-100-D00-0
 62
     7
370
    50
100
AcDbLine
 10
444.4604
 20
393.467853
 30
0.0
 11
444.4604
 21
385.467852
 31
0.0
  0
LINE
  5
3FF
330
1F
100
AcDbEntity
  8
LC-001-100-D00-0
 62
     7
370
    50
100
AcDbLine
 10
388.61453
 20
385.467852
 30
0.0
 11
444.4604
 21
385.467852
 31
0.0
  0
LINE
  5
400
330
1F
100
AcDbEntity
  8
LC-001-100-D00-0
 62
     7
370
    50
100
AcDbLine
 10
388.61453
 20
385.467852
 30
0.0
 11
388.61453
 21
393.467853
 31
0.0
  0
LINE
  5
401
330
1F
100
AcDbEntity
  8
LC-001-100-D00-0
 62
     7
370
    50
100
AcDbLine
 10
444.4604
 20
385.467852
 30
0.0
 11
444.827006
 21
385.467852
 31
0.0
  0
LINE
  5
402
330
1F
100
AcDbEntity
  8
LC-001-100-D00-0
 62
     7
370
    50
100
AcDbLine
 10
304.801879
 20
385.467852
 30
0.0
 11
305.168492
 21
385.467852
 31
0.0
  0
LINE
  5
403
330
1F
100
AcDbEntity
  8
LC-001-100-D00-0
 62
     7
370
    50
100
AcDbLine
 10
442.852588
 20
402.167852
 30
0.0
 11
442.971104
 21
402.167852
 31
0.0
  0
LINE
  5
404
330
1F
100
AcDbEntity
  8
LC-001-100-D00-0
 62
     7
370
    50
100
AcDbLine
 10
442.614202
 20
402.167852
 30
0.0
 11
430.449923
 21
436.767916
 31
0.0
  0
LINE
  5
405
330
1F
100
AcDbEntity
  8
LC-001-100-D00-0
 62
     7
370
    50
100
AcDbLine
 10
306.657766
 20
402.167852
 30
0.0
 11
306.776282
 21
402.167852
 31
0.0
  0
LINE
  5
406
330
1F
100
AcDbEntity
  8
LC-001-100-D00-0
 62
     7
370
    50
100
AcDbLine
 10
307.014664
 20
402.167852
 30
0.0
 11
319.178944
 21
436.767916
 31
0.0
  0
LINE
  5
407
330
1F
100
AcDbEntity
  8
LC-001-100-D00-0
 62
     7
370
    50
100
AcDbLine
 10
424.04987
 20
441.488097
 30
0.0
 11
417.468415
 21
462.367858
 31
0.0
  0
LINE
  5
408
330
1F
100
AcDbEntity
  8
LC-001-100-D00-0
 62
     7
370
    50
100
AcDbLine
 10
436.443904
 20
402.167852
 30
0.0
 11
425.537705
 21
436.767916
 31
0.0
  0
LINE
  5
409
330
1F
100
AcDbEntity
  8
LC-001-100-D00-0
 62
     7
370
    50
100
AcDbLine
 10
325.579
 20
441.488097
 30
0.0
 11
332.160455
 21
462.367858
 31
0.0
  0
LINE
  5
40A
330
1F
100
AcDbEntity
  8
LC-001-100-D00-0
 62
     7
370
    50
100
AcDbLine
 10
313.184966
 20
402.167852
 30
0.0
 11
324.091164
 21
436.767916
 31
0.0
  0
LINE
  5
40B
330
1F
100
AcDbEntity
  8
LC-001-100-D00-0
 62
     7
370
    50
100
AcDbLine
 10
422.899871
 20
441.488097
 30
0.0
 11
416.318414
 21
462.367858
 31
0.0
  0
LINE
  5
40C
330
1F
100
AcDbEntity
  8
LC-001-100-D00-0
 62
     7
370
    50
100
AcDbLine
 10
326.728997
 20
441.488097
 30
0.0
 11
333.310452
 21
462.367858
 31
0.0
  0
LINE
  5
40D
330
1F
100
AcDbEntity
  8
LC-001-100-D00-0
 62
     7
370
    50
100
AcDbLine
 10
435.754427
 20
402.167852
 30
0.0
 11
435.983379
 21
402.167852
 31
0.0
  0
LINE
  5
40E
330
1F
100
AcDbEntity
  8
LC-001-100-D00-0
 62
     7
370
    50
100
AcDbLine
 10
435.293903
 20
402.167852
 30
0.0
 11
424.387706
 21
436.767916
 31
0.0
  0
LINE
  5
40F
330
1F
100
AcDbEntity
  8
LC-001-100-D00-0
 62
     7
370
    50
100
AcDbLine
 10
313.645487
 20
402.167852
 30
0.0
 11
313.874443
 21
402.167852
 31
0.0
  0
LINE
  5
410
330
1F
100
AcDbEntity
  8
LC-001-100-D00-0
 62
     7
370
    50
100
AcDbLine
 10
314.334964
 20
402.167852
 30
0.0
 11
325.241161
 21
436.767916
 31
0.0
  0
LINE
  5
411
330
1F
100
AcDbEntity
  8
LC-001-100-D00-0
 62
     7
370
    50
100
AcDbLine
 10
413.732342
 20
441.488097
 30
0.0
 11
408.358605
 21
462.367858
 31
0.0
  0
LINE
  5
412
330
1F
100
AcDbEntity
  8
LC-001-100-D00-0
 62
     7
370
    50
100
AcDbLine
 10
335.896527
 20
441.488097
 30
0.0
 11
341.270262
 21
462.367858
 31
0.0
  0
LINE
  5
413
330
1F
100
AcDbEntity
  8
LC-001-100-D00-0
 62
     7
370
    50
100
AcDbLine
 10
403.904479
 20
441.488097
 30
0.0
 11
400.104674
 21
462.367858
 31
0.0
  0
LINE
  5
414
330
1F
100
AcDbEntity
  8
LC-001-100-D00-0
 62
     7
370
    50
100
AcDbLine
 10
418.603095
 20
403.992179
 30
0.0
 11
412.638399
 21
436.767916
 31
0.0
  0
LINE
  5
415
330
1F
100
AcDbEntity
  8
LC-001-100-D00-0
 62
     7
370
    50
100
AcDbLine
 10
411.672656
 20
442.074622
 30
0.0
 11
407.97959
 21
462.367858
 31
0.0
  0
LINE
  5
416
330
1F
100
AcDbEntity
  8
LC-001-100-D00-0
 62
     7
370
    50
100
AcDbLine
 10
417.006812
 20
402.167852
 30
0.0
 11
418.603095
 21
403.992179
 31
0.0
  0
LINE
  5
417
330
1F
100
AcDbEntity
  8
LC-001-100-D00-0
 62
     7
370
    50
100
AcDbLine
 10
411.060176
 20
402.167852
 30
0.0
 11
404.763481
 21
436.767916
 31
0.0
  0
LINE
  5
418
330
1F
100
AcDbEntity
  8
LC-001-100-D00-0
 62
     7
370
    50
100
AcDbLine
 10
332.622056
 20
402.167852
 30
0.0
 11
331.025769
 21
403.992179
 31
0.0
  0
LINE
  5
419
330
1F
100
AcDbEntity
  8
LC-001-100-D00-0
 62
     7
370
    50
100
AcDbLine
 10
331.025769
 20
403.992179
 30
0.0
 11
336.990469
 21
436.767916
 31
0.0
  0
LINE
  5
41A
330
1F
100
AcDbEntity
  8
LC-001-100-D00-0
 62
     7
370
    50
100
AcDbLine
 10
337.95621
 20
442.074622
 30
0.0
 11
341.649276
 21
462.367858
 31
0.0
  0
LINE
  5
41B
330
1F
100
AcDbEntity
  8
LC-001-100-D00-0
 62
     7
370
    50
100
AcDbLine
 10
345.724386
 20
441.488097
 30
0.0
 11
349.524194
 21
462.367858
 31
0.0
  0
LINE
  5
41C
330
1F
100
AcDbEntity
  8
LC-001-100-D00-0
 62
     7
370
    50
100
AcDbLine
 10
338.568688
 20
402.167852
 30
0.0
 11
344.865386
 21
436.767916
 31
0.0
  0
LINE
  5
41D
330
1F
100
AcDbEntity
  8
LC-001-100-D00-0
 62
     7
370
    50
100
AcDbLine
 10
401.91262
 20
441.488097
 30
0.0
 11
398.112815
 21
462.367858
 31
0.0
  0
LINE
  5
41E
330
1F
100
AcDbEntity
  8
LC-001-100-D00-0
 62
     7
370
    50
100
AcDbLine
 10
347.716247
 20
441.488097
 30
0.0
 11
351.51605
 21
462.367858
 31
0.0
  0
LINE
  5
41F
330
1F
100
AcDbEntity
  8
LC-001-100-D00-0
 62
     7
370
    50
100
AcDbLine
 10
424.503303
 20
402.167852
 30
0.0
 11
424.827092
 21
402.167852
 31
0.0
  0
LINE
  5
420
330
1F
100
AcDbEntity
  8
LC-001-100-D00-0
 62
     7
370
    50
100
AcDbLine
 10
423.852026
 20
402.167852
 30
0.0
 11
414.947153
 21
436.767916
 31
0.0
  0
LINE
  5
421
330
1F
100
AcDbEntity
  8
LC-001-100-D00-0
 62
     7
370
    50
100
AcDbLine
 10
324.80177
 20
402.167852
 30
0.0
 11
325.125565
 21
402.167852
 31
0.0
  0
LINE
  5
422
330
1F
100
AcDbEntity
  8
LC-001-100-D00-0
 62
     7
370
    50
100
AcDbLine
 10
325.776842
 20
402.167852
 30
0.0
 11
334.681713
 21
436.767916
 31
0.0
  0
LINE
  5
423
330
1F
100
AcDbEntity
  8
LC-001-100-D00-0
 62
     7
370
    50
100
AcDbLine
 10
390.467833
 20
441.488097
 30
0.0
 11
388.500909
 21
462.367858
 31
0.0
  0
LINE
  5
424
330
1F
100
AcDbEntity
  8
LC-001-100-D00-0
 62
     7
370
    50
100
AcDbLine
 10
398.076396
 20
403.992179
 30
0.0
 11
394.988842
 21
436.767916
 31
0.0
  0
LINE
  5
425
330
1F
100
AcDbEntity
  8
LC-001-100-D00-0
 62
     7
370
    50
100
AcDbLine
 10
394.488937
 20
442.074622
 30
0.0
 11
392.577265
 21
462.367858
 31
0.0
  0
LINE
  5
426
330
1F
100
AcDbEntity
  8
LC-001-100-D00-0
 62
     7
370
    50
100
AcDbLine
 10
397.250099
 20
402.167852
 30
0.0
 11
398.076396
 21
403.992179
 31
0.0
  0
LINE
  5
427
330
1F
100
AcDbEntity
  8
LC-001-100-D00-0
 62
     7
370
    50
100
AcDbLine
 10
394.171895
 20
402.167852
 30
0.0
 11
390.912485
 21
436.767916
 31
0.0
  0
LINE
  5
428
330
1F
100
AcDbEntity
  8
LC-001-100-D00-0
 62
     7
370
    50
100
AcDbLine
 10
352.378768
 20
402.167852
 30
0.0
 11
351.552469
 21
403.992179
 31
0.0
  0
LINE
  5
429
330
1F
100
AcDbEntity
  8
LC-001-100-D00-0
 62
     7
370
    50
100
AcDbLine
 10
351.552469
 20
403.992179
 30
0.0
 11
354.640027
 21
436.767916
 31
0.0
  0
LINE
  5
42A
330
1F
100
AcDbEntity
  8
LC-001-100-D00-0
 62
     7
370
    50
100
AcDbLine
 10
355.139931
 20
442.074622
 30
0.0
 11
357.051601
 21
462.367858
 31
0.0
  0
LINE
  5
42B
330
1F
100
AcDbEntity
  8
LC-001-100-D00-0
 62
     7
370
    50
100
AcDbLine
 10
359.161035
 20
441.488097
 30
0.0
 11
361.127959
 21
462.367858
 31
0.0
  0
LINE
  5
42C
330
1F
100
AcDbEntity
  8
LC-001-100-D00-0
 62
     7
370
    50
100
AcDbLine
 10
355.456972
 20
402.167852
 30
0.0
 11
358.716381
 21
436.767916
 31
0.0
  0
LINE
  5
42D
330
1F
100
AcDbEntity
  8
LC-001-100-D00-0
 62
     7
370
    50
100
AcDbLine
 10
388.246203
 20
441.488097
 30
0.0
 11
386.279279
 21
462.367858
 31
0.0
  0
LINE
  5
42E
330
1F
100
AcDbEntity
  8
LC-001-100-D00-0
 62
     7
370
    50
100
AcDbLine
 10
361.382664
 20
441.488097
 30
0.0
 11
363.349588
 21
462.367858
 31
0.0
  0
LINE
  5
42F
330
1F
100
AcDbEntity
  8
LC-001-100-D00-0
 62
     7
370
    50
100
AcDbLine
 10
373.664434
 20
441.488097
 30
0.0
 11
373.664434
 21
462.367858
 31
0.0
  0
LINE
  5
430
330
1F
100
AcDbEntity
  8
LC-001-100-D00-0
 62
     7
370
    50
100
AcDbLine
 10
375.964434
 20
441.488097
 30
0.0
 11
375.964434
 21
462.367858
 31
0.0
  0
LINE
  5
431
330
1F
100
AcDbEntity
  8
LC-001-100-D00-0
 62
     7
370
    50
100
AcDbLine
 10
409.865968
 20
402.167852
 30
0.0
 11
410.262527
 21
402.167852
 31
0.0
  0
LINE
  5
432
330
1F
100
AcDbEntity
  8
LC-001-100-D00-0
 62
     7
370
    50
100
AcDbLine
 10
409.068318
 20
402.167852
 30
0.0
 11
402.771623
 21
436.767916
 31
0.0
  0
LINE
  5
433
330
1F
100
AcDbEntity
  8
LC-001-100-D00-0
 62
     7
370
    50
100
AcDbLine
 10
339.36634
 20
402.167852
 30
0.0
 11
339.762897
 21
402.167852
 31
0.0
  0
LINE
  5
434
330
1F
100
AcDbEntity
  8
LC-001-100-D00-0
 62
     7
370
    50
100
AcDbLine
 10
340.560549
 20
402.167852
 30
0.0
 11
346.857243
 21
436.767916
 31
0.0
  0
LINE
  5
435
330
1F
100
AcDbEntity
  8
LC-001-100-D00-0
 62
     7
370
    50
100
AcDbLine
 10
392.839928
 20
402.167852
 30
0.0
 11
393.282232
 21
402.167852
 31
0.0
  0
LINE
  5
436
330
1F
100
AcDbEntity
  8
LC-001-100-D00-0
 62
     7
370
    50
100
AcDbLine
 10
391.950265
 20
402.167852
 30
0.0
 11
388.690855
 21
436.767916
 31
0.0
  0
LINE
  5
437
330
1F
100
AcDbEntity
  8
LC-001-100-D00-0
 62
     7
370
    50
100
AcDbLine
 10
356.346634
 20
402.167852
 30
0.0
 11
356.788938
 21
402.167852
 31
0.0
  0
LINE
  5
438
330
1F
100
AcDbEntity
  8
LC-001-100-D00-0
 62
     7
370
    50
100
AcDbLine
 10
357.678601
 20
402.167852
 30
0.0
 11
360.93801
 21
436.767916
 31
0.0
  0
LINE
  5
439
330
1F
100
AcDbEntity
  8
LC-001-100-D00-0
 62
     7
370
    50
100
AcDbLine
 10
374.58548
 20
402.167852
 30
0.0
 11
375.043388
 21
402.167852
 31
0.0
  0
LINE
  5
43A
330
1F
100
AcDbEntity
  8
LC-001-100-D00-0
 62
     7
370
    50
100
AcDbLine
 10
373.664434
 20
402.167852
 30
0.0
 11
373.664434
 21
436.767916
 31
0.0
  0
LINE
  5
43B
330
1F
100
AcDbEntity
  8
LC-001-100-D00-0
 62
     7
370
    50
100
AcDbLine
 10
375.964434
 20
402.167852
 30
0.0
 11
375.964434
 21
436.767916
 31
0.0
  0
INSERT
  5
44D
330
1F
100
AcDbEntity
  8
LC-001-100-D00-0
 62
     7
370
    50
100
AcDbBlockReference
  2
POLY23
 10
0.0
 20
0.0
 30
0.0
  0
LINE
  5
44E
330
1F
100
AcDbEntity
  8
LC-001-100-D00-0
 62
     7
370
    50
100
AcDbLine
 10
386.61453
 20
393.467853
 30
0.0
 11
386.61453
 21
373.167853
 31
0.0
  0
LINE
  5
44F
330
1F
100
AcDbEntity
  8
LC-001-100-D00-0
 62
     7
370
    50
100
AcDbLine
 10
363.014449
 20
373.167853
 30
0.0
 11
386.61453
 21
373.167853
 31
0.0
  0
LINE
  5
450
330
1F
100
AcDbEntity
  8
LC-001-100-D00-0
 62
     7
370
    50
100
AcDbLine
 10
363.014449
 20
373.167853
 30
0.0
 11
363.014449
 21
393.467853
 31
0.0
  0
INSERT
  5
462
330
1F
100
AcDbEntity
  8
LC-001-100-D00-0
 62
     7
370
    50
100
AcDbBlockReference
  2
POLY24
 10
0.0
 20
0.0
 30
0.0
  0
LINE
  5
463
330
1F
100
AcDbEntity
  8
LC-001-100-D00-0
 62
     7
370
    50
100
AcDbLine
 10
418.207155
 20
406.167852
 30
0.0
 11
422.822562
 21
406.167852
 31
0.0
  0
ARC
  5
464
330
1F
100
AcDbEntity
  8
LC-001-100-D00-0
 62
     7
370
    50
100
AcDbCircle
 10
422.631593
 20
404.369324
 30
0.0
 40
3.909123549999866
100
AcDbArc
 50
134.722413
 51
143.07819
  0
ARC
  5
465
330
1F
100
AcDbEntity
  8
LC-001-100-D00-0
 62
     7
370
    50
100
AcDbCircle
 10
419.939433
 20
402.464346
 30
0.0
 40
4.275269783586306
100
AcDbArc
 50
84.186935
 51
95.813065
  0
ARC
  5
466
330
1F
100
AcDbEntity
  8
LC-001-100-D00-0
 62
     7
370
    50
100
AcDbCircle
 10
423.497452
 20
404.36947
 30
0.0
 40
3.908902739490908
100
AcDbArc
 50
134.722177
 51
143.078426
  0
LINE
  5
467
330
1F
100
AcDbEntity
  8
LC-001-100-D00-0
 62
     7
370
    50
100
AcDbLine
 10
420.792119
 20
407.167854
 30
0.0
 11
422.565197
 21
407.167854
 31
0.0
  0
INSERT
  5
473
330
1F
100
AcDbEntity
  8
LC-001-100-D00-0
 62
     7
370
    50
100
AcDbBlockReference
  2
POLY25
 10
0.0
 20
0.0
 30
0.0
  0
LINE
  5
474
330
1F
100
AcDbEntity
  8
LC-001-100-D00-0
 62
     7
370
    50
100
AcDbLine
 10
420.494705
 20
406.87185
 30
0.0
 11
420.494705
 21
407.167854
 31
0.0
  0
INSERT
  5
480
330
1F
100
AcDbEntity
  8
LC-001-100-D00-0
 62
     7
370
    50
100
AcDbBlockReference
  2
POLY26
 10
0.0
 20
0.0
 30
0.0
  0
LINE
  5
481
330
1F
100
AcDbEntity
  8
LC-001-100-D00-0
 62
     7
370
    50
100
AcDbLine
 10
420.494705
 20
407.167854
 30
0.0
 11
419.926093
 21
407.167854
 31
0.0
  0
LINE
  5
482
330
1F
100
AcDbEntity
  8
LC-001-100-D00-0
 62
     7
370
    50
100
AcDbLine
 10
418.861146
 20
407.167854
 30
0.0
 11
419.926093
 21
407.167854
 31
0.0
  0
LINE
  5
483
330
1F
100
AcDbEntity
  8
LC-001-100-D00-0
 62
     7
370
    50
100
AcDbLine
 10
420.792119
 20
407.167854
 30
0.0
 11
420.494705
 21
407.167854
 31
0.0
  0
INSERT
  5
48C
330
1F
100
AcDbEntity
  8
LC-001-100-D00-0
 62
     7
370
    25
100
AcDbBlockReference
  2
KLON21
 10
0.0
 20
0.0
 30
0.0
  0
INSERT
  5
494
330
1F
100
AcDbEntity
  8
LC-001-100-D00-0
 62
     7
370
    25
100
AcDbBlockReference
  2
KLON22
 10
0.0
 20
0.0
 30
0.0
  0
INSERT
  5
4BF
330
1F
100
AcDbEntity
  8
LC-001-100-D00-0
 62
     7
370
    25
100
AcDbBlockReference
  2
KLON23
 10
0.0
 20
0.0
 30
0.0
  0
INSERT
  5
4E8
330
1F
100
AcDbEntity
  8
LC-001-100-D00-0
 62
     7
370
    25
100
AcDbBlockReference
  2
KLON24
 10
0.0
 20
0.0
 30
0.0
  0
INSERT
  5
4EF
330
1F
100
AcDbEntity
  8
LC-001-100-D00-0
 62
     7
370
    25
100
AcDbBlockReference
  2
KLON25
 10
0.0
 20
0.0
 30
0.0
  0
INSERT
  5
4F5
330
1F
100
AcDbEntity
  8
LC-001-100-D00-0
 62
     7
370
    25
100
AcDbBlockReference
  2
KLON26
 10
0.0
 20
0.0
 30
0.0
  0
INSERT
  5
502
330
1F
100
AcDbEntity
  8
LC-001-100-D00-0
 62
     7
370
    25
100
AcDbBlockReference
  2
KLON27
 10
0.0
 20
0.0
 30
0.0
  0
INSERT
  5
509
330
1F
100
AcDbEntity
  8
LC-001-100-D00-0
 62
     7
370
    25
100
AcDbBlockReference
  2
KLON28
 10
0.0
 20
0.0
 30
0.0
  0
INSERT
  5
50F
330
1F
100
AcDbEntity
  8
LC-001-100-D00-0
 62
     7
370
    25
100
AcDbBlockReference
  2
KLON29
 10
0.0
 20
0.0
 30
0.0
  0
INSERT
  5
516
330
1F
100
AcDbEntity
  8
LC-001-100-D00-0
 62
     7
370
    25
100
AcDbBlockReference
  2
KLON30
 10
0.0
 20
0.0
 30
0.0
  0
INSERT
  5
51D
330
1F
100
AcDbEntity
  8
LC-001-100-D00-0
 62
     7
370
    25
100
AcDbBlockReference
  2
KLON31
 10
0.0
 20
0.0
 30
0.0
  0
INSERT
  5
523
330
1F
100
AcDbEntity
  8
LC-001-100-D00-0
 62
     7
370
    25
100
AcDbBlockReference
  2
KLON32
 10
0.0
 20
0.0
 30
0.0
  0
INSERT
  5
53F
330
1F
100
AcDbEntity
  8
LC-001-100-D00-0
 62
     7
370
    25
100
AcDbBlockReference
  2
KLON33
 10
0.0
 20
0.0
 30
0.0
  0
LINE
  5
541
330
1F
100
AcDbEntity
  8
LC-001-100-D00-0
  6
DASHDOT
 62
     7
370
    25
100
AcDbLine
 10
374.814433
 20
481.625577
 30
0.0
 11
374.814433
 21
230.937206
 31
0.0
  0
LINE
  5
542
330
1F
100
AcDbEntity
  8
LC-001-100-D00-0
  6
DASHDOT
 62
     7
370
    25
100
AcDbLine
 10
280.814433
 20
374.757206
 30
0.0
 11
280.814433
 21
411.054993
 31
0.0
  0
LINE
  5
543
330
1F
100
AcDbEntity
  8
LC-001-100-D00-0
  6
DASHDOT
 62
     7
370
    25
100
AcDbLine
 10
468.814433
 20
372.643977
 30
0.0
 11
468.814433
 21
396.143977
 31
0.0
  0
LINE
  5
545
330
1F
100
AcDbEntity
  8
LC-003-002-----0
 62
     7
370
    50
100
AcDbLine
 10
134.814426
 20
405.523976
 30
0.0
 11
134.814426
 21
400.823976
 31
0.0
  0
LINE
  5
546
330
1F
100
AcDbEntity
  8
LC-003-002-----0
 62
     7
370
    50
100
AcDbLine
 10
144.814426
 20
405.523976
 30
0.0
 11
144.814426
 21
400.823976
 31
0.0
  0
LINE
  5
547
330
1F
100
AcDbEntity
  8
LC-003-002-----0
 62
     7
370
    50
100
AcDbLine
 10
154.814426
 20
405.523976
 30
0.0
 11
154.814426
 21
400.823976
 31
0.0
  0
LINE
  5
548
330
1F
100
AcDbEntity
  8
LC-003-002-----0
 62
     7
370
    50
100
AcDbLine
 10
164.814426
 20
405.523976
 30
0.0
 11
164.814426
 21
400.823976
 31
0.0
  0
LINE
  5
549
330
1F
100
AcDbEntity
  8
LC-003-002-----0
 62
     7
370
    50
100
AcDbLine
 10
174.814426
 20
405.523976
 30
0.0
 11
174.814426
 21
400.823976
 31
0.0
  0
LINE
  5
54A
330
1F
100
AcDbEntity
  8
LC-003-002-----0
 62
     7
370
    50
100
AcDbLine
 10
184.814426
 20
405.523976
 30
0.0
 11
184.814426
 21
400.823976
 31
0.0
  0
LINE
  5
54B
330
1F
100
AcDbEntity
  8
LC-003-002-----0
 62
     7
370
    50
100
AcDbLine
 10
194.814426
 20
405.523976
 30
0.0
 11
194.814426
 21
400.823976
 31
0.0
  0
LINE
  5
54C
330
1F
100
AcDbEntity
  8
LC-003-002-----0
 62
     7
370
    50
100
AcDbLine
 10
204.814426
 20
405.523976
 30
0.0
 11
204.814426
 21
400.823976
 31
0.0
  0
LINE
  5
54D
330
1F
100
AcDbEntity
  8
LC-003-002-----0
 62
     7
370
    50
100
AcDbLine
 10
214.814426
 20
405.523976
 30
0.0
 11
214.814426
 21
400.823976
 31
0.0
  0
INSERT
  5
56C
330
1F
100
AcDbEntity
  8
LC-004-005-----0
 62
     7
370
    25
100
AcDbBlockReference
  2
*X160
 10
0.0
 20
0.0
 30
0.0
  0
INSERT
  5
58A
330
1F
100
AcDbEntity
  8
LC-004-005-----0
 62
     7
370
    25
100
AcDbBlockReference
  2
*X261
 10
0.0
 20
0.0
 30
0.0
  0
INSERT
  5
5A8
330
1F
100
AcDbEntity
  8
LC-004-005-----0
 62
     7
370
    25
100
AcDbBlockReference
  2
*X362
 10
0.0
 20
0.0
 30
0.0
  0
INSERT
  5
5C6
330
1F
100
AcDbEntity
  8
LC-004-005-----0
 62
     7
370
    25
100
AcDbBlockReference
  2
*X463
 10
0.0
 20
0.0
 30
0.0
  0
INSERT
  5
5E4
330
1F
100
AcDbEntity
  8
LC-004-005-----0
 62
     7
370
    25
100
AcDbBlockReference
  2
*X564
 10
0.0
 20
0.0
 30
0.0
  0
LINE
  5
5E5
330
1F
100
AcDbEntity
  8
LC-003-002-----0
 62
     7
370
    50
100
AcDbLine
 10
224.814426
 20
405.523976
 30
0.0
 11
224.814426
 21
400.823976
 31
0.0
  0
LINE
  5
5E6
330
1F
100
AcDbEntity
  8
LC-003-002-----0
 62
     7
370
    50
100
AcDbLine
 10
234.814426
 20
405.523976
 30
0.0
 11
234.814426
 21
400.823976
 31
0.0
  0
INSERT
  5
604
330
1F
100
AcDbEntity
  8
LC-004-005-----0
 62
     7
370
    25
100
AcDbBlockReference
  2
*X665
 10
0.0
 20
0.0
 30
0.0
  0
LINE
  5
605
330
1F
100
AcDbEntity
  8
LC-003-002-----0
 62
     7
370
    50
100
AcDbLine
 10
244.814426
 20
405.523976
 30
0.0
 11
244.814426
 21
400.823976
 31
0.0
  0
INSERT
  5
628
330
1F
100
AcDbEntity
  8
LC-004-005-----0
 62
     7
370
    25
100
AcDbBlockReference
  2
*X766
 10
0.0
 20
0.0
 30
0.0
  0
LINE
  5
629
330
1F
100
AcDbEntity
  8
LC-003-002-----0
 62
     7
370
    50
100
AcDbLine
 10
254.814426
 20
403.015712
 30
0.0
 11
254.814426
 21
398.085788
 31
0.0
  0
LINE
  5
62A
330
1F
100
AcDbEntity
  8
LC-003-002-----0
 62
     7
370
    50
100
AcDbLine
 10
264.814426
 20
399.37595
 30
0.0
 11
264.814426
 21
394.446086
 31
0.0
  0
INSERT
  5
64C
330
1F
100
AcDbEntity
  8
LC-004-005-----0
 62
     7
370
    25
100
AcDbBlockReference
  2
*X867
 10
0.0
 20
0.0
 30
0.0
  0
LINE
  5
64D
330
1F
100
AcDbEntity
  8
LC-003-002-----0
 62
     7
370
    50
100
AcDbLine
 10
274.814426
 20
396.773974
 30
0.0
 11
274.814426
 21
392.143975
 31
0.0
  0
LINE
  5
64E
330
1F
100
AcDbEntity
  8
LC-001-100-D00-0
 62
     7
370
    50
100
AcDbLine
 10
312.27046
 20
467.29816
 30
0.0
 11
289.228966
 21
403.992179
 31
0.0
  0
LINE
  5
64F
330
1F
100
AcDbEntity
  8
LC-003-002-----0
 62
     7
370
    50
100
AcDbLine
 10
614.814441
 20
405.523976
 30
0.0
 11
614.814441
 21
400.823976
 31
0.0
  0
LINE
  5
650
330
1F
100
AcDbEntity
  8
LC-003-002-----0
 62
     7
370
    50
100
AcDbLine
 10
604.814441
 20
405.523976
 30
0.0
 11
604.814441
 21
400.823976
 31
0.0
  0
LINE
  5
651
330
1F
100
AcDbEntity
  8
LC-003-002-----0
 62
     7
370
    50
100
AcDbLine
 10
594.814441
 20
405.523976
 30
0.0
 11
594.814441
 21
400.823976
 31
0.0
  0
LINE
  5
652
330
1F
100
AcDbEntity
  8
LC-003-002-----0
 62
     7
370
    50
100
AcDbLine
 10
584.814441
 20
405.523976
 30
0.0
 11
584.814441
 21
400.823976
 31
0.0
  0
LINE
  5
653
330
1F
100
AcDbEntity
  8
LC-003-002-----0
 62
     7
370
    50
100
AcDbLine
 10
574.814441
 20
405.523976
 30
0.0
 11
574.814441
 21
400.823976
 31
0.0
  0
LINE
  5
654
330
1F
100
AcDbEntity
  8
LC-003-002-----0
 62
     7
370
    50
100
AcDbLine
 10
564.814441
 20
405.523976
 30
0.0
 11
564.814441
 21
400.823976
 31
0.0
  0
LINE
  5
655
330
1F
100
AcDbEntity
  8
LC-003-002-----0
 62
     7
370
    50
100
AcDbLine
 10
554.814441
 20
405.523976
 30
0.0
 11
554.814441
 21
400.823976
 31
0.0
  0
LINE
  5
656
330
1F
100
AcDbEntity
  8
LC-003-002-----0
 62
     7
370
    50
100
AcDbLine
 10
544.814441
 20
405.523976
 30
0.0
 11
544.814441
 21
400.823976
 31
0.0
  0
LINE
  5
657
330
1F
100
AcDbEntity
  8
LC-003-002-----0
 62
     7
370
    50
100
AcDbLine
 10
534.814441
 20
405.523976
 30
0.0
 11
534.814441
 21
400.823976
 31
0.0
  0
INSERT
  5
675
330
1F
100
AcDbEntity
  8
LC-004-005-----0
 62
     7
370
    25
100
AcDbBlockReference
  2
*X968
 10
0.0
 20
0.0
 30
0.0
  0
INSERT
  5
693
330
1F
100
AcDbEntity
  8
LC-004-005-----0
 62
     7
370
    25
100
AcDbBlockReference
  2
*X1069
 10
0.0
 20
0.0
 30
0.0
  0
INSERT
  5
6B1
330
1F
100
AcDbEntity
  8
LC-004-005-----0
 62
     7
370
    25
100
AcDbBlockReference
  2
*X1170
 10
0.0
 20
0.0
 30
0.0
  0
INSERT
  5
6CF
330
1F
100
AcDbEntity
  8
LC-004-005-----0
 62
     7
370
    25
100
AcDbBlockReference
  2
*X1271
 10
0.0
 20
0.0
 30
0.0
  0
INSERT
  5
6ED
330
1F
100
AcDbEntity
  8
LC-004-005-----0
 62
     7
370
    25
100
AcDbBlockReference
  2
*X1372
 10
0.0
 20
0.0
 30
0.0
  0
LINE
  5
6EE
330
1F
100
AcDbEntity
  8
LC-003-002-----0
 62
     7
370
    50
100
AcDbLine
 10
524.814441
 20
405.523976
 30
0.0
 11
524.814441
 21
400.823976
 31
0.0
  0
LINE
  5
6EF
330
1F
100
AcDbEntity
  8
LC-003-002-----0
 62
     7
370
    50
100
AcDbLine
 10
514.814441
 20
405.523976
 30
0.0
 11
514.814441
 21
400.823976
 31
0.0
  0
INSERT
  5
70D
330
1F
100
AcDbEntity
  8
LC-004-005-----0
 62
     7
370
    25
100
AcDbBlockReference
  2
*X1473
 10
0.0
 20
0.0
 30
0.0
  0
LINE
  5
70E
330
1F
100
AcDbEntity
  8
LC-003-002-----0
 62
     7
370
    50
100
AcDbLine
 10
504.814441
 20
405.523976
 30
0.0
 11
504.814441
 21
400.823976
 31
0.0
  0
INSERT
  5
727
330
1F
100
AcDbEntity
  8
LC-004-005-----0
 62
     7
370
    25
100
AcDbBlockReference
  2
*X1574
 10
0.0
 20
0.0
 30
0.0
  0
LINE
  5
728
330
1F
100
AcDbEntity
  8
LC-003-002-----0
 62
     7
370
    50
100
AcDbLine
 10
494.814441
 20
403.015712
 30
0.0
 11
494.814441
 21
398.085788
 31
0.0
  0
LINE
  5
729
330
1F
100
AcDbEntity
  8
LC-003-002-----0
 62
     7
370
    50
100
AcDbLine
 10
484.814441
 20
399.37595
 30
0.0
 11
484.814441
 21
394.446086
 31
0.0
  0
INSERT
  5
743
330
1F
100
AcDbEntity
  8
LC-004-005-----0
 62
     7
370
    25
100
AcDbBlockReference
  2
*X1675
 10
0.0
 20
0.0
 30
0.0
  0
LINE
  5
744
330
1F
100
AcDbEntity
  8
LC-003-002-----0
 62
     7
370
    50
100
AcDbLine
 10
474.814441
 20
396.773974
 30
0.0
 11
474.814441
 21
392.143975
 31
0.0
  0
DIMENSION
  5
748
330
1F
100
AcDbEntity
  8
LC-005-003-----0
 62
     7
370
    25
100
AcDbDimension
  2
*D76
 10
624.814441
 20
548.729976
 30
0.0
 11
373.027234
 21
579.529976
 31
0.0
 70
   160
 71
     5
 42
500.000015
  3
LC-DIM-L-0140-02-02
100
AcDbAlignedDimension
 13
124.814426
 23
400.823976
 33
0.0
 14
624.814441
 24
400.823976
 34
0.0
100
AcDbRotatedDimension
  0
DIMENSION
  5
756
330
1F
100
AcDbEntity
  8
LC-005-003-----0
 62
     7
370
    25
100
AcDbDimension
  2
*D77
 10
551.814427
 20
499.427976
 30
0.0
 11
367.708388
 21
530.227976
 31
0.0
 70
   160
  1
%%c<>
 71
     5
 42
353.999987
  3
LC-DIM-L-0140-02-02
100
AcDbAlignedDimension
 13
197.814439
 23
397.823977
 33
0.0
 14
551.814427
 24
397.823977
 34
0.0
100
AcDbRotatedDimension
  0
DIMENSION
  5
763
330
1F
100
AcDbEntity
  8
LC-005-003-----0
 62
     7
370
    25
100
AcDbDimension
  2
*D78
 10
454.814435
 20
121.643976
 30
0.0
 11
373.027234
 21
152.443976
 31
0.0
 70
   160
  1
%%c<>
 71
     5
 42
160.0
  3
LC-DIM-L-0140-02-02
100
AcDbAlignedDimension
 13
294.814435
 23
308.823977
 33
0.0
 14
454.814435
 24
308.823977
 34
0.0
100
AcDbRotatedDimension
  0
DIMENSION
  5
770
330
1F
100
AcDbEntity
  8
LC-005-003-----0
 62
     7
370
    25
100
AcDbDimension
  2
*D79
 10
429.814433
 20
175.103976
 30
0.0
 11
366.821914
 21
205.903976
 31
0.0
 70
   160
  1
DN100
 71
     5
 42
109.999999
  3
LC-DIM-L-0140-02-02
100
AcDbAlignedDimension
 13
319.814433
 23
237.323976
 33
0.0
 14
429.814433
 24
237.323976
 34
0.0
100
AcDbRotatedDimension
  0
DIMENSION
  5
77D
330
1F
100
AcDbEntity
  8
LC-005-003-----0
 62
     7
370
    25
100
AcDbDimension
  2
*D80
 10
163.819296
 20
298.823977
 30
0.0
 11
133.019296
 21
354.491976
 31
0.0
 70
   160
 71
     5
 42
101.999999
 53
90.0
  3
LC-DIM-L-0140-02-02
100
AcDbAlignedDimension
 13
124.814426
 23
400.823976
 33
0.0
 14
302.814433
 24
298.823977
 34
0.0
 50
90.0
100
AcDbRotatedDimension
  0
DIMENSION
  5
78A
330
1F
100
AcDbEntity
  8
LC-005-003-----0
 62
     7
370
    25
100
AcDbDimension
  2
*D81
 10
228.581563
 20
232.823978
 30
0.0
 11
197.781563
 21
264.649853
 31
0.0
 70
   160
 71
     5
 42
65.999999
 53
90.0
  3
LC-DIM-L-0140-02-02
100
AcDbAlignedDimension
 13
303.598493
 23
298.823977
 33
0.0
 14
321.917319
 24
232.823978
 34
0.0
 50
90.0
100
AcDbRotatedDimension
  0
ENDSEC
  0
SECTION
  2
OBJECTS
  0
DICTIONARY
  5
C
330
0
100
AcDbDictionary
281
     1
  3
ACAD_GROUP
350
D
  3
ACAD_LAYOUT
350
1A
  3
ACAD_MLINESTYLE
350
17
  3
ACAD_PLOTSETTINGS
350
19
  3
ACAD_PLOTSTYLENAME
350
E
  0
DICTIONARY
  5
D
102
{ACAD_REACTORS
330
C
102
}
330
C
100
AcDbDictionary
281
     1
  0
DICTIONARY
  5
1A
102
{ACAD_REACTORS
330
C
102
}
330
C
100
AcDbDictionary
281
     1
  3
Layout1
350
1E
  3
Layout2
350
26
  3
Model
350
22
  0
DICTIONARY
  5
17
102
{ACAD_REACTORS
330
C
102
}
330
C
100
AcDbDictionary
281
     1
  3
Standard
350
18
  0
DICTIONARY
  5
19
102
{ACAD_REACTORS
330
C
102
}
330
C
100
AcDbDictionary
281
     1
  0
ACDBDICTIONARYWDFLT
  5
E
102
{ACAD_REACTORS
330
C
102
}
330
C
100
AcDbDictionary
281
     1
  3
Normal
350
F
100
AcDbDictionaryWithDefault
340
F
  0
LAYOUT
  5
1E
102
{ACAD_REACTORS
330
1A
102
}
330
1A
100
AcDbPlotSettings
  1

  2

  4

  6

 40
0.0
 41
0.0
 42
0.0
 43
0.0
 44
0.0
 45
0.0
 46
0.0
 47
0.0
 48
0.0
 49
0.0
140
0.0
141
0.0
142
1.0
143
1.0
 70
   688
 72
     0
 73
     0
 74
     5
  7

 75
    16
147
1.0
148
0.0
149
0.0
100
AcDbLayout
  1
Layout1
 70
     1
 71
     1
 10
19.512808
 20
11.753976
 11
859.512808
 21
605.753976
 12
0.0
 22
0.0
 32
0.0
 14
19.512808
 24
11.753976
 34
0.0
 15
859.512808
 25
605.753976
 35
0.0
146
0.0
 13
0.0
 23
0.0
 33
0.0
 16
1.0
 26
0.0
 36
0.0
 17
0.0
 27
1.0
 37
0.0
 76
     0
330
1B
  0
LAYOUT
  5
26
102
{ACAD_REACTORS
330
1A
102
}
330
1A
100
AcDbPlotSettings
  1

  2

  4

  6

 40
0.0
 41
0.0
 42
0.0
 43
0.0
 44
0.0
 45
0.0
 46
0.0
 47
0.0
 48
0.0
 49
0.0
140
0.0
141
0.0
142
1.0
143
1.0
 70
   688
 72
     0
 73
     0
 74
     5
  7

 75
    16
147
1.0
148
0.0
149
0.0
100
AcDbLayout
  1
Layout2
 70
     1
 71
     2
 10
0.0
 20
0.0
 11
0.0
 21
0.0
 12
0.0
 22
0.0
 32
0.0
 14
0.0
 24
0.0
 34
0.0
 15
0.0
 25
0.0
 35
0.0
146
0.0
 13
0.0
 23
0.0
 33
0.0
 16
1.0
 26
0.0
 36
0.0
 17
0.0
 27
1.0
 37
0.0
 76
     0
330
23
  0
LAYOUT
  5
22
102
{ACAD_REACTORS
330
1A
102
}
330
1A
100
AcDbPlotSettings
  1

  2

  4

  6

 40
0.0
 41
0.0
 42
0.0
 43
0.0
 44
0.0
 45
0.0
 46
0.0
 47
0.0
 48
0.0
 49
0.0
140
0.0
141
0.0
142
1.0
143
1.0
 70
  1776
 72
     0
 73
     0
 74
     0
  7

 75
     0
147
1.0
148
0.0
149
0.0
100
AcDbLayout
  1
Model
 70
     1
 71
     0
 10
19.512808
 20
11.753976
 11
859.512808
 21
605.753976
 12
19.512808
 22
11.753976
 32
0.0
 14
19.512808
 24
11.753976
 34
0.0
 15
859.512808
 25
605.753976
 35
0.0
146
0.0
 13
0.0
 23
0.0
 33
0.0
 16
1.0
 26
0.0
 36
0.0
 17
0.0
 27
1.0
 37
0.0
 76
     0
330
1F
  0
MLINESTYLE
  5
18
102
{ACAD_REACTORS
330
17
102
}
330
17
100
AcDbMlineStyle
  2
Standard
 70
     0
  3

 62
   256
 51
90.0
 52
90.0
 71
     2
 49
0.5
 62
   256
  6
BYLAYER
 49
-0.5
 62
   256
  6
BYLAYER
  0
ACDBPLACEHOLDER
  5
F
102
{ACAD_REACTORS
330
E
102
}
330
E
  0
ENDSEC
  0
EOF
